  0
SECTION
  2
HEADER
  9
$ACADVER
  1
AC1015
  9
$ACADMAINTVER
 70
    18
  9
$DWGCODEPAGE
  3
ANSI_1252
  9
$INSBASE
 10
0.0
 20
0.0
 30
0.0
  9
$EXTMIN
 10
0.0
 20
0.0
 30
0.0
  9
$EXTMAX
 10
37.77777777777778
 20
24.44444444444445
 30
0.0
  9
$LIMMIN
 10
0.0
 20
0.0
  9
$LIMMAX
 10
37.77777777777778
 20
24.44444444444445
  9
$ORTHOMODE
 70
     0
  9
$REGENMODE
 70
     1
  9
$FILLMODE
 70
     1
  9
$QTEXTMODE
 70
     0
  9
$MIRRTEXT
 70
     0
  9
$LTSCALE
 40
2.222222222222222
  9
$ATTMODE
 70
     1
  9
$TEXTSIZE
 40
0.2
  9
$TRACEWID
 40
0.05
  9
$TEXTSTYLE
  7
Standard
  9
$CLAYER
  8
0
  9
$CELTYPE
  6
ByLayer
  9
$CECOLOR
 62
   256
  9
$CELTSCALE
 40
1.0
  9
$DISPSILH
 70
     0
  9
$DIMSCALE
 40
1.0
  9
$DIMASZ
 40
0.0708661417322835
  9
$DIMEXO
 40
0.0625
  9
$DIMDLI
 40
0.38
  9
$DIMRND
 40
0.0
  9
$DIMDLE
 40
0.0
  9
$DIMEXE
 40
0.18
  9
$DIMTP
 40
0.0
  9
$DIMTM
 40
0.0
  9
$DIMTXT
 40
0.0708661417322835
  9
$DIMCEN
 40
0.09
  9
$DIMTSZ
 40
0.0
  9
$DIMTOL
 70
     0
  9
$DIMLIM
 70
     0
  9
$DIMTIH
 70
     1
  9
$DIMTOH
 70
     1
  9
$DIMSE1
 70
     0
  9
$DIMSE2
 70
     0
  9
$DIMTAD
 70
     0
  9
$DIMZIN
 70
     0
  9
$DIMBLK
  1

  9
$DIMASO
 70
     1
  9
$DIMSHO
 70
     1
  9
$DIMPOST
  1

  9
$DIMAPOST
  1

  9
$DIMALT
 70
     0
  9
$DIMALTD
 70
     2
  9
$DIMALTF
 40
25.4
  9
$DIMLFAC
 40
1.0
  9
$DIMTOFL
 70
     0
  9
$DIMTVP
 40
0.0
  9
$DIMTIX
 70
     0
  9
$DIMSOXD
 70
     0
  9
$DIMSAH
 70
     0
  9
$DIMBLK1
  1

  9
$DIMBLK2
  1

  9
$DIMSTYLE
  2
STANDARD
  9
$DIMCLRD
 70
     0
  9
$DIMCLRE
 70
     0
  9
$DIMCLRT
 70
     0
  9
$DIMTFAC
 40
1.0
  9
$DIMGAP
 40
0.09
  9
$DIMJUST
 70
     0
  9
$DIMSD1
 70
     0
  9
$DIMSD2
 70
     0
  9
$DIMTOLJ
 70
     1
  9
$DIMTZIN
 70
     0
  9
$DIMALTZ
 70
     0
  9
$DIMALTTZ
 70
     0
  9
$DIMUPT
 70
     0
  9
$DIMDEC
 70
     4
  9
$DIMTDEC
 70
     4
  9
$DIMALTU
 70
     2
  9
$DIMALTTD
 70
     2
  9
$DIMTXSTY
  7
Standard
  9
$DIMAUNIT
 70
     0
  9
$DIMADEC
 70
     0
  9
$DIMALTRND
 40
0.0
  9
$DIMAZIN
 70
     0
  9
$DIMDSEP
 70
    46
  9
$DIMATFIT
 70
     3
  9
$DIMFRAC
 70
     0
  9
$DIMLDRBLK
  1

  9
$DIMLUNIT
 70
     2
  9
$DIMLWD
 70
    -2
  9
$DIMLWE
 70
    -2
  9
$DIMTMOVE
 70
     0
  9
$LUNITS
 70
     2
  9
$LUPREC
 70
     4
  9
$SKETCHINC
 40
0.1
  9
$FILLETRAD
 40
0.0
  9
$AUNITS
 70
     0
  9
$AUPREC
 70
     0
  9
$MENU
  1
.
  9
$ELEVATION
 40
0.0
  9
$PELEVATION
 40
0.0
  9
$THICKNESS
 40
0.0
  9
$LIMCHECK
 70
     0
  9
$CHAMFERA
 40
0.0
  9
$CHAMFERB
 40
0.0
  9
$CHAMFERC
 40
0.0
  9
$CHAMFERD
 40
0.0
  9
$SKPOLY
 70
     0
  9
$TDCREATE
 40
2455950.580221285
  9
$TDUCREATE
 40
2455950.830221285
  9
$TDUPDATE
 40
2455950.580221285
  9
$TDUUPDATE
 40
2455950.830221285
  9
$TDINDWG
 40
0.0000406944
  9
$TDUSRTIMER
 40
0.0000406944
  9
$USRTIMER
 70
     1
  9
$ANGBASE
 50
0.0
  9
$ANGDIR
 70
     0
  9
$PDMODE
 70
     0
  9
$PDSIZE
 40
0.0
  9
$PLINEWID
 40
0.0
  9
$SPLFRAME
 70
     0
  9
$SPLINETYPE
 70
     6
  9
$SPLINESEGS
 70
     8
  9
$HANDSEED
  5
8D1
  9
$SURFTAB1
 70
     6
  9
$SURFTAB2
 70
     6
  9
$SURFTYPE
 70
     6
  9
$SURFU
 70
     6
  9
$SURFV
 70
     6
  9
$UCSBASE
  2

  9
$UCSNAME
  2

  9
$UCSORG
 10
0.0
 20
0.0
 30
0.0
  9
$UCSXDIR
 10
1.0
 20
0.0
 30
0.0
  9
$UCSYDIR
 10
0.0
 20
1.0
 30
0.0
  9
$UCSORTHOREF
  2

  9
$UCSORTHOVIEW
 70
     0
  9
$UCSORGTOP
 10
0.0
 20
0.0
 30
0.0
  9
$UCSORGBOTTOM
 10
0.0
 20
0.0
 30
0.0
  9
$UCSORGLEFT
 10
0.0
 20
0.0
 30
0.0
  9
$UCSORGRIGHT
 10
0.0
 20
0.0
 30
0.0
  9
$UCSORGFRONT
 10
0.0
 20
0.0
 30
0.0
  9
$UCSORGBACK
 10
0.0
 20
0.0
 30
0.0
  9
$PUCSBASE
  2

  9
$PUCSNAME
  2

  9
$PUCSORG
 10
0.0
 20
0.0
 30
0.0
  9
$PUCSXDIR
 10
1.0
 20
0.0
 30
0.0
  9
$PUCSYDIR
 10
0.0
 20
1.0
 30
0.0
  9
$PUCSORTHOREF
  2

  9
$PUCSORTHOVIEW
 70
     0
  9
$PUCSORGTOP
 10
0.0
 20
0.0
 30
0.0
  9
$PUCSORGBOTTOM
 10
0.0
 20
0.0
 30
0.0
  9
$PUCSORGLEFT
 10
0.0
 20
0.0
 30
0.0
  9
$PUCSORGRIGHT
 10
0.0
 20
0.0
 30
0.0
  9
$PUCSORGFRONT
 10
0.0
 20
0.0
 30
0.0
  9
$PUCSORGBACK
 10
0.0
 20
0.0
 30
0.0
  9
$USERI1
 70
     0
  9
$USERI2
 70
     0
  9
$USERI3
 70
     0
  9
$USERI4
 70
     0
  9
$USERI5
 70
     0
  9
$USERR1
 40
0.0
  9
$USERR2
 40
0.0
  9
$USERR3
 40
0.0
  9
$USERR4
 40
0.0
  9
$USERR5
 40
0.0
  9
$WORLDVIEW
 70
     1
  9
$SHADEDGE
 70
     3
  9
$SHADEDIF
 70
    70
  9
$TILEMODE
 70
     1
  9
$MAXACTVP
 70
    64
  9
$PINSBASE
 10
0.0
 20
0.0
 30
0.0
  9
$PLIMCHECK
 70
     0
  9
$PEXTMIN
 10
0.0
 20
0.0
 30
0.0
  9
$PEXTMAX
 10
37.77777777777778
 20
24.44444444444445
 30
0.0
  9
$PLIMMIN
 10
0.0
 20
0.0
  9
$PLIMMAX
 10
37.77777777777778
 20
24.44444444444445
  9
$UNITMODE
 70
     0
  9
$VISRETAIN
 70
     1
  9
$PLINEGEN
 70
     0
  9
$PSLTSCALE
 70
     1
  9
$TREEDEPTH
 70
  3020
  9
$CMLSTYLE
  2
Standard
  9
$CMLJUST
 70
     0
  9
$CMLSCALE
 40
1.0
  9
$PROXYGRAPHICS
 70
     1
  9
$MEASUREMENT
 70
     0
  9
$CELWEIGHT
370
    -1
  9
$ENDCAPS
280
     0
  9
$JOINSTYLE
280
     0
  9
$LWDISPLAY
290
     0
  9
$INSUNITS
 70
     1
  9
$HYPERLINKBASE
  1

  9
$STYLESHEET
  1

  9
$XEDIT
290
     1
  9
$CEPSNTYPE
380
     0
  9
$PSTYLEMODE
290
     1
  9
$FINGERPRINTGUID
  2
{2520ACE6-BD03-430C-A2D4-0528FD60E937}
  9
$VERSIONGUID
  2
{633F4B0F-9F0D-4FCC-ABA7-3A922999CF6C}
  9
$EXTNAMES
290
     1
  9
$PSVPSCALE
 40
0.0
  9
$OLESTARTUP
290
     0
  0
ENDSEC
  0
SECTION
  2
CLASSES
  0
CLASS
  1
ACDBDICTIONARYWDFLT
  2
AcDbDictionaryWithDefault
  3
ObjectDBX Classes
 90
        0
280
     0
281
     0
  0
CLASS
  1
MATERIAL
  2
AcDbMaterial
  3
ObjectDBX Classes
 90
     1153
280
     0
281
     0
  0
CLASS
  1
VISUALSTYLE
  2
AcDbVisualStyle
  3
ObjectDBX Classes
 90
     4095
280
     0
281
     0
  0
CLASS
  1
SCALE
  2
AcDbScale
  3
ObjectDBX Classes
 90
     1153
280
     0
281
     0
  0
CLASS
  1
TABLESTYLE
  2
AcDbTableStyle
  3
ObjectDBX Classes
 90
     4095
280
     0
281
     0
  0
CLASS
  1
MLEADERSTYLE
  2
AcDbMLeaderStyle
  3
ACDB_MLEADERSTYLE_CLASS
 90
     4095
280
     0
281
     0
  0
CLASS
  1
DICTIONARYVAR
  2
AcDbDictionaryVar
  3
ObjectDBX Classes
 90
        0
280
     0
281
     0
  0
CLASS
  1
CELLSTYLEMAP
  2
AcDbCellStyleMap
  3
ObjectDBX Classes
 90
     1152
280
     0
281
     0
  0
CLASS
  1
ACDBPLACEHOLDER
  2
AcDbPlaceHolder
  3
ObjectDBX Classes
 90
        0
280
     0
281
     0
  0
CLASS
  1
LAYOUT
  2
AcDbLayout
  3
ObjectDBX Classes
 90
        0
280
     0
281
     0
  0
ENDSEC
  0
SECTION
  2
TABLES
  0
TABLE
  2
VPORT
  5
8
330
0
100
AcDbSymbolTable
 70
     1
  0
VPORT
  5
57
330
8
100
AcDbSymbolTableRecord
100
AcDbViewportTableRecord
  2
*Active
 70
     0
 10
0.0
 20
0.0
 11
1.0
 21
1.0
 12
18.88888888888889
 22
12.22222222222222
 13
0.0
 23
0.0
 14
1.0
 24
1.0
 15
0.0
 25
0.0
 16
0.0
 26
0.0
 36
1.0
 17
0.0
 27
0.0
 37
0.0
 40
24.44444444444445
 41
1.545454545454545
 42
50.0
 43
0.0
 44
0.0
 50
0.0
 51
0.0
 71
     0
 72
   100
 73
     1
 74
     1
 75
     0
 76
     0
 77
     0
 78
     0
281
     0
 65
     1
110
0.0
120
0.0
130
0.0
111
1.0
121
0.0
131
0.0
112
0.0
122
1.0
132
0.0
 79
     0
146
0.0
  0
ENDTAB
  0
TABLE
  2
LTYPE
  5
5
330
0
100
AcDbSymbolTable
 70
    59
  0
LTYPE
  5
5B
330
5
100
AcDbSymbolTableRecord
100
AcDbLinetypeTableRecord
  2
ByBlock
 70
     0
  3

 72
    65
 73
     0
 40
0.0
  0
LTYPE
  5
5C
330
5
100
AcDbSymbolTableRecord
100
AcDbLinetypeTableRecord
  2
ByLayer
 70
     0
  3

 72
    65
 73
     0
 40
0.0
  0
LTYPE
  5
5D
330
5
100
AcDbSymbolTableRecord
100
AcDbLinetypeTableRecord
  2
Continuous
 70
     0
  3
Solid line
 72
    65
 73
     0
 40
0.0
  0
LTYPE
  5
7C
330
5
100
AcDbSymbolTableRecord
100
AcDbLinetypeTableRecord
  2
BY_STANDARD
 70
     0
  3
By Standard ____________    ____    ____   _
 72
    65
 73
     6
 40
1.240299999999999
 49
0.6614
 74
     0
 49
-0.0827
 74
     0
 49
0.1654
 74
     0
 49
-0.0827
 74
     0
 49
0.1654
 74
     0
 49
-0.0827
 74
     0
  0
LTYPE
  5
7D
330
5
100
AcDbSymbolTableRecord
100
AcDbLinetypeTableRecord
  2
CHAIN
 70
     0
  3
Chain ____ _ ____ _ ____ _ ____ _ ____ _ ____
 72
    65
 73
     4
 40
0.7087
 49
0.4724000000000001
 74
     0
 49
-0.0591
 74
     0
 49
0.1181
 74
     0
 49
-0.0591
 74
     0
  0
LTYPE
  5
7E
330
5
100
AcDbSymbolTableRecord
100
AcDbLinetypeTableRecord
  2
DASH_DOT
 70
     0
  3
Dash dot __ . __ . __ . __ . __ . __ . __ . __
 72
    65
 73
     4
 40
0.37
 49
0.24
 74
     0
 49
-0.06
 74
     0
 49
0.01
 74
     0
 49
-0.06
 74
     0
  0
LTYPE
  5
7F
330
5
100
AcDbSymbolTableRecord
100
AcDbLinetypeTableRecord
  2
DOUBLE_DASH_DOT
 70
     0
  3
Double-Dash Dot __ __ . __ __ . __ __ . __ _
 72
    65
 73
     6
 40
0.4398
 49
0.24
 74
     0
 49
-0.06
 74
     0
 49
0.0098
 74
     0
 49
-0.06
 74
     0
 49
0.01
 74
     0
 49
-0.06
 74
     0
  0
LTYPE
  5
80
330
5
100
AcDbSymbolTableRecord
100
AcDbLinetypeTableRecord
  2
DASH_TRIPLE_DOT
 70
     0
  3
Dash Triple-Dot _ . . . _ . . . _ . . . _
 72
    65
 73
     8
 40
0.51
 49
0.24
 74
     0
 49
-0.06
 74
     0
 49
0.01
 74
     0
 49
-0.06
 74
     0
 49
0.01
 74
     0
 49
-0.06
 74
     0
 49
0.01
 74
     0
 49
-0.06
 74
     0
  0
LTYPE
  5
81
330
5
100
AcDbSymbolTableRecord
100
AcDbLinetypeTableRecord
  2
DASHED
 70
     0
  3
Dashed __ __ __ __ __ __ __ __ __ __ __ __ __ _
 72
    65
 73
     2
 40
0.2067
 49
0.1654
 74
     0
 49
-0.0413
 74
     0
  0
LTYPE
  5
82
330
5
100
AcDbSymbolTableRecord
100
AcDbLinetypeTableRecord
  2
DASH_DOUBLE_DOT
 70
     0
  3
Dash Double-Dot __ . . __ . . __ . . __ . .
 72
    65
 73
     6
 40
0.4398
 49
0.24
 74
     0
 49
-0.06
 74
     0
 49
0.0098
 74
     0
 49
-0.06
 74
     0
 49
0.01
 74
     0
 49
-0.06
 74
     0
  0
LTYPE
  5
83
330
5
100
AcDbSymbolTableRecord
100
AcDbLinetypeTableRecord
  2
DASHED_SPACE
 70
     0
  3
Dashed Space __ __ __ __ __ __ __ __ __ __ __ _
 72
    65
 73
     2
 40
0.2067
 49
0.1654
 74
     0
 49
-0.0413
 74
     0
  0
LTYPE
  5
84
330
5
100
AcDbSymbolTableRecord
100
AcDbLinetypeTableRecord
  2
DOTTED
 70
     0
  3
Dotted . . . . . . . . . . . . . . . . . . . . 
 72
    65
 73
     2
 40
0.0482
 49
0.0069
 74
     0
 49
-0.0413
 74
     0
  0
LTYPE
  5
85
330
5
100
AcDbSymbolTableRecord
100
AcDbLinetypeTableRecord
  2
DOUBLE_DASH_CHAIN
 70
     0
  3
Double-Dash Chain ______  __  __  ______  __  _
 72
    65
 73
     6
 40
1.240299999999999
 49
0.6614
 74
     0
 49
-0.0827
 74
     0
 49
0.1654
 74
     0
 49
-0.0827
 74
     0
 49
0.1654
 74
     0
 49
-0.0827
 74
     0
  0
LTYPE
  5
87
330
5
100
AcDbSymbolTableRecord
100
AcDbLinetypeTableRecord
  2
DOUBLE_DASH_DOUBLE_DOT
 70
     0
  3
Double-Dash Double-dot _ _ . . _ _ . . _
 72
    65
 73
     8
 40
0.7400000000000001
 49
0.24
 74
     0
 49
-0.06
 74
     0
 49
0.24
 74
     0
 49
-0.06
 74
     0
 49
0.01
 74
     0
 49
-0.06
 74
     0
 49
0.01
 74
     0
 49
-0.06
 74
     0
  0
LTYPE
  5
88
330
5
100
AcDbSymbolTableRecord
100
AcDbLinetypeTableRecord
  2
DOUBLE_DASH_TRIPLE_DOT
 70
     0
  3
Double Dash Triple Dot __ __ . . . __ __ . .
 72
    65
 73
    10
 40
0.8100000000000001
 49
0.24
 74
     0
 49
-0.06
 74
     0
 49
0.24
 74
     0
 49
-0.06
 74
     0
 49
0.01
 74
     0
 49
-0.06
 74
     0
 49
0.01
 74
     0
 49
-0.06
 74
     0
 49
0.01
 74
     0
 49
-0.06
 74
     0
  0
LTYPE
  5
89
330
5
100
AcDbSymbolTableRecord
100
AcDbLinetypeTableRecord
  2
LONG_DASH_DOTTED
 70
     0
  3
Long Dash Dotted ____ . ____ . ____ . ____ . _
 72
    65
 73
     4
 40
0.3543
 49
0.2362
 74
     0
 49
-0.0295
 74
     0
 49
0.0591
 74
     0
 49
-0.0295
 74
     0
  0
LTYPE
  5
8A
330
5
100
AcDbSymbolTableRecord
100
AcDbLinetypeTableRecord
  2
LONG_DASH_DOUBLE_DOT
 70
     0
  3
Long Dash Double Dot ________  .  .  ________  
 72
    65
 73
     6
 40
0.6799999999999999
 49
0.48
 74
     0
 49
-0.06
 74
     0
 49
0.01
 74
     0
 49
-0.06
 74
     0
 49
0.01
 74
     0
 49
-0.06
 74
     0
  0
LTYPE
  5
8B
330
5
100
AcDbSymbolTableRecord
100
AcDbLinetypeTableRecord
  2
LONG_DASH_TRIPLE_DOT
 70
     0
  3
Long Dash Triple Dot ____ ... ____ ... ____
 72
    65
 73
     8
 40
0.3689
 49
0.2362
 74
     0
 49
-0.0295
 74
     0
 49
0.0049
 74
     0
 49
-0.0295
 74
     0
 49
0.0049
 74
     0
 49
-0.0295
 74
     0
 49
0.0049
 74
     0
 49
-0.0295
 74
     0
  0
LTYPE
  5
8C
330
5
100
AcDbSymbolTableRecord
100
AcDbLinetypeTableRecord
  2
BORDER
 70
     0
  3
Border __ __ . __ __ . __ __ . __ __ . __ __ .
 72
    65
 73
     6
 40
1.75
 49
0.5
 74
     0
 49
-0.25
 74
     0
 49
0.5
 74
     0
 49
-0.25
 74
     0
 49
0.0
 74
     0
 49
-0.25
 74
     0
  0
LTYPE
  5
8D
330
5
100
AcDbSymbolTableRecord
100
AcDbLinetypeTableRecord
  2
BORDER2
 70
     0
  3
Border (.5x) __.__.__.__.__.__.__.__.__.__.__.
 72
    65
 73
     6
 40
0.875
 49
0.25
 74
     0
 49
-0.125
 74
     0
 49
0.25
 74
     0
 49
-0.125
 74
     0
 49
0.0
 74
     0
 49
-0.125
 74
     0
  0
LTYPE
  5
8E
330
5
100
AcDbSymbolTableRecord
100
AcDbLinetypeTableRecord
  2
BORDERX2
 70
     0
  3
Border (2x) ____  ____  .  ____  ____  .  ___
 72
    65
 73
     6
 40
3.5
 49
1.0
 74
     0
 49
-0.5
 74
     0
 49
1.0
 74
     0
 49
-0.5
 74
     0
 49
0.0
 74
     0
 49
-0.5
 74
     0
  0
LTYPE
  5
8F
330
5
100
AcDbSymbolTableRecord
100
AcDbLinetypeTableRecord
  2
CENTER
 70
     0
  3
Center ____ _ ____ _ ____ _ ____ _ ____ _ ____
 72
    65
 73
     4
 40
2.0
 49
1.25
 74
     0
 49
-0.25
 74
     0
 49
0.25
 74
     0
 49
-0.25
 74
     0
  0
LTYPE
  5
90
330
5
100
AcDbSymbolTableRecord
100
AcDbLinetypeTableRecord
  2
CENTER2
 70
     0
  3
Center (.5x) ___ _ ___ _ ___ _ ___ _ ___ _ ___
 72
    65
 73
     4
 40
1.125
 49
0.75
 74
     0
 49
-0.125
 74
     0
 49
0.125
 74
     0
 49
-0.125
 74
     0
  0
LTYPE
  5
91
330
5
100
AcDbSymbolTableRecord
100
AcDbLinetypeTableRecord
  2
CENTERX2
 70
     0
  3
Center (2x) ________  __  ________  __  _____
 72
    65
 73
     4
 40
4.0
 49
2.5
 74
     0
 49
-0.5
 74
     0
 49
0.5
 74
     0
 49
-0.5
 74
     0
  0
LTYPE
  5
92
330
5
100
AcDbSymbolTableRecord
100
AcDbLinetypeTableRecord
  2
DASHDOT2
 70
     0
  3
Dash dot (.5x) _._._._._._._._._._._._._._._.
 72
    65
 73
     4
 40
0.5
 49
0.25
 74
     0
 49
-0.125
 74
     0
 49
0.0
 74
     0
 49
-0.125
 74
     0
  0
LTYPE
  5
93
330
5
100
AcDbSymbolTableRecord
100
AcDbLinetypeTableRecord
  2
DASHDOTX2
 70
     0
  3
Dash dot (2x) ____  .  ____  .  ____  .  ___
 72
    65
 73
     4
 40
2.0
 49
1.0
 74
     0
 49
-0.5
 74
     0
 49
0.0
 74
     0
 49
-0.5
 74
     0
  0
LTYPE
  5
95
330
5
100
AcDbSymbolTableRecord
100
AcDbLinetypeTableRecord
  2
DASHED2
 70
     0
  3
Dashed (.5x) _ _ _ _ _ _ _ _ _ _ _ _ _ _ _ _ _
 72
    65
 73
     2
 40
0.375
 49
0.25
 74
     0
 49
-0.125
 74
     0
  0
LTYPE
  5
96
330
5
100
AcDbSymbolTableRecord
100
AcDbLinetypeTableRecord
  2
DASHEDX2
 70
     0
  3
Dashed (2x) ____  ____  ____  ____  ____  ___
 72
    65
 73
     2
 40
1.5
 49
1.0
 74
     0
 49
-0.5
 74
     0
  0
LTYPE
  5
97
330
5
100
AcDbSymbolTableRecord
100
AcDbLinetypeTableRecord
  2
DIVIDE
 70
     0
  3
Divide ____ . . ____ . . ____ . . ____ . . ____
 72
    65
 73
     6
 40
1.25
 49
0.5
 74
     0
 49
-0.25
 74
     0
 49
0.0
 74
     0
 49
-0.25
 74
     0
 49
0.0
 74
     0
 49
-0.25
 74
     0
  0
LTYPE
  5
98
330
5
100
AcDbSymbolTableRecord
100
AcDbLinetypeTableRecord
  2
DIVIDE2
 70
     0
  3
Divide (.5x) __..__..__..__..__..__..__..__.._
 72
    65
 73
     6
 40
0.625
 49
0.25
 74
     0
 49
-0.125
 74
     0
 49
0.0
 74
     0
 49
-0.125
 74
     0
 49
0.0
 74
     0
 49
-0.125
 74
     0
  0
LTYPE
  5
99
330
5
100
AcDbSymbolTableRecord
100
AcDbLinetypeTableRecord
  2
DIVIDEX2
 70
     0
  3
Divide (2x) ________  .  .  ________  .  .  _
 72
    65
 73
     6
 40
2.5
 49
1.0
 74
     0
 49
-0.5
 74
     0
 49
0.0
 74
     0
 49
-0.5
 74
     0
 49
0.0
 74
     0
 49
-0.5
 74
     0
  0
LTYPE
  5
9A
330
5
100
AcDbSymbolTableRecord
100
AcDbLinetypeTableRecord
  2
DOT
 70
     0
  3
Dot . . . . . . . . . . . . . . . . . . . . . .
 72
    65
 73
     2
 40
0.25
 49
0.0
 74
     0
 49
-0.25
 74
     0
  0
LTYPE
  5
9B
330
5
100
AcDbSymbolTableRecord
100
AcDbLinetypeTableRecord
  2
DOT2
 70
     0
  3
Dot (.5x) .....................................
 72
    65
 73
     2
 40
0.125
 49
0.0
 74
     0
 49
-0.125
 74
     0
  0
LTYPE
  5
9C
330
5
100
AcDbSymbolTableRecord
100
AcDbLinetypeTableRecord
  2
DOTX2
 70
     0
  3
Dot (2x) .  .  .  .  .  .  .  .  .  .  .  .  . 
 72
    65
 73
     2
 40
0.5
 49
0.0
 74
     0
 49
-0.5
 74
     0
  0
LTYPE
  5
9D
330
5
100
AcDbSymbolTableRecord
100
AcDbLinetypeTableRecord
  2
HIDDEN
 70
     0
  3
Hidden __ __ __ __ __ __ __ __ __ __ __ __ __ _
 72
    65
 73
     2
 40
0.375
 49
0.25
 74
     0
 49
-0.125
 74
     0
  0
LTYPE
  5
9E
330
5
100
AcDbSymbolTableRecord
100
AcDbLinetypeTableRecord
  2
HIDDEN2
 70
     0
  3
Hidden (.5x) _ _ _ _ _ _ _ _ _ _ _ _ _ _ _ _ _
 72
    65
 73
     2
 40
0.1875
 49
0.125
 74
     0
 49
-0.0625
 74
     0
  0
LTYPE
  5
9F
330
5
100
AcDbSymbolTableRecord
100
AcDbLinetypeTableRecord
  2
HIDDENX2
 70
     0
  3
Hidden (2x) ____ ____ ____ ____ ____ ____ ____
 72
    65
 73
     2
 40
0.75
 49
0.5
 74
     0
 49
-0.25
 74
     0
  0
LTYPE
  5
A0
330
5
100
AcDbSymbolTableRecord
100
AcDbLinetypeTableRecord
  2
PHANTOM
 70
     0
  3
Phantom ______  __  __  ______  __  __  ______
 72
    65
 73
     6
 40
2.5
 49
1.25
 74
     0
 49
-0.25
 74
     0
 49
0.25
 74
     0
 49
-0.25
 74
     0
 49
0.25
 74
     0
 49
-0.25
 74
     0
  0
LTYPE
  5
A1
330
5
100
AcDbSymbolTableRecord
100
AcDbLinetypeTableRecord
  2
PHANTOM2
 70
     0
  3
Phantom (.5x) ___ _ _ ___ _ _ ___ _ _ ___ _ _
 72
    65
 73
     6
 40
1.25
 49
0.625
 74
     0
 49
-0.125
 74
     0
 49
0.125
 74
     0
 49
-0.125
 74
     0
 49
0.125
 74
     0
 49
-0.125
 74
     0
  0
LTYPE
  5
A2
330
5
100
AcDbSymbolTableRecord
100
AcDbLinetypeTableRecord
  2
PHANTOMX2
 70
     0
  3
Phantom (2x) ____________    ____    ____   _
 72
    65
 73
     6
 40
5.0
 49
2.5
 74
     0
 49
-0.5
 74
     0
 49
0.5
 74
     0
 49
-0.5
 74
     0
 49
0.5
 74
     0
 49
-0.5
 74
     0
  0
LTYPE
  5
A3
330
5
100
AcDbSymbolTableRecord
100
AcDbLinetypeTableRecord
  2
ACAD_ISO02W100
 70
     0
  3
ISO dash __ __ __ __ __ __ __ __ __ __ __ __ __
 72
    65
 73
     2
 40
0.59
 49
0.47
 74
     0
 49
-0.12
 74
     0
  0
LTYPE
  5
A4
330
5
100
AcDbSymbolTableRecord
100
AcDbLinetypeTableRecord
  2
ACAD_ISO03W100
 70
     0
  3
ISO dash space __    __    __    __    __    __
 72
    65
 73
     2
 40
1.179999999999999
 49
0.47
 74
     0
 49
-0.71
 74
     0
  0
LTYPE
  5
A5
330
5
100
AcDbSymbolTableRecord
100
AcDbLinetypeTableRecord
  2
ACAD_ISO04W100
 70
     0
  3
ISO long-dash dot ____ . ____ . ____ . ____ . _
 72
    65
 73
     4
 40
1.179999999999999
 49
0.9399999999999998
 74
     0
 49
-0.12
 74
     0
 49
0.0
 74
     0
 49
-0.12
 74
     0
  0
LTYPE
  5
A6
330
5
100
AcDbSymbolTableRecord
100
AcDbLinetypeTableRecord
  2
ACAD_ISO05W100
 70
     0
  3
ISO long-dash double-dot ____ .. ____ .. ____ .
 72
    65
 73
     6
 40
1.299999999999999
 49
0.9399999999999998
 74
     0
 49
-0.12
 74
     0
 49
0.0
 74
     0
 49
-0.12
 74
     0
 49
0.0
 74
     0
 49
-0.12
 74
     0
  0
LTYPE
  5
A7
330
5
100
AcDbSymbolTableRecord
100
AcDbLinetypeTableRecord
  2
ACAD_ISO06W100
 70
     0
  3
ISO long-dash triple-dot ____ ... ____ ... ____
 72
    65
 73
     8
 40
1.419999999999999
 49
0.9399999999999998
 74
     0
 49
-0.12
 74
     0
 49
0.0
 74
     0
 49
-0.12
 74
     0
 49
0.0
 74
     0
 49
-0.12
 74
     0
 49
0.0
 74
     0
 49
-0.12
 74
     0
  0
LTYPE
  5
A8
330
5
100
AcDbSymbolTableRecord
100
AcDbLinetypeTableRecord
  2
ACAD_ISO07W100
 70
     0
  3
ISO dot . . . . . . . . . . . . . . . . . . . .
 72
    65
 73
     2
 40
0.12
 49
0.0
 74
     0
 49
-0.12
 74
     0
  0
LTYPE
  5
A9
330
5
100
AcDbSymbolTableRecord
100
AcDbLinetypeTableRecord
  2
ACAD_ISO08W100
 70
     0
  3
ISO long-dash short-dash ____ __ ____ __ ____ _
 72
    65
 73
     4
 40
0.95
 49
0.47
 74
     0
 49
-0.12
 74
     0
 49
0.24
 74
     0
 49
-0.12
 74
     0
  0
LTYPE
  5
AA
330
5
100
AcDbSymbolTableRecord
100
AcDbLinetypeTableRecord
  2
ACAD_ISO09W100
 70
     0
  3
ISO long-dash double-short-dash ____ __ __ ____
 72
    65
 73
     6
 40
1.31
 49
0.47
 74
     0
 49
-0.12
 74
     0
 49
0.24
 74
     0
 49
-0.12
 74
     0
 49
0.24
 74
     0
 49
-0.12
 74
     0
  0
LTYPE
  5
AB
330
5
100
AcDbSymbolTableRecord
100
AcDbLinetypeTableRecord
  2
ACAD_ISO10W100
 70
     0
  3
ISO dash dot __ . __ . __ . __ . __ . __ . __ .
 72
    65
 73
     4
 40
0.71
 49
0.47
 74
     0
 49
-0.12
 74
     0
 49
0.0
 74
     0
 49
-0.12
 74
     0
  0
LTYPE
  5
AC
330
5
100
AcDbSymbolTableRecord
100
AcDbLinetypeTableRecord
  2
ACAD_ISO11W100
 70
     0
  3
ISO double-dash dot __ __ . __ __ . __ __ . __ 
 72
    65
 73
     6
 40
1.299999999999999
 49
0.47
 74
     0
 49
-0.12
 74
     0
 49
0.47
 74
     0
 49
-0.12
 74
     0
 49
0.0
 74
     0
 49
-0.12
 74
     0
  0
LTYPE
  5
AD
330
5
100
AcDbSymbolTableRecord
100
AcDbLinetypeTableRecord
  2
ACAD_ISO12W100
 70
     0
  3
ISO dash double-dot __ . . __ . . __ . . __ . .
 72
    65
 73
     6
 40
0.8299999999999998
 49
0.47
 74
     0
 49
-0.12
 74
     0
 49
0.0
 74
     0
 49
-0.12
 74
     0
 49
0.0
 74
     0
 49
-0.12
 74
     0
  0
LTYPE
  5
AE
330
5
100
AcDbSymbolTableRecord
100
AcDbLinetypeTableRecord
  2
ACAD_ISO13W100
 70
     0
  3
ISO double-dash double-dot __ __ . . __ __ . . 
 72
    65
 73
     8
 40
1.419999999999999
 49
0.47
 74
     0
 49
-0.12
 74
     0
 49
0.47
 74
     0
 49
-0.12
 74
     0
 49
0.0
 74
     0
 49
-0.12
 74
     0
 49
0.0
 74
     0
 49
-0.12
 74
     0
  0
LTYPE
  5
AF
330
5
100
AcDbSymbolTableRecord
100
AcDbLinetypeTableRecord
  2
ACAD_ISO14W100
 70
     0
  3
ISO dash triple-dot __ . . . __ . . . __ . . . 
 72
    65
 73
     8
 40
0.95
 49
0.47
 74
     0
 49
-0.12
 74
     0
 49
0.0
 74
     0
 49
-0.12
 74
     0
 49
0.0
 74
     0
 49
-0.12
 74
     0
 49
0.0
 74
     0
 49
-0.12
 74
     0
  0
LTYPE
  5
B0
330
5
100
AcDbSymbolTableRecord
100
AcDbLinetypeTableRecord
  2
ACAD_ISO15W100
 70
     0
  3
ISO double-dash triple-dot __ __ . . . __ __ . 
 72
    65
 73
    10
 40
1.539999999999999
 49
0.47
 74
     0
 49
-0.12
 74
     0
 49
0.47
 74
     0
 49
-0.12
 74
     0
 49
0.0
 74
     0
 49
-0.12
 74
     0
 49
0.0
 74
     0
 49
-0.12
 74
     0
 49
0.0
 74
     0
 49
-0.12
 74
     0
  0
LTYPE
  5
B3
330
5
100
AcDbSymbolTableRecord
100
AcDbLinetypeTableRecord
  2
FENCELINE1
 70
     0
  3
Fenceline circle ----0-----0----0-----0----0---
 72
    65
 73
     4
 40
1.45
 49
0.25
 74
     0
 49
-0.1
 74
     4
 75
   133
340
B2
 46
0.1
 50
0.0
 44
-0.1
 45
0.0
 49
-0.1
 74
     0
 49
1.0
 74
     0
  0
LTYPE
  5
B4
330
5
100
AcDbSymbolTableRecord
100
AcDbLinetypeTableRecord
  2
FENCELINE2
 70
     0
  3
Fenceline square ----[]-----[]----[]-----[]----
 72
    65
 73
     4
 40
1.45
 49
0.25
 74
     0
 49
-0.1
 74
     4
 75
   132
340
B2
 46
0.1
 50
0.0
 44
-0.1
 45
0.0
 49
-0.1
 74
     0
 49
1.0
 74
     0
  0
LTYPE
  5
B5
330
5
100
AcDbSymbolTableRecord
100
AcDbLinetypeTableRecord
  2
TRACKS
 70
     0
  3
Tracks -|-|-|-|-|-|-|-|-|-|-|-|-|-|-|-|-|-|-|-|
 72
    65
 73
     2
 40
0.3
 49
0.15
 74
     4
 75
   130
340
B2
 46
0.25
 50
0.0
 44
0.0
 45
0.0
 49
0.15
 74
     0
  0
LTYPE
  5
B6
330
5
100
AcDbSymbolTableRecord
100
AcDbLinetypeTableRecord
  2
BATTING
 70
     0
  3
Batting SSSSSSSSSSSSSSSSSSSSSSSSSSSSSSSSSSSSSSS
 72
    65
 73
     4
 40
0.4001000000000001
 49
0.0001
 74
     0
 49
-0.1
 74
     4
 75
   134
340
B2
 46
0.1
 50
0.0
 44
-0.1
 45
0.0
 49
-0.2
 74
     4
 75
   134
340
B2
 46
0.1
 50
180.0
 44
0.1
 45
0.0
 49
-0.1
 74
     0
  0
LTYPE
  5
B7
330
5
100
AcDbSymbolTableRecord
100
AcDbLinetypeTableRecord
  2
HOT_WATER_SUPPLY
 70
     0
  3
Hot water supply ---- HW ---- HW ---- HW ----
 72
    65
 73
     3
 40
0.9
 49
0.5
 74
     0
 49
-0.2
 74
     2
 75
     0
340
55
 46
0.1
 50
0.0
 44
-0.1
 45
-0.05
  9
HW
 49
-0.2
 74
     0
  0
LTYPE
  5
B8
330
5
100
AcDbSymbolTableRecord
100
AcDbLinetypeTableRecord
  2
GAS_LINE
 70
     0
  3
Gas line ----GAS----GAS----GAS----GAS----GAS---
 72
    65
 73
     3
 40
0.95
 49
0.5
 74
     0
 49
-0.2
 74
     2
 75
     0
340
55
 46
0.1
 50
0.0
 44
-0.1
 45
-0.05
  9
GAS
 49
-0.25
 74
     0
  0
LTYPE
  5
B9
330
5
100
AcDbSymbolTableRecord
100
AcDbLinetypeTableRecord
  2
ZIGZAG
 70
     0
  3
Zig zag /\/\/\/\/\/\/\/\/\/\/\/\/\/\/\/\/\/\/\/
 72
    65
 73
     4
 40
0.8001000000000001
 49
0.0001
 74
     0
 49
-0.2
 74
     4
 75
   131
340
B2
 46
0.2
 50
0.0
 44
-0.2
 45
0.0
 49
-0.4
 74
     4
 75
   131
340
B2
 46
0.2
 50
180.0
 44
0.2
 45
0.0
 49
-0.2
 74
     0
  0
ENDTAB
  0
TABLE
  2
LAYER
  5
2
330
0
100
AcDbSymbolTable
 70
    27
  0
LAYER
  5
54
330
2
100
AcDbSymbolTableRecord
100
AcDbLayerTableRecord
  2
0
 70
     0
 62
     7
  6
Continuous
370
    18
390
F
  0
LAYER
  5
C3
330
2
100
AcDbSymbolTableRecord
100
AcDbLayerTableRecord
  2
Dimension (ANSI)
 70
     0
 62
     7
  6
Continuous
370
    13
390
F
  0
LAYER
  5
C5
330
2
100
AcDbSymbolTableRecord
100
AcDbLayerTableRecord
  2
Hidden (ANSI)
 70
     0
 62
     7
  6
DASHED
370
    15
390
F
  0
LAYER
  5
CC
330
2
100
AcDbSymbolTableRecord
100
AcDbLayerTableRecord
  2
Symbol (ANSI)
 70
     0
 62
     7
  6
Continuous
370
    18
390
F
  0
LAYER
  5
CF
330
2
100
AcDbSymbolTableRecord
100
AcDbLayerTableRecord
  2
Visible (ANSI)
 70
     0
 62
     7
  6
Continuous
370
    13
390
F
  0
LAYER
  5
D0
330
2
100
AcDbSymbolTableRecord
100
AcDbLayerTableRecord
  2
Visible Narrow (ANSI)
 70
     0
 62
     7
  6
Continuous
370
    18
390
F
  0
LAYER
  5
145
330
2
100
AcDbSymbolTableRecord
100
AcDbLayerTableRecord
  2
Defpoints
 70
     0
 62
     7
  6
Continuous
290
     0
370
    -3
390
F
  0
ENDTAB
  0
TABLE
  2
STYLE
  5
3
330
0
100
AcDbSymbolTable
 70
    18
  0
STYLE
  5
55
330
3
100
AcDbSymbolTableRecord
100
AcDbTextStyleTableRecord
  2
Standard
 70
     0
 40
0.0
 41
1.0
 50
0.0
 71
     0
 42
0.2
  3
txt
  4

  0
STYLE
  5
5A
330
3
100
AcDbSymbolTableRecord
100
AcDbTextStyleTableRecord
  2
Annotative
 70
     0
 40
0.0
 41
1.0
 50
0.0
 71
     0
 42
0.2
  3
txt
  4

1001
AcadAnnotative
1000
AnnotativeData
1002
{
1070
     1
1070
     1
1002
}
  0
STYLE
  5
B2
330
3
100
AcDbSymbolTableRecord
100
AcDbTextStyleTableRecord
  2

 70
     1
 40
0.0
 41
1.0
 50
0.0
 71
     0
 42
0.2
  3
ltypeshp.shx
  4

  0
STYLE
  5
D4
330
3
100
AcDbSymbolTableRecord
100
AcDbTextStyleTableRecord
  2
ITALICC_120
 70
     0
 40
0.0
 41
1.0
 50
0.0
 71
     0
 42
0.2
  3
italicc.shx
  4

  0
STYLE
  5
D5
330
3
100
AcDbSymbolTableRecord
100
AcDbTextStyleTableRecord
  2
Label Text (ANSI)
 70
     0
 40
0.0
 41
1.0
 50
0.0
 71
     0
 42
0.2
  3
TAHOMA.TTF
  4

1001
ACAD
1000
Tahoma
1071
      256
  0
STYLE
  5
D6
330
3
100
AcDbSymbolTableRecord
100
AcDbTextStyleTableRecord
  2
Note Text (ANSI)
 70
     0
 40
0.0
 41
1.0
 50
0.0
 71
     0
 42
0.2
  3
TAHOMA.TTF
  4

1001
ACAD
1000
Tahoma
1071
      256
  0
STYLE
  5
D7
330
3
100
AcDbSymbolTableRecord
100
AcDbTextStyleTableRecord
  2
ROMANS
 70
     0
 40
0.0
 41
1.0
 50
0.0
 71
     0
 42
0.2
  3
romans.shx
  4

  0
STYLE
  5
D8
330
3
100
AcDbSymbolTableRecord
100
AcDbTextStyleTableRecord
  2
SANSSERIF_114
 70
     0
 40
0.0
 41
1.0
 50
0.0
 71
     0
 42
0.2
  3
TAHOMA.TTF
  4

1001
ACAD
1000
Tahoma
1071
      256
  0
STYLE
  5
D9
330
3
100
AcDbSymbolTableRecord
100
AcDbTextStyleTableRecord
  2
SANSSERIF_117
 70
     0
 40
0.0
 41
1.0
 50
0.0
 71
     0
 42
0.2
  3
TAHOMA.TTF
  4

1001
ACAD
1000
Tahoma
1071
      256
  0
STYLE
  5
DA
330
3
100
AcDbSymbolTableRecord
100
AcDbTextStyleTableRecord
  2
STANDARDAM_ANSI
 70
     0
 40
0.0
 41
1.0
 50
0.0
 71
     0
 42
0.2
  3
txt.shx
  4

  0
STYLE
  5
DB
330
3
100
AcDbSymbolTableRecord
100
AcDbTextStyleTableRecord
  2
StandardAM_ANSI$0
 70
     0
 40
0.0
 41
1.0
 50
0.0
 71
     0
 42
0.2
  3
txt.shx
  4

  0
STYLE
  5
DC
330
3
100
AcDbSymbolTableRecord
100
AcDbTextStyleTableRecord
  2
STANDARDAM_ANSI$3
 70
     0
 40
0.0
 41
1.0
 50
0.0
 71
     0
 42
0.2
  3
txt.shx
  4

  0
STYLE
  5
DD
330
3
100
AcDbSymbolTableRecord
100
AcDbTextStyleTableRecord
  2
STANDARDAM_ANSI$4
 70
     0
 40
0.0
 41
1.0
 50
0.0
 71
     0
 42
0.2
  3
txt.shx
  4

  0
STYLE
  5
DE
330
3
100
AcDbSymbolTableRecord
100
AcDbTextStyleTableRecord
  2
STANDARDAM_ANSI$7
 70
     0
 40
0.0
 41
1.0
 50
0.0
 71
     0
 42
0.2
  3
txt.shx
  4

  0
STYLE
  5
DF
330
3
100
AcDbSymbolTableRecord
100
AcDbTextStyleTableRecord
  2
STANDARDAM_ANSI$SF
 70
     0
 40
0.0
 41
1.0
 50
0.0
 71
     0
 42
0.2
  3
txt.shx
  4

  0
STYLE
  5
E0
330
3
100
AcDbSymbolTableRecord
100
AcDbTextStyleTableRecord
  2
STANDARDAM_ANSI$SH
 70
     0
 40
0.0
 41
1.0
 50
0.0
 71
     0
 42
0.2
  3
txt.shx
  4

  0
STYLE
  5
E1
330
3
100
AcDbSymbolTableRecord
100
AcDbTextStyleTableRecord
  2
STANDARDSTANDARD
 70
     0
 40
0.0
 41
1.0
 50
0.0
 71
     0
 42
0.2
  3
txt.shx
  4

  0
STYLE
  5
132
330
3
100
AcDbSymbolTableRecord
100
AcDbTextStyleTableRecord
  2
Text Style150
 70
     0
 40
0.0
 41
1.0
 50
0.0
 71
     0
 42
0.2
  3
TAHOMA.TTF
  4

1001
ACAD
1000
Tahoma
1071
      256
  0
ENDTAB
  0
TABLE
  2
VIEW
  5
6
330
0
100
AcDbSymbolTable
 70
     0
  0
ENDTAB
  0
TABLE
  2
UCS
  5
7
330
0
100
AcDbSymbolTable
 70
     0
  0
ENDTAB
  0
TABLE
  2
APPID
  5
9
330
0
100
AcDbSymbolTable
 70
     4
  0
APPID
  5
56
330
9
100
AcDbSymbolTableRecord
100
AcDbRegAppTableRecord
  2
ACAD
 70
     0
  0
APPID
  5
5E
330
9
100
AcDbSymbolTableRecord
100
AcDbRegAppTableRecord
  2
AcadAnnotative
 70
     0
  0
APPID
  5
78F
330
9
100
AcDbSymbolTableRecord
100
AcDbRegAppTableRecord
  2
ACAD_DSTYLE_DIMRADIAL_EXTENSION
 70
     0
  0
APPID
  5
8C8
330
9
100
AcDbSymbolTableRecord
100
AcDbRegAppTableRecord
  2
ACAD_MLEADERVER
 70
     0
  0
ENDTAB
  0
TABLE
  2
DIMSTYLE
  5
A
330
0
100
AcDbSymbolTable
 70
    29
100
AcDbDimStyleTable
 71
     3
340
F6
340
58
340
F8
  0
DIMSTYLE
105
58
330
A
100
AcDbSymbolTableRecord
100
AcDbDimStyleTableRecord
  2
STANDARD
 70
     0
 41
0.1800000071525573
 42
0.0625
140
0.1800000071525574
144
1.0
147
0.0900000035762787
176
   256
177
   256
178
   256
274
     3
340
55
371
    -1
372
    -1
  0
DIMSTYLE
105
59
330
A
100
AcDbSymbolTableRecord
100
AcDbDimStyleTableRecord
  2
Annotative
 70
     0
340
55
1001
AcadAnnotative
1000
AnnotativeData
1002
{
1070
     1
1070
     1
1002
}
  0
DIMSTYLE
105
E2
330
A
100
AcDbSymbolTableRecord
100
AcDbDimStyleTableRecord
  2
AM_ANSI
 70
     0
  4
 mm
 40
2.222222222222222
 41
0.119999997317791
 42
0.05
 43
0.5
 44
0.1
 45
0.00000001
 78
     4
 79
     2
140
0.1200000047683716
146
0.7099999453624112
147
0.0599999986588955
176
   256
177
   256
178
     2
284
     4
340
DA
371
    -1
372
    -1
  0
DIMSTYLE
105
E3
330
A
100
AcDbSymbolTableRecord
100
AcDbDimStyleTableRecord
  2
AM_ANSI$7
 70
     0
  4
 mm
 40
2.222222222222222
 41
0.119999997317791
 42
0.05
 43
0.5
 44
0.1
 45
0.00000001
 78
     4
 79
     2
140
0.1200000047683716
146
0.7099999453624112
147
0.0599999986588955
176
   256
177
   256
178
     2
284
     4
340
DA
371
    -1
372
    -1
  0
DIMSTYLE
105
E4
330
A
100
AcDbSymbolTableRecord
100
AcDbDimStyleTableRecord
  2
AM_ANSI$0
 70
     0
  4
 mm
 40
2.222222222222222
 41
0.119999997317791
 42
0.05
 43
0.5
 44
0.1
 45
0.00000001
 78
     4
 79
     2
140
0.1200000047683716
146
0.7099999453624112
147
0.0599999986588955
176
   256
177
   256
178
     2
284
     4
340
DB
371
    -1
372
    -1
  0
DIMSTYLE
105
E5
330
A
100
AcDbSymbolTableRecord
100
AcDbDimStyleTableRecord
  2
AM_ANSI$0$7
 70
     0
  4
 mm
 40
2.222222222222222
 41
0.119999997317791
 42
0.05
 43
0.5
 44
0.1
 45
0.00000001
 78
     4
 79
     2
140
0.1200000047683716
146
0.7099999453624112
147
0.0599999986588955
176
   256
177
   256
178
     2
284
     4
340
DB
371
    -1
372
    -1
  0
DIMSTYLE
105
E6
330
A
100
AcDbSymbolTableRecord
100
AcDbDimStyleTableRecord
  2
AM_ANSI$3
 70
     0
  4
 mm
 40
2.222222222222222
 41
0.119999997317791
 42
0.05
 43
0.5
 44
0.1
 45
0.00000001
 78
     4
 79
     2
140
0.1200000047683716
146
0.7099999453624112
147
0.0599999986588955
176
   256
177
   256
178
     2
284
     4
340
DC
371
    -1
372
    -1
  0
DIMSTYLE
105
E7
330
A
100
AcDbSymbolTableRecord
100
AcDbDimStyleTableRecord
  2
AM_ANSI$3$7
 70
     0
  4
 mm
 40
2.222222222222222
 41
0.119999997317791
 42
0.05
 43
0.5
 44
0.1
 45
0.00000001
 78
     4
 79
     2
140
0.1200000047683716
146
0.7099999453624112
147
0.0599999986588955
176
   256
177
   256
178
     2
284
     4
340
DC
371
    -1
372
    -1
  0
DIMSTYLE
105
E8
330
A
100
AcDbSymbolTableRecord
100
AcDbDimStyleTableRecord
  2
AM_ANSI$4
 70
     0
  4
 mm
 40
2.222222222222222
 41
0.119999997317791
 42
0.05
 43
0.5
 44
0.1
 45
0.00000001
 78
     4
 79
     2
140
0.1200000047683716
146
0.7099999453624112
147
0.0599999986588955
176
   256
177
   256
178
     2
284
     4
340
DD
371
    -1
372
    -1
  0
DIMSTYLE
105
E9
330
A
100
AcDbSymbolTableRecord
100
AcDbDimStyleTableRecord
  2
AM_ANSI$4$7
 70
     0
  4
 mm
 40
2.222222222222222
 41
0.119999997317791
 42
0.05
 43
0.5
 44
0.1
 45
0.00000001
 78
     4
 79
     2
140
0.1200000047683716
146
0.7099999453624112
147
0.0599999986588955
176
   256
177
   256
178
     2
284
     4
340
DD
371
    -1
372
    -1
  0
DIMSTYLE
105
EA
330
A
100
AcDbSymbolTableRecord
100
AcDbDimStyleTableRecord
  2
AM_ANSI$SF
 70
     0
  4
 mm
 40
2.222222222222222
 41
0.119999997317791
 42
0.05
 43
0.5
 44
0.1
 45
0.00000001
 75
     1
 76
     1
 78
     4
 79
     2
140
0.1200000047683716
146
0.7099999453624112
147
0.0599999986588955
176
   256
177
   256
178
     2
284
     4
340
DF
371
    -1
372
    -1
  0
DIMSTYLE
105
EB
330
A
100
AcDbSymbolTableRecord
100
AcDbDimStyleTableRecord
  2
AM_ANSI$SF$7
 70
     0
  4
 mm
 40
2.222222222222222
 41
0.119999997317791
 42
0.05
 43
0.5
 44
0.1
 45
0.00000001
 75
     1
 76
     1
 78
     4
 79
     2
140
0.1200000047683716
146
0.7099999453624112
147
0.0599999986588955
176
   256
177
   256
178
     2
284
     4
340
DF
371
    -1
372
    -1
  0
DIMSTYLE
105
EC
330
A
100
AcDbSymbolTableRecord
100
AcDbDimStyleTableRecord
  2
AM_ANSI$SH
 70
     0
  4
 mm
 40
2.222222222222222
 41
0.119999997317791
 42
0.05
 43
0.5
 44
0.1
 45
0.00000001
 75
     1
 76
     1
 78
     4
 79
     2
140
0.1200000047683716
146
0.7099999453624112
147
0.0599999986588955
176
   256
177
   256
178
     2
284
     4
340
E0
371
    -1
372
    -1
  0
DIMSTYLE
105
ED
330
A
100
AcDbSymbolTableRecord
100
AcDbDimStyleTableRecord
  2
AM_ANSI$SH$7
 70
     0
  4
 mm
 40
2.222222222222222
 41
0.119999997317791
 42
0.05
 43
0.5
 44
0.1
 45
0.00000001
 75
     1
 76
     1
 78
     4
 79
     2
140
0.1200000047683716
146
0.7099999453624112
147
0.0599999986588955
176
   256
177
   256
178
     2
284
     4
340
E0
371
    -1
372
    -1
  0
DIMSTYLE
105
EE
330
A
100
AcDbSymbolTableRecord
100
AcDbDimStyleTableRecord
  2
Architectural (ANSI)
 70
     0
 40
2.222222222222222
 41
0.0984251946210861
 43
0.2362204724409449
 44
0.125
 45
0.00000001
 46
0.3937007874015748
 78
     3
 79
     3
140
0.1200000047683716
147
0.031496062992126
171
     1
176
   256
177
   256
178
   256
272
     2
274
     1
276
     2
277
     4
284
    12
285
     4
286
    12
340
D6
371
    -1
372
    -1
  0
DIMSTYLE
105
EF
330
A
100
AcDbSymbolTableRecord
100
AcDbDimStyleTableRecord
  2
Architectural (ANSI)$7
 70
     0
 40
2.222222222222222
 41
0.0984251946210861
 43
0.2362204724409449
 44
0.125
 45
0.00000001
 46
0.3937007874015748
 78
     3
 79
     3
140
0.1200000047683716
147
0.031496062992126
171
     1
176
   256
177
   256
178
   256
272
     2
274
     1
276
     2
277
     4
284
    12
285
     4
286
    12
340
D6
371
    -1
372
    -1
  0
DIMSTYLE
105
F0
330
A
100
AcDbSymbolTableRecord
100
AcDbDimStyleTableRecord
  2
Default - Fraction (ANSI)
 70
     0
 40
2.222222222222222
 41
0.0984251946210861
 43
0.2362204724409449
 44
0.125
 45
0.00000001
 46
0.3937007874015748
 79
     3
140
0.1200000047683716
147
0.031496062992126
171
     1
176
   256
177
   256
178
   256
272
     2
274
     1
276
     2
277
     5
284
    12
285
     4
286
    12
340
D6
371
    -1
372
    -1
  0
DIMSTYLE
105
F1
330
A
100
AcDbSymbolTableRecord
100
AcDbDimStyleTableRecord
  2
Default - Fraction (ANSI)$7
 70
     0
 40
2.222222222222222
 41
0.0984251946210861
 43
0.2362204724409449
 44
0.125
 45
0.00000001
 46
0.3937007874015748
 79
     3
140
0.1200000047683716
147
0.031496062992126
171
     1
176
   256
177
   256
178
   256
272
     2
274
     1
276
     2
277
     5
284
    12
285
     4
286
    12
340
D6
371
    -1
372
    -1
  0
DIMSTYLE
105
F2
330
A
100
AcDbSymbolTableRecord
100
AcDbDimStyleTableRecord
  2
Default - mm (ANSI)
 70
     0
 40
2.222222222222222
 41
0.0984251946210861
 42
0.063
 43
0.2362204724409449
 44
0.125
 45
0.00000001
 46
0.3937007874015748
 73
     0
 78
     4
 79
     1
140
0.1200000047683716
143
1.0
144
25.4
147
0.031496062992126
171
     1
176
   256
177
   256
178
   256
179
     1
271
     2
272
     2
274
     1
284
     4
285
     4
340
D6
371
    -1
372
    -1
  0
DIMSTYLE
105
F3
330
A
100
AcDbSymbolTableRecord
100
AcDbDimStyleTableRecord
  2
Default - mm (ANSI)$7
 70
     0
 40
2.222222222222222
 41
0.0984251946210861
 42
0.063
 43
0.2362204724409449
 44
0.125
 45
0.00000001
 46
0.3937007874015748
 73
     0
 78
     4
 79
     1
140
0.1200000047683716
143
1.0
144
25.4
147
0.031496062992126
171
     1
176
   256
177
   256
178
   256
179
     1
271
     2
272
     2
274
     1
284
     4
285
     4
340
D6
371
    -1
372
    -1
  0
DIMSTYLE
105
F4
330
A
100
AcDbSymbolTableRecord
100
AcDbDimStyleTableRecord
  2
Default - mm [in] (ANSI)
 70
     0
  4
 in
 40
2.222222222222222
 41
0.0984251946210861
 42
0.063
 43
0.25
 44
0.125
 45
0.00000001
 46
0.3937007874015748
 73
     0
 78
     4
 79
     1
140
0.1200000047683716
143
0.03937
144
25.4
147
0.031496062992126
170
     1
171
     3
176
   256
177
   256
178
   256
179
     1
271
     2
272
     2
274
     3
284
     4
285
     4
286
     4
340
D6
371
    -1
372
    -1
  0
DIMSTYLE
105
F5
330
A
100
AcDbSymbolTableRecord
100
AcDbDimStyleTableRecord
  2
Default - mm [in] (ANSI)$7
 70
     0
  4
 in
 40
2.222222222222222
 41
0.0984251946210861
 42
0.063
 43
0.25
 44
0.125
 45
0.00000001
 46
0.3937007874015748
 73
     0
 78
     4
 79
     1
140
0.1200000047683716
143
0.03937
144
25.4
147
0.031496062992126
170
     1
171
     3
176
   256
177
   256
178
   256
179
     1
271
     2
272
     2
274
     3
284
     4
285
     4
286
     4
340
D6
371
    -1
372
    -1
  0
DIMSTYLE
105
F6
102
{ACAD_REACTORS
330
52D
330
617
330
6F6
330
7B0
102
}
330
A
100
AcDbSymbolTableRecord
100
AcDbDimStyleTableRecord
  2
Default (ANSI)
 70
     0
 40
2.222222222222222
 41
0.0984251946210861
 43
0.2362204724409449
 44
0.125
 45
0.00000001
 46
0.3937007874015748
 79
     1
140
0.1200000047683716
147
0.031496062992126
171
     1
176
   256
177
   256
178
   256
271
     3
272
     2
274
     1
284
     4
285
     4
340
D6
371
    -1
372
    -1
  0
DIMSTYLE
105
F7
330
A
100
AcDbSymbolTableRecord
100
AcDbDimStyleTableRecord
  2
Default (ANSI)$7
 70
     0
 40
2.222222222222222
 41
0.0984251946210861
 43
0.2362204724409449
 44
0.125
 45
0.00000001
 46
0.3937007874015748
 79
     1
140
0.1200000047683716
147
0.031496062992126
171
     1
176
   256
177
   256
178
   256
271
     3
272
     2
274
     1
284
     4
285
     4
340
D6
371
    -1
372
    -1
  0
DIMSTYLE
105
F8
102
{ACAD_REACTORS
330
143
330
22F
330
319
330
42F
102
}
330
A
100
AcDbSymbolTableRecord
100
AcDbDimStyleTableRecord
  2
Default (ANSI)-01
 70
     0
 40
2.222222222222222
 41
0.0984251946210861
 43
0.2362204724409449
 44
0.125
 45
0.00000001
 46
0.3937007874015748
 79
     1
140
0.1200000047683716
147
0.031496062992126
171
     1
176
   256
177
   256
178
   256
271
     2
272
     2
274
     1
284
     4
285
     4
340
D6
371
    -1
372
    -1
  0
DIMSTYLE
105
F9
330
A
100
AcDbSymbolTableRecord
100
AcDbDimStyleTableRecord
  2
Default (ANSI)-01$7
 70
     0
 40
2.222222222222222
 41
0.0984251946210861
 43
0.2362204724409449
 44
0.125
 45
0.00000001
 46
0.3937007874015748
 79
     1
140
0.1200000047683716
147
0.031496062992126
171
     1
176
   256
177
   256
178
   256
271
     2
272
     2
274
     1
284
     4
285
     4
340
D6
371
    -1
372
    -1
  0
DIMSTYLE
105
FA
330
A
100
AcDbSymbolTableRecord
100
AcDbDimStyleTableRecord
  2
Alternate (ANSI)
 70
     0
 40
2.222222222222222
 41
0.0979999974370003
340
55
342
FB
  0
DIMSTYLE
105
10D
330
A
100
AcDbSymbolTableRecord
100
AcDbDimStyleTableRecord
  2
Datum (ANSI)
 70
     0
 40
2.222222222222222
 41
0.0979999974370003
340
55
342
FB
  0
DIMSTYLE
105
11C
330
A
100
AcDbSymbolTableRecord
100
AcDbDimStyleTableRecord
  2
Large (ANSI)
 70
     0
 40
2.222222222222222
 41
0.1959999948740005
340
55
342
FB
  0
ENDTAB
  0
TABLE
  2
BLOCK_RECORD
  5
1
330
0
100
AcDbSymbolTable
 70
    12
  0
BLOCK_RECORD
  5
6C
330
1
100
AcDbSymbolTableRecord
100
AcDbBlockTableRecord
  2
*Model_Space
340
6F
  0
BLOCK_RECORD
  5
68
330
1
100
AcDbSymbolTableRecord
100
AcDbBlockTableRecord
  2
*Paper_Space
340
6B
  0
BLOCK_RECORD
  5
70
330
1
100
AcDbSymbolTableRecord
100
AcDbBlockTableRecord
  2
*Paper_Space0
340
73
  0
BLOCK_RECORD
  5
FB
330
1
100
AcDbSymbolTableRecord
100
AcDbBlockTableRecord
  2
_Closed
340
0
  0
BLOCK_RECORD
  5
102
330
1
100
AcDbSymbolTableRecord
100
AcDbBlockTableRecord
  2
DatumFilled45
340
0
  0
BLOCK_RECORD
  5
10E
330
1
100
AcDbSymbolTableRecord
100
AcDbBlockTableRecord
  2
Filled-1
340
0
  0
BLOCK_RECORD
  5
146
330
1
100
AcDbSymbolTableRecord
100
AcDbBlockTableRecord
  2
*D4
340
0
  0
BLOCK_RECORD
  5
230
330
1
100
AcDbSymbolTableRecord
100
AcDbBlockTableRecord
  2
*D5
340
0
  0
BLOCK_RECORD
  5
31A
330
1
100
AcDbSymbolTableRecord
100
AcDbBlockTableRecord
  2
*D6
340
0
  0
BLOCK_RECORD
  5
430
330
1
100
AcDbSymbolTableRecord
100
AcDbBlockTableRecord
  2
*D7
340
0
  0
BLOCK_RECORD
  5
52E
330
1
100
AcDbSymbolTableRecord
100
AcDbBlockTableRecord
  2
*D8
340
0
  0
BLOCK_RECORD
  5
618
330
1
100
AcDbSymbolTableRecord
100
AcDbBlockTableRecord
  2
*D9
340
0
  0
BLOCK_RECORD
  5
6F7
330
1
100
AcDbSymbolTableRecord
100
AcDbBlockTableRecord
  2
*D10
340
0
  0
BLOCK_RECORD
  5
7B1
330
1
100
AcDbSymbolTableRecord
100
AcDbBlockTableRecord
  2
*D11
340
0
  0
ENDTAB
  0
ENDSEC
  0
SECTION
  2
BLOCKS
  0
BLOCK
  5
6D
330
6C
100
AcDbEntity
  8
0
100
AcDbBlockBegin
  2
*Model_Space
 70
     0
 10
0.0
 20
0.0
 30
0.0
  3
*Model_Space
  1

  0
ENDBLK
  5
6E
330
6C
100
AcDbEntity
  8
0
100
AcDbBlockEnd
  0
BLOCK
  5
69
330
68
100
AcDbEntity
 67
     1
  8
0
100
AcDbBlockBegin
  2
*Paper_Space
 70
     0
 10
0.0
 20
0.0
 30
0.0
  3
*Paper_Space
  1

  0
ENDBLK
  5
6A
330
68
100
AcDbEntity
 67
     1
  8
0
100
AcDbBlockEnd
  0
BLOCK
  5
71
330
70
100
AcDbEntity
 67
     1
  8
0
100
AcDbBlockBegin
  2
*Paper_Space0
 70
     0
 10
0.0
 20
0.0
 30
0.0
  3
*Paper_Space0
  1

  0
ENDBLK
  5
72
330
70
100
AcDbEntity
 67
     1
  8
0
100
AcDbBlockEnd
  0
BLOCK
  5
100
330
FB
100
AcDbEntity
  8
0
100
AcDbBlockBegin
  2
_Closed
 70
     0
 10
0.0
 20
0.0
 30
0.0
  3
_Closed
  1

  0
LINE
  5
FC
330
FB
100
AcDbEntity
  8
0
  6
ByBlock
 62
     0
370
    -2
100
AcDbLine
 10
-1.0
 20
0.1666666666666666
 30
0.0
 11
0.0
 21
0.0
 31
0.0
  0
LINE
  5
FD
330
FB
100
AcDbEntity
  8
0
  6
ByBlock
 62
     0
370
    -2
100
AcDbLine
 10
0.0
 20
0.0
 30
0.0
 11
-1.0
 21
-0.1666666666666666
 31
0.0
  0
LINE
  5
FE
330
FB
100
AcDbEntity
  8
0
  6
ByBlock
 62
     0
370
    -2
100
AcDbLine
 10
-1.0
 20
0.1666666666666666
 30
0.0
 11
-1.0
 21
-0.1666666666666666
 31
0.0
  0
LINE
  5
FF
330
FB
100
AcDbEntity
  8
0
  6
ByBlock
 62
     0
370
    -2
100
AcDbLine
 10
0.0
 20
0.0
 30
0.0
 11
-1.0
 21
0.0
 31
0.0
  0
ENDBLK
  5
101
330
FB
100
AcDbEntity
  8
0
100
AcDbBlockEnd
  0
BLOCK
  5
103
330
102
100
AcDbEntity
  8
0
100
AcDbBlockBegin
  2
DatumFilled45
 70
     0
 10
0.0
 20
0.0
 30
0.0
  3
DatumFilled45
  1

  0
POLYLINE
  5
105
330
102
100
AcDbEntity
  8
0
 62
     0
100
AcDb2dPolyline
 66
     1
 10
0.0
 20
0.0
 30
0.0
 70
   128
  0
VERTEX
  5
106
330
105
100
AcDbEntity
  8
0
 62
     0
100
AcDbVertex
100
AcDb2dVertex
 10
0.0
 20
0.9999999999999998
 30
0.0
  0
VERTEX
  5
107
330
105
100
AcDbEntity
  8
0
 62
     0
100
AcDbVertex
100
AcDb2dVertex
 10
0.0
 20
-0.9999999999999998
 30
0.0
  0
VERTEX
  5
109
330
105
100
AcDbEntity
  8
0
 62
     0
100
AcDbVertex
100
AcDb2dVertex
 10
-0.9999999999999998
 20
0.0
 30
0.0
  0
VERTEX
  5
10A
330
105
100
AcDbEntity
  8
0
 62
     0
100
AcDbVertex
100
AcDb2dVertex
 10
0.0
 20
0.9999999999999998
 30
0.0
  0
SEQEND
  5
108
330
105
100
AcDbEntity
  8
0
 62
     0
  0
SOLID
  5
10C
330
102
100
AcDbEntity
  8
0
 62
     0
100
AcDbTrace
 10
0.0
 20
0.9999999999999998
 30
0.0
 11
0.0
 21
-0.9999999999999998
 31
0.0
 12
-0.9999999999999998
 22
0.0
 32
0.0
 13
0.0
 23
0.9999999999999998
 33
0.0
  0
ENDBLK
  5
104
330
102
100
AcDbEntity
  8
0
100
AcDbBlockEnd
  0
BLOCK
  5
10F
330
10E
100
AcDbEntity
  8
0
100
AcDbBlockBegin
  2
Filled-1
 70
     0
 10
0.0
 20
0.0
 30
0.0
  3
Filled-1
  1

  0
LINE
  5
111
330
10E
100
AcDbEntity
  8
0
 62
     0
100
AcDbLine
 10
-0.9999999999999998
 20
0.0
 30
0.0
 11
0.0
 21
0.0
 31
0.0
  0
POLYLINE
  5
112
330
10E
100
AcDbEntity
  8
0
 62
     0
100
AcDb2dPolyline
 66
     1
 10
0.0
 20
0.0
 30
0.0
 70
   128
  0
VERTEX
  5
113
330
112
100
AcDbEntity
  8
0
 62
     0
100
AcDbVertex
100
AcDb2dVertex
 10
-0.9999999999999998
 20
-0.0994897959183674
 30
0.0
  0
VERTEX
  5
114
330
112
100
AcDbEntity
  8
0
 62
     0
100
AcDbVertex
100
AcDb2dVertex
 10
0.0
 20
0.0
 30
0.0
  0
VERTEX
  5
116
330
112
100
AcDbEntity
  8
0
 62
     0
100
AcDbVertex
100
AcDb2dVertex
 10
-0.9999999999999998
 20
0.0994897959183674
 30
0.0
  0
VERTEX
  5
117
330
112
100
AcDbEntity
  8
0
 62
     0
100
AcDbVertex
100
AcDb2dVertex
 10
-0.9999999999999998
 20
-0.0994897959183674
 30
0.0
  0
SEQEND
  5
115
330
112
100
AcDbEntity
  8
0
 62
     0
  0
SOLID
  5
118
330
10E
100
AcDbEntity
  8
0
 62
     0
100
AcDbTrace
 10
-0.9999999999999998
 20
-0.0994897959183674
 30
0.0
 11
0.0
 21
0.0
 31
0.0
 12
-0.9999999999999998
 22
0.0994897959183674
 32
0.0
 13
-0.9999999999999998
 23
-0.0994897959183674
 33
0.0
  0
LINE
  5
119
330
10E
100
AcDbEntity
  8
0
 62
     0
100
AcDbLine
 10
-0.9999999999999998
 20
-0.0994897959183674
 30
0.0
 11
0.0
 21
0.0
 31
0.0
  0
LINE
  5
11A
330
10E
100
AcDbEntity
  8
0
 62
     0
100
AcDbLine
 10
0.0
 20
0.0
 30
0.0
 11
-0.9999999999999998
 21
0.0994897959183674
 31
0.0
  0
LINE
  5
11B
330
10E
100
AcDbEntity
  8
0
 62
     0
100
AcDbLine
 10
-0.9999999999999998
 20
0.0994897959183674
 30
0.0
 11
-0.9999999999999998
 21
-0.0994897959183674
 31
0.0
  0
ENDBLK
  5
110
330
10E
100
AcDbEntity
  8
0
100
AcDbBlockEnd
  0
BLOCK
  5
147
330
146
100
AcDbEntity
  8
0
100
AcDbBlockBegin
  2
*D4
 70
     1
 10
0.0
 20
0.0
 30
0.0
  3
*D4
  1

  0
LINE
  5
225
330
146
100
AcDbEntity
  8
Dimension (ANSI)
100
AcDbLine
 10
15.35010989560026
 20
8.665378491830342
 30
0.0
 11
15.35010989560026
 21
4.589481728925705
 31
0.0
  0
LINE
  5
226
330
146
100
AcDbEntity
  8
Dimension (ANSI)
100
AcDbLine
 10
4.470109895600261
 20
8.665378491830342
 30
0.0
 11
4.470109895600261
 21
4.589481728925705
 31
0.0
  0
LINE
  5
227
330
146
100
AcDbEntity
  8
Dimension (ANSI)
100
AcDbLine
 10
15.13138724088674
 20
4.867259506703483
 30
0.0
 11
10.15026944474363
 21
4.867259506703483
 31
0.0
  0
LINE
  5
228
330
146
100
AcDbEntity
  8
Dimension (ANSI)
100
AcDbLine
 10
4.688832550313786
 20
4.867259506703483
 30
0.0
 11
9.152082296858267
 21
4.867259506703483
 31
0.0
  0
SOLID
  5
229
330
146
100
AcDbEntity
  8
Dimension (ANSI)
100
AcDbTrace
 10
15.13138724088674
 20
4.903713282489071
 30
0.0
 11
15.13138724088674
 21
4.830805730917895
 31
0.0
 12
15.35010989560026
 22
4.867259506703483
 32
0.0
 13
15.35010989560026
 23
4.867259506703483
 33
0.0
  0
SOLID
  5
22A
330
146
100
AcDbEntity
  8
Dimension (ANSI)
100
AcDbTrace
 10
4.688832550313786
 20
4.903713282489071
 30
0.0
 11
4.688832550313786
 21
4.830805730917895
 31
0.0
 12
4.470109895600261
 22
4.867259506703483
 32
0.0
 13
4.470109895600261
 23
4.867259506703483
 33
0.0
  0
MTEXT
  5
22B
330
146
100
AcDbEntity
  8
Dimension (ANSI)
100
AcDbMText
 10
9.222073547951881
 20
5.006681943405486
 30
0.0
 40
0.266666677263048
 41
0.0
 71
     1
 72
     1
  1
\A1;10.88
  7
Note Text (ANSI)
 73
     1
 44
1.0
1001
ACAD
1000
MTEXTBEGIN
1070
    73
1070
     1
1070
    44
1040
1.0
1070
    74
1070
     0
1000
MTEXTEND
  0
POINT
  5
22C
330
146
100
AcDbEntity
  8
Defpoints
 62
     0
100
AcDbPoint
 10
15.35010989560026
 20
8.804267380719231
 30
0.0
  0
POINT
  5
22D
330
146
100
AcDbEntity
  8
Defpoints
 62
     0
100
AcDbPoint
 10
4.470109895600261
 20
8.804267380719231
 30
0.0
  0
POINT
  5
22E
330
146
100
AcDbEntity
  8
Defpoints
 62
     0
100
AcDbPoint
 10
4.470109895600261
 20
4.867259506703483
 30
0.0
  0
ENDBLK
  5
148
330
146
100
AcDbEntity
  8
0
100
AcDbBlockEnd
  0
BLOCK
  5
231
330
230
100
AcDbEntity
  8
0
100
AcDbBlockBegin
  2
*D5
 70
     1
 10
0.0
 20
0.0
 30
0.0
  3
*D5
  1

  0
LINE
  5
30F
330
230
100
AcDbEntity
  8
Dimension (ANSI)
100
AcDbLine
 10
4.331221006711372
 20
8.804267380719231
 30
0.0
 11
1.783628611896521
 21
8.804267380719233
 31
0.0
  0
LINE
  5
310
330
230
100
AcDbEntity
  8
Dimension (ANSI)
100
AcDbLine
 10
4.331221006711367
 20
21.68426738071923
 30
0.0
 11
1.783628611896523
 21
21.68426738071923
 31
0.0
  0
LINE
  5
311
330
230
100
AcDbEntity
  8
Dimension (ANSI)
100
AcDbLine
 10
2.061406389674298
 20
9.022990035432757
 30
0.0
 11
2.0614063896743
 21
15.03485369292361
 31
0.0
  0
LINE
  5
312
330
230
100
AcDbEntity
  8
Dimension (ANSI)
100
AcDbLine
 10
2.061406389674301
 20
21.46554472600571
 30
0.0
 11
2.0614063896743
 21
15.45368106851485
 31
0.0
  0
SOLID
  5
313
330
230
100
AcDbEntity
  8
Dimension (ANSI)
100
AcDbTrace
 10
2.024952613888711
 20
9.022990035432757
 30
0.0
 11
2.097860165459886
 21
9.022990035432757
 31
0.0
 12
2.061406389674298
 22
8.804267380719233
 32
0.0
 13
2.061406389674298
 23
8.804267380719233
 33
0.0
  0
SOLID
  5
314
330
230
100
AcDbEntity
  8
Dimension (ANSI)
100
AcDbTrace
 10
2.024952613888713
 20
21.46554472600571
 30
0.0
 11
2.097860165459889
 21
21.46554472600571
 31
0.0
 12
2.061406389674301
 22
21.68426738071923
 32
0.0
 13
2.061406389674301
 23
21.68426738071923
 33
0.0
  0
MTEXT
  5
315
330
230
100
AcDbEntity
  8
Dimension (ANSI)
100
AcDbMText
 10
1.632304066825229
 20
15.38368981742124
 30
0.0
 40
0.266666677263048
 41
0.0
 71
     1
 72
     1
  1
\A1;12.88
  7
Note Text (ANSI)
 73
     1
 44
1.0
1001
ACAD
1000
MTEXTBEGIN
1070
    73
1070
     1
1070
    44
1040
1.0
1070
    74
1070
     0
1000
MTEXTEND
  0
POINT
  5
316
330
230
100
AcDbEntity
  8
Defpoints
 62
     0
100
AcDbPoint
 10
4.470109895600261
 20
8.804267380719231
 30
0.0
  0
POINT
  5
317
330
230
100
AcDbEntity
  8
Defpoints
 62
     0
100
AcDbPoint
 10
4.470109895600256
 20
21.68426738071923
 30
0.0
  0
POINT
  5
318
330
230
100
AcDbEntity
  8
Defpoints
 62
     0
100
AcDbPoint
 10
2.061406389674301
 20
21.68426738071923
 30
0.0
  0
ENDBLK
  5
232
330
230
100
AcDbEntity
  8
0
100
AcDbBlockEnd
  0
BLOCK
  5
31B
330
31A
100
AcDbEntity
  8
0
100
AcDbBlockBegin
  2
*D6
 70
     1
 10
0.0
 20
0.0
 30
0.0
  3
*D6
  1

  0
LINE
  5
424
330
31A
100
AcDbEntity
  8
Dimension (ANSI)
100
AcDbLine
 10
4.331221006711372
 20
8.804267380719231
 30
0.0
 11
3.849066287614883
 21
8.804267380719233
 31
0.0
  0
LINE
  5
425
330
31A
100
AcDbEntity
  8
Dimension (ANSI)
100
AcDbLine
 10
4.503721006711371
 20
9.11726738071923
 30
0.0
 11
3.849066287614883
 21
9.117267380719232
 31
0.0
  0
LINE
  5
426
330
31A
100
AcDbEntity
  8
Dimension (ANSI)
100
AcDbLine
 10
4.126844065392661
 20
9.335990035432754
 30
0.0
 11
4.126844065392661
 21
9.554712690146279
 31
0.0
  0
LINE
  5
427
330
31A
100
AcDbEntity
  8
Dimension (ANSI)
100
AcDbLine
 10
4.126844065392661
 20
8.585544726005707
 30
0.0
 11
4.126844065392661
 21
7.892930142594797
 31
0.0
  0
LINE
  5
428
330
31A
100
AcDbEntity
  8
Dimension (ANSI)
100
AcDbLine
 10
4.126844065392661
 20
7.892930142594797
 30
0.0
 11
3.908121410679136
 21
7.892930142594797
 31
0.0
  0
SOLID
  5
429
330
31A
100
AcDbEntity
  8
Dimension (ANSI)
100
AcDbTrace
 10
4.090390289607073
 20
9.335990035432754
 30
0.0
 11
4.163297841178248
 21
9.335990035432754
 31
0.0
 12
4.126844065392661
 22
9.11726738071923
 32
0.0
 13
4.126844065392661
 23
9.11726738071923
 33
0.0
  0
SOLID
  5
42A
330
31A
100
AcDbEntity
  8
Dimension (ANSI)
100
AcDbTrace
 10
4.090390289607073
 20
8.585544726005707
 30
0.0
 11
4.163297841178248
 21
8.585544726005707
 31
0.0
 12
4.126844065392661
 22
8.804267380719231
 32
0.0
 13
4.126844065392661
 23
8.804267380719231
 33
0.0
  0
MTEXT
  5
42B
330
31A
100
AcDbEntity
  8
Dimension (ANSI)
100
AcDbMText
 10
3.485857927096324
 20
7.892930142594798
 30
0.0
 40
0.266666677263048
 41
0.0
 71
     5
 72
     1
  1
\A1;0.31{\PTYP.}
  7
Note Text (ANSI)
 73
     1
 44
1.0
1001
ACAD
1000
MTEXTBEGIN
1070
    73
1070
     1
1070
    44
1040
1.0
1070
    74
1070
     0
1000
MTEXTEND
  0
POINT
  5
42C
330
31A
100
AcDbEntity
  8
Defpoints
 62
     0
100
AcDbPoint
 10
4.470109895600261
 20
8.804267380719231
 30
0.0
  0
POINT
  5
42D
330
31A
100
AcDbEntity
  8
Defpoints
 62
     0
100
AcDbPoint
 10
4.64260989560026
 20
9.11726738071923
 30
0.0
  0
POINT
  5
42E
330
31A
100
AcDbEntity
  8
Defpoints
 62
     0
100
AcDbPoint
 10
4.126844065392661
 20
9.11726738071923
 30
0.0
  0
ENDBLK
  5
31C
330
31A
100
AcDbEntity
  8
0
100
AcDbBlockEnd
  0
BLOCK
  5
431
330
430
100
AcDbEntity
  8
0
100
AcDbBlockBegin
  2
*D7
 70
     1
 10
0.0
 20
0.0
 30
0.0
  3
*D7
  1

  0
LINE
  5
523
330
430
100
AcDbEntity
  8
Dimension (ANSI)
100
AcDbLine
 10
4.470109895600261
 20
8.665378491830342
 30
0.0
 11
4.470109895600261
 21
6.361135272232792
 31
0.0
  0
LINE
  5
524
330
430
100
AcDbEntity
  8
Dimension (ANSI)
100
AcDbLine
 10
4.783109895600261
 20
8.869378491830341
 30
0.0
 11
4.783109895600261
 21
6.361135272232792
 31
0.0
  0
LINE
  5
525
330
430
100
AcDbEntity
  8
Dimension (ANSI)
100
AcDbLine
 10
5.001832550313785
 20
6.63891305001057
 30
0.0
 11
5.22055520502731
 21
6.63891305001057
 31
0.0
  0
LINE
  5
526
330
430
100
AcDbEntity
  8
Dimension (ANSI)
100
AcDbLine
 10
4.251387240886736
 20
6.63891305001057
 30
0.0
 11
3.807546446051894
 21
6.63891305001057
 31
0.0
  0
SOLID
  5
527
330
430
100
AcDbEntity
  8
Dimension (ANSI)
100
AcDbTrace
 10
5.001832550313785
 20
6.675366825796158
 30
0.0
 11
5.001832550313785
 21
6.602459274224982
 31
0.0
 12
4.783109895600261
 22
6.63891305001057
 32
0.0
 13
4.783109895600261
 23
6.63891305001057
 33
0.0
  0
SOLID
  5
528
330
430
100
AcDbEntity
  8
Dimension (ANSI)
100
AcDbTrace
 10
4.251387240886736
 20
6.675366825796158
 30
0.0
 11
4.251387240886736
 21
6.602459274224982
 31
0.0
 12
4.470109895600261
 22
6.63891305001057
 32
0.0
 13
4.470109895600261
 23
6.63891305001057
 33
0.0
  0
MTEXT
  5
529
330
430
100
AcDbEntity
  8
Dimension (ANSI)
100
AcDbMText
 10
3.385282962469083
 20
6.63891305001057
 30
0.0
 40
0.266666677263048
 41
0.0
 71
     5
 72
     1
  1
\A1;0.31{\PTYP.}
  7
Note Text (ANSI)
 73
     1
 44
1.0
1001
ACAD
1000
MTEXTBEGIN
1070
    73
1070
     1
1070
    44
1040
1.0
1070
    74
1070
     0
1000
MTEXTEND
  0
POINT
  5
52A
330
430
100
AcDbEntity
  8
Defpoints
 62
     0
100
AcDbPoint
 10
4.470109895600261
 20
8.804267380719231
 30
0.0
  0
POINT
  5
52B
330
430
100
AcDbEntity
  8
Defpoints
 62
     0
100
AcDbPoint
 10
4.783109895600261
 20
9.00826738071923
 30
0.0
  0
POINT
  5
52C
330
430
100
AcDbEntity
  8
Defpoints
 62
     0
100
AcDbPoint
 10
4.783109895600261
 20
6.63891305001057
 30
0.0
  0
ENDBLK
  5
432
330
430
100
AcDbEntity
  8
0
100
AcDbBlockEnd
  0
BLOCK
  5
52F
330
52E
100
AcDbEntity
  8
0
100
AcDbBlockBegin
  2
*D8
 70
     1
 10
0.0
 20
0.0
 30
0.0
  3
*D8
  1

  0
LINE
  5
60D
330
52E
100
AcDbEntity
  8
Dimension (ANSI)
100
AcDbLine
 10
4.783109895600261
 20
8.869378491830341
 30
0.0
 11
4.783109895600261
 21
6.36113527223279
 31
0.0
  0
LINE
  5
60E
330
52E
100
AcDbEntity
  8
Dimension (ANSI)
100
AcDbLine
 10
5.783109895600261
 20
8.853378491830341
 30
0.0
 11
5.783109895600261
 21
6.36113527223279
 31
0.0
  0
LINE
  5
60F
330
52E
100
AcDbEntity
  8
Dimension (ANSI)
100
AcDbLine
 10
5.001832550313785
 20
6.638913050010568
 30
0.0
 11
5.564387240886736
 21
6.638913050010568
 31
0.0
  0
LINE
  5
610
330
52E
100
AcDbEntity
  8
Dimension (ANSI)
100
AcDbLine
 10
5.783109895600261
 20
6.638913050010568
 30
0.0
 11
6.178426452064111
 21
6.638913050010568
 31
0.0
  0
SOLID
  5
611
330
52E
100
AcDbEntity
  8
Dimension (ANSI)
100
AcDbTrace
 10
5.001832550313785
 20
6.675366825796156
 30
0.0
 11
5.001832550313785
 21
6.602459274224981
 31
0.0
 12
4.783109895600261
 22
6.638913050010568
 32
0.0
 13
4.783109895600261
 23
6.638913050010568
 33
0.0
  0
SOLID
  5
612
330
52E
100
AcDbEntity
  8
Dimension (ANSI)
100
AcDbTrace
 10
5.564387240886736
 20
6.675366825796156
 30
0.0
 11
5.564387240886736
 21
6.602459274224981
 31
0.0
 12
5.783109895600261
 22
6.638913050010568
 32
0.0
 13
5.783109895600261
 23
6.638913050010568
 33
0.0
  0
MTEXT
  5
613
330
52E
100
AcDbEntity
  8
Dimension (ANSI)
100
AcDbMText
 10
6.248417703157724
 20
6.777708667793551
 30
0.0
 40
0.266666677263048
 41
0.0
 71
     1
 72
     1
  1
\A1;1.000
  7
Note Text (ANSI)
 73
     1
 44
1.0
1001
ACAD
1000
MTEXTBEGIN
1070
    73
1070
     1
1070
    44
1040
1.0
1070
    74
1070
     0
1000
MTEXTEND
  0
POINT
  5
614
330
52E
100
AcDbEntity
  8
Defpoints
 62
     0
100
AcDbPoint
 10
4.783109895600261
 20
9.00826738071923
 30
0.0
  0
POINT
  5
615
330
52E
100
AcDbEntity
  8
Defpoints
 62
     0
100
AcDbPoint
 10
5.783109895600261
 20
8.99226738071923
 30
0.0
  0
POINT
  5
616
330
52E
100
AcDbEntity
  8
Defpoints
 62
     0
100
AcDbPoint
 10
5.783109895600261
 20
6.638913050010568
 30
0.0
  0
ENDBLK
  5
530
330
52E
100
AcDbEntity
  8
0
100
AcDbBlockEnd
  0
BLOCK
  5
619
330
618
100
AcDbEntity
  8
0
100
AcDbBlockBegin
  2
*D9
 70
     1
 10
0.0
 20
0.0
 30
0.0
  3
*D9
  1

  0
LINE
  5
6EE
330
618
100
AcDbEntity
  8
Dimension (ANSI)
100
AcDbLine
 10
20.35042205711793
 20
18.67303378491871
 30
0.0
 11
20.13169940240441
 21
18.67303378491871
 31
0.0
  0
LINE
  5
6EF
330
618
100
AcDbEntity
  8
Dimension (ANSI)
100
AcDbLine
 10
20.86186736654498
 20
18.67303378491871
 30
0.0
 11
21.95188311200249
 21
18.67303378491871
 31
0.0
  0
SOLID
  5
6F0
330
618
100
AcDbEntity
  8
Dimension (ANSI)
100
AcDbTrace
 10
20.35042205711793
 20
18.70948756070429
 30
0.0
 11
20.35042205711793
 21
18.63658000913312
 31
0.0
 12
20.56914471183146
 22
18.67303378491871
 32
0.0
 13
20.56914471183146
 23
18.67303378491871
 33
0.0
  0
SOLID
  5
6F1
330
618
100
AcDbEntity
  8
Dimension (ANSI)
100
AcDbTrace
 10
20.86186736654498
 20
18.70948756070429
 30
0.0
 11
20.86186736654498
 21
18.63658000913312
 31
0.0
 12
20.64314471183146
 22
18.67303378491871
 32
0.0
 13
20.64314471183146
 23
18.67303378491871
 33
0.0
  0
MTEXT
  5
6F2
330
618
100
AcDbEntity
  8
Dimension (ANSI)
100
AcDbMText
 10
22.02187436309611
 20
18.81138167490239
 30
0.0
 40
0.266666677263048
 41
0.0
 71
     1
 72
     1
  1
\A1; 14 GA.
  7
Note Text (ANSI)
 73
     1
 44
1.0
1001
ACAD
1000
MTEXTBEGIN
1070
    73
1070
     1
1070
    44
1040
1.0
1070
    74
1070
     0
1000
MTEXTEND
  0
POINT
  5
6F3
330
618
100
AcDbEntity
  8
Defpoints
 62
     0
100
AcDbPoint
 10
21.0849985118611
 20
8.804267380719231
 30
0.0
  0
POINT
  5
6F4
330
618
100
AcDbEntity
  8
Defpoints
 62
     0
100
AcDbPoint
 10
21.0109985118611
 20
8.804267380719231
 30
0.0
  0
POINT
  5
6F5
330
618
100
AcDbEntity
  8
Defpoints
 62
     0
100
AcDbPoint
 10
20.56914471183146
 20
18.67303378491871
 30
0.0
  0
ENDBLK
  5
61A
330
618
100
AcDbEntity
  8
0
100
AcDbBlockEnd
  0
BLOCK
  5
6F8
330
6F7
100
AcDbEntity
  8
0
100
AcDbBlockBegin
  2
*D10
 70
     1
 10
0.0
 20
0.0
 30
0.0
  3
*D10
  1

  0
LINE
  5
7A8
330
6F7
100
AcDbEntity
  8
Dimension (ANSI)
100
AcDbLine
 10
8.053268332566702
 20
7.964840958691452
 30
0.0
 11
7.779171010537668
 21
7.964840958691453
 31
0.0
  0
LINE
  5
7A9
330
6F7
100
AcDbEntity
  8
Dimension (ANSI)
100
AcDbLine
 10
7.779171010537668
 20
7.964840958691453
 30
0.0
 11
6.080782446438417
 21
8.945406053362498
 31
0.0
  0
MTEXT
  5
7AA
102
{ACAD_XDICTIONARY
360
8CF
102
}
330
6F7
100
AcDbEntity
  8
Dimension (ANSI)
100
AcDbMText
 10
8.123259583660315
 20
8.162955535128352
 30
0.0
 40
0.266666677263048
 41
0.0
 71
     1
 72
     1
  1
\A1;\U+22050.250{\PGROUND\P HOLE}
  7
Note Text (ANSI)
 73
     1
 44
1.0
1001
ACAD
1000
MTEXTBEGIN
1070
    73
1070
     1
1070
    44
1040
1.0
1070
    74
1070
     0
1000
MTEXTEND
  0
SOLID
  5
7AB
330
6F7
100
AcDbEntity
  8
Dimension (ANSI)
100
AcDbTrace
 10
6.099009334331206
 20
8.976975949256679
 30
0.0
 11
6.062555558545627
 21
8.913836157468315
 31
0.0
 12
5.891363071073321
 22
9.054767380719241
 32
0.0
 13
5.891363071073321
 23
9.054767380719241
 33
0.0
  0
LINE
  5
7AC
330
6F7
100
AcDbEntity
  8
Dimension (ANSI)
100
AcDbLine
 10
5.583109895600259
 20
9.11726738071923
 30
0.0
 11
5.98310989560026
 21
9.117267380719228
 31
0.0
  0
LINE
  5
7AD
330
6F7
100
AcDbEntity
  8
Dimension (ANSI)
100
AcDbLine
 10
5.783109895600259
 20
8.917267380719227
 30
0.0
 11
5.783109895600259
 21
9.317267380719226
 31
0.0
  0
POINT
  5
7AE
330
6F7
100
AcDbEntity
  8
Defpoints
 62
     0
100
AcDbPoint
 10
5.891363071073321
 20
9.054767380719241
 30
0.0
  0
POINT
  5
7AF
330
6F7
100
AcDbEntity
  8
Defpoints
 62
     0
100
AcDbPoint
 10
5.674856720127198
 20
9.179767380719217
 30
0.0
  0
ENDBLK
  5
6F9
330
6F7
100
AcDbEntity
  8
0
100
AcDbBlockEnd
  0
BLOCK
  5
7B2
330
7B1
100
AcDbEntity
  8
0
100
AcDbBlockBegin
  2
*D11
 70
     1
 10
0.0
 20
0.0
 30
0.0
  3
*D11
  1

  0
LINE
  5
84D
330
7B1
100
AcDbEntity
  8
Dimension (ANSI)
100
AcDbLine
 10
15.77905402855525
 20
9.963076973505234
 30
0.0
 11
15.55958244509576
 21
9.963076973505236
 31
0.0
  0
LINE
  5
84E
330
7B1
100
AcDbEntity
  8
Dimension (ANSI)
100
AcDbLine
 10
15.55958244509576
 20
9.963076973505236
 30
0.0
 11
15.23313531773834
 21
9.400699072459525
 31
0.0
  0
MTEXT
  5
84F
330
7B1
100
AcDbEntity
  8
Dimension (ANSI)
100
AcDbMText
 10
15.84904527964886
 20
10.17190716860538
 30
0.0
 40
0.266666677263048
 41
0.0
 71
     1
 72
     1
  1
\A1; 0.218 X 0.281\POBROUND\PTYP. (4 PL.)
  7
Note Text (ANSI)
 73
     1
 44
1.0
1001
ACAD
1000
MTEXTBEGIN
1070
    73
1070
     1
1070
    44
1040
1.0
1070
    74
1070
     0
1000
MTEXTEND
  0
SOLID
  5
850
330
7B1
100
AcDbEntity
  8
Dimension (ANSI)
100
AcDbTrace
 10
15.20160818590102
 20
9.418999830015922
 30
0.0
 11
15.26466244957567
 21
9.382398314903131
 31
0.0
 12
15.12333077239996
 22
9.211536281435593
 32
0.0
 13
15.12333077239996
 23
9.211536281435593
 33
0.0
  0
POINT
  5
851
330
7B1
100
AcDbEntity
  8
Defpoints
 62
     0
100
AcDbPoint
 10
15.12333077239996
 20
9.211536281435593
 30
0.0
  0
POINT
  5
852
330
7B1
100
AcDbEntity
  8
Defpoints
 62
     0
100
AcDbPoint
 10
15.06860989560026
 20
9.117267380719233
 30
0.0
  0
ENDBLK
  5
7B3
330
7B1
100
AcDbEntity
  8
0
100
AcDbBlockEnd
  0
ENDSEC
  0
SECTION
  2
ENTITIES
  0
CIRCLE
  5
11D
330
6C
100
AcDbEntity
  8
Visible (ANSI)
100
AcDbCircle
 10
5.783109895600261
 20
9.11726738071923
 30
0.0
 40
0.125
  0
LINE
  5
11E
330
6C
100
AcDbEntity
  8
Visible (ANSI)
100
AcDbLine
 10
4.75160989560026
 20
9.22626738071923
 30
0.0
 11
4.814609895600261
 21
9.22626738071923
 31
0.0
  0
ARC
  5
11F
330
6C
100
AcDbEntity
  8
Visible (ANSI)
100
AcDbCircle
 10
4.75160989560026
 20
9.11726738071923
 30
0.0
 40
0.109
100
AcDbArc
 50
90.0
 51
270.0
  0
LINE
  5
120
330
6C
100
AcDbEntity
  8
Visible (ANSI)
100
AcDbLine
 10
4.814609895600261
 20
9.008267380719232
 30
0.0
 11
4.75160989560026
 21
9.008267380719232
 31
0.0
  0
ARC
  5
121
330
6C
100
AcDbEntity
  8
Visible (ANSI)
100
AcDbCircle
 10
4.814609895600261
 20
9.11726738071923
 30
0.0
 40
0.1090000000000001
100
AcDbArc
 50
270.0
 51
90.0
  0
LINE
  5
122
330
6C
100
AcDbEntity
  8
Visible (ANSI)
100
AcDbLine
 10
15.00560989560026
 20
21.48026738071923
 30
0.0
 11
15.06860989560026
 21
21.48026738071923
 31
0.0
  0
ARC
  5
123
330
6C
100
AcDbEntity
  8
Visible (ANSI)
100
AcDbCircle
 10
15.00560989560026
 20
21.37126738071923
 30
0.0
 40
0.1089999999999997
100
AcDbArc
 50
90.0
 51
270.0
  0
LINE
  5
124
330
6C
100
AcDbEntity
  8
Visible (ANSI)
100
AcDbLine
 10
15.06860989560026
 20
21.26226738071923
 30
0.0
 11
15.00560989560026
 21
21.26226738071923
 31
0.0
  0
ARC
  5
125
330
6C
100
AcDbEntity
  8
Visible (ANSI)
100
AcDbCircle
 10
15.06860989560026
 20
21.37126738071923
 30
0.0
 40
0.1089999999999997
100
AcDbArc
 50
270.0
 51
90.0
  0
LINE
  5
126
330
6C
100
AcDbEntity
  8
Visible (ANSI)
100
AcDbLine
 10
15.00560989560026
 20
9.22626738071923
 30
0.0
 11
15.06860989560026
 21
9.22626738071923
 31
0.0
  0
ARC
  5
127
330
6C
100
AcDbEntity
  8
Visible (ANSI)
100
AcDbCircle
 10
15.00560989560026
 20
9.11726738071923
 30
0.0
 40
0.109
100
AcDbArc
 50
90.0
 51
270.0
  0
LINE
  5
128
330
6C
100
AcDbEntity
  8
Visible (ANSI)
100
AcDbLine
 10
15.06860989560026
 20
9.008267380719232
 30
0.0
 11
15.00560989560026
 21
9.008267380719232
 31
0.0
  0
ARC
  5
129
330
6C
100
AcDbEntity
  8
Visible (ANSI)
100
AcDbCircle
 10
15.06860989560026
 20
9.11726738071923
 30
0.0
 40
0.109
100
AcDbArc
 50
270.0
 51
90.0
  0
LINE
  5
12A
330
6C
100
AcDbEntity
  8
Visible (ANSI)
100
AcDbLine
 10
4.751609895600257
 20
21.48026738071923
 30
0.0
 11
4.814609895600257
 21
21.48026738071923
 31
0.0
  0
ARC
  5
12B
330
6C
100
AcDbEntity
  8
Visible (ANSI)
100
AcDbCircle
 10
4.751609895600256
 20
21.37126738071923
 30
0.0
 40
0.1089999999999997
100
AcDbArc
 50
90.0
 51
270.0
  0
LINE
  5
12C
330
6C
100
AcDbEntity
  8
Visible (ANSI)
100
AcDbLine
 10
4.814609895600257
 20
21.26226738071923
 30
0.0
 11
4.751609895600257
 21
21.26226738071923
 31
0.0
  0
ARC
  5
12D
330
6C
100
AcDbEntity
  8
Visible (ANSI)
100
AcDbCircle
 10
4.814609895600258
 20
21.37126738071923
 30
0.0
 40
0.1089999999999997
100
AcDbArc
 50
270.0000000000008
 51
90.00000000000078
  0
LINE
  5
12E
330
6C
100
AcDbEntity
  8
Visible (ANSI)
100
AcDbLine
 10
4.470109895600261
 20
8.804267380719231
 30
0.0
 11
4.470109895600257
 21
21.68426738071923
 31
0.0
  0
LINE
  5
12F
330
6C
100
AcDbEntity
  8
Visible (ANSI)
100
AcDbLine
 10
4.470109895600257
 20
21.68426738071923
 30
0.0
 11
15.35010989560026
 21
21.68426738071923
 31
0.0
  0
LINE
  5
130
330
6C
100
AcDbEntity
  8
Visible (ANSI)
100
AcDbLine
 10
15.35010989560026
 20
21.68426738071923
 30
0.0
 11
15.35010989560026
 21
8.804267380719231
 31
0.0
  0
LINE
  5
131
330
6C
100
AcDbEntity
  8
Visible (ANSI)
100
AcDbLine
 10
15.35010989560026
 20
8.804267380719231
 30
0.0
 11
4.470109895600261
 21
8.804267380719231
 31
0.0
  0
MTEXT
  5
133
330
6C
100
AcDbEntity
  8
Symbol (ANSI)
100
AcDbMText
 10
8.498847385718775
 20
1.684736327909667
 30
0.0
 40
0.2666666699623915
 41
0.0
 71
     7
 72
     1
  1
FRONT VIEW
  7
Text Style150
 73
     1
 44
1.0
1001
ACAD
1000
MTEXTBEGIN
1070
    73
1070
     1
1070
    44
1040
1.0
1070
    74
1070
     0
1000
MTEXTEND
  0
LINE
  5
135
330
6C
100
AcDbEntity
  8
Symbol (ANSI)
370
    30
100
AcDbLine
 10
8.472180650455692
 20
1.630354911521022
 30
0.0
 11
10.61610288220164
 21
1.630354911521022
 31
0.0
  0
MTEXT
  5
136
330
6C
100
AcDbEntity
  8
Symbol (ANSI)
100
AcDbMText
 10
9.45824225612862
 20
1.083218089514501
 30
0.0
 40
0.3999999919067009
 41
0.0
 71
     7
 72
     1
  1
 
  7
Label Text (ANSI)
 73
     1
 44
1.0
1001
ACAD
1000
MTEXTBEGIN
1070
    73
1070
     1
1070
    44
1040
1.0
1070
    74
1070
     0
1000
MTEXTEND
  0
LINE
  5
137
330
6C
100
AcDbEntity
  8
Hidden (ANSI)
 48
0.063326396048069
100
AcDbLine
 10
21.01099851186102
 20
21.48026738071923
 30
0.0
 11
21.08499851186102
 21
21.48026738071923
 31
0.0
  0
LINE
  5
138
330
6C
100
AcDbEntity
  8
Hidden (ANSI)
 48
0.063326396048069
100
AcDbLine
 10
21.01099851186102
 20
21.26226738071923
 30
0.0
 11
21.08499851186102
 21
21.26226738071923
 31
0.0
  0
LINE
  5
139
330
6C
100
AcDbEntity
  8
Hidden (ANSI)
 48
0.063326396048069
100
AcDbLine
 10
21.01099851186102
 20
9.22626738071923
 30
0.0
 11
21.08499851186102
 21
9.22626738071923
 31
0.0
  0
LINE
  5
13A
330
6C
100
AcDbEntity
  8
Hidden (ANSI)
 48
0.063326396048069
100
AcDbLine
 10
21.01099851186102
 20
9.008267380719232
 30
0.0
 11
21.08499851186102
 21
9.008267380719232
 31
0.0
  0
LINE
  5
13B
330
6C
100
AcDbEntity
  8
Visible (ANSI)
100
AcDbLine
 10
21.0849985118611
 20
21.68426738071923
 30
0.0
 11
21.0109985118611
 21
21.68426738071923
 31
0.0
  0
LINE
  5
13C
330
6C
100
AcDbEntity
  8
Visible (ANSI)
100
AcDbLine
 10
21.0109985118611
 20
21.68426738071923
 30
0.0
 11
21.0109985118611
 21
8.804267380719231
 31
0.0
  0
LINE
  5
13D
330
6C
100
AcDbEntity
  8
Visible (ANSI)
100
AcDbLine
 10
21.0849985118611
 20
8.804267380719231
 30
0.0
 11
21.0109985118611
 21
8.804267380719231
 31
0.0
  0
LINE
  5
13E
330
6C
100
AcDbEntity
  8
Visible (ANSI)
100
AcDbLine
 10
21.0849985118611
 20
8.804267380719231
 30
0.0
 11
21.0849985118611
 21
21.68426738071923
 31
0.0
  0
LINE
  5
13F
330
6C
100
AcDbEntity
  8
Hidden (ANSI)
 48
0.063326396048069
100
AcDbLine
 10
21.08499851185826
 20
8.99226738071923
 30
0.0
 11
21.01099851185826
 21
8.99226738071923
 31
0.0
  0
LINE
  5
140
330
6C
100
AcDbEntity
  8
Hidden (ANSI)
 48
0.063326396048069
100
AcDbLine
 10
21.08499851185826
 20
9.24226738071923
 30
0.0
 11
21.01099851185826
 21
9.24226738071923
 31
0.0
  0
MTEXT
  5
141
330
6C
100
AcDbEntity
  8
Symbol (ANSI)
100
AcDbMText
 10
19.49105881246335
 20
1.521489516089738
 30
0.0
 40
0.2666666699623915
 41
0.0
 71
     7
 72
     1
  1
RIGHT VIEW
  7
Text Style150
 73
     1
 44
1.0
1001
ACAD
1000
MTEXTBEGIN
1070
    73
1070
     1
1070
    44
1040
1.0
1070
    74
1070
     0
1000
MTEXTEND
  0
LINE
  5
142
330
6C
100
AcDbEntity
  8
Symbol (ANSI)
370
    30
100
AcDbLine
 10
19.46439207720027
 20
1.46667590084204
 30
0.0
 11
21.54197178408147
 21
1.46667590084204
 31
0.0
  0
DIMENSION
  5
143
330
6C
100
AcDbEntity
  8
Dimension (ANSI)
100
AcDbDimension
  2
*D4
 10
4.470109895600261
 20
4.867259506703483
 30
0.0
 11
9.651175870800949
 21
4.867259506703483
 31
0.0
 70
   160
  1
<>
 42
10.88
  3
Default (ANSI)-01
100
AcDbAlignedDimension
 13
15.35010989560026
 23
8.804267380719231
 33
0.0
 14
4.470109895600261
 24
8.804267380719231
 34
0.0
 50
180.0
100
AcDbRotatedDimension
1001
ACAD
1000
DSTYLE
1002
{
1070
   289
1070
     1
1070
    73
1070
     0
1070
    74
1070
     0
1070
   271
1070
     2
1070
   272
1070
     2
1070
    48
1040
0.0
1070
    47
1040
0.0
1002
}
  0
DIMENSION
  5
22F
330
6C
100
AcDbEntity
  8
Dimension (ANSI)
100
AcDbDimension
  2
*D5
 10
2.061406389674301
 20
21.68426738071923
 30
0.0
 11
2.061406389674297
 21
15.24426738071923
 31
0.0
 70
   160
  1
<>
 42
12.88
  3
Default (ANSI)-01
100
AcDbAlignedDimension
 13
4.470109895600261
 23
8.804267380719231
 33
0.0
 14
4.470109895600256
 24
21.68426738071923
 34
0.0
 50
90.0
100
AcDbRotatedDimension
1001
ACAD
1000
DSTYLE
1002
{
1070
   289
1070
     1
1070
   271
1070
     2
1070
   272
1070
     2
1070
    48
1040
0.0
1070
    47
1040
0.0
1002
}
  0
DIMENSION
  5
319
330
6C
100
AcDbEntity
  8
Dimension (ANSI)
100
AcDbDimension
  2
*D6
 10
4.126844065392661
 20
9.11726738071923
 30
0.0
 11
3.485857927096324
 21
7.892930142594798
 31
0.0
 70
   160
  1
<>{\PTYP.}
 71
     5
 42
0.3129999999999988
  3
Default (ANSI)-01
100
AcDbAlignedDimension
 13
4.470109895600261
 23
8.804267380719231
 33
0.0
 14
4.64260989560026
 24
9.11726738071923
 34
0.0
 50
90.0
100
AcDbRotatedDimension
1001
ACAD
1000
DSTYLE
1002
{
1070
   289
1070
     1
1070
   271
1070
     2
1070
   272
1070
     2
1070
    48
1040
0.0
1070
    47
1040
0.0
1002
}
  0
DIMENSION
  5
42F
330
6C
100
AcDbEntity
  8
Dimension (ANSI)
100
AcDbDimension
  2
*D7
 10
4.783109895600261
 20
6.63891305001057
 30
0.0
 11
3.385282962469083
 21
6.63891305001057
 31
0.0
 70
   160
  1
<>{\PTYP.}
 71
     5
 42
0.3129999999999997
  3
Default (ANSI)-01
100
AcDbAlignedDimension
 13
4.470109895600261
 23
8.804267380719231
 33
0.0
 14
4.783109895600261
 24
9.00826738071923
 34
0.0
 50
180.0
100
AcDbRotatedDimension
1001
ACAD
1000
DSTYLE
1002
{
1070
   289
1070
     1
1070
    73
1070
     0
1070
    74
1070
     0
1070
   271
1070
     2
1070
   272
1070
     2
1070
    48
1040
0.0
1070
    47
1040
0.0
1002
}
  0
DIMENSION
  5
52D
330
6C
100
AcDbEntity
  8
Dimension (ANSI)
100
AcDbDimension
  2
*D8
 10
5.783109895600261
 20
6.638913050010568
 30
0.0
 11
6.676714115968053
 21
6.638913050010568
 31
0.0
 70
   160
  1
<>
  3
Default (ANSI)
100
AcDbAlignedDimension
 13
4.783109895600261
 23
9.00826738071923
 33
0.0
 14
5.783109895600261
 24
8.99226738071923
 34
0.0
 50
180.0
100
AcDbRotatedDimension
1001
ACAD
1000
DSTYLE
1002
{
1070
   289
1070
     2
1070
    73
1070
     0
1070
    74
1070
     0
1070
   271
1070
     3
1070
   272
1070
     2
1070
    48
1040
0.0
1070
    47
1040
0.0
1002
}
  0
DIMENSION
  5
617
330
6C
100
AcDbEntity
  8
Dimension (ANSI)
100
AcDbDimension
  2
*D9
 10
20.56914471183146
 20
18.67303378491871
 30
0.0
 11
22.60750232458044
 21
18.67303378491871
 31
0.0
 70
   160
  1
 14 GA.
 42
0.0740000000000016
  3
Default (ANSI)
100
AcDbAlignedDimension
 13
21.0849985118611
 23
8.804267380719231
 33
0.0
 14
21.0109985118611
 24
8.804267380719231
 34
0.0
100
AcDbRotatedDimension
1001
ACAD
1000
DSTYLE
1002
{
1070
   289
1070
     1
1070
    73
1070
     0
1070
    74
1070
     0
1070
   271
1070
     3
1070
    76
1070
     1
1070
    75
1070
     1
1070
   272
1070
     2
1070
    48
1040
0.0
1070
    47
1040
0.0
1002
}
  0
DIMENSION
  5
6F6
330
6C
100
AcDbEntity
  8
Dimension (ANSI)
100
AcDbDimension
  2
*D10
 10
5.674856720127198
 20
9.179767380719217
 30
0.0
 11
8.844638613892389
 21
7.964840958691452
 31
0.0
 70
   163
  1
<>{\PGROUND\P HOLE}
 42
0.25
  3
Default (ANSI)
100
AcDbDiametricDimension
 15
5.891363071073321
 25
9.054767380719241
 35
0.0
 40
0.0
1001
ACAD_DSTYLE_DIMRADIAL_EXTENSION
1070
   387
1070
     1
1070
   388
1040
0.0
1070
   390
1040
0.0
1001
ACAD
1000
DSTYLE
1002
{
1070
   145
1040
-0.3333333333333334
1070
   144
1040
1.0
1070
   271
1070
     3
1070
   272
1070
     2
1070
    48
1040
0.0
1070
    47
1040
0.0
1002
}
  0
DIMENSION
  5
7B0
330
6C
100
AcDbEntity
  8
Dimension (ANSI)
100
AcDbDimension
  2
*D11
 10
15.06860989560026
 20
9.117267380719233
 30
0.0
 11
17.02450984393094
 21
9.963076973505236
 31
0.0
 70
   164
  1
 0.218 X 0.281\POBROUND\PTYP. (4 PL.)
 42
0.1089999999999947
  3
Default (ANSI)
100
AcDbRadialDimension
 15
15.12333077239996
 25
9.211536281435593
 35
0.0
 40
0.0
1001
ACAD_DSTYLE_DIMRADIAL_EXTENSION
1070
   387
1070
     1
1070
   388
1040
0.0
1070
   390
1040
0.0
1001
ACAD
1000
DSTYLE
1002
{
1070
   145
1040
-0.3333333333333334
1070
   271
1070
     3
1070
   141
1040
0.0
1070
   272
1070
     2
1070
    48
1040
0.0
1070
    47
1040
0.0
1002
}
  0
MTEXT
  5
853
330
6C
100
AcDbEntity
  8
Symbol (ANSI)
100
AcDbMText
 10
25.4565252472456
 20
5.92755068922767
 30
0.0
 40
0.2666666699623915
 41
9.90443980740194
 71
     1
 72
     1
  1
{\fRomanS|b0|i0;\H0.2667;PART#: P1412\P(DATA SUBJECT TO CHANGE WITHOUT NOTICE)\PTHIS DRAWING AND COMPONENTS OF ARE\PPROPERTY OF HUBBELL INC. WIEGMANN}
  7
Note Text (ANSI)
 73
     2
 44
1.093904256820678
1001
ACAD
1000
MTEXTBEGIN
1070
    73
1070
     2
1070
    44
1040
1.093904256820678
1070
    74
1070
     0
1000
MTEXTEND
  0
ELLIPSE
  5
855
330
6C
100
AcDbEntity
  8
Visible (ANSI)
100
AcDbEllipse
 10
30.04751205800317
 20
13.80015444173983
 30
0.0
 11
0.0485170205707111
 21
-0.084251167403
 31
0.0
210
0.0
220
0.0
230
1.0
 40
0.5780931159158122
 41
3.57261525342731
 42
5.852162707341159
  0
ELLIPSE
  5
856
330
6C
100
AcDbEntity
  8
Visible (ANSI)
100
AcDbEllipse
 10
30.00681413437489
 20
13.77671806621267
 30
0.0
 11
-0.0485170205707061
 21
0.084251167403003
 31
0.0
210
0.0
220
0.0
230
1.0
 40
0.5780931159158124
 41
0.0
 42
6.283185307179586
  0
LINE
  5
857
330
6C
100
AcDbEntity
  8
Visible (ANSI)
100
AcDbLine
 10
29.43951807731286
 20
14.17271196706733
 30
0.0
 11
29.474166309591
 21
14.15275937709151
 31
0.0
  0
ELLIPSE
  5
858
330
6C
100
AcDbEntity
  8
Visible (ANSI)
100
AcDbEllipse
 10
29.48021600094115
 20
14.12683851412174
 30
0.0
 11
0.0423068419376601
 21
-0.0734670179754162
 31
0.0
210
0.0
220
0.0
230
1.0
 40
0.5780931159158124
 41
3.641254264141338
 42
5.499720852204747
  0
ELLIPSE
  5
859
330
6C
100
AcDbEntity
  8
Visible (ANSI)
100
AcDbEllipse
 10
29.43951807731286
 20
14.10340213859457
 30
0.0
 11
-0.0423068419376514
 21
0.0734670179754212
 31
0.0
210
0.0
220
0.0
230
0.9999999999999998
 40
0.5780931159158125
 41
5.499720852205299
 42
8.641313505795093
  0
LINE
  5
85A
330
6C
100
AcDbEntity
  8
Visible Narrow (ANSI)
100
AcDbLine
 10
29.43951807731286
 20
14.03409231012181
 30
0.0
 11
29.48021600094115
 21
14.05752868564897
 31
0.0
  0
LINE
  5
85B
330
6C
100
AcDbEntity
  8
Visible (ANSI)
100
AcDbLine
 10
29.48021600094115
 20
14.05752868564897
 30
0.0
 11
29.51486423321929
 21
14.03757609567315
 31
0.0
  0
LINE
  5
85C
330
6C
100
AcDbEntity
  8
Visible (ANSI)
100
AcDbLine
 10
29.474166309591
 20
14.01413972014599
 30
0.0
 11
29.43951807731286
 21
14.03409231012181
 31
0.0
  0
LINE
  5
85D
330
6C
100
AcDbEntity
  8
Visible Narrow (ANSI)
100
AcDbLine
 10
29.474166309591
 20
14.01413972014599
 30
0.0
 11
29.51486423321929
 21
14.03757609567315
 31
0.0
  0
ELLIPSE
  5
85E
330
6C
100
AcDbEntity
  8
Visible (ANSI)
100
AcDbEllipse
 10
29.51486423321929
 20
14.10688592414591
 30
0.0
 11
0.0423068419376556
 21
-0.0734670179754185
 31
0.0
210
0.0
220
0.0
230
1.0
 40
0.5780931159158124
 41
5.499720852205022
 42
5.783523696627613
  0
ELLIPSE
  5
85F
330
6C
100
AcDbEntity
  8
Visible (ANSI)
100
AcDbEllipse
 10
29.474166309591
 20
14.08344954861875
 30
0.0
 11
0.0423068419376514
 21
-0.0734670179754212
 31
0.0
210
0.0
220
0.0
230
0.9999999999999998
 40
0.5780931159158122
 41
5.499720852205299
 42
8.641313505795093
  0
LINE
  5
860
330
6C
100
AcDbEntity
  8
Visible (ANSI)
100
AcDbLine
 10
35.07893035953683
 20
18.71714122597418
 30
0.0
 11
35.11357859181497
 21
18.69718863599836
 31
0.0
  0
ELLIPSE
  5
861
330
6C
100
AcDbEntity
  8
Visible (ANSI)
100
AcDbEllipse
 10
35.11962828316511
 20
18.67126777302858
 30
0.0
 11
0.0423068419376601
 21
-0.073467017975416
 31
0.0
210
0.0
220
0.0
230
1.0
 40
0.5780931159158122
 41
3.641254264141338
 42
5.499720852204746
  0
ELLIPSE
  5
862
330
6C
100
AcDbEntity
  8
Visible (ANSI)
100
AcDbEllipse
 10
35.07893035953683
 20
18.64783139750142
 30
0.0
 11
-0.0423068419376512
 21
0.073467017975421
 31
0.0
210
0.0
220
0.0
230
1.0
 40
0.5780931159158122
 41
5.499720852205299
 42
8.641313505795093
  0
LINE
  5
863
330
6C
100
AcDbEntity
  8
Visible Narrow (ANSI)
100
AcDbLine
 10
35.07893035953683
 20
18.57852156902866
 30
0.0
 11
35.11962828316511
 21
18.60195794455582
 31
0.0
  0
LINE
  5
864
330
6C
100
AcDbEntity
  8
Visible (ANSI)
100
AcDbLine
 10
35.11962828316511
 20
18.60195794455582
 30
0.0
 11
35.15427651544326
 21
18.58200535458
 31
0.0
  0
LINE
  5
865
330
6C
100
AcDbEntity
  8
Visible (ANSI)
100
AcDbLine
 10
35.11357859181497
 20
18.55856897905284
 30
0.0
 11
35.07893035953683
 21
18.57852156902866
 31
0.0
  0
LINE
  5
866
330
6C
100
AcDbEntity
  8
Visible Narrow (ANSI)
100
AcDbLine
 10
35.11357859181497
 20
18.55856897905284
 30
0.0
 11
35.15427651544326
 21
18.58200535458
 31
0.0
  0
ELLIPSE
  5
867
330
6C
100
AcDbEntity
  8
Visible (ANSI)
100
AcDbEllipse
 10
35.15427651544326
 20
18.65131518305276
 30
0.0
 11
0.0423068419376567
 21
-0.0734670179754203
 31
0.0
210
0.0
220
0.0
230
0.9999999999999998
 40
0.5780931159158122
 41
5.499720852205022
 42
5.783523696627613
  0
ELLIPSE
  5
868
330
6C
100
AcDbEntity
  8
Visible (ANSI)
100
AcDbEllipse
 10
35.11357859181497
 20
18.6278788075256
 30
0.0
 11
0.0423068419376512
 21
-0.073467017975421
 31
0.0
210
0.0
220
0.0
230
1.0
 40
0.5780931159158122
 41
5.499720852205299
 42
8.641313505795093
  0
LINE
  5
869
330
6C
100
AcDbEntity
  8
Visible (ANSI)
100
AcDbLine
 10
35.07893035953682
 20
10.92519041766936
 30
0.0
 11
35.11357859181497
 21
10.90523782769354
 31
0.0
  0
ELLIPSE
  5
86A
330
6C
100
AcDbEntity
  8
Visible (ANSI)
100
AcDbEllipse
 10
35.11962828316511
 20
10.87931696472376
 30
0.0
 11
0.0423068419376603
 21
-0.0734670179754164
 31
0.0
210
0.0
220
0.0
230
1.0
 40
0.5780931159158121
 41
3.641254264141338
 42
5.499720852204746
  0
ELLIPSE
  5
86B
330
6C
100
AcDbEntity
  8
Visible (ANSI)
100
AcDbEllipse
 10
35.07893035953682
 20
10.8558805891966
 30
0.0
 11
-0.0423068419376514
 21
0.0734670179754212
 31
0.0
210
0.0
220
0.0
230
0.9999999999999998
 40
0.5780931159158125
 41
5.499720852205299
 42
8.641313505795093
  0
LINE
  5
86C
330
6C
100
AcDbEntity
  8
Visible Narrow (ANSI)
100
AcDbLine
 10
35.07893035953682
 20
10.78657076072384
 30
0.0
 11
35.11962828316511
 21
10.810007136251
 31
0.0
  0
LINE
  5
86D
330
6C
100
AcDbEntity
  8
Visible (ANSI)
100
AcDbLine
 10
35.11962828316511
 20
10.810007136251
 30
0.0
 11
35.15427651544325
 21
10.79005454627518
 31
0.0
  0
LINE
  5
86E
330
6C
100
AcDbEntity
  8
Visible (ANSI)
100
AcDbLine
 10
35.11357859181497
 20
10.76661817074802
 30
0.0
 11
35.07893035953682
 21
10.78657076072384
 31
0.0
  0
LINE
  5
86F
330
6C
100
AcDbEntity
  8
Visible Narrow (ANSI)
100
AcDbLine
 10
35.11357859181497
 20
10.76661817074802
 30
0.0
 11
35.15427651544325
 21
10.79005454627518
 31
0.0
  0
ELLIPSE
  5
870
330
6C
100
AcDbEntity
  8
Visible (ANSI)
100
AcDbEllipse
 10
35.15427651544325
 20
10.85936437474794
 30
0.0
 11
0.042306841937658
 21
-0.0734670179754226
 31
0.0
210
0.0
220
0.0
230
0.9999999999999998
 40
0.5780931159158124
 41
5.499720852205022
 42
5.783523696627606
  0
ELLIPSE
  5
871
330
6C
100
AcDbEntity
  8
Visible (ANSI)
100
AcDbEllipse
 10
35.11357859181497
 20
10.83592799922078
 30
0.0
 11
0.0423068419376514
 21
-0.0734670179754212
 31
0.0
210
0.0
220
0.0
230
0.9999999999999998
 40
0.5780931159158125
 41
5.499720852205299
 42
8.641313505795093
  0
LINE
  5
872
330
6C
100
AcDbEntity
  8
Visible (ANSI)
100
AcDbLine
 10
29.43951807731286
 20
21.96466277537216
 30
0.0
 11
29.47416630959101
 21
21.94471018539634
 31
0.0
  0
ELLIPSE
  5
873
330
6C
100
AcDbEntity
  8
Visible (ANSI)
100
AcDbEllipse
 10
29.48021600094115
 20
21.91878932242656
 30
0.0
 11
0.0423068419376601
 21
-0.073467017975416
 31
0.0
210
0.0
220
0.0
230
1.0
 40
0.5780931159158122
 41
3.641254264141338
 42
5.499720852204746
  0
ELLIPSE
  5
874
330
6C
100
AcDbEntity
  8
Visible (ANSI)
100
AcDbEllipse
 10
29.43951807731286
 20
21.8953529468994
 30
0.0
 11
-0.0423068419376512
 21
0.073467017975421
 31
0.0
210
0.0
220
0.0
230
1.0
 40
0.5780931159158122
 41
5.499720852205299
 42
8.641313505795093
  0
LINE
  5
875
330
6C
100
AcDbEntity
  8
Visible Narrow (ANSI)
100
AcDbLine
 10
29.43951807731286
 20
21.82604311842664
 30
0.0
 11
29.48021600094115
 21
21.8494794939538
 31
0.0
  0
LINE
  5
876
330
6C
100
AcDbEntity
  8
Visible (ANSI)
100
AcDbLine
 10
29.48021600094115
 20
21.8494794939538
 30
0.0
 11
29.5148642332193
 21
21.82952690397797
 31
0.0
  0
LINE
  5
877
330
6C
100
AcDbEntity
  8
Visible (ANSI)
100
AcDbLine
 10
29.47416630959101
 20
21.80609052845081
 30
0.0
 11
29.43951807731286
 21
21.82604311842664
 31
0.0
  0
LINE
  5
878
330
6C
100
AcDbEntity
  8
Visible Narrow (ANSI)
100
AcDbLine
 10
29.47416630959101
 20
21.80609052845081
 30
0.0
 11
29.5148642332193
 21
21.82952690397797
 31
0.0
  0
ELLIPSE
  5
879
330
6C
100
AcDbEntity
  8
Visible (ANSI)
100
AcDbEllipse
 10
29.5148642332193
 20
21.89883673245074
 30
0.0
 11
0.0423068419376572
 21
-0.0734670179754212
 31
0.0
210
0.0
220
0.0
230
0.9999999999999998
 40
0.5780931159158122
 41
5.499720852205022
 42
5.783523696627613
  0
ELLIPSE
  5
87A
330
6C
100
AcDbEntity
  8
Visible (ANSI)
100
AcDbEllipse
 10
29.47416630959101
 20
21.87540035692357
 30
0.0
 11
0.0423068419376512
 21
-0.0734670179754209
 31
0.0
210
0.0
220
0.0
230
1.0
 40
0.5780931159158122
 41
5.499720852205298
 42
8.641313505795091
  0
LINE
  5
87B
330
6C
100
AcDbEntity
  8
Visible (ANSI)
100
AcDbLine
 10
29.28470097594305
 20
13.99352807231653
 30
0.0
 11
29.28470097594305
 21
22.18353349185025
 31
0.0
  0
LINE
  5
87C
330
6C
100
AcDbEntity
  8
Visible (ANSI)
100
AcDbLine
 10
29.32539889957134
 20
22.20696986737741
 30
0.0
 11
29.28470097594305
 21
22.18353349185025
 31
0.0
  0
LINE
  5
87D
330
6C
100
AcDbEntity
  8
Visible (ANSI)
100
AcDbLine
 10
29.28470097594305
 20
22.18353349185025
 30
0.0
 11
35.26839569318479
 21
18.73775287380364
 31
0.0
  0
LINE
  5
87E
330
6C
100
AcDbEntity
  8
Visible (ANSI)
100
AcDbLine
 10
35.30909361681307
 20
18.7611892493308
 30
0.0
 11
35.26839569318479
 21
18.73775287380364
 31
0.0
  0
LINE
  5
87F
330
6C
100
AcDbEntity
  8
Visible (ANSI)
100
AcDbLine
 10
35.30909361681307
 20
18.7611892493308
 30
0.0
 11
29.32539889957134
 21
22.20696986737741
 31
0.0
  0
LINE
  5
880
330
6C
100
AcDbEntity
  8
Visible (ANSI)
100
AcDbLine
 10
35.26839569318479
 20
18.73775287380364
 30
0.0
 11
35.26839569318478
 21
10.54774745426993
 31
0.0
  0
LINE
  5
881
330
6C
100
AcDbEntity
  8
Visible (ANSI)
100
AcDbLine
 10
35.30909361681306
 20
10.57118382979709
 30
0.0
 11
35.26839569318478
 21
10.54774745426993
 31
0.0
  0
LINE
  5
882
330
6C
100
AcDbEntity
  8
Visible (ANSI)
100
AcDbLine
 10
35.30909361681306
 20
10.57118382979709
 30
0.0
 11
35.30909361681307
 21
18.7611892493308
 31
0.0
  0
LINE
  5
883
330
6C
100
AcDbEntity
  8
Visible (ANSI)
100
AcDbLine
 10
35.26839569318478
 20
10.54774745426993
 30
0.0
 11
29.28470097594305
 21
13.99352807231653
 31
0.0
  0
ENDSEC
  0
SECTION
  2
OBJECTS
  0
DICTIONARY
  5
C
330
0
100
AcDbDictionary
281
     1
  3
ACAD_CIP_PREVIOUS_PRODUCT_INFO
350
884
  3
ACAD_COLOR
350
63
  3
ACAD_GROUP
350
D
  3
ACAD_LAYOUT
350
62
  3
ACAD_MATERIAL
350
10
  3
ACAD_MLEADERSTYLE
350
66
  3
ACAD_MLINESTYLE
350
5F
  3
ACAD_PLOTSETTINGS
350
61
  3
ACAD_PLOTSTYLENAME
350
E
  3
ACAD_SCALELIST
350
42
  3
ACAD_TABLESTYLE
350
64
  3
ACAD_VISUALSTYLE
350
29
  3
ACDB_RECOMPOSE_DATA
350
892
  3
AcDbVariableDictionary
350
76
  3
DWGPROPS
350
893
  0
DICTIONARY
  5
8CF
330
7AA
100
AcDbDictionary
280
     1
281
     1
  3
ACAD_MTEXT_RT
360
8D0
  0
XRECORD
  5
884
102
{ACAD_REACTORS
330
C
102
}
330
C
100
AcDbXrecord
280
     1
300
INVNTOR
300
2012
300
85795PDSP_2012_0F
  0
DICTIONARY
  5
63
102
{ACAD_REACTORS
330
C
102
}
330
C
100
AcDbDictionary
281
     1
  0
DICTIONARY
  5
D
102
{ACAD_REACTORS
330
C
102
}
330
C
100
AcDbDictionary
281
     1
  0
DICTIONARY
  5
62
102
{ACAD_REACTORS
330
C
102
}
330
C
100
AcDbDictionary
281
     1
  3
Layout1
350
6B
  3
Layout2
350
73
  3
Model
350
6F
  0
DICTIONARY
  5
10
102
{ACAD_REACTORS
330
C
102
}
330
C
100
AcDbDictionary
281
     1
  3
ByBlock
350
19
  3
ByLayer
350
11
  3
Global
350
21
  0
DICTIONARY
  5
66
102
{ACAD_REACTORS
330
C
102
}
330
C
100
AcDbDictionary
281
     1
  3
Standard
350
67
  0
DICTIONARY
  5
5F
102
{ACAD_REACTORS
330
C
102
}
330
C
100
AcDbDictionary
281
     1
  3
Standard
350
60
  0
DICTIONARY
  5
61
102
{ACAD_REACTORS
330
C
102
}
330
C
100
AcDbDictionary
281
     1
  0
ACDBDICTIONARYWDFLT
  5
E
102
{ACAD_REACTORS
330
C
102
}
330
C
100
AcDbDictionary
281
     1
  3
Normal
350
F
100
AcDbDictionaryWithDefault
340
F
  0
DICTIONARY
  5
42
102
{ACAD_REACTORS
330
C
102
}
330
C
100
AcDbDictionary
281
     1
  3
A0
350
43
  3
A1
350
44
  3
A2
350
45
  3
A3
350
46
  3
A4
350
47
  3
A5
350
48
  3
A6
350
49
  3
A7
350
4A
  3
A8
350
4B
  3
A9
350
4C
  3
B0
350
4D
  3
B1
350
4E
  3
B2
350
4F
  3
B3
350
50
  3
B4
350
51
  3
B5
350
52
  3
B6
350
53
  0
DICTIONARY
  5
64
102
{ACAD_REACTORS
330
C
102
}
330
C
100
AcDbDictionary
281
     1
  3
Standard
350
65
  0
DICTIONARY
  5
29
102
{ACAD_REACTORS
330
C
102
}
330
C
100
AcDbDictionary
281
     1
  3
2dWireframe
350
2F
  3
Basic
350
2E
  3
Brighten
350
35
  3
ColorChange
350
39
  3
Conceptual
350
32
  3
Dim
350
34
  3
EdgeColorOff
350
41
  3
Facepattern
350
38
  3
Flat
350
2A
  3
FlatWithEdges
350
2B
  3
Gouraud
350
2C
  3
GouraudWithEdges
350
2D
  3
Hidden
350
31
  3
JitterOff
350
3F
  3
Linepattern
350
37
  3
OverhangOff
350
40
  3
Realistic
350
33
  3
Shaded
350
3E
  3
Shaded with edges
350
3D
  3
Shades of Gray
350
3A
  3
Sketchy
350
3B
  3
Thicken
350
36
  3
Wireframe
350
30
  3
X-Ray
350
3C
  0
XRECORD
  5
892
102
{ACAD_REACTORS
330
C
102
}
330
C
100
AcDbXrecord
280
     1
 90
        1
330
65
330
52D
  0
DICTIONARY
  5
76
102
{ACAD_REACTORS
330
C
102
}
330
C
100
AcDbDictionary
281
     1
  3
CANNOSCALE
350
79
  3
CMLEADERSTYLE
350
78
  3
CTABLESTYLE
350
77
  3
DIMASSOC
350
88C
  3
HIDETEXT
350
88B
  3
INDEXCTL
350
88A
  3
LAYEREVAL
350
887
  3
LAYERNOTIFY
350
888
  3
LIGHTINGUNITS
350
886
  3
MSLTSCALE
350
885
  3
SORTENTS
350
889
  3
XCLIPFRAME
350
88D
  0
XRECORD
  5
893
102
{ACAD_REACTORS
330
C
102
}
330
C
100
AcDbXrecord
280
     1
  1
DWGPROPS COOKIE
  2

  3

  4
KRA
  6

  7

  8

  9
-
300
Manager=
301
Company=
302
Category=
303
Part Number=P1412-S
304
Description=P SERIES BACK PANEL MASTER VIEW
305
Project=
306
Designer=KRA
307
Engineer=
308
Authority=
309
Cost Center=
 40
0.0000403356481481
 41
2455950.580221285
 42
2455950.580221285
  1

 90
       20
300
Vendor=
300
User Status=
300
Design Status=WorkInProgress
300
Checked by=JMG
300
Date Checked=02/12/2009
300
Engr Approved by=
300
Mfg Approved by=
300
DWG. NO=
300
NUMBER OF SHEETS=1
300
DRAWING #=1
  0
XRECORD
  5
8D0
102
{ACAD_REACTORS
330
8CF
102
}
330
8CF
100
AcDbXrecord
280
     1
 40
41495.0
  1
\A1;\U+22050.250{\PGROUND\P HOLE}
  0
LAYOUT
  5
6B
102
{ACAD_XDICTIONARY
360
8C9
102
}
102
{ACAD_REACTORS
330
62
102
}
330
62
100
AcDbPlotSettings
  1

  2

  4

  6

 40
0.0
 41
0.0
 42
0.0
 43
0.0
 44
0.0
 45
0.0
 46
0.0
 47
0.0
 48
0.0
 49
0.0
140
0.0
141
0.0
142
1.0
143
1.0
 70
   688
 72
     0
 73
     0
 74
     5
  7

 75
    16
147
1.0
148
0.0
149
0.0
100
AcDbLayout
  1
Layout1
 70
     1
 71
     1
 10
0.0
 20
0.0
 11
12.0
 21
9.0
 12
0.0
 22
0.0
 32
0.0
 14
0.0
 24
0.0
 34
0.0
 15
0.0
 25
0.0
 35
0.0
146
0.0
 13
0.0
 23
0.0
 33
0.0
 16
1.0
 26
0.0
 36
0.0
 17
0.0
 27
1.0
 37
0.0
 76
     0
330
68
  0
LAYOUT
  5
73
102
{ACAD_XDICTIONARY
360
8CD
102
}
102
{ACAD_REACTORS
330
62
102
}
330
62
100
AcDbPlotSettings
  1

  2

  4

  6

 40
0.0
 41
0.0
 42
0.0
 43
0.0
 44
0.0
 45
0.0
 46
0.0
 47
0.0
 48
0.0
 49
0.0
140
0.0
141
0.0
142
1.0
143
1.0
 70
   688
 72
     0
 73
     0
 74
     5
  7

 75
    16
147
1.0
148
0.0
149
0.0
100
AcDbLayout
  1
Layout2
 70
     1
 71
     2
 10
0.0
 20
0.0
 11
12.0
 21
9.0
 12
0.0
 22
0.0
 32
0.0
 14
0.0
 24
0.0
 34
0.0
 15
0.0
 25
0.0
 35
0.0
146
0.0
 13
0.0
 23
0.0
 33
0.0
 16
1.0
 26
0.0
 36
0.0
 17
0.0
 27
1.0
 37
0.0
 76
     0
330
70
  0
LAYOUT
  5
6F
102
{ACAD_XDICTIONARY
360
8CB
102
}
102
{ACAD_REACTORS
330
62
102
}
330
62
100
AcDbPlotSettings
  1

  2

  4

  6

 40
0.0
 41
0.0
 42
0.0
 43
0.0
 44
0.0
 45
0.0
 46
0.0
 47
0.0
 48
0.0
 49
0.0
140
0.0
141
0.0
142
1.0
143
1.0
 70
  1712
 72
     0
 73
     0
 74
     0
  7

 75
     0
147
1.0
148
0.0
149
0.0
100
AcDbLayout
  1
Model
 70
     1
 71
     0
 10
0.0
 20
0.0
 11
12.0
 21
9.0
 12
0.0
 22
0.0
 32
0.0
 14
0.0
 24
0.0
 34
0.0
 15
0.0
 25
0.0
 35
0.0
146
0.0
 13
0.0
 23
0.0
 33
0.0
 16
1.0
 26
0.0
 36
0.0
 17
0.0
 27
1.0
 37
0.0
 76
     0
330
6C
  0
MATERIAL
  5
19
102
{ACAD_XDICTIONARY
360
1A
102
}
102
{ACAD_REACTORS
330
10
102
}
330
10
100
AcDbMaterial
  1
ByBlock
 72
     0
 43
0.0208333333333333
 43
0.0
 43
0.0
 43
0.0
 43
0.0
 43
0.0208333333333333
 43
0.0
 43
0.0
 43
0.0
 43
0.0
 43
1.0
 43
0.0
 43
0.0
 43
0.0
 43
0.0
 43
1.0
 77
     0
 47
0.0208333333333333
 47
0.0
 47
0.0
 47
0.0
 47
0.0
 47
0.0208333333333333
 47
0.0
 47
0.0
 47
0.0
 47
0.0
 47
1.0
 47
0.0
 47
0.0
 47
0.0
 47
0.0
 47
1.0
171
     0
 49
0.0208333333333333
 49
0.0
 49
0.0
 49
0.0
 49
0.0
 49
0.0208333333333333
 49
0.0
 49
0.0
 49
0.0
 49
0.0
 49
1.0
 49
0.0
 49
0.0
 49
0.0
 49
0.0
 49
1.0
175
     0
142
0.0208333333333333
142
0.0
142
0.0
142
0.0
142
0.0
142
0.0208333333333333
142
0.0
142
0.0
142
0.0
142
0.0
142
1.0
142
0.0
142
0.0
142
0.0
142
0.0
142
1.0
179
     0
144
0.0208333333333333
144
0.0
144
0.0
144
0.0
144
0.0
144
0.0208333333333333
144
0.0
144
0.0
144
0.0
144
0.0
144
1.0
144
0.0
144
0.0
144
0.0
144
0.0
144
1.0
147
0.0208333333333333
147
0.0
147
0.0
147
0.0
147
0.0
147
0.0208333333333333
147
0.0
147
0.0
147
0.0
147
0.0
147
1.0
147
0.0
147
0.0
147
0.0
147
0.0
147
1.0
  0
MATERIAL
  5
11
102
{ACAD_XDICTIONARY
360
12
102
}
102
{ACAD_REACTORS
330
10
102
}
330
10
100
AcDbMaterial
  1
ByLayer
 72
     0
 43
0.0208333333333333
 43
0.0
 43
0.0
 43
0.0
 43
0.0
 43
0.0208333333333333
 43
0.0
 43
0.0
 43
0.0
 43
0.0
 43
1.0
 43
0.0
 43
0.0
 43
0.0
 43
0.0
 43
1.0
 77
     0
 47
0.0208333333333333
 47
0.0
 47
0.0
 47
0.0
 47
0.0
 47
0.0208333333333333
 47
0.0
 47
0.0
 47
0.0
 47
0.0
 47
1.0
 47
0.0
 47
0.0
 47
0.0
 47
0.0
 47
1.0
171
     0
 49
0.0208333333333333
 49
0.0
 49
0.0
 49
0.0
 49
0.0
 49
0.0208333333333333
 49
0.0
 49
0.0
 49
0.0
 49
0.0
 49
1.0
 49
0.0
 49
0.0
 49
0.0
 49
0.0
 49
1.0
175
     0
142
0.0208333333333333
142
0.0
142
0.0
142
0.0
142
0.0
142
0.0208333333333333
142
0.0
142
0.0
142
0.0
142
0.0
142
1.0
142
0.0
142
0.0
142
0.0
142
0.0
142
1.0
179
     0
144
0.0208333333333333
144
0.0
144
0.0
144
0.0
144
0.0
144
0.0208333333333333
144
0.0
144
0.0
144
0.0
144
0.0
144
1.0
144
0.0
144
0.0
144
0.0
144
0.0
144
1.0
147
0.0208333333333333
147
0.0
147
0.0
147
0.0
147
0.0
147
0.0208333333333333
147
0.0
147
0.0
147
0.0
147
0.0
147
1.0
147
0.0
147
0.0
147
0.0
147
0.0
147
1.0
  0
MATERIAL
  5
21
102
{ACAD_XDICTIONARY
360
22
102
}
102
{ACAD_REACTORS
330
10
102
}
330
10
100
AcDbMaterial
  1
Global
 72
     0
 43
0.0208333333333333
 43
0.0
 43
0.0
 43
0.0
 43
0.0
 43
0.0208333333333333
 43
0.0
 43
0.0
 43
0.0
 43
0.0
 43
1.0
 43
0.0
 43
0.0
 43
0.0
 43
0.0
 43
1.0
 77
     0
 47
0.0208333333333333
 47
0.0
 47
0.0
 47
0.0
 47
0.0
 47
0.0208333333333333
 47
0.0
 47
0.0
 47
0.0
 47
0.0
 47
1.0
 47
0.0
 47
0.0
 47
0.0
 47
0.0
 47
1.0
171
     0
 49
0.0208333333333333
 49
0.0
 49
0.0
 49
0.0
 49
0.0
 49
0.0208333333333333
 49
0.0
 49
0.0
 49
0.0
 49
0.0
 49
1.0
 49
0.0
 49
0.0
 49
0.0
 49
0.0
 49
1.0
175
     0
142
0.0208333333333333
142
0.0
142
0.0
142
0.0
142
0.0
142
0.0208333333333333
142
0.0
142
0.0
142
0.0
142
0.0
142
1.0
142
0.0
142
0.0
142
0.0
142
0.0
142
1.0
179
     0
144
0.0208333333333333
144
0.0
144
0.0
144
0.0
144
0.0
144
0.0208333333333333
144
0.0
144
0.0
144
0.0
144
0.0
144
1.0
144
0.0
144
0.0
144
0.0
144
0.0
144
1.0
147
0.0208333333333333
147
0.0
147
0.0
147
0.0
147
0.0
147
0.0208333333333333
147
0.0
147
0.0
147
0.0
147
0.0
147
1.0
147
0.0
147
0.0
147
0.0
147
0.0
147
1.0
  0
MLEADERSTYLE
  5
67
102
{ACAD_XDICTIONARY
360
890
102
}
102
{ACAD_REACTORS
330
66
102
}
330
66
100
AcDbMLeaderStyle
170
     2
171
     1
172
     0
 90
        2
 40
0.0
 41
0.0
173
     1
 91
-1056964608
340
5B
 92
       -2
290
     1
 42
0.09
291
     1
 43
0.36
  3
Standard
 44
0.18
300

342
55
174
     1
178
     6
175
     1
176
     0
 93
-1056964608
 45
0.18
292
     0
297
     0
 46
0.18
 94
-1056964608
 47
1.0
 49
1.0
140
1.0
293
     1
141
0.0
294
     1
177
     0
142
1.0
295
     0
296
     0
143
0.125
1001
ACAD_MLEADERVER
1070
     2
  0
MLINESTYLE
  5
60
102
{ACAD_REACTORS
330
5F
102
}
330
5F
100
AcDbMlineStyle
  2
STANDARD
 70
     0
  3

 62
   256
 51
90.0
 52
90.0
 71
     2
 49
0.5
 62
   256
  6
BYLAYER
 49
-0.5
 62
   256
  6
BYLAYER
  0
ACDBPLACEHOLDER
  5
F
102
{ACAD_REACTORS
330
E
102
}
330
E
  0
SCALE
  5
43
102
{ACAD_REACTORS
330
42
102
}
330
42
100
AcDbScale
 70
     0
300
1:1
140
1.0
141
1.0
290
     1
  0
SCALE
  5
44
102
{ACAD_REACTORS
330
42
102
}
330
42
100
AcDbScale
 70
     0
300
1/128" = 1'-0"
140
0.0078125
141
12.0
290
     0
  0
SCALE
  5
45
102
{ACAD_REACTORS
330
42
102
}
330
42
100
AcDbScale
 70
     0
300
1/64" = 1'-0"
140
0.015625
141
12.0
290
     0
  0
SCALE
  5
46
102
{ACAD_REACTORS
330
42
102
}
330
42
100
AcDbScale
 70
     0
300
1/32" = 1'-0"
140
0.03125
141
12.0
290
     0
  0
SCALE
  5
47
102
{ACAD_REACTORS
330
42
102
}
330
42
100
AcDbScale
 70
     0
300
1/16" = 1'-0"
140
0.0625
141
12.0
290
     0
  0
SCALE
  5
48
102
{ACAD_REACTORS
330
42
102
}
330
42
100
AcDbScale
 70
     0
300
3/32" = 1'-0"
140
0.09375
141
12.0
290
     0
  0
SCALE
  5
49
102
{ACAD_REACTORS
330
42
102
}
330
42
100
AcDbScale
 70
     0
300
1/8" = 1'-0"
140
0.125
141
12.0
290
     0
  0
SCALE
  5
4A
102
{ACAD_REACTORS
330
42
102
}
330
42
100
AcDbScale
 70
     0
300
3/16" = 1'-0"
140
0.1875
141
12.0
290
     0
  0
SCALE
  5
4B
102
{ACAD_REACTORS
330
42
102
}
330
42
100
AcDbScale
 70
     0
300
1/4" = 1'-0"
140
0.25
141
12.0
290
     0
  0
SCALE
  5
4C
102
{ACAD_REACTORS
330
42
102
}
330
42
100
AcDbScale
 70
     0
300
3/8" = 1'-0"
140
0.375
141
12.0
290
     0
  0
SCALE
  5
4D
102
{ACAD_REACTORS
330
42
102
}
330
42
100
AcDbScale
 70
     0
300
1/2" = 1'-0"
140
0.5
141
12.0
290
     0
  0
SCALE
  5
4E
102
{ACAD_REACTORS
330
42
102
}
330
42
100
AcDbScale
 70
     0
300
3/4" = 1'-0"
140
0.75
141
12.0
290
     0
  0
SCALE
  5
4F
102
{ACAD_REACTORS
330
42
102
}
330
42
100
AcDbScale
 70
     0
300
1" = 1'-0"
140
1.0
141
12.0
290
     0
  0
SCALE
  5
50
102
{ACAD_REACTORS
330
42
102
}
330
42
100
AcDbScale
 70
     0
300
1-1/2" = 1'-0"
140
1.5
141
12.0
290
     0
  0
SCALE
  5
51
102
{ACAD_REACTORS
330
42
102
}
330
42
100
AcDbScale
 70
     0
300
3" = 1'-0"
140
3.0
141
12.0
290
     0
  0
SCALE
  5
52
102
{ACAD_REACTORS
330
42
102
}
330
42
100
AcDbScale
 70
     0
300
6" = 1'-0"
140
6.0
141
12.0
290
     0
  0
SCALE
  5
53
102
{ACAD_REACTORS
330
42
102
}
330
42
100
AcDbScale
 70
     0
300
1'-0" = 1'-0"
140
12.0
141
12.0
290
     0
  0
TABLESTYLE
  5
65
102
{ACAD_XDICTIONARY
360
88E
102
}
102
{ACAD_REACTORS
330
64
102
}
330
64
100
AcDbTableStyle
  3
Standard
 70
     0
 71
     0
 40
0.06
 41
0.06
280
     0
281
     0
  7
Standard
140
0.18
170
     2
 62
     0
 63
     7
283
     0
274
    -2
284
     1
 64
     0
275
    -2
285
     1
 65
     0
276
    -2
286
     1
 66
     0
277
    -2
287
     1
 67
     0
278
    -2
288
     1
 68
     0
279
    -2
289
     1
 69
     0
  7
Standard
140
0.25
170
     5
 62
     0
 63
     7
283
     0
274
    -2
284
     1
 64
     0
275
    -2
285
     1
 65
     0
276
    -2
286
     1
 66
     0
277
    -2
287
     1
 67
     0
278
    -2
288
     1
 68
     0
279
    -2
289
     1
 69
     0
  7
Standard
140
0.18
170
     5
 62
     0
 63
     7
283
     0
274
    -2
284
     1
 64
     0
275
    -2
285
     1
 65
     0
276
    -2
286
     1
 66
     0
277
    -2
287
     1
 67
     0
278
    -2
288
     1
 68
     0
279
    -2
289
     1
 69
     0
  0
VISUALSTYLE
  5
2F
102
{ACAD_XDICTIONARY
360
8A1
102
}
102
{ACAD_REACTORS
330
29
102
}
330
29
100
AcDbVisualStyle
  2
2dWireframe
 70
     4
 71
     0
 72
     2
 73
     0
 90
        0
 40
-0.6
 41
-30.0
 62
     5
 63
     7
 74
     1
 91
        4
 64
     7
 65
   257
 75
     1
175
     1
 42
1.0
 92
        0
 66
   257
 43
1.0
 76
     1
 77
     6
 78
     2
 67
     7
 79
     5
170
     0
171
     0
290
     0
174
     0
 93
        1
 44
0.0
173
     0
291
     0
 45
0.0
1001
ACAD
1000
AcDbSavedByObjectVersion
1070
     0
  0
VISUALSTYLE
  5
2E
102
{ACAD_XDICTIONARY
360
89F
102
}
102
{ACAD_REACTORS
330
29
102
}
330
29
100
AcDbVisualStyle
  2
Basic
 70
     7
 71
     1
 72
     0
 73
     1
 90
        0
 40
-0.6
 41
-30.0
 62
     5
 63
     7
 74
     0
 91
        4
 64
     7
 65
   257
 75
     1
175
     1
 42
1.0
 92
        8
 66
     7
 43
1.0
 76
     1
 77
     6
 78
     2
 67
     7
 79
     5
170
     0
171
     0
290
     0
174
     0
 93
        1
 44
0.0
173
     0
291
     1
 45
0.0
1001
ACAD
1000
AcDbSavedByObjectVersion
1070
     0
  0
VISUALSTYLE
  5
35
102
{ACAD_XDICTIONARY
360
8AD
102
}
102
{ACAD_REACTORS
330
29
102
}
330
29
100
AcDbVisualStyle
  2
Brighten
 70
    12
 71
     2
 72
     2
 73
     0
 90
        0
 40
-0.6
 41
-30.0
 62
     5
 63
     7
 74
     1
 91
        4
 64
     7
 65
   257
 75
     1
175
     1
 42
1.0
 92
        8
 66
     7
 43
1.0
 76
     1
 77
     6
 78
     2
 67
     7
 79
     5
170
     0
171
     0
290
     0
174
     0
 93
        1
 44
50.0
173
     0
291
     1
 45
0.0
1001
ACAD
1000
AcDbSavedByObjectVersion
1070
     0
  0
VISUALSTYLE
  5
39
102
{ACAD_XDICTIONARY
360
8B5
102
}
102
{ACAD_REACTORS
330
29
102
}
330
29
100
AcDbVisualStyle
  2
ColorChange
 70
    16
 71
     2
 72
     2
 73
     3
 90
        0
 40
-0.6
 41
-30.0
 62
     5
 63
     8
 74
     1
 91
        4
 64
     7
 65
   257
 75
     1
175
     1
 42
1.0
 92
        8
 66
     8
 43
1.0
 76
     1
 77
     6
 78
     2
 67
     7
 79
     5
170
     0
171
     0
290
     0
174
     0
 93
        1
 44
0.0
173
     0
291
     1
 45
0.0
1001
ACAD
1000
AcDbSavedByObjectVersion
1070
     0
  0
VISUALSTYLE
  5
32
102
{ACAD_XDICTIONARY
360
8A7
102
}
102
{ACAD_REACTORS
330
29
102
}
330
29
100
AcDbVisualStyle
  2
Conceptual
 70
     9
 71
     3
 72
     2
 73
     0
 90
        0
 40
-0.6
 41
-30.0
 62
     5
 63
     7
 74
     2
 91
        2
 64
     7
 65
   257
 75
     1
175
     1
 42
179.0
 92
        8
 66
     7
 43
1.0
 76
     1
 77
     6
 78
     2
 67
     7
 79
     3
170
     0
171
     0
290
     0
174
     0
 93
        1
 44
0.0
173
     0
291
     0
 45
0.0
1001
ACAD
1000
AcDbSavedByObjectVersion
1070
     0
  0
VISUALSTYLE
  5
34
102
{ACAD_XDICTIONARY
360
8AB
102
}
102
{ACAD_REACTORS
330
29
102
}
330
29
100
AcDbVisualStyle
  2
Dim
 70
    11
 71
     2
 72
     2
 73
     0
 90
        0
 40
-0.6
 41
-30.0
 62
     5
 63
     7
 74
     1
 91
        4
 64
     7
 65
   257
 75
     1
175
     1
 42
1.0
 92
        8
 66
     7
 43
1.0
 76
     1
 77
     6
 78
     2
 67
     7
 79
     5
170
     0
171
     0
290
     0
174
     0
 93
        1
 44
-50.0
173
     0
291
     1
 45
0.0
1001
ACAD
1000
AcDbSavedByObjectVersion
1070
     0
  0
VISUALSTYLE
  5
41
102
{ACAD_XDICTIONARY
360
8C5
102
}
102
{ACAD_REACTORS
330
29
102
}
330
29
100
AcDbVisualStyle
  2
EdgeColorOff
 70
    22
 71
     2
 72
     2
 73
     0
 90
        0
 40
-0.6
 41
-30.0
 62
     5
 63
     7
 74
     1
 91
        4
 64
     7
 65
   257
 75
     1
175
     1
 42
1.0
 92
        8
 66
     7
 43
1.0
 76
     1
 77
     6
 78
     2
 67
     7
 79
     5
170
     0
171
     0
290
     0
174
     0
 93
        1
 44
0.0
173
     0
291
     1
 45
0.0
1001
ACAD
1000
AcDbSavedByObjectVersion
1070
     0
  0
VISUALSTYLE
  5
38
102
{ACAD_XDICTIONARY
360
8B3
102
}
102
{ACAD_REACTORS
330
29
102
}
330
29
100
AcDbVisualStyle
  2
Facepattern
 70
    15
 71
     2
 72
     2
 73
     0
 90
        0
 40
-0.6
 41
-30.0
 62
     5
 63
     7
 74
     1
 91
        4
 64
     7
 65
   257
 75
     1
175
     1
 42
1.0
 92
        8
 66
     7
 43
1.0
 76
     1
 77
     6
 78
     2
 67
     7
 79
     5
170
     0
171
     0
290
     0
174
     0
 93
        1
 44
0.0
173
     0
291
     1
 45
0.0
1001
ACAD
1000
AcDbSavedByObjectVersion
1070
     0
  0
VISUALSTYLE
  5
2A
102
{ACAD_XDICTIONARY
360
897
102
}
102
{ACAD_REACTORS
330
29
102
}
330
29
100
AcDbVisualStyle
  2
Flat
 70
     0
 71
     2
 72
     1
 73
     1
 90
        2
 40
-0.6
 41
30.0
 62
     5
 63
     7
 74
     0
 91
        0
 64
     7
 65
   257
 75
     1
175
     1
 42
1.0
 92
        8
 66
     7
 43
1.0
 76
     1
 77
     6
 78
     2
 67
     7
 79
     5
170
     0
171
     0
290
     0
174
     0
 93
       13
 44
0.0
173
     0
291
     1
 45
0.0
1001
ACAD
1000
AcDbSavedByObjectVersion
1070
     0
  0
VISUALSTYLE
  5
2B
102
{ACAD_XDICTIONARY
360
899
102
}
102
{ACAD_REACTORS
330
29
102
}
330
29
100
AcDbVisualStyle
  2
FlatWithEdges
 70
     1
 71
     2
 72
     1
 73
     1
 90
        2
 40
-0.6
 41
30.0
 62
     5
 63
     7
 74
     1
 91
        0
 64
     7
 65
   257
 75
     1
175
     1
 42
1.0
 92
        0
 66
   257
 43
1.0
 76
     1
 77
     6
 78
     2
 67
     7
 79
     5
170
     0
171
     0
290
     0
174
     0
 93
       13
 44
0.0
173
     0
291
     1
 45
0.0
1001
ACAD
1000
AcDbSavedByObjectVersion
1070
     0
  0
VISUALSTYLE
  5
2C
102
{ACAD_XDICTIONARY
360
89B
102
}
102
{ACAD_REACTORS
330
29
102
}
330
29
100
AcDbVisualStyle
  2
Gouraud
 70
     2
 71
     2
 72
     2
 73
     1
 90
        2
 40
-0.6
 41
30.0
 62
     5
 63
     7
 74
     0
 91
        0
 64
     7
 65
   257
 75
     1
175
     1
 42
1.0
 92
        0
 66
     7
 43
1.0
 76
     1
 77
     6
 78
     2
 67
     7
 79
     5
170
     0
171
     0
290
     0
174
     0
 93
       13
 44
0.0
173
     0
291
     1
 45
0.0
1001
ACAD
1000
AcDbSavedByObjectVersion
1070
     0
  0
VISUALSTYLE
  5
2D
102
{ACAD_XDICTIONARY
360
89D
102
}
102
{ACAD_REACTORS
330
29
102
}
330
29
100
AcDbVisualStyle
  2
GouraudWithEdges
 70
     3
 71
     2
 72
     2
 73
     1
 90
        2
 40
-0.6
 41
30.0
 62
     5
 63
     7
 74
     1
 91
        0
 64
     7
 65
   257
 75
     1
175
     1
 42
1.0
 92
        0
 66
   257
 43
1.0
 76
     1
 77
     6
 78
     2
 67
     7
 79
     5
170
     0
171
     0
290
     0
174
     0
 93
       13
 44
0.0
173
     0
291
     1
 45
0.0
1001
ACAD
1000
AcDbSavedByObjectVersion
1070
     0
  0
VISUALSTYLE
  5
31
102
{ACAD_XDICTIONARY
360
8A5
102
}
102
{ACAD_REACTORS
330
29
102
}
330
29
100
AcDbVisualStyle
  2
Hidden
 70
     6
 71
     1
 72
     2
 73
     2
 90
        0
 40
-0.6
 41
-30.0
 62
     5
 63
     7
 74
     2
 91
        2
 64
     7
 65
   257
 75
     2
175
     1
 42
40.0
 92
        0
 66
   257
 43
1.0
 76
     1
 77
     6
 78
     2
 67
     7
 79
     3
170
     0
171
     0
290
     0
174
     0
 93
        1
 44
0.0
173
     0
291
     0
 45
0.0
1001
ACAD
1000
AcDbSavedByObjectVersion
1070
     0
  0
VISUALSTYLE
  5
3F
102
{ACAD_XDICTIONARY
360
8C1
102
}
102
{ACAD_REACTORS
330
29
102
}
330
29
100
AcDbVisualStyle
  2
JitterOff
 70
    20
 71
     2
 72
     2
 73
     0
 90
        0
 40
-0.6
 41
-30.0
 62
     5
 63
     7
 74
     1
 91
        4
 64
     7
 65
   257
 75
     1
175
     1
 42
1.0
 92
       10
 66
     7
 43
1.0
 76
     1
 77
     6
 78
     2
 67
     7
 79
     5
170
     0
171
     0
290
     0
174
     0
 93
        1
 44
0.0
173
     0
291
     1
 45
0.0
1001
ACAD
1000
AcDbSavedByObjectVersion
1070
     0
  0
VISUALSTYLE
  5
37
102
{ACAD_XDICTIONARY
360
8B1
102
}
102
{ACAD_REACTORS
330
29
102
}
330
29
100
AcDbVisualStyle
  2
Linepattern
 70
    14
 71
     2
 72
     2
 73
     0
 90
        0
 40
-0.6
 41
-30.0
 62
     5
 63
     7
 74
     1
 91
        4
 64
     7
 65
   257
 75
     7
175
     7
 42
1.0
 92
        8
 66
     7
 43
1.0
 76
     1
 77
     6
 78
     2
 67
     7
 79
     5
170
     0
171
     0
290
     0
174
     0
 93
        1
 44
0.0
173
     0
291
     1
 45
0.0
1001
ACAD
1000
AcDbSavedByObjectVersion
1070
     0
  0
VISUALSTYLE
  5
40
102
{ACAD_XDICTIONARY
360
8C3
102
}
102
{ACAD_REACTORS
330
29
102
}
330
29
100
AcDbVisualStyle
  2
OverhangOff
 70
    21
 71
     2
 72
     2
 73
     0
 90
        0
 40
-0.6
 41
-30.0
 62
     5
 63
     7
 74
     1
 91
        4
 64
     7
 65
   257
 75
     1
175
     1
 42
1.0
 92
        9
 66
     7
 43
1.0
 76
     1
 77
     6
 78
     2
 67
     7
 79
     5
170
     0
171
     0
290
     0
174
     0
 93
        1
 44
0.0
173
     0
291
     1
 45
0.0
1001
ACAD
1000
AcDbSavedByObjectVersion
1070
     0
  0
VISUALSTYLE
  5
33
102
{ACAD_XDICTIONARY
360
8A9
102
}
102
{ACAD_REACTORS
330
29
102
}
330
29
100
AcDbVisualStyle
  2
Realistic
 70
     8
 71
     2
 72
     3
 73
     0
 90
        2
 40
-0.6
 41
30.0
 62
     5
 63
     7
 74
     0
 91
        0
 64
     7
 65
   257
 75
     1
175
     1
 42
1.0
 92
        8
 66
   257
 43
1.0
 76
     1
 77
     6
 78
     2
 67
     7
 79
     3
170
     0
171
     0
290
     0
174
     0
 93
       13
 44
0.0
173
     0
291
     0
 45
0.0
1001
ACAD
1000
AcDbSavedByObjectVersion
1070
     0
  0
VISUALSTYLE
  5
3E
102
{ACAD_XDICTIONARY
360
8BF
102
}
102
{ACAD_REACTORS
330
29
102
}
330
29
100
AcDbVisualStyle
  2
Shaded
 70
    27
 71
     2
 72
     2
 73
     1
 90
        2
 40
-0.6
 41
30.0
 62
     5
 63
     7
 74
     0
 91
        4
 64
     7
 65
   257
 75
     1
175
     1
 42
1.0
 92
        8
 66
   257
 43
1.0
 76
     1
 77
     6
 78
     2
 67
     8
 79
     3
170
     0
171
     0
290
     0
174
     0
 93
        5
 44
0.0
173
     0
291
     0
 45
0.0
1001
ACAD
1000
AcDbSavedByObjectVersion
1070
     0
  0
VISUALSTYLE
  5
3D
102
{ACAD_XDICTIONARY
360
8BD
102
}
102
{ACAD_REACTORS
330
29
102
}
330
29
100
AcDbVisualStyle
  2
Shaded with edges
 70
    26
 71
     2
 72
     2
 73
     1
 90
        2
 40
-0.6
 41
30.0
 62
     5
 63
     7
 74
     1
 91
       10
 64
     7
 65
   257
 75
     2
175
     1
 42
1.0
 92
        8
 66
   257
 43
1.0
 76
     1
 77
     6
 78
     2
 67
     7
 79
     3
170
     0
171
     0
290
     0
174
     0
 93
        5
 44
0.0
173
     0
291
     0
 45
0.0
1001
ACAD
1000
AcDbSavedByObjectVersion
1070
     0
  0
VISUALSTYLE
  5
3A
102
{ACAD_XDICTIONARY
360
8B7
102
}
102
{ACAD_REACTORS
330
29
102
}
330
29
100
AcDbVisualStyle
  2
Shades of Gray
 70
    23
 71
     2
 72
     2
 73
     3
 90
        0
 40
-0.6
 41
-30.0
 62
     5
 63
     7
 74
     2
 91
        2
 64
     7
 65
     7
 75
     1
175
     1
 42
40.0
 92
        8
 66
     7
 43
1.0
 76
     1
 77
     6
 78
     2
 67
     7
 79
     3
170
     0
171
     0
290
     0
174
     0
 93
        1
 44
0.0
173
     0
291
     0
 45
0.0
1001
ACAD
1000
AcDbSavedByObjectVersion
1070
     0
  0
VISUALSTYLE
  5
3B
102
{ACAD_XDICTIONARY
360
8B9
102
}
102
{ACAD_REACTORS
330
29
102
}
330
29
100
AcDbVisualStyle
  2
Sketchy
 70
    24
 71
     1
 72
     2
 73
     2
 90
        0
 40
-0.6
 41
-30.0
 62
     5
 63
     7
 74
     2
 91
        2
 64
     7
 65
     7
 75
     1
175
     1
 42
40.0
 92
       11
 66
     7
 43
1.0
 76
     1
 77
     6
 78
     2
 67
     7
 79
     6
170
     0
171
     0
290
     0
174
     0
 93
        1
 44
0.0
173
     0
291
     0
 45
0.0
1001
ACAD
1000
AcDbSavedByObjectVersion
1070
     0
  0
VISUALSTYLE
  5
36
102
{ACAD_XDICTIONARY
360
8AF
102
}
102
{ACAD_REACTORS
330
29
102
}
330
29
100
AcDbVisualStyle
  2
Thicken
 70
    13
 71
     2
 72
     2
 73
     0
 90
        0
 40
-0.6
 41
-30.0
 62
     5
 63
     7
 74
     1
 91
        4
 64
     7
 65
   257
 75
     1
175
     1
 42
1.0
 92
       12
 66
     7
 43
1.0
 76
     1
 77
     6
 78
     2
 67
     7
 79
     5
170
     0
171
     0
290
     0
174
     0
 93
        1
 44
0.0
173
     0
291
     1
 45
0.0
1001
ACAD
1000
AcDbSavedByObjectVersion
1070
     0
  0
VISUALSTYLE
  5
30
102
{ACAD_XDICTIONARY
360
8A3
102
}
102
{ACAD_REACTORS
330
29
102
}
330
29
100
AcDbVisualStyle
  2
Wireframe
 70
     5
 71
     0
 72
     2
 73
     0
 90
        0
 40
-0.6
 41
-30.0
 62
     5
 63
     7
 74
     1
 91
        4
 64
     7
 65
   257
 75
     1
175
     1
 42
1.0
 92
        0
 66
   257
 43
1.0
 76
     1
 77
     6
 78
     2
 67
     7
 79
     3
170
     0
171
     0
290
     0
174
     0
 93
        1
 44
0.0
173
     0
291
     0
 45
0.0
1001
ACAD
1000
AcDbSavedByObjectVersion
1070
     0
  0
VISUALSTYLE
  5
3C
102
{ACAD_XDICTIONARY
360
8BB
102
}
102
{ACAD_REACTORS
330
29
102
}
330
29
100
AcDbVisualStyle
  2
X-Ray
 70
    25
 71
     2
 72
     2
 73
     1
 90
        1
 40
0.5
 41
-30.0
 62
     5
 63
     7
 74
     1
 91
        0
 64
     7
 65
   257
 75
     1
175
     1
 42
1.0
 92
        8
 66
     7
 43
1.0
 76
     1
 77
     6
 78
     2
 67
     7
 79
     3
170
     0
171
     0
290
     0
174
     0
 93
       13
 44
0.0
173
     0
291
     0
 45
0.0
1001
ACAD
1000
AcDbSavedByObjectVersion
1070
     0
  0
DICTIONARYVAR
  5
79
102
{ACAD_REACTORS
330
76
102
}
330
76
100
DictionaryVariables
280
     0
  1
1:1
  0
DICTIONARYVAR
  5
78
102
{ACAD_REACTORS
330
76
102
}
330
76
100
DictionaryVariables
280
     0
  1
STANDARD
  0
DICTIONARYVAR
  5
77
102
{ACAD_REACTORS
330
76
102
}
330
76
100
DictionaryVariables
280
     0
  1
STANDARD
  0
DICTIONARYVAR
  5
88C
102
{ACAD_REACTORS
330
76
102
}
330
76
100
DictionaryVariables
280
     0
  1
1
  0
DICTIONARYVAR
  5
88B
102
{ACAD_REACTORS
330
76
102
}
330
76
100
DictionaryVariables
280
     0
  1
1
  0
DICTIONARYVAR
  5
88A
102
{ACAD_REACTORS
330
76
102
}
330
76
100
DictionaryVariables
280
     0
  1
0
  0
DICTIONARYVAR
  5
887
102
{ACAD_REACTORS
330
76
102
}
330
76
100
DictionaryVariables
280
     0
  1
0
  0
DICTIONARYVAR
  5
888
102
{ACAD_REACTORS
330
76
102
}
330
76
100
DictionaryVariables
280
     0
  1
0
  0
DICTIONARYVAR
  5
886
102
{ACAD_REACTORS
330
76
102
}
330
76
100
DictionaryVariables
280
     0
  1
2
  0
DICTIONARYVAR
  5
885
102
{ACAD_REACTORS
330
76
102
}
330
76
100
DictionaryVariables
280
     0
  1
1
  0
DICTIONARYVAR
  5
889
102
{ACAD_REACTORS
330
76
102
}
330
76
100
DictionaryVariables
280
     0
  1
127
  0
DICTIONARYVAR
  5
88D
102
{ACAD_REACTORS
330
76
102
}
330
76
100
DictionaryVariables
280
     0
  1
2
  0
DICTIONARY
  5
8C9
330
6B
100
AcDbDictionary
280
     1
281
     1
  3
ACAD_XREC_ROUNDTRIP
360
8CA
  0
DICTIONARY
  5
8CD
330
73
100
AcDbDictionary
280
     1
281
     1
  3
ACAD_XREC_ROUNDTRIP
360
8CE
  0
DICTIONARY
  5
8CB
330
6F
100
AcDbDictionary
280
     1
281
     1
  3
ACAD_XREC_ROUNDTRIP
360
8CC
  0
DICTIONARY
  5
1A
330
19
100
AcDbDictionary
280
     1
281
     1
  3
ACAD_XREC_ROUNDTRIP
360
895
  3
BUMPTILE
360
1C
  3
DIFFUSETILE
360
1B
  3
OPACITYTILE
360
1F
  3
REFLECTIONTILE
360
1E
  3
REFRACTIONTILE
360
20
  3
SPECULARTILE
360
1D
  0
DICTIONARY
  5
12
330
11
100
AcDbDictionary
280
     1
281
     1
  3
ACAD_XREC_ROUNDTRIP
360
894
  3
BUMPTILE
360
14
  3
DIFFUSETILE
360
13
  3
FBXASSET
360
10B
  3
OPACITYTILE
360
17
  3
REFLECTIONTILE
360
16
  3
REFRACTIONTILE
360
18
  3
SPECULARTILE
360
15
  0
DICTIONARY
  5
22
330
21
100
AcDbDictionary
280
     1
281
     1
  3
ACAD_XREC_ROUNDTRIP
360
896
  3
BUMPTILE
360
24
  3
DIFFUSETILE
360
23
  3
FBXASSET
360
BA
  3
OPACITYTILE
360
27
  3
REFLECTIONTILE
360
26
  3
REFRACTIONTILE
360
28
  3
SPECULARTILE
360
25
  0
DICTIONARY
  5
890
330
67
100
AcDbDictionary
280
     1
281
     1
  3
ACAD_XREC_ROUNDTRIP
360
891
  0
DICTIONARY
  5
88E
330
65
100
AcDbDictionary
280
     1
281
     1
  3
ACAD_ROUNDTRIP_2008_TABLESTYLE_CELLSTYLEMAP
360
88F
  3
ACAD_XREC_ROUNDTRIP
360
8C7
  0
DICTIONARY
  5
8A1
330
2F
100
AcDbDictionary
280
     1
281
     1
  3
ACAD_XREC_ROUNDTRIP
360
8A2
  0
DICTIONARY
  5
89F
330
2E
100
AcDbDictionary
280
     1
281
     1
  3
ACAD_XREC_ROUNDTRIP
360
8A0
  0
DICTIONARY
  5
8AD
330
35
100
AcDbDictionary
280
     1
281
     1
  3
ACAD_XREC_ROUNDTRIP
360
8AE
  0
DICTIONARY
  5
8B5
330
39
100
AcDbDictionary
280
     1
281
     1
  3
ACAD_XREC_ROUNDTRIP
360
8B6
  0
DICTIONARY
  5
8A7
330
32
100
AcDbDictionary
280
     1
281
     1
  3
ACAD_XREC_ROUNDTRIP
360
8A8
  0
DICTIONARY
  5
8AB
330
34
100
AcDbDictionary
280
     1
281
     1
  3
ACAD_XREC_ROUNDTRIP
360
8AC
  0
DICTIONARY
  5
8C5
330
41
100
AcDbDictionary
280
     1
281
     1
  3
ACAD_XREC_ROUNDTRIP
360
8C6
  0
DICTIONARY
  5
8B3
330
38
100
AcDbDictionary
280
     1
281
     1
  3
ACAD_XREC_ROUNDTRIP
360
8B4
  0
DICTIONARY
  5
897
330
2A
100
AcDbDictionary
280
     1
281
     1
  3
ACAD_XREC_ROUNDTRIP
360
898
  0
DICTIONARY
  5
899
330
2B
100
AcDbDictionary
280
     1
281
     1
  3
ACAD_XREC_ROUNDTRIP
360
89A
  0
DICTIONARY
  5
89B
330
2C
100
AcDbDictionary
280
     1
281
     1
  3
ACAD_XREC_ROUNDTRIP
360
89C
  0
DICTIONARY
  5
89D
330
2D
100
AcDbDictionary
280
     1
281
     1
  3
ACAD_XREC_ROUNDTRIP
360
89E
  0
DICTIONARY
  5
8A5
330
31
100
AcDbDictionary
280
     1
281
     1
  3
ACAD_XREC_ROUNDTRIP
360
8A6
  0
DICTIONARY
  5
8C1
330
3F
100
AcDbDictionary
280
     1
281
     1
  3
ACAD_XREC_ROUNDTRIP
360
8C2
  0
DICTIONARY
  5
8B1
330
37
100
AcDbDictionary
280
     1
281
     1
  3
ACAD_XREC_ROUNDTRIP
360
8B2
  0
DICTIONARY
  5
8C3
330
40
100
AcDbDictionary
280
     1
281
     1
  3
ACAD_XREC_ROUNDTRIP
360
8C4
  0
DICTIONARY
  5
8A9
330
33
100
AcDbDictionary
280
     1
281
     1
  3
ACAD_XREC_ROUNDTRIP
360
8AA
  0
DICTIONARY
  5
8BF
330
3E
100
AcDbDictionary
280
     1
281
     1
  3
ACAD_XREC_ROUNDTRIP
360
8C0
  0
DICTIONARY
  5
8BD
330
3D
100
AcDbDictionary
280
     1
281
     1
  3
ACAD_XREC_ROUNDTRIP
360
8BE
  0
DICTIONARY
  5
8B7
330
3A
100
AcDbDictionary
280
     1
281
     1
  3
ACAD_XREC_ROUNDTRIP
360
8B8
  0
DICTIONARY
  5
8B9
330
3B
100
AcDbDictionary
280
     1
281
     1
  3
ACAD_XREC_ROUNDTRIP
360
8BA
  0
DICTIONARY
  5
8AF
330
36
100
AcDbDictionary
280
     1
281
     1
  3
ACAD_XREC_ROUNDTRIP
360
8B0
  0
DICTIONARY
  5
8A3
330
30
100
AcDbDictionary
280
     1
281
     1
  3
ACAD_XREC_ROUNDTRIP
360
8A4
  0
DICTIONARY
  5
8BB
330
3C
100
AcDbDictionary
280
     1
281
     1
  3
ACAD_XREC_ROUNDTRIP
360
8BC
  0
XRECORD
  5
8CA
102
{ACAD_REACTORS
330
8C9
102
}
330
8C9
100
AcDbXrecord
280
     1
102
SHADEPLOT
 70
     0
102
SHADEPLOTRESLEVEL
 70
     2
102
SHADEPLOTCUSTOMDPI
 70
   300
  0
XRECORD
  5
8CE
102
{ACAD_REACTORS
330
8CD
102
}
330
8CD
100
AcDbXrecord
280
     1
102
SHADEPLOT
 70
     0
102
SHADEPLOTRESLEVEL
 70
     2
102
SHADEPLOTCUSTOMDPI
 70
   300
  0
XRECORD
  5
8CC
102
{ACAD_REACTORS
330
8CB
102
}
330
8CB
100
AcDbXrecord
280
     1
102
SHADEPLOT
 70
     0
102
SHADEPLOTRESLEVEL
 70
     2
102
SHADEPLOTCUSTOMDPI
 70
   300
  0
XRECORD
  5
895
102
{ACAD_REACTORS
330
1A
102
}
330
1A
100
AcDbXrecord
280
     1
102
MATERIAL
148
0.0
149
0.0
149
0.0
 93
        0
 94
      127
282
     0
 72
     0
 77
     0
171
     0
175
     0
179
     0
273
     0
  0
XRECORD
  5
1C
102
{ACAD_REACTORS
330
1A
102
}
330
1A
100
AcDbXrecord
280
     1
270
     1
271
     1
  0
XRECORD
  5
1B
102
{ACAD_REACTORS
330
1A
102
}
330
1A
100
AcDbXrecord
280
     1
270
     1
271
     1
  0
XRECORD
  5
1F
102
{ACAD_REACTORS
330
1A
102
}
330
1A
100
AcDbXrecord
280
     1
270
     1
271
     1
  0
XRECORD
  5
1E
102
{ACAD_REACTORS
330
1A
102
}
330
1A
100
AcDbXrecord
280
     1
270
     1
271
     1
  0
XRECORD
  5
20
102
{ACAD_REACTORS
330
1A
102
}
330
1A
100
AcDbXrecord
280
     1
270
     1
271
     1
  0
XRECORD
  5
1D
102
{ACAD_REACTORS
330
1A
102
}
330
1A
100
AcDbXrecord
280
     1
270
     1
271
     1
  0
XRECORD
  5
894
102
{ACAD_REACTORS
330
12
102
}
330
12
100
AcDbXrecord
280
     1
102
MATERIAL
148
0.0
149
0.0
149
0.0
 93
        0
 94
      127
282
     0
 72
     0
 77
     0
171
     0
175
     0
179
     0
273
     0
  0
XRECORD
  5
14
102
{ACAD_REACTORS
330
12
102
}
330
12
100
AcDbXrecord
280
     1
270
     1
271
     1
  0
XRECORD
  5
13
102
{ACAD_REACTORS
330
12
102
}
330
12
100
AcDbXrecord
280
     1
270
     1
271
     1
  0
XRECORD
  5
10B
102
{ACAD_REACTORS
330
12
102
}
330
12
100
AcDbXrecord
280
     1
 70
     1
 90
1959938040
 71
     1
  1
356FFA8F-87D8-4C3F-B244-56A9FBF781F8
311
504B03040A0000080000F16E37403DEE336E79000000790000001B0000006175746F6465736B2D64657369676E2D7061636B6167652E786D6C3C3F786D6C2076657273696F6E3D22312E302220656E636F64696E673D227574662D3822203F3E3C666F726D6174733E3C666F726D61743E687474703A2F2F736368656D612E
311
6175746F6465736B2E636F6D2F64657369676E2D7061636B6167652F323030393C2F666F726D61743E3C2F666F726D6174733E504B0304140006080800F16E3740D486FD9CA0000000F4000000130000005B436F6E74656E745F54797065735D2E786D6C7D8EC10E82300C865F65E91D8A1E8C310C0EEA1BF002731658846E
311
D98AC1B77784ABF1D8FE5FBFBF75BBCE937A534CCEB38643598122B6FEE978D0B0485F9C41B54DDD7D022595594E1A469170414C76A4D9A4D207E29CF43ECE46F218070CC6BECC4078ACAA135ACF422C856C0E68EA1BF5669944DDD7BCDE7B1F8E415D77AECB980613C2E4AC91FC167A2B244592486606FC29C8FD7F045B9A
311
EF7053A7E60B504B0304140006080800F16E3740FE3E7054EA0000007C01000008000000636F72652E786D6C8D90D18E832010457F85CC3B0AA21B3548D346FD82FD0182D4925630029BFDFCC5D626BB6FFB34933BF7CC4C2E3F7D2F0FF4A5376F9CED80660490B6CA4DC6CE1DC470C535A093E09B73E1970D90958BEE6097
311
41F07973713D24E56CD03624D5BA491FA2F45E0740EA919A0EBCBAE945663286E4F0F76C95EA2E679DD17797E018CD845E47CC94F699ABD11B8873431B721E075C5CE80597FD30E2BAA70C8F35AB5859950DEB079EEFB0E0C12CEFFB6AD332E8094441688109C505FBA4ACADAA9695987CB484F07CB7FF81E23AFD138AC606
311
561CEFBE300F82A6479E03C1F33D8B549E41A5BAE7267E00504B0304140006080800F16E374055019EA25F0000007C00000007000000636E782E786D6C4DCB3B0E80201045D1AD90E915ED2CF8AC45050C11660C8261F98AB1B07AC9C97D42D718D865D3E909258CFD00CCE24AC6E326A164D74DC0B4128928FF326038472B
311
A13128B1252AC747C6BAB984FC68F0B87FE8960A5C09FE86CFB69FBA01504B0304140006080800F16E3740959A97C866010000020300000C0000006662782F636F72652E786D6C8D52ED8E8230107C95A6FF4B291F1735A546A33EC1BD4085CA35424B4A4B7CFC5B04C37931C690946666677776806F6F6D8306E57A6D4D81
311
591463A44C692B6DEA02077F212B8CB6823B6BFD9F328C8C6C558147180B5E3B1BBA192AADF1CA78408DADD40CCABE571EA3B2814B81FBF247B53292C143457F8D3A595E65AD2216010D7582F7DE8101340D194F2C2EE71BA7132E7808BA9A595DC1347DD1CA61B15BB375BC3B1D49B2677B921D8E27B23AB0949C56699E66
311
79B64E0F474E47B1E05EB70F77A553D2AB0A8B246609891949D26F966EF27C936624FEDAC431A763F9932874D587A2A08D4F93D9EE24EBB16060E44EFCDB1622F2A89703F8A182D3314478DD137E0E1A028190BD3C378F3DAE000DAAF4D665C054362CD4209BA0606A8CEE0FA7130B9DEF0D60B3977D92377DDEF7800F284D
311
0DD6A487EB39F8713A9FA6CE5174CA91C1DF90B1AE95CD626EB2B89CCBA097F2D236D67DA2A6F3AA740E938E7FAFF805504B0304140006080800F16E3740C611E1877E0000009D0000000B0000006662782F636E782E786D6C4DCCDD0A832018C6F15B91F7DC5AB335076ABC7D5C482C0BC974988E5DFE6A74B0A3077E3CFC
311
45FD592D79EBB019EF2414D90588764F3F1A374B4871A21C48AD44F03EFEDD80B861D5120E0625E6E0D3EBA4514F43B271576BDC726255B4FD8D358CDE1F88B4ECB0A4C81B4E59D55F9161CB78C7215722FF95F63DC2EA0B504B0304140006080800F16E37400D22708B2B01000014020000310000006662782F3631434535
311
3342332D373941412D344441342D413842382D3336453241334143333844382F636F72652E786D6C8D51CB6EC32010FC15C4293D60F3B05D37C244CEE30FFA038E21294A0C168F2A9F5FA81DA9BDE5C2A2D999D9D12EDF3DA63BF856CE6B6B3A480A0C8132A395DA5C3B18C305B510EC0477D6863F3408CC30A90E66180A7E
311
7536CE2B345A139409093556AA151CBC570182F19E3E1DF4E3979A8662882131FCAD9887F1365C55418AD44E3CC17D7029005886E4178A861C4E35DB33F4FED1F7A83AF615EADB7D8B5873A23DEB0FAC3DB6BC5C8482C7A8E52AD732C5D117ADDCAB26592C78D0D333FEE8D4109484826242112688B24FC2B675BD6515C2CD
311
16635E66FA3F519CE58BA2A84D60748DBBC83C1484974B437069E3F9FE0CA31EB37501E4791BAFC6372870812969484B1B5E2ED4B480E4D954ABA70FD6A5056F6EE7C426F562DC548297F946A9FC1E30D57C4FF103504B0304140006080800F16E374057BAEFA94D01000033030000300000006662782F3631434535334233
311
2D373941412D344441342D413842382D3336453241334143333844382F636E782E786D6CD593CD6EC32010845F0571F75FEC44558489D4439FA0875E316C121A0C163F55F3F65D1292E692438FBD206B7698597DC26CF73D1BF2053E686747DAD52D2560A553DA1E469AE2BE7AA164C799772E3ED828B162869166997276F0
311
2E2D4552B017C944548DB6A7227A082E790901E57C93182785C100B0554211E609940245EE46FCDA83C755509CCE241E81BCBD7E10377D828C81353985B326777096CFD2F460A2441A11C248833CC22C6A91A253104EB51251D45D7DEB7AB2D36F12C9176E95C96B92CB479A4FCACB463572640D0E390BD123BD628AE70528
311
17CB62B41411213717E3D5C359D2366E86E2D508DEA3BBDBF4C3806197196751CF501CD28388A0285FB5DDAA6ABB6AD5BF77FD76BDDEF643D56EB66DCB9A6CE76C72CE944B1803DE2D443A1BC146CA3BD6E4F1337CC54794F6C8DAF9F31F402280D27AA573CFF8CF7C9ACBFB465C1EFF02FE03504B0304140006080800F16E
311
3740E600B8329C0500007B100000340000006662782F36314345353342332D373941412D344441342D413842382D3336453241334143333844382F6F626A656374732E786D6CAD57DB6EDB3810FD1541FB2CD9B29DD459282A7CA903A39BB6A8D1621F0218B44429DC50179054EAF4EBF750A264C9B513EFA22F924891C399
311
33672EF4DFEF536E3D5321599EDDDA9E3BB42D9A8579C4B2E4D62E55EC4C6DEB7DE08B3C579D65B6959194DEDA7ADA0EFC44E46561A6221A9392ABA3D9D5FC6F4B8634A3B6157222E5AD2DC3479A1297942A8FA87C7223A2889BC47BD773EB857DB18920C5E391D082089A29688AF90C52AC5A29AF3F1CDA83C01FE8FF81AF
311
9F66D5F8FCAA41654FFF7C964945B2F097C38EC48CBDC9F2C3E8EAC6B99A4CC6CEE47AE439F3D57CE978EFC6C3C5F5627133FB708383A5129064341134B6833B602358E80FEA5F815FB24C8D47668971D040D067A63D650723CBF307F59AD63A63E429F5C33CCB68586105342AFB8CE88816348BE073462534EB2034EC0F3D
311
8D63E7F7588FCD91DDE9CB10E8EEE8086A746FDE5D4DF3DD3F30415EC22021A966608DA531B4E6EAF080F02ECFB9F9C7A49512450523DCE26C278878B1032CD54B02BF27463359E868D016D801BC50FFEED30561F436CF4F6919979C6B1ADB4115055BC40A55B2D28CFDA4E2A07D1719E8045F69364C8D41EAA5A076705353
311
647AC4A61A482BE62481CB61A6DE391E1D19BAD071BA5EDAC1C7D56EBFD1B17BFAF042E405154AD307D46A1CD7BC354A4627EF22CFE90DF6912A0750BE02F94F08F5832AF09B60FBC97E624E51826432CE450ADF5843CB19E231B4BCEAA9BF3B5FFEA0DDDCF7DE393CE16C0DD56FC0B36F43D7971D3803FF1984CFC5D898B6
311
090947DAB8671900D224B1788E29E4E178B7B78335B21CB23276111E783019EA3EE3D31F18314814D5499D77062C8FD2E205091AB0558C841A35F98D82073FFD92CEAA83CDB273F05EFD16BACE969B8F9B52C424A4F726A69734661953287107DE7415EA61DEB3E889BEFCC84504437FC57BD3C53B354749A0AD31D7C0274D
311
4ED783C3C9BD0342EC4B729D6EFC374E8011BAB076E4DF331952CE4946F3B239F7D5FA81B25143AC835D33B92D3087C202D2D47F8E6210453A14ACD020B6D5AA4D9AEE19EBBEAD3F819176307FF98BBC74B3D7EE907BC39CE762BB7BD9D669E924D4DFFBDC36180CB414D0BD0A9226FE0DE8DB88C5712991044FE0FA7DBDE8
311
FA4EA705A488466A1D2D13D88FE022C290B6918B6A2D082A699E6D19EA26E2EEE4015DF980D430A012784E634979BC659C97E936661CD5689B92E20C1CFF5FFF5D99165B92E665A6CEC8EEA98EEAD0D7BDC75EF983A8F0D10E36D5DB9923F746343A43065D4B4E60D573EDF8EA7AB59A4D57CEF4DD72EA4C16E395331F4D26
311
CED5F5EC66355FBD9B7AAB69E3A75A93C06F4A4D37A2E1259436BF14CCB8EFDB1AF16392801DDC13251FEEEAF06CDEDFD62E7A617F803DA897EDC659F48CBE8F466F0B38AC3C29689D169CA6345344C7D0BDFEE05F09FA8C9E32F5FC3A2509BD40CAE7BBCD913198B960DF171DEFF4C7D15E33BBD0017952887A2CD35D4618
311
3FDA98D448BA459618FC1A9FB4EFBAD034433D328E41672A73CE22E4C1C84A689E52856C784111122995A05EB7A78FCCDDE382DDCF7587A8C88ED34693478226994B8405A85586AA3F6FFD81A64EF755B736CAADFB8487C914B605CEDCDA68D2150BA9747728D0BA15AA84834BDD4E1E8D3FC9128E5EBBDED48EDB5D1A9B5E
311
496E975CD23F19BBEA146E0C401A29D037A02182772A6502BFD2CDFC0FFF93E18D3A1651F8DC95AAB5E530D11A531D8310AD8D32B70534314FE6E83D02F575B33CB75AD343E4A25BD6AB24A8A53A8A88A4BA2968FD8C4AB3E597013A146BFDD92A7899C097974B720405994B1DE06011586164164481AA8B3F1FBE881C37D9
311
D45A3150E06191A7699E99C1CCDC84ADCD23EEB5D103D202D51712F9301A7AA387EA2260EE26DB1D91D425917CC2047C2A580B71CFF160647D5B4405AA7FB4EB06DA0947DC5C2F2D53D226106A88D2CDAA1A16B41C19B5103DFA32A963A5BBA078F52E30A8964205812E3EF817504B0304140006080000F16E374000000000
311
0000000000000000350000006662782F36314345353342332D373941412D344441342D413842382D3336453241334143333844382F76657274696365732E62696E504B0304140006080800F16E3740F270F1330600000004000000360000006662782F36314345353342332D373941412D344441342D413842382D33364532
311
41334143333844382F747269616E676C65732E62696E636660600000504B0304140006080000F16E3740000000000000000000000000370000006662782F36314345353342332D373941412D344441342D413842382D3336453241334143333844382F617474726962757465732E62696E504B0304140006080800F16E3740
311
D5987DFC8F00000041010000360000006662782F36314345353342332D373941412D344441342D413842382D3336453241334143333844382F6469726563746F72792E786D6C858F410EC2201045AF4266AF15DDB800BA74E7C21B903225242D6328188F2FA5C4183471359997F9FF81E89FF3C41E1816475E02DF1F80A11F
311
C8386F25A438EECEC07A250251FC3803E6F58C12560C4AD840E95E91C151A72936F496F35732D860FE635F62C8F2DA16B505C545B74125BAA2FA9E05D7CC053D063734D5C7665FD55B6B8D15D5E9BFEAFD8490FFA45E504B0304140006080800F16E3740ED955ECCFC000000A00100003B0000006662782F36314345353342
311
332D373941412D344441342D413842382D3336453241334143333844382F7265736F75726365732F636F72652E786D6C8D504B6E833010BD0A9ABDC1C65005641C25229CA017B0CC24B5126CE44FD5E3D724546A77DDCC8CDE47F3F4C4F16B79149FE883717600565228D06A371B7B1B20C52B39407194C23B177FC9A0B06A
311
C1013618A4B87997D61DD2CE46B431A3D6CDB8832A048C50E8473E0608FA031755AA14B322DCCB55E9BBBA61C9CA4C679D1421FA1CA0783DD926488FC125AF3188EAC54A919299778D99F34F7335E8419E3AD6D1D33492FACCCEA4192F13398C8C93E9C05BDEB44DC7C78BA836B314D12C3F19B54715710659535613CA48CD
311
DF19EFDBB6E70DA16F3DA5A2DAE47F4C699DFF694AC6465EEF715FB60092E5204F428A6AEB2BAF6799796FDDCA6F504B010214000A0000080000F16E37403DEE336E79000000790000001B00000000000000000000000000000000006175746F6465736B2D64657369676E2D7061636B6167652E786D6C504B010214001400
311
06080800F16E3740D486FD9CA0000000F40000001300000000000000000000000000B20000005B436F6E74656E745F54797065735D2E786D6C504B01021400140006080800F16E3740FE3E7054EA0000007C010000080000000000000000000000000083010000636F72652E786D6C504B01021400140006080800F16E3740
311
55019EA25F0000007C000000070000000000000000000000000093020000636E782E786D6C504B01021400140006080800F16E3740959A97C866010000020300000C00000000000000000000000000170300006662782F636F72652E786D6C504B01021400140006080800F16E3740C611E1877E0000009D0000000B000000
311
00000000000000000000A70400006662782F636E782E786D6C504B01021400140006080800F16E37400D22708B2B0100001402000031000000000000000000000000004E0500006662782F36314345353342332D373941412D344441342D413842382D3336453241334143333844382F636F72652E786D6C504B0102140014
311
0006080800F16E374057BAEFA94D010000330300003000000000000000000000000000C80600006662782F36314345353342332D373941412D344441342D413842382D3336453241334143333844382F636E782E786D6C504B01021400140006080800F16E3740E600B8329C0500007B100000340000000000000000000000
311
0000630800006662782F36314345353342332D373941412D344441342D413842382D3336453241334143333844382F6F626A656374732E786D6C504B01021400140006080000F16E37400000000000000000000000003500000000000000000000000000510E00006662782F36314345353342332D373941412D344441342D
311
413842382D3336453241334143333844382F76657274696365732E62696E504B01021400140006080800F16E3740F270F13306000000040000003600000000000000000000000000A40E00006662782F36314345353342332D373941412D344441342D413842382D3336453241334143333844382F747269616E676C65732E
311
62696E504B01021400140006080000F16E37400000000000000000000000003700000000000000000000000000FE0E00006662782F36314345353342332D373941412D344441342D413842382D3336453241334143333844382F617474726962757465732E62696E504B01021400140006080800F16E3740D5987DFC8F0000
311
00410100003600000000000000000000000000530F00006662782F36314345353342332D373941412D344441342D413842382D3336453241334143333844382F6469726563746F72792E786D6C504B01021400140006080800F16E3740ED955ECCFC000000A00100003B00000000000000000000000000361000006662782F
311
36314345353342332D373941412D344441342D413842382D3336453241334143333844382F7265736F75726365732F636F72652E786D6C504B0506000000000E000E00800400008B1100000000
310
504B03040A0000080000F16E37403DEE336E79000000790000001B0000006175746F6465736B2D64657369676E2D7061636B6167652E786D6C3C3F786D6C2076657273696F6E3D22312E302220656E636F64696E673D227574662D3822203F3E3C666F726D6174733E3C666F726D61743E687474703A2F2F736368656D612E
310
6175746F6465736B2E636F6D2F64657369676E2D7061636B6167652F323030393C2F666F726D61743E3C2F666F726D6174733E504B0304140006080800F16E3740D486FD9CA0000000F4000000130000005B436F6E74656E745F54797065735D2E786D6C7D8EC10E82300C865F65E91D8A1E8C310C0EEA1BF002731658846E
310
D98AC1B77784ABF1D8FE5FBFBF75BBCE937A534CCEB38643598122B6FEE978D0B0485F9C41B54DDD7D022595594E1A469170414C76A4D9A4D207E29CF43ECE46F218070CC6BECC4078ACAA135ACF422C856C0E68EA1BF5669944DDD7BCDE7B1F8E415D77AECB980613C2E4AC91FC167A2B244592486606FC29C8FD7F045B9A
310
EF7053A7E60B504B0304140006080800F16E3740D81640D2ED0000007C01000008000000636F72652E786D6C7590D18E832010457F85CC3B0A521B6D90C6DAFA05FB0304A925AD600436FBF98BAD4DB60FFB34933BF7CC4C2E3FFE4C0FF4AD176F9C6D80660490B6CA0DC68E0DC470C515A0A3E08B73E18F0D9095936E6095
310
41F0717171DE24E56CD03624D5BA416FA2F45E0740EA919A06BCBAE949663286E4F0F76C96EA2E479DD17797E018CD805E47CC90F699ABD10B884BB9AFEAB6EAF0A9A027BC3BB30ED7F585E2BEED49D576153BB39EE72B2C7830D3FBBE5AB40C7A0051105A604271C1BE283B94E581314CF6074278BEDA3FA0380FFF41BB4F
310
281A1B58B1BDFBC23C089A1E790E04CFD72C52790695EA9A9BF805504B0304140006080800F16E374055019EA25F0000007C00000007000000636E782E786D6C4DCB3B0E80201045D1AD90E915ED2CF8AC45050C11660C8261F98AB1B07AC9C97D42D718D865D3E909258CFD00CCE24AC6E326A164D74DC0B4128928FF3260
310
38472BA13128B1252AC747C6BAB984FC68F0B87FE8960A5C09FE86CFB69FBA01504B0304140006080800F16E374064D7D23169010000020300000C0000006662782F636F72652E786D6C8D52ED8E8320107C15C27F04A56D6C8334FD7C827B01AAD433553008A68F7FEB47D3EBA577B9982099D9D99D1D15DB7B53A35EBBAE
310
B226C371C430D226B74565CA0C077F2529465B299CB5FE5B194646353AC3038CA5289D0DED0CE5D6786D3CA0C6167A0655D7698F515EC325C35DFEA91B15A9E0A1A2BB45ADCA6FAAD4511C010D755274DE8101340D194E2CAF97BBA0132E45085531B35501D3AA6BA51D96A7E52A5DEFD203D927F19E2C8EFC40D6EB534CCE
310
BB334B7787941FF959D0412C85AF9A87BBDC69E5758165C2E284B09824FC23E69BE572C33961AB0D63820EE52FA2D016BF8916AFA25019CF93D9EE24EBB08CC1C848FCD81622F2A8533DF8A152D02144788D09BF060D8140C85E5DEAC71E37807A9D7BEB16C014363CA95ED541C35486C647D08985CE6303D8EC6D9FE48F3E
310
7FF7800FA84C09D69487EB25F861BA98A6CE51B4DA91DEDF91B1AE51F5D3DC64F1793E07BD95E7B6B6EE3F6A3AAF4AE730E9F0F7CA2F504B0304140006080800F16E3740CC8345A87D0000009D0000000B0000006662782F636E782E786D6C4DCCD10A83201886E15B91FFDCA52E870335B0D57DC4B2909986D3B1CB5F8D0E
310
3AFAE0E1E395CD77F1E863D3DBC5A0805E08201B9E7174615650F28405A046CB14633EDD008561B10A76062DE714CB7AD068A7A1F8BCA977E175E083D1AEA6E48E59CB09AE8DB962C138C54CB4ACEF88E184DFA0D2B2FA97B6DDC3FA07504B0304140006080800F16E3740C8F75AC52D01000014020000310000006662782F
310
44323145343130392D324335302D344242332D383235312D3238433246453042353035362F636F72652E786D6C8D51CB6EC32010FC158B537BC0E6615C37C2444A9A7E417F801892A2C460F1A8F2F985DA919A43A55E58343B333BDAE5DBDB74ADBEB40FC6D901E01A814ADBD12963CF0348F1047B506D05F7CEC55F345059
310
39E9011418087EF62ECD2B343A1BB58D19B54EE9159421E808AAF19A3F0308E3A79E642D53CC8C70A967395EE459D7B8CEEDCC133C449F0354CB90F202F146F0A1C5E815923D43B0DDED28EC09C390F47BF27E403B8658C79B4528784A46AD72A3721C7332DAFFD7A488058F66BAC71FBD96512B2008C204A23C947E60BA61
310
6C432944DD0621DE14FA8328CDEA2F51FB284AC6464AD6B88B2C008179B33404572E1DAFF730FA363B1FAB32EF29E8F1190854238219E9DB17DE2CD4BC80ECD9B5AB6788CEE7053F5D8E994D57E3AE15BC2937CAE5E780B9967B8A6F504B0304140006080800F16E37409EEE3B9B5601000033030000300000006662782F44
310
323145343130392D324335302D344242332D383235312D3238433246453042353035362F636E782E786D6CAD93CD6EC32010845F0571F7BF13451126520F7D821E7AC5B04969305880ABE6EDBB2424CD258754BD206B7698597DC26CF73D19F2053E686707DA94352560A553DA1E06BAC47DB1A164C799772EDED928B16282
310
8126997276F06E99B3A4602F16135135DA1EB3E821B8C54B0828A79BC438290C06802D1614611A412950E466C4AF3D785C05C5F144E20790D79777E2C64F9031B02AA57056A50ECED2999BEE4C944823421868901F3089522CD12908C7528928CAA6BC763DD8E93789A40BD7CAC56B92CA079A4ECAF346257264150E390BD1
310
23BD6C8AA7192817F36CB41411215767E3C5C3D9A26D5CF7D9AB11BC4777D7AE371B0C3BCF388B7A82EC901E440445795B376D513745DBBD35DD76B5DA765D51AFB775CDAA64E76C74CEE44B1803DECD443A1BC146CA1B56A5F1237CD94794F6C8DAF9D3132011406EBDD0B965FC279F66DDF5FDB37CFABFF3A9CEEF1B7179
310
FC0BF80F504B0304140006080800F16E37404DEC20145B070000941B0000340000006662782F44323145343130392D324335302D344242332D383235312D3238433246453042353035362F6F626A656374732E786D6CED59DD739B3810FF5718EED9D8C44E9ADC103A8953773CBDB49DFADAB907CF3032C8441721184924F1
310
FDF5B7FA00033109BEE6DEFA6003425AEDFEF6534BF0FE29A3CE03E682E4ECD2F5BD89EB6016E70961E9A55BCAEDE8DC75DE8701CF73D998E63A0C65F8D255C36E18A43C2F0B3B94E02D2AA9EC8C2EAEFF72448C19769D9822212E5D11DFE10C79A8947982C5BD972089BC74FBE4F99E99D8269B7254DC7588168863268153
310
186740C5314CF9EDC7893B0E83B17A1F06EADFCE9A0E9A35EB9F35D652B7B9244C48C4E2672C75C84C07B134F567371F4E4E2F46A7B3D974343B3BF147D78BEB9B91FF6E3A999FCDE717571F2E80BD4D9E532B53820BCC12D0DFCE0DFD60ACDED4A25B040E711DE78CE15803095069B1BA040916B05503BE49FBD15712355E
310
6B091BCF33F5DEB2D0189EB6A9F4CD1A06448B2E0862B7AB24AEAE4DF9F2CDDF20B81862945C6009DC0AC941BB161E0E5EE18693606C46C360B3D705114E8624E6045187920D471C940253D59430300B2C19E51C1C48394A02AD39F3BA6D5BE099AFBBCE212EB725A5CA33DC503B5604EE87A5D09C917F30DF73DF44067802
310
694BC2E4B9E552EE0AEC8617C1580F8681BA4C4FEC4B03A4B3A528151A11F3B623E85CB9FEF2C60D3F2D364F2B150E0E6F5EF0BCC05C2AA3537AD47C8121DBAB42C96EEB0FD29C5A00C21850EDCA3D28DF00F9CF103DF6AC80DE38799A3DCDEC5CC91113DB9C67A01B67E28C26F037717CFDAFEE1B77C1B85EDCD65E1F9EE0
310
A60AAAF39FC7B32D83C6CAF2DF80330C1EC0E0733EB5AF5631A260CFB7840140CA481C9AC31084F6EDE6C90D97103821D0C32A44431F4406761FE036185B327BAD54EE65BD8E01A2768FE91025016CDA22818D1E3D7D84ECC149BC575353C43E784FDFC45CAF6E569F5625DFA218DF5A9FBEC15BC28884AC7998A116E62D89
310
EEF1EE31E70908FA1CEF5513EFCC6E25006D85B9023EAD40500FFB9D5B1BC4B02ECD55B8095ED9018450B9BA41FF968818538A18CECB6ADF3ABA2943AD3DDED60C6E7862209E9E744C98E307A2AA0A709AFD8C16A390F7634E0A05A21B7E3492D541D3EB91EEFBF23358643DBF67D69241E86588FEA983D6011C5A965D216D
310
81A805DEECC3799CD39C479B5D64229D0BB504B0D1F6961F2DA210EB8D921415F020ED775548498DB45142B6DB52405C3DC0E28FE5BC690E136FEA9F3ACDFF8E33CE20DA82EF226EFDAEB347443294E2688B92BEED9ABBD5B48526D9439AE32D05B9C80391BB08C96892E0F418688E227EF1A6D4539A0B41181690AF0E82DF
310
4463E2412031DAAC58565AED004D44946189E8310828323DE0EAB4A36BDC184A87D779ACADF7258D3589FE4F16C111D492398B0894A290435E65DCF74E2186B4D1352877F0056BAB686B3168092544BC8B1E3149EFE431A81BF23DB8C77024296594172806B31E40F699AF28A57678DFA0F85EE58F282EE95B1988C0741B11
310
4ACB2C821F6170F218E2DA75607A1185067113FB24CEA02843B2E44336393B9D3CDBC7D40CDD10D8D8684B2884ED2843450FEAAD80A8EB11A706DF52EF51EAA6CC8A086579C906198A37ED7A9325DF55AB223B905F552A42D95811B604C380305967D52A6683A9EBC00A6EA403D52E12282BA83985BD9278FCDA9B34E5DE0D
310
B8F5D3B7DD2083C2AF477BCD883AAB60B03CB60A03F188647CE7862B7D1D5D43FD9DE0649FEAAB5AB3590102622A92979C58157D5F4279636B3437BC4552AC3F9AAC5B5DBF2F3DE87E04635803B54BBD70A980CE3093485526B7EA867E4310825B34CCF852E5D463A85C2589AE1A115D903E75B6CA88D6A619F18A3BCCF20C
310
7E6C4D584CCB04AF5122EEA35B49A31551AC5B29BD8C5418BF28E0978FAB0E3C303240A4AFAAC0C38F9DB57674AECAA58344E45D996D182210045BA2A546375EC152AB914ACBF5559D29A0EE0203B32A9EFD3A5934DB11BF4E16A9358C9F3A595CEFFE40BB665FA491CE6365D7471D03EAFCA4A8BCC53140B71D6AAA751631
310
C9DCCA6F9D2982A05845F9C1D55815340CC13E8EFF73D6EECB8266BB0EFFC7656DFF59C5715456694D565DAA0395EBB299C3A6A7678BC5D5F96274FEEEE67C349B4F17A3EB93D96C747A7675B1B85EBC3BF717E7359ADA51C3A00E663A77C1B3096AD5B07AB218405756E49424709A4F9C1443CC9770A61FD03EE71916903C
310
9BCDEEC436E507AC7E307D4E893614579CDC2168105301691D302A63D91E777E83D6A48483F6A50B4D23EF1EFEAC55BA0E649E4B175A0592C458781B6833A9869E260E2957E77E4B0CF0412C5529D12CAA9FEB550A9B56F8AFA70C490356AE560F030AB702BA5FAD0E85E6CDF2141F2578C58E8324DC6E4A09D59A91653F50
310
0BA3B7D9ABDFC84609BBB75B3F81EBBE2C96EFE9392D44067D3278D1080CD591443CD5FD6EC59865E9EAE6EB18FA6CCEF28B53D032055D0EA734E2188CB954051558115885A5592009A63AFF7DFD95E7F08927737455B49EE7599633FB7005E7B1043E1139AB3BF8E093ACA16CC0AAAD2ED62713FF64ADDBD9B6C31E6D90C0
310
9EAA8760A02A2394081D63038B7CD69AB28DCBB1524267FAF2C6B1E113DA00C6829E7577CDE72D07BC477D4851BEA23DBC92F3C58EF6584F056BE0D08B0EFF05504B0304140006080000F16E3740000000000000000000000000350000006662782F44323145343130392D324335302D344242332D383235312D3238433246
310
453042353035362F76657274696365732E62696E504B0304140006080800F16E3740F270F1330600000004000000360000006662782F44323145343130392D324335302D344242332D383235312D3238433246453042353035362F747269616E676C65732E62696E636660600000504B0304140006080000F16E3740000000
310
000000000000000000370000006662782F44323145343130392D324335302D344242332D383235312D3238433246453042353035362F617474726962757465732E62696E504B0304140006080800F16E3740D5987DFC8F00000041010000360000006662782F44323145343130392D324335302D344242332D383235312D32
310
38433246453042353035362F6469726563746F72792E786D6C858F410EC2201045AF4266AF15DDB800BA74E7C21B903225242D6328188F2FA5C4183471359997F9FF81E89FF3C41E1816475E02DF1F80A11FC8386F25A438EECEC07A250251FC3803E6F58C12560C4AD840E95E91C151A72936F496F35732D860FE635F62C8
310
F2DA16B505C545B74125BAA2FA9E05D7CC053D063734D5C7665FD55B6B8D15D5E9BFEAFD8490FFA45E504B0304140006080800F16E3740CBBD6E4AFF000000A00100003B0000006662782F44323145343130392D324335302D344242332D383235312D3238433246453042353035362F7265736F75726365732F636F72652E
310
786D6C7550596E833010BD0A9A7F838D930822E328EB097A01CB4CA89560232F558F5F13A8D47CF46766F416CDD31387EFF1597CA10FC6D90E5849A140AB5D6FECD0418A77D2407190C23B17FFC8A0B06AC40E6618A418BC4BD30A696723DA9851EB7A5C4115024628F4331F1D04FD89A32A558A59111EE5A4F4430D58B232
310
D3592745883E07289627F304E931B8E43506512DAC1429997ED5983EFF3477831EE475BB6BDA637322A79A9DC8E6C2CFA46DAF8CDC8E37DA1CCF0DBFF09BA866B314D18CBF19B54715B10759535613CA48CD3F18DF6FB77BCE09DDED2915D52C7F33A5A9FFCFB47937256323AFD7B88B2D806439C88B90A29AFBCAEB5566DE
310
73B7F207504B010214000A0000080000F16E37403DEE336E79000000790000001B00000000000000000000000000000000006175746F6465736B2D64657369676E2D7061636B6167652E786D6C504B01021400140006080800F16E3740D486FD9CA0000000F40000001300000000000000000000000000B20000005B436F6E
310
74656E745F54797065735D2E786D6C504B01021400140006080800F16E3740D81640D2ED0000007C010000080000000000000000000000000083010000636F72652E786D6C504B01021400140006080800F16E374055019EA25F0000007C000000070000000000000000000000000096020000636E782E786D6C504B010214
310
00140006080800F16E374064D7D23169010000020300000C000000000000000000000000001A0300006662782F636F72652E786D6C504B01021400140006080800F16E3740CC8345A87D0000009D0000000B00000000000000000000000000AD0400006662782F636E782E786D6C504B01021400140006080800F16E3740C8
310
F75AC52D010000140200003100000000000000000000000000530500006662782F44323145343130392D324335302D344242332D383235312D3238433246453042353035362F636F72652E786D6C504B01021400140006080800F16E37409EEE3B9B56010000330300003000000000000000000000000000CF060000666278
310
2F44323145343130392D324335302D344242332D383235312D3238433246453042353035362F636E782E786D6C504B01021400140006080800F16E37404DEC20145B070000941B00003400000000000000000000000000730800006662782F44323145343130392D324335302D344242332D383235312D3238433246453042
310
353035362F6F626A656374732E786D6C504B01021400140006080000F16E37400000000000000000000000003500000000000000000000000000201000006662782F44323145343130392D324335302D344242332D383235312D3238433246453042353035362F76657274696365732E62696E504B01021400140006080800
310
F16E3740F270F13306000000040000003600000000000000000000000000731000006662782F44323145343130392D324335302D344242332D383235312D3238433246453042353035362F747269616E676C65732E62696E504B01021400140006080000F16E37400000000000000000000000003700000000000000000000
310
000000CD1000006662782F44323145343130392D324335302D344242332D383235312D3238433246453042353035362F617474726962757465732E62696E504B01021400140006080800F16E3740D5987DFC8F000000410100003600000000000000000000000000221100006662782F44323145343130392D324335302D34
310
4242332D383235312D3238433246453042353035362F6469726563746F72792E786D6C504B01021400140006080800F16E3740CBBD6E4AFF000000A00100003B00000000000000000000000000051200006662782F44323145343130392D324335302D344242332D383235312D3238433246453042353035362F7265736F75
310
726365732F636F72652E786D6C504B0506000000000E000E00800400005D1300000000
  0
XRECORD
  5
17
102
{ACAD_REACTORS
330
12
102
}
330
12
100
AcDbXrecord
280
     1
270
     1
271
     1
  0
XRECORD
  5
16
102
{ACAD_REACTORS
330
12
102
}
330
12
100
AcDbXrecord
280
     1
270
     1
271
     1
  0
XRECORD
  5
18
102
{ACAD_REACTORS
330
12
102
}
330
12
100
AcDbXrecord
280
     1
270
     1
271
     1
  0
XRECORD
  5
15
102
{ACAD_REACTORS
330
12
102
}
330
12
100
AcDbXrecord
280
     1
270
     1
271
     1
  0
XRECORD
  5
896
102
{ACAD_REACTORS
330
22
102
}
330
22
100
AcDbXrecord
280
     1
102
MATERIAL
148
0.0
149
0.0
149
0.0
 93
        0
 94
      127
282
     0
 72
     0
 77
     0
171
     0
175
     0
179
     0
273
     0
  0
XRECORD
  5
24
102
{ACAD_REACTORS
330
22
102
}
330
22
100
AcDbXrecord
280
     1
270
     1
271
     1
  0
XRECORD
  5
23
102
{ACAD_REACTORS
330
22
102
}
330
22
100
AcDbXrecord
280
     1
270
     1
271
     1
  0
XRECORD
  5
BA
102
{ACAD_REACTORS
330
22
102
}
330
22
100
AcDbXrecord
280
     1
 70
     1
 90
1959938040
 71
     1
  1
BD504CBC-2594-4C71-873F-5BBCA95DF818
311
504B03040A0000080000F06E37403DEE336E79000000790000001B0000006175746F6465736B2D64657369676E2D7061636B6167652E786D6C3C3F786D6C2076657273696F6E3D22312E302220656E636F64696E673D227574662D3822203F3E3C666F726D6174733E3C666F726D61743E687474703A2F2F736368656D612E
311
6175746F6465736B2E636F6D2F64657369676E2D7061636B6167652F323030393C2F666F726D61743E3C2F666F726D6174733E504B0304140006080800F06E3740D486FD9CA0000000F4000000130000005B436F6E74656E745F54797065735D2E786D6C7D8EC10E82300C865F65E91D8A1E8C310C0EEA1BF002731658846E
311
D98AC1B77784ABF1D8FE5FBFBF75BBCE937A534CCEB38643598122B6FEE978D0B0485F9C41B54DDD7D022595594E1A469170414C76A4D9A4D207E29CF43ECE46F218070CC6BECC4078ACAA135ACF422C856C0E68EA1BF5669944DDD7BCDE7B1F8E415D77AECB980613C2E4AC91FC167A2B244592486606FC29C8FD7F045B9A
311
EF7053A7E60B504B0304140006080800F06E3740ED0D8640EA0000007C01000008000000636F72652E786D6C8D904D6EC3201085AF82668FCD4FEDD816268A54F704BD000292A0C46019A87AFCE2C491DA5D57337AF3BE99D113C7EFF98EBEEC1A5DF023D08A00B25E07E3FC65849CCEB8037494620D21FDB201F26AB6236C
311
32487159435E7649079FAC4F45F5C1D85D5431DA0448DF4B3342D4573BAB4AE5541CF1562D4ADFD4C556F4D515386767D0F38833659F3B3BBB823C9C0E27CEFB06F3A9FBC06F53DBE0BE993ACC68CFE83B9D5ADAF5A2DE6029929B5FF7F56A55B206242394614231E39F940F4D33708E493B1022EACDFE07CA8BF927949D4F
311
9CEDEF3EB1089296471E0329EA2D8B521E4195BAE5267F00504B0304140006080800F06E374055019EA25F0000007C00000007000000636E782E786D6C4DCB3B0E80201045D1AD90E915ED2CF8AC45050C11660C8261F98AB1B07AC9C97D42D718D865D3E909258CFD00CCE24AC6E326A164D74DC0B4128928FF326038472B
311
A13128B1252AC747C6BAB984FC68F0B87FE8960A5C09FE86CFB69FBA01504B0304140006080800F06E374097F8BE0E66010000020300000C0000006662782F636F72652E786D6C8D52ED8E8320107C15C27F44B4B6DA204D93F39EE05E802AF54C150C82E9E3DFFAD178BD34CDC504C9CCCEEEEC283FDDBB168DCA0E8DD139
311
66418891D2A5A91A5DE7D8BB2B49313A096E8D71BFCA30D2B253399E602C786D8DEF57A834DA29ED00D5A6522B288741398CCA162E391ECA6FD5C9407A0715C32DE8657993B50A580034D4093E380B06D032643AB1B85EEE9C2EB8E0DE37D5CA36154C6BAE8DB2581CCE87731C6709898BF493EC8A7D42B2A44849C4B2887D
311
B062CFD28CD3492CB86BBA87BBD22AE954854514B288848C44F1178B8F49728C6312EE8F61C8E954FE24F27DF54F916FB48BA3D5EE221BB060606426FE6C0B113934C811FC50C1E91422BCE6849F8386402064272FED638F1B40A32A9DB13B602AE3376A94AD57303544F3C3E9C242E7B9016CF6B24FF4A6CFFB1EF001A5AE
311
C19A7470BD78374DE7CBD4358A5E5932BA3BD2C676B2DDCC2D16B7731BF4525E9AD6D8FFA8E9BA2A5DC3A4D3DF2B7E00504B0304140006080800F06E3740521B2B187D0000009D0000000B0000006662782F636E782E786D6C4DCCD10A83201886E15B91FFDC95ADC4811A92751FB12C64A6C36974F9ABD1C18E3E78F87879
311
BBAF0E6D267E6CF002C8AD0464FC334CD62F02729A3103D44A1E43487F37407E5C8D809341F22586FCBE6832F3985D3AD459FFBA70A87BC28822980C1DC5F5A3ABB06A14C35AF7BA292963D59D422179F12B1D7B86E517504B0304140006080800F06E37408E7DAF062B01000014020000310000006662782F463445313831
311
41312D314643362D343943322D413541382D4444454435303638383233362F636F72652E786D6C8D51CB6EC32010FC15C4293D60F3B01D27C244511E5FD01F7030495162B07854F9FC42ED48ED2D1716CDCECC8E76F9EE393EC0B7725E5BD341526008949176D0E6D6C118AEA8856027B8B336FCA14160FA517530C350F09B
311
B3715A20694D502624D4D8412D60EFBD0A10C847FA74D0CB2F35F6451F4362F87B31F5F2DEDF54418AD44E3CC17D7029009887E4178A7375222DD91344CE8706559B0345FB7ADFA2E3F174AC71D3B69435BC9C8582C7A88745AE8714475FB572EF9A64B1E0418FAFF8D2A93EA8010A8A09459820CA3E09DBD6F59631849B2D
311
C6BCCCF47FA2380D6F8AA23681D125EE2CF350105ECE0DC1071B2F8F5718F59CAC0B20CF5B79253FA0C005A678BD268CF172A6A60524CFA65A3C7DB02E2D7875BF2436A967E3A612BCCC374AE5F780A9E67B8A1F504B0304140006080800F06E374011D702264C01000033030000300000006662782F46344531383141312D
311
314643362D343943322D413541382D4444454435303638383233362F636E782E786D6CD593BD6E032110845F05D1DFBF6D451687A514798214693958DBC41C9CF889E2B7CF6263C78D8B9469D0697698597DE2D8EE7B36E40B7CD0CE8EB4AB5B4AC04AA7B43D8C34C57DF542C98E33EF5C7CB05162C50C23CD32E5ECE05D5A
311
8AA4602F9289A81A6D4F45F4105CF21202CAF926314E0A830160AB8422CC1328058ADC8DF8B5078FABA0389D493C02797BFD206EFA0419036B720A674DEEE02C9FA5E9C144893422849106798459D42245A7209C6A25A2A8BBFAD6F564A7DF24922FDC2A93D724978F349F94978D6AE4C81A1C7216A2477AC514CF0B502E96
311
C5682922426E2EC6AB87B3A46DDCAC8A5723788FEE6E33AC561876997116F50CC5213D88088AF2BEEDFAAAEDAA7E78EF86ED7ABD1D86AADD6CDB9635D9CED9E49C29973006BC5B887436828D9477ACC9E367F88A8F28ED91B5F3E73F804400A5F54AE79EF19FF93497F78DB83CFE05FC07504B0304140006080800F06E3740
311
40455A9C9A0500007A100000340000006662782F46344531383141312D314643362D343943322D413541382D4444454435303638383233362F6F626A656374732E786D6CAD57DB6EDB3810FD1541FBEC8B6CA74D168A8AD86E0AA3485BD468B10F010C4AA2146E285120A9D4D9AFDF4389BA3976E25DF4C5B2A8E170E6CC99
311
0BFD0FFB8C3B4F542A26F26BD71B4F5D87E69188599E5EBBA54E4697AEF321F0A510BA27E63A39C9E8B56B96DDC04FA5280BBB14D384945C1FACDE2EFF72544473EA3A11274A5DBB2A7AA0191993528B98AAC7714C3419A7C97EEC8D6BC1A1DA5492E2E140694124CD352CC57A0E2D4E6D94377C9DBA93C09F98EF816F7EAD
311
D4FCB4D4A4F267783ECB952679F4E2B00335736FB1FE38BBB81A5D2C16F3D1E2DDCC1B2D6F97EB91F77E3E5DBD5BADAE6E3E5EE160A52534594B244DDCE013B0912CF227F5A7C02F59AEE7332B62033491F4899948B9C1CCF1FC492DD37A679D3C667E24F29C46155640A3F2CFAA8E6941F318316754C1B21E42D3E1AB6770
311
EC7D9E9B777B647FF93C04FA3B7A8A1ADB9B67DF5211FE0D17D4390C928A1A06D6585A476BAE4E3B844321B8FDC69493114D2523DCE12C94443EBB01448D48E00FD418264B930DC603374014EACF43BA208DDEE6F9312B939273436337A8B260875CA15A5596B17FA8ECACEF23039B102BC3864BEB907E2EA81B5CD514B93C
311
60530DA493709222E470D3EC9CCF0E1C5D993CDDACDDE0F36DB8DF9ADC3D7E78214541A536F401B59AC0354F8392B5C93B2B7266837B604A07CA7720FF05A9DE9982B849B65FEC17F6142D49AE122133C4C6993AA3297EA68E57FD9AFFBD7FFEA4DD3C8CDE293C116C03D56FC073E8433F963D3803FF098417726E5DDB4684
311
A36CDCB11C001992385C6009753809F76EB041954355C62EC2030F2EC3DC27FCF527560D0A457552EF9903CB83B2784681066C152361464D7E6B6017A717E5AC3AD88A9D82F7E2B7D0F566BDFDBC2D6542227A67737A4D1396338D16D7F1A66FD000F381478FF4F99790311C7D89F7B68F77668F5240DB606E804F9B9A6E5E
311
BA93070744D8970A536EFC374E8013A6B1F6F4DF311551CE494E45D99CFB6AFF40DBA82136C96E98DC3698AEB18034F597831C44938E242B0C886DB76A8BE6F884773F365FC048C8731112DE09855DE98D041772173EEFEAAA7414E99F436A5B0826460BD85EE54893FE16F35DCC92A454A8814760FDB959F54367AA022A44
311
A3B54E9605DC476E116939DBE845B396048D54E43B86B689B43B7A405F3F10B504A8149EB258519EEC18E765B64B184733DA65A43801C7FFB73F2CB362473251E6FA84EE81E9680E43DB07E455BF888E1EDC605B3D474B94DE98C65D9807C2A6951CC16A10DAE5FA62BA582D57238C508BD162F5DE1B5DBE9FDF8E2E96CBD5
311
CDD5C5FAF6D2BB6CE2542B0FFCA6D3F4131A514267F34BC96CF87E6C903EB606B8C11DD1EAFE539D9DCDF3C7668C51D89F600FDA65BBF1267EC2D847E3B715749247156DB282D38CE69A9814BA337FF877823163604CBDBEC9484ACFD0F2F5D3F6C019AC9CB1EF9B4977FAEB60AF5D5D99843CAA443F94599813C60F36A635
311
92E3224F2D7E4D4CDA67DD679A57F3660383C15409CE6294C1D849A9C8A846313CA307C98C2A50AF3FD2C7F6EA71C6EEA77A40D424E4B4B1E4816046E60A69016A95911EAE3B7F60A63363D5B58B6E3B7EC48FAD14AE03CE5CBB98D1358BA81A87E8CF6612AA94834BFD411E733FC9538E51BBDED4BEB7BB0C36838EDC8A9C
311
333E59BFEA0A6E1D4019293036601E42742A6302BFB2CD7E8FFE93E38D390ED1F81B96BAF5A55B689DA98E418AD64ED9CB026698477BF41E89FABA5BDEB892192072D625EB5512D45A479AC8B4BA2818FBAC4937EB6F130C28CEE6AB53F032452CCFD7349214642E4D8283456085D559100DAAAEFEBCFF26052EB29973CB40
311
81FB95C83291DB971B7B1176B60FB8D6C6F7280BD4DC47D4FD6CEACDEEAB7B80BD9AEC42A2E898C4EA110B88A9642DC483C08391F565111DA8FED0CA4D4C100EB8B9593BB6A52DA0D412A55F550D2C983872EA207BCC5DD2E44A5FA078F52A30A9446182C4101FFC0B504B0304140006080000F06E37400000000000000000
311
00000000350000006662782F46344531383141312D314643362D343943322D413541382D4444454435303638383233362F76657274696365732E62696E504B0304140006080800F06E3740F270F1330600000004000000360000006662782F46344531383141312D314643362D343943322D413541382D4444454435303638
311
383233362F747269616E676C65732E62696E636660600000504B0304140006080000F06E3740000000000000000000000000370000006662782F46344531383141312D314643362D343943322D413541382D4444454435303638383233362F617474726962757465732E62696E504B0304140006080800F06E3740D5987DFC
311
8F00000041010000360000006662782F46344531383141312D314643362D343943322D413541382D4444454435303638383233362F6469726563746F72792E786D6C858F410EC2201045AF4266AF15DDB800BA74E7C21B903225242D6328188F2FA5C4183471359997F9FF81E89FF3C41E1816475E02DF1F80A11FC8386F25
311
A438EECEC07A250251FC3803E6F58C12560C4AD840E95E91C151A72936F496F35732D860FE635F62C8F2DA16B505C545B74125BAA2FA9E05D7CC053D063734D5C7665FD55B6B8D15D5E9BFEAFD8490FFA45E504B0304140006080800F06E3740FEA6A8D8FC000000A00100003B0000006662782F46344531383141312D3146
311
43362D343943322D413541382D4444454435303638383233362F7265736F75726365732F636F72652E786D6C8D504B6E833010BD0A9ABD01E340001947914A4FD00B586642AC041BF953F5F835814AEDAE9B99D1FB689E1EBF7C2DCFEC139DD7D60C40F3123234CA4EDACC03C470232D6417C19DB5E1970C3223171C608341
311
F0D9D9B81E90B226A009093576C20394DE63804C3DD3318057775C642E63480AFFC857A91E72C69CE6894E3AC17D702940B63FD9260887DE46A7D0F36267058F514F87464FE9A7BE697420CED7F395B1EE44D8D8BE93D3D8D4A4ABC79654B4ABE81B1D1BDA76BCD8CC8207BDFC64540E65C0094455D28A949454EC83B2BEAE
311
7BC648D9F465C98B4DFEC714D7E99FA6A84D60D51177B779103405791182175B5F69BDCA4C7BEB567C03504B010214000A0000080000F06E37403DEE336E79000000790000001B00000000000000000000000000000000006175746F6465736B2D64657369676E2D7061636B6167652E786D6C504B01021400140006080800
311
F06E3740D486FD9CA0000000F40000001300000000000000000000000000B20000005B436F6E74656E745F54797065735D2E786D6C504B01021400140006080800F06E3740ED0D8640EA0000007C010000080000000000000000000000000083010000636F72652E786D6C504B01021400140006080800F06E374055019EA2
311
5F0000007C000000070000000000000000000000000093020000636E782E786D6C504B01021400140006080800F06E374097F8BE0E66010000020300000C00000000000000000000000000170300006662782F636F72652E786D6C504B01021400140006080800F06E3740521B2B187D0000009D0000000B00000000000000
311
000000000000A70400006662782F636E782E786D6C504B01021400140006080800F06E37408E7DAF062B0100001402000031000000000000000000000000004D0500006662782F46344531383141312D314643362D343943322D413541382D4444454435303638383233362F636F72652E786D6C504B010214001400060808
311
00F06E374011D702264C010000330300003000000000000000000000000000C70600006662782F46344531383141312D314643362D343943322D413541382D4444454435303638383233362F636E782E786D6C504B01021400140006080800F06E374040455A9C9A0500007A10000034000000000000000000000000006108
311
00006662782F46344531383141312D314643362D343943322D413541382D4444454435303638383233362F6F626A656374732E786D6C504B01021400140006080000F06E374000000000000000000000000035000000000000000000000000004D0E00006662782F46344531383141312D314643362D343943322D41354138
311
2D4444454435303638383233362F76657274696365732E62696E504B01021400140006080800F06E3740F270F13306000000040000003600000000000000000000000000A00E00006662782F46344531383141312D314643362D343943322D413541382D4444454435303638383233362F747269616E676C65732E62696E50
311
4B01021400140006080000F06E37400000000000000000000000003700000000000000000000000000FA0E00006662782F46344531383141312D314643362D343943322D413541382D4444454435303638383233362F617474726962757465732E62696E504B01021400140006080800F06E3740D5987DFC8F000000410100
311
0036000000000000000000000000004F0F00006662782F46344531383141312D314643362D343943322D413541382D4444454435303638383233362F6469726563746F72792E786D6C504B01021400140006080800F06E3740FEA6A8D8FC000000A00100003B00000000000000000000000000321000006662782F46344531
311
383141312D314643362D343943322D413541382D4444454435303638383233362F7265736F75726365732F636F72652E786D6C504B0506000000000E000E0080040000871100000000
310
504B03040A0000080000F06E37403DEE336E79000000790000001B0000006175746F6465736B2D64657369676E2D7061636B6167652E786D6C3C3F786D6C2076657273696F6E3D22312E302220656E636F64696E673D227574662D3822203F3E3C666F726D6174733E3C666F726D61743E687474703A2F2F736368656D612E
310
6175746F6465736B2E636F6D2F64657369676E2D7061636B6167652F323030393C2F666F726D61743E3C2F666F726D6174733E504B0304140006080800F06E3740D486FD9CA0000000F4000000130000005B436F6E74656E745F54797065735D2E786D6C7D8EC10E82300C865F65E91D8A1E8C310C0EEA1BF002731658846E
310
D98AC1B77784ABF1D8FE5FBFBF75BBCE937A534CCEB38643598122B6FEE978D0B0485F9C41B54DDD7D022595594E1A469170414C76A4D9A4D207E29CF43ECE46F218070CC6BECC4078ACAA135ACF422C856C0E68EA1BF5669944DDD7BCDE7B1F8E415D77AECB980613C2E4AC91FC167A2B244592486606FC29C8FD7F045B9A
310
EF7053A7E60B504B0304140006080800F06E374018715A07EA0000007C01000008000000636F72652E786D6C8D904D6E83301085AF62CDDEE09F4250641C151A4ED00B58C62156828DB05DF5F8350991DA5D57337AF3BE99D113A7EFF98EBECC1AAC772DD08200324EFBD1BAA985142FB801749262F53EFEB201726A362D6C
310
324831AD3E2DBBA4BD8BC6C5AC3A3F9A5D5421980848DF73D342D05733AB42A5981DE1562C4ADFD4640AFAEA329C921DD1F3881DF33E7BB1660539F49C0E7DD36176E82AFC56D30A7764A8306D0EFDF9FDDC315A7F887283A588767EDDD7AB51D18C2019A10C138A19FFA4FC585547CE31A98F848872B3FF81D232FE134AD6
310
45CEF6779F580049F3238F8114E596452E8FA072DD72933F504B0304140006080800F06E374055019EA25F0000007C00000007000000636E782E786D6C4DCB3B0E80201045D1AD90E915ED2CF8AC45050C11660C8261F98AB1B07AC9C97D42D718D865D3E909258CFD00CCE24AC6E326A164D74DC0B4128928FF326038472B
310
A13128B1252AC747C6BAB984FC68F0B87FE8960A5C09FE86CFB69FBA01504B0304140006080800F06E3740859790B666010000020300000C0000006662782F636F72652E786D6C8D52ED8E8230107C95A6FF4B29881A536A0E4F9FE05EA042E51AA125A5253EFE2D1FC6F362CC85A434333BBBB3037C7F6B1B3428D76B6B72
310
CCA21823654A5B6953E738F80BD962B417DC59EB7F95616464AB723CC258F0DAD9D02D50698D57C6036A6CA51650F6BDF218950D5C72DC97DFAA95910C1E2AFA6BD4C9F22A6B15B10868A813BCF70E0CA079C878627139DF389D71C143D0D5C2EA0AA6E98B560E8BD32165A7C3B620C9A6C8C86ACD3252C4A78CB0EDE670FC
310
3816095B7F723A8A05F7BABDBB2B9D925E555824314B48CC48927EB1749765BB3425F17A17C79C8EE54FA2D055FF14056D7C9A2C7667598F05032313F1675B88C8A35E0EE0870A4EC710E13525FC1C340402217B796EEE7B5C011A54E9AD5B0153D9F0A006D904055363343D9CCE2C749E1AC0662FFB246FFABCEF011F509A
310
1AAC490FD773F0E3743E4F5DA2E8942383BF21635D2B9B87B9D9E2E37C0C7A292F6D63DD7FD47459952E61D2F1EF153F504B0304140006080800F06E3740CFF823227D0000009D0000000B0000006662782F636E782E786D6C4DCCD10A83201886E15B91FFDC9522CD400D47761FB12C64A6C36974F9ABD1C18E3E78F87845
310
B7AF1E6D367D5C0C12C8AD0664C3334E2E2C124A9E3107D4299162CC7F3740615CAD8493418925C5F2BE68B2F3587C3ED4BBF0BAB0D78699BAA1B8E503C5ACD104733A684C0DE73D69EFFA4118544A54BFD2B167587D01504B0304140006080800F06E3740AD4D3B012B01000014020000310000006662782F444145344530
310
36322D393846322D343641312D383246412D3245383844313937414231342F636F72652E786D6C8D51CB6EC32010FC15C4293D60F3705C3BC244AE927C417FC0C1244589C1E251E5F30BB523B5B75C58343B333BDAE5FBC77407DFCA796D4D074981215046DA519B6B0763B8A00682BDE0CEDAF08706811926D5C10C43C1AF
310
CEC67985A435419990506347B58283F72A4020EFE9D3412FBFD43414430C89E16FC53CC8DB70550529523BF104F7C1A5006019925F280EFDB13AE29AA2B6395154D53D410D3DF5881E9BE640DAF7FE8354BC5C8482C7A8C755AEC714475FB472AF9A64B1E0414FCFF8D2A921A8110A8A09459820CA3E09DB6DB73BC610AE77
310
18F332D3FF89E23CBE288ADA0446D7B88BCC434178B934041F6D3CDF9F61D463B62E803C6FE3957C8302179832D2D664CBCB859A16903CEB6AF5F4C1BAB4E0CDED9CD86C35AE2BC1CB7CA3547E0F986ABEA7F801504B0304140006080800F06E37407770CD315401000033030000300000006662782F44414534453036322D
310
393846322D343641312D383246412D3245383844313937414231342F636E782E786D6CBD93CD6EC32010845F0571F77F62451126520F7D821E7AC5B04968305880ABE6EDBB2424CD25874A552FC89A1D66569F30DB7D4D867C820FDAD98136654D0958E994B687812E715F6C28D971E69D8B0F364AAC9860A049A69C1DBC5B
310
E62C29D88BC544548DB6A72C7A086EF11202CAE926314E0A8301608B05459846500A14B91BF16B0F1E5741713C937804F2FAF24EDCF801320656A514CEAAD4C1593A73D3838912694408030DF2089328C5129D82702A9588A26CCA5BD7939D7E9248BA70AB5CBC26A97CA0E9A43C6F54224756E190B3103DD2CBA6789E8172
310
31CF464B11117275315E3D9C2DDAC67E95BD1AC17B74776DBFD960D865C659D4136487F4202228CADBBA698BBA29DAEEADE9B6EBF5B6EB8ABADFD635AB929DB3D139932F610C783713E96C041B296F5895C6CFF0651F51DA236BE7CFBF00890072EB95CE3DE32FF9347DB75AFD239FEAF2BE1197C7BF807F03504B03041400
310
06080800F06E374030B6136558070000931B0000340000006662782F44414534453036322D393846322D343641312D383246412D3245383844313937414231342F6F626A656374732E786D6CED595B739B3814FE2B0CFB6C6C62BB4D76089DD86E3A9E9DB49D7ADBD907CF3032C8441B211849E4B2BF7E8F2E602026C1DBEC
310
5B1F6C404847E77CE7AA43F0E131A3CE3DE682E4ECD2F5BD89EB6016E70961E9A55BCAFDE8DC753E8401CF73D998E63A0C65F8D255C36E18A43C2F0B3B94E03D2AA9EC8C5E2FFE72448C19769D9822212E5D11DFE20C79A8947982C59D972089BC74FFE8F99E99D8269B7254DC7688168863268153186740C5314CF9EDC789
310
3B0E83B17A1F06EADFCE9A0E9A35EB9F35D652B7B9244C48C4E2672C75C84C07B134F567AB8F67F38BD17C369B8E66EFCEFCD1E27AB11AF9EFA793E5BBE5F2E2EAE305B0B7CB736A654A70815902FA7B72433F18AB37B5E81681635CC7396338D64002545AAC2E4182056CD5806FD27EF495448DD75AC2C6F34CBDB72C3486
310
A76D2A7DB38601D1A20B82D8ED2A89AB6B53BE7CF737082E861825175802B74272D0AE85878357B8E124189BD130D81D7441849321893941D4A164C71107A5C05435250CCC024B46390707528E92406BCEBC6EDB1678E6EBAE738CCB7D49A9F20C37D48E1581FB61293467E41FCC0FDC3791019E40DA9230796EB9944F0576
310
C38B60AC07C3405DA667F6A501D2D953940A8D8879DB1174A95C7FBD72C33FAE778F1B150E8E6F5EF0BCC05C2AA3537AD47C8121DBAB42C96EEB0FD29C5A00C21850EDCA0328DF00F9CF103D0EAC80DE38799C3DCEEC5CC91113FB9C67A01B67E28C26F037717CFDAFEE1B77C1B85EDCD65E1F9EE0A60AAAF39FC7B32D83C6
310
CAF2DF80330CEEC1E0733EB5AF3631A260CF37840140CA481C9AC31084F6FDEED10DD7103821D0C32A44431F440676EFE136185B3207AD54EE65BD8E01A2768FE91025016CDA22818D1E3D7D82ECC1497C505353C43E78E76F62AE57ABCD1F9B92EF518C6FAC4FAFF09E3022216B1E67A885794BA23BFCF490F304047D8EF7
310
A6897766B71280B6C25C019F5620A887C3CEAD0D625897E62ADC04AFEC0042A85CDDA07F43448C29450CE765B56F1DDD94A1D61E6F6B06373C33104FCF3A26CCF13D51550538CD61468B51C8FB31278502D10D3F19C9EAA0E9F548F77DFD192CB29EDF336BCD20F43244FFD441EB080E2DCBAE90B640D402EF0EE13CCE69CE
310
A3DD5364229D0BB504B0D1F6961F2DA210EB8D921415F020ED775548498DB45142F6FB52405C3DC2E28FF5B2690E136FEACF9DE67FC71967106DC17711B77ED7D92322194A71B44749DF76CDDD6ADA4293EC21CDF19E825CE49EC8A708C96892E0F414684E227EF1A6D4539A0B41181690AF8E82DF4463E2412031DAAC5856
310
5AED004D44946189E8290828323DE0EAB4A36BDC184A87D779ACADF7258D3589FE4F16C111D492398B0894A290435E65DCF7E61043DAE81A943BF882B555B4B518B48412227E8A1E30496FE529A81BF23DB8C77024296594172806B31E40F699AF28A57678DFA1F84EE58F282EE95B1988C0741F114ACB2C821F6170F218E2
310
DA75607A1185067113FB24CEA02843B2E4433679379F3CDBC7D40CDD10D8D8684F2884ED2843450FEAAD80A8EB11A706DF52EF51EAAECC8A086579C906198A37ED7A9325DF55AB223B905F552A42D95811B604C380305967D52A6683A9EBC00A6EA403D55324505650730A7B25F1F8B53769CABD1B70EBA76FBB4106855F8F
310
F69A117556C160796C1506E201C9F8D60D37FA3A5A40FD9DE0E490EAAB5AB3590102622A92979C58157D5F4379636B3437BC41526C3F99AC5B5DBFAF3DE87E04635803B54BBD70AD80CE309348552637EA867E4310825B34CCF85AE5D453A85C2589AE1A11BD267DEA6C9511AD4D33E215B798E519FCD896B0989609DEA244
310
DC453792461BA258B7527A19A9307E51C02F9F361D78606480485F5581871F3A6BEDE852954B4789C8DB32DB31442008B6444B8D6EBC82A556239596EBAB3A5340DD050666553CFB75B268B6237E9D2C526B183F77B2A0F90ED143B46964F35899F549A7803A3D292A6F710AD05D879A6A9D444C2EB7E25B5F8A202656417E
310
703156C50C43B08FE3FF9CB4FB92A0D9AEC3FF6949DB7F56709C94545A935593EA48E1BA6EA6B0C56A3E992D17CB11F46867A3D9F2BD3F3A7F3FBD1ECD178BE5D5C57C757DEE9FD7686A3F0D833A96E9D405CF26A655C3EAC962004D59915392C0613E71520C215FC2917E40F79C675840EE6CF6BA13DB931FB0FADEB43925
310
DA515C71728BA03F4C056475C0A88C657BDCF90D3A9312CED9972EF48CBC3BF8B356E93A90782E5DE814481263E1EDA0CBA4FA799A38645C9DFA2D31C007B1546544B3A87EAE57296C5AD1BF9E32240B58B95A2D0CA8DB0A687EB51A149A37CB537C92E0153B0E9270BB2B25146B4696C3402D8CDEE6A07E231B25ECCE6EFD
310
08AEFBB258BEA7E7B41019F4C5E0452330544712F154B7BB156396A5ABD5D731B4D99CF517A7A0650ABA1C4E69C4311873A9EA29B022B00A4BB340124C75F9FBF62BCFE10B4FE6E8A268BBCCB32C67F6E10A8E63097C217236B7F0BD27D942D58055575D6CCF26FED95677B36D833DDA21813D550EC140554528113AC60616
310
F9AC3365FB9663A584CEF4F5CAB1E113BA00C6829E3577CDD72D07BC477D4751BEA23DBC92F3C586F6584F056BE0D08A0EFF05504B0304140006080000F06E3740000000000000000000000000350000006662782F44414534453036322D393846322D343641312D383246412D3245383844313937414231342F7665727469
310
6365732E62696E504B0304140006080800F06E3740F270F1330600000004000000360000006662782F44414534453036322D393846322D343641312D383246412D3245383844313937414231342F747269616E676C65732E62696E636660600000504B0304140006080000F06E374000000000000000000000000037000000
310
6662782F44414534453036322D393846322D343641312D383246412D3245383844313937414231342F617474726962757465732E62696E504B0304140006080800F06E3740D5987DFC8F00000041010000360000006662782F44414534453036322D393846322D343641312D383246412D3245383844313937414231342F64
310
69726563746F72792E786D6C858F410EC2201045AF4266AF15DDB800BA74E7C21B903225242D6328188F2FA5C4183471359997F9FF81E89FF3C41E1816475E02DF1F80A11FC8386F25A438EECEC07A250251FC3803E6F58C12560C4AD840E95E91C151A72936F496F35732D860FE635F62C8F2DA16B505C545B74125BAA2FA
310
9E05D7CC053D063734D5C7665FD55B6B8D15D5E9BFEAFD8490FFA45E504B0304140006080800F06E3740709B0736FD000000A00100003B0000006662782F44414534453036322D393846322D343641312D383246412D3245383844313937414231342F7265736F75726365732F636F72652E786D6C8D504B6E833010BD0A9A
310
BDC1869220641C059A9CA017B0CC84580936F2A7EAF16B0295DA5D3733A3F7D13C3D7EFA9A9FD9273AAFADE980E5143234CA8EDA4C1DC470230D6427C19DB5E1970C322367EC608541F0C9D9B8EC90B226A009093576C41D94DE63804C3DD3D18157779C652E63480AFFC817A91E72C29CE5894E3AC17D702940B63D592708
310
87DE46A7D0F36263058F518FBB468FE9A7BE697420AE43C5AE437326E5B1AFC9DB81D5A4A7D79AB0E6385CCE97BE6487775EAC66C1839E7F322A8732E008A2A4AC249491B2FA60555BD76D55117A6829E5C52AFF638ACBF84F53D42654E51E77B379102C05791182176B5F69BDCA4C7BED567C03504B010214000A00000800
310
00F06E37403DEE336E79000000790000001B00000000000000000000000000000000006175746F6465736B2D64657369676E2D7061636B6167652E786D6C504B01021400140006080800F06E3740D486FD9CA0000000F40000001300000000000000000000000000B20000005B436F6E74656E745F54797065735D2E786D6C
310
504B01021400140006080800F06E374018715A07EA0000007C010000080000000000000000000000000083010000636F72652E786D6C504B01021400140006080800F06E374055019EA25F0000007C000000070000000000000000000000000093020000636E782E786D6C504B01021400140006080800F06E3740859790B6
310
66010000020300000C00000000000000000000000000170300006662782F636F72652E786D6C504B01021400140006080800F06E3740CFF823227D0000009D0000000B00000000000000000000000000A70400006662782F636E782E786D6C504B01021400140006080800F06E3740AD4D3B012B0100001402000031000000
310
000000000000000000004D0500006662782F44414534453036322D393846322D343641312D383246412D3245383844313937414231342F636F72652E786D6C504B01021400140006080800F06E37407770CD3154010000330300003000000000000000000000000000C70600006662782F44414534453036322D393846322D
310
343641312D383246412D3245383844313937414231342F636E782E786D6C504B01021400140006080800F06E374030B6136558070000931B00003400000000000000000000000000690800006662782F44414534453036322D393846322D343641312D383246412D3245383844313937414231342F6F626A656374732E786D
310
6C504B01021400140006080000F06E37400000000000000000000000003500000000000000000000000000131000006662782F44414534453036322D393846322D343641312D383246412D3245383844313937414231342F76657274696365732E62696E504B01021400140006080800F06E3740F270F13306000000040000
310
003600000000000000000000000000661000006662782F44414534453036322D393846322D343641312D383246412D3245383844313937414231342F747269616E676C65732E62696E504B01021400140006080000F06E37400000000000000000000000003700000000000000000000000000C01000006662782F44414534
310
453036322D393846322D343641312D383246412D3245383844313937414231342F617474726962757465732E62696E504B01021400140006080800F06E3740D5987DFC8F000000410100003600000000000000000000000000151100006662782F44414534453036322D393846322D343641312D383246412D324538384431
310
3937414231342F6469726563746F72792E786D6C504B01021400140006080800F06E3740709B0736FD000000A00100003B00000000000000000000000000F81100006662782F44414534453036322D393846322D343641312D383246412D3245383844313937414231342F7265736F75726365732F636F72652E786D6C504B
310
0506000000000E000E00800400004E1300000000
  0
XRECORD
  5
27
102
{ACAD_REACTORS
330
22
102
}
330
22
100
AcDbXrecord
280
     1
270
     1
271
     1
  0
XRECORD
  5
26
102
{ACAD_REACTORS
330
22
102
}
330
22
100
AcDbXrecord
280
     1
270
     1
271
     1
  0
XRECORD
  5
28
102
{ACAD_REACTORS
330
22
102
}
330
22
100
AcDbXrecord
280
     1
270
     1
271
     1
  0
XRECORD
  5
25
102
{ACAD_REACTORS
330
22
102
}
330
22
100
AcDbXrecord
280
     1
270
     1
271
     1
  0
XRECORD
  5
891
102
{ACAD_REACTORS
330
890
102
}
330
890
100
AcDbXrecord
280
     1
102
ACAD_ROUNDTRIP_2012_MLEADER_STYLE
298
     1
  0
CELLSTYLEMAP
  5
88F
102
{ACAD_REACTORS
330
88E
102
}
330
88E
100
AcDbCellStyleMap
 90
        3
300
CELLSTYLE
  1
TABLEFORMAT_BEGIN
 90
        5
170
     1
 91
        0
 92
    32768
 62
   257
 93
        1
300
CONTENTFORMAT
  1
CONTENTFORMAT_BEGIN
 90
        0
 91
        0
 92
      512
 93
        0
300

 40
0.0
140
1.0
 94
        5
 62
     0
340
55
144
0.25
309
CONTENTFORMAT_END
171
     0
 94
        0
309
TABLEFORMAT_END
  1
CELLSTYLE_BEGIN
 90
        1
 91
        1
300
_TITLE
309
CELLSTYLE_END
300
CELLSTYLE
  1
TABLEFORMAT_BEGIN
 90
        5
170
     1
 91
        0
 92
        0
 62
   257
 93
        1
300
CONTENTFORMAT
  1
CONTENTFORMAT_BEGIN
 90
        0
 91
        0
 92
      512
 93
        0
300

 40
0.0
140
1.0
 94
        5
 62
     0
340
55
144
0.18
309
CONTENTFORMAT_END
171
     0
 94
        0
309
TABLEFORMAT_END
  1
CELLSTYLE_BEGIN
 90
        2
 91
        1
300
_HEADER
309
CELLSTYLE_END
300
CELLSTYLE
  1
TABLEFORMAT_BEGIN
 90
        5
170
     1
 91
        0
 92
        0
 62
   257
 93
        1
300
CONTENTFORMAT
  1
CONTENTFORMAT_BEGIN
 90
        0
 91
        0
 92
      512
 93
        0
300

 40
0.0
140
1.0
 94
        2
 62
     0
340
55
144
0.18
309
CONTENTFORMAT_END
171
     0
 94
        0
309
TABLEFORMAT_END
  1
CELLSTYLE_BEGIN
 90
        3
 91
        2
300
_DATA
309
CELLSTYLE_END
  0
XRECORD
  5
8C7
102
{ACAD_REACTORS
330
88E
102
}
330
88E
100
AcDbXrecord
280
     1
102
ACAD_ROUNDTRIP_PRE2007_TABLESTYLE
 90
      512
 91
        0
  1

 92
      512
 93
        0
  2

 94
      512
 95
        0
  3

  0
XRECORD
  5
8A2
102
{ACAD_REACTORS
330
8A1
102
}
330
8A1
100
AcDbXrecord
280
     1
102
RTVSPropertyOp0
 70
     1
102
RTVSPropertyOp1
 70
     1
102
RTVSPropertyOp2
 70
     1
102
RTVSPropertyOp3
 70
     1
102
RTVSPropertyOp4
 70
     1
102
RTVSPropertyOp5
 70
     1
102
RTVSPropertyOp6
 70
     1
102
RTVSPropertyOp7
 70
     1
102
RTVSPropertyOp8
 70
     1
102
RTVSPropertyOp9
 70
     1
102
RTVSPropertyOp10
 70
     1
102
RTVSPropertyOp11
 70
     1
102
RTVSPropertyOp12
 70
     1
102
RTVSPropertyOp13
 70
     1
102
RTVSPropertyOp14
 70
     1
102
RTVSPropertyOp15
 70
     1
102
RTVSPropertyOp16
 70
     1
102
RTVSPropertyOp17
 70
     1
102
RTVSPropertyOp18
 70
     1
102
RTVSPropertyOp19
 70
     1
102
RTVSPropertyOp20
 70
     1
102
RTVSPropertyOp21
 70
     1
102
RTVSPropertyOp22
 70
     1
102
RTVSPropertyOp23
 70
     1
102
RTVSPropertyOp24
 70
     1
102
RTVSPropertyOp25
 70
     1
102
RTVSPropertyOp26
 70
     1
102
RTVSPropertyOp27
 70
     1
102
RTVSPropertyOp28
 70
     1
102
RTVSPropertyOp29
 70
     1
102
RTVSPropertyOp30
 70
     1
102
RTVSPropertyOp31
 70
     1
102
RTVSPropertyOp32
 70
     1
  0
XRECORD
  5
8A0
102
{ACAD_REACTORS
330
89F
102
}
330
89F
100
AcDbXrecord
280
     1
102
RTVSPropertyOp0
 70
     1
102
RTVSPropertyOp1
 70
     1
102
RTVSPropertyOp2
 70
     1
102
RTVSPropertyOp3
 70
     1
102
RTVSPropertyOp4
 70
     1
102
RTVSPropertyOp5
 70
     1
102
RTVSPropertyOp6
 70
     1
102
RTVSPropertyOp7
 70
     1
102
RTVSPropertyOp8
 70
     1
102
RTVSPropertyOp9
 70
     1
102
RTVSPropertyOp10
 70
     1
102
RTVSPropertyOp11
 70
     1
102
RTVSPropertyOp12
 70
     1
102
RTVSPropertyOp13
 70
     1
102
RTVSPropertyOp14
 70
     1
102
RTVSPropertyOp15
 70
     1
102
RTVSPropertyOp16
 70
     1
102
RTVSPropertyOp17
 70
     1
102
RTVSPropertyOp18
 70
     1
102
RTVSPropertyOp19
 70
     1
102
RTVSPropertyOp20
 70
     1
102
RTVSPropertyOp21
 70
     1
102
RTVSPropertyOp22
 70
     1
102
RTVSPropertyOp23
 70
     1
102
RTVSPropertyOp24
 70
     1
102
RTVSPropertyOp25
 70
     1
102
RTVSPropertyOp26
 70
     1
102
RTVSPropertyOp27
 70
     1
102
RTVSPropertyOp28
 70
     1
102
RTVSPropertyOp29
 70
     1
102
RTVSPropertyOp30
 70
     1
102
RTVSPropertyOp31
 70
     1
102
RTVSPropertyOp32
 70
     1
  0
XRECORD
  5
8AE
102
{ACAD_REACTORS
330
8AD
102
}
330
8AD
100
AcDbXrecord
280
     1
102
RTVSPropertyOp0
 70
     1
102
RTVSPropertyOp1
 70
     1
102
RTVSPropertyOp2
 70
     1
102
RTVSPropertyOp3
 70
     1
102
RTVSPropertyOp4
 70
     1
102
RTVSPropertyOp5
 70
     1
102
RTVSPropertyOp6
 70
     1
102
RTVSPropertyOp7
 70
     1
102
RTVSPropertyOp8
 70
     1
102
RTVSPropertyOp9
 70
     1
102
RTVSPropertyOp10
 70
     1
102
RTVSPropertyOp11
 70
     1
102
RTVSPropertyOp12
 70
     1
102
RTVSPropertyOp13
 70
     1
102
RTVSPropertyOp14
 70
     1
102
RTVSPropertyOp15
 70
     1
102
RTVSPropertyOp16
 70
     1
102
RTVSPropertyOp17
 70
     1
102
RTVSPropertyOp18
 70
     1
102
RTVSPropertyOp19
 70
     1
102
RTVSPropertyOp20
 70
     1
102
RTVSPropertyOp21
 70
     1
102
RTVSPropertyOp22
 70
     1
102
RTVSPropertyOp23
 70
     1
102
RTVSPropertyOp24
 70
     1
102
RTVSPropertyOp25
 70
     1
102
RTVSPropertyOp26
 70
     1
102
RTVSPropertyOp27
 70
     1
102
RTVSPropertyOp28
 70
     1
102
RTVSPropertyOp29
 70
     1
102
RTVSPropertyOp30
 70
     1
102
RTVSPropertyOp31
 70
     1
102
RTVSPropertyOp32
 70
     1
  0
XRECORD
  5
8B6
102
{ACAD_REACTORS
330
8B5
102
}
330
8B5
100
AcDbXrecord
280
     1
102
RTVSPropertyOp0
 70
     1
102
RTVSPropertyOp1
 70
     1
102
RTVSPropertyOp2
 70
     1
102
RTVSPropertyOp3
 70
     1
102
RTVSPropertyOp4
 70
     1
102
RTVSPropertyOp5
 70
     1
102
RTVSPropertyOp6
 70
     1
102
RTVSPropertyOp7
 70
     1
102
RTVSPropertyOp8
 70
     1
102
RTVSPropertyOp9
 70
     1
102
RTVSPropertyOp10
 70
     1
102
RTVSPropertyOp11
 70
     1
102
RTVSPropertyOp12
 70
     1
102
RTVSPropertyOp13
 70
     1
102
RTVSPropertyOp14
 70
     1
102
RTVSPropertyOp15
 70
     1
102
RTVSPropertyOp16
 70
     1
102
RTVSPropertyOp17
 70
     1
102
RTVSPropertyOp18
 70
     1
102
RTVSPropertyOp19
 70
     1
102
RTVSPropertyOp20
 70
     1
102
RTVSPropertyOp21
 70
     1
102
RTVSPropertyOp22
 70
     1
102
RTVSPropertyOp23
 70
     1
102
RTVSPropertyOp24
 70
     1
102
RTVSPropertyOp25
 70
     1
102
RTVSPropertyOp26
 70
     1
102
RTVSPropertyOp27
 70
     1
102
RTVSPropertyOp28
 70
     1
102
RTVSPropertyOp29
 70
     1
102
RTVSPropertyOp30
 70
     1
102
RTVSPropertyOp31
 70
     1
102
RTVSPropertyOp32
 70
     1
  0
XRECORD
  5
8A8
102
{ACAD_REACTORS
330
8A7
102
}
330
8A7
100
AcDbXrecord
280
     1
102
RTVSPropertyOp0
 70
     1
102
RTVSPropertyOp1
 70
     1
102
RTVSPropertyOp2
 70
     1
102
RTVSPropertyOp3
 70
     1
102
RTVSPropertyOp4
 70
     1
102
RTVSPropertyOp5
 70
     1
102
RTVSPropertyOp6
 70
     1
102
RTVSPropertyOp7
 70
     1
102
RTVSPropertyOp8
 70
     1
102
RTVSPropertyOp9
 70
     1
102
RTVSPropertyOp10
 70
     1
102
RTVSPropertyOp11
 70
     1
102
RTVSPropertyOp12
 70
     1
102
RTVSPropertyOp13
 70
     1
102
RTVSPropertyOp14
 70
     1
102
RTVSPropertyOp15
 70
     1
102
RTVSPropertyOp16
 70
     1
102
RTVSPropertyOp17
 70
     1
102
RTVSPropertyOp18
 70
     1
102
RTVSPropertyOp19
 70
     1
102
RTVSPropertyOp20
 70
     1
102
RTVSPropertyOp21
 70
     1
102
RTVSPropertyOp22
 70
     1
102
RTVSPropertyOp23
 70
     1
102
RTVSPropertyOp24
 70
     1
102
RTVSPropertyOp25
 70
     1
102
RTVSPropertyOp26
 70
     1
102
RTVSPropertyOp27
 70
     1
102
RTVSPropertyOp28
 70
     1
102
RTVSPropertyOp29
 70
     1
102
RTVSPropertyOp30
 70
     1
102
RTVSPropertyOp31
 70
     1
102
RTVSPropertyOp32
 70
     1
  0
XRECORD
  5
8AC
102
{ACAD_REACTORS
330
8AB
102
}
330
8AB
100
AcDbXrecord
280
     1
102
RTVSPropertyOp0
 70
     1
102
RTVSPropertyOp1
 70
     1
102
RTVSPropertyOp2
 70
     1
102
RTVSPropertyOp3
 70
     1
102
RTVSPropertyOp4
 70
     1
102
RTVSPropertyOp5
 70
     1
102
RTVSPropertyOp6
 70
     1
102
RTVSPropertyOp7
 70
     1
102
RTVSPropertyOp8
 70
     1
102
RTVSPropertyOp9
 70
     1
102
RTVSPropertyOp10
 70
     1
102
RTVSPropertyOp11
 70
     1
102
RTVSPropertyOp12
 70
     1
102
RTVSPropertyOp13
 70
     1
102
RTVSPropertyOp14
 70
     1
102
RTVSPropertyOp15
 70
     1
102
RTVSPropertyOp16
 70
     1
102
RTVSPropertyOp17
 70
     1
102
RTVSPropertyOp18
 70
     1
102
RTVSPropertyOp19
 70
     1
102
RTVSPropertyOp20
 70
     1
102
RTVSPropertyOp21
 70
     1
102
RTVSPropertyOp22
 70
     1
102
RTVSPropertyOp23
 70
     1
102
RTVSPropertyOp24
 70
     1
102
RTVSPropertyOp25
 70
     1
102
RTVSPropertyOp26
 70
     1
102
RTVSPropertyOp27
 70
     1
102
RTVSPropertyOp28
 70
     1
102
RTVSPropertyOp29
 70
     1
102
RTVSPropertyOp30
 70
     1
102
RTVSPropertyOp31
 70
     1
102
RTVSPropertyOp32
 70
     1
  0
XRECORD
  5
8C6
102
{ACAD_REACTORS
330
8C5
102
}
330
8C5
100
AcDbXrecord
280
     1
102
RTVSPropertyOp0
 70
     0
102
RTVSPropertyOp1
 70
     0
102
RTVSPropertyOp2
 70
     0
102
RTVSPropertyOp3
 70
     0
102
RTVSPropertyOp4
 70
     0
102
RTVSPropertyOp5
 70
     0
102
RTVSPropertyOp6
 70
     0
102
RTVSPropertyOp7
 70
     0
102
RTVSPropertyOp8
 70
     0
102
RTVSPropertyOp9
 70
     0
102
RTVSPropertyOp10
 70
     0
102
RTVSPropertyOp11
 70
     0
102
RTVSPropertyOp12
 70
     0
102
RTVSPropertyOp13
 70
     0
102
RTVSPropertyOp14
 70
     2
102
RTVSPropertyOp15
 70
     0
102
RTVSPropertyOp16
 70
     0
102
RTVSPropertyOp17
 70
     0
102
RTVSPropertyOp18
 70
     0
102
RTVSPropertyOp19
 70
     0
102
RTVSPropertyOp20
 70
     0
102
RTVSPropertyOp21
 70
     0
102
RTVSPropertyOp22
 70
     0
102
RTVSPropertyOp23
 70
     0
102
RTVSPropertyOp24
 70
     0
102
RTVSPropertyOp25
 70
     0
102
RTVSPropertyOp26
 70
     0
102
RTVSPropertyOp27
 70
     0
102
RTVSPropertyOp28
 70
     1
102
RTVSPropertyOp29
 70
     1
102
RTVSPropertyOp30
 70
     1
102
RTVSPropertyOp31
 70
     1
102
RTVSPropertyOp32
 70
     1
  0
XRECORD
  5
8B4
102
{ACAD_REACTORS
330
8B3
102
}
330
8B3
100
AcDbXrecord
280
     1
102
RTVSPropertyOp0
 70
     1
102
RTVSPropertyOp1
 70
     1
102
RTVSPropertyOp2
 70
     1
102
RTVSPropertyOp3
 70
     1
102
RTVSPropertyOp4
 70
     1
102
RTVSPropertyOp5
 70
     1
102
RTVSPropertyOp6
 70
     1
102
RTVSPropertyOp7
 70
     1
102
RTVSPropertyOp8
 70
     1
102
RTVSPropertyOp9
 70
     1
102
RTVSPropertyOp10
 70
     1
102
RTVSPropertyOp11
 70
     1
102
RTVSPropertyOp12
 70
     1
102
RTVSPropertyOp13
 70
     1
102
RTVSPropertyOp14
 70
     1
102
RTVSPropertyOp15
 70
     1
102
RTVSPropertyOp16
 70
     1
102
RTVSPropertyOp17
 70
     1
102
RTVSPropertyOp18
 70
     1
102
RTVSPropertyOp19
 70
     1
102
RTVSPropertyOp20
 70
     1
102
RTVSPropertyOp21
 70
     1
102
RTVSPropertyOp22
 70
     1
102
RTVSPropertyOp23
 70
     1
102
RTVSPropertyOp24
 70
     1
102
RTVSPropertyOp25
 70
     1
102
RTVSPropertyOp26
 70
     1
102
RTVSPropertyOp27
 70
     1
102
RTVSPropertyOp28
 70
     1
102
RTVSPropertyOp29
 70
     1
102
RTVSPropertyOp30
 70
     1
102
RTVSPropertyOp31
 70
     1
102
RTVSPropertyOp32
 70
     1
  0
XRECORD
  5
898
102
{ACAD_REACTORS
330
897
102
}
330
897
100
AcDbXrecord
280
     1
102
RTVSPropertyOp0
 70
     1
102
RTVSPropertyOp1
 70
     1
102
RTVSPropertyOp2
 70
     1
102
RTVSPropertyOp3
 70
     1
102
RTVSPropertyOp4
 70
     1
102
RTVSPropertyOp5
 70
     1
102
RTVSPropertyOp6
 70
     1
102
RTVSPropertyOp7
 70
     1
102
RTVSPropertyOp8
 70
     1
102
RTVSPropertyOp9
 70
     1
102
RTVSPropertyOp10
 70
     1
102
RTVSPropertyOp11
 70
     1
102
RTVSPropertyOp12
 70
     1
102
RTVSPropertyOp13
 70
     1
102
RTVSPropertyOp14
 70
     1
102
RTVSPropertyOp15
 70
     1
102
RTVSPropertyOp16
 70
     1
102
RTVSPropertyOp17
 70
     1
102
RTVSPropertyOp18
 70
     1
102
RTVSPropertyOp19
 70
     1
102
RTVSPropertyOp20
 70
     1
102
RTVSPropertyOp21
 70
     1
102
RTVSPropertyOp22
 70
     1
102
RTVSPropertyOp23
 70
     1
102
RTVSPropertyOp24
 70
     1
102
RTVSPropertyOp25
 70
     1
102
RTVSPropertyOp26
 70
     1
102
RTVSPropertyOp27
 70
     1
102
RTVSPropertyOp28
 70
     1
102
RTVSPropertyOp29
 70
     1
102
RTVSPropertyOp30
 70
     1
102
RTVSPropertyOp31
 70
     1
102
RTVSPropertyOp32
 70
     1
  0
XRECORD
  5
89A
102
{ACAD_REACTORS
330
899
102
}
330
899
100
AcDbXrecord
280
     1
102
RTVSPropertyOp0
 70
     1
102
RTVSPropertyOp1
 70
     1
102
RTVSPropertyOp2
 70
     1
102
RTVSPropertyOp3
 70
     1
102
RTVSPropertyOp4
 70
     1
102
RTVSPropertyOp5
 70
     1
102
RTVSPropertyOp6
 70
     1
102
RTVSPropertyOp7
 70
     1
102
RTVSPropertyOp8
 70
     1
102
RTVSPropertyOp9
 70
     1
102
RTVSPropertyOp10
 70
     1
102
RTVSPropertyOp11
 70
     1
102
RTVSPropertyOp12
 70
     1
102
RTVSPropertyOp13
 70
     1
102
RTVSPropertyOp14
 70
     1
102
RTVSPropertyOp15
 70
     1
102
RTVSPropertyOp16
 70
     1
102
RTVSPropertyOp17
 70
     1
102
RTVSPropertyOp18
 70
     1
102
RTVSPropertyOp19
 70
     1
102
RTVSPropertyOp20
 70
     1
102
RTVSPropertyOp21
 70
     1
102
RTVSPropertyOp22
 70
     1
102
RTVSPropertyOp23
 70
     1
102
RTVSPropertyOp24
 70
     1
102
RTVSPropertyOp25
 70
     1
102
RTVSPropertyOp26
 70
     1
102
RTVSPropertyOp27
 70
     1
102
RTVSPropertyOp28
 70
     1
102
RTVSPropertyOp29
 70
     1
102
RTVSPropertyOp30
 70
     1
102
RTVSPropertyOp31
 70
     1
102
RTVSPropertyOp32
 70
     1
  0
XRECORD
  5
89C
102
{ACAD_REACTORS
330
89B
102
}
330
89B
100
AcDbXrecord
280
     1
102
RTVSPropertyOp0
 70
     1
102
RTVSPropertyOp1
 70
     1
102
RTVSPropertyOp2
 70
     1
102
RTVSPropertyOp3
 70
     1
102
RTVSPropertyOp4
 70
     1
102
RTVSPropertyOp5
 70
     1
102
RTVSPropertyOp6
 70
     1
102
RTVSPropertyOp7
 70
     1
102
RTVSPropertyOp8
 70
     1
102
RTVSPropertyOp9
 70
     1
102
RTVSPropertyOp10
 70
     1
102
RTVSPropertyOp11
 70
     1
102
RTVSPropertyOp12
 70
     1
102
RTVSPropertyOp13
 70
     1
102
RTVSPropertyOp14
 70
     1
102
RTVSPropertyOp15
 70
     1
102
RTVSPropertyOp16
 70
     1
102
RTVSPropertyOp17
 70
     1
102
RTVSPropertyOp18
 70
     1
102
RTVSPropertyOp19
 70
     1
102
RTVSPropertyOp20
 70
     1
102
RTVSPropertyOp21
 70
     1
102
RTVSPropertyOp22
 70
     1
102
RTVSPropertyOp23
 70
     1
102
RTVSPropertyOp24
 70
     1
102
RTVSPropertyOp25
 70
     1
102
RTVSPropertyOp26
 70
     1
102
RTVSPropertyOp27
 70
     1
102
RTVSPropertyOp28
 70
     1
102
RTVSPropertyOp29
 70
     1
102
RTVSPropertyOp30
 70
     1
102
RTVSPropertyOp31
 70
     1
102
RTVSPropertyOp32
 70
     1
  0
XRECORD
  5
89E
102
{ACAD_REACTORS
330
89D
102
}
330
89D
100
AcDbXrecord
280
     1
102
RTVSPropertyOp0
 70
     1
102
RTVSPropertyOp1
 70
     1
102
RTVSPropertyOp2
 70
     1
102
RTVSPropertyOp3
 70
     1
102
RTVSPropertyOp4
 70
     1
102
RTVSPropertyOp5
 70
     1
102
RTVSPropertyOp6
 70
     1
102
RTVSPropertyOp7
 70
     1
102
RTVSPropertyOp8
 70
     1
102
RTVSPropertyOp9
 70
     1
102
RTVSPropertyOp10
 70
     1
102
RTVSPropertyOp11
 70
     1
102
RTVSPropertyOp12
 70
     1
102
RTVSPropertyOp13
 70
     1
102
RTVSPropertyOp14
 70
     1
102
RTVSPropertyOp15
 70
     1
102
RTVSPropertyOp16
 70
     1
102
RTVSPropertyOp17
 70
     1
102
RTVSPropertyOp18
 70
     1
102
RTVSPropertyOp19
 70
     1
102
RTVSPropertyOp20
 70
     1
102
RTVSPropertyOp21
 70
     1
102
RTVSPropertyOp22
 70
     1
102
RTVSPropertyOp23
 70
     1
102
RTVSPropertyOp24
 70
     1
102
RTVSPropertyOp25
 70
     1
102
RTVSPropertyOp26
 70
     1
102
RTVSPropertyOp27
 70
     1
102
RTVSPropertyOp28
 70
     1
102
RTVSPropertyOp29
 70
     1
102
RTVSPropertyOp30
 70
     1
102
RTVSPropertyOp31
 70
     1
102
RTVSPropertyOp32
 70
     1
  0
XRECORD
  5
8A6
102
{ACAD_REACTORS
330
8A5
102
}
330
8A5
100
AcDbXrecord
280
     1
102
RTVSPropertyOp0
 70
     1
102
RTVSPropertyOp1
 70
     1
102
RTVSPropertyOp2
 70
     1
102
RTVSPropertyOp3
 70
     1
102
RTVSPropertyOp4
 70
     1
102
RTVSPropertyOp5
 70
     1
102
RTVSPropertyOp6
 70
     1
102
RTVSPropertyOp7
 70
     1
102
RTVSPropertyOp8
 70
     1
102
RTVSPropertyOp9
 70
     1
102
RTVSPropertyOp10
 70
     1
102
RTVSPropertyOp11
 70
     1
102
RTVSPropertyOp12
 70
     1
102
RTVSPropertyOp13
 70
     1
102
RTVSPropertyOp14
 70
     1
102
RTVSPropertyOp15
 70
     1
102
RTVSPropertyOp16
 70
     1
102
RTVSPropertyOp17
 70
     1
102
RTVSPropertyOp18
 70
     1
102
RTVSPropertyOp19
 70
     1
102
RTVSPropertyOp20
 70
     1
102
RTVSPropertyOp21
 70
     1
102
RTVSPropertyOp22
 70
     1
102
RTVSPropertyOp23
 70
     1
102
RTVSPropertyOp24
 70
     1
102
RTVSPropertyOp25
 70
     1
102
RTVSPropertyOp26
 70
     1
102
RTVSPropertyOp27
 70
     1
102
RTVSPropertyOp28
 70
     1
102
RTVSPropertyOp29
 70
     1
102
RTVSPropertyOp30
 70
     1
102
RTVSPropertyOp31
 70
     1
102
RTVSPropertyOp32
 70
     1
  0
XRECORD
  5
8C2
102
{ACAD_REACTORS
330
8C1
102
}
330
8C1
100
AcDbXrecord
280
     1
102
RTVSPropertyOp0
 70
     0
102
RTVSPropertyOp1
 70
     0
102
RTVSPropertyOp2
 70
     0
102
RTVSPropertyOp3
 70
     0
102
RTVSPropertyOp4
 70
     0
102
RTVSPropertyOp5
 70
     0
102
RTVSPropertyOp6
 70
     0
102
RTVSPropertyOp7
 70
     0
102
RTVSPropertyOp8
 70
     0
102
RTVSPropertyOp9
 70
     0
102
RTVSPropertyOp10
 70
     0
102
RTVSPropertyOp11
 70
     0
102
RTVSPropertyOp12
 70
     0
102
RTVSPropertyOp13
 70
     0
102
RTVSPropertyOp14
 70
     2
102
RTVSPropertyOp15
 70
     0
102
RTVSPropertyOp16
 70
     0
102
RTVSPropertyOp17
 70
     0
102
RTVSPropertyOp18
 70
     0
102
RTVSPropertyOp19
 70
     0
102
RTVSPropertyOp20
 70
     0
102
RTVSPropertyOp21
 70
     0
102
RTVSPropertyOp22
 70
     0
102
RTVSPropertyOp23
 70
     0
102
RTVSPropertyOp24
 70
     0
102
RTVSPropertyOp25
 70
     0
102
RTVSPropertyOp26
 70
     0
102
RTVSPropertyOp27
 70
     0
102
RTVSPropertyOp28
 70
     1
102
RTVSPropertyOp29
 70
     1
102
RTVSPropertyOp30
 70
     1
102
RTVSPropertyOp31
 70
     1
102
RTVSPropertyOp32
 70
     1
  0
XRECORD
  5
8B2
102
{ACAD_REACTORS
330
8B1
102
}
330
8B1
100
AcDbXrecord
280
     1
102
RTVSPropertyOp0
 70
     1
102
RTVSPropertyOp1
 70
     1
102
RTVSPropertyOp2
 70
     1
102
RTVSPropertyOp3
 70
     1
102
RTVSPropertyOp4
 70
     1
102
RTVSPropertyOp5
 70
     1
102
RTVSPropertyOp6
 70
     1
102
RTVSPropertyOp7
 70
     1
102
RTVSPropertyOp8
 70
     1
102
RTVSPropertyOp9
 70
     1
102
RTVSPropertyOp10
 70
     1
102
RTVSPropertyOp11
 70
     1
102
RTVSPropertyOp12
 70
     1
102
RTVSPropertyOp13
 70
     1
102
RTVSPropertyOp14
 70
     1
102
RTVSPropertyOp15
 70
     1
102
RTVSPropertyOp16
 70
     1
102
RTVSPropertyOp17
 70
     1
102
RTVSPropertyOp18
 70
     1
102
RTVSPropertyOp19
 70
     1
102
RTVSPropertyOp20
 70
     1
102
RTVSPropertyOp21
 70
     1
102
RTVSPropertyOp22
 70
     1
102
RTVSPropertyOp23
 70
     1
102
RTVSPropertyOp24
 70
     1
102
RTVSPropertyOp25
 70
     1
102
RTVSPropertyOp26
 70
     1
102
RTVSPropertyOp27
 70
     1
102
RTVSPropertyOp28
 70
     1
102
RTVSPropertyOp29
 70
     1
102
RTVSPropertyOp30
 70
     1
102
RTVSPropertyOp31
 70
     1
102
RTVSPropertyOp32
 70
     1
  0
XRECORD
  5
8C4
102
{ACAD_REACTORS
330
8C3
102
}
330
8C3
100
AcDbXrecord
280
     1
102
RTVSPropertyOp0
 70
     0
102
RTVSPropertyOp1
 70
     0
102
RTVSPropertyOp2
 70
     0
102
RTVSPropertyOp3
 70
     0
102
RTVSPropertyOp4
 70
     0
102
RTVSPropertyOp5
 70
     0
102
RTVSPropertyOp6
 70
     0
102
RTVSPropertyOp7
 70
     0
102
RTVSPropertyOp8
 70
     0
102
RTVSPropertyOp9
 70
     0
102
RTVSPropertyOp10
 70
     0
102
RTVSPropertyOp11
 70
     0
102
RTVSPropertyOp12
 70
     0
102
RTVSPropertyOp13
 70
     0
102
RTVSPropertyOp14
 70
     2
102
RTVSPropertyOp15
 70
     0
102
RTVSPropertyOp16
 70
     0
102
RTVSPropertyOp17
 70
     0
102
RTVSPropertyOp18
 70
     0
102
RTVSPropertyOp19
 70
     0
102
RTVSPropertyOp20
 70
     0
102
RTVSPropertyOp21
 70
     0
102
RTVSPropertyOp22
 70
     0
102
RTVSPropertyOp23
 70
     0
102
RTVSPropertyOp24
 70
     0
102
RTVSPropertyOp25
 70
     0
102
RTVSPropertyOp26
 70
     0
102
RTVSPropertyOp27
 70
     0
102
RTVSPropertyOp28
 70
     1
102
RTVSPropertyOp29
 70
     1
102
RTVSPropertyOp30
 70
     1
102
RTVSPropertyOp31
 70
     1
102
RTVSPropertyOp32
 70
     1
  0
XRECORD
  5
8AA
102
{ACAD_REACTORS
330
8A9
102
}
330
8A9
100
AcDbXrecord
280
     1
102
RTVSPropertyOp0
 70
     1
102
RTVSPropertyOp1
 70
     1
102
RTVSPropertyOp2
 70
     1
102
RTVSPropertyOp3
 70
     1
102
RTVSPropertyOp4
 70
     1
102
RTVSPropertyOp5
 70
     1
102
RTVSPropertyOp6
 70
     1
102
RTVSPropertyOp7
 70
     1
102
RTVSPropertyOp8
 70
     1
102
RTVSPropertyOp9
 70
     1
102
RTVSPropertyOp10
 70
     1
102
RTVSPropertyOp11
 70
     1
102
RTVSPropertyOp12
 70
     1
102
RTVSPropertyOp13
 70
     1
102
RTVSPropertyOp14
 70
     1
102
RTVSPropertyOp15
 70
     1
102
RTVSPropertyOp16
 70
     1
102
RTVSPropertyOp17
 70
     1
102
RTVSPropertyOp18
 70
     1
102
RTVSPropertyOp19
 70
     1
102
RTVSPropertyOp20
 70
     1
102
RTVSPropertyOp21
 70
     1
102
RTVSPropertyOp22
 70
     1
102
RTVSPropertyOp23
 70
     1
102
RTVSPropertyOp24
 70
     1
102
RTVSPropertyOp25
 70
     1
102
RTVSPropertyOp26
 70
     1
102
RTVSPropertyOp27
 70
     1
102
RTVSPropertyOp28
 70
     1
102
RTVSPropertyOp29
 70
     1
102
RTVSPropertyOp30
 70
     1
102
RTVSPropertyOp31
 70
     1
102
RTVSPropertyOp32
 70
     1
  0
XRECORD
  5
8C0
102
{ACAD_REACTORS
330
8BF
102
}
330
8BF
100
AcDbXrecord
280
     1
102
RTVSPropertyOp0
 70
     1
102
RTVSPropertyOp1
 70
     1
102
RTVSPropertyOp2
 70
     1
102
RTVSPropertyOp3
 70
     1
102
RTVSPropertyOp4
 70
     1
102
RTVSPropertyOp5
 70
     1
102
RTVSPropertyOp6
 70
     1
102
RTVSPropertyOp7
 70
     1
102
RTVSPropertyOp8
 70
     1
102
RTVSPropertyOp9
 70
     1
102
RTVSPropertyOp10
 70
     1
102
RTVSPropertyOp11
 70
     1
102
RTVSPropertyOp12
 70
     1
102
RTVSPropertyOp13
 70
     1
102
RTVSPropertyOp14
 70
     1
102
RTVSPropertyOp15
 70
     1
102
RTVSPropertyOp16
 70
     1
102
RTVSPropertyOp17
 70
     1
102
RTVSPropertyOp18
 70
     1
102
RTVSPropertyOp19
 70
     1
102
RTVSPropertyOp20
 70
     1
102
RTVSPropertyOp21
 70
     1
102
RTVSPropertyOp22
 70
     1
102
RTVSPropertyOp23
 70
     1
102
RTVSPropertyOp24
 70
     1
102
RTVSPropertyOp25
 70
     1
102
RTVSPropertyOp26
 70
     1
102
RTVSPropertyOp27
 70
     1
102
RTVSPropertyOp28
 70
     1
102
RTVSPropertyOp29
 70
     1
102
RTVSPropertyOp30
 70
     1
102
RTVSPropertyOp31
 70
     1
102
RTVSPropertyOp32
 70
     1
  0
XRECORD
  5
8BE
102
{ACAD_REACTORS
330
8BD
102
}
330
8BD
100
AcDbXrecord
280
     1
102
RTVSPropertyOp0
 70
     1
102
RTVSPropertyOp1
 70
     1
102
RTVSPropertyOp2
 70
     1
102
RTVSPropertyOp3
 70
     1
102
RTVSPropertyOp4
 70
     1
102
RTVSPropertyOp5
 70
     1
102
RTVSPropertyOp6
 70
     1
102
RTVSPropertyOp7
 70
     1
102
RTVSPropertyOp8
 70
     1
102
RTVSPropertyOp9
 70
     1
102
RTVSPropertyOp10
 70
     1
102
RTVSPropertyOp11
 70
     1
102
RTVSPropertyOp12
 70
     1
102
RTVSPropertyOp13
 70
     1
102
RTVSPropertyOp14
 70
     1
102
RTVSPropertyOp15
 70
     1
102
RTVSPropertyOp16
 70
     1
102
RTVSPropertyOp17
 70
     1
102
RTVSPropertyOp18
 70
     1
102
RTVSPropertyOp19
 70
     1
102
RTVSPropertyOp20
 70
     1
102
RTVSPropertyOp21
 70
     1
102
RTVSPropertyOp22
 70
     1
102
RTVSPropertyOp23
 70
     1
102
RTVSPropertyOp24
 70
     1
102
RTVSPropertyOp25
 70
     1
102
RTVSPropertyOp26
 70
     1
102
RTVSPropertyOp27
 70
     1
102
RTVSPropertyOp28
 70
     1
102
RTVSPropertyOp29
 70
     1
102
RTVSPropertyOp30
 70
     1
102
RTVSPropertyOp31
 70
     1
102
RTVSPropertyOp32
 70
     1
  0
XRECORD
  5
8B8
102
{ACAD_REACTORS
330
8B7
102
}
330
8B7
100
AcDbXrecord
280
     1
102
RTVSPropertyOp0
 70
     1
102
RTVSPropertyOp1
 70
     1
102
RTVSPropertyOp2
 70
     1
102
RTVSPropertyOp3
 70
     1
102
RTVSPropertyOp4
 70
     1
102
RTVSPropertyOp5
 70
     1
102
RTVSPropertyOp6
 70
     1
102
RTVSPropertyOp7
 70
     1
102
RTVSPropertyOp8
 70
     1
102
RTVSPropertyOp9
 70
     1
102
RTVSPropertyOp10
 70
     1
102
RTVSPropertyOp11
 70
     1
102
RTVSPropertyOp12
 70
     1
102
RTVSPropertyOp13
 70
     1
102
RTVSPropertyOp14
 70
     1
102
RTVSPropertyOp15
 70
     1
102
RTVSPropertyOp16
 70
     1
102
RTVSPropertyOp17
 70
     1
102
RTVSPropertyOp18
 70
     1
102
RTVSPropertyOp19
 70
     1
102
RTVSPropertyOp20
 70
     1
102
RTVSPropertyOp21
 70
     1
102
RTVSPropertyOp22
 70
     1
102
RTVSPropertyOp23
 70
     1
102
RTVSPropertyOp24
 70
     1
102
RTVSPropertyOp25
 70
     1
102
RTVSPropertyOp26
 70
     1
102
RTVSPropertyOp27
 70
     1
102
RTVSPropertyOp28
 70
     1
102
RTVSPropertyOp29
 70
     1
102
RTVSPropertyOp30
 70
     1
102
RTVSPropertyOp31
 70
     1
102
RTVSPropertyOp32
 70
     1
  0
XRECORD
  5
8BA
102
{ACAD_REACTORS
330
8B9
102
}
330
8B9
100
AcDbXrecord
280
     1
102
RTVSPropertyOp0
 70
     1
102
RTVSPropertyOp1
 70
     1
102
RTVSPropertyOp2
 70
     1
102
RTVSPropertyOp3
 70
     1
102
RTVSPropertyOp4
 70
     1
102
RTVSPropertyOp5
 70
     1
102
RTVSPropertyOp6
 70
     1
102
RTVSPropertyOp7
 70
     1
102
RTVSPropertyOp8
 70
     1
102
RTVSPropertyOp9
 70
     1
102
RTVSPropertyOp10
 70
     1
102
RTVSPropertyOp11
 70
     1
102
RTVSPropertyOp12
 70
     1
102
RTVSPropertyOp13
 70
     1
102
RTVSPropertyOp14
 70
     1
102
RTVSPropertyOp15
 70
     1
102
RTVSPropertyOp16
 70
     1
102
RTVSPropertyOp17
 70
     1
102
RTVSPropertyOp18
 70
     1
102
RTVSPropertyOp19
 70
     1
102
RTVSPropertyOp20
 70
     1
102
RTVSPropertyOp21
 70
     1
102
RTVSPropertyOp22
 70
     1
102
RTVSPropertyOp23
 70
     1
102
RTVSPropertyOp24
 70
     1
102
RTVSPropertyOp25
 70
     1
102
RTVSPropertyOp26
 70
     1
102
RTVSPropertyOp27
 70
     1
102
RTVSPropertyOp28
 70
     1
102
RTVSPropertyOp29
 70
     1
102
RTVSPropertyOp30
 70
     1
102
RTVSPropertyOp31
 70
     1
102
RTVSPropertyOp32
 70
     1
  0
XRECORD
  5
8B0
102
{ACAD_REACTORS
330
8AF
102
}
330
8AF
100
AcDbXrecord
280
     1
102
RTVSPropertyOp0
 70
     1
102
RTVSPropertyOp1
 70
     1
102
RTVSPropertyOp2
 70
     1
102
RTVSPropertyOp3
 70
     1
102
RTVSPropertyOp4
 70
     1
102
RTVSPropertyOp5
 70
     1
102
RTVSPropertyOp6
 70
     1
102
RTVSPropertyOp7
 70
     1
102
RTVSPropertyOp8
 70
     1
102
RTVSPropertyOp9
 70
     1
102
RTVSPropertyOp10
 70
     1
102
RTVSPropertyOp11
 70
     1
102
RTVSPropertyOp12
 70
     1
102
RTVSPropertyOp13
 70
     1
102
RTVSPropertyOp14
 70
     1
102
RTVSPropertyOp15
 70
     1
102
RTVSPropertyOp16
 70
     1
102
RTVSPropertyOp17
 70
     1
102
RTVSPropertyOp18
 70
     1
102
RTVSPropertyOp19
 70
     1
102
RTVSPropertyOp20
 70
     1
102
RTVSPropertyOp21
 70
     1
102
RTVSPropertyOp22
 70
     1
102
RTVSPropertyOp23
 70
     1
102
RTVSPropertyOp24
 70
     1
102
RTVSPropertyOp25
 70
     1
102
RTVSPropertyOp26
 70
     1
102
RTVSPropertyOp27
 70
     1
102
RTVSPropertyOp28
 70
     1
102
RTVSPropertyOp29
 70
     1
102
RTVSPropertyOp30
 70
     1
102
RTVSPropertyOp31
 70
     1
102
RTVSPropertyOp32
 70
     1
  0
XRECORD
  5
8A4
102
{ACAD_REACTORS
330
8A3
102
}
330
8A3
100
AcDbXrecord
280
     1
102
RTVSPropertyOp0
 70
     1
102
RTVSPropertyOp1
 70
     1
102
RTVSPropertyOp2
 70
     1
102
RTVSPropertyOp3
 70
     1
102
RTVSPropertyOp4
 70
     1
102
RTVSPropertyOp5
 70
     1
102
RTVSPropertyOp6
 70
     1
102
RTVSPropertyOp7
 70
     1
102
RTVSPropertyOp8
 70
     1
102
RTVSPropertyOp9
 70
     1
102
RTVSPropertyOp10
 70
     1
102
RTVSPropertyOp11
 70
     1
102
RTVSPropertyOp12
 70
     1
102
RTVSPropertyOp13
 70
     1
102
RTVSPropertyOp14
 70
     1
102
RTVSPropertyOp15
 70
     1
102
RTVSPropertyOp16
 70
     1
102
RTVSPropertyOp17
 70
     1
102
RTVSPropertyOp18
 70
     1
102
RTVSPropertyOp19
 70
     1
102
RTVSPropertyOp20
 70
     1
102
RTVSPropertyOp21
 70
     1
102
RTVSPropertyOp22
 70
     1
102
RTVSPropertyOp23
 70
     1
102
RTVSPropertyOp24
 70
     1
102
RTVSPropertyOp25
 70
     1
102
RTVSPropertyOp26
 70
     1
102
RTVSPropertyOp27
 70
     1
102
RTVSPropertyOp28
 70
     1
102
RTVSPropertyOp29
 70
     1
102
RTVSPropertyOp30
 70
     1
102
RTVSPropertyOp31
 70
     1
102
RTVSPropertyOp32
 70
     1
  0
XRECORD
  5
8BC
102
{ACAD_REACTORS
330
8BB
102
}
330
8BB
100
AcDbXrecord
280
     1
102
RTVSPropertyOp0
 70
     1
102
RTVSPropertyOp1
 70
     1
102
RTVSPropertyOp2
 70
     1
102
RTVSPropertyOp3
 70
     1
102
RTVSPropertyOp4
 70
     1
102
RTVSPropertyOp5
 70
     1
102
RTVSPropertyOp6
 70
     1
102
RTVSPropertyOp7
 70
     1
102
RTVSPropertyOp8
 70
     1
102
RTVSPropertyOp9
 70
     1
102
RTVSPropertyOp10
 70
     1
102
RTVSPropertyOp11
 70
     1
102
RTVSPropertyOp12
 70
     1
102
RTVSPropertyOp13
 70
     1
102
RTVSPropertyOp14
 70
     1
102
RTVSPropertyOp15
 70
     1
102
RTVSPropertyOp16
 70
     1
102
RTVSPropertyOp17
 70
     1
102
RTVSPropertyOp18
 70
     1
102
RTVSPropertyOp19
 70
     1
102
RTVSPropertyOp20
 70
     1
102
RTVSPropertyOp21
 70
     1
102
RTVSPropertyOp22
 70
     1
102
RTVSPropertyOp23
 70
     1
102
RTVSPropertyOp24
 70
     1
102
RTVSPropertyOp25
 70
     1
102
RTVSPropertyOp26
 70
     1
102
RTVSPropertyOp27
 70
     1
102
RTVSPropertyOp28
 70
     1
102
RTVSPropertyOp29
 70
     1
102
RTVSPropertyOp30
 70
     1
102
RTVSPropertyOp31
 70
     1
102
RTVSPropertyOp32
 70
     1
  0
ENDSEC
  0
EOF
