  0
SECTION
  2
HEADER
  9
$ACADVER
  1
AC1015
  9
$ACADMAINTVER
 70
    18
  9
$DWGCODEPAGE
  3
ANSI_1252
  9
$INSBASE
 10
0.0
 20
0.0
 30
0.0
  9
$EXTMIN
 10
0.0
 20
0.0
 30
0.0
  9
$EXTMAX
 10
42.5
 20
27.5
 30
0.0
  9
$LIMMIN
 10
0.0
 20
0.0
  9
$LIMMAX
 10
42.5
 20
27.5
  9
$ORTHOMODE
 70
     0
  9
$REGENMODE
 70
     1
  9
$FILLMODE
 70
     1
  9
$QTEXTMODE
 70
     0
  9
$MIRRTEXT
 70
     0
  9
$LTSCALE
 40
2.5
  9
$ATTMODE
 70
     1
  9
$TEXTSIZE
 40
0.2
  9
$TRACEWID
 40
0.05
  9
$TEXTSTYLE
  7
Standard
  9
$CLAYER
  8
0
  9
$CELTYPE
  6
ByLayer
  9
$CECOLOR
 62
   256
  9
$CELTSCALE
 40
1.0
  9
$DISPSILH
 70
     0
  9
$DIMSCALE
 40
1.0
  9
$DIMASZ
 40
0.0708661417322835
  9
$DIMEXO
 40
0.0625
  9
$DIMDLI
 40
0.38
  9
$DIMRND
 40
0.0
  9
$DIMDLE
 40
0.0
  9
$DIMEXE
 40
0.18
  9
$DIMTP
 40
0.0
  9
$DIMTM
 40
0.0
  9
$DIMTXT
 40
0.0708661417322835
  9
$DIMCEN
 40
0.09
  9
$DIMTSZ
 40
0.0
  9
$DIMTOL
 70
     0
  9
$DIMLIM
 70
     0
  9
$DIMTIH
 70
     1
  9
$DIMTOH
 70
     1
  9
$DIMSE1
 70
     0
  9
$DIMSE2
 70
     0
  9
$DIMTAD
 70
     0
  9
$DIMZIN
 70
     0
  9
$DIMBLK
  1

  9
$DIMASO
 70
     1
  9
$DIMSHO
 70
     1
  9
$DIMPOST
  1

  9
$DIMAPOST
  1

  9
$DIMALT
 70
     0
  9
$DIMALTD
 70
     2
  9
$DIMALTF
 40
25.4
  9
$DIMLFAC
 40
1.0
  9
$DIMTOFL
 70
     0
  9
$DIMTVP
 40
0.0
  9
$DIMTIX
 70
     0
  9
$DIMSOXD
 70
     0
  9
$DIMSAH
 70
     0
  9
$DIMBLK1
  1

  9
$DIMBLK2
  1

  9
$DIMSTYLE
  2
STANDARD
  9
$DIMCLRD
 70
     0
  9
$DIMCLRE
 70
     0
  9
$DIMCLRT
 70
     0
  9
$DIMTFAC
 40
1.0
  9
$DIMGAP
 40
0.09
  9
$DIMJUST
 70
     0
  9
$DIMSD1
 70
     0
  9
$DIMSD2
 70
     0
  9
$DIMTOLJ
 70
     1
  9
$DIMTZIN
 70
     0
  9
$DIMALTZ
 70
     0
  9
$DIMALTTZ
 70
     0
  9
$DIMUPT
 70
     0
  9
$DIMDEC
 70
     4
  9
$DIMTDEC
 70
     4
  9
$DIMALTU
 70
     2
  9
$DIMALTTD
 70
     2
  9
$DIMTXSTY
  7
Standard
  9
$DIMAUNIT
 70
     0
  9
$DIMADEC
 70
     0
  9
$DIMALTRND
 40
0.0
  9
$DIMAZIN
 70
     0
  9
$DIMDSEP
 70
    46
  9
$DIMATFIT
 70
     3
  9
$DIMFRAC
 70
     0
  9
$DIMLDRBLK
  1

  9
$DIMLUNIT
 70
     2
  9
$DIMLWD
 70
    -2
  9
$DIMLWE
 70
    -2
  9
$DIMTMOVE
 70
     0
  9
$LUNITS
 70
     2
  9
$LUPREC
 70
     4
  9
$SKETCHINC
 40
0.1
  9
$FILLETRAD
 40
0.0
  9
$AUNITS
 70
     0
  9
$AUPREC
 70
     0
  9
$MENU
  1
.
  9
$ELEVATION
 40
0.0
  9
$PELEVATION
 40
0.0
  9
$THICKNESS
 40
0.0
  9
$LIMCHECK
 70
     0
  9
$CHAMFERA
 40
0.0
  9
$CHAMFERB
 40
0.0
  9
$CHAMFERC
 40
0.0
  9
$CHAMFERD
 40
0.0
  9
$SKPOLY
 70
     0
  9
$TDCREATE
 40
2455950.588900452
  9
$TDUCREATE
 40
2455950.838900452
  9
$TDUPDATE
 40
2455950.588900452
  9
$TDUUPDATE
 40
2455950.838900452
  9
$TDINDWG
 40
0.0000365394
  9
$TDUSRTIMER
 40
0.0000365394
  9
$USRTIMER
 70
     1
  9
$ANGBASE
 50
0.0
  9
$ANGDIR
 70
     0
  9
$PDMODE
 70
     0
  9
$PDSIZE
 40
0.0
  9
$PLINEWID
 40
0.0
  9
$SPLFRAME
 70
     0
  9
$SPLINETYPE
 70
     6
  9
$SPLINESEGS
 70
     8
  9
$HANDSEED
  5
8D1
  9
$SURFTAB1
 70
     6
  9
$SURFTAB2
 70
     6
  9
$SURFTYPE
 70
     6
  9
$SURFU
 70
     6
  9
$SURFV
 70
     6
  9
$UCSBASE
  2

  9
$UCSNAME
  2

  9
$UCSORG
 10
0.0
 20
0.0
 30
0.0
  9
$UCSXDIR
 10
1.0
 20
0.0
 30
0.0
  9
$UCSYDIR
 10
0.0
 20
1.0
 30
0.0
  9
$UCSORTHOREF
  2

  9
$UCSORTHOVIEW
 70
     0
  9
$UCSORGTOP
 10
0.0
 20
0.0
 30
0.0
  9
$UCSORGBOTTOM
 10
0.0
 20
0.0
 30
0.0
  9
$UCSORGLEFT
 10
0.0
 20
0.0
 30
0.0
  9
$UCSORGRIGHT
 10
0.0
 20
0.0
 30
0.0
  9
$UCSORGFRONT
 10
0.0
 20
0.0
 30
0.0
  9
$UCSORGBACK
 10
0.0
 20
0.0
 30
0.0
  9
$PUCSBASE
  2

  9
$PUCSNAME
  2

  9
$PUCSORG
 10
0.0
 20
0.0
 30
0.0
  9
$PUCSXDIR
 10
1.0
 20
0.0
 30
0.0
  9
$PUCSYDIR
 10
0.0
 20
1.0
 30
0.0
  9
$PUCSORTHOREF
  2

  9
$PUCSORTHOVIEW
 70
     0
  9
$PUCSORGTOP
 10
0.0
 20
0.0
 30
0.0
  9
$PUCSORGBOTTOM
 10
0.0
 20
0.0
 30
0.0
  9
$PUCSORGLEFT
 10
0.0
 20
0.0
 30
0.0
  9
$PUCSORGRIGHT
 10
0.0
 20
0.0
 30
0.0
  9
$PUCSORGFRONT
 10
0.0
 20
0.0
 30
0.0
  9
$PUCSORGBACK
 10
0.0
 20
0.0
 30
0.0
  9
$USERI1
 70
     0
  9
$USERI2
 70
     0
  9
$USERI3
 70
     0
  9
$USERI4
 70
     0
  9
$USERI5
 70
     0
  9
$USERR1
 40
0.0
  9
$USERR2
 40
0.0
  9
$USERR3
 40
0.0
  9
$USERR4
 40
0.0
  9
$USERR5
 40
0.0
  9
$WORLDVIEW
 70
     1
  9
$SHADEDGE
 70
     3
  9
$SHADEDIF
 70
    70
  9
$TILEMODE
 70
     1
  9
$MAXACTVP
 70
    64
  9
$PINSBASE
 10
0.0
 20
0.0
 30
0.0
  9
$PLIMCHECK
 70
     0
  9
$PEXTMIN
 10
0.0
 20
0.0
 30
0.0
  9
$PEXTMAX
 10
42.5
 20
27.5
 30
0.0
  9
$PLIMMIN
 10
0.0
 20
0.0
  9
$PLIMMAX
 10
42.5
 20
27.5
  9
$UNITMODE
 70
     0
  9
$VISRETAIN
 70
     1
  9
$PLINEGEN
 70
     0
  9
$PSLTSCALE
 70
     1
  9
$TREEDEPTH
 70
  3020
  9
$CMLSTYLE
  2
Standard
  9
$CMLJUST
 70
     0
  9
$CMLSCALE
 40
1.0
  9
$PROXYGRAPHICS
 70
     1
  9
$MEASUREMENT
 70
     0
  9
$CELWEIGHT
370
    -1
  9
$ENDCAPS
280
     0
  9
$JOINSTYLE
280
     0
  9
$LWDISPLAY
290
     0
  9
$INSUNITS
 70
     1
  9
$HYPERLINKBASE
  1

  9
$STYLESHEET
  1

  9
$XEDIT
290
     1
  9
$CEPSNTYPE
380
     0
  9
$PSTYLEMODE
290
     1
  9
$FINGERPRINTGUID
  2
{B86A60F9-F739-4E0E-8B72-CC5AD1FF27E9}
  9
$VERSIONGUID
  2
{FA33FFFA-0487-4956-A3D5-AF6E418A366D}
  9
$EXTNAMES
290
     1
  9
$PSVPSCALE
 40
0.0
  9
$OLESTARTUP
290
     0
  0
ENDSEC
  0
SECTION
  2
CLASSES
  0
CLASS
  1
ACDBDICTIONARYWDFLT
  2
AcDbDictionaryWithDefault
  3
ObjectDBX Classes
 90
        0
280
     0
281
     0
  0
CLASS
  1
MATERIAL
  2
AcDbMaterial
  3
ObjectDBX Classes
 90
     1153
280
     0
281
     0
  0
CLASS
  1
VISUALSTYLE
  2
AcDbVisualStyle
  3
ObjectDBX Classes
 90
     4095
280
     0
281
     0
  0
CLASS
  1
SCALE
  2
AcDbScale
  3
ObjectDBX Classes
 90
     1153
280
     0
281
     0
  0
CLASS
  1
TABLESTYLE
  2
AcDbTableStyle
  3
ObjectDBX Classes
 90
     4095
280
     0
281
     0
  0
CLASS
  1
MLEADERSTYLE
  2
AcDbMLeaderStyle
  3
ACDB_MLEADERSTYLE_CLASS
 90
     4095
280
     0
281
     0
  0
CLASS
  1
DICTIONARYVAR
  2
AcDbDictionaryVar
  3
ObjectDBX Classes
 90
        0
280
     0
281
     0
  0
CLASS
  1
CELLSTYLEMAP
  2
AcDbCellStyleMap
  3
ObjectDBX Classes
 90
     1152
280
     0
281
     0
  0
CLASS
  1
ACDBPLACEHOLDER
  2
AcDbPlaceHolder
  3
ObjectDBX Classes
 90
        0
280
     0
281
     0
  0
CLASS
  1
LAYOUT
  2
AcDbLayout
  3
ObjectDBX Classes
 90
        0
280
     0
281
     0
  0
ENDSEC
  0
SECTION
  2
TABLES
  0
TABLE
  2
VPORT
  5
8
330
0
100
AcDbSymbolTable
 70
     1
  0
VPORT
  5
57
330
8
100
AcDbSymbolTableRecord
100
AcDbViewportTableRecord
  2
*Active
 70
     0
 10
0.0
 20
0.0
 11
1.0
 21
1.0
 12
21.25
 22
13.75
 13
0.0
 23
0.0
 14
1.0
 24
1.0
 15
0.0
 25
0.0
 16
0.0
 26
0.0
 36
1.0
 17
0.0
 27
0.0
 37
0.0
 40
27.5
 41
1.545454545454545
 42
50.0
 43
0.0
 44
0.0
 50
0.0
 51
0.0
 71
     0
 72
   100
 73
     1
 74
     1
 75
     0
 76
     0
 77
     0
 78
     0
281
     0
 65
     1
110
0.0
120
0.0
130
0.0
111
1.0
121
0.0
131
0.0
112
0.0
122
1.0
132
0.0
 79
     0
146
0.0
  0
ENDTAB
  0
TABLE
  2
LTYPE
  5
5
330
0
100
AcDbSymbolTable
 70
    59
  0
LTYPE
  5
5B
330
5
100
AcDbSymbolTableRecord
100
AcDbLinetypeTableRecord
  2
ByBlock
 70
     0
  3

 72
    65
 73
     0
 40
0.0
  0
LTYPE
  5
5C
330
5
100
AcDbSymbolTableRecord
100
AcDbLinetypeTableRecord
  2
ByLayer
 70
     0
  3

 72
    65
 73
     0
 40
0.0
  0
LTYPE
  5
5D
330
5
100
AcDbSymbolTableRecord
100
AcDbLinetypeTableRecord
  2
Continuous
 70
     0
  3
Solid line
 72
    65
 73
     0
 40
0.0
  0
LTYPE
  5
7C
330
5
100
AcDbSymbolTableRecord
100
AcDbLinetypeTableRecord
  2
BY_STANDARD
 70
     0
  3
By Standard ____________    ____    ____   _
 72
    65
 73
     6
 40
1.240299999999999
 49
0.6614
 74
     0
 49
-0.0827
 74
     0
 49
0.1654
 74
     0
 49
-0.0827
 74
     0
 49
0.1654
 74
     0
 49
-0.0827
 74
     0
  0
LTYPE
  5
7D
330
5
100
AcDbSymbolTableRecord
100
AcDbLinetypeTableRecord
  2
CHAIN
 70
     0
  3
Chain ____ _ ____ _ ____ _ ____ _ ____ _ ____
 72
    65
 73
     4
 40
0.7087
 49
0.4724000000000001
 74
     0
 49
-0.0591
 74
     0
 49
0.1181
 74
     0
 49
-0.0591
 74
     0
  0
LTYPE
  5
7E
330
5
100
AcDbSymbolTableRecord
100
AcDbLinetypeTableRecord
  2
DASH_DOT
 70
     0
  3
Dash dot __ . __ . __ . __ . __ . __ . __ . __
 72
    65
 73
     4
 40
0.37
 49
0.24
 74
     0
 49
-0.06
 74
     0
 49
0.01
 74
     0
 49
-0.06
 74
     0
  0
LTYPE
  5
7F
330
5
100
AcDbSymbolTableRecord
100
AcDbLinetypeTableRecord
  2
DOUBLE_DASH_DOT
 70
     0
  3
Double-Dash Dot __ __ . __ __ . __ __ . __ _
 72
    65
 73
     6
 40
0.4398
 49
0.24
 74
     0
 49
-0.06
 74
     0
 49
0.0098
 74
     0
 49
-0.06
 74
     0
 49
0.01
 74
     0
 49
-0.06
 74
     0
  0
LTYPE
  5
80
330
5
100
AcDbSymbolTableRecord
100
AcDbLinetypeTableRecord
  2
DASH_TRIPLE_DOT
 70
     0
  3
Dash Triple-Dot _ . . . _ . . . _ . . . _
 72
    65
 73
     8
 40
0.51
 49
0.24
 74
     0
 49
-0.06
 74
     0
 49
0.01
 74
     0
 49
-0.06
 74
     0
 49
0.01
 74
     0
 49
-0.06
 74
     0
 49
0.01
 74
     0
 49
-0.06
 74
     0
  0
LTYPE
  5
81
330
5
100
AcDbSymbolTableRecord
100
AcDbLinetypeTableRecord
  2
DASHED
 70
     0
  3
Dashed __ __ __ __ __ __ __ __ __ __ __ __ __ _
 72
    65
 73
     2
 40
0.2067
 49
0.1654
 74
     0
 49
-0.0413
 74
     0
  0
LTYPE
  5
82
330
5
100
AcDbSymbolTableRecord
100
AcDbLinetypeTableRecord
  2
DASH_DOUBLE_DOT
 70
     0
  3
Dash Double-Dot __ . . __ . . __ . . __ . .
 72
    65
 73
     6
 40
0.4398
 49
0.24
 74
     0
 49
-0.06
 74
     0
 49
0.0098
 74
     0
 49
-0.06
 74
     0
 49
0.01
 74
     0
 49
-0.06
 74
     0
  0
LTYPE
  5
83
330
5
100
AcDbSymbolTableRecord
100
AcDbLinetypeTableRecord
  2
DASHED_SPACE
 70
     0
  3
Dashed Space __ __ __ __ __ __ __ __ __ __ __ _
 72
    65
 73
     2
 40
0.2067
 49
0.1654
 74
     0
 49
-0.0413
 74
     0
  0
LTYPE
  5
84
330
5
100
AcDbSymbolTableRecord
100
AcDbLinetypeTableRecord
  2
DOTTED
 70
     0
  3
Dotted . . . . . . . . . . . . . . . . . . . . 
 72
    65
 73
     2
 40
0.0482
 49
0.0069
 74
     0
 49
-0.0413
 74
     0
  0
LTYPE
  5
85
330
5
100
AcDbSymbolTableRecord
100
AcDbLinetypeTableRecord
  2
DOUBLE_DASH_CHAIN
 70
     0
  3
Double-Dash Chain ______  __  __  ______  __  _
 72
    65
 73
     6
 40
1.240299999999999
 49
0.6614
 74
     0
 49
-0.0827
 74
     0
 49
0.1654
 74
     0
 49
-0.0827
 74
     0
 49
0.1654
 74
     0
 49
-0.0827
 74
     0
  0
LTYPE
  5
87
330
5
100
AcDbSymbolTableRecord
100
AcDbLinetypeTableRecord
  2
DOUBLE_DASH_DOUBLE_DOT
 70
     0
  3
Double-Dash Double-dot _ _ . . _ _ . . _
 72
    65
 73
     8
 40
0.7400000000000001
 49
0.24
 74
     0
 49
-0.06
 74
     0
 49
0.24
 74
     0
 49
-0.06
 74
     0
 49
0.01
 74
     0
 49
-0.06
 74
     0
 49
0.01
 74
     0
 49
-0.06
 74
     0
  0
LTYPE
  5
88
330
5
100
AcDbSymbolTableRecord
100
AcDbLinetypeTableRecord
  2
DOUBLE_DASH_TRIPLE_DOT
 70
     0
  3
Double Dash Triple Dot __ __ . . . __ __ . .
 72
    65
 73
    10
 40
0.8100000000000001
 49
0.24
 74
     0
 49
-0.06
 74
     0
 49
0.24
 74
     0
 49
-0.06
 74
     0
 49
0.01
 74
     0
 49
-0.06
 74
     0
 49
0.01
 74
     0
 49
-0.06
 74
     0
 49
0.01
 74
     0
 49
-0.06
 74
     0
  0
LTYPE
  5
89
330
5
100
AcDbSymbolTableRecord
100
AcDbLinetypeTableRecord
  2
LONG_DASH_DOTTED
 70
     0
  3
Long Dash Dotted ____ . ____ . ____ . ____ . _
 72
    65
 73
     4
 40
0.3543
 49
0.2362
 74
     0
 49
-0.0295
 74
     0
 49
0.0591
 74
     0
 49
-0.0295
 74
     0
  0
LTYPE
  5
8A
330
5
100
AcDbSymbolTableRecord
100
AcDbLinetypeTableRecord
  2
LONG_DASH_DOUBLE_DOT
 70
     0
  3
Long Dash Double Dot ________  .  .  ________  
 72
    65
 73
     6
 40
0.6799999999999999
 49
0.48
 74
     0
 49
-0.06
 74
     0
 49
0.01
 74
     0
 49
-0.06
 74
     0
 49
0.01
 74
     0
 49
-0.06
 74
     0
  0
LTYPE
  5
8B
330
5
100
AcDbSymbolTableRecord
100
AcDbLinetypeTableRecord
  2
LONG_DASH_TRIPLE_DOT
 70
     0
  3
Long Dash Triple Dot ____ ... ____ ... ____
 72
    65
 73
     8
 40
0.3689
 49
0.2362
 74
     0
 49
-0.0295
 74
     0
 49
0.0049
 74
     0
 49
-0.0295
 74
     0
 49
0.0049
 74
     0
 49
-0.0295
 74
     0
 49
0.0049
 74
     0
 49
-0.0295
 74
     0
  0
LTYPE
  5
8C
330
5
100
AcDbSymbolTableRecord
100
AcDbLinetypeTableRecord
  2
BORDER
 70
     0
  3
Border __ __ . __ __ . __ __ . __ __ . __ __ .
 72
    65
 73
     6
 40
1.75
 49
0.5
 74
     0
 49
-0.25
 74
     0
 49
0.5
 74
     0
 49
-0.25
 74
     0
 49
0.0
 74
     0
 49
-0.25
 74
     0
  0
LTYPE
  5
8D
330
5
100
AcDbSymbolTableRecord
100
AcDbLinetypeTableRecord
  2
BORDER2
 70
     0
  3
Border (.5x) __.__.__.__.__.__.__.__.__.__.__.
 72
    65
 73
     6
 40
0.875
 49
0.25
 74
     0
 49
-0.125
 74
     0
 49
0.25
 74
     0
 49
-0.125
 74
     0
 49
0.0
 74
     0
 49
-0.125
 74
     0
  0
LTYPE
  5
8E
330
5
100
AcDbSymbolTableRecord
100
AcDbLinetypeTableRecord
  2
BORDERX2
 70
     0
  3
Border (2x) ____  ____  .  ____  ____  .  ___
 72
    65
 73
     6
 40
3.5
 49
1.0
 74
     0
 49
-0.5
 74
     0
 49
1.0
 74
     0
 49
-0.5
 74
     0
 49
0.0
 74
     0
 49
-0.5
 74
     0
  0
LTYPE
  5
8F
330
5
100
AcDbSymbolTableRecord
100
AcDbLinetypeTableRecord
  2
CENTER
 70
     0
  3
Center ____ _ ____ _ ____ _ ____ _ ____ _ ____
 72
    65
 73
     4
 40
2.0
 49
1.25
 74
     0
 49
-0.25
 74
     0
 49
0.25
 74
     0
 49
-0.25
 74
     0
  0
LTYPE
  5
90
330
5
100
AcDbSymbolTableRecord
100
AcDbLinetypeTableRecord
  2
CENTER2
 70
     0
  3
Center (.5x) ___ _ ___ _ ___ _ ___ _ ___ _ ___
 72
    65
 73
     4
 40
1.125
 49
0.75
 74
     0
 49
-0.125
 74
     0
 49
0.125
 74
     0
 49
-0.125
 74
     0
  0
LTYPE
  5
91
330
5
100
AcDbSymbolTableRecord
100
AcDbLinetypeTableRecord
  2
CENTERX2
 70
     0
  3
Center (2x) ________  __  ________  __  _____
 72
    65
 73
     4
 40
4.0
 49
2.5
 74
     0
 49
-0.5
 74
     0
 49
0.5
 74
     0
 49
-0.5
 74
     0
  0
LTYPE
  5
92
330
5
100
AcDbSymbolTableRecord
100
AcDbLinetypeTableRecord
  2
DASHDOT2
 70
     0
  3
Dash dot (.5x) _._._._._._._._._._._._._._._.
 72
    65
 73
     4
 40
0.5
 49
0.25
 74
     0
 49
-0.125
 74
     0
 49
0.0
 74
     0
 49
-0.125
 74
     0
  0
LTYPE
  5
93
330
5
100
AcDbSymbolTableRecord
100
AcDbLinetypeTableRecord
  2
DASHDOTX2
 70
     0
  3
Dash dot (2x) ____  .  ____  .  ____  .  ___
 72
    65
 73
     4
 40
2.0
 49
1.0
 74
     0
 49
-0.5
 74
     0
 49
0.0
 74
     0
 49
-0.5
 74
     0
  0
LTYPE
  5
95
330
5
100
AcDbSymbolTableRecord
100
AcDbLinetypeTableRecord
  2
DASHED2
 70
     0
  3
Dashed (.5x) _ _ _ _ _ _ _ _ _ _ _ _ _ _ _ _ _
 72
    65
 73
     2
 40
0.375
 49
0.25
 74
     0
 49
-0.125
 74
     0
  0
LTYPE
  5
96
330
5
100
AcDbSymbolTableRecord
100
AcDbLinetypeTableRecord
  2
DASHEDX2
 70
     0
  3
Dashed (2x) ____  ____  ____  ____  ____  ___
 72
    65
 73
     2
 40
1.5
 49
1.0
 74
     0
 49
-0.5
 74
     0
  0
LTYPE
  5
97
330
5
100
AcDbSymbolTableRecord
100
AcDbLinetypeTableRecord
  2
DIVIDE
 70
     0
  3
Divide ____ . . ____ . . ____ . . ____ . . ____
 72
    65
 73
     6
 40
1.25
 49
0.5
 74
     0
 49
-0.25
 74
     0
 49
0.0
 74
     0
 49
-0.25
 74
     0
 49
0.0
 74
     0
 49
-0.25
 74
     0
  0
LTYPE
  5
98
330
5
100
AcDbSymbolTableRecord
100
AcDbLinetypeTableRecord
  2
DIVIDE2
 70
     0
  3
Divide (.5x) __..__..__..__..__..__..__..__.._
 72
    65
 73
     6
 40
0.625
 49
0.25
 74
     0
 49
-0.125
 74
     0
 49
0.0
 74
     0
 49
-0.125
 74
     0
 49
0.0
 74
     0
 49
-0.125
 74
     0
  0
LTYPE
  5
99
330
5
100
AcDbSymbolTableRecord
100
AcDbLinetypeTableRecord
  2
DIVIDEX2
 70
     0
  3
Divide (2x) ________  .  .  ________  .  .  _
 72
    65
 73
     6
 40
2.5
 49
1.0
 74
     0
 49
-0.5
 74
     0
 49
0.0
 74
     0
 49
-0.5
 74
     0
 49
0.0
 74
     0
 49
-0.5
 74
     0
  0
LTYPE
  5
9A
330
5
100
AcDbSymbolTableRecord
100
AcDbLinetypeTableRecord
  2
DOT
 70
     0
  3
Dot . . . . . . . . . . . . . . . . . . . . . .
 72
    65
 73
     2
 40
0.25
 49
0.0
 74
     0
 49
-0.25
 74
     0
  0
LTYPE
  5
9B
330
5
100
AcDbSymbolTableRecord
100
AcDbLinetypeTableRecord
  2
DOT2
 70
     0
  3
Dot (.5x) .....................................
 72
    65
 73
     2
 40
0.125
 49
0.0
 74
     0
 49
-0.125
 74
     0
  0
LTYPE
  5
9C
330
5
100
AcDbSymbolTableRecord
100
AcDbLinetypeTableRecord
  2
DOTX2
 70
     0
  3
Dot (2x) .  .  .  .  .  .  .  .  .  .  .  .  . 
 72
    65
 73
     2
 40
0.5
 49
0.0
 74
     0
 49
-0.5
 74
     0
  0
LTYPE
  5
9D
330
5
100
AcDbSymbolTableRecord
100
AcDbLinetypeTableRecord
  2
HIDDEN
 70
     0
  3
Hidden __ __ __ __ __ __ __ __ __ __ __ __ __ _
 72
    65
 73
     2
 40
0.375
 49
0.25
 74
     0
 49
-0.125
 74
     0
  0
LTYPE
  5
9E
330
5
100
AcDbSymbolTableRecord
100
AcDbLinetypeTableRecord
  2
HIDDEN2
 70
     0
  3
Hidden (.5x) _ _ _ _ _ _ _ _ _ _ _ _ _ _ _ _ _
 72
    65
 73
     2
 40
0.1875
 49
0.125
 74
     0
 49
-0.0625
 74
     0
  0
LTYPE
  5
9F
330
5
100
AcDbSymbolTableRecord
100
AcDbLinetypeTableRecord
  2
HIDDENX2
 70
     0
  3
Hidden (2x) ____ ____ ____ ____ ____ ____ ____
 72
    65
 73
     2
 40
0.75
 49
0.5
 74
     0
 49
-0.25
 74
     0
  0
LTYPE
  5
A0
330
5
100
AcDbSymbolTableRecord
100
AcDbLinetypeTableRecord
  2
PHANTOM
 70
     0
  3
Phantom ______  __  __  ______  __  __  ______
 72
    65
 73
     6
 40
2.5
 49
1.25
 74
     0
 49
-0.25
 74
     0
 49
0.25
 74
     0
 49
-0.25
 74
     0
 49
0.25
 74
     0
 49
-0.25
 74
     0
  0
LTYPE
  5
A1
330
5
100
AcDbSymbolTableRecord
100
AcDbLinetypeTableRecord
  2
PHANTOM2
 70
     0
  3
Phantom (.5x) ___ _ _ ___ _ _ ___ _ _ ___ _ _
 72
    65
 73
     6
 40
1.25
 49
0.625
 74
     0
 49
-0.125
 74
     0
 49
0.125
 74
     0
 49
-0.125
 74
     0
 49
0.125
 74
     0
 49
-0.125
 74
     0
  0
LTYPE
  5
A2
330
5
100
AcDbSymbolTableRecord
100
AcDbLinetypeTableRecord
  2
PHANTOMX2
 70
     0
  3
Phantom (2x) ____________    ____    ____   _
 72
    65
 73
     6
 40
5.0
 49
2.5
 74
     0
 49
-0.5
 74
     0
 49
0.5
 74
     0
 49
-0.5
 74
     0
 49
0.5
 74
     0
 49
-0.5
 74
     0
  0
LTYPE
  5
A3
330
5
100
AcDbSymbolTableRecord
100
AcDbLinetypeTableRecord
  2
ACAD_ISO02W100
 70
     0
  3
ISO dash __ __ __ __ __ __ __ __ __ __ __ __ __
 72
    65
 73
     2
 40
0.59
 49
0.47
 74
     0
 49
-0.12
 74
     0
  0
LTYPE
  5
A4
330
5
100
AcDbSymbolTableRecord
100
AcDbLinetypeTableRecord
  2
ACAD_ISO03W100
 70
     0
  3
ISO dash space __    __    __    __    __    __
 72
    65
 73
     2
 40
1.179999999999999
 49
0.47
 74
     0
 49
-0.71
 74
     0
  0
LTYPE
  5
A5
330
5
100
AcDbSymbolTableRecord
100
AcDbLinetypeTableRecord
  2
ACAD_ISO04W100
 70
     0
  3
ISO long-dash dot ____ . ____ . ____ . ____ . _
 72
    65
 73
     4
 40
1.179999999999999
 49
0.9399999999999998
 74
     0
 49
-0.12
 74
     0
 49
0.0
 74
     0
 49
-0.12
 74
     0
  0
LTYPE
  5
A6
330
5
100
AcDbSymbolTableRecord
100
AcDbLinetypeTableRecord
  2
ACAD_ISO05W100
 70
     0
  3
ISO long-dash double-dot ____ .. ____ .. ____ .
 72
    65
 73
     6
 40
1.299999999999999
 49
0.9399999999999998
 74
     0
 49
-0.12
 74
     0
 49
0.0
 74
     0
 49
-0.12
 74
     0
 49
0.0
 74
     0
 49
-0.12
 74
     0
  0
LTYPE
  5
A7
330
5
100
AcDbSymbolTableRecord
100
AcDbLinetypeTableRecord
  2
ACAD_ISO06W100
 70
     0
  3
ISO long-dash triple-dot ____ ... ____ ... ____
 72
    65
 73
     8
 40
1.419999999999999
 49
0.9399999999999998
 74
     0
 49
-0.12
 74
     0
 49
0.0
 74
     0
 49
-0.12
 74
     0
 49
0.0
 74
     0
 49
-0.12
 74
     0
 49
0.0
 74
     0
 49
-0.12
 74
     0
  0
LTYPE
  5
A8
330
5
100
AcDbSymbolTableRecord
100
AcDbLinetypeTableRecord
  2
ACAD_ISO07W100
 70
     0
  3
ISO dot . . . . . . . . . . . . . . . . . . . .
 72
    65
 73
     2
 40
0.12
 49
0.0
 74
     0
 49
-0.12
 74
     0
  0
LTYPE
  5
A9
330
5
100
AcDbSymbolTableRecord
100
AcDbLinetypeTableRecord
  2
ACAD_ISO08W100
 70
     0
  3
ISO long-dash short-dash ____ __ ____ __ ____ _
 72
    65
 73
     4
 40
0.95
 49
0.47
 74
     0
 49
-0.12
 74
     0
 49
0.24
 74
     0
 49
-0.12
 74
     0
  0
LTYPE
  5
AA
330
5
100
AcDbSymbolTableRecord
100
AcDbLinetypeTableRecord
  2
ACAD_ISO09W100
 70
     0
  3
ISO long-dash double-short-dash ____ __ __ ____
 72
    65
 73
     6
 40
1.31
 49
0.47
 74
     0
 49
-0.12
 74
     0
 49
0.24
 74
     0
 49
-0.12
 74
     0
 49
0.24
 74
     0
 49
-0.12
 74
     0
  0
LTYPE
  5
AB
330
5
100
AcDbSymbolTableRecord
100
AcDbLinetypeTableRecord
  2
ACAD_ISO10W100
 70
     0
  3
ISO dash dot __ . __ . __ . __ . __ . __ . __ .
 72
    65
 73
     4
 40
0.71
 49
0.47
 74
     0
 49
-0.12
 74
     0
 49
0.0
 74
     0
 49
-0.12
 74
     0
  0
LTYPE
  5
AC
330
5
100
AcDbSymbolTableRecord
100
AcDbLinetypeTableRecord
  2
ACAD_ISO11W100
 70
     0
  3
ISO double-dash dot __ __ . __ __ . __ __ . __ 
 72
    65
 73
     6
 40
1.299999999999999
 49
0.47
 74
     0
 49
-0.12
 74
     0
 49
0.47
 74
     0
 49
-0.12
 74
     0
 49
0.0
 74
     0
 49
-0.12
 74
     0
  0
LTYPE
  5
AD
330
5
100
AcDbSymbolTableRecord
100
AcDbLinetypeTableRecord
  2
ACAD_ISO12W100
 70
     0
  3
ISO dash double-dot __ . . __ . . __ . . __ . .
 72
    65
 73
     6
 40
0.8299999999999998
 49
0.47
 74
     0
 49
-0.12
 74
     0
 49
0.0
 74
     0
 49
-0.12
 74
     0
 49
0.0
 74
     0
 49
-0.12
 74
     0
  0
LTYPE
  5
AE
330
5
100
AcDbSymbolTableRecord
100
AcDbLinetypeTableRecord
  2
ACAD_ISO13W100
 70
     0
  3
ISO double-dash double-dot __ __ . . __ __ . . 
 72
    65
 73
     8
 40
1.419999999999999
 49
0.47
 74
     0
 49
-0.12
 74
     0
 49
0.47
 74
     0
 49
-0.12
 74
     0
 49
0.0
 74
     0
 49
-0.12
 74
     0
 49
0.0
 74
     0
 49
-0.12
 74
     0
  0
LTYPE
  5
AF
330
5
100
AcDbSymbolTableRecord
100
AcDbLinetypeTableRecord
  2
ACAD_ISO14W100
 70
     0
  3
ISO dash triple-dot __ . . . __ . . . __ . . . 
 72
    65
 73
     8
 40
0.95
 49
0.47
 74
     0
 49
-0.12
 74
     0
 49
0.0
 74
     0
 49
-0.12
 74
     0
 49
0.0
 74
     0
 49
-0.12
 74
     0
 49
0.0
 74
     0
 49
-0.12
 74
     0
  0
LTYPE
  5
B0
330
5
100
AcDbSymbolTableRecord
100
AcDbLinetypeTableRecord
  2
ACAD_ISO15W100
 70
     0
  3
ISO double-dash triple-dot __ __ . . . __ __ . 
 72
    65
 73
    10
 40
1.539999999999999
 49
0.47
 74
     0
 49
-0.12
 74
     0
 49
0.47
 74
     0
 49
-0.12
 74
     0
 49
0.0
 74
     0
 49
-0.12
 74
     0
 49
0.0
 74
     0
 49
-0.12
 74
     0
 49
0.0
 74
     0
 49
-0.12
 74
     0
  0
LTYPE
  5
B3
330
5
100
AcDbSymbolTableRecord
100
AcDbLinetypeTableRecord
  2
FENCELINE1
 70
     0
  3
Fenceline circle ----0-----0----0-----0----0---
 72
    65
 73
     4
 40
1.45
 49
0.25
 74
     0
 49
-0.1
 74
     4
 75
   133
340
B2
 46
0.1
 50
0.0
 44
-0.1
 45
0.0
 49
-0.1
 74
     0
 49
1.0
 74
     0
  0
LTYPE
  5
B4
330
5
100
AcDbSymbolTableRecord
100
AcDbLinetypeTableRecord
  2
FENCELINE2
 70
     0
  3
Fenceline square ----[]-----[]----[]-----[]----
 72
    65
 73
     4
 40
1.45
 49
0.25
 74
     0
 49
-0.1
 74
     4
 75
   132
340
B2
 46
0.1
 50
0.0
 44
-0.1
 45
0.0
 49
-0.1
 74
     0
 49
1.0
 74
     0
  0
LTYPE
  5
B5
330
5
100
AcDbSymbolTableRecord
100
AcDbLinetypeTableRecord
  2
TRACKS
 70
     0
  3
Tracks -|-|-|-|-|-|-|-|-|-|-|-|-|-|-|-|-|-|-|-|
 72
    65
 73
     2
 40
0.3
 49
0.15
 74
     4
 75
   130
340
B2
 46
0.25
 50
0.0
 44
0.0
 45
0.0
 49
0.15
 74
     0
  0
LTYPE
  5
B6
330
5
100
AcDbSymbolTableRecord
100
AcDbLinetypeTableRecord
  2
BATTING
 70
     0
  3
Batting SSSSSSSSSSSSSSSSSSSSSSSSSSSSSSSSSSSSSSS
 72
    65
 73
     4
 40
0.4001000000000001
 49
0.0001
 74
     0
 49
-0.1
 74
     4
 75
   134
340
B2
 46
0.1
 50
0.0
 44
-0.1
 45
0.0
 49
-0.2
 74
     4
 75
   134
340
B2
 46
0.1
 50
180.0
 44
0.1
 45
0.0
 49
-0.1
 74
     0
  0
LTYPE
  5
B7
330
5
100
AcDbSymbolTableRecord
100
AcDbLinetypeTableRecord
  2
HOT_WATER_SUPPLY
 70
     0
  3
Hot water supply ---- HW ---- HW ---- HW ----
 72
    65
 73
     3
 40
0.9
 49
0.5
 74
     0
 49
-0.2
 74
     2
 75
     0
340
55
 46
0.1
 50
0.0
 44
-0.1
 45
-0.05
  9
HW
 49
-0.2
 74
     0
  0
LTYPE
  5
B8
330
5
100
AcDbSymbolTableRecord
100
AcDbLinetypeTableRecord
  2
GAS_LINE
 70
     0
  3
Gas line ----GAS----GAS----GAS----GAS----GAS---
 72
    65
 73
     3
 40
0.95
 49
0.5
 74
     0
 49
-0.2
 74
     2
 75
     0
340
55
 46
0.1
 50
0.0
 44
-0.1
 45
-0.05
  9
GAS
 49
-0.25
 74
     0
  0
LTYPE
  5
B9
330
5
100
AcDbSymbolTableRecord
100
AcDbLinetypeTableRecord
  2
ZIGZAG
 70
     0
  3
Zig zag /\/\/\/\/\/\/\/\/\/\/\/\/\/\/\/\/\/\/\/
 72
    65
 73
     4
 40
0.8001000000000001
 49
0.0001
 74
     0
 49
-0.2
 74
     4
 75
   131
340
B2
 46
0.2
 50
0.0
 44
-0.2
 45
0.0
 49
-0.4
 74
     4
 75
   131
340
B2
 46
0.2
 50
180.0
 44
0.2
 45
0.0
 49
-0.2
 74
     0
  0
ENDTAB
  0
TABLE
  2
LAYER
  5
2
330
0
100
AcDbSymbolTable
 70
    27
  0
LAYER
  5
54
330
2
100
AcDbSymbolTableRecord
100
AcDbLayerTableRecord
  2
0
 70
     0
 62
     7
  6
Continuous
370
    18
390
F
  0
LAYER
  5
C3
330
2
100
AcDbSymbolTableRecord
100
AcDbLayerTableRecord
  2
Dimension (ANSI)
 70
     0
 62
     7
  6
Continuous
370
    13
390
F
  0
LAYER
  5
C5
330
2
100
AcDbSymbolTableRecord
100
AcDbLayerTableRecord
  2
Hidden (ANSI)
 70
     0
 62
     7
  6
DASHED
370
    15
390
F
  0
LAYER
  5
CC
330
2
100
AcDbSymbolTableRecord
100
AcDbLayerTableRecord
  2
Symbol (ANSI)
 70
     0
 62
     7
  6
Continuous
370
    18
390
F
  0
LAYER
  5
CF
330
2
100
AcDbSymbolTableRecord
100
AcDbLayerTableRecord
  2
Visible (ANSI)
 70
     0
 62
     7
  6
Continuous
370
    13
390
F
  0
LAYER
  5
D0
330
2
100
AcDbSymbolTableRecord
100
AcDbLayerTableRecord
  2
Visible Narrow (ANSI)
 70
     0
 62
     7
  6
Continuous
370
    18
390
F
  0
LAYER
  5
145
330
2
100
AcDbSymbolTableRecord
100
AcDbLayerTableRecord
  2
Defpoints
 70
     0
 62
     7
  6
Continuous
290
     0
370
    -3
390
F
  0
ENDTAB
  0
TABLE
  2
STYLE
  5
3
330
0
100
AcDbSymbolTable
 70
    18
  0
STYLE
  5
55
330
3
100
AcDbSymbolTableRecord
100
AcDbTextStyleTableRecord
  2
Standard
 70
     0
 40
0.0
 41
1.0
 50
0.0
 71
     0
 42
0.2
  3
txt
  4

  0
STYLE
  5
5A
330
3
100
AcDbSymbolTableRecord
100
AcDbTextStyleTableRecord
  2
Annotative
 70
     0
 40
0.0
 41
1.0
 50
0.0
 71
     0
 42
0.2
  3
txt
  4

1001
AcadAnnotative
1000
AnnotativeData
1002
{
1070
     1
1070
     1
1002
}
  0
STYLE
  5
B2
330
3
100
AcDbSymbolTableRecord
100
AcDbTextStyleTableRecord
  2

 70
     1
 40
0.0
 41
1.0
 50
0.0
 71
     0
 42
0.2
  3
ltypeshp.shx
  4

  0
STYLE
  5
D4
330
3
100
AcDbSymbolTableRecord
100
AcDbTextStyleTableRecord
  2
ITALICC_120
 70
     0
 40
0.0
 41
1.0
 50
0.0
 71
     0
 42
0.2
  3
italicc.shx
  4

  0
STYLE
  5
D5
330
3
100
AcDbSymbolTableRecord
100
AcDbTextStyleTableRecord
  2
Label Text (ANSI)
 70
     0
 40
0.0
 41
1.0
 50
0.0
 71
     0
 42
0.2
  3
TAHOMA.TTF
  4

1001
ACAD
1000
Tahoma
1071
      256
  0
STYLE
  5
D6
330
3
100
AcDbSymbolTableRecord
100
AcDbTextStyleTableRecord
  2
Note Text (ANSI)
 70
     0
 40
0.0
 41
1.0
 50
0.0
 71
     0
 42
0.2
  3
TAHOMA.TTF
  4

1001
ACAD
1000
Tahoma
1071
      256
  0
STYLE
  5
D7
330
3
100
AcDbSymbolTableRecord
100
AcDbTextStyleTableRecord
  2
ROMANS
 70
     0
 40
0.0
 41
1.0
 50
0.0
 71
     0
 42
0.2
  3
romans.shx
  4

  0
STYLE
  5
D8
330
3
100
AcDbSymbolTableRecord
100
AcDbTextStyleTableRecord
  2
SANSSERIF_114
 70
     0
 40
0.0
 41
1.0
 50
0.0
 71
     0
 42
0.2
  3
TAHOMA.TTF
  4

1001
ACAD
1000
Tahoma
1071
      256
  0
STYLE
  5
D9
330
3
100
AcDbSymbolTableRecord
100
AcDbTextStyleTableRecord
  2
SANSSERIF_117
 70
     0
 40
0.0
 41
1.0
 50
0.0
 71
     0
 42
0.2
  3
TAHOMA.TTF
  4

1001
ACAD
1000
Tahoma
1071
      256
  0
STYLE
  5
DA
330
3
100
AcDbSymbolTableRecord
100
AcDbTextStyleTableRecord
  2
STANDARDAM_ANSI
 70
     0
 40
0.0
 41
1.0
 50
0.0
 71
     0
 42
0.2
  3
txt.shx
  4

  0
STYLE
  5
DB
330
3
100
AcDbSymbolTableRecord
100
AcDbTextStyleTableRecord
  2
StandardAM_ANSI$0
 70
     0
 40
0.0
 41
1.0
 50
0.0
 71
     0
 42
0.2
  3
txt.shx
  4

  0
STYLE
  5
DC
330
3
100
AcDbSymbolTableRecord
100
AcDbTextStyleTableRecord
  2
STANDARDAM_ANSI$3
 70
     0
 40
0.0
 41
1.0
 50
0.0
 71
     0
 42
0.2
  3
txt.shx
  4

  0
STYLE
  5
DD
330
3
100
AcDbSymbolTableRecord
100
AcDbTextStyleTableRecord
  2
STANDARDAM_ANSI$4
 70
     0
 40
0.0
 41
1.0
 50
0.0
 71
     0
 42
0.2
  3
txt.shx
  4

  0
STYLE
  5
DE
330
3
100
AcDbSymbolTableRecord
100
AcDbTextStyleTableRecord
  2
STANDARDAM_ANSI$7
 70
     0
 40
0.0
 41
1.0
 50
0.0
 71
     0
 42
0.2
  3
txt.shx
  4

  0
STYLE
  5
DF
330
3
100
AcDbSymbolTableRecord
100
AcDbTextStyleTableRecord
  2
STANDARDAM_ANSI$SF
 70
     0
 40
0.0
 41
1.0
 50
0.0
 71
     0
 42
0.2
  3
txt.shx
  4

  0
STYLE
  5
E0
330
3
100
AcDbSymbolTableRecord
100
AcDbTextStyleTableRecord
  2
STANDARDAM_ANSI$SH
 70
     0
 40
0.0
 41
1.0
 50
0.0
 71
     0
 42
0.2
  3
txt.shx
  4

  0
STYLE
  5
E1
330
3
100
AcDbSymbolTableRecord
100
AcDbTextStyleTableRecord
  2
STANDARDSTANDARD
 70
     0
 40
0.0
 41
1.0
 50
0.0
 71
     0
 42
0.2
  3
txt.shx
  4

  0
STYLE
  5
132
330
3
100
AcDbSymbolTableRecord
100
AcDbTextStyleTableRecord
  2
Text Style150
 70
     0
 40
0.0
 41
1.0
 50
0.0
 71
     0
 42
0.2
  3
TAHOMA.TTF
  4

1001
ACAD
1000
Tahoma
1071
      256
  0
ENDTAB
  0
TABLE
  2
VIEW
  5
6
330
0
100
AcDbSymbolTable
 70
     0
  0
ENDTAB
  0
TABLE
  2
UCS
  5
7
330
0
100
AcDbSymbolTable
 70
     0
  0
ENDTAB
  0
TABLE
  2
APPID
  5
9
330
0
100
AcDbSymbolTable
 70
     4
  0
APPID
  5
56
330
9
100
AcDbSymbolTableRecord
100
AcDbRegAppTableRecord
  2
ACAD
 70
     0
  0
APPID
  5
5E
330
9
100
AcDbSymbolTableRecord
100
AcDbRegAppTableRecord
  2
AcadAnnotative
 70
     0
  0
APPID
  5
78F
330
9
100
AcDbSymbolTableRecord
100
AcDbRegAppTableRecord
  2
ACAD_DSTYLE_DIMRADIAL_EXTENSION
 70
     0
  0
APPID
  5
8C8
330
9
100
AcDbSymbolTableRecord
100
AcDbRegAppTableRecord
  2
ACAD_MLEADERVER
 70
     0
  0
ENDTAB
  0
TABLE
  2
DIMSTYLE
  5
A
330
0
100
AcDbSymbolTable
 70
    29
100
AcDbDimStyleTable
 71
     3
340
F6
340
58
340
F8
  0
DIMSTYLE
105
58
330
A
100
AcDbSymbolTableRecord
100
AcDbDimStyleTableRecord
  2
STANDARD
 70
     0
 41
0.1800000071525573
 42
0.0625
140
0.1800000071525574
144
1.0
147
0.0900000035762787
176
   256
177
   256
178
   256
274
     3
340
55
371
    -1
372
    -1
  0
DIMSTYLE
105
59
330
A
100
AcDbSymbolTableRecord
100
AcDbDimStyleTableRecord
  2
Annotative
 70
     0
340
55
1001
AcadAnnotative
1000
AnnotativeData
1002
{
1070
     1
1070
     1
1002
}
  0
DIMSTYLE
105
E2
330
A
100
AcDbSymbolTableRecord
100
AcDbDimStyleTableRecord
  2
AM_ANSI
 70
     0
  4
 mm
 40
2.5
 41
0.119999997317791
 42
0.05
 43
0.5
 44
0.1
 45
0.00000001
 78
     4
 79
     2
140
0.1200000047683716
146
0.7099999453624112
147
0.0599999986588955
176
   256
177
   256
178
     2
284
     4
340
DA
371
    -1
372
    -1
  0
DIMSTYLE
105
E3
330
A
100
AcDbSymbolTableRecord
100
AcDbDimStyleTableRecord
  2
AM_ANSI$7
 70
     0
  4
 mm
 40
2.5
 41
0.119999997317791
 42
0.05
 43
0.5
 44
0.1
 45
0.00000001
 78
     4
 79
     2
140
0.1200000047683716
146
0.7099999453624112
147
0.0599999986588955
176
   256
177
   256
178
     2
284
     4
340
DA
371
    -1
372
    -1
  0
DIMSTYLE
105
E4
330
A
100
AcDbSymbolTableRecord
100
AcDbDimStyleTableRecord
  2
AM_ANSI$0
 70
     0
  4
 mm
 40
2.5
 41
0.119999997317791
 42
0.05
 43
0.5
 44
0.1
 45
0.00000001
 78
     4
 79
     2
140
0.1200000047683716
146
0.7099999453624112
147
0.0599999986588955
176
   256
177
   256
178
     2
284
     4
340
DB
371
    -1
372
    -1
  0
DIMSTYLE
105
E5
330
A
100
AcDbSymbolTableRecord
100
AcDbDimStyleTableRecord
  2
AM_ANSI$0$7
 70
     0
  4
 mm
 40
2.5
 41
0.119999997317791
 42
0.05
 43
0.5
 44
0.1
 45
0.00000001
 78
     4
 79
     2
140
0.1200000047683716
146
0.7099999453624112
147
0.0599999986588955
176
   256
177
   256
178
     2
284
     4
340
DB
371
    -1
372
    -1
  0
DIMSTYLE
105
E6
330
A
100
AcDbSymbolTableRecord
100
AcDbDimStyleTableRecord
  2
AM_ANSI$3
 70
     0
  4
 mm
 40
2.5
 41
0.119999997317791
 42
0.05
 43
0.5
 44
0.1
 45
0.00000001
 78
     4
 79
     2
140
0.1200000047683716
146
0.7099999453624112
147
0.0599999986588955
176
   256
177
   256
178
     2
284
     4
340
DC
371
    -1
372
    -1
  0
DIMSTYLE
105
E7
330
A
100
AcDbSymbolTableRecord
100
AcDbDimStyleTableRecord
  2
AM_ANSI$3$7
 70
     0
  4
 mm
 40
2.5
 41
0.119999997317791
 42
0.05
 43
0.5
 44
0.1
 45
0.00000001
 78
     4
 79
     2
140
0.1200000047683716
146
0.7099999453624112
147
0.0599999986588955
176
   256
177
   256
178
     2
284
     4
340
DC
371
    -1
372
    -1
  0
DIMSTYLE
105
E8
330
A
100
AcDbSymbolTableRecord
100
AcDbDimStyleTableRecord
  2
AM_ANSI$4
 70
     0
  4
 mm
 40
2.5
 41
0.119999997317791
 42
0.05
 43
0.5
 44
0.1
 45
0.00000001
 78
     4
 79
     2
140
0.1200000047683716
146
0.7099999453624112
147
0.0599999986588955
176
   256
177
   256
178
     2
284
     4
340
DD
371
    -1
372
    -1
  0
DIMSTYLE
105
E9
330
A
100
AcDbSymbolTableRecord
100
AcDbDimStyleTableRecord
  2
AM_ANSI$4$7
 70
     0
  4
 mm
 40
2.5
 41
0.119999997317791
 42
0.05
 43
0.5
 44
0.1
 45
0.00000001
 78
     4
 79
     2
140
0.1200000047683716
146
0.7099999453624112
147
0.0599999986588955
176
   256
177
   256
178
     2
284
     4
340
DD
371
    -1
372
    -1
  0
DIMSTYLE
105
EA
330
A
100
AcDbSymbolTableRecord
100
AcDbDimStyleTableRecord
  2
AM_ANSI$SF
 70
     0
  4
 mm
 40
2.5
 41
0.119999997317791
 42
0.05
 43
0.5
 44
0.1
 45
0.00000001
 75
     1
 76
     1
 78
     4
 79
     2
140
0.1200000047683716
146
0.7099999453624112
147
0.0599999986588955
176
   256
177
   256
178
     2
284
     4
340
DF
371
    -1
372
    -1
  0
DIMSTYLE
105
EB
330
A
100
AcDbSymbolTableRecord
100
AcDbDimStyleTableRecord
  2
AM_ANSI$SF$7
 70
     0
  4
 mm
 40
2.5
 41
0.119999997317791
 42
0.05
 43
0.5
 44
0.1
 45
0.00000001
 75
     1
 76
     1
 78
     4
 79
     2
140
0.1200000047683716
146
0.7099999453624112
147
0.0599999986588955
176
   256
177
   256
178
     2
284
     4
340
DF
371
    -1
372
    -1
  0
DIMSTYLE
105
EC
330
A
100
AcDbSymbolTableRecord
100
AcDbDimStyleTableRecord
  2
AM_ANSI$SH
 70
     0
  4
 mm
 40
2.5
 41
0.119999997317791
 42
0.05
 43
0.5
 44
0.1
 45
0.00000001
 75
     1
 76
     1
 78
     4
 79
     2
140
0.1200000047683716
146
0.7099999453624112
147
0.0599999986588955
176
   256
177
   256
178
     2
284
     4
340
E0
371
    -1
372
    -1
  0
DIMSTYLE
105
ED
330
A
100
AcDbSymbolTableRecord
100
AcDbDimStyleTableRecord
  2
AM_ANSI$SH$7
 70
     0
  4
 mm
 40
2.5
 41
0.119999997317791
 42
0.05
 43
0.5
 44
0.1
 45
0.00000001
 75
     1
 76
     1
 78
     4
 79
     2
140
0.1200000047683716
146
0.7099999453624112
147
0.0599999986588955
176
   256
177
   256
178
     2
284
     4
340
E0
371
    -1
372
    -1
  0
DIMSTYLE
105
EE
330
A
100
AcDbSymbolTableRecord
100
AcDbDimStyleTableRecord
  2
Architectural (ANSI)
 70
     0
 40
2.5
 41
0.0984251946210861
 43
0.2362204724409449
 44
0.125
 45
0.00000001
 46
0.3937007874015748
 78
     3
 79
     3
140
0.1200000047683716
147
0.031496062992126
171
     1
176
   256
177
   256
178
   256
272
     2
274
     1
276
     2
277
     4
284
    12
285
     4
286
    12
340
D6
371
    -1
372
    -1
  0
DIMSTYLE
105
EF
330
A
100
AcDbSymbolTableRecord
100
AcDbDimStyleTableRecord
  2
Architectural (ANSI)$7
 70
     0
 40
2.5
 41
0.0984251946210861
 43
0.2362204724409449
 44
0.125
 45
0.00000001
 46
0.3937007874015748
 78
     3
 79
     3
140
0.1200000047683716
147
0.031496062992126
171
     1
176
   256
177
   256
178
   256
272
     2
274
     1
276
     2
277
     4
284
    12
285
     4
286
    12
340
D6
371
    -1
372
    -1
  0
DIMSTYLE
105
F0
330
A
100
AcDbSymbolTableRecord
100
AcDbDimStyleTableRecord
  2
Default - Fraction (ANSI)
 70
     0
 40
2.5
 41
0.0984251946210861
 43
0.2362204724409449
 44
0.125
 45
0.00000001
 46
0.3937007874015748
 79
     3
140
0.1200000047683716
147
0.031496062992126
171
     1
176
   256
177
   256
178
   256
272
     2
274
     1
276
     2
277
     5
284
    12
285
     4
286
    12
340
D6
371
    -1
372
    -1
  0
DIMSTYLE
105
F1
330
A
100
AcDbSymbolTableRecord
100
AcDbDimStyleTableRecord
  2
Default - Fraction (ANSI)$7
 70
     0
 40
2.5
 41
0.0984251946210861
 43
0.2362204724409449
 44
0.125
 45
0.00000001
 46
0.3937007874015748
 79
     3
140
0.1200000047683716
147
0.031496062992126
171
     1
176
   256
177
   256
178
   256
272
     2
274
     1
276
     2
277
     5
284
    12
285
     4
286
    12
340
D6
371
    -1
372
    -1
  0
DIMSTYLE
105
F2
330
A
100
AcDbSymbolTableRecord
100
AcDbDimStyleTableRecord
  2
Default - mm (ANSI)
 70
     0
 40
2.5
 41
0.0984251946210861
 42
0.063
 43
0.2362204724409449
 44
0.125
 45
0.00000001
 46
0.3937007874015748
 73
     0
 78
     4
 79
     1
140
0.1200000047683716
143
1.0
144
25.4
147
0.031496062992126
171
     1
176
   256
177
   256
178
   256
179
     1
271
     2
272
     2
274
     1
284
     4
285
     4
340
D6
371
    -1
372
    -1
  0
DIMSTYLE
105
F3
330
A
100
AcDbSymbolTableRecord
100
AcDbDimStyleTableRecord
  2
Default - mm (ANSI)$7
 70
     0
 40
2.5
 41
0.0984251946210861
 42
0.063
 43
0.2362204724409449
 44
0.125
 45
0.00000001
 46
0.3937007874015748
 73
     0
 78
     4
 79
     1
140
0.1200000047683716
143
1.0
144
25.4
147
0.031496062992126
171
     1
176
   256
177
   256
178
   256
179
     1
271
     2
272
     2
274
     1
284
     4
285
     4
340
D6
371
    -1
372
    -1
  0
DIMSTYLE
105
F4
330
A
100
AcDbSymbolTableRecord
100
AcDbDimStyleTableRecord
  2
Default - mm [in] (ANSI)
 70
     0
  4
 in
 40
2.5
 41
0.0984251946210861
 42
0.063
 43
0.25
 44
0.125
 45
0.00000001
 46
0.3937007874015748
 73
     0
 78
     4
 79
     1
140
0.1200000047683716
143
0.03937
144
25.4
147
0.031496062992126
170
     1
171
     3
176
   256
177
   256
178
   256
179
     1
271
     2
272
     2
274
     3
284
     4
285
     4
286
     4
340
D6
371
    -1
372
    -1
  0
DIMSTYLE
105
F5
330
A
100
AcDbSymbolTableRecord
100
AcDbDimStyleTableRecord
  2
Default - mm [in] (ANSI)$7
 70
     0
  4
 in
 40
2.5
 41
0.0984251946210861
 42
0.063
 43
0.25
 44
0.125
 45
0.00000001
 46
0.3937007874015748
 73
     0
 78
     4
 79
     1
140
0.1200000047683716
143
0.03937
144
25.4
147
0.031496062992126
170
     1
171
     3
176
   256
177
   256
178
   256
179
     1
271
     2
272
     2
274
     3
284
     4
285
     4
286
     4
340
D6
371
    -1
372
    -1
  0
DIMSTYLE
105
F6
102
{ACAD_REACTORS
330
52D
330
617
330
6F6
330
7B0
102
}
330
A
100
AcDbSymbolTableRecord
100
AcDbDimStyleTableRecord
  2
Default (ANSI)
 70
     0
 40
2.5
 41
0.0984251946210861
 43
0.2362204724409449
 44
0.125
 45
0.00000001
 46
0.3937007874015748
 79
     1
140
0.1200000047683716
147
0.031496062992126
171
     1
176
   256
177
   256
178
   256
271
     3
272
     2
274
     1
284
     4
285
     4
340
D6
371
    -1
372
    -1
  0
DIMSTYLE
105
F7
330
A
100
AcDbSymbolTableRecord
100
AcDbDimStyleTableRecord
  2
Default (ANSI)$7
 70
     0
 40
2.5
 41
0.0984251946210861
 43
0.2362204724409449
 44
0.125
 45
0.00000001
 46
0.3937007874015748
 79
     1
140
0.1200000047683716
147
0.031496062992126
171
     1
176
   256
177
   256
178
   256
271
     3
272
     2
274
     1
284
     4
285
     4
340
D6
371
    -1
372
    -1
  0
DIMSTYLE
105
F8
102
{ACAD_REACTORS
330
143
330
22F
330
319
330
42F
102
}
330
A
100
AcDbSymbolTableRecord
100
AcDbDimStyleTableRecord
  2
Default (ANSI)-01
 70
     0
 40
2.5
 41
0.0984251946210861
 43
0.2362204724409449
 44
0.125
 45
0.00000001
 46
0.3937007874015748
 79
     1
140
0.1200000047683716
147
0.031496062992126
171
     1
176
   256
177
   256
178
   256
271
     2
272
     2
274
     1
284
     4
285
     4
340
D6
371
    -1
372
    -1
  0
DIMSTYLE
105
F9
330
A
100
AcDbSymbolTableRecord
100
AcDbDimStyleTableRecord
  2
Default (ANSI)-01$7
 70
     0
 40
2.5
 41
0.0984251946210861
 43
0.2362204724409449
 44
0.125
 45
0.00000001
 46
0.3937007874015748
 79
     1
140
0.1200000047683716
147
0.031496062992126
171
     1
176
   256
177
   256
178
   256
271
     2
272
     2
274
     1
284
     4
285
     4
340
D6
371
    -1
372
    -1
  0
DIMSTYLE
105
FA
330
A
100
AcDbSymbolTableRecord
100
AcDbDimStyleTableRecord
  2
Alternate (ANSI)
 70
     0
 40
2.5
 41
0.0979999974370003
340
55
342
FB
  0
DIMSTYLE
105
10D
330
A
100
AcDbSymbolTableRecord
100
AcDbDimStyleTableRecord
  2
Datum (ANSI)
 70
     0
 40
2.5
 41
0.0979999974370003
340
55
342
FB
  0
DIMSTYLE
105
11C
330
A
100
AcDbSymbolTableRecord
100
AcDbDimStyleTableRecord
  2
Large (ANSI)
 70
     0
 40
2.5
 41
0.1959999948740005
340
55
342
FB
  0
ENDTAB
  0
TABLE
  2
BLOCK_RECORD
  5
1
330
0
100
AcDbSymbolTable
 70
    12
  0
BLOCK_RECORD
  5
6C
330
1
100
AcDbSymbolTableRecord
100
AcDbBlockTableRecord
  2
*Model_Space
340
6F
  0
BLOCK_RECORD
  5
68
330
1
100
AcDbSymbolTableRecord
100
AcDbBlockTableRecord
  2
*Paper_Space
340
6B
  0
BLOCK_RECORD
  5
70
330
1
100
AcDbSymbolTableRecord
100
AcDbBlockTableRecord
  2
*Paper_Space0
340
73
  0
BLOCK_RECORD
  5
FB
330
1
100
AcDbSymbolTableRecord
100
AcDbBlockTableRecord
  2
_Closed
340
0
  0
BLOCK_RECORD
  5
102
330
1
100
AcDbSymbolTableRecord
100
AcDbBlockTableRecord
  2
DatumFilled45
340
0
  0
BLOCK_RECORD
  5
10E
330
1
100
AcDbSymbolTableRecord
100
AcDbBlockTableRecord
  2
Filled-1
340
0
  0
BLOCK_RECORD
  5
146
330
1
100
AcDbSymbolTableRecord
100
AcDbBlockTableRecord
  2
*D4
340
0
  0
BLOCK_RECORD
  5
230
330
1
100
AcDbSymbolTableRecord
100
AcDbBlockTableRecord
  2
*D5
340
0
  0
BLOCK_RECORD
  5
31A
330
1
100
AcDbSymbolTableRecord
100
AcDbBlockTableRecord
  2
*D6
340
0
  0
BLOCK_RECORD
  5
430
330
1
100
AcDbSymbolTableRecord
100
AcDbBlockTableRecord
  2
*D7
340
0
  0
BLOCK_RECORD
  5
52E
330
1
100
AcDbSymbolTableRecord
100
AcDbBlockTableRecord
  2
*D8
340
0
  0
BLOCK_RECORD
  5
618
330
1
100
AcDbSymbolTableRecord
100
AcDbBlockTableRecord
  2
*D9
340
0
  0
BLOCK_RECORD
  5
6F7
330
1
100
AcDbSymbolTableRecord
100
AcDbBlockTableRecord
  2
*D10
340
0
  0
BLOCK_RECORD
  5
7B1
330
1
100
AcDbSymbolTableRecord
100
AcDbBlockTableRecord
  2
*D11
340
0
  0
ENDTAB
  0
ENDSEC
  0
SECTION
  2
BLOCKS
  0
BLOCK
  5
6D
330
6C
100
AcDbEntity
  8
0
100
AcDbBlockBegin
  2
*Model_Space
 70
     0
 10
0.0
 20
0.0
 30
0.0
  3
*Model_Space
  1

  0
ENDBLK
  5
6E
330
6C
100
AcDbEntity
  8
0
100
AcDbBlockEnd
  0
BLOCK
  5
69
330
68
100
AcDbEntity
 67
     1
  8
0
100
AcDbBlockBegin
  2
*Paper_Space
 70
     0
 10
0.0
 20
0.0
 30
0.0
  3
*Paper_Space
  1

  0
ENDBLK
  5
6A
330
68
100
AcDbEntity
 67
     1
  8
0
100
AcDbBlockEnd
  0
BLOCK
  5
71
330
70
100
AcDbEntity
 67
     1
  8
0
100
AcDbBlockBegin
  2
*Paper_Space0
 70
     0
 10
0.0
 20
0.0
 30
0.0
  3
*Paper_Space0
  1

  0
ENDBLK
  5
72
330
70
100
AcDbEntity
 67
     1
  8
0
100
AcDbBlockEnd
  0
BLOCK
  5
100
330
FB
100
AcDbEntity
  8
0
100
AcDbBlockBegin
  2
_Closed
 70
     0
 10
0.0
 20
0.0
 30
0.0
  3
_Closed
  1

  0
LINE
  5
FC
330
FB
100
AcDbEntity
  8
0
  6
ByBlock
 62
     0
370
    -2
100
AcDbLine
 10
-1.0
 20
0.1666666666666666
 30
0.0
 11
0.0
 21
0.0
 31
0.0
  0
LINE
  5
FD
330
FB
100
AcDbEntity
  8
0
  6
ByBlock
 62
     0
370
    -2
100
AcDbLine
 10
0.0
 20
0.0
 30
0.0
 11
-1.0
 21
-0.1666666666666666
 31
0.0
  0
LINE
  5
FE
330
FB
100
AcDbEntity
  8
0
  6
ByBlock
 62
     0
370
    -2
100
AcDbLine
 10
-1.0
 20
0.1666666666666666
 30
0.0
 11
-1.0
 21
-0.1666666666666666
 31
0.0
  0
LINE
  5
FF
330
FB
100
AcDbEntity
  8
0
  6
ByBlock
 62
     0
370
    -2
100
AcDbLine
 10
0.0
 20
0.0
 30
0.0
 11
-1.0
 21
0.0
 31
0.0
  0
ENDBLK
  5
101
330
FB
100
AcDbEntity
  8
0
100
AcDbBlockEnd
  0
BLOCK
  5
103
330
102
100
AcDbEntity
  8
0
100
AcDbBlockBegin
  2
DatumFilled45
 70
     0
 10
0.0
 20
0.0
 30
0.0
  3
DatumFilled45
  1

  0
POLYLINE
  5
105
330
102
100
AcDbEntity
  8
0
 62
     0
100
AcDb2dPolyline
 66
     1
 10
0.0
 20
0.0
 30
0.0
 70
   128
  0
VERTEX
  5
106
330
105
100
AcDbEntity
  8
0
 62
     0
100
AcDbVertex
100
AcDb2dVertex
 10
0.0
 20
0.9999999999999998
 30
0.0
  0
VERTEX
  5
107
330
105
100
AcDbEntity
  8
0
 62
     0
100
AcDbVertex
100
AcDb2dVertex
 10
0.0
 20
-0.9999999999999998
 30
0.0
  0
VERTEX
  5
109
330
105
100
AcDbEntity
  8
0
 62
     0
100
AcDbVertex
100
AcDb2dVertex
 10
-0.9999999999999998
 20
0.0
 30
0.0
  0
VERTEX
  5
10A
330
105
100
AcDbEntity
  8
0
 62
     0
100
AcDbVertex
100
AcDb2dVertex
 10
0.0
 20
0.9999999999999998
 30
0.0
  0
SEQEND
  5
108
330
105
100
AcDbEntity
  8
0
 62
     0
  0
SOLID
  5
10C
330
102
100
AcDbEntity
  8
0
 62
     0
100
AcDbTrace
 10
0.0
 20
0.9999999999999998
 30
0.0
 11
0.0
 21
-0.9999999999999998
 31
0.0
 12
-0.9999999999999998
 22
0.0
 32
0.0
 13
0.0
 23
0.9999999999999998
 33
0.0
  0
ENDBLK
  5
104
330
102
100
AcDbEntity
  8
0
100
AcDbBlockEnd
  0
BLOCK
  5
10F
330
10E
100
AcDbEntity
  8
0
100
AcDbBlockBegin
  2
Filled-1
 70
     0
 10
0.0
 20
0.0
 30
0.0
  3
Filled-1
  1

  0
LINE
  5
111
330
10E
100
AcDbEntity
  8
0
 62
     0
100
AcDbLine
 10
-0.9999999999999998
 20
0.0
 30
0.0
 11
0.0
 21
0.0
 31
0.0
  0
POLYLINE
  5
112
330
10E
100
AcDbEntity
  8
0
 62
     0
100
AcDb2dPolyline
 66
     1
 10
0.0
 20
0.0
 30
0.0
 70
   128
  0
VERTEX
  5
113
330
112
100
AcDbEntity
  8
0
 62
     0
100
AcDbVertex
100
AcDb2dVertex
 10
-0.9999999999999998
 20
-0.0994897959183674
 30
0.0
  0
VERTEX
  5
114
330
112
100
AcDbEntity
  8
0
 62
     0
100
AcDbVertex
100
AcDb2dVertex
 10
0.0
 20
0.0
 30
0.0
  0
VERTEX
  5
116
330
112
100
AcDbEntity
  8
0
 62
     0
100
AcDbVertex
100
AcDb2dVertex
 10
-0.9999999999999998
 20
0.0994897959183674
 30
0.0
  0
VERTEX
  5
117
330
112
100
AcDbEntity
  8
0
 62
     0
100
AcDbVertex
100
AcDb2dVertex
 10
-0.9999999999999998
 20
-0.0994897959183674
 30
0.0
  0
SEQEND
  5
115
330
112
100
AcDbEntity
  8
0
 62
     0
  0
SOLID
  5
118
330
10E
100
AcDbEntity
  8
0
 62
     0
100
AcDbTrace
 10
-0.9999999999999998
 20
-0.0994897959183674
 30
0.0
 11
0.0
 21
0.0
 31
0.0
 12
-0.9999999999999998
 22
0.0994897959183674
 32
0.0
 13
-0.9999999999999998
 23
-0.0994897959183674
 33
0.0
  0
LINE
  5
119
330
10E
100
AcDbEntity
  8
0
 62
     0
100
AcDbLine
 10
-0.9999999999999998
 20
-0.0994897959183674
 30
0.0
 11
0.0
 21
0.0
 31
0.0
  0
LINE
  5
11A
330
10E
100
AcDbEntity
  8
0
 62
     0
100
AcDbLine
 10
0.0
 20
0.0
 30
0.0
 11
-0.9999999999999998
 21
0.0994897959183674
 31
0.0
  0
LINE
  5
11B
330
10E
100
AcDbEntity
  8
0
 62
     0
100
AcDbLine
 10
-0.9999999999999998
 20
0.0994897959183674
 30
0.0
 11
-0.9999999999999998
 21
-0.0994897959183674
 31
0.0
  0
ENDBLK
  5
110
330
10E
100
AcDbEntity
  8
0
100
AcDbBlockEnd
  0
BLOCK
  5
147
330
146
100
AcDbEntity
  8
0
100
AcDbBlockBegin
  2
*D4
 70
     1
 10
0.0
 20
0.0
 30
0.0
  3
*D4
  1

  0
LINE
  5
225
330
146
100
AcDbEntity
  8
Dimension (ANSI)
100
AcDbLine
 10
16.44656702020088
 20
9.170575958945923
 30
0.0
 11
16.44656702020088
 21
5.587842351458927
 31
0.0
  0
LINE
  5
226
330
146
100
AcDbEntity
  8
Dimension (ANSI)
100
AcDbLine
 10
7.566567020200881
 20
9.170575958945923
 30
0.0
 11
7.566567020200881
 21
5.587842351458927
 31
0.0
  0
LINE
  5
227
330
146
100
AcDbEntity
  8
Dimension (ANSI)
100
AcDbLine
 10
16.20050403364816
 20
5.900342351458927
 30
0.0
 11
12.47073365370855
 21
5.900342351458927
 31
0.0
  0
LINE
  5
228
330
146
100
AcDbEntity
  8
Dimension (ANSI)
100
AcDbLine
 10
7.812630006753596
 20
5.900342351458927
 30
0.0
 11
11.5424003866932
 21
5.900342351458927
 31
0.0
  0
SOLID
  5
229
330
146
100
AcDbEntity
  8
Dimension (ANSI)
100
AcDbTrace
 10
16.20050403364816
 20
5.941352849217714
 30
0.0
 11
16.20050403364816
 21
5.859331853700141
 31
0.0
 12
16.44656702020088
 22
5.900342351458927
 32
0.0
 13
16.44656702020088
 23
5.900342351458927
 33
0.0
  0
SOLID
  5
22A
330
146
100
AcDbEntity
  8
Dimension (ANSI)
100
AcDbTrace
 10
7.812630006753596
 20
5.941352849217714
 30
0.0
 11
7.812630006753596
 21
5.859331853700141
 31
0.0
 12
7.566567020200881
 22
5.900342351458927
 32
0.0
 13
7.566567020200881
 23
5.900342351458927
 33
0.0
  0
MTEXT
  5
22B
330
146
100
AcDbEntity
  8
Dimension (ANSI)
100
AcDbMText
 10
11.62114054417352
 20
6.057192592748681
 30
0.0
 40
0.3000000119209289
 41
0.0
 71
     1
 72
     1
  1
\A1;8.88
  7
Note Text (ANSI)
 73
     1
 44
1.0
1001
ACAD
1000
MTEXTBEGIN
1070
    73
1070
     1
1070
    44
1040
1.0
1070
    74
1070
     0
1000
MTEXTEND
  0
POINT
  5
22C
330
146
100
AcDbEntity
  8
Defpoints
 62
     0
100
AcDbPoint
 10
16.44656702020088
 20
9.326825958945923
 30
0.0
  0
POINT
  5
22D
330
146
100
AcDbEntity
  8
Defpoints
 62
     0
100
AcDbPoint
 10
7.566567020200881
 20
9.326825958945923
 30
0.0
  0
POINT
  5
22E
330
146
100
AcDbEntity
  8
Defpoints
 62
     0
100
AcDbPoint
 10
7.566567020200881
 20
5.900342351458927
 30
0.0
  0
ENDBLK
  5
148
330
146
100
AcDbEntity
  8
0
100
AcDbBlockEnd
  0
BLOCK
  5
231
330
230
100
AcDbEntity
  8
0
100
AcDbBlockBegin
  2
*D5
 70
     1
 10
0.0
 20
0.0
 30
0.0
  3
*D5
  1

  0
LINE
  5
30F
330
230
100
AcDbEntity
  8
Dimension (ANSI)
100
AcDbLine
 10
7.410317020200881
 20
9.326825958945923
 30
0.0
 11
4.944355734111638
 21
9.326825958945923
 31
0.0
  0
LINE
  5
310
330
230
100
AcDbEntity
  8
Dimension (ANSI)
100
AcDbLine
 10
7.410317020200875
 20
24.20682595894592
 30
0.0
 11
4.944355734111642
 21
24.20682595894592
 31
0.0
  0
LINE
  5
311
330
230
100
AcDbEntity
  8
Dimension (ANSI)
100
AcDbLine
 10
5.256855734111638
 20
9.572888945498638
 30
0.0
 11
5.25685573411164
 21
16.53123556017585
 31
0.0
  0
LINE
  5
312
330
230
100
AcDbEntity
  8
Dimension (ANSI)
100
AcDbLine
 10
5.256855734111642
 20
23.96076297239321
 30
0.0
 11
5.25685573411164
 21
17.00241635771599
 31
0.0
  0
SOLID
  5
313
330
230
100
AcDbEntity
  8
Dimension (ANSI)
100
AcDbTrace
 10
5.215845236352852
 20
9.572888945498638
 30
0.0
 11
5.297866231870425
 21
9.572888945498638
 31
0.0
 12
5.256855734111638
 22
9.326825958945923
 32
0.0
 13
5.256855734111638
 23
9.326825958945923
 33
0.0
  0
SOLID
  5
314
330
230
100
AcDbEntity
  8
Dimension (ANSI)
100
AcDbTrace
 10
5.215845236352856
 20
23.96076297239321
 30
0.0
 11
5.297866231870428
 21
23.96076297239321
 31
0.0
 12
5.256855734111642
 22
24.20682595894592
 32
0.0
 13
5.256855734111642
 23
24.20682595894592
 33
0.0
  0
MTEXT
  5
315
330
230
100
AcDbEntity
  8
Dimension (ANSI)
100
AcDbMText
 10
4.774115620906435
 20
16.92367620023567
 30
0.0
 40
0.3000000119209289
 41
0.0
 71
     1
 72
     1
  1
\A1;14.88
  7
Note Text (ANSI)
 73
     1
 44
1.0
1001
ACAD
1000
MTEXTBEGIN
1070
    73
1070
     1
1070
    44
1040
1.0
1070
    74
1070
     0
1000
MTEXTEND
  0
POINT
  5
316
330
230
100
AcDbEntity
  8
Defpoints
 62
     0
100
AcDbPoint
 10
7.566567020200881
 20
9.326825958945923
 30
0.0
  0
POINT
  5
317
330
230
100
AcDbEntity
  8
Defpoints
 62
     0
100
AcDbPoint
 10
7.566567020200875
 20
24.20682595894592
 30
0.0
  0
POINT
  5
318
330
230
100
AcDbEntity
  8
Defpoints
 62
     0
100
AcDbPoint
 10
5.256855734111642
 20
24.20682595894592
 30
0.0
  0
ENDBLK
  5
232
330
230
100
AcDbEntity
  8
0
100
AcDbBlockEnd
  0
BLOCK
  5
31B
330
31A
100
AcDbEntity
  8
0
100
AcDbBlockBegin
  2
*D6
 70
     1
 10
0.0
 20
0.0
 30
0.0
  3
*D6
  1

  0
LINE
  5
424
330
31A
100
AcDbEntity
  8
Dimension (ANSI)
100
AcDbLine
 10
7.410317020200881
 20
9.326825958945923
 30
0.0
 11
7.062814255366111
 21
9.326825958945923
 31
0.0
  0
LINE
  5
425
330
31A
100
AcDbEntity
  8
Dimension (ANSI)
100
AcDbLine
 10
7.582817020200879
 20
9.639825958945921
 30
0.0
 11
7.062814255366111
 21
9.639825958945921
 31
0.0
  0
LINE
  5
426
330
31A
100
AcDbEntity
  8
Dimension (ANSI)
100
AcDbLine
 10
7.375314255366111
 20
9.885888945498637
 30
0.0
 11
7.375314255366112
 21
10.13195193205135
 31
0.0
  0
LINE
  5
427
330
31A
100
AcDbEntity
  8
Dimension (ANSI)
100
AcDbLine
 10
7.375314255366111
 20
9.080762972393207
 30
0.0
 11
7.375314255366111
 21
8.345329300864829
 31
0.0
  0
LINE
  5
428
330
31A
100
AcDbEntity
  8
Dimension (ANSI)
100
AcDbLine
 10
7.375314255366111
 20
8.345329300864829
 30
0.0
 11
7.129251268813396
 21
8.345329300864829
 31
0.0
  0
SOLID
  5
429
330
31A
100
AcDbEntity
  8
Dimension (ANSI)
100
AcDbTrace
 10
7.334303757607325
 20
9.885888945498637
 30
0.0
 11
7.416324753124897
 21
9.885888945498637
 31
0.0
 12
7.375314255366111
 22
9.639825958945921
 32
0.0
 13
7.375314255366111
 23
9.639825958945921
 33
0.0
  0
SOLID
  5
42A
330
31A
100
AcDbEntity
  8
Dimension (ANSI)
100
AcDbTrace
 10
7.334303757607325
 20
9.080762972393207
 30
0.0
 11
7.416324753124897
 21
9.080762972393207
 31
0.0
 12
7.375314255366111
 22
9.326825958945923
 32
0.0
 13
7.375314255366111
 23
9.326825958945923
 33
0.0
  0
MTEXT
  5
42B
330
31A
100
AcDbEntity
  8
Dimension (ANSI)
100
AcDbMText
 10
6.654204849782733
 20
8.345329300864831
 30
0.0
 40
0.3000000119209289
 41
0.0
 71
     5
 72
     1
  1
\A1;0.31{\PTYP.}
  7
Note Text (ANSI)
 73
     1
 44
1.0
1001
ACAD
1000
MTEXTBEGIN
1070
    73
1070
     1
1070
    44
1040
1.0
1070
    74
1070
     0
1000
MTEXTEND
  0
POINT
  5
42C
330
31A
100
AcDbEntity
  8
Defpoints
 62
     0
100
AcDbPoint
 10
7.566567020200881
 20
9.326825958945923
 30
0.0
  0
POINT
  5
42D
330
31A
100
AcDbEntity
  8
Defpoints
 62
     0
100
AcDbPoint
 10
7.739067020200879
 20
9.639825958945921
 30
0.0
  0
POINT
  5
42E
330
31A
100
AcDbEntity
  8
Defpoints
 62
     0
100
AcDbPoint
 10
7.375314255366111
 20
9.639825958945921
 30
0.0
  0
ENDBLK
  5
31C
330
31A
100
AcDbEntity
  8
0
100
AcDbBlockEnd
  0
BLOCK
  5
431
330
430
100
AcDbEntity
  8
0
100
AcDbBlockBegin
  2
*D7
 70
     1
 10
0.0
 20
0.0
 30
0.0
  3
*D7
  1

  0
LINE
  5
523
330
430
100
AcDbEntity
  8
Dimension (ANSI)
100
AcDbLine
 10
7.566567020200881
 20
9.170575958945923
 30
0.0
 11
7.566567020200881
 21
6.704614672856683
 31
0.0
  0
LINE
  5
524
330
430
100
AcDbEntity
  8
Dimension (ANSI)
100
AcDbLine
 10
7.879567020200881
 20
9.374575958945921
 30
0.0
 11
7.879567020200881
 21
6.704614672856683
 31
0.0
  0
LINE
  5
525
330
430
100
AcDbEntity
  8
Dimension (ANSI)
100
AcDbLine
 10
8.125630006753596
 20
7.017114672856683
 30
0.0
 11
8.371692993306311
 21
7.017114672856683
 31
0.0
  0
LINE
  5
526
330
430
100
AcDbEntity
  8
Dimension (ANSI)
100
AcDbLine
 10
7.320504033648165
 20
7.017114672856683
 30
0.0
 11
7.072418029515134
 21
7.017114672856683
 31
0.0
  0
SOLID
  5
527
330
430
100
AcDbEntity
  8
Dimension (ANSI)
100
AcDbTrace
 10
8.125630006753596
 20
7.058125170615469
 30
0.0
 11
8.125630006753596
 21
6.976104175097897
 31
0.0
 12
7.879567020200881
 22
7.017114672856683
 32
0.0
 13
7.879567020200881
 23
7.017114672856683
 33
0.0
  0
SOLID
  5
528
330
430
100
AcDbEntity
  8
Dimension (ANSI)
100
AcDbTrace
 10
7.320504033648165
 20
7.058125170615469
 30
0.0
 11
7.320504033648165
 21
6.976104175097897
 31
0.0
 12
7.566567020200881
 22
7.017114672856683
 32
0.0
 13
7.566567020200881
 23
7.017114672856683
 33
0.0
  0
MTEXT
  5
529
330
430
100
AcDbEntity
  8
Dimension (ANSI)
100
AcDbMText
 10
6.597371610484471
 20
7.017114672856683
 30
0.0
 40
0.3000000119209289
 41
0.0
 71
     5
 72
     1
  1
\A1;0.31{\PTYP.}
  7
Note Text (ANSI)
 73
     1
 44
1.0
1001
ACAD
1000
MTEXTBEGIN
1070
    73
1070
     1
1070
    44
1040
1.0
1070
    74
1070
     0
1000
MTEXTEND
  0
POINT
  5
52A
330
430
100
AcDbEntity
  8
Defpoints
 62
     0
100
AcDbPoint
 10
7.566567020200881
 20
9.326825958945923
 30
0.0
  0
POINT
  5
52B
330
430
100
AcDbEntity
  8
Defpoints
 62
     0
100
AcDbPoint
 10
7.879567020200881
 20
9.530825958945921
 30
0.0
  0
POINT
  5
52C
330
430
100
AcDbEntity
  8
Defpoints
 62
     0
100
AcDbPoint
 10
7.879567020200881
 20
7.017114672856683
 30
0.0
  0
ENDBLK
  5
432
330
430
100
AcDbEntity
  8
0
100
AcDbBlockEnd
  0
BLOCK
  5
52F
330
52E
100
AcDbEntity
  8
0
100
AcDbBlockBegin
  2
*D8
 70
     1
 10
0.0
 20
0.0
 30
0.0
  3
*D8
  1

  0
LINE
  5
60D
330
52E
100
AcDbEntity
  8
Dimension (ANSI)
100
AcDbLine
 10
7.879567020200881
 20
9.374575958945921
 30
0.0
 11
7.879567020200881
 21
6.704614672856681
 31
0.0
  0
LINE
  5
60E
330
52E
100
AcDbEntity
  8
Dimension (ANSI)
100
AcDbLine
 10
8.87956702020088
 20
9.358575958945921
 30
0.0
 11
8.87956702020088
 21
6.704614672856681
 31
0.0
  0
LINE
  5
60F
330
52E
100
AcDbEntity
  8
Dimension (ANSI)
100
AcDbLine
 10
8.125630006753596
 20
7.017114672856681
 30
0.0
 11
8.633504033648165
 21
7.017114672856681
 31
0.0
  0
LINE
  5
610
330
52E
100
AcDbEntity
  8
Dimension (ANSI)
100
AcDbLine
 10
8.87956702020088
 20
7.017114672856681
 30
0.0
 11
9.324298146222711
 21
7.017114672856681
 31
0.0
  0
SOLID
  5
611
330
52E
100
AcDbEntity
  8
Dimension (ANSI)
100
AcDbTrace
 10
8.125630006753596
 20
7.058125170615467
 30
0.0
 11
8.125630006753596
 21
6.976104175097895
 31
0.0
 12
7.879567020200881
 22
7.017114672856681
 32
0.0
 13
7.879567020200881
 23
7.017114672856681
 33
0.0
  0
SOLID
  5
612
330
52E
100
AcDbEntity
  8
Dimension (ANSI)
100
AcDbTrace
 10
8.633504033648165
 20
7.058125170615467
 30
0.0
 11
8.633504033648165
 21
6.976104175097895
 31
0.0
 12
8.87956702020088
 22
7.017114672856681
 32
0.0
 13
8.87956702020088
 23
7.017114672856681
 33
0.0
  0
MTEXT
  5
613
330
52E
100
AcDbEntity
  8
Dimension (ANSI)
100
AcDbMText
 10
9.403038303703025
 20
7.173259742862538
 30
0.0
 40
0.3000000119209289
 41
0.0
 71
     1
 72
     1
  1
\A1;1.000
  7
Note Text (ANSI)
 73
     1
 44
1.0
1001
ACAD
1000
MTEXTBEGIN
1070
    73
1070
     1
1070
    44
1040
1.0
1070
    74
1070
     0
1000
MTEXTEND
  0
POINT
  5
614
330
52E
100
AcDbEntity
  8
Defpoints
 62
     0
100
AcDbPoint
 10
7.879567020200881
 20
9.530825958945921
 30
0.0
  0
POINT
  5
615
330
52E
100
AcDbEntity
  8
Defpoints
 62
     0
100
AcDbPoint
 10
8.87956702020088
 20
9.514825958945921
 30
0.0
  0
POINT
  5
616
330
52E
100
AcDbEntity
  8
Defpoints
 62
     0
100
AcDbPoint
 10
8.87956702020088
 20
7.017114672856681
 30
0.0
  0
ENDBLK
  5
530
330
52E
100
AcDbEntity
  8
0
100
AcDbBlockEnd
  0
BLOCK
  5
619
330
618
100
AcDbEntity
  8
0
100
AcDbBlockBegin
  2
*D9
 70
     1
 10
0.0
 20
0.0
 30
0.0
  3
*D9
  1

  0
LINE
  5
6EE
330
618
100
AcDbEntity
  8
Dimension (ANSI)
100
AcDbLine
 10
23.39774005343512
 20
19.19559236314539
 30
0.0
 11
23.15167706688241
 21
19.19559236314539
 31
0.0
  0
LINE
  5
6EF
330
618
100
AcDbEntity
  8
Dimension (ANSI)
100
AcDbLine
 10
23.96386602654056
 20
19.19559236314539
 30
0.0
 11
24.72962776386252
 21
19.19559236314539
 31
0.0
  0
SOLID
  5
6F0
330
618
100
AcDbEntity
  8
Dimension (ANSI)
100
AcDbTrace
 10
23.39774005343512
 20
19.23660286090418
 30
0.0
 11
23.39774005343512
 21
19.15458186538661
 31
0.0
 12
23.64380303998784
 22
19.19559236314539
 32
0.0
 13
23.64380303998784
 23
19.19559236314539
 33
0.0
  0
SOLID
  5
6F1
330
618
100
AcDbEntity
  8
Dimension (ANSI)
100
AcDbTrace
 10
23.96386602654056
 20
19.23660286090418
 30
0.0
 11
23.96386602654056
 21
19.15458186538661
 31
0.0
 12
23.71780303998784
 22
19.19559236314539
 32
0.0
 13
23.71780303998784
 23
19.19559236314539
 33
0.0
  0
MTEXT
  5
6F2
330
618
100
AcDbEntity
  8
Dimension (ANSI)
100
AcDbMText
 10
24.80836792134283
 20
19.35123373937704
 30
0.0
 40
0.3000000119209289
 41
0.0
 71
     1
 72
     1
  1
\A1; 14 GA.
  7
Note Text (ANSI)
 73
     1
 44
1.0
1001
ACAD
1000
MTEXTBEGIN
1070
    73
1070
     1
1070
    44
1040
1.0
1070
    74
1070
     0
1000
MTEXTEND
  0
POINT
  5
6F3
330
618
100
AcDbEntity
  8
Defpoints
 62
     0
100
AcDbPoint
 10
24.15965684001749
 20
9.326825958945923
 30
0.0
  0
POINT
  5
6F4
330
618
100
AcDbEntity
  8
Defpoints
 62
     0
100
AcDbPoint
 10
24.08565684001749
 20
9.326825958945923
 30
0.0
  0
POINT
  5
6F5
330
618
100
AcDbEntity
  8
Defpoints
 62
     0
100
AcDbPoint
 10
23.64380303998784
 20
19.19559236314539
 30
0.0
  0
ENDBLK
  5
61A
330
618
100
AcDbEntity
  8
0
100
AcDbBlockEnd
  0
BLOCK
  5
6F8
330
6F7
100
AcDbEntity
  8
0
100
AcDbBlockBegin
  2
*D10
 70
     1
 10
0.0
 20
0.0
 30
0.0
  3
*D10
  1

  0
LINE
  5
7A8
330
6F7
100
AcDbEntity
  8
Dimension (ANSI)
100
AcDbLine
 10
11.05107705313912
 20
8.948919170924087
 30
0.0
 11
10.8050140665864
 21
8.948919170924085
 31
0.0
  0
LINE
  5
7A9
330
6F7
100
AcDbEntity
  8
Dimension (ANSI)
100
AcDbLine
 10
10.8050140665864
 20
8.948919170924085
 30
0.0
 11
9.228825635069309
 21
9.514501739699966
 31
0.0
  0
MTEXT
  5
7AA
102
{ACAD_XDICTIONARY
360
8CF
102
}
330
6F7
100
AcDbEntity
  8
Dimension (ANSI)
100
AcDbMText
 10
11.12981721061943
 20
9.171798069415599
 30
0.0
 40
0.3000000119209289
 41
0.0
 71
     1
 72
     1
  1
\A1;\U+22050.250{\PGROUND\P HOLE}
  7
Note Text (ANSI)
 73
     1
 44
1.0
1001
ACAD
1000
MTEXTBEGIN
1070
    73
1070
     1
1070
    44
1040
1.0
1070
    74
1070
     0
1000
MTEXTEND
  0
SOLID
  5
7AB
330
6F7
100
AcDbEntity
  8
Dimension (ANSI)
100
AcDbTrace
 10
9.242676675994346
 20
9.553102382074367
 30
0.0
 11
9.214974594144273
 21
9.475901097325568
 31
0.0
 12
8.997221780822908
 22
9.597607985250187
 32
0.0
 13
8.997221780822908
 23
9.597607985250187
 33
0.0
  0
LINE
  5
7AC
330
6F7
100
AcDbEntity
  8
Dimension (ANSI)
100
AcDbLine
 10
8.654567020200882
 20
9.639825958945925
 30
0.0
 11
9.104567020200882
 21
9.639825958945925
 31
0.0
  0
LINE
  5
7AD
330
6F7
100
AcDbEntity
  8
Dimension (ANSI)
100
AcDbLine
 10
8.879567020200884
 20
9.414825958945925
 30
0.0
 11
8.879567020200884
 21
9.864825958945925
 31
0.0
  0
POINT
  5
7AE
330
6F7
100
AcDbEntity
  8
Defpoints
 62
     0
100
AcDbPoint
 10
8.997221780822908
 20
9.597607985250187
 30
0.0
  0
POINT
  5
7AF
330
6F7
100
AcDbEntity
  8
Defpoints
 62
     0
100
AcDbPoint
 10
8.761912259578856
 20
9.682043932641665
 30
0.0
  0
ENDBLK
  5
6F9
330
6F7
100
AcDbEntity
  8
0
100
AcDbBlockEnd
  0
BLOCK
  5
7B2
330
7B1
100
AcDbEntity
  8
0
100
AcDbBlockBegin
  2
*D11
 70
     1
 10
0.0
 20
0.0
 30
0.0
  3
*D11
  1

  0
LINE
  5
84D
330
7B1
100
AcDbEntity
  8
Dimension (ANSI)
100
AcDbLine
 10
16.90294510108832
 20
10.48563555173192
 30
0.0
 11
16.65603956969643
 21
10.48563555173192
 31
0.0
  0
LINE
  5
84E
330
7B1
100
AcDbEntity
  8
Dimension (ANSI)
100
AcDbLine
 10
16.65603956969643
 20
10.48563555173192
 30
0.0
 11
16.34331801050627
 21
9.946902999564205
 31
0.0
  0
MTEXT
  5
84F
330
7B1
100
AcDbEntity
  8
Dimension (ANSI)
100
AcDbMText
 10
16.98168525856863
 20
10.72056952121958
 30
0.0
 40
0.3000000119209289
 41
0.0
 71
     1
 72
     1
  1
\A1; 0.218 X 0.281\POBROUND\PTYP. (4 PL.)
  7
Note Text (ANSI)
 73
     1
 44
1.0
1001
ACAD
1000
MTEXTBEGIN
1070
    73
1070
     1
1070
    44
1040
1.0
1070
    74
1070
     0
1000
MTEXTEND
  0
SOLID
  5
850
330
7B1
100
AcDbEntity
  8
Dimension (ANSI)
100
AcDbTrace
 10
16.30784998718928
 20
9.967491351815152
 30
0.0
 11
16.37878603382326
 21
9.926314647313256
 31
0.0
 12
16.21978789700059
 22
9.734094859662285
 32
0.0
 13
16.21978789700059
 23
9.734094859662285
 33
0.0
  0
POINT
  5
851
330
7B1
100
AcDbEntity
  8
Defpoints
 62
     0
100
AcDbPoint
 10
16.21978789700059
 20
9.734094859662285
 30
0.0
  0
POINT
  5
852
330
7B1
100
AcDbEntity
  8
Defpoints
 62
     0
100
AcDbPoint
 10
16.16506702020088
 20
9.639825958945923
 30
0.0
  0
ENDBLK
  5
7B3
330
7B1
100
AcDbEntity
  8
0
100
AcDbBlockEnd
  0
ENDSEC
  0
SECTION
  2
ENTITIES
  0
CIRCLE
  5
11D
330
6C
100
AcDbEntity
  8
Visible (ANSI)
100
AcDbCircle
 10
8.87956702020088
 20
9.639825958945921
 30
0.0
 40
0.125
  0
LINE
  5
11E
330
6C
100
AcDbEntity
  8
Visible (ANSI)
100
AcDbLine
 10
7.84806702020088
 20
9.748825958945921
 30
0.0
 11
7.91106702020088
 21
9.748825958945921
 31
0.0
  0
ARC
  5
11F
330
6C
100
AcDbEntity
  8
Visible (ANSI)
100
AcDbCircle
 10
7.84806702020088
 20
9.639825958945923
 30
0.0
 40
0.109
100
AcDbArc
 50
90.0
 51
270.0
  0
LINE
  5
120
330
6C
100
AcDbEntity
  8
Visible (ANSI)
100
AcDbLine
 10
7.91106702020088
 20
9.530825958945923
 30
0.0
 11
7.84806702020088
 21
9.530825958945923
 31
0.0
  0
ARC
  5
121
330
6C
100
AcDbEntity
  8
Visible (ANSI)
100
AcDbCircle
 10
7.91106702020088
 20
9.639825958945923
 30
0.0
 40
0.1090000000000001
100
AcDbArc
 50
270.0
 51
90.0
  0
LINE
  5
122
330
6C
100
AcDbEntity
  8
Visible (ANSI)
100
AcDbLine
 10
16.10206702020087
 20
24.00282595894593
 30
0.0
 11
16.16506702020087
 21
24.00282595894593
 31
0.0
  0
ARC
  5
123
330
6C
100
AcDbEntity
  8
Visible (ANSI)
100
AcDbCircle
 10
16.10206702020087
 20
23.89382595894592
 30
0.0
 40
0.1089999999999997
100
AcDbArc
 50
90.0
 51
270.0
  0
LINE
  5
124
330
6C
100
AcDbEntity
  8
Visible (ANSI)
100
AcDbLine
 10
16.16506702020087
 20
23.78482595894592
 30
0.0
 11
16.10206702020087
 21
23.78482595894592
 31
0.0
  0
ARC
  5
125
330
6C
100
AcDbEntity
  8
Visible (ANSI)
100
AcDbCircle
 10
16.16506702020087
 20
23.89382595894592
 30
0.0
 40
0.1089999999999997
100
AcDbArc
 50
270.0
 51
90.0
  0
LINE
  5
126
330
6C
100
AcDbEntity
  8
Visible (ANSI)
100
AcDbLine
 10
16.10206702020088
 20
9.748825958945921
 30
0.0
 11
16.16506702020088
 21
9.748825958945921
 31
0.0
  0
ARC
  5
127
330
6C
100
AcDbEntity
  8
Visible (ANSI)
100
AcDbCircle
 10
16.10206702020088
 20
9.639825958945923
 30
0.0
 40
0.109
100
AcDbArc
 50
90.0
 51
270.0
  0
LINE
  5
128
330
6C
100
AcDbEntity
  8
Visible (ANSI)
100
AcDbLine
 10
16.16506702020088
 20
9.530825958945923
 30
0.0
 11
16.10206702020088
 21
9.530825958945923
 31
0.0
  0
ARC
  5
129
330
6C
100
AcDbEntity
  8
Visible (ANSI)
100
AcDbCircle
 10
16.16506702020088
 20
9.639825958945923
 30
0.0
 40
0.109
100
AcDbArc
 50
270.0
 51
90.0
  0
LINE
  5
12A
330
6C
100
AcDbEntity
  8
Visible (ANSI)
100
AcDbLine
 10
7.848067020200875
 20
24.00282595894593
 30
0.0
 11
7.911067020200876
 21
24.00282595894593
 31
0.0
  0
ARC
  5
12B
330
6C
100
AcDbEntity
  8
Visible (ANSI)
100
AcDbCircle
 10
7.848067020200875
 20
23.89382595894592
 30
0.0
 40
0.1089999999999997
100
AcDbArc
 50
90.0
 51
270.0
  0
LINE
  5
12C
330
6C
100
AcDbEntity
  8
Visible (ANSI)
100
AcDbLine
 10
7.911067020200876
 20
23.78482595894592
 30
0.0
 11
7.848067020200875
 21
23.78482595894592
 31
0.0
  0
ARC
  5
12D
330
6C
100
AcDbEntity
  8
Visible (ANSI)
100
AcDbCircle
 10
7.911067020200876
 20
23.89382595894592
 30
0.0
 40
0.1089999999999997
100
AcDbArc
 50
270.0
 51
90.0
  0
LINE
  5
12E
330
6C
100
AcDbEntity
  8
Visible (ANSI)
100
AcDbLine
 10
7.566567020200881
 20
9.326825958945923
 30
0.0
 11
7.566567020200876
 21
24.20682595894592
 31
0.0
  0
LINE
  5
12F
330
6C
100
AcDbEntity
  8
Visible (ANSI)
100
AcDbLine
 10
7.566567020200876
 20
24.20682595894592
 30
0.0
 11
16.44656702020087
 21
24.20682595894592
 31
0.0
  0
LINE
  5
130
330
6C
100
AcDbEntity
  8
Visible (ANSI)
100
AcDbLine
 10
16.44656702020087
 20
24.20682595894592
 30
0.0
 11
16.44656702020088
 21
9.326825958945923
 31
0.0
  0
LINE
  5
131
330
6C
100
AcDbEntity
  8
Visible (ANSI)
100
AcDbLine
 10
16.44656702020088
 20
9.326825958945923
 30
0.0
 11
7.566567020200881
 21
9.326825958945923
 31
0.0
  0
MTEXT
  5
133
330
6C
100
AcDbEntity
  8
Symbol (ANSI)
100
AcDbMText
 10
10.972870574985
 20
4.529523432095409
 30
0.0
 40
0.3000000037076905
 41
0.0
 71
     7
 72
     1
  1
FRONT VIEW
  7
Text Style150
 73
     1
 44
1.0
1001
ACAD
1000
MTEXTBEGIN
1070
    73
1070
     1
1070
    44
1040
1.0
1070
    74
1070
     0
1000
MTEXTEND
  0
LINE
  5
135
330
6C
100
AcDbEntity
  8
Symbol (ANSI)
370
    30
100
AcDbLine
 10
10.94287049781404
 20
4.468344338658184
 30
0.0
 11
13.35478300852823
 21
4.468344338658184
 31
0.0
  0
MTEXT
  5
136
330
6C
100
AcDbEntity
  8
Symbol (ANSI)
100
AcDbMText
 10
12.05218980419608
 20
3.852815413900848
 30
0.0
 40
0.4499999908950385
 41
0.0
 71
     7
 72
     1
  1
 
  7
Label Text (ANSI)
 73
     1
 44
1.0
1001
ACAD
1000
MTEXTBEGIN
1070
    73
1070
     1
1070
    44
1040
1.0
1070
    74
1070
     0
1000
MTEXTEND
  0
LINE
  5
137
330
6C
100
AcDbEntity
  8
Hidden (ANSI)
 48
0.0562790185213089
100
AcDbLine
 10
24.0856568400174
 20
24.00282595894593
 30
0.0
 11
24.1596568400174
 21
24.00282595894593
 31
0.0
  0
LINE
  5
138
330
6C
100
AcDbEntity
  8
Hidden (ANSI)
 48
0.0562790185213089
100
AcDbLine
 10
24.0856568400174
 20
23.78482595894592
 30
0.0
 11
24.1596568400174
 21
23.78482595894592
 31
0.0
  0
LINE
  5
139
330
6C
100
AcDbEntity
  8
Hidden (ANSI)
 48
0.0562790185213089
100
AcDbLine
 10
24.0856568400174
 20
9.748825958945921
 30
0.0
 11
24.1596568400174
 21
9.748825958945921
 31
0.0
  0
LINE
  5
13A
330
6C
100
AcDbEntity
  8
Hidden (ANSI)
 48
0.0562790185213089
100
AcDbLine
 10
24.0856568400174
 20
9.530825958945923
 30
0.0
 11
24.1596568400174
 21
9.530825958945923
 31
0.0
  0
LINE
  5
13B
330
6C
100
AcDbEntity
  8
Visible (ANSI)
100
AcDbLine
 10
24.15965684001748
 20
24.20682595894592
 30
0.0
 11
24.08565684001748
 21
24.20682595894592
 31
0.0
  0
LINE
  5
13C
330
6C
100
AcDbEntity
  8
Visible (ANSI)
100
AcDbLine
 10
24.08565684001748
 20
24.20682595894592
 30
0.0
 11
24.08565684001748
 21
9.326825958945923
 31
0.0
  0
LINE
  5
13D
330
6C
100
AcDbEntity
  8
Visible (ANSI)
100
AcDbLine
 10
24.15965684001748
 20
9.326825958945923
 30
0.0
 11
24.08565684001748
 21
9.326825958945923
 31
0.0
  0
LINE
  5
13E
330
6C
100
AcDbEntity
  8
Visible (ANSI)
100
AcDbLine
 10
24.15965684001748
 20
9.326825958945923
 30
0.0
 11
24.15965684001748
 21
24.20682595894592
 31
0.0
  0
LINE
  5
13F
330
6C
100
AcDbEntity
  8
Hidden (ANSI)
 48
0.0562790185213089
100
AcDbLine
 10
24.15965684001524
 20
9.514825958945923
 30
0.0
 11
24.08565684001524
 21
9.514825958945923
 31
0.0
  0
LINE
  5
140
330
6C
100
AcDbEntity
  8
Hidden (ANSI)
 48
0.0562790185213089
100
AcDbLine
 10
24.15965684001524
 20
9.764825958945921
 30
0.0
 11
24.08565684001524
 21
9.764825958945921
 31
0.0
  0
MTEXT
  5
141
330
6C
100
AcDbEntity
  8
Symbol (ANSI)
100
AcDbMText
 10
22.89072565130714
 20
4.496155881666966
 30
0.0
 40
0.3000000037076905
 41
0.0
 71
     7
 72
     1
  1
RIGHT VIEW
  7
Text Style150
 73
     1
 44
1.0
1001
ACAD
1000
MTEXTBEGIN
1070
    73
1070
     1
1070
    44
1040
1.0
1070
    74
1070
     0
1000
MTEXTEND
  0
LINE
  5
142
330
6C
100
AcDbEntity
  8
Symbol (ANSI)
370
    30
100
AcDbLine
 10
22.86072557413618
 20
4.434490564513305
 30
0.0
 11
25.19800274437753
 21
4.434490564513305
 31
0.0
  0
DIMENSION
  5
143
330
6C
100
AcDbEntity
  8
Dimension (ANSI)
100
AcDbDimension
  2
*D4
 10
7.566567020200881
 20
5.900342351458927
 30
0.0
 11
12.00656702020088
 21
5.900342351458927
 31
0.0
 70
   160
  1
<>
 42
8.879999999999999
  3
Default (ANSI)-01
100
AcDbAlignedDimension
 13
16.44656702020088
 23
9.326825958945923
 33
0.0
 14
7.566567020200881
 24
9.326825958945923
 34
0.0
 50
180.0
100
AcDbRotatedDimension
1001
ACAD
1000
DSTYLE
1002
{
1070
   289
1070
     1
1070
    73
1070
     0
1070
    74
1070
     0
1070
   271
1070
     2
1070
   272
1070
     2
1070
    48
1040
0.0
1070
    47
1040
0.0
1002
}
  0
DIMENSION
  5
22F
330
6C
100
AcDbEntity
  8
Dimension (ANSI)
100
AcDbDimension
  2
*D5
 10
5.256855734111642
 20
24.20682595894592
 30
0.0
 11
5.256855734111637
 21
16.76682595894592
 31
0.0
 70
   160
  1
<>
 42
14.87999999999999
  3
Default (ANSI)-01
100
AcDbAlignedDimension
 13
7.566567020200881
 23
9.326825958945923
 33
0.0
 14
7.566567020200875
 24
24.20682595894592
 34
0.0
 50
90.0
100
AcDbRotatedDimension
1001
ACAD
1000
DSTYLE
1002
{
1070
   289
1070
     1
1070
   271
1070
     2
1070
   272
1070
     2
1070
    48
1040
0.0
1070
    47
1040
0.0
1002
}
  0
DIMENSION
  5
319
330
6C
100
AcDbEntity
  8
Dimension (ANSI)
100
AcDbDimension
  2
*D6
 10
7.375314255366111
 20
9.639825958945921
 30
0.0
 11
6.654204849782733
 21
8.345329300864831
 31
0.0
 70
   160
  1
<>{\PTYP.}
 71
     5
 42
0.3129999999999988
  3
Default (ANSI)-01
100
AcDbAlignedDimension
 13
7.566567020200881
 23
9.326825958945923
 33
0.0
 14
7.739067020200879
 24
9.639825958945921
 34
0.0
 50
90.0
100
AcDbRotatedDimension
1001
ACAD
1000
DSTYLE
1002
{
1070
   289
1070
     1
1070
   271
1070
     2
1070
   272
1070
     2
1070
    48
1040
0.0
1070
    47
1040
0.0
1002
}
  0
DIMENSION
  5
42F
330
6C
100
AcDbEntity
  8
Dimension (ANSI)
100
AcDbDimension
  2
*D7
 10
7.879567020200881
 20
7.017114672856683
 30
0.0
 11
6.597371610484471
 21
7.017114672856683
 31
0.0
 70
   160
  1
<>{\PTYP.}
 71
     5
 42
0.3130000000000006
  3
Default (ANSI)-01
100
AcDbAlignedDimension
 13
7.566567020200881
 23
9.326825958945923
 33
0.0
 14
7.879567020200881
 24
9.530825958945921
 34
0.0
 50
180.0
100
AcDbRotatedDimension
1001
ACAD
1000
DSTYLE
1002
{
1070
   289
1070
     1
1070
    73
1070
     0
1070
    74
1070
     0
1070
   271
1070
     2
1070
   272
1070
     2
1070
    48
1040
0.0
1070
    47
1040
0.0
1002
}
  0
DIMENSION
  5
52D
330
6C
100
AcDbEntity
  8
Dimension (ANSI)
100
AcDbDimension
  2
*D8
 10
8.87956702020088
 20
7.017114672856681
 30
0.0
 11
9.884871768114646
 21
7.017114672856681
 31
0.0
 70
   160
  1
<>
 42
0.9999999999999991
  3
Default (ANSI)
100
AcDbAlignedDimension
 13
7.879567020200881
 23
9.530825958945921
 33
0.0
 14
8.87956702020088
 24
9.514825958945921
 34
0.0
 50
180.0
100
AcDbRotatedDimension
1001
ACAD
1000
DSTYLE
1002
{
1070
   289
1070
     2
1070
    73
1070
     0
1070
    74
1070
     0
1070
   271
1070
     3
1070
   272
1070
     2
1070
    48
1040
0.0
1070
    47
1040
0.0
1002
}
  0
DIMENSION
  5
617
330
6C
100
AcDbEntity
  8
Dimension (ANSI)
100
AcDbDimension
  2
*D9
 10
23.64380303998784
 20
19.19559236314539
 30
0.0
 11
25.4671993780127
 21
19.19559236314539
 31
0.0
 70
   160
  1
 14 GA.
 42
0.0740000000000016
  3
Default (ANSI)
100
AcDbAlignedDimension
 13
24.15965684001749
 23
9.326825958945923
 33
0.0
 14
24.08565684001749
 24
9.326825958945923
 34
0.0
100
AcDbRotatedDimension
1001
ACAD
1000
DSTYLE
1002
{
1070
   289
1070
     1
1070
    73
1070
     0
1070
    74
1070
     0
1070
   271
1070
     3
1070
    76
1070
     1
1070
    75
1070
     1
1070
   272
1070
     2
1070
    48
1040
0.0
1070
    47
1040
0.0
1002
}
  0
DIMENSION
  5
6F6
330
6C
100
AcDbEntity
  8
Dimension (ANSI)
100
AcDbDimension
  2
*D10
 10
8.761912259578856
 20
9.682043932641665
 30
0.0
 11
11.94136861963051
 21
8.948919170924085
 31
0.0
 70
   163
  1
<>{\PGROUND\P HOLE}
 42
0.25
  3
Default (ANSI)
100
AcDbDiametricDimension
 15
8.997221780822908
 25
9.597607985250187
 35
0.0
 40
0.0
1001
ACAD_DSTYLE_DIMRADIAL_EXTENSION
1070
   387
1070
     1
1070
   388
1040
0.0
1070
   390
1040
0.0
1001
ACAD
1000
DSTYLE
1002
{
1070
   145
1040
-0.3333333333333334
1070
   144
1040
0.9999999999999893
1070
   271
1070
     3
1070
   272
1070
     2
1070
    48
1040
0.0
1070
    47
1040
0.0
1002
}
  0
DIMENSION
  5
7B0
330
6C
100
AcDbEntity
  8
Dimension (ANSI)
100
AcDbDimension
  2
*D11
 10
16.16506702020088
 20
9.639825958945923
 30
0.0
 11
18.30408289338597
 21
10.48563555173192
 31
0.0
 70
   164
  1
 0.218 X 0.281\POBROUND\PTYP. (4 PL.)
 42
0.1090000000000018
  3
Default (ANSI)
100
AcDbRadialDimension
 15
16.21978789700059
 25
9.734094859662285
 35
0.0
 40
0.0
1001
ACAD_DSTYLE_DIMRADIAL_EXTENSION
1070
   387
1070
     1
1070
   388
1040
0.0
1070
   390
1040
0.0
1001
ACAD
1000
DSTYLE
1002
{
1070
   145
1040
-0.3333333333333334
1070
   271
1070
     3
1070
   141
1040
0.0
1070
   272
1070
     2
1070
    48
1040
0.0
1070
    47
1040
0.0
1002
}
  0
MTEXT
  5
853
330
6C
100
AcDbEntity
  8
Symbol (ANSI)
100
AcDbMText
 10
29.33810245372799
 20
5.43446930607003
 30
0.0
 40
0.3000000037076905
 41
11.83956372409687
 71
     1
 72
     1
  1
{\fRomanS|b0|i0;\H0.3000;PART#: P1610\P(DATA SUBJECT TO CHANGE WITHOUT NOTICE)\PTHIS DRAWING AND COMPONENTS OF ARE\PPROPERTY OF HUBBELL INC. WIEGMANN}
  7
Note Text (ANSI)
 73
     2
 44
1.093904256820678
1001
ACAD
1000
MTEXTBEGIN
1070
    73
1070
     2
1070
    44
1040
1.093904256820678
1070
    74
1070
     0
1000
MTEXTEND
  0
ELLIPSE
  5
855
330
6C
100
AcDbEntity
  8
Visible (ANSI)
100
AcDbEllipse
 10
34.98819536704171
 20
12.30236684052896
 30
0.0
 11
0.0584803372950535
 21
-0.1015527464232591
 31
0.0
210
0.0
220
0.0
230
1.0
 40
0.5780931159158105
 41
3.572615253427285
 42
5.852162707341125
  0
ELLIPSE
  5
856
330
6C
100
AcDbEntity
  8
Visible (ANSI)
100
AcDbEllipse
 10
34.9391398340969
 20
12.27411763788461
 30
0.0
 11
-0.0584803372950474
 21
0.1015527464232626
 31
0.0
210
0.0
220
0.0
230
1.0
 40
0.5780931159158106
 41
0.0
 42
6.283185307179586
  0
LINE
  5
857
330
6C
100
AcDbEntity
  8
Visible (ANSI)
100
AcDbLine
 10
34.2553454796025
 20
12.75143171480764
 30
0.0
 11
34.29710897386634
 21
12.72738171796178
 31
0.0
  0
ELLIPSE
  5
858
330
6C
100
AcDbEntity
  8
Visible (ANSI)
100
AcDbEllipse
 10
34.30440101254731
 20
12.69613782063214
 30
0.0
 11
0.0509948541212867
 21
-0.088553994881082
 31
0.0
210
0.0
220
0.0
230
0.9999999999999998
 40
0.5780931159158106
 41
3.641254264141313
 42
5.499720852204657
  0
ELLIPSE
  5
859
330
6C
100
AcDbEntity
  8
Visible (ANSI)
100
AcDbEllipse
 10
34.2553454796025
 20
12.66788861798779
 30
0.0
 11
-0.0509948541212761
 21
0.0885539948810881
 31
0.0
210
0.0
220
0.0
230
1.0
 40
0.5780931159158107
 41
5.499720852205292
 42
8.641313505795084
  0
LINE
  5
85A
330
6C
100
AcDbEntity
  8
Visible Narrow (ANSI)
100
AcDbLine
 10
34.2553454796025
 20
12.58434552116795
 30
0.0
 11
34.30440101254731
 21
12.6125947238123
 31
0.0
  0
LINE
  5
85B
330
6C
100
AcDbEntity
  8
Visible (ANSI)
100
AcDbLine
 10
34.30440101254731
 20
12.6125947238123
 30
0.0
 11
34.34616450681114
 21
12.58854472696644
 31
0.0
  0
LINE
  5
85C
330
6C
100
AcDbEntity
  8
Visible (ANSI)
100
AcDbLine
 10
34.29710897386634
 20
12.56029552432209
 30
0.0
 11
34.2553454796025
 21
12.58434552116795
 31
0.0
  0
LINE
  5
85D
330
6C
100
AcDbEntity
  8
Visible Narrow (ANSI)
100
AcDbLine
 10
34.29710897386634
 20
12.56029552432209
 30
0.0
 11
34.34616450681114
 21
12.58854472696644
 31
0.0
  0
ELLIPSE
  5
85E
330
6C
100
AcDbEntity
  8
Visible (ANSI)
100
AcDbEllipse
 10
34.34616450681114
 20
12.67208782378629
 30
0.0
 11
0.0509948541212826
 21
-0.0885539948810871
 31
0.0
210
0.0
220
0.0
230
1.0
 40
0.5780931159158106
 41
5.499720852205022
 42
5.783523696627613
  0
ELLIPSE
  5
85F
330
6C
100
AcDbEntity
  8
Visible (ANSI)
100
AcDbEllipse
 10
34.29710897386634
 20
12.64383862114194
 30
0.0
 11
0.0509948541212761
 21
-0.0885539948810881
 31
0.0
210
0.0
220
0.0
230
1.0
 40
0.5780931159158106
 41
5.499720852205195
 42
8.641313505794988
  0
LINE
  5
860
330
6C
100
AcDbEntity
  8
Visible (ANSI)
100
AcDbLine
 10
39.72702614077246
 20
20.52548480468027
 30
0.0
 11
39.76878963503629
 21
20.50143480783441
 31
0.0
  0
ELLIPSE
  5
861
330
6C
100
AcDbEntity
  8
Visible (ANSI)
100
AcDbEllipse
 10
39.77608167371727
 20
20.47019091050477
 30
0.0
 11
0.0509948541212864
 21
-0.0885539948810816
 31
0.0
210
0.0
220
0.0
230
1.0
 40
0.5780931159158106
 41
3.641254264141352
 42
5.499720852204656
  0
ELLIPSE
  5
862
330
6C
100
AcDbEntity
  8
Visible (ANSI)
100
AcDbEllipse
 10
39.72702614077246
 20
20.44194170786042
 30
0.0
 11
-0.050994854121276
 21
0.0885539948810878
 31
0.0
210
0.0
220
0.0
230
1.0
 40
0.5780931159158106
 41
5.499720852205195
 42
8.641313505794988
  0
LINE
  5
863
330
6C
100
AcDbEntity
  8
Visible Narrow (ANSI)
100
AcDbLine
 10
39.72702614077246
 20
20.35839861104058
 30
0.0
 11
39.77608167371727
 21
20.38664781368493
 31
0.0
  0
LINE
  5
864
330
6C
100
AcDbEntity
  8
Visible (ANSI)
100
AcDbLine
 10
39.77608167371727
 20
20.38664781368493
 30
0.0
 11
39.81784516798111
 21
20.36259781683907
 31
0.0
  0
LINE
  5
865
330
6C
100
AcDbEntity
  8
Visible (ANSI)
100
AcDbLine
 10
39.76878963503629
 20
20.33434861419472
 30
0.0
 11
39.72702614077246
 21
20.35839861104058
 31
0.0
  0
LINE
  5
866
330
6C
100
AcDbEntity
  8
Visible Narrow (ANSI)
100
AcDbLine
 10
39.76878963503629
 20
20.33434861419472
 30
0.0
 11
39.81784516798111
 21
20.36259781683907
 31
0.0
  0
ELLIPSE
  5
867
330
6C
100
AcDbEntity
  8
Visible (ANSI)
100
AcDbEllipse
 10
39.81784516798111
 20
20.44614091365897
 30
0.0
 11
0.0509948541213165
 21
-0.0885539948811462
 31
0.0
210
0.0
220
0.0
230
1.0
 40
0.5780931159158105
 41
5.499720852205119
 42
5.783523696627514
  0
ELLIPSE
  5
868
330
6C
100
AcDbEntity
  8
Visible (ANSI)
100
AcDbEllipse
 10
39.76878963503629
 20
20.41789171101457
 30
0.0
 11
0.050994854121276
 21
-0.0885539948810878
 31
0.0
210
0.0
220
0.0
230
1.0
 40
0.5780931159158106
 41
5.499720852205195
 42
8.641313505794988
  0
LINE
  5
869
330
6C
100
AcDbEntity
  8
Visible (ANSI)
100
AcDbLine
 10
39.72702614077246
 20
9.600500382018806
 30
0.0
 11
39.7687896350363
 21
9.57645038517295
 31
0.0
  0
ELLIPSE
  5
86A
330
6C
100
AcDbEntity
  8
Visible (ANSI)
100
AcDbEllipse
 10
39.77608167371727
 20
9.545206487843305
 30
0.0
 11
0.0509948541212873
 21
-0.088553994881083
 31
0.0
210
0.0
220
0.0
230
1.0
 40
0.5780931159158105
 41
3.641254264141313
 42
5.499720852204656
  0
ELLIPSE
  5
86B
330
6C
100
AcDbEntity
  8
Visible (ANSI)
100
AcDbEllipse
 10
39.72702614077246
 20
9.516957285198961
 30
0.0
 11
-0.0509948541212761
 21
0.0885539948810881
 31
0.0
210
0.0
220
0.0
230
1.0
 40
0.5780931159158107
 41
5.499720852205195
 42
8.641313505795084
  0
LINE
  5
86C
330
6C
100
AcDbEntity
  8
Visible Narrow (ANSI)
100
AcDbLine
 10
39.72702614077246
 20
9.433414188379114
 30
0.0
 11
39.77608167371727
 21
9.46166339102346
 31
0.0
  0
LINE
  5
86D
330
6C
100
AcDbEntity
  8
Visible (ANSI)
100
AcDbLine
 10
39.77608167371727
 20
9.46166339102346
 30
0.0
 11
39.81784516798111
 21
9.437613394177603
 31
0.0
  0
LINE
  5
86E
330
6C
100
AcDbEntity
  8
Visible (ANSI)
100
AcDbLine
 10
39.7687896350363
 20
9.409364191533258
 30
0.0
 11
39.72702614077246
 21
9.433414188379114
 31
0.0
  0
LINE
  5
86F
330
6C
100
AcDbEntity
  8
Visible Narrow (ANSI)
100
AcDbLine
 10
39.7687896350363
 20
9.409364191533258
 30
0.0
 11
39.81784516798111
 21
9.437613394177603
 31
0.0
  0
ELLIPSE
  5
870
330
6C
100
AcDbEntity
  8
Visible (ANSI)
100
AcDbEllipse
 10
39.81784516798111
 20
9.521156490997446
 30
0.0
 11
0.0509948541212786
 21
-0.0885539948810802
 31
0.0
210
0.0
220
0.0
230
1.0
 40
0.5780931159158105
 41
5.499720852205022
 42
5.783523696627637
  0
ELLIPSE
  5
871
330
6C
100
AcDbEntity
  8
Visible (ANSI)
100
AcDbEllipse
 10
39.7687896350363
 20
9.492907288353103
 30
0.0
 11
0.0509948541212761
 21
-0.0885539948810881
 31
0.0
210
0.0
220
0.0
230
1.0
 40
0.5780931159158107
 41
5.499720852205292
 42
8.641313505795084
  0
LINE
  5
872
330
6C
100
AcDbEntity
  8
Visible (ANSI)
100
AcDbLine
 10
34.2553454796025
 20
23.67641613746911
 30
0.0
 11
34.29710897386633
 21
23.65236614062325
 31
0.0
  0
ELLIPSE
  5
873
330
6C
100
AcDbEntity
  8
Visible (ANSI)
100
AcDbEllipse
 10
34.30440101254731
 20
23.62112224329361
 30
0.0
 11
0.0509948541212872
 21
-0.0885539948810829
 31
0.0
210
0.0
220
0.0
230
1.0
 40
0.5780931159158107
 41
3.641254264141354
 42
5.499720852204657
  0
ELLIPSE
  5
874
330
6C
100
AcDbEntity
  8
Visible (ANSI)
100
AcDbEllipse
 10
34.2553454796025
 20
23.59287304064926
 30
0.0
 11
-0.0509948541212759
 21
0.0885539948810878
 31
0.0
210
0.0
220
0.0
230
1.0
 40
0.5780931159158105
 41
5.499720852205195
 42
8.641313505794988
  0
LINE
  5
875
330
6C
100
AcDbEntity
  8
Visible Narrow (ANSI)
100
AcDbLine
 10
34.2553454796025
 20
23.50932994382941
 30
0.0
 11
34.30440101254731
 21
23.53757914647376
 31
0.0
  0
LINE
  5
876
330
6C
100
AcDbEntity
  8
Visible (ANSI)
100
AcDbLine
 10
34.30440101254731
 20
23.53757914647376
 30
0.0
 11
34.34616450681114
 21
23.51352914962791
 31
0.0
  0
LINE
  5
877
330
6C
100
AcDbEntity
  8
Visible (ANSI)
100
AcDbLine
 10
34.29710897386633
 20
23.48527994698356
 30
0.0
 11
34.2553454796025
 21
23.50932994382941
 31
0.0
  0
LINE
  5
878
330
6C
100
AcDbEntity
  8
Visible Narrow (ANSI)
100
AcDbLine
 10
34.29710897386633
 20
23.48527994698356
 30
0.0
 11
34.34616450681114
 21
23.51352914962791
 31
0.0
  0
ELLIPSE
  5
879
330
6C
100
AcDbEntity
  8
Visible (ANSI)
100
AcDbEllipse
 10
34.34616450681114
 20
23.5970722464477
 30
0.0
 11
0.0509948541212524
 21
-0.0885539948810348
 31
0.0
210
0.0
220
0.0
230
1.0
 40
0.5780931159158107
 41
5.499720852204926
 42
5.783523696627677
  0
ELLIPSE
  5
87A
330
6C
100
AcDbEntity
  8
Visible (ANSI)
100
AcDbEllipse
 10
34.29710897386633
 20
23.5688230438034
 30
0.0
 11
0.050994854121276
 21
-0.0885539948810878
 31
0.0
210
0.0
220
0.0
230
1.0
 40
0.5780931159158106
 41
5.499720852205193
 42
8.641313505794988
  0
LINE
  5
87B
330
6C
100
AcDbEntity
  8
Visible (ANSI)
100
AcDbLine
 10
34.06873558062996
 20
12.5354511273848
 30
0.0
 11
34.06873558062996
 21
23.94023351893824
 31
0.0
  0
LINE
  5
87C
330
6C
100
AcDbEntity
  8
Visible (ANSI)
100
AcDbLine
 10
34.11779111357477
 20
23.96848272158258
 30
0.0
 11
34.06873558062996
 21
23.94023351893824
 31
0.0
  0
LINE
  5
87D
330
6C
100
AcDbEntity
  8
Visible (ANSI)
100
AcDbLine
 10
34.06873558062996
 20
23.94023351893824
 30
0.0
 11
39.95539953400884
 21
20.55032920161756
 31
0.0
  0
LINE
  5
87E
330
6C
100
AcDbEntity
  8
Visible (ANSI)
100
AcDbLine
 10
40.00445506695363
 20
20.57857840426191
 30
0.0
 11
39.95539953400884
 21
20.55032920161756
 31
0.0
  0
LINE
  5
87F
330
6C
100
AcDbEntity
  8
Visible (ANSI)
100
AcDbLine
 10
40.00445506695363
 20
20.57857840426191
 30
0.0
 11
34.11779111357477
 21
23.96848272158258
 31
0.0
  0
LINE
  5
880
330
6C
100
AcDbEntity
  8
Visible (ANSI)
100
AcDbLine
 10
39.95539953400884
 20
20.55032920161756
 30
0.0
 11
39.95539953400884
 21
9.145546810064127
 31
0.0
  0
LINE
  5
881
330
6C
100
AcDbEntity
  8
Visible (ANSI)
100
AcDbLine
 10
40.00445506695364
 20
9.173796012708475
 30
0.0
 11
39.95539953400884
 21
9.145546810064127
 31
0.0
  0
LINE
  5
882
330
6C
100
AcDbEntity
  8
Visible (ANSI)
100
AcDbLine
 10
40.00445506695364
 20
9.173796012708475
 30
0.0
 11
40.00445506695363
 21
20.57857840426191
 31
0.0
  0
LINE
  5
883
330
6C
100
AcDbEntity
  8
Visible (ANSI)
100
AcDbLine
 10
39.95539953400884
 20
9.145546810064127
 30
0.0
 11
34.06873558062996
 21
12.5354511273848
 31
0.0
  0
ENDSEC
  0
SECTION
  2
OBJECTS
  0
DICTIONARY
  5
C
330
0
100
AcDbDictionary
281
     1
  3
ACAD_CIP_PREVIOUS_PRODUCT_INFO
350
884
  3
ACAD_COLOR
350
63
  3
ACAD_GROUP
350
D
  3
ACAD_LAYOUT
350
62
  3
ACAD_MATERIAL
350
10
  3
ACAD_MLEADERSTYLE
350
66
  3
ACAD_MLINESTYLE
350
5F
  3
ACAD_PLOTSETTINGS
350
61
  3
ACAD_PLOTSTYLENAME
350
E
  3
ACAD_SCALELIST
350
42
  3
ACAD_TABLESTYLE
350
64
  3
ACAD_VISUALSTYLE
350
29
  3
ACDB_RECOMPOSE_DATA
350
892
  3
AcDbVariableDictionary
350
76
  3
DWGPROPS
350
893
  0
DICTIONARY
  5
8CF
330
7AA
100
AcDbDictionary
280
     1
281
     1
  3
ACAD_MTEXT_RT
360
8D0
  0
XRECORD
  5
884
102
{ACAD_REACTORS
330
C
102
}
330
C
100
AcDbXrecord
280
     1
300
INVNTOR
300
2012
300
85795PDSP_2012_0F
  0
DICTIONARY
  5
63
102
{ACAD_REACTORS
330
C
102
}
330
C
100
AcDbDictionary
281
     1
  0
DICTIONARY
  5
D
102
{ACAD_REACTORS
330
C
102
}
330
C
100
AcDbDictionary
281
     1
  0
DICTIONARY
  5
62
102
{ACAD_REACTORS
330
C
102
}
330
C
100
AcDbDictionary
281
     1
  3
Layout1
350
6B
  3
Layout2
350
73
  3
Model
350
6F
  0
DICTIONARY
  5
10
102
{ACAD_REACTORS
330
C
102
}
330
C
100
AcDbDictionary
281
     1
  3
ByBlock
350
19
  3
ByLayer
350
11
  3
Global
350
21
  0
DICTIONARY
  5
66
102
{ACAD_REACTORS
330
C
102
}
330
C
100
AcDbDictionary
281
     1
  3
Standard
350
67
  0
DICTIONARY
  5
5F
102
{ACAD_REACTORS
330
C
102
}
330
C
100
AcDbDictionary
281
     1
  3
Standard
350
60
  0
DICTIONARY
  5
61
102
{ACAD_REACTORS
330
C
102
}
330
C
100
AcDbDictionary
281
     1
  0
ACDBDICTIONARYWDFLT
  5
E
102
{ACAD_REACTORS
330
C
102
}
330
C
100
AcDbDictionary
281
     1
  3
Normal
350
F
100
AcDbDictionaryWithDefault
340
F
  0
DICTIONARY
  5
42
102
{ACAD_REACTORS
330
C
102
}
330
C
100
AcDbDictionary
281
     1
  3
A0
350
43
  3
A1
350
44
  3
A2
350
45
  3
A3
350
46
  3
A4
350
47
  3
A5
350
48
  3
A6
350
49
  3
A7
350
4A
  3
A8
350
4B
  3
A9
350
4C
  3
B0
350
4D
  3
B1
350
4E
  3
B2
350
4F
  3
B3
350
50
  3
B4
350
51
  3
B5
350
52
  3
B6
350
53
  0
DICTIONARY
  5
64
102
{ACAD_REACTORS
330
C
102
}
330
C
100
AcDbDictionary
281
     1
  3
Standard
350
65
  0
DICTIONARY
  5
29
102
{ACAD_REACTORS
330
C
102
}
330
C
100
AcDbDictionary
281
     1
  3
2dWireframe
350
2F
  3
Basic
350
2E
  3
Brighten
350
35
  3
ColorChange
350
39
  3
Conceptual
350
32
  3
Dim
350
34
  3
EdgeColorOff
350
41
  3
Facepattern
350
38
  3
Flat
350
2A
  3
FlatWithEdges
350
2B
  3
Gouraud
350
2C
  3
GouraudWithEdges
350
2D
  3
Hidden
350
31
  3
JitterOff
350
3F
  3
Linepattern
350
37
  3
OverhangOff
350
40
  3
Realistic
350
33
  3
Shaded
350
3E
  3
Shaded with edges
350
3D
  3
Shades of Gray
350
3A
  3
Sketchy
350
3B
  3
Thicken
350
36
  3
Wireframe
350
30
  3
X-Ray
350
3C
  0
XRECORD
  5
892
102
{ACAD_REACTORS
330
C
102
}
330
C
100
AcDbXrecord
280
     1
 90
        1
330
65
330
52D
  0
DICTIONARY
  5
76
102
{ACAD_REACTORS
330
C
102
}
330
C
100
AcDbDictionary
281
     1
  3
CANNOSCALE
350
79
  3
CMLEADERSTYLE
350
78
  3
CTABLESTYLE
350
77
  3
DIMASSOC
350
88C
  3
HIDETEXT
350
88B
  3
INDEXCTL
350
88A
  3
LAYEREVAL
350
887
  3
LAYERNOTIFY
350
888
  3
LIGHTINGUNITS
350
886
  3
MSLTSCALE
350
885
  3
SORTENTS
350
889
  3
XCLIPFRAME
350
88D
  0
XRECORD
  5
893
102
{ACAD_REACTORS
330
C
102
}
330
C
100
AcDbXrecord
280
     1
  1
DWGPROPS COOKIE
  2

  3

  4
KRA
  6

  7

  8

  9
-
300
Manager=
301
Company=
302
Category=
303
Part Number=P1610-S
304
Description=P SERIES BACK PANEL MASTER VIEW
305
Project=
306
Designer=KRA
307
Engineer=
308
Authority=
309
Cost Center=
 40
0.0000361689814815
 41
2455950.588900452
 42
2455950.588900452
  1

 90
       20
300
Vendor=
300
User Status=
300
Design Status=WorkInProgress
300
Checked by=JMG
300
Date Checked=02/12/2009
300
Engr Approved by=
300
Mfg Approved by=
300
DWG. NO=
300
NUMBER OF SHEETS=1
300
DRAWING #=1
  0
XRECORD
  5
8D0
102
{ACAD_REACTORS
330
8CF
102
}
330
8CF
100
AcDbXrecord
280
     1
 40
41495.0
  1
\A1;\U+22050.250{\PGROUND\P HOLE}
  0
LAYOUT
  5
6B
102
{ACAD_XDICTIONARY
360
8C9
102
}
102
{ACAD_REACTORS
330
62
102
}
330
62
100
AcDbPlotSettings
  1

  2

  4

  6

 40
0.0
 41
0.0
 42
0.0
 43
0.0
 44
0.0
 45
0.0
 46
0.0
 47
0.0
 48
0.0
 49
0.0
140
0.0
141
0.0
142
1.0
143
1.0
 70
   688
 72
     0
 73
     0
 74
     5
  7

 75
    16
147
1.0
148
0.0
149
0.0
100
AcDbLayout
  1
Layout1
 70
     1
 71
     1
 10
0.0
 20
0.0
 11
12.0
 21
9.0
 12
0.0
 22
0.0
 32
0.0
 14
0.0
 24
0.0
 34
0.0
 15
0.0
 25
0.0
 35
0.0
146
0.0
 13
0.0
 23
0.0
 33
0.0
 16
1.0
 26
0.0
 36
0.0
 17
0.0
 27
1.0
 37
0.0
 76
     0
330
68
  0
LAYOUT
  5
73
102
{ACAD_XDICTIONARY
360
8CD
102
}
102
{ACAD_REACTORS
330
62
102
}
330
62
100
AcDbPlotSettings
  1

  2

  4

  6

 40
0.0
 41
0.0
 42
0.0
 43
0.0
 44
0.0
 45
0.0
 46
0.0
 47
0.0
 48
0.0
 49
0.0
140
0.0
141
0.0
142
1.0
143
1.0
 70
   688
 72
     0
 73
     0
 74
     5
  7

 75
    16
147
1.0
148
0.0
149
0.0
100
AcDbLayout
  1
Layout2
 70
     1
 71
     2
 10
0.0
 20
0.0
 11
12.0
 21
9.0
 12
0.0
 22
0.0
 32
0.0
 14
0.0
 24
0.0
 34
0.0
 15
0.0
 25
0.0
 35
0.0
146
0.0
 13
0.0
 23
0.0
 33
0.0
 16
1.0
 26
0.0
 36
0.0
 17
0.0
 27
1.0
 37
0.0
 76
     0
330
70
  0
LAYOUT
  5
6F
102
{ACAD_XDICTIONARY
360
8CB
102
}
102
{ACAD_REACTORS
330
62
102
}
330
62
100
AcDbPlotSettings
  1

  2

  4

  6

 40
0.0
 41
0.0
 42
0.0
 43
0.0
 44
0.0
 45
0.0
 46
0.0
 47
0.0
 48
0.0
 49
0.0
140
0.0
141
0.0
142
1.0
143
1.0
 70
  1712
 72
     0
 73
     0
 74
     0
  7

 75
     0
147
1.0
148
0.0
149
0.0
100
AcDbLayout
  1
Model
 70
     1
 71
     0
 10
0.0
 20
0.0
 11
12.0
 21
9.0
 12
0.0
 22
0.0
 32
0.0
 14
0.0
 24
0.0
 34
0.0
 15
0.0
 25
0.0
 35
0.0
146
0.0
 13
0.0
 23
0.0
 33
0.0
 16
1.0
 26
0.0
 36
0.0
 17
0.0
 27
1.0
 37
0.0
 76
     0
330
6C
  0
MATERIAL
  5
19
102
{ACAD_XDICTIONARY
360
1A
102
}
102
{ACAD_REACTORS
330
10
102
}
330
10
100
AcDbMaterial
  1
ByBlock
 72
     0
 43
0.0208333333333333
 43
0.0
 43
0.0
 43
0.0
 43
0.0
 43
0.0208333333333333
 43
0.0
 43
0.0
 43
0.0
 43
0.0
 43
1.0
 43
0.0
 43
0.0
 43
0.0
 43
0.0
 43
1.0
 77
     0
 47
0.0208333333333333
 47
0.0
 47
0.0
 47
0.0
 47
0.0
 47
0.0208333333333333
 47
0.0
 47
0.0
 47
0.0
 47
0.0
 47
1.0
 47
0.0
 47
0.0
 47
0.0
 47
0.0
 47
1.0
171
     0
 49
0.0208333333333333
 49
0.0
 49
0.0
 49
0.0
 49
0.0
 49
0.0208333333333333
 49
0.0
 49
0.0
 49
0.0
 49
0.0
 49
1.0
 49
0.0
 49
0.0
 49
0.0
 49
0.0
 49
1.0
175
     0
142
0.0208333333333333
142
0.0
142
0.0
142
0.0
142
0.0
142
0.0208333333333333
142
0.0
142
0.0
142
0.0
142
0.0
142
1.0
142
0.0
142
0.0
142
0.0
142
0.0
142
1.0
179
     0
144
0.0208333333333333
144
0.0
144
0.0
144
0.0
144
0.0
144
0.0208333333333333
144
0.0
144
0.0
144
0.0
144
0.0
144
1.0
144
0.0
144
0.0
144
0.0
144
0.0
144
1.0
147
0.0208333333333333
147
0.0
147
0.0
147
0.0
147
0.0
147
0.0208333333333333
147
0.0
147
0.0
147
0.0
147
0.0
147
1.0
147
0.0
147
0.0
147
0.0
147
0.0
147
1.0
  0
MATERIAL
  5
11
102
{ACAD_XDICTIONARY
360
12
102
}
102
{ACAD_REACTORS
330
10
102
}
330
10
100
AcDbMaterial
  1
ByLayer
 72
     0
 43
0.0208333333333333
 43
0.0
 43
0.0
 43
0.0
 43
0.0
 43
0.0208333333333333
 43
0.0
 43
0.0
 43
0.0
 43
0.0
 43
1.0
 43
0.0
 43
0.0
 43
0.0
 43
0.0
 43
1.0
 77
     0
 47
0.0208333333333333
 47
0.0
 47
0.0
 47
0.0
 47
0.0
 47
0.0208333333333333
 47
0.0
 47
0.0
 47
0.0
 47
0.0
 47
1.0
 47
0.0
 47
0.0
 47
0.0
 47
0.0
 47
1.0
171
     0
 49
0.0208333333333333
 49
0.0
 49
0.0
 49
0.0
 49
0.0
 49
0.0208333333333333
 49
0.0
 49
0.0
 49
0.0
 49
0.0
 49
1.0
 49
0.0
 49
0.0
 49
0.0
 49
0.0
 49
1.0
175
     0
142
0.0208333333333333
142
0.0
142
0.0
142
0.0
142
0.0
142
0.0208333333333333
142
0.0
142
0.0
142
0.0
142
0.0
142
1.0
142
0.0
142
0.0
142
0.0
142
0.0
142
1.0
179
     0
144
0.0208333333333333
144
0.0
144
0.0
144
0.0
144
0.0
144
0.0208333333333333
144
0.0
144
0.0
144
0.0
144
0.0
144
1.0
144
0.0
144
0.0
144
0.0
144
0.0
144
1.0
147
0.0208333333333333
147
0.0
147
0.0
147
0.0
147
0.0
147
0.0208333333333333
147
0.0
147
0.0
147
0.0
147
0.0
147
1.0
147
0.0
147
0.0
147
0.0
147
0.0
147
1.0
  0
MATERIAL
  5
21
102
{ACAD_XDICTIONARY
360
22
102
}
102
{ACAD_REACTORS
330
10
102
}
330
10
100
AcDbMaterial
  1
Global
 72
     0
 43
0.0208333333333333
 43
0.0
 43
0.0
 43
0.0
 43
0.0
 43
0.0208333333333333
 43
0.0
 43
0.0
 43
0.0
 43
0.0
 43
1.0
 43
0.0
 43
0.0
 43
0.0
 43
0.0
 43
1.0
 77
     0
 47
0.0208333333333333
 47
0.0
 47
0.0
 47
0.0
 47
0.0
 47
0.0208333333333333
 47
0.0
 47
0.0
 47
0.0
 47
0.0
 47
1.0
 47
0.0
 47
0.0
 47
0.0
 47
0.0
 47
1.0
171
     0
 49
0.0208333333333333
 49
0.0
 49
0.0
 49
0.0
 49
0.0
 49
0.0208333333333333
 49
0.0
 49
0.0
 49
0.0
 49
0.0
 49
1.0
 49
0.0
 49
0.0
 49
0.0
 49
0.0
 49
1.0
175
     0
142
0.0208333333333333
142
0.0
142
0.0
142
0.0
142
0.0
142
0.0208333333333333
142
0.0
142
0.0
142
0.0
142
0.0
142
1.0
142
0.0
142
0.0
142
0.0
142
0.0
142
1.0
179
     0
144
0.0208333333333333
144
0.0
144
0.0
144
0.0
144
0.0
144
0.0208333333333333
144
0.0
144
0.0
144
0.0
144
0.0
144
1.0
144
0.0
144
0.0
144
0.0
144
0.0
144
1.0
147
0.0208333333333333
147
0.0
147
0.0
147
0.0
147
0.0
147
0.0208333333333333
147
0.0
147
0.0
147
0.0
147
0.0
147
1.0
147
0.0
147
0.0
147
0.0
147
0.0
147
1.0
  0
MLEADERSTYLE
  5
67
102
{ACAD_XDICTIONARY
360
890
102
}
102
{ACAD_REACTORS
330
66
102
}
330
66
100
AcDbMLeaderStyle
170
     2
171
     1
172
     0
 90
        2
 40
0.0
 41
0.0
173
     1
 91
-1056964608
340
5B
 92
       -2
290
     1
 42
0.09
291
     1
 43
0.36
  3
Standard
 44
0.18
300

342
55
174
     1
178
     6
175
     1
176
     0
 93
-1056964608
 45
0.18
292
     0
297
     0
 46
0.18
 94
-1056964608
 47
1.0
 49
1.0
140
1.0
293
     1
141
0.0
294
     1
177
     0
142
1.0
295
     0
296
     0
143
0.125
1001
ACAD_MLEADERVER
1070
     2
  0
MLINESTYLE
  5
60
102
{ACAD_REACTORS
330
5F
102
}
330
5F
100
AcDbMlineStyle
  2
STANDARD
 70
     0
  3

 62
   256
 51
90.0
 52
90.0
 71
     2
 49
0.5
 62
   256
  6
BYLAYER
 49
-0.5
 62
   256
  6
BYLAYER
  0
ACDBPLACEHOLDER
  5
F
102
{ACAD_REACTORS
330
E
102
}
330
E
  0
SCALE
  5
43
102
{ACAD_REACTORS
330
42
102
}
330
42
100
AcDbScale
 70
     0
300
1:1
140
1.0
141
1.0
290
     1
  0
SCALE
  5
44
102
{ACAD_REACTORS
330
42
102
}
330
42
100
AcDbScale
 70
     0
300
1/128" = 1'-0"
140
0.0078125
141
12.0
290
     0
  0
SCALE
  5
45
102
{ACAD_REACTORS
330
42
102
}
330
42
100
AcDbScale
 70
     0
300
1/64" = 1'-0"
140
0.015625
141
12.0
290
     0
  0
SCALE
  5
46
102
{ACAD_REACTORS
330
42
102
}
330
42
100
AcDbScale
 70
     0
300
1/32" = 1'-0"
140
0.03125
141
12.0
290
     0
  0
SCALE
  5
47
102
{ACAD_REACTORS
330
42
102
}
330
42
100
AcDbScale
 70
     0
300
1/16" = 1'-0"
140
0.0625
141
12.0
290
     0
  0
SCALE
  5
48
102
{ACAD_REACTORS
330
42
102
}
330
42
100
AcDbScale
 70
     0
300
3/32" = 1'-0"
140
0.09375
141
12.0
290
     0
  0
SCALE
  5
49
102
{ACAD_REACTORS
330
42
102
}
330
42
100
AcDbScale
 70
     0
300
1/8" = 1'-0"
140
0.125
141
12.0
290
     0
  0
SCALE
  5
4A
102
{ACAD_REACTORS
330
42
102
}
330
42
100
AcDbScale
 70
     0
300
3/16" = 1'-0"
140
0.1875
141
12.0
290
     0
  0
SCALE
  5
4B
102
{ACAD_REACTORS
330
42
102
}
330
42
100
AcDbScale
 70
     0
300
1/4" = 1'-0"
140
0.25
141
12.0
290
     0
  0
SCALE
  5
4C
102
{ACAD_REACTORS
330
42
102
}
330
42
100
AcDbScale
 70
     0
300
3/8" = 1'-0"
140
0.375
141
12.0
290
     0
  0
SCALE
  5
4D
102
{ACAD_REACTORS
330
42
102
}
330
42
100
AcDbScale
 70
     0
300
1/2" = 1'-0"
140
0.5
141
12.0
290
     0
  0
SCALE
  5
4E
102
{ACAD_REACTORS
330
42
102
}
330
42
100
AcDbScale
 70
     0
300
3/4" = 1'-0"
140
0.75
141
12.0
290
     0
  0
SCALE
  5
4F
102
{ACAD_REACTORS
330
42
102
}
330
42
100
AcDbScale
 70
     0
300
1" = 1'-0"
140
1.0
141
12.0
290
     0
  0
SCALE
  5
50
102
{ACAD_REACTORS
330
42
102
}
330
42
100
AcDbScale
 70
     0
300
1-1/2" = 1'-0"
140
1.5
141
12.0
290
     0
  0
SCALE
  5
51
102
{ACAD_REACTORS
330
42
102
}
330
42
100
AcDbScale
 70
     0
300
3" = 1'-0"
140
3.0
141
12.0
290
     0
  0
SCALE
  5
52
102
{ACAD_REACTORS
330
42
102
}
330
42
100
AcDbScale
 70
     0
300
6" = 1'-0"
140
6.0
141
12.0
290
     0
  0
SCALE
  5
53
102
{ACAD_REACTORS
330
42
102
}
330
42
100
AcDbScale
 70
     0
300
1'-0" = 1'-0"
140
12.0
141
12.0
290
     0
  0
TABLESTYLE
  5
65
102
{ACAD_XDICTIONARY
360
88E
102
}
102
{ACAD_REACTORS
330
64
102
}
330
64
100
AcDbTableStyle
  3
Standard
 70
     0
 71
     0
 40
0.06
 41
0.06
280
     0
281
     0
  7
Standard
140
0.18
170
     2
 62
     0
 63
     7
283
     0
274
    -2
284
     1
 64
     0
275
    -2
285
     1
 65
     0
276
    -2
286
     1
 66
     0
277
    -2
287
     1
 67
     0
278
    -2
288
     1
 68
     0
279
    -2
289
     1
 69
     0
  7
Standard
140
0.25
170
     5
 62
     0
 63
     7
283
     0
274
    -2
284
     1
 64
     0
275
    -2
285
     1
 65
     0
276
    -2
286
     1
 66
     0
277
    -2
287
     1
 67
     0
278
    -2
288
     1
 68
     0
279
    -2
289
     1
 69
     0
  7
Standard
140
0.18
170
     5
 62
     0
 63
     7
283
     0
274
    -2
284
     1
 64
     0
275
    -2
285
     1
 65
     0
276
    -2
286
     1
 66
     0
277
    -2
287
     1
 67
     0
278
    -2
288
     1
 68
     0
279
    -2
289
     1
 69
     0
  0
VISUALSTYLE
  5
2F
102
{ACAD_XDICTIONARY
360
8A1
102
}
102
{ACAD_REACTORS
330
29
102
}
330
29
100
AcDbVisualStyle
  2
2dWireframe
 70
     4
 71
     0
 72
     2
 73
     0
 90
        0
 40
-0.6
 41
-30.0
 62
     5
 63
     7
 74
     1
 91
        4
 64
     7
 65
   257
 75
     1
175
     1
 42
1.0
 92
        0
 66
   257
 43
1.0
 76
     1
 77
     6
 78
     2
 67
     7
 79
     5
170
     0
171
     0
290
     0
174
     0
 93
        1
 44
0.0
173
     0
291
     0
 45
0.0
1001
ACAD
1000
AcDbSavedByObjectVersion
1070
     0
  0
VISUALSTYLE
  5
2E
102
{ACAD_XDICTIONARY
360
89F
102
}
102
{ACAD_REACTORS
330
29
102
}
330
29
100
AcDbVisualStyle
  2
Basic
 70
     7
 71
     1
 72
     0
 73
     1
 90
        0
 40
-0.6
 41
-30.0
 62
     5
 63
     7
 74
     0
 91
        4
 64
     7
 65
   257
 75
     1
175
     1
 42
1.0
 92
        8
 66
     7
 43
1.0
 76
     1
 77
     6
 78
     2
 67
     7
 79
     5
170
     0
171
     0
290
     0
174
     0
 93
        1
 44
0.0
173
     0
291
     1
 45
0.0
1001
ACAD
1000
AcDbSavedByObjectVersion
1070
     0
  0
VISUALSTYLE
  5
35
102
{ACAD_XDICTIONARY
360
8AD
102
}
102
{ACAD_REACTORS
330
29
102
}
330
29
100
AcDbVisualStyle
  2
Brighten
 70
    12
 71
     2
 72
     2
 73
     0
 90
        0
 40
-0.6
 41
-30.0
 62
     5
 63
     7
 74
     1
 91
        4
 64
     7
 65
   257
 75
     1
175
     1
 42
1.0
 92
        8
 66
     7
 43
1.0
 76
     1
 77
     6
 78
     2
 67
     7
 79
     5
170
     0
171
     0
290
     0
174
     0
 93
        1
 44
50.0
173
     0
291
     1
 45
0.0
1001
ACAD
1000
AcDbSavedByObjectVersion
1070
     0
  0
VISUALSTYLE
  5
39
102
{ACAD_XDICTIONARY
360
8B5
102
}
102
{ACAD_REACTORS
330
29
102
}
330
29
100
AcDbVisualStyle
  2
ColorChange
 70
    16
 71
     2
 72
     2
 73
     3
 90
        0
 40
-0.6
 41
-30.0
 62
     5
 63
     8
 74
     1
 91
        4
 64
     7
 65
   257
 75
     1
175
     1
 42
1.0
 92
        8
 66
     8
 43
1.0
 76
     1
 77
     6
 78
     2
 67
     7
 79
     5
170
     0
171
     0
290
     0
174
     0
 93
        1
 44
0.0
173
     0
291
     1
 45
0.0
1001
ACAD
1000
AcDbSavedByObjectVersion
1070
     0
  0
VISUALSTYLE
  5
32
102
{ACAD_XDICTIONARY
360
8A7
102
}
102
{ACAD_REACTORS
330
29
102
}
330
29
100
AcDbVisualStyle
  2
Conceptual
 70
     9
 71
     3
 72
     2
 73
     0
 90
        0
 40
-0.6
 41
-30.0
 62
     5
 63
     7
 74
     2
 91
        2
 64
     7
 65
   257
 75
     1
175
     1
 42
179.0
 92
        8
 66
     7
 43
1.0
 76
     1
 77
     6
 78
     2
 67
     7
 79
     3
170
     0
171
     0
290
     0
174
     0
 93
        1
 44
0.0
173
     0
291
     0
 45
0.0
1001
ACAD
1000
AcDbSavedByObjectVersion
1070
     0
  0
VISUALSTYLE
  5
34
102
{ACAD_XDICTIONARY
360
8AB
102
}
102
{ACAD_REACTORS
330
29
102
}
330
29
100
AcDbVisualStyle
  2
Dim
 70
    11
 71
     2
 72
     2
 73
     0
 90
        0
 40
-0.6
 41
-30.0
 62
     5
 63
     7
 74
     1
 91
        4
 64
     7
 65
   257
 75
     1
175
     1
 42
1.0
 92
        8
 66
     7
 43
1.0
 76
     1
 77
     6
 78
     2
 67
     7
 79
     5
170
     0
171
     0
290
     0
174
     0
 93
        1
 44
-50.0
173
     0
291
     1
 45
0.0
1001
ACAD
1000
AcDbSavedByObjectVersion
1070
     0
  0
VISUALSTYLE
  5
41
102
{ACAD_XDICTIONARY
360
8C5
102
}
102
{ACAD_REACTORS
330
29
102
}
330
29
100
AcDbVisualStyle
  2
EdgeColorOff
 70
    22
 71
     2
 72
     2
 73
     0
 90
        0
 40
-0.6
 41
-30.0
 62
     5
 63
     7
 74
     1
 91
        4
 64
     7
 65
   257
 75
     1
175
     1
 42
1.0
 92
        8
 66
     7
 43
1.0
 76
     1
 77
     6
 78
     2
 67
     7
 79
     5
170
     0
171
     0
290
     0
174
     0
 93
        1
 44
0.0
173
     0
291
     1
 45
0.0
1001
ACAD
1000
AcDbSavedByObjectVersion
1070
     0
  0
VISUALSTYLE
  5
38
102
{ACAD_XDICTIONARY
360
8B3
102
}
102
{ACAD_REACTORS
330
29
102
}
330
29
100
AcDbVisualStyle
  2
Facepattern
 70
    15
 71
     2
 72
     2
 73
     0
 90
        0
 40
-0.6
 41
-30.0
 62
     5
 63
     7
 74
     1
 91
        4
 64
     7
 65
   257
 75
     1
175
     1
 42
1.0
 92
        8
 66
     7
 43
1.0
 76
     1
 77
     6
 78
     2
 67
     7
 79
     5
170
     0
171
     0
290
     0
174
     0
 93
        1
 44
0.0
173
     0
291
     1
 45
0.0
1001
ACAD
1000
AcDbSavedByObjectVersion
1070
     0
  0
VISUALSTYLE
  5
2A
102
{ACAD_XDICTIONARY
360
897
102
}
102
{ACAD_REACTORS
330
29
102
}
330
29
100
AcDbVisualStyle
  2
Flat
 70
     0
 71
     2
 72
     1
 73
     1
 90
        2
 40
-0.6
 41
30.0
 62
     5
 63
     7
 74
     0
 91
        0
 64
     7
 65
   257
 75
     1
175
     1
 42
1.0
 92
        8
 66
     7
 43
1.0
 76
     1
 77
     6
 78
     2
 67
     7
 79
     5
170
     0
171
     0
290
     0
174
     0
 93
       13
 44
0.0
173
     0
291
     1
 45
0.0
1001
ACAD
1000
AcDbSavedByObjectVersion
1070
     0
  0
VISUALSTYLE
  5
2B
102
{ACAD_XDICTIONARY
360
899
102
}
102
{ACAD_REACTORS
330
29
102
}
330
29
100
AcDbVisualStyle
  2
FlatWithEdges
 70
     1
 71
     2
 72
     1
 73
     1
 90
        2
 40
-0.6
 41
30.0
 62
     5
 63
     7
 74
     1
 91
        0
 64
     7
 65
   257
 75
     1
175
     1
 42
1.0
 92
        0
 66
   257
 43
1.0
 76
     1
 77
     6
 78
     2
 67
     7
 79
     5
170
     0
171
     0
290
     0
174
     0
 93
       13
 44
0.0
173
     0
291
     1
 45
0.0
1001
ACAD
1000
AcDbSavedByObjectVersion
1070
     0
  0
VISUALSTYLE
  5
2C
102
{ACAD_XDICTIONARY
360
89B
102
}
102
{ACAD_REACTORS
330
29
102
}
330
29
100
AcDbVisualStyle
  2
Gouraud
 70
     2
 71
     2
 72
     2
 73
     1
 90
        2
 40
-0.6
 41
30.0
 62
     5
 63
     7
 74
     0
 91
        0
 64
     7
 65
   257
 75
     1
175
     1
 42
1.0
 92
        0
 66
     7
 43
1.0
 76
     1
 77
     6
 78
     2
 67
     7
 79
     5
170
     0
171
     0
290
     0
174
     0
 93
       13
 44
0.0
173
     0
291
     1
 45
0.0
1001
ACAD
1000
AcDbSavedByObjectVersion
1070
     0
  0
VISUALSTYLE
  5
2D
102
{ACAD_XDICTIONARY
360
89D
102
}
102
{ACAD_REACTORS
330
29
102
}
330
29
100
AcDbVisualStyle
  2
GouraudWithEdges
 70
     3
 71
     2
 72
     2
 73
     1
 90
        2
 40
-0.6
 41
30.0
 62
     5
 63
     7
 74
     1
 91
        0
 64
     7
 65
   257
 75
     1
175
     1
 42
1.0
 92
        0
 66
   257
 43
1.0
 76
     1
 77
     6
 78
     2
 67
     7
 79
     5
170
     0
171
     0
290
     0
174
     0
 93
       13
 44
0.0
173
     0
291
     1
 45
0.0
1001
ACAD
1000
AcDbSavedByObjectVersion
1070
     0
  0
VISUALSTYLE
  5
31
102
{ACAD_XDICTIONARY
360
8A5
102
}
102
{ACAD_REACTORS
330
29
102
}
330
29
100
AcDbVisualStyle
  2
Hidden
 70
     6
 71
     1
 72
     2
 73
     2
 90
        0
 40
-0.6
 41
-30.0
 62
     5
 63
     7
 74
     2
 91
        2
 64
     7
 65
   257
 75
     2
175
     1
 42
40.0
 92
        0
 66
   257
 43
1.0
 76
     1
 77
     6
 78
     2
 67
     7
 79
     3
170
     0
171
     0
290
     0
174
     0
 93
        1
 44
0.0
173
     0
291
     0
 45
0.0
1001
ACAD
1000
AcDbSavedByObjectVersion
1070
     0
  0
VISUALSTYLE
  5
3F
102
{ACAD_XDICTIONARY
360
8C1
102
}
102
{ACAD_REACTORS
330
29
102
}
330
29
100
AcDbVisualStyle
  2
JitterOff
 70
    20
 71
     2
 72
     2
 73
     0
 90
        0
 40
-0.6
 41
-30.0
 62
     5
 63
     7
 74
     1
 91
        4
 64
     7
 65
   257
 75
     1
175
     1
 42
1.0
 92
       10
 66
     7
 43
1.0
 76
     1
 77
     6
 78
     2
 67
     7
 79
     5
170
     0
171
     0
290
     0
174
     0
 93
        1
 44
0.0
173
     0
291
     1
 45
0.0
1001
ACAD
1000
AcDbSavedByObjectVersion
1070
     0
  0
VISUALSTYLE
  5
37
102
{ACAD_XDICTIONARY
360
8B1
102
}
102
{ACAD_REACTORS
330
29
102
}
330
29
100
AcDbVisualStyle
  2
Linepattern
 70
    14
 71
     2
 72
     2
 73
     0
 90
        0
 40
-0.6
 41
-30.0
 62
     5
 63
     7
 74
     1
 91
        4
 64
     7
 65
   257
 75
     7
175
     7
 42
1.0
 92
        8
 66
     7
 43
1.0
 76
     1
 77
     6
 78
     2
 67
     7
 79
     5
170
     0
171
     0
290
     0
174
     0
 93
        1
 44
0.0
173
     0
291
     1
 45
0.0
1001
ACAD
1000
AcDbSavedByObjectVersion
1070
     0
  0
VISUALSTYLE
  5
40
102
{ACAD_XDICTIONARY
360
8C3
102
}
102
{ACAD_REACTORS
330
29
102
}
330
29
100
AcDbVisualStyle
  2
OverhangOff
 70
    21
 71
     2
 72
     2
 73
     0
 90
        0
 40
-0.6
 41
-30.0
 62
     5
 63
     7
 74
     1
 91
        4
 64
     7
 65
   257
 75
     1
175
     1
 42
1.0
 92
        9
 66
     7
 43
1.0
 76
     1
 77
     6
 78
     2
 67
     7
 79
     5
170
     0
171
     0
290
     0
174
     0
 93
        1
 44
0.0
173
     0
291
     1
 45
0.0
1001
ACAD
1000
AcDbSavedByObjectVersion
1070
     0
  0
VISUALSTYLE
  5
33
102
{ACAD_XDICTIONARY
360
8A9
102
}
102
{ACAD_REACTORS
330
29
102
}
330
29
100
AcDbVisualStyle
  2
Realistic
 70
     8
 71
     2
 72
     3
 73
     0
 90
        2
 40
-0.6
 41
30.0
 62
     5
 63
     7
 74
     0
 91
        0
 64
     7
 65
   257
 75
     1
175
     1
 42
1.0
 92
        8
 66
   257
 43
1.0
 76
     1
 77
     6
 78
     2
 67
     7
 79
     3
170
     0
171
     0
290
     0
174
     0
 93
       13
 44
0.0
173
     0
291
     0
 45
0.0
1001
ACAD
1000
AcDbSavedByObjectVersion
1070
     0
  0
VISUALSTYLE
  5
3E
102
{ACAD_XDICTIONARY
360
8BF
102
}
102
{ACAD_REACTORS
330
29
102
}
330
29
100
AcDbVisualStyle
  2
Shaded
 70
    27
 71
     2
 72
     2
 73
     1
 90
        2
 40
-0.6
 41
30.0
 62
     5
 63
     7
 74
     0
 91
        4
 64
     7
 65
   257
 75
     1
175
     1
 42
1.0
 92
        8
 66
   257
 43
1.0
 76
     1
 77
     6
 78
     2
 67
     8
 79
     3
170
     0
171
     0
290
     0
174
     0
 93
        5
 44
0.0
173
     0
291
     0
 45
0.0
1001
ACAD
1000
AcDbSavedByObjectVersion
1070
     0
  0
VISUALSTYLE
  5
3D
102
{ACAD_XDICTIONARY
360
8BD
102
}
102
{ACAD_REACTORS
330
29
102
}
330
29
100
AcDbVisualStyle
  2
Shaded with edges
 70
    26
 71
     2
 72
     2
 73
     1
 90
        2
 40
-0.6
 41
30.0
 62
     5
 63
     7
 74
     1
 91
       10
 64
     7
 65
   257
 75
     2
175
     1
 42
1.0
 92
        8
 66
   257
 43
1.0
 76
     1
 77
     6
 78
     2
 67
     7
 79
     3
170
     0
171
     0
290
     0
174
     0
 93
        5
 44
0.0
173
     0
291
     0
 45
0.0
1001
ACAD
1000
AcDbSavedByObjectVersion
1070
     0
  0
VISUALSTYLE
  5
3A
102
{ACAD_XDICTIONARY
360
8B7
102
}
102
{ACAD_REACTORS
330
29
102
}
330
29
100
AcDbVisualStyle
  2
Shades of Gray
 70
    23
 71
     2
 72
     2
 73
     3
 90
        0
 40
-0.6
 41
-30.0
 62
     5
 63
     7
 74
     2
 91
        2
 64
     7
 65
     7
 75
     1
175
     1
 42
40.0
 92
        8
 66
     7
 43
1.0
 76
     1
 77
     6
 78
     2
 67
     7
 79
     3
170
     0
171
     0
290
     0
174
     0
 93
        1
 44
0.0
173
     0
291
     0
 45
0.0
1001
ACAD
1000
AcDbSavedByObjectVersion
1070
     0
  0
VISUALSTYLE
  5
3B
102
{ACAD_XDICTIONARY
360
8B9
102
}
102
{ACAD_REACTORS
330
29
102
}
330
29
100
AcDbVisualStyle
  2
Sketchy
 70
    24
 71
     1
 72
     2
 73
     2
 90
        0
 40
-0.6
 41
-30.0
 62
     5
 63
     7
 74
     2
 91
        2
 64
     7
 65
     7
 75
     1
175
     1
 42
40.0
 92
       11
 66
     7
 43
1.0
 76
     1
 77
     6
 78
     2
 67
     7
 79
     6
170
     0
171
     0
290
     0
174
     0
 93
        1
 44
0.0
173
     0
291
     0
 45
0.0
1001
ACAD
1000
AcDbSavedByObjectVersion
1070
     0
  0
VISUALSTYLE
  5
36
102
{ACAD_XDICTIONARY
360
8AF
102
}
102
{ACAD_REACTORS
330
29
102
}
330
29
100
AcDbVisualStyle
  2
Thicken
 70
    13
 71
     2
 72
     2
 73
     0
 90
        0
 40
-0.6
 41
-30.0
 62
     5
 63
     7
 74
     1
 91
        4
 64
     7
 65
   257
 75
     1
175
     1
 42
1.0
 92
       12
 66
     7
 43
1.0
 76
     1
 77
     6
 78
     2
 67
     7
 79
     5
170
     0
171
     0
290
     0
174
     0
 93
        1
 44
0.0
173
     0
291
     1
 45
0.0
1001
ACAD
1000
AcDbSavedByObjectVersion
1070
     0
  0
VISUALSTYLE
  5
30
102
{ACAD_XDICTIONARY
360
8A3
102
}
102
{ACAD_REACTORS
330
29
102
}
330
29
100
AcDbVisualStyle
  2
Wireframe
 70
     5
 71
     0
 72
     2
 73
     0
 90
        0
 40
-0.6
 41
-30.0
 62
     5
 63
     7
 74
     1
 91
        4
 64
     7
 65
   257
 75
     1
175
     1
 42
1.0
 92
        0
 66
   257
 43
1.0
 76
     1
 77
     6
 78
     2
 67
     7
 79
     3
170
     0
171
     0
290
     0
174
     0
 93
        1
 44
0.0
173
     0
291
     0
 45
0.0
1001
ACAD
1000
AcDbSavedByObjectVersion
1070
     0
  0
VISUALSTYLE
  5
3C
102
{ACAD_XDICTIONARY
360
8BB
102
}
102
{ACAD_REACTORS
330
29
102
}
330
29
100
AcDbVisualStyle
  2
X-Ray
 70
    25
 71
     2
 72
     2
 73
     1
 90
        1
 40
0.5
 41
-30.0
 62
     5
 63
     7
 74
     1
 91
        0
 64
     7
 65
   257
 75
     1
175
     1
 42
1.0
 92
        8
 66
     7
 43
1.0
 76
     1
 77
     6
 78
     2
 67
     7
 79
     3
170
     0
171
     0
290
     0
174
     0
 93
       13
 44
0.0
173
     0
291
     0
 45
0.0
1001
ACAD
1000
AcDbSavedByObjectVersion
1070
     0
  0
DICTIONARYVAR
  5
79
102
{ACAD_REACTORS
330
76
102
}
330
76
100
DictionaryVariables
280
     0
  1
1:1
  0
DICTIONARYVAR
  5
78
102
{ACAD_REACTORS
330
76
102
}
330
76
100
DictionaryVariables
280
     0
  1
STANDARD
  0
DICTIONARYVAR
  5
77
102
{ACAD_REACTORS
330
76
102
}
330
76
100
DictionaryVariables
280
     0
  1
STANDARD
  0
DICTIONARYVAR
  5
88C
102
{ACAD_REACTORS
330
76
102
}
330
76
100
DictionaryVariables
280
     0
  1
1
  0
DICTIONARYVAR
  5
88B
102
{ACAD_REACTORS
330
76
102
}
330
76
100
DictionaryVariables
280
     0
  1
1
  0
DICTIONARYVAR
  5
88A
102
{ACAD_REACTORS
330
76
102
}
330
76
100
DictionaryVariables
280
     0
  1
0
  0
DICTIONARYVAR
  5
887
102
{ACAD_REACTORS
330
76
102
}
330
76
100
DictionaryVariables
280
     0
  1
0
  0
DICTIONARYVAR
  5
888
102
{ACAD_REACTORS
330
76
102
}
330
76
100
DictionaryVariables
280
     0
  1
0
  0
DICTIONARYVAR
  5
886
102
{ACAD_REACTORS
330
76
102
}
330
76
100
DictionaryVariables
280
     0
  1
2
  0
DICTIONARYVAR
  5
885
102
{ACAD_REACTORS
330
76
102
}
330
76
100
DictionaryVariables
280
     0
  1
1
  0
DICTIONARYVAR
  5
889
102
{ACAD_REACTORS
330
76
102
}
330
76
100
DictionaryVariables
280
     0
  1
127
  0
DICTIONARYVAR
  5
88D
102
{ACAD_REACTORS
330
76
102
}
330
76
100
DictionaryVariables
280
     0
  1
2
  0
DICTIONARY
  5
8C9
330
6B
100
AcDbDictionary
280
     1
281
     1
  3
ACAD_XREC_ROUNDTRIP
360
8CA
  0
DICTIONARY
  5
8CD
330
73
100
AcDbDictionary
280
     1
281
     1
  3
ACAD_XREC_ROUNDTRIP
360
8CE
  0
DICTIONARY
  5
8CB
330
6F
100
AcDbDictionary
280
     1
281
     1
  3
ACAD_XREC_ROUNDTRIP
360
8CC
  0
DICTIONARY
  5
1A
330
19
100
AcDbDictionary
280
     1
281
     1
  3
ACAD_XREC_ROUNDTRIP
360
895
  3
BUMPTILE
360
1C
  3
DIFFUSETILE
360
1B
  3
OPACITYTILE
360
1F
  3
REFLECTIONTILE
360
1E
  3
REFRACTIONTILE
360
20
  3
SPECULARTILE
360
1D
  0
DICTIONARY
  5
12
330
11
100
AcDbDictionary
280
     1
281
     1
  3
ACAD_XREC_ROUNDTRIP
360
894
  3
BUMPTILE
360
14
  3
DIFFUSETILE
360
13
  3
FBXASSET
360
10B
  3
OPACITYTILE
360
17
  3
REFLECTIONTILE
360
16
  3
REFRACTIONTILE
360
18
  3
SPECULARTILE
360
15
  0
DICTIONARY
  5
22
330
21
100
AcDbDictionary
280
     1
281
     1
  3
ACAD_XREC_ROUNDTRIP
360
896
  3
BUMPTILE
360
24
  3
DIFFUSETILE
360
23
  3
FBXASSET
360
BA
  3
OPACITYTILE
360
27
  3
REFLECTIONTILE
360
26
  3
REFRACTIONTILE
360
28
  3
SPECULARTILE
360
25
  0
DICTIONARY
  5
890
330
67
100
AcDbDictionary
280
     1
281
     1
  3
ACAD_XREC_ROUNDTRIP
360
891
  0
DICTIONARY
  5
88E
330
65
100
AcDbDictionary
280
     1
281
     1
  3
ACAD_ROUNDTRIP_2008_TABLESTYLE_CELLSTYLEMAP
360
88F
  3
ACAD_XREC_ROUNDTRIP
360
8C7
  0
DICTIONARY
  5
8A1
330
2F
100
AcDbDictionary
280
     1
281
     1
  3
ACAD_XREC_ROUNDTRIP
360
8A2
  0
DICTIONARY
  5
89F
330
2E
100
AcDbDictionary
280
     1
281
     1
  3
ACAD_XREC_ROUNDTRIP
360
8A0
  0
DICTIONARY
  5
8AD
330
35
100
AcDbDictionary
280
     1
281
     1
  3
ACAD_XREC_ROUNDTRIP
360
8AE
  0
DICTIONARY
  5
8B5
330
39
100
AcDbDictionary
280
     1
281
     1
  3
ACAD_XREC_ROUNDTRIP
360
8B6
  0
DICTIONARY
  5
8A7
330
32
100
AcDbDictionary
280
     1
281
     1
  3
ACAD_XREC_ROUNDTRIP
360
8A8
  0
DICTIONARY
  5
8AB
330
34
100
AcDbDictionary
280
     1
281
     1
  3
ACAD_XREC_ROUNDTRIP
360
8AC
  0
DICTIONARY
  5
8C5
330
41
100
AcDbDictionary
280
     1
281
     1
  3
ACAD_XREC_ROUNDTRIP
360
8C6
  0
DICTIONARY
  5
8B3
330
38
100
AcDbDictionary
280
     1
281
     1
  3
ACAD_XREC_ROUNDTRIP
360
8B4
  0
DICTIONARY
  5
897
330
2A
100
AcDbDictionary
280
     1
281
     1
  3
ACAD_XREC_ROUNDTRIP
360
898
  0
DICTIONARY
  5
899
330
2B
100
AcDbDictionary
280
     1
281
     1
  3
ACAD_XREC_ROUNDTRIP
360
89A
  0
DICTIONARY
  5
89B
330
2C
100
AcDbDictionary
280
     1
281
     1
  3
ACAD_XREC_ROUNDTRIP
360
89C
  0
DICTIONARY
  5
89D
330
2D
100
AcDbDictionary
280
     1
281
     1
  3
ACAD_XREC_ROUNDTRIP
360
89E
  0
DICTIONARY
  5
8A5
330
31
100
AcDbDictionary
280
     1
281
     1
  3
ACAD_XREC_ROUNDTRIP
360
8A6
  0
DICTIONARY
  5
8C1
330
3F
100
AcDbDictionary
280
     1
281
     1
  3
ACAD_XREC_ROUNDTRIP
360
8C2
  0
DICTIONARY
  5
8B1
330
37
100
AcDbDictionary
280
     1
281
     1
  3
ACAD_XREC_ROUNDTRIP
360
8B2
  0
DICTIONARY
  5
8C3
330
40
100
AcDbDictionary
280
     1
281
     1
  3
ACAD_XREC_ROUNDTRIP
360
8C4
  0
DICTIONARY
  5
8A9
330
33
100
AcDbDictionary
280
     1
281
     1
  3
ACAD_XREC_ROUNDTRIP
360
8AA
  0
DICTIONARY
  5
8BF
330
3E
100
AcDbDictionary
280
     1
281
     1
  3
ACAD_XREC_ROUNDTRIP
360
8C0
  0
DICTIONARY
  5
8BD
330
3D
100
AcDbDictionary
280
     1
281
     1
  3
ACAD_XREC_ROUNDTRIP
360
8BE
  0
DICTIONARY
  5
8B7
330
3A
100
AcDbDictionary
280
     1
281
     1
  3
ACAD_XREC_ROUNDTRIP
360
8B8
  0
DICTIONARY
  5
8B9
330
3B
100
AcDbDictionary
280
     1
281
     1
  3
ACAD_XREC_ROUNDTRIP
360
8BA
  0
DICTIONARY
  5
8AF
330
36
100
AcDbDictionary
280
     1
281
     1
  3
ACAD_XREC_ROUNDTRIP
360
8B0
  0
DICTIONARY
  5
8A3
330
30
100
AcDbDictionary
280
     1
281
     1
  3
ACAD_XREC_ROUNDTRIP
360
8A4
  0
DICTIONARY
  5
8BB
330
3C
100
AcDbDictionary
280
     1
281
     1
  3
ACAD_XREC_ROUNDTRIP
360
8BC
  0
XRECORD
  5
8CA
102
{ACAD_REACTORS
330
8C9
102
}
330
8C9
100
AcDbXrecord
280
     1
102
SHADEPLOT
 70
     0
102
SHADEPLOTRESLEVEL
 70
     2
102
SHADEPLOTCUSTOMDPI
 70
   300
  0
XRECORD
  5
8CE
102
{ACAD_REACTORS
330
8CD
102
}
330
8CD
100
AcDbXrecord
280
     1
102
SHADEPLOT
 70
     0
102
SHADEPLOTRESLEVEL
 70
     2
102
SHADEPLOTCUSTOMDPI
 70
   300
  0
XRECORD
  5
8CC
102
{ACAD_REACTORS
330
8CB
102
}
330
8CB
100
AcDbXrecord
280
     1
102
SHADEPLOT
 70
     0
102
SHADEPLOTRESLEVEL
 70
     2
102
SHADEPLOTCUSTOMDPI
 70
   300
  0
XRECORD
  5
895
102
{ACAD_REACTORS
330
1A
102
}
330
1A
100
AcDbXrecord
280
     1
102
MATERIAL
148
0.0
149
0.0
149
0.0
 93
        0
 94
      127
282
     0
 72
     0
 77
     0
171
     0
175
     0
179
     0
273
     0
  0
XRECORD
  5
1C
102
{ACAD_REACTORS
330
1A
102
}
330
1A
100
AcDbXrecord
280
     1
270
     1
271
     1
  0
XRECORD
  5
1B
102
{ACAD_REACTORS
330
1A
102
}
330
1A
100
AcDbXrecord
280
     1
270
     1
271
     1
  0
XRECORD
  5
1F
102
{ACAD_REACTORS
330
1A
102
}
330
1A
100
AcDbXrecord
280
     1
270
     1
271
     1
  0
XRECORD
  5
1E
102
{ACAD_REACTORS
330
1A
102
}
330
1A
100
AcDbXrecord
280
     1
270
     1
271
     1
  0
XRECORD
  5
20
102
{ACAD_REACTORS
330
1A
102
}
330
1A
100
AcDbXrecord
280
     1
270
     1
271
     1
  0
XRECORD
  5
1D
102
{ACAD_REACTORS
330
1A
102
}
330
1A
100
AcDbXrecord
280
     1
270
     1
271
     1
  0
XRECORD
  5
894
102
{ACAD_REACTORS
330
12
102
}
330
12
100
AcDbXrecord
280
     1
102
MATERIAL
148
0.0
149
0.0
149
0.0
 93
        0
 94
      127
282
     0
 72
     0
 77
     0
171
     0
175
     0
179
     0
273
     0
  0
XRECORD
  5
14
102
{ACAD_REACTORS
330
12
102
}
330
12
100
AcDbXrecord
280
     1
270
     1
271
     1
  0
XRECORD
  5
13
102
{ACAD_REACTORS
330
12
102
}
330
12
100
AcDbXrecord
280
     1
270
     1
271
     1
  0
XRECORD
  5
10B
102
{ACAD_REACTORS
330
12
102
}
330
12
100
AcDbXrecord
280
     1
 70
     1
 90
1959938040
 71
     1
  1
912BEA97-725C-478F-9C11-860C115FA0B5
311
504B03040A0000080000017137403DEE336E79000000790000001B0000006175746F6465736B2D64657369676E2D7061636B6167652E786D6C3C3F786D6C2076657273696F6E3D22312E302220656E636F64696E673D227574662D3822203F3E3C666F726D6174733E3C666F726D61743E687474703A2F2F736368656D612E
311
6175746F6465736B2E636F6D2F64657369676E2D7061636B6167652F323030393C2F666F726D61743E3C2F666F726D6174733E504B030414000608080001713740D486FD9CA0000000F4000000130000005B436F6E74656E745F54797065735D2E786D6C7D8EC10E82300C865F65E91D8A1E8C310C0EEA1BF002731658846E
311
D98AC1B77784ABF1D8FE5FBFBF75BBCE937A534CCEB38643598122B6FEE978D0B0485F9C41B54DDD7D022595594E1A469170414C76A4D9A4D207E29CF43ECE46F218070CC6BECC4078ACAA135ACF422C856C0E68EA1BF5669944DDD7BCDE7B1F8E415D77AECB980613C2E4AC91FC167A2B244592486606FC29C8FD7F045B9A
311
EF7053A7E60B504B030414000608080001713740310D59ACE90000007C01000008000000636F72652E786D6C8D90416EC3201045AF82668F0D26756C0B13C94E7A825E0001715162B00C543D7E71E248EDAEAB19FDF96F66F4F9E97BBEA32FB306EB5D0FB420808C535E5B37F590E21537804E82AFDEC75F36404ECEA6874D
311
06C1A7D5A765979477D1B89855E7B5D94519828980D43D373D04F5696659C814B323DC8A45AA9B9C4C415F5D8653B21A3D8F589DF7D9AB352B88F35037F5B1A5B83A8F477C206CC42DBB303CBC5346DAE1D2BC8D032F3758F068E7D77DB51A198D0651115A619271F6410F1D693AC230A93B4278B9D9FF4069D1FF84927591
311
55FBBB4F2C80A0F991C740F072CB22974750B96EB9891F504B03041400060808000171374055019EA25F0000007C00000007000000636E782E786D6C4DCB3B0E80201045D1AD90E915ED2CF8AC45050C11660C8261F98AB1B07AC9C97D42D718D865D3E909258CFD00CCE24AC6E326A164D74DC0B4128928FF326038472BA1
311
3128B1252AC747C6BAB984FC68F0B87FE8960A5C09FE86CFB69FBA01504B030414000608080001713740472FBC0165010000020300000C0000006662782F636F72652E786D6C8D52ED8E8320107C15C27F04B5D7AF204D6C7B4F702F40957AA40A06C1F4F16FFD68BC5E9AE662826466677776941FEE4D8D7AE53A6D4D86E3
311
8861A44C614B6DAA0C077F255B8C0E823B6BFDAF328C8C6C548607180B5E391BDA192AACF1CA78408D2DD50CCAAE531EA3A2864B86BBE25B353292C14345778B5A59DC64A5A238021AEA04EFBC0303681A329C585C2F774E275CF0107439B3BA8469FAAA95C3E294AFB7EBCD2E26C9E9B8212B961EC92E3DA724FF8C53B6CB
311
CFDB8F63CEE92016DCEBE6E1AE704A7A556291B038210CE4E957BCDAB3ED9EA584ADF78C713A943F89425BFE5314B4F16932DB9D641D16311819893FDB42441E75B2073F54703A8408AF31E1E7A0211008D9CB4BFDD8E30650AF0A6FDD0A98D28685EA651D144C65687C389D58E83C3680CD5EF649DEF479DF033EA0341558
311
931EAE97E087E97C9A3A47D12A477A7F47C6BA46D68BB9C9E2722E835ECA0B5B5BF71F359D57A5739874F87BC50F504B030414000608080001713740E261BF6C7E0000009D0000000B0000006662782F636E782E786D6C4DCCD10E82201886E15B61FF398916601BE052F43E5CA263213482D6E5A7CD838EBEEDD9B757349F
311
D5A1B7892F1BBC84F24400197F0F93F58B849C665C036A948821A4BF1B203FAE46C2CEA0C412437E1E349979CC2E6DEAAC7F1C589381D3B6BFE18A728D2F9DAE704B488919EFD9997503A1FA0A8512C5AFB4ED1E565F504B030414000608080001713740145DB0502B01000014020000310000006662782F38304637354245
311
412D323537442D344344322D423030312D3637453633364346303544392F636F72652E786D6C8D51CB6EC32010FC158B537AC006BFE24498A8797D417FC00592A2C460F1A8F2F95D6A476A6FB9B068766676B4CB768FF19E7D2BE7B5353DA239419932C24A6DAE3D8AE1823B94ED3873D6863F34949961543D4A30E2ECEA6C
311
9C164858139409801A2BD5020EDEAB803271874F8FBCF852E3900F3100C3DFF26910B7E1AA729A431B789CF9E02040360F492FE21D39AF9BFDE91D97CDFA88EBC3B1C47B42286ED7A7B66A0F67D21C37AC98859CC5A8E522D712E2E88B56EE559324E62CE8F1195F38350425112F092D310C2DAB0F5A6F49B7251526ED9610
311
5624FA3F519CE48BA2A84DA8CA25EE2CF3885356CC0DCEA48D9FF76718F598AC0B599AB7F24ABC214E7202C168B5E95831536101E0D9D68BA70FD6C18257B74F60D366366E6BCE8A742328BF07849AEEC97F00504B030414000608080001713740EC4580844D01000033030000300000006662782F38304637354245412D32
311
3537442D344344322D423030312D3637453633364346303544392F636E782E786D6CD593CD6EC32010845F0571B78D132B8A224CA41EFA043DF48A6193D260B0F8A99AB7EF929034971C7AEC0559B3C3CCEA13E6FBEFD9922F08D17837D2BE659480535E1B771C694E87664BC95EF0E07D7AB051E2E40C232D3215FC187C5E
311
AAA4E120B34DA85AE34E550C107D0E0A22CAE526B15E498B01E09A8C22CC13680D9ADC8DF8758080ABA0389D49FA00F2FAF24EFCF4092A45DE9514C1BBD22178396BD383891265658C238DEA0366D9CA9CBC86786AB54CB2EDDB5BD7939D7E9348B970ABCCC190523ED2725251376A9123EF7028784C01E955533A2F40855C
311
166B944C08B9BB18AF1EC1B371693354AF41F001DDFD663D0C187699099ECC0CD5A102C8049A8A15EB570DEB9BD5FAAD1F766CBB63EB866D768CF1AED8059FBCB7F512C640F00B51DE2570898A9E7765FC0C5FF5116D02B2F6E1FC079008A0B65EE9DC33FE339FEEF2BE1157C0BF40FC00504B030414000608080001713740
311
30B268D99B0500007B100000340000006662782F38304637354245412D323537442D344344322D423030312D3637453633364346303544392F6F626A656374732E786D6CAD575B8F9B3814FE2B887D064292E94C560C552E9D2AEA4E5B356AB50F23450E18C63BE622DB4C33FDF5FB190C81349966577D016CECE373BEF39D
311
8B83B7FB8C5BCF544856E4B7B6EF8E6C8BE65111B33CBDB52B953837B6F5360C4451A8DE32DBCA49466F6D3D6D87412A8AAA3453314D48C5D5D1ECDDE26F4B4634A7B6157122E5AD2DA3479A119754AA88A97C7263A2889B267BD7779B8543B1A920E5E391D092089A2B688AF91C52AC46297F381CD95E1878FA7F18E8A759
311
3539BFCAABED199ECF72A9481EFD74D89198893F5DBD1B5FCD9CABE974E24CDF8C7D6771B75839FEF564B47CB35CCEE6EF6638582A0149461341133B7C0F6C048B02AFF9150615CBD5646C96180779823E33ED293B1C5B7EE0356B3AEB8C91A7D48F8A3CA7518D15D0A8ED33A2635AD23C86CF1995D0AC87D06838F4358EBD
311
DF133D3647F6A72F43A0BFA327A8D5BD7DF7352D76FFC00479098384A49A810D96C6D086ABA303C2BBA2E0E61F93564614158C708BB39D20E2C50EB1542F09838118CD64A1A3415B6087F042F37B481784D1AF797E4ACBA4E25CD3D80EEB28D82256A892B566EC071507EDFBC84027F84AB3E1C618A45E4A6A87B386223747
311
6C6A80B4124E52B81C66EA9D93F191A14B1DA7EB951D7EB8DBED373A764F1F5E8AA2A44269FA805AADE3DAB746C9E8E45FE439BDC13E52E500CA1720FF11A17E50057E136C3FDD4FCD294A905C2685C8E01B6B6439233C46965F3FF577EF2BF0BACD43EF9DC313CED650FD063C8736F47DD983330C9E41F8424C8C699B8870
311
A48D7B9603204D128B1798421E4E767B3B5C23CB212B6317E1A10F93A1EE333E03CF8841A2A84FEABD73607994162F48D080AD6624D468C86F143CF8E9A774561F6C969D83F7EAB7D075BEDA7CD854222111BD3731BDA209CB9942893BF0A6AFD000F381454FF4E57B216218FA33DE9B3EDE99394A026D8DB9063E6D73BA1E
311
1C4E1E1C10615F5AE87413FCE20418A10B6B4FFE3D9311E59CE4B4A8DA735FAD1F281B0DC43AD83593BB0273282C204DF3E7280651A423C14A0D6257ADBAA4E99EB1EEEBFA231869878B97BFC84B3F7BED0EB9372A7821B6BB976D93964E42FD6DC86D8381A7A580EE7590B4F16F40DFC62C492A89247802D76FEB65DF773A
311
2D2045B4529B6899C27E04171186B4AD5C546B4150498B7CCB50371177270FE8CB07A48601B5C0731A4BCA932DE3BCCAB609E3A846DB8C9467E0F8FFFAEFAAACDC92ACA8727546F640755487A1EE03F6CAEF44458F76B8A9DFCE02B937A6F11932E85A7202AB816B67FE78F16E3EBB76AEC7574B677A7D73E7CC96BEEFDCBC
311
19E17575371F2D90258C46751315066DA9E94734BC84D216548219F77D5D237E4C12B0C37BA2E4C3FB263CDBF7D7B58B5E38F0B007F5B2DB388F9FD1F7D1F8D7020E2B4F0A5A6725A719CD15D13174AF3FF817823E63A04C33BFCE484A2F90F2E9FDE6C818CC5CB0EFB38E77FAFD68AF995DEA803C29443D56D92E278C1F6D
311
4C1B24DD324F0D7EAD4FBA775368DAA11E19C7A03395056731F2606CA5B4C8A84236BCA008898C4A50AFDFD3C7E6EE71C1EEE7A6435464C769ABC9234193CC25C20224AF22359CB7FE4053A7FBAA5B1BE5D67DC2C3640ADB02676E6D34E98A4554BA3B1468DD0AD5C2C1A57E270FCE923CE5E8B59B4DDDB8DBA5B11994E46E
311
C925FD93B1AB49E1C600A491127D031A2278A756260C6ADDCCFFE83F19DEAA631185CF5DA53A5B0E139D31F53108D1C628735B4013F3648EDE23505F37CB77EB3503442EBA65BD4A8246AAA38848EB9B82D6CFA8345F7DF6D0A158EB4F56C9AB14BEBC5C922328C85CE900078BC00A23B3240A545DFEF9F05914B8C966D61D
311
03051E96459615B919CCCD4DD8DA3CE25E1B3F202D507D21910FE3913F7EA82F02E66EB2DD11495D12CB274CC0A78275100F1C0F4636B74554A0E647B7CED34E38E2E67A65999236855043947E56D5B0A0E5C8A985E8D197491D2BFD05E5AB7701AF5E0A1504BAF8F05F504B03041400060800000171374000000000000000
311
0000000000350000006662782F38304637354245412D323537442D344344322D423030312D3637453633364346303544392F76657274696365732E62696E504B030414000608080001713740F270F1330600000004000000360000006662782F38304637354245412D323537442D344344322D423030312D36374536333643
311
46303544392F747269616E676C65732E62696E636660600000504B030414000608000001713740000000000000000000000000370000006662782F38304637354245412D323537442D344344322D423030312D3637453633364346303544392F617474726962757465732E62696E504B030414000608080001713740D5987D
311
FC8F00000041010000360000006662782F38304637354245412D323537442D344344322D423030312D3637453633364346303544392F6469726563746F72792E786D6C858F410EC2201045AF4266AF15DDB800BA74E7C21B903225242D6328188F2FA5C4183471359997F9FF81E89FF3C41E1816475E02DF1F80A11FC8386F
311
25A438EECEC07A250251FC3803E6F58C12560C4AD840E95E91C151A72936F496F35732D860FE635F62C8F2DA16B505C545B74125BAA2FA9E05D7CC053D063734D5C7665FD55B6B8D15D5E9BFEAFD8490FFA45E504B03041400060808000171374022A67734FD000000A00100003B0000006662782F38304637354245412D32
311
3537442D344344322D423030312D3637453633364346303544392F7265736F75726365732F636F72652E786D6C8D504B6E833010BD0A9ABDC1C62921917124487A825EC03293C44AB0913F558F5F13A8D4EEBA9919BD8FE6E989D3D7F42C3ED107E36C07ACA450A0D56E34F6D6418A57D2427192C23B177FC9A0B06AC20E16
311
18A4B87997E60DD2CE46B431A3D68DB8812A048C50E8673E3A08FA8E932A558A59111EE5ACF443DDB06465A6B34E8A107D0E50AC4F9609D26370C96B0CA25A59295232E3A63163FE69AE063DC873DFB4CDFE40497D1EF66447F9400EFCC249FFCE383DF497F66DE845B598A58866FAC9A83DAA8823C89AB29A50466AFEC176
311
47DA1E2927B439522AAA45FEC794E6F19FA6646CE4F51677B505902C07791152544B5F79BDCACC7BE9567E03504B010214000A0000080000017137403DEE336E79000000790000001B00000000000000000000000000000000006175746F6465736B2D64657369676E2D7061636B6167652E786D6C504B0102140014000608
311
080001713740D486FD9CA0000000F40000001300000000000000000000000000B20000005B436F6E74656E745F54797065735D2E786D6C504B0102140014000608080001713740310D59ACE90000007C010000080000000000000000000000000083010000636F72652E786D6C504B01021400140006080800017137405501
311
9EA25F0000007C000000070000000000000000000000000092020000636E782E786D6C504B0102140014000608080001713740472FBC0165010000020300000C00000000000000000000000000160300006662782F636F72652E786D6C504B0102140014000608080001713740E261BF6C7E0000009D0000000B0000000000
311
0000000000000000A50400006662782F636E782E786D6C504B0102140014000608080001713740145DB0502B0100001402000031000000000000000000000000004C0500006662782F38304637354245412D323537442D344344322D423030312D3637453633364346303544392F636F72652E786D6C504B01021400140006
311
08080001713740EC4580844D010000330300003000000000000000000000000000C60600006662782F38304637354245412D323537442D344344322D423030312D3637453633364346303544392F636E782E786D6C504B010214001400060808000171374030B268D99B0500007B1000003400000000000000000000000000
311
610800006662782F38304637354245412D323537442D344344322D423030312D3637453633364346303544392F6F626A656374732E786D6C504B010214001400060800000171374000000000000000000000000035000000000000000000000000004E0E00006662782F38304637354245412D323537442D344344322D4230
311
30312D3637453633364346303544392F76657274696365732E62696E504B0102140014000608080001713740F270F13306000000040000003600000000000000000000000000A10E00006662782F38304637354245412D323537442D344344322D423030312D3637453633364346303544392F747269616E676C65732E6269
311
6E504B01021400140006080000017137400000000000000000000000003700000000000000000000000000FB0E00006662782F38304637354245412D323537442D344344322D423030312D3637453633364346303544392F617474726962757465732E62696E504B0102140014000608080001713740D5987DFC8F00000041
311
0100003600000000000000000000000000500F00006662782F38304637354245412D323537442D344344322D423030312D3637453633364346303544392F6469726563746F72792E786D6C504B010214001400060808000171374022A67734FD000000A00100003B00000000000000000000000000331000006662782F3830
311
4637354245412D323537442D344344322D423030312D3637453633364346303544392F7265736F75726365732F636F72652E786D6C504B0506000000000E000E0080040000891100000000
310
504B03040A0000080000017137403DEE336E79000000790000001B0000006175746F6465736B2D64657369676E2D7061636B6167652E786D6C3C3F786D6C2076657273696F6E3D22312E302220656E636F64696E673D227574662D3822203F3E3C666F726D6174733E3C666F726D61743E687474703A2F2F736368656D612E
310
6175746F6465736B2E636F6D2F64657369676E2D7061636B6167652F323030393C2F666F726D61743E3C2F666F726D6174733E504B030414000608080001713740D486FD9CA0000000F4000000130000005B436F6E74656E745F54797065735D2E786D6C7D8EC10E82300C865F65E91D8A1E8C310C0EEA1BF002731658846E
310
D98AC1B77784ABF1D8FE5FBFBF75BBCE937A534CCEB38643598122B6FEE978D0B0485F9C41B54DDD7D022595594E1A469170414C76A4D9A4D207E29CF43ECE46F218070CC6BECC4078ACAA135ACF422C856C0E68EA1BF5669944DDD7BCDE7B1F8E415D77AECB980613C2E4AC91FC167A2B244592486606FC29C8FD7F045B9A
310
EF7053A7E60B504B03041400060808000171374049718A0CE90000007C01000008000000636F72652E786D6C8D90416EC3201045AF82668F0DD8696C0B13D95173825E0001715162B00C543D7E71E248EDAEAB19FDF96F66F4F9E97BBEA32FB306EB5D0FB420808C535E5B37F590E21537804E82AFDEC75F36404ECEA6874D
310
06C1A7D5A765979477D1B89855E7B5D94519828980D43D373D04F5696659C814B323DC8A45AA9B9C4C415F5D8653B21A3D8F589DF7D9AB352B88637361848E03AE074A713D5E081EDAC3191F47D29E47C6DE5B72E0E5060B1EEDFCBAAF5623A3D12032CC30A198551FB4EE48D3910A93B78E105E6EF63F505AF43FA1645DAC
310
D8FEEE130B20687EE43110BCDCB2C8E51154AE5B6EE207504B03041400060808000171374055019EA25F0000007C00000007000000636E782E786D6C4DCB3B0E80201045D1AD90E915ED2CF8AC45050C11660C8261F98AB1B07AC9C97D42D718D865D3E909258CFD00CCE24AC6E326A164D74DC0B4128928FF326038472BA1
310
3128B1252AC747C6BAB984FC68F0B87FE8960A5C09FE86CFB69FBA01504B0304140006080800017137406BAE04D565010000020300000C0000006662782F636F72652E786D6C8D52ED8E8320107C15C27F04ADBD7E04696A737D827B01AAD423553008A68F7FEB47E3F5D234171324333BBBB3A3FC706F6AD42BD7696B321C
310
470C23650A5B6A536538F82BD9627410DC59EB7F95616464A3323CC058F0CAD9D0CE50618D57C6036A6CA96650769DF21815355C32DC15DFAA91910C1E2ABA5BD4CAE2262B15C511D0502778E71D1840D390E1C4E27AB9733AE18287A0CB99D5254CD357AD1C169BED3961717E24E9318E499A9F1939EED627B2C9D9EE9427
310
C9E78EAD391DC4827BDD3CDC154E49AF4A2C409C10169364F515A77BB6DDB315611F7BC6381DCA9F44A12DFF290ADAF85532DB9D641D16311819893FDB42441E75B2073F54703A8408AF31E1E7A0211008D9CB4BFDD8E30650AF0A6F5D0A4C69C342F5B20E0AA632343E9C4E2C741E1BC0662FFB246FFABCEF011F509A0AAC
310
490FD74BF0C3743E4D9DA3689523BDBF23635D23EBC5DC64713997412FE585ADADFB8F9ACEABD2394C3AFCBDE207504B030414000608080001713740530FBEED7D0000009D0000000B0000006662782F636E782E786D6C4DCCD10A83201886E15B91FFDC952DA7811A86BB90581632D3703A76F9ABD1C18E3E78F87845FF59
310
3D7ADBF472314820971A900D8F38B9B0482879C61C50AF448A31FFDD008571B5120E06259614CB76D264E7B1F8BCAB77E17922BB0D9ADE39C335D104B7AC339837D70113C33ADAB48C1A4DA152A2FA95F63DC2EA0B504B030414000608080001713740D6ADA0542901000014020000310000006662782F3736424135453837
310
2D303141312D343739442D383233422D3144373935323437354441352F636F72652E786D6C8D51CB6EC32010FC15C4293D60037E26C24489D23FE80F104C1294182C1E553EBF503B527BCB8545B333B3A35DB67F4E0FF0AD9CD7D60C9014180265A41DB5B90E30860BEA21D873E6AC0D7F68101831A901661872767536CE2B
310
24AD09CA84841A3BAA1514DEAB00817CA4CF00BDBCA949142286C4F0F76216F22EAEAA20456A271E673EB814002C43F20B79D71E0FCD67DF214C0E04D5DDF6847A5A1D113975DB86D65D733A34AC5C849CC5A8C755AEC714475FB472EF9A643167414FAFF8D22911D40839C584A60088565FA4DEE17E872B84DB1DC6ACCCF4
310
7FA2388F6F8AA236A1A26BDC45E62127AC5C1A9C8D369E1FAF30EA395B17409EB7F14A7E408E0B4C09697155B372A1A60524CFB65E3D7DB02E2D78733F2776B51AB7356765BE512ABF074C35DF93FF00504B0304140006080800017137408AE24F935301000033030000300000006662782F37364241354538372D30314131
310
2D343739442D383233422D3144373935323437354441352F636E782E786D6CBD93CD6EC32010845F0571F7BF65451126520F7D821E7AC5B04968305880ABE6EDBB2424CD25874A552FC89A1D66569F30DB7DCD867C820FDAD99136654D0958E994B68791AE715F6C28D971E69D8B0F364AAC9861A449A69C1DBC5B972C29D8
310
8BD544548DB6A72C7A086EF51202CAE926314E0A8301608B15459827500A14B91BF16B0F1E5741713A937804F2FAF24EDCF401320656A514CEAAD4C1593A73D3838912694408230DF208B328C51A9D82702A9588A26CCA5BD7939D7E9248BA70AB5CBD26A97CA4E9A43C6F54224756E190B3103DD2CBA6785E8072B12C464B
310
11117275315E3D9CADDAC6A1CF5E8DE03DBABB76D86C30EC32E32CEA19B2437A101114E56DDDB445DD146DF7D6F4DB7AB3ADBBA21EB675CDAA64E76C72CEE44B1803DE2D443A1BC146CA1B56A5F1337CD94794F6C8DAF9F32F402280DC7AA573CFF84B3ECDD0F5FD3FF2A92EEF1B7179FC0BF837504B030414000608080001
310
7137400CED58D858070000941B0000340000006662782F37364241354538372D303141312D343739442D383233422D3144373935323437354441352F6F626A656374732E786D6CED595B739B3814FE2B0CFB6C6C6CE7B643E8244E93F174D376EA6D671F32C3C820136D84602491C4FBEBF7E802066212BCCDBEF5C1068474
310
74CE77AE3A041F9E33EA3C622E48CECE5DDF9BB80E66719E10969EBBA5DC8C4E5DE74318F03C978D69AEC35086CF5D35EC8641CAF3B2B04309DEA092CACEE8F5E55F8E8831C3AE135324C4B92BE27B9C210F95324FB078F0122491976E9E3DDF3313DB64538E8AFB0ED10271CC24700AE30CA8388629BFFD3871C7613056EF
310
C340FDDB59B341B3E6FDB3C65AEA369784098958FC82A50E99D9209666FEFCEAE3F4E86C74349FCF46F3E3A93FBABCBEBC1AF927B3C9E278B138BBF87806ECADF39C5A99125C609680FEB66EE80763F5A616DD22B08FEB38670CC71A48804A8BD52548B080AD1AF04DDA8FBE92A8F15A4BD8789EABF79685C6F0AC4DA56FD6
310
30205A744110BB5D2571756DCA97AFFF06C1C510A3E4024BE056480EDAB5F070F00A379C0463331A06EB9D2E887032243127883A94AC39E2A01498AAA684815960C928E7E040CA511268CD99D76DDB02CF7CDB75F671B92929559EE186DAB122703F2C85E68CFC83F98EFB2632C013485B12264F2D97725B60373C0BC67A30
310
0CD46536B52F0D90CE86A2546844CCDB8EA00BE5FACB2B37FC74BD7E5EA970B07FF382E705E652199DD2A3E60B0CD95E154A765B7F90E6D40210C6806A57EE40F906C87F86E8B16305F4C6C9F3FC796EE74A8E98D8E43C03DD3813673481BF89E3EB7F75DFB80BC6F5E2B6F6FAF0043755509DFE3C9E6D19345696FF069C61
310
F008069FF3997DB58A11057BBE250C005246E2D01C8620B46FD6CF6EB884C009811E56211AFA2032B0FB08B7C1D892D969A5722FEB750C10B57BCC86280960D316096CF4E8E906B20727F14E4D4D11FBE03D7A1773BDB85A7D5A957C83627C6B7DFA0A6F082312B2E67E865A98B7247AC0DBA79C2720E84BBC574DBC33BB95
310
00B415E60AF8B402413DEC766E6D10C3BA3457E1267863071042E5EA06FD5B22624C2962382FAB7DEBE8A60CB5F6785B33B8E1D4403C9B764C98E347A2AA0A709ADD8C16A390F7634E0A05A21BDE18C9EAA0E9F548F77DF9192CB29EDF336BC920F43244FFD4416B0F0E2DCBAE90B640D402AF77E13CCE69CEA3F5363291CE
310
855A02D8687BCB8F165188F546498A0A7890F6BB2AA4A446DA28219B4D2920AEEE61F1C772D134878937F38F9CE67FC719E7106DC17711B77ED7D92322194A71B44149DF76CDDD6ADA4293EC21CDF186825CE491C86D84643449707A083407113F7B57EA29CD85200C0BC8577BC16FA231F12090186D562C2BAD76802622CA
310
B044F4100414991E7075DAD1356E0CA5C3DB3CD6D6FB9AC69A44FF278BE0086AC99C45044A51C8216F32EE7B471043DAE81A943BF882B555B4B518B4841222DE464F98A4F7F210D40DF91EDC6338929432CA0B1483590F20FBC25794523BBCAF51FCA0F2471497F4BD0C4460BA8908A56516C18F3038790C71ED3A30BD8A42
310
83B8897D126750942159F2219B1C1F4D5EEC636A866E086C6CB42114C27694A1A207F55640D4F58853836FA9F728755D664584B2BC64830CC59B75BDC992EFAA55911DC8AF2A15A16CAC085B82614098ACB36A15B3C1D475600537D2816A1B099415D49CC2DE483C7EED4D9A72EF06DCFAE9FB6E9041E1D7A3BD66449D5730
310
581E5B8581784232BE77C395BE8E2EA1FE4E70B24BF555ADD9AC00013115C94B4EAC8ABE2FA1BCB1359A1BDE2229EE6E4CD6ADAEDF971E743F8231AC81DAA55EB85440679849A42A935B7543BF2108C12D1A667CA972EA21542E9244578D885E933E75B6CA88D6A619F18A7BCCF20C7EEC8EB0989609BE438978886E258D56
310
44B16EA5F4325261FCAA805F6E561D78606480485F5581879F3A6BEDE842954B7B89C8FB325B33442008B6444B8D6EBC82A556239596EBAB3A5340DD050666553CFF75B268B6237E9D2C526B183F75B2B8DCFE81B6CDBE48239DC7CAAE0F3A06D4F94951798F63806E3BD454EB2C6292B995DF3A530441B18AF283ABB12A68
310
18827D1CFFE7ACDD9705CD761DFE0FCBDAFE8B8AE3A0ACD29AACBA547B2AD76533879DF9D3CB8F176727A393E9D162343F39BD1E9D2D7C7F747A3C81CBD1F5C5E472776CD08E1A067530D3B90B9E4D50AB86D593C500BAB222A72481D37CE2A41862BE8433FD80F639CFB080E4D96C7627B6293F60F5A3E9734AB4A6B8E2E4
310
1E4183980A48EB805119CBF6B8F31BB426251CB4CF5D681A790FF067ADD27520F39CBBD02A9024C6C25B439B4935F4347148B93AF75B62800F62A94A896651FD5CAF52D8B4C27F3D65481AB072B57A1850B815D0FD6A7528346F96A7F820C12B761C24E1765D4AA8D68C2CBB815A18BDCD4EFD46364AD883DDFA195CF775B1
310
7C4FCF692132E893C1AB4660A88E24E2A9EE772BC62C4B17575FC7D06773965F9C829629E87238A511C760CCA52AA8C08AC02A2CCD024930D5C5EF775F790E9F7832475745778B3CCB72661F2EE03C96C0272267750F1F7C923B281BB06AAB8BBBE9C49FDEE976B6EDB0476B24B0A7EA2118A8CA082542C7D8C0225FB4A66C
310
E372AC94D099BEBC726CF8047F3616F4A2BB6B3E6F39E03DEA438AF215EDE1959CAF76B4C77A2A5803875E74F82F504B030414000608000001713740000000000000000000000000350000006662782F37364241354538372D303141312D343739442D383233422D3144373935323437354441352F76657274696365732E62
310
696E504B030414000608080001713740F270F1330600000004000000360000006662782F37364241354538372D303141312D343739442D383233422D3144373935323437354441352F747269616E676C65732E62696E636660600000504B030414000608000001713740000000000000000000000000370000006662782F37
310
364241354538372D303141312D343739442D383233422D3144373935323437354441352F617474726962757465732E62696E504B030414000608080001713740D5987DFC8F00000041010000360000006662782F37364241354538372D303141312D343739442D383233422D3144373935323437354441352F646972656374
310
6F72792E786D6C858F410EC2201045AF4266AF15DDB800BA74E7C21B903225242D6328188F2FA5C4183471359997F9FF81E89FF3C41E1816475E02DF1F80A11FC8386F25A438EECEC07A250251FC3803E6F58C12560C4AD840E95E91C151A72936F496F35732D860FE635F62C8F2DA16B505C545B74125BAA2FA9E05D7CC05
310
3D063734D5C7665FD55B6B8D15D5E9BFEAFD8490FFA45E504B030414000608080001713740F4B8E9CDFB000000A00100003B0000006662782F37364241354538372D303141312D343739442D383233422D3144373935323437354441352F7265736F75726365732F636F72652E786D6C8D504B6E833010BD0A9ABDC106D200
310
328E42D49CA017B0CC84580936F2A7EAF16B0295DA5D3733A3F7D13C3D7EFA9A9FD9273AAFADE981E5143234CA8EDA4C3DC470230D6427C19DB5E1970C322367EC618541F0C9D9B8EC90B226A009093576C41D94DE63804C3DD3D18357779C652E63480AFFC817A91E72C29CE5894E3AC17D702940B63D59270887DE46A7D0
310
F36263058F518FBB468FE9A7BE6974208ECDB5A46C68497D668CD4C39592737BB890E340DBCB5096EF2D3DF062350B1EF4FC93513994014710C95C12CA48597DB0BAA34D472B42DF3A4A79B1CAFF98E232FED314B50955B9C7DD6C1E044B415E84E0C5DA575AAF32D35EBB15DF504B010214000A0000080000017137403DEE
310
336E79000000790000001B00000000000000000000000000000000006175746F6465736B2D64657369676E2D7061636B6167652E786D6C504B0102140014000608080001713740D486FD9CA0000000F40000001300000000000000000000000000B20000005B436F6E74656E745F54797065735D2E786D6C504B0102140014
310
00060808000171374049718A0CE90000007C010000080000000000000000000000000083010000636F72652E786D6C504B010214001400060808000171374055019EA25F0000007C000000070000000000000000000000000092020000636E782E786D6C504B01021400140006080800017137406BAE04D565010000020300
310
000C00000000000000000000000000160300006662782F636F72652E786D6C504B0102140014000608080001713740530FBEED7D0000009D0000000B00000000000000000000000000A50400006662782F636E782E786D6C504B0102140014000608080001713740D6ADA05429010000140200003100000000000000000000
310
0000004B0500006662782F37364241354538372D303141312D343739442D383233422D3144373935323437354441352F636F72652E786D6C504B01021400140006080800017137408AE24F9353010000330300003000000000000000000000000000C30600006662782F37364241354538372D303141312D343739442D3832
310
33422D3144373935323437354441352F636E782E786D6C504B01021400140006080800017137400CED58D858070000941B00003400000000000000000000000000640800006662782F37364241354538372D303141312D343739442D383233422D3144373935323437354441352F6F626A656374732E786D6C504B01021400
310
1400060800000171374000000000000000000000000035000000000000000000000000000E1000006662782F37364241354538372D303141312D343739442D383233422D3144373935323437354441352F76657274696365732E62696E504B0102140014000608080001713740F270F1330600000004000000360000000000
310
0000000000000000611000006662782F37364241354538372D303141312D343739442D383233422D3144373935323437354441352F747269616E676C65732E62696E504B01021400140006080000017137400000000000000000000000003700000000000000000000000000BB1000006662782F37364241354538372D3031
310
41312D343739442D383233422D3144373935323437354441352F617474726962757465732E62696E504B0102140014000608080001713740D5987DFC8F000000410100003600000000000000000000000000101100006662782F37364241354538372D303141312D343739442D383233422D3144373935323437354441352F
310
6469726563746F72792E786D6C504B0102140014000608080001713740F4B8E9CDFB000000A00100003B00000000000000000000000000F31100006662782F37364241354538372D303141312D343739442D383233422D3144373935323437354441352F7265736F75726365732F636F72652E786D6C504B0506000000000E
310
000E0080040000471300000000
  0
XRECORD
  5
17
102
{ACAD_REACTORS
330
12
102
}
330
12
100
AcDbXrecord
280
     1
270
     1
271
     1
  0
XRECORD
  5
16
102
{ACAD_REACTORS
330
12
102
}
330
12
100
AcDbXrecord
280
     1
270
     1
271
     1
  0
XRECORD
  5
18
102
{ACAD_REACTORS
330
12
102
}
330
12
100
AcDbXrecord
280
     1
270
     1
271
     1
  0
XRECORD
  5
15
102
{ACAD_REACTORS
330
12
102
}
330
12
100
AcDbXrecord
280
     1
270
     1
271
     1
  0
XRECORD
  5
896
102
{ACAD_REACTORS
330
22
102
}
330
22
100
AcDbXrecord
280
     1
102
MATERIAL
148
0.0
149
0.0
149
0.0
 93
        0
 94
      127
282
     0
 72
     0
 77
     0
171
     0
175
     0
179
     0
273
     0
  0
XRECORD
  5
24
102
{ACAD_REACTORS
330
22
102
}
330
22
100
AcDbXrecord
280
     1
270
     1
271
     1
  0
XRECORD
  5
23
102
{ACAD_REACTORS
330
22
102
}
330
22
100
AcDbXrecord
280
     1
270
     1
271
     1
  0
XRECORD
  5
BA
102
{ACAD_REACTORS
330
22
102
}
330
22
100
AcDbXrecord
280
     1
 70
     1
 90
1959938040
 71
     1
  1
98A220C8-86B7-453E-8D96-A476E1691646
311
504B03040A0000080000017137403DEE336E79000000790000001B0000006175746F6465736B2D64657369676E2D7061636B6167652E786D6C3C3F786D6C2076657273696F6E3D22312E302220656E636F64696E673D227574662D3822203F3E3C666F726D6174733E3C666F726D61743E687474703A2F2F736368656D612E
311
6175746F6465736B2E636F6D2F64657369676E2D7061636B6167652F323030393C2F666F726D61743E3C2F666F726D6174733E504B030414000608080001713740D486FD9CA0000000F4000000130000005B436F6E74656E745F54797065735D2E786D6C7D8EC10E82300C865F65E91D8A1E8C310C0EEA1BF002731658846E
311
D98AC1B77784ABF1D8FE5FBFBF75BBCE937A534CCEB38643598122B6FEE978D0B0485F9C41B54DDD7D022595594E1A469170414C76A4D9A4D207E29CF43ECE46F218070CC6BECC4078ACAA135ACF422C856C0E68EA1BF5669944DDD7BCDE7B1F8E415D77AECB980613C2E4AC91FC167A2B244592486606FC29C8FD7F045B9A
311
EF7053A7E60B504B0304140006080800017137408F393A53EA0000007C01000008000000636F72652E786D6C8D90416EC3201045AF82668F03D84D5C0B13D97572825E0001715062B00C543D7E71E248EDAEAB193EFFCD8C3E3F7E4F77F4659660BD6B8116049071CA6BEBC61652BCE01AD051F0C5FBF8CB06C8C9C9B4B0CA
311
20F8B8F8346F92F22E1A17B3EABC369B2843301190BAE7A685A0AE6692854C313BC2AD98A5BAC9D114F4D5653825ABD17389D5799EBD58B38038F53565FDE18049773EE38A7C0CF8BD1A3A3C746C5FD5F570EACB37BE5B61C1A39D5EFBD56264341A0423946142312B3F69D590BA21F9B96F08E1BBD5FE074AB3FE2794AC8B
311
25DBCE7D620104CD873C3E04DFAD59E4F2082AD73537F103504B03041400060808000171374055019EA25F0000007C00000007000000636E782E786D6C4DCB3B0E80201045D1AD90E915ED2CF8AC45050C11660C8261F98AB1B07AC9C97D42D718D865D3E909258CFD00CCE24AC6E326A164D74DC0B4128928FF326038472B
311
A13128B1252AC747C6BAB984FC68F0B87FE8960A5C09FE86CFB69FBA01504B0304140006080800017137404399B11A66010000020300000C0000006662782F636F72652E786D6C8D52ED8E8230107C95A6FFA10539E54CA9D1439FE05EA042E51AA125A5253EFE2D1F86F3628C2181B2B3B3333BC076B7A646BDB49D323AC3
311
51483192BA30A5D25586BDBB0429463BCEAC31EE4F1B465A3432C34319735659E3DBB95418EDA47650D5A6947351749D741815351C32DC153FB211A1F00E3ABA6BD88AE22A2A194621C0D0C759E72C184093C870C7FC72BE3132D539F35E9533AA4A505317252DE6C7431AC587CD26A0FBD32948E8571E7C26F93EC8F7F13A
311
49D3FC78587D3032903973AAB9BB2BAC144E9698C7348A031A05F1EA3B4AB634DD52785D6F296564687F20F9B67C93E49576AB78B63BD13ACC23303202FFB685881CEA440F7E08676408111E63C28F41432010B213E7FABEC7154ABD2C9CB10920A5F10BD48BDA4B50A568BC189950983C0E80CD9ECE895FCC793D033EA0D0
311
1558130E8E67EF067536A9CE51B4D206BDBB216D6C23EAC5DC6471B92F424FE985A98D7D874DE655C91C2619FE5EFE0B504B0304140006080800017137406919E4B37F0000009D0000000B0000006662782F636E782E786D6C4DCCDF0AC2201C86E15B91DFB94DF7CF05EA7059F7319A1B92D3308D2EBF2D76D0D1070F1F2F
311
EF3FAB436F135F367801F44400197F0F93F58B809C66DC01EA258F21A4BF1B203FAE46C0CE20F912437E1E349979CC2E6DEAAC7F1CC874ABCA2B53580FEC8CEBB6D6B8A337852FB42125ADEA813415149217BFD2B67B587E01504B03041400060808000171374024472C522A01000014020000310000006662782F37443641
311
324537412D444237392D343634442D383146412D4331353032313334423035332F636F72652E786D6C8D514B6EC32014BC0A62952EB0017FF211264A9AF604BD000592A2C460F1A972FC42ED48ED2E1B1E0C33F346EFB1FD7DBC816FED83717680A4C210682B9D32F632C014CF6803C19E33EF5CFC4383C08A510FB0C090B3
311
8B77695A20E96CD43666D43AA5175084A02304F2962F030CF24B8FA212296646B85693905771D115A9F277E67116A2CF01C0DCA49C90AF4FFD81BEAD0FE8745C6F51DBB727B421EF07F44A3A4C49D31E71D7B07A16729692518BDCA81CC79C8DF6CF9A143167D18C8FF8D26B11B5829C6242112688361FA4DDE1CD0EE767BF
311
C398D585FE4F9426F5A428191B1BBAC49D650172C2EAF98333E5D2E7ED1146DF27E72328FD5641CB17C8718529EEF1B6DBB27AA6E60164CFBE5D3C43743E0F7875FDCC6CD2CDC67DCB595D7694CBEF02732DFBE43F504B030414000608080001713740ED5004F54C01000033030000300000006662782F3744364132453741
311
2D444237392D343634442D383146412D4331353032313334423035332F636E782E786D6CD593CD6EC32010845F0571B78D132B8A224CA41EFA043DF48A6193D260B0F8A99AB7EF929034971C7AEC05D9B31F33AB91CDF7DFB3255F10A2F16EA47DCB2801A7BC36EE38D29C0ECD9692BDE0C1FBF48051E2E40C232D3215FC18
311
7C5EAAA4E120B34DA85AE34E550C107D0E0A22CAE526B15E498B06E09A8C22CC13680D9ADC417C3A40C055509CCE247D00797D79277EFA049522EF8A8BE05DC910BC9C35E901A2445919E348A3FA8059B63227AF219E5A2D936CFBF696F564A75F27522EDC227330A4848FB49C54D48D5AEC917738143CA680ED55289D17A0
311
422E8B354A262CB9BB805746F06C5CDA0C9535587C40BADFAC8701CD2E33C19399A1122A804CA0A958B17ED5B0BE59ADDFFA61C7B63B86AF9B1D63BC2BB8E093F7B65E421B087E21CABB042E51D1F3AE8C9FD55739A24DC0AE7D38FFA1482CA0A65EDBB97BFCE77EBACBF78D7505FC0BC40F504B0304140006080800017137
311
40182E8B509C0500007A100000340000006662782F37443641324537412D444237392D343634442D383146412D4331353032313334423035332F6F626A656374732E786D6CAD57DB6EDB3810FD1541FBEC8B6CC78D178A0AC74E0AA3485BD468B10F010C4AA2146E285120A9D4D9AFDF43899225D74EBD8BBE5816351CCE9C
311
3973A1FF7E9F71E7854AC5447EE37AC3B1EBD03C1231CBD31BB7D4C9E0DA75DE07BE144277C45C272719BD71CDB21BF8A914656197629A9092EBA3D5FBDBBF1C15D19CBA4EC4895237AE8A9E684686A4D422A6EA7918134D8669B21F7AC35AB0AF3695A4783A525A1049730D4BB19E438B531BE5F55FC7EE28F047E67BE09B
311
5F2B353D2F35AAFCE99FCF72A5491EFD74D8919AA9375BDF4DAE1683ABD96C3A98CD27DEE0F6FE763DF0DE4DC7ABF96AB558DE2D70B0D2129AAC2592266EF001D84816F9A3FA53E0972CD7D38915B1011A49FAC24CA4DC60E278FEA89669BDB34E9E323F12794EA30A2BA051F96755C7B4A0798C9833AA605907A171FFD533
311
38763E4FCDBB3DB2BB7C1902DD1D1D458DEDCDB36BA908FF860BEA120649450D036B2CADA33557C707844321B8FDC69493114D2523DCE12C9444BEBA01448D48E0F7D418264B930DC603374014EACF7DBA208D7ECDF353562625E786C66E5065C10EB942B5AA2C63FF5079B0BE8B0C6C42AC0C1BAEAD43FAB5A06EB0A82972
311
7DC4A61A4827E12445C8E1A6D9399D1C39BA3279BA59BBC1C7FB70BF35B97BFAF0428A824A6DE8036A35816B9E06256B937751E4CC06F7C89403285F81FC27A4FAC114C44DB2FD6C3FB3A76849729508992136CED8198CF13376BCEAD7FCEFFCF347EDE67EF4CEE189601BA87E039E7D1FBAB1ECC019F82F20BC9053EBDA36
311
221C65E381E500C890C4E1024BA8C349B877830DAA1CAA3276111E787019E6BEE0AF3FB26A5028AA933ACF1C581E95C50B0A3460AB1809336AF25B030F71FAA99C55075BB173F05EFD16BA2ED7DB8FDB522624A20F36A7D7346139D3687107DE740DEA61DEF3E899BEFE103286A33FE3BDEDE29DD9A314D036981BE0D3A6A6
311
9B97C3C9BD0322EC4B852937FE2F4E8013A6B176F43F301551CE494E45D99CFB66FF40DBA82136C96E98DC369843630169EA2F473988261D49561810DB6ED516CDE119EFBE6D3E819190E72224FC20141E4A6F24B890BBF0755757A593487FEF53DB4230325AC0F62A479AF4B798EF629624A5420D3C01EBF7CDAA1B3A5315
311
50211AAD75B2CCE03E728B48CBD9462F9AB52468A422DF31B44DA4DDC903BAFA81A82540A5F09CC58AF264C7382FB35DC2389AD12E23C51938FEBFFD6199153B928932D76774F74C4773E8DBDE23AFFA4174F4E406DBEA39B845E98D697C08734FD8B4921358F542BBB85E4E26E3D5F5E07A7EFB6E30BB9ADE0DAED78BF960
311
397B37BFF3E60B6F3E9B3771AA95077ED369BA098D28A1B3F9A564367CDF36481F5B03DCE08168F5F8A1CECEE6F96D33C428EC8FB007EDB2DDB88C5F30F6D1F8D70A0E9227156DB282D38CE69A98147A307FF8578231A3674CBDBEC9484A2FD0F2F9C3F6C819AC5CB0EF8B4977FAE368AF5D5D99843CA9443F95599813C68F
311
36A63592C3224F2D7E4D4CDA67DD679A57F3660383C15409CE6294C1D849A9C8A84631BCA007C98C2A50AF3BD2C7F6EA71C1EE977A40D424E4B4B1E4896046E60A69016A9591EEAF3B7F60A63363D58D8B6E3B7CC68FAD14AE03CEDCB898D1358BA81A86E8CF6612AA94834BDD411E733FC9538E51BBDED4BEB7BB0C36BD8E
311
DC8A5C323E59BFEA0A6E1D4019293036601E42742A6302BFB2CD7E8FFE93E38D390ED1F81B96BAF5E5B0D03A531D8314AD9DB29705CC30CFF6E83D12F56DB7BC6125D343E4A24BD69B24A8B50E349169755130F6599396EB2F230C28CEE6B353F032452C2FD7349014642E4D8283456085D559100DAAAEFE7CFC22052EB299
311
73CF4081C795C83291DB97A5BD083BDB275C6BE34794056AEE23EA7132F6268FD53DC05E4D762151744862F58C05C454B216E25EE0C1C8FAB2880E547F68E546260847DCDCAC1DDBD266506A89D2ADAA06164C1C3975903DE62E6972A52B50BC79151855A2304162880FFE05504B0304140006080000017137400000000000
311
00000000000000350000006662782F37443641324537412D444237392D343634442D383146412D4331353032313334423035332F76657274696365732E62696E504B030414000608080001713740F270F1330600000004000000360000006662782F37443641324537412D444237392D343634442D383146412D4331353032
311
313334423035332F747269616E676C65732E62696E636660600000504B030414000608000001713740000000000000000000000000370000006662782F37443641324537412D444237392D343634442D383146412D4331353032313334423035332F617474726962757465732E62696E504B030414000608080001713740D5
311
987DFC8F00000041010000360000006662782F37443641324537412D444237392D343634442D383146412D4331353032313334423035332F6469726563746F72792E786D6C858F410EC2201045AF4266AF15DDB800BA74E7C21B903225242D6328188F2FA5C4183471359997F9FF81E89FF3C41E1816475E02DF1F80A11FC8
311
386F25A438EECEC07A250251FC3803E6F58C12560C4AD840E95E91C151A72936F496F35732D860FE635F62C8F2DA16B505C545B74125BAA2FA9E05D7CC053D063734D5C7665FD55B6B8D15D5E9BFEAFD8490FFA45E504B0304140006080800017137409C9214CBFD000000A00100003B0000006662782F3744364132453741
311
2D444237392D343634442D383146412D4331353032313334423035332F7265736F75726365732F636F72652E786D6C8D504B6EC32010BD8A357B6C206EEA5A98C8A99313F402084F1C94182C3E558F5F9CB852BBEB8661DE47F3F4C4E16BBE179FE88371B603565228D06A371A3B7590E28534501CA4F0CEC55F3228AC9AB1
311
8315062926EFD2B241DAD9883666D4BA1137508580110A7DCF9F0E82BEE2AC4A956256845BB9287D531396ACCC74D64911A2CF018AE791F505E931B8E43506513D59295232E3A63163BE692E063DC8D3B161FCF8BA27B43F9F494DDF07F2560F3D197ABEAF9B66381D772FA25ACD524433FF64D41E55C41124A78C13CA08DF
311
7DB0BAA54D4BF3BA6F2915D52AFF634ACBF84F533236EEF816F7690B20590EF220A4A8D6BEF2789499E7DAADFC06504B010214000A0000080000017137403DEE336E79000000790000001B00000000000000000000000000000000006175746F6465736B2D64657369676E2D7061636B6167652E786D6C504B010214001400
311
0608080001713740D486FD9CA0000000F40000001300000000000000000000000000B20000005B436F6E74656E745F54797065735D2E786D6C504B01021400140006080800017137408F393A53EA0000007C010000080000000000000000000000000083010000636F72652E786D6C504B0102140014000608080001713740
311
55019EA25F0000007C000000070000000000000000000000000093020000636E782E786D6C504B01021400140006080800017137404399B11A66010000020300000C00000000000000000000000000170300006662782F636F72652E786D6C504B01021400140006080800017137406919E4B37F0000009D0000000B000000
311
00000000000000000000A70400006662782F636E782E786D6C504B010214001400060808000171374024472C522A0100001402000031000000000000000000000000004F0500006662782F37443641324537412D444237392D343634442D383146412D4331353032313334423035332F636F72652E786D6C504B0102140014
311
000608080001713740ED5004F54C010000330300003000000000000000000000000000C80600006662782F37443641324537412D444237392D343634442D383146412D4331353032313334423035332F636E782E786D6C504B0102140014000608080001713740182E8B509C0500007A100000340000000000000000000000
311
0000620800006662782F37443641324537412D444237392D343634442D383146412D4331353032313334423035332F6F626A656374732E786D6C504B01021400140006080000017137400000000000000000000000003500000000000000000000000000500E00006662782F37443641324537412D444237392D343634442D
311
383146412D4331353032313334423035332F76657274696365732E62696E504B0102140014000608080001713740F270F13306000000040000003600000000000000000000000000A30E00006662782F37443641324537412D444237392D343634442D383146412D4331353032313334423035332F747269616E676C65732E
311
62696E504B01021400140006080000017137400000000000000000000000003700000000000000000000000000FD0E00006662782F37443641324537412D444237392D343634442D383146412D4331353032313334423035332F617474726962757465732E62696E504B0102140014000608080001713740D5987DFC8F0000
311
00410100003600000000000000000000000000520F00006662782F37443641324537412D444237392D343634442D383146412D4331353032313334423035332F6469726563746F72792E786D6C504B01021400140006080800017137409C9214CBFD000000A00100003B00000000000000000000000000351000006662782F
311
37443641324537412D444237392D343634442D383146412D4331353032313334423035332F7265736F75726365732F636F72652E786D6C504B0506000000000E000E00800400008B1100000000
310
504B03040A0000080000017137403DEE336E79000000790000001B0000006175746F6465736B2D64657369676E2D7061636B6167652E786D6C3C3F786D6C2076657273696F6E3D22312E302220656E636F64696E673D227574662D3822203F3E3C666F726D6174733E3C666F726D61743E687474703A2F2F736368656D612E
310
6175746F6465736B2E636F6D2F64657369676E2D7061636B6167652F323030393C2F666F726D61743E3C2F666F726D6174733E504B030414000608080001713740D486FD9CA0000000F4000000130000005B436F6E74656E745F54797065735D2E786D6C7D8EC10E82300C865F65E91D8A1E8C310C0EEA1BF002731658846E
310
D98AC1B77784ABF1D8FE5FBFBF75BBCE937A534CCEB38643598122B6FEE978D0B0485F9C41B54DDD7D022595594E1A469170414C76A4D9A4D207E29CF43ECE46F218070CC6BECC4078ACAA135ACF422C856C0E68EA1BF5669944DDD7BCDE7B1F8E415D77AECB980613C2E4AC91FC167A2B244592486606FC29C8FD7F045B9A
310
EF7053A7E60B504B030414000608080001713740108FC64CEA0000007C01000008000000636F72652E786D6C8D90416EC3201045AF82668F0DD849530B13B9A63E412F8030715162B00C543D7E71E248EDAEAB193EFFCD8C3E3F7FCF37F465D660BD6B8116049071DA8FD64D2DA478C1274067C157EFE32F1B20A766D3C226
310
83E0D3EAD3B24BDABB685CCCAAF3A3D94515828980F42D372D04FD696655A814B3235C8B45E9AB9A4C419F5D8653B2237A2CB1639E672FD6AC20A4EC3B39D0011FD920717DA03D7EED5F0E58BE4B2659777CABBA9A971B2C78B4F373BF5E8D8A6604C108659850CCAA0F5A37E4D490FC3C3684F072B3FF81D232FE134AD6C5
310
8AEDE73EB00082E643EE1F82975B16B9DC83CA75CB4DFC00504B03041400060808000171374055019EA25F0000007C00000007000000636E782E786D6C4DCB3B0E80201045D1AD90E915ED2CF8AC45050C11660C8261F98AB1B07AC9C97D42D718D865D3E909258CFD00CCE24AC6E326A164D74DC0B4128928FF326038472B
310
A13128B1252AC747C6BAB984FC68F0B87FE8960A5C09FE86CFB69FBA01504B030414000608080001713740CB79ED4767010000020300000C0000006662782F636F72652E786D6C8D52ED8E8230107C95A6FF4B0BA2E79952E3C9F904F702B5548E082D292DF1F16FF9309C17632E24507676766607F8FED6D4A8D7AEABACC9
310
701C318CB451B6A84C99E1E02F648BD15E7067ADFFD58691918DCEF050C68297CE86762E296BBC361EAAC6167A2ECAAED31E2355C321C39DFAD68D8C64F0D0D15DA356AAAB2C75144700439FE09D7760004D22C31D8BCBF9C6E954173C84AA98D1AA00B5EA526987459E1F0FF9293E914D72CA49BA8E8FE4FDF8B626F9679E
310
E4C961F3B13AA49C0E64C17DD5DCDD29A7A5D70516098B13C26292ACBEE274C7B63B06AF9B1D639C0EED0FA4D016FF2485CAF85532DB9D681D16311819813FDB42441E75B2073F54703A84088F31E1C7A0211008D9CB737DDFE30AA55E2B6F5D0A4861C302F5B20E1A54191A2F4E2714268F0360B3A7739217735ECF800F28
310
4D09D6A487E339F8419D4FAA7314AD76A4F73764AC6B64BD989B2C2EF745E8295DD9DABAFFB0E9BC2A9DC3A4C3DF2B7E00504B0304140006080800017137409D94C4567D0000009D0000000B0000006662782F636E782E786D6C4DCCD10A83201805E05791FFDE65D44C418D85ED3D6259C84CC3E9D8E3CF46173B37073E0E
310
47F49FCDA1B7892F1BBC84FA420019FF08B3F5AB849C16CC00F54AC410D2DF0C909F3623E16050628D21EF27CD6699B24B459DF5CF1359AD1B52826FB46B70CB4786874E534C78ABE9958DFCCE06A894A87E4FA58F63F505504B030414000608080001713740FB48D22F2A01000014020000310000006662782F3831443330
310
3030302D413637332D343945382D423744362D3039344436353845394638422F636F72652E786D6C8D51CB6EC32010FC15C4293DD8C68F103BC2448D927E417FC001E2A2C460F1A8F2F95D6A476A6FE1C0C2ECCCEE68971D1ED31D7D2BE7B5353D2E73829132C24A6DC61EC770CD5A8C0E9C396BC31F1A466698548F138C39
310
1B9D8DF30A096B8232015063A55AC1C17B1530127778F4D88B2F350DF9100330FC2D9F07711B46959739A481C7990F0E0CA0A549BA316FCB534DE064EF7457674D776EB3E3EE4433D23527BA6DCFDD477B64C522E42C462D57B99660475FB572AF164962CE829E9EF68553435012F38A945546CAACAA3FCB664FDA3D812FDD
310
13C28A44FF278AB37C5114B50975B5DA5D641EF392154B823369E3E5FE34A31EB37501A57E1BAFC41BE62427555D11BAED58B15061005093366B4D1FAC83016F6E1760D76B61DA7056A41D41F85D20C4B44FFE03504B0304140006080800017137408BF7CBE25301000033030000300000006662782F38314433303030302D
310
413637332D343945382D423744362D3039344436353845394638422F636E782E786D6CBD93CD6EC32010845F0571F76F2CCB8A30917AE813F4D02B864D4283C1025C356FDF2521692E3954AA7A41F6EC30B3FA64B3DDD76CC827F8A09D1D6953D69480954E697B18E91AF7C540C98E33EF5C7CB05162C50C234D32E5ECE0DD
310
BA6449C15EAC26A26AB43D65D14370AB9710504E37897152180C005BAC28C23C8152A0C8DD884F7BF0B80A8AD399C42390D79777E2A60F9031B02AA57056A50ECED2999B1E4C9448234218699047984529D6E8148453A944146553DEBA9EECF49344D2855BE5EA3549E5234D27E579A31239B20A879C85E8915E36C5F30294
310
8B65315A8A8890AB8BF1EAE16CD536F65DF66A04EFD1BD69FB61C0B0CB8CB3A867C80EE941445094B775D3167553B49BB7A6DBD6C3B6C6D77E5BD7AC4A76CE26E74CBE8431E0DD42A4B3116CA4BC61551A3FC3977D44698FAC9D3FFF022402C8AD573AF78CBFE4D3F49BAEFB473ED5E5FB465C1EFF02FE0D504B0304140006
310
080800017137407946780A59070000931B0000340000006662782F38314433303030302D413637332D343945382D423744362D3039344436353845394638422F6F626A656374732E786D6CED595B6FA33814FE2B887D0E09499A695694519BB6A368D599D16467B40F9590030EF5D618649B5EF6D7EFF1050234B464A7FB36
310
0F0960ECE373BE73F521F8F89451E70173417276E6FADEC475308BF384B0F4CC2DE56E74EA3A1FC380E7B96C4C731D86327CE6AA61370C529E97851D4AF00E95547646AF2FFE72448C19769D982221CE5C11DFE10C79A8947982C5BD972089BC74F7E4F99E99D8269B7254DC7588168863268153186740C5314CF9EDC7893B
310
0E83B17A1F06EADFCE9A0D9A35EF9F35D652B7B9244C48C4E2172C75C8CC06B134F3E79757D393E5E8643E9F8DE68BA93FBAB8BEB81CF91F6693D562B55A9E5F2D81BD6D9E532B53820BCC12D0DFB31BFAC158BDA945B7081CE23ACE19C3B10612A0D2627509122C60AB067C93F6A3AF246ABCD612369EE7EABD65A1313C6B
310
53E99B350C88165D10C46E57495C5D9BF2E5DBBF417031C428B9C012B8159283762D3C1CBCC20D27C1D88C86C176AF0B229C0C49CC09A20E255B8E382805A6AA296160165832CA3938907294045A73E675DBB6C033DF769D435CEE4A4A9567B8A176AC08DC0F4BA13923FF60BEE7BE890CF004D29684C953CBA57C2EB01B2E
310
83B11E0C0375994DED4B03A4B3A328151A11F3B623E84AB9FEFAD20DFFB8DE3E6D543838BC79C1F30273A98C4EE951F305866CAF0A25BBAD3F48736A01086340B52BF7A07C03E43F43F4D8B3027AE3E469FE34B77325474CEC729E816E9C89339AC0DFC4F1F5BFBA6FDC05E37A715B7B7D78829B2AA84E7F1ECFB60C1A2BCB
310
7F03CE30780083CFF9CCBEDAC488823DDF100600292371680E4310DA77DB27375C43E084400FAB100D7D1019D87D80DB606CC9ECB552B997F53A0688DA3D66439404B0698B04367AF4F409B20727F15E4D4D11FBE03D7917733DBFDCFCB129F90EC5F8C6FAF425DE11462464CDC30CB5306F49748F9F1F739E80A02FF1DE34
310
F1CEEC5602D056982BE0D30A04F5B0DFB9B5410CEBD25C859BE08D1D400895AB1BF46F888831A588E1BCACF6ADA39B32D4DAE36DCDE0865303F16CDA31618E1F88AA2AC069F6335A8C42DE8F392914886EF8C94856074DAF47BAEFEBCF6091F5FC9E596B06A19721FAA70E5A077068597685B405A21678BB0FE7714E731E6D
310
9F2313E95CA825808DB6B7FC681185586F94A4A8800769BFAB424A6AA48D12B2DB9502E2EA01167FAC574D73987833FFC469FE779C710ED1167C1771EB779D3D2292A114473B94F46DD7DCADA62D34C91ED21CEF28C8451E887C8E908C26094E8F81E628E2CB77A59ED25C08C2B0807C7510FC261A130F0289D166C5B2D26A
310
076822A20C4B448F414091E90157A71D5DE3C6503ABCCD636DBDAF69AC49F47FB2088EA096CC5944A014851CF226E3BE770231A48DAE41B9832F585B455B8B414B2821E2E7E81193F44E1E83BA21DF837B0C4792524679816230EB01645FF88A526A87F72D8AEF55FE88E292BE9781084C7711A1B4CC22F81106278F21AE5D
310
07A65751681037B14FE20C8A32244B3E6493C5C9E4C53EA666E886C0C6463B42216C47192A7A506F05445D8F3835F8967A8F52B765564428CB4B36C850BC59D79B2CF9AE5A15D981FCAA5211CAC68AB025180684C93AAB56311B4C5D075670231DA89E2381B2829A53D81B89C7AFBD4953EEDD805B3F7DDF0D3228FC7AB4D7
310
8CA8F30A06CB63AB30108F48C6776EB8D1D7D105D4DF094EF6A9BEAA359B152020A62279C98955D1F7359437B64673C31B24C5ED279375ABEBF7B507DD8F600C6BA076A917AE15D0196612A9CAE446DDD06F0842708B86195FAB9C7A0C95F324D15523A2D7A44F9DAD32A2B56946BCE20EB33C831FBB252CA665826F5122EE
310
A31B49A30D51AC5B29BD8C5418BF2AE0974F9B0E3C303240A4AFAAC0C38F9DB57674A5CAA58344E45D996D192210045BA2A546375EC152AB914ACBF5559D29A0EE0203B32A9EFF3A5934DB11BF4E16A9358C9F3B59D07C8BE83EDA34B279ACCCFAA853409D9E1495F73805E8AE434DB54E2226975BF1AD2F451013AB203FB8
310
18AB628621D8C7F17F4EDA7D49D06CD7E1FFB8A4EDBF28388E4A2AADC9AA4975A0705D3753D8F2F47C3A9DAC4E47A78B8B0FA3F9C9EC6A747AB95C8CCEE71F1657FE62E92FE68B1A4DEDA76150C7329DBAE0D9C4B46A583D590CA0292B724A1238CC274E8A21E44B38D20FE89EF30C0BC89DCD5E77627BF203563F9836A744
310
5B8A2B4EEE10F487A980AC0E1895B16C8F3BBF416752C239FBCC859E91770F7FD62A5D0712CF990B9D0249622CBC2D7499543F4F13878CAB53BF2506F82096AA8C6816D5CFF52A854D2BFAD7538664012B57AB8501755B01CDAF568342F366798A8F12BC62C741126EB7A58462CDC8B21FA885D1DBECD56F64A384DDDBAD9F
310
C0755F17CBF7F49C162283BE18BC6A0486EA48229EEA76B762CCB2747EF9750C6D3667FDC5296899822E87531A710CC65CAA7A0AAC08ACC2D22C9004535DFD7EFB95E7F0852773745174BBCAB32C67F6E11C8E63097C21723677F0BD27B985AA01ABAEBAB89D4EFCE9ADEE66DB067BB445027BAA1C8281AA8A5022748C0D2C
310
F24567CAF62DC74A099DE9EB4BC7864FE802180B7AD1DC355FB71CF01EF51D45F98AF6F04ACE571BDA633D15AC81432B3AFC17504B030414000608000001713740000000000000000000000000350000006662782F38314433303030302D413637332D343945382D423744362D3039344436353845394638422F7665727469
310
6365732E62696E504B030414000608080001713740F270F1330600000004000000360000006662782F38314433303030302D413637332D343945382D423744362D3039344436353845394638422F747269616E676C65732E62696E636660600000504B03041400060800000171374000000000000000000000000037000000
310
6662782F38314433303030302D413637332D343945382D423744362D3039344436353845394638422F617474726962757465732E62696E504B030414000608080001713740D5987DFC8F00000041010000360000006662782F38314433303030302D413637332D343945382D423744362D3039344436353845394638422F64
310
69726563746F72792E786D6C858F410EC2201045AF4266AF15DDB800BA74E7C21B903225242D6328188F2FA5C4183471359997F9FF81E89FF3C41E1816475E02DF1F80A11FC8386F25A438EECEC07A250251FC3803E6F58C12560C4AD840E95E91C151A72936F496F35732D860FE635F62C8F2DA16B505C545B74125BAA2FA
310
9E05D7CC053D063734D5C7665FD55B6B8D15D5E9BFEAFD8490FFA45E504B03041400060808000171374078659B7DFC000000A00100003B0000006662782F38314433303030302D413637332D343945382D423744362D3039344436353845394638422F7265736F75726365732F636F72652E786D6C8D50596EC32010BD8A35
310
FFD84096A616264A4D72825E00E1898B1243C452F5F8C5B12BB57FFD6198B7689E9E387E4DF7EA1343B4DE75C06A0A153AE307EBC60E72BA920354472982F7E9970C2AA727EC6086418A31F8FC5821E35D42970AEAFC802BA863C40495B9974F07D17CE0A46B9D5351C45BFDD0E6A647AC595DE8A29322A6500254CB91F905
310
1930FA1C0C46D12CAC1439DB61D5D8A1DCB4578B01A452FD495DD899ECF94591ED8EF5E4B57FD91175565CF1D3FE6D73DA8A66364B91ECF493D104D40907909C324E28237CF3CEB62D3DB4B4ACFB9652D1CCF23FA6FC18FE69CAD6A50D5FE32EB6089295204F428A66EEAB8C679965CEDDCA6F504B010214000A0000080000
310
017137403DEE336E79000000790000001B00000000000000000000000000000000006175746F6465736B2D64657369676E2D7061636B6167652E786D6C504B0102140014000608080001713740D486FD9CA0000000F40000001300000000000000000000000000B20000005B436F6E74656E745F54797065735D2E786D6C50
310
4B0102140014000608080001713740108FC64CEA0000007C010000080000000000000000000000000083010000636F72652E786D6C504B010214001400060808000171374055019EA25F0000007C000000070000000000000000000000000093020000636E782E786D6C504B0102140014000608080001713740CB79ED4767
310
010000020300000C00000000000000000000000000170300006662782F636F72652E786D6C504B01021400140006080800017137409D94C4567D0000009D0000000B00000000000000000000000000A80400006662782F636E782E786D6C504B0102140014000608080001713740FB48D22F2A010000140200003100000000
310
0000000000000000004E0500006662782F38314433303030302D413637332D343945382D423744362D3039344436353845394638422F636F72652E786D6C504B01021400140006080800017137408BF7CBE253010000330300003000000000000000000000000000C70600006662782F38314433303030302D413637332D34
310
3945382D423744362D3039344436353845394638422F636E782E786D6C504B01021400140006080800017137407946780A59070000931B00003400000000000000000000000000680800006662782F38314433303030302D413637332D343945382D423744362D3039344436353845394638422F6F626A656374732E786D6C
310
504B01021400140006080000017137400000000000000000000000003500000000000000000000000000131000006662782F38314433303030302D413637332D343945382D423744362D3039344436353845394638422F76657274696365732E62696E504B0102140014000608080001713740F270F1330600000004000000
310
3600000000000000000000000000661000006662782F38314433303030302D413637332D343945382D423744362D3039344436353845394638422F747269616E676C65732E62696E504B01021400140006080000017137400000000000000000000000003700000000000000000000000000C01000006662782F3831443330
310
3030302D413637332D343945382D423744362D3039344436353845394638422F617474726962757465732E62696E504B0102140014000608080001713740D5987DFC8F000000410100003600000000000000000000000000151100006662782F38314433303030302D413637332D343945382D423744362D30393444363538
310
45394638422F6469726563746F72792E786D6C504B010214001400060808000171374078659B7DFC000000A00100003B00000000000000000000000000F81100006662782F38314433303030302D413637332D343945382D423744362D3039344436353845394638422F7265736F75726365732F636F72652E786D6C504B05
310
06000000000E000E00800400004D1300000000
  0
XRECORD
  5
27
102
{ACAD_REACTORS
330
22
102
}
330
22
100
AcDbXrecord
280
     1
270
     1
271
     1
  0
XRECORD
  5
26
102
{ACAD_REACTORS
330
22
102
}
330
22
100
AcDbXrecord
280
     1
270
     1
271
     1
  0
XRECORD
  5
28
102
{ACAD_REACTORS
330
22
102
}
330
22
100
AcDbXrecord
280
     1
270
     1
271
     1
  0
XRECORD
  5
25
102
{ACAD_REACTORS
330
22
102
}
330
22
100
AcDbXrecord
280
     1
270
     1
271
     1
  0
XRECORD
  5
891
102
{ACAD_REACTORS
330
890
102
}
330
890
100
AcDbXrecord
280
     1
102
ACAD_ROUNDTRIP_2012_MLEADER_STYLE
298
     1
  0
CELLSTYLEMAP
  5
88F
102
{ACAD_REACTORS
330
88E
102
}
330
88E
100
AcDbCellStyleMap
 90
        3
300
CELLSTYLE
  1
TABLEFORMAT_BEGIN
 90
        5
170
     1
 91
        0
 92
    32768
 62
   257
 93
        1
300
CONTENTFORMAT
  1
CONTENTFORMAT_BEGIN
 90
        0
 91
        0
 92
      512
 93
        0
300

 40
0.0
140
1.0
 94
        5
 62
     0
340
55
144
0.25
309
CONTENTFORMAT_END
171
     0
 94
        0
309
TABLEFORMAT_END
  1
CELLSTYLE_BEGIN
 90
        1
 91
        1
300
_TITLE
309
CELLSTYLE_END
300
CELLSTYLE
  1
TABLEFORMAT_BEGIN
 90
        5
170
     1
 91
        0
 92
        0
 62
   257
 93
        1
300
CONTENTFORMAT
  1
CONTENTFORMAT_BEGIN
 90
        0
 91
        0
 92
      512
 93
        0
300

 40
0.0
140
1.0
 94
        5
 62
     0
340
55
144
0.18
309
CONTENTFORMAT_END
171
     0
 94
        0
309
TABLEFORMAT_END
  1
CELLSTYLE_BEGIN
 90
        2
 91
        1
300
_HEADER
309
CELLSTYLE_END
300
CELLSTYLE
  1
TABLEFORMAT_BEGIN
 90
        5
170
     1
 91
        0
 92
        0
 62
   257
 93
        1
300
CONTENTFORMAT
  1
CONTENTFORMAT_BEGIN
 90
        0
 91
        0
 92
      512
 93
        0
300

 40
0.0
140
1.0
 94
        2
 62
     0
340
55
144
0.18
309
CONTENTFORMAT_END
171
     0
 94
        0
309
TABLEFORMAT_END
  1
CELLSTYLE_BEGIN
 90
        3
 91
        2
300
_DATA
309
CELLSTYLE_END
  0
XRECORD
  5
8C7
102
{ACAD_REACTORS
330
88E
102
}
330
88E
100
AcDbXrecord
280
     1
102
ACAD_ROUNDTRIP_PRE2007_TABLESTYLE
 90
      512
 91
        0
  1

 92
      512
 93
        0
  2

 94
      512
 95
        0
  3

  0
XRECORD
  5
8A2
102
{ACAD_REACTORS
330
8A1
102
}
330
8A1
100
AcDbXrecord
280
     1
102
RTVSPropertyOp0
 70
     1
102
RTVSPropertyOp1
 70
     1
102
RTVSPropertyOp2
 70
     1
102
RTVSPropertyOp3
 70
     1
102
RTVSPropertyOp4
 70
     1
102
RTVSPropertyOp5
 70
     1
102
RTVSPropertyOp6
 70
     1
102
RTVSPropertyOp7
 70
     1
102
RTVSPropertyOp8
 70
     1
102
RTVSPropertyOp9
 70
     1
102
RTVSPropertyOp10
 70
     1
102
RTVSPropertyOp11
 70
     1
102
RTVSPropertyOp12
 70
     1
102
RTVSPropertyOp13
 70
     1
102
RTVSPropertyOp14
 70
     1
102
RTVSPropertyOp15
 70
     1
102
RTVSPropertyOp16
 70
     1
102
RTVSPropertyOp17
 70
     1
102
RTVSPropertyOp18
 70
     1
102
RTVSPropertyOp19
 70
     1
102
RTVSPropertyOp20
 70
     1
102
RTVSPropertyOp21
 70
     1
102
RTVSPropertyOp22
 70
     1
102
RTVSPropertyOp23
 70
     1
102
RTVSPropertyOp24
 70
     1
102
RTVSPropertyOp25
 70
     1
102
RTVSPropertyOp26
 70
     1
102
RTVSPropertyOp27
 70
     1
102
RTVSPropertyOp28
 70
     1
102
RTVSPropertyOp29
 70
     1
102
RTVSPropertyOp30
 70
     1
102
RTVSPropertyOp31
 70
     1
102
RTVSPropertyOp32
 70
     1
  0
XRECORD
  5
8A0
102
{ACAD_REACTORS
330
89F
102
}
330
89F
100
AcDbXrecord
280
     1
102
RTVSPropertyOp0
 70
     1
102
RTVSPropertyOp1
 70
     1
102
RTVSPropertyOp2
 70
     1
102
RTVSPropertyOp3
 70
     1
102
RTVSPropertyOp4
 70
     1
102
RTVSPropertyOp5
 70
     1
102
RTVSPropertyOp6
 70
     1
102
RTVSPropertyOp7
 70
     1
102
RTVSPropertyOp8
 70
     1
102
RTVSPropertyOp9
 70
     1
102
RTVSPropertyOp10
 70
     1
102
RTVSPropertyOp11
 70
     1
102
RTVSPropertyOp12
 70
     1
102
RTVSPropertyOp13
 70
     1
102
RTVSPropertyOp14
 70
     1
102
RTVSPropertyOp15
 70
     1
102
RTVSPropertyOp16
 70
     1
102
RTVSPropertyOp17
 70
     1
102
RTVSPropertyOp18
 70
     1
102
RTVSPropertyOp19
 70
     1
102
RTVSPropertyOp20
 70
     1
102
RTVSPropertyOp21
 70
     1
102
RTVSPropertyOp22
 70
     1
102
RTVSPropertyOp23
 70
     1
102
RTVSPropertyOp24
 70
     1
102
RTVSPropertyOp25
 70
     1
102
RTVSPropertyOp26
 70
     1
102
RTVSPropertyOp27
 70
     1
102
RTVSPropertyOp28
 70
     1
102
RTVSPropertyOp29
 70
     1
102
RTVSPropertyOp30
 70
     1
102
RTVSPropertyOp31
 70
     1
102
RTVSPropertyOp32
 70
     1
  0
XRECORD
  5
8AE
102
{ACAD_REACTORS
330
8AD
102
}
330
8AD
100
AcDbXrecord
280
     1
102
RTVSPropertyOp0
 70
     1
102
RTVSPropertyOp1
 70
     1
102
RTVSPropertyOp2
 70
     1
102
RTVSPropertyOp3
 70
     1
102
RTVSPropertyOp4
 70
     1
102
RTVSPropertyOp5
 70
     1
102
RTVSPropertyOp6
 70
     1
102
RTVSPropertyOp7
 70
     1
102
RTVSPropertyOp8
 70
     1
102
RTVSPropertyOp9
 70
     1
102
RTVSPropertyOp10
 70
     1
102
RTVSPropertyOp11
 70
     1
102
RTVSPropertyOp12
 70
     1
102
RTVSPropertyOp13
 70
     1
102
RTVSPropertyOp14
 70
     1
102
RTVSPropertyOp15
 70
     1
102
RTVSPropertyOp16
 70
     1
102
RTVSPropertyOp17
 70
     1
102
RTVSPropertyOp18
 70
     1
102
RTVSPropertyOp19
 70
     1
102
RTVSPropertyOp20
 70
     1
102
RTVSPropertyOp21
 70
     1
102
RTVSPropertyOp22
 70
     1
102
RTVSPropertyOp23
 70
     1
102
RTVSPropertyOp24
 70
     1
102
RTVSPropertyOp25
 70
     1
102
RTVSPropertyOp26
 70
     1
102
RTVSPropertyOp27
 70
     1
102
RTVSPropertyOp28
 70
     1
102
RTVSPropertyOp29
 70
     1
102
RTVSPropertyOp30
 70
     1
102
RTVSPropertyOp31
 70
     1
102
RTVSPropertyOp32
 70
     1
  0
XRECORD
  5
8B6
102
{ACAD_REACTORS
330
8B5
102
}
330
8B5
100
AcDbXrecord
280
     1
102
RTVSPropertyOp0
 70
     1
102
RTVSPropertyOp1
 70
     1
102
RTVSPropertyOp2
 70
     1
102
RTVSPropertyOp3
 70
     1
102
RTVSPropertyOp4
 70
     1
102
RTVSPropertyOp5
 70
     1
102
RTVSPropertyOp6
 70
     1
102
RTVSPropertyOp7
 70
     1
102
RTVSPropertyOp8
 70
     1
102
RTVSPropertyOp9
 70
     1
102
RTVSPropertyOp10
 70
     1
102
RTVSPropertyOp11
 70
     1
102
RTVSPropertyOp12
 70
     1
102
RTVSPropertyOp13
 70
     1
102
RTVSPropertyOp14
 70
     1
102
RTVSPropertyOp15
 70
     1
102
RTVSPropertyOp16
 70
     1
102
RTVSPropertyOp17
 70
     1
102
RTVSPropertyOp18
 70
     1
102
RTVSPropertyOp19
 70
     1
102
RTVSPropertyOp20
 70
     1
102
RTVSPropertyOp21
 70
     1
102
RTVSPropertyOp22
 70
     1
102
RTVSPropertyOp23
 70
     1
102
RTVSPropertyOp24
 70
     1
102
RTVSPropertyOp25
 70
     1
102
RTVSPropertyOp26
 70
     1
102
RTVSPropertyOp27
 70
     1
102
RTVSPropertyOp28
 70
     1
102
RTVSPropertyOp29
 70
     1
102
RTVSPropertyOp30
 70
     1
102
RTVSPropertyOp31
 70
     1
102
RTVSPropertyOp32
 70
     1
  0
XRECORD
  5
8A8
102
{ACAD_REACTORS
330
8A7
102
}
330
8A7
100
AcDbXrecord
280
     1
102
RTVSPropertyOp0
 70
     1
102
RTVSPropertyOp1
 70
     1
102
RTVSPropertyOp2
 70
     1
102
RTVSPropertyOp3
 70
     1
102
RTVSPropertyOp4
 70
     1
102
RTVSPropertyOp5
 70
     1
102
RTVSPropertyOp6
 70
     1
102
RTVSPropertyOp7
 70
     1
102
RTVSPropertyOp8
 70
     1
102
RTVSPropertyOp9
 70
     1
102
RTVSPropertyOp10
 70
     1
102
RTVSPropertyOp11
 70
     1
102
RTVSPropertyOp12
 70
     1
102
RTVSPropertyOp13
 70
     1
102
RTVSPropertyOp14
 70
     1
102
RTVSPropertyOp15
 70
     1
102
RTVSPropertyOp16
 70
     1
102
RTVSPropertyOp17
 70
     1
102
RTVSPropertyOp18
 70
     1
102
RTVSPropertyOp19
 70
     1
102
RTVSPropertyOp20
 70
     1
102
RTVSPropertyOp21
 70
     1
102
RTVSPropertyOp22
 70
     1
102
RTVSPropertyOp23
 70
     1
102
RTVSPropertyOp24
 70
     1
102
RTVSPropertyOp25
 70
     1
102
RTVSPropertyOp26
 70
     1
102
RTVSPropertyOp27
 70
     1
102
RTVSPropertyOp28
 70
     1
102
RTVSPropertyOp29
 70
     1
102
RTVSPropertyOp30
 70
     1
102
RTVSPropertyOp31
 70
     1
102
RTVSPropertyOp32
 70
     1
  0
XRECORD
  5
8AC
102
{ACAD_REACTORS
330
8AB
102
}
330
8AB
100
AcDbXrecord
280
     1
102
RTVSPropertyOp0
 70
     1
102
RTVSPropertyOp1
 70
     1
102
RTVSPropertyOp2
 70
     1
102
RTVSPropertyOp3
 70
     1
102
RTVSPropertyOp4
 70
     1
102
RTVSPropertyOp5
 70
     1
102
RTVSPropertyOp6
 70
     1
102
RTVSPropertyOp7
 70
     1
102
RTVSPropertyOp8
 70
     1
102
RTVSPropertyOp9
 70
     1
102
RTVSPropertyOp10
 70
     1
102
RTVSPropertyOp11
 70
     1
102
RTVSPropertyOp12
 70
     1
102
RTVSPropertyOp13
 70
     1
102
RTVSPropertyOp14
 70
     1
102
RTVSPropertyOp15
 70
     1
102
RTVSPropertyOp16
 70
     1
102
RTVSPropertyOp17
 70
     1
102
RTVSPropertyOp18
 70
     1
102
RTVSPropertyOp19
 70
     1
102
RTVSPropertyOp20
 70
     1
102
RTVSPropertyOp21
 70
     1
102
RTVSPropertyOp22
 70
     1
102
RTVSPropertyOp23
 70
     1
102
RTVSPropertyOp24
 70
     1
102
RTVSPropertyOp25
 70
     1
102
RTVSPropertyOp26
 70
     1
102
RTVSPropertyOp27
 70
     1
102
RTVSPropertyOp28
 70
     1
102
RTVSPropertyOp29
 70
     1
102
RTVSPropertyOp30
 70
     1
102
RTVSPropertyOp31
 70
     1
102
RTVSPropertyOp32
 70
     1
  0
XRECORD
  5
8C6
102
{ACAD_REACTORS
330
8C5
102
}
330
8C5
100
AcDbXrecord
280
     1
102
RTVSPropertyOp0
 70
     0
102
RTVSPropertyOp1
 70
     0
102
RTVSPropertyOp2
 70
     0
102
RTVSPropertyOp3
 70
     0
102
RTVSPropertyOp4
 70
     0
102
RTVSPropertyOp5
 70
     0
102
RTVSPropertyOp6
 70
     0
102
RTVSPropertyOp7
 70
     0
102
RTVSPropertyOp8
 70
     0
102
RTVSPropertyOp9
 70
     0
102
RTVSPropertyOp10
 70
     0
102
RTVSPropertyOp11
 70
     0
102
RTVSPropertyOp12
 70
     0
102
RTVSPropertyOp13
 70
     0
102
RTVSPropertyOp14
 70
     2
102
RTVSPropertyOp15
 70
     0
102
RTVSPropertyOp16
 70
     0
102
RTVSPropertyOp17
 70
     0
102
RTVSPropertyOp18
 70
     0
102
RTVSPropertyOp19
 70
     0
102
RTVSPropertyOp20
 70
     0
102
RTVSPropertyOp21
 70
     0
102
RTVSPropertyOp22
 70
     0
102
RTVSPropertyOp23
 70
     0
102
RTVSPropertyOp24
 70
     0
102
RTVSPropertyOp25
 70
     0
102
RTVSPropertyOp26
 70
     0
102
RTVSPropertyOp27
 70
     0
102
RTVSPropertyOp28
 70
     1
102
RTVSPropertyOp29
 70
     1
102
RTVSPropertyOp30
 70
     1
102
RTVSPropertyOp31
 70
     1
102
RTVSPropertyOp32
 70
     1
  0
XRECORD
  5
8B4
102
{ACAD_REACTORS
330
8B3
102
}
330
8B3
100
AcDbXrecord
280
     1
102
RTVSPropertyOp0
 70
     1
102
RTVSPropertyOp1
 70
     1
102
RTVSPropertyOp2
 70
     1
102
RTVSPropertyOp3
 70
     1
102
RTVSPropertyOp4
 70
     1
102
RTVSPropertyOp5
 70
     1
102
RTVSPropertyOp6
 70
     1
102
RTVSPropertyOp7
 70
     1
102
RTVSPropertyOp8
 70
     1
102
RTVSPropertyOp9
 70
     1
102
RTVSPropertyOp10
 70
     1
102
RTVSPropertyOp11
 70
     1
102
RTVSPropertyOp12
 70
     1
102
RTVSPropertyOp13
 70
     1
102
RTVSPropertyOp14
 70
     1
102
RTVSPropertyOp15
 70
     1
102
RTVSPropertyOp16
 70
     1
102
RTVSPropertyOp17
 70
     1
102
RTVSPropertyOp18
 70
     1
102
RTVSPropertyOp19
 70
     1
102
RTVSPropertyOp20
 70
     1
102
RTVSPropertyOp21
 70
     1
102
RTVSPropertyOp22
 70
     1
102
RTVSPropertyOp23
 70
     1
102
RTVSPropertyOp24
 70
     1
102
RTVSPropertyOp25
 70
     1
102
RTVSPropertyOp26
 70
     1
102
RTVSPropertyOp27
 70
     1
102
RTVSPropertyOp28
 70
     1
102
RTVSPropertyOp29
 70
     1
102
RTVSPropertyOp30
 70
     1
102
RTVSPropertyOp31
 70
     1
102
RTVSPropertyOp32
 70
     1
  0
XRECORD
  5
898
102
{ACAD_REACTORS
330
897
102
}
330
897
100
AcDbXrecord
280
     1
102
RTVSPropertyOp0
 70
     1
102
RTVSPropertyOp1
 70
     1
102
RTVSPropertyOp2
 70
     1
102
RTVSPropertyOp3
 70
     1
102
RTVSPropertyOp4
 70
     1
102
RTVSPropertyOp5
 70
     1
102
RTVSPropertyOp6
 70
     1
102
RTVSPropertyOp7
 70
     1
102
RTVSPropertyOp8
 70
     1
102
RTVSPropertyOp9
 70
     1
102
RTVSPropertyOp10
 70
     1
102
RTVSPropertyOp11
 70
     1
102
RTVSPropertyOp12
 70
     1
102
RTVSPropertyOp13
 70
     1
102
RTVSPropertyOp14
 70
     1
102
RTVSPropertyOp15
 70
     1
102
RTVSPropertyOp16
 70
     1
102
RTVSPropertyOp17
 70
     1
102
RTVSPropertyOp18
 70
     1
102
RTVSPropertyOp19
 70
     1
102
RTVSPropertyOp20
 70
     1
102
RTVSPropertyOp21
 70
     1
102
RTVSPropertyOp22
 70
     1
102
RTVSPropertyOp23
 70
     1
102
RTVSPropertyOp24
 70
     1
102
RTVSPropertyOp25
 70
     1
102
RTVSPropertyOp26
 70
     1
102
RTVSPropertyOp27
 70
     1
102
RTVSPropertyOp28
 70
     1
102
RTVSPropertyOp29
 70
     1
102
RTVSPropertyOp30
 70
     1
102
RTVSPropertyOp31
 70
     1
102
RTVSPropertyOp32
 70
     1
  0
XRECORD
  5
89A
102
{ACAD_REACTORS
330
899
102
}
330
899
100
AcDbXrecord
280
     1
102
RTVSPropertyOp0
 70
     1
102
RTVSPropertyOp1
 70
     1
102
RTVSPropertyOp2
 70
     1
102
RTVSPropertyOp3
 70
     1
102
RTVSPropertyOp4
 70
     1
102
RTVSPropertyOp5
 70
     1
102
RTVSPropertyOp6
 70
     1
102
RTVSPropertyOp7
 70
     1
102
RTVSPropertyOp8
 70
     1
102
RTVSPropertyOp9
 70
     1
102
RTVSPropertyOp10
 70
     1
102
RTVSPropertyOp11
 70
     1
102
RTVSPropertyOp12
 70
     1
102
RTVSPropertyOp13
 70
     1
102
RTVSPropertyOp14
 70
     1
102
RTVSPropertyOp15
 70
     1
102
RTVSPropertyOp16
 70
     1
102
RTVSPropertyOp17
 70
     1
102
RTVSPropertyOp18
 70
     1
102
RTVSPropertyOp19
 70
     1
102
RTVSPropertyOp20
 70
     1
102
RTVSPropertyOp21
 70
     1
102
RTVSPropertyOp22
 70
     1
102
RTVSPropertyOp23
 70
     1
102
RTVSPropertyOp24
 70
     1
102
RTVSPropertyOp25
 70
     1
102
RTVSPropertyOp26
 70
     1
102
RTVSPropertyOp27
 70
     1
102
RTVSPropertyOp28
 70
     1
102
RTVSPropertyOp29
 70
     1
102
RTVSPropertyOp30
 70
     1
102
RTVSPropertyOp31
 70
     1
102
RTVSPropertyOp32
 70
     1
  0
XRECORD
  5
89C
102
{ACAD_REACTORS
330
89B
102
}
330
89B
100
AcDbXrecord
280
     1
102
RTVSPropertyOp0
 70
     1
102
RTVSPropertyOp1
 70
     1
102
RTVSPropertyOp2
 70
     1
102
RTVSPropertyOp3
 70
     1
102
RTVSPropertyOp4
 70
     1
102
RTVSPropertyOp5
 70
     1
102
RTVSPropertyOp6
 70
     1
102
RTVSPropertyOp7
 70
     1
102
RTVSPropertyOp8
 70
     1
102
RTVSPropertyOp9
 70
     1
102
RTVSPropertyOp10
 70
     1
102
RTVSPropertyOp11
 70
     1
102
RTVSPropertyOp12
 70
     1
102
RTVSPropertyOp13
 70
     1
102
RTVSPropertyOp14
 70
     1
102
RTVSPropertyOp15
 70
     1
102
RTVSPropertyOp16
 70
     1
102
RTVSPropertyOp17
 70
     1
102
RTVSPropertyOp18
 70
     1
102
RTVSPropertyOp19
 70
     1
102
RTVSPropertyOp20
 70
     1
102
RTVSPropertyOp21
 70
     1
102
RTVSPropertyOp22
 70
     1
102
RTVSPropertyOp23
 70
     1
102
RTVSPropertyOp24
 70
     1
102
RTVSPropertyOp25
 70
     1
102
RTVSPropertyOp26
 70
     1
102
RTVSPropertyOp27
 70
     1
102
RTVSPropertyOp28
 70
     1
102
RTVSPropertyOp29
 70
     1
102
RTVSPropertyOp30
 70
     1
102
RTVSPropertyOp31
 70
     1
102
RTVSPropertyOp32
 70
     1
  0
XRECORD
  5
89E
102
{ACAD_REACTORS
330
89D
102
}
330
89D
100
AcDbXrecord
280
     1
102
RTVSPropertyOp0
 70
     1
102
RTVSPropertyOp1
 70
     1
102
RTVSPropertyOp2
 70
     1
102
RTVSPropertyOp3
 70
     1
102
RTVSPropertyOp4
 70
     1
102
RTVSPropertyOp5
 70
     1
102
RTVSPropertyOp6
 70
     1
102
RTVSPropertyOp7
 70
     1
102
RTVSPropertyOp8
 70
     1
102
RTVSPropertyOp9
 70
     1
102
RTVSPropertyOp10
 70
     1
102
RTVSPropertyOp11
 70
     1
102
RTVSPropertyOp12
 70
     1
102
RTVSPropertyOp13
 70
     1
102
RTVSPropertyOp14
 70
     1
102
RTVSPropertyOp15
 70
     1
102
RTVSPropertyOp16
 70
     1
102
RTVSPropertyOp17
 70
     1
102
RTVSPropertyOp18
 70
     1
102
RTVSPropertyOp19
 70
     1
102
RTVSPropertyOp20
 70
     1
102
RTVSPropertyOp21
 70
     1
102
RTVSPropertyOp22
 70
     1
102
RTVSPropertyOp23
 70
     1
102
RTVSPropertyOp24
 70
     1
102
RTVSPropertyOp25
 70
     1
102
RTVSPropertyOp26
 70
     1
102
RTVSPropertyOp27
 70
     1
102
RTVSPropertyOp28
 70
     1
102
RTVSPropertyOp29
 70
     1
102
RTVSPropertyOp30
 70
     1
102
RTVSPropertyOp31
 70
     1
102
RTVSPropertyOp32
 70
     1
  0
XRECORD
  5
8A6
102
{ACAD_REACTORS
330
8A5
102
}
330
8A5
100
AcDbXrecord
280
     1
102
RTVSPropertyOp0
 70
     1
102
RTVSPropertyOp1
 70
     1
102
RTVSPropertyOp2
 70
     1
102
RTVSPropertyOp3
 70
     1
102
RTVSPropertyOp4
 70
     1
102
RTVSPropertyOp5
 70
     1
102
RTVSPropertyOp6
 70
     1
102
RTVSPropertyOp7
 70
     1
102
RTVSPropertyOp8
 70
     1
102
RTVSPropertyOp9
 70
     1
102
RTVSPropertyOp10
 70
     1
102
RTVSPropertyOp11
 70
     1
102
RTVSPropertyOp12
 70
     1
102
RTVSPropertyOp13
 70
     1
102
RTVSPropertyOp14
 70
     1
102
RTVSPropertyOp15
 70
     1
102
RTVSPropertyOp16
 70
     1
102
RTVSPropertyOp17
 70
     1
102
RTVSPropertyOp18
 70
     1
102
RTVSPropertyOp19
 70
     1
102
RTVSPropertyOp20
 70
     1
102
RTVSPropertyOp21
 70
     1
102
RTVSPropertyOp22
 70
     1
102
RTVSPropertyOp23
 70
     1
102
RTVSPropertyOp24
 70
     1
102
RTVSPropertyOp25
 70
     1
102
RTVSPropertyOp26
 70
     1
102
RTVSPropertyOp27
 70
     1
102
RTVSPropertyOp28
 70
     1
102
RTVSPropertyOp29
 70
     1
102
RTVSPropertyOp30
 70
     1
102
RTVSPropertyOp31
 70
     1
102
RTVSPropertyOp32
 70
     1
  0
XRECORD
  5
8C2
102
{ACAD_REACTORS
330
8C1
102
}
330
8C1
100
AcDbXrecord
280
     1
102
RTVSPropertyOp0
 70
     0
102
RTVSPropertyOp1
 70
     0
102
RTVSPropertyOp2
 70
     0
102
RTVSPropertyOp3
 70
     0
102
RTVSPropertyOp4
 70
     0
102
RTVSPropertyOp5
 70
     0
102
RTVSPropertyOp6
 70
     0
102
RTVSPropertyOp7
 70
     0
102
RTVSPropertyOp8
 70
     0
102
RTVSPropertyOp9
 70
     0
102
RTVSPropertyOp10
 70
     0
102
RTVSPropertyOp11
 70
     0
102
RTVSPropertyOp12
 70
     0
102
RTVSPropertyOp13
 70
     0
102
RTVSPropertyOp14
 70
     2
102
RTVSPropertyOp15
 70
     0
102
RTVSPropertyOp16
 70
     0
102
RTVSPropertyOp17
 70
     0
102
RTVSPropertyOp18
 70
     0
102
RTVSPropertyOp19
 70
     0
102
RTVSPropertyOp20
 70
     0
102
RTVSPropertyOp21
 70
     0
102
RTVSPropertyOp22
 70
     0
102
RTVSPropertyOp23
 70
     0
102
RTVSPropertyOp24
 70
     0
102
RTVSPropertyOp25
 70
     0
102
RTVSPropertyOp26
 70
     0
102
RTVSPropertyOp27
 70
     0
102
RTVSPropertyOp28
 70
     1
102
RTVSPropertyOp29
 70
     1
102
RTVSPropertyOp30
 70
     1
102
RTVSPropertyOp31
 70
     1
102
RTVSPropertyOp32
 70
     1
  0
XRECORD
  5
8B2
102
{ACAD_REACTORS
330
8B1
102
}
330
8B1
100
AcDbXrecord
280
     1
102
RTVSPropertyOp0
 70
     1
102
RTVSPropertyOp1
 70
     1
102
RTVSPropertyOp2
 70
     1
102
RTVSPropertyOp3
 70
     1
102
RTVSPropertyOp4
 70
     1
102
RTVSPropertyOp5
 70
     1
102
RTVSPropertyOp6
 70
     1
102
RTVSPropertyOp7
 70
     1
102
RTVSPropertyOp8
 70
     1
102
RTVSPropertyOp9
 70
     1
102
RTVSPropertyOp10
 70
     1
102
RTVSPropertyOp11
 70
     1
102
RTVSPropertyOp12
 70
     1
102
RTVSPropertyOp13
 70
     1
102
RTVSPropertyOp14
 70
     1
102
RTVSPropertyOp15
 70
     1
102
RTVSPropertyOp16
 70
     1
102
RTVSPropertyOp17
 70
     1
102
RTVSPropertyOp18
 70
     1
102
RTVSPropertyOp19
 70
     1
102
RTVSPropertyOp20
 70
     1
102
RTVSPropertyOp21
 70
     1
102
RTVSPropertyOp22
 70
     1
102
RTVSPropertyOp23
 70
     1
102
RTVSPropertyOp24
 70
     1
102
RTVSPropertyOp25
 70
     1
102
RTVSPropertyOp26
 70
     1
102
RTVSPropertyOp27
 70
     1
102
RTVSPropertyOp28
 70
     1
102
RTVSPropertyOp29
 70
     1
102
RTVSPropertyOp30
 70
     1
102
RTVSPropertyOp31
 70
     1
102
RTVSPropertyOp32
 70
     1
  0
XRECORD
  5
8C4
102
{ACAD_REACTORS
330
8C3
102
}
330
8C3
100
AcDbXrecord
280
     1
102
RTVSPropertyOp0
 70
     0
102
RTVSPropertyOp1
 70
     0
102
RTVSPropertyOp2
 70
     0
102
RTVSPropertyOp3
 70
     0
102
RTVSPropertyOp4
 70
     0
102
RTVSPropertyOp5
 70
     0
102
RTVSPropertyOp6
 70
     0
102
RTVSPropertyOp7
 70
     0
102
RTVSPropertyOp8
 70
     0
102
RTVSPropertyOp9
 70
     0
102
RTVSPropertyOp10
 70
     0
102
RTVSPropertyOp11
 70
     0
102
RTVSPropertyOp12
 70
     0
102
RTVSPropertyOp13
 70
     0
102
RTVSPropertyOp14
 70
     2
102
RTVSPropertyOp15
 70
     0
102
RTVSPropertyOp16
 70
     0
102
RTVSPropertyOp17
 70
     0
102
RTVSPropertyOp18
 70
     0
102
RTVSPropertyOp19
 70
     0
102
RTVSPropertyOp20
 70
     0
102
RTVSPropertyOp21
 70
     0
102
RTVSPropertyOp22
 70
     0
102
RTVSPropertyOp23
 70
     0
102
RTVSPropertyOp24
 70
     0
102
RTVSPropertyOp25
 70
     0
102
RTVSPropertyOp26
 70
     0
102
RTVSPropertyOp27
 70
     0
102
RTVSPropertyOp28
 70
     1
102
RTVSPropertyOp29
 70
     1
102
RTVSPropertyOp30
 70
     1
102
RTVSPropertyOp31
 70
     1
102
RTVSPropertyOp32
 70
     1
  0
XRECORD
  5
8AA
102
{ACAD_REACTORS
330
8A9
102
}
330
8A9
100
AcDbXrecord
280
     1
102
RTVSPropertyOp0
 70
     1
102
RTVSPropertyOp1
 70
     1
102
RTVSPropertyOp2
 70
     1
102
RTVSPropertyOp3
 70
     1
102
RTVSPropertyOp4
 70
     1
102
RTVSPropertyOp5
 70
     1
102
RTVSPropertyOp6
 70
     1
102
RTVSPropertyOp7
 70
     1
102
RTVSPropertyOp8
 70
     1
102
RTVSPropertyOp9
 70
     1
102
RTVSPropertyOp10
 70
     1
102
RTVSPropertyOp11
 70
     1
102
RTVSPropertyOp12
 70
     1
102
RTVSPropertyOp13
 70
     1
102
RTVSPropertyOp14
 70
     1
102
RTVSPropertyOp15
 70
     1
102
RTVSPropertyOp16
 70
     1
102
RTVSPropertyOp17
 70
     1
102
RTVSPropertyOp18
 70
     1
102
RTVSPropertyOp19
 70
     1
102
RTVSPropertyOp20
 70
     1
102
RTVSPropertyOp21
 70
     1
102
RTVSPropertyOp22
 70
     1
102
RTVSPropertyOp23
 70
     1
102
RTVSPropertyOp24
 70
     1
102
RTVSPropertyOp25
 70
     1
102
RTVSPropertyOp26
 70
     1
102
RTVSPropertyOp27
 70
     1
102
RTVSPropertyOp28
 70
     1
102
RTVSPropertyOp29
 70
     1
102
RTVSPropertyOp30
 70
     1
102
RTVSPropertyOp31
 70
     1
102
RTVSPropertyOp32
 70
     1
  0
XRECORD
  5
8C0
102
{ACAD_REACTORS
330
8BF
102
}
330
8BF
100
AcDbXrecord
280
     1
102
RTVSPropertyOp0
 70
     1
102
RTVSPropertyOp1
 70
     1
102
RTVSPropertyOp2
 70
     1
102
RTVSPropertyOp3
 70
     1
102
RTVSPropertyOp4
 70
     1
102
RTVSPropertyOp5
 70
     1
102
RTVSPropertyOp6
 70
     1
102
RTVSPropertyOp7
 70
     1
102
RTVSPropertyOp8
 70
     1
102
RTVSPropertyOp9
 70
     1
102
RTVSPropertyOp10
 70
     1
102
RTVSPropertyOp11
 70
     1
102
RTVSPropertyOp12
 70
     1
102
RTVSPropertyOp13
 70
     1
102
RTVSPropertyOp14
 70
     1
102
RTVSPropertyOp15
 70
     1
102
RTVSPropertyOp16
 70
     1
102
RTVSPropertyOp17
 70
     1
102
RTVSPropertyOp18
 70
     1
102
RTVSPropertyOp19
 70
     1
102
RTVSPropertyOp20
 70
     1
102
RTVSPropertyOp21
 70
     1
102
RTVSPropertyOp22
 70
     1
102
RTVSPropertyOp23
 70
     1
102
RTVSPropertyOp24
 70
     1
102
RTVSPropertyOp25
 70
     1
102
RTVSPropertyOp26
 70
     1
102
RTVSPropertyOp27
 70
     1
102
RTVSPropertyOp28
 70
     1
102
RTVSPropertyOp29
 70
     1
102
RTVSPropertyOp30
 70
     1
102
RTVSPropertyOp31
 70
     1
102
RTVSPropertyOp32
 70
     1
  0
XRECORD
  5
8BE
102
{ACAD_REACTORS
330
8BD
102
}
330
8BD
100
AcDbXrecord
280
     1
102
RTVSPropertyOp0
 70
     1
102
RTVSPropertyOp1
 70
     1
102
RTVSPropertyOp2
 70
     1
102
RTVSPropertyOp3
 70
     1
102
RTVSPropertyOp4
 70
     1
102
RTVSPropertyOp5
 70
     1
102
RTVSPropertyOp6
 70
     1
102
RTVSPropertyOp7
 70
     1
102
RTVSPropertyOp8
 70
     1
102
RTVSPropertyOp9
 70
     1
102
RTVSPropertyOp10
 70
     1
102
RTVSPropertyOp11
 70
     1
102
RTVSPropertyOp12
 70
     1
102
RTVSPropertyOp13
 70
     1
102
RTVSPropertyOp14
 70
     1
102
RTVSPropertyOp15
 70
     1
102
RTVSPropertyOp16
 70
     1
102
RTVSPropertyOp17
 70
     1
102
RTVSPropertyOp18
 70
     1
102
RTVSPropertyOp19
 70
     1
102
RTVSPropertyOp20
 70
     1
102
RTVSPropertyOp21
 70
     1
102
RTVSPropertyOp22
 70
     1
102
RTVSPropertyOp23
 70
     1
102
RTVSPropertyOp24
 70
     1
102
RTVSPropertyOp25
 70
     1
102
RTVSPropertyOp26
 70
     1
102
RTVSPropertyOp27
 70
     1
102
RTVSPropertyOp28
 70
     1
102
RTVSPropertyOp29
 70
     1
102
RTVSPropertyOp30
 70
     1
102
RTVSPropertyOp31
 70
     1
102
RTVSPropertyOp32
 70
     1
  0
XRECORD
  5
8B8
102
{ACAD_REACTORS
330
8B7
102
}
330
8B7
100
AcDbXrecord
280
     1
102
RTVSPropertyOp0
 70
     1
102
RTVSPropertyOp1
 70
     1
102
RTVSPropertyOp2
 70
     1
102
RTVSPropertyOp3
 70
     1
102
RTVSPropertyOp4
 70
     1
102
RTVSPropertyOp5
 70
     1
102
RTVSPropertyOp6
 70
     1
102
RTVSPropertyOp7
 70
     1
102
RTVSPropertyOp8
 70
     1
102
RTVSPropertyOp9
 70
     1
102
RTVSPropertyOp10
 70
     1
102
RTVSPropertyOp11
 70
     1
102
RTVSPropertyOp12
 70
     1
102
RTVSPropertyOp13
 70
     1
102
RTVSPropertyOp14
 70
     1
102
RTVSPropertyOp15
 70
     1
102
RTVSPropertyOp16
 70
     1
102
RTVSPropertyOp17
 70
     1
102
RTVSPropertyOp18
 70
     1
102
RTVSPropertyOp19
 70
     1
102
RTVSPropertyOp20
 70
     1
102
RTVSPropertyOp21
 70
     1
102
RTVSPropertyOp22
 70
     1
102
RTVSPropertyOp23
 70
     1
102
RTVSPropertyOp24
 70
     1
102
RTVSPropertyOp25
 70
     1
102
RTVSPropertyOp26
 70
     1
102
RTVSPropertyOp27
 70
     1
102
RTVSPropertyOp28
 70
     1
102
RTVSPropertyOp29
 70
     1
102
RTVSPropertyOp30
 70
     1
102
RTVSPropertyOp31
 70
     1
102
RTVSPropertyOp32
 70
     1
  0
XRECORD
  5
8BA
102
{ACAD_REACTORS
330
8B9
102
}
330
8B9
100
AcDbXrecord
280
     1
102
RTVSPropertyOp0
 70
     1
102
RTVSPropertyOp1
 70
     1
102
RTVSPropertyOp2
 70
     1
102
RTVSPropertyOp3
 70
     1
102
RTVSPropertyOp4
 70
     1
102
RTVSPropertyOp5
 70
     1
102
RTVSPropertyOp6
 70
     1
102
RTVSPropertyOp7
 70
     1
102
RTVSPropertyOp8
 70
     1
102
RTVSPropertyOp9
 70
     1
102
RTVSPropertyOp10
 70
     1
102
RTVSPropertyOp11
 70
     1
102
RTVSPropertyOp12
 70
     1
102
RTVSPropertyOp13
 70
     1
102
RTVSPropertyOp14
 70
     1
102
RTVSPropertyOp15
 70
     1
102
RTVSPropertyOp16
 70
     1
102
RTVSPropertyOp17
 70
     1
102
RTVSPropertyOp18
 70
     1
102
RTVSPropertyOp19
 70
     1
102
RTVSPropertyOp20
 70
     1
102
RTVSPropertyOp21
 70
     1
102
RTVSPropertyOp22
 70
     1
102
RTVSPropertyOp23
 70
     1
102
RTVSPropertyOp24
 70
     1
102
RTVSPropertyOp25
 70
     1
102
RTVSPropertyOp26
 70
     1
102
RTVSPropertyOp27
 70
     1
102
RTVSPropertyOp28
 70
     1
102
RTVSPropertyOp29
 70
     1
102
RTVSPropertyOp30
 70
     1
102
RTVSPropertyOp31
 70
     1
102
RTVSPropertyOp32
 70
     1
  0
XRECORD
  5
8B0
102
{ACAD_REACTORS
330
8AF
102
}
330
8AF
100
AcDbXrecord
280
     1
102
RTVSPropertyOp0
 70
     1
102
RTVSPropertyOp1
 70
     1
102
RTVSPropertyOp2
 70
     1
102
RTVSPropertyOp3
 70
     1
102
RTVSPropertyOp4
 70
     1
102
RTVSPropertyOp5
 70
     1
102
RTVSPropertyOp6
 70
     1
102
RTVSPropertyOp7
 70
     1
102
RTVSPropertyOp8
 70
     1
102
RTVSPropertyOp9
 70
     1
102
RTVSPropertyOp10
 70
     1
102
RTVSPropertyOp11
 70
     1
102
RTVSPropertyOp12
 70
     1
102
RTVSPropertyOp13
 70
     1
102
RTVSPropertyOp14
 70
     1
102
RTVSPropertyOp15
 70
     1
102
RTVSPropertyOp16
 70
     1
102
RTVSPropertyOp17
 70
     1
102
RTVSPropertyOp18
 70
     1
102
RTVSPropertyOp19
 70
     1
102
RTVSPropertyOp20
 70
     1
102
RTVSPropertyOp21
 70
     1
102
RTVSPropertyOp22
 70
     1
102
RTVSPropertyOp23
 70
     1
102
RTVSPropertyOp24
 70
     1
102
RTVSPropertyOp25
 70
     1
102
RTVSPropertyOp26
 70
     1
102
RTVSPropertyOp27
 70
     1
102
RTVSPropertyOp28
 70
     1
102
RTVSPropertyOp29
 70
     1
102
RTVSPropertyOp30
 70
     1
102
RTVSPropertyOp31
 70
     1
102
RTVSPropertyOp32
 70
     1
  0
XRECORD
  5
8A4
102
{ACAD_REACTORS
330
8A3
102
}
330
8A3
100
AcDbXrecord
280
     1
102
RTVSPropertyOp0
 70
     1
102
RTVSPropertyOp1
 70
     1
102
RTVSPropertyOp2
 70
     1
102
RTVSPropertyOp3
 70
     1
102
RTVSPropertyOp4
 70
     1
102
RTVSPropertyOp5
 70
     1
102
RTVSPropertyOp6
 70
     1
102
RTVSPropertyOp7
 70
     1
102
RTVSPropertyOp8
 70
     1
102
RTVSPropertyOp9
 70
     1
102
RTVSPropertyOp10
 70
     1
102
RTVSPropertyOp11
 70
     1
102
RTVSPropertyOp12
 70
     1
102
RTVSPropertyOp13
 70
     1
102
RTVSPropertyOp14
 70
     1
102
RTVSPropertyOp15
 70
     1
102
RTVSPropertyOp16
 70
     1
102
RTVSPropertyOp17
 70
     1
102
RTVSPropertyOp18
 70
     1
102
RTVSPropertyOp19
 70
     1
102
RTVSPropertyOp20
 70
     1
102
RTVSPropertyOp21
 70
     1
102
RTVSPropertyOp22
 70
     1
102
RTVSPropertyOp23
 70
     1
102
RTVSPropertyOp24
 70
     1
102
RTVSPropertyOp25
 70
     1
102
RTVSPropertyOp26
 70
     1
102
RTVSPropertyOp27
 70
     1
102
RTVSPropertyOp28
 70
     1
102
RTVSPropertyOp29
 70
     1
102
RTVSPropertyOp30
 70
     1
102
RTVSPropertyOp31
 70
     1
102
RTVSPropertyOp32
 70
     1
  0
XRECORD
  5
8BC
102
{ACAD_REACTORS
330
8BB
102
}
330
8BB
100
AcDbXrecord
280
     1
102
RTVSPropertyOp0
 70
     1
102
RTVSPropertyOp1
 70
     1
102
RTVSPropertyOp2
 70
     1
102
RTVSPropertyOp3
 70
     1
102
RTVSPropertyOp4
 70
     1
102
RTVSPropertyOp5
 70
     1
102
RTVSPropertyOp6
 70
     1
102
RTVSPropertyOp7
 70
     1
102
RTVSPropertyOp8
 70
     1
102
RTVSPropertyOp9
 70
     1
102
RTVSPropertyOp10
 70
     1
102
RTVSPropertyOp11
 70
     1
102
RTVSPropertyOp12
 70
     1
102
RTVSPropertyOp13
 70
     1
102
RTVSPropertyOp14
 70
     1
102
RTVSPropertyOp15
 70
     1
102
RTVSPropertyOp16
 70
     1
102
RTVSPropertyOp17
 70
     1
102
RTVSPropertyOp18
 70
     1
102
RTVSPropertyOp19
 70
     1
102
RTVSPropertyOp20
 70
     1
102
RTVSPropertyOp21
 70
     1
102
RTVSPropertyOp22
 70
     1
102
RTVSPropertyOp23
 70
     1
102
RTVSPropertyOp24
 70
     1
102
RTVSPropertyOp25
 70
     1
102
RTVSPropertyOp26
 70
     1
102
RTVSPropertyOp27
 70
     1
102
RTVSPropertyOp28
 70
     1
102
RTVSPropertyOp29
 70
     1
102
RTVSPropertyOp30
 70
     1
102
RTVSPropertyOp31
 70
     1
102
RTVSPropertyOp32
 70
     1
  0
ENDSEC
  0
EOF
