  0
SECTION
  2
HEADER
  9
$ACADVER
  1
AC1015
  9
$ACADMAINTVER
 70
    18
  9
$DWGCODEPAGE
  3
ANSI_1252
  9
$INSBASE
 10
0.0
 20
0.0
 30
0.0
  9
$EXTMIN
 10
0.0
 20
0.0
 30
0.0
  9
$EXTMAX
 10
42.5
 20
27.5
 30
0.0
  9
$LIMMIN
 10
0.0
 20
0.0
  9
$LIMMAX
 10
42.5
 20
27.5
  9
$ORTHOMODE
 70
     0
  9
$REGENMODE
 70
     1
  9
$FILLMODE
 70
     1
  9
$QTEXTMODE
 70
     0
  9
$MIRRTEXT
 70
     0
  9
$LTSCALE
 40
2.5
  9
$ATTMODE
 70
     1
  9
$TEXTSIZE
 40
0.2
  9
$TRACEWID
 40
0.05
  9
$TEXTSTYLE
  7
Standard
  9
$CLAYER
  8
0
  9
$CELTYPE
  6
ByLayer
  9
$CECOLOR
 62
   256
  9
$CELTSCALE
 40
1.0
  9
$DISPSILH
 70
     0
  9
$DIMSCALE
 40
1.0
  9
$DIMASZ
 40
0.0708661417322835
  9
$DIMEXO
 40
0.0625
  9
$DIMDLI
 40
0.38
  9
$DIMRND
 40
0.0
  9
$DIMDLE
 40
0.0
  9
$DIMEXE
 40
0.18
  9
$DIMTP
 40
0.0
  9
$DIMTM
 40
0.0
  9
$DIMTXT
 40
0.0708661417322835
  9
$DIMCEN
 40
0.09
  9
$DIMTSZ
 40
0.0
  9
$DIMTOL
 70
     0
  9
$DIMLIM
 70
     0
  9
$DIMTIH
 70
     1
  9
$DIMTOH
 70
     1
  9
$DIMSE1
 70
     0
  9
$DIMSE2
 70
     0
  9
$DIMTAD
 70
     0
  9
$DIMZIN
 70
     0
  9
$DIMBLK
  1

  9
$DIMASO
 70
     1
  9
$DIMSHO
 70
     1
  9
$DIMPOST
  1

  9
$DIMAPOST
  1

  9
$DIMALT
 70
     0
  9
$DIMALTD
 70
     2
  9
$DIMALTF
 40
25.4
  9
$DIMLFAC
 40
1.0
  9
$DIMTOFL
 70
     0
  9
$DIMTVP
 40
0.0
  9
$DIMTIX
 70
     0
  9
$DIMSOXD
 70
     0
  9
$DIMSAH
 70
     0
  9
$DIMBLK1
  1

  9
$DIMBLK2
  1

  9
$DIMSTYLE
  2
STANDARD
  9
$DIMCLRD
 70
     0
  9
$DIMCLRE
 70
     0
  9
$DIMCLRT
 70
     0
  9
$DIMTFAC
 40
1.0
  9
$DIMGAP
 40
0.09
  9
$DIMJUST
 70
     0
  9
$DIMSD1
 70
     0
  9
$DIMSD2
 70
     0
  9
$DIMTOLJ
 70
     1
  9
$DIMTZIN
 70
     0
  9
$DIMALTZ
 70
     0
  9
$DIMALTTZ
 70
     0
  9
$DIMUPT
 70
     0
  9
$DIMDEC
 70
     4
  9
$DIMTDEC
 70
     4
  9
$DIMALTU
 70
     2
  9
$DIMALTTD
 70
     2
  9
$DIMTXSTY
  7
Standard
  9
$DIMAUNIT
 70
     0
  9
$DIMADEC
 70
     0
  9
$DIMALTRND
 40
0.0
  9
$DIMAZIN
 70
     0
  9
$DIMDSEP
 70
    46
  9
$DIMATFIT
 70
     3
  9
$DIMFRAC
 70
     0
  9
$DIMLDRBLK
  1

  9
$DIMLUNIT
 70
     2
  9
$DIMLWD
 70
    -2
  9
$DIMLWE
 70
    -2
  9
$DIMTMOVE
 70
     0
  9
$LUNITS
 70
     2
  9
$LUPREC
 70
     4
  9
$SKETCHINC
 40
0.1
  9
$FILLETRAD
 40
0.0
  9
$AUNITS
 70
     0
  9
$AUPREC
 70
     0
  9
$MENU
  1
.
  9
$ELEVATION
 40
0.0
  9
$PELEVATION
 40
0.0
  9
$THICKNESS
 40
0.0
  9
$LIMCHECK
 70
     0
  9
$CHAMFERA
 40
0.0
  9
$CHAMFERB
 40
0.0
  9
$CHAMFERC
 40
0.0
  9
$CHAMFERD
 40
0.0
  9
$SKPOLY
 70
     0
  9
$TDCREATE
 40
2455951.577716597
  9
$TDUCREATE
 40
2455951.827716598
  9
$TDUPDATE
 40
2455951.577716771
  9
$TDUUPDATE
 40
2455951.827716771
  9
$TDINDWG
 40
0.0000602083
  9
$TDUSRTIMER
 40
0.0000602083
  9
$USRTIMER
 70
     1
  9
$ANGBASE
 50
0.0
  9
$ANGDIR
 70
     0
  9
$PDMODE
 70
     0
  9
$PDSIZE
 40
0.0
  9
$PLINEWID
 40
0.0
  9
$SPLFRAME
 70
     0
  9
$SPLINETYPE
 70
     6
  9
$SPLINESEGS
 70
     8
  9
$HANDSEED
  5
8BE
  9
$SURFTAB1
 70
     6
  9
$SURFTAB2
 70
     6
  9
$SURFTYPE
 70
     6
  9
$SURFU
 70
     6
  9
$SURFV
 70
     6
  9
$UCSBASE
  2

  9
$UCSNAME
  2

  9
$UCSORG
 10
0.0
 20
0.0
 30
0.0
  9
$UCSXDIR
 10
1.0
 20
0.0
 30
0.0
  9
$UCSYDIR
 10
0.0
 20
1.0
 30
0.0
  9
$UCSORTHOREF
  2

  9
$UCSORTHOVIEW
 70
     0
  9
$UCSORGTOP
 10
0.0
 20
0.0
 30
0.0
  9
$UCSORGBOTTOM
 10
0.0
 20
0.0
 30
0.0
  9
$UCSORGLEFT
 10
0.0
 20
0.0
 30
0.0
  9
$UCSORGRIGHT
 10
0.0
 20
0.0
 30
0.0
  9
$UCSORGFRONT
 10
0.0
 20
0.0
 30
0.0
  9
$UCSORGBACK
 10
0.0
 20
0.0
 30
0.0
  9
$PUCSBASE
  2

  9
$PUCSNAME
  2

  9
$PUCSORG
 10
0.0
 20
0.0
 30
0.0
  9
$PUCSXDIR
 10
1.0
 20
0.0
 30
0.0
  9
$PUCSYDIR
 10
0.0
 20
1.0
 30
0.0
  9
$PUCSORTHOREF
  2

  9
$PUCSORTHOVIEW
 70
     0
  9
$PUCSORGTOP
 10
0.0
 20
0.0
 30
0.0
  9
$PUCSORGBOTTOM
 10
0.0
 20
0.0
 30
0.0
  9
$PUCSORGLEFT
 10
0.0
 20
0.0
 30
0.0
  9
$PUCSORGRIGHT
 10
0.0
 20
0.0
 30
0.0
  9
$PUCSORGFRONT
 10
0.0
 20
0.0
 30
0.0
  9
$PUCSORGBACK
 10
0.0
 20
0.0
 30
0.0
  9
$USERI1
 70
     0
  9
$USERI2
 70
     0
  9
$USERI3
 70
     0
  9
$USERI4
 70
     0
  9
$USERI5
 70
     0
  9
$USERR1
 40
0.0
  9
$USERR2
 40
0.0
  9
$USERR3
 40
0.0
  9
$USERR4
 40
0.0
  9
$USERR5
 40
0.0
  9
$WORLDVIEW
 70
     1
  9
$SHADEDGE
 70
     3
  9
$SHADEDIF
 70
    70
  9
$TILEMODE
 70
     1
  9
$MAXACTVP
 70
    64
  9
$PINSBASE
 10
0.0
 20
0.0
 30
0.0
  9
$PLIMCHECK
 70
     0
  9
$PEXTMIN
 10
0.0
 20
0.0
 30
0.0
  9
$PEXTMAX
 10
42.5
 20
27.5
 30
0.0
  9
$PLIMMIN
 10
0.0
 20
0.0
  9
$PLIMMAX
 10
42.5
 20
27.5
  9
$UNITMODE
 70
     0
  9
$VISRETAIN
 70
     1
  9
$PLINEGEN
 70
     0
  9
$PSLTSCALE
 70
     1
  9
$TREEDEPTH
 70
  3020
  9
$CMLSTYLE
  2
Standard
  9
$CMLJUST
 70
     0
  9
$CMLSCALE
 40
1.0
  9
$PROXYGRAPHICS
 70
     1
  9
$MEASUREMENT
 70
     0
  9
$CELWEIGHT
370
    -1
  9
$ENDCAPS
280
     0
  9
$JOINSTYLE
280
     0
  9
$LWDISPLAY
290
     0
  9
$INSUNITS
 70
     1
  9
$HYPERLINKBASE
  1

  9
$STYLESHEET
  1

  9
$XEDIT
290
     1
  9
$CEPSNTYPE
380
     0
  9
$PSTYLEMODE
290
     1
  9
$FINGERPRINTGUID
  2
{EB76AE77-EC37-4230-93B4-BC056CB2C6D6}
  9
$VERSIONGUID
  2
{4E56B43D-6D31-4E0B-91CF-F9B953863662}
  9
$EXTNAMES
290
     1
  9
$PSVPSCALE
 40
0.0
  9
$OLESTARTUP
290
     0
  0
ENDSEC
  0
SECTION
  2
CLASSES
  0
CLASS
  1
ACDBDICTIONARYWDFLT
  2
AcDbDictionaryWithDefault
  3
ObjectDBX Classes
 90
        0
280
     0
281
     0
  0
CLASS
  1
MATERIAL
  2
AcDbMaterial
  3
ObjectDBX Classes
 90
     1153
280
     0
281
     0
  0
CLASS
  1
VISUALSTYLE
  2
AcDbVisualStyle
  3
ObjectDBX Classes
 90
     4095
280
     0
281
     0
  0
CLASS
  1
SCALE
  2
AcDbScale
  3
ObjectDBX Classes
 90
     1153
280
     0
281
     0
  0
CLASS
  1
TABLESTYLE
  2
AcDbTableStyle
  3
ObjectDBX Classes
 90
     4095
280
     0
281
     0
  0
CLASS
  1
MLEADERSTYLE
  2
AcDbMLeaderStyle
  3
ACDB_MLEADERSTYLE_CLASS
 90
     4095
280
     0
281
     0
  0
CLASS
  1
DICTIONARYVAR
  2
AcDbDictionaryVar
  3
ObjectDBX Classes
 90
        0
280
     0
281
     0
  0
CLASS
  1
CELLSTYLEMAP
  2
AcDbCellStyleMap
  3
ObjectDBX Classes
 90
     1152
280
     0
281
     0
  0
CLASS
  1
ACDBPLACEHOLDER
  2
AcDbPlaceHolder
  3
ObjectDBX Classes
 90
        0
280
     0
281
     0
  0
CLASS
  1
LAYOUT
  2
AcDbLayout
  3
ObjectDBX Classes
 90
        0
280
     0
281
     0
  0
ENDSEC
  0
SECTION
  2
TABLES
  0
TABLE
  2
VPORT
  5
8
330
0
100
AcDbSymbolTable
 70
     1
  0
VPORT
  5
57
330
8
100
AcDbSymbolTableRecord
100
AcDbViewportTableRecord
  2
*Active
 70
     0
 10
0.0
 20
0.0
 11
1.0
 21
1.0
 12
21.25
 22
13.75
 13
0.0
 23
0.0
 14
1.0
 24
1.0
 15
0.0
 25
0.0
 16
0.0
 26
0.0
 36
1.0
 17
0.0
 27
0.0
 37
0.0
 40
27.5
 41
1.545454545454545
 42
50.0
 43
0.0
 44
0.0
 50
0.0
 51
0.0
 71
     0
 72
   100
 73
     1
 74
     1
 75
     0
 76
     0
 77
     0
 78
     0
281
     0
 65
     1
110
0.0
120
0.0
130
0.0
111
1.0
121
0.0
131
0.0
112
0.0
122
1.0
132
0.0
 79
     0
146
0.0
  0
ENDTAB
  0
TABLE
  2
LTYPE
  5
5
330
0
100
AcDbSymbolTable
 70
    59
  0
LTYPE
  5
5B
330
5
100
AcDbSymbolTableRecord
100
AcDbLinetypeTableRecord
  2
ByBlock
 70
     0
  3

 72
    65
 73
     0
 40
0.0
  0
LTYPE
  5
5C
330
5
100
AcDbSymbolTableRecord
100
AcDbLinetypeTableRecord
  2
ByLayer
 70
     0
  3

 72
    65
 73
     0
 40
0.0
  0
LTYPE
  5
5D
330
5
100
AcDbSymbolTableRecord
100
AcDbLinetypeTableRecord
  2
Continuous
 70
     0
  3
Solid line
 72
    65
 73
     0
 40
0.0
  0
LTYPE
  5
7C
330
5
100
AcDbSymbolTableRecord
100
AcDbLinetypeTableRecord
  2
BY_STANDARD
 70
     0
  3
By Standard ____________    ____    ____   _
 72
    65
 73
     6
 40
1.240299999999999
 49
0.6614
 74
     0
 49
-0.0827
 74
     0
 49
0.1654
 74
     0
 49
-0.0827
 74
     0
 49
0.1654
 74
     0
 49
-0.0827
 74
     0
  0
LTYPE
  5
7D
330
5
100
AcDbSymbolTableRecord
100
AcDbLinetypeTableRecord
  2
CHAIN
 70
     0
  3
Chain ____ _ ____ _ ____ _ ____ _ ____ _ ____
 72
    65
 73
     4
 40
0.7087
 49
0.4724000000000001
 74
     0
 49
-0.0591
 74
     0
 49
0.1181
 74
     0
 49
-0.0591
 74
     0
  0
LTYPE
  5
7E
330
5
100
AcDbSymbolTableRecord
100
AcDbLinetypeTableRecord
  2
DASH_DOT
 70
     0
  3
Dash dot __ . __ . __ . __ . __ . __ . __ . __
 72
    65
 73
     4
 40
0.37
 49
0.24
 74
     0
 49
-0.06
 74
     0
 49
0.01
 74
     0
 49
-0.06
 74
     0
  0
LTYPE
  5
7F
330
5
100
AcDbSymbolTableRecord
100
AcDbLinetypeTableRecord
  2
DOUBLE_DASH_DOT
 70
     0
  3
Double-Dash Dot __ __ . __ __ . __ __ . __ _
 72
    65
 73
     6
 40
0.4398
 49
0.24
 74
     0
 49
-0.06
 74
     0
 49
0.0098
 74
     0
 49
-0.06
 74
     0
 49
0.01
 74
     0
 49
-0.06
 74
     0
  0
LTYPE
  5
80
330
5
100
AcDbSymbolTableRecord
100
AcDbLinetypeTableRecord
  2
DASH_TRIPLE_DOT
 70
     0
  3
Dash Triple-Dot _ . . . _ . . . _ . . . _
 72
    65
 73
     8
 40
0.51
 49
0.24
 74
     0
 49
-0.06
 74
     0
 49
0.01
 74
     0
 49
-0.06
 74
     0
 49
0.01
 74
     0
 49
-0.06
 74
     0
 49
0.01
 74
     0
 49
-0.06
 74
     0
  0
LTYPE
  5
81
330
5
100
AcDbSymbolTableRecord
100
AcDbLinetypeTableRecord
  2
DASHED
 70
     0
  3
Dashed __ __ __ __ __ __ __ __ __ __ __ __ __ _
 72
    65
 73
     2
 40
0.2067
 49
0.1654
 74
     0
 49
-0.0413
 74
     0
  0
LTYPE
  5
82
330
5
100
AcDbSymbolTableRecord
100
AcDbLinetypeTableRecord
  2
DASH_DOUBLE_DOT
 70
     0
  3
Dash Double-Dot __ . . __ . . __ . . __ . .
 72
    65
 73
     6
 40
0.4398
 49
0.24
 74
     0
 49
-0.06
 74
     0
 49
0.0098
 74
     0
 49
-0.06
 74
     0
 49
0.01
 74
     0
 49
-0.06
 74
     0
  0
LTYPE
  5
83
330
5
100
AcDbSymbolTableRecord
100
AcDbLinetypeTableRecord
  2
DASHED_SPACE
 70
     0
  3
Dashed Space __ __ __ __ __ __ __ __ __ __ __ _
 72
    65
 73
     2
 40
0.2067
 49
0.1654
 74
     0
 49
-0.0413
 74
     0
  0
LTYPE
  5
84
330
5
100
AcDbSymbolTableRecord
100
AcDbLinetypeTableRecord
  2
DOTTED
 70
     0
  3
Dotted . . . . . . . . . . . . . . . . . . . . 
 72
    65
 73
     2
 40
0.0482
 49
0.0069
 74
     0
 49
-0.0413
 74
     0
  0
LTYPE
  5
85
330
5
100
AcDbSymbolTableRecord
100
AcDbLinetypeTableRecord
  2
DOUBLE_DASH_CHAIN
 70
     0
  3
Double-Dash Chain ______  __  __  ______  __  _
 72
    65
 73
     6
 40
1.240299999999999
 49
0.6614
 74
     0
 49
-0.0827
 74
     0
 49
0.1654
 74
     0
 49
-0.0827
 74
     0
 49
0.1654
 74
     0
 49
-0.0827
 74
     0
  0
LTYPE
  5
87
330
5
100
AcDbSymbolTableRecord
100
AcDbLinetypeTableRecord
  2
DOUBLE_DASH_DOUBLE_DOT
 70
     0
  3
Double-Dash Double-dot _ _ . . _ _ . . _
 72
    65
 73
     8
 40
0.7400000000000001
 49
0.24
 74
     0
 49
-0.06
 74
     0
 49
0.24
 74
     0
 49
-0.06
 74
     0
 49
0.01
 74
     0
 49
-0.06
 74
     0
 49
0.01
 74
     0
 49
-0.06
 74
     0
  0
LTYPE
  5
88
330
5
100
AcDbSymbolTableRecord
100
AcDbLinetypeTableRecord
  2
DOUBLE_DASH_TRIPLE_DOT
 70
     0
  3
Double Dash Triple Dot __ __ . . . __ __ . .
 72
    65
 73
    10
 40
0.8100000000000001
 49
0.24
 74
     0
 49
-0.06
 74
     0
 49
0.24
 74
     0
 49
-0.06
 74
     0
 49
0.01
 74
     0
 49
-0.06
 74
     0
 49
0.01
 74
     0
 49
-0.06
 74
     0
 49
0.01
 74
     0
 49
-0.06
 74
     0
  0
LTYPE
  5
89
330
5
100
AcDbSymbolTableRecord
100
AcDbLinetypeTableRecord
  2
LONG_DASH_DOTTED
 70
     0
  3
Long Dash Dotted ____ . ____ . ____ . ____ . _
 72
    65
 73
     4
 40
0.3543
 49
0.2362
 74
     0
 49
-0.0295
 74
     0
 49
0.0591
 74
     0
 49
-0.0295
 74
     0
  0
LTYPE
  5
8A
330
5
100
AcDbSymbolTableRecord
100
AcDbLinetypeTableRecord
  2
LONG_DASH_DOUBLE_DOT
 70
     0
  3
Long Dash Double Dot ________  .  .  ________  
 72
    65
 73
     6
 40
0.6799999999999999
 49
0.48
 74
     0
 49
-0.06
 74
     0
 49
0.01
 74
     0
 49
-0.06
 74
     0
 49
0.01
 74
     0
 49
-0.06
 74
     0
  0
LTYPE
  5
8B
330
5
100
AcDbSymbolTableRecord
100
AcDbLinetypeTableRecord
  2
LONG_DASH_TRIPLE_DOT
 70
     0
  3
Long Dash Triple Dot ____ ... ____ ... ____
 72
    65
 73
     8
 40
0.3689
 49
0.2362
 74
     0
 49
-0.0295
 74
     0
 49
0.0049
 74
     0
 49
-0.0295
 74
     0
 49
0.0049
 74
     0
 49
-0.0295
 74
     0
 49
0.0049
 74
     0
 49
-0.0295
 74
     0
  0
LTYPE
  5
8C
330
5
100
AcDbSymbolTableRecord
100
AcDbLinetypeTableRecord
  2
BORDER
 70
     0
  3
Border __ __ . __ __ . __ __ . __ __ . __ __ .
 72
    65
 73
     6
 40
1.75
 49
0.5
 74
     0
 49
-0.25
 74
     0
 49
0.5
 74
     0
 49
-0.25
 74
     0
 49
0.0
 74
     0
 49
-0.25
 74
     0
  0
LTYPE
  5
8D
330
5
100
AcDbSymbolTableRecord
100
AcDbLinetypeTableRecord
  2
BORDER2
 70
     0
  3
Border (.5x) __.__.__.__.__.__.__.__.__.__.__.
 72
    65
 73
     6
 40
0.875
 49
0.25
 74
     0
 49
-0.125
 74
     0
 49
0.25
 74
     0
 49
-0.125
 74
     0
 49
0.0
 74
     0
 49
-0.125
 74
     0
  0
LTYPE
  5
8E
330
5
100
AcDbSymbolTableRecord
100
AcDbLinetypeTableRecord
  2
BORDERX2
 70
     0
  3
Border (2x) ____  ____  .  ____  ____  .  ___
 72
    65
 73
     6
 40
3.5
 49
1.0
 74
     0
 49
-0.5
 74
     0
 49
1.0
 74
     0
 49
-0.5
 74
     0
 49
0.0
 74
     0
 49
-0.5
 74
     0
  0
LTYPE
  5
8F
330
5
100
AcDbSymbolTableRecord
100
AcDbLinetypeTableRecord
  2
CENTER
 70
     0
  3
Center ____ _ ____ _ ____ _ ____ _ ____ _ ____
 72
    65
 73
     4
 40
2.0
 49
1.25
 74
     0
 49
-0.25
 74
     0
 49
0.25
 74
     0
 49
-0.25
 74
     0
  0
LTYPE
  5
90
330
5
100
AcDbSymbolTableRecord
100
AcDbLinetypeTableRecord
  2
CENTER2
 70
     0
  3
Center (.5x) ___ _ ___ _ ___ _ ___ _ ___ _ ___
 72
    65
 73
     4
 40
1.125
 49
0.75
 74
     0
 49
-0.125
 74
     0
 49
0.125
 74
     0
 49
-0.125
 74
     0
  0
LTYPE
  5
91
330
5
100
AcDbSymbolTableRecord
100
AcDbLinetypeTableRecord
  2
CENTERX2
 70
     0
  3
Center (2x) ________  __  ________  __  _____
 72
    65
 73
     4
 40
4.0
 49
2.5
 74
     0
 49
-0.5
 74
     0
 49
0.5
 74
     0
 49
-0.5
 74
     0
  0
LTYPE
  5
92
330
5
100
AcDbSymbolTableRecord
100
AcDbLinetypeTableRecord
  2
DASHDOT2
 70
     0
  3
Dash dot (.5x) _._._._._._._._._._._._._._._.
 72
    65
 73
     4
 40
0.5
 49
0.25
 74
     0
 49
-0.125
 74
     0
 49
0.0
 74
     0
 49
-0.125
 74
     0
  0
LTYPE
  5
93
330
5
100
AcDbSymbolTableRecord
100
AcDbLinetypeTableRecord
  2
DASHDOTX2
 70
     0
  3
Dash dot (2x) ____  .  ____  .  ____  .  ___
 72
    65
 73
     4
 40
2.0
 49
1.0
 74
     0
 49
-0.5
 74
     0
 49
0.0
 74
     0
 49
-0.5
 74
     0
  0
LTYPE
  5
95
330
5
100
AcDbSymbolTableRecord
100
AcDbLinetypeTableRecord
  2
DASHED2
 70
     0
  3
Dashed (.5x) _ _ _ _ _ _ _ _ _ _ _ _ _ _ _ _ _
 72
    65
 73
     2
 40
0.375
 49
0.25
 74
     0
 49
-0.125
 74
     0
  0
LTYPE
  5
96
330
5
100
AcDbSymbolTableRecord
100
AcDbLinetypeTableRecord
  2
DASHEDX2
 70
     0
  3
Dashed (2x) ____  ____  ____  ____  ____  ___
 72
    65
 73
     2
 40
1.5
 49
1.0
 74
     0
 49
-0.5
 74
     0
  0
LTYPE
  5
97
330
5
100
AcDbSymbolTableRecord
100
AcDbLinetypeTableRecord
  2
DIVIDE
 70
     0
  3
Divide ____ . . ____ . . ____ . . ____ . . ____
 72
    65
 73
     6
 40
1.25
 49
0.5
 74
     0
 49
-0.25
 74
     0
 49
0.0
 74
     0
 49
-0.25
 74
     0
 49
0.0
 74
     0
 49
-0.25
 74
     0
  0
LTYPE
  5
98
330
5
100
AcDbSymbolTableRecord
100
AcDbLinetypeTableRecord
  2
DIVIDE2
 70
     0
  3
Divide (.5x) __..__..__..__..__..__..__..__.._
 72
    65
 73
     6
 40
0.625
 49
0.25
 74
     0
 49
-0.125
 74
     0
 49
0.0
 74
     0
 49
-0.125
 74
     0
 49
0.0
 74
     0
 49
-0.125
 74
     0
  0
LTYPE
  5
99
330
5
100
AcDbSymbolTableRecord
100
AcDbLinetypeTableRecord
  2
DIVIDEX2
 70
     0
  3
Divide (2x) ________  .  .  ________  .  .  _
 72
    65
 73
     6
 40
2.5
 49
1.0
 74
     0
 49
-0.5
 74
     0
 49
0.0
 74
     0
 49
-0.5
 74
     0
 49
0.0
 74
     0
 49
-0.5
 74
     0
  0
LTYPE
  5
9A
330
5
100
AcDbSymbolTableRecord
100
AcDbLinetypeTableRecord
  2
DOT
 70
     0
  3
Dot . . . . . . . . . . . . . . . . . . . . . .
 72
    65
 73
     2
 40
0.25
 49
0.0
 74
     0
 49
-0.25
 74
     0
  0
LTYPE
  5
9B
330
5
100
AcDbSymbolTableRecord
100
AcDbLinetypeTableRecord
  2
DOT2
 70
     0
  3
Dot (.5x) .....................................
 72
    65
 73
     2
 40
0.125
 49
0.0
 74
     0
 49
-0.125
 74
     0
  0
LTYPE
  5
9C
330
5
100
AcDbSymbolTableRecord
100
AcDbLinetypeTableRecord
  2
DOTX2
 70
     0
  3
Dot (2x) .  .  .  .  .  .  .  .  .  .  .  .  . 
 72
    65
 73
     2
 40
0.5
 49
0.0
 74
     0
 49
-0.5
 74
     0
  0
LTYPE
  5
9D
330
5
100
AcDbSymbolTableRecord
100
AcDbLinetypeTableRecord
  2
HIDDEN
 70
     0
  3
Hidden __ __ __ __ __ __ __ __ __ __ __ __ __ _
 72
    65
 73
     2
 40
0.375
 49
0.25
 74
     0
 49
-0.125
 74
     0
  0
LTYPE
  5
9E
330
5
100
AcDbSymbolTableRecord
100
AcDbLinetypeTableRecord
  2
HIDDEN2
 70
     0
  3
Hidden (.5x) _ _ _ _ _ _ _ _ _ _ _ _ _ _ _ _ _
 72
    65
 73
     2
 40
0.1875
 49
0.125
 74
     0
 49
-0.0625
 74
     0
  0
LTYPE
  5
9F
330
5
100
AcDbSymbolTableRecord
100
AcDbLinetypeTableRecord
  2
HIDDENX2
 70
     0
  3
Hidden (2x) ____ ____ ____ ____ ____ ____ ____
 72
    65
 73
     2
 40
0.75
 49
0.5
 74
     0
 49
-0.25
 74
     0
  0
LTYPE
  5
A0
330
5
100
AcDbSymbolTableRecord
100
AcDbLinetypeTableRecord
  2
PHANTOM
 70
     0
  3
Phantom ______  __  __  ______  __  __  ______
 72
    65
 73
     6
 40
2.5
 49
1.25
 74
     0
 49
-0.25
 74
     0
 49
0.25
 74
     0
 49
-0.25
 74
     0
 49
0.25
 74
     0
 49
-0.25
 74
     0
  0
LTYPE
  5
A1
330
5
100
AcDbSymbolTableRecord
100
AcDbLinetypeTableRecord
  2
PHANTOM2
 70
     0
  3
Phantom (.5x) ___ _ _ ___ _ _ ___ _ _ ___ _ _
 72
    65
 73
     6
 40
1.25
 49
0.625
 74
     0
 49
-0.125
 74
     0
 49
0.125
 74
     0
 49
-0.125
 74
     0
 49
0.125
 74
     0
 49
-0.125
 74
     0
  0
LTYPE
  5
A2
330
5
100
AcDbSymbolTableRecord
100
AcDbLinetypeTableRecord
  2
PHANTOMX2
 70
     0
  3
Phantom (2x) ____________    ____    ____   _
 72
    65
 73
     6
 40
5.0
 49
2.5
 74
     0
 49
-0.5
 74
     0
 49
0.5
 74
     0
 49
-0.5
 74
     0
 49
0.5
 74
     0
 49
-0.5
 74
     0
  0
LTYPE
  5
A3
330
5
100
AcDbSymbolTableRecord
100
AcDbLinetypeTableRecord
  2
ACAD_ISO02W100
 70
     0
  3
ISO dash __ __ __ __ __ __ __ __ __ __ __ __ __
 72
    65
 73
     2
 40
0.59
 49
0.47
 74
     0
 49
-0.12
 74
     0
  0
LTYPE
  5
A4
330
5
100
AcDbSymbolTableRecord
100
AcDbLinetypeTableRecord
  2
ACAD_ISO03W100
 70
     0
  3
ISO dash space __    __    __    __    __    __
 72
    65
 73
     2
 40
1.179999999999999
 49
0.47
 74
     0
 49
-0.71
 74
     0
  0
LTYPE
  5
A5
330
5
100
AcDbSymbolTableRecord
100
AcDbLinetypeTableRecord
  2
ACAD_ISO04W100
 70
     0
  3
ISO long-dash dot ____ . ____ . ____ . ____ . _
 72
    65
 73
     4
 40
1.179999999999999
 49
0.9399999999999998
 74
     0
 49
-0.12
 74
     0
 49
0.0
 74
     0
 49
-0.12
 74
     0
  0
LTYPE
  5
A6
330
5
100
AcDbSymbolTableRecord
100
AcDbLinetypeTableRecord
  2
ACAD_ISO05W100
 70
     0
  3
ISO long-dash double-dot ____ .. ____ .. ____ .
 72
    65
 73
     6
 40
1.299999999999999
 49
0.9399999999999998
 74
     0
 49
-0.12
 74
     0
 49
0.0
 74
     0
 49
-0.12
 74
     0
 49
0.0
 74
     0
 49
-0.12
 74
     0
  0
LTYPE
  5
A7
330
5
100
AcDbSymbolTableRecord
100
AcDbLinetypeTableRecord
  2
ACAD_ISO06W100
 70
     0
  3
ISO long-dash triple-dot ____ ... ____ ... ____
 72
    65
 73
     8
 40
1.419999999999999
 49
0.9399999999999998
 74
     0
 49
-0.12
 74
     0
 49
0.0
 74
     0
 49
-0.12
 74
     0
 49
0.0
 74
     0
 49
-0.12
 74
     0
 49
0.0
 74
     0
 49
-0.12
 74
     0
  0
LTYPE
  5
A8
330
5
100
AcDbSymbolTableRecord
100
AcDbLinetypeTableRecord
  2
ACAD_ISO07W100
 70
     0
  3
ISO dot . . . . . . . . . . . . . . . . . . . .
 72
    65
 73
     2
 40
0.12
 49
0.0
 74
     0
 49
-0.12
 74
     0
  0
LTYPE
  5
A9
330
5
100
AcDbSymbolTableRecord
100
AcDbLinetypeTableRecord
  2
ACAD_ISO08W100
 70
     0
  3
ISO long-dash short-dash ____ __ ____ __ ____ _
 72
    65
 73
     4
 40
0.95
 49
0.47
 74
     0
 49
-0.12
 74
     0
 49
0.24
 74
     0
 49
-0.12
 74
     0
  0
LTYPE
  5
AA
330
5
100
AcDbSymbolTableRecord
100
AcDbLinetypeTableRecord
  2
ACAD_ISO09W100
 70
     0
  3
ISO long-dash double-short-dash ____ __ __ ____
 72
    65
 73
     6
 40
1.31
 49
0.47
 74
     0
 49
-0.12
 74
     0
 49
0.24
 74
     0
 49
-0.12
 74
     0
 49
0.24
 74
     0
 49
-0.12
 74
     0
  0
LTYPE
  5
AB
330
5
100
AcDbSymbolTableRecord
100
AcDbLinetypeTableRecord
  2
ACAD_ISO10W100
 70
     0
  3
ISO dash dot __ . __ . __ . __ . __ . __ . __ .
 72
    65
 73
     4
 40
0.71
 49
0.47
 74
     0
 49
-0.12
 74
     0
 49
0.0
 74
     0
 49
-0.12
 74
     0
  0
LTYPE
  5
AC
330
5
100
AcDbSymbolTableRecord
100
AcDbLinetypeTableRecord
  2
ACAD_ISO11W100
 70
     0
  3
ISO double-dash dot __ __ . __ __ . __ __ . __ 
 72
    65
 73
     6
 40
1.299999999999999
 49
0.47
 74
     0
 49
-0.12
 74
     0
 49
0.47
 74
     0
 49
-0.12
 74
     0
 49
0.0
 74
     0
 49
-0.12
 74
     0
  0
LTYPE
  5
AD
330
5
100
AcDbSymbolTableRecord
100
AcDbLinetypeTableRecord
  2
ACAD_ISO12W100
 70
     0
  3
ISO dash double-dot __ . . __ . . __ . . __ . .
 72
    65
 73
     6
 40
0.8299999999999998
 49
0.47
 74
     0
 49
-0.12
 74
     0
 49
0.0
 74
     0
 49
-0.12
 74
     0
 49
0.0
 74
     0
 49
-0.12
 74
     0
  0
LTYPE
  5
AE
330
5
100
AcDbSymbolTableRecord
100
AcDbLinetypeTableRecord
  2
ACAD_ISO13W100
 70
     0
  3
ISO double-dash double-dot __ __ . . __ __ . . 
 72
    65
 73
     8
 40
1.419999999999999
 49
0.47
 74
     0
 49
-0.12
 74
     0
 49
0.47
 74
     0
 49
-0.12
 74
     0
 49
0.0
 74
     0
 49
-0.12
 74
     0
 49
0.0
 74
     0
 49
-0.12
 74
     0
  0
LTYPE
  5
AF
330
5
100
AcDbSymbolTableRecord
100
AcDbLinetypeTableRecord
  2
ACAD_ISO14W100
 70
     0
  3
ISO dash triple-dot __ . . . __ . . . __ . . . 
 72
    65
 73
     8
 40
0.95
 49
0.47
 74
     0
 49
-0.12
 74
     0
 49
0.0
 74
     0
 49
-0.12
 74
     0
 49
0.0
 74
     0
 49
-0.12
 74
     0
 49
0.0
 74
     0
 49
-0.12
 74
     0
  0
LTYPE
  5
B0
330
5
100
AcDbSymbolTableRecord
100
AcDbLinetypeTableRecord
  2
ACAD_ISO15W100
 70
     0
  3
ISO double-dash triple-dot __ __ . . . __ __ . 
 72
    65
 73
    10
 40
1.539999999999999
 49
0.47
 74
     0
 49
-0.12
 74
     0
 49
0.47
 74
     0
 49
-0.12
 74
     0
 49
0.0
 74
     0
 49
-0.12
 74
     0
 49
0.0
 74
     0
 49
-0.12
 74
     0
 49
0.0
 74
     0
 49
-0.12
 74
     0
  0
LTYPE
  5
B3
330
5
100
AcDbSymbolTableRecord
100
AcDbLinetypeTableRecord
  2
FENCELINE1
 70
     0
  3
Fenceline circle ----0-----0----0-----0----0---
 72
    65
 73
     4
 40
1.45
 49
0.25
 74
     0
 49
-0.1
 74
     4
 75
   133
340
B2
 46
0.1
 50
0.0
 44
-0.1
 45
0.0
 49
-0.1
 74
     0
 49
1.0
 74
     0
  0
LTYPE
  5
B4
330
5
100
AcDbSymbolTableRecord
100
AcDbLinetypeTableRecord
  2
FENCELINE2
 70
     0
  3
Fenceline square ----[]-----[]----[]-----[]----
 72
    65
 73
     4
 40
1.45
 49
0.25
 74
     0
 49
-0.1
 74
     4
 75
   132
340
B2
 46
0.1
 50
0.0
 44
-0.1
 45
0.0
 49
-0.1
 74
     0
 49
1.0
 74
     0
  0
LTYPE
  5
B5
330
5
100
AcDbSymbolTableRecord
100
AcDbLinetypeTableRecord
  2
TRACKS
 70
     0
  3
Tracks -|-|-|-|-|-|-|-|-|-|-|-|-|-|-|-|-|-|-|-|
 72
    65
 73
     2
 40
0.3
 49
0.15
 74
     4
 75
   130
340
B2
 46
0.25
 50
0.0
 44
0.0
 45
0.0
 49
0.15
 74
     0
  0
LTYPE
  5
B6
330
5
100
AcDbSymbolTableRecord
100
AcDbLinetypeTableRecord
  2
BATTING
 70
     0
  3
Batting SSSSSSSSSSSSSSSSSSSSSSSSSSSSSSSSSSSSSSS
 72
    65
 73
     4
 40
0.4001000000000001
 49
0.0001
 74
     0
 49
-0.1
 74
     4
 75
   134
340
B2
 46
0.1
 50
0.0
 44
-0.1
 45
0.0
 49
-0.2
 74
     4
 75
   134
340
B2
 46
0.1
 50
180.0
 44
0.1
 45
0.0
 49
-0.1
 74
     0
  0
LTYPE
  5
B7
330
5
100
AcDbSymbolTableRecord
100
AcDbLinetypeTableRecord
  2
HOT_WATER_SUPPLY
 70
     0
  3
Hot water supply ---- HW ---- HW ---- HW ----
 72
    65
 73
     3
 40
0.9
 49
0.5
 74
     0
 49
-0.2
 74
     2
 75
     0
340
55
 46
0.1
 50
0.0
 44
-0.1
 45
-0.05
  9
HW
 49
-0.2
 74
     0
  0
LTYPE
  5
B8
330
5
100
AcDbSymbolTableRecord
100
AcDbLinetypeTableRecord
  2
GAS_LINE
 70
     0
  3
Gas line ----GAS----GAS----GAS----GAS----GAS---
 72
    65
 73
     3
 40
0.95
 49
0.5
 74
     0
 49
-0.2
 74
     2
 75
     0
340
55
 46
0.1
 50
0.0
 44
-0.1
 45
-0.05
  9
GAS
 49
-0.25
 74
     0
  0
LTYPE
  5
B9
330
5
100
AcDbSymbolTableRecord
100
AcDbLinetypeTableRecord
  2
ZIGZAG
 70
     0
  3
Zig zag /\/\/\/\/\/\/\/\/\/\/\/\/\/\/\/\/\/\/\/
 72
    65
 73
     4
 40
0.8001000000000001
 49
0.0001
 74
     0
 49
-0.2
 74
     4
 75
   131
340
B2
 46
0.2
 50
0.0
 44
-0.2
 45
0.0
 49
-0.4
 74
     4
 75
   131
340
B2
 46
0.2
 50
180.0
 44
0.2
 45
0.0
 49
-0.2
 74
     0
  0
ENDTAB
  0
TABLE
  2
LAYER
  5
2
330
0
100
AcDbSymbolTable
 70
    27
  0
LAYER
  5
54
330
2
100
AcDbSymbolTableRecord
100
AcDbLayerTableRecord
  2
0
 70
     0
 62
     7
  6
Continuous
370
    18
390
F
  0
LAYER
  5
C3
330
2
100
AcDbSymbolTableRecord
100
AcDbLayerTableRecord
  2
Dimension (ANSI)
 70
     0
 62
     7
  6
Continuous
370
    13
390
F
  0
LAYER
  5
C5
330
2
100
AcDbSymbolTableRecord
100
AcDbLayerTableRecord
  2
Hidden (ANSI)
 70
     0
 62
     7
  6
DASHED
370
    15
390
F
  0
LAYER
  5
CC
330
2
100
AcDbSymbolTableRecord
100
AcDbLayerTableRecord
  2
Symbol (ANSI)
 70
     0
 62
     7
  6
Continuous
370
    18
390
F
  0
LAYER
  5
CF
330
2
100
AcDbSymbolTableRecord
100
AcDbLayerTableRecord
  2
Visible (ANSI)
 70
     0
 62
     7
  6
Continuous
370
    13
390
F
  0
LAYER
  5
D0
330
2
100
AcDbSymbolTableRecord
100
AcDbLayerTableRecord
  2
Visible Narrow (ANSI)
 70
     0
 62
     7
  6
Continuous
370
    18
390
F
  0
LAYER
  5
148
330
2
100
AcDbSymbolTableRecord
100
AcDbLayerTableRecord
  2
Defpoints
 70
     0
 62
     7
  6
Continuous
290
     0
370
    -3
390
F
  0
ENDTAB
  0
TABLE
  2
STYLE
  5
3
330
0
100
AcDbSymbolTable
 70
    18
  0
STYLE
  5
55
330
3
100
AcDbSymbolTableRecord
100
AcDbTextStyleTableRecord
  2
Standard
 70
     0
 40
0.0
 41
1.0
 50
0.0
 71
     0
 42
0.2
  3
txt
  4

  0
STYLE
  5
5A
330
3
100
AcDbSymbolTableRecord
100
AcDbTextStyleTableRecord
  2
Annotative
 70
     0
 40
0.0
 41
1.0
 50
0.0
 71
     0
 42
0.2
  3
txt
  4

1001
AcadAnnotative
1000
AnnotativeData
1002
{
1070
     1
1070
     1
1002
}
  0
STYLE
  5
B2
330
3
100
AcDbSymbolTableRecord
100
AcDbTextStyleTableRecord
  2

 70
     1
 40
0.0
 41
1.0
 50
0.0
 71
     0
 42
0.2
  3
ltypeshp.shx
  4

  0
STYLE
  5
D4
330
3
100
AcDbSymbolTableRecord
100
AcDbTextStyleTableRecord
  2
ITALICC_120
 70
     0
 40
0.0
 41
1.0
 50
0.0
 71
     0
 42
0.2
  3
italicc.shx
  4

  0
STYLE
  5
D5
330
3
100
AcDbSymbolTableRecord
100
AcDbTextStyleTableRecord
  2
Label Text (ANSI)
 70
     0
 40
0.0
 41
1.0
 50
0.0
 71
     0
 42
0.2
  3
TAHOMA.TTF
  4

1001
ACAD
1000
Tahoma
1071
      256
  0
STYLE
  5
D6
330
3
100
AcDbSymbolTableRecord
100
AcDbTextStyleTableRecord
  2
Note Text (ANSI)
 70
     0
 40
0.0
 41
1.0
 50
0.0
 71
     0
 42
0.2
  3
TAHOMA.TTF
  4

1001
ACAD
1000
Tahoma
1071
      256
  0
STYLE
  5
D7
330
3
100
AcDbSymbolTableRecord
100
AcDbTextStyleTableRecord
  2
ROMANS
 70
     0
 40
0.0
 41
1.0
 50
0.0
 71
     0
 42
0.2
  3
romans.shx
  4

  0
STYLE
  5
D8
330
3
100
AcDbSymbolTableRecord
100
AcDbTextStyleTableRecord
  2
SANSSERIF_114
 70
     0
 40
0.0
 41
1.0
 50
0.0
 71
     0
 42
0.2
  3
TAHOMA.TTF
  4

1001
ACAD
1000
Tahoma
1071
      256
  0
STYLE
  5
D9
330
3
100
AcDbSymbolTableRecord
100
AcDbTextStyleTableRecord
  2
SANSSERIF_117
 70
     0
 40
0.0
 41
1.0
 50
0.0
 71
     0
 42
0.2
  3
TAHOMA.TTF
  4

1001
ACAD
1000
Tahoma
1071
      256
  0
STYLE
  5
DA
330
3
100
AcDbSymbolTableRecord
100
AcDbTextStyleTableRecord
  2
STANDARDAM_ANSI
 70
     0
 40
0.0
 41
1.0
 50
0.0
 71
     0
 42
0.2
  3
txt.shx
  4

  0
STYLE
  5
DB
330
3
100
AcDbSymbolTableRecord
100
AcDbTextStyleTableRecord
  2
StandardAM_ANSI$0
 70
     0
 40
0.0
 41
1.0
 50
0.0
 71
     0
 42
0.2
  3
txt.shx
  4

  0
STYLE
  5
DC
330
3
100
AcDbSymbolTableRecord
100
AcDbTextStyleTableRecord
  2
STANDARDAM_ANSI$3
 70
     0
 40
0.0
 41
1.0
 50
0.0
 71
     0
 42
0.2
  3
txt.shx
  4

  0
STYLE
  5
DD
330
3
100
AcDbSymbolTableRecord
100
AcDbTextStyleTableRecord
  2
STANDARDAM_ANSI$4
 70
     0
 40
0.0
 41
1.0
 50
0.0
 71
     0
 42
0.2
  3
txt.shx
  4

  0
STYLE
  5
DE
330
3
100
AcDbSymbolTableRecord
100
AcDbTextStyleTableRecord
  2
STANDARDAM_ANSI$7
 70
     0
 40
0.0
 41
1.0
 50
0.0
 71
     0
 42
0.2
  3
txt.shx
  4

  0
STYLE
  5
DF
330
3
100
AcDbSymbolTableRecord
100
AcDbTextStyleTableRecord
  2
STANDARDAM_ANSI$SF
 70
     0
 40
0.0
 41
1.0
 50
0.0
 71
     0
 42
0.2
  3
txt.shx
  4

  0
STYLE
  5
E0
330
3
100
AcDbSymbolTableRecord
100
AcDbTextStyleTableRecord
  2
STANDARDAM_ANSI$SH
 70
     0
 40
0.0
 41
1.0
 50
0.0
 71
     0
 42
0.2
  3
txt.shx
  4

  0
STYLE
  5
E1
330
3
100
AcDbSymbolTableRecord
100
AcDbTextStyleTableRecord
  2
STANDARDSTANDARD
 70
     0
 40
0.0
 41
1.0
 50
0.0
 71
     0
 42
0.2
  3
txt.shx
  4

  0
STYLE
  5
135
330
3
100
AcDbSymbolTableRecord
100
AcDbTextStyleTableRecord
  2
Text Style150
 70
     0
 40
0.0
 41
1.0
 50
0.0
 71
     0
 42
0.2
  3
TAHOMA.TTF
  4

1001
ACAD
1000
Tahoma
1071
      256
  0
ENDTAB
  0
TABLE
  2
VIEW
  5
6
330
0
100
AcDbSymbolTable
 70
     0
  0
ENDTAB
  0
TABLE
  2
UCS
  5
7
330
0
100
AcDbSymbolTable
 70
     0
  0
ENDTAB
  0
TABLE
  2
APPID
  5
9
330
0
100
AcDbSymbolTable
 70
     4
  0
APPID
  5
56
330
9
100
AcDbSymbolTableRecord
100
AcDbRegAppTableRecord
  2
ACAD
 70
     0
  0
APPID
  5
5E
330
9
100
AcDbSymbolTableRecord
100
AcDbRegAppTableRecord
  2
AcadAnnotative
 70
     0
  0
APPID
  5
7B1
330
9
100
AcDbSymbolTableRecord
100
AcDbRegAppTableRecord
  2
ACAD_DSTYLE_DIMRADIAL_EXTENSION
 70
     0
  0
APPID
  5
8B5
330
9
100
AcDbSymbolTableRecord
100
AcDbRegAppTableRecord
  2
ACAD_MLEADERVER
 70
     0
  0
ENDTAB
  0
TABLE
  2
DIMSTYLE
  5
A
330
0
100
AcDbSymbolTable
 70
    29
100
AcDbDimStyleTable
 71
     2
340
F6
340
58
  0
DIMSTYLE
105
58
330
A
100
AcDbSymbolTableRecord
100
AcDbDimStyleTableRecord
  2
STANDARD
 70
     0
 41
0.1800000071525573
 42
0.0625
140
0.1800000071525574
144
1.0
147
0.0900000035762787
176
   256
177
   256
178
   256
274
     3
340
55
371
    -1
372
    -1
  0
DIMSTYLE
105
59
330
A
100
AcDbSymbolTableRecord
100
AcDbDimStyleTableRecord
  2
Annotative
 70
     0
340
55
1001
AcadAnnotative
1000
AnnotativeData
1002
{
1070
     1
1070
     1
1002
}
  0
DIMSTYLE
105
E2
330
A
100
AcDbSymbolTableRecord
100
AcDbDimStyleTableRecord
  2
AM_ANSI
 70
     0
  4
 mm
 40
2.5
 41
0.119999997317791
 42
0.05
 43
0.5
 44
0.1
 45
0.00000001
 78
     4
 79
     2
140
0.1200000047683716
146
0.7099999453624112
147
0.0599999986588955
176
   256
177
   256
178
     2
284
     4
340
DA
371
    -1
372
    -1
  0
DIMSTYLE
105
E3
330
A
100
AcDbSymbolTableRecord
100
AcDbDimStyleTableRecord
  2
AM_ANSI$7
 70
     0
  4
 mm
 40
2.5
 41
0.119999997317791
 42
0.05
 43
0.5
 44
0.1
 45
0.00000001
 78
     4
 79
     2
140
0.1200000047683716
146
0.7099999453624112
147
0.0599999986588955
176
   256
177
   256
178
     2
284
     4
340
DA
371
    -1
372
    -1
  0
DIMSTYLE
105
E4
330
A
100
AcDbSymbolTableRecord
100
AcDbDimStyleTableRecord
  2
AM_ANSI$0
 70
     0
  4
 mm
 40
2.5
 41
0.119999997317791
 42
0.05
 43
0.5
 44
0.1
 45
0.00000001
 78
     4
 79
     2
140
0.1200000047683716
146
0.7099999453624112
147
0.0599999986588955
176
   256
177
   256
178
     2
284
     4
340
DB
371
    -1
372
    -1
  0
DIMSTYLE
105
E5
330
A
100
AcDbSymbolTableRecord
100
AcDbDimStyleTableRecord
  2
AM_ANSI$0$7
 70
     0
  4
 mm
 40
2.5
 41
0.119999997317791
 42
0.05
 43
0.5
 44
0.1
 45
0.00000001
 78
     4
 79
     2
140
0.1200000047683716
146
0.7099999453624112
147
0.0599999986588955
176
   256
177
   256
178
     2
284
     4
340
DB
371
    -1
372
    -1
  0
DIMSTYLE
105
E6
330
A
100
AcDbSymbolTableRecord
100
AcDbDimStyleTableRecord
  2
AM_ANSI$3
 70
     0
  4
 mm
 40
2.5
 41
0.119999997317791
 42
0.05
 43
0.5
 44
0.1
 45
0.00000001
 78
     4
 79
     2
140
0.1200000047683716
146
0.7099999453624112
147
0.0599999986588955
176
   256
177
   256
178
     2
284
     4
340
DC
371
    -1
372
    -1
  0
DIMSTYLE
105
E7
330
A
100
AcDbSymbolTableRecord
100
AcDbDimStyleTableRecord
  2
AM_ANSI$3$7
 70
     0
  4
 mm
 40
2.5
 41
0.119999997317791
 42
0.05
 43
0.5
 44
0.1
 45
0.00000001
 78
     4
 79
     2
140
0.1200000047683716
146
0.7099999453624112
147
0.0599999986588955
176
   256
177
   256
178
     2
284
     4
340
DC
371
    -1
372
    -1
  0
DIMSTYLE
105
E8
330
A
100
AcDbSymbolTableRecord
100
AcDbDimStyleTableRecord
  2
AM_ANSI$4
 70
     0
  4
 mm
 40
2.5
 41
0.119999997317791
 42
0.05
 43
0.5
 44
0.1
 45
0.00000001
 78
     4
 79
     2
140
0.1200000047683716
146
0.7099999453624112
147
0.0599999986588955
176
   256
177
   256
178
     2
284
     4
340
DD
371
    -1
372
    -1
  0
DIMSTYLE
105
E9
330
A
100
AcDbSymbolTableRecord
100
AcDbDimStyleTableRecord
  2
AM_ANSI$4$7
 70
     0
  4
 mm
 40
2.5
 41
0.119999997317791
 42
0.05
 43
0.5
 44
0.1
 45
0.00000001
 78
     4
 79
     2
140
0.1200000047683716
146
0.7099999453624112
147
0.0599999986588955
176
   256
177
   256
178
     2
284
     4
340
DD
371
    -1
372
    -1
  0
DIMSTYLE
105
EA
330
A
100
AcDbSymbolTableRecord
100
AcDbDimStyleTableRecord
  2
AM_ANSI$SF
 70
     0
  4
 mm
 40
2.5
 41
0.119999997317791
 42
0.05
 43
0.5
 44
0.1
 45
0.00000001
 75
     1
 76
     1
 78
     4
 79
     2
140
0.1200000047683716
146
0.7099999453624112
147
0.0599999986588955
176
   256
177
   256
178
     2
284
     4
340
DF
371
    -1
372
    -1
  0
DIMSTYLE
105
EB
330
A
100
AcDbSymbolTableRecord
100
AcDbDimStyleTableRecord
  2
AM_ANSI$SF$7
 70
     0
  4
 mm
 40
2.5
 41
0.119999997317791
 42
0.05
 43
0.5
 44
0.1
 45
0.00000001
 75
     1
 76
     1
 78
     4
 79
     2
140
0.1200000047683716
146
0.7099999453624112
147
0.0599999986588955
176
   256
177
   256
178
     2
284
     4
340
DF
371
    -1
372
    -1
  0
DIMSTYLE
105
EC
330
A
100
AcDbSymbolTableRecord
100
AcDbDimStyleTableRecord
  2
AM_ANSI$SH
 70
     0
  4
 mm
 40
2.5
 41
0.119999997317791
 42
0.05
 43
0.5
 44
0.1
 45
0.00000001
 75
     1
 76
     1
 78
     4
 79
     2
140
0.1200000047683716
146
0.7099999453624112
147
0.0599999986588955
176
   256
177
   256
178
     2
284
     4
340
E0
371
    -1
372
    -1
  0
DIMSTYLE
105
ED
330
A
100
AcDbSymbolTableRecord
100
AcDbDimStyleTableRecord
  2
AM_ANSI$SH$7
 70
     0
  4
 mm
 40
2.5
 41
0.119999997317791
 42
0.05
 43
0.5
 44
0.1
 45
0.00000001
 75
     1
 76
     1
 78
     4
 79
     2
140
0.1200000047683716
146
0.7099999453624112
147
0.0599999986588955
176
   256
177
   256
178
     2
284
     4
340
E0
371
    -1
372
    -1
  0
DIMSTYLE
105
EE
330
A
100
AcDbSymbolTableRecord
100
AcDbDimStyleTableRecord
  2
Architectural (ANSI)
 70
     0
 40
2.5
 41
0.0984251946210861
 43
0.2362204724409449
 44
0.125
 45
0.00000001
 46
0.3937007874015748
 78
     3
 79
     3
140
0.1200000047683716
147
0.031496062992126
171
     1
176
   256
177
   256
178
   256
272
     2
274
     1
276
     2
277
     4
284
    12
285
     4
286
    12
340
D6
371
    -1
372
    -1
  0
DIMSTYLE
105
EF
330
A
100
AcDbSymbolTableRecord
100
AcDbDimStyleTableRecord
  2
Architectural (ANSI)$7
 70
     0
 40
2.5
 41
0.0984251946210861
 43
0.2362204724409449
 44
0.125
 45
0.00000001
 46
0.3937007874015748
 78
     3
 79
     3
140
0.1200000047683716
147
0.031496062992126
171
     1
176
   256
177
   256
178
   256
272
     2
274
     1
276
     2
277
     4
284
    12
285
     4
286
    12
340
D6
371
    -1
372
    -1
  0
DIMSTYLE
105
F0
330
A
100
AcDbSymbolTableRecord
100
AcDbDimStyleTableRecord
  2
Default - Fraction (ANSI)
 70
     0
 40
2.5
 41
0.0984251946210861
 43
0.2362204724409449
 44
0.125
 45
0.00000001
 46
0.3937007874015748
 79
     3
140
0.1200000047683716
147
0.031496062992126
171
     1
176
   256
177
   256
178
   256
272
     2
274
     1
276
     2
277
     5
284
    12
285
     4
286
    12
340
D6
371
    -1
372
    -1
  0
DIMSTYLE
105
F1
330
A
100
AcDbSymbolTableRecord
100
AcDbDimStyleTableRecord
  2
Default - Fraction (ANSI)$7
 70
     0
 40
2.5
 41
0.0984251946210861
 43
0.2362204724409449
 44
0.125
 45
0.00000001
 46
0.3937007874015748
 79
     3
140
0.1200000047683716
147
0.031496062992126
171
     1
176
   256
177
   256
178
   256
272
     2
274
     1
276
     2
277
     5
284
    12
285
     4
286
    12
340
D6
371
    -1
372
    -1
  0
DIMSTYLE
105
F2
330
A
100
AcDbSymbolTableRecord
100
AcDbDimStyleTableRecord
  2
Default - mm (ANSI)
 70
     0
 40
2.5
 41
0.0984251946210861
 42
0.063
 43
0.2362204724409449
 44
0.125
 45
0.00000001
 46
0.3937007874015748
 73
     0
 78
     4
 79
     1
140
0.1200000047683716
143
1.0
144
25.4
147
0.031496062992126
171
     1
176
   256
177
   256
178
   256
179
     1
271
     2
272
     2
274
     1
284
     4
285
     4
340
D6
371
    -1
372
    -1
  0
DIMSTYLE
105
F3
330
A
100
AcDbSymbolTableRecord
100
AcDbDimStyleTableRecord
  2
Default - mm (ANSI)$7
 70
     0
 40
2.5
 41
0.0984251946210861
 42
0.063
 43
0.2362204724409449
 44
0.125
 45
0.00000001
 46
0.3937007874015748
 73
     0
 78
     4
 79
     1
140
0.1200000047683716
143
1.0
144
25.4
147
0.031496062992126
171
     1
176
   256
177
   256
178
   256
179
     1
271
     2
272
     2
274
     1
284
     4
285
     4
340
D6
371
    -1
372
    -1
  0
DIMSTYLE
105
F4
330
A
100
AcDbSymbolTableRecord
100
AcDbDimStyleTableRecord
  2
Default - mm [in] (ANSI)
 70
     0
  4
 in
 40
2.5
 41
0.0984251946210861
 42
0.063
 43
0.25
 44
0.125
 45
0.00000001
 46
0.3937007874015748
 73
     0
 78
     4
 79
     1
140
0.1200000047683716
143
0.03937
144
25.4
147
0.031496062992126
170
     1
171
     3
176
   256
177
   256
178
   256
179
     1
271
     2
272
     2
274
     3
284
     4
285
     4
286
     4
340
D6
371
    -1
372
    -1
  0
DIMSTYLE
105
F5
330
A
100
AcDbSymbolTableRecord
100
AcDbDimStyleTableRecord
  2
Default - mm [in] (ANSI)$7
 70
     0
  4
 in
 40
2.5
 41
0.0984251946210861
 42
0.063
 43
0.25
 44
0.125
 45
0.00000001
 46
0.3937007874015748
 73
     0
 78
     4
 79
     1
140
0.1200000047683716
143
0.03937
144
25.4
147
0.031496062992126
170
     1
171
     3
176
   256
177
   256
178
   256
179
     1
271
     2
272
     2
274
     3
284
     4
285
     4
286
     4
340
D6
371
    -1
372
    -1
  0
DIMSTYLE
105
F6
102
{ACAD_REACTORS
330
146
330
256
330
340
330
42A
330
542
330
640
330
72A
330
7CE
102
}
330
A
100
AcDbSymbolTableRecord
100
AcDbDimStyleTableRecord
  2
Default (ANSI)
 70
     0
 40
2.5
 41
0.0984251946210861
 43
0.2362204724409449
 44
0.125
 45
0.00000001
 46
0.3937007874015748
 79
     1
140
0.1200000047683716
147
0.031496062992126
171
     1
176
   256
177
   256
178
   256
271
     3
272
     2
274
     1
284
     4
285
     4
340
D6
371
    -1
372
    -1
  0
DIMSTYLE
105
F7
330
A
100
AcDbSymbolTableRecord
100
AcDbDimStyleTableRecord
  2
Default (ANSI)$7
 70
     0
 40
2.5
 41
0.0984251946210861
 43
0.2362204724409449
 44
0.125
 45
0.00000001
 46
0.3937007874015748
 79
     1
140
0.1200000047683716
147
0.031496062992126
171
     1
176
   256
177
   256
178
   256
271
     3
272
     2
274
     1
284
     4
285
     4
340
D6
371
    -1
372
    -1
  0
DIMSTYLE
105
F8
330
A
100
AcDbSymbolTableRecord
100
AcDbDimStyleTableRecord
  2
Default (ANSI)-01
 70
     0
 40
2.5
 41
0.0984251946210861
 43
0.2362204724409449
 44
0.125
 45
0.00000001
 46
0.3937007874015748
 79
     1
140
0.1200000047683716
147
0.031496062992126
171
     1
176
   256
177
   256
178
   256
271
     2
272
     2
274
     1
284
     4
285
     4
340
D6
371
    -1
372
    -1
  0
DIMSTYLE
105
F9
330
A
100
AcDbSymbolTableRecord
100
AcDbDimStyleTableRecord
  2
Default (ANSI)-01$7
 70
     0
 40
2.5
 41
0.0984251946210861
 43
0.2362204724409449
 44
0.125
 45
0.00000001
 46
0.3937007874015748
 79
     1
140
0.1200000047683716
147
0.031496062992126
171
     1
176
   256
177
   256
178
   256
271
     2
272
     2
274
     1
284
     4
285
     4
340
D6
371
    -1
372
    -1
  0
DIMSTYLE
105
FA
330
A
100
AcDbSymbolTableRecord
100
AcDbDimStyleTableRecord
  2
Alternate (ANSI)
 70
     0
 40
2.5
 41
0.0979999974370003
340
55
342
FB
  0
DIMSTYLE
105
10D
330
A
100
AcDbSymbolTableRecord
100
AcDbDimStyleTableRecord
  2
Datum (ANSI)
 70
     0
 40
2.5
 41
0.0979999974370003
340
55
342
FB
  0
DIMSTYLE
105
11C
330
A
100
AcDbSymbolTableRecord
100
AcDbDimStyleTableRecord
  2
Large (ANSI)
 70
     0
 40
2.5
 41
0.1959999948740005
340
55
342
FB
  0
ENDTAB
  0
TABLE
  2
BLOCK_RECORD
  5
1
330
0
100
AcDbSymbolTable
 70
    12
  0
BLOCK_RECORD
  5
6C
330
1
100
AcDbSymbolTableRecord
100
AcDbBlockTableRecord
  2
*Model_Space
340
6F
  0
BLOCK_RECORD
  5
68
330
1
100
AcDbSymbolTableRecord
100
AcDbBlockTableRecord
  2
*Paper_Space
340
6B
  0
BLOCK_RECORD
  5
70
330
1
100
AcDbSymbolTableRecord
100
AcDbBlockTableRecord
  2
*Paper_Space0
340
73
  0
BLOCK_RECORD
  5
FB
330
1
100
AcDbSymbolTableRecord
100
AcDbBlockTableRecord
  2
_Closed
340
0
  0
BLOCK_RECORD
  5
102
330
1
100
AcDbSymbolTableRecord
100
AcDbBlockTableRecord
  2
DatumFilled45
340
0
  0
BLOCK_RECORD
  5
10E
330
1
100
AcDbSymbolTableRecord
100
AcDbBlockTableRecord
  2
Filled-1
340
0
  0
BLOCK_RECORD
  5
149
330
1
100
AcDbSymbolTableRecord
100
AcDbBlockTableRecord
  2
*D4
340
0
  0
BLOCK_RECORD
  5
257
330
1
100
AcDbSymbolTableRecord
100
AcDbBlockTableRecord
  2
*D5
340
0
  0
BLOCK_RECORD
  5
341
330
1
100
AcDbSymbolTableRecord
100
AcDbBlockTableRecord
  2
*D6
340
0
  0
BLOCK_RECORD
  5
42B
330
1
100
AcDbSymbolTableRecord
100
AcDbBlockTableRecord
  2
*D7
340
0
  0
BLOCK_RECORD
  5
543
330
1
100
AcDbSymbolTableRecord
100
AcDbBlockTableRecord
  2
*D8
340
0
  0
BLOCK_RECORD
  5
641
330
1
100
AcDbSymbolTableRecord
100
AcDbBlockTableRecord
  2
*D9
340
0
  0
BLOCK_RECORD
  5
72B
330
1
100
AcDbSymbolTableRecord
100
AcDbBlockTableRecord
  2
*D10
340
0
  0
BLOCK_RECORD
  5
7CF
330
1
100
AcDbSymbolTableRecord
100
AcDbBlockTableRecord
  2
*D11
340
0
  0
ENDTAB
  0
ENDSEC
  0
SECTION
  2
BLOCKS
  0
BLOCK
  5
6D
330
6C
100
AcDbEntity
  8
0
100
AcDbBlockBegin
  2
*Model_Space
 70
     0
 10
0.0
 20
0.0
 30
0.0
  3
*Model_Space
  1

  0
ENDBLK
  5
6E
330
6C
100
AcDbEntity
  8
0
100
AcDbBlockEnd
  0
BLOCK
  5
69
330
68
100
AcDbEntity
 67
     1
  8
0
100
AcDbBlockBegin
  2
*Paper_Space
 70
     0
 10
0.0
 20
0.0
 30
0.0
  3
*Paper_Space
  1

  0
ENDBLK
  5
6A
330
68
100
AcDbEntity
 67
     1
  8
0
100
AcDbBlockEnd
  0
BLOCK
  5
71
330
70
100
AcDbEntity
 67
     1
  8
0
100
AcDbBlockBegin
  2
*Paper_Space0
 70
     0
 10
0.0
 20
0.0
 30
0.0
  3
*Paper_Space0
  1

  0
ENDBLK
  5
72
330
70
100
AcDbEntity
 67
     1
  8
0
100
AcDbBlockEnd
  0
BLOCK
  5
100
330
FB
100
AcDbEntity
  8
0
100
AcDbBlockBegin
  2
_Closed
 70
     0
 10
0.0
 20
0.0
 30
0.0
  3
_Closed
  1

  0
LINE
  5
FC
330
FB
100
AcDbEntity
  8
0
  6
ByBlock
 62
     0
370
    -2
100
AcDbLine
 10
-1.0
 20
0.1666666666666666
 30
0.0
 11
0.0
 21
0.0
 31
0.0
  0
LINE
  5
FD
330
FB
100
AcDbEntity
  8
0
  6
ByBlock
 62
     0
370
    -2
100
AcDbLine
 10
0.0
 20
0.0
 30
0.0
 11
-1.0
 21
-0.1666666666666666
 31
0.0
  0
LINE
  5
FE
330
FB
100
AcDbEntity
  8
0
  6
ByBlock
 62
     0
370
    -2
100
AcDbLine
 10
-1.0
 20
0.1666666666666666
 30
0.0
 11
-1.0
 21
-0.1666666666666666
 31
0.0
  0
LINE
  5
FF
330
FB
100
AcDbEntity
  8
0
  6
ByBlock
 62
     0
370
    -2
100
AcDbLine
 10
0.0
 20
0.0
 30
0.0
 11
-1.0
 21
0.0
 31
0.0
  0
ENDBLK
  5
101
330
FB
100
AcDbEntity
  8
0
100
AcDbBlockEnd
  0
BLOCK
  5
103
330
102
100
AcDbEntity
  8
0
100
AcDbBlockBegin
  2
DatumFilled45
 70
     0
 10
0.0
 20
0.0
 30
0.0
  3
DatumFilled45
  1

  0
POLYLINE
  5
105
330
102
100
AcDbEntity
  8
0
 62
     0
100
AcDb2dPolyline
 66
     1
 10
0.0
 20
0.0
 30
0.0
 70
   128
  0
VERTEX
  5
106
330
105
100
AcDbEntity
  8
0
 62
     0
100
AcDbVertex
100
AcDb2dVertex
 10
0.0
 20
0.9999999999999998
 30
0.0
  0
VERTEX
  5
107
330
105
100
AcDbEntity
  8
0
 62
     0
100
AcDbVertex
100
AcDb2dVertex
 10
0.0
 20
-0.9999999999999998
 30
0.0
  0
VERTEX
  5
109
330
105
100
AcDbEntity
  8
0
 62
     0
100
AcDbVertex
100
AcDb2dVertex
 10
-0.9999999999999998
 20
0.0
 30
0.0
  0
VERTEX
  5
10A
330
105
100
AcDbEntity
  8
0
 62
     0
100
AcDbVertex
100
AcDb2dVertex
 10
0.0
 20
0.9999999999999998
 30
0.0
  0
SEQEND
  5
108
330
105
100
AcDbEntity
  8
0
 62
     0
  0
SOLID
  5
10C
330
102
100
AcDbEntity
  8
0
 62
     0
100
AcDbTrace
 10
0.0
 20
0.9999999999999998
 30
0.0
 11
0.0
 21
-0.9999999999999998
 31
0.0
 12
-0.9999999999999998
 22
0.0
 32
0.0
 13
0.0
 23
0.9999999999999998
 33
0.0
  0
ENDBLK
  5
104
330
102
100
AcDbEntity
  8
0
100
AcDbBlockEnd
  0
BLOCK
  5
10F
330
10E
100
AcDbEntity
  8
0
100
AcDbBlockBegin
  2
Filled-1
 70
     0
 10
0.0
 20
0.0
 30
0.0
  3
Filled-1
  1

  0
LINE
  5
111
330
10E
100
AcDbEntity
  8
0
 62
     0
100
AcDbLine
 10
-0.9999999999999998
 20
0.0
 30
0.0
 11
0.0
 21
0.0
 31
0.0
  0
POLYLINE
  5
112
330
10E
100
AcDbEntity
  8
0
 62
     0
100
AcDb2dPolyline
 66
     1
 10
0.0
 20
0.0
 30
0.0
 70
   128
  0
VERTEX
  5
113
330
112
100
AcDbEntity
  8
0
 62
     0
100
AcDbVertex
100
AcDb2dVertex
 10
-0.9999999999999998
 20
-0.0994897959183674
 30
0.0
  0
VERTEX
  5
114
330
112
100
AcDbEntity
  8
0
 62
     0
100
AcDbVertex
100
AcDb2dVertex
 10
0.0
 20
0.0
 30
0.0
  0
VERTEX
  5
116
330
112
100
AcDbEntity
  8
0
 62
     0
100
AcDbVertex
100
AcDb2dVertex
 10
-0.9999999999999998
 20
0.0994897959183674
 30
0.0
  0
VERTEX
  5
117
330
112
100
AcDbEntity
  8
0
 62
     0
100
AcDbVertex
100
AcDb2dVertex
 10
-0.9999999999999998
 20
-0.0994897959183674
 30
0.0
  0
SEQEND
  5
115
330
112
100
AcDbEntity
  8
0
 62
     0
  0
SOLID
  5
118
330
10E
100
AcDbEntity
  8
0
 62
     0
100
AcDbTrace
 10
-0.9999999999999998
 20
-0.0994897959183674
 30
0.0
 11
0.0
 21
0.0
 31
0.0
 12
-0.9999999999999998
 22
0.0994897959183674
 32
0.0
 13
-0.9999999999999998
 23
-0.0994897959183674
 33
0.0
  0
LINE
  5
119
330
10E
100
AcDbEntity
  8
0
 62
     0
100
AcDbLine
 10
-0.9999999999999998
 20
-0.0994897959183674
 30
0.0
 11
0.0
 21
0.0
 31
0.0
  0
LINE
  5
11A
330
10E
100
AcDbEntity
  8
0
 62
     0
100
AcDbLine
 10
0.0
 20
0.0
 30
0.0
 11
-0.9999999999999998
 21
0.0994897959183674
 31
0.0
  0
LINE
  5
11B
330
10E
100
AcDbEntity
  8
0
 62
     0
100
AcDbLine
 10
-0.9999999999999998
 20
0.0994897959183674
 30
0.0
 11
-0.9999999999999998
 21
-0.0994897959183674
 31
0.0
  0
ENDBLK
  5
110
330
10E
100
AcDbEntity
  8
0
100
AcDbBlockEnd
  0
BLOCK
  5
14A
330
149
100
AcDbEntity
  8
0
100
AcDbBlockBegin
  2
*D4
 70
     1
 10
0.0
 20
0.0
 30
0.0
  3
*D4
  1

  0
LINE
  5
21F
330
149
100
AcDbEntity
  8
Dimension (ANSI)
100
AcDbLine
 10
26.18931430024446
 20
20.43431715309956
 30
0.0
 11
25.94325131369174
 21
20.43431715309956
 31
0.0
  0
LINE
  5
220
330
149
100
AcDbEntity
  8
Dimension (ANSI)
100
AcDbLine
 10
26.76144027334989
 20
20.43431715309956
 30
0.0
 11
27.14866903876661
 21
20.43431715309956
 31
0.0
  0
SOLID
  5
221
330
149
100
AcDbEntity
  8
Dimension (ANSI)
100
AcDbTrace
 10
26.18931430024446
 20
20.47532765085835
 30
0.0
 11
26.18931430024446
 21
20.39330665534077
 31
0.0
 12
26.43537728679717
 22
20.43431715309956
 32
0.0
 13
26.43537728679717
 23
20.43431715309956
 33
0.0
  0
SOLID
  5
222
330
149
100
AcDbEntity
  8
Dimension (ANSI)
100
AcDbTrace
 10
26.76144027334989
 20
20.47532765085835
 30
0.0
 11
26.76144027334989
 21
20.39330665534077
 31
0.0
 12
26.51537728679717
 22
20.43431715309956
 32
0.0
 13
26.51537728679717
 23
20.43431715309956
 33
0.0
  0
MTEXT
  5
223
330
149
100
AcDbEntity
  8
Dimension (ANSI)
100
AcDbMText
 10
27.22740919624693
 20
20.59116739438931
 30
0.0
 40
0.3000000119209289
 41
0.0
 71
     1
 72
     1
  1
\A1;0.080
  7
Note Text (ANSI)
 73
     1
 44
1.0
1001
ACAD
1000
MTEXTBEGIN
1070
    73
1070
     1
1070
    44
1040
1.0
1070
    74
1070
     0
1000
MTEXTEND
  0
POINT
  5
224
330
149
100
AcDbEntity
  8
Defpoints
 62
     0
100
AcDbPoint
 10
26.51537728679717
 20
8.675786969372524
 30
0.0
  0
POINT
  5
225
330
149
100
AcDbEntity
  8
Defpoints
 62
     0
100
AcDbPoint
 10
26.43537728679717
 20
8.675786969372524
 30
0.0
  0
POINT
  5
226
330
149
100
AcDbEntity
  8
Defpoints
 62
     0
100
AcDbPoint
 10
26.43537728679717
 20
20.43431715309956
 30
0.0
  0
ENDBLK
  5
14B
330
149
100
AcDbEntity
  8
0
100
AcDbBlockEnd
  0
BLOCK
  5
258
330
257
100
AcDbEntity
  8
0
100
AcDbBlockBegin
  2
*D5
 70
     1
 10
0.0
 20
0.0
 30
0.0
  3
*D5
  1

  0
LINE
  5
336
330
257
100
AcDbEntity
  8
Dimension (ANSI)
100
AcDbLine
 10
19.71719641527236
 20
8.519536969372524
 30
0.0
 11
19.71719641527236
 21
6.607290651128002
 31
0.0
  0
LINE
  5
337
330
257
100
AcDbEntity
  8
Dimension (ANSI)
100
AcDbLine
 10
6.837196415272358
 20
8.519536969372524
 30
0.0
 11
6.837196415272358
 21
6.607290651128002
 31
0.0
  0
LINE
  5
338
330
257
100
AcDbEntity
  8
Dimension (ANSI)
100
AcDbLine
 10
19.47113342871964
 20
6.919790651128002
 30
0.0
 11
13.75226052583467
 21
6.919790651128002
 31
0.0
  0
LINE
  5
339
330
257
100
AcDbEntity
  8
Dimension (ANSI)
100
AcDbLine
 10
7.083259401825073
 20
6.919790651128002
 30
0.0
 11
12.40586142622299
 21
6.919790651128002
 31
0.0
  0
SOLID
  5
33A
330
257
100
AcDbEntity
  8
Dimension (ANSI)
100
AcDbTrace
 10
19.47113342871964
 20
6.960801148886789
 30
0.0
 11
19.47113342871964
 21
6.878780153369216
 31
0.0
 12
19.71719641527236
 22
6.919790651128002
 32
0.0
 13
19.71719641527236
 23
6.919790651128002
 33
0.0
  0
SOLID
  5
33B
330
257
100
AcDbEntity
  8
Dimension (ANSI)
100
AcDbTrace
 10
7.083259401825073
 20
6.960801148886789
 30
0.0
 11
7.083259401825073
 21
6.878780153369216
 31
0.0
 12
6.837196415272358
 22
6.919790651128002
 32
0.0
 13
6.837196415272358
 23
6.919790651128002
 33
0.0
  0
MTEXT
  5
33C
330
257
100
AcDbEntity
  8
Dimension (ANSI)
100
AcDbMText
 10
12.48460158370331
 20
7.076640892417756
 30
0.0
 40
0.3000000119209289
 41
0.0
 71
     1
 72
     1
  1
\A1;12.880
  7
Note Text (ANSI)
 73
     1
 44
1.0
1001
ACAD
1000
MTEXTBEGIN
1070
    73
1070
     1
1070
    44
1040
1.0
1070
    74
1070
     0
1000
MTEXTEND
  0
POINT
  5
33D
330
257
100
AcDbEntity
  8
Defpoints
 62
     0
100
AcDbPoint
 10
19.71719641527236
 20
8.675786969372524
 30
0.0
  0
POINT
  5
33E
330
257
100
AcDbEntity
  8
Defpoints
 62
     0
100
AcDbPoint
 10
6.837196415272358
 20
8.675786969372524
 30
0.0
  0
POINT
  5
33F
330
257
100
AcDbEntity
  8
Defpoints
 62
     0
100
AcDbPoint
 10
6.837196415272358
 20
6.919790651128002
 30
0.0
  0
ENDBLK
  5
259
330
257
100
AcDbEntity
  8
0
100
AcDbBlockEnd
  0
BLOCK
  5
342
330
341
100
AcDbEntity
  8
0
100
AcDbBlockBegin
  2
*D6
 70
     1
 10
0.0
 20
0.0
 30
0.0
  3
*D6
  1

  0
LINE
  5
420
330
341
100
AcDbEntity
  8
Dimension (ANSI)
100
AcDbLine
 10
6.680946415272358
 20
8.675786969372524
 30
0.0
 11
4.138906284824155
 21
8.675786969372524
 31
0.0
  0
LINE
  5
421
330
341
100
AcDbEntity
  8
Dimension (ANSI)
100
AcDbLine
 10
6.680946415272353
 20
23.55578696937253
 30
0.0
 11
4.138906284824159
 21
23.55578696937253
 31
0.0
  0
LINE
  5
422
330
341
100
AcDbEntity
  8
Dimension (ANSI)
100
AcDbLine
 10
4.451406284824155
 20
8.921849955925239
 30
0.0
 11
4.451406284824157
 21
16.01881355889987
 31
0.0
  0
LINE
  5
423
330
341
100
AcDbEntity
  8
Dimension (ANSI)
100
AcDbLine
 10
4.451406284824159
 20
23.30972398281981
 30
0.0
 11
4.451406284824157
 21
16.48999435644001
 31
0.0
  0
SOLID
  5
424
330
341
100
AcDbEntity
  8
Dimension (ANSI)
100
AcDbTrace
 10
4.410395787065369
 20
8.921849955925239
 30
0.0
 11
4.492416782582941
 21
8.921849955925239
 31
0.0
 12
4.451406284824155
 22
8.675786969372524
 32
0.0
 13
4.451406284824155
 23
8.675786969372524
 33
0.0
  0
SOLID
  5
425
330
341
100
AcDbEntity
  8
Dimension (ANSI)
100
AcDbTrace
 10
4.410395787065373
 20
23.30972398281981
 30
0.0
 11
4.492416782582945
 21
23.30972398281981
 31
0.0
 12
4.451406284824159
 22
23.55578696937253
 32
0.0
 13
4.451406284824159
 23
23.55578696937253
 33
0.0
  0
MTEXT
  5
426
330
341
100
AcDbEntity
  8
Dimension (ANSI)
100
AcDbMText
 10
3.856946892498633
 20
16.41125419895969
 30
0.0
 40
0.3000000119209289
 41
0.0
 71
     1
 72
     1
  1
\A1;14.880
  7
Note Text (ANSI)
 73
     1
 44
1.0
1001
ACAD
1000
MTEXTBEGIN
1070
    73
1070
     1
1070
    44
1040
1.0
1070
    74
1070
     0
1000
MTEXTEND
  0
POINT
  5
427
330
341
100
AcDbEntity
  8
Defpoints
 62
     0
100
AcDbPoint
 10
6.837196415272358
 20
8.675786969372524
 30
0.0
  0
POINT
  5
428
330
341
100
AcDbEntity
  8
Defpoints
 62
     0
100
AcDbPoint
 10
6.837196415272353
 20
23.55578696937253
 30
0.0
  0
POINT
  5
429
330
341
100
AcDbEntity
  8
Defpoints
 62
     0
100
AcDbPoint
 10
4.451406284824159
 20
23.55578696937253
 30
0.0
  0
ENDBLK
  5
343
330
341
100
AcDbEntity
  8
0
100
AcDbBlockEnd
  0
BLOCK
  5
42C
330
42B
100
AcDbEntity
  8
0
100
AcDbBlockBegin
  2
*D7
 70
     1
 10
0.0
 20
0.0
 30
0.0
  3
*D7
  1

  0
LINE
  5
536
330
42B
100
AcDbEntity
  8
Dimension (ANSI)
100
AcDbLine
 10
6.680946415272358
 20
8.675786969372524
 30
0.0
 11
5.810604511964534
 21
8.675786969372524
 31
0.0
  0
LINE
  5
537
330
42B
100
AcDbEntity
  8
Dimension (ANSI)
100
AcDbLine
 10
6.853446415272357
 20
8.988786969372526
 30
0.0
 11
5.810604511964534
 21
8.988786969372526
 31
0.0
  0
LINE
  5
538
330
42B
100
AcDbEntity
  8
Dimension (ANSI)
100
AcDbLine
 10
6.123104511964534
 20
8.429723982819808
 30
0.0
 11
6.123104511964534
 21
8.183660996267093
 31
0.0
  0
LINE
  5
539
330
42B
100
AcDbEntity
  8
Dimension (ANSI)
100
AcDbLine
 10
6.123104511964534
 20
9.234849955925241
 30
0.0
 11
6.123104511964534
 21
9.480912942477957
 31
0.0
  0
LINE
  5
53A
330
42B
100
AcDbEntity
  8
Dimension (ANSI)
100
AcDbLine
 10
5.87704152541182
 20
10.01325475142711
 30
0.0
 11
6.123104511964535
 21
10.01325475142711
 31
0.0
  0
LINE
  5
53B
330
42B
100
AcDbEntity
  8
Dimension (ANSI)
100
AcDbLine
 10
6.123104511964535
 20
10.01325475142711
 30
0.0
 11
6.123104511964534
 21
9.480912942477957
 31
0.0
  0
MTEXT
  5
53C
330
42B
100
AcDbEntity
  8
Dimension (ANSI)
100
AcDbMText
 10
4.812471913042917
 20
10.21481621007446
 30
0.0
 40
0.3000000119209289
 41
0.0
 71
     1
 72
     1
  1
\A1;0.313{\PTYP.}
  7
Note Text (ANSI)
 73
     1
 44
1.0
1001
ACAD
1000
MTEXTBEGIN
1070
    73
1070
     1
1070
    44
1040
1.0
1070
    74
1070
     0
1000
MTEXTEND
  0
SOLID
  5
53D
330
42B
100
AcDbEntity
  8
Dimension (ANSI)
100
AcDbTrace
 10
6.082094014205748
 20
8.429723982819808
 30
0.0
 11
6.16411500972332
 21
8.429723982819808
 31
0.0
 12
6.123104511964534
 22
8.675786969372524
 32
0.0
 13
6.123104511964534
 23
8.675786969372524
 33
0.0
  0
SOLID
  5
53E
330
42B
100
AcDbEntity
  8
Dimension (ANSI)
100
AcDbTrace
 10
6.082094014205748
 20
9.234849955925241
 30
0.0
 11
6.16411500972332
 21
9.234849955925241
 31
0.0
 12
6.123104511964534
 22
8.988786969372526
 32
0.0
 13
6.123104511964534
 23
8.988786969372526
 33
0.0
  0
POINT
  5
53F
330
42B
100
AcDbEntity
  8
Defpoints
 62
     0
100
AcDbPoint
 10
6.837196415272358
 20
8.675786969372524
 30
0.0
  0
POINT
  5
540
330
42B
100
AcDbEntity
  8
Defpoints
 62
     0
100
AcDbPoint
 10
7.009696415272357
 20
8.988786969372526
 30
0.0
  0
POINT
  5
541
330
42B
100
AcDbEntity
  8
Defpoints
 62
     0
100
AcDbPoint
 10
6.123104511964534
 20
8.988786969372526
 30
0.0
  0
ENDBLK
  5
42D
330
42B
100
AcDbEntity
  8
0
100
AcDbBlockEnd
  0
BLOCK
  5
544
330
543
100
AcDbEntity
  8
0
100
AcDbBlockBegin
  2
*D8
 70
     1
 10
0.0
 20
0.0
 30
0.0
  3
*D8
  1

  0
LINE
  5
636
330
543
100
AcDbEntity
  8
Dimension (ANSI)
100
AcDbLine
 10
6.837196415272358
 20
8.519536969372524
 30
0.0
 11
6.837196415272358
 21
7.355412953624493
 31
0.0
  0
LINE
  5
637
330
543
100
AcDbEntity
  8
Dimension (ANSI)
100
AcDbLine
 10
7.150196415272358
 20
8.723536969372526
 30
0.0
 11
7.150196415272358
 21
7.355412953624493
 31
0.0
  0
LINE
  5
638
330
543
100
AcDbEntity
  8
Dimension (ANSI)
100
AcDbLine
 10
7.396259401825073
 20
7.667912953624493
 30
0.0
 11
7.642322388377788
 21
7.667912953624493
 31
0.0
  0
LINE
  5
639
330
543
100
AcDbEntity
  8
Dimension (ANSI)
100
AcDbLine
 10
6.591133428719643
 20
7.667912953624493
 30
0.0
 11
5.911539494664734
 21
7.667912953624493
 31
0.0
  0
SOLID
  5
63A
330
543
100
AcDbEntity
  8
Dimension (ANSI)
100
AcDbTrace
 10
7.396259401825073
 20
7.708923451383279
 30
0.0
 11
7.396259401825073
 21
7.626902455865707
 31
0.0
 12
7.150196415272358
 22
7.667912953624493
 32
0.0
 13
7.150196415272358
 23
7.667912953624493
 33
0.0
  0
SOLID
  5
63B
330
543
100
AcDbEntity
  8
Dimension (ANSI)
100
AcDbTrace
 10
6.591133428719643
 20
7.708923451383279
 30
0.0
 11
6.591133428719643
 21
7.626902455865707
 31
0.0
 12
6.837196415272358
 22
7.667912953624493
 32
0.0
 13
6.837196415272358
 23
7.667912953624493
 33
0.0
  0
MTEXT
  5
63C
330
543
100
AcDbEntity
  8
Dimension (ANSI)
100
AcDbMText
 10
4.846969882295833
 20
7.869474412271837
 30
0.0
 40
0.3000000119209289
 41
0.0
 71
     1
 72
     1
  1
\A1;0.313{\PTYP.}
  7
Note Text (ANSI)
 73
     1
 44
1.0
1001
ACAD
1000
MTEXTBEGIN
1070
    73
1070
     1
1070
    44
1040
1.0
1070
    74
1070
     0
1000
MTEXTEND
  0
POINT
  5
63D
330
543
100
AcDbEntity
  8
Defpoints
 62
     0
100
AcDbPoint
 10
6.837196415272358
 20
8.675786969372524
 30
0.0
  0
POINT
  5
63E
330
543
100
AcDbEntity
  8
Defpoints
 62
     0
100
AcDbPoint
 10
7.150196415272358
 20
8.879786969372526
 30
0.0
  0
POINT
  5
63F
330
543
100
AcDbEntity
  8
Defpoints
 62
     0
100
AcDbPoint
 10
7.150196415272358
 20
7.667912953624493
 30
0.0
  0
ENDBLK
  5
545
330
543
100
AcDbEntity
  8
0
100
AcDbBlockEnd
  0
BLOCK
  5
642
330
641
100
AcDbEntity
  8
0
100
AcDbBlockBegin
  2
*D9
 70
     1
 10
0.0
 20
0.0
 30
0.0
  3
*D9
  1

  0
LINE
  5
720
330
641
100
AcDbEntity
  8
Dimension (ANSI)
100
AcDbLine
 10
7.150196415272358
 20
8.723536969372526
 30
0.0
 11
7.150196415272358
 21
7.355412953624494
 31
0.0
  0
LINE
  5
721
330
641
100
AcDbEntity
  8
Dimension (ANSI)
100
AcDbLine
 10
8.150196415272358
 20
8.707536969372524
 30
0.0
 11
8.150196415272358
 21
7.355412953624494
 31
0.0
  0
LINE
  5
722
330
641
100
AcDbEntity
  8
Dimension (ANSI)
100
AcDbLine
 10
7.396259401825073
 20
7.667912953624494
 30
0.0
 11
7.904133428719642
 21
7.667912953624494
 31
0.0
  0
LINE
  5
723
330
641
100
AcDbEntity
  8
Dimension (ANSI)
100
AcDbLine
 10
8.150196415272358
 20
7.667912953624494
 30
0.0
 11
8.581827409250173
 21
7.667912953624494
 31
0.0
  0
SOLID
  5
724
330
641
100
AcDbEntity
  8
Dimension (ANSI)
100
AcDbTrace
 10
7.396259401825073
 20
7.70892345138328
 30
0.0
 11
7.396259401825073
 21
7.626902455865708
 31
0.0
 12
7.150196415272358
 22
7.667912953624494
 32
0.0
 13
7.150196415272358
 23
7.667912953624494
 33
0.0
  0
SOLID
  5
725
330
641
100
AcDbEntity
  8
Dimension (ANSI)
100
AcDbTrace
 10
7.904133428719642
 20
7.70892345138328
 30
0.0
 11
7.904133428719642
 21
7.626902455865708
 31
0.0
 12
8.150196415272358
 22
7.667912953624494
 32
0.0
 13
8.150196415272358
 23
7.667912953624494
 33
0.0
  0
MTEXT
  5
726
330
641
100
AcDbEntity
  8
Dimension (ANSI)
100
AcDbMText
 10
8.660567566730488
 20
7.82405802363035
 30
0.0
 40
0.3000000119209289
 41
0.0
 71
     1
 72
     1
  1
\A1;1.000
  7
Note Text (ANSI)
 73
     1
 44
1.0
1001
ACAD
1000
MTEXTBEGIN
1070
    73
1070
     1
1070
    44
1040
1.0
1070
    74
1070
     0
1000
MTEXTEND
  0
POINT
  5
727
330
641
100
AcDbEntity
  8
Defpoints
 62
     0
100
AcDbPoint
 10
7.150196415272358
 20
8.879786969372526
 30
0.0
  0
POINT
  5
728
330
641
100
AcDbEntity
  8
Defpoints
 62
     0
100
AcDbPoint
 10
8.150196415272358
 20
8.863786969372524
 30
0.0
  0
POINT
  5
729
330
641
100
AcDbEntity
  8
Defpoints
 62
     0
100
AcDbPoint
 10
8.150196415272358
 20
7.667912953624494
 30
0.0
  0
ENDBLK
  5
643
330
641
100
AcDbEntity
  8
0
100
AcDbBlockEnd
  0
BLOCK
  5
72C
330
72B
100
AcDbEntity
  8
0
100
AcDbBlockBegin
  2
*D10
 70
     1
 10
0.0
 20
0.0
 30
0.0
  3
*D10
  1

  0
LINE
  5
7C7
330
72B
100
AcDbEntity
  8
Dimension (ANSI)
100
AcDbLine
 10
10.51606021806635
 20
8.354855674011949
 30
0.0
 11
8.508615737163585
 21
8.892748801520074
 31
0.0
  0
MTEXT
  5
7C8
102
{ACAD_XDICTIONARY
360
8BC
102
}
330
72B
100
AcDbEntity
  8
Dimension (ANSI)
100
AcDbMText
 10
10.59480037554667
 20
8.577734572503461
 30
0.0
 40
0.3000000119209289
 41
0.0
 71
     1
 72
     1
  1
\A1;\U+22050.250{\PGROUND\PHOLE}
  7
Note Text (ANSI)
 73
     1
 44
1.0
1001
ACAD
1000
MTEXTBEGIN
1070
    73
1070
     1
1070
    44
1040
1.0
1070
    74
1070
     0
1000
MTEXTEND
  0
SOLID
  5
7C9
330
72B
100
AcDbEntity
  8
Dimension (ANSI)
100
AcDbTrace
 10
8.519230035032691
 20
8.932361900454255
 30
0.0
 11
8.49800143929448
 21
8.853135702585893
 31
0.0
 12
8.270937143558494
 22
8.956434588734712
 32
0.0
 13
8.270937143558494
 23
8.956434588734712
 33
0.0
  0
LINE
  5
7CA
330
72B
100
AcDbEntity
  8
Dimension (ANSI)
100
AcDbLine
 10
7.92519641527236
 20
8.988786969372526
 30
0.0
 11
8.375196415272359
 21
8.988786969372526
 31
0.0
  0
LINE
  5
7CB
330
72B
100
AcDbEntity
  8
Dimension (ANSI)
100
AcDbLine
 10
8.150196415272359
 20
8.763786969372524
 30
0.0
 11
8.150196415272359
 21
9.213786969372524
 31
0.0
  0
POINT
  5
7CC
330
72B
100
AcDbEntity
  8
Defpoints
 62
     0
100
AcDbPoint
 10
8.270937143558494
 20
8.956434588734712
 30
0.0
  0
POINT
  5
7CD
330
72B
100
AcDbEntity
  8
Defpoints
 62
     0
100
AcDbPoint
 10
8.029455686986223
 20
9.021139350010333
 30
0.0
  0
ENDBLK
  5
72D
330
72B
100
AcDbEntity
  8
0
100
AcDbBlockEnd
  0
BLOCK
  5
7D0
330
7CF
100
AcDbEntity
  8
0
100
AcDbBlockBegin
  2
*D11
 70
     1
 10
0.0
 20
0.0
 30
0.0
  3
*D11
  1

  0
LINE
  5
86B
330
7CF
100
AcDbEntity
  8
Dimension (ANSI)
100
AcDbLine
 10
20.41685982415485
 20
9.72304484686289
 30
0.0
 11
20.16995429276299
 21
9.723044846862888
 31
0.0
  0
LINE
  5
86C
330
7CF
100
AcDbEntity
  8
Dimension (ANSI)
100
AcDbLine
 10
20.16995429276299
 20
9.723044846862888
 30
0.0
 11
19.68676386081218
 21
9.239854414912258
 31
0.0
  0
MTEXT
  5
86D
330
7CF
100
AcDbEntity
  8
Dimension (ANSI)
100
AcDbMText
 10
20.49559998163516
 20
9.957978816350554
 30
0.0
 40
0.3000000119209289
 41
0.0
 71
     1
 72
     1
  1
\A1; 0.218 X 0.281\POBROUND\PTYP. (4 PL.)
  7
Note Text (ANSI)
 73
     1
 44
1.0
1001
ACAD
1000
MTEXTBEGIN
1070
    73
1070
     1
1070
    44
1040
1.0
1070
    74
1070
     0
1000
MTEXTEND
  0
SOLID
  5
86E
330
7CF
100
AcDbEntity
  8
Dimension (ANSI)
100
AcDbTrace
 10
19.65776505974712
 20
9.268853215977337
 30
0.0
 11
19.71576266187725
 21
9.210855613847179
 31
0.0
 12
19.51277105442171
 22
9.065861608521851
 32
0.0
 13
19.51277105442171
 23
9.065861608521851
 33
0.0
  0
POINT
  5
86F
330
7CF
100
AcDbEntity
  8
Defpoints
 62
     0
100
AcDbPoint
 10
19.51277105442171
 20
9.065861608521851
 30
0.0
  0
POINT
  5
870
330
7CF
100
AcDbEntity
  8
Defpoints
 62
     0
100
AcDbPoint
 10
19.43569641527236
 20
8.988786969372528
 30
0.0
  0
ENDBLK
  5
7D1
330
7CF
100
AcDbEntity
  8
0
100
AcDbBlockEnd
  0
ENDSEC
  0
SECTION
  2
ENTITIES
  0
MTEXT
  5
11D
330
6C
100
AcDbEntity
  8
Symbol (ANSI)
100
AcDbMText
 10
31.96246163371326
 20
6.032993201005806
 30
0.0
 40
0.3000000037076905
 41
11.46678946830359
 71
     1
 72
     1
  1
{\fRomanS|b0|i0;\H0.3000;PART#: P1614AL\P(DATA SUBJECT TO CHANGE WITHOUT \PNOTICE)\PTHIS DRAWING AND COMPONENTS OF ARE\PPROPERTY OF HUBBELL INC. WIEGMANN\P}
  7
Note Text (ANSI)
 73
     2
 44
0.875123381614685
1001
ACAD
1000
MTEXTBEGIN
1070
    73
1070
     2
1070
    44
1040
0.875123381614685
1070
    74
1070
     0
1000
MTEXTEND
  0
CIRCLE
  5
120
330
6C
100
AcDbEntity
  8
Visible (ANSI)
100
AcDbCircle
 10
8.150196415272359
 20
8.988786969372522
 30
0.0
 40
0.125
  0
LINE
  5
121
330
6C
100
AcDbEntity
  8
Visible (ANSI)
100
AcDbLine
 10
7.118696415272357
 20
9.097786969372522
 30
0.0
 11
7.181696415272359
 21
9.097786969372522
 31
0.0
  0
ARC
  5
122
330
6C
100
AcDbEntity
  8
Visible (ANSI)
100
AcDbCircle
 10
7.118696415272357
 20
8.988786969372524
 30
0.0
 40
0.109
100
AcDbArc
 50
90.0
 51
270.0
  0
LINE
  5
123
330
6C
100
AcDbEntity
  8
Visible (ANSI)
100
AcDbLine
 10
7.181696415272359
 20
8.879786969372524
 30
0.0
 11
7.118696415272357
 21
8.879786969372524
 31
0.0
  0
ARC
  5
124
330
6C
100
AcDbEntity
  8
Visible (ANSI)
100
AcDbCircle
 10
7.181696415272359
 20
8.988786969372524
 30
0.0
 40
0.1090000000000001
100
AcDbArc
 50
270.0
 51
90.0
  0
LINE
  5
125
330
6C
100
AcDbEntity
  8
Visible (ANSI)
100
AcDbLine
 10
19.37269641527235
 20
23.35178696937253
 30
0.0
 11
19.43569641527236
 21
23.35178696937253
 31
0.0
  0
ARC
  5
126
330
6C
100
AcDbEntity
  8
Visible (ANSI)
100
AcDbCircle
 10
19.37269641527235
 20
23.24278696937253
 30
0.0
 40
0.1089999999999997
100
AcDbArc
 50
90.0
 51
270.0
  0
LINE
  5
127
330
6C
100
AcDbEntity
  8
Visible (ANSI)
100
AcDbLine
 10
19.43569641527236
 20
23.13378696937252
 30
0.0
 11
19.37269641527235
 21
23.13378696937252
 31
0.0
  0
ARC
  5
128
330
6C
100
AcDbEntity
  8
Visible (ANSI)
100
AcDbCircle
 10
19.43569641527236
 20
23.24278696937253
 30
0.0
 40
0.1089999999999997
100
AcDbArc
 50
270.0
 51
90.0
  0
LINE
  5
129
330
6C
100
AcDbEntity
  8
Visible (ANSI)
100
AcDbLine
 10
19.37269641527236
 20
9.097786969372526
 30
0.0
 11
19.43569641527236
 21
9.097786969372526
 31
0.0
  0
ARC
  5
12A
330
6C
100
AcDbEntity
  8
Visible (ANSI)
100
AcDbCircle
 10
19.37269641527236
 20
8.988786969372526
 30
0.0
 40
0.109
100
AcDbArc
 50
90.0
 51
270.0
  0
LINE
  5
12B
330
6C
100
AcDbEntity
  8
Visible (ANSI)
100
AcDbLine
 10
19.43569641527236
 20
8.879786969372528
 30
0.0
 11
19.37269641527236
 21
8.879786969372528
 31
0.0
  0
ARC
  5
12C
330
6C
100
AcDbEntity
  8
Visible (ANSI)
100
AcDbCircle
 10
19.43569641527236
 20
8.988786969372526
 30
0.0
 40
0.109
100
AcDbArc
 50
270.0
 51
90.0
  0
LINE
  5
12D
330
6C
100
AcDbEntity
  8
Visible (ANSI)
100
AcDbLine
 10
7.118696415272353
 20
23.35178696937252
 30
0.0
 11
7.181696415272354
 21
23.35178696937252
 31
0.0
  0
ARC
  5
12E
330
6C
100
AcDbEntity
  8
Visible (ANSI)
100
AcDbCircle
 10
7.118696415272353
 20
23.24278696937252
 30
0.0
 40
0.1089999999999997
100
AcDbArc
 50
90.0
 51
270.0
  0
LINE
  5
12F
330
6C
100
AcDbEntity
  8
Visible (ANSI)
100
AcDbLine
 10
7.181696415272354
 20
23.13378696937252
 30
0.0
 11
7.118696415272353
 21
23.13378696937252
 31
0.0
  0
ARC
  5
130
330
6C
100
AcDbEntity
  8
Visible (ANSI)
100
AcDbCircle
 10
7.181696415272354
 20
23.24278696937252
 30
0.0
 40
0.1089999999999997
100
AcDbArc
 50
270.0
 51
90.0
  0
LINE
  5
131
330
6C
100
AcDbEntity
  8
Visible (ANSI)
100
AcDbLine
 10
6.837196415272358
 20
8.675786969372524
 30
0.0
 11
6.837196415272353
 21
23.55578696937252
 31
0.0
  0
LINE
  5
132
330
6C
100
AcDbEntity
  8
Visible (ANSI)
100
AcDbLine
 10
6.837196415272353
 20
23.55578696937252
 30
0.0
 11
19.71719641527235
 21
23.55578696937253
 31
0.0
  0
LINE
  5
133
330
6C
100
AcDbEntity
  8
Visible (ANSI)
100
AcDbLine
 10
19.71719641527235
 20
23.55578696937253
 30
0.0
 11
19.71719641527236
 21
8.675786969372524
 31
0.0
  0
LINE
  5
134
330
6C
100
AcDbEntity
  8
Visible (ANSI)
100
AcDbLine
 10
19.71719641527236
 20
8.675786969372524
 30
0.0
 11
6.837196415272358
 21
8.675786969372524
 31
0.0
  0
MTEXT
  5
136
330
6C
100
AcDbEntity
  8
Symbol (ANSI)
100
AcDbMText
 10
11.98091223761694
 20
5.617072358704403
 30
0.0
 40
0.3000000037076905
 41
0.0
 71
     7
 72
     1
  1
FRONT VIEW
  7
Text Style150
 73
     1
 44
1.0
1001
ACAD
1000
MTEXTBEGIN
1070
    73
1070
     1
1070
    44
1040
1.0
1070
    74
1070
     0
1000
MTEXTEND
  0
LINE
  5
137
330
6C
100
AcDbEntity
  8
Symbol (ANSI)
370
    30
100
AcDbLine
 10
11.95091216044597
 20
5.555893265267178
 30
0.0
 11
14.36282467116016
 21
5.555893265267178
 31
0.0
  0
MTEXT
  5
138
330
6C
100
AcDbEntity
  8
Symbol (ANSI)
100
AcDbMText
 10
13.06023146682801
 20
4.940364340509842
 30
0.0
 40
0.4499999908950385
 41
0.0
 71
     7
 72
     1
  1
 
  7
Label Text (ANSI)
 73
     1
 44
1.0
1001
ACAD
1000
MTEXTBEGIN
1070
    73
1070
     1
1070
    44
1040
1.0
1070
    74
1070
     0
1000
MTEXTEND
  0
LINE
  5
139
330
6C
100
AcDbEntity
  8
Hidden (ANSI)
 48
0.0608502924442291
100
AcDbLine
 10
26.43537728679709
 20
23.35178696937253
 30
0.0
 11
26.51537728679709
 21
23.35178696937253
 31
0.0
  0
LINE
  5
13A
330
6C
100
AcDbEntity
  8
Hidden (ANSI)
 48
0.0608502924442291
100
AcDbLine
 10
26.43537728679709
 20
23.13378696937252
 30
0.0
 11
26.51537728679709
 21
23.13378696937252
 31
0.0
  0
LINE
  5
13B
330
6C
100
AcDbEntity
  8
Hidden (ANSI)
 48
0.0608502924442291
100
AcDbLine
 10
26.43537728679709
 20
9.097786969372526
 30
0.0
 11
26.51537728679709
 21
9.097786969372526
 31
0.0
  0
LINE
  5
13C
330
6C
100
AcDbEntity
  8
Hidden (ANSI)
 48
0.0608502924442291
100
AcDbLine
 10
26.43537728679709
 20
8.879786969372528
 30
0.0
 11
26.51537728679709
 21
8.879786969372528
 31
0.0
  0
LINE
  5
13D
330
6C
100
AcDbEntity
  8
Visible (ANSI)
100
AcDbLine
 10
26.51537728679717
 20
23.55578696937253
 30
0.0
 11
26.43537728679718
 21
23.55578696937253
 31
0.0
  0
LINE
  5
13E
330
6C
100
AcDbEntity
  8
Visible (ANSI)
100
AcDbLine
 10
26.43537728679718
 20
23.55578696937253
 30
0.0
 11
26.43537728679718
 21
8.675786969372524
 31
0.0
  0
LINE
  5
13F
330
6C
100
AcDbEntity
  8
Visible (ANSI)
100
AcDbLine
 10
26.51537728679717
 20
8.675786969372524
 30
0.0
 11
26.43537728679718
 21
8.675786969372524
 31
0.0
  0
LINE
  5
140
330
6C
100
AcDbEntity
  8
Visible (ANSI)
100
AcDbLine
 10
26.51537728679717
 20
8.675786969372524
 30
0.0
 11
26.51537728679717
 21
23.55578696937253
 31
0.0
  0
LINE
  5
141
330
6C
100
AcDbEntity
  8
Hidden (ANSI)
 48
0.0608502924442291
100
AcDbLine
 10
26.51537728679374
 20
8.863786969372522
 30
0.0
 11
26.43537728679374
 21
8.863786969372522
 31
0.0
  0
LINE
  5
142
330
6C
100
AcDbEntity
  8
Hidden (ANSI)
 48
0.0608502924442291
100
AcDbLine
 10
26.51537728679374
 20
9.113786969372522
 30
0.0
 11
26.43537728679374
 21
9.113786969372522
 31
0.0
  0
MTEXT
  5
143
330
6C
100
AcDbEntity
  8
Symbol (ANSI)
100
AcDbMText
 10
25.28159951224025
 20
5.819002350744357
 30
0.0
 40
0.3000000037076905
 41
0.0
 71
     7
 72
     1
  1
RIGHT VIEW
  7
Text Style150
 73
     1
 44
1.0
1001
ACAD
1000
MTEXTBEGIN
1070
    73
1070
     1
1070
    44
1040
1.0
1070
    74
1070
     0
1000
MTEXTEND
  0
LINE
  5
144
330
6C
100
AcDbEntity
  8
Symbol (ANSI)
370
    30
100
AcDbLine
 10
25.25159943506928
 20
5.757337033590697
 30
0.0
 11
27.58887660531063
 21
5.757337033590697
 31
0.0
  0
MTEXT
  5
145
330
6C
100
AcDbEntity
  8
Symbol (ANSI)
100
AcDbMText
 10
26.32360107121491
 20
5.14180810883336
 30
0.0
 40
0.4499999908950385
 41
0.0
 71
     7
 72
     1
  1
 
  7
Label Text (ANSI)
 73
     1
 44
1.0
1001
ACAD
1000
MTEXTBEGIN
1070
    73
1070
     1
1070
    44
1040
1.0
1070
    74
1070
     0
1000
MTEXTEND
  0
DIMENSION
  5
146
330
6C
100
AcDbEntity
  8
Dimension (ANSI)
100
AcDbDimension
  2
*D4
 10
26.43537728679717
 20
20.43431715309956
 30
0.0
 11
27.72364830260102
 21
20.43431715309956
 31
0.0
 70
   160
  1
<>
 42
0.0800000000000019
  3
Default (ANSI)
100
AcDbAlignedDimension
 13
26.51537728679717
 23
8.675786969372524
 33
0.0
 14
26.43537728679717
 24
8.675786969372524
 34
0.0
100
AcDbRotatedDimension
1001
ACAD
1000
DSTYLE
1002
{
1070
   289
1070
     1
1070
    73
1070
     0
1070
    74
1070
     0
1070
   271
1070
     3
1070
    76
1070
     1
1070
    75
1070
     1
1070
   272
1070
     2
1070
    48
1040
0.0
1070
    47
1040
0.0
1002
}
  0
ELLIPSE
  5
227
330
6C
100
AcDbEntity
  8
Visible (ANSI)
100
AcDbEllipse
 10
32.50051770462834
 20
13.93135917661721
 30
0.0
 11
0.0545816481420499
 21
-0.0947825633283752
 31
0.0
210
0.0
220
0.0
230
1.0
 40
0.5780931159158105
 41
3.610235390314629
 42
5.814542570453997
  0
ELLIPSE
  5
228
330
6C
100
AcDbEntity
  8
Visible (ANSI)
100
AcDbEllipse
 10
32.45102022994529
 20
13.90285547665174
 30
0.0
 11
-0.0545816481420443
 21
0.0947825633283785
 31
0.0
210
0.0
220
0.0
230
1.0
 40
0.5780931159158105
 41
0.0
 42
6.283185307179586
  0
LINE
  5
229
330
6C
100
AcDbEntity
  8
Visible (ANSI)
100
AcDbLine
 10
31.81281216575051
 20
14.34834861511323
 30
0.0
 11
31.85179142706342
 21
14.32590195139044
 31
0.0
  0
ELLIPSE
  5
22A
330
6C
100
AcDbEntity
  8
Visible (ANSI)
100
AcDbEllipse
 10
31.86230964043356
 20
14.29887875804684
 30
0.0
 11
0.0475951971798676
 21
-0.0826503952223433
 31
0.0
210
0.0
220
0.0
230
1.0
 40
0.5780931159158106
 41
3.68607669004244
 42
5.499720852204642
  0
ELLIPSE
  5
22B
330
6C
100
AcDbEntity
  8
Visible (ANSI)
100
AcDbEllipse
 10
31.81281216575051
 20
14.27037505808138
 30
0.0
 11
-0.0475951971798577
 21
0.082650395222349
 31
0.0
210
0.0
220
0.0
230
0.9999999999999998
 40
0.5780931159158106
 41
5.499720852205299
 42
8.641313505795093
  0
LINE
  5
22C
330
6C
100
AcDbEntity
  8
Visible Narrow (ANSI)
100
AcDbLine
 10
31.81281216575051
 20
14.19240150104952
 30
0.0
 11
31.86230964043356
 21
14.22090520101499
 31
0.0
  0
LINE
  5
22D
330
6C
100
AcDbEntity
  8
Visible (ANSI)
100
AcDbLine
 10
31.86230964043356
 20
14.22090520101499
 30
0.0
 11
31.90128890174647
 21
14.19845853729219
 31
0.0
  0
LINE
  5
22E
330
6C
100
AcDbEntity
  8
Visible (ANSI)
100
AcDbLine
 10
31.85179142706342
 20
14.16995483732672
 30
0.0
 11
31.81281216575051
 21
14.19240150104952
 31
0.0
  0
LINE
  5
22F
330
6C
100
AcDbEntity
  8
Visible Narrow (ANSI)
100
AcDbLine
 10
31.85179142706342
 20
14.16995483732672
 30
0.0
 11
31.90128890174647
 21
14.19845853729219
 31
0.0
  0
ELLIPSE
  5
230
330
6C
100
AcDbEntity
  8
Visible (ANSI)
100
AcDbEllipse
 10
31.90128890174647
 20
14.27643209432404
 30
0.0
 11
0.0475951971798621
 21
-0.0826503952223451
 31
0.0
210
0.0
220
0.0
230
1.0
 40
0.5780931159158106
 41
5.499720852205022
 42
5.738701270726556
  0
ELLIPSE
  5
231
330
6C
100
AcDbEntity
  8
Visible (ANSI)
100
AcDbEllipse
 10
31.85179142706342
 20
14.24792839435858
 30
0.0
 11
0.0475951971798577
 21
-0.082650395222349
 31
0.0
210
0.0
220
0.0
230
0.9999999999999998
 40
0.5780931159158104
 41
5.499720852205299
 42
8.641313505795093
  0
LINE
  5
232
330
6C
100
AcDbEntity
  8
Visible (ANSI)
100
AcDbLine
 10
39.39458785032909
 20
20.1789465007214
 30
0.0
 11
39.433567111642
 21
20.1564998369986
 31
0.0
  0
ELLIPSE
  5
233
330
6C
100
AcDbEntity
  8
Visible (ANSI)
100
AcDbEllipse
 10
39.44408532501214
 20
20.12947664365501
 30
0.0
 11
0.0475951971798678
 21
-0.0826503952223437
 31
0.0
210
0.0
220
0.0
230
1.0
 40
0.5780931159158105
 41
3.68607669004244
 42
5.499720852204642
  0
ELLIPSE
  5
234
330
6C
100
AcDbEntity
  8
Visible (ANSI)
100
AcDbEllipse
 10
39.39458785032909
 20
20.10097294368955
 30
0.0
 11
-0.0475951971798575
 21
0.0826503952223487
 31
0.0
210
0.0
220
0.0
230
0.9999999999999998
 40
0.5780931159158105
 41
5.499720852205299
 42
8.641313505795093
  0
LINE
  5
235
330
6C
100
AcDbEntity
  8
Visible Narrow (ANSI)
100
AcDbLine
 10
39.39458785032909
 20
20.02299938665768
 30
0.0
 11
39.44408532501214
 21
20.05150308662315
 31
0.0
  0
LINE
  5
236
330
6C
100
AcDbEntity
  8
Visible (ANSI)
100
AcDbLine
 10
39.44408532501214
 20
20.05150308662315
 30
0.0
 11
39.48306458632506
 21
20.02905642290036
 31
0.0
  0
LINE
  5
237
330
6C
100
AcDbEntity
  8
Visible (ANSI)
100
AcDbLine
 10
39.433567111642
 20
20.00055272293489
 30
0.0
 11
39.39458785032909
 21
20.02299938665768
 31
0.0
  0
LINE
  5
238
330
6C
100
AcDbEntity
  8
Visible Narrow (ANSI)
100
AcDbLine
 10
39.433567111642
 20
20.00055272293489
 30
0.0
 11
39.48306458632506
 21
20.02905642290036
 31
0.0
  0
ELLIPSE
  5
239
330
6C
100
AcDbEntity
  8
Visible (ANSI)
100
AcDbEllipse
 10
39.48306458632505
 20
20.10702997993233
 30
0.0
 11
0.0475951971799345
 21
-0.082650395222471
 31
0.0
210
0.0
220
0.0
230
1.0
 40
0.5780931159158106
 41
5.499720852205126
 42
5.738701270726411
  0
ELLIPSE
  5
23A
330
6C
100
AcDbEntity
  8
Visible (ANSI)
100
AcDbEllipse
 10
39.433567111642
 20
20.07852627996674
 30
0.0
 11
0.0475951971798575
 21
-0.0826503952223487
 31
0.0
210
0.0
220
0.0
230
0.9999999999999998
 40
0.5780931159158105
 41
5.499720852205299
 42
8.641313505795093
  0
LINE
  5
23B
330
6C
100
AcDbEntity
  8
Visible (ANSI)
100
AcDbLine
 10
39.39458785032909
 20
9.98229437290403
 30
0.0
 11
39.43356711164201
 21
9.95984770918123
 31
0.0
  0
ELLIPSE
  5
23C
330
6C
100
AcDbEntity
  8
Visible (ANSI)
100
AcDbEllipse
 10
39.44408532501215
 20
9.932824515837642
 30
0.0
 11
0.0475951971798677
 21
-0.0826503952223434
 31
0.0
210
0.0
220
0.0
230
1.0
 40
0.5780931159158107
 41
3.68607669004244
 42
5.499720852204746
  0
ELLIPSE
  5
23D
330
6C
100
AcDbEntity
  8
Visible (ANSI)
100
AcDbEllipse
 10
39.39458785032909
 20
9.904320815872175
 30
0.0
 11
-0.0475951971798577
 21
0.082650395222349
 31
0.0
210
0.0
220
0.0
230
0.9999999999999998
 40
0.5780931159158106
 41
5.499720852205299
 42
8.641313505795093
  0
LINE
  5
23E
330
6C
100
AcDbEntity
  8
Visible Narrow (ANSI)
100
AcDbLine
 10
39.39458785032909
 20
9.826347258840316
 30
0.0
 11
39.44408532501215
 21
9.854850958805785
 31
0.0
  0
LINE
  5
23F
330
6C
100
AcDbEntity
  8
Visible (ANSI)
100
AcDbLine
 10
39.44408532501215
 20
9.854850958805785
 30
0.0
 11
39.48306458632506
 21
9.832404295082984
 31
0.0
  0
LINE
  5
240
330
6C
100
AcDbEntity
  8
Visible (ANSI)
100
AcDbLine
 10
39.43356711164201
 20
9.803900595117516
 30
0.0
 11
39.39458785032909
 21
9.826347258840316
 31
0.0
  0
LINE
  5
241
330
6C
100
AcDbEntity
  8
Visible Narrow (ANSI)
100
AcDbLine
 10
39.43356711164201
 20
9.803900595117516
 30
0.0
 11
39.48306458632506
 21
9.832404295082984
 31
0.0
  0
ELLIPSE
  5
242
330
6C
100
AcDbEntity
  8
Visible (ANSI)
100
AcDbEllipse
 10
39.48306458632506
 20
9.910377852114828
 30
0.0
 11
0.0475951971798558
 21
-0.0826503952223342
 31
0.0
210
0.0
220
0.0
230
1.0
 40
0.5780931159158106
 41
5.499720852205022
 42
5.738701270726593
  0
ELLIPSE
  5
243
330
6C
100
AcDbEntity
  8
Visible (ANSI)
100
AcDbEllipse
 10
39.43356711164201
 20
9.881874152149373
 30
0.0
 11
0.0475951971798577
 21
-0.082650395222349
 31
0.0
210
0.0
220
0.0
230
0.9999999999999998
 40
0.5780931159158106
 41
5.499720852205299
 42
8.641313505795093
  0
LINE
  5
244
330
6C
100
AcDbEntity
  8
Visible (ANSI)
100
AcDbLine
 10
31.81281216575051
 20
24.54500074293061
 30
0.0
 11
31.85179142706342
 21
24.52255407920781
 31
0.0
  0
ELLIPSE
  5
245
330
6C
100
AcDbEntity
  8
Visible (ANSI)
100
AcDbEllipse
 10
31.86230964043355
 20
24.49553088586422
 30
0.0
 11
0.0475951971798674
 21
-0.0826503952223429
 31
0.0
210
0.0
220
0.0
230
1.0
 40
0.5780931159158106
 41
3.68607669004244
 42
5.499720852204746
  0
ELLIPSE
  5
246
330
6C
100
AcDbEntity
  8
Visible (ANSI)
100
AcDbEllipse
 10
31.81281216575051
 20
24.46702718589875
 30
0.0
 11
-0.0475951971798575
 21
0.0826503952223487
 31
0.0
210
0.0
220
0.0
230
1.0
 40
0.5780931159158107
 41
5.499720852205299
 42
8.641313505795093
  0
LINE
  5
247
330
6C
100
AcDbEntity
  8
Visible Narrow (ANSI)
100
AcDbLine
 10
31.81281216575051
 20
24.38905362886689
 30
0.0
 11
31.86230964043355
 21
24.41755732883236
 31
0.0
  0
LINE
  5
248
330
6C
100
AcDbEntity
  8
Visible (ANSI)
100
AcDbLine
 10
31.86230964043355
 20
24.41755732883236
 30
0.0
 11
31.90128890174647
 21
24.39511066510956
 31
0.0
  0
LINE
  5
249
330
6C
100
AcDbEntity
  8
Visible (ANSI)
100
AcDbLine
 10
31.85179142706342
 20
24.36660696514409
 30
0.0
 11
31.81281216575051
 21
24.38905362886689
 31
0.0
  0
LINE
  5
24A
330
6C
100
AcDbEntity
  8
Visible Narrow (ANSI)
100
AcDbLine
 10
31.85179142706342
 20
24.36660696514409
 30
0.0
 11
31.90128890174647
 21
24.39511066510956
 31
0.0
  0
ELLIPSE
  5
24B
330
6C
100
AcDbEntity
  8
Visible (ANSI)
100
AcDbEllipse
 10
31.90128890174646
 20
24.47308422214155
 30
0.0
 11
0.0475951971799382
 21
-0.0826503952224773
 31
0.0
210
0.0
220
0.0
230
1.0
 40
0.5780931159158105
 41
5.499720852205126
 42
5.738701270726276
  0
ELLIPSE
  5
24C
330
6C
100
AcDbEntity
  8
Visible (ANSI)
100
AcDbEllipse
 10
31.85179142706342
 20
24.44458052217595
 30
0.0
 11
0.0475951971798575
 21
-0.0826503952223487
 31
0.0
210
0.0
220
0.0
230
0.9999999999999998
 40
0.5780931159158105
 41
5.499720852205299
 42
8.641313505795093
  0
LINE
  5
24D
330
6C
100
AcDbEntity
  8
Visible (ANSI)
100
AcDbLine
 10
31.63864292670947
 20
14.14676673351858
 30
0.0
 11
31.63864292670947
 21
24.79123029896846
 31
0.0
  0
LINE
  5
24E
330
6C
100
AcDbEntity
  8
Visible (ANSI)
100
AcDbLine
 10
31.68814040139253
 20
24.81973399893393
 30
0.0
 11
31.63864292670947
 21
24.79123029896846
 31
0.0
  0
LINE
  5
24F
330
6C
100
AcDbEntity
  8
Visible (ANSI)
100
AcDbLine
 10
31.63864292670947
 20
24.79123029896846
 30
0.0
 11
39.60773635068304
 21
20.20213460452954
 31
0.0
  0
LINE
  5
250
330
6C
100
AcDbEntity
  8
Visible (ANSI)
100
AcDbLine
 10
39.65723382536609
 20
20.230638304495
 30
0.0
 11
39.60773635068304
 21
20.20213460452954
 31
0.0
  0
LINE
  5
251
330
6C
100
AcDbEntity
  8
Visible (ANSI)
100
AcDbLine
 10
39.65723382536609
 20
20.230638304495
 30
0.0
 11
31.68814040139253
 21
24.81973399893393
 31
0.0
  0
LINE
  5
252
330
6C
100
AcDbEntity
  8
Visible (ANSI)
100
AcDbLine
 10
39.60773635068304
 20
20.20213460452954
 30
0.0
 11
39.60773635068305
 21
9.557671039079663
 31
0.0
  0
LINE
  5
253
330
6C
100
AcDbEntity
  8
Visible (ANSI)
100
AcDbLine
 10
39.6572338253661
 20
9.586174739045128
 30
0.0
 11
39.60773635068305
 21
9.557671039079663
 31
0.0
  0
LINE
  5
254
330
6C
100
AcDbEntity
  8
Visible (ANSI)
100
AcDbLine
 10
39.6572338253661
 20
9.586174739045128
 30
0.0
 11
39.65723382536609
 21
20.230638304495
 31
0.0
  0
LINE
  5
255
330
6C
100
AcDbEntity
  8
Visible (ANSI)
100
AcDbLine
 10
39.60773635068305
 20
9.557671039079663
 30
0.0
 11
31.63864292670947
 21
14.14676673351858
 31
0.0
  0
DIMENSION
  5
256
330
6C
100
AcDbEntity
  8
Dimension (ANSI)
100
AcDbDimension
  2
*D5
 10
6.837196415272358
 20
6.919790651128002
 30
0.0
 11
13.07906097602883
 21
6.919790651128002
 31
0.0
 70
   160
  1
<>
 42
12.88
  3
Default (ANSI)
100
AcDbAlignedDimension
 13
19.71719641527236
 23
8.675786969372524
 33
0.0
 14
6.837196415272358
 24
8.675786969372524
 34
0.0
 50
180.0
100
AcDbRotatedDimension
1001
ACAD
1000
DSTYLE
1002
{
1070
   289
1070
     1
1070
    73
1070
     0
1070
    74
1070
     0
1070
   271
1070
     3
1070
   272
1070
     2
1070
    48
1040
0.0
1070
    47
1040
0.0
1002
}
  0
DIMENSION
  5
340
330
6C
100
AcDbEntity
  8
Dimension (ANSI)
100
AcDbDimension
  2
*D6
 10
4.451406284824159
 20
23.55578696937253
 30
0.0
 11
4.451406284824154
 21
16.25440395766994
 31
0.0
 70
   160
  1
<>
 42
14.88
  3
Default (ANSI)
100
AcDbAlignedDimension
 13
6.837196415272358
 23
8.675786969372524
 33
0.0
 14
6.837196415272353
 24
23.55578696937253
 34
0.0
 50
90.0
100
AcDbRotatedDimension
1001
ACAD
1000
DSTYLE
1002
{
1070
   289
1070
     1
1070
   271
1070
     3
1070
   272
1070
     2
1070
    48
1040
0.0
1070
    47
1040
0.0
1002
}
  0
DIMENSION
  5
42A
330
6C
100
AcDbEntity
  8
Dimension (ANSI)
100
AcDbDimension
  2
*D7
 10
6.123104511964534
 20
8.988786969372526
 30
0.0
 11
6.102492735807707
 21
10.01325475142712
 31
0.0
 70
   160
  1
<>{\PTYP.}
 42
0.3130000000000024
  3
Default (ANSI)
100
AcDbAlignedDimension
 13
6.837196415272358
 23
8.675786969372524
 33
0.0
 14
7.009696415272357
 24
8.988786969372526
 34
0.0
 50
90.0
100
AcDbRotatedDimension
1001
ACAD
1000
DSTYLE
1002
{
1070
   289
1070
     1
1070
   279
1070
     1
1070
   145
1040
-0.25
1070
   271
1070
     3
1070
   272
1070
     2
1070
    48
1040
0.0
1070
    47
1040
0.0
1002
}
  0
DIMENSION
  5
542
330
6C
100
AcDbEntity
  8
Dimension (ANSI)
100
AcDbDimension
  2
*D8
 10
7.150196415272358
 20
7.667912953624493
 30
0.0
 11
5.339884609740126
 21
7.667912953624493
 31
0.0
 70
   160
  1
<>{\PTYP.}
 42
0.3129999999999997
  3
Default (ANSI)
100
AcDbAlignedDimension
 13
6.837196415272358
 23
8.675786969372524
 33
0.0
 14
7.150196415272358
 24
8.879786969372526
 34
0.0
100
AcDbRotatedDimension
1001
ACAD
1000
DSTYLE
1002
{
1070
   289
1070
     1
1070
    73
1070
     0
1070
    74
1070
     0
1070
   145
1040
-0.25
1070
   271
1070
     3
1070
   272
1070
     2
1070
    48
1040
0.0
1070
    47
1040
0.0
1002
}
  0
DIMENSION
  5
640
330
6C
100
AcDbEntity
  8
Dimension (ANSI)
100
AcDbDimension
  2
*D9
 10
8.150196415272358
 20
7.667912953624494
 30
0.0
 11
9.142401031142108
 21
7.667912953624494
 31
0.0
 70
   160
  1
<>
  3
Default (ANSI)
100
AcDbAlignedDimension
 13
7.150196415272358
 23
8.879786969372526
 33
0.0
 14
8.150196415272358
 24
8.863786969372524
 34
0.0
 50
180.0
100
AcDbRotatedDimension
1001
ACAD
1000
DSTYLE
1002
{
1070
   289
1070
     2
1070
    73
1070
     0
1070
    74
1070
     0
1070
   271
1070
     3
1070
   272
1070
     2
1070
    48
1040
0.0
1070
    47
1040
0.0
1002
}
  0
DIMENSION
  5
72A
330
6C
100
AcDbEntity
  8
Dimension (ANSI)
100
AcDbDimension
  2
*D10
 10
8.029455686986223
 20
9.021139350010333
 30
0.0
 11
10.51606021806635
 21
8.354855674011949
 31
0.0
 70
   163
  1
<>{\PGROUND\PHOLE}
 42
0.25
  3
Default (ANSI)
100
AcDbDiametricDimension
 15
8.270937143558494
 25
8.956434588734712
 35
0.0
 40
0.0
1001
ACAD_DSTYLE_DIMRADIAL_EXTENSION
1070
   387
1070
     1
1070
   388
1040
0.0
1070
   390
1040
0.0
1001
ACAD
1000
DSTYLE
1002
{
1070
   145
1040
-0.3333333333333334
1070
   144
1040
0.9999999999999893
1070
   271
1070
     3
1070
   272
1070
     2
1070
    48
1040
0.0
1070
    47
1040
0.0
1002
}
  0
DIMENSION
  5
7CE
330
6C
100
AcDbEntity
  8
Dimension (ANSI)
100
AcDbDimension
  2
*D11
 10
19.43569641527236
 20
8.988786969372528
 30
0.0
 11
21.8179976164525
 21
9.723044846862888
 31
0.0
 70
   164
  1
 0.218 X 0.281\POBROUND\PTYP. (4 PL.)
 42
0.1090000000000053
  3
Default (ANSI)
100
AcDbRadialDimension
 15
19.51277105442171
 25
9.065861608521851
 35
0.0
 40
0.0
1001
ACAD_DSTYLE_DIMRADIAL_EXTENSION
1070
   387
1070
     1
1070
   388
1040
0.0
1070
   390
1040
0.0
1001
ACAD
1000
DSTYLE
1002
{
1070
   145
1040
-0.3333333333333334
1070
   271
1070
     3
1070
   141
1040
0.0
1070
   272
1070
     2
1070
    48
1040
0.0
1070
    47
1040
0.0
1002
}
  0
ENDSEC
  0
SECTION
  2
OBJECTS
  0
DICTIONARY
  5
C
330
0
100
AcDbDictionary
281
     1
  3
ACAD_CIP_PREVIOUS_PRODUCT_INFO
350
871
  3
ACAD_COLOR
350
63
  3
ACAD_GROUP
350
D
  3
ACAD_LAYOUT
350
62
  3
ACAD_MATERIAL
350
10
  3
ACAD_MLEADERSTYLE
350
66
  3
ACAD_MLINESTYLE
350
5F
  3
ACAD_PLOTSETTINGS
350
61
  3
ACAD_PLOTSTYLENAME
350
E
  3
ACAD_SCALELIST
350
42
  3
ACAD_TABLESTYLE
350
64
  3
ACAD_VISUALSTYLE
350
29
  3
ACDB_RECOMPOSE_DATA
350
87F
  3
AcDbVariableDictionary
350
76
  3
DWGPROPS
350
880
  0
DICTIONARY
  5
8BC
330
7C8
100
AcDbDictionary
280
     1
281
     1
  3
ACAD_MTEXT_RT
360
8BD
  0
XRECORD
  5
871
102
{ACAD_REACTORS
330
C
102
}
330
C
100
AcDbXrecord
280
     1
300
INVNTOR
300
2012
300
85795PDSP_2012_0F
  0
DICTIONARY
  5
63
102
{ACAD_REACTORS
330
C
102
}
330
C
100
AcDbDictionary
281
     1
  0
DICTIONARY
  5
D
102
{ACAD_REACTORS
330
C
102
}
330
C
100
AcDbDictionary
281
     1
  0
DICTIONARY
  5
62
102
{ACAD_REACTORS
330
C
102
}
330
C
100
AcDbDictionary
281
     1
  3
Layout1
350
6B
  3
Layout2
350
73
  3
Model
350
6F
  0
DICTIONARY
  5
10
102
{ACAD_REACTORS
330
C
102
}
330
C
100
AcDbDictionary
281
     1
  3
ByBlock
350
19
  3
ByLayer
350
11
  3
Global
350
21
  0
DICTIONARY
  5
66
102
{ACAD_REACTORS
330
C
102
}
330
C
100
AcDbDictionary
281
     1
  3
Standard
350
67
  0
DICTIONARY
  5
5F
102
{ACAD_REACTORS
330
C
102
}
330
C
100
AcDbDictionary
281
     1
  3
Standard
350
60
  0
DICTIONARY
  5
61
102
{ACAD_REACTORS
330
C
102
}
330
C
100
AcDbDictionary
281
     1
  0
ACDBDICTIONARYWDFLT
  5
E
102
{ACAD_REACTORS
330
C
102
}
330
C
100
AcDbDictionary
281
     1
  3
Normal
350
F
100
AcDbDictionaryWithDefault
340
F
  0
DICTIONARY
  5
42
102
{ACAD_REACTORS
330
C
102
}
330
C
100
AcDbDictionary
281
     1
  3
A0
350
43
  3
A1
350
44
  3
A2
350
45
  3
A3
350
46
  3
A4
350
47
  3
A5
350
48
  3
A6
350
49
  3
A7
350
4A
  3
A8
350
4B
  3
A9
350
4C
  3
B0
350
4D
  3
B1
350
4E
  3
B2
350
4F
  3
B3
350
50
  3
B4
350
51
  3
B5
350
52
  3
B6
350
53
  0
DICTIONARY
  5
64
102
{ACAD_REACTORS
330
C
102
}
330
C
100
AcDbDictionary
281
     1
  3
Standard
350
65
  0
DICTIONARY
  5
29
102
{ACAD_REACTORS
330
C
102
}
330
C
100
AcDbDictionary
281
     1
  3
2dWireframe
350
2F
  3
Basic
350
2E
  3
Brighten
350
35
  3
ColorChange
350
39
  3
Conceptual
350
32
  3
Dim
350
34
  3
EdgeColorOff
350
41
  3
Facepattern
350
38
  3
Flat
350
2A
  3
FlatWithEdges
350
2B
  3
Gouraud
350
2C
  3
GouraudWithEdges
350
2D
  3
Hidden
350
31
  3
JitterOff
350
3F
  3
Linepattern
350
37
  3
OverhangOff
350
40
  3
Realistic
350
33
  3
Shaded
350
3E
  3
Shaded with edges
350
3D
  3
Shades of Gray
350
3A
  3
Sketchy
350
3B
  3
Thicken
350
36
  3
Wireframe
350
30
  3
X-Ray
350
3C
  0
XRECORD
  5
87F
102
{ACAD_REACTORS
330
C
102
}
330
C
100
AcDbXrecord
280
     1
 90
        1
330
65
330
640
  0
DICTIONARY
  5
76
102
{ACAD_REACTORS
330
C
102
}
330
C
100
AcDbDictionary
281
     1
  3
CANNOSCALE
350
79
  3
CMLEADERSTYLE
350
78
  3
CTABLESTYLE
350
77
  3
DIMASSOC
350
879
  3
HIDETEXT
350
878
  3
INDEXCTL
350
877
  3
LAYEREVAL
350
874
  3
LAYERNOTIFY
350
875
  3
LIGHTINGUNITS
350
873
  3
MSLTSCALE
350
872
  3
SORTENTS
350
876
  3
XCLIPFRAME
350
87A
  0
XRECORD
  5
880
102
{ACAD_REACTORS
330
C
102
}
330
C
100
AcDbXrecord
280
     1
  1
DWGPROPS COOKIE
  2

  3

  4
KRA
  6

  7

  8

  9
-
300
Manager=
301
Company=
302
Category=
303
Part Number=P1614AL-S
304
Description=P SERIES BACK PANEL MASTER VIEW
305
Project=
306
Designer=KRA
307
Engineer=
308
Authority=
309
Cost Center=
 40
0.0000596643518519
 41
2455951.577716597
 42
2455951.577716771
  1

 90
       20
300
Vendor=
300
User Status=
300
Design Status=WorkInProgress
300
Checked by=JMG
300
Date Checked=02/12/2009
300
Engr Approved by=
300
Mfg Approved by=
300
DWG. NO=
300
NUMBER OF SHEETS=1
300
DRAWING #=1
  0
XRECORD
  5
8BD
102
{ACAD_REACTORS
330
8BC
102
}
330
8BC
100
AcDbXrecord
280
     1
 40
40178.0
  1
\A1;\U+22050.250{\PGROUND\PHOLE}
  0
LAYOUT
  5
6B
102
{ACAD_XDICTIONARY
360
8B6
102
}
102
{ACAD_REACTORS
330
62
102
}
330
62
100
AcDbPlotSettings
  1

  2

  4

  6

 40
0.0
 41
0.0
 42
0.0
 43
0.0
 44
0.0
 45
0.0
 46
0.0
 47
0.0
 48
0.0
 49
0.0
140
0.0
141
0.0
142
1.0
143
1.0
 70
   688
 72
     0
 73
     0
 74
     5
  7

 75
    16
147
1.0
148
0.0
149
0.0
100
AcDbLayout
  1
Layout1
 70
     1
 71
     1
 10
0.0
 20
0.0
 11
12.0
 21
9.0
 12
0.0
 22
0.0
 32
0.0
 14
0.0
 24
0.0
 34
0.0
 15
0.0
 25
0.0
 35
0.0
146
0.0
 13
0.0
 23
0.0
 33
0.0
 16
1.0
 26
0.0
 36
0.0
 17
0.0
 27
1.0
 37
0.0
 76
     0
330
68
  0
LAYOUT
  5
73
102
{ACAD_XDICTIONARY
360
8BA
102
}
102
{ACAD_REACTORS
330
62
102
}
330
62
100
AcDbPlotSettings
  1

  2

  4

  6

 40
0.0
 41
0.0
 42
0.0
 43
0.0
 44
0.0
 45
0.0
 46
0.0
 47
0.0
 48
0.0
 49
0.0
140
0.0
141
0.0
142
1.0
143
1.0
 70
   688
 72
     0
 73
     0
 74
     5
  7

 75
    16
147
1.0
148
0.0
149
0.0
100
AcDbLayout
  1
Layout2
 70
     1
 71
     2
 10
0.0
 20
0.0
 11
12.0
 21
9.0
 12
0.0
 22
0.0
 32
0.0
 14
0.0
 24
0.0
 34
0.0
 15
0.0
 25
0.0
 35
0.0
146
0.0
 13
0.0
 23
0.0
 33
0.0
 16
1.0
 26
0.0
 36
0.0
 17
0.0
 27
1.0
 37
0.0
 76
     0
330
70
  0
LAYOUT
  5
6F
102
{ACAD_XDICTIONARY
360
8B8
102
}
102
{ACAD_REACTORS
330
62
102
}
330
62
100
AcDbPlotSettings
  1

  2

  4

  6

 40
0.0
 41
0.0
 42
0.0
 43
0.0
 44
0.0
 45
0.0
 46
0.0
 47
0.0
 48
0.0
 49
0.0
140
0.0
141
0.0
142
1.0
143
1.0
 70
  1712
 72
     0
 73
     0
 74
     0
  7

 75
     0
147
1.0
148
0.0
149
0.0
100
AcDbLayout
  1
Model
 70
     1
 71
     0
 10
0.0
 20
0.0
 11
12.0
 21
9.0
 12
0.0
 22
0.0
 32
0.0
 14
0.0
 24
0.0
 34
0.0
 15
0.0
 25
0.0
 35
0.0
146
0.0
 13
0.0
 23
0.0
 33
0.0
 16
1.0
 26
0.0
 36
0.0
 17
0.0
 27
1.0
 37
0.0
 76
     0
330
6C
  0
MATERIAL
  5
19
102
{ACAD_XDICTIONARY
360
1A
102
}
102
{ACAD_REACTORS
330
10
102
}
330
10
100
AcDbMaterial
  1
ByBlock
 72
     0
 43
0.0208333333333333
 43
0.0
 43
0.0
 43
0.0
 43
0.0
 43
0.0208333333333333
 43
0.0
 43
0.0
 43
0.0
 43
0.0
 43
1.0
 43
0.0
 43
0.0
 43
0.0
 43
0.0
 43
1.0
 77
     0
 47
0.0208333333333333
 47
0.0
 47
0.0
 47
0.0
 47
0.0
 47
0.0208333333333333
 47
0.0
 47
0.0
 47
0.0
 47
0.0
 47
1.0
 47
0.0
 47
0.0
 47
0.0
 47
0.0
 47
1.0
171
     0
 49
0.0208333333333333
 49
0.0
 49
0.0
 49
0.0
 49
0.0
 49
0.0208333333333333
 49
0.0
 49
0.0
 49
0.0
 49
0.0
 49
1.0
 49
0.0
 49
0.0
 49
0.0
 49
0.0
 49
1.0
175
     0
142
0.0208333333333333
142
0.0
142
0.0
142
0.0
142
0.0
142
0.0208333333333333
142
0.0
142
0.0
142
0.0
142
0.0
142
1.0
142
0.0
142
0.0
142
0.0
142
0.0
142
1.0
179
     0
144
0.0208333333333333
144
0.0
144
0.0
144
0.0
144
0.0
144
0.0208333333333333
144
0.0
144
0.0
144
0.0
144
0.0
144
1.0
144
0.0
144
0.0
144
0.0
144
0.0
144
1.0
147
0.0208333333333333
147
0.0
147
0.0
147
0.0
147
0.0
147
0.0208333333333333
147
0.0
147
0.0
147
0.0
147
0.0
147
1.0
147
0.0
147
0.0
147
0.0
147
0.0
147
1.0
  0
MATERIAL
  5
11
102
{ACAD_XDICTIONARY
360
12
102
}
102
{ACAD_REACTORS
330
10
102
}
330
10
100
AcDbMaterial
  1
ByLayer
 72
     0
 43
0.0208333333333333
 43
0.0
 43
0.0
 43
0.0
 43
0.0
 43
0.0208333333333333
 43
0.0
 43
0.0
 43
0.0
 43
0.0
 43
1.0
 43
0.0
 43
0.0
 43
0.0
 43
0.0
 43
1.0
 77
     0
 47
0.0208333333333333
 47
0.0
 47
0.0
 47
0.0
 47
0.0
 47
0.0208333333333333
 47
0.0
 47
0.0
 47
0.0
 47
0.0
 47
1.0
 47
0.0
 47
0.0
 47
0.0
 47
0.0
 47
1.0
171
     0
 49
0.0208333333333333
 49
0.0
 49
0.0
 49
0.0
 49
0.0
 49
0.0208333333333333
 49
0.0
 49
0.0
 49
0.0
 49
0.0
 49
1.0
 49
0.0
 49
0.0
 49
0.0
 49
0.0
 49
1.0
175
     0
142
0.0208333333333333
142
0.0
142
0.0
142
0.0
142
0.0
142
0.0208333333333333
142
0.0
142
0.0
142
0.0
142
0.0
142
1.0
142
0.0
142
0.0
142
0.0
142
0.0
142
1.0
179
     0
144
0.0208333333333333
144
0.0
144
0.0
144
0.0
144
0.0
144
0.0208333333333333
144
0.0
144
0.0
144
0.0
144
0.0
144
1.0
144
0.0
144
0.0
144
0.0
144
0.0
144
1.0
147
0.0208333333333333
147
0.0
147
0.0
147
0.0
147
0.0
147
0.0208333333333333
147
0.0
147
0.0
147
0.0
147
0.0
147
1.0
147
0.0
147
0.0
147
0.0
147
0.0
147
1.0
  0
MATERIAL
  5
21
102
{ACAD_XDICTIONARY
360
22
102
}
102
{ACAD_REACTORS
330
10
102
}
330
10
100
AcDbMaterial
  1
Global
 72
     0
 43
0.0208333333333333
 43
0.0
 43
0.0
 43
0.0
 43
0.0
 43
0.0208333333333333
 43
0.0
 43
0.0
 43
0.0
 43
0.0
 43
1.0
 43
0.0
 43
0.0
 43
0.0
 43
0.0
 43
1.0
 77
     0
 47
0.0208333333333333
 47
0.0
 47
0.0
 47
0.0
 47
0.0
 47
0.0208333333333333
 47
0.0
 47
0.0
 47
0.0
 47
0.0
 47
1.0
 47
0.0
 47
0.0
 47
0.0
 47
0.0
 47
1.0
171
     0
 49
0.0208333333333333
 49
0.0
 49
0.0
 49
0.0
 49
0.0
 49
0.0208333333333333
 49
0.0
 49
0.0
 49
0.0
 49
0.0
 49
1.0
 49
0.0
 49
0.0
 49
0.0
 49
0.0
 49
1.0
175
     0
142
0.0208333333333333
142
0.0
142
0.0
142
0.0
142
0.0
142
0.0208333333333333
142
0.0
142
0.0
142
0.0
142
0.0
142
1.0
142
0.0
142
0.0
142
0.0
142
0.0
142
1.0
179
     0
144
0.0208333333333333
144
0.0
144
0.0
144
0.0
144
0.0
144
0.0208333333333333
144
0.0
144
0.0
144
0.0
144
0.0
144
1.0
144
0.0
144
0.0
144
0.0
144
0.0
144
1.0
147
0.0208333333333333
147
0.0
147
0.0
147
0.0
147
0.0
147
0.0208333333333333
147
0.0
147
0.0
147
0.0
147
0.0
147
1.0
147
0.0
147
0.0
147
0.0
147
0.0
147
1.0
  0
MLEADERSTYLE
  5
67
102
{ACAD_XDICTIONARY
360
87D
102
}
102
{ACAD_REACTORS
330
66
102
}
330
66
100
AcDbMLeaderStyle
170
     2
171
     1
172
     0
 90
        2
 40
0.0
 41
0.0
173
     1
 91
-1056964608
340
5B
 92
       -2
290
     1
 42
0.09
291
     1
 43
0.36
  3
Standard
 44
0.18
300

342
55
174
     1
178
     6
175
     1
176
     0
 93
-1056964608
 45
0.18
292
     0
297
     0
 46
0.18
 94
-1056964608
 47
1.0
 49
1.0
140
1.0
293
     1
141
0.0
294
     1
177
     0
142
1.0
295
     0
296
     0
143
0.125
1001
ACAD_MLEADERVER
1070
     2
  0
MLINESTYLE
  5
60
102
{ACAD_REACTORS
330
5F
102
}
330
5F
100
AcDbMlineStyle
  2
STANDARD
 70
     0
  3

 62
   256
 51
90.0
 52
90.0
 71
     2
 49
0.5
 62
   256
  6
BYLAYER
 49
-0.5
 62
   256
  6
BYLAYER
  0
ACDBPLACEHOLDER
  5
F
102
{ACAD_REACTORS
330
E
102
}
330
E
  0
SCALE
  5
43
102
{ACAD_REACTORS
330
42
102
}
330
42
100
AcDbScale
 70
     0
300
1:1
140
1.0
141
1.0
290
     1
  0
SCALE
  5
44
102
{ACAD_REACTORS
330
42
102
}
330
42
100
AcDbScale
 70
     0
300
1/128" = 1'-0"
140
0.0078125
141
12.0
290
     0
  0
SCALE
  5
45
102
{ACAD_REACTORS
330
42
102
}
330
42
100
AcDbScale
 70
     0
300
1/64" = 1'-0"
140
0.015625
141
12.0
290
     0
  0
SCALE
  5
46
102
{ACAD_REACTORS
330
42
102
}
330
42
100
AcDbScale
 70
     0
300
1/32" = 1'-0"
140
0.03125
141
12.0
290
     0
  0
SCALE
  5
47
102
{ACAD_REACTORS
330
42
102
}
330
42
100
AcDbScale
 70
     0
300
1/16" = 1'-0"
140
0.0625
141
12.0
290
     0
  0
SCALE
  5
48
102
{ACAD_REACTORS
330
42
102
}
330
42
100
AcDbScale
 70
     0
300
3/32" = 1'-0"
140
0.09375
141
12.0
290
     0
  0
SCALE
  5
49
102
{ACAD_REACTORS
330
42
102
}
330
42
100
AcDbScale
 70
     0
300
1/8" = 1'-0"
140
0.125
141
12.0
290
     0
  0
SCALE
  5
4A
102
{ACAD_REACTORS
330
42
102
}
330
42
100
AcDbScale
 70
     0
300
3/16" = 1'-0"
140
0.1875
141
12.0
290
     0
  0
SCALE
  5
4B
102
{ACAD_REACTORS
330
42
102
}
330
42
100
AcDbScale
 70
     0
300
1/4" = 1'-0"
140
0.25
141
12.0
290
     0
  0
SCALE
  5
4C
102
{ACAD_REACTORS
330
42
102
}
330
42
100
AcDbScale
 70
     0
300
3/8" = 1'-0"
140
0.375
141
12.0
290
     0
  0
SCALE
  5
4D
102
{ACAD_REACTORS
330
42
102
}
330
42
100
AcDbScale
 70
     0
300
1/2" = 1'-0"
140
0.5
141
12.0
290
     0
  0
SCALE
  5
4E
102
{ACAD_REACTORS
330
42
102
}
330
42
100
AcDbScale
 70
     0
300
3/4" = 1'-0"
140
0.75
141
12.0
290
     0
  0
SCALE
  5
4F
102
{ACAD_REACTORS
330
42
102
}
330
42
100
AcDbScale
 70
     0
300
1" = 1'-0"
140
1.0
141
12.0
290
     0
  0
SCALE
  5
50
102
{ACAD_REACTORS
330
42
102
}
330
42
100
AcDbScale
 70
     0
300
1-1/2" = 1'-0"
140
1.5
141
12.0
290
     0
  0
SCALE
  5
51
102
{ACAD_REACTORS
330
42
102
}
330
42
100
AcDbScale
 70
     0
300
3" = 1'-0"
140
3.0
141
12.0
290
     0
  0
SCALE
  5
52
102
{ACAD_REACTORS
330
42
102
}
330
42
100
AcDbScale
 70
     0
300
6" = 1'-0"
140
6.0
141
12.0
290
     0
  0
SCALE
  5
53
102
{ACAD_REACTORS
330
42
102
}
330
42
100
AcDbScale
 70
     0
300
1'-0" = 1'-0"
140
12.0
141
12.0
290
     0
  0
TABLESTYLE
  5
65
102
{ACAD_XDICTIONARY
360
87B
102
}
102
{ACAD_REACTORS
330
64
102
}
330
64
100
AcDbTableStyle
  3
Standard
 70
     0
 71
     0
 40
0.06
 41
0.06
280
     0
281
     0
  7
Standard
140
0.18
170
     2
 62
     0
 63
     7
283
     0
274
    -2
284
     1
 64
     0
275
    -2
285
     1
 65
     0
276
    -2
286
     1
 66
     0
277
    -2
287
     1
 67
     0
278
    -2
288
     1
 68
     0
279
    -2
289
     1
 69
     0
  7
Standard
140
0.25
170
     5
 62
     0
 63
     7
283
     0
274
    -2
284
     1
 64
     0
275
    -2
285
     1
 65
     0
276
    -2
286
     1
 66
     0
277
    -2
287
     1
 67
     0
278
    -2
288
     1
 68
     0
279
    -2
289
     1
 69
     0
  7
Standard
140
0.18
170
     5
 62
     0
 63
     7
283
     0
274
    -2
284
     1
 64
     0
275
    -2
285
     1
 65
     0
276
    -2
286
     1
 66
     0
277
    -2
287
     1
 67
     0
278
    -2
288
     1
 68
     0
279
    -2
289
     1
 69
     0
  0
VISUALSTYLE
  5
2F
102
{ACAD_XDICTIONARY
360
88E
102
}
102
{ACAD_REACTORS
330
29
102
}
330
29
100
AcDbVisualStyle
  2
2dWireframe
 70
     4
 71
     0
 72
     2
 73
     0
 90
        0
 40
-0.6
 41
-30.0
 62
     5
 63
     7
 74
     1
 91
        4
 64
     7
 65
   257
 75
     1
175
     1
 42
1.0
 92
        0
 66
   257
 43
1.0
 76
     1
 77
     6
 78
     2
 67
     7
 79
     5
170
     0
171
     0
290
     0
174
     0
 93
        1
 44
0.0
173
     0
291
     0
 45
0.0
1001
ACAD
1000
AcDbSavedByObjectVersion
1070
     0
  0
VISUALSTYLE
  5
2E
102
{ACAD_XDICTIONARY
360
88C
102
}
102
{ACAD_REACTORS
330
29
102
}
330
29
100
AcDbVisualStyle
  2
Basic
 70
     7
 71
     1
 72
     0
 73
     1
 90
        0
 40
-0.6
 41
-30.0
 62
     5
 63
     7
 74
     0
 91
        4
 64
     7
 65
   257
 75
     1
175
     1
 42
1.0
 92
        8
 66
     7
 43
1.0
 76
     1
 77
     6
 78
     2
 67
     7
 79
     5
170
     0
171
     0
290
     0
174
     0
 93
        1
 44
0.0
173
     0
291
     1
 45
0.0
1001
ACAD
1000
AcDbSavedByObjectVersion
1070
     0
  0
VISUALSTYLE
  5
35
102
{ACAD_XDICTIONARY
360
89A
102
}
102
{ACAD_REACTORS
330
29
102
}
330
29
100
AcDbVisualStyle
  2
Brighten
 70
    12
 71
     2
 72
     2
 73
     0
 90
        0
 40
-0.6
 41
-30.0
 62
     5
 63
     7
 74
     1
 91
        4
 64
     7
 65
   257
 75
     1
175
     1
 42
1.0
 92
        8
 66
     7
 43
1.0
 76
     1
 77
     6
 78
     2
 67
     7
 79
     5
170
     0
171
     0
290
     0
174
     0
 93
        1
 44
50.0
173
     0
291
     1
 45
0.0
1001
ACAD
1000
AcDbSavedByObjectVersion
1070
     0
  0
VISUALSTYLE
  5
39
102
{ACAD_XDICTIONARY
360
8A2
102
}
102
{ACAD_REACTORS
330
29
102
}
330
29
100
AcDbVisualStyle
  2
ColorChange
 70
    16
 71
     2
 72
     2
 73
     3
 90
        0
 40
-0.6
 41
-30.0
 62
     5
 63
     8
 74
     1
 91
        4
 64
     7
 65
   257
 75
     1
175
     1
 42
1.0
 92
        8
 66
     8
 43
1.0
 76
     1
 77
     6
 78
     2
 67
     7
 79
     5
170
     0
171
     0
290
     0
174
     0
 93
        1
 44
0.0
173
     0
291
     1
 45
0.0
1001
ACAD
1000
AcDbSavedByObjectVersion
1070
     0
  0
VISUALSTYLE
  5
32
102
{ACAD_XDICTIONARY
360
894
102
}
102
{ACAD_REACTORS
330
29
102
}
330
29
100
AcDbVisualStyle
  2
Conceptual
 70
     9
 71
     3
 72
     2
 73
     0
 90
        0
 40
-0.6
 41
-30.0
 62
     5
 63
     7
 74
     2
 91
        2
 64
     7
 65
   257
 75
     1
175
     1
 42
179.0
 92
        8
 66
     7
 43
1.0
 76
     1
 77
     6
 78
     2
 67
     7
 79
     3
170
     0
171
     0
290
     0
174
     0
 93
        1
 44
0.0
173
     0
291
     0
 45
0.0
1001
ACAD
1000
AcDbSavedByObjectVersion
1070
     0
  0
VISUALSTYLE
  5
34
102
{ACAD_XDICTIONARY
360
898
102
}
102
{ACAD_REACTORS
330
29
102
}
330
29
100
AcDbVisualStyle
  2
Dim
 70
    11
 71
     2
 72
     2
 73
     0
 90
        0
 40
-0.6
 41
-30.0
 62
     5
 63
     7
 74
     1
 91
        4
 64
     7
 65
   257
 75
     1
175
     1
 42
1.0
 92
        8
 66
     7
 43
1.0
 76
     1
 77
     6
 78
     2
 67
     7
 79
     5
170
     0
171
     0
290
     0
174
     0
 93
        1
 44
-50.0
173
     0
291
     1
 45
0.0
1001
ACAD
1000
AcDbSavedByObjectVersion
1070
     0
  0
VISUALSTYLE
  5
41
102
{ACAD_XDICTIONARY
360
8B2
102
}
102
{ACAD_REACTORS
330
29
102
}
330
29
100
AcDbVisualStyle
  2
EdgeColorOff
 70
    22
 71
     2
 72
     2
 73
     0
 90
        0
 40
-0.6
 41
-30.0
 62
     5
 63
     7
 74
     1
 91
        4
 64
     7
 65
   257
 75
     1
175
     1
 42
1.0
 92
        8
 66
     7
 43
1.0
 76
     1
 77
     6
 78
     2
 67
     7
 79
     5
170
     0
171
     0
290
     0
174
     0
 93
        1
 44
0.0
173
     0
291
     1
 45
0.0
1001
ACAD
1000
AcDbSavedByObjectVersion
1070
     0
  0
VISUALSTYLE
  5
38
102
{ACAD_XDICTIONARY
360
8A0
102
}
102
{ACAD_REACTORS
330
29
102
}
330
29
100
AcDbVisualStyle
  2
Facepattern
 70
    15
 71
     2
 72
     2
 73
     0
 90
        0
 40
-0.6
 41
-30.0
 62
     5
 63
     7
 74
     1
 91
        4
 64
     7
 65
   257
 75
     1
175
     1
 42
1.0
 92
        8
 66
     7
 43
1.0
 76
     1
 77
     6
 78
     2
 67
     7
 79
     5
170
     0
171
     0
290
     0
174
     0
 93
        1
 44
0.0
173
     0
291
     1
 45
0.0
1001
ACAD
1000
AcDbSavedByObjectVersion
1070
     0
  0
VISUALSTYLE
  5
2A
102
{ACAD_XDICTIONARY
360
884
102
}
102
{ACAD_REACTORS
330
29
102
}
330
29
100
AcDbVisualStyle
  2
Flat
 70
     0
 71
     2
 72
     1
 73
     1
 90
        2
 40
-0.6
 41
30.0
 62
     5
 63
     7
 74
     0
 91
        0
 64
     7
 65
   257
 75
     1
175
     1
 42
1.0
 92
        8
 66
     7
 43
1.0
 76
     1
 77
     6
 78
     2
 67
     7
 79
     5
170
     0
171
     0
290
     0
174
     0
 93
       13
 44
0.0
173
     0
291
     1
 45
0.0
1001
ACAD
1000
AcDbSavedByObjectVersion
1070
     0
  0
VISUALSTYLE
  5
2B
102
{ACAD_XDICTIONARY
360
886
102
}
102
{ACAD_REACTORS
330
29
102
}
330
29
100
AcDbVisualStyle
  2
FlatWithEdges
 70
     1
 71
     2
 72
     1
 73
     1
 90
        2
 40
-0.6
 41
30.0
 62
     5
 63
     7
 74
     1
 91
        0
 64
     7
 65
   257
 75
     1
175
     1
 42
1.0
 92
        0
 66
   257
 43
1.0
 76
     1
 77
     6
 78
     2
 67
     7
 79
     5
170
     0
171
     0
290
     0
174
     0
 93
       13
 44
0.0
173
     0
291
     1
 45
0.0
1001
ACAD
1000
AcDbSavedByObjectVersion
1070
     0
  0
VISUALSTYLE
  5
2C
102
{ACAD_XDICTIONARY
360
888
102
}
102
{ACAD_REACTORS
330
29
102
}
330
29
100
AcDbVisualStyle
  2
Gouraud
 70
     2
 71
     2
 72
     2
 73
     1
 90
        2
 40
-0.6
 41
30.0
 62
     5
 63
     7
 74
     0
 91
        0
 64
     7
 65
   257
 75
     1
175
     1
 42
1.0
 92
        0
 66
     7
 43
1.0
 76
     1
 77
     6
 78
     2
 67
     7
 79
     5
170
     0
171
     0
290
     0
174
     0
 93
       13
 44
0.0
173
     0
291
     1
 45
0.0
1001
ACAD
1000
AcDbSavedByObjectVersion
1070
     0
  0
VISUALSTYLE
  5
2D
102
{ACAD_XDICTIONARY
360
88A
102
}
102
{ACAD_REACTORS
330
29
102
}
330
29
100
AcDbVisualStyle
  2
GouraudWithEdges
 70
     3
 71
     2
 72
     2
 73
     1
 90
        2
 40
-0.6
 41
30.0
 62
     5
 63
     7
 74
     1
 91
        0
 64
     7
 65
   257
 75
     1
175
     1
 42
1.0
 92
        0
 66
   257
 43
1.0
 76
     1
 77
     6
 78
     2
 67
     7
 79
     5
170
     0
171
     0
290
     0
174
     0
 93
       13
 44
0.0
173
     0
291
     1
 45
0.0
1001
ACAD
1000
AcDbSavedByObjectVersion
1070
     0
  0
VISUALSTYLE
  5
31
102
{ACAD_XDICTIONARY
360
892
102
}
102
{ACAD_REACTORS
330
29
102
}
330
29
100
AcDbVisualStyle
  2
Hidden
 70
     6
 71
     1
 72
     2
 73
     2
 90
        0
 40
-0.6
 41
-30.0
 62
     5
 63
     7
 74
     2
 91
        2
 64
     7
 65
   257
 75
     2
175
     1
 42
40.0
 92
        0
 66
   257
 43
1.0
 76
     1
 77
     6
 78
     2
 67
     7
 79
     3
170
     0
171
     0
290
     0
174
     0
 93
        1
 44
0.0
173
     0
291
     0
 45
0.0
1001
ACAD
1000
AcDbSavedByObjectVersion
1070
     0
  0
VISUALSTYLE
  5
3F
102
{ACAD_XDICTIONARY
360
8AE
102
}
102
{ACAD_REACTORS
330
29
102
}
330
29
100
AcDbVisualStyle
  2
JitterOff
 70
    20
 71
     2
 72
     2
 73
     0
 90
        0
 40
-0.6
 41
-30.0
 62
     5
 63
     7
 74
     1
 91
        4
 64
     7
 65
   257
 75
     1
175
     1
 42
1.0
 92
       10
 66
     7
 43
1.0
 76
     1
 77
     6
 78
     2
 67
     7
 79
     5
170
     0
171
     0
290
     0
174
     0
 93
        1
 44
0.0
173
     0
291
     1
 45
0.0
1001
ACAD
1000
AcDbSavedByObjectVersion
1070
     0
  0
VISUALSTYLE
  5
37
102
{ACAD_XDICTIONARY
360
89E
102
}
102
{ACAD_REACTORS
330
29
102
}
330
29
100
AcDbVisualStyle
  2
Linepattern
 70
    14
 71
     2
 72
     2
 73
     0
 90
        0
 40
-0.6
 41
-30.0
 62
     5
 63
     7
 74
     1
 91
        4
 64
     7
 65
   257
 75
     7
175
     7
 42
1.0
 92
        8
 66
     7
 43
1.0
 76
     1
 77
     6
 78
     2
 67
     7
 79
     5
170
     0
171
     0
290
     0
174
     0
 93
        1
 44
0.0
173
     0
291
     1
 45
0.0
1001
ACAD
1000
AcDbSavedByObjectVersion
1070
     0
  0
VISUALSTYLE
  5
40
102
{ACAD_XDICTIONARY
360
8B0
102
}
102
{ACAD_REACTORS
330
29
102
}
330
29
100
AcDbVisualStyle
  2
OverhangOff
 70
    21
 71
     2
 72
     2
 73
     0
 90
        0
 40
-0.6
 41
-30.0
 62
     5
 63
     7
 74
     1
 91
        4
 64
     7
 65
   257
 75
     1
175
     1
 42
1.0
 92
        9
 66
     7
 43
1.0
 76
     1
 77
     6
 78
     2
 67
     7
 79
     5
170
     0
171
     0
290
     0
174
     0
 93
        1
 44
0.0
173
     0
291
     1
 45
0.0
1001
ACAD
1000
AcDbSavedByObjectVersion
1070
     0
  0
VISUALSTYLE
  5
33
102
{ACAD_XDICTIONARY
360
896
102
}
102
{ACAD_REACTORS
330
29
102
}
330
29
100
AcDbVisualStyle
  2
Realistic
 70
     8
 71
     2
 72
     3
 73
     0
 90
        2
 40
-0.6
 41
30.0
 62
     5
 63
     7
 74
     0
 91
        0
 64
     7
 65
   257
 75
     1
175
     1
 42
1.0
 92
        8
 66
   257
 43
1.0
 76
     1
 77
     6
 78
     2
 67
     7
 79
     3
170
     0
171
     0
290
     0
174
     0
 93
       13
 44
0.0
173
     0
291
     0
 45
0.0
1001
ACAD
1000
AcDbSavedByObjectVersion
1070
     0
  0
VISUALSTYLE
  5
3E
102
{ACAD_XDICTIONARY
360
8AC
102
}
102
{ACAD_REACTORS
330
29
102
}
330
29
100
AcDbVisualStyle
  2
Shaded
 70
    27
 71
     2
 72
     2
 73
     1
 90
        2
 40
-0.6
 41
30.0
 62
     5
 63
     7
 74
     0
 91
        4
 64
     7
 65
   257
 75
     1
175
     1
 42
1.0
 92
        8
 66
   257
 43
1.0
 76
     1
 77
     6
 78
     2
 67
     8
 79
     3
170
     0
171
     0
290
     0
174
     0
 93
        5
 44
0.0
173
     0
291
     0
 45
0.0
1001
ACAD
1000
AcDbSavedByObjectVersion
1070
     0
  0
VISUALSTYLE
  5
3D
102
{ACAD_XDICTIONARY
360
8AA
102
}
102
{ACAD_REACTORS
330
29
102
}
330
29
100
AcDbVisualStyle
  2
Shaded with edges
 70
    26
 71
     2
 72
     2
 73
     1
 90
        2
 40
-0.6
 41
30.0
 62
     5
 63
     7
 74
     1
 91
       10
 64
     7
 65
   257
 75
     2
175
     1
 42
1.0
 92
        8
 66
   257
 43
1.0
 76
     1
 77
     6
 78
     2
 67
     7
 79
     3
170
     0
171
     0
290
     0
174
     0
 93
        5
 44
0.0
173
     0
291
     0
 45
0.0
1001
ACAD
1000
AcDbSavedByObjectVersion
1070
     0
  0
VISUALSTYLE
  5
3A
102
{ACAD_XDICTIONARY
360
8A4
102
}
102
{ACAD_REACTORS
330
29
102
}
330
29
100
AcDbVisualStyle
  2
Shades of Gray
 70
    23
 71
     2
 72
     2
 73
     3
 90
        0
 40
-0.6
 41
-30.0
 62
     5
 63
     7
 74
     2
 91
        2
 64
     7
 65
     7
 75
     1
175
     1
 42
40.0
 92
        8
 66
     7
 43
1.0
 76
     1
 77
     6
 78
     2
 67
     7
 79
     3
170
     0
171
     0
290
     0
174
     0
 93
        1
 44
0.0
173
     0
291
     0
 45
0.0
1001
ACAD
1000
AcDbSavedByObjectVersion
1070
     0
  0
VISUALSTYLE
  5
3B
102
{ACAD_XDICTIONARY
360
8A6
102
}
102
{ACAD_REACTORS
330
29
102
}
330
29
100
AcDbVisualStyle
  2
Sketchy
 70
    24
 71
     1
 72
     2
 73
     2
 90
        0
 40
-0.6
 41
-30.0
 62
     5
 63
     7
 74
     2
 91
        2
 64
     7
 65
     7
 75
     1
175
     1
 42
40.0
 92
       11
 66
     7
 43
1.0
 76
     1
 77
     6
 78
     2
 67
     7
 79
     6
170
     0
171
     0
290
     0
174
     0
 93
        1
 44
0.0
173
     0
291
     0
 45
0.0
1001
ACAD
1000
AcDbSavedByObjectVersion
1070
     0
  0
VISUALSTYLE
  5
36
102
{ACAD_XDICTIONARY
360
89C
102
}
102
{ACAD_REACTORS
330
29
102
}
330
29
100
AcDbVisualStyle
  2
Thicken
 70
    13
 71
     2
 72
     2
 73
     0
 90
        0
 40
-0.6
 41
-30.0
 62
     5
 63
     7
 74
     1
 91
        4
 64
     7
 65
   257
 75
     1
175
     1
 42
1.0
 92
       12
 66
     7
 43
1.0
 76
     1
 77
     6
 78
     2
 67
     7
 79
     5
170
     0
171
     0
290
     0
174
     0
 93
        1
 44
0.0
173
     0
291
     1
 45
0.0
1001
ACAD
1000
AcDbSavedByObjectVersion
1070
     0
  0
VISUALSTYLE
  5
30
102
{ACAD_XDICTIONARY
360
890
102
}
102
{ACAD_REACTORS
330
29
102
}
330
29
100
AcDbVisualStyle
  2
Wireframe
 70
     5
 71
     0
 72
     2
 73
     0
 90
        0
 40
-0.6
 41
-30.0
 62
     5
 63
     7
 74
     1
 91
        4
 64
     7
 65
   257
 75
     1
175
     1
 42
1.0
 92
        0
 66
   257
 43
1.0
 76
     1
 77
     6
 78
     2
 67
     7
 79
     3
170
     0
171
     0
290
     0
174
     0
 93
        1
 44
0.0
173
     0
291
     0
 45
0.0
1001
ACAD
1000
AcDbSavedByObjectVersion
1070
     0
  0
VISUALSTYLE
  5
3C
102
{ACAD_XDICTIONARY
360
8A8
102
}
102
{ACAD_REACTORS
330
29
102
}
330
29
100
AcDbVisualStyle
  2
X-Ray
 70
    25
 71
     2
 72
     2
 73
     1
 90
        1
 40
0.5
 41
-30.0
 62
     5
 63
     7
 74
     1
 91
        0
 64
     7
 65
   257
 75
     1
175
     1
 42
1.0
 92
        8
 66
     7
 43
1.0
 76
     1
 77
     6
 78
     2
 67
     7
 79
     3
170
     0
171
     0
290
     0
174
     0
 93
       13
 44
0.0
173
     0
291
     0
 45
0.0
1001
ACAD
1000
AcDbSavedByObjectVersion
1070
     0
  0
DICTIONARYVAR
  5
79
102
{ACAD_REACTORS
330
76
102
}
330
76
100
DictionaryVariables
280
     0
  1
1:1
  0
DICTIONARYVAR
  5
78
102
{ACAD_REACTORS
330
76
102
}
330
76
100
DictionaryVariables
280
     0
  1
STANDARD
  0
DICTIONARYVAR
  5
77
102
{ACAD_REACTORS
330
76
102
}
330
76
100
DictionaryVariables
280
     0
  1
STANDARD
  0
DICTIONARYVAR
  5
879
102
{ACAD_REACTORS
330
76
102
}
330
76
100
DictionaryVariables
280
     0
  1
1
  0
DICTIONARYVAR
  5
878
102
{ACAD_REACTORS
330
76
102
}
330
76
100
DictionaryVariables
280
     0
  1
1
  0
DICTIONARYVAR
  5
877
102
{ACAD_REACTORS
330
76
102
}
330
76
100
DictionaryVariables
280
     0
  1
0
  0
DICTIONARYVAR
  5
874
102
{ACAD_REACTORS
330
76
102
}
330
76
100
DictionaryVariables
280
     0
  1
0
  0
DICTIONARYVAR
  5
875
102
{ACAD_REACTORS
330
76
102
}
330
76
100
DictionaryVariables
280
     0
  1
0
  0
DICTIONARYVAR
  5
873
102
{ACAD_REACTORS
330
76
102
}
330
76
100
DictionaryVariables
280
     0
  1
2
  0
DICTIONARYVAR
  5
872
102
{ACAD_REACTORS
330
76
102
}
330
76
100
DictionaryVariables
280
     0
  1
1
  0
DICTIONARYVAR
  5
876
102
{ACAD_REACTORS
330
76
102
}
330
76
100
DictionaryVariables
280
     0
  1
127
  0
DICTIONARYVAR
  5
87A
102
{ACAD_REACTORS
330
76
102
}
330
76
100
DictionaryVariables
280
     0
  1
2
  0
DICTIONARY
  5
8B6
330
6B
100
AcDbDictionary
280
     1
281
     1
  3
ACAD_XREC_ROUNDTRIP
360
8B7
  0
DICTIONARY
  5
8BA
330
73
100
AcDbDictionary
280
     1
281
     1
  3
ACAD_XREC_ROUNDTRIP
360
8BB
  0
DICTIONARY
  5
8B8
330
6F
100
AcDbDictionary
280
     1
281
     1
  3
ACAD_XREC_ROUNDTRIP
360
8B9
  0
DICTIONARY
  5
1A
330
19
100
AcDbDictionary
280
     1
281
     1
  3
ACAD_XREC_ROUNDTRIP
360
882
  3
BUMPTILE
360
1C
  3
DIFFUSETILE
360
1B
  3
OPACITYTILE
360
1F
  3
REFLECTIONTILE
360
1E
  3
REFRACTIONTILE
360
20
  3
SPECULARTILE
360
1D
  0
DICTIONARY
  5
12
330
11
100
AcDbDictionary
280
     1
281
     1
  3
ACAD_XREC_ROUNDTRIP
360
881
  3
BUMPTILE
360
14
  3
DIFFUSETILE
360
13
  3
FBXASSET
360
10B
  3
OPACITYTILE
360
17
  3
REFLECTIONTILE
360
16
  3
REFRACTIONTILE
360
18
  3
SPECULARTILE
360
15
  0
DICTIONARY
  5
22
330
21
100
AcDbDictionary
280
     1
281
     1
  3
ACAD_XREC_ROUNDTRIP
360
883
  3
BUMPTILE
360
24
  3
DIFFUSETILE
360
23
  3
FBXASSET
360
BA
  3
OPACITYTILE
360
27
  3
REFLECTIONTILE
360
26
  3
REFRACTIONTILE
360
28
  3
SPECULARTILE
360
25
  0
DICTIONARY
  5
87D
330
67
100
AcDbDictionary
280
     1
281
     1
  3
ACAD_XREC_ROUNDTRIP
360
87E
  0
DICTIONARY
  5
87B
330
65
100
AcDbDictionary
280
     1
281
     1
  3
ACAD_ROUNDTRIP_2008_TABLESTYLE_CELLSTYLEMAP
360
87C
  3
ACAD_XREC_ROUNDTRIP
360
8B4
  0
DICTIONARY
  5
88E
330
2F
100
AcDbDictionary
280
     1
281
     1
  3
ACAD_XREC_ROUNDTRIP
360
88F
  0
DICTIONARY
  5
88C
330
2E
100
AcDbDictionary
280
     1
281
     1
  3
ACAD_XREC_ROUNDTRIP
360
88D
  0
DICTIONARY
  5
89A
330
35
100
AcDbDictionary
280
     1
281
     1
  3
ACAD_XREC_ROUNDTRIP
360
89B
  0
DICTIONARY
  5
8A2
330
39
100
AcDbDictionary
280
     1
281
     1
  3
ACAD_XREC_ROUNDTRIP
360
8A3
  0
DICTIONARY
  5
894
330
32
100
AcDbDictionary
280
     1
281
     1
  3
ACAD_XREC_ROUNDTRIP
360
895
  0
DICTIONARY
  5
898
330
34
100
AcDbDictionary
280
     1
281
     1
  3
ACAD_XREC_ROUNDTRIP
360
899
  0
DICTIONARY
  5
8B2
330
41
100
AcDbDictionary
280
     1
281
     1
  3
ACAD_XREC_ROUNDTRIP
360
8B3
  0
DICTIONARY
  5
8A0
330
38
100
AcDbDictionary
280
     1
281
     1
  3
ACAD_XREC_ROUNDTRIP
360
8A1
  0
DICTIONARY
  5
884
330
2A
100
AcDbDictionary
280
     1
281
     1
  3
ACAD_XREC_ROUNDTRIP
360
885
  0
DICTIONARY
  5
886
330
2B
100
AcDbDictionary
280
     1
281
     1
  3
ACAD_XREC_ROUNDTRIP
360
887
  0
DICTIONARY
  5
888
330
2C
100
AcDbDictionary
280
     1
281
     1
  3
ACAD_XREC_ROUNDTRIP
360
889
  0
DICTIONARY
  5
88A
330
2D
100
AcDbDictionary
280
     1
281
     1
  3
ACAD_XREC_ROUNDTRIP
360
88B
  0
DICTIONARY
  5
892
330
31
100
AcDbDictionary
280
     1
281
     1
  3
ACAD_XREC_ROUNDTRIP
360
893
  0
DICTIONARY
  5
8AE
330
3F
100
AcDbDictionary
280
     1
281
     1
  3
ACAD_XREC_ROUNDTRIP
360
8AF
  0
DICTIONARY
  5
89E
330
37
100
AcDbDictionary
280
     1
281
     1
  3
ACAD_XREC_ROUNDTRIP
360
89F
  0
DICTIONARY
  5
8B0
330
40
100
AcDbDictionary
280
     1
281
     1
  3
ACAD_XREC_ROUNDTRIP
360
8B1
  0
DICTIONARY
  5
896
330
33
100
AcDbDictionary
280
     1
281
     1
  3
ACAD_XREC_ROUNDTRIP
360
897
  0
DICTIONARY
  5
8AC
330
3E
100
AcDbDictionary
280
     1
281
     1
  3
ACAD_XREC_ROUNDTRIP
360
8AD
  0
DICTIONARY
  5
8AA
330
3D
100
AcDbDictionary
280
     1
281
     1
  3
ACAD_XREC_ROUNDTRIP
360
8AB
  0
DICTIONARY
  5
8A4
330
3A
100
AcDbDictionary
280
     1
281
     1
  3
ACAD_XREC_ROUNDTRIP
360
8A5
  0
DICTIONARY
  5
8A6
330
3B
100
AcDbDictionary
280
     1
281
     1
  3
ACAD_XREC_ROUNDTRIP
360
8A7
  0
DICTIONARY
  5
89C
330
36
100
AcDbDictionary
280
     1
281
     1
  3
ACAD_XREC_ROUNDTRIP
360
89D
  0
DICTIONARY
  5
890
330
30
100
AcDbDictionary
280
     1
281
     1
  3
ACAD_XREC_ROUNDTRIP
360
891
  0
DICTIONARY
  5
8A8
330
3C
100
AcDbDictionary
280
     1
281
     1
  3
ACAD_XREC_ROUNDTRIP
360
8A9
  0
XRECORD
  5
8B7
102
{ACAD_REACTORS
330
8B6
102
}
330
8B6
100
AcDbXrecord
280
     1
102
SHADEPLOT
 70
     0
102
SHADEPLOTRESLEVEL
 70
     2
102
SHADEPLOTCUSTOMDPI
 70
   300
  0
XRECORD
  5
8BB
102
{ACAD_REACTORS
330
8BA
102
}
330
8BA
100
AcDbXrecord
280
     1
102
SHADEPLOT
 70
     0
102
SHADEPLOTRESLEVEL
 70
     2
102
SHADEPLOTCUSTOMDPI
 70
   300
  0
XRECORD
  5
8B9
102
{ACAD_REACTORS
330
8B8
102
}
330
8B8
100
AcDbXrecord
280
     1
102
SHADEPLOT
 70
     0
102
SHADEPLOTRESLEVEL
 70
     2
102
SHADEPLOTCUSTOMDPI
 70
   300
  0
XRECORD
  5
882
102
{ACAD_REACTORS
330
1A
102
}
330
1A
100
AcDbXrecord
280
     1
102
MATERIAL
148
0.0
149
0.0
149
0.0
 93
        0
 94
      127
282
     0
 72
     0
 77
     0
171
     0
175
     0
179
     0
273
     0
  0
XRECORD
  5
1C
102
{ACAD_REACTORS
330
1A
102
}
330
1A
100
AcDbXrecord
280
     1
270
     1
271
     1
  0
XRECORD
  5
1B
102
{ACAD_REACTORS
330
1A
102
}
330
1A
100
AcDbXrecord
280
     1
270
     1
271
     1
  0
XRECORD
  5
1F
102
{ACAD_REACTORS
330
1A
102
}
330
1A
100
AcDbXrecord
280
     1
270
     1
271
     1
  0
XRECORD
  5
1E
102
{ACAD_REACTORS
330
1A
102
}
330
1A
100
AcDbXrecord
280
     1
270
     1
271
     1
  0
XRECORD
  5
20
102
{ACAD_REACTORS
330
1A
102
}
330
1A
100
AcDbXrecord
280
     1
270
     1
271
     1
  0
XRECORD
  5
1D
102
{ACAD_REACTORS
330
1A
102
}
330
1A
100
AcDbXrecord
280
     1
270
     1
271
     1
  0
XRECORD
  5
881
102
{ACAD_REACTORS
330
12
102
}
330
12
100
AcDbXrecord
280
     1
102
MATERIAL
148
0.0
149
0.0
149
0.0
 93
        0
 94
      127
282
     0
 72
     0
 77
     0
171
     0
175
     0
179
     0
273
     0
  0
XRECORD
  5
14
102
{ACAD_REACTORS
330
12
102
}
330
12
100
AcDbXrecord
280
     1
270
     1
271
     1
  0
XRECORD
  5
13
102
{ACAD_REACTORS
330
12
102
}
330
12
100
AcDbXrecord
280
     1
270
     1
271
     1
  0
XRECORD
  5
10B
102
{ACAD_REACTORS
330
12
102
}
330
12
100
AcDbXrecord
280
     1
 70
     1
 90
1959938040
 71
     1
  1
91D730EC-F232-4A2E-B0BE-7B4C94F90248
311
504B03040A00000800007D6E38403DEE336E79000000790000001B0000006175746F6465736B2D64657369676E2D7061636B6167652E786D6C3C3F786D6C2076657273696F6E3D22312E302220656E636F64696E673D227574662D3822203F3E3C666F726D6174733E3C666F726D61743E687474703A2F2F736368656D612E
311
6175746F6465736B2E636F6D2F64657369676E2D7061636B6167652F323030393C2F666F726D61743E3C2F666F726D6174733E504B03041400060808007D6E3840D486FD9CA0000000F4000000130000005B436F6E74656E745F54797065735D2E786D6C7D8EC10E82300C865F65E91D8A1E8C310C0EEA1BF002731658846E
311
D98AC1B77784ABF1D8FE5FBFBF75BBCE937A534CCEB38643598122B6FEE978D0B0485F9C41B54DDD7D022595594E1A469170414C76A4D9A4D207E29CF43ECE46F218070CC6BECC4078ACAA135ACF422C856C0E68EA1BF5669944DDD7BCDE7B1F8E415D77AECB980613C2E4AC91FC167A2B244592486606FC29C8FD7F045B9A
311
EF7053A7E60B504B03041400060808007D6E38402CF2318CEA0000007C01000008000000636F72652E786D6C8D90D16E842010457F85CC3B0A825BD7201B6DE217F40708B296EC0A46A0E9E71777DDA47DEBD34CEEDC3333B9E2F2BDDCD197D982F5AE035A1040C6693F59377790E21537802E526CDEC75F36404E2DA6835D
311
0629E6CDA7F590B477D1B89855E72773882A041301E97B6E3A08FAD32CAA50296647B815ABD237359B82BEBA0CA76427F43C62A7BCCF5EADD940F286BDD1773660DEB311F3E154E3810F049FEB7E64CDC8FB73CD45B9C35244BBBCEEEBCDA868269015A115261457FC83B2B6A66DDD60726A0911E56EFF03A575FA2794AC8B
311
AC3ADE7D620124CD8F3C0652947B16B93C82CA75CF4DFE00504B03041400060808007D6E384055019EA25F0000007C00000007000000636E782E786D6C4DCB3B0E80201045D1AD90E915ED2CF8AC45050C11660C8261F98AB1B07AC9C97D42D718D865D3E909258CFD00CCE24AC6E326A164D74DC0B4128928FF326038472B
311
A13128B1252AC747C6BAB984FC68F0B87FE8960A5C09FE86CFB69FBA01504B03041400060808007D6E38406E92A02E66010000020300000C0000006662782F636F72652E786D6C8D52ED8E8320107C15C27F44FCE8790DD2D44BFA04F70254A967AA60104C1FFFD68FC6EBA5691A1324333BBBB3A3FC70EB5A342A3B3446E7
311
980521464A97A66A749D63EF2E24C3E820B835C6FD29C348CB4EE57882B1E0B535BE5FA1D268A7B403549B4AADA01C06E5302A5BB8E478287F542703E91D540CD7A097E555D62A6001D05027F8E02C1840CB90E9C4E272BE71BAE0827BDF542BDB5430ADB934CA629164F107FB8A0B921CE313498A5D4A8AA408C9677A3CC5
311
D929397EA609A7935870D7747777A555D2A90A8B286411091989926F16EF53B64F3312EEF661C8E954FE20F27DF5A6C837DAC5D16A77910D5830303213FFB685881C1AE4087EA8E0740A115E73C28F41432010B293E7F6BEC715A05195CED80498CAF88D1A65EB154C0DD1FC70BAB0D0796E009B3DED13BDE8F3BA077C40A9
311
6BB0261D5CCFDE4DD3F932758DA257968CEE86B4B19D6C37738BC5EDDC063D9597A635F61D355D57A56B9874FA7BC52F504B03041400060808007D6E38402E279E9A7E0000009D0000000B0000006662782F636E782E786D6C4DCCD10E82201886E15B61FF398918491BE034EC3E5CA263223482D6E5A7CD838EBEEDD9B757
311
349FD5A1B7892F1BBC84F2440019FF08A3F5B3849C26CC01354AC410D2DF0D901F5623616750628E213F0F1ACD3464973675D62F076AAEF5B5A53526654DF1F9722798B38AE1AEEA29679AF76D77834289E257DA760FAB2F504B03041400060808007D6E3840992673182C01000014020000310000006662782F4438444439
311
4132372D303137322D343646302D383533352D4233453238354438454142432F636F72652E786D6C8D51CB6EC32010FC158B537AB00DD85037C244499D7E417F8000495162B07854F9FCE2DA91DA5B2E2C9A9D991DEDB2DD7DBC15DFDA07E36C0F500541A1AD74CAD84B0F523C971D28769C79E7E21F1A28AC18750F661870
311
76F12E4D2B249D8DDAC68C5AA7F40A8A10740485BCE54F0F82FCD2A3A8448A9911AED524E4555C7485AADCCE3CCE42F43940B10C995FC0876E18DEF6F8B584E815972DFD8065471A521E9A23EEC8D01DF78777562F42CE52326A951B95E398B3D1FE599359CC5934E323BEF45A44AD00C710E11CA0C4ED276AB6046D495742
311
BA8590D533FD9F284DEA4951323636788DBBC802E088D54B8333E5D2E9F608A3EF93F3B198E76D82962F80C30A3684508A29AB176A5E40F6A4EDEA19A2F379C19BEB29B311598C69CB593DDF2897DF03E63ADF93FF00504B03041400060808007D6E3840C07E94C94D01000033030000300000006662782F44384444394132
311
372D303137322D343646302D383533352D4233453238354438454142432F636E782E786D6CD593CD6E022114855F85B09F1F7434C6309874D127E8A25B84ABA53230E1A7A96FDF8BA275E3A2CB6EC8E4DCC339375F18BEFB9E2CF982108D7723656D4F0938E5B571C791E674683694EC040FDEA7071B254E4E30D22253C18F
311
C1E7B94A1A0E32DB84AA35EE54C500D1E7A020A25C6E12EB95B41800AEC928C2B407AD4193BB11BF0E10701514F767923E80BCBEBC13BFFF049522EF4A8AE05DE910BC9CB5E9C14489B232C69146F501936C654E5E433CB55A26D9B2F6D6F564A7DF24522EDC2A7330A4948FB49C54D48D5AE4C83B1C0A1E53407AD594CE33
311
5021E7D91A251342EE2EC6AB47F06C5C5A0FD56B107C40375B2F8701C32E33C19399A03A5400994053B1E8D9A2E959B318DED872BB62DBD5A6E9D7DBBEE75DB10BBEF7DED64B1803C1CF447997C0252A18EFCAF819BEEA23DA0464EDC3F90F2011406DBDD2B967FC673EDDE57D23AE807F81F801504B03041400060808007D
311
6E3840C766398B9B0500007B100000340000006662782F44384444394132372D303137322D343646302D383533352D4233453238354438454142432F6F626A656374732E786D6CAD575D8F9B3814FD2B887D064292B6931543354966AA6877DAAA51AB7D1829326018EF980FD9669AD95FBFC76008A4C934BBEA0B60635FDF
311
7BEEB91F0EDEEF736E3D532159595CDBBE3BB12D5AC465C28AECDAAE55EA5CD9D6FB301065A906CB6CAB2039BDB6F5B41D069928EBCA4C253425355747B377CBBF2C19D382DA56CC8994D7B68C1F694E5C52AB32A1F2C94D88226E96EE5DDF6D178EC56682548F47422B2268A1A029E60B48B15AA5FCF170627B61E0E9FF61
311
A09F66D5ECFC2AAFB1677C3E2BA42245FCC361476266FE7C7D3B7DB370DECCE73367FE76EA3BCBBBE5DAF1DFCD26ABB7ABD5E2E6768183A5129064341134B5C30FC046B038F0DA5F6150B342CDA66689719027E833D39EB2C3A9E5075EBBA6B7CE18794AFDB82C0A1A3758018DC63E233AA1152D12F89C5109CD06084DC643
311
5FE338F83DD36373E470FA3204863B06823ADDBBF750D332FA1B26C84B182424D50C6CB13486B65C9D1C108ECA929B7F4C5A39515430C22DCE2241C48B1D62A95E120623319AC9424783B6C00EE185F6F7982E08A39FF3FC949669CDB9A6B11D3651B043AC50251BCDD83F541CB41F22039DE02BCD862B63907AA9A81D2E5A
311
8A5C1DB1A905D24A39C9E07298A977CEA64786AE749C6ED676F8C75DB4DFEAD83D7D7825CA8A0AA5E9036A758EEBDE1A25A3937F91E7F406FB489503285F80FC4784FA4115F84DB0FD7C3F37A728410A999622876FAC89E54CF098587EF3D4DF83AFC0EB378FBD770E4F385B43F50BF01CDB30F4E500CE307806E14B3133A6
311
6D63C29136EE59018034492C5E620A79388DF676B841964356C62EC2431F2643DD677C069E118344D19C347817C0F2282D5E90A0015BC348A8D192DF2878F0D30FE9AC39D82C3B07EF9B5F42D79BF5F68F6D2D5212D37B13D36B9AB2822994B8036F860A8D301F59F4445FBE972281A13FE2BD1DE29D9BA324D0D6986BE0B3
311
2EA7EBC1E1E4D10131F665A54E37C14F4E8011BAB00EE4DF331953CE4941CBBA3BF7D5FA81B2D142AC835D33B92F3087C202D2B47F8E6210453A16ACD220F6D5AA4F9AEE19EBBE6E3E829176B87CF993BC0CB35774C8BD71C94BB18B5E766D5A3A09F5B731B70D069E9602BA3741D2C5BF017D97B034AD2592E0095CBF6D56
311
43DFE9B48014D1496DA3650EFB115C4418D2767251AD0541252D8B1D43DD44DC9D3C60281F901A063402CF692C294F778CF33ADFA58CA31AED72529D81E3FFEB1FD579B523795917EA8CEC91EAA80E63DD47EC95DF898A1FED70DBBC9D25726F42933364D0B5E4045623D72EFC353AA5DB9573379D4D9DF9CDF4D6594E96B7
311
CEBBE57CB598DF2D26D3F955E7A7569330E84ACD30A2E12594B6A016CCB8EFEB06F16392801DDE13251F3EB4E1D9BDBF6E5CF4C281873DA897FDC69BE4197D1F4D7E2EE0B0F2A4A04D5E719AD342111D43F7FA837F21E83346CAB4F39B9C64F402299F3E6C8F8CC1CC05FB3EEB78A7DF8FF69AD9950EC89342D4639D470561
311
FC6863D622E9564566F0EB7CD2BFDB42D30DF5C838069DA92C394B9007132BA3654E15B2E1054548E454827AC39E3E31778F0B763FB71DA22211A79D268F044D3297080B50AB8ED578DEFA0D4D9DEEABAE6D945BF7090F93296C0B9CB9B6D1A42B1653E94628D0BA156A84834BC34E1E8D3F29328E5EBBDDD48FFB5D1A9B51
311
49EE975CD23F19BBDA146E0C401AA9D037A02182771A65C2A0D1CDFC8FFF93E19D3A1651F88C6AD5DB7298E88D698E4188B64699DB029A982773F41E81FABA59BEDBAC192172D12DEB5512B4521D4544D6DC14B47E46A59BF5670F1D8AB5F96455BCCEE0CBCB25398282CCB50E70B008AC30322BA240D5D5EF0F9F45899B6C
311
6EDD3150E06155E6795998C18DB9095BDB47DC6B9307A405AA2F24F2613AF1A70FCD45C0DC4D761191D425897CC2047C2A580FF1C8F160647B5B44056A7FF4EB3CED84236E6ED6962969730835441966550D0B5A8E825A881E7D99D4B1325C50BD7A17F09AA55041A08B0FFF05504B03041400060800007D6E384000000000
311
0000000000000000350000006662782F44384444394132372D303137322D343646302D383533352D4233453238354438454142432F76657274696365732E62696E504B03041400060808007D6E3840F270F1330600000004000000360000006662782F44384444394132372D303137322D343646302D383533352D42334532
311
38354438454142432F747269616E676C65732E62696E636660600000504B03041400060800007D6E3840000000000000000000000000370000006662782F44384444394132372D303137322D343646302D383533352D4233453238354438454142432F617474726962757465732E62696E504B03041400060808007D6E3840
311
D5987DFC8F00000041010000360000006662782F44384444394132372D303137322D343646302D383533352D4233453238354438454142432F6469726563746F72792E786D6C858F410EC2201045AF4266AF15DDB800BA74E7C21B903225242D6328188F2FA5C4183471359997F9FF81E89FF3C41E1816475E02DF1F80A11F
311
C8386F25A438EECEC07A250251FC3803E6F58C12560C4AD840E95E91C151A72936F496F35732D860FE635F62C8F2DA16B505C545B74125BAA2FA9E05D7CC053D063734D5C7665FD55B6B8D15D5E9BFEAFD8490FFA45E504B03041400060808007D6E384044186CBDFC000000A00100003B0000006662782F44384444394132
311
372D303137322D343646302D383533352D4233453238354438454142432F7265736F75726365732F636F72652E786D6C8D504B6E833010BD0A9ABDC1069312641C914A9CA017B0CC24B112ECC89FAAC7AF09546A77DDCC8CDE47F3F4C4E96B79149FE883717600565228D06A371B7B1D20C50BE9A03849E19D8BBF645058B5
311
E0002B0C525CBD4BCF1DD2CE46B431A3D6CDB8832A048C50E8473E0608FA868B2A558A5911EEE553E9BBBA62C9CA4C679D1421FA1CA0D89EAC13A4C7E092D71844B5B152A464E65D63E6FCD35C0C7A90BC6BDED87B33123E3613E1E7434BCEFC4CC9B11DA7A69BF8786CB9A856B314D12C3F19B54715710659535613CA48CD
311
3F58D3B7AC6F3B420F3DA5A25AE57F4CE939FFD3948C8D4DBDC7DD6C0124CB415E8414D5DA575EAF32F35EBB95DF504B010214000A00000800007D6E38403DEE336E79000000790000001B00000000000000000000000000000000006175746F6465736B2D64657369676E2D7061636B6167652E786D6C504B010214001400
311
060808007D6E3840D486FD9CA0000000F40000001300000000000000000000000000B20000005B436F6E74656E745F54797065735D2E786D6C504B010214001400060808007D6E38402CF2318CEA0000007C010000080000000000000000000000000083010000636F72652E786D6C504B010214001400060808007D6E3840
311
55019EA25F0000007C000000070000000000000000000000000093020000636E782E786D6C504B010214001400060808007D6E38406E92A02E66010000020300000C00000000000000000000000000170300006662782F636F72652E786D6C504B010214001400060808007D6E38402E279E9A7E0000009D0000000B000000
311
00000000000000000000A70400006662782F636E782E786D6C504B010214001400060808007D6E3840992673182C0100001402000031000000000000000000000000004E0500006662782F44384444394132372D303137322D343646302D383533352D4233453238354438454142432F636F72652E786D6C504B0102140014
311
00060808007D6E3840C07E94C94D010000330300003000000000000000000000000000C90600006662782F44384444394132372D303137322D343646302D383533352D4233453238354438454142432F636E782E786D6C504B010214001400060808007D6E3840C766398B9B0500007B100000340000000000000000000000
311
0000640800006662782F44384444394132372D303137322D343646302D383533352D4233453238354438454142432F6F626A656374732E786D6C504B010214001400060800007D6E38400000000000000000000000003500000000000000000000000000510E00006662782F44384444394132372D303137322D343646302D
311
383533352D4233453238354438454142432F76657274696365732E62696E504B010214001400060808007D6E3840F270F13306000000040000003600000000000000000000000000A40E00006662782F44384444394132372D303137322D343646302D383533352D4233453238354438454142432F747269616E676C65732E
311
62696E504B010214001400060800007D6E38400000000000000000000000003700000000000000000000000000FE0E00006662782F44384444394132372D303137322D343646302D383533352D4233453238354438454142432F617474726962757465732E62696E504B010214001400060808007D6E3840D5987DFC8F0000
311
00410100003600000000000000000000000000530F00006662782F44384444394132372D303137322D343646302D383533352D4233453238354438454142432F6469726563746F72792E786D6C504B010214001400060808007D6E384044186CBDFC000000A00100003B00000000000000000000000000361000006662782F
311
44384444394132372D303137322D343646302D383533352D4233453238354438454142432F7265736F75726365732F636F72652E786D6C504B0506000000000E000E00800400008B1100000000
310
504B03040A00000800007D6E38403DEE336E79000000790000001B0000006175746F6465736B2D64657369676E2D7061636B6167652E786D6C3C3F786D6C2076657273696F6E3D22312E302220656E636F64696E673D227574662D3822203F3E3C666F726D6174733E3C666F726D61743E687474703A2F2F736368656D612E
310
6175746F6465736B2E636F6D2F64657369676E2D7061636B6167652F323030393C2F666F726D61743E3C2F666F726D6174733E504B03041400060808007D6E3840D486FD9CA0000000F4000000130000005B436F6E74656E745F54797065735D2E786D6C7D8EC10E82300C865F65E91D8A1E8C310C0EEA1BF002731658846E
310
D98AC1B77784ABF1D8FE5FBFBF75BBCE937A534CCEB38643598122B6FEE978D0B0485F9C41B54DDD7D022595594E1A469170414C76A4D9A4D207E29CF43ECE46F218070CC6BECC4078ACAA135ACF422C856C0E68EA1BF5669944DDD7BCDE7B1F8E415D77AECB980613C2E4AC91FC167A2B244592486606FC29C8FD7F045B9A
310
EF7053A7E60B504B03041400060808007D6E38408E42BAB6EA0000007C01000008000000636F72652E786D6C8D90416EC3201045AF82668F0DD88E708489DCBA39412F8030715062B00C543D7E71E248EDAEAB19FDF96F66F4C5E97BBEA32FB306EB5D07B420808CD37EB46EEA20C50BE6804E52ACDEC75F36404ECDA6834D
310
0629A6D5A76597B477D1B89855E747B38B2A041301E97B6E3A08FA6A6655A814B323DC8A45E99B9A4C415F5D8653B2237A1EB163DE672FD6AC208743CB6B466A4CFB86E2BA1A5ADCF79C62FE31F0F6DC9C59FDFE26CA0D9622DAF9755FAF464533826484324C2866F527AD8E0D3D361C93C39110516EF63F505AC67F42C9BA
310
58B1FDDD271640D2FCC8632045B96591CB23A85CB7DCE40F504B03041400060808007D6E384055019EA25F0000007C00000007000000636E782E786D6C4DCB3B0E80201045D1AD90E915ED2CF8AC45050C11660C8261F98AB1B07AC9C97D42D718D865D3E909258CFD00CCE24AC6E326A164D74DC0B4128928FF326038472B
310
A13128B1252AC747C6BAB984FC68F0B87FE8960A5C09FE86CFB69FBA01504B03041400060808007D6E384097927C3966010000020300000C0000006662782F636F72652E786D6C8D52ED8E8230107C95A6FF4B298241536ABCF37C827B810A956B84969496F8F8B77C18CF8B3186A434333BBBB3037C776D1B3428D76B6B0A
310
CCA21823654A5B69531738F833C931DA09EEACF57FCA3032B255051E612C78ED6CE816A8B4C62BE30135B6520B28FB5E798CCA062E05EECB1FD5CA48060F15FD25EA647991B58A580434D409DE7B0706D03C643CB1389FAE9CCEB8E021E86A617505D3F4592B87C561BDC9D3244E09DB678CA4ABC386ECF73923F9D721DF1C
310
B363927E7E703A8A05F7BABDB92B9D925E555824314B48CC48927EB3D53663DB2C27F17A1BC79C8EE50FA2D0556F8A82367E952C7667598F05032313F16F5B88C8A35E0EE0870A4EC710E13525FC18340402217B796A6E7B5C001A54E9AD4B81A96CB853836C8282A9319A1E4E67163A4F0D60B3A77D92177D5EF7800F284D
310
0DD6A487EB29F8713A9FA72E5174CA91C15F91B1AE95CDDDDC6CF17EDE073D9597B6B1EE1D355D56A54B9874FC7BC52F504B03041400060808007D6E3840F43928A37D0000009D0000000B0000006662782F636E782E786D6C4DCCD10AC2201886E15B91FFDC3643EA0FD4614BEF63343724A7611A5D7E5BECA0A30F1E3E5E
310
D17D9640DE2EBF7C8A12D8A105E2E23D8D3ECE126A992802E994C82995BF1B90382C4EC2C6A0C49C537DEE34BA69A8A1AC1A7C7CEC78418DF6DC5F29D79651CEF8896A6318B5FDB145346819DEA051A2F995D6DDC2EA0B504B03041400060808007D6E3840630418682B01000014020000310000006662782F393841384637
310
43422D344146312D343134362D414545312D4643323038384538463138442F636F72652E786D6C8D51CB6EC32010FC15C4293D6083ED3824C244691A7F417F8000495162B07854F9FCE2DA91DA5B2E2C9A9D991DEDB2FD63B8836FED8371B683A4C010682B9D32F6DAC1142F8842B0E7CC3B17FFD020B062D01D9C60C8D9D5
310
BB342E9074366A1B336A9DD20B2842D0110279CF9F0E06F9A5075188143323DC8A51C89BB8EA8214B99D799C85E87300300F995EC8B7F440FBCDF11D35879EA086342D3A9C4E04F5C70A537AA23DA11FAC9C859CA564D422372AC73117A3FDAB269398B36886677CE9B5885A415E6152214C50D57C927AB726BB3545B8DD61
310
CCCA89FE4F9446F5A228191BEB6A893BCB02E48495738333E5D2F9FE0CA31FA3F3114CF35641CB37C87181EB0DDEAEE9869533352F207BB6CDE219A2F379C1ABDB39B3EBC5B86D382BA71BE5F27BC05CA77BF21F504B03041400060808007D6E3840A6D95BDE5401000033030000300000006662782F39384138463743422D
310
344146312D343134362D414545312D4643323038384538463138442F636E782E786D6CBD93CD6EC32010845F0571F76F1C2B8A30917AE813F4D02B864D4283C1025C356FDF2521692E3954AA7A41D6EC30B3FA84D9EE6B32E4137CD0CE0EB4296B4AC04AA7B43D0C7489FB6243C98E33EF5C7CB05162C504034D32E5ECE0DD
310
326749C15E2C26A26AB43D65D143708B9710504E37897152180C005B2C28C2348252A0C8DD885F7BF0B80A8AE399C42390D79777E2C60F9031B02AA57056A50ECED2999B1E4C944823421868904798442996E8148453A944146553DEBA9EECF49344D2855BE5E23549E5034D27E579A31239B20A879C85E8915E36C5F30C94
310
8B79365A8A8890AB8BF1EAE16CD136F65DF66A04EFD1BD6AFBCD06C32E33CEA29E203BA407114151DED64D5BD44DD1766FCD6ABB6EB6EB4D51F7DBBA6655B273363A67F2258C01EF66229D8D6023E50DABD2F819BEEC234A7B64EDFCF9172011406EBDD2B967FC259FA65F75DD3FF2A92EEF1B7179FC0BF837504B03041400
310
060808007D6E384069D9C1F35A070000941B0000340000006662782F39384138463743422D344146312D343134362D414545312D4643323038384538463138442F6F626A656374732E786D6CED595B739B3814FE2B0CFB6C6C6CA76D76089DC4B98CA79BB6536F3BFBE019460699682304238924DE5FBF4717301093E06DF6
310
AD0F3620A4A373BE73D521F8F89451E70173417276E6FADEC475308BF384B0F4CC2DE576F4C1753E8601CF73D998E63A0C65F8CC55C36E18A43C2F0B3B94E02D2AA9EC8C5E5FFCE5881833EC3A3145429CB922BEC319F25029F3048B7B2F411279E9F6C9F33D33B14D36E5A8B8EB102D10C74C02A730CE808A6398F2DB8F13
310
771C0663F53E0CD4BF9D351B346BDE3F6BACA56E7349989088C5CF58EA90990D6269E6CF2FAFA627A7A393F97C369ABF9BFAA38BEB8BCB91FF7E3659BC5B2C4ECFAF4E81BD4D9E532B53820BCC12D0DFCE0DFD60ACDED4A25B040E711DE78CE15803095069B1BA040916B05503BE49FBD15712355E6B091BCF73F5DEB2D018
310
9EB5A9F4CD1A06448B2E0862B7AB24AEAE4DF9F2CDDF20B81862945C6009DC0AC941BB161E0E5EE18693606C46C360B3D705114E8624E6045187920D471C940253D59430300B2C19E51C1C48394A02AD39F3BA6D5BE099AFBBCE212EB725A5CA33DC503B5604EE87A5D09C917F30DF73DF44067802694BC2E407CBA5DC15D8
310
0D4F83B11E0C0375994DED4B03A4B3A528151A11F3B623E842B9FEF2D20D3F5D6F9E562A1C1CDEBCE07981B95446A7F4A8F90243B6578592DDD61FA439B5008431A0DA957B50BE01F29F217AEC5901BD71F2347F9ADBB9922326B639CF4037CEC4194DE06FE2F8FA5FDD37EE8271BDB8ADBD3E3CC14D15541F7E1ECFB60C1A
310
2BCB7F03CE30780083CFF9CCBE5AC588823DDF120600292371680E4310DAB79B27375C42E084400FAB100D7D1019D87D80DB606CC9ECB552B997F53A0688DA3D66439404B0698B04367AF47403D9839378AFA6A6887DF09EBC89B99E5FAE3EAD4ABE4531BEB53E7D89B784110959F330432DCC5B12DDE3DD63CE1310F439DE
310
AB26DE99DD4A00DA0A73057C5A81A01EF63BB73688615D9AAB7013BCB20308A1727583FE2D1131A614319C97D5BE757453865A7BBCAD19DC706A209E4D3B26CCF10351550538CD7E468B51C8FB31278502D10D6F8C6475D0F47AA4FBBEFC0C1659CFEF99B564107A19A27FEAA0750087966557485B206A8137FB701EE734E7
310
D166179948E7422D016CB4BDE5478B28C47AA32445053C48FB5D155252236D9490EDB61410570FB0F863B9689AC3C49BF9274EF3BFE38C7388B6E0BB885BBFEBEC11910CA538DAA2A46FBBE66E356DA149F690E6784B412EF240E42E42329A24383D069AA3889FBE29F594E642108605E4AB83E037D1987810488C362B9695
310
563B4013116558227A0C028A4C0FB83AEDE81A3786D2E1751E6BEB7D49634DA2FF93457004B564CE2202A528E4905719F7BD1388216D740DCA1D7CC1DA2ADA5A0C5A420911EFA2474CD23B790CEA867C0FEE311C494A19E5058AC1AC07907DE62B4AA91DDE3728BE57F9238A4BFA56062230DD4684D2328BE047189C3C86B8
310
761D985E44A141DCC43E893328CA902CF9904DDE9D4C9EED636A866E086C6CB42514C27694A1A207F55640D4F58853836FA9F7287553664584B2BC64830CC59B75BDC992EFAA55911DC8AF2A15A16CAC085B82614098ACB36A15B3C1D475600537D2816A17099415D49CC25E493C7EED4D9A72EF06DCFAE9DB6E9041E1D7A3
310
BD66449D5730581E5B8581784432BE73C395BE8E2EA0FE4E70B24FF555ADD9AC00013115C94B4EAC8ABE2FA1BCB1359A1BDE2229D63726EB56D7EF4B0FBA1FC118D640ED522F5C2AA033CC245295C9ADBAA1DF1084E0160D33BE5439F5182AE749A2AB4644AF499F3A5B65446BD38C78C51D6679063FB6262CA66582D72811
310
F7D1ADA4D18A28D6AD945E462A8C5F14F0CBCDAA030F8C0C10E9AB2AF0F06367AD1D5DA872E920117957661B860804C19668A9D18D57B0D46AA4D2727D55670AA8BBC0C0AC8AE7BF4E16CD76C4AF93456A0DE3A74E1617BB3FD0AED91769A4F358D9F551C7803A3F292A6F710CD06D879A6A9D454C32B7F25B678A20285651
310
7E703556050D43B08FE3FF9CB5FBB2A0D9AEC3FF7159DB7F56711C95555A935597EA40E5BA6CE6B053FF125AB1578BD1F574361DCDCFA757A38BC9C5D5E8FDC57C713ABF3E9D4CE71F6A34B5A386411DCC74EE826713D4AA61F5643180AEACC82949E0349F382986982FE14C3FA07DCE332C2079369BDD896DCA0F58FD60FA
310
9C126D28AE38B943D020A602D23A6054C6B23DEEFC06AD490907ED33179A46DE3DFC59AB741DC83C672EB40A2489B1F036D066520D3D4D1C52AECEFD9618E08358AA52A259543FD7AB1436ADF05F4F199206AC5CAD1E06146E0574BF5A1D0ACD9BE5293E4AF08A1D0749B8DD9412AA3523CB7EA016466FB357BF918D12766F
310
B77E02D77D592CDFD3735A880CFA64F0A21118AA238978AAFBDD8A31CBD2F9E5D731F4D99CE517A7A0650ABA1C4E69C4311873A90A2AB022B00A4BB340124C75F1FBFA2BCFE1134FE6E8AA68BDC8B32C67F6E11CCE63097C22725677F0C1275943D980555B5DACA7137FBAD6ED6CDB618F3648604FD543305095114A848EB1
310
81453E6B4DD9C6E55829A1337D79E9D8F0096D006341CFBABBE6F39603DEA33EA4285FD11E5EC9F962477BACA7823570E84587FF02504B03041400060800007D6E3840000000000000000000000000350000006662782F39384138463743422D344146312D343134362D414545312D4643323038384538463138442F766572
310
74696365732E62696E504B03041400060808007D6E3840F270F1330600000004000000360000006662782F39384138463743422D344146312D343134362D414545312D4643323038384538463138442F747269616E676C65732E62696E636660600000504B03041400060800007D6E38400000000000000000000000003700
310
00006662782F39384138463743422D344146312D343134362D414545312D4643323038384538463138442F617474726962757465732E62696E504B03041400060808007D6E3840D5987DFC8F00000041010000360000006662782F39384138463743422D344146312D343134362D414545312D464332303838453846313844
310
2F6469726563746F72792E786D6C858F410EC2201045AF4266AF15DDB800BA74E7C21B903225242D6328188F2FA5C4183471359997F9FF81E89FF3C41E1816475E02DF1F80A11FC8386F25A438EECEC07A250251FC3803E6F58C12560C4AD840E95E91C151A72936F496F35732D860FE635F62C8F2DA16B505C545B74125BA
310
A2FA9E05D7CC053D063734D5C7665FD55B6B8D15D5E9BFEAFD8490FFA45E504B03041400060808007D6E3840512C700EFC000000A00100003B0000006662782F39384138463743422D344146312D343134362D414545312D4643323038384538463138442F7265736F75726365732F636F72652E786D6C8D50596E833010BD
310
0A9A7F83CD1241641CD1D29CA017B0CC845A0936F252F5F835814AED5F7F66466FD13C3D7EF95A1ED9273AAFADE981E5143234CA4EDACC3DC470232D6417C19DB5E1970C322317EC618341F0D9D9B81E90B226A009093576C20394DE63804C3DD2D183571FB8C85CC69014FE9EAF52DDE58C39CB139D7482FBE052806C7FB2
310
4D100EBD8D4EA1E7C5CE0A1EA39E0E8D9ED24F7DD3E8408CA7AEAD4B5A1136348CD4D5D89161681969DFC6B6BB36D7B27E7DE1C566163CE8E527A37228034E204ACA4A421929EB77569D1B766E5A424F674A79B1C9FF98E23AFDD314B5095579C4DD6D1E044B419E84E0C5D6575ACF32D3DEBA15DF504B010214000A000008
310
00007D6E38403DEE336E79000000790000001B00000000000000000000000000000000006175746F6465736B2D64657369676E2D7061636B6167652E786D6C504B010214001400060808007D6E3840D486FD9CA0000000F40000001300000000000000000000000000B20000005B436F6E74656E745F54797065735D2E786D
310
6C504B010214001400060808007D6E38408E42BAB6EA0000007C010000080000000000000000000000000083010000636F72652E786D6C504B010214001400060808007D6E384055019EA25F0000007C000000070000000000000000000000000093020000636E782E786D6C504B010214001400060808007D6E384097927C
310
3966010000020300000C00000000000000000000000000170300006662782F636F72652E786D6C504B010214001400060808007D6E3840F43928A37D0000009D0000000B00000000000000000000000000A70400006662782F636E782E786D6C504B010214001400060808007D6E3840630418682B01000014020000310000
310
00000000000000000000004D0500006662782F39384138463743422D344146312D343134362D414545312D4643323038384538463138442F636F72652E786D6C504B010214001400060808007D6E3840A6D95BDE54010000330300003000000000000000000000000000C70600006662782F39384138463743422D34414631
310
2D343134362D414545312D4643323038384538463138442F636E782E786D6C504B010214001400060808007D6E384069D9C1F35A070000941B00003400000000000000000000000000690800006662782F39384138463743422D344146312D343134362D414545312D4643323038384538463138442F6F626A656374732E78
310
6D6C504B010214001400060800007D6E38400000000000000000000000003500000000000000000000000000151000006662782F39384138463743422D344146312D343134362D414545312D4643323038384538463138442F76657274696365732E62696E504B010214001400060808007D6E3840F270F133060000000400
310
00003600000000000000000000000000681000006662782F39384138463743422D344146312D343134362D414545312D4643323038384538463138442F747269616E676C65732E62696E504B010214001400060800007D6E38400000000000000000000000003700000000000000000000000000C21000006662782F393841
310
38463743422D344146312D343134362D414545312D4643323038384538463138442F617474726962757465732E62696E504B010214001400060808007D6E3840D5987DFC8F000000410100003600000000000000000000000000171100006662782F39384138463743422D344146312D343134362D414545312D4643323038
310
384538463138442F6469726563746F72792E786D6C504B010214001400060808007D6E3840512C700EFC000000A00100003B00000000000000000000000000FA1100006662782F39384138463743422D344146312D343134362D414545312D4643323038384538463138442F7265736F75726365732F636F72652E786D6C50
310
4B0506000000000E000E00800400004F1300000000
  0
XRECORD
  5
17
102
{ACAD_REACTORS
330
12
102
}
330
12
100
AcDbXrecord
280
     1
270
     1
271
     1
  0
XRECORD
  5
16
102
{ACAD_REACTORS
330
12
102
}
330
12
100
AcDbXrecord
280
     1
270
     1
271
     1
  0
XRECORD
  5
18
102
{ACAD_REACTORS
330
12
102
}
330
12
100
AcDbXrecord
280
     1
270
     1
271
     1
  0
XRECORD
  5
15
102
{ACAD_REACTORS
330
12
102
}
330
12
100
AcDbXrecord
280
     1
270
     1
271
     1
  0
XRECORD
  5
883
102
{ACAD_REACTORS
330
22
102
}
330
22
100
AcDbXrecord
280
     1
102
MATERIAL
148
0.0
149
0.0
149
0.0
 93
        0
 94
      127
282
     0
 72
     0
 77
     0
171
     0
175
     0
179
     0
273
     0
  0
XRECORD
  5
24
102
{ACAD_REACTORS
330
22
102
}
330
22
100
AcDbXrecord
280
     1
270
     1
271
     1
  0
XRECORD
  5
23
102
{ACAD_REACTORS
330
22
102
}
330
22
100
AcDbXrecord
280
     1
270
     1
271
     1
  0
XRECORD
  5
BA
102
{ACAD_REACTORS
330
22
102
}
330
22
100
AcDbXrecord
280
     1
 70
     1
 90
1959938040
 71
     1
  1
56CC12AA-EA19-49BD-BC1E-3249F3169EFC
311
504B03040A00000800007C6E38403DEE336E79000000790000001B0000006175746F6465736B2D64657369676E2D7061636B6167652E786D6C3C3F786D6C2076657273696F6E3D22312E302220656E636F64696E673D227574662D3822203F3E3C666F726D6174733E3C666F726D61743E687474703A2F2F736368656D612E
311
6175746F6465736B2E636F6D2F64657369676E2D7061636B6167652F323030393C2F666F726D61743E3C2F666F726D6174733E504B03041400060808007C6E3840D486FD9CA0000000F4000000130000005B436F6E74656E745F54797065735D2E786D6C7D8EC10E82300C865F65E91D8A1E8C310C0EEA1BF002731658846E
311
D98AC1B77784ABF1D8FE5FBFBF75BBCE937A534CCEB38643598122B6FEE978D0B0485F9C41B54DDD7D022595594E1A469170414C76A4D9A4D207E29CF43ECE46F218070CC6BECC4078ACAA135ACF422C856C0E68EA1BF5669944DDD7BCDE7B1F8E415D77AECB980613C2E4AC91FC167A2B244592486606FC29C8FD7F045B9A
311
EF7053A7E60B504B03041400060808007C6E384024DB9960EA0000007C01000008000000636F72652E786D6C8D905D6EC3201084AF82F61D1BF04F130B13396E6ED00B20202E4A0C9681AAC72F4E1CA97DEBD3AE86F9D8D1F0D3F77C475F660DD6BB1E68410019A7BCB66EEA21C52B3E003A09BE7A1F7FD90039399B1E3619
311
049F569F965D52DE45E362569DD766176508260252F7BCF410D4A799652153CC8E702B16A96E7232057D6D194EC96AF43C6275FECF5EAD5941D0911CDB6A1C31ABAA11D7C385E1E1D85C705D9F8776B8BC9FC703E3E5060B1EEDFCBAAF5623A3D12018A10C138A59FD41ABAEA15DF38649DB11C2CBCDFE074A8BFE2794AC8B
311
15DBE33EB190B3E6208F07C1CBAD8B3C1E45E5B9F5267E00504B03041400060808007C6E384055019EA25F0000007C00000007000000636E782E786D6C4DCB3B0E80201045D1AD90E915ED2CF8AC45050C11660C8261F98AB1B07AC9C97D42D718D865D3E909258CFD00CCE24AC6E326A164D74DC0B4128928FF326038472B
311
A13128B1252AC747C6BAB984FC68F0B87FE8960A5C09FE86CFB69FBA01504B03041400060808007C6E3840CC7A8DC966010000020300000C0000006662782F636F72652E786D6C8D52ED8E8320107C15C27FC4AFF67A0DD258AF6F702F40957AA40A06C1F4F16FFD68BC5E9AA6314132B3B33B3BCA0EB7B64183B4BD323AC3
311
5110622475692AA5EB0C7B77213B8C0E9C5963DC9F328CB4686586471873565BE3BB052A8D76523B40B5A9E4028ABE970EA3B2814B86FBF247B62210DE41457F0D3A515E452D8328001AEA38EB9D0503681E329E985FCE3746679C33EF55B5B0AA8269EAA2A4C53C2AC2CF6D5214244E9282A4F92926F9E7E644D2F4986FF3
311
D3D7B1D8C58C8E62CE9C6AEFEE4A2B859315E67118C5248C489C7E47C97E13ED371F24DCEEC390D1B1FC41E4BBEA4D9157DA25F1627796F5E0158C4CC4BF6D2122877A31801FCA191D4384D794F063D0100884ECC4B9B9EF71056890A5333605A6327EA506D178095343343D8CCE2C749E1AC0664FFBC42FFABCEE011F50E8
311
1AAC0907D7B377E374364F5DA2E8A42583BB216D6C2B9AD5DC6C713DD7414FE5A5698C7D474D9755E912261DFF5EFE0B504B03041400060808007C6E3840F776B2637E0000009D0000000B0000006662782F636E782E786D6C4DCCD10A83201886E15B91FFDC65EB7716A861B0DD472C0B99E9703A76F9ABD1C18E3E78F878
311
65FF593D79DBF4723128A84F0C880DF738B9B0282879A62D905ECB1463FEBB0109E36A15EC0C5A2E2996E741939DC7E2F3A6DE85C7819C35889D416AC475A078E12D35E6C6686706E45D23509C6BA8B4AC7EA56DF7B0FE02504B03041400060808007C6E3840233DA1FE2C01000014020000310000006662782F3530333434
311
3941342D413745422D343635382D414146302D3941423435393337343732312F636F72652E786D6C8D51CB6EC32010FC158B537AC0061BEC38C2448ED47E417FC0B1498A1283C5A3CAE777A91DA9BDE5C2A2D999D98115C7C77CCFBE95F3DA9A0ED19CA04C99D14EDA5C3B14C305EF517694C2591BFED0506686597528C148
311
8AABB371D9A0D19AA04C00D4D8496DE0E0BD0A281BEF70E9901FBFD43CE4430CC0F0B77C19C6DB705539CDA10D3C297C7010205B87A413494E2AC6DA9EE1BE793F6156F33DEEFB0F82DBFEC4785B35AC29A92856A11431EA6993EB09E2E88B56EE5593249622E8F9197F746A086A42B224B4C484E2927DD2EAC0E9813798D4
311
07424491E8FF4471995E14456D42556E71579947125EB336A4986C3CDF9F61D463B12E6469DECEABF10D4992938AD755D98264A5C2078067CD364F1FAC830FDEDDCEC0A65C14C9B86652146947507E170835ED53FE00504B03041400060808007C6E38400CB7BB7C4D01000033030000300000006662782F35303334343941
311
342D413745422D343635382D414146302D3941423435393337343732312F636E782E786D6CD593CD6E022114855F85B09F1F74B48D6130E9A24FD045B708574B6560C24F53DFBE1745EBC64597DD90C9B987736EBE307CFB3D59F205211AEF46CADA9E1270CA6BE30E23CD69DF3C53B2153C789FEE6C943839C1488B4C053F
311
049FE72A69D8CB6C13AAD6B8631503449F83828872B949AC57D26200B826A308D30EB4064D6E46FCDA43C05550DC9D48FA00F2FAF24EFCEE13548ABC2B298277A543F072D6A63B1325CACA18471AD5074CB29539790DF1D86A9964CBDA6BD7839D7E9348B970ADCCC190523ED2725251376A9123EF7028784C01E955533ACD
311
40859C676B944C08B93B1B2F1EC1B371693D54AF41F001DD6CBD1C060C3BCF044F6682EA500164024DC5A2678BA667CD627863CBCD8A6D564F4DBFDEF43DEF8A5DF09DF7B65EC218087E26CABB042E51C17857C68FF0551FD126206B1F4E7F0089006AEB85CE2DE33FF3E9CEEF1B7105FC0BC40F504B03041400060808007C
311
6E3840674ECE7B9A0500007A100000340000006662782F35303334343941342D413745422D343635382D414146302D3941423435393337343732312F6F626A656374732E786D6CAD57DB6EDB3810FD1541FBEC8B6CA75B2F14158E9D144691B6A8D1621F0218944429DC50A24052A9D3AFDF4389BAB976EA5DF4C5B2A8E170
311
E6CC990BFD77878C3BCF542A26F26BD71B4F5D87E69188599E5EBBA54E466F5DE75DE04B21744FCC757292D16BD72CBB819F4A51167629A60929B93E5ABDBBF9DB5111CDA9EB449C2875EDAAE89166644C4A2D62AA9EC631D1649C2687B137AE05876A53498AC723A5059134D7B014EB39B438B551DEF075EA4E027F62BE07
311
BEF9B552F3F35293CA9FE1F92C579AE4D14F871DA9997B8BCDEDEC6A39BA5A2CE6A3C59B9937BAB9BBD98CBC3FE7D3F59BF57AB9BA5DE260A52534594B244DDCE03DB0912CF227F5A7C02F59AEE7332B62033491F4999948B9C1CCF1FC492DD37A679D3C657E24F29C46155640A3F2CFAA8E6941F318316754C1B21E42D3E1
311
AB6770EC7D9E9B777B647FF93204FA3B7A8A1ADB9B67DF5211FE0317D4250C928A1A06D6585A476BAE4E3B844321B8FDC69493114D2523DCE12C9444BEB801448D48E00FD418264B930DC603374014EACF43BA208D7ECDF353562625E786C66E5065C11EB942B5AA2C633FA8ECACEF23039B102BC386B7D621FD52503758D6
311
14797BC4A61A4827E12445C8E1A6D9399F1D39BA3679BADDB8C187BBF0B033B97BFAF0428A824A6DE8036A35816B9E06256B937751E4CC06F7C8940E942F40FE2352BD33057193ECB0382CEC295A925C254266888D33754653FC4C1DAFFA35FF7BFFFC49BB7918BD737822D806AADF80E7D0877E2C7B7006FE33082FE4DCBA
311
B68B0847D9B8673900322471B8C012EA70121EDC608B2A87AA8C5D84071E5C86B9CFF8EB4FAC1A148AEAA4DE3307964765F182020DD82A46C28C9AFCD6C02E4E3F95B3EA602B760EDEABDF42D7D566F76157CA8444F4DEE6F486262C671A2DAEE34DDFA001E6038F9EE8CB77216338FA33DEBB3EDE993D4A016D83B9013E6D
311
6ABA79E94E1E1C10615F2A4CB9F17F71029C308DB5A7FF9EA988724E722ACAE6DC57FB07DA460DB14976C3E4B6C1748D05A4A9BF1CE5209A74245961406CBB555B34C767BCFBBAFD0846429E8B90F04E28EC4A6F24B890FBF0655F57A593487F1B52DB4230315AC0F62A479AF4B798EF639624A5420D3C01EBB7EDBA1F3A53
311
1550211AAD75B22CE03E728B48CBD9462F9AB52468A422DF33B44DA4DDC903FAFA81A82540A5F09CC58AF264CF382FB37DC2389AD13E23C51938FEBFFD6199157B928932D767740F4C477318DA3E20AFFA4E74F4E806BBEA39BA41E98D69DC8579206C5AC909AC06A1BDC288E4CD56ABD1EDCA5B8E164B4C4E376BEF76349F
311
2D967773EFCDF2F60EAE5B8BAA192AF09B4ED34F6844099DCD2F25B3E1FBBA45FAD81AE006F744AB87F7757636CFAFDB3146617F823D6897EDC655FC8CB18FC6BF56D0499E54B4CD0A4E339A6B6252E8DEFCE15F08C68C8131F5FA362329BD40CBA7F7BB2367B072C1BECF26DDE9F7A3BD76756D12F2A412FD5866614E183F
311
DA98D6488E8B3CB5F83531699F759F695ECD9B0D0C065325388B51066327A522A31AC5F0821E2433AA40BDFE481FDBABC705BB9FEB01519390D3C692478219992BA405785B467AB8EEFC8199CE8C55D72EBAEDF8093FB652B80E3873ED6246D72CA26A1CA23F9B49A8520E2EF507797096E429C7A85D6F6ADFDB5D069B4147
311
6E452E199FAC5F7505B70EA08C14181B300F213A9531815FD966BF47FFC9F1C61C8768FC0D4BDDFAD22DB4CE54C720456BA7EC650133CC933DFA80447DDD2D6F5CC90C10B9E892F52A096AAD234D645A5D148C7DD6A4D5E6F304038AB3FDE414BC4C11CBCB358D2405994B93E06011586175164483AAEBBF1E3E4B818B6CE6
311
DC3150E0612DB24CE4F665652FC2CEEE11D7DAF80165819AFB887A984DBDD943750FB057937D48141D93583D61013195AC8578107830B2BE2CA203D51F5AB98909C21137B71BC7B6B405945AA2F4ABAA810513474E1D648FB94B9A5CE90B14AF5E052695284C9018E2837F01504B03041400060800007C6E38400000000000
311
00000000000000350000006662782F35303334343941342D413745422D343635382D414146302D3941423435393337343732312F76657274696365732E62696E504B03041400060808007C6E3840F270F1330600000004000000360000006662782F35303334343941342D413745422D343635382D414146302D3941423435
311
393337343732312F747269616E676C65732E62696E636660600000504B03041400060800007C6E3840000000000000000000000000370000006662782F35303334343941342D413745422D343635382D414146302D3941423435393337343732312F617474726962757465732E62696E504B03041400060808007C6E3840D5
311
987DFC8F00000041010000360000006662782F35303334343941342D413745422D343635382D414146302D3941423435393337343732312F6469726563746F72792E786D6C858F410EC2201045AF4266AF15DDB800BA74E7C21B903225242D6328188F2FA5C4183471359997F9FF81E89FF3C41E1816475E02DF1F80A11FC8
311
386F25A438EECEC07A250251FC3803E6F58C12560C4AD840E95E91C151A72936F496F35732D860FE635F62C8F2DA16B505C545B74125BAA2FA9E05D7CC053D063734D5C7665FD55B6B8D15D5E9BFEAFD8490FFA45E504B03041400060808007C6E38403770B7F8FC000000A00100003B0000006662782F3530333434394134
311
2D413745422D343635382D414146302D3941423435393337343732312F7265736F75726365732F636F72652E786D6C8D50596E833010BD0AF2BFC1364B13641C01CD0D7A01CB4C889560232F558F5F13A8D4FEF56766F416CDD3E397AFE5997D82F3DA9A0ED19CA00C8CB29336738762B8E113CA2E823B6BC32F19CA8C5CA0
311
431B8C049F9D8DEB01296B0298905063273840E93D0494A9673A3AE4D51D1699CB1892C23FF255AA879C21A779A2934E701F5C0A90ED4FB68984036FA353E079B1B382C7A8A743A3A7F453DF343824E848CE4D390E9895E588ABFECA707FAEAFB8AA86BEE9AFEFC37862BCD8CC8207BDFC64540E648009094628C38462567D
311
D0B2AD695BBF61D2B484F06293FF31C575FAA7296A134A76C4DD6D3E654D415E84E0C5D6575AAF32D3DEBA15DF504B010214000A00000800007C6E38403DEE336E79000000790000001B00000000000000000000000000000000006175746F6465736B2D64657369676E2D7061636B6167652E786D6C504B01021400140006
311
0808007C6E3840D486FD9CA0000000F40000001300000000000000000000000000B20000005B436F6E74656E745F54797065735D2E786D6C504B010214001400060808007C6E384024DB9960EA0000007C010000080000000000000000000000000083010000636F72652E786D6C504B010214001400060808007C6E384055
311
019EA25F0000007C000000070000000000000000000000000093020000636E782E786D6C504B010214001400060808007C6E3840CC7A8DC966010000020300000C00000000000000000000000000170300006662782F636F72652E786D6C504B010214001400060808007C6E3840F776B2637E0000009D0000000B00000000
311
000000000000000000A70400006662782F636E782E786D6C504B010214001400060808007C6E3840233DA1FE2C0100001402000031000000000000000000000000004E0500006662782F35303334343941342D413745422D343635382D414146302D3941423435393337343732312F636F72652E786D6C504B010214001400
311
060808007C6E38400CB7BB7C4D010000330300003000000000000000000000000000C90600006662782F35303334343941342D413745422D343635382D414146302D3941423435393337343732312F636E782E786D6C504B010214001400060808007C6E3840674ECE7B9A0500007A10000034000000000000000000000000
311
00640800006662782F35303334343941342D413745422D343635382D414146302D3941423435393337343732312F6F626A656374732E786D6C504B010214001400060800007C6E38400000000000000000000000003500000000000000000000000000500E00006662782F35303334343941342D413745422D343635382D41
311
4146302D3941423435393337343732312F76657274696365732E62696E504B010214001400060808007C6E3840F270F13306000000040000003600000000000000000000000000A30E00006662782F35303334343941342D413745422D343635382D414146302D3941423435393337343732312F747269616E676C65732E62
311
696E504B010214001400060800007C6E38400000000000000000000000003700000000000000000000000000FD0E00006662782F35303334343941342D413745422D343635382D414146302D3941423435393337343732312F617474726962757465732E62696E504B010214001400060808007C6E3840D5987DFC8F000000
311
410100003600000000000000000000000000520F00006662782F35303334343941342D413745422D343635382D414146302D3941423435393337343732312F6469726563746F72792E786D6C504B010214001400060808007C6E38403770B7F8FC000000A00100003B00000000000000000000000000351000006662782F35
311
303334343941342D413745422D343635382D414146302D3941423435393337343732312F7265736F75726365732F636F72652E786D6C504B0506000000000E000E00800400008A1100000000
310
504B03040A00000800007C6E38403DEE336E79000000790000001B0000006175746F6465736B2D64657369676E2D7061636B6167652E786D6C3C3F786D6C2076657273696F6E3D22312E302220656E636F64696E673D227574662D3822203F3E3C666F726D6174733E3C666F726D61743E687474703A2F2F736368656D612E
310
6175746F6465736B2E636F6D2F64657369676E2D7061636B6167652F323030393C2F666F726D61743E3C2F666F726D6174733E504B03041400060808007C6E3840D486FD9CA0000000F4000000130000005B436F6E74656E745F54797065735D2E786D6C7D8EC10E82300C865F65E91D8A1E8C310C0EEA1BF002731658846E
310
D98AC1B77784ABF1D8FE5FBFBF75BBCE937A534CCEB38643598122B6FEE978D0B0485F9C41B54DDD7D022595594E1A469170414C76A4D9A4D207E29CF43ECE46F218070CC6BECC4078ACAA135ACF422C856C0E68EA1BF5669944DDD7BCDE7B1F8E415D77AECB980613C2E4AC91FC167A2B244592486606FC29C8FD7F045B9A
310
EF7053A7E60B504B03041400060808007C6E384097A37A46E90000007C01000008000000636F72652E786D6C8D90416EC3201045AF82668F0D26765C0B1355717D825E0001715162B00C443D7E71E248EDAEAB19FDF96F66F4F9E97BBEA1BB5983F5AE075A1040C629AFAD9B7A48F1825B4027C157EFE32F1B202767D3C326
310
83E0D3EAD3B24BCABB685CCCAAF3DAECA20CC14440EA969B1E82FA32B32C648AD911AEC522D5554EA6A0AF2EC329598D9E47ACCEFBECC59A15C41B6DABA66D07DCB4F5800F4DCDF0FBC818A6C3F9E3385684B27AE4E5060B1EEDFCBAAF5623A3D120B2A3C284E2EAF0495957D3AE3E62D27484F072B3FF81D2A2FF0925EB22
310
ABF6779F580041F3238F81E0E596452E8FA072DD72133F504B03041400060808007C6E384055019EA25F0000007C00000007000000636E782E786D6C4DCB3B0E80201045D1AD90E915ED2CF8AC45050C11660C8261F98AB1B07AC9C97D42D718D865D3E909258CFD00CCE24AC6E326A164D74DC0B4128928FF326038472BA1
310
3128B1252AC747C6BAB984FC68F0B87FE8960A5C09FE86CFB69FBA01504B03041400060808007C6E384059E161C266010000020300000C0000006662782F636F72652E786D6C8D52ED8E8320107C15C27F44B45AAF419ACBF5FA04F70254A947AA60104C1FFFD68FA6D74BD35C4C90CCECECCE8EF2FDB56BD1A8DCA0AD2931
310
8B628C94A96CAD4D53E2E0CFA4C0682FB8B3D6FF2AC3C8C84E957882B1E08DB3A15FA1CA1AAF8C07D4D85AADA01C06E531AA5AB89478A8BE552723193C540C97A897D545362A6211D05027F8E01D1840CB90E9C4E27CBA72BAE08287A0EB95D5354CD367AD1C166FAC48F2A23890BCC80E64936729793FA62961878FCFED31
310
89599A1D399DC4827BDDDDDC554E49AF6A2CA022213123C9E68BA5BB8CEDB22D89F35D1C733A953F88425FFF5314B4F169B2DA5D6403160C8CCCC49F6D21228F0639821F2A389D4284D79CF063D0100884ECE5A9BDED7101685495B76E034C6DC39D1A651B144C8DD1FC70BAB0D0796E009B3DED93BCE8F3BA077C40691AB0
310
263D5C4FC14FD3F932758DA2578E8CFE8A8C759D6CEFE6168BF7F33EE8A9BCB2AD75FF51D37555BA8649A7BF57FC00504B03041400060808007C6E38407C10AAD57D0000009D0000000B0000006662782F636E782E786D6C4DCCD10A83201886E15B91FFDC65E2D2408D98751FB12C64A6C3E9D8E5AF46073BFAE0E1E395DD
310
67F3E86DD3CBC5A0A0BE104036DCE3ECC2AAA0E4050B409D9629C6FC770314A6CD2A3818B45C532CCF9366BB4CC5E75DBD0B8F1319BF0E82B4020F74BC61C609C33D6D5ACC8531A3E929AF45039596D5AFB4EF11D65F504B03041400060808007C6E3840C8F335392C01000014020000310000006662782F34373545383039
310
382D453246432D343730342D413236392D3738444446444132373138362F636F72652E786D6C8D51CB6EC23010FC15CB277A7062272109C8314205BEA03F101C0316C48EFCA8F8FCAE9B20B5372E5E6B766676B4CB77CFF181BE95F3DA9A0EB38C62A48CB48336D70EC770212D463BC19DB5E10F0D23D38FAAC309C6825F9D
310
8DD302496B823201506307B580BDF72A60241FF0E9B0973735F6591F0330FC3D9B7A79EFAF2A6319B48127B80F0E02A079487AB1A89AF5B1A59B961C8BD327A91A5A917D516F48D31E0EA7C3BE68585BF37C160A1EA31E16B91E208EBE68E5DE354962C1831E5FF1A5537D500316056505A18C14D5172BB76BB65D3784D65B
310
4A799EE8FF44711ADE14456D42592C716799C782F17C6E083ED8787EBCC2A8E7645D4069DECA2BF98105CD68B9815D542099A9B000F0ACABC5D307EB60C1ABFB19D825B092715D099EA71B41F93D20D4744FF103504B03041400060808007C6E38406A10746B5501000033030000300000006662782F34373545383039382D
310
453246432D343730342D413236392D3738444446444132373138362F636E782E786D6CBD93CD6EC32010845F0571F76F1C378A30917AE813F4D02B864D4A83C1025C356FDF2521692E3954AA7A41D6EC30B3FA84D9EE6B32E4137CD0CE0EB4296B4AC04AA7B43D0C7489FB6243C98E33EF5CBCB35162C504034D32E5ECE0DD
310
326749C15E2C26A26AB43D66D143708B9710504E37897152180C005B2C28C2348252A0C8CD885F7BF0B80A8AE389C477202FCF6FC48D1F206360554AE1AC4A1D9CA53337DD992891468430D020DF6112A558A253108EA51251944D79ED7AB0D34F124917AE958BD724950F349D94E78D4AE4C82A1C7216A2477AD9144F3350
310
2EE6D968292242AECEC68B87B345DBD877D9AB11BC47F7AAED371B0C3BCF388B7A82EC901E440445795B376D513745DBBD36ABEDBAD9AE9F8ABADFD635AB929DB3D139932F610C783713E96C041B296F5895C68FF0651F51DA236BE74FBF00890072EB85CE2DE32FF934FDAAEBFE914F757EDF88CBE35FC0BF01504B030414
310
00060808007C6E3840B00BC8A657070000931B0000340000006662782F34373545383039382D453246432D343730342D413236392D3738444446444132373138362F6F626A656374732E786D6CED595B6FA33814FE2B887D0E0949DA9DAC28A336BD281A756634D919ED4324E48043BD3506D9A697FDF57B7C81000D2DD9E9
310
BECD430218FBF89CEF5C7D083E3E65D479C05C909C9DB9BE37711DCCE23C212C3D734BB91B7D709D8F61C0F35C36A6B90E43193E73D5B01B0629CFCBC20E2578874A2A3BA3D7177F3922C60CBB4E4C911067AE88EF70863C54CA3CC1E2DE4B90445EBA7BF27CCF4C6C934D392AEE3A440BC43193C0298C33A0E218A6FCF6E3
310
C41D87C158BD0F03F56F67CD06CD9AF7CF1A6BA9DB5C12262462F10B963A646683589AF9F3CBABE9C96274329FCF46F3D3A93FBAB8BEB81CF9BFCF26CBD3E572717EB500F6B6794EAD4C092E304B407FCF6EE80763F5A616DD227088EB38670CC71A48804A8BD52548B080AD1AF04DDA8FBE92A8F15A4BD8789EABF79685C6
310
F0AC4DA56FD630205A744110BB5D2571756DCA976FFF06C1C510A3E4024BE056480EDAB5F070F00A379C0463331A06DBBD2E887032243127883A946C39E2A01498AAA684815960C928E7E040CA511268CD99D76DDB02CF7CDB750E71B92B29559EE186DAB122703F2C85E68CFC83F99EFB2632C013485B12263F582EE57381
310
DD70118CF56018A8CB6C6A5F1A209D1D45A9D08898B71D4197CAF557976EF8E97AFBB456E1E0F0E605CF0BCCA5323AA547CD1718B2BD2A94ECB6FE20CDA905208C01D5AEDC83F20D90FF0CD163CF0AE88D93A7F9D3DCCE951C31B1CB7906BA7126CE68027F13C7D7FFEABE71178CEBC56DEDF5E1096EAAA0FAF0F378B665D0
310
5859FE1B7086C103187CCE67F6D53A4614ECF996300048198943731882D0BEDB3EB9E10A0227047A588568E883C8C0EE03DC06634B66AF95CABDACD73140D4EE311BA224804D5B24B0D1A3A71BC81E9CC47B353545EC83F7E45DCCF5FC72FD695DF21D8AF1ADF5E94BBC238C48C89A87196A61DE92E81E3F3FE63C01415FE2
310
BD6EE29DD9AD04A0AD3057C0A71508EA61BF736B8318D6A5B90A37C11B3B80102A5737E8DF1211634A11C37959ED5B473765A8B5C7DB9AC10DA706E2D9B463C21C3F10555580D3EC67B41885BC1F73522810DDF0C64856074DAF47BAEFABCF6091F5FC9E592B06A19721FAA70E5A077068597685B405A21678BB0FE7714E73
310
1E6D9F2313E95CA825808DB6B7FC681185586F94A4A8800769BFAB424A6AA48D12B2DB9502E2EA01167FAC964D73987833FFC469FE779C710ED1167C1771EB779D3D2292A114473B94F46DD7DCADA62D34C91ED21CEF28C8451E887C8E908C26094E8F81E628E28B77A59ED25C08C2B0807C7510FC261A130F0289D166C5B2
310
D26A076822A20C4B448F414091E90157A71D5DE3C6503ABCCD636DBDAF69AC49F47FB2088EA096CC5944A014851CF226E3BE770231A48DAE41B9832F585B455B8B414B2821E2E7E81193F44E1E83BA21DF837B0C4792524679816230EB01645FF88A526A87F72D8AEF55FE88E292BE9781084C7711A1B4CC22F81106278F21
310
AE5D07A65751681037B14FE20C8A32244B3E6493D393C98B7D4CCDD00D818D8D768442D88E3254F4A0DE0A88BA1E716AF02DF51EA56ECBAC885096976C90A178B3AE3759F25DB52AB203F955A522948D15614B300C08937556AD623698BA0EACE0463A503D4702650535A7B037128F5F7B93A6DCBB01B77EFABE1B6450F8F5
310
68AF1951E7150C96C75661201E918CEFDC70ADAFA30BA8BF139CEC537D556B362B40404C45F29213ABA2EF2B286F6C8DE686B7488ACD8DC9BAD5F5FBCA83EE4730863550BBD40B570AE80C3389546572AB6EE8370421B845C38CAF544E3D86CA7992E8AA11D16BD2A7CE5619D1DA34235E7187599EC18F6D088B6999E00D4A
310
C47D742B69B4268A752BA597910AE35705FC72B3EEC003230344FAAA0A3CFCD8596B4797AA5C3A4844DE95D996210241B0255A6A74E3152CB51AA9B45C5FD59902EA2E3030ABE2F9AF9345B31DF1EB64915AC3F8B99305CDB788EEA34D239BC7CAAC8F3A05D4E94951798F5380EE3AD454EB246272B915DFFA520431B10AF2
310
838BB12A6618827D1CFFE7A4DD9704CD761DFE8F4BDAFE8B82E3A8A4D29AAC9A54070AD75533859D400FD69F9E9F8FAECEFDC568BE80D6ECC5D2BF1ACDA6F3C5F5CC3F5D5C5D2F6B34B59F86411DCB74EA826713D3AA61F5643180A6ACC82949E0309F382986902FE1483FA07BCE332C2077367BDD89EDC90F58FD60DA9C12
310
6D29AE38B943D01FA602B23A6054C6B23DEEFC069D4909E7EC33177A46DE3DFC59AB741D483C672E740A2489B1F0B6D06552FD3C4D1C32AE4EFD9618E08358AA32A259543FD7AB1436ADE85F4F199205AC5CAD1606D46D0534BF5A0D0ACD9BE5293E4AF08A1D0749B8DD96128A3523CB7EA016466FB357BF918D12766FB77E
310
02D77D5D2CDFD3735A880CFA62F0AA1118AA238978AADBDD8A31CBD2F9E5D731B4D99CD517A7A0650ABA1C4E69C4311873A9EA29B022B00A4BB340124C75F9C7E62BCFE10B4FE6E8A268B3CCB32C67F6E11C8E63097C2172D677F0BD27D940D58055575D6CA6137FBAD1DD6CDB608FB648604F9543305055114A848EB18145
310
BEE84CD9BEE55829A1337D75E9D8F0095D0063412F9ABBE6EB9603DEA3BEA3285FD11E5EC9F96A437BACA7823570684587FF02504B03041400060800007C6E3840000000000000000000000000350000006662782F34373545383039382D453246432D343730342D413236392D3738444446444132373138362F7665727469
310
6365732E62696E504B03041400060808007C6E3840F270F1330600000004000000360000006662782F34373545383039382D453246432D343730342D413236392D3738444446444132373138362F747269616E676C65732E62696E636660600000504B03041400060800007C6E384000000000000000000000000037000000
310
6662782F34373545383039382D453246432D343730342D413236392D3738444446444132373138362F617474726962757465732E62696E504B03041400060808007C6E3840D5987DFC8F00000041010000360000006662782F34373545383039382D453246432D343730342D413236392D3738444446444132373138362F64
310
69726563746F72792E786D6C858F410EC2201045AF4266AF15DDB800BA74E7C21B903225242D6328188F2FA5C4183471359997F9FF81E89FF3C41E1816475E02DF1F80A11FC8386F25A438EECEC07A250251FC3803E6F58C12560C4AD840E95E91C151A72936F496F35732D860FE635F62C8F2DA16B505C545B74125BAA2FA
310
9E05D7CC053D063734D5C7665FD55B6B8D15D5E9BFEAFD8490FFA45E504B03041400060808007C6E384048CDB0FEFD000000A00100003B0000006662782F34373545383039382D453246432D343730342D413236392D3738444446444132373138362F7265736F75726365732F636F72652E786D6C8D905D6E83301084AF82
310
F6DD60432014194755D29CA017B0EC0DB5126CE49FAAC7AF09546ADFFAE2B566BED18E969FBEE647F1893E18674760258502AD72DAD86984146FA487E224B8772EFEC2A0B072C6115619049FBC4BCB2E296723DA9855EB34EEA20C012314EA913F2304F581B32C658A9908F77291EA2E272C5999EDCC091EA2CF058A6DC9FA
310
82F0185CF20A03AF3657F0948CDE19A3F34E7333E841BCB0BEEEFAFE4CBABEBD9043D736E4F5DA34845DCE6FC76B4D59D35E79B586058F66FEE9A83CCA881A44266A4219A90FEFAC195A36B44742BB81525EADF89F505AF43F43C9D8D8D47BDD2D1640B05CE469085EADF7CAE379CC3CD7DB8A6F504B010214000A00000800
310
007C6E38403DEE336E79000000790000001B00000000000000000000000000000000006175746F6465736B2D64657369676E2D7061636B6167652E786D6C504B010214001400060808007C6E3840D486FD9CA0000000F40000001300000000000000000000000000B20000005B436F6E74656E745F54797065735D2E786D6C
310
504B010214001400060808007C6E384097A37A46E90000007C010000080000000000000000000000000083010000636F72652E786D6C504B010214001400060808007C6E384055019EA25F0000007C000000070000000000000000000000000092020000636E782E786D6C504B010214001400060808007C6E384059E161C2
310
66010000020300000C00000000000000000000000000160300006662782F636F72652E786D6C504B010214001400060808007C6E38407C10AAD57D0000009D0000000B00000000000000000000000000A60400006662782F636E782E786D6C504B010214001400060808007C6E3840C8F335392C0100001402000031000000
310
000000000000000000004C0500006662782F34373545383039382D453246432D343730342D413236392D3738444446444132373138362F636F72652E786D6C504B010214001400060808007C6E38406A10746B55010000330300003000000000000000000000000000C70600006662782F34373545383039382D453246432D
310
343730342D413236392D3738444446444132373138362F636E782E786D6C504B010214001400060808007C6E3840B00BC8A657070000931B000034000000000000000000000000006A0800006662782F34373545383039382D453246432D343730342D413236392D3738444446444132373138362F6F626A656374732E786D
310
6C504B010214001400060800007C6E38400000000000000000000000003500000000000000000000000000131000006662782F34373545383039382D453246432D343730342D413236392D3738444446444132373138362F76657274696365732E62696E504B010214001400060808007C6E3840F270F13306000000040000
310
003600000000000000000000000000661000006662782F34373545383039382D453246432D343730342D413236392D3738444446444132373138362F747269616E676C65732E62696E504B010214001400060800007C6E38400000000000000000000000003700000000000000000000000000C01000006662782F34373545
310
383039382D453246432D343730342D413236392D3738444446444132373138362F617474726962757465732E62696E504B010214001400060808007C6E3840D5987DFC8F000000410100003600000000000000000000000000151100006662782F34373545383039382D453246432D343730342D413236392D373844444644
310
4132373138362F6469726563746F72792E786D6C504B010214001400060808007C6E384048CDB0FEFD000000A00100003B00000000000000000000000000F81100006662782F34373545383039382D453246432D343730342D413236392D3738444446444132373138362F7265736F75726365732F636F72652E786D6C504B
310
0506000000000E000E00800400004E1300000000
  0
XRECORD
  5
27
102
{ACAD_REACTORS
330
22
102
}
330
22
100
AcDbXrecord
280
     1
270
     1
271
     1
  0
XRECORD
  5
26
102
{ACAD_REACTORS
330
22
102
}
330
22
100
AcDbXrecord
280
     1
270
     1
271
     1
  0
XRECORD
  5
28
102
{ACAD_REACTORS
330
22
102
}
330
22
100
AcDbXrecord
280
     1
270
     1
271
     1
  0
XRECORD
  5
25
102
{ACAD_REACTORS
330
22
102
}
330
22
100
AcDbXrecord
280
     1
270
     1
271
     1
  0
XRECORD
  5
87E
102
{ACAD_REACTORS
330
87D
102
}
330
87D
100
AcDbXrecord
280
     1
102
ACAD_ROUNDTRIP_2012_MLEADER_STYLE
298
     1
  0
CELLSTYLEMAP
  5
87C
102
{ACAD_REACTORS
330
87B
102
}
330
87B
100
AcDbCellStyleMap
 90
        3
300
CELLSTYLE
  1
TABLEFORMAT_BEGIN
 90
        5
170
     1
 91
        0
 92
    32768
 62
   257
 93
        1
300
CONTENTFORMAT
  1
CONTENTFORMAT_BEGIN
 90
        0
 91
        0
 92
      512
 93
        0
300

 40
0.0
140
1.0
 94
        5
 62
     0
340
55
144
0.25
309
CONTENTFORMAT_END
171
     0
 94
        0
309
TABLEFORMAT_END
  1
CELLSTYLE_BEGIN
 90
        1
 91
        1
300
_TITLE
309
CELLSTYLE_END
300
CELLSTYLE
  1
TABLEFORMAT_BEGIN
 90
        5
170
     1
 91
        0
 92
        0
 62
   257
 93
        1
300
CONTENTFORMAT
  1
CONTENTFORMAT_BEGIN
 90
        0
 91
        0
 92
      512
 93
        0
300

 40
0.0
140
1.0
 94
        5
 62
     0
340
55
144
0.18
309
CONTENTFORMAT_END
171
     0
 94
        0
309
TABLEFORMAT_END
  1
CELLSTYLE_BEGIN
 90
        2
 91
        1
300
_HEADER
309
CELLSTYLE_END
300
CELLSTYLE
  1
TABLEFORMAT_BEGIN
 90
        5
170
     1
 91
        0
 92
        0
 62
   257
 93
        1
300
CONTENTFORMAT
  1
CONTENTFORMAT_BEGIN
 90
        0
 91
        0
 92
      512
 93
        0
300

 40
0.0
140
1.0
 94
        2
 62
     0
340
55
144
0.18
309
CONTENTFORMAT_END
171
     0
 94
        0
309
TABLEFORMAT_END
  1
CELLSTYLE_BEGIN
 90
        3
 91
        2
300
_DATA
309
CELLSTYLE_END
  0
XRECORD
  5
8B4
102
{ACAD_REACTORS
330
87B
102
}
330
87B
100
AcDbXrecord
280
     1
102
ACAD_ROUNDTRIP_PRE2007_TABLESTYLE
 90
      512
 91
        0
  1

 92
      512
 93
        0
  2

 94
      512
 95
        0
  3

  0
XRECORD
  5
88F
102
{ACAD_REACTORS
330
88E
102
}
330
88E
100
AcDbXrecord
280
     1
102
RTVSPropertyOp0
 70
     1
102
RTVSPropertyOp1
 70
     1
102
RTVSPropertyOp2
 70
     1
102
RTVSPropertyOp3
 70
     1
102
RTVSPropertyOp4
 70
     1
102
RTVSPropertyOp5
 70
     1
102
RTVSPropertyOp6
 70
     1
102
RTVSPropertyOp7
 70
     1
102
RTVSPropertyOp8
 70
     1
102
RTVSPropertyOp9
 70
     1
102
RTVSPropertyOp10
 70
     1
102
RTVSPropertyOp11
 70
     1
102
RTVSPropertyOp12
 70
     1
102
RTVSPropertyOp13
 70
     1
102
RTVSPropertyOp14
 70
     1
102
RTVSPropertyOp15
 70
     1
102
RTVSPropertyOp16
 70
     1
102
RTVSPropertyOp17
 70
     1
102
RTVSPropertyOp18
 70
     1
102
RTVSPropertyOp19
 70
     1
102
RTVSPropertyOp20
 70
     1
102
RTVSPropertyOp21
 70
     1
102
RTVSPropertyOp22
 70
     1
102
RTVSPropertyOp23
 70
     1
102
RTVSPropertyOp24
 70
     1
102
RTVSPropertyOp25
 70
     1
102
RTVSPropertyOp26
 70
     1
102
RTVSPropertyOp27
 70
     1
102
RTVSPropertyOp28
 70
     1
102
RTVSPropertyOp29
 70
     1
102
RTVSPropertyOp30
 70
     1
102
RTVSPropertyOp31
 70
     1
102
RTVSPropertyOp32
 70
     1
  0
XRECORD
  5
88D
102
{ACAD_REACTORS
330
88C
102
}
330
88C
100
AcDbXrecord
280
     1
102
RTVSPropertyOp0
 70
     1
102
RTVSPropertyOp1
 70
     1
102
RTVSPropertyOp2
 70
     1
102
RTVSPropertyOp3
 70
     1
102
RTVSPropertyOp4
 70
     1
102
RTVSPropertyOp5
 70
     1
102
RTVSPropertyOp6
 70
     1
102
RTVSPropertyOp7
 70
     1
102
RTVSPropertyOp8
 70
     1
102
RTVSPropertyOp9
 70
     1
102
RTVSPropertyOp10
 70
     1
102
RTVSPropertyOp11
 70
     1
102
RTVSPropertyOp12
 70
     1
102
RTVSPropertyOp13
 70
     1
102
RTVSPropertyOp14
 70
     1
102
RTVSPropertyOp15
 70
     1
102
RTVSPropertyOp16
 70
     1
102
RTVSPropertyOp17
 70
     1
102
RTVSPropertyOp18
 70
     1
102
RTVSPropertyOp19
 70
     1
102
RTVSPropertyOp20
 70
     1
102
RTVSPropertyOp21
 70
     1
102
RTVSPropertyOp22
 70
     1
102
RTVSPropertyOp23
 70
     1
102
RTVSPropertyOp24
 70
     1
102
RTVSPropertyOp25
 70
     1
102
RTVSPropertyOp26
 70
     1
102
RTVSPropertyOp27
 70
     1
102
RTVSPropertyOp28
 70
     1
102
RTVSPropertyOp29
 70
     1
102
RTVSPropertyOp30
 70
     1
102
RTVSPropertyOp31
 70
     1
102
RTVSPropertyOp32
 70
     1
  0
XRECORD
  5
89B
102
{ACAD_REACTORS
330
89A
102
}
330
89A
100
AcDbXrecord
280
     1
102
RTVSPropertyOp0
 70
     1
102
RTVSPropertyOp1
 70
     1
102
RTVSPropertyOp2
 70
     1
102
RTVSPropertyOp3
 70
     1
102
RTVSPropertyOp4
 70
     1
102
RTVSPropertyOp5
 70
     1
102
RTVSPropertyOp6
 70
     1
102
RTVSPropertyOp7
 70
     1
102
RTVSPropertyOp8
 70
     1
102
RTVSPropertyOp9
 70
     1
102
RTVSPropertyOp10
 70
     1
102
RTVSPropertyOp11
 70
     1
102
RTVSPropertyOp12
 70
     1
102
RTVSPropertyOp13
 70
     1
102
RTVSPropertyOp14
 70
     1
102
RTVSPropertyOp15
 70
     1
102
RTVSPropertyOp16
 70
     1
102
RTVSPropertyOp17
 70
     1
102
RTVSPropertyOp18
 70
     1
102
RTVSPropertyOp19
 70
     1
102
RTVSPropertyOp20
 70
     1
102
RTVSPropertyOp21
 70
     1
102
RTVSPropertyOp22
 70
     1
102
RTVSPropertyOp23
 70
     1
102
RTVSPropertyOp24
 70
     1
102
RTVSPropertyOp25
 70
     1
102
RTVSPropertyOp26
 70
     1
102
RTVSPropertyOp27
 70
     1
102
RTVSPropertyOp28
 70
     1
102
RTVSPropertyOp29
 70
     1
102
RTVSPropertyOp30
 70
     1
102
RTVSPropertyOp31
 70
     1
102
RTVSPropertyOp32
 70
     1
  0
XRECORD
  5
8A3
102
{ACAD_REACTORS
330
8A2
102
}
330
8A2
100
AcDbXrecord
280
     1
102
RTVSPropertyOp0
 70
     1
102
RTVSPropertyOp1
 70
     1
102
RTVSPropertyOp2
 70
     1
102
RTVSPropertyOp3
 70
     1
102
RTVSPropertyOp4
 70
     1
102
RTVSPropertyOp5
 70
     1
102
RTVSPropertyOp6
 70
     1
102
RTVSPropertyOp7
 70
     1
102
RTVSPropertyOp8
 70
     1
102
RTVSPropertyOp9
 70
     1
102
RTVSPropertyOp10
 70
     1
102
RTVSPropertyOp11
 70
     1
102
RTVSPropertyOp12
 70
     1
102
RTVSPropertyOp13
 70
     1
102
RTVSPropertyOp14
 70
     1
102
RTVSPropertyOp15
 70
     1
102
RTVSPropertyOp16
 70
     1
102
RTVSPropertyOp17
 70
     1
102
RTVSPropertyOp18
 70
     1
102
RTVSPropertyOp19
 70
     1
102
RTVSPropertyOp20
 70
     1
102
RTVSPropertyOp21
 70
     1
102
RTVSPropertyOp22
 70
     1
102
RTVSPropertyOp23
 70
     1
102
RTVSPropertyOp24
 70
     1
102
RTVSPropertyOp25
 70
     1
102
RTVSPropertyOp26
 70
     1
102
RTVSPropertyOp27
 70
     1
102
RTVSPropertyOp28
 70
     1
102
RTVSPropertyOp29
 70
     1
102
RTVSPropertyOp30
 70
     1
102
RTVSPropertyOp31
 70
     1
102
RTVSPropertyOp32
 70
     1
  0
XRECORD
  5
895
102
{ACAD_REACTORS
330
894
102
}
330
894
100
AcDbXrecord
280
     1
102
RTVSPropertyOp0
 70
     1
102
RTVSPropertyOp1
 70
     1
102
RTVSPropertyOp2
 70
     1
102
RTVSPropertyOp3
 70
     1
102
RTVSPropertyOp4
 70
     1
102
RTVSPropertyOp5
 70
     1
102
RTVSPropertyOp6
 70
     1
102
RTVSPropertyOp7
 70
     1
102
RTVSPropertyOp8
 70
     1
102
RTVSPropertyOp9
 70
     1
102
RTVSPropertyOp10
 70
     1
102
RTVSPropertyOp11
 70
     1
102
RTVSPropertyOp12
 70
     1
102
RTVSPropertyOp13
 70
     1
102
RTVSPropertyOp14
 70
     1
102
RTVSPropertyOp15
 70
     1
102
RTVSPropertyOp16
 70
     1
102
RTVSPropertyOp17
 70
     1
102
RTVSPropertyOp18
 70
     1
102
RTVSPropertyOp19
 70
     1
102
RTVSPropertyOp20
 70
     1
102
RTVSPropertyOp21
 70
     1
102
RTVSPropertyOp22
 70
     1
102
RTVSPropertyOp23
 70
     1
102
RTVSPropertyOp24
 70
     1
102
RTVSPropertyOp25
 70
     1
102
RTVSPropertyOp26
 70
     1
102
RTVSPropertyOp27
 70
     1
102
RTVSPropertyOp28
 70
     1
102
RTVSPropertyOp29
 70
     1
102
RTVSPropertyOp30
 70
     1
102
RTVSPropertyOp31
 70
     1
102
RTVSPropertyOp32
 70
     1
  0
XRECORD
  5
899
102
{ACAD_REACTORS
330
898
102
}
330
898
100
AcDbXrecord
280
     1
102
RTVSPropertyOp0
 70
     1
102
RTVSPropertyOp1
 70
     1
102
RTVSPropertyOp2
 70
     1
102
RTVSPropertyOp3
 70
     1
102
RTVSPropertyOp4
 70
     1
102
RTVSPropertyOp5
 70
     1
102
RTVSPropertyOp6
 70
     1
102
RTVSPropertyOp7
 70
     1
102
RTVSPropertyOp8
 70
     1
102
RTVSPropertyOp9
 70
     1
102
RTVSPropertyOp10
 70
     1
102
RTVSPropertyOp11
 70
     1
102
RTVSPropertyOp12
 70
     1
102
RTVSPropertyOp13
 70
     1
102
RTVSPropertyOp14
 70
     1
102
RTVSPropertyOp15
 70
     1
102
RTVSPropertyOp16
 70
     1
102
RTVSPropertyOp17
 70
     1
102
RTVSPropertyOp18
 70
     1
102
RTVSPropertyOp19
 70
     1
102
RTVSPropertyOp20
 70
     1
102
RTVSPropertyOp21
 70
     1
102
RTVSPropertyOp22
 70
     1
102
RTVSPropertyOp23
 70
     1
102
RTVSPropertyOp24
 70
     1
102
RTVSPropertyOp25
 70
     1
102
RTVSPropertyOp26
 70
     1
102
RTVSPropertyOp27
 70
     1
102
RTVSPropertyOp28
 70
     1
102
RTVSPropertyOp29
 70
     1
102
RTVSPropertyOp30
 70
     1
102
RTVSPropertyOp31
 70
     1
102
RTVSPropertyOp32
 70
     1
  0
XRECORD
  5
8B3
102
{ACAD_REACTORS
330
8B2
102
}
330
8B2
100
AcDbXrecord
280
     1
102
RTVSPropertyOp0
 70
     0
102
RTVSPropertyOp1
 70
     0
102
RTVSPropertyOp2
 70
     0
102
RTVSPropertyOp3
 70
     0
102
RTVSPropertyOp4
 70
     0
102
RTVSPropertyOp5
 70
     0
102
RTVSPropertyOp6
 70
     0
102
RTVSPropertyOp7
 70
     0
102
RTVSPropertyOp8
 70
     0
102
RTVSPropertyOp9
 70
     0
102
RTVSPropertyOp10
 70
     0
102
RTVSPropertyOp11
 70
     0
102
RTVSPropertyOp12
 70
     0
102
RTVSPropertyOp13
 70
     0
102
RTVSPropertyOp14
 70
     2
102
RTVSPropertyOp15
 70
     0
102
RTVSPropertyOp16
 70
     0
102
RTVSPropertyOp17
 70
     0
102
RTVSPropertyOp18
 70
     0
102
RTVSPropertyOp19
 70
     0
102
RTVSPropertyOp20
 70
     0
102
RTVSPropertyOp21
 70
     0
102
RTVSPropertyOp22
 70
     0
102
RTVSPropertyOp23
 70
     0
102
RTVSPropertyOp24
 70
     0
102
RTVSPropertyOp25
 70
     0
102
RTVSPropertyOp26
 70
     0
102
RTVSPropertyOp27
 70
     0
102
RTVSPropertyOp28
 70
     1
102
RTVSPropertyOp29
 70
     1
102
RTVSPropertyOp30
 70
     1
102
RTVSPropertyOp31
 70
     1
102
RTVSPropertyOp32
 70
     1
  0
XRECORD
  5
8A1
102
{ACAD_REACTORS
330
8A0
102
}
330
8A0
100
AcDbXrecord
280
     1
102
RTVSPropertyOp0
 70
     1
102
RTVSPropertyOp1
 70
     1
102
RTVSPropertyOp2
 70
     1
102
RTVSPropertyOp3
 70
     1
102
RTVSPropertyOp4
 70
     1
102
RTVSPropertyOp5
 70
     1
102
RTVSPropertyOp6
 70
     1
102
RTVSPropertyOp7
 70
     1
102
RTVSPropertyOp8
 70
     1
102
RTVSPropertyOp9
 70
     1
102
RTVSPropertyOp10
 70
     1
102
RTVSPropertyOp11
 70
     1
102
RTVSPropertyOp12
 70
     1
102
RTVSPropertyOp13
 70
     1
102
RTVSPropertyOp14
 70
     1
102
RTVSPropertyOp15
 70
     1
102
RTVSPropertyOp16
 70
     1
102
RTVSPropertyOp17
 70
     1
102
RTVSPropertyOp18
 70
     1
102
RTVSPropertyOp19
 70
     1
102
RTVSPropertyOp20
 70
     1
102
RTVSPropertyOp21
 70
     1
102
RTVSPropertyOp22
 70
     1
102
RTVSPropertyOp23
 70
     1
102
RTVSPropertyOp24
 70
     1
102
RTVSPropertyOp25
 70
     1
102
RTVSPropertyOp26
 70
     1
102
RTVSPropertyOp27
 70
     1
102
RTVSPropertyOp28
 70
     1
102
RTVSPropertyOp29
 70
     1
102
RTVSPropertyOp30
 70
     1
102
RTVSPropertyOp31
 70
     1
102
RTVSPropertyOp32
 70
     1
  0
XRECORD
  5
885
102
{ACAD_REACTORS
330
884
102
}
330
884
100
AcDbXrecord
280
     1
102
RTVSPropertyOp0
 70
     1
102
RTVSPropertyOp1
 70
     1
102
RTVSPropertyOp2
 70
     1
102
RTVSPropertyOp3
 70
     1
102
RTVSPropertyOp4
 70
     1
102
RTVSPropertyOp5
 70
     1
102
RTVSPropertyOp6
 70
     1
102
RTVSPropertyOp7
 70
     1
102
RTVSPropertyOp8
 70
     1
102
RTVSPropertyOp9
 70
     1
102
RTVSPropertyOp10
 70
     1
102
RTVSPropertyOp11
 70
     1
102
RTVSPropertyOp12
 70
     1
102
RTVSPropertyOp13
 70
     1
102
RTVSPropertyOp14
 70
     1
102
RTVSPropertyOp15
 70
     1
102
RTVSPropertyOp16
 70
     1
102
RTVSPropertyOp17
 70
     1
102
RTVSPropertyOp18
 70
     1
102
RTVSPropertyOp19
 70
     1
102
RTVSPropertyOp20
 70
     1
102
RTVSPropertyOp21
 70
     1
102
RTVSPropertyOp22
 70
     1
102
RTVSPropertyOp23
 70
     1
102
RTVSPropertyOp24
 70
     1
102
RTVSPropertyOp25
 70
     1
102
RTVSPropertyOp26
 70
     1
102
RTVSPropertyOp27
 70
     1
102
RTVSPropertyOp28
 70
     1
102
RTVSPropertyOp29
 70
     1
102
RTVSPropertyOp30
 70
     1
102
RTVSPropertyOp31
 70
     1
102
RTVSPropertyOp32
 70
     1
  0
XRECORD
  5
887
102
{ACAD_REACTORS
330
886
102
}
330
886
100
AcDbXrecord
280
     1
102
RTVSPropertyOp0
 70
     1
102
RTVSPropertyOp1
 70
     1
102
RTVSPropertyOp2
 70
     1
102
RTVSPropertyOp3
 70
     1
102
RTVSPropertyOp4
 70
     1
102
RTVSPropertyOp5
 70
     1
102
RTVSPropertyOp6
 70
     1
102
RTVSPropertyOp7
 70
     1
102
RTVSPropertyOp8
 70
     1
102
RTVSPropertyOp9
 70
     1
102
RTVSPropertyOp10
 70
     1
102
RTVSPropertyOp11
 70
     1
102
RTVSPropertyOp12
 70
     1
102
RTVSPropertyOp13
 70
     1
102
RTVSPropertyOp14
 70
     1
102
RTVSPropertyOp15
 70
     1
102
RTVSPropertyOp16
 70
     1
102
RTVSPropertyOp17
 70
     1
102
RTVSPropertyOp18
 70
     1
102
RTVSPropertyOp19
 70
     1
102
RTVSPropertyOp20
 70
     1
102
RTVSPropertyOp21
 70
     1
102
RTVSPropertyOp22
 70
     1
102
RTVSPropertyOp23
 70
     1
102
RTVSPropertyOp24
 70
     1
102
RTVSPropertyOp25
 70
     1
102
RTVSPropertyOp26
 70
     1
102
RTVSPropertyOp27
 70
     1
102
RTVSPropertyOp28
 70
     1
102
RTVSPropertyOp29
 70
     1
102
RTVSPropertyOp30
 70
     1
102
RTVSPropertyOp31
 70
     1
102
RTVSPropertyOp32
 70
     1
  0
XRECORD
  5
889
102
{ACAD_REACTORS
330
888
102
}
330
888
100
AcDbXrecord
280
     1
102
RTVSPropertyOp0
 70
     1
102
RTVSPropertyOp1
 70
     1
102
RTVSPropertyOp2
 70
     1
102
RTVSPropertyOp3
 70
     1
102
RTVSPropertyOp4
 70
     1
102
RTVSPropertyOp5
 70
     1
102
RTVSPropertyOp6
 70
     1
102
RTVSPropertyOp7
 70
     1
102
RTVSPropertyOp8
 70
     1
102
RTVSPropertyOp9
 70
     1
102
RTVSPropertyOp10
 70
     1
102
RTVSPropertyOp11
 70
     1
102
RTVSPropertyOp12
 70
     1
102
RTVSPropertyOp13
 70
     1
102
RTVSPropertyOp14
 70
     1
102
RTVSPropertyOp15
 70
     1
102
RTVSPropertyOp16
 70
     1
102
RTVSPropertyOp17
 70
     1
102
RTVSPropertyOp18
 70
     1
102
RTVSPropertyOp19
 70
     1
102
RTVSPropertyOp20
 70
     1
102
RTVSPropertyOp21
 70
     1
102
RTVSPropertyOp22
 70
     1
102
RTVSPropertyOp23
 70
     1
102
RTVSPropertyOp24
 70
     1
102
RTVSPropertyOp25
 70
     1
102
RTVSPropertyOp26
 70
     1
102
RTVSPropertyOp27
 70
     1
102
RTVSPropertyOp28
 70
     1
102
RTVSPropertyOp29
 70
     1
102
RTVSPropertyOp30
 70
     1
102
RTVSPropertyOp31
 70
     1
102
RTVSPropertyOp32
 70
     1
  0
XRECORD
  5
88B
102
{ACAD_REACTORS
330
88A
102
}
330
88A
100
AcDbXrecord
280
     1
102
RTVSPropertyOp0
 70
     1
102
RTVSPropertyOp1
 70
     1
102
RTVSPropertyOp2
 70
     1
102
RTVSPropertyOp3
 70
     1
102
RTVSPropertyOp4
 70
     1
102
RTVSPropertyOp5
 70
     1
102
RTVSPropertyOp6
 70
     1
102
RTVSPropertyOp7
 70
     1
102
RTVSPropertyOp8
 70
     1
102
RTVSPropertyOp9
 70
     1
102
RTVSPropertyOp10
 70
     1
102
RTVSPropertyOp11
 70
     1
102
RTVSPropertyOp12
 70
     1
102
RTVSPropertyOp13
 70
     1
102
RTVSPropertyOp14
 70
     1
102
RTVSPropertyOp15
 70
     1
102
RTVSPropertyOp16
 70
     1
102
RTVSPropertyOp17
 70
     1
102
RTVSPropertyOp18
 70
     1
102
RTVSPropertyOp19
 70
     1
102
RTVSPropertyOp20
 70
     1
102
RTVSPropertyOp21
 70
     1
102
RTVSPropertyOp22
 70
     1
102
RTVSPropertyOp23
 70
     1
102
RTVSPropertyOp24
 70
     1
102
RTVSPropertyOp25
 70
     1
102
RTVSPropertyOp26
 70
     1
102
RTVSPropertyOp27
 70
     1
102
RTVSPropertyOp28
 70
     1
102
RTVSPropertyOp29
 70
     1
102
RTVSPropertyOp30
 70
     1
102
RTVSPropertyOp31
 70
     1
102
RTVSPropertyOp32
 70
     1
  0
XRECORD
  5
893
102
{ACAD_REACTORS
330
892
102
}
330
892
100
AcDbXrecord
280
     1
102
RTVSPropertyOp0
 70
     1
102
RTVSPropertyOp1
 70
     1
102
RTVSPropertyOp2
 70
     1
102
RTVSPropertyOp3
 70
     1
102
RTVSPropertyOp4
 70
     1
102
RTVSPropertyOp5
 70
     1
102
RTVSPropertyOp6
 70
     1
102
RTVSPropertyOp7
 70
     1
102
RTVSPropertyOp8
 70
     1
102
RTVSPropertyOp9
 70
     1
102
RTVSPropertyOp10
 70
     1
102
RTVSPropertyOp11
 70
     1
102
RTVSPropertyOp12
 70
     1
102
RTVSPropertyOp13
 70
     1
102
RTVSPropertyOp14
 70
     1
102
RTVSPropertyOp15
 70
     1
102
RTVSPropertyOp16
 70
     1
102
RTVSPropertyOp17
 70
     1
102
RTVSPropertyOp18
 70
     1
102
RTVSPropertyOp19
 70
     1
102
RTVSPropertyOp20
 70
     1
102
RTVSPropertyOp21
 70
     1
102
RTVSPropertyOp22
 70
     1
102
RTVSPropertyOp23
 70
     1
102
RTVSPropertyOp24
 70
     1
102
RTVSPropertyOp25
 70
     1
102
RTVSPropertyOp26
 70
     1
102
RTVSPropertyOp27
 70
     1
102
RTVSPropertyOp28
 70
     1
102
RTVSPropertyOp29
 70
     1
102
RTVSPropertyOp30
 70
     1
102
RTVSPropertyOp31
 70
     1
102
RTVSPropertyOp32
 70
     1
  0
XRECORD
  5
8AF
102
{ACAD_REACTORS
330
8AE
102
}
330
8AE
100
AcDbXrecord
280
     1
102
RTVSPropertyOp0
 70
     0
102
RTVSPropertyOp1
 70
     0
102
RTVSPropertyOp2
 70
     0
102
RTVSPropertyOp3
 70
     0
102
RTVSPropertyOp4
 70
     0
102
RTVSPropertyOp5
 70
     0
102
RTVSPropertyOp6
 70
     0
102
RTVSPropertyOp7
 70
     0
102
RTVSPropertyOp8
 70
     0
102
RTVSPropertyOp9
 70
     0
102
RTVSPropertyOp10
 70
     0
102
RTVSPropertyOp11
 70
     0
102
RTVSPropertyOp12
 70
     0
102
RTVSPropertyOp13
 70
     0
102
RTVSPropertyOp14
 70
     2
102
RTVSPropertyOp15
 70
     0
102
RTVSPropertyOp16
 70
     0
102
RTVSPropertyOp17
 70
     0
102
RTVSPropertyOp18
 70
     0
102
RTVSPropertyOp19
 70
     0
102
RTVSPropertyOp20
 70
     0
102
RTVSPropertyOp21
 70
     0
102
RTVSPropertyOp22
 70
     0
102
RTVSPropertyOp23
 70
     0
102
RTVSPropertyOp24
 70
     0
102
RTVSPropertyOp25
 70
     0
102
RTVSPropertyOp26
 70
     0
102
RTVSPropertyOp27
 70
     0
102
RTVSPropertyOp28
 70
     1
102
RTVSPropertyOp29
 70
     1
102
RTVSPropertyOp30
 70
     1
102
RTVSPropertyOp31
 70
     1
102
RTVSPropertyOp32
 70
     1
  0
XRECORD
  5
89F
102
{ACAD_REACTORS
330
89E
102
}
330
89E
100
AcDbXrecord
280
     1
102
RTVSPropertyOp0
 70
     1
102
RTVSPropertyOp1
 70
     1
102
RTVSPropertyOp2
 70
     1
102
RTVSPropertyOp3
 70
     1
102
RTVSPropertyOp4
 70
     1
102
RTVSPropertyOp5
 70
     1
102
RTVSPropertyOp6
 70
     1
102
RTVSPropertyOp7
 70
     1
102
RTVSPropertyOp8
 70
     1
102
RTVSPropertyOp9
 70
     1
102
RTVSPropertyOp10
 70
     1
102
RTVSPropertyOp11
 70
     1
102
RTVSPropertyOp12
 70
     1
102
RTVSPropertyOp13
 70
     1
102
RTVSPropertyOp14
 70
     1
102
RTVSPropertyOp15
 70
     1
102
RTVSPropertyOp16
 70
     1
102
RTVSPropertyOp17
 70
     1
102
RTVSPropertyOp18
 70
     1
102
RTVSPropertyOp19
 70
     1
102
RTVSPropertyOp20
 70
     1
102
RTVSPropertyOp21
 70
     1
102
RTVSPropertyOp22
 70
     1
102
RTVSPropertyOp23
 70
     1
102
RTVSPropertyOp24
 70
     1
102
RTVSPropertyOp25
 70
     1
102
RTVSPropertyOp26
 70
     1
102
RTVSPropertyOp27
 70
     1
102
RTVSPropertyOp28
 70
     1
102
RTVSPropertyOp29
 70
     1
102
RTVSPropertyOp30
 70
     1
102
RTVSPropertyOp31
 70
     1
102
RTVSPropertyOp32
 70
     1
  0
XRECORD
  5
8B1
102
{ACAD_REACTORS
330
8B0
102
}
330
8B0
100
AcDbXrecord
280
     1
102
RTVSPropertyOp0
 70
     0
102
RTVSPropertyOp1
 70
     0
102
RTVSPropertyOp2
 70
     0
102
RTVSPropertyOp3
 70
     0
102
RTVSPropertyOp4
 70
     0
102
RTVSPropertyOp5
 70
     0
102
RTVSPropertyOp6
 70
     0
102
RTVSPropertyOp7
 70
     0
102
RTVSPropertyOp8
 70
     0
102
RTVSPropertyOp9
 70
     0
102
RTVSPropertyOp10
 70
     0
102
RTVSPropertyOp11
 70
     0
102
RTVSPropertyOp12
 70
     0
102
RTVSPropertyOp13
 70
     0
102
RTVSPropertyOp14
 70
     2
102
RTVSPropertyOp15
 70
     0
102
RTVSPropertyOp16
 70
     0
102
RTVSPropertyOp17
 70
     0
102
RTVSPropertyOp18
 70
     0
102
RTVSPropertyOp19
 70
     0
102
RTVSPropertyOp20
 70
     0
102
RTVSPropertyOp21
 70
     0
102
RTVSPropertyOp22
 70
     0
102
RTVSPropertyOp23
 70
     0
102
RTVSPropertyOp24
 70
     0
102
RTVSPropertyOp25
 70
     0
102
RTVSPropertyOp26
 70
     0
102
RTVSPropertyOp27
 70
     0
102
RTVSPropertyOp28
 70
     1
102
RTVSPropertyOp29
 70
     1
102
RTVSPropertyOp30
 70
     1
102
RTVSPropertyOp31
 70
     1
102
RTVSPropertyOp32
 70
     1
  0
XRECORD
  5
897
102
{ACAD_REACTORS
330
896
102
}
330
896
100
AcDbXrecord
280
     1
102
RTVSPropertyOp0
 70
     1
102
RTVSPropertyOp1
 70
     1
102
RTVSPropertyOp2
 70
     1
102
RTVSPropertyOp3
 70
     1
102
RTVSPropertyOp4
 70
     1
102
RTVSPropertyOp5
 70
     1
102
RTVSPropertyOp6
 70
     1
102
RTVSPropertyOp7
 70
     1
102
RTVSPropertyOp8
 70
     1
102
RTVSPropertyOp9
 70
     1
102
RTVSPropertyOp10
 70
     1
102
RTVSPropertyOp11
 70
     1
102
RTVSPropertyOp12
 70
     1
102
RTVSPropertyOp13
 70
     1
102
RTVSPropertyOp14
 70
     1
102
RTVSPropertyOp15
 70
     1
102
RTVSPropertyOp16
 70
     1
102
RTVSPropertyOp17
 70
     1
102
RTVSPropertyOp18
 70
     1
102
RTVSPropertyOp19
 70
     1
102
RTVSPropertyOp20
 70
     1
102
RTVSPropertyOp21
 70
     1
102
RTVSPropertyOp22
 70
     1
102
RTVSPropertyOp23
 70
     1
102
RTVSPropertyOp24
 70
     1
102
RTVSPropertyOp25
 70
     1
102
RTVSPropertyOp26
 70
     1
102
RTVSPropertyOp27
 70
     1
102
RTVSPropertyOp28
 70
     1
102
RTVSPropertyOp29
 70
     1
102
RTVSPropertyOp30
 70
     1
102
RTVSPropertyOp31
 70
     1
102
RTVSPropertyOp32
 70
     1
  0
XRECORD
  5
8AD
102
{ACAD_REACTORS
330
8AC
102
}
330
8AC
100
AcDbXrecord
280
     1
102
RTVSPropertyOp0
 70
     1
102
RTVSPropertyOp1
 70
     1
102
RTVSPropertyOp2
 70
     1
102
RTVSPropertyOp3
 70
     1
102
RTVSPropertyOp4
 70
     1
102
RTVSPropertyOp5
 70
     1
102
RTVSPropertyOp6
 70
     1
102
RTVSPropertyOp7
 70
     1
102
RTVSPropertyOp8
 70
     1
102
RTVSPropertyOp9
 70
     1
102
RTVSPropertyOp10
 70
     1
102
RTVSPropertyOp11
 70
     1
102
RTVSPropertyOp12
 70
     1
102
RTVSPropertyOp13
 70
     1
102
RTVSPropertyOp14
 70
     1
102
RTVSPropertyOp15
 70
     1
102
RTVSPropertyOp16
 70
     1
102
RTVSPropertyOp17
 70
     1
102
RTVSPropertyOp18
 70
     1
102
RTVSPropertyOp19
 70
     1
102
RTVSPropertyOp20
 70
     1
102
RTVSPropertyOp21
 70
     1
102
RTVSPropertyOp22
 70
     1
102
RTVSPropertyOp23
 70
     1
102
RTVSPropertyOp24
 70
     1
102
RTVSPropertyOp25
 70
     1
102
RTVSPropertyOp26
 70
     1
102
RTVSPropertyOp27
 70
     1
102
RTVSPropertyOp28
 70
     1
102
RTVSPropertyOp29
 70
     1
102
RTVSPropertyOp30
 70
     1
102
RTVSPropertyOp31
 70
     1
102
RTVSPropertyOp32
 70
     1
  0
XRECORD
  5
8AB
102
{ACAD_REACTORS
330
8AA
102
}
330
8AA
100
AcDbXrecord
280
     1
102
RTVSPropertyOp0
 70
     1
102
RTVSPropertyOp1
 70
     1
102
RTVSPropertyOp2
 70
     1
102
RTVSPropertyOp3
 70
     1
102
RTVSPropertyOp4
 70
     1
102
RTVSPropertyOp5
 70
     1
102
RTVSPropertyOp6
 70
     1
102
RTVSPropertyOp7
 70
     1
102
RTVSPropertyOp8
 70
     1
102
RTVSPropertyOp9
 70
     1
102
RTVSPropertyOp10
 70
     1
102
RTVSPropertyOp11
 70
     1
102
RTVSPropertyOp12
 70
     1
102
RTVSPropertyOp13
 70
     1
102
RTVSPropertyOp14
 70
     1
102
RTVSPropertyOp15
 70
     1
102
RTVSPropertyOp16
 70
     1
102
RTVSPropertyOp17
 70
     1
102
RTVSPropertyOp18
 70
     1
102
RTVSPropertyOp19
 70
     1
102
RTVSPropertyOp20
 70
     1
102
RTVSPropertyOp21
 70
     1
102
RTVSPropertyOp22
 70
     1
102
RTVSPropertyOp23
 70
     1
102
RTVSPropertyOp24
 70
     1
102
RTVSPropertyOp25
 70
     1
102
RTVSPropertyOp26
 70
     1
102
RTVSPropertyOp27
 70
     1
102
RTVSPropertyOp28
 70
     1
102
RTVSPropertyOp29
 70
     1
102
RTVSPropertyOp30
 70
     1
102
RTVSPropertyOp31
 70
     1
102
RTVSPropertyOp32
 70
     1
  0
XRECORD
  5
8A5
102
{ACAD_REACTORS
330
8A4
102
}
330
8A4
100
AcDbXrecord
280
     1
102
RTVSPropertyOp0
 70
     1
102
RTVSPropertyOp1
 70
     1
102
RTVSPropertyOp2
 70
     1
102
RTVSPropertyOp3
 70
     1
102
RTVSPropertyOp4
 70
     1
102
RTVSPropertyOp5
 70
     1
102
RTVSPropertyOp6
 70
     1
102
RTVSPropertyOp7
 70
     1
102
RTVSPropertyOp8
 70
     1
102
RTVSPropertyOp9
 70
     1
102
RTVSPropertyOp10
 70
     1
102
RTVSPropertyOp11
 70
     1
102
RTVSPropertyOp12
 70
     1
102
RTVSPropertyOp13
 70
     1
102
RTVSPropertyOp14
 70
     1
102
RTVSPropertyOp15
 70
     1
102
RTVSPropertyOp16
 70
     1
102
RTVSPropertyOp17
 70
     1
102
RTVSPropertyOp18
 70
     1
102
RTVSPropertyOp19
 70
     1
102
RTVSPropertyOp20
 70
     1
102
RTVSPropertyOp21
 70
     1
102
RTVSPropertyOp22
 70
     1
102
RTVSPropertyOp23
 70
     1
102
RTVSPropertyOp24
 70
     1
102
RTVSPropertyOp25
 70
     1
102
RTVSPropertyOp26
 70
     1
102
RTVSPropertyOp27
 70
     1
102
RTVSPropertyOp28
 70
     1
102
RTVSPropertyOp29
 70
     1
102
RTVSPropertyOp30
 70
     1
102
RTVSPropertyOp31
 70
     1
102
RTVSPropertyOp32
 70
     1
  0
XRECORD
  5
8A7
102
{ACAD_REACTORS
330
8A6
102
}
330
8A6
100
AcDbXrecord
280
     1
102
RTVSPropertyOp0
 70
     1
102
RTVSPropertyOp1
 70
     1
102
RTVSPropertyOp2
 70
     1
102
RTVSPropertyOp3
 70
     1
102
RTVSPropertyOp4
 70
     1
102
RTVSPropertyOp5
 70
     1
102
RTVSPropertyOp6
 70
     1
102
RTVSPropertyOp7
 70
     1
102
RTVSPropertyOp8
 70
     1
102
RTVSPropertyOp9
 70
     1
102
RTVSPropertyOp10
 70
     1
102
RTVSPropertyOp11
 70
     1
102
RTVSPropertyOp12
 70
     1
102
RTVSPropertyOp13
 70
     1
102
RTVSPropertyOp14
 70
     1
102
RTVSPropertyOp15
 70
     1
102
RTVSPropertyOp16
 70
     1
102
RTVSPropertyOp17
 70
     1
102
RTVSPropertyOp18
 70
     1
102
RTVSPropertyOp19
 70
     1
102
RTVSPropertyOp20
 70
     1
102
RTVSPropertyOp21
 70
     1
102
RTVSPropertyOp22
 70
     1
102
RTVSPropertyOp23
 70
     1
102
RTVSPropertyOp24
 70
     1
102
RTVSPropertyOp25
 70
     1
102
RTVSPropertyOp26
 70
     1
102
RTVSPropertyOp27
 70
     1
102
RTVSPropertyOp28
 70
     1
102
RTVSPropertyOp29
 70
     1
102
RTVSPropertyOp30
 70
     1
102
RTVSPropertyOp31
 70
     1
102
RTVSPropertyOp32
 70
     1
  0
XRECORD
  5
89D
102
{ACAD_REACTORS
330
89C
102
}
330
89C
100
AcDbXrecord
280
     1
102
RTVSPropertyOp0
 70
     1
102
RTVSPropertyOp1
 70
     1
102
RTVSPropertyOp2
 70
     1
102
RTVSPropertyOp3
 70
     1
102
RTVSPropertyOp4
 70
     1
102
RTVSPropertyOp5
 70
     1
102
RTVSPropertyOp6
 70
     1
102
RTVSPropertyOp7
 70
     1
102
RTVSPropertyOp8
 70
     1
102
RTVSPropertyOp9
 70
     1
102
RTVSPropertyOp10
 70
     1
102
RTVSPropertyOp11
 70
     1
102
RTVSPropertyOp12
 70
     1
102
RTVSPropertyOp13
 70
     1
102
RTVSPropertyOp14
 70
     1
102
RTVSPropertyOp15
 70
     1
102
RTVSPropertyOp16
 70
     1
102
RTVSPropertyOp17
 70
     1
102
RTVSPropertyOp18
 70
     1
102
RTVSPropertyOp19
 70
     1
102
RTVSPropertyOp20
 70
     1
102
RTVSPropertyOp21
 70
     1
102
RTVSPropertyOp22
 70
     1
102
RTVSPropertyOp23
 70
     1
102
RTVSPropertyOp24
 70
     1
102
RTVSPropertyOp25
 70
     1
102
RTVSPropertyOp26
 70
     1
102
RTVSPropertyOp27
 70
     1
102
RTVSPropertyOp28
 70
     1
102
RTVSPropertyOp29
 70
     1
102
RTVSPropertyOp30
 70
     1
102
RTVSPropertyOp31
 70
     1
102
RTVSPropertyOp32
 70
     1
  0
XRECORD
  5
891
102
{ACAD_REACTORS
330
890
102
}
330
890
100
AcDbXrecord
280
     1
102
RTVSPropertyOp0
 70
     1
102
RTVSPropertyOp1
 70
     1
102
RTVSPropertyOp2
 70
     1
102
RTVSPropertyOp3
 70
     1
102
RTVSPropertyOp4
 70
     1
102
RTVSPropertyOp5
 70
     1
102
RTVSPropertyOp6
 70
     1
102
RTVSPropertyOp7
 70
     1
102
RTVSPropertyOp8
 70
     1
102
RTVSPropertyOp9
 70
     1
102
RTVSPropertyOp10
 70
     1
102
RTVSPropertyOp11
 70
     1
102
RTVSPropertyOp12
 70
     1
102
RTVSPropertyOp13
 70
     1
102
RTVSPropertyOp14
 70
     1
102
RTVSPropertyOp15
 70
     1
102
RTVSPropertyOp16
 70
     1
102
RTVSPropertyOp17
 70
     1
102
RTVSPropertyOp18
 70
     1
102
RTVSPropertyOp19
 70
     1
102
RTVSPropertyOp20
 70
     1
102
RTVSPropertyOp21
 70
     1
102
RTVSPropertyOp22
 70
     1
102
RTVSPropertyOp23
 70
     1
102
RTVSPropertyOp24
 70
     1
102
RTVSPropertyOp25
 70
     1
102
RTVSPropertyOp26
 70
     1
102
RTVSPropertyOp27
 70
     1
102
RTVSPropertyOp28
 70
     1
102
RTVSPropertyOp29
 70
     1
102
RTVSPropertyOp30
 70
     1
102
RTVSPropertyOp31
 70
     1
102
RTVSPropertyOp32
 70
     1
  0
XRECORD
  5
8A9
102
{ACAD_REACTORS
330
8A8
102
}
330
8A8
100
AcDbXrecord
280
     1
102
RTVSPropertyOp0
 70
     1
102
RTVSPropertyOp1
 70
     1
102
RTVSPropertyOp2
 70
     1
102
RTVSPropertyOp3
 70
     1
102
RTVSPropertyOp4
 70
     1
102
RTVSPropertyOp5
 70
     1
102
RTVSPropertyOp6
 70
     1
102
RTVSPropertyOp7
 70
     1
102
RTVSPropertyOp8
 70
     1
102
RTVSPropertyOp9
 70
     1
102
RTVSPropertyOp10
 70
     1
102
RTVSPropertyOp11
 70
     1
102
RTVSPropertyOp12
 70
     1
102
RTVSPropertyOp13
 70
     1
102
RTVSPropertyOp14
 70
     1
102
RTVSPropertyOp15
 70
     1
102
RTVSPropertyOp16
 70
     1
102
RTVSPropertyOp17
 70
     1
102
RTVSPropertyOp18
 70
     1
102
RTVSPropertyOp19
 70
     1
102
RTVSPropertyOp20
 70
     1
102
RTVSPropertyOp21
 70
     1
102
RTVSPropertyOp22
 70
     1
102
RTVSPropertyOp23
 70
     1
102
RTVSPropertyOp24
 70
     1
102
RTVSPropertyOp25
 70
     1
102
RTVSPropertyOp26
 70
     1
102
RTVSPropertyOp27
 70
     1
102
RTVSPropertyOp28
 70
     1
102
RTVSPropertyOp29
 70
     1
102
RTVSPropertyOp30
 70
     1
102
RTVSPropertyOp31
 70
     1
102
RTVSPropertyOp32
 70
     1
  0
ENDSEC
  0
EOF
