  0
SECTION
  2
HEADER
  9
$ACADVER
  1
AC1018
  9
$ACADMAINTVER
 70
   104
  9
$DWGCODEPAGE
  3
ANSI_1252
  9
$AUTHOR
  1
VR
  9
$REVISIONNUMBER
  1
-
  9
$CUSTOMPROPERTYTAG
  1
Manager
  9
$CUSTOMPROPERTY
  1

  9
$CUSTOMPROPERTYTAG
  1
Company
  9
$CUSTOMPROPERTY
  1

  9
$CUSTOMPROPERTYTAG
  1
Category
  9
$CUSTOMPROPERTY
  1

  9
$CUSTOMPROPERTYTAG
  1
Part Number
  9
$CUSTOMPROPERTY
  1
SSFK0610-S
  9
$CUSTOMPROPERTYTAG
  1
Description
  9
$CUSTOMPROPERTY
  1

  9
$CUSTOMPROPERTYTAG
  1
Project
  9
$CUSTOMPROPERTY
  1

  9
$CUSTOMPROPERTYTAG
  1
Designer
  9
$CUSTOMPROPERTY
  1
VR
  9
$CUSTOMPROPERTYTAG
  1
Engineer
  9
$CUSTOMPROPERTY
  1

  9
$CUSTOMPROPERTYTAG
  1
Authority
  9
$CUSTOMPROPERTY
  1

  9
$CUSTOMPROPERTYTAG
  1
Cost Center
  9
$CUSTOMPROPERTY
  1

  9
$CUSTOMPROPERTYTAG
  1
Vendor
  9
$CUSTOMPROPERTY
  1

  9
$CUSTOMPROPERTYTAG
  1
User Status
  9
$CUSTOMPROPERTY
  1

  9
$CUSTOMPROPERTYTAG
  1
Design Status
  9
$CUSTOMPROPERTY
  1
WorkInProgress
  9
$CUSTOMPROPERTYTAG
  1
Checked by
  9
$CUSTOMPROPERTY
  1
NJ
  9
$CUSTOMPROPERTYTAG
  1
Date Checked
  9
$CUSTOMPROPERTY
  1
05/02/2013
  9
$CUSTOMPROPERTYTAG
  1
Engr Approved by
  9
$CUSTOMPROPERTY
  1

  9
$CUSTOMPROPERTYTAG
  1
Mfg Approved by
  9
$CUSTOMPROPERTY
  1

  9
$CUSTOMPROPERTYTAG
  1
DWG. NO
  9
$CUSTOMPROPERTY
  1

  9
$CUSTOMPROPERTYTAG
  1
NUMBER OF SHEETS
  9
$CUSTOMPROPERTY
  1
1
  9
$CUSTOMPROPERTYTAG
  1
DRAWING #
  9
$CUSTOMPROPERTY
  1

  9
$INSBASE
 10
0.0
 20
0.0
 30
0.0
  9
$EXTMIN
 10
0.0
 20
0.0
 30
0.0
  9
$EXTMAX
 10
85.0
 20
55.0
 30
0.0
  9
$LIMMIN
 10
0.0
 20
0.0
  9
$LIMMAX
 10
85.0
 20
55.0
  9
$ORTHOMODE
 70
     0
  9
$REGENMODE
 70
     1
  9
$FILLMODE
 70
     1
  9
$QTEXTMODE
 70
     0
  9
$MIRRTEXT
 70
     0
  9
$LTSCALE
 40
5.0
  9
$ATTMODE
 70
     1
  9
$TEXTSIZE
 40
0.2
  9
$TRACEWID
 40
0.05
  9
$TEXTSTYLE
  7
Standard
  9
$CLAYER
  8
0
  9
$CELTYPE
  6
ByLayer
  9
$CECOLOR
 62
   256
  9
$CELTSCALE
 40
1.0
  9
$DISPSILH
 70
     0
  9
$DIMSCALE
 40
1.0
  9
$DIMASZ
 40
0.0708661417322835
  9
$DIMEXO
 40
0.0625
  9
$DIMDLI
 40
0.38
  9
$DIMRND
 40
0.0
  9
$DIMDLE
 40
0.0
  9
$DIMEXE
 40
0.18
  9
$DIMTP
 40
0.0
  9
$DIMTM
 40
0.0
  9
$DIMTXT
 40
0.0708661417322835
  9
$DIMCEN
 40
0.09
  9
$DIMTSZ
 40
0.0
  9
$DIMTOL
 70
     0
  9
$DIMLIM
 70
     0
  9
$DIMTIH
 70
     1
  9
$DIMTOH
 70
     1
  9
$DIMSE1
 70
     0
  9
$DIMSE2
 70
     0
  9
$DIMTAD
 70
     0
  9
$DIMZIN
 70
     0
  9
$DIMBLK
  1

  9
$DIMASO
 70
     1
  9
$DIMSHO
 70
     1
  9
$DIMPOST
  1

  9
$DIMAPOST
  1

  9
$DIMALT
 70
     0
  9
$DIMALTD
 70
     2
  9
$DIMALTF
 40
25.4
  9
$DIMLFAC
 40
1.0
  9
$DIMTOFL
 70
     0
  9
$DIMTVP
 40
0.0
  9
$DIMTIX
 70
     0
  9
$DIMSOXD
 70
     0
  9
$DIMSAH
 70
     0
  9
$DIMBLK1
  1

  9
$DIMBLK2
  1

  9
$DIMSTYLE
  2
Standard
  9
$DIMCLRD
 70
     0
  9
$DIMCLRE
 70
     0
  9
$DIMCLRT
 70
     0
  9
$DIMTFAC
 40
1.0
  9
$DIMGAP
 40
0.09
  9
$DIMJUST
 70
     0
  9
$DIMSD1
 70
     0
  9
$DIMSD2
 70
     0
  9
$DIMTOLJ
 70
     1
  9
$DIMTZIN
 70
     0
  9
$DIMALTZ
 70
     0
  9
$DIMALTTZ
 70
     0
  9
$DIMUPT
 70
     0
  9
$DIMDEC
 70
     4
  9
$DIMTDEC
 70
     4
  9
$DIMALTU
 70
     2
  9
$DIMALTTD
 70
     2
  9
$DIMTXSTY
  7
Standard
  9
$DIMAUNIT
 70
     0
  9
$DIMADEC
 70
     0
  9
$DIMALTRND
 40
0.0
  9
$DIMAZIN
 70
     0
  9
$DIMDSEP
 70
    46
  9
$DIMATFIT
 70
     3
  9
$DIMFRAC
 70
     0
  9
$DIMLDRBLK
  1

  9
$DIMLUNIT
 70
     2
  9
$DIMLWD
 70
    -2
  9
$DIMLWE
 70
    -2
  9
$DIMTMOVE
 70
     0
  9
$LUNITS
 70
     2
  9
$LUPREC
 70
     4
  9
$SKETCHINC
 40
0.1
  9
$FILLETRAD
 40
0.0
  9
$AUNITS
 70
     0
  9
$AUPREC
 70
     0
  9
$MENU
  1
.
  9
$ELEVATION
 40
0.0
  9
$PELEVATION
 40
0.0
  9
$THICKNESS
 40
0.0
  9
$LIMCHECK
 70
     0
  9
$CHAMFERA
 40
0.0
  9
$CHAMFERB
 40
0.0
  9
$CHAMFERC
 40
0.0
  9
$CHAMFERD
 40
0.0
  9
$SKPOLY
 70
     0
  9
$TDCREATE
 40
2456430.306191563
  9
$TDUCREATE
 40
2456430.077024896
  9
$TDUPDATE
 40
2456430.306191574
  9
$TDUUPDATE
 40
2456430.077024907
  9
$TDINDWG
 40
0.0000471644
  9
$TDUSRTIMER
 40
0.0000471644
  9
$USRTIMER
 70
     1
  9
$ANGBASE
 50
0.0
  9
$ANGDIR
 70
     0
  9
$PDMODE
 70
     0
  9
$PDSIZE
 40
0.0
  9
$PLINEWID
 40
0.0
  9
$SPLFRAME
 70
     0
  9
$SPLINETYPE
 70
     6
  9
$SPLINESEGS
 70
     8
  9
$HANDSEED
  5
1591
  9
$SURFTAB1
 70
     6
  9
$SURFTAB2
 70
     6
  9
$SURFTYPE
 70
     6
  9
$SURFU
 70
     6
  9
$SURFV
 70
     6
  9
$UCSBASE
  2

  9
$UCSNAME
  2

  9
$UCSORG
 10
0.0
 20
0.0
 30
0.0
  9
$UCSXDIR
 10
1.0
 20
0.0
 30
0.0
  9
$UCSYDIR
 10
0.0
 20
1.0
 30
0.0
  9
$UCSORTHOREF
  2

  9
$UCSORTHOVIEW
 70
     0
  9
$UCSORGTOP
 10
0.0
 20
0.0
 30
0.0
  9
$UCSORGBOTTOM
 10
0.0
 20
0.0
 30
0.0
  9
$UCSORGLEFT
 10
0.0
 20
0.0
 30
0.0
  9
$UCSORGRIGHT
 10
0.0
 20
0.0
 30
0.0
  9
$UCSORGFRONT
 10
0.0
 20
0.0
 30
0.0
  9
$UCSORGBACK
 10
0.0
 20
0.0
 30
0.0
  9
$PUCSBASE
  2

  9
$PUCSNAME
  2

  9
$PUCSORG
 10
0.0
 20
0.0
 30
0.0
  9
$PUCSXDIR
 10
1.0
 20
0.0
 30
0.0
  9
$PUCSYDIR
 10
0.0
 20
1.0
 30
0.0
  9
$PUCSORTHOREF
  2

  9
$PUCSORTHOVIEW
 70
     0
  9
$PUCSORGTOP
 10
0.0
 20
0.0
 30
0.0
  9
$PUCSORGBOTTOM
 10
0.0
 20
0.0
 30
0.0
  9
$PUCSORGLEFT
 10
0.0
 20
0.0
 30
0.0
  9
$PUCSORGRIGHT
 10
0.0
 20
0.0
 30
0.0
  9
$PUCSORGFRONT
 10
0.0
 20
0.0
 30
0.0
  9
$PUCSORGBACK
 10
0.0
 20
0.0
 30
0.0
  9
$USERI1
 70
     0
  9
$USERI2
 70
     0
  9
$USERI3
 70
     0
  9
$USERI4
 70
     0
  9
$USERI5
 70
     0
  9
$USERR1
 40
0.0
  9
$USERR2
 40
0.0
  9
$USERR3
 40
0.0
  9
$USERR4
 40
0.0
  9
$USERR5
 40
0.0
  9
$WORLDVIEW
 70
     1
  9
$SHADEDGE
 70
     3
  9
$SHADEDIF
 70
    70
  9
$TILEMODE
 70
     1
  9
$MAXACTVP
 70
    64
  9
$PINSBASE
 10
0.0
 20
0.0
 30
0.0
  9
$PLIMCHECK
 70
     0
  9
$PEXTMIN
 10
0.0
 20
0.0
 30
0.0
  9
$PEXTMAX
 10
85.0
 20
55.0
 30
0.0
  9
$PLIMMIN
 10
0.0
 20
0.0
  9
$PLIMMAX
 10
85.0
 20
55.0
  9
$UNITMODE
 70
     0
  9
$VISRETAIN
 70
     1
  9
$PLINEGEN
 70
     0
  9
$PSLTSCALE
 70
     1
  9
$TREEDEPTH
 70
  3020
  9
$CMLSTYLE
  2
Standard
  9
$CMLJUST
 70
     0
  9
$CMLSCALE
 40
1.0
  9
$PROXYGRAPHICS
 70
     1
  9
$MEASUREMENT
 70
     0
  9
$CELWEIGHT
370
    -1
  9
$ENDCAPS
280
     0
  9
$JOINSTYLE
280
     0
  9
$LWDISPLAY
290
     0
  9
$INSUNITS
 70
     1
  9
$HYPERLINKBASE
  1

  9
$STYLESHEET
  1

  9
$XEDIT
290
     1
  9
$CEPSNTYPE
380
     0
  9
$PSTYLEMODE
290
     1
  9
$FINGERPRINTGUID
  2
{6820F811-6158-41D7-A088-82D214A4E196}
  9
$VERSIONGUID
  2
{75A28019-4E51-4C86-AAF3-8554862C20BD}
  9
$EXTNAMES
290
     1
  9
$PSVPSCALE
 40
0.0
  9
$OLESTARTUP
290
     0
  9
$SORTENTS
280
   127
  9
$INDEXCTL
280
     0
  9
$HIDETEXT
280
     1
  9
$XCLIPFRAME
290
     0
  9
$HALOGAP
280
     0
  9
$OBSCOLOR
 70
   257
  9
$OBSLTYPE
280
     0
  9
$INTERSECTIONDISPLAY
280
     0
  9
$INTERSECTIONCOLOR
 70
   257
  9
$DIMASSOC
280
     1
  9
$PROJECTNAME
  1

  0
ENDSEC
  0
SECTION
  2
CLASSES
  0
CLASS
  1
ACDBDICTIONARYWDFLT
  2
AcDbDictionaryWithDefault
  3
ObjectDBX Classes
 90
        0
 91
        1
280
     0
281
     0
  0
CLASS
  1
MATERIAL
  2
AcDbMaterial
  3
ObjectDBX Classes
 90
     1153
 91
        3
280
     0
281
     0
  0
CLASS
  1
VISUALSTYLE
  2
AcDbVisualStyle
  3
ObjectDBX Classes
 90
     4095
 91
       24
280
     0
281
     0
  0
CLASS
  1
SCALE
  2
AcDbScale
  3
ObjectDBX Classes
 90
     1153
 91
       17
280
     0
281
     0
  0
CLASS
  1
TABLESTYLE
  2
AcDbTableStyle
  3
ObjectDBX Classes
 90
     4095
 91
        1
280
     0
281
     0
  0
CLASS
  1
MLEADERSTYLE
  2
AcDbMLeaderStyle
  3
ACDB_MLEADERSTYLE_CLASS
 90
     4095
 91
        1
280
     0
281
     0
  0
CLASS
  1
DICTIONARYVAR
  2
AcDbDictionaryVar
  3
ObjectDBX Classes
 90
        0
 91
        8
280
     0
281
     0
  0
CLASS
  1
CELLSTYLEMAP
  2
AcDbCellStyleMap
  3
ObjectDBX Classes
 90
     1152
 91
        1
280
     0
281
     0
  0
ENDSEC
  0
SECTION
  2
TABLES
  0
TABLE
  2
VPORT
  5
8
330
0
100
AcDbSymbolTable
 70
     1
  0
VPORT
  5
57
330
8
100
AcDbSymbolTableRecord
100
AcDbViewportTableRecord
  2
*Active
 70
     0
 10
0.0
 20
0.0
 11
1.0
 21
1.0
 12
42.5
 22
27.5
 13
0.0
 23
0.0
 14
1.0
 24
1.0
 15
0.0
 25
0.0
 16
0.0
 26
0.0
 36
1.0
 17
0.0
 27
0.0
 37
0.0
 40
55.0
 41
1.545454545454545
 42
50.0
 43
0.0
 44
0.0
 50
0.0
 51
0.0
 71
     0
 72
   100
 73
     1
 74
     1
 75
     0
 76
     0
 77
     0
 78
     0
281
     0
 65
     1
110
0.0
120
0.0
130
0.0
111
1.0
121
0.0
131
0.0
112
0.0
122
1.0
132
0.0
 79
     0
146
0.0
  0
ENDTAB
  0
TABLE
  2
LTYPE
  5
5
330
0
100
AcDbSymbolTable
 70
    59
  0
LTYPE
  5
5B
330
5
100
AcDbSymbolTableRecord
100
AcDbLinetypeTableRecord
  2
ByBlock
 70
     0
  3

 72
    65
 73
     0
 40
0.0
  0
LTYPE
  5
5C
330
5
100
AcDbSymbolTableRecord
100
AcDbLinetypeTableRecord
  2
ByLayer
 70
     0
  3

 72
    65
 73
     0
 40
0.0
  0
LTYPE
  5
5D
330
5
100
AcDbSymbolTableRecord
100
AcDbLinetypeTableRecord
  2
Continuous
 70
     0
  3
Solid line
 72
    65
 73
     0
 40
0.0
  0
LTYPE
  5
7C
330
5
100
AcDbSymbolTableRecord
100
AcDbLinetypeTableRecord
  2
BY_STANDARD
 70
     0
  3
By Standard ____________    ____    ____   _
 72
    65
 73
     6
 40
1.240299999999999
 49
0.6614
 74
     0
 49
-0.0827
 74
     0
 49
0.1654
 74
     0
 49
-0.0827
 74
     0
 49
0.1654
 74
     0
 49
-0.0827
 74
     0
  0
LTYPE
  5
7D
330
5
100
AcDbSymbolTableRecord
100
AcDbLinetypeTableRecord
  2
CHAIN
 70
     0
  3
Chain ____ _ ____ _ ____ _ ____ _ ____ _ ____
 72
    65
 73
     4
 40
0.7087
 49
0.4724000000000001
 74
     0
 49
-0.0591
 74
     0
 49
0.1181
 74
     0
 49
-0.0591
 74
     0
  0
LTYPE
  5
7E
330
5
100
AcDbSymbolTableRecord
100
AcDbLinetypeTableRecord
  2
DASH_DOT
 70
     0
  3
Dash dot __ . __ . __ . __ . __ . __ . __ . __
 72
    65
 73
     4
 40
0.37
 49
0.24
 74
     0
 49
-0.06
 74
     0
 49
0.01
 74
     0
 49
-0.06
 74
     0
  0
LTYPE
  5
7F
330
5
100
AcDbSymbolTableRecord
100
AcDbLinetypeTableRecord
  2
DOUBLE_DASH_DOT
 70
     0
  3
Double-Dash Dot __ __ . __ __ . __ __ . __ _
 72
    65
 73
     6
 40
0.4398
 49
0.24
 74
     0
 49
-0.06
 74
     0
 49
0.0098
 74
     0
 49
-0.06
 74
     0
 49
0.01
 74
     0
 49
-0.06
 74
     0
  0
LTYPE
  5
80
330
5
100
AcDbSymbolTableRecord
100
AcDbLinetypeTableRecord
  2
DASH_TRIPLE_DOT
 70
     0
  3
Dash Triple-Dot _ . . . _ . . . _ . . . _
 72
    65
 73
     8
 40
0.51
 49
0.24
 74
     0
 49
-0.06
 74
     0
 49
0.01
 74
     0
 49
-0.06
 74
     0
 49
0.01
 74
     0
 49
-0.06
 74
     0
 49
0.01
 74
     0
 49
-0.06
 74
     0
  0
LTYPE
  5
81
330
5
100
AcDbSymbolTableRecord
100
AcDbLinetypeTableRecord
  2
DASHED
 70
     0
  3
Dashed __ __ __ __ __ __ __ __ __ __ __ __ __ _
 72
    65
 73
     2
 40
0.2067
 49
0.1654
 74
     0
 49
-0.0413
 74
     0
  0
LTYPE
  5
82
330
5
100
AcDbSymbolTableRecord
100
AcDbLinetypeTableRecord
  2
DASH_DOUBLE_DOT
 70
     0
  3
Dash Double-Dot __ . . __ . . __ . . __ . .
 72
    65
 73
     6
 40
0.4398
 49
0.24
 74
     0
 49
-0.06
 74
     0
 49
0.0098
 74
     0
 49
-0.06
 74
     0
 49
0.01
 74
     0
 49
-0.06
 74
     0
  0
LTYPE
  5
83
330
5
100
AcDbSymbolTableRecord
100
AcDbLinetypeTableRecord
  2
DASHED_SPACE
 70
     0
  3
Dashed Space __ __ __ __ __ __ __ __ __ __ __ _
 72
    65
 73
     2
 40
0.2067
 49
0.1654
 74
     0
 49
-0.0413
 74
     0
  0
LTYPE
  5
84
330
5
100
AcDbSymbolTableRecord
100
AcDbLinetypeTableRecord
  2
DOTTED
 70
     0
  3
Dotted . . . . . . . . . . . . . . . . . . . . 
 72
    65
 73
     2
 40
0.0482
 49
0.0069
 74
     0
 49
-0.0413
 74
     0
  0
LTYPE
  5
85
330
5
100
AcDbSymbolTableRecord
100
AcDbLinetypeTableRecord
  2
DOUBLE_DASH_CHAIN
 70
     0
  3
Double-Dash Chain ______  __  __  ______  __  _
 72
    65
 73
     6
 40
1.240299999999999
 49
0.6614
 74
     0
 49
-0.0827
 74
     0
 49
0.1654
 74
     0
 49
-0.0827
 74
     0
 49
0.1654
 74
     0
 49
-0.0827
 74
     0
  0
LTYPE
  5
87
330
5
100
AcDbSymbolTableRecord
100
AcDbLinetypeTableRecord
  2
DOUBLE_DASH_DOUBLE_DOT
 70
     0
  3
Double-Dash Double-dot _ _ . . _ _ . . _
 72
    65
 73
     8
 40
0.7400000000000001
 49
0.24
 74
     0
 49
-0.06
 74
     0
 49
0.24
 74
     0
 49
-0.06
 74
     0
 49
0.01
 74
     0
 49
-0.06
 74
     0
 49
0.01
 74
     0
 49
-0.06
 74
     0
  0
LTYPE
  5
88
330
5
100
AcDbSymbolTableRecord
100
AcDbLinetypeTableRecord
  2
DOUBLE_DASH_TRIPLE_DOT
 70
     0
  3
Double Dash Triple Dot __ __ . . . __ __ . .
 72
    65
 73
    10
 40
0.8100000000000001
 49
0.24
 74
     0
 49
-0.06
 74
     0
 49
0.24
 74
     0
 49
-0.06
 74
     0
 49
0.01
 74
     0
 49
-0.06
 74
     0
 49
0.01
 74
     0
 49
-0.06
 74
     0
 49
0.01
 74
     0
 49
-0.06
 74
     0
  0
LTYPE
  5
89
330
5
100
AcDbSymbolTableRecord
100
AcDbLinetypeTableRecord
  2
LONG_DASH_DOTTED
 70
     0
  3
Long Dash Dotted ____ . ____ . ____ . ____ . _
 72
    65
 73
     4
 40
0.3543
 49
0.2362
 74
     0
 49
-0.0295
 74
     0
 49
0.0591
 74
     0
 49
-0.0295
 74
     0
  0
LTYPE
  5
8A
330
5
100
AcDbSymbolTableRecord
100
AcDbLinetypeTableRecord
  2
LONG_DASH_DOUBLE_DOT
 70
     0
  3
Long Dash Double Dot ________  .  .  ________  
 72
    65
 73
     6
 40
0.6799999999999999
 49
0.48
 74
     0
 49
-0.06
 74
     0
 49
0.01
 74
     0
 49
-0.06
 74
     0
 49
0.01
 74
     0
 49
-0.06
 74
     0
  0
LTYPE
  5
8B
330
5
100
AcDbSymbolTableRecord
100
AcDbLinetypeTableRecord
  2
LONG_DASH_TRIPLE_DOT
 70
     0
  3
Long Dash Triple Dot ____ ... ____ ... ____
 72
    65
 73
     8
 40
0.3689
 49
0.2362
 74
     0
 49
-0.0295
 74
     0
 49
0.0049
 74
     0
 49
-0.0295
 74
     0
 49
0.0049
 74
     0
 49
-0.0295
 74
     0
 49
0.0049
 74
     0
 49
-0.0295
 74
     0
  0
LTYPE
  5
8C
330
5
100
AcDbSymbolTableRecord
100
AcDbLinetypeTableRecord
  2
BORDER
 70
     0
  3
Border __ __ . __ __ . __ __ . __ __ . __ __ .
 72
    65
 73
     6
 40
1.75
 49
0.5
 74
     0
 49
-0.25
 74
     0
 49
0.5
 74
     0
 49
-0.25
 74
     0
 49
0.0
 74
     0
 49
-0.25
 74
     0
  0
LTYPE
  5
8D
330
5
100
AcDbSymbolTableRecord
100
AcDbLinetypeTableRecord
  2
BORDER2
 70
     0
  3
Border (.5x) __.__.__.__.__.__.__.__.__.__.__.
 72
    65
 73
     6
 40
0.875
 49
0.25
 74
     0
 49
-0.125
 74
     0
 49
0.25
 74
     0
 49
-0.125
 74
     0
 49
0.0
 74
     0
 49
-0.125
 74
     0
  0
LTYPE
  5
8E
330
5
100
AcDbSymbolTableRecord
100
AcDbLinetypeTableRecord
  2
BORDERX2
 70
     0
  3
Border (2x) ____  ____  .  ____  ____  .  ___
 72
    65
 73
     6
 40
3.5
 49
1.0
 74
     0
 49
-0.5
 74
     0
 49
1.0
 74
     0
 49
-0.5
 74
     0
 49
0.0
 74
     0
 49
-0.5
 74
     0
  0
LTYPE
  5
8F
330
5
100
AcDbSymbolTableRecord
100
AcDbLinetypeTableRecord
  2
CENTER
 70
     0
  3
Center ____ _ ____ _ ____ _ ____ _ ____ _ ____
 72
    65
 73
     4
 40
2.0
 49
1.25
 74
     0
 49
-0.25
 74
     0
 49
0.25
 74
     0
 49
-0.25
 74
     0
  0
LTYPE
  5
90
330
5
100
AcDbSymbolTableRecord
100
AcDbLinetypeTableRecord
  2
CENTER2
 70
     0
  3
Center (.5x) ___ _ ___ _ ___ _ ___ _ ___ _ ___
 72
    65
 73
     4
 40
1.125
 49
0.75
 74
     0
 49
-0.125
 74
     0
 49
0.125
 74
     0
 49
-0.125
 74
     0
  0
LTYPE
  5
91
330
5
100
AcDbSymbolTableRecord
100
AcDbLinetypeTableRecord
  2
CENTERX2
 70
     0
  3
Center (2x) ________  __  ________  __  _____
 72
    65
 73
     4
 40
4.0
 49
2.5
 74
     0
 49
-0.5
 74
     0
 49
0.5
 74
     0
 49
-0.5
 74
     0
  0
LTYPE
  5
92
330
5
100
AcDbSymbolTableRecord
100
AcDbLinetypeTableRecord
  2
DASHDOT2
 70
     0
  3
Dash dot (.5x) _._._._._._._._._._._._._._._.
 72
    65
 73
     4
 40
0.5
 49
0.25
 74
     0
 49
-0.125
 74
     0
 49
0.0
 74
     0
 49
-0.125
 74
     0
  0
LTYPE
  5
93
330
5
100
AcDbSymbolTableRecord
100
AcDbLinetypeTableRecord
  2
DASHDOTX2
 70
     0
  3
Dash dot (2x) ____  .  ____  .  ____  .  ___
 72
    65
 73
     4
 40
2.0
 49
1.0
 74
     0
 49
-0.5
 74
     0
 49
0.0
 74
     0
 49
-0.5
 74
     0
  0
LTYPE
  5
95
330
5
100
AcDbSymbolTableRecord
100
AcDbLinetypeTableRecord
  2
DASHED2
 70
     0
  3
Dashed (.5x) _ _ _ _ _ _ _ _ _ _ _ _ _ _ _ _ _
 72
    65
 73
     2
 40
0.375
 49
0.25
 74
     0
 49
-0.125
 74
     0
  0
LTYPE
  5
96
330
5
100
AcDbSymbolTableRecord
100
AcDbLinetypeTableRecord
  2
DASHEDX2
 70
     0
  3
Dashed (2x) ____  ____  ____  ____  ____  ___
 72
    65
 73
     2
 40
1.5
 49
1.0
 74
     0
 49
-0.5
 74
     0
  0
LTYPE
  5
97
330
5
100
AcDbSymbolTableRecord
100
AcDbLinetypeTableRecord
  2
DIVIDE
 70
     0
  3
Divide ____ . . ____ . . ____ . . ____ . . ____
 72
    65
 73
     6
 40
1.25
 49
0.5
 74
     0
 49
-0.25
 74
     0
 49
0.0
 74
     0
 49
-0.25
 74
     0
 49
0.0
 74
     0
 49
-0.25
 74
     0
  0
LTYPE
  5
98
330
5
100
AcDbSymbolTableRecord
100
AcDbLinetypeTableRecord
  2
DIVIDE2
 70
     0
  3
Divide (.5x) __..__..__..__..__..__..__..__.._
 72
    65
 73
     6
 40
0.625
 49
0.25
 74
     0
 49
-0.125
 74
     0
 49
0.0
 74
     0
 49
-0.125
 74
     0
 49
0.0
 74
     0
 49
-0.125
 74
     0
  0
LTYPE
  5
99
330
5
100
AcDbSymbolTableRecord
100
AcDbLinetypeTableRecord
  2
DIVIDEX2
 70
     0
  3
Divide (2x) ________  .  .  ________  .  .  _
 72
    65
 73
     6
 40
2.5
 49
1.0
 74
     0
 49
-0.5
 74
     0
 49
0.0
 74
     0
 49
-0.5
 74
     0
 49
0.0
 74
     0
 49
-0.5
 74
     0
  0
LTYPE
  5
9A
330
5
100
AcDbSymbolTableRecord
100
AcDbLinetypeTableRecord
  2
DOT
 70
     0
  3
Dot . . . . . . . . . . . . . . . . . . . . . .
 72
    65
 73
     2
 40
0.25
 49
0.0
 74
     0
 49
-0.25
 74
     0
  0
LTYPE
  5
9B
330
5
100
AcDbSymbolTableRecord
100
AcDbLinetypeTableRecord
  2
DOT2
 70
     0
  3
Dot (.5x) .....................................
 72
    65
 73
     2
 40
0.125
 49
0.0
 74
     0
 49
-0.125
 74
     0
  0
LTYPE
  5
9C
330
5
100
AcDbSymbolTableRecord
100
AcDbLinetypeTableRecord
  2
DOTX2
 70
     0
  3
Dot (2x) .  .  .  .  .  .  .  .  .  .  .  .  . 
 72
    65
 73
     2
 40
0.5
 49
0.0
 74
     0
 49
-0.5
 74
     0
  0
LTYPE
  5
9D
330
5
100
AcDbSymbolTableRecord
100
AcDbLinetypeTableRecord
  2
HIDDEN
 70
     0
  3
Hidden __ __ __ __ __ __ __ __ __ __ __ __ __ _
 72
    65
 73
     2
 40
0.375
 49
0.25
 74
     0
 49
-0.125
 74
     0
  0
LTYPE
  5
9E
330
5
100
AcDbSymbolTableRecord
100
AcDbLinetypeTableRecord
  2
HIDDEN2
 70
     0
  3
Hidden (.5x) _ _ _ _ _ _ _ _ _ _ _ _ _ _ _ _ _
 72
    65
 73
     2
 40
0.1875
 49
0.125
 74
     0
 49
-0.0625
 74
     0
  0
LTYPE
  5
9F
330
5
100
AcDbSymbolTableRecord
100
AcDbLinetypeTableRecord
  2
HIDDENX2
 70
     0
  3
Hidden (2x) ____ ____ ____ ____ ____ ____ ____
 72
    65
 73
     2
 40
0.75
 49
0.5
 74
     0
 49
-0.25
 74
     0
  0
LTYPE
  5
A0
330
5
100
AcDbSymbolTableRecord
100
AcDbLinetypeTableRecord
  2
PHANTOM
 70
     0
  3
Phantom ______  __  __  ______  __  __  ______
 72
    65
 73
     6
 40
2.5
 49
1.25
 74
     0
 49
-0.25
 74
     0
 49
0.25
 74
     0
 49
-0.25
 74
     0
 49
0.25
 74
     0
 49
-0.25
 74
     0
  0
LTYPE
  5
A1
330
5
100
AcDbSymbolTableRecord
100
AcDbLinetypeTableRecord
  2
PHANTOM2
 70
     0
  3
Phantom (.5x) ___ _ _ ___ _ _ ___ _ _ ___ _ _
 72
    65
 73
     6
 40
1.25
 49
0.625
 74
     0
 49
-0.125
 74
     0
 49
0.125
 74
     0
 49
-0.125
 74
     0
 49
0.125
 74
     0
 49
-0.125
 74
     0
  0
LTYPE
  5
A2
330
5
100
AcDbSymbolTableRecord
100
AcDbLinetypeTableRecord
  2
PHANTOMX2
 70
     0
  3
Phantom (2x) ____________    ____    ____   _
 72
    65
 73
     6
 40
5.0
 49
2.5
 74
     0
 49
-0.5
 74
     0
 49
0.5
 74
     0
 49
-0.5
 74
     0
 49
0.5
 74
     0
 49
-0.5
 74
     0
  0
LTYPE
  5
A3
330
5
100
AcDbSymbolTableRecord
100
AcDbLinetypeTableRecord
  2
ACAD_ISO02W100
 70
     0
  3
ISO dash __ __ __ __ __ __ __ __ __ __ __ __ __
 72
    65
 73
     2
 40
0.59
 49
0.47
 74
     0
 49
-0.12
 74
     0
  0
LTYPE
  5
A4
330
5
100
AcDbSymbolTableRecord
100
AcDbLinetypeTableRecord
  2
ACAD_ISO03W100
 70
     0
  3
ISO dash space __    __    __    __    __    __
 72
    65
 73
     2
 40
1.179999999999999
 49
0.47
 74
     0
 49
-0.71
 74
     0
  0
LTYPE
  5
A5
330
5
100
AcDbSymbolTableRecord
100
AcDbLinetypeTableRecord
  2
ACAD_ISO04W100
 70
     0
  3
ISO long-dash dot ____ . ____ . ____ . ____ . _
 72
    65
 73
     4
 40
1.179999999999999
 49
0.9399999999999998
 74
     0
 49
-0.12
 74
     0
 49
0.0
 74
     0
 49
-0.12
 74
     0
  0
LTYPE
  5
A6
330
5
100
AcDbSymbolTableRecord
100
AcDbLinetypeTableRecord
  2
ACAD_ISO05W100
 70
     0
  3
ISO long-dash double-dot ____ .. ____ .. ____ .
 72
    65
 73
     6
 40
1.299999999999999
 49
0.9399999999999998
 74
     0
 49
-0.12
 74
     0
 49
0.0
 74
     0
 49
-0.12
 74
     0
 49
0.0
 74
     0
 49
-0.12
 74
     0
  0
LTYPE
  5
A7
330
5
100
AcDbSymbolTableRecord
100
AcDbLinetypeTableRecord
  2
ACAD_ISO06W100
 70
     0
  3
ISO long-dash triple-dot ____ ... ____ ... ____
 72
    65
 73
     8
 40
1.419999999999999
 49
0.9399999999999998
 74
     0
 49
-0.12
 74
     0
 49
0.0
 74
     0
 49
-0.12
 74
     0
 49
0.0
 74
     0
 49
-0.12
 74
     0
 49
0.0
 74
     0
 49
-0.12
 74
     0
  0
LTYPE
  5
A8
330
5
100
AcDbSymbolTableRecord
100
AcDbLinetypeTableRecord
  2
ACAD_ISO07W100
 70
     0
  3
ISO dot . . . . . . . . . . . . . . . . . . . .
 72
    65
 73
     2
 40
0.12
 49
0.0
 74
     0
 49
-0.12
 74
     0
  0
LTYPE
  5
A9
330
5
100
AcDbSymbolTableRecord
100
AcDbLinetypeTableRecord
  2
ACAD_ISO08W100
 70
     0
  3
ISO long-dash short-dash ____ __ ____ __ ____ _
 72
    65
 73
     4
 40
0.95
 49
0.47
 74
     0
 49
-0.12
 74
     0
 49
0.24
 74
     0
 49
-0.12
 74
     0
  0
LTYPE
  5
AA
330
5
100
AcDbSymbolTableRecord
100
AcDbLinetypeTableRecord
  2
ACAD_ISO09W100
 70
     0
  3
ISO long-dash double-short-dash ____ __ __ ____
 72
    65
 73
     6
 40
1.31
 49
0.47
 74
     0
 49
-0.12
 74
     0
 49
0.24
 74
     0
 49
-0.12
 74
     0
 49
0.24
 74
     0
 49
-0.12
 74
     0
  0
LTYPE
  5
AB
330
5
100
AcDbSymbolTableRecord
100
AcDbLinetypeTableRecord
  2
ACAD_ISO10W100
 70
     0
  3
ISO dash dot __ . __ . __ . __ . __ . __ . __ .
 72
    65
 73
     4
 40
0.71
 49
0.47
 74
     0
 49
-0.12
 74
     0
 49
0.0
 74
     0
 49
-0.12
 74
     0
  0
LTYPE
  5
AC
330
5
100
AcDbSymbolTableRecord
100
AcDbLinetypeTableRecord
  2
ACAD_ISO11W100
 70
     0
  3
ISO double-dash dot __ __ . __ __ . __ __ . __ 
 72
    65
 73
     6
 40
1.299999999999999
 49
0.47
 74
     0
 49
-0.12
 74
     0
 49
0.47
 74
     0
 49
-0.12
 74
     0
 49
0.0
 74
     0
 49
-0.12
 74
     0
  0
LTYPE
  5
AD
330
5
100
AcDbSymbolTableRecord
100
AcDbLinetypeTableRecord
  2
ACAD_ISO12W100
 70
     0
  3
ISO dash double-dot __ . . __ . . __ . . __ . .
 72
    65
 73
     6
 40
0.8299999999999998
 49
0.47
 74
     0
 49
-0.12
 74
     0
 49
0.0
 74
     0
 49
-0.12
 74
     0
 49
0.0
 74
     0
 49
-0.12
 74
     0
  0
LTYPE
  5
AE
330
5
100
AcDbSymbolTableRecord
100
AcDbLinetypeTableRecord
  2
ACAD_ISO13W100
 70
     0
  3
ISO double-dash double-dot __ __ . . __ __ . . 
 72
    65
 73
     8
 40
1.419999999999999
 49
0.47
 74
     0
 49
-0.12
 74
     0
 49
0.47
 74
     0
 49
-0.12
 74
     0
 49
0.0
 74
     0
 49
-0.12
 74
     0
 49
0.0
 74
     0
 49
-0.12
 74
     0
  0
LTYPE
  5
AF
330
5
100
AcDbSymbolTableRecord
100
AcDbLinetypeTableRecord
  2
ACAD_ISO14W100
 70
     0
  3
ISO dash triple-dot __ . . . __ . . . __ . . . 
 72
    65
 73
     8
 40
0.95
 49
0.47
 74
     0
 49
-0.12
 74
     0
 49
0.0
 74
     0
 49
-0.12
 74
     0
 49
0.0
 74
     0
 49
-0.12
 74
     0
 49
0.0
 74
     0
 49
-0.12
 74
     0
  0
LTYPE
  5
B0
330
5
100
AcDbSymbolTableRecord
100
AcDbLinetypeTableRecord
  2
ACAD_ISO15W100
 70
     0
  3
ISO double-dash triple-dot __ __ . . . __ __ . 
 72
    65
 73
    10
 40
1.539999999999999
 49
0.47
 74
     0
 49
-0.12
 74
     0
 49
0.47
 74
     0
 49
-0.12
 74
     0
 49
0.0
 74
     0
 49
-0.12
 74
     0
 49
0.0
 74
     0
 49
-0.12
 74
     0
 49
0.0
 74
     0
 49
-0.12
 74
     0
  0
LTYPE
  5
B3
330
5
100
AcDbSymbolTableRecord
100
AcDbLinetypeTableRecord
  2
FENCELINE1
 70
     0
  3
Fenceline circle ----0-----0----0-----0----0---
 72
    65
 73
     4
 40
1.45
 49
0.25
 74
     0
 49
-0.1
 74
     4
 75
   133
340
B2
 46
0.1
 50
0.0
 44
-0.1
 45
0.0
 49
-0.1
 74
     0
 49
1.0
 74
     0
  0
LTYPE
  5
B4
330
5
100
AcDbSymbolTableRecord
100
AcDbLinetypeTableRecord
  2
FENCELINE2
 70
     0
  3
Fenceline square ----[]-----[]----[]-----[]----
 72
    65
 73
     4
 40
1.45
 49
0.25
 74
     0
 49
-0.1
 74
     4
 75
   132
340
B2
 46
0.1
 50
0.0
 44
-0.1
 45
0.0
 49
-0.1
 74
     0
 49
1.0
 74
     0
  0
LTYPE
  5
B5
330
5
100
AcDbSymbolTableRecord
100
AcDbLinetypeTableRecord
  2
TRACKS
 70
     0
  3
Tracks -|-|-|-|-|-|-|-|-|-|-|-|-|-|-|-|-|-|-|-|
 72
    65
 73
     2
 40
0.3
 49
0.15
 74
     4
 75
   130
340
B2
 46
0.25
 50
0.0
 44
0.0
 45
0.0
 49
0.15
 74
     0
  0
LTYPE
  5
B6
330
5
100
AcDbSymbolTableRecord
100
AcDbLinetypeTableRecord
  2
BATTING
 70
     0
  3
Batting SSSSSSSSSSSSSSSSSSSSSSSSSSSSSSSSSSSSSSS
 72
    65
 73
     4
 40
0.4001000000000001
 49
0.0001
 74
     0
 49
-0.1
 74
     4
 75
   134
340
B2
 46
0.1
 50
0.0
 44
-0.1
 45
0.0
 49
-0.2
 74
     4
 75
   134
340
B2
 46
0.1
 50
180.0
 44
0.1
 45
0.0
 49
-0.1
 74
     0
  0
LTYPE
  5
B7
330
5
100
AcDbSymbolTableRecord
100
AcDbLinetypeTableRecord
  2
HOT_WATER_SUPPLY
 70
     0
  3
Hot water supply ---- HW ---- HW ---- HW ----
 72
    65
 73
     3
 40
0.9
 49
0.5
 74
     0
 49
-0.2
 74
     2
 75
     0
340
55
 46
0.1
 50
0.0
 44
-0.1
 45
-0.05
  9
HW
 49
-0.2
 74
     0
  0
LTYPE
  5
B8
330
5
100
AcDbSymbolTableRecord
100
AcDbLinetypeTableRecord
  2
GAS_LINE
 70
     0
  3
Gas line ----GAS----GAS----GAS----GAS----GAS---
 72
    65
 73
     3
 40
0.95
 49
0.5
 74
     0
 49
-0.2
 74
     2
 75
     0
340
55
 46
0.1
 50
0.0
 44
-0.1
 45
-0.05
  9
GAS
 49
-0.25
 74
     0
  0
LTYPE
  5
B9
330
5
100
AcDbSymbolTableRecord
100
AcDbLinetypeTableRecord
  2
ZIGZAG
 70
     0
  3
Zig zag /\/\/\/\/\/\/\/\/\/\/\/\/\/\/\/\/\/\/\/
 72
    65
 73
     4
 40
0.8001000000000001
 49
0.0001
 74
     0
 49
-0.2
 74
     4
 75
   131
340
B2
 46
0.2
 50
0.0
 44
-0.2
 45
0.0
 49
-0.4
 74
     4
 75
   131
340
B2
 46
0.2
 50
180.0
 44
0.2
 45
0.0
 49
-0.2
 74
     0
  0
ENDTAB
  0
TABLE
  2
LAYER
  5
2
330
0
100
AcDbSymbolTable
 70
    27
  0
LAYER
  5
54
330
2
100
AcDbSymbolTableRecord
100
AcDbLayerTableRecord
  2
0
 70
     0
 62
     7
  6
Continuous
370
     0
390
F
  0
LAYER
  5
C0
330
2
100
AcDbSymbolTableRecord
100
AcDbLayerTableRecord
  2
Center Mark (ANSI)
 70
     0
 62
     7
  6
Continuous
370
     5
390
F
  0
LAYER
  5
C1
330
2
100
AcDbSymbolTableRecord
100
AcDbLayerTableRecord
  2
Centerline (ANSI)
 70
     0
 62
     7
  6
Continuous
370
     5
390
F
  0
LAYER
  5
C3
330
2
100
AcDbSymbolTableRecord
100
AcDbLayerTableRecord
  2
Dimension (ANSI)
 70
     0
 62
     7
  6
Continuous
370
     5
390
F
  0
LAYER
  5
CC
330
2
100
AcDbSymbolTableRecord
100
AcDbLayerTableRecord
  2
Symbol (ANSI)
 70
     0
 62
     7
  6
Continuous
370
     5
390
F
  0
LAYER
  5
CF
330
2
100
AcDbSymbolTableRecord
100
AcDbLayerTableRecord
  2
Visible (ANSI)
 70
     0
 62
     7
  6
Continuous
370
     5
390
F
  0
LAYER
  5
D0
330
2
100
AcDbSymbolTableRecord
100
AcDbLayerTableRecord
  2
Visible Narrow (ANSI)
 70
     0
 62
     7
  6
Continuous
370
     5
390
F
  0
LAYER
  5
2B4
330
2
100
AcDbSymbolTableRecord
100
AcDbLayerTableRecord
  2
Defpoints
 70
     0
 62
     7
  6
Continuous
290
     0
370
    -3
390
F
  0
ENDTAB
  0
TABLE
  2
STYLE
  5
3
330
0
100
AcDbSymbolTable
 70
    10
  0
STYLE
  5
55
330
3
100
AcDbSymbolTableRecord
100
AcDbTextStyleTableRecord
  2
Standard
 70
     0
 40
0.0
 41
1.0
 50
0.0
 71
     0
 42
0.2
  3
txt
  4

  0
STYLE
  5
5A
330
3
100
AcDbSymbolTableRecord
100
AcDbTextStyleTableRecord
  2
Annotative
 70
     0
 40
0.0
 41
1.0
 50
0.0
 71
     0
 42
0.2
  3
txt
  4

1001
AcadAnnotative
1000
AnnotativeData
1002
{
1070
     1
1070
     1
1002
}
  0
STYLE
  5
B2
330
3
100
AcDbSymbolTableRecord
100
AcDbTextStyleTableRecord
  2

 70
     1
 40
0.0
 41
1.0
 50
0.0
 71
     0
 42
0.2
  3
ltypeshp.shx
  4

  0
STYLE
  5
D4
330
3
100
AcDbSymbolTableRecord
100
AcDbTextStyleTableRecord
  2
ITALICC_120
 70
     0
 40
0.0
 41
1.0
 50
0.0
 71
     0
 42
0.2
  3
italicc.shx
  4

  0
STYLE
  5
D5
330
3
100
AcDbSymbolTableRecord
100
AcDbTextStyleTableRecord
  2
Label Text (ANSI)
 70
     0
 40
0.0
 41
1.0
 50
0.0
 71
     0
 42
0.2
  3
tahoma.ttf
  4

1001
ACAD
1000
Tahoma
1071
      256
  0
STYLE
  5
D6
330
3
100
AcDbSymbolTableRecord
100
AcDbTextStyleTableRecord
  2
Note Text (ANSI)
 70
     0
 40
0.0
 41
1.0
 50
0.0
 71
     0
 42
0.2
  3
RomanS.shx
  4

  0
STYLE
  5
D7
330
3
100
AcDbSymbolTableRecord
100
AcDbTextStyleTableRecord
  2
ROMANS
 70
     0
 40
0.0
 41
1.0
 50
0.0
 71
     0
 42
0.2
  3
romans.shx
  4

  0
STYLE
  5
D8
330
3
100
AcDbSymbolTableRecord
100
AcDbTextStyleTableRecord
  2
SANSSERIF_114
 70
     0
 40
0.0
 41
1.0
 50
0.0
 71
     0
 42
0.2
  3
tahoma.ttf
  4

1001
ACAD
1000
Tahoma
1071
      256
  0
STYLE
  5
D9
330
3
100
AcDbSymbolTableRecord
100
AcDbTextStyleTableRecord
  2
SANSSERIF_117
 70
     0
 40
0.0
 41
1.0
 50
0.0
 71
     0
 42
0.2
  3
tahoma.ttf
  4

1001
ACAD
1000
Tahoma
1071
      256
  0
STYLE
  5
15E
330
3
100
AcDbSymbolTableRecord
100
AcDbTextStyleTableRecord
  2
Text Style168
 70
     0
 40
0.0
 41
1.0
 50
0.0
 71
     0
 42
0.2
  3
tahoma.ttf
  4

1001
ACAD
1000
Tahoma
1071
      256
  0
ENDTAB
  0
TABLE
  2
VIEW
  5
6
330
0
100
AcDbSymbolTable
 70
     0
  0
ENDTAB
  0
TABLE
  2
UCS
  5
7
330
0
100
AcDbSymbolTable
 70
     0
  0
ENDTAB
  0
TABLE
  2
APPID
  5
9
330
0
100
AcDbSymbolTable
 70
     5
  0
APPID
  5
56
330
9
100
AcDbSymbolTableRecord
100
AcDbRegAppTableRecord
  2
ACAD
 70
     0
  0
APPID
  5
5E
330
9
100
AcDbSymbolTableRecord
100
AcDbRegAppTableRecord
  2
AcadAnnotative
 70
     0
  0
APPID
  5
619
330
9
100
AcDbSymbolTableRecord
100
AcDbRegAppTableRecord
  2
ACAD_DSTYLE_DIMANGULAR_EXTENSION
 70
     0
  0
APPID
  5
EE6
330
9
100
AcDbSymbolTableRecord
100
AcDbRegAppTableRecord
  2
ACAD_DSTYLE_DIMRADIAL_EXTENSION
 70
     0
  0
APPID
  5
158C
330
9
100
AcDbSymbolTableRecord
100
AcDbRegAppTableRecord
  2
ACAD_MLEADERVER
 70
     0
  0
ENDTAB
  0
TABLE
  2
DIMSTYLE
  5
A
330
0
100
AcDbSymbolTable
 70
    15
100
AcDbDimStyleTable
 71
     2
340
E2
340
58
  0
DIMSTYLE
105
58
330
A
100
AcDbSymbolTableRecord
100
AcDbDimStyleTableRecord
  2
Standard
 70
     0
340
55
  0
DIMSTYLE
105
59
330
A
100
AcDbSymbolTableRecord
100
AcDbDimStyleTableRecord
  2
Annotative
 70
     0
340
55
1001
AcadAnnotative
1000
AnnotativeData
1002
{
1070
     1
1070
     1
1002
}
  0
DIMSTYLE
105
DA
330
A
100
AcDbSymbolTableRecord
100
AcDbDimStyleTableRecord
  2
Architectural (ANSI)
 70
     0
 40
5.0
 41
0.0984251946210861
 43
0.2362204724409449
 44
0.125
 45
0.00000001
 46
0.3937007874015748
 78
     3
 79
     3
140
0.1000000014901161
146
1.200000047683715
147
0.031496062992126
171
     1
176
   256
177
   256
178
   256
272
     2
274
     1
276
     2
277
     4
284
    12
285
     4
286
    12
340
D6
371
    -1
372
    -1
  0
DIMSTYLE
105
DB
330
A
100
AcDbSymbolTableRecord
100
AcDbDimStyleTableRecord
  2
Architectural (ANSI)$7
 70
     0
 40
5.0
 41
0.0984251946210861
 43
0.2362204724409449
 44
0.125
 45
0.00000001
 46
0.3937007874015748
 78
     3
 79
     3
140
0.1000000014901161
146
1.200000047683715
147
0.031496062992126
171
     1
176
   256
177
   256
178
   256
272
     2
274
     1
276
     2
277
     4
284
    12
285
     4
286
    12
340
D6
371
    -1
372
    -1
  0
DIMSTYLE
105
DC
330
A
100
AcDbSymbolTableRecord
100
AcDbDimStyleTableRecord
  2
Default - Fraction (ANSI)
 70
     0
 40
5.0
 41
0.0984251946210861
 43
0.2362204724409449
 44
0.125
 45
0.00000001
 46
0.3937007874015748
 79
     3
140
0.1000000014901161
146
1.200000047683715
147
0.031496062992126
171
     1
176
   256
177
   256
178
   256
272
     2
274
     1
276
     2
277
     5
284
    12
285
     4
286
    12
340
D6
371
    -1
372
    -1
  0
DIMSTYLE
105
DD
330
A
100
AcDbSymbolTableRecord
100
AcDbDimStyleTableRecord
  2
Default - Fraction (ANSI)$7
 70
     0
 40
5.0
 41
0.0984251946210861
 43
0.2362204724409449
 44
0.125
 45
0.00000001
 46
0.3937007874015748
 79
     3
140
0.1000000014901161
146
1.200000047683715
147
0.031496062992126
171
     1
176
   256
177
   256
178
   256
272
     2
274
     1
276
     2
277
     5
284
    12
285
     4
286
    12
340
D6
371
    -1
372
    -1
  0
DIMSTYLE
105
DE
330
A
100
AcDbSymbolTableRecord
100
AcDbDimStyleTableRecord
  2
Default - mm (ANSI)
 70
     0
 40
5.0
 41
0.0984251946210861
 42
0.063
 43
0.2362204724409449
 44
0.125
 45
0.00000001
 46
0.3937007874015748
 73
     0
 78
     4
 79
     1
140
0.1000000014901161
143
1.0
144
25.4
146
1.200000047683715
147
0.031496062992126
171
     1
176
   256
177
   256
178
   256
179
     1
271
     2
272
     2
274
     1
284
     4
285
     4
340
D6
371
    -1
372
    -1
  0
DIMSTYLE
105
DF
330
A
100
AcDbSymbolTableRecord
100
AcDbDimStyleTableRecord
  2
Default - mm (ANSI)$7
 70
     0
 40
5.0
 41
0.0984251946210861
 42
0.063
 43
0.2362204724409449
 44
0.125
 45
0.00000001
 46
0.3937007874015748
 73
     0
 78
     4
 79
     1
140
0.1000000014901161
143
1.0
144
25.4
146
1.200000047683715
147
0.031496062992126
171
     1
176
   256
177
   256
178
   256
179
     1
271
     2
272
     2
274
     1
284
     4
285
     4
340
D6
371
    -1
372
    -1
  0
DIMSTYLE
105
E0
330
A
100
AcDbSymbolTableRecord
100
AcDbDimStyleTableRecord
  2
Default - mm [in] (ANSI)
 70
     0
  4
 in
 40
5.0
 41
0.0984251946210861
 42
0.063
 43
0.25
 44
0.125
 45
0.00000001
 46
0.3937007874015748
 73
     0
 78
     4
 79
     1
140
0.1000000014901161
143
0.03937
144
25.4
146
1.200000047683715
147
0.031496062992126
170
     1
171
     3
176
   256
177
   256
178
   256
179
     1
271
     2
272
     2
274
     3
284
     4
285
     4
286
     4
340
D6
371
    -1
372
    -1
  0
DIMSTYLE
105
E1
330
A
100
AcDbSymbolTableRecord
100
AcDbDimStyleTableRecord
  2
Default - mm [in] (ANSI)$7
 70
     0
  4
 in
 40
5.0
 41
0.0984251946210861
 42
0.063
 43
0.25
 44
0.125
 45
0.00000001
 46
0.3937007874015748
 73
     0
 78
     4
 79
     1
140
0.1000000014901161
143
0.03937
144
25.4
146
1.200000047683715
147
0.031496062992126
170
     1
171
     3
176
   256
177
   256
178
   256
179
     1
271
     2
272
     2
274
     3
284
     4
285
     4
286
     4
340
D6
371
    -1
372
    -1
  0
DIMSTYLE
105
E2
102
{ACAD_REACTORS
330
2B2
330
3B3
330
4B1
330
59B
330
6BF
330
7AE
330
8A0
330
998
330
A82
330
B79
330
C63
330
D4F
330
E4D
330
F0C
330
FF6
330
10E0
330
11CA
330
12BC
330
13A6
330
145F
102
}
330
A
100
AcDbSymbolTableRecord
100
AcDbDimStyleTableRecord
  2
Default (ANSI)
 70
     0
 40
5.0
 41
0.0984251946210861
 43
0.2362204724409449
 44
0.125
 45
0.00000001
 46
0.3937007874015748
140
0.1000000014901161
147
0.031496062992126
176
   256
177
   256
178
   256
271
     2
272
     2
340
D7
371
    -1
372
    -1
  0
DIMSTYLE
105
E3
330
A
100
AcDbSymbolTableRecord
100
AcDbDimStyleTableRecord
  2
Default (ANSI)$7
 70
     0
 40
5.0
 41
0.0984251946210861
 43
0.2362204724409449
 44
0.125
 45
0.00000001
 46
0.3937007874015748
140
0.1000000014901161
147
0.031496062992126
176
   256
177
   256
178
   256
271
     2
272
     2
340
D7
371
    -1
372
    -1
  0
DIMSTYLE
105
E4
330
A
100
AcDbSymbolTableRecord
100
AcDbDimStyleTableRecord
  2
Alternate (ANSI)
 70
     0
 40
5.0
 41
0.0979999974370003
340
55
342
E5
  0
DIMSTYLE
105
F7
330
A
100
AcDbSymbolTableRecord
100
AcDbDimStyleTableRecord
  2
Datum (ANSI)
 70
     0
 40
5.0
 41
0.0979999974370003
340
55
342
E5
  0
DIMSTYLE
105
106
330
A
100
AcDbSymbolTableRecord
100
AcDbDimStyleTableRecord
  2
Large (ANSI)
 70
     0
 40
5.0
 41
0.1959999948740005
340
55
342
E5
  0
ENDTAB
  0
TABLE
  2
BLOCK_RECORD
  5
1
330
0
100
AcDbSymbolTable
 70
    24
  0
BLOCK_RECORD
  5
6C
330
1
100
AcDbSymbolTableRecord
100
AcDbBlockTableRecord
  2
*Model_Space
340
6F
  0
BLOCK_RECORD
  5
68
330
1
100
AcDbSymbolTableRecord
100
AcDbBlockTableRecord
  2
*Paper_Space
340
6B
  0
BLOCK_RECORD
  5
70
330
1
100
AcDbSymbolTableRecord
100
AcDbBlockTableRecord
  2
*Paper_Space0
340
73
  0
BLOCK_RECORD
  5
E5
330
1
100
AcDbSymbolTableRecord
100
AcDbBlockTableRecord
  2
_Closed
340
0
  0
BLOCK_RECORD
  5
EC
330
1
100
AcDbSymbolTableRecord
100
AcDbBlockTableRecord
  2
DatumFilled45
340
0
  0
BLOCK_RECORD
  5
F8
330
1
100
AcDbSymbolTableRecord
100
AcDbBlockTableRecord
  2
Filled-1
340
0
  0
BLOCK_RECORD
  5
2B5
330
1
100
AcDbSymbolTableRecord
100
AcDbBlockTableRecord
  2
*D4
340
0
  0
BLOCK_RECORD
  5
3B4
330
1
100
AcDbSymbolTableRecord
100
AcDbBlockTableRecord
  2
*D5
340
0
  0
BLOCK_RECORD
  5
4B2
330
1
100
AcDbSymbolTableRecord
100
AcDbBlockTableRecord
  2
*D6
340
0
  0
BLOCK_RECORD
  5
59C
330
1
100
AcDbSymbolTableRecord
100
AcDbBlockTableRecord
  2
*D7
340
0
  0
BLOCK_RECORD
  5
6C0
330
1
100
AcDbSymbolTableRecord
100
AcDbBlockTableRecord
  2
*D8
340
0
  0
BLOCK_RECORD
  5
7AF
330
1
100
AcDbSymbolTableRecord
100
AcDbBlockTableRecord
  2
*D9
340
0
  0
BLOCK_RECORD
  5
8A1
330
1
100
AcDbSymbolTableRecord
100
AcDbBlockTableRecord
  2
*D10
340
0
  0
BLOCK_RECORD
  5
999
330
1
100
AcDbSymbolTableRecord
100
AcDbBlockTableRecord
  2
*D11
340
0
  0
BLOCK_RECORD
  5
A83
330
1
100
AcDbSymbolTableRecord
100
AcDbBlockTableRecord
  2
*D12
340
0
  0
BLOCK_RECORD
  5
B7A
330
1
100
AcDbSymbolTableRecord
100
AcDbBlockTableRecord
  2
*D13
340
0
  0
BLOCK_RECORD
  5
C64
330
1
100
AcDbSymbolTableRecord
100
AcDbBlockTableRecord
  2
*D14
340
0
  0
BLOCK_RECORD
  5
D50
330
1
100
AcDbSymbolTableRecord
100
AcDbBlockTableRecord
  2
*D15
340
0
  0
BLOCK_RECORD
  5
E4E
330
1
100
AcDbSymbolTableRecord
100
AcDbBlockTableRecord
  2
*D16
340
0
  0
BLOCK_RECORD
  5
F0D
330
1
100
AcDbSymbolTableRecord
100
AcDbBlockTableRecord
  2
*D17
340
0
  0
BLOCK_RECORD
  5
FF7
330
1
100
AcDbSymbolTableRecord
100
AcDbBlockTableRecord
  2
*D18
340
0
  0
BLOCK_RECORD
  5
10E1
330
1
100
AcDbSymbolTableRecord
100
AcDbBlockTableRecord
  2
*D19
340
0
  0
BLOCK_RECORD
  5
11CB
330
1
100
AcDbSymbolTableRecord
100
AcDbBlockTableRecord
  2
*D20
340
0
  0
BLOCK_RECORD
  5
12BD
330
1
100
AcDbSymbolTableRecord
100
AcDbBlockTableRecord
  2
*D21
340
0
  0
BLOCK_RECORD
  5
13A7
330
1
100
AcDbSymbolTableRecord
100
AcDbBlockTableRecord
  2
*D22
340
0
  0
BLOCK_RECORD
  5
1460
330
1
100
AcDbSymbolTableRecord
100
AcDbBlockTableRecord
  2
*D23
340
0
  0
ENDTAB
  0
ENDSEC
  0
SECTION
  2
BLOCKS
  0
BLOCK
  5
6D
330
6C
100
AcDbEntity
  8
0
100
AcDbBlockBegin
  2
*Model_Space
 70
     0
 10
0.0
 20
0.0
 30
0.0
  3
*Model_Space
  1

  0
ENDBLK
  5
6E
330
6C
100
AcDbEntity
  8
0
100
AcDbBlockEnd
  0
BLOCK
  5
69
330
68
100
AcDbEntity
 67
     1
  8
0
100
AcDbBlockBegin
  2
*Paper_Space
 70
     0
 10
0.0
 20
0.0
 30
0.0
  3
*Paper_Space
  1

  0
ENDBLK
  5
6A
330
68
100
AcDbEntity
 67
     1
  8
0
100
AcDbBlockEnd
  0
BLOCK
  5
71
330
70
100
AcDbEntity
 67
     1
  8
0
100
AcDbBlockBegin
  2
*Paper_Space0
 70
     0
 10
0.0
 20
0.0
 30
0.0
  3
*Paper_Space0
  1

  0
ENDBLK
  5
72
330
70
100
AcDbEntity
 67
     1
  8
0
100
AcDbBlockEnd
  0
BLOCK
  5
EA
330
E5
100
AcDbEntity
  8
0
100
AcDbBlockBegin
  2
_Closed
 70
     0
 10
0.0
 20
0.0
 30
0.0
  3
_Closed
  1

  0
LINE
  5
E6
330
E5
100
AcDbEntity
  8
0
  6
ByBlock
 62
     0
370
    -2
100
AcDbLine
 10
-1.0
 20
0.1666666666666666
 30
0.0
 11
0.0
 21
0.0
 31
0.0
  0
LINE
  5
E7
330
E5
100
AcDbEntity
  8
0
  6
ByBlock
 62
     0
370
    -2
100
AcDbLine
 10
0.0
 20
0.0
 30
0.0
 11
-1.0
 21
-0.1666666666666666
 31
0.0
  0
LINE
  5
E8
330
E5
100
AcDbEntity
  8
0
  6
ByBlock
 62
     0
370
    -2
100
AcDbLine
 10
-1.0
 20
0.1666666666666666
 30
0.0
 11
-1.0
 21
-0.1666666666666666
 31
0.0
  0
LINE
  5
E9
330
E5
100
AcDbEntity
  8
0
  6
ByBlock
 62
     0
370
    -2
100
AcDbLine
 10
0.0
 20
0.0
 30
0.0
 11
-1.0
 21
0.0
 31
0.0
  0
ENDBLK
  5
EB
330
E5
100
AcDbEntity
  8
0
100
AcDbBlockEnd
  0
BLOCK
  5
ED
330
EC
100
AcDbEntity
  8
0
100
AcDbBlockBegin
  2
DatumFilled45
 70
     0
 10
0.0
 20
0.0
 30
0.0
  3
DatumFilled45
  1

  0
POLYLINE
  5
EF
330
EC
100
AcDbEntity
  8
0
 62
     0
100
AcDb2dPolyline
 66
     1
 10
0.0
 20
0.0
 30
0.0
 70
   128
  0
VERTEX
  5
F0
330
EF
100
AcDbEntity
  8
0
 62
     0
100
AcDbVertex
100
AcDb2dVertex
 10
0.0
 20
0.9999999999999998
 30
0.0
  0
VERTEX
  5
F1
330
EF
100
AcDbEntity
  8
0
 62
     0
100
AcDbVertex
100
AcDb2dVertex
 10
0.0
 20
-0.9999999999999998
 30
0.0
  0
VERTEX
  5
F3
330
EF
100
AcDbEntity
  8
0
 62
     0
100
AcDbVertex
100
AcDb2dVertex
 10
-0.9999999999999998
 20
0.0
 30
0.0
  0
VERTEX
  5
F4
330
EF
100
AcDbEntity
  8
0
 62
     0
100
AcDbVertex
100
AcDb2dVertex
 10
0.0
 20
0.9999999999999998
 30
0.0
  0
SEQEND
  5
F2
330
EF
100
AcDbEntity
  8
0
 62
     0
  0
SOLID
  5
F6
330
EC
100
AcDbEntity
  8
0
 62
     0
100
AcDbTrace
 10
0.0
 20
0.9999999999999998
 30
0.0
 11
0.0
 21
-0.9999999999999998
 31
0.0
 12
-0.9999999999999998
 22
0.0
 32
0.0
 13
0.0
 23
0.9999999999999998
 33
0.0
  0
ENDBLK
  5
EE
330
EC
100
AcDbEntity
  8
0
100
AcDbBlockEnd
  0
BLOCK
  5
F9
330
F8
100
AcDbEntity
  8
0
100
AcDbBlockBegin
  2
Filled-1
 70
     0
 10
0.0
 20
0.0
 30
0.0
  3
Filled-1
  1

  0
LINE
  5
FB
330
F8
100
AcDbEntity
  8
0
 62
     0
100
AcDbLine
 10
-0.9999999999999998
 20
0.0
 30
0.0
 11
0.0
 21
0.0
 31
0.0
  0
POLYLINE
  5
FC
330
F8
100
AcDbEntity
  8
0
 62
     0
100
AcDb2dPolyline
 66
     1
 10
0.0
 20
0.0
 30
0.0
 70
   128
  0
VERTEX
  5
FD
330
FC
100
AcDbEntity
  8
0
 62
     0
100
AcDbVertex
100
AcDb2dVertex
 10
-0.9999999999999998
 20
-0.0994897959183674
 30
0.0
  0
VERTEX
  5
FE
330
FC
100
AcDbEntity
  8
0
 62
     0
100
AcDbVertex
100
AcDb2dVertex
 10
0.0
 20
0.0
 30
0.0
  0
VERTEX
  5
100
330
FC
100
AcDbEntity
  8
0
 62
     0
100
AcDbVertex
100
AcDb2dVertex
 10
-0.9999999999999998
 20
0.0994897959183674
 30
0.0
  0
VERTEX
  5
101
330
FC
100
AcDbEntity
  8
0
 62
     0
100
AcDbVertex
100
AcDb2dVertex
 10
-0.9999999999999998
 20
-0.0994897959183674
 30
0.0
  0
SEQEND
  5
FF
330
FC
100
AcDbEntity
  8
0
 62
     0
  0
SOLID
  5
102
330
F8
100
AcDbEntity
  8
0
 62
     0
100
AcDbTrace
 10
-0.9999999999999998
 20
-0.0994897959183674
 30
0.0
 11
0.0
 21
0.0
 31
0.0
 12
-0.9999999999999998
 22
0.0994897959183674
 32
0.0
 13
-0.9999999999999998
 23
-0.0994897959183674
 33
0.0
  0
LINE
  5
103
330
F8
100
AcDbEntity
  8
0
 62
     0
100
AcDbLine
 10
-0.9999999999999998
 20
-0.0994897959183674
 30
0.0
 11
0.0
 21
0.0
 31
0.0
  0
LINE
  5
104
330
F8
100
AcDbEntity
  8
0
 62
     0
100
AcDbLine
 10
0.0
 20
0.0
 30
0.0
 11
-0.9999999999999998
 21
0.0994897959183674
 31
0.0
  0
LINE
  5
105
330
F8
100
AcDbEntity
  8
0
 62
     0
100
AcDbLine
 10
-0.9999999999999998
 20
0.0994897959183674
 30
0.0
 11
-0.9999999999999998
 21
-0.0994897959183674
 31
0.0
  0
ENDBLK
  5
FA
330
F8
100
AcDbEntity
  8
0
100
AcDbBlockEnd
  0
BLOCK
  5
2B6
330
2B5
100
AcDbEntity
  8
0
100
AcDbBlockBegin
  2
*D4
 70
     1
 10
0.0
 20
0.0
 30
0.0
  3
*D4
  1

  0
LINE
  5
3A9
330
2B5
100
AcDbEntity
  8
Dimension (ANSI)
440
 16777216
100
AcDbLine
 10
31.82828069254186
 20
33.36963495842248
 30
0.0
 11
28.20746376340796
 21
33.36963495842248
 31
0.0
  0
LINE
  5
3AA
330
2B5
100
AcDbEntity
  8
Dimension (ANSI)
440
 16777216
100
AcDbLine
 10
32.06268069254183
 20
27.3697610996207
 30
0.0
 11
28.20746376340796
 21
27.3697610996207
 31
0.0
  0
LINE
  5
3AB
330
2B5
100
AcDbEntity
  8
Dimension (ANSI)
440
 16777216
100
AcDbLine
 10
28.83246376340796
 20
32.87750898531704
 30
0.0
 11
28.83246376340796
 21
31.19384502058294
 31
0.0
  0
LINE
  5
3AC
330
2B5
100
AcDbEntity
  8
Dimension (ANSI)
440
 16777216
100
AcDbLine
 10
28.83246376340796
 20
27.86188707272613
 30
0.0
 11
28.83246376340796
 21
29.54555103746013
 31
0.0
  0
SOLID
  5
3AD
330
2B5
100
AcDbEntity
  8
Dimension (ANSI)
440
 16777216
100
AcDbTrace
 10
28.75044276789039
 20
32.87750898531704
 30
0.0
 11
28.91448475892553
 21
32.87750898531704
 31
0.0
 12
28.83246376340796
 22
33.36963495842248
 32
0.0
 13
28.83246376340796
 23
33.36963495842248
 33
0.0
  0
SOLID
  5
3AE
330
2B5
100
AcDbEntity
  8
Dimension (ANSI)
440
 16777216
100
AcDbTrace
 10
28.75044276789039
 20
27.86188707272613
 30
0.0
 11
28.91448475892553
 21
27.86188707272613
 31
0.0
 12
28.83246376340796
 22
27.3697610996207
 32
0.0
 13
28.83246376340796
 23
27.3697610996207
 33
0.0
  0
MTEXT
  5
3AF
330
2B5
100
AcDbEntity
  8
Dimension (ANSI)
440
 16777216
100
AcDbMText
 10
28.83246376340796
 20
30.36969802902155
 30
0.0
 40
0.5000000074505806
 41
0.0
 71
     5
 72
     1
  1
\A1;6.00{\PHEIGHT}
  7
ROMANS
 73
     1
 44
1.0
  0
POINT
  5
3B0
330
2B5
100
AcDbEntity
  8
Defpoints
 62
     0
440
 16777216
100
AcDbPoint
 10
32.14078069254186
 20
33.36963495842248
 30
0.0
  0
POINT
  5
3B1
330
2B5
100
AcDbEntity
  8
Defpoints
 62
     0
440
 16777216
100
AcDbPoint
 10
32.37518069254183
 20
27.3697610996207
 30
0.0
  0
POINT
  5
3B2
330
2B5
100
AcDbEntity
  8
Defpoints
 62
     0
440
 16777216
100
AcDbPoint
 10
28.83246376340796
 20
27.3697610996207
 30
0.0
  0
ENDBLK
  5
2B7
330
2B5
100
AcDbEntity
  8
0
100
AcDbBlockEnd
  0
BLOCK
  5
3B5
330
3B4
100
AcDbEntity
  8
0
100
AcDbBlockBegin
  2
*D5
 70
     1
 10
0.0
 20
0.0
 30
0.0
  3
*D5
  1

  0
LINE
  5
4A7
330
3B4
100
AcDbEntity
  8
Dimension (ANSI)
440
 16777216
100
AcDbLine
 10
32.00018069254188
 20
33.54153495842248
 30
0.0
 11
32.00018069254188
 21
35.82253889543036
 31
0.0
  0
LINE
  5
4A8
330
3B4
100
AcDbEntity
  8
Dimension (ANSI)
440
 16777216
100
AcDbLine
 10
42.12518069254214
 20
33.54153495842248
 30
0.0
 11
42.12518069254214
 21
35.82253889543036
 31
0.0
  0
LINE
  5
4A9
330
3B4
100
AcDbEntity
  8
Dimension (ANSI)
440
 16777216
100
AcDbLine
 10
32.49230666564731
 20
35.19753889543036
 30
0.0
 11
35.89329560059805
 21
35.19753889543036
 31
0.0
  0
LINE
  5
4AA
330
3B4
100
AcDbEntity
  8
Dimension (ANSI)
440
 16777216
100
AcDbLine
 10
41.63305471943671
 20
35.19753889543036
 30
0.0
 11
38.23206578448596
 21
35.19753889543036
 31
0.0
  0
SOLID
  5
4AB
330
3B4
100
AcDbEntity
  8
Dimension (ANSI)
440
 16777216
100
AcDbTrace
 10
32.49230666564731
 20
35.27955989094793
 30
0.0
 11
32.49230666564731
 21
35.11551789991278
 31
0.0
 12
32.00018069254188
 22
35.19753889543036
 32
0.0
 13
32.00018069254188
 23
35.19753889543036
 33
0.0
  0
SOLID
  5
4AC
330
3B4
100
AcDbEntity
  8
Dimension (ANSI)
440
 16777216
100
AcDbTrace
 10
41.63305471943671
 20
35.27955989094793
 30
0.0
 11
41.63305471943671
 21
35.11551789991278
 31
0.0
 12
42.12518069254214
 22
35.19753889543036
 32
0.0
 13
42.12518069254214
 23
35.19753889543036
 33
0.0
  0
MTEXT
  5
4AD
330
3B4
100
AcDbEntity
  8
Dimension (ANSI)
440
 16777216
100
AcDbMText
 10
37.062680692542
 20
35.19753889543036
 30
0.0
 40
0.5000000074505806
 41
0.0
 71
     5
 72
     1
  1
\A1;10.13{\PWIDTH}
  7
ROMANS
 73
     1
 44
1.0
  0
POINT
  5
4AE
330
3B4
100
AcDbEntity
  8
Defpoints
 62
     0
440
 16777216
100
AcDbPoint
 10
32.00018069254188
 20
33.22903495842248
 30
0.0
  0
POINT
  5
4AF
330
3B4
100
AcDbEntity
  8
Defpoints
 62
     0
440
 16777216
100
AcDbPoint
 10
42.12518069254214
 20
33.22903495842248
 30
0.0
  0
POINT
  5
4B0
330
3B4
100
AcDbEntity
  8
Defpoints
 62
     0
440
 16777216
100
AcDbPoint
 10
42.12518069254214
 20
35.19753889543036
 30
0.0
  0
ENDBLK
  5
3B6
330
3B4
100
AcDbEntity
  8
0
100
AcDbBlockEnd
  0
BLOCK
  5
4B3
330
4B2
100
AcDbEntity
  8
0
100
AcDbBlockBegin
  2
*D6
 70
     1
 10
0.0
 20
0.0
 30
0.0
  3
*D6
  1

  0
LINE
  5
591
330
4B2
100
AcDbEntity
  8
Dimension (ANSI)
440
 16777216
100
AcDbLine
 10
10.90171738682119
 20
33.54153495842248
 30
0.0
 11
10.90171738682119
 21
37.04399017959342
 31
0.0
  0
LINE
  5
592
330
4B2
100
AcDbEntity
  8
Dimension (ANSI)
440
 16777216
100
AcDbLine
 10
18.90171738682118
 20
33.68213495842248
 30
0.0
 11
18.90171738682118
 21
37.04399017959342
 31
0.0
  0
LINE
  5
593
330
4B2
100
AcDbEntity
  8
Dimension (ANSI)
440
 16777216
100
AcDbLine
 10
11.39384335992662
 20
36.41899017959342
 30
0.0
 11
13.98233229860253
 21
36.41899017959342
 31
0.0
  0
LINE
  5
594
330
4B2
100
AcDbEntity
  8
Dimension (ANSI)
440
 16777216
100
AcDbLine
 10
18.40959141371575
 20
36.41899017959342
 30
0.0
 11
15.82110247503984
 21
36.41899017959342
 31
0.0
  0
SOLID
  5
595
330
4B2
100
AcDbEntity
  8
Dimension (ANSI)
440
 16777216
100
AcDbTrace
 10
11.39384335992662
 20
36.50101117511099
 30
0.0
 11
11.39384335992662
 21
36.33696918407584
 31
0.0
 12
10.90171738682119
 22
36.41899017959342
 32
0.0
 13
10.90171738682119
 23
36.41899017959342
 33
0.0
  0
SOLID
  5
596
330
4B2
100
AcDbEntity
  8
Dimension (ANSI)
440
 16777216
100
AcDbTrace
 10
18.40959141371575
 20
36.50101117511099
 30
0.0
 11
18.40959141371575
 21
36.33696918407584
 31
0.0
 12
18.90171738682118
 22
36.41899017959342
 32
0.0
 13
18.90171738682118
 23
36.41899017959342
 33
0.0
  0
MTEXT
  5
597
330
4B2
100
AcDbEntity
  8
Dimension (ANSI)
440
 16777216
100
AcDbMText
 10
14.13981261356316
 20
36.66899018331871
 30
0.0
 40
0.5000000074505806
 41
0.0
 71
     1
 72
     1
  1
\A1;8.00
  7
ROMANS
 73
     1
 44
1.0
  0
POINT
  5
598
330
4B2
100
AcDbEntity
  8
Defpoints
 62
     0
440
 16777216
100
AcDbPoint
 10
10.90171738682119
 20
33.22903495842248
 30
0.0
  0
POINT
  5
599
330
4B2
100
AcDbEntity
  8
Defpoints
 62
     0
440
 16777216
100
AcDbPoint
 10
18.90171738682118
 20
33.36963495842248
 30
0.0
  0
POINT
  5
59A
330
4B2
100
AcDbEntity
  8
Defpoints
 62
     0
440
 16777216
100
AcDbPoint
 10
18.90171738682118
 20
36.41899017959342
 30
0.0
  0
ENDBLK
  5
4B4
330
4B2
100
AcDbEntity
  8
0
100
AcDbBlockEnd
  0
BLOCK
  5
59D
330
59C
100
AcDbEntity
  8
0
100
AcDbBlockBegin
  2
*D7
 70
     1
 10
0.0
 20
0.0
 30
0.0
  3
*D7
  1

  0
LINE
  5
6B4
330
59C
100
AcDbEntity
  8
Dimension (ANSI)
440
 16777216
100
AcDbLine
 10
19.57470864872508
 20
33.36963495842247
 30
0.0
 11
23.18573314335631
 21
33.36963495842244
 31
0.0
  0
LINE
  5
6B5
330
59C
100
AcDbEntity
  8
Dimension (ANSI)
440
 16777216
100
AcDbLine
 10
19.15160387649995
 20
33.96112740723458
 30
0.0
 11
20.31808165705064
 21
37.37855736091443
 31
0.0
  0
ARC
  5
6B6
330
59C
100
AcDbEntity
  8
Dimension (ANSI)
440
 16777216
100
AcDbCircle
 10
18.94970864872508
 20
33.36963495842248
 30
0.0
 40
3.611024494631231
100
AcDbArc
 50
7.814571252432259
 51
27.85728080605817
  0
ARC
  5
6B7
330
59C
100
AcDbEntity
  8
Dimension (ANSI)
440
 16777216
100
AcDbCircle
 10
18.94970864872508
 20
33.36963495842248
 30
0.0
 40
3.611024494631231
100
AcDbArc
 50
43.86468516011312
 51
63.33901982535734
  0
SOLID
  5
6B8
330
59C
100
AcDbEntity
  8
Dimension (ANSI)
440
 16777216
100
AcDbTrace
 10
22.60902896732509
 20
33.86620613207013
 30
0.0
 11
22.44536827187347
 21
33.85502795748446
 31
0.0
 12
22.56073314335632
 22
33.36963495842244
 32
0.0
 13
22.56073314335632
 23
33.36963495842244
 33
0.0
  0
SOLID
  5
6B9
330
59C
100
AcDbEntity
  8
Dimension (ANSI)
440
 16777216
100
AcDbTrace
 10
20.53828991190966
 20
36.52108734338835
 30
0.0
 11
20.60173650270156
 21
36.67236293606496
 31
0.0
 12
20.11618642927577
 22
36.78706491210232
 32
0.0
 13
20.11618642927577
 23
36.78706491210232
 33
0.0
  0
MTEXT
  5
6BA
330
59C
100
AcDbEntity
  8
Dimension (ANSI)
440
 16777216
100
AcDbMText
 10
21.39101511362487
 20
35.71444142970906
 30
0.0
 40
0.5000000074505806
 41
0.0
 71
     1
 72
     1
  1
\A1;71\U+00B0
  7
ROMANS
 73
     1
 44
1.0
  0
POINT
  5
6BB
330
59C
100
AcDbEntity
  8
Defpoints
 62
     0
440
 16777216
100
AcDbPoint
 10
18.94970864872508
 20
33.36963495842248
 30
0.0
  0
POINT
  5
6BC
330
59C
100
AcDbEntity
  8
Defpoints
 62
     0
440
 16777216
100
AcDbPoint
 10
19.26220864872508
 20
33.36963495842248
 30
0.0
  0
POINT
  5
6BD
330
59C
100
AcDbEntity
  8
Defpoints
 62
     0
440
 16777216
100
AcDbPoint
 10
19.05065626261251
 20
33.66538118282853
 30
0.0
  0
POINT
  5
6BE
330
59C
100
AcDbEntity
  8
Defpoints
 62
     0
440
 16777216
100
AcDbPoint
 10
21.39226641588335
 20
36.02922316995478
 30
0.0
  0
ENDBLK
  5
59E
330
59C
100
AcDbEntity
  8
0
100
AcDbBlockEnd
  0
BLOCK
  5
6C1
330
6C0
100
AcDbEntity
  8
0
100
AcDbBlockBegin
  2
*D8
 70
     1
 10
0.0
 20
0.0
 30
0.0
  3
*D8
  1

  0
LINE
  5
7A6
330
6C0
100
AcDbEntity
  8
Dimension (ANSI)
440
 16777216
100
AcDbLine
 10
40.38305471943944
 20
42.22718597175494
 30
0.0
 11
39.89092874633401
 21
42.22718597175494
 31
0.0
  0
LINE
  5
7A7
330
6C0
100
AcDbEntity
  8
Dimension (ANSI)
440
 16777216
100
AcDbLine
 10
42.6173066656503
 20
42.22718597175494
 30
0.0
 11
43.76124575312707
 21
42.22718597175494
 31
0.0
  0
SOLID
  5
7A8
330
6C0
100
AcDbEntity
  8
Dimension (ANSI)
440
 16777216
100
AcDbTrace
 10
40.38305471943944
 20
42.30920696727252
 30
0.0
 11
40.38305471943944
 21
42.14516497623736
 31
0.0
 12
40.87518069254487
 22
42.22718597175494
 32
0.0
 13
40.87518069254487
 23
42.22718597175494
 33
0.0
  0
SOLID
  5
7A9
330
6C0
100
AcDbEntity
  8
Dimension (ANSI)
440
 16777216
100
AcDbTrace
 10
42.6173066656503
 20
42.30920696727252
 30
0.0
 11
42.6173066656503
 21
42.14516497623736
 31
0.0
 12
42.12518069254487
 22
42.22718597175494
 32
0.0
 13
42.12518069254487
 23
42.22718597175494
 33
0.0
  0
MTEXT
  5
7AA
330
6C0
100
AcDbEntity
  8
Dimension (ANSI)
440
 16777216
100
AcDbMText
 10
45.21634513504277
 20
42.22718597175494
 30
0.0
 40
0.5000000074505806
 41
0.0
 71
     5
 72
     1
  1
\A1;1.25{\P(2 PL.)}
  7
ROMANS
 73
     1
 44
1.0
  0
POINT
  5
7AB
330
6C0
100
AcDbEntity
  8
Defpoints
 62
     0
440
 16777216
100
AcDbPoint
 10
40.87518069254487
 20
42.43872649601616
 30
0.0
  0
POINT
  5
7AC
330
6C0
100
AcDbEntity
  8
Defpoints
 62
     0
440
 16777216
100
AcDbPoint
 10
42.12518069254487
 20
42.38102941471695
 30
0.0
  0
POINT
  5
7AD
330
6C0
100
AcDbEntity
  8
Defpoints
 62
     0
440
 16777216
100
AcDbPoint
 10
42.12518069254487
 20
42.22718597175494
 30
0.0
  0
ENDBLK
  5
6C2
330
6C0
100
AcDbEntity
  8
0
100
AcDbBlockEnd
  0
BLOCK
  5
7B0
330
7AF
100
AcDbEntity
  8
0
100
AcDbBlockBegin
  2
*D9
 70
     1
 10
0.0
 20
0.0
 30
0.0
  3
*D9
  1

  0
LINE
  5
88F
330
7AF
100
AcDbEntity
  8
Dimension (ANSI)
440
 16777216
100
AcDbLine
 10
35.17078051861775
 20
41.58838141217128
 30
0.0
 11
35.17078051861775
 21
42.08050738527671
 31
0.0
  0
LINE
  5
890
330
7AF
100
AcDbEntity
  8
Dimension (ANSI)
440
 16777216
100
AcDbLine
 10
35.17078051861775
 20
39.35412946596046
 30
0.0
 11
35.17078051861775
 21
38.86200349285503
 31
0.0
  0
SOLID
  5
891
330
7AF
100
AcDbEntity
  8
Dimension (ANSI)
440
 16777216
100
AcDbTrace
 10
35.08875952310018
 20
41.58838141217128
 30
0.0
 11
35.25280151413533
 21
41.58838141217128
 31
0.0
 12
35.17078051861775
 22
41.09625543906584
 32
0.0
 13
35.17078051861775
 23
41.09625543906584
 33
0.0
  0
SOLID
  5
892
330
7AF
100
AcDbEntity
  8
Dimension (ANSI)
440
 16777216
100
AcDbTrace
 10
35.08875952310018
 20
39.35412946596046
 30
0.0
 11
35.25280151413533
 21
39.35412946596046
 31
0.0
 12
35.17078051861775
 22
39.84625543906589
 32
0.0
 13
35.17078051861775
 23
39.84625543906589
 33
0.0
  0
MTEXT
  5
893
330
7AF
100
AcDbEntity
  8
Dimension (ANSI)
440
 16777216
100
AcDbMText
 10
34.44459003160619
 20
40.72125544279116
 30
0.0
 40
0.5000000074505806
 41
0.0
 71
     1
 72
     1
  1
\A1;1.25
  7
ROMANS
 73
     1
 44
1.0
  0
POINT
  5
894
330
7AF
100
AcDbEntity
  8
Defpoints
 62
     0
440
 16777216
100
AcDbPoint
 10
34.82864645433315
 20
41.09625543906584
 30
0.0
  0
POINT
  5
895
330
7AF
100
AcDbEntity
  8
Defpoints
 62
     0
440
 16777216
100
AcDbPoint
 10
34.95672603262578
 20
39.84625543906589
 30
0.0
  0
POINT
  5
896
330
7AF
100
AcDbEntity
  8
Defpoints
 62
     0
440
 16777216
100
AcDbPoint
 10
35.17078051861775
 20
39.84625543906589
 30
0.0
  0
ENDBLK
  5
7B1
330
7AF
100
AcDbEntity
  8
0
100
AcDbBlockEnd
  0
BLOCK
  5
8A2
330
8A1
100
AcDbEntity
  8
0
100
AcDbBlockBegin
  2
*D10
 70
     1
 10
0.0
 20
0.0
 30
0.0
  3
*D10
  1

  0
LINE
  5
98D
330
8A1
100
AcDbEntity
  8
Dimension (ANSI)
440
 16777216
100
AcDbLine
 10
31.82828069253869
 20
19.34148372117148
 30
0.0
 11
29.44354834585743
 21
19.34148372117148
 31
0.0
  0
LINE
  5
98E
330
8A1
100
AcDbEntity
  8
Dimension (ANSI)
440
 16777216
100
AcDbLine
 10
31.46893069253869
 20
17.34148372117152
 30
0.0
 11
29.44354834585743
 21
17.34148372117152
 31
0.0
  0
LINE
  5
98F
330
8A1
100
AcDbEntity
  8
Dimension (ANSI)
440
 16777216
100
AcDbLine
 10
30.06854834585743
 20
18.84935774806605
 30
0.0
 11
30.06854834585743
 21
17.83360969427695
 31
0.0
  0
LINE
  5
990
330
8A1
100
AcDbEntity
  8
Dimension (ANSI)
440
 16777216
100
AcDbLine
 10
30.06854834585743
 20
17.34148372117152
 30
0.0
 11
30.06854834585743
 21
16.4850571320933
 31
0.0
  0
LINE
  5
991
330
8A1
100
AcDbEntity
  8
Dimension (ANSI)
440
 16777216
100
AcDbLine
 10
30.06854834585743
 20
16.4850571320933
 30
0.0
 11
29.576422372752
 21
16.4850571320933
 31
0.0
  0
SOLID
  5
992
330
8A1
100
AcDbEntity
  8
Dimension (ANSI)
440
 16777216
100
AcDbTrace
 10
29.98652735033985
 20
18.84935774806605
 30
0.0
 11
30.150569341375
 21
18.84935774806605
 31
0.0
 12
30.06854834585743
 22
19.34148372117148
 32
0.0
 13
30.06854834585743
 23
19.34148372117148
 33
0.0
  0
SOLID
  5
993
330
8A1
100
AcDbEntity
  8
Dimension (ANSI)
440
 16777216
100
AcDbTrace
 10
29.98652735033985
 20
17.83360969427695
 30
0.0
 11
30.150569341375
 21
17.83360969427695
 31
0.0
 12
30.06854834585743
 22
17.34148372117152
 32
0.0
 13
30.06854834585743
 23
17.34148372117152
 33
0.0
  0
MTEXT
  5
994
330
8A1
100
AcDbEntity
  8
Dimension (ANSI)
440
 16777216
100
AcDbMText
 10
27.89513251127531
 20
16.7350571358186
 30
0.0
 40
0.5000000074505806
 41
0.0
 71
     1
 72
     1
  1
\A1;2.00
  7
ROMANS
 73
     1
 44
1.0
  0
POINT
  5
995
330
8A1
100
AcDbEntity
  8
Defpoints
 62
     0
440
 16777216
100
AcDbPoint
 10
32.14078069253869
 20
19.34148372117148
 30
0.0
  0
POINT
  5
996
330
8A1
100
AcDbEntity
  8
Defpoints
 62
     0
440
 16777216
100
AcDbPoint
 10
31.78143069253869
 20
17.34148372117152
 30
0.0
  0
POINT
  5
997
330
8A1
100
AcDbEntity
  8
Defpoints
 62
     0
440
 16777216
100
AcDbPoint
 10
30.06854834585743
 20
17.34148372117152
 30
0.0
  0
ENDBLK
  5
8A3
330
8A1
100
AcDbEntity
  8
0
100
AcDbBlockEnd
  0
BLOCK
  5
99A
330
999
100
AcDbEntity
  8
0
100
AcDbBlockBegin
  2
*D11
 70
     1
 10
0.0
 20
0.0
 30
0.0
  3
*D11
  1

  0
LINE
  5
A78
330
999
100
AcDbEntity
  8
Dimension (ANSI)
440
 16777216
100
AcDbLine
 10
31.82828069253869
 20
19.34148372117148
 30
0.0
 11
25.36976730671192
 21
19.34148372117148
 31
0.0
  0
LINE
  5
A79
330
999
100
AcDbEntity
  8
Dimension (ANSI)
440
 16777216
100
AcDbLine
 10
31.46893069253869
 20
12.34148372117152
 30
0.0
 11
25.36976730671192
 21
12.34148372117152
 31
0.0
  0
LINE
  5
A7A
330
999
100
AcDbEntity
  8
Dimension (ANSI)
440
 16777216
100
AcDbLine
 10
25.99476730671192
 20
18.84935774806605
 30
0.0
 11
25.99476730671192
 21
16.24896403985741
 31
0.0
  0
LINE
  5
A7B
330
999
100
AcDbEntity
  8
Dimension (ANSI)
440
 16777216
100
AcDbLine
 10
25.99476730671192
 20
12.83360969427695
 30
0.0
 11
25.99476730671192
 21
15.43400340248557
 31
0.0
  0
SOLID
  5
A7C
330
999
100
AcDbEntity
  8
Dimension (ANSI)
440
 16777216
100
AcDbTrace
 10
25.91274631119435
 20
18.84935774806605
 30
0.0
 11
26.07678830222949
 21
18.84935774806605
 31
0.0
 12
25.99476730671192
 22
19.34148372117148
 32
0.0
 13
25.99476730671192
 23
19.34148372117148
 33
0.0
  0
SOLID
  5
A7D
330
999
100
AcDbEntity
  8
Dimension (ANSI)
440
 16777216
100
AcDbTrace
 10
25.91274631119435
 20
12.83360969427695
 30
0.0
 11
26.07678830222949
 21
12.83360969427695
 31
0.0
 12
25.99476730671192
 22
12.34148372117152
 32
0.0
 13
25.99476730671192
 23
12.34148372117152
 33
0.0
  0
MTEXT
  5
A7E
330
999
100
AcDbEntity
  8
Dimension (ANSI)
440
 16777216
100
AcDbMText
 10
25.23286253345389
 20
16.09148372489679
 30
0.0
 40
0.5000000074505806
 41
0.0
 71
     1
 72
     1
  1
\A1;7.00
  7
ROMANS
 73
     1
 44
1.0
  0
POINT
  5
A7F
330
999
100
AcDbEntity
  8
Defpoints
 62
     0
440
 16777216
100
AcDbPoint
 10
32.14078069253869
 20
19.34148372117148
 30
0.0
  0
POINT
  5
A80
330
999
100
AcDbEntity
  8
Defpoints
 62
     0
440
 16777216
100
AcDbPoint
 10
31.78143069253869
 20
12.34148372117152
 30
0.0
  0
POINT
  5
A81
330
999
100
AcDbEntity
  8
Defpoints
 62
     0
440
 16777216
100
AcDbPoint
 10
25.99476730671192
 20
12.34148372117152
 30
0.0
  0
ENDBLK
  5
99B
330
999
100
AcDbEntity
  8
0
100
AcDbBlockEnd
  0
BLOCK
  5
A84
330
A83
100
AcDbEntity
  8
0
100
AcDbBlockBegin
  2
*D12
 70
     1
 10
0.0
 20
0.0
 30
0.0
  3
*D12
  1

  0
LINE
  5
B70
330
A83
100
AcDbEntity
  8
Dimension (ANSI)
440
 16777216
100
AcDbLine
 10
31.68381673378142
 20
18.1618577480661
 30
0.0
 11
31.68381673378142
 21
17.66973177496067
 31
0.0
  0
LINE
  5
B71
330
A83
100
AcDbEntity
  8
Dimension (ANSI)
440
 16777216
100
AcDbLine
 10
31.68381673378142
 20
19.83360969427691
 30
0.0
 11
31.68381673378142
 21
20.69003629450166
 31
0.0
  0
LINE
  5
B72
330
A83
100
AcDbEntity
  8
Dimension (ANSI)
440
 16777216
100
AcDbLine
 10
31.68381673378142
 20
20.69003629450166
 30
0.0
 11
32.17594270688685
 21
20.69003629450166
 31
0.0
  0
SOLID
  5
B73
330
A83
100
AcDbEntity
  8
Dimension (ANSI)
440
 16777216
100
AcDbTrace
 10
31.60179573826385
 20
18.1618577480661
 30
0.0
 11
31.76583772929899
 21
18.1618577480661
 31
0.0
 12
31.68381673378142
 22
18.65398372117153
 32
0.0
 13
31.68381673378142
 23
18.65398372117153
 33
0.0
  0
SOLID
  5
B74
330
A83
100
AcDbEntity
  8
Dimension (ANSI)
440
 16777216
100
AcDbTrace
 10
31.60179573826385
 20
19.83360969427691
 30
0.0
 11
31.76583772929899
 21
19.83360969427691
 31
0.0
 12
31.68381673378142
 22
19.34148372117148
 32
0.0
 13
31.68381673378142
 23
19.34148372117148
 33
0.0
  0
MTEXT
  5
B75
330
A83
100
AcDbEntity
  8
Dimension (ANSI)
440
 16777216
100
AcDbMText
 10
32.33342302184747
 20
20.94003629822695
 30
0.0
 40
0.5000000074505806
 41
0.0
 71
     1
 72
     1
  1
\A1;0.69
  7
ROMANS
 73
     1
 44
1.0
  0
POINT
  5
B76
330
A83
100
AcDbEntity
  8
Defpoints
 62
     0
440
 16777216
100
AcDbPoint
 10
41.98458069253869
 20
19.34148372117148
 30
0.0
  0
POINT
  5
B77
330
A83
100
AcDbEntity
  8
Defpoints
 62
     0
440
 16777216
100
AcDbPoint
 10
40.7814306925387
 20
18.65398372117153
 30
0.0
  0
POINT
  5
B78
330
A83
100
AcDbEntity
  8
Defpoints
 62
     0
440
 16777216
100
AcDbPoint
 10
31.68381673378142
 20
18.65398372117153
 30
0.0
  0
ENDBLK
  5
A85
330
A83
100
AcDbEntity
  8
0
100
AcDbBlockEnd
  0
BLOCK
  5
B7B
330
B7A
100
AcDbEntity
  8
0
100
AcDbBlockBegin
  2
*D13
 70
     1
 10
0.0
 20
0.0
 30
0.0
  3
*D13
  1

  0
LINE
  5
C59
330
B7A
100
AcDbEntity
  8
Dimension (ANSI)
440
 16777216
100
AcDbLine
 10
42.12518069253868
 20
19.51338372117148
 30
0.0
 11
42.12518069253868
 21
22.43586614485205
 31
0.0
  0
LINE
  5
C5A
330
B7A
100
AcDbEntity
  8
Dimension (ANSI)
440
 16777216
100
AcDbLine
 10
39.87518069253871
 20
19.87273372117153
 30
0.0
 11
39.87518069253871
 21
22.43586614485205
 31
0.0
  0
LINE
  5
C5B
330
B7A
100
AcDbEntity
  8
Dimension (ANSI)
440
 16777216
100
AcDbLine
 10
40.36730666564413
 20
21.81086614485205
 30
0.0
 11
41.63305471943325
 21
21.81086614485205
 31
0.0
  0
LINE
  5
C5C
330
B7A
100
AcDbEntity
  8
Dimension (ANSI)
440
 16777216
100
AcDbLine
 10
42.12518069253868
 20
21.81086614485205
 30
0.0
 11
42.95928694239846
 21
21.81086614485205
 31
0.0
  0
SOLID
  5
C5D
330
B7A
100
AcDbEntity
  8
Dimension (ANSI)
440
 16777216
100
AcDbTrace
 10
40.36730666564413
 20
21.89288714036962
 30
0.0
 11
40.36730666564413
 21
21.72884514933448
 31
0.0
 12
39.87518069253871
 22
21.81086614485205
 32
0.0
 13
39.87518069253871
 23
21.81086614485205
 33
0.0
  0
SOLID
  5
C5E
330
B7A
100
AcDbEntity
  8
Dimension (ANSI)
440
 16777216
100
AcDbTrace
 10
41.63305471943325
 20
21.89288714036962
 30
0.0
 11
41.63305471943325
 21
21.72884514933448
 31
0.0
 12
42.12518069253868
 22
21.81086614485205
 32
0.0
 13
42.12518069253868
 23
21.81086614485205
 33
0.0
  0
MTEXT
  5
C5F
330
B7A
100
AcDbEntity
  8
Dimension (ANSI)
440
 16777216
100
AcDbMText
 10
43.11676725735909
 20
22.06086614857734
 30
0.0
 40
0.5000000074505806
 41
0.0
 71
     1
 72
     1
  1
\A1;2.25
  7
ROMANS
 73
     1
 44
1.0
  0
POINT
  5
C60
330
B7A
100
AcDbEntity
  8
Defpoints
 62
     0
440
 16777216
100
AcDbPoint
 10
42.12518069253868
 20
19.20088372117148
 30
0.0
  0
POINT
  5
C61
330
B7A
100
AcDbEntity
  8
Defpoints
 62
     0
440
 16777216
100
AcDbPoint
 10
39.87518069253871
 20
19.56023372117153
 30
0.0
  0
POINT
  5
C62
330
B7A
100
AcDbEntity
  8
Defpoints
 62
     0
440
 16777216
100
AcDbPoint
 10
39.87518069253871
 20
21.81086614485205
 30
0.0
  0
ENDBLK
  5
B7C
330
B7A
100
AcDbEntity
  8
0
100
AcDbBlockEnd
  0
BLOCK
  5
C65
330
C64
100
AcDbEntity
  8
0
100
AcDbBlockBegin
  2
*D14
 70
     1
 10
0.0
 20
0.0
 30
0.0
  3
*D14
  1

  0
LINE
  5
D43
330
C64
100
AcDbEntity
  8
Dimension (ANSI)
440
 16777216
100
AcDbLine
 10
32.00018069253869
 20
19.51338372117148
 30
0.0
 11
32.00018069253869
 21
22.43586614485205
 31
0.0
  0
LINE
  5
D44
330
C64
100
AcDbEntity
  8
Dimension (ANSI)
440
 16777216
100
AcDbLine
 10
34.25018069253869
 20
19.87273372117153
 30
0.0
 11
34.25018069253869
 21
22.43586614485205
 31
0.0
  0
LINE
  5
D45
330
C64
100
AcDbEntity
  8
Dimension (ANSI)
440
 16777216
100
AcDbLine
 10
33.75805471943326
 20
21.81086614485205
 30
0.0
 11
32.49230666564412
 21
21.81086614485205
 31
0.0
  0
LINE
  5
D46
330
C64
100
AcDbEntity
  8
Dimension (ANSI)
440
 16777216
100
AcDbLine
 10
32.00018069253869
 20
21.81086614485205
 30
0.0
 11
31.16607444267892
 21
21.81086614485205
 31
0.0
  0
SOLID
  5
D47
330
C64
100
AcDbEntity
  8
Dimension (ANSI)
440
 16777216
100
AcDbTrace
 10
33.75805471943326
 20
21.89288714036962
 30
0.0
 11
33.75805471943326
 21
21.72884514933448
 31
0.0
 12
34.25018069253869
 22
21.81086614485205
 32
0.0
 13
34.25018069253869
 23
21.81086614485205
 33
0.0
  0
SOLID
  5
D48
330
C64
100
AcDbEntity
  8
Dimension (ANSI)
440
 16777216
100
AcDbTrace
 10
32.49230666564412
 20
21.89288714036962
 30
0.0
 11
32.49230666564412
 21
21.72884514933448
 31
0.0
 12
32.00018069253869
 22
21.81086614485205
 32
0.0
 13
32.00018069253869
 23
21.81086614485205
 33
0.0
  0
MTEXT
  5
D49
330
C64
100
AcDbEntity
  8
Dimension (ANSI)
440
 16777216
100
AcDbMText
 10
29.48478458120223
 20
22.06086614857734
 30
0.0
 40
0.5000000074505806
 41
0.0
 71
     1
 72
     1
  1
\A1;2.25
  7
ROMANS
 73
     1
 44
1.0
  0
POINT
  5
D4A
330
C64
100
AcDbEntity
  8
Defpoints
 62
     0
440
 16777216
100
AcDbPoint
 10
32.00018069253869
 20
19.20088372117148
 30
0.0
  0
POINT
  5
D4B
330
C64
100
AcDbEntity
  8
Defpoints
 62
     0
440
 16777216
100
AcDbPoint
 10
34.25018069253869
 20
19.56023372117153
 30
0.0
  0
POINT
  5
D4C
330
C64
100
AcDbEntity
  8
Defpoints
 62
     0
440
 16777216
100
AcDbPoint
 10
34.25018069253869
 20
21.81086614485205
 30
0.0
  0
ENDBLK
  5
C66
330
C64
100
AcDbEntity
  8
0
100
AcDbBlockEnd
  0
BLOCK
  5
D51
330
D50
100
AcDbEntity
  8
0
100
AcDbBlockBegin
  2
*D15
 70
     1
 10
0.0
 20
0.0
 30
0.0
  3
*D15
  1

  0
LINE
  5
E43
330
D50
100
AcDbEntity
  8
Dimension (ANSI)
440
 16777216
100
AcDbLine
 10
32.00018069253868
 20
11.02898372117148
 30
0.0
 11
32.00018069253868
 21
9.963186859171539
 31
0.0
  0
LINE
  5
E44
330
D50
100
AcDbEntity
  8
Dimension (ANSI)
440
 16777216
100
AcDbLine
 10
32.68768069253868
 20
11.12273372117152
 30
0.0
 11
32.68768069253868
 21
9.963186859171539
 31
0.0
  0
LINE
  5
E45
330
D50
100
AcDbEntity
  8
Dimension (ANSI)
440
 16777216
100
AcDbLine
 10
33.17980666564412
 20
10.58818685917154
 30
0.0
 11
33.67193263874955
 21
10.58818685917154
 31
0.0
  0
LINE
  5
E46
330
D50
100
AcDbEntity
  8
Dimension (ANSI)
440
 16777216
100
AcDbLine
 10
31.50805471943325
 20
10.58818685917154
 30
0.0
 11
30.36411563195648
 21
10.58818685917154
 31
0.0
  0
SOLID
  5
E47
330
D50
100
AcDbEntity
  8
Dimension (ANSI)
440
 16777216
100
AcDbTrace
 10
33.17980666564412
 20
10.67020785468911
 30
0.0
 11
33.17980666564412
 21
10.50616586365396
 31
0.0
 12
32.68768069253868
 22
10.58818685917154
 32
0.0
 13
32.68768069253868
 23
10.58818685917154
 33
0.0
  0
SOLID
  5
E48
330
D50
100
AcDbEntity
  8
Dimension (ANSI)
440
 16777216
100
AcDbTrace
 10
31.50805471943325
 20
10.67020785468911
 30
0.0
 11
31.50805471943325
 21
10.50616586365396
 31
0.0
 12
32.00018069253868
 22
10.58818685917154
 32
0.0
 13
32.00018069253868
 23
10.58818685917154
 33
0.0
  0
MTEXT
  5
E49
330
D50
100
AcDbEntity
  8
Dimension (ANSI)
440
 16777216
100
AcDbMText
 10
28.90901625004076
 20
10.58818685917154
 30
0.0
 40
0.5000000074505806
 41
0.0
 71
     5
 72
     1
  1
\A1;0.69{\P(2 PL.)}
  7
ROMANS
 73
     1
 44
1.0
  0
POINT
  5
E4A
330
D50
100
AcDbEntity
  8
Defpoints
 62
     0
440
 16777216
100
AcDbPoint
 10
32.00018069253868
 20
11.34148372117148
 30
0.0
  0
POINT
  5
E4B
330
D50
100
AcDbEntity
  8
Defpoints
 62
     0
440
 16777216
100
AcDbPoint
 10
32.68768069253868
 20
11.43523372117152
 30
0.0
  0
POINT
  5
E4C
330
D50
100
AcDbEntity
  8
Defpoints
 62
     0
440
 16777216
100
AcDbPoint
 10
32.68768069253868
 20
10.58818685917154
 30
0.0
  0
ENDBLK
  5
D52
330
D50
100
AcDbEntity
  8
0
100
AcDbBlockEnd
  0
BLOCK
  5
E4F
330
E4E
100
AcDbEntity
  8
0
100
AcDbBlockBegin
  2
*D16
 70
     1
 10
0.0
 20
0.0
 30
0.0
  3
*D16
  1

  0
LINE
  5
EFF
330
E4E
100
AcDbEntity
  8
Dimension (ANSI)
440
 16777216
100
AcDbLine
 10
44.26303522773859
 20
15.04046909197161
 30
0.0
 11
43.55237143801536
 21
15.0404690919716
 31
0.0
  0
LINE
  5
F00
330
E4E
100
AcDbEntity
  8
Dimension (ANSI)
440
 16777216
100
AcDbLine
 10
43.55237143801536
 20
15.0404690919716
 30
0.0
 11
41.91466011470893
 21
12.95025381455909
 31
0.0
  0
MTEXT
  5
F01
102
{ACAD_XDICTIONARY
360
158D
102
}
330
E4E
100
AcDbEntity
  8
Dimension (ANSI)
440
 16777216
100
AcDbMText
 10
45.71813460965429
 20
15.04046909197161
 30
0.0
 40
0.5000000074505806
 41
0.0
 71
     5
 72
     1
  1
\A1;\U+22050.563{\P(6 PL.)}
  7
ROMANS
 73
     1
 44
1.0
  0
SOLID
  5
F02
330
E4E
100
AcDbEntity
  8
Dimension (ANSI)
440
 16777216
100
AcDbTrace
 10
41.85009652489313
 20
13.00084024135315
 30
0.0
 11
41.97922370452473
 21
12.89966738776503
 31
0.0
 12
41.61114155394459
 22
12.56287227566429
 32
0.0
 13
41.61114155394459
 23
12.56287227566429
 33
0.0
  0
LINE
  5
F03
330
E4E
100
AcDbEntity
  8
Dimension (ANSI)
440
 16777216
100
AcDbLine
 10
40.9876806925389
 20
12.3414837211715
 30
0.0
 11
41.88768069253891
 21
12.3414837211715
 31
0.0
  0
LINE
  5
F04
330
E4E
100
AcDbEntity
  8
Dimension (ANSI)
440
 16777216
100
AcDbLine
 10
41.4376806925389
 20
11.89148372117149
 30
0.0
 11
41.4376806925389
 21
12.79148372117149
 31
0.0
  0
POINT
  5
F05
330
E4E
100
AcDbEntity
  8
Defpoints
 62
     0
440
 16777216
100
AcDbPoint
 10
41.61114155394459
 20
12.56287227566429
 30
0.0
  0
POINT
  5
F06
330
E4E
100
AcDbEntity
  8
Defpoints
 62
     0
440
 16777216
100
AcDbPoint
 10
41.26421983113323
 20
12.12009516667871
 30
0.0
  0
ENDBLK
  5
E50
330
E4E
100
AcDbEntity
  8
0
100
AcDbBlockEnd
  0
BLOCK
  5
F0E
330
F0D
100
AcDbEntity
  8
0
100
AcDbBlockBegin
  2
*D17
 70
     1
 10
0.0
 20
0.0
 30
0.0
  3
*D17
  1

  0
LINE
  5
FEC
330
F0D
100
AcDbEntity
  8
Dimension (ANSI)
440
 16777216
100
AcDbLine
 10
32.00018069254478
 20
48.15875543906758
 30
0.0
 11
32.00018069254478
 21
49.67736607860253
 31
0.0
  0
LINE
  5
FED
330
F0D
100
AcDbEntity
  8
Dimension (ANSI)
440
 16777216
100
AcDbLine
 10
34.12518069254475
 20
47.81500543906584
 30
0.0
 11
34.12518069254475
 21
49.67736607860253
 31
0.0
  0
LINE
  5
FEE
330
F0D
100
AcDbEntity
  8
Dimension (ANSI)
440
 16777216
100
AcDbLine
 10
33.63305471943932
 20
49.05236607860253
 30
0.0
 11
32.49230666565021
 21
49.05236607860253
 31
0.0
  0
LINE
  5
FEF
330
F0D
100
AcDbEntity
  8
Dimension (ANSI)
440
 16777216
100
AcDbLine
 10
32.00018069254478
 20
49.05236607860253
 30
0.0
 11
31.166074442685
 21
49.05236607860253
 31
0.0
  0
SOLID
  5
FF0
330
F0D
100
AcDbEntity
  8
Dimension (ANSI)
440
 16777216
100
AcDbTrace
 10
33.63305471943932
 20
49.1343870741201
 30
0.0
 11
33.63305471943932
 21
48.97034508308496
 31
0.0
 12
34.12518069254475
 22
49.05236607860253
 32
0.0
 13
34.12518069254475
 23
49.05236607860253
 33
0.0
  0
SOLID
  5
FF1
330
F0D
100
AcDbEntity
  8
Dimension (ANSI)
440
 16777216
100
AcDbTrace
 10
32.49230666565021
 20
49.1343870741201
 30
0.0
 11
32.49230666565021
 21
48.97034508308496
 31
0.0
 12
32.00018069254478
 22
49.05236607860253
 32
0.0
 13
32.00018069254478
 23
49.05236607860253
 33
0.0
  0
MTEXT
  5
FF2
330
F0D
100
AcDbEntity
  8
Dimension (ANSI)
440
 16777216
100
AcDbMText
 10
29.48478458120832
 20
49.30236608232782
 30
0.0
 40
0.5000000074505806
 41
0.0
 71
     1
 72
     1
  1
\A1;2.13
  7
ROMANS
 73
     1
 44
1.0
  0
POINT
  5
FF3
330
F0D
100
AcDbEntity
  8
Defpoints
 62
     0
440
 16777216
100
AcDbPoint
 10
32.00018069254478
 20
47.84625543906758
 30
0.0
  0
POINT
  5
FF4
330
F0D
100
AcDbEntity
  8
Defpoints
 62
     0
440
 16777216
100
AcDbPoint
 10
34.12518069254475
 20
47.50250543906584
 30
0.0
  0
POINT
  5
FF5
330
F0D
100
AcDbEntity
  8
Defpoints
 62
     0
440
 16777216
100
AcDbPoint
 10
34.12518069254475
 20
49.05236607860253
 30
0.0
  0
ENDBLK
  5
F0F
330
F0D
100
AcDbEntity
  8
0
100
AcDbBlockEnd
  0
BLOCK
  5
FF8
330
FF7
100
AcDbEntity
  8
0
100
AcDbBlockBegin
  2
*D18
 70
     1
 10
0.0
 20
0.0
 30
0.0
  3
*D18
  1

  0
LINE
  5
10D6
330
FF7
100
AcDbEntity
  8
Dimension (ANSI)
440
 16777216
100
AcDbLine
 10
32.00018069254478
 20
48.15875543906758
 30
0.0
 11
32.00018069254478
 21
50.96187242539138
 31
0.0
  0
LINE
  5
10D7
330
FF7
100
AcDbEntity
  8
Dimension (ANSI)
440
 16777216
100
AcDbLine
 10
37.06268069254476
 20
44.81500543906588
 30
0.0
 11
37.06268069254476
 21
50.96187242539138
 31
0.0
  0
LINE
  5
10D8
330
FF7
100
AcDbEntity
  8
Dimension (ANSI)
440
 16777216
100
AcDbLine
 10
32.49230666565021
 20
50.33687242539138
 30
0.0
 11
33.61204560432611
 21
50.33687242539138
 31
0.0
  0
LINE
  5
10D9
330
FF7
100
AcDbEntity
  8
Dimension (ANSI)
440
 16777216
100
AcDbLine
 10
36.57055471943932
 20
50.33687242539138
 30
0.0
 11
35.45081578076342
 21
50.33687242539138
 31
0.0
  0
SOLID
  5
10DA
330
FF7
100
AcDbEntity
  8
Dimension (ANSI)
440
 16777216
100
AcDbTrace
 10
32.49230666565021
 20
50.41889342090896
 30
0.0
 11
32.49230666565021
 21
50.25485142987381
 31
0.0
 12
32.00018069254478
 22
50.33687242539138
 32
0.0
 13
32.00018069254478
 23
50.33687242539138
 33
0.0
  0
SOLID
  5
10DB
330
FF7
100
AcDbEntity
  8
Dimension (ANSI)
440
 16777216
100
AcDbTrace
 10
36.57055471943932
 20
50.41889342090896
 30
0.0
 11
36.57055471943932
 21
50.25485142987381
 31
0.0
 12
37.06268069254476
 22
50.33687242539138
 32
0.0
 13
37.06268069254476
 23
50.33687242539138
 33
0.0
  0
MTEXT
  5
10DC
330
FF7
100
AcDbEntity
  8
Dimension (ANSI)
440
 16777216
100
AcDbMText
 10
33.76952591928674
 20
50.58687242911667
 30
0.0
 40
0.5000000074505806
 41
0.0
 71
     1
 72
     1
  1
\A1;5.06
  7
ROMANS
 73
     1
 44
1.0
  0
POINT
  5
10DD
330
FF7
100
AcDbEntity
  8
Defpoints
 62
     0
440
 16777216
100
AcDbPoint
 10
32.00018069254478
 20
47.84625543906758
 30
0.0
  0
POINT
  5
10DE
330
FF7
100
AcDbEntity
  8
Defpoints
 62
     0
440
 16777216
100
AcDbPoint
 10
37.06268069254476
 20
44.50250543906588
 30
0.0
  0
POINT
  5
10DF
330
FF7
100
AcDbEntity
  8
Defpoints
 62
     0
440
 16777216
100
AcDbPoint
 10
37.06268069254476
 20
50.33687242539138
 30
0.0
  0
ENDBLK
  5
FF9
330
FF7
100
AcDbEntity
  8
0
100
AcDbBlockEnd
  0
BLOCK
  5
10E2
330
10E1
100
AcDbEntity
  8
0
100
AcDbBlockBegin
  2
*D19
 70
     1
 10
0.0
 20
0.0
 30
0.0
  3
*D19
  1

  0
LINE
  5
11C0
330
10E1
100
AcDbEntity
  8
Dimension (ANSI)
440
 16777216
100
AcDbLine
 10
42.12518069254505
 20
48.15875543906758
 30
0.0
 11
42.12518069254505
 21
49.67736607860253
 31
0.0
  0
LINE
  5
11C1
330
10E1
100
AcDbEntity
  8
Dimension (ANSI)
440
 16777216
100
AcDbLine
 10
40.00018069254475
 20
47.81500543906584
 30
0.0
 11
40.00018069254475
 21
49.67736607860253
 31
0.0
  0
LINE
  5
11C2
330
10E1
100
AcDbEntity
  8
Dimension (ANSI)
440
 16777216
100
AcDbLine
 10
40.49230666565018
 20
49.05236607860253
 30
0.0
 11
41.63305471943962
 21
49.05236607860253
 31
0.0
  0
LINE
  5
11C3
330
10E1
100
AcDbEntity
  8
Dimension (ANSI)
440
 16777216
100
AcDbLine
 10
42.12518069254505
 20
49.05236607860253
 30
0.0
 11
42.95928694240481
 21
49.05236607860253
 31
0.0
  0
SOLID
  5
11C4
330
10E1
100
AcDbEntity
  8
Dimension (ANSI)
440
 16777216
100
AcDbTrace
 10
40.49230666565018
 20
49.1343870741201
 30
0.0
 11
40.49230666565018
 21
48.97034508308496
 31
0.0
 12
40.00018069254475
 22
49.05236607860253
 32
0.0
 13
40.00018069254475
 23
49.05236607860253
 33
0.0
  0
SOLID
  5
11C5
330
10E1
100
AcDbEntity
  8
Dimension (ANSI)
440
 16777216
100
AcDbTrace
 10
41.63305471943962
 20
49.1343870741201
 30
0.0
 11
41.63305471943962
 21
48.97034508308496
 31
0.0
 12
42.12518069254505
 22
49.05236607860253
 32
0.0
 13
42.12518069254505
 23
49.05236607860253
 33
0.0
  0
MTEXT
  5
11C6
330
10E1
100
AcDbEntity
  8
Dimension (ANSI)
440
 16777216
100
AcDbMText
 10
43.11676725736545
 20
49.30236608232782
 30
0.0
 40
0.5000000074505806
 41
0.0
 71
     1
 72
     1
  1
\A1;2.13
  7
ROMANS
 73
     1
 44
1.0
  0
POINT
  5
11C7
330
10E1
100
AcDbEntity
  8
Defpoints
 62
     0
440
 16777216
100
AcDbPoint
 10
42.12518069254505
 20
47.84625543906758
 30
0.0
  0
POINT
  5
11C8
330
10E1
100
AcDbEntity
  8
Defpoints
 62
     0
440
 16777216
100
AcDbPoint
 10
40.00018069254475
 20
47.50250543906584
 30
0.0
  0
POINT
  5
11C9
330
10E1
100
AcDbEntity
  8
Defpoints
 62
     0
440
 16777216
100
AcDbPoint
 10
40.00018069254475
 20
49.05236607860253
 30
0.0
  0
ENDBLK
  5
10E3
330
10E1
100
AcDbEntity
  8
0
100
AcDbBlockEnd
  0
BLOCK
  5
11CC
330
11CB
100
AcDbEntity
  8
0
100
AcDbBlockBegin
  2
*D20
 70
     1
 10
0.0
 20
0.0
 30
0.0
  3
*D20
  1

  0
LINE
  5
12B2
330
11CB
100
AcDbEntity
  8
Dimension (ANSI)
440
 16777216
100
AcDbLine
 10
31.68768069254479
 20
47.84625543906758
 30
0.0
 11
28.05260068882669
 21
47.84625543906758
 31
0.0
  0
LINE
  5
12B3
330
11CB
100
AcDbEntity
  8
Dimension (ANSI)
440
 16777216
100
AcDbLine
 10
32.90643069254475
 20
46.59625543906584
 30
0.0
 11
28.05260068882669
 21
46.59625543906584
 31
0.0
  0
LINE
  5
12B4
330
11CB
100
AcDbEntity
  8
Dimension (ANSI)
440
 16777216
100
AcDbLine
 10
28.67760068882669
 20
48.33838141217301
 30
0.0
 11
28.67760068882669
 21
48.83050738527844
 31
0.0
  0
LINE
  5
12B5
330
11CB
100
AcDbEntity
  8
Dimension (ANSI)
440
 16777216
100
AcDbLine
 10
28.67760068882669
 20
46.10412946596041
 30
0.0
 11
28.67760068882669
 21
45.61200349285498
 31
0.0
  0
SOLID
  5
12B6
330
11CB
100
AcDbEntity
  8
Dimension (ANSI)
440
 16777216
100
AcDbTrace
 10
28.59557969330912
 20
48.33838141217301
 30
0.0
 11
28.75962168434426
 21
48.33838141217301
 31
0.0
 12
28.67760068882669
 22
47.84625543906758
 32
0.0
 13
28.67760068882669
 23
47.84625543906758
 33
0.0
  0
SOLID
  5
12B7
330
11CB
100
AcDbEntity
  8
Dimension (ANSI)
440
 16777216
100
AcDbTrace
 10
28.59557969330912
 20
46.10412946596041
 30
0.0
 11
28.75962168434426
 21
46.10412946596041
 31
0.0
 12
28.67760068882669
 22
46.59625543906584
 32
0.0
 13
28.67760068882669
 23
46.59625543906584
 33
0.0
  0
MTEXT
  5
12B8
330
11CB
100
AcDbEntity
  8
Dimension (ANSI)
440
 16777216
100
AcDbMText
 10
27.95141020181513
 20
47.47125544279201
 30
0.0
 40
0.5000000074505806
 41
0.0
 71
     1
 72
     1
  1
\A1;1.25
  7
ROMANS
 73
     1
 44
1.0
  0
POINT
  5
12B9
330
11CB
100
AcDbEntity
  8
Defpoints
 62
     0
440
 16777216
100
AcDbPoint
 10
32.00018069254478
 20
47.84625543906758
 30
0.0
  0
POINT
  5
12BA
330
11CB
100
AcDbEntity
  8
Defpoints
 62
     0
440
 16777216
100
AcDbPoint
 10
33.21893069254475
 20
46.59625543906584
 30
0.0
  0
POINT
  5
12BB
330
11CB
100
AcDbEntity
  8
Defpoints
 62
     0
440
 16777216
100
AcDbPoint
 10
28.67760068882669
 20
46.59625543906584
 30
0.0
  0
ENDBLK
  5
11CD
330
11CB
100
AcDbEntity
  8
0
100
AcDbBlockEnd
  0
BLOCK
  5
12BE
330
12BD
100
AcDbEntity
  8
0
100
AcDbBlockBegin
  2
*D21
 70
     1
 10
0.0
 20
0.0
 30
0.0
  3
*D21
  1

  0
LINE
  5
139C
330
12BD
100
AcDbEntity
  8
Dimension (ANSI)
440
 16777216
100
AcDbLine
 10
31.68768069254479
 20
47.84625543906758
 30
0.0
 11
25.86336966892274
 21
47.84625543906758
 31
0.0
  0
LINE
  5
139D
330
12BD
100
AcDbEntity
  8
Dimension (ANSI)
440
 16777216
100
AcDbLine
 10
35.84393069254476
 20
43.59625543906588
 30
0.0
 11
25.86336966892274
 21
43.59625543906588
 31
0.0
  0
LINE
  5
139E
330
12BD
100
AcDbEntity
  8
Dimension (ANSI)
440
 16777216
100
AcDbLine
 10
26.48836966892274
 20
47.35412946596215
 30
0.0
 11
26.48836966892274
 21
46.12873575775264
 31
0.0
  0
LINE
  5
139F
330
12BD
100
AcDbEntity
  8
Dimension (ANSI)
440
 16777216
100
AcDbLine
 10
26.48836966892274
 20
44.08838141217131
 30
0.0
 11
26.48836966892274
 21
45.3137751203808
 31
0.0
  0
SOLID
  5
13A0
330
12BD
100
AcDbEntity
  8
Dimension (ANSI)
440
 16777216
100
AcDbTrace
 10
26.40634867340517
 20
47.35412946596215
 30
0.0
 11
26.57039066444031
 21
47.35412946596215
 31
0.0
 12
26.48836966892274
 22
47.84625543906758
 32
0.0
 13
26.48836966892274
 23
47.84625543906758
 33
0.0
  0
SOLID
  5
13A1
330
12BD
100
AcDbEntity
  8
Dimension (ANSI)
440
 16777216
100
AcDbTrace
 10
26.40634867340517
 20
44.08838141217131
 30
0.0
 11
26.57039066444031
 21
44.08838141217131
 31
0.0
 12
26.48836966892274
 22
43.59625543906588
 32
0.0
 13
26.48836966892274
 23
43.59625543906588
 33
0.0
  0
MTEXT
  5
13A2
330
12BD
100
AcDbEntity
  8
Dimension (ANSI)
440
 16777216
100
AcDbMText
 10
25.72646489566471
 20
45.97125544279202
 30
0.0
 40
0.5000000074505806
 41
0.0
 71
     1
 72
     1
  1
\A1;4.25
  7
ROMANS
 73
     1
 44
1.0
  0
POINT
  5
13A3
330
12BD
100
AcDbEntity
  8
Defpoints
 62
     0
440
 16777216
100
AcDbPoint
 10
32.00018069254478
 20
47.84625543906758
 30
0.0
  0
POINT
  5
13A4
330
12BD
100
AcDbEntity
  8
Defpoints
 62
     0
440
 16777216
100
AcDbPoint
 10
36.15643069254476
 20
43.59625543906588
 30
0.0
  0
POINT
  5
13A5
330
12BD
100
AcDbEntity
  8
Defpoints
 62
     0
440
 16777216
100
AcDbPoint
 10
26.48836966892274
 20
43.59625543906588
 30
0.0
  0
ENDBLK
  5
12BF
330
12BD
100
AcDbEntity
  8
0
100
AcDbBlockEnd
  0
BLOCK
  5
13A8
330
13A7
100
AcDbEntity
  8
0
100
AcDbBlockBegin
  2
*D22
 70
     1
 10
0.0
 20
0.0
 30
0.0
  3
*D22
  1

  0
LINE
  5
1457
330
13A7
100
AcDbEntity
  8
Dimension (ANSI)
440
 16777216
100
AcDbLine
 10
43.25763074240128
 20
45.56107778466265
 30
0.0
 11
42.76550476929585
 21
45.56107778466265
 31
0.0
  0
LINE
  5
1458
330
13A7
100
AcDbEntity
  8
Dimension (ANSI)
440
 16777216
100
AcDbLine
 10
42.76550476929585
 20
45.56107778466265
 30
0.0
 11
37.79387535483353
 21
43.84817757310172
 31
0.0
  0
MTEXT
  5
1459
102
{ACAD_XDICTIONARY
360
158F
102
}
330
13A7
100
AcDbEntity
  8
Dimension (ANSI)
440
 16777216
100
AcDbMText
 10
44.712730124317
 20
45.56107778466265
 30
0.0
 40
0.5000000074505806
 41
0.0
 71
     5
 72
     1
  1
\A1;\U+22050.563{\P(3 PL.)}
  7
ROMANS
 73
     1
 44
1.0
  0
SOLID
  5
145A
330
13A7
100
AcDbEntity
  8
Dimension (ANSI)
440
 16777216
100
AcDbTrace
 10
37.76715755528313
 20
43.92572499661068
 30
0.0
 11
37.82059315438394
 21
43.77063014959277
 31
0.0
 12
37.32859081377978
 22
43.6878707757993
 32
0.0
 13
37.32859081377978
 23
43.6878707757993
 33
0.0
  0
LINE
  5
145B
330
13A7
100
AcDbEntity
  8
Dimension (ANSI)
440
 16777216
100
AcDbLine
 10
36.61268069254476
 20
43.59625543906589
 30
0.0
 11
37.51268069254476
 21
43.5962554390659
 31
0.0
  0
LINE
  5
145C
330
13A7
100
AcDbEntity
  8
Dimension (ANSI)
440
 16777216
100
AcDbLine
 10
37.06268069254476
 20
43.14625543906589
 30
0.0
 11
37.06268069254476
 21
44.04625543906589
 31
0.0
  0
POINT
  5
145D
330
13A7
100
AcDbEntity
  8
Defpoints
 62
     0
440
 16777216
100
AcDbPoint
 10
37.32859081377978
 20
43.6878707757993
 30
0.0
  0
POINT
  5
145E
330
13A7
100
AcDbEntity
  8
Defpoints
 62
     0
440
 16777216
100
AcDbPoint
 10
36.79677057130974
 20
43.50464010233248
 30
0.0
  0
ENDBLK
  5
13A9
330
13A7
100
AcDbEntity
  8
0
100
AcDbBlockEnd
  0
BLOCK
  5
1461
330
1460
100
AcDbEntity
  8
0
100
AcDbBlockBegin
  2
*D23
 70
     1
 10
0.0
 20
0.0
 30
0.0
  3
*D23
  1

  0
LINE
  5
153F
330
1460
100
AcDbEntity
  8
Dimension (ANSI)
440
 16777216
100
AcDbLine
 10
10.90171738682119
 20
27.19773495842249
 30
0.0
 11
10.90171738682119
 21
25.16350523618288
 31
0.0
  0
LINE
  5
1540
330
1460
100
AcDbEntity
  8
Dimension (ANSI)
440
 16777216
100
AcDbLine
 10
18.65171738682126
 20
27.0572610996207
 30
0.0
 11
18.65171738682126
 21
25.16350523618288
 31
0.0
  0
LINE
  5
1541
330
1460
100
AcDbEntity
  8
Dimension (ANSI)
440
 16777216
100
AcDbLine
 10
11.39384335992662
 20
25.78850523618288
 30
0.0
 11
13.85733229860256
 21
25.78850523618288
 31
0.0
  0
LINE
  5
1542
330
1460
100
AcDbEntity
  8
Dimension (ANSI)
440
 16777216
100
AcDbLine
 10
18.15959141371583
 20
25.78850523618288
 30
0.0
 11
15.69610247503988
 21
25.78850523618288
 31
0.0
  0
SOLID
  5
1543
330
1460
100
AcDbEntity
  8
Dimension (ANSI)
440
 16777216
100
AcDbTrace
 10
11.39384335992662
 20
25.87052623170045
 30
0.0
 11
11.39384335992662
 21
25.70648424066531
 31
0.0
 12
10.90171738682119
 22
25.78850523618288
 32
0.0
 13
10.90171738682119
 23
25.78850523618288
 33
0.0
  0
SOLID
  5
1544
330
1460
100
AcDbEntity
  8
Dimension (ANSI)
440
 16777216
100
AcDbTrace
 10
18.15959141371583
 20
25.87052623170045
 30
0.0
 11
18.15959141371583
 21
25.70648424066531
 31
0.0
 12
18.65171738682126
 22
25.78850523618288
 32
0.0
 13
18.65171738682126
 23
25.78850523618288
 33
0.0
  0
MTEXT
  5
1545
330
1460
100
AcDbEntity
  8
Dimension (ANSI)
440
 16777216
100
AcDbMText
 10
14.01481261356319
 20
26.03850523990817
 30
0.0
 40
0.5000000074505806
 41
0.0
 71
     1
 72
     1
  1
\A1;7.75
  7
ROMANS
 73
     1
 44
1.0
  0
POINT
  5
1546
330
1460
100
AcDbEntity
  8
Defpoints
 62
     0
440
 16777216
100
AcDbPoint
 10
10.90171738682119
 20
27.51023495842249
 30
0.0
  0
POINT
  5
1547
330
1460
100
AcDbEntity
  8
Defpoints
 62
     0
440
 16777216
100
AcDbPoint
 10
18.65171738682126
 20
27.3697610996207
 30
0.0
  0
POINT
  5
1548
330
1460
100
AcDbEntity
  8
Defpoints
 62
     0
440
 16777216
100
AcDbPoint
 10
18.65171738682126
 20
25.78850523618288
 30
0.0
  0
ENDBLK
  5
1462
330
1460
100
AcDbEntity
  8
0
100
AcDbBlockEnd
  0
ENDSEC
  0
SECTION
  2
ENTITIES
  0
SPLINE
  5
107
330
6C
100
AcDbEntity
  8
Visible (ANSI)
100
AcDbSpline
210
0.0
220
0.0
230
1.0
 70
     8
 71
     3
 72
    11
 73
     7
 74
     0
 42
0.0000000001
 43
0.0000000001
 40
0.0
 40
0.0
 40
0.0
 40
0.0
 40
1.018582815488552
 40
1.018582815488552
 40
1.018582815488552
 40
1.570796326794897
 40
1.570796326794897
 40
1.570796326794897
 40
1.570796326794897
 10
41.98458069254207
 20
27.36963495842248
 30
0.0
 10
42.03231827382796
 20
27.36963495842248
 30
0.0
 10
42.07924082911016
 20
27.39583786400161
 30
0.0
 10
42.10428267627232
 20
27.43647999187079
 30
0.0
 10
42.11785883929092
 20
27.45851367611946
 30
0.0
 10
42.12518069254207
 20
27.48435455185926
 30
0.0
 10
42.12518069254207
 20
27.51023495842249
 30
0.0
  0
LINE
  5
108
330
6C
100
AcDbEntity
  8
Visible (ANSI)
100
AcDbLine
 10
41.98458069254207
 20
27.49463495842249
 30
0.0
 11
41.98458069254207
 21
27.36963495842248
 31
0.0
  0
LINE
  5
109
330
6C
100
AcDbEntity
  8
Visible (ANSI)
100
AcDbLine
 10
42.07408943253695
 20
27.51023495842249
 30
0.0
 11
42.12518069254207
 21
27.51023495842249
 31
0.0
  0
LINE
  5
10A
330
6C
100
AcDbEntity
  8
Visible (ANSI)
100
AcDbLine
 10
42.00018069254207
 20
27.51023495842249
 30
0.0
 11
42.07408943253695
 21
27.51023495842249
 31
0.0
  0
SPLINE
  5
10B
330
6C
100
AcDbEntity
  8
Visible (ANSI)
100
AcDbSpline
210
0.0
220
0.0
230
1.0
 70
     8
 71
     3
 72
     8
 73
     4
 74
     0
 42
0.0000000001
 43
0.0000000001
 40
0.0
 40
0.0
 40
0.0
 40
0.0
 40
1.570796326794897
 40
1.570796326794897
 40
1.570796326794897
 40
1.570796326794897
 10
42.00018069254207
 20
27.51023495842249
 30
0.0
 10
42.00018069254207
 20
27.50206681752315
 30
0.0
 10
41.9927488334414
 20
27.49463495842249
 30
0.0
 10
41.98458069254207
 20
27.49463495842249
 30
0.0
  0
LINE
  5
10C
330
6C
100
AcDbEntity
  8
Visible Narrow (ANSI)
100
AcDbLine
 10
32.14078069254187
 20
27.51023495842249
 30
0.0
 11
32.25018069254183
 21
27.51023495842249
 31
0.0
  0
LINE
  5
10D
330
6C
100
AcDbEntity
  8
Visible Narrow (ANSI)
100
AcDbLine
 10
41.87518069254184
 20
27.51023495842249
 30
0.0
 11
41.98458069254186
 21
27.51023495842249
 31
0.0
  0
SPLINE
  5
10E
330
6C
100
AcDbEntity
  8
Visible (ANSI)
100
AcDbSpline
210
0.0
220
0.0
230
1.0
 70
     8
 71
     3
 72
    11
 73
     7
 74
     0
 42
0.0000000001
 43
0.0000000001
 40
0.0
 40
0.0
 40
0.0
 40
0.0
 40
1.01858281548856
 40
1.01858281548856
 40
1.01858281548856
 40
1.570796326794896
 40
1.570796326794896
 40
1.570796326794896
 40
1.570796326794896
 10
32.00018069254188
 20
27.51023495842248
 30
0.0
 10
32.00018069254188
 20
27.46249737713658
 30
0.0
 10
32.02638359812099
 20
27.41557482185439
 30
0.0
 10
32.06702572599018
 20
27.39053297469223
 30
0.0
 10
32.08905941023885
 20
27.37695681167363
 30
0.0
 10
32.11490028597865
 20
27.36963495842248
 30
0.0
 10
32.14078069254187
 20
27.36963495842248
 30
0.0
  0
LINE
  5
10F
330
6C
100
AcDbEntity
  8
Visible (ANSI)
100
AcDbLine
 10
32.14078069254187
 20
27.49463495842248
 30
0.0
 11
32.14078069254187
 21
27.36963495842248
 31
0.0
  0
SPLINE
  5
110
330
6C
100
AcDbEntity
  8
Visible (ANSI)
100
AcDbSpline
210
0.0
220
0.0
230
1.0
 70
     8
 71
     3
 72
     8
 73
     4
 74
     0
 42
0.0000000001
 43
0.0000000001
 40
0.0
 40
0.0
 40
0.0
 40
0.0
 40
1.570796326794896
 40
1.570796326794896
 40
1.570796326794896
 40
1.570796326794896
 10
32.12518069254187
 20
27.51023495842248
 30
0.0
 10
32.12518069254187
 20
27.50206681752315
 30
0.0
 10
32.13261255164254
 20
27.49463495842248
 30
0.0
 10
32.14078069254187
 20
27.49463495842248
 30
0.0
  0
LINE
  5
111
330
6C
100
AcDbEntity
  8
Visible (ANSI)
100
AcDbLine
 10
32.05127195254699
 20
27.51023495842248
 30
0.0
 11
32.12518069254187
 21
27.51023495842248
 31
0.0
  0
LINE
  5
112
330
6C
100
AcDbEntity
  8
Visible (ANSI)
100
AcDbLine
 10
32.00018069254188
 20
27.51023495842248
 30
0.0
 11
32.05127195254699
 21
27.51023495842248
 31
0.0
  0
LINE
  5
113
330
6C
100
AcDbEntity
  8
Visible (ANSI)
100
AcDbLine
 10
41.98458069254207
 20
27.49463495842249
 30
0.0
 11
41.87518069254184
 21
27.49463495842249
 31
0.0
  0
LINE
  5
114
330
6C
100
AcDbEntity
  8
Visible (ANSI)
100
AcDbLine
 10
40.87518069254207
 20
27.36963495842248
 30
0.0
 11
41.98458069254207
 21
27.36963495842248
 31
0.0
  0
LINE
  5
115
330
6C
100
AcDbEntity
  8
Visible (ANSI)
100
AcDbLine
 10
40.87518069254207
 20
27.3697610996207
 30
0.0
 11
40.87518069254207
 21
27.36963495842248
 31
0.0
  0
LINE
  5
116
330
6C
100
AcDbEntity
  8
Visible (ANSI)
100
AcDbLine
 10
33.27227777945395
 20
27.36963495842248
 30
0.0
 11
40.85308360562982
 21
27.36963495842248
 31
0.0
  0
LINE
  5
117
330
6C
100
AcDbEntity
  8
Visible (ANSI)
100
AcDbLine
 10
32.14078069254187
 20
27.49463495842248
 30
0.0
 11
32.25018069254183
 21
27.49463495842248
 31
0.0
  0
LINE
  5
118
330
6C
100
AcDbEntity
  8
Visible (ANSI)
100
AcDbLine
 10
32.14078069254187
 20
27.36963495842248
 30
0.0
 11
33.25018069254187
 21
27.36963495842248
 31
0.0
  0
LINE
  5
119
330
6C
100
AcDbEntity
  8
Visible (ANSI)
100
AcDbLine
 10
33.25018069254187
 20
27.3697610996207
 30
0.0
 11
33.25018069254187
 21
27.36963495842248
 31
0.0
  0
LINE
  5
11A
330
6C
100
AcDbEntity
  8
Visible (ANSI)
100
AcDbLine
 10
32.12518069254187
 20
27.51023495842249
 30
0.0
 11
32.14078069254187
 21
27.51023495842249
 31
0.0
  0
LINE
  5
11B
330
6C
100
AcDbEntity
  8
Visible (ANSI)
100
AcDbLine
 10
41.98458069254186
 20
27.51023495842249
 30
0.0
 11
42.00018069254187
 21
27.51023495842249
 31
0.0
  0
SPLINE
  5
11C
330
6C
100
AcDbEntity
  8
Visible (ANSI)
100
AcDbSpline
210
0.0
220
0.0
230
1.0
 70
     8
 71
     3
 72
     8
 73
     4
 74
     0
 42
0.0000000001
 43
0.0000000001
 40
0.0
 40
0.0
 40
0.0
 40
0.0
 40
0.1111819782024558
 40
0.1111819782024558
 40
0.1111819782024558
 40
0.1111819782024558
 10
32.14078069254187
 20
27.51023495842249
 30
0.0
 10
32.14130204123478
 20
27.50502422971073
 30
0.0
 10
32.14182338992769
 20
27.49982321163261
 30
0.0
 10
32.1423447386206
 20
27.4946593003474
 30
0.0
  0
SPLINE
  5
11D
330
6C
100
AcDbEntity
  8
Visible (ANSI)
100
AcDbSpline
210
0.0
220
0.0
230
1.0
 70
     8
 71
     3
 72
     8
 73
     4
 74
     0
 42
0.0000000001
 43
0.0000000001
 40
1.45961434859247
 40
1.45961434859247
 40
1.45961434859247
 40
1.45961434859247
 40
1.570796326794895
 40
1.570796326794895
 40
1.570796326794895
 40
1.570796326794895
 10
41.98301664646314
 20
27.49463833032557
 30
0.0
 10
41.98353799515606
 20
27.49981510347152
 30
0.0
 10
41.98405934384896
 20
27.50502422971073
 30
0.0
 10
41.98458069254186
 20
27.51023495842249
 30
0.0
  0
LINE
  5
11E
330
6C
100
AcDbEntity
  8
Visible (ANSI)
100
AcDbLine
 10
40.85308360562982
 20
27.36963495842248
 30
0.0
 11
40.87518069254191
 21
27.36963495842248
 31
0.0
  0
LINE
  5
11F
330
6C
100
AcDbEntity
  8
Visible (ANSI)
100
AcDbLine
 10
40.85308360562982
 20
27.3697610996207
 30
0.0
 11
40.85308360562982
 21
27.36963495842248
 31
0.0
  0
SPLINE
  5
120
330
6C
100
AcDbEntity
  8
Visible (ANSI)
100
AcDbSpline
210
0.0
220
0.0
230
1.0
 70
     8
 71
     3
 72
     8
 73
     4
 74
     0
 42
0.0000000001
 43
0.0000000001
 40
0.0
 40
0.0
 40
0.0
 40
0.0
 40
1.570796326794895
 40
1.570796326794895
 40
1.570796326794895
 40
1.570796326794895
 10
41.98458069254186
 20
27.51023495842249
 30
0.0
 10
41.97721499690451
 20
27.50206681752315
 30
0.0
 10
41.96984930126715
 20
27.49463495842248
 30
0.0
 10
41.96248360562979
 20
27.49463495842248
 30
0.0
  0
SPLINE
  5
121
330
6C
100
AcDbEntity
  8
Visible (ANSI)
100
AcDbSpline
210
0.0
220
0.0
230
1.0
 70
     8
 71
     3
 72
     8
 73
     4
 74
     0
 42
0.0000000001
 43
0.0000000001
 40
0.0
 40
0.0
 40
0.0
 40
0.0
 40
1.570796326794896
 40
1.570796326794896
 40
1.570796326794896
 40
1.570796326794896
 10
32.14078069254187
 20
27.51023495842249
 30
0.0
 10
32.14814638817923
 20
27.50206681752315
 30
0.0
 10
32.1555120838166
 20
27.49463495842248
 30
0.0
 10
32.16287777945395
 20
27.49463495842248
 30
0.0
  0
LINE
  5
122
330
6C
100
AcDbEntity
  8
Visible (ANSI)
100
AcDbLine
 10
33.25018069254188
 20
27.36963495842248
 30
0.0
 11
33.27227777945395
 21
27.36963495842248
 31
0.0
  0
LINE
  5
123
330
6C
100
AcDbEntity
  8
Visible (ANSI)
100
AcDbLine
 10
33.27227777945395
 20
27.3697610996207
 30
0.0
 11
33.27227777945395
 21
27.36963495842248
 31
0.0
  0
LINE
  5
124
330
6C
100
AcDbEntity
  8
Visible (ANSI)
100
AcDbLine
 10
32.00018069254188
 20
27.51023495842248
 30
0.0
 11
32.00018069254187
 21
33.22903495842247
 31
0.0
  0
LINE
  5
125
330
6C
100
AcDbEntity
  8
Visible (ANSI)
100
AcDbLine
 10
42.00018069254207
 20
27.51023495842249
 30
0.0
 11
42.00018069254213
 21
33.22903495842248
 31
0.0
  0
LINE
  5
126
330
6C
100
AcDbEntity
  8
Visible (ANSI)
100
AcDbLine
 10
42.12518069254214
 20
33.22903495842248
 30
0.0
 11
42.12518069254207
 21
27.51023495842249
 31
0.0
  0
LINE
  5
127
330
6C
100
AcDbEntity
  8
Visible (ANSI)
100
AcDbLine
 10
42.00018069254213
 20
33.22903495842248
 30
0.0
 11
42.12518069254214
 21
33.22903495842248
 31
0.0
  0
LINE
  5
128
330
6C
100
AcDbEntity
  8
Visible (ANSI)
100
AcDbLine
 10
32.12518069254187
 20
33.22903495842247
 30
0.0
 11
32.12518069254187
 21
27.51023495842248
 31
0.0
  0
LINE
  5
129
330
6C
100
AcDbEntity
  8
Visible (ANSI)
100
AcDbLine
 10
32.00018069254187
 20
33.22903495842247
 30
0.0
 11
32.12518069254187
 21
33.22903495842247
 31
0.0
  0
LINE
  5
12A
330
6C
100
AcDbEntity
  8
Visible Narrow (ANSI)
100
AcDbLine
 10
32.14078069254187
 20
33.22903495842248
 30
0.0
 11
32.14078069254187
 21
27.51023495842249
 31
0.0
  0
LINE
  5
12B
330
6C
100
AcDbEntity
  8
Visible Narrow (ANSI)
100
AcDbLine
 10
41.98458069254186
 20
27.51023495842249
 30
0.0
 11
41.98458069254186
 21
33.22903495842248
 31
0.0
  0
LINE
  5
12C
330
6C
100
AcDbEntity
  8
Visible (ANSI)
100
AcDbLine
 10
32.14078069254187
 20
33.22903495842248
 30
0.0
 11
32.12518069254187
 21
33.22903495842248
 31
0.0
  0
LINE
  5
12D
330
6C
100
AcDbEntity
  8
Visible (ANSI)
100
AcDbLine
 10
32.75018069254187
 20
33.2446349584225
 30
0.0
 11
32.14078069254187
 21
33.24463495842248
 31
0.0
  0
LINE
  5
12E
330
6C
100
AcDbEntity
  8
Visible (ANSI)
100
AcDbLine
 10
32.75018069254187
 20
33.3696349584225
 30
0.0
 11
32.14078069254186
 21
33.36963495842248
 31
0.0
  0
LINE
  5
12F
330
6C
100
AcDbEntity
  8
Visible (ANSI)
100
AcDbLine
 10
41.98458069254214
 20
33.36963495842248
 30
0.0
 11
41.37518069254213
 21
33.36963495842248
 31
0.0
  0
LINE
  5
130
330
6C
100
AcDbEntity
  8
Visible (ANSI)
100
AcDbLine
 10
41.37518069254213
 20
33.24463495842247
 30
0.0
 11
41.98458069254214
 21
33.24463495842248
 31
0.0
  0
LINE
  5
131
330
6C
100
AcDbEntity
  8
Visible (ANSI)
100
AcDbLine
 10
40.85308360562982
 20
33.24463495842252
 30
0.0
 11
33.27227777945394
 21
33.24463495842252
 31
0.0
  0
LINE
  5
132
330
6C
100
AcDbEntity
  8
Visible (ANSI)
100
AcDbLine
 10
40.85308360562982
 20
33.36963495842252
 30
0.0
 11
33.27227777945394
 21
33.36963495842252
 31
0.0
  0
LINE
  5
133
330
6C
100
AcDbEntity
  8
Visible (ANSI)
100
AcDbLine
 10
42.00018069254187
 20
33.22903495842248
 30
0.0
 11
41.98458069254186
 21
33.22903495842248
 31
0.0
  0
LINE
  5
134
330
6C
100
AcDbEntity
  8
Visible (ANSI)
100
AcDbLine
 10
33.25018069254187
 20
33.36963495842252
 30
0.0
 11
32.75018069254187
 21
33.3696349584225
 31
0.0
  0
LINE
  5
135
330
6C
100
AcDbEntity
  8
Visible (ANSI)
100
AcDbLine
 10
32.75018069254187
 20
33.3696349584225
 30
0.0
 11
32.75018069254187
 21
33.2446349584225
 31
0.0
  0
LINE
  5
136
330
6C
100
AcDbEntity
  8
Visible (ANSI)
100
AcDbLine
 10
32.75018069254187
 20
33.2446349584225
 30
0.0
 11
33.25018069254188
 21
33.24463495842252
 31
0.0
  0
LINE
  5
137
330
6C
100
AcDbEntity
  8
Visible (ANSI)
100
AcDbLine
 10
33.25018069254188
 20
33.24463495842252
 30
0.0
 11
33.25018069254187
 21
33.36963495842252
 31
0.0
  0
LINE
  5
138
330
6C
100
AcDbEntity
  8
Visible (ANSI)
100
AcDbLine
 10
41.37518069254213
 20
33.36963495842248
 30
0.0
 11
40.87518069254211
 21
33.36963495842249
 31
0.0
  0
LINE
  5
139
330
6C
100
AcDbEntity
  8
Visible (ANSI)
100
AcDbLine
 10
40.87518069254211
 20
33.36963495842249
 30
0.0
 11
40.87518069254211
 21
33.24463495842249
 31
0.0
  0
LINE
  5
13A
330
6C
100
AcDbEntity
  8
Visible (ANSI)
100
AcDbLine
 10
40.87518069254211
 20
33.24463495842249
 30
0.0
 11
41.37518069254213
 21
33.24463495842247
 31
0.0
  0
LINE
  5
13B
330
6C
100
AcDbEntity
  8
Visible (ANSI)
100
AcDbLine
 10
41.37518069254213
 20
33.24463495842247
 30
0.0
 11
41.37518069254213
 21
33.36963495842248
 31
0.0
  0
ARC
  5
13C
330
6C
100
AcDbEntity
  8
Visible (ANSI)
100
AcDbCircle
 10
32.14078069254187
 20
33.22903495842247
 30
0.0
 40
0.0156000000000007
100
AcDbArc
 50
90.0
 51
180.0
  0
ARC
  5
13D
330
6C
100
AcDbEntity
  8
Visible (ANSI)
100
AcDbCircle
 10
32.14078069254187
 20
33.22903495842247
 30
0.0
 40
0.1406000000000003
100
AcDbArc
 50
90.00000000000285
 51
180.0
  0
ARC
  5
13E
330
6C
100
AcDbEntity
  8
Visible (ANSI)
100
AcDbCircle
 10
41.98458069254214
 20
33.22903495842248
 30
0.0
 40
0.1405999999999981
100
AcDbArc
 50
0.0
 51
90.0
  0
ARC
  5
13F
330
6C
100
AcDbEntity
  8
Visible (ANSI)
100
AcDbCircle
 10
41.98458069254214
 20
33.22903495842248
 30
0.0
 40
0.0155999999999958
100
AcDbArc
 50
0.0
 51
90.0
  0
LINE
  5
140
330
6C
100
AcDbEntity
  8
Visible Narrow (ANSI)
100
AcDbLine
 10
41.98458069254186
 20
33.22903495842248
 30
0.0
 11
32.14078069254187
 21
33.22903495842248
 31
0.0
  0
SPLINE
  5
141
330
6C
100
AcDbEntity
  8
Visible (ANSI)
100
AcDbSpline
210
0.0
220
0.0
230
1.0
 70
     8
 71
     3
 72
     8
 73
     4
 74
     0
 42
0.0000000001
 43
0.0000000001
 40
0.0
 40
0.0
 40
0.0
 40
0.0
 40
0.1111819782024273
 40
0.1111819782024273
 40
0.1111819782024273
 40
0.1111819782024273
 10
41.98458069254186
 20
33.22903495842248
 30
0.0
 10
41.98405934384896
 20
33.23424568713424
 30
0.0
 10
41.98353799515605
 20
33.23944670521236
 30
0.0
 10
41.98301664646314
 20
33.24461061649756
 30
0.0
  0
SPLINE
  5
142
330
6C
100
AcDbEntity
  8
Visible (ANSI)
100
AcDbSpline
210
0.0
220
0.0
230
1.0
 70
     8
 71
     3
 72
     8
 73
     4
 74
     0
 42
0.0000000001
 43
0.0000000001
 40
1.45961434859246
 40
1.45961434859246
 40
1.45961434859246
 40
1.45961434859246
 40
1.570796326794887
 40
1.570796326794887
 40
1.570796326794887
 40
1.570796326794887
 10
32.1423447386206
 20
33.2446315865194
 30
0.0
 10
32.14182338992768
 20
33.23945481337344
 30
0.0
 10
32.14130204123478
 20
33.23424568713424
 30
0.0
 10
32.14078069254187
 20
33.22903495842247
 30
0.0
  0
LINE
  5
143
330
6C
100
AcDbEntity
  8
Visible (ANSI)
100
AcDbLine
 10
40.87518069254191
 20
33.24463495842252
 30
0.0
 11
40.85308360562982
 21
33.24463495842252
 31
0.0
  0
LINE
  5
144
330
6C
100
AcDbEntity
  8
Visible (ANSI)
100
AcDbLine
 10
33.25018069254188
 20
33.24463495842252
 30
0.0
 11
33.27227777945394
 21
33.24463495842252
 31
0.0
  0
LINE
  5
145
330
6C
100
AcDbEntity
  8
Visible (ANSI)
100
AcDbLine
 10
33.27227777945394
 20
33.36963495842252
 30
0.0
 11
33.25018069254187
 21
33.36963495842252
 31
0.0
  0
LINE
  5
146
330
6C
100
AcDbEntity
  8
Visible (ANSI)
100
AcDbLine
 10
33.27227777945394
 20
33.24463495842252
 30
0.0
 11
33.27227777945394
 21
33.36963495842252
 31
0.0
  0
SPLINE
  5
147
330
6C
100
AcDbEntity
  8
Visible (ANSI)
100
AcDbSpline
210
0.0
220
0.0
230
1.0
 70
     8
 71
     3
 72
     8
 73
     4
 74
     0
 42
0.0000000001
 43
0.0000000001
 40
0.0
 40
0.0
 40
0.0
 40
0.0
 40
1.570796326794887
 40
1.570796326794887
 40
1.570796326794887
 40
1.570796326794887
 10
32.14078069254187
 20
33.22903495842248
 30
0.0
 10
32.14814638817923
 20
33.23720309932182
 30
0.0
 10
32.1555120838166
 20
33.24463495842248
 30
0.0
 10
32.16287777945395
 20
33.24463495842248
 30
0.0
  0
SPLINE
  5
148
330
6C
100
AcDbEntity
  8
Visible (ANSI)
100
AcDbSpline
210
0.0
220
0.0
230
1.0
 70
     8
 71
     3
 72
     8
 73
     4
 74
     0
 42
0.0000000001
 43
0.0000000001
 40
0.0
 40
0.0
 40
0.0
 40
0.0
 40
1.570796326794887
 40
1.570796326794887
 40
1.570796326794887
 40
1.570796326794887
 10
41.98458069254186
 20
33.22903495842248
 30
0.0
 10
41.97721499690451
 20
33.23720309932182
 30
0.0
 10
41.96984930126714
 20
33.24463495842248
 30
0.0
 10
41.96248360562979
 20
33.24463495842248
 30
0.0
  0
LINE
  5
149
330
6C
100
AcDbEntity
  8
Visible (ANSI)
100
AcDbLine
 10
40.87518069254191
 20
33.36963495842252
 30
0.0
 11
40.85308360562982
 21
33.36963495842252
 31
0.0
  0
LINE
  5
14A
330
6C
100
AcDbEntity
  8
Visible (ANSI)
100
AcDbLine
 10
40.85308360562982
 20
33.24463495842252
 30
0.0
 11
40.85308360562982
 21
33.36963495842252
 31
0.0
  0
LINE
  5
14B
330
6C
100
AcDbEntity
  8
Visible (ANSI)
100
AcDbLine
 10
41.75018069254183
 20
27.49476109962071
 30
0.0
 11
41.87518069254183
 21
27.49476109962071
 31
0.0
  0
LINE
  5
14C
330
6C
100
AcDbEntity
  8
Visible Narrow (ANSI)
100
AcDbLine
 10
41.75018069254183
 20
27.49476109962071
 30
0.0
 11
41.75018069254183
 21
27.3697610996207
 31
0.0
  0
LINE
  5
14D
330
6C
100
AcDbEntity
  8
Visible (ANSI)
100
AcDbLine
 10
41.87518069254183
 20
27.3697610996207
 30
0.0
 11
41.75018069254183
 21
27.3697610996207
 31
0.0
  0
LINE
  5
14E
330
6C
100
AcDbEntity
  8
Visible (ANSI)
100
AcDbLine
 10
41.87518069254184
 20
27.3697610996207
 30
0.0
 11
41.87518069254184
 21
27.49476109962071
 31
0.0
  0
LINE
  5
14F
330
6C
100
AcDbEntity
  8
Visible (ANSI)
100
AcDbLine
 10
32.37518069254183
 20
27.3697610996207
 30
0.0
 11
32.25018069254183
 21
27.3697610996207
 31
0.0
  0
LINE
  5
150
330
6C
100
AcDbEntity
  8
Visible (ANSI)
100
AcDbLine
 10
32.25018069254183
 20
27.4947610996207
 30
0.0
 11
32.37518069254183
 21
27.4947610996207
 31
0.0
  0
LINE
  5
151
330
6C
100
AcDbEntity
  8
Visible (ANSI)
100
AcDbLine
 10
32.25018069254183
 20
27.4947610996207
 30
0.0
 11
32.25018069254183
 21
27.3697610996207
 31
0.0
  0
LINE
  5
152
330
6C
100
AcDbEntity
  8
Visible Narrow (ANSI)
100
AcDbLine
 10
32.37518069254183
 20
27.3697610996207
 30
0.0
 11
32.37518069254183
 21
27.4947610996207
 31
0.0
  0
LINE
  5
153
330
6C
100
AcDbEntity
  8
Visible (ANSI)
100
AcDbLine
 10
41.87518069254184
 20
27.6196349584225
 30
0.0
 11
41.87518069254184
 21
27.57845417185733
 31
0.0
  0
LINE
  5
154
330
6C
100
AcDbEntity
  8
Visible (ANSI)
100
AcDbLine
 10
32.25018069254183
 20
27.6196349584225
 30
0.0
 11
32.25018069254183
 21
27.57845417185733
 31
0.0
  0
LINE
  5
155
330
6C
100
AcDbEntity
  8
Visible (ANSI)
100
AcDbLine
 10
41.87518069254184
 20
27.6196349584225
 30
0.0
 11
32.25018069254183
 21
27.6196349584225
 31
0.0
  0
LINE
  5
156
330
6C
100
AcDbEntity
  8
Visible Narrow (ANSI)
100
AcDbLine
 10
41.87518069254184
 20
27.57845417185733
 30
0.0
 11
32.25018069254183
 21
27.57845417185733
 31
0.0
  0
LINE
  5
157
330
6C
100
AcDbEntity
  8
Visible (ANSI)
100
AcDbLine
 10
41.87518069254184
 20
27.49933023383419
 30
0.0
 11
41.87518069254184
 21
27.57845417185733
 31
0.0
  0
LINE
  5
158
330
6C
100
AcDbEntity
  8
Visible (ANSI)
100
AcDbLine
 10
32.25018069254183
 20
27.57845417185733
 30
0.0
 11
32.25018069254183
 21
27.49933023383419
 31
0.0
  0
LINE
  5
159
330
6C
100
AcDbEntity
  8
Visible (ANSI)
100
AcDbLine
 10
41.87518069254184
 20
27.49476109962071
 30
0.0
 11
41.87518069254184
 21
27.49933023383419
 31
0.0
  0
LINE
  5
15A
330
6C
100
AcDbEntity
  8
Visible (ANSI)
100
AcDbLine
 10
32.25018069254183
 20
27.4947610996207
 30
0.0
 11
32.25018069254183
 21
27.49933023383419
 31
0.0
  0
LINE
  5
15B
330
6C
100
AcDbEntity
  8
Visible Narrow (ANSI)
100
AcDbLine
 10
41.87518069254184
 20
27.49933023383419
 30
0.0
 11
32.25018069254183
 21
27.49933023383419
 31
0.0
  0
LINE
  5
15C
330
6C
100
AcDbEntity
  8
Visible (ANSI)
100
AcDbLine
 10
32.37518069254183
 20
27.3697610996207
 30
0.0
 11
41.75018069254183
 21
27.3697610996207
 31
0.0
  0
LINE
  5
15D
330
6C
100
AcDbEntity
  8
Visible (ANSI)
100
AcDbLine
 10
41.75018069254183
 20
27.49476109962071
 30
0.0
 11
32.37518069254183
 21
27.4947610996207
 31
0.0
  0
MTEXT
  5
15F
330
6C
100
AcDbEntity
  8
Symbol (ANSI)
100
AcDbMText
 10
34.64216764661598
 20
23.97388079293398
 30
0.0
 40
0.600000007415381
 41
0.0
 71
     7
 72
     1
  1
FRONT VIEW
  7
Text Style168
 73
     1
 44
1.0
  0
LINE
  5
161
330
6C
100
AcDbEntity
  8
Symbol (ANSI)
370
    30
100
AcDbLine
 10
34.58216749227404
 20
23.85152260605953
 30
0.0
 11
39.40599251370242
 21
23.85152260605953
 31
0.0
  0
SPLINE
  5
162
330
6C
100
AcDbEntity
  8
Visible (ANSI)
100
AcDbSpline
210
0.0
220
0.0
230
1.0
 70
     8
 71
     3
 72
    11
 73
     7
 74
     0
 42
0.0000000001
 43
0.0000000001
 40
0.0
 40
0.0
 40
0.0
 40
0.0
 40
1.01858281548856
 40
1.01858281548856
 40
1.01858281548856
 40
1.570796326794896
 40
1.570796326794896
 40
1.570796326794896
 40
1.570796326794896
 10
10.90171738682119
 20
27.51023495842249
 30
0.0
 10
10.90171738682119
 20
27.46249737713659
 30
0.0
 10
10.92792029240032
 20
27.41557482185439
 30
0.0
 10
10.9685624202695
 20
27.39053297469223
 30
0.0
 10
10.99059610451817
 20
27.37695681167363
 30
0.0
 10
11.01643698025797
 20
27.36963495842248
 30
0.0
 10
11.04231738682119
 20
27.36963495842248
 30
0.0
  0
LINE
  5
163
330
6C
100
AcDbEntity
  8
Visible (ANSI)
100
AcDbLine
 10
11.04231738682119
 20
27.49463495842248
 30
0.0
 11
11.04388143289992
 21
27.49463495842248
 31
0.0
  0
LINE
  5
164
330
6C
100
AcDbEntity
  8
Visible (ANSI)
100
AcDbLine
 10
11.04231738682119
 20
27.49463495842248
 30
0.0
 11
11.04231738682119
 21
27.36963495842248
 31
0.0
  0
SPLINE
  5
165
330
6C
100
AcDbEntity
  8
Visible (ANSI)
100
AcDbSpline
210
0.0
220
0.0
230
1.0
 70
     8
 71
     3
 72
     8
 73
     4
 74
     0
 42
0.0000000001
 43
0.0000000001
 40
0.0
 40
0.0
 40
0.0
 40
0.0
 40
1.570796326794896
 40
1.570796326794896
 40
1.570796326794896
 40
1.570796326794896
 10
11.02671738682118
 20
27.51023495842249
 30
0.0
 10
11.02671738682119
 20
27.50206681752315
 30
0.0
 10
11.03414924592186
 20
27.49463495842248
 30
0.0
 10
11.04231738682119
 20
27.49463495842248
 30
0.0
  0
LINE
  5
166
330
6C
100
AcDbEntity
  8
Visible (ANSI)
100
AcDbLine
 10
11.04231738682119
 20
27.36963495842248
 30
0.0
 11
11.06441447373328
 21
27.36963495842248
 31
0.0
  0
SPLINE
  5
167
330
6C
100
AcDbEntity
  8
Visible (ANSI)
100
AcDbSpline
210
0.0
220
0.0
230
1.0
 70
     8
 71
     3
 72
    11
 73
     7
 74
     0
 42
0.0000000001
 43
0.0000000001
 40
0.0
 40
0.0
 40
0.0
 40
0.0
 40
1.018582815488561
 40
1.018582815488561
 40
1.018582815488561
 40
1.570796326794895
 40
1.570796326794895
 40
1.570796326794895
 40
1.570796326794895
 10
11.06441447373327
 20
27.36963495842248
 30
0.0
 10
11.05963818869085
 20
27.36963495842248
 30
0.0
 10
11.05486190364843
 20
27.39583786400161
 30
0.0
 10
11.05008561860602
 20
27.43647999187079
 30
0.0
 10
11.04749620801106
 20
27.45851367611946
 30
0.0
 10
11.0449067974161
 20
27.48435455185926
 30
0.0
 10
11.04231738682114
 20
27.51023495842249
 30
0.0
  0
LINE
  5
168
330
6C
100
AcDbEntity
  8
Visible (ANSI)
100
AcDbLine
 10
16.90171738682153
 20
27.36963495842248
 30
0.0
 11
11.06441447373327
 21
27.36963495842248
 31
0.0
  0
SPLINE
  5
169
330
6C
100
AcDbEntity
  8
Visible (ANSI)
100
AcDbSpline
210
0.0
220
0.0
230
1.0
 70
     8
 71
     3
 72
    11
 73
     7
 74
     0
 42
0.0000000001
 43
0.0000000001
 40
0.0
 40
0.0
 40
0.0
 40
0.0
 40
1.01858281548856
 40
1.01858281548856
 40
1.01858281548856
 40
1.570796326794896
 40
1.570796326794896
 40
1.570796326794896
 40
1.570796326794896
 10
16.94970864872543
 20
27.51023495842248
 30
0.0
 10
16.93933533810264
 20
27.46249737713658
 30
0.0
 10
16.92896202747984
 20
27.41557482185439
 30
0.0
 10
16.91858871685706
 20
27.39053297469223
 30
0.0
 10
16.91296494017855
 20
27.37695681167363
 30
0.0
 10
16.90734116350004
 20
27.36963495842248
 30
0.0
 10
16.90171738682153
 20
27.36963495842248
 30
0.0
  0
LINE
  5
16A
330
6C
100
AcDbEntity
  8
Visible Narrow (ANSI)
100
AcDbLine
 10
11.04231738682114
 20
27.51023495842249
 30
0.0
 11
16.94970864872543
 21
27.51023495842248
 31
0.0
  0
LINE
  5
16B
330
6C
100
AcDbEntity
  8
Visible (ANSI)
100
AcDbLine
 10
11.04231738682114
 20
27.51023495842249
 30
0.0
 11
10.90171738682119
 21
27.51023495842249
 31
0.0
  0
LINE
  5
16C
330
6C
100
AcDbEntity
  8
Visible (ANSI)
100
AcDbLine
 10
16.94970864872543
 20
27.51023495842248
 30
0.0
 11
18.90171738682114
 21
33.22903495842247
 31
0.0
  0
LINE
  5
16D
330
6C
100
AcDbEntity
  8
Visible Narrow (ANSI)
100
AcDbLine
 10
18.90171738682114
 20
33.22903495842247
 30
0.0
 11
11.04231738682114
 21
33.22903495842248
 31
0.0
  0
LINE
  5
16E
330
6C
100
AcDbEntity
  8
Visible (ANSI)
100
AcDbLine
 10
18.90171738682114
 20
33.22903495842247
 30
0.0
 11
18.90171738682118
 21
33.36963495842248
 31
0.0
  0
LINE
  5
16F
330
6C
100
AcDbEntity
  8
Visible (ANSI)
100
AcDbLine
 10
11.06441447373327
 20
33.36963495842248
 30
0.0
 11
18.90171738682118
 21
33.36963495842248
 31
0.0
  0
LINE
  5
170
330
6C
100
AcDbEntity
  8
Visible Narrow (ANSI)
100
AcDbLine
 10
11.04231738682114
 20
33.22903495842248
 30
0.0
 11
11.04231738682114
 21
27.51023495842249
 31
0.0
  0
LINE
  5
171
330
6C
100
AcDbEntity
  8
Visible (ANSI)
100
AcDbLine
 10
10.90171738682119
 20
27.51023495842249
 30
0.0
 11
10.90171738682119
 21
33.22903495842248
 31
0.0
  0
SPLINE
  5
172
330
6C
100
AcDbEntity
  8
Visible (ANSI)
100
AcDbSpline
210
0.0
220
0.0
230
1.0
 70
     8
 71
     3
 72
    11
 73
     7
 74
     0
 42
0.0000000001
 43
0.0000000001
 40
0.0
 40
0.0
 40
0.0
 40
0.0
 40
1.018582815488574
 40
1.018582815488574
 40
1.018582815488574
 40
1.570796326794887
 40
1.570796326794887
 40
1.570796326794887
 40
1.570796326794887
 10
11.04231738682119
 20
33.36963495842248
 30
0.0
 10
10.99457980553529
 20
33.36963495842248
 30
0.0
 10
10.94765725025309
 20
33.34343205284335
 30
0.0
 10
10.92261540309093
 20
33.30278992497417
 30
0.0
 10
10.90903924007233
 20
33.2807562407255
 30
0.0
 10
10.90171738682119
 20
33.2549153649857
 30
0.0
 10
10.90171738682119
 20
33.22903495842247
 30
0.0
  0
LINE
  5
173
330
6C
100
AcDbEntity
  8
Visible (ANSI)
100
AcDbLine
 10
11.04231738682119
 20
33.24463495842248
 30
0.0
 11
11.04388143289991
 21
33.24463495842248
 31
0.0
  0
LINE
  5
174
330
6C
100
AcDbEntity
  8
Visible (ANSI)
100
AcDbLine
 10
11.06441447373328
 20
33.36963495842248
 30
0.0
 11
11.04231738682119
 21
33.36963495842248
 31
0.0
  0
LINE
  5
175
330
6C
100
AcDbEntity
  8
Visible (ANSI)
100
AcDbLine
 10
11.04231738682119
 20
33.24463495842248
 30
0.0
 11
11.04231738682119
 21
33.36963495842248
 31
0.0
  0
SPLINE
  5
176
330
6C
100
AcDbEntity
  8
Visible (ANSI)
100
AcDbSpline
210
0.0
220
0.0
230
1.0
 70
     8
 71
     3
 72
     8
 73
     4
 74
     0
 42
0.0000000001
 43
0.0000000001
 40
0.0
 40
0.0
 40
0.0
 40
0.0
 40
1.570796326794887
 40
1.570796326794887
 40
1.570796326794887
 40
1.570796326794887
 10
11.02671738682118
 20
33.22903495842248
 30
0.0
 10
11.02671738682119
 20
33.23720309932182
 30
0.0
 10
11.03414924592186
 20
33.24463495842248
 30
0.0
 10
11.04231738682119
 20
33.24463495842248
 30
0.0
  0
SPLINE
  5
177
330
6C
100
AcDbEntity
  8
Visible (ANSI)
100
AcDbSpline
210
0.0
220
0.0
230
1.0
 70
     8
 71
     3
 72
    11
 73
     7
 74
     0
 42
0.0000000001
 43
0.0000000001
 40
0.0
 40
0.0
 40
0.0
 40
0.0
 40
1.018582815488558
 40
1.018582815488558
 40
1.018582815488558
 40
1.570796326794905
 40
1.570796326794905
 40
1.570796326794905
 40
1.570796326794905
 10
11.04231738682114
 20
33.22903495842248
 30
0.0
 10
11.04709367186355
 20
33.27677253970839
 30
0.0
 10
11.05186995690596
 20
33.32369509499058
 30
0.0
 10
11.05664624194838
 20
33.34873694215274
 30
0.0
 10
11.05923565254334
 20
33.36231310517134
 30
0.0
 10
11.0618250631383
 20
33.36963495842248
 30
0.0
 10
11.06441447373327
 20
33.36963495842248
 30
0.0
  0
LINE
  5
178
330
6C
100
AcDbEntity
  8
Visible (ANSI)
100
AcDbLine
 10
10.90171738682119
 20
33.22903495842248
 30
0.0
 11
11.04231738682114
 21
33.22903495842248
 31
0.0
  0
LINE
  5
179
330
6C
100
AcDbEntity
  8
Visible (ANSI)
100
AcDbLine
 10
18.65171738682126
 20
27.3697610996207
 30
0.0
 11
18.52671738682122
 21
27.3697610996207
 31
0.0
  0
LINE
  5
17A
330
6C
100
AcDbEntity
  8
Visible (ANSI)
100
AcDbLine
 10
18.52671738682122
 20
27.4947610996207
 30
0.0
 11
18.65171738682126
 21
27.4947610996207
 31
0.0
  0
LINE
  5
17B
330
6C
100
AcDbEntity
  8
Visible Narrow (ANSI)
100
AcDbLine
 10
18.52671738682122
 20
27.4947610996207
 30
0.0
 11
18.52671738682122
 21
27.3697610996207
 31
0.0
  0
LINE
  5
17C
330
6C
100
AcDbEntity
  8
Visible (ANSI)
100
AcDbLine
 10
18.65171738682126
 20
27.3697610996207
 30
0.0
 11
18.65171738682126
 21
27.4947610996207
 31
0.0
  0
LINE
  5
17D
330
6C
100
AcDbEntity
  8
Visible (ANSI)
100
AcDbLine
 10
17.11945581369088
 20
27.3697610996207
 30
0.0
 11
18.52671738682122
 21
27.3697610996207
 31
0.0
  0
LINE
  5
17E
330
6C
100
AcDbEntity
  8
Visible (ANSI)
100
AcDbLine
 10
18.52671738682122
 20
27.4947610996207
 30
0.0
 11
17.11945581369088
 21
27.4947610996207
 31
0.0
  0
ARC
  5
17F
330
6C
100
AcDbEntity
  8
Visible (ANSI)
100
AcDbCircle
 10
17.11945581369088
 20
27.5103610996207
 30
0.0
 40
0.0156000000000003
100
AcDbArc
 50
225.0
 51
270.0
  0
ARC
  5
180
330
6C
100
AcDbEntity
  8
Visible (ANSI)
100
AcDbCircle
 10
17.11945581369088
 20
27.5103610996207
 30
0.0
 40
0.1405999999999998
100
AcDbArc
 50
225.000000000001
 51
270.0000000000014
  0
LINE
  5
181
330
6C
100
AcDbEntity
  8
Visible (ANSI)
100
AcDbLine
 10
17.02930100988123
 20
27.57845417185733
 30
0.0
 11
17.10842494790437
 21
27.49933023383419
 31
0.0
  0
LINE
  5
182
330
6C
100
AcDbEntity
  8
Visible (ANSI)
100
AcDbLine
 10
17.02003660025605
 20
27.41094188618587
 30
0.0
 11
16.94451762934287
 21
27.48646085709904
 31
0.0
  0
ARC
  5
183
330
6C
100
AcDbEntity
  8
Visible (ANSI)
100
AcDbCircle
 10
16.9298817964464
 20
27.4790349584225
 30
0.0
 40
0.1406000000000006
100
AcDbArc
 50
45.0
 51
67.61200410635426
  0
MTEXT
  5
184
330
6C
100
AcDbEntity
  8
Symbol (ANSI)
100
AcDbMText
 10
12.86792294803841
 20
23.99916442435532
 30
0.0
 40
0.600000007415381
 41
0.0
 71
     7
 72
     1
  1
LEFT VIEW
  7
Text Style168
 73
     1
 44
1.0
  0
LINE
  5
185
330
6C
100
AcDbEntity
  8
Symbol (ANSI)
370
    30
100
AcDbLine
 10
12.80792279369648
 20
23.86416442268686
 30
0.0
 11
16.85816588227603
 21
23.86416442268686
 31
0.0
  0
LINE
  5
186
330
6C
100
AcDbEntity
  8
Visible (ANSI)
100
AcDbLine
 10
61.48370924964526
 20
27.36963495842248
 30
0.0
 11
55.64640633655733
 21
27.36963495842248
 31
0.0
  0
LINE
  5
187
330
6C
100
AcDbEntity
  8
Visible Narrow (ANSI)
100
AcDbLine
 10
55.59841507465343
 20
27.51023495842249
 30
0.0
 11
61.50580633655739
 21
27.51023495842249
 31
0.0
  0
SPLINE
  5
188
330
6C
100
AcDbEntity
  8
Visible (ANSI)
100
AcDbSpline
210
0.0
220
0.0
230
1.0
 70
     8
 71
     3
 72
    11
 73
     7
 74
     0
 42
0.0000000001
 43
0.0000000001
 40
0.0
 40
0.0
 40
0.0
 40
0.0
 40
1.018582815488552
 40
1.018582815488552
 40
1.018582815488552
 40
1.570796326794897
 40
1.570796326794897
 40
1.570796326794897
 40
1.570796326794897
 10
55.64640633655733
 20
27.36963495842248
 30
0.0
 10
55.63603302593456
 20
27.36963495842248
 30
0.0
 10
55.62565971531177
 20
27.39583786400161
 30
0.0
 10
55.61528640468899
 20
27.43647999187079
 30
0.0
 10
55.60966262801047
 20
27.45851367611946
 30
0.0
 10
55.60403885133196
 20
27.48435455185926
 30
0.0
 10
55.59841507465343
 20
27.51023495842249
 30
0.0
  0
SPLINE
  5
189
330
6C
100
AcDbEntity
  8
Visible (ANSI)
100
AcDbSpline
210
0.0
220
0.0
230
1.0
 70
     8
 71
     3
 72
    11
 73
     7
 74
     0
 42
0.0000000001
 43
0.0000000001
 40
0.0
 40
0.0
 40
0.0
 40
0.0
 40
1.01858281548861
 40
1.01858281548861
 40
1.01858281548861
 40
1.570796326794896
 40
1.570796326794896
 40
1.570796326794896
 40
1.570796326794896
 10
61.50580633655739
 20
27.51023495842249
 30
0.0
 10
61.50103005151498
 20
27.46249737713658
 30
0.0
 10
61.49625376647257
 20
27.41557482185438
 30
0.0
 10
61.49147748143015
 20
27.39053297469222
 30
0.0
 10
61.48888807083519
 20
27.37695681167363
 30
0.0
 10
61.48629866024022
 20
27.36963495842248
 30
0.0
 10
61.48370924964526
 20
27.36963495842248
 30
0.0
  0
SPLINE
  5
18A
330
6C
100
AcDbEntity
  8
Visible (ANSI)
100
AcDbSpline
210
0.0
220
0.0
230
1.0
 70
     8
 71
     3
 72
    11
 73
     7
 74
     0
 42
0.0000000001
 43
0.0000000001
 40
0.0
 40
0.0
 40
0.0
 40
0.0
 40
1.018582815488561
 40
1.018582815488561
 40
1.018582815488561
 40
1.570796326794895
 40
1.570796326794895
 40
1.570796326794895
 40
1.570796326794895
 10
61.50580633655733
 20
27.36963495842248
 30
0.0
 10
61.55354391784323
 20
27.36963495842248
 30
0.0
 10
61.60046647312543
 20
27.39583786400161
 30
0.0
 10
61.6255083202876
 20
27.43647999187079
 30
0.0
 10
61.63908448330619
 20
27.45851367611946
 30
0.0
 10
61.64640633655733
 20
27.48435455185926
 30
0.0
 10
61.64640633655733
 20
27.51023495842249
 30
0.0
  0
LINE
  5
18B
330
6C
100
AcDbEntity
  8
Visible (ANSI)
100
AcDbLine
 10
61.50580633655733
 20
27.49463495842248
 30
0.0
 11
61.50424229047861
 21
27.49463495842248
 31
0.0
  0
LINE
  5
18C
330
6C
100
AcDbEntity
  8
Visible (ANSI)
100
AcDbLine
 10
61.48370924964524
 20
27.36963495842248
 30
0.0
 11
61.50580633655733
 21
27.36963495842248
 31
0.0
  0
LINE
  5
18D
330
6C
100
AcDbEntity
  8
Visible (ANSI)
100
AcDbLine
 10
61.50580633655733
 20
27.49463495842248
 30
0.0
 11
61.50580633655733
 21
27.36963495842248
 31
0.0
  0
SPLINE
  5
18E
330
6C
100
AcDbEntity
  8
Visible (ANSI)
100
AcDbSpline
210
0.0
220
0.0
230
1.0
 70
     8
 71
     3
 72
     8
 73
     4
 74
     0
 42
0.0000000001
 43
0.0000000001
 40
0.0
 40
0.0
 40
0.0
 40
0.0
 40
1.570796326794895
 40
1.570796326794895
 40
1.570796326794895
 40
1.570796326794895
 10
61.52140633655734
 20
27.51023495842249
 30
0.0
 10
61.52140633655733
 20
27.50206681752315
 30
0.0
 10
61.51397447745666
 20
27.49463495842248
 30
0.0
 10
61.50580633655733
 20
27.49463495842248
 30
0.0
  0
LINE
  5
18F
330
6C
100
AcDbEntity
  8
Visible (ANSI)
100
AcDbLine
 10
61.64640633655733
 20
27.51023495842249
 30
0.0
 11
61.50580633655738
 21
27.51023495842249
 31
0.0
  0
LINE
  5
190
330
6C
100
AcDbEntity
  8
Visible (ANSI)
100
AcDbLine
 10
61.64640633655733
 20
33.22903495842248
 30
0.0
 11
61.64640633655733
 21
27.51023495842249
 31
0.0
  0
LINE
  5
191
330
6C
100
AcDbEntity
  8
Visible Narrow (ANSI)
100
AcDbLine
 10
61.50580633655739
 20
27.51023495842249
 30
0.0
 11
61.50580633655739
 21
33.22903495842248
 31
0.0
  0
LINE
  5
192
330
6C
100
AcDbEntity
  8
Visible (ANSI)
100
AcDbLine
 10
61.50580633655739
 20
33.22903495842248
 30
0.0
 11
61.64640633655733
 21
33.22903495842248
 31
0.0
  0
LINE
  5
193
330
6C
100
AcDbEntity
  8
Visible (ANSI)
100
AcDbLine
 10
53.64640633655739
 20
33.22903495842248
 30
0.0
 11
55.59841507465343
 21
27.51023495842249
 31
0.0
  0
LINE
  5
194
330
6C
100
AcDbEntity
  8
Visible (ANSI)
100
AcDbLine
 10
53.64640633655733
 20
33.36963495842248
 30
0.0
 11
53.64640633655739
 21
33.22903495842249
 31
0.0
  0
LINE
  5
195
330
6C
100
AcDbEntity
  8
Visible (ANSI)
100
AcDbLine
 10
53.64640633655733
 20
33.36963495842248
 30
0.0
 11
61.48370924964526
 21
33.36963495842248
 31
0.0
  0
LINE
  5
196
330
6C
100
AcDbEntity
  8
Visible Narrow (ANSI)
100
AcDbLine
 10
61.50580633655739
 20
33.22903495842248
 30
0.0
 11
53.64640633655739
 21
33.22903495842248
 31
0.0
  0
SPLINE
  5
197
330
6C
100
AcDbEntity
  8
Visible (ANSI)
100
AcDbSpline
210
0.0
220
0.0
230
1.0
 70
     8
 71
     3
 72
    11
 73
     7
 74
     0
 42
0.0000000001
 43
0.0000000001
 40
0.0
 40
0.0
 40
0.0
 40
0.0
 40
1.018582815488549
 40
1.018582815488549
 40
1.018582815488549
 40
1.570796326794887
 40
1.570796326794887
 40
1.570796326794887
 40
1.570796326794887
 10
61.64640633655733
 20
33.22903495842248
 30
0.0
 10
61.64640633655733
 20
33.27677253970839
 30
0.0
 10
61.6202034309782
 20
33.32369509499058
 30
0.0
 10
61.57956130310903
 20
33.34873694215274
 30
0.0
 10
61.55752761886035
 20
33.36231310517134
 30
0.0
 10
61.53168674312055
 20
33.36963495842248
 30
0.0
 10
61.50580633655733
 20
33.36963495842248
 30
0.0
  0
LINE
  5
198
330
6C
100
AcDbEntity
  8
Visible (ANSI)
100
AcDbLine
 10
61.50580633655733
 20
33.24463495842248
 30
0.0
 11
61.5042422904786
 21
33.24463495842248
 31
0.0
  0
LINE
  5
199
330
6C
100
AcDbEntity
  8
Visible (ANSI)
100
AcDbLine
 10
61.50580633655733
 20
33.24463495842248
 30
0.0
 11
61.50580633655733
 21
33.36963495842248
 31
0.0
  0
SPLINE
  5
19A
330
6C
100
AcDbEntity
  8
Visible (ANSI)
100
AcDbSpline
210
0.0
220
0.0
230
1.0
 70
     8
 71
     3
 72
     8
 73
     4
 74
     0
 42
0.0000000001
 43
0.0000000001
 40
0.0
 40
0.0
 40
0.0
 40
0.0
 40
1.570796326794887
 40
1.570796326794887
 40
1.570796326794887
 40
1.570796326794887
 10
61.52140633655734
 20
33.22903495842248
 30
0.0
 10
61.52140633655733
 20
33.23720309932182
 30
0.0
 10
61.51397447745666
 20
33.24463495842248
 30
0.0
 10
61.50580633655733
 20
33.24463495842248
 30
0.0
  0
LINE
  5
19B
330
6C
100
AcDbEntity
  8
Visible (ANSI)
100
AcDbLine
 10
61.50580633655733
 20
33.36963495842248
 30
0.0
 11
61.48370924964524
 21
33.36963495842248
 31
0.0
  0
SPLINE
  5
19C
330
6C
100
AcDbEntity
  8
Visible (ANSI)
100
AcDbSpline
210
0.0
220
0.0
230
1.0
 70
     8
 71
     3
 72
    11
 73
     7
 74
     0
 42
0.0000000001
 43
0.0000000001
 40
0.0
 40
0.0
 40
0.0
 40
0.0
 40
1.018582815488485
 40
1.018582815488485
 40
1.018582815488485
 40
1.570796326794904
 40
1.570796326794904
 40
1.570796326794904
 40
1.570796326794904
 10
61.48370924964526
 20
33.36963495842248
 30
0.0
 10
61.48848553468767
 20
33.36963495842248
 30
0.0
 10
61.4932618197301
 20
33.34343205284336
 30
0.0
 10
61.4980381047725
 20
33.30278992497419
 30
0.0
 10
61.50062751536747
 20
33.28075624072551
 30
0.0
 10
61.50321692596243
 20
33.25491536498571
 30
0.0
 10
61.50580633655739
 20
33.22903495842248
 30
0.0
  0
LINE
  5
19D
330
6C
100
AcDbEntity
  8
Visible (ANSI)
100
AcDbLine
 10
53.89640633655726
 20
27.49476109962071
 30
0.0
 11
54.0214063365573
 21
27.49476109962071
 31
0.0
  0
LINE
  5
19E
330
6C
100
AcDbEntity
  8
Visible (ANSI)
100
AcDbLine
 10
53.89640633655726
 20
27.49476109962071
 30
0.0
 11
53.89640633655726
 21
27.3697610996207
 31
0.0
  0
LINE
  5
19F
330
6C
100
AcDbEntity
  8
Visible (ANSI)
100
AcDbLine
 10
54.0214063365573
 20
27.3697610996207
 30
0.0
 11
53.89640633655726
 21
27.3697610996207
 31
0.0
  0
LINE
  5
1A0
330
6C
100
AcDbEntity
  8
Visible Narrow (ANSI)
100
AcDbLine
 10
54.02140633655731
 20
27.3697610996207
 30
0.0
 11
54.02140633655731
 21
27.49476109962071
 31
0.0
  0
LINE
  5
1A1
330
6C
100
AcDbEntity
  8
Visible (ANSI)
100
AcDbLine
 10
54.02140633655731
 20
27.3697610996207
 30
0.0
 11
55.42866790968765
 21
27.3697610996207
 31
0.0
  0
LINE
  5
1A2
330
6C
100
AcDbEntity
  8
Visible (ANSI)
100
AcDbLine
 10
55.42866790968765
 20
27.49476109962071
 30
0.0
 11
54.02140633655731
 21
27.49476109962071
 31
0.0
  0
ARC
  5
1A3
330
6C
100
AcDbEntity
  8
Visible (ANSI)
100
AcDbCircle
 10
55.42866790968766
 20
27.51036109962071
 30
0.0
 40
0.1405999999999992
100
AcDbArc
 50
270.0
 51
315.000000000002
  0
ARC
  5
1A4
330
6C
100
AcDbEntity
  8
Visible (ANSI)
100
AcDbCircle
 10
55.42866790968766
 20
27.51036109962071
 30
0.0
 40
0.0155999999999989
100
AcDbArc
 50
270.0
 51
315.000000000009
  0
LINE
  5
1A5
330
6C
100
AcDbEntity
  8
Visible (ANSI)
100
AcDbLine
 10
55.60360609403593
 20
27.48646085709932
 30
0.0
 11
55.52808712312248
 21
27.41094188618587
 31
0.0
  0
LINE
  5
1A6
330
6C
100
AcDbEntity
  8
Visible (ANSI)
100
AcDbLine
 10
55.43969877547415
 20
27.49933023383419
 30
0.0
 11
55.5188227134973
 21
27.57845417185733
 31
0.0
  0
ARC
  5
1A7
330
6C
100
AcDbEntity
  8
Visible (ANSI)
100
AcDbCircle
 10
55.61824192693213
 20
27.4790349584225
 30
0.0
 40
0.1405999999999953
100
AcDbArc
 50
112.3879958935145
 51
135.0
  0
MTEXT
  5
1A8
330
6C
100
AcDbEntity
  8
Symbol (ANSI)
100
AcDbMText
 10
55.30060099038538
 20
23.97679813523259
 30
0.0
 40
0.600000007415381
 41
0.0
 71
     7
 72
     1
  1
RIGHT VIEW
  7
Text Style168
 73
     1
 44
1.0
  0
LINE
  5
1A9
330
6C
100
AcDbEntity
  8
Symbol (ANSI)
370
    30
100
AcDbLine
 10
55.24060083604345
 20
23.85346750092527
 30
0.0
 11
59.91515517652614
 21
23.85346750092527
 31
0.0
  0
CIRCLE
  5
1AA
330
6C
100
AcDbEntity
  8
Visible (ANSI)
100
AcDbCircle
 10
34.25018069253868
 20
18.65398372117152
 30
0.0
 40
0.28125
  0
CIRCLE
  5
1AB
330
6C
100
AcDbEntity
  8
Visible (ANSI)
100
AcDbCircle
 10
39.87518069253871
 20
18.65398372117152
 30
0.0
 40
0.28125
  0
CIRCLE
  5
1AC
330
6C
100
AcDbEntity
  8
Visible (ANSI)
100
AcDbCircle
 10
32.68768069253868
 20
17.34148372117152
 30
0.0
 40
0.28125
  0
CIRCLE
  5
1AD
330
6C
100
AcDbEntity
  8
Visible (ANSI)
100
AcDbCircle
 10
32.68768069253868
 20
12.34148372117152
 30
0.0
 40
0.28125
  0
CIRCLE
  5
1AE
330
6C
100
AcDbEntity
  8
Visible (ANSI)
100
AcDbCircle
 10
41.43768069253875
 20
17.3414837211715
 30
0.0
 40
0.28125
  0
CIRCLE
  5
1AF
330
6C
100
AcDbEntity
  8
Visible (ANSI)
100
AcDbCircle
 10
41.43768069253892
 20
12.3414837211715
 30
0.0
 40
0.28125
  0
LINE
  5
1B0
330
6C
100
AcDbEntity
  8
Visible (ANSI)
100
AcDbLine
 10
32.00018069253868
 20
11.34148372117148
 30
0.0
 11
32.00018069253869
 21
19.20088372117148
 31
0.0
  0
LINE
  5
1B1
330
6C
100
AcDbEntity
  8
Visible (ANSI)
100
AcDbLine
 10
32.00018069253869
 20
11.34148372117148
 30
0.0
 11
32.14078069253869
 21
11.34148372117152
 31
0.0
  0
LINE
  5
1B2
330
6C
100
AcDbEntity
  8
Visible (ANSI)
100
AcDbLine
 10
41.98458069253895
 20
11.34148372117152
 30
0.0
 11
42.12518069253895
 21
11.34148372117148
 31
0.0
  0
LINE
  5
1B3
330
6C
100
AcDbEntity
  8
Visible Narrow (ANSI)
100
AcDbLine
 10
41.96248360562661
 20
19.20088372117152
 30
0.0
 11
32.16287777945077
 21
19.20088372117152
 31
0.0
  0
LINE
  5
1B4
330
6C
100
AcDbEntity
  8
Visible (ANSI)
100
AcDbLine
 10
32.14078069253869
 20
19.34148372117148
 30
0.0
 11
41.98458069253869
 21
19.34148372117148
 31
0.0
  0
LINE
  5
1B5
330
6C
100
AcDbEntity
  8
Visible Narrow (ANSI)
100
AcDbLine
 10
32.14078069253869
 20
19.17878663425944
 30
0.0
 11
32.14078069253869
 21
11.34148372117152
 31
0.0
  0
LINE
  5
1B6
330
6C
100
AcDbEntity
  8
Visible Narrow (ANSI)
100
AcDbLine
 10
41.98458069253895
 20
11.34148372117151
 30
0.0
 11
41.98458069253869
 21
19.17878663425944
 31
0.0
  0
LINE
  5
1B7
330
6C
100
AcDbEntity
  8
Visible (ANSI)
100
AcDbLine
 10
42.12518069253868
 20
19.20088372117148
 30
0.0
 11
42.12518069253895
 21
11.34148372117148
 31
0.0
  0
ARC
  5
1B8
330
6C
100
AcDbEntity
  8
Visible (ANSI)
100
AcDbCircle
 10
41.98458069253868
 20
19.20088372117148
 30
0.0
 40
0.1405999999999993
100
AcDbArc
 50
0.0
 51
90.0
  0
ARC
  5
1B9
330
6C
100
AcDbEntity
  8
Visible (ANSI)
100
AcDbCircle
 10
32.14078069253869
 20
19.20088372117148
 30
0.0
 40
0.0156000000000001
100
AcDbArc
 50
90.0
 51
180.0
  0
LINE
  5
1BA
330
6C
100
AcDbEntity
  8
Visible (ANSI)
100
AcDbLine
 10
32.75018069253869
 20
11.34148372117152
 30
0.0
 11
32.14078069253869
 21
11.34148372117152
 31
0.0
  0
LINE
  5
1BB
330
6C
100
AcDbEntity
  8
Visible (ANSI)
100
AcDbLine
 10
41.98458069253895
 20
11.34148372117151
 30
0.0
 11
41.37518069253895
 21
11.3414837211715
 31
0.0
  0
LINE
  5
1BC
330
6C
100
AcDbEntity
  8
Visible (ANSI)
100
AcDbLine
 10
40.85308360562665
 20
18.09148372117153
 30
0.0
 11
33.27227777945077
 21
18.09148372117153
 31
0.0
  0
LINE
  5
1BD
330
6C
100
AcDbEntity
  8
Visible (ANSI)
100
AcDbLine
 10
33.25018069253868
 20
18.06938663425944
 30
0.0
 11
33.25018069253868
 21
11.84148372117152
 31
0.0
  0
LINE
  5
1BE
330
6C
100
AcDbEntity
  8
Visible (ANSI)
100
AcDbLine
 10
40.87518069253893
 20
11.84148372117148
 30
0.0
 11
40.87518069253873
 21
18.06938663425944
 31
0.0
  0
ARC
  5
1BF
330
6C
100
AcDbEntity
  8
Visible (ANSI)
100
AcDbCircle
 10
32.14078069253869
 20
19.20088372117148
 30
0.0
 40
0.1406
100
AcDbArc
 50
90.0
 51
180.0
  0
ARC
  5
1C0
330
6C
100
AcDbEntity
  8
Visible (ANSI)
100
AcDbCircle
 10
41.98458069253869
 20
19.20088372117148
 30
0.0
 40
0.0155999999999986
100
AcDbArc
 50
0.0
 51
90.0
  0
LINE
  5
1C1
330
6C
100
AcDbEntity
  8
Visible (ANSI)
100
AcDbLine
 10
33.25018069253868
 20
11.84148372117152
 30
0.0
 11
32.75018069253869
 21
11.34148372117152
 31
0.0
  0
LINE
  5
1C2
330
6C
100
AcDbEntity
  8
Visible (ANSI)
100
AcDbLine
 10
41.37518069253895
 20
11.3414837211715
 30
0.0
 11
40.87518069253893
 21
11.84148372117148
 31
0.0
  0
SPLINE
  5
1C3
330
6C
100
AcDbEntity
  8
Visible (ANSI)
100
AcDbSpline
210
0.0
220
0.0
230
1.0
 70
     8
 71
     3
 72
    11
 73
     7
 74
     0
 42
0.0000000001
 43
0.0000000001
 40
0.0
 40
0.0
 40
0.0
 40
0.0
 40
1.018582815488549
 40
1.018582815488549
 40
1.018582815488549
 40
1.570796326794887
 40
1.570796326794887
 40
1.570796326794887
 40
1.570796326794887
 10
41.98458069253869
 20
19.34148372117148
 30
0.0
 10
41.97980440749628
 20
19.34148372117149
 30
0.0
 10
41.97502812245388
 20
19.31528081559237
 30
0.0
 10
41.97025183741147
 20
19.27463868772321
 30
0.0
 10
41.96766242681652
 20
19.25260500347454
 30
0.0
 10
41.96507301622157
 20
19.22676412773475
 30
0.0
 10
41.96248360562661
 20
19.20088372117152
 30
0.0
  0
SPLINE
  5
1C4
330
6C
100
AcDbEntity
  8
Visible (ANSI)
100
AcDbSpline
210
0.0
220
0.0
230
1.0
 70
     8
 71
     3
 72
    11
 73
     7
 74
     0
 42
0.0000000001
 43
0.0000000001
 40
0.0
 40
0.0
 40
0.0
 40
0.0
 40
1.018582815488574
 40
1.018582815488574
 40
1.018582815488574
 40
1.570796326794887
 40
1.570796326794887
 40
1.570796326794887
 40
1.570796326794887
 10
32.16287777945077
 20
19.20088372117152
 30
0.0
 10
32.15810149440837
 20
19.24862130245742
 30
0.0
 10
32.15332520936596
 20
19.29554385773961
 30
0.0
 10
32.14854892432356
 20
19.32058570490176
 30
0.0
 10
32.1459595137286
 20
19.33416186792035
 30
0.0
 10
32.14337010313364
 20
19.34148372117149
 30
0.0
 10
32.14078069253869
 20
19.34148372117148
 30
0.0
  0
LINE
  5
1C5
330
6C
100
AcDbEntity
  8
Visible (ANSI)
100
AcDbLine
 10
33.27227777945077
 20
18.09148372117153
 30
0.0
 11
32.16287777945077
 21
19.20088372117152
 31
0.0
  0
SPLINE
  5
1C6
330
6C
100
AcDbEntity
  8
Visible (ANSI)
100
AcDbSpline
210
0.0
220
0.0
230
1.0
 70
    24
 71
     3
 72
     8
 73
     4
 74
     0
 42
0.0000000001
 43
0.0000000001
 40
-0.0000000000000001
 40
-0.0000000000000001
 40
-0.0000000000000001
 40
-0.0000000000000001
 40
0.3175
 40
0.3175
 40
0.3175
 40
0.3175
 10
32.14078069253869
 20
19.21648372117148
 30
0.0
 10
32.14078069253869
 20
19.25815038783814
 30
0.0
 10
32.14078069253869
 20
19.29981705450481
 30
0.0
 10
32.14078069253869
 20
19.34148372117148
 30
0.0
  0
SPLINE
  5
1C7
330
6C
100
AcDbEntity
  8
Visible (ANSI)
100
AcDbSpline
210
0.0
220
0.0
230
1.0
 70
     8
 71
     3
 72
     8
 73
     4
 74
     0
 42
0.0000000001
 43
0.0000000001
 40
0.0
 40
0.0
 40
0.0
 40
0.0
 40
1.570796326794887
 40
1.570796326794887
 40
1.570796326794887
 40
1.570796326794887
 10
32.14078069253869
 20
19.21648372117148
 30
0.0
 10
32.14814638817605
 20
19.21648372117148
 30
0.0
 10
32.15551208381342
 20
19.20905186207082
 30
0.0
 10
32.16287777945077
 20
19.20088372117148
 30
0.0
  0
SPLINE
  5
1C8
330
6C
100
AcDbEntity
  8
Visible (ANSI)
100
AcDbSpline
210
0.0
220
0.0
230
1.0
 70
     8
 71
     3
 72
     8
 73
     4
 74
     0
 42
0.0000000001
 43
0.0000000001
 40
0.0
 40
0.0
 40
0.0
 40
0.0
 40
1.570796326794887
 40
1.570796326794887
 40
1.570796326794887
 40
1.570796326794887
 10
41.98458069253869
 20
19.21648372117148
 30
0.0
 10
41.97721499690132
 20
19.21648372117148
 30
0.0
 10
41.96984930126396
 20
19.20905186207082
 30
0.0
 10
41.96248360562661
 20
19.20088372117148
 30
0.0
  0
SPLINE
  5
1C9
330
6C
100
AcDbEntity
  8
Visible (ANSI)
100
AcDbSpline
210
0.0
220
0.0
230
1.0
 70
    24
 71
     3
 72
     8
 73
     4
 74
     0
 42
0.0000000001
 43
0.0000000001
 40
-0.3175000000000002
 40
-0.3175000000000002
 40
-0.3175000000000002
 40
-0.3175000000000002
 40
0.0
 40
0.0
 40
0.0
 40
0.0
 10
41.98458069253869
 20
19.34148372117148
 30
0.0
 10
41.98458069253869
 20
19.29981705450481
 30
0.0
 10
41.98458069253869
 20
19.25815038783814
 30
0.0
 10
41.98458069253869
 20
19.21648372117148
 30
0.0
  0
LINE
  5
1CA
330
6C
100
AcDbEntity
  8
Visible (ANSI)
100
AcDbLine
 10
41.96248360562661
 20
19.20088372117152
 30
0.0
 11
40.85308360562665
 21
18.09148372117153
 31
0.0
  0
SPLINE
  5
1CB
330
6C
100
AcDbEntity
  8
Visible (ANSI)
100
AcDbSpline
210
0.0
220
0.0
230
1.0
 70
     8
 71
     3
 72
    11
 73
     7
 74
     0
 42
0.0000000001
 43
0.0000000001
 40
0.0
 40
0.0
 40
0.0
 40
0.0
 40
1.018582815488558
 40
1.018582815488558
 40
1.018582815488558
 40
1.570796326794905
 40
1.570796326794905
 40
1.570796326794905
 40
1.570796326794905
 10
32.00018069253869
 20
19.20088372117148
 30
0.0
 10
32.00018069253869
 20
19.19610743612909
 30
0.0
 10
32.02638359811782
 20
19.1913311510867
 30
0.0
 10
32.067025725987
 20
19.1865548660443
 30
0.0
 10
32.08905941023568
 20
19.18396545544935
 30
0.0
 10
32.11490028597547
 20
19.1813760448544
 30
0.0
 10
32.1407806925387
 20
19.17878663425944
 30
0.0
  0
SPLINE
  5
1CC
330
6C
100
AcDbEntity
  8
Visible (ANSI)
100
AcDbSpline
210
0.0
220
0.0
230
1.0
 70
     8
 71
     3
 72
     8
 73
     4
 74
     0
 42
0.0000000001
 43
0.0000000001
 40
0.0
 40
0.0
 40
0.0
 40
0.0
 40
1.570796326794905
 40
1.570796326794905
 40
1.570796326794905
 40
1.570796326794905
 10
32.12518069253869
 20
19.20088372117148
 30
0.0
 10
32.12518069253869
 20
19.19351802553412
 30
0.0
 10
32.13261255163935
 20
19.18615232989676
 30
0.0
 10
32.14078069253869
 20
19.1787866342594
 30
0.0
  0
SPLINE
  5
1CD
330
6C
100
AcDbEntity
  8
Visible (ANSI)
100
AcDbSpline
210
0.0
220
0.0
230
1.0
 70
    24
 71
     3
 72
     8
 73
     4
 74
     0
 42
0.0000000001
 43
0.0000000001
 40
-0.3175
 40
-0.3175
 40
-0.3175
 40
-0.3175
 40
0.0000000000000027
 40
0.0000000000000027
 40
0.0000000000000027
 40
0.0000000000000027
 10
32.00018069253869
 20
19.20088372117148
 30
0.0
 10
32.04184735920536
 20
19.20088372117148
 30
0.0
 10
32.08351402587202
 20
19.20088372117148
 30
0.0
 10
32.12518069253869
 20
19.20088372117148
 30
0.0
  0
LINE
  5
1CE
330
6C
100
AcDbEntity
  8
Visible (ANSI)
100
AcDbLine
 10
32.14078069253869
 20
19.17878663425944
 30
0.0
 11
33.25018069253868
 21
18.06938663425944
 31
0.0
  0
SPLINE
  5
1CF
330
6C
100
AcDbEntity
  8
Visible (ANSI)
100
AcDbSpline
210
0.0
220
0.0
230
1.0
 70
     8
 71
     3
 72
    11
 73
     7
 74
     0
 42
0.0000000001
 43
0.0000000001
 40
0.0
 40
0.0
 40
0.0
 40
0.0
 40
1.018582815488485
 40
1.018582815488485
 40
1.018582815488485
 40
1.570796326794904
 40
1.570796326794904
 40
1.570796326794904
 40
1.570796326794904
 10
41.98458069253868
 20
19.17878663425944
 30
0.0
 10
42.03231827382458
 20
19.18356291930184
 30
0.0
 10
42.07924082910677
 20
19.18833920434424
 30
0.0
 10
42.10428267626894
 20
19.19311548938664
 30
0.0
 10
42.11785883928754
 20
19.19570489998158
 30
0.0
 10
42.12518069253868
 20
19.19829431057653
 30
0.0
 10
42.12518069253868
 20
19.20088372117148
 30
0.0
  0
LINE
  5
1D0
330
6C
100
AcDbEntity
  8
Visible (ANSI)
100
AcDbLine
 10
40.87518069253873
 20
18.06938663425944
 30
0.0
 11
41.98458069253869
 21
19.17878663425944
 31
0.0
  0
SPLINE
  5
1D1
330
6C
100
AcDbEntity
  8
Visible (ANSI)
100
AcDbSpline
210
0.0
220
0.0
230
1.0
 70
    24
 71
     3
 72
     8
 73
     4
 74
     0
 42
0.0000000001
 43
0.0000000001
 40
0.0
 40
0.0
 40
0.0
 40
0.0
 40
0.3175000000000026
 40
0.3175000000000026
 40
0.3175000000000026
 40
0.3175000000000026
 10
42.00018069253869
 20
19.20088372117148
 30
0.0
 10
42.04184735920535
 20
19.20088372117148
 30
0.0
 10
42.08351402587202
 20
19.20088372117148
 30
0.0
 10
42.12518069253868
 20
19.20088372117148
 30
0.0
  0
SPLINE
  5
1D2
330
6C
100
AcDbEntity
  8
Visible (ANSI)
100
AcDbSpline
210
0.0
220
0.0
230
1.0
 70
     8
 71
     3
 72
     8
 73
     4
 74
     0
 42
0.0000000001
 43
0.0000000001
 40
0.0
 40
0.0
 40
0.0
 40
0.0
 40
1.570796326794904
 40
1.570796326794904
 40
1.570796326794904
 40
1.570796326794904
 10
42.00018069253869
 20
19.20088372117148
 30
0.0
 10
42.00018069253869
 20
19.19351802553412
 30
0.0
 10
41.99274883343802
 20
19.18615232989676
 30
0.0
 10
41.98458069253869
 20
19.1787866342594
 30
0.0
  0
CIRCLE
  5
1D3
330
6C
100
AcDbEntity
  8
Visible (ANSI)
100
AcDbCircle
 10
37.06268069253866
 20
15.59148372116981
 30
0.0
 40
0.28125
  0
CIRCLE
  5
1D4
330
6C
100
AcDbEntity
  8
Visible (ANSI)
100
AcDbCircle
 10
34.12518069253866
 20
12.59148372116978
 30
0.0
 40
0.28125
  0
CIRCLE
  5
1D5
330
6C
100
AcDbEntity
  8
Visible (ANSI)
100
AcDbCircle
 10
40.00018069253865
 20
12.59148372116978
 30
0.0
 40
0.28125
  0
LINE
  5
1D6
330
6C
100
AcDbEntity
  8
Visible (ANSI)
100
AcDbLine
 10
41.87518069253865
 20
19.0693866342577
 30
0.0
 11
41.87518069253865
 21
19.09158088467498
 31
0.0
  0
LINE
  5
1D7
330
6C
100
AcDbEntity
  8
Visible (ANSI)
100
AcDbLine
 10
32.25018069253865
 20
19.09158088467498
 30
0.0
 11
32.25018069253865
 21
19.06938663425777
 31
0.0
  0
ARC
  5
1D8
330
6C
100
AcDbEntity
  8
Visible (ANSI)
100
AcDbCircle
 10
32.37518069253864
 20
19.09158088467498
 30
0.0
 40
0.1249999999999959
100
AcDbArc
 50
170.6375988628179
 51
180.0
  0
ARC
  5
1D9
330
6C
100
AcDbEntity
  8
Visible (ANSI)
100
AcDbCircle
 10
41.75018069253848
 20
19.09158088467496
 30
0.0
 40
0.125000000000169
100
AcDbArc
 50
0.0
 51
9.362401137144729
  0
LINE
  5
1DA
330
6C
100
AcDbEntity
  8
Visible Narrow (ANSI)
100
AcDbLine
 10
40.87518069253889
 20
13.3133193115446
 30
0.0
 11
33.25018069253868
 21
13.31331931154463
 31
0.0
  0
LINE
  5
1DB
330
6C
100
AcDbEntity
  8
Visible Narrow (ANSI)
100
AcDbLine
 10
40.87518069253889
 20
13.21390009810979
 30
0.0
 11
33.25018069253868
 21
13.21390009810979
 31
0.0
  0
LINE
  5
1DC
330
6C
100
AcDbEntity
  8
Visible Narrow (ANSI)
100
AcDbLine
 10
40.87518069253889
 20
13.13477616008663
 30
0.0
 11
33.25018069253868
 21
13.13477616008663
 31
0.0
  0
LINE
  5
1DD
330
6C
100
AcDbEntity
  8
Visible Narrow (ANSI)
100
AcDbLine
 10
40.87518069253889
 20
13.12374529430012
 30
0.0
 11
33.25018069253868
 21
13.12374529430012
 31
0.0
  0
LINE
  5
1DE
330
6C
100
AcDbEntity
  8
Visible (ANSI)
100
AcDbLine
 10
41.12518069253891
 20
11.59148372116978
 30
0.0
 11
33.00018069253868
 21
11.59148372116978
 31
0.0
  0
MTEXT
  5
1DF
330
6C
100
AcDbEntity
  8
Symbol (ANSI)
100
AcDbMText
 10
34.36336149077339
 20
9.180726791851144
 30
0.0
 40
0.600000007415381
 41
0.0
 71
     7
 72
     1
  1
BOTTOM VIEW
  7
Text Style168
 73
     1
 44
1.0
  0
LINE
  5
1E0
330
6C
100
AcDbEntity
  8
Symbol (ANSI)
370
    30
100
AcDbLine
 10
34.30336133643145
 20
9.058368604976694
 30
0.0
 11
39.82200004864612
 21
9.058368604976694
 31
0.0
  0
LINE
  5
1E1
330
6C
100
AcDbEntity
  8
Visible Narrow (ANSI)
100
AcDbLine
 10
41.98458069254479
 20
40.00895252597792
 30
0.0
 11
41.98458069254498
 21
45.84625543906585
 31
0.0
  0
LINE
  5
1E2
330
6C
100
AcDbEntity
  8
Visible (ANSI)
100
AcDbLine
 10
42.12518069254499
 20
45.89424670096984
 30
0.0
 11
42.12518069254478
 21
39.98685543906589
 31
0.0
  0
SPLINE
  5
1E3
330
6C
100
AcDbEntity
  8
Visible (ANSI)
100
AcDbSpline
210
0.0
220
0.0
230
1.0
 70
     8
 71
     3
 72
    11
 73
     7
 74
     0
 42
0.0000000001
 43
0.0000000001
 40
0.0
 40
0.0
 40
0.0
 40
0.0
 40
1.018582815488552
 40
1.018582815488552
 40
1.018582815488552
 40
1.570796326794897
 40
1.570796326794897
 40
1.570796326794897
 40
1.570796326794897
 10
41.98458069254498
 20
45.84625543906585
 30
0.0
 10
42.03231827383087
 20
45.85662874968864
 30
0.0
 10
42.07924082911308
 20
45.86700206031145
 30
0.0
 10
42.10428267627524
 20
45.87737537093426
 30
0.0
 10
42.11785883929384
 20
45.88299914761278
 30
0.0
 10
42.12518069254499
 20
45.88862292429132
 30
0.0
 10
42.12518069254499
 20
45.89424670096984
 30
0.0
  0
LINE
  5
1E4
330
6C
100
AcDbEntity
  8
Visible (ANSI)
100
AcDbLine
 10
42.07408943253987
 20
45.89424670096984
 30
0.0
 11
42.12518069254499
 21
45.89424670096984
 31
0.0
  0
LINE
  5
1E5
330
6C
100
AcDbEntity
  8
Visible (ANSI)
100
AcDbLine
 10
42.00018069254499
 20
45.89424670096985
 30
0.0
 11
42.07408943253987
 21
45.89424670096984
 31
0.0
  0
SPLINE
  5
1E6
330
6C
100
AcDbEntity
  8
Visible (ANSI)
100
AcDbSpline
210
0.0
220
0.0
230
1.0
 70
     8
 71
     3
 72
     8
 73
     4
 74
     0
 42
0.0000000001
 43
0.0000000001
 40
0.0
 40
0.0
 40
0.0
 40
0.0
 40
1.570796326794897
 40
1.570796326794897
 40
1.570796326794897
 40
1.570796326794897
 10
42.00018069254499
 20
45.89424670096985
 30
0.0
 10
42.00018069254499
 20
45.87824961366852
 30
0.0
 10
41.99274883344432
 20
45.86225252636721
 30
0.0
 10
41.98458069254498
 20
45.84625543906589
 30
0.0
  0
LINE
  5
1E7
330
6C
100
AcDbEntity
  8
Visible Narrow (ANSI)
100
AcDbLine
 10
32.16287777945686
 20
39.98685543906585
 30
0.0
 11
41.9624836056327
 21
39.98685543906585
 31
0.0
  0
LINE
  5
1E8
330
6C
100
AcDbEntity
  8
Visible (ANSI)
100
AcDbLine
 10
41.98458069254479
 20
39.84625543906589
 30
0.0
 11
32.14078069254479
 21
39.84625543906589
 31
0.0
  0
LINE
  5
1E9
330
6C
100
AcDbEntity
  8
Visible Narrow (ANSI)
100
AcDbLine
 10
32.14078069254479
 20
45.84625543906619
 30
0.0
 11
32.14078069254479
 21
40.00895252597792
 31
0.0
  0
SPLINE
  5
1EA
330
6C
100
AcDbEntity
  8
Visible (ANSI)
100
AcDbSpline
210
0.0
220
0.0
230
1.0
 70
     8
 71
     3
 72
    11
 73
     7
 74
     0
 42
0.0000000001
 43
0.0000000001
 40
0.0
 40
0.0
 40
0.0
 40
0.0
 40
1.01858281548856
 40
1.01858281548856
 40
1.01858281548856
 40
1.570796326794896
 40
1.570796326794896
 40
1.570796326794896
 40
1.570796326794896
 10
32.00018069254479
 20
45.89424670097018
 30
0.0
 10
32.00018069254479
 20
45.88387339034738
 30
0.0
 10
32.02638359812392
 20
45.87350007972456
 30
0.0
 10
32.06702572599309
 20
45.86312676910175
 30
0.0
 10
32.08905941024176
 20
45.85750299242323
 30
0.0
 10
32.11490028598156
 20
45.85187921574471
 30
0.0
 10
32.14078069254479
 20
45.84625543906619
 30
0.0
  0
LINE
  5
1EB
330
6C
100
AcDbEntity
  8
Visible (ANSI)
100
AcDbLine
 10
32.00018069254479
 20
39.98685543906589
 30
0.0
 11
32.00018069254479
 21
45.89424670097018
 31
0.0
  0
SPLINE
  5
1EC
330
6C
100
AcDbEntity
  8
Visible (ANSI)
100
AcDbSpline
210
0.0
220
0.0
230
1.0
 70
     8
 71
     3
 72
     8
 73
     4
 74
     0
 42
0.0000000001
 43
0.0000000001
 40
0.0
 40
0.0
 40
0.0
 40
0.0
 40
1.570796326794896
 40
1.570796326794896
 40
1.570796326794896
 40
1.570796326794896
 10
32.12518069254478
 20
45.89424670097018
 30
0.0
 10
32.12518069254478
 20
45.87824961366886
 30
0.0
 10
32.13261255164545
 20
45.86225252636753
 30
0.0
 10
32.14078069254479
 20
45.84625543906622
 30
0.0
  0
LINE
  5
1ED
330
6C
100
AcDbEntity
  8
Visible (ANSI)
100
AcDbLine
 10
32.0512719525499
 20
45.89424670097018
 30
0.0
 11
32.12518069254479
 21
45.89424670097018
 31
0.0
  0
LINE
  5
1EE
330
6C
100
AcDbEntity
  8
Visible (ANSI)
100
AcDbLine
 10
32.00018069254479
 20
45.89424670097018
 30
0.0
 11
32.0512719525499
 21
45.89424670097018
 31
0.0
  0
SPLINE
  5
1EF
330
6C
100
AcDbEntity
  8
Visible (ANSI)
100
AcDbSpline
210
0.0
220
0.0
230
1.0
 70
     8
 71
     3
 72
    11
 73
     7
 74
     0
 42
0.0000000001
 43
0.0000000001
 40
0.0
 40
0.0
 40
0.0
 40
0.0
 40
1.01858281548861
 40
1.01858281548861
 40
1.01858281548861
 40
1.570796326794896
 40
1.570796326794896
 40
1.570796326794896
 40
1.570796326794896
 10
42.12518069254478
 20
39.98685543906589
 30
0.0
 10
42.12518069254478
 20
39.99163172410828
 30
0.0
 10
42.09897778696565
 20
39.99640800915067
 30
0.0
 10
42.05833565909647
 20
40.00118429419306
 30
0.0
 10
42.0363019748478
 20
40.00377370478801
 30
0.0
 10
42.01046109910801
 20
40.00636311538297
 30
0.0
 10
41.98458069254479
 20
40.00895252597792
 30
0.0
  0
SPLINE
  5
1F0
330
6C
100
AcDbEntity
  8
Visible (ANSI)
100
AcDbSpline
210
0.0
220
0.0
230
1.0
 70
     8
 71
     3
 72
     8
 73
     4
 74
     0
 42
0.0000000001
 43
0.0000000001
 40
0.0
 40
0.0
 40
0.0
 40
0.0
 40
1.570796326794896
 40
1.570796326794896
 40
1.570796326794896
 40
1.570796326794896
 10
42.00018069254478
 20
39.98685543906589
 30
0.0
 10
42.00018069254478
 20
39.99422113470325
 30
0.0
 10
41.99274883344412
 20
40.00158683034061
 30
0.0
 10
41.98458069254479
 20
40.00895252597796
 30
0.0
  0
SPLINE
  5
1F1
330
6C
100
AcDbEntity
  8
Visible (ANSI)
100
AcDbSpline
210
0.0
220
0.0
230
1.0
 70
    24
 71
     3
 72
     8
 73
     4
 74
     0
 42
0.0000000001
 43
0.0000000001
 40
-0.317499999999999
 40
-0.317499999999999
 40
-0.317499999999999
 40
-0.317499999999999
 40
0.0000000000000036
 40
0.0000000000000036
 40
0.0000000000000036
 40
0.0000000000000036
 10
42.12518069254478
 20
39.98685543906589
 30
0.0
 10
42.08351402587812
 20
39.98685543906589
 30
0.0
 10
42.04184735921145
 20
39.98685543906589
 30
0.0
 10
42.00018069254478
 20
39.98685543906589
 30
0.0
  0
LINE
  5
1F2
330
6C
100
AcDbEntity
  8
Visible (ANSI)
100
AcDbLine
 10
41.98458069254479
 20
40.00895252597792
 30
0.0
 11
40.87518069254482
 21
41.11835252597793
 31
0.0
  0
SPLINE
  5
1F3
330
6C
100
AcDbEntity
  8
Visible (ANSI)
100
AcDbSpline
210
0.0
220
0.0
230
1.0
 70
     8
 71
     3
 72
    11
 73
     7
 74
     0
 42
0.0000000001
 43
0.0000000001
 40
0.0
 40
0.0
 40
0.0
 40
0.0
 40
1.01858281548856
 40
1.01858281548856
 40
1.01858281548856
 40
1.570796326794896
 40
1.570796326794896
 40
1.570796326794896
 40
1.570796326794896
 10
32.14078069254479
 20
39.84625543906589
 30
0.0
 10
32.14555697758719
 20
39.84625543906588
 30
0.0
 10
32.1503332626296
 20
39.872458344645
 30
0.0
 10
32.155109547672
 20
39.91310047251417
 30
0.0
 10
32.15769895826696
 20
39.93513415676284
 30
0.0
 10
32.16028836886192
 20
39.96097503250263
 30
0.0
 10
32.16287777945686
 20
39.98685543906585
 30
0.0
  0
SPLINE
  5
1F4
330
6C
100
AcDbEntity
  8
Visible (ANSI)
100
AcDbSpline
210
0.0
220
0.0
230
1.0
 70
     8
 71
     3
 72
    11
 73
     7
 74
     0
 42
0.0000000001
 43
0.0000000001
 40
0.0
 40
0.0
 40
0.0
 40
0.0
 40
1.018582815488561
 40
1.018582815488561
 40
1.018582815488561
 40
1.570796326794895
 40
1.570796326794895
 40
1.570796326794895
 40
1.570796326794895
 10
41.9624836056327
 20
39.98685543906585
 30
0.0
 10
41.96725989067512
 20
39.93911785777995
 30
0.0
 10
41.97203617571751
 20
39.89219530249777
 30
0.0
 10
41.97681246075992
 20
39.86715345533562
 30
0.0
 10
41.97940187135487
 20
39.85357729231702
 30
0.0
 10
41.98199128194983
 20
39.84625543906588
 30
0.0
 10
41.98458069254479
 20
39.84625543906589
 30
0.0
  0
LINE
  5
1F5
330
6C
100
AcDbEntity
  8
Visible (ANSI)
100
AcDbLine
 10
40.85308360563274
 20
41.09625543906585
 30
0.0
 11
41.9624836056327
 21
39.98685543906585
 31
0.0
  0
SPLINE
  5
1F6
330
6C
100
AcDbEntity
  8
Visible (ANSI)
100
AcDbSpline
210
0.0
220
0.0
230
1.0
 70
    24
 71
     3
 72
     8
 73
     4
 74
     0
 42
0.0000000001
 43
0.0000000001
 40
0.0
 40
0.0
 40
0.0
 40
0.0
 40
0.3175
 40
0.3175
 40
0.3175
 40
0.3175
 10
41.98458069254479
 20
39.97125543906589
 30
0.0
 10
41.98458069254479
 20
39.92958877239922
 30
0.0
 10
41.98458069254479
 20
39.88792210573256
 30
0.0
 10
41.98458069254479
 20
39.84625543906589
 30
0.0
  0
SPLINE
  5
1F7
330
6C
100
AcDbEntity
  8
Visible (ANSI)
100
AcDbSpline
210
0.0
220
0.0
230
1.0
 70
     8
 71
     3
 72
     8
 73
     4
 74
     0
 42
0.0000000001
 43
0.0000000001
 40
0.0
 40
0.0
 40
0.0
 40
0.0
 40
1.570796326794895
 40
1.570796326794895
 40
1.570796326794895
 40
1.570796326794895
 10
41.98458069254479
 20
39.97125543906589
 30
0.0
 10
41.97721499690742
 20
39.97125543906589
 30
0.0
 10
41.96984930127007
 20
39.97868729816655
 30
0.0
 10
41.9624836056327
 20
39.98685543906589
 30
0.0
  0
SPLINE
  5
1F8
330
6C
100
AcDbEntity
  8
Visible (ANSI)
100
AcDbSpline
210
0.0
220
0.0
230
1.0
 70
     8
 71
     3
 72
     8
 73
     4
 74
     0
 42
0.0000000001
 43
0.0000000001
 40
0.0
 40
0.0
 40
0.0
 40
0.0
 40
1.570796326794896
 40
1.570796326794896
 40
1.570796326794896
 40
1.570796326794896
 10
32.14078069254479
 20
39.97125543906589
 30
0.0
 10
32.14814638818215
 20
39.97125543906589
 30
0.0
 10
32.15551208381951
 20
39.97868729816655
 30
0.0
 10
32.16287777945686
 20
39.98685543906589
 30
0.0
  0
SPLINE
  5
1F9
330
6C
100
AcDbEntity
  8
Visible (ANSI)
100
AcDbSpline
210
0.0
220
0.0
230
1.0
 70
    24
 71
     3
 72
     8
 73
     4
 74
     0
 42
0.0000000001
 43
0.0000000001
 40
-0.3175
 40
-0.3175
 40
-0.3175
 40
-0.3175
 40
0.0
 40
0.0
 40
0.0
 40
0.0
 10
32.14078069254479
 20
39.84625543906589
 30
0.0
 10
32.14078069254479
 20
39.88792210573256
 30
0.0
 10
32.14078069254479
 20
39.92958877239922
 30
0.0
 10
32.14078069254479
 20
39.97125543906589
 30
0.0
  0
LINE
  5
1FA
330
6C
100
AcDbEntity
  8
Visible (ANSI)
100
AcDbLine
 10
32.16287777945686
 20
39.98685543906585
 30
0.0
 11
33.27227777945687
 21
41.09625543906585
 31
0.0
  0
SPLINE
  5
1FB
330
6C
100
AcDbEntity
  8
Visible (ANSI)
100
AcDbSpline
210
0.0
220
0.0
230
1.0
 70
     8
 71
     3
 72
    11
 73
     7
 74
     0
 42
0.0000000001
 43
0.0000000001
 40
0.0
 40
0.0
 40
0.0
 40
0.0
 40
1.018582815488561
 40
1.018582815488561
 40
1.018582815488561
 40
1.570796326794895
 40
1.570796326794895
 40
1.570796326794895
 40
1.570796326794895
 10
32.14078069254479
 20
40.00895252597792
 30
0.0
 10
32.09304311125889
 20
40.00417624093553
 30
0.0
 10
32.0461205559767
 20
39.99939995589313
 30
0.0
 10
32.02107870881453
 20
39.99462367085074
 30
0.0
 10
32.00750254579593
 20
39.99203426025579
 30
0.0
 10
32.00018069254479
 20
39.98944484966084
 30
0.0
 10
32.00018069254479
 20
39.98685543906589
 30
0.0
  0
LINE
  5
1FC
330
6C
100
AcDbEntity
  8
Visible (ANSI)
100
AcDbLine
 10
33.25018069254479
 20
41.11835252597793
 30
0.0
 11
32.14078069254479
 21
40.00895252597792
 31
0.0
  0
SPLINE
  5
1FD
330
6C
100
AcDbEntity
  8
Visible (ANSI)
100
AcDbSpline
210
0.0
220
0.0
230
1.0
 70
    24
 71
     3
 72
     8
 73
     4
 74
     0
 42
0.0000000001
 43
0.0000000001
 40
0.0
 40
0.0
 40
0.0
 40
0.0
 40
0.3175000000000001
 40
0.3175000000000001
 40
0.3175000000000001
 40
0.3175000000000001
 10
32.12518069254479
 20
39.98685543906589
 30
0.0
 10
32.08351402587812
 20
39.98685543906589
 30
0.0
 10
32.04184735921145
 20
39.98685543906589
 30
0.0
 10
32.00018069254479
 20
39.98685543906589
 30
0.0
  0
SPLINE
  5
1FE
330
6C
100
AcDbEntity
  8
Visible (ANSI)
100
AcDbSpline
210
0.0
220
0.0
230
1.0
 70
     8
 71
     3
 72
     8
 73
     4
 74
     0
 42
0.0000000001
 43
0.0000000001
 40
0.0
 40
0.0
 40
0.0
 40
0.0
 40
1.570796326794895
 40
1.570796326794895
 40
1.570796326794895
 40
1.570796326794895
 10
32.12518069254479
 20
39.98685543906589
 30
0.0
 10
32.12518069254479
 20
39.99422113470325
 30
0.0
 10
32.13261255164545
 20
40.00158683034061
 30
0.0
 10
32.14078069254479
 20
40.00895252597796
 30
0.0
  0
LINE
  5
1FF
330
6C
100
AcDbEntity
  8
Visible (ANSI)
100
AcDbLine
 10
40.87518069254499
 20
45.84625543906589
 30
0.0
 11
41.98458069254498
 21
45.84625543906585
 31
0.0
  0
LINE
  5
200
330
6C
100
AcDbEntity
  8
Visible (ANSI)
100
AcDbLine
 10
40.87518069254482
 20
41.11835252597793
 30
0.0
 11
40.87518069254499
 21
45.84625543906589
 31
0.0
  0
LINE
  5
201
330
6C
100
AcDbEntity
  8
Visible (ANSI)
100
AcDbLine
 10
33.27227777945687
 20
41.09625543906585
 30
0.0
 11
40.85308360563274
 21
41.09625543906585
 31
0.0
  0
LINE
  5
202
330
6C
100
AcDbEntity
  8
Visible (ANSI)
100
AcDbLine
 10
32.14078069254479
 20
45.84625543906619
 30
0.0
 11
33.25018069254478
 21
45.84625543906619
 31
0.0
  0
LINE
  5
203
330
6C
100
AcDbEntity
  8
Visible (ANSI)
100
AcDbLine
 10
33.25018069254478
 20
45.84625543906619
 30
0.0
 11
33.25018069254479
 21
41.11835252597793
 31
0.0
  0
ARC
  5
204
330
6C
100
AcDbEntity
  8
Visible (ANSI)
100
AcDbCircle
 10
32.14078069254479
 20
39.98685543906589
 30
0.0
 40
0.0156000000000001
100
AcDbArc
 50
180.0
 51
270.0
  0
ARC
  5
205
330
6C
100
AcDbEntity
  8
Visible (ANSI)
100
AcDbCircle
 10
32.14078069254479
 20
39.98685543906589
 30
0.0
 40
0.1406
100
AcDbArc
 50
180.0
 51
270.0
  0
ARC
  5
206
330
6C
100
AcDbEntity
  8
Visible (ANSI)
100
AcDbCircle
 10
41.98458069254479
 20
39.98685543906589
 30
0.0
 40
0.0155999999999998
100
AcDbArc
 50
270.0
 51
0.0
  0
ARC
  5
207
330
6C
100
AcDbEntity
  8
Visible (ANSI)
100
AcDbCircle
 10
41.98458069254479
 20
39.98685543906589
 30
0.0
 40
0.1405999999999981
100
AcDbArc
 50
270.0000000000029
 51
0.0
  0
LINE
  5
208
330
6C
100
AcDbEntity
  8
Visible (ANSI)
100
AcDbLine
 10
32.00018069254479
 20
45.89424670097018
 30
0.0
 11
32.00018069254478
 21
47.84625543906758
 31
0.0
  0
LINE
  5
209
330
6C
100
AcDbEntity
  8
Visible (ANSI)
100
AcDbLine
 10
42.00018069254499
 20
45.89424670096985
 30
0.0
 11
42.00018069254505
 21
47.84625543906758
 31
0.0
  0
LINE
  5
20A
330
6C
100
AcDbEntity
  8
Visible (ANSI)
100
AcDbLine
 10
42.12518069254505
 20
47.84625543906758
 30
0.0
 11
42.12518069254499
 21
45.89424670096984
 31
0.0
  0
LINE
  5
20B
330
6C
100
AcDbEntity
  8
Visible (ANSI)
100
AcDbLine
 10
42.00018069254505
 20
47.84625543906758
 30
0.0
 11
42.12518069254505
 21
47.84625543906758
 31
0.0
  0
LINE
  5
20C
330
6C
100
AcDbEntity
  8
Visible (ANSI)
100
AcDbLine
 10
32.12518069254478
 20
47.84625543906758
 30
0.0
 11
32.12518069254479
 21
45.89424670097018
 31
0.0
  0
LINE
  5
20D
330
6C
100
AcDbEntity
  8
Visible (ANSI)
100
AcDbLine
 10
32.00018069254478
 20
47.84625543906758
 30
0.0
 11
32.12518069254478
 21
47.84625543906758
 31
0.0
  0
LINE
  5
20E
330
6C
100
AcDbEntity
  8
Visible (ANSI)
100
AcDbLine
 10
32.75018069254479
 20
47.84625543906758
 30
0.0
 11
33.00018069254479
 21
47.5962554390676
 31
0.0
  0
LINE
  5
20F
330
6C
100
AcDbEntity
  8
Visible (ANSI)
100
AcDbLine
 10
41.12518069254501
 20
47.5962554390676
 30
0.0
 11
41.37518069254505
 21
47.84625543906762
 31
0.0
  0
LINE
  5
210
330
6C
100
AcDbEntity
  8
Visible (ANSI)
100
AcDbLine
 10
32.75018069254479
 20
47.84625543906758
 30
0.0
 11
32.14078069254479
 21
47.84625543906758
 31
0.0
  0
LINE
  5
211
330
6C
100
AcDbEntity
  8
Visible (ANSI)
100
AcDbLine
 10
41.37518069254505
 20
47.84625543906762
 30
0.0
 11
41.98458069254505
 21
47.84625543906759
 31
0.0
  0
LINE
  5
212
330
6C
100
AcDbEntity
  8
Visible Narrow (ANSI)
100
AcDbLine
 10
32.14078069254479
 20
47.84625543906758
 30
0.0
 11
32.14078069254479
 21
45.84625543906793
 31
0.0
  0
LINE
  5
213
330
6C
100
AcDbEntity
  8
Visible (ANSI)
100
AcDbLine
 10
32.14078069254479
 20
47.84625543906759
 30
0.0
 11
32.12518069254478
 21
47.84625543906758
 31
0.0
  0
LINE
  5
214
330
6C
100
AcDbEntity
  8
Visible (ANSI)
100
AcDbLine
 10
41.98458069254505
 20
47.84625543906759
 30
0.0
 11
42.00018069254505
 21
47.84625543906758
 31
0.0
  0
LINE
  5
215
330
6C
100
AcDbEntity
  8
Visible Narrow (ANSI)
100
AcDbLine
 10
41.98458069254498
 20
45.84625543906759
 30
0.0
 11
41.98458069254505
 21
47.84625543906759
 31
0.0
  0
CIRCLE
  5
216
330
6C
100
AcDbEntity
  8
Visible (ANSI)
100
AcDbCircle
 10
37.06268069254476
 20
43.59625543906587
 30
0.0
 40
0.28125
  0
CIRCLE
  5
217
330
6C
100
AcDbEntity
  8
Visible (ANSI)
100
AcDbCircle
 10
34.12518069254475
 20
46.59625543906584
 30
0.0
 40
0.28125
  0
CIRCLE
  5
218
330
6C
100
AcDbEntity
  8
Visible (ANSI)
100
AcDbCircle
 10
40.00018069254475
 20
46.59625543906584
 30
0.0
 40
0.28125
  0
ARC
  5
219
330
6C
100
AcDbEntity
  8
Visible (ANSI)
100
AcDbCircle
 10
41.75018069254475
 20
47.47125543906584
 30
0.0
 40
0.1249999999999989
100
AcDbArc
 50
0.0
 51
90.0
  0
ARC
  5
21A
330
6C
100
AcDbEntity
  8
Visible (ANSI)
100
AcDbCircle
 10
32.37518069254475
 20
47.47125543906584
 30
0.0
 40
0.125
100
AcDbArc
 50
90.0
 51
180.0
  0
ARC
  5
21B
330
6C
100
AcDbEntity
  8
Visible (ANSI)
100
AcDbCircle
 10
32.37518069254472
 20
40.09615827556072
 30
0.0
 40
0.1249999999999818
100
AcDbArc
 50
180.0
 51
189.3624011371815
  0
ARC
  5
21C
330
6C
100
AcDbEntity
  8
Visible (ANSI)
100
AcDbCircle
 10
41.75018069254488
 20
40.09615827556072
 30
0.0
 40
0.1249999999998695
100
AcDbArc
 50
350.6375988628423
 51
0.0
  0
LINE
  5
21D
330
6C
100
AcDbEntity
  8
Visible (ANSI)
100
AcDbLine
 10
41.87518069254475
 20
47.47125543906584
 30
0.0
 11
41.87518069254475
 21
46.0639938659355
 31
0.0
  0
LINE
  5
21E
330
6C
100
AcDbEntity
  8
Visible (ANSI)
100
AcDbLine
 10
32.37518069254475
 20
47.59625543906584
 30
0.0
 11
41.75018069254475
 21
47.59625543906584
 31
0.0
  0
LINE
  5
21F
330
6C
100
AcDbEntity
  8
Visible (ANSI)
100
AcDbLine
 10
32.25018069254475
 20
46.0639938659355
 30
0.0
 11
32.25018069254475
 21
47.47125543906584
 31
0.0
  0
LINE
  5
220
330
6C
100
AcDbEntity
  8
Visible (ANSI)
100
AcDbLine
 10
41.87518069254475
 20
45.96457465250068
 30
0.0
 11
41.87518069254475
 21
46.06399386593549
 31
0.0
  0
LINE
  5
221
330
6C
100
AcDbEntity
  8
Visible Narrow (ANSI)
100
AcDbLine
 10
32.25018069254475
 20
46.0639938659355
 30
0.0
 11
41.87518069254475
 21
46.0639938659355
 31
0.0
  0
LINE
  5
222
330
6C
100
AcDbEntity
  8
Visible (ANSI)
100
AcDbLine
 10
32.25018069254475
 20
45.96457465250069
 30
0.0
 11
32.25018069254475
 21
46.0639938659355
 31
0.0
  0
LINE
  5
223
330
6C
100
AcDbEntity
  8
Visible Narrow (ANSI)
100
AcDbLine
 10
32.25018069254475
 20
45.96457465250068
 30
0.0
 11
41.87518069254475
 21
45.96457465250068
 31
0.0
  0
LINE
  5
224
330
6C
100
AcDbEntity
  8
Visible (ANSI)
100
AcDbLine
 10
41.87518069254475
 20
45.88545071447756
 30
0.0
 11
41.87518069254475
 21
45.96457465250068
 31
0.0
  0
LINE
  5
225
330
6C
100
AcDbEntity
  8
Visible (ANSI)
100
AcDbLine
 10
32.25018069254475
 20
45.96457465250068
 30
0.0
 11
32.25018069254474
 21
45.88545071447756
 31
0.0
  0
LINE
  5
226
330
6C
100
AcDbEntity
  8
Visible (ANSI)
100
AcDbLine
 10
41.87518069254475
 20
45.88545071447756
 30
0.0
 11
41.87518069254475
 21
45.87441984869109
 31
0.0
  0
LINE
  5
227
330
6C
100
AcDbEntity
  8
Visible (ANSI)
100
AcDbLine
 10
32.25018069254474
 20
45.88545071447757
 30
0.0
 11
32.25018069254474
 21
45.87441984869107
 31
0.0
  0
LINE
  5
228
330
6C
100
AcDbEntity
  8
Visible Narrow (ANSI)
100
AcDbLine
 10
32.25018069254474
 20
45.87441984869107
 30
0.0
 11
41.87518069254475
 21
45.87441984869109
 31
0.0
  0
LINE
  5
229
330
6C
100
AcDbEntity
  8
Visible Narrow (ANSI)
100
AcDbLine
 10
32.25018069254474
 20
45.88545071447756
 30
0.0
 11
41.87518069254475
 21
45.88545071447756
 31
0.0
  0
LINE
  5
22A
330
6C
100
AcDbEntity
  8
Visible (ANSI)
100
AcDbLine
 10
41.87518069254475
 20
40.09615827556072
 30
0.0
 11
41.87518069254475
 21
40.118352525978
 31
0.0
  0
LINE
  5
22B
330
6C
100
AcDbEntity
  8
Visible (ANSI)
100
AcDbLine
 10
41.87518069254475
 20
45.84625543906589
 30
0.0
 11
41.87518069254475
 21
45.87441984869109
 31
0.0
  0
LINE
  5
22C
330
6C
100
AcDbEntity
  8
Visible (ANSI)
100
AcDbLine
 10
32.25018069254474
 20
45.87441984869107
 30
0.0
 11
32.25018069254474
 21
45.84625543906621
 31
0.0
  0
LINE
  5
22D
330
6C
100
AcDbEntity
  8
Visible (ANSI)
100
AcDbLine
 10
32.25018069254474
 20
40.11835252597792
 30
0.0
 11
32.25018069254474
 21
40.09615827556072
 31
0.0
  0
MTEXT
  5
22E
330
6C
100
AcDbEntity
  8
Symbol (ANSI)
100
AcDbMText
 10
35.11830487982641
 20
37.17508263773757
 30
0.0
 40
0.600000007415381
 41
0.0
 71
     7
 72
     1
  1
TOP VIEW
  7
Text Style168
 73
     1
 44
1.0
  0
LINE
  5
22F
330
6C
100
AcDbEntity
  8
Symbol (ANSI)
370
    30
100
AcDbLine
 10
35.11878488106115
 20
37.05272445086312
 30
0.0
 11
38.9045222678998
 21
37.05272445086312
 31
0.0
  0
ELLIPSE
  5
230
330
6C
100
AcDbEntity
  8
Visible (ANSI)
100
AcDbEllipse
 10
75.85515476687992
 20
46.5692544373661
 30
0.0
 11
-0.28125
 21
0.000000000000025
 31
0.0
210
0.0
220
0.0
230
1.0
 40
0.575861700985292
 41
0.0
 42
6.283185307179586
  0
ELLIPSE
  5
231
330
6C
100
AcDbEntity
  8
Visible (ANSI)
100
AcDbEllipse
 10
75.85515476687992
 20
46.46706104676076
 30
0.0
 11
0.2812500000000007
 21
-0.0000000000000079
 31
0.0
210
0.0
220
0.0
230
1.0
 40
0.5758617009852913
 41
0.3209702928256584
 42
2.820622360764144
  0
ELLIPSE
  5
232
330
6C
100
AcDbEntity
  8
Visible (ANSI)
100
AcDbEllipse
 10
79.83263041105485
 20
44.27877854728455
 30
0.0
 11
-0.28125
 21
0.000000000000025
 31
0.0
210
0.0
220
0.0
230
1.0
 40
0.575861700985292
 41
0.0
 42
6.283185307179586
  0
ELLIPSE
  5
233
330
6C
100
AcDbEntity
  8
Visible (ANSI)
100
AcDbEllipse
 10
79.83263041105485
 20
44.17658515667922
 30
0.0
 11
0.2812499999999994
 21
-0.0000000000000079
 31
0.0
210
0.0
220
0.0
230
1.0
 40
0.5758617009852911
 41
0.3209702928256586
 42
2.820622360764144
  0
ELLIPSE
  5
234
330
6C
100
AcDbEntity
  8
Visible (ANSI)
100
AcDbEllipse
 10
73.82222277096857
 20
46.67105336581399
 30
0.0
 11
-0.28125
 21
0.0000000000000086
 31
0.0
210
0.0
220
0.0
230
1.0
 40
0.5758617009852928
 41
0.0
 42
6.283185307179586
  0
ELLIPSE
  5
235
330
6C
100
AcDbEntity
  8
Visible (ANSI)
100
AcDbEllipse
 10
73.82222277096857
 20
46.56885997520868
 30
0.0
 11
0.2812500000000008
 21
0.0000000000000079
 31
0.0
210
0.0
220
0.0
230
1.0
 40
0.5758617009852939
 41
0.3209702928256479
 42
2.820622360764095
  0
ELLIPSE
  5
236
330
6C
100
AcDbEntity
  8
Visible (ANSI)
100
AcDbEllipse
 10
70.28668886503635
 20
44.63507479685202
 30
0.0
 11
-0.28125
 21
0.0000000000000086
 31
0.0
210
0.0
220
0.0
230
1.0
 40
0.5758617009852928
 41
0.0
 42
6.283185307179586
  0
ELLIPSE
  5
237
330
6C
100
AcDbEntity
  8
Visible (ANSI)
100
AcDbEllipse
 10
70.28668886503635
 20
44.5328814062467
 30
0.0
 11
0.2812500000000008
 21
0.0000000000000079
 31
0.0
210
0.0
220
0.0
230
1.0
 40
0.5758617009852939
 41
0.3209702928256477
 42
2.820622360764095
  0
ELLIPSE
  5
238
330
6C
100
AcDbEntity
  8
Visible (ANSI)
100
AcDbEllipse
 10
80.0094071063518
 20
43.10809087013155
 30
0.0
 11
-0.28125
 21
0.0000000000000178
 31
0.0
210
0.0
220
0.0
230
1.0
 40
0.5758617009853144
 41
0.0
 42
6.283185307179586
  0
ELLIPSE
  5
239
330
6C
100
AcDbEntity
  8
Visible (ANSI)
100
AcDbEllipse
 10
80.0094071063518
 20
43.00589747952623
 30
0.0
 11
0.2812499999999964
 21
-0.0000000000000012
 31
0.0
210
0.0
220
0.0
230
1.0
 40
0.5758617009853135
 41
0.3209702928256489
 42
2.820622360764199
  0
ELLIPSE
  5
23A
330
6C
100
AcDbEntity
  8
Visible (ANSI)
100
AcDbEllipse
 10
76.4738732004197
 20
41.07211230116951
 30
0.0
 11
-0.28125
 21
0.0000000000000178
 31
0.0
210
0.0
220
0.0
230
1.0
 40
0.5758617009853144
 41
0.0
 42
6.283185307179586
  0
ELLIPSE
  5
23B
330
6C
100
AcDbEntity
  8
Visible (ANSI)
100
AcDbEllipse
 10
76.4738732004197
 20
40.96991891056419
 30
0.0
 11
0.281249999999997
 21
-0.0000000000000019
 31
0.0
210
0.0
220
0.0
230
1.0
 40
0.5758617009853129
 41
0.3209702928256537
 42
2.820622360764202
  0
SPLINE
  5
23C
330
6C
100
AcDbEntity
  8
Visible (ANSI)
100
AcDbSpline
210
0.0
220
0.0
230
1.0
 70
     8
 71
     3
 72
     8
 73
     4
 74
     0
 42
0.0000000001
 43
0.0000000001
 40
0.0
 40
0.0
 40
0.0
 40
0.0
 40
0.7873318718203095
 40
0.7873318718203095
 40
0.7873318718203095
 40
0.7873318718203095
 10
81.81033736735567
 20
38.79494790382261
 30
0.0
 10
81.80772678903789
 20
38.76327739319219
 30
0.0
 10
81.79404596071227
 20
38.73837992936504
 30
0.0
 10
81.77313648808809
 20
38.72599704427408
 30
0.0
  0
SPLINE
  5
23D
330
6C
100
AcDbEntity
  8
Visible (ANSI)
100
AcDbSpline
210
0.0
220
0.0
230
1.0
 70
     8
 71
     3
 72
     8
 73
     4
 74
     0
 42
0.0000000001
 43
0.0000000001
 40
0.0
 40
0.0
 40
0.0
 40
0.0
 40
0.0154576661982303
 40
0.0154576661982303
 40
0.0154576661982303
 40
0.0154576661982303
 10
74.76133128706218
 20
42.86690504174534
 30
0.0
 10
74.7613825404785
 20
42.86680981253893
 30
0.0
 10
74.76143328499704
 20
42.86671434856923
 30
0.0
 10
74.76148352512956
 20
42.86661865765083
 30
0.0
  0
SPLINE
  5
23E
330
6C
100
AcDbEntity
  8
Visible (ANSI)
100
AcDbSpline
210
0.0
220
0.0
230
1.0
 70
     8
 71
     3
 72
     8
 73
     4
 74
     0
 42
0.0000000001
 43
0.0000000001
 40
0.0
 40
0.0
 40
0.0
 40
0.0
 40
0.7642854944727102
 40
0.7642854944727102
 40
0.7642854944727102
 40
0.7642854944727102
 10
74.73926955548915
 20
42.86690504174534
 30
0.0
 10
74.73673539268959
 20
42.86219654952048
 30
0.0
 10
74.7354453260502
 20
42.8569141343864
 30
0.0
 10
74.73485399937605
 20
42.85200237941315
 30
0.0
  0
LINE
  5
23F
330
6C
100
AcDbEntity
  8
Visible Narrow (ANSI)
100
AcDbLine
 10
77.63318094694199
 20
36.3894835022806
 30
0.0
 11
81.81033736735567
 21
38.79494790382261
 31
0.0
  0
SPLINE
  5
240
330
6C
100
AcDbEntity
  8
Visible (ANSI)
100
AcDbSpline
210
0.0
220
0.0
230
1.0
 70
     8
 71
     3
 72
    11
 73
     7
 74
     0
 42
0.0000000001
 43
0.0000000001
 40
0.0
 40
0.0
 40
0.0
 40
0.0
 40
1.018582815488552
 40
1.018582815488552
 40
1.018582815488552
 40
1.570796326794897
 40
1.570796326794897
 40
1.570796326794897
 40
1.570796326794897
 10
77.56769668023713
 20
36.35132993003371
 30
0.0
 10
77.59411720939709
 20
36.32766742392384
 30
0.0
 10
77.61996142814301
 20
36.32575890302805
 30
0.0
 10
77.63033364980009
 20
36.34456485736166
 30
0.0
 10
77.63595683610778
 20
36.35476029941911
 30
0.0
 10
77.63715755756725
 20
36.37061502806389
 30
0.0
 10
77.63318094694199
 20
36.3894835022806
 30
0.0
  0
LINE
  5
241
330
6C
100
AcDbEntity
  8
Visible (ANSI)
100
AcDbLine
 10
77.56769668023713
 20
36.42476585156126
 30
0.0
 11
77.56769668023713
 21
36.35132993003371
 31
0.0
  0
LINE
  5
242
330
6C
100
AcDbEntity
  8
Visible (ANSI)
100
AcDbLine
 10
77.59705397053299
 20
36.41028764436692
 30
0.0
 11
77.63318094694199
 21
36.3894835022806
 31
0.0
  0
LINE
  5
243
330
6C
100
AcDbEntity
  8
Visible (ANSI)
100
AcDbLine
 10
77.54479259929365
 20
36.44038296650462
 30
0.0
 11
77.59705397053299
 21
36.41028764436692
 31
0.0
  0
LINE
  5
244
330
6C
100
AcDbEntity
  8
Visible Narrow (ANSI)
100
AcDbLine
 10
74.76133128706216
 20
42.86690504174534
 30
0.0
 11
74.76167700060184
 21
42.86670595855833
 31
0.0
  0
SPLINE
  5
245
330
6C
100
AcDbEntity
  8
Visible (ANSI)
100
AcDbSpline
210
0.0
220
0.0
230
1.0
 70
     8
 71
     3
 72
    11
 73
     7
 74
     0
 42
0.0000000001
 43
0.0000000001
 40
0.0
 40
0.0
 40
0.0
 40
0.0
 40
1.01858281548856
 40
1.01858281548856
 40
1.01858281548856
 40
1.21329090443059
 40
1.21329090443059
 40
1.21329090443059
 40
1.21329090443059
 10
70.47372478742675
 20
40.5123401044273
 30
0.0
 10
70.4810598257115
 20
40.47753634972352
 30
0.0
 10
70.50692311621801
 20
40.43272920634501
 30
0.0
 10
70.54299647872089
 20
40.39993098355255
 30
0.0
 10
70.54989211387971
 20
40.3936614105895
 30
0.0
 10
70.55712243974608
 20
40.38783479314167
 30
0.0
 10
70.56457067115447
 20
40.38255664193007
 30
0.0
  0
LINE
  5
246
330
6C
100
AcDbEntity
  8
Visible Narrow (ANSI)
100
AcDbLine
 10
70.61843023345746
 20
40.46841325885444
 30
0.0
 11
70.60707894759158
 21
40.46187648806735
 31
0.0
  0
LINE
  5
247
330
6C
100
AcDbEntity
  8
Visible (ANSI)
100
AcDbLine
 10
70.60707894759158
 20
40.46187648806735
 30
0.0
 11
70.60707894759158
 21
40.45384747859912
 31
0.0
  0
SPLINE
  5
248
330
6C
100
AcDbEntity
  8
Visible (ANSI)
100
AcDbSpline
210
0.0
220
0.0
230
1.0
 70
     8
 71
     3
 72
     8
 73
     4
 74
     0
 42
0.0000000001
 43
0.0000000001
 40
0.0
 40
0.0
 40
0.0
 40
0.0
 40
1.570796326794896
 40
1.570796326794896
 40
1.570796326794896
 40
1.570796326794896
 10
70.56211313507509
 20
40.46144064020327
 30
0.0
 10
70.57342478398507
 20
40.46127674547796
 30
0.0
 10
70.58999155086197
 20
40.45868857464895
 30
0.0
 10
70.60707894759158
 20
40.46187648806735
 30
0.0
  0
LINE
  5
249
330
6C
100
AcDbEntity
  8
Visible (ANSI)
100
AcDbLine
 10
70.50985176383574
 20
40.49153596234098
 30
0.0
 11
70.56211313507509
 21
40.46144064020327
 31
0.0
  0
LINE
  5
24A
330
6C
100
AcDbEntity
  8
Visible (ANSI)
100
AcDbLine
 10
70.47372478742675
 20
40.5123401044273
 30
0.0
 11
70.50985176383574
 21
40.49153596234098
 31
0.0
  0
LINE
  5
24B
330
6C
100
AcDbEntity
  8
Visible Narrow (ANSI)
100
AcDbLine
 10
70.56211313507509
 20
40.46144064020327
 30
0.0
 11
74.73926955548915
 21
42.86690504174534
 31
0.0
  0
LINE
  5
24C
330
6C
100
AcDbEntity
  8
Visible (ANSI)
100
AcDbLine
 10
77.62093491099647
 20
36.33468856331482
 30
0.0
 11
81.77325034791623
 21
38.72584799384787
 31
0.0
  0
SPLINE
  5
24D
330
6C
100
AcDbEntity
  8
Visible (ANSI)
100
AcDbSpline
210
0.0
220
0.0
230
1.0
 70
     8
 71
     3
 72
    16
 73
    12
 74
     0
 42
0.0000000001
 43
0.0000000001
 40
0.1047220359337916
 40
0.1047220359337916
 40
0.1047220359337916
 40
0.1047220359337916
 40
0.1049456261733238
 40
0.1049456261733238
 40
0.1310518644697217
 40
0.1310518644697217
 40
0.1571581008204747
 40
0.1571581008204747
 40
0.1832643372547913
 40
0.1832643372547913
 40
0.2099622469467508
 40
0.2099622469467508
 40
0.2099622469467508
 40
0.2099622469467508
 10
77.57229125090559
 20
36.41915964379756
 30
0.0
 10
77.57229125090559
 20
36.41915964379755
 30
0.0
 10
77.57229123099623
 20
36.4191596783707
 30
0.0
 10
77.57228653561373
 20
36.41916781390799
 30
0.0
 10
77.57200061624138
 20
36.41965985657034
 30
0.0
 10
77.57071517571702
 20
36.42139597967157
 30
0.0
 10
77.56969824208963
 20
36.42265976816769
 30
0.0
 10
77.56690838099075
 20
36.42561138147057
 30
0.0
 10
77.5650999763876
 20
36.42733350960996
 30
0.0
 10
77.56075534559338
 20
36.43085244339093
 30
0.0
 10
77.55814641172304
 20
36.43269301736441
 30
0.0
 10
77.55528200236503
 20
36.43434252100963
 30
0.0
  0
LINE
  5
24E
330
6C
100
AcDbEntity
  8
Visible (ANSI)
100
AcDbLine
 10
77.53301479359527
 20
36.47349529087397
 30
0.0
 11
77.49033919837514
 21
36.49807053172799
 31
0.0
  0
LINE
  5
24F
330
6C
100
AcDbEntity
  8
Visible (ANSI)
100
AcDbLine
 10
77.43379370331981
 20
36.42843952608828
 30
0.0
 11
77.56769668023713
 21
36.35132993003371
 31
0.0
  0
LINE
  5
250
330
6C
100
AcDbEntity
  8
Visible (ANSI)
100
AcDbLine
 10
70.60707894759158
 20
40.46187648806735
 30
0.0
 11
70.61124521329265
 21
40.45947729521397
 31
0.0
  0
ELLIPSE
  5
251
330
6C
100
AcDbEntity
  8
Visible (ANSI)
100
AcDbEllipse
 10
74.75030042127565
 20
42.86055278861018
 30
0.0
 11
0.0156000000000001
 21
-0.0000000000000009
 31
0.0
210
0.0
220
0.0
230
1.0
 40
0.5758617009853121
 41
0.7853981633979572
 42
2.356194490192816
  0
ELLIPSE
  5
252
330
6C
100
AcDbEntity
  8
Visible (ANSI)
100
AcDbEllipse
 10
81.71091815392083
 20
38.8521996211818
 30
0.0
 11
0.1405999999999981
 21
0.0
 31
0.0
210
0.0
220
0.0
230
1.0
 40
0.5758617009853118
 41
5.497787143782344
 42
6.283185307179587
  0
LINE
  5
253
330
6C
100
AcDbEntity
  8
Visible (ANSI)
100
AcDbLine
 10
70.47372478742675
 20
40.5123401044273
 30
0.0
 11
69.09344617178408
 21
44.39287901053893
 31
0.0
  0
LINE
  5
254
330
6C
100
AcDbEntity
  8
Visible (ANSI)
100
AcDbLine
 10
77.54479259929365
 20
36.44038296650462
 30
0.0
 11
76.16451398365079
 21
40.3209218726161
 31
0.0
  0
LINE
  5
255
330
6C
100
AcDbEntity
  8
Visible (ANSI)
100
AcDbLine
 10
76.25290233129913
 20
40.27002240839206
 30
0.0
 11
77.63318094694199
 21
36.3894835022806
 31
0.0
  0
LINE
  5
256
330
6C
100
AcDbEntity
  8
Visible (ANSI)
100
AcDbLine
 10
76.16451398365079
 20
40.3209218726161
 30
0.0
 11
76.25290233129913
 21
40.27002240839206
 31
0.0
  0
LINE
  5
257
330
6C
100
AcDbEntity
  8
Visible (ANSI)
100
AcDbLine
 10
69.18183451943241
 20
44.3419795463149
 30
0.0
 11
70.56211313507509
 21
40.46144064020327
 31
0.0
  0
LINE
  5
258
330
6C
100
AcDbEntity
  8
Visible (ANSI)
100
AcDbLine
 10
69.09344617178408
 20
44.39287901053893
 30
0.0
 11
69.18183451943241
 21
44.3419795463149
 31
0.0
  0
ELLIPSE
  5
259
330
6C
100
AcDbEntity
  8
Visible (ANSI)
100
AcDbEllipse
 10
81.71091815392083
 20
43.52758811873131
 30
0.0
 11
0.1405999999999993
 21
0.0
 31
0.0
210
0.0
220
0.0
230
1.0
 40
0.5758617009853118
 41
5.497787143782282
 42
7.068583470577151
  0
ELLIPSE
  5
25A
330
6C
100
AcDbEntity
  8
Visible (ANSI)
100
AcDbEllipse
 10
74.75030042127565
 20
47.53594128615969
 30
0.0
 11
-0.0156000000000001
 21
-0.0000000000000009
 31
0.0
210
0.0
220
0.0
230
1.0
 40
0.5758617009853121
 41
3.926990816987403
 42
5.497787143782263
  0
LINE
  5
25B
330
6C
100
AcDbEntity
  8
Visible (ANSI)
100
AcDbLine
 10
69.62377625767408
 20
44.10023596034229
 30
0.0
 11
69.19286538521892
 21
44.34838102832729
 31
0.0
  0
LINE
  5
25C
330
6C
100
AcDbEntity
  8
Visible (ANSI)
100
AcDbLine
 10
74.7346754212759
 20
46.63621133246694
 30
0.0
 11
70.33088303886062
 21
44.10023596034236
 31
0.0
  0
LINE
  5
25D
330
6C
100
AcDbEntity
  8
Visible (ANSI)
100
AcDbLine
 10
69.62377625767408
 20
44.20242935094761
 30
0.0
 11
69.19286538521892
 21
44.4505744189326
 31
0.0
  0
LINE
  5
25E
330
6C
100
AcDbEntity
  8
Visible (ANSI)
100
AcDbLine
 10
76.15348311786428
 20
40.44222125150412
 30
0.0
 11
75.72257224540914
 21
40.69036631948912
 31
0.0
  0
LINE
  5
25F
330
6C
100
AcDbEntity
  8
Visible (ANSI)
100
AcDbLine
 10
75.72257224540912
 20
40.5881729288838
 30
0.0
 11
76.15348311786428
 21
40.3400278608988
 31
0.0
  0
LINE
  5
260
330
6C
100
AcDbEntity
  8
Visible (ANSI)
100
AcDbLine
 10
80.05325878287436
 20
43.59143854918136
 30
0.0
 11
74.76592542127588
 21
46.63621133246695
 31
0.0
  0
LINE
  5
261
330
6C
100
AcDbEntity
  8
Visible (ANSI)
100
AcDbLine
 10
80.12636462782415
 20
43.65153308356195
 30
0.0
 11
74.7659254212759
 21
46.73840472307227
 31
0.0
  0
LINE
  5
262
330
6C
100
AcDbEntity
  8
Visible (ANSI)
100
AcDbLine
 10
74.73467542127588
 20
46.73840472307225
 30
0.0
 11
70.33088303886062
 21
44.20242935094768
 31
0.0
  0
LINE
  5
263
330
6C
100
AcDbEntity
  8
Visible (ANSI)
100
AcDbLine
 10
75.722572245409
 20
41.09756203328145
 30
0.0
 11
80.12636462782415
 21
43.63353740540613
 31
0.0
  0
ELLIPSE
  5
264
330
6C
100
AcDbEntity
  8
Visible (ANSI)
100
AcDbEllipse
 10
74.75030042127565
 20
47.53594128615969
 30
0.0
 11
0.1405999999999996
 21
0.0
 31
0.0
210
0.0
220
0.0
230
1.0
 40
0.5758617009853119
 41
1.45943543273781
 42
1.682157220851882
  0
LINE
  5
265
330
6C
100
AcDbEntity
  8
Visible Narrow (ANSI)
100
AcDbLine
 10
81.81033736735567
 20
38.79494790382261
 30
0.0
 11
81.81033736735567
 21
43.47033640137212
 31
0.0
  0
LINE
  5
266
330
6C
100
AcDbEntity
  8
Visible Narrow (ANSI)
100
AcDbLine
 10
74.76133128706216
 20
47.54229353929486
 30
0.0
 11
74.76133128706216
 21
42.86690504174534
 31
0.0
  0
LINE
  5
267
330
6C
100
AcDbEntity
  8
Visible Narrow (ANSI)
100
AcDbLine
 10
74.73926955548915
 20
42.86690504174534
 30
0.0
 11
74.73926955548915
 21
47.54229353929486
 31
0.0
  0
LINE
  5
268
330
6C
100
AcDbEntity
  8
Visible (ANSI)
100
AcDbLine
 10
81.85151815392082
 20
43.52758811873131
 30
0.0
 11
81.85151815392083
 21
38.8521996211818
 31
0.0
  0
LINE
  5
269
330
6C
100
AcDbEntity
  8
Visible (ANSI)
100
AcDbLine
 10
70.33088303886062
 20
44.20242935094768
 30
0.0
 11
69.62377625767408
 21
44.20242935094761
 31
0.0
  0
LINE
  5
26A
330
6C
100
AcDbEntity
  8
Visible (ANSI)
100
AcDbLine
 10
69.62377625767408
 20
44.20242935094761
 30
0.0
 11
69.62377625767408
 21
44.10023596034229
 31
0.0
  0
LINE
  5
26B
330
6C
100
AcDbEntity
  8
Visible (ANSI)
100
AcDbLine
 10
69.62377625767408
 20
44.10023596034229
 30
0.0
 11
70.33088303886062
 21
44.10023596034236
 31
0.0
  0
LINE
  5
26C
330
6C
100
AcDbEntity
  8
Visible (ANSI)
100
AcDbLine
 10
70.33088303886062
 20
44.10023596034236
 30
0.0
 11
70.33088303886062
 21
44.20242935094768
 31
0.0
  0
LINE
  5
26D
330
6C
100
AcDbEntity
  8
Visible (ANSI)
100
AcDbLine
 10
75.72257224540914
 20
40.69036631948912
 30
0.0
 11
75.722572245409
 21
41.09756203328145
 31
0.0
  0
LINE
  5
26E
330
6C
100
AcDbEntity
  8
Visible (ANSI)
100
AcDbLine
 10
75.72257224540912
 20
40.5881729288838
 30
0.0
 11
75.72257224540914
 21
40.69036631948912
 31
0.0
  0
ELLIPSE
  5
26F
330
6C
100
AcDbEntity
  8
Visible (ANSI)
100
AcDbEllipse
 10
69.19286538521892
 20
44.33562729317975
 30
0.0
 11
-0.007784902500717
 21
0.0135187016038653
 31
0.0
210
0.0
220
0.0
230
1.0
 40
0.5780931159158107
 41
5.499720852205022
 42
7.070517178999436
  0
ELLIPSE
  5
270
330
6C
100
AcDbEntity
  8
Visible (ANSI)
100
AcDbEllipse
 10
69.19286538521892
 20
44.33562729317975
 30
0.0
 11
-0.0701639289487675
 21
0.1218416311220118
 31
0.0
210
0.0
220
0.0
230
1.0
 40
0.5780931159158106
 41
5.499720852205022
 42
7.070517178999916
  0
ELLIPSE
  5
271
330
6C
100
AcDbEntity
  8
Visible (ANSI)
100
AcDbEllipse
 10
76.15348311786428
 20
40.32727412575126
 30
0.0
 11
-0.0701639289487775
 21
0.1218416311220035
 31
0.0
210
0.0
220
0.0
230
1.0
 40
0.5780931159158361
 41
3.928924525409893
 42
5.499720852204695
  0
ELLIPSE
  5
272
330
6C
100
AcDbEntity
  8
Visible (ANSI)
100
AcDbEllipse
 10
76.1534831178643
 20
40.32727412575126
 30
0.0
 11
0.0077849025007138
 21
-0.0135187016038615
 31
0.0
210
0.0
220
0.0
230
1.0
 40
0.5780931159158108
 41
0.7873318718205696
 42
2.358128198615402
  0
LINE
  5
273
330
6C
100
AcDbEntity
  8
Visible Narrow (ANSI)
100
AcDbLine
 10
81.69529315392082
 20
43.65153308356207
 30
0.0
 11
74.76592542127566
 21
47.64189057283465
 31
0.0
  0
LINE
  5
274
330
6C
100
AcDbEntity
  8
Visible Narrow (ANSI)
100
AcDbLine
 10
74.76592542127569
 20
47.53964795335209
 30
0.0
 11
74.76133128706216
 21
47.54229353929486
 31
0.0
  0
LINE
  5
275
330
6C
100
AcDbEntity
  8
Visible Narrow (ANSI)
100
AcDbLine
 10
74.73467542127567
 20
47.64189057283465
 30
0.0
 11
69.19286538521892
 21
44.4505744189326
 31
0.0
  0
LINE
  5
276
330
6C
100
AcDbEntity
  8
Visible Narrow (ANSI)
100
AcDbLine
 10
74.73926955548915
 20
47.54229353929486
 30
0.0
 11
74.73467542127569
 21
47.53964795335213
 31
0.0
  0
LINE
  5
277
330
6C
100
AcDbEntity
  8
Visible Narrow (ANSI)
100
AcDbLine
 10
69.19290812888215
 20
44.34835641388867
 30
0.0
 11
69.18183451943241
 21
44.3419795463149
 31
0.0
  0
LINE
  5
278
330
6C
100
AcDbEntity
  8
Visible Narrow (ANSI)
100
AcDbLine
 10
76.15348311786428
 20
40.44222125150412
 30
0.0
 11
81.69529315392082
 21
43.63353740540627
 31
0.0
  0
LINE
  5
279
330
6C
100
AcDbEntity
  8
Visible Narrow (ANSI)
100
AcDbLine
 10
81.81033736735567
 20
43.47033640137212
 30
0.0
 11
76.25290233129913
 21
40.27002240839206
 31
0.0
  0
LINE
  5
27A
330
6C
100
AcDbEntity
  8
Visible (ANSI)
100
AcDbLine
 10
74.82829608517779
 20
47.6532729210698
 30
0.0
 11
81.77325034791619
 21
43.65393974606526
 31
0.0
  0
LINE
  5
27B
330
6C
100
AcDbEntity
  8
Visible (ANSI)
100
AcDbLine
 10
69.12270145627016
 20
44.45746892430175
 30
0.0
 11
74.67230475737352
 21
47.65327292106978
 31
0.0
  0
SPLINE
  5
27C
330
6C
100
AcDbEntity
  8
Visible (ANSI)
100
AcDbSpline
210
0.0
220
0.0
230
1.0
 70
     8
 71
     3
 72
    11
 73
     7
 74
     0
 42
0.0000000001
 43
0.0000000001
 40
0.0
 40
0.0
 40
0.0
 40
0.0
 40
1.018582815488549
 40
1.018582815488549
 40
1.018582815488549
 40
1.570796326794887
 40
1.570796326794887
 40
1.570796326794887
 40
1.570796326794887
 10
81.81033736735564
 20
43.58483983609052
 30
0.0
 10
81.80696002381328
 20
43.62581244121486
 30
0.0
 10
81.78505442804912
 20
43.65544901333247
 30
0.0
 10
81.75293876028861
 20
43.66131748601004
 30
0.0
 10
81.73552760295088
 20
43.66449901416268
 30
0.0
 10
81.71542435469252
 20
43.66101707729031
 30
0.0
 10
81.69529315392081
 20
43.65153308356207
 30
0.0
  0
SPLINE
  5
27D
330
6C
100
AcDbEntity
  8
Visible (ANSI)
100
AcDbSpline
210
0.0
220
0.0
230
1.0
 70
     8
 71
     3
 72
     8
 73
     4
 74
     0
 42
0.0000000001
 43
0.0000000001
 40
0.0
 40
0.0
 40
0.0
 40
0.0
 40
0.7834644549743837
 40
0.7834644549743837
 40
0.7834644549743837
 40
0.7834644549743837
 10
74.76592542127566
 20
47.64189057283465
 30
0.0
 10
74.78929147288268
 20
47.65833808230238
 30
0.0
 10
74.81231656532134
 20
47.66191540839994
 30
0.0
 10
74.82822226435506
 20
47.65309559075441
 30
0.0
  0
LINE
  5
27E
330
6C
100
AcDbEntity
  8
Visible (ANSI)
100
AcDbLine
 10
74.7659254212759
 20
46.73840472307227
 30
0.0
 11
74.76592542127566
 21
47.64189057283465
 31
0.0
  0
LINE
  5
27F
330
6C
100
AcDbEntity
  8
Visible (ANSI)
100
AcDbLine
 10
74.76592542127588
 20
46.63621133246695
 30
0.0
 11
74.7659254212759
 21
46.73840472307227
 31
0.0
  0
SPLINE
  5
280
330
6C
100
AcDbEntity
  8
Visible (ANSI)
100
AcDbSpline
210
0.0
220
0.0
230
1.0
 70
     8
 71
     3
 72
     8
 73
     4
 74
     0
 42
0.0000000001
 43
0.0000000001
 40
0.0
 40
0.0
 40
0.0
 40
0.0
 40
0.7912825099110796
 40
0.7912825099110796
 40
0.7912825099110796
 40
0.7912825099110796
 10
74.76133128706216
 20
47.54229353929486
 30
0.0
 10
74.76395496462121
 20
47.54414659972563
 30
0.0
 10
74.76524510279053
 20
47.54507897623977
 30
0.0
 10
74.76580691436197
 20
47.54473944900779
 30
0.0
  0
LINE
  5
281
330
6C
100
AcDbEntity
  8
Visible (ANSI)
100
AcDbLine
 10
81.69529315392082
 20
43.63353740540627
 30
0.0
 11
81.69529315392082
 21
43.65153308356207
 31
0.0
  0
SPLINE
  5
282
330
6C
100
AcDbEntity
  8
Visible (ANSI)
100
AcDbSpline
210
0.0
220
0.0
230
1.0
 70
    24
 71
     3
 72
     8
 73
     4
 74
     0
 42
0.0000000001
 43
0.0000000001
 40
-0.3175000000000002
 40
-0.3175000000000002
 40
-0.3175000000000002
 40
-0.3175000000000002
 40
-0.1853944325780643
 40
-0.1853944325780643
 40
-0.1853944325780643
 40
-0.1853944325780643
 10
81.81033736735564
 20
43.58483983609052
 30
0.0
 10
81.79807847725635
 20
43.57778041078575
 30
0.0
 10
81.78581958715708
 20
43.57072098548099
 30
0.0
 10
81.77356069705778
 20
43.56366156017622
 30
0.0
  0
LINE
  5
283
330
6C
100
AcDbEntity
  8
Visible (ANSI)
100
AcDbLine
 10
81.69529315392082
 20
43.65153308356207
 30
0.0
 11
80.12636462782415
 21
43.65153308356195
 31
0.0
  0
LINE
  5
284
330
6C
100
AcDbEntity
  8
Visible (ANSI)
100
AcDbLine
 10
80.12636462782415
 20
43.63353740540613
 30
0.0
 11
80.12636462782415
 21
43.65153308356195
 31
0.0
  0
SPLINE
  5
285
330
6C
100
AcDbEntity
  8
Visible (ANSI)
100
AcDbSpline
210
0.0
220
0.0
230
1.0
 70
     8
 71
     3
 72
    11
 73
     7
 74
     0
 42
0.0000000001
 43
0.0000000001
 40
0.7873318718202783
 40
0.7873318718202783
 40
0.7873318718202783
 40
0.7873318718202783
 40
1.018582815488558
 40
1.018582815488558
 40
1.018582815488558
 40
1.570796326794905
 40
1.570796326794905
 40
1.570796326794905
 40
1.570796326794905
 10
74.67241861720165
 20
47.65312387064359
 30
0.0
 10
74.67702650620855
 20
47.65587780455667
 30
0.0
 10
74.6822579982464
 20
47.65755212673222
 30
0.0
 10
74.68801575365367
 20
47.6580013566557
 30
0.0
 10
74.70176493140947
 20
47.65907409101732
 30
0.0
 10
74.71820620008592
 20
47.6534833603539
 30
0.0
 10
74.73467542127567
 20
47.64189057283465
 30
0.0
  0
SPLINE
  5
286
330
6C
100
AcDbEntity
  8
Visible (ANSI)
100
AcDbSpline
210
0.0
220
0.0
230
1.0
 70
     8
 71
     3
 72
     8
 73
     4
 74
     0
 42
0.0000000001
 43
0.0000000001
 40
0.0
 40
0.0
 40
0.0
 40
0.0
 40
0.7912825098841894
 40
0.7912825098841894
 40
0.7912825098841894
 40
0.7912825098841894
 10
74.73926955548915
 20
47.54229353929485
 30
0.0
 10
74.73664587793019
 20
47.54414659972556
 30
0.0
 10
74.73535573976086
 20
47.5450789762397
 30
0.0
 10
74.73479392818939
 20
47.54473944900782
 30
0.0
  0
LINE
  5
287
330
6C
100
AcDbEntity
  8
Visible (ANSI)
100
AcDbLine
 10
74.73467542127567
 20
47.64189057283465
 30
0.0
 11
74.73467542127588
 21
46.73840472307225
 31
0.0
  0
LINE
  5
288
330
6C
100
AcDbEntity
  8
Visible (ANSI)
100
AcDbLine
 10
74.7346754212759
 20
46.63621133246694
 30
0.0
 11
74.73467542127588
 21
46.73840472307225
 31
0.0
  0
SPLINE
  5
289
330
6C
100
AcDbEntity
  8
Visible (ANSI)
100
AcDbSpline
210
0.0
220
0.0
230
1.0
 70
     8
 71
     3
 72
    11
 73
     7
 74
     0
 42
0.0000000001
 43
0.0000000001
 40
0.0
 40
0.0
 40
0.0
 40
0.0
 40
1.018582815488485
 40
1.018582815488485
 40
1.018582815488485
 40
1.570796326794904
 40
1.570796326794904
 40
1.570796326794904
 40
1.570796326794904
 10
81.69529315392082
 20
43.63353740540627
 30
0.0
 10
81.7324260649079
 20
43.61604374971697
 30
0.0
 10
81.76898266548089
 20
43.57745985900426
 30
0.0
 10
81.79006726896508
 20
43.53598095418457
 30
0.0
 10
81.801498055689
 20
43.51349362048199
 30
0.0
 10
81.80850637756469
 20
43.49044045645213
 30
0.0
 10
81.81033736735567
 20
43.47033640137212
 30
0.0
  0
LINE
  5
28A
330
6C
100
AcDbEntity
  8
Visible (ANSI)
100
AcDbLine
 10
80.12636462782415
 20
43.63353740540613
 30
0.0
 11
81.69529315392082
 21
43.63353740540627
 31
0.0
  0
SPLINE
  5
28B
330
6C
100
AcDbEntity
  8
Visible (ANSI)
100
AcDbSpline
210
0.0
220
0.0
230
1.0
 70
     8
 71
     3
 72
    10
 73
     6
 74
     0
 42
0.0000000001
 43
0.0000000001
 40
0.0
 40
0.0
 40
0.0
 40
0.0
 40
0.0122589744718912
 40
0.0122589744718912
 40
0.0152467785195206
 40
0.0152467785195206
 40
0.0152467785195206
 40
0.0152467785195206
 10
74.76244813974735
 20
47.54308905306777
 30
0.0
 10
74.76358837186658
 20
47.5439050217248
 30
0.0
 10
74.76458124212772
 20
47.54475159154011
 30
0.0
 10
74.76556976312138
 20
47.54569896253255
 30
0.0
 10
74.76575294886763
 20
47.54588066174451
 30
0.0
 10
74.76592542127569
 20
47.54605695906157
 30
0.0
  0
SPLINE
  5
28C
330
6C
100
AcDbEntity
  8
Visible (ANSI)
100
AcDbSpline
210
0.0
220
0.0
230
1.0
 70
     8
 71
     3
 72
    10
 73
     6
 74
     0
 42
0.0000000001
 43
0.0000000001
 40
0.0668604181198094
 40
0.0668604181198094
 40
0.0668604181198094
 40
0.0668604181198094
 40
0.0723508068919026
 40
0.0723508068919026
 40
0.0821221175208097
 40
0.0821221175208097
 40
0.0821221175208097
 40
0.0821221175208097
 10
74.73467542127569
 20
47.54605719924856
 30
0.0
 10
74.73499316392231
 20
47.54573254853224
 30
0.0
 10
74.73534755781618
 20
47.54538904693243
 30
0.0
 10
74.73642936822283
 20
47.5444080026553
 30
0.0
 10
74.73724385335235
 20
47.54373944052306
 30
0.0
 10
74.73815270280394
 20
47.54308905306777
 30
0.0
  0
ELLIPSE
  5
28D
330
6C
100
AcDbEntity
  8
Visible (ANSI)
100
AcDbEllipse
 10
75.67837807158387
 20
39.47608365099153
 30
0.0
 11
0.28125
 21
-0.0000000000000169
 31
0.0
210
0.0
220
0.0
230
1.0
 40
0.5758617009853113
 41
0.0
 42
6.283185307179586
  0
ELLIPSE
  5
28E
330
6C
100
AcDbEntity
  8
Visible (ANSI)
100
AcDbEllipse
 10
75.67837807158387
 20
39.3738902603862
 30
0.0
 11
0.2812499999999999
 21
-0.0000000000000001
 31
0.0
210
0.0
220
0.0
230
1.0
 40
0.5758617009853112
 41
0.3209702928256437
 42
2.82062236076415
  0
ELLIPSE
  5
28F
330
6C
100
AcDbEntity
  8
Visible (ANSI)
100
AcDbEllipse
 10
71.47993155828874
 20
39.34854365464774
 30
0.0
 11
0.28125
 21
-0.0000000000000168
 31
0.0
210
0.0
220
0.0
230
1.0
 40
0.5758617009853114
 41
0.0
 42
6.283185307179586
  0
ELLIPSE
  5
290
330
6C
100
AcDbEntity
  8
Visible (ANSI)
100
AcDbEllipse
 10
71.47993155828874
 20
39.24635026404243
 30
0.0
 11
0.2812500000000002
 21
0.0
 31
0.0
210
0.0
220
0.0
230
1.0
 40
0.5758617009853113
 41
0.3209702928256433
 42
2.82062236076415
  0
ELLIPSE
  5
291
330
6C
100
AcDbEntity
  8
Visible (ANSI)
100
AcDbEllipse
 10
75.63418389776032
 20
36.95626883611814
 30
0.0
 11
0.28125
 21
-0.0000000000000168
 31
0.0
210
0.0
220
0.0
230
1.0
 40
0.5758617009853114
 41
0.0
 42
6.283185307179586
  0
ELLIPSE
  5
292
330
6C
100
AcDbEntity
  8
Visible (ANSI)
100
AcDbEllipse
 10
75.63418389776032
 20
36.85407544551282
 30
0.0
 11
0.2812499999999995
 21
0.0
 31
0.0
210
0.0
220
0.0
230
1.0
 40
0.5758617009853113
 41
0.3209702928256438
 42
2.82062236076415
  0
ELLIPSE
  5
293
330
6C
100
AcDbEntity
  8
Visible (ANSI)
100
AcDbEllipse
 10
76.25290233129883
 20
35.88738008741331
 30
0.0
 11
-0.1249999999999982
 21
0.0000000000000075
 31
0.0
210
0.0
220
0.0
230
1.0
 40
0.5758617009853114
 41
0.7853981633977903
 42
2.356194490192644
  0
LINE
  5
294
330
6C
100
AcDbEntity
  8
Visible Narrow (ANSI)
100
AcDbLine
 10
76.16451398365054
 20
35.83648062318926
 30
0.0
 11
76.16451398365054
 21
35.73428723258395
 31
0.0
  0
ELLIPSE
  5
295
330
6C
100
AcDbEntity
  8
Visible (ANSI)
100
AcDbEllipse
 10
76.25290233129883
 20
35.785186696808
 30
0.0
 11
0.1249999999999988
 21
0.0000000000000074
 31
0.0
210
0.0
220
0.0
230
1.0
 40
0.5758617009853115
 41
3.926990816987236
 42
5.49778714378209
  0
LINE
  5
296
330
6C
100
AcDbEntity
  8
Visible Narrow (ANSI)
100
AcDbLine
 10
76.34129067894716
 20
35.73428723258396
 30
0.0
 11
76.34129067894716
 21
35.83648062318928
 31
0.0
  0
ELLIPSE
  5
297
330
6C
100
AcDbEntity
  8
Visible (ANSI)
100
AcDbEllipse
 10
69.62377625767397
 20
39.60264651361056
 30
0.0
 11
-0.1249999999999999
 21
0.0000000000000001
 31
0.0
210
0.0
220
0.0
230
1.0
 40
0.5758617009853114
 41
0.0000000000000048
 42
0.7853981633976202
  0
ELLIPSE
  5
298
330
6C
100
AcDbEntity
  8
Visible (ANSI)
100
AcDbEllipse
 10
69.62377625767397
 20
39.70483990421588
 30
0.0
 11
-0.125
 21
0.0
 31
0.0
210
0.0
220
0.0
230
1.0
 40
0.5758617009853115
 41
5.497787143782264
 42
7.068583470577204
  0
LINE
  5
299
330
6C
100
AcDbEntity
  8
Visible Narrow (ANSI)
100
AcDbLine
 10
69.53538791002566
 20
39.55174704938651
 30
0.0
 11
69.53538791002566
 21
39.65394043999183
 31
0.0
  0
ELLIPSE
  5
29A
330
6C
100
AcDbEntity
  8
Visible (ANSI)
100
AcDbEllipse
 10
74.83875747389736
 20
42.81003812222902
 30
0.0
 11
0.1249999999999988
 21
-0.0000000000000074
 31
0.0
210
0.0
220
0.0
230
1.0
 40
0.5758617009853113
 41
0.8248293379544371
 42
2.356194490192644
  0
LINE
  5
29B
330
6C
100
AcDbEntity
  8
Visible (ANSI)
100
AcDbLine
 10
69.49877625767396
 20
39.60264651361056
 30
0.0
 11
69.49877625767396
 21
39.70483990421588
 31
0.0
  0
LINE
  5
29C
330
6C
100
AcDbEntity
  8
Visible (ANSI)
100
AcDbLine
 10
76.34129067894716
 20
35.73428723258396
 30
0.0
 11
77.33637488021074
 21
36.30731811334738
 31
0.0
  0
LINE
  5
29D
330
6C
100
AcDbEntity
  8
Visible (ANSI)
100
AcDbLine
 10
77.33637488021074
 20
36.40951150395269
 30
0.0
 11
76.34129067894716
 21
35.83648062318928
 31
0.0
  0
LINE
  5
29E
330
6C
100
AcDbEntity
  8
Visible (ANSI)
100
AcDbLine
 10
69.53538791002566
 20
39.55174704938651
 30
0.0
 11
76.16451398365054
 21
35.73428723258395
 31
0.0
  0
LINE
  5
29F
330
6C
100
AcDbEntity
  8
Visible (ANSI)
100
AcDbLine
 10
69.53538791002563
 20
39.75573936843991
 30
0.0
 11
70.53047211128919
 21
40.32877024920332
 31
0.0
  0
LINE
  5
2A0
330
6C
100
AcDbEntity
  8
Visible (ANSI)
100
AcDbLine
 10
76.16451398365054
 20
35.83648062318926
 30
0.0
 11
69.53538791002566
 21
39.65394043999183
 31
0.0
  0
ELLIPSE
  5
2A1
330
6C
100
AcDbEntity
  8
Visible (ANSI)
100
AcDbEllipse
 10
77.33637488021074
 20
36.42226523910024
 30
0.0
 11
0.0701639289487284
 21
0.1218416311220331
 31
0.0
210
0.0
220
0.0
230
1.0
 40
0.5780931159156392
 41
3.925057108564035
 42
4.710455271961548
  0
ELLIPSE
  5
2A2
330
6C
100
AcDbEntity
  8
Visible (ANSI)
100
AcDbEllipse
 10
77.33637488021074
 20
36.42226523910024
 30
0.0
 11
0.0077849025007119
 21
0.0135187016038663
 31
0.0
210
0.0
220
0.0
230
0.9999999999999998
 40
0.5780931159156393
 41
3.925057108564035
 42
4.710455271961595
  0
ELLIPSE
  5
2A3
330
6C
100
AcDbEntity
  8
Visible (ANSI)
100
AcDbEllipse
 10
70.53047211128919
 20
40.34152398435086
 30
0.0
 11
0.0077849025007126
 21
0.0135187016038675
 31
0.0
210
0.0
220
0.0
230
1.0
 40
0.578093115915639
 41
3.925057108564036
 42
4.710455271961595
  0
LINE
  5
2A4
330
6C
100
AcDbEntity
  8
Visible Narrow (ANSI)
100
AcDbLine
 10
77.34417488021072
 20
36.41773870775963
 30
0.0
 11
70.5382721112892
 21
40.33699745301027
 31
0.0
  0
LINE
  5
2A5
330
6C
100
AcDbEntity
  8
Visible Narrow (ANSI)
100
AcDbLine
 10
77.33637488021074
 20
36.40951150395269
 30
0.0
 11
70.53047211128919
 21
40.32877024920332
 31
0.0
  0
LINE
  5
2A6
330
6C
100
AcDbEntity
  8
Visible (ANSI)
100
AcDbLine
 10
77.46262395334106
 20
36.47837490104019
 30
0.0
 11
77.40667488021073
 21
36.38146842458176
 31
0.0
  0
LINE
  5
2A7
330
6C
100
AcDbEntity
  8
Visible (ANSI)
100
AcDbLine
 10
77.34417488021072
 20
36.41773870775963
 30
0.0
 11
77.40012395334106
 21
36.51464518421807
 31
0.0
  0
LINE
  5
2A8
330
6C
100
AcDbEntity
  8
Visible (ANSI)
100
AcDbLine
 10
70.59422118441954
 20
40.43390392946871
 30
0.0
 11
70.5382721112892
 21
40.33699745301027
 31
0.0
  0
ELLIPSE
  5
2A9
330
6C
100
AcDbEntity
  8
Visible (ANSI)
100
AcDbEllipse
 10
77.47042395334105
 20
36.47384836969959
 30
0.0
 11
0.0077849025007128
 21
0.013518701603866
 31
0.0
210
0.0
220
0.0
230
1.0
 40
0.578093115915639
 41
0.7834644549756824
 42
1.568862618371836
  0
ELLIPSE
  5
2AA
330
6C
100
AcDbEntity
  8
Visible (ANSI)
100
AcDbEllipse
 10
77.47042395334105
 20
36.47384836969959
 30
0.0
 11
0.0701639289487356
 21
0.1218416311220288
 31
0.0
210
0.0
220
0.0
230
1.0
 40
0.5780931159156392
 41
0.7834644549746966
 42
1.568862618371875
  0
ELLIPSE
  5
2AB
330
6C
100
AcDbEntity
  8
Visible (ANSI)
100
AcDbEllipse
 10
70.66452118441953
 20
40.39310711495022
 30
0.0
 11
0.0701639289487364
 21
0.1218416311220301
 31
0.0
210
0.0
220
0.0
230
1.0
 40
0.5780931159156431
 41
0.7834644549744106
 42
1.568862618371875
  0
LINE
  5
2AC
330
6C
100
AcDbEntity
  8
Visible Narrow (ANSI)
100
AcDbLine
 10
77.47042395334102
 20
36.58879549545244
 30
0.0
 11
70.66452118441953
 21
40.50805424070308
 31
0.0
  0
LINE
  5
2AD
330
6C
100
AcDbEntity
  8
Visible Narrow (ANSI)
100
AcDbLine
 10
77.40012395334106
 20
36.51464518421807
 30
0.0
 11
70.59422118441954
 21
40.43390392946871
 31
0.0
  0
LINE
  5
2AE
330
6C
100
AcDbEntity
  8
Visible (ANSI)
100
AcDbLine
 10
77.51850447880844
 20
36.51428983802705
 30
0.0
 11
77.47042395334102
 21
36.48660210484712
 31
0.0
  0
LINE
  5
2AF
330
6C
100
AcDbEntity
  8
Visible (ANSI)
100
AcDbLine
 10
77.47042395334102
 20
36.58879549545244
 30
0.0
 11
77.48833471820212
 21
36.59910961897129
 31
0.0
  0
LINE
  5
2B0
330
6C
100
AcDbEntity
  8
Visible (ANSI)
100
AcDbLine
 10
74.75036912624902
 20
42.86093758645305
 30
0.0
 11
70.66452118441953
 21
40.50805424070308
 31
0.0
  0
LINE
  5
2B1
330
6C
100
AcDbEntity
  8
Visible Narrow (ANSI)
100
AcDbLine
 10
74.92359276329345
 20
42.86290452749621
 30
0.0
 11
76.85586588896796
 21
41.75018243857741
 31
0.0
  0
DIMENSION
  5
2B2
330
6C
100
AcDbEntity
  8
Dimension (ANSI)
100
AcDbDimension
  2
*D4
 10
28.83246376340796
 20
27.3697610996207
 30
0.0
 11
28.83246376340796
 21
30.36969802902155
 31
0.0
 70
   160
  1
<>{\PHEIGHT}
 71
     5
 42
5.999873858801773
  3
Default (ANSI)
100
AcDbAlignedDimension
 13
32.14078069254186
 23
33.36963495842248
 33
0.0
 14
32.37518069254183
 24
27.3697610996207
 34
0.0
 50
90.0
100
AcDbRotatedDimension
1001
ACAD
1000
DSTYLE
1002
{
1070
   289
1070
     1
1070
   271
1070
     2
1070
   272
1070
     2
1070
    48
1040
0.0
1070
    47
1040
0.0
1002
}
  0
DIMENSION
  5
3B3
330
6C
100
AcDbEntity
  8
Dimension (ANSI)
100
AcDbDimension
  2
*D5
 10
42.12518069254214
 20
35.19753889543036
 30
0.0
 11
37.062680692542
 21
35.19753889543036
 31
0.0
 70
   160
  1
<>{\PWIDTH}
 71
     5
 42
10.12500000000026
  3
Default (ANSI)
100
AcDbAlignedDimension
 13
32.00018069254188
 23
33.22903495842248
 33
0.0
 14
42.12518069254214
 24
33.22903495842248
 34
0.0
100
AcDbRotatedDimension
1001
ACAD
1000
DSTYLE
1002
{
1070
   289
1070
     1
1070
    73
1070
     0
1070
    74
1070
     0
1070
   271
1070
     2
1070
   272
1070
     2
1070
    48
1040
0.0
1070
    47
1040
0.0
1002
}
  0
DIMENSION
  5
4B1
330
6C
100
AcDbEntity
  8
Dimension (ANSI)
100
AcDbDimension
  2
*D6
 10
18.90171738682118
 20
36.41899017959342
 30
0.0
 11
14.90171738682119
 21
36.41899017959342
 31
0.0
 70
   160
  1
<>
 42
7.999999999999998
  3
Default (ANSI)
100
AcDbAlignedDimension
 13
10.90171738682119
 23
33.22903495842248
 33
0.0
 14
18.90171738682118
 24
33.36963495842248
 34
0.0
100
AcDbRotatedDimension
1001
ACAD
1000
DSTYLE
1002
{
1070
   289
1070
     1
1070
    73
1070
     0
1070
    74
1070
     0
1070
   271
1070
     2
1070
   272
1070
     2
1070
    48
1040
0.0
1070
    47
1040
0.0
1002
}
  0
DIMENSION
  5
59B
330
6C
100
AcDbEntity
  8
Dimension (ANSI)
100
AcDbDimension
  2
*D7
 10
21.39226641588335
 20
36.02922316995478
 30
0.0
 11
21.89101512107544
 21
35.46444142598377
 31
0.0
 70
   165
  1
<>
 42
1.241864438925105
  3
Default (ANSI)
100
AcDb3PointAngularDimension
 13
19.26220864872508
 23
33.36963495842248
 33
0.0
 14
19.05065626261252
 24
33.66538118282853
 34
0.0
 15
18.94970864872508
 25
33.36963495842248
 35
0.0
1001
ACAD_DSTYLE_DIMANGULAR_EXTENSION
1070
   387
1070
     1
1001
ACAD
1000
DSTYLE
1002
{
1070
   179
1070
     0
1070
   272
1070
     0
1070
    48
1040
0.0
1070
    47
1040
0.0
1002
}
  0
DIMENSION
  5
6BF
330
6C
100
AcDbEntity
  8
Dimension (ANSI)
100
AcDbDimension
  2
*D8
 10
42.12518069254487
 20
42.22718597175494
 30
0.0
 11
45.21634513504277
 21
42.22718597175494
 31
0.0
 70
   160
  1
<>{\P(2 PL.)}
 71
     5
 42
1.25
  3
Default (ANSI)
100
AcDbAlignedDimension
 13
40.87518069254487
 23
42.43872649601616
 33
0.0
 14
42.12518069254487
 24
42.38102941471695
 34
0.0
100
AcDbRotatedDimension
1001
ACAD
1000
DSTYLE
1002
{
1070
   289
1070
     1
1070
    73
1070
     0
1070
    74
1070
     0
1070
   271
1070
     2
1070
    76
1070
     1
1070
    75
1070
     1
1070
   272
1070
     2
1070
    48
1040
0.0
1070
    47
1040
0.0
1002
}
  0
DIMENSION
  5
7AE
330
6C
100
AcDbEntity
  8
Dimension (ANSI)
100
AcDbDimension
  2
*D9
 10
35.17078051861775
 20
39.84625543906589
 30
0.0
 11
35.17078051861775
 21
40.47125543906587
 31
0.0
 70
   160
  1
<>
 42
1.249999999999957
  3
Default (ANSI)
100
AcDbAlignedDimension
 13
34.82864645433315
 23
41.09625543906584
 33
0.0
 14
34.95672603262578
 24
39.84625543906589
 34
0.0
 50
270.0
100
AcDbRotatedDimension
1001
ACAD
1000
DSTYLE
1002
{
1070
   289
1070
     1
1070
   271
1070
     2
1070
    76
1070
     1
1070
    75
1070
     1
1070
   272
1070
     2
1070
    48
1040
0.0
1070
    47
1040
0.0
1002
}
  0
LINE
  5
897
330
6C
100
AcDbEntity
  8
Center Mark (ANSI)
  6
CHAIN
 48
0.2012779265642166
100
AcDbLine
 10
32.68768069253868
 20
13.24773372117152
 30
0.0
 11
32.68768069253868
 21
11.43523372117152
 31
0.0
  0
LINE
  5
898
330
6C
100
AcDbEntity
  8
Center Mark (ANSI)
  6
CHAIN
 48
0.2012779265642166
100
AcDbLine
 10
32.68768069253868
 20
18.24773372117151
 30
0.0
 11
32.68768069253868
 21
16.43523372117152
 31
0.0
  0
LINE
  5
899
330
6C
100
AcDbEntity
  8
Centerline (ANSI)
  6
CHAIN
 48
0.9524481296539306
100
AcDbLine
 10
32.68768069253868
 20
11.43523372117152
 30
0.0
 11
32.68768069253868
 21
18.24773372117151
 31
0.0
  0
LINE
  5
89A
330
6C
100
AcDbEntity
  8
Center Mark (ANSI)
  6
CHAIN
 48
0.2012779265642166
100
AcDbLine
 10
34.25018069253869
 20
19.56023372117153
 30
0.0
 11
34.25018069253869
 21
17.74773372117152
 31
0.0
  0
LINE
  5
89B
330
6C
100
AcDbEntity
  8
Center Mark (ANSI)
  6
CHAIN
 48
0.2012779265642166
100
AcDbLine
 10
39.87518069253871
 20
19.56023372117153
 30
0.0
 11
39.87518069253871
 21
17.74773372117153
 31
0.0
  0
LINE
  5
89C
330
6C
100
AcDbEntity
  8
Centerline (ANSI)
  6
CHAIN
 48
0.9524481296539306
100
AcDbLine
 10
33.34393069253869
 20
18.65398372117152
 30
0.0
 11
40.7814306925387
 21
18.65398372117153
 31
0.0
  0
LINE
  5
89D
330
6C
100
AcDbEntity
  8
Center Mark (ANSI)
  6
CHAIN
 48
0.2012779265642166
100
AcDbLine
 10
41.43768069253875
 20
18.2477337211715
 30
0.0
 11
41.43768069253875
 21
16.4352337211715
 31
0.0
  0
LINE
  5
89E
330
6C
100
AcDbEntity
  8
Center Mark (ANSI)
  6
CHAIN
 48
0.2012779265642166
100
AcDbLine
 10
41.43768069253892
 20
13.2477337211715
 30
0.0
 11
41.43768069253892
 21
11.4352337211715
 31
0.0
  0
LINE
  5
89F
330
6C
100
AcDbEntity
  8
Centerline (ANSI)
  6
CHAIN
 48
0.9524481296539306
100
AcDbLine
 10
41.43768069253871
 20
18.2477337211715
 30
0.0
 11
41.43768069253895
 21
11.4352337211715
 31
0.0
  0
DIMENSION
  5
8A0
330
6C
100
AcDbEntity
  8
Dimension (ANSI)
100
AcDbDimension
  2
*D10
 10
30.06854834585743
 20
17.34148372117152
 30
0.0
 11
28.65703728453333
 21
16.4850571320933
 31
0.0
 70
   160
  1
<>
 42
1.999999999999957
  3
Default (ANSI)
100
AcDbAlignedDimension
 13
32.14078069253869
 23
19.34148372117148
 33
0.0
 14
31.78143069253869
 24
17.34148372117152
 34
0.0
 50
270.0
100
AcDbRotatedDimension
1001
ACAD
1000
DSTYLE
1002
{
1070
   289
1070
     2
1070
   271
1070
     2
1070
   272
1070
     2
1070
    48
1040
0.0
1070
    47
1040
0.0
1002
}
  0
DIMENSION
  5
998
330
6C
100
AcDbEntity
  8
Dimension (ANSI)
100
AcDbDimension
  2
*D11
 10
25.99476730671192
 20
12.34148372117152
 30
0.0
 11
25.99476730671192
 21
15.8414837211715
 31
0.0
 70
   160
  1
<>
 42
6.999999999999957
  3
Default (ANSI)
100
AcDbAlignedDimension
 13
32.14078069253869
 23
19.34148372117148
 33
0.0
 14
31.78143069253869
 24
12.34148372117152
 34
0.0
 50
270.0
100
AcDbRotatedDimension
1001
ACAD
1000
DSTYLE
1002
{
1070
   289
1070
     1
1070
   271
1070
     2
1070
   272
1070
     2
1070
    48
1040
0.0
1070
    47
1040
0.0
1002
}
  0
DIMENSION
  5
A82
330
6C
100
AcDbEntity
  8
Dimension (ANSI)
100
AcDbDimension
  2
*D12
 10
31.68381673378142
 20
18.65398372117153
 30
0.0
 11
33.08342303302334
 21
20.69003629450166
 31
0.0
 70
   160
  1
<>
 42
0.6874999999999503
  3
Default (ANSI)
100
AcDbAlignedDimension
 13
41.98458069253869
 23
19.34148372117148
 33
0.0
 14
40.7814306925387
 24
18.65398372117153
 34
0.0
 50
270.0
100
AcDbRotatedDimension
1001
ACAD
1000
DSTYLE
1002
{
1070
   289
1070
     1
1070
   271
1070
     2
1070
    76
1070
     1
1070
    75
1070
     1
1070
   272
1070
     2
1070
    48
1040
0.0
1070
    47
1040
0.0
1002
}
  0
DIMENSION
  5
B79
330
6C
100
AcDbEntity
  8
Dimension (ANSI)
100
AcDbDimension
  2
*D13
 10
39.87518069253871
 20
21.81086614485205
 30
0.0
 11
43.87867203061712
 21
21.81086614485205
 31
0.0
 70
   160
  1
<>
 42
2.249999999999978
  3
Default (ANSI)
100
AcDbAlignedDimension
 13
42.12518069253868
 23
19.20088372117148
 33
0.0
 14
39.87518069253871
 24
19.56023372117153
 34
0.0
 50
180.0
100
AcDbRotatedDimension
1001
ACAD
1000
DSTYLE
1002
{
1070
   289
1070
     2
1070
    73
1070
     0
1070
    74
1070
     0
1070
   271
1070
     2
1070
   272
1070
     2
1070
    48
1040
0.0
1070
    47
1040
0.0
1002
}
  0
DIMENSION
  5
C63
330
6C
100
AcDbEntity
  8
Dimension (ANSI)
100
AcDbDimension
  2
*D14
 10
34.25018069253869
 20
21.81086614485205
 30
0.0
 11
30.24668935446026
 21
21.81086614485205
 31
0.0
 70
   160
  1
<>
 42
2.25
  3
Default (ANSI)
100
AcDbAlignedDimension
 13
32.00018069253869
 23
19.20088372117148
 33
0.0
 14
34.25018069253869
 24
19.56023372117153
 34
0.0
100
AcDbRotatedDimension
1001
ACAD
1000
DSTYLE
1002
{
1070
   289
1070
     2
1070
    73
1070
     0
1070
    74
1070
     0
1070
   271
1070
     2
1070
   272
1070
     2
1070
    48
1040
0.0
1070
    47
1040
0.0
1002
}
  0
LINE
  5
D4D
330
6C
100
AcDbEntity
  8
Centerline (ANSI)
  6
CHAIN
 48
0.9524481296539306
100
AcDbLine
 10
31.78143069253869
 20
17.34148372117152
 30
0.0
 11
42.34393069253875
 21
17.34148372117149
 31
0.0
  0
LINE
  5
D4E
330
6C
100
AcDbEntity
  8
Centerline (ANSI)
  6
CHAIN
 48
0.9524481296539306
100
AcDbLine
 10
31.78143069253869
 20
12.34148372117152
 30
0.0
 11
42.34393069253892
 21
12.3414837211715
 31
0.0
  0
DIMENSION
  5
D4F
330
6C
100
AcDbEntity
  8
Dimension (ANSI)
100
AcDbDimension
  2
*D15
 10
32.68768069253868
 20
10.58818685917154
 30
0.0
 11
28.90901625004076
 21
10.58818685917154
 31
0.0
 70
   160
  1
<>{\P(2 PL.)}
 71
     5
 42
0.6875
  3
Default (ANSI)
100
AcDbAlignedDimension
 13
32.00018069253868
 23
11.34148372117148
 33
0.0
 14
32.68768069253868
 24
11.43523372117152
 34
0.0
100
AcDbRotatedDimension
1001
ACAD
1000
DSTYLE
1002
{
1070
   289
1070
     1
1070
    73
1070
     0
1070
    74
1070
     0
1070
   271
1070
     2
1070
   272
1070
     2
1070
    48
1040
0.0
1070
    47
1040
0.0
1002
}
  0
DIMENSION
  5
E4D
330
6C
100
AcDbEntity
  8
Dimension (ANSI)
100
AcDbDimension
  2
*D16
 10
41.26421983113323
 20
12.12009516667871
 30
0.0
 11
45.71813460965429
 21
15.04046909197161
 31
0.0
 70
   163
  1
<>{\P(6 PL.)}
 71
     5
 42
0.5625
  3
Default (ANSI)
100
AcDbDiametricDimension
 15
41.61114155394459
 25
12.56287227566429
 35
0.0
 40
0.0
1001
ACAD
1000
DSTYLE
1002
{
1070
   144
1040
0.9999999999999495
1070
   271
1070
     3
1070
   272
1070
     2
1070
    48
1040
0.0
1070
    47
1040
0.0
1002
}
1001
ACAD_DSTYLE_DIMRADIAL_EXTENSION
1070
   387
1070
     1
1070
   388
1040
0.0
1070
   390
1040
0.0
  0
LINE
  5
F07
330
6C
100
AcDbEntity
  8
Center Mark (ANSI)
  6
CHAIN
 48
0.2012779265642166
100
AcDbLine
 10
34.12518069254475
 20
47.50250543906584
 30
0.0
 11
34.12518069254475
 21
45.69000543906585
 31
0.0
  0
LINE
  5
F08
330
6C
100
AcDbEntity
  8
Center Mark (ANSI)
  6
CHAIN
 48
0.2012779265642166
100
AcDbLine
 10
40.00018069254475
 20
47.50250543906584
 30
0.0
 11
40.00018069254475
 21
45.69000543906585
 31
0.0
  0
LINE
  5
F09
330
6C
100
AcDbEntity
  8
Centerline (ANSI)
  6
CHAIN
 48
0.9524481296539306
100
AcDbLine
 10
33.21893069254475
 20
46.59625543906584
 30
0.0
 11
40.90643069254475
 21
46.59625543906584
 31
0.0
  0
LINE
  5
F0A
330
6C
100
AcDbEntity
  8
Center Mark (ANSI)
  6
CHAIN
 48
0.2012779265642166
100
AcDbLine
 10
37.96893069254475
 20
43.59625543906588
 30
0.0
 11
36.15643069254476
 21
43.59625543906588
 31
0.0
  0
LINE
  5
F0B
330
6C
100
AcDbEntity
  8
Center Mark (ANSI)
  6
CHAIN
 48
0.2012779265642166
100
AcDbLine
 10
37.06268069254476
 20
44.50250543906588
 30
0.0
 11
37.06268069254476
 21
42.69000543906589
 31
0.0
  0
DIMENSION
  5
F0C
330
6C
100
AcDbEntity
  8
Dimension (ANSI)
100
AcDbDimension
  2
*D17
 10
34.12518069254475
 20
49.05236607860253
 30
0.0
 11
30.24668935446634
 21
49.05236607860253
 31
0.0
 70
   160
  1
<>
 42
2.124999999999971
  3
Default (ANSI)
100
AcDbAlignedDimension
 13
32.00018069254478
 23
47.84625543906758
 33
0.0
 14
34.12518069254475
 24
47.50250543906584
 34
0.0
 50
180.0
100
AcDbRotatedDimension
1001
ACAD
1000
DSTYLE
1002
{
1070
   289
1070
     2
1070
    73
1070
     0
1070
    74
1070
     0
1070
   271
1070
     2
1070
   272
1070
     2
1070
    48
1040
0.0
1070
    47
1040
0.0
1002
}
  0
DIMENSION
  5
FF6
330
6C
100
AcDbEntity
  8
Dimension (ANSI)
100
AcDbDimension
  2
*D18
 10
37.06268069254476
 20
50.33687242539138
 30
0.0
 11
34.53143069254477
 21
50.33687242539138
 31
0.0
 70
   160
  1
<>
 42
5.062499999999971
  3
Default (ANSI)
100
AcDbAlignedDimension
 13
32.00018069254478
 23
47.84625543906758
 33
0.0
 14
37.06268069254476
 24
44.50250543906588
 34
0.0
 50
180.0
100
AcDbRotatedDimension
1001
ACAD
1000
DSTYLE
1002
{
1070
   289
1070
     1
1070
    73
1070
     0
1070
    74
1070
     0
1070
   271
1070
     2
1070
   272
1070
     2
1070
    48
1040
0.0
1070
    47
1040
0.0
1002
}
  0
DIMENSION
  5
10E0
330
6C
100
AcDbEntity
  8
Dimension (ANSI)
100
AcDbDimension
  2
*D19
 10
40.00018069254475
 20
49.05236607860253
 30
0.0
 11
43.87867203062348
 21
49.05236607860253
 31
0.0
 70
   160
  1
<>
 42
2.125000000000298
  3
Default (ANSI)
100
AcDbAlignedDimension
 13
42.12518069254505
 23
47.84625543906758
 33
0.0
 14
40.00018069254475
 24
47.50250543906584
 34
0.0
 50
180.0
100
AcDbRotatedDimension
1001
ACAD
1000
DSTYLE
1002
{
1070
   289
1070
     2
1070
    73
1070
     0
1070
    74
1070
     0
1070
   271
1070
     2
1070
   272
1070
     2
1070
    48
1040
0.0
1070
    47
1040
0.0
1002
}
  0
DIMENSION
  5
11CA
330
6C
100
AcDbEntity
  8
Dimension (ANSI)
100
AcDbDimension
  2
*D20
 10
28.67760068882669
 20
46.59625543906584
 30
0.0
 11
28.67760068882668
 21
47.22125543906672
 31
0.0
 70
   160
  1
<>
 42
1.250000000001733
  3
Default (ANSI)
100
AcDbAlignedDimension
 13
32.00018069254478
 23
47.84625543906758
 33
0.0
 14
33.21893069254475
 24
46.59625543906584
 34
0.0
 50
90.0
100
AcDbRotatedDimension
1001
ACAD
1000
DSTYLE
1002
{
1070
   289
1070
     1
1070
   271
1070
     2
1070
   272
1070
     2
1070
    48
1040
0.0
1070
    47
1040
0.0
1002
}
  0
DIMENSION
  5
12BC
330
6C
100
AcDbEntity
  8
Dimension (ANSI)
100
AcDbDimension
  2
*D21
 10
26.48836966892274
 20
43.59625543906588
 30
0.0
 11
26.48836966892273
 21
45.72125543906673
 31
0.0
 70
   160
  1
<>
 42
4.250000000001698
  3
Default (ANSI)
100
AcDbAlignedDimension
 13
32.00018069254478
 23
47.84625543906758
 33
0.0
 14
36.15643069254476
 24
43.59625543906588
 34
0.0
 50
90.0
100
AcDbRotatedDimension
1001
ACAD
1000
DSTYLE
1002
{
1070
   289
1070
     1
1070
   271
1070
     2
1070
   272
1070
     2
1070
    48
1040
0.0
1070
    47
1040
0.0
1002
}
  0
DIMENSION
  5
13A6
330
6C
100
AcDbEntity
  8
Dimension (ANSI)
100
AcDbDimension
  2
*D22
 10
36.79677057130974
 20
43.50464010233248
 30
0.0
 11
44.712730124317
 21
45.56107778466265
 31
0.0
 70
   163
  1
<>{\P(3 PL.)}
 71
     5
 42
0.5625
  3
Default (ANSI)
100
AcDbDiametricDimension
 15
37.32859081377978
 25
43.6878707757993
 35
0.0
 40
0.0
1001
ACAD
1000
DSTYLE
1002
{
1070
   144
1040
1.0
1070
   271
1070
     3
1070
   272
1070
     3
1070
    48
1040
0.0
1070
    47
1040
0.0
1002
}
1001
ACAD_DSTYLE_DIMRADIAL_EXTENSION
1070
   387
1070
     1
1070
   388
1040
0.0
1070
   390
1040
0.0
  0
DIMENSION
  5
145F
330
6C
100
AcDbEntity
  8
Dimension (ANSI)
100
AcDbDimension
  2
*D23
 10
18.65171738682126
 20
25.78850523618288
 30
0.0
 11
14.77671738682122
 21
25.78850523618288
 31
0.0
 70
   160
  1
<>
 42
7.750000000000072
  3
Default (ANSI)
100
AcDbAlignedDimension
 13
10.90171738682119
 23
27.51023495842249
 33
0.0
 14
18.65171738682126
 24
27.3697610996207
 34
0.0
100
AcDbRotatedDimension
1001
ACAD
1000
DSTYLE
1002
{
1070
   289
1070
     1
1070
    73
1070
     0
1070
    74
1070
     0
1070
   271
1070
     2
1070
   272
1070
     2
1070
    48
1040
0.0
1070
    47
1040
0.0
1002
}
  0
MTEXT
  5
1549
102
{ACAD_XDICTIONARY
360
1555
102
}
330
6C
100
AcDbEntity
  8
Symbol (ANSI)
100
AcDbMText
 10
47.55624963440108
 20
4.019794314802592
 30
0.0
 40
0.500000015957149
 41
36.91693553774376
 71
     4
 72
     1
  3
{\fRomanS|b0|i0|c0|p2;\H2x;PART#: SSFK0610\P(DATA SUBJECT TO CHANGE WITHOUT NOTICE)\H1.6157x; \H0.61894x;\P \H1.352x; \H0.73963x;\P\H0.6x;THIS DRAWING IS PROPERTY OF HUBBELL INC. WIEGMANN\H1.5633x; \H0.63966x;\PALL INFORMATION IS PROPRIETARY AND NOT 
  1
TO BE DUPLICATED\H1.234x; \H0.81039x;\P\H1.2571x; }
  7
Note Text (ANSI)
 73
     1
 44
0.8026435375213623
  0
ENDSEC
  0
SECTION
  2
OBJECTS
  0
DICTIONARY
  5
C
330
0
100
AcDbDictionary
281
     1
  3
ACAD_CIP_PREVIOUS_PRODUCT_INFO
350
154B
  3
ACAD_COLOR
350
63
  3
ACAD_GROUP
350
D
  3
ACAD_LAYOUT
350
62
  3
ACAD_MATERIAL
350
10
  3
ACAD_MLEADERSTYLE
350
66
  3
ACAD_MLINESTYLE
350
5F
  3
ACAD_PLOTSETTINGS
350
61
  3
ACAD_PLOTSTYLENAME
350
E
  3
ACAD_SCALELIST
350
42
  3
ACAD_TABLESTYLE
350
64
  3
ACAD_VISUALSTYLE
350
29
  3
ACDB_RECOMPOSE_DATA
350
1557
  3
AcDbVariableDictionary
350
76
  0
DICTIONARY
  5
158D
330
F01
100
AcDbDictionary
280
     1
281
     1
  3
ACAD_MTEXT_2008_RT
360
158E
  0
DICTIONARY
  5
158F
330
1459
100
AcDbDictionary
280
     1
281
     1
  3
ACAD_MTEXT_2008_RT
360
1590
  0
DICTIONARY
  5
1555
330
1549
100
AcDbDictionary
280
     1
281
     1
  3
ACAD_MTEXT_2008_RT
360
1556
  0
XRECORD
  5
154B
102
{ACAD_REACTORS
330
C
102
}
330
C
100
AcDbXrecord
280
     1
300
INVNTOR
300
2012
300
PDSP_F_S
  0
DICTIONARY
  5
63
102
{ACAD_REACTORS
330
C
102
}
330
C
100
AcDbDictionary
281
     1
  0
DICTIONARY
  5
D
102
{ACAD_REACTORS
330
C
102
}
330
C
100
AcDbDictionary
281
     1
  0
DICTIONARY
  5
62
102
{ACAD_REACTORS
330
C
102
}
330
C
100
AcDbDictionary
281
     1
  3
Layout1
350
6B
  3
Layout2
350
73
  3
Model
350
6F
  0
DICTIONARY
  5
10
102
{ACAD_REACTORS
330
C
102
}
330
C
100
AcDbDictionary
281
     1
  3
ByBlock
350
19
  3
ByLayer
350
11
  3
Global
350
21
  0
DICTIONARY
  5
66
102
{ACAD_REACTORS
330
C
102
}
330
C
100
AcDbDictionary
281
     1
  3
Standard
350
67
  0
DICTIONARY
  5
5F
102
{ACAD_REACTORS
330
C
102
}
330
C
100
AcDbDictionary
281
     1
  3
Standard
350
60
  0
DICTIONARY
  5
61
102
{ACAD_REACTORS
330
C
102
}
330
C
100
AcDbDictionary
281
     1
  0
ACDBDICTIONARYWDFLT
  5
E
102
{ACAD_REACTORS
330
C
102
}
330
C
100
AcDbDictionary
281
     1
  3
Normal
350
F
100
AcDbDictionaryWithDefault
340
F
  0
DICTIONARY
  5
42
102
{ACAD_REACTORS
330
C
102
}
330
C
100
AcDbDictionary
281
     1
  3
A0
350
43
  3
A1
350
44
  3
A2
350
45
  3
A3
350
46
  3
A4
350
47
  3
A5
350
48
  3
A6
350
49
  3
A7
350
4A
  3
A8
350
4B
  3
A9
350
4C
  3
B0
350
4D
  3
B1
350
4E
  3
B2
350
4F
  3
B3
350
50
  3
B4
350
51
  3
B5
350
52
  3
B6
350
53
  0
DICTIONARY
  5
64
102
{ACAD_REACTORS
330
C
102
}
330
C
100
AcDbDictionary
281
     1
  3
Standard
350
65
  0
DICTIONARY
  5
29
102
{ACAD_REACTORS
330
C
102
}
330
C
100
AcDbDictionary
281
     1
  3
2dWireframe
350
2F
  3
Basic
350
2E
  3
Brighten
350
35
  3
ColorChange
350
39
  3
Conceptual
350
32
  3
Dim
350
34
  3
EdgeColorOff
350
41
  3
Facepattern
350
38
  3
Flat
350
2A
  3
FlatWithEdges
350
2B
  3
Gouraud
350
2C
  3
GouraudWithEdges
350
2D
  3
Hidden
350
31
  3
JitterOff
350
3F
  3
Linepattern
350
37
  3
OverhangOff
350
40
  3
Realistic
350
33
  3
Shaded
350
3E
  3
Shaded with edges
350
3D
  3
Shades of Gray
350
3A
  3
Sketchy
350
3B
  3
Thicken
350
36
  3
Wireframe
350
30
  3
X-Ray
350
3C
  0
XRECORD
  5
1557
102
{ACAD_REACTORS
330
C
102
}
330
C
100
AcDbXrecord
280
     1
 90
        1
330
65
330
8A0
330
B79
330
C63
330
F0C
330
10E0
330
1549
  0
DICTIONARY
  5
76
102
{ACAD_REACTORS
330
C
102
}
330
C
100
AcDbDictionary
281
     1
  3
CANNOSCALE
350
79
  3
CMLEADERSTYLE
350
78
  3
CTABLESTYLE
350
77
  3
LAYEREVAL
350
154E
  3
LAYERNOTIFY
350
154F
  3
LIGHTINGUNITS
350
154D
  3
MSLTSCALE
350
154C
  3
XCLIPFRAME
350
1550
  0
XRECORD
  5
158E
102
{ACAD_REACTORS
330
158D
102
}
330
158D
100
AcDbXrecord
280
     1
 40
24491.0
  1
\A1;\U+22050.563{\P(6 PL.)}
  0
XRECORD
  5
1590
102
{ACAD_REACTORS
330
158F
102
}
330
158F
100
AcDbXrecord
280
     1
 40
24428.0
  1
\A1;\U+22050.563{\P(3 PL.)}
  0
XRECORD
  5
1556
102
{ACAD_REACTORS
330
1555
102
}
330
1555
100
AcDbXrecord
280
     1
 40
3068807.0
  1
\pxsm0.94;{\fRomanS|b0|i0;\H1.0000;PART#: SSFK0610\P(DATA SUBJECT TO CHANGE WITHOUT NOTICE)\P \P\fRomanS|b0|i0;\H0.6000;THIS DRAWING IS PROPERTY OF HUBBELL INC. WIEGMANN\PALL INFORMATION IS PROPRIETARY AND NOT TO BE DUPLICATED\P}
  0
LAYOUT
  5
6B
102
{ACAD_REACTORS
330
62
102
}
330
62
100
AcDbPlotSettings
  1

  2

  4

  6

 40
0.0
 41
0.0
 42
0.0
 43
0.0
 44
0.0
 45
0.0
 46
0.0
 47
0.0
 48
0.0
 49
0.0
140
0.0
141
0.0
142
1.0
143
1.0
 70
   688
 72
     0
 73
     0
 74
     5
  7

 75
    16
147
1.0
 76
     0
 77
     2
 78
   300
148
0.0
149
0.0
100
AcDbLayout
  1
Layout1
 70
     1
 71
     1
 10
0.0
 20
0.0
 11
12.0
 21
9.0
 12
0.0
 22
0.0
 32
0.0
 14
0.0
 24
0.0
 34
0.0
 15
0.0
 25
0.0
 35
0.0
146
0.0
 13
0.0
 23
0.0
 33
0.0
 16
1.0
 26
0.0
 36
0.0
 17
0.0
 27
1.0
 37
0.0
 76
     0
330
68
  0
LAYOUT
  5
73
102
{ACAD_REACTORS
330
62
102
}
330
62
100
AcDbPlotSettings
  1

  2

  4

  6

 40
0.0
 41
0.0
 42
0.0
 43
0.0
 44
0.0
 45
0.0
 46
0.0
 47
0.0
 48
0.0
 49
0.0
140
0.0
141
0.0
142
1.0
143
1.0
 70
   688
 72
     0
 73
     0
 74
     5
  7

 75
    16
147
1.0
 76
     0
 77
     2
 78
   300
148
0.0
149
0.0
100
AcDbLayout
  1
Layout2
 70
     1
 71
     2
 10
0.0
 20
0.0
 11
12.0
 21
9.0
 12
0.0
 22
0.0
 32
0.0
 14
0.0
 24
0.0
 34
0.0
 15
0.0
 25
0.0
 35
0.0
146
0.0
 13
0.0
 23
0.0
 33
0.0
 16
1.0
 26
0.0
 36
0.0
 17
0.0
 27
1.0
 37
0.0
 76
     0
330
70
  0
LAYOUT
  5
6F
102
{ACAD_REACTORS
330
62
102
}
330
62
100
AcDbPlotSettings
  1

  2

  4

  6

 40
0.0
 41
0.0
 42
0.0
 43
0.0
 44
0.0
 45
0.0
 46
0.0
 47
0.0
 48
0.0
 49
0.0
140
0.0
141
0.0
142
1.0
143
1.0
 70
  1712
 72
     0
 73
     0
 74
     0
  7

 75
     0
147
1.0
 76
     0
 77
     2
 78
   300
148
0.0
149
0.0
100
AcDbLayout
  1
Model
 70
     1
 71
     0
 10
0.0
 20
0.0
 11
12.0
 21
9.0
 12
0.0
 22
0.0
 32
0.0
 14
0.0
 24
0.0
 34
0.0
 15
0.0
 25
0.0
 35
0.0
146
0.0
 13
0.0
 23
0.0
 33
0.0
 16
1.0
 26
0.0
 36
0.0
 17
0.0
 27
1.0
 37
0.0
 76
     0
330
6C
  0
MATERIAL
  5
19
102
{ACAD_XDICTIONARY
360
1A
102
}
102
{ACAD_REACTORS
330
10
102
}
330
10
100
AcDbMaterial
  1
ByBlock
 72
     0
 43
0.0208333333333333
 43
0.0
 43
0.0
 43
0.0
 43
0.0
 43
0.0208333333333333
 43
0.0
 43
0.0
 43
0.0
 43
0.0
 43
1.0
 43
0.0
 43
0.0
 43
0.0
 43
0.0
 43
1.0
 77
     0
 47
0.0208333333333333
 47
0.0
 47
0.0
 47
0.0
 47
0.0
 47
0.0208333333333333
 47
0.0
 47
0.0
 47
0.0
 47
0.0
 47
1.0
 47
0.0
 47
0.0
 47
0.0
 47
0.0
 47
1.0
171
     0
 49
0.0208333333333333
 49
0.0
 49
0.0
 49
0.0
 49
0.0
 49
0.0208333333333333
 49
0.0
 49
0.0
 49
0.0
 49
0.0
 49
1.0
 49
0.0
 49
0.0
 49
0.0
 49
0.0
 49
1.0
175
     0
142
0.0208333333333333
142
0.0
142
0.0
142
0.0
142
0.0
142
0.0208333333333333
142
0.0
142
0.0
142
0.0
142
0.0
142
1.0
142
0.0
142
0.0
142
0.0
142
0.0
142
1.0
179
     0
144
0.0208333333333333
144
0.0
144
0.0
144
0.0
144
0.0
144
0.0208333333333333
144
0.0
144
0.0
144
0.0
144
0.0
144
1.0
144
0.0
144
0.0
144
0.0
144
0.0
144
1.0
147
0.0208333333333333
147
0.0
147
0.0
147
0.0
147
0.0
147
0.0208333333333333
147
0.0
147
0.0
147
0.0
147
0.0
147
1.0
147
0.0
147
0.0
147
0.0
147
0.0
147
1.0
  0
MATERIAL
  5
11
102
{ACAD_XDICTIONARY
360
12
102
}
102
{ACAD_REACTORS
330
10
102
}
330
10
100
AcDbMaterial
  1
ByLayer
 72
     0
 43
0.0208333333333333
 43
0.0
 43
0.0
 43
0.0
 43
0.0
 43
0.0208333333333333
 43
0.0
 43
0.0
 43
0.0
 43
0.0
 43
1.0
 43
0.0
 43
0.0
 43
0.0
 43
0.0
 43
1.0
 77
     0
 47
0.0208333333333333
 47
0.0
 47
0.0
 47
0.0
 47
0.0
 47
0.0208333333333333
 47
0.0
 47
0.0
 47
0.0
 47
0.0
 47
1.0
 47
0.0
 47
0.0
 47
0.0
 47
0.0
 47
1.0
171
     0
 49
0.0208333333333333
 49
0.0
 49
0.0
 49
0.0
 49
0.0
 49
0.0208333333333333
 49
0.0
 49
0.0
 49
0.0
 49
0.0
 49
1.0
 49
0.0
 49
0.0
 49
0.0
 49
0.0
 49
1.0
175
     0
142
0.0208333333333333
142
0.0
142
0.0
142
0.0
142
0.0
142
0.0208333333333333
142
0.0
142
0.0
142
0.0
142
0.0
142
1.0
142
0.0
142
0.0
142
0.0
142
0.0
142
1.0
179
     0
144
0.0208333333333333
144
0.0
144
0.0
144
0.0
144
0.0
144
0.0208333333333333
144
0.0
144
0.0
144
0.0
144
0.0
144
1.0
144
0.0
144
0.0
144
0.0
144
0.0
144
1.0
147
0.0208333333333333
147
0.0
147
0.0
147
0.0
147
0.0
147
0.0208333333333333
147
0.0
147
0.0
147
0.0
147
0.0
147
1.0
147
0.0
147
0.0
147
0.0
147
0.0
147
1.0
  0
MATERIAL
  5
21
102
{ACAD_XDICTIONARY
360
22
102
}
102
{ACAD_REACTORS
330
10
102
}
330
10
100
AcDbMaterial
  1
Global
 72
     0
 43
0.0208333333333333
 43
0.0
 43
0.0
 43
0.0
 43
0.0
 43
0.0208333333333333
 43
0.0
 43
0.0
 43
0.0
 43
0.0
 43
1.0
 43
0.0
 43
0.0
 43
0.0
 43
0.0
 43
1.0
 77
     0
 47
0.0208333333333333
 47
0.0
 47
0.0
 47
0.0
 47
0.0
 47
0.0208333333333333
 47
0.0
 47
0.0
 47
0.0
 47
0.0
 47
1.0
 47
0.0
 47
0.0
 47
0.0
 47
0.0
 47
1.0
171
     0
 49
0.0208333333333333
 49
0.0
 49
0.0
 49
0.0
 49
0.0
 49
0.0208333333333333
 49
0.0
 49
0.0
 49
0.0
 49
0.0
 49
1.0
 49
0.0
 49
0.0
 49
0.0
 49
0.0
 49
1.0
175
     0
142
0.0208333333333333
142
0.0
142
0.0
142
0.0
142
0.0
142
0.0208333333333333
142
0.0
142
0.0
142
0.0
142
0.0
142
1.0
142
0.0
142
0.0
142
0.0
142
0.0
142
1.0
179
     0
144
0.0208333333333333
144
0.0
144
0.0
144
0.0
144
0.0
144
0.0208333333333333
144
0.0
144
0.0
144
0.0
144
0.0
144
1.0
144
0.0
144
0.0
144
0.0
144
0.0
144
1.0
147
0.0208333333333333
147
0.0
147
0.0
147
0.0
147
0.0
147
0.0208333333333333
147
0.0
147
0.0
147
0.0
147
0.0
147
1.0
147
0.0
147
0.0
147
0.0
147
0.0
147
1.0
  0
MLEADERSTYLE
  5
67
102
{ACAD_XDICTIONARY
360
1553
102
}
102
{ACAD_REACTORS
330
66
102
}
330
66
100
AcDbMLeaderStyle
170
     2
171
     1
172
     0
 90
        2
 40
0.0
 41
0.0
173
     1
 91
-1056964608
340
5B
 92
       -2
290
     1
 42
0.09
291
     1
 43
0.36
  3
Standard
 44
0.18
300

342
55
174
     1
178
     6
175
     1
176
     0
 93
-1056964608
 45
0.18
292
     0
297
     0
 46
0.18
 94
-1056964608
 47
1.0
 49
1.0
140
1.0
293
     1
141
0.0
294
     1
177
     0
142
1.0
295
     0
296
     0
143
0.125
1001
ACAD_MLEADERVER
1070
     2
  0
MLINESTYLE
  5
60
102
{ACAD_REACTORS
330
5F
102
}
330
5F
100
AcDbMlineStyle
  2
STANDARD
 70
     0
  3

 62
   256
 51
90.0
 52
90.0
 71
     2
 49
0.5
 62
   256
  6
BYLAYER
 49
-0.5
 62
   256
  6
BYLAYER
  0
ACDBPLACEHOLDER
  5
F
102
{ACAD_REACTORS
330
E
102
}
330
E
  0
SCALE
  5
43
102
{ACAD_REACTORS
330
42
102
}
330
42
100
AcDbScale
 70
     0
300
1:1
140
1.0
141
1.0
290
     1
  0
SCALE
  5
44
102
{ACAD_REACTORS
330
42
102
}
330
42
100
AcDbScale
 70
     0
300
1/128" = 1'-0"
140
0.0078125
141
12.0
290
     0
  0
SCALE
  5
45
102
{ACAD_REACTORS
330
42
102
}
330
42
100
AcDbScale
 70
     0
300
1/64" = 1'-0"
140
0.015625
141
12.0
290
     0
  0
SCALE
  5
46
102
{ACAD_REACTORS
330
42
102
}
330
42
100
AcDbScale
 70
     0
300
1/32" = 1'-0"
140
0.03125
141
12.0
290
     0
  0
SCALE
  5
47
102
{ACAD_REACTORS
330
42
102
}
330
42
100
AcDbScale
 70
     0
300
1/16" = 1'-0"
140
0.0625
141
12.0
290
     0
  0
SCALE
  5
48
102
{ACAD_REACTORS
330
42
102
}
330
42
100
AcDbScale
 70
     0
300
3/32" = 1'-0"
140
0.09375
141
12.0
290
     0
  0
SCALE
  5
49
102
{ACAD_REACTORS
330
42
102
}
330
42
100
AcDbScale
 70
     0
300
1/8" = 1'-0"
140
0.125
141
12.0
290
     0
  0
SCALE
  5
4A
102
{ACAD_REACTORS
330
42
102
}
330
42
100
AcDbScale
 70
     0
300
3/16" = 1'-0"
140
0.1875
141
12.0
290
     0
  0
SCALE
  5
4B
102
{ACAD_REACTORS
330
42
102
}
330
42
100
AcDbScale
 70
     0
300
1/4" = 1'-0"
140
0.25
141
12.0
290
     0
  0
SCALE
  5
4C
102
{ACAD_REACTORS
330
42
102
}
330
42
100
AcDbScale
 70
     0
300
3/8" = 1'-0"
140
0.375
141
12.0
290
     0
  0
SCALE
  5
4D
102
{ACAD_REACTORS
330
42
102
}
330
42
100
AcDbScale
 70
     0
300
1/2" = 1'-0"
140
0.5
141
12.0
290
     0
  0
SCALE
  5
4E
102
{ACAD_REACTORS
330
42
102
}
330
42
100
AcDbScale
 70
     0
300
3/4" = 1'-0"
140
0.75
141
12.0
290
     0
  0
SCALE
  5
4F
102
{ACAD_REACTORS
330
42
102
}
330
42
100
AcDbScale
 70
     0
300
1" = 1'-0"
140
1.0
141
12.0
290
     0
  0
SCALE
  5
50
102
{ACAD_REACTORS
330
42
102
}
330
42
100
AcDbScale
 70
     0
300
1-1/2" = 1'-0"
140
1.5
141
12.0
290
     0
  0
SCALE
  5
51
102
{ACAD_REACTORS
330
42
102
}
330
42
100
AcDbScale
 70
     0
300
3" = 1'-0"
140
3.0
141
12.0
290
     0
  0
SCALE
  5
52
102
{ACAD_REACTORS
330
42
102
}
330
42
100
AcDbScale
 70
     0
300
6" = 1'-0"
140
6.0
141
12.0
290
     0
  0
SCALE
  5
53
102
{ACAD_REACTORS
330
42
102
}
330
42
100
AcDbScale
 70
     0
300
1'-0" = 1'-0"
140
12.0
141
12.0
290
     0
  0
TABLESTYLE
  5
65
102
{ACAD_XDICTIONARY
360
1551
102
}
102
{ACAD_REACTORS
330
64
102
}
330
64
100
AcDbTableStyle
  3
Standard
 70
     0
 71
     0
 40
0.06
 41
0.06
280
     0
281
     0
  7
Standard
140
0.18
170
     2
 62
     0
 63
     7
283
     0
274
    -2
284
     1
 64
     0
275
    -2
285
     1
 65
     0
276
    -2
286
     1
 66
     0
277
    -2
287
     1
 67
     0
278
    -2
288
     1
 68
     0
279
    -2
289
     1
 69
     0
  7
Standard
140
0.25
170
     5
 62
     0
 63
     7
283
     0
274
    -2
284
     1
 64
     0
275
    -2
285
     1
 65
     0
276
    -2
286
     1
 66
     0
277
    -2
287
     1
 67
     0
278
    -2
288
     1
 68
     0
279
    -2
289
     1
 69
     0
  7
Standard
140
0.18
170
     5
 62
     0
 63
     7
283
     0
274
    -2
284
     1
 64
     0
275
    -2
285
     1
 65
     0
276
    -2
286
     1
 66
     0
277
    -2
287
     1
 67
     0
278
    -2
288
     1
 68
     0
279
    -2
289
     1
 69
     0
  0
VISUALSTYLE
  5
2F
102
{ACAD_XDICTIONARY
360
1565
102
}
102
{ACAD_REACTORS
330
29
102
}
330
29
100
AcDbVisualStyle
  2
2dWireframe
 70
     4
 71
     0
 72
     2
 73
     0
 90
        0
 40
-0.6
 41
-30.0
 62
     5
 63
     7
421
 16777215
 74
     1
 91
        4
 64
     7
 65
   257
 75
     1
175
     1
 42
1.0
 92
        0
 66
   257
 43
1.0
 76
     1
 77
     6
 78
     2
 67
     7
 79
     5
170
     0
171
     0
290
     0
174
     0
 93
        1
 44
0.0
173
     0
291
     0
 45
0.0
1001
ACAD
1000
AcDbSavedByObjectVersion
1070
     0
  0
VISUALSTYLE
  5
2E
102
{ACAD_XDICTIONARY
360
1563
102
}
102
{ACAD_REACTORS
330
29
102
}
330
29
100
AcDbVisualStyle
  2
Basic
 70
     7
 71
     1
 72
     0
 73
     1
 90
        0
 40
-0.6
 41
-30.0
 62
     5
 63
     7
421
 16777215
 74
     0
 91
        4
 64
     7
 65
   257
 75
     1
175
     1
 42
1.0
 92
        8
 66
     7
 43
1.0
 76
     1
 77
     6
 78
     2
 67
     7
 79
     5
170
     0
171
     0
290
     0
174
     0
 93
        1
 44
0.0
173
     0
291
     1
 45
0.0
1001
ACAD
1000
AcDbSavedByObjectVersion
1070
     0
  0
VISUALSTYLE
  5
35
102
{ACAD_XDICTIONARY
360
1571
102
}
102
{ACAD_REACTORS
330
29
102
}
330
29
100
AcDbVisualStyle
  2
Brighten
 70
    12
 71
     2
 72
     2
 73
     0
 90
        0
 40
-0.6
 41
-30.0
 62
     5
 63
     7
421
 16777215
 74
     1
 91
        4
 64
     7
 65
   257
 75
     1
175
     1
 42
1.0
 92
        8
 66
     7
 43
1.0
 76
     1
 77
     6
 78
     2
 67
     7
 79
     5
170
     0
171
     0
290
     0
174
     0
 93
        1
 44
50.0
173
     0
291
     1
 45
0.0
1001
ACAD
1000
AcDbSavedByObjectVersion
1070
     0
  0
VISUALSTYLE
  5
39
102
{ACAD_XDICTIONARY
360
1579
102
}
102
{ACAD_REACTORS
330
29
102
}
330
29
100
AcDbVisualStyle
  2
ColorChange
 70
    16
 71
     2
 72
     2
 73
     3
 90
        0
 40
-0.6
 41
-30.0
 62
     5
 63
     8
421
  8421504
 74
     1
 91
        4
 64
     7
 65
   257
 75
     1
175
     1
 42
1.0
 92
        8
 66
     8
424
  8421504
 43
1.0
 76
     1
 77
     6
 78
     2
 67
     7
 79
     5
170
     0
171
     0
290
     0
174
     0
 93
        1
 44
0.0
173
     0
291
     1
 45
0.0
1001
ACAD
1000
AcDbSavedByObjectVersion
1070
     0
  0
VISUALSTYLE
  5
32
102
{ACAD_XDICTIONARY
360
156B
102
}
102
{ACAD_REACTORS
330
29
102
}
330
29
100
AcDbVisualStyle
  2
Conceptual
 70
     9
 71
     3
 72
     2
 73
     0
 90
        0
 40
-0.6
 41
-30.0
 62
     5
 63
     7
421
 16777215
 74
     2
 91
        2
 64
     7
 65
   257
 75
     1
175
     1
 42
179.0
 92
        8
 66
     7
 43
1.0
 76
     1
 77
     6
 78
     2
 67
     7
 79
     3
170
     0
171
     0
290
     0
174
     0
 93
        1
 44
0.0
173
     0
291
     0
 45
0.0
1001
ACAD
1000
AcDbSavedByObjectVersion
1070
     0
  0
VISUALSTYLE
  5
34
102
{ACAD_XDICTIONARY
360
156F
102
}
102
{ACAD_REACTORS
330
29
102
}
330
29
100
AcDbVisualStyle
  2
Dim
 70
    11
 71
     2
 72
     2
 73
     0
 90
        0
 40
-0.6
 41
-30.0
 62
     5
 63
     7
421
 16777215
 74
     1
 91
        4
 64
     7
 65
   257
 75
     1
175
     1
 42
1.0
 92
        8
 66
     7
 43
1.0
 76
     1
 77
     6
 78
     2
 67
     7
 79
     5
170
     0
171
     0
290
     0
174
     0
 93
        1
 44
-50.0
173
     0
291
     1
 45
0.0
1001
ACAD
1000
AcDbSavedByObjectVersion
1070
     0
  0
VISUALSTYLE
  5
41
102
{ACAD_XDICTIONARY
360
1589
102
}
102
{ACAD_REACTORS
330
29
102
}
330
29
100
AcDbVisualStyle
  2
EdgeColorOff
 70
    22
 71
     2
 72
     2
 73
     0
 90
        0
 40
-0.6
 41
-30.0
 62
     5
 63
     7
421
 16777215
 74
     1
 91
        4
 64
     7
 65
   257
 75
     1
175
     1
 42
1.0
 92
        8
 66
     7
 43
1.0
 76
     1
 77
     6
 78
     2
 67
     7
 79
     5
170
     0
171
     0
290
     0
174
     0
 93
        1
 44
0.0
173
     0
291
     1
 45
0.0
1001
ACAD
1000
AcDbSavedByObjectVersion
1070
     0
  0
VISUALSTYLE
  5
38
102
{ACAD_XDICTIONARY
360
1577
102
}
102
{ACAD_REACTORS
330
29
102
}
330
29
100
AcDbVisualStyle
  2
Facepattern
 70
    15
 71
     2
 72
     2
 73
     0
 90
        0
 40
-0.6
 41
-30.0
 62
     5
 63
     7
421
 16777215
 74
     1
 91
        4
 64
     7
 65
   257
 75
     1
175
     1
 42
1.0
 92
        8
 66
     7
 43
1.0
 76
     1
 77
     6
 78
     2
 67
     7
 79
     5
170
     0
171
     0
290
     0
174
     0
 93
        1
 44
0.0
173
     0
291
     1
 45
0.0
1001
ACAD
1000
AcDbSavedByObjectVersion
1070
     0
  0
VISUALSTYLE
  5
2A
102
{ACAD_XDICTIONARY
360
155B
102
}
102
{ACAD_REACTORS
330
29
102
}
330
29
100
AcDbVisualStyle
  2
Flat
 70
     0
 71
     2
 72
     1
 73
     1
 90
        2
 40
-0.6
 41
30.0
 62
     5
 63
     7
421
 16777215
 74
     0
 91
        0
 64
     7
 65
   257
 75
     1
175
     1
 42
1.0
 92
        8
 66
     7
 43
1.0
 76
     1
 77
     6
 78
     2
 67
     7
 79
     5
170
     0
171
     0
290
     0
174
     0
 93
       13
 44
0.0
173
     0
291
     1
 45
0.0
1001
ACAD
1000
AcDbSavedByObjectVersion
1070
     0
  0
VISUALSTYLE
  5
2B
102
{ACAD_XDICTIONARY
360
155D
102
}
102
{ACAD_REACTORS
330
29
102
}
330
29
100
AcDbVisualStyle
  2
FlatWithEdges
 70
     1
 71
     2
 72
     1
 73
     1
 90
        2
 40
-0.6
 41
30.0
 62
     5
 63
     7
421
 16777215
 74
     1
 91
        0
 64
     7
 65
   257
 75
     1
175
     1
 42
1.0
 92
        0
 66
   257
 43
1.0
 76
     1
 77
     6
 78
     2
 67
     7
 79
     5
170
     0
171
     0
290
     0
174
     0
 93
       13
 44
0.0
173
     0
291
     1
 45
0.0
1001
ACAD
1000
AcDbSavedByObjectVersion
1070
     0
  0
VISUALSTYLE
  5
2C
102
{ACAD_XDICTIONARY
360
155F
102
}
102
{ACAD_REACTORS
330
29
102
}
330
29
100
AcDbVisualStyle
  2
Gouraud
 70
     2
 71
     2
 72
     2
 73
     1
 90
        2
 40
-0.6
 41
30.0
 62
     5
 63
     7
421
 16777215
 74
     0
 91
        0
 64
     7
 65
   257
 75
     1
175
     1
 42
1.0
 92
        0
 66
     7
 43
1.0
 76
     1
 77
     6
 78
     2
 67
     7
 79
     5
170
     0
171
     0
290
     0
174
     0
 93
       13
 44
0.0
173
     0
291
     1
 45
0.0
1001
ACAD
1000
AcDbSavedByObjectVersion
1070
     0
  0
VISUALSTYLE
  5
2D
102
{ACAD_XDICTIONARY
360
1561
102
}
102
{ACAD_REACTORS
330
29
102
}
330
29
100
AcDbVisualStyle
  2
GouraudWithEdges
 70
     3
 71
     2
 72
     2
 73
     1
 90
        2
 40
-0.6
 41
30.0
 62
     5
 63
     7
421
 16777215
 74
     1
 91
        0
 64
     7
 65
   257
 75
     1
175
     1
 42
1.0
 92
        0
 66
   257
 43
1.0
 76
     1
 77
     6
 78
     2
 67
     7
 79
     5
170
     0
171
     0
290
     0
174
     0
 93
       13
 44
0.0
173
     0
291
     1
 45
0.0
1001
ACAD
1000
AcDbSavedByObjectVersion
1070
     0
  0
VISUALSTYLE
  5
31
102
{ACAD_XDICTIONARY
360
1569
102
}
102
{ACAD_REACTORS
330
29
102
}
330
29
100
AcDbVisualStyle
  2
Hidden
 70
     6
 71
     1
 72
     2
 73
     2
 90
        0
 40
-0.6
 41
-30.0
 62
     5
 63
     7
421
 16777215
 74
     2
 91
        2
 64
     7
 65
   257
 75
     2
175
     1
 42
40.0
 92
        0
 66
   257
 43
1.0
 76
     1
 77
     6
 78
     2
 67
     7
 79
     3
170
     0
171
     0
290
     0
174
     0
 93
        1
 44
0.0
173
     0
291
     0
 45
0.0
1001
ACAD
1000
AcDbSavedByObjectVersion
1070
     0
  0
VISUALSTYLE
  5
3F
102
{ACAD_XDICTIONARY
360
1585
102
}
102
{ACAD_REACTORS
330
29
102
}
330
29
100
AcDbVisualStyle
  2
JitterOff
 70
    20
 71
     2
 72
     2
 73
     0
 90
        0
 40
-0.6
 41
-30.0
 62
     5
 63
     7
421
 16777215
 74
     1
 91
        4
 64
     7
 65
   257
 75
     1
175
     1
 42
1.0
 92
       10
 66
     7
 43
1.0
 76
     1
 77
     6
 78
     2
 67
     7
 79
     5
170
     0
171
     0
290
     0
174
     0
 93
        1
 44
0.0
173
     0
291
     1
 45
0.0
1001
ACAD
1000
AcDbSavedByObjectVersion
1070
     0
  0
VISUALSTYLE
  5
37
102
{ACAD_XDICTIONARY
360
1575
102
}
102
{ACAD_REACTORS
330
29
102
}
330
29
100
AcDbVisualStyle
  2
Linepattern
 70
    14
 71
     2
 72
     2
 73
     0
 90
        0
 40
-0.6
 41
-30.0
 62
     5
 63
     7
421
 16777215
 74
     1
 91
        4
 64
     7
 65
   257
 75
     7
175
     7
 42
1.0
 92
        8
 66
     7
 43
1.0
 76
     1
 77
     6
 78
     2
 67
     7
 79
     5
170
     0
171
     0
290
     0
174
     0
 93
        1
 44
0.0
173
     0
291
     1
 45
0.0
1001
ACAD
1000
AcDbSavedByObjectVersion
1070
     0
  0
VISUALSTYLE
  5
40
102
{ACAD_XDICTIONARY
360
1587
102
}
102
{ACAD_REACTORS
330
29
102
}
330
29
100
AcDbVisualStyle
  2
OverhangOff
 70
    21
 71
     2
 72
     2
 73
     0
 90
        0
 40
-0.6
 41
-30.0
 62
     5
 63
     7
421
 16777215
 74
     1
 91
        4
 64
     7
 65
   257
 75
     1
175
     1
 42
1.0
 92
        9
 66
     7
 43
1.0
 76
     1
 77
     6
 78
     2
 67
     7
 79
     5
170
     0
171
     0
290
     0
174
     0
 93
        1
 44
0.0
173
     0
291
     1
 45
0.0
1001
ACAD
1000
AcDbSavedByObjectVersion
1070
     0
  0
VISUALSTYLE
  5
33
102
{ACAD_XDICTIONARY
360
156D
102
}
102
{ACAD_REACTORS
330
29
102
}
330
29
100
AcDbVisualStyle
  2
Realistic
 70
     8
 71
     2
 72
     3
 73
     0
 90
        2
 40
-0.6
 41
30.0
 62
     5
 63
     7
421
 16777215
 74
     0
 91
        0
 64
     7
 65
   257
 75
     1
175
     1
 42
1.0
 92
        8
 66
   257
 43
1.0
 76
     1
 77
     6
 78
     2
 67
     7
 79
     3
170
     0
171
     0
290
     0
174
     0
 93
       13
 44
0.0
173
     0
291
     0
 45
0.0
1001
ACAD
1000
AcDbSavedByObjectVersion
1070
     0
  0
VISUALSTYLE
  5
3E
102
{ACAD_XDICTIONARY
360
1583
102
}
102
{ACAD_REACTORS
330
29
102
}
330
29
100
AcDbVisualStyle
  2
Shaded
 70
    27
 71
     2
 72
     2
 73
     1
 90
        2
 40
-0.6
 41
30.0
 62
     5
 63
     7
421
 16777215
 74
     0
 91
        4
 64
     7
 65
   257
 75
     1
175
     1
 42
1.0
 92
        8
 66
   257
 43
1.0
 76
     1
 77
     6
 78
     2
 67
     8
425
  7895160
 79
     3
170
     0
171
     0
290
     0
174
     0
 93
        5
 44
0.0
173
     0
291
     0
 45
0.0
1001
ACAD
1000
AcDbSavedByObjectVersion
1070
     0
  0
VISUALSTYLE
  5
3D
102
{ACAD_XDICTIONARY
360
1581
102
}
102
{ACAD_REACTORS
330
29
102
}
330
29
100
AcDbVisualStyle
  2
Shaded with edges
 70
    26
 71
     2
 72
     2
 73
     1
 90
        2
 40
-0.6
 41
30.0
 62
     5
 63
     7
421
 16777215
 74
     1
 91
       10
 64
     7
 65
   257
 75
     2
175
     1
 42
1.0
 92
        8
 66
   257
 43
1.0
 76
     1
 77
     6
 78
     2
 67
     7
 79
     3
170
     0
171
     0
290
     0
174
     0
 93
        5
 44
0.0
173
     0
291
     0
 45
0.0
1001
ACAD
1000
AcDbSavedByObjectVersion
1070
     0
  0
VISUALSTYLE
  5
3A
102
{ACAD_XDICTIONARY
360
157B
102
}
102
{ACAD_REACTORS
330
29
102
}
330
29
100
AcDbVisualStyle
  2
Shades of Gray
 70
    23
 71
     2
 72
     2
 73
     3
 90
        0
 40
-0.6
 41
-30.0
 62
     5
 63
     7
421
 16777215
 74
     2
 91
        2
 64
     7
 65
     7
 75
     1
175
     1
 42
40.0
 92
        8
 66
     7
 43
1.0
 76
     1
 77
     6
 78
     2
 67
     7
 79
     3
170
     0
171
     0
290
     0
174
     0
 93
        1
 44
0.0
173
     0
291
     0
 45
0.0
1001
ACAD
1000
AcDbSavedByObjectVersion
1070
     0
  0
VISUALSTYLE
  5
3B
102
{ACAD_XDICTIONARY
360
157D
102
}
102
{ACAD_REACTORS
330
29
102
}
330
29
100
AcDbVisualStyle
  2
Sketchy
 70
    24
 71
     1
 72
     2
 73
     2
 90
        0
 40
-0.6
 41
-30.0
 62
     5
 63
     7
421
 16777215
 74
     2
 91
        2
 64
     7
 65
     7
 75
     1
175
     1
 42
40.0
 92
       11
 66
     7
 43
1.0
 76
     1
 77
     6
 78
     2
 67
     7
 79
     6
170
     0
171
     0
290
     0
174
     0
 93
        1
 44
0.0
173
     0
291
     0
 45
0.0
1001
ACAD
1000
AcDbSavedByObjectVersion
1070
     0
  0
VISUALSTYLE
  5
36
102
{ACAD_XDICTIONARY
360
1573
102
}
102
{ACAD_REACTORS
330
29
102
}
330
29
100
AcDbVisualStyle
  2
Thicken
 70
    13
 71
     2
 72
     2
 73
     0
 90
        0
 40
-0.6
 41
-30.0
 62
     5
 63
     7
421
 16777215
 74
     1
 91
        4
 64
     7
 65
   257
 75
     1
175
     1
 42
1.0
 92
       12
 66
     7
 43
1.0
 76
     1
 77
     6
 78
     2
 67
     7
 79
     5
170
     0
171
     0
290
     0
174
     0
 93
        1
 44
0.0
173
     0
291
     1
 45
0.0
1001
ACAD
1000
AcDbSavedByObjectVersion
1070
     0
  0
VISUALSTYLE
  5
30
102
{ACAD_XDICTIONARY
360
1567
102
}
102
{ACAD_REACTORS
330
29
102
}
330
29
100
AcDbVisualStyle
  2
Wireframe
 70
     5
 71
     0
 72
     2
 73
     0
 90
        0
 40
-0.6
 41
-30.0
 62
     5
 63
     7
421
 16777215
 74
     1
 91
        4
 64
     7
 65
   257
 75
     1
175
     1
 42
1.0
 92
        0
 66
   257
 43
1.0
 76
     1
 77
     6
 78
     2
 67
     7
 79
     3
170
     0
171
     0
290
     0
174
     0
 93
        1
 44
0.0
173
     0
291
     0
 45
0.0
1001
ACAD
1000
AcDbSavedByObjectVersion
1070
     0
  0
VISUALSTYLE
  5
3C
102
{ACAD_XDICTIONARY
360
157F
102
}
102
{ACAD_REACTORS
330
29
102
}
330
29
100
AcDbVisualStyle
  2
X-Ray
 70
    25
 71
     2
 72
     2
 73
     1
 90
        1
 40
0.5
 41
-30.0
 62
     5
 63
     7
421
 16777215
 74
     1
 91
        0
 64
     7
 65
   257
 75
     1
175
     1
 42
1.0
 92
        8
 66
     7
 43
1.0
 76
     1
 77
     6
 78
     2
 67
     7
 79
     3
170
     0
171
     0
290
     0
174
     0
 93
       13
 44
0.0
173
     0
291
     0
 45
0.0
1001
ACAD
1000
AcDbSavedByObjectVersion
1070
     0
  0
DICTIONARYVAR
  5
79
102
{ACAD_REACTORS
330
76
102
}
330
76
100
DictionaryVariables
280
     0
  1
1:1
  0
DICTIONARYVAR
  5
78
102
{ACAD_REACTORS
330
76
102
}
330
76
100
DictionaryVariables
280
     0
  1
STANDARD
  0
DICTIONARYVAR
  5
77
102
{ACAD_REACTORS
330
76
102
}
330
76
100
DictionaryVariables
280
     0
  1
STANDARD
  0
DICTIONARYVAR
  5
154E
102
{ACAD_REACTORS
330
76
102
}
330
76
100
DictionaryVariables
280
     0
  1
0
  0
DICTIONARYVAR
  5
154F
102
{ACAD_REACTORS
330
76
102
}
330
76
100
DictionaryVariables
280
     0
  1
0
  0
DICTIONARYVAR
  5
154D
102
{ACAD_REACTORS
330
76
102
}
330
76
100
DictionaryVariables
280
     0
  1
2
  0
DICTIONARYVAR
  5
154C
102
{ACAD_REACTORS
330
76
102
}
330
76
100
DictionaryVariables
280
     0
  1
1
  0
DICTIONARYVAR
  5
1550
102
{ACAD_REACTORS
330
76
102
}
330
76
100
DictionaryVariables
280
     0
  1
2
  0
DICTIONARY
  5
1A
330
19
100
AcDbDictionary
280
     1
281
     1
  3
ACAD_XREC_ROUNDTRIP
360
1559
  3
BUMPTILE
360
1C
  3
DIFFUSETILE
360
1B
  3
OPACITYTILE
360
1F
  3
REFLECTIONTILE
360
1E
  3
REFRACTIONTILE
360
20
  3
SPECULARTILE
360
1D
  0
DICTIONARY
  5
12
330
11
100
AcDbDictionary
280
     1
281
     1
  3
ACAD_XREC_ROUNDTRIP
360
1558
  3
BUMPTILE
360
14
  3
DIFFUSETILE
360
13
  3
FBXASSET
360
F5
  3
OPACITYTILE
360
17
  3
REFLECTIONTILE
360
16
  3
REFRACTIONTILE
360
18
  3
SPECULARTILE
360
15
  0
DICTIONARY
  5
22
330
21
100
AcDbDictionary
280
     1
281
     1
  3
ACAD_XREC_ROUNDTRIP
360
155A
  3
BUMPTILE
360
24
  3
DIFFUSETILE
360
23
  3
FBXASSET
360
BA
  3
OPACITYTILE
360
27
  3
REFLECTIONTILE
360
26
  3
REFRACTIONTILE
360
28
  3
SPECULARTILE
360
25
  0
DICTIONARY
  5
1553
330
67
100
AcDbDictionary
280
     1
281
     1
  3
ACAD_XREC_ROUNDTRIP
360
1554
  0
DICTIONARY
  5
1551
330
65
100
AcDbDictionary
280
     1
281
     1
  3
ACAD_ROUNDTRIP_2008_TABLESTYLE_CELLSTYLEMAP
360
1552
  3
ACAD_XREC_ROUNDTRIP
360
158B
  0
DICTIONARY
  5
1565
330
2F
100
AcDbDictionary
280
     1
281
     1
  3
ACAD_XREC_ROUNDTRIP
360
1566
  0
DICTIONARY
  5
1563
330
2E
100
AcDbDictionary
280
     1
281
     1
  3
ACAD_XREC_ROUNDTRIP
360
1564
  0
DICTIONARY
  5
1571
330
35
100
AcDbDictionary
280
     1
281
     1
  3
ACAD_XREC_ROUNDTRIP
360
1572
  0
DICTIONARY
  5
1579
330
39
100
AcDbDictionary
280
     1
281
     1
  3
ACAD_XREC_ROUNDTRIP
360
157A
  0
DICTIONARY
  5
156B
330
32
100
AcDbDictionary
280
     1
281
     1
  3
ACAD_XREC_ROUNDTRIP
360
156C
  0
DICTIONARY
  5
156F
330
34
100
AcDbDictionary
280
     1
281
     1
  3
ACAD_XREC_ROUNDTRIP
360
1570
  0
DICTIONARY
  5
1589
330
41
100
AcDbDictionary
280
     1
281
     1
  3
ACAD_XREC_ROUNDTRIP
360
158A
  0
DICTIONARY
  5
1577
330
38
100
AcDbDictionary
280
     1
281
     1
  3
ACAD_XREC_ROUNDTRIP
360
1578
  0
DICTIONARY
  5
155B
330
2A
100
AcDbDictionary
280
     1
281
     1
  3
ACAD_XREC_ROUNDTRIP
360
155C
  0
DICTIONARY
  5
155D
330
2B
100
AcDbDictionary
280
     1
281
     1
  3
ACAD_XREC_ROUNDTRIP
360
155E
  0
DICTIONARY
  5
155F
330
2C
100
AcDbDictionary
280
     1
281
     1
  3
ACAD_XREC_ROUNDTRIP
360
1560
  0
DICTIONARY
  5
1561
330
2D
100
AcDbDictionary
280
     1
281
     1
  3
ACAD_XREC_ROUNDTRIP
360
1562
  0
DICTIONARY
  5
1569
330
31
100
AcDbDictionary
280
     1
281
     1
  3
ACAD_XREC_ROUNDTRIP
360
156A
  0
DICTIONARY
  5
1585
330
3F
100
AcDbDictionary
280
     1
281
     1
  3
ACAD_XREC_ROUNDTRIP
360
1586
  0
DICTIONARY
  5
1575
330
37
100
AcDbDictionary
280
     1
281
     1
  3
ACAD_XREC_ROUNDTRIP
360
1576
  0
DICTIONARY
  5
1587
330
40
100
AcDbDictionary
280
     1
281
     1
  3
ACAD_XREC_ROUNDTRIP
360
1588
  0
DICTIONARY
  5
156D
330
33
100
AcDbDictionary
280
     1
281
     1
  3
ACAD_XREC_ROUNDTRIP
360
156E
  0
DICTIONARY
  5
1583
330
3E
100
AcDbDictionary
280
     1
281
     1
  3
ACAD_XREC_ROUNDTRIP
360
1584
  0
DICTIONARY
  5
1581
330
3D
100
AcDbDictionary
280
     1
281
     1
  3
ACAD_XREC_ROUNDTRIP
360
1582
  0
DICTIONARY
  5
157B
330
3A
100
AcDbDictionary
280
     1
281
     1
  3
ACAD_XREC_ROUNDTRIP
360
157C
  0
DICTIONARY
  5
157D
330
3B
100
AcDbDictionary
280
     1
281
     1
  3
ACAD_XREC_ROUNDTRIP
360
157E
  0
DICTIONARY
  5
1573
330
36
100
AcDbDictionary
280
     1
281
     1
  3
ACAD_XREC_ROUNDTRIP
360
1574
  0
DICTIONARY
  5
1567
330
30
100
AcDbDictionary
280
     1
281
     1
  3
ACAD_XREC_ROUNDTRIP
360
1568
  0
DICTIONARY
  5
157F
330
3C
100
AcDbDictionary
280
     1
281
     1
  3
ACAD_XREC_ROUNDTRIP
360
1580
  0
XRECORD
  5
1559
102
{ACAD_REACTORS
330
1A
102
}
330
1A
100
AcDbXrecord
280
     1
102
MATERIAL
148
0.0
149
0.0
149
0.0
 93
        0
 94
      127
282
     0
 72
     0
 77
     0
171
     0
175
     0
179
     0
273
     0
  0
XRECORD
  5
1C
102
{ACAD_REACTORS
330
1A
102
}
330
1A
100
AcDbXrecord
280
     1
270
     1
271
     1
  0
XRECORD
  5
1B
102
{ACAD_REACTORS
330
1A
102
}
330
1A
100
AcDbXrecord
280
     1
270
     1
271
     1
  0
XRECORD
  5
1F
102
{ACAD_REACTORS
330
1A
102
}
330
1A
100
AcDbXrecord
280
     1
270
     1
271
     1
  0
XRECORD
  5
1E
102
{ACAD_REACTORS
330
1A
102
}
330
1A
100
AcDbXrecord
280
     1
270
     1
271
     1
  0
XRECORD
  5
20
102
{ACAD_REACTORS
330
1A
102
}
330
1A
100
AcDbXrecord
280
     1
270
     1
271
     1
  0
XRECORD
  5
1D
102
{ACAD_REACTORS
330
1A
102
}
330
1A
100
AcDbXrecord
280
     1
270
     1
271
     1
  0
XRECORD
  5
1558
102
{ACAD_REACTORS
330
12
102
}
330
12
100
AcDbXrecord
280
     1
102
MATERIAL
148
0.0
149
0.0
149
0.0
 93
        0
 94
      127
282
     0
 72
     0
 77
     0
171
     0
175
     0
179
     0
273
     0
  0
XRECORD
  5
14
102
{ACAD_REACTORS
330
12
102
}
330
12
100
AcDbXrecord
280
     1
270
     1
271
     1
  0
XRECORD
  5
13
102
{ACAD_REACTORS
330
12
102
}
330
12
100
AcDbXrecord
280
     1
270
     1
271
     1
  0
XRECORD
  5
F5
102
{ACAD_REACTORS
330
12
102
}
330
12
100
AcDbXrecord
280
     1
 70
     1
 90
1959938040
 71
     1
  1
2B709659-4BEC-476D-8834-8B4BB37958F4
311
504B03040A00000800009D3AB1423DEE336E79000000790000001B0000006175746F6465736B2D64657369676E2D7061636B6167652E786D6C3C3F786D6C2076657273696F6E3D22312E302220656E636F64696E673D227574662D3822203F3E3C666F726D6174733E3C666F726D61743E687474703A2F2F736368656D612E
311
6175746F6465736B2E636F6D2F64657369676E2D7061636B6167652F323030393C2F666F726D61743E3C2F666F726D6174733E504B03041400060808009D3AB142D486FD9CA0000000F4000000130000005B436F6E74656E745F54797065735D2E786D6C7D8EC10E82300C865F65E91D8A1E8C310C0EEA1BF002731658846E
311
D98AC1B77784ABF1D8FE5FBFBF75BBCE937A534CCEB38643598122B6FEE978D0B0485F9C41B54DDD7D022595594E1A469170414C76A4D9A4D207E29CF43ECE46F218070CC6BECC4078ACAA135ACF422C856C0E68EA1BF5669944DDD7BCDE7B1F8E415D77AECB980613C2E4AC91FC167A2B244592486606FC29C8FD7F045B9A
311
EF7053A7E60B504B03041400060808009D3AB142866B5B7FEC0000007C01000008000000636F72652E786D6C8D90416E83301045AF62CDB632D83894808CA342CB097A01CB38C44AB011B6AB1EBF262152BBEB6A467FFE9B197D7EFA9E6FE84BAFDE38DB02CD08206D951B8D9D5A88E18C8F804E82AFCE855F364056CEBA85
311
4D06C1A7D5C5659794B341DB9054EB46BD8BD27B1D00A95B6A5AF0EAA26799C91892C35FB345AAAB9C74469F5D826334237A1C3163DA67CE46AF2086E1C0FAB7A1C75D5D337C783F0EB87B653D2EAA815635E948D77FF07C83050F667EDE57AB96418F200A42192625A6D527A99A8234E5F185940D233CDFEC7FA0B88CFF84
311
A2B18115FBBB0FCC83A0E991FB40F07CCB22957B50A96EB9891F504B03041400060808009D3AB14255019EA25F0000007C00000007000000636E782E786D6C4DCB3B0E80201045D1AD90E915ED2CF8AC45050C11660C8261F98AB1B07AC9C97D42D718D865D3E909258CFD00CCE24AC6E326A164D74DC0B4128928FF326038
311
472BA13128B1252AC747C6BAB984FC68F0B87FE8960A5C09FE86CFB69FBA01504B03041400060808009D3AB1426A23EDA768010000020300000C0000006662782F636F72652E786D6C8D525B6E833010BC8AE5DF0A6C202949641C155A4ED00B38E05014B091B1518EDFE511D154511421196B66677776801DAF6D830669FA
311
5AAB04073EC548AA4297B5AA12ECECD9DB6174E4CC686DFF9461A4442B133CC298B3CA68D72D50A19595CA02AA74291750F4BDB418150D5C12DC173FB215BE70162AFA8BDF89E2222AE9073ED050C7596F0D1840F390F1C4FC7CBA3232E39C3957970B5B9730AD3ED7D2609EE79B28FBC8332FDDEF236FF3B9CBBDF43DCABC
311
30CE83784F539A665F8C8C62CE6CDDDEDC15460A2B4BCC431A441EDD7A41FC4DE343480FDBDD1BDD1E22CAC8587E27725DF9A2C8D5CA46E1627796F59807606422FE6D0B1159D48B01FC10CEC81822BCA684EF83864020642B4ECD6D8F0B40832CAC361B604AED566A108D933095A2E9616466A1F3D400367BD8277CD2E779
311
0FF8804255604D58B89E9C1DA7B379EA1245278D37D82B52DAB4A259CDCD16D7731DF4505EE8469B57D46459952C6192F1EFE5BF504B03041400060808009D3AB142080A9D637E0000009D0000000B0000006662782F636E782E786D6C4DCCD10A83201886E15B91FFDCA5D5D2408D65ED3E625948A6C3E5D8E5AF46073BFA
311
E0E1E315CD6775E86DE2CB062F815E0820E31F61B47E9690B60973408D123184EDEF06C80FAB9170302831C7909E278D661A92DB7675D62F275625B9B6F7BCC0755E115C6AD663AE09C3FCD6D2A2AF19ED74079912D9AFB4EF11565F504B03041400060808009D3AB142D5DD703A2B01000014020000310000006662782F36
311
343035424632332D393236302D344337452D384330372D3841423133453937314443442F636F72652E786D6C8D515B6EC32010BC0AE2AB55850D7E3BC244CDA327E8051C20294A0C168F2AC72FD48ED4FEE58745B333B3A35DBABD4F37F02DAD53460F90641802A9B9114A5F0618FC1975106C19B5C6F83F3408F438C90126
311
18327AB126CC2BC48DF652FB886A23E40A8ECE490F01BFC5CF001DFF92D3988DC14786BB66F3C8AFE34566248BEDC863D4791B038065487A216B2A5CEF3E8A12F5458351B56F8FA8DBE31675EF3B521EFB961CF6079A2F4246435062952B11E3A8B392F659932466D4ABE9119F5B397A29202B302911AE11693F71BB29F0A6
311
EEDE70BD2931CD13FD9F28CCE2495150DA97C51A779139C808CD9706A3C284D3ED1146DE67633D48F35E9CE4AF90E10C13D2547DDFD17CA1C60544CFA65A3D9D37362EF8E57A8A6C522FC64DC5689E6E14CBEF01634DF7643F504B03041400060808009D3AB142AD4529AF4D01000033030000300000006662782F36343035
311
424632332D393236302D344337452D384330372D3841423133453937314443442F636E782E786D6CD593BB6E032110457F05D146FBF25B168BA514F98214695918DBC42CAC7844F1DF67B0B1E3C645CA346875E772EFE88865BBEFD1902FF0413BDBD3AE6E29012B9DD2F6D0D314F7D586921D67DEB9F860A3C48A117A9A65
311
CAD9C1BB341549C15E24135135DA9E8AE821B8E4250494F34D629C140603C05609451807500A14B91BF16B0F1E57417138937804F2F6FA41DCF0093206D6E414CE9ADCC1593E4BD38389126944083D0DF208A3A8458A4E4138D54A445177F5ADEBC94EBF49245FB85526AF492EEF693E292F1BD5C8913538E42C448FF48A29
311
9E27A05C4C93D1524484DC5C8C570F6749DBB85A14AF46F01EDDDD6ABE5860D865C659D4231487F4202228CA676D37AFDA65D5ADDFDBF576D66E979B9776B99DB7ACC976CE06E74CB98431E0DD44A4B3116CA4BC634D1E3FC3577C44698FAC9D3FFF01240228AD573AF78CFFCCA7B9BC6FC4E5F12FE03F504B030414000608
311
08009D3AB1420CEF044FA405000081100000340000006662782F36343035424632332D393236302D344337452D384330372D3841423133453937314443442F6F626A656374732E786D6CAD57D96EDB3814FD1541F332F360CB5B1267A0A888EDA630DAB4458D14F360C0A0254AE1845A4052A9335F3F8722254B8E9D7A067D
311
D1C2E5F2DE73CF5DE8BFDBA5DC79A642B23CBB7187FD81EBD02CCC239625376EA9E2DED475DE05BEC873D55AE63A1949E98DAB87DDC04F445E167628A23129B93A18BD9BFDE5C89066D475424EA4BC7165F84853D227A5CA232A9FFA1151A49FC4BBFEB06F1676C52682148F07420B2268A6A029C63348718C52C3EEEFC0F5
311
02DFD3F381AF9F76D5F8F42AAFB2A77B3ECBA42259F8EAB00331E3E164F17E7471DDBB984CC6BDC9E568D89BDDCD16BDE1D57830BF9CCFAF6FDF5FE360A90424594D048DDDE003B0112CF43D3315F825CBD4786497580779823E33ED2937183943DF336B1AEBAC91C7D40FF32CA3618515D0A8ECB3A2235AD02C82CF1995D0
311
AC85D0A0FB3BD438B6A6C7FADF1ED91E3E0F81F68E96A05AF7FADDD634DFFE0D13E4390C12926A061A2CADA186AB833DC2DB3CE7768E4927258A0A46B8C3D95610F1E20658AA97047E478C66B2D0D1A02D700378C14C77E98230FA39CF8F6919979C6B1ABB4115051BC40A55B2D28CFD43C55EFB3632D009BED26C985A83D4
311
4B41DDE0DA50647AC02603A4137392C0E53053EF1C8F0E0C9DEB385D2EDCE0E3DD76B7D2B17BFCF042E405154AD307D4AA1D57BF354A56A7E1599ED31BDC0355F6A07C03F29F11EA7B55E037C17693DDC49EA204C9649C8B14BE71064E6F80C7C019564FFDDDFAF2BD6673D77BA7F084B33554BF00CFAE0D6D5FB6E00CFC67
311
103E17636BDA2A241C69E39E65004893C4E139869087E3EDCE0D96C872C8CAD845783084C950F7199FBE67C520515427B5DE19B03C488B672468C05631126A18F25B05F77E7A95CEAA83EDB253F05EFC12BADE2E561F57A5884948EF6D4C2F68CC32A650E2F6BC692BD4C1BC63D1137DF9918B0886BEC67BD5C63BB54749A0
311
AD31D7C027754ED73FFB933B0784D897E43ADDF83F390146E8C2DA927FCF6448392719CDCBFADC37EB07CA86815807BB66725360F68505A43133073188221D0A5668109B6AD524CDFE09EB1E969FC1483798BD7C222FEDECB5DDE7DE30E7B9D86C5F36262D1D85FA7B97DB16034F4B01DDAB20A9E3DF82BE89581C971249F0
311
08AEDF97F3B6EF745A408AA8A59A6899C07E04171196B4B55C546B415049F36CC350371177470F68CB07A4960195C0531A4BCAE30DE3BC4C3731E3A8469B941427E0F8FFFA6FCBB4D890342F3375427647755487AEEE1DF6CA1F44858F6EB0AADEBD19726F44A31364D0B5E408561DD78E665783EB4BF44F93D9FB796F7275
311
B9E84DA7E3496F3A9BCC66E3ABEB8BE9DDA4F693D124F0EB52D38E687809A5CD2F05B3EE7B58227E6C1270837BA2E4FA8309CFFAFDB0ECA317F63DEC41BD6C36DE46CFE8FB68F47301FB9547052DD382D394668AE818BAD71FFC1B419FD151C68C2F5392D033A47CF9B03A30062367ECFBAAE39DFE38D86B47E73A208F0A51
311
8F65BACD08E3071B138364BFC8128B5FED93E66D0A4DFDABFFAC63D099CA9CB308793072129AA754211B9E5184444A25A8D7EEE9237BF73863F7B3E91015D9725A6BF248D0247389B000B5CA5075C79DDFD0D4E9BEEAC645B9ED3FE1613385EB8033372E9A74C5422AFB5B1468DD0A55C2C1A576278FC69F640947AF6D3635
311
FFCD2E8D4DA724374BCEE99FAC5D26855B0390460AF40D6888E09D4A99C0AF74B3F3E17F32BC56C7210A9FDB5235B6EC071A63AA6310A2C6287B5B4013F3648FDE2150DF366BD8AFD6741039EB96F526098CD49E2222A96E0A5A3FABD2EDE2AB870EC5597E710A5E26F0E5F9927A8282CCA50E70B008ACB0320BA240D5F99F
311
EBAF22C74D3675EE1828E0FCBE9B5EFEB19EE7699A6766687D6BEFC3CEEA11B7DB688DE440F5B544AE4783E1685D5D07EC0D65B32592F649249F3000CF0AD600DD713F7869EE8CA84366A259E769571C3074B9706C6143A6ADD7B773AB06078D47461DC490BE52EA88692F28DEBC1178D552A820D0CB07FF02504B03041400
311
060800009D3AB142000000000000000000000000350000006662782F36343035424632332D393236302D344337452D384330372D3841423133453937314443442F76657274696365732E62696E504B03041400060808009D3AB142F270F1330600000004000000360000006662782F36343035424632332D393236302D3443
311
37452D384330372D3841423133453937314443442F747269616E676C65732E62696E636660600000504B03041400060800009D3AB142000000000000000000000000370000006662782F36343035424632332D393236302D344337452D384330372D3841423133453937314443442F617474726962757465732E62696E504B
311
03041400060808009D3AB142D5987DFC8F00000041010000360000006662782F36343035424632332D393236302D344337452D384330372D3841423133453937314443442F6469726563746F72792E786D6C858F410EC2201045AF4266AF15DDB800BA74E7C21B903225242D6328188F2FA5C4183471359997F9FF81E89FF3
311
C41E1816475E02DF1F80A11FC8386F25A438EECEC07A250251FC3803E6F58C12560C4AD840E95E91C151A72936F496F35732D860FE635F62C8F2DA16B505C545B74125BAA2FA9E05D7CC053D063734D5C7665FD55B6B8D15D5E9BFEAFD8490FFA45E504B03041400060808009D3AB14295C075E7FE000000A00100003B0000
311
006662782F36343035424632332D393236302D344337452D384330372D3841423133453937314443442F7265736F75726365732F636F72652E786D6C8D504B6E833010BD0A9A6D6530104A40C651A1E504BD806526D44AB0913F558F5F13A8D4EEBA9919BD8FE6E9B1CBD7724F3ED13A657407794A21412DCDA4F4DC41F057
311
7286E4C29935C6FF9241A2C5821D6C3070365B13D60392467BD43EA2DA4C7880C239F490C87B3C3A70F20317918AE0A3C2DDD255C89B9831CDD348471D67CEDB1820D99F6C13B845678295E858B6B39C85A0A643A3A6F8535D155AE0E3782A8797B1277DD394E4F47A1E49FF5C0EA4A8C7BC6E684FFBE18D659B9933AF969F
311
8CD2A2F038012F685E125A91BC7EA7755BD0B63A3FD1AA2D29CB36F91F5358A77F9A82D2BE2C8EB8BBCD01CF639007C159B6F515D7A3CCB8B76EF937504B010214000A00000800009D3AB1423DEE336E79000000790000001B00000000000000000000000000000000006175746F6465736B2D64657369676E2D7061636B61
311
67652E786D6C504B010214001400060808009D3AB142D486FD9CA0000000F40000001300000000000000000000000000B20000005B436F6E74656E745F54797065735D2E786D6C504B010214001400060808009D3AB142866B5B7FEC0000007C010000080000000000000000000000000083010000636F72652E786D6C504B
311
010214001400060808009D3AB14255019EA25F0000007C000000070000000000000000000000000095020000636E782E786D6C504B010214001400060808009D3AB1426A23EDA768010000020300000C00000000000000000000000000190300006662782F636F72652E786D6C504B010214001400060808009D3AB142080A
311
9D637E0000009D0000000B00000000000000000000000000AB0400006662782F636E782E786D6C504B010214001400060808009D3AB142D5DD703A2B010000140200003100000000000000000000000000520500006662782F36343035424632332D393236302D344337452D384330372D3841423133453937314443442F63
311
6F72652E786D6C504B010214001400060808009D3AB142AD4529AF4D010000330300003000000000000000000000000000CC0600006662782F36343035424632332D393236302D344337452D384330372D3841423133453937314443442F636E782E786D6C504B010214001400060808009D3AB1420CEF044FA40500008110
311
00003400000000000000000000000000670800006662782F36343035424632332D393236302D344337452D384330372D3841423133453937314443442F6F626A656374732E786D6C504B010214001400060800009D3AB14200000000000000000000000035000000000000000000000000005D0E00006662782F3634303542
311
4632332D393236302D344337452D384330372D3841423133453937314443442F76657274696365732E62696E504B010214001400060808009D3AB142F270F13306000000040000003600000000000000000000000000B00E00006662782F36343035424632332D393236302D344337452D384330372D384142313345393731
311
4443442F747269616E676C65732E62696E504B010214001400060800009D3AB14200000000000000000000000037000000000000000000000000000A0F00006662782F36343035424632332D393236302D344337452D384330372D3841423133453937314443442F617474726962757465732E62696E504B01021400140006
311
0808009D3AB142D5987DFC8F0000004101000036000000000000000000000000005F0F00006662782F36343035424632332D393236302D344337452D384330372D3841423133453937314443442F6469726563746F72792E786D6C504B010214001400060808009D3AB14295C075E7FE000000A00100003B00000000000000
311
000000000000421000006662782F36343035424632332D393236302D344337452D384330372D3841423133453937314443442F7265736F75726365732F636F72652E786D6C504B0506000000000E000E0080040000991100000000
310
504B03040A00000800009D3AB1423DEE336E79000000790000001B0000006175746F6465736B2D64657369676E2D7061636B6167652E786D6C3C3F786D6C2076657273696F6E3D22312E302220656E636F64696E673D227574662D3822203F3E3C666F726D6174733E3C666F726D61743E687474703A2F2F736368656D612E
310
6175746F6465736B2E636F6D2F64657369676E2D7061636B6167652F323030393C2F666F726D61743E3C2F666F726D6174733E504B03041400060808009D3AB142D486FD9CA0000000F4000000130000005B436F6E74656E745F54797065735D2E786D6C7D8EC10E82300C865F65E91D8A1E8C310C0EEA1BF002731658846E
310
D98AC1B77784ABF1D8FE5FBFBF75BBCE937A534CCEB38643598122B6FEE978D0B0485F9C41B54DDD7D022595594E1A469170414C76A4D9A4D207E29CF43ECE46F218070CC6BECC4078ACAA135ACF422C856C0E68EA1BF5669944DDD7BCDE7B1F8E415D77AECB980613C2E4AC91FC167A2B244592486606FC29C8FD7F045B9A
310
EF7053A7E60B504B03041400060808009D3AB142548358B6EC0000007C01000008000000636F72652E786D6C8D90416EC3201045AF82D856D8608C635998C84E9A13F40208888B128365A0EAF18B13476A775DCDE8CF7F33A3CF8FDFF31D7C993558EF7A480A0C8171CA6BEBA61EA678452D0447C157EFE32F1B044ECEA687
310
9B0C059F569F965D52DE45E362569DD7661765082642A0EEB9E961509F6696854C313BC2AD58A4BAC9C914E4D5653825ABC1F388D5799FBD5AB342416BC686B6AE50D3B00BAAEBF11D8D27DAA0F18C87CBA93A53520FBCDC60C1A39D5FF7D56A64341A8A0A138A3043E4F0810F5D853BD6BE61D651CCCBCDFE074A8BFE2794
310
AC8BB4DADF7D62010A921F790C042FB72C72790495EB969BF801504B03041400060808009D3AB14255019EA25F0000007C00000007000000636E782E786D6C4DCB3B0E80201045D1AD90E915ED2CF8AC45050C11660C8261F98AB1B07AC9C97D42D718D865D3E909258CFD00CCE24AC6E326A164D74DC0B4128928FF326038
310
472BA13128B1252AC747C6BAB984FC68F0B87FE8960A5C09FE86CFB69FBA01504B03041400060808009D3AB1429FD82F2B68010000020300000C0000006662782F636F72652E786D6C8D525B6E833010BC8AE5DFCAD8BC9228328EF2684ED00B38E05014B091B1518EDFE511D154515421196B6667777680EFEE4D8D7A65BB
310
CAE80C8701C348E9DC14952E33ECDD956C30DA096E8D71BFCA30D2B251191E602C78698D6F672837DA29ED00D5A6503328BB4E398CF21A2E19EEF26FD5C8407A0715DD2D68657E93A50AC20068A813BC73160CA069C8706271BDDC399D70C1BDAF8A99AD0A98565D2B65B1889334DD6F9288AC56E99924C9E1931C8EF18A1C
310
4E6C7F3E46A7384CF69C0E62C15DD53CDCE55649A70A2C2216C684A5245C7FB1F53662DB74F3C1D26DCC381DCA9F44BE2DFE29F295767134DB9D641D16211819893FDB42440E75B2073F54703A8408AF31E1E7A0211008D9C94BFDD8E30650AF72676C024C61FC42F5B2F60AA632343E9C4E2C741E1BC0662FFB446FFABCEF
310
011F50EA12AC4907D78B77C3743E4D9DA3689525BDBB236D6C23EBC5DC64713997412FE5B9A98DFD8F9ACEABD2394C3AFCBDE207504B03041400060808009D3AB142DD0388457E0000009D0000000B0000006662782F636E782E786D6C4DCCDF0A83201C86E15B91DFB9EB8FE20CD4A039EF239685CC349C8E5DFE6A74B0A3
310
0F1E3E5ED17F568FDE36BD5C0C129A4B0DC886479C5C5824943C630EA85722C598FF6E80C2B85A090783124B8A653B69B2F3587CDED5BBF03CF1AEB921B786606A688BA9E60C737265B8664C9B410F2DED3AA894A87EA57D8FB0FA02504B03041400060808009D3AB1428D59C37A2C01000014020000310000006662782F45
310
443846334331332D344634322D344438362D383337362D3036364446424442323439392F636F72652E786D6C8D515B6EC23010BC4AE42FAA2A899D18139063249A72825E20D8062C881DF95171FC6E9A20B57FFC78ADD999D9D12EDF3F867BF6AD7D30CEB688141865DA4AA78CBDB428C573DEA06C2FB8772EFEA1A1CCF683
310
6ED10423C12FDEA57181A4B351DB08A8754A2F601F828E289377F8B428C8AB1EFAA24F1118E1568CBDBCF5175D9002DAC0133C440F01B279C8F422F1D935C7FA83D4393DD22AA75DC3F2A6DEB01C33D61D0FDDA1A2DB2D2F67A1E02919B5C88D8238E66CB47FD564120B1ECDF08C2FBDEEA35648541802E0754E365F78B3AB
310
F06EDDBCE3F5AEC6BC9CE8FF4469542F8A92B1B1AE96B8B32C204178393704572E9DEECF30FA313A1FB369DE2A68F986042E30A90861B4E6E54C85058027A38B6788CEC38257B713B0EBC59851C1CBE946507E0F0875BAA7F801504B03041400060808009D3AB142CBE2E6B85701000033030000300000006662782F454438
310
46334331332D344634322D344438362D383337362D3036364446424442323439392F636E782E786D6CBD93CB6EC32010457F05B1ADFC8AF3B0224CA42EFA055D748B61D2D0D860F1A89ABFEF9090349B2C2A55DD20EBCEE5DED11166BBAF69249FE0BCB6A6A74D595302465AA5CD7B4F63D8171D253BCE9CB5E1CE46891113
310
F434C994B37767E39C25057B11C780EAA8CD318B0EBC8D4E824739DD24A39562C40030454411A6019402456E46FCDA83C355501C4E241C80BC3CBF113B7C800C9E552985B32A757096CEDC7467A2448EC2FB9E7A798049942206ABC01F4B2582289BF2DAF560A79F24922E5C2BA3D32495F7349D94E78D4AE4C82A1C72E683
310
437AD9144E33502EE679D45204845C9D8D170F67519BB05E66AF46F00EDDED62DD7518769E7116F404D9211D88008AF245DDB445BD2A9ACD6BBDD92EEAEDAA7BAA57DBB66655B27336583BE64B1803CECE445A13C004CA1B56A5F1237CD9479476C8DABAD32F402280DC7AA173CBF84B3ECDBA5D2EFF914F757EDF88CBE15F
310
C0BF01504B03041400060808009D3AB142858F3AAC640700009A1B0000340000006662782F45443846334331332D344634322D344438362D383337362D3036364446424442323439392F6F626A656374732E786D6CED59DD739B3810FF5718EEE5EEC1D8C44E9ADC103AB1D3743CBDB49DFADAB907CF3032C84417211849A4
310
F1FDF5B7FA00033109BEE6DEFA6003425AEDFEF6534BF0F631A3CE03E682E4ECD2F5BD89EB6016E70961E9A55BCAEDE8DC75DE8601CF73D998E63A0C65F8D255C36E18A43C2F0B3B94E02D2AA9EC8CDECCFF72448C19769D9822212E5D11DFE10C79A8947982C5BD972089BC74FBE8F99E99D8269B7254DC75881688632681
310
53186740C5314CF9EDC7893B0E83B17A1F06EADFCE9A0E9A35EB9F35D652B7B9244C48C4E2272C75C84C07B134F567D7EF4E4E2F46A7B3D974343B3BF147F39BF9F5C87F339D2CCE168B8BAB7717C0DE26CFA99529C1056609E86FE7867E30566F6AD12D0287B88E73C670AC8104A8B4585D82040BD8AA01DFA4FDE82B891A
310
AFB5848DE7997A6F59680C4FDB54FA660D03A2451704B1DB551257D7A67CF9E66F105C0C314A2EB0046E85E4A05D0B0F07AF70C3493036A361B0D9EB82082743127382A843C986230E4A81A96A4A189805968C720E0EA41C2581D69C79DDB62DF0CC975DE71097DB9252E5196EA81D2B02F7C35268CEC83F98EFB96F22033C
310
81B42561F2DC7229770576C38B60AC07C3405DA627F6A501D2D952940A8D8879DB1174A15C7F79ED861F6E368F2B150E0E6F5EF0BCC05C2AA3537AD47C8121DBAB42C96EEB0FD29C5A00C21850EDCA3D285F00F98F103DF6AC80DE38799C3DCEEC5CC91113DB9C67A01B67E28C26F037717CFDAFEE1B77C1B85EDCD65E1F9E
310
E0A60AAAF31FC7B32D83C6CAF2DF80330C1EC0E0733EB5AF5631A260CFB7840140CA481C9AC31084F6EDE6D10D97103821D0C32A44431F4406761FE036185B327BAD54EE65BD8E01A2768FE91025016CDA22818D1E3DBD87ECC149BC575353C43E784F5FC55CAFAE571F5625DFA218DF5A9FBEC65BC28884AC7998A116E62D
310
89EEF1EE7BCE1310F429DEAB26DE99DD4A00DA0A73057C5A81A01EF63BB73688615D9AAB7013BCB00308A1727583FE2D1131A614319C97D5BE757453865A7BBCAD19DCF0C4403C3DE99830C70F445515E034FB192D4621EFC79C140A44377C6F24AB83A6D723DDD7E547B0C87A7ECFAC2583D0CB10FD5307AD0338B42CBB42
310
DA02510BBCD987F338A7398F36BBC8443A176A0960A3ED2DDF5A4421D61B25292AE041DAEFAA90921A69A3846CB7A580B87A80C56FCB45D31C26DED43F759AFF1D679C41B405DF45DCFA5D678F886428C5D116257DDB3577AB690B4DB28734C75B0A72910722771192D124C1E931D01C45FCE255A9A7341782302C205F1D04
310
BF89C6C4834062B459B1ACB4DA019A8828C312D1631050647AC0D56947D7B831940E2FF3585BEF731A6B12FD9F2C8223A82573161128452187BCC8B8EF9D420C69A36B50EEE00BD656D1D662D0124A8878177DC724BD93C7A06EC8F7E01EC391A494515EA018CC7A00D927BEA294DAE17D83E27B953FA2B8A4AF652002D36D
310
44282DB3087E84C1C963886BD781E959141AC44DEC933883A20CC9920FD9E4EC74F2641F533374436063A32DA110B6A30C153DA8B702A2AE479C1A7C4BBD47A99B322B2294E5251B6428DEB4EB4D967C57AD8AEC407E55A908656345D8120C03C2649D55AB980DA6AE032BB8910E54BB48A0ACA0E614F642E2F16B6FD2947B
310
37E0D64F5F77830C0ABF1EED3523EAAC82C1F2D82A0CC47724E33B375CE9EB680EF57782937DAAAF6ACD66050888A9485E726255F47509E58DADD1DCF01649B17E6FB26E75FDBAF4A0FB118C610DD42EF5C2A5023AC34C225599DCAA1BFA0541086ED130E34B95538FA1729524BA6A44F486F4A9B35546B436CD8857DC6196
310
67F0636BC2625A26788D12711FDD4A1AAD8862DD4AE965A4C2F859013FBD5F75E0819101227D56051EFEDE596B4717AA5C3A4844DE95D986210241B0255A6A74E3152CB51AA9B45C5FD59902EA2E3030ABE2D9CF9345B31DF1F364915AC3F8A193C57CF707DA35FB228D741E2BBB3EEA1850E72745E5358E01BAED5053ADB3
310
8849E6567EEB4C1104C52ACA0FAEC6AAA06108F671FC9FB3765F1634DB75F83F2E6BFB4F2A8EA3B24A6BB2EA521DA85C97CD1C76327F33B9388306ED6CFE6E319ABD39BB1E9D9F4F67A3F3F96C3E9FBEB9383DBF99D5686A470D833A98E9DC05CF26A855C3EAC962005D59915392C0693E71520C315FC2997E40FB9C675840
310
F26C36BB13DB941FB0FAC1F43925DA505C717287A0414C05A475C0A88C657BDCF9055A93120EDA972E348DBC7BF8B356E93A90792E5D6815481263E16DA0CDA41A7A9A38A45C9DFB2D31C007B154A544B3A87EAE57296C5AE1BF9E32240D58B95A3D0C28DC0AE87EB53A149A37CB537C94E0153B0E9270BB2925546B4696FD
310
402D8CDE66AF7E231B25ECDE6EFD08AEFBBC58BEA7E7B41019F4C9E0592330544712F154F7BB156396A5ABEBCF63E8B339CB4F4E41CB1474399CD2886330E6521554604560159666812498EAE2F7F5679EC3279ECCD15591F3EBE3F9D96FEB459E65393343EB2B389525F0A1C859DDC1679F640DC50356CD75B13E99F8276B
310
DDD4B67DF6688304F6545504035531A104E9981CD8E59306956D5F8E952A3AD397D78E0DA2D00C3076F4A4C76B3E7239E043EA738AF218EDE795B4CFF6B5C77A2AD804878E74F82F504B03041400060800009D3AB142000000000000000000000000350000006662782F45443846334331332D344634322D344438362D3833
310
37362D3036364446424442323439392F76657274696365732E62696E504B03041400060808009D3AB142F270F1330600000004000000360000006662782F45443846334331332D344634322D344438362D383337362D3036364446424442323439392F747269616E676C65732E62696E636660600000504B03041400060800
310
009D3AB142000000000000000000000000370000006662782F45443846334331332D344634322D344438362D383337362D3036364446424442323439392F617474726962757465732E62696E504B03041400060808009D3AB142D5987DFC8F00000041010000360000006662782F45443846334331332D344634322D344438
310
362D383337362D3036364446424442323439392F6469726563746F72792E786D6C858F410EC2201045AF4266AF15DDB800BA74E7C21B903225242D6328188F2FA5C4183471359997F9FF81E89FF3C41E1816475E02DF1F80A11FC8386F25A438EECEC07A250251FC3803E6F58C12560C4AD840E95E91C151A72936F496F357
310
32D860FE635F62C8F2DA16B505C545B74125BAA2FA9E05D7CC053D063734D5C7665FD55B6B8D15D5E9BFEAFD8490FFA45E504B03041400060808009D3AB1423C690587FF000000A00100003B0000006662782F45443846334331332D344634322D344438362D383337362D3036364446424442323439392F7265736F757263
310
65732F636F72652E786D6C8D50596AC33010BD8A99DF225BB26C271859214B73825E40C8934424968296D2E3578E5D68FFFA3333BC85793CB1FB9A1EC527FA609C1D8095140AB4DA8DC65E0748F142B650ECA4F0CEC55F3228AC9A7080190629AEDEA5E70A696723DA9851EB465C4115024628F4231F03047DC349952AC5AC
310
08F7F2A9F45D5DB16465A6B34E8A107D0E502C4FE609D26370C96B0CA25A58295232E3AA3163FE692E063D48DEB4ED7EDB30D275ED9934CDE19D1C8EBC238713DD9F8FF589B3662FAAD92C4534D34F46ED51451C41D69471425BC2361F74D3D7B46FB76FB4ED3915D52CFF634ACFF19FA6646CE4F51A77B105902C07791152
310
54735F79BDCACC7BEE567E03504B010214000A00000800009D3AB1423DEE336E79000000790000001B00000000000000000000000000000000006175746F6465736B2D64657369676E2D7061636B6167652E786D6C504B010214001400060808009D3AB142D486FD9CA0000000F40000001300000000000000000000000000
310
B20000005B436F6E74656E745F54797065735D2E786D6C504B010214001400060808009D3AB142548358B6EC0000007C010000080000000000000000000000000083010000636F72652E786D6C504B010214001400060808009D3AB14255019EA25F0000007C000000070000000000000000000000000095020000636E782E
310
786D6C504B010214001400060808009D3AB1429FD82F2B68010000020300000C00000000000000000000000000190300006662782F636F72652E786D6C504B010214001400060808009D3AB142DD0388457E0000009D0000000B00000000000000000000000000AB0400006662782F636E782E786D6C504B01021400140006
310
0808009D3AB1428D59C37A2C010000140200003100000000000000000000000000520500006662782F45443846334331332D344634322D344438362D383337362D3036364446424442323439392F636F72652E786D6C504B010214001400060808009D3AB142CBE2E6B8570100003303000030000000000000000000000000
310
00CD0600006662782F45443846334331332D344634322D344438362D383337362D3036364446424442323439392F636E782E786D6C504B010214001400060808009D3AB142858F3AAC640700009A1B00003400000000000000000000000000720800006662782F45443846334331332D344634322D344438362D383337362D
310
3036364446424442323439392F6F626A656374732E786D6C504B010214001400060800009D3AB1420000000000000000000000003500000000000000000000000000281000006662782F45443846334331332D344634322D344438362D383337362D3036364446424442323439392F76657274696365732E62696E504B0102
310
14001400060808009D3AB142F270F133060000000400000036000000000000000000000000007B1000006662782F45443846334331332D344634322D344438362D383337362D3036364446424442323439392F747269616E676C65732E62696E504B010214001400060800009D3AB142000000000000000000000000370000
310
0000000000000000000000D51000006662782F45443846334331332D344634322D344438362D383337362D3036364446424442323439392F617474726962757465732E62696E504B010214001400060808009D3AB142D5987DFC8F0000004101000036000000000000000000000000002A1100006662782F45443846334331
310
332D344634322D344438362D383337362D3036364446424442323439392F6469726563746F72792E786D6C504B010214001400060808009D3AB1423C690587FF000000A00100003B000000000000000000000000000D1200006662782F45443846334331332D344634322D344438362D383337362D30363644464244423234
310
39392F7265736F75726365732F636F72652E786D6C504B0506000000000E000E0080040000651300000000
  0
XRECORD
  5
17
102
{ACAD_REACTORS
330
12
102
}
330
12
100
AcDbXrecord
280
     1
270
     1
271
     1
  0
XRECORD
  5
16
102
{ACAD_REACTORS
330
12
102
}
330
12
100
AcDbXrecord
280
     1
270
     1
271
     1
  0
XRECORD
  5
18
102
{ACAD_REACTORS
330
12
102
}
330
12
100
AcDbXrecord
280
     1
270
     1
271
     1
  0
XRECORD
  5
15
102
{ACAD_REACTORS
330
12
102
}
330
12
100
AcDbXrecord
280
     1
270
     1
271
     1
  0
XRECORD
  5
155A
102
{ACAD_REACTORS
330
22
102
}
330
22
100
AcDbXrecord
280
     1
102
MATERIAL
148
0.0
149
0.0
149
0.0
 93
        0
 94
      127
282
     0
 72
     0
 77
     0
171
     0
175
     0
179
     0
273
     0
  0
XRECORD
  5
24
102
{ACAD_REACTORS
330
22
102
}
330
22
100
AcDbXrecord
280
     1
270
     1
271
     1
  0
XRECORD
  5
23
102
{ACAD_REACTORS
330
22
102
}
330
22
100
AcDbXrecord
280
     1
270
     1
271
     1
  0
XRECORD
  5
BA
102
{ACAD_REACTORS
330
22
102
}
330
22
100
AcDbXrecord
280
     1
 70
     1
 90
1959938040
 71
     1
  1
6F2D7E73-AFB7-4F75-A774-D9170A8CEAB7
311
504B03040A00000800009B3AB1423DEE336E79000000790000001B0000006175746F6465736B2D64657369676E2D7061636B6167652E786D6C3C3F786D6C2076657273696F6E3D22312E302220656E636F64696E673D227574662D3822203F3E3C666F726D6174733E3C666F726D61743E687474703A2F2F736368656D612E
311
6175746F6465736B2E636F6D2F64657369676E2D7061636B6167652F323030393C2F666F726D61743E3C2F666F726D6174733E504B03041400060808009B3AB142D486FD9CA0000000F4000000130000005B436F6E74656E745F54797065735D2E786D6C7D8EC10E82300C865F65E91D8A1E8C310C0EEA1BF002731658846E
311
D98AC1B77784ABF1D8FE5FBFBF75BBCE937A534CCEB38643598122B6FEE978D0B0485F9C41B54DDD7D022595594E1A469170414C76A4D9A4D207E29CF43ECE46F218070CC6BECC4078ACAA135ACF422C856C0E68EA1BF5669944DDD7BCDE7B1F8E415D77AECB980613C2E4AC91FC167A2B244592486606FC29C8FD7F045B9A
311
EF7053A7E60B504B03041400060808009B3AB142AA91E762EC0000007C01000008000000636F72652E786D6C8D90416EC3201045AF82D856D860ECB85898C8AA9313F402088883128365A0EAF18B13476A775DCDE8CF7F33A3CF8FDFF31D7C993558EF7A480A0C8171CA6BEBA61EA67841EF101C055FBD8FBF6C1038399B1E
311
6E32147C5A7D5A764979178D8B59755E9B5D9421980881BAE7A687415DCD2C0B996276845BB14875939329C8ABCB704A5683E711ABF33E7BB16685829D28A5876144353953540F8C20360E0C8D1F353BB7353B358781971B2C78B4F3EBBE5A8D8C4643516142116E10693F71DB55B86B9A37DC7414F372B3FF81D2A2FF0925
311
EB22ADF6779F588082E4471E03C1CB2D8B5C1E41E5BAE5267E00504B03041400060808009B3AB14255019EA25F0000007C00000007000000636E782E786D6C4DCB3B0E80201045D1AD90E915ED2CF8AC45050C11660C8261F98AB1B07AC9C97D42D718D865D3E909258CFD00CCE24AC6E326A164D74DC0B4128928FF326038
311
472BA13128B1252AC747C6BAB984FC68F0B87FE8960A5C09FE86CFB69FBA01504B03041400060808009B3AB142BEC2200068010000020300000C0000006662782F636F72652E786D6C8D52ED8A8330107C9590BF478C9FED59628A5CDB27B8174835F5A49A484CA48F7FEB47F17A945284186676766747D9FED6366890A6AF
311
B5CA70E0F9184955E8B25655869DBD904F8CF69C19ADED9F328C946865864718735619EDBA052AB4B2525940952EE5028ABE9716A3A2814B86FBE247B6C213CE42457FF53A515C4525BDC0031AEA38EBAD0103681E329E985FCE3746679C33E7EA7261EB12A6D5975A1ACCD36314459BFC40E2E01491384F03921EF2941CBE
311
E2F4B48DD363B2C9191DC59CD9BABDBB2B8C14569698877E10113F21C1F6DBDFEE427F97241F7EB28B7C46C7F20791EBCA3745AE56360A17BBB3ACC73C002313F16F5B88C8A25E0CE0877246C710E13525FC18340402215B716EEE7B5C011A6461B5898129B55BA941344EC2541F4D0FA3330B9DA706B0D9D33EE18B3EAF7B
311
C00714AA026BC2C2F5ECEC389DCD5397283A69C8606F4869D38A6635375B5CCF75D05379A11B6DDE51D36555BA8449C7BF97FF02504B03041400060808009B3AB14286F6D9547E0000009D0000000B0000006662782F636E782E786D6C4DCCD10A83201886E15B91FFDC359BA603356CA3FB886521990EA76397BF1A1DECE8
311
83878F57B69FD5A3B74D2F178302723A03B2E11147176605254F58006AB54C31E6BF1BA030AC56C1CEA0E59C62791E34DA69283E6FEA5D580EE41D659D21069BDB9563CA1A82454D7ADC5F18A18DA0A6E677A8B4AC7EA56DF7B0FE02504B03041400060808009B3AB142605FA6572B01000013020000310000006662782F37
311
423435424131412D414339372D343536312D383231462D4633353134363834413237442F636F72652E786D6C8D515B6EC32010BC0AE22B55651B6C63271126725AE504BD000192A2C460F1A872FC42ED4AED5F7E58343B333BB0F4F098EEE04B39AFAD19202E1104CA082BB5B90E30864BB185E0C0A8B336FCA14160F8A406
311
9861C8E8D5D938AF90B0262813126AAC542BC8BD570102714F97017AF1A9265EF21812C3DFCA998B1BBFAA1297A99D788CFAE05200B00CC92764FDB125C7118FC5F8B6EB8B9674B8D8D6F8549C1A82DB6EDB8E75FF4EAB45C8688C5AAE722D531C7DD1CA3D6B92C58C063DFDC6174EF1A0246435C24D814881FB0FD4EF6BB4
311
27E415917D836895E9FF4471964F8AA236A1A9D7B88BCC438669B5341895369EEFBF61D463B62E803C6FE39578810C95086384FA1DAD16667A7FB2ECDAD5D207EBD2FF6E6EE744C664F1ED5A46ABBCA2547EF6976A5E27FB06504B03041400060808009B3AB14263A60EF94F01000033030000300000006662782F37423435
311
424131412D414339372D343536312D383231462D4633353134363834413237442F636E782E786D6CD593CD6E022114855F85B06DE64F1D6D0C8349177D822EBA65E05AA90C4CF869EADBF7A268DDB8E8B21B3239F770CECD1786EDBE2743BEC007EDEC40BBBAA504AC744ADB8F81A6B8AF9E29D971E69D8B77364AAC9860A0
311
59A69C7D7897E62229D88B6422AA46DB63113D0497BC848072BE498C93C26000D82AA108D3084A812237237EEDC1E32A288E27120F405E5FDE891B3F41C6C09A9CC259933B38CB6769BA3351228D0861A0411E6012B548D12908C75A8928EAAEBE763DD8E93789E40BD7CAE435C9E503CD27E565A31A39B206879C85E8915E
311
31C5D30C948B79365A8A88909BB3F1E2E12C691BD7ABE2D508DEA3BB5B2F572B0C3BCF388B7A82E2901E440445F9A2ED9655DB57DDE6ADDD6C17EDB6EF9FDA7EBB6C5993ED9C8DCE99720963C0BB99486723D84879C79A3C7E84AFF888D21E593B7FFA034804505A2F746E19FF994F737EDF88CBE35FC07F00504B03041400
311
060808009B3AB1421EA08D7DA505000080100000340000006662782F37423435424131412D414339372D343536312D383231462D4633353134363834413237442F6F626A656374732E786D6CAD575D8F9B3814FD2B887DD97D4808496632B362A832C9A48AAA69AB46ADF6215264C030DE31181933CDECAFDF633004D2649A
311
5DF52504737D7DEFB9E77ED87BB74FB9F54265C1447667BBC3916DD12C1411CB923BBB54F1E0C6B6DEF99E144275C46C2B2329BDB3F5B2ED7B8914656E96221A9392ABA3D5D5FD5F5611D28CDA56C84951DCD945F844533224A512112D9E8711516498C4FBA13BAC05FB6A1349F2A723A539913453B014EB19B458B5516EFF
311
75643BBEE7E8EFBEA77F8DD4E4BC9453F9D33F9F65852259F8C361476A26EE74F930BEBA1D5C4DA793C1F47AEC0EEE57F7CB813B9B8C16D78BC5EDFCE11607174A4293B144D2D8F6DF031BC942CFA93FF95EC93235191B11132047D217A62365FB63CBF59C5AA6F5CE3879CAFC5064190D2BAC8046E59F511DD19C661162CE
311
6801CB3A088DFAAFAEC6B1F379A2DFCD91DDE5CB10E8EEE8286A6C6F9E5D4B45F0375C282E61902CA866608DA571B4E6EAE88070200437DF5861A54451C908B7380B2491AFB60F512DE27B3D359AC9526783F6C0F61185FA739F2E48A39FF3FC949571C9B9A6B1ED5759B043AE50555496B17FA83C58DF45063621569A0D37
311
C621F59A53DBBFAD297273C4A61A482BE62441C8E1A6DE39191F39BAD079BA5EDAFE8755B0DFE8DC3D7D782E454EA5D2F401B59AC0354F8D92B1C9BD28727A837D64CA01942F40FE2352FD600AE226D97EBA9F9A53942459110B992236D6C81A8CF033B2DCEA57FFEFFCF39C76733F7AE7F044B03554BF00CFBE0FDD5876E0
311
F4BD17105EC889716D13128EB2F1C83200A44962718125D4E138D8DBFE1A550E5519BB08F75DB80C735FF0D7738C1A148AEAA4CE3303964765F182020DD82A46C28C9AFCC6C0439C7E2867D5C146EC1CBC57BF84AEF3E5E6C3A6943109E9A3C9E9258D59C6145ADC81375D837A98F73C7AA6AFDF858CE0E88F786FBA78A7E6
311
A802686BCC35F04953D3F5CBE1E4DE0121F62542971BEF2727C009DD583BFA1F591152CE494645D99CFB66FF40DBA821D6C9AE99DC369843630169EA2F473988261D4A966B10DB6ED516CDE119EFBEAE3F829190E72220FC20141C4A6F28B890BBE0755757A593487FEB53DB40E0682D607B95234DFA1BCC77118BE3B2400D
311
3C01EBB7F5A21B3A5D1550211AAD75B24CE13E728B48C3D9462F9AB52468A422DB31B44DA4DDC903BAFA81A82140A5F09CC505E5F18E715EA6BB987134A35D4AF23370FC7FFB8332CD77241565A6CEE8EE998EE6D0B7BD47DEE23B51E193ED6FAAE7E01EA537A2D121CC3D61DD4A4E60D50BEDF56ABC9C3DCC2683F9EA7E36
311
98AE665783F96C361D2C6FDDD9687EB37898DFCF9A38D5CA7DAFE934DD844694D0D9BC523213BEAF6BA48FA901B6FF4854B17D5F6767F3FCBA1E6214F61CEC41BB6C37CEA3178C7D34FAB98283E44945EB34E734A599223A851EF51FFE8560CCE81953AFAF5392D00BB47C7ABF3972062B17ECFBACD39D7E3FDA6B56173A21
311
4F2A514F651A6484F1A38D498DE430CF12835F1393F659F799E655BF99C060302D046711CA60642554A454A1185ED083644A0B50AF3BD247E6EA71C1EE977A405424E0B4B1E4896046E605D202D42A43D55FB77EC34CA7C7AA3B1BDD76F88C1F53296C0B9CB9B331A32B16D26218A03FEB49A8520E2E750779CCFD244B3846
311
ED7A53FBDEEED2D8F43A722B72C9F864FCAA2BB871006524C7D8807908D1A98CF1BDCA36F33DFC4F8E37E65844E16F50AAD697C342EB4C750C52B476CA5C1630C33C9BA3F748D4B7DD7287954C0F918B2E596F92A0D63A504426D54541DB674C9A2F3F3B1850ACF5272BE76582585EAE692029C85CEA04078BC00AA333270A
311
545DFCB9FD2C052EB2A9B562A080F5FBFEE6FA8FED42A4A9C8EAA5EDDC5C87ADCD132EB7D116C581EA5B49B11D8FDCF1B6BA0D980BCA2E20051D92A878C602222B590B742FFCE0657D65441FAA3FB4728E0EC51143D74BCB34B629941ABA746BAB06077347462DE490BE51EA8CE90AE46F5E089C4A1426488CF2FEBF504B03
311
041400060800009B3AB142000000000000000000000000350000006662782F37423435424131412D414339372D343536312D383231462D4633353134363834413237442F76657274696365732E62696E504B03041400060808009B3AB142F270F1330600000004000000360000006662782F37423435424131412D41433937
311
2D343536312D383231462D4633353134363834413237442F747269616E676C65732E62696E636660600000504B03041400060800009B3AB142000000000000000000000000370000006662782F37423435424131412D414339372D343536312D383231462D4633353134363834413237442F617474726962757465732E6269
311
6E504B03041400060808009B3AB142D5987DFC8F00000041010000360000006662782F37423435424131412D414339372D343536312D383231462D4633353134363834413237442F6469726563746F72792E786D6C858F410EC2201045AF4266AF15DDB800BA74E7C21B903225242D6328188F2FA5C4183471359997F9FF81
311
E89FF3C41E1816475E02DF1F80A11FC8386F25A438EECEC07A250251FC3803E6F58C12560C4AD840E95E91C151A72936F496F35732D860FE635F62C8F2DA16B505C545B74125BAA2FA9E05D7CC053D063734D5C7665FD55B6B8D15D5E9BFEAFD8490FFA45E504B03041400060808009B3AB14275FF2DDAFF000000A0010000
311
3B0000006662782F37423435424131412D414339372D343536312D383231462D4633353134363834413237442F7265736F75726365732F636F72652E786D6C8D50596AC33010BD8A99DF225B8AECB80EB282C972825E40C8934424968296D2E3578E5D68FFFA3333BC85793CB1FF9A1EC527FA609CED8195140AB4DA8DC65E
311
7B48F142DEA1D84BE19D8BBF64505835610F330C525CBD4BCF15D2CE46B431A3D68DB8822A048C50E8473E7A08FA86932A558A5911EEE553E9BBBA62C9CA4C679D1421FA1CA0589ECC13A4C7E092D71844B5B052A464C65563C6FCD35C0C7A90DD8973BE1D0EA466674EEAA163A43B0E1D391EEAEEDCD6DDA9D90EA29ACD52
311
4433FD64D41E55C411E486324E684358FB41DBDD86EE9AE68D363B4E4535CBFF98D273FCA729191BF9668DBBD802489683BC0829AAB9AFBC5E65E63D772BBF01504B010214000A00000800009B3AB1423DEE336E79000000790000001B00000000000000000000000000000000006175746F6465736B2D64657369676E2D70
311
61636B6167652E786D6C504B010214001400060808009B3AB142D486FD9CA0000000F40000001300000000000000000000000000B20000005B436F6E74656E745F54797065735D2E786D6C504B010214001400060808009B3AB142AA91E762EC0000007C010000080000000000000000000000000083010000636F72652E78
311
6D6C504B010214001400060808009B3AB14255019EA25F0000007C000000070000000000000000000000000095020000636E782E786D6C504B010214001400060808009B3AB142BEC2200068010000020300000C00000000000000000000000000190300006662782F636F72652E786D6C504B010214001400060808009B3A
311
B14286F6D9547E0000009D0000000B00000000000000000000000000AB0400006662782F636E782E786D6C504B010214001400060808009B3AB142605FA6572B010000130200003100000000000000000000000000520500006662782F37423435424131412D414339372D343536312D383231462D46333531343638344132
311
37442F636F72652E786D6C504B010214001400060808009B3AB14263A60EF94F010000330300003000000000000000000000000000CC0600006662782F37423435424131412D414339372D343536312D383231462D4633353134363834413237442F636E782E786D6C504B010214001400060808009B3AB1421EA08D7DA505
311
0000801000003400000000000000000000000000690800006662782F37423435424131412D414339372D343536312D383231462D4633353134363834413237442F6F626A656374732E786D6C504B010214001400060800009B3AB1420000000000000000000000003500000000000000000000000000600E00006662782F37
311
423435424131412D414339372D343536312D383231462D4633353134363834413237442F76657274696365732E62696E504B010214001400060808009B3AB142F270F13306000000040000003600000000000000000000000000B30E00006662782F37423435424131412D414339372D343536312D383231462D4633353134
311
363834413237442F747269616E676C65732E62696E504B010214001400060800009B3AB14200000000000000000000000037000000000000000000000000000D0F00006662782F37423435424131412D414339372D343536312D383231462D4633353134363834413237442F617474726962757465732E62696E504B010214
311
001400060808009B3AB142D5987DFC8F000000410100003600000000000000000000000000620F00006662782F37423435424131412D414339372D343536312D383231462D4633353134363834413237442F6469726563746F72792E786D6C504B010214001400060808009B3AB14275FF2DDAFF000000A00100003B000000
311
00000000000000000000451000006662782F37423435424131412D414339372D343536312D383231462D4633353134363834413237442F7265736F75726365732F636F72652E786D6C504B0506000000000E000E00800400009D1100000000
310
504B03040A00000800009B3AB1423DEE336E79000000790000001B0000006175746F6465736B2D64657369676E2D7061636B6167652E786D6C3C3F786D6C2076657273696F6E3D22312E302220656E636F64696E673D227574662D3822203F3E3C666F726D6174733E3C666F726D61743E687474703A2F2F736368656D612E
310
6175746F6465736B2E636F6D2F64657369676E2D7061636B6167652F323030393C2F666F726D61743E3C2F666F726D6174733E504B03041400060808009B3AB142D486FD9CA0000000F4000000130000005B436F6E74656E745F54797065735D2E786D6C7D8EC10E82300C865F65E91D8A1E8C310C0EEA1BF002731658846E
310
D98AC1B77784ABF1D8FE5FBFBF75BBCE937A534CCEB38643598122B6FEE978D0B0485F9C41B54DDD7D022595594E1A469170414C76A4D9A4D207E29CF43ECE46F218070CC6BECC4078ACAA135ACF422C856C0E68EA1BF5669944DDD7BCDE7B1F8E415D77AECB980613C2E4AC91FC167A2B244592486606FC29C8FD7F045B9A
310
EF7053A7E60B504B03041400060808009B3AB142C03CB88AEA0000007C01000008000000636F72652E786D6C8D90D16E842010457F85CC6B83026AB406D9744DFC82FE0001D625BB821168FAF9C55D3769DFFA34933BF7CC4C2E3F7D2F77F465B660BD1B8016049071CA6BEBE60152BCE00ED049F0CDFBF8CB06C8C9C50CB0
310
CB20F8BCF9B41E92F22E1A17B3EABC36872843301190BAE76680A0AE6691854C313BC2AD58A5BAC9D914F4D5653825ABD1F388D5799FBD58B381A8C79A8DD579C21D9B465C334271776614B76DFD5E8F53C7DA8F91973B2C78B4CBEBBEDA8C8C4683C84085498369FB49DA9E91BE69DE48D3578497BBFD0F9456FD4F285917
310
2B76BCFBC402089A1F790C042FF72C72790495EB9E9BF801504B03041400060808009B3AB14255019EA25F0000007C00000007000000636E782E786D6C4DCB3B0E80201045D1AD90E915ED2CF8AC45050C11660C8261F98AB1B07AC9C97D42D718D865D3E909258CFD00CCE24AC6E326A164D74DC0B4128928FF326038472B
310
A13128B1252AC747C6BAB984FC68F0B87FE8960A5C09FE86CFB69FBA01504B03041400060808009B3AB142D3AE8DEC65010000020300000C0000006662782F636F72652E786D6C8D52ED8A8330107C9590BF87267E61AFC494ABD027B8174835F5A49A483EA48F7FEB47F17A945284186676766747D9E1D6776894C6B65A15
310
380A29465255BA6E555360EF2EC10EA30367466BF7A70C23257A59E009C69C3546FB61852AAD9C540E50A56BB982C25AE930AA3AB814D8563FB217A1F00E2AEC351C4475158D0CA31068A8E3CC3A0306D032643A31BF9C6F8C2C3867DEB7F5CAB6354C6B2FAD3498A7651A97C9F114ECE25319A4318D82DD318E823C4F3FD3
310
F2B48BF3AF929149CC996BFBBBBBCA48E1648D390892806641947FD37C1FD37D967DD06C9F5046A6F207911FEA3745BE552E8957BB8BCC621E819199F8B72D44E4901523F8219C91294478CD093F060D8140C84E9CBBFB1E57804659396D52606AED376A149D973095A2F9616461A1F3DC00367BDA277ED1E7750FF8804235
310
604D38B89EBD9BA6B365EA1AC5204D30BA1B52DAF4A2DBCC2D16B7731BF4545EE94E9B77D4645D95AC6192E9EFE5BF504B03041400060808009B3AB14278F5F9D57E0000009D0000000B0000006662782F636E782E786D6C4DCC4B0E83201804E0AB907F8FE2A35612C0542DF730150D294283D0F4F8C5C6455733F93219D6
310
7D3683DECAEFDA590E45460029FB70B3B62B871816DC02EA04F3CE85BF19203B6D8AC3C120D8EA5D7C9D34AB658A262435DA3E4F94F7BA90B5ECF150D20AA7DEE3761C6E98504A1B7229AF4D35422E58FE7B4A791C8B2F504B03041400060808009B3AB142A705DBE32B01000014020000310000006662782F464534314634
310
46422D433239332D343146422D384443412D3039393936303532373633442F636F72652E786D6C8D515B6EC32010BC0AE2AB55850D7E258E3051933427E80508901425068B4795E3176A476AFFF2C3A2D999D9D12EDDDEC71BF856CE6B6B06480A0C8132C24A6D2E038CE18CD6106C1975D6863F34080C1FD500330C19BD38
310
1BA70512D6046542428D956A01B9F72A40206EE933402FBED4C80B1E4362F86B317171E517559022B5138F511F5C0A00E621F985ECF8D1906373DCA17DD5D728FD77687DD8BF23DCF77D87DB6AD5D5075ACE424663D472916B99E2E8B356EE59932C6634E8F1115F38C58392905598D408B788AC3EF16A53E14DDBBEE17653
310
635A66FA3F519CE493A2A84DA8AB25EE2CF390115ACE0D46A58DA7DB238CBA4FD60590E7BD78255E21C3052664DD57B8A5E54C4D0B489E5DB378FA605D5AF0CBF594D8F562DC358C96F946A9FC1E30D57C4FF603504B03041400060808009B3AB1420501C1EE5701000033030000300000006662782F46453431463446422D
310
433239332D343146422D384443412D3039393936303532373633442F636E782E786D6CBD93CD6EC23010845FC5F2B5CA1F21809063A41EFA043DF4EAD84B7149ECC83F5579FBAEC1502E1C2A55BD58D1EC7866F5C961BBAF69249FE0BCB6A6A74D595302465AA5CD7B4F63D8171B4A769C396BC39D8D122326E869922967EF
310
CEC6394B0AF6228E01D5519B63161D781B9D048F72BA49462BC58801608A88224C0328058ADC8CF8B50787ABA0389C48380079797E2376F800193CAB520A6755EAE02C9DB9E9CE44891C85F73DF5F2009328450C56813F964A045136E5B5EBC14E3F49245DB85646A7492AEF693A29CF1B95C8915538E4CC0787F4B2299C66
310
A05CCCF3A8A50808B93A1B2F1ECEA23661B5CC5E8DE01DBADBC56AB3C1B0F38CB3A027C80EE9400450942FEAA62DEAAE68D6AFF57ABBA8B75DF75477DBB66655B27336583BE64B1803CECE445A13C004CA1B56A5F1237CD9479476C8DABAD32F402280DC7AA173CBF84B3ECDAA5D2EFF914F757EDF88CBE15FC0BF01504B03
310
041400060808009B3AB142388EF09663070000991B0000340000006662782F46453431463446422D433239332D343146422D384443412D3039393936303532373633442F6F626A656374732E786D6CED59DD73A33610FF5718FAD23E189BD889930EA1E3D8971BCF4DDA9BBAD7E98367181964A246084612B9A47F7D571F60
310
2026C1BDF4ED1E6C4048ABDDDF7E6A097E79CAA8F388B92039BB767D6FE23A98C57942587AED96723FBA749D5FC280E7B96C4C731D86327CEDAA61370C529E97851D4AF01E955476466F6FFE72448C19769D982221AE5D11DFE30C79A8947982C583972089BC74FFE4F99E99D8269B7254DC7788168863268153186740C531
310
4CF9EDC7893B0E83B17A1F06EADFCE9A0E9A35EB9F35D652B7B9244C48C4E2172C75C84C07B134F567AB0F67E757A3F3D96C3A9A5D9CF9A39BDB9BD5C89F4F27CB8BE5F26AF1E10AD8DBE539B53225B8C02C01FD3DBBA11F8CD59B5A748BC031AEE39C311C6B20012A2D569720C102B66AC037693FFA4AA2C66B2D61E379A6
310
DE5B161AC3D33695BE59C38068D10541EC7695C4D5B5295FBEFB1B0417438C920B2C815B213968D7C2C3C12BDC70128CCD6818EC0EBA20C2C990C49C20EA50B2E388835260AA9A1206668125A39C8303294749A035675EB76D0B3CF36DD739C6E5BEA45479861B6AC78AC0FDB0149A33F20FE607EE9BC8004F206D4998BCB4
310
5CCAE702BBE15530D68361A02ED333FBD200E9EC294A8546C4BCED08BA54AEBF5EB9E1A7DBDDD3468583E39B173C2F3097CAE8941E355F60C8F6AA50B2DBFA8334A71680300654BBF200CAEF80FCAF103D0EAC80DE38799A3DCDEC5CC91113FB9C67A01B67E28C26F037717CFDAFEE1B77C1B85EDCD65E1F9EE0A60AAACB6F
310
C7B32D83C6CAF2DF80330C1EC1E0733EB5AF3631A260CF77840140CA481C9AC31084F6FDEEC90DD7103821D0C32A44431F4406761FE136185B3207AD54EE65BD8E01A2768FE91025016CDA22818D1E3D7D84ECC1497C505353C43E78CFDFC55C17ABCDA74DC9F728C677D6A757784F189190358F33D4C2BC25D1037EFE9AF3
310
04047D89F7A6897766B71280B6C25C019F5620A887C3CEAD0D625897E62ADC046FEC0042A85CDDA07F47448C29450CE765B56F1DDD94A1D61E6F6B06373C33104FCF3A26CCF12351550538CD61468B51C8FB31278502D10D3F1AC9EAA0E9F548F765FD2B58643DBF67D69A41E86588FEA183D6111C5A965D216D81A805DE1D
310
C2799CD39C47BBE7C8443A176A0960A3ED2D7FB68842AC374A5254C083B4DF55212535D24609D9EF4B0171F5088B7FAE974D73987853FFDC69FE779C7106D1167C1771EB779D3D2292A114477B94F46DD7DCADA62D34C91ED21CEF29C8451E897C8E908C26094E4F81E624E257EF4A3DA5B910846101F9EA28F84D34261E04
310
12A3CD8A65A5D50ED044441996889E828022D303AE4E3BBAC68DA174789BC7DA7A5FD35893E8FF64111C412D99B38840290A39E44DC67DEF1C62481B5D8372075FB0B68AB61683965042C4CFD1574CD27B790AEA867C0FEE311C494A19E5058AC1AC07907DE12B4AA91DDE77287E50F9238A4BFA5E062230DD4784D2328BE0
310
47189C3C86B8761D985E45A141DCC43E893328CA902CF9904D2ECE272FF631354337043636DA130A613BCA50D1837A2B20EA7AC4A9C1B7D47B94BA2BB32242595EB24186E24DBBDE64C977D5AAC80EE457958A503656842DC130204CD659B58AD960EA3AB0821BE940F51C099415D49CC2DE483C7EED4D9A72EF06DCFAE9FB
310
6E9041E1D7A3BD66449D5530581E5B8581F88A647CEF861B7D1DDD40FD9DE0E490EAAB5AB3590102622A92979C58157D594379636B3437BC43526C3F9AAC5B5DBFAC3DE87E04635803B54BBD70AD80CE309348552677EA86FE8E2004B76898F1B5CAA9A750592489AE1A11BD257DEA6C9511AD4D33E215F798E519FCD896B0
310
989609DEA2443C447792461BA258B7527A19A9307E55C0DF3E6E3AF0C0C800913EAB020F7FEDACB5A34B552E1D2522EFCB6CC7108120D8122D35BAF10A965A8D545AAEAFEA4C017517189855F1ECFBC9A2D98EF87EB248AD617CDBC982E63B440FD1A691CD6365D6279D02EAF4A4A8BCC72940771D6AAA751231B9DC8A6F7D
310
2982985805F9C1C55815330CC13E8EFF73D2EE4B8266BB0EFFA7256DFF45C1715252694D564DAA2385EBBA99C22E6ECF56F30FF3E968717B331FCD6EE7E7A3C57C3E1BADAEFCF96471B9FCB0B899D7686A3F0D833A96E9D405CF26A655C3EAC962004D59915392C0613E71520C215FC2917E40F79C675840EE6CF6BA13DB93
310
1FB0FAD1B43925DA515C71728FA03F4C056475C0A88C657BDCF9013A9312CED9D72EF48CBC07F8B356E93A9078AE5DE814481263E1EDA0CBA4FA799A38645C9DFA2D31C007B1546544B3A87EAE57296C5AD1BF9E32240B58B95A2D0CA8DB0A687EB51A149A37CB537C92E0153B0E9270BB2B25146B4696C3402D8CDEE6A07E
310
231B25ECC16EFD04AEFBBA58BEA7E7B41019F4C5E0552330544712F154B7BB156396A5C5EAF318DA6CCEFA37A7A0650ABA1C4E69C4311873A9EA29B022B00A4BB340124C75F9F3F633CFE10B4FE6E8A2C8F9F1E9F2E2A7ED32CFB29C99A1ED020E65097C277236F7F0D527D942ED80556F5D6CCF26FED956F7B46D9B3DDA21
310
813D5514C140554B28413A260776F9A23F65BB9763A58ACEF4F5CAB141147A01C68E5EB478CD372E077C487D4D511EA3FDBC92F6D5B6F6584F059BE0D0900EFF05504B03041400060800009B3AB142000000000000000000000000350000006662782F46453431463446422D433239332D343146422D384443412D30393939
310
36303532373633442F76657274696365732E62696E504B03041400060808009B3AB142F270F1330600000004000000360000006662782F46453431463446422D433239332D343146422D384443412D3039393936303532373633442F747269616E676C65732E62696E636660600000504B03041400060800009B3AB1420000
310
00000000000000000000370000006662782F46453431463446422D433239332D343146422D384443412D3039393936303532373633442F617474726962757465732E62696E504B03041400060808009B3AB142D5987DFC8F00000041010000360000006662782F46453431463446422D433239332D343146422D384443412D
310
3039393936303532373633442F6469726563746F72792E786D6C858F410EC2201045AF4266AF15DDB800BA74E7C21B903225242D6328188F2FA5C4183471359997F9FF81E89FF3C41E1816475E02DF1F80A11FC8386F25A438EECEC07A250251FC3803E6F58C12560C4AD840E95E91C151A72936F496F35732D860FE635F62
310
C8F2DA16B505C545B74125BAA2FA9E05D7CC053D063734D5C7665FD55B6B8D15D5E9BFEAFD8490FFA45E504B03041400060808009B3AB142A8D6E5BBFD000000A00100003B0000006662782F46453431463446422D433239332D343146422D384443412D3039393936303532373633442F7265736F75726365732F636F7265
310
2E786D6C8D504B6E833010BD0A9A6D6530060445C651839A13F4029699102BC146FE543D7E4DA052BBEB6666F43E9AA7C74F5FCB23FB44E7B535039439850C8DB29336F300315C4907D94970676DF82583CCC80507D860107C7636AE07A4AC096842428D9DF000A5F71820538F740CE0D50D1799CB1892C2DFF355AABB9C31
310
2FF344279DE03EB81420DB9F6C1384436FA353E879B1B382C7A8A743A3A7F4535F353A10F558B3B13ABF938E5D4652335A92EECC4AD2B6F56B3D5E3AD6BE8DBCD8CC8207BDFC64540E65C0094432548436A46C3F68DB33DA37CD0B6DFA8AF26293FF31C575FAA7296A132A76C4DD6D1E4499823C09C18BADAFB49E65A6BD75
310
2BBE01504B010214000A00000800009B3AB1423DEE336E79000000790000001B00000000000000000000000000000000006175746F6465736B2D64657369676E2D7061636B6167652E786D6C504B010214001400060808009B3AB142D486FD9CA0000000F40000001300000000000000000000000000B20000005B436F6E74
310
656E745F54797065735D2E786D6C504B010214001400060808009B3AB142C03CB88AEA0000007C010000080000000000000000000000000083010000636F72652E786D6C504B010214001400060808009B3AB14255019EA25F0000007C000000070000000000000000000000000093020000636E782E786D6C504B01021400
310
1400060808009B3AB142D3AE8DEC65010000020300000C00000000000000000000000000170300006662782F636F72652E786D6C504B010214001400060808009B3AB14278F5F9D57E0000009D0000000B00000000000000000000000000A60400006662782F636E782E786D6C504B010214001400060808009B3AB142A705
310
DBE32B0100001402000031000000000000000000000000004D0500006662782F46453431463446422D433239332D343146422D384443412D3039393936303532373633442F636F72652E786D6C504B010214001400060808009B3AB1420501C1EE57010000330300003000000000000000000000000000C70600006662782F
310
46453431463446422D433239332D343146422D384443412D3039393936303532373633442F636E782E786D6C504B010214001400060808009B3AB142388EF09663070000991B000034000000000000000000000000006C0800006662782F46453431463446422D433239332D343146422D384443412D303939393630353237
310
3633442F6F626A656374732E786D6C504B010214001400060800009B3AB1420000000000000000000000003500000000000000000000000000211000006662782F46453431463446422D433239332D343146422D384443412D3039393936303532373633442F76657274696365732E62696E504B010214001400060808009B
310
3AB142F270F13306000000040000003600000000000000000000000000741000006662782F46453431463446422D433239332D343146422D384443412D3039393936303532373633442F747269616E676C65732E62696E504B010214001400060800009B3AB142000000000000000000000000370000000000000000000000
310
0000CE1000006662782F46453431463446422D433239332D343146422D384443412D3039393936303532373633442F617474726962757465732E62696E504B010214001400060808009B3AB142D5987DFC8F000000410100003600000000000000000000000000231100006662782F46453431463446422D433239332D3431
310
46422D384443412D3039393936303532373633442F6469726563746F72792E786D6C504B010214001400060808009B3AB142A8D6E5BBFD000000A00100003B00000000000000000000000000061200006662782F46453431463446422D433239332D343146422D384443412D3039393936303532373633442F7265736F7572
310
6365732F636F72652E786D6C504B0506000000000E000E00800400005C1300000000
  0
XRECORD
  5
27
102
{ACAD_REACTORS
330
22
102
}
330
22
100
AcDbXrecord
280
     1
270
     1
271
     1
  0
XRECORD
  5
26
102
{ACAD_REACTORS
330
22
102
}
330
22
100
AcDbXrecord
280
     1
270
     1
271
     1
  0
XRECORD
  5
28
102
{ACAD_REACTORS
330
22
102
}
330
22
100
AcDbXrecord
280
     1
270
     1
271
     1
  0
XRECORD
  5
25
102
{ACAD_REACTORS
330
22
102
}
330
22
100
AcDbXrecord
280
     1
270
     1
271
     1
  0
XRECORD
  5
1554
102
{ACAD_REACTORS
330
1553
102
}
330
1553
100
AcDbXrecord
280
     1
102
ACAD_ROUNDTRIP_2012_MLEADER_STYLE
298
     1
  0
CELLSTYLEMAP
  5
1552
102
{ACAD_REACTORS
330
1551
102
}
330
1551
100
AcDbCellStyleMap
 90
        3
300
CELLSTYLE
  1
TABLEFORMAT_BEGIN
 90
        5
170
     1
 91
        0
 92
    32768
 62
   257
 93
        1
300
CONTENTFORMAT
  1
CONTENTFORMAT_BEGIN
 90
        0
 91
        0
 92
      512
 93
        0
300

 40
0.0
140
1.0
 94
        5
 62
     0
340
55
144
0.25
309
CONTENTFORMAT_END
171
     0
 94
        0
309
TABLEFORMAT_END
  1
CELLSTYLE_BEGIN
 90
        1
 91
        1
300
_TITLE
309
CELLSTYLE_END
300
CELLSTYLE
  1
TABLEFORMAT_BEGIN
 90
        5
170
     1
 91
        0
 92
        0
 62
   257
 93
        1
300
CONTENTFORMAT
  1
CONTENTFORMAT_BEGIN
 90
        0
 91
        0
 92
      512
 93
        0
300

 40
0.0
140
1.0
 94
        5
 62
     0
340
55
144
0.18
309
CONTENTFORMAT_END
171
     0
 94
        0
309
TABLEFORMAT_END
  1
CELLSTYLE_BEGIN
 90
        2
 91
        1
300
_HEADER
309
CELLSTYLE_END
300
CELLSTYLE
  1
TABLEFORMAT_BEGIN
 90
        5
170
     1
 91
        0
 92
        0
 62
   257
 93
        1
300
CONTENTFORMAT
  1
CONTENTFORMAT_BEGIN
 90
        0
 91
        0
 92
      512
 93
        0
300

 40
0.0
140
1.0
 94
        2
 62
     0
340
55
144
0.18
309
CONTENTFORMAT_END
171
     0
 94
        0
309
TABLEFORMAT_END
  1
CELLSTYLE_BEGIN
 90
        3
 91
        2
300
_DATA
309
CELLSTYLE_END
  0
XRECORD
  5
158B
102
{ACAD_REACTORS
330
1551
102
}
330
1551
100
AcDbXrecord
280
     1
102
ACAD_ROUNDTRIP_PRE2007_TABLESTYLE
 90
      512
 91
        0
  1

 92
      512
 93
        0
  2

 94
      512
 95
        0
  3

  0
XRECORD
  5
1566
102
{ACAD_REACTORS
330
1565
102
}
330
1565
100
AcDbXrecord
280
     1
102
RTVSPropertyOp0
 70
     1
102
RTVSPropertyOp1
 70
     1
102
RTVSPropertyOp2
 70
     1
102
RTVSPropertyOp3
 70
     1
102
RTVSPropertyOp4
 70
     1
102
RTVSPropertyOp5
 70
     1
102
RTVSPropertyOp6
 70
     1
102
RTVSPropertyOp7
 70
     1
102
RTVSPropertyOp8
 70
     1
102
RTVSPropertyOp9
 70
     1
102
RTVSPropertyOp10
 70
     1
102
RTVSPropertyOp11
 70
     1
102
RTVSPropertyOp12
 70
     1
102
RTVSPropertyOp13
 70
     1
102
RTVSPropertyOp14
 70
     1
102
RTVSPropertyOp15
 70
     1
102
RTVSPropertyOp16
 70
     1
102
RTVSPropertyOp17
 70
     1
102
RTVSPropertyOp18
 70
     1
102
RTVSPropertyOp19
 70
     1
102
RTVSPropertyOp20
 70
     1
102
RTVSPropertyOp21
 70
     1
102
RTVSPropertyOp22
 70
     1
102
RTVSPropertyOp23
 70
     1
102
RTVSPropertyOp24
 70
     1
102
RTVSPropertyOp25
 70
     1
102
RTVSPropertyOp26
 70
     1
102
RTVSPropertyOp27
 70
     1
102
RTVSPropertyOp28
 70
     1
102
RTVSPropertyOp29
 70
     1
102
RTVSPropertyOp30
 70
     1
102
RTVSPropertyOp31
 70
     1
102
RTVSPropertyOp32
 70
     1
  0
XRECORD
  5
1564
102
{ACAD_REACTORS
330
1563
102
}
330
1563
100
AcDbXrecord
280
     1
102
RTVSPropertyOp0
 70
     1
102
RTVSPropertyOp1
 70
     1
102
RTVSPropertyOp2
 70
     1
102
RTVSPropertyOp3
 70
     1
102
RTVSPropertyOp4
 70
     1
102
RTVSPropertyOp5
 70
     1
102
RTVSPropertyOp6
 70
     1
102
RTVSPropertyOp7
 70
     1
102
RTVSPropertyOp8
 70
     1
102
RTVSPropertyOp9
 70
     1
102
RTVSPropertyOp10
 70
     1
102
RTVSPropertyOp11
 70
     1
102
RTVSPropertyOp12
 70
     1
102
RTVSPropertyOp13
 70
     1
102
RTVSPropertyOp14
 70
     1
102
RTVSPropertyOp15
 70
     1
102
RTVSPropertyOp16
 70
     1
102
RTVSPropertyOp17
 70
     1
102
RTVSPropertyOp18
 70
     1
102
RTVSPropertyOp19
 70
     1
102
RTVSPropertyOp20
 70
     1
102
RTVSPropertyOp21
 70
     1
102
RTVSPropertyOp22
 70
     1
102
RTVSPropertyOp23
 70
     1
102
RTVSPropertyOp24
 70
     1
102
RTVSPropertyOp25
 70
     1
102
RTVSPropertyOp26
 70
     1
102
RTVSPropertyOp27
 70
     1
102
RTVSPropertyOp28
 70
     1
102
RTVSPropertyOp29
 70
     1
102
RTVSPropertyOp30
 70
     1
102
RTVSPropertyOp31
 70
     1
102
RTVSPropertyOp32
 70
     1
  0
XRECORD
  5
1572
102
{ACAD_REACTORS
330
1571
102
}
330
1571
100
AcDbXrecord
280
     1
102
RTVSPropertyOp0
 70
     1
102
RTVSPropertyOp1
 70
     1
102
RTVSPropertyOp2
 70
     1
102
RTVSPropertyOp3
 70
     1
102
RTVSPropertyOp4
 70
     1
102
RTVSPropertyOp5
 70
     1
102
RTVSPropertyOp6
 70
     1
102
RTVSPropertyOp7
 70
     1
102
RTVSPropertyOp8
 70
     1
102
RTVSPropertyOp9
 70
     1
102
RTVSPropertyOp10
 70
     1
102
RTVSPropertyOp11
 70
     1
102
RTVSPropertyOp12
 70
     1
102
RTVSPropertyOp13
 70
     1
102
RTVSPropertyOp14
 70
     1
102
RTVSPropertyOp15
 70
     1
102
RTVSPropertyOp16
 70
     1
102
RTVSPropertyOp17
 70
     1
102
RTVSPropertyOp18
 70
     1
102
RTVSPropertyOp19
 70
     1
102
RTVSPropertyOp20
 70
     1
102
RTVSPropertyOp21
 70
     1
102
RTVSPropertyOp22
 70
     1
102
RTVSPropertyOp23
 70
     1
102
RTVSPropertyOp24
 70
     1
102
RTVSPropertyOp25
 70
     1
102
RTVSPropertyOp26
 70
     1
102
RTVSPropertyOp27
 70
     1
102
RTVSPropertyOp28
 70
     1
102
RTVSPropertyOp29
 70
     1
102
RTVSPropertyOp30
 70
     1
102
RTVSPropertyOp31
 70
     1
102
RTVSPropertyOp32
 70
     1
  0
XRECORD
  5
157A
102
{ACAD_REACTORS
330
1579
102
}
330
1579
100
AcDbXrecord
280
     1
102
RTVSPropertyOp0
 70
     1
102
RTVSPropertyOp1
 70
     1
102
RTVSPropertyOp2
 70
     1
102
RTVSPropertyOp3
 70
     1
102
RTVSPropertyOp4
 70
     1
102
RTVSPropertyOp5
 70
     1
102
RTVSPropertyOp6
 70
     1
102
RTVSPropertyOp7
 70
     1
102
RTVSPropertyOp8
 70
     1
102
RTVSPropertyOp9
 70
     1
102
RTVSPropertyOp10
 70
     1
102
RTVSPropertyOp11
 70
     1
102
RTVSPropertyOp12
 70
     1
102
RTVSPropertyOp13
 70
     1
102
RTVSPropertyOp14
 70
     1
102
RTVSPropertyOp15
 70
     1
102
RTVSPropertyOp16
 70
     1
102
RTVSPropertyOp17
 70
     1
102
RTVSPropertyOp18
 70
     1
102
RTVSPropertyOp19
 70
     1
102
RTVSPropertyOp20
 70
     1
102
RTVSPropertyOp21
 70
     1
102
RTVSPropertyOp22
 70
     1
102
RTVSPropertyOp23
 70
     1
102
RTVSPropertyOp24
 70
     1
102
RTVSPropertyOp25
 70
     1
102
RTVSPropertyOp26
 70
     1
102
RTVSPropertyOp27
 70
     1
102
RTVSPropertyOp28
 70
     1
102
RTVSPropertyOp29
 70
     1
102
RTVSPropertyOp30
 70
     1
102
RTVSPropertyOp31
 70
     1
102
RTVSPropertyOp32
 70
     1
  0
XRECORD
  5
156C
102
{ACAD_REACTORS
330
156B
102
}
330
156B
100
AcDbXrecord
280
     1
102
RTVSPropertyOp0
 70
     1
102
RTVSPropertyOp1
 70
     1
102
RTVSPropertyOp2
 70
     1
102
RTVSPropertyOp3
 70
     1
102
RTVSPropertyOp4
 70
     1
102
RTVSPropertyOp5
 70
     1
102
RTVSPropertyOp6
 70
     1
102
RTVSPropertyOp7
 70
     1
102
RTVSPropertyOp8
 70
     1
102
RTVSPropertyOp9
 70
     1
102
RTVSPropertyOp10
 70
     1
102
RTVSPropertyOp11
 70
     1
102
RTVSPropertyOp12
 70
     1
102
RTVSPropertyOp13
 70
     1
102
RTVSPropertyOp14
 70
     1
102
RTVSPropertyOp15
 70
     1
102
RTVSPropertyOp16
 70
     1
102
RTVSPropertyOp17
 70
     1
102
RTVSPropertyOp18
 70
     1
102
RTVSPropertyOp19
 70
     1
102
RTVSPropertyOp20
 70
     1
102
RTVSPropertyOp21
 70
     1
102
RTVSPropertyOp22
 70
     1
102
RTVSPropertyOp23
 70
     1
102
RTVSPropertyOp24
 70
     1
102
RTVSPropertyOp25
 70
     1
102
RTVSPropertyOp26
 70
     1
102
RTVSPropertyOp27
 70
     1
102
RTVSPropertyOp28
 70
     1
102
RTVSPropertyOp29
 70
     1
102
RTVSPropertyOp30
 70
     1
102
RTVSPropertyOp31
 70
     1
102
RTVSPropertyOp32
 70
     1
  0
XRECORD
  5
1570
102
{ACAD_REACTORS
330
156F
102
}
330
156F
100
AcDbXrecord
280
     1
102
RTVSPropertyOp0
 70
     1
102
RTVSPropertyOp1
 70
     1
102
RTVSPropertyOp2
 70
     1
102
RTVSPropertyOp3
 70
     1
102
RTVSPropertyOp4
 70
     1
102
RTVSPropertyOp5
 70
     1
102
RTVSPropertyOp6
 70
     1
102
RTVSPropertyOp7
 70
     1
102
RTVSPropertyOp8
 70
     1
102
RTVSPropertyOp9
 70
     1
102
RTVSPropertyOp10
 70
     1
102
RTVSPropertyOp11
 70
     1
102
RTVSPropertyOp12
 70
     1
102
RTVSPropertyOp13
 70
     1
102
RTVSPropertyOp14
 70
     1
102
RTVSPropertyOp15
 70
     1
102
RTVSPropertyOp16
 70
     1
102
RTVSPropertyOp17
 70
     1
102
RTVSPropertyOp18
 70
     1
102
RTVSPropertyOp19
 70
     1
102
RTVSPropertyOp20
 70
     1
102
RTVSPropertyOp21
 70
     1
102
RTVSPropertyOp22
 70
     1
102
RTVSPropertyOp23
 70
     1
102
RTVSPropertyOp24
 70
     1
102
RTVSPropertyOp25
 70
     1
102
RTVSPropertyOp26
 70
     1
102
RTVSPropertyOp27
 70
     1
102
RTVSPropertyOp28
 70
     1
102
RTVSPropertyOp29
 70
     1
102
RTVSPropertyOp30
 70
     1
102
RTVSPropertyOp31
 70
     1
102
RTVSPropertyOp32
 70
     1
  0
XRECORD
  5
158A
102
{ACAD_REACTORS
330
1589
102
}
330
1589
100
AcDbXrecord
280
     1
102
RTVSPropertyOp0
 70
     0
102
RTVSPropertyOp1
 70
     0
102
RTVSPropertyOp2
 70
     0
102
RTVSPropertyOp3
 70
     0
102
RTVSPropertyOp4
 70
     0
102
RTVSPropertyOp5
 70
     0
102
RTVSPropertyOp6
 70
     0
102
RTVSPropertyOp7
 70
     0
102
RTVSPropertyOp8
 70
     0
102
RTVSPropertyOp9
 70
     0
102
RTVSPropertyOp10
 70
     0
102
RTVSPropertyOp11
 70
     0
102
RTVSPropertyOp12
 70
     0
102
RTVSPropertyOp13
 70
     0
102
RTVSPropertyOp14
 70
     2
102
RTVSPropertyOp15
 70
     0
102
RTVSPropertyOp16
 70
     0
102
RTVSPropertyOp17
 70
     0
102
RTVSPropertyOp18
 70
     0
102
RTVSPropertyOp19
 70
     0
102
RTVSPropertyOp20
 70
     0
102
RTVSPropertyOp21
 70
     0
102
RTVSPropertyOp22
 70
     0
102
RTVSPropertyOp23
 70
     0
102
RTVSPropertyOp24
 70
     0
102
RTVSPropertyOp25
 70
     0
102
RTVSPropertyOp26
 70
     0
102
RTVSPropertyOp27
 70
     0
102
RTVSPropertyOp28
 70
     1
102
RTVSPropertyOp29
 70
     1
102
RTVSPropertyOp30
 70
     1
102
RTVSPropertyOp31
 70
     1
102
RTVSPropertyOp32
 70
     1
  0
XRECORD
  5
1578
102
{ACAD_REACTORS
330
1577
102
}
330
1577
100
AcDbXrecord
280
     1
102
RTVSPropertyOp0
 70
     1
102
RTVSPropertyOp1
 70
     1
102
RTVSPropertyOp2
 70
     1
102
RTVSPropertyOp3
 70
     1
102
RTVSPropertyOp4
 70
     1
102
RTVSPropertyOp5
 70
     1
102
RTVSPropertyOp6
 70
     1
102
RTVSPropertyOp7
 70
     1
102
RTVSPropertyOp8
 70
     1
102
RTVSPropertyOp9
 70
     1
102
RTVSPropertyOp10
 70
     1
102
RTVSPropertyOp11
 70
     1
102
RTVSPropertyOp12
 70
     1
102
RTVSPropertyOp13
 70
     1
102
RTVSPropertyOp14
 70
     1
102
RTVSPropertyOp15
 70
     1
102
RTVSPropertyOp16
 70
     1
102
RTVSPropertyOp17
 70
     1
102
RTVSPropertyOp18
 70
     1
102
RTVSPropertyOp19
 70
     1
102
RTVSPropertyOp20
 70
     1
102
RTVSPropertyOp21
 70
     1
102
RTVSPropertyOp22
 70
     1
102
RTVSPropertyOp23
 70
     1
102
RTVSPropertyOp24
 70
     1
102
RTVSPropertyOp25
 70
     1
102
RTVSPropertyOp26
 70
     1
102
RTVSPropertyOp27
 70
     1
102
RTVSPropertyOp28
 70
     1
102
RTVSPropertyOp29
 70
     1
102
RTVSPropertyOp30
 70
     1
102
RTVSPropertyOp31
 70
     1
102
RTVSPropertyOp32
 70
     1
  0
XRECORD
  5
155C
102
{ACAD_REACTORS
330
155B
102
}
330
155B
100
AcDbXrecord
280
     1
102
RTVSPropertyOp0
 70
     1
102
RTVSPropertyOp1
 70
     1
102
RTVSPropertyOp2
 70
     1
102
RTVSPropertyOp3
 70
     1
102
RTVSPropertyOp4
 70
     1
102
RTVSPropertyOp5
 70
     1
102
RTVSPropertyOp6
 70
     1
102
RTVSPropertyOp7
 70
     1
102
RTVSPropertyOp8
 70
     1
102
RTVSPropertyOp9
 70
     1
102
RTVSPropertyOp10
 70
     1
102
RTVSPropertyOp11
 70
     1
102
RTVSPropertyOp12
 70
     1
102
RTVSPropertyOp13
 70
     1
102
RTVSPropertyOp14
 70
     1
102
RTVSPropertyOp15
 70
     1
102
RTVSPropertyOp16
 70
     1
102
RTVSPropertyOp17
 70
     1
102
RTVSPropertyOp18
 70
     1
102
RTVSPropertyOp19
 70
     1
102
RTVSPropertyOp20
 70
     1
102
RTVSPropertyOp21
 70
     1
102
RTVSPropertyOp22
 70
     1
102
RTVSPropertyOp23
 70
     1
102
RTVSPropertyOp24
 70
     1
102
RTVSPropertyOp25
 70
     1
102
RTVSPropertyOp26
 70
     1
102
RTVSPropertyOp27
 70
     1
102
RTVSPropertyOp28
 70
     1
102
RTVSPropertyOp29
 70
     1
102
RTVSPropertyOp30
 70
     1
102
RTVSPropertyOp31
 70
     1
102
RTVSPropertyOp32
 70
     1
  0
XRECORD
  5
155E
102
{ACAD_REACTORS
330
155D
102
}
330
155D
100
AcDbXrecord
280
     1
102
RTVSPropertyOp0
 70
     1
102
RTVSPropertyOp1
 70
     1
102
RTVSPropertyOp2
 70
     1
102
RTVSPropertyOp3
 70
     1
102
RTVSPropertyOp4
 70
     1
102
RTVSPropertyOp5
 70
     1
102
RTVSPropertyOp6
 70
     1
102
RTVSPropertyOp7
 70
     1
102
RTVSPropertyOp8
 70
     1
102
RTVSPropertyOp9
 70
     1
102
RTVSPropertyOp10
 70
     1
102
RTVSPropertyOp11
 70
     1
102
RTVSPropertyOp12
 70
     1
102
RTVSPropertyOp13
 70
     1
102
RTVSPropertyOp14
 70
     1
102
RTVSPropertyOp15
 70
     1
102
RTVSPropertyOp16
 70
     1
102
RTVSPropertyOp17
 70
     1
102
RTVSPropertyOp18
 70
     1
102
RTVSPropertyOp19
 70
     1
102
RTVSPropertyOp20
 70
     1
102
RTVSPropertyOp21
 70
     1
102
RTVSPropertyOp22
 70
     1
102
RTVSPropertyOp23
 70
     1
102
RTVSPropertyOp24
 70
     1
102
RTVSPropertyOp25
 70
     1
102
RTVSPropertyOp26
 70
     1
102
RTVSPropertyOp27
 70
     1
102
RTVSPropertyOp28
 70
     1
102
RTVSPropertyOp29
 70
     1
102
RTVSPropertyOp30
 70
     1
102
RTVSPropertyOp31
 70
     1
102
RTVSPropertyOp32
 70
     1
  0
XRECORD
  5
1560
102
{ACAD_REACTORS
330
155F
102
}
330
155F
100
AcDbXrecord
280
     1
102
RTVSPropertyOp0
 70
     1
102
RTVSPropertyOp1
 70
     1
102
RTVSPropertyOp2
 70
     1
102
RTVSPropertyOp3
 70
     1
102
RTVSPropertyOp4
 70
     1
102
RTVSPropertyOp5
 70
     1
102
RTVSPropertyOp6
 70
     1
102
RTVSPropertyOp7
 70
     1
102
RTVSPropertyOp8
 70
     1
102
RTVSPropertyOp9
 70
     1
102
RTVSPropertyOp10
 70
     1
102
RTVSPropertyOp11
 70
     1
102
RTVSPropertyOp12
 70
     1
102
RTVSPropertyOp13
 70
     1
102
RTVSPropertyOp14
 70
     1
102
RTVSPropertyOp15
 70
     1
102
RTVSPropertyOp16
 70
     1
102
RTVSPropertyOp17
 70
     1
102
RTVSPropertyOp18
 70
     1
102
RTVSPropertyOp19
 70
     1
102
RTVSPropertyOp20
 70
     1
102
RTVSPropertyOp21
 70
     1
102
RTVSPropertyOp22
 70
     1
102
RTVSPropertyOp23
 70
     1
102
RTVSPropertyOp24
 70
     1
102
RTVSPropertyOp25
 70
     1
102
RTVSPropertyOp26
 70
     1
102
RTVSPropertyOp27
 70
     1
102
RTVSPropertyOp28
 70
     1
102
RTVSPropertyOp29
 70
     1
102
RTVSPropertyOp30
 70
     1
102
RTVSPropertyOp31
 70
     1
102
RTVSPropertyOp32
 70
     1
  0
XRECORD
  5
1562
102
{ACAD_REACTORS
330
1561
102
}
330
1561
100
AcDbXrecord
280
     1
102
RTVSPropertyOp0
 70
     1
102
RTVSPropertyOp1
 70
     1
102
RTVSPropertyOp2
 70
     1
102
RTVSPropertyOp3
 70
     1
102
RTVSPropertyOp4
 70
     1
102
RTVSPropertyOp5
 70
     1
102
RTVSPropertyOp6
 70
     1
102
RTVSPropertyOp7
 70
     1
102
RTVSPropertyOp8
 70
     1
102
RTVSPropertyOp9
 70
     1
102
RTVSPropertyOp10
 70
     1
102
RTVSPropertyOp11
 70
     1
102
RTVSPropertyOp12
 70
     1
102
RTVSPropertyOp13
 70
     1
102
RTVSPropertyOp14
 70
     1
102
RTVSPropertyOp15
 70
     1
102
RTVSPropertyOp16
 70
     1
102
RTVSPropertyOp17
 70
     1
102
RTVSPropertyOp18
 70
     1
102
RTVSPropertyOp19
 70
     1
102
RTVSPropertyOp20
 70
     1
102
RTVSPropertyOp21
 70
     1
102
RTVSPropertyOp22
 70
     1
102
RTVSPropertyOp23
 70
     1
102
RTVSPropertyOp24
 70
     1
102
RTVSPropertyOp25
 70
     1
102
RTVSPropertyOp26
 70
     1
102
RTVSPropertyOp27
 70
     1
102
RTVSPropertyOp28
 70
     1
102
RTVSPropertyOp29
 70
     1
102
RTVSPropertyOp30
 70
     1
102
RTVSPropertyOp31
 70
     1
102
RTVSPropertyOp32
 70
     1
  0
XRECORD
  5
156A
102
{ACAD_REACTORS
330
1569
102
}
330
1569
100
AcDbXrecord
280
     1
102
RTVSPropertyOp0
 70
     1
102
RTVSPropertyOp1
 70
     1
102
RTVSPropertyOp2
 70
     1
102
RTVSPropertyOp3
 70
     1
102
RTVSPropertyOp4
 70
     1
102
RTVSPropertyOp5
 70
     1
102
RTVSPropertyOp6
 70
     1
102
RTVSPropertyOp7
 70
     1
102
RTVSPropertyOp8
 70
     1
102
RTVSPropertyOp9
 70
     1
102
RTVSPropertyOp10
 70
     1
102
RTVSPropertyOp11
 70
     1
102
RTVSPropertyOp12
 70
     1
102
RTVSPropertyOp13
 70
     1
102
RTVSPropertyOp14
 70
     1
102
RTVSPropertyOp15
 70
     1
102
RTVSPropertyOp16
 70
     1
102
RTVSPropertyOp17
 70
     1
102
RTVSPropertyOp18
 70
     1
102
RTVSPropertyOp19
 70
     1
102
RTVSPropertyOp20
 70
     1
102
RTVSPropertyOp21
 70
     1
102
RTVSPropertyOp22
 70
     1
102
RTVSPropertyOp23
 70
     1
102
RTVSPropertyOp24
 70
     1
102
RTVSPropertyOp25
 70
     1
102
RTVSPropertyOp26
 70
     1
102
RTVSPropertyOp27
 70
     1
102
RTVSPropertyOp28
 70
     1
102
RTVSPropertyOp29
 70
     1
102
RTVSPropertyOp30
 70
     1
102
RTVSPropertyOp31
 70
     1
102
RTVSPropertyOp32
 70
     1
  0
XRECORD
  5
1586
102
{ACAD_REACTORS
330
1585
102
}
330
1585
100
AcDbXrecord
280
     1
102
RTVSPropertyOp0
 70
     0
102
RTVSPropertyOp1
 70
     0
102
RTVSPropertyOp2
 70
     0
102
RTVSPropertyOp3
 70
     0
102
RTVSPropertyOp4
 70
     0
102
RTVSPropertyOp5
 70
     0
102
RTVSPropertyOp6
 70
     0
102
RTVSPropertyOp7
 70
     0
102
RTVSPropertyOp8
 70
     0
102
RTVSPropertyOp9
 70
     0
102
RTVSPropertyOp10
 70
     0
102
RTVSPropertyOp11
 70
     0
102
RTVSPropertyOp12
 70
     0
102
RTVSPropertyOp13
 70
     0
102
RTVSPropertyOp14
 70
     2
102
RTVSPropertyOp15
 70
     0
102
RTVSPropertyOp16
 70
     0
102
RTVSPropertyOp17
 70
     0
102
RTVSPropertyOp18
 70
     0
102
RTVSPropertyOp19
 70
     0
102
RTVSPropertyOp20
 70
     0
102
RTVSPropertyOp21
 70
     0
102
RTVSPropertyOp22
 70
     0
102
RTVSPropertyOp23
 70
     0
102
RTVSPropertyOp24
 70
     0
102
RTVSPropertyOp25
 70
     0
102
RTVSPropertyOp26
 70
     0
102
RTVSPropertyOp27
 70
     0
102
RTVSPropertyOp28
 70
     1
102
RTVSPropertyOp29
 70
     1
102
RTVSPropertyOp30
 70
     1
102
RTVSPropertyOp31
 70
     1
102
RTVSPropertyOp32
 70
     1
  0
XRECORD
  5
1576
102
{ACAD_REACTORS
330
1575
102
}
330
1575
100
AcDbXrecord
280
     1
102
RTVSPropertyOp0
 70
     1
102
RTVSPropertyOp1
 70
     1
102
RTVSPropertyOp2
 70
     1
102
RTVSPropertyOp3
 70
     1
102
RTVSPropertyOp4
 70
     1
102
RTVSPropertyOp5
 70
     1
102
RTVSPropertyOp6
 70
     1
102
RTVSPropertyOp7
 70
     1
102
RTVSPropertyOp8
 70
     1
102
RTVSPropertyOp9
 70
     1
102
RTVSPropertyOp10
 70
     1
102
RTVSPropertyOp11
 70
     1
102
RTVSPropertyOp12
 70
     1
102
RTVSPropertyOp13
 70
     1
102
RTVSPropertyOp14
 70
     1
102
RTVSPropertyOp15
 70
     1
102
RTVSPropertyOp16
 70
     1
102
RTVSPropertyOp17
 70
     1
102
RTVSPropertyOp18
 70
     1
102
RTVSPropertyOp19
 70
     1
102
RTVSPropertyOp20
 70
     1
102
RTVSPropertyOp21
 70
     1
102
RTVSPropertyOp22
 70
     1
102
RTVSPropertyOp23
 70
     1
102
RTVSPropertyOp24
 70
     1
102
RTVSPropertyOp25
 70
     1
102
RTVSPropertyOp26
 70
     1
102
RTVSPropertyOp27
 70
     1
102
RTVSPropertyOp28
 70
     1
102
RTVSPropertyOp29
 70
     1
102
RTVSPropertyOp30
 70
     1
102
RTVSPropertyOp31
 70
     1
102
RTVSPropertyOp32
 70
     1
  0
XRECORD
  5
1588
102
{ACAD_REACTORS
330
1587
102
}
330
1587
100
AcDbXrecord
280
     1
102
RTVSPropertyOp0
 70
     0
102
RTVSPropertyOp1
 70
     0
102
RTVSPropertyOp2
 70
     0
102
RTVSPropertyOp3
 70
     0
102
RTVSPropertyOp4
 70
     0
102
RTVSPropertyOp5
 70
     0
102
RTVSPropertyOp6
 70
     0
102
RTVSPropertyOp7
 70
     0
102
RTVSPropertyOp8
 70
     0
102
RTVSPropertyOp9
 70
     0
102
RTVSPropertyOp10
 70
     0
102
RTVSPropertyOp11
 70
     0
102
RTVSPropertyOp12
 70
     0
102
RTVSPropertyOp13
 70
     0
102
RTVSPropertyOp14
 70
     2
102
RTVSPropertyOp15
 70
     0
102
RTVSPropertyOp16
 70
     0
102
RTVSPropertyOp17
 70
     0
102
RTVSPropertyOp18
 70
     0
102
RTVSPropertyOp19
 70
     0
102
RTVSPropertyOp20
 70
     0
102
RTVSPropertyOp21
 70
     0
102
RTVSPropertyOp22
 70
     0
102
RTVSPropertyOp23
 70
     0
102
RTVSPropertyOp24
 70
     0
102
RTVSPropertyOp25
 70
     0
102
RTVSPropertyOp26
 70
     0
102
RTVSPropertyOp27
 70
     0
102
RTVSPropertyOp28
 70
     1
102
RTVSPropertyOp29
 70
     1
102
RTVSPropertyOp30
 70
     1
102
RTVSPropertyOp31
 70
     1
102
RTVSPropertyOp32
 70
     1
  0
XRECORD
  5
156E
102
{ACAD_REACTORS
330
156D
102
}
330
156D
100
AcDbXrecord
280
     1
102
RTVSPropertyOp0
 70
     1
102
RTVSPropertyOp1
 70
     1
102
RTVSPropertyOp2
 70
     1
102
RTVSPropertyOp3
 70
     1
102
RTVSPropertyOp4
 70
     1
102
RTVSPropertyOp5
 70
     1
102
RTVSPropertyOp6
 70
     1
102
RTVSPropertyOp7
 70
     1
102
RTVSPropertyOp8
 70
     1
102
RTVSPropertyOp9
 70
     1
102
RTVSPropertyOp10
 70
     1
102
RTVSPropertyOp11
 70
     1
102
RTVSPropertyOp12
 70
     1
102
RTVSPropertyOp13
 70
     1
102
RTVSPropertyOp14
 70
     1
102
RTVSPropertyOp15
 70
     1
102
RTVSPropertyOp16
 70
     1
102
RTVSPropertyOp17
 70
     1
102
RTVSPropertyOp18
 70
     1
102
RTVSPropertyOp19
 70
     1
102
RTVSPropertyOp20
 70
     1
102
RTVSPropertyOp21
 70
     1
102
RTVSPropertyOp22
 70
     1
102
RTVSPropertyOp23
 70
     1
102
RTVSPropertyOp24
 70
     1
102
RTVSPropertyOp25
 70
     1
102
RTVSPropertyOp26
 70
     1
102
RTVSPropertyOp27
 70
     1
102
RTVSPropertyOp28
 70
     1
102
RTVSPropertyOp29
 70
     1
102
RTVSPropertyOp30
 70
     1
102
RTVSPropertyOp31
 70
     1
102
RTVSPropertyOp32
 70
     1
  0
XRECORD
  5
1584
102
{ACAD_REACTORS
330
1583
102
}
330
1583
100
AcDbXrecord
280
     1
102
RTVSPropertyOp0
 70
     1
102
RTVSPropertyOp1
 70
     1
102
RTVSPropertyOp2
 70
     1
102
RTVSPropertyOp3
 70
     1
102
RTVSPropertyOp4
 70
     1
102
RTVSPropertyOp5
 70
     1
102
RTVSPropertyOp6
 70
     1
102
RTVSPropertyOp7
 70
     1
102
RTVSPropertyOp8
 70
     1
102
RTVSPropertyOp9
 70
     1
102
RTVSPropertyOp10
 70
     1
102
RTVSPropertyOp11
 70
     1
102
RTVSPropertyOp12
 70
     1
102
RTVSPropertyOp13
 70
     1
102
RTVSPropertyOp14
 70
     1
102
RTVSPropertyOp15
 70
     1
102
RTVSPropertyOp16
 70
     1
102
RTVSPropertyOp17
 70
     1
102
RTVSPropertyOp18
 70
     1
102
RTVSPropertyOp19
 70
     1
102
RTVSPropertyOp20
 70
     1
102
RTVSPropertyOp21
 70
     1
102
RTVSPropertyOp22
 70
     1
102
RTVSPropertyOp23
 70
     1
102
RTVSPropertyOp24
 70
     1
102
RTVSPropertyOp25
 70
     1
102
RTVSPropertyOp26
 70
     1
102
RTVSPropertyOp27
 70
     1
102
RTVSPropertyOp28
 70
     1
102
RTVSPropertyOp29
 70
     1
102
RTVSPropertyOp30
 70
     1
102
RTVSPropertyOp31
 70
     1
102
RTVSPropertyOp32
 70
     1
  0
XRECORD
  5
1582
102
{ACAD_REACTORS
330
1581
102
}
330
1581
100
AcDbXrecord
280
     1
102
RTVSPropertyOp0
 70
     1
102
RTVSPropertyOp1
 70
     1
102
RTVSPropertyOp2
 70
     1
102
RTVSPropertyOp3
 70
     1
102
RTVSPropertyOp4
 70
     1
102
RTVSPropertyOp5
 70
     1
102
RTVSPropertyOp6
 70
     1
102
RTVSPropertyOp7
 70
     1
102
RTVSPropertyOp8
 70
     1
102
RTVSPropertyOp9
 70
     1
102
RTVSPropertyOp10
 70
     1
102
RTVSPropertyOp11
 70
     1
102
RTVSPropertyOp12
 70
     1
102
RTVSPropertyOp13
 70
     1
102
RTVSPropertyOp14
 70
     1
102
RTVSPropertyOp15
 70
     1
102
RTVSPropertyOp16
 70
     1
102
RTVSPropertyOp17
 70
     1
102
RTVSPropertyOp18
 70
     1
102
RTVSPropertyOp19
 70
     1
102
RTVSPropertyOp20
 70
     1
102
RTVSPropertyOp21
 70
     1
102
RTVSPropertyOp22
 70
     1
102
RTVSPropertyOp23
 70
     1
102
RTVSPropertyOp24
 70
     1
102
RTVSPropertyOp25
 70
     1
102
RTVSPropertyOp26
 70
     1
102
RTVSPropertyOp27
 70
     1
102
RTVSPropertyOp28
 70
     1
102
RTVSPropertyOp29
 70
     1
102
RTVSPropertyOp30
 70
     1
102
RTVSPropertyOp31
 70
     1
102
RTVSPropertyOp32
 70
     1
  0
XRECORD
  5
157C
102
{ACAD_REACTORS
330
157B
102
}
330
157B
100
AcDbXrecord
280
     1
102
RTVSPropertyOp0
 70
     1
102
RTVSPropertyOp1
 70
     1
102
RTVSPropertyOp2
 70
     1
102
RTVSPropertyOp3
 70
     1
102
RTVSPropertyOp4
 70
     1
102
RTVSPropertyOp5
 70
     1
102
RTVSPropertyOp6
 70
     1
102
RTVSPropertyOp7
 70
     1
102
RTVSPropertyOp8
 70
     1
102
RTVSPropertyOp9
 70
     1
102
RTVSPropertyOp10
 70
     1
102
RTVSPropertyOp11
 70
     1
102
RTVSPropertyOp12
 70
     1
102
RTVSPropertyOp13
 70
     1
102
RTVSPropertyOp14
 70
     1
102
RTVSPropertyOp15
 70
     1
102
RTVSPropertyOp16
 70
     1
102
RTVSPropertyOp17
 70
     1
102
RTVSPropertyOp18
 70
     1
102
RTVSPropertyOp19
 70
     1
102
RTVSPropertyOp20
 70
     1
102
RTVSPropertyOp21
 70
     1
102
RTVSPropertyOp22
 70
     1
102
RTVSPropertyOp23
 70
     1
102
RTVSPropertyOp24
 70
     1
102
RTVSPropertyOp25
 70
     1
102
RTVSPropertyOp26
 70
     1
102
RTVSPropertyOp27
 70
     1
102
RTVSPropertyOp28
 70
     1
102
RTVSPropertyOp29
 70
     1
102
RTVSPropertyOp30
 70
     1
102
RTVSPropertyOp31
 70
     1
102
RTVSPropertyOp32
 70
     1
  0
XRECORD
  5
157E
102
{ACAD_REACTORS
330
157D
102
}
330
157D
100
AcDbXrecord
280
     1
102
RTVSPropertyOp0
 70
     1
102
RTVSPropertyOp1
 70
     1
102
RTVSPropertyOp2
 70
     1
102
RTVSPropertyOp3
 70
     1
102
RTVSPropertyOp4
 70
     1
102
RTVSPropertyOp5
 70
     1
102
RTVSPropertyOp6
 70
     1
102
RTVSPropertyOp7
 70
     1
102
RTVSPropertyOp8
 70
     1
102
RTVSPropertyOp9
 70
     1
102
RTVSPropertyOp10
 70
     1
102
RTVSPropertyOp11
 70
     1
102
RTVSPropertyOp12
 70
     1
102
RTVSPropertyOp13
 70
     1
102
RTVSPropertyOp14
 70
     1
102
RTVSPropertyOp15
 70
     1
102
RTVSPropertyOp16
 70
     1
102
RTVSPropertyOp17
 70
     1
102
RTVSPropertyOp18
 70
     1
102
RTVSPropertyOp19
 70
     1
102
RTVSPropertyOp20
 70
     1
102
RTVSPropertyOp21
 70
     1
102
RTVSPropertyOp22
 70
     1
102
RTVSPropertyOp23
 70
     1
102
RTVSPropertyOp24
 70
     1
102
RTVSPropertyOp25
 70
     1
102
RTVSPropertyOp26
 70
     1
102
RTVSPropertyOp27
 70
     1
102
RTVSPropertyOp28
 70
     1
102
RTVSPropertyOp29
 70
     1
102
RTVSPropertyOp30
 70
     1
102
RTVSPropertyOp31
 70
     1
102
RTVSPropertyOp32
 70
     1
  0
XRECORD
  5
1574
102
{ACAD_REACTORS
330
1573
102
}
330
1573
100
AcDbXrecord
280
     1
102
RTVSPropertyOp0
 70
     1
102
RTVSPropertyOp1
 70
     1
102
RTVSPropertyOp2
 70
     1
102
RTVSPropertyOp3
 70
     1
102
RTVSPropertyOp4
 70
     1
102
RTVSPropertyOp5
 70
     1
102
RTVSPropertyOp6
 70
     1
102
RTVSPropertyOp7
 70
     1
102
RTVSPropertyOp8
 70
     1
102
RTVSPropertyOp9
 70
     1
102
RTVSPropertyOp10
 70
     1
102
RTVSPropertyOp11
 70
     1
102
RTVSPropertyOp12
 70
     1
102
RTVSPropertyOp13
 70
     1
102
RTVSPropertyOp14
 70
     1
102
RTVSPropertyOp15
 70
     1
102
RTVSPropertyOp16
 70
     1
102
RTVSPropertyOp17
 70
     1
102
RTVSPropertyOp18
 70
     1
102
RTVSPropertyOp19
 70
     1
102
RTVSPropertyOp20
 70
     1
102
RTVSPropertyOp21
 70
     1
102
RTVSPropertyOp22
 70
     1
102
RTVSPropertyOp23
 70
     1
102
RTVSPropertyOp24
 70
     1
102
RTVSPropertyOp25
 70
     1
102
RTVSPropertyOp26
 70
     1
102
RTVSPropertyOp27
 70
     1
102
RTVSPropertyOp28
 70
     1
102
RTVSPropertyOp29
 70
     1
102
RTVSPropertyOp30
 70
     1
102
RTVSPropertyOp31
 70
     1
102
RTVSPropertyOp32
 70
     1
  0
XRECORD
  5
1568
102
{ACAD_REACTORS
330
1567
102
}
330
1567
100
AcDbXrecord
280
     1
102
RTVSPropertyOp0
 70
     1
102
RTVSPropertyOp1
 70
     1
102
RTVSPropertyOp2
 70
     1
102
RTVSPropertyOp3
 70
     1
102
RTVSPropertyOp4
 70
     1
102
RTVSPropertyOp5
 70
     1
102
RTVSPropertyOp6
 70
     1
102
RTVSPropertyOp7
 70
     1
102
RTVSPropertyOp8
 70
     1
102
RTVSPropertyOp9
 70
     1
102
RTVSPropertyOp10
 70
     1
102
RTVSPropertyOp11
 70
     1
102
RTVSPropertyOp12
 70
     1
102
RTVSPropertyOp13
 70
     1
102
RTVSPropertyOp14
 70
     1
102
RTVSPropertyOp15
 70
     1
102
RTVSPropertyOp16
 70
     1
102
RTVSPropertyOp17
 70
     1
102
RTVSPropertyOp18
 70
     1
102
RTVSPropertyOp19
 70
     1
102
RTVSPropertyOp20
 70
     1
102
RTVSPropertyOp21
 70
     1
102
RTVSPropertyOp22
 70
     1
102
RTVSPropertyOp23
 70
     1
102
RTVSPropertyOp24
 70
     1
102
RTVSPropertyOp25
 70
     1
102
RTVSPropertyOp26
 70
     1
102
RTVSPropertyOp27
 70
     1
102
RTVSPropertyOp28
 70
     1
102
RTVSPropertyOp29
 70
     1
102
RTVSPropertyOp30
 70
     1
102
RTVSPropertyOp31
 70
     1
102
RTVSPropertyOp32
 70
     1
  0
XRECORD
  5
1580
102
{ACAD_REACTORS
330
157F
102
}
330
157F
100
AcDbXrecord
280
     1
102
RTVSPropertyOp0
 70
     1
102
RTVSPropertyOp1
 70
     1
102
RTVSPropertyOp2
 70
     1
102
RTVSPropertyOp3
 70
     1
102
RTVSPropertyOp4
 70
     1
102
RTVSPropertyOp5
 70
     1
102
RTVSPropertyOp6
 70
     1
102
RTVSPropertyOp7
 70
     1
102
RTVSPropertyOp8
 70
     1
102
RTVSPropertyOp9
 70
     1
102
RTVSPropertyOp10
 70
     1
102
RTVSPropertyOp11
 70
     1
102
RTVSPropertyOp12
 70
     1
102
RTVSPropertyOp13
 70
     1
102
RTVSPropertyOp14
 70
     1
102
RTVSPropertyOp15
 70
     1
102
RTVSPropertyOp16
 70
     1
102
RTVSPropertyOp17
 70
     1
102
RTVSPropertyOp18
 70
     1
102
RTVSPropertyOp19
 70
     1
102
RTVSPropertyOp20
 70
     1
102
RTVSPropertyOp21
 70
     1
102
RTVSPropertyOp22
 70
     1
102
RTVSPropertyOp23
 70
     1
102
RTVSPropertyOp24
 70
     1
102
RTVSPropertyOp25
 70
     1
102
RTVSPropertyOp26
 70
     1
102
RTVSPropertyOp27
 70
     1
102
RTVSPropertyOp28
 70
     1
102
RTVSPropertyOp29
 70
     1
102
RTVSPropertyOp30
 70
     1
102
RTVSPropertyOp31
 70
     1
102
RTVSPropertyOp32
 70
     1
  0
ENDSEC
  0
EOF
