  0
SECTION
  2
HEADER
  9
$ACADVER
  1
AC1018
  9
$ACADMAINTVER
 70
   104
  9
$DWGCODEPAGE
  3
ANSI_1252
  9
$AUTHOR
  1
VR
  9
$REVISIONNUMBER
  1
-
  9
$CUSTOMPROPERTYTAG
  1
Manager
  9
$CUSTOMPROPERTY
  1

  9
$CUSTOMPROPERTYTAG
  1
Company
  9
$CUSTOMPROPERTY
  1

  9
$CUSTOMPROPERTYTAG
  1
Category
  9
$CUSTOMPROPERTY
  1

  9
$CUSTOMPROPERTYTAG
  1
Part Number
  9
$CUSTOMPROPERTY
  1
SSFK0618-S
  9
$CUSTOMPROPERTYTAG
  1
Description
  9
$CUSTOMPROPERTY
  1

  9
$CUSTOMPROPERTYTAG
  1
Project
  9
$CUSTOMPROPERTY
  1

  9
$CUSTOMPROPERTYTAG
  1
Designer
  9
$CUSTOMPROPERTY
  1
VR
  9
$CUSTOMPROPERTYTAG
  1
Engineer
  9
$CUSTOMPROPERTY
  1

  9
$CUSTOMPROPERTYTAG
  1
Authority
  9
$CUSTOMPROPERTY
  1

  9
$CUSTOMPROPERTYTAG
  1
Cost Center
  9
$CUSTOMPROPERTY
  1

  9
$CUSTOMPROPERTYTAG
  1
Vendor
  9
$CUSTOMPROPERTY
  1

  9
$CUSTOMPROPERTYTAG
  1
User Status
  9
$CUSTOMPROPERTY
  1

  9
$CUSTOMPROPERTYTAG
  1
Design Status
  9
$CUSTOMPROPERTY
  1
WorkInProgress
  9
$CUSTOMPROPERTYTAG
  1
Checked by
  9
$CUSTOMPROPERTY
  1
NJ
  9
$CUSTOMPROPERTYTAG
  1
Date Checked
  9
$CUSTOMPROPERTY
  1
05/02/2013
  9
$CUSTOMPROPERTYTAG
  1
Engr Approved by
  9
$CUSTOMPROPERTY
  1

  9
$CUSTOMPROPERTYTAG
  1
Mfg Approved by
  9
$CUSTOMPROPERTY
  1

  9
$CUSTOMPROPERTYTAG
  1
DWG. NO
  9
$CUSTOMPROPERTY
  1

  9
$CUSTOMPROPERTYTAG
  1
NUMBER OF SHEETS
  9
$CUSTOMPROPERTY
  1
1
  9
$CUSTOMPROPERTYTAG
  1
DRAWING #
  9
$CUSTOMPROPERTY
  1

  9
$INSBASE
 10
0.0
 20
0.0
 30
0.0
  9
$EXTMIN
 10
0.0
 20
0.0
 30
0.0
  9
$EXTMAX
 10
85.0
 20
55.0
 30
0.0
  9
$LIMMIN
 10
0.0
 20
0.0
  9
$LIMMAX
 10
85.0
 20
55.0
  9
$ORTHOMODE
 70
     0
  9
$REGENMODE
 70
     1
  9
$FILLMODE
 70
     1
  9
$QTEXTMODE
 70
     0
  9
$MIRRTEXT
 70
     0
  9
$LTSCALE
 40
5.0
  9
$ATTMODE
 70
     1
  9
$TEXTSIZE
 40
0.2
  9
$TRACEWID
 40
0.05
  9
$TEXTSTYLE
  7
Standard
  9
$CLAYER
  8
0
  9
$CELTYPE
  6
ByLayer
  9
$CECOLOR
 62
   256
  9
$CELTSCALE
 40
1.0
  9
$DISPSILH
 70
     0
  9
$DIMSCALE
 40
1.0
  9
$DIMASZ
 40
0.0708661417322835
  9
$DIMEXO
 40
0.0625
  9
$DIMDLI
 40
0.38
  9
$DIMRND
 40
0.0
  9
$DIMDLE
 40
0.0
  9
$DIMEXE
 40
0.18
  9
$DIMTP
 40
0.0
  9
$DIMTM
 40
0.0
  9
$DIMTXT
 40
0.0708661417322835
  9
$DIMCEN
 40
0.09
  9
$DIMTSZ
 40
0.0
  9
$DIMTOL
 70
     0
  9
$DIMLIM
 70
     0
  9
$DIMTIH
 70
     1
  9
$DIMTOH
 70
     1
  9
$DIMSE1
 70
     0
  9
$DIMSE2
 70
     0
  9
$DIMTAD
 70
     0
  9
$DIMZIN
 70
     0
  9
$DIMBLK
  1

  9
$DIMASO
 70
     1
  9
$DIMSHO
 70
     1
  9
$DIMPOST
  1

  9
$DIMAPOST
  1

  9
$DIMALT
 70
     0
  9
$DIMALTD
 70
     2
  9
$DIMALTF
 40
25.4
  9
$DIMLFAC
 40
1.0
  9
$DIMTOFL
 70
     0
  9
$DIMTVP
 40
0.0
  9
$DIMTIX
 70
     0
  9
$DIMSOXD
 70
     0
  9
$DIMSAH
 70
     0
  9
$DIMBLK1
  1

  9
$DIMBLK2
  1

  9
$DIMSTYLE
  2
Standard
  9
$DIMCLRD
 70
     0
  9
$DIMCLRE
 70
     0
  9
$DIMCLRT
 70
     0
  9
$DIMTFAC
 40
1.0
  9
$DIMGAP
 40
0.09
  9
$DIMJUST
 70
     0
  9
$DIMSD1
 70
     0
  9
$DIMSD2
 70
     0
  9
$DIMTOLJ
 70
     1
  9
$DIMTZIN
 70
     0
  9
$DIMALTZ
 70
     0
  9
$DIMALTTZ
 70
     0
  9
$DIMUPT
 70
     0
  9
$DIMDEC
 70
     4
  9
$DIMTDEC
 70
     4
  9
$DIMALTU
 70
     2
  9
$DIMALTTD
 70
     2
  9
$DIMTXSTY
  7
Standard
  9
$DIMAUNIT
 70
     0
  9
$DIMADEC
 70
     0
  9
$DIMALTRND
 40
0.0
  9
$DIMAZIN
 70
     0
  9
$DIMDSEP
 70
    46
  9
$DIMATFIT
 70
     3
  9
$DIMFRAC
 70
     0
  9
$DIMLDRBLK
  1

  9
$DIMLUNIT
 70
     2
  9
$DIMLWD
 70
    -2
  9
$DIMLWE
 70
    -2
  9
$DIMTMOVE
 70
     0
  9
$LUNITS
 70
     2
  9
$LUPREC
 70
     4
  9
$SKETCHINC
 40
0.1
  9
$FILLETRAD
 40
0.0
  9
$AUNITS
 70
     0
  9
$AUPREC
 70
     0
  9
$MENU
  1
.
  9
$ELEVATION
 40
0.0
  9
$PELEVATION
 40
0.0
  9
$THICKNESS
 40
0.0
  9
$LIMCHECK
 70
     0
  9
$CHAMFERA
 40
0.0
  9
$CHAMFERB
 40
0.0
  9
$CHAMFERC
 40
0.0
  9
$CHAMFERD
 40
0.0
  9
$SKPOLY
 70
     0
  9
$TDCREATE
 40
2456430.307525220
  9
$TDUCREATE
 40
2456430.078358553
  9
$TDUPDATE
 40
2456430.307525232
  9
$TDUUPDATE
 40
2456430.078358565
  9
$TDINDWG
 40
0.0000490394
  9
$TDUSRTIMER
 40
0.0000490394
  9
$USRTIMER
 70
     1
  9
$ANGBASE
 50
0.0
  9
$ANGDIR
 70
     0
  9
$PDMODE
 70
     0
  9
$PDSIZE
 40
0.0
  9
$PLINEWID
 40
0.0
  9
$SPLFRAME
 70
     0
  9
$SPLINETYPE
 70
     6
  9
$SPLINESEGS
 70
     8
  9
$HANDSEED
  5
1584
  9
$SURFTAB1
 70
     6
  9
$SURFTAB2
 70
     6
  9
$SURFTYPE
 70
     6
  9
$SURFU
 70
     6
  9
$SURFV
 70
     6
  9
$UCSBASE
  2

  9
$UCSNAME
  2

  9
$UCSORG
 10
0.0
 20
0.0
 30
0.0
  9
$UCSXDIR
 10
1.0
 20
0.0
 30
0.0
  9
$UCSYDIR
 10
0.0
 20
1.0
 30
0.0
  9
$UCSORTHOREF
  2

  9
$UCSORTHOVIEW
 70
     0
  9
$UCSORGTOP
 10
0.0
 20
0.0
 30
0.0
  9
$UCSORGBOTTOM
 10
0.0
 20
0.0
 30
0.0
  9
$UCSORGLEFT
 10
0.0
 20
0.0
 30
0.0
  9
$UCSORGRIGHT
 10
0.0
 20
0.0
 30
0.0
  9
$UCSORGFRONT
 10
0.0
 20
0.0
 30
0.0
  9
$UCSORGBACK
 10
0.0
 20
0.0
 30
0.0
  9
$PUCSBASE
  2

  9
$PUCSNAME
  2

  9
$PUCSORG
 10
0.0
 20
0.0
 30
0.0
  9
$PUCSXDIR
 10
1.0
 20
0.0
 30
0.0
  9
$PUCSYDIR
 10
0.0
 20
1.0
 30
0.0
  9
$PUCSORTHOREF
  2

  9
$PUCSORTHOVIEW
 70
     0
  9
$PUCSORGTOP
 10
0.0
 20
0.0
 30
0.0
  9
$PUCSORGBOTTOM
 10
0.0
 20
0.0
 30
0.0
  9
$PUCSORGLEFT
 10
0.0
 20
0.0
 30
0.0
  9
$PUCSORGRIGHT
 10
0.0
 20
0.0
 30
0.0
  9
$PUCSORGFRONT
 10
0.0
 20
0.0
 30
0.0
  9
$PUCSORGBACK
 10
0.0
 20
0.0
 30
0.0
  9
$USERI1
 70
     0
  9
$USERI2
 70
     0
  9
$USERI3
 70
     0
  9
$USERI4
 70
     0
  9
$USERI5
 70
     0
  9
$USERR1
 40
0.0
  9
$USERR2
 40
0.0
  9
$USERR3
 40
0.0
  9
$USERR4
 40
0.0
  9
$USERR5
 40
0.0
  9
$WORLDVIEW
 70
     1
  9
$SHADEDGE
 70
     3
  9
$SHADEDIF
 70
    70
  9
$TILEMODE
 70
     1
  9
$MAXACTVP
 70
    64
  9
$PINSBASE
 10
0.0
 20
0.0
 30
0.0
  9
$PLIMCHECK
 70
     0
  9
$PEXTMIN
 10
0.0
 20
0.0
 30
0.0
  9
$PEXTMAX
 10
85.0
 20
55.0
 30
0.0
  9
$PLIMMIN
 10
0.0
 20
0.0
  9
$PLIMMAX
 10
85.0
 20
55.0
  9
$UNITMODE
 70
     0
  9
$VISRETAIN
 70
     1
  9
$PLINEGEN
 70
     0
  9
$PSLTSCALE
 70
     1
  9
$TREEDEPTH
 70
  3020
  9
$CMLSTYLE
  2
Standard
  9
$CMLJUST
 70
     0
  9
$CMLSCALE
 40
1.0
  9
$PROXYGRAPHICS
 70
     1
  9
$MEASUREMENT
 70
     0
  9
$CELWEIGHT
370
    -1
  9
$ENDCAPS
280
     0
  9
$JOINSTYLE
280
     0
  9
$LWDISPLAY
290
     0
  9
$INSUNITS
 70
     1
  9
$HYPERLINKBASE
  1

  9
$STYLESHEET
  1

  9
$XEDIT
290
     1
  9
$CEPSNTYPE
380
     0
  9
$PSTYLEMODE
290
     1
  9
$FINGERPRINTGUID
  2
{13F5B907-7B66-42B0-B225-18E532496377}
  9
$VERSIONGUID
  2
{D43B9D6A-8543-4860-94A7-E99FA93A34E1}
  9
$EXTNAMES
290
     1
  9
$PSVPSCALE
 40
0.0
  9
$OLESTARTUP
290
     0
  9
$SORTENTS
280
   127
  9
$INDEXCTL
280
     0
  9
$HIDETEXT
280
     1
  9
$XCLIPFRAME
290
     0
  9
$HALOGAP
280
     0
  9
$OBSCOLOR
 70
   257
  9
$OBSLTYPE
280
     0
  9
$INTERSECTIONDISPLAY
280
     0
  9
$INTERSECTIONCOLOR
 70
   257
  9
$DIMASSOC
280
     1
  9
$PROJECTNAME
  1

  0
ENDSEC
  0
SECTION
  2
CLASSES
  0
CLASS
  1
ACDBDICTIONARYWDFLT
  2
AcDbDictionaryWithDefault
  3
ObjectDBX Classes
 90
        0
 91
        1
280
     0
281
     0
  0
CLASS
  1
MATERIAL
  2
AcDbMaterial
  3
ObjectDBX Classes
 90
     1153
 91
        3
280
     0
281
     0
  0
CLASS
  1
VISUALSTYLE
  2
AcDbVisualStyle
  3
ObjectDBX Classes
 90
     4095
 91
       24
280
     0
281
     0
  0
CLASS
  1
SCALE
  2
AcDbScale
  3
ObjectDBX Classes
 90
     1153
 91
       17
280
     0
281
     0
  0
CLASS
  1
TABLESTYLE
  2
AcDbTableStyle
  3
ObjectDBX Classes
 90
     4095
 91
        1
280
     0
281
     0
  0
CLASS
  1
MLEADERSTYLE
  2
AcDbMLeaderStyle
  3
ACDB_MLEADERSTYLE_CLASS
 90
     4095
 91
        1
280
     0
281
     0
  0
CLASS
  1
DICTIONARYVAR
  2
AcDbDictionaryVar
  3
ObjectDBX Classes
 90
        0
 91
        8
280
     0
281
     0
  0
CLASS
  1
CELLSTYLEMAP
  2
AcDbCellStyleMap
  3
ObjectDBX Classes
 90
     1152
 91
        1
280
     0
281
     0
  0
ENDSEC
  0
SECTION
  2
TABLES
  0
TABLE
  2
VPORT
  5
8
330
0
100
AcDbSymbolTable
 70
     1
  0
VPORT
  5
57
330
8
100
AcDbSymbolTableRecord
100
AcDbViewportTableRecord
  2
*Active
 70
     0
 10
0.0
 20
0.0
 11
1.0
 21
1.0
 12
42.5
 22
27.5
 13
0.0
 23
0.0
 14
1.0
 24
1.0
 15
0.0
 25
0.0
 16
0.0
 26
0.0
 36
1.0
 17
0.0
 27
0.0
 37
0.0
 40
55.0
 41
1.545454545454545
 42
50.0
 43
0.0
 44
0.0
 50
0.0
 51
0.0
 71
     0
 72
   100
 73
     1
 74
     1
 75
     0
 76
     0
 77
     0
 78
     0
281
     0
 65
     1
110
0.0
120
0.0
130
0.0
111
1.0
121
0.0
131
0.0
112
0.0
122
1.0
132
0.0
 79
     0
146
0.0
  0
ENDTAB
  0
TABLE
  2
LTYPE
  5
5
330
0
100
AcDbSymbolTable
 70
    59
  0
LTYPE
  5
5B
330
5
100
AcDbSymbolTableRecord
100
AcDbLinetypeTableRecord
  2
ByBlock
 70
     0
  3

 72
    65
 73
     0
 40
0.0
  0
LTYPE
  5
5C
330
5
100
AcDbSymbolTableRecord
100
AcDbLinetypeTableRecord
  2
ByLayer
 70
     0
  3

 72
    65
 73
     0
 40
0.0
  0
LTYPE
  5
5D
330
5
100
AcDbSymbolTableRecord
100
AcDbLinetypeTableRecord
  2
Continuous
 70
     0
  3
Solid line
 72
    65
 73
     0
 40
0.0
  0
LTYPE
  5
7C
330
5
100
AcDbSymbolTableRecord
100
AcDbLinetypeTableRecord
  2
BY_STANDARD
 70
     0
  3
By Standard ____________    ____    ____   _
 72
    65
 73
     6
 40
1.240299999999999
 49
0.6614
 74
     0
 49
-0.0827
 74
     0
 49
0.1654
 74
     0
 49
-0.0827
 74
     0
 49
0.1654
 74
     0
 49
-0.0827
 74
     0
  0
LTYPE
  5
7D
330
5
100
AcDbSymbolTableRecord
100
AcDbLinetypeTableRecord
  2
CHAIN
 70
     0
  3
Chain ____ _ ____ _ ____ _ ____ _ ____ _ ____
 72
    65
 73
     4
 40
0.7087
 49
0.4724000000000001
 74
     0
 49
-0.0591
 74
     0
 49
0.1181
 74
     0
 49
-0.0591
 74
     0
  0
LTYPE
  5
7E
330
5
100
AcDbSymbolTableRecord
100
AcDbLinetypeTableRecord
  2
DASH_DOT
 70
     0
  3
Dash dot __ . __ . __ . __ . __ . __ . __ . __
 72
    65
 73
     4
 40
0.37
 49
0.24
 74
     0
 49
-0.06
 74
     0
 49
0.01
 74
     0
 49
-0.06
 74
     0
  0
LTYPE
  5
7F
330
5
100
AcDbSymbolTableRecord
100
AcDbLinetypeTableRecord
  2
DOUBLE_DASH_DOT
 70
     0
  3
Double-Dash Dot __ __ . __ __ . __ __ . __ _
 72
    65
 73
     6
 40
0.4398
 49
0.24
 74
     0
 49
-0.06
 74
     0
 49
0.0098
 74
     0
 49
-0.06
 74
     0
 49
0.01
 74
     0
 49
-0.06
 74
     0
  0
LTYPE
  5
80
330
5
100
AcDbSymbolTableRecord
100
AcDbLinetypeTableRecord
  2
DASH_TRIPLE_DOT
 70
     0
  3
Dash Triple-Dot _ . . . _ . . . _ . . . _
 72
    65
 73
     8
 40
0.51
 49
0.24
 74
     0
 49
-0.06
 74
     0
 49
0.01
 74
     0
 49
-0.06
 74
     0
 49
0.01
 74
     0
 49
-0.06
 74
     0
 49
0.01
 74
     0
 49
-0.06
 74
     0
  0
LTYPE
  5
81
330
5
100
AcDbSymbolTableRecord
100
AcDbLinetypeTableRecord
  2
DASHED
 70
     0
  3
Dashed __ __ __ __ __ __ __ __ __ __ __ __ __ _
 72
    65
 73
     2
 40
0.2067
 49
0.1654
 74
     0
 49
-0.0413
 74
     0
  0
LTYPE
  5
82
330
5
100
AcDbSymbolTableRecord
100
AcDbLinetypeTableRecord
  2
DASH_DOUBLE_DOT
 70
     0
  3
Dash Double-Dot __ . . __ . . __ . . __ . .
 72
    65
 73
     6
 40
0.4398
 49
0.24
 74
     0
 49
-0.06
 74
     0
 49
0.0098
 74
     0
 49
-0.06
 74
     0
 49
0.01
 74
     0
 49
-0.06
 74
     0
  0
LTYPE
  5
83
330
5
100
AcDbSymbolTableRecord
100
AcDbLinetypeTableRecord
  2
DASHED_SPACE
 70
     0
  3
Dashed Space __ __ __ __ __ __ __ __ __ __ __ _
 72
    65
 73
     2
 40
0.2067
 49
0.1654
 74
     0
 49
-0.0413
 74
     0
  0
LTYPE
  5
84
330
5
100
AcDbSymbolTableRecord
100
AcDbLinetypeTableRecord
  2
DOTTED
 70
     0
  3
Dotted . . . . . . . . . . . . . . . . . . . . 
 72
    65
 73
     2
 40
0.0482
 49
0.0069
 74
     0
 49
-0.0413
 74
     0
  0
LTYPE
  5
85
330
5
100
AcDbSymbolTableRecord
100
AcDbLinetypeTableRecord
  2
DOUBLE_DASH_CHAIN
 70
     0
  3
Double-Dash Chain ______  __  __  ______  __  _
 72
    65
 73
     6
 40
1.240299999999999
 49
0.6614
 74
     0
 49
-0.0827
 74
     0
 49
0.1654
 74
     0
 49
-0.0827
 74
     0
 49
0.1654
 74
     0
 49
-0.0827
 74
     0
  0
LTYPE
  5
87
330
5
100
AcDbSymbolTableRecord
100
AcDbLinetypeTableRecord
  2
DOUBLE_DASH_DOUBLE_DOT
 70
     0
  3
Double-Dash Double-dot _ _ . . _ _ . . _
 72
    65
 73
     8
 40
0.7400000000000001
 49
0.24
 74
     0
 49
-0.06
 74
     0
 49
0.24
 74
     0
 49
-0.06
 74
     0
 49
0.01
 74
     0
 49
-0.06
 74
     0
 49
0.01
 74
     0
 49
-0.06
 74
     0
  0
LTYPE
  5
88
330
5
100
AcDbSymbolTableRecord
100
AcDbLinetypeTableRecord
  2
DOUBLE_DASH_TRIPLE_DOT
 70
     0
  3
Double Dash Triple Dot __ __ . . . __ __ . .
 72
    65
 73
    10
 40
0.8100000000000001
 49
0.24
 74
     0
 49
-0.06
 74
     0
 49
0.24
 74
     0
 49
-0.06
 74
     0
 49
0.01
 74
     0
 49
-0.06
 74
     0
 49
0.01
 74
     0
 49
-0.06
 74
     0
 49
0.01
 74
     0
 49
-0.06
 74
     0
  0
LTYPE
  5
89
330
5
100
AcDbSymbolTableRecord
100
AcDbLinetypeTableRecord
  2
LONG_DASH_DOTTED
 70
     0
  3
Long Dash Dotted ____ . ____ . ____ . ____ . _
 72
    65
 73
     4
 40
0.3543
 49
0.2362
 74
     0
 49
-0.0295
 74
     0
 49
0.0591
 74
     0
 49
-0.0295
 74
     0
  0
LTYPE
  5
8A
330
5
100
AcDbSymbolTableRecord
100
AcDbLinetypeTableRecord
  2
LONG_DASH_DOUBLE_DOT
 70
     0
  3
Long Dash Double Dot ________  .  .  ________  
 72
    65
 73
     6
 40
0.6799999999999999
 49
0.48
 74
     0
 49
-0.06
 74
     0
 49
0.01
 74
     0
 49
-0.06
 74
     0
 49
0.01
 74
     0
 49
-0.06
 74
     0
  0
LTYPE
  5
8B
330
5
100
AcDbSymbolTableRecord
100
AcDbLinetypeTableRecord
  2
LONG_DASH_TRIPLE_DOT
 70
     0
  3
Long Dash Triple Dot ____ ... ____ ... ____
 72
    65
 73
     8
 40
0.3689
 49
0.2362
 74
     0
 49
-0.0295
 74
     0
 49
0.0049
 74
     0
 49
-0.0295
 74
     0
 49
0.0049
 74
     0
 49
-0.0295
 74
     0
 49
0.0049
 74
     0
 49
-0.0295
 74
     0
  0
LTYPE
  5
8C
330
5
100
AcDbSymbolTableRecord
100
AcDbLinetypeTableRecord
  2
BORDER
 70
     0
  3
Border __ __ . __ __ . __ __ . __ __ . __ __ .
 72
    65
 73
     6
 40
1.75
 49
0.5
 74
     0
 49
-0.25
 74
     0
 49
0.5
 74
     0
 49
-0.25
 74
     0
 49
0.0
 74
     0
 49
-0.25
 74
     0
  0
LTYPE
  5
8D
330
5
100
AcDbSymbolTableRecord
100
AcDbLinetypeTableRecord
  2
BORDER2
 70
     0
  3
Border (.5x) __.__.__.__.__.__.__.__.__.__.__.
 72
    65
 73
     6
 40
0.875
 49
0.25
 74
     0
 49
-0.125
 74
     0
 49
0.25
 74
     0
 49
-0.125
 74
     0
 49
0.0
 74
     0
 49
-0.125
 74
     0
  0
LTYPE
  5
8E
330
5
100
AcDbSymbolTableRecord
100
AcDbLinetypeTableRecord
  2
BORDERX2
 70
     0
  3
Border (2x) ____  ____  .  ____  ____  .  ___
 72
    65
 73
     6
 40
3.5
 49
1.0
 74
     0
 49
-0.5
 74
     0
 49
1.0
 74
     0
 49
-0.5
 74
     0
 49
0.0
 74
     0
 49
-0.5
 74
     0
  0
LTYPE
  5
8F
330
5
100
AcDbSymbolTableRecord
100
AcDbLinetypeTableRecord
  2
CENTER
 70
     0
  3
Center ____ _ ____ _ ____ _ ____ _ ____ _ ____
 72
    65
 73
     4
 40
2.0
 49
1.25
 74
     0
 49
-0.25
 74
     0
 49
0.25
 74
     0
 49
-0.25
 74
     0
  0
LTYPE
  5
90
330
5
100
AcDbSymbolTableRecord
100
AcDbLinetypeTableRecord
  2
CENTER2
 70
     0
  3
Center (.5x) ___ _ ___ _ ___ _ ___ _ ___ _ ___
 72
    65
 73
     4
 40
1.125
 49
0.75
 74
     0
 49
-0.125
 74
     0
 49
0.125
 74
     0
 49
-0.125
 74
     0
  0
LTYPE
  5
91
330
5
100
AcDbSymbolTableRecord
100
AcDbLinetypeTableRecord
  2
CENTERX2
 70
     0
  3
Center (2x) ________  __  ________  __  _____
 72
    65
 73
     4
 40
4.0
 49
2.5
 74
     0
 49
-0.5
 74
     0
 49
0.5
 74
     0
 49
-0.5
 74
     0
  0
LTYPE
  5
92
330
5
100
AcDbSymbolTableRecord
100
AcDbLinetypeTableRecord
  2
DASHDOT2
 70
     0
  3
Dash dot (.5x) _._._._._._._._._._._._._._._.
 72
    65
 73
     4
 40
0.5
 49
0.25
 74
     0
 49
-0.125
 74
     0
 49
0.0
 74
     0
 49
-0.125
 74
     0
  0
LTYPE
  5
93
330
5
100
AcDbSymbolTableRecord
100
AcDbLinetypeTableRecord
  2
DASHDOTX2
 70
     0
  3
Dash dot (2x) ____  .  ____  .  ____  .  ___
 72
    65
 73
     4
 40
2.0
 49
1.0
 74
     0
 49
-0.5
 74
     0
 49
0.0
 74
     0
 49
-0.5
 74
     0
  0
LTYPE
  5
95
330
5
100
AcDbSymbolTableRecord
100
AcDbLinetypeTableRecord
  2
DASHED2
 70
     0
  3
Dashed (.5x) _ _ _ _ _ _ _ _ _ _ _ _ _ _ _ _ _
 72
    65
 73
     2
 40
0.375
 49
0.25
 74
     0
 49
-0.125
 74
     0
  0
LTYPE
  5
96
330
5
100
AcDbSymbolTableRecord
100
AcDbLinetypeTableRecord
  2
DASHEDX2
 70
     0
  3
Dashed (2x) ____  ____  ____  ____  ____  ___
 72
    65
 73
     2
 40
1.5
 49
1.0
 74
     0
 49
-0.5
 74
     0
  0
LTYPE
  5
97
330
5
100
AcDbSymbolTableRecord
100
AcDbLinetypeTableRecord
  2
DIVIDE
 70
     0
  3
Divide ____ . . ____ . . ____ . . ____ . . ____
 72
    65
 73
     6
 40
1.25
 49
0.5
 74
     0
 49
-0.25
 74
     0
 49
0.0
 74
     0
 49
-0.25
 74
     0
 49
0.0
 74
     0
 49
-0.25
 74
     0
  0
LTYPE
  5
98
330
5
100
AcDbSymbolTableRecord
100
AcDbLinetypeTableRecord
  2
DIVIDE2
 70
     0
  3
Divide (.5x) __..__..__..__..__..__..__..__.._
 72
    65
 73
     6
 40
0.625
 49
0.25
 74
     0
 49
-0.125
 74
     0
 49
0.0
 74
     0
 49
-0.125
 74
     0
 49
0.0
 74
     0
 49
-0.125
 74
     0
  0
LTYPE
  5
99
330
5
100
AcDbSymbolTableRecord
100
AcDbLinetypeTableRecord
  2
DIVIDEX2
 70
     0
  3
Divide (2x) ________  .  .  ________  .  .  _
 72
    65
 73
     6
 40
2.5
 49
1.0
 74
     0
 49
-0.5
 74
     0
 49
0.0
 74
     0
 49
-0.5
 74
     0
 49
0.0
 74
     0
 49
-0.5
 74
     0
  0
LTYPE
  5
9A
330
5
100
AcDbSymbolTableRecord
100
AcDbLinetypeTableRecord
  2
DOT
 70
     0
  3
Dot . . . . . . . . . . . . . . . . . . . . . .
 72
    65
 73
     2
 40
0.25
 49
0.0
 74
     0
 49
-0.25
 74
     0
  0
LTYPE
  5
9B
330
5
100
AcDbSymbolTableRecord
100
AcDbLinetypeTableRecord
  2
DOT2
 70
     0
  3
Dot (.5x) .....................................
 72
    65
 73
     2
 40
0.125
 49
0.0
 74
     0
 49
-0.125
 74
     0
  0
LTYPE
  5
9C
330
5
100
AcDbSymbolTableRecord
100
AcDbLinetypeTableRecord
  2
DOTX2
 70
     0
  3
Dot (2x) .  .  .  .  .  .  .  .  .  .  .  .  . 
 72
    65
 73
     2
 40
0.5
 49
0.0
 74
     0
 49
-0.5
 74
     0
  0
LTYPE
  5
9D
330
5
100
AcDbSymbolTableRecord
100
AcDbLinetypeTableRecord
  2
HIDDEN
 70
     0
  3
Hidden __ __ __ __ __ __ __ __ __ __ __ __ __ _
 72
    65
 73
     2
 40
0.375
 49
0.25
 74
     0
 49
-0.125
 74
     0
  0
LTYPE
  5
9E
330
5
100
AcDbSymbolTableRecord
100
AcDbLinetypeTableRecord
  2
HIDDEN2
 70
     0
  3
Hidden (.5x) _ _ _ _ _ _ _ _ _ _ _ _ _ _ _ _ _
 72
    65
 73
     2
 40
0.1875
 49
0.125
 74
     0
 49
-0.0625
 74
     0
  0
LTYPE
  5
9F
330
5
100
AcDbSymbolTableRecord
100
AcDbLinetypeTableRecord
  2
HIDDENX2
 70
     0
  3
Hidden (2x) ____ ____ ____ ____ ____ ____ ____
 72
    65
 73
     2
 40
0.75
 49
0.5
 74
     0
 49
-0.25
 74
     0
  0
LTYPE
  5
A0
330
5
100
AcDbSymbolTableRecord
100
AcDbLinetypeTableRecord
  2
PHANTOM
 70
     0
  3
Phantom ______  __  __  ______  __  __  ______
 72
    65
 73
     6
 40
2.5
 49
1.25
 74
     0
 49
-0.25
 74
     0
 49
0.25
 74
     0
 49
-0.25
 74
     0
 49
0.25
 74
     0
 49
-0.25
 74
     0
  0
LTYPE
  5
A1
330
5
100
AcDbSymbolTableRecord
100
AcDbLinetypeTableRecord
  2
PHANTOM2
 70
     0
  3
Phantom (.5x) ___ _ _ ___ _ _ ___ _ _ ___ _ _
 72
    65
 73
     6
 40
1.25
 49
0.625
 74
     0
 49
-0.125
 74
     0
 49
0.125
 74
     0
 49
-0.125
 74
     0
 49
0.125
 74
     0
 49
-0.125
 74
     0
  0
LTYPE
  5
A2
330
5
100
AcDbSymbolTableRecord
100
AcDbLinetypeTableRecord
  2
PHANTOMX2
 70
     0
  3
Phantom (2x) ____________    ____    ____   _
 72
    65
 73
     6
 40
5.0
 49
2.5
 74
     0
 49
-0.5
 74
     0
 49
0.5
 74
     0
 49
-0.5
 74
     0
 49
0.5
 74
     0
 49
-0.5
 74
     0
  0
LTYPE
  5
A3
330
5
100
AcDbSymbolTableRecord
100
AcDbLinetypeTableRecord
  2
ACAD_ISO02W100
 70
     0
  3
ISO dash __ __ __ __ __ __ __ __ __ __ __ __ __
 72
    65
 73
     2
 40
0.59
 49
0.47
 74
     0
 49
-0.12
 74
     0
  0
LTYPE
  5
A4
330
5
100
AcDbSymbolTableRecord
100
AcDbLinetypeTableRecord
  2
ACAD_ISO03W100
 70
     0
  3
ISO dash space __    __    __    __    __    __
 72
    65
 73
     2
 40
1.179999999999999
 49
0.47
 74
     0
 49
-0.71
 74
     0
  0
LTYPE
  5
A5
330
5
100
AcDbSymbolTableRecord
100
AcDbLinetypeTableRecord
  2
ACAD_ISO04W100
 70
     0
  3
ISO long-dash dot ____ . ____ . ____ . ____ . _
 72
    65
 73
     4
 40
1.179999999999999
 49
0.9399999999999998
 74
     0
 49
-0.12
 74
     0
 49
0.0
 74
     0
 49
-0.12
 74
     0
  0
LTYPE
  5
A6
330
5
100
AcDbSymbolTableRecord
100
AcDbLinetypeTableRecord
  2
ACAD_ISO05W100
 70
     0
  3
ISO long-dash double-dot ____ .. ____ .. ____ .
 72
    65
 73
     6
 40
1.299999999999999
 49
0.9399999999999998
 74
     0
 49
-0.12
 74
     0
 49
0.0
 74
     0
 49
-0.12
 74
     0
 49
0.0
 74
     0
 49
-0.12
 74
     0
  0
LTYPE
  5
A7
330
5
100
AcDbSymbolTableRecord
100
AcDbLinetypeTableRecord
  2
ACAD_ISO06W100
 70
     0
  3
ISO long-dash triple-dot ____ ... ____ ... ____
 72
    65
 73
     8
 40
1.419999999999999
 49
0.9399999999999998
 74
     0
 49
-0.12
 74
     0
 49
0.0
 74
     0
 49
-0.12
 74
     0
 49
0.0
 74
     0
 49
-0.12
 74
     0
 49
0.0
 74
     0
 49
-0.12
 74
     0
  0
LTYPE
  5
A8
330
5
100
AcDbSymbolTableRecord
100
AcDbLinetypeTableRecord
  2
ACAD_ISO07W100
 70
     0
  3
ISO dot . . . . . . . . . . . . . . . . . . . .
 72
    65
 73
     2
 40
0.12
 49
0.0
 74
     0
 49
-0.12
 74
     0
  0
LTYPE
  5
A9
330
5
100
AcDbSymbolTableRecord
100
AcDbLinetypeTableRecord
  2
ACAD_ISO08W100
 70
     0
  3
ISO long-dash short-dash ____ __ ____ __ ____ _
 72
    65
 73
     4
 40
0.95
 49
0.47
 74
     0
 49
-0.12
 74
     0
 49
0.24
 74
     0
 49
-0.12
 74
     0
  0
LTYPE
  5
AA
330
5
100
AcDbSymbolTableRecord
100
AcDbLinetypeTableRecord
  2
ACAD_ISO09W100
 70
     0
  3
ISO long-dash double-short-dash ____ __ __ ____
 72
    65
 73
     6
 40
1.31
 49
0.47
 74
     0
 49
-0.12
 74
     0
 49
0.24
 74
     0
 49
-0.12
 74
     0
 49
0.24
 74
     0
 49
-0.12
 74
     0
  0
LTYPE
  5
AB
330
5
100
AcDbSymbolTableRecord
100
AcDbLinetypeTableRecord
  2
ACAD_ISO10W100
 70
     0
  3
ISO dash dot __ . __ . __ . __ . __ . __ . __ .
 72
    65
 73
     4
 40
0.71
 49
0.47
 74
     0
 49
-0.12
 74
     0
 49
0.0
 74
     0
 49
-0.12
 74
     0
  0
LTYPE
  5
AC
330
5
100
AcDbSymbolTableRecord
100
AcDbLinetypeTableRecord
  2
ACAD_ISO11W100
 70
     0
  3
ISO double-dash dot __ __ . __ __ . __ __ . __ 
 72
    65
 73
     6
 40
1.299999999999999
 49
0.47
 74
     0
 49
-0.12
 74
     0
 49
0.47
 74
     0
 49
-0.12
 74
     0
 49
0.0
 74
     0
 49
-0.12
 74
     0
  0
LTYPE
  5
AD
330
5
100
AcDbSymbolTableRecord
100
AcDbLinetypeTableRecord
  2
ACAD_ISO12W100
 70
     0
  3
ISO dash double-dot __ . . __ . . __ . . __ . .
 72
    65
 73
     6
 40
0.8299999999999998
 49
0.47
 74
     0
 49
-0.12
 74
     0
 49
0.0
 74
     0
 49
-0.12
 74
     0
 49
0.0
 74
     0
 49
-0.12
 74
     0
  0
LTYPE
  5
AE
330
5
100
AcDbSymbolTableRecord
100
AcDbLinetypeTableRecord
  2
ACAD_ISO13W100
 70
     0
  3
ISO double-dash double-dot __ __ . . __ __ . . 
 72
    65
 73
     8
 40
1.419999999999999
 49
0.47
 74
     0
 49
-0.12
 74
     0
 49
0.47
 74
     0
 49
-0.12
 74
     0
 49
0.0
 74
     0
 49
-0.12
 74
     0
 49
0.0
 74
     0
 49
-0.12
 74
     0
  0
LTYPE
  5
AF
330
5
100
AcDbSymbolTableRecord
100
AcDbLinetypeTableRecord
  2
ACAD_ISO14W100
 70
     0
  3
ISO dash triple-dot __ . . . __ . . . __ . . . 
 72
    65
 73
     8
 40
0.95
 49
0.47
 74
     0
 49
-0.12
 74
     0
 49
0.0
 74
     0
 49
-0.12
 74
     0
 49
0.0
 74
     0
 49
-0.12
 74
     0
 49
0.0
 74
     0
 49
-0.12
 74
     0
  0
LTYPE
  5
B0
330
5
100
AcDbSymbolTableRecord
100
AcDbLinetypeTableRecord
  2
ACAD_ISO15W100
 70
     0
  3
ISO double-dash triple-dot __ __ . . . __ __ . 
 72
    65
 73
    10
 40
1.539999999999999
 49
0.47
 74
     0
 49
-0.12
 74
     0
 49
0.47
 74
     0
 49
-0.12
 74
     0
 49
0.0
 74
     0
 49
-0.12
 74
     0
 49
0.0
 74
     0
 49
-0.12
 74
     0
 49
0.0
 74
     0
 49
-0.12
 74
     0
  0
LTYPE
  5
B3
330
5
100
AcDbSymbolTableRecord
100
AcDbLinetypeTableRecord
  2
FENCELINE1
 70
     0
  3
Fenceline circle ----0-----0----0-----0----0---
 72
    65
 73
     4
 40
1.45
 49
0.25
 74
     0
 49
-0.1
 74
     4
 75
   133
340
B2
 46
0.1
 50
0.0
 44
-0.1
 45
0.0
 49
-0.1
 74
     0
 49
1.0
 74
     0
  0
LTYPE
  5
B4
330
5
100
AcDbSymbolTableRecord
100
AcDbLinetypeTableRecord
  2
FENCELINE2
 70
     0
  3
Fenceline square ----[]-----[]----[]-----[]----
 72
    65
 73
     4
 40
1.45
 49
0.25
 74
     0
 49
-0.1
 74
     4
 75
   132
340
B2
 46
0.1
 50
0.0
 44
-0.1
 45
0.0
 49
-0.1
 74
     0
 49
1.0
 74
     0
  0
LTYPE
  5
B5
330
5
100
AcDbSymbolTableRecord
100
AcDbLinetypeTableRecord
  2
TRACKS
 70
     0
  3
Tracks -|-|-|-|-|-|-|-|-|-|-|-|-|-|-|-|-|-|-|-|
 72
    65
 73
     2
 40
0.3
 49
0.15
 74
     4
 75
   130
340
B2
 46
0.25
 50
0.0
 44
0.0
 45
0.0
 49
0.15
 74
     0
  0
LTYPE
  5
B6
330
5
100
AcDbSymbolTableRecord
100
AcDbLinetypeTableRecord
  2
BATTING
 70
     0
  3
Batting SSSSSSSSSSSSSSSSSSSSSSSSSSSSSSSSSSSSSSS
 72
    65
 73
     4
 40
0.4001000000000001
 49
0.0001
 74
     0
 49
-0.1
 74
     4
 75
   134
340
B2
 46
0.1
 50
0.0
 44
-0.1
 45
0.0
 49
-0.2
 74
     4
 75
   134
340
B2
 46
0.1
 50
180.0
 44
0.1
 45
0.0
 49
-0.1
 74
     0
  0
LTYPE
  5
B7
330
5
100
AcDbSymbolTableRecord
100
AcDbLinetypeTableRecord
  2
HOT_WATER_SUPPLY
 70
     0
  3
Hot water supply ---- HW ---- HW ---- HW ----
 72
    65
 73
     3
 40
0.9
 49
0.5
 74
     0
 49
-0.2
 74
     2
 75
     0
340
55
 46
0.1
 50
0.0
 44
-0.1
 45
-0.05
  9
HW
 49
-0.2
 74
     0
  0
LTYPE
  5
B8
330
5
100
AcDbSymbolTableRecord
100
AcDbLinetypeTableRecord
  2
GAS_LINE
 70
     0
  3
Gas line ----GAS----GAS----GAS----GAS----GAS---
 72
    65
 73
     3
 40
0.95
 49
0.5
 74
     0
 49
-0.2
 74
     2
 75
     0
340
55
 46
0.1
 50
0.0
 44
-0.1
 45
-0.05
  9
GAS
 49
-0.25
 74
     0
  0
LTYPE
  5
B9
330
5
100
AcDbSymbolTableRecord
100
AcDbLinetypeTableRecord
  2
ZIGZAG
 70
     0
  3
Zig zag /\/\/\/\/\/\/\/\/\/\/\/\/\/\/\/\/\/\/\/
 72
    65
 73
     4
 40
0.8001000000000001
 49
0.0001
 74
     0
 49
-0.2
 74
     4
 75
   131
340
B2
 46
0.2
 50
0.0
 44
-0.2
 45
0.0
 49
-0.4
 74
     4
 75
   131
340
B2
 46
0.2
 50
180.0
 44
0.2
 45
0.0
 49
-0.2
 74
     0
  0
ENDTAB
  0
TABLE
  2
LAYER
  5
2
330
0
100
AcDbSymbolTable
 70
    27
  0
LAYER
  5
54
330
2
100
AcDbSymbolTableRecord
100
AcDbLayerTableRecord
  2
0
 70
     0
 62
     7
  6
Continuous
370
     0
390
F
  0
LAYER
  5
C0
330
2
100
AcDbSymbolTableRecord
100
AcDbLayerTableRecord
  2
Center Mark (ANSI)
 70
     0
 62
     7
  6
Continuous
370
     5
390
F
  0
LAYER
  5
C1
330
2
100
AcDbSymbolTableRecord
100
AcDbLayerTableRecord
  2
Centerline (ANSI)
 70
     0
 62
     7
  6
Continuous
370
     5
390
F
  0
LAYER
  5
C3
330
2
100
AcDbSymbolTableRecord
100
AcDbLayerTableRecord
  2
Dimension (ANSI)
 70
     0
 62
     7
  6
Continuous
370
     5
390
F
  0
LAYER
  5
CC
330
2
100
AcDbSymbolTableRecord
100
AcDbLayerTableRecord
  2
Symbol (ANSI)
 70
     0
 62
     7
  6
Continuous
370
     5
390
F
  0
LAYER
  5
CF
330
2
100
AcDbSymbolTableRecord
100
AcDbLayerTableRecord
  2
Visible (ANSI)
 70
     0
 62
     7
  6
Continuous
370
     5
390
F
  0
LAYER
  5
D0
330
2
100
AcDbSymbolTableRecord
100
AcDbLayerTableRecord
  2
Visible Narrow (ANSI)
 70
     0
 62
     7
  6
Continuous
370
     5
390
F
  0
LAYER
  5
2B4
330
2
100
AcDbSymbolTableRecord
100
AcDbLayerTableRecord
  2
Defpoints
 70
     0
 62
     7
  6
Continuous
290
     0
370
    -3
390
F
  0
ENDTAB
  0
TABLE
  2
STYLE
  5
3
330
0
100
AcDbSymbolTable
 70
    10
  0
STYLE
  5
55
330
3
100
AcDbSymbolTableRecord
100
AcDbTextStyleTableRecord
  2
Standard
 70
     0
 40
0.0
 41
1.0
 50
0.0
 71
     0
 42
0.2
  3
txt
  4

  0
STYLE
  5
5A
330
3
100
AcDbSymbolTableRecord
100
AcDbTextStyleTableRecord
  2
Annotative
 70
     0
 40
0.0
 41
1.0
 50
0.0
 71
     0
 42
0.2
  3
txt
  4

1001
AcadAnnotative
1000
AnnotativeData
1002
{
1070
     1
1070
     1
1002
}
  0
STYLE
  5
B2
330
3
100
AcDbSymbolTableRecord
100
AcDbTextStyleTableRecord
  2

 70
     1
 40
0.0
 41
1.0
 50
0.0
 71
     0
 42
0.2
  3
ltypeshp.shx
  4

  0
STYLE
  5
D4
330
3
100
AcDbSymbolTableRecord
100
AcDbTextStyleTableRecord
  2
ITALICC_120
 70
     0
 40
0.0
 41
1.0
 50
0.0
 71
     0
 42
0.2
  3
italicc.shx
  4

  0
STYLE
  5
D5
330
3
100
AcDbSymbolTableRecord
100
AcDbTextStyleTableRecord
  2
Label Text (ANSI)
 70
     0
 40
0.0
 41
1.0
 50
0.0
 71
     0
 42
0.2
  3
tahoma.ttf
  4

1001
ACAD
1000
Tahoma
1071
      256
  0
STYLE
  5
D6
330
3
100
AcDbSymbolTableRecord
100
AcDbTextStyleTableRecord
  2
Note Text (ANSI)
 70
     0
 40
0.0
 41
1.0
 50
0.0
 71
     0
 42
0.2
  3
RomanS.shx
  4

  0
STYLE
  5
D7
330
3
100
AcDbSymbolTableRecord
100
AcDbTextStyleTableRecord
  2
ROMANS
 70
     0
 40
0.0
 41
1.0
 50
0.0
 71
     0
 42
0.2
  3
romans.shx
  4

  0
STYLE
  5
D8
330
3
100
AcDbSymbolTableRecord
100
AcDbTextStyleTableRecord
  2
SANSSERIF_114
 70
     0
 40
0.0
 41
1.0
 50
0.0
 71
     0
 42
0.2
  3
tahoma.ttf
  4

1001
ACAD
1000
Tahoma
1071
      256
  0
STYLE
  5
D9
330
3
100
AcDbSymbolTableRecord
100
AcDbTextStyleTableRecord
  2
SANSSERIF_117
 70
     0
 40
0.0
 41
1.0
 50
0.0
 71
     0
 42
0.2
  3
tahoma.ttf
  4

1001
ACAD
1000
Tahoma
1071
      256
  0
STYLE
  5
15E
330
3
100
AcDbSymbolTableRecord
100
AcDbTextStyleTableRecord
  2
Text Style168
 70
     0
 40
0.0
 41
1.0
 50
0.0
 71
     0
 42
0.2
  3
tahoma.ttf
  4

1001
ACAD
1000
Tahoma
1071
      256
  0
ENDTAB
  0
TABLE
  2
VIEW
  5
6
330
0
100
AcDbSymbolTable
 70
     0
  0
ENDTAB
  0
TABLE
  2
UCS
  5
7
330
0
100
AcDbSymbolTable
 70
     0
  0
ENDTAB
  0
TABLE
  2
APPID
  5
9
330
0
100
AcDbSymbolTable
 70
     5
  0
APPID
  5
56
330
9
100
AcDbSymbolTableRecord
100
AcDbRegAppTableRecord
  2
ACAD
 70
     0
  0
APPID
  5
5E
330
9
100
AcDbSymbolTableRecord
100
AcDbRegAppTableRecord
  2
AcadAnnotative
 70
     0
  0
APPID
  5
619
330
9
100
AcDbSymbolTableRecord
100
AcDbRegAppTableRecord
  2
ACAD_DSTYLE_DIMANGULAR_EXTENSION
 70
     0
  0
APPID
  5
EEF
330
9
100
AcDbSymbolTableRecord
100
AcDbRegAppTableRecord
  2
ACAD_DSTYLE_DIMRADIAL_EXTENSION
 70
     0
  0
APPID
  5
157F
330
9
100
AcDbSymbolTableRecord
100
AcDbRegAppTableRecord
  2
ACAD_MLEADERVER
 70
     0
  0
ENDTAB
  0
TABLE
  2
DIMSTYLE
  5
A
330
0
100
AcDbSymbolTable
 70
    15
100
AcDbDimStyleTable
 71
     2
340
E2
340
58
  0
DIMSTYLE
105
58
330
A
100
AcDbSymbolTableRecord
100
AcDbDimStyleTableRecord
  2
Standard
 70
     0
340
55
  0
DIMSTYLE
105
59
330
A
100
AcDbSymbolTableRecord
100
AcDbDimStyleTableRecord
  2
Annotative
 70
     0
340
55
1001
AcadAnnotative
1000
AnnotativeData
1002
{
1070
     1
1070
     1
1002
}
  0
DIMSTYLE
105
DA
330
A
100
AcDbSymbolTableRecord
100
AcDbDimStyleTableRecord
  2
Architectural (ANSI)
 70
     0
 40
5.0
 41
0.0984251946210861
 43
0.2362204724409449
 44
0.125
 45
0.00000001
 46
0.3937007874015748
 78
     3
 79
     3
140
0.1000000014901161
146
1.200000047683715
147
0.031496062992126
171
     1
176
   256
177
   256
178
   256
272
     2
274
     1
276
     2
277
     4
284
    12
285
     4
286
    12
340
D6
371
    -1
372
    -1
  0
DIMSTYLE
105
DB
330
A
100
AcDbSymbolTableRecord
100
AcDbDimStyleTableRecord
  2
Architectural (ANSI)$7
 70
     0
 40
5.0
 41
0.0984251946210861
 43
0.2362204724409449
 44
0.125
 45
0.00000001
 46
0.3937007874015748
 78
     3
 79
     3
140
0.1000000014901161
146
1.200000047683715
147
0.031496062992126
171
     1
176
   256
177
   256
178
   256
272
     2
274
     1
276
     2
277
     4
284
    12
285
     4
286
    12
340
D6
371
    -1
372
    -1
  0
DIMSTYLE
105
DC
330
A
100
AcDbSymbolTableRecord
100
AcDbDimStyleTableRecord
  2
Default - Fraction (ANSI)
 70
     0
 40
5.0
 41
0.0984251946210861
 43
0.2362204724409449
 44
0.125
 45
0.00000001
 46
0.3937007874015748
 79
     3
140
0.1000000014901161
146
1.200000047683715
147
0.031496062992126
171
     1
176
   256
177
   256
178
   256
272
     2
274
     1
276
     2
277
     5
284
    12
285
     4
286
    12
340
D6
371
    -1
372
    -1
  0
DIMSTYLE
105
DD
330
A
100
AcDbSymbolTableRecord
100
AcDbDimStyleTableRecord
  2
Default - Fraction (ANSI)$7
 70
     0
 40
5.0
 41
0.0984251946210861
 43
0.2362204724409449
 44
0.125
 45
0.00000001
 46
0.3937007874015748
 79
     3
140
0.1000000014901161
146
1.200000047683715
147
0.031496062992126
171
     1
176
   256
177
   256
178
   256
272
     2
274
     1
276
     2
277
     5
284
    12
285
     4
286
    12
340
D6
371
    -1
372
    -1
  0
DIMSTYLE
105
DE
330
A
100
AcDbSymbolTableRecord
100
AcDbDimStyleTableRecord
  2
Default - mm (ANSI)
 70
     0
 40
5.0
 41
0.0984251946210861
 42
0.063
 43
0.2362204724409449
 44
0.125
 45
0.00000001
 46
0.3937007874015748
 73
     0
 78
     4
 79
     1
140
0.1000000014901161
143
1.0
144
25.4
146
1.200000047683715
147
0.031496062992126
171
     1
176
   256
177
   256
178
   256
179
     1
271
     2
272
     2
274
     1
284
     4
285
     4
340
D6
371
    -1
372
    -1
  0
DIMSTYLE
105
DF
330
A
100
AcDbSymbolTableRecord
100
AcDbDimStyleTableRecord
  2
Default - mm (ANSI)$7
 70
     0
 40
5.0
 41
0.0984251946210861
 42
0.063
 43
0.2362204724409449
 44
0.125
 45
0.00000001
 46
0.3937007874015748
 73
     0
 78
     4
 79
     1
140
0.1000000014901161
143
1.0
144
25.4
146
1.200000047683715
147
0.031496062992126
171
     1
176
   256
177
   256
178
   256
179
     1
271
     2
272
     2
274
     1
284
     4
285
     4
340
D6
371
    -1
372
    -1
  0
DIMSTYLE
105
E0
330
A
100
AcDbSymbolTableRecord
100
AcDbDimStyleTableRecord
  2
Default - mm [in] (ANSI)
 70
     0
  4
 in
 40
5.0
 41
0.0984251946210861
 42
0.063
 43
0.25
 44
0.125
 45
0.00000001
 46
0.3937007874015748
 73
     0
 78
     4
 79
     1
140
0.1000000014901161
143
0.03937
144
25.4
146
1.200000047683715
147
0.031496062992126
170
     1
171
     3
176
   256
177
   256
178
   256
179
     1
271
     2
272
     2
274
     3
284
     4
285
     4
286
     4
340
D6
371
    -1
372
    -1
  0
DIMSTYLE
105
E1
330
A
100
AcDbSymbolTableRecord
100
AcDbDimStyleTableRecord
  2
Default - mm [in] (ANSI)$7
 70
     0
  4
 in
 40
5.0
 41
0.0984251946210861
 42
0.063
 43
0.25
 44
0.125
 45
0.00000001
 46
0.3937007874015748
 73
     0
 78
     4
 79
     1
140
0.1000000014901161
143
0.03937
144
25.4
146
1.200000047683715
147
0.031496062992126
170
     1
171
     3
176
   256
177
   256
178
   256
179
     1
271
     2
272
     2
274
     3
284
     4
285
     4
286
     4
340
D6
371
    -1
372
    -1
  0
DIMSTYLE
105
E2
102
{ACAD_REACTORS
330
2B2
330
3B3
330
4B1
330
59B
330
6BF
330
7AE
330
8A0
330
998
330
A82
330
B82
330
C6C
330
D58
330
E56
330
F15
330
FFF
330
10E9
330
11D3
330
12C5
330
13AF
330
1452
102
}
330
A
100
AcDbSymbolTableRecord
100
AcDbDimStyleTableRecord
  2
Default (ANSI)
 70
     0
 40
5.0
 41
0.0984251946210861
 43
0.2362204724409449
 44
0.125
 45
0.00000001
 46
0.3937007874015748
140
0.1000000014901161
147
0.031496062992126
176
   256
177
   256
178
   256
271
     2
272
     2
340
D7
371
    -1
372
    -1
  0
DIMSTYLE
105
E3
330
A
100
AcDbSymbolTableRecord
100
AcDbDimStyleTableRecord
  2
Default (ANSI)$7
 70
     0
 40
5.0
 41
0.0984251946210861
 43
0.2362204724409449
 44
0.125
 45
0.00000001
 46
0.3937007874015748
140
0.1000000014901161
147
0.031496062992126
176
   256
177
   256
178
   256
271
     2
272
     2
340
D7
371
    -1
372
    -1
  0
DIMSTYLE
105
E4
330
A
100
AcDbSymbolTableRecord
100
AcDbDimStyleTableRecord
  2
Alternate (ANSI)
 70
     0
 40
5.0
 41
0.0979999974370003
340
55
342
E5
  0
DIMSTYLE
105
F7
330
A
100
AcDbSymbolTableRecord
100
AcDbDimStyleTableRecord
  2
Datum (ANSI)
 70
     0
 40
5.0
 41
0.0979999974370003
340
55
342
E5
  0
DIMSTYLE
105
106
330
A
100
AcDbSymbolTableRecord
100
AcDbDimStyleTableRecord
  2
Large (ANSI)
 70
     0
 40
5.0
 41
0.1959999948740005
340
55
342
E5
  0
ENDTAB
  0
TABLE
  2
BLOCK_RECORD
  5
1
330
0
100
AcDbSymbolTable
 70
    24
  0
BLOCK_RECORD
  5
6C
330
1
100
AcDbSymbolTableRecord
100
AcDbBlockTableRecord
  2
*Model_Space
340
6F
  0
BLOCK_RECORD
  5
68
330
1
100
AcDbSymbolTableRecord
100
AcDbBlockTableRecord
  2
*Paper_Space
340
6B
  0
BLOCK_RECORD
  5
70
330
1
100
AcDbSymbolTableRecord
100
AcDbBlockTableRecord
  2
*Paper_Space0
340
73
  0
BLOCK_RECORD
  5
E5
330
1
100
AcDbSymbolTableRecord
100
AcDbBlockTableRecord
  2
_Closed
340
0
  0
BLOCK_RECORD
  5
EC
330
1
100
AcDbSymbolTableRecord
100
AcDbBlockTableRecord
  2
DatumFilled45
340
0
  0
BLOCK_RECORD
  5
F8
330
1
100
AcDbSymbolTableRecord
100
AcDbBlockTableRecord
  2
Filled-1
340
0
  0
BLOCK_RECORD
  5
2B5
330
1
100
AcDbSymbolTableRecord
100
AcDbBlockTableRecord
  2
*D4
340
0
  0
BLOCK_RECORD
  5
3B4
330
1
100
AcDbSymbolTableRecord
100
AcDbBlockTableRecord
  2
*D5
340
0
  0
BLOCK_RECORD
  5
4B2
330
1
100
AcDbSymbolTableRecord
100
AcDbBlockTableRecord
  2
*D6
340
0
  0
BLOCK_RECORD
  5
59C
330
1
100
AcDbSymbolTableRecord
100
AcDbBlockTableRecord
  2
*D7
340
0
  0
BLOCK_RECORD
  5
6C0
330
1
100
AcDbSymbolTableRecord
100
AcDbBlockTableRecord
  2
*D8
340
0
  0
BLOCK_RECORD
  5
7AF
330
1
100
AcDbSymbolTableRecord
100
AcDbBlockTableRecord
  2
*D9
340
0
  0
BLOCK_RECORD
  5
8A1
330
1
100
AcDbSymbolTableRecord
100
AcDbBlockTableRecord
  2
*D10
340
0
  0
BLOCK_RECORD
  5
999
330
1
100
AcDbSymbolTableRecord
100
AcDbBlockTableRecord
  2
*D11
340
0
  0
BLOCK_RECORD
  5
A83
330
1
100
AcDbSymbolTableRecord
100
AcDbBlockTableRecord
  2
*D12
340
0
  0
BLOCK_RECORD
  5
B83
330
1
100
AcDbSymbolTableRecord
100
AcDbBlockTableRecord
  2
*D13
340
0
  0
BLOCK_RECORD
  5
C6D
330
1
100
AcDbSymbolTableRecord
100
AcDbBlockTableRecord
  2
*D14
340
0
  0
BLOCK_RECORD
  5
D59
330
1
100
AcDbSymbolTableRecord
100
AcDbBlockTableRecord
  2
*D15
340
0
  0
BLOCK_RECORD
  5
E57
330
1
100
AcDbSymbolTableRecord
100
AcDbBlockTableRecord
  2
*D16
340
0
  0
BLOCK_RECORD
  5
F16
330
1
100
AcDbSymbolTableRecord
100
AcDbBlockTableRecord
  2
*D17
340
0
  0
BLOCK_RECORD
  5
1000
330
1
100
AcDbSymbolTableRecord
100
AcDbBlockTableRecord
  2
*D18
340
0
  0
BLOCK_RECORD
  5
10EA
330
1
100
AcDbSymbolTableRecord
100
AcDbBlockTableRecord
  2
*D19
340
0
  0
BLOCK_RECORD
  5
11D4
330
1
100
AcDbSymbolTableRecord
100
AcDbBlockTableRecord
  2
*D20
340
0
  0
BLOCK_RECORD
  5
12C6
330
1
100
AcDbSymbolTableRecord
100
AcDbBlockTableRecord
  2
*D21
340
0
  0
BLOCK_RECORD
  5
13B0
330
1
100
AcDbSymbolTableRecord
100
AcDbBlockTableRecord
  2
*D22
340
0
  0
BLOCK_RECORD
  5
1453
330
1
100
AcDbSymbolTableRecord
100
AcDbBlockTableRecord
  2
*D23
340
0
  0
ENDTAB
  0
ENDSEC
  0
SECTION
  2
BLOCKS
  0
BLOCK
  5
6D
330
6C
100
AcDbEntity
  8
0
100
AcDbBlockBegin
  2
*Model_Space
 70
     0
 10
0.0
 20
0.0
 30
0.0
  3
*Model_Space
  1

  0
ENDBLK
  5
6E
330
6C
100
AcDbEntity
  8
0
100
AcDbBlockEnd
  0
BLOCK
  5
69
330
68
100
AcDbEntity
 67
     1
  8
0
100
AcDbBlockBegin
  2
*Paper_Space
 70
     0
 10
0.0
 20
0.0
 30
0.0
  3
*Paper_Space
  1

  0
ENDBLK
  5
6A
330
68
100
AcDbEntity
 67
     1
  8
0
100
AcDbBlockEnd
  0
BLOCK
  5
71
330
70
100
AcDbEntity
 67
     1
  8
0
100
AcDbBlockBegin
  2
*Paper_Space0
 70
     0
 10
0.0
 20
0.0
 30
0.0
  3
*Paper_Space0
  1

  0
ENDBLK
  5
72
330
70
100
AcDbEntity
 67
     1
  8
0
100
AcDbBlockEnd
  0
BLOCK
  5
EA
330
E5
100
AcDbEntity
  8
0
100
AcDbBlockBegin
  2
_Closed
 70
     0
 10
0.0
 20
0.0
 30
0.0
  3
_Closed
  1

  0
LINE
  5
E6
330
E5
100
AcDbEntity
  8
0
  6
ByBlock
 62
     0
370
    -2
100
AcDbLine
 10
-1.0
 20
0.1666666666666666
 30
0.0
 11
0.0
 21
0.0
 31
0.0
  0
LINE
  5
E7
330
E5
100
AcDbEntity
  8
0
  6
ByBlock
 62
     0
370
    -2
100
AcDbLine
 10
0.0
 20
0.0
 30
0.0
 11
-1.0
 21
-0.1666666666666666
 31
0.0
  0
LINE
  5
E8
330
E5
100
AcDbEntity
  8
0
  6
ByBlock
 62
     0
370
    -2
100
AcDbLine
 10
-1.0
 20
0.1666666666666666
 30
0.0
 11
-1.0
 21
-0.1666666666666666
 31
0.0
  0
LINE
  5
E9
330
E5
100
AcDbEntity
  8
0
  6
ByBlock
 62
     0
370
    -2
100
AcDbLine
 10
0.0
 20
0.0
 30
0.0
 11
-1.0
 21
0.0
 31
0.0
  0
ENDBLK
  5
EB
330
E5
100
AcDbEntity
  8
0
100
AcDbBlockEnd
  0
BLOCK
  5
ED
330
EC
100
AcDbEntity
  8
0
100
AcDbBlockBegin
  2
DatumFilled45
 70
     0
 10
0.0
 20
0.0
 30
0.0
  3
DatumFilled45
  1

  0
POLYLINE
  5
EF
330
EC
100
AcDbEntity
  8
0
 62
     0
100
AcDb2dPolyline
 66
     1
 10
0.0
 20
0.0
 30
0.0
 70
   128
  0
VERTEX
  5
F0
330
EF
100
AcDbEntity
  8
0
 62
     0
100
AcDbVertex
100
AcDb2dVertex
 10
0.0
 20
0.9999999999999998
 30
0.0
  0
VERTEX
  5
F1
330
EF
100
AcDbEntity
  8
0
 62
     0
100
AcDbVertex
100
AcDb2dVertex
 10
0.0
 20
-0.9999999999999998
 30
0.0
  0
VERTEX
  5
F3
330
EF
100
AcDbEntity
  8
0
 62
     0
100
AcDbVertex
100
AcDb2dVertex
 10
-0.9999999999999998
 20
0.0
 30
0.0
  0
VERTEX
  5
F4
330
EF
100
AcDbEntity
  8
0
 62
     0
100
AcDbVertex
100
AcDb2dVertex
 10
0.0
 20
0.9999999999999998
 30
0.0
  0
SEQEND
  5
F2
330
EF
100
AcDbEntity
  8
0
 62
     0
  0
SOLID
  5
F6
330
EC
100
AcDbEntity
  8
0
 62
     0
100
AcDbTrace
 10
0.0
 20
0.9999999999999998
 30
0.0
 11
0.0
 21
-0.9999999999999998
 31
0.0
 12
-0.9999999999999998
 22
0.0
 32
0.0
 13
0.0
 23
0.9999999999999998
 33
0.0
  0
ENDBLK
  5
EE
330
EC
100
AcDbEntity
  8
0
100
AcDbBlockEnd
  0
BLOCK
  5
F9
330
F8
100
AcDbEntity
  8
0
100
AcDbBlockBegin
  2
Filled-1
 70
     0
 10
0.0
 20
0.0
 30
0.0
  3
Filled-1
  1

  0
LINE
  5
FB
330
F8
100
AcDbEntity
  8
0
 62
     0
100
AcDbLine
 10
-0.9999999999999998
 20
0.0
 30
0.0
 11
0.0
 21
0.0
 31
0.0
  0
POLYLINE
  5
FC
330
F8
100
AcDbEntity
  8
0
 62
     0
100
AcDb2dPolyline
 66
     1
 10
0.0
 20
0.0
 30
0.0
 70
   128
  0
VERTEX
  5
FD
330
FC
100
AcDbEntity
  8
0
 62
     0
100
AcDbVertex
100
AcDb2dVertex
 10
-0.9999999999999998
 20
-0.0994897959183674
 30
0.0
  0
VERTEX
  5
FE
330
FC
100
AcDbEntity
  8
0
 62
     0
100
AcDbVertex
100
AcDb2dVertex
 10
0.0
 20
0.0
 30
0.0
  0
VERTEX
  5
100
330
FC
100
AcDbEntity
  8
0
 62
     0
100
AcDbVertex
100
AcDb2dVertex
 10
-0.9999999999999998
 20
0.0994897959183674
 30
0.0
  0
VERTEX
  5
101
330
FC
100
AcDbEntity
  8
0
 62
     0
100
AcDbVertex
100
AcDb2dVertex
 10
-0.9999999999999998
 20
-0.0994897959183674
 30
0.0
  0
SEQEND
  5
FF
330
FC
100
AcDbEntity
  8
0
 62
     0
  0
SOLID
  5
102
330
F8
100
AcDbEntity
  8
0
 62
     0
100
AcDbTrace
 10
-0.9999999999999998
 20
-0.0994897959183674
 30
0.0
 11
0.0
 21
0.0
 31
0.0
 12
-0.9999999999999998
 22
0.0994897959183674
 32
0.0
 13
-0.9999999999999998
 23
-0.0994897959183674
 33
0.0
  0
LINE
  5
103
330
F8
100
AcDbEntity
  8
0
 62
     0
100
AcDbLine
 10
-0.9999999999999998
 20
-0.0994897959183674
 30
0.0
 11
0.0
 21
0.0
 31
0.0
  0
LINE
  5
104
330
F8
100
AcDbEntity
  8
0
 62
     0
100
AcDbLine
 10
0.0
 20
0.0
 30
0.0
 11
-0.9999999999999998
 21
0.0994897959183674
 31
0.0
  0
LINE
  5
105
330
F8
100
AcDbEntity
  8
0
 62
     0
100
AcDbLine
 10
-0.9999999999999998
 20
0.0994897959183674
 30
0.0
 11
-0.9999999999999998
 21
-0.0994897959183674
 31
0.0
  0
ENDBLK
  5
FA
330
F8
100
AcDbEntity
  8
0
100
AcDbBlockEnd
  0
BLOCK
  5
2B6
330
2B5
100
AcDbEntity
  8
0
100
AcDbBlockBegin
  2
*D4
 70
     1
 10
0.0
 20
0.0
 30
0.0
  3
*D4
  1

  0
LINE
  5
3A9
330
2B5
100
AcDbEntity
  8
Dimension (ANSI)
440
 16777216
100
AcDbLine
 10
27.82828069254168
 20
33.36963495842248
 30
0.0
 11
24.20746376340777
 21
33.36963495842248
 31
0.0
  0
LINE
  5
3AA
330
2B5
100
AcDbEntity
  8
Dimension (ANSI)
440
 16777216
100
AcDbLine
 10
28.06268069254164
 20
27.36976109962071
 30
0.0
 11
24.20746376340777
 21
27.36976109962071
 31
0.0
  0
LINE
  5
3AB
330
2B5
100
AcDbEntity
  8
Dimension (ANSI)
440
 16777216
100
AcDbLine
 10
24.83246376340777
 20
32.87750898531705
 30
0.0
 11
24.83246376340777
 21
31.19384502058295
 31
0.0
  0
LINE
  5
3AC
330
2B5
100
AcDbEntity
  8
Dimension (ANSI)
440
 16777216
100
AcDbLine
 10
24.83246376340777
 20
27.86188707272614
 30
0.0
 11
24.83246376340777
 21
29.54555103746015
 31
0.0
  0
SOLID
  5
3AD
330
2B5
100
AcDbEntity
  8
Dimension (ANSI)
440
 16777216
100
AcDbTrace
 10
24.75044276789021
 20
32.87750898531705
 30
0.0
 11
24.91448475892534
 21
32.87750898531705
 31
0.0
 12
24.83246376340777
 22
33.36963495842248
 32
0.0
 13
24.83246376340777
 23
33.36963495842248
 33
0.0
  0
SOLID
  5
3AE
330
2B5
100
AcDbEntity
  8
Dimension (ANSI)
440
 16777216
100
AcDbTrace
 10
24.75044276789021
 20
27.86188707272614
 30
0.0
 11
24.91448475892534
 21
27.86188707272614
 31
0.0
 12
24.83246376340777
 22
27.36976109962071
 32
0.0
 13
24.83246376340777
 23
27.36976109962071
 33
0.0
  0
MTEXT
  5
3AF
330
2B5
100
AcDbEntity
  8
Dimension (ANSI)
440
 16777216
100
AcDbMText
 10
24.83246376340777
 20
30.36969802902155
 30
0.0
 40
0.5000000074505806
 41
0.0
 71
     5
 72
     1
  1
\A1;6.00{\PHEIGHT}
  7
ROMANS
 73
     1
 44
1.0
  0
POINT
  5
3B0
330
2B5
100
AcDbEntity
  8
Defpoints
 62
     0
440
 16777216
100
AcDbPoint
 10
28.14078069254168
 20
33.36963495842248
 30
0.0
  0
POINT
  5
3B1
330
2B5
100
AcDbEntity
  8
Defpoints
 62
     0
440
 16777216
100
AcDbPoint
 10
28.37518069254164
 20
27.36976109962071
 30
0.0
  0
POINT
  5
3B2
330
2B5
100
AcDbEntity
  8
Defpoints
 62
     0
440
 16777216
100
AcDbPoint
 10
24.83246376340777
 20
27.36976109962071
 30
0.0
  0
ENDBLK
  5
2B7
330
2B5
100
AcDbEntity
  8
0
100
AcDbBlockEnd
  0
BLOCK
  5
3B5
330
3B4
100
AcDbEntity
  8
0
100
AcDbBlockBegin
  2
*D5
 70
     1
 10
0.0
 20
0.0
 30
0.0
  3
*D5
  1

  0
LINE
  5
4A7
330
3B4
100
AcDbEntity
  8
Dimension (ANSI)
440
 16777216
100
AcDbLine
 10
28.00018069254168
 20
33.54153495842248
 30
0.0
 11
28.00018069254168
 21
35.82253889543036
 31
0.0
  0
LINE
  5
4A8
330
3B4
100
AcDbEntity
  8
Dimension (ANSI)
440
 16777216
100
AcDbLine
 10
46.12518069254174
 20
33.5415349584225
 30
0.0
 11
46.12518069254174
 21
35.82253889543036
 31
0.0
  0
LINE
  5
4A9
330
3B4
100
AcDbEntity
  8
Dimension (ANSI)
440
 16777216
100
AcDbLine
 10
28.49230666564711
 20
35.19753889543036
 30
0.0
 11
35.89329560059776
 21
35.19753889543036
 31
0.0
  0
LINE
  5
4AA
330
3B4
100
AcDbEntity
  8
Dimension (ANSI)
440
 16777216
100
AcDbLine
 10
45.63305471943631
 20
35.19753889543036
 30
0.0
 11
38.23206578448566
 21
35.19753889543036
 31
0.0
  0
SOLID
  5
4AB
330
3B4
100
AcDbEntity
  8
Dimension (ANSI)
440
 16777216
100
AcDbTrace
 10
28.49230666564711
 20
35.27955989094794
 30
0.0
 11
28.49230666564711
 21
35.11551789991279
 31
0.0
 12
28.00018069254168
 22
35.19753889543036
 32
0.0
 13
28.00018069254168
 23
35.19753889543036
 33
0.0
  0
SOLID
  5
4AC
330
3B4
100
AcDbEntity
  8
Dimension (ANSI)
440
 16777216
100
AcDbTrace
 10
45.63305471943631
 20
35.27955989094794
 30
0.0
 11
45.63305471943631
 21
35.11551789991279
 31
0.0
 12
46.12518069254174
 22
35.19753889543036
 32
0.0
 13
46.12518069254174
 23
35.19753889543036
 33
0.0
  0
MTEXT
  5
4AD
330
3B4
100
AcDbEntity
  8
Dimension (ANSI)
440
 16777216
100
AcDbMText
 10
37.0626806925417
 20
35.19753889543036
 30
0.0
 40
0.5000000074505806
 41
0.0
 71
     5
 72
     1
  1
\A1;18.13{\PWIDTH}
  7
ROMANS
 73
     1
 44
1.0
  0
POINT
  5
4AE
330
3B4
100
AcDbEntity
  8
Defpoints
 62
     0
440
 16777216
100
AcDbPoint
 10
28.00018069254168
 20
33.22903495842248
 30
0.0
  0
POINT
  5
4AF
330
3B4
100
AcDbEntity
  8
Defpoints
 62
     0
440
 16777216
100
AcDbPoint
 10
46.12518069254174
 20
33.2290349584225
 30
0.0
  0
POINT
  5
4B0
330
3B4
100
AcDbEntity
  8
Defpoints
 62
     0
440
 16777216
100
AcDbPoint
 10
46.12518069254174
 20
35.19753889543036
 30
0.0
  0
ENDBLK
  5
3B6
330
3B4
100
AcDbEntity
  8
0
100
AcDbBlockEnd
  0
BLOCK
  5
4B3
330
4B2
100
AcDbEntity
  8
0
100
AcDbBlockBegin
  2
*D6
 70
     1
 10
0.0
 20
0.0
 30
0.0
  3
*D6
  1

  0
LINE
  5
591
330
4B2
100
AcDbEntity
  8
Dimension (ANSI)
440
 16777216
100
AcDbLine
 10
7.224445143888318
 20
33.54153495842249
 30
0.0
 11
7.224445143888318
 21
37.04399017959342
 31
0.0
  0
LINE
  5
592
330
4B2
100
AcDbEntity
  8
Dimension (ANSI)
440
 16777216
100
AcDbLine
 10
15.22444514388832
 20
33.68213495842248
 30
0.0
 11
15.22444514388832
 21
37.04399017959342
 31
0.0
  0
LINE
  5
593
330
4B2
100
AcDbEntity
  8
Dimension (ANSI)
440
 16777216
100
AcDbLine
 10
7.716571116993748
 20
36.41899017959342
 30
0.0
 11
10.30506005566966
 21
36.41899017959342
 31
0.0
  0
LINE
  5
594
330
4B2
100
AcDbEntity
  8
Dimension (ANSI)
440
 16777216
100
AcDbLine
 10
14.73231917078289
 20
36.41899017959342
 30
0.0
 11
12.14383023210697
 21
36.41899017959342
 31
0.0
  0
SOLID
  5
595
330
4B2
100
AcDbEntity
  8
Dimension (ANSI)
440
 16777216
100
AcDbTrace
 10
7.716571116993748
 20
36.501011175111
 30
0.0
 11
7.716571116993748
 21
36.33696918407585
 31
0.0
 12
7.224445143888318
 22
36.41899017959342
 32
0.0
 13
7.224445143888318
 23
36.41899017959342
 33
0.0
  0
SOLID
  5
596
330
4B2
100
AcDbEntity
  8
Dimension (ANSI)
440
 16777216
100
AcDbTrace
 10
14.73231917078289
 20
36.501011175111
 30
0.0
 11
14.73231917078289
 21
36.33696918407585
 31
0.0
 12
15.22444514388832
 22
36.41899017959342
 32
0.0
 13
15.22444514388832
 23
36.41899017959342
 33
0.0
  0
MTEXT
  5
597
330
4B2
100
AcDbEntity
  8
Dimension (ANSI)
440
 16777216
100
AcDbMText
 10
10.46254037063029
 20
36.66899018331871
 30
0.0
 40
0.5000000074505806
 41
0.0
 71
     1
 72
     1
  1
\A1;8.00
  7
ROMANS
 73
     1
 44
1.0
  0
POINT
  5
598
330
4B2
100
AcDbEntity
  8
Defpoints
 62
     0
440
 16777216
100
AcDbPoint
 10
7.224445143888318
 20
33.22903495842249
 30
0.0
  0
POINT
  5
599
330
4B2
100
AcDbEntity
  8
Defpoints
 62
     0
440
 16777216
100
AcDbPoint
 10
15.22444514388832
 20
33.36963495842248
 30
0.0
  0
POINT
  5
59A
330
4B2
100
AcDbEntity
  8
Defpoints
 62
     0
440
 16777216
100
AcDbPoint
 10
15.22444514388832
 20
36.41899017959342
 30
0.0
  0
ENDBLK
  5
4B4
330
4B2
100
AcDbEntity
  8
0
100
AcDbBlockEnd
  0
BLOCK
  5
59D
330
59C
100
AcDbEntity
  8
0
100
AcDbBlockBegin
  2
*D7
 70
     1
 10
0.0
 20
0.0
 30
0.0
  3
*D7
  1

  0
LINE
  5
6B4
330
59C
100
AcDbEntity
  8
Dimension (ANSI)
440
 16777216
100
AcDbLine
 10
15.89743640579223
 20
33.3696349584225
 30
0.0
 11
19.50846090042432
 21
33.36963495842249
 31
0.0
  0
LINE
  5
6B5
330
59C
100
AcDbEntity
  8
Dimension (ANSI)
440
 16777216
100
AcDbLine
 10
15.47433163356711
 20
33.96112740723459
 30
0.0
 11
16.6408094141182
 21
37.37855736091521
 31
0.0
  0
ARC
  5
6B6
330
59C
100
AcDbEntity
  8
Dimension (ANSI)
440
 16777216
100
AcDbCircle
 10
15.27243640579222
 20
33.3696349584225
 30
0.0
 40
3.611024494632088
100
AcDbArc
 50
7.814571252430758
 51
27.85728080605089
  0
ARC
  5
6B7
330
59C
100
AcDbEntity
  8
Dimension (ANSI)
440
 16777216
100
AcDbCircle
 10
15.27243640579222
 20
33.3696349584225
 30
0.0
 40
3.611024494632088
100
AcDbArc
 50
43.86468516009993
 51
63.33901982535719
  0
SOLID
  5
6B8
330
59C
100
AcDbEntity
  8
Dimension (ANSI)
440
 16777216
100
AcDbTrace
 10
18.93175672439308
 20
33.86620613207017
 30
0.0
 11
18.76809602894146
 21
33.85502795748449
 31
0.0
 12
18.88346090042431
 22
33.3696349584225
 32
0.0
 13
18.88346090042431
 23
33.3696349584225
 33
0.0
  0
SOLID
  5
6B9
330
59C
100
AcDbEntity
  8
Dimension (ANSI)
440
 16777216
100
AcDbTrace
 10
16.8610176689772
 20
36.52108734338914
 30
0.0
 11
16.92446425976909
 21
36.67236293606575
 31
0.0
 12
16.43891418634331
 22
36.78706491210312
 32
0.0
 13
16.43891418634331
 23
36.78706491210312
 33
0.0
  0
MTEXT
  5
6BA
330
59C
100
AcDbEntity
  8
Dimension (ANSI)
440
 16777216
100
AcDbMText
 10
17.71374287069306
 20
35.71444142970907
 30
0.0
 40
0.5000000074505806
 41
0.0
 71
     1
 72
     1
  1
\A1;71\U+00B0
  7
ROMANS
 73
     1
 44
1.0
  0
POINT
  5
6BB
330
59C
100
AcDbEntity
  8
Defpoints
 62
     0
440
 16777216
100
AcDbPoint
 10
15.27243640579222
 20
33.3696349584225
 30
0.0
  0
POINT
  5
6BC
330
59C
100
AcDbEntity
  8
Defpoints
 62
     0
440
 16777216
100
AcDbPoint
 10
15.58493640579222
 20
33.3696349584225
 30
0.0
  0
POINT
  5
6BD
330
59C
100
AcDbEntity
  8
Defpoints
 62
     0
440
 16777216
100
AcDbPoint
 10
15.37338401967966
 20
33.66538118282853
 30
0.0
  0
POINT
  5
6BE
330
59C
100
AcDbEntity
  8
Defpoints
 62
     0
440
 16777216
100
AcDbPoint
 10
17.71499417295113
 20
36.02922316995537
 30
0.0
  0
ENDBLK
  5
59E
330
59C
100
AcDbEntity
  8
0
100
AcDbBlockEnd
  0
BLOCK
  5
6C1
330
6C0
100
AcDbEntity
  8
0
100
AcDbBlockBegin
  2
*D8
 70
     1
 10
0.0
 20
0.0
 30
0.0
  3
*D8
  1

  0
LINE
  5
7A6
330
6C0
100
AcDbEntity
  8
Dimension (ANSI)
440
 16777216
100
AcDbLine
 10
44.38305471943919
 20
42.22718597175504
 30
0.0
 11
43.89092874633376
 21
42.22718597175504
 31
0.0
  0
LINE
  5
7A7
330
6C0
100
AcDbEntity
  8
Dimension (ANSI)
440
 16777216
100
AcDbLine
 10
46.61730666565005
 20
42.22718597175504
 30
0.0
 11
47.76124575312682
 21
42.22718597175504
 31
0.0
  0
SOLID
  5
7A8
330
6C0
100
AcDbEntity
  8
Dimension (ANSI)
440
 16777216
100
AcDbTrace
 10
44.38305471943919
 20
42.30920696727261
 30
0.0
 11
44.38305471943919
 21
42.14516497623747
 31
0.0
 12
44.87518069254462
 22
42.22718597175504
 32
0.0
 13
44.87518069254462
 23
42.22718597175504
 33
0.0
  0
SOLID
  5
7A9
330
6C0
100
AcDbEntity
  8
Dimension (ANSI)
440
 16777216
100
AcDbTrace
 10
46.61730666565005
 20
42.30920696727261
 30
0.0
 11
46.61730666565005
 21
42.14516497623747
 31
0.0
 12
46.12518069254462
 22
42.22718597175504
 32
0.0
 13
46.12518069254462
 23
42.22718597175504
 33
0.0
  0
MTEXT
  5
7AA
330
6C0
100
AcDbEntity
  8
Dimension (ANSI)
440
 16777216
100
AcDbMText
 10
49.21634513504253
 20
42.22718597175504
 30
0.0
 40
0.5000000074505806
 41
0.0
 71
     5
 72
     1
  1
\A1;1.25{\P(2 PL.)}
  7
ROMANS
 73
     1
 44
1.0
  0
POINT
  5
7AB
330
6C0
100
AcDbEntity
  8
Defpoints
 62
     0
440
 16777216
100
AcDbPoint
 10
44.87518069254462
 20
42.43872649601626
 30
0.0
  0
POINT
  5
7AC
330
6C0
100
AcDbEntity
  8
Defpoints
 62
     0
440
 16777216
100
AcDbPoint
 10
46.12518069254462
 20
42.38102941471705
 30
0.0
  0
POINT
  5
7AD
330
6C0
100
AcDbEntity
  8
Defpoints
 62
     0
440
 16777216
100
AcDbPoint
 10
46.12518069254462
 20
42.22718597175504
 30
0.0
  0
ENDBLK
  5
6C2
330
6C0
100
AcDbEntity
  8
0
100
AcDbBlockEnd
  0
BLOCK
  5
7B0
330
7AF
100
AcDbEntity
  8
0
100
AcDbBlockBegin
  2
*D9
 70
     1
 10
0.0
 20
0.0
 30
0.0
  3
*D9
  1

  0
LINE
  5
88F
330
7AF
100
AcDbEntity
  8
Dimension (ANSI)
440
 16777216
100
AcDbLine
 10
32.81321137418943
 20
41.58838141217138
 30
0.0
 11
32.81321137418943
 21
42.08050738527681
 31
0.0
  0
LINE
  5
890
330
7AF
100
AcDbEntity
  8
Dimension (ANSI)
440
 16777216
100
AcDbLine
 10
32.81321137418943
 20
39.35412946596057
 30
0.0
 11
32.81321137418943
 21
38.86200349285514
 31
0.0
  0
SOLID
  5
891
330
7AF
100
AcDbEntity
  8
Dimension (ANSI)
440
 16777216
100
AcDbTrace
 10
32.73119037867186
 20
41.58838141217138
 30
0.0
 11
32.895232369707
 21
41.58838141217138
 31
0.0
 12
32.81321137418943
 22
41.09625543906595
 32
0.0
 13
32.81321137418943
 23
41.09625543906595
 33
0.0
  0
SOLID
  5
892
330
7AF
100
AcDbEntity
  8
Dimension (ANSI)
440
 16777216
100
AcDbTrace
 10
32.73119037867186
 20
39.35412946596057
 30
0.0
 11
32.895232369707
 21
39.35412946596057
 31
0.0
 12
32.81321137418943
 22
39.846255439066
 32
0.0
 13
32.81321137418943
 23
39.846255439066
 33
0.0
  0
MTEXT
  5
893
330
7AF
100
AcDbEntity
  8
Dimension (ANSI)
440
 16777216
100
AcDbMText
 10
32.08702088717787
 20
40.72125544279127
 30
0.0
 40
0.5000000074505806
 41
0.0
 71
     1
 72
     1
  1
\A1;1.25
  7
ROMANS
 73
     1
 44
1.0
  0
POINT
  5
894
330
7AF
100
AcDbEntity
  8
Defpoints
 62
     0
440
 16777216
100
AcDbPoint
 10
32.47107730990483
 20
41.09625543906595
 30
0.0
  0
POINT
  5
895
330
7AF
100
AcDbEntity
  8
Defpoints
 62
     0
440
 16777216
100
AcDbPoint
 10
33.24522871661428
 20
39.846255439066
 30
0.0
  0
POINT
  5
896
330
7AF
100
AcDbEntity
  8
Defpoints
 62
     0
440
 16777216
100
AcDbPoint
 10
32.81321137418943
 20
39.846255439066
 30
0.0
  0
ENDBLK
  5
7B1
330
7AF
100
AcDbEntity
  8
0
100
AcDbBlockEnd
  0
BLOCK
  5
8A2
330
8A1
100
AcDbEntity
  8
0
100
AcDbBlockBegin
  2
*D10
 70
     1
 10
0.0
 20
0.0
 30
0.0
  3
*D10
  1

  0
LINE
  5
98D
330
8A1
100
AcDbEntity
  8
Dimension (ANSI)
440
 16777216
100
AcDbLine
 10
27.8282806925385
 20
19.34148372117137
 30
0.0
 11
25.44354834585724
 21
19.34148372117137
 31
0.0
  0
LINE
  5
98E
330
8A1
100
AcDbEntity
  8
Dimension (ANSI)
440
 16777216
100
AcDbLine
 10
27.4689306925385
 20
17.34148372117141
 30
0.0
 11
25.44354834585724
 21
17.34148372117141
 31
0.0
  0
LINE
  5
98F
330
8A1
100
AcDbEntity
  8
Dimension (ANSI)
440
 16777216
100
AcDbLine
 10
26.06854834585724
 20
18.84935774806594
 30
0.0
 11
26.06854834585724
 21
17.83360969427684
 31
0.0
  0
LINE
  5
990
330
8A1
100
AcDbEntity
  8
Dimension (ANSI)
440
 16777216
100
AcDbLine
 10
26.06854834585724
 20
17.34148372117141
 30
0.0
 11
26.06854834585724
 21
16.48505713209319
 31
0.0
  0
LINE
  5
991
330
8A1
100
AcDbEntity
  8
Dimension (ANSI)
440
 16777216
100
AcDbLine
 10
26.06854834585724
 20
16.48505713209319
 30
0.0
 11
25.57642237275181
 21
16.48505713209319
 31
0.0
  0
SOLID
  5
992
330
8A1
100
AcDbEntity
  8
Dimension (ANSI)
440
 16777216
100
AcDbTrace
 10
25.98652735033967
 20
18.84935774806594
 30
0.0
 11
26.15056934137481
 21
18.84935774806594
 31
0.0
 12
26.06854834585724
 22
19.34148372117137
 32
0.0
 13
26.06854834585724
 23
19.34148372117137
 33
0.0
  0
SOLID
  5
993
330
8A1
100
AcDbEntity
  8
Dimension (ANSI)
440
 16777216
100
AcDbTrace
 10
25.98652735033967
 20
17.83360969427684
 30
0.0
 11
26.15056934137481
 21
17.83360969427684
 31
0.0
 12
26.06854834585724
 22
17.34148372117141
 32
0.0
 13
26.06854834585724
 23
17.34148372117141
 33
0.0
  0
MTEXT
  5
994
330
8A1
100
AcDbEntity
  8
Dimension (ANSI)
440
 16777216
100
AcDbMText
 10
23.89513251127512
 20
16.73505713581849
 30
0.0
 40
0.5000000074505806
 41
0.0
 71
     1
 72
     1
  1
\A1;2.00
  7
ROMANS
 73
     1
 44
1.0
  0
POINT
  5
995
330
8A1
100
AcDbEntity
  8
Defpoints
 62
     0
440
 16777216
100
AcDbPoint
 10
28.1407806925385
 20
19.34148372117137
 30
0.0
  0
POINT
  5
996
330
8A1
100
AcDbEntity
  8
Defpoints
 62
     0
440
 16777216
100
AcDbPoint
 10
27.7814306925385
 20
17.34148372117141
 30
0.0
  0
POINT
  5
997
330
8A1
100
AcDbEntity
  8
Defpoints
 62
     0
440
 16777216
100
AcDbPoint
 10
26.06854834585724
 20
17.34148372117141
 30
0.0
  0
ENDBLK
  5
8A3
330
8A1
100
AcDbEntity
  8
0
100
AcDbBlockEnd
  0
BLOCK
  5
99A
330
999
100
AcDbEntity
  8
0
100
AcDbBlockBegin
  2
*D11
 70
     1
 10
0.0
 20
0.0
 30
0.0
  3
*D11
  1

  0
LINE
  5
A78
330
999
100
AcDbEntity
  8
Dimension (ANSI)
440
 16777216
100
AcDbLine
 10
27.8282806925385
 20
19.34148372117137
 30
0.0
 11
21.36976730671173
 21
19.34148372117137
 31
0.0
  0
LINE
  5
A79
330
999
100
AcDbEntity
  8
Dimension (ANSI)
440
 16777216
100
AcDbLine
 10
27.4689306925385
 20
12.34148372117141
 30
0.0
 11
21.36976730671173
 21
12.34148372117141
 31
0.0
  0
LINE
  5
A7A
330
999
100
AcDbEntity
  8
Dimension (ANSI)
440
 16777216
100
AcDbLine
 10
21.99476730671173
 20
18.84935774806594
 30
0.0
 11
21.99476730671173
 21
16.24896403985731
 31
0.0
  0
LINE
  5
A7B
330
999
100
AcDbEntity
  8
Dimension (ANSI)
440
 16777216
100
AcDbLine
 10
21.99476730671173
 20
12.83360969427684
 30
0.0
 11
21.99476730671173
 21
15.43400340248546
 31
0.0
  0
SOLID
  5
A7C
330
999
100
AcDbEntity
  8
Dimension (ANSI)
440
 16777216
100
AcDbTrace
 10
21.91274631119416
 20
18.84935774806594
 30
0.0
 11
22.0767883022293
 21
18.84935774806594
 31
0.0
 12
21.99476730671173
 22
19.34148372117137
 32
0.0
 13
21.99476730671173
 23
19.34148372117137
 33
0.0
  0
SOLID
  5
A7D
330
999
100
AcDbEntity
  8
Dimension (ANSI)
440
 16777216
100
AcDbTrace
 10
21.91274631119416
 20
12.83360969427684
 30
0.0
 11
22.0767883022293
 21
12.83360969427684
 31
0.0
 12
21.99476730671173
 22
12.34148372117141
 32
0.0
 13
21.99476730671173
 23
12.34148372117141
 33
0.0
  0
MTEXT
  5
A7E
330
999
100
AcDbEntity
  8
Dimension (ANSI)
440
 16777216
100
AcDbMText
 10
21.2328625334537
 20
16.09148372489668
 30
0.0
 40
0.5000000074505806
 41
0.0
 71
     1
 72
     1
  1
\A1;7.00
  7
ROMANS
 73
     1
 44
1.0
  0
POINT
  5
A7F
330
999
100
AcDbEntity
  8
Defpoints
 62
     0
440
 16777216
100
AcDbPoint
 10
28.1407806925385
 20
19.34148372117137
 30
0.0
  0
POINT
  5
A80
330
999
100
AcDbEntity
  8
Defpoints
 62
     0
440
 16777216
100
AcDbPoint
 10
27.7814306925385
 20
12.34148372117141
 30
0.0
  0
POINT
  5
A81
330
999
100
AcDbEntity
  8
Defpoints
 62
     0
440
 16777216
100
AcDbPoint
 10
21.99476730671173
 20
12.34148372117141
 30
0.0
  0
ENDBLK
  5
99B
330
999
100
AcDbEntity
  8
0
100
AcDbBlockEnd
  0
BLOCK
  5
A84
330
A83
100
AcDbEntity
  8
0
100
AcDbBlockBegin
  2
*D12
 70
     1
 10
0.0
 20
0.0
 30
0.0
  3
*D12
  1

  0
LINE
  5
B77
330
A83
100
AcDbEntity
  8
Dimension (ANSI)
440
 16777216
100
AcDbLine
 10
27.8282806925385
 20
19.34148372117137
 30
0.0
 11
24.25288738542258
 21
19.34148372117137
 31
0.0
  0
LINE
  5
B78
330
A83
100
AcDbEntity
  8
Dimension (ANSI)
440
 16777216
100
AcDbLine
 10
29.03143069253851
 20
18.65398372117142
 30
0.0
 11
24.25288738542258
 21
18.65398372117142
 31
0.0
  0
LINE
  5
B79
330
A83
100
AcDbEntity
  8
Dimension (ANSI)
440
 16777216
100
AcDbLine
 10
24.87788738542258
 20
18.16185774806599
 30
0.0
 11
24.87788738542258
 21
17.66973177496056
 31
0.0
  0
LINE
  5
B7A
330
A83
100
AcDbEntity
  8
Dimension (ANSI)
440
 16777216
100
AcDbLine
 10
24.87788738542258
 20
19.8336096942768
 30
0.0
 11
24.87788738542258
 21
20.69003629450154
 31
0.0
  0
LINE
  5
B7B
330
A83
100
AcDbEntity
  8
Dimension (ANSI)
440
 16777216
100
AcDbLine
 10
24.87788738542258
 20
20.69003629450154
 30
0.0
 11
25.37001335852801
 21
20.69003629450154
 31
0.0
  0
SOLID
  5
B7C
330
A83
100
AcDbEntity
  8
Dimension (ANSI)
440
 16777216
100
AcDbTrace
 10
24.79586638990501
 20
18.16185774806599
 30
0.0
 11
24.95990838094015
 21
18.16185774806599
 31
0.0
 12
24.87788738542258
 22
18.65398372117142
 32
0.0
 13
24.87788738542258
 23
18.65398372117142
 33
0.0
  0
SOLID
  5
B7D
330
A83
100
AcDbEntity
  8
Dimension (ANSI)
440
 16777216
100
AcDbTrace
 10
24.79586638990501
 20
19.8336096942768
 30
0.0
 11
24.95990838094015
 21
19.8336096942768
 31
0.0
 12
24.87788738542258
 22
19.34148372117137
 32
0.0
 13
24.87788738542258
 23
19.34148372117137
 33
0.0
  0
MTEXT
  5
B7E
330
A83
100
AcDbEntity
  8
Dimension (ANSI)
440
 16777216
100
AcDbMText
 10
25.52749367348864
 20
20.94003629822684
 30
0.0
 40
0.5000000074505806
 41
0.0
 71
     1
 72
     1
  1
\A1;0.69
  7
ROMANS
 73
     1
 44
1.0
  0
POINT
  5
B7F
330
A83
100
AcDbEntity
  8
Defpoints
 62
     0
440
 16777216
100
AcDbPoint
 10
28.1407806925385
 20
19.34148372117137
 30
0.0
  0
POINT
  5
B80
330
A83
100
AcDbEntity
  8
Defpoints
 62
     0
440
 16777216
100
AcDbPoint
 10
29.34393069253851
 20
18.65398372117142
 30
0.0
  0
POINT
  5
B81
330
A83
100
AcDbEntity
  8
Defpoints
 62
     0
440
 16777216
100
AcDbPoint
 10
24.87788738542258
 20
18.65398372117142
 30
0.0
  0
ENDBLK
  5
A85
330
A83
100
AcDbEntity
  8
0
100
AcDbBlockEnd
  0
BLOCK
  5
B84
330
B83
100
AcDbEntity
  8
0
100
AcDbBlockBegin
  2
*D13
 70
     1
 10
0.0
 20
0.0
 30
0.0
  3
*D13
  1

  0
LINE
  5
C62
330
B83
100
AcDbEntity
  8
Dimension (ANSI)
440
 16777216
100
AcDbLine
 10
46.12518069253851
 20
19.51338372117136
 30
0.0
 11
46.12518069253851
 21
22.43586614485193
 31
0.0
  0
LINE
  5
C63
330
B83
100
AcDbEntity
  8
Dimension (ANSI)
440
 16777216
100
AcDbLine
 10
43.87518069253852
 20
19.87273372117141
 30
0.0
 11
43.87518069253852
 21
22.43586614485193
 31
0.0
  0
LINE
  5
C64
330
B83
100
AcDbEntity
  8
Dimension (ANSI)
440
 16777216
100
AcDbLine
 10
44.36730666564395
 20
21.81086614485193
 30
0.0
 11
45.63305471943308
 21
21.81086614485193
 31
0.0
  0
LINE
  5
C65
330
B83
100
AcDbEntity
  8
Dimension (ANSI)
440
 16777216
100
AcDbLine
 10
46.12518069253851
 20
21.81086614485193
 30
0.0
 11
46.95928694239827
 21
21.81086614485193
 31
0.0
  0
SOLID
  5
C66
330
B83
100
AcDbEntity
  8
Dimension (ANSI)
440
 16777216
100
AcDbTrace
 10
44.36730666564395
 20
21.89288714036951
 30
0.0
 11
44.36730666564395
 21
21.72884514933437
 31
0.0
 12
43.87518069253852
 22
21.81086614485193
 32
0.0
 13
43.87518069253852
 23
21.81086614485193
 33
0.0
  0
SOLID
  5
C67
330
B83
100
AcDbEntity
  8
Dimension (ANSI)
440
 16777216
100
AcDbTrace
 10
45.63305471943308
 20
21.89288714036951
 30
0.0
 11
45.63305471943308
 21
21.72884514933437
 31
0.0
 12
46.12518069253851
 22
21.81086614485193
 32
0.0
 13
46.12518069253851
 23
21.81086614485193
 33
0.0
  0
MTEXT
  5
C68
330
B83
100
AcDbEntity
  8
Dimension (ANSI)
440
 16777216
100
AcDbMText
 10
47.1167672573589
 20
22.06086614857722
 30
0.0
 40
0.5000000074505806
 41
0.0
 71
     1
 72
     1
  1
\A1;2.25
  7
ROMANS
 73
     1
 44
1.0
  0
POINT
  5
C69
330
B83
100
AcDbEntity
  8
Defpoints
 62
     0
440
 16777216
100
AcDbPoint
 10
46.12518069253851
 20
19.20088372117136
 30
0.0
  0
POINT
  5
C6A
330
B83
100
AcDbEntity
  8
Defpoints
 62
     0
440
 16777216
100
AcDbPoint
 10
43.87518069253852
 20
19.56023372117141
 30
0.0
  0
POINT
  5
C6B
330
B83
100
AcDbEntity
  8
Defpoints
 62
     0
440
 16777216
100
AcDbPoint
 10
43.87518069253852
 20
21.81086614485193
 30
0.0
  0
ENDBLK
  5
B85
330
B83
100
AcDbEntity
  8
0
100
AcDbBlockEnd
  0
BLOCK
  5
C6E
330
C6D
100
AcDbEntity
  8
0
100
AcDbBlockBegin
  2
*D14
 70
     1
 10
0.0
 20
0.0
 30
0.0
  3
*D14
  1

  0
LINE
  5
D4C
330
C6D
100
AcDbEntity
  8
Dimension (ANSI)
440
 16777216
100
AcDbLine
 10
28.0001806925385
 20
19.51338372117137
 30
0.0
 11
28.0001806925385
 21
22.43586614485194
 31
0.0
  0
LINE
  5
D4D
330
C6D
100
AcDbEntity
  8
Dimension (ANSI)
440
 16777216
100
AcDbLine
 10
30.2501806925385
 20
19.87273372117141
 30
0.0
 11
30.2501806925385
 21
22.43586614485194
 31
0.0
  0
LINE
  5
D4E
330
C6D
100
AcDbEntity
  8
Dimension (ANSI)
440
 16777216
100
AcDbLine
 10
29.75805471943307
 20
21.81086614485194
 30
0.0
 11
28.49230666564393
 21
21.81086614485194
 31
0.0
  0
LINE
  5
D4F
330
C6D
100
AcDbEntity
  8
Dimension (ANSI)
440
 16777216
100
AcDbLine
 10
28.0001806925385
 20
21.81086614485194
 30
0.0
 11
27.16607444267873
 21
21.81086614485194
 31
0.0
  0
SOLID
  5
D50
330
C6D
100
AcDbEntity
  8
Dimension (ANSI)
440
 16777216
100
AcDbTrace
 10
29.75805471943307
 20
21.89288714036951
 30
0.0
 11
29.75805471943307
 21
21.72884514933437
 31
0.0
 12
30.2501806925385
 22
21.81086614485194
 32
0.0
 13
30.2501806925385
 23
21.81086614485194
 33
0.0
  0
SOLID
  5
D51
330
C6D
100
AcDbEntity
  8
Dimension (ANSI)
440
 16777216
100
AcDbTrace
 10
28.49230666564393
 20
21.89288714036951
 30
0.0
 11
28.49230666564393
 21
21.72884514933437
 31
0.0
 12
28.0001806925385
 22
21.81086614485194
 32
0.0
 13
28.0001806925385
 23
21.81086614485194
 33
0.0
  0
MTEXT
  5
D52
330
C6D
100
AcDbEntity
  8
Dimension (ANSI)
440
 16777216
100
AcDbMText
 10
25.48478458120204
 20
22.06086614857723
 30
0.0
 40
0.5000000074505806
 41
0.0
 71
     1
 72
     1
  1
\A1;2.25
  7
ROMANS
 73
     1
 44
1.0
  0
POINT
  5
D53
330
C6D
100
AcDbEntity
  8
Defpoints
 62
     0
440
 16777216
100
AcDbPoint
 10
28.0001806925385
 20
19.20088372117137
 30
0.0
  0
POINT
  5
D54
330
C6D
100
AcDbEntity
  8
Defpoints
 62
     0
440
 16777216
100
AcDbPoint
 10
30.2501806925385
 20
19.56023372117141
 30
0.0
  0
POINT
  5
D55
330
C6D
100
AcDbEntity
  8
Defpoints
 62
     0
440
 16777216
100
AcDbPoint
 10
30.2501806925385
 20
21.81086614485194
 30
0.0
  0
ENDBLK
  5
C6F
330
C6D
100
AcDbEntity
  8
0
100
AcDbBlockEnd
  0
BLOCK
  5
D5A
330
D59
100
AcDbEntity
  8
0
100
AcDbBlockBegin
  2
*D15
 70
     1
 10
0.0
 20
0.0
 30
0.0
  3
*D15
  1

  0
LINE
  5
E4C
330
D59
100
AcDbEntity
  8
Dimension (ANSI)
440
 16777216
100
AcDbLine
 10
28.0001806925385
 20
11.02898372117137
 30
0.0
 11
28.0001806925385
 21
9.963186859171429
 31
0.0
  0
LINE
  5
E4D
330
D59
100
AcDbEntity
  8
Dimension (ANSI)
440
 16777216
100
AcDbLine
 10
28.6876806925385
 20
11.12273372117141
 30
0.0
 11
28.6876806925385
 21
9.963186859171429
 31
0.0
  0
LINE
  5
E4E
330
D59
100
AcDbEntity
  8
Dimension (ANSI)
440
 16777216
100
AcDbLine
 10
29.17980666564393
 20
10.58818685917143
 30
0.0
 11
29.67193263874936
 21
10.58818685917143
 31
0.0
  0
LINE
  5
E4F
330
D59
100
AcDbEntity
  8
Dimension (ANSI)
440
 16777216
100
AcDbLine
 10
27.50805471943307
 20
10.58818685917143
 30
0.0
 11
26.36411563195629
 21
10.58818685917143
 31
0.0
  0
SOLID
  5
E50
330
D59
100
AcDbEntity
  8
Dimension (ANSI)
440
 16777216
100
AcDbTrace
 10
29.17980666564393
 20
10.670207854689
 30
0.0
 11
29.17980666564393
 21
10.50616586365386
 31
0.0
 12
28.6876806925385
 22
10.58818685917143
 32
0.0
 13
28.6876806925385
 23
10.58818685917143
 33
0.0
  0
SOLID
  5
E51
330
D59
100
AcDbEntity
  8
Dimension (ANSI)
440
 16777216
100
AcDbTrace
 10
27.50805471943307
 20
10.670207854689
 30
0.0
 11
27.50805471943307
 21
10.50616586365386
 31
0.0
 12
28.0001806925385
 22
10.58818685917143
 32
0.0
 13
28.0001806925385
 23
10.58818685917143
 33
0.0
  0
MTEXT
  5
E52
330
D59
100
AcDbEntity
  8
Dimension (ANSI)
440
 16777216
100
AcDbMText
 10
24.90901625004059
 20
10.58818685917143
 30
0.0
 40
0.5000000074505806
 41
0.0
 71
     5
 72
     1
  1
\A1;0.69{\P(2 PL.)}
  7
ROMANS
 73
     1
 44
1.0
  0
POINT
  5
E53
330
D59
100
AcDbEntity
  8
Defpoints
 62
     0
440
 16777216
100
AcDbPoint
 10
28.0001806925385
 20
11.34148372117137
 30
0.0
  0
POINT
  5
E54
330
D59
100
AcDbEntity
  8
Defpoints
 62
     0
440
 16777216
100
AcDbPoint
 10
28.6876806925385
 20
11.43523372117141
 30
0.0
  0
POINT
  5
E55
330
D59
100
AcDbEntity
  8
Defpoints
 62
     0
440
 16777216
100
AcDbPoint
 10
28.6876806925385
 20
10.58818685917143
 30
0.0
  0
ENDBLK
  5
D5B
330
D59
100
AcDbEntity
  8
0
100
AcDbBlockEnd
  0
BLOCK
  5
E58
330
E57
100
AcDbEntity
  8
0
100
AcDbBlockBegin
  2
*D16
 70
     1
 10
0.0
 20
0.0
 30
0.0
  3
*D16
  1

  0
LINE
  5
F08
330
E57
100
AcDbEntity
  8
Dimension (ANSI)
440
 16777216
100
AcDbLine
 10
48.2630352277382
 20
15.04046909197145
 30
0.0
 11
47.55237143801493
 21
15.04046909197145
 31
0.0
  0
LINE
  5
F09
330
E57
100
AcDbEntity
  8
Dimension (ANSI)
440
 16777216
100
AcDbLine
 10
47.55237143801493
 20
15.04046909197145
 30
0.0
 11
45.91466011470855
 21
12.95025381455891
 31
0.0
  0
MTEXT
  5
F0A
102
{ACAD_XDICTIONARY
360
1580
102
}
330
E57
100
AcDbEntity
  8
Dimension (ANSI)
440
 16777216
100
AcDbMText
 10
49.71813460965392
 20
15.04046909197145
 30
0.0
 40
0.5000000074505806
 41
0.0
 71
     5
 72
     1
  1
\A1;\U+22050.563{\P(6 PL.)}
  7
ROMANS
 73
     1
 44
1.0
  0
SOLID
  5
F0B
330
E57
100
AcDbEntity
  8
Dimension (ANSI)
440
 16777216
100
AcDbTrace
 10
45.85009652489276
 20
13.00084024135297
 30
0.0
 11
45.97922370452436
 21
12.89966738776486
 31
0.0
 12
45.61114155394422
 22
12.5628722756641
 32
0.0
 13
45.61114155394422
 23
12.5628722756641
 33
0.0
  0
LINE
  5
F0C
330
E57
100
AcDbEntity
  8
Dimension (ANSI)
440
 16777216
100
AcDbLine
 10
44.98768069253855
 20
12.34148372117133
 30
0.0
 11
45.88768069253855
 21
12.34148372117132
 31
0.0
  0
LINE
  5
F0D
330
E57
100
AcDbEntity
  8
Dimension (ANSI)
440
 16777216
100
AcDbLine
 10
45.43768069253855
 20
11.89148372117132
 30
0.0
 11
45.43768069253855
 21
12.79148372117133
 31
0.0
  0
POINT
  5
F0E
330
E57
100
AcDbEntity
  8
Defpoints
 62
     0
440
 16777216
100
AcDbPoint
 10
45.61114155394422
 20
12.5628722756641
 30
0.0
  0
POINT
  5
F0F
330
E57
100
AcDbEntity
  8
Defpoints
 62
     0
440
 16777216
100
AcDbPoint
 10
45.26421983113289
 20
12.12009516667854
 30
0.0
  0
ENDBLK
  5
E59
330
E57
100
AcDbEntity
  8
0
100
AcDbBlockEnd
  0
BLOCK
  5
F17
330
F16
100
AcDbEntity
  8
0
100
AcDbBlockBegin
  2
*D17
 70
     1
 10
0.0
 20
0.0
 30
0.0
  3
*D17
  1

  0
LINE
  5
FF5
330
F16
100
AcDbEntity
  8
Dimension (ANSI)
440
 16777216
100
AcDbLine
 10
28.0001806925446
 20
48.1587554390677
 30
0.0
 11
28.0001806925446
 21
49.67736607860263
 31
0.0
  0
LINE
  5
FF6
330
F16
100
AcDbEntity
  8
Dimension (ANSI)
440
 16777216
100
AcDbLine
 10
30.12518069254457
 20
47.81500543906595
 30
0.0
 11
30.12518069254457
 21
49.67736607860263
 31
0.0
  0
LINE
  5
FF7
330
F16
100
AcDbEntity
  8
Dimension (ANSI)
440
 16777216
100
AcDbLine
 10
29.63305471943914
 20
49.05236607860263
 30
0.0
 11
28.49230666565003
 21
49.05236607860263
 31
0.0
  0
LINE
  5
FF8
330
F16
100
AcDbEntity
  8
Dimension (ANSI)
440
 16777216
100
AcDbLine
 10
28.0001806925446
 20
49.05236607860263
 30
0.0
 11
27.16607444268482
 21
49.05236607860263
 31
0.0
  0
SOLID
  5
FF9
330
F16
100
AcDbEntity
  8
Dimension (ANSI)
440
 16777216
100
AcDbTrace
 10
29.63305471943914
 20
49.13438707412021
 30
0.0
 11
29.63305471943914
 21
48.97034508308506
 31
0.0
 12
30.12518069254457
 22
49.05236607860263
 32
0.0
 13
30.12518069254457
 23
49.05236607860263
 33
0.0
  0
SOLID
  5
FFA
330
F16
100
AcDbEntity
  8
Dimension (ANSI)
440
 16777216
100
AcDbTrace
 10
28.49230666565003
 20
49.13438707412021
 30
0.0
 11
28.49230666565003
 21
48.97034508308506
 31
0.0
 12
28.0001806925446
 22
49.05236607860263
 32
0.0
 13
28.0001806925446
 23
49.05236607860263
 33
0.0
  0
MTEXT
  5
FFB
330
F16
100
AcDbEntity
  8
Dimension (ANSI)
440
 16777216
100
AcDbMText
 10
25.48478458120813
 20
49.30236608232792
 30
0.0
 40
0.5000000074505806
 41
0.0
 71
     1
 72
     1
  1
\A1;2.13
  7
ROMANS
 73
     1
 44
1.0
  0
POINT
  5
FFC
330
F16
100
AcDbEntity
  8
Defpoints
 62
     0
440
 16777216
100
AcDbPoint
 10
28.0001806925446
 20
47.84625543906769
 30
0.0
  0
POINT
  5
FFD
330
F16
100
AcDbEntity
  8
Defpoints
 62
     0
440
 16777216
100
AcDbPoint
 10
30.12518069254457
 20
47.50250543906595
 30
0.0
  0
POINT
  5
FFE
330
F16
100
AcDbEntity
  8
Defpoints
 62
     0
440
 16777216
100
AcDbPoint
 10
30.12518069254457
 20
49.05236607860263
 30
0.0
  0
ENDBLK
  5
F18
330
F16
100
AcDbEntity
  8
0
100
AcDbBlockEnd
  0
BLOCK
  5
1001
330
1000
100
AcDbEntity
  8
0
100
AcDbBlockBegin
  2
*D18
 70
     1
 10
0.0
 20
0.0
 30
0.0
  3
*D18
  1

  0
LINE
  5
10DF
330
1000
100
AcDbEntity
  8
Dimension (ANSI)
440
 16777216
100
AcDbLine
 10
28.0001806925446
 20
48.1587554390677
 30
0.0
 11
28.0001806925446
 21
51.16924208497171
 31
0.0
  0
LINE
  5
10E0
330
1000
100
AcDbEntity
  8
Dimension (ANSI)
440
 16777216
100
AcDbLine
 10
37.06268069254456
 20
44.81500543906599
 30
0.0
 11
37.06268069254456
 21
51.16924208497171
 31
0.0
  0
LINE
  5
10E1
330
1000
100
AcDbEntity
  8
Dimension (ANSI)
440
 16777216
100
AcDbLine
 10
28.49230666565003
 20
50.54424208497171
 30
0.0
 11
31.61204560432592
 21
50.54424208497171
 31
0.0
  0
LINE
  5
10E2
330
1000
100
AcDbEntity
  8
Dimension (ANSI)
440
 16777216
100
AcDbLine
 10
36.57055471943913
 20
50.54424208497171
 30
0.0
 11
33.45081578076324
 21
50.54424208497171
 31
0.0
  0
SOLID
  5
10E3
330
1000
100
AcDbEntity
  8
Dimension (ANSI)
440
 16777216
100
AcDbTrace
 10
28.49230666565003
 20
50.62626308048929
 30
0.0
 11
28.49230666565003
 21
50.46222108945414
 31
0.0
 12
28.0001806925446
 22
50.54424208497171
 32
0.0
 13
28.0001806925446
 23
50.54424208497171
 33
0.0
  0
SOLID
  5
10E4
330
1000
100
AcDbEntity
  8
Dimension (ANSI)
440
 16777216
100
AcDbTrace
 10
36.57055471943913
 20
50.62626308048929
 30
0.0
 11
36.57055471943913
 21
50.46222108945414
 31
0.0
 12
37.06268069254456
 22
50.54424208497171
 32
0.0
 13
37.06268069254456
 23
50.54424208497171
 33
0.0
  0
MTEXT
  5
10E5
330
1000
100
AcDbEntity
  8
Dimension (ANSI)
440
 16777216
100
AcDbMText
 10
31.76952591928655
 20
50.794242088697
 30
0.0
 40
0.5000000074505806
 41
0.0
 71
     1
 72
     1
  1
\A1;9.06
  7
ROMANS
 73
     1
 44
1.0
  0
POINT
  5
10E6
330
1000
100
AcDbEntity
  8
Defpoints
 62
     0
440
 16777216
100
AcDbPoint
 10
28.0001806925446
 20
47.84625543906769
 30
0.0
  0
POINT
  5
10E7
330
1000
100
AcDbEntity
  8
Defpoints
 62
     0
440
 16777216
100
AcDbPoint
 10
37.06268069254456
 20
44.50250543906599
 30
0.0
  0
POINT
  5
10E8
330
1000
100
AcDbEntity
  8
Defpoints
 62
     0
440
 16777216
100
AcDbPoint
 10
37.06268069254456
 20
50.54424208497171
 30
0.0
  0
ENDBLK
  5
1002
330
1000
100
AcDbEntity
  8
0
100
AcDbBlockEnd
  0
BLOCK
  5
10EB
330
10EA
100
AcDbEntity
  8
0
100
AcDbBlockBegin
  2
*D19
 70
     1
 10
0.0
 20
0.0
 30
0.0
  3
*D19
  1

  0
LINE
  5
11C9
330
10EA
100
AcDbEntity
  8
Dimension (ANSI)
440
 16777216
100
AcDbLine
 10
46.12518069254465
 20
48.15875543906769
 30
0.0
 11
46.12518069254465
 21
49.67736607860263
 31
0.0
  0
LINE
  5
11CA
330
10EA
100
AcDbEntity
  8
Dimension (ANSI)
440
 16777216
100
AcDbLine
 10
44.00018069254456
 20
47.81500543906595
 30
0.0
 11
44.00018069254456
 21
49.67736607860263
 31
0.0
  0
LINE
  5
11CB
330
10EA
100
AcDbEntity
  8
Dimension (ANSI)
440
 16777216
100
AcDbLine
 10
44.49230666564999
 20
49.05236607860263
 30
0.0
 11
45.63305471943922
 21
49.05236607860263
 31
0.0
  0
LINE
  5
11CC
330
10EA
100
AcDbEntity
  8
Dimension (ANSI)
440
 16777216
100
AcDbLine
 10
46.12518069254465
 20
49.05236607860263
 30
0.0
 11
46.95928694240442
 21
49.05236607860263
 31
0.0
  0
SOLID
  5
11CD
330
10EA
100
AcDbEntity
  8
Dimension (ANSI)
440
 16777216
100
AcDbTrace
 10
44.49230666564999
 20
49.1343870741202
 30
0.0
 11
44.49230666564999
 21
48.97034508308506
 31
0.0
 12
44.00018069254456
 22
49.05236607860263
 32
0.0
 13
44.00018069254456
 23
49.05236607860263
 33
0.0
  0
SOLID
  5
11CE
330
10EA
100
AcDbEntity
  8
Dimension (ANSI)
440
 16777216
100
AcDbTrace
 10
45.63305471943922
 20
49.1343870741202
 30
0.0
 11
45.63305471943922
 21
48.97034508308506
 31
0.0
 12
46.12518069254465
 22
49.05236607860263
 32
0.0
 13
46.12518069254465
 23
49.05236607860263
 33
0.0
  0
MTEXT
  5
11CF
330
10EA
100
AcDbEntity
  8
Dimension (ANSI)
440
 16777216
100
AcDbMText
 10
47.11676725736505
 20
49.30236608232792
 30
0.0
 40
0.5000000074505806
 41
0.0
 71
     1
 72
     1
  1
\A1;2.13
  7
ROMANS
 73
     1
 44
1.0
  0
POINT
  5
11D0
330
10EA
100
AcDbEntity
  8
Defpoints
 62
     0
440
 16777216
100
AcDbPoint
 10
46.12518069254465
 20
47.84625543906769
 30
0.0
  0
POINT
  5
11D1
330
10EA
100
AcDbEntity
  8
Defpoints
 62
     0
440
 16777216
100
AcDbPoint
 10
44.00018069254456
 20
47.50250543906595
 30
0.0
  0
POINT
  5
11D2
330
10EA
100
AcDbEntity
  8
Defpoints
 62
     0
440
 16777216
100
AcDbPoint
 10
44.00018069254456
 20
49.05236607860263
 30
0.0
  0
ENDBLK
  5
10EC
330
10EA
100
AcDbEntity
  8
0
100
AcDbBlockEnd
  0
BLOCK
  5
11D5
330
11D4
100
AcDbEntity
  8
0
100
AcDbBlockBegin
  2
*D20
 70
     1
 10
0.0
 20
0.0
 30
0.0
  3
*D20
  1

  0
LINE
  5
12BB
330
11D4
100
AcDbEntity
  8
Dimension (ANSI)
440
 16777216
100
AcDbLine
 10
27.6876806925446
 20
47.84625543906769
 30
0.0
 11
24.05260068882651
 21
47.84625543906769
 31
0.0
  0
LINE
  5
12BC
330
11D4
100
AcDbEntity
  8
Dimension (ANSI)
440
 16777216
100
AcDbLine
 10
28.90643069254457
 20
46.59625543906595
 30
0.0
 11
24.05260068882651
 21
46.59625543906595
 31
0.0
  0
LINE
  5
12BD
330
11D4
100
AcDbEntity
  8
Dimension (ANSI)
440
 16777216
100
AcDbLine
 10
24.67760068882651
 20
48.33838141217313
 30
0.0
 11
24.67760068882651
 21
48.83050738527856
 31
0.0
  0
LINE
  5
12BE
330
11D4
100
AcDbEntity
  8
Dimension (ANSI)
440
 16777216
100
AcDbLine
 10
24.67760068882651
 20
46.10412946596052
 30
0.0
 11
24.67760068882651
 21
45.61200349285509
 31
0.0
  0
SOLID
  5
12BF
330
11D4
100
AcDbEntity
  8
Dimension (ANSI)
440
 16777216
100
AcDbTrace
 10
24.59557969330893
 20
48.33838141217313
 30
0.0
 11
24.75962168434408
 21
48.33838141217313
 31
0.0
 12
24.67760068882651
 22
47.84625543906769
 32
0.0
 13
24.67760068882651
 23
47.84625543906769
 33
0.0
  0
SOLID
  5
12C0
330
11D4
100
AcDbEntity
  8
Dimension (ANSI)
440
 16777216
100
AcDbTrace
 10
24.59557969330893
 20
46.10412946596052
 30
0.0
 11
24.75962168434408
 21
46.10412946596052
 31
0.0
 12
24.67760068882651
 22
46.59625543906595
 32
0.0
 13
24.67760068882651
 23
46.59625543906595
 33
0.0
  0
MTEXT
  5
12C1
330
11D4
100
AcDbEntity
  8
Dimension (ANSI)
440
 16777216
100
AcDbMText
 10
23.95141020181494
 20
47.47125544279213
 30
0.0
 40
0.5000000074505806
 41
0.0
 71
     1
 72
     1
  1
\A1;1.25
  7
ROMANS
 73
     1
 44
1.0
  0
POINT
  5
12C2
330
11D4
100
AcDbEntity
  8
Defpoints
 62
     0
440
 16777216
100
AcDbPoint
 10
28.0001806925446
 20
47.84625543906769
 30
0.0
  0
POINT
  5
12C3
330
11D4
100
AcDbEntity
  8
Defpoints
 62
     0
440
 16777216
100
AcDbPoint
 10
29.21893069254457
 20
46.59625543906595
 30
0.0
  0
POINT
  5
12C4
330
11D4
100
AcDbEntity
  8
Defpoints
 62
     0
440
 16777216
100
AcDbPoint
 10
24.67760068882651
 20
46.59625543906595
 30
0.0
  0
ENDBLK
  5
11D6
330
11D4
100
AcDbEntity
  8
0
100
AcDbBlockEnd
  0
BLOCK
  5
12C7
330
12C6
100
AcDbEntity
  8
0
100
AcDbBlockBegin
  2
*D21
 70
     1
 10
0.0
 20
0.0
 30
0.0
  3
*D21
  1

  0
LINE
  5
13A5
330
12C6
100
AcDbEntity
  8
Dimension (ANSI)
440
 16777216
100
AcDbLine
 10
27.6876806925446
 20
47.84625543906769
 30
0.0
 11
21.86336966892256
 21
47.84625543906769
 31
0.0
  0
LINE
  5
13A6
330
12C6
100
AcDbEntity
  8
Dimension (ANSI)
440
 16777216
100
AcDbLine
 10
35.84393069254456
 20
43.59625543906599
 30
0.0
 11
21.86336966892256
 21
43.59625543906599
 31
0.0
  0
LINE
  5
13A7
330
12C6
100
AcDbEntity
  8
Dimension (ANSI)
440
 16777216
100
AcDbLine
 10
22.48836966892256
 20
47.35412946596226
 30
0.0
 11
22.48836966892256
 21
46.12873575775275
 31
0.0
  0
LINE
  5
13A8
330
12C6
100
AcDbEntity
  8
Dimension (ANSI)
440
 16777216
100
AcDbLine
 10
22.48836966892256
 20
44.08838141217142
 30
0.0
 11
22.48836966892256
 21
45.31377512038091
 31
0.0
  0
SOLID
  5
13A9
330
12C6
100
AcDbEntity
  8
Dimension (ANSI)
440
 16777216
100
AcDbTrace
 10
22.40634867340499
 20
47.35412946596226
 30
0.0
 11
22.57039066444013
 21
47.35412946596226
 31
0.0
 12
22.48836966892256
 22
47.84625543906769
 32
0.0
 13
22.48836966892256
 23
47.84625543906769
 33
0.0
  0
SOLID
  5
13AA
330
12C6
100
AcDbEntity
  8
Dimension (ANSI)
440
 16777216
100
AcDbTrace
 10
22.40634867340499
 20
44.08838141217142
 30
0.0
 11
22.57039066444013
 21
44.08838141217142
 31
0.0
 12
22.48836966892256
 22
43.59625543906599
 32
0.0
 13
22.48836966892256
 23
43.59625543906599
 33
0.0
  0
MTEXT
  5
13AB
330
12C6
100
AcDbEntity
  8
Dimension (ANSI)
440
 16777216
100
AcDbMText
 10
21.72646489566453
 20
45.97125544279213
 30
0.0
 40
0.5000000074505806
 41
0.0
 71
     1
 72
     1
  1
\A1;4.25
  7
ROMANS
 73
     1
 44
1.0
  0
POINT
  5
13AC
330
12C6
100
AcDbEntity
  8
Defpoints
 62
     0
440
 16777216
100
AcDbPoint
 10
28.0001806925446
 20
47.84625543906769
 30
0.0
  0
POINT
  5
13AD
330
12C6
100
AcDbEntity
  8
Defpoints
 62
     0
440
 16777216
100
AcDbPoint
 10
36.15643069254456
 20
43.59625543906599
 30
0.0
  0
POINT
  5
13AE
330
12C6
100
AcDbEntity
  8
Defpoints
 62
     0
440
 16777216
100
AcDbPoint
 10
22.48836966892256
 20
43.59625543906599
 30
0.0
  0
ENDBLK
  5
12C8
330
12C6
100
AcDbEntity
  8
0
100
AcDbBlockEnd
  0
BLOCK
  5
13B1
330
13B0
100
AcDbEntity
  8
0
100
AcDbBlockBegin
  2
*D22
 70
     1
 10
0.0
 20
0.0
 30
0.0
  3
*D22
  1

  0
LINE
  5
144B
330
13B0
100
AcDbEntity
  8
Dimension (ANSI)
440
 16777216
100
AcDbLine
 10
47.76844562877008
 20
45.04555266302552
 30
0.0
 11
37.82906596937721
 21
43.70000515343145
 31
0.0
  0
MTEXT
  5
144C
102
{ACAD_XDICTIONARY
360
1582
102
}
330
13B0
100
AcDbEntity
  8
Dimension (ANSI)
440
 16777216
100
AcDbMText
 10
49.22354501068579
 20
45.04555266302551
 30
0.0
 40
0.5000000074505806
 41
0.0
 71
     5
 72
     1
  1
\A1;\U+22050.563{\P(3 PL.)}
  7
ROMANS
 73
     1
 44
1.0
  0
SOLID
  5
144D
330
13B0
100
AcDbEntity
  8
Dimension (ANSI)
440
 16777216
100
AcDbTrace
 10
37.8180627120317
 20
43.78128474517182
 30
0.0
 11
37.84006922672273
 21
43.61872556169107
 31
0.0
 12
37.34138841893497
 22
43.63398560935835
 32
0.0
 13
37.34138841893497
 23
43.63398560935835
 33
0.0
  0
LINE
  5
144E
330
13B0
100
AcDbEntity
  8
Dimension (ANSI)
440
 16777216
100
AcDbLine
 10
36.61268069254457
 20
43.596255439066
 30
0.0
 11
37.51268069254457
 21
43.596255439066
 31
0.0
  0
LINE
  5
144F
330
13B0
100
AcDbEntity
  8
Dimension (ANSI)
440
 16777216
100
AcDbLine
 10
37.06268069254457
 20
43.146255439066
 30
0.0
 11
37.06268069254457
 21
44.046255439066
 31
0.0
  0
POINT
  5
1450
330
13B0
100
AcDbEntity
  8
Defpoints
 62
     0
440
 16777216
100
AcDbPoint
 10
37.34138841893497
 20
43.63398560935835
 30
0.0
  0
POINT
  5
1451
330
13B0
100
AcDbEntity
  8
Defpoints
 62
     0
440
 16777216
100
AcDbPoint
 10
36.78397296615415
 20
43.55852526877365
 30
0.0
  0
ENDBLK
  5
13B2
330
13B0
100
AcDbEntity
  8
0
100
AcDbBlockEnd
  0
BLOCK
  5
1454
330
1453
100
AcDbEntity
  8
0
100
AcDbBlockBegin
  2
*D23
 70
     1
 10
0.0
 20
0.0
 30
0.0
  3
*D23
  1

  0
LINE
  5
1532
330
1453
100
AcDbEntity
  8
Dimension (ANSI)
440
 16777216
100
AcDbLine
 10
7.224445143888318
 20
27.19773495842249
 30
0.0
 11
7.224445143888318
 21
25.16350523618289
 31
0.0
  0
LINE
  5
1533
330
1453
100
AcDbEntity
  8
Dimension (ANSI)
440
 16777216
100
AcDbLine
 10
14.97444514388839
 20
27.05726109962071
 30
0.0
 11
14.97444514388839
 21
25.16350523618289
 31
0.0
  0
LINE
  5
1534
330
1453
100
AcDbEntity
  8
Dimension (ANSI)
440
 16777216
100
AcDbLine
 10
7.716571116993748
 20
25.78850523618289
 30
0.0
 11
10.18006005566969
 21
25.78850523618289
 31
0.0
  0
LINE
  5
1535
330
1453
100
AcDbEntity
  8
Dimension (ANSI)
440
 16777216
100
AcDbLine
 10
14.48231917078295
 20
25.78850523618289
 30
0.0
 11
12.01883023210701
 21
25.78850523618289
 31
0.0
  0
SOLID
  5
1536
330
1453
100
AcDbEntity
  8
Dimension (ANSI)
440
 16777216
100
AcDbTrace
 10
7.716571116993748
 20
25.87052623170046
 30
0.0
 11
7.716571116993748
 21
25.70648424066532
 31
0.0
 12
7.224445143888318
 22
25.78850523618289
 32
0.0
 13
7.224445143888318
 23
25.78850523618289
 33
0.0
  0
SOLID
  5
1537
330
1453
100
AcDbEntity
  8
Dimension (ANSI)
440
 16777216
100
AcDbTrace
 10
14.48231917078295
 20
25.87052623170046
 30
0.0
 11
14.48231917078295
 21
25.70648424066532
 31
0.0
 12
14.97444514388839
 22
25.78850523618289
 32
0.0
 13
14.97444514388839
 23
25.78850523618289
 33
0.0
  0
MTEXT
  5
1538
330
1453
100
AcDbEntity
  8
Dimension (ANSI)
440
 16777216
100
AcDbMText
 10
10.33754037063032
 20
26.03850523990818
 30
0.0
 40
0.5000000074505806
 41
0.0
 71
     1
 72
     1
  1
\A1;7.75
  7
ROMANS
 73
     1
 44
1.0
  0
POINT
  5
1539
330
1453
100
AcDbEntity
  8
Defpoints
 62
     0
440
 16777216
100
AcDbPoint
 10
7.224445143888318
 20
27.51023495842249
 30
0.0
  0
POINT
  5
153A
330
1453
100
AcDbEntity
  8
Defpoints
 62
     0
440
 16777216
100
AcDbPoint
 10
14.97444514388839
 20
27.36976109962071
 30
0.0
  0
POINT
  5
153B
330
1453
100
AcDbEntity
  8
Defpoints
 62
     0
440
 16777216
100
AcDbPoint
 10
14.97444514388839
 20
25.78850523618289
 30
0.0
  0
ENDBLK
  5
1455
330
1453
100
AcDbEntity
  8
0
100
AcDbBlockEnd
  0
ENDSEC
  0
SECTION
  2
ENTITIES
  0
SPLINE
  5
107
330
6C
100
AcDbEntity
  8
Visible (ANSI)
100
AcDbSpline
210
0.0
220
0.0
230
1.0
 70
     8
 71
     3
 72
    11
 73
     7
 74
     0
 42
0.0000000001
 43
0.0000000001
 40
0.0
 40
0.0
 40
0.0
 40
0.0
 40
1.018582815488602
 40
1.018582815488602
 40
1.018582815488602
 40
1.570796326795074
 40
1.570796326795074
 40
1.570796326795074
 40
1.570796326795074
 10
45.98458069254171
 20
27.36963495842247
 30
0.0
 10
46.03231827382761
 20
27.36963495842247
 30
0.0
 10
46.07924082910981
 20
27.39583786400161
 30
0.0
 10
46.10428267627198
 20
27.43647999187079
 30
0.0
 10
46.11785883929058
 20
27.45851367611947
 30
0.0
 10
46.12518069254173
 20
27.48435455185928
 30
0.0
 10
46.12518069254172
 20
27.51023495842251
 30
0.0
  0
LINE
  5
108
330
6C
100
AcDbEntity
  8
Visible (ANSI)
100
AcDbLine
 10
45.98458069254171
 20
27.49463495842248
 30
0.0
 11
45.98458069254171
 21
27.36963495842248
 31
0.0
  0
LINE
  5
109
330
6C
100
AcDbEntity
  8
Visible (ANSI)
100
AcDbLine
 10
46.07408943253659
 20
27.5102349584225
 30
0.0
 11
46.12518069254171
 21
27.51023495842249
 31
0.0
  0
LINE
  5
10A
330
6C
100
AcDbEntity
  8
Visible (ANSI)
100
AcDbLine
 10
46.00018069254171
 20
27.51023495842249
 30
0.0
 11
46.07408943253659
 21
27.5102349584225
 31
0.0
  0
SPLINE
  5
10B
330
6C
100
AcDbEntity
  8
Visible (ANSI)
100
AcDbSpline
210
0.0
220
0.0
230
1.0
 70
     8
 71
     3
 72
     8
 73
     4
 74
     0
 42
0.0000000001
 43
0.0000000001
 40
0.0
 40
0.0
 40
0.0
 40
0.0
 40
1.570796326795074
 40
1.570796326795074
 40
1.570796326795074
 40
1.570796326795074
 10
46.00018069254171
 20
27.51023495842249
 30
0.0
 10
46.00018069254171
 20
27.50206681752315
 30
0.0
 10
45.99274883344103
 20
27.49463495842248
 30
0.0
 10
45.98458069254171
 20
27.49463495842248
 30
0.0
  0
LINE
  5
10C
330
6C
100
AcDbEntity
  8
Visible Narrow (ANSI)
100
AcDbLine
 10
28.14078069254168
 20
27.51023495842249
 30
0.0
 11
28.25018069254165
 21
27.51023495842249
 31
0.0
  0
LINE
  5
10D
330
6C
100
AcDbEntity
  8
Visible Narrow (ANSI)
100
AcDbLine
 10
45.87518069254164
 20
27.51023495842249
 30
0.0
 11
45.98458069254168
 21
27.51023495842249
 31
0.0
  0
SPLINE
  5
10E
330
6C
100
AcDbEntity
  8
Visible (ANSI)
100
AcDbSpline
210
0.0
220
0.0
230
1.0
 70
     8
 71
     3
 72
    11
 73
     7
 74
     0
 42
0.0000000001
 43
0.0000000001
 40
0.0
 40
0.0
 40
0.0
 40
0.0
 40
1.01858281548856
 40
1.01858281548856
 40
1.01858281548856
 40
1.570796326794896
 40
1.570796326794896
 40
1.570796326794896
 40
1.570796326794896
 10
28.00018069254168
 20
27.51023495842249
 30
0.0
 10
28.00018069254168
 20
27.46249737713659
 30
0.0
 10
28.02638359812081
 20
27.4155748218544
 30
0.0
 10
28.06702572598999
 20
27.39053297469223
 30
0.0
 10
28.08905941023866
 20
27.37695681167363
 30
0.0
 10
28.11490028597846
 20
27.36963495842249
 30
0.0
 10
28.14078069254168
 20
27.36963495842249
 30
0.0
  0
LINE
  5
10F
330
6C
100
AcDbEntity
  8
Visible (ANSI)
100
AcDbLine
 10
28.14078069254168
 20
27.49463495842249
 30
0.0
 11
28.14078069254168
 21
27.36963495842249
 31
0.0
  0
SPLINE
  5
110
330
6C
100
AcDbEntity
  8
Visible (ANSI)
100
AcDbSpline
210
0.0
220
0.0
230
1.0
 70
     8
 71
     3
 72
     8
 73
     4
 74
     0
 42
0.0000000001
 43
0.0000000001
 40
0.0
 40
0.0
 40
0.0
 40
0.0
 40
1.570796326794896
 40
1.570796326794896
 40
1.570796326794896
 40
1.570796326794896
 10
28.12518069254169
 20
27.51023495842249
 30
0.0
 10
28.12518069254169
 20
27.50206681752315
 30
0.0
 10
28.13261255164235
 20
27.49463495842249
 30
0.0
 10
28.14078069254168
 20
27.49463495842249
 30
0.0
  0
LINE
  5
111
330
6C
100
AcDbEntity
  8
Visible (ANSI)
100
AcDbLine
 10
28.05127195254681
 20
27.51023495842249
 30
0.0
 11
28.12518069254169
 21
27.51023495842249
 31
0.0
  0
LINE
  5
112
330
6C
100
AcDbEntity
  8
Visible (ANSI)
100
AcDbLine
 10
28.00018069254168
 20
27.51023495842249
 30
0.0
 11
28.05127195254681
 21
27.51023495842249
 31
0.0
  0
LINE
  5
113
330
6C
100
AcDbEntity
  8
Visible (ANSI)
100
AcDbLine
 10
45.98458069254171
 20
27.49463495842248
 30
0.0
 11
45.87518069254164
 21
27.49463495842248
 31
0.0
  0
LINE
  5
114
330
6C
100
AcDbEntity
  8
Visible (ANSI)
100
AcDbLine
 10
44.87518069254171
 20
27.36963495842248
 30
0.0
 11
45.98458069254171
 21
27.36963495842248
 31
0.0
  0
LINE
  5
115
330
6C
100
AcDbEntity
  8
Visible (ANSI)
100
AcDbLine
 10
44.87518069254171
 20
27.36976109962071
 30
0.0
 11
44.87518069254171
 21
27.36963495842248
 31
0.0
  0
LINE
  5
116
330
6C
100
AcDbEntity
  8
Visible (ANSI)
100
AcDbLine
 10
29.27227777945376
 20
27.36963495842249
 30
0.0
 11
44.85308360562961
 21
27.36963495842249
 31
0.0
  0
LINE
  5
117
330
6C
100
AcDbEntity
  8
Visible (ANSI)
100
AcDbLine
 10
28.14078069254168
 20
27.49463495842249
 30
0.0
 11
28.25018069254165
 21
27.49463495842249
 31
0.0
  0
LINE
  5
118
330
6C
100
AcDbEntity
  8
Visible (ANSI)
100
AcDbLine
 10
28.14078069254168
 20
27.36963495842249
 30
0.0
 11
29.25018069254168
 21
27.36963495842249
 31
0.0
  0
LINE
  5
119
330
6C
100
AcDbEntity
  8
Visible (ANSI)
100
AcDbLine
 10
29.25018069254168
 20
27.36976109962071
 30
0.0
 11
29.25018069254168
 21
27.36963495842249
 31
0.0
  0
LINE
  5
11A
330
6C
100
AcDbEntity
  8
Visible (ANSI)
100
AcDbLine
 10
28.12518069254169
 20
27.51023495842249
 30
0.0
 11
28.14078069254169
 21
27.51023495842249
 31
0.0
  0
LINE
  5
11B
330
6C
100
AcDbEntity
  8
Visible (ANSI)
100
AcDbLine
 10
45.98458069254168
 20
27.51023495842249
 30
0.0
 11
46.00018069254168
 21
27.51023495842249
 31
0.0
  0
SPLINE
  5
11C
330
6C
100
AcDbEntity
  8
Visible (ANSI)
100
AcDbSpline
210
0.0
220
0.0
230
1.0
 70
     8
 71
     3
 72
     8
 73
     4
 74
     0
 42
0.0000000001
 43
0.0000000001
 40
0.0
 40
0.0
 40
0.0
 40
0.0
 40
0.1111819782024558
 40
0.1111819782024558
 40
0.1111819782024558
 40
0.1111819782024558
 10
28.14078069254168
 20
27.51023495842249
 30
0.0
 10
28.14130204123459
 20
27.50502422971074
 30
0.0
 10
28.1418233899275
 20
27.49982321163261
 30
0.0
 10
28.14234473862041
 20
27.49465930034741
 30
0.0
  0
SPLINE
  5
11D
330
6C
100
AcDbEntity
  8
Visible (ANSI)
100
AcDbSpline
210
0.0
220
0.0
230
1.0
 70
     8
 71
     3
 72
     8
 73
     4
 74
     0
 42
0.0000000001
 43
0.0000000001
 40
1.4596143485924
 40
1.4596143485924
 40
1.4596143485924
 40
1.4596143485924
 40
1.570796326794895
 40
1.570796326794895
 40
1.570796326794895
 40
1.570796326794895
 10
45.98301664646295
 20
27.49463833032557
 30
0.0
 10
45.98353799515587
 20
27.49981510347152
 30
0.0
 10
45.98405934384877
 20
27.50502422971074
 30
0.0
 10
45.98458069254168
 20
27.51023495842249
 30
0.0
  0
LINE
  5
11E
330
6C
100
AcDbEntity
  8
Visible (ANSI)
100
AcDbLine
 10
44.85308360562961
 20
27.36963495842249
 30
0.0
 11
44.8751806925417
 21
27.36963495842249
 31
0.0
  0
LINE
  5
11F
330
6C
100
AcDbEntity
  8
Visible (ANSI)
100
AcDbLine
 10
44.85308360562961
 20
27.36976109962071
 30
0.0
 11
44.85308360562961
 21
27.36963495842249
 31
0.0
  0
SPLINE
  5
120
330
6C
100
AcDbEntity
  8
Visible (ANSI)
100
AcDbSpline
210
0.0
220
0.0
230
1.0
 70
     8
 71
     3
 72
     8
 73
     4
 74
     0
 42
0.0000000001
 43
0.0000000001
 40
0.0
 40
0.0
 40
0.0
 40
0.0
 40
1.570796326794895
 40
1.570796326794895
 40
1.570796326794895
 40
1.570796326794895
 10
45.98458069254168
 20
27.51023495842249
 30
0.0
 10
45.97721499690432
 20
27.50206681752316
 30
0.0
 10
45.96984930126697
 20
27.49463495842249
 30
0.0
 10
45.9624836056296
 20
27.49463495842249
 30
0.0
  0
SPLINE
  5
121
330
6C
100
AcDbEntity
  8
Visible (ANSI)
100
AcDbSpline
210
0.0
220
0.0
230
1.0
 70
     8
 71
     3
 72
     8
 73
     4
 74
     0
 42
0.0000000001
 43
0.0000000001
 40
0.0
 40
0.0
 40
0.0
 40
0.0
 40
1.570796326794896
 40
1.570796326794896
 40
1.570796326794896
 40
1.570796326794896
 10
28.14078069254168
 20
27.51023495842249
 30
0.0
 10
28.14814638817905
 20
27.50206681752316
 30
0.0
 10
28.1555120838164
 20
27.49463495842249
 30
0.0
 10
28.16287777945376
 20
27.49463495842249
 30
0.0
  0
LINE
  5
122
330
6C
100
AcDbEntity
  8
Visible (ANSI)
100
AcDbLine
 10
29.25018069254168
 20
27.36963495842249
 30
0.0
 11
29.27227777945376
 21
27.36963495842249
 31
0.0
  0
LINE
  5
123
330
6C
100
AcDbEntity
  8
Visible (ANSI)
100
AcDbLine
 10
29.27227777945376
 20
27.36976109962071
 30
0.0
 11
29.27227777945376
 21
27.36963495842249
 31
0.0
  0
LINE
  5
124
330
6C
100
AcDbEntity
  8
Visible (ANSI)
100
AcDbLine
 10
28.00018069254168
 20
27.51023495842249
 30
0.0
 11
28.00018069254168
 21
33.22903495842248
 31
0.0
  0
LINE
  5
125
330
6C
100
AcDbEntity
  8
Visible (ANSI)
100
AcDbLine
 10
46.00018069254171
 20
27.51023495842249
 30
0.0
 11
46.00018069254173
 21
33.2290349584225
 31
0.0
  0
LINE
  5
126
330
6C
100
AcDbEntity
  8
Visible (ANSI)
100
AcDbLine
 10
46.12518069254174
 20
33.2290349584225
 30
0.0
 11
46.12518069254171
 21
27.51023495842249
 31
0.0
  0
LINE
  5
127
330
6C
100
AcDbEntity
  8
Visible (ANSI)
100
AcDbLine
 10
46.00018069254173
 20
33.2290349584225
 30
0.0
 11
46.12518069254174
 21
33.2290349584225
 31
0.0
  0
LINE
  5
128
330
6C
100
AcDbEntity
  8
Visible (ANSI)
100
AcDbLine
 10
28.12518069254168
 20
33.22903495842248
 30
0.0
 11
28.12518069254169
 21
27.51023495842249
 31
0.0
  0
LINE
  5
129
330
6C
100
AcDbEntity
  8
Visible (ANSI)
100
AcDbLine
 10
28.00018069254168
 20
33.22903495842248
 30
0.0
 11
28.12518069254168
 21
33.22903495842248
 31
0.0
  0
LINE
  5
12A
330
6C
100
AcDbEntity
  8
Visible Narrow (ANSI)
100
AcDbLine
 10
28.14078069254168
 20
33.22903495842249
 30
0.0
 11
28.14078069254168
 21
27.51023495842249
 31
0.0
  0
LINE
  5
12B
330
6C
100
AcDbEntity
  8
Visible Narrow (ANSI)
100
AcDbLine
 10
45.98458069254168
 20
27.51023495842249
 30
0.0
 11
45.98458069254168
 21
33.22903495842249
 31
0.0
  0
LINE
  5
12C
330
6C
100
AcDbEntity
  8
Visible (ANSI)
100
AcDbLine
 10
28.14078069254168
 20
33.22903495842249
 30
0.0
 11
28.12518069254169
 21
33.22903495842249
 31
0.0
  0
LINE
  5
12D
330
6C
100
AcDbEntity
  8
Visible (ANSI)
100
AcDbLine
 10
28.75018069254169
 20
33.24463495842251
 30
0.0
 11
28.14078069254168
 21
33.24463495842248
 31
0.0
  0
LINE
  5
12E
330
6C
100
AcDbEntity
  8
Visible (ANSI)
100
AcDbLine
 10
28.75018069254168
 20
33.3696349584225
 30
0.0
 11
28.14078069254168
 21
33.36963495842248
 31
0.0
  0
LINE
  5
12F
330
6C
100
AcDbEntity
  8
Visible (ANSI)
100
AcDbLine
 10
45.98458069254284
 20
33.36963495842304
 30
0.0
 11
45.37518069254392
 21
33.36963495842304
 31
0.0
  0
LINE
  5
130
330
6C
100
AcDbEntity
  8
Visible (ANSI)
100
AcDbLine
 10
45.37518069254392
 20
33.24463495842303
 30
0.0
 11
45.98458069254284
 21
33.24463495842304
 31
0.0
  0
LINE
  5
131
330
6C
100
AcDbEntity
  8
Visible (ANSI)
100
AcDbLine
 10
44.85308360562977
 20
33.24463495842253
 30
0.0
 11
29.27227777945377
 21
33.24463495842252
 31
0.0
  0
LINE
  5
132
330
6C
100
AcDbEntity
  8
Visible (ANSI)
100
AcDbLine
 10
44.85308360562977
 20
33.36963495842252
 30
0.0
 11
29.27227777945377
 21
33.36963495842252
 31
0.0
  0
LINE
  5
133
330
6C
100
AcDbEntity
  8
Visible (ANSI)
100
AcDbLine
 10
46.00018069254169
 20
33.22903495842249
 30
0.0
 11
45.98458069254169
 21
33.22903495842249
 31
0.0
  0
LINE
  5
134
330
6C
100
AcDbEntity
  8
Visible (ANSI)
100
AcDbLine
 10
29.25018069254168
 20
33.36963495842252
 30
0.0
 11
28.75018069254168
 21
33.3696349584225
 31
0.0
  0
LINE
  5
135
330
6C
100
AcDbEntity
  8
Visible (ANSI)
100
AcDbLine
 10
28.75018069254168
 20
33.3696349584225
 30
0.0
 11
28.75018069254169
 21
33.24463495842251
 31
0.0
  0
LINE
  5
136
330
6C
100
AcDbEntity
  8
Visible (ANSI)
100
AcDbLine
 10
28.75018069254169
 20
33.24463495842251
 30
0.0
 11
29.25018069254168
 21
33.24463495842252
 31
0.0
  0
LINE
  5
137
330
6C
100
AcDbEntity
  8
Visible (ANSI)
100
AcDbLine
 10
29.25018069254168
 20
33.24463495842252
 30
0.0
 11
29.25018069254168
 21
33.36963495842252
 31
0.0
  0
LINE
  5
138
330
6C
100
AcDbEntity
  8
Visible (ANSI)
100
AcDbLine
 10
45.37518069254392
 20
33.36963495842304
 30
0.0
 11
44.87518069254385
 21
33.36963495842298
 31
0.0
  0
LINE
  5
139
330
6C
100
AcDbEntity
  8
Visible (ANSI)
100
AcDbLine
 10
44.87518069254385
 20
33.36963495842298
 30
0.0
 11
44.87518069254385
 21
33.24463495842298
 31
0.0
  0
LINE
  5
13A
330
6C
100
AcDbEntity
  8
Visible (ANSI)
100
AcDbLine
 10
44.87518069254385
 20
33.24463495842298
 30
0.0
 11
45.37518069254392
 21
33.24463495842303
 31
0.0
  0
LINE
  5
13B
330
6C
100
AcDbEntity
  8
Visible (ANSI)
100
AcDbLine
 10
45.37518069254392
 20
33.24463495842303
 30
0.0
 11
45.37518069254392
 21
33.36963495842304
 31
0.0
  0
ARC
  5
13C
330
6C
100
AcDbEntity
  8
Visible (ANSI)
100
AcDbCircle
 10
28.14078069254168
 20
33.22903495842248
 30
0.0
 40
0.0156000000000007
100
AcDbArc
 50
90.00000000001282
 51
180.0
  0
ARC
  5
13D
330
6C
100
AcDbEntity
  8
Visible (ANSI)
100
AcDbCircle
 10
28.14078069254168
 20
33.22903495842248
 30
0.0
 40
0.1406000000000003
100
AcDbArc
 50
90.00000000000285
 51
180.0
  0
ARC
  5
13E
330
6C
100
AcDbEntity
  8
Visible (ANSI)
100
AcDbCircle
 10
45.98458069254284
 20
33.22903495842249
 30
0.0
 40
0.1406000000005394
100
AcDbArc
 50
0.0
 51
90.00000000000285
  0
ARC
  5
13F
330
6C
100
AcDbEntity
  8
Visible (ANSI)
100
AcDbCircle
 10
45.98458069254284
 20
33.2290349584225
 30
0.0
 40
0.0156000000005364
100
AcDbArc
 50
0.0
 51
90.00000000002566
  0
LINE
  5
140
330
6C
100
AcDbEntity
  8
Visible Narrow (ANSI)
100
AcDbLine
 10
45.98458069254168
 20
33.22903495842249
 30
0.0
 11
28.14078069254168
 21
33.22903495842249
 31
0.0
  0
SPLINE
  5
141
330
6C
100
AcDbEntity
  8
Visible (ANSI)
100
AcDbSpline
210
0.0
220
0.0
230
1.0
 70
     8
 71
     3
 72
     8
 73
     4
 74
     0
 42
0.0000000001
 43
0.0000000001
 40
0.0
 40
0.0
 40
0.0
 40
0.0
 40
0.1111819782062922
 40
0.1111819782062922
 40
0.1111819782062922
 40
0.1111819782062922
 10
45.98458069254168
 20
33.2290349584225
 30
0.0
 10
45.98405934384874
 20
33.23424568713444
 30
0.0
 10
45.98353799515583
 20
33.23944670521273
 30
0.0
 10
45.98301664646291
 20
33.24461061649812
 30
0.0
  0
SPLINE
  5
142
330
6C
100
AcDbEntity
  8
Visible (ANSI)
100
AcDbSpline
210
0.0
220
0.0
230
1.0
 70
     8
 71
     3
 72
     8
 73
     4
 74
     0
 42
0.0000000001
 43
0.0000000001
 40
1.459614348592502
 40
1.459614348592502
 40
1.459614348592502
 40
1.459614348592502
 40
1.570796326794939
 40
1.570796326794939
 40
1.570796326794939
 40
1.570796326794939
 10
28.1423447386204
 20
33.24463158651941
 30
0.0
 10
28.1418233899275
 20
33.23945481337345
 30
0.0
 10
28.14130204123459
 20
33.23424568713424
 30
0.0
 10
28.14078069254168
 20
33.22903495842248
 30
0.0
  0
LINE
  5
143
330
6C
100
AcDbEntity
  8
Visible (ANSI)
100
AcDbLine
 10
44.87518069254297
 20
33.24463495842253
 30
0.0
 11
44.85308360562977
 21
33.24463495842253
 31
0.0
  0
LINE
  5
144
330
6C
100
AcDbEntity
  8
Visible (ANSI)
100
AcDbLine
 10
29.25018069254169
 20
33.24463495842252
 30
0.0
 11
29.27227777945377
 21
33.24463495842252
 31
0.0
  0
LINE
  5
145
330
6C
100
AcDbEntity
  8
Visible (ANSI)
100
AcDbLine
 10
29.27227777945377
 20
33.36963495842252
 30
0.0
 11
29.25018069254168
 21
33.36963495842252
 31
0.0
  0
LINE
  5
146
330
6C
100
AcDbEntity
  8
Visible (ANSI)
100
AcDbLine
 10
29.27227777945377
 20
33.24463495842252
 30
0.0
 11
29.27227777945377
 21
33.36963495842252
 31
0.0
  0
SPLINE
  5
147
330
6C
100
AcDbEntity
  8
Visible (ANSI)
100
AcDbSpline
210
0.0
220
0.0
230
1.0
 70
     8
 71
     3
 72
     8
 73
     4
 74
     0
 42
0.0000000001
 43
0.0000000001
 40
0.0
 40
0.0
 40
0.0
 40
0.0
 40
1.570796326794939
 40
1.570796326794939
 40
1.570796326794939
 40
1.570796326794939
 10
28.14078069254168
 20
33.22903495842248
 30
0.0
 10
28.14814638817905
 20
33.23720309932182
 30
0.0
 10
28.1555120838164
 20
33.24463495842249
 30
0.0
 10
28.16287777945377
 20
33.24463495842249
 30
0.0
  0
SPLINE
  5
148
330
6C
100
AcDbEntity
  8
Visible (ANSI)
100
AcDbSpline
210
0.0
220
0.0
230
1.0
 70
     8
 71
     3
 72
     8
 73
     4
 74
     0
 42
0.0000000001
 43
0.0000000001
 40
0.0
 40
0.0
 40
0.0
 40
0.0
 40
1.570796326794905
 40
1.570796326794905
 40
1.570796326794905
 40
1.570796326794905
 10
45.98458069254168
 20
33.22903495842249
 30
0.0
 10
45.97721499690432
 20
33.23720309932183
 30
0.0
 10
45.96984930126697
 20
33.24463495842249
 30
0.0
 10
45.96248360562961
 20
33.24463495842249
 30
0.0
  0
LINE
  5
149
330
6C
100
AcDbEntity
  8
Visible (ANSI)
100
AcDbLine
 10
44.87518069254297
 20
33.36963495842252
 30
0.0
 11
44.85308360562977
 21
33.36963495842252
 31
0.0
  0
LINE
  5
14A
330
6C
100
AcDbEntity
  8
Visible (ANSI)
100
AcDbLine
 10
44.85308360562977
 20
33.24463495842253
 30
0.0
 11
44.85308360562977
 21
33.36963495842252
 31
0.0
  0
LINE
  5
14B
330
6C
100
AcDbEntity
  8
Visible (ANSI)
100
AcDbLine
 10
45.75018069254165
 20
27.49476109962071
 30
0.0
 11
45.87518069254165
 21
27.49476109962071
 31
0.0
  0
LINE
  5
14C
330
6C
100
AcDbEntity
  8
Visible Narrow (ANSI)
100
AcDbLine
 10
45.75018069254165
 20
27.49476109962071
 30
0.0
 11
45.75018069254165
 21
27.36976109962071
 31
0.0
  0
LINE
  5
14D
330
6C
100
AcDbEntity
  8
Visible (ANSI)
100
AcDbLine
 10
45.87518069254165
 20
27.36976109962071
 30
0.0
 11
45.75018069254165
 21
27.36976109962071
 31
0.0
  0
LINE
  5
14E
330
6C
100
AcDbEntity
  8
Visible (ANSI)
100
AcDbLine
 10
45.87518069254164
 20
27.36976109962071
 30
0.0
 11
45.87518069254164
 21
27.49476109962071
 31
0.0
  0
LINE
  5
14F
330
6C
100
AcDbEntity
  8
Visible (ANSI)
100
AcDbLine
 10
28.37518069254164
 20
27.36976109962071
 30
0.0
 11
28.25018069254165
 21
27.36976109962071
 31
0.0
  0
LINE
  5
150
330
6C
100
AcDbEntity
  8
Visible (ANSI)
100
AcDbLine
 10
28.25018069254165
 20
27.49476109962071
 30
0.0
 11
28.37518069254164
 21
27.49476109962071
 31
0.0
  0
LINE
  5
151
330
6C
100
AcDbEntity
  8
Visible (ANSI)
100
AcDbLine
 10
28.25018069254165
 20
27.49476109962071
 30
0.0
 11
28.25018069254165
 21
27.36976109962071
 31
0.0
  0
LINE
  5
152
330
6C
100
AcDbEntity
  8
Visible Narrow (ANSI)
100
AcDbLine
 10
28.37518069254164
 20
27.36976109962071
 30
0.0
 11
28.37518069254164
 21
27.49476109962071
 31
0.0
  0
LINE
  5
153
330
6C
100
AcDbEntity
  8
Visible (ANSI)
100
AcDbLine
 10
45.87518069254164
 20
27.61963495842251
 30
0.0
 11
45.87518069254164
 21
27.57845417185734
 31
0.0
  0
LINE
  5
154
330
6C
100
AcDbEntity
  8
Visible (ANSI)
100
AcDbLine
 10
28.25018069254165
 20
27.6196349584225
 30
0.0
 11
28.25018069254165
 21
27.57845417185733
 31
0.0
  0
LINE
  5
155
330
6C
100
AcDbEntity
  8
Visible (ANSI)
100
AcDbLine
 10
45.87518069254164
 20
27.61963495842251
 30
0.0
 11
28.25018069254165
 21
27.6196349584225
 31
0.0
  0
LINE
  5
156
330
6C
100
AcDbEntity
  8
Visible Narrow (ANSI)
100
AcDbLine
 10
45.87518069254164
 20
27.57845417185734
 30
0.0
 11
28.25018069254164
 21
27.57845417185733
 31
0.0
  0
LINE
  5
157
330
6C
100
AcDbEntity
  8
Visible (ANSI)
100
AcDbLine
 10
45.87518069254164
 20
27.4993302338342
 30
0.0
 11
45.87518069254164
 21
27.57845417185734
 31
0.0
  0
LINE
  5
158
330
6C
100
AcDbEntity
  8
Visible (ANSI)
100
AcDbLine
 10
28.25018069254164
 20
27.57845417185733
 30
0.0
 11
28.25018069254165
 21
27.49933023383419
 31
0.0
  0
LINE
  5
159
330
6C
100
AcDbEntity
  8
Visible (ANSI)
100
AcDbLine
 10
45.87518069254164
 20
27.49476109962071
 30
0.0
 11
45.87518069254164
 21
27.4993302338342
 31
0.0
  0
LINE
  5
15A
330
6C
100
AcDbEntity
  8
Visible (ANSI)
100
AcDbLine
 10
28.25018069254165
 20
27.49476109962071
 30
0.0
 11
28.25018069254165
 21
27.49933023383419
 31
0.0
  0
LINE
  5
15B
330
6C
100
AcDbEntity
  8
Visible Narrow (ANSI)
100
AcDbLine
 10
45.87518069254164
 20
27.4993302338342
 30
0.0
 11
28.25018069254165
 21
27.49933023383419
 31
0.0
  0
LINE
  5
15C
330
6C
100
AcDbEntity
  8
Visible (ANSI)
100
AcDbLine
 10
28.37518069254164
 20
27.36976109962071
 30
0.0
 11
45.75018069254165
 21
27.36976109962071
 31
0.0
  0
LINE
  5
15D
330
6C
100
AcDbEntity
  8
Visible (ANSI)
100
AcDbLine
 10
45.75018069254165
 20
27.49476109962071
 30
0.0
 11
28.37518069254164
 21
27.49476109962071
 31
0.0
  0
MTEXT
  5
15F
330
6C
100
AcDbEntity
  8
Symbol (ANSI)
100
AcDbMText
 10
34.64216764661598
 20
23.97388079293398
 30
0.0
 40
0.600000007415381
 41
0.0
 71
     7
 72
     1
  1
FRONT VIEW
  7
Text Style168
 73
     1
 44
1.0
  0
LINE
  5
161
330
6C
100
AcDbEntity
  8
Symbol (ANSI)
370
    30
100
AcDbLine
 10
34.58216749227404
 20
23.85152260605953
 30
0.0
 11
39.40599251370242
 21
23.85152260605953
 31
0.0
  0
SPLINE
  5
162
330
6C
100
AcDbEntity
  8
Visible (ANSI)
100
AcDbSpline
210
0.0
220
0.0
230
1.0
 70
     8
 71
     3
 72
    11
 73
     7
 74
     0
 42
0.0000000001
 43
0.0000000001
 40
0.0
 40
0.0
 40
0.0
 40
0.0
 40
1.01858281548856
 40
1.01858281548856
 40
1.01858281548856
 40
1.570796326794896
 40
1.570796326794896
 40
1.570796326794896
 40
1.570796326794896
 10
7.224445143888318
 20
27.51023495842249
 30
0.0
 10
7.224445143888319
 20
27.4624973771366
 30
0.0
 10
7.25064804946745
 20
27.4155748218544
 30
0.0
 10
7.291290177336628
 20
27.39053297469223
 30
0.0
 10
7.313323861585302
 20
27.37695681167364
 30
0.0
 10
7.339164737325099
 20
27.36963495842249
 30
0.0
 10
7.365045143888324
 20
27.36963495842249
 30
0.0
  0
LINE
  5
163
330
6C
100
AcDbEntity
  8
Visible (ANSI)
100
AcDbLine
 10
7.365045143888324
 20
27.49463495842249
 30
0.0
 11
7.366609189967048
 21
27.49463495842249
 31
0.0
  0
LINE
  5
164
330
6C
100
AcDbEntity
  8
Visible (ANSI)
100
AcDbLine
 10
7.365045143888324
 20
27.49463495842249
 30
0.0
 11
7.365045143888324
 21
27.36963495842249
 31
0.0
  0
SPLINE
  5
165
330
6C
100
AcDbEntity
  8
Visible (ANSI)
100
AcDbSpline
210
0.0
220
0.0
230
1.0
 70
     8
 71
     3
 72
     8
 73
     4
 74
     0
 42
0.0000000001
 43
0.0000000001
 40
0.0
 40
0.0
 40
0.0
 40
0.0
 40
1.570796326794896
 40
1.570796326794896
 40
1.570796326794896
 40
1.570796326794896
 10
7.349445143888318
 20
27.51023495842249
 30
0.0
 10
7.34944514388832
 20
27.50206681752316
 30
0.0
 10
7.356877002988989
 20
27.49463495842249
 30
0.0
 10
7.365045143888324
 20
27.49463495842249
 30
0.0
  0
LINE
  5
166
330
6C
100
AcDbEntity
  8
Visible (ANSI)
100
AcDbLine
 10
7.365045143888324
 20
27.36963495842249
 30
0.0
 11
7.38714223080041
 21
27.36963495842249
 31
0.0
  0
SPLINE
  5
167
330
6C
100
AcDbEntity
  8
Visible (ANSI)
100
AcDbSpline
210
0.0
220
0.0
230
1.0
 70
     8
 71
     3
 72
    11
 73
     7
 74
     0
 42
0.0000000001
 43
0.0000000001
 40
0.0
 40
0.0
 40
0.0
 40
0.0
 40
1.018582815488561
 40
1.018582815488561
 40
1.018582815488561
 40
1.570796326794895
 40
1.570796326794895
 40
1.570796326794895
 40
1.570796326794895
 10
7.387142230800397
 20
27.36963495842249
 30
0.0
 10
7.382365945757979
 20
27.36963495842249
 30
0.0
 10
7.37758966071556
 20
27.39583786400162
 30
0.0
 10
7.372813375673149
 20
27.43647999187079
 30
0.0
 10
7.370223965078189
 20
27.45851367611947
 30
0.0
 10
7.367634554483232
 20
27.48435455185927
 30
0.0
 10
7.365045143888276
 20
27.51023495842249
 30
0.0
  0
LINE
  5
168
330
6C
100
AcDbEntity
  8
Visible (ANSI)
100
AcDbLine
 10
13.22444514388841
 20
27.36963495842249
 30
0.0
 11
7.387142230800397
 21
27.36963495842249
 31
0.0
  0
SPLINE
  5
169
330
6C
100
AcDbEntity
  8
Visible (ANSI)
100
AcDbSpline
210
0.0
220
0.0
230
1.0
 70
     8
 71
     3
 72
    11
 73
     7
 74
     0
 42
0.0000000001
 43
0.0000000001
 40
0.0
 40
0.0
 40
0.0
 40
0.0
 40
1.01858281548856
 40
1.01858281548856
 40
1.01858281548856
 40
1.570796326794896
 40
1.570796326794896
 40
1.570796326794896
 40
1.570796326794896
 10
13.27243640579231
 20
27.51023495842249
 30
0.0
 10
13.26206309516951
 20
27.46249737713659
 30
0.0
 10
13.25168978454673
 20
27.4155748218544
 30
0.0
 10
13.24131647392395
 20
27.39053297469223
 30
0.0
 10
13.23569269724543
 20
27.37695681167363
 30
0.0
 10
13.23006892056692
 20
27.36963495842249
 30
0.0
 10
13.22444514388841
 20
27.36963495842249
 30
0.0
  0
LINE
  5
16A
330
6C
100
AcDbEntity
  8
Visible Narrow (ANSI)
100
AcDbLine
 10
7.365045143888276
 20
27.51023495842249
 30
0.0
 11
13.27243640579231
 21
27.51023495842249
 31
0.0
  0
LINE
  5
16B
330
6C
100
AcDbEntity
  8
Visible (ANSI)
100
AcDbLine
 10
7.365045143888276
 20
27.51023495842249
 30
0.0
 11
7.224445143888318
 21
27.51023495842249
 31
0.0
  0
LINE
  5
16C
330
6C
100
AcDbEntity
  8
Visible (ANSI)
100
AcDbLine
 10
13.27243640579231
 20
27.51023495842249
 30
0.0
 11
15.22444514388828
 21
33.22903495842248
 31
0.0
  0
LINE
  5
16D
330
6C
100
AcDbEntity
  8
Visible Narrow (ANSI)
100
AcDbLine
 10
15.22444514388828
 20
33.22903495842248
 30
0.0
 11
7.365045143888276
 21
33.22903495842249
 31
0.0
  0
LINE
  5
16E
330
6C
100
AcDbEntity
  8
Visible (ANSI)
100
AcDbLine
 10
15.22444514388827
 20
33.22903495842248
 30
0.0
 11
15.22444514388832
 21
33.36963495842248
 31
0.0
  0
LINE
  5
16F
330
6C
100
AcDbEntity
  8
Visible (ANSI)
100
AcDbLine
 10
7.387142230800397
 20
33.36963495842249
 30
0.0
 11
15.22444514388832
 21
33.36963495842248
 31
0.0
  0
LINE
  5
170
330
6C
100
AcDbEntity
  8
Visible Narrow (ANSI)
100
AcDbLine
 10
7.365045143888276
 20
33.22903495842249
 30
0.0
 11
7.365045143888276
 21
27.51023495842249
 31
0.0
  0
LINE
  5
171
330
6C
100
AcDbEntity
  8
Visible (ANSI)
100
AcDbLine
 10
7.224445143888318
 20
27.51023495842249
 30
0.0
 11
7.224445143888318
 21
33.22903495842249
 31
0.0
  0
SPLINE
  5
172
330
6C
100
AcDbEntity
  8
Visible (ANSI)
100
AcDbSpline
210
0.0
220
0.0
230
1.0
 70
     8
 71
     3
 72
    11
 73
     7
 74
     0
 42
0.0000000001
 43
0.0000000001
 40
0.0
 40
0.0
 40
0.0
 40
0.0
 40
1.018582815488557
 40
1.018582815488557
 40
1.018582815488557
 40
1.570796326794939
 40
1.570796326794939
 40
1.570796326794939
 40
1.570796326794939
 10
7.365045143888329
 20
33.36963495842249
 30
0.0
 10
7.31730756260243
 20
33.36963495842249
 30
0.0
 10
7.270385007320233
 20
33.34343205284336
 30
0.0
 10
7.245343160158067
 20
33.30278992497419
 30
0.0
 10
7.231766997139468
 20
33.28075624072551
 30
0.0
 10
7.22444514388832
 20
33.25491536498571
 30
0.0
 10
7.22444514388832
 20
33.22903495842248
 30
0.0
  0
LINE
  5
173
330
6C
100
AcDbEntity
  8
Visible (ANSI)
100
AcDbLine
 10
7.365045143888326
 20
33.24463495842249
 30
0.0
 11
7.366609189967047
 21
33.24463495842249
 31
0.0
  0
LINE
  5
174
330
6C
100
AcDbEntity
  8
Visible (ANSI)
100
AcDbLine
 10
7.387142230800411
 20
33.36963495842249
 30
0.0
 11
7.365045143888321
 21
33.36963495842249
 31
0.0
  0
LINE
  5
175
330
6C
100
AcDbEntity
  8
Visible (ANSI)
100
AcDbLine
 10
7.365045143888326
 20
33.24463495842249
 30
0.0
 11
7.365045143888321
 21
33.36963495842249
 31
0.0
  0
SPLINE
  5
176
330
6C
100
AcDbEntity
  8
Visible (ANSI)
100
AcDbSpline
210
0.0
220
0.0
230
1.0
 70
     8
 71
     3
 72
     8
 73
     4
 74
     0
 42
0.0000000001
 43
0.0000000001
 40
0.0
 40
0.0
 40
0.0
 40
0.0
 40
1.570796326794939
 40
1.570796326794939
 40
1.570796326794939
 40
1.570796326794939
 10
7.349445143888319
 20
33.22903495842248
 30
0.0
 10
7.349445143888321
 20
33.23720309932182
 30
0.0
 10
7.35687700298899
 20
33.24463495842249
 30
0.0
 10
7.365045143888326
 20
33.24463495842249
 30
0.0
  0
SPLINE
  5
177
330
6C
100
AcDbEntity
  8
Visible (ANSI)
100
AcDbSpline
210
0.0
220
0.0
230
1.0
 70
     8
 71
     3
 72
    11
 73
     7
 74
     0
 42
0.0000000001
 43
0.0000000001
 40
0.0
 40
0.0
 40
0.0
 40
0.0
 40
1.018582815488558
 40
1.018582815488558
 40
1.018582815488558
 40
1.570796326794905
 40
1.570796326794905
 40
1.570796326794905
 40
1.570796326794905
 10
7.365045143888276
 20
33.22903495842249
 30
0.0
 10
7.369821428930681
 20
33.27677253970839
 30
0.0
 10
7.374597713973092
 20
33.32369509499058
 30
0.0
 10
7.379373999015508
 20
33.34873694215275
 30
0.0
 10
7.38196340961047
 20
33.36231310517134
 30
0.0
 10
7.384552820205434
 20
33.36963495842249
 30
0.0
 10
7.387142230800397
 20
33.36963495842249
 30
0.0
  0
LINE
  5
178
330
6C
100
AcDbEntity
  8
Visible (ANSI)
100
AcDbLine
 10
7.224445143888318
 20
33.22903495842249
 30
0.0
 11
7.365045143888276
 21
33.22903495842249
 31
0.0
  0
LINE
  5
179
330
6C
100
AcDbEntity
  8
Visible (ANSI)
100
AcDbLine
 10
14.97444514388839
 20
27.36976109962071
 30
0.0
 11
14.84944514388835
 21
27.36976109962071
 31
0.0
  0
LINE
  5
17A
330
6C
100
AcDbEntity
  8
Visible (ANSI)
100
AcDbLine
 10
14.84944514388835
 20
27.49476109962071
 30
0.0
 11
14.97444514388839
 21
27.49476109962071
 31
0.0
  0
LINE
  5
17B
330
6C
100
AcDbEntity
  8
Visible Narrow (ANSI)
100
AcDbLine
 10
14.84944514388835
 20
27.49476109962071
 30
0.0
 11
14.84944514388835
 21
27.36976109962071
 31
0.0
  0
LINE
  5
17C
330
6C
100
AcDbEntity
  8
Visible (ANSI)
100
AcDbLine
 10
14.97444514388839
 20
27.36976109962071
 30
0.0
 11
14.97444514388839
 21
27.49476109962071
 31
0.0
  0
LINE
  5
17D
330
6C
100
AcDbEntity
  8
Visible (ANSI)
100
AcDbLine
 10
13.44218357075801
 20
27.36976109962071
 30
0.0
 11
14.84944514388835
 21
27.36976109962071
 31
0.0
  0
LINE
  5
17E
330
6C
100
AcDbEntity
  8
Visible (ANSI)
100
AcDbLine
 10
14.84944514388835
 20
27.49476109962071
 30
0.0
 11
13.44218357075801
 21
27.49476109962071
 31
0.0
  0
ARC
  5
17F
330
6C
100
AcDbEntity
  8
Visible (ANSI)
100
AcDbCircle
 10
13.442183570758
 20
27.51036109962071
 30
0.0
 40
0.0155999999999999
100
AcDbArc
 50
225.0000000000182
 51
270.0000000000128
  0
ARC
  5
180
330
6C
100
AcDbEntity
  8
Visible (ANSI)
100
AcDbCircle
 10
13.442183570758
 20
27.51036109962071
 30
0.0
 40
0.1405999999999992
100
AcDbArc
 50
225.0000000000025
 51
270.0000000000021
  0
LINE
  5
181
330
6C
100
AcDbEntity
  8
Visible (ANSI)
100
AcDbLine
 10
13.35202876694836
 20
27.57845417185733
 30
0.0
 11
13.4311527049715
 21
27.49933023383419
 31
0.0
  0
LINE
  5
182
330
6C
100
AcDbEntity
  8
Visible (ANSI)
100
AcDbLine
 10
13.34276435732318
 20
27.41094188618588
 30
0.0
 11
13.26724538640979
 21
27.48646085709926
 31
0.0
  0
ARC
  5
183
330
6C
100
AcDbEntity
  8
Visible (ANSI)
100
AcDbCircle
 10
13.25260955351353
 20
27.47903495842251
 30
0.0
 40
0.1405999999999943
100
AcDbArc
 50
44.99999999999899
 51
67.61200410645294
  0
MTEXT
  5
184
330
6C
100
AcDbEntity
  8
Symbol (ANSI)
100
AcDbMText
 10
9.190650705106616
 20
23.99916442435532
 30
0.0
 40
0.600000007415381
 41
0.0
 71
     7
 72
     1
  1
LEFT VIEW
  7
Text Style168
 73
     1
 44
1.0
  0
LINE
  5
185
330
6C
100
AcDbEntity
  8
Symbol (ANSI)
370
    30
100
AcDbLine
 10
9.130650550764682
 20
23.86416442268686
 30
0.0
 11
13.18089363934423
 21
23.86416442268686
 31
0.0
  0
LINE
  5
186
330
6C
100
AcDbEntity
  8
Visible (ANSI)
100
AcDbLine
 10
62.95461814681906
 20
27.36963495842248
 30
0.0
 11
57.11731523373114
 21
27.36963495842248
 31
0.0
  0
LINE
  5
187
330
6C
100
AcDbEntity
  8
Visible Narrow (ANSI)
100
AcDbLine
 10
57.06932397182725
 20
27.51023495842249
 30
0.0
 11
62.9767152337312
 21
27.51023495842249
 31
0.0
  0
SPLINE
  5
188
330
6C
100
AcDbEntity
  8
Visible (ANSI)
100
AcDbSpline
210
0.0
220
0.0
230
1.0
 70
     8
 71
     3
 72
    11
 73
     7
 74
     0
 42
0.0000000001
 43
0.0000000001
 40
0.0
 40
0.0
 40
0.0
 40
0.0
 40
1.018582815488602
 40
1.018582815488602
 40
1.018582815488602
 40
1.570796326795074
 40
1.570796326795074
 40
1.570796326795074
 40
1.570796326795074
 10
57.11731523373114
 20
27.36963495842247
 30
0.0
 10
57.10694192310837
 20
27.36963495842247
 30
0.0
 10
57.09656861248558
 20
27.39583786400161
 30
0.0
 10
57.08619530186279
 20
27.43647999187079
 30
0.0
 10
57.08057152518428
 20
27.45851367611947
 30
0.0
 10
57.07494774850577
 20
27.48435455185928
 30
0.0
 10
57.06932397182725
 20
27.51023495842251
 30
0.0
  0
SPLINE
  5
189
330
6C
100
AcDbEntity
  8
Visible (ANSI)
100
AcDbSpline
210
0.0
220
0.0
230
1.0
 70
     8
 71
     3
 72
    11
 73
     7
 74
     0
 42
0.0000000001
 43
0.0000000001
 40
0.0
 40
0.0
 40
0.0
 40
0.0
 40
1.018582815488634
 40
1.018582815488634
 40
1.018582815488634
 40
1.570796326794895
 40
1.570796326794895
 40
1.570796326794895
 40
1.570796326794895
 10
62.97671523373118
 20
27.51023495842251
 30
0.0
 10
62.97193894868878
 20
27.46249737713661
 30
0.0
 10
62.96716266364636
 20
27.4155748218544
 30
0.0
 10
62.96238637860394
 20
27.39053297469223
 30
0.0
 10
62.95979696800898
 20
27.37695681167364
 30
0.0
 10
62.95720755741402
 20
27.36963495842248
 30
0.0
 10
62.95461814681906
 20
27.36963495842248
 30
0.0
  0
SPLINE
  5
18A
330
6C
100
AcDbEntity
  8
Visible (ANSI)
100
AcDbSpline
210
0.0
220
0.0
230
1.0
 70
     8
 71
     3
 72
    11
 73
     7
 74
     0
 42
0.0000000001
 43
0.0000000001
 40
0.0
 40
0.0
 40
0.0
 40
0.0
 40
1.018582815488561
 40
1.018582815488561
 40
1.018582815488561
 40
1.570796326794895
 40
1.570796326794895
 40
1.570796326794895
 40
1.570796326794895
 10
62.97671523373114
 20
27.36963495842249
 30
0.0
 10
63.02445281501704
 20
27.36963495842249
 30
0.0
 10
63.07137537029923
 20
27.39583786400162
 30
0.0
 10
63.0964172174614
 20
27.43647999187079
 30
0.0
 10
63.10999338048
 20
27.45851367611947
 30
0.0
 10
63.11731523373113
 20
27.48435455185927
 30
0.0
 10
63.11731523373113
 20
27.51023495842249
 30
0.0
  0
LINE
  5
18B
330
6C
100
AcDbEntity
  8
Visible (ANSI)
100
AcDbLine
 10
62.97671523373114
 20
27.49463495842249
 30
0.0
 11
62.9751511876524
 21
27.49463495842249
 31
0.0
  0
LINE
  5
18C
330
6C
100
AcDbEntity
  8
Visible (ANSI)
100
AcDbLine
 10
62.95461814681904
 20
27.36963495842249
 30
0.0
 11
62.97671523373114
 21
27.36963495842249
 31
0.0
  0
LINE
  5
18D
330
6C
100
AcDbEntity
  8
Visible (ANSI)
100
AcDbLine
 10
62.97671523373114
 20
27.49463495842249
 30
0.0
 11
62.97671523373114
 21
27.36963495842249
 31
0.0
  0
SPLINE
  5
18E
330
6C
100
AcDbEntity
  8
Visible (ANSI)
100
AcDbSpline
210
0.0
220
0.0
230
1.0
 70
     8
 71
     3
 72
     8
 73
     4
 74
     0
 42
0.0000000001
 43
0.0000000001
 40
0.0
 40
0.0
 40
0.0
 40
0.0
 40
1.570796326794895
 40
1.570796326794895
 40
1.570796326794895
 40
1.570796326794895
 10
62.99231523373114
 20
27.51023495842249
 30
0.0
 10
62.99231523373114
 20
27.50206681752316
 30
0.0
 10
62.98488337463047
 20
27.49463495842249
 30
0.0
 10
62.97671523373114
 20
27.49463495842249
 30
0.0
  0
LINE
  5
18F
330
6C
100
AcDbEntity
  8
Visible (ANSI)
100
AcDbLine
 10
63.11731523373113
 20
27.51023495842249
 30
0.0
 11
62.9767152337312
 21
27.51023495842249
 31
0.0
  0
LINE
  5
190
330
6C
100
AcDbEntity
  8
Visible (ANSI)
100
AcDbLine
 10
63.11731523373113
 20
33.22903495842249
 30
0.0
 11
63.11731523373113
 21
27.51023495842249
 31
0.0
  0
LINE
  5
191
330
6C
100
AcDbEntity
  8
Visible Narrow (ANSI)
100
AcDbLine
 10
62.9767152337312
 20
27.51023495842249
 30
0.0
 11
62.97671523373118
 21
33.22903495842249
 31
0.0
  0
LINE
  5
192
330
6C
100
AcDbEntity
  8
Visible (ANSI)
100
AcDbLine
 10
62.97671523373118
 20
33.22903495842249
 30
0.0
 11
63.11731523373113
 21
33.22903495842249
 31
0.0
  0
LINE
  5
193
330
6C
100
AcDbEntity
  8
Visible (ANSI)
100
AcDbLine
 10
55.11731523373118
 20
33.2290349584225
 30
0.0
 11
57.06932397182725
 21
27.51023495842249
 31
0.0
  0
LINE
  5
194
330
6C
100
AcDbEntity
  8
Visible (ANSI)
100
AcDbLine
 10
55.11731523373114
 20
33.36963495842303
 30
0.0
 11
55.11731523373119
 21
33.2290349584225
 31
0.0
  0
LINE
  5
195
330
6C
100
AcDbEntity
  8
Visible (ANSI)
100
AcDbLine
 10
55.11731523373114
 20
33.36963495842304
 30
0.0
 11
62.95461814681963
 21
33.36963495842196
 31
0.0
  0
LINE
  5
196
330
6C
100
AcDbEntity
  8
Visible Narrow (ANSI)
100
AcDbLine
 10
62.97671523373118
 20
33.22903495842249
 30
0.0
 11
55.11731523373118
 21
33.2290349584225
 31
0.0
  0
SPLINE
  5
197
330
6C
100
AcDbEntity
  8
Visible (ANSI)
100
AcDbSpline
210
0.0
220
0.0
230
1.0
 70
     8
 71
     3
 72
    11
 73
     7
 74
     0
 42
0.0000000001
 43
0.0000000001
 40
0.0
 40
0.0
 40
0.0
 40
0.0
 40
1.01858281548856
 40
1.01858281548856
 40
1.01858281548856
 40
1.570796326794905
 40
1.570796326794905
 40
1.570796326794905
 40
1.570796326794905
 10
63.11731523373113
 20
33.2290349584225
 30
0.0
 10
63.11731523373113
 20
33.2767725397084
 30
0.0
 10
63.09111232815201
 20
33.32369509499059
 30
0.0
 10
63.05047020028283
 20
33.34873694215275
 30
0.0
 10
63.02843651603415
 20
33.36231310517135
 30
0.0
 10
63.00259564029435
 20
33.36963495842249
 30
0.0
 10
62.97671523373113
 20
33.36963495842249
 30
0.0
  0
LINE
  5
198
330
6C
100
AcDbEntity
  8
Visible (ANSI)
100
AcDbLine
 10
62.97671523373113
 20
33.2446349584225
 30
0.0
 11
62.97515118765245
 21
33.2446349584225
 31
0.0
  0
LINE
  5
199
330
6C
100
AcDbEntity
  8
Visible (ANSI)
100
AcDbLine
 10
62.97671523373113
 20
33.2446349584225
 30
0.0
 11
62.97671523373114
 21
33.36963495842249
 31
0.0
  0
SPLINE
  5
19A
330
6C
100
AcDbEntity
  8
Visible (ANSI)
100
AcDbSpline
210
0.0
220
0.0
230
1.0
 70
     8
 71
     3
 72
     8
 73
     4
 74
     0
 42
0.0000000001
 43
0.0000000001
 40
0.0
 40
0.0
 40
0.0
 40
0.0
 40
1.570796326794905
 40
1.570796326794905
 40
1.570796326794905
 40
1.570796326794905
 10
62.99231523373114
 20
33.22903495842249
 30
0.0
 10
62.99231523373114
 20
33.23720309932183
 30
0.0
 10
62.98488337463046
 20
33.24463495842249
 30
0.0
 10
62.97671523373113
 20
33.24463495842249
 30
0.0
  0
LINE
  5
19B
330
6C
100
AcDbEntity
  8
Visible (ANSI)
100
AcDbLine
 10
62.97671523373114
 20
33.36963495842249
 30
0.0
 11
62.95461814681961
 21
33.36963495842249
 31
0.0
  0
SPLINE
  5
19C
330
6C
100
AcDbEntity
  8
Visible (ANSI)
100
AcDbSpline
210
0.0
220
0.0
230
1.0
 70
     8
 71
     3
 72
    11
 73
     7
 74
     0
 42
0.0000000001
 43
0.0000000001
 40
0.0
 40
0.0
 40
0.0
 40
0.0
 40
1.018582815489663
 40
1.018582815489663
 40
1.018582815489663
 40
1.570796326794904
 40
1.570796326794904
 40
1.570796326794904
 40
1.570796326794904
 10
62.95461814681963
 20
33.36963495842196
 30
0.0
 10
62.95939443186193
 20
33.36963495842196
 30
0.0
 10
62.96417071690423
 20
33.34343205284286
 30
0.0
 10
62.96894700194652
 20
33.30278992497377
 30
0.0
 10
62.97153641254142
 20
33.28075624072521
 30
0.0
 10
62.9741258231363
 20
33.25491536498557
 30
0.0
 10
62.97671523373118
 20
33.22903495842249
 30
0.0
  0
LINE
  5
19D
330
6C
100
AcDbEntity
  8
Visible (ANSI)
100
AcDbLine
 10
55.36731523373107
 20
27.49476109962071
 30
0.0
 11
55.49231523373111
 21
27.49476109962071
 31
0.0
  0
LINE
  5
19E
330
6C
100
AcDbEntity
  8
Visible (ANSI)
100
AcDbLine
 10
55.36731523373107
 20
27.49476109962071
 30
0.0
 11
55.36731523373107
 21
27.36976109962071
 31
0.0
  0
LINE
  5
19F
330
6C
100
AcDbEntity
  8
Visible (ANSI)
100
AcDbLine
 10
55.49231523373111
 20
27.36976109962071
 30
0.0
 11
55.36731523373107
 21
27.36976109962071
 31
0.0
  0
LINE
  5
1A0
330
6C
100
AcDbEntity
  8
Visible Narrow (ANSI)
100
AcDbLine
 10
55.49231523373111
 20
27.36976109962071
 30
0.0
 11
55.49231523373111
 21
27.49476109962071
 31
0.0
  0
LINE
  5
1A1
330
6C
100
AcDbEntity
  8
Visible (ANSI)
100
AcDbLine
 10
55.49231523373111
 20
27.36976109962071
 30
0.0
 11
56.89957680686145
 21
27.36976109962071
 31
0.0
  0
LINE
  5
1A2
330
6C
100
AcDbEntity
  8
Visible (ANSI)
100
AcDbLine
 10
56.89957680686145
 20
27.49476109962071
 30
0.0
 11
55.49231523373111
 21
27.49476109962071
 31
0.0
  0
ARC
  5
1A3
330
6C
100
AcDbEntity
  8
Visible (ANSI)
100
AcDbCircle
 10
56.89957680686145
 20
27.51036109962071
 30
0.0
 40
0.1405999999999997
100
AcDbArc
 50
269.9999999999972
 51
314.999999999998
  0
ARC
  5
1A4
330
6C
100
AcDbEntity
  8
Visible (ANSI)
100
AcDbCircle
 10
56.89957680686145
 20
27.51036109962071
 30
0.0
 40
0.0155999999999996
100
AcDbArc
 50
269.9999999999743
 51
314.9999999999909
  0
LINE
  5
1A5
330
6C
100
AcDbEntity
  8
Visible (ANSI)
100
AcDbLine
 10
57.07451499120974
 20
27.48646085709934
 30
0.0
 11
56.99899602029628
 21
27.41094188618588
 31
0.0
  0
LINE
  5
1A6
330
6C
100
AcDbEntity
  8
Visible (ANSI)
100
AcDbLine
 10
56.91060767264796
 20
27.4993302338342
 30
0.0
 11
56.9897316106711
 21
27.57845417185734
 31
0.0
  0
ARC
  5
1A7
330
6C
100
AcDbEntity
  8
Visible (ANSI)
100
AcDbCircle
 10
57.08915082410593
 20
27.47903495842251
 30
0.0
 40
0.1405999999999982
100
AcDbArc
 50
112.3879958935108
 51
135.0
  0
MTEXT
  5
1A8
330
6C
100
AcDbEntity
  8
Symbol (ANSI)
100
AcDbMText
 10
56.7715098875581
 20
23.97679813523259
 30
0.0
 40
0.600000007415381
 41
0.0
 71
     7
 72
     1
  1
RIGHT VIEW
  7
Text Style168
 73
     1
 44
1.0
  0
LINE
  5
1A9
330
6C
100
AcDbEntity
  8
Symbol (ANSI)
370
    30
100
AcDbLine
 10
56.71150973321616
 20
23.85346750092527
 30
0.0
 11
61.38606407369886
 21
23.85346750092527
 31
0.0
  0
CIRCLE
  5
1AA
330
6C
100
AcDbEntity
  8
Visible (ANSI)
100
AcDbCircle
 10
30.2501806925385
 20
18.65398372117142
 30
0.0
 40
0.28125
  0
CIRCLE
  5
1AB
330
6C
100
AcDbEntity
  8
Visible (ANSI)
100
AcDbCircle
 10
43.87518069253851
 20
18.65398372117142
 30
0.0
 40
0.28125
  0
CIRCLE
  5
1AC
330
6C
100
AcDbEntity
  8
Visible (ANSI)
100
AcDbCircle
 10
28.68768069253849
 20
17.34148372117141
 30
0.0
 40
0.28125
  0
CIRCLE
  5
1AD
330
6C
100
AcDbEntity
  8
Visible (ANSI)
100
AcDbCircle
 10
28.68768069253849
 20
12.34148372117141
 30
0.0
 40
0.28125
  0
CIRCLE
  5
1AE
330
6C
100
AcDbEntity
  8
Visible (ANSI)
100
AcDbCircle
 10
45.43768069253851
 20
17.34148372117133
 30
0.0
 40
0.28125
  0
CIRCLE
  5
1AF
330
6C
100
AcDbEntity
  8
Visible (ANSI)
100
AcDbCircle
 10
45.43768069253854
 20
12.34148372117134
 30
0.0
 40
0.28125
  0
LINE
  5
1B0
330
6C
100
AcDbEntity
  8
Visible (ANSI)
100
AcDbLine
 10
28.0001806925385
 20
11.34148372117137
 30
0.0
 11
28.0001806925385
 21
19.20088372117137
 31
0.0
  0
LINE
  5
1B1
330
6C
100
AcDbEntity
  8
Visible (ANSI)
100
AcDbLine
 10
28.0001806925385
 20
11.34148372117137
 30
0.0
 11
28.14078069253849
 21
11.34148372117141
 31
0.0
  0
LINE
  5
1B2
330
6C
100
AcDbEntity
  8
Visible (ANSI)
100
AcDbLine
 10
45.98458069253965
 20
11.34148372117142
 30
0.0
 11
46.12518069254019
 21
11.34148372117138
 31
0.0
  0
LINE
  5
1B3
330
6C
100
AcDbEntity
  8
Visible Narrow (ANSI)
100
AcDbLine
 10
45.96248360562643
 20
19.20088372117141
 30
0.0
 11
28.16287777945058
 21
19.20088372117141
 31
0.0
  0
LINE
  5
1B4
330
6C
100
AcDbEntity
  8
Visible (ANSI)
100
AcDbLine
 10
28.1407806925385
 20
19.34148372117137
 30
0.0
 11
45.9845806925385
 21
19.34148372117137
 31
0.0
  0
LINE
  5
1B5
330
6C
100
AcDbEntity
  8
Visible Narrow (ANSI)
100
AcDbLine
 10
28.1407806925385
 20
19.17878663425933
 30
0.0
 11
28.14078069253849
 21
11.34148372117141
 31
0.0
  0
LINE
  5
1B6
330
6C
100
AcDbEntity
  8
Visible Narrow (ANSI)
100
AcDbLine
 10
45.98458069253965
 20
11.34148372117141
 30
0.0
 11
45.9845806925396
 21
19.17878663425989
 31
0.0
  0
LINE
  5
1B7
330
6C
100
AcDbEntity
  8
Visible (ANSI)
100
AcDbLine
 10
46.12518069253851
 20
19.20088372117137
 30
0.0
 11
46.12518069253855
 21
11.34148372117137
 31
0.0
  0
ARC
  5
1B8
330
6C
100
AcDbEntity
  8
Visible (ANSI)
100
AcDbCircle
 10
45.98458069253849
 20
19.20088372117137
 30
0.0
 40
0.1405999999999957
100
AcDbArc
 50
0.0
 51
89.99999999999714
  0
ARC
  5
1B9
330
6C
100
AcDbEntity
  8
Visible (ANSI)
100
AcDbCircle
 10
28.1407806925385
 20
19.20088372117137
 30
0.0
 40
0.0156000000000001
100
AcDbArc
 50
90.0
 51
180.0
  0
LINE
  5
1BA
330
6C
100
AcDbEntity
  8
Visible (ANSI)
100
AcDbLine
 10
28.75018069253849
 20
11.34148372117141
 30
0.0
 11
28.14078069253849
 21
11.34148372117141
 31
0.0
  0
LINE
  5
1BB
330
6C
100
AcDbEntity
  8
Visible (ANSI)
100
AcDbLine
 10
45.98458069253965
 20
11.34148372117141
 30
0.0
 11
45.37518069254075
 21
11.34148372117132
 31
0.0
  0
LINE
  5
1BC
330
6C
100
AcDbEntity
  8
Visible (ANSI)
100
AcDbLine
 10
44.85308360562659
 20
18.09148372117141
 30
0.0
 11
29.27227777945058
 21
18.09148372117142
 31
0.0
  0
LINE
  5
1BD
330
6C
100
AcDbEntity
  8
Visible (ANSI)
100
AcDbLine
 10
29.2501806925385
 20
18.06938663425933
 30
0.0
 11
29.2501806925385
 21
11.84148372117141
 31
0.0
  0
LINE
  5
1BE
330
6C
100
AcDbEntity
  8
Visible (ANSI)
100
AcDbLine
 10
44.87518069254067
 20
11.84148372117125
 30
0.0
 11
44.87518069253979
 21
18.06938663425989
 31
0.0
  0
ARC
  5
1BF
330
6C
100
AcDbEntity
  8
Visible (ANSI)
100
AcDbCircle
 10
28.1407806925385
 20
19.20088372117137
 30
0.0
 40
0.1406
100
AcDbArc
 50
90.0
 51
180.0
  0
ARC
  5
1C0
330
6C
100
AcDbEntity
  8
Visible (ANSI)
100
AcDbCircle
 10
45.98458069253849
 20
19.20088372117137
 30
0.0
 40
0.015600000000007
100
AcDbArc
 50
0.0
 51
89.99999999994862
  0
LINE
  5
1C1
330
6C
100
AcDbEntity
  8
Visible (ANSI)
100
AcDbLine
 10
29.2501806925385
 20
11.84148372117141
 30
0.0
 11
28.75018069253849
 21
11.34148372117141
 31
0.0
  0
LINE
  5
1C2
330
6C
100
AcDbEntity
  8
Visible (ANSI)
100
AcDbLine
 10
45.37518069254075
 20
11.34148372117132
 30
0.0
 11
44.87518069254067
 21
11.84148372117125
 31
0.0
  0
SPLINE
  5
1C3
330
6C
100
AcDbEntity
  8
Visible (ANSI)
100
AcDbSpline
210
0.0
220
0.0
230
1.0
 70
     8
 71
     3
 72
    11
 73
     7
 74
     0
 42
0.0000000001
 43
0.0000000001
 40
0.0
 40
0.0
 40
0.0
 40
0.0
 40
1.01858281548856
 40
1.01858281548856
 40
1.01858281548856
 40
1.570796326794905
 40
1.570796326794905
 40
1.570796326794905
 40
1.570796326794905
 10
45.98458069253849
 20
19.34148372117137
 30
0.0
 10
45.9798044074961
 20
19.34148372117138
 30
0.0
 10
45.97502812245369
 20
19.31528081559226
 30
0.0
 10
45.9702518374113
 20
19.27463868772309
 30
0.0
 10
45.96766242681634
 20
19.25260500347442
 30
0.0
 10
45.96507301622138
 20
19.22676412773462
 30
0.0
 10
45.96248360562643
 20
19.2008837211714
 30
0.0
  0
SPLINE
  5
1C4
330
6C
100
AcDbEntity
  8
Visible (ANSI)
100
AcDbSpline
210
0.0
220
0.0
230
1.0
 70
     8
 71
     3
 72
    11
 73
     7
 74
     0
 42
0.0000000001
 43
0.0000000001
 40
0.0
 40
0.0
 40
0.0
 40
0.0
 40
1.018582815488557
 40
1.018582815488557
 40
1.018582815488557
 40
1.570796326794939
 40
1.570796326794939
 40
1.570796326794939
 40
1.570796326794939
 10
28.16287777945058
 20
19.20088372117141
 30
0.0
 10
28.15810149440818
 20
19.2486213024573
 30
0.0
 10
28.15332520936577
 20
19.29554385773949
 30
0.0
 10
28.14854892432337
 20
19.32058570490164
 30
0.0
 10
28.14595951372841
 20
19.33416186792024
 30
0.0
 10
28.14337010313346
 20
19.34148372117138
 30
0.0
 10
28.1407806925385
 20
19.34148372117137
 30
0.0
  0
LINE
  5
1C5
330
6C
100
AcDbEntity
  8
Visible (ANSI)
100
AcDbLine
 10
29.27227777945058
 20
18.09148372117142
 30
0.0
 11
28.16287777945058
 21
19.20088372117141
 31
0.0
  0
SPLINE
  5
1C6
330
6C
100
AcDbEntity
  8
Visible (ANSI)
100
AcDbSpline
210
0.0
220
0.0
230
1.0
 70
    24
 71
     3
 72
     8
 73
     4
 74
     0
 42
0.0000000001
 43
0.0000000001
 40
0.0
 40
0.0
 40
0.0
 40
0.0
 40
0.3175000000000027
 40
0.3175000000000027
 40
0.3175000000000027
 40
0.3175000000000027
 10
28.1407806925385
 20
19.21648372117137
 30
0.0
 10
28.1407806925385
 20
19.25815038783803
 30
0.0
 10
28.1407806925385
 20
19.2998170545047
 30
0.0
 10
28.1407806925385
 20
19.34148372117137
 30
0.0
  0
SPLINE
  5
1C7
330
6C
100
AcDbEntity
  8
Visible (ANSI)
100
AcDbSpline
210
0.0
220
0.0
230
1.0
 70
     8
 71
     3
 72
     8
 73
     4
 74
     0
 42
0.0000000001
 43
0.0000000001
 40
0.0
 40
0.0
 40
0.0
 40
0.0
 40
1.570796326794939
 40
1.570796326794939
 40
1.570796326794939
 40
1.570796326794939
 10
28.1407806925385
 20
19.21648372117137
 30
0.0
 10
28.14814638817586
 20
19.21648372117137
 30
0.0
 10
28.15551208381323
 20
19.20905186207071
 30
0.0
 10
28.16287777945058
 20
19.20088372117137
 30
0.0
  0
SPLINE
  5
1C8
330
6C
100
AcDbEntity
  8
Visible (ANSI)
100
AcDbSpline
210
0.0
220
0.0
230
1.0
 70
     8
 71
     3
 72
     8
 73
     4
 74
     0
 42
0.0000000001
 43
0.0000000001
 40
0.0
 40
0.0
 40
0.0
 40
0.0
 40
1.570796326794905
 40
1.570796326794905
 40
1.570796326794905
 40
1.570796326794905
 10
45.98458069253849
 20
19.21648372117137
 30
0.0
 10
45.97721499690115
 20
19.21648372117137
 30
0.0
 10
45.96984930126378
 20
19.2090518620707
 30
0.0
 10
45.96248360562643
 20
19.20088372117137
 30
0.0
  0
SPLINE
  5
1C9
330
6C
100
AcDbEntity
  8
Visible (ANSI)
100
AcDbSpline
210
0.0
220
0.0
230
1.0
 70
    24
 71
     3
 72
     8
 73
     4
 74
     0
 42
0.0000000001
 43
0.0000000001
 40
-0.3175000000000038
 40
-0.3175000000000038
 40
-0.3175000000000038
 40
-0.3175000000000038
 40
0.0
 40
0.0
 40
0.0
 40
0.0
 10
45.98458069253849
 20
19.34148372117137
 30
0.0
 10
45.98458069253849
 20
19.2998170545047
 30
0.0
 10
45.98458069253849
 20
19.25815038783803
 30
0.0
 10
45.98458069253849
 20
19.21648372117137
 30
0.0
  0
LINE
  5
1CA
330
6C
100
AcDbEntity
  8
Visible (ANSI)
100
AcDbLine
 10
45.96248360562643
 20
19.20088372117141
 30
0.0
 11
44.85308360562659
 21
18.09148372117141
 31
0.0
  0
SPLINE
  5
1CB
330
6C
100
AcDbEntity
  8
Visible (ANSI)
100
AcDbSpline
210
0.0
220
0.0
230
1.0
 70
     8
 71
     3
 72
    11
 73
     7
 74
     0
 42
0.0000000001
 43
0.0000000001
 40
0.0
 40
0.0
 40
0.0
 40
0.0
 40
1.018582815488558
 40
1.018582815488558
 40
1.018582815488558
 40
1.570796326794905
 40
1.570796326794905
 40
1.570796326794905
 40
1.570796326794905
 10
28.0001806925385
 20
19.20088372117137
 30
0.0
 10
28.0001806925385
 20
19.19610743612898
 30
0.0
 10
28.02638359811763
 20
19.19133115108659
 30
0.0
 10
28.06702572598681
 20
19.18655486604419
 30
0.0
 10
28.08905941023549
 20
19.18396545544924
 30
0.0
 10
28.11490028597529
 20
19.18137604485429
 30
0.0
 10
28.14078069253851
 20
19.17878663425933
 30
0.0
  0
SPLINE
  5
1CC
330
6C
100
AcDbEntity
  8
Visible (ANSI)
100
AcDbSpline
210
0.0
220
0.0
230
1.0
 70
     8
 71
     3
 72
     8
 73
     4
 74
     0
 42
0.0000000001
 43
0.0000000001
 40
0.0
 40
0.0
 40
0.0
 40
0.0
 40
1.570796326794905
 40
1.570796326794905
 40
1.570796326794905
 40
1.570796326794905
 10
28.1251806925385
 20
19.20088372117137
 30
0.0
 10
28.1251806925385
 20
19.19351802553401
 30
0.0
 10
28.13261255163917
 20
19.18615232989665
 30
0.0
 10
28.1407806925385
 20
19.17878663425929
 30
0.0
  0
SPLINE
  5
1CD
330
6C
100
AcDbEntity
  8
Visible (ANSI)
100
AcDbSpline
210
0.0
220
0.0
230
1.0
 70
    24
 71
     3
 72
     8
 73
     4
 74
     0
 42
0.0000000001
 43
0.0000000001
 40
-0.3175
 40
-0.3175
 40
-0.3175
 40
-0.3175
 40
0.0000000000000027
 40
0.0000000000000027
 40
0.0000000000000027
 40
0.0000000000000027
 10
28.0001806925385
 20
19.20088372117137
 30
0.0
 10
28.04184735920517
 20
19.20088372117137
 30
0.0
 10
28.08351402587184
 20
19.20088372117137
 30
0.0
 10
28.1251806925385
 20
19.20088372117137
 30
0.0
  0
LINE
  5
1CE
330
6C
100
AcDbEntity
  8
Visible (ANSI)
100
AcDbLine
 10
28.1407806925385
 20
19.17878663425933
 30
0.0
 11
29.2501806925385
 21
18.06938663425933
 31
0.0
  0
SPLINE
  5
1CF
330
6C
100
AcDbEntity
  8
Visible (ANSI)
100
AcDbSpline
210
0.0
220
0.0
230
1.0
 70
     8
 71
     3
 72
    11
 73
     7
 74
     0
 42
0.0000000001
 43
0.0000000001
 40
0.0
 40
0.0
 40
0.0
 40
0.0
 40
1.018582815489663
 40
1.018582815489663
 40
1.018582815489663
 40
1.570796326794904
 40
1.570796326794904
 40
1.570796326794904
 40
1.570796326794904
 10
45.9845806925396
 20
19.17878663425989
 30
0.0
 10
46.03231827382537
 20
19.18356291930219
 30
0.0
 10
46.07924082910744
 20
19.18833920434446
 30
0.0
 10
46.10428267626949
 20
19.19311548938674
 30
0.0
 10
46.11785883928798
 20
19.19570489998162
 30
0.0
 10
46.12518069253908
 20
19.1982943105765
 30
0.0
 10
46.12518069253908
 20
19.20088372117137
 30
0.0
  0
LINE
  5
1D0
330
6C
100
AcDbEntity
  8
Visible (ANSI)
100
AcDbLine
 10
44.87518069253979
 20
18.06938663425989
 30
0.0
 11
45.9845806925396
 21
19.17878663425989
 31
0.0
  0
SPLINE
  5
1D1
330
6C
100
AcDbEntity
  8
Visible (ANSI)
100
AcDbSpline
210
0.0
220
0.0
230
1.0
 70
    24
 71
     3
 72
     8
 73
     4
 74
     0
 42
0.0000000001
 43
0.0000000001
 40
-0.0000000000000071
 40
-0.0000000000000071
 40
-0.0000000000000071
 40
-0.0000000000000071
 40
0.3175000000000026
 40
0.3175000000000026
 40
0.3175000000000026
 40
0.3175000000000026
 10
46.00018069253907
 20
19.20088372117137
 30
0.0
 10
46.04184735920574
 20
19.20088372117137
 30
0.0
 10
46.0835140258724
 20
19.20088372117137
 30
0.0
 10
46.12518069253908
 20
19.20088372117137
 30
0.0
  0
SPLINE
  5
1D2
330
6C
100
AcDbEntity
  8
Visible (ANSI)
100
AcDbSpline
210
0.0
220
0.0
230
1.0
 70
     8
 71
     3
 72
     8
 73
     4
 74
     0
 42
0.0000000001
 43
0.0000000001
 40
0.0
 40
0.0
 40
0.0
 40
0.0
 40
1.570796326794904
 40
1.570796326794904
 40
1.570796326794904
 40
1.570796326794904
 10
46.00018069253907
 20
19.20088372117137
 30
0.0
 10
46.00018069253907
 20
19.1935180255342
 30
0.0
 10
45.99274883343866
 20
19.18615232989703
 30
0.0
 10
45.9845806925396
 20
19.17878663425986
 30
0.0
  0
CIRCLE
  5
1D3
330
6C
100
AcDbEntity
  8
Visible (ANSI)
100
AcDbCircle
 10
37.06268069253847
 20
15.5914837211697
 30
0.0
 40
0.28125
  0
CIRCLE
  5
1D4
330
6C
100
AcDbEntity
  8
Visible (ANSI)
100
AcDbCircle
 10
30.12518069253847
 20
12.59148372116967
 30
0.0
 40
0.28125
  0
CIRCLE
  5
1D5
330
6C
100
AcDbEntity
  8
Visible (ANSI)
100
AcDbCircle
 10
44.00018069253846
 20
12.59148372116967
 30
0.0
 40
0.28125
  0
LINE
  5
1D6
330
6C
100
AcDbEntity
  8
Visible (ANSI)
100
AcDbLine
 10
45.87518069253845
 20
19.06938663425702
 30
0.0
 11
45.87518069253846
 21
19.09158088467487
 31
0.0
  0
LINE
  5
1D7
330
6C
100
AcDbEntity
  8
Visible (ANSI)
100
AcDbLine
 10
28.25018069253846
 20
19.09158088467486
 30
0.0
 11
28.25018069253846
 21
19.06938663425767
 31
0.0
  0
ARC
  5
1D8
330
6C
100
AcDbEntity
  8
Visible (ANSI)
100
AcDbCircle
 10
28.37518069253848
 20
19.09158088467486
 30
0.0
 40
0.1250000000000166
100
AcDbArc
 50
170.6375988628195
 51
180.0
  0
ARC
  5
1D9
330
6C
100
AcDbEntity
  8
Visible (ANSI)
100
AcDbCircle
 10
45.75018069253849
 20
19.09158088467489
 30
0.0
 40
0.1249999999999646
100
AcDbArc
 50
0.0
 51
9.362401137130895
  0
LINE
  5
1DA
330
6C
100
AcDbEntity
  8
Visible Narrow (ANSI)
100
AcDbLine
 10
44.87518069254047
 20
13.31331931154452
 30
0.0
 11
29.2501806925385
 21
13.31331931154452
 31
0.0
  0
LINE
  5
1DB
330
6C
100
AcDbEntity
  8
Visible Narrow (ANSI)
100
AcDbLine
 10
44.87518069254049
 20
13.21390009810968
 30
0.0
 11
29.2501806925385
 21
13.21390009810968
 31
0.0
  0
LINE
  5
1DC
330
6C
100
AcDbEntity
  8
Visible Narrow (ANSI)
100
AcDbLine
 10
44.8751806925405
 20
13.13477616008652
 30
0.0
 11
29.2501806925385
 21
13.13477616008652
 31
0.0
  0
LINE
  5
1DD
330
6C
100
AcDbEntity
  8
Visible Narrow (ANSI)
100
AcDbLine
 10
44.8751806925405
 20
13.12374529430001
 30
0.0
 11
29.2501806925385
 21
13.12374529430001
 31
0.0
  0
LINE
  5
1DE
330
6C
100
AcDbEntity
  8
Visible (ANSI)
100
AcDbLine
 10
45.12518069254059
 20
11.59148372116967
 30
0.0
 11
29.0001806925385
 21
11.59148372116967
 31
0.0
  0
MTEXT
  5
1DF
330
6C
100
AcDbEntity
  8
Symbol (ANSI)
100
AcDbMText
 10
34.36336149077339
 20
9.180726791851144
 30
0.0
 40
0.600000007415381
 41
0.0
 71
     7
 72
     1
  1
BOTTOM VIEW
  7
Text Style168
 73
     1
 44
1.0
  0
LINE
  5
1E0
330
6C
100
AcDbEntity
  8
Symbol (ANSI)
370
    30
100
AcDbLine
 10
34.30336133643145
 20
9.058368604976694
 30
0.0
 11
39.82200004864612
 21
9.058368604976694
 31
0.0
  0
LINE
  5
1E1
330
6C
100
AcDbEntity
  8
Visible Narrow (ANSI)
100
AcDbLine
 10
45.9845806925446
 20
40.00895252597803
 30
0.0
 11
45.98458069254463
 21
45.84625543906594
 31
0.0
  0
LINE
  5
1E2
330
6C
100
AcDbEntity
  8
Visible (ANSI)
100
AcDbLine
 10
46.12518069254464
 20
45.89424670096994
 30
0.0
 11
46.12518069254459
 21
39.98685543906598
 31
0.0
  0
SPLINE
  5
1E3
330
6C
100
AcDbEntity
  8
Visible (ANSI)
100
AcDbSpline
210
0.0
220
0.0
230
1.0
 70
     8
 71
     3
 72
    11
 73
     7
 74
     0
 42
0.0000000001
 43
0.0000000001
 40
0.0
 40
0.0
 40
0.0
 40
0.0
 40
1.018582815488602
 40
1.018582815488602
 40
1.018582815488602
 40
1.570796326795074
 40
1.570796326795074
 40
1.570796326795074
 40
1.570796326795074
 10
45.98458069254463
 20
45.84625543906594
 30
0.0
 10
46.03231827383053
 20
45.85662874968874
 30
0.0
 10
46.07924082911273
 20
45.86700206031155
 30
0.0
 10
46.10428267627489
 20
45.87737537093435
 30
0.0
 10
46.11785883929349
 20
45.88299914761288
 30
0.0
 10
46.12518069254464
 20
45.88862292429141
 30
0.0
 10
46.12518069254464
 20
45.89424670096994
 30
0.0
  0
LINE
  5
1E4
330
6C
100
AcDbEntity
  8
Visible (ANSI)
100
AcDbLine
 10
46.0740894325395
 20
45.89424670096994
 30
0.0
 11
46.12518069254464
 21
45.89424670096994
 31
0.0
  0
LINE
  5
1E5
330
6C
100
AcDbEntity
  8
Visible (ANSI)
100
AcDbLine
 10
46.00018069254462
 20
45.89424670096994
 30
0.0
 11
46.0740894325395
 21
45.89424670096994
 31
0.0
  0
SPLINE
  5
1E6
330
6C
100
AcDbEntity
  8
Visible (ANSI)
100
AcDbSpline
210
0.0
220
0.0
230
1.0
 70
     8
 71
     3
 72
     8
 73
     4
 74
     0
 42
0.0000000001
 43
0.0000000001
 40
0.0
 40
0.0
 40
0.0
 40
0.0
 40
1.570796326795074
 40
1.570796326795074
 40
1.570796326795074
 40
1.570796326795074
 10
46.00018069254462
 20
45.89424670096994
 30
0.0
 10
46.00018069254462
 20
45.87824961366862
 30
0.0
 10
45.99274883344397
 20
45.86225252636729
 30
0.0
 10
45.98458069254463
 20
45.84625543906598
 30
0.0
  0
LINE
  5
1E7
330
6C
100
AcDbEntity
  8
Visible Narrow (ANSI)
100
AcDbLine
 10
28.16287777945668
 20
39.98685543906596
 30
0.0
 11
45.96248360563252
 21
39.98685543906596
 31
0.0
  0
LINE
  5
1E8
330
6C
100
AcDbEntity
  8
Visible (ANSI)
100
AcDbLine
 10
45.9845806925446
 20
39.846255439066
 30
0.0
 11
28.1407806925446
 21
39.846255439066
 31
0.0
  0
LINE
  5
1E9
330
6C
100
AcDbEntity
  8
Visible Narrow (ANSI)
100
AcDbLine
 10
28.1407806925446
 20
45.84625543906605
 30
0.0
 11
28.1407806925446
 21
40.00895252597802
 31
0.0
  0
SPLINE
  5
1EA
330
6C
100
AcDbEntity
  8
Visible (ANSI)
100
AcDbSpline
210
0.0
220
0.0
230
1.0
 70
     8
 71
     3
 72
    11
 73
     7
 74
     0
 42
0.0000000001
 43
0.0000000001
 40
0.0
 40
0.0
 40
0.0
 40
0.0
 40
1.01858281548856
 40
1.01858281548856
 40
1.01858281548856
 40
1.570796326794896
 40
1.570796326794896
 40
1.570796326794896
 40
1.570796326794896
 10
28.0001806925446
 20
45.89424670097002
 30
0.0
 10
28.0001806925446
 20
45.88387339034722
 30
0.0
 10
28.02638359812373
 20
45.87350007972442
 30
0.0
 10
28.06702572599291
 20
45.86312676910162
 30
0.0
 10
28.08905941024158
 20
45.85750299242309
 30
0.0
 10
28.11490028598138
 20
45.85187921574457
 30
0.0
 10
28.1407806925446
 20
45.84625543906605
 30
0.0
  0
LINE
  5
1EB
330
6C
100
AcDbEntity
  8
Visible (ANSI)
100
AcDbLine
 10
28.0001806925446
 20
39.986855439066
 30
0.0
 11
28.00018069254459
 21
45.89424670097002
 31
0.0
  0
SPLINE
  5
1EC
330
6C
100
AcDbEntity
  8
Visible (ANSI)
100
AcDbSpline
210
0.0
220
0.0
230
1.0
 70
     8
 71
     3
 72
     8
 73
     4
 74
     0
 42
0.0000000001
 43
0.0000000001
 40
0.0
 40
0.0
 40
0.0
 40
0.0
 40
1.570796326794896
 40
1.570796326794896
 40
1.570796326794896
 40
1.570796326794896
 10
28.1251806925446
 20
45.89424670097002
 30
0.0
 10
28.1251806925446
 20
45.87824961366872
 30
0.0
 10
28.13261255164526
 20
45.8622525263674
 30
0.0
 10
28.1407806925446
 20
45.84625543906608
 30
0.0
  0
LINE
  5
1ED
330
6C
100
AcDbEntity
  8
Visible (ANSI)
100
AcDbLine
 10
28.05127195254973
 20
45.89424670097002
 30
0.0
 11
28.1251806925446
 21
45.89424670097002
 31
0.0
  0
LINE
  5
1EE
330
6C
100
AcDbEntity
  8
Visible (ANSI)
100
AcDbLine
 10
28.00018069254459
 20
45.89424670097002
 30
0.0
 11
28.05127195254973
 21
45.89424670097002
 31
0.0
  0
SPLINE
  5
1EF
330
6C
100
AcDbEntity
  8
Visible (ANSI)
100
AcDbSpline
210
0.0
220
0.0
230
1.0
 70
     8
 71
     3
 72
    11
 73
     7
 74
     0
 42
0.0000000001
 43
0.0000000001
 40
0.0
 40
0.0
 40
0.0
 40
0.0
 40
1.018582815488634
 40
1.018582815488634
 40
1.018582815488634
 40
1.570796326794895
 40
1.570796326794895
 40
1.570796326794895
 40
1.570796326794895
 10
46.12518069254459
 20
39.986855439066
 30
0.0
 10
46.1251806925446
 20
39.99163172410839
 30
0.0
 10
46.09897778696548
 20
39.99640800915078
 30
0.0
 10
46.05833565909629
 20
40.00118429419317
 30
0.0
 10
46.03630197484763
 20
40.00377370478813
 30
0.0
 10
46.01046109910784
 20
40.00636311538309
 30
0.0
 10
45.98458069254461
 20
40.00895252597803
 30
0.0
  0
SPLINE
  5
1F0
330
6C
100
AcDbEntity
  8
Visible (ANSI)
100
AcDbSpline
210
0.0
220
0.0
230
1.0
 70
     8
 71
     3
 72
     8
 73
     4
 74
     0
 42
0.0000000001
 43
0.0000000001
 40
0.0
 40
0.0
 40
0.0
 40
0.0
 40
1.570796326794895
 40
1.570796326794895
 40
1.570796326794895
 40
1.570796326794895
 10
46.00018069254459
 20
39.986855439066
 30
0.0
 10
46.0001806925446
 20
39.99422113470335
 30
0.0
 10
45.99274883344392
 20
40.00158683034071
 30
0.0
 10
45.98458069254459
 20
40.00895252597807
 30
0.0
  0
SPLINE
  5
1F1
330
6C
100
AcDbEntity
  8
Visible (ANSI)
100
AcDbSpline
210
0.0
220
0.0
230
1.0
 70
    24
 71
     3
 72
     8
 73
     4
 74
     0
 42
0.0000000001
 43
0.0000000001
 40
-0.3175000000000097
 40
-0.3175000000000097
 40
-0.3175000000000097
 40
-0.3175000000000097
 40
0.0
 40
0.0
 40
0.0
 40
0.0
 10
46.12518069254459
 20
39.986855439066
 30
0.0
 10
46.08351402587793
 20
39.986855439066
 30
0.0
 10
46.04184735921126
 20
39.986855439066
 30
0.0
 10
46.00018069254459
 20
39.986855439066
 30
0.0
  0
LINE
  5
1F2
330
6C
100
AcDbEntity
  8
Visible (ANSI)
100
AcDbLine
 10
45.9845806925446
 20
40.00895252597803
 30
0.0
 11
44.87518069254462
 21
41.11835252597804
 31
0.0
  0
SPLINE
  5
1F3
330
6C
100
AcDbEntity
  8
Visible (ANSI)
100
AcDbSpline
210
0.0
220
0.0
230
1.0
 70
     8
 71
     3
 72
    11
 73
     7
 74
     0
 42
0.0000000001
 43
0.0000000001
 40
0.0
 40
0.0
 40
0.0
 40
0.0
 40
1.01858281548856
 40
1.01858281548856
 40
1.01858281548856
 40
1.570796326794896
 40
1.570796326794896
 40
1.570796326794896
 40
1.570796326794896
 10
28.1407806925446
 20
39.846255439066
 30
0.0
 10
28.145556977587
 20
39.84625543906599
 30
0.0
 10
28.15033326262941
 20
39.87245834464511
 30
0.0
 10
28.15510954767182
 20
39.91310047251427
 30
0.0
 10
28.15769895826677
 20
39.93513415676293
 30
0.0
 10
28.16028836886173
 20
39.96097503250273
 30
0.0
 10
28.16287777945668
 20
39.98685543906596
 30
0.0
  0
SPLINE
  5
1F4
330
6C
100
AcDbEntity
  8
Visible (ANSI)
100
AcDbSpline
210
0.0
220
0.0
230
1.0
 70
     8
 71
     3
 72
    11
 73
     7
 74
     0
 42
0.0000000001
 43
0.0000000001
 40
0.0
 40
0.0
 40
0.0
 40
0.0
 40
1.018582815488561
 40
1.018582815488561
 40
1.018582815488561
 40
1.570796326794895
 40
1.570796326794895
 40
1.570796326794895
 40
1.570796326794895
 10
45.96248360563252
 20
39.98685543906596
 30
0.0
 10
45.96725989067492
 20
39.93911785778005
 30
0.0
 10
45.97203617571733
 20
39.89219530249787
 30
0.0
 10
45.97681246075974
 20
39.86715345533572
 30
0.0
 10
45.9794018713547
 20
39.85357729231713
 30
0.0
 10
45.98199128194965
 20
39.84625543906599
 30
0.0
 10
45.9845806925446
 20
39.846255439066
 30
0.0
  0
LINE
  5
1F5
330
6C
100
AcDbEntity
  8
Visible (ANSI)
100
AcDbLine
 10
44.85308360563252
 20
41.09625543906595
 30
0.0
 11
45.96248360563252
 21
39.98685543906596
 31
0.0
  0
SPLINE
  5
1F6
330
6C
100
AcDbEntity
  8
Visible (ANSI)
100
AcDbSpline
210
0.0
220
0.0
230
1.0
 70
    24
 71
     3
 72
     8
 73
     4
 74
     0
 42
0.0000000001
 43
0.0000000001
 40
0.0
 40
0.0
 40
0.0
 40
0.0
 40
0.3175000000000001
 40
0.3175000000000001
 40
0.3175000000000001
 40
0.3175000000000001
 10
45.9845806925446
 20
39.971255439066
 30
0.0
 10
45.9845806925446
 20
39.92958877239933
 30
0.0
 10
45.9845806925446
 20
39.88792210573267
 30
0.0
 10
45.9845806925446
 20
39.846255439066
 30
0.0
  0
SPLINE
  5
1F7
330
6C
100
AcDbEntity
  8
Visible (ANSI)
100
AcDbSpline
210
0.0
220
0.0
230
1.0
 70
     8
 71
     3
 72
     8
 73
     4
 74
     0
 42
0.0000000001
 43
0.0000000001
 40
0.0
 40
0.0
 40
0.0
 40
0.0
 40
1.570796326794895
 40
1.570796326794895
 40
1.570796326794895
 40
1.570796326794895
 10
45.9845806925446
 20
39.971255439066
 30
0.0
 10
45.97721499690724
 20
39.97125543906599
 30
0.0
 10
45.96984930126988
 20
39.97868729816666
 30
0.0
 10
45.96248360563252
 20
39.986855439066
 30
0.0
  0
SPLINE
  5
1F8
330
6C
100
AcDbEntity
  8
Visible (ANSI)
100
AcDbSpline
210
0.0
220
0.0
230
1.0
 70
     8
 71
     3
 72
     8
 73
     4
 74
     0
 42
0.0000000001
 43
0.0000000001
 40
0.0
 40
0.0
 40
0.0
 40
0.0
 40
1.570796326794896
 40
1.570796326794896
 40
1.570796326794896
 40
1.570796326794896
 10
28.1407806925446
 20
39.971255439066
 30
0.0
 10
28.14814638818196
 20
39.97125543906599
 30
0.0
 10
28.15551208381932
 20
39.97868729816666
 30
0.0
 10
28.16287777945668
 20
39.986855439066
 30
0.0
  0
SPLINE
  5
1F9
330
6C
100
AcDbEntity
  8
Visible (ANSI)
100
AcDbSpline
210
0.0
220
0.0
230
1.0
 70
    24
 71
     3
 72
     8
 73
     4
 74
     0
 42
0.0000000001
 43
0.0000000001
 40
-0.3175000000000001
 40
-0.3175000000000001
 40
-0.3175000000000001
 40
-0.3175000000000001
 40
0.0
 40
0.0
 40
0.0
 40
0.0
 10
28.1407806925446
 20
39.846255439066
 30
0.0
 10
28.1407806925446
 20
39.88792210573267
 30
0.0
 10
28.1407806925446
 20
39.92958877239933
 30
0.0
 10
28.1407806925446
 20
39.971255439066
 30
0.0
  0
LINE
  5
1FA
330
6C
100
AcDbEntity
  8
Visible (ANSI)
100
AcDbLine
 10
28.16287777945668
 20
39.98685543906596
 30
0.0
 11
29.27227777945668
 21
41.09625543906595
 31
0.0
  0
SPLINE
  5
1FB
330
6C
100
AcDbEntity
  8
Visible (ANSI)
100
AcDbSpline
210
0.0
220
0.0
230
1.0
 70
     8
 71
     3
 72
    11
 73
     7
 74
     0
 42
0.0000000001
 43
0.0000000001
 40
0.0
 40
0.0
 40
0.0
 40
0.0
 40
1.018582815488561
 40
1.018582815488561
 40
1.018582815488561
 40
1.570796326794895
 40
1.570796326794895
 40
1.570796326794895
 40
1.570796326794895
 10
28.1407806925446
 20
40.00895252597802
 30
0.0
 10
28.0930431112587
 20
40.00417624093564
 30
0.0
 10
28.04612055597651
 20
39.99939995589323
 30
0.0
 10
28.02107870881434
 20
39.99462367085084
 30
0.0
 10
28.00750254579575
 20
39.99203426025589
 30
0.0
 10
28.0001806925446
 20
39.98944484966095
 30
0.0
 10
28.0001806925446
 20
39.986855439066
 30
0.0
  0
LINE
  5
1FC
330
6C
100
AcDbEntity
  8
Visible (ANSI)
100
AcDbLine
 10
29.2501806925446
 20
41.11835252597804
 30
0.0
 11
28.1407806925446
 21
40.00895252597802
 31
0.0
  0
SPLINE
  5
1FD
330
6C
100
AcDbEntity
  8
Visible (ANSI)
100
AcDbSpline
210
0.0
220
0.0
230
1.0
 70
    24
 71
     3
 72
     8
 73
     4
 74
     0
 42
0.0000000001
 43
0.0000000001
 40
0.0
 40
0.0
 40
0.0
 40
0.0
 40
0.3175000000000001
 40
0.3175000000000001
 40
0.3175000000000001
 40
0.3175000000000001
 10
28.1251806925446
 20
39.986855439066
 30
0.0
 10
28.08351402587793
 20
39.986855439066
 30
0.0
 10
28.04184735921126
 20
39.986855439066
 30
0.0
 10
28.0001806925446
 20
39.986855439066
 30
0.0
  0
SPLINE
  5
1FE
330
6C
100
AcDbEntity
  8
Visible (ANSI)
100
AcDbSpline
210
0.0
220
0.0
230
1.0
 70
     8
 71
     3
 72
     8
 73
     4
 74
     0
 42
0.0000000001
 43
0.0000000001
 40
0.0
 40
0.0
 40
0.0
 40
0.0
 40
1.570796326794895
 40
1.570796326794895
 40
1.570796326794895
 40
1.570796326794895
 10
28.1251806925446
 20
39.986855439066
 30
0.0
 10
28.1251806925446
 20
39.99422113470336
 30
0.0
 10
28.13261255164526
 20
40.00158683034071
 30
0.0
 10
28.1407806925446
 20
40.00895252597807
 30
0.0
  0
LINE
  5
1FF
330
6C
100
AcDbEntity
  8
Visible (ANSI)
100
AcDbLine
 10
44.87518069254463
 20
45.84625543906595
 30
0.0
 11
45.98458069254463
 21
45.84625543906594
 31
0.0
  0
LINE
  5
200
330
6C
100
AcDbEntity
  8
Visible (ANSI)
100
AcDbLine
 10
44.87518069254462
 20
41.11835252597804
 30
0.0
 11
44.87518069254463
 21
45.84625543906595
 31
0.0
  0
LINE
  5
201
330
6C
100
AcDbEntity
  8
Visible (ANSI)
100
AcDbLine
 10
29.27227777945668
 20
41.09625543906595
 30
0.0
 11
44.85308360563252
 21
41.09625543906595
 31
0.0
  0
LINE
  5
202
330
6C
100
AcDbEntity
  8
Visible (ANSI)
100
AcDbLine
 10
28.1407806925446
 20
45.84625543906605
 30
0.0
 11
29.25018069254459
 21
45.84625543906605
 31
0.0
  0
LINE
  5
203
330
6C
100
AcDbEntity
  8
Visible (ANSI)
100
AcDbLine
 10
29.25018069254459
 20
45.84625543906605
 30
0.0
 11
29.2501806925446
 21
41.11835252597804
 31
0.0
  0
ARC
  5
204
330
6C
100
AcDbEntity
  8
Visible (ANSI)
100
AcDbCircle
 10
28.1407806925446
 20
39.986855439066
 30
0.0
 40
0.0156
100
AcDbArc
 50
180.0
 51
270.0
  0
ARC
  5
205
330
6C
100
AcDbEntity
  8
Visible (ANSI)
100
AcDbCircle
 10
28.1407806925446
 20
39.986855439066
 30
0.0
 40
0.1406
100
AcDbArc
 50
180.0
 51
270.0
  0
ARC
  5
206
330
6C
100
AcDbEntity
  8
Visible (ANSI)
100
AcDbCircle
 10
45.98458069254459
 20
39.98685543906599
 30
0.0
 40
0.0156000000000027
100
AcDbArc
 50
270.0
 51
0.0
  0
ARC
  5
207
330
6C
100
AcDbEntity
  8
Visible (ANSI)
100
AcDbCircle
 10
45.9845806925446
 20
39.98685543906599
 30
0.0
 40
0.1405999999999911
100
AcDbArc
 50
270.0
 51
0.0
  0
LINE
  5
208
330
6C
100
AcDbEntity
  8
Visible (ANSI)
100
AcDbLine
 10
28.00018069254459
 20
45.89424670097002
 30
0.0
 11
28.00018069254459
 21
47.84625543906769
 31
0.0
  0
LINE
  5
209
330
6C
100
AcDbEntity
  8
Visible (ANSI)
100
AcDbLine
 10
46.00018069254462
 20
45.89424670096994
 30
0.0
 11
46.00018069254464
 21
47.84625543906769
 31
0.0
  0
LINE
  5
20A
330
6C
100
AcDbEntity
  8
Visible (ANSI)
100
AcDbLine
 10
46.12518069254465
 20
47.84625543906769
 30
0.0
 11
46.12518069254464
 21
45.89424670096994
 31
0.0
  0
LINE
  5
20B
330
6C
100
AcDbEntity
  8
Visible (ANSI)
100
AcDbLine
 10
46.00018069254464
 20
47.84625543906769
 30
0.0
 11
46.12518069254465
 21
47.84625543906769
 31
0.0
  0
LINE
  5
20C
330
6C
100
AcDbEntity
  8
Visible (ANSI)
100
AcDbLine
 10
28.1251806925446
 20
47.84625543906769
 30
0.0
 11
28.1251806925446
 21
45.89424670097002
 31
0.0
  0
LINE
  5
20D
330
6C
100
AcDbEntity
  8
Visible (ANSI)
100
AcDbLine
 10
28.00018069254459
 20
47.84625543906769
 30
0.0
 11
28.1251806925446
 21
47.84625543906769
 31
0.0
  0
LINE
  5
20E
330
6C
100
AcDbEntity
  8
Visible (ANSI)
100
AcDbLine
 10
28.7501806925446
 20
47.84625543906769
 30
0.0
 11
29.0001806925446
 21
47.5962554390677
 31
0.0
  0
LINE
  5
20F
330
6C
100
AcDbEntity
  8
Visible (ANSI)
100
AcDbLine
 10
45.12518069254669
 20
47.5962554390677
 30
0.0
 11
45.37518069254685
 21
47.8462554390677
 31
0.0
  0
LINE
  5
210
330
6C
100
AcDbEntity
  8
Visible (ANSI)
100
AcDbLine
 10
28.7501806925446
 20
47.84625543906769
 30
0.0
 11
28.1407806925446
 21
47.84625543906769
 31
0.0
  0
LINE
  5
211
330
6C
100
AcDbEntity
  8
Visible (ANSI)
100
AcDbLine
 10
45.37518069254685
 20
47.8462554390677
 30
0.0
 11
45.98458069254575
 21
47.84625543906769
 31
0.0
  0
LINE
  5
212
330
6C
100
AcDbEntity
  8
Visible Narrow (ANSI)
100
AcDbLine
 10
28.1407806925446
 20
47.84625543906769
 30
0.0
 11
28.1407806925446
 21
45.84625543906779
 31
0.0
  0
LINE
  5
213
330
6C
100
AcDbEntity
  8
Visible (ANSI)
100
AcDbLine
 10
28.1407806925446
 20
47.84625543906769
 30
0.0
 11
28.1251806925446
 21
47.84625543906769
 31
0.0
  0
LINE
  5
214
330
6C
100
AcDbEntity
  8
Visible (ANSI)
100
AcDbLine
 10
45.98458069254575
 20
47.84625543906769
 30
0.0
 11
46.00018069254629
 21
47.84625543906769
 31
0.0
  0
LINE
  5
215
330
6C
100
AcDbEntity
  8
Visible Narrow (ANSI)
100
AcDbLine
 10
45.98458069254574
 20
45.8462554390677
 30
0.0
 11
45.98458069254575
 21
47.84625543906769
 31
0.0
  0
CIRCLE
  5
216
330
6C
100
AcDbEntity
  8
Visible (ANSI)
100
AcDbCircle
 10
37.06268069254456
 20
43.59625543906599
 30
0.0
 40
0.28125
  0
CIRCLE
  5
217
330
6C
100
AcDbEntity
  8
Visible (ANSI)
100
AcDbCircle
 10
30.12518069254456
 20
46.59625543906595
 30
0.0
 40
0.28125
  0
CIRCLE
  5
218
330
6C
100
AcDbEntity
  8
Visible (ANSI)
100
AcDbCircle
 10
44.00018069254456
 20
46.59625543906595
 30
0.0
 40
0.28125
  0
ARC
  5
219
330
6C
100
AcDbEntity
  8
Visible (ANSI)
100
AcDbCircle
 10
45.75018069254455
 20
47.47125543906595
 30
0.0
 40
0.1250000000000016
100
AcDbArc
 50
0.0
 51
90.0
  0
ARC
  5
21A
330
6C
100
AcDbEntity
  8
Visible (ANSI)
100
AcDbCircle
 10
28.37518069254456
 20
47.47125543906595
 30
0.0
 40
0.125
100
AcDbArc
 50
90.0
 51
180.0
  0
ARC
  5
21B
330
6C
100
AcDbEntity
  8
Visible (ANSI)
100
AcDbCircle
 10
28.37518069254455
 20
40.09615827556083
 30
0.0
 40
0.1249999999999895
100
AcDbArc
 50
180.0
 51
189.3624011371809
  0
ARC
  5
21C
330
6C
100
AcDbEntity
  8
Visible (ANSI)
100
AcDbCircle
 10
45.75018069254474
 20
40.09615827556079
 30
0.0
 40
0.124999999999822
100
AcDbArc
 50
350.6375988628518
 51
0.0
  0
LINE
  5
21D
330
6C
100
AcDbEntity
  8
Visible (ANSI)
100
AcDbLine
 10
45.87518069254456
 20
47.47125543906595
 30
0.0
 11
45.87518069254456
 21
46.06399386593561
 31
0.0
  0
LINE
  5
21E
330
6C
100
AcDbEntity
  8
Visible (ANSI)
100
AcDbLine
 10
28.37518069254456
 20
47.59625543906595
 30
0.0
 11
45.75018069254455
 21
47.59625543906595
 31
0.0
  0
LINE
  5
21F
330
6C
100
AcDbEntity
  8
Visible (ANSI)
100
AcDbLine
 10
28.25018069254456
 20
46.06399386593561
 30
0.0
 11
28.25018069254456
 21
47.47125543906595
 31
0.0
  0
LINE
  5
220
330
6C
100
AcDbEntity
  8
Visible (ANSI)
100
AcDbLine
 10
45.87518069254456
 20
45.96457465250079
 30
0.0
 11
45.87518069254456
 21
46.06399386593561
 31
0.0
  0
LINE
  5
221
330
6C
100
AcDbEntity
  8
Visible Narrow (ANSI)
100
AcDbLine
 10
28.25018069254456
 20
46.06399386593561
 30
0.0
 11
45.87518069254456
 21
46.06399386593561
 31
0.0
  0
LINE
  5
222
330
6C
100
AcDbEntity
  8
Visible (ANSI)
100
AcDbLine
 10
28.25018069254456
 20
45.96457465250079
 30
0.0
 11
28.25018069254456
 21
46.06399386593561
 31
0.0
  0
LINE
  5
223
330
6C
100
AcDbEntity
  8
Visible Narrow (ANSI)
100
AcDbLine
 10
28.25018069254456
 20
45.96457465250079
 30
0.0
 11
45.87518069254456
 21
45.96457465250079
 31
0.0
  0
LINE
  5
224
330
6C
100
AcDbEntity
  8
Visible (ANSI)
100
AcDbLine
 10
45.87518069254456
 20
45.88545071447768
 30
0.0
 11
45.87518069254456
 21
45.96457465250079
 31
0.0
  0
LINE
  5
225
330
6C
100
AcDbEntity
  8
Visible (ANSI)
100
AcDbLine
 10
28.25018069254456
 20
45.96457465250079
 30
0.0
 11
28.25018069254456
 21
45.88545071447768
 31
0.0
  0
LINE
  5
226
330
6C
100
AcDbEntity
  8
Visible (ANSI)
100
AcDbLine
 10
45.87518069254456
 20
45.88545071447769
 30
0.0
 11
45.87518069254456
 21
45.87441984869118
 31
0.0
  0
LINE
  5
227
330
6C
100
AcDbEntity
  8
Visible (ANSI)
100
AcDbLine
 10
28.25018069254456
 20
45.88545071447769
 30
0.0
 11
28.25018069254456
 21
45.87441984869118
 31
0.0
  0
LINE
  5
228
330
6C
100
AcDbEntity
  8
Visible Narrow (ANSI)
100
AcDbLine
 10
28.25018069254456
 20
45.87441984869117
 30
0.0
 11
45.87518069254456
 21
45.87441984869118
 31
0.0
  0
LINE
  5
229
330
6C
100
AcDbEntity
  8
Visible Narrow (ANSI)
100
AcDbLine
 10
28.25018069254456
 20
45.88545071447768
 30
0.0
 11
45.87518069254456
 21
45.88545071447768
 31
0.0
  0
LINE
  5
22A
330
6C
100
AcDbEntity
  8
Visible (ANSI)
100
AcDbLine
 10
45.87518069254456
 20
40.09615827556083
 30
0.0
 11
45.87518069254456
 21
40.11835252597812
 31
0.0
  0
LINE
  5
22B
330
6C
100
AcDbEntity
  8
Visible (ANSI)
100
AcDbLine
 10
45.87518069254456
 20
45.84625543906598
 30
0.0
 11
45.87518069254456
 21
45.87441984869118
 31
0.0
  0
LINE
  5
22C
330
6C
100
AcDbEntity
  8
Visible (ANSI)
100
AcDbLine
 10
28.25018069254456
 20
45.87441984869117
 30
0.0
 11
28.25018069254456
 21
45.84625543906608
 31
0.0
  0
LINE
  5
22D
330
6C
100
AcDbEntity
  8
Visible (ANSI)
100
AcDbLine
 10
28.25018069254456
 20
40.11835252597803
 30
0.0
 11
28.25018069254456
 21
40.09615827556083
 31
0.0
  0
MTEXT
  5
22E
330
6C
100
AcDbEntity
  8
Symbol (ANSI)
100
AcDbMText
 10
35.11830487982641
 20
37.17508263773757
 30
0.0
 40
0.600000007415381
 41
0.0
 71
     7
 72
     1
  1
TOP VIEW
  7
Text Style168
 73
     1
 44
1.0
  0
LINE
  5
22F
330
6C
100
AcDbEntity
  8
Symbol (ANSI)
370
    30
100
AcDbLine
 10
35.11878488106115
 20
37.05272445086312
 30
0.0
 11
38.9045222678998
 21
37.05272445086312
 31
0.0
  0
ELLIPSE
  5
230
330
6C
100
AcDbEntity
  8
Visible (ANSI)
100
AcDbEllipse
 10
69.83975836492553
 20
46.91099188629634
 30
0.0
 11
-0.28125
 21
0.0000000000000248
 31
0.0
210
0.0
220
0.0
230
1.0
 40
0.5758617009852926
 41
0.0
 42
6.283185307179586
  0
ELLIPSE
  5
231
330
6C
100
AcDbEntity
  8
Visible (ANSI)
100
AcDbEllipse
 10
69.83975836492553
 20
46.80879849569103
 30
0.0
 11
0.2812499999999996
 21
-0.0000000000000079
 31
0.0
210
0.0
220
0.0
230
1.0
 40
0.5758617009852915
 41
0.320970292825658
 42
2.820622360764144
  0
ELLIPSE
  5
232
330
6C
100
AcDbEntity
  8
Visible (ANSI)
100
AcDbEllipse
 10
79.47408825859366
 20
41.36295028587661
 30
0.0
 11
-0.28125
 21
0.0000000000000248
 31
0.0
210
0.0
220
0.0
230
1.0
 40
0.5758617009852926
 41
0.0
 42
6.283185307179586
  0
ELLIPSE
  5
233
330
6C
100
AcDbEntity
  8
Visible (ANSI)
100
AcDbEllipse
 10
79.47408825859366
 20
41.26075689527129
 30
0.0
 11
0.281250000000001
 21
-0.0000000000000079
 31
0.0
210
0.0
220
0.0
230
1.0
 40
0.5758617009852914
 41
0.3209702928256583
 42
2.820622360764103
  0
ELLIPSE
  5
234
330
6C
100
AcDbEntity
  8
Visible (ANSI)
100
AcDbEllipse
 10
67.80682636901417
 20
47.01279081474425
 30
0.0
 11
-0.28125
 21
0.0000000000000085
 31
0.0
210
0.0
220
0.0
230
1.0
 40
0.5758617009852931
 41
0.0
 42
6.283185307179586
  0
ELLIPSE
  5
235
330
6C
100
AcDbEntity
  8
Visible (ANSI)
100
AcDbEllipse
 10
67.80682636901417
 20
46.91059742413894
 30
0.0
 11
0.2812500000000008
 21
0.000000000000008
 31
0.0
210
0.0
220
0.0
230
1.0
 40
0.5758617009852943
 41
0.3209702928256473
 42
2.820622360764095
  0
ELLIPSE
  5
236
330
6C
100
AcDbEntity
  8
Visible (ANSI)
100
AcDbEllipse
 10
64.27129246308196
 20
44.97681224578228
 30
0.0
 11
-0.28125
 21
0.0000000000000085
 31
0.0
210
0.0
220
0.0
230
1.0
 40
0.5758617009852931
 41
0.0
 42
6.283185307179586
  0
ELLIPSE
  5
237
330
6C
100
AcDbEntity
  8
Visible (ANSI)
100
AcDbEllipse
 10
64.27129246308196
 20
44.87461885517696
 30
0.0
 11
0.2812500000000008
 21
0.000000000000008
 31
0.0
210
0.0
220
0.0
230
1.0
 40
0.5758617009852941
 41
0.3209702928256471
 42
2.820622360764094
  0
ELLIPSE
  5
238
330
6C
100
AcDbEntity
  8
Visible (ANSI)
100
AcDbEllipse
 10
79.65086495389056
 20
40.19226260872339
 30
0.0
 11
-0.28125
 21
0.0000000000000518
 31
0.0
210
0.0
220
0.0
230
1.0
 40
0.5758617009852366
 41
0.0
 42
6.283185307179586
  0
ELLIPSE
  5
239
330
6C
100
AcDbEntity
  8
Visible (ANSI)
100
AcDbEllipse
 10
79.65086495389055
 20
40.09006921811808
 30
0.0
 11
0.2812500000000122
 21
-0.0000000000000344
 31
0.0
210
0.0
220
0.0
230
1.0
 40
0.5758617009852366
 41
0.3209702928257423
 42
2.820622360764079
  0
ELLIPSE
  5
23A
330
6C
100
AcDbEntity
  8
Visible (ANSI)
100
AcDbEllipse
 10
76.11533104795836
 20
38.15628403976197
 30
0.0
 11
-0.28125
 21
0.0000000000000518
 31
0.0
210
0.0
220
0.0
230
1.0
 40
0.5758617009852366
 41
0.0
 42
6.283185307179586
  0
ELLIPSE
  5
23B
330
6C
100
AcDbEntity
  8
Visible (ANSI)
100
AcDbEllipse
 10
76.11533104795836
 20
38.05409064915666
 30
0.0
 11
0.2812500000000108
 21
-0.0000000000000344
 31
0.0
210
0.0
220
0.0
230
1.0
 40
0.5758617009852363
 41
0.3209702928257576
 42
2.820622360764022
  0
SPLINE
  5
23C
330
6C
100
AcDbEntity
  8
Visible (ANSI)
100
AcDbSpline
210
0.0
220
0.0
230
1.0
 70
     8
 71
     3
 72
     8
 73
     4
 74
     0
 42
0.0000000001
 43
0.0000000001
 40
0.0
 40
0.0
 40
0.0
 40
0.0
 40
0.7873318718205029
 40
0.7873318718205029
 40
0.7873318718205029
 40
0.7873318718205029
 10
81.45179521489449
 20
35.87911964241469
 30
0.0
 10
81.44918463657671
 20
35.84744913178425
 30
0.0
 10
81.43550380825109
 20
35.8225516679571
 30
0.0
 10
81.41459433562689
 20
35.81016878286613
 30
0.0
  0
SPLINE
  5
23D
330
6C
100
AcDbEntity
  8
Visible (ANSI)
100
AcDbSpline
210
0.0
220
0.0
230
1.0
 70
     8
 71
     3
 72
     8
 73
     4
 74
     0
 42
0.0000000001
 43
0.0000000001
 40
0.0
 40
0.0
 40
0.0
 40
0.0
 40
0.0154576661982044
 40
0.0154576661982044
 40
0.0154576661982044
 40
0.0154576661982044
 10
68.74593488510777
 20
43.2086424906756
 30
0.0
 10
68.74598613852412
 20
43.20854726146919
 30
0.0
 10
68.74603688304265
 20
43.20845179749949
 30
0.0
 10
68.74608712317517
 20
43.20835610658108
 30
0.0
  0
SPLINE
  5
23E
330
6C
100
AcDbEntity
  8
Visible (ANSI)
100
AcDbSpline
210
0.0
220
0.0
230
1.0
 70
     8
 71
     3
 72
     8
 73
     4
 74
     0
 42
0.0000000001
 43
0.0000000001
 40
0.0
 40
0.0
 40
0.0
 40
0.0
 40
0.7642854944726429
 40
0.7642854944726429
 40
0.7642854944726429
 40
0.7642854944726429
 10
68.72387315353475
 20
43.2086424906756
 30
0.0
 10
68.72133899073519
 20
43.20393399845072
 30
0.0
 10
68.72004892409581
 20
43.19865158331665
 30
0.0
 10
68.71945759742167
 20
43.19373982834341
 30
0.0
  0
LINE
  5
23F
330
6C
100
AcDbEntity
  8
Visible Narrow (ANSI)
100
AcDbLine
 10
77.2746387944807
 20
33.47365524087273
 30
0.0
 11
81.45179521489451
 21
35.87911964241467
 31
0.0
  0
SPLINE
  5
240
330
6C
100
AcDbEntity
  8
Visible (ANSI)
100
AcDbSpline
210
0.0
220
0.0
230
1.0
 70
     8
 71
     3
 72
    11
 73
     7
 74
     0
 42
0.0000000001
 43
0.0000000001
 40
0.0
 40
0.0
 40
0.0
 40
0.0
 40
1.018582815488602
 40
1.018582815488602
 40
1.018582815488602
 40
1.570796326795074
 40
1.570796326795074
 40
1.570796326795074
 40
1.570796326795074
 10
77.20915452777584
 20
33.43550166862583
 30
0.0
 10
77.23557505693581
 20
33.41183916251596
 30
0.0
 10
77.26141927568173
 20
33.40993064162017
 30
0.0
 10
77.27179149733881
 20
33.42873659595379
 30
0.0
 10
77.27741468364648
 20
33.43893203801125
 30
0.0
 10
77.27861540510598
 20
33.45478676665603
 30
0.0
 10
77.27463879448071
 20
33.47365524087275
 30
0.0
  0
LINE
  5
241
330
6C
100
AcDbEntity
  8
Visible (ANSI)
100
AcDbLine
 10
77.20915452777584
 20
33.5089375901534
 30
0.0
 11
77.20915452777584
 21
33.43550166862583
 31
0.0
  0
LINE
  5
242
330
6C
100
AcDbEntity
  8
Visible (ANSI)
100
AcDbLine
 10
77.23851181807171
 20
33.49445938295906
 30
0.0
 11
77.2746387944807
 21
33.47365524087273
 31
0.0
  0
LINE
  5
243
330
6C
100
AcDbEntity
  8
Visible (ANSI)
100
AcDbLine
 10
77.18625044683237
 20
33.52455470509676
 30
0.0
 11
77.23851181807171
 21
33.49445938295906
 31
0.0
  0
LINE
  5
244
330
6C
100
AcDbEntity
  8
Visible Narrow (ANSI)
100
AcDbLine
 10
68.74593488510777
 20
43.2086424906756
 30
0.0
 11
68.74628059864744
 21
43.20844340748859
 31
0.0
  0
SPLINE
  5
245
330
6C
100
AcDbEntity
  8
Visible (ANSI)
100
AcDbSpline
210
0.0
220
0.0
230
1.0
 70
     8
 71
     3
 72
    11
 73
     7
 74
     0
 42
0.0000000001
 43
0.0000000001
 40
0.0
 40
0.0
 40
0.0
 40
0.0
 40
1.01858281548856
 40
1.01858281548856
 40
1.01858281548856
 40
1.213290904429868
 40
1.213290904429868
 40
1.213290904429868
 40
1.213290904429868
 10
64.45832838547254
 20
40.85407755335766
 30
0.0
 10
64.46566342375726
 20
40.81927379865388
 30
0.0
 10
64.4915267142638
 20
40.77446665527537
 30
0.0
 10
64.52760007676669
 20
40.74166843248291
 30
0.0
 10
64.53449571192547
 20
40.73539885951988
 30
0.0
 10
64.54172603779181
 20
40.72957224207207
 30
0.0
 10
64.54917426920018
 20
40.7242940908605
 30
0.0
  0
LINE
  5
246
330
6C
100
AcDbEntity
  8
Visible Narrow (ANSI)
100
AcDbLine
 10
64.60303383150307
 20
40.8101507077847
 30
0.0
 11
64.59168254563735
 21
40.8036139369977
 31
0.0
  0
LINE
  5
247
330
6C
100
AcDbEntity
  8
Visible (ANSI)
100
AcDbLine
 10
64.59168254563735
 20
40.8036139369977
 30
0.0
 11
64.59168254563735
 21
40.79558492752962
 31
0.0
  0
SPLINE
  5
248
330
6C
100
AcDbEntity
  8
Visible (ANSI)
100
AcDbSpline
210
0.0
220
0.0
230
1.0
 70
     8
 71
     3
 72
     8
 73
     4
 74
     0
 42
0.0000000001
 43
0.0000000001
 40
0.0
 40
0.0
 40
0.0
 40
0.0
 40
1.570796326794896
 40
1.570796326794896
 40
1.570796326794896
 40
1.570796326794896
 10
64.54671673312088
 20
40.80317808913362
 30
0.0
 10
64.55802838203087
 20
40.80301419440832
 30
0.0
 10
64.57459514890776
 20
40.8004260235793
 30
0.0
 10
64.59168254563735
 20
40.8036139369977
 30
0.0
  0
LINE
  5
249
330
6C
100
AcDbEntity
  8
Visible (ANSI)
100
AcDbLine
 10
64.49445536188154
 20
40.83327341127133
 30
0.0
 11
64.54671673312088
 21
40.80317808913362
 31
0.0
  0
LINE
  5
24A
330
6C
100
AcDbEntity
  8
Visible (ANSI)
100
AcDbLine
 10
64.45832838547254
 20
40.85407755335766
 30
0.0
 11
64.49445536188154
 21
40.83327341127133
 31
0.0
  0
LINE
  5
24B
330
6C
100
AcDbEntity
  8
Visible Narrow (ANSI)
100
AcDbLine
 10
64.54671673312088
 20
40.80317808913362
 30
0.0
 11
68.72387315353475
 21
43.2086424906756
 31
0.0
  0
LINE
  5
24C
330
6C
100
AcDbEntity
  8
Visible (ANSI)
100
AcDbLine
 10
77.26239275853519
 20
33.41886030190695
 30
0.0
 11
81.41470819545503
 21
35.81001973243993
 31
0.0
  0
SPLINE
  5
24D
330
6C
100
AcDbEntity
  8
Visible (ANSI)
100
AcDbSpline
210
0.0
220
0.0
230
1.0
 70
     8
 71
     3
 72
    16
 73
    12
 74
     0
 42
0.0000000001
 43
0.0000000001
 40
0.1047220359337812
 40
0.1047220359337812
 40
0.1047220359337812
 40
0.1047220359337812
 40
0.1049456261732752
 40
0.1049456261732752
 40
0.1310518644696824
 40
0.1310518644696824
 40
0.1571581008204975
 40
0.1571581008204975
 40
0.1832643372548314
 40
0.1832643372548314
 40
0.2099622469467616
 40
0.2099622469467616
 40
0.2099622469467616
 40
0.2099622469467616
 10
77.21374909844429
 20
33.5033313823897
 30
0.0
 10
77.21374909844429
 20
33.50333138238969
 30
0.0
 10
77.21374907853494
 20
33.50333141696285
 30
0.0
 10
77.21374438315243
 20
33.50333955250012
 30
0.0
 10
77.21345846378011
 20
33.50383159516248
 30
0.0
 10
77.21217302325574
 20
33.50556771826371
 30
0.0
 10
77.21115608962834
 20
33.50683150675983
 30
0.0
 10
77.20836622852946
 20
33.50978312006271
 30
0.0
 10
77.2065578239263
 20
33.51150524820211
 30
0.0
 10
77.20221319313208
 20
33.51502418198308
 30
0.0
 10
77.19960425926173
 20
33.51686475595655
 30
0.0
 10
77.19673984990375
 20
33.51851425960176
 30
0.0
  0
LINE
  5
24E
330
6C
100
AcDbEntity
  8
Visible (ANSI)
100
AcDbLine
 10
77.17447264113397
 20
33.5576670294661
 30
0.0
 11
77.13179704591396
 21
33.58224227032006
 31
0.0
  0
LINE
  5
24F
330
6C
100
AcDbEntity
  8
Visible (ANSI)
100
AcDbLine
 10
77.07525155085864
 20
33.51261126468035
 30
0.0
 11
77.20915452777584
 21
33.43550166862583
 31
0.0
  0
LINE
  5
250
330
6C
100
AcDbEntity
  8
Visible (ANSI)
100
AcDbLine
 10
64.59168254563735
 20
40.8036139369977
 30
0.0
 11
64.59584881133835
 21
40.80121474414435
 31
0.0
  0
ELLIPSE
  5
251
330
6C
100
AcDbEntity
  8
Visible (ANSI)
100
AcDbEllipse
 10
68.73490401932127
 20
43.20229023754044
 30
0.0
 11
0.0156
 21
-0.0000000000000009
 31
0.0
210
0.0
220
0.0
230
1.0
 40
0.5758617009853121
 41
0.7853981633979572
 42
2.356194490192816
  0
ELLIPSE
  5
252
330
6C
100
AcDbEntity
  8
Visible (ANSI)
100
AcDbEllipse
 10
81.35237600145964
 20
35.93637135977387
 30
0.0
 11
0.1406000000000024
 21
0.0
 31
0.0
210
0.0
220
0.0
230
1.0
 40
0.5758617009853119
 41
5.497787143782415
 42
6.283185307179586
  0
LINE
  5
253
330
6C
100
AcDbEntity
  8
Visible (ANSI)
100
AcDbLine
 10
64.45832838547254
 20
40.85407755335766
 30
0.0
 11
63.07804976982969
 21
44.7346164594692
 31
0.0
  0
LINE
  5
254
330
6C
100
AcDbEntity
  8
Visible (ANSI)
100
AcDbLine
 10
77.18625044683237
 20
33.52455470509676
 30
0.0
 11
75.80597183118948
 21
37.40509361120827
 31
0.0
  0
LINE
  5
255
330
6C
100
AcDbEntity
  8
Visible (ANSI)
100
AcDbLine
 10
75.89436017883781
 20
37.35419414698423
 30
0.0
 11
77.2746387944807
 21
33.47365524087273
 31
0.0
  0
LINE
  5
256
330
6C
100
AcDbEntity
  8
Visible (ANSI)
100
AcDbLine
 10
75.80597183118948
 20
37.40509361120827
 30
0.0
 11
75.89436017883781
 21
37.35419414698423
 31
0.0
  0
LINE
  5
257
330
6C
100
AcDbEntity
  8
Visible (ANSI)
100
AcDbLine
 10
63.16643811747802
 20
44.68371699524516
 30
0.0
 11
64.54671673312088
 21
40.80317808913362
 31
0.0
  0
LINE
  5
258
330
6C
100
AcDbEntity
  8
Visible (ANSI)
100
AcDbLine
 10
63.07804976982969
 20
44.7346164594692
 30
0.0
 11
63.16643811747802
 21
44.68371699524516
 31
0.0
  0
ELLIPSE
  5
259
330
6C
100
AcDbEntity
  8
Visible (ANSI)
100
AcDbEllipse
 10
81.35237600145964
 20
40.61175985732339
 30
0.0
 11
0.1405999999999957
 21
0.0
 31
0.0
210
0.0
220
0.0
230
1.0
 40
0.5758617009853121
 41
5.497787143782213
 42
7.068583470577089
  0
ELLIPSE
  5
25A
330
6C
100
AcDbEntity
  8
Visible (ANSI)
100
AcDbEllipse
 10
68.73490401932127
 20
47.87767873508996
 30
0.0
 11
-0.0156000000000001
 21
-0.0000000000000009
 31
0.0
210
0.0
220
0.0
230
1.0
 40
0.5758617009853121
 41
3.926990816987404
 42
5.497787143782263
  0
LINE
  5
25B
330
6C
100
AcDbEntity
  8
Visible (ANSI)
100
AcDbLine
 10
63.60837985571968
 20
44.44197340927256
 30
0.0
 11
63.17746898326454
 21
44.69011847725755
 31
0.0
  0
LINE
  5
25C
330
6C
100
AcDbEntity
  8
Visible (ANSI)
100
AcDbLine
 10
68.7192790193215
 20
46.9779487813972
 30
0.0
 11
64.31548663690623
 21
44.44197340927263
 31
0.0
  0
LINE
  5
25D
330
6C
100
AcDbEntity
  8
Visible (ANSI)
100
AcDbLine
 10
63.60837985571968
 20
44.54416679987787
 30
0.0
 11
63.17746898326454
 21
44.79231186786286
 31
0.0
  0
LINE
  5
25E
330
6C
100
AcDbEntity
  8
Visible (ANSI)
100
AcDbLine
 10
75.79494096540374
 20
37.52639299009627
 30
0.0
 11
75.36403009294931
 21
37.77453805808081
 31
0.0
  0
LINE
  5
25F
330
6C
100
AcDbEntity
  8
Visible (ANSI)
100
AcDbLine
 10
75.36403009294936
 20
37.67234466747552
 30
0.0
 11
75.79494096540374
 21
37.42419959949096
 31
0.0
  0
LINE
  5
260
330
6C
100
AcDbEntity
  8
Visible (ANSI)
100
AcDbLine
 10
79.69471663041433
 20
40.67561028777276
 30
0.0
 11
68.75052901932149
 21
46.9779487813972
 31
0.0
  0
LINE
  5
261
330
6C
100
AcDbEntity
  8
Visible (ANSI)
100
AcDbLine
 10
79.76782247536305
 20
40.73570482215396
 30
0.0
 11
68.7505290193215
 21
47.08014217200251
 31
0.0
  0
LINE
  5
262
330
6C
100
AcDbEntity
  8
Visible (ANSI)
100
AcDbLine
 10
68.71927901932149
 20
47.08014217200251
 30
0.0
 11
64.31548663690623
 21
44.54416679987795
 31
0.0
  0
LINE
  5
263
330
6C
100
AcDbEntity
  8
Visible (ANSI)
100
AcDbLine
 10
75.36403009294909
 20
38.18173377187309
 30
0.0
 11
79.76782247536426
 21
40.71770914399762
 31
0.0
  0
ELLIPSE
  5
264
330
6C
100
AcDbEntity
  8
Visible (ANSI)
100
AcDbEllipse
 10
68.73490401932127
 20
47.87767873508996
 30
0.0
 11
0.1406000000000007
 21
0.0
 31
0.0
210
0.0
220
0.0
230
1.0
 40
0.5758617009853121
 41
1.45943543273781
 42
1.682157220851882
  0
LINE
  5
265
330
6C
100
AcDbEntity
  8
Visible Narrow (ANSI)
100
AcDbLine
 10
81.45179521489451
 20
35.87911964241467
 30
0.0
 11
81.45179521489449
 21
40.55450813996418
 31
0.0
  0
LINE
  5
266
330
6C
100
AcDbEntity
  8
Visible Narrow (ANSI)
100
AcDbLine
 10
68.74593488510777
 20
47.88403098822511
 30
0.0
 11
68.74593488510777
 21
43.2086424906756
 31
0.0
  0
LINE
  5
267
330
6C
100
AcDbEntity
  8
Visible Narrow (ANSI)
100
AcDbLine
 10
68.72387315353475
 20
43.2086424906756
 30
0.0
 11
68.72387315353475
 21
47.88403098822511
 31
0.0
  0
LINE
  5
268
330
6C
100
AcDbEntity
  8
Visible (ANSI)
100
AcDbLine
 10
81.49297600145965
 20
40.61175985732338
 30
0.0
 11
81.49297600145965
 21
35.93637135977387
 31
0.0
  0
LINE
  5
269
330
6C
100
AcDbEntity
  8
Visible (ANSI)
100
AcDbLine
 10
64.31548663690623
 20
44.54416679987795
 30
0.0
 11
63.60837985571968
 21
44.54416679987787
 31
0.0
  0
LINE
  5
26A
330
6C
100
AcDbEntity
  8
Visible (ANSI)
100
AcDbLine
 10
63.60837985571968
 20
44.54416679987787
 30
0.0
 11
63.60837985571968
 21
44.44197340927256
 31
0.0
  0
LINE
  5
26B
330
6C
100
AcDbEntity
  8
Visible (ANSI)
100
AcDbLine
 10
63.60837985571968
 20
44.44197340927256
 30
0.0
 11
64.31548663690623
 21
44.44197340927263
 31
0.0
  0
LINE
  5
26C
330
6C
100
AcDbEntity
  8
Visible (ANSI)
100
AcDbLine
 10
64.31548663690623
 20
44.44197340927263
 30
0.0
 11
64.31548663690623
 21
44.54416679987795
 31
0.0
  0
LINE
  5
26D
330
6C
100
AcDbEntity
  8
Visible (ANSI)
100
AcDbLine
 10
75.36403009294931
 20
37.77453805808081
 30
0.0
 11
75.36403009294909
 21
38.18173377187309
 31
0.0
  0
LINE
  5
26E
330
6C
100
AcDbEntity
  8
Visible (ANSI)
100
AcDbLine
 10
75.36403009294936
 20
37.67234466747552
 30
0.0
 11
75.36403009294931
 21
37.77453805808081
 31
0.0
  0
ELLIPSE
  5
26F
330
6C
100
AcDbEntity
  8
Visible (ANSI)
100
AcDbEllipse
 10
63.17746898326454
 20
44.67736474211
 30
0.0
 11
-0.007784902500717
 21
0.0135187016038653
 31
0.0
210
0.0
220
0.0
230
1.0
 40
0.5780931159158104
 41
5.499720852205022
 42
7.070517178999438
  0
ELLIPSE
  5
270
330
6C
100
AcDbEntity
  8
Visible (ANSI)
100
AcDbEllipse
 10
63.17746898326454
 20
44.67736474211
 30
0.0
 11
-0.0701639289487674
 21
0.1218416311220118
 31
0.0
210
0.0
220
0.0
230
1.0
 40
0.5780931159158105
 41
5.499720852205022
 42
7.070517178999917
  0
ELLIPSE
  5
271
330
6C
100
AcDbEntity
  8
Visible (ANSI)
100
AcDbEllipse
 10
75.79494096540374
 20
37.41144586434297
 30
0.0
 11
-0.0701639289490451
 21
0.1218416311224741
 31
0.0
210
0.0
220
0.0
230
1.0
 40
0.5780931159158258
 41
3.928924525409932
 42
5.49972085220485
  0
ELLIPSE
  5
272
330
6C
100
AcDbEntity
  8
Visible (ANSI)
100
AcDbEllipse
 10
75.79494096540374
 20
37.41144586434297
 30
0.0
 11
0.0077849025009836
 21
-0.01351870160433
 31
0.0
210
0.0
220
0.0
230
1.0
 40
0.5780931159158104
 41
0.7873318718207072
 42
2.358128198615402
  0
LINE
  5
273
330
6C
100
AcDbEntity
  8
Visible Narrow (ANSI)
100
AcDbLine
 10
81.33675100145966
 20
40.73570482215413
 30
0.0
 11
68.75052901932128
 21
47.98362802176492
 31
0.0
  0
LINE
  5
274
330
6C
100
AcDbEntity
  8
Visible Narrow (ANSI)
100
AcDbLine
 10
68.7505290193213
 20
47.88138540228235
 30
0.0
 11
68.74593488510777
 21
47.88403098822511
 31
0.0
  0
LINE
  5
275
330
6C
100
AcDbEntity
  8
Visible Narrow (ANSI)
100
AcDbLine
 10
68.71927901932126
 20
47.98362802176491
 30
0.0
 11
63.17746898326454
 21
44.79231186786286
 31
0.0
  0
LINE
  5
276
330
6C
100
AcDbEntity
  8
Visible Narrow (ANSI)
100
AcDbLine
 10
68.72387315353475
 20
47.88403098822511
 30
0.0
 11
68.71927901932129
 21
47.88138540228239
 31
0.0
  0
LINE
  5
277
330
6C
100
AcDbEntity
  8
Visible Narrow (ANSI)
100
AcDbLine
 10
63.17751172692776
 20
44.69009386281894
 30
0.0
 11
63.16643811747802
 21
44.68371699524516
 31
0.0
  0
LINE
  5
278
330
6C
100
AcDbEntity
  8
Visible Narrow (ANSI)
100
AcDbLine
 10
75.79494096540374
 20
37.52639299009627
 30
0.0
 11
81.33675100146083
 21
40.71770914399769
 31
0.0
  0
LINE
  5
279
330
6C
100
AcDbEntity
  8
Visible Narrow (ANSI)
100
AcDbLine
 10
81.45179521489449
 20
40.55450813996418
 30
0.0
 11
75.89436017883781
 21
37.35419414698423
 31
0.0
  0
LINE
  5
27A
330
6C
100
AcDbEntity
  8
Visible (ANSI)
100
AcDbLine
 10
68.81289968322338
 20
47.99501037000006
 30
0.0
 11
81.41470819545501
 21
40.73811148465732
 31
0.0
  0
LINE
  5
27B
330
6C
100
AcDbEntity
  8
Visible (ANSI)
100
AcDbLine
 10
63.10730505431576
 20
44.79920637323202
 30
0.0
 11
68.65690835541913
 21
47.99501037000005
 31
0.0
  0
SPLINE
  5
27C
330
6C
100
AcDbEntity
  8
Visible (ANSI)
100
AcDbSpline
210
0.0
220
0.0
230
1.0
 70
     8
 71
     3
 72
    11
 73
     7
 74
     0
 42
0.0000000001
 43
0.0000000001
 40
0.0
 40
0.0
 40
0.0
 40
0.0
 40
1.01858281548856
 40
1.01858281548856
 40
1.01858281548856
 40
1.570796326794905
 40
1.570796326794905
 40
1.570796326794905
 40
1.570796326794905
 10
81.45179521489446
 20
40.6690115746826
 30
0.0
 10
81.44841787135211
 20
40.70998417980693
 30
0.0
 10
81.42651227558793
 20
40.73962075192454
 30
0.0
 10
81.39439660782743
 20
40.74548922460209
 30
0.0
 10
81.37698545048973
 20
40.74867075275474
 30
0.0
 10
81.35688220223133
 20
40.74518881588236
 30
0.0
 10
81.33675100145964
 20
40.73570482215413
 30
0.0
  0
SPLINE
  5
27D
330
6C
100
AcDbEntity
  8
Visible (ANSI)
100
AcDbSpline
210
0.0
220
0.0
230
1.0
 70
     8
 71
     3
 72
     8
 73
     4
 74
     0
 42
0.0000000001
 43
0.0000000001
 40
0.0
 40
0.0
 40
0.0
 40
0.0
 40
0.7834644549744496
 40
0.7834644549744496
 40
0.7834644549744496
 40
0.7834644549744496
 10
68.75052901932128
 20
47.98362802176491
 30
0.0
 10
68.77389507092829
 20
48.00007553123264
 30
0.0
 10
68.79692016336695
 20
48.0036528573302
 30
0.0
 10
68.81282586240067
 20
47.99483303968466
 30
0.0
  0
LINE
  5
27E
330
6C
100
AcDbEntity
  8
Visible (ANSI)
100
AcDbLine
 10
68.7505290193215
 20
47.08014217200251
 30
0.0
 11
68.75052901932128
 21
47.98362802176492
 31
0.0
  0
LINE
  5
27F
330
6C
100
AcDbEntity
  8
Visible (ANSI)
100
AcDbLine
 10
68.75052901932149
 20
46.9779487813972
 30
0.0
 11
68.7505290193215
 21
47.08014217200251
 31
0.0
  0
SPLINE
  5
280
330
6C
100
AcDbEntity
  8
Visible (ANSI)
100
AcDbSpline
210
0.0
220
0.0
230
1.0
 70
     8
 71
     3
 72
     8
 73
     4
 74
     0
 42
0.0000000001
 43
0.0000000001
 40
0.0
 40
0.0
 40
0.0
 40
0.0
 40
0.7912825099108931
 40
0.7912825099108931
 40
0.7912825099108931
 40
0.7912825099108931
 10
68.74593488510777
 20
47.88403098822511
 30
0.0
 10
68.74855856266681
 20
47.88588404865588
 30
0.0
 10
68.74984870083614
 20
47.88681642517003
 30
0.0
 10
68.75041051240758
 20
47.88647689793805
 30
0.0
  0
LINE
  5
281
330
6C
100
AcDbEntity
  8
Visible (ANSI)
100
AcDbLine
 10
81.33675100145964
 20
40.71770914399769
 30
0.0
 11
81.33675100145966
 21
40.73570482215413
 31
0.0
  0
SPLINE
  5
282
330
6C
100
AcDbEntity
  8
Visible (ANSI)
100
AcDbSpline
210
0.0
220
0.0
230
1.0
 70
    24
 71
     3
 72
     8
 73
     4
 74
     0
 42
0.0000000001
 43
0.0000000001
 40
-0.3175000000000038
 40
-0.3175000000000038
 40
-0.3175000000000038
 40
-0.3175000000000038
 40
-0.1853944325790353
 40
-0.1853944325790353
 40
-0.1853944325790353
 40
-0.1853944325790353
 10
81.45179521489446
 20
40.6690115746826
 30
0.0
 10
81.43953632479528
 20
40.66195214937788
 30
0.0
 10
81.42727743469608
 20
40.65489272407317
 30
0.0
 10
81.41501854459688
 20
40.64783329876845
 30
0.0
  0
LINE
  5
283
330
6C
100
AcDbEntity
  8
Visible (ANSI)
100
AcDbLine
 10
81.33675100145966
 20
40.73570482215413
 30
0.0
 11
79.76782247536305
 21
40.73570482215396
 31
0.0
  0
LINE
  5
284
330
6C
100
AcDbEntity
  8
Visible (ANSI)
100
AcDbLine
 10
79.76782247536305
 20
40.71770914399762
 30
0.0
 11
79.76782247536305
 21
40.73570482215396
 31
0.0
  0
SPLINE
  5
285
330
6C
100
AcDbEntity
  8
Visible (ANSI)
100
AcDbSpline
210
0.0
220
0.0
230
1.0
 70
     8
 71
     3
 72
    11
 73
     7
 74
     0
 42
0.0000000001
 43
0.0000000001
 40
0.7873318718202786
 40
0.7873318718202786
 40
0.7873318718202786
 40
0.7873318718202786
 40
1.018582815488558
 40
1.018582815488558
 40
1.018582815488558
 40
1.570796326794905
 40
1.570796326794905
 40
1.570796326794905
 40
1.570796326794905
 10
68.65702221524727
 20
47.99486131957385
 30
0.0
 10
68.66163010425416
 20
47.99761525348692
 30
0.0
 10
68.66686159629201
 20
47.99928957566247
 30
0.0
 10
68.67261935169928
 20
47.99973880558595
 30
0.0
 10
68.68636852945508
 20
48.00081153994758
 30
0.0
 10
68.70280979813152
 20
47.99522080928418
 30
0.0
 10
68.71927901932126
 20
47.98362802176491
 30
0.0
  0
SPLINE
  5
286
330
6C
100
AcDbEntity
  8
Visible (ANSI)
100
AcDbSpline
210
0.0
220
0.0
230
1.0
 70
     8
 71
     3
 72
     8
 73
     4
 74
     0
 42
0.0000000001
 43
0.0000000001
 40
0.0
 40
0.0
 40
0.0
 40
0.0
 40
0.791282509884208
 40
0.791282509884208
 40
0.791282509884208
 40
0.791282509884208
 10
68.72387315353475
 20
47.8840309882251
 30
0.0
 10
68.7212494759758
 20
47.88588404865581
 30
0.0
 10
68.71995933780647
 20
47.88681642516997
 30
0.0
 10
68.719397526235
 20
47.88647689793807
 30
0.0
  0
LINE
  5
287
330
6C
100
AcDbEntity
  8
Visible (ANSI)
100
AcDbLine
 10
68.71927901932126
 20
47.98362802176491
 30
0.0
 11
68.71927901932149
 21
47.08014217200251
 31
0.0
  0
LINE
  5
288
330
6C
100
AcDbEntity
  8
Visible (ANSI)
100
AcDbLine
 10
68.7192790193215
 20
46.9779487813972
 30
0.0
 11
68.71927901932149
 21
47.08014217200251
 31
0.0
  0
SPLINE
  5
289
330
6C
100
AcDbEntity
  8
Visible (ANSI)
100
AcDbSpline
210
0.0
220
0.0
230
1.0
 70
     8
 71
     3
 72
    11
 73
     7
 74
     0
 42
0.0000000001
 43
0.0000000001
 40
0.0
 40
0.0
 40
0.0
 40
0.0
 40
1.018582815489663
 40
1.018582815489663
 40
1.018582815489663
 40
1.570796326794904
 40
1.570796326794904
 40
1.570796326794904
 40
1.570796326794904
 10
81.33675100146083
 20
40.71770914399769
 30
0.0
 10
81.37388391244773
 20
40.70021548830838
 30
0.0
 10
81.41044051302058
 20
40.66163159759571
 30
0.0
 10
81.43152511650457
 20
40.62015269277609
 30
0.0
 10
81.44295590322837
 20
40.5976653590736
 30
0.0
 10
81.44996422510399
 20
40.57461219504387
 30
0.0
 10
81.45179521489492
 20
40.55450813996396
 30
0.0
  0
LINE
  5
28A
330
6C
100
AcDbEntity
  8
Visible (ANSI)
100
AcDbLine
 10
79.76782247536426
 20
40.71770914399762
 30
0.0
 11
81.33675100146083
 21
40.71770914399769
 31
0.0
  0
SPLINE
  5
28B
330
6C
100
AcDbEntity
  8
Visible (ANSI)
100
AcDbSpline
210
0.0
220
0.0
230
1.0
 70
     8
 71
     3
 72
    10
 73
     6
 74
     0
 42
0.0000000001
 43
0.0000000001
 40
0.0
 40
0.0
 40
0.0
 40
0.0
 40
0.0122589744718901
 40
0.0122589744718901
 40
0.0152467785195216
 40
0.0152467785195216
 40
0.0152467785195216
 40
0.0152467785195216
 10
68.74705173779296
 20
47.88482650199803
 30
0.0
 10
68.7481919699122
 20
47.88564247065506
 30
0.0
 10
68.74918484017332
 20
47.88648904047038
 30
0.0
 10
68.75017336116698
 20
47.88743641146281
 30
0.0
 10
68.75035654691323
 20
47.88761811067477
 30
0.0
 10
68.7505290193213
 20
47.88779440799183
 30
0.0
  0
SPLINE
  5
28C
330
6C
100
AcDbEntity
  8
Visible (ANSI)
100
AcDbSpline
210
0.0
220
0.0
230
1.0
 70
     8
 71
     3
 72
    10
 73
     6
 74
     0
 42
0.0000000001
 43
0.0000000001
 40
0.0668604181198081
 40
0.0668604181198081
 40
0.0668604181198081
 40
0.0668604181198081
 40
0.072350806891883
 40
0.072350806891883
 40
0.0821221175208094
 40
0.0821221175208094
 40
0.0821221175208094
 40
0.0821221175208094
 10
68.71927901932129
 20
47.88779464817881
 30
0.0
 10
68.71959676196792
 20
47.8874699974625
 30
0.0
 10
68.71995115586178
 20
47.88712649586268
 30
0.0
 10
68.72103296626844
 20
47.88614545158557
 30
0.0
 10
68.72184745139796
 20
47.88547688945333
 30
0.0
 10
68.72275630084955
 20
47.88482650199803
 30
0.0
  0
ELLIPSE
  5
28D
330
6C
100
AcDbEntity
  8
Visible (ANSI)
100
AcDbEllipse
 10
72.4914087943761
 20
38.18903824475269
 30
0.0
 11
0.28125
 21
-0.0000000000000168
 31
0.0
210
0.0
220
0.0
230
1.0
 40
0.5758617009853115
 41
0.0
 42
6.283185307179586
  0
ELLIPSE
  5
28E
330
6C
100
AcDbEntity
  8
Visible (ANSI)
100
AcDbEllipse
 10
72.4914087943761
 20
38.08684485414737
 30
0.0
 11
0.2812500000000001
 21
-0.0000000000000001
 31
0.0
210
0.0
220
0.0
230
1.0
 40
0.5758617009853113
 41
0.3209702928256438
 42
2.82062236076415
  0
ELLIPSE
  5
28F
330
6C
100
AcDbEntity
  8
Visible (ANSI)
100
AcDbEllipse
 10
65.46453515633436
 20
39.690281103578
 30
0.0
 11
0.28125
 21
-0.0000000000000167
 31
0.0
210
0.0
220
0.0
230
1.0
 40
0.5758617009853117
 41
0.0
 42
6.283185307179586
  0
ELLIPSE
  5
290
330
6C
100
AcDbEntity
  8
Visible (ANSI)
100
AcDbEllipse
 10
65.46453515633436
 20
39.58808771297268
 30
0.0
 11
0.2812500000000003
 21
0.0
 31
0.0
210
0.0
220
0.0
230
1.0
 40
0.5758617009853117
 41
0.3209702928256428
 42
2.82062236076415
  0
ELLIPSE
  5
291
330
6C
100
AcDbEntity
  8
Visible (ANSI)
100
AcDbEllipse
 10
75.27564174529917
 20
34.0404405747102
 30
0.0
 11
0.28125
 21
-0.0000000000000167
 31
0.0
210
0.0
220
0.0
230
1.0
 40
0.5758617009853117
 41
0.0
 42
6.283185307179586
  0
ELLIPSE
  5
292
330
6C
100
AcDbEntity
  8
Visible (ANSI)
100
AcDbEllipse
 10
75.27564174529917
 20
33.93824718410488
 30
0.0
 11
0.2812499999999992
 21
0.0
 31
0.0
210
0.0
220
0.0
230
1.0
 40
0.5758617009853118
 41
0.3209702928256436
 42
2.82062236076415
  0
ELLIPSE
  5
293
330
6C
100
AcDbEntity
  8
Visible (ANSI)
100
AcDbEllipse
 10
75.89436017883767
 20
32.97155182600538
 30
0.0
 11
-0.1250000000000038
 21
0.0000000000000075
 31
0.0
210
0.0
220
0.0
230
1.0
 40
0.5758617009853119
 41
0.7853981633978587
 42
2.356194490192644
  0
LINE
  5
294
330
6C
100
AcDbEntity
  8
Visible Narrow (ANSI)
100
AcDbLine
 10
75.80597183118936
 20
32.92065236178134
 30
0.0
 11
75.80597183118936
 21
32.81845897117602
 31
0.0
  0
ELLIPSE
  5
295
330
6C
100
AcDbEntity
  8
Visible (ANSI)
100
AcDbEllipse
 10
75.89436017883767
 20
32.86935843540007
 30
0.0
 11
0.1250000000000016
 21
0.0000000000000074
 31
0.0
210
0.0
220
0.0
230
1.0
 40
0.5758617009853115
 41
3.926990816987236
 42
5.49778714378209
  0
LINE
  5
296
330
6C
100
AcDbEntity
  8
Visible Narrow (ANSI)
100
AcDbLine
 10
75.982748526486
 20
32.81845897117603
 30
0.0
 11
75.982748526486
 21
32.92065236178135
 31
0.0
  0
ELLIPSE
  5
297
330
6C
100
AcDbEntity
  8
Visible (ANSI)
100
AcDbEllipse
 10
63.60837985571958
 20
39.94438396254081
 30
0.0
 11
-0.1250000000000001
 21
0.0000000000000001
 31
0.0
210
0.0
220
0.0
230
1.0
 40
0.5758617009853115
 41
0.0000000000000046
 42
0.7853981633976198
  0
ELLIPSE
  5
298
330
6C
100
AcDbEntity
  8
Visible (ANSI)
100
AcDbEllipse
 10
63.60837985571958
 20
40.04657735314613
 30
0.0
 11
-0.1249999999999999
 21
0.0
 31
0.0
210
0.0
220
0.0
230
1.0
 40
0.5758617009853118
 41
5.497787143782264
 42
7.068583470577203
  0
LINE
  5
299
330
6C
100
AcDbEntity
  8
Visible Narrow (ANSI)
100
AcDbLine
 10
63.51999150807128
 20
39.89348449831677
 30
0.0
 11
63.51999150807128
 21
39.99567788892209
 31
0.0
  0
ELLIPSE
  5
29A
330
6C
100
AcDbEntity
  8
Visible (ANSI)
100
AcDbEllipse
 10
68.82336107194298
 20
43.15177557115927
 30
0.0
 11
0.1249999999999988
 21
-0.0000000000000074
 31
0.0
210
0.0
220
0.0
230
1.0
 40
0.5758617009853118
 41
0.8248293379544371
 42
2.356194490192644
  0
LINE
  5
29B
330
6C
100
AcDbEntity
  8
Visible (ANSI)
100
AcDbLine
 10
63.48337985571959
 20
39.94438396254081
 30
0.0
 11
63.48337985571959
 21
40.04657735314613
 31
0.0
  0
LINE
  5
29C
330
6C
100
AcDbEntity
  8
Visible (ANSI)
100
AcDbLine
 10
75.982748526486
 20
32.81845897117603
 30
0.0
 11
76.97783272774957
 21
33.39148985193945
 31
0.0
  0
LINE
  5
29D
330
6C
100
AcDbEntity
  8
Visible (ANSI)
100
AcDbLine
 10
76.97783272774957
 20
33.49368324254477
 30
0.0
 11
75.982748526486
 21
32.92065236178135
 31
0.0
  0
LINE
  5
29E
330
6C
100
AcDbEntity
  8
Visible (ANSI)
100
AcDbLine
 10
63.51999150807128
 20
39.89348449831677
 30
0.0
 11
75.80597183118936
 21
32.81845897117602
 31
0.0
  0
LINE
  5
29F
330
6C
100
AcDbEntity
  8
Visible (ANSI)
100
AcDbLine
 10
63.51999150807126
 20
40.09747681737017
 30
0.0
 11
64.51507570933483
 21
40.67050769813358
 31
0.0
  0
LINE
  5
2A0
330
6C
100
AcDbEntity
  8
Visible (ANSI)
100
AcDbLine
 10
75.80597183118936
 20
32.92065236178134
 30
0.0
 11
63.51999150807128
 21
39.99567788892209
 31
0.0
  0
ELLIPSE
  5
2A1
330
6C
100
AcDbEntity
  8
Visible (ANSI)
100
AcDbEllipse
 10
76.97783272774957
 20
33.50643697769231
 30
0.0
 11
0.0701639289487286
 21
0.1218416311220336
 31
0.0
210
0.0
220
0.0
230
1.0
 40
0.578093115915639
 41
3.925057108564035
 42
4.710455271961548
  0
ELLIPSE
  5
2A2
330
6C
100
AcDbEntity
  8
Visible (ANSI)
100
AcDbEllipse
 10
76.97783272774957
 20
33.50643697769231
 30
0.0
 11
0.0077849025007122
 21
0.0135187016038669
 31
0.0
210
0.0
220
0.0
230
0.9999999999999998
 40
0.5780931159156392
 41
3.925057108564034
 42
4.710455271961594
  0
ELLIPSE
  5
2A3
330
6C
100
AcDbEntity
  8
Visible (ANSI)
100
AcDbEllipse
 10
64.51507570933483
 20
40.68326143328112
 30
0.0
 11
0.0077849025007124
 21
0.0135187016038671
 31
0.0
210
0.0
220
0.0
230
1.0
 40
0.5780931159156392
 41
3.925057108564034
 42
4.710455271961594
  0
LINE
  5
2A4
330
6C
100
AcDbEntity
  8
Visible Narrow (ANSI)
100
AcDbLine
 10
76.98563272774958
 20
33.50191044635171
 30
0.0
 11
64.52287570933482
 21
40.67873490194052
 31
0.0
  0
LINE
  5
2A5
330
6C
100
AcDbEntity
  8
Visible Narrow (ANSI)
100
AcDbLine
 10
76.97783272774957
 20
33.49368324254477
 30
0.0
 11
64.51507570933483
 21
40.67050769813358
 31
0.0
  0
LINE
  5
2A6
330
6C
100
AcDbEntity
  8
Visible (ANSI)
100
AcDbLine
 10
77.1040818008799
 20
33.56254663963226
 30
0.0
 11
77.04813272774956
 21
33.46564016317382
 31
0.0
  0
LINE
  5
2A7
330
6C
100
AcDbEntity
  8
Visible (ANSI)
100
AcDbLine
 10
76.98563272774958
 20
33.50191044635171
 30
0.0
 11
77.0415818008799
 21
33.59881692281014
 31
0.0
  0
LINE
  5
2A8
330
6C
100
AcDbEntity
  8
Visible (ANSI)
100
AcDbLine
 10
64.57882478246516
 20
40.77564137839895
 30
0.0
 11
64.52287570933482
 21
40.67873490194052
 31
0.0
  0
ELLIPSE
  5
2A9
330
6C
100
AcDbEntity
  8
Visible (ANSI)
100
AcDbEllipse
 10
77.11188180087988
 20
33.55802010829167
 30
0.0
 11
0.0077849025007134
 21
0.0135187016038671
 31
0.0
210
0.0
220
0.0
230
1.0
 40
0.5780931159156394
 41
0.7834644549744141
 42
1.568862618371836
  0
ELLIPSE
  5
2AA
330
6C
100
AcDbEntity
  8
Visible (ANSI)
100
AcDbEllipse
 10
77.11188180087988
 20
33.55802010829167
 30
0.0
 11
0.0701639289487361
 21
0.1218416311220297
 31
0.0
210
0.0
220
0.0
230
1.0
 40
0.5780931159156392
 41
0.7834644549744141
 42
1.568862618371875
  0
ELLIPSE
  5
2AB
330
6C
100
AcDbEntity
  8
Visible (ANSI)
100
AcDbEllipse
 10
64.64912478246515
 20
40.73484456388047
 30
0.0
 11
0.0701639289487362
 21
0.1218416311220299
 31
0.0
210
0.0
220
0.0
230
1.0
 40
0.5780931159156393
 41
0.7834644549744141
 42
1.568862618371875
  0
LINE
  5
2AC
330
6C
100
AcDbEntity
  8
Visible Narrow (ANSI)
100
AcDbLine
 10
77.11188180087988
 20
33.67296723404452
 30
0.0
 11
64.64912478246515
 21
40.84979168963334
 31
0.0
  0
LINE
  5
2AD
330
6C
100
AcDbEntity
  8
Visible Narrow (ANSI)
100
AcDbLine
 10
77.0415818008799
 20
33.59881692281014
 30
0.0
 11
64.57882478246516
 21
40.77564137839895
 31
0.0
  0
LINE
  5
2AE
330
6C
100
AcDbEntity
  8
Visible (ANSI)
100
AcDbLine
 10
77.1599623263472
 20
33.59846157661908
 30
0.0
 11
77.11188180087988
 21
33.57077384343921
 31
0.0
  0
LINE
  5
2AF
330
6C
100
AcDbEntity
  8
Visible (ANSI)
100
AcDbLine
 10
77.11188180087988
 20
33.67296723404452
 30
0.0
 11
77.12979256574088
 21
33.68328135756332
 31
0.0
  0
LINE
  5
2B0
330
6C
100
AcDbEntity
  8
Visible (ANSI)
100
AcDbLine
 10
68.73497272429465
 20
43.20267503538331
 30
0.0
 11
64.64912478246515
 21
40.84979168963334
 31
0.0
  0
LINE
  5
2B1
330
6C
100
AcDbEntity
  8
Visible Narrow (ANSI)
100
AcDbLine
 10
68.90819636133906
 20
43.20464197642647
 30
0.0
 11
76.49732373650784
 21
38.83435417716888
 31
0.0
  0
DIMENSION
  5
2B2
330
6C
100
AcDbEntity
  8
Dimension (ANSI)
100
AcDbDimension
  2
*D4
 10
24.83246376340777
 20
27.36976109962071
 30
0.0
 11
24.83246376340777
 21
30.36969802902155
 31
0.0
 70
   160
  1
<>{\PHEIGHT}
 71
     5
 42
5.999873858801773
  3
Default (ANSI)
100
AcDbAlignedDimension
 13
28.14078069254168
 23
33.36963495842248
 33
0.0
 14
28.37518069254164
 24
27.36976109962071
 34
0.0
 50
90.0
100
AcDbRotatedDimension
1001
ACAD
1000
DSTYLE
1002
{
1070
   289
1070
     1
1070
   271
1070
     2
1070
   272
1070
     2
1070
    48
1040
0.0
1070
    47
1040
0.0
1002
}
  0
DIMENSION
  5
3B3
330
6C
100
AcDbEntity
  8
Dimension (ANSI)
100
AcDbDimension
  2
*D5
 10
46.12518069254174
 20
35.19753889543036
 30
0.0
 11
37.0626806925417
 21
35.19753889543036
 31
0.0
 70
   160
  1
<>{\PWIDTH}
 71
     5
 42
18.12500000000006
  3
Default (ANSI)
100
AcDbAlignedDimension
 13
28.00018069254168
 23
33.22903495842248
 33
0.0
 14
46.12518069254174
 24
33.2290349584225
 34
0.0
100
AcDbRotatedDimension
1001
ACAD
1000
DSTYLE
1002
{
1070
   289
1070
     1
1070
    73
1070
     0
1070
    74
1070
     0
1070
   271
1070
     2
1070
   272
1070
     2
1070
    48
1040
0.0
1070
    47
1040
0.0
1002
}
  0
DIMENSION
  5
4B1
330
6C
100
AcDbEntity
  8
Dimension (ANSI)
100
AcDbDimension
  2
*D6
 10
15.22444514388832
 20
36.41899017959342
 30
0.0
 11
11.22444514388831
 21
36.41899017959342
 31
0.0
 70
   160
  1
<>
 42
8.0
  3
Default (ANSI)
100
AcDbAlignedDimension
 13
7.224445143888318
 23
33.22903495842249
 33
0.0
 14
15.22444514388832
 24
33.36963495842248
 34
0.0
100
AcDbRotatedDimension
1001
ACAD
1000
DSTYLE
1002
{
1070
   289
1070
     1
1070
    73
1070
     0
1070
    74
1070
     0
1070
   271
1070
     2
1070
   272
1070
     2
1070
    48
1040
0.0
1070
    47
1040
0.0
1002
}
  0
DIMENSION
  5
59B
330
6C
100
AcDbEntity
  8
Dimension (ANSI)
100
AcDbDimension
  2
*D7
 10
17.71499417295113
 20
36.02922316995537
 30
0.0
 11
18.21374287814365
 21
35.46444142598378
 31
0.0
 70
   165
  1
<>
 42
1.241864438925063
  3
Default (ANSI)
100
AcDb3PointAngularDimension
 13
15.58493640579222
 23
33.36963495842249
 33
0.0
 14
15.37338401967966
 24
33.66538118282853
 34
0.0
 15
15.27243640579222
 25
33.36963495842249
 35
0.0
1001
ACAD_DSTYLE_DIMANGULAR_EXTENSION
1070
   387
1070
     1
1001
ACAD
1000
DSTYLE
1002
{
1070
   179
1070
     0
1070
   272
1070
     0
1070
    48
1040
0.0
1070
    47
1040
0.0
1002
}
  0
DIMENSION
  5
6BF
330
6C
100
AcDbEntity
  8
Dimension (ANSI)
100
AcDbDimension
  2
*D8
 10
46.12518069254462
 20
42.22718597175504
 30
0.0
 11
49.21634513504253
 21
42.22718597175504
 31
0.0
 70
   160
  1
<>{\P(2 PL.)}
 71
     5
 42
1.249999999999992
  3
Default (ANSI)
100
AcDbAlignedDimension
 13
44.87518069254462
 23
42.43872649601626
 33
0.0
 14
46.12518069254462
 24
42.38102941471705
 34
0.0
100
AcDbRotatedDimension
1001
ACAD
1000
DSTYLE
1002
{
1070
   289
1070
     1
1070
    73
1070
     0
1070
    74
1070
     0
1070
   271
1070
     2
1070
    76
1070
     1
1070
    75
1070
     1
1070
   272
1070
     2
1070
    48
1040
0.0
1070
    47
1040
0.0
1002
}
  0
DIMENSION
  5
7AE
330
6C
100
AcDbEntity
  8
Dimension (ANSI)
100
AcDbDimension
  2
*D9
 10
32.81321137418943
 20
39.846255439066
 30
0.0
 11
32.81321137418942
 21
40.47125543906598
 31
0.0
 70
   160
  1
<>
 42
1.249999999999957
  3
Default (ANSI)
100
AcDbAlignedDimension
 13
32.47107730990483
 23
41.09625543906595
 33
0.0
 14
33.24522871661428
 24
39.846255439066
 34
0.0
 50
270.0
100
AcDbRotatedDimension
1001
ACAD
1000
DSTYLE
1002
{
1070
   289
1070
     1
1070
   271
1070
     2
1070
    76
1070
     1
1070
    75
1070
     1
1070
   272
1070
     2
1070
    48
1040
0.0
1070
    47
1040
0.0
1002
}
  0
LINE
  5
897
330
6C
100
AcDbEntity
  8
Center Mark (ANSI)
  6
CHAIN
 48
0.2012779265642166
100
AcDbLine
 10
28.6876806925385
 20
13.24773372117141
 30
0.0
 11
28.68768069253849
 21
11.43523372117141
 31
0.0
  0
LINE
  5
898
330
6C
100
AcDbEntity
  8
Center Mark (ANSI)
  6
CHAIN
 48
0.2012779265642166
100
AcDbLine
 10
28.6876806925385
 20
18.24773372117141
 30
0.0
 11
28.68768069253849
 21
16.43523372117141
 31
0.0
  0
LINE
  5
899
330
6C
100
AcDbEntity
  8
Centerline (ANSI)
  6
CHAIN
 48
0.9524481296539306
100
AcDbLine
 10
28.6876806925385
 20
11.43523372117141
 30
0.0
 11
28.6876806925385
 21
18.24773372117141
 31
0.0
  0
LINE
  5
89A
330
6C
100
AcDbEntity
  8
Center Mark (ANSI)
  6
CHAIN
 48
0.2012779265642166
100
AcDbLine
 10
30.2501806925385
 20
19.56023372117141
 30
0.0
 11
30.2501806925385
 21
17.74773372117142
 31
0.0
  0
LINE
  5
89B
330
6C
100
AcDbEntity
  8
Center Mark (ANSI)
  6
CHAIN
 48
0.2012779265642166
100
AcDbLine
 10
43.87518069253852
 20
19.56023372117141
 30
0.0
 11
43.87518069253852
 21
17.74773372117142
 31
0.0
  0
LINE
  5
89C
330
6C
100
AcDbEntity
  8
Centerline (ANSI)
  6
CHAIN
 48
0.9524481296539306
100
AcDbLine
 10
29.34393069253851
 20
18.65398372117142
 30
0.0
 11
44.78143069253851
 21
18.65398372117142
 31
0.0
  0
LINE
  5
89D
330
6C
100
AcDbEntity
  8
Center Mark (ANSI)
  6
CHAIN
 48
0.2012779265642166
100
AcDbLine
 10
45.43768069253853
 20
18.24773372117133
 30
0.0
 11
45.43768069253851
 21
16.43523372117133
 31
0.0
  0
LINE
  5
89E
330
6C
100
AcDbEntity
  8
Center Mark (ANSI)
  6
CHAIN
 48
0.2012779265642166
100
AcDbLine
 10
45.43768069253856
 20
13.24773372117133
 30
0.0
 11
45.43768069253854
 21
11.43523372117133
 31
0.0
  0
LINE
  5
89F
330
6C
100
AcDbEntity
  8
Centerline (ANSI)
  6
CHAIN
 48
0.9524481296539306
100
AcDbLine
 10
45.43768069253851
 20
18.24773372117133
 30
0.0
 11
45.43768069253856
 21
11.43523372117133
 31
0.0
  0
DIMENSION
  5
8A0
330
6C
100
AcDbEntity
  8
Dimension (ANSI)
100
AcDbDimension
  2
*D10
 10
26.06854834585724
 20
17.34148372117141
 30
0.0
 11
24.65703728453315
 21
16.4850571320932
 31
0.0
 70
   160
  1
<>
 42
1.99999999999996
  3
Default (ANSI)
100
AcDbAlignedDimension
 13
28.1407806925385
 23
19.34148372117137
 33
0.0
 14
27.7814306925385
 24
17.34148372117141
 34
0.0
 50
270.0
100
AcDbRotatedDimension
1001
ACAD
1000
DSTYLE
1002
{
1070
   289
1070
     2
1070
   271
1070
     2
1070
   272
1070
     2
1070
    48
1040
0.0
1070
    47
1040
0.0
1002
}
  0
DIMENSION
  5
998
330
6C
100
AcDbEntity
  8
Dimension (ANSI)
100
AcDbDimension
  2
*D11
 10
21.99476730671173
 20
12.34148372117141
 30
0.0
 11
21.99476730671173
 21
15.84148372117139
 31
0.0
 70
   160
  1
<>
 42
6.999999999999962
  3
Default (ANSI)
100
AcDbAlignedDimension
 13
28.1407806925385
 23
19.34148372117137
 33
0.0
 14
27.7814306925385
 24
12.34148372117141
 34
0.0
 50
270.0
100
AcDbRotatedDimension
1001
ACAD
1000
DSTYLE
1002
{
1070
   289
1070
     1
1070
   271
1070
     2
1070
   272
1070
     2
1070
    48
1040
0.0
1070
    47
1040
0.0
1002
}
  0
DIMENSION
  5
A82
330
6C
100
AcDbEntity
  8
Dimension (ANSI)
100
AcDbDimension
  2
*D12
 10
24.87788738542258
 20
18.65398372117142
 30
0.0
 11
26.27749368466451
 21
20.69003629450155
 31
0.0
 70
   160
  1
<>
 42
0.6874999999999539
  3
Default (ANSI)
100
AcDbAlignedDimension
 13
28.1407806925385
 23
19.34148372117137
 33
0.0
 14
29.34393069253851
 24
18.65398372117142
 34
0.0
 50
270.0
100
AcDbRotatedDimension
1001
ACAD
1000
DSTYLE
1002
{
1070
   289
1070
     1
1070
   271
1070
     2
1070
   272
1070
     2
1070
    48
1040
0.0
1070
    47
1040
0.0
1002
}
  0
DIMENSION
  5
B82
330
6C
100
AcDbEntity
  8
Dimension (ANSI)
100
AcDbDimension
  2
*D13
 10
43.87518069253852
 20
21.81086614485193
 30
0.0
 11
47.87867203061693
 21
21.81086614485193
 31
0.0
 70
   160
  1
<>
 42
2.249999999999992
  3
Default (ANSI)
100
AcDbAlignedDimension
 13
46.12518069253851
 23
19.20088372117136
 33
0.0
 14
43.87518069253852
 24
19.56023372117141
 34
0.0
 50
180.0
100
AcDbRotatedDimension
1001
ACAD
1000
DSTYLE
1002
{
1070
   289
1070
     2
1070
    73
1070
     0
1070
    74
1070
     0
1070
   271
1070
     2
1070
   272
1070
     2
1070
    48
1040
0.0
1070
    47
1040
0.0
1002
}
  0
DIMENSION
  5
C6C
330
6C
100
AcDbEntity
  8
Dimension (ANSI)
100
AcDbDimension
  2
*D14
 10
30.2501806925385
 20
21.81086614485194
 30
0.0
 11
26.24668935446007
 21
21.81086614485194
 31
0.0
 70
   160
  1
<>
 42
2.250000000000003
  3
Default (ANSI)
100
AcDbAlignedDimension
 13
28.0001806925385
 23
19.20088372117137
 33
0.0
 14
30.2501806925385
 24
19.56023372117141
 34
0.0
100
AcDbRotatedDimension
1001
ACAD
1000
DSTYLE
1002
{
1070
   289
1070
     2
1070
    73
1070
     0
1070
    74
1070
     0
1070
   271
1070
     2
1070
   272
1070
     2
1070
    48
1040
0.0
1070
    47
1040
0.0
1002
}
  0
LINE
  5
D56
330
6C
100
AcDbEntity
  8
Centerline (ANSI)
  6
CHAIN
 48
0.9524481296539306
100
AcDbLine
 10
27.7814306925385
 20
17.34148372117141
 30
0.0
 11
46.34393069253852
 21
17.34148372117133
 31
0.0
  0
LINE
  5
D57
330
6C
100
AcDbEntity
  8
Centerline (ANSI)
  6
CHAIN
 48
0.9524481296539306
100
AcDbLine
 10
27.7814306925385
 20
12.34148372117141
 30
0.0
 11
46.34393069253855
 21
12.34148372117133
 31
0.0
  0
DIMENSION
  5
D58
330
6C
100
AcDbEntity
  8
Dimension (ANSI)
100
AcDbDimension
  2
*D15
 10
28.6876806925385
 20
10.58818685917143
 30
0.0
 11
24.90901625004059
 21
10.58818685917143
 31
0.0
 70
   160
  1
<>{\P(2 PL.)}
 71
     5
 42
0.6874999999999965
  3
Default (ANSI)
100
AcDbAlignedDimension
 13
28.0001806925385
 23
11.34148372117137
 33
0.0
 14
28.6876806925385
 24
11.43523372117141
 34
0.0
100
AcDbRotatedDimension
1001
ACAD
1000
DSTYLE
1002
{
1070
   289
1070
     1
1070
    73
1070
     0
1070
    74
1070
     0
1070
   271
1070
     2
1070
   272
1070
     2
1070
    48
1040
0.0
1070
    47
1040
0.0
1002
}
  0
DIMENSION
  5
E56
330
6C
100
AcDbEntity
  8
Dimension (ANSI)
100
AcDbDimension
  2
*D16
 10
45.26421983113289
 20
12.12009516667854
 30
0.0
 11
49.71813460965392
 21
15.04046909197145
 31
0.0
 70
   163
  1
<>{\P(6 PL.)}
 71
     5
 42
0.5625
  3
Default (ANSI)
100
AcDbDiametricDimension
 15
45.61114155394422
 25
12.5628722756641
 35
0.0
 40
0.0
1001
ACAD
1000
DSTYLE
1002
{
1070
   144
1040
1.0
1070
   271
1070
     3
1070
   272
1070
     2
1070
    48
1040
0.0
1070
    47
1040
0.0
1002
}
1001
ACAD_DSTYLE_DIMRADIAL_EXTENSION
1070
   387
1070
     1
1070
   388
1040
0.0
1070
   390
1040
0.0
  0
LINE
  5
F10
330
6C
100
AcDbEntity
  8
Center Mark (ANSI)
  6
CHAIN
 48
0.2012779265642166
100
AcDbLine
 10
30.12518069254457
 20
47.50250543906595
 30
0.0
 11
30.12518069254457
 21
45.69000543906596
 31
0.0
  0
LINE
  5
F11
330
6C
100
AcDbEntity
  8
Center Mark (ANSI)
  6
CHAIN
 48
0.2012779265642166
100
AcDbLine
 10
44.00018069254456
 20
47.50250543906595
 30
0.0
 11
44.00018069254456
 21
45.69000543906596
 31
0.0
  0
LINE
  5
F12
330
6C
100
AcDbEntity
  8
Centerline (ANSI)
  6
CHAIN
 48
0.9524481296539306
100
AcDbLine
 10
29.21893069254457
 20
46.59625543906595
 30
0.0
 11
44.90643069254455
 21
46.59625543906595
 31
0.0
  0
LINE
  5
F13
330
6C
100
AcDbEntity
  8
Center Mark (ANSI)
  6
CHAIN
 48
0.2012779265642166
100
AcDbLine
 10
37.96893069254456
 20
43.59625543906599
 30
0.0
 11
36.15643069254456
 21
43.59625543906599
 31
0.0
  0
LINE
  5
F14
330
6C
100
AcDbEntity
  8
Center Mark (ANSI)
  6
CHAIN
 48
0.2012779265642166
100
AcDbLine
 10
37.06268069254456
 20
44.50250543906599
 30
0.0
 11
37.06268069254456
 21
42.69000543906598
 31
0.0
  0
DIMENSION
  5
F15
330
6C
100
AcDbEntity
  8
Dimension (ANSI)
100
AcDbDimension
  2
*D17
 10
30.12518069254457
 20
49.05236607860263
 30
0.0
 11
26.24668935446616
 21
49.05236607860263
 31
0.0
 70
   160
  1
<>
 42
2.124999999999968
  3
Default (ANSI)
100
AcDbAlignedDimension
 13
28.0001806925446
 23
47.84625543906769
 33
0.0
 14
30.12518069254457
 24
47.50250543906595
 34
0.0
 50
180.0
100
AcDbRotatedDimension
1001
ACAD
1000
DSTYLE
1002
{
1070
   289
1070
     2
1070
    73
1070
     0
1070
    74
1070
     0
1070
   271
1070
     2
1070
   272
1070
     2
1070
    48
1040
0.0
1070
    47
1040
0.0
1002
}
  0
DIMENSION
  5
FFF
330
6C
100
AcDbEntity
  8
Dimension (ANSI)
100
AcDbDimension
  2
*D18
 10
37.06268069254456
 20
50.54424208497171
 30
0.0
 11
32.53143069254458
 21
50.54424208497171
 31
0.0
 70
   160
  1
<>
 42
9.06249999999996
  3
Default (ANSI)
100
AcDbAlignedDimension
 13
28.0001806925446
 23
47.84625543906769
 33
0.0
 14
37.06268069254456
 24
44.50250543906599
 34
0.0
 50
180.0
100
AcDbRotatedDimension
1001
ACAD
1000
DSTYLE
1002
{
1070
   289
1070
     1
1070
    73
1070
     0
1070
    74
1070
     0
1070
   271
1070
     2
1070
   272
1070
     2
1070
    48
1040
0.0
1070
    47
1040
0.0
1002
}
  0
DIMENSION
  5
10E9
330
6C
100
AcDbEntity
  8
Dimension (ANSI)
100
AcDbDimension
  2
*D19
 10
44.00018069254456
 20
49.05236607860263
 30
0.0
 11
47.87867203062307
 21
49.05236607860263
 31
0.0
 70
   160
  1
<>
 42
2.125000000000092
  3
Default (ANSI)
100
AcDbAlignedDimension
 13
46.12518069254465
 23
47.84625543906769
 33
0.0
 14
44.00018069254456
 24
47.50250543906595
 34
0.0
 50
180.0
100
AcDbRotatedDimension
1001
ACAD
1000
DSTYLE
1002
{
1070
   289
1070
     2
1070
    73
1070
     0
1070
    74
1070
     0
1070
   271
1070
     2
1070
   272
1070
     2
1070
    48
1040
0.0
1070
    47
1040
0.0
1002
}
  0
DIMENSION
  5
11D3
330
6C
100
AcDbEntity
  8
Dimension (ANSI)
100
AcDbDimension
  2
*D20
 10
24.67760068882651
 20
46.59625543906595
 30
0.0
 11
24.6776006888265
 21
47.22125543906684
 31
0.0
 70
   160
  1
<>
 42
1.25000000000174
  3
Default (ANSI)
100
AcDbAlignedDimension
 13
28.0001806925446
 23
47.84625543906769
 33
0.0
 14
29.21893069254457
 24
46.59625543906595
 34
0.0
 50
90.0
100
AcDbRotatedDimension
1001
ACAD
1000
DSTYLE
1002
{
1070
   289
1070
     1
1070
   271
1070
     2
1070
   272
1070
     2
1070
    48
1040
0.0
1070
    47
1040
0.0
1002
}
  0
DIMENSION
  5
12C5
330
6C
100
AcDbEntity
  8
Dimension (ANSI)
100
AcDbDimension
  2
*D21
 10
22.48836966892256
 20
43.59625543906599
 30
0.0
 11
22.48836966892255
 21
45.72125543906684
 31
0.0
 70
   160
  1
<>
 42
4.250000000001705
  3
Default (ANSI)
100
AcDbAlignedDimension
 13
28.0001806925446
 23
47.84625543906769
 33
0.0
 14
36.15643069254456
 24
43.59625543906599
 34
0.0
 50
90.0
100
AcDbRotatedDimension
1001
ACAD
1000
DSTYLE
1002
{
1070
   289
1070
     1
1070
   271
1070
     2
1070
   272
1070
     2
1070
    48
1040
0.0
1070
    47
1040
0.0
1002
}
  0
DIMENSION
  5
13AF
330
6C
100
AcDbEntity
  8
Dimension (ANSI)
100
AcDbDimension
  2
*D22
 10
36.78397296615415
 20
43.55852526877365
 30
0.0
 11
47.76844562877008
 21
45.04555266302552
 31
0.0
 70
   163
  1
<>{\P(3 PL.)}
 71
     5
 42
0.5625
  3
Default (ANSI)
100
AcDbDiametricDimension
 15
37.34138841893497
 25
43.63398560935835
 35
0.0
 40
0.0
1001
ACAD
1000
DSTYLE
1002
{
1070
   144
1040
1.0
1070
   271
1070
     3
1070
   272
1070
     3
1070
    48
1040
0.0
1070
    47
1040
0.0
1002
}
1001
ACAD_DSTYLE_DIMRADIAL_EXTENSION
1070
   387
1070
     1
1070
   388
1040
0.0
1070
   390
1040
0.0
  0
DIMENSION
  5
1452
330
6C
100
AcDbEntity
  8
Dimension (ANSI)
100
AcDbDimension
  2
*D23
 10
14.97444514388839
 20
25.78850523618289
 30
0.0
 11
11.09944514388835
 21
25.78850523618289
 31
0.0
 70
   160
  1
<>
 42
7.75000000000007
  3
Default (ANSI)
100
AcDbAlignedDimension
 13
7.224445143888318
 23
27.51023495842249
 33
0.0
 14
14.97444514388839
 24
27.36976109962071
 34
0.0
100
AcDbRotatedDimension
1001
ACAD
1000
DSTYLE
1002
{
1070
   289
1070
     1
1070
    73
1070
     0
1070
    74
1070
     0
1070
   271
1070
     2
1070
   272
1070
     2
1070
    48
1040
0.0
1070
    47
1040
0.0
1002
}
  0
MTEXT
  5
153C
102
{ACAD_XDICTIONARY
360
1548
102
}
330
6C
100
AcDbEntity
  8
Symbol (ANSI)
100
AcDbMText
 10
47.24981028082342
 20
4.755248832653379
 30
0.0
 40
0.500000015957149
 41
36.91693553774377
 71
     4
 72
     1
  3
{\fRomanS|b0|i0|c0|p2;\H2x;PART#: SSFK0618\P(DATA SUBJECT TO CHANGE WITHOUT NOTICE)\H1.6157x; \H0.61894x;\P \H1.352x; \H0.73963x;\P\H0.6x;THIS DRAWING IS PROPERTY OF HUBBELL INC. WIEGMANN\H1.5633x; \H0.63966x;\PALL INFORMATION IS PROPRIETARY AND NOT 
  1
TO BE DUPLICATED\H1.234x; \H0.81039x;\P\H1.2571x; }
  7
Note Text (ANSI)
 73
     1
 44
0.8026435375213623
  0
ENDSEC
  0
SECTION
  2
OBJECTS
  0
DICTIONARY
  5
C
330
0
100
AcDbDictionary
281
     1
  3
ACAD_CIP_PREVIOUS_PRODUCT_INFO
350
153E
  3
ACAD_COLOR
350
63
  3
ACAD_GROUP
350
D
  3
ACAD_LAYOUT
350
62
  3
ACAD_MATERIAL
350
10
  3
ACAD_MLEADERSTYLE
350
66
  3
ACAD_MLINESTYLE
350
5F
  3
ACAD_PLOTSETTINGS
350
61
  3
ACAD_PLOTSTYLENAME
350
E
  3
ACAD_SCALELIST
350
42
  3
ACAD_TABLESTYLE
350
64
  3
ACAD_VISUALSTYLE
350
29
  3
ACDB_RECOMPOSE_DATA
350
154A
  3
AcDbVariableDictionary
350
76
  0
DICTIONARY
  5
1580
330
F0A
100
AcDbDictionary
280
     1
281
     1
  3
ACAD_MTEXT_2008_RT
360
1581
  0
DICTIONARY
  5
1582
330
144C
100
AcDbDictionary
280
     1
281
     1
  3
ACAD_MTEXT_2008_RT
360
1583
  0
DICTIONARY
  5
1548
330
153C
100
AcDbDictionary
280
     1
281
     1
  3
ACAD_MTEXT_2008_RT
360
1549
  0
XRECORD
  5
153E
102
{ACAD_REACTORS
330
C
102
}
330
C
100
AcDbXrecord
280
     1
300
INVNTOR
300
2012
300
PDSP_F_S
  0
DICTIONARY
  5
63
102
{ACAD_REACTORS
330
C
102
}
330
C
100
AcDbDictionary
281
     1
  0
DICTIONARY
  5
D
102
{ACAD_REACTORS
330
C
102
}
330
C
100
AcDbDictionary
281
     1
  0
DICTIONARY
  5
62
102
{ACAD_REACTORS
330
C
102
}
330
C
100
AcDbDictionary
281
     1
  3
Layout1
350
6B
  3
Layout2
350
73
  3
Model
350
6F
  0
DICTIONARY
  5
10
102
{ACAD_REACTORS
330
C
102
}
330
C
100
AcDbDictionary
281
     1
  3
ByBlock
350
19
  3
ByLayer
350
11
  3
Global
350
21
  0
DICTIONARY
  5
66
102
{ACAD_REACTORS
330
C
102
}
330
C
100
AcDbDictionary
281
     1
  3
Standard
350
67
  0
DICTIONARY
  5
5F
102
{ACAD_REACTORS
330
C
102
}
330
C
100
AcDbDictionary
281
     1
  3
Standard
350
60
  0
DICTIONARY
  5
61
102
{ACAD_REACTORS
330
C
102
}
330
C
100
AcDbDictionary
281
     1
  0
ACDBDICTIONARYWDFLT
  5
E
102
{ACAD_REACTORS
330
C
102
}
330
C
100
AcDbDictionary
281
     1
  3
Normal
350
F
100
AcDbDictionaryWithDefault
340
F
  0
DICTIONARY
  5
42
102
{ACAD_REACTORS
330
C
102
}
330
C
100
AcDbDictionary
281
     1
  3
A0
350
43
  3
A1
350
44
  3
A2
350
45
  3
A3
350
46
  3
A4
350
47
  3
A5
350
48
  3
A6
350
49
  3
A7
350
4A
  3
A8
350
4B
  3
A9
350
4C
  3
B0
350
4D
  3
B1
350
4E
  3
B2
350
4F
  3
B3
350
50
  3
B4
350
51
  3
B5
350
52
  3
B6
350
53
  0
DICTIONARY
  5
64
102
{ACAD_REACTORS
330
C
102
}
330
C
100
AcDbDictionary
281
     1
  3
Standard
350
65
  0
DICTIONARY
  5
29
102
{ACAD_REACTORS
330
C
102
}
330
C
100
AcDbDictionary
281
     1
  3
2dWireframe
350
2F
  3
Basic
350
2E
  3
Brighten
350
35
  3
ColorChange
350
39
  3
Conceptual
350
32
  3
Dim
350
34
  3
EdgeColorOff
350
41
  3
Facepattern
350
38
  3
Flat
350
2A
  3
FlatWithEdges
350
2B
  3
Gouraud
350
2C
  3
GouraudWithEdges
350
2D
  3
Hidden
350
31
  3
JitterOff
350
3F
  3
Linepattern
350
37
  3
OverhangOff
350
40
  3
Realistic
350
33
  3
Shaded
350
3E
  3
Shaded with edges
350
3D
  3
Shades of Gray
350
3A
  3
Sketchy
350
3B
  3
Thicken
350
36
  3
Wireframe
350
30
  3
X-Ray
350
3C
  0
XRECORD
  5
154A
102
{ACAD_REACTORS
330
C
102
}
330
C
100
AcDbXrecord
280
     1
 90
        1
330
65
330
8A0
330
B82
330
C6C
330
F15
330
10E9
330
153C
  0
DICTIONARY
  5
76
102
{ACAD_REACTORS
330
C
102
}
330
C
100
AcDbDictionary
281
     1
  3
CANNOSCALE
350
79
  3
CMLEADERSTYLE
350
78
  3
CTABLESTYLE
350
77
  3
LAYEREVAL
350
1541
  3
LAYERNOTIFY
350
1542
  3
LIGHTINGUNITS
350
1540
  3
MSLTSCALE
350
153F
  3
XCLIPFRAME
350
1543
  0
XRECORD
  5
1581
102
{ACAD_REACTORS
330
1580
102
}
330
1580
100
AcDbXrecord
280
     1
 40
24491.0
  1
\A1;\U+22050.563{\P(6 PL.)}
  0
XRECORD
  5
1583
102
{ACAD_REACTORS
330
1582
102
}
330
1582
100
AcDbXrecord
280
     1
 40
24428.0
  1
\A1;\U+22050.563{\P(3 PL.)}
  0
XRECORD
  5
1549
102
{ACAD_REACTORS
330
1548
102
}
330
1548
100
AcDbXrecord
280
     1
 40
3069143.0
  1
\pxsm0.94;{\fRomanS|b0|i0;\H1.0000;PART#: SSFK0618\P(DATA SUBJECT TO CHANGE WITHOUT NOTICE)\P \P\fRomanS|b0|i0;\H0.6000;THIS DRAWING IS PROPERTY OF HUBBELL INC. WIEGMANN\PALL INFORMATION IS PROPRIETARY AND NOT TO BE DUPLICATED\P}
  0
LAYOUT
  5
6B
102
{ACAD_REACTORS
330
62
102
}
330
62
100
AcDbPlotSettings
  1

  2

  4

  6

 40
0.0
 41
0.0
 42
0.0
 43
0.0
 44
0.0
 45
0.0
 46
0.0
 47
0.0
 48
0.0
 49
0.0
140
0.0
141
0.0
142
1.0
143
1.0
 70
   688
 72
     0
 73
     0
 74
     5
  7

 75
    16
147
1.0
 76
     0
 77
     2
 78
   300
148
0.0
149
0.0
100
AcDbLayout
  1
Layout1
 70
     1
 71
     1
 10
0.0
 20
0.0
 11
12.0
 21
9.0
 12
0.0
 22
0.0
 32
0.0
 14
0.0
 24
0.0
 34
0.0
 15
0.0
 25
0.0
 35
0.0
146
0.0
 13
0.0
 23
0.0
 33
0.0
 16
1.0
 26
0.0
 36
0.0
 17
0.0
 27
1.0
 37
0.0
 76
     0
330
68
  0
LAYOUT
  5
73
102
{ACAD_REACTORS
330
62
102
}
330
62
100
AcDbPlotSettings
  1

  2

  4

  6

 40
0.0
 41
0.0
 42
0.0
 43
0.0
 44
0.0
 45
0.0
 46
0.0
 47
0.0
 48
0.0
 49
0.0
140
0.0
141
0.0
142
1.0
143
1.0
 70
   688
 72
     0
 73
     0
 74
     5
  7

 75
    16
147
1.0
 76
     0
 77
     2
 78
   300
148
0.0
149
0.0
100
AcDbLayout
  1
Layout2
 70
     1
 71
     2
 10
0.0
 20
0.0
 11
12.0
 21
9.0
 12
0.0
 22
0.0
 32
0.0
 14
0.0
 24
0.0
 34
0.0
 15
0.0
 25
0.0
 35
0.0
146
0.0
 13
0.0
 23
0.0
 33
0.0
 16
1.0
 26
0.0
 36
0.0
 17
0.0
 27
1.0
 37
0.0
 76
     0
330
70
  0
LAYOUT
  5
6F
102
{ACAD_REACTORS
330
62
102
}
330
62
100
AcDbPlotSettings
  1

  2

  4

  6

 40
0.0
 41
0.0
 42
0.0
 43
0.0
 44
0.0
 45
0.0
 46
0.0
 47
0.0
 48
0.0
 49
0.0
140
0.0
141
0.0
142
1.0
143
1.0
 70
  1712
 72
     0
 73
     0
 74
     0
  7

 75
     0
147
1.0
 76
     0
 77
     2
 78
   300
148
0.0
149
0.0
100
AcDbLayout
  1
Model
 70
     1
 71
     0
 10
0.0
 20
0.0
 11
12.0
 21
9.0
 12
0.0
 22
0.0
 32
0.0
 14
0.0
 24
0.0
 34
0.0
 15
0.0
 25
0.0
 35
0.0
146
0.0
 13
0.0
 23
0.0
 33
0.0
 16
1.0
 26
0.0
 36
0.0
 17
0.0
 27
1.0
 37
0.0
 76
     0
330
6C
  0
MATERIAL
  5
19
102
{ACAD_XDICTIONARY
360
1A
102
}
102
{ACAD_REACTORS
330
10
102
}
330
10
100
AcDbMaterial
  1
ByBlock
 72
     0
 43
0.0208333333333333
 43
0.0
 43
0.0
 43
0.0
 43
0.0
 43
0.0208333333333333
 43
0.0
 43
0.0
 43
0.0
 43
0.0
 43
1.0
 43
0.0
 43
0.0
 43
0.0
 43
0.0
 43
1.0
 77
     0
 47
0.0208333333333333
 47
0.0
 47
0.0
 47
0.0
 47
0.0
 47
0.0208333333333333
 47
0.0
 47
0.0
 47
0.0
 47
0.0
 47
1.0
 47
0.0
 47
0.0
 47
0.0
 47
0.0
 47
1.0
171
     0
 49
0.0208333333333333
 49
0.0
 49
0.0
 49
0.0
 49
0.0
 49
0.0208333333333333
 49
0.0
 49
0.0
 49
0.0
 49
0.0
 49
1.0
 49
0.0
 49
0.0
 49
0.0
 49
0.0
 49
1.0
175
     0
142
0.0208333333333333
142
0.0
142
0.0
142
0.0
142
0.0
142
0.0208333333333333
142
0.0
142
0.0
142
0.0
142
0.0
142
1.0
142
0.0
142
0.0
142
0.0
142
0.0
142
1.0
179
     0
144
0.0208333333333333
144
0.0
144
0.0
144
0.0
144
0.0
144
0.0208333333333333
144
0.0
144
0.0
144
0.0
144
0.0
144
1.0
144
0.0
144
0.0
144
0.0
144
0.0
144
1.0
147
0.0208333333333333
147
0.0
147
0.0
147
0.0
147
0.0
147
0.0208333333333333
147
0.0
147
0.0
147
0.0
147
0.0
147
1.0
147
0.0
147
0.0
147
0.0
147
0.0
147
1.0
  0
MATERIAL
  5
11
102
{ACAD_XDICTIONARY
360
12
102
}
102
{ACAD_REACTORS
330
10
102
}
330
10
100
AcDbMaterial
  1
ByLayer
 72
     0
 43
0.0208333333333333
 43
0.0
 43
0.0
 43
0.0
 43
0.0
 43
0.0208333333333333
 43
0.0
 43
0.0
 43
0.0
 43
0.0
 43
1.0
 43
0.0
 43
0.0
 43
0.0
 43
0.0
 43
1.0
 77
     0
 47
0.0208333333333333
 47
0.0
 47
0.0
 47
0.0
 47
0.0
 47
0.0208333333333333
 47
0.0
 47
0.0
 47
0.0
 47
0.0
 47
1.0
 47
0.0
 47
0.0
 47
0.0
 47
0.0
 47
1.0
171
     0
 49
0.0208333333333333
 49
0.0
 49
0.0
 49
0.0
 49
0.0
 49
0.0208333333333333
 49
0.0
 49
0.0
 49
0.0
 49
0.0
 49
1.0
 49
0.0
 49
0.0
 49
0.0
 49
0.0
 49
1.0
175
     0
142
0.0208333333333333
142
0.0
142
0.0
142
0.0
142
0.0
142
0.0208333333333333
142
0.0
142
0.0
142
0.0
142
0.0
142
1.0
142
0.0
142
0.0
142
0.0
142
0.0
142
1.0
179
     0
144
0.0208333333333333
144
0.0
144
0.0
144
0.0
144
0.0
144
0.0208333333333333
144
0.0
144
0.0
144
0.0
144
0.0
144
1.0
144
0.0
144
0.0
144
0.0
144
0.0
144
1.0
147
0.0208333333333333
147
0.0
147
0.0
147
0.0
147
0.0
147
0.0208333333333333
147
0.0
147
0.0
147
0.0
147
0.0
147
1.0
147
0.0
147
0.0
147
0.0
147
0.0
147
1.0
  0
MATERIAL
  5
21
102
{ACAD_XDICTIONARY
360
22
102
}
102
{ACAD_REACTORS
330
10
102
}
330
10
100
AcDbMaterial
  1
Global
 72
     0
 43
0.0208333333333333
 43
0.0
 43
0.0
 43
0.0
 43
0.0
 43
0.0208333333333333
 43
0.0
 43
0.0
 43
0.0
 43
0.0
 43
1.0
 43
0.0
 43
0.0
 43
0.0
 43
0.0
 43
1.0
 77
     0
 47
0.0208333333333333
 47
0.0
 47
0.0
 47
0.0
 47
0.0
 47
0.0208333333333333
 47
0.0
 47
0.0
 47
0.0
 47
0.0
 47
1.0
 47
0.0
 47
0.0
 47
0.0
 47
0.0
 47
1.0
171
     0
 49
0.0208333333333333
 49
0.0
 49
0.0
 49
0.0
 49
0.0
 49
0.0208333333333333
 49
0.0
 49
0.0
 49
0.0
 49
0.0
 49
1.0
 49
0.0
 49
0.0
 49
0.0
 49
0.0
 49
1.0
175
     0
142
0.0208333333333333
142
0.0
142
0.0
142
0.0
142
0.0
142
0.0208333333333333
142
0.0
142
0.0
142
0.0
142
0.0
142
1.0
142
0.0
142
0.0
142
0.0
142
0.0
142
1.0
179
     0
144
0.0208333333333333
144
0.0
144
0.0
144
0.0
144
0.0
144
0.0208333333333333
144
0.0
144
0.0
144
0.0
144
0.0
144
1.0
144
0.0
144
0.0
144
0.0
144
0.0
144
1.0
147
0.0208333333333333
147
0.0
147
0.0
147
0.0
147
0.0
147
0.0208333333333333
147
0.0
147
0.0
147
0.0
147
0.0
147
1.0
147
0.0
147
0.0
147
0.0
147
0.0
147
1.0
  0
MLEADERSTYLE
  5
67
102
{ACAD_XDICTIONARY
360
1546
102
}
102
{ACAD_REACTORS
330
66
102
}
330
66
100
AcDbMLeaderStyle
170
     2
171
     1
172
     0
 90
        2
 40
0.0
 41
0.0
173
     1
 91
-1056964608
340
5B
 92
       -2
290
     1
 42
0.09
291
     1
 43
0.36
  3
Standard
 44
0.18
300

342
55
174
     1
178
     6
175
     1
176
     0
 93
-1056964608
 45
0.18
292
     0
297
     0
 46
0.18
 94
-1056964608
 47
1.0
 49
1.0
140
1.0
293
     1
141
0.0
294
     1
177
     0
142
1.0
295
     0
296
     0
143
0.125
1001
ACAD_MLEADERVER
1070
     2
  0
MLINESTYLE
  5
60
102
{ACAD_REACTORS
330
5F
102
}
330
5F
100
AcDbMlineStyle
  2
STANDARD
 70
     0
  3

 62
   256
 51
90.0
 52
90.0
 71
     2
 49
0.5
 62
   256
  6
BYLAYER
 49
-0.5
 62
   256
  6
BYLAYER
  0
ACDBPLACEHOLDER
  5
F
102
{ACAD_REACTORS
330
E
102
}
330
E
  0
SCALE
  5
43
102
{ACAD_REACTORS
330
42
102
}
330
42
100
AcDbScale
 70
     0
300
1:1
140
1.0
141
1.0
290
     1
  0
SCALE
  5
44
102
{ACAD_REACTORS
330
42
102
}
330
42
100
AcDbScale
 70
     0
300
1/128" = 1'-0"
140
0.0078125
141
12.0
290
     0
  0
SCALE
  5
45
102
{ACAD_REACTORS
330
42
102
}
330
42
100
AcDbScale
 70
     0
300
1/64" = 1'-0"
140
0.015625
141
12.0
290
     0
  0
SCALE
  5
46
102
{ACAD_REACTORS
330
42
102
}
330
42
100
AcDbScale
 70
     0
300
1/32" = 1'-0"
140
0.03125
141
12.0
290
     0
  0
SCALE
  5
47
102
{ACAD_REACTORS
330
42
102
}
330
42
100
AcDbScale
 70
     0
300
1/16" = 1'-0"
140
0.0625
141
12.0
290
     0
  0
SCALE
  5
48
102
{ACAD_REACTORS
330
42
102
}
330
42
100
AcDbScale
 70
     0
300
3/32" = 1'-0"
140
0.09375
141
12.0
290
     0
  0
SCALE
  5
49
102
{ACAD_REACTORS
330
42
102
}
330
42
100
AcDbScale
 70
     0
300
1/8" = 1'-0"
140
0.125
141
12.0
290
     0
  0
SCALE
  5
4A
102
{ACAD_REACTORS
330
42
102
}
330
42
100
AcDbScale
 70
     0
300
3/16" = 1'-0"
140
0.1875
141
12.0
290
     0
  0
SCALE
  5
4B
102
{ACAD_REACTORS
330
42
102
}
330
42
100
AcDbScale
 70
     0
300
1/4" = 1'-0"
140
0.25
141
12.0
290
     0
  0
SCALE
  5
4C
102
{ACAD_REACTORS
330
42
102
}
330
42
100
AcDbScale
 70
     0
300
3/8" = 1'-0"
140
0.375
141
12.0
290
     0
  0
SCALE
  5
4D
102
{ACAD_REACTORS
330
42
102
}
330
42
100
AcDbScale
 70
     0
300
1/2" = 1'-0"
140
0.5
141
12.0
290
     0
  0
SCALE
  5
4E
102
{ACAD_REACTORS
330
42
102
}
330
42
100
AcDbScale
 70
     0
300
3/4" = 1'-0"
140
0.75
141
12.0
290
     0
  0
SCALE
  5
4F
102
{ACAD_REACTORS
330
42
102
}
330
42
100
AcDbScale
 70
     0
300
1" = 1'-0"
140
1.0
141
12.0
290
     0
  0
SCALE
  5
50
102
{ACAD_REACTORS
330
42
102
}
330
42
100
AcDbScale
 70
     0
300
1-1/2" = 1'-0"
140
1.5
141
12.0
290
     0
  0
SCALE
  5
51
102
{ACAD_REACTORS
330
42
102
}
330
42
100
AcDbScale
 70
     0
300
3" = 1'-0"
140
3.0
141
12.0
290
     0
  0
SCALE
  5
52
102
{ACAD_REACTORS
330
42
102
}
330
42
100
AcDbScale
 70
     0
300
6" = 1'-0"
140
6.0
141
12.0
290
     0
  0
SCALE
  5
53
102
{ACAD_REACTORS
330
42
102
}
330
42
100
AcDbScale
 70
     0
300
1'-0" = 1'-0"
140
12.0
141
12.0
290
     0
  0
TABLESTYLE
  5
65
102
{ACAD_XDICTIONARY
360
1544
102
}
102
{ACAD_REACTORS
330
64
102
}
330
64
100
AcDbTableStyle
  3
Standard
 70
     0
 71
     0
 40
0.06
 41
0.06
280
     0
281
     0
  7
Standard
140
0.18
170
     2
 62
     0
 63
     7
283
     0
274
    -2
284
     1
 64
     0
275
    -2
285
     1
 65
     0
276
    -2
286
     1
 66
     0
277
    -2
287
     1
 67
     0
278
    -2
288
     1
 68
     0
279
    -2
289
     1
 69
     0
  7
Standard
140
0.25
170
     5
 62
     0
 63
     7
283
     0
274
    -2
284
     1
 64
     0
275
    -2
285
     1
 65
     0
276
    -2
286
     1
 66
     0
277
    -2
287
     1
 67
     0
278
    -2
288
     1
 68
     0
279
    -2
289
     1
 69
     0
  7
Standard
140
0.18
170
     5
 62
     0
 63
     7
283
     0
274
    -2
284
     1
 64
     0
275
    -2
285
     1
 65
     0
276
    -2
286
     1
 66
     0
277
    -2
287
     1
 67
     0
278
    -2
288
     1
 68
     0
279
    -2
289
     1
 69
     0
  0
VISUALSTYLE
  5
2F
102
{ACAD_XDICTIONARY
360
1558
102
}
102
{ACAD_REACTORS
330
29
102
}
330
29
100
AcDbVisualStyle
  2
2dWireframe
 70
     4
 71
     0
 72
     2
 73
     0
 90
        0
 40
-0.6
 41
-30.0
 62
     5
 63
     7
421
 16777215
 74
     1
 91
        4
 64
     7
 65
   257
 75
     1
175
     1
 42
1.0
 92
        0
 66
   257
 43
1.0
 76
     1
 77
     6
 78
     2
 67
     7
 79
     5
170
     0
171
     0
290
     0
174
     0
 93
        1
 44
0.0
173
     0
291
     0
 45
0.0
1001
ACAD
1000
AcDbSavedByObjectVersion
1070
     0
  0
VISUALSTYLE
  5
2E
102
{ACAD_XDICTIONARY
360
1556
102
}
102
{ACAD_REACTORS
330
29
102
}
330
29
100
AcDbVisualStyle
  2
Basic
 70
     7
 71
     1
 72
     0
 73
     1
 90
        0
 40
-0.6
 41
-30.0
 62
     5
 63
     7
421
 16777215
 74
     0
 91
        4
 64
     7
 65
   257
 75
     1
175
     1
 42
1.0
 92
        8
 66
     7
 43
1.0
 76
     1
 77
     6
 78
     2
 67
     7
 79
     5
170
     0
171
     0
290
     0
174
     0
 93
        1
 44
0.0
173
     0
291
     1
 45
0.0
1001
ACAD
1000
AcDbSavedByObjectVersion
1070
     0
  0
VISUALSTYLE
  5
35
102
{ACAD_XDICTIONARY
360
1564
102
}
102
{ACAD_REACTORS
330
29
102
}
330
29
100
AcDbVisualStyle
  2
Brighten
 70
    12
 71
     2
 72
     2
 73
     0
 90
        0
 40
-0.6
 41
-30.0
 62
     5
 63
     7
421
 16777215
 74
     1
 91
        4
 64
     7
 65
   257
 75
     1
175
     1
 42
1.0
 92
        8
 66
     7
 43
1.0
 76
     1
 77
     6
 78
     2
 67
     7
 79
     5
170
     0
171
     0
290
     0
174
     0
 93
        1
 44
50.0
173
     0
291
     1
 45
0.0
1001
ACAD
1000
AcDbSavedByObjectVersion
1070
     0
  0
VISUALSTYLE
  5
39
102
{ACAD_XDICTIONARY
360
156C
102
}
102
{ACAD_REACTORS
330
29
102
}
330
29
100
AcDbVisualStyle
  2
ColorChange
 70
    16
 71
     2
 72
     2
 73
     3
 90
        0
 40
-0.6
 41
-30.0
 62
     5
 63
     8
421
  8421504
 74
     1
 91
        4
 64
     7
 65
   257
 75
     1
175
     1
 42
1.0
 92
        8
 66
     8
424
  8421504
 43
1.0
 76
     1
 77
     6
 78
     2
 67
     7
 79
     5
170
     0
171
     0
290
     0
174
     0
 93
        1
 44
0.0
173
     0
291
     1
 45
0.0
1001
ACAD
1000
AcDbSavedByObjectVersion
1070
     0
  0
VISUALSTYLE
  5
32
102
{ACAD_XDICTIONARY
360
155E
102
}
102
{ACAD_REACTORS
330
29
102
}
330
29
100
AcDbVisualStyle
  2
Conceptual
 70
     9
 71
     3
 72
     2
 73
     0
 90
        0
 40
-0.6
 41
-30.0
 62
     5
 63
     7
421
 16777215
 74
     2
 91
        2
 64
     7
 65
   257
 75
     1
175
     1
 42
179.0
 92
        8
 66
     7
 43
1.0
 76
     1
 77
     6
 78
     2
 67
     7
 79
     3
170
     0
171
     0
290
     0
174
     0
 93
        1
 44
0.0
173
     0
291
     0
 45
0.0
1001
ACAD
1000
AcDbSavedByObjectVersion
1070
     0
  0
VISUALSTYLE
  5
34
102
{ACAD_XDICTIONARY
360
1562
102
}
102
{ACAD_REACTORS
330
29
102
}
330
29
100
AcDbVisualStyle
  2
Dim
 70
    11
 71
     2
 72
     2
 73
     0
 90
        0
 40
-0.6
 41
-30.0
 62
     5
 63
     7
421
 16777215
 74
     1
 91
        4
 64
     7
 65
   257
 75
     1
175
     1
 42
1.0
 92
        8
 66
     7
 43
1.0
 76
     1
 77
     6
 78
     2
 67
     7
 79
     5
170
     0
171
     0
290
     0
174
     0
 93
        1
 44
-50.0
173
     0
291
     1
 45
0.0
1001
ACAD
1000
AcDbSavedByObjectVersion
1070
     0
  0
VISUALSTYLE
  5
41
102
{ACAD_XDICTIONARY
360
157C
102
}
102
{ACAD_REACTORS
330
29
102
}
330
29
100
AcDbVisualStyle
  2
EdgeColorOff
 70
    22
 71
     2
 72
     2
 73
     0
 90
        0
 40
-0.6
 41
-30.0
 62
     5
 63
     7
421
 16777215
 74
     1
 91
        4
 64
     7
 65
   257
 75
     1
175
     1
 42
1.0
 92
        8
 66
     7
 43
1.0
 76
     1
 77
     6
 78
     2
 67
     7
 79
     5
170
     0
171
     0
290
     0
174
     0
 93
        1
 44
0.0
173
     0
291
     1
 45
0.0
1001
ACAD
1000
AcDbSavedByObjectVersion
1070
     0
  0
VISUALSTYLE
  5
38
102
{ACAD_XDICTIONARY
360
156A
102
}
102
{ACAD_REACTORS
330
29
102
}
330
29
100
AcDbVisualStyle
  2
Facepattern
 70
    15
 71
     2
 72
     2
 73
     0
 90
        0
 40
-0.6
 41
-30.0
 62
     5
 63
     7
421
 16777215
 74
     1
 91
        4
 64
     7
 65
   257
 75
     1
175
     1
 42
1.0
 92
        8
 66
     7
 43
1.0
 76
     1
 77
     6
 78
     2
 67
     7
 79
     5
170
     0
171
     0
290
     0
174
     0
 93
        1
 44
0.0
173
     0
291
     1
 45
0.0
1001
ACAD
1000
AcDbSavedByObjectVersion
1070
     0
  0
VISUALSTYLE
  5
2A
102
{ACAD_XDICTIONARY
360
154E
102
}
102
{ACAD_REACTORS
330
29
102
}
330
29
100
AcDbVisualStyle
  2
Flat
 70
     0
 71
     2
 72
     1
 73
     1
 90
        2
 40
-0.6
 41
30.0
 62
     5
 63
     7
421
 16777215
 74
     0
 91
        0
 64
     7
 65
   257
 75
     1
175
     1
 42
1.0
 92
        8
 66
     7
 43
1.0
 76
     1
 77
     6
 78
     2
 67
     7
 79
     5
170
     0
171
     0
290
     0
174
     0
 93
       13
 44
0.0
173
     0
291
     1
 45
0.0
1001
ACAD
1000
AcDbSavedByObjectVersion
1070
     0
  0
VISUALSTYLE
  5
2B
102
{ACAD_XDICTIONARY
360
1550
102
}
102
{ACAD_REACTORS
330
29
102
}
330
29
100
AcDbVisualStyle
  2
FlatWithEdges
 70
     1
 71
     2
 72
     1
 73
     1
 90
        2
 40
-0.6
 41
30.0
 62
     5
 63
     7
421
 16777215
 74
     1
 91
        0
 64
     7
 65
   257
 75
     1
175
     1
 42
1.0
 92
        0
 66
   257
 43
1.0
 76
     1
 77
     6
 78
     2
 67
     7
 79
     5
170
     0
171
     0
290
     0
174
     0
 93
       13
 44
0.0
173
     0
291
     1
 45
0.0
1001
ACAD
1000
AcDbSavedByObjectVersion
1070
     0
  0
VISUALSTYLE
  5
2C
102
{ACAD_XDICTIONARY
360
1552
102
}
102
{ACAD_REACTORS
330
29
102
}
330
29
100
AcDbVisualStyle
  2
Gouraud
 70
     2
 71
     2
 72
     2
 73
     1
 90
        2
 40
-0.6
 41
30.0
 62
     5
 63
     7
421
 16777215
 74
     0
 91
        0
 64
     7
 65
   257
 75
     1
175
     1
 42
1.0
 92
        0
 66
     7
 43
1.0
 76
     1
 77
     6
 78
     2
 67
     7
 79
     5
170
     0
171
     0
290
     0
174
     0
 93
       13
 44
0.0
173
     0
291
     1
 45
0.0
1001
ACAD
1000
AcDbSavedByObjectVersion
1070
     0
  0
VISUALSTYLE
  5
2D
102
{ACAD_XDICTIONARY
360
1554
102
}
102
{ACAD_REACTORS
330
29
102
}
330
29
100
AcDbVisualStyle
  2
GouraudWithEdges
 70
     3
 71
     2
 72
     2
 73
     1
 90
        2
 40
-0.6
 41
30.0
 62
     5
 63
     7
421
 16777215
 74
     1
 91
        0
 64
     7
 65
   257
 75
     1
175
     1
 42
1.0
 92
        0
 66
   257
 43
1.0
 76
     1
 77
     6
 78
     2
 67
     7
 79
     5
170
     0
171
     0
290
     0
174
     0
 93
       13
 44
0.0
173
     0
291
     1
 45
0.0
1001
ACAD
1000
AcDbSavedByObjectVersion
1070
     0
  0
VISUALSTYLE
  5
31
102
{ACAD_XDICTIONARY
360
155C
102
}
102
{ACAD_REACTORS
330
29
102
}
330
29
100
AcDbVisualStyle
  2
Hidden
 70
     6
 71
     1
 72
     2
 73
     2
 90
        0
 40
-0.6
 41
-30.0
 62
     5
 63
     7
421
 16777215
 74
     2
 91
        2
 64
     7
 65
   257
 75
     2
175
     1
 42
40.0
 92
        0
 66
   257
 43
1.0
 76
     1
 77
     6
 78
     2
 67
     7
 79
     3
170
     0
171
     0
290
     0
174
     0
 93
        1
 44
0.0
173
     0
291
     0
 45
0.0
1001
ACAD
1000
AcDbSavedByObjectVersion
1070
     0
  0
VISUALSTYLE
  5
3F
102
{ACAD_XDICTIONARY
360
1578
102
}
102
{ACAD_REACTORS
330
29
102
}
330
29
100
AcDbVisualStyle
  2
JitterOff
 70
    20
 71
     2
 72
     2
 73
     0
 90
        0
 40
-0.6
 41
-30.0
 62
     5
 63
     7
421
 16777215
 74
     1
 91
        4
 64
     7
 65
   257
 75
     1
175
     1
 42
1.0
 92
       10
 66
     7
 43
1.0
 76
     1
 77
     6
 78
     2
 67
     7
 79
     5
170
     0
171
     0
290
     0
174
     0
 93
        1
 44
0.0
173
     0
291
     1
 45
0.0
1001
ACAD
1000
AcDbSavedByObjectVersion
1070
     0
  0
VISUALSTYLE
  5
37
102
{ACAD_XDICTIONARY
360
1568
102
}
102
{ACAD_REACTORS
330
29
102
}
330
29
100
AcDbVisualStyle
  2
Linepattern
 70
    14
 71
     2
 72
     2
 73
     0
 90
        0
 40
-0.6
 41
-30.0
 62
     5
 63
     7
421
 16777215
 74
     1
 91
        4
 64
     7
 65
   257
 75
     7
175
     7
 42
1.0
 92
        8
 66
     7
 43
1.0
 76
     1
 77
     6
 78
     2
 67
     7
 79
     5
170
     0
171
     0
290
     0
174
     0
 93
        1
 44
0.0
173
     0
291
     1
 45
0.0
1001
ACAD
1000
AcDbSavedByObjectVersion
1070
     0
  0
VISUALSTYLE
  5
40
102
{ACAD_XDICTIONARY
360
157A
102
}
102
{ACAD_REACTORS
330
29
102
}
330
29
100
AcDbVisualStyle
  2
OverhangOff
 70
    21
 71
     2
 72
     2
 73
     0
 90
        0
 40
-0.6
 41
-30.0
 62
     5
 63
     7
421
 16777215
 74
     1
 91
        4
 64
     7
 65
   257
 75
     1
175
     1
 42
1.0
 92
        9
 66
     7
 43
1.0
 76
     1
 77
     6
 78
     2
 67
     7
 79
     5
170
     0
171
     0
290
     0
174
     0
 93
        1
 44
0.0
173
     0
291
     1
 45
0.0
1001
ACAD
1000
AcDbSavedByObjectVersion
1070
     0
  0
VISUALSTYLE
  5
33
102
{ACAD_XDICTIONARY
360
1560
102
}
102
{ACAD_REACTORS
330
29
102
}
330
29
100
AcDbVisualStyle
  2
Realistic
 70
     8
 71
     2
 72
     3
 73
     0
 90
        2
 40
-0.6
 41
30.0
 62
     5
 63
     7
421
 16777215
 74
     0
 91
        0
 64
     7
 65
   257
 75
     1
175
     1
 42
1.0
 92
        8
 66
   257
 43
1.0
 76
     1
 77
     6
 78
     2
 67
     7
 79
     3
170
     0
171
     0
290
     0
174
     0
 93
       13
 44
0.0
173
     0
291
     0
 45
0.0
1001
ACAD
1000
AcDbSavedByObjectVersion
1070
     0
  0
VISUALSTYLE
  5
3E
102
{ACAD_XDICTIONARY
360
1576
102
}
102
{ACAD_REACTORS
330
29
102
}
330
29
100
AcDbVisualStyle
  2
Shaded
 70
    27
 71
     2
 72
     2
 73
     1
 90
        2
 40
-0.6
 41
30.0
 62
     5
 63
     7
421
 16777215
 74
     0
 91
        4
 64
     7
 65
   257
 75
     1
175
     1
 42
1.0
 92
        8
 66
   257
 43
1.0
 76
     1
 77
     6
 78
     2
 67
     8
425
  7895160
 79
     3
170
     0
171
     0
290
     0
174
     0
 93
        5
 44
0.0
173
     0
291
     0
 45
0.0
1001
ACAD
1000
AcDbSavedByObjectVersion
1070
     0
  0
VISUALSTYLE
  5
3D
102
{ACAD_XDICTIONARY
360
1574
102
}
102
{ACAD_REACTORS
330
29
102
}
330
29
100
AcDbVisualStyle
  2
Shaded with edges
 70
    26
 71
     2
 72
     2
 73
     1
 90
        2
 40
-0.6
 41
30.0
 62
     5
 63
     7
421
 16777215
 74
     1
 91
       10
 64
     7
 65
   257
 75
     2
175
     1
 42
1.0
 92
        8
 66
   257
 43
1.0
 76
     1
 77
     6
 78
     2
 67
     7
 79
     3
170
     0
171
     0
290
     0
174
     0
 93
        5
 44
0.0
173
     0
291
     0
 45
0.0
1001
ACAD
1000
AcDbSavedByObjectVersion
1070
     0
  0
VISUALSTYLE
  5
3A
102
{ACAD_XDICTIONARY
360
156E
102
}
102
{ACAD_REACTORS
330
29
102
}
330
29
100
AcDbVisualStyle
  2
Shades of Gray
 70
    23
 71
     2
 72
     2
 73
     3
 90
        0
 40
-0.6
 41
-30.0
 62
     5
 63
     7
421
 16777215
 74
     2
 91
        2
 64
     7
 65
     7
 75
     1
175
     1
 42
40.0
 92
        8
 66
     7
 43
1.0
 76
     1
 77
     6
 78
     2
 67
     7
 79
     3
170
     0
171
     0
290
     0
174
     0
 93
        1
 44
0.0
173
     0
291
     0
 45
0.0
1001
ACAD
1000
AcDbSavedByObjectVersion
1070
     0
  0
VISUALSTYLE
  5
3B
102
{ACAD_XDICTIONARY
360
1570
102
}
102
{ACAD_REACTORS
330
29
102
}
330
29
100
AcDbVisualStyle
  2
Sketchy
 70
    24
 71
     1
 72
     2
 73
     2
 90
        0
 40
-0.6
 41
-30.0
 62
     5
 63
     7
421
 16777215
 74
     2
 91
        2
 64
     7
 65
     7
 75
     1
175
     1
 42
40.0
 92
       11
 66
     7
 43
1.0
 76
     1
 77
     6
 78
     2
 67
     7
 79
     6
170
     0
171
     0
290
     0
174
     0
 93
        1
 44
0.0
173
     0
291
     0
 45
0.0
1001
ACAD
1000
AcDbSavedByObjectVersion
1070
     0
  0
VISUALSTYLE
  5
36
102
{ACAD_XDICTIONARY
360
1566
102
}
102
{ACAD_REACTORS
330
29
102
}
330
29
100
AcDbVisualStyle
  2
Thicken
 70
    13
 71
     2
 72
     2
 73
     0
 90
        0
 40
-0.6
 41
-30.0
 62
     5
 63
     7
421
 16777215
 74
     1
 91
        4
 64
     7
 65
   257
 75
     1
175
     1
 42
1.0
 92
       12
 66
     7
 43
1.0
 76
     1
 77
     6
 78
     2
 67
     7
 79
     5
170
     0
171
     0
290
     0
174
     0
 93
        1
 44
0.0
173
     0
291
     1
 45
0.0
1001
ACAD
1000
AcDbSavedByObjectVersion
1070
     0
  0
VISUALSTYLE
  5
30
102
{ACAD_XDICTIONARY
360
155A
102
}
102
{ACAD_REACTORS
330
29
102
}
330
29
100
AcDbVisualStyle
  2
Wireframe
 70
     5
 71
     0
 72
     2
 73
     0
 90
        0
 40
-0.6
 41
-30.0
 62
     5
 63
     7
421
 16777215
 74
     1
 91
        4
 64
     7
 65
   257
 75
     1
175
     1
 42
1.0
 92
        0
 66
   257
 43
1.0
 76
     1
 77
     6
 78
     2
 67
     7
 79
     3
170
     0
171
     0
290
     0
174
     0
 93
        1
 44
0.0
173
     0
291
     0
 45
0.0
1001
ACAD
1000
AcDbSavedByObjectVersion
1070
     0
  0
VISUALSTYLE
  5
3C
102
{ACAD_XDICTIONARY
360
1572
102
}
102
{ACAD_REACTORS
330
29
102
}
330
29
100
AcDbVisualStyle
  2
X-Ray
 70
    25
 71
     2
 72
     2
 73
     1
 90
        1
 40
0.5
 41
-30.0
 62
     5
 63
     7
421
 16777215
 74
     1
 91
        0
 64
     7
 65
   257
 75
     1
175
     1
 42
1.0
 92
        8
 66
     7
 43
1.0
 76
     1
 77
     6
 78
     2
 67
     7
 79
     3
170
     0
171
     0
290
     0
174
     0
 93
       13
 44
0.0
173
     0
291
     0
 45
0.0
1001
ACAD
1000
AcDbSavedByObjectVersion
1070
     0
  0
DICTIONARYVAR
  5
79
102
{ACAD_REACTORS
330
76
102
}
330
76
100
DictionaryVariables
280
     0
  1
1:1
  0
DICTIONARYVAR
  5
78
102
{ACAD_REACTORS
330
76
102
}
330
76
100
DictionaryVariables
280
     0
  1
STANDARD
  0
DICTIONARYVAR
  5
77
102
{ACAD_REACTORS
330
76
102
}
330
76
100
DictionaryVariables
280
     0
  1
STANDARD
  0
DICTIONARYVAR
  5
1541
102
{ACAD_REACTORS
330
76
102
}
330
76
100
DictionaryVariables
280
     0
  1
0
  0
DICTIONARYVAR
  5
1542
102
{ACAD_REACTORS
330
76
102
}
330
76
100
DictionaryVariables
280
     0
  1
0
  0
DICTIONARYVAR
  5
1540
102
{ACAD_REACTORS
330
76
102
}
330
76
100
DictionaryVariables
280
     0
  1
2
  0
DICTIONARYVAR
  5
153F
102
{ACAD_REACTORS
330
76
102
}
330
76
100
DictionaryVariables
280
     0
  1
1
  0
DICTIONARYVAR
  5
1543
102
{ACAD_REACTORS
330
76
102
}
330
76
100
DictionaryVariables
280
     0
  1
2
  0
DICTIONARY
  5
1A
330
19
100
AcDbDictionary
280
     1
281
     1
  3
ACAD_XREC_ROUNDTRIP
360
154C
  3
BUMPTILE
360
1C
  3
DIFFUSETILE
360
1B
  3
OPACITYTILE
360
1F
  3
REFLECTIONTILE
360
1E
  3
REFRACTIONTILE
360
20
  3
SPECULARTILE
360
1D
  0
DICTIONARY
  5
12
330
11
100
AcDbDictionary
280
     1
281
     1
  3
ACAD_XREC_ROUNDTRIP
360
154B
  3
BUMPTILE
360
14
  3
DIFFUSETILE
360
13
  3
FBXASSET
360
F5
  3
OPACITYTILE
360
17
  3
REFLECTIONTILE
360
16
  3
REFRACTIONTILE
360
18
  3
SPECULARTILE
360
15
  0
DICTIONARY
  5
22
330
21
100
AcDbDictionary
280
     1
281
     1
  3
ACAD_XREC_ROUNDTRIP
360
154D
  3
BUMPTILE
360
24
  3
DIFFUSETILE
360
23
  3
FBXASSET
360
BA
  3
OPACITYTILE
360
27
  3
REFLECTIONTILE
360
26
  3
REFRACTIONTILE
360
28
  3
SPECULARTILE
360
25
  0
DICTIONARY
  5
1546
330
67
100
AcDbDictionary
280
     1
281
     1
  3
ACAD_XREC_ROUNDTRIP
360
1547
  0
DICTIONARY
  5
1544
330
65
100
AcDbDictionary
280
     1
281
     1
  3
ACAD_ROUNDTRIP_2008_TABLESTYLE_CELLSTYLEMAP
360
1545
  3
ACAD_XREC_ROUNDTRIP
360
157E
  0
DICTIONARY
  5
1558
330
2F
100
AcDbDictionary
280
     1
281
     1
  3
ACAD_XREC_ROUNDTRIP
360
1559
  0
DICTIONARY
  5
1556
330
2E
100
AcDbDictionary
280
     1
281
     1
  3
ACAD_XREC_ROUNDTRIP
360
1557
  0
DICTIONARY
  5
1564
330
35
100
AcDbDictionary
280
     1
281
     1
  3
ACAD_XREC_ROUNDTRIP
360
1565
  0
DICTIONARY
  5
156C
330
39
100
AcDbDictionary
280
     1
281
     1
  3
ACAD_XREC_ROUNDTRIP
360
156D
  0
DICTIONARY
  5
155E
330
32
100
AcDbDictionary
280
     1
281
     1
  3
ACAD_XREC_ROUNDTRIP
360
155F
  0
DICTIONARY
  5
1562
330
34
100
AcDbDictionary
280
     1
281
     1
  3
ACAD_XREC_ROUNDTRIP
360
1563
  0
DICTIONARY
  5
157C
330
41
100
AcDbDictionary
280
     1
281
     1
  3
ACAD_XREC_ROUNDTRIP
360
157D
  0
DICTIONARY
  5
156A
330
38
100
AcDbDictionary
280
     1
281
     1
  3
ACAD_XREC_ROUNDTRIP
360
156B
  0
DICTIONARY
  5
154E
330
2A
100
AcDbDictionary
280
     1
281
     1
  3
ACAD_XREC_ROUNDTRIP
360
154F
  0
DICTIONARY
  5
1550
330
2B
100
AcDbDictionary
280
     1
281
     1
  3
ACAD_XREC_ROUNDTRIP
360
1551
  0
DICTIONARY
  5
1552
330
2C
100
AcDbDictionary
280
     1
281
     1
  3
ACAD_XREC_ROUNDTRIP
360
1553
  0
DICTIONARY
  5
1554
330
2D
100
AcDbDictionary
280
     1
281
     1
  3
ACAD_XREC_ROUNDTRIP
360
1555
  0
DICTIONARY
  5
155C
330
31
100
AcDbDictionary
280
     1
281
     1
  3
ACAD_XREC_ROUNDTRIP
360
155D
  0
DICTIONARY
  5
1578
330
3F
100
AcDbDictionary
280
     1
281
     1
  3
ACAD_XREC_ROUNDTRIP
360
1579
  0
DICTIONARY
  5
1568
330
37
100
AcDbDictionary
280
     1
281
     1
  3
ACAD_XREC_ROUNDTRIP
360
1569
  0
DICTIONARY
  5
157A
330
40
100
AcDbDictionary
280
     1
281
     1
  3
ACAD_XREC_ROUNDTRIP
360
157B
  0
DICTIONARY
  5
1560
330
33
100
AcDbDictionary
280
     1
281
     1
  3
ACAD_XREC_ROUNDTRIP
360
1561
  0
DICTIONARY
  5
1576
330
3E
100
AcDbDictionary
280
     1
281
     1
  3
ACAD_XREC_ROUNDTRIP
360
1577
  0
DICTIONARY
  5
1574
330
3D
100
AcDbDictionary
280
     1
281
     1
  3
ACAD_XREC_ROUNDTRIP
360
1575
  0
DICTIONARY
  5
156E
330
3A
100
AcDbDictionary
280
     1
281
     1
  3
ACAD_XREC_ROUNDTRIP
360
156F
  0
DICTIONARY
  5
1570
330
3B
100
AcDbDictionary
280
     1
281
     1
  3
ACAD_XREC_ROUNDTRIP
360
1571
  0
DICTIONARY
  5
1566
330
36
100
AcDbDictionary
280
     1
281
     1
  3
ACAD_XREC_ROUNDTRIP
360
1567
  0
DICTIONARY
  5
155A
330
30
100
AcDbDictionary
280
     1
281
     1
  3
ACAD_XREC_ROUNDTRIP
360
155B
  0
DICTIONARY
  5
1572
330
3C
100
AcDbDictionary
280
     1
281
     1
  3
ACAD_XREC_ROUNDTRIP
360
1573
  0
XRECORD
  5
154C
102
{ACAD_REACTORS
330
1A
102
}
330
1A
100
AcDbXrecord
280
     1
102
MATERIAL
148
0.0
149
0.0
149
0.0
 93
        0
 94
      127
282
     0
 72
     0
 77
     0
171
     0
175
     0
179
     0
273
     0
  0
XRECORD
  5
1C
102
{ACAD_REACTORS
330
1A
102
}
330
1A
100
AcDbXrecord
280
     1
270
     1
271
     1
  0
XRECORD
  5
1B
102
{ACAD_REACTORS
330
1A
102
}
330
1A
100
AcDbXrecord
280
     1
270
     1
271
     1
  0
XRECORD
  5
1F
102
{ACAD_REACTORS
330
1A
102
}
330
1A
100
AcDbXrecord
280
     1
270
     1
271
     1
  0
XRECORD
  5
1E
102
{ACAD_REACTORS
330
1A
102
}
330
1A
100
AcDbXrecord
280
     1
270
     1
271
     1
  0
XRECORD
  5
20
102
{ACAD_REACTORS
330
1A
102
}
330
1A
100
AcDbXrecord
280
     1
270
     1
271
     1
  0
XRECORD
  5
1D
102
{ACAD_REACTORS
330
1A
102
}
330
1A
100
AcDbXrecord
280
     1
270
     1
271
     1
  0
XRECORD
  5
154B
102
{ACAD_REACTORS
330
12
102
}
330
12
100
AcDbXrecord
280
     1
102
MATERIAL
148
0.0
149
0.0
149
0.0
 93
        0
 94
      127
282
     0
 72
     0
 77
     0
171
     0
175
     0
179
     0
273
     0
  0
XRECORD
  5
14
102
{ACAD_REACTORS
330
12
102
}
330
12
100
AcDbXrecord
280
     1
270
     1
271
     1
  0
XRECORD
  5
13
102
{ACAD_REACTORS
330
12
102
}
330
12
100
AcDbXrecord
280
     1
270
     1
271
     1
  0
XRECORD
  5
F5
102
{ACAD_REACTORS
330
12
102
}
330
12
100
AcDbXrecord
280
     1
 70
     1
 90
1959938040
 71
     1
  1
0EC566A9-C3D3-476D-85BC-1651E7115E8F
311
504B03040A0000080000DA3AB1423DEE336E79000000790000001B0000006175746F6465736B2D64657369676E2D7061636B6167652E786D6C3C3F786D6C2076657273696F6E3D22312E302220656E636F64696E673D227574662D3822203F3E3C666F726D6174733E3C666F726D61743E687474703A2F2F736368656D612E
311
6175746F6465736B2E636F6D2F64657369676E2D7061636B6167652F323030393C2F666F726D61743E3C2F666F726D6174733E504B0304140006080800DA3AB142D486FD9CA0000000F4000000130000005B436F6E74656E745F54797065735D2E786D6C7D8EC10E82300C865F65E91D8A1E8C310C0EEA1BF002731658846E
311
D98AC1B77784ABF1D8FE5FBFBF75BBCE937A534CCEB38643598122B6FEE978D0B0485F9C41B54DDD7D022595594E1A469170414C76A4D9A4D207E29CF43ECE46F218070CC6BECC4078ACAA135ACF422C856C0E68EA1BF5669944DDD7BCDE7B1F8E415D77AECB980613C2E4AC91FC167A2B244592486606FC29C8FD7F045B9A
311
EF7053A7E60B504B0304140006080800DA3AB14217F90CD4EA0000007C01000008000000636F72652E786D6C8D904D6EC3201085AF82D856D8FC18BBB530514D8FD00B20431C94182C03558F5F9C3852BBEB6A466FDE37337AE2F4BDDCC097DDA20B7E80A4C210583F05E3FC3CC09CCEE8158293145B08E9970D02AF173BC0
311
5D8652CC5BC8EB214DC127EB53517D30F610758C364130DD4A33C0385DECA22B9D5371C46BB5EAE9AA675B916757E09C9D018F23CE947DEEECEC06257FE78C12DEA0EE8D29D47C8C148DAD528813A5D4D834AC6D4751EFB014C92DCFFBD36675B2064A8A09439823D27DE2AEA7B4E7EC05F39E6151EFF63F505ECD3FA1EC7C
311
62F478F78145284979E43E90A2DEB328E51E54A97B6EF207504B0304140006080800DA3AB14255019EA25F0000007C00000007000000636E782E786D6C4DCB3B0E80201045D1AD90E915ED2CF8AC45050C11660C8261F98AB1B07AC9C97D42D718D865D3E909258CFD00CCE24AC6E326A164D74DC0B4128928FF326038472B
311
A13128B1252AC747C6BAB984FC68F0B87FE8960A5C09FE86CFB69FBA01504B0304140006080800DA3AB14296A02B4F66010000020300000C0000006662782F636F72652E786D6C8D525B6E833010BC8AE5DF0ACC336923E3A8D023F4028E71280AD8C80F94E37779443455144548C69AD9D99D1DA0C76BDFA1511ADB6A55E0
311
388C30924AE8BA554D81BD3B07EF181D19355ABB3F651829DECB024F3066B431DA0F2B24B47252394095AEE50A726BA5C348747029B0153FB2E721F70E2AEC251CB8B8F04686710834D4316A9D01036819329D989D4F574A169C51EFDB7A65DB1AA6B5E7561ACCF2CF3C4DE23C0BF61F6915645F651294BBAA0AF2B8AAAA32
311
CBD2DDAEA4641233EADAFEE64E18C99DAC314BA2380DA23C88F7DFD1FE9024873C7D8BF2431A513295DF89FC50BF28F2AD7269B2DA5D6416B3188CCCC4BF6D2122872C1FC10F61944C21C26B4EF83E6808044276FCD4DDF6B800344AE1B4C980A9B5DFA891775EC2D408CD0F250B0B9DE706B0D9C33EC9933ECF7BC007E4AA
311
016BDCC1F5E4DD349D2E53D728066982D15D91D2A6E7DD666EB1B89DDBA08772A13B6D5E51937555B28649A6BF97FD02504B0304140006080800DA3AB14272DCA8A77D0000009D0000000B0000006662782F636E782E786D6C4DCCD10AC2201886E15B91FFDC66E42F13D4B15917329A1B92D3308D2EBF2D76D0D1070F1FAF
311
EA3E6B206F975F3E450DE71303E2E23D4D3E2E1A6A99690BA4332AA754FE6E40E2B83A0D3B83514B4EF579D0E4E6B186B269F0F171608F6C90D60A7A432E286F71A0D2624FED857121246368AFD018D5FC4ADBEE61F305504B0304140006080800DA3AB142C116C7942B01000014020000310000006662782F413530423943
311
43362D453534362D343835422D394335412D4333303436363930303543442F636F72652E786D6C8D515B6EC32010BC0AE22B55850DB6210F61A2C4ED0D7A018249821283C5A3CAF18B6B476AFFF2C3A2D999D9D12EDF3F863BF8D63E18675B480A0C81B6CAF5C65E5A98E2196D20D80BEE9D8B7F68105839E8164E3014FCE2
311
5D1A1748391BB58D19B5AED70B2843D0110275CF9F160675D5832C648A99116EC528D54D5E74418ADCCE3CC143F4390098874C2F14078A8FDBAE63E893360C351B7A44DB8E1E5057E386B12DC6B4FBE0E52C143C25D32F72D3E738E66CB47FD564120B1ECDF08CAFBC9651F7505498D4085344D65F78BDABAA1DADDF31DDD5
311
989713FD9F288DFD8BA2646CACAB25EE2C0B50105ECE0DC17B974EF76718FD189D8F609AB70A5ABD41810B4C2A420961BC9CA97901D993358B6788CEE705AF6EA7CC267436668DE0E574A35C7E0F98EB744FF103504B0304140006080800DA3AB142B34E53654F01000033030000300000006662782F41353042394343362D
311
453534362D343835422D394335412D4333303436363930303543442F636E782E786D6CD593BB6E032110457F05D146FBF2FA11592C9652E40B52A465611C13B3B0E211C57F9FC1C68E1B1729D3A0D59DCBBDA32396EDBE2743BEC007EDEC40BBBAA504AC744ADB8F81A6B8AF9E29D971E69D8B77364AAC9860A059A69C7D78
311
97E62229D88B6422AA46DB63113D0497BC848072BE498C93C26000D82AA108D3084A812237237EEDC1E32A288E27120F405E5FDE891B3F41C6C09A9CC259933B38CB6769BA3351228D0861A0411E6012B548D12908C75A8928EAAEBE763DD8E93789E40BD7CAE435C9E503CD27E565A31A39B206879C85E8915E31C5D30C94
311
8B79365A8A88909BB3F1E2E12C691BD7CBE2D508DEA3BB5BF7CB25869D679C453D4171480F2282A27CD1767DD5AEAA6EF3D66EB68BC576D53FB5AB6DDFB226DB391B9D33E512C680773391CE46B091F28E3579FC085FF111A53DB276FEF4079008A0B45EE8DC32FE339FE6FCBE1197C7BF80FF00504B0304140006080800DA
311
3AB142275C84CAA405000081100000340000006662782F41353042394343362D453534362D343835422D394335412D4333303436363930303543442F6F626A656374732E786D6CAD57D96EDB3814FD1541F332F3E045DE9A0C1415899D14469BB6A8D1621E0C18B444299C500B482A75E6EBE750A464C9B113CFA02F5AB85C
311
DE7BEEB90BFDF7BB943B4F5448966757AED71FBA0ECDC23C625972E5962AEE5DB8CEFBC01779AE5ACB5C272329BD72F5B01BF889C8CBC20E453426255707A377377F3932A419759D901329AF5C193ED094F449A9F288CAC77E4414E927F1AEEFF5CDC2AED84490E2E140684104CD1434C57806298E51CAEBFE0EDD41E00FF4
311
7CE0EBA75D353EBD6A50D9D33D9F6552912C7C71D88198B13759DC8EA697BDE96432EE4D6623AF777377B3E879EFC6C3F96C3EBFBCBEBDC4C1520948B29A081ABBC107602358E80FCC54E0972C53E3915D621D3410F489694FB9C1C8F1FC8159D358678D3CA67E9867190D2BAC8046659F151DD18266117CCEA884662D8486
311
DD5F4FE3D89A1EEB7F7B647BF83C04DA3B5A826ADDEB775BD37CFB374C90E7304848AA1968B0B4861AAE0EF7086FF39CDB39269D94282A18E10E675B41C4B31B60A95E12F81D319AC9424783B6C00DE00533DDA50BC2E86D9E1FD3322E39D73476832A0A368815AA64A519FB878ABDF66D64A0137CA5D970610D52CF057583
311
4B43918B033619209D9893042E87997AE7787460E85CC7E972E1061FEFB6BB958EDDE38717222FA8509A3EA056EDB8FAAD51B23A7967794E6F700F54D983F20DC87F46A8EF5581DF04DB4D76137B8A122493712E52F8C6193ABD211E43C7AB9EFABBF5E50F9ACD5DEF9DC213CED650FD023CBB36B47DD98233F09F40F85C8C
311
AD69AB9070A48D7B9601204D1287E718421E8EB73B375822CB212B6317E1810793A1EE133EFD81158344519DD47A67C0F2202D9E91A0015BC548A861C86F15DCFBE9453AAB0EB6CB4EC13BFD2574BD5EAC3EAE4A119390DEDB985ED098654CA1C4ED79D356A88379C7A247FAFC3317110C7D89F7AA8D776A8F92405B63AE81
311
4FEA9CAE7FF627770E08B12FC975BAF1DF380146E8C2DA927FCF6448392719CDCBFADC57EB07CA86815807BB66725360F68505A43133073188221D0A5668109B6AD524CDFE09EBBE2F3F83916E70F3FC893CB7B3D7769F7BC39CE762B37DDE98B47414EA1F5D6E5B0C065A0AE85E05491DFF16F44DC4E2B89448824770FDB1
311
9CB77DA7D30252442DD544CB04F623B888B0A4ADE5A25A0B824A9A671B86BA89B83B7A405B3E20B50CA8049ED258521E6F18E765BA89194735DAA4A43801C7FFD77F5BA6C586A47999A913B23BAAA33A7475EFB057FE242A7C708355F5EEDD20F746343A41065D4B8E60D571EDF0763E9DCDAE2F7BF3F102FDD3BBD9A27731
311
BD99F7BCD9D4BB7DE779D3DB8BBBDA4F4693C0AF4B4D3BA2E1259436BF14CCBAEFFB12F16393801BDC1325D71F4C78D6EFEFCB3E7A617F803DA897CDC6EBE8097D1F8DDE16B05F7954D0322D384D69A6888EA17BFDC1BF11F4191D65CCF83225093D43CA970FAB03633072C6BEAF3ADEE9CF83BD7674AE03F2A810F550A6DB
311
8C307EB0313148F68B2CB1F8D53E69DEA6D0D4BFFACF3A069DA9CC398B90072327A1794A15B2E1194548A454827AED9E3EB2778F33763F990E51912DA7B5260F044D3297080B50AB0C5577DCF90D4D9DEEABAE5C94DBFE231E3653B80E3873E5A249572CA4B2BF4581D6AD50251C5C6A77F268FC499670F4DA6653F3DFECD2
311
D8744A72B3E49CFEC9DA6552B8350069A440DF808608DEA99409FC4A373B1FFE27C36B751CA2F0B92D5563CB7EA031A63A06216A8CB2B70534318FF6E81D02F575B3BC7EB5A683C859B7AC574960A4F61411497553D0FA5995AE175F07E8509CE517A7E065025F9E2FA92728C85CEA00078BC00A2BB3200A549DFFB9FE2A72
311
DC6453E78E8102CEEFBB8BD91FEB799EA6796686D6D7F63EECAC1E70BB8DD6480E545F4BE47A34F446EBEA3A606F289B2D91B44F22F988017856B006E88EFBC14B7367441D3213CDBA8176C50143970BC716B609845ABAB473AB06078D47461DC490BE52EA88692F285EBD110CAAA55041A0970FFE05504B03041400060800
311
00DA3AB142000000000000000000000000350000006662782F41353042394343362D453534362D343835422D394335412D4333303436363930303543442F76657274696365732E62696E504B0304140006080800DA3AB142F270F1330600000004000000360000006662782F41353042394343362D453534362D343835422D
311
394335412D4333303436363930303543442F747269616E676C65732E62696E636660600000504B0304140006080000DA3AB142000000000000000000000000370000006662782F41353042394343362D453534362D343835422D394335412D4333303436363930303543442F617474726962757465732E62696E504B030414
311
0006080800DA3AB142D5987DFC8F00000041010000360000006662782F41353042394343362D453534362D343835422D394335412D4333303436363930303543442F6469726563746F72792E786D6C858F410EC2201045AF4266AF15DDB800BA74E7C21B903225242D6328188F2FA5C4183471359997F9FF81E89FF3C41E18
311
16475E02DF1F80A11FC8386F25A438EECEC07A250251FC3803E6F58C12560C4AD840E95E91C151A72936F496F35732D860FE635F62C8F2DA16B505C545B74125BAA2FA9E05D7CC053D063734D5C7665FD55B6B8D15D5E9BFEAFD8490FFA45E504B0304140006080800DA3AB142C897C66CFD000000A00100003B0000006662
311
782F41353042394343362D453534362D343835422D394335412D4333303436363930303543442F7265736F75726365732F636F72652E786D6C8D504B6EC32010BD8A35DB0ADB40B0DB0813D5EE117A0184272E4A0C119FAAC72F4E5CA9DD7533337A1FCDD393A7AFF55A7D6288D6BB0168DD4285CEF8D9BA65809CCEE419AA
311
9392C1FBF44B0695D32B0EB0C1A0E4127CBEED90F12EA14B05757EC61DD4316282CA5CCB3140341FB8EA5AE75414F152DFB4B9E8056B5A17BAE8948C299400D5E3C93641058C3E078351360F56C99CEDBC6BEC5C7EDAB3C5004ABC0ACEA8E0A47FE11339BC8D8C8CDD341141A7691A0F07DE75A36C36B392C9AE3F194D409D
311
7006C55ACA492B08EDDFDBFEC8D851F0A7561C792B9B4DFEC7946FF33F4DD9BAC4D91EF7618BA068097227946CB6BECABA9759F6D6ADFA06504B010214000A0000080000DA3AB1423DEE336E79000000790000001B00000000000000000000000000000000006175746F6465736B2D64657369676E2D7061636B6167652E78
311
6D6C504B01021400140006080800DA3AB142D486FD9CA0000000F40000001300000000000000000000000000B20000005B436F6E74656E745F54797065735D2E786D6C504B01021400140006080800DA3AB14217F90CD4EA0000007C010000080000000000000000000000000083010000636F72652E786D6C504B01021400
311
140006080800DA3AB14255019EA25F0000007C000000070000000000000000000000000093020000636E782E786D6C504B01021400140006080800DA3AB14296A02B4F66010000020300000C00000000000000000000000000170300006662782F636F72652E786D6C504B01021400140006080800DA3AB14272DCA8A77D00
311
00009D0000000B00000000000000000000000000A70400006662782F636E782E786D6C504B01021400140006080800DA3AB142C116C7942B0100001402000031000000000000000000000000004D0500006662782F41353042394343362D453534362D343835422D394335412D4333303436363930303543442F636F72652E
311
786D6C504B01021400140006080800DA3AB142B34E53654F010000330300003000000000000000000000000000C70600006662782F41353042394343362D453534362D343835422D394335412D4333303436363930303543442F636E782E786D6C504B01021400140006080800DA3AB142275C84CAA4050000811000003400
311
000000000000000000000000640800006662782F41353042394343362D453534362D343835422D394335412D4333303436363930303543442F6F626A656374732E786D6C504B01021400140006080000DA3AB14200000000000000000000000035000000000000000000000000005A0E00006662782F41353042394343362D
311
453534362D343835422D394335412D4333303436363930303543442F76657274696365732E62696E504B01021400140006080800DA3AB142F270F13306000000040000003600000000000000000000000000AD0E00006662782F41353042394343362D453534362D343835422D394335412D4333303436363930303543442F
311
747269616E676C65732E62696E504B01021400140006080000DA3AB1420000000000000000000000003700000000000000000000000000070F00006662782F41353042394343362D453534362D343835422D394335412D4333303436363930303543442F617474726962757465732E62696E504B01021400140006080800DA
311
3AB142D5987DFC8F0000004101000036000000000000000000000000005C0F00006662782F41353042394343362D453534362D343835422D394335412D4333303436363930303543442F6469726563746F72792E786D6C504B01021400140006080800DA3AB142C897C66CFD000000A00100003B0000000000000000000000
311
00003F1000006662782F41353042394343362D453534362D343835422D394335412D4333303436363930303543442F7265736F75726365732F636F72652E786D6C504B0506000000000E000E0080040000951100000000
310
504B03040A0000080000DA3AB1423DEE336E79000000790000001B0000006175746F6465736B2D64657369676E2D7061636B6167652E786D6C3C3F786D6C2076657273696F6E3D22312E302220656E636F64696E673D227574662D3822203F3E3C666F726D6174733E3C666F726D61743E687474703A2F2F736368656D612E
310
6175746F6465736B2E636F6D2F64657369676E2D7061636B6167652F323030393C2F666F726D61743E3C2F666F726D6174733E504B0304140006080800DA3AB142D486FD9CA0000000F4000000130000005B436F6E74656E745F54797065735D2E786D6C7D8EC10E82300C865F65E91D8A1E8C310C0EEA1BF002731658846E
310
D98AC1B77784ABF1D8FE5FBFBF75BBCE937A534CCEB38643598122B6FEE978D0B0485F9C41B54DDD7D022595594E1A469170414C76A4D9A4D207E29CF43ECE46F218070CC6BECC4078ACAA135ACF422C856C0E68EA1BF5669944DDD7BCDE7B1F8E415D77AECB980613C2E4AC91FC167A2B244592486606FC29C8FD7F045B9A
310
EF7053A7E60B504B0304140006080800DA3AB142B1C42045EC0000007C01000008000000636F72652E786D6C8D904D6EC3201085AF82665B6183FF625B98286D9213F402088883128365A0EAF18B13476A775DCDE8CDFB66468FEDBFA73BFAD28B37CE0E403302485BE994B1E300315C700B68CFD9E25CF8650364C5A40758
310
65E06C5C5C9C37493A1BB40D49B54EE94D14DEEB0048DE53338097573D894CC4901CFE96CD42DEC4A833FAEA121CA351E879C4A8B4CF5C8C5E80577477387E9C3B4C4FA7125787A6C56D411ADC74EF6DD791BAAB8E6796AF3067C14CAFFB72D1226805BC20B4C4A4C674F749767D51F475F946EABE242C5FED7FA038AB7F42
310
D1D85016DBBB4FCC03A7E991C780B37CCD22954750A9AEB9F11F504B0304140006080800DA3AB14255019EA25F0000007C00000007000000636E782E786D6C4DCB3B0E80201045D1AD90E915ED2CF8AC45050C11660C8261F98AB1B07AC9C97D42D718D865D3E909258CFD00CCE24AC6E326A164D74DC0B4128928FF326038
310
472BA13128B1252AC747C6BAB984FC68F0B87FE8960A5C09FE86CFB69FBA01504B0304140006080800DA3AB14298C6F5E768010000020300000C0000006662782F636F72652E786D6C8D52ED8E8230107C95A67F2FD0F2A5604A8D77EA13DC0B54A81C115A525AE2E3DFF2613C2FC61892D2CCECECCE0EB0EDB56DD0204D5F
310
6B95E3C0A7184955E8B256558E9D3D7B29465BCE8CD6F64F19464AB432C7238C39AB8C76DD02155A59A92CA04A97720145DF4B8B51D1C025C77DF1235BE10B67A1A2BFF89D282EA2927EE0030D759CF5D68001340F194FCCCFA72B2333CE997375B9B07509D3EA732D0DE671B0DEEDBF8E99171C0E9117EF56A9978674E5AD
310
B2CF34CB6892C5FB2323A398335BB737778591C2CA12F390069147132F587FD3F5260C3749F441934D441919CB1F44AE2BDF14B95AD9285CECCEB21EF3008C4CC4BF6D21228B7A31801FC219194384D794F063D01008846CC5A9B9ED7101689085D52606A6D4EE4E0DA27112A652343D8CCC2C749E1AC0664FFB842FFABCEE
310
011F50A80AAC090BD793B3E374364F5DA2E8A4F1067B454A9B56347773B3C5FB791FF4545EE8469B77D46459952C6192F1EFE5BF504B0304140006080800DA3AB142D9D100027C0000009D0000000B0000006662782F636E782E786D6C4DCCED0A83201805E05B91F7BF951F81033516B8FB886521330DA7B1CB9F8D7E0C0E
310
1C78381C397C368F0E9BDE2E0605A4E900D9F08CB30BAB8292172C000D5AA618F3DF0C509836ABE064D0724DB1EC17CD76998ACF55BD0BAF0BC96D34A4A71C13D619CC9930588C8C622A7A6E788DB83FA0D5B2FD3DD53E8FF517504B0304140006080800DA3AB142962E49CF2A01000014020000310000006662782F313942
310
45313532342D313330452D343338452D384233322D3238353445343445343841462F636F72652E786D6C8D515B6AC33010BC8AD1574AB1AD87EDB8415668C03D412FE0588A2B124B468F92E377553BD0FE058456CCCECC0E5A7EBCCFB7EC5B39AFADE9102930CA9419ADD466EA500C97BC45D95170676DF84343991966D5A1
310
0423C12767E3B241A335419900A8B1526DE0E0BD0A281B6FF0E8901FBFD43C14430CC0F0D76219C6EB30A98214D0069EE03E380890AD43D28D04793BF5A4A6554E18EEF38AB57DDE9E18CD695B577D05A77DFFE0E52A143C462D37B99610475FB472CF9A24B1E041CF8FF8A353435012098A09CB719D93FD27DE1F283DD4EC
310
15D707867999E8FF4471914F8AA23681D12DEE2AF39095976B437069E3F9F608A3EE8B75214BF3765E8D2F48E00213DAE08636BC5CA9F001E0D9549BA70FD6C107EFAE676033B21A3795E065DA1194DF05424DFB143F504B0304140006080800DA3AB142D5E99C725501000033030000300000006662782F31394245313532
310
342D313330452D343338452D384233322D3238353445343445343841462F636E782E786D6CBD93CD6EC32010845F0571ADFC9F3F4598483DF4097AE815C3A6A1C16001AE9AB7EF929034971C2A55BD206B7698597DC26CF7351AF2093E68677BDA94352560A553DABEF7748EFB6243C98E33EF5CBCB35162C5083D4D32E5EC
310
DDBB79CA9282BD984D44D5687BCCA287E0662F21A09C6E12E3A4301800B69851847100A540919B11BFF6E071151487138907202FCF6FC40D1F206360554AE1AC4A1D9CA53337DD9928914684D0D3200F308A52CCD12908C7528928CAA6BC763DD8E92789A40BD7CAD96B92CA7B9A4ECAF346257264150E390BD123BD6C8AA7
310
092817D364B41411215767E3C5C3D9AC6D5C2DB25723788FEEAE5D6D3618769E7116F508D9213D88088AF2B66EBAA25E16CDFAB55E6FDB76BBEC9EEAE5B6AB5995EC9C0DCE997C0963C0BB89486723D84879C3AA347E842FFB88D21E593B7FFA054804905B2F746E197FC9A759758BC53FF2A9CEEF1B7179FC0BF837504B03
310
04140006080800DA3AB14273836ACD630700009A1B0000340000006662782F31394245313532342D313330452D343338452D384233322D3238353445343445343841462F6F626A656374732E786D6CED59DD73A33610FF5718FAD23E189BD8CE251D4227B1931B4F9BF6A6EEDDF4C1338C0C3251230423895CDCBFBEAB0F30
310
1093E05EFAD6071B10D26AF7B79F5A829F9E33EA3C612E48CEAE5CDF9BB80E66719E10965EB9A5DC8D2E5CE7A730E0792E1BD35C87A10C5FB96AD80D8394E765618712BC4325959DD1BB9B3F1D1163865D27A648882B57C40F38431E2A659E60F1E82548222FDD3D7BBE6726B6C9A61C150F1DA205E29849E014C61950710C
310
537EFB71E28EC360ACDE8781FAB7B3A68366CDFA678DB5D46D2E091312B1F8054B1D32D3412C4DFDD9F2F66C7E399ACF66D3D1ECFCCC1FDDDCDD2C47FE87E96471BE585C5EDF5E027BDB3CA756A604179825A0BFBD1BFAC158BDA945B7081CE33ACE19C3B10612A0D2627509122C60AB067C93F6A3AF246ABCD612369E67EA
310
BD65A1313C6D53E99B350C88165D10C46E57495C5D9BF2E5DBBF407031C428B9C012B8159283762D3C1CBCC20D27C1D88C86C1F6A00B229C0C49CC09A20E255B8E382805A6AA296160165832CA3938907294045A73E675DBB6C033DF769D635CEE4A4A9567B8A176AC08DC0F4BA139237F637EE0BE890CF004D29684C90BCB
310
A5DC17D80D2F83B11E0C0375999ED99706486747512A3422E66D47D08572FDD5D20D7FBEDB3EAF553838BE79C1F30273A98C4EE951F305866CAF0A25BBAD3F48736A01086340B52B0FA0FC0EC8FF0AD1E3C00AE88D93E7D9F3CCCE951C31B1CB7906BA7126CE68027F13C7D7FFEABE71178CEBC56DEDF5E1096EAAA0BAF876
310
3CDB3268AC2CFF0D38C3E0090C3EE753FB6A1D230AF67C4F1800A48CC4A1390C4168DF6D9FDD70058113023DAC4234F4416460F7096E83B12573D04AE55ED6EB18206AF7980E5112C0A62D12D8E8D1D347C81E9CC407353545EC8377FE2EE67ABD5CFFBC2EF90EC5F8DEFAF412EF082312B2E671865A98B7247AC4FBAF394F
310
40D09778AF9B7867762B01682BCC15F06905827A38ECDCDA20867569AEC24DF0C60E2084CAD50DFAF744C49852C4705E56FBD6D14D196AEDF1B66670C33303F1F4AC63C21C3F11555580D31C66B41885BC1F73522810DDF0A391AC0E9A5E8F749F57BF8245D6F37B66AD18845E86E81F3A681DC1A165D915D216885AE0ED21
310
9CC739CD79B4DD4726D2B9504B001B6D6FF9D2220AB1DE284951010FD27E578594D4481B2564B72B05C4D5232C7E592D9AE630F1A6FEDC69FE779C7106D1167C1771EB779D3D2292A114473B94F46DD7DCADA62D34C91ED21CEF28C8459E88DC4748469304A7A7407312F1CB77A59ED25C08C2B0807C7514FC261A130F0289
310
D166C5B2D26A076822A20C4B444F414091E90157A71D5DE3C6503ABCCD636DBDAF69AC49F43FB2088EA096CC5944A014851CF226E3BE378718D246D7A0DCC117ACADA2ADC5A0259410F13EFA8A49FA204F41DD90EFC13D86234929A3BC403198F500B22F7C4529B5C3FB16C58F2A7F447149DFCB4004A6BB88505A6611FC08
310
8393C710D7AE03D3AB2834889BD8277106451992251FB2C9F97CF2621F533374436063A31DA110B6A30C153DA8B702A2AE479C1A7C4BBD47A9DB322B2294E5251B6428DEB4EB4D967C57AD8AEC407E55A908656345D8120C03C2649D55AB980DA6AE032BB8910E54FB48A0ACA0E614F646E2F16B6FD2947B37E0D64FDF7783
310
0C0ABF1EED3523EAAC82C1F2D82A0CC45724E307375CEBEBE806EAEF042787545FD59ACD0A10105391BCE4C4AAE8F30ACA1B5BA3B9E13D9262F3D164DDEAFA79E541F72318C31AA85DEA852B0574869944AA32B95737F4770421B845C38CAF544E3D85CA7592E8AA11D13BD2A7CE5619D1DA34235EF180599EC18F6D088B69
310
99E00D4AC463742F69B4268A752BA597910AE35705FCEDE3BA030F8C0C10E9932AF0F0D7CE5A3BBA50E5D25122F2A1CCB60C1108822DD152A31BAF60A9D548A5E5FAAACE14507781815915CFFE3F5934DB11FF9F2C526B18DF74B2B8D9FF82F6CDBE48239DC7CAAE4F3A06D4F94951798F63806E3BD454EB2C6292B995DF3A
310
530441B18AF283ABB12A6818827D1CFFEBACDD9705CD761DFE4FCBDAFE8B8AE3A4ACD29AACBA54472AD75533874D6E17F3F3F3EBCBD162BA8406ED87F3E5E8627EB318F9E773FFF683EFCF6F2FEE6A34B5A386411DCC74EE826713D4AA61F5643180AEACC82949E0349F382986982FE14C3FA07DCE332C2079369BDD896DCA
310
0F58FD64FA9C126D29AE387940D020A602D23A6054C6B23DEE7C07AD490907ED2B179A46DE23FC59AB741DC83C572EB40A2489B1F0B6D066520D3D4D1C52AECEFD9618E08358AA52A259543FD7AB1436ADF05F4F199206AC5CAD1E06146E0574BF5A1D0ACD9BE5293E49F08A1D0749B8DD9612AA3523CB61A016466F7350BF
310
918D12F668B77E06D77D5D2CDFD3735A880CFA64F0AA1118AA238978AAFBDD8A31CBD2F5F2D318FA6CCEEA37A7A0650ABA1C4E69C4311873A90A2AB022B00A4BB340124C75F1E3E613CFE1134FE6E8AAC8F9FEF9E2FC87CD22CFB29C99A1CD359CCA12F850E4AC1FE0B34FB281E201ABE6BAD89C4DFCB38D6E6ADB3E7BB445
310
027BAA2A8281AA985082744C0EECF24583CAB62FC74A159DE9ABA563832834038C1DBDE8F19A8F5C0EF890FA9CA23C46FB7925EDAB7DEDB19E0A36C1A1231DFE03504B0304140006080000DA3AB142000000000000000000000000350000006662782F31394245313532342D313330452D343338452D384233322D32383534
310
45343445343841462F76657274696365732E62696E504B0304140006080800DA3AB142F270F1330600000004000000360000006662782F31394245313532342D313330452D343338452D384233322D3238353445343445343841462F747269616E676C65732E62696E636660600000504B0304140006080000DA3AB1420000
310
00000000000000000000370000006662782F31394245313532342D313330452D343338452D384233322D3238353445343445343841462F617474726962757465732E62696E504B0304140006080800DA3AB142D5987DFC8F00000041010000360000006662782F31394245313532342D313330452D343338452D384233322D
310
3238353445343445343841462F6469726563746F72792E786D6C858F410EC2201045AF4266AF15DDB800BA74E7C21B903225242D6328188F2FA5C4183471359997F9FF81E89FF3C41E1816475E02DF1F80A11FC8386F25A438EECEC07A250251FC3803E6F58C12560C4AD840E95E91C151A72936F496F35732D860FE635F62
310
C8F2DA16B505C545B74125BAA2FA9E05D7CC053D063734D5C7665FD55B6B8D15D5E9BFEAFD8490FFA45E504B0304140006080800DA3AB142A26F0EDDFF000000A00100003B0000006662782F31394245313532342D313330452D343338452D384233322D3238353445343445343841462F7265736F75726365732F636F7265
310
2E786D6C8D504B6E833010BD8A35DBCA60434800194769939CA017B0CC845A0976E44FD5E3D724546A77DDCC8CDE47F3F4C4FE6BBE914FF4C1383B002F1810B4DA8DC64E03A478A12D90BD14DEB9F84B06C4AA190758609062F22EDD57483B1BD1C68C5A37E20AAA103002D1B77C0C10F407CEAA50296645B81677A5AF6AC2
310
821799CE3A2942F43900793E5926488FC125AF3188F2C94A919219578D19F34F7331E8416EF8EE707C3BB7949F4E35DD1CB62D6D2BB6A5DBEEB5ED3AD6749BE359948B598A68E69F8CDAA38A3882AC18AF296B28DFBDB35D5F557D53BFB0A6AF992817F91F53BA8FFF342563635DAD719FB60092E7200F428A72E92BAF4799
310
792FDDCA6F504B010214000A0000080000DA3AB1423DEE336E79000000790000001B00000000000000000000000000000000006175746F6465736B2D64657369676E2D7061636B6167652E786D6C504B01021400140006080800DA3AB142D486FD9CA0000000F40000001300000000000000000000000000B20000005B436F
310
6E74656E745F54797065735D2E786D6C504B01021400140006080800DA3AB142B1C42045EC0000007C010000080000000000000000000000000083010000636F72652E786D6C504B01021400140006080800DA3AB14255019EA25F0000007C000000070000000000000000000000000095020000636E782E786D6C504B0102
310
1400140006080800DA3AB14298C6F5E768010000020300000C00000000000000000000000000190300006662782F636F72652E786D6C504B01021400140006080800DA3AB142D9D100027C0000009D0000000B00000000000000000000000000AB0400006662782F636E782E786D6C504B01021400140006080800DA3AB142
310
962E49CF2A010000140200003100000000000000000000000000500500006662782F31394245313532342D313330452D343338452D384233322D3238353445343445343841462F636F72652E786D6C504B01021400140006080800DA3AB142D5E99C7255010000330300003000000000000000000000000000C90600006662
310
782F31394245313532342D313330452D343338452D384233322D3238353445343445343841462F636E782E786D6C504B01021400140006080800DA3AB14273836ACD630700009A1B000034000000000000000000000000006C0800006662782F31394245313532342D313330452D343338452D384233322D32383534453434
310
45343841462F6F626A656374732E786D6C504B01021400140006080000DA3AB1420000000000000000000000003500000000000000000000000000211000006662782F31394245313532342D313330452D343338452D384233322D3238353445343445343841462F76657274696365732E62696E504B010214001400060808
310
00DA3AB142F270F13306000000040000003600000000000000000000000000741000006662782F31394245313532342D313330452D343338452D384233322D3238353445343445343841462F747269616E676C65732E62696E504B01021400140006080000DA3AB14200000000000000000000000037000000000000000000
310
00000000CE1000006662782F31394245313532342D313330452D343338452D384233322D3238353445343445343841462F617474726962757465732E62696E504B01021400140006080800DA3AB142D5987DFC8F000000410100003600000000000000000000000000231100006662782F31394245313532342D313330452D
310
343338452D384233322D3238353445343445343841462F6469726563746F72792E786D6C504B01021400140006080800DA3AB142A26F0EDDFF000000A00100003B00000000000000000000000000061200006662782F31394245313532342D313330452D343338452D384233322D3238353445343445343841462F7265736F
310
75726365732F636F72652E786D6C504B0506000000000E000E00800400005E1300000000
  0
XRECORD
  5
17
102
{ACAD_REACTORS
330
12
102
}
330
12
100
AcDbXrecord
280
     1
270
     1
271
     1
  0
XRECORD
  5
16
102
{ACAD_REACTORS
330
12
102
}
330
12
100
AcDbXrecord
280
     1
270
     1
271
     1
  0
XRECORD
  5
18
102
{ACAD_REACTORS
330
12
102
}
330
12
100
AcDbXrecord
280
     1
270
     1
271
     1
  0
XRECORD
  5
15
102
{ACAD_REACTORS
330
12
102
}
330
12
100
AcDbXrecord
280
     1
270
     1
271
     1
  0
XRECORD
  5
154D
102
{ACAD_REACTORS
330
22
102
}
330
22
100
AcDbXrecord
280
     1
102
MATERIAL
148
0.0
149
0.0
149
0.0
 93
        0
 94
      127
282
     0
 72
     0
 77
     0
171
     0
175
     0
179
     0
273
     0
  0
XRECORD
  5
24
102
{ACAD_REACTORS
330
22
102
}
330
22
100
AcDbXrecord
280
     1
270
     1
271
     1
  0
XRECORD
  5
23
102
{ACAD_REACTORS
330
22
102
}
330
22
100
AcDbXrecord
280
     1
270
     1
271
     1
  0
XRECORD
  5
BA
102
{ACAD_REACTORS
330
22
102
}
330
22
100
AcDbXrecord
280
     1
 70
     1
 90
1959938040
 71
     1
  1
49A062E7-0EF5-4DCC-B37E-5DFAB099FDB6
311
504B03040A0000080000D93AB1423DEE336E79000000790000001B0000006175746F6465736B2D64657369676E2D7061636B6167652E786D6C3C3F786D6C2076657273696F6E3D22312E302220656E636F64696E673D227574662D3822203F3E3C666F726D6174733E3C666F726D61743E687474703A2F2F736368656D612E
311
6175746F6465736B2E636F6D2F64657369676E2D7061636B6167652F323030393C2F666F726D61743E3C2F666F726D6174733E504B0304140006080800D93AB142D486FD9CA0000000F4000000130000005B436F6E74656E745F54797065735D2E786D6C7D8EC10E82300C865F65E91D8A1E8C310C0EEA1BF002731658846E
311
D98AC1B77784ABF1D8FE5FBFBF75BBCE937A534CCEB38643598122B6FEE978D0B0485F9C41B54DDD7D022595594E1A469170414C76A4D9A4D207E29CF43ECE46F218070CC6BECC4078ACAA135ACF422C856C0E68EA1BF5669944DDD7BCDE7B1F8E415D77AECB980613C2E4AC91FC167A2B244592486606FC29C8FD7F045B9A
311
EF7053A7E60B504B0304140006080800D93AB1421C761CB8EB0000007C01000008000000636F72652E786D6C8D90416EC3201045AF82665B61038EEBD8C24475549FA01740405C94182C03558F5F9C3852BBEB6A467FFE9B197D7EFA9E6FE8CBACC17AD7032D0820E394D7D64D3DA478C1474027C157EFE32F1B202767D3C3
311
2683E0D3EAD3B24BCABB685CCCAAF3DAECA20CC14440EA969B1E82FA34B32C648AD911AEC522D5554EA6A0CF2EC329598D1E47ACCEFBECC59A15C4FB918CD5C05ADC3056E1C3991D703BD01A0F6F7464435B9FDBD791971B2C78B4F3F3BE5A8D8C468360845698D498361FA4E918EB6AFA42EAAE22BCDCEC7FA0B4E87F42C9
311
BA58B1FDDD071640D0FCC87D2078B96591CB3DA85CB7DCC40F504B0304140006080800D93AB14255019EA25F0000007C00000007000000636E782E786D6C4DCB3B0E80201045D1AD90E915ED2CF8AC45050C11660C8261F98AB1B07AC9C97D42D718D865D3E909258CFD00CCE24AC6E326A164D74DC0B4128928FF32603847
311
2BA13128B1252AC747C6BAB984FC68F0B87FE8960A5C09FE86CFB69FBA01504B0304140006080800D93AB142819C132A68010000020300000C0000006662782F636F72652E786D6C8D525B6E833010BC8AE5DFCA184C684A641C95A839412FE0804351C046C646397E9747445345518464AC999DDDD901BEBFB60D1A94ED6B
311
A3331C0521464A17A6AC759561EFCEE403A3BDE0D618F7A70C232D5B95E111C68257D6F86E810AA39DD20E506D4AB580B2EF95C3A868E092E1BEF851AD0CA47750D15F824E161759A9200A80863AC17B67C1009A878C2716E7D395D31917DCFBBA5CD8BA8469F5B956168BAF8FF018E72C255BC662B239B00D49F32821F967
311
7464799A1CD2F723A7A3587057B737778555D2A9120B1646310913126DBFC3ED8EB15D12BD85C92E0E391DCBEF44BE2B5F14F95ABB982D7667598F45044626E2DFB6109143BD1CC00F159C8E21C26B4AF83E6808044276F2D4DCF6B80034A8C219BB01A6347EA506D978055343343D9CCE2C749E1AC0660FFBB0277D9EF780
311
0F287505D6A483EBC9BB713A9FA72E5174CA92C15D9136B695CD6A6EB6B89EEBA087F2C234C6BEA2A6CBAA7409938E7FAFF805504B0304140006080800D93AB142988E6DFC7E0000009D0000000B0000006662782F636E782E786D6C4DCCD10A83201886E15B91FFDC95CB65821AB2EA3E625948A6C3E9D8E5AF46073BFAE0
311
E1E315ED6773E86DE2CB062F815C4A40C63FC264FD2221A71937805A256208E9EF06C88F9B91703028B1C4909F274D661EB34BBB3AEBD713E9AD63BCBA0EB8AF75896953F558133D60D630DAF15A937BCDA150A2F895F63DC2EA0B504B0304140006080800D93AB1421B19D4CB2B01000014020000310000006662782F3435
311
4437393332462D453641302D343833452D413141462D3738373444393641314336392F636F72652E786D6C8D515B6EC32010BC0AE22B55850D7E27C24456939CA0177080A42831583CAA1CBF503B52FB971F16CDCECC8E76E9FE31DDC1B7B44E19DD43926108A4E646287DED61F017D441B067D41AE3FFD020D0E3247B9860
311
C8E8D59A30AF1037DA4BED23AA8D902B383A273D04FC1E3F3D74FC4B4E6336061F19EE96CD23BF8D5799912CB6238F51E76D0C009621E985ACAA0FEDB62C4EE8D80C18555D794403194EA8EDDAEAB06D06F2D16C69BE08190D418955AE448CA32E4ADA574D929851AFA6677C6EE5E8A580ACC0A444B846A4FDC4EDAE287635
311
79C7F5AEC4344FF47FA2308B174541695F166BDC45E62023345F1A8C0A13CEF76718F9988DF520CDDB38C9DF20C319260497B86869BE50E302A26753AD9ECE1B1B17BCB99D239BD48B7153319AA71BC5F27BC058D33DD90F504B0304140006080800D93AB142B1645B864E01000033030000300000006662782F3435443739
311
3332462D453641302D343833452D413141462D3738373444393641314336392F636E782E786D6CD593BB6E032110457F05D146FBF233B2582CA5C817A448CBC2D8C66661C5238AFF3E838D1D372E52A641AB3B977B47472CDB7E8F867C810FDAD99E76754B0958E994B6FB9EA6B8AB5E29D972E69D8B0F364AAC18A1A759A6
311
9CEDBD4B539114EC44321155A3EDA9881E824B5E424039DF24C6496130006C9550847100A54091BB11BF76E07115148733890720EF6F9FC40D479031B026A770D6E40ECEF2599A1E4C94482342E869900718452D52740AC2A956228ABAAB6F5D4F76FA4D22F9C2AD32794D72794FF34979D9A8468EACC12167217AA4574CF1
311
3C01E5629A8C962222E4E662BC7A384BDAC6D5A2783582F7E8EE56F3C502C32E33CEA21EA138A4071141513E6BBB79D52EAB6EFDD1AE37B3D966D9BDB4CBCDBC654DB673363867CA258C01EF26229D8D6023E51D6BF2F819BEE2234A7B64EDFCF90F20114069BDD2B967FC673ECDE57D232E8F7F01FF01504B030414000608
311
0800D93AB1428730D229A405000080100000340000006662782F34354437393332462D453641302D343833452D413141462D3738373444393641314336392F6F626A656374732E786D6CAD57DB6EDB3810FD1541FBB2FBE0BB93C60B45852F496114698B1A2DF6C180414994C20D75014925CE7EFD1E8A942CB976EA5DF4C5
311
B2A8E170E6CC990BBDF7FB943BCF54489667B7EEA83F741D9A8579C4B2E4D62D55DCBB719DF7BE27F25CB5C45C272329BD75F5B2EB7B89C8CBC22E453426255747ABF78BBF1C19D28CBA4EC88994B7AE0C1F694AFAA4547944E5533F228AF49378DF1FF58D60576D2248F178A4B42082660A96623D8316C71835EABE0EDD81
311
EF0DF477DFD3BF566A725E6A50F9D33D9F6552912CFCE1B0233593D1747537BE9AF5AEA6D3496F7A3D1EF516F78B556FF46E325C5E2F97B3F9DD0C074B25A0C95A2268ECFA1F808D60A137309F7CAF64999A8CAD880DD040D067A623E5FA6367E40D8C4CE39D75F294F9619E6534ACB0021A957F5675440B9A458839A31296
311
B5101A765F471AC7D6E7897EB747B6972F43A0BDA3A5A8B6BD7EB62DCD83BFE182BC84414252CD4083A575D47075784038C8736EBF31E9A44451C10877380B0411AFAE0F512DE27B1D359AC9426783F6C0F51105F3B94B17A4D1CF797ECACAB8E45CD3D8F5AB2CD82157A8929565EC1F2A0ED6B791814D889566C38D7548BD
311
16D4F567862237476C32403A312709420E37F5CEC9F8C8D1A5CED3F5CAF53FDE07FB8DCEDDD38717222FA8509A3EA0561DB8FAA951B2368D2E8A9CDEE01E997200E52B90FF84543F9882B809B69FEEA7F614254826E35CA4888D33747A43FC0C9D51F5ABFFB7FE79836673377AE7F044B03554BF00CFAE0FED58B6E0F4BD67
311
103E1713EBDA26241C65E38165004893C4E139965087E360EFFA6B54395465EC22DC1FC16598FB8CBFDEC0AA41A1A84E6A3D33607954162F28D080AD6224CC30E4B7061EE2F44339AB0EB662E7E0BDFA25749DAF361F37A58849481F6C4EAF68CC32A6D0E20EBC691BD4C1BCE3D1137D7DC94504477FC47BD3C63BB54749A0
311
AD31D7C027754DD72F87933B0784D897E4BADC783F39014EE8C6DAD2FFC06448392719CDCBFADC37FB07DA86815827BB6672D3600E8D05A4315F8E72104D3A14ACD02036DDAA299AFD33DE7D5B7F022321CFF380F083507028BD61CE73B10B5E77A62A9D44FA7B97DA168281D602B6573952A7BFC57C17B1382E256AE00958
311
BFAF97EDD0E9AA800A516B35C93285FBC82D222C676BBD68D682A091E6D98EA16D22ED4E1ED0D60F442D012A85E72C9694C73BC67999EE62C6D18C762929CEC0F1FFED0FCAB4D891342F33754677C7743487AEED1DF2CA17A2C247D7DF54CFDE02A537A2D121CC1D61DD4A4E60D509ED74361F5E8FEFDEF58677F757BDE96A
311
B9EC2D26EFEE7A57ABFBF962389BDDAF16D7759C8C72DFAB3B4D3BA111257436AF14CC86EFDB1AE9636B80EB3F1025B71F4C76D6CF6FEB3E46616F803D6897CDC679F48CB18F463F5770903CA9689D169CA6345344A7D083FEC3BF128C191D63CCFA3A2509BD40CBE70F9B2367B072C1BE2F3ADDE9CBD15EBBBAD409795289
311
7A2CD320238C1F6D4C0C92FD224B2C7E754C9AA7E933F5AB7EB381C1602A73CE2294C1C849689E52856278410F122995A05E7BA48FECD5E382DDCF66405424E0B4B6E4916046E61269016A95A1EAAE3BBF61A6D363D5AD8B6EDB7FC28FAD14AE03CEDCBA98D1150BA9EC07E8CF7A12AA94834BED411E733FC9128E51DB6C6A
311
DE9B5D1A9B4E476E442E199FAC5FA6825B0750460A8C0D9887109DCA18DFAB6CB3DFC3FFE4786D8E4314FE06A56A7C392C34CE54C720458D53F6B28019E6C91EBD47A2BEEDD6A85FC97410B9E892F526098CD69E2222A92E0ADA3E6BD27CF5658001C5597F760A5E2688E5E59A7A8282CCA54E70B008ACB03A0BA240D5E59F
311
DB2F22C7453675EE1928E0FCBEBFB9FE63BBCCD334CFCCD2766EAFC3CEE61197DB688BE240F5AD446EC7C3D1785BDD06EC0565171049FB24924F584064056B80EE841FBC345746F421F3A1911BE8501C3174BD726C639B42A9A54BBBB66A70307764D4410EE91BA5CE98B640F1E685605089C2048151DEFF17504B03041400
311
06080000D93AB142000000000000000000000000350000006662782F34354437393332462D453641302D343833452D413141462D3738373444393641314336392F76657274696365732E62696E504B0304140006080800D93AB142F270F1330600000004000000360000006662782F34354437393332462D453641302D3438
311
33452D413141462D3738373444393641314336392F747269616E676C65732E62696E636660600000504B0304140006080000D93AB142000000000000000000000000370000006662782F34354437393332462D453641302D343833452D413141462D3738373444393641314336392F617474726962757465732E62696E504B
311
0304140006080800D93AB142D5987DFC8F00000041010000360000006662782F34354437393332462D453641302D343833452D413141462D3738373444393641314336392F6469726563746F72792E786D6C858F410EC2201045AF4266AF15DDB800BA74E7C21B903225242D6328188F2FA5C4183471359997F9FF81E89FF3
311
C41E1816475E02DF1F80A11FC8386F25A438EECEC07A250251FC3803E6F58C12560C4AD840E95E91C151A72936F496F35732D860FE635F62C8F2DA16B505C545B74125BAA2FA9E05D7CC053D063734D5C7665FD55B6B8D15D5E9BFEAFD8490FFA45E504B0304140006080800D93AB1420FDD3220FE000000A00100003B0000
311
006662782F34354437393332462D453641302D343833452D413141462D3738373444393641314336392F7265736F75726365732F636F72652E786D6C8D504B6E833010BD0A9A6D65B04D28101947256A4ED00B586642AC043BF2A7EAF16B122AB5BB6E6646EFA3797AE2F0B5DC8A4FF4C1383B002B291468B59B8C9D0748F1
311
4C3A280E5278E7E22F1914562D38C00A8314B377E9BE41DAD9883666D4BA0937508580110A7DCBC700415F7051A54A312BC2B5BC2B7D553396ACCC74D64911A2CF018AE7937582F4185CF21A83A89EAC14299969D39829FF3467831EE47B474FF5C83BD2725E93DD91EF483FB2868C6FECC4C7BE39F6AF2751AD6629A2597E
311
326A8F2AE20492535613DA10D67ED076CFF9BE612FB4D9D75454ABFC8F29DDA77F9A92B1B1E65BDCA72D806439C88390A25AFBCAEB5166DE6BB7F21B504B010214000A0000080000D93AB1423DEE336E79000000790000001B00000000000000000000000000000000006175746F6465736B2D64657369676E2D7061636B61
311
67652E786D6C504B01021400140006080800D93AB142D486FD9CA0000000F40000001300000000000000000000000000B20000005B436F6E74656E745F54797065735D2E786D6C504B01021400140006080800D93AB1421C761CB8EB0000007C010000080000000000000000000000000083010000636F72652E786D6C504B
311
01021400140006080800D93AB14255019EA25F0000007C000000070000000000000000000000000094020000636E782E786D6C504B01021400140006080800D93AB142819C132A68010000020300000C00000000000000000000000000180300006662782F636F72652E786D6C504B01021400140006080800D93AB142988E
311
6DFC7E0000009D0000000B00000000000000000000000000AA0400006662782F636E782E786D6C504B01021400140006080800D93AB1421B19D4CB2B010000140200003100000000000000000000000000510500006662782F34354437393332462D453641302D343833452D413141462D3738373444393641314336392F63
311
6F72652E786D6C504B01021400140006080800D93AB142B1645B864E010000330300003000000000000000000000000000CB0600006662782F34354437393332462D453641302D343833452D413141462D3738373444393641314336392F636E782E786D6C504B01021400140006080800D93AB1428730D229A40500008010
311
00003400000000000000000000000000670800006662782F34354437393332462D453641302D343833452D413141462D3738373444393641314336392F6F626A656374732E786D6C504B01021400140006080000D93AB14200000000000000000000000035000000000000000000000000005D0E00006662782F3435443739
311
3332462D453641302D343833452D413141462D3738373444393641314336392F76657274696365732E62696E504B01021400140006080800D93AB142F270F13306000000040000003600000000000000000000000000B00E00006662782F34354437393332462D453641302D343833452D413141462D373837344439364131
311
4336392F747269616E676C65732E62696E504B01021400140006080000D93AB14200000000000000000000000037000000000000000000000000000A0F00006662782F34354437393332462D453641302D343833452D413141462D3738373444393641314336392F617474726962757465732E62696E504B01021400140006
311
080800D93AB142D5987DFC8F0000004101000036000000000000000000000000005F0F00006662782F34354437393332462D453641302D343833452D413141462D3738373444393641314336392F6469726563746F72792E786D6C504B01021400140006080800D93AB1420FDD3220FE000000A00100003B00000000000000
311
000000000000421000006662782F34354437393332462D453641302D343833452D413141462D3738373444393641314336392F7265736F75726365732F636F72652E786D6C504B0506000000000E000E0080040000991100000000
310
504B03040A0000080000D93AB1423DEE336E79000000790000001B0000006175746F6465736B2D64657369676E2D7061636B6167652E786D6C3C3F786D6C2076657273696F6E3D22312E302220656E636F64696E673D227574662D3822203F3E3C666F726D6174733E3C666F726D61743E687474703A2F2F736368656D612E
310
6175746F6465736B2E636F6D2F64657369676E2D7061636B6167652F323030393C2F666F726D61743E3C2F666F726D6174733E504B0304140006080800D93AB142D486FD9CA0000000F4000000130000005B436F6E74656E745F54797065735D2E786D6C7D8EC10E82300C865F65E91D8A1E8C310C0EEA1BF002731658846E
310
D98AC1B77784ABF1D8FE5FBFBF75BBCE937A534CCEB38643598122B6FEE978D0B0485F9C41B54DDD7D022595594E1A469170414C76A4D9A4D207E29CF43ECE46F218070CC6BECC4078ACAA135ACF422C856C0E68EA1BF5669944DDD7BCDE7B1F8E415D77AECB980613C2E4AC91FC167A2B244592486606FC29C8FD7F045B9A
310
EF7053A7E60B504B0304140006080800D93AB142A203DE26E90000007C01000008000000636F72652E786D6C8D904D6EC3201085AF82D856D8806DEC589828FD3B412F8080B828315806AA1EBF903852BBEB6A466FDE37337AFCF8BD5CC197D982F56E82A4C21018A7BCB66E9E608A67344070147CF33EFEB241E0E4622658
310
6428F8BCF9B4EE92F22E1A17B3EABC36BB284330110275CDCD0483FA348BAC648AD9112ED52AD545CEA6228F2EC329590DEE47ACCEFBECD99A0D0ACA0EF4F486291A58FF8E5A3A3074C2EC19317AA0C32B662F6D4B785D60C1A35D1EF7D56664343AF39834087788F41FB81F291D3BFC84BBB1C1BC2EF63F505AF53FA1645D
310
6CE8FEEE1D0B5094476E03C1EB92452EB7A0722DB9891F504B0304140006080800D93AB14255019EA25F0000007C00000007000000636E782E786D6C4DCB3B0E80201045D1AD90E915ED2CF8AC45050C11660C8261F98AB1B07AC9C97D42D718D865D3E909258CFD00CCE24AC6E326A164D74DC0B4128928FF326038472BA1
310
3128B1252AC747C6BAB984FC68F0B87FE8960A5C09FE86CFB69FBA01504B0304140006080800D93AB1423432573566010000020300000C0000006662782F636F72652E786D6C8D52ED8E8320107C15C2DF8B82D45ADB204DEFEB09EE052852CF54C120983EFEAD1F4DAF97A6B9982099D9D99D1DE5FB4BDBA041BBBEB6A6C0
310
494C31D246D9B2365581833F4539467BC19DB5FE57194646B6BAC0238C05AF9C0DDD02296BBC361E50634BBD80B2EFB5C74835702970AFBE752B63193C54F4E7B893EA2C2B1D2731D0502778EF1D1840F390F1C4E274BC7032E3828750970B5B9730AD3ED5DA61C1B22D3B7C5016E5D9E6334A599E45079ABD4619DBB2FC9D
310
666F699A70328A05F7757B75A79C965E97A0A7C92AA2EB28D97CD1CD8EB1DD9ABED0F56E453919CBEF44A12BFF290AB5F12BB6D89D653D16A39189F8B32D44E4512F07F04304276388F09A12BE0F1A028190BD3C36D73DCE000D5A79EB52604A1B6ED4209BA0612A45D3C3C9CC42E7A9016CF6B00F7BD2E7790FF880D25460
310
4D7AB81E831FA7F379EA1245A75D34F80B32D6B5B2B9999B2DDECEDBA08772651BEBFEA326CBAA6409938C7FAFF801504B0304140006080800D93AB142822416CD7D0000009D0000000B0000006662782F636E782E786D6C4DCCD10A83201886E15B91FFDC32B36D811A39F23E625948A6C3E9D8E5AF46073BFAE0E1E3E5DD
310
6773E86DE2CB062FA02A0820E31F61B27E1190D38C6F803AC96308E9EF06C88F9B11703048BEC4909F274D661EB34BBB3AEBD713D570B936754BB1BA538599263D56B4A930A19AF69AB0960D1A4AC9CB5F69DF232CBF504B0304140006080800D93AB142A977CEF72B01000013020000310000006662782F42453637353339
310
322D424332422D344630412D423235312D3032463241463034393445462F636F72652E786D6C8D515B6EC32010BC0AE22B55850DD88E930813C5557C825E80D8C44589C1E251E5F885DA91DABFFCB06876667660D9F131DDC1B7B44E19DD40926108A4EECDA0F4D8C0E0AF6807C191336B8CFF4383408B493630C190B3D19A
310
30AF506FB497DA47549B41AEA0704E7A08FA7BBC34D0F55F721299083E32DC2D9B457F13A3CC4816DB91C799F3360600CB907442DE9EB77555EC296A3F688BCA0E9F504B2B8230EDE8A9C3E5BE3C772C5F849C85A08655AE8618475D95B4AF9A2431675E4DCFF8BD95C2CB01728A4981708548FD89EB03A5870ABFE3EA5060
310
9627FA3F519887174541695FD035EE22739013962F0DCE06132EF76718F9988DF520CDDB38D9BF418E334C48B92B6A962FCCF8FE68B92D574BE78D8DFFBBB95D22B9587DB72567795A512CBFFB8B35AD93FF00504B0304140006080800D93AB142D6D610E05501000033030000300000006662782F42453637353339322D42
310
4332422D344630412D423235312D3032463241463034393445462F636E782E786D6CBD93CD6EC32010845F0571ADFC9F3F4598483DF4097AE815C3A6A1C16001AE9AB7EF929034971C2A55BD206B7698597DC26CF7351AF2093E68677BDA94352560A553DABEF7748EFB6243C98E33EF5CBCB35162C5083D4D32E5ECDDBB79
310
CA9282BD984D44D5687BCCA287E0662F21A09C6E12E3A4301800B69851847100A540919B11BFF6E071151487138907202FCF6FC40D1F206360554AE1AC4A1D9CA53337DD9928914684D0D3200F308A52CCD12908C7528928CAA6BC763DD8E92789A40BD7CAD96B92CA7B9A4ECAF346257264150E390BD123BD6C8AA7092817
310
D364B41411215767E3C5C3D9AC6D5C2DB25723788FEEAE5D6D3618769E7116F508D9213D88088AF2B66EBAA25E16CDFAB55E6FDB76BBAC9FEAE5B6AB5995EC9C0DCE997C0963C0BB89486723D84879C3AA347E842FFB88D21E593B7FFA054804905B2F746E197FC9A759758BC53FF2A9CEEF1B7179FC0BF837504B03041400
310
06080800D93AB1420B033B7D62070000991B0000340000006662782F42453637353339322D424332422D344630412D423235312D3032463241463034393445462F6F626A656374732E786D6CED595B73A33614FE2B0C7D691F8C4DEC64930EA193D849C6B393DD9D7577A70F9E616490891A211849E4D25FDFA30B18884970
310
377DDB071B10D2D139DFB9EA10FCF19451E70173417276EEFADEC475308BF384B0F4DC2DE57674EA3A7F8401CF73D998E63A0C65F8DC55C36E18A43C2F0B3B94E02D2AA9EC8C5E5FFEE5881833EC3A3145429CBB22BEC319F25029F3048B7B2F411279E9F6C9F33D33B14D36E5A8B8EB102D10C74C02A730CE808A6398F2DB
310
8F13771C0663F53E0CD4BF9D351D346BD63F6BACA56E7349989088C52F58EA90990E6269EACF165747C767A3E3D96C3A9A9D1CF9A3CBEBCBC5C8FF309DCC4FE6F3B38BAB33606F93E7D4CA94E002B304F4F7EC867E30566F6AD12D02FBB88E73C670AC8104A8B4585D82040BD8AA01DFA4FDE82B891AAFB5848DE7997A6F59
310
680C4FDB54FA660D03A2451704B1DB551257D7A67CF9E66F105C0C314A2EB0046E85E4A05D0B0F07AF70C3493036A361B0D9E982082743127382A843C986230E4A81A96A4A189805968C720E0EA41C2581D69C79DDB62DF0CCB75D671F97DB9252E5196EA81D2B02F7C35268CEC83F98EFB86F22033C81B42561F2D472299F
310
0BEC8667C1580F8681BA4C8FEC4B03A4B3A528151A11F3B623E85CB9FE72E1861FAF374F2B150EF66F5EF0BCC05C2AA3537AD47C8121DBAB42C96EEB0FD29C5A00C21850EDCA1D285F01F94F103D76AC80DE38799A3DCDEC5CC91113DB9C67A01B67E28C26F037717CFDAFEE1B77C1B85EDCD65E1F9EE0A60AAAD31FC7B32D
310
83C6CAF2DF80330C1EC0E0733EB5AF5631A260CFB7840140CA481C9AC31084F6EDE6C90D97103821D0C32A44431F4406761FE036185B323BAD54EE65BD8E01A2768FE91025016CDA22818D1E3DDD40F6E024DEA9A929621FBCC7EF62AE178BD5C755C9B728C6B7D6A717784B18919035F733D4C2BC25D13D7E7ECC790282BE
310
C47BD5C43BB35B09405B61AE804F2B10D4C36EE7D60631AC4B73156E823776002154AE6ED0BF2522C6942286F3B2DAB78E6ECA506B8FB735831B1E1988A7471D13E6F881A8AA029C6637A3C528E4FD98934281E8863746B23A687A3DD27D5B7E028BACE7F7CC5A3208BD0CD13F75D0DA8343CBB22BA42D10B5C09B5D388F73
310
9AF368F31C9948E7422D016CB4BDE57B8B28C47AA32445053C48FB5D155252236D9490EDB6141057F7B0F87D396F9AC3C49BFAC74EF3BFE38C3388B6E0BB885BBFEBEC11910CA538DAA2A46FBBE66E356DA149F690E6784B412EF240E47384643449707A083407113F7B57EA29CD85200C0BC8577BC16FA231F12090186D56
310
2C2BAD76802622CAB044F4100414991E7075DAD1356E0CA5C3DB3CD6D6FB9AC69A44FF278BE0086AC99C45044A51C8216F32EE7BC71043DAE81A943BF882B555B4B518B48412227E8E1E3149EFE421A81BF23DB8C77024296594172806B31E40F685AF28A57678DFA0F85EE58F282EE97B1988C0741B114ACB2C821F6170F2
310
18E2DA75607A1585067113FB24CEA02843B2E4433639399EBCD8C7D40CDD10D8D8684B2884ED2843450FEAAD80A8EB11A706DF52EF51EAA6CC8A086579C906198A37ED7A9325DF55AB223B905F552A42D95811B604C380305967D52A6683A9EBC00A6EA403D57324505650730A7B23F1F8B53769CABD1B70EBA7EFBB410685
310
5F8FF69A117556C160796C1506E211C9F8CE0D57FA3ABA84FA3BC1C92ED557B566B30204C454242F39B12AFAB684F2C6D6686E788BA458DF98AC5B5DBF2D3DE87E04635803B54BBD70A980CE3093485526B7EA867E4510825B34CCF852E5D443A85C2489AE1A11BD267DEA6C9511AD4D33E2157798E519FCD89AB09896095E
310
A344DC47B792462BA258B7527A19A9307E55C0CF37AB0E3C303240A42FAAC0C38F9DB57674AECAA5BD44E45D996D182210045BA2A546375EC152AB914ACBF5559D29A0EE0203B32A9EFD3C5934DB113F4F16A9358C1F3B59D07C83E82EDA34B279ACCCFAA053409D9E1495F73805E8AE434DB54E2226975BF1AD2F451013AB
310
203FB818AB628621D8C7F17F4EDA7D49D06CD7E1FFB0A4EDBF28380E4A2AADC9AA49B5A7705DB652D8D9C5E4E4E8EAC36872757D3C9A2DE6F3D1E5F4C3D5E878717D7139393BBB5E5C9ED4686A3F0D833A96E9D405CF26A655C3EAC962004D59915392C0613E71520C215FC2917E40F79C675840EE6CF6BA13DB931FB0FAC1
310
B43925DA505C717287A03F4C056475C0A88C657BDCF9053A9312CED9E72EF48CBC7BF8B356E93A9078CE5DE814481263E16DA0CBA4FA799A38645C9DFA2D31C007B1546544B3A87EAE57296C5AD1BF9E32240B58B95A2D0CA8DB0A687EB51A149A37CB537C90E0153B0E9270BB2925146B4696DD402D8CDE66A77E231B25EC
310
DE6EFD04AEFBBA58BEA7E7B41019F4C5E0552330544712F154B7BB156396A58BC59731B4D99CE567A7A0650ABA1C4E69C4311873A9EA29B022B00A4BB340124C75FEFBFA0BCFE10B4FE6E8A2C8F9F5E9F4E4B7F53CCFB29C99A1F5051CCA12F84EE4ACEEE0AB4FB286DA01ABDEBA581F4DFCA3B5EE69DB367BB441027BAA28
310
8281AA965082744C0EECF2457FCA762FC74A159DE9CB85638328F4028C1DBD68F19A6F5C0EF890FA9AA23C46FB7925EDAB6DEDB19E0A36C1A1211DFE0B504B0304140006080000D93AB142000000000000000000000000350000006662782F42453637353339322D424332422D344630412D423235312D3032463241463034
310
393445462F76657274696365732E62696E504B0304140006080800D93AB142F270F1330600000004000000360000006662782F42453637353339322D424332422D344630412D423235312D3032463241463034393445462F747269616E676C65732E62696E636660600000504B0304140006080000D93AB142000000000000
310
000000000000370000006662782F42453637353339322D424332422D344630412D423235312D3032463241463034393445462F617474726962757465732E62696E504B0304140006080800D93AB142D5987DFC8F00000041010000360000006662782F42453637353339322D424332422D344630412D423235312D30324632
310
41463034393445462F6469726563746F72792E786D6C858F410EC2201045AF4266AF15DDB800BA74E7C21B903225242D6328188F2FA5C4183471359997F9FF81E89FF3C41E1816475E02DF1F80A11FC8386F25A438EECEC07A250251FC3803E6F58C12560C4AD840E95E91C151A72936F496F35732D860FE635F62C8F2DA16
310
B505C545B74125BAA2FA9E05D7CC053D063734D5C7665FD55B6B8D15D5E9BFEAFD8490FFA45E504B0304140006080800D93AB142CAE98317FC000000A00100003B0000006662782F42453637353339322D424332422D344630412D423235312D3032463241463034393445462F7265736F75726365732F636F72652E786D6C
310
8D50596EC32010BD8AC56F850D78896361A2743B412F80F0C44189C162A97AFC42EC4AED5F7F66466FD13C3D7EFA5AEEC52738AFAD19112D092AC0283B69338F28860BEE517112DC591B7EC95061E40223CA30127C7636AE3BA4AC096042428D9D6007A5F71050A1EEE91891575758642963480A7F2B57A96E72869296894E
310
3AC17D702940B13DC9130907DE46A7C0F36A63058F514FBB464FE9A7BE687048B0EEC8CE6F84E2BE3BBCE386F51D3E93EE1977ECC8FA57D2BD340DE555360B1EF4F29351399001A6E427B4C6A4C5F4F0410E0363434B9E483BD4845759FEC714D7E99FA6A84DA8D91E77B37924729007217895FB4AEB5166DAB95BF10D504B
310
010214000A0000080000D93AB1423DEE336E79000000790000001B00000000000000000000000000000000006175746F6465736B2D64657369676E2D7061636B6167652E786D6C504B01021400140006080800D93AB142D486FD9CA0000000F40000001300000000000000000000000000B20000005B436F6E74656E745F54
310
797065735D2E786D6C504B01021400140006080800D93AB142A203DE26E90000007C010000080000000000000000000000000083010000636F72652E786D6C504B01021400140006080800D93AB14255019EA25F0000007C000000070000000000000000000000000092020000636E782E786D6C504B010214001400060808
310
00D93AB1423432573566010000020300000C00000000000000000000000000160300006662782F636F72652E786D6C504B01021400140006080800D93AB142822416CD7D0000009D0000000B00000000000000000000000000A60400006662782F636E782E786D6C504B01021400140006080800D93AB142A977CEF72B0100
310
001302000031000000000000000000000000004C0500006662782F42453637353339322D424332422D344630412D423235312D3032463241463034393445462F636F72652E786D6C504B01021400140006080800D93AB142D6D610E055010000330300003000000000000000000000000000C60600006662782F4245363735
310
3339322D424332422D344630412D423235312D3032463241463034393445462F636E782E786D6C504B01021400140006080800D93AB1420B033B7D62070000991B00003400000000000000000000000000690800006662782F42453637353339322D424332422D344630412D423235312D3032463241463034393445462F6F
310
626A656374732E786D6C504B01021400140006080000D93AB14200000000000000000000000035000000000000000000000000001D1000006662782F42453637353339322D424332422D344630412D423235312D3032463241463034393445462F76657274696365732E62696E504B01021400140006080800D93AB142F270
310
F13306000000040000003600000000000000000000000000701000006662782F42453637353339322D424332422D344630412D423235312D3032463241463034393445462F747269616E676C65732E62696E504B01021400140006080000D93AB1420000000000000000000000003700000000000000000000000000CA1000
310
006662782F42453637353339322D424332422D344630412D423235312D3032463241463034393445462F617474726962757465732E62696E504B01021400140006080800D93AB142D5987DFC8F0000004101000036000000000000000000000000001F1100006662782F42453637353339322D424332422D344630412D4232
310
35312D3032463241463034393445462F6469726563746F72792E786D6C504B01021400140006080800D93AB142CAE98317FC000000A00100003B00000000000000000000000000021200006662782F42453637353339322D424332422D344630412D423235312D3032463241463034393445462F7265736F75726365732F63
310
6F72652E786D6C504B0506000000000E000E0080040000571300000000
  0
XRECORD
  5
27
102
{ACAD_REACTORS
330
22
102
}
330
22
100
AcDbXrecord
280
     1
270
     1
271
     1
  0
XRECORD
  5
26
102
{ACAD_REACTORS
330
22
102
}
330
22
100
AcDbXrecord
280
     1
270
     1
271
     1
  0
XRECORD
  5
28
102
{ACAD_REACTORS
330
22
102
}
330
22
100
AcDbXrecord
280
     1
270
     1
271
     1
  0
XRECORD
  5
25
102
{ACAD_REACTORS
330
22
102
}
330
22
100
AcDbXrecord
280
     1
270
     1
271
     1
  0
XRECORD
  5
1547
102
{ACAD_REACTORS
330
1546
102
}
330
1546
100
AcDbXrecord
280
     1
102
ACAD_ROUNDTRIP_2012_MLEADER_STYLE
298
     1
  0
CELLSTYLEMAP
  5
1545
102
{ACAD_REACTORS
330
1544
102
}
330
1544
100
AcDbCellStyleMap
 90
        3
300
CELLSTYLE
  1
TABLEFORMAT_BEGIN
 90
        5
170
     1
 91
        0
 92
    32768
 62
   257
 93
        1
300
CONTENTFORMAT
  1
CONTENTFORMAT_BEGIN
 90
        0
 91
        0
 92
      512
 93
        0
300

 40
0.0
140
1.0
 94
        5
 62
     0
340
55
144
0.25
309
CONTENTFORMAT_END
171
     0
 94
        0
309
TABLEFORMAT_END
  1
CELLSTYLE_BEGIN
 90
        1
 91
        1
300
_TITLE
309
CELLSTYLE_END
300
CELLSTYLE
  1
TABLEFORMAT_BEGIN
 90
        5
170
     1
 91
        0
 92
        0
 62
   257
 93
        1
300
CONTENTFORMAT
  1
CONTENTFORMAT_BEGIN
 90
        0
 91
        0
 92
      512
 93
        0
300

 40
0.0
140
1.0
 94
        5
 62
     0
340
55
144
0.18
309
CONTENTFORMAT_END
171
     0
 94
        0
309
TABLEFORMAT_END
  1
CELLSTYLE_BEGIN
 90
        2
 91
        1
300
_HEADER
309
CELLSTYLE_END
300
CELLSTYLE
  1
TABLEFORMAT_BEGIN
 90
        5
170
     1
 91
        0
 92
        0
 62
   257
 93
        1
300
CONTENTFORMAT
  1
CONTENTFORMAT_BEGIN
 90
        0
 91
        0
 92
      512
 93
        0
300

 40
0.0
140
1.0
 94
        2
 62
     0
340
55
144
0.18
309
CONTENTFORMAT_END
171
     0
 94
        0
309
TABLEFORMAT_END
  1
CELLSTYLE_BEGIN
 90
        3
 91
        2
300
_DATA
309
CELLSTYLE_END
  0
XRECORD
  5
157E
102
{ACAD_REACTORS
330
1544
102
}
330
1544
100
AcDbXrecord
280
     1
102
ACAD_ROUNDTRIP_PRE2007_TABLESTYLE
 90
      512
 91
        0
  1

 92
      512
 93
        0
  2

 94
      512
 95
        0
  3

  0
XRECORD
  5
1559
102
{ACAD_REACTORS
330
1558
102
}
330
1558
100
AcDbXrecord
280
     1
102
RTVSPropertyOp0
 70
     1
102
RTVSPropertyOp1
 70
     1
102
RTVSPropertyOp2
 70
     1
102
RTVSPropertyOp3
 70
     1
102
RTVSPropertyOp4
 70
     1
102
RTVSPropertyOp5
 70
     1
102
RTVSPropertyOp6
 70
     1
102
RTVSPropertyOp7
 70
     1
102
RTVSPropertyOp8
 70
     1
102
RTVSPropertyOp9
 70
     1
102
RTVSPropertyOp10
 70
     1
102
RTVSPropertyOp11
 70
     1
102
RTVSPropertyOp12
 70
     1
102
RTVSPropertyOp13
 70
     1
102
RTVSPropertyOp14
 70
     1
102
RTVSPropertyOp15
 70
     1
102
RTVSPropertyOp16
 70
     1
102
RTVSPropertyOp17
 70
     1
102
RTVSPropertyOp18
 70
     1
102
RTVSPropertyOp19
 70
     1
102
RTVSPropertyOp20
 70
     1
102
RTVSPropertyOp21
 70
     1
102
RTVSPropertyOp22
 70
     1
102
RTVSPropertyOp23
 70
     1
102
RTVSPropertyOp24
 70
     1
102
RTVSPropertyOp25
 70
     1
102
RTVSPropertyOp26
 70
     1
102
RTVSPropertyOp27
 70
     1
102
RTVSPropertyOp28
 70
     1
102
RTVSPropertyOp29
 70
     1
102
RTVSPropertyOp30
 70
     1
102
RTVSPropertyOp31
 70
     1
102
RTVSPropertyOp32
 70
     1
  0
XRECORD
  5
1557
102
{ACAD_REACTORS
330
1556
102
}
330
1556
100
AcDbXrecord
280
     1
102
RTVSPropertyOp0
 70
     1
102
RTVSPropertyOp1
 70
     1
102
RTVSPropertyOp2
 70
     1
102
RTVSPropertyOp3
 70
     1
102
RTVSPropertyOp4
 70
     1
102
RTVSPropertyOp5
 70
     1
102
RTVSPropertyOp6
 70
     1
102
RTVSPropertyOp7
 70
     1
102
RTVSPropertyOp8
 70
     1
102
RTVSPropertyOp9
 70
     1
102
RTVSPropertyOp10
 70
     1
102
RTVSPropertyOp11
 70
     1
102
RTVSPropertyOp12
 70
     1
102
RTVSPropertyOp13
 70
     1
102
RTVSPropertyOp14
 70
     1
102
RTVSPropertyOp15
 70
     1
102
RTVSPropertyOp16
 70
     1
102
RTVSPropertyOp17
 70
     1
102
RTVSPropertyOp18
 70
     1
102
RTVSPropertyOp19
 70
     1
102
RTVSPropertyOp20
 70
     1
102
RTVSPropertyOp21
 70
     1
102
RTVSPropertyOp22
 70
     1
102
RTVSPropertyOp23
 70
     1
102
RTVSPropertyOp24
 70
     1
102
RTVSPropertyOp25
 70
     1
102
RTVSPropertyOp26
 70
     1
102
RTVSPropertyOp27
 70
     1
102
RTVSPropertyOp28
 70
     1
102
RTVSPropertyOp29
 70
     1
102
RTVSPropertyOp30
 70
     1
102
RTVSPropertyOp31
 70
     1
102
RTVSPropertyOp32
 70
     1
  0
XRECORD
  5
1565
102
{ACAD_REACTORS
330
1564
102
}
330
1564
100
AcDbXrecord
280
     1
102
RTVSPropertyOp0
 70
     1
102
RTVSPropertyOp1
 70
     1
102
RTVSPropertyOp2
 70
     1
102
RTVSPropertyOp3
 70
     1
102
RTVSPropertyOp4
 70
     1
102
RTVSPropertyOp5
 70
     1
102
RTVSPropertyOp6
 70
     1
102
RTVSPropertyOp7
 70
     1
102
RTVSPropertyOp8
 70
     1
102
RTVSPropertyOp9
 70
     1
102
RTVSPropertyOp10
 70
     1
102
RTVSPropertyOp11
 70
     1
102
RTVSPropertyOp12
 70
     1
102
RTVSPropertyOp13
 70
     1
102
RTVSPropertyOp14
 70
     1
102
RTVSPropertyOp15
 70
     1
102
RTVSPropertyOp16
 70
     1
102
RTVSPropertyOp17
 70
     1
102
RTVSPropertyOp18
 70
     1
102
RTVSPropertyOp19
 70
     1
102
RTVSPropertyOp20
 70
     1
102
RTVSPropertyOp21
 70
     1
102
RTVSPropertyOp22
 70
     1
102
RTVSPropertyOp23
 70
     1
102
RTVSPropertyOp24
 70
     1
102
RTVSPropertyOp25
 70
     1
102
RTVSPropertyOp26
 70
     1
102
RTVSPropertyOp27
 70
     1
102
RTVSPropertyOp28
 70
     1
102
RTVSPropertyOp29
 70
     1
102
RTVSPropertyOp30
 70
     1
102
RTVSPropertyOp31
 70
     1
102
RTVSPropertyOp32
 70
     1
  0
XRECORD
  5
156D
102
{ACAD_REACTORS
330
156C
102
}
330
156C
100
AcDbXrecord
280
     1
102
RTVSPropertyOp0
 70
     1
102
RTVSPropertyOp1
 70
     1
102
RTVSPropertyOp2
 70
     1
102
RTVSPropertyOp3
 70
     1
102
RTVSPropertyOp4
 70
     1
102
RTVSPropertyOp5
 70
     1
102
RTVSPropertyOp6
 70
     1
102
RTVSPropertyOp7
 70
     1
102
RTVSPropertyOp8
 70
     1
102
RTVSPropertyOp9
 70
     1
102
RTVSPropertyOp10
 70
     1
102
RTVSPropertyOp11
 70
     1
102
RTVSPropertyOp12
 70
     1
102
RTVSPropertyOp13
 70
     1
102
RTVSPropertyOp14
 70
     1
102
RTVSPropertyOp15
 70
     1
102
RTVSPropertyOp16
 70
     1
102
RTVSPropertyOp17
 70
     1
102
RTVSPropertyOp18
 70
     1
102
RTVSPropertyOp19
 70
     1
102
RTVSPropertyOp20
 70
     1
102
RTVSPropertyOp21
 70
     1
102
RTVSPropertyOp22
 70
     1
102
RTVSPropertyOp23
 70
     1
102
RTVSPropertyOp24
 70
     1
102
RTVSPropertyOp25
 70
     1
102
RTVSPropertyOp26
 70
     1
102
RTVSPropertyOp27
 70
     1
102
RTVSPropertyOp28
 70
     1
102
RTVSPropertyOp29
 70
     1
102
RTVSPropertyOp30
 70
     1
102
RTVSPropertyOp31
 70
     1
102
RTVSPropertyOp32
 70
     1
  0
XRECORD
  5
155F
102
{ACAD_REACTORS
330
155E
102
}
330
155E
100
AcDbXrecord
280
     1
102
RTVSPropertyOp0
 70
     1
102
RTVSPropertyOp1
 70
     1
102
RTVSPropertyOp2
 70
     1
102
RTVSPropertyOp3
 70
     1
102
RTVSPropertyOp4
 70
     1
102
RTVSPropertyOp5
 70
     1
102
RTVSPropertyOp6
 70
     1
102
RTVSPropertyOp7
 70
     1
102
RTVSPropertyOp8
 70
     1
102
RTVSPropertyOp9
 70
     1
102
RTVSPropertyOp10
 70
     1
102
RTVSPropertyOp11
 70
     1
102
RTVSPropertyOp12
 70
     1
102
RTVSPropertyOp13
 70
     1
102
RTVSPropertyOp14
 70
     1
102
RTVSPropertyOp15
 70
     1
102
RTVSPropertyOp16
 70
     1
102
RTVSPropertyOp17
 70
     1
102
RTVSPropertyOp18
 70
     1
102
RTVSPropertyOp19
 70
     1
102
RTVSPropertyOp20
 70
     1
102
RTVSPropertyOp21
 70
     1
102
RTVSPropertyOp22
 70
     1
102
RTVSPropertyOp23
 70
     1
102
RTVSPropertyOp24
 70
     1
102
RTVSPropertyOp25
 70
     1
102
RTVSPropertyOp26
 70
     1
102
RTVSPropertyOp27
 70
     1
102
RTVSPropertyOp28
 70
     1
102
RTVSPropertyOp29
 70
     1
102
RTVSPropertyOp30
 70
     1
102
RTVSPropertyOp31
 70
     1
102
RTVSPropertyOp32
 70
     1
  0
XRECORD
  5
1563
102
{ACAD_REACTORS
330
1562
102
}
330
1562
100
AcDbXrecord
280
     1
102
RTVSPropertyOp0
 70
     1
102
RTVSPropertyOp1
 70
     1
102
RTVSPropertyOp2
 70
     1
102
RTVSPropertyOp3
 70
     1
102
RTVSPropertyOp4
 70
     1
102
RTVSPropertyOp5
 70
     1
102
RTVSPropertyOp6
 70
     1
102
RTVSPropertyOp7
 70
     1
102
RTVSPropertyOp8
 70
     1
102
RTVSPropertyOp9
 70
     1
102
RTVSPropertyOp10
 70
     1
102
RTVSPropertyOp11
 70
     1
102
RTVSPropertyOp12
 70
     1
102
RTVSPropertyOp13
 70
     1
102
RTVSPropertyOp14
 70
     1
102
RTVSPropertyOp15
 70
     1
102
RTVSPropertyOp16
 70
     1
102
RTVSPropertyOp17
 70
     1
102
RTVSPropertyOp18
 70
     1
102
RTVSPropertyOp19
 70
     1
102
RTVSPropertyOp20
 70
     1
102
RTVSPropertyOp21
 70
     1
102
RTVSPropertyOp22
 70
     1
102
RTVSPropertyOp23
 70
     1
102
RTVSPropertyOp24
 70
     1
102
RTVSPropertyOp25
 70
     1
102
RTVSPropertyOp26
 70
     1
102
RTVSPropertyOp27
 70
     1
102
RTVSPropertyOp28
 70
     1
102
RTVSPropertyOp29
 70
     1
102
RTVSPropertyOp30
 70
     1
102
RTVSPropertyOp31
 70
     1
102
RTVSPropertyOp32
 70
     1
  0
XRECORD
  5
157D
102
{ACAD_REACTORS
330
157C
102
}
330
157C
100
AcDbXrecord
280
     1
102
RTVSPropertyOp0
 70
     0
102
RTVSPropertyOp1
 70
     0
102
RTVSPropertyOp2
 70
     0
102
RTVSPropertyOp3
 70
     0
102
RTVSPropertyOp4
 70
     0
102
RTVSPropertyOp5
 70
     0
102
RTVSPropertyOp6
 70
     0
102
RTVSPropertyOp7
 70
     0
102
RTVSPropertyOp8
 70
     0
102
RTVSPropertyOp9
 70
     0
102
RTVSPropertyOp10
 70
     0
102
RTVSPropertyOp11
 70
     0
102
RTVSPropertyOp12
 70
     0
102
RTVSPropertyOp13
 70
     0
102
RTVSPropertyOp14
 70
     2
102
RTVSPropertyOp15
 70
     0
102
RTVSPropertyOp16
 70
     0
102
RTVSPropertyOp17
 70
     0
102
RTVSPropertyOp18
 70
     0
102
RTVSPropertyOp19
 70
     0
102
RTVSPropertyOp20
 70
     0
102
RTVSPropertyOp21
 70
     0
102
RTVSPropertyOp22
 70
     0
102
RTVSPropertyOp23
 70
     0
102
RTVSPropertyOp24
 70
     0
102
RTVSPropertyOp25
 70
     0
102
RTVSPropertyOp26
 70
     0
102
RTVSPropertyOp27
 70
     0
102
RTVSPropertyOp28
 70
     1
102
RTVSPropertyOp29
 70
     1
102
RTVSPropertyOp30
 70
     1
102
RTVSPropertyOp31
 70
     1
102
RTVSPropertyOp32
 70
     1
  0
XRECORD
  5
156B
102
{ACAD_REACTORS
330
156A
102
}
330
156A
100
AcDbXrecord
280
     1
102
RTVSPropertyOp0
 70
     1
102
RTVSPropertyOp1
 70
     1
102
RTVSPropertyOp2
 70
     1
102
RTVSPropertyOp3
 70
     1
102
RTVSPropertyOp4
 70
     1
102
RTVSPropertyOp5
 70
     1
102
RTVSPropertyOp6
 70
     1
102
RTVSPropertyOp7
 70
     1
102
RTVSPropertyOp8
 70
     1
102
RTVSPropertyOp9
 70
     1
102
RTVSPropertyOp10
 70
     1
102
RTVSPropertyOp11
 70
     1
102
RTVSPropertyOp12
 70
     1
102
RTVSPropertyOp13
 70
     1
102
RTVSPropertyOp14
 70
     1
102
RTVSPropertyOp15
 70
     1
102
RTVSPropertyOp16
 70
     1
102
RTVSPropertyOp17
 70
     1
102
RTVSPropertyOp18
 70
     1
102
RTVSPropertyOp19
 70
     1
102
RTVSPropertyOp20
 70
     1
102
RTVSPropertyOp21
 70
     1
102
RTVSPropertyOp22
 70
     1
102
RTVSPropertyOp23
 70
     1
102
RTVSPropertyOp24
 70
     1
102
RTVSPropertyOp25
 70
     1
102
RTVSPropertyOp26
 70
     1
102
RTVSPropertyOp27
 70
     1
102
RTVSPropertyOp28
 70
     1
102
RTVSPropertyOp29
 70
     1
102
RTVSPropertyOp30
 70
     1
102
RTVSPropertyOp31
 70
     1
102
RTVSPropertyOp32
 70
     1
  0
XRECORD
  5
154F
102
{ACAD_REACTORS
330
154E
102
}
330
154E
100
AcDbXrecord
280
     1
102
RTVSPropertyOp0
 70
     1
102
RTVSPropertyOp1
 70
     1
102
RTVSPropertyOp2
 70
     1
102
RTVSPropertyOp3
 70
     1
102
RTVSPropertyOp4
 70
     1
102
RTVSPropertyOp5
 70
     1
102
RTVSPropertyOp6
 70
     1
102
RTVSPropertyOp7
 70
     1
102
RTVSPropertyOp8
 70
     1
102
RTVSPropertyOp9
 70
     1
102
RTVSPropertyOp10
 70
     1
102
RTVSPropertyOp11
 70
     1
102
RTVSPropertyOp12
 70
     1
102
RTVSPropertyOp13
 70
     1
102
RTVSPropertyOp14
 70
     1
102
RTVSPropertyOp15
 70
     1
102
RTVSPropertyOp16
 70
     1
102
RTVSPropertyOp17
 70
     1
102
RTVSPropertyOp18
 70
     1
102
RTVSPropertyOp19
 70
     1
102
RTVSPropertyOp20
 70
     1
102
RTVSPropertyOp21
 70
     1
102
RTVSPropertyOp22
 70
     1
102
RTVSPropertyOp23
 70
     1
102
RTVSPropertyOp24
 70
     1
102
RTVSPropertyOp25
 70
     1
102
RTVSPropertyOp26
 70
     1
102
RTVSPropertyOp27
 70
     1
102
RTVSPropertyOp28
 70
     1
102
RTVSPropertyOp29
 70
     1
102
RTVSPropertyOp30
 70
     1
102
RTVSPropertyOp31
 70
     1
102
RTVSPropertyOp32
 70
     1
  0
XRECORD
  5
1551
102
{ACAD_REACTORS
330
1550
102
}
330
1550
100
AcDbXrecord
280
     1
102
RTVSPropertyOp0
 70
     1
102
RTVSPropertyOp1
 70
     1
102
RTVSPropertyOp2
 70
     1
102
RTVSPropertyOp3
 70
     1
102
RTVSPropertyOp4
 70
     1
102
RTVSPropertyOp5
 70
     1
102
RTVSPropertyOp6
 70
     1
102
RTVSPropertyOp7
 70
     1
102
RTVSPropertyOp8
 70
     1
102
RTVSPropertyOp9
 70
     1
102
RTVSPropertyOp10
 70
     1
102
RTVSPropertyOp11
 70
     1
102
RTVSPropertyOp12
 70
     1
102
RTVSPropertyOp13
 70
     1
102
RTVSPropertyOp14
 70
     1
102
RTVSPropertyOp15
 70
     1
102
RTVSPropertyOp16
 70
     1
102
RTVSPropertyOp17
 70
     1
102
RTVSPropertyOp18
 70
     1
102
RTVSPropertyOp19
 70
     1
102
RTVSPropertyOp20
 70
     1
102
RTVSPropertyOp21
 70
     1
102
RTVSPropertyOp22
 70
     1
102
RTVSPropertyOp23
 70
     1
102
RTVSPropertyOp24
 70
     1
102
RTVSPropertyOp25
 70
     1
102
RTVSPropertyOp26
 70
     1
102
RTVSPropertyOp27
 70
     1
102
RTVSPropertyOp28
 70
     1
102
RTVSPropertyOp29
 70
     1
102
RTVSPropertyOp30
 70
     1
102
RTVSPropertyOp31
 70
     1
102
RTVSPropertyOp32
 70
     1
  0
XRECORD
  5
1553
102
{ACAD_REACTORS
330
1552
102
}
330
1552
100
AcDbXrecord
280
     1
102
RTVSPropertyOp0
 70
     1
102
RTVSPropertyOp1
 70
     1
102
RTVSPropertyOp2
 70
     1
102
RTVSPropertyOp3
 70
     1
102
RTVSPropertyOp4
 70
     1
102
RTVSPropertyOp5
 70
     1
102
RTVSPropertyOp6
 70
     1
102
RTVSPropertyOp7
 70
     1
102
RTVSPropertyOp8
 70
     1
102
RTVSPropertyOp9
 70
     1
102
RTVSPropertyOp10
 70
     1
102
RTVSPropertyOp11
 70
     1
102
RTVSPropertyOp12
 70
     1
102
RTVSPropertyOp13
 70
     1
102
RTVSPropertyOp14
 70
     1
102
RTVSPropertyOp15
 70
     1
102
RTVSPropertyOp16
 70
     1
102
RTVSPropertyOp17
 70
     1
102
RTVSPropertyOp18
 70
     1
102
RTVSPropertyOp19
 70
     1
102
RTVSPropertyOp20
 70
     1
102
RTVSPropertyOp21
 70
     1
102
RTVSPropertyOp22
 70
     1
102
RTVSPropertyOp23
 70
     1
102
RTVSPropertyOp24
 70
     1
102
RTVSPropertyOp25
 70
     1
102
RTVSPropertyOp26
 70
     1
102
RTVSPropertyOp27
 70
     1
102
RTVSPropertyOp28
 70
     1
102
RTVSPropertyOp29
 70
     1
102
RTVSPropertyOp30
 70
     1
102
RTVSPropertyOp31
 70
     1
102
RTVSPropertyOp32
 70
     1
  0
XRECORD
  5
1555
102
{ACAD_REACTORS
330
1554
102
}
330
1554
100
AcDbXrecord
280
     1
102
RTVSPropertyOp0
 70
     1
102
RTVSPropertyOp1
 70
     1
102
RTVSPropertyOp2
 70
     1
102
RTVSPropertyOp3
 70
     1
102
RTVSPropertyOp4
 70
     1
102
RTVSPropertyOp5
 70
     1
102
RTVSPropertyOp6
 70
     1
102
RTVSPropertyOp7
 70
     1
102
RTVSPropertyOp8
 70
     1
102
RTVSPropertyOp9
 70
     1
102
RTVSPropertyOp10
 70
     1
102
RTVSPropertyOp11
 70
     1
102
RTVSPropertyOp12
 70
     1
102
RTVSPropertyOp13
 70
     1
102
RTVSPropertyOp14
 70
     1
102
RTVSPropertyOp15
 70
     1
102
RTVSPropertyOp16
 70
     1
102
RTVSPropertyOp17
 70
     1
102
RTVSPropertyOp18
 70
     1
102
RTVSPropertyOp19
 70
     1
102
RTVSPropertyOp20
 70
     1
102
RTVSPropertyOp21
 70
     1
102
RTVSPropertyOp22
 70
     1
102
RTVSPropertyOp23
 70
     1
102
RTVSPropertyOp24
 70
     1
102
RTVSPropertyOp25
 70
     1
102
RTVSPropertyOp26
 70
     1
102
RTVSPropertyOp27
 70
     1
102
RTVSPropertyOp28
 70
     1
102
RTVSPropertyOp29
 70
     1
102
RTVSPropertyOp30
 70
     1
102
RTVSPropertyOp31
 70
     1
102
RTVSPropertyOp32
 70
     1
  0
XRECORD
  5
155D
102
{ACAD_REACTORS
330
155C
102
}
330
155C
100
AcDbXrecord
280
     1
102
RTVSPropertyOp0
 70
     1
102
RTVSPropertyOp1
 70
     1
102
RTVSPropertyOp2
 70
     1
102
RTVSPropertyOp3
 70
     1
102
RTVSPropertyOp4
 70
     1
102
RTVSPropertyOp5
 70
     1
102
RTVSPropertyOp6
 70
     1
102
RTVSPropertyOp7
 70
     1
102
RTVSPropertyOp8
 70
     1
102
RTVSPropertyOp9
 70
     1
102
RTVSPropertyOp10
 70
     1
102
RTVSPropertyOp11
 70
     1
102
RTVSPropertyOp12
 70
     1
102
RTVSPropertyOp13
 70
     1
102
RTVSPropertyOp14
 70
     1
102
RTVSPropertyOp15
 70
     1
102
RTVSPropertyOp16
 70
     1
102
RTVSPropertyOp17
 70
     1
102
RTVSPropertyOp18
 70
     1
102
RTVSPropertyOp19
 70
     1
102
RTVSPropertyOp20
 70
     1
102
RTVSPropertyOp21
 70
     1
102
RTVSPropertyOp22
 70
     1
102
RTVSPropertyOp23
 70
     1
102
RTVSPropertyOp24
 70
     1
102
RTVSPropertyOp25
 70
     1
102
RTVSPropertyOp26
 70
     1
102
RTVSPropertyOp27
 70
     1
102
RTVSPropertyOp28
 70
     1
102
RTVSPropertyOp29
 70
     1
102
RTVSPropertyOp30
 70
     1
102
RTVSPropertyOp31
 70
     1
102
RTVSPropertyOp32
 70
     1
  0
XRECORD
  5
1579
102
{ACAD_REACTORS
330
1578
102
}
330
1578
100
AcDbXrecord
280
     1
102
RTVSPropertyOp0
 70
     0
102
RTVSPropertyOp1
 70
     0
102
RTVSPropertyOp2
 70
     0
102
RTVSPropertyOp3
 70
     0
102
RTVSPropertyOp4
 70
     0
102
RTVSPropertyOp5
 70
     0
102
RTVSPropertyOp6
 70
     0
102
RTVSPropertyOp7
 70
     0
102
RTVSPropertyOp8
 70
     0
102
RTVSPropertyOp9
 70
     0
102
RTVSPropertyOp10
 70
     0
102
RTVSPropertyOp11
 70
     0
102
RTVSPropertyOp12
 70
     0
102
RTVSPropertyOp13
 70
     0
102
RTVSPropertyOp14
 70
     2
102
RTVSPropertyOp15
 70
     0
102
RTVSPropertyOp16
 70
     0
102
RTVSPropertyOp17
 70
     0
102
RTVSPropertyOp18
 70
     0
102
RTVSPropertyOp19
 70
     0
102
RTVSPropertyOp20
 70
     0
102
RTVSPropertyOp21
 70
     0
102
RTVSPropertyOp22
 70
     0
102
RTVSPropertyOp23
 70
     0
102
RTVSPropertyOp24
 70
     0
102
RTVSPropertyOp25
 70
     0
102
RTVSPropertyOp26
 70
     0
102
RTVSPropertyOp27
 70
     0
102
RTVSPropertyOp28
 70
     1
102
RTVSPropertyOp29
 70
     1
102
RTVSPropertyOp30
 70
     1
102
RTVSPropertyOp31
 70
     1
102
RTVSPropertyOp32
 70
     1
  0
XRECORD
  5
1569
102
{ACAD_REACTORS
330
1568
102
}
330
1568
100
AcDbXrecord
280
     1
102
RTVSPropertyOp0
 70
     1
102
RTVSPropertyOp1
 70
     1
102
RTVSPropertyOp2
 70
     1
102
RTVSPropertyOp3
 70
     1
102
RTVSPropertyOp4
 70
     1
102
RTVSPropertyOp5
 70
     1
102
RTVSPropertyOp6
 70
     1
102
RTVSPropertyOp7
 70
     1
102
RTVSPropertyOp8
 70
     1
102
RTVSPropertyOp9
 70
     1
102
RTVSPropertyOp10
 70
     1
102
RTVSPropertyOp11
 70
     1
102
RTVSPropertyOp12
 70
     1
102
RTVSPropertyOp13
 70
     1
102
RTVSPropertyOp14
 70
     1
102
RTVSPropertyOp15
 70
     1
102
RTVSPropertyOp16
 70
     1
102
RTVSPropertyOp17
 70
     1
102
RTVSPropertyOp18
 70
     1
102
RTVSPropertyOp19
 70
     1
102
RTVSPropertyOp20
 70
     1
102
RTVSPropertyOp21
 70
     1
102
RTVSPropertyOp22
 70
     1
102
RTVSPropertyOp23
 70
     1
102
RTVSPropertyOp24
 70
     1
102
RTVSPropertyOp25
 70
     1
102
RTVSPropertyOp26
 70
     1
102
RTVSPropertyOp27
 70
     1
102
RTVSPropertyOp28
 70
     1
102
RTVSPropertyOp29
 70
     1
102
RTVSPropertyOp30
 70
     1
102
RTVSPropertyOp31
 70
     1
102
RTVSPropertyOp32
 70
     1
  0
XRECORD
  5
157B
102
{ACAD_REACTORS
330
157A
102
}
330
157A
100
AcDbXrecord
280
     1
102
RTVSPropertyOp0
 70
     0
102
RTVSPropertyOp1
 70
     0
102
RTVSPropertyOp2
 70
     0
102
RTVSPropertyOp3
 70
     0
102
RTVSPropertyOp4
 70
     0
102
RTVSPropertyOp5
 70
     0
102
RTVSPropertyOp6
 70
     0
102
RTVSPropertyOp7
 70
     0
102
RTVSPropertyOp8
 70
     0
102
RTVSPropertyOp9
 70
     0
102
RTVSPropertyOp10
 70
     0
102
RTVSPropertyOp11
 70
     0
102
RTVSPropertyOp12
 70
     0
102
RTVSPropertyOp13
 70
     0
102
RTVSPropertyOp14
 70
     2
102
RTVSPropertyOp15
 70
     0
102
RTVSPropertyOp16
 70
     0
102
RTVSPropertyOp17
 70
     0
102
RTVSPropertyOp18
 70
     0
102
RTVSPropertyOp19
 70
     0
102
RTVSPropertyOp20
 70
     0
102
RTVSPropertyOp21
 70
     0
102
RTVSPropertyOp22
 70
     0
102
RTVSPropertyOp23
 70
     0
102
RTVSPropertyOp24
 70
     0
102
RTVSPropertyOp25
 70
     0
102
RTVSPropertyOp26
 70
     0
102
RTVSPropertyOp27
 70
     0
102
RTVSPropertyOp28
 70
     1
102
RTVSPropertyOp29
 70
     1
102
RTVSPropertyOp30
 70
     1
102
RTVSPropertyOp31
 70
     1
102
RTVSPropertyOp32
 70
     1
  0
XRECORD
  5
1561
102
{ACAD_REACTORS
330
1560
102
}
330
1560
100
AcDbXrecord
280
     1
102
RTVSPropertyOp0
 70
     1
102
RTVSPropertyOp1
 70
     1
102
RTVSPropertyOp2
 70
     1
102
RTVSPropertyOp3
 70
     1
102
RTVSPropertyOp4
 70
     1
102
RTVSPropertyOp5
 70
     1
102
RTVSPropertyOp6
 70
     1
102
RTVSPropertyOp7
 70
     1
102
RTVSPropertyOp8
 70
     1
102
RTVSPropertyOp9
 70
     1
102
RTVSPropertyOp10
 70
     1
102
RTVSPropertyOp11
 70
     1
102
RTVSPropertyOp12
 70
     1
102
RTVSPropertyOp13
 70
     1
102
RTVSPropertyOp14
 70
     1
102
RTVSPropertyOp15
 70
     1
102
RTVSPropertyOp16
 70
     1
102
RTVSPropertyOp17
 70
     1
102
RTVSPropertyOp18
 70
     1
102
RTVSPropertyOp19
 70
     1
102
RTVSPropertyOp20
 70
     1
102
RTVSPropertyOp21
 70
     1
102
RTVSPropertyOp22
 70
     1
102
RTVSPropertyOp23
 70
     1
102
RTVSPropertyOp24
 70
     1
102
RTVSPropertyOp25
 70
     1
102
RTVSPropertyOp26
 70
     1
102
RTVSPropertyOp27
 70
     1
102
RTVSPropertyOp28
 70
     1
102
RTVSPropertyOp29
 70
     1
102
RTVSPropertyOp30
 70
     1
102
RTVSPropertyOp31
 70
     1
102
RTVSPropertyOp32
 70
     1
  0
XRECORD
  5
1577
102
{ACAD_REACTORS
330
1576
102
}
330
1576
100
AcDbXrecord
280
     1
102
RTVSPropertyOp0
 70
     1
102
RTVSPropertyOp1
 70
     1
102
RTVSPropertyOp2
 70
     1
102
RTVSPropertyOp3
 70
     1
102
RTVSPropertyOp4
 70
     1
102
RTVSPropertyOp5
 70
     1
102
RTVSPropertyOp6
 70
     1
102
RTVSPropertyOp7
 70
     1
102
RTVSPropertyOp8
 70
     1
102
RTVSPropertyOp9
 70
     1
102
RTVSPropertyOp10
 70
     1
102
RTVSPropertyOp11
 70
     1
102
RTVSPropertyOp12
 70
     1
102
RTVSPropertyOp13
 70
     1
102
RTVSPropertyOp14
 70
     1
102
RTVSPropertyOp15
 70
     1
102
RTVSPropertyOp16
 70
     1
102
RTVSPropertyOp17
 70
     1
102
RTVSPropertyOp18
 70
     1
102
RTVSPropertyOp19
 70
     1
102
RTVSPropertyOp20
 70
     1
102
RTVSPropertyOp21
 70
     1
102
RTVSPropertyOp22
 70
     1
102
RTVSPropertyOp23
 70
     1
102
RTVSPropertyOp24
 70
     1
102
RTVSPropertyOp25
 70
     1
102
RTVSPropertyOp26
 70
     1
102
RTVSPropertyOp27
 70
     1
102
RTVSPropertyOp28
 70
     1
102
RTVSPropertyOp29
 70
     1
102
RTVSPropertyOp30
 70
     1
102
RTVSPropertyOp31
 70
     1
102
RTVSPropertyOp32
 70
     1
  0
XRECORD
  5
1575
102
{ACAD_REACTORS
330
1574
102
}
330
1574
100
AcDbXrecord
280
     1
102
RTVSPropertyOp0
 70
     1
102
RTVSPropertyOp1
 70
     1
102
RTVSPropertyOp2
 70
     1
102
RTVSPropertyOp3
 70
     1
102
RTVSPropertyOp4
 70
     1
102
RTVSPropertyOp5
 70
     1
102
RTVSPropertyOp6
 70
     1
102
RTVSPropertyOp7
 70
     1
102
RTVSPropertyOp8
 70
     1
102
RTVSPropertyOp9
 70
     1
102
RTVSPropertyOp10
 70
     1
102
RTVSPropertyOp11
 70
     1
102
RTVSPropertyOp12
 70
     1
102
RTVSPropertyOp13
 70
     1
102
RTVSPropertyOp14
 70
     1
102
RTVSPropertyOp15
 70
     1
102
RTVSPropertyOp16
 70
     1
102
RTVSPropertyOp17
 70
     1
102
RTVSPropertyOp18
 70
     1
102
RTVSPropertyOp19
 70
     1
102
RTVSPropertyOp20
 70
     1
102
RTVSPropertyOp21
 70
     1
102
RTVSPropertyOp22
 70
     1
102
RTVSPropertyOp23
 70
     1
102
RTVSPropertyOp24
 70
     1
102
RTVSPropertyOp25
 70
     1
102
RTVSPropertyOp26
 70
     1
102
RTVSPropertyOp27
 70
     1
102
RTVSPropertyOp28
 70
     1
102
RTVSPropertyOp29
 70
     1
102
RTVSPropertyOp30
 70
     1
102
RTVSPropertyOp31
 70
     1
102
RTVSPropertyOp32
 70
     1
  0
XRECORD
  5
156F
102
{ACAD_REACTORS
330
156E
102
}
330
156E
100
AcDbXrecord
280
     1
102
RTVSPropertyOp0
 70
     1
102
RTVSPropertyOp1
 70
     1
102
RTVSPropertyOp2
 70
     1
102
RTVSPropertyOp3
 70
     1
102
RTVSPropertyOp4
 70
     1
102
RTVSPropertyOp5
 70
     1
102
RTVSPropertyOp6
 70
     1
102
RTVSPropertyOp7
 70
     1
102
RTVSPropertyOp8
 70
     1
102
RTVSPropertyOp9
 70
     1
102
RTVSPropertyOp10
 70
     1
102
RTVSPropertyOp11
 70
     1
102
RTVSPropertyOp12
 70
     1
102
RTVSPropertyOp13
 70
     1
102
RTVSPropertyOp14
 70
     1
102
RTVSPropertyOp15
 70
     1
102
RTVSPropertyOp16
 70
     1
102
RTVSPropertyOp17
 70
     1
102
RTVSPropertyOp18
 70
     1
102
RTVSPropertyOp19
 70
     1
102
RTVSPropertyOp20
 70
     1
102
RTVSPropertyOp21
 70
     1
102
RTVSPropertyOp22
 70
     1
102
RTVSPropertyOp23
 70
     1
102
RTVSPropertyOp24
 70
     1
102
RTVSPropertyOp25
 70
     1
102
RTVSPropertyOp26
 70
     1
102
RTVSPropertyOp27
 70
     1
102
RTVSPropertyOp28
 70
     1
102
RTVSPropertyOp29
 70
     1
102
RTVSPropertyOp30
 70
     1
102
RTVSPropertyOp31
 70
     1
102
RTVSPropertyOp32
 70
     1
  0
XRECORD
  5
1571
102
{ACAD_REACTORS
330
1570
102
}
330
1570
100
AcDbXrecord
280
     1
102
RTVSPropertyOp0
 70
     1
102
RTVSPropertyOp1
 70
     1
102
RTVSPropertyOp2
 70
     1
102
RTVSPropertyOp3
 70
     1
102
RTVSPropertyOp4
 70
     1
102
RTVSPropertyOp5
 70
     1
102
RTVSPropertyOp6
 70
     1
102
RTVSPropertyOp7
 70
     1
102
RTVSPropertyOp8
 70
     1
102
RTVSPropertyOp9
 70
     1
102
RTVSPropertyOp10
 70
     1
102
RTVSPropertyOp11
 70
     1
102
RTVSPropertyOp12
 70
     1
102
RTVSPropertyOp13
 70
     1
102
RTVSPropertyOp14
 70
     1
102
RTVSPropertyOp15
 70
     1
102
RTVSPropertyOp16
 70
     1
102
RTVSPropertyOp17
 70
     1
102
RTVSPropertyOp18
 70
     1
102
RTVSPropertyOp19
 70
     1
102
RTVSPropertyOp20
 70
     1
102
RTVSPropertyOp21
 70
     1
102
RTVSPropertyOp22
 70
     1
102
RTVSPropertyOp23
 70
     1
102
RTVSPropertyOp24
 70
     1
102
RTVSPropertyOp25
 70
     1
102
RTVSPropertyOp26
 70
     1
102
RTVSPropertyOp27
 70
     1
102
RTVSPropertyOp28
 70
     1
102
RTVSPropertyOp29
 70
     1
102
RTVSPropertyOp30
 70
     1
102
RTVSPropertyOp31
 70
     1
102
RTVSPropertyOp32
 70
     1
  0
XRECORD
  5
1567
102
{ACAD_REACTORS
330
1566
102
}
330
1566
100
AcDbXrecord
280
     1
102
RTVSPropertyOp0
 70
     1
102
RTVSPropertyOp1
 70
     1
102
RTVSPropertyOp2
 70
     1
102
RTVSPropertyOp3
 70
     1
102
RTVSPropertyOp4
 70
     1
102
RTVSPropertyOp5
 70
     1
102
RTVSPropertyOp6
 70
     1
102
RTVSPropertyOp7
 70
     1
102
RTVSPropertyOp8
 70
     1
102
RTVSPropertyOp9
 70
     1
102
RTVSPropertyOp10
 70
     1
102
RTVSPropertyOp11
 70
     1
102
RTVSPropertyOp12
 70
     1
102
RTVSPropertyOp13
 70
     1
102
RTVSPropertyOp14
 70
     1
102
RTVSPropertyOp15
 70
     1
102
RTVSPropertyOp16
 70
     1
102
RTVSPropertyOp17
 70
     1
102
RTVSPropertyOp18
 70
     1
102
RTVSPropertyOp19
 70
     1
102
RTVSPropertyOp20
 70
     1
102
RTVSPropertyOp21
 70
     1
102
RTVSPropertyOp22
 70
     1
102
RTVSPropertyOp23
 70
     1
102
RTVSPropertyOp24
 70
     1
102
RTVSPropertyOp25
 70
     1
102
RTVSPropertyOp26
 70
     1
102
RTVSPropertyOp27
 70
     1
102
RTVSPropertyOp28
 70
     1
102
RTVSPropertyOp29
 70
     1
102
RTVSPropertyOp30
 70
     1
102
RTVSPropertyOp31
 70
     1
102
RTVSPropertyOp32
 70
     1
  0
XRECORD
  5
155B
102
{ACAD_REACTORS
330
155A
102
}
330
155A
100
AcDbXrecord
280
     1
102
RTVSPropertyOp0
 70
     1
102
RTVSPropertyOp1
 70
     1
102
RTVSPropertyOp2
 70
     1
102
RTVSPropertyOp3
 70
     1
102
RTVSPropertyOp4
 70
     1
102
RTVSPropertyOp5
 70
     1
102
RTVSPropertyOp6
 70
     1
102
RTVSPropertyOp7
 70
     1
102
RTVSPropertyOp8
 70
     1
102
RTVSPropertyOp9
 70
     1
102
RTVSPropertyOp10
 70
     1
102
RTVSPropertyOp11
 70
     1
102
RTVSPropertyOp12
 70
     1
102
RTVSPropertyOp13
 70
     1
102
RTVSPropertyOp14
 70
     1
102
RTVSPropertyOp15
 70
     1
102
RTVSPropertyOp16
 70
     1
102
RTVSPropertyOp17
 70
     1
102
RTVSPropertyOp18
 70
     1
102
RTVSPropertyOp19
 70
     1
102
RTVSPropertyOp20
 70
     1
102
RTVSPropertyOp21
 70
     1
102
RTVSPropertyOp22
 70
     1
102
RTVSPropertyOp23
 70
     1
102
RTVSPropertyOp24
 70
     1
102
RTVSPropertyOp25
 70
     1
102
RTVSPropertyOp26
 70
     1
102
RTVSPropertyOp27
 70
     1
102
RTVSPropertyOp28
 70
     1
102
RTVSPropertyOp29
 70
     1
102
RTVSPropertyOp30
 70
     1
102
RTVSPropertyOp31
 70
     1
102
RTVSPropertyOp32
 70
     1
  0
XRECORD
  5
1573
102
{ACAD_REACTORS
330
1572
102
}
330
1572
100
AcDbXrecord
280
     1
102
RTVSPropertyOp0
 70
     1
102
RTVSPropertyOp1
 70
     1
102
RTVSPropertyOp2
 70
     1
102
RTVSPropertyOp3
 70
     1
102
RTVSPropertyOp4
 70
     1
102
RTVSPropertyOp5
 70
     1
102
RTVSPropertyOp6
 70
     1
102
RTVSPropertyOp7
 70
     1
102
RTVSPropertyOp8
 70
     1
102
RTVSPropertyOp9
 70
     1
102
RTVSPropertyOp10
 70
     1
102
RTVSPropertyOp11
 70
     1
102
RTVSPropertyOp12
 70
     1
102
RTVSPropertyOp13
 70
     1
102
RTVSPropertyOp14
 70
     1
102
RTVSPropertyOp15
 70
     1
102
RTVSPropertyOp16
 70
     1
102
RTVSPropertyOp17
 70
     1
102
RTVSPropertyOp18
 70
     1
102
RTVSPropertyOp19
 70
     1
102
RTVSPropertyOp20
 70
     1
102
RTVSPropertyOp21
 70
     1
102
RTVSPropertyOp22
 70
     1
102
RTVSPropertyOp23
 70
     1
102
RTVSPropertyOp24
 70
     1
102
RTVSPropertyOp25
 70
     1
102
RTVSPropertyOp26
 70
     1
102
RTVSPropertyOp27
 70
     1
102
RTVSPropertyOp28
 70
     1
102
RTVSPropertyOp29
 70
     1
102
RTVSPropertyOp30
 70
     1
102
RTVSPropertyOp31
 70
     1
102
RTVSPropertyOp32
 70
     1
  0
ENDSEC
  0
EOF
