  0
SECTION
  2
HEADER
  9
$ACADVER
  1
AC1018
  9
$ACADMAINTVER
 70
   104
  9
$DWGCODEPAGE
  3
ANSI_1252
  9
$AUTHOR
  1
VR
  9
$REVISIONNUMBER
  1
-
  9
$CUSTOMPROPERTYTAG
  1
Manager
  9
$CUSTOMPROPERTY
  1

  9
$CUSTOMPROPERTYTAG
  1
Company
  9
$CUSTOMPROPERTY
  1

  9
$CUSTOMPROPERTYTAG
  1
Category
  9
$CUSTOMPROPERTY
  1

  9
$CUSTOMPROPERTYTAG
  1
Part Number
  9
$CUSTOMPROPERTY
  1
SSFK1208-S
  9
$CUSTOMPROPERTYTAG
  1
Description
  9
$CUSTOMPROPERTY
  1

  9
$CUSTOMPROPERTYTAG
  1
Project
  9
$CUSTOMPROPERTY
  1

  9
$CUSTOMPROPERTYTAG
  1
Designer
  9
$CUSTOMPROPERTY
  1
VR
  9
$CUSTOMPROPERTYTAG
  1
Engineer
  9
$CUSTOMPROPERTY
  1

  9
$CUSTOMPROPERTYTAG
  1
Authority
  9
$CUSTOMPROPERTY
  1

  9
$CUSTOMPROPERTYTAG
  1
Cost Center
  9
$CUSTOMPROPERTY
  1

  9
$CUSTOMPROPERTYTAG
  1
Vendor
  9
$CUSTOMPROPERTY
  1

  9
$CUSTOMPROPERTYTAG
  1
User Status
  9
$CUSTOMPROPERTY
  1

  9
$CUSTOMPROPERTYTAG
  1
Design Status
  9
$CUSTOMPROPERTY
  1
WorkInProgress
  9
$CUSTOMPROPERTYTAG
  1
Checked by
  9
$CUSTOMPROPERTY
  1
NJ
  9
$CUSTOMPROPERTYTAG
  1
Date Checked
  9
$CUSTOMPROPERTY
  1
05/08/2013
  9
$CUSTOMPROPERTYTAG
  1
Engr Approved by
  9
$CUSTOMPROPERTY
  1

  9
$CUSTOMPROPERTYTAG
  1
Mfg Approved by
  9
$CUSTOMPROPERTY
  1

  9
$CUSTOMPROPERTYTAG
  1
DWG. NO
  9
$CUSTOMPROPERTY
  1

  9
$CUSTOMPROPERTYTAG
  1
NUMBER OF SHEETS
  9
$CUSTOMPROPERTY
  1
1
  9
$CUSTOMPROPERTYTAG
  1
DRAWING #
  9
$CUSTOMPROPERTY
  1

  9
$INSBASE
 10
0.0
 20
0.0
 30
0.0
  9
$EXTMIN
 10
0.0
 20
0.0
 30
0.0
  9
$EXTMAX
 10
102.0
 20
66.0
 30
0.0
  9
$LIMMIN
 10
0.0
 20
0.0
  9
$LIMMAX
 10
102.0
 20
66.0
  9
$ORTHOMODE
 70
     0
  9
$REGENMODE
 70
     1
  9
$FILLMODE
 70
     1
  9
$QTEXTMODE
 70
     0
  9
$MIRRTEXT
 70
     0
  9
$LTSCALE
 40
6.0
  9
$ATTMODE
 70
     1
  9
$TEXTSIZE
 40
0.2
  9
$TRACEWID
 40
0.05
  9
$TEXTSTYLE
  7
Standard
  9
$CLAYER
  8
0
  9
$CELTYPE
  6
ByLayer
  9
$CECOLOR
 62
   256
  9
$CELTSCALE
 40
1.0
  9
$DISPSILH
 70
     0
  9
$DIMSCALE
 40
1.0
  9
$DIMASZ
 40
0.0708661417322835
  9
$DIMEXO
 40
0.0625
  9
$DIMDLI
 40
0.38
  9
$DIMRND
 40
0.0
  9
$DIMDLE
 40
0.0
  9
$DIMEXE
 40
0.18
  9
$DIMTP
 40
0.0
  9
$DIMTM
 40
0.0
  9
$DIMTXT
 40
0.0708661417322835
  9
$DIMCEN
 40
0.09
  9
$DIMTSZ
 40
0.0
  9
$DIMTOL
 70
     0
  9
$DIMLIM
 70
     0
  9
$DIMTIH
 70
     1
  9
$DIMTOH
 70
     1
  9
$DIMSE1
 70
     0
  9
$DIMSE2
 70
     0
  9
$DIMTAD
 70
     0
  9
$DIMZIN
 70
     0
  9
$DIMBLK
  1

  9
$DIMASO
 70
     1
  9
$DIMSHO
 70
     1
  9
$DIMPOST
  1

  9
$DIMAPOST
  1

  9
$DIMALT
 70
     0
  9
$DIMALTD
 70
     2
  9
$DIMALTF
 40
25.4
  9
$DIMLFAC
 40
1.0
  9
$DIMTOFL
 70
     0
  9
$DIMTVP
 40
0.0
  9
$DIMTIX
 70
     0
  9
$DIMSOXD
 70
     0
  9
$DIMSAH
 70
     0
  9
$DIMBLK1
  1

  9
$DIMBLK2
  1

  9
$DIMSTYLE
  2
Standard
  9
$DIMCLRD
 70
     0
  9
$DIMCLRE
 70
     0
  9
$DIMCLRT
 70
     0
  9
$DIMTFAC
 40
1.0
  9
$DIMGAP
 40
0.09
  9
$DIMJUST
 70
     0
  9
$DIMSD1
 70
     0
  9
$DIMSD2
 70
     0
  9
$DIMTOLJ
 70
     1
  9
$DIMTZIN
 70
     0
  9
$DIMALTZ
 70
     0
  9
$DIMALTTZ
 70
     0
  9
$DIMUPT
 70
     0
  9
$DIMDEC
 70
     4
  9
$DIMTDEC
 70
     4
  9
$DIMALTU
 70
     2
  9
$DIMALTTD
 70
     2
  9
$DIMTXSTY
  7
Standard
  9
$DIMAUNIT
 70
     0
  9
$DIMADEC
 70
     0
  9
$DIMALTRND
 40
0.0
  9
$DIMAZIN
 70
     0
  9
$DIMDSEP
 70
    46
  9
$DIMATFIT
 70
     3
  9
$DIMFRAC
 70
     0
  9
$DIMLDRBLK
  1

  9
$DIMLUNIT
 70
     2
  9
$DIMLWD
 70
    -2
  9
$DIMLWE
 70
    -2
  9
$DIMTMOVE
 70
     0
  9
$LUNITS
 70
     2
  9
$LUPREC
 70
     4
  9
$SKETCHINC
 40
0.1
  9
$FILLETRAD
 40
0.0
  9
$AUNITS
 70
     0
  9
$AUPREC
 70
     0
  9
$MENU
  1
.
  9
$ELEVATION
 40
0.0
  9
$PELEVATION
 40
0.0
  9
$THICKNESS
 40
0.0
  9
$LIMCHECK
 70
     0
  9
$CHAMFERA
 40
0.0
  9
$CHAMFERB
 40
0.0
  9
$CHAMFERC
 40
0.0
  9
$CHAMFERD
 40
0.0
  9
$SKPOLY
 70
     0
  9
$TDCREATE
 40
2456430.307976400
  9
$TDUCREATE
 40
2456430.078809734
  9
$TDUPDATE
 40
2456430.307976400
  9
$TDUUPDATE
 40
2456430.078809734
  9
$TDINDWG
 40
0.0000481944
  9
$TDUSRTIMER
 40
0.0000481944
  9
$USRTIMER
 70
     1
  9
$ANGBASE
 50
0.0
  9
$ANGDIR
 70
     0
  9
$PDMODE
 70
     0
  9
$PDSIZE
 40
0.0
  9
$PLINEWID
 40
0.0
  9
$SPLFRAME
 70
     0
  9
$SPLINETYPE
 70
     6
  9
$SPLINESEGS
 70
     8
  9
$HANDSEED
  5
15CA
  9
$SURFTAB1
 70
     6
  9
$SURFTAB2
 70
     6
  9
$SURFTYPE
 70
     6
  9
$SURFU
 70
     6
  9
$SURFV
 70
     6
  9
$UCSBASE
  2

  9
$UCSNAME
  2

  9
$UCSORG
 10
0.0
 20
0.0
 30
0.0
  9
$UCSXDIR
 10
1.0
 20
0.0
 30
0.0
  9
$UCSYDIR
 10
0.0
 20
1.0
 30
0.0
  9
$UCSORTHOREF
  2

  9
$UCSORTHOVIEW
 70
     0
  9
$UCSORGTOP
 10
0.0
 20
0.0
 30
0.0
  9
$UCSORGBOTTOM
 10
0.0
 20
0.0
 30
0.0
  9
$UCSORGLEFT
 10
0.0
 20
0.0
 30
0.0
  9
$UCSORGRIGHT
 10
0.0
 20
0.0
 30
0.0
  9
$UCSORGFRONT
 10
0.0
 20
0.0
 30
0.0
  9
$UCSORGBACK
 10
0.0
 20
0.0
 30
0.0
  9
$PUCSBASE
  2

  9
$PUCSNAME
  2

  9
$PUCSORG
 10
0.0
 20
0.0
 30
0.0
  9
$PUCSXDIR
 10
1.0
 20
0.0
 30
0.0
  9
$PUCSYDIR
 10
0.0
 20
1.0
 30
0.0
  9
$PUCSORTHOREF
  2

  9
$PUCSORTHOVIEW
 70
     0
  9
$PUCSORGTOP
 10
0.0
 20
0.0
 30
0.0
  9
$PUCSORGBOTTOM
 10
0.0
 20
0.0
 30
0.0
  9
$PUCSORGLEFT
 10
0.0
 20
0.0
 30
0.0
  9
$PUCSORGRIGHT
 10
0.0
 20
0.0
 30
0.0
  9
$PUCSORGFRONT
 10
0.0
 20
0.0
 30
0.0
  9
$PUCSORGBACK
 10
0.0
 20
0.0
 30
0.0
  9
$USERI1
 70
     0
  9
$USERI2
 70
     0
  9
$USERI3
 70
     0
  9
$USERI4
 70
     0
  9
$USERI5
 70
     0
  9
$USERR1
 40
0.0
  9
$USERR2
 40
0.0
  9
$USERR3
 40
0.0
  9
$USERR4
 40
0.0
  9
$USERR5
 40
0.0
  9
$WORLDVIEW
 70
     1
  9
$SHADEDGE
 70
     3
  9
$SHADEDIF
 70
    70
  9
$TILEMODE
 70
     1
  9
$MAXACTVP
 70
    64
  9
$PINSBASE
 10
0.0
 20
0.0
 30
0.0
  9
$PLIMCHECK
 70
     0
  9
$PEXTMIN
 10
0.0
 20
0.0
 30
0.0
  9
$PEXTMAX
 10
102.0
 20
66.0
 30
0.0
  9
$PLIMMIN
 10
0.0
 20
0.0
  9
$PLIMMAX
 10
102.0
 20
66.0
  9
$UNITMODE
 70
     0
  9
$VISRETAIN
 70
     1
  9
$PLINEGEN
 70
     0
  9
$PSLTSCALE
 70
     1
  9
$TREEDEPTH
 70
  3020
  9
$CMLSTYLE
  2
Standard
  9
$CMLJUST
 70
     0
  9
$CMLSCALE
 40
1.0
  9
$PROXYGRAPHICS
 70
     1
  9
$MEASUREMENT
 70
     0
  9
$CELWEIGHT
370
    -1
  9
$ENDCAPS
280
     0
  9
$JOINSTYLE
280
     0
  9
$LWDISPLAY
290
     0
  9
$INSUNITS
 70
     1
  9
$HYPERLINKBASE
  1

  9
$STYLESHEET
  1

  9
$XEDIT
290
     1
  9
$CEPSNTYPE
380
     0
  9
$PSTYLEMODE
290
     1
  9
$FINGERPRINTGUID
  2
{BEC748D2-7FCF-418E-9563-ED1C78E67BDC}
  9
$VERSIONGUID
  2
{5D9BD87B-EF3B-434C-B966-28D55E4F3B1B}
  9
$EXTNAMES
290
     1
  9
$PSVPSCALE
 40
0.0
  9
$OLESTARTUP
290
     0
  9
$SORTENTS
280
   127
  9
$INDEXCTL
280
     0
  9
$HIDETEXT
280
     1
  9
$XCLIPFRAME
290
     0
  9
$HALOGAP
280
     0
  9
$OBSCOLOR
 70
   257
  9
$OBSLTYPE
280
     0
  9
$INTERSECTIONDISPLAY
280
     0
  9
$INTERSECTIONCOLOR
 70
   257
  9
$DIMASSOC
280
     1
  9
$PROJECTNAME
  1

  0
ENDSEC
  0
SECTION
  2
CLASSES
  0
CLASS
  1
ACDBDICTIONARYWDFLT
  2
AcDbDictionaryWithDefault
  3
ObjectDBX Classes
 90
        0
 91
        1
280
     0
281
     0
  0
CLASS
  1
MATERIAL
  2
AcDbMaterial
  3
ObjectDBX Classes
 90
     1153
 91
        3
280
     0
281
     0
  0
CLASS
  1
VISUALSTYLE
  2
AcDbVisualStyle
  3
ObjectDBX Classes
 90
     4095
 91
       24
280
     0
281
     0
  0
CLASS
  1
SCALE
  2
AcDbScale
  3
ObjectDBX Classes
 90
     1153
 91
       17
280
     0
281
     0
  0
CLASS
  1
TABLESTYLE
  2
AcDbTableStyle
  3
ObjectDBX Classes
 90
     4095
 91
        1
280
     0
281
     0
  0
CLASS
  1
MLEADERSTYLE
  2
AcDbMLeaderStyle
  3
ACDB_MLEADERSTYLE_CLASS
 90
     4095
 91
        1
280
     0
281
     0
  0
CLASS
  1
DICTIONARYVAR
  2
AcDbDictionaryVar
  3
ObjectDBX Classes
 90
        0
 91
        8
280
     0
281
     0
  0
CLASS
  1
CELLSTYLEMAP
  2
AcDbCellStyleMap
  3
ObjectDBX Classes
 90
     1152
 91
        1
280
     0
281
     0
  0
ENDSEC
  0
SECTION
  2
TABLES
  0
TABLE
  2
VPORT
  5
8
330
0
100
AcDbSymbolTable
 70
     1
  0
VPORT
  5
57
330
8
100
AcDbSymbolTableRecord
100
AcDbViewportTableRecord
  2
*Active
 70
     0
 10
0.0
 20
0.0
 11
1.0
 21
1.0
 12
51.0
 22
33.0
 13
0.0
 23
0.0
 14
1.0
 24
1.0
 15
0.0
 25
0.0
 16
0.0
 26
0.0
 36
1.0
 17
0.0
 27
0.0
 37
0.0
 40
66.0
 41
1.545454545454545
 42
50.0
 43
0.0
 44
0.0
 50
0.0
 51
0.0
 71
     0
 72
   100
 73
     1
 74
     1
 75
     0
 76
     0
 77
     0
 78
     0
281
     0
 65
     1
110
0.0
120
0.0
130
0.0
111
1.0
121
0.0
131
0.0
112
0.0
122
1.0
132
0.0
 79
     0
146
0.0
  0
ENDTAB
  0
TABLE
  2
LTYPE
  5
5
330
0
100
AcDbSymbolTable
 70
    59
  0
LTYPE
  5
5B
330
5
100
AcDbSymbolTableRecord
100
AcDbLinetypeTableRecord
  2
ByBlock
 70
     0
  3

 72
    65
 73
     0
 40
0.0
  0
LTYPE
  5
5C
330
5
100
AcDbSymbolTableRecord
100
AcDbLinetypeTableRecord
  2
ByLayer
 70
     0
  3

 72
    65
 73
     0
 40
0.0
  0
LTYPE
  5
5D
330
5
100
AcDbSymbolTableRecord
100
AcDbLinetypeTableRecord
  2
Continuous
 70
     0
  3
Solid line
 72
    65
 73
     0
 40
0.0
  0
LTYPE
  5
7C
330
5
100
AcDbSymbolTableRecord
100
AcDbLinetypeTableRecord
  2
BY_STANDARD
 70
     0
  3
By Standard ____________    ____    ____   _
 72
    65
 73
     6
 40
1.240299999999999
 49
0.6614
 74
     0
 49
-0.0827
 74
     0
 49
0.1654
 74
     0
 49
-0.0827
 74
     0
 49
0.1654
 74
     0
 49
-0.0827
 74
     0
  0
LTYPE
  5
7D
330
5
100
AcDbSymbolTableRecord
100
AcDbLinetypeTableRecord
  2
CHAIN
 70
     0
  3
Chain ____ _ ____ _ ____ _ ____ _ ____ _ ____
 72
    65
 73
     4
 40
0.7087
 49
0.4724000000000001
 74
     0
 49
-0.0591
 74
     0
 49
0.1181
 74
     0
 49
-0.0591
 74
     0
  0
LTYPE
  5
7E
330
5
100
AcDbSymbolTableRecord
100
AcDbLinetypeTableRecord
  2
DASH_DOT
 70
     0
  3
Dash dot __ . __ . __ . __ . __ . __ . __ . __
 72
    65
 73
     4
 40
0.37
 49
0.24
 74
     0
 49
-0.06
 74
     0
 49
0.01
 74
     0
 49
-0.06
 74
     0
  0
LTYPE
  5
7F
330
5
100
AcDbSymbolTableRecord
100
AcDbLinetypeTableRecord
  2
DOUBLE_DASH_DOT
 70
     0
  3
Double-Dash Dot __ __ . __ __ . __ __ . __ _
 72
    65
 73
     6
 40
0.4398
 49
0.24
 74
     0
 49
-0.06
 74
     0
 49
0.0098
 74
     0
 49
-0.06
 74
     0
 49
0.01
 74
     0
 49
-0.06
 74
     0
  0
LTYPE
  5
80
330
5
100
AcDbSymbolTableRecord
100
AcDbLinetypeTableRecord
  2
DASH_TRIPLE_DOT
 70
     0
  3
Dash Triple-Dot _ . . . _ . . . _ . . . _
 72
    65
 73
     8
 40
0.51
 49
0.24
 74
     0
 49
-0.06
 74
     0
 49
0.01
 74
     0
 49
-0.06
 74
     0
 49
0.01
 74
     0
 49
-0.06
 74
     0
 49
0.01
 74
     0
 49
-0.06
 74
     0
  0
LTYPE
  5
81
330
5
100
AcDbSymbolTableRecord
100
AcDbLinetypeTableRecord
  2
DASHED
 70
     0
  3
Dashed __ __ __ __ __ __ __ __ __ __ __ __ __ _
 72
    65
 73
     2
 40
0.2067
 49
0.1654
 74
     0
 49
-0.0413
 74
     0
  0
LTYPE
  5
82
330
5
100
AcDbSymbolTableRecord
100
AcDbLinetypeTableRecord
  2
DASH_DOUBLE_DOT
 70
     0
  3
Dash Double-Dot __ . . __ . . __ . . __ . .
 72
    65
 73
     6
 40
0.4398
 49
0.24
 74
     0
 49
-0.06
 74
     0
 49
0.0098
 74
     0
 49
-0.06
 74
     0
 49
0.01
 74
     0
 49
-0.06
 74
     0
  0
LTYPE
  5
83
330
5
100
AcDbSymbolTableRecord
100
AcDbLinetypeTableRecord
  2
DASHED_SPACE
 70
     0
  3
Dashed Space __ __ __ __ __ __ __ __ __ __ __ _
 72
    65
 73
     2
 40
0.2067
 49
0.1654
 74
     0
 49
-0.0413
 74
     0
  0
LTYPE
  5
84
330
5
100
AcDbSymbolTableRecord
100
AcDbLinetypeTableRecord
  2
DOTTED
 70
     0
  3
Dotted . . . . . . . . . . . . . . . . . . . . 
 72
    65
 73
     2
 40
0.0482
 49
0.0069
 74
     0
 49
-0.0413
 74
     0
  0
LTYPE
  5
85
330
5
100
AcDbSymbolTableRecord
100
AcDbLinetypeTableRecord
  2
DOUBLE_DASH_CHAIN
 70
     0
  3
Double-Dash Chain ______  __  __  ______  __  _
 72
    65
 73
     6
 40
1.240299999999999
 49
0.6614
 74
     0
 49
-0.0827
 74
     0
 49
0.1654
 74
     0
 49
-0.0827
 74
     0
 49
0.1654
 74
     0
 49
-0.0827
 74
     0
  0
LTYPE
  5
87
330
5
100
AcDbSymbolTableRecord
100
AcDbLinetypeTableRecord
  2
DOUBLE_DASH_DOUBLE_DOT
 70
     0
  3
Double-Dash Double-dot _ _ . . _ _ . . _
 72
    65
 73
     8
 40
0.7400000000000001
 49
0.24
 74
     0
 49
-0.06
 74
     0
 49
0.24
 74
     0
 49
-0.06
 74
     0
 49
0.01
 74
     0
 49
-0.06
 74
     0
 49
0.01
 74
     0
 49
-0.06
 74
     0
  0
LTYPE
  5
88
330
5
100
AcDbSymbolTableRecord
100
AcDbLinetypeTableRecord
  2
DOUBLE_DASH_TRIPLE_DOT
 70
     0
  3
Double Dash Triple Dot __ __ . . . __ __ . .
 72
    65
 73
    10
 40
0.8100000000000001
 49
0.24
 74
     0
 49
-0.06
 74
     0
 49
0.24
 74
     0
 49
-0.06
 74
     0
 49
0.01
 74
     0
 49
-0.06
 74
     0
 49
0.01
 74
     0
 49
-0.06
 74
     0
 49
0.01
 74
     0
 49
-0.06
 74
     0
  0
LTYPE
  5
89
330
5
100
AcDbSymbolTableRecord
100
AcDbLinetypeTableRecord
  2
LONG_DASH_DOTTED
 70
     0
  3
Long Dash Dotted ____ . ____ . ____ . ____ . _
 72
    65
 73
     4
 40
0.3543
 49
0.2362
 74
     0
 49
-0.0295
 74
     0
 49
0.0591
 74
     0
 49
-0.0295
 74
     0
  0
LTYPE
  5
8A
330
5
100
AcDbSymbolTableRecord
100
AcDbLinetypeTableRecord
  2
LONG_DASH_DOUBLE_DOT
 70
     0
  3
Long Dash Double Dot ________  .  .  ________  
 72
    65
 73
     6
 40
0.6799999999999999
 49
0.48
 74
     0
 49
-0.06
 74
     0
 49
0.01
 74
     0
 49
-0.06
 74
     0
 49
0.01
 74
     0
 49
-0.06
 74
     0
  0
LTYPE
  5
8B
330
5
100
AcDbSymbolTableRecord
100
AcDbLinetypeTableRecord
  2
LONG_DASH_TRIPLE_DOT
 70
     0
  3
Long Dash Triple Dot ____ ... ____ ... ____
 72
    65
 73
     8
 40
0.3689
 49
0.2362
 74
     0
 49
-0.0295
 74
     0
 49
0.0049
 74
     0
 49
-0.0295
 74
     0
 49
0.0049
 74
     0
 49
-0.0295
 74
     0
 49
0.0049
 74
     0
 49
-0.0295
 74
     0
  0
LTYPE
  5
8C
330
5
100
AcDbSymbolTableRecord
100
AcDbLinetypeTableRecord
  2
BORDER
 70
     0
  3
Border __ __ . __ __ . __ __ . __ __ . __ __ .
 72
    65
 73
     6
 40
1.75
 49
0.5
 74
     0
 49
-0.25
 74
     0
 49
0.5
 74
     0
 49
-0.25
 74
     0
 49
0.0
 74
     0
 49
-0.25
 74
     0
  0
LTYPE
  5
8D
330
5
100
AcDbSymbolTableRecord
100
AcDbLinetypeTableRecord
  2
BORDER2
 70
     0
  3
Border (.5x) __.__.__.__.__.__.__.__.__.__.__.
 72
    65
 73
     6
 40
0.875
 49
0.25
 74
     0
 49
-0.125
 74
     0
 49
0.25
 74
     0
 49
-0.125
 74
     0
 49
0.0
 74
     0
 49
-0.125
 74
     0
  0
LTYPE
  5
8E
330
5
100
AcDbSymbolTableRecord
100
AcDbLinetypeTableRecord
  2
BORDERX2
 70
     0
  3
Border (2x) ____  ____  .  ____  ____  .  ___
 72
    65
 73
     6
 40
3.5
 49
1.0
 74
     0
 49
-0.5
 74
     0
 49
1.0
 74
     0
 49
-0.5
 74
     0
 49
0.0
 74
     0
 49
-0.5
 74
     0
  0
LTYPE
  5
8F
330
5
100
AcDbSymbolTableRecord
100
AcDbLinetypeTableRecord
  2
CENTER
 70
     0
  3
Center ____ _ ____ _ ____ _ ____ _ ____ _ ____
 72
    65
 73
     4
 40
2.0
 49
1.25
 74
     0
 49
-0.25
 74
     0
 49
0.25
 74
     0
 49
-0.25
 74
     0
  0
LTYPE
  5
90
330
5
100
AcDbSymbolTableRecord
100
AcDbLinetypeTableRecord
  2
CENTER2
 70
     0
  3
Center (.5x) ___ _ ___ _ ___ _ ___ _ ___ _ ___
 72
    65
 73
     4
 40
1.125
 49
0.75
 74
     0
 49
-0.125
 74
     0
 49
0.125
 74
     0
 49
-0.125
 74
     0
  0
LTYPE
  5
91
330
5
100
AcDbSymbolTableRecord
100
AcDbLinetypeTableRecord
  2
CENTERX2
 70
     0
  3
Center (2x) ________  __  ________  __  _____
 72
    65
 73
     4
 40
4.0
 49
2.5
 74
     0
 49
-0.5
 74
     0
 49
0.5
 74
     0
 49
-0.5
 74
     0
  0
LTYPE
  5
92
330
5
100
AcDbSymbolTableRecord
100
AcDbLinetypeTableRecord
  2
DASHDOT2
 70
     0
  3
Dash dot (.5x) _._._._._._._._._._._._._._._.
 72
    65
 73
     4
 40
0.5
 49
0.25
 74
     0
 49
-0.125
 74
     0
 49
0.0
 74
     0
 49
-0.125
 74
     0
  0
LTYPE
  5
93
330
5
100
AcDbSymbolTableRecord
100
AcDbLinetypeTableRecord
  2
DASHDOTX2
 70
     0
  3
Dash dot (2x) ____  .  ____  .  ____  .  ___
 72
    65
 73
     4
 40
2.0
 49
1.0
 74
     0
 49
-0.5
 74
     0
 49
0.0
 74
     0
 49
-0.5
 74
     0
  0
LTYPE
  5
95
330
5
100
AcDbSymbolTableRecord
100
AcDbLinetypeTableRecord
  2
DASHED2
 70
     0
  3
Dashed (.5x) _ _ _ _ _ _ _ _ _ _ _ _ _ _ _ _ _
 72
    65
 73
     2
 40
0.375
 49
0.25
 74
     0
 49
-0.125
 74
     0
  0
LTYPE
  5
96
330
5
100
AcDbSymbolTableRecord
100
AcDbLinetypeTableRecord
  2
DASHEDX2
 70
     0
  3
Dashed (2x) ____  ____  ____  ____  ____  ___
 72
    65
 73
     2
 40
1.5
 49
1.0
 74
     0
 49
-0.5
 74
     0
  0
LTYPE
  5
97
330
5
100
AcDbSymbolTableRecord
100
AcDbLinetypeTableRecord
  2
DIVIDE
 70
     0
  3
Divide ____ . . ____ . . ____ . . ____ . . ____
 72
    65
 73
     6
 40
1.25
 49
0.5
 74
     0
 49
-0.25
 74
     0
 49
0.0
 74
     0
 49
-0.25
 74
     0
 49
0.0
 74
     0
 49
-0.25
 74
     0
  0
LTYPE
  5
98
330
5
100
AcDbSymbolTableRecord
100
AcDbLinetypeTableRecord
  2
DIVIDE2
 70
     0
  3
Divide (.5x) __..__..__..__..__..__..__..__.._
 72
    65
 73
     6
 40
0.625
 49
0.25
 74
     0
 49
-0.125
 74
     0
 49
0.0
 74
     0
 49
-0.125
 74
     0
 49
0.0
 74
     0
 49
-0.125
 74
     0
  0
LTYPE
  5
99
330
5
100
AcDbSymbolTableRecord
100
AcDbLinetypeTableRecord
  2
DIVIDEX2
 70
     0
  3
Divide (2x) ________  .  .  ________  .  .  _
 72
    65
 73
     6
 40
2.5
 49
1.0
 74
     0
 49
-0.5
 74
     0
 49
0.0
 74
     0
 49
-0.5
 74
     0
 49
0.0
 74
     0
 49
-0.5
 74
     0
  0
LTYPE
  5
9A
330
5
100
AcDbSymbolTableRecord
100
AcDbLinetypeTableRecord
  2
DOT
 70
     0
  3
Dot . . . . . . . . . . . . . . . . . . . . . .
 72
    65
 73
     2
 40
0.25
 49
0.0
 74
     0
 49
-0.25
 74
     0
  0
LTYPE
  5
9B
330
5
100
AcDbSymbolTableRecord
100
AcDbLinetypeTableRecord
  2
DOT2
 70
     0
  3
Dot (.5x) .....................................
 72
    65
 73
     2
 40
0.125
 49
0.0
 74
     0
 49
-0.125
 74
     0
  0
LTYPE
  5
9C
330
5
100
AcDbSymbolTableRecord
100
AcDbLinetypeTableRecord
  2
DOTX2
 70
     0
  3
Dot (2x) .  .  .  .  .  .  .  .  .  .  .  .  . 
 72
    65
 73
     2
 40
0.5
 49
0.0
 74
     0
 49
-0.5
 74
     0
  0
LTYPE
  5
9D
330
5
100
AcDbSymbolTableRecord
100
AcDbLinetypeTableRecord
  2
HIDDEN
 70
     0
  3
Hidden __ __ __ __ __ __ __ __ __ __ __ __ __ _
 72
    65
 73
     2
 40
0.375
 49
0.25
 74
     0
 49
-0.125
 74
     0
  0
LTYPE
  5
9E
330
5
100
AcDbSymbolTableRecord
100
AcDbLinetypeTableRecord
  2
HIDDEN2
 70
     0
  3
Hidden (.5x) _ _ _ _ _ _ _ _ _ _ _ _ _ _ _ _ _
 72
    65
 73
     2
 40
0.1875
 49
0.125
 74
     0
 49
-0.0625
 74
     0
  0
LTYPE
  5
9F
330
5
100
AcDbSymbolTableRecord
100
AcDbLinetypeTableRecord
  2
HIDDENX2
 70
     0
  3
Hidden (2x) ____ ____ ____ ____ ____ ____ ____
 72
    65
 73
     2
 40
0.75
 49
0.5
 74
     0
 49
-0.25
 74
     0
  0
LTYPE
  5
A0
330
5
100
AcDbSymbolTableRecord
100
AcDbLinetypeTableRecord
  2
PHANTOM
 70
     0
  3
Phantom ______  __  __  ______  __  __  ______
 72
    65
 73
     6
 40
2.5
 49
1.25
 74
     0
 49
-0.25
 74
     0
 49
0.25
 74
     0
 49
-0.25
 74
     0
 49
0.25
 74
     0
 49
-0.25
 74
     0
  0
LTYPE
  5
A1
330
5
100
AcDbSymbolTableRecord
100
AcDbLinetypeTableRecord
  2
PHANTOM2
 70
     0
  3
Phantom (.5x) ___ _ _ ___ _ _ ___ _ _ ___ _ _
 72
    65
 73
     6
 40
1.25
 49
0.625
 74
     0
 49
-0.125
 74
     0
 49
0.125
 74
     0
 49
-0.125
 74
     0
 49
0.125
 74
     0
 49
-0.125
 74
     0
  0
LTYPE
  5
A2
330
5
100
AcDbSymbolTableRecord
100
AcDbLinetypeTableRecord
  2
PHANTOMX2
 70
     0
  3
Phantom (2x) ____________    ____    ____   _
 72
    65
 73
     6
 40
5.0
 49
2.5
 74
     0
 49
-0.5
 74
     0
 49
0.5
 74
     0
 49
-0.5
 74
     0
 49
0.5
 74
     0
 49
-0.5
 74
     0
  0
LTYPE
  5
A3
330
5
100
AcDbSymbolTableRecord
100
AcDbLinetypeTableRecord
  2
ACAD_ISO02W100
 70
     0
  3
ISO dash __ __ __ __ __ __ __ __ __ __ __ __ __
 72
    65
 73
     2
 40
0.59
 49
0.47
 74
     0
 49
-0.12
 74
     0
  0
LTYPE
  5
A4
330
5
100
AcDbSymbolTableRecord
100
AcDbLinetypeTableRecord
  2
ACAD_ISO03W100
 70
     0
  3
ISO dash space __    __    __    __    __    __
 72
    65
 73
     2
 40
1.179999999999999
 49
0.47
 74
     0
 49
-0.71
 74
     0
  0
LTYPE
  5
A5
330
5
100
AcDbSymbolTableRecord
100
AcDbLinetypeTableRecord
  2
ACAD_ISO04W100
 70
     0
  3
ISO long-dash dot ____ . ____ . ____ . ____ . _
 72
    65
 73
     4
 40
1.179999999999999
 49
0.9399999999999998
 74
     0
 49
-0.12
 74
     0
 49
0.0
 74
     0
 49
-0.12
 74
     0
  0
LTYPE
  5
A6
330
5
100
AcDbSymbolTableRecord
100
AcDbLinetypeTableRecord
  2
ACAD_ISO05W100
 70
     0
  3
ISO long-dash double-dot ____ .. ____ .. ____ .
 72
    65
 73
     6
 40
1.299999999999999
 49
0.9399999999999998
 74
     0
 49
-0.12
 74
     0
 49
0.0
 74
     0
 49
-0.12
 74
     0
 49
0.0
 74
     0
 49
-0.12
 74
     0
  0
LTYPE
  5
A7
330
5
100
AcDbSymbolTableRecord
100
AcDbLinetypeTableRecord
  2
ACAD_ISO06W100
 70
     0
  3
ISO long-dash triple-dot ____ ... ____ ... ____
 72
    65
 73
     8
 40
1.419999999999999
 49
0.9399999999999998
 74
     0
 49
-0.12
 74
     0
 49
0.0
 74
     0
 49
-0.12
 74
     0
 49
0.0
 74
     0
 49
-0.12
 74
     0
 49
0.0
 74
     0
 49
-0.12
 74
     0
  0
LTYPE
  5
A8
330
5
100
AcDbSymbolTableRecord
100
AcDbLinetypeTableRecord
  2
ACAD_ISO07W100
 70
     0
  3
ISO dot . . . . . . . . . . . . . . . . . . . .
 72
    65
 73
     2
 40
0.12
 49
0.0
 74
     0
 49
-0.12
 74
     0
  0
LTYPE
  5
A9
330
5
100
AcDbSymbolTableRecord
100
AcDbLinetypeTableRecord
  2
ACAD_ISO08W100
 70
     0
  3
ISO long-dash short-dash ____ __ ____ __ ____ _
 72
    65
 73
     4
 40
0.95
 49
0.47
 74
     0
 49
-0.12
 74
     0
 49
0.24
 74
     0
 49
-0.12
 74
     0
  0
LTYPE
  5
AA
330
5
100
AcDbSymbolTableRecord
100
AcDbLinetypeTableRecord
  2
ACAD_ISO09W100
 70
     0
  3
ISO long-dash double-short-dash ____ __ __ ____
 72
    65
 73
     6
 40
1.31
 49
0.47
 74
     0
 49
-0.12
 74
     0
 49
0.24
 74
     0
 49
-0.12
 74
     0
 49
0.24
 74
     0
 49
-0.12
 74
     0
  0
LTYPE
  5
AB
330
5
100
AcDbSymbolTableRecord
100
AcDbLinetypeTableRecord
  2
ACAD_ISO10W100
 70
     0
  3
ISO dash dot __ . __ . __ . __ . __ . __ . __ .
 72
    65
 73
     4
 40
0.71
 49
0.47
 74
     0
 49
-0.12
 74
     0
 49
0.0
 74
     0
 49
-0.12
 74
     0
  0
LTYPE
  5
AC
330
5
100
AcDbSymbolTableRecord
100
AcDbLinetypeTableRecord
  2
ACAD_ISO11W100
 70
     0
  3
ISO double-dash dot __ __ . __ __ . __ __ . __ 
 72
    65
 73
     6
 40
1.299999999999999
 49
0.47
 74
     0
 49
-0.12
 74
     0
 49
0.47
 74
     0
 49
-0.12
 74
     0
 49
0.0
 74
     0
 49
-0.12
 74
     0
  0
LTYPE
  5
AD
330
5
100
AcDbSymbolTableRecord
100
AcDbLinetypeTableRecord
  2
ACAD_ISO12W100
 70
     0
  3
ISO dash double-dot __ . . __ . . __ . . __ . .
 72
    65
 73
     6
 40
0.8299999999999998
 49
0.47
 74
     0
 49
-0.12
 74
     0
 49
0.0
 74
     0
 49
-0.12
 74
     0
 49
0.0
 74
     0
 49
-0.12
 74
     0
  0
LTYPE
  5
AE
330
5
100
AcDbSymbolTableRecord
100
AcDbLinetypeTableRecord
  2
ACAD_ISO13W100
 70
     0
  3
ISO double-dash double-dot __ __ . . __ __ . . 
 72
    65
 73
     8
 40
1.419999999999999
 49
0.47
 74
     0
 49
-0.12
 74
     0
 49
0.47
 74
     0
 49
-0.12
 74
     0
 49
0.0
 74
     0
 49
-0.12
 74
     0
 49
0.0
 74
     0
 49
-0.12
 74
     0
  0
LTYPE
  5
AF
330
5
100
AcDbSymbolTableRecord
100
AcDbLinetypeTableRecord
  2
ACAD_ISO14W100
 70
     0
  3
ISO dash triple-dot __ . . . __ . . . __ . . . 
 72
    65
 73
     8
 40
0.95
 49
0.47
 74
     0
 49
-0.12
 74
     0
 49
0.0
 74
     0
 49
-0.12
 74
     0
 49
0.0
 74
     0
 49
-0.12
 74
     0
 49
0.0
 74
     0
 49
-0.12
 74
     0
  0
LTYPE
  5
B0
330
5
100
AcDbSymbolTableRecord
100
AcDbLinetypeTableRecord
  2
ACAD_ISO15W100
 70
     0
  3
ISO double-dash triple-dot __ __ . . . __ __ . 
 72
    65
 73
    10
 40
1.539999999999999
 49
0.47
 74
     0
 49
-0.12
 74
     0
 49
0.47
 74
     0
 49
-0.12
 74
     0
 49
0.0
 74
     0
 49
-0.12
 74
     0
 49
0.0
 74
     0
 49
-0.12
 74
     0
 49
0.0
 74
     0
 49
-0.12
 74
     0
  0
LTYPE
  5
B3
330
5
100
AcDbSymbolTableRecord
100
AcDbLinetypeTableRecord
  2
FENCELINE1
 70
     0
  3
Fenceline circle ----0-----0----0-----0----0---
 72
    65
 73
     4
 40
1.45
 49
0.25
 74
     0
 49
-0.1
 74
     4
 75
   133
340
B2
 46
0.1
 50
0.0
 44
-0.1
 45
0.0
 49
-0.1
 74
     0
 49
1.0
 74
     0
  0
LTYPE
  5
B4
330
5
100
AcDbSymbolTableRecord
100
AcDbLinetypeTableRecord
  2
FENCELINE2
 70
     0
  3
Fenceline square ----[]-----[]----[]-----[]----
 72
    65
 73
     4
 40
1.45
 49
0.25
 74
     0
 49
-0.1
 74
     4
 75
   132
340
B2
 46
0.1
 50
0.0
 44
-0.1
 45
0.0
 49
-0.1
 74
     0
 49
1.0
 74
     0
  0
LTYPE
  5
B5
330
5
100
AcDbSymbolTableRecord
100
AcDbLinetypeTableRecord
  2
TRACKS
 70
     0
  3
Tracks -|-|-|-|-|-|-|-|-|-|-|-|-|-|-|-|-|-|-|-|
 72
    65
 73
     2
 40
0.3
 49
0.15
 74
     4
 75
   130
340
B2
 46
0.25
 50
0.0
 44
0.0
 45
0.0
 49
0.15
 74
     0
  0
LTYPE
  5
B6
330
5
100
AcDbSymbolTableRecord
100
AcDbLinetypeTableRecord
  2
BATTING
 70
     0
  3
Batting SSSSSSSSSSSSSSSSSSSSSSSSSSSSSSSSSSSSSSS
 72
    65
 73
     4
 40
0.4001000000000001
 49
0.0001
 74
     0
 49
-0.1
 74
     4
 75
   134
340
B2
 46
0.1
 50
0.0
 44
-0.1
 45
0.0
 49
-0.2
 74
     4
 75
   134
340
B2
 46
0.1
 50
180.0
 44
0.1
 45
0.0
 49
-0.1
 74
     0
  0
LTYPE
  5
B7
330
5
100
AcDbSymbolTableRecord
100
AcDbLinetypeTableRecord
  2
HOT_WATER_SUPPLY
 70
     0
  3
Hot water supply ---- HW ---- HW ---- HW ----
 72
    65
 73
     3
 40
0.9
 49
0.5
 74
     0
 49
-0.2
 74
     2
 75
     0
340
55
 46
0.1
 50
0.0
 44
-0.1
 45
-0.05
  9
HW
 49
-0.2
 74
     0
  0
LTYPE
  5
B8
330
5
100
AcDbSymbolTableRecord
100
AcDbLinetypeTableRecord
  2
GAS_LINE
 70
     0
  3
Gas line ----GAS----GAS----GAS----GAS----GAS---
 72
    65
 73
     3
 40
0.95
 49
0.5
 74
     0
 49
-0.2
 74
     2
 75
     0
340
55
 46
0.1
 50
0.0
 44
-0.1
 45
-0.05
  9
GAS
 49
-0.25
 74
     0
  0
LTYPE
  5
B9
330
5
100
AcDbSymbolTableRecord
100
AcDbLinetypeTableRecord
  2
ZIGZAG
 70
     0
  3
Zig zag /\/\/\/\/\/\/\/\/\/\/\/\/\/\/\/\/\/\/\/
 72
    65
 73
     4
 40
0.8001000000000001
 49
0.0001
 74
     0
 49
-0.2
 74
     4
 75
   131
340
B2
 46
0.2
 50
0.0
 44
-0.2
 45
0.0
 49
-0.4
 74
     4
 75
   131
340
B2
 46
0.2
 50
180.0
 44
0.2
 45
0.0
 49
-0.2
 74
     0
  0
ENDTAB
  0
TABLE
  2
LAYER
  5
2
330
0
100
AcDbSymbolTable
 70
    27
  0
LAYER
  5
54
330
2
100
AcDbSymbolTableRecord
100
AcDbLayerTableRecord
  2
0
 70
     0
 62
     7
  6
Continuous
370
     0
390
F
  0
LAYER
  5
C0
330
2
100
AcDbSymbolTableRecord
100
AcDbLayerTableRecord
  2
Center Mark (ANSI)
 70
     0
 62
     7
  6
Continuous
370
     5
390
F
  0
LAYER
  5
C1
330
2
100
AcDbSymbolTableRecord
100
AcDbLayerTableRecord
  2
Centerline (ANSI)
 70
     0
 62
     7
  6
Continuous
370
     5
390
F
  0
LAYER
  5
C3
330
2
100
AcDbSymbolTableRecord
100
AcDbLayerTableRecord
  2
Dimension (ANSI)
 70
     0
 62
     7
  6
Continuous
370
     5
390
F
  0
LAYER
  5
CC
330
2
100
AcDbSymbolTableRecord
100
AcDbLayerTableRecord
  2
Symbol (ANSI)
 70
     0
 62
     7
  6
Continuous
370
     5
390
F
  0
LAYER
  5
CF
330
2
100
AcDbSymbolTableRecord
100
AcDbLayerTableRecord
  2
Visible (ANSI)
 70
     0
 62
     7
  6
Continuous
370
     5
390
F
  0
LAYER
  5
D0
330
2
100
AcDbSymbolTableRecord
100
AcDbLayerTableRecord
  2
Visible Narrow (ANSI)
 70
     0
 62
     7
  6
Continuous
370
     5
390
F
  0
LAYER
  5
2BB
330
2
100
AcDbSymbolTableRecord
100
AcDbLayerTableRecord
  2
Defpoints
 70
     0
 62
     7
  6
Continuous
290
     0
370
    -3
390
F
  0
ENDTAB
  0
TABLE
  2
STYLE
  5
3
330
0
100
AcDbSymbolTable
 70
    10
  0
STYLE
  5
55
330
3
100
AcDbSymbolTableRecord
100
AcDbTextStyleTableRecord
  2
Standard
 70
     0
 40
0.0
 41
1.0
 50
0.0
 71
     0
 42
0.2
  3
txt
  4

  0
STYLE
  5
5A
330
3
100
AcDbSymbolTableRecord
100
AcDbTextStyleTableRecord
  2
Annotative
 70
     0
 40
0.0
 41
1.0
 50
0.0
 71
     0
 42
0.2
  3
txt
  4

1001
AcadAnnotative
1000
AnnotativeData
1002
{
1070
     1
1070
     1
1002
}
  0
STYLE
  5
B2
330
3
100
AcDbSymbolTableRecord
100
AcDbTextStyleTableRecord
  2

 70
     1
 40
0.0
 41
1.0
 50
0.0
 71
     0
 42
0.2
  3
ltypeshp.shx
  4

  0
STYLE
  5
D4
330
3
100
AcDbSymbolTableRecord
100
AcDbTextStyleTableRecord
  2
ITALICC_120
 70
     0
 40
0.0
 41
1.0
 50
0.0
 71
     0
 42
0.2
  3
italicc.shx
  4

  0
STYLE
  5
D5
330
3
100
AcDbSymbolTableRecord
100
AcDbTextStyleTableRecord
  2
Label Text (ANSI)
 70
     0
 40
0.0
 41
1.0
 50
0.0
 71
     0
 42
0.2
  3
tahoma.ttf
  4

1001
ACAD
1000
Tahoma
1071
      256
  0
STYLE
  5
D6
330
3
100
AcDbSymbolTableRecord
100
AcDbTextStyleTableRecord
  2
Note Text (ANSI)
 70
     0
 40
0.0
 41
1.0
 50
0.0
 71
     0
 42
0.2
  3
RomanS.shx
  4

  0
STYLE
  5
D7
330
3
100
AcDbSymbolTableRecord
100
AcDbTextStyleTableRecord
  2
ROMANS
 70
     0
 40
0.0
 41
1.0
 50
0.0
 71
     0
 42
0.2
  3
romans.shx
  4

  0
STYLE
  5
D8
330
3
100
AcDbSymbolTableRecord
100
AcDbTextStyleTableRecord
  2
SANSSERIF_114
 70
     0
 40
0.0
 41
1.0
 50
0.0
 71
     0
 42
0.2
  3
tahoma.ttf
  4

1001
ACAD
1000
Tahoma
1071
      256
  0
STYLE
  5
D9
330
3
100
AcDbSymbolTableRecord
100
AcDbTextStyleTableRecord
  2
SANSSERIF_117
 70
     0
 40
0.0
 41
1.0
 50
0.0
 71
     0
 42
0.2
  3
tahoma.ttf
  4

1001
ACAD
1000
Tahoma
1071
      256
  0
STYLE
  5
15E
330
3
100
AcDbSymbolTableRecord
100
AcDbTextStyleTableRecord
  2
Text Style168
 70
     0
 40
0.0
 41
1.0
 50
0.0
 71
     0
 42
0.2
  3
tahoma.ttf
  4

1001
ACAD
1000
Tahoma
1071
      256
  0
ENDTAB
  0
TABLE
  2
VIEW
  5
6
330
0
100
AcDbSymbolTable
 70
     0
  0
ENDTAB
  0
TABLE
  2
UCS
  5
7
330
0
100
AcDbSymbolTable
 70
     0
  0
ENDTAB
  0
TABLE
  2
APPID
  5
9
330
0
100
AcDbSymbolTable
 70
     5
  0
APPID
  5
56
330
9
100
AcDbSymbolTableRecord
100
AcDbRegAppTableRecord
  2
ACAD
 70
     0
  0
APPID
  5
5E
330
9
100
AcDbSymbolTableRecord
100
AcDbRegAppTableRecord
  2
AcadAnnotative
 70
     0
  0
APPID
  5
625
330
9
100
AcDbSymbolTableRecord
100
AcDbRegAppTableRecord
  2
ACAD_DSTYLE_DIMANGULAR_EXTENSION
 70
     0
  0
APPID
  5
F0E
330
9
100
AcDbSymbolTableRecord
100
AcDbRegAppTableRecord
  2
ACAD_DSTYLE_DIMRADIAL_EXTENSION
 70
     0
  0
APPID
  5
15C5
330
9
100
AcDbSymbolTableRecord
100
AcDbRegAppTableRecord
  2
ACAD_MLEADERVER
 70
     0
  0
ENDTAB
  0
TABLE
  2
DIMSTYLE
  5
A
330
0
100
AcDbSymbolTable
 70
    15
100
AcDbDimStyleTable
 71
     2
340
E2
340
58
  0
DIMSTYLE
105
58
330
A
100
AcDbSymbolTableRecord
100
AcDbDimStyleTableRecord
  2
Standard
 70
     0
340
55
  0
DIMSTYLE
105
59
330
A
100
AcDbSymbolTableRecord
100
AcDbDimStyleTableRecord
  2
Annotative
 70
     0
340
55
1001
AcadAnnotative
1000
AnnotativeData
1002
{
1070
     1
1070
     1
1002
}
  0
DIMSTYLE
105
DA
330
A
100
AcDbSymbolTableRecord
100
AcDbDimStyleTableRecord
  2
Architectural (ANSI)
 70
     0
 40
6.0
 41
0.0984251946210861
 43
0.2362204724409449
 44
0.125
 45
0.00000001
 46
0.3937007874015748
 78
     3
 79
     3
140
0.1000000014901161
146
1.200000047683715
147
0.031496062992126
171
     1
176
   256
177
   256
178
   256
272
     2
274
     1
276
     2
277
     4
284
    12
285
     4
286
    12
340
D6
371
    -1
372
    -1
  0
DIMSTYLE
105
DB
330
A
100
AcDbSymbolTableRecord
100
AcDbDimStyleTableRecord
  2
Architectural (ANSI)$7
 70
     0
 40
6.0
 41
0.0984251946210861
 43
0.2362204724409449
 44
0.125
 45
0.00000001
 46
0.3937007874015748
 78
     3
 79
     3
140
0.1000000014901161
146
1.200000047683715
147
0.031496062992126
171
     1
176
   256
177
   256
178
   256
272
     2
274
     1
276
     2
277
     4
284
    12
285
     4
286
    12
340
D6
371
    -1
372
    -1
  0
DIMSTYLE
105
DC
330
A
100
AcDbSymbolTableRecord
100
AcDbDimStyleTableRecord
  2
Default - Fraction (ANSI)
 70
     0
 40
6.0
 41
0.0984251946210861
 43
0.2362204724409449
 44
0.125
 45
0.00000001
 46
0.3937007874015748
 79
     3
140
0.1000000014901161
146
1.200000047683715
147
0.031496062992126
171
     1
176
   256
177
   256
178
   256
272
     2
274
     1
276
     2
277
     5
284
    12
285
     4
286
    12
340
D6
371
    -1
372
    -1
  0
DIMSTYLE
105
DD
330
A
100
AcDbSymbolTableRecord
100
AcDbDimStyleTableRecord
  2
Default - Fraction (ANSI)$7
 70
     0
 40
6.0
 41
0.0984251946210861
 43
0.2362204724409449
 44
0.125
 45
0.00000001
 46
0.3937007874015748
 79
     3
140
0.1000000014901161
146
1.200000047683715
147
0.031496062992126
171
     1
176
   256
177
   256
178
   256
272
     2
274
     1
276
     2
277
     5
284
    12
285
     4
286
    12
340
D6
371
    -1
372
    -1
  0
DIMSTYLE
105
DE
330
A
100
AcDbSymbolTableRecord
100
AcDbDimStyleTableRecord
  2
Default - mm (ANSI)
 70
     0
 40
6.0
 41
0.0984251946210861
 42
0.063
 43
0.2362204724409449
 44
0.125
 45
0.00000001
 46
0.3937007874015748
 73
     0
 78
     4
 79
     1
140
0.1000000014901161
143
1.0
144
25.4
146
1.200000047683715
147
0.031496062992126
171
     1
176
   256
177
   256
178
   256
179
     1
271
     2
272
     2
274
     1
284
     4
285
     4
340
D6
371
    -1
372
    -1
  0
DIMSTYLE
105
DF
330
A
100
AcDbSymbolTableRecord
100
AcDbDimStyleTableRecord
  2
Default - mm (ANSI)$7
 70
     0
 40
6.0
 41
0.0984251946210861
 42
0.063
 43
0.2362204724409449
 44
0.125
 45
0.00000001
 46
0.3937007874015748
 73
     0
 78
     4
 79
     1
140
0.1000000014901161
143
1.0
144
25.4
146
1.200000047683715
147
0.031496062992126
171
     1
176
   256
177
   256
178
   256
179
     1
271
     2
272
     2
274
     1
284
     4
285
     4
340
D6
371
    -1
372
    -1
  0
DIMSTYLE
105
E0
330
A
100
AcDbSymbolTableRecord
100
AcDbDimStyleTableRecord
  2
Default - mm [in] (ANSI)
 70
     0
  4
 in
 40
6.0
 41
0.0984251946210861
 42
0.063
 43
0.25
 44
0.125
 45
0.00000001
 46
0.3937007874015748
 73
     0
 78
     4
 79
     1
140
0.1000000014901161
143
0.03937
144
25.4
146
1.200000047683715
147
0.031496062992126
170
     1
171
     3
176
   256
177
   256
178
   256
179
     1
271
     2
272
     2
274
     3
284
     4
285
     4
286
     4
340
D6
371
    -1
372
    -1
  0
DIMSTYLE
105
E1
330
A
100
AcDbSymbolTableRecord
100
AcDbDimStyleTableRecord
  2
Default - mm [in] (ANSI)$7
 70
     0
  4
 in
 40
6.0
 41
0.0984251946210861
 42
0.063
 43
0.25
 44
0.125
 45
0.00000001
 46
0.3937007874015748
 73
     0
 78
     4
 79
     1
140
0.1000000014901161
143
0.03937
144
25.4
146
1.200000047683715
147
0.031496062992126
170
     1
171
     3
176
   256
177
   256
178
   256
179
     1
271
     2
272
     2
274
     3
284
     4
285
     4
286
     4
340
D6
371
    -1
372
    -1
  0
DIMSTYLE
105
E2
102
{ACAD_REACTORS
330
2B9
330
3BA
330
4B8
330
5A2
330
6CB
330
7BA
330
8B7
330
9B7
330
AA1
330
BA1
330
C8B
330
D77
330
E75
330
F34
330
101E
330
1108
330
11F2
330
12EF
330
13DF
330
1498
102
}
330
A
100
AcDbSymbolTableRecord
100
AcDbDimStyleTableRecord
  2
Default (ANSI)
 70
     0
 40
6.0
 41
0.0984251946210861
 43
0.2362204724409449
 44
0.125
 45
0.00000001
 46
0.3937007874015748
140
0.1000000014901161
147
0.031496062992126
176
   256
177
   256
178
   256
271
     2
272
     2
340
D7
371
    -1
372
    -1
  0
DIMSTYLE
105
E3
330
A
100
AcDbSymbolTableRecord
100
AcDbDimStyleTableRecord
  2
Default (ANSI)$7
 70
     0
 40
6.0
 41
0.0984251946210861
 43
0.2362204724409449
 44
0.125
 45
0.00000001
 46
0.3937007874015748
140
0.1000000014901161
147
0.031496062992126
176
   256
177
   256
178
   256
271
     2
272
     2
340
D7
371
    -1
372
    -1
  0
DIMSTYLE
105
E4
330
A
100
AcDbSymbolTableRecord
100
AcDbDimStyleTableRecord
  2
Alternate (ANSI)
 70
     0
 40
6.0
 41
0.0979999974370003
340
55
342
E5
  0
DIMSTYLE
105
F7
330
A
100
AcDbSymbolTableRecord
100
AcDbDimStyleTableRecord
  2
Datum (ANSI)
 70
     0
 40
6.0
 41
0.0979999974370003
340
55
342
E5
  0
DIMSTYLE
105
106
330
A
100
AcDbSymbolTableRecord
100
AcDbDimStyleTableRecord
  2
Large (ANSI)
 70
     0
 40
6.0
 41
0.1959999948740005
340
55
342
E5
  0
ENDTAB
  0
TABLE
  2
BLOCK_RECORD
  5
1
330
0
100
AcDbSymbolTable
 70
    24
  0
BLOCK_RECORD
  5
6C
330
1
100
AcDbSymbolTableRecord
100
AcDbBlockTableRecord
  2
*Model_Space
340
6F
  0
BLOCK_RECORD
  5
68
330
1
100
AcDbSymbolTableRecord
100
AcDbBlockTableRecord
  2
*Paper_Space
340
6B
  0
BLOCK_RECORD
  5
70
330
1
100
AcDbSymbolTableRecord
100
AcDbBlockTableRecord
  2
*Paper_Space0
340
73
  0
BLOCK_RECORD
  5
E5
330
1
100
AcDbSymbolTableRecord
100
AcDbBlockTableRecord
  2
_Closed
340
0
  0
BLOCK_RECORD
  5
EC
330
1
100
AcDbSymbolTableRecord
100
AcDbBlockTableRecord
  2
DatumFilled45
340
0
  0
BLOCK_RECORD
  5
F8
330
1
100
AcDbSymbolTableRecord
100
AcDbBlockTableRecord
  2
Filled-1
340
0
  0
BLOCK_RECORD
  5
2BC
330
1
100
AcDbSymbolTableRecord
100
AcDbBlockTableRecord
  2
*D4
340
0
  0
BLOCK_RECORD
  5
3BB
330
1
100
AcDbSymbolTableRecord
100
AcDbBlockTableRecord
  2
*D5
340
0
  0
BLOCK_RECORD
  5
4B9
330
1
100
AcDbSymbolTableRecord
100
AcDbBlockTableRecord
  2
*D6
340
0
  0
BLOCK_RECORD
  5
5A3
330
1
100
AcDbSymbolTableRecord
100
AcDbBlockTableRecord
  2
*D7
340
0
  0
BLOCK_RECORD
  5
6CC
330
1
100
AcDbSymbolTableRecord
100
AcDbBlockTableRecord
  2
*D8
340
0
  0
BLOCK_RECORD
  5
7BB
330
1
100
AcDbSymbolTableRecord
100
AcDbBlockTableRecord
  2
*D9
340
0
  0
BLOCK_RECORD
  5
8B8
330
1
100
AcDbSymbolTableRecord
100
AcDbBlockTableRecord
  2
*D10
340
0
  0
BLOCK_RECORD
  5
9B8
330
1
100
AcDbSymbolTableRecord
100
AcDbBlockTableRecord
  2
*D11
340
0
  0
BLOCK_RECORD
  5
AA2
330
1
100
AcDbSymbolTableRecord
100
AcDbBlockTableRecord
  2
*D12
340
0
  0
BLOCK_RECORD
  5
BA2
330
1
100
AcDbSymbolTableRecord
100
AcDbBlockTableRecord
  2
*D13
340
0
  0
BLOCK_RECORD
  5
C8C
330
1
100
AcDbSymbolTableRecord
100
AcDbBlockTableRecord
  2
*D14
340
0
  0
BLOCK_RECORD
  5
D78
330
1
100
AcDbSymbolTableRecord
100
AcDbBlockTableRecord
  2
*D15
340
0
  0
BLOCK_RECORD
  5
E76
330
1
100
AcDbSymbolTableRecord
100
AcDbBlockTableRecord
  2
*D16
340
0
  0
BLOCK_RECORD
  5
F35
330
1
100
AcDbSymbolTableRecord
100
AcDbBlockTableRecord
  2
*D17
340
0
  0
BLOCK_RECORD
  5
101F
330
1
100
AcDbSymbolTableRecord
100
AcDbBlockTableRecord
  2
*D18
340
0
  0
BLOCK_RECORD
  5
1109
330
1
100
AcDbSymbolTableRecord
100
AcDbBlockTableRecord
  2
*D19
340
0
  0
BLOCK_RECORD
  5
11F3
330
1
100
AcDbSymbolTableRecord
100
AcDbBlockTableRecord
  2
*D20
340
0
  0
BLOCK_RECORD
  5
12F0
330
1
100
AcDbSymbolTableRecord
100
AcDbBlockTableRecord
  2
*D21
340
0
  0
BLOCK_RECORD
  5
13E0
330
1
100
AcDbSymbolTableRecord
100
AcDbBlockTableRecord
  2
*D22
340
0
  0
BLOCK_RECORD
  5
1499
330
1
100
AcDbSymbolTableRecord
100
AcDbBlockTableRecord
  2
*D23
340
0
  0
ENDTAB
  0
ENDSEC
  0
SECTION
  2
BLOCKS
  0
BLOCK
  5
6D
330
6C
100
AcDbEntity
  8
0
100
AcDbBlockBegin
  2
*Model_Space
 70
     0
 10
0.0
 20
0.0
 30
0.0
  3
*Model_Space
  1

  0
ENDBLK
  5
6E
330
6C
100
AcDbEntity
  8
0
100
AcDbBlockEnd
  0
BLOCK
  5
69
330
68
100
AcDbEntity
 67
     1
  8
0
100
AcDbBlockBegin
  2
*Paper_Space
 70
     0
 10
0.0
 20
0.0
 30
0.0
  3
*Paper_Space
  1

  0
ENDBLK
  5
6A
330
68
100
AcDbEntity
 67
     1
  8
0
100
AcDbBlockEnd
  0
BLOCK
  5
71
330
70
100
AcDbEntity
 67
     1
  8
0
100
AcDbBlockBegin
  2
*Paper_Space0
 70
     0
 10
0.0
 20
0.0
 30
0.0
  3
*Paper_Space0
  1

  0
ENDBLK
  5
72
330
70
100
AcDbEntity
 67
     1
  8
0
100
AcDbBlockEnd
  0
BLOCK
  5
EA
330
E5
100
AcDbEntity
  8
0
100
AcDbBlockBegin
  2
_Closed
 70
     0
 10
0.0
 20
0.0
 30
0.0
  3
_Closed
  1

  0
LINE
  5
E6
330
E5
100
AcDbEntity
  8
0
  6
ByBlock
 62
     0
370
    -2
100
AcDbLine
 10
-1.0
 20
0.1666666666666666
 30
0.0
 11
0.0
 21
0.0
 31
0.0
  0
LINE
  5
E7
330
E5
100
AcDbEntity
  8
0
  6
ByBlock
 62
     0
370
    -2
100
AcDbLine
 10
0.0
 20
0.0
 30
0.0
 11
-1.0
 21
-0.1666666666666666
 31
0.0
  0
LINE
  5
E8
330
E5
100
AcDbEntity
  8
0
  6
ByBlock
 62
     0
370
    -2
100
AcDbLine
 10
-1.0
 20
0.1666666666666666
 30
0.0
 11
-1.0
 21
-0.1666666666666666
 31
0.0
  0
LINE
  5
E9
330
E5
100
AcDbEntity
  8
0
  6
ByBlock
 62
     0
370
    -2
100
AcDbLine
 10
0.0
 20
0.0
 30
0.0
 11
-1.0
 21
0.0
 31
0.0
  0
ENDBLK
  5
EB
330
E5
100
AcDbEntity
  8
0
100
AcDbBlockEnd
  0
BLOCK
  5
ED
330
EC
100
AcDbEntity
  8
0
100
AcDbBlockBegin
  2
DatumFilled45
 70
     0
 10
0.0
 20
0.0
 30
0.0
  3
DatumFilled45
  1

  0
POLYLINE
  5
EF
330
EC
100
AcDbEntity
  8
0
 62
     0
100
AcDb2dPolyline
 66
     1
 10
0.0
 20
0.0
 30
0.0
 70
   128
  0
VERTEX
  5
F0
330
EF
100
AcDbEntity
  8
0
 62
     0
100
AcDbVertex
100
AcDb2dVertex
 10
0.0
 20
0.9999999999999998
 30
0.0
  0
VERTEX
  5
F1
330
EF
100
AcDbEntity
  8
0
 62
     0
100
AcDbVertex
100
AcDb2dVertex
 10
0.0
 20
-0.9999999999999998
 30
0.0
  0
VERTEX
  5
F3
330
EF
100
AcDbEntity
  8
0
 62
     0
100
AcDbVertex
100
AcDb2dVertex
 10
-0.9999999999999998
 20
0.0
 30
0.0
  0
VERTEX
  5
F4
330
EF
100
AcDbEntity
  8
0
 62
     0
100
AcDbVertex
100
AcDb2dVertex
 10
0.0
 20
0.9999999999999998
 30
0.0
  0
SEQEND
  5
F2
330
EF
100
AcDbEntity
  8
0
 62
     0
  0
SOLID
  5
F6
330
EC
100
AcDbEntity
  8
0
 62
     0
100
AcDbTrace
 10
0.0
 20
0.9999999999999998
 30
0.0
 11
0.0
 21
-0.9999999999999998
 31
0.0
 12
-0.9999999999999998
 22
0.0
 32
0.0
 13
0.0
 23
0.9999999999999998
 33
0.0
  0
ENDBLK
  5
EE
330
EC
100
AcDbEntity
  8
0
100
AcDbBlockEnd
  0
BLOCK
  5
F9
330
F8
100
AcDbEntity
  8
0
100
AcDbBlockBegin
  2
Filled-1
 70
     0
 10
0.0
 20
0.0
 30
0.0
  3
Filled-1
  1

  0
LINE
  5
FB
330
F8
100
AcDbEntity
  8
0
 62
     0
100
AcDbLine
 10
-0.9999999999999998
 20
0.0
 30
0.0
 11
0.0
 21
0.0
 31
0.0
  0
POLYLINE
  5
FC
330
F8
100
AcDbEntity
  8
0
 62
     0
100
AcDb2dPolyline
 66
     1
 10
0.0
 20
0.0
 30
0.0
 70
   128
  0
VERTEX
  5
FD
330
FC
100
AcDbEntity
  8
0
 62
     0
100
AcDbVertex
100
AcDb2dVertex
 10
-0.9999999999999998
 20
-0.0994897959183674
 30
0.0
  0
VERTEX
  5
FE
330
FC
100
AcDbEntity
  8
0
 62
     0
100
AcDbVertex
100
AcDb2dVertex
 10
0.0
 20
0.0
 30
0.0
  0
VERTEX
  5
100
330
FC
100
AcDbEntity
  8
0
 62
     0
100
AcDbVertex
100
AcDb2dVertex
 10
-0.9999999999999998
 20
0.0994897959183674
 30
0.0
  0
VERTEX
  5
101
330
FC
100
AcDbEntity
  8
0
 62
     0
100
AcDbVertex
100
AcDb2dVertex
 10
-0.9999999999999998
 20
-0.0994897959183674
 30
0.0
  0
SEQEND
  5
FF
330
FC
100
AcDbEntity
  8
0
 62
     0
  0
SOLID
  5
102
330
F8
100
AcDbEntity
  8
0
 62
     0
100
AcDbTrace
 10
-0.9999999999999998
 20
-0.0994897959183674
 30
0.0
 11
0.0
 21
0.0
 31
0.0
 12
-0.9999999999999998
 22
0.0994897959183674
 32
0.0
 13
-0.9999999999999998
 23
-0.0994897959183674
 33
0.0
  0
LINE
  5
103
330
F8
100
AcDbEntity
  8
0
 62
     0
100
AcDbLine
 10
-0.9999999999999998
 20
-0.0994897959183674
 30
0.0
 11
0.0
 21
0.0
 31
0.0
  0
LINE
  5
104
330
F8
100
AcDbEntity
  8
0
 62
     0
100
AcDbLine
 10
0.0
 20
0.0
 30
0.0
 11
-0.9999999999999998
 21
0.0994897959183674
 31
0.0
  0
LINE
  5
105
330
F8
100
AcDbEntity
  8
0
 62
     0
100
AcDbLine
 10
-0.9999999999999998
 20
0.0994897959183674
 30
0.0
 11
-0.9999999999999998
 21
-0.0994897959183674
 31
0.0
  0
ENDBLK
  5
FA
330
F8
100
AcDbEntity
  8
0
100
AcDbBlockEnd
  0
BLOCK
  5
2BD
330
2BC
100
AcDbEntity
  8
0
100
AcDbBlockBegin
  2
*D4
 70
     1
 10
0.0
 20
0.0
 30
0.0
  3
*D4
  1

  0
LINE
  5
3B0
330
2BC
100
AcDbEntity
  8
Dimension (ANSI)
440
 16777216
100
AcDbLine
 10
39.36931690537425
 20
42.0022892393965
 30
0.0
 11
36.6321121809648
 21
42.0022892393965
 31
0.0
  0
LINE
  5
3B1
330
2BC
100
AcDbEntity
  8
Dimension (ANSI)
440
 16777216
100
AcDbLine
 10
39.60371690537421
 20
30.00241538059472
 30
0.0
 11
36.6321121809648
 21
30.00241538059472
 31
0.0
  0
LINE
  5
3B2
330
2BC
100
AcDbEntity
  8
Dimension (ANSI)
440
 16777216
100
AcDbLine
 10
37.38211218096481
 20
41.41173807166998
 30
0.0
 11
37.38211218096481
 21
36.99132869986929
 31
0.0
  0
LINE
  5
3B3
330
2BC
100
AcDbEntity
  8
Dimension (ANSI)
440
 16777216
100
AcDbLine
 10
37.38211218096481
 20
30.59296654832123
 30
0.0
 11
37.38211218096481
 21
35.01337592012192
 31
0.0
  0
SOLID
  5
3B4
330
2BC
100
AcDbEntity
  8
Dimension (ANSI)
440
 16777216
100
AcDbTrace
 10
37.28368698634372
 20
41.41173807166998
 30
0.0
 11
37.48053737558589
 21
41.41173807166998
 31
0.0
 12
37.38211218096481
 22
42.0022892393965
 32
0.0
 13
37.38211218096481
 23
42.0022892393965
 33
0.0
  0
SOLID
  5
3B5
330
2BC
100
AcDbEntity
  8
Dimension (ANSI)
440
 16777216
100
AcDbTrace
 10
37.28368698634372
 20
30.59296654832123
 30
0.0
 11
37.48053737558589
 21
30.59296654832123
 31
0.0
 12
37.38211218096481
 22
30.00241538059472
 32
0.0
 13
37.38211218096481
 23
30.00241538059472
 33
0.0
  0
MTEXT
  5
3B6
330
2BC
100
AcDbEntity
  8
Dimension (ANSI)
440
 16777216
100
AcDbMText
 10
37.3821121809648
 20
36.00235230999561
 30
0.0
 40
0.6000000089406968
 41
0.0
 71
     5
 72
     1
  1
\A1;12.00{\PHEIGHT}
  7
ROMANS
 73
     1
 44
1.0
  0
POINT
  5
3B7
330
2BC
100
AcDbEntity
  8
Defpoints
 62
     0
440
 16777216
100
AcDbPoint
 10
39.74431690537425
 20
42.0022892393965
 30
0.0
  0
POINT
  5
3B8
330
2BC
100
AcDbEntity
  8
Defpoints
 62
     0
440
 16777216
100
AcDbPoint
 10
39.97871690537421
 20
30.00241538059472
 30
0.0
  0
POINT
  5
3B9
330
2BC
100
AcDbEntity
  8
Defpoints
 62
     0
440
 16777216
100
AcDbPoint
 10
37.38211218096481
 20
30.00241538059472
 30
0.0
  0
ENDBLK
  5
2BE
330
2BC
100
AcDbEntity
  8
0
100
AcDbBlockEnd
  0
BLOCK
  5
3BC
330
3BB
100
AcDbEntity
  8
0
100
AcDbBlockBegin
  2
*D5
 70
     1
 10
0.0
 20
0.0
 30
0.0
  3
*D5
  1

  0
LINE
  5
4AE
330
3BB
100
AcDbEntity
  8
Dimension (ANSI)
440
 16777216
100
AcDbLine
 10
39.60371690537423
 20
42.2366892393965
 30
0.0
 11
39.60371690537423
 21
44.58019317640437
 31
0.0
  0
LINE
  5
4AF
330
3BB
100
AcDbEntity
  8
Dimension (ANSI)
440
 16777216
100
AcDbLine
 10
47.72871690537429
 20
42.2366892393965
 30
0.0
 11
47.72871690537429
 21
44.58019317640437
 31
0.0
  0
LINE
  5
4B0
330
3BB
100
AcDbEntity
  8
Dimension (ANSI)
440
 16777216
100
AcDbLine
 10
40.19426807310074
 20
43.83019317640437
 30
0.0
 11
42.26295479504151
 21
43.83019317640437
 31
0.0
  0
LINE
  5
4B1
330
3BB
100
AcDbEntity
  8
Dimension (ANSI)
440
 16777216
100
AcDbLine
 10
47.13816573764777
 20
43.83019317640437
 30
0.0
 11
45.069479015707
 21
43.83019317640437
 31
0.0
  0
SOLID
  5
4B2
330
3BB
100
AcDbEntity
  8
Dimension (ANSI)
440
 16777216
100
AcDbTrace
 10
40.19426807310074
 20
43.92861837102546
 30
0.0
 11
40.19426807310074
 21
43.73176798178328
 31
0.0
 12
39.60371690537423
 22
43.83019317640437
 32
0.0
 13
39.60371690537423
 23
43.83019317640437
 33
0.0
  0
SOLID
  5
4B3
330
3BB
100
AcDbEntity
  8
Dimension (ANSI)
440
 16777216
100
AcDbTrace
 10
47.13816573764777
 20
43.92861837102546
 30
0.0
 11
47.13816573764777
 21
43.73176798178328
 31
0.0
 12
47.72871690537429
 22
43.83019317640437
 32
0.0
 13
47.72871690537429
 23
43.83019317640437
 33
0.0
  0
MTEXT
  5
4B4
330
3BB
100
AcDbEntity
  8
Dimension (ANSI)
440
 16777216
100
AcDbMText
 10
43.66621690537425
 20
43.83019317640437
 30
0.0
 40
0.6000000089406968
 41
0.0
 71
     5
 72
     1
  1
\A1;8.13{\PWIDTH}
  7
ROMANS
 73
     1
 44
1.0
  0
POINT
  5
4B5
330
3BB
100
AcDbEntity
  8
Defpoints
 62
     0
440
 16777216
100
AcDbPoint
 10
39.60371690537423
 20
41.86168923939649
 30
0.0
  0
POINT
  5
4B6
330
3BB
100
AcDbEntity
  8
Defpoints
 62
     0
440
 16777216
100
AcDbPoint
 10
47.72871690537429
 20
41.8616892393965
 30
0.0
  0
POINT
  5
4B7
330
3BB
100
AcDbEntity
  8
Defpoints
 62
     0
440
 16777216
100
AcDbPoint
 10
47.72871690537429
 20
43.83019317640437
 30
0.0
  0
ENDBLK
  5
3BD
330
3BB
100
AcDbEntity
  8
0
100
AcDbBlockEnd
  0
BLOCK
  5
4BA
330
4B9
100
AcDbEntity
  8
0
100
AcDbBlockBegin
  2
*D6
 70
     1
 10
0.0
 20
0.0
 30
0.0
  3
*D6
  1

  0
LINE
  5
598
330
4B9
100
AcDbEntity
  8
Dimension (ANSI)
440
 16777216
100
AcDbLine
 10
10.49895596985362
 20
42.2366892393965
 30
0.0
 11
10.49895596985362
 21
45.80164446056743
 31
0.0
  0
LINE
  5
599
330
4B9
100
AcDbEntity
  8
Dimension (ANSI)
440
 16777216
100
AcDbLine
 10
18.49895596985362
 20
42.37728923939648
 30
0.0
 11
18.49895596985362
 21
45.80164446056743
 31
0.0
  0
LINE
  5
59A
330
4B9
100
AcDbEntity
  8
Dimension (ANSI)
440
 16777216
100
AcDbLine
 10
11.08950713758013
 20
45.05164446056743
 30
0.0
 11
13.39569386399122
 21
45.05164446056743
 31
0.0
  0
LINE
  5
59B
330
4B9
100
AcDbEntity
  8
Dimension (ANSI)
440
 16777216
100
AcDbLine
 10
17.9084048021271
 20
45.05164446056743
 30
0.0
 11
15.60221807571601
 21
45.05164446056743
 31
0.0
  0
SOLID
  5
59C
330
4B9
100
AcDbEntity
  8
Dimension (ANSI)
440
 16777216
100
AcDbTrace
 10
11.08950713758013
 20
45.15006965518852
 30
0.0
 11
11.08950713758013
 21
44.95321926594634
 31
0.0
 12
10.49895596985362
 22
45.05164446056743
 32
0.0
 13
10.49895596985362
 23
45.05164446056743
 33
0.0
  0
SOLID
  5
59D
330
4B9
100
AcDbEntity
  8
Dimension (ANSI)
440
 16777216
100
AcDbTrace
 10
17.9084048021271
 20
45.15006965518852
 30
0.0
 11
17.9084048021271
 21
44.95321926594634
 31
0.0
 12
18.49895596985362
 22
45.05164446056743
 32
0.0
 13
18.49895596985362
 23
45.05164446056743
 33
0.0
  0
MTEXT
  5
59E
330
4B9
100
AcDbEntity
  8
Dimension (ANSI)
440
 16777216
100
AcDbMText
 10
13.58467024194398
 20
45.35164446503777
 30
0.0
 40
0.6000000089406968
 41
0.0
 71
     1
 72
     1
  1
\A1;8.00
  7
ROMANS
 73
     1
 44
1.0
  0
POINT
  5
59F
330
4B9
100
AcDbEntity
  8
Defpoints
 62
     0
440
 16777216
100
AcDbPoint
 10
10.49895596985362
 20
41.86168923939649
 30
0.0
  0
POINT
  5
5A0
330
4B9
100
AcDbEntity
  8
Defpoints
 62
     0
440
 16777216
100
AcDbPoint
 10
18.49895596985362
 20
42.00228923939649
 30
0.0
  0
POINT
  5
5A1
330
4B9
100
AcDbEntity
  8
Defpoints
 62
     0
440
 16777216
100
AcDbPoint
 10
18.49895596985362
 20
45.05164446056743
 30
0.0
  0
ENDBLK
  5
4BB
330
4B9
100
AcDbEntity
  8
0
100
AcDbBlockEnd
  0
BLOCK
  5
5A4
330
5A3
100
AcDbEntity
  8
0
100
AcDbBlockBegin
  2
*D7
 70
     1
 10
0.0
 20
0.0
 30
0.0
  3
*D7
  1

  0
LINE
  5
6C0
330
5A3
100
AcDbEntity
  8
Dimension (ANSI)
440
 16777216
100
AcDbLine
 10
19.27266711881557
 20
42.00228923939648
 30
0.0
 11
22.88369161344832
 21
42.00228923939646
 31
0.0
  0
LINE
  5
6C1
330
5A3
100
AcDbEntity
  8
Dimension (ANSI)
440
 16777216
100
AcDbLine
 10
18.64738794904231
 20
42.74184634639198
 30
0.0
 11
19.24788124629515
 21
46.30259145111264
 31
0.0
  0
ARC
  5
6C2
330
5A3
100
AcDbEntity
  8
Dimension (ANSI)
440
 16777216
100
AcDbCircle
 10
18.52266711881558
 20
42.00228923939649
 30
0.0
 40
3.611024494632744
100
AcDbArc
 50
9.380692531085028
 51
26.40427917902742
  0
ARC
  5
6C3
330
5A3
100
AcDbEntity
  8
Dimension (ANSI)
440
 16777216
100
AcDbCircle
 10
18.52266711881558
 20
42.00228923939649
 30
0.0
 40
3.611024494632744
100
AcDbArc
 50
45.68634465915333
 51
71.04686807796548
  0
SOLID
  5
6C4
330
5A3
100
AcDbEntity
  8
Dimension (ANSI)
440
 16777216
100
AcDbTrace
 10
22.18349748544605
 20
42.59891104234529
 30
0.0
 11
21.98730631303035
 21
42.58281447094191
 31
0.0
 12
22.13369161344832
 22
42.00228923939646
 32
0.0
 13
22.13369161344832
 23
42.00228923939646
 33
0.0
  0
SOLID
  5
6C5
330
5A3
100
AcDbEntity
  8
Dimension (ANSI)
440
 16777216
100
AcDbTrace
 10
19.67125943550646
 20
45.32214917327755
 30
0.0
 11
19.71975738175508
 21
45.512931837465
 31
0.0
 12
19.12316041606843
 22
45.56303434411715
 32
0.0
 13
19.12316041606843
 23
45.56303434411715
 33
0.0
  0
MTEXT
  5
6C6
330
5A3
100
AcDbEntity
  8
Dimension (ANSI)
440
 16777216
100
AcDbMText
 10
20.86397358222711
 20
44.39709571142812
 30
0.0
 40
0.6000000089406968
 41
0.0
 71
     1
 72
     1
  1
\A1;80\U+00B0
  7
ROMANS
 73
     1
 44
1.0
  0
POINT
  5
6C7
330
5A3
100
AcDbEntity
  8
Defpoints
 62
     0
440
 16777216
100
AcDbPoint
 10
18.52266711881558
 20
42.00228923939649
 30
0.0
  0
POINT
  5
6C8
330
5A3
100
AcDbEntity
  8
Defpoints
 62
     0
440
 16777216
100
AcDbPoint
 10
18.89766711881558
 20
42.00228923939649
 30
0.0
  0
POINT
  5
6C9
330
5A3
100
AcDbEntity
  8
Defpoints
 62
     0
440
 16777216
100
AcDbPoint
 10
18.58502753392894
 20
42.37206779289422
 30
0.0
  0
POINT
  5
6CA
330
5A3
100
AcDbEntity
  8
Defpoints
 62
     0
440
 16777216
100
AcDbPoint
 10
20.66458508361585
 20
44.90946748176546
 30
0.0
  0
ENDBLK
  5
5A5
330
5A3
100
AcDbEntity
  8
0
100
AcDbBlockEnd
  0
BLOCK
  5
6CD
330
6CC
100
AcDbEntity
  8
0
100
AcDbBlockBegin
  2
*D8
 70
     1
 10
0.0
 20
0.0
 30
0.0
  3
*D8
  1

  0
LINE
  5
7B2
330
6CC
100
AcDbEntity
  8
Dimension (ANSI)
440
 16777216
100
AcDbLine
 10
45.88816573765154
 20
51.51124075020688
 30
0.0
 11
45.29761456992503
 21
51.51124075020688
 31
0.0
  0
LINE
  5
7B3
330
6CC
100
AcDbEntity
  8
Dimension (ANSI)
440
 16777216
100
AcDbLine
 10
48.31926807310458
 20
51.51124075020688
 30
0.0
 11
49.69199497807672
 21
51.51124075020688
 31
0.0
  0
SOLID
  5
7B4
330
6CC
100
AcDbEntity
  8
Dimension (ANSI)
440
 16777216
100
AcDbTrace
 10
45.88816573765154
 20
51.60966594482797
 30
0.0
 11
45.88816573765154
 21
51.41281555558579
 31
0.0
 12
46.47871690537806
 22
51.51124075020688
 32
0.0
 13
46.47871690537806
 23
51.51124075020688
 33
0.0
  0
SOLID
  5
7B5
330
6CC
100
AcDbEntity
  8
Dimension (ANSI)
440
 16777216
100
AcDbTrace
 10
48.31926807310458
 20
51.60966594482797
 30
0.0
 11
48.31926807310458
 21
51.41281555558579
 31
0.0
 12
47.72871690537806
 22
51.51124075020688
 32
0.0
 13
47.72871690537806
 23
51.51124075020688
 33
0.0
  0
MTEXT
  5
7B6
330
6CC
100
AcDbEntity
  8
Dimension (ANSI)
440
 16777216
100
AcDbMText
 10
51.43811423637556
 20
51.51124075020688
 30
0.0
 40
0.6000000089406968
 41
0.0
 71
     5
 72
     1
  1
\A1;1.25{\P(2 PL.)}
  7
ROMANS
 73
     1
 44
1.0
  0
POINT
  5
7B7
330
6CC
100
AcDbEntity
  8
Defpoints
 62
     0
440
 16777216
100
AcDbPoint
 10
46.47871690537806
 20
51.7227812744681
 30
0.0
  0
POINT
  5
7B8
330
6CC
100
AcDbEntity
  8
Defpoints
 62
     0
440
 16777216
100
AcDbPoint
 10
47.72871690537806
 20
51.65524384030344
 30
0.0
  0
POINT
  5
7B9
330
6CC
100
AcDbEntity
  8
Defpoints
 62
     0
440
 16777216
100
AcDbPoint
 10
47.72871690537806
 20
51.51124075020688
 30
0.0
  0
ENDBLK
  5
6CE
330
6CC
100
AcDbEntity
  8
0
100
AcDbBlockEnd
  0
BLOCK
  5
7BC
330
7BB
100
AcDbEntity
  8
0
100
AcDbBlockBegin
  2
*D9
 70
     1
 10
0.0
 20
0.0
 30
0.0
  3
*D9
  1

  0
LINE
  5
8A5
330
7BB
100
AcDbEntity
  8
Dimension (ANSI)
440
 16777216
100
AcDbLine
 10
40.71275288746491
 20
48.53975904979132
 30
0.0
 11
40.7127528874649
 21
47.9492078820648
 31
0.0
  0
LINE
  5
8A6
330
7BB
100
AcDbEntity
  8
Dimension (ANSI)
440
 16777216
100
AcDbLine
 10
40.71275288746491
 20
50.97086138524431
 30
0.0
 11
40.71275288746491
 21
51.998573305514
 31
0.0
  0
LINE
  5
8A7
330
7BB
100
AcDbEntity
  8
Dimension (ANSI)
440
 16777216
100
AcDbLine
 10
40.71275288746491
 20
51.998573305514
 30
0.0
 11
41.30330405519143
 21
51.998573305514
 31
0.0
  0
SOLID
  5
8A8
330
7BB
100
AcDbEntity
  8
Dimension (ANSI)
440
 16777216
100
AcDbTrace
 10
40.61432769284382
 20
48.53975904979132
 30
0.0
 11
40.811178082086
 21
48.53975904979132
 31
0.0
 12
40.71275288746491
 22
49.13031021751784
 32
0.0
 13
40.71275288746491
 23
49.13031021751784
 33
0.0
  0
SOLID
  5
8A9
330
7BB
100
AcDbEntity
  8
Dimension (ANSI)
440
 16777216
100
AcDbTrace
 10
40.61432769284382
 20
50.97086138524431
 30
0.0
 11
40.811178082086
 21
50.97086138524431
 31
0.0
 12
40.71275288746491
 22
50.3803102175178
 32
0.0
 13
40.71275288746491
 23
50.3803102175178
 33
0.0
  0
MTEXT
  5
8AA
330
7BB
100
AcDbEntity
  8
Dimension (ANSI)
440
 16777216
100
AcDbMText
 10
41.49228043314417
 20
52.29857330998435
 30
0.0
 40
0.6000000089406968
 41
0.0
 71
     1
 72
     1
  1
\A1;1.25
  7
ROMANS
 73
     1
 44
1.0
  0
POINT
  5
8AB
330
7BB
100
AcDbEntity
  8
Defpoints
 62
     0
440
 16777216
100
AcDbPoint
 10
42.02157495327344
 20
50.3803102175178
 30
0.0
  0
POINT
  5
8AC
330
7BB
100
AcDbEntity
  8
Defpoints
 62
     0
440
 16777216
100
AcDbPoint
 10
41.98813657446186
 20
49.13031021751784
 30
0.0
  0
POINT
  5
8AD
330
7BB
100
AcDbEntity
  8
Defpoints
 62
     0
440
 16777216
100
AcDbPoint
 10
40.71275288746491
 20
49.13031021751784
 30
0.0
  0
ENDBLK
  5
7BD
330
7BB
100
AcDbEntity
  8
0
100
AcDbBlockEnd
  0
BLOCK
  5
8B9
330
8B8
100
AcDbEntity
  8
0
100
AcDbBlockBegin
  2
*D10
 70
     1
 10
0.0
 20
0.0
 30
0.0
  3
*D10
  1

  0
LINE
  5
9AC
330
8B8
100
AcDbEntity
  8
Dimension (ANSI)
440
 16777216
100
AcDbLine
 10
39.36931690537007
 20
21.96852222655267
 30
0.0
 11
35.4912797852582
 21
21.96852222655267
 31
0.0
  0
LINE
  5
9AD
330
8B8
100
AcDbEntity
  8
Dimension (ANSI)
440
 16777216
100
AcDbLine
 10
38.88496690537008
 20
19.96852222655271
 30
0.0
 11
35.4912797852582
 21
19.96852222655271
 31
0.0
  0
LINE
  5
9AE
330
8B8
100
AcDbEntity
  8
Dimension (ANSI)
440
 16777216
100
AcDbLine
 10
36.2412797852582
 20
21.37797105882615
 30
0.0
 11
36.2412797852582
 21
20.55907339427923
 31
0.0
  0
LINE
  5
9AF
330
8B8
100
AcDbEntity
  8
Dimension (ANSI)
440
 16777216
100
AcDbLine
 10
36.2412797852582
 20
19.96852222655271
 30
0.0
 11
36.2412797852582
 21
18.94081031965885
 31
0.0
  0
LINE
  5
9B0
330
8B8
100
AcDbEntity
  8
Dimension (ANSI)
440
 16777216
100
AcDbLine
 10
36.2412797852582
 20
18.94081031965885
 30
0.0
 11
35.65072861753169
 21
18.94081031965885
 31
0.0
  0
SOLID
  5
9B1
330
8B8
100
AcDbEntity
  8
Dimension (ANSI)
440
 16777216
100
AcDbTrace
 10
36.14285459063712
 20
21.37797105882615
 30
0.0
 11
36.33970497987929
 21
21.37797105882615
 31
0.0
 12
36.2412797852582
 22
21.96852222655267
 32
0.0
 13
36.2412797852582
 23
21.96852222655267
 33
0.0
  0
SOLID
  5
9B2
330
8B8
100
AcDbEntity
  8
Dimension (ANSI)
440
 16777216
100
AcDbTrace
 10
36.14285459063712
 20
20.55907339427923
 30
0.0
 11
36.33970497987929
 21
20.55907339427923
 31
0.0
 12
36.2412797852582
 22
19.96852222655271
 32
0.0
 13
36.2412797852582
 23
19.96852222655271
 33
0.0
  0
MTEXT
  5
9B3
330
8B8
100
AcDbEntity
  8
Dimension (ANSI)
440
 16777216
100
AcDbMText
 10
33.63318078375965
 20
19.24081032412921
 30
0.0
 40
0.6000000089406968
 41
0.0
 71
     1
 72
     1
  1
\A1;2.00
  7
ROMANS
 73
     1
 44
1.0
  0
POINT
  5
9B4
330
8B8
100
AcDbEntity
  8
Defpoints
 62
     0
440
 16777216
100
AcDbPoint
 10
39.74431690537007
 20
21.96852222655267
 30
0.0
  0
POINT
  5
9B5
330
8B8
100
AcDbEntity
  8
Defpoints
 62
     0
440
 16777216
100
AcDbPoint
 10
39.25996690537008
 20
19.96852222655271
 30
0.0
  0
POINT
  5
9B6
330
8B8
100
AcDbEntity
  8
Defpoints
 62
     0
440
 16777216
100
AcDbPoint
 10
36.2412797852582
 20
19.96852222655271
 30
0.0
  0
ENDBLK
  5
8BA
330
8B8
100
AcDbEntity
  8
0
100
AcDbBlockEnd
  0
BLOCK
  5
9B9
330
9B8
100
AcDbEntity
  8
0
100
AcDbBlockBegin
  2
*D11
 70
     1
 10
0.0
 20
0.0
 30
0.0
  3
*D11
  1

  0
LINE
  5
A97
330
9B8
100
AcDbEntity
  8
Dimension (ANSI)
440
 16777216
100
AcDbLine
 10
39.36931690537007
 20
21.96852222655267
 30
0.0
 11
30.96282084237794
 21
21.96852222655267
 31
0.0
  0
LINE
  5
A98
330
9B8
100
AcDbEntity
  8
Dimension (ANSI)
440
 16777216
100
AcDbLine
 10
38.88496690537008
 20
14.96852222655271
 30
0.0
 11
30.96282084237794
 21
14.96852222655271
 31
0.0
  0
LINE
  5
A99
330
9B8
100
AcDbEntity
  8
Dimension (ANSI)
440
 16777216
100
AcDbLine
 10
31.71282084237795
 20
21.37797105882615
 30
0.0
 11
31.71282084237795
 21
18.95749860897579
 31
0.0
  0
LINE
  5
A9A
330
9B8
100
AcDbEntity
  8
Dimension (ANSI)
440
 16777216
100
AcDbLine
 10
31.71282084237795
 20
15.55907339427923
 30
0.0
 11
31.71282084237795
 21
17.97954584412958
 31
0.0
  0
SOLID
  5
A9B
330
9B8
100
AcDbEntity
  8
Dimension (ANSI)
440
 16777216
100
AcDbTrace
 10
31.61439564775686
 20
21.37797105882615
 30
0.0
 11
31.81124603699903
 21
21.37797105882615
 31
0.0
 12
31.71282084237795
 22
21.96852222655267
 32
0.0
 13
31.71282084237795
 23
21.96852222655267
 33
0.0
  0
SOLID
  5
A9C
330
9B8
100
AcDbEntity
  8
Dimension (ANSI)
440
 16777216
100
AcDbTrace
 10
31.61439564775686
 20
15.55907339427923
 30
0.0
 11
31.81124603699903
 21
15.55907339427923
 31
0.0
 12
31.71282084237795
 22
14.96852222655271
 32
0.0
 13
31.71282084237795
 23
14.96852222655271
 33
0.0
  0
MTEXT
  5
A9D
330
9B8
100
AcDbEntity
  8
Dimension (ANSI)
440
 16777216
100
AcDbMText
 10
30.79853511446831
 20
18.76852223102304
 30
0.0
 40
0.6000000089406968
 41
0.0
 71
     1
 72
     1
  1
\A1;7.00
  7
ROMANS
 73
     1
 44
1.0
  0
POINT
  5
A9E
330
9B8
100
AcDbEntity
  8
Defpoints
 62
     0
440
 16777216
100
AcDbPoint
 10
39.74431690537007
 20
21.96852222655267
 30
0.0
  0
POINT
  5
A9F
330
9B8
100
AcDbEntity
  8
Defpoints
 62
     0
440
 16777216
100
AcDbPoint
 10
39.25996690537008
 20
14.96852222655271
 30
0.0
  0
POINT
  5
AA0
330
9B8
100
AcDbEntity
  8
Defpoints
 62
     0
440
 16777216
100
AcDbPoint
 10
31.71282084237795
 20
14.96852222655271
 30
0.0
  0
ENDBLK
  5
9BA
330
9B8
100
AcDbEntity
  8
0
100
AcDbBlockEnd
  0
BLOCK
  5
AA3
330
AA2
100
AcDbEntity
  8
0
100
AcDbBlockBegin
  2
*D12
 70
     1
 10
0.0
 20
0.0
 30
0.0
  3
*D12
  1

  0
LINE
  5
B96
330
AA2
100
AcDbEntity
  8
Dimension (ANSI)
440
 16777216
100
AcDbLine
 10
39.36931690537007
 20
21.96852222655267
 30
0.0
 11
34.63162044864198
 21
21.96852222655267
 31
0.0
  0
LINE
  5
B97
330
AA2
100
AcDbEntity
  8
Dimension (ANSI)
440
 16777216
100
AcDbLine
 10
40.44746690537006
 20
21.28102222655272
 30
0.0
 11
34.63162044864198
 21
21.28102222655272
 31
0.0
  0
LINE
  5
B98
330
AA2
100
AcDbEntity
  8
Dimension (ANSI)
440
 16777216
100
AcDbLine
 10
35.38162044864197
 20
20.6904710588262
 30
0.0
 11
35.38162044864197
 21
20.09991989109968
 31
0.0
  0
LINE
  5
B99
330
AA2
100
AcDbEntity
  8
Dimension (ANSI)
440
 16777216
100
AcDbLine
 10
35.38162044864197
 20
22.55907339427919
 30
0.0
 11
35.38162044864197
 21
23.58678531454889
 31
0.0
  0
LINE
  5
B9A
330
AA2
100
AcDbEntity
  8
Dimension (ANSI)
440
 16777216
100
AcDbLine
 10
35.38162044864197
 20
23.58678531454889
 30
0.0
 11
35.97217161636849
 21
23.58678531454889
 31
0.0
  0
SOLID
  5
B9B
330
AA2
100
AcDbEntity
  8
Dimension (ANSI)
440
 16777216
100
AcDbTrace
 10
35.28319525402089
 20
20.6904710588262
 30
0.0
 11
35.48004564326306
 21
20.6904710588262
 31
0.0
 12
35.38162044864197
 22
21.28102222655272
 32
0.0
 13
35.38162044864197
 23
21.28102222655272
 33
0.0
  0
SOLID
  5
B9C
330
AA2
100
AcDbEntity
  8
Dimension (ANSI)
440
 16777216
100
AcDbTrace
 10
35.28319525402089
 20
22.55907339427919
 30
0.0
 11
35.48004564326306
 21
22.55907339427919
 31
0.0
 12
35.38162044864197
 22
21.96852222655267
 32
0.0
 13
35.38162044864197
 23
21.96852222655267
 33
0.0
  0
MTEXT
  5
B9D
330
AA2
100
AcDbEntity
  8
Dimension (ANSI)
440
 16777216
100
AcDbMText
 10
36.16114799432124
 20
23.88678531901924
 30
0.0
 40
0.6000000089406968
 41
0.0
 71
     1
 72
     1
  1
\A1;0.69
  7
ROMANS
 73
     1
 44
1.0
  0
POINT
  5
B9E
330
AA2
100
AcDbEntity
  8
Defpoints
 62
     0
440
 16777216
100
AcDbPoint
 10
39.74431690537007
 20
21.96852222655267
 30
0.0
  0
POINT
  5
B9F
330
AA2
100
AcDbEntity
  8
Defpoints
 62
     0
440
 16777216
100
AcDbPoint
 10
40.82246690537006
 20
21.28102222655272
 30
0.0
  0
POINT
  5
BA0
330
AA2
100
AcDbEntity
  8
Defpoints
 62
     0
440
 16777216
100
AcDbPoint
 10
35.38162044864197
 20
21.28102222655272
 30
0.0
  0
ENDBLK
  5
AA4
330
AA2
100
AcDbEntity
  8
0
100
AcDbBlockEnd
  0
BLOCK
  5
BA3
330
BA2
100
AcDbEntity
  8
0
100
AcDbBlockBegin
  2
*D13
 70
     1
 10
0.0
 20
0.0
 30
0.0
  3
*D13
  1

  0
LINE
  5
C81
330
BA2
100
AcDbEntity
  8
Dimension (ANSI)
440
 16777216
100
AcDbLine
 10
47.72871690537008
 20
22.20292222655269
 30
0.0
 11
47.72871690537008
 21
25.18790465023326
 31
0.0
  0
LINE
  5
C82
330
BA2
100
AcDbEntity
  8
Dimension (ANSI)
440
 16777216
100
AcDbLine
 10
45.47871690537007
 20
22.68727222655272
 30
0.0
 11
45.47871690537007
 21
25.18790465023326
 31
0.0
  0
LINE
  5
C83
330
BA2
100
AcDbEntity
  8
Dimension (ANSI)
440
 16777216
100
AcDbLine
 10
46.06926807309659
 20
24.43790465023326
 30
0.0
 11
47.13816573764356
 21
24.43790465023326
 31
0.0
  0
LINE
  5
C84
330
BA2
100
AcDbEntity
  8
Dimension (ANSI)
440
 16777216
100
AcDbLine
 10
47.72871690537008
 20
24.43790465023326
 30
0.0
 11
48.72964440520179
 21
24.43790465023326
 31
0.0
  0
SOLID
  5
C85
330
BA2
100
AcDbEntity
  8
Dimension (ANSI)
440
 16777216
100
AcDbTrace
 10
46.06926807309659
 20
24.53632984485435
 30
0.0
 11
46.06926807309659
 21
24.33947945561218
 31
0.0
 12
45.47871690537007
 22
24.43790465023326
 32
0.0
 13
45.47871690537007
 23
24.43790465023326
 33
0.0
  0
SOLID
  5
C86
330
BA2
100
AcDbEntity
  8
Dimension (ANSI)
440
 16777216
100
AcDbTrace
 10
47.13816573764356
 20
24.53632984485435
 30
0.0
 11
47.13816573764356
 21
24.33947945561218
 31
0.0
 12
47.72871690537008
 22
24.43790465023326
 32
0.0
 13
47.72871690537008
 23
24.43790465023326
 33
0.0
  0
MTEXT
  5
C87
330
BA2
100
AcDbEntity
  8
Dimension (ANSI)
440
 16777216
100
AcDbMText
 10
48.91862078315455
 20
24.73790465470361
 30
0.0
 40
0.6000000089406968
 41
0.0
 71
     1
 72
     1
  1
\A1;2.25
  7
ROMANS
 73
     1
 44
1.0
  0
POINT
  5
C88
330
BA2
100
AcDbEntity
  8
Defpoints
 62
     0
440
 16777216
100
AcDbPoint
 10
47.72871690537008
 20
21.82792222655269
 30
0.0
  0
POINT
  5
C89
330
BA2
100
AcDbEntity
  8
Defpoints
 62
     0
440
 16777216
100
AcDbPoint
 10
45.47871690537007
 20
22.31227222655272
 30
0.0
  0
POINT
  5
C8A
330
BA2
100
AcDbEntity
  8
Defpoints
 62
     0
440
 16777216
100
AcDbPoint
 10
45.47871690537007
 20
24.43790465023326
 30
0.0
  0
ENDBLK
  5
BA4
330
BA2
100
AcDbEntity
  8
0
100
AcDbBlockEnd
  0
BLOCK
  5
C8D
330
C8C
100
AcDbEntity
  8
0
100
AcDbBlockBegin
  2
*D14
 70
     1
 10
0.0
 20
0.0
 30
0.0
  3
*D14
  1

  0
LINE
  5
D6B
330
C8C
100
AcDbEntity
  8
Dimension (ANSI)
440
 16777216
100
AcDbLine
 10
39.60371690537007
 20
22.20292222655268
 30
0.0
 11
39.60371690537007
 21
25.18790465023324
 31
0.0
  0
LINE
  5
D6C
330
C8C
100
AcDbEntity
  8
Dimension (ANSI)
440
 16777216
100
AcDbLine
 10
41.85371690537006
 20
22.68727222655272
 30
0.0
 11
41.85371690537006
 21
25.18790465023324
 31
0.0
  0
LINE
  5
D6D
330
C8C
100
AcDbEntity
  8
Dimension (ANSI)
440
 16777216
100
AcDbLine
 10
40.19426807309659
 20
24.43790465023324
 30
0.0
 11
41.26316573764355
 21
24.43790465023324
 31
0.0
  0
LINE
  5
D6E
330
C8C
100
AcDbEntity
  8
Dimension (ANSI)
440
 16777216
100
AcDbLine
 10
41.85371690537006
 20
24.43790465023324
 30
0.0
 11
42.44426807309658
 21
24.43790465023324
 31
0.0
  0
SOLID
  5
D6F
330
C8C
100
AcDbEntity
  8
Dimension (ANSI)
440
 16777216
100
AcDbTrace
 10
40.19426807309659
 20
24.53632984485432
 30
0.0
 11
40.19426807309659
 21
24.33947945561215
 31
0.0
 12
39.60371690537007
 22
24.43790465023324
 32
0.0
 13
39.60371690537007
 23
24.43790465023324
 33
0.0
  0
SOLID
  5
D70
330
C8C
100
AcDbEntity
  8
Dimension (ANSI)
440
 16777216
100
AcDbTrace
 10
41.26316573764355
 20
24.53632984485432
 30
0.0
 11
41.26316573764355
 21
24.33947945561215
 31
0.0
 12
41.85371690537006
 22
24.43790465023324
 32
0.0
 13
41.85371690537006
 23
24.43790465023324
 33
0.0
  0
MTEXT
  5
D71
330
C8C
100
AcDbEntity
  8
Dimension (ANSI)
440
 16777216
100
AcDbMText
 10
42.63324445104934
 20
24.73790465470359
 30
0.0
 40
0.6000000089406968
 41
0.0
 71
     1
 72
     1
  1
\A1;2.25
  7
ROMANS
 73
     1
 44
1.0
  0
POINT
  5
D72
330
C8C
100
AcDbEntity
  8
Defpoints
 62
     0
440
 16777216
100
AcDbPoint
 10
39.60371690537007
 20
21.82792222655268
 30
0.0
  0
POINT
  5
D73
330
C8C
100
AcDbEntity
  8
Defpoints
 62
     0
440
 16777216
100
AcDbPoint
 10
41.85371690537006
 20
22.31227222655272
 30
0.0
  0
POINT
  5
D74
330
C8C
100
AcDbEntity
  8
Defpoints
 62
     0
440
 16777216
100
AcDbPoint
 10
41.85371690537006
 20
24.43790465023324
 30
0.0
  0
ENDBLK
  5
C8E
330
C8C
100
AcDbEntity
  8
0
100
AcDbBlockEnd
  0
BLOCK
  5
D79
330
D78
100
AcDbEntity
  8
0
100
AcDbBlockBegin
  2
*D15
 70
     1
 10
0.0
 20
0.0
 30
0.0
  3
*D15
  1

  0
LINE
  5
E6B
330
D78
100
AcDbEntity
  8
Dimension (ANSI)
440
 16777216
100
AcDbLine
 10
39.60371690537007
 20
13.59352222655267
 30
0.0
 11
39.60371690537007
 21
11.96159621108186
 31
0.0
  0
LINE
  5
E6C
330
D78
100
AcDbEntity
  8
Dimension (ANSI)
440
 16777216
100
AcDbLine
 10
40.29121690537007
 20
13.56227222655271
 30
0.0
 11
40.29121690537007
 21
11.96159621108186
 31
0.0
  0
LINE
  5
E6D
330
D78
100
AcDbEntity
  8
Dimension (ANSI)
440
 16777216
100
AcDbLine
 10
40.88176807309659
 20
12.71159621108186
 30
0.0
 11
41.47231924082311
 21
12.71159621108186
 31
0.0
  0
LINE
  5
E6E
330
D78
100
AcDbEntity
  8
Dimension (ANSI)
440
 16777216
100
AcDbLine
 10
39.01316573764355
 20
12.71159621108186
 30
0.0
 11
37.64043883267142
 21
12.71159621108186
 31
0.0
  0
SOLID
  5
E6F
330
D78
100
AcDbEntity
  8
Dimension (ANSI)
440
 16777216
100
AcDbTrace
 10
40.88176807309659
 20
12.81002140570295
 30
0.0
 11
40.88176807309659
 21
12.61317101646077
 31
0.0
 12
40.29121690537007
 22
12.71159621108186
 32
0.0
 13
40.29121690537007
 23
12.71159621108186
 33
0.0
  0
SOLID
  5
E70
330
D78
100
AcDbEntity
  8
Dimension (ANSI)
440
 16777216
100
AcDbTrace
 10
39.01316573764355
 20
12.81002140570295
 30
0.0
 11
39.01316573764355
 21
12.61317101646077
 31
0.0
 12
39.60371690537007
 22
12.71159621108186
 32
0.0
 13
39.60371690537007
 23
12.71159621108186
 33
0.0
  0
MTEXT
  5
E71
330
D78
100
AcDbEntity
  8
Dimension (ANSI)
440
 16777216
100
AcDbMText
 10
35.89431957437257
 20
12.71159621108186
 30
0.0
 40
0.6000000089406968
 41
0.0
 71
     5
 72
     1
  1
\A1;0.69{\P(2 PL.)}
  7
ROMANS
 73
     1
 44
1.0
  0
POINT
  5
E72
330
D78
100
AcDbEntity
  8
Defpoints
 62
     0
440
 16777216
100
AcDbPoint
 10
39.60371690537007
 20
13.96852222655267
 30
0.0
  0
POINT
  5
E73
330
D78
100
AcDbEntity
  8
Defpoints
 62
     0
440
 16777216
100
AcDbPoint
 10
40.29121690537007
 20
13.93727222655271
 30
0.0
  0
POINT
  5
E74
330
D78
100
AcDbEntity
  8
Defpoints
 62
     0
440
 16777216
100
AcDbPoint
 10
40.29121690537007
 20
12.71159621108186
 30
0.0
  0
ENDBLK
  5
D7A
330
D78
100
AcDbEntity
  8
0
100
AcDbBlockEnd
  0
BLOCK
  5
E77
330
E76
100
AcDbEntity
  8
0
100
AcDbBlockBegin
  2
*D16
 70
     1
 10
0.0
 20
0.0
 30
0.0
  3
*D16
  1

  0
LINE
  5
F27
330
E76
100
AcDbEntity
  8
Dimension (ANSI)
440
 16777216
100
AcDbLine
 10
50.00870419851442
 20
17.66750759735278
 30
0.0
 11
49.15590765084643
 21
17.66750759735278
 31
0.0
  0
LINE
  5
F28
330
E76
100
AcDbEntity
  8
Dimension (ANSI)
440
 16777216
100
AcDbLine
 10
49.15590765084643
 20
17.66750759735278
 30
0.0
 11
47.57890003969293
 21
15.65476862771921
 31
0.0
  0
MTEXT
  5
F29
102
{ACAD_XDICTIONARY
360
15C6
102
}
330
E76
100
AcDbEntity
  8
Dimension (ANSI)
440
 16777216
100
AcDbMText
 10
51.75482345681327
 20
17.66750759735278
 30
0.0
 40
0.6000000089406968
 41
0.0
 71
     5
 72
     1
  1
\A1;\U+22050.563{\P(6 PL.)}
  7
ROMANS
 73
     1
 44
1.0
  0
SOLID
  5
F2A
330
E76
100
AcDbEntity
  8
Dimension (ANSI)
440
 16777216
100
AcDbTrace
 10
47.50142373191396
 20
15.71547233987208
 30
0.0
 11
47.65637634747188
 21
15.59406491556634
 31
0.0
 12
47.21467776677572
 22
15.18991078104544
 32
0.0
 13
47.21467776677572
 23
15.18991078104544
 33
0.0
  0
LINE
  5
F2B
330
E76
100
AcDbEntity
  8
Dimension (ANSI)
440
 16777216
100
AcDbLine
 10
46.50121690537006
 20
14.96852222655266
 30
0.0
 11
47.58121690537007
 21
14.96852222655266
 31
0.0
  0
LINE
  5
F2C
330
E76
100
AcDbEntity
  8
Dimension (ANSI)
440
 16777216
100
AcDbLine
 10
47.04121690537006
 20
14.42852222655265
 30
0.0
 11
47.04121690537006
 21
15.50852222655265
 31
0.0
  0
POINT
  5
F2D
330
E76
100
AcDbEntity
  8
Defpoints
 62
     0
440
 16777216
100
AcDbPoint
 10
47.21467776677572
 20
15.18991078104544
 30
0.0
  0
POINT
  5
F2E
330
E76
100
AcDbEntity
  8
Defpoints
 62
     0
440
 16777216
100
AcDbPoint
 10
46.86775604396439
 20
14.74713367205987
 30
0.0
  0
ENDBLK
  5
E78
330
E76
100
AcDbEntity
  8
0
100
AcDbBlockEnd
  0
BLOCK
  5
F36
330
F35
100
AcDbEntity
  8
0
100
AcDbBlockBegin
  2
*D17
 70
     1
 10
0.0
 20
0.0
 30
0.0
  3
*D17
  1

  0
LINE
  5
1014
330
F35
100
AcDbEntity
  8
Dimension (ANSI)
440
 16777216
100
AcDbLine
 10
39.60371690537805
 20
57.50531021752132
 30
0.0
 11
39.60371690537805
 21
60.24251494193077
 31
0.0
  0
LINE
  5
1015
330
F35
100
AcDbEntity
  8
Dimension (ANSI)
440
 16777216
100
AcDbLine
 10
41.72871690537802
 20
57.2865602175178
 30
0.0
 11
41.72871690537802
 21
60.24251494193077
 31
0.0
  0
LINE
  5
1016
330
F35
100
AcDbEntity
  8
Dimension (ANSI)
440
 16777216
100
AcDbLine
 10
41.1381657376515
 20
59.49251494193076
 30
0.0
 11
40.19426807310456
 21
59.49251494193076
 31
0.0
  0
LINE
  5
1017
330
F35
100
AcDbEntity
  8
Dimension (ANSI)
440
 16777216
100
AcDbLine
 10
39.60371690537805
 20
59.49251494193076
 30
0.0
 11
38.60278940554632
 21
59.49251494193076
 31
0.0
  0
SOLID
  5
1018
330
F35
100
AcDbEntity
  8
Dimension (ANSI)
440
 16777216
100
AcDbTrace
 10
41.1381657376515
 20
59.59094013655185
 30
0.0
 11
41.1381657376515
 21
59.39408974730968
 31
0.0
 12
41.72871690537802
 22
59.49251494193076
 32
0.0
 13
41.72871690537802
 23
59.49251494193076
 33
0.0
  0
SOLID
  5
1019
330
F35
100
AcDbEntity
  8
Dimension (ANSI)
440
 16777216
100
AcDbTrace
 10
40.19426807310456
 20
59.59094013655185
 30
0.0
 11
40.19426807310456
 21
59.39408974730968
 31
0.0
 12
39.60371690537805
 22
59.49251494193076
 32
0.0
 13
39.60371690537805
 23
59.49251494193076
 33
0.0
  0
MTEXT
  5
101A
330
F35
100
AcDbEntity
  8
Dimension (ANSI)
440
 16777216
100
AcDbMText
 10
36.58524157177429
 20
59.79251494640111
 30
0.0
 40
0.6000000089406968
 41
0.0
 71
     1
 72
     1
  1
\A1;2.13
  7
ROMANS
 73
     1
 44
1.0
  0
POINT
  5
101B
330
F35
100
AcDbEntity
  8
Defpoints
 62
     0
440
 16777216
100
AcDbPoint
 10
39.60371690537805
 20
57.13031021752132
 30
0.0
  0
POINT
  5
101C
330
F35
100
AcDbEntity
  8
Defpoints
 62
     0
440
 16777216
100
AcDbPoint
 10
41.72871690537802
 20
56.9115602175178
 30
0.0
  0
POINT
  5
101D
330
F35
100
AcDbEntity
  8
Defpoints
 62
     0
440
 16777216
100
AcDbPoint
 10
41.72871690537802
 20
59.49251494193076
 30
0.0
  0
ENDBLK
  5
F37
330
F35
100
AcDbEntity
  8
0
100
AcDbBlockEnd
  0
BLOCK
  5
1020
330
101F
100
AcDbEntity
  8
0
100
AcDbBlockBegin
  2
*D18
 70
     1
 10
0.0
 20
0.0
 30
0.0
  3
*D18
  1

  0
LINE
  5
10FE
330
101F
100
AcDbEntity
  8
Dimension (ANSI)
440
 16777216
100
AcDbLine
 10
39.60371690537805
 20
57.50531021752132
 30
0.0
 11
39.60371690537805
 21
61.65983777657643
 31
0.0
  0
LINE
  5
10FF
330
101F
100
AcDbEntity
  8
Dimension (ANSI)
440
 16777216
100
AcDbLine
 10
43.66621690537802
 20
54.28656021751783
 30
0.0
 11
43.66621690537802
 21
61.65983777657643
 31
0.0
  0
LINE
  5
1100
330
101F
100
AcDbEntity
  8
Dimension (ANSI)
440
 16777216
100
AcDbLine
 10
40.19426807310456
 20
60.90983777657644
 30
0.0
 11
43.0756657376515
 21
60.90983777657644
 31
0.0
  0
LINE
  5
1101
330
101F
100
AcDbEntity
  8
Dimension (ANSI)
440
 16777216
100
AcDbLine
 10
43.66621690537802
 20
60.90983777657644
 30
0.0
 11
44.53170479951563
 21
60.90983777657644
 31
0.0
  0
SOLID
  5
1102
330
101F
100
AcDbEntity
  8
Dimension (ANSI)
440
 16777216
100
AcDbTrace
 10
40.19426807310456
 20
61.00826297119752
 30
0.0
 11
40.19426807310456
 21
60.81141258195535
 31
0.0
 12
39.60371690537805
 22
60.90983777657644
 32
0.0
 13
39.60371690537805
 23
60.90983777657644
 33
0.0
  0
SOLID
  5
1103
330
101F
100
AcDbEntity
  8
Dimension (ANSI)
440
 16777216
100
AcDbTrace
 10
43.0756657376515
 20
61.00826297119752
 30
0.0
 11
43.0756657376515
 21
60.81141258195535
 31
0.0
 12
43.66621690537802
 22
60.90983777657644
 32
0.0
 13
43.66621690537802
 23
60.90983777657644
 33
0.0
  0
MTEXT
  5
1104
330
101F
100
AcDbEntity
  8
Dimension (ANSI)
440
 16777216
100
AcDbMText
 10
44.72068117746839
 20
61.20983778104679
 30
0.0
 40
0.6000000089406968
 41
0.0
 71
     1
 72
     1
  1
\A1;4.06
  7
ROMANS
 73
     1
 44
1.0
  0
POINT
  5
1105
330
101F
100
AcDbEntity
  8
Defpoints
 62
     0
440
 16777216
100
AcDbPoint
 10
39.60371690537805
 20
57.13031021752132
 30
0.0
  0
POINT
  5
1106
330
101F
100
AcDbEntity
  8
Defpoints
 62
     0
440
 16777216
100
AcDbPoint
 10
43.66621690537802
 20
53.91156021751783
 30
0.0
  0
POINT
  5
1107
330
101F
100
AcDbEntity
  8
Defpoints
 62
     0
440
 16777216
100
AcDbPoint
 10
43.66621690537802
 20
60.90983777657644
 30
0.0
  0
ENDBLK
  5
1021
330
101F
100
AcDbEntity
  8
0
100
AcDbBlockEnd
  0
BLOCK
  5
110A
330
1109
100
AcDbEntity
  8
0
100
AcDbBlockBegin
  2
*D19
 70
     1
 10
0.0
 20
0.0
 30
0.0
  3
*D19
  1

  0
LINE
  5
11E8
330
1109
100
AcDbEntity
  8
Dimension (ANSI)
440
 16777216
100
AcDbLine
 10
47.7287169053781
 20
57.50531021752131
 30
0.0
 11
47.7287169053781
 21
60.24251494193077
 31
0.0
  0
LINE
  5
11E9
330
1109
100
AcDbEntity
  8
Dimension (ANSI)
440
 16777216
100
AcDbLine
 10
45.60371690537802
 20
57.2865602175178
 30
0.0
 11
45.60371690537802
 21
60.24251494193077
 31
0.0
  0
LINE
  5
11EA
330
1109
100
AcDbEntity
  8
Dimension (ANSI)
440
 16777216
100
AcDbLine
 10
46.19426807310453
 20
59.49251494193076
 30
0.0
 11
47.13816573765158
 21
59.49251494193076
 31
0.0
  0
LINE
  5
11EB
330
1109
100
AcDbEntity
  8
Dimension (ANSI)
440
 16777216
100
AcDbLine
 10
47.7287169053781
 20
59.49251494193076
 30
0.0
 11
48.72964440520982
 21
59.49251494193076
 31
0.0
  0
SOLID
  5
11EC
330
1109
100
AcDbEntity
  8
Dimension (ANSI)
440
 16777216
100
AcDbTrace
 10
46.19426807310453
 20
59.59094013655185
 30
0.0
 11
46.19426807310453
 21
59.39408974730968
 31
0.0
 12
45.60371690537802
 22
59.49251494193076
 32
0.0
 13
45.60371690537802
 23
59.49251494193076
 33
0.0
  0
SOLID
  5
11ED
330
1109
100
AcDbEntity
  8
Dimension (ANSI)
440
 16777216
100
AcDbTrace
 10
47.13816573765158
 20
59.59094013655185
 30
0.0
 11
47.13816573765158
 21
59.39408974730968
 31
0.0
 12
47.7287169053781
 22
59.49251494193076
 32
0.0
 13
47.7287169053781
 23
59.49251494193076
 33
0.0
  0
MTEXT
  5
11EE
330
1109
100
AcDbEntity
  8
Dimension (ANSI)
440
 16777216
100
AcDbMText
 10
48.91862078316258
 20
59.79251494640111
 30
0.0
 40
0.6000000089406968
 41
0.0
 71
     1
 72
     1
  1
\A1;2.13
  7
ROMANS
 73
     1
 44
1.0
  0
POINT
  5
11EF
330
1109
100
AcDbEntity
  8
Defpoints
 62
     0
440
 16777216
100
AcDbPoint
 10
47.7287169053781
 20
57.13031021752131
 30
0.0
  0
POINT
  5
11F0
330
1109
100
AcDbEntity
  8
Defpoints
 62
     0
440
 16777216
100
AcDbPoint
 10
45.60371690537802
 20
56.9115602175178
 30
0.0
  0
POINT
  5
11F1
330
1109
100
AcDbEntity
  8
Defpoints
 62
     0
440
 16777216
100
AcDbPoint
 10
45.60371690537802
 20
59.49251494193076
 30
0.0
  0
ENDBLK
  5
110B
330
1109
100
AcDbEntity
  8
0
100
AcDbBlockEnd
  0
BLOCK
  5
11F4
330
11F3
100
AcDbEntity
  8
0
100
AcDbBlockBegin
  2
*D20
 70
     1
 10
0.0
 20
0.0
 30
0.0
  3
*D20
  1

  0
LINE
  5
12E4
330
11F3
100
AcDbEntity
  8
Dimension (ANSI)
440
 16777216
100
AcDbLine
 10
39.22871690537805
 20
57.13031021752132
 30
0.0
 11
38.14246831106176
 21
57.13031021752132
 31
0.0
  0
LINE
  5
12E5
330
11F3
100
AcDbEntity
  8
Dimension (ANSI)
440
 16777216
100
AcDbLine
 10
40.32246690537801
 20
55.88031021751779
 30
0.0
 11
38.14246831106176
 21
55.88031021751779
 31
0.0
  0
LINE
  5
12E6
330
11F3
100
AcDbEntity
  8
Dimension (ANSI)
440
 16777216
100
AcDbLine
 10
38.89246831106176
 20
57.72086138524784
 30
0.0
 11
38.89246831106176
 21
58.31141255297435
 31
0.0
  0
LINE
  5
12E7
330
11F3
100
AcDbEntity
  8
Dimension (ANSI)
440
 16777216
100
AcDbLine
 10
38.89246831106176
 20
55.28975904979128
 30
0.0
 11
38.89246831106176
 21
54.26204712952158
 31
0.0
  0
LINE
  5
12E8
330
11F3
100
AcDbEntity
  8
Dimension (ANSI)
440
 16777216
100
AcDbLine
 10
38.89246831106176
 20
54.26204712952158
 30
0.0
 11
38.30191714333524
 21
54.26204712952158
 31
0.0
  0
SOLID
  5
12E9
330
11F3
100
AcDbEntity
  8
Dimension (ANSI)
440
 16777216
100
AcDbTrace
 10
38.79404311644067
 20
57.72086138524784
 30
0.0
 11
38.99089350568284
 21
57.72086138524784
 31
0.0
 12
38.89246831106176
 22
57.13031021752132
 32
0.0
 13
38.89246831106176
 23
57.13031021752132
 33
0.0
  0
SOLID
  5
12EA
330
11F3
100
AcDbEntity
  8
Dimension (ANSI)
440
 16777216
100
AcDbTrace
 10
38.79404311644067
 20
55.28975904979128
 30
0.0
 11
38.99089350568284
 21
55.28975904979128
 31
0.0
 12
38.89246831106176
 22
55.88031021751779
 32
0.0
 13
38.89246831106176
 23
55.88031021751779
 33
0.0
  0
MTEXT
  5
12EB
330
11F3
100
AcDbEntity
  8
Dimension (ANSI)
440
 16777216
100
AcDbMText
 10
36.37008359655473
 20
54.56204713399193
 30
0.0
 40
0.6000000089406968
 41
0.0
 71
     1
 72
     1
  1
\A1;1.25
  7
ROMANS
 73
     1
 44
1.0
  0
POINT
  5
12EC
330
11F3
100
AcDbEntity
  8
Defpoints
 62
     0
440
 16777216
100
AcDbPoint
 10
39.60371690537805
 20
57.13031021752132
 30
0.0
  0
POINT
  5
12ED
330
11F3
100
AcDbEntity
  8
Defpoints
 62
     0
440
 16777216
100
AcDbPoint
 10
40.69746690537801
 20
55.88031021751779
 30
0.0
  0
POINT
  5
12EE
330
11F3
100
AcDbEntity
  8
Defpoints
 62
     0
440
 16777216
100
AcDbPoint
 10
38.89246831106176
 20
55.88031021751779
 30
0.0
  0
ENDBLK
  5
11F5
330
11F3
100
AcDbEntity
  8
0
100
AcDbBlockEnd
  0
BLOCK
  5
12F1
330
12F0
100
AcDbEntity
  8
0
100
AcDbBlockBegin
  2
*D21
 70
     1
 10
0.0
 20
0.0
 30
0.0
  3
*D21
  1

  0
LINE
  5
13D5
330
12F0
100
AcDbEntity
  8
Dimension (ANSI)
440
 16777216
100
AcDbLine
 10
39.22871690537805
 20
57.13031021752132
 30
0.0
 11
33.65686651167728
 21
57.13031021752132
 31
0.0
  0
LINE
  5
13D6
330
12F0
100
AcDbEntity
  8
Dimension (ANSI)
440
 16777216
100
AcDbLine
 10
42.25996690537801
 20
52.88031021751783
 30
0.0
 11
33.65686651167728
 21
52.88031021751783
 31
0.0
  0
LINE
  5
13D7
330
12F0
100
AcDbEntity
  8
Dimension (ANSI)
440
 16777216
100
AcDbLine
 10
34.40686651167728
 20
56.5397590497948
 30
0.0
 11
34.40686651167728
 21
55.49428659994267
 31
0.0
  0
LINE
  5
13D8
330
12F0
100
AcDbEntity
  8
Dimension (ANSI)
440
 16777216
100
AcDbLine
 10
34.40686651167728
 20
53.47086138524435
 30
0.0
 11
34.40686651167728
 21
54.51633383509646
 31
0.0
  0
SOLID
  5
13D9
330
12F0
100
AcDbEntity
  8
Dimension (ANSI)
440
 16777216
100
AcDbTrace
 10
34.30844131705619
 20
56.5397590497948
 30
0.0
 11
34.50529170629837
 21
56.5397590497948
 31
0.0
 12
34.40686651167728
 22
57.13031021752132
 32
0.0
 13
34.40686651167728
 23
57.13031021752132
 33
0.0
  0
SOLID
  5
13DA
330
12F0
100
AcDbEntity
  8
Dimension (ANSI)
440
 16777216
100
AcDbTrace
 10
34.30844131705619
 20
53.47086138524435
 30
0.0
 11
34.50529170629837
 21
53.47086138524435
 31
0.0
 12
34.40686651167728
 22
52.88031021751783
 32
0.0
 13
34.40686651167728
 23
52.88031021751783
 33
0.0
  0
MTEXT
  5
13DB
330
12F0
100
AcDbEntity
  8
Dimension (ANSI)
440
 16777216
100
AcDbMText
 10
33.49258078376763
 20
55.30531022198992
 30
0.0
 40
0.6000000089406968
 41
0.0
 71
     1
 72
     1
  1
\A1;4.25
  7
ROMANS
 73
     1
 44
1.0
  0
POINT
  5
13DC
330
12F0
100
AcDbEntity
  8
Defpoints
 62
     0
440
 16777216
100
AcDbPoint
 10
39.60371690537805
 20
57.13031021752132
 30
0.0
  0
POINT
  5
13DD
330
12F0
100
AcDbEntity
  8
Defpoints
 62
     0
440
 16777216
100
AcDbPoint
 10
42.63496690537802
 20
52.88031021751783
 30
0.0
  0
POINT
  5
13DE
330
12F0
100
AcDbEntity
  8
Defpoints
 62
     0
440
 16777216
100
AcDbPoint
 10
34.40686651167728
 20
52.88031021751783
 30
0.0
  0
ENDBLK
  5
12F2
330
12F0
100
AcDbEntity
  8
0
100
AcDbBlockEnd
  0
BLOCK
  5
13E1
330
13E0
100
AcDbEntity
  8
0
100
AcDbBlockBegin
  2
*D22
 70
     1
 10
0.0
 20
0.0
 30
0.0
  3
*D22
  1

  0
LINE
  5
1490
330
13E0
100
AcDbEntity
  8
Dimension (ANSI)
440
 16777216
100
AcDbLine
 10
49.52104484833978
 20
47.07300215710257
 30
0.0
 11
48.66824830067203
 21
47.07300215710256
 31
0.0
  0
LINE
  5
1491
330
13E0
100
AcDbEntity
  8
Dimension (ANSI)
440
 16777216
100
AcDbLine
 10
48.66824830067203
 20
47.07300215710256
 30
0.0
 11
44.23517184153744
 21
52.21975926818148
 31
0.0
  0
MTEXT
  5
1492
102
{ACAD_XDICTIONARY
360
15C8
102
}
330
13E0
100
AcDbEntity
  8
Dimension (ANSI)
440
 16777216
100
AcDbMText
 10
51.26716410663863
 20
47.07300215710256
 30
0.0
 40
0.6000000089406968
 41
0.0
 71
     5
 72
     1
  1
\A1;\U+22050.563{\P(3 PL.)}
  7
ROMANS
 73
     1
 44
1.0
  0
SOLID
  5
1493
330
13E0
100
AcDbEntity
  8
Dimension (ANSI)
440
 16777216
100
AcDbTrace
 10
44.30974716691251
 20
52.28399352525199
 30
0.0
 11
44.16059651616236
 21
52.15552501111097
 31
0.0
 12
43.84976629911435
 22
52.66721122043191
 32
0.0
 13
43.84976629911435
 23
52.66721122043191
 33
0.0
  0
LINE
  5
1494
330
13E0
100
AcDbEntity
  8
Dimension (ANSI)
440
 16777216
100
AcDbLine
 10
43.126216905378
 20
52.88031021751783
 30
0.0
 11
44.206216905378
 21
52.88031021751783
 31
0.0
  0
LINE
  5
1495
330
13E0
100
AcDbEntity
  8
Dimension (ANSI)
440
 16777216
100
AcDbLine
 10
43.666216905378
 20
52.34031021751782
 30
0.0
 11
43.666216905378
 21
53.42031021751783
 31
0.0
  0
POINT
  5
1496
330
13E0
100
AcDbEntity
  8
Defpoints
 62
     0
440
 16777216
100
AcDbPoint
 10
43.84976629911435
 20
52.66721122043191
 30
0.0
  0
POINT
  5
1497
330
13E0
100
AcDbEntity
  8
Defpoints
 62
     0
440
 16777216
100
AcDbPoint
 10
43.48266751164167
 20
53.09340921460374
 30
0.0
  0
ENDBLK
  5
13E2
330
13E0
100
AcDbEntity
  8
0
100
AcDbBlockEnd
  0
BLOCK
  5
149A
330
1499
100
AcDbEntity
  8
0
100
AcDbBlockBegin
  2
*D23
 70
     1
 10
0.0
 20
0.0
 30
0.0
  3
*D23
  1

  0
LINE
  5
1578
330
1499
100
AcDbEntity
  8
Dimension (ANSI)
440
 16777216
100
AcDbLine
 10
10.49895596985362
 20
29.7678892393965
 30
0.0
 11
10.49895596985362
 21
27.6711595171569
 31
0.0
  0
LINE
  5
1579
330
1499
100
AcDbEntity
  8
Dimension (ANSI)
440
 16777216
100
AcDbLine
 10
18.24895596985369
 20
29.62741538059471
 30
0.0
 11
18.24895596985369
 21
27.6711595171569
 31
0.0
  0
LINE
  5
157A
330
1499
100
AcDbEntity
  8
Dimension (ANSI)
440
 16777216
100
AcDbLine
 10
11.08950713758013
 20
28.42115951715689
 30
0.0
 11
13.27069386399126
 21
28.42115951715689
 31
0.0
  0
LINE
  5
157B
330
1499
100
AcDbEntity
  8
Dimension (ANSI)
440
 16777216
100
AcDbLine
 10
17.65840480212717
 20
28.42115951715689
 30
0.0
 11
15.47721807571604
 21
28.42115951715689
 31
0.0
  0
SOLID
  5
157C
330
1499
100
AcDbEntity
  8
Dimension (ANSI)
440
 16777216
100
AcDbTrace
 10
11.08950713758013
 20
28.51958471177798
 30
0.0
 11
11.08950713758013
 21
28.32273432253581
 31
0.0
 12
10.49895596985362
 22
28.42115951715689
 32
0.0
 13
10.49895596985362
 23
28.42115951715689
 33
0.0
  0
SOLID
  5
157D
330
1499
100
AcDbEntity
  8
Dimension (ANSI)
440
 16777216
100
AcDbTrace
 10
17.65840480212717
 20
28.51958471177798
 30
0.0
 11
17.65840480212717
 21
28.32273432253581
 31
0.0
 12
18.24895596985369
 22
28.42115951715689
 32
0.0
 13
18.24895596985369
 23
28.42115951715689
 33
0.0
  0
MTEXT
  5
157E
330
1499
100
AcDbEntity
  8
Dimension (ANSI)
440
 16777216
100
AcDbMText
 10
13.45967024194402
 20
28.72115952162724
 30
0.0
 40
0.6000000089406968
 41
0.0
 71
     1
 72
     1
  1
\A1;7.75
  7
ROMANS
 73
     1
 44
1.0
  0
POINT
  5
157F
330
1499
100
AcDbEntity
  8
Defpoints
 62
     0
440
 16777216
100
AcDbPoint
 10
10.49895596985362
 20
30.1428892393965
 30
0.0
  0
POINT
  5
1580
330
1499
100
AcDbEntity
  8
Defpoints
 62
     0
440
 16777216
100
AcDbPoint
 10
18.24895596985369
 20
30.00241538059472
 30
0.0
  0
POINT
  5
1581
330
1499
100
AcDbEntity
  8
Defpoints
 62
     0
440
 16777216
100
AcDbPoint
 10
18.24895596985369
 20
28.42115951715689
 30
0.0
  0
ENDBLK
  5
149B
330
1499
100
AcDbEntity
  8
0
100
AcDbBlockEnd
  0
ENDSEC
  0
SECTION
  2
ENTITIES
  0
SPLINE
  5
107
330
6C
100
AcDbEntity
  8
Visible (ANSI)
100
AcDbSpline
210
0.0
220
0.0
230
1.0
 70
     8
 71
     3
 72
    11
 73
     7
 74
     0
 42
0.0000000001
 43
0.0000000001
 40
0.0
 40
0.0
 40
0.0
 40
0.0
 40
1.018582815488611
 40
1.018582815488611
 40
1.018582815488611
 40
1.570796326794895
 40
1.570796326794895
 40
1.570796326794895
 40
1.570796326794895
 10
47.58811690537426
 20
30.00228923939651
 30
0.0
 10
47.63585448666017
 20
30.00228923939651
 30
0.0
 10
47.68277704194236
 20
30.02849214497564
 30
0.0
 10
47.70781888910453
 20
30.06913427284482
 30
0.0
 10
47.72139505212312
 20
30.09116795709349
 30
0.0
 10
47.72871690537427
 20
30.11700883283328
 30
0.0
 10
47.72871690537427
 20
30.14288923939651
 30
0.0
  0
LINE
  5
108
330
6C
100
AcDbEntity
  8
Visible (ANSI)
100
AcDbLine
 10
47.58811690537426
 20
30.12728923939651
 30
0.0
 11
47.58811690537426
 21
30.00228923939651
 31
0.0
  0
LINE
  5
109
330
6C
100
AcDbEntity
  8
Visible (ANSI)
100
AcDbLine
 10
47.67762564536915
 20
30.14288923939651
 30
0.0
 11
47.72871690537427
 21
30.14288923939651
 31
0.0
  0
LINE
  5
10A
330
6C
100
AcDbEntity
  8
Visible (ANSI)
100
AcDbLine
 10
47.60371690537427
 20
30.14288923939651
 30
0.0
 11
47.67762564536915
 21
30.14288923939651
 31
0.0
  0
SPLINE
  5
10B
330
6C
100
AcDbEntity
  8
Visible (ANSI)
100
AcDbSpline
210
0.0
220
0.0
230
1.0
 70
     8
 71
     3
 72
     8
 73
     4
 74
     0
 42
0.0000000001
 43
0.0000000001
 40
0.0
 40
0.0
 40
0.0
 40
0.0
 40
1.570796326794895
 40
1.570796326794895
 40
1.570796326794895
 40
1.570796326794895
 10
47.60371690537427
 20
30.14288923939651
 30
0.0
 10
47.60371690537427
 20
30.13472109849717
 30
0.0
 10
47.5962850462736
 20
30.12728923939651
 30
0.0
 10
47.58811690537426
 20
30.12728923939651
 30
0.0
  0
LINE
  5
10C
330
6C
100
AcDbEntity
  8
Visible Narrow (ANSI)
100
AcDbLine
 10
39.74431690537425
 20
30.1428892393965
 30
0.0
 11
39.85371690537422
 21
30.1428892393965
 31
0.0
  0
LINE
  5
10D
330
6C
100
AcDbEntity
  8
Visible Narrow (ANSI)
100
AcDbLine
 10
47.4787169053742
 20
30.1428892393965
 30
0.0
 11
47.58811690537424
 21
30.1428892393965
 31
0.0
  0
SPLINE
  5
10E
330
6C
100
AcDbEntity
  8
Visible (ANSI)
100
AcDbSpline
210
0.0
220
0.0
230
1.0
 70
     8
 71
     3
 72
    11
 73
     7
 74
     0
 42
0.0000000001
 43
0.0000000001
 40
0.0
 40
0.0
 40
0.0
 40
0.0
 40
1.018582815488561
 40
1.018582815488561
 40
1.018582815488561
 40
1.570796326794897
 40
1.570796326794897
 40
1.570796326794897
 40
1.570796326794897
 10
39.60371690537424
 20
30.1428892393965
 30
0.0
 10
39.60371690537424
 20
30.0951516581106
 30
0.0
 10
39.62991981095338
 20
30.04822910282841
 30
0.0
 10
39.67056193882255
 20
30.02318725566624
 30
0.0
 10
39.69259562307122
 20
30.00961109264765
 30
0.0
 10
39.71843649881103
 20
30.0022892393965
 30
0.0
 10
39.74431690537425
 20
30.0022892393965
 30
0.0
  0
LINE
  5
10F
330
6C
100
AcDbEntity
  8
Visible (ANSI)
100
AcDbLine
 10
39.74431690537425
 20
30.1272892393965
 30
0.0
 11
39.74431690537425
 21
30.0022892393965
 31
0.0
  0
SPLINE
  5
110
330
6C
100
AcDbEntity
  8
Visible (ANSI)
100
AcDbSpline
210
0.0
220
0.0
230
1.0
 70
     8
 71
     3
 72
     8
 73
     4
 74
     0
 42
0.0000000001
 43
0.0000000001
 40
0.0
 40
0.0
 40
0.0
 40
0.0
 40
1.570796326794897
 40
1.570796326794897
 40
1.570796326794897
 40
1.570796326794897
 10
39.72871690537424
 20
30.1428892393965
 30
0.0
 10
39.72871690537424
 20
30.13472109849717
 30
0.0
 10
39.73614876447491
 20
30.1272892393965
 30
0.0
 10
39.74431690537425
 20
30.1272892393965
 30
0.0
  0
LINE
  5
111
330
6C
100
AcDbEntity
  8
Visible (ANSI)
100
AcDbLine
 10
39.65480816537937
 20
30.1428892393965
 30
0.0
 11
39.72871690537424
 21
30.1428892393965
 31
0.0
  0
LINE
  5
112
330
6C
100
AcDbEntity
  8
Visible (ANSI)
100
AcDbLine
 10
39.60371690537424
 20
30.1428892393965
 30
0.0
 11
39.65480816537937
 21
30.1428892393965
 31
0.0
  0
LINE
  5
113
330
6C
100
AcDbEntity
  8
Visible (ANSI)
100
AcDbLine
 10
47.58811690537426
 20
30.12728923939651
 30
0.0
 11
47.4787169053742
 21
30.12728923939651
 31
0.0
  0
LINE
  5
114
330
6C
100
AcDbEntity
  8
Visible (ANSI)
100
AcDbLine
 10
46.47871690537427
 20
30.00228923939651
 30
0.0
 11
47.58811690537426
 21
30.00228923939651
 31
0.0
  0
LINE
  5
115
330
6C
100
AcDbEntity
  8
Visible (ANSI)
100
AcDbLine
 10
46.47871690537427
 20
30.00241538059472
 30
0.0
 11
46.47871690537427
 21
30.00228923939651
 31
0.0
  0
LINE
  5
116
330
6C
100
AcDbEntity
  8
Visible (ANSI)
100
AcDbLine
 10
40.87581399228632
 20
30.0022892393965
 30
0.0
 11
46.45661981846216
 21
30.0022892393965
 31
0.0
  0
LINE
  5
117
330
6C
100
AcDbEntity
  8
Visible (ANSI)
100
AcDbLine
 10
39.74431690537425
 20
30.1272892393965
 30
0.0
 11
39.85371690537422
 21
30.1272892393965
 31
0.0
  0
LINE
  5
118
330
6C
100
AcDbEntity
  8
Visible (ANSI)
100
AcDbLine
 10
39.74431690537425
 20
30.0022892393965
 30
0.0
 11
40.85371690537423
 21
30.0022892393965
 31
0.0
  0
LINE
  5
119
330
6C
100
AcDbEntity
  8
Visible (ANSI)
100
AcDbLine
 10
40.85371690537423
 20
30.00241538059472
 30
0.0
 11
40.85371690537423
 21
30.0022892393965
 31
0.0
  0
LINE
  5
11A
330
6C
100
AcDbEntity
  8
Visible (ANSI)
100
AcDbLine
 10
39.72871690537425
 20
30.1428892393965
 30
0.0
 11
39.74431690537425
 21
30.1428892393965
 31
0.0
  0
LINE
  5
11B
330
6C
100
AcDbEntity
  8
Visible (ANSI)
100
AcDbLine
 10
47.58811690537423
 20
30.1428892393965
 30
0.0
 11
47.60371690537423
 21
30.1428892393965
 31
0.0
  0
SPLINE
  5
11C
330
6C
100
AcDbEntity
  8
Visible (ANSI)
100
AcDbSpline
210
0.0
220
0.0
230
1.0
 70
     8
 71
     3
 72
     8
 73
     4
 74
     0
 42
0.0000000001
 43
0.0000000001
 40
0.0
 40
0.0
 40
0.0
 40
0.0
 40
0.1111819782024558
 40
0.1111819782024558
 40
0.1111819782024558
 40
0.1111819782024558
 10
39.74431690537425
 20
30.1428892393965
 30
0.0
 10
39.74483825406716
 20
30.13767851068475
 30
0.0
 10
39.74535960276006
 20
30.13247749260663
 30
0.0
 10
39.74588095145298
 20
30.12731358132142
 30
0.0
  0
SPLINE
  5
11D
330
6C
100
AcDbEntity
  8
Visible (ANSI)
100
AcDbSpline
210
0.0
220
0.0
230
1.0
 70
     8
 71
     3
 72
     8
 73
     4
 74
     0
 42
0.0000000001
 43
0.0000000001
 40
1.45961434859247
 40
1.45961434859247
 40
1.45961434859247
 40
1.45961434859247
 40
1.570796326794895
 40
1.570796326794895
 40
1.570796326794895
 40
1.570796326794895
 10
47.58655285929552
 20
30.12729261129959
 30
0.0
 10
47.58707420798843
 20
30.13246938444554
 30
0.0
 10
47.58759555668133
 20
30.13767851068475
 30
0.0
 10
47.58811690537424
 20
30.1428892393965
 30
0.0
  0
LINE
  5
11E
330
6C
100
AcDbEntity
  8
Visible (ANSI)
100
AcDbLine
 10
46.45661981846216
 20
30.0022892393965
 30
0.0
 11
46.47871690537423
 21
30.0022892393965
 31
0.0
  0
LINE
  5
11F
330
6C
100
AcDbEntity
  8
Visible (ANSI)
100
AcDbLine
 10
46.45661981846216
 20
30.00241538059472
 30
0.0
 11
46.45661981846216
 21
30.0022892393965
 31
0.0
  0
SPLINE
  5
120
330
6C
100
AcDbEntity
  8
Visible (ANSI)
100
AcDbSpline
210
0.0
220
0.0
230
1.0
 70
     8
 71
     3
 72
     8
 73
     4
 74
     0
 42
0.0000000001
 43
0.0000000001
 40
0.0
 40
0.0
 40
0.0
 40
0.0
 40
1.570796326794895
 40
1.570796326794895
 40
1.570796326794895
 40
1.570796326794895
 10
47.58811690537424
 20
30.1428892393965
 30
0.0
 10
47.58075120973688
 20
30.13472109849717
 30
0.0
 10
47.57338551409952
 20
30.1272892393965
 30
0.0
 10
47.56601981846215
 20
30.1272892393965
 30
0.0
  0
SPLINE
  5
121
330
6C
100
AcDbEntity
  8
Visible (ANSI)
100
AcDbSpline
210
0.0
220
0.0
230
1.0
 70
     8
 71
     3
 72
     8
 73
     4
 74
     0
 42
0.0000000001
 43
0.0000000001
 40
0.0
 40
0.0
 40
0.0
 40
0.0
 40
1.570796326794896
 40
1.570796326794896
 40
1.570796326794896
 40
1.570796326794896
 10
39.74431690537425
 20
30.1428892393965
 30
0.0
 10
39.75168260101161
 20
30.13472109849717
 30
0.0
 10
39.75904829664897
 20
30.1272892393965
 30
0.0
 10
39.76641399228633
 20
30.1272892393965
 30
0.0
  0
LINE
  5
122
330
6C
100
AcDbEntity
  8
Visible (ANSI)
100
AcDbLine
 10
40.85371690537423
 20
30.0022892393965
 30
0.0
 11
40.87581399228632
 21
30.0022892393965
 31
0.0
  0
LINE
  5
123
330
6C
100
AcDbEntity
  8
Visible (ANSI)
100
AcDbLine
 10
40.87581399228632
 20
30.00241538059472
 30
0.0
 11
40.87581399228632
 21
30.0022892393965
 31
0.0
  0
LINE
  5
124
330
6C
100
AcDbEntity
  8
Visible (ANSI)
100
AcDbLine
 10
39.60371690537424
 20
30.1428892393965
 30
0.0
 11
39.60371690537423
 21
41.8616892393965
 31
0.0
  0
LINE
  5
125
330
6C
100
AcDbEntity
  8
Visible (ANSI)
100
AcDbLine
 10
47.60371690537427
 20
30.14288923939651
 30
0.0
 11
47.60371690537428
 21
41.8616892393965
 31
0.0
  0
LINE
  5
126
330
6C
100
AcDbEntity
  8
Visible (ANSI)
100
AcDbLine
 10
47.72871690537429
 20
41.8616892393965
 30
0.0
 11
47.72871690537427
 21
30.14288923939651
 31
0.0
  0
LINE
  5
127
330
6C
100
AcDbEntity
  8
Visible (ANSI)
100
AcDbLine
 10
47.60371690537428
 20
41.8616892393965
 30
0.0
 11
47.72871690537429
 21
41.8616892393965
 31
0.0
  0
LINE
  5
128
330
6C
100
AcDbEntity
  8
Visible (ANSI)
100
AcDbLine
 10
39.72871690537424
 20
41.8616892393965
 30
0.0
 11
39.72871690537424
 21
30.1428892393965
 31
0.0
  0
LINE
  5
129
330
6C
100
AcDbEntity
  8
Visible (ANSI)
100
AcDbLine
 10
39.60371690537423
 20
41.8616892393965
 30
0.0
 11
39.72871690537424
 21
41.8616892393965
 31
0.0
  0
LINE
  5
12A
330
6C
100
AcDbEntity
  8
Visible Narrow (ANSI)
100
AcDbLine
 10
39.74431690537424
 20
41.8616892393965
 30
0.0
 11
39.74431690537425
 21
30.1428892393965
 31
0.0
  0
LINE
  5
12B
330
6C
100
AcDbEntity
  8
Visible Narrow (ANSI)
100
AcDbLine
 10
47.58811690537424
 20
30.1428892393965
 30
0.0
 11
47.58811690537424
 21
41.8616892393965
 31
0.0
  0
LINE
  5
12C
330
6C
100
AcDbEntity
  8
Visible (ANSI)
100
AcDbLine
 10
39.74431690537424
 20
41.8616892393965
 30
0.0
 11
39.72871690537424
 21
41.8616892393965
 31
0.0
  0
LINE
  5
12D
330
6C
100
AcDbEntity
  8
Visible (ANSI)
100
AcDbLine
 10
40.35371690537424
 20
41.87728923939646
 30
0.0
 11
39.74431690537424
 21
41.87728923939649
 31
0.0
  0
LINE
  5
12E
330
6C
100
AcDbEntity
  8
Visible (ANSI)
100
AcDbLine
 10
40.35371690537425
 20
42.00228923939646
 30
0.0
 11
39.74431690537425
 21
42.0022892393965
 31
0.0
  0
LINE
  5
12F
330
6C
100
AcDbEntity
  8
Visible (ANSI)
100
AcDbLine
 10
47.58811690537483
 20
42.00228923939677
 30
0.0
 11
46.97871690537538
 21
42.00228923939677
 31
0.0
  0
LINE
  5
130
330
6C
100
AcDbEntity
  8
Visible (ANSI)
100
AcDbLine
 10
46.97871690537538
 20
41.87728923939678
 30
0.0
 11
47.58811690537483
 21
41.87728923939676
 31
0.0
  0
LINE
  5
131
330
6C
100
AcDbEntity
  8
Visible (ANSI)
100
AcDbLine
 10
46.45661981846225
 20
41.8772892393965
 30
0.0
 11
40.87581399228631
 21
41.8772892393965
 31
0.0
  0
LINE
  5
132
330
6C
100
AcDbEntity
  8
Visible (ANSI)
100
AcDbLine
 10
46.45661981846225
 20
42.0022892393965
 30
0.0
 11
40.87581399228631
 21
42.00228923939651
 31
0.0
  0
LINE
  5
133
330
6C
100
AcDbEntity
  8
Visible (ANSI)
100
AcDbLine
 10
47.60371690537423
 20
41.86168923939649
 30
0.0
 11
47.58811690537424
 21
41.86168923939649
 31
0.0
  0
LINE
  5
134
330
6C
100
AcDbEntity
  8
Visible (ANSI)
100
AcDbLine
 10
40.85371690537424
 20
42.00228923939643
 30
0.0
 11
40.35371690537425
 21
42.00228923939646
 31
0.0
  0
LINE
  5
135
330
6C
100
AcDbEntity
  8
Visible (ANSI)
100
AcDbLine
 10
40.35371690537425
 20
42.00228923939646
 30
0.0
 11
40.35371690537424
 21
41.87728923939646
 31
0.0
  0
LINE
  5
136
330
6C
100
AcDbEntity
  8
Visible (ANSI)
100
AcDbLine
 10
40.35371690537424
 20
41.87728923939646
 30
0.0
 11
40.85371690537423
 21
41.87728923939643
 31
0.0
  0
LINE
  5
137
330
6C
100
AcDbEntity
  8
Visible (ANSI)
100
AcDbLine
 10
40.85371690537423
 20
41.87728923939643
 30
0.0
 11
40.85371690537424
 21
42.00228923939643
 31
0.0
  0
LINE
  5
138
330
6C
100
AcDbEntity
  8
Visible (ANSI)
100
AcDbLine
 10
46.97871690537538
 20
42.00228923939677
 30
0.0
 11
46.47871690537534
 21
42.00228923939674
 31
0.0
  0
LINE
  5
139
330
6C
100
AcDbEntity
  8
Visible (ANSI)
100
AcDbLine
 10
46.47871690537534
 20
42.00228923939674
 30
0.0
 11
46.47871690537534
 21
41.87728923939674
 31
0.0
  0
LINE
  5
13A
330
6C
100
AcDbEntity
  8
Visible (ANSI)
100
AcDbLine
 10
46.47871690537534
 20
41.87728923939674
 30
0.0
 11
46.97871690537538
 21
41.87728923939678
 31
0.0
  0
LINE
  5
13B
330
6C
100
AcDbEntity
  8
Visible (ANSI)
100
AcDbLine
 10
46.97871690537538
 20
41.87728923939678
 30
0.0
 11
46.97871690537538
 21
42.00228923939677
 31
0.0
  0
ARC
  5
13C
330
6C
100
AcDbEntity
  8
Visible (ANSI)
100
AcDbCircle
 10
39.74431690537424
 20
41.86168923939649
 30
0.0
 40
0.0156
100
AcDbArc
 50
90.0
 51
180.0
  0
ARC
  5
13D
330
6C
100
AcDbEntity
  8
Visible (ANSI)
100
AcDbCircle
 10
39.74431690537424
 20
41.86168923939649
 30
0.0
 40
0.1405999999999981
100
AcDbArc
 50
89.99999999999657
 51
180.0
  0
ARC
  5
13E
330
6C
100
AcDbEntity
  8
Visible (ANSI)
100
AcDbCircle
 10
47.58811690537483
 20
41.8616892393965
 30
0.0
 40
0.1406000000002695
100
AcDbArc
 50
0.0
 51
90.0
  0
ARC
  5
13F
330
6C
100
AcDbEntity
  8
Visible (ANSI)
100
AcDbCircle
 10
47.58811690537483
 20
41.8616892393965
 30
0.0
 40
0.0156000000002713
100
AcDbArc
 50
0.0
 51
90.0
  0
LINE
  5
140
330
6C
100
AcDbEntity
  8
Visible Narrow (ANSI)
100
AcDbLine
 10
47.58811690537424
 20
41.8616892393965
 30
0.0
 11
39.74431690537424
 21
41.8616892393965
 31
0.0
  0
SPLINE
  5
141
330
6C
100
AcDbEntity
  8
Visible (ANSI)
100
AcDbSpline
210
0.0
220
0.0
230
1.0
 70
     8
 71
     3
 72
     8
 73
     4
 74
     0
 42
0.0000000001
 43
0.0000000001
 40
0.0
 40
0.0
 40
0.0
 40
0.0
 40
0.1111819782045039
 40
0.1111819782045039
 40
0.1111819782045039
 40
0.1111819782045039
 10
47.58811690537423
 20
41.86168923939648
 30
0.0
 10
47.58759555668132
 20
41.86689996810833
 30
0.0
 10
47.58707420798841
 20
41.87210098618654
 30
0.0
 10
47.58655285929548
 20
41.87726489747185
 30
0.0
  0
SPLINE
  5
142
330
6C
100
AcDbEntity
  8
Visible (ANSI)
100
AcDbSpline
210
0.0
220
0.0
230
1.0
 70
     8
 71
     3
 72
     8
 73
     4
 74
     0
 42
0.0000000001
 43
0.0000000001
 40
1.459614348592429
 40
1.459614348592429
 40
1.459614348592429
 40
1.459614348592429
 40
1.570796326794819
 40
1.570796326794819
 40
1.570796326794819
 40
1.570796326794819
 10
39.74588095145296
 20
41.87728586749341
 30
0.0
 10
39.74535960276006
 20
41.87210909434746
 30
0.0
 10
39.74483825406716
 20
41.86689996810826
 30
0.0
 10
39.74431690537424
 20
41.8616892393965
 30
0.0
  0
LINE
  5
143
330
6C
100
AcDbEntity
  8
Visible (ANSI)
100
AcDbLine
 10
46.47871690537487
 20
41.8772892393965
 30
0.0
 11
46.45661981846225
 21
41.8772892393965
 31
0.0
  0
LINE
  5
144
330
6C
100
AcDbEntity
  8
Visible (ANSI)
100
AcDbLine
 10
40.85371690537424
 20
41.8772892393965
 30
0.0
 11
40.87581399228631
 21
41.8772892393965
 31
0.0
  0
LINE
  5
145
330
6C
100
AcDbEntity
  8
Visible (ANSI)
100
AcDbLine
 10
40.87581399228631
 20
42.00228923939651
 30
0.0
 11
40.85371690537424
 21
42.00228923939651
 31
0.0
  0
LINE
  5
146
330
6C
100
AcDbEntity
  8
Visible (ANSI)
100
AcDbLine
 10
40.87581399228631
 20
41.8772892393965
 30
0.0
 11
40.87581399228631
 21
42.00228923939651
 31
0.0
  0
SPLINE
  5
147
330
6C
100
AcDbEntity
  8
Visible (ANSI)
100
AcDbSpline
210
0.0
220
0.0
230
1.0
 70
     8
 71
     3
 72
     8
 73
     4
 74
     0
 42
0.0000000001
 43
0.0000000001
 40
0.0
 40
0.0
 40
0.0
 40
0.0
 40
1.570796326794819
 40
1.570796326794819
 40
1.570796326794819
 40
1.570796326794819
 10
39.74431690537424
 20
41.8616892393965
 30
0.0
 10
39.75168260101161
 20
41.86985738029583
 30
0.0
 10
39.75904829664897
 20
41.8772892393965
 30
0.0
 10
39.76641399228633
 20
41.8772892393965
 30
0.0
  0
SPLINE
  5
148
330
6C
100
AcDbEntity
  8
Visible (ANSI)
100
AcDbSpline
210
0.0
220
0.0
230
1.0
 70
     8
 71
     3
 72
     8
 73
     4
 74
     0
 42
0.0000000001
 43
0.0000000001
 40
0.0
 40
0.0
 40
0.0
 40
0.0
 40
1.570796326794887
 40
1.570796326794887
 40
1.570796326794887
 40
1.570796326794887
 10
47.58811690537423
 20
41.8616892393965
 30
0.0
 10
47.58075120973688
 20
41.86985738029583
 30
0.0
 10
47.57338551409953
 20
41.8772892393965
 30
0.0
 10
47.56601981846216
 20
41.8772892393965
 30
0.0
  0
LINE
  5
149
330
6C
100
AcDbEntity
  8
Visible (ANSI)
100
AcDbLine
 10
46.47871690537488
 20
42.0022892393965
 30
0.0
 11
46.45661981846225
 21
42.0022892393965
 31
0.0
  0
LINE
  5
14A
330
6C
100
AcDbEntity
  8
Visible (ANSI)
100
AcDbLine
 10
46.45661981846225
 20
41.8772892393965
 30
0.0
 11
46.45661981846225
 21
42.0022892393965
 31
0.0
  0
LINE
  5
14B
330
6C
100
AcDbEntity
  8
Visible (ANSI)
100
AcDbLine
 10
47.35371690537421
 20
30.12741538059472
 30
0.0
 11
47.4787169053742
 21
30.12741538059472
 31
0.0
  0
LINE
  5
14C
330
6C
100
AcDbEntity
  8
Visible Narrow (ANSI)
100
AcDbLine
 10
47.35371690537421
 20
30.12741538059472
 30
0.0
 11
47.35371690537421
 21
30.00241538059472
 31
0.0
  0
LINE
  5
14D
330
6C
100
AcDbEntity
  8
Visible (ANSI)
100
AcDbLine
 10
47.4787169053742
 20
30.00241538059472
 30
0.0
 11
47.35371690537421
 21
30.00241538059472
 31
0.0
  0
LINE
  5
14E
330
6C
100
AcDbEntity
  8
Visible (ANSI)
100
AcDbLine
 10
47.4787169053742
 20
30.00241538059472
 30
0.0
 11
47.4787169053742
 21
30.12741538059472
 31
0.0
  0
LINE
  5
14F
330
6C
100
AcDbEntity
  8
Visible (ANSI)
100
AcDbLine
 10
39.97871690537421
 20
30.00241538059472
 30
0.0
 11
39.85371690537422
 21
30.00241538059472
 31
0.0
  0
LINE
  5
150
330
6C
100
AcDbEntity
  8
Visible (ANSI)
100
AcDbLine
 10
39.85371690537422
 20
30.12741538059472
 30
0.0
 11
39.97871690537421
 21
30.12741538059472
 31
0.0
  0
LINE
  5
151
330
6C
100
AcDbEntity
  8
Visible (ANSI)
100
AcDbLine
 10
39.85371690537422
 20
30.12741538059472
 30
0.0
 11
39.85371690537422
 21
30.00241538059472
 31
0.0
  0
LINE
  5
152
330
6C
100
AcDbEntity
  8
Visible Narrow (ANSI)
100
AcDbLine
 10
39.97871690537421
 20
30.00241538059472
 30
0.0
 11
39.97871690537421
 21
30.12741538059472
 31
0.0
  0
LINE
  5
153
330
6C
100
AcDbEntity
  8
Visible (ANSI)
100
AcDbLine
 10
47.4787169053742
 20
30.25228923939652
 30
0.0
 11
47.4787169053742
 21
30.21110845283134
 31
0.0
  0
LINE
  5
154
330
6C
100
AcDbEntity
  8
Visible (ANSI)
100
AcDbLine
 10
39.85371690537422
 20
30.25228923939652
 30
0.0
 11
39.85371690537422
 21
30.21110845283134
 31
0.0
  0
LINE
  5
155
330
6C
100
AcDbEntity
  8
Visible (ANSI)
100
AcDbLine
 10
47.4787169053742
 20
30.25228923939652
 30
0.0
 11
39.85371690537422
 21
30.25228923939652
 31
0.0
  0
LINE
  5
156
330
6C
100
AcDbEntity
  8
Visible Narrow (ANSI)
100
AcDbLine
 10
47.4787169053742
 20
30.21110845283134
 30
0.0
 11
39.85371690537422
 21
30.21110845283134
 31
0.0
  0
LINE
  5
157
330
6C
100
AcDbEntity
  8
Visible (ANSI)
100
AcDbLine
 10
47.4787169053742
 20
30.13198451480821
 30
0.0
 11
47.4787169053742
 21
30.21110845283134
 31
0.0
  0
LINE
  5
158
330
6C
100
AcDbEntity
  8
Visible (ANSI)
100
AcDbLine
 10
39.85371690537422
 20
30.21110845283134
 30
0.0
 11
39.85371690537422
 21
30.13198451480821
 31
0.0
  0
LINE
  5
159
330
6C
100
AcDbEntity
  8
Visible (ANSI)
100
AcDbLine
 10
47.4787169053742
 20
30.12741538059472
 30
0.0
 11
47.4787169053742
 21
30.13198451480821
 31
0.0
  0
LINE
  5
15A
330
6C
100
AcDbEntity
  8
Visible (ANSI)
100
AcDbLine
 10
39.85371690537422
 20
30.12741538059472
 30
0.0
 11
39.85371690537422
 21
30.13198451480821
 31
0.0
  0
LINE
  5
15B
330
6C
100
AcDbEntity
  8
Visible Narrow (ANSI)
100
AcDbLine
 10
47.4787169053742
 20
30.13198451480821
 30
0.0
 11
39.85371690537422
 21
30.13198451480821
 31
0.0
  0
LINE
  5
15C
330
6C
100
AcDbEntity
  8
Visible (ANSI)
100
AcDbLine
 10
39.97871690537421
 20
30.00241538059472
 30
0.0
 11
47.35371690537421
 21
30.00241538059472
 31
0.0
  0
LINE
  5
15D
330
6C
100
AcDbEntity
  8
Visible (ANSI)
100
AcDbLine
 10
47.35371690537421
 20
30.12741538059472
 30
0.0
 11
39.97871690537421
 21
30.12741538059472
 31
0.0
  0
MTEXT
  5
15F
330
6C
100
AcDbEntity
  8
Symbol (ANSI)
100
AcDbMText
 10
40.77532138817393
 20
26.53966027473753
 30
0.0
 40
0.7200000088984572
 41
0.0
 71
     7
 72
     1
  1
FRONT VIEW
  7
Text Style168
 73
     1
 44
1.0
  0
LINE
  5
161
330
6C
100
AcDbEntity
  8
Symbol (ANSI)
370
    30
100
AcDbLine
 10
40.70332120296361
 20
26.39283045048819
 30
0.0
 11
46.49191122867768
 21
26.39283045048819
 31
0.0
  0
SPLINE
  5
162
330
6C
100
AcDbEntity
  8
Visible (ANSI)
100
AcDbSpline
210
0.0
220
0.0
230
1.0
 70
     8
 71
     3
 72
    11
 73
     7
 74
     0
 42
0.0000000001
 43
0.0000000001
 40
0.0
 40
0.0
 40
0.0
 40
0.0
 40
1.01858281548856
 40
1.01858281548856
 40
1.01858281548856
 40
1.570796326794896
 40
1.570796326794896
 40
1.570796326794896
 40
1.570796326794896
 10
10.49895596985362
 20
30.14288923939649
 30
0.0
 10
10.49895596985362
 20
30.0951516581106
 30
0.0
 10
10.52515887543275
 20
30.0482291028284
 30
0.0
 10
10.56580100330193
 20
30.02318725566624
 30
0.0
 10
10.5878346875506
 20
30.00961109264764
 30
0.0
 10
10.6136755632904
 20
30.0022892393965
 30
0.0
 10
10.63955596985362
 20
30.0022892393965
 30
0.0
  0
LINE
  5
163
330
6C
100
AcDbEntity
  8
Visible (ANSI)
100
AcDbLine
 10
10.63955596985362
 20
30.12728923939649
 30
0.0
 11
10.64112001593235
 21
30.12728923939649
 31
0.0
  0
LINE
  5
164
330
6C
100
AcDbEntity
  8
Visible (ANSI)
100
AcDbLine
 10
10.63955596985362
 20
30.12728923939649
 30
0.0
 11
10.63955596985362
 21
30.0022892393965
 31
0.0
  0
SPLINE
  5
165
330
6C
100
AcDbEntity
  8
Visible (ANSI)
100
AcDbSpline
210
0.0
220
0.0
230
1.0
 70
     8
 71
     3
 72
     8
 73
     4
 74
     0
 42
0.0000000001
 43
0.0000000001
 40
0.0
 40
0.0
 40
0.0
 40
0.0
 40
1.570796326794896
 40
1.570796326794896
 40
1.570796326794896
 40
1.570796326794896
 10
10.62395596985362
 20
30.14288923939649
 30
0.0
 10
10.62395596985362
 20
30.13472109849716
 30
0.0
 10
10.63138782895429
 20
30.12728923939649
 30
0.0
 10
10.63955596985362
 20
30.12728923939649
 30
0.0
  0
LINE
  5
166
330
6C
100
AcDbEntity
  8
Visible (ANSI)
100
AcDbLine
 10
10.63955596985362
 20
30.0022892393965
 30
0.0
 11
10.66165305676571
 21
30.0022892393965
 31
0.0
  0
SPLINE
  5
167
330
6C
100
AcDbEntity
  8
Visible (ANSI)
100
AcDbSpline
210
0.0
220
0.0
230
1.0
 70
     8
 71
     3
 72
    11
 73
     7
 74
     0
 42
0.0000000001
 43
0.0000000001
 40
0.0
 40
0.0
 40
0.0
 40
0.0
 40
1.018582815488561
 40
1.018582815488561
 40
1.018582815488561
 40
1.570796326794895
 40
1.570796326794895
 40
1.570796326794895
 40
1.570796326794895
 10
10.6616530567657
 20
30.0022892393965
 30
0.0
 10
10.65687677172328
 20
30.0022892393965
 30
0.0
 10
10.65210048668086
 20
30.02849214497562
 30
0.0
 10
10.64732420163845
 20
30.0691342728448
 30
0.0
 10
10.64473479104349
 20
30.09116795709347
 30
0.0
 10
10.64214538044853
 20
30.11700883283327
 30
0.0
 10
10.63955596985358
 20
30.14288923939649
 30
0.0
  0
LINE
  5
168
330
6C
100
AcDbEntity
  8
Visible (ANSI)
100
AcDbLine
 10
16.49895596985366
 20
30.0022892393965
 30
0.0
 11
10.6616530567657
 21
30.0022892393965
 31
0.0
  0
SPLINE
  5
169
330
6C
100
AcDbEntity
  8
Visible (ANSI)
100
AcDbSpline
210
0.0
220
0.0
230
1.0
 70
     8
 71
     3
 72
    11
 73
     7
 74
     0
 42
0.0000000001
 43
0.0000000001
 40
0.0
 40
0.0
 40
0.0
 40
0.0
 40
1.018582815488561
 40
1.018582815488561
 40
1.018582815488561
 40
1.570796326794897
 40
1.570796326794897
 40
1.570796326794897
 40
1.570796326794897
 10
16.52266711881562
 20
30.14288923939649
 30
0.0
 10
16.51754195428258
 20
30.09515165811059
 30
0.0
 10
16.51241678974954
 20
30.0482291028284
 30
0.0
 10
16.5072916252165
 20
30.02318725566623
 30
0.0
 10
16.50451307342889
 20
30.00961109264764
 30
0.0
 10
16.50173452164127
 20
30.0022892393965
 30
0.0
 10
16.49895596985366
 20
30.0022892393965
 30
0.0
  0
LINE
  5
16A
330
6C
100
AcDbEntity
  8
Visible Narrow (ANSI)
100
AcDbLine
 10
10.63955596985358
 20
30.14288923939649
 30
0.0
 11
16.52266711881562
 21
30.14288923939649
 31
0.0
  0
LINE
  5
16B
330
6C
100
AcDbEntity
  8
Visible (ANSI)
100
AcDbLine
 10
10.63955596985358
 20
30.14288923939649
 30
0.0
 11
10.49895596985362
 21
30.14288923939649
 31
0.0
  0
LINE
  5
16C
330
6C
100
AcDbEntity
  8
Visible (ANSI)
100
AcDbLine
 10
16.52266711881562
 20
30.14288923939649
 30
0.0
 11
18.49895596985358
 21
41.86168923939648
 31
0.0
  0
LINE
  5
16D
330
6C
100
AcDbEntity
  8
Visible Narrow (ANSI)
100
AcDbLine
 10
18.49895596985358
 20
41.86168923939648
 30
0.0
 11
10.63955596985358
 21
41.86168923939649
 31
0.0
  0
LINE
  5
16E
330
6C
100
AcDbEntity
  8
Visible (ANSI)
100
AcDbLine
 10
18.49895596985358
 20
41.86168923939648
 30
0.0
 11
18.49895596985362
 21
42.00228923939648
 31
0.0
  0
LINE
  5
16F
330
6C
100
AcDbEntity
  8
Visible (ANSI)
100
AcDbLine
 10
10.6616530567657
 20
42.00228923939649
 30
0.0
 11
18.49895596985362
 21
42.00228923939649
 31
0.0
  0
LINE
  5
170
330
6C
100
AcDbEntity
  8
Visible Narrow (ANSI)
100
AcDbLine
 10
10.63955596985357
 20
41.86168923939649
 30
0.0
 11
10.63955596985358
 21
30.14288923939649
 31
0.0
  0
LINE
  5
171
330
6C
100
AcDbEntity
  8
Visible (ANSI)
100
AcDbLine
 10
10.49895596985362
 20
30.14288923939649
 30
0.0
 11
10.49895596985362
 21
41.86168923939649
 31
0.0
  0
SPLINE
  5
172
330
6C
100
AcDbEntity
  8
Visible (ANSI)
100
AcDbSpline
210
0.0
220
0.0
230
1.0
 70
     8
 71
     3
 72
    11
 73
     7
 74
     0
 42
0.0000000001
 43
0.0000000001
 40
0.0
 40
0.0
 40
0.0
 40
0.0
 40
1.018582815488638
 40
1.018582815488638
 40
1.018582815488638
 40
1.570796326794819
 40
1.570796326794819
 40
1.570796326794819
 40
1.570796326794819
 10
10.63955596985361
 20
42.0022892393965
 30
0.0
 10
10.59181838856771
 20
42.0022892393965
 30
0.0
 10
10.54489583328551
 20
41.97608633381736
 30
0.0
 10
10.51985398612335
 20
41.93544420594816
 30
0.0
 10
10.50627782310476
 20
41.9134105216995
 30
0.0
 10
10.49895596985362
 20
41.8875696459597
 30
0.0
 10
10.49895596985361
 20
41.86168923939649
 30
0.0
  0
LINE
  5
173
330
6C
100
AcDbEntity
  8
Visible (ANSI)
100
AcDbLine
 10
10.63955596985362
 20
41.87728923939649
 30
0.0
 11
10.64112001593234
 21
41.87728923939649
 31
0.0
  0
LINE
  5
174
330
6C
100
AcDbEntity
  8
Visible (ANSI)
100
AcDbLine
 10
10.66165305676571
 20
42.0022892393965
 30
0.0
 11
10.63955596985362
 21
42.0022892393965
 31
0.0
  0
LINE
  5
175
330
6C
100
AcDbEntity
  8
Visible (ANSI)
100
AcDbLine
 10
10.63955596985362
 20
41.87728923939649
 30
0.0
 11
10.63955596985362
 21
42.0022892393965
 31
0.0
  0
SPLINE
  5
176
330
6C
100
AcDbEntity
  8
Visible (ANSI)
100
AcDbSpline
210
0.0
220
0.0
230
1.0
 70
     8
 71
     3
 72
     8
 73
     4
 74
     0
 42
0.0000000001
 43
0.0000000001
 40
0.0
 40
0.0
 40
0.0
 40
0.0
 40
1.570796326794819
 40
1.570796326794819
 40
1.570796326794819
 40
1.570796326794819
 10
10.62395596985362
 20
41.86168923939649
 30
0.0
 10
10.62395596985362
 20
41.86985738029582
 30
0.0
 10
10.63138782895429
 20
41.87728923939649
 30
0.0
 10
10.63955596985362
 20
41.87728923939649
 30
0.0
  0
SPLINE
  5
177
330
6C
100
AcDbEntity
  8
Visible (ANSI)
100
AcDbSpline
210
0.0
220
0.0
230
1.0
 70
     8
 71
     3
 72
    11
 73
     7
 74
     0
 42
0.0000000001
 43
0.0000000001
 40
0.0
 40
0.0
 40
0.0
 40
0.0
 40
1.018582815488563
 40
1.018582815488563
 40
1.018582815488563
 40
1.570796326794888
 40
1.570796326794888
 40
1.570796326794888
 40
1.570796326794888
 10
10.63955596985358
 20
41.8616892393965
 30
0.0
 10
10.64433225489598
 20
41.9094268206824
 30
0.0
 10
10.64910853993839
 20
41.9563493759646
 30
0.0
 10
10.65388482498081
 20
41.98139122312675
 30
0.0
 10
10.65647423557577
 20
41.99496738614534
 30
0.0
 10
10.65906364617073
 20
42.0022892393965
 30
0.0
 10
10.6616530567657
 20
42.00228923939649
 30
0.0
  0
LINE
  5
178
330
6C
100
AcDbEntity
  8
Visible (ANSI)
100
AcDbLine
 10
10.49895596985362
 20
41.86168923939649
 30
0.0
 11
10.63955596985358
 21
41.86168923939649
 31
0.0
  0
LINE
  5
179
330
6C
100
AcDbEntity
  8
Visible (ANSI)
100
AcDbLine
 10
18.24895596985369
 20
30.00241538059472
 30
0.0
 11
18.12395596985365
 21
30.00241538059472
 31
0.0
  0
LINE
  5
17A
330
6C
100
AcDbEntity
  8
Visible (ANSI)
100
AcDbLine
 10
18.12395596985364
 20
30.12741538059471
 30
0.0
 11
18.24895596985368
 21
30.12741538059471
 31
0.0
  0
LINE
  5
17B
330
6C
100
AcDbEntity
  8
Visible Narrow (ANSI)
100
AcDbLine
 10
18.12395596985365
 20
30.12741538059471
 30
0.0
 11
18.12395596985365
 21
30.00241538059472
 31
0.0
  0
LINE
  5
17C
330
6C
100
AcDbEntity
  8
Visible (ANSI)
100
AcDbLine
 10
18.24895596985369
 20
30.00241538059472
 30
0.0
 11
18.24895596985369
 21
30.12741538059471
 31
0.0
  0
LINE
  5
17D
330
6C
100
AcDbEntity
  8
Visible (ANSI)
100
AcDbLine
 10
16.71669439672331
 20
30.00241538059472
 30
0.0
 11
18.12395596985365
 21
30.00241538059472
 31
0.0
  0
LINE
  5
17E
330
6C
100
AcDbEntity
  8
Visible (ANSI)
100
AcDbLine
 10
18.12395596985365
 20
30.12741538059471
 30
0.0
 11
16.71669439672331
 21
30.12741538059471
 31
0.0
  0
ARC
  5
17F
330
6C
100
AcDbEntity
  8
Visible (ANSI)
100
AcDbCircle
 10
16.7166943967233
 20
30.14301538059471
 30
0.0
 40
0.0156000000000001
100
AcDbArc
 50
225.0000000000055
 51
270.0000000000077
  0
ARC
  5
180
330
6C
100
AcDbEntity
  8
Visible (ANSI)
100
AcDbCircle
 10
16.7166943967233
 20
30.14301538059471
 30
0.0
 40
0.1405999999999992
100
AcDbArc
 50
225.0000000000006
 51
270.0000000000009
  0
LINE
  5
181
330
6C
100
AcDbEntity
  8
Visible (ANSI)
100
AcDbLine
 10
16.62653959291366
 20
30.21110845283134
 30
0.0
 11
16.70566353093679
 21
30.1319845148082
 31
0.0
  0
LINE
  5
182
330
6C
100
AcDbEntity
  8
Visible (ANSI)
100
AcDbLine
 10
16.61727518328848
 20
30.04359616715988
 30
0.0
 11
16.53815124526534
 21
30.12272010518302
 31
0.0
  0
ARC
  5
183
330
6C
100
AcDbEntity
  8
Visible (ANSI)
100
AcDbCircle
 10
16.52712037947883
 20
30.11168923939651
 30
0.0
 40
0.140599999999998
100
AcDbArc
 50
44.99999999999938
 51
84.33437806336305
  0
ARC
  5
184
330
6C
100
AcDbEntity
  8
Visible (ANSI)
100
AcDbCircle
 10
16.52712037947883
 20
30.11168923939651
 30
0.0
 40
0.0156000000000005
100
AcDbArc
 50
45.0
 51
89.9999999999923
  0
LINE
  5
185
330
6C
100
AcDbEntity
  8
Visible (ANSI)
100
AcDbLine
 10
16.52712037947883
 20
30.12728923939651
 30
0.0
 11
16.52098882838296
 21
30.12728923939651
 31
0.0
  0
MTEXT
  5
186
330
6C
100
AcDbEntity
  8
Symbol (ANSI)
100
AcDbMText
 10
12.07213725308084
 20
26.57000063244313
 30
0.0
 40
0.7200000088984572
 41
0.0
 71
     7
 72
     1
  1
LEFT VIEW
  7
Text Style168
 73
     1
 44
1.0
  0
LINE
  5
187
330
6C
100
AcDbEntity
  8
Symbol (ANSI)
370
    30
100
AcDbLine
 10
12.00013706787052
 20
26.40800063044097
 30
0.0
 11
16.86042877416598
 21
26.40800063044097
 31
0.0
  0
LINE
  5
188
330
6C
100
AcDbEntity
  8
Visible (ANSI)
100
AcDbLine
 10
73.23364126185658
 20
30.0022892393965
 30
0.0
 11
67.39633834876866
 21
30.0022892393965
 31
0.0
  0
LINE
  5
189
330
6C
100
AcDbEntity
  8
Visible Narrow (ANSI)
100
AcDbLine
 10
67.3726271998067
 20
30.1428892393965
 30
0.0
 11
73.2557383487687
 21
30.14288923939649
 31
0.0
  0
SPLINE
  5
18A
330
6C
100
AcDbEntity
  8
Visible (ANSI)
100
AcDbSpline
210
0.0
220
0.0
230
1.0
 70
     8
 71
     3
 72
    11
 73
     7
 74
     0
 42
0.0000000001
 43
0.0000000001
 40
0.0
 40
0.0
 40
0.0
 40
0.0
 40
1.018582815488611
 40
1.018582815488611
 40
1.018582815488611
 40
1.570796326794895
 40
1.570796326794895
 40
1.570796326794895
 40
1.570796326794895
 10
67.39633834876866
 20
30.0022892393965
 30
0.0
 10
67.39121318423562
 20
30.0022892393965
 30
0.0
 10
67.3860880197026
 20
30.02849214497563
 30
0.0
 10
67.38096285516956
 20
30.06913427284481
 30
0.0
 10
67.37818430338194
 20
30.09116795709348
 30
0.0
 10
67.37540575159432
 20
30.11700883283327
 30
0.0
 10
67.3726271998067
 20
30.1428892393965
 30
0.0
  0
SPLINE
  5
18B
330
6C
100
AcDbEntity
  8
Visible (ANSI)
100
AcDbSpline
210
0.0
220
0.0
230
1.0
 70
     8
 71
     3
 72
    11
 73
     7
 74
     0
 42
0.0000000001
 43
0.0000000001
 40
0.0
 40
0.0
 40
0.0
 40
0.0
 40
1.018582815488552
 40
1.018582815488552
 40
1.018582815488552
 40
1.570796326794897
 40
1.570796326794897
 40
1.570796326794897
 40
1.570796326794897
 10
73.2557383487687
 20
30.1428892393965
 30
0.0
 10
73.25096206372629
 20
30.0951516581106
 30
0.0
 10
73.24618577868388
 20
30.0482291028284
 30
0.0
 10
73.24140949364147
 20
30.02318725566624
 30
0.0
 10
73.2388200830465
 20
30.00961109264764
 30
0.0
 10
73.23623067245154
 20
30.0022892393965
 30
0.0
 10
73.23364126185658
 20
30.0022892393965
 30
0.0
  0
SPLINE
  5
18C
330
6C
100
AcDbEntity
  8
Visible (ANSI)
100
AcDbSpline
210
0.0
220
0.0
230
1.0
 70
     8
 71
     3
 72
    11
 73
     7
 74
     0
 42
0.0000000001
 43
0.0000000001
 40
0.0
 40
0.0
 40
0.0
 40
0.0
 40
1.018582815488561
 40
1.018582815488561
 40
1.018582815488561
 40
1.570796326794895
 40
1.570796326794895
 40
1.570796326794895
 40
1.570796326794895
 10
73.25573834876866
 20
30.0022892393965
 30
0.0
 10
73.30347593005455
 20
30.0022892393965
 30
0.0
 10
73.35039848533675
 20
30.02849214497562
 30
0.0
 10
73.37544033249891
 20
30.0691342728448
 30
0.0
 10
73.3890164955175
 20
30.09116795709347
 30
0.0
 10
73.39633834876865
 20
30.11700883283327
 30
0.0
 10
73.39633834876865
 20
30.14288923939649
 30
0.0
  0
LINE
  5
18D
330
6C
100
AcDbEntity
  8
Visible (ANSI)
100
AcDbLine
 10
73.25573834876866
 20
30.12728923939649
 30
0.0
 11
73.25417430268993
 21
30.12728923939649
 31
0.0
  0
LINE
  5
18E
330
6C
100
AcDbEntity
  8
Visible (ANSI)
100
AcDbLine
 10
73.23364126185658
 20
30.0022892393965
 30
0.0
 11
73.25573834876866
 21
30.0022892393965
 31
0.0
  0
LINE
  5
18F
330
6C
100
AcDbEntity
  8
Visible (ANSI)
100
AcDbLine
 10
73.25573834876866
 20
30.12728923939649
 30
0.0
 11
73.25573834876866
 21
30.0022892393965
 31
0.0
  0
SPLINE
  5
190
330
6C
100
AcDbEntity
  8
Visible (ANSI)
100
AcDbSpline
210
0.0
220
0.0
230
1.0
 70
     8
 71
     3
 72
     8
 73
     4
 74
     0
 42
0.0000000001
 43
0.0000000001
 40
0.0
 40
0.0
 40
0.0
 40
0.0
 40
1.570796326794895
 40
1.570796326794895
 40
1.570796326794895
 40
1.570796326794895
 10
73.27133834876867
 20
30.14288923939649
 30
0.0
 10
73.27133834876865
 20
30.13472109849716
 30
0.0
 10
73.26390648966799
 20
30.12728923939649
 30
0.0
 10
73.25573834876866
 20
30.12728923939649
 30
0.0
  0
LINE
  5
191
330
6C
100
AcDbEntity
  8
Visible (ANSI)
100
AcDbLine
 10
73.39633834876865
 20
30.14288923939649
 30
0.0
 11
73.2557383487687
 21
30.14288923939649
 31
0.0
  0
LINE
  5
192
330
6C
100
AcDbEntity
  8
Visible (ANSI)
100
AcDbLine
 10
73.39633834876865
 20
41.86168923939648
 30
0.0
 11
73.39633834876865
 21
30.14288923939649
 31
0.0
  0
LINE
  5
193
330
6C
100
AcDbEntity
  8
Visible Narrow (ANSI)
100
AcDbLine
 10
73.2557383487687
 20
30.14288923939649
 30
0.0
 11
73.25573834876871
 21
41.86168923939648
 31
0.0
  0
LINE
  5
194
330
6C
100
AcDbEntity
  8
Visible (ANSI)
100
AcDbLine
 10
73.25573834876871
 20
41.86168923939648
 30
0.0
 11
73.39633834876865
 21
41.86168923939648
 31
0.0
  0
LINE
  5
195
330
6C
100
AcDbEntity
  8
Visible (ANSI)
100
AcDbLine
 10
65.3963383487687
 20
41.86168923939649
 30
0.0
 11
67.3726271998067
 21
30.1428892393965
 31
0.0
  0
LINE
  5
196
330
6C
100
AcDbEntity
  8
Visible (ANSI)
100
AcDbLine
 10
65.39633834876866
 20
42.00228923939676
 30
0.0
 11
65.3963383487687
 21
41.86168923939649
 31
0.0
  0
LINE
  5
197
330
6C
100
AcDbEntity
  8
Visible (ANSI)
100
AcDbLine
 10
65.39633834876865
 20
42.00228923939676
 30
0.0
 11
73.23364126185686
 21
42.00228923939622
 31
0.0
  0
LINE
  5
198
330
6C
100
AcDbEntity
  8
Visible Narrow (ANSI)
100
AcDbLine
 10
73.25573834876871
 20
41.86168923939648
 30
0.0
 11
65.3963383487687
 21
41.86168923939649
 31
0.0
  0
SPLINE
  5
199
330
6C
100
AcDbEntity
  8
Visible (ANSI)
100
AcDbSpline
210
0.0
220
0.0
230
1.0
 70
     8
 71
     3
 72
    11
 73
     7
 74
     0
 42
0.0000000001
 43
0.0000000001
 40
0.0
 40
0.0
 40
0.0
 40
0.0
 40
1.018582815488535
 40
1.018582815488535
 40
1.018582815488535
 40
1.570796326794887
 40
1.570796326794887
 40
1.570796326794887
 40
1.570796326794887
 10
73.39633834876865
 20
41.86168923939647
 30
0.0
 10
73.39633834876867
 20
41.90942682068237
 30
0.0
 10
73.37013544318954
 20
41.95634937596456
 30
0.0
 10
73.32949331532036
 20
41.98139122312674
 30
0.0
 10
73.30745963107169
 20
41.99496738614533
 30
0.0
 10
73.28161875533189
 20
42.00228923939649
 30
0.0
 10
73.25573834876867
 20
42.0022892393965
 30
0.0
  0
LINE
  5
19A
330
6C
100
AcDbEntity
  8
Visible (ANSI)
100
AcDbLine
 10
73.25573834876866
 20
41.87728923939649
 30
0.0
 11
73.25417430268995
 21
41.87728923939649
 31
0.0
  0
LINE
  5
19B
330
6C
100
AcDbEntity
  8
Visible (ANSI)
100
AcDbLine
 10
73.25573834876866
 20
41.87728923939649
 30
0.0
 11
73.25573834876866
 21
42.00228923939649
 31
0.0
  0
SPLINE
  5
19C
330
6C
100
AcDbEntity
  8
Visible (ANSI)
100
AcDbSpline
210
0.0
220
0.0
230
1.0
 70
     8
 71
     3
 72
     8
 73
     4
 74
     0
 42
0.0000000001
 43
0.0000000001
 40
0.0
 40
0.0
 40
0.0
 40
0.0
 40
1.570796326794887
 40
1.570796326794887
 40
1.570796326794887
 40
1.570796326794887
 10
73.27133834876867
 20
41.86168923939648
 30
0.0
 10
73.27133834876865
 20
41.86985738029582
 30
0.0
 10
73.26390648966799
 20
41.87728923939649
 30
0.0
 10
73.25573834876866
 20
41.87728923939649
 30
0.0
  0
LINE
  5
19D
330
6C
100
AcDbEntity
  8
Visible (ANSI)
100
AcDbLine
 10
73.25573834876866
 20
42.00228923939649
 30
0.0
 11
73.23364126185684
 21
42.00228923939649
 31
0.0
  0
SPLINE
  5
19E
330
6C
100
AcDbEntity
  8
Visible (ANSI)
100
AcDbSpline
210
0.0
220
0.0
230
1.0
 70
     8
 71
     3
 72
    11
 73
     7
 74
     0
 42
0.0000000001
 43
0.0000000001
 40
0.0
 40
0.0
 40
0.0
 40
0.0
 40
1.018582815489068
 40
1.018582815489068
 40
1.018582815489068
 40
1.570796326794887
 40
1.570796326794887
 40
1.570796326794887
 40
1.570796326794887
 10
73.23364126185686
 20
42.00228923939622
 30
0.0
 10
73.23841754689922
 20
42.00228923939622
 30
0.0
 10
73.24319383194158
 20
41.97608633381711
 30
0.0
 10
73.24797011698393
 20
41.93544420594798
 30
0.0
 10
73.25055952757885
 20
41.91341052169937
 30
0.0
 10
73.25314893817377
 20
41.88756964595964
 30
0.0
 10
73.2557383487687
 20
41.86168923939648
 30
0.0
  0
LINE
  5
19F
330
6C
100
AcDbEntity
  8
Visible (ANSI)
100
AcDbLine
 10
65.64633834876859
 20
30.12741538059471
 30
0.0
 11
65.77133834876862
 21
30.12741538059471
 31
0.0
  0
LINE
  5
1A0
330
6C
100
AcDbEntity
  8
Visible (ANSI)
100
AcDbLine
 10
65.64633834876859
 20
30.12741538059471
 30
0.0
 11
65.64633834876859
 21
30.00241538059472
 31
0.0
  0
LINE
  5
1A1
330
6C
100
AcDbEntity
  8
Visible (ANSI)
100
AcDbLine
 10
65.77133834876862
 20
30.00241538059472
 30
0.0
 11
65.64633834876859
 21
30.00241538059472
 31
0.0
  0
LINE
  5
1A2
330
6C
100
AcDbEntity
  8
Visible Narrow (ANSI)
100
AcDbLine
 10
65.77133834876862
 20
30.00241538059472
 30
0.0
 11
65.77133834876862
 21
30.12741538059471
 31
0.0
  0
LINE
  5
1A3
330
6C
100
AcDbEntity
  8
Visible (ANSI)
100
AcDbLine
 10
65.77133834876862
 20
30.00241538059472
 30
0.0
 11
67.17859992189897
 21
30.00241538059472
 31
0.0
  0
LINE
  5
1A4
330
6C
100
AcDbEntity
  8
Visible (ANSI)
100
AcDbLine
 10
67.17859992189897
 20
30.12741538059471
 30
0.0
 11
65.77133834876862
 21
30.12741538059471
 31
0.0
  0
ARC
  5
1A5
330
6C
100
AcDbEntity
  8
Visible (ANSI)
100
AcDbCircle
 10
67.17859992189898
 20
30.14301538059472
 30
0.0
 40
0.1405999999999994
100
AcDbArc
 50
270.0
 51
315.0000000000024
  0
ARC
  5
1A6
330
6C
100
AcDbEntity
  8
Visible (ANSI)
100
AcDbCircle
 10
67.17859992189897
 20
30.14301538059472
 30
0.0
 40
0.0155999999999999
100
AcDbArc
 50
270.0
 51
315.0000000000109
  0
LINE
  5
1A7
330
6C
100
AcDbEntity
  8
Visible (ANSI)
100
AcDbLine
 10
67.35714307335694
 20
30.12272010518302
 30
0.0
 11
67.2780191353338
 21
30.04359616715989
 31
0.0
  0
LINE
  5
1A8
330
6C
100
AcDbEntity
  8
Visible (ANSI)
100
AcDbLine
 10
67.18963078768549
 20
30.1319845148082
 30
0.0
 11
67.26875472570862
 21
30.21110845283134
 31
0.0
  0
ARC
  5
1A9
330
6C
100
AcDbEntity
  8
Visible (ANSI)
100
AcDbCircle
 10
67.36817393914344
 20
30.11168923939651
 30
0.0
 40
0.0156000000000003
100
AcDbArc
 50
90.00000000009249
 51
135.0000000000109
  0
ARC
  5
1AA
330
6C
100
AcDbEntity
  8
Visible (ANSI)
100
AcDbCircle
 10
67.36817393914344
 20
30.11168923939651
 30
0.0
 40
0.1405999999999994
100
AcDbArc
 50
95.66562193661685
 51
134.9999999999976
  0
LINE
  5
1AB
330
6C
100
AcDbEntity
  8
Visible (ANSI)
100
AcDbLine
 10
67.37430549023937
 20
30.12728923939651
 30
0.0
 11
67.36817393914343
 21
30.12728923939651
 31
0.0
  0
MTEXT
  5
1AC
330
6C
100
AcDbEntity
  8
Symbol (ANSI)
100
AcDbMText
 10
66.59507759941724
 20
26.54316108549587
 30
0.0
 40
0.7200000088984572
 41
0.0
 71
     7
 72
     1
  1
RIGHT VIEW
  7
Text Style168
 73
     1
 44
1.0
  0
LINE
  5
1AD
330
6C
100
AcDbEntity
  8
Symbol (ANSI)
370
    30
100
AcDbLine
 10
66.52307741420692
 20
26.39516432432708
 30
0.0
 11
72.13254262278614
 21
26.39516432432708
 31
0.0
  0
CIRCLE
  5
1AE
330
6C
100
AcDbEntity
  8
Visible (ANSI)
100
AcDbCircle
 10
41.85371690537006
 20
21.28102222655272
 30
0.0
 40
0.28125
  0
CIRCLE
  5
1AF
330
6C
100
AcDbEntity
  8
Visible (ANSI)
100
AcDbCircle
 10
45.47871690537007
 20
21.28102222655272
 30
0.0
 40
0.28125
  0
CIRCLE
  5
1B0
330
6C
100
AcDbEntity
  8
Visible (ANSI)
100
AcDbCircle
 10
40.29121690537007
 20
19.9685222265527
 30
0.0
 40
0.28125
  0
CIRCLE
  5
1B1
330
6C
100
AcDbEntity
  8
Visible (ANSI)
100
AcDbCircle
 10
40.29121690537007
 20
14.96852222655271
 30
0.0
 40
0.28125
  0
CIRCLE
  5
1B2
330
6C
100
AcDbEntity
  8
Visible (ANSI)
100
AcDbCircle
 10
47.04121690537008
 20
19.96852222655267
 30
0.0
 40
0.28125
  0
CIRCLE
  5
1B3
330
6C
100
AcDbEntity
  8
Visible (ANSI)
100
AcDbCircle
 10
47.04121690537011
 20
14.96852222655267
 30
0.0
 40
0.28125
  0
LINE
  5
1B4
330
6C
100
AcDbEntity
  8
Visible (ANSI)
100
AcDbLine
 10
39.60371690537007
 20
13.96852222655267
 30
0.0
 11
39.60371690537007
 21
21.82792222655267
 31
0.0
  0
LINE
  5
1B5
330
6C
100
AcDbEntity
  8
Visible (ANSI)
100
AcDbLine
 10
39.60371690537007
 20
13.96852222655267
 30
0.0
 11
39.74431690537008
 21
13.96852222655271
 31
0.0
  0
LINE
  5
1B6
330
6C
100
AcDbEntity
  8
Visible (ANSI)
100
AcDbLine
 10
47.58811690537066
 20
13.96852222655272
 30
0.0
 11
47.72871690537093
 21
13.96852222655267
 31
0.0
  0
LINE
  5
1B7
330
6C
100
AcDbEntity
  8
Visible Narrow (ANSI)
100
AcDbLine
 10
47.566019818458
 20
21.82792222655272
 30
0.0
 11
39.76641399228216
 21
21.82792222655271
 31
0.0
  0
LINE
  5
1B8
330
6C
100
AcDbEntity
  8
Visible (ANSI)
100
AcDbLine
 10
39.74431690537007
 20
21.96852222655267
 30
0.0
 11
47.58811690537007
 21
21.96852222655267
 31
0.0
  0
LINE
  5
1B9
330
6C
100
AcDbEntity
  8
Visible Narrow (ANSI)
100
AcDbLine
 10
39.74431690537008
 20
21.80582513964063
 30
0.0
 11
39.74431690537008
 21
13.96852222655271
 31
0.0
  0
LINE
  5
1BA
330
6C
100
AcDbEntity
  8
Visible Narrow (ANSI)
100
AcDbLine
 10
47.58811690537066
 20
13.96852222655271
 30
0.0
 11
47.58811690537061
 21
21.80582513964091
 31
0.0
  0
LINE
  5
1BB
330
6C
100
AcDbEntity
  8
Visible (ANSI)
100
AcDbLine
 10
47.72871690537008
 20
21.82792222655269
 30
0.0
 11
47.72871690537011
 21
13.96852222655267
 31
0.0
  0
ARC
  5
1BC
330
6C
100
AcDbEntity
  8
Visible (ANSI)
100
AcDbCircle
 10
47.58811690537006
 20
21.82792222655268
 30
0.0
 40
0.1405999999999955
100
AcDbArc
 50
0.0
 51
90.0
  0
ARC
  5
1BD
330
6C
100
AcDbEntity
  8
Visible (ANSI)
100
AcDbCircle
 10
39.74431690537007
 20
21.82792222655267
 30
0.0
 40
0.0156
100
AcDbArc
 50
90.0
 51
180.0
  0
LINE
  5
1BE
330
6C
100
AcDbEntity
  8
Visible (ANSI)
100
AcDbLine
 10
40.35371690537007
 20
13.96852222655271
 30
0.0
 11
39.74431690537008
 21
13.96852222655271
 31
0.0
  0
LINE
  5
1BF
330
6C
100
AcDbEntity
  8
Visible (ANSI)
100
AcDbLine
 10
47.58811690537066
 20
13.96852222655271
 30
0.0
 11
46.97871690537121
 21
13.96852222655267
 31
0.0
  0
LINE
  5
1C0
330
6C
100
AcDbEntity
  8
Visible (ANSI)
100
AcDbLine
 10
46.45661981845807
 20
20.71852222655272
 30
0.0
 11
40.87581399228215
 21
20.71852222655271
 31
0.0
  0
LINE
  5
1C1
330
6C
100
AcDbEntity
  8
Visible (ANSI)
100
AcDbLine
 10
40.85371690537008
 20
20.69642513964064
 30
0.0
 11
40.85371690537008
 21
14.46852222655271
 31
0.0
  0
LINE
  5
1C2
330
6C
100
AcDbEntity
  8
Visible (ANSI)
100
AcDbLine
 10
46.47871690537118
 20
14.46852222655263
 30
0.0
 11
46.47871690537071
 21
20.69642513964092
 31
0.0
  0
ARC
  5
1C3
330
6C
100
AcDbEntity
  8
Visible (ANSI)
100
AcDbCircle
 10
39.74431690537007
 20
21.82792222655267
 30
0.0
 40
0.1406000000000001
100
AcDbArc
 50
90.0
 51
180.0
  0
ARC
  5
1C4
330
6C
100
AcDbEntity
  8
Visible (ANSI)
100
AcDbCircle
 10
47.58811690537006
 20
21.82792222655268
 30
0.0
 40
0.0156000000000014
100
AcDbArc
 50
0.0
 51
89.99999999996919
  0
LINE
  5
1C5
330
6C
100
AcDbEntity
  8
Visible (ANSI)
100
AcDbLine
 10
40.85371690537008
 20
14.46852222655271
 30
0.0
 11
40.35371690537007
 21
13.96852222655271
 31
0.0
  0
LINE
  5
1C6
330
6C
100
AcDbEntity
  8
Visible (ANSI)
100
AcDbLine
 10
46.97871690537121
 20
13.96852222655267
 30
0.0
 11
46.47871690537118
 21
14.46852222655263
 31
0.0
  0
SPLINE
  5
1C7
330
6C
100
AcDbEntity
  8
Visible (ANSI)
100
AcDbSpline
210
0.0
220
0.0
230
1.0
 70
     8
 71
     3
 72
    11
 73
     7
 74
     0
 42
0.0000000001
 43
0.0000000001
 40
0.0
 40
0.0
 40
0.0
 40
0.0
 40
1.018582815488535
 40
1.018582815488535
 40
1.018582815488535
 40
1.570796326794887
 40
1.570796326794887
 40
1.570796326794887
 40
1.570796326794887
 10
47.58811690537006
 20
21.96852222655267
 30
0.0
 10
47.58334062032766
 20
21.96852222655269
 30
0.0
 10
47.57856433528526
 20
21.94231932097358
 30
0.0
 10
47.57378805024286
 20
21.90167719310442
 30
0.0
 10
47.5711986396479
 20
21.87964350885575
 30
0.0
 10
47.56860922905295
 20
21.85380263311596
 30
0.0
 10
47.566019818458
 20
21.82792222655273
 30
0.0
  0
SPLINE
  5
1C8
330
6C
100
AcDbEntity
  8
Visible (ANSI)
100
AcDbSpline
210
0.0
220
0.0
230
1.0
 70
     8
 71
     3
 72
    11
 73
     7
 74
     0
 42
0.0000000001
 43
0.0000000001
 40
0.0
 40
0.0
 40
0.0
 40
0.0
 40
1.018582815488638
 40
1.018582815488638
 40
1.018582815488638
 40
1.570796326794819
 40
1.570796326794819
 40
1.570796326794819
 40
1.570796326794819
 10
39.76641399228216
 20
21.82792222655272
 30
0.0
 10
39.76163770723974
 20
21.87565980783862
 30
0.0
 10
39.75686142219735
 20
21.92258236312081
 30
0.0
 10
39.75208513715493
 20
21.94762421028296
 30
0.0
 10
39.74949572655999
 20
21.96120037330155
 30
0.0
 10
39.74690631596503
 20
21.96852222655268
 30
0.0
 10
39.74431690537007
 20
21.96852222655267
 30
0.0
  0
LINE
  5
1C9
330
6C
100
AcDbEntity
  8
Visible (ANSI)
100
AcDbLine
 10
40.87581399228215
 20
20.71852222655271
 30
0.0
 11
39.76641399228216
 21
21.82792222655271
 31
0.0
  0
SPLINE
  5
1CA
330
6C
100
AcDbEntity
  8
Visible (ANSI)
100
AcDbSpline
210
0.0
220
0.0
230
1.0
 70
    24
 71
     3
 72
     8
 73
     4
 74
     0
 42
0.0000000001
 43
0.0000000001
 40
-0.0000000000000056
 40
-0.0000000000000056
 40
-0.0000000000000056
 40
-0.0000000000000056
 40
0.3175
 40
0.3175
 40
0.3175
 40
0.3175
 10
39.74431690537007
 20
21.84352222655268
 30
0.0
 10
39.74431690537007
 20
21.88518889321934
 30
0.0
 10
39.74431690537007
 20
21.926855559886
 30
0.0
 10
39.74431690537007
 20
21.96852222655267
 30
0.0
  0
SPLINE
  5
1CB
330
6C
100
AcDbEntity
  8
Visible (ANSI)
100
AcDbSpline
210
0.0
220
0.0
230
1.0
 70
     8
 71
     3
 72
     8
 73
     4
 74
     0
 42
0.0000000001
 43
0.0000000001
 40
0.0
 40
0.0
 40
0.0
 40
0.0
 40
1.570796326794819
 40
1.570796326794819
 40
1.570796326794819
 40
1.570796326794819
 10
39.74431690537007
 20
21.84352222655268
 30
0.0
 10
39.75168260100744
 20
21.84352222655268
 30
0.0
 10
39.75904829664479
 20
21.83609036745201
 30
0.0
 10
39.76641399228216
 20
21.82792222655268
 30
0.0
  0
SPLINE
  5
1CC
330
6C
100
AcDbEntity
  8
Visible (ANSI)
100
AcDbSpline
210
0.0
220
0.0
230
1.0
 70
     8
 71
     3
 72
     8
 73
     4
 74
     0
 42
0.0000000001
 43
0.0000000001
 40
0.0
 40
0.0
 40
0.0
 40
0.0
 40
1.570796326794887
 40
1.570796326794887
 40
1.570796326794887
 40
1.570796326794887
 10
47.58811690537006
 20
21.84352222655268
 30
0.0
 10
47.58075120973272
 20
21.84352222655268
 30
0.0
 10
47.57338551409535
 20
21.83609036745201
 30
0.0
 10
47.566019818458
 20
21.82792222655268
 30
0.0
  0
SPLINE
  5
1CD
330
6C
100
AcDbEntity
  8
Visible (ANSI)
100
AcDbSpline
210
0.0
220
0.0
230
1.0
 70
    24
 71
     3
 72
     8
 73
     4
 74
     0
 42
0.0000000001
 43
0.0000000001
 40
-0.3175
 40
-0.3175
 40
-0.3175
 40
-0.3175
 40
0.0000000000000075
 40
0.0000000000000075
 40
0.0000000000000075
 40
0.0000000000000075
 10
47.58811690537006
 20
21.96852222655267
 30
0.0
 10
47.58811690537006
 20
21.926855559886
 30
0.0
 10
47.58811690537006
 20
21.88518889321934
 30
0.0
 10
47.58811690537006
 20
21.84352222655267
 30
0.0
  0
LINE
  5
1CE
330
6C
100
AcDbEntity
  8
Visible (ANSI)
100
AcDbLine
 10
47.566019818458
 20
21.82792222655272
 30
0.0
 11
46.45661981845807
 21
20.71852222655272
 31
0.0
  0
SPLINE
  5
1CF
330
6C
100
AcDbEntity
  8
Visible (ANSI)
100
AcDbSpline
210
0.0
220
0.0
230
1.0
 70
     8
 71
     3
 72
    11
 73
     7
 74
     0
 42
0.0000000001
 43
0.0000000001
 40
0.0
 40
0.0
 40
0.0
 40
0.0
 40
1.018582815488563
 40
1.018582815488563
 40
1.018582815488563
 40
1.570796326794888
 40
1.570796326794888
 40
1.570796326794888
 40
1.570796326794888
 10
39.60371690537007
 20
21.82792222655267
 30
0.0
 10
39.60371690537007
 20
21.82314594151028
 30
0.0
 10
39.62991981094921
 20
21.81836965646789
 30
0.0
 10
39.6705619388184
 20
21.81359337142549
 30
0.0
 10
39.69259562306707
 20
21.81100396083055
 30
0.0
 10
39.71843649880686
 20
21.80841455023559
 30
0.0
 10
39.74431690537008
 20
21.80582513964063
 30
0.0
  0
SPLINE
  5
1D0
330
6C
100
AcDbEntity
  8
Visible (ANSI)
100
AcDbSpline
210
0.0
220
0.0
230
1.0
 70
     8
 71
     3
 72
     8
 73
     4
 74
     0
 42
0.0000000001
 43
0.0000000001
 40
0.0
 40
0.0
 40
0.0
 40
0.0
 40
1.570796326794888
 40
1.570796326794888
 40
1.570796326794888
 40
1.570796326794888
 10
39.72871690537007
 20
21.82792222655267
 30
0.0
 10
39.72871690537007
 20
21.82055653091532
 30
0.0
 10
39.73614876447074
 20
21.81319083527796
 30
0.0
 10
39.74431690537007
 20
21.80582513964059
 30
0.0
  0
SPLINE
  5
1D1
330
6C
100
AcDbEntity
  8
Visible (ANSI)
100
AcDbSpline
210
0.0
220
0.0
230
1.0
 70
    24
 71
     3
 72
     8
 73
     4
 74
     0
 42
0.0000000001
 43
0.0000000001
 40
-0.3175000000000001
 40
-0.3175000000000001
 40
-0.3175000000000001
 40
-0.3175000000000001
 40
0.0
 40
0.0
 40
0.0
 40
0.0
 10
39.60371690537007
 20
21.82792222655267
 30
0.0
 10
39.64538357203674
 20
21.82792222655267
 30
0.0
 10
39.6870502387034
 20
21.82792222655267
 30
0.0
 10
39.72871690537007
 20
21.82792222655267
 30
0.0
  0
LINE
  5
1D2
330
6C
100
AcDbEntity
  8
Visible (ANSI)
100
AcDbLine
 10
39.74431690537008
 20
21.80582513964063
 30
0.0
 11
40.85371690537008
 21
20.69642513964064
 31
0.0
  0
SPLINE
  5
1D3
330
6C
100
AcDbEntity
  8
Visible (ANSI)
100
AcDbSpline
210
0.0
220
0.0
230
1.0
 70
     8
 71
     3
 72
    11
 73
     7
 74
     0
 42
0.0000000001
 43
0.0000000001
 40
0.0
 40
0.0
 40
0.0
 40
0.0
 40
1.018582815489068
 40
1.018582815489068
 40
1.018582815489068
 40
1.570796326794887
 40
1.570796326794887
 40
1.570796326794887
 40
1.570796326794887
 10
47.58811690537061
 20
21.80582513964091
 30
0.0
 10
47.63585448665645
 20
21.81060142468326
 30
0.0
 10
47.68277704193859
 20
21.8153777097256
 30
0.0
 10
47.70781888910068
 20
21.82015399476794
 30
0.0
 10
47.72139505211923
 20
21.82274340536285
 30
0.0
 10
47.72871690537035
 20
21.82533281595776
 30
0.0
 10
47.72871690537035
 20
21.82792222655268
 30
0.0
  0
LINE
  5
1D4
330
6C
100
AcDbEntity
  8
Visible (ANSI)
100
AcDbLine
 10
46.47871690537071
 20
20.69642513964092
 30
0.0
 11
47.58811690537061
 21
21.80582513964091
 31
0.0
  0
SPLINE
  5
1D5
330
6C
100
AcDbEntity
  8
Visible (ANSI)
100
AcDbSpline
210
0.0
220
0.0
230
1.0
 70
    24
 71
     3
 72
     8
 73
     4
 74
     0
 42
0.0000000001
 43
0.0000000001
 40
-0.0000000000000036
 40
-0.0000000000000036
 40
-0.0000000000000036
 40
-0.0000000000000036
 40
0.317499999999999
 40
0.317499999999999
 40
0.317499999999999
 40
0.317499999999999
 10
47.60371690537034
 20
21.82792222655268
 30
0.0
 10
47.64538357203702
 20
21.82792222655268
 30
0.0
 10
47.68705023870368
 20
21.82792222655268
 30
0.0
 10
47.72871690537035
 20
21.82792222655268
 30
0.0
  0
SPLINE
  5
1D6
330
6C
100
AcDbEntity
  8
Visible (ANSI)
100
AcDbSpline
210
0.0
220
0.0
230
1.0
 70
     8
 71
     3
 72
     8
 73
     4
 74
     0
 42
0.0000000001
 43
0.0000000001
 40
0.0
 40
0.0
 40
0.0
 40
0.0
 40
1.570796326794887
 40
1.570796326794887
 40
1.570796326794887
 40
1.570796326794887
 10
47.60371690537034
 20
21.82792222655268
 30
0.0
 10
47.60371690537034
 20
21.82055653091541
 30
0.0
 10
47.59628504626981
 20
21.81319083527815
 30
0.0
 10
47.58811690537061
 20
21.80582513964088
 30
0.0
  0
CIRCLE
  5
1D7
330
6C
100
AcDbEntity
  8
Visible (ANSI)
100
AcDbCircle
 10
43.66621690537003
 20
18.21852222654923
 30
0.0
 40
0.28125
  0
CIRCLE
  5
1D8
330
6C
100
AcDbEntity
  8
Visible (ANSI)
100
AcDbCircle
 10
41.72871690537003
 20
15.21852222654919
 30
0.0
 40
0.28125
  0
CIRCLE
  5
1D9
330
6C
100
AcDbEntity
  8
Visible (ANSI)
100
AcDbCircle
 10
45.60371690537003
 20
15.21852222654919
 30
0.0
 40
0.28125
  0
LINE
  5
1DA
330
6C
100
AcDbEntity
  8
Visible (ANSI)
100
AcDbLine
 10
47.47871690537003
 20
21.69642513963684
 30
0.0
 11
47.47871690537003
 21
21.71861939005439
 31
0.0
  0
LINE
  5
1DB
330
6C
100
AcDbEntity
  8
Visible (ANSI)
100
AcDbLine
 10
39.85371690537004
 20
21.71861939005439
 30
0.0
 11
39.85371690537004
 21
21.6964251396372
 31
0.0
  0
ARC
  5
1DC
330
6C
100
AcDbEntity
  8
Visible (ANSI)
100
AcDbCircle
 10
39.97871690537005
 20
21.71861939005439
 30
0.0
 40
0.1250000000000104
100
AcDbArc
 50
170.6375988628237
 51
180.0
  0
ARC
  5
1DD
330
6C
100
AcDbEntity
  8
Visible (ANSI)
100
AcDbCircle
 10
47.35371690537
 20
21.71861939005438
 30
0.0
 40
0.1250000000000347
100
AcDbArc
 50
0.0
 51
9.362401137149069
  0
LINE
  5
1DE
330
6C
100
AcDbEntity
  8
Visible Narrow (ANSI)
100
AcDbLine
 10
46.47871690537107
 20
15.94035781692403
 30
0.0
 11
40.85371690537008
 21
15.94035781692404
 31
0.0
  0
LINE
  5
1DF
330
6C
100
AcDbEntity
  8
Visible Narrow (ANSI)
100
AcDbLine
 10
46.47871690537107
 20
15.84093860348921
 30
0.0
 11
40.85371690537008
 21
15.84093860348921
 31
0.0
  0
LINE
  5
1E0
330
6C
100
AcDbEntity
  8
Visible Narrow (ANSI)
100
AcDbLine
 10
46.47871690537107
 20
15.76181466546605
 30
0.0
 11
40.85371690537008
 21
15.76181466546605
 31
0.0
  0
LINE
  5
1E1
330
6C
100
AcDbEntity
  8
Visible Narrow (ANSI)
100
AcDbLine
 10
46.47871690537107
 20
15.75078379967953
 30
0.0
 11
40.85371690537008
 21
15.75078379967953
 31
0.0
  0
LINE
  5
1E2
330
6C
100
AcDbEntity
  8
Visible (ANSI)
100
AcDbLine
 10
46.72871690537113
 20
14.21852222654919
 30
0.0
 11
40.60371690537008
 21
14.21852222654919
 31
0.0
  0
MTEXT
  5
1E3
330
6C
100
AcDbEntity
  8
Symbol (ANSI)
100
AcDbMText
 10
40.35348841546301
 20
10.94725405161345
 30
0.0
 40
0.7200000088984572
 41
0.0
 71
     7
 72
     1
  1
BOTTOM VIEW
  7
Text Style168
 73
     1
 44
1.0
  0
LINE
  5
1E4
330
6C
100
AcDbEntity
  8
Symbol (ANSI)
370
    30
100
AcDbLine
 10
40.28148823025268
 20
10.80042422736411
 30
0.0
 11
46.90385468491029
 21
10.80042422736411
 31
0.0
  0
LINE
  5
1E5
330
6C
100
AcDbEntity
  8
Visible Narrow (ANSI)
100
AcDbLine
 10
47.58811690537805
 20
49.29300730442987
 30
0.0
 11
47.58811690537807
 21
55.13031021751778
 31
0.0
  0
LINE
  5
1E6
330
6C
100
AcDbEntity
  8
Visible (ANSI)
100
AcDbLine
 10
47.72871690537808
 20
55.15402136647985
 30
0.0
 11
47.72871690537805
 21
49.27091021751783
 31
0.0
  0
SPLINE
  5
1E7
330
6C
100
AcDbEntity
  8
Visible (ANSI)
100
AcDbSpline
210
0.0
220
0.0
230
1.0
 70
     8
 71
     3
 72
    11
 73
     7
 74
     0
 42
0.0000000001
 43
0.0000000001
 40
0.0
 40
0.0
 40
0.0
 40
0.0
 40
1.018582815488611
 40
1.018582815488611
 40
1.018582815488611
 40
1.570796326794895
 40
1.570796326794895
 40
1.570796326794895
 40
1.570796326794895
 10
47.58811690537807
 20
55.13031021751778
 30
0.0
 10
47.63585448666398
 20
55.13543538205084
 30
0.0
 10
47.68277704194617
 20
55.14056054658389
 30
0.0
 10
47.70781888910835
 20
55.14568571111695
 30
0.0
 10
47.72139505212693
 20
55.14846426290458
 30
0.0
 10
47.72871690537808
 20
55.15124281469221
 30
0.0
 10
47.72871690537808
 20
55.15402136647985
 30
0.0
  0
LINE
  5
1E8
330
6C
100
AcDbEntity
  8
Visible (ANSI)
100
AcDbLine
 10
47.67762564537297
 20
55.15402136647985
 30
0.0
 11
47.72871690537808
 21
55.15402136647985
 31
0.0
  0
LINE
  5
1E9
330
6C
100
AcDbEntity
  8
Visible (ANSI)
100
AcDbLine
 10
47.60371690537808
 20
55.15402136647985
 30
0.0
 11
47.67762564537297
 21
55.15402136647985
 31
0.0
  0
SPLINE
  5
1EA
330
6C
100
AcDbEntity
  8
Visible (ANSI)
100
AcDbSpline
210
0.0
220
0.0
230
1.0
 70
     8
 71
     3
 72
     8
 73
     4
 74
     0
 42
0.0000000001
 43
0.0000000001
 40
0.0
 40
0.0
 40
0.0
 40
0.0
 40
1.570796326794895
 40
1.570796326794895
 40
1.570796326794895
 40
1.570796326794895
 10
47.60371690537808
 20
55.15402136647985
 30
0.0
 10
47.60371690537808
 20
55.14611765015917
 30
0.0
 10
47.59628504627741
 20
55.1382139338385
 30
0.0
 10
47.58811690537807
 20
55.13031021751783
 30
0.0
  0
LINE
  5
1EB
330
6C
100
AcDbEntity
  8
Visible Narrow (ANSI)
100
AcDbLine
 10
39.76641399229013
 20
49.27091021751779
 30
0.0
 11
47.56601981846596
 21
49.27091021751779
 31
0.0
  0
LINE
  5
1EC
330
6C
100
AcDbEntity
  8
Visible (ANSI)
100
AcDbLine
 10
47.58811690537806
 20
49.13031021751784
 30
0.0
 11
39.74431690537806
 21
49.13031021751784
 31
0.0
  0
LINE
  5
1ED
330
6C
100
AcDbEntity
  8
Visible Narrow (ANSI)
100
AcDbLine
 10
39.74431690537806
 20
55.13031021751783
 30
0.0
 11
39.74431690537806
 21
49.29300730442987
 31
0.0
  0
SPLINE
  5
1EE
330
6C
100
AcDbEntity
  8
Visible (ANSI)
100
AcDbSpline
210
0.0
220
0.0
230
1.0
 70
     8
 71
     3
 72
    11
 73
     7
 74
     0
 42
0.0000000001
 43
0.0000000001
 40
0.0
 40
0.0
 40
0.0
 40
0.0
 40
1.018582815488561
 40
1.018582815488561
 40
1.018582815488561
 40
1.570796326794897
 40
1.570796326794897
 40
1.570796326794897
 40
1.570796326794897
 10
39.60371690537806
 20
55.15402136647988
 30
0.0
 10
39.60371690537806
 20
55.14889620194682
 30
0.0
 10
39.62991981095719
 20
55.14377103741376
 30
0.0
 10
39.67056193882636
 20
55.13864587288071
 30
0.0
 10
39.69259562307504
 20
55.13586732109308
 30
0.0
 10
39.71843649881483
 20
55.13308876930546
 30
0.0
 10
39.74431690537806
 20
55.13031021751783
 30
0.0
  0
LINE
  5
1EF
330
6C
100
AcDbEntity
  8
Visible (ANSI)
100
AcDbLine
 10
39.60371690537806
 20
49.27091021751784
 30
0.0
 11
39.60371690537806
 21
55.15402136647988
 31
0.0
  0
SPLINE
  5
1F0
330
6C
100
AcDbEntity
  8
Visible (ANSI)
100
AcDbSpline
210
0.0
220
0.0
230
1.0
 70
     8
 71
     3
 72
     8
 73
     4
 74
     0
 42
0.0000000001
 43
0.0000000001
 40
0.0
 40
0.0
 40
0.0
 40
0.0
 40
1.570796326794897
 40
1.570796326794897
 40
1.570796326794897
 40
1.570796326794897
 10
39.72871690537805
 20
55.15402136647988
 30
0.0
 10
39.72871690537805
 20
55.14611765015921
 30
0.0
 10
39.73614876447872
 20
55.13821393383854
 30
0.0
 10
39.74431690537806
 20
55.13031021751787
 30
0.0
  0
LINE
  5
1F1
330
6C
100
AcDbEntity
  8
Visible (ANSI)
100
AcDbLine
 10
39.65480816538317
 20
55.15402136647988
 30
0.0
 11
39.72871690537805
 21
55.15402136647988
 31
0.0
  0
LINE
  5
1F2
330
6C
100
AcDbEntity
  8
Visible (ANSI)
100
AcDbLine
 10
39.60371690537806
 20
55.15402136647988
 30
0.0
 11
39.65480816538317
 21
55.15402136647988
 31
0.0
  0
SPLINE
  5
1F3
330
6C
100
AcDbEntity
  8
Visible (ANSI)
100
AcDbSpline
210
0.0
220
0.0
230
1.0
 70
     8
 71
     3
 72
    11
 73
     7
 74
     0
 42
0.0000000001
 43
0.0000000001
 40
0.0
 40
0.0
 40
0.0
 40
0.0
 40
1.018582815488552
 40
1.018582815488552
 40
1.018582815488552
 40
1.570796326794897
 40
1.570796326794897
 40
1.570796326794897
 40
1.570796326794897
 10
47.72871690537805
 20
49.27091021751783
 30
0.0
 10
47.72871690537805
 20
49.27568650256022
 30
0.0
 10
47.70251399979891
 20
49.28046278760262
 30
0.0
 10
47.66187187192975
 20
49.28523907264501
 30
0.0
 10
47.63983818768107
 20
49.28782848323996
 30
0.0
 10
47.61399731194127
 20
49.29041789383491
 30
0.0
 10
47.58811690537805
 20
49.29300730442987
 30
0.0
  0
SPLINE
  5
1F4
330
6C
100
AcDbEntity
  8
Visible (ANSI)
100
AcDbSpline
210
0.0
220
0.0
230
1.0
 70
     8
 71
     3
 72
     8
 73
     4
 74
     0
 42
0.0000000001
 43
0.0000000001
 40
0.0
 40
0.0
 40
0.0
 40
0.0
 40
1.570796326794897
 40
1.570796326794897
 40
1.570796326794897
 40
1.570796326794897
 10
47.60371690537804
 20
49.27091021751783
 30
0.0
 10
47.60371690537804
 20
49.27827591315519
 30
0.0
 10
47.59628504627738
 20
49.28564160879254
 30
0.0
 10
47.58811690537805
 20
49.2930073044299
 30
0.0
  0
SPLINE
  5
1F5
330
6C
100
AcDbEntity
  8
Visible (ANSI)
100
AcDbSpline
210
0.0
220
0.0
230
1.0
 70
    24
 71
     3
 72
     8
 73
     4
 74
     0
 42
0.0000000001
 43
0.0000000001
 40
-0.317499999999999
 40
-0.317499999999999
 40
-0.317499999999999
 40
-0.317499999999999
 40
0.0
 40
0.0
 40
0.0
 40
0.0
 10
47.72871690537805
 20
49.27091021751783
 30
0.0
 10
47.68705023871137
 20
49.27091021751783
 30
0.0
 10
47.64538357204471
 20
49.27091021751783
 30
0.0
 10
47.60371690537804
 20
49.27091021751783
 30
0.0
  0
LINE
  5
1F6
330
6C
100
AcDbEntity
  8
Visible (ANSI)
100
AcDbLine
 10
47.58811690537805
 20
49.29300730442987
 30
0.0
 11
46.47871690537805
 21
50.40240730442988
 31
0.0
  0
SPLINE
  5
1F7
330
6C
100
AcDbEntity
  8
Visible (ANSI)
100
AcDbSpline
210
0.0
220
0.0
230
1.0
 70
     8
 71
     3
 72
    11
 73
     7
 74
     0
 42
0.0000000001
 43
0.0000000001
 40
0.0
 40
0.0
 40
0.0
 40
0.0
 40
1.01858281548856
 40
1.01858281548856
 40
1.01858281548856
 40
1.570796326794896
 40
1.570796326794896
 40
1.570796326794896
 40
1.570796326794896
 10
39.74431690537806
 20
49.13031021751784
 30
0.0
 10
39.74909319042046
 20
49.13031021751781
 30
0.0
 10
39.75386947546287
 20
49.15651312309694
 30
0.0
 10
39.75864576050527
 20
49.1971552509661
 30
0.0
 10
39.76123517110023
 20
49.21918893521477
 30
0.0
 10
39.76382458169517
 20
49.24502981095457
 30
0.0
 10
39.76641399229013
 20
49.27091021751779
 30
0.0
  0
SPLINE
  5
1F8
330
6C
100
AcDbEntity
  8
Visible (ANSI)
100
AcDbSpline
210
0.0
220
0.0
230
1.0
 70
     8
 71
     3
 72
    11
 73
     7
 74
     0
 42
0.0000000001
 43
0.0000000001
 40
0.0
 40
0.0
 40
0.0
 40
0.0
 40
1.018582815488561
 40
1.018582815488561
 40
1.018582815488561
 40
1.570796326794895
 40
1.570796326794895
 40
1.570796326794895
 40
1.570796326794895
 10
47.56601981846596
 20
49.27091021751779
 30
0.0
 10
47.57079610350838
 20
49.22317263623189
 30
0.0
 10
47.57557238855078
 20
49.17625008094971
 30
0.0
 10
47.58034867359318
 20
49.15120823378757
 30
0.0
 10
47.58293808418813
 20
49.13763207076897
 30
0.0
 10
47.5855274947831
 20
49.13031021751783
 30
0.0
 10
47.58811690537806
 20
49.13031021751784
 30
0.0
  0
LINE
  5
1F9
330
6C
100
AcDbEntity
  8
Visible (ANSI)
100
AcDbLine
 10
46.45661981846597
 20
50.38031021751779
 30
0.0
 11
47.56601981846596
 21
49.27091021751779
 31
0.0
  0
SPLINE
  5
1FA
330
6C
100
AcDbEntity
  8
Visible (ANSI)
100
AcDbSpline
210
0.0
220
0.0
230
1.0
 70
    24
 71
     3
 72
     8
 73
     4
 74
     0
 42
0.0000000001
 43
0.0000000001
 40
0.0
 40
0.0
 40
0.0
 40
0.0
 40
0.3175000000000001
 40
0.3175000000000001
 40
0.3175000000000001
 40
0.3175000000000001
 10
47.58811690537806
 20
49.25531021751783
 30
0.0
 10
47.58811690537806
 20
49.21364355085117
 30
0.0
 10
47.58811690537806
 20
49.1719768841845
 30
0.0
 10
47.58811690537806
 20
49.13031021751784
 30
0.0
  0
SPLINE
  5
1FB
330
6C
100
AcDbEntity
  8
Visible (ANSI)
100
AcDbSpline
210
0.0
220
0.0
230
1.0
 70
     8
 71
     3
 72
     8
 73
     4
 74
     0
 42
0.0000000001
 43
0.0000000001
 40
0.0
 40
0.0
 40
0.0
 40
0.0
 40
1.570796326794895
 40
1.570796326794895
 40
1.570796326794895
 40
1.570796326794895
 10
47.58811690537806
 20
49.25531021751783
 30
0.0
 10
47.58075120974068
 20
49.25531021751783
 30
0.0
 10
47.57338551410333
 20
49.2627420766185
 30
0.0
 10
47.56601981846596
 20
49.27091021751783
 30
0.0
  0
SPLINE
  5
1FC
330
6C
100
AcDbEntity
  8
Visible (ANSI)
100
AcDbSpline
210
0.0
220
0.0
230
1.0
 70
     8
 71
     3
 72
     8
 73
     4
 74
     0
 42
0.0000000001
 43
0.0000000001
 40
0.0
 40
0.0
 40
0.0
 40
0.0
 40
1.570796326794896
 40
1.570796326794896
 40
1.570796326794896
 40
1.570796326794896
 10
39.74431690537806
 20
49.25531021751783
 30
0.0
 10
39.75168260101542
 20
49.25531021751783
 30
0.0
 10
39.75904829665278
 20
49.2627420766185
 30
0.0
 10
39.76641399229013
 20
49.27091021751783
 30
0.0
  0
SPLINE
  5
1FD
330
6C
100
AcDbEntity
  8
Visible (ANSI)
100
AcDbSpline
210
0.0
220
0.0
230
1.0
 70
    24
 71
     3
 72
     8
 73
     4
 74
     0
 42
0.0000000001
 43
0.0000000001
 40
-0.3175000000000001
 40
-0.3175000000000001
 40
-0.3175000000000001
 40
-0.3175000000000001
 40
0.0
 40
0.0
 40
0.0
 40
0.0
 10
39.74431690537806
 20
49.13031021751784
 30
0.0
 10
39.74431690537806
 20
49.1719768841845
 30
0.0
 10
39.74431690537806
 20
49.21364355085117
 30
0.0
 10
39.74431690537806
 20
49.25531021751783
 30
0.0
  0
LINE
  5
1FE
330
6C
100
AcDbEntity
  8
Visible (ANSI)
100
AcDbLine
 10
39.76641399229013
 20
49.27091021751779
 30
0.0
 11
40.87581399229014
 21
50.38031021751779
 31
0.0
  0
SPLINE
  5
1FF
330
6C
100
AcDbEntity
  8
Visible (ANSI)
100
AcDbSpline
210
0.0
220
0.0
230
1.0
 70
     8
 71
     3
 72
    11
 73
     7
 74
     0
 42
0.0000000001
 43
0.0000000001
 40
0.0
 40
0.0
 40
0.0
 40
0.0
 40
1.018582815488561
 40
1.018582815488561
 40
1.018582815488561
 40
1.570796326794895
 40
1.570796326794895
 40
1.570796326794895
 40
1.570796326794895
 10
39.74431690537806
 20
49.29300730442987
 30
0.0
 10
39.69657932409216
 20
49.28823101938747
 30
0.0
 10
39.64965676880996
 20
49.28345473434507
 30
0.0
 10
39.6246149216478
 20
49.27867844930268
 30
0.0
 10
39.6110387586292
 20
49.27608903870773
 30
0.0
 10
39.60371690537806
 20
49.27349962811278
 30
0.0
 10
39.60371690537806
 20
49.27091021751784
 30
0.0
  0
LINE
  5
200
330
6C
100
AcDbEntity
  8
Visible (ANSI)
100
AcDbLine
 10
40.85371690537805
 20
50.40240730442988
 30
0.0
 11
39.74431690537806
 21
49.29300730442987
 31
0.0
  0
SPLINE
  5
201
330
6C
100
AcDbEntity
  8
Visible (ANSI)
100
AcDbSpline
210
0.0
220
0.0
230
1.0
 70
    24
 71
     3
 72
     8
 73
     4
 74
     0
 42
0.0000000001
 43
0.0000000001
 40
0.0
 40
0.0
 40
0.0
 40
0.0
 40
0.3175000000000001
 40
0.3175000000000001
 40
0.3175000000000001
 40
0.3175000000000001
 10
39.72871690537806
 20
49.27091021751784
 30
0.0
 10
39.6870502387114
 20
49.27091021751784
 30
0.0
 10
39.64538357204472
 20
49.27091021751784
 30
0.0
 10
39.60371690537806
 20
49.27091021751784
 30
0.0
  0
SPLINE
  5
202
330
6C
100
AcDbEntity
  8
Visible (ANSI)
100
AcDbSpline
210
0.0
220
0.0
230
1.0
 70
     8
 71
     3
 72
     8
 73
     4
 74
     0
 42
0.0000000001
 43
0.0000000001
 40
0.0
 40
0.0
 40
0.0
 40
0.0
 40
1.570796326794895
 40
1.570796326794895
 40
1.570796326794895
 40
1.570796326794895
 10
39.72871690537806
 20
49.27091021751784
 30
0.0
 10
39.72871690537806
 20
49.27827591315519
 30
0.0
 10
39.73614876447872
 20
49.28564160879254
 30
0.0
 10
39.74431690537806
 20
49.2930073044299
 30
0.0
  0
LINE
  5
203
330
6C
100
AcDbEntity
  8
Visible (ANSI)
100
AcDbLine
 10
46.47871690537807
 20
55.1303102175178
 30
0.0
 11
47.58811690537807
 21
55.13031021751778
 31
0.0
  0
LINE
  5
204
330
6C
100
AcDbEntity
  8
Visible (ANSI)
100
AcDbLine
 10
46.47871690537805
 20
50.40240730442988
 30
0.0
 11
46.47871690537807
 21
55.1303102175178
 31
0.0
  0
LINE
  5
205
330
6C
100
AcDbEntity
  8
Visible (ANSI)
100
AcDbLine
 10
40.87581399229014
 20
50.38031021751779
 30
0.0
 11
46.45661981846597
 21
50.38031021751779
 31
0.0
  0
LINE
  5
206
330
6C
100
AcDbEntity
  8
Visible (ANSI)
100
AcDbLine
 10
39.74431690537806
 20
55.13031021751783
 30
0.0
 11
40.85371690537805
 21
55.13031021751785
 31
0.0
  0
LINE
  5
207
330
6C
100
AcDbEntity
  8
Visible (ANSI)
100
AcDbLine
 10
40.85371690537805
 20
55.13031021751785
 30
0.0
 11
40.85371690537805
 21
50.40240730442988
 31
0.0
  0
ARC
  5
208
330
6C
100
AcDbEntity
  8
Visible (ANSI)
100
AcDbCircle
 10
39.74431690537806
 20
49.27091021751784
 30
0.0
 40
0.0156
100
AcDbArc
 50
180.0
 51
270.0
  0
ARC
  5
209
330
6C
100
AcDbEntity
  8
Visible (ANSI)
100
AcDbCircle
 10
39.74431690537806
 20
49.27091021751784
 30
0.0
 40
0.1406
100
AcDbArc
 50
180.0
 51
270.0
  0
ARC
  5
20A
330
6C
100
AcDbEntity
  8
Visible (ANSI)
100
AcDbCircle
 10
47.58811690537805
 20
49.27091021751784
 30
0.0
 40
0.0156000000000016
100
AcDbArc
 50
270.0
 51
0.0
  0
ARC
  5
20B
330
6C
100
AcDbEntity
  8
Visible (ANSI)
100
AcDbCircle
 10
47.58811690537806
 20
49.27091021751783
 30
0.0
 40
0.1405999999999953
100
AcDbArc
 50
270.0000000000034
 51
0.0
  0
LINE
  5
20C
330
6C
100
AcDbEntity
  8
Visible (ANSI)
100
AcDbLine
 10
39.60371690537806
 20
55.15402136647988
 30
0.0
 11
39.60371690537805
 21
57.13031021752132
 31
0.0
  0
LINE
  5
20D
330
6C
100
AcDbEntity
  8
Visible (ANSI)
100
AcDbLine
 10
47.60371690537808
 20
55.15402136647985
 30
0.0
 11
47.6037169053781
 21
57.13031021752131
 31
0.0
  0
LINE
  5
20E
330
6C
100
AcDbEntity
  8
Visible (ANSI)
100
AcDbLine
 10
47.7287169053781
 20
57.13031021752131
 30
0.0
 11
47.72871690537808
 21
55.15402136647985
 31
0.0
  0
LINE
  5
20F
330
6C
100
AcDbEntity
  8
Visible (ANSI)
100
AcDbLine
 10
47.6037169053781
 20
57.13031021752131
 30
0.0
 11
47.7287169053781
 21
57.13031021752131
 31
0.0
  0
LINE
  5
210
330
6C
100
AcDbEntity
  8
Visible (ANSI)
100
AcDbLine
 10
39.72871690537805
 20
57.13031021752132
 30
0.0
 11
39.72871690537805
 21
55.15402136647988
 31
0.0
  0
LINE
  5
211
330
6C
100
AcDbEntity
  8
Visible (ANSI)
100
AcDbLine
 10
39.60371690537805
 20
57.13031021752132
 30
0.0
 11
39.72871690537805
 21
57.13031021752132
 31
0.0
  0
LINE
  5
212
330
6C
100
AcDbEntity
  8
Visible (ANSI)
100
AcDbLine
 10
40.35371690537805
 20
57.13031021752132
 30
0.0
 11
40.60371690537805
 21
56.88031021752131
 31
0.0
  0
LINE
  5
213
330
6C
100
AcDbEntity
  8
Visible (ANSI)
100
AcDbLine
 10
46.72871690537911
 20
56.88031021752131
 30
0.0
 11
46.97871690537919
 21
57.13031021752132
 31
0.0
  0
LINE
  5
214
330
6C
100
AcDbEntity
  8
Visible (ANSI)
100
AcDbLine
 10
40.35371690537805
 20
57.13031021752132
 30
0.0
 11
39.74431690537805
 21
57.13031021752132
 31
0.0
  0
LINE
  5
215
330
6C
100
AcDbEntity
  8
Visible (ANSI)
100
AcDbLine
 10
46.97871690537919
 20
57.13031021752132
 30
0.0
 11
47.58811690537863
 21
57.13031021752131
 31
0.0
  0
LINE
  5
216
330
6C
100
AcDbEntity
  8
Visible Narrow (ANSI)
100
AcDbLine
 10
39.74431690537805
 20
57.13031021752132
 30
0.0
 11
39.74431690537805
 21
55.13031021752135
 31
0.0
  0
LINE
  5
217
330
6C
100
AcDbEntity
  8
Visible (ANSI)
100
AcDbLine
 10
39.74431690537805
 20
57.13031021752133
 30
0.0
 11
39.72871690537805
 21
57.13031021752132
 31
0.0
  0
LINE
  5
218
330
6C
100
AcDbEntity
  8
Visible (ANSI)
100
AcDbLine
 10
47.58811690537863
 20
57.13031021752132
 30
0.0
 11
47.60371690537891
 21
57.13031021752131
 31
0.0
  0
LINE
  5
219
330
6C
100
AcDbEntity
  8
Visible Narrow (ANSI)
100
AcDbLine
 10
47.58811690537863
 20
55.13031021752132
 30
0.0
 11
47.58811690537863
 21
57.13031021752131
 31
0.0
  0
CIRCLE
  5
21A
330
6C
100
AcDbEntity
  8
Visible (ANSI)
100
AcDbCircle
 10
43.66621690537802
 20
52.88031021751783
 30
0.0
 40
0.28125
  0
CIRCLE
  5
21B
330
6C
100
AcDbEntity
  8
Visible (ANSI)
100
AcDbCircle
 10
41.72871690537802
 20
55.88031021751779
 30
0.0
 40
0.28125
  0
CIRCLE
  5
21C
330
6C
100
AcDbEntity
  8
Visible (ANSI)
100
AcDbCircle
 10
45.60371690537802
 20
55.88031021751779
 30
0.0
 40
0.28125
  0
ARC
  5
21D
330
6C
100
AcDbEntity
  8
Visible (ANSI)
100
AcDbCircle
 10
47.35371690537802
 20
56.7553102175178
 30
0.0
 40
0.1249999999999982
100
AcDbArc
 50
0.0
 51
90.0
  0
ARC
  5
21E
330
6C
100
AcDbEntity
  8
Visible (ANSI)
100
AcDbCircle
 10
39.97871690537802
 20
56.75531021751779
 30
0.0
 40
0.125
100
AcDbArc
 50
90.0
 51
180.0
  0
ARC
  5
21F
330
6C
100
AcDbEntity
  8
Visible (ANSI)
100
AcDbCircle
 10
39.97871690537799
 20
49.38021305401266
 30
0.0
 40
0.1249999999999735
100
AcDbArc
 50
180.0
 51
189.3624011371806
  0
ARC
  5
220
330
6C
100
AcDbEntity
  8
Visible (ANSI)
100
AcDbCircle
 10
47.35371690537784
 20
49.38021305401268
 30
0.0
 40
0.1250000000001702
100
AcDbArc
 50
350.6375988628616
 51
0.0
  0
LINE
  5
221
330
6C
100
AcDbEntity
  8
Visible (ANSI)
100
AcDbLine
 10
47.47871690537802
 20
56.75531021751779
 30
0.0
 11
47.47871690537802
 21
55.34804864438744
 31
0.0
  0
LINE
  5
222
330
6C
100
AcDbEntity
  8
Visible (ANSI)
100
AcDbLine
 10
39.97871690537802
 20
56.88031021751779
 30
0.0
 11
47.35371690537802
 21
56.88031021751779
 31
0.0
  0
LINE
  5
223
330
6C
100
AcDbEntity
  8
Visible (ANSI)
100
AcDbLine
 10
39.85371690537802
 20
55.34804864438744
 30
0.0
 11
39.85371690537802
 21
56.7553102175178
 31
0.0
  0
LINE
  5
224
330
6C
100
AcDbEntity
  8
Visible (ANSI)
100
AcDbLine
 10
47.47871690537802
 20
55.24862943095264
 30
0.0
 11
47.47871690537802
 21
55.34804864438744
 31
0.0
  0
LINE
  5
225
330
6C
100
AcDbEntity
  8
Visible Narrow (ANSI)
100
AcDbLine
 10
39.85371690537802
 20
55.34804864438744
 30
0.0
 11
47.47871690537802
 21
55.34804864438744
 31
0.0
  0
LINE
  5
226
330
6C
100
AcDbEntity
  8
Visible (ANSI)
100
AcDbLine
 10
39.85371690537802
 20
55.24862943095264
 30
0.0
 11
39.85371690537802
 21
55.34804864438744
 31
0.0
  0
LINE
  5
227
330
6C
100
AcDbEntity
  8
Visible Narrow (ANSI)
100
AcDbLine
 10
39.85371690537802
 20
55.24862943095263
 30
0.0
 11
47.47871690537802
 21
55.24862943095263
 31
0.0
  0
LINE
  5
228
330
6C
100
AcDbEntity
  8
Visible (ANSI)
100
AcDbLine
 10
47.47871690537802
 20
55.16950549292952
 30
0.0
 11
47.47871690537802
 21
55.24862943095263
 31
0.0
  0
LINE
  5
229
330
6C
100
AcDbEntity
  8
Visible (ANSI)
100
AcDbLine
 10
39.85371690537802
 20
55.24862943095263
 30
0.0
 11
39.85371690537802
 21
55.16950549292952
 31
0.0
  0
LINE
  5
22A
330
6C
100
AcDbEntity
  8
Visible (ANSI)
100
AcDbLine
 10
47.47871690537802
 20
55.16950549292952
 30
0.0
 11
47.47871690537802
 21
55.15847462714304
 31
0.0
  0
LINE
  5
22B
330
6C
100
AcDbEntity
  8
Visible (ANSI)
100
AcDbLine
 10
39.85371690537802
 20
55.16950549292952
 30
0.0
 11
39.85371690537802
 21
55.15847462714301
 31
0.0
  0
LINE
  5
22C
330
6C
100
AcDbEntity
  8
Visible Narrow (ANSI)
100
AcDbLine
 10
39.85371690537802
 20
55.15847462714301
 30
0.0
 11
47.47871690537802
 21
55.15847462714304
 31
0.0
  0
LINE
  5
22D
330
6C
100
AcDbEntity
  8
Visible Narrow (ANSI)
100
AcDbLine
 10
39.85371690537802
 20
55.16950549292952
 30
0.0
 11
47.47871690537802
 21
55.16950549292952
 31
0.0
  0
LINE
  5
22E
330
6C
100
AcDbEntity
  8
Visible (ANSI)
100
AcDbLine
 10
47.47871690537802
 20
49.38021305401267
 30
0.0
 11
47.47871690537802
 21
49.40240730442995
 31
0.0
  0
LINE
  5
22F
330
6C
100
AcDbEntity
  8
Visible (ANSI)
100
AcDbLine
 10
47.47871690537802
 20
55.13031021751783
 30
0.0
 11
47.47871690537802
 21
55.15847462714304
 31
0.0
  0
LINE
  5
230
330
6C
100
AcDbEntity
  8
Visible (ANSI)
100
AcDbLine
 10
39.85371690537802
 20
55.15847462714301
 30
0.0
 11
39.85371690537802
 21
55.13031021751787
 31
0.0
  0
LINE
  5
231
330
6C
100
AcDbEntity
  8
Visible (ANSI)
100
AcDbLine
 10
39.85371690537802
 20
49.40240730442987
 30
0.0
 11
39.85371690537802
 21
49.38021305401267
 31
0.0
  0
MTEXT
  5
232
330
6C
100
AcDbEntity
  8
Symbol (ANSI)
100
AcDbMText
 10
41.3431713537289
 20
46.33408068842293
 30
0.0
 40
0.7200000088984572
 41
0.0
 71
     7
 72
     1
  1
TOP VIEW
  7
Text Style168
 73
     1
 44
1.0
  0
LINE
  5
233
330
6C
100
AcDbEntity
  8
Symbol (ANSI)
370
    30
100
AcDbLine
 10
41.34374735521058
 20
46.18725086417359
 30
0.0
 11
45.88663221941697
 21
46.18725086417359
 31
0.0
  0
ELLIPSE
  5
234
330
6C
100
AcDbEntity
  8
Visible (ANSI)
100
AcDbEllipse
 10
92.61868303008986
 20
55.46830481844984
 30
0.0
 11
-0.28125
 21
0.0000000000000182
 31
0.0
210
0.0
220
0.0
230
1.0
 40
0.5758617009853092
 41
0.0
 42
6.283185307179586
  0
ELLIPSE
  5
235
330
6C
100
AcDbEntity
  8
Visible (ANSI)
100
AcDbEllipse
 10
92.61868303008986
 20
55.36611142784452
 30
0.0
 11
0.2812500000000013
 21
-0.0000000000000011
 31
0.0
210
0.0
220
0.0
230
1.0
 40
0.5758617009853068
 41
0.3209702928256366
 42
2.820622360764101
  0
ELLIPSE
  5
236
330
6C
100
AcDbEntity
  8
Visible (ANSI)
100
AcDbEllipse
 10
95.18194511189149
 20
53.99222035595284
 30
0.0
 11
-0.28125
 21
0.0000000000000182
 31
0.0
210
0.0
220
0.0
230
1.0
 40
0.5758617009853092
 41
0.0
 42
6.283185307179586
  0
ELLIPSE
  5
237
330
6C
100
AcDbEntity
  8
Visible (ANSI)
100
AcDbEllipse
 10
95.18194511189149
 20
53.89002696534753
 30
0.0
 11
0.2812500000000026
 21
-0.0000000000000011
 31
0.0
210
0.0
220
0.0
230
1.0
 40
0.5758617009853065
 41
0.3209702928256366
 42
2.820622360764101
  0
ELLIPSE
  5
238
330
6C
100
AcDbEntity
  8
Visible (ANSI)
100
AcDbEllipse
 10
90.58575103417853
 20
55.57010374689771
 30
0.0
 11
-0.28125
 21
0.0000000000000292
 31
0.0
210
0.0
220
0.0
230
1.0
 40
0.5758617009853423
 41
0.0
 42
6.283185307179586
  0
ELLIPSE
  5
239
330
6C
100
AcDbEntity
  8
Visible (ANSI)
100
AcDbEllipse
 10
90.58575103417853
 20
55.4679103562924
 30
0.0
 11
0.2812499999999971
 21
-0.0000000000000131
 31
0.0
210
0.0
220
0.0
230
1.0
 40
0.5758617009853415
 41
0.3209702928255885
 42
2.820622360764188
  0
ELLIPSE
  5
23A
330
6C
100
AcDbEntity
  8
Visible (ANSI)
100
AcDbEllipse
 10
87.05021712824629
 20
53.53412517793574
 30
0.0
 11
-0.28125
 21
0.0000000000000292
 31
0.0
210
0.0
220
0.0
230
1.0
 40
0.5758617009853423
 41
0.0
 42
6.283185307179586
  0
ELLIPSE
  5
23B
330
6C
100
AcDbEntity
  8
Visible (ANSI)
100
AcDbEllipse
 10
87.05021712824629
 20
53.43193178733042
 30
0.0
 11
0.2812499999999982
 21
-0.0000000000000131
 31
0.0
210
0.0
220
0.0
230
1.0
 40
0.5758617009853415
 41
0.320970292825589
 42
2.820622360764188
  0
ELLIPSE
  5
23C
330
6C
100
AcDbEntity
  8
Visible (ANSI)
100
AcDbEllipse
 10
95.3587218071884
 20
52.82153267879976
 30
0.0
 11
-0.28125
 21
0.0000000000000346
 31
0.0
210
0.0
220
0.0
230
1.0
 40
0.5758617009852751
 41
0.0
 42
6.283185307179586
  0
ELLIPSE
  5
23D
330
6C
100
AcDbEntity
  8
Visible (ANSI)
100
AcDbEllipse
 10
95.3587218071884
 20
52.71933928819444
 30
0.0
 11
0.2812500000000013
 21
-0.0000000000000163
 31
0.0
210
0.0
220
0.0
230
1.0
 40
0.575861700985274
 41
0.3209702928256428
 42
2.820622360764073
  0
ELLIPSE
  5
23E
330
6C
100
AcDbEntity
  8
Visible (ANSI)
100
AcDbEllipse
 10
91.82318790125622
 20
50.78555410983806
 30
0.0
 11
-0.28125
 21
0.0000000000000346
 31
0.0
210
0.0
220
0.0
230
1.0
 40
0.5758617009852751
 41
0.0
 42
6.283185307179586
  0
ELLIPSE
  5
23F
330
6C
100
AcDbEntity
  8
Visible (ANSI)
100
AcDbEllipse
 10
91.8231879012562
 20
50.68336071923273
 30
0.0
 11
0.2812500000000019
 21
-0.0000000000000163
 31
0.0
210
0.0
220
0.0
230
1.0
 40
0.5758617009852741
 41
0.3209702928256428
 42
2.820622360764073
  0
SPLINE
  5
240
330
6C
100
AcDbEntity
  8
Visible (ANSI)
100
AcDbSpline
210
0.0
220
0.0
230
1.0
 70
     8
 71
     3
 72
     8
 73
     4
 74
     0
 42
0.0000000001
 43
0.0000000001
 40
0.0
 40
0.0
 40
0.0
 40
0.0
 40
0.7873318718203329
 40
0.7873318718203329
 40
0.7873318718203329
 40
0.7873318718203329
 10
97.15965206819232
 20
43.60310696343566
 30
0.0
 10
97.15704148987454
 20
43.57143645280524
 30
0.0
 10
97.14336066154892
 20
43.5465389889781
 30
0.0
 10
97.12245118892472
 20
43.53415610388714
 30
0.0
  0
SPLINE
  5
241
330
6C
100
AcDbEntity
  8
Visible (ANSI)
100
AcDbSpline
210
0.0
220
0.0
230
1.0
 70
     8
 71
     3
 72
     8
 73
     4
 74
     0
 42
0.0000000001
 43
0.0000000001
 40
0.0
 40
0.0
 40
0.0
 40
0.0
 40
0.0154576661983616
 40
0.0154576661983616
 40
0.0154576661983616
 40
0.0154576661983616
 10
91.52485955027211
 20
46.86067267377386
 30
0.0
 10
91.52491080368845
 20
46.86057744456745
 30
0.0
 10
91.52496154820701
 20
46.86048198059775
 30
0.0
 10
91.52501178833951
 20
46.86038628967935
 30
0.0
  0
SPLINE
  5
242
330
6C
100
AcDbEntity
  8
Visible (ANSI)
100
AcDbSpline
210
0.0
220
0.0
230
1.0
 70
     8
 71
     3
 72
     8
 73
     4
 74
     0
 42
0.0000000001
 43
0.0000000001
 40
0.0
 40
0.0
 40
0.0
 40
0.0
 40
0.7642854944728379
 40
0.7642854944728379
 40
0.7642854944728379
 40
0.7642854944728379
 10
91.5027978186991
 20
46.86067267377386
 30
0.0
 10
91.50026365589955
 20
46.85596418154899
 30
0.0
 10
91.49897358926015
 20
46.85068176641491
 30
0.0
 10
91.49838226258601
 20
46.84577001144167
 30
0.0
  0
LINE
  5
243
330
6C
100
AcDbEntity
  8
Visible Narrow (ANSI)
100
AcDbLine
 10
92.99966428028774
 20
41.20752931981408
 30
0.0
 11
97.15965206819232
 21
43.60310696343566
 31
0.0
  0
SPLINE
  5
244
330
6C
100
AcDbEntity
  8
Visible (ANSI)
100
AcDbSpline
210
0.0
220
0.0
230
1.0
 70
     8
 71
     3
 72
    11
 73
     7
 74
     0
 42
0.0000000001
 43
0.0000000001
 40
0.0
 40
0.0
 40
0.0
 40
0.0
 40
1.018582815488611
 40
1.018582815488611
 40
1.018582815488611
 40
1.570796326794895
 40
1.570796326794895
 40
1.570796326794895
 40
1.570796326794895
 10
92.91701138107365
 20
41.15948898964684
 30
0.0
 10
92.94714290992235
 20
41.13796350613006
 30
0.0
 10
92.97669812835698
 20
41.13819200782738
 30
0.0
 10
92.99078134970278
 20
41.1591349847541
 30
0.0
 10
92.99841641382482
 20
41.17048899019191
 30
0.0
 10
93.00162901309866
 20
41.18750228221703
 30
0.0
 10
92.99966428028774
 20
41.20752931981408
 30
0.0
  0
LINE
  5
245
330
6C
100
AcDbEntity
  8
Visible (ANSI)
100
AcDbLine
 10
92.91701138107365
 20
41.25392672202457
 30
0.0
 11
92.91701138107365
 21
41.15948898964684
 31
0.0
  0
LINE
  5
246
330
6C
100
AcDbEntity
  8
Visible (ANSI)
100
AcDbLine
 10
92.96353730387876
 20
41.22833346190041
 30
0.0
 11
92.99966428028774
 21
41.20752931981408
 31
0.0
  0
LINE
  5
247
330
6C
100
AcDbEntity
  8
Visible (ANSI)
100
AcDbLine
 10
92.91127593263942
 20
41.25842878403811
 30
0.0
 11
92.96353730387876
 21
41.22833346190041
 31
0.0
  0
SPLINE
  5
248
330
6C
100
AcDbEntity
  8
Visible (ANSI)
100
AcDbSpline
210
0.0
220
0.0
230
1.0
 70
     8
 71
     3
 72
     8
 73
     4
 74
     0
 42
0.0000000001
 43
0.0000000001
 40
0.0
 40
0.0
 40
0.0
 40
0.0
 40
0.0380457206132493
 40
0.0380457206132493
 40
0.0380457206132493
 40
0.0380457206132493
 10
92.91127593263942
 20
41.25842878403811
 30
0.0
 10
92.91141129636029
 20
41.25834499313927
 30
0.0
 10
92.9115435772173
 20
41.25826333066885
 30
0.0
 10
92.91167284248194
 20
41.25818383566616
 30
0.0
  0
LINE
  5
249
330
6C
100
AcDbEntity
  8
Visible Narrow (ANSI)
100
AcDbLine
 10
91.52485955027211
 20
46.86067267377386
 30
0.0
 11
91.52520526381179
 21
46.86047359058685
 31
0.0
  0
SPLINE
  5
24A
330
6C
100
AcDbEntity
  8
Visible (ANSI)
100
AcDbSpline
210
0.0
220
0.0
230
1.0
 70
     8
 71
     3
 72
    11
 73
     7
 74
     0
 42
0.0000000001
 43
0.0000000001
 40
0.0
 40
0.0
 40
0.0
 40
0.0
 40
1.018582815488561
 40
1.018582815488561
 40
1.018582815488561
 40
1.196416296957839
 40
1.196416296957839
 40
1.196416296957839
 40
1.196416296957839
 10
87.25442168314614
 20
44.51599449437629
 30
0.0
 10
87.25804572174217
 20
44.47905371707941
 30
0.0
 10
87.28019801255996
 20
44.4321095511078
 30
0.0
 10
87.31256037537411
 20
44.39717430572224
 30
0.0
 10
87.31821049194815
 20
44.39107499183394
 30
0.0
 10
87.32413980036666
 20
44.38534518198181
 30
0.0
 10
87.33025932393042
 20
44.38006526305097
 30
0.0
  0
LINE
  5
24B
330
6C
100
AcDbEntity
  8
Visible Narrow (ANSI)
100
AcDbLine
 10
87.38195849666743
 20
44.46218089088296
 30
0.0
 11
87.37060721080174
 21
44.45564412009598
 31
0.0
  0
LINE
  5
24C
330
6C
100
AcDbEntity
  8
Visible (ANSI)
100
AcDbLine
 10
87.37060721080174
 20
44.45564412009598
 30
0.0
 11
87.37060721080174
 21
44.44761511062792
 31
0.0
  0
SPLINE
  5
24D
330
6C
100
AcDbEntity
  8
Visible (ANSI)
100
AcDbSpline
210
0.0
220
0.0
230
1.0
 70
     8
 71
     3
 72
     8
 73
     4
 74
     0
 42
0.0000000001
 43
0.0000000001
 40
0.0
 40
0.0
 40
0.0
 40
0.0
 40
1.570796326794897
 40
1.570796326794897
 40
1.570796326794897
 40
1.570796326794897
 10
87.34281003079447
 20
44.46509503015226
 30
0.0
 10
87.34839880220139
 20
44.46163554945351
 30
0.0
 10
87.35924269157521
 20
44.45575179265103
 30
0.0
 10
87.37060721080174
 20
44.45564412009598
 30
0.0
  0
LINE
  5
24E
330
6C
100
AcDbEntity
  8
Visible (ANSI)
100
AcDbLine
 10
87.29054865955513
 20
44.49519035228997
 30
0.0
 11
87.34281003079447
 21
44.46509503015226
 31
0.0
  0
LINE
  5
24F
330
6C
100
AcDbEntity
  8
Visible (ANSI)
100
AcDbLine
 10
87.25442168314614
 20
44.51599449437629
 30
0.0
 11
87.29054865955513
 21
44.49519035228997
 31
0.0
  0
LINE
  5
250
330
6C
100
AcDbEntity
  8
Visible Narrow (ANSI)
100
AcDbLine
 10
87.34281003079447
 20
44.46509503015226
 30
0.0
 11
91.5027978186991
 21
46.86067267377386
 31
0.0
  0
LINE
  5
251
330
6C
100
AcDbEntity
  8
Visible (ANSI)
100
AcDbLine
 10
92.97881279286547
 20
41.14777883092316
 30
0.0
 11
97.12256504875288
 21
43.53400705346094
 31
0.0
  0
SPLINE
  5
252
330
6C
100
AcDbEntity
  8
Visible (ANSI)
100
AcDbSpline
210
0.0
220
0.0
230
1.0
 70
     8
 71
     3
 72
    16
 73
    12
 74
     0
 42
0.0000000001
 43
0.0000000001
 40
0.0494782891203151
 40
0.0494782891203151
 40
0.0494782891203151
 40
0.0494782891203151
 40
0.0518396770900435
 40
0.0518396770900435
 40
0.0647380439720373
 40
0.0647380439720373
 40
0.0776364099344106
 40
0.0776364099344106
 40
0.0905347759362713
 40
0.0905347759362713
 40
0.0989896749139278
 40
0.0989896749139278
 40
0.0989896749139278
 40
0.0989896749139278
 10
92.91928143077049
 20
41.25115671139879
 30
0.0
 10
92.9192814307864
 20
41.25115671137115
 30
0.0
 10
92.91927689930259
 20
41.25116457879832
 30
0.0
 10
92.91921668299703
 20
41.25126432973136
 30
0.0
 10
92.91901717324295
 20
41.25158269895088
 30
0.0
 10
92.91825772306157
 20
41.25256609331255
 30
0.0
 10
92.91768768646175
 20
41.25324236411598
 30
0.0
 10
92.91617652184129
 20
41.25477233982908
 30
0.0
 10
92.91521627127492
 20
41.25564385359954
 30
0.0
 10
92.91335904498396
 20
41.25707258257819
 30
0.0
 10
92.91254550626751
 20
41.25764192945675
 30
0.0
 10
92.91167404130348
 20
41.25818212520694
 30
0.0
  0
LINE
  5
253
330
6C
100
AcDbEntity
  8
Visible (ANSI)
100
AcDbLine
 10
92.91012651290589
 20
41.2656471121463
 30
0.0
 11
92.83965389921178
 21
41.30622959134107
 31
0.0
  0
LINE
  5
254
330
6C
100
AcDbEntity
  8
Visible (ANSI)
100
AcDbLine
 10
92.78310840415647
 20
41.23659858570134
 30
0.0
 11
92.91701138107365
 21
41.15948898964684
 31
0.0
  0
LINE
  5
255
330
6C
100
AcDbEntity
  8
Visible (ANSI)
100
AcDbLine
 10
87.37060721080174
 20
44.45564412009598
 30
0.0
 11
87.37477347650273
 21
44.45324492724266
 31
0.0
  0
ELLIPSE
  5
256
330
6C
100
AcDbEntity
  8
Visible (ANSI)
100
AcDbEllipse
 10
91.51382868448562
 20
46.8543204206387
 30
0.0
 11
0.0156
 21
-0.0000000000000009
 31
0.0
210
0.0
220
0.0
230
1.0
 40
0.5758617009853121
 41
0.7853981633986509
 42
2.356194490192908
  0
ELLIPSE
  5
257
330
6C
100
AcDbEntity
  8
Visible (ANSI)
100
AcDbEllipse
 10
97.06023285475747
 20
43.66035868079486
 30
0.0
 11
0.1405999999999981
 21
0.0
 31
0.0
210
0.0
220
0.0
230
1.0
 40
0.5758617009853121
 41
5.497787143782268
 42
6.283185307179482
  0
LINE
  5
258
330
6C
100
AcDbEntity
  8
Visible (ANSI)
100
AcDbLine
 10
87.25442168314614
 20
44.51599449437629
 30
0.0
 11
85.85697443499404
 21
53.2919293916227
 31
0.0
  0
LINE
  5
259
330
6C
100
AcDbEntity
  8
Visible (ANSI)
100
AcDbLine
 10
92.91127593263942
 20
41.25842878403811
 30
0.0
 11
91.51382868448729
 21
50.0343636812845
 31
0.0
  0
LINE
  5
25A
330
6C
100
AcDbEntity
  8
Visible (ANSI)
100
AcDbLine
 10
91.60221703213563
 20
49.98346421706046
 30
0.0
 11
92.99966428028774
 21
41.20752931981408
 31
0.0
  0
LINE
  5
25B
330
6C
100
AcDbEntity
  8
Visible (ANSI)
100
AcDbLine
 10
91.51382868448729
 20
50.0343636812845
 30
0.0
 11
91.60221703213563
 21
49.98346421706046
 31
0.0
  0
LINE
  5
25C
330
6C
100
AcDbEntity
  8
Visible (ANSI)
100
AcDbLine
 10
85.94536278264238
 20
53.24102992739867
 30
0.0
 11
87.34281003079447
 21
44.46509503015226
 31
0.0
  0
LINE
  5
25D
330
6C
100
AcDbEntity
  8
Visible (ANSI)
100
AcDbLine
 10
85.85697443499404
 20
53.2919293916227
 30
0.0
 11
85.94536278264238
 21
53.24102992739867
 31
0.0
  0
ELLIPSE
  5
25E
330
6C
100
AcDbEntity
  8
Visible (ANSI)
100
AcDbEllipse
 10
97.06023285475747
 20
53.24102992739962
 30
0.0
 11
0.1405999999999955
 21
0.0
 31
0.0
210
0.0
220
0.0
230
1.0
 40
0.5758617009853121
 41
5.497787143782424
 42
7.06858347057722
  0
ELLIPSE
  5
25F
330
6C
100
AcDbEntity
  8
Visible (ANSI)
100
AcDbEllipse
 10
91.51382868448562
 20
56.43499166724346
 30
0.0
 11
-0.0156
 21
-0.0000000000000009
 31
0.0
210
0.0
220
0.0
230
1.0
 40
0.5758617009853122
 41
3.926990816986675
 42
5.497787143780934
  0
LINE
  5
260
330
6C
100
AcDbEntity
  8
Visible (ANSI)
100
AcDbLine
 10
86.38730452088402
 20
52.99928634142601
 30
0.0
 11
85.95639364842888
 21
53.24743140941105
 31
0.0
  0
LINE
  5
261
330
6C
100
AcDbEntity
  8
Visible (ANSI)
100
AcDbLine
 10
91.49820368448585
 20
55.53526171355062
 30
0.0
 11
87.09441130207059
 21
52.99928634142605
 31
0.0
  0
LINE
  5
262
330
6C
100
AcDbEntity
  8
Visible (ANSI)
100
AcDbLine
 10
86.38730452088404
 20
53.10147973203132
 30
0.0
 11
85.95639364842888
 21
53.34962480001636
 31
0.0
  0
LINE
  5
263
330
6C
100
AcDbEntity
  8
Visible (ANSI)
100
AcDbLine
 10
91.50279781870116
 20
50.15566306017252
 30
0.0
 11
91.07188694624637
 21
50.40380812815729
 31
0.0
  0
LINE
  5
264
330
6C
100
AcDbEntity
  8
Visible (ANSI)
100
AcDbLine
 10
91.07188694624641
 20
50.30161473755199
 30
0.0
 11
91.50279781870116
 21
50.0534696695672
 31
0.0
  0
LINE
  5
265
330
6C
100
AcDbEntity
  8
Visible (ANSI)
100
AcDbLine
 10
95.40257348371154
 20
53.30488035784934
 30
0.0
 11
91.52945368448584
 21
55.53526171355068
 31
0.0
  0
LINE
  5
266
330
6C
100
AcDbEntity
  8
Visible (ANSI)
100
AcDbLine
 10
95.47567932866082
 20
53.36497489223021
 30
0.0
 11
91.52945368448584
 21
55.637455104156
 31
0.0
  0
LINE
  5
267
330
6C
100
AcDbEntity
  8
Visible (ANSI)
100
AcDbLine
 10
91.49820368448585
 20
55.63745510415593
 30
0.0
 11
87.09441130207059
 21
53.10147973203136
 31
0.0
  0
LINE
  5
268
330
6C
100
AcDbEntity
  8
Visible (ANSI)
100
AcDbLine
 10
91.07188694624621
 20
50.81100384194959
 30
0.0
 11
95.47567932866142
 21
53.34697921407414
 31
0.0
  0
ELLIPSE
  5
269
330
6C
100
AcDbEntity
  8
Visible (ANSI)
100
AcDbEllipse
 10
91.51382868448562
 20
56.43499166724346
 30
0.0
 11
0.1406000000000002
 21
0.0
 31
0.0
210
0.0
220
0.0
230
1.0
 40
0.5758617009853121
 41
1.459435432737787
 42
1.682157220851756
  0
LINE
  5
26A
330
6C
100
AcDbEntity
  8
Visible Narrow (ANSI)
100
AcDbLine
 10
97.15965206819232
 20
43.60310696343566
 30
0.0
 11
97.15965206819234
 21
53.18377821004043
 31
0.0
  0
LINE
  5
26B
330
6C
100
AcDbEntity
  8
Visible Narrow (ANSI)
100
AcDbLine
 10
91.52485955027211
 20
56.44134392037861
 30
0.0
 11
91.52485955027211
 21
51.07185341620377
 31
0.0
  0
LINE
  5
26C
330
6C
100
AcDbEntity
  8
Visible Narrow (ANSI)
100
AcDbLine
 10
91.52485955027211
 20
49.9650901111258
 30
0.0
 11
91.52485955027211
 21
46.86067267377386
 31
0.0
  0
LINE
  5
26D
330
6C
100
AcDbEntity
  8
Visible Narrow (ANSI)
100
AcDbLine
 10
91.5027978186991
 20
46.86067267377386
 30
0.0
 11
91.5027978186991
 21
50.05346966956839
 31
0.0
  0
LINE
  5
26E
330
6C
100
AcDbEntity
  8
Visible Narrow (ANSI)
100
AcDbLine
 10
91.5027978186991
 20
51.05914890993346
 30
0.0
 11
91.5027978186991
 21
56.44134392037861
 31
0.0
  0
LINE
  5
26F
330
6C
100
AcDbEntity
  8
Visible (ANSI)
100
AcDbLine
 10
97.20083285475748
 20
53.24102992739962
 30
0.0
 11
97.20083285475748
 21
43.66035868079486
 31
0.0
  0
LINE
  5
270
330
6C
100
AcDbEntity
  8
Visible (ANSI)
100
AcDbLine
 10
87.09441130207059
 20
53.10147973203136
 30
0.0
 11
86.38730452088404
 21
53.10147973203132
 31
0.0
  0
LINE
  5
271
330
6C
100
AcDbEntity
  8
Visible (ANSI)
100
AcDbLine
 10
86.38730452088404
 20
53.10147973203132
 30
0.0
 11
86.38730452088402
 21
52.99928634142601
 31
0.0
  0
LINE
  5
272
330
6C
100
AcDbEntity
  8
Visible (ANSI)
100
AcDbLine
 10
86.38730452088402
 20
52.99928634142601
 30
0.0
 11
87.09441130207059
 21
52.99928634142605
 31
0.0
  0
LINE
  5
273
330
6C
100
AcDbEntity
  8
Visible (ANSI)
100
AcDbLine
 10
87.09441130207059
 20
52.99928634142605
 30
0.0
 11
87.09441130207059
 21
53.10147973203136
 31
0.0
  0
LINE
  5
274
330
6C
100
AcDbEntity
  8
Visible (ANSI)
100
AcDbLine
 10
91.07188694624637
 20
50.40380812815729
 30
0.0
 11
91.07188694624621
 21
50.81100384194959
 31
0.0
  0
LINE
  5
275
330
6C
100
AcDbEntity
  8
Visible (ANSI)
100
AcDbLine
 10
91.07188694624641
 20
50.30161473755199
 30
0.0
 11
91.07188694624637
 21
50.40380812815729
 31
0.0
  0
ELLIPSE
  5
276
330
6C
100
AcDbEntity
  8
Visible (ANSI)
100
AcDbEllipse
 10
85.95639364842888
 20
53.2346776742635
 30
0.0
 11
-0.0077849025007167
 21
0.0135187016038647
 31
0.0
210
0.0
220
0.0
230
1.0
 40
0.5780931159158105
 41
5.499720852205022
 42
7.070517178999503
  0
ELLIPSE
  5
277
330
6C
100
AcDbEntity
  8
Visible (ANSI)
100
AcDbEllipse
 10
85.95639364842888
 20
53.2346776742635
 30
0.0
 11
-0.0701639289487663
 21
0.1218416311220099
 31
0.0
210
0.0
220
0.0
230
1.0
 40
0.5780931159158105
 41
5.499720852205022
 42
7.070517178999974
  0
ELLIPSE
  5
278
330
6C
100
AcDbEntity
  8
Visible (ANSI)
100
AcDbEllipse
 10
91.50279781870116
 20
50.04071593441944
 30
0.0
 11
-0.0701639289489091
 21
0.1218416311222409
 31
0.0
210
0.0
220
0.0
230
1.0
 40
0.5780931159158105
 41
3.92892452540984
 42
5.49972085220485
  0
ELLIPSE
  5
279
330
6C
100
AcDbEntity
  8
Visible (ANSI)
100
AcDbEllipse
 10
91.50279781870116
 20
50.04071593441944
 30
0.0
 11
0.0077849025008513
 21
-0.0135187016041003
 31
0.0
210
0.0
220
0.0
230
1.0
 40
0.5780931159158106
 41
0.7873318718212863
 42
2.358128198615402
  0
LINE
  5
27A
330
6C
100
AcDbEntity
  8
Visible Narrow (ANSI)
100
AcDbLine
 10
97.04460785475749
 20
53.36497489223037
 30
0.0
 11
91.52945368448561
 21
56.54094095391843
 31
0.0
  0
LINE
  5
27B
330
6C
100
AcDbEntity
  8
Visible Narrow (ANSI)
100
AcDbLine
 10
91.52945368448564
 20
56.43869833443586
 30
0.0
 11
91.52485955027211
 21
56.44134392037861
 31
0.0
  0
LINE
  5
27C
330
6C
100
AcDbEntity
  8
Visible Narrow (ANSI)
100
AcDbLine
 10
91.49820368448562
 20
56.5409409539184
 30
0.0
 11
85.95639364842888
 21
53.34962480001636
 31
0.0
  0
LINE
  5
27D
330
6C
100
AcDbEntity
  8
Visible Narrow (ANSI)
100
AcDbLine
 10
91.5027978186991
 20
56.44134392037861
 30
0.0
 11
91.49820368448564
 21
56.43869833443591
 31
0.0
  0
LINE
  5
27E
330
6C
100
AcDbEntity
  8
Visible Narrow (ANSI)
100
AcDbLine
 10
85.9564363920921
 20
53.24740679497243
 30
0.0
 11
85.94536278264238
 21
53.24102992739867
 31
0.0
  0
LINE
  5
27F
330
6C
100
AcDbEntity
  8
Visible Narrow (ANSI)
100
AcDbLine
 10
91.50279781870116
 20
50.15566306017252
 30
0.0
 11
97.04460785475806
 21
53.34697921407426
 31
0.0
  0
LINE
  5
280
330
6C
100
AcDbEntity
  8
Visible Narrow (ANSI)
100
AcDbLine
 10
97.15965206819234
 20
53.18377821004043
 30
0.0
 11
91.60221703213563
 21
49.98346421706046
 31
0.0
  0
LINE
  5
281
330
6C
100
AcDbEntity
  8
Visible (ANSI)
100
AcDbLine
 10
91.59182434838774
 20
56.55232330215357
 30
0.0
 11
97.12256504875284
 21
53.36738155473357
 31
0.0
  0
LINE
  5
282
330
6C
100
AcDbEntity
  8
Visible (ANSI)
100
AcDbLine
 10
85.8862297194801
 20
53.35651930538552
 30
0.0
 11
91.43583302058347
 21
56.55232330215355
 31
0.0
  0
SPLINE
  5
283
330
6C
100
AcDbEntity
  8
Visible (ANSI)
100
AcDbSpline
210
0.0
220
0.0
230
1.0
 70
     8
 71
     3
 72
    11
 73
     7
 74
     0
 42
0.0000000001
 43
0.0000000001
 40
0.0
 40
0.0
 40
0.0
 40
0.0
 40
1.018582815488535
 40
1.018582815488535
 40
1.018582815488535
 40
1.570796326794887
 40
1.570796326794887
 40
1.570796326794887
 40
1.570796326794887
 10
97.15965206819229
 20
53.29828164475881
 30
0.0
 10
97.15627472464994
 20
53.33925424988315
 30
0.0
 10
97.13436912888578
 20
53.36889082200077
 30
0.0
 10
97.10225346112528
 20
53.37475929467834
 30
0.0
 10
97.08484230378754
 20
53.37794082283099
 30
0.0
 10
97.06473905552918
 20
53.37445888595862
 30
0.0
 10
97.04460785475749
 20
53.36497489223037
 30
0.0
  0
SPLINE
  5
284
330
6C
100
AcDbEntity
  8
Visible (ANSI)
100
AcDbSpline
210
0.0
220
0.0
230
1.0
 70
     8
 71
     3
 72
     8
 73
     4
 74
     0
 42
0.0000000001
 43
0.0000000001
 40
0.0
 40
0.0
 40
0.0
 40
0.0
 40
0.7834644549743489
 40
0.7834644549743489
 40
0.7834644549743489
 40
0.7834644549743489
 10
91.52945368448563
 20
56.54094095391843
 30
0.0
 10
91.55281973609264
 20
56.55738846338614
 30
0.0
 10
91.57584482853129
 20
56.56096578948371
 30
0.0
 10
91.591750527565
 20
56.55214597183817
 30
0.0
  0
LINE
  5
285
330
6C
100
AcDbEntity
  8
Visible (ANSI)
100
AcDbLine
 10
91.52945368448584
 20
55.637455104156
 30
0.0
 11
91.52945368448561
 21
56.54094095391843
 31
0.0
  0
LINE
  5
286
330
6C
100
AcDbEntity
  8
Visible (ANSI)
100
AcDbLine
 10
91.52945368448584
 20
55.53526171355068
 30
0.0
 11
91.52945368448584
 21
55.637455104156
 31
0.0
  0
SPLINE
  5
287
330
6C
100
AcDbEntity
  8
Visible (ANSI)
100
AcDbSpline
210
0.0
220
0.0
230
1.0
 70
     8
 71
     3
 72
     8
 73
     4
 74
     0
 42
0.0000000001
 43
0.0000000001
 40
0.0
 40
0.0
 40
0.0
 40
0.0
 40
0.7912825099084279
 40
0.7912825099084279
 40
0.7912825099084279
 40
0.7912825099084279
 10
91.52485955027211
 20
56.44134392037861
 30
0.0
 10
91.52748322783116
 20
56.44319698080938
 30
0.0
 10
91.52877336600047
 20
56.44412935732353
 30
0.0
 10
91.52933517757192
 20
56.44378983009155
 30
0.0
  0
LINE
  5
288
330
6C
100
AcDbEntity
  8
Visible (ANSI)
100
AcDbLine
 10
97.04460785475749
 20
53.34697921407426
 30
0.0
 11
97.04460785475749
 21
53.36497489223037
 31
0.0
  0
SPLINE
  5
289
330
6C
100
AcDbEntity
  8
Visible (ANSI)
100
AcDbSpline
210
0.0
220
0.0
230
1.0
 70
    24
 71
     3
 72
     8
 73
     4
 74
     0
 42
0.0000000001
 43
0.0000000001
 40
-0.3175
 40
-0.3175
 40
-0.3175
 40
-0.3175
 40
-0.1853944325785608
 40
-0.1853944325785608
 40
-0.1853944325785608
 40
-0.1853944325785608
 10
97.15965206819229
 20
53.29828164475881
 30
0.0
 10
97.14739317809305
 20
53.29122221945407
 30
0.0
 10
97.1351342879938
 20
53.28416279414934
 30
0.0
 10
97.12287539789457
 20
53.2771033688446
 30
0.0
  0
LINE
  5
28A
330
6C
100
AcDbEntity
  8
Visible (ANSI)
100
AcDbLine
 10
97.04460785475749
 20
53.36497489223037
 30
0.0
 11
95.47567932866082
 21
53.36497489223021
 31
0.0
  0
LINE
  5
28B
330
6C
100
AcDbEntity
  8
Visible (ANSI)
100
AcDbLine
 10
95.47567932866082
 20
53.34697921407414
 30
0.0
 11
95.47567932866082
 21
53.36497489223021
 31
0.0
  0
SPLINE
  5
28C
330
6C
100
AcDbEntity
  8
Visible (ANSI)
100
AcDbSpline
210
0.0
220
0.0
230
1.0
 70
     8
 71
     3
 72
    11
 73
     7
 74
     0
 42
0.0000000001
 43
0.0000000001
 40
0.7873318718202251
 40
0.7873318718202251
 40
0.7873318718202251
 40
0.7873318718202251
 40
1.018582815488563
 40
1.018582815488563
 40
1.018582815488563
 40
1.570796326794888
 40
1.570796326794888
 40
1.570796326794888
 40
1.570796326794888
 10
91.43594688041162
 20
56.55217425172735
 30
0.0
 10
91.44055476941849
 20
56.55492818564042
 30
0.0
 10
91.44578626145635
 20
56.55660250781597
 30
0.0
 10
91.45154401686362
 20
56.55705173773946
 30
0.0
 10
91.46529319461944
 20
56.55812447210108
 30
0.0
 10
91.48173446329588
 20
56.55253374143767
 30
0.0
 10
91.49820368448562
 20
56.5409409539184
 30
0.0
  0
SPLINE
  5
28D
330
6C
100
AcDbEntity
  8
Visible (ANSI)
100
AcDbSpline
210
0.0
220
0.0
230
1.0
 70
     8
 71
     3
 72
     8
 73
     4
 74
     0
 42
0.0000000001
 43
0.0000000001
 40
0.0
 40
0.0
 40
0.0
 40
0.0
 40
0.7912825098800426
 40
0.7912825098800426
 40
0.7912825098800426
 40
0.7912825098800426
 10
91.5027978186991
 20
56.44134392037861
 30
0.0
 10
91.50017414114014
 20
56.44319698080931
 30
0.0
 10
91.49888400297085
 20
56.44412935732345
 30
0.0
 10
91.49832219139936
 20
56.44378983009158
 30
0.0
  0
LINE
  5
28E
330
6C
100
AcDbEntity
  8
Visible (ANSI)
100
AcDbLine
 10
91.49820368448562
 20
56.5409409539184
 30
0.0
 11
91.49820368448585
 21
55.63745510415593
 31
0.0
  0
LINE
  5
28F
330
6C
100
AcDbEntity
  8
Visible (ANSI)
100
AcDbLine
 10
91.49820368448585
 20
55.53526171355062
 30
0.0
 11
91.49820368448585
 21
55.63745510415593
 31
0.0
  0
SPLINE
  5
290
330
6C
100
AcDbEntity
  8
Visible (ANSI)
100
AcDbSpline
210
0.0
220
0.0
230
1.0
 70
     8
 71
     3
 72
    11
 73
     7
 74
     0
 42
0.0000000001
 43
0.0000000001
 40
0.0
 40
0.0
 40
0.0
 40
0.0
 40
1.018582815489068
 40
1.018582815489068
 40
1.018582815489068
 40
1.570796326794887
 40
1.570796326794887
 40
1.570796326794887
 40
1.570796326794887
 10
97.04460785475808
 20
53.34697921407426
 30
0.0
 10
97.08174076574506
 20
53.32948555838495
 30
0.0
 10
97.11829736631798
 20
53.29090166767226
 30
0.0
 10
97.13938196980206
 20
53.24942276285261
 30
0.0
 10
97.15081275652591
 20
53.22693542915007
 30
0.0
 10
97.15782107840158
 20
53.20388226512027
 30
0.0
 10
97.15965206819252
 20
53.1837782100403
 30
0.0
  0
LINE
  5
291
330
6C
100
AcDbEntity
  8
Visible (ANSI)
100
AcDbLine
 10
95.47567932866142
 20
53.34697921407414
 30
0.0
 11
97.04460785475806
 21
53.34697921407426
 31
0.0
  0
SPLINE
  5
292
330
6C
100
AcDbEntity
  8
Visible (ANSI)
100
AcDbSpline
210
0.0
220
0.0
230
1.0
 70
     8
 71
     3
 72
    10
 73
     6
 74
     0
 42
0.0000000001
 43
0.0000000001
 40
0.0
 40
0.0
 40
0.0
 40
0.0
 40
0.0122589744718908
 40
0.0122589744718908
 40
0.0152467785194995
 40
0.0152467785194995
 40
0.0152467785194995
 40
0.0152467785194995
 10
91.52597640295731
 20
56.44213943415153
 30
0.0
 10
91.52711663507652
 20
56.44295540280857
 30
0.0
 10
91.52810950533767
 20
56.44380197262388
 30
0.0
 10
91.52909802633134
 20
56.44474934361631
 30
0.0
 10
91.52928121207757
 20
56.44493104282827
 30
0.0
 10
91.52945368448564
 20
56.44510734014533
 30
0.0
  0
SPLINE
  5
293
330
6C
100
AcDbEntity
  8
Visible (ANSI)
100
AcDbSpline
210
0.0
220
0.0
230
1.0
 70
     8
 71
     3
 72
    10
 73
     6
 74
     0
 42
0.0000000001
 43
0.0000000001
 40
0.0668604181198707
 40
0.0668604181198707
 40
0.0668604181198707
 40
0.0668604181198707
 40
0.0723508068919405
 40
0.0723508068919405
 40
0.0821221175208209
 40
0.0821221175208209
 40
0.0821221175208209
 40
0.0821221175208209
 10
91.49820368448564
 20
56.44510758033232
 30
0.0
 10
91.49852142713227
 20
56.444782929616
 30
0.0
 10
91.49887582102612
 20
56.44443942801618
 30
0.0
 10
91.49995763143278
 20
56.44345838373906
 30
0.0
 10
91.50077211656229
 20
56.44278982160683
 30
0.0
 10
91.50168096601388
 20
56.44213943415153
 30
0.0
  0
ELLIPSE
  5
294
330
6C
100
AcDbEntity
  8
Visible (ANSI)
100
AcDbEllipse
 10
91.73479955360718
 20
43.87704699681231
 30
0.0
 11
0.28125
 21
-0.0000000000000168
 31
0.0
210
0.0
220
0.0
230
1.0
 40
0.5758617009853118
 41
0.0
 42
6.283185307179586
  0
ELLIPSE
  5
295
330
6C
100
AcDbEntity
  8
Visible (ANSI)
100
AcDbEllipse
 10
91.73479955360718
 20
43.77485360620698
 30
0.0
 11
0.2812499999999998
 21
0.0
 31
0.0
210
0.0
220
0.0
230
1.0
 40
0.5758617009853114
 41
0.3209702928256457
 42
2.820622360764146
  0
ELLIPSE
  5
296
330
6C
100
AcDbEntity
  8
Visible (ANSI)
100
AcDbEllipse
 10
88.24345982149871
 20
43.34231128667625
 30
0.0
 11
0.28125
 21
-0.0000000000000168
 31
0.0
210
0.0
220
0.0
230
1.0
 40
0.5758617009853118
 41
0.0
 42
6.283185307179586
  0
ELLIPSE
  5
297
330
6C
100
AcDbEntity
  8
Visible (ANSI)
100
AcDbEllipse
 10
88.24345982149871
 20
43.24011789607093
 30
0.0
 11
0.2812500000000002
 21
0.0
 31
0.0
210
0.0
220
0.0
230
1.0
 40
0.5758617009853117
 41
0.3209702928256465
 42
2.820622360764166
  0
ELLIPSE
  5
298
330
6C
100
AcDbEntity
  8
Visible (ANSI)
100
AcDbEllipse
 10
90.983498598597
 20
41.76442789573119
 30
0.0
 11
0.28125
 21
-0.0000000000000168
 31
0.0
210
0.0
220
0.0
230
1.0
 40
0.5758617009853118
 41
0.0
 42
6.283185307179586
  0
ELLIPSE
  5
299
330
6C
100
AcDbEntity
  8
Visible (ANSI)
100
AcDbEllipse
 10
90.983498598597
 20
41.66223450512588
 30
0.0
 11
0.2812500000000002
 21
0.0
 31
0.0
210
0.0
220
0.0
230
1.0
 40
0.5758617009853115
 41
0.3209702928256462
 42
2.820622360764147
  0
ELLIPSE
  5
29A
330
6C
100
AcDbEntity
  8
Visible (ANSI)
100
AcDbEllipse
 10
91.60221703213549
 20
40.69553914702637
 30
0.0
 11
-0.1249999999999982
 21
0.0000000000000075
 31
0.0
210
0.0
220
0.0
230
1.0
 40
0.5758617009853115
 41
0.7853981633977014
 42
2.356194490192697
  0
LINE
  5
29B
330
6C
100
AcDbEntity
  8
Visible Narrow (ANSI)
100
AcDbLine
 10
91.51382868448719
 20
40.64463968280231
 30
0.0
 11
91.51382868448719
 21
40.542446292197
 31
0.0
  0
ELLIPSE
  5
29C
330
6C
100
AcDbEntity
  8
Visible (ANSI)
100
AcDbEllipse
 10
91.60221703213549
 20
40.59334575642105
 30
0.0
 11
0.1249999999999982
 21
0.0000000000000074
 31
0.0
210
0.0
220
0.0
230
1.0
 40
0.5758617009853117
 41
3.926990816987149
 42
5.497787143782062
  0
LINE
  5
29D
330
6C
100
AcDbEntity
  8
Visible Narrow (ANSI)
100
AcDbLine
 10
91.69060537978383
 20
40.54244629219702
 30
0.0
 11
91.69060537978383
 21
40.64463968280234
 31
0.0
  0
ELLIPSE
  5
29E
330
6C
100
AcDbEntity
  8
Visible (ANSI)
100
AcDbEllipse
 10
86.38730452088394
 20
43.59641414563907
 30
0.0
 11
-0.1249999999999998
 21
0.0000000000000001
 31
0.0
210
0.0
220
0.0
230
1.0
 40
0.5758617009853118
 41
0.0000000000000055
 42
0.785398163397614
  0
ELLIPSE
  5
29F
330
6C
100
AcDbEntity
  8
Visible (ANSI)
100
AcDbEllipse
 10
86.38730452088394
 20
43.69860753624439
 30
0.0
 11
-0.1249999999999999
 21
0.0
 31
0.0
210
0.0
220
0.0
230
1.0
 40
0.5758617009853115
 41
5.497787143782234
 42
7.068583470577114
  0
LINE
  5
2A0
330
6C
100
AcDbEntity
  8
Visible Narrow (ANSI)
100
AcDbLine
 10
86.29891617323563
 20
43.54551468141502
 30
0.0
 11
86.29891617323563
 21
43.64770807202034
 31
0.0
  0
ELLIPSE
  5
2A1
330
6C
100
AcDbEntity
  8
Visible (ANSI)
100
AcDbEllipse
 10
91.60228573710734
 20
46.80380575425753
 30
0.0
 11
0.125000000000002
 21
-0.0000000000000075
 31
0.0
210
0.0
220
0.0
230
1.0
 40
0.5758617009853118
 41
0.8248293379544566
 42
2.356194490192615
  0
LINE
  5
2A2
330
6C
100
AcDbEntity
  8
Visible (ANSI)
100
AcDbLine
 10
86.26230452088394
 20
43.59641414563907
 30
0.0
 11
86.26230452088394
 21
43.69860753624439
 31
0.0
  0
LINE
  5
2A3
330
6C
100
AcDbEntity
  8
Visible (ANSI)
100
AcDbLine
 10
91.69060537978383
 20
40.54244629219702
 30
0.0
 11
92.6856895810474
 21
41.11547717296043
 31
0.0
  0
LINE
  5
2A4
330
6C
100
AcDbEntity
  8
Visible (ANSI)
100
AcDbLine
 10
92.6856895810474
 20
41.21767056356575
 30
0.0
 11
91.69060537978383
 21
40.64463968280234
 31
0.0
  0
LINE
  5
2A5
330
6C
100
AcDbEntity
  8
Visible (ANSI)
100
AcDbLine
 10
86.29891617323563
 20
43.54551468141502
 30
0.0
 11
91.51382868448719
 21
40.542446292197
 31
0.0
  0
LINE
  5
2A6
330
6C
100
AcDbEntity
  8
Visible (ANSI)
100
AcDbLine
 10
86.29891617323561
 20
43.74950700046842
 30
0.0
 11
87.29400037449918
 21
44.32253788123183
 31
0.0
  0
LINE
  5
2A7
330
6C
100
AcDbEntity
  8
Visible (ANSI)
100
AcDbLine
 10
91.51382868448719
 20
40.64463968280231
 30
0.0
 11
86.29891617323563
 21
43.64770807202034
 31
0.0
  0
ELLIPSE
  5
2A8
330
6C
100
AcDbEntity
  8
Visible (ANSI)
100
AcDbEllipse
 10
92.6856895810474
 20
41.23042429871329
 30
0.0
 11
0.0701639289487284
 21
0.1218416311220333
 31
0.0
210
0.0
220
0.0
230
1.0
 40
0.5780931159156392
 41
3.925057108563866
 42
4.710455271961564
  0
ELLIPSE
  5
2A9
330
6C
100
AcDbEntity
  8
Visible (ANSI)
100
AcDbEllipse
 10
92.6856895810474
 20
41.2304242987133
 30
0.0
 11
0.0077849025007124
 21
0.0135187016038671
 31
0.0
210
0.0
220
0.0
230
0.9999999999999998
 40
0.5780931159156392
 41
3.925057108564035
 42
4.710455271961271
  0
ELLIPSE
  5
2AA
330
6C
100
AcDbEntity
  8
Visible (ANSI)
100
AcDbEllipse
 10
87.29400037449918
 20
44.33529161637937
 30
0.0
 11
0.0077849025007125
 21
0.0135187016038673
 31
0.0
210
0.0
220
0.0
230
0.9999999999999998
 40
0.578093115915639
 41
3.925057108564034
 42
4.710455271961271
  0
LINE
  5
2AB
330
6C
100
AcDbEntity
  8
Visible Narrow (ANSI)
100
AcDbLine
 10
92.69348958104741
 20
41.2258977673727
 30
0.0
 11
87.30180037449917
 21
44.33076508503878
 31
0.0
  0
LINE
  5
2AC
330
6C
100
AcDbEntity
  8
Visible Narrow (ANSI)
100
AcDbLine
 10
92.6856895810474
 20
41.21767056356575
 30
0.0
 11
87.29400037449918
 21
44.32253788123183
 31
0.0
  0
LINE
  5
2AD
330
6C
100
AcDbEntity
  8
Visible (ANSI)
100
AcDbLine
 10
92.81193865417773
 20
41.28653396065325
 30
0.0
 11
92.75598958104739
 21
41.18962748419481
 31
0.0
  0
LINE
  5
2AE
330
6C
100
AcDbEntity
  8
Visible (ANSI)
100
AcDbLine
 10
92.69348958104741
 20
41.2258977673727
 30
0.0
 11
92.74943865417773
 21
41.32280424383113
 31
0.0
  0
LINE
  5
2AF
330
6C
100
AcDbEntity
  8
Visible (ANSI)
100
AcDbLine
 10
87.35774944762951
 20
44.42767156149721
 30
0.0
 11
87.30180037449917
 21
44.33076508503878
 31
0.0
  0
ELLIPSE
  5
2B0
330
6C
100
AcDbEntity
  8
Visible (ANSI)
100
AcDbEllipse
 10
92.81973865417773
 20
41.28200742931265
 30
0.0
 11
0.0077849025007134
 21
0.013518701603867
 31
0.0
210
0.0
220
0.0
230
1.0
 40
0.5780931159156393
 41
0.7834644549744141
 42
1.568862618371513
  0
ELLIPSE
  5
2B1
330
6C
100
AcDbEntity
  8
Visible (ANSI)
100
AcDbEllipse
 10
92.81973865417773
 20
41.28200742931265
 30
0.0
 11
0.0701639289487355
 21
0.1218416311220288
 31
0.0
210
0.0
220
0.0
230
1.0
 40
0.5780931159156392
 41
0.7834644549745838
 42
1.568862618371857
  0
ELLIPSE
  5
2B2
330
6C
100
AcDbEntity
  8
Visible (ANSI)
100
AcDbEllipse
 10
87.4280494476295
 20
44.38687474697873
 30
0.0
 11
0.0701639289487355
 21
0.1218416311220287
 31
0.0
210
0.0
220
0.0
230
1.0
 40
0.5780931159156419
 41
0.7834644549744123
 42
1.568862618371857
  0
LINE
  5
2B3
330
6C
100
AcDbEntity
  8
Visible Narrow (ANSI)
100
AcDbLine
 10
92.81973865417771
 20
41.3969545550655
 30
0.0
 11
87.4280494476295
 21
44.5018218727316
 31
0.0
  0
LINE
  5
2B4
330
6C
100
AcDbEntity
  8
Visible Narrow (ANSI)
100
AcDbLine
 10
92.74943865417773
 20
41.32280424383113
 30
0.0
 11
87.35774944762951
 21
44.42767156149721
 31
0.0
  0
LINE
  5
2B5
330
6C
100
AcDbEntity
  8
Visible (ANSI)
100
AcDbLine
 10
92.89828770278203
 20
41.33999455320026
 30
0.0
 11
92.81973865417771
 21
41.29476116446019
 31
0.0
  0
LINE
  5
2B6
330
6C
100
AcDbEntity
  8
Visible (ANSI)
100
AcDbLine
 10
92.81973865417771
 20
41.3969545550655
 30
0.0
 11
92.88338166240084
 21
41.43360412603671
 31
0.0
  0
LINE
  5
2B7
330
6C
100
AcDbEntity
  8
Visible (ANSI)
100
AcDbLine
 10
91.513897389459
 20
46.85470521848157
 30
0.0
 11
87.4280494476295
 21
44.5018218727316
 31
0.0
  0
LINE
  5
2B8
330
6C
100
AcDbEntity
  8
Visible Narrow (ANSI)
100
AcDbLine
 10
91.68712102650342
 20
46.85667215952473
 30
0.0
 11
92.05342151987251
 21
46.6457337343415
 31
0.0
  0
DIMENSION
  5
2B9
330
6C
100
AcDbEntity
  8
Dimension (ANSI)
100
AcDbDimension
  2
*D4
 10
37.38211218096481
 20
30.00241538059472
 30
0.0
 11
37.3821121809648
 21
36.00235230999561
 31
0.0
 70
   160
  1
<>{\PHEIGHT}
 71
     5
 42
11.99987385880178
  3
Default (ANSI)
100
AcDbAlignedDimension
 13
39.74431690537425
 23
42.0022892393965
 33
0.0
 14
39.97871690537421
 24
30.00241538059472
 34
0.0
 50
90.0
100
AcDbRotatedDimension
1001
ACAD
1000
DSTYLE
1002
{
1070
   289
1070
     1
1070
   271
1070
     2
1070
   272
1070
     2
1070
    48
1040
0.0
1070
    47
1040
0.0
1002
}
  0
DIMENSION
  5
3BA
330
6C
100
AcDbEntity
  8
Dimension (ANSI)
100
AcDbDimension
  2
*D5
 10
47.72871690537429
 20
43.83019317640437
 30
0.0
 11
43.66621690537425
 21
43.83019317640437
 31
0.0
 70
   160
  1
<>{\PWIDTH}
 71
     5
 42
8.125000000000056
  3
Default (ANSI)
100
AcDbAlignedDimension
 13
39.60371690537423
 23
41.86168923939649
 33
0.0
 14
47.72871690537429
 24
41.8616892393965
 34
0.0
100
AcDbRotatedDimension
1001
ACAD
1000
DSTYLE
1002
{
1070
   289
1070
     1
1070
    73
1070
     0
1070
    74
1070
     0
1070
   271
1070
     2
1070
   272
1070
     2
1070
    48
1040
0.0
1070
    47
1040
0.0
1002
}
  0
DIMENSION
  5
4B8
330
6C
100
AcDbEntity
  8
Dimension (ANSI)
100
AcDbDimension
  2
*D6
 10
18.49895596985362
 20
45.05164446056743
 30
0.0
 11
14.49895596985362
 21
45.05164446056743
 31
0.0
 70
   160
  1
<>
 42
8.0
  3
Default (ANSI)
100
AcDbAlignedDimension
 13
10.49895596985362
 23
41.86168923939649
 33
0.0
 14
18.49895596985362
 24
42.00228923939649
 34
0.0
100
AcDbRotatedDimension
1001
ACAD
1000
DSTYLE
1002
{
1070
   289
1070
     1
1070
    73
1070
     0
1070
    74
1070
     0
1070
   271
1070
     2
1070
   272
1070
     2
1070
    48
1040
0.0
1070
    47
1040
0.0
1002
}
  0
DIMENSION
  5
5A2
330
6C
100
AcDbEntity
  8
Dimension (ANSI)
100
AcDbDimension
  2
*D7
 10
20.66458508361585
 20
44.90946748176546
 30
0.0
 11
21.46397359116781
 21
44.09709570695777
 31
0.0
 70
   165
  1
<>
 42
1.403725741975242
  3
Default (ANSI)
100
AcDb3PointAngularDimension
 13
18.89766711881557
 23
42.00228923939649
 33
0.0
 14
18.58502753392895
 24
42.37206779289423
 34
0.0
 15
18.52266711881558
 25
42.00228923939649
 35
0.0
1001
ACAD_DSTYLE_DIMANGULAR_EXTENSION
1070
   387
1070
     1
1001
ACAD
1000
DSTYLE
1002
{
1070
   179
1070
     0
1070
   272
1070
     0
1070
    48
1040
0.0
1070
    47
1040
0.0
1002
}
  0
DIMENSION
  5
6CB
330
6C
100
AcDbEntity
  8
Dimension (ANSI)
100
AcDbDimension
  2
*D8
 10
47.72871690537806
 20
51.51124075020688
 30
0.0
 11
51.43811423637556
 21
51.51124075020688
 31
0.0
 70
   160
  1
<>{\P(2 PL.)}
 71
     5
 42
1.25
  3
Default (ANSI)
100
AcDbAlignedDimension
 13
46.47871690537806
 23
51.7227812744681
 33
0.0
 14
47.72871690537806
 24
51.65524384030344
 34
0.0
100
AcDbRotatedDimension
1001
ACAD
1000
DSTYLE
1002
{
1070
   289
1070
     1
1070
    73
1070
     0
1070
    74
1070
     0
1070
   271
1070
     2
1070
    76
1070
     1
1070
    75
1070
     1
1070
   272
1070
     2
1070
    48
1040
0.0
1070
    47
1040
0.0
1002
}
  0
DIMENSION
  5
7BA
330
6C
100
AcDbEntity
  8
Dimension (ANSI)
100
AcDbDimension
  2
*D9
 10
40.71275288746491
 20
49.13031021751784
 30
0.0
 11
42.36370901755804
 21
51.99857330551401
 31
0.0
 70
   160
  1
<>
 42
1.249999999999957
  3
Default (ANSI)
100
AcDbAlignedDimension
 13
42.02157495327344
 23
50.3803102175178
 33
0.0
 14
41.98813657446186
 24
49.13031021751784
 34
0.0
 50
270.0
100
AcDbRotatedDimension
1001
ACAD
1000
DSTYLE
1002
{
1070
   289
1070
     1
1070
   271
1070
     2
1070
    76
1070
     1
1070
    75
1070
     1
1070
   272
1070
     2
1070
    48
1040
0.0
1070
    47
1040
0.0
1002
}
  0
LINE
  5
8AE
330
6C
100
AcDbEntity
  8
Center Mark (ANSI)
  6
CHAIN
 48
0.1908618211746216
100
AcDbLine
 10
40.29121690537008
 20
15.99977222655271
 30
0.0
 11
40.29121690537007
 21
13.93727222655271
 31
0.0
  0
LINE
  5
8AF
330
6C
100
AcDbEntity
  8
Center Mark (ANSI)
  6
CHAIN
 48
0.1908618211746216
100
AcDbLine
 10
40.29121690537008
 20
20.99977222655271
 30
0.0
 11
40.29121690537007
 21
18.93727222655271
 31
0.0
  0
LINE
  5
8B0
330
6C
100
AcDbEntity
  8
Centerline (ANSI)
  6
CHAIN
 48
0.9524481296539306
100
AcDbLine
 10
40.29121690537007
 20
13.93727222655271
 30
0.0
 11
40.29121690537007
 21
20.99977222655271
 31
0.0
  0
LINE
  5
8B1
330
6C
100
AcDbEntity
  8
Center Mark (ANSI)
  6
CHAIN
 48
0.1908618211746216
100
AcDbLine
 10
41.85371690537006
 20
22.31227222655272
 30
0.0
 11
41.85371690537006
 21
20.24977222655271
 31
0.0
  0
LINE
  5
8B2
330
6C
100
AcDbEntity
  8
Center Mark (ANSI)
  6
CHAIN
 48
0.1908618211746216
100
AcDbLine
 10
45.47871690537007
 20
22.31227222655272
 30
0.0
 11
45.47871690537007
 21
20.24977222655271
 31
0.0
  0
LINE
  5
8B3
330
6C
100
AcDbEntity
  8
Centerline (ANSI)
  6
CHAIN
 48
0.5264917016029358
100
AcDbLine
 10
40.82246690537006
 20
21.28102222655272
 30
0.0
 11
46.50996690537008
 21
21.28102222655272
 31
0.0
  0
LINE
  5
8B4
330
6C
100
AcDbEntity
  8
Center Mark (ANSI)
  6
CHAIN
 48
0.1908618211746216
100
AcDbLine
 10
47.04121690537009
 20
20.99977222655268
 30
0.0
 11
47.04121690537006
 21
18.93727222655267
 31
0.0
  0
LINE
  5
8B5
330
6C
100
AcDbEntity
  8
Center Mark (ANSI)
  6
CHAIN
 48
0.1908618211746216
100
AcDbLine
 10
47.04121690537012
 20
15.99977222655267
 30
0.0
 11
47.0412169053701
 21
13.93727222655267
 31
0.0
  0
LINE
  5
8B6
330
6C
100
AcDbEntity
  8
Centerline (ANSI)
  6
CHAIN
 48
0.9524481296539306
100
AcDbLine
 10
47.04121690537006
 20
20.99977222655268
 30
0.0
 11
47.04121690537012
 21
13.93727222655267
 31
0.0
  0
DIMENSION
  5
8B7
330
6C
100
AcDbEntity
  8
Dimension (ANSI)
100
AcDbDimension
  2
*D10
 10
36.2412797852582
 20
19.96852222655271
 30
0.0
 11
34.54746651166928
 21
18.94081031965886
 31
0.0
 70
   160
  1
<>
 42
1.999999999999957
  3
Default (ANSI)
100
AcDbAlignedDimension
 13
39.74431690537007
 23
21.96852222655267
 33
0.0
 14
39.25996690537008
 24
19.96852222655271
 34
0.0
 50
270.0
100
AcDbRotatedDimension
1001
ACAD
1000
DSTYLE
1002
{
1070
   289
1070
     2
1070
   271
1070
     2
1070
   272
1070
     2
1070
    48
1040
0.0
1070
    47
1040
0.0
1002
}
  0
DIMENSION
  5
9B7
330
6C
100
AcDbEntity
  8
Dimension (ANSI)
100
AcDbDimension
  2
*D11
 10
31.71282084237795
 20
14.96852222655271
 30
0.0
 11
31.71282084237794
 21
18.46852222655269
 31
0.0
 70
   160
  1
<>
 42
6.999999999999957
  3
Default (ANSI)
100
AcDbAlignedDimension
 13
39.74431690537007
 23
21.96852222655267
 33
0.0
 14
39.25996690537008
 24
14.96852222655271
 34
0.0
 50
270.0
100
AcDbRotatedDimension
1001
ACAD
1000
DSTYLE
1002
{
1070
   289
1070
     1
1070
   271
1070
     2
1070
   272
1070
     2
1070
    48
1040
0.0
1070
    47
1040
0.0
1002
}
  0
DIMENSION
  5
AA1
330
6C
100
AcDbEntity
  8
Dimension (ANSI)
100
AcDbDimension
  2
*D12
 10
35.38162044864197
 20
21.28102222655272
 30
0.0
 11
37.06114800773228
 21
23.58678531454889
 31
0.0
 70
   160
  1
<>
 42
0.6874999999999539
  3
Default (ANSI)
100
AcDbAlignedDimension
 13
39.74431690537007
 23
21.96852222655267
 33
0.0
 14
40.82246690537006
 24
21.28102222655272
 34
0.0
 50
270.0
100
AcDbRotatedDimension
1001
ACAD
1000
DSTYLE
1002
{
1070
   289
1070
     1
1070
   271
1070
     2
1070
   272
1070
     2
1070
    48
1040
0.0
1070
    47
1040
0.0
1002
}
  0
DIMENSION
  5
BA1
330
6C
100
AcDbEntity
  8
Dimension (ANSI)
100
AcDbDimension
  2
*D13
 10
45.47871690537007
 20
24.43790465023326
 30
0.0
 11
49.83290651106418
 21
24.43790465023326
 31
0.0
 70
   160
  1
<>
 42
2.25
  3
Default (ANSI)
100
AcDbAlignedDimension
 13
47.72871690537008
 23
21.82792222655269
 33
0.0
 14
45.47871690537007
 24
22.31227222655272
 34
0.0
 50
180.0
100
AcDbRotatedDimension
1001
ACAD
1000
DSTYLE
1002
{
1070
   289
1070
     2
1070
    73
1070
     0
1070
    74
1070
     0
1070
   271
1070
     2
1070
   272
1070
     2
1070
    48
1040
0.0
1070
    47
1040
0.0
1002
}
  0
DIMENSION
  5
C8B
330
6C
100
AcDbEntity
  8
Dimension (ANSI)
100
AcDbDimension
  2
*D14
 10
41.85371690537006
 20
24.43790465023324
 30
0.0
 11
43.54753017895897
 21
24.43790465023324
 31
0.0
 70
   160
  1
<>
 42
2.249999999999992
  3
Default (ANSI)
100
AcDbAlignedDimension
 13
39.60371690537007
 23
21.82792222655268
 33
0.0
 14
41.85371690537006
 24
22.31227222655272
 34
0.0
100
AcDbRotatedDimension
1001
ACAD
1000
DSTYLE
1002
{
1070
   289
1070
     2
1070
    73
1070
     0
1070
    74
1070
     0
1070
   271
1070
     2
1070
   272
1070
     2
1070
    48
1040
0.0
1070
    47
1040
0.0
1002
}
  0
LINE
  5
D75
330
6C
100
AcDbEntity
  8
Centerline (ANSI)
  6
CHAIN
 48
0.9524481296539306
100
AcDbLine
 10
39.25996690537008
 20
19.96852222655272
 30
0.0
 11
48.07246690537009
 21
19.96852222655267
 31
0.0
  0
LINE
  5
D76
330
6C
100
AcDbEntity
  8
Centerline (ANSI)
  6
CHAIN
 48
0.9524481296539306
100
AcDbLine
 10
39.25996690537008
 20
14.96852222655272
 30
0.0
 11
48.07246690537012
 21
14.96852222655267
 31
0.0
  0
DIMENSION
  5
D77
330
6C
100
AcDbEntity
  8
Dimension (ANSI)
100
AcDbDimension
  2
*D15
 10
40.29121690537007
 20
12.71159621108186
 30
0.0
 11
35.89431957437257
 21
12.71159621108186
 31
0.0
 70
   160
  1
<>{\P(2 PL.)}
 71
     5
 42
0.6875000000000142
  3
Default (ANSI)
100
AcDbAlignedDimension
 13
39.60371690537007
 23
13.96852222655267
 33
0.0
 14
40.29121690537007
 24
13.93727222655271
 34
0.0
100
AcDbRotatedDimension
1001
ACAD
1000
DSTYLE
1002
{
1070
   289
1070
     1
1070
    73
1070
     0
1070
    74
1070
     0
1070
   271
1070
     2
1070
   272
1070
     2
1070
    48
1040
0.0
1070
    47
1040
0.0
1002
}
  0
DIMENSION
  5
E75
330
6C
100
AcDbEntity
  8
Dimension (ANSI)
100
AcDbDimension
  2
*D16
 10
46.86775604396439
 20
14.74713367205987
 30
0.0
 11
51.75482345681327
 21
17.66750759735278
 31
0.0
 70
   163
  1
<>{\P(6 PL.)}
 71
     5
 42
0.5625
  3
Default (ANSI)
100
AcDbDiametricDimension
 15
47.21467776677572
 25
15.18991078104544
 35
0.0
 40
0.0
1001
ACAD
1000
DSTYLE
1002
{
1070
   144
1040
1.000000000000012
1070
   271
1070
     3
1070
   272
1070
     2
1070
    48
1040
0.0
1070
    47
1040
0.0
1002
}
1001
ACAD_DSTYLE_DIMRADIAL_EXTENSION
1070
   387
1070
     1
1070
   388
1040
0.0
1070
   390
1040
0.0
  0
LINE
  5
F2F
330
6C
100
AcDbEntity
  8
Center Mark (ANSI)
  6
CHAIN
 48
0.1908618211746216
100
AcDbLine
 10
41.72871690537802
 20
56.9115602175178
 30
0.0
 11
41.72871690537802
 21
54.84906021751779
 31
0.0
  0
LINE
  5
F30
330
6C
100
AcDbEntity
  8
Center Mark (ANSI)
  6
CHAIN
 48
0.1908618211746216
100
AcDbLine
 10
45.60371690537802
 20
56.9115602175178
 30
0.0
 11
45.60371690537802
 21
54.84906021751779
 31
0.0
  0
LINE
  5
F31
330
6C
100
AcDbEntity
  8
Centerline (ANSI)
  6
CHAIN
 48
0.549638569355011
100
AcDbLine
 10
40.69746690537801
 20
55.88031021751779
 30
0.0
 11
46.63496690537802
 21
55.88031021751779
 31
0.0
  0
LINE
  5
F32
330
6C
100
AcDbEntity
  8
Center Mark (ANSI)
  6
CHAIN
 48
0.1908618211746216
100
AcDbLine
 10
44.69746690537802
 20
52.88031021751783
 30
0.0
 11
42.63496690537802
 21
52.88031021751783
 31
0.0
  0
LINE
  5
F33
330
6C
100
AcDbEntity
  8
Center Mark (ANSI)
  6
CHAIN
 48
0.1908618211746216
100
AcDbLine
 10
43.66621690537802
 20
53.91156021751783
 30
0.0
 11
43.66621690537802
 21
51.84906021751783
 31
0.0
  0
DIMENSION
  5
F34
330
6C
100
AcDbEntity
  8
Dimension (ANSI)
100
AcDbDimension
  2
*D17
 10
41.72871690537802
 20
59.49251494193076
 30
0.0
 11
37.49952729968393
 21
59.49251494193076
 31
0.0
 70
   160
  1
<>
 42
2.124999999999971
  3
Default (ANSI)
100
AcDbAlignedDimension
 13
39.60371690537805
 23
57.13031021752132
 33
0.0
 14
41.72871690537802
 24
56.9115602175178
 34
0.0
 50
180.0
100
AcDbRotatedDimension
1001
ACAD
1000
DSTYLE
1002
{
1070
   289
1070
     2
1070
    73
1070
     0
1070
    74
1070
     0
1070
   271
1070
     2
1070
   272
1070
     2
1070
    48
1040
0.0
1070
    47
1040
0.0
1002
}
  0
DIMENSION
  5
101E
330
6C
100
AcDbEntity
  8
Dimension (ANSI)
100
AcDbDimension
  2
*D18
 10
43.66621690537802
 20
60.90983777657644
 30
0.0
 11
45.63496690537802
 21
60.90983777657644
 31
0.0
 70
   160
  1
<>
 42
4.062499999999971
  3
Default (ANSI)
100
AcDbAlignedDimension
 13
39.60371690537805
 23
57.13031021752132
 33
0.0
 14
43.66621690537802
 24
53.91156021751783
 34
0.0
 50
180.0
100
AcDbRotatedDimension
1001
ACAD
1000
DSTYLE
1002
{
1070
   289
1070
     2
1070
    73
1070
     0
1070
    74
1070
     0
1070
   271
1070
     2
1070
   272
1070
     2
1070
    48
1040
0.0
1070
    47
1040
0.0
1002
}
  0
DIMENSION
  5
1108
330
6C
100
AcDbEntity
  8
Dimension (ANSI)
100
AcDbDimension
  2
*D19
 10
45.60371690537802
 20
59.49251494193076
 30
0.0
 11
49.83290651107221
 21
59.49251494193076
 31
0.0
 70
   160
  1
<>
 42
2.125000000000078
  3
Default (ANSI)
100
AcDbAlignedDimension
 13
47.7287169053781
 23
57.13031021752131
 33
0.0
 14
45.60371690537802
 24
56.9115602175178
 34
0.0
 50
180.0
100
AcDbRotatedDimension
1001
ACAD
1000
DSTYLE
1002
{
1070
   289
1070
     2
1070
    73
1070
     0
1070
    74
1070
     0
1070
   271
1070
     2
1070
   272
1070
     2
1070
    48
1040
0.0
1070
    47
1040
0.0
1002
}
  0
DIMENSION
  5
11F2
330
6C
100
AcDbEntity
  8
Dimension (ANSI)
100
AcDbDimension
  2
*D20
 10
38.89246831106176
 20
55.88031021751779
 30
0.0
 11
37.2415121809686
 21
54.26204712952158
 31
0.0
 70
   160
  1
<>
 42
1.250000000003524
  3
Default (ANSI)
100
AcDbAlignedDimension
 13
39.60371690537805
 23
57.13031021752132
 33
0.0
 14
40.69746690537801
 24
55.88031021751779
 34
0.0
 50
90.0
100
AcDbRotatedDimension
1001
ACAD
1000
DSTYLE
1002
{
1070
   289
1070
     1
1070
   271
1070
     2
1070
   272
1070
     2
1070
    48
1040
0.0
1070
    47
1040
0.0
1002
}
  0
DIMENSION
  5
12EF
330
6C
100
AcDbEntity
  8
Dimension (ANSI)
100
AcDbDimension
  2
*D21
 10
34.40686651167728
 20
52.88031021751783
 30
0.0
 11
34.40686651167727
 21
55.00531021751957
 31
0.0
 70
   160
  1
<>
 42
4.250000000003488
  3
Default (ANSI)
100
AcDbAlignedDimension
 13
39.60371690537805
 23
57.13031021752132
 33
0.0
 14
42.63496690537802
 24
52.88031021751783
 34
0.0
 50
90.0
100
AcDbRotatedDimension
1001
ACAD
1000
DSTYLE
1002
{
1070
   289
1070
     1
1070
   271
1070
     2
1070
   272
1070
     2
1070
    48
1040
0.0
1070
    47
1040
0.0
1002
}
  0
DIMENSION
  5
13DF
330
6C
100
AcDbEntity
  8
Dimension (ANSI)
100
AcDbDimension
  2
*D22
 10
43.48266751164167
 20
53.09340921460374
 30
0.0
 11
51.26716410663863
 21
47.07300215710256
 31
0.0
 70
   163
  1
<>{\P(3 PL.)}
 71
     5
 42
0.5625
  3
Default (ANSI)
100
AcDbDiametricDimension
 15
43.84976629911435
 25
52.66721122043191
 35
0.0
 40
0.0
1001
ACAD
1000
DSTYLE
1002
{
1070
   144
1040
0.9999999999999873
1070
   271
1070
     3
1070
   272
1070
     3
1070
    48
1040
0.0
1070
    47
1040
0.0
1002
}
1001
ACAD_DSTYLE_DIMRADIAL_EXTENSION
1070
   387
1070
     1
1070
   388
1040
0.0
1070
   390
1040
0.0
  0
DIMENSION
  5
1498
330
6C
100
AcDbEntity
  8
Dimension (ANSI)
100
AcDbDimension
  2
*D23
 10
18.24895596985369
 20
28.42115951715689
 30
0.0
 11
14.37395596985365
 21
28.42115951715689
 31
0.0
 70
   160
  1
<>
 42
7.750000000000071
  3
Default (ANSI)
100
AcDbAlignedDimension
 13
10.49895596985362
 23
30.1428892393965
 33
0.0
 14
18.24895596985369
 24
30.00241538059472
 34
0.0
100
AcDbRotatedDimension
1001
ACAD
1000
DSTYLE
1002
{
1070
   289
1070
     1
1070
    73
1070
     0
1070
    74
1070
     0
1070
   271
1070
     2
1070
   272
1070
     2
1070
    48
1040
0.0
1070
    47
1040
0.0
1002
}
  0
MTEXT
  5
1582
102
{ACAD_XDICTIONARY
360
158E
102
}
330
6C
100
AcDbEntity
  8
Symbol (ANSI)
100
AcDbMText
 10
57.21459069859113
 20
4.897298629548194
 30
0.0
 40
0.6000000191485788
 41
44.30032264529251
 71
     4
 72
     1
  3
{\fRomanS|b0|i0|c0|p2;\H2x;PART#: SSFK1208\P(DATA SUBJECT TO CHANGE WITHOUT NOTICE)\H1.6157x; \H0.61894x;\P \H1.352x; \H0.73963x;\P\H0.6x;THIS DRAWING IS PROPERTY OF HUBBELL INC. WIEGMANN\H1.5633x; \H0.63966x;\PALL INFORMATION IS PROPRIETARY AND NOT 
  1
TO BE DUPLICATED\H1.234x; \H0.81039x;\P\H1.2571x; }
  7
Note Text (ANSI)
 73
     1
 44
0.8026435375213623
  0
ENDSEC
  0
SECTION
  2
OBJECTS
  0
DICTIONARY
  5
C
330
0
100
AcDbDictionary
281
     1
  3
ACAD_CIP_PREVIOUS_PRODUCT_INFO
350
1584
  3
ACAD_COLOR
350
63
  3
ACAD_GROUP
350
D
  3
ACAD_LAYOUT
350
62
  3
ACAD_MATERIAL
350
10
  3
ACAD_MLEADERSTYLE
350
66
  3
ACAD_MLINESTYLE
350
5F
  3
ACAD_PLOTSETTINGS
350
61
  3
ACAD_PLOTSTYLENAME
350
E
  3
ACAD_SCALELIST
350
42
  3
ACAD_TABLESTYLE
350
64
  3
ACAD_VISUALSTYLE
350
29
  3
ACDB_RECOMPOSE_DATA
350
1590
  3
AcDbVariableDictionary
350
76
  0
DICTIONARY
  5
15C6
330
F29
100
AcDbDictionary
280
     1
281
     1
  3
ACAD_MTEXT_2008_RT
360
15C7
  0
DICTIONARY
  5
15C8
330
1492
100
AcDbDictionary
280
     1
281
     1
  3
ACAD_MTEXT_2008_RT
360
15C9
  0
DICTIONARY
  5
158E
330
1582
100
AcDbDictionary
280
     1
281
     1
  3
ACAD_MTEXT_2008_RT
360
158F
  0
XRECORD
  5
1584
102
{ACAD_REACTORS
330
C
102
}
330
C
100
AcDbXrecord
280
     1
300
INVNTOR
300
2012
300
PDSP_F_S
  0
DICTIONARY
  5
63
102
{ACAD_REACTORS
330
C
102
}
330
C
100
AcDbDictionary
281
     1
  0
DICTIONARY
  5
D
102
{ACAD_REACTORS
330
C
102
}
330
C
100
AcDbDictionary
281
     1
  0
DICTIONARY
  5
62
102
{ACAD_REACTORS
330
C
102
}
330
C
100
AcDbDictionary
281
     1
  3
Layout1
350
6B
  3
Layout2
350
73
  3
Model
350
6F
  0
DICTIONARY
  5
10
102
{ACAD_REACTORS
330
C
102
}
330
C
100
AcDbDictionary
281
     1
  3
ByBlock
350
19
  3
ByLayer
350
11
  3
Global
350
21
  0
DICTIONARY
  5
66
102
{ACAD_REACTORS
330
C
102
}
330
C
100
AcDbDictionary
281
     1
  3
Standard
350
67
  0
DICTIONARY
  5
5F
102
{ACAD_REACTORS
330
C
102
}
330
C
100
AcDbDictionary
281
     1
  3
Standard
350
60
  0
DICTIONARY
  5
61
102
{ACAD_REACTORS
330
C
102
}
330
C
100
AcDbDictionary
281
     1
  0
ACDBDICTIONARYWDFLT
  5
E
102
{ACAD_REACTORS
330
C
102
}
330
C
100
AcDbDictionary
281
     1
  3
Normal
350
F
100
AcDbDictionaryWithDefault
340
F
  0
DICTIONARY
  5
42
102
{ACAD_REACTORS
330
C
102
}
330
C
100
AcDbDictionary
281
     1
  3
A0
350
43
  3
A1
350
44
  3
A2
350
45
  3
A3
350
46
  3
A4
350
47
  3
A5
350
48
  3
A6
350
49
  3
A7
350
4A
  3
A8
350
4B
  3
A9
350
4C
  3
B0
350
4D
  3
B1
350
4E
  3
B2
350
4F
  3
B3
350
50
  3
B4
350
51
  3
B5
350
52
  3
B6
350
53
  0
DICTIONARY
  5
64
102
{ACAD_REACTORS
330
C
102
}
330
C
100
AcDbDictionary
281
     1
  3
Standard
350
65
  0
DICTIONARY
  5
29
102
{ACAD_REACTORS
330
C
102
}
330
C
100
AcDbDictionary
281
     1
  3
2dWireframe
350
2F
  3
Basic
350
2E
  3
Brighten
350
35
  3
ColorChange
350
39
  3
Conceptual
350
32
  3
Dim
350
34
  3
EdgeColorOff
350
41
  3
Facepattern
350
38
  3
Flat
350
2A
  3
FlatWithEdges
350
2B
  3
Gouraud
350
2C
  3
GouraudWithEdges
350
2D
  3
Hidden
350
31
  3
JitterOff
350
3F
  3
Linepattern
350
37
  3
OverhangOff
350
40
  3
Realistic
350
33
  3
Shaded
350
3E
  3
Shaded with edges
350
3D
  3
Shades of Gray
350
3A
  3
Sketchy
350
3B
  3
Thicken
350
36
  3
Wireframe
350
30
  3
X-Ray
350
3C
  0
XRECORD
  5
1590
102
{ACAD_REACTORS
330
C
102
}
330
C
100
AcDbXrecord
280
     1
 90
        1
330
65
330
8B7
330
BA1
330
C8B
330
F34
330
101E
330
1108
330
1582
  0
DICTIONARY
  5
76
102
{ACAD_REACTORS
330
C
102
}
330
C
100
AcDbDictionary
281
     1
  3
CANNOSCALE
350
79
  3
CMLEADERSTYLE
350
78
  3
CTABLESTYLE
350
77
  3
LAYEREVAL
350
1587
  3
LAYERNOTIFY
350
1588
  3
LIGHTINGUNITS
350
1586
  3
MSLTSCALE
350
1585
  3
XCLIPFRAME
350
1589
  0
XRECORD
  5
15C7
102
{ACAD_REACTORS
330
15C6
102
}
330
15C6
100
AcDbXrecord
280
     1
 40
24491.0
  1
\A1;\U+22050.563{\P(6 PL.)}
  0
XRECORD
  5
15C9
102
{ACAD_REACTORS
330
15C8
102
}
330
15C8
100
AcDbXrecord
280
     1
 40
24428.0
  1
\A1;\U+22050.563{\P(3 PL.)}
  0
XRECORD
  5
158F
102
{ACAD_REACTORS
330
158E
102
}
330
158E
100
AcDbXrecord
280
     1
 40
3068981.0
  1
\pxsm0.94;{\fRomanS|b0|i0;\H1.2000;PART#: SSFK1208\P(DATA SUBJECT TO CHANGE WITHOUT NOTICE)\P \P\fRomanS|b0|i0;\H0.7200;THIS DRAWING IS PROPERTY OF HUBBELL INC. WIEGMANN\PALL INFORMATION IS PROPRIETARY AND NOT TO BE DUPLICATED\P}
  0
LAYOUT
  5
6B
102
{ACAD_REACTORS
330
62
102
}
330
62
100
AcDbPlotSettings
  1

  2

  4

  6

 40
0.0
 41
0.0
 42
0.0
 43
0.0
 44
0.0
 45
0.0
 46
0.0
 47
0.0
 48
0.0
 49
0.0
140
0.0
141
0.0
142
1.0
143
1.0
 70
   688
 72
     0
 73
     0
 74
     5
  7

 75
    16
147
1.0
 76
     0
 77
     2
 78
   300
148
0.0
149
0.0
100
AcDbLayout
  1
Layout1
 70
     1
 71
     1
 10
0.0
 20
0.0
 11
12.0
 21
9.0
 12
0.0
 22
0.0
 32
0.0
 14
0.0
 24
0.0
 34
0.0
 15
0.0
 25
0.0
 35
0.0
146
0.0
 13
0.0
 23
0.0
 33
0.0
 16
1.0
 26
0.0
 36
0.0
 17
0.0
 27
1.0
 37
0.0
 76
     0
330
68
  0
LAYOUT
  5
73
102
{ACAD_REACTORS
330
62
102
}
330
62
100
AcDbPlotSettings
  1

  2

  4

  6

 40
0.0
 41
0.0
 42
0.0
 43
0.0
 44
0.0
 45
0.0
 46
0.0
 47
0.0
 48
0.0
 49
0.0
140
0.0
141
0.0
142
1.0
143
1.0
 70
   688
 72
     0
 73
     0
 74
     5
  7

 75
    16
147
1.0
 76
     0
 77
     2
 78
   300
148
0.0
149
0.0
100
AcDbLayout
  1
Layout2
 70
     1
 71
     2
 10
0.0
 20
0.0
 11
12.0
 21
9.0
 12
0.0
 22
0.0
 32
0.0
 14
0.0
 24
0.0
 34
0.0
 15
0.0
 25
0.0
 35
0.0
146
0.0
 13
0.0
 23
0.0
 33
0.0
 16
1.0
 26
0.0
 36
0.0
 17
0.0
 27
1.0
 37
0.0
 76
     0
330
70
  0
LAYOUT
  5
6F
102
{ACAD_REACTORS
330
62
102
}
330
62
100
AcDbPlotSettings
  1

  2

  4

  6

 40
0.0
 41
0.0
 42
0.0
 43
0.0
 44
0.0
 45
0.0
 46
0.0
 47
0.0
 48
0.0
 49
0.0
140
0.0
141
0.0
142
1.0
143
1.0
 70
  1712
 72
     0
 73
     0
 74
     0
  7

 75
     0
147
1.0
 76
     0
 77
     2
 78
   300
148
0.0
149
0.0
100
AcDbLayout
  1
Model
 70
     1
 71
     0
 10
0.0
 20
0.0
 11
12.0
 21
9.0
 12
0.0
 22
0.0
 32
0.0
 14
0.0
 24
0.0
 34
0.0
 15
0.0
 25
0.0
 35
0.0
146
0.0
 13
0.0
 23
0.0
 33
0.0
 16
1.0
 26
0.0
 36
0.0
 17
0.0
 27
1.0
 37
0.0
 76
     0
330
6C
  0
MATERIAL
  5
19
102
{ACAD_XDICTIONARY
360
1A
102
}
102
{ACAD_REACTORS
330
10
102
}
330
10
100
AcDbMaterial
  1
ByBlock
 72
     0
 43
0.0208333333333333
 43
0.0
 43
0.0
 43
0.0
 43
0.0
 43
0.0208333333333333
 43
0.0
 43
0.0
 43
0.0
 43
0.0
 43
1.0
 43
0.0
 43
0.0
 43
0.0
 43
0.0
 43
1.0
 77
     0
 47
0.0208333333333333
 47
0.0
 47
0.0
 47
0.0
 47
0.0
 47
0.0208333333333333
 47
0.0
 47
0.0
 47
0.0
 47
0.0
 47
1.0
 47
0.0
 47
0.0
 47
0.0
 47
0.0
 47
1.0
171
     0
 49
0.0208333333333333
 49
0.0
 49
0.0
 49
0.0
 49
0.0
 49
0.0208333333333333
 49
0.0
 49
0.0
 49
0.0
 49
0.0
 49
1.0
 49
0.0
 49
0.0
 49
0.0
 49
0.0
 49
1.0
175
     0
142
0.0208333333333333
142
0.0
142
0.0
142
0.0
142
0.0
142
0.0208333333333333
142
0.0
142
0.0
142
0.0
142
0.0
142
1.0
142
0.0
142
0.0
142
0.0
142
0.0
142
1.0
179
     0
144
0.0208333333333333
144
0.0
144
0.0
144
0.0
144
0.0
144
0.0208333333333333
144
0.0
144
0.0
144
0.0
144
0.0
144
1.0
144
0.0
144
0.0
144
0.0
144
0.0
144
1.0
147
0.0208333333333333
147
0.0
147
0.0
147
0.0
147
0.0
147
0.0208333333333333
147
0.0
147
0.0
147
0.0
147
0.0
147
1.0
147
0.0
147
0.0
147
0.0
147
0.0
147
1.0
  0
MATERIAL
  5
11
102
{ACAD_XDICTIONARY
360
12
102
}
102
{ACAD_REACTORS
330
10
102
}
330
10
100
AcDbMaterial
  1
ByLayer
 72
     0
 43
0.0208333333333333
 43
0.0
 43
0.0
 43
0.0
 43
0.0
 43
0.0208333333333333
 43
0.0
 43
0.0
 43
0.0
 43
0.0
 43
1.0
 43
0.0
 43
0.0
 43
0.0
 43
0.0
 43
1.0
 77
     0
 47
0.0208333333333333
 47
0.0
 47
0.0
 47
0.0
 47
0.0
 47
0.0208333333333333
 47
0.0
 47
0.0
 47
0.0
 47
0.0
 47
1.0
 47
0.0
 47
0.0
 47
0.0
 47
0.0
 47
1.0
171
     0
 49
0.0208333333333333
 49
0.0
 49
0.0
 49
0.0
 49
0.0
 49
0.0208333333333333
 49
0.0
 49
0.0
 49
0.0
 49
0.0
 49
1.0
 49
0.0
 49
0.0
 49
0.0
 49
0.0
 49
1.0
175
     0
142
0.0208333333333333
142
0.0
142
0.0
142
0.0
142
0.0
142
0.0208333333333333
142
0.0
142
0.0
142
0.0
142
0.0
142
1.0
142
0.0
142
0.0
142
0.0
142
0.0
142
1.0
179
     0
144
0.0208333333333333
144
0.0
144
0.0
144
0.0
144
0.0
144
0.0208333333333333
144
0.0
144
0.0
144
0.0
144
0.0
144
1.0
144
0.0
144
0.0
144
0.0
144
0.0
144
1.0
147
0.0208333333333333
147
0.0
147
0.0
147
0.0
147
0.0
147
0.0208333333333333
147
0.0
147
0.0
147
0.0
147
0.0
147
1.0
147
0.0
147
0.0
147
0.0
147
0.0
147
1.0
  0
MATERIAL
  5
21
102
{ACAD_XDICTIONARY
360
22
102
}
102
{ACAD_REACTORS
330
10
102
}
330
10
100
AcDbMaterial
  1
Global
 72
     0
 43
0.0208333333333333
 43
0.0
 43
0.0
 43
0.0
 43
0.0
 43
0.0208333333333333
 43
0.0
 43
0.0
 43
0.0
 43
0.0
 43
1.0
 43
0.0
 43
0.0
 43
0.0
 43
0.0
 43
1.0
 77
     0
 47
0.0208333333333333
 47
0.0
 47
0.0
 47
0.0
 47
0.0
 47
0.0208333333333333
 47
0.0
 47
0.0
 47
0.0
 47
0.0
 47
1.0
 47
0.0
 47
0.0
 47
0.0
 47
0.0
 47
1.0
171
     0
 49
0.0208333333333333
 49
0.0
 49
0.0
 49
0.0
 49
0.0
 49
0.0208333333333333
 49
0.0
 49
0.0
 49
0.0
 49
0.0
 49
1.0
 49
0.0
 49
0.0
 49
0.0
 49
0.0
 49
1.0
175
     0
142
0.0208333333333333
142
0.0
142
0.0
142
0.0
142
0.0
142
0.0208333333333333
142
0.0
142
0.0
142
0.0
142
0.0
142
1.0
142
0.0
142
0.0
142
0.0
142
0.0
142
1.0
179
     0
144
0.0208333333333333
144
0.0
144
0.0
144
0.0
144
0.0
144
0.0208333333333333
144
0.0
144
0.0
144
0.0
144
0.0
144
1.0
144
0.0
144
0.0
144
0.0
144
0.0
144
1.0
147
0.0208333333333333
147
0.0
147
0.0
147
0.0
147
0.0
147
0.0208333333333333
147
0.0
147
0.0
147
0.0
147
0.0
147
1.0
147
0.0
147
0.0
147
0.0
147
0.0
147
1.0
  0
MLEADERSTYLE
  5
67
102
{ACAD_XDICTIONARY
360
158C
102
}
102
{ACAD_REACTORS
330
66
102
}
330
66
100
AcDbMLeaderStyle
170
     2
171
     1
172
     0
 90
        2
 40
0.0
 41
0.0
173
     1
 91
-1056964608
340
5B
 92
       -2
290
     1
 42
0.09
291
     1
 43
0.36
  3
Standard
 44
0.18
300

342
55
174
     1
178
     6
175
     1
176
     0
 93
-1056964608
 45
0.18
292
     0
297
     0
 46
0.18
 94
-1056964608
 47
1.0
 49
1.0
140
1.0
293
     1
141
0.0
294
     1
177
     0
142
1.0
295
     0
296
     0
143
0.125
1001
ACAD_MLEADERVER
1070
     2
  0
MLINESTYLE
  5
60
102
{ACAD_REACTORS
330
5F
102
}
330
5F
100
AcDbMlineStyle
  2
STANDARD
 70
     0
  3

 62
   256
 51
90.0
 52
90.0
 71
     2
 49
0.5
 62
   256
  6
BYLAYER
 49
-0.5
 62
   256
  6
BYLAYER
  0
ACDBPLACEHOLDER
  5
F
102
{ACAD_REACTORS
330
E
102
}
330
E
  0
SCALE
  5
43
102
{ACAD_REACTORS
330
42
102
}
330
42
100
AcDbScale
 70
     0
300
1:1
140
1.0
141
1.0
290
     1
  0
SCALE
  5
44
102
{ACAD_REACTORS
330
42
102
}
330
42
100
AcDbScale
 70
     0
300
1/128" = 1'-0"
140
0.0078125
141
12.0
290
     0
  0
SCALE
  5
45
102
{ACAD_REACTORS
330
42
102
}
330
42
100
AcDbScale
 70
     0
300
1/64" = 1'-0"
140
0.015625
141
12.0
290
     0
  0
SCALE
  5
46
102
{ACAD_REACTORS
330
42
102
}
330
42
100
AcDbScale
 70
     0
300
1/32" = 1'-0"
140
0.03125
141
12.0
290
     0
  0
SCALE
  5
47
102
{ACAD_REACTORS
330
42
102
}
330
42
100
AcDbScale
 70
     0
300
1/16" = 1'-0"
140
0.0625
141
12.0
290
     0
  0
SCALE
  5
48
102
{ACAD_REACTORS
330
42
102
}
330
42
100
AcDbScale
 70
     0
300
3/32" = 1'-0"
140
0.09375
141
12.0
290
     0
  0
SCALE
  5
49
102
{ACAD_REACTORS
330
42
102
}
330
42
100
AcDbScale
 70
     0
300
1/8" = 1'-0"
140
0.125
141
12.0
290
     0
  0
SCALE
  5
4A
102
{ACAD_REACTORS
330
42
102
}
330
42
100
AcDbScale
 70
     0
300
3/16" = 1'-0"
140
0.1875
141
12.0
290
     0
  0
SCALE
  5
4B
102
{ACAD_REACTORS
330
42
102
}
330
42
100
AcDbScale
 70
     0
300
1/4" = 1'-0"
140
0.25
141
12.0
290
     0
  0
SCALE
  5
4C
102
{ACAD_REACTORS
330
42
102
}
330
42
100
AcDbScale
 70
     0
300
3/8" = 1'-0"
140
0.375
141
12.0
290
     0
  0
SCALE
  5
4D
102
{ACAD_REACTORS
330
42
102
}
330
42
100
AcDbScale
 70
     0
300
1/2" = 1'-0"
140
0.5
141
12.0
290
     0
  0
SCALE
  5
4E
102
{ACAD_REACTORS
330
42
102
}
330
42
100
AcDbScale
 70
     0
300
3/4" = 1'-0"
140
0.75
141
12.0
290
     0
  0
SCALE
  5
4F
102
{ACAD_REACTORS
330
42
102
}
330
42
100
AcDbScale
 70
     0
300
1" = 1'-0"
140
1.0
141
12.0
290
     0
  0
SCALE
  5
50
102
{ACAD_REACTORS
330
42
102
}
330
42
100
AcDbScale
 70
     0
300
1-1/2" = 1'-0"
140
1.5
141
12.0
290
     0
  0
SCALE
  5
51
102
{ACAD_REACTORS
330
42
102
}
330
42
100
AcDbScale
 70
     0
300
3" = 1'-0"
140
3.0
141
12.0
290
     0
  0
SCALE
  5
52
102
{ACAD_REACTORS
330
42
102
}
330
42
100
AcDbScale
 70
     0
300
6" = 1'-0"
140
6.0
141
12.0
290
     0
  0
SCALE
  5
53
102
{ACAD_REACTORS
330
42
102
}
330
42
100
AcDbScale
 70
     0
300
1'-0" = 1'-0"
140
12.0
141
12.0
290
     0
  0
TABLESTYLE
  5
65
102
{ACAD_XDICTIONARY
360
158A
102
}
102
{ACAD_REACTORS
330
64
102
}
330
64
100
AcDbTableStyle
  3
Standard
 70
     0
 71
     0
 40
0.06
 41
0.06
280
     0
281
     0
  7
Standard
140
0.18
170
     2
 62
     0
 63
     7
283
     0
274
    -2
284
     1
 64
     0
275
    -2
285
     1
 65
     0
276
    -2
286
     1
 66
     0
277
    -2
287
     1
 67
     0
278
    -2
288
     1
 68
     0
279
    -2
289
     1
 69
     0
  7
Standard
140
0.25
170
     5
 62
     0
 63
     7
283
     0
274
    -2
284
     1
 64
     0
275
    -2
285
     1
 65
     0
276
    -2
286
     1
 66
     0
277
    -2
287
     1
 67
     0
278
    -2
288
     1
 68
     0
279
    -2
289
     1
 69
     0
  7
Standard
140
0.18
170
     5
 62
     0
 63
     7
283
     0
274
    -2
284
     1
 64
     0
275
    -2
285
     1
 65
     0
276
    -2
286
     1
 66
     0
277
    -2
287
     1
 67
     0
278
    -2
288
     1
 68
     0
279
    -2
289
     1
 69
     0
  0
VISUALSTYLE
  5
2F
102
{ACAD_XDICTIONARY
360
159E
102
}
102
{ACAD_REACTORS
330
29
102
}
330
29
100
AcDbVisualStyle
  2
2dWireframe
 70
     4
 71
     0
 72
     2
 73
     0
 90
        0
 40
-0.6
 41
-30.0
 62
     5
 63
     7
421
 16777215
 74
     1
 91
        4
 64
     7
 65
   257
 75
     1
175
     1
 42
1.0
 92
        0
 66
   257
 43
1.0
 76
     1
 77
     6
 78
     2
 67
     7
 79
     5
170
     0
171
     0
290
     0
174
     0
 93
        1
 44
0.0
173
     0
291
     0
 45
0.0
1001
ACAD
1000
AcDbSavedByObjectVersion
1070
     0
  0
VISUALSTYLE
  5
2E
102
{ACAD_XDICTIONARY
360
159C
102
}
102
{ACAD_REACTORS
330
29
102
}
330
29
100
AcDbVisualStyle
  2
Basic
 70
     7
 71
     1
 72
     0
 73
     1
 90
        0
 40
-0.6
 41
-30.0
 62
     5
 63
     7
421
 16777215
 74
     0
 91
        4
 64
     7
 65
   257
 75
     1
175
     1
 42
1.0
 92
        8
 66
     7
 43
1.0
 76
     1
 77
     6
 78
     2
 67
     7
 79
     5
170
     0
171
     0
290
     0
174
     0
 93
        1
 44
0.0
173
     0
291
     1
 45
0.0
1001
ACAD
1000
AcDbSavedByObjectVersion
1070
     0
  0
VISUALSTYLE
  5
35
102
{ACAD_XDICTIONARY
360
15AA
102
}
102
{ACAD_REACTORS
330
29
102
}
330
29
100
AcDbVisualStyle
  2
Brighten
 70
    12
 71
     2
 72
     2
 73
     0
 90
        0
 40
-0.6
 41
-30.0
 62
     5
 63
     7
421
 16777215
 74
     1
 91
        4
 64
     7
 65
   257
 75
     1
175
     1
 42
1.0
 92
        8
 66
     7
 43
1.0
 76
     1
 77
     6
 78
     2
 67
     7
 79
     5
170
     0
171
     0
290
     0
174
     0
 93
        1
 44
50.0
173
     0
291
     1
 45
0.0
1001
ACAD
1000
AcDbSavedByObjectVersion
1070
     0
  0
VISUALSTYLE
  5
39
102
{ACAD_XDICTIONARY
360
15B2
102
}
102
{ACAD_REACTORS
330
29
102
}
330
29
100
AcDbVisualStyle
  2
ColorChange
 70
    16
 71
     2
 72
     2
 73
     3
 90
        0
 40
-0.6
 41
-30.0
 62
     5
 63
     8
421
  8421504
 74
     1
 91
        4
 64
     7
 65
   257
 75
     1
175
     1
 42
1.0
 92
        8
 66
     8
424
  8421504
 43
1.0
 76
     1
 77
     6
 78
     2
 67
     7
 79
     5
170
     0
171
     0
290
     0
174
     0
 93
        1
 44
0.0
173
     0
291
     1
 45
0.0
1001
ACAD
1000
AcDbSavedByObjectVersion
1070
     0
  0
VISUALSTYLE
  5
32
102
{ACAD_XDICTIONARY
360
15A4
102
}
102
{ACAD_REACTORS
330
29
102
}
330
29
100
AcDbVisualStyle
  2
Conceptual
 70
     9
 71
     3
 72
     2
 73
     0
 90
        0
 40
-0.6
 41
-30.0
 62
     5
 63
     7
421
 16777215
 74
     2
 91
        2
 64
     7
 65
   257
 75
     1
175
     1
 42
179.0
 92
        8
 66
     7
 43
1.0
 76
     1
 77
     6
 78
     2
 67
     7
 79
     3
170
     0
171
     0
290
     0
174
     0
 93
        1
 44
0.0
173
     0
291
     0
 45
0.0
1001
ACAD
1000
AcDbSavedByObjectVersion
1070
     0
  0
VISUALSTYLE
  5
34
102
{ACAD_XDICTIONARY
360
15A8
102
}
102
{ACAD_REACTORS
330
29
102
}
330
29
100
AcDbVisualStyle
  2
Dim
 70
    11
 71
     2
 72
     2
 73
     0
 90
        0
 40
-0.6
 41
-30.0
 62
     5
 63
     7
421
 16777215
 74
     1
 91
        4
 64
     7
 65
   257
 75
     1
175
     1
 42
1.0
 92
        8
 66
     7
 43
1.0
 76
     1
 77
     6
 78
     2
 67
     7
 79
     5
170
     0
171
     0
290
     0
174
     0
 93
        1
 44
-50.0
173
     0
291
     1
 45
0.0
1001
ACAD
1000
AcDbSavedByObjectVersion
1070
     0
  0
VISUALSTYLE
  5
41
102
{ACAD_XDICTIONARY
360
15C2
102
}
102
{ACAD_REACTORS
330
29
102
}
330
29
100
AcDbVisualStyle
  2
EdgeColorOff
 70
    22
 71
     2
 72
     2
 73
     0
 90
        0
 40
-0.6
 41
-30.0
 62
     5
 63
     7
421
 16777215
 74
     1
 91
        4
 64
     7
 65
   257
 75
     1
175
     1
 42
1.0
 92
        8
 66
     7
 43
1.0
 76
     1
 77
     6
 78
     2
 67
     7
 79
     5
170
     0
171
     0
290
     0
174
     0
 93
        1
 44
0.0
173
     0
291
     1
 45
0.0
1001
ACAD
1000
AcDbSavedByObjectVersion
1070
     0
  0
VISUALSTYLE
  5
38
102
{ACAD_XDICTIONARY
360
15B0
102
}
102
{ACAD_REACTORS
330
29
102
}
330
29
100
AcDbVisualStyle
  2
Facepattern
 70
    15
 71
     2
 72
     2
 73
     0
 90
        0
 40
-0.6
 41
-30.0
 62
     5
 63
     7
421
 16777215
 74
     1
 91
        4
 64
     7
 65
   257
 75
     1
175
     1
 42
1.0
 92
        8
 66
     7
 43
1.0
 76
     1
 77
     6
 78
     2
 67
     7
 79
     5
170
     0
171
     0
290
     0
174
     0
 93
        1
 44
0.0
173
     0
291
     1
 45
0.0
1001
ACAD
1000
AcDbSavedByObjectVersion
1070
     0
  0
VISUALSTYLE
  5
2A
102
{ACAD_XDICTIONARY
360
1594
102
}
102
{ACAD_REACTORS
330
29
102
}
330
29
100
AcDbVisualStyle
  2
Flat
 70
     0
 71
     2
 72
     1
 73
     1
 90
        2
 40
-0.6
 41
30.0
 62
     5
 63
     7
421
 16777215
 74
     0
 91
        0
 64
     7
 65
   257
 75
     1
175
     1
 42
1.0
 92
        8
 66
     7
 43
1.0
 76
     1
 77
     6
 78
     2
 67
     7
 79
     5
170
     0
171
     0
290
     0
174
     0
 93
       13
 44
0.0
173
     0
291
     1
 45
0.0
1001
ACAD
1000
AcDbSavedByObjectVersion
1070
     0
  0
VISUALSTYLE
  5
2B
102
{ACAD_XDICTIONARY
360
1596
102
}
102
{ACAD_REACTORS
330
29
102
}
330
29
100
AcDbVisualStyle
  2
FlatWithEdges
 70
     1
 71
     2
 72
     1
 73
     1
 90
        2
 40
-0.6
 41
30.0
 62
     5
 63
     7
421
 16777215
 74
     1
 91
        0
 64
     7
 65
   257
 75
     1
175
     1
 42
1.0
 92
        0
 66
   257
 43
1.0
 76
     1
 77
     6
 78
     2
 67
     7
 79
     5
170
     0
171
     0
290
     0
174
     0
 93
       13
 44
0.0
173
     0
291
     1
 45
0.0
1001
ACAD
1000
AcDbSavedByObjectVersion
1070
     0
  0
VISUALSTYLE
  5
2C
102
{ACAD_XDICTIONARY
360
1598
102
}
102
{ACAD_REACTORS
330
29
102
}
330
29
100
AcDbVisualStyle
  2
Gouraud
 70
     2
 71
     2
 72
     2
 73
     1
 90
        2
 40
-0.6
 41
30.0
 62
     5
 63
     7
421
 16777215
 74
     0
 91
        0
 64
     7
 65
   257
 75
     1
175
     1
 42
1.0
 92
        0
 66
     7
 43
1.0
 76
     1
 77
     6
 78
     2
 67
     7
 79
     5
170
     0
171
     0
290
     0
174
     0
 93
       13
 44
0.0
173
     0
291
     1
 45
0.0
1001
ACAD
1000
AcDbSavedByObjectVersion
1070
     0
  0
VISUALSTYLE
  5
2D
102
{ACAD_XDICTIONARY
360
159A
102
}
102
{ACAD_REACTORS
330
29
102
}
330
29
100
AcDbVisualStyle
  2
GouraudWithEdges
 70
     3
 71
     2
 72
     2
 73
     1
 90
        2
 40
-0.6
 41
30.0
 62
     5
 63
     7
421
 16777215
 74
     1
 91
        0
 64
     7
 65
   257
 75
     1
175
     1
 42
1.0
 92
        0
 66
   257
 43
1.0
 76
     1
 77
     6
 78
     2
 67
     7
 79
     5
170
     0
171
     0
290
     0
174
     0
 93
       13
 44
0.0
173
     0
291
     1
 45
0.0
1001
ACAD
1000
AcDbSavedByObjectVersion
1070
     0
  0
VISUALSTYLE
  5
31
102
{ACAD_XDICTIONARY
360
15A2
102
}
102
{ACAD_REACTORS
330
29
102
}
330
29
100
AcDbVisualStyle
  2
Hidden
 70
     6
 71
     1
 72
     2
 73
     2
 90
        0
 40
-0.6
 41
-30.0
 62
     5
 63
     7
421
 16777215
 74
     2
 91
        2
 64
     7
 65
   257
 75
     2
175
     1
 42
40.0
 92
        0
 66
   257
 43
1.0
 76
     1
 77
     6
 78
     2
 67
     7
 79
     3
170
     0
171
     0
290
     0
174
     0
 93
        1
 44
0.0
173
     0
291
     0
 45
0.0
1001
ACAD
1000
AcDbSavedByObjectVersion
1070
     0
  0
VISUALSTYLE
  5
3F
102
{ACAD_XDICTIONARY
360
15BE
102
}
102
{ACAD_REACTORS
330
29
102
}
330
29
100
AcDbVisualStyle
  2
JitterOff
 70
    20
 71
     2
 72
     2
 73
     0
 90
        0
 40
-0.6
 41
-30.0
 62
     5
 63
     7
421
 16777215
 74
     1
 91
        4
 64
     7
 65
   257
 75
     1
175
     1
 42
1.0
 92
       10
 66
     7
 43
1.0
 76
     1
 77
     6
 78
     2
 67
     7
 79
     5
170
     0
171
     0
290
     0
174
     0
 93
        1
 44
0.0
173
     0
291
     1
 45
0.0
1001
ACAD
1000
AcDbSavedByObjectVersion
1070
     0
  0
VISUALSTYLE
  5
37
102
{ACAD_XDICTIONARY
360
15AE
102
}
102
{ACAD_REACTORS
330
29
102
}
330
29
100
AcDbVisualStyle
  2
Linepattern
 70
    14
 71
     2
 72
     2
 73
     0
 90
        0
 40
-0.6
 41
-30.0
 62
     5
 63
     7
421
 16777215
 74
     1
 91
        4
 64
     7
 65
   257
 75
     7
175
     7
 42
1.0
 92
        8
 66
     7
 43
1.0
 76
     1
 77
     6
 78
     2
 67
     7
 79
     5
170
     0
171
     0
290
     0
174
     0
 93
        1
 44
0.0
173
     0
291
     1
 45
0.0
1001
ACAD
1000
AcDbSavedByObjectVersion
1070
     0
  0
VISUALSTYLE
  5
40
102
{ACAD_XDICTIONARY
360
15C0
102
}
102
{ACAD_REACTORS
330
29
102
}
330
29
100
AcDbVisualStyle
  2
OverhangOff
 70
    21
 71
     2
 72
     2
 73
     0
 90
        0
 40
-0.6
 41
-30.0
 62
     5
 63
     7
421
 16777215
 74
     1
 91
        4
 64
     7
 65
   257
 75
     1
175
     1
 42
1.0
 92
        9
 66
     7
 43
1.0
 76
     1
 77
     6
 78
     2
 67
     7
 79
     5
170
     0
171
     0
290
     0
174
     0
 93
        1
 44
0.0
173
     0
291
     1
 45
0.0
1001
ACAD
1000
AcDbSavedByObjectVersion
1070
     0
  0
VISUALSTYLE
  5
33
102
{ACAD_XDICTIONARY
360
15A6
102
}
102
{ACAD_REACTORS
330
29
102
}
330
29
100
AcDbVisualStyle
  2
Realistic
 70
     8
 71
     2
 72
     3
 73
     0
 90
        2
 40
-0.6
 41
30.0
 62
     5
 63
     7
421
 16777215
 74
     0
 91
        0
 64
     7
 65
   257
 75
     1
175
     1
 42
1.0
 92
        8
 66
   257
 43
1.0
 76
     1
 77
     6
 78
     2
 67
     7
 79
     3
170
     0
171
     0
290
     0
174
     0
 93
       13
 44
0.0
173
     0
291
     0
 45
0.0
1001
ACAD
1000
AcDbSavedByObjectVersion
1070
     0
  0
VISUALSTYLE
  5
3E
102
{ACAD_XDICTIONARY
360
15BC
102
}
102
{ACAD_REACTORS
330
29
102
}
330
29
100
AcDbVisualStyle
  2
Shaded
 70
    27
 71
     2
 72
     2
 73
     1
 90
        2
 40
-0.6
 41
30.0
 62
     5
 63
     7
421
 16777215
 74
     0
 91
        4
 64
     7
 65
   257
 75
     1
175
     1
 42
1.0
 92
        8
 66
   257
 43
1.0
 76
     1
 77
     6
 78
     2
 67
     8
425
  7895160
 79
     3
170
     0
171
     0
290
     0
174
     0
 93
        5
 44
0.0
173
     0
291
     0
 45
0.0
1001
ACAD
1000
AcDbSavedByObjectVersion
1070
     0
  0
VISUALSTYLE
  5
3D
102
{ACAD_XDICTIONARY
360
15BA
102
}
102
{ACAD_REACTORS
330
29
102
}
330
29
100
AcDbVisualStyle
  2
Shaded with edges
 70
    26
 71
     2
 72
     2
 73
     1
 90
        2
 40
-0.6
 41
30.0
 62
     5
 63
     7
421
 16777215
 74
     1
 91
       10
 64
     7
 65
   257
 75
     2
175
     1
 42
1.0
 92
        8
 66
   257
 43
1.0
 76
     1
 77
     6
 78
     2
 67
     7
 79
     3
170
     0
171
     0
290
     0
174
     0
 93
        5
 44
0.0
173
     0
291
     0
 45
0.0
1001
ACAD
1000
AcDbSavedByObjectVersion
1070
     0
  0
VISUALSTYLE
  5
3A
102
{ACAD_XDICTIONARY
360
15B4
102
}
102
{ACAD_REACTORS
330
29
102
}
330
29
100
AcDbVisualStyle
  2
Shades of Gray
 70
    23
 71
     2
 72
     2
 73
     3
 90
        0
 40
-0.6
 41
-30.0
 62
     5
 63
     7
421
 16777215
 74
     2
 91
        2
 64
     7
 65
     7
 75
     1
175
     1
 42
40.0
 92
        8
 66
     7
 43
1.0
 76
     1
 77
     6
 78
     2
 67
     7
 79
     3
170
     0
171
     0
290
     0
174
     0
 93
        1
 44
0.0
173
     0
291
     0
 45
0.0
1001
ACAD
1000
AcDbSavedByObjectVersion
1070
     0
  0
VISUALSTYLE
  5
3B
102
{ACAD_XDICTIONARY
360
15B6
102
}
102
{ACAD_REACTORS
330
29
102
}
330
29
100
AcDbVisualStyle
  2
Sketchy
 70
    24
 71
     1
 72
     2
 73
     2
 90
        0
 40
-0.6
 41
-30.0
 62
     5
 63
     7
421
 16777215
 74
     2
 91
        2
 64
     7
 65
     7
 75
     1
175
     1
 42
40.0
 92
       11
 66
     7
 43
1.0
 76
     1
 77
     6
 78
     2
 67
     7
 79
     6
170
     0
171
     0
290
     0
174
     0
 93
        1
 44
0.0
173
     0
291
     0
 45
0.0
1001
ACAD
1000
AcDbSavedByObjectVersion
1070
     0
  0
VISUALSTYLE
  5
36
102
{ACAD_XDICTIONARY
360
15AC
102
}
102
{ACAD_REACTORS
330
29
102
}
330
29
100
AcDbVisualStyle
  2
Thicken
 70
    13
 71
     2
 72
     2
 73
     0
 90
        0
 40
-0.6
 41
-30.0
 62
     5
 63
     7
421
 16777215
 74
     1
 91
        4
 64
     7
 65
   257
 75
     1
175
     1
 42
1.0
 92
       12
 66
     7
 43
1.0
 76
     1
 77
     6
 78
     2
 67
     7
 79
     5
170
     0
171
     0
290
     0
174
     0
 93
        1
 44
0.0
173
     0
291
     1
 45
0.0
1001
ACAD
1000
AcDbSavedByObjectVersion
1070
     0
  0
VISUALSTYLE
  5
30
102
{ACAD_XDICTIONARY
360
15A0
102
}
102
{ACAD_REACTORS
330
29
102
}
330
29
100
AcDbVisualStyle
  2
Wireframe
 70
     5
 71
     0
 72
     2
 73
     0
 90
        0
 40
-0.6
 41
-30.0
 62
     5
 63
     7
421
 16777215
 74
     1
 91
        4
 64
     7
 65
   257
 75
     1
175
     1
 42
1.0
 92
        0
 66
   257
 43
1.0
 76
     1
 77
     6
 78
     2
 67
     7
 79
     3
170
     0
171
     0
290
     0
174
     0
 93
        1
 44
0.0
173
     0
291
     0
 45
0.0
1001
ACAD
1000
AcDbSavedByObjectVersion
1070
     0
  0
VISUALSTYLE
  5
3C
102
{ACAD_XDICTIONARY
360
15B8
102
}
102
{ACAD_REACTORS
330
29
102
}
330
29
100
AcDbVisualStyle
  2
X-Ray
 70
    25
 71
     2
 72
     2
 73
     1
 90
        1
 40
0.5
 41
-30.0
 62
     5
 63
     7
421
 16777215
 74
     1
 91
        0
 64
     7
 65
   257
 75
     1
175
     1
 42
1.0
 92
        8
 66
     7
 43
1.0
 76
     1
 77
     6
 78
     2
 67
     7
 79
     3
170
     0
171
     0
290
     0
174
     0
 93
       13
 44
0.0
173
     0
291
     0
 45
0.0
1001
ACAD
1000
AcDbSavedByObjectVersion
1070
     0
  0
DICTIONARYVAR
  5
79
102
{ACAD_REACTORS
330
76
102
}
330
76
100
DictionaryVariables
280
     0
  1
1:1
  0
DICTIONARYVAR
  5
78
102
{ACAD_REACTORS
330
76
102
}
330
76
100
DictionaryVariables
280
     0
  1
STANDARD
  0
DICTIONARYVAR
  5
77
102
{ACAD_REACTORS
330
76
102
}
330
76
100
DictionaryVariables
280
     0
  1
STANDARD
  0
DICTIONARYVAR
  5
1587
102
{ACAD_REACTORS
330
76
102
}
330
76
100
DictionaryVariables
280
     0
  1
0
  0
DICTIONARYVAR
  5
1588
102
{ACAD_REACTORS
330
76
102
}
330
76
100
DictionaryVariables
280
     0
  1
0
  0
DICTIONARYVAR
  5
1586
102
{ACAD_REACTORS
330
76
102
}
330
76
100
DictionaryVariables
280
     0
  1
2
  0
DICTIONARYVAR
  5
1585
102
{ACAD_REACTORS
330
76
102
}
330
76
100
DictionaryVariables
280
     0
  1
1
  0
DICTIONARYVAR
  5
1589
102
{ACAD_REACTORS
330
76
102
}
330
76
100
DictionaryVariables
280
     0
  1
2
  0
DICTIONARY
  5
1A
330
19
100
AcDbDictionary
280
     1
281
     1
  3
ACAD_XREC_ROUNDTRIP
360
1592
  3
BUMPTILE
360
1C
  3
DIFFUSETILE
360
1B
  3
OPACITYTILE
360
1F
  3
REFLECTIONTILE
360
1E
  3
REFRACTIONTILE
360
20
  3
SPECULARTILE
360
1D
  0
DICTIONARY
  5
12
330
11
100
AcDbDictionary
280
     1
281
     1
  3
ACAD_XREC_ROUNDTRIP
360
1591
  3
BUMPTILE
360
14
  3
DIFFUSETILE
360
13
  3
FBXASSET
360
F5
  3
OPACITYTILE
360
17
  3
REFLECTIONTILE
360
16
  3
REFRACTIONTILE
360
18
  3
SPECULARTILE
360
15
  0
DICTIONARY
  5
22
330
21
100
AcDbDictionary
280
     1
281
     1
  3
ACAD_XREC_ROUNDTRIP
360
1593
  3
BUMPTILE
360
24
  3
DIFFUSETILE
360
23
  3
FBXASSET
360
BA
  3
OPACITYTILE
360
27
  3
REFLECTIONTILE
360
26
  3
REFRACTIONTILE
360
28
  3
SPECULARTILE
360
25
  0
DICTIONARY
  5
158C
330
67
100
AcDbDictionary
280
     1
281
     1
  3
ACAD_XREC_ROUNDTRIP
360
158D
  0
DICTIONARY
  5
158A
330
65
100
AcDbDictionary
280
     1
281
     1
  3
ACAD_ROUNDTRIP_2008_TABLESTYLE_CELLSTYLEMAP
360
158B
  3
ACAD_XREC_ROUNDTRIP
360
15C4
  0
DICTIONARY
  5
159E
330
2F
100
AcDbDictionary
280
     1
281
     1
  3
ACAD_XREC_ROUNDTRIP
360
159F
  0
DICTIONARY
  5
159C
330
2E
100
AcDbDictionary
280
     1
281
     1
  3
ACAD_XREC_ROUNDTRIP
360
159D
  0
DICTIONARY
  5
15AA
330
35
100
AcDbDictionary
280
     1
281
     1
  3
ACAD_XREC_ROUNDTRIP
360
15AB
  0
DICTIONARY
  5
15B2
330
39
100
AcDbDictionary
280
     1
281
     1
  3
ACAD_XREC_ROUNDTRIP
360
15B3
  0
DICTIONARY
  5
15A4
330
32
100
AcDbDictionary
280
     1
281
     1
  3
ACAD_XREC_ROUNDTRIP
360
15A5
  0
DICTIONARY
  5
15A8
330
34
100
AcDbDictionary
280
     1
281
     1
  3
ACAD_XREC_ROUNDTRIP
360
15A9
  0
DICTIONARY
  5
15C2
330
41
100
AcDbDictionary
280
     1
281
     1
  3
ACAD_XREC_ROUNDTRIP
360
15C3
  0
DICTIONARY
  5
15B0
330
38
100
AcDbDictionary
280
     1
281
     1
  3
ACAD_XREC_ROUNDTRIP
360
15B1
  0
DICTIONARY
  5
1594
330
2A
100
AcDbDictionary
280
     1
281
     1
  3
ACAD_XREC_ROUNDTRIP
360
1595
  0
DICTIONARY
  5
1596
330
2B
100
AcDbDictionary
280
     1
281
     1
  3
ACAD_XREC_ROUNDTRIP
360
1597
  0
DICTIONARY
  5
1598
330
2C
100
AcDbDictionary
280
     1
281
     1
  3
ACAD_XREC_ROUNDTRIP
360
1599
  0
DICTIONARY
  5
159A
330
2D
100
AcDbDictionary
280
     1
281
     1
  3
ACAD_XREC_ROUNDTRIP
360
159B
  0
DICTIONARY
  5
15A2
330
31
100
AcDbDictionary
280
     1
281
     1
  3
ACAD_XREC_ROUNDTRIP
360
15A3
  0
DICTIONARY
  5
15BE
330
3F
100
AcDbDictionary
280
     1
281
     1
  3
ACAD_XREC_ROUNDTRIP
360
15BF
  0
DICTIONARY
  5
15AE
330
37
100
AcDbDictionary
280
     1
281
     1
  3
ACAD_XREC_ROUNDTRIP
360
15AF
  0
DICTIONARY
  5
15C0
330
40
100
AcDbDictionary
280
     1
281
     1
  3
ACAD_XREC_ROUNDTRIP
360
15C1
  0
DICTIONARY
  5
15A6
330
33
100
AcDbDictionary
280
     1
281
     1
  3
ACAD_XREC_ROUNDTRIP
360
15A7
  0
DICTIONARY
  5
15BC
330
3E
100
AcDbDictionary
280
     1
281
     1
  3
ACAD_XREC_ROUNDTRIP
360
15BD
  0
DICTIONARY
  5
15BA
330
3D
100
AcDbDictionary
280
     1
281
     1
  3
ACAD_XREC_ROUNDTRIP
360
15BB
  0
DICTIONARY
  5
15B4
330
3A
100
AcDbDictionary
280
     1
281
     1
  3
ACAD_XREC_ROUNDTRIP
360
15B5
  0
DICTIONARY
  5
15B6
330
3B
100
AcDbDictionary
280
     1
281
     1
  3
ACAD_XREC_ROUNDTRIP
360
15B7
  0
DICTIONARY
  5
15AC
330
36
100
AcDbDictionary
280
     1
281
     1
  3
ACAD_XREC_ROUNDTRIP
360
15AD
  0
DICTIONARY
  5
15A0
330
30
100
AcDbDictionary
280
     1
281
     1
  3
ACAD_XREC_ROUNDTRIP
360
15A1
  0
DICTIONARY
  5
15B8
330
3C
100
AcDbDictionary
280
     1
281
     1
  3
ACAD_XREC_ROUNDTRIP
360
15B9
  0
XRECORD
  5
1592
102
{ACAD_REACTORS
330
1A
102
}
330
1A
100
AcDbXrecord
280
     1
102
MATERIAL
148
0.0
149
0.0
149
0.0
 93
        0
 94
      127
282
     0
 72
     0
 77
     0
171
     0
175
     0
179
     0
273
     0
  0
XRECORD
  5
1C
102
{ACAD_REACTORS
330
1A
102
}
330
1A
100
AcDbXrecord
280
     1
270
     1
271
     1
  0
XRECORD
  5
1B
102
{ACAD_REACTORS
330
1A
102
}
330
1A
100
AcDbXrecord
280
     1
270
     1
271
     1
  0
XRECORD
  5
1F
102
{ACAD_REACTORS
330
1A
102
}
330
1A
100
AcDbXrecord
280
     1
270
     1
271
     1
  0
XRECORD
  5
1E
102
{ACAD_REACTORS
330
1A
102
}
330
1A
100
AcDbXrecord
280
     1
270
     1
271
     1
  0
XRECORD
  5
20
102
{ACAD_REACTORS
330
1A
102
}
330
1A
100
AcDbXrecord
280
     1
270
     1
271
     1
  0
XRECORD
  5
1D
102
{ACAD_REACTORS
330
1A
102
}
330
1A
100
AcDbXrecord
280
     1
270
     1
271
     1
  0
XRECORD
  5
1591
102
{ACAD_REACTORS
330
12
102
}
330
12
100
AcDbXrecord
280
     1
102
MATERIAL
148
0.0
149
0.0
149
0.0
 93
        0
 94
      127
282
     0
 72
     0
 77
     0
171
     0
175
     0
179
     0
273
     0
  0
XRECORD
  5
14
102
{ACAD_REACTORS
330
12
102
}
330
12
100
AcDbXrecord
280
     1
270
     1
271
     1
  0
XRECORD
  5
13
102
{ACAD_REACTORS
330
12
102
}
330
12
100
AcDbXrecord
280
     1
270
     1
271
     1
  0
XRECORD
  5
F5
102
{ACAD_REACTORS
330
12
102
}
330
12
100
AcDbXrecord
280
     1
 70
     1
 90
1959938040
 71
     1
  1
D4E3AE9B-E153-41E4-8C09-D7FDD4806931
311
504B03040A0000080000F03AB1423DEE336E79000000790000001B0000006175746F6465736B2D64657369676E2D7061636B6167652E786D6C3C3F786D6C2076657273696F6E3D22312E302220656E636F64696E673D227574662D3822203F3E3C666F726D6174733E3C666F726D61743E687474703A2F2F736368656D612E
311
6175746F6465736B2E636F6D2F64657369676E2D7061636B6167652F323030393C2F666F726D61743E3C2F666F726D6174733E504B0304140006080800F03AB142D486FD9CA0000000F4000000130000005B436F6E74656E745F54797065735D2E786D6C7D8EC10E82300C865F65E91D8A1E8C310C0EEA1BF002731658846E
311
D98AC1B77784ABF1D8FE5FBFBF75BBCE937A534CCEB38643598122B6FEE978D0B0485F9C41B54DDD7D022595594E1A469170414C76A4D9A4D207E29CF43ECE46F218070CC6BECC4078ACAA135ACF422C856C0E68EA1BF5669944DDD7BCDE7B1F8E415D77AECB980613C2E4AC91FC167A2B244592486606FC29C8FD7F045B9A
311
EF7053A7E60B504B0304140006080800F03AB14235CDB356E70000007C01000008000000636F72652E786D6C8D905B6EC3201045B782F8ADB079D8F24398A85696900D20202E4A0C9681AACB2F248E94FEF56B4677EE99195D7EFA59EFE0DBECC17A37415261088C535E5BB74C30C52BEA213809BE7B1FDF6C1038B99A0916
311
190ABEEC3E6D87A4BC8BC6C5AC3AAFCD21CA104C8440DD7333C1A0BECC2A2B996276845BB54975938BA9C8ABCB704A5683E711ABF33E7BB5668782CEA421189F518FCF0435C34CD0D0352DA29F64EE291B6636135E1758F068D7D77DB51B198DCE3C260CE11691EE82BB91B291D10FDC8E0CF3BAD8FF4069D3FF84927591D1
311
E3DD2716A0288F3C0682D7258B5C1E41E55A7213BF504B0304140006080800F03AB14255019EA25F0000007C00000007000000636E782E786D6C4DCB3B0E80201045D1AD90E915ED2CF8AC45050C11660C8261F98AB1B07AC9C97D42D718D865D3E909258CFD00CCE24AC6E326A164D74DC0B4128928FF326038472BA13128
311
B1252AC747C6BAB984FC68F0B87FE8960A5C09FE86CFB69FBA01504B0304140006080800F03AB1429E8C1DD563010000020300000C0000006662782F636F72652E786D6C8D52ED8A8330107C9590BF8726514B3F8829277D847B8154D39E5413C987F4F16FA316AF47298710C3CCCEEEEC283FDEFB0E8DCABAD6E812B39462
311
A4746D9A565F4B1CFC25D9617414DC1AE37F9561A465AF4A1C612CF8D59A302C506DB457DA03AA4DA316503AA73C4675079712BBFA5BF53295C14385BBA583AC6FF2AA5296020D75823B6FC1009A87C4138BCBF9CEC98C0B1E42DB2C6CDBC0B4F6D22A8B4556B182517A4A76F4C492625FB164BF2D3649F6C9AA5D96EFABBC
311
629C44B1E0BEED1FEE6AABA4570DE829CB13BA49D8F68B6E0F597EC8B30FBA39E4949358FE240A43F34F5168B5CFB3C5EE2C7358442313F1675B88C8232747F04304273144784D093F070D8140C85E9EBBC71E378046557B630B601A13566A945D503095A2E9E16466A1F3D400367BD9277BD3E77D0FF880525FC19AF4703D
311
071FA7F379EA12C5A06C32FA3BD2C6F6B25BCDCD16D7731DF4525E9BCED8FFA8C9B22A59C224F1EF153F504B0304140006080800F03AB1422A7D02107E0000009D0000000B0000006662782F636E782E786D6C4DCCD10AC2201886E15B91FFDC36FFCA1CA823B6BC8FD1DC909C866974F96DB1838E3E78F87865FB593C79DB
311
F472312860871A880DF738BA302B2879A20248AB658A31FFDD808461B10A36062DE714CB73A7D14E43F17955EFC26347C38EFCD29F05E5AC437A323DD2462052C1AFDDAD66D82033506959FD4AEB6E61FD05504B0304140006080800F03AB142B60118882C01000014020000310000006662782F46313336374435382D3631
311
43322D344644322D393832322D3836414345303132393231462F636F72652E786D6C8D515B6EC32010BC0AE22B55850D38769C0813554973825E8002495162B07854397EA176A4F62F3F2C9A9D991DEDB2FD7DBC816FED83717680A4C210682B9D32F632C014CFA88760CF99772EFEA14160C5A8075860C8D9C5BB342D9074
311
366A1B336A9DD20B2842D0110279CB9F0106F9A54751891433235CAB49C8ABB8E88A54B99D799C85E87300300F292FE427D2749B63DBA38E1C285A9F8E146D7B4A51DFBD1DDE31A15B4A4EAC9E859CA564D422372AC73167A3FDB32645CC5934E323BEF45A44AD20A7983408B7886C3EF066479B5D435F71BB6B30AB0BFD9F
311
284DEA495132363674893BCB02E484D5738333E5D2E7ED1146DF27E72328F35641CB17C8718509D9F65DDBB27AA6E60564CF6EBD7886E87C5EF0EAFA99D924B38A71B7E6AC2E37CAE5F780B9967BF21F504B0304140006080800F03AB142922D33204F01000033030000300000006662782F46313336374435382D36314332
311
2D344644322D393832322D3836414345303132393231462F636E782E786D6CD593BB6E032110457F05D146FBF2FA11592C9652E40B52A465611C13B3B0E211C57F9FC1C68E1B1729D3A0D59DCBBDA32396EDBE2743BEC007EDEC40BBBAA504AC744ADB8F81A6B8AF9E29D971E69D8B77364AAC9860A059A69C7D7897E62229
311
D88B6422AA46DB63113D0497BC848072BE498C93C26000D82AA108D3084A812237237EEDC1E32A288E27120F405E5FDE891B3F41C6C09A9CC259933B38CB6769BA3351228D0861A0411E6012B548D12908C75A8928EAAEBE763DD8E93789E40BD7CAE435C9E503CD27E565A31A39B206879C85E8915E31C5D30C948B79365A
311
8A88909BB3F1E2E12C691BD7CBE2D508DEA3BB5BF7CB25869D679C453D4171480F2282A27CD1767DD5AEAA6EF3D66EB68B7EDB2F9EDAD5B66F5993ED9C8DCE99720963C0BB99486723D84879C79A3C7E84AFF888D21E593B7FFA034804505A2F746E19FF994F737EDF88CBE35FC07F00504B0304140006080800F03AB1429C
311
F3D15EA305000081100000340000006662782F46313336374435382D363143322D344644322D393832322D3836414345303132393231462F6F626A656374732E786D6CAD57DB6EDB3810FD1541FBB2FB60C9B29D3459282A123B298C366D5123C53E1830288952B8A12E20A9D4D9AFDF43899225C74EBD8BBEE8C2CB70E6CC
311
990BFDF7DB8C5BCF544856E457B6E78C6D8BE65111B33CBDB22B958C2E6CEB7DE08BA250BD65B695938C5ED97AD80EFC5414556986629A908AABBDD1BB9BBF2C19D19CDA56C4899457B68C1E69461C52A922A6F2C98989224E9A6C1DCF69160EC5A682948F7B424B2268AEA029C67348B11AA5BCE1EFD87603DFD5F381AF9F
311
66D5F4F82AB7B667783ECBA52279F4EAB03D31536FB6B89D9C5D8ECE66B3E968763EF1463777378B91F76E3A9E9FCFE797D7B79738582A0149461341133BF8006C048B7CB7990AFC8AE56A3A314B8C835C419F99F6941D4C2CCF779B359D75C6C843EA47459ED3A8C60A68D4F619D1312D691EC3E78C4A68D643683CFCF534
311
8EBDE9A9FE3747F6874F43A0BFA327A8D5BD7DF7352DC2BF61823C85414252CDC0064B6368C3D5F10EE1B028B89963D2CA88A282116E71160A225EEC004BF592C01F88D14C163A1AB40576002F34D343BA208C7ECEF3435A2615E79AC6765047C106B14295AC3563FF50B1D3BE8F0C7482AF341B2E8C41EAA5A47670D950E4
311
628F4D0D9056C2490A97C34CBD733AD93374AEE374B9B0838F77E176A563F7F0E1A5284A2A94A60FA8D53AAE7D6B948C4EDE499ED31BEC3D5576A07C03F29F11EA3B55E037C1B6B3EDCC9CA204C96552880CBEB1C6D6688CC7D8F2EAA7FEEE7DF96EB779E8BD6378C2D91AAA5F80E7D086BE2F7B7006FE33085F88A9316D15
311
118EB471CF7200A44962F10243C8C349B8B58325B21CB23276111E783019EA3EE3D3778D18248AFAA4DE3B07967B69F184040DD86A46428D86FC46C19D9F5EA5B3FA60B3EC18BC67BF84AED78BD5C755251212D17B13D30B9AB09C2994B81D6FFA0A0D301F58F4445F7E142286A1AFF15EF5F1CECC5112686BCC35F0699BD3
311
F5CFEEE4C10111F6A5854E37FE4F4E8011BAB0F6E4DF331951CE494E8BAA3DF7CDFA81B2D140AC835D33B92B30BBC202D234337B3188221D09566A10BB6AD5254DE788750FCBCF60A41DDCBC7C222FFDEC15EE726F54F0426CC2974D93960E42FD7DC86D8381ABA580EE7590B4F16F40DFC42C492A89247800D7EFCB79DF77
311
3A2D2045B4529B6899C17E04171186B4AD5C546B4150498B7CC350371177070FE8CB07A48601B5C0631A4BCA930DE3BCCA3609E3A8469B8C9447E0F8FFFA8755566E485654B93A227BA03AAAC350F7017BE50FA2A2473B58D5EFD10D726F4CE32364D0B5E4005603D72E66B753B44837A35BEF0CFD93773B1B5DCCC797A3C5
311
BBBBC56276313EBF9CEED0AC9BA8C06F4B4D3FA2E1259436BF12CCB8EF6189F83149C00EEE8992EB0F4D78B6EF87A5835ED877B107F5B2DB781D3FA3EFA3F1CF05EC561E14B4CC4A4E339A2BA263E85E7FF06F047DC64099667C9991949E20E5CB87D59E31183961DF571DEFF4C7DE5E333AD7017950887AACB230278CEF6D
311
4C1B249D324F0D7EAD4FBA775368DA5FFD671C83CE54169CC5C883B195D222A30AD9F0842224322A41BD7E4F1F9BBBC709BB9F9B0E519190D35693478226994B8405485E456A386EFD86A64EF7555736CAADF38487C914B605CE5CD968D2158BA874421468DD0AD5C2C1A57E270FCE923CE5E8B59B4DDD7FB74B633328C9DD
311
9253FA27635793C28D01482325FA063444F04EAD4CE0D7BA99F9E83F19DEAA631185CFB0529D2DBB81CE98FA1884686394B92DA0897932476F11A86F9BE539F59A012227DDB2DE24412375A48848EB9B82D6CFA874BDF8EAA243B1965FAC9257297C79BAA491A02073A5031C2C022B8CCC92285075FEE7FAAB287093CDAC3B
311
060A58BF6F2FCEFF58CF8B2C2BF266687D6DEEC3D6EA11B7DB788DE440F5B544AE27636FB2AEAF03E686B20989A40E89E51306E059C13AA007EE072F9B3B23326733D1AD73B52BF618BA5C58A6B0CD20D4D0A59F5B3538683C726A2186F49552474C7F41F9E68DC0AD974205815E3EF817504B0304140006080000F03AB142
311
000000000000000000000000350000006662782F46313336374435382D363143322D344644322D393832322D3836414345303132393231462F76657274696365732E62696E504B0304140006080800F03AB142F270F1330600000004000000360000006662782F46313336374435382D363143322D344644322D393832322D
311
3836414345303132393231462F747269616E676C65732E62696E636660600000504B0304140006080000F03AB142000000000000000000000000370000006662782F46313336374435382D363143322D344644322D393832322D3836414345303132393231462F617474726962757465732E62696E504B0304140006080800
311
F03AB142D5987DFC8F00000041010000360000006662782F46313336374435382D363143322D344644322D393832322D3836414345303132393231462F6469726563746F72792E786D6C858F410EC2201045AF4266AF15DDB800BA74E7C21B903225242D6328188F2FA5C4183471359997F9FF81E89FF3C41E1816475E02DF
311
1F80A11FC8386F25A438EECEC07A250251FC3803E6F58C12560C4AD840E95E91C151A72936F496F35732D860FE635F62C8F2DA16B505C545B74125BAA2FA9E05D7CC053D063734D5C7665FD55B6B8D15D5E9BFEAFD8490FFA45E504B0304140006080800F03AB142EAA379EEFA000000A00100003B0000006662782F463133
311
36374435382D363143322D344644322D393832322D3836414345303132393231462F7265736F75726365732F636F72652E786D6C8D50DB6E842010FD15C36B838268BC04D9D4F613FA0304675DB22B182E4D3FBFB0DAA47DEBCBCCE45C3227875FBEB647F109CE6B6B26444B820A30CA2EDAAC138AE18A7B545C0477D6865F
311
325418B9C184328C045F9D8DFB09296B0298905063173841E93D0454A8473A26E4D50D3659CA1892C2DFCB5DAABB5CA1A465A2934E701F5C0A501C4FF244C281B7D129F0BC3A58C163D4CBA9D14BFAA9AF1A1C12F54C1B4AC81BEEC93BC5CD30533C744D8BEB573AF7351B6636535E65B3E0416F3F1995031960497E421926
311
2DA6DD07E9C69A8DAC7E21EDC808AFB2FC8F29EECB3F4D519BC0EA33EE61F348E4204F42F02AF795D6B3CCB473B7E21B504B010214000A0000080000F03AB1423DEE336E79000000790000001B00000000000000000000000000000000006175746F6465736B2D64657369676E2D7061636B6167652E786D6C504B01021400
311
140006080800F03AB142D486FD9CA0000000F40000001300000000000000000000000000B20000005B436F6E74656E745F54797065735D2E786D6C504B01021400140006080800F03AB14235CDB356E70000007C010000080000000000000000000000000083010000636F72652E786D6C504B01021400140006080800F03A
311
B14255019EA25F0000007C000000070000000000000000000000000090020000636E782E786D6C504B01021400140006080800F03AB1429E8C1DD563010000020300000C00000000000000000000000000140300006662782F636F72652E786D6C504B01021400140006080800F03AB1422A7D02107E0000009D0000000B00
311
000000000000000000000000A10400006662782F636E782E786D6C504B01021400140006080800F03AB142B60118882C010000140200003100000000000000000000000000480500006662782F46313336374435382D363143322D344644322D393832322D3836414345303132393231462F636F72652E786D6C504B010214
311
00140006080800F03AB142922D33204F010000330300003000000000000000000000000000C30600006662782F46313336374435382D363143322D344644322D393832322D3836414345303132393231462F636E782E786D6C504B01021400140006080800F03AB1429CF3D15EA30500008110000034000000000000000000
311
00000000600800006662782F46313336374435382D363143322D344644322D393832322D3836414345303132393231462F6F626A656374732E786D6C504B01021400140006080000F03AB1420000000000000000000000003500000000000000000000000000550E00006662782F46313336374435382D363143322D344644
311
322D393832322D3836414345303132393231462F76657274696365732E62696E504B01021400140006080800F03AB142F270F13306000000040000003600000000000000000000000000A80E00006662782F46313336374435382D363143322D344644322D393832322D3836414345303132393231462F747269616E676C65
311
732E62696E504B01021400140006080000F03AB1420000000000000000000000003700000000000000000000000000020F00006662782F46313336374435382D363143322D344644322D393832322D3836414345303132393231462F617474726962757465732E62696E504B01021400140006080800F03AB142D5987DFC8F
311
000000410100003600000000000000000000000000570F00006662782F46313336374435382D363143322D344644322D393832322D3836414345303132393231462F6469726563746F72792E786D6C504B01021400140006080800F03AB142EAA379EEFA000000A00100003B000000000000000000000000003A1000006662
311
782F46313336374435382D363143322D344644322D393832322D3836414345303132393231462F7265736F75726365732F636F72652E786D6C504B0506000000000E000E00800400008D1100000000
310
504B03040A0000080000F03AB1423DEE336E79000000790000001B0000006175746F6465736B2D64657369676E2D7061636B6167652E786D6C3C3F786D6C2076657273696F6E3D22312E302220656E636F64696E673D227574662D3822203F3E3C666F726D6174733E3C666F726D61743E687474703A2F2F736368656D612E
310
6175746F6465736B2E636F6D2F64657369676E2D7061636B6167652F323030393C2F666F726D61743E3C2F666F726D6174733E504B0304140006080800F03AB142D486FD9CA0000000F4000000130000005B436F6E74656E745F54797065735D2E786D6C7D8EC10E82300C865F65E91D8A1E8C310C0EEA1BF002731658846E
310
D98AC1B77784ABF1D8FE5FBFBF75BBCE937A534CCEB38643598122B6FEE978D0B0485F9C41B54DDD7D022595594E1A469170414C76A4D9A4D207E29CF43ECE46F218070CC6BECC4078ACAA135ACF422C856C0E68EA1BF5669944DDD7BCDE7B1F8E415D77AECB980613C2E4AC91FC167A2B244592486606FC29C8FD7F045B9A
310
EF7053A7E60B504B0304140006080800F03AB1424BD7BF87EC0000007C01000008000000636F72652E786D6C8D904D6EC3201085AF82D856D8FCD8716C612291B627E8051010172506CB40D5E317278ED4EEBA9AD19BF7CD8C1E3F7DCF37F065D7E8821F21A93004D6EB609C9F4698D3051D213809BE86907ED920F06AB623
310
DC6428F8B486BCEC920E3E599F8AEA83B1BBA862B409027D2BCD08A3FEB4B3AA544EC511AFD5A2F4554DB622CFAEC0393B031E479C29FBDCC5D9158AA6EFDE7B4A0EE8D0CB1635AF6F4724256D119367499AE399B24EF27A83054F6E7EDED7AB55C91A2828260CE11691EE0377036503A32FB81D18E6F566FF03E5C5FC13CA
310
CE2746F7771F5884829447EE03C1EB2D8B52EE4195BAE5267E00504B0304140006080800F03AB14255019EA25F0000007C00000007000000636E782E786D6C4DCB3B0E80201045D1AD90E915ED2CF8AC45050C11660C8261F98AB1B07AC9C97D42D718D865D3E909258CFD00CCE24AC6E326A164D74DC0B4128928FF326038
310
472BA13128B1252AC747C6BAB984FC68F0B87FE8960A5C09FE86CFB69FBA01504B0304140006080800F03AB1422F56E6C367010000020300000C0000006662782F636F72652E786D6C8D525B6E833010BC8AE5DFCA98675E328E44DA9EA01770C0A156C046C646397E9747445345518564AC999DDDD90176BCB50D1AA4ED95
310
D1398E821023A94B53295DE7D8BB0BD96174E4CC1AE37E9561A4452B733CC298B3DA1ADF2D5069B493DA01AA4D251750F4BD7418950D5C72DC97DFB21581F00E2AFA6BD089F22A6A194401D050C759EF2C1840F390F1C4FC72BE313AE39C79AFAA8555154C5317252DE6E97EFBB98FA30DD9EC8B8CA4EF1F3B5214714692E2
310
5444E9EE1427DB82D151CC9953EDDD5D69A570B2C23C0EA384841989B65FE1F6102787247E0BB34312323A963F887C57FD53E4957649BCD89D653DE6111899883FDB42440EF562003F94333A8608AF29E1C7A0211008D9897373DFE30AD0204B676C0A4C65FC4A0DA2F112A686687A189D59E83C3580CD9EF6895FF479DD03
310
3EA0D03558130EAE67EFC6E96C9EBA44D1494B067743DAD85634ABB9D9E27AAE839ECA4BD318FB1F355D56A54B9874FC7BF90F504B0304140006080800F03AB1429948495D7E0000009D0000000B0000006662782F636E782E786D6C4DCCD10A83201886E15B91FFDCA54BDD0435D6B0FB886511990EA76397BF1A1DECE883
310
878F57359FD5A3B74BAF39060DF44400B9F088C31C260D258FF80AA8312AC598FF6E8042BF3A0D3B8351538AE579D0E0C6BEF8BCA99FC37260CDA9ECAC60585E5A8259DB117C63678B25258289BBE0B6E6501955FD4ADBEE61F305504B0304140006080800F03AB142407F6D7E2B01000014020000310000006662782F3335
310
3139464536342D393742302D344246302D413432452D3931303634364336354533352F636F72652E786D6C8D515B6EC32010BC0AE22B55651B8C8D930813355572825E8000495062B07854397E71ED48ED5F7E58343B333BDA65BBC77007DFDA07E36C0F718920D0563A65ECA587299E8B35043BCEBC73F10F0D022B06DDC3
310
09869C5DBC4BE3024967A3B631A3D629BD8022041D2190F7FCE96190573D8852A49819E1568E42DEC44597B8CCEDCCE32C449F038079C8F4424E5ABC391E68536CBA3D2A9AFD11151F4D7D283618D1867ED2F6405A56CD42CE52326A911B95E398B3D1FE559349CC5934C333BEF45A44AD20AF1126056A0BDC7DA16E5B932D
310
A9DF51BB25885513FD9F288DEA45513236927A893BCB02E49855738333E5D2E9FE0CA31FA3F3114CF35641CB37C8518930EEBA764D593553F302B2276D16CF109DCF0B5EDD4E994D1663DA70564D37CAE5F780B94EF7E43F504B0304140006080800F03AB142F48AFC375501000033030000300000006662782F3335313946
310
4536342D393742302D344246302D413432452D3931303634364336354533352F636E782E786D6CBD93CD6EC32010845F0571ADFC9F3F4598483DF4097AE815C3A6A1C16001AE9AB7EF929034971C2A55BD206B7698597DC26CF7351AF2093E68677BDA94352560A553DABEF7748EFB6243C98E33EF5CBCB35162C5083D4D32
310
E5ECDDBB79CA9282BD984D44D5687BCCA287E0662F21A09C6E12E3A4301800B69851847100A540919B11BFF6E071151487138907202FCF6FC40D1F206360554AE1AC4A1D9CA53337DD9928914684D0D3200F308A52CCD12908C7528928CAA6BC763DD8E92789A40BD7CAD96B92CA7B9A4ECAF346257264150E390BD123BD6C
310
8AA7092817D364B41411215767E3C5C3D9AC6D5C2DB25723788FEEAE5D6D3618769E7116F508D9213D88088AF2B66EBAA25E16CDFAB55E6FDB6EDBB54FF572DBD5AC4A76CE06E74CBE8431E0DD44A4B3116CA4BC61551A3FC2977D44698FAC9D3FFD022402C8AD173AB78CBFE4D3ACBAC5E21FF954E7F78DB83CFE05FC1B50
310
4B0304140006080800F03AB142690C47DF620700009A1B0000340000006662782F33353139464536342D393742302D344246302D413432452D3931303634364336354533352F6F626A656374732E786D6CED59DD73A33610FF5718FAD23E189BD8C9251D4227B1931BCF35D79BBA77D307CF3032C8448D108C2492B87F7D57
310
1F602026C1BDF4AD0F3620A4D5EE6F3FB504BF3C67D479C45C909C5DBABE37711DCCE23C212CBD744BB91D9DBBCE2F61C0F35C36A6B90E4319BE74D5B01B0629CFCBC20E25788B4A2A3BA3B7D77F3A22C60CBB4E4C911097AE88EF71863C54CA3CC1E2C14B90445EBA7DF67CCF4C6C934D392AEE3B440BC43193C0298C33A0
310
E218A6FCF6E3C41D87C158BD0F03F56F674D07CD9AF5CF1A6BA9DB5C12262462F10B963A64A683589AFAB3C5CDC9E9C5E874369B8E666727FEE8FAF67A31F23F4C27F3B3F9FCE2EAE602D8DBE439B53225B8C02C01FDEDDCD00FC6EA4D2DBA45E010D771CE188E3590009516AB4B9060015B35E09BB41F7D2551E3B596B0F1
310
3C53EF2D0B8DE1699B4ADFAC6140B4E8822076BB4AE2EADA942FDFFC05828B2146C90596C0AD901CB46BE1E1E0156E3809C666340C367B5D10E16448624E107528D970C4412930554D0903B3C09251CEC18194A324D09A33AFDBB6059EF9B6EB1CE2725B52AA3CC30DB56345E07E580ACD19F91BF33DF74D64802790B6244C
310
9E5B2EE5AEC06E78118CF56018A8CBF4C4BE34403A5B8A52A111316F3B82CE95EB2F176EF8E976F3BC52E1E0F0E605CF0BCCA5323AA547CD1718B2BD2A94ECB6FE20CDA905208C01D5AEDC83F23B20FF19A2C79E15D01B27CFB3E7999D2B3962629BF30C74E34C9CD104FE268EAFFFD57DE32E18D78BDBDAEBC313DC544175
310
FEFD78B665D05859FE1B7086C123187CCEA7F6D52A4614ECF98E300048198943731882D0BEDD3CBBE1120227047A588568E883C8C0EE23DC06634B66AF95CABDACD73140D4EE311DA224804D5B24B0D1A3A78F903D3889F76A6A8AD807EFE9BB98EBD562F56955F22D8AF19DF5E905DE12462464CDC30CB5306F49F480774F
310
394F40D09778AF9A7867762B01682BCC15F06905827AD8EFDCDA20867569AEC24DF0C60E2084CAD50DFA7744C49852C4705E56FBD6D14D196AEDF1B66670C31303F1F4A463C21C3F12555580D3EC67B41885BC1F73522810DDF0A391AC0E9A5E8F745F979FC122EBF93DB3960C422F43F40F1DB40EE0D0B2EC0A690B442DF0
310
661FCEE39CE63CDAEC2213E95CA825808DB6B77C6B1185586F94A4A8800769BFAB424A6AA48D12B2DD9602E2EA0116BF2DE74D73987853FFD469FE779C7106D1167C1771EB779D3D2292A114475B94F46DD7DCADA62D34C91ED21C6F29C8451E89DC4548469304A7C7407314F18B77A59ED25C08C2B0807C7510FC261A130F
310
0289D166C5B2D26A076822A20C4B448F414091E90157A71D5DE3C6503ABCCD636DBDAF69AC49F43FB2088EA096CC5944A014851CF226E3BE770A31A48DAE41B9832F585B455B8B414B2821E25DF484497A2F8F41DD90EFC13D86234929A3BC403198F500B22F7C4529B5C3FB06C50F2A7F447149DFCB4004A6DB88505A6611
310
FC088393C710D7AE03D3AB2834889BD8277106451992251FB2C9D9E9E4C53EA666E886C0C6465B42216C47192A7A506F05445D8F3835F8967A8F523765564428CB4B36C850BC69D79B2CF9AE5A15D981FCAA5211CAC68AB025180684C93AAB56311B4C5D075670231DA87691405941CD29EC8DC4E3D7DEA429F76EC0AD9FBE
310
EF0619147E3DDA6B46D4590583E5B15518882724E37B375CE9EBE81AEAEF0427FB545FD59ACD0A10105391BCE4C4AAE8EB12CA1B5BA3B9E11D9262FDD164DDEAFA75E941F72318C31AA85DEA854B0574869944AA32B95337F4770421B845C38C2F554E3D86CA5592E8AA11D15BD2A7CE5619D1DA34235E718F599EC18FAD09
310
8B6999E0354AC443742769B4228A752BA597910AE35705FCEDE3AA030F8C0C10E98B2AF0F05367AD1D9DAB72E92011795F661B860804C19668A9D18D57B0D46AA4D2727D55670AA8BBC0C0AC8A67FF9F2C9AED88FF4F16A9358CEF3A595CEF7E45BB665FA491CE6365D7471D03EAFCA4A8BCC73140B71D6AAA751631C9DCCA
310
6F9D2982A05845F9C1D55815340CC13E8EFF75D6EECB8266BB0EFFC7656DFF45C5715456694D565DAA0395EBB299C316B39B29F460AF4737FE293468FD9BD9E87C3EB9182D3EDC2E16B3F3C9D9C5B4D693211E067530D3B90B9E4D50AB86D593C500BAB222A72481D37CE2A41862BE8433FD80F639CFB080E4D96C7627B629
310
3F60F5A3E9734AB4A1B8E2E41E4183980A48EB204619CBF6B8F303B426251CB42F5D681A790FF067ADD27520F35CBAD02A9024C6C2DB409B4935F4347148B93AF75B6210C8104B554A348BEAE77A95C2A615FEEB2943D28095ABD5C380C2AD80EE57AB43A179B33CC547095EB1E32009B79B5242B56664D90FD4C2E86DF6EA
310
37B251C21EECD6CFE0BAAF8BE57B7A4E0B91419F0C5E3502437524114F75BF5B316659BA5A7C19439FCD59FEE614B44C4197C3298D3806632E5541055604566169164882A9CE7F5E7FE1397CE2C91C5D15393F3E9F9FFDB49EE759963333B4BE825359021F8A9CD53D7CF649D6503C60D55C17EB93897FB2D64D6DDB678F36
310
48604F5545305015134A908EC9815DBE6850D9F6E558A9A2337DB9706C10856680B1A3173D5EF391CB011F529F5394C7683FAFA47DB5AF3DD653C1263874A4C37F00504B0304140006080000F03AB142000000000000000000000000350000006662782F33353139464536342D393742302D344246302D413432452D393130
310
3634364336354533352F76657274696365732E62696E504B0304140006080800F03AB142F270F1330600000004000000360000006662782F33353139464536342D393742302D344246302D413432452D3931303634364336354533352F747269616E676C65732E62696E636660600000504B0304140006080000F03AB14200
310
0000000000000000000000370000006662782F33353139464536342D393742302D344246302D413432452D3931303634364336354533352F617474726962757465732E62696E504B0304140006080800F03AB142D5987DFC8F00000041010000360000006662782F33353139464536342D393742302D344246302D41343245
310
2D3931303634364336354533352F6469726563746F72792E786D6C858F410EC2201045AF4266AF15DDB800BA74E7C21B903225242D6328188F2FA5C4183471359997F9FF81E89FF3C41E1816475E02DF1F80A11FC8386F25A438EECEC07A250251FC3803E6F58C12560C4AD840E95E91C151A72936F496F35732D860FE635F
310
62C8F2DA16B505C545B74125BAA2FA9E05D7CC053D063734D5C7665FD55B6B8D15D5E9BFEAFD8490FFA45E504B0304140006080800F03AB142233DE2B6FE000000A00100003B0000006662782F33353139464536342D393742302D344246302D413432452D3931303634364336354533352F7265736F75726365732F636F72
310
652E786D6C8D50596AC33010BD8A99DF225B4B5CC74156C0697B825E40C8135724968296D2E3574E5C68FFFA3333BC85793C79FC5AAED5278668BD1B80D5142A74C64FD6CD03E474267BA88E4A06EFD32F19544E2F38C00A839273F0F9B641C6BB842E15D4F9093750C788092A732DC700D17CE0A26B9D5351C44B7DD3E6A2
310
67AC595DE8A25332A65002548F27EB041530FA1C0C46D93C582573B6D3A6B153F969CF1603A85DDFBDF59CB5E4B91F5BB27B79DD9371E42D11E36964BBFD898B6E94CD6A5632D9E527A309A8134EA0386582D096B0EE9D76072E0E823FD1F620A86C56F91F53BE4DFF3465EB92E05BDC872D826225C89D50B259FB2AEB5E66
310
D96BB7EA1B504B010214000A0000080000F03AB1423DEE336E79000000790000001B00000000000000000000000000000000006175746F6465736B2D64657369676E2D7061636B6167652E786D6C504B01021400140006080800F03AB142D486FD9CA0000000F40000001300000000000000000000000000B20000005B436F
310
6E74656E745F54797065735D2E786D6C504B01021400140006080800F03AB1424BD7BF87EC0000007C010000080000000000000000000000000083010000636F72652E786D6C504B01021400140006080800F03AB14255019EA25F0000007C000000070000000000000000000000000095020000636E782E786D6C504B0102
310
1400140006080800F03AB1422F56E6C367010000020300000C00000000000000000000000000190300006662782F636F72652E786D6C504B01021400140006080800F03AB1429948495D7E0000009D0000000B00000000000000000000000000AA0400006662782F636E782E786D6C504B01021400140006080800F03AB142
310
407F6D7E2B010000140200003100000000000000000000000000510500006662782F33353139464536342D393742302D344246302D413432452D3931303634364336354533352F636F72652E786D6C504B01021400140006080800F03AB142F48AFC3755010000330300003000000000000000000000000000CB0600006662
310
782F33353139464536342D393742302D344246302D413432452D3931303634364336354533352F636E782E786D6C504B01021400140006080800F03AB142690C47DF620700009A1B000034000000000000000000000000006E0800006662782F33353139464536342D393742302D344246302D413432452D39313036343643
310
36354533352F6F626A656374732E786D6C504B01021400140006080000F03AB1420000000000000000000000003500000000000000000000000000221000006662782F33353139464536342D393742302D344246302D413432452D3931303634364336354533352F76657274696365732E62696E504B010214001400060808
310
00F03AB142F270F13306000000040000003600000000000000000000000000751000006662782F33353139464536342D393742302D344246302D413432452D3931303634364336354533352F747269616E676C65732E62696E504B01021400140006080000F03AB14200000000000000000000000037000000000000000000
310
00000000CF1000006662782F33353139464536342D393742302D344246302D413432452D3931303634364336354533352F617474726962757465732E62696E504B01021400140006080800F03AB142D5987DFC8F000000410100003600000000000000000000000000241100006662782F33353139464536342D393742302D
310
344246302D413432452D3931303634364336354533352F6469726563746F72792E786D6C504B01021400140006080800F03AB142233DE2B6FE000000A00100003B00000000000000000000000000071200006662782F33353139464536342D393742302D344246302D413432452D3931303634364336354533352F7265736F
310
75726365732F636F72652E786D6C504B0506000000000E000E00800400005E1300000000
  0
XRECORD
  5
17
102
{ACAD_REACTORS
330
12
102
}
330
12
100
AcDbXrecord
280
     1
270
     1
271
     1
  0
XRECORD
  5
16
102
{ACAD_REACTORS
330
12
102
}
330
12
100
AcDbXrecord
280
     1
270
     1
271
     1
  0
XRECORD
  5
18
102
{ACAD_REACTORS
330
12
102
}
330
12
100
AcDbXrecord
280
     1
270
     1
271
     1
  0
XRECORD
  5
15
102
{ACAD_REACTORS
330
12
102
}
330
12
100
AcDbXrecord
280
     1
270
     1
271
     1
  0
XRECORD
  5
1593
102
{ACAD_REACTORS
330
22
102
}
330
22
100
AcDbXrecord
280
     1
102
MATERIAL
148
0.0
149
0.0
149
0.0
 93
        0
 94
      127
282
     0
 72
     0
 77
     0
171
     0
175
     0
179
     0
273
     0
  0
XRECORD
  5
24
102
{ACAD_REACTORS
330
22
102
}
330
22
100
AcDbXrecord
280
     1
270
     1
271
     1
  0
XRECORD
  5
23
102
{ACAD_REACTORS
330
22
102
}
330
22
100
AcDbXrecord
280
     1
270
     1
271
     1
  0
XRECORD
  5
BA
102
{ACAD_REACTORS
330
22
102
}
330
22
100
AcDbXrecord
280
     1
 70
     1
 90
1959938040
 71
     1
  1
5E61CA4B-1540-44C0-BBCB-4C97326D4080
311
504B03040A0000080000EE3AB1423DEE336E79000000790000001B0000006175746F6465736B2D64657369676E2D7061636B6167652E786D6C3C3F786D6C2076657273696F6E3D22312E302220656E636F64696E673D227574662D3822203F3E3C666F726D6174733E3C666F726D61743E687474703A2F2F736368656D612E
311
6175746F6465736B2E636F6D2F64657369676E2D7061636B6167652F323030393C2F666F726D61743E3C2F666F726D6174733E504B0304140006080800EE3AB142D486FD9CA0000000F4000000130000005B436F6E74656E745F54797065735D2E786D6C7D8EC10E82300C865F65E91D8A1E8C310C0EEA1BF002731658846E
311
D98AC1B77784ABF1D8FE5FBFBF75BBCE937A534CCEB38643598122B6FEE978D0B0485F9C41B54DDD7D022595594E1A469170414C76A4D9A4D207E29CF43ECE46F218070CC6BECC4078ACAA135ACF422C856C0E68EA1BF5669944DDD7BCDE7B1F8E415D77AECB980613C2E4AC91FC167A2B244592486606FC29C8FD7F045B9A
311
EF7053A7E60B504B0304140006080800EE3AB142AF11CE9CEA0000007C01000008000000636F72652E786D6C8D90416EC3201045AF82D856D880B1EC5898286E9413F40208888B128365A0EAF10B8923B5BBAE66F4E7BF99D1E7C7EFE50EBECC16AC7723241586C038E5B575F30853BCA21E82A3E09BF7F1970D02271733C2
311
2243C1E7CDA775979477D1B89855E7B5D94519828910A87B6E4618D4A759642553CC8E70AB56A96E7236157975194EC96AF03C6275DE67AFD66C50503C31726E7B34B513438CF50CF5ED89227CB99CCE5DD7BC1F3AC6EB020B1EEDF2BAAF3623A3D185270DC22D22DD07EE06DA0CF4F086DBA1C1BC2EF63F505AF53FA1645D
311
6CE8FEEE130B5090FCC86320785DB2C8E51154AE2537F103504B0304140006080800EE3AB14255019EA25F0000007C00000007000000636E782E786D6C4DCB3B0E80201045D1AD90E915ED2CF8AC45050C11660C8261F98AB1B07AC9C97D42D718D865D3E909258CFD00CCE24AC6E326A164D74DC0B4128928FF326038472B
311
A13128B1252AC747C6BAB984FC68F0B87FE8960A5C09FE86CFB69FBA01504B0304140006080800EE3AB1428F9BA81866010000020300000C0000006662782F636F72652E786D6C8D52ED8A8330107C9590BF87C64FEC9598D25EE913DC0BA49A7AA19A483EA48F7FEB47F17A945284186676766747E9EED6B56810C64AAD4A
311
1C8711464255BA96AA29B177976083D18E51A3B5FB538691E29D28F10863461BA37DBF4095564E2807A8D2B558406EAD7018552D5C4A6CAB1FD1F1907B0715F61AF6BCBAF24684710834D4316A9D0103681E329E985DCE374A669C51EF65BDB0B28669F22285C12C890E597CCC37C1213F6441966DB26093EF93203A9DF6C7
311
A248BF3E8B8C9251CCA893DDDD5D650477A21EF5711A44791017DF51B14DD26DF2F911E5DB34A2642C7F10F9BE7E53E4A57269B2D89D6516B3188C4CC4BF6D2122872C1FC00F61948C21C26B4AF8316808044276FCDCDEF7B8023488CA699301536BBF52036FBD80A9119A1E4A66163A4F0D60B3A77D92177D5EF7800FC855
311
03D6B883EBD9BB713A9DA72E51F4C20483BB21A54DC7DBD5DC6C713DD7414FE5956EB579474D9655C9122619FF5EF60B504B0304140006080800EE3AB14262A2D0E57E0000009D0000000B0000006662782F636E782E786D6C4DCC410E83201445D1AD903F47B1526400182DBA0F53D1902234149A2EBFDA38E8E825272F57
311
B49FCDA1B7892F1BBC84AA20808CBF87D9FA55424E0BE6805A256208E9EF06C84F9B91703028B1C6909F27CD6699B24BBB3AEB1F276AA65933328A6F8DBE604A34C3BCBB76B8A6AC1A8691F684D7502A51FE4AFB1E61F505504B0304140006080800EE3AB14256AED2C32D01000014020000310000006662782F4436443637
311
4636342D433744322D343044362D384135412D3334363145454634423038332F636F72652E786D6C8D515B6EC32010BC0AE22B55651B6C8C930813A57572825EC0C1244189C1E251E5F885DA91DABFFCB068766676B4CB768FF10EBEA575CAE816E21C4120B53083D29716067FCED610EC38B3C6F83F3408743FCA16261872
311
76B1264C0B248CF652FB886A33C805EC9D931E02718F9F163A7195639FF7C14786BBE5532F6EFD45E6388FEDC8E3CC791B038079487A21EF68479B2325D967D39519411DCDD6FB7A9F5584E2C3E1483ED0BA62C52CE42C04352C7235C438EAACA47DD5248939F36A7CC61756F65E0E9097085719AA33DC7CA1665B56DB72F3
311
8EEA6D855891E8FF44611A5E1405A57D552E716799831CB3626E70369870BA3FC3C8C764AC0769DECA49F10639CA11C698E066C38A991A17103D29593C9D37362E78753B4536AE67634A382BD28D62F93D60ACE99EFC07504B0304140006080800EE3AB14298020BFF4F01000033030000300000006662782F443644363746
311
36342D433744322D343044362D384135412D3334363145454634423038332F636E782E786D6CD593BB6E032110457F05D146FBF2FA91582C9652E40B52A4C530B6895958F188E2BFCF6063C78D8B9469D0EACEE5DED111CB36DFA3215FE0837676A05DDD5202563AA5ED7EA029EEAA674A369C79E7E29D8D122B4618689629
311
677BEFD25424053B914C44D5687B2CA287E092971050CE37897152180C005B251461DC8252A0C8CD885F3BF0B80A8ADB138907206FAF1FC46D3F41C6C09A9CC259933B38CB6769BA3351228D0861A0411E6014B548D12908C75A8928EAAEBE763DD8E93789E40BD7CAE435C9E503CD27E565A31A39B206879C85E8915E31C5
311
D304948B69325A8A88909BB3F1E2E12C691B97F3E2D508DEA3BB5BF6F339869D679C453D4271480F2282A27CD6767DD52EAA6EF5DEAED6B37E3D7B796A17EBBE654DB673B675CE944B1803DE4D443A1BC146CA3BD6E4F1237CC54794F6C8DAF9D31F402280D27AA173CBF8CF7C9AF3FB465C1EFF02FE03504B030414000608
311
0800EE3AB1425973FA2FA305000080100000340000006662782F44364436374636342D433744322D343044362D384135412D3334363145454634423038332F6F626A656374732E786D6CAD57DB6EDB3810FD1541FBB2FBE08B6C254D168A8AD86E0AA3485BD448B10F060C4AA2146EA80B482A75F6EBF750A26E8E9D7A177D
311
B12C6A389C3973E642EFFD3EE5D6331592E5D98DED8CA7B645B3308F5896DCD8A58A4757B6F5DEF7449EAB9E986D6524A537B65EB67D2F11795998A588C6A4E4EA60F56EF19725439A51DB0A3991F2C696E1234DC998942A8FA87C1A4744917112EFC7CEB8161CAA4D04291E0F941644D04CC152AC67D062D54639C3D7A93D
311
F1BD89FEEE7BFAD748CD4F4B4D2A7F86E7B34C2A9285AF0E3B503377DCD587D9C5F5E8C275E723F772E68C16778BD5C879379F2E2F97CBEBDB0FD738582A014DC6124163DBFF086C040BBD49FDC9F74A96A9F9CC8898004D047D663A52B63FB31C6F52CBB4DE19278F991FE65946C30A2BA051F9675447B4A0598498332A61
311
590FA1E9F0D5D138F63ECFF5BB39B2BF7C1E02FD1D3D458DEDCDB36F691EFC0D17E4390C12926A06D6581A476BAE4E3B84833CE7E61B93564A14158C708BB34010F162FB10D522BE3750A3992C7436680F6C1F51A83F0FE98234FA39CF8F5919979C6B1ADB7E95053BE40A55B2B28CFD4345677D1F19D8845869365C1987D4
311
4B416DFFBAA6C8D5019B6A20AD98930421879B7AE77C76E0E852E7E97A65FB9FEE82FD46E7EEF1C30B911754284D1F50AB095CF3D428199B9CB322A737D807A674A07C03F29F91EA9D29889B607B77EF9A539420998C73912236D6D41A4DF133B59CEA57FFEFFDF326EDE661F44EE189606BA87E019E431FFAB1ECC1E97BCF
311
207C2EE6C6B54D4838CAC63DCB00902689C5732CA10EC7C1DEF6D7A872A8CAD845B8EFC06598FB8CBFDEC4A841A1A84EEA3D3360795016CF28D080AD6224CCA8C96F0CECE2F4AA9C55071BB153F05EFC12BADEAE369F36A5884948EF4D4EAF68CC32A6D0E23ADEF40D1A603EF0E889BEFCC84504475FE3BDE9E39D9AA324D0
311
D6986BE093A6A6EB97EEE4C10121F625B92E37DE4F4E8013BAB1F6F4DF331952CE4946F3B239F7CDFE81B65143AC935D33B96D305D630169EA2F073988261D0A566810DB6ED516CDF109EF1ED69FC148C8F33C20BC130ABAD21BE63C17BBE0655757A5A3487F1F52DB4030D15AC0F62A479AF43798EF2216C7A5440D3C02EB
311
F7F5B21F3A5D1550211AAD75B2B8701FB94584E16CA317CD5A1034D23CDB31B44DA4DDD103FAFA81A82140A5F094C592F278C7382FD35DCC389AD12E25C50938FEBFFD4199163B92E665A64EE81E988EE630B47D405EF983A8F0D1F637D573B440E98D68D4857920AC5BC911AC06A1BDF870E92C6FDDC5C8B970A723D75D4E
311
478BC572317297D7EFE6B3CB953BBDEA2CAA6628DF6B3A4D3FA111257436AF14CC84EF618DF43135C0F6EF8992DB8F757636CF87F518A3B037C11EB4CB76E36DF48CB18F463F57D0491E55B44E0B4E539A29A253E85EFFE1DF08C68C8131F5FA3A25093D43CB978F9B0367B072C6BEAF3ADDE98F83BD6675A913F2A812F558
311
A64146183FD898D4488E8B2C31F83531699F759F695EF59B090C0653997316A10C465642F3942A14C3337A9048A904F5FA237D64AE1E67EC7EAE074445024E1B4B1E0966642E9116E06D19AAE1BAF51B663A3D56DDD8E8B6E327FC984A615BE0CC8D8D195DB190CA7180FEAC27A14A39B8D41FE4C15992251CA376BDA97D6F
311
77696C061DB91539677C327ED515DC38803252606CC03C84E854C6F85E659BF91EFE27C71B732CA2F0372855EB4BB7D03A531D8314AD9D329705CC304FE6E83D12F56DB79C71253340E4AC4BD69B24A8B58E1411497551D0F619936E575F271850ACF517ABE06582589EAF692428C85CEA04078BC00AA3B3200A545DFEB9FD
311
2A725C6453EB8E8102D6EFFBABCB3FB6CB3C4DF3AC5EDADE9AEBB0B579C4E536DAA238507D2B91DBD9D4996DABDB80B9A0EC0222E99844F2090B88AC602DD083F08397F595117DA8FED0CA4D74280E18BA5E59A6B1B9506AE8D2AFAD1A1CCC1D19B59043FA46A933A62F50BC79219854A230416094F7FF05504B0304140006
311
080000EE3AB142000000000000000000000000350000006662782F44364436374636342D433744322D343044362D384135412D3334363145454634423038332F76657274696365732E62696E504B0304140006080800EE3AB142F270F1330600000004000000360000006662782F44364436374636342D433744322D343044
311
362D384135412D3334363145454634423038332F747269616E676C65732E62696E636660600000504B0304140006080000EE3AB142000000000000000000000000370000006662782F44364436374636342D433744322D343044362D384135412D3334363145454634423038332F617474726962757465732E62696E504B03
311
04140006080800EE3AB142D5987DFC8F00000041010000360000006662782F44364436374636342D433744322D343044362D384135412D3334363145454634423038332F6469726563746F72792E786D6C858F410EC2201045AF4266AF15DDB800BA74E7C21B903225242D6328188F2FA5C4183471359997F9FF81E89FF3C4
311
1E1816475E02DF1F80A11FC8386F25A438EECEC07A250251FC3803E6F58C12560C4AD840E95E91C151A72936F496F35732D860FE635F62C8F2DA16B505C545B74125BAA2FA9E05D7CC053D063734D5C7665FD55B6B8D15D5E9BFEAFD8490FFA45E504B0304140006080800EE3AB1425F705AECFD000000A00100003B000000
311
6662782F44364436374636342D433744322D343044362D384135412D3334363145454634423038332F7265736F75726365732F636F72652E786D6C8D504B6E833010BD0AF2B632D8600441C651689413F4029699102BC146FE543D7EED844AEDAE9B99D1FB689E1E3F7EAD8FE2139CD7D68C8896041560949DB5594614C315
311
F7A8380AEEAC0DBF64A830728511651809BE381BB71D52D6043021A1C6CEB083D27B08A8508F748CC8AB1BACB294312485BF979B5477B94049CB44279DE03EB814A0783DC9130907DE46A7C0F3EAC50A1EA39E778D9ED34F7DD5E090A8C9C4E8B9EDF0D44E0C33D633DCB7A71A93CBE574EEBAE6FDD0315E65B3E041AF3F19
311
95031960CE7EDA60D262DA7D906EA89BA13EBC91766808AFB2FC8F296EF33F4D519BD0D47BDC97CD2341539027217895FB4AEB5966DAB95BF10D504B010214000A0000080000EE3AB1423DEE336E79000000790000001B00000000000000000000000000000000006175746F6465736B2D64657369676E2D7061636B616765
311
2E786D6C504B01021400140006080800EE3AB142D486FD9CA0000000F40000001300000000000000000000000000B20000005B436F6E74656E745F54797065735D2E786D6C504B01021400140006080800EE3AB142AF11CE9CEA0000007C010000080000000000000000000000000083010000636F72652E786D6C504B0102
311
1400140006080800EE3AB14255019EA25F0000007C000000070000000000000000000000000093020000636E782E786D6C504B01021400140006080800EE3AB1428F9BA81866010000020300000C00000000000000000000000000170300006662782F636F72652E786D6C504B01021400140006080800EE3AB14262A2D0E5
311
7E0000009D0000000B00000000000000000000000000A70400006662782F636E782E786D6C504B01021400140006080800EE3AB14256AED2C32D0100001402000031000000000000000000000000004E0500006662782F44364436374636342D433744322D343044362D384135412D3334363145454634423038332F636F72
311
652E786D6C504B01021400140006080800EE3AB14298020BFF4F010000330300003000000000000000000000000000CA0600006662782F44364436374636342D433744322D343044362D384135412D3334363145454634423038332F636E782E786D6C504B01021400140006080800EE3AB1425973FA2FA305000080100000
311
3400000000000000000000000000670800006662782F44364436374636342D433744322D343044362D384135412D3334363145454634423038332F6F626A656374732E786D6C504B01021400140006080000EE3AB14200000000000000000000000035000000000000000000000000005C0E00006662782F44364436374636
311
342D433744322D343044362D384135412D3334363145454634423038332F76657274696365732E62696E504B01021400140006080800EE3AB142F270F13306000000040000003600000000000000000000000000AF0E00006662782F44364436374636342D433744322D343044362D384135412D3334363145454634423038
311
332F747269616E676C65732E62696E504B01021400140006080000EE3AB1420000000000000000000000003700000000000000000000000000090F00006662782F44364436374636342D433744322D343044362D384135412D3334363145454634423038332F617474726962757465732E62696E504B010214001400060808
311
00EE3AB142D5987DFC8F0000004101000036000000000000000000000000005E0F00006662782F44364436374636342D433744322D343044362D384135412D3334363145454634423038332F6469726563746F72792E786D6C504B01021400140006080800EE3AB1425F705AECFD000000A00100003B000000000000000000
311
00000000411000006662782F44364436374636342D433744322D343044362D384135412D3334363145454634423038332F7265736F75726365732F636F72652E786D6C504B0506000000000E000E0080040000971100000000
310
504B03040A0000080000EE3AB1423DEE336E79000000790000001B0000006175746F6465736B2D64657369676E2D7061636B6167652E786D6C3C3F786D6C2076657273696F6E3D22312E302220656E636F64696E673D227574662D3822203F3E3C666F726D6174733E3C666F726D61743E687474703A2F2F736368656D612E
310
6175746F6465736B2E636F6D2F64657369676E2D7061636B6167652F323030393C2F666F726D61743E3C2F666F726D6174733E504B0304140006080800EE3AB142D486FD9CA0000000F4000000130000005B436F6E74656E745F54797065735D2E786D6C7D8EC10E82300C865F65E91D8A1E8C310C0EEA1BF002731658846E
310
D98AC1B77784ABF1D8FE5FBFBF75BBCE937A534CCEB38643598122B6FEE978D0B0485F9C41B54DDD7D022595594E1A469170414C76A4D9A4D207E29CF43ECE46F218070CC6BECC4078ACAA135ACF422C856C0E68EA1BF5669944DDD7BCDE7B1F8E415D77AECB980613C2E4AC91FC167A2B244592486606FC29C8FD7F045B9A
310
EF7053A7E60B504B0304140006080800EE3AB142E99F0049EC0000007C01000008000000636F72652E786D6C8D90416E83301045AF62CDB632D8407041C6114DE8097A01CB38D44AB011B6AB1EBF262152BBEB6A467FFE9B197D7EFC9E6FE84BAFDE38DB01CD08206D951B8D9D3A88E1825F011D055F9D0BBF6C80AC9C7507
310
9B0C824FAB8BCB2E296783B621A9D68D7A17A5F73A0052B7D474E0D5A79E652663480E7FCD16A9AE72D2197D76098ED18CE871C48C699FB918BD8260F49D9E06DAE3BEE91B5C0DD580FBBA66F834D4AC666F25399F2B9E6FB0E0C1CCCFFB6AD532E81144416889C90153F641585B946DD1BC90435B129E6FF63F505CC67F42
310
D1D85016FBBB0FCC83A0E991FB40F07CCB22957B50A96EB9891F504B0304140006080800EE3AB14255019EA25F0000007C00000007000000636E782E786D6C4DCB3B0E80201045D1AD90E915ED2CF8AC45050C11660C8261F98AB1B07AC9C97D42D718D865D3E909258CFD00CCE24AC6E326A164D74DC0B4128928FF326038
310
472BA13128B1252AC747C6BAB984FC68F0B87FE8960A5C09FE86CFB69FBA01504B0304140006080800EE3AB142EC200A7669010000020300000C0000006662782F636F72652E786D6C8D525B6E833010BC8AE5DF0A8C818426328E68424FD00B38E05014B091B1518EDFE511D154515421196B66677776801D6E6D830669FA
310
5AAB14533FC048AA4297B5AA52ECECC57BC7E8C099D1DAFE2AC3488956A67884316795D1AE5BA0422B2B950554E9522EA0E87B69312A1AB8A4B82FBE652B7CE12C54F457BF13C55554D2A73ED050C7596F0D1840F390F1C4FC72BE3132E39C3957970B5B9730ADBED4D2609ED04F7ACC69E665BB6CE7C5799C7BD9769B78C7
310
7C9B6C938F28389D6246463167B66EEFEE0A23859525E66140232FD87834F90A927D18EDC3DD5BB0D947012363F983C875E53F45AE56360A17BBB3ACC79C829189F8B32D4464512F06F04338236388F09A127E0C1A028190AD3837F73DAE000DB2B0DAC4C094DAADD4201A27616A80A687919985CE5303D8EC699FF0459FD7
310
3DE0030A55813561E17A76769CCEE6A94B149D34DE606F4869D38A6635375B5CCF75D05379A11B6DFEA326CBAA6409938C7F2FFF01504B0304140006080800EE3AB14236C7A1337D0000009D0000000B0000006662782F636E782E786D6C4DCCD10E82201886E15B61FF3919AC3F39009C26DD874B742C0447D0BAFCB479D0
310
D1B73DFBF6CAE6B378F2B6E9E56250C04E6720363CE2E8C2ACA0E4890A208D9629C6FC77031286C52AD819B49C532CEB41A39D86E2F3A6DE85E781C8FBDB950BA468EE35BD20722AB06FA930AC4361EA163B069596D5AFB4ED1ED65F504B0304140006080800EE3AB1427EC7B6EE2C01000014020000310000006662782F35
310
324443363238352D354546372D343535322D383544412D3845314235384537413542312F636F72652E786D6C8D515B6EC32010BC0AE22B55850DD8D86E848992263D412FE0D8C44589C1E251E5F885DA91DABFFCB06876667660F9EE3EDDC0B7B44E19DD42926108A4EECDA0F4D8C2E02FA8816027B835C6FFA141A0BB49B6
310
30C150F0D19A30AF506FB497DA47549B41AE60E79CF410F4B77869A1EBBFE4D4655DF091E1AED9DCF5D76E9419C9623BF20477DEC6006019924E28183DBE57B461889D3E6A54324651C38E7BD49CC88135A77ACF0E84E78B50F010D4B0CAD510E3A88B92F659932416DCABE911BFB7B2F3728082625220CC10A93F71BDA5C5
310
96BEBD62B62D30CF13FD9F28CCC393A2A0B42FE81A77913928E26B9686E08309E7DB238CBCCFC67A90E66D9CEC5FA0C01926A4A65559F27CA1C60F889E55B97A3A6F6CFCE0CDF51CD9C56A5C9582E76947B1FC2E30D6B44FF103504B0304140006080800EE3AB142FEA5C4E85601000033030000300000006662782F353244
310
43363238352D354546372D343535322D383544412D3845314235384537413542312F636E782E786D6CBD93BD6E032110845F05D146F7EFBF581C9652E40952A4C5B0B68939380117C56F9FC5C68E1B1791A234E8343BCCAC3E716CF33518F2093E68677BDA94352560A553DAEE7B3AC55DB1A264C399772EDED928B162809E
310
269972B6F76E1AB3A4602726135135DA1EB3E821B8C94B0828A79BC438290C06802D261461D88252A0C8CD885F3BF0B80A8ADB13890720AF2FEFC46D3F40C6C0AA94C259953A384B676EBA3351228D08A1A7411E6010A598A253108EA51251944D79ED7AB0D34F124917AE9593D72495F7349D94E78D4AE4C82A1C7216A247
310
7AD9144F23502EC6D168292242AECEC68B87B349DBB89865AF46F01EDD5DBB58AD30EC3CE32CEA01B2437A101114E56DDD74453D2F9AE55BBD5CB7DDBA7D7EAAE7EBAE6655B273B675CEE44B1803DE8D443A1BC146CA1B56A5F1237CD94794F6C8DAF9D32F402280DC7AA173CBF84B3ECDA29BCDFE914F757EDF88CBE35FC0
310
BF01504B0304140006080800EE3AB142C638690661070000991B0000340000006662782F35324443363238352D354546372D343535322D383544412D3845314235384537413542312F6F626A656374732E786D6CED595B739B3814FE2B0CFBB2FB606C6292263B849DC4693A9E4EDA4EBDEDEC8367181964A28D108C2472D9
310
5FBF4717301093E06DF6AD0F3620A4A373BE73D521FCE331A7CE3DE68214ECDCF5BD99EB6096142961D9B95BC9EDE4D475FE88425E14B235CD7518CAF1B9AB86DD28CC7851957628C55B5451D91BBDBEFCCB110966D875128A84387745728B73E4A14A162916775E8A24F2B2EDA3E77B6662976CC65179DB235A228E99044E
310
619C0115C730E5771F67EE340AA7EA7D14AA7F3B6B3E6A56303C6BAAA5EE724998908825CF58EA91998F6269EE0757EF8F8ECF26C741309F042747FEE4F2FAF26AE2BF9BCF16278BC5D9C5FB33606F5314D4CA94E212B314F4F7E4467E38556F1AD12D02FBB84E0AC670A28104A8B4587D82040BD8AA05DFACFBE82B895AAF
310
B584ADE740BDB72CB486E75D2A43B3C601D1A10B82D8ED6A89EB6B5BBE62F337082EC61825175802B74272D0AE85878357B8D12C9C9AD128DCEC7441849323893941D4A164C31107A5C05435250ACD024B46390707528E92406BCEBCEEDA1678E6EBAEB38FCB6D45A9F20C37D28E1583FB61293467E41FCC77DCB791019E40
310
DA8A30796AB9944F2576A3B370AA07A3505DE647F6A501D2D95294098D8879DB1374A15C7F79E5461FAF378F2B150EF66F5EF2A2C45C2AA3537AD47C8121DBAB42C96EEB8FD29C5A00C21850EDCA1D285F01F94F103D76AC80DE38790C1E033B5772C4C4B6E039E8C699399319FCCD1C5FFFABFBD65D386D1677B5378427B8
310
A982EAF4C7F1ECCAA0B1B2FCB7E08CC27B30F882CFEDAB558228D8F30D610090321287163004A17DBB7974A325044E08F4B00AD1C8079181DD7BB80DA796CC4E2BB57B59AF6380A8DD633E4649009BB6486063404F1F207B7092ECD4D4167108DEE33731D78BABD5C755C5B728C137D6A7AFF0963022216BEE67A8837947A2
310
3BFCF450F014047D8EF7AA8D776EB71280B6C25C019FD520A887DDCE9D0D125897152ADC84AFEC0042A85CDDA27F43448229450C1755BD6F13DD94A1361E6F6B06373A3210CF8F7A26CCF13D51550538CD6E468751C8FB0927A502D18D3E18C99AA0E90D48F76DF9092CB2993F306BC920F43244FFD4416B0F0E1DCBAE91B6
310
4034026F76E13C2968C1E3CD536C229D0BB504B0D1F596EF1DA210EB8D921415F020ED777548C98CB4714AB6DB4A405CDDC3E2F7E5A26D0E336FEE1F3BEDFF9E3306106DC17711B77ED7DB232639CA70BC45E9D076EDDD1ADA42931C20CDF196825CE49EC8A718C97896E2EC10680E227EF6A6D4335A0841181690AFF682DF
310
4663E6412031DAAC59565AED014D449C6389E82108283203E0EAB4A36BDC044A87D7796CACF7258DB589FE4F16C111D492058B0994A290435E65DCF78E218674D13528F7F0056BAB696B3168052544F2143F6092DDCA435037E407704FE04852C9B8285102663D82EC335F514AEDF1BE41C99DCA1F7152D1B7321081E93626
310
9456790C3FC2E0E431C6B59BC0F4220A2DE226F6499C43518664C5C76C72723C7BB68FA919FA21B0B5D1965008DB718ECA01D43B0151D7234E03BEA53EA0D44D959731CA8B8A8D32146FDEF7264BBEAF56457624BFAA5484B2B1266C09462161B2C9AA75CC0653D78115DC4807AAA758A0BCA4E614F64AE2F11B6FD2940737
310
E0D64FDF76831C0ABF01EDB5236A50C36079EC1406E201C9E4D68D56FA3AB984FA3BC5E92ED5D7B566BB0204C45424AF38B12AFAB684F2C6D6686E7483A4587F3059B7BE7E5B7AD0FD08A7B0066A9766E152019D632691AA4C6ED40DFD8A2004776898F1A5CAA98750B948535D35227A4D86D4D929233A9BE6C42B6F312B72
310
F8B1356109AD52BC46A9B88B6F248D5744B16EA5F4725263FCA2809F3FAC7AF0C0C80891BEA8020F3FF4D6DAD1852A97F61291B755BE61884010EC889619DD7825CBAC466A2D375775A680BA0B0CCCAA38F879B268B7237E9E2C326B183F76B2A0C506D15DB46965F34499F541A780263D292A6F710AD05D87866A93444C2E
310
B7E25B5F8A2126D6417E743156C70C437088E3FF9CB48792A0D9AEC7FF6149DB7F56701C94543A9355936A4FE1BA6CA7B0E3F727FEE222B89CF8C7C16C12048BD9E4F2727139091667EFE6472757C1EC74C791F6D3286C62994E5DF06C625A3DAC9E2C06D094150525291CE65327C310F2251CE94774CF798E05E4CE76AF3B
310
B53DF911ABEF4D9B53A20DC53527B708FAC3544056078CAA4476C79D5FA03329E19C7DEE42CFC8BB833F6B95AE0389E7DC854E81240916DE06BA4CAA9FA78943C6D5A9DF12037C10CB5446348B9AE76695C2A613FD9B2963B28095ABD3C280BAAD84E657A741A179B33C2507095EB3E32009B79B4A42B16664D90D34C2E86D
310
76EA37B251C2EEECD68FE0BA2F8BE57B7A4E0791515F0C5E340243752211CF74BB5B316659BAB8FA3285369BB3FCEC94B4CA4097E3294D380663AE543D055604566169964882A92E7E5F7FE1057CE1C91D5D1439BF3E9E9EFCB65E14795E3033B4BE8043590ADF899CD52D7CF549D7503B60D55B17EBA3997FB4D63D6DDB66
310
8F3748604F15453050D7124A909EC9815D3EEB4FD9EEE554A9A2377D79E5D8200ABD006347CF5ABCE61B97033EA4BEA6288FD17E5E4BFB625B7BAAA7824D70684847FF02504B0304140006080000EE3AB142000000000000000000000000350000006662782F35324443363238352D354546372D343535322D383544412D38
310
45314235384537413542312F76657274696365732E62696E504B0304140006080800EE3AB142F270F1330600000004000000360000006662782F35324443363238352D354546372D343535322D383544412D3845314235384537413542312F747269616E676C65732E62696E636660600000504B0304140006080000EE3AB1
310
42000000000000000000000000370000006662782F35324443363238352D354546372D343535322D383544412D3845314235384537413542312F617474726962757465732E62696E504B0304140006080800EE3AB142D5987DFC8F00000041010000360000006662782F35324443363238352D354546372D343535322D3835
310
44412D3845314235384537413542312F6469726563746F72792E786D6C858F410EC2201045AF4266AF15DDB800BA74E7C21B903225242D6328188F2FA5C4183471359997F9FF81E89FF3C41E1816475E02DF1F80A11FC8386F25A438EECEC07A250251FC3803E6F58C12560C4AD840E95E91C151A72936F496F35732D860FE
310
635F62C8F2DA16B505C545B74125BAA2FA9E05D7CC053D063734D5C7665FD55B6B8D15D5E9BFEAFD8490FFA45E504B0304140006080800EE3AB14254566388FF000000A00100003B0000006662782F35324443363238352D354546372D343535322D383544412D3845314235384537413542312F7265736F75726365732F63
310
6F72652E786D6C8D504B6E833010BD0A9A6D65B08140898C239AD013F4029699102BC18EFCA97AFC9A844AEDAE9B99D1FB689E1E3F7C2DB7EC139DD7D6F4C0720A191A65276DE61E62389357C80E823B6BC32F1964462ED8C30A83E0B3B3F1BE41CA9A802624D4D80937507A8F0132754B470F5E5D7091B98C2129FC35BF4B
310
759533E62C4F74D209EE834B01B2E793758270E86D740A3D2F9EACE031EA69D3E829FDD4678D0E44CBDED971641D19BAA123F5588F64689A961CC7A66DDAB78A9E4E352F56B3E0412F3F19954319700251525611BA23ACFDA0EDBEACF665F74277FB8AF26295FF31C5FBF44F53D42654E516F769F320580AF220042FD6BED2
310
7A9499F6DAADF806504B010214000A0000080000EE3AB1423DEE336E79000000790000001B00000000000000000000000000000000006175746F6465736B2D64657369676E2D7061636B6167652E786D6C504B01021400140006080800EE3AB142D486FD9CA0000000F40000001300000000000000000000000000B2000000
310
5B436F6E74656E745F54797065735D2E786D6C504B01021400140006080800EE3AB142E99F0049EC0000007C010000080000000000000000000000000083010000636F72652E786D6C504B01021400140006080800EE3AB14255019EA25F0000007C000000070000000000000000000000000095020000636E782E786D6C50
310
4B01021400140006080800EE3AB142EC200A7669010000020300000C00000000000000000000000000190300006662782F636F72652E786D6C504B01021400140006080800EE3AB14236C7A1337D0000009D0000000B00000000000000000000000000AC0400006662782F636E782E786D6C504B01021400140006080800EE
310
3AB1427EC7B6EE2C010000140200003100000000000000000000000000520500006662782F35324443363238352D354546372D343535322D383544412D3845314235384537413542312F636F72652E786D6C504B01021400140006080800EE3AB142FEA5C4E856010000330300003000000000000000000000000000CD0600
310
006662782F35324443363238352D354546372D343535322D383544412D3845314235384537413542312F636E782E786D6C504B01021400140006080800EE3AB142C638690661070000991B00003400000000000000000000000000710800006662782F35324443363238352D354546372D343535322D383544412D38453142
310
35384537413542312F6F626A656374732E786D6C504B01021400140006080000EE3AB1420000000000000000000000003500000000000000000000000000241000006662782F35324443363238352D354546372D343535322D383544412D3845314235384537413542312F76657274696365732E62696E504B010214001400
310
06080800EE3AB142F270F13306000000040000003600000000000000000000000000771000006662782F35324443363238352D354546372D343535322D383544412D3845314235384537413542312F747269616E676C65732E62696E504B01021400140006080000EE3AB14200000000000000000000000037000000000000
310
00000000000000D11000006662782F35324443363238352D354546372D343535322D383544412D3845314235384537413542312F617474726962757465732E62696E504B01021400140006080800EE3AB142D5987DFC8F000000410100003600000000000000000000000000261100006662782F35324443363238352D3545
310
46372D343535322D383544412D3845314235384537413542312F6469726563746F72792E786D6C504B01021400140006080800EE3AB14254566388FF000000A00100003B00000000000000000000000000091200006662782F35324443363238352D354546372D343535322D383544412D3845314235384537413542312F72
310
65736F75726365732F636F72652E786D6C504B0506000000000E000E0080040000611300000000
  0
XRECORD
  5
27
102
{ACAD_REACTORS
330
22
102
}
330
22
100
AcDbXrecord
280
     1
270
     1
271
     1
  0
XRECORD
  5
26
102
{ACAD_REACTORS
330
22
102
}
330
22
100
AcDbXrecord
280
     1
270
     1
271
     1
  0
XRECORD
  5
28
102
{ACAD_REACTORS
330
22
102
}
330
22
100
AcDbXrecord
280
     1
270
     1
271
     1
  0
XRECORD
  5
25
102
{ACAD_REACTORS
330
22
102
}
330
22
100
AcDbXrecord
280
     1
270
     1
271
     1
  0
XRECORD
  5
158D
102
{ACAD_REACTORS
330
158C
102
}
330
158C
100
AcDbXrecord
280
     1
102
ACAD_ROUNDTRIP_2012_MLEADER_STYLE
298
     1
  0
CELLSTYLEMAP
  5
158B
102
{ACAD_REACTORS
330
158A
102
}
330
158A
100
AcDbCellStyleMap
 90
        3
300
CELLSTYLE
  1
TABLEFORMAT_BEGIN
 90
        5
170
     1
 91
        0
 92
    32768
 62
   257
 93
        1
300
CONTENTFORMAT
  1
CONTENTFORMAT_BEGIN
 90
        0
 91
        0
 92
      512
 93
        0
300

 40
0.0
140
1.0
 94
        5
 62
     0
340
55
144
0.25
309
CONTENTFORMAT_END
171
     0
 94
        0
309
TABLEFORMAT_END
  1
CELLSTYLE_BEGIN
 90
        1
 91
        1
300
_TITLE
309
CELLSTYLE_END
300
CELLSTYLE
  1
TABLEFORMAT_BEGIN
 90
        5
170
     1
 91
        0
 92
        0
 62
   257
 93
        1
300
CONTENTFORMAT
  1
CONTENTFORMAT_BEGIN
 90
        0
 91
        0
 92
      512
 93
        0
300

 40
0.0
140
1.0
 94
        5
 62
     0
340
55
144
0.18
309
CONTENTFORMAT_END
171
     0
 94
        0
309
TABLEFORMAT_END
  1
CELLSTYLE_BEGIN
 90
        2
 91
        1
300
_HEADER
309
CELLSTYLE_END
300
CELLSTYLE
  1
TABLEFORMAT_BEGIN
 90
        5
170
     1
 91
        0
 92
        0
 62
   257
 93
        1
300
CONTENTFORMAT
  1
CONTENTFORMAT_BEGIN
 90
        0
 91
        0
 92
      512
 93
        0
300

 40
0.0
140
1.0
 94
        2
 62
     0
340
55
144
0.18
309
CONTENTFORMAT_END
171
     0
 94
        0
309
TABLEFORMAT_END
  1
CELLSTYLE_BEGIN
 90
        3
 91
        2
300
_DATA
309
CELLSTYLE_END
  0
XRECORD
  5
15C4
102
{ACAD_REACTORS
330
158A
102
}
330
158A
100
AcDbXrecord
280
     1
102
ACAD_ROUNDTRIP_PRE2007_TABLESTYLE
 90
      512
 91
        0
  1

 92
      512
 93
        0
  2

 94
      512
 95
        0
  3

  0
XRECORD
  5
159F
102
{ACAD_REACTORS
330
159E
102
}
330
159E
100
AcDbXrecord
280
     1
102
RTVSPropertyOp0
 70
     1
102
RTVSPropertyOp1
 70
     1
102
RTVSPropertyOp2
 70
     1
102
RTVSPropertyOp3
 70
     1
102
RTVSPropertyOp4
 70
     1
102
RTVSPropertyOp5
 70
     1
102
RTVSPropertyOp6
 70
     1
102
RTVSPropertyOp7
 70
     1
102
RTVSPropertyOp8
 70
     1
102
RTVSPropertyOp9
 70
     1
102
RTVSPropertyOp10
 70
     1
102
RTVSPropertyOp11
 70
     1
102
RTVSPropertyOp12
 70
     1
102
RTVSPropertyOp13
 70
     1
102
RTVSPropertyOp14
 70
     1
102
RTVSPropertyOp15
 70
     1
102
RTVSPropertyOp16
 70
     1
102
RTVSPropertyOp17
 70
     1
102
RTVSPropertyOp18
 70
     1
102
RTVSPropertyOp19
 70
     1
102
RTVSPropertyOp20
 70
     1
102
RTVSPropertyOp21
 70
     1
102
RTVSPropertyOp22
 70
     1
102
RTVSPropertyOp23
 70
     1
102
RTVSPropertyOp24
 70
     1
102
RTVSPropertyOp25
 70
     1
102
RTVSPropertyOp26
 70
     1
102
RTVSPropertyOp27
 70
     1
102
RTVSPropertyOp28
 70
     1
102
RTVSPropertyOp29
 70
     1
102
RTVSPropertyOp30
 70
     1
102
RTVSPropertyOp31
 70
     1
102
RTVSPropertyOp32
 70
     1
  0
XRECORD
  5
159D
102
{ACAD_REACTORS
330
159C
102
}
330
159C
100
AcDbXrecord
280
     1
102
RTVSPropertyOp0
 70
     1
102
RTVSPropertyOp1
 70
     1
102
RTVSPropertyOp2
 70
     1
102
RTVSPropertyOp3
 70
     1
102
RTVSPropertyOp4
 70
     1
102
RTVSPropertyOp5
 70
     1
102
RTVSPropertyOp6
 70
     1
102
RTVSPropertyOp7
 70
     1
102
RTVSPropertyOp8
 70
     1
102
RTVSPropertyOp9
 70
     1
102
RTVSPropertyOp10
 70
     1
102
RTVSPropertyOp11
 70
     1
102
RTVSPropertyOp12
 70
     1
102
RTVSPropertyOp13
 70
     1
102
RTVSPropertyOp14
 70
     1
102
RTVSPropertyOp15
 70
     1
102
RTVSPropertyOp16
 70
     1
102
RTVSPropertyOp17
 70
     1
102
RTVSPropertyOp18
 70
     1
102
RTVSPropertyOp19
 70
     1
102
RTVSPropertyOp20
 70
     1
102
RTVSPropertyOp21
 70
     1
102
RTVSPropertyOp22
 70
     1
102
RTVSPropertyOp23
 70
     1
102
RTVSPropertyOp24
 70
     1
102
RTVSPropertyOp25
 70
     1
102
RTVSPropertyOp26
 70
     1
102
RTVSPropertyOp27
 70
     1
102
RTVSPropertyOp28
 70
     1
102
RTVSPropertyOp29
 70
     1
102
RTVSPropertyOp30
 70
     1
102
RTVSPropertyOp31
 70
     1
102
RTVSPropertyOp32
 70
     1
  0
XRECORD
  5
15AB
102
{ACAD_REACTORS
330
15AA
102
}
330
15AA
100
AcDbXrecord
280
     1
102
RTVSPropertyOp0
 70
     1
102
RTVSPropertyOp1
 70
     1
102
RTVSPropertyOp2
 70
     1
102
RTVSPropertyOp3
 70
     1
102
RTVSPropertyOp4
 70
     1
102
RTVSPropertyOp5
 70
     1
102
RTVSPropertyOp6
 70
     1
102
RTVSPropertyOp7
 70
     1
102
RTVSPropertyOp8
 70
     1
102
RTVSPropertyOp9
 70
     1
102
RTVSPropertyOp10
 70
     1
102
RTVSPropertyOp11
 70
     1
102
RTVSPropertyOp12
 70
     1
102
RTVSPropertyOp13
 70
     1
102
RTVSPropertyOp14
 70
     1
102
RTVSPropertyOp15
 70
     1
102
RTVSPropertyOp16
 70
     1
102
RTVSPropertyOp17
 70
     1
102
RTVSPropertyOp18
 70
     1
102
RTVSPropertyOp19
 70
     1
102
RTVSPropertyOp20
 70
     1
102
RTVSPropertyOp21
 70
     1
102
RTVSPropertyOp22
 70
     1
102
RTVSPropertyOp23
 70
     1
102
RTVSPropertyOp24
 70
     1
102
RTVSPropertyOp25
 70
     1
102
RTVSPropertyOp26
 70
     1
102
RTVSPropertyOp27
 70
     1
102
RTVSPropertyOp28
 70
     1
102
RTVSPropertyOp29
 70
     1
102
RTVSPropertyOp30
 70
     1
102
RTVSPropertyOp31
 70
     1
102
RTVSPropertyOp32
 70
     1
  0
XRECORD
  5
15B3
102
{ACAD_REACTORS
330
15B2
102
}
330
15B2
100
AcDbXrecord
280
     1
102
RTVSPropertyOp0
 70
     1
102
RTVSPropertyOp1
 70
     1
102
RTVSPropertyOp2
 70
     1
102
RTVSPropertyOp3
 70
     1
102
RTVSPropertyOp4
 70
     1
102
RTVSPropertyOp5
 70
     1
102
RTVSPropertyOp6
 70
     1
102
RTVSPropertyOp7
 70
     1
102
RTVSPropertyOp8
 70
     1
102
RTVSPropertyOp9
 70
     1
102
RTVSPropertyOp10
 70
     1
102
RTVSPropertyOp11
 70
     1
102
RTVSPropertyOp12
 70
     1
102
RTVSPropertyOp13
 70
     1
102
RTVSPropertyOp14
 70
     1
102
RTVSPropertyOp15
 70
     1
102
RTVSPropertyOp16
 70
     1
102
RTVSPropertyOp17
 70
     1
102
RTVSPropertyOp18
 70
     1
102
RTVSPropertyOp19
 70
     1
102
RTVSPropertyOp20
 70
     1
102
RTVSPropertyOp21
 70
     1
102
RTVSPropertyOp22
 70
     1
102
RTVSPropertyOp23
 70
     1
102
RTVSPropertyOp24
 70
     1
102
RTVSPropertyOp25
 70
     1
102
RTVSPropertyOp26
 70
     1
102
RTVSPropertyOp27
 70
     1
102
RTVSPropertyOp28
 70
     1
102
RTVSPropertyOp29
 70
     1
102
RTVSPropertyOp30
 70
     1
102
RTVSPropertyOp31
 70
     1
102
RTVSPropertyOp32
 70
     1
  0
XRECORD
  5
15A5
102
{ACAD_REACTORS
330
15A4
102
}
330
15A4
100
AcDbXrecord
280
     1
102
RTVSPropertyOp0
 70
     1
102
RTVSPropertyOp1
 70
     1
102
RTVSPropertyOp2
 70
     1
102
RTVSPropertyOp3
 70
     1
102
RTVSPropertyOp4
 70
     1
102
RTVSPropertyOp5
 70
     1
102
RTVSPropertyOp6
 70
     1
102
RTVSPropertyOp7
 70
     1
102
RTVSPropertyOp8
 70
     1
102
RTVSPropertyOp9
 70
     1
102
RTVSPropertyOp10
 70
     1
102
RTVSPropertyOp11
 70
     1
102
RTVSPropertyOp12
 70
     1
102
RTVSPropertyOp13
 70
     1
102
RTVSPropertyOp14
 70
     1
102
RTVSPropertyOp15
 70
     1
102
RTVSPropertyOp16
 70
     1
102
RTVSPropertyOp17
 70
     1
102
RTVSPropertyOp18
 70
     1
102
RTVSPropertyOp19
 70
     1
102
RTVSPropertyOp20
 70
     1
102
RTVSPropertyOp21
 70
     1
102
RTVSPropertyOp22
 70
     1
102
RTVSPropertyOp23
 70
     1
102
RTVSPropertyOp24
 70
     1
102
RTVSPropertyOp25
 70
     1
102
RTVSPropertyOp26
 70
     1
102
RTVSPropertyOp27
 70
     1
102
RTVSPropertyOp28
 70
     1
102
RTVSPropertyOp29
 70
     1
102
RTVSPropertyOp30
 70
     1
102
RTVSPropertyOp31
 70
     1
102
RTVSPropertyOp32
 70
     1
  0
XRECORD
  5
15A9
102
{ACAD_REACTORS
330
15A8
102
}
330
15A8
100
AcDbXrecord
280
     1
102
RTVSPropertyOp0
 70
     1
102
RTVSPropertyOp1
 70
     1
102
RTVSPropertyOp2
 70
     1
102
RTVSPropertyOp3
 70
     1
102
RTVSPropertyOp4
 70
     1
102
RTVSPropertyOp5
 70
     1
102
RTVSPropertyOp6
 70
     1
102
RTVSPropertyOp7
 70
     1
102
RTVSPropertyOp8
 70
     1
102
RTVSPropertyOp9
 70
     1
102
RTVSPropertyOp10
 70
     1
102
RTVSPropertyOp11
 70
     1
102
RTVSPropertyOp12
 70
     1
102
RTVSPropertyOp13
 70
     1
102
RTVSPropertyOp14
 70
     1
102
RTVSPropertyOp15
 70
     1
102
RTVSPropertyOp16
 70
     1
102
RTVSPropertyOp17
 70
     1
102
RTVSPropertyOp18
 70
     1
102
RTVSPropertyOp19
 70
     1
102
RTVSPropertyOp20
 70
     1
102
RTVSPropertyOp21
 70
     1
102
RTVSPropertyOp22
 70
     1
102
RTVSPropertyOp23
 70
     1
102
RTVSPropertyOp24
 70
     1
102
RTVSPropertyOp25
 70
     1
102
RTVSPropertyOp26
 70
     1
102
RTVSPropertyOp27
 70
     1
102
RTVSPropertyOp28
 70
     1
102
RTVSPropertyOp29
 70
     1
102
RTVSPropertyOp30
 70
     1
102
RTVSPropertyOp31
 70
     1
102
RTVSPropertyOp32
 70
     1
  0
XRECORD
  5
15C3
102
{ACAD_REACTORS
330
15C2
102
}
330
15C2
100
AcDbXrecord
280
     1
102
RTVSPropertyOp0
 70
     0
102
RTVSPropertyOp1
 70
     0
102
RTVSPropertyOp2
 70
     0
102
RTVSPropertyOp3
 70
     0
102
RTVSPropertyOp4
 70
     0
102
RTVSPropertyOp5
 70
     0
102
RTVSPropertyOp6
 70
     0
102
RTVSPropertyOp7
 70
     0
102
RTVSPropertyOp8
 70
     0
102
RTVSPropertyOp9
 70
     0
102
RTVSPropertyOp10
 70
     0
102
RTVSPropertyOp11
 70
     0
102
RTVSPropertyOp12
 70
     0
102
RTVSPropertyOp13
 70
     0
102
RTVSPropertyOp14
 70
     2
102
RTVSPropertyOp15
 70
     0
102
RTVSPropertyOp16
 70
     0
102
RTVSPropertyOp17
 70
     0
102
RTVSPropertyOp18
 70
     0
102
RTVSPropertyOp19
 70
     0
102
RTVSPropertyOp20
 70
     0
102
RTVSPropertyOp21
 70
     0
102
RTVSPropertyOp22
 70
     0
102
RTVSPropertyOp23
 70
     0
102
RTVSPropertyOp24
 70
     0
102
RTVSPropertyOp25
 70
     0
102
RTVSPropertyOp26
 70
     0
102
RTVSPropertyOp27
 70
     0
102
RTVSPropertyOp28
 70
     1
102
RTVSPropertyOp29
 70
     1
102
RTVSPropertyOp30
 70
     1
102
RTVSPropertyOp31
 70
     1
102
RTVSPropertyOp32
 70
     1
  0
XRECORD
  5
15B1
102
{ACAD_REACTORS
330
15B0
102
}
330
15B0
100
AcDbXrecord
280
     1
102
RTVSPropertyOp0
 70
     1
102
RTVSPropertyOp1
 70
     1
102
RTVSPropertyOp2
 70
     1
102
RTVSPropertyOp3
 70
     1
102
RTVSPropertyOp4
 70
     1
102
RTVSPropertyOp5
 70
     1
102
RTVSPropertyOp6
 70
     1
102
RTVSPropertyOp7
 70
     1
102
RTVSPropertyOp8
 70
     1
102
RTVSPropertyOp9
 70
     1
102
RTVSPropertyOp10
 70
     1
102
RTVSPropertyOp11
 70
     1
102
RTVSPropertyOp12
 70
     1
102
RTVSPropertyOp13
 70
     1
102
RTVSPropertyOp14
 70
     1
102
RTVSPropertyOp15
 70
     1
102
RTVSPropertyOp16
 70
     1
102
RTVSPropertyOp17
 70
     1
102
RTVSPropertyOp18
 70
     1
102
RTVSPropertyOp19
 70
     1
102
RTVSPropertyOp20
 70
     1
102
RTVSPropertyOp21
 70
     1
102
RTVSPropertyOp22
 70
     1
102
RTVSPropertyOp23
 70
     1
102
RTVSPropertyOp24
 70
     1
102
RTVSPropertyOp25
 70
     1
102
RTVSPropertyOp26
 70
     1
102
RTVSPropertyOp27
 70
     1
102
RTVSPropertyOp28
 70
     1
102
RTVSPropertyOp29
 70
     1
102
RTVSPropertyOp30
 70
     1
102
RTVSPropertyOp31
 70
     1
102
RTVSPropertyOp32
 70
     1
  0
XRECORD
  5
1595
102
{ACAD_REACTORS
330
1594
102
}
330
1594
100
AcDbXrecord
280
     1
102
RTVSPropertyOp0
 70
     1
102
RTVSPropertyOp1
 70
     1
102
RTVSPropertyOp2
 70
     1
102
RTVSPropertyOp3
 70
     1
102
RTVSPropertyOp4
 70
     1
102
RTVSPropertyOp5
 70
     1
102
RTVSPropertyOp6
 70
     1
102
RTVSPropertyOp7
 70
     1
102
RTVSPropertyOp8
 70
     1
102
RTVSPropertyOp9
 70
     1
102
RTVSPropertyOp10
 70
     1
102
RTVSPropertyOp11
 70
     1
102
RTVSPropertyOp12
 70
     1
102
RTVSPropertyOp13
 70
     1
102
RTVSPropertyOp14
 70
     1
102
RTVSPropertyOp15
 70
     1
102
RTVSPropertyOp16
 70
     1
102
RTVSPropertyOp17
 70
     1
102
RTVSPropertyOp18
 70
     1
102
RTVSPropertyOp19
 70
     1
102
RTVSPropertyOp20
 70
     1
102
RTVSPropertyOp21
 70
     1
102
RTVSPropertyOp22
 70
     1
102
RTVSPropertyOp23
 70
     1
102
RTVSPropertyOp24
 70
     1
102
RTVSPropertyOp25
 70
     1
102
RTVSPropertyOp26
 70
     1
102
RTVSPropertyOp27
 70
     1
102
RTVSPropertyOp28
 70
     1
102
RTVSPropertyOp29
 70
     1
102
RTVSPropertyOp30
 70
     1
102
RTVSPropertyOp31
 70
     1
102
RTVSPropertyOp32
 70
     1
  0
XRECORD
  5
1597
102
{ACAD_REACTORS
330
1596
102
}
330
1596
100
AcDbXrecord
280
     1
102
RTVSPropertyOp0
 70
     1
102
RTVSPropertyOp1
 70
     1
102
RTVSPropertyOp2
 70
     1
102
RTVSPropertyOp3
 70
     1
102
RTVSPropertyOp4
 70
     1
102
RTVSPropertyOp5
 70
     1
102
RTVSPropertyOp6
 70
     1
102
RTVSPropertyOp7
 70
     1
102
RTVSPropertyOp8
 70
     1
102
RTVSPropertyOp9
 70
     1
102
RTVSPropertyOp10
 70
     1
102
RTVSPropertyOp11
 70
     1
102
RTVSPropertyOp12
 70
     1
102
RTVSPropertyOp13
 70
     1
102
RTVSPropertyOp14
 70
     1
102
RTVSPropertyOp15
 70
     1
102
RTVSPropertyOp16
 70
     1
102
RTVSPropertyOp17
 70
     1
102
RTVSPropertyOp18
 70
     1
102
RTVSPropertyOp19
 70
     1
102
RTVSPropertyOp20
 70
     1
102
RTVSPropertyOp21
 70
     1
102
RTVSPropertyOp22
 70
     1
102
RTVSPropertyOp23
 70
     1
102
RTVSPropertyOp24
 70
     1
102
RTVSPropertyOp25
 70
     1
102
RTVSPropertyOp26
 70
     1
102
RTVSPropertyOp27
 70
     1
102
RTVSPropertyOp28
 70
     1
102
RTVSPropertyOp29
 70
     1
102
RTVSPropertyOp30
 70
     1
102
RTVSPropertyOp31
 70
     1
102
RTVSPropertyOp32
 70
     1
  0
XRECORD
  5
1599
102
{ACAD_REACTORS
330
1598
102
}
330
1598
100
AcDbXrecord
280
     1
102
RTVSPropertyOp0
 70
     1
102
RTVSPropertyOp1
 70
     1
102
RTVSPropertyOp2
 70
     1
102
RTVSPropertyOp3
 70
     1
102
RTVSPropertyOp4
 70
     1
102
RTVSPropertyOp5
 70
     1
102
RTVSPropertyOp6
 70
     1
102
RTVSPropertyOp7
 70
     1
102
RTVSPropertyOp8
 70
     1
102
RTVSPropertyOp9
 70
     1
102
RTVSPropertyOp10
 70
     1
102
RTVSPropertyOp11
 70
     1
102
RTVSPropertyOp12
 70
     1
102
RTVSPropertyOp13
 70
     1
102
RTVSPropertyOp14
 70
     1
102
RTVSPropertyOp15
 70
     1
102
RTVSPropertyOp16
 70
     1
102
RTVSPropertyOp17
 70
     1
102
RTVSPropertyOp18
 70
     1
102
RTVSPropertyOp19
 70
     1
102
RTVSPropertyOp20
 70
     1
102
RTVSPropertyOp21
 70
     1
102
RTVSPropertyOp22
 70
     1
102
RTVSPropertyOp23
 70
     1
102
RTVSPropertyOp24
 70
     1
102
RTVSPropertyOp25
 70
     1
102
RTVSPropertyOp26
 70
     1
102
RTVSPropertyOp27
 70
     1
102
RTVSPropertyOp28
 70
     1
102
RTVSPropertyOp29
 70
     1
102
RTVSPropertyOp30
 70
     1
102
RTVSPropertyOp31
 70
     1
102
RTVSPropertyOp32
 70
     1
  0
XRECORD
  5
159B
102
{ACAD_REACTORS
330
159A
102
}
330
159A
100
AcDbXrecord
280
     1
102
RTVSPropertyOp0
 70
     1
102
RTVSPropertyOp1
 70
     1
102
RTVSPropertyOp2
 70
     1
102
RTVSPropertyOp3
 70
     1
102
RTVSPropertyOp4
 70
     1
102
RTVSPropertyOp5
 70
     1
102
RTVSPropertyOp6
 70
     1
102
RTVSPropertyOp7
 70
     1
102
RTVSPropertyOp8
 70
     1
102
RTVSPropertyOp9
 70
     1
102
RTVSPropertyOp10
 70
     1
102
RTVSPropertyOp11
 70
     1
102
RTVSPropertyOp12
 70
     1
102
RTVSPropertyOp13
 70
     1
102
RTVSPropertyOp14
 70
     1
102
RTVSPropertyOp15
 70
     1
102
RTVSPropertyOp16
 70
     1
102
RTVSPropertyOp17
 70
     1
102
RTVSPropertyOp18
 70
     1
102
RTVSPropertyOp19
 70
     1
102
RTVSPropertyOp20
 70
     1
102
RTVSPropertyOp21
 70
     1
102
RTVSPropertyOp22
 70
     1
102
RTVSPropertyOp23
 70
     1
102
RTVSPropertyOp24
 70
     1
102
RTVSPropertyOp25
 70
     1
102
RTVSPropertyOp26
 70
     1
102
RTVSPropertyOp27
 70
     1
102
RTVSPropertyOp28
 70
     1
102
RTVSPropertyOp29
 70
     1
102
RTVSPropertyOp30
 70
     1
102
RTVSPropertyOp31
 70
     1
102
RTVSPropertyOp32
 70
     1
  0
XRECORD
  5
15A3
102
{ACAD_REACTORS
330
15A2
102
}
330
15A2
100
AcDbXrecord
280
     1
102
RTVSPropertyOp0
 70
     1
102
RTVSPropertyOp1
 70
     1
102
RTVSPropertyOp2
 70
     1
102
RTVSPropertyOp3
 70
     1
102
RTVSPropertyOp4
 70
     1
102
RTVSPropertyOp5
 70
     1
102
RTVSPropertyOp6
 70
     1
102
RTVSPropertyOp7
 70
     1
102
RTVSPropertyOp8
 70
     1
102
RTVSPropertyOp9
 70
     1
102
RTVSPropertyOp10
 70
     1
102
RTVSPropertyOp11
 70
     1
102
RTVSPropertyOp12
 70
     1
102
RTVSPropertyOp13
 70
     1
102
RTVSPropertyOp14
 70
     1
102
RTVSPropertyOp15
 70
     1
102
RTVSPropertyOp16
 70
     1
102
RTVSPropertyOp17
 70
     1
102
RTVSPropertyOp18
 70
     1
102
RTVSPropertyOp19
 70
     1
102
RTVSPropertyOp20
 70
     1
102
RTVSPropertyOp21
 70
     1
102
RTVSPropertyOp22
 70
     1
102
RTVSPropertyOp23
 70
     1
102
RTVSPropertyOp24
 70
     1
102
RTVSPropertyOp25
 70
     1
102
RTVSPropertyOp26
 70
     1
102
RTVSPropertyOp27
 70
     1
102
RTVSPropertyOp28
 70
     1
102
RTVSPropertyOp29
 70
     1
102
RTVSPropertyOp30
 70
     1
102
RTVSPropertyOp31
 70
     1
102
RTVSPropertyOp32
 70
     1
  0
XRECORD
  5
15BF
102
{ACAD_REACTORS
330
15BE
102
}
330
15BE
100
AcDbXrecord
280
     1
102
RTVSPropertyOp0
 70
     0
102
RTVSPropertyOp1
 70
     0
102
RTVSPropertyOp2
 70
     0
102
RTVSPropertyOp3
 70
     0
102
RTVSPropertyOp4
 70
     0
102
RTVSPropertyOp5
 70
     0
102
RTVSPropertyOp6
 70
     0
102
RTVSPropertyOp7
 70
     0
102
RTVSPropertyOp8
 70
     0
102
RTVSPropertyOp9
 70
     0
102
RTVSPropertyOp10
 70
     0
102
RTVSPropertyOp11
 70
     0
102
RTVSPropertyOp12
 70
     0
102
RTVSPropertyOp13
 70
     0
102
RTVSPropertyOp14
 70
     2
102
RTVSPropertyOp15
 70
     0
102
RTVSPropertyOp16
 70
     0
102
RTVSPropertyOp17
 70
     0
102
RTVSPropertyOp18
 70
     0
102
RTVSPropertyOp19
 70
     0
102
RTVSPropertyOp20
 70
     0
102
RTVSPropertyOp21
 70
     0
102
RTVSPropertyOp22
 70
     0
102
RTVSPropertyOp23
 70
     0
102
RTVSPropertyOp24
 70
     0
102
RTVSPropertyOp25
 70
     0
102
RTVSPropertyOp26
 70
     0
102
RTVSPropertyOp27
 70
     0
102
RTVSPropertyOp28
 70
     1
102
RTVSPropertyOp29
 70
     1
102
RTVSPropertyOp30
 70
     1
102
RTVSPropertyOp31
 70
     1
102
RTVSPropertyOp32
 70
     1
  0
XRECORD
  5
15AF
102
{ACAD_REACTORS
330
15AE
102
}
330
15AE
100
AcDbXrecord
280
     1
102
RTVSPropertyOp0
 70
     1
102
RTVSPropertyOp1
 70
     1
102
RTVSPropertyOp2
 70
     1
102
RTVSPropertyOp3
 70
     1
102
RTVSPropertyOp4
 70
     1
102
RTVSPropertyOp5
 70
     1
102
RTVSPropertyOp6
 70
     1
102
RTVSPropertyOp7
 70
     1
102
RTVSPropertyOp8
 70
     1
102
RTVSPropertyOp9
 70
     1
102
RTVSPropertyOp10
 70
     1
102
RTVSPropertyOp11
 70
     1
102
RTVSPropertyOp12
 70
     1
102
RTVSPropertyOp13
 70
     1
102
RTVSPropertyOp14
 70
     1
102
RTVSPropertyOp15
 70
     1
102
RTVSPropertyOp16
 70
     1
102
RTVSPropertyOp17
 70
     1
102
RTVSPropertyOp18
 70
     1
102
RTVSPropertyOp19
 70
     1
102
RTVSPropertyOp20
 70
     1
102
RTVSPropertyOp21
 70
     1
102
RTVSPropertyOp22
 70
     1
102
RTVSPropertyOp23
 70
     1
102
RTVSPropertyOp24
 70
     1
102
RTVSPropertyOp25
 70
     1
102
RTVSPropertyOp26
 70
     1
102
RTVSPropertyOp27
 70
     1
102
RTVSPropertyOp28
 70
     1
102
RTVSPropertyOp29
 70
     1
102
RTVSPropertyOp30
 70
     1
102
RTVSPropertyOp31
 70
     1
102
RTVSPropertyOp32
 70
     1
  0
XRECORD
  5
15C1
102
{ACAD_REACTORS
330
15C0
102
}
330
15C0
100
AcDbXrecord
280
     1
102
RTVSPropertyOp0
 70
     0
102
RTVSPropertyOp1
 70
     0
102
RTVSPropertyOp2
 70
     0
102
RTVSPropertyOp3
 70
     0
102
RTVSPropertyOp4
 70
     0
102
RTVSPropertyOp5
 70
     0
102
RTVSPropertyOp6
 70
     0
102
RTVSPropertyOp7
 70
     0
102
RTVSPropertyOp8
 70
     0
102
RTVSPropertyOp9
 70
     0
102
RTVSPropertyOp10
 70
     0
102
RTVSPropertyOp11
 70
     0
102
RTVSPropertyOp12
 70
     0
102
RTVSPropertyOp13
 70
     0
102
RTVSPropertyOp14
 70
     2
102
RTVSPropertyOp15
 70
     0
102
RTVSPropertyOp16
 70
     0
102
RTVSPropertyOp17
 70
     0
102
RTVSPropertyOp18
 70
     0
102
RTVSPropertyOp19
 70
     0
102
RTVSPropertyOp20
 70
     0
102
RTVSPropertyOp21
 70
     0
102
RTVSPropertyOp22
 70
     0
102
RTVSPropertyOp23
 70
     0
102
RTVSPropertyOp24
 70
     0
102
RTVSPropertyOp25
 70
     0
102
RTVSPropertyOp26
 70
     0
102
RTVSPropertyOp27
 70
     0
102
RTVSPropertyOp28
 70
     1
102
RTVSPropertyOp29
 70
     1
102
RTVSPropertyOp30
 70
     1
102
RTVSPropertyOp31
 70
     1
102
RTVSPropertyOp32
 70
     1
  0
XRECORD
  5
15A7
102
{ACAD_REACTORS
330
15A6
102
}
330
15A6
100
AcDbXrecord
280
     1
102
RTVSPropertyOp0
 70
     1
102
RTVSPropertyOp1
 70
     1
102
RTVSPropertyOp2
 70
     1
102
RTVSPropertyOp3
 70
     1
102
RTVSPropertyOp4
 70
     1
102
RTVSPropertyOp5
 70
     1
102
RTVSPropertyOp6
 70
     1
102
RTVSPropertyOp7
 70
     1
102
RTVSPropertyOp8
 70
     1
102
RTVSPropertyOp9
 70
     1
102
RTVSPropertyOp10
 70
     1
102
RTVSPropertyOp11
 70
     1
102
RTVSPropertyOp12
 70
     1
102
RTVSPropertyOp13
 70
     1
102
RTVSPropertyOp14
 70
     1
102
RTVSPropertyOp15
 70
     1
102
RTVSPropertyOp16
 70
     1
102
RTVSPropertyOp17
 70
     1
102
RTVSPropertyOp18
 70
     1
102
RTVSPropertyOp19
 70
     1
102
RTVSPropertyOp20
 70
     1
102
RTVSPropertyOp21
 70
     1
102
RTVSPropertyOp22
 70
     1
102
RTVSPropertyOp23
 70
     1
102
RTVSPropertyOp24
 70
     1
102
RTVSPropertyOp25
 70
     1
102
RTVSPropertyOp26
 70
     1
102
RTVSPropertyOp27
 70
     1
102
RTVSPropertyOp28
 70
     1
102
RTVSPropertyOp29
 70
     1
102
RTVSPropertyOp30
 70
     1
102
RTVSPropertyOp31
 70
     1
102
RTVSPropertyOp32
 70
     1
  0
XRECORD
  5
15BD
102
{ACAD_REACTORS
330
15BC
102
}
330
15BC
100
AcDbXrecord
280
     1
102
RTVSPropertyOp0
 70
     1
102
RTVSPropertyOp1
 70
     1
102
RTVSPropertyOp2
 70
     1
102
RTVSPropertyOp3
 70
     1
102
RTVSPropertyOp4
 70
     1
102
RTVSPropertyOp5
 70
     1
102
RTVSPropertyOp6
 70
     1
102
RTVSPropertyOp7
 70
     1
102
RTVSPropertyOp8
 70
     1
102
RTVSPropertyOp9
 70
     1
102
RTVSPropertyOp10
 70
     1
102
RTVSPropertyOp11
 70
     1
102
RTVSPropertyOp12
 70
     1
102
RTVSPropertyOp13
 70
     1
102
RTVSPropertyOp14
 70
     1
102
RTVSPropertyOp15
 70
     1
102
RTVSPropertyOp16
 70
     1
102
RTVSPropertyOp17
 70
     1
102
RTVSPropertyOp18
 70
     1
102
RTVSPropertyOp19
 70
     1
102
RTVSPropertyOp20
 70
     1
102
RTVSPropertyOp21
 70
     1
102
RTVSPropertyOp22
 70
     1
102
RTVSPropertyOp23
 70
     1
102
RTVSPropertyOp24
 70
     1
102
RTVSPropertyOp25
 70
     1
102
RTVSPropertyOp26
 70
     1
102
RTVSPropertyOp27
 70
     1
102
RTVSPropertyOp28
 70
     1
102
RTVSPropertyOp29
 70
     1
102
RTVSPropertyOp30
 70
     1
102
RTVSPropertyOp31
 70
     1
102
RTVSPropertyOp32
 70
     1
  0
XRECORD
  5
15BB
102
{ACAD_REACTORS
330
15BA
102
}
330
15BA
100
AcDbXrecord
280
     1
102
RTVSPropertyOp0
 70
     1
102
RTVSPropertyOp1
 70
     1
102
RTVSPropertyOp2
 70
     1
102
RTVSPropertyOp3
 70
     1
102
RTVSPropertyOp4
 70
     1
102
RTVSPropertyOp5
 70
     1
102
RTVSPropertyOp6
 70
     1
102
RTVSPropertyOp7
 70
     1
102
RTVSPropertyOp8
 70
     1
102
RTVSPropertyOp9
 70
     1
102
RTVSPropertyOp10
 70
     1
102
RTVSPropertyOp11
 70
     1
102
RTVSPropertyOp12
 70
     1
102
RTVSPropertyOp13
 70
     1
102
RTVSPropertyOp14
 70
     1
102
RTVSPropertyOp15
 70
     1
102
RTVSPropertyOp16
 70
     1
102
RTVSPropertyOp17
 70
     1
102
RTVSPropertyOp18
 70
     1
102
RTVSPropertyOp19
 70
     1
102
RTVSPropertyOp20
 70
     1
102
RTVSPropertyOp21
 70
     1
102
RTVSPropertyOp22
 70
     1
102
RTVSPropertyOp23
 70
     1
102
RTVSPropertyOp24
 70
     1
102
RTVSPropertyOp25
 70
     1
102
RTVSPropertyOp26
 70
     1
102
RTVSPropertyOp27
 70
     1
102
RTVSPropertyOp28
 70
     1
102
RTVSPropertyOp29
 70
     1
102
RTVSPropertyOp30
 70
     1
102
RTVSPropertyOp31
 70
     1
102
RTVSPropertyOp32
 70
     1
  0
XRECORD
  5
15B5
102
{ACAD_REACTORS
330
15B4
102
}
330
15B4
100
AcDbXrecord
280
     1
102
RTVSPropertyOp0
 70
     1
102
RTVSPropertyOp1
 70
     1
102
RTVSPropertyOp2
 70
     1
102
RTVSPropertyOp3
 70
     1
102
RTVSPropertyOp4
 70
     1
102
RTVSPropertyOp5
 70
     1
102
RTVSPropertyOp6
 70
     1
102
RTVSPropertyOp7
 70
     1
102
RTVSPropertyOp8
 70
     1
102
RTVSPropertyOp9
 70
     1
102
RTVSPropertyOp10
 70
     1
102
RTVSPropertyOp11
 70
     1
102
RTVSPropertyOp12
 70
     1
102
RTVSPropertyOp13
 70
     1
102
RTVSPropertyOp14
 70
     1
102
RTVSPropertyOp15
 70
     1
102
RTVSPropertyOp16
 70
     1
102
RTVSPropertyOp17
 70
     1
102
RTVSPropertyOp18
 70
     1
102
RTVSPropertyOp19
 70
     1
102
RTVSPropertyOp20
 70
     1
102
RTVSPropertyOp21
 70
     1
102
RTVSPropertyOp22
 70
     1
102
RTVSPropertyOp23
 70
     1
102
RTVSPropertyOp24
 70
     1
102
RTVSPropertyOp25
 70
     1
102
RTVSPropertyOp26
 70
     1
102
RTVSPropertyOp27
 70
     1
102
RTVSPropertyOp28
 70
     1
102
RTVSPropertyOp29
 70
     1
102
RTVSPropertyOp30
 70
     1
102
RTVSPropertyOp31
 70
     1
102
RTVSPropertyOp32
 70
     1
  0
XRECORD
  5
15B7
102
{ACAD_REACTORS
330
15B6
102
}
330
15B6
100
AcDbXrecord
280
     1
102
RTVSPropertyOp0
 70
     1
102
RTVSPropertyOp1
 70
     1
102
RTVSPropertyOp2
 70
     1
102
RTVSPropertyOp3
 70
     1
102
RTVSPropertyOp4
 70
     1
102
RTVSPropertyOp5
 70
     1
102
RTVSPropertyOp6
 70
     1
102
RTVSPropertyOp7
 70
     1
102
RTVSPropertyOp8
 70
     1
102
RTVSPropertyOp9
 70
     1
102
RTVSPropertyOp10
 70
     1
102
RTVSPropertyOp11
 70
     1
102
RTVSPropertyOp12
 70
     1
102
RTVSPropertyOp13
 70
     1
102
RTVSPropertyOp14
 70
     1
102
RTVSPropertyOp15
 70
     1
102
RTVSPropertyOp16
 70
     1
102
RTVSPropertyOp17
 70
     1
102
RTVSPropertyOp18
 70
     1
102
RTVSPropertyOp19
 70
     1
102
RTVSPropertyOp20
 70
     1
102
RTVSPropertyOp21
 70
     1
102
RTVSPropertyOp22
 70
     1
102
RTVSPropertyOp23
 70
     1
102
RTVSPropertyOp24
 70
     1
102
RTVSPropertyOp25
 70
     1
102
RTVSPropertyOp26
 70
     1
102
RTVSPropertyOp27
 70
     1
102
RTVSPropertyOp28
 70
     1
102
RTVSPropertyOp29
 70
     1
102
RTVSPropertyOp30
 70
     1
102
RTVSPropertyOp31
 70
     1
102
RTVSPropertyOp32
 70
     1
  0
XRECORD
  5
15AD
102
{ACAD_REACTORS
330
15AC
102
}
330
15AC
100
AcDbXrecord
280
     1
102
RTVSPropertyOp0
 70
     1
102
RTVSPropertyOp1
 70
     1
102
RTVSPropertyOp2
 70
     1
102
RTVSPropertyOp3
 70
     1
102
RTVSPropertyOp4
 70
     1
102
RTVSPropertyOp5
 70
     1
102
RTVSPropertyOp6
 70
     1
102
RTVSPropertyOp7
 70
     1
102
RTVSPropertyOp8
 70
     1
102
RTVSPropertyOp9
 70
     1
102
RTVSPropertyOp10
 70
     1
102
RTVSPropertyOp11
 70
     1
102
RTVSPropertyOp12
 70
     1
102
RTVSPropertyOp13
 70
     1
102
RTVSPropertyOp14
 70
     1
102
RTVSPropertyOp15
 70
     1
102
RTVSPropertyOp16
 70
     1
102
RTVSPropertyOp17
 70
     1
102
RTVSPropertyOp18
 70
     1
102
RTVSPropertyOp19
 70
     1
102
RTVSPropertyOp20
 70
     1
102
RTVSPropertyOp21
 70
     1
102
RTVSPropertyOp22
 70
     1
102
RTVSPropertyOp23
 70
     1
102
RTVSPropertyOp24
 70
     1
102
RTVSPropertyOp25
 70
     1
102
RTVSPropertyOp26
 70
     1
102
RTVSPropertyOp27
 70
     1
102
RTVSPropertyOp28
 70
     1
102
RTVSPropertyOp29
 70
     1
102
RTVSPropertyOp30
 70
     1
102
RTVSPropertyOp31
 70
     1
102
RTVSPropertyOp32
 70
     1
  0
XRECORD
  5
15A1
102
{ACAD_REACTORS
330
15A0
102
}
330
15A0
100
AcDbXrecord
280
     1
102
RTVSPropertyOp0
 70
     1
102
RTVSPropertyOp1
 70
     1
102
RTVSPropertyOp2
 70
     1
102
RTVSPropertyOp3
 70
     1
102
RTVSPropertyOp4
 70
     1
102
RTVSPropertyOp5
 70
     1
102
RTVSPropertyOp6
 70
     1
102
RTVSPropertyOp7
 70
     1
102
RTVSPropertyOp8
 70
     1
102
RTVSPropertyOp9
 70
     1
102
RTVSPropertyOp10
 70
     1
102
RTVSPropertyOp11
 70
     1
102
RTVSPropertyOp12
 70
     1
102
RTVSPropertyOp13
 70
     1
102
RTVSPropertyOp14
 70
     1
102
RTVSPropertyOp15
 70
     1
102
RTVSPropertyOp16
 70
     1
102
RTVSPropertyOp17
 70
     1
102
RTVSPropertyOp18
 70
     1
102
RTVSPropertyOp19
 70
     1
102
RTVSPropertyOp20
 70
     1
102
RTVSPropertyOp21
 70
     1
102
RTVSPropertyOp22
 70
     1
102
RTVSPropertyOp23
 70
     1
102
RTVSPropertyOp24
 70
     1
102
RTVSPropertyOp25
 70
     1
102
RTVSPropertyOp26
 70
     1
102
RTVSPropertyOp27
 70
     1
102
RTVSPropertyOp28
 70
     1
102
RTVSPropertyOp29
 70
     1
102
RTVSPropertyOp30
 70
     1
102
RTVSPropertyOp31
 70
     1
102
RTVSPropertyOp32
 70
     1
  0
XRECORD
  5
15B9
102
{ACAD_REACTORS
330
15B8
102
}
330
15B8
100
AcDbXrecord
280
     1
102
RTVSPropertyOp0
 70
     1
102
RTVSPropertyOp1
 70
     1
102
RTVSPropertyOp2
 70
     1
102
RTVSPropertyOp3
 70
     1
102
RTVSPropertyOp4
 70
     1
102
RTVSPropertyOp5
 70
     1
102
RTVSPropertyOp6
 70
     1
102
RTVSPropertyOp7
 70
     1
102
RTVSPropertyOp8
 70
     1
102
RTVSPropertyOp9
 70
     1
102
RTVSPropertyOp10
 70
     1
102
RTVSPropertyOp11
 70
     1
102
RTVSPropertyOp12
 70
     1
102
RTVSPropertyOp13
 70
     1
102
RTVSPropertyOp14
 70
     1
102
RTVSPropertyOp15
 70
     1
102
RTVSPropertyOp16
 70
     1
102
RTVSPropertyOp17
 70
     1
102
RTVSPropertyOp18
 70
     1
102
RTVSPropertyOp19
 70
     1
102
RTVSPropertyOp20
 70
     1
102
RTVSPropertyOp21
 70
     1
102
RTVSPropertyOp22
 70
     1
102
RTVSPropertyOp23
 70
     1
102
RTVSPropertyOp24
 70
     1
102
RTVSPropertyOp25
 70
     1
102
RTVSPropertyOp26
 70
     1
102
RTVSPropertyOp27
 70
     1
102
RTVSPropertyOp28
 70
     1
102
RTVSPropertyOp29
 70
     1
102
RTVSPropertyOp30
 70
     1
102
RTVSPropertyOp31
 70
     1
102
RTVSPropertyOp32
 70
     1
  0
ENDSEC
  0
EOF
