  0
SECTION
  2
HEADER
  9
$ACADVER
  1
AC1018
  9
$ACADMAINTVER
 70
   104
  9
$DWGCODEPAGE
  3
ANSI_1252
  9
$AUTHOR
  1
VR
  9
$REVISIONNUMBER
  1
-
  9
$CUSTOMPROPERTYTAG
  1
Manager
  9
$CUSTOMPROPERTY
  1

  9
$CUSTOMPROPERTYTAG
  1
Company
  9
$CUSTOMPROPERTY
  1

  9
$CUSTOMPROPERTYTAG
  1
Category
  9
$CUSTOMPROPERTY
  1

  9
$CUSTOMPROPERTYTAG
  1
Part Number
  9
$CUSTOMPROPERTY
  1
SSFK1210-S
  9
$CUSTOMPROPERTYTAG
  1
Description
  9
$CUSTOMPROPERTY
  1

  9
$CUSTOMPROPERTYTAG
  1
Project
  9
$CUSTOMPROPERTY
  1

  9
$CUSTOMPROPERTYTAG
  1
Designer
  9
$CUSTOMPROPERTY
  1
VR
  9
$CUSTOMPROPERTYTAG
  1
Engineer
  9
$CUSTOMPROPERTY
  1

  9
$CUSTOMPROPERTYTAG
  1
Authority
  9
$CUSTOMPROPERTY
  1

  9
$CUSTOMPROPERTYTAG
  1
Cost Center
  9
$CUSTOMPROPERTY
  1

  9
$CUSTOMPROPERTYTAG
  1
Vendor
  9
$CUSTOMPROPERTY
  1

  9
$CUSTOMPROPERTYTAG
  1
User Status
  9
$CUSTOMPROPERTY
  1

  9
$CUSTOMPROPERTYTAG
  1
Design Status
  9
$CUSTOMPROPERTY
  1
WorkInProgress
  9
$CUSTOMPROPERTYTAG
  1
Checked by
  9
$CUSTOMPROPERTY
  1
NJ
  9
$CUSTOMPROPERTYTAG
  1
Date Checked
  9
$CUSTOMPROPERTY
  1
05/08/2013
  9
$CUSTOMPROPERTYTAG
  1
Engr Approved by
  9
$CUSTOMPROPERTY
  1

  9
$CUSTOMPROPERTYTAG
  1
Mfg Approved by
  9
$CUSTOMPROPERTY
  1

  9
$CUSTOMPROPERTYTAG
  1
DWG. NO
  9
$CUSTOMPROPERTY
  1

  9
$CUSTOMPROPERTYTAG
  1
NUMBER OF SHEETS
  9
$CUSTOMPROPERTY
  1
1
  9
$CUSTOMPROPERTYTAG
  1
DRAWING #
  9
$CUSTOMPROPERTY
  1

  9
$INSBASE
 10
0.0
 20
0.0
 30
0.0
  9
$EXTMIN
 10
0.0
 20
0.0
 30
0.0
  9
$EXTMAX
 10
102.0
 20
66.0
 30
0.0
  9
$LIMMIN
 10
0.0
 20
0.0
  9
$LIMMAX
 10
102.0
 20
66.0
  9
$ORTHOMODE
 70
     0
  9
$REGENMODE
 70
     1
  9
$FILLMODE
 70
     1
  9
$QTEXTMODE
 70
     0
  9
$MIRRTEXT
 70
     0
  9
$LTSCALE
 40
6.0
  9
$ATTMODE
 70
     1
  9
$TEXTSIZE
 40
0.2
  9
$TRACEWID
 40
0.05
  9
$TEXTSTYLE
  7
Standard
  9
$CLAYER
  8
0
  9
$CELTYPE
  6
ByLayer
  9
$CECOLOR
 62
   256
  9
$CELTSCALE
 40
1.0
  9
$DISPSILH
 70
     0
  9
$DIMSCALE
 40
1.0
  9
$DIMASZ
 40
0.0708661417322835
  9
$DIMEXO
 40
0.0625
  9
$DIMDLI
 40
0.38
  9
$DIMRND
 40
0.0
  9
$DIMDLE
 40
0.0
  9
$DIMEXE
 40
0.18
  9
$DIMTP
 40
0.0
  9
$DIMTM
 40
0.0
  9
$DIMTXT
 40
0.0708661417322835
  9
$DIMCEN
 40
0.09
  9
$DIMTSZ
 40
0.0
  9
$DIMTOL
 70
     0
  9
$DIMLIM
 70
     0
  9
$DIMTIH
 70
     1
  9
$DIMTOH
 70
     1
  9
$DIMSE1
 70
     0
  9
$DIMSE2
 70
     0
  9
$DIMTAD
 70
     0
  9
$DIMZIN
 70
     0
  9
$DIMBLK
  1

  9
$DIMASO
 70
     1
  9
$DIMSHO
 70
     1
  9
$DIMPOST
  1

  9
$DIMAPOST
  1

  9
$DIMALT
 70
     0
  9
$DIMALTD
 70
     2
  9
$DIMALTF
 40
25.4
  9
$DIMLFAC
 40
1.0
  9
$DIMTOFL
 70
     0
  9
$DIMTVP
 40
0.0
  9
$DIMTIX
 70
     0
  9
$DIMSOXD
 70
     0
  9
$DIMSAH
 70
     0
  9
$DIMBLK1
  1

  9
$DIMBLK2
  1

  9
$DIMSTYLE
  2
Standard
  9
$DIMCLRD
 70
     0
  9
$DIMCLRE
 70
     0
  9
$DIMCLRT
 70
     0
  9
$DIMTFAC
 40
1.0
  9
$DIMGAP
 40
0.09
  9
$DIMJUST
 70
     0
  9
$DIMSD1
 70
     0
  9
$DIMSD2
 70
     0
  9
$DIMTOLJ
 70
     1
  9
$DIMTZIN
 70
     0
  9
$DIMALTZ
 70
     0
  9
$DIMALTTZ
 70
     0
  9
$DIMUPT
 70
     0
  9
$DIMDEC
 70
     4
  9
$DIMTDEC
 70
     4
  9
$DIMALTU
 70
     2
  9
$DIMALTTD
 70
     2
  9
$DIMTXSTY
  7
Standard
  9
$DIMAUNIT
 70
     0
  9
$DIMADEC
 70
     0
  9
$DIMALTRND
 40
0.0
  9
$DIMAZIN
 70
     0
  9
$DIMDSEP
 70
    46
  9
$DIMATFIT
 70
     3
  9
$DIMFRAC
 70
     0
  9
$DIMLDRBLK
  1

  9
$DIMLUNIT
 70
     2
  9
$DIMLWD
 70
    -2
  9
$DIMLWE
 70
    -2
  9
$DIMTMOVE
 70
     0
  9
$LUNITS
 70
     2
  9
$LUPREC
 70
     4
  9
$SKETCHINC
 40
0.1
  9
$FILLETRAD
 40
0.0
  9
$AUNITS
 70
     0
  9
$AUPREC
 70
     0
  9
$MENU
  1
.
  9
$ELEVATION
 40
0.0
  9
$PELEVATION
 40
0.0
  9
$THICKNESS
 40
0.0
  9
$LIMCHECK
 70
     0
  9
$CHAMFERA
 40
0.0
  9
$CHAMFERB
 40
0.0
  9
$CHAMFERC
 40
0.0
  9
$CHAMFERD
 40
0.0
  9
$SKPOLY
 70
     0
  9
$TDCREATE
 40
2456430.308995070
  9
$TDUCREATE
 40
2456430.079828403
  9
$TDUPDATE
 40
2456430.308995081
  9
$TDUUPDATE
 40
2456430.079828414
  9
$TDINDWG
 40
0.0000465972
  9
$TDUSRTIMER
 40
0.0000465972
  9
$USRTIMER
 70
     1
  9
$ANGBASE
 50
0.0
  9
$ANGDIR
 70
     0
  9
$PDMODE
 70
     0
  9
$PDSIZE
 40
0.0
  9
$PLINEWID
 40
0.0
  9
$SPLFRAME
 70
     0
  9
$SPLINETYPE
 70
     6
  9
$SPLINESEGS
 70
     8
  9
$HANDSEED
  5
15C8
  9
$SURFTAB1
 70
     6
  9
$SURFTAB2
 70
     6
  9
$SURFTYPE
 70
     6
  9
$SURFU
 70
     6
  9
$SURFV
 70
     6
  9
$UCSBASE
  2

  9
$UCSNAME
  2

  9
$UCSORG
 10
0.0
 20
0.0
 30
0.0
  9
$UCSXDIR
 10
1.0
 20
0.0
 30
0.0
  9
$UCSYDIR
 10
0.0
 20
1.0
 30
0.0
  9
$UCSORTHOREF
  2

  9
$UCSORTHOVIEW
 70
     0
  9
$UCSORGTOP
 10
0.0
 20
0.0
 30
0.0
  9
$UCSORGBOTTOM
 10
0.0
 20
0.0
 30
0.0
  9
$UCSORGLEFT
 10
0.0
 20
0.0
 30
0.0
  9
$UCSORGRIGHT
 10
0.0
 20
0.0
 30
0.0
  9
$UCSORGFRONT
 10
0.0
 20
0.0
 30
0.0
  9
$UCSORGBACK
 10
0.0
 20
0.0
 30
0.0
  9
$PUCSBASE
  2

  9
$PUCSNAME
  2

  9
$PUCSORG
 10
0.0
 20
0.0
 30
0.0
  9
$PUCSXDIR
 10
1.0
 20
0.0
 30
0.0
  9
$PUCSYDIR
 10
0.0
 20
1.0
 30
0.0
  9
$PUCSORTHOREF
  2

  9
$PUCSORTHOVIEW
 70
     0
  9
$PUCSORGTOP
 10
0.0
 20
0.0
 30
0.0
  9
$PUCSORGBOTTOM
 10
0.0
 20
0.0
 30
0.0
  9
$PUCSORGLEFT
 10
0.0
 20
0.0
 30
0.0
  9
$PUCSORGRIGHT
 10
0.0
 20
0.0
 30
0.0
  9
$PUCSORGFRONT
 10
0.0
 20
0.0
 30
0.0
  9
$PUCSORGBACK
 10
0.0
 20
0.0
 30
0.0
  9
$USERI1
 70
     0
  9
$USERI2
 70
     0
  9
$USERI3
 70
     0
  9
$USERI4
 70
     0
  9
$USERI5
 70
     0
  9
$USERR1
 40
0.0
  9
$USERR2
 40
0.0
  9
$USERR3
 40
0.0
  9
$USERR4
 40
0.0
  9
$USERR5
 40
0.0
  9
$WORLDVIEW
 70
     1
  9
$SHADEDGE
 70
     3
  9
$SHADEDIF
 70
    70
  9
$TILEMODE
 70
     1
  9
$MAXACTVP
 70
    64
  9
$PINSBASE
 10
0.0
 20
0.0
 30
0.0
  9
$PLIMCHECK
 70
     0
  9
$PEXTMIN
 10
0.0
 20
0.0
 30
0.0
  9
$PEXTMAX
 10
102.0
 20
66.0
 30
0.0
  9
$PLIMMIN
 10
0.0
 20
0.0
  9
$PLIMMAX
 10
102.0
 20
66.0
  9
$UNITMODE
 70
     0
  9
$VISRETAIN
 70
     1
  9
$PLINEGEN
 70
     0
  9
$PSLTSCALE
 70
     1
  9
$TREEDEPTH
 70
  3020
  9
$CMLSTYLE
  2
Standard
  9
$CMLJUST
 70
     0
  9
$CMLSCALE
 40
1.0
  9
$PROXYGRAPHICS
 70
     1
  9
$MEASUREMENT
 70
     0
  9
$CELWEIGHT
370
    -1
  9
$ENDCAPS
280
     0
  9
$JOINSTYLE
280
     0
  9
$LWDISPLAY
290
     0
  9
$INSUNITS
 70
     1
  9
$HYPERLINKBASE
  1

  9
$STYLESHEET
  1

  9
$XEDIT
290
     1
  9
$CEPSNTYPE
380
     0
  9
$PSTYLEMODE
290
     1
  9
$FINGERPRINTGUID
  2
{23891FEF-C245-4381-AC04-BADC39122679}
  9
$VERSIONGUID
  2
{0E814F61-84D1-4596-87B8-F37326D78FF9}
  9
$EXTNAMES
290
     1
  9
$PSVPSCALE
 40
0.0
  9
$OLESTARTUP
290
     0
  9
$SORTENTS
280
   127
  9
$INDEXCTL
280
     0
  9
$HIDETEXT
280
     1
  9
$XCLIPFRAME
290
     0
  9
$HALOGAP
280
     0
  9
$OBSCOLOR
 70
   257
  9
$OBSLTYPE
280
     0
  9
$INTERSECTIONDISPLAY
280
     0
  9
$INTERSECTIONCOLOR
 70
   257
  9
$DIMASSOC
280
     1
  9
$PROJECTNAME
  1

  0
ENDSEC
  0
SECTION
  2
CLASSES
  0
CLASS
  1
ACDBDICTIONARYWDFLT
  2
AcDbDictionaryWithDefault
  3
ObjectDBX Classes
 90
        0
 91
        1
280
     0
281
     0
  0
CLASS
  1
MATERIAL
  2
AcDbMaterial
  3
ObjectDBX Classes
 90
     1153
 91
        3
280
     0
281
     0
  0
CLASS
  1
VISUALSTYLE
  2
AcDbVisualStyle
  3
ObjectDBX Classes
 90
     4095
 91
       24
280
     0
281
     0
  0
CLASS
  1
SCALE
  2
AcDbScale
  3
ObjectDBX Classes
 90
     1153
 91
       17
280
     0
281
     0
  0
CLASS
  1
TABLESTYLE
  2
AcDbTableStyle
  3
ObjectDBX Classes
 90
     4095
 91
        1
280
     0
281
     0
  0
CLASS
  1
MLEADERSTYLE
  2
AcDbMLeaderStyle
  3
ACDB_MLEADERSTYLE_CLASS
 90
     4095
 91
        1
280
     0
281
     0
  0
CLASS
  1
DICTIONARYVAR
  2
AcDbDictionaryVar
  3
ObjectDBX Classes
 90
        0
 91
        8
280
     0
281
     0
  0
CLASS
  1
CELLSTYLEMAP
  2
AcDbCellStyleMap
  3
ObjectDBX Classes
 90
     1152
 91
        1
280
     0
281
     0
  0
ENDSEC
  0
SECTION
  2
TABLES
  0
TABLE
  2
VPORT
  5
8
330
0
100
AcDbSymbolTable
 70
     1
  0
VPORT
  5
57
330
8
100
AcDbSymbolTableRecord
100
AcDbViewportTableRecord
  2
*Active
 70
     0
 10
0.0
 20
0.0
 11
1.0
 21
1.0
 12
51.0
 22
33.0
 13
0.0
 23
0.0
 14
1.0
 24
1.0
 15
0.0
 25
0.0
 16
0.0
 26
0.0
 36
1.0
 17
0.0
 27
0.0
 37
0.0
 40
66.0
 41
1.545454545454545
 42
50.0
 43
0.0
 44
0.0
 50
0.0
 51
0.0
 71
     0
 72
   100
 73
     1
 74
     1
 75
     0
 76
     0
 77
     0
 78
     0
281
     0
 65
     1
110
0.0
120
0.0
130
0.0
111
1.0
121
0.0
131
0.0
112
0.0
122
1.0
132
0.0
 79
     0
146
0.0
  0
ENDTAB
  0
TABLE
  2
LTYPE
  5
5
330
0
100
AcDbSymbolTable
 70
    59
  0
LTYPE
  5
5B
330
5
100
AcDbSymbolTableRecord
100
AcDbLinetypeTableRecord
  2
ByBlock
 70
     0
  3

 72
    65
 73
     0
 40
0.0
  0
LTYPE
  5
5C
330
5
100
AcDbSymbolTableRecord
100
AcDbLinetypeTableRecord
  2
ByLayer
 70
     0
  3

 72
    65
 73
     0
 40
0.0
  0
LTYPE
  5
5D
330
5
100
AcDbSymbolTableRecord
100
AcDbLinetypeTableRecord
  2
Continuous
 70
     0
  3
Solid line
 72
    65
 73
     0
 40
0.0
  0
LTYPE
  5
7C
330
5
100
AcDbSymbolTableRecord
100
AcDbLinetypeTableRecord
  2
BY_STANDARD
 70
     0
  3
By Standard ____________    ____    ____   _
 72
    65
 73
     6
 40
1.240299999999999
 49
0.6614
 74
     0
 49
-0.0827
 74
     0
 49
0.1654
 74
     0
 49
-0.0827
 74
     0
 49
0.1654
 74
     0
 49
-0.0827
 74
     0
  0
LTYPE
  5
7D
330
5
100
AcDbSymbolTableRecord
100
AcDbLinetypeTableRecord
  2
CHAIN
 70
     0
  3
Chain ____ _ ____ _ ____ _ ____ _ ____ _ ____
 72
    65
 73
     4
 40
0.7087
 49
0.4724000000000001
 74
     0
 49
-0.0591
 74
     0
 49
0.1181
 74
     0
 49
-0.0591
 74
     0
  0
LTYPE
  5
7E
330
5
100
AcDbSymbolTableRecord
100
AcDbLinetypeTableRecord
  2
DASH_DOT
 70
     0
  3
Dash dot __ . __ . __ . __ . __ . __ . __ . __
 72
    65
 73
     4
 40
0.37
 49
0.24
 74
     0
 49
-0.06
 74
     0
 49
0.01
 74
     0
 49
-0.06
 74
     0
  0
LTYPE
  5
7F
330
5
100
AcDbSymbolTableRecord
100
AcDbLinetypeTableRecord
  2
DOUBLE_DASH_DOT
 70
     0
  3
Double-Dash Dot __ __ . __ __ . __ __ . __ _
 72
    65
 73
     6
 40
0.4398
 49
0.24
 74
     0
 49
-0.06
 74
     0
 49
0.0098
 74
     0
 49
-0.06
 74
     0
 49
0.01
 74
     0
 49
-0.06
 74
     0
  0
LTYPE
  5
80
330
5
100
AcDbSymbolTableRecord
100
AcDbLinetypeTableRecord
  2
DASH_TRIPLE_DOT
 70
     0
  3
Dash Triple-Dot _ . . . _ . . . _ . . . _
 72
    65
 73
     8
 40
0.51
 49
0.24
 74
     0
 49
-0.06
 74
     0
 49
0.01
 74
     0
 49
-0.06
 74
     0
 49
0.01
 74
     0
 49
-0.06
 74
     0
 49
0.01
 74
     0
 49
-0.06
 74
     0
  0
LTYPE
  5
81
330
5
100
AcDbSymbolTableRecord
100
AcDbLinetypeTableRecord
  2
DASHED
 70
     0
  3
Dashed __ __ __ __ __ __ __ __ __ __ __ __ __ _
 72
    65
 73
     2
 40
0.2067
 49
0.1654
 74
     0
 49
-0.0413
 74
     0
  0
LTYPE
  5
82
330
5
100
AcDbSymbolTableRecord
100
AcDbLinetypeTableRecord
  2
DASH_DOUBLE_DOT
 70
     0
  3
Dash Double-Dot __ . . __ . . __ . . __ . .
 72
    65
 73
     6
 40
0.4398
 49
0.24
 74
     0
 49
-0.06
 74
     0
 49
0.0098
 74
     0
 49
-0.06
 74
     0
 49
0.01
 74
     0
 49
-0.06
 74
     0
  0
LTYPE
  5
83
330
5
100
AcDbSymbolTableRecord
100
AcDbLinetypeTableRecord
  2
DASHED_SPACE
 70
     0
  3
Dashed Space __ __ __ __ __ __ __ __ __ __ __ _
 72
    65
 73
     2
 40
0.2067
 49
0.1654
 74
     0
 49
-0.0413
 74
     0
  0
LTYPE
  5
84
330
5
100
AcDbSymbolTableRecord
100
AcDbLinetypeTableRecord
  2
DOTTED
 70
     0
  3
Dotted . . . . . . . . . . . . . . . . . . . . 
 72
    65
 73
     2
 40
0.0482
 49
0.0069
 74
     0
 49
-0.0413
 74
     0
  0
LTYPE
  5
85
330
5
100
AcDbSymbolTableRecord
100
AcDbLinetypeTableRecord
  2
DOUBLE_DASH_CHAIN
 70
     0
  3
Double-Dash Chain ______  __  __  ______  __  _
 72
    65
 73
     6
 40
1.240299999999999
 49
0.6614
 74
     0
 49
-0.0827
 74
     0
 49
0.1654
 74
     0
 49
-0.0827
 74
     0
 49
0.1654
 74
     0
 49
-0.0827
 74
     0
  0
LTYPE
  5
87
330
5
100
AcDbSymbolTableRecord
100
AcDbLinetypeTableRecord
  2
DOUBLE_DASH_DOUBLE_DOT
 70
     0
  3
Double-Dash Double-dot _ _ . . _ _ . . _
 72
    65
 73
     8
 40
0.7400000000000001
 49
0.24
 74
     0
 49
-0.06
 74
     0
 49
0.24
 74
     0
 49
-0.06
 74
     0
 49
0.01
 74
     0
 49
-0.06
 74
     0
 49
0.01
 74
     0
 49
-0.06
 74
     0
  0
LTYPE
  5
88
330
5
100
AcDbSymbolTableRecord
100
AcDbLinetypeTableRecord
  2
DOUBLE_DASH_TRIPLE_DOT
 70
     0
  3
Double Dash Triple Dot __ __ . . . __ __ . .
 72
    65
 73
    10
 40
0.8100000000000001
 49
0.24
 74
     0
 49
-0.06
 74
     0
 49
0.24
 74
     0
 49
-0.06
 74
     0
 49
0.01
 74
     0
 49
-0.06
 74
     0
 49
0.01
 74
     0
 49
-0.06
 74
     0
 49
0.01
 74
     0
 49
-0.06
 74
     0
  0
LTYPE
  5
89
330
5
100
AcDbSymbolTableRecord
100
AcDbLinetypeTableRecord
  2
LONG_DASH_DOTTED
 70
     0
  3
Long Dash Dotted ____ . ____ . ____ . ____ . _
 72
    65
 73
     4
 40
0.3543
 49
0.2362
 74
     0
 49
-0.0295
 74
     0
 49
0.0591
 74
     0
 49
-0.0295
 74
     0
  0
LTYPE
  5
8A
330
5
100
AcDbSymbolTableRecord
100
AcDbLinetypeTableRecord
  2
LONG_DASH_DOUBLE_DOT
 70
     0
  3
Long Dash Double Dot ________  .  .  ________  
 72
    65
 73
     6
 40
0.6799999999999999
 49
0.48
 74
     0
 49
-0.06
 74
     0
 49
0.01
 74
     0
 49
-0.06
 74
     0
 49
0.01
 74
     0
 49
-0.06
 74
     0
  0
LTYPE
  5
8B
330
5
100
AcDbSymbolTableRecord
100
AcDbLinetypeTableRecord
  2
LONG_DASH_TRIPLE_DOT
 70
     0
  3
Long Dash Triple Dot ____ ... ____ ... ____
 72
    65
 73
     8
 40
0.3689
 49
0.2362
 74
     0
 49
-0.0295
 74
     0
 49
0.0049
 74
     0
 49
-0.0295
 74
     0
 49
0.0049
 74
     0
 49
-0.0295
 74
     0
 49
0.0049
 74
     0
 49
-0.0295
 74
     0
  0
LTYPE
  5
8C
330
5
100
AcDbSymbolTableRecord
100
AcDbLinetypeTableRecord
  2
BORDER
 70
     0
  3
Border __ __ . __ __ . __ __ . __ __ . __ __ .
 72
    65
 73
     6
 40
1.75
 49
0.5
 74
     0
 49
-0.25
 74
     0
 49
0.5
 74
     0
 49
-0.25
 74
     0
 49
0.0
 74
     0
 49
-0.25
 74
     0
  0
LTYPE
  5
8D
330
5
100
AcDbSymbolTableRecord
100
AcDbLinetypeTableRecord
  2
BORDER2
 70
     0
  3
Border (.5x) __.__.__.__.__.__.__.__.__.__.__.
 72
    65
 73
     6
 40
0.875
 49
0.25
 74
     0
 49
-0.125
 74
     0
 49
0.25
 74
     0
 49
-0.125
 74
     0
 49
0.0
 74
     0
 49
-0.125
 74
     0
  0
LTYPE
  5
8E
330
5
100
AcDbSymbolTableRecord
100
AcDbLinetypeTableRecord
  2
BORDERX2
 70
     0
  3
Border (2x) ____  ____  .  ____  ____  .  ___
 72
    65
 73
     6
 40
3.5
 49
1.0
 74
     0
 49
-0.5
 74
     0
 49
1.0
 74
     0
 49
-0.5
 74
     0
 49
0.0
 74
     0
 49
-0.5
 74
     0
  0
LTYPE
  5
8F
330
5
100
AcDbSymbolTableRecord
100
AcDbLinetypeTableRecord
  2
CENTER
 70
     0
  3
Center ____ _ ____ _ ____ _ ____ _ ____ _ ____
 72
    65
 73
     4
 40
2.0
 49
1.25
 74
     0
 49
-0.25
 74
     0
 49
0.25
 74
     0
 49
-0.25
 74
     0
  0
LTYPE
  5
90
330
5
100
AcDbSymbolTableRecord
100
AcDbLinetypeTableRecord
  2
CENTER2
 70
     0
  3
Center (.5x) ___ _ ___ _ ___ _ ___ _ ___ _ ___
 72
    65
 73
     4
 40
1.125
 49
0.75
 74
     0
 49
-0.125
 74
     0
 49
0.125
 74
     0
 49
-0.125
 74
     0
  0
LTYPE
  5
91
330
5
100
AcDbSymbolTableRecord
100
AcDbLinetypeTableRecord
  2
CENTERX2
 70
     0
  3
Center (2x) ________  __  ________  __  _____
 72
    65
 73
     4
 40
4.0
 49
2.5
 74
     0
 49
-0.5
 74
     0
 49
0.5
 74
     0
 49
-0.5
 74
     0
  0
LTYPE
  5
92
330
5
100
AcDbSymbolTableRecord
100
AcDbLinetypeTableRecord
  2
DASHDOT2
 70
     0
  3
Dash dot (.5x) _._._._._._._._._._._._._._._.
 72
    65
 73
     4
 40
0.5
 49
0.25
 74
     0
 49
-0.125
 74
     0
 49
0.0
 74
     0
 49
-0.125
 74
     0
  0
LTYPE
  5
93
330
5
100
AcDbSymbolTableRecord
100
AcDbLinetypeTableRecord
  2
DASHDOTX2
 70
     0
  3
Dash dot (2x) ____  .  ____  .  ____  .  ___
 72
    65
 73
     4
 40
2.0
 49
1.0
 74
     0
 49
-0.5
 74
     0
 49
0.0
 74
     0
 49
-0.5
 74
     0
  0
LTYPE
  5
95
330
5
100
AcDbSymbolTableRecord
100
AcDbLinetypeTableRecord
  2
DASHED2
 70
     0
  3
Dashed (.5x) _ _ _ _ _ _ _ _ _ _ _ _ _ _ _ _ _
 72
    65
 73
     2
 40
0.375
 49
0.25
 74
     0
 49
-0.125
 74
     0
  0
LTYPE
  5
96
330
5
100
AcDbSymbolTableRecord
100
AcDbLinetypeTableRecord
  2
DASHEDX2
 70
     0
  3
Dashed (2x) ____  ____  ____  ____  ____  ___
 72
    65
 73
     2
 40
1.5
 49
1.0
 74
     0
 49
-0.5
 74
     0
  0
LTYPE
  5
97
330
5
100
AcDbSymbolTableRecord
100
AcDbLinetypeTableRecord
  2
DIVIDE
 70
     0
  3
Divide ____ . . ____ . . ____ . . ____ . . ____
 72
    65
 73
     6
 40
1.25
 49
0.5
 74
     0
 49
-0.25
 74
     0
 49
0.0
 74
     0
 49
-0.25
 74
     0
 49
0.0
 74
     0
 49
-0.25
 74
     0
  0
LTYPE
  5
98
330
5
100
AcDbSymbolTableRecord
100
AcDbLinetypeTableRecord
  2
DIVIDE2
 70
     0
  3
Divide (.5x) __..__..__..__..__..__..__..__.._
 72
    65
 73
     6
 40
0.625
 49
0.25
 74
     0
 49
-0.125
 74
     0
 49
0.0
 74
     0
 49
-0.125
 74
     0
 49
0.0
 74
     0
 49
-0.125
 74
     0
  0
LTYPE
  5
99
330
5
100
AcDbSymbolTableRecord
100
AcDbLinetypeTableRecord
  2
DIVIDEX2
 70
     0
  3
Divide (2x) ________  .  .  ________  .  .  _
 72
    65
 73
     6
 40
2.5
 49
1.0
 74
     0
 49
-0.5
 74
     0
 49
0.0
 74
     0
 49
-0.5
 74
     0
 49
0.0
 74
     0
 49
-0.5
 74
     0
  0
LTYPE
  5
9A
330
5
100
AcDbSymbolTableRecord
100
AcDbLinetypeTableRecord
  2
DOT
 70
     0
  3
Dot . . . . . . . . . . . . . . . . . . . . . .
 72
    65
 73
     2
 40
0.25
 49
0.0
 74
     0
 49
-0.25
 74
     0
  0
LTYPE
  5
9B
330
5
100
AcDbSymbolTableRecord
100
AcDbLinetypeTableRecord
  2
DOT2
 70
     0
  3
Dot (.5x) .....................................
 72
    65
 73
     2
 40
0.125
 49
0.0
 74
     0
 49
-0.125
 74
     0
  0
LTYPE
  5
9C
330
5
100
AcDbSymbolTableRecord
100
AcDbLinetypeTableRecord
  2
DOTX2
 70
     0
  3
Dot (2x) .  .  .  .  .  .  .  .  .  .  .  .  . 
 72
    65
 73
     2
 40
0.5
 49
0.0
 74
     0
 49
-0.5
 74
     0
  0
LTYPE
  5
9D
330
5
100
AcDbSymbolTableRecord
100
AcDbLinetypeTableRecord
  2
HIDDEN
 70
     0
  3
Hidden __ __ __ __ __ __ __ __ __ __ __ __ __ _
 72
    65
 73
     2
 40
0.375
 49
0.25
 74
     0
 49
-0.125
 74
     0
  0
LTYPE
  5
9E
330
5
100
AcDbSymbolTableRecord
100
AcDbLinetypeTableRecord
  2
HIDDEN2
 70
     0
  3
Hidden (.5x) _ _ _ _ _ _ _ _ _ _ _ _ _ _ _ _ _
 72
    65
 73
     2
 40
0.1875
 49
0.125
 74
     0
 49
-0.0625
 74
     0
  0
LTYPE
  5
9F
330
5
100
AcDbSymbolTableRecord
100
AcDbLinetypeTableRecord
  2
HIDDENX2
 70
     0
  3
Hidden (2x) ____ ____ ____ ____ ____ ____ ____
 72
    65
 73
     2
 40
0.75
 49
0.5
 74
     0
 49
-0.25
 74
     0
  0
LTYPE
  5
A0
330
5
100
AcDbSymbolTableRecord
100
AcDbLinetypeTableRecord
  2
PHANTOM
 70
     0
  3
Phantom ______  __  __  ______  __  __  ______
 72
    65
 73
     6
 40
2.5
 49
1.25
 74
     0
 49
-0.25
 74
     0
 49
0.25
 74
     0
 49
-0.25
 74
     0
 49
0.25
 74
     0
 49
-0.25
 74
     0
  0
LTYPE
  5
A1
330
5
100
AcDbSymbolTableRecord
100
AcDbLinetypeTableRecord
  2
PHANTOM2
 70
     0
  3
Phantom (.5x) ___ _ _ ___ _ _ ___ _ _ ___ _ _
 72
    65
 73
     6
 40
1.25
 49
0.625
 74
     0
 49
-0.125
 74
     0
 49
0.125
 74
     0
 49
-0.125
 74
     0
 49
0.125
 74
     0
 49
-0.125
 74
     0
  0
LTYPE
  5
A2
330
5
100
AcDbSymbolTableRecord
100
AcDbLinetypeTableRecord
  2
PHANTOMX2
 70
     0
  3
Phantom (2x) ____________    ____    ____   _
 72
    65
 73
     6
 40
5.0
 49
2.5
 74
     0
 49
-0.5
 74
     0
 49
0.5
 74
     0
 49
-0.5
 74
     0
 49
0.5
 74
     0
 49
-0.5
 74
     0
  0
LTYPE
  5
A3
330
5
100
AcDbSymbolTableRecord
100
AcDbLinetypeTableRecord
  2
ACAD_ISO02W100
 70
     0
  3
ISO dash __ __ __ __ __ __ __ __ __ __ __ __ __
 72
    65
 73
     2
 40
0.59
 49
0.47
 74
     0
 49
-0.12
 74
     0
  0
LTYPE
  5
A4
330
5
100
AcDbSymbolTableRecord
100
AcDbLinetypeTableRecord
  2
ACAD_ISO03W100
 70
     0
  3
ISO dash space __    __    __    __    __    __
 72
    65
 73
     2
 40
1.179999999999999
 49
0.47
 74
     0
 49
-0.71
 74
     0
  0
LTYPE
  5
A5
330
5
100
AcDbSymbolTableRecord
100
AcDbLinetypeTableRecord
  2
ACAD_ISO04W100
 70
     0
  3
ISO long-dash dot ____ . ____ . ____ . ____ . _
 72
    65
 73
     4
 40
1.179999999999999
 49
0.9399999999999998
 74
     0
 49
-0.12
 74
     0
 49
0.0
 74
     0
 49
-0.12
 74
     0
  0
LTYPE
  5
A6
330
5
100
AcDbSymbolTableRecord
100
AcDbLinetypeTableRecord
  2
ACAD_ISO05W100
 70
     0
  3
ISO long-dash double-dot ____ .. ____ .. ____ .
 72
    65
 73
     6
 40
1.299999999999999
 49
0.9399999999999998
 74
     0
 49
-0.12
 74
     0
 49
0.0
 74
     0
 49
-0.12
 74
     0
 49
0.0
 74
     0
 49
-0.12
 74
     0
  0
LTYPE
  5
A7
330
5
100
AcDbSymbolTableRecord
100
AcDbLinetypeTableRecord
  2
ACAD_ISO06W100
 70
     0
  3
ISO long-dash triple-dot ____ ... ____ ... ____
 72
    65
 73
     8
 40
1.419999999999999
 49
0.9399999999999998
 74
     0
 49
-0.12
 74
     0
 49
0.0
 74
     0
 49
-0.12
 74
     0
 49
0.0
 74
     0
 49
-0.12
 74
     0
 49
0.0
 74
     0
 49
-0.12
 74
     0
  0
LTYPE
  5
A8
330
5
100
AcDbSymbolTableRecord
100
AcDbLinetypeTableRecord
  2
ACAD_ISO07W100
 70
     0
  3
ISO dot . . . . . . . . . . . . . . . . . . . .
 72
    65
 73
     2
 40
0.12
 49
0.0
 74
     0
 49
-0.12
 74
     0
  0
LTYPE
  5
A9
330
5
100
AcDbSymbolTableRecord
100
AcDbLinetypeTableRecord
  2
ACAD_ISO08W100
 70
     0
  3
ISO long-dash short-dash ____ __ ____ __ ____ _
 72
    65
 73
     4
 40
0.95
 49
0.47
 74
     0
 49
-0.12
 74
     0
 49
0.24
 74
     0
 49
-0.12
 74
     0
  0
LTYPE
  5
AA
330
5
100
AcDbSymbolTableRecord
100
AcDbLinetypeTableRecord
  2
ACAD_ISO09W100
 70
     0
  3
ISO long-dash double-short-dash ____ __ __ ____
 72
    65
 73
     6
 40
1.31
 49
0.47
 74
     0
 49
-0.12
 74
     0
 49
0.24
 74
     0
 49
-0.12
 74
     0
 49
0.24
 74
     0
 49
-0.12
 74
     0
  0
LTYPE
  5
AB
330
5
100
AcDbSymbolTableRecord
100
AcDbLinetypeTableRecord
  2
ACAD_ISO10W100
 70
     0
  3
ISO dash dot __ . __ . __ . __ . __ . __ . __ .
 72
    65
 73
     4
 40
0.71
 49
0.47
 74
     0
 49
-0.12
 74
     0
 49
0.0
 74
     0
 49
-0.12
 74
     0
  0
LTYPE
  5
AC
330
5
100
AcDbSymbolTableRecord
100
AcDbLinetypeTableRecord
  2
ACAD_ISO11W100
 70
     0
  3
ISO double-dash dot __ __ . __ __ . __ __ . __ 
 72
    65
 73
     6
 40
1.299999999999999
 49
0.47
 74
     0
 49
-0.12
 74
     0
 49
0.47
 74
     0
 49
-0.12
 74
     0
 49
0.0
 74
     0
 49
-0.12
 74
     0
  0
LTYPE
  5
AD
330
5
100
AcDbSymbolTableRecord
100
AcDbLinetypeTableRecord
  2
ACAD_ISO12W100
 70
     0
  3
ISO dash double-dot __ . . __ . . __ . . __ . .
 72
    65
 73
     6
 40
0.8299999999999998
 49
0.47
 74
     0
 49
-0.12
 74
     0
 49
0.0
 74
     0
 49
-0.12
 74
     0
 49
0.0
 74
     0
 49
-0.12
 74
     0
  0
LTYPE
  5
AE
330
5
100
AcDbSymbolTableRecord
100
AcDbLinetypeTableRecord
  2
ACAD_ISO13W100
 70
     0
  3
ISO double-dash double-dot __ __ . . __ __ . . 
 72
    65
 73
     8
 40
1.419999999999999
 49
0.47
 74
     0
 49
-0.12
 74
     0
 49
0.47
 74
     0
 49
-0.12
 74
     0
 49
0.0
 74
     0
 49
-0.12
 74
     0
 49
0.0
 74
     0
 49
-0.12
 74
     0
  0
LTYPE
  5
AF
330
5
100
AcDbSymbolTableRecord
100
AcDbLinetypeTableRecord
  2
ACAD_ISO14W100
 70
     0
  3
ISO dash triple-dot __ . . . __ . . . __ . . . 
 72
    65
 73
     8
 40
0.95
 49
0.47
 74
     0
 49
-0.12
 74
     0
 49
0.0
 74
     0
 49
-0.12
 74
     0
 49
0.0
 74
     0
 49
-0.12
 74
     0
 49
0.0
 74
     0
 49
-0.12
 74
     0
  0
LTYPE
  5
B0
330
5
100
AcDbSymbolTableRecord
100
AcDbLinetypeTableRecord
  2
ACAD_ISO15W100
 70
     0
  3
ISO double-dash triple-dot __ __ . . . __ __ . 
 72
    65
 73
    10
 40
1.539999999999999
 49
0.47
 74
     0
 49
-0.12
 74
     0
 49
0.47
 74
     0
 49
-0.12
 74
     0
 49
0.0
 74
     0
 49
-0.12
 74
     0
 49
0.0
 74
     0
 49
-0.12
 74
     0
 49
0.0
 74
     0
 49
-0.12
 74
     0
  0
LTYPE
  5
B3
330
5
100
AcDbSymbolTableRecord
100
AcDbLinetypeTableRecord
  2
FENCELINE1
 70
     0
  3
Fenceline circle ----0-----0----0-----0----0---
 72
    65
 73
     4
 40
1.45
 49
0.25
 74
     0
 49
-0.1
 74
     4
 75
   133
340
B2
 46
0.1
 50
0.0
 44
-0.1
 45
0.0
 49
-0.1
 74
     0
 49
1.0
 74
     0
  0
LTYPE
  5
B4
330
5
100
AcDbSymbolTableRecord
100
AcDbLinetypeTableRecord
  2
FENCELINE2
 70
     0
  3
Fenceline square ----[]-----[]----[]-----[]----
 72
    65
 73
     4
 40
1.45
 49
0.25
 74
     0
 49
-0.1
 74
     4
 75
   132
340
B2
 46
0.1
 50
0.0
 44
-0.1
 45
0.0
 49
-0.1
 74
     0
 49
1.0
 74
     0
  0
LTYPE
  5
B5
330
5
100
AcDbSymbolTableRecord
100
AcDbLinetypeTableRecord
  2
TRACKS
 70
     0
  3
Tracks -|-|-|-|-|-|-|-|-|-|-|-|-|-|-|-|-|-|-|-|
 72
    65
 73
     2
 40
0.3
 49
0.15
 74
     4
 75
   130
340
B2
 46
0.25
 50
0.0
 44
0.0
 45
0.0
 49
0.15
 74
     0
  0
LTYPE
  5
B6
330
5
100
AcDbSymbolTableRecord
100
AcDbLinetypeTableRecord
  2
BATTING
 70
     0
  3
Batting SSSSSSSSSSSSSSSSSSSSSSSSSSSSSSSSSSSSSSS
 72
    65
 73
     4
 40
0.4001000000000001
 49
0.0001
 74
     0
 49
-0.1
 74
     4
 75
   134
340
B2
 46
0.1
 50
0.0
 44
-0.1
 45
0.0
 49
-0.2
 74
     4
 75
   134
340
B2
 46
0.1
 50
180.0
 44
0.1
 45
0.0
 49
-0.1
 74
     0
  0
LTYPE
  5
B7
330
5
100
AcDbSymbolTableRecord
100
AcDbLinetypeTableRecord
  2
HOT_WATER_SUPPLY
 70
     0
  3
Hot water supply ---- HW ---- HW ---- HW ----
 72
    65
 73
     3
 40
0.9
 49
0.5
 74
     0
 49
-0.2
 74
     2
 75
     0
340
55
 46
0.1
 50
0.0
 44
-0.1
 45
-0.05
  9
HW
 49
-0.2
 74
     0
  0
LTYPE
  5
B8
330
5
100
AcDbSymbolTableRecord
100
AcDbLinetypeTableRecord
  2
GAS_LINE
 70
     0
  3
Gas line ----GAS----GAS----GAS----GAS----GAS---
 72
    65
 73
     3
 40
0.95
 49
0.5
 74
     0
 49
-0.2
 74
     2
 75
     0
340
55
 46
0.1
 50
0.0
 44
-0.1
 45
-0.05
  9
GAS
 49
-0.25
 74
     0
  0
LTYPE
  5
B9
330
5
100
AcDbSymbolTableRecord
100
AcDbLinetypeTableRecord
  2
ZIGZAG
 70
     0
  3
Zig zag /\/\/\/\/\/\/\/\/\/\/\/\/\/\/\/\/\/\/\/
 72
    65
 73
     4
 40
0.8001000000000001
 49
0.0001
 74
     0
 49
-0.2
 74
     4
 75
   131
340
B2
 46
0.2
 50
0.0
 44
-0.2
 45
0.0
 49
-0.4
 74
     4
 75
   131
340
B2
 46
0.2
 50
180.0
 44
0.2
 45
0.0
 49
-0.2
 74
     0
  0
ENDTAB
  0
TABLE
  2
LAYER
  5
2
330
0
100
AcDbSymbolTable
 70
    27
  0
LAYER
  5
54
330
2
100
AcDbSymbolTableRecord
100
AcDbLayerTableRecord
  2
0
 70
     0
 62
     7
  6
Continuous
370
     0
390
F
  0
LAYER
  5
C0
330
2
100
AcDbSymbolTableRecord
100
AcDbLayerTableRecord
  2
Center Mark (ANSI)
 70
     0
 62
     7
  6
Continuous
370
     5
390
F
  0
LAYER
  5
C1
330
2
100
AcDbSymbolTableRecord
100
AcDbLayerTableRecord
  2
Centerline (ANSI)
 70
     0
 62
     7
  6
Continuous
370
     5
390
F
  0
LAYER
  5
C3
330
2
100
AcDbSymbolTableRecord
100
AcDbLayerTableRecord
  2
Dimension (ANSI)
 70
     0
 62
     7
  6
Continuous
370
     5
390
F
  0
LAYER
  5
CC
330
2
100
AcDbSymbolTableRecord
100
AcDbLayerTableRecord
  2
Symbol (ANSI)
 70
     0
 62
     7
  6
Continuous
370
     5
390
F
  0
LAYER
  5
CF
330
2
100
AcDbSymbolTableRecord
100
AcDbLayerTableRecord
  2
Visible (ANSI)
 70
     0
 62
     7
  6
Continuous
370
     5
390
F
  0
LAYER
  5
D0
330
2
100
AcDbSymbolTableRecord
100
AcDbLayerTableRecord
  2
Visible Narrow (ANSI)
 70
     0
 62
     7
  6
Continuous
370
     5
390
F
  0
LAYER
  5
2B9
330
2
100
AcDbSymbolTableRecord
100
AcDbLayerTableRecord
  2
Defpoints
 70
     0
 62
     7
  6
Continuous
290
     0
370
    -3
390
F
  0
ENDTAB
  0
TABLE
  2
STYLE
  5
3
330
0
100
AcDbSymbolTable
 70
    10
  0
STYLE
  5
55
330
3
100
AcDbSymbolTableRecord
100
AcDbTextStyleTableRecord
  2
Standard
 70
     0
 40
0.0
 41
1.0
 50
0.0
 71
     0
 42
0.2
  3
txt
  4

  0
STYLE
  5
5A
330
3
100
AcDbSymbolTableRecord
100
AcDbTextStyleTableRecord
  2
Annotative
 70
     0
 40
0.0
 41
1.0
 50
0.0
 71
     0
 42
0.2
  3
txt
  4

1001
AcadAnnotative
1000
AnnotativeData
1002
{
1070
     1
1070
     1
1002
}
  0
STYLE
  5
B2
330
3
100
AcDbSymbolTableRecord
100
AcDbTextStyleTableRecord
  2

 70
     1
 40
0.0
 41
1.0
 50
0.0
 71
     0
 42
0.2
  3
ltypeshp.shx
  4

  0
STYLE
  5
D4
330
3
100
AcDbSymbolTableRecord
100
AcDbTextStyleTableRecord
  2
ITALICC_120
 70
     0
 40
0.0
 41
1.0
 50
0.0
 71
     0
 42
0.2
  3
italicc.shx
  4

  0
STYLE
  5
D5
330
3
100
AcDbSymbolTableRecord
100
AcDbTextStyleTableRecord
  2
Label Text (ANSI)
 70
     0
 40
0.0
 41
1.0
 50
0.0
 71
     0
 42
0.2
  3
tahoma.ttf
  4

1001
ACAD
1000
Tahoma
1071
      256
  0
STYLE
  5
D6
330
3
100
AcDbSymbolTableRecord
100
AcDbTextStyleTableRecord
  2
Note Text (ANSI)
 70
     0
 40
0.0
 41
1.0
 50
0.0
 71
     0
 42
0.2
  3
RomanS.shx
  4

  0
STYLE
  5
D7
330
3
100
AcDbSymbolTableRecord
100
AcDbTextStyleTableRecord
  2
ROMANS
 70
     0
 40
0.0
 41
1.0
 50
0.0
 71
     0
 42
0.2
  3
romans.shx
  4

  0
STYLE
  5
D8
330
3
100
AcDbSymbolTableRecord
100
AcDbTextStyleTableRecord
  2
SANSSERIF_114
 70
     0
 40
0.0
 41
1.0
 50
0.0
 71
     0
 42
0.2
  3
tahoma.ttf
  4

1001
ACAD
1000
Tahoma
1071
      256
  0
STYLE
  5
D9
330
3
100
AcDbSymbolTableRecord
100
AcDbTextStyleTableRecord
  2
SANSSERIF_117
 70
     0
 40
0.0
 41
1.0
 50
0.0
 71
     0
 42
0.2
  3
tahoma.ttf
  4

1001
ACAD
1000
Tahoma
1071
      256
  0
STYLE
  5
15E
330
3
100
AcDbSymbolTableRecord
100
AcDbTextStyleTableRecord
  2
Text Style168
 70
     0
 40
0.0
 41
1.0
 50
0.0
 71
     0
 42
0.2
  3
tahoma.ttf
  4

1001
ACAD
1000
Tahoma
1071
      256
  0
ENDTAB
  0
TABLE
  2
VIEW
  5
6
330
0
100
AcDbSymbolTable
 70
     0
  0
ENDTAB
  0
TABLE
  2
UCS
  5
7
330
0
100
AcDbSymbolTable
 70
     0
  0
ENDTAB
  0
TABLE
  2
APPID
  5
9
330
0
100
AcDbSymbolTable
 70
     5
  0
APPID
  5
56
330
9
100
AcDbSymbolTableRecord
100
AcDbRegAppTableRecord
  2
ACAD
 70
     0
  0
APPID
  5
5E
330
9
100
AcDbSymbolTableRecord
100
AcDbRegAppTableRecord
  2
AcadAnnotative
 70
     0
  0
APPID
  5
623
330
9
100
AcDbSymbolTableRecord
100
AcDbRegAppTableRecord
  2
ACAD_DSTYLE_DIMANGULAR_EXTENSION
 70
     0
  0
APPID
  5
F0C
330
9
100
AcDbSymbolTableRecord
100
AcDbRegAppTableRecord
  2
ACAD_DSTYLE_DIMRADIAL_EXTENSION
 70
     0
  0
APPID
  5
15C3
330
9
100
AcDbSymbolTableRecord
100
AcDbRegAppTableRecord
  2
ACAD_MLEADERVER
 70
     0
  0
ENDTAB
  0
TABLE
  2
DIMSTYLE
  5
A
330
0
100
AcDbSymbolTable
 70
    15
100
AcDbDimStyleTable
 71
     2
340
E2
340
58
  0
DIMSTYLE
105
58
330
A
100
AcDbSymbolTableRecord
100
AcDbDimStyleTableRecord
  2
Standard
 70
     0
340
55
  0
DIMSTYLE
105
59
330
A
100
AcDbSymbolTableRecord
100
AcDbDimStyleTableRecord
  2
Annotative
 70
     0
340
55
1001
AcadAnnotative
1000
AnnotativeData
1002
{
1070
     1
1070
     1
1002
}
  0
DIMSTYLE
105
DA
330
A
100
AcDbSymbolTableRecord
100
AcDbDimStyleTableRecord
  2
Architectural (ANSI)
 70
     0
 40
6.0
 41
0.0984251946210861
 43
0.2362204724409449
 44
0.125
 45
0.00000001
 46
0.3937007874015748
 78
     3
 79
     3
140
0.1000000014901161
146
1.200000047683715
147
0.031496062992126
171
     1
176
   256
177
   256
178
   256
272
     2
274
     1
276
     2
277
     4
284
    12
285
     4
286
    12
340
D6
371
    -1
372
    -1
  0
DIMSTYLE
105
DB
330
A
100
AcDbSymbolTableRecord
100
AcDbDimStyleTableRecord
  2
Architectural (ANSI)$7
 70
     0
 40
6.0
 41
0.0984251946210861
 43
0.2362204724409449
 44
0.125
 45
0.00000001
 46
0.3937007874015748
 78
     3
 79
     3
140
0.1000000014901161
146
1.200000047683715
147
0.031496062992126
171
     1
176
   256
177
   256
178
   256
272
     2
274
     1
276
     2
277
     4
284
    12
285
     4
286
    12
340
D6
371
    -1
372
    -1
  0
DIMSTYLE
105
DC
330
A
100
AcDbSymbolTableRecord
100
AcDbDimStyleTableRecord
  2
Default - Fraction (ANSI)
 70
     0
 40
6.0
 41
0.0984251946210861
 43
0.2362204724409449
 44
0.125
 45
0.00000001
 46
0.3937007874015748
 79
     3
140
0.1000000014901161
146
1.200000047683715
147
0.031496062992126
171
     1
176
   256
177
   256
178
   256
272
     2
274
     1
276
     2
277
     5
284
    12
285
     4
286
    12
340
D6
371
    -1
372
    -1
  0
DIMSTYLE
105
DD
330
A
100
AcDbSymbolTableRecord
100
AcDbDimStyleTableRecord
  2
Default - Fraction (ANSI)$7
 70
     0
 40
6.0
 41
0.0984251946210861
 43
0.2362204724409449
 44
0.125
 45
0.00000001
 46
0.3937007874015748
 79
     3
140
0.1000000014901161
146
1.200000047683715
147
0.031496062992126
171
     1
176
   256
177
   256
178
   256
272
     2
274
     1
276
     2
277
     5
284
    12
285
     4
286
    12
340
D6
371
    -1
372
    -1
  0
DIMSTYLE
105
DE
330
A
100
AcDbSymbolTableRecord
100
AcDbDimStyleTableRecord
  2
Default - mm (ANSI)
 70
     0
 40
6.0
 41
0.0984251946210861
 42
0.063
 43
0.2362204724409449
 44
0.125
 45
0.00000001
 46
0.3937007874015748
 73
     0
 78
     4
 79
     1
140
0.1000000014901161
143
1.0
144
25.4
146
1.200000047683715
147
0.031496062992126
171
     1
176
   256
177
   256
178
   256
179
     1
271
     2
272
     2
274
     1
284
     4
285
     4
340
D6
371
    -1
372
    -1
  0
DIMSTYLE
105
DF
330
A
100
AcDbSymbolTableRecord
100
AcDbDimStyleTableRecord
  2
Default - mm (ANSI)$7
 70
     0
 40
6.0
 41
0.0984251946210861
 42
0.063
 43
0.2362204724409449
 44
0.125
 45
0.00000001
 46
0.3937007874015748
 73
     0
 78
     4
 79
     1
140
0.1000000014901161
143
1.0
144
25.4
146
1.200000047683715
147
0.031496062992126
171
     1
176
   256
177
   256
178
   256
179
     1
271
     2
272
     2
274
     1
284
     4
285
     4
340
D6
371
    -1
372
    -1
  0
DIMSTYLE
105
E0
330
A
100
AcDbSymbolTableRecord
100
AcDbDimStyleTableRecord
  2
Default - mm [in] (ANSI)
 70
     0
  4
 in
 40
6.0
 41
0.0984251946210861
 42
0.063
 43
0.25
 44
0.125
 45
0.00000001
 46
0.3937007874015748
 73
     0
 78
     4
 79
     1
140
0.1000000014901161
143
0.03937
144
25.4
146
1.200000047683715
147
0.031496062992126
170
     1
171
     3
176
   256
177
   256
178
   256
179
     1
271
     2
272
     2
274
     3
284
     4
285
     4
286
     4
340
D6
371
    -1
372
    -1
  0
DIMSTYLE
105
E1
330
A
100
AcDbSymbolTableRecord
100
AcDbDimStyleTableRecord
  2
Default - mm [in] (ANSI)$7
 70
     0
  4
 in
 40
6.0
 41
0.0984251946210861
 42
0.063
 43
0.25
 44
0.125
 45
0.00000001
 46
0.3937007874015748
 73
     0
 78
     4
 79
     1
140
0.1000000014901161
143
0.03937
144
25.4
146
1.200000047683715
147
0.031496062992126
170
     1
171
     3
176
   256
177
   256
178
   256
179
     1
271
     2
272
     2
274
     3
284
     4
285
     4
286
     4
340
D6
371
    -1
372
    -1
  0
DIMSTYLE
105
E2
102
{ACAD_REACTORS
330
2B7
330
3B8
330
4B6
330
5A0
330
6C9
330
7B8
330
8B5
330
9B5
330
A9F
330
B9F
330
C89
330
D75
330
E73
330
F32
330
101C
330
1106
330
11F0
330
12ED
330
13DD
330
1496
102
}
330
A
100
AcDbSymbolTableRecord
100
AcDbDimStyleTableRecord
  2
Default (ANSI)
 70
     0
 40
6.0
 41
0.0984251946210861
 43
0.2362204724409449
 44
0.125
 45
0.00000001
 46
0.3937007874015748
140
0.1000000014901161
147
0.031496062992126
176
   256
177
   256
178
   256
271
     2
272
     2
340
D7
371
    -1
372
    -1
  0
DIMSTYLE
105
E3
330
A
100
AcDbSymbolTableRecord
100
AcDbDimStyleTableRecord
  2
Default (ANSI)$7
 70
     0
 40
6.0
 41
0.0984251946210861
 43
0.2362204724409449
 44
0.125
 45
0.00000001
 46
0.3937007874015748
140
0.1000000014901161
147
0.031496062992126
176
   256
177
   256
178
   256
271
     2
272
     2
340
D7
371
    -1
372
    -1
  0
DIMSTYLE
105
E4
330
A
100
AcDbSymbolTableRecord
100
AcDbDimStyleTableRecord
  2
Alternate (ANSI)
 70
     0
 40
6.0
 41
0.0979999974370003
340
55
342
E5
  0
DIMSTYLE
105
F7
330
A
100
AcDbSymbolTableRecord
100
AcDbDimStyleTableRecord
  2
Datum (ANSI)
 70
     0
 40
6.0
 41
0.0979999974370003
340
55
342
E5
  0
DIMSTYLE
105
106
330
A
100
AcDbSymbolTableRecord
100
AcDbDimStyleTableRecord
  2
Large (ANSI)
 70
     0
 40
6.0
 41
0.1959999948740005
340
55
342
E5
  0
ENDTAB
  0
TABLE
  2
BLOCK_RECORD
  5
1
330
0
100
AcDbSymbolTable
 70
    24
  0
BLOCK_RECORD
  5
6C
330
1
100
AcDbSymbolTableRecord
100
AcDbBlockTableRecord
  2
*Model_Space
340
6F
  0
BLOCK_RECORD
  5
68
330
1
100
AcDbSymbolTableRecord
100
AcDbBlockTableRecord
  2
*Paper_Space
340
6B
  0
BLOCK_RECORD
  5
70
330
1
100
AcDbSymbolTableRecord
100
AcDbBlockTableRecord
  2
*Paper_Space0
340
73
  0
BLOCK_RECORD
  5
E5
330
1
100
AcDbSymbolTableRecord
100
AcDbBlockTableRecord
  2
_Closed
340
0
  0
BLOCK_RECORD
  5
EC
330
1
100
AcDbSymbolTableRecord
100
AcDbBlockTableRecord
  2
DatumFilled45
340
0
  0
BLOCK_RECORD
  5
F8
330
1
100
AcDbSymbolTableRecord
100
AcDbBlockTableRecord
  2
Filled-1
340
0
  0
BLOCK_RECORD
  5
2BA
330
1
100
AcDbSymbolTableRecord
100
AcDbBlockTableRecord
  2
*D4
340
0
  0
BLOCK_RECORD
  5
3B9
330
1
100
AcDbSymbolTableRecord
100
AcDbBlockTableRecord
  2
*D5
340
0
  0
BLOCK_RECORD
  5
4B7
330
1
100
AcDbSymbolTableRecord
100
AcDbBlockTableRecord
  2
*D6
340
0
  0
BLOCK_RECORD
  5
5A1
330
1
100
AcDbSymbolTableRecord
100
AcDbBlockTableRecord
  2
*D7
340
0
  0
BLOCK_RECORD
  5
6CA
330
1
100
AcDbSymbolTableRecord
100
AcDbBlockTableRecord
  2
*D8
340
0
  0
BLOCK_RECORD
  5
7B9
330
1
100
AcDbSymbolTableRecord
100
AcDbBlockTableRecord
  2
*D9
340
0
  0
BLOCK_RECORD
  5
8B6
330
1
100
AcDbSymbolTableRecord
100
AcDbBlockTableRecord
  2
*D10
340
0
  0
BLOCK_RECORD
  5
9B6
330
1
100
AcDbSymbolTableRecord
100
AcDbBlockTableRecord
  2
*D11
340
0
  0
BLOCK_RECORD
  5
AA0
330
1
100
AcDbSymbolTableRecord
100
AcDbBlockTableRecord
  2
*D12
340
0
  0
BLOCK_RECORD
  5
BA0
330
1
100
AcDbSymbolTableRecord
100
AcDbBlockTableRecord
  2
*D13
340
0
  0
BLOCK_RECORD
  5
C8A
330
1
100
AcDbSymbolTableRecord
100
AcDbBlockTableRecord
  2
*D14
340
0
  0
BLOCK_RECORD
  5
D76
330
1
100
AcDbSymbolTableRecord
100
AcDbBlockTableRecord
  2
*D15
340
0
  0
BLOCK_RECORD
  5
E74
330
1
100
AcDbSymbolTableRecord
100
AcDbBlockTableRecord
  2
*D16
340
0
  0
BLOCK_RECORD
  5
F33
330
1
100
AcDbSymbolTableRecord
100
AcDbBlockTableRecord
  2
*D17
340
0
  0
BLOCK_RECORD
  5
101D
330
1
100
AcDbSymbolTableRecord
100
AcDbBlockTableRecord
  2
*D18
340
0
  0
BLOCK_RECORD
  5
1107
330
1
100
AcDbSymbolTableRecord
100
AcDbBlockTableRecord
  2
*D19
340
0
  0
BLOCK_RECORD
  5
11F1
330
1
100
AcDbSymbolTableRecord
100
AcDbBlockTableRecord
  2
*D20
340
0
  0
BLOCK_RECORD
  5
12EE
330
1
100
AcDbSymbolTableRecord
100
AcDbBlockTableRecord
  2
*D21
340
0
  0
BLOCK_RECORD
  5
13DE
330
1
100
AcDbSymbolTableRecord
100
AcDbBlockTableRecord
  2
*D22
340
0
  0
BLOCK_RECORD
  5
1497
330
1
100
AcDbSymbolTableRecord
100
AcDbBlockTableRecord
  2
*D23
340
0
  0
ENDTAB
  0
ENDSEC
  0
SECTION
  2
BLOCKS
  0
BLOCK
  5
6D
330
6C
100
AcDbEntity
  8
0
100
AcDbBlockBegin
  2
*Model_Space
 70
     0
 10
0.0
 20
0.0
 30
0.0
  3
*Model_Space
  1

  0
ENDBLK
  5
6E
330
6C
100
AcDbEntity
  8
0
100
AcDbBlockEnd
  0
BLOCK
  5
69
330
68
100
AcDbEntity
 67
     1
  8
0
100
AcDbBlockBegin
  2
*Paper_Space
 70
     0
 10
0.0
 20
0.0
 30
0.0
  3
*Paper_Space
  1

  0
ENDBLK
  5
6A
330
68
100
AcDbEntity
 67
     1
  8
0
100
AcDbBlockEnd
  0
BLOCK
  5
71
330
70
100
AcDbEntity
 67
     1
  8
0
100
AcDbBlockBegin
  2
*Paper_Space0
 70
     0
 10
0.0
 20
0.0
 30
0.0
  3
*Paper_Space0
  1

  0
ENDBLK
  5
72
330
70
100
AcDbEntity
 67
     1
  8
0
100
AcDbBlockEnd
  0
BLOCK
  5
EA
330
E5
100
AcDbEntity
  8
0
100
AcDbBlockBegin
  2
_Closed
 70
     0
 10
0.0
 20
0.0
 30
0.0
  3
_Closed
  1

  0
LINE
  5
E6
330
E5
100
AcDbEntity
  8
0
  6
ByBlock
 62
     0
370
    -2
100
AcDbLine
 10
-1.0
 20
0.1666666666666666
 30
0.0
 11
0.0
 21
0.0
 31
0.0
  0
LINE
  5
E7
330
E5
100
AcDbEntity
  8
0
  6
ByBlock
 62
     0
370
    -2
100
AcDbLine
 10
0.0
 20
0.0
 30
0.0
 11
-1.0
 21
-0.1666666666666666
 31
0.0
  0
LINE
  5
E8
330
E5
100
AcDbEntity
  8
0
  6
ByBlock
 62
     0
370
    -2
100
AcDbLine
 10
-1.0
 20
0.1666666666666666
 30
0.0
 11
-1.0
 21
-0.1666666666666666
 31
0.0
  0
LINE
  5
E9
330
E5
100
AcDbEntity
  8
0
  6
ByBlock
 62
     0
370
    -2
100
AcDbLine
 10
0.0
 20
0.0
 30
0.0
 11
-1.0
 21
0.0
 31
0.0
  0
ENDBLK
  5
EB
330
E5
100
AcDbEntity
  8
0
100
AcDbBlockEnd
  0
BLOCK
  5
ED
330
EC
100
AcDbEntity
  8
0
100
AcDbBlockBegin
  2
DatumFilled45
 70
     0
 10
0.0
 20
0.0
 30
0.0
  3
DatumFilled45
  1

  0
POLYLINE
  5
EF
330
EC
100
AcDbEntity
  8
0
 62
     0
100
AcDb2dPolyline
 66
     1
 10
0.0
 20
0.0
 30
0.0
 70
   128
  0
VERTEX
  5
F0
330
EF
100
AcDbEntity
  8
0
 62
     0
100
AcDbVertex
100
AcDb2dVertex
 10
0.0
 20
0.9999999999999998
 30
0.0
  0
VERTEX
  5
F1
330
EF
100
AcDbEntity
  8
0
 62
     0
100
AcDbVertex
100
AcDb2dVertex
 10
0.0
 20
-0.9999999999999998
 30
0.0
  0
VERTEX
  5
F3
330
EF
100
AcDbEntity
  8
0
 62
     0
100
AcDbVertex
100
AcDb2dVertex
 10
-0.9999999999999998
 20
0.0
 30
0.0
  0
VERTEX
  5
F4
330
EF
100
AcDbEntity
  8
0
 62
     0
100
AcDbVertex
100
AcDb2dVertex
 10
0.0
 20
0.9999999999999998
 30
0.0
  0
SEQEND
  5
F2
330
EF
100
AcDbEntity
  8
0
 62
     0
  0
SOLID
  5
F6
330
EC
100
AcDbEntity
  8
0
 62
     0
100
AcDbTrace
 10
0.0
 20
0.9999999999999998
 30
0.0
 11
0.0
 21
-0.9999999999999998
 31
0.0
 12
-0.9999999999999998
 22
0.0
 32
0.0
 13
0.0
 23
0.9999999999999998
 33
0.0
  0
ENDBLK
  5
EE
330
EC
100
AcDbEntity
  8
0
100
AcDbBlockEnd
  0
BLOCK
  5
F9
330
F8
100
AcDbEntity
  8
0
100
AcDbBlockBegin
  2
Filled-1
 70
     0
 10
0.0
 20
0.0
 30
0.0
  3
Filled-1
  1

  0
LINE
  5
FB
330
F8
100
AcDbEntity
  8
0
 62
     0
100
AcDbLine
 10
-0.9999999999999998
 20
0.0
 30
0.0
 11
0.0
 21
0.0
 31
0.0
  0
POLYLINE
  5
FC
330
F8
100
AcDbEntity
  8
0
 62
     0
100
AcDb2dPolyline
 66
     1
 10
0.0
 20
0.0
 30
0.0
 70
   128
  0
VERTEX
  5
FD
330
FC
100
AcDbEntity
  8
0
 62
     0
100
AcDbVertex
100
AcDb2dVertex
 10
-0.9999999999999998
 20
-0.0994897959183674
 30
0.0
  0
VERTEX
  5
FE
330
FC
100
AcDbEntity
  8
0
 62
     0
100
AcDbVertex
100
AcDb2dVertex
 10
0.0
 20
0.0
 30
0.0
  0
VERTEX
  5
100
330
FC
100
AcDbEntity
  8
0
 62
     0
100
AcDbVertex
100
AcDb2dVertex
 10
-0.9999999999999998
 20
0.0994897959183674
 30
0.0
  0
VERTEX
  5
101
330
FC
100
AcDbEntity
  8
0
 62
     0
100
AcDbVertex
100
AcDb2dVertex
 10
-0.9999999999999998
 20
-0.0994897959183674
 30
0.0
  0
SEQEND
  5
FF
330
FC
100
AcDbEntity
  8
0
 62
     0
  0
SOLID
  5
102
330
F8
100
AcDbEntity
  8
0
 62
     0
100
AcDbTrace
 10
-0.9999999999999998
 20
-0.0994897959183674
 30
0.0
 11
0.0
 21
0.0
 31
0.0
 12
-0.9999999999999998
 22
0.0994897959183674
 32
0.0
 13
-0.9999999999999998
 23
-0.0994897959183674
 33
0.0
  0
LINE
  5
103
330
F8
100
AcDbEntity
  8
0
 62
     0
100
AcDbLine
 10
-0.9999999999999998
 20
-0.0994897959183674
 30
0.0
 11
0.0
 21
0.0
 31
0.0
  0
LINE
  5
104
330
F8
100
AcDbEntity
  8
0
 62
     0
100
AcDbLine
 10
0.0
 20
0.0
 30
0.0
 11
-0.9999999999999998
 21
0.0994897959183674
 31
0.0
  0
LINE
  5
105
330
F8
100
AcDbEntity
  8
0
 62
     0
100
AcDbLine
 10
-0.9999999999999998
 20
0.0994897959183674
 30
0.0
 11
-0.9999999999999998
 21
-0.0994897959183674
 31
0.0
  0
ENDBLK
  5
FA
330
F8
100
AcDbEntity
  8
0
100
AcDbBlockEnd
  0
BLOCK
  5
2BB
330
2BA
100
AcDbEntity
  8
0
100
AcDbBlockBegin
  2
*D4
 70
     1
 10
0.0
 20
0.0
 30
0.0
  3
*D4
  1

  0
LINE
  5
3AE
330
2BA
100
AcDbEntity
  8
Dimension (ANSI)
440
 16777216
100
AcDbLine
 10
38.36931690537438
 20
42.0022892393965
 30
0.0
 11
35.63211218096494
 21
42.0022892393965
 31
0.0
  0
LINE
  5
3AF
330
2BA
100
AcDbEntity
  8
Dimension (ANSI)
440
 16777216
100
AcDbLine
 10
38.60371690537433
 20
30.00241538059472
 30
0.0
 11
35.63211218096494
 21
30.00241538059472
 31
0.0
  0
LINE
  5
3B0
330
2BA
100
AcDbEntity
  8
Dimension (ANSI)
440
 16777216
100
AcDbLine
 10
36.38211218096494
 20
41.41173807166998
 30
0.0
 11
36.38211218096494
 21
36.99132869986929
 31
0.0
  0
LINE
  5
3B1
330
2BA
100
AcDbEntity
  8
Dimension (ANSI)
440
 16777216
100
AcDbLine
 10
36.38211218096494
 20
30.59296654832123
 30
0.0
 11
36.38211218096494
 21
35.01337592012192
 31
0.0
  0
SOLID
  5
3B2
330
2BA
100
AcDbEntity
  8
Dimension (ANSI)
440
 16777216
100
AcDbTrace
 10
36.28368698634385
 20
41.41173807166998
 30
0.0
 11
36.48053737558603
 21
41.41173807166998
 31
0.0
 12
36.38211218096494
 22
42.0022892393965
 32
0.0
 13
36.38211218096494
 23
42.0022892393965
 33
0.0
  0
SOLID
  5
3B3
330
2BA
100
AcDbEntity
  8
Dimension (ANSI)
440
 16777216
100
AcDbTrace
 10
36.28368698634385
 20
30.59296654832123
 30
0.0
 11
36.48053737558603
 21
30.59296654832123
 31
0.0
 12
36.38211218096494
 22
30.00241538059472
 32
0.0
 13
36.38211218096494
 23
30.00241538059472
 33
0.0
  0
MTEXT
  5
3B4
330
2BA
100
AcDbEntity
  8
Dimension (ANSI)
440
 16777216
100
AcDbMText
 10
36.38211218096493
 20
36.00235230999561
 30
0.0
 40
0.6000000089406968
 41
0.0
 71
     5
 72
     1
  1
\A1;12.00{\PHEIGHT}
  7
ROMANS
 73
     1
 44
1.0
  0
POINT
  5
3B5
330
2BA
100
AcDbEntity
  8
Defpoints
 62
     0
440
 16777216
100
AcDbPoint
 10
38.74431690537438
 20
42.0022892393965
 30
0.0
  0
POINT
  5
3B6
330
2BA
100
AcDbEntity
  8
Defpoints
 62
     0
440
 16777216
100
AcDbPoint
 10
38.97871690537433
 20
30.00241538059472
 30
0.0
  0
POINT
  5
3B7
330
2BA
100
AcDbEntity
  8
Defpoints
 62
     0
440
 16777216
100
AcDbPoint
 10
36.38211218096494
 20
30.00241538059472
 30
0.0
  0
ENDBLK
  5
2BC
330
2BA
100
AcDbEntity
  8
0
100
AcDbBlockEnd
  0
BLOCK
  5
3BA
330
3B9
100
AcDbEntity
  8
0
100
AcDbBlockBegin
  2
*D5
 70
     1
 10
0.0
 20
0.0
 30
0.0
  3
*D5
  1

  0
LINE
  5
4AC
330
3B9
100
AcDbEntity
  8
Dimension (ANSI)
440
 16777216
100
AcDbLine
 10
38.60371690537436
 20
42.2366892393965
 30
0.0
 11
38.60371690537436
 21
44.58019317640437
 31
0.0
  0
LINE
  5
4AD
330
3B9
100
AcDbEntity
  8
Dimension (ANSI)
440
 16777216
100
AcDbLine
 10
48.72871690537441
 20
42.2366892393965
 30
0.0
 11
48.72871690537441
 21
44.58019317640437
 31
0.0
  0
LINE
  5
4AE
330
3B9
100
AcDbEntity
  8
Dimension (ANSI)
440
 16777216
100
AcDbLine
 10
39.19426807310088
 20
43.83019317640437
 30
0.0
 11
42.26295479504165
 21
43.83019317640437
 31
0.0
  0
LINE
  5
4AF
330
3B9
100
AcDbEntity
  8
Dimension (ANSI)
440
 16777216
100
AcDbLine
 10
48.13816573764789
 20
43.83019317640437
 30
0.0
 11
45.06947901570713
 21
43.83019317640437
 31
0.0
  0
SOLID
  5
4B0
330
3B9
100
AcDbEntity
  8
Dimension (ANSI)
440
 16777216
100
AcDbTrace
 10
39.19426807310088
 20
43.92861837102546
 30
0.0
 11
39.19426807310088
 21
43.73176798178328
 31
0.0
 12
38.60371690537436
 22
43.83019317640437
 32
0.0
 13
38.60371690537436
 23
43.83019317640437
 33
0.0
  0
SOLID
  5
4B1
330
3B9
100
AcDbEntity
  8
Dimension (ANSI)
440
 16777216
100
AcDbTrace
 10
48.13816573764789
 20
43.92861837102546
 30
0.0
 11
48.13816573764789
 21
43.73176798178328
 31
0.0
 12
48.72871690537441
 22
43.83019317640437
 32
0.0
 13
48.72871690537441
 23
43.83019317640437
 33
0.0
  0
MTEXT
  5
4B2
330
3B9
100
AcDbEntity
  8
Dimension (ANSI)
440
 16777216
100
AcDbMText
 10
43.66621690537439
 20
43.83019317640437
 30
0.0
 40
0.6000000089406968
 41
0.0
 71
     5
 72
     1
  1
\A1;10.13{\PWIDTH}
  7
ROMANS
 73
     1
 44
1.0
  0
POINT
  5
4B3
330
3B9
100
AcDbEntity
  8
Defpoints
 62
     0
440
 16777216
100
AcDbPoint
 10
38.60371690537436
 20
41.86168923939649
 30
0.0
  0
POINT
  5
4B4
330
3B9
100
AcDbEntity
  8
Defpoints
 62
     0
440
 16777216
100
AcDbPoint
 10
48.72871690537441
 20
41.8616892393965
 30
0.0
  0
POINT
  5
4B5
330
3B9
100
AcDbEntity
  8
Defpoints
 62
     0
440
 16777216
100
AcDbPoint
 10
48.72871690537441
 20
43.83019317640437
 30
0.0
  0
ENDBLK
  5
3BB
330
3B9
100
AcDbEntity
  8
0
100
AcDbBlockEnd
  0
BLOCK
  5
4B8
330
4B7
100
AcDbEntity
  8
0
100
AcDbBlockBegin
  2
*D6
 70
     1
 10
0.0
 20
0.0
 30
0.0
  3
*D6
  1

  0
LINE
  5
596
330
4B7
100
AcDbEntity
  8
Dimension (ANSI)
440
 16777216
100
AcDbLine
 10
10.49895596985332
 20
42.2366892393965
 30
0.0
 11
10.49895596985332
 21
45.80164446056743
 31
0.0
  0
LINE
  5
597
330
4B7
100
AcDbEntity
  8
Dimension (ANSI)
440
 16777216
100
AcDbLine
 10
18.49895596985331
 20
42.37728923939648
 30
0.0
 11
18.49895596985331
 21
45.80164446056743
 31
0.0
  0
LINE
  5
598
330
4B7
100
AcDbEntity
  8
Dimension (ANSI)
440
 16777216
100
AcDbLine
 10
11.08950713757983
 20
45.05164446056743
 30
0.0
 11
13.39569386399093
 21
45.05164446056743
 31
0.0
  0
LINE
  5
599
330
4B7
100
AcDbEntity
  8
Dimension (ANSI)
440
 16777216
100
AcDbLine
 10
17.9084048021268
 20
45.05164446056743
 30
0.0
 11
15.6022180757157
 21
45.05164446056743
 31
0.0
  0
SOLID
  5
59A
330
4B7
100
AcDbEntity
  8
Dimension (ANSI)
440
 16777216
100
AcDbTrace
 10
11.08950713757983
 20
45.15006965518852
 30
0.0
 11
11.08950713757983
 21
44.95321926594634
 31
0.0
 12
10.49895596985332
 22
45.05164446056743
 32
0.0
 13
10.49895596985332
 23
45.05164446056743
 33
0.0
  0
SOLID
  5
59B
330
4B7
100
AcDbEntity
  8
Dimension (ANSI)
440
 16777216
100
AcDbTrace
 10
17.9084048021268
 20
45.15006965518852
 30
0.0
 11
17.9084048021268
 21
44.95321926594634
 31
0.0
 12
18.49895596985331
 22
45.05164446056743
 32
0.0
 13
18.49895596985331
 23
45.05164446056743
 33
0.0
  0
MTEXT
  5
59C
330
4B7
100
AcDbEntity
  8
Dimension (ANSI)
440
 16777216
100
AcDbMText
 10
13.58467024194368
 20
45.35164446503777
 30
0.0
 40
0.6000000089406968
 41
0.0
 71
     1
 72
     1
  1
\A1;8.00
  7
ROMANS
 73
     1
 44
1.0
  0
POINT
  5
59D
330
4B7
100
AcDbEntity
  8
Defpoints
 62
     0
440
 16777216
100
AcDbPoint
 10
10.49895596985332
 20
41.86168923939649
 30
0.0
  0
POINT
  5
59E
330
4B7
100
AcDbEntity
  8
Defpoints
 62
     0
440
 16777216
100
AcDbPoint
 10
18.49895596985331
 20
42.00228923939649
 30
0.0
  0
POINT
  5
59F
330
4B7
100
AcDbEntity
  8
Defpoints
 62
     0
440
 16777216
100
AcDbPoint
 10
18.49895596985331
 20
45.05164446056743
 30
0.0
  0
ENDBLK
  5
4B9
330
4B7
100
AcDbEntity
  8
0
100
AcDbBlockEnd
  0
BLOCK
  5
5A2
330
5A1
100
AcDbEntity
  8
0
100
AcDbBlockBegin
  2
*D7
 70
     1
 10
0.0
 20
0.0
 30
0.0
  3
*D7
  1

  0
LINE
  5
6BE
330
5A1
100
AcDbEntity
  8
Dimension (ANSI)
440
 16777216
100
AcDbLine
 10
19.27266711881528
 20
42.00228923939647
 30
0.0
 11
22.88369161344828
 21
42.00228923939644
 31
0.0
  0
LINE
  5
6BF
330
5A1
100
AcDbEntity
  8
Dimension (ANSI)
440
 16777216
100
AcDbLine
 10
18.64738794904202
 20
42.74184634639198
 30
0.0
 11
19.24788124629497
 21
46.30259145111287
 31
0.0
  0
ARC
  5
6C0
330
5A1
100
AcDbEntity
  8
Dimension (ANSI)
440
 16777216
100
AcDbCircle
 10
18.52266711881528
 20
42.00228923939649
 30
0.0
 40
3.611024494633002
100
AcDbArc
 50
9.380692531084227
 51
26.40427917902533
  0
ARC
  5
6C1
330
5A1
100
AcDbEntity
  8
Dimension (ANSI)
440
 16777216
100
AcDbCircle
 10
18.52266711881528
 20
42.00228923939649
 30
0.0
 40
3.611024494633002
100
AcDbArc
 50
45.68634465914906
 51
71.046868077965
  0
SOLID
  5
6C2
330
5A1
100
AcDbEntity
  8
Dimension (ANSI)
440
 16777216
100
AcDbTrace
 10
22.18349748544602
 20
42.59891104234526
 30
0.0
 11
21.98730631303031
 21
42.5828144709419
 31
0.0
 12
22.13369161344828
 22
42.00228923939644
 32
0.0
 13
22.13369161344828
 23
42.00228923939644
 33
0.0
  0
SOLID
  5
6C3
330
5A1
100
AcDbEntity
  8
Dimension (ANSI)
440
 16777216
100
AcDbTrace
 10
19.67125943550626
 20
45.32214917327777
 30
0.0
 11
19.7197573817549
 21
45.51293183746522
 31
0.0
 12
19.12316041606824
 22
45.56303434411737
 32
0.0
 13
19.12316041606824
 23
45.56303434411737
 33
0.0
  0
MTEXT
  5
6C4
330
5A1
100
AcDbEntity
  8
Dimension (ANSI)
440
 16777216
100
AcDbMText
 10
20.86397358222712
 20
44.39709571142812
 30
0.0
 40
0.6000000089406968
 41
0.0
 71
     1
 72
     1
  1
\A1;80\U+00B0
  7
ROMANS
 73
     1
 44
1.0
  0
POINT
  5
6C5
330
5A1
100
AcDbEntity
  8
Defpoints
 62
     0
440
 16777216
100
AcDbPoint
 10
18.52266711881528
 20
42.00228923939649
 30
0.0
  0
POINT
  5
6C6
330
5A1
100
AcDbEntity
  8
Defpoints
 62
     0
440
 16777216
100
AcDbPoint
 10
18.89766711881528
 20
42.00228923939649
 30
0.0
  0
POINT
  5
6C7
330
5A1
100
AcDbEntity
  8
Defpoints
 62
     0
440
 16777216
100
AcDbPoint
 10
18.58502753392864
 20
42.37206779289423
 30
0.0
  0
POINT
  5
6C8
330
5A1
100
AcDbEntity
  8
Defpoints
 62
     0
440
 16777216
100
AcDbPoint
 10
20.66458508361574
 20
44.90946748176564
 30
0.0
  0
ENDBLK
  5
5A3
330
5A1
100
AcDbEntity
  8
0
100
AcDbBlockEnd
  0
BLOCK
  5
6CB
330
6CA
100
AcDbEntity
  8
0
100
AcDbBlockBegin
  2
*D8
 70
     1
 10
0.0
 20
0.0
 30
0.0
  3
*D8
  1

  0
LINE
  5
7B0
330
6CA
100
AcDbEntity
  8
Dimension (ANSI)
440
 16777216
100
AcDbLine
 10
46.88816573765167
 20
51.51124075020688
 30
0.0
 11
46.29761456992516
 21
51.51124075020688
 31
0.0
  0
LINE
  5
7B1
330
6CA
100
AcDbEntity
  8
Dimension (ANSI)
440
 16777216
100
AcDbLine
 10
49.31926807310471
 20
51.51124075020688
 30
0.0
 11
50.69199497807684
 21
51.51124075020688
 31
0.0
  0
SOLID
  5
7B2
330
6CA
100
AcDbEntity
  8
Dimension (ANSI)
440
 16777216
100
AcDbTrace
 10
46.88816573765167
 20
51.60966594482797
 30
0.0
 11
46.88816573765167
 21
51.41281555558579
 31
0.0
 12
47.47871690537819
 22
51.51124075020688
 32
0.0
 13
47.47871690537819
 23
51.51124075020688
 33
0.0
  0
SOLID
  5
7B3
330
6CA
100
AcDbEntity
  8
Dimension (ANSI)
440
 16777216
100
AcDbTrace
 10
49.31926807310471
 20
51.60966594482797
 30
0.0
 11
49.31926807310471
 21
51.41281555558579
 31
0.0
 12
48.7287169053782
 22
51.51124075020688
 32
0.0
 13
48.7287169053782
 23
51.51124075020688
 33
0.0
  0
MTEXT
  5
7B4
330
6CA
100
AcDbEntity
  8
Dimension (ANSI)
440
 16777216
100
AcDbMText
 10
52.43811423637569
 20
51.51124075020688
 30
0.0
 40
0.6000000089406968
 41
0.0
 71
     5
 72
     1
  1
\A1;1.25{\P(2 PL.)}
  7
ROMANS
 73
     1
 44
1.0
  0
POINT
  5
7B5
330
6CA
100
AcDbEntity
  8
Defpoints
 62
     0
440
 16777216
100
AcDbPoint
 10
47.47871690537819
 20
51.7227812744681
 30
0.0
  0
POINT
  5
7B6
330
6CA
100
AcDbEntity
  8
Defpoints
 62
     0
440
 16777216
100
AcDbPoint
 10
48.7287169053782
 20
51.65524384030344
 30
0.0
  0
POINT
  5
7B7
330
6CA
100
AcDbEntity
  8
Defpoints
 62
     0
440
 16777216
100
AcDbPoint
 10
48.7287169053782
 20
51.51124075020688
 30
0.0
  0
ENDBLK
  5
6CC
330
6CA
100
AcDbEntity
  8
0
100
AcDbBlockEnd
  0
BLOCK
  5
7BA
330
7B9
100
AcDbEntity
  8
0
100
AcDbBlockBegin
  2
*D9
 70
     1
 10
0.0
 20
0.0
 30
0.0
  3
*D9
  1

  0
LINE
  5
8A3
330
7B9
100
AcDbEntity
  8
Dimension (ANSI)
440
 16777216
100
AcDbLine
 10
40.123360601358
 20
48.53975904979132
 30
0.0
 11
40.12336060135799
 21
47.9492078820648
 31
0.0
  0
LINE
  5
8A4
330
7B9
100
AcDbEntity
  8
Dimension (ANSI)
440
 16777216
100
AcDbLine
 10
40.123360601358
 20
50.97086138524431
 30
0.0
 11
40.123360601358
 21
51.99857330551399
 31
0.0
  0
LINE
  5
8A5
330
7B9
100
AcDbEntity
  8
Dimension (ANSI)
440
 16777216
100
AcDbLine
 10
40.123360601358
 20
51.99857330551399
 30
0.0
 11
40.71391176908451
 21
51.99857330551399
 31
0.0
  0
SOLID
  5
8A6
330
7B9
100
AcDbEntity
  8
Dimension (ANSI)
440
 16777216
100
AcDbTrace
 10
40.02493540673691
 20
48.53975904979132
 30
0.0
 11
40.22178579597908
 21
48.53975904979132
 31
0.0
 12
40.123360601358
 22
49.13031021751784
 32
0.0
 13
40.123360601358
 23
49.13031021751784
 33
0.0
  0
SOLID
  5
8A7
330
7B9
100
AcDbEntity
  8
Dimension (ANSI)
440
 16777216
100
AcDbTrace
 10
40.02493540673691
 20
50.97086138524431
 30
0.0
 11
40.22178579597908
 21
50.97086138524431
 31
0.0
 12
40.123360601358
 22
50.38031021751779
 32
0.0
 13
40.123360601358
 23
50.38031021751779
 33
0.0
  0
MTEXT
  5
8A8
330
7B9
100
AcDbEntity
  8
Dimension (ANSI)
440
 16777216
100
AcDbMText
 10
40.90288814703725
 20
52.29857330998434
 30
0.0
 40
0.6000000089406968
 41
0.0
 71
     1
 72
     1
  1
\A1;1.25
  7
ROMANS
 73
     1
 44
1.0
  0
POINT
  5
8A9
330
7B9
100
AcDbEntity
  8
Defpoints
 62
     0
440
 16777216
100
AcDbPoint
 10
41.43218266716653
 20
50.38031021751779
 30
0.0
  0
POINT
  5
8AA
330
7B9
100
AcDbEntity
  8
Defpoints
 62
     0
440
 16777216
100
AcDbPoint
 10
41.56026224545917
 20
49.13031021751784
 30
0.0
  0
POINT
  5
8AB
330
7B9
100
AcDbEntity
  8
Defpoints
 62
     0
440
 16777216
100
AcDbPoint
 10
40.123360601358
 20
49.13031021751784
 30
0.0
  0
ENDBLK
  5
7BB
330
7B9
100
AcDbEntity
  8
0
100
AcDbBlockEnd
  0
BLOCK
  5
8B7
330
8B6
100
AcDbEntity
  8
0
100
AcDbBlockBegin
  2
*D10
 70
     1
 10
0.0
 20
0.0
 30
0.0
  3
*D10
  1

  0
LINE
  5
9AA
330
8B6
100
AcDbEntity
  8
Dimension (ANSI)
440
 16777216
100
AcDbLine
 10
38.3693169053702
 20
21.96852222655268
 30
0.0
 11
34.49127978525833
 21
21.96852222655268
 31
0.0
  0
LINE
  5
9AB
330
8B6
100
AcDbEntity
  8
Dimension (ANSI)
440
 16777216
100
AcDbLine
 10
37.88496690537021
 20
19.96852222655272
 30
0.0
 11
34.49127978525833
 21
19.96852222655272
 31
0.0
  0
LINE
  5
9AC
330
8B6
100
AcDbEntity
  8
Dimension (ANSI)
440
 16777216
100
AcDbLine
 10
35.24127978525833
 20
21.37797105882616
 30
0.0
 11
35.24127978525833
 21
20.55907339427923
 31
0.0
  0
LINE
  5
9AD
330
8B6
100
AcDbEntity
  8
Dimension (ANSI)
440
 16777216
100
AcDbLine
 10
35.24127978525833
 20
19.96852222655272
 30
0.0
 11
35.24127978525833
 21
18.94081031965886
 31
0.0
  0
LINE
  5
9AE
330
8B6
100
AcDbEntity
  8
Dimension (ANSI)
440
 16777216
100
AcDbLine
 10
35.24127978525833
 20
18.94081031965886
 30
0.0
 11
34.65072861753181
 21
18.94081031965886
 31
0.0
  0
SOLID
  5
9AF
330
8B6
100
AcDbEntity
  8
Dimension (ANSI)
440
 16777216
100
AcDbTrace
 10
35.14285459063724
 20
21.37797105882616
 30
0.0
 11
35.33970497987942
 21
21.37797105882616
 31
0.0
 12
35.24127978525833
 22
21.96852222655268
 32
0.0
 13
35.24127978525833
 23
21.96852222655268
 33
0.0
  0
SOLID
  5
9B0
330
8B6
100
AcDbEntity
  8
Dimension (ANSI)
440
 16777216
100
AcDbTrace
 10
35.14285459063724
 20
20.55907339427923
 30
0.0
 11
35.33970497987942
 21
20.55907339427923
 31
0.0
 12
35.24127978525833
 22
19.96852222655272
 32
0.0
 13
35.24127978525833
 23
19.96852222655272
 33
0.0
  0
MTEXT
  5
9B1
330
8B6
100
AcDbEntity
  8
Dimension (ANSI)
440
 16777216
100
AcDbMText
 10
32.63318078375978
 20
19.24081032412921
 30
0.0
 40
0.6000000089406968
 41
0.0
 71
     1
 72
     1
  1
\A1;2.00
  7
ROMANS
 73
     1
 44
1.0
  0
POINT
  5
9B2
330
8B6
100
AcDbEntity
  8
Defpoints
 62
     0
440
 16777216
100
AcDbPoint
 10
38.7443169053702
 20
21.96852222655268
 30
0.0
  0
POINT
  5
9B3
330
8B6
100
AcDbEntity
  8
Defpoints
 62
     0
440
 16777216
100
AcDbPoint
 10
38.25996690537021
 20
19.96852222655272
 30
0.0
  0
POINT
  5
9B4
330
8B6
100
AcDbEntity
  8
Defpoints
 62
     0
440
 16777216
100
AcDbPoint
 10
35.24127978525833
 20
19.96852222655272
 30
0.0
  0
ENDBLK
  5
8B8
330
8B6
100
AcDbEntity
  8
0
100
AcDbBlockEnd
  0
BLOCK
  5
9B7
330
9B6
100
AcDbEntity
  8
0
100
AcDbBlockBegin
  2
*D11
 70
     1
 10
0.0
 20
0.0
 30
0.0
  3
*D11
  1

  0
LINE
  5
A95
330
9B6
100
AcDbEntity
  8
Dimension (ANSI)
440
 16777216
100
AcDbLine
 10
38.3693169053702
 20
21.96852222655268
 30
0.0
 11
29.96282084237808
 21
21.96852222655268
 31
0.0
  0
LINE
  5
A96
330
9B6
100
AcDbEntity
  8
Dimension (ANSI)
440
 16777216
100
AcDbLine
 10
37.8849669053702
 20
14.96852222655272
 30
0.0
 11
29.96282084237808
 21
14.96852222655272
 31
0.0
  0
LINE
  5
A97
330
9B6
100
AcDbEntity
  8
Dimension (ANSI)
440
 16777216
100
AcDbLine
 10
30.71282084237808
 20
21.37797105882616
 30
0.0
 11
30.71282084237808
 21
18.9574986089758
 31
0.0
  0
LINE
  5
A98
330
9B6
100
AcDbEntity
  8
Dimension (ANSI)
440
 16777216
100
AcDbLine
 10
30.71282084237808
 20
15.55907339427923
 30
0.0
 11
30.71282084237808
 21
17.97954584412959
 31
0.0
  0
SOLID
  5
A99
330
9B6
100
AcDbEntity
  8
Dimension (ANSI)
440
 16777216
100
AcDbTrace
 10
30.61439564775699
 20
21.37797105882616
 30
0.0
 11
30.81124603699916
 21
21.37797105882616
 31
0.0
 12
30.71282084237808
 22
21.96852222655268
 32
0.0
 13
30.71282084237808
 23
21.96852222655268
 33
0.0
  0
SOLID
  5
A9A
330
9B6
100
AcDbEntity
  8
Dimension (ANSI)
440
 16777216
100
AcDbTrace
 10
30.61439564775699
 20
15.55907339427923
 30
0.0
 11
30.81124603699916
 21
15.55907339427923
 31
0.0
 12
30.71282084237808
 22
14.96852222655272
 32
0.0
 13
30.71282084237808
 23
14.96852222655272
 33
0.0
  0
MTEXT
  5
A9B
330
9B6
100
AcDbEntity
  8
Dimension (ANSI)
440
 16777216
100
AcDbMText
 10
29.79853511446844
 20
18.76852223102304
 30
0.0
 40
0.6000000089406968
 41
0.0
 71
     1
 72
     1
  1
\A1;7.00
  7
ROMANS
 73
     1
 44
1.0
  0
POINT
  5
A9C
330
9B6
100
AcDbEntity
  8
Defpoints
 62
     0
440
 16777216
100
AcDbPoint
 10
38.7443169053702
 20
21.96852222655268
 30
0.0
  0
POINT
  5
A9D
330
9B6
100
AcDbEntity
  8
Defpoints
 62
     0
440
 16777216
100
AcDbPoint
 10
38.2599669053702
 20
14.96852222655272
 30
0.0
  0
POINT
  5
A9E
330
9B6
100
AcDbEntity
  8
Defpoints
 62
     0
440
 16777216
100
AcDbPoint
 10
30.71282084237808
 20
14.96852222655272
 30
0.0
  0
ENDBLK
  5
9B8
330
9B6
100
AcDbEntity
  8
0
100
AcDbBlockEnd
  0
BLOCK
  5
AA1
330
AA0
100
AcDbEntity
  8
0
100
AcDbBlockBegin
  2
*D12
 70
     1
 10
0.0
 20
0.0
 30
0.0
  3
*D12
  1

  0
LINE
  5
B94
330
AA0
100
AcDbEntity
  8
Dimension (ANSI)
440
 16777216
100
AcDbLine
 10
38.3693169053702
 20
21.96852222655268
 30
0.0
 11
34.19233775865768
 21
21.96852222655268
 31
0.0
  0
LINE
  5
B95
330
AA0
100
AcDbEntity
  8
Dimension (ANSI)
440
 16777216
100
AcDbLine
 10
39.44746690537019
 20
21.28102222655273
 30
0.0
 11
34.19233775865768
 21
21.28102222655273
 31
0.0
  0
LINE
  5
B96
330
AA0
100
AcDbEntity
  8
Dimension (ANSI)
440
 16777216
100
AcDbLine
 10
34.94233775865768
 20
20.69047105882621
 30
0.0
 11
34.94233775865768
 21
20.09991989109969
 31
0.0
  0
LINE
  5
B97
330
AA0
100
AcDbEntity
  8
Dimension (ANSI)
440
 16777216
100
AcDbLine
 10
34.94233775865768
 20
22.5590733942792
 30
0.0
 11
34.94233775865768
 21
23.58678531454889
 31
0.0
  0
LINE
  5
B98
330
AA0
100
AcDbEntity
  8
Dimension (ANSI)
440
 16777216
100
AcDbLine
 10
34.94233775865768
 20
23.58678531454889
 30
0.0
 11
35.5328889263842
 21
23.58678531454889
 31
0.0
  0
SOLID
  5
B99
330
AA0
100
AcDbEntity
  8
Dimension (ANSI)
440
 16777216
100
AcDbTrace
 10
34.8439125640366
 20
20.69047105882621
 30
0.0
 11
35.04076295327877
 21
20.69047105882621
 31
0.0
 12
34.94233775865768
 22
21.28102222655273
 32
0.0
 13
34.94233775865768
 23
21.28102222655273
 33
0.0
  0
SOLID
  5
B9A
330
AA0
100
AcDbEntity
  8
Dimension (ANSI)
440
 16777216
100
AcDbTrace
 10
34.8439125640366
 20
22.5590733942792
 30
0.0
 11
35.04076295327877
 21
22.5590733942792
 31
0.0
 12
34.94233775865768
 22
21.96852222655268
 32
0.0
 13
34.94233775865768
 23
21.96852222655268
 33
0.0
  0
MTEXT
  5
B9B
330
AA0
100
AcDbEntity
  8
Dimension (ANSI)
440
 16777216
100
AcDbMText
 10
35.72186530433695
 20
23.88678531901924
 30
0.0
 40
0.6000000089406968
 41
0.0
 71
     1
 72
     1
  1
\A1;0.69
  7
ROMANS
 73
     1
 44
1.0
  0
POINT
  5
B9C
330
AA0
100
AcDbEntity
  8
Defpoints
 62
     0
440
 16777216
100
AcDbPoint
 10
38.7443169053702
 20
21.96852222655268
 30
0.0
  0
POINT
  5
B9D
330
AA0
100
AcDbEntity
  8
Defpoints
 62
     0
440
 16777216
100
AcDbPoint
 10
39.82246690537019
 20
21.28102222655273
 30
0.0
  0
POINT
  5
B9E
330
AA0
100
AcDbEntity
  8
Defpoints
 62
     0
440
 16777216
100
AcDbPoint
 10
34.94233775865768
 20
21.28102222655273
 30
0.0
  0
ENDBLK
  5
AA2
330
AA0
100
AcDbEntity
  8
0
100
AcDbBlockEnd
  0
BLOCK
  5
BA1
330
BA0
100
AcDbEntity
  8
0
100
AcDbBlockBegin
  2
*D13
 70
     1
 10
0.0
 20
0.0
 30
0.0
  3
*D13
  1

  0
LINE
  5
C7F
330
BA0
100
AcDbEntity
  8
Dimension (ANSI)
440
 16777216
100
AcDbLine
 10
48.72871690537019
 20
22.20292222655269
 30
0.0
 11
48.72871690537019
 21
25.18790465023326
 31
0.0
  0
LINE
  5
C80
330
BA0
100
AcDbEntity
  8
Dimension (ANSI)
440
 16777216
100
AcDbLine
 10
46.47871690537019
 20
22.68727222655273
 30
0.0
 11
46.47871690537019
 21
25.18790465023326
 31
0.0
  0
LINE
  5
C81
330
BA0
100
AcDbEntity
  8
Dimension (ANSI)
440
 16777216
100
AcDbLine
 10
47.06926807309671
 20
24.43790465023325
 30
0.0
 11
48.13816573764367
 21
24.43790465023325
 31
0.0
  0
LINE
  5
C82
330
BA0
100
AcDbEntity
  8
Dimension (ANSI)
440
 16777216
100
AcDbLine
 10
48.72871690537019
 20
24.43790465023325
 30
0.0
 11
49.7296444052019
 21
24.43790465023325
 31
0.0
  0
SOLID
  5
C83
330
BA0
100
AcDbEntity
  8
Dimension (ANSI)
440
 16777216
100
AcDbTrace
 10
47.06926807309671
 20
24.53632984485434
 30
0.0
 11
47.06926807309671
 21
24.33947945561217
 31
0.0
 12
46.47871690537019
 22
24.43790465023325
 32
0.0
 13
46.47871690537019
 23
24.43790465023325
 33
0.0
  0
SOLID
  5
C84
330
BA0
100
AcDbEntity
  8
Dimension (ANSI)
440
 16777216
100
AcDbTrace
 10
48.13816573764367
 20
24.53632984485434
 30
0.0
 11
48.13816573764367
 21
24.33947945561217
 31
0.0
 12
48.72871690537019
 22
24.43790465023325
 32
0.0
 13
48.72871690537019
 23
24.43790465023325
 33
0.0
  0
MTEXT
  5
C85
330
BA0
100
AcDbEntity
  8
Dimension (ANSI)
440
 16777216
100
AcDbMText
 10
49.91862078315466
 20
24.7379046547036
 30
0.0
 40
0.6000000089406968
 41
0.0
 71
     1
 72
     1
  1
\A1;2.25
  7
ROMANS
 73
     1
 44
1.0
  0
POINT
  5
C86
330
BA0
100
AcDbEntity
  8
Defpoints
 62
     0
440
 16777216
100
AcDbPoint
 10
48.72871690537019
 20
21.82792222655268
 30
0.0
  0
POINT
  5
C87
330
BA0
100
AcDbEntity
  8
Defpoints
 62
     0
440
 16777216
100
AcDbPoint
 10
46.47871690537019
 20
22.31227222655272
 30
0.0
  0
POINT
  5
C88
330
BA0
100
AcDbEntity
  8
Defpoints
 62
     0
440
 16777216
100
AcDbPoint
 10
46.47871690537019
 20
24.43790465023325
 30
0.0
  0
ENDBLK
  5
BA2
330
BA0
100
AcDbEntity
  8
0
100
AcDbBlockEnd
  0
BLOCK
  5
C8B
330
C8A
100
AcDbEntity
  8
0
100
AcDbBlockBegin
  2
*D14
 70
     1
 10
0.0
 20
0.0
 30
0.0
  3
*D14
  1

  0
LINE
  5
D69
330
C8A
100
AcDbEntity
  8
Dimension (ANSI)
440
 16777216
100
AcDbLine
 10
38.60371690537021
 20
22.20292222655268
 30
0.0
 11
38.60371690537021
 21
25.18790465023324
 31
0.0
  0
LINE
  5
D6A
330
C8A
100
AcDbEntity
  8
Dimension (ANSI)
440
 16777216
100
AcDbLine
 10
40.85371690537019
 20
22.68727222655272
 30
0.0
 11
40.85371690537019
 21
25.18790465023324
 31
0.0
  0
LINE
  5
D6B
330
C8A
100
AcDbEntity
  8
Dimension (ANSI)
440
 16777216
100
AcDbLine
 10
39.19426807309672
 20
24.43790465023325
 30
0.0
 11
40.26316573764368
 21
24.43790465023325
 31
0.0
  0
LINE
  5
D6C
330
C8A
100
AcDbEntity
  8
Dimension (ANSI)
440
 16777216
100
AcDbLine
 10
40.85371690537019
 20
24.43790465023325
 30
0.0
 11
41.44426807309671
 21
24.43790465023325
 31
0.0
  0
SOLID
  5
D6D
330
C8A
100
AcDbEntity
  8
Dimension (ANSI)
440
 16777216
100
AcDbTrace
 10
39.19426807309672
 20
24.53632984485433
 30
0.0
 11
39.19426807309672
 21
24.33947945561216
 31
0.0
 12
38.60371690537021
 22
24.43790465023325
 32
0.0
 13
38.60371690537021
 23
24.43790465023325
 33
0.0
  0
SOLID
  5
D6E
330
C8A
100
AcDbEntity
  8
Dimension (ANSI)
440
 16777216
100
AcDbTrace
 10
40.26316573764368
 20
24.53632984485433
 30
0.0
 11
40.26316573764368
 21
24.33947945561216
 31
0.0
 12
40.85371690537019
 22
24.43790465023325
 32
0.0
 13
40.85371690537019
 23
24.43790465023325
 33
0.0
  0
MTEXT
  5
D6F
330
C8A
100
AcDbEntity
  8
Dimension (ANSI)
440
 16777216
100
AcDbMText
 10
41.63324445104946
 20
24.73790465470359
 30
0.0
 40
0.6000000089406968
 41
0.0
 71
     1
 72
     1
  1
\A1;2.25
  7
ROMANS
 73
     1
 44
1.0
  0
POINT
  5
D70
330
C8A
100
AcDbEntity
  8
Defpoints
 62
     0
440
 16777216
100
AcDbPoint
 10
38.60371690537021
 20
21.82792222655268
 30
0.0
  0
POINT
  5
D71
330
C8A
100
AcDbEntity
  8
Defpoints
 62
     0
440
 16777216
100
AcDbPoint
 10
40.85371690537019
 20
22.31227222655272
 30
0.0
  0
POINT
  5
D72
330
C8A
100
AcDbEntity
  8
Defpoints
 62
     0
440
 16777216
100
AcDbPoint
 10
40.85371690537019
 20
24.43790465023325
 30
0.0
  0
ENDBLK
  5
C8C
330
C8A
100
AcDbEntity
  8
0
100
AcDbBlockEnd
  0
BLOCK
  5
D77
330
D76
100
AcDbEntity
  8
0
100
AcDbBlockBegin
  2
*D15
 70
     1
 10
0.0
 20
0.0
 30
0.0
  3
*D15
  1

  0
LINE
  5
E69
330
D76
100
AcDbEntity
  8
Dimension (ANSI)
440
 16777216
100
AcDbLine
 10
38.60371690537019
 20
13.59352222655268
 30
0.0
 11
38.60371690537019
 21
11.96159621108187
 31
0.0
  0
LINE
  5
E6A
330
D76
100
AcDbEntity
  8
Dimension (ANSI)
440
 16777216
100
AcDbLine
 10
39.2912169053702
 20
13.56227222655272
 30
0.0
 11
39.2912169053702
 21
11.96159621108187
 31
0.0
  0
LINE
  5
E6B
330
D76
100
AcDbEntity
  8
Dimension (ANSI)
440
 16777216
100
AcDbLine
 10
39.88176807309672
 20
12.71159621108187
 30
0.0
 11
40.47231924082323
 21
12.71159621108187
 31
0.0
  0
LINE
  5
E6C
330
D76
100
AcDbEntity
  8
Dimension (ANSI)
440
 16777216
100
AcDbLine
 10
38.01316573764367
 20
12.71159621108187
 30
0.0
 11
36.64043883267154
 21
12.71159621108187
 31
0.0
  0
SOLID
  5
E6D
330
D76
100
AcDbEntity
  8
Dimension (ANSI)
440
 16777216
100
AcDbTrace
 10
39.88176807309672
 20
12.81002140570295
 30
0.0
 11
39.88176807309672
 21
12.61317101646078
 31
0.0
 12
39.2912169053702
 22
12.71159621108187
 32
0.0
 13
39.2912169053702
 23
12.71159621108187
 33
0.0
  0
SOLID
  5
E6E
330
D76
100
AcDbEntity
  8
Dimension (ANSI)
440
 16777216
100
AcDbTrace
 10
38.01316573764367
 20
12.81002140570295
 30
0.0
 11
38.01316573764367
 21
12.61317101646078
 31
0.0
 12
38.60371690537019
 22
12.71159621108187
 32
0.0
 13
38.60371690537019
 23
12.71159621108187
 33
0.0
  0
MTEXT
  5
E6F
330
D76
100
AcDbEntity
  8
Dimension (ANSI)
440
 16777216
100
AcDbMText
 10
34.8943195743727
 20
12.71159621108187
 30
0.0
 40
0.6000000089406968
 41
0.0
 71
     5
 72
     1
  1
\A1;0.69{\P(2 PL.)}
  7
ROMANS
 73
     1
 44
1.0
  0
POINT
  5
E70
330
D76
100
AcDbEntity
  8
Defpoints
 62
     0
440
 16777216
100
AcDbPoint
 10
38.60371690537019
 20
13.96852222655268
 30
0.0
  0
POINT
  5
E71
330
D76
100
AcDbEntity
  8
Defpoints
 62
     0
440
 16777216
100
AcDbPoint
 10
39.2912169053702
 20
13.93727222655272
 30
0.0
  0
POINT
  5
E72
330
D76
100
AcDbEntity
  8
Defpoints
 62
     0
440
 16777216
100
AcDbPoint
 10
39.2912169053702
 20
12.71159621108187
 30
0.0
  0
ENDBLK
  5
D78
330
D76
100
AcDbEntity
  8
0
100
AcDbBlockEnd
  0
BLOCK
  5
E75
330
E74
100
AcDbEntity
  8
0
100
AcDbBlockBegin
  2
*D16
 70
     1
 10
0.0
 20
0.0
 30
0.0
  3
*D16
  1

  0
LINE
  5
F25
330
E74
100
AcDbEntity
  8
Dimension (ANSI)
440
 16777216
100
AcDbLine
 10
51.00870419851453
 20
17.66750759735283
 30
0.0
 11
50.15590765084643
 21
17.66750759735282
 31
0.0
  0
LINE
  5
F26
330
E74
100
AcDbEntity
  8
Dimension (ANSI)
440
 16777216
100
AcDbLine
 10
50.15590765084643
 20
17.66750759735282
 30
0.0
 11
48.57890003969306
 21
15.65476862771929
 31
0.0
  0
MTEXT
  5
F27
102
{ACAD_XDICTIONARY
360
15C4
102
}
330
E74
100
AcDbEntity
  8
Dimension (ANSI)
440
 16777216
100
AcDbMText
 10
52.75482345681338
 20
17.66750759735282
 30
0.0
 40
0.6000000089406968
 41
0.0
 71
     5
 72
     1
  1
\A1;\U+22050.563{\P(6 PL.)}
  7
ROMANS
 73
     1
 44
1.0
  0
SOLID
  5
F28
330
E74
100
AcDbEntity
  8
Dimension (ANSI)
440
 16777216
100
AcDbTrace
 10
48.5014237319141
 20
15.71547233987215
 30
0.0
 11
48.65637634747202
 21
15.59406491556643
 31
0.0
 12
48.21467776677588
 22
15.18991078104551
 32
0.0
 13
48.21467776677588
 23
15.18991078104551
 33
0.0
  0
LINE
  5
F29
330
E74
100
AcDbEntity
  8
Dimension (ANSI)
440
 16777216
100
AcDbLine
 10
47.50121690537022
 20
14.96852222655272
 30
0.0
 11
48.58121690537022
 21
14.96852222655272
 31
0.0
  0
LINE
  5
F2A
330
E74
100
AcDbEntity
  8
Dimension (ANSI)
440
 16777216
100
AcDbLine
 10
48.04121690537022
 20
14.42852222655272
 30
0.0
 11
48.04121690537022
 21
15.50852222655272
 31
0.0
  0
POINT
  5
F2B
330
E74
100
AcDbEntity
  8
Defpoints
 62
     0
440
 16777216
100
AcDbPoint
 10
48.21467776677588
 20
15.18991078104551
 30
0.0
  0
POINT
  5
F2C
330
E74
100
AcDbEntity
  8
Defpoints
 62
     0
440
 16777216
100
AcDbPoint
 10
47.86775604396457
 20
14.74713367205995
 30
0.0
  0
ENDBLK
  5
E76
330
E74
100
AcDbEntity
  8
0
100
AcDbBlockEnd
  0
BLOCK
  5
F34
330
F33
100
AcDbEntity
  8
0
100
AcDbBlockBegin
  2
*D17
 70
     1
 10
0.0
 20
0.0
 30
0.0
  3
*D17
  1

  0
LINE
  5
1012
330
F33
100
AcDbEntity
  8
Dimension (ANSI)
440
 16777216
100
AcDbLine
 10
38.60371690537818
 20
57.50531021752131
 30
0.0
 11
38.60371690537818
 21
60.24251494193076
 31
0.0
  0
LINE
  5
1013
330
F33
100
AcDbEntity
  8
Dimension (ANSI)
440
 16777216
100
AcDbLine
 10
40.72871690537815
 20
57.28656021751779
 30
0.0
 11
40.72871690537815
 21
60.24251494193076
 31
0.0
  0
LINE
  5
1014
330
F33
100
AcDbEntity
  8
Dimension (ANSI)
440
 16777216
100
AcDbLine
 10
40.13816573765163
 20
59.49251494193076
 30
0.0
 11
39.1942680731047
 21
59.49251494193076
 31
0.0
  0
LINE
  5
1015
330
F33
100
AcDbEntity
  8
Dimension (ANSI)
440
 16777216
100
AcDbLine
 10
38.60371690537818
 20
59.49251494193076
 30
0.0
 11
37.60278940554645
 21
59.49251494193076
 31
0.0
  0
SOLID
  5
1016
330
F33
100
AcDbEntity
  8
Dimension (ANSI)
440
 16777216
100
AcDbTrace
 10
40.13816573765163
 20
59.59094013655184
 30
0.0
 11
40.13816573765163
 21
59.39408974730967
 31
0.0
 12
40.72871690537815
 22
59.49251494193076
 32
0.0
 13
40.72871690537815
 23
59.49251494193076
 33
0.0
  0
SOLID
  5
1017
330
F33
100
AcDbEntity
  8
Dimension (ANSI)
440
 16777216
100
AcDbTrace
 10
39.1942680731047
 20
59.59094013655184
 30
0.0
 11
39.1942680731047
 21
59.39408974730967
 31
0.0
 12
38.60371690537818
 22
59.49251494193076
 32
0.0
 13
38.60371690537818
 23
59.49251494193076
 33
0.0
  0
MTEXT
  5
1018
330
F33
100
AcDbEntity
  8
Dimension (ANSI)
440
 16777216
100
AcDbMText
 10
35.58524157177443
 20
59.7925149464011
 30
0.0
 40
0.6000000089406968
 41
0.0
 71
     1
 72
     1
  1
\A1;2.13
  7
ROMANS
 73
     1
 44
1.0
  0
POINT
  5
1019
330
F33
100
AcDbEntity
  8
Defpoints
 62
     0
440
 16777216
100
AcDbPoint
 10
38.60371690537818
 20
57.13031021752131
 30
0.0
  0
POINT
  5
101A
330
F33
100
AcDbEntity
  8
Defpoints
 62
     0
440
 16777216
100
AcDbPoint
 10
40.72871690537815
 20
56.91156021751779
 30
0.0
  0
POINT
  5
101B
330
F33
100
AcDbEntity
  8
Defpoints
 62
     0
440
 16777216
100
AcDbPoint
 10
40.72871690537815
 20
59.49251494193076
 30
0.0
  0
ENDBLK
  5
F35
330
F33
100
AcDbEntity
  8
0
100
AcDbBlockEnd
  0
BLOCK
  5
101E
330
101D
100
AcDbEntity
  8
0
100
AcDbBlockBegin
  2
*D18
 70
     1
 10
0.0
 20
0.0
 30
0.0
  3
*D18
  1

  0
LINE
  5
10FC
330
101D
100
AcDbEntity
  8
Dimension (ANSI)
440
 16777216
100
AcDbLine
 10
38.60371690537818
 20
57.50531021752131
 30
0.0
 11
38.60371690537818
 21
61.65983777657643
 31
0.0
  0
LINE
  5
10FD
330
101D
100
AcDbEntity
  8
Dimension (ANSI)
440
 16777216
100
AcDbLine
 10
43.66621690537814
 20
54.28656021751783
 30
0.0
 11
43.66621690537814
 21
61.65983777657643
 31
0.0
  0
LINE
  5
10FE
330
101D
100
AcDbEntity
  8
Dimension (ANSI)
440
 16777216
100
AcDbLine
 10
39.1942680731047
 20
60.90983777657643
 30
0.0
 11
40.03170479951577
 21
60.90983777657643
 31
0.0
  0
LINE
  5
10FF
330
101D
100
AcDbEntity
  8
Dimension (ANSI)
440
 16777216
100
AcDbLine
 10
43.07566573765162
 20
60.90983777657643
 30
0.0
 11
42.23822901124054
 21
60.90983777657643
 31
0.0
  0
SOLID
  5
1100
330
101D
100
AcDbEntity
  8
Dimension (ANSI)
440
 16777216
100
AcDbTrace
 10
39.1942680731047
 20
61.00826297119752
 30
0.0
 11
39.1942680731047
 21
60.81141258195534
 31
0.0
 12
38.60371690537818
 22
60.90983777657643
 32
0.0
 13
38.60371690537818
 23
60.90983777657643
 33
0.0
  0
SOLID
  5
1101
330
101D
100
AcDbEntity
  8
Dimension (ANSI)
440
 16777216
100
AcDbTrace
 10
43.07566573765162
 20
61.00826297119752
 30
0.0
 11
43.07566573765162
 21
60.81141258195534
 31
0.0
 12
43.66621690537814
 22
60.90983777657643
 32
0.0
 13
43.66621690537814
 23
60.90983777657643
 33
0.0
  0
MTEXT
  5
1102
330
101D
100
AcDbEntity
  8
Dimension (ANSI)
440
 16777216
100
AcDbMText
 10
40.22068117746852
 20
61.20983778104678
 30
0.0
 40
0.6000000089406968
 41
0.0
 71
     1
 72
     1
  1
\A1;5.06
  7
ROMANS
 73
     1
 44
1.0
  0
POINT
  5
1103
330
101D
100
AcDbEntity
  8
Defpoints
 62
     0
440
 16777216
100
AcDbPoint
 10
38.60371690537818
 20
57.13031021752131
 30
0.0
  0
POINT
  5
1104
330
101D
100
AcDbEntity
  8
Defpoints
 62
     0
440
 16777216
100
AcDbPoint
 10
43.66621690537814
 20
53.91156021751783
 30
0.0
  0
POINT
  5
1105
330
101D
100
AcDbEntity
  8
Defpoints
 62
     0
440
 16777216
100
AcDbPoint
 10
43.66621690537814
 20
60.90983777657643
 30
0.0
  0
ENDBLK
  5
101F
330
101D
100
AcDbEntity
  8
0
100
AcDbBlockEnd
  0
BLOCK
  5
1108
330
1107
100
AcDbEntity
  8
0
100
AcDbBlockBegin
  2
*D19
 70
     1
 10
0.0
 20
0.0
 30
0.0
  3
*D19
  1

  0
LINE
  5
11E6
330
1107
100
AcDbEntity
  8
Dimension (ANSI)
440
 16777216
100
AcDbLine
 10
48.72871690537822
 20
57.50531021752131
 30
0.0
 11
48.72871690537822
 21
60.24251494193077
 31
0.0
  0
LINE
  5
11E7
330
1107
100
AcDbEntity
  8
Dimension (ANSI)
440
 16777216
100
AcDbLine
 10
46.60371690537814
 20
57.28656021751779
 30
0.0
 11
46.60371690537814
 21
60.24251494193077
 31
0.0
  0
LINE
  5
11E8
330
1107
100
AcDbEntity
  8
Dimension (ANSI)
440
 16777216
100
AcDbLine
 10
47.19426807310466
 20
59.49251494193076
 30
0.0
 11
48.1381657376517
 21
59.49251494193076
 31
0.0
  0
LINE
  5
11E9
330
1107
100
AcDbEntity
  8
Dimension (ANSI)
440
 16777216
100
AcDbLine
 10
48.72871690537822
 20
59.49251494193076
 30
0.0
 11
49.72964440520994
 21
59.49251494193076
 31
0.0
  0
SOLID
  5
11EA
330
1107
100
AcDbEntity
  8
Dimension (ANSI)
440
 16777216
100
AcDbTrace
 10
47.19426807310466
 20
59.59094013655185
 30
0.0
 11
47.19426807310466
 21
59.39408974730968
 31
0.0
 12
46.60371690537814
 22
59.49251494193076
 32
0.0
 13
46.60371690537814
 23
59.49251494193076
 33
0.0
  0
SOLID
  5
11EB
330
1107
100
AcDbEntity
  8
Dimension (ANSI)
440
 16777216
100
AcDbTrace
 10
48.1381657376517
 20
59.59094013655185
 30
0.0
 11
48.1381657376517
 21
59.39408974730968
 31
0.0
 12
48.72871690537822
 22
59.49251494193076
 32
0.0
 13
48.72871690537822
 23
59.49251494193076
 33
0.0
  0
MTEXT
  5
11EC
330
1107
100
AcDbEntity
  8
Dimension (ANSI)
440
 16777216
100
AcDbMText
 10
49.9186207831627
 20
59.79251494640111
 30
0.0
 40
0.6000000089406968
 41
0.0
 71
     1
 72
     1
  1
\A1;2.13
  7
ROMANS
 73
     1
 44
1.0
  0
POINT
  5
11ED
330
1107
100
AcDbEntity
  8
Defpoints
 62
     0
440
 16777216
100
AcDbPoint
 10
48.72871690537822
 20
57.13031021752131
 30
0.0
  0
POINT
  5
11EE
330
1107
100
AcDbEntity
  8
Defpoints
 62
     0
440
 16777216
100
AcDbPoint
 10
46.60371690537814
 20
56.91156021751779
 30
0.0
  0
POINT
  5
11EF
330
1107
100
AcDbEntity
  8
Defpoints
 62
     0
440
 16777216
100
AcDbPoint
 10
46.60371690537814
 20
59.49251494193076
 30
0.0
  0
ENDBLK
  5
1109
330
1107
100
AcDbEntity
  8
0
100
AcDbBlockEnd
  0
BLOCK
  5
11F2
330
11F1
100
AcDbEntity
  8
0
100
AcDbBlockBegin
  2
*D20
 70
     1
 10
0.0
 20
0.0
 30
0.0
  3
*D20
  1

  0
LINE
  5
12E2
330
11F1
100
AcDbEntity
  8
Dimension (ANSI)
440
 16777216
100
AcDbLine
 10
38.22871690537818
 20
57.13031021752131
 30
0.0
 11
37.14246831106188
 21
57.13031021752131
 31
0.0
  0
LINE
  5
12E3
330
11F1
100
AcDbEntity
  8
Dimension (ANSI)
440
 16777216
100
AcDbLine
 10
39.32246690537815
 20
55.88031021751779
 30
0.0
 11
37.14246831106188
 21
55.88031021751779
 31
0.0
  0
LINE
  5
12E4
330
11F1
100
AcDbEntity
  8
Dimension (ANSI)
440
 16777216
100
AcDbLine
 10
37.89246831106189
 20
57.72086138524783
 30
0.0
 11
37.89246831106189
 21
58.31141255297435
 31
0.0
  0
LINE
  5
12E5
330
11F1
100
AcDbEntity
  8
Dimension (ANSI)
440
 16777216
100
AcDbLine
 10
37.89246831106189
 20
55.28975904979127
 30
0.0
 11
37.89246831106189
 21
54.26204712952158
 31
0.0
  0
LINE
  5
12E6
330
11F1
100
AcDbEntity
  8
Dimension (ANSI)
440
 16777216
100
AcDbLine
 10
37.89246831106189
 20
54.26204712952158
 30
0.0
 11
37.30191714333537
 21
54.26204712952158
 31
0.0
  0
SOLID
  5
12E7
330
11F1
100
AcDbEntity
  8
Dimension (ANSI)
440
 16777216
100
AcDbTrace
 10
37.7940431164408
 20
57.72086138524783
 30
0.0
 11
37.99089350568297
 21
57.72086138524783
 31
0.0
 12
37.89246831106189
 22
57.13031021752131
 32
0.0
 13
37.89246831106189
 23
57.13031021752131
 33
0.0
  0
SOLID
  5
12E8
330
11F1
100
AcDbEntity
  8
Dimension (ANSI)
440
 16777216
100
AcDbTrace
 10
37.7940431164408
 20
55.28975904979127
 30
0.0
 11
37.99089350568297
 21
55.28975904979127
 31
0.0
 12
37.89246831106189
 22
55.88031021751779
 32
0.0
 13
37.89246831106189
 23
55.88031021751779
 33
0.0
  0
MTEXT
  5
12E9
330
11F1
100
AcDbEntity
  8
Dimension (ANSI)
440
 16777216
100
AcDbMText
 10
35.37008359655486
 20
54.56204713399193
 30
0.0
 40
0.6000000089406968
 41
0.0
 71
     1
 72
     1
  1
\A1;1.25
  7
ROMANS
 73
     1
 44
1.0
  0
POINT
  5
12EA
330
11F1
100
AcDbEntity
  8
Defpoints
 62
     0
440
 16777216
100
AcDbPoint
 10
38.60371690537818
 20
57.13031021752131
 30
0.0
  0
POINT
  5
12EB
330
11F1
100
AcDbEntity
  8
Defpoints
 62
     0
440
 16777216
100
AcDbPoint
 10
39.69746690537815
 20
55.88031021751779
 30
0.0
  0
POINT
  5
12EC
330
11F1
100
AcDbEntity
  8
Defpoints
 62
     0
440
 16777216
100
AcDbPoint
 10
37.89246831106189
 20
55.88031021751779
 30
0.0
  0
ENDBLK
  5
11F3
330
11F1
100
AcDbEntity
  8
0
100
AcDbBlockEnd
  0
BLOCK
  5
12EF
330
12EE
100
AcDbEntity
  8
0
100
AcDbBlockBegin
  2
*D21
 70
     1
 10
0.0
 20
0.0
 30
0.0
  3
*D21
  1

  0
LINE
  5
13D3
330
12EE
100
AcDbEntity
  8
Dimension (ANSI)
440
 16777216
100
AcDbLine
 10
38.22871690537818
 20
57.13031021752131
 30
0.0
 11
32.65686651167741
 21
57.13031021752131
 31
0.0
  0
LINE
  5
13D4
330
12EE
100
AcDbEntity
  8
Dimension (ANSI)
440
 16777216
100
AcDbLine
 10
42.25996690537814
 20
52.88031021751783
 30
0.0
 11
32.65686651167741
 21
52.88031021751783
 31
0.0
  0
LINE
  5
13D5
330
12EE
100
AcDbEntity
  8
Dimension (ANSI)
440
 16777216
100
AcDbLine
 10
33.40686651167741
 20
56.53975904979479
 30
0.0
 11
33.40686651167741
 21
55.49428659994266
 31
0.0
  0
LINE
  5
13D6
330
12EE
100
AcDbEntity
  8
Dimension (ANSI)
440
 16777216
100
AcDbLine
 10
33.40686651167741
 20
53.47086138524435
 30
0.0
 11
33.40686651167741
 21
54.51633383509645
 31
0.0
  0
SOLID
  5
13D7
330
12EE
100
AcDbEntity
  8
Dimension (ANSI)
440
 16777216
100
AcDbTrace
 10
33.30844131705632
 20
56.53975904979479
 30
0.0
 11
33.5052917062985
 21
56.53975904979479
 31
0.0
 12
33.40686651167741
 22
57.13031021752131
 32
0.0
 13
33.40686651167741
 23
57.13031021752131
 33
0.0
  0
SOLID
  5
13D8
330
12EE
100
AcDbEntity
  8
Dimension (ANSI)
440
 16777216
100
AcDbTrace
 10
33.30844131705632
 20
53.47086138524435
 30
0.0
 11
33.5052917062985
 21
53.47086138524435
 31
0.0
 12
33.40686651167741
 22
52.88031021751783
 32
0.0
 13
33.40686651167741
 23
52.88031021751783
 33
0.0
  0
MTEXT
  5
13D9
330
12EE
100
AcDbEntity
  8
Dimension (ANSI)
440
 16777216
100
AcDbMText
 10
32.49258078376776
 20
55.30531022198991
 30
0.0
 40
0.6000000089406968
 41
0.0
 71
     1
 72
     1
  1
\A1;4.25
  7
ROMANS
 73
     1
 44
1.0
  0
POINT
  5
13DA
330
12EE
100
AcDbEntity
  8
Defpoints
 62
     0
440
 16777216
100
AcDbPoint
 10
38.60371690537818
 20
57.13031021752131
 30
0.0
  0
POINT
  5
13DB
330
12EE
100
AcDbEntity
  8
Defpoints
 62
     0
440
 16777216
100
AcDbPoint
 10
42.63496690537814
 20
52.88031021751783
 30
0.0
  0
POINT
  5
13DC
330
12EE
100
AcDbEntity
  8
Defpoints
 62
     0
440
 16777216
100
AcDbPoint
 10
33.40686651167741
 20
52.88031021751783
 30
0.0
  0
ENDBLK
  5
12F0
330
12EE
100
AcDbEntity
  8
0
100
AcDbBlockEnd
  0
BLOCK
  5
13DF
330
13DE
100
AcDbEntity
  8
0
100
AcDbBlockBegin
  2
*D22
 70
     1
 10
0.0
 20
0.0
 30
0.0
  3
*D22
  1

  0
LINE
  5
148E
330
13DE
100
AcDbEntity
  8
Dimension (ANSI)
440
 16777216
100
AcDbLine
 10
49.52104484833991
 20
47.07300215710258
 30
0.0
 11
48.66824830067188
 21
47.07300215710259
 31
0.0
  0
LINE
  5
148F
330
13DE
100
AcDbEntity
  8
Dimension (ANSI)
440
 16777216
100
AcDbLine
 10
48.66824830067188
 20
47.07300215710259
 30
0.0
 11
44.23517184153755
 21
52.21975926818145
 31
0.0
  0
MTEXT
  5
1490
102
{ACAD_XDICTIONARY
360
15C6
102
}
330
13DE
100
AcDbEntity
  8
Dimension (ANSI)
440
 16777216
100
AcDbMText
 10
51.26716410663876
 20
47.07300215710259
 30
0.0
 40
0.6000000089406968
 41
0.0
 71
     5
 72
     1
  1
\A1;\U+22050.563{\P(3 PL.)}
  7
ROMANS
 73
     1
 44
1.0
  0
SOLID
  5
1491
330
13DE
100
AcDbEntity
  8
Dimension (ANSI)
440
 16777216
100
AcDbTrace
 10
44.30974716691263
 20
52.28399352525196
 30
0.0
 11
44.16059651616248
 21
52.15552501111094
 31
0.0
 12
43.84976629911449
 22
52.6672112204319
 32
0.0
 13
43.84976629911449
 23
52.6672112204319
 33
0.0
  0
LINE
  5
1492
330
13DE
100
AcDbEntity
  8
Dimension (ANSI)
440
 16777216
100
AcDbLine
 10
43.12621690537816
 20
52.88031021751782
 30
0.0
 11
44.20621690537815
 21
52.88031021751782
 31
0.0
  0
LINE
  5
1493
330
13DE
100
AcDbEntity
  8
Dimension (ANSI)
440
 16777216
100
AcDbLine
 10
43.66621690537814
 20
52.34031021751781
 30
0.0
 11
43.66621690537814
 21
53.42031021751783
 31
0.0
  0
POINT
  5
1494
330
13DE
100
AcDbEntity
  8
Defpoints
 62
     0
440
 16777216
100
AcDbPoint
 10
43.84976629911449
 20
52.6672112204319
 30
0.0
  0
POINT
  5
1495
330
13DE
100
AcDbEntity
  8
Defpoints
 62
     0
440
 16777216
100
AcDbPoint
 10
43.48266751164181
 20
53.09340921460374
 30
0.0
  0
ENDBLK
  5
13E0
330
13DE
100
AcDbEntity
  8
0
100
AcDbBlockEnd
  0
BLOCK
  5
1498
330
1497
100
AcDbEntity
  8
0
100
AcDbBlockBegin
  2
*D23
 70
     1
 10
0.0
 20
0.0
 30
0.0
  3
*D23
  1

  0
LINE
  5
1576
330
1497
100
AcDbEntity
  8
Dimension (ANSI)
440
 16777216
100
AcDbLine
 10
10.49895596985332
 20
29.7678892393965
 30
0.0
 11
10.49895596985332
 21
27.6711595171569
 31
0.0
  0
LINE
  5
1577
330
1497
100
AcDbEntity
  8
Dimension (ANSI)
440
 16777216
100
AcDbLine
 10
18.24895596985338
 20
29.62741538059471
 30
0.0
 11
18.24895596985338
 21
27.6711595171569
 31
0.0
  0
LINE
  5
1578
330
1497
100
AcDbEntity
  8
Dimension (ANSI)
440
 16777216
100
AcDbLine
 10
11.08950713757983
 20
28.42115951715689
 30
0.0
 11
13.27069386399096
 21
28.42115951715689
 31
0.0
  0
LINE
  5
1579
330
1497
100
AcDbEntity
  8
Dimension (ANSI)
440
 16777216
100
AcDbLine
 10
17.65840480212687
 20
28.42115951715689
 30
0.0
 11
15.47721807571574
 21
28.42115951715689
 31
0.0
  0
SOLID
  5
157A
330
1497
100
AcDbEntity
  8
Dimension (ANSI)
440
 16777216
100
AcDbTrace
 10
11.08950713757983
 20
28.51958471177798
 30
0.0
 11
11.08950713757983
 21
28.32273432253581
 31
0.0
 12
10.49895596985332
 22
28.42115951715689
 32
0.0
 13
10.49895596985332
 23
28.42115951715689
 33
0.0
  0
SOLID
  5
157B
330
1497
100
AcDbEntity
  8
Dimension (ANSI)
440
 16777216
100
AcDbTrace
 10
17.65840480212687
 20
28.51958471177798
 30
0.0
 11
17.65840480212687
 21
28.32273432253581
 31
0.0
 12
18.24895596985338
 22
28.42115951715689
 32
0.0
 13
18.24895596985338
 23
28.42115951715689
 33
0.0
  0
MTEXT
  5
157C
330
1497
100
AcDbEntity
  8
Dimension (ANSI)
440
 16777216
100
AcDbMText
 10
13.45967024194372
 20
28.72115952162724
 30
0.0
 40
0.6000000089406968
 41
0.0
 71
     1
 72
     1
  1
\A1;7.75
  7
ROMANS
 73
     1
 44
1.0
  0
POINT
  5
157D
330
1497
100
AcDbEntity
  8
Defpoints
 62
     0
440
 16777216
100
AcDbPoint
 10
10.49895596985332
 20
30.1428892393965
 30
0.0
  0
POINT
  5
157E
330
1497
100
AcDbEntity
  8
Defpoints
 62
     0
440
 16777216
100
AcDbPoint
 10
18.24895596985338
 20
30.00241538059471
 30
0.0
  0
POINT
  5
157F
330
1497
100
AcDbEntity
  8
Defpoints
 62
     0
440
 16777216
100
AcDbPoint
 10
18.24895596985338
 20
28.42115951715689
 30
0.0
  0
ENDBLK
  5
1499
330
1497
100
AcDbEntity
  8
0
100
AcDbBlockEnd
  0
ENDSEC
  0
SECTION
  2
ENTITIES
  0
SPLINE
  5
107
330
6C
100
AcDbEntity
  8
Visible (ANSI)
100
AcDbSpline
210
0.0
220
0.0
230
1.0
 70
     8
 71
     3
 72
    11
 73
     7
 74
     0
 42
0.0000000001
 43
0.0000000001
 40
0.0
 40
0.0
 40
0.0
 40
0.0
 40
1.018582815488612
 40
1.018582815488612
 40
1.018582815488612
 40
1.570796326794896
 40
1.570796326794896
 40
1.570796326794896
 40
1.570796326794896
 10
48.58811690537439
 20
30.0022892393965
 30
0.0
 10
48.6358544866603
 20
30.0022892393965
 30
0.0
 10
48.6827770419425
 20
30.02849214497563
 30
0.0
 10
48.70781888910467
 20
30.06913427284481
 30
0.0
 10
48.72139505212325
 20
30.09116795709348
 30
0.0
 10
48.7287169053744
 20
30.11700883283328
 30
0.0
 10
48.7287169053744
 20
30.1428892393965
 30
0.0
  0
LINE
  5
108
330
6C
100
AcDbEntity
  8
Visible (ANSI)
100
AcDbLine
 10
48.58811690537439
 20
30.1272892393965
 30
0.0
 11
48.58811690537439
 21
30.0022892393965
 31
0.0
  0
LINE
  5
109
330
6C
100
AcDbEntity
  8
Visible (ANSI)
100
AcDbLine
 10
48.67762564536929
 20
30.1428892393965
 30
0.0
 11
48.7287169053744
 21
30.1428892393965
 31
0.0
  0
LINE
  5
10A
330
6C
100
AcDbEntity
  8
Visible (ANSI)
100
AcDbLine
 10
48.6037169053744
 20
30.1428892393965
 30
0.0
 11
48.67762564536929
 21
30.1428892393965
 31
0.0
  0
SPLINE
  5
10B
330
6C
100
AcDbEntity
  8
Visible (ANSI)
100
AcDbSpline
210
0.0
220
0.0
230
1.0
 70
     8
 71
     3
 72
     8
 73
     4
 74
     0
 42
0.0000000001
 43
0.0000000001
 40
0.0
 40
0.0
 40
0.0
 40
0.0
 40
1.570796326794896
 40
1.570796326794896
 40
1.570796326794896
 40
1.570796326794896
 10
48.6037169053744
 20
30.1428892393965
 30
0.0
 10
48.6037169053744
 20
30.13472109849717
 30
0.0
 10
48.59628504627374
 20
30.1272892393965
 30
0.0
 10
48.58811690537439
 20
30.1272892393965
 30
0.0
  0
LINE
  5
10C
330
6C
100
AcDbEntity
  8
Visible Narrow (ANSI)
100
AcDbLine
 10
38.74431690537438
 20
30.1428892393965
 30
0.0
 11
38.85371690537434
 21
30.1428892393965
 31
0.0
  0
LINE
  5
10D
330
6C
100
AcDbEntity
  8
Visible Narrow (ANSI)
100
AcDbLine
 10
48.47871690537434
 20
30.1428892393965
 30
0.0
 11
48.58811690537438
 21
30.1428892393965
 31
0.0
  0
SPLINE
  5
10E
330
6C
100
AcDbEntity
  8
Visible (ANSI)
100
AcDbSpline
210
0.0
220
0.0
230
1.0
 70
     8
 71
     3
 72
    11
 73
     7
 74
     0
 42
0.0000000001
 43
0.0000000001
 40
0.0
 40
0.0
 40
0.0
 40
0.0
 40
1.018582815488561
 40
1.018582815488561
 40
1.018582815488561
 40
1.570796326794897
 40
1.570796326794897
 40
1.570796326794897
 40
1.570796326794897
 10
38.60371690537438
 20
30.1428892393965
 30
0.0
 10
38.60371690537438
 20
30.0951516581106
 30
0.0
 10
38.6299198109535
 20
30.0482291028284
 30
0.0
 10
38.67056193882268
 20
30.02318725566624
 30
0.0
 10
38.69259562307135
 20
30.00961109264765
 30
0.0
 10
38.71843649881115
 20
30.0022892393965
 30
0.0
 10
38.74431690537438
 20
30.0022892393965
 30
0.0
  0
LINE
  5
10F
330
6C
100
AcDbEntity
  8
Visible (ANSI)
100
AcDbLine
 10
38.74431690537438
 20
30.1272892393965
 30
0.0
 11
38.74431690537438
 21
30.0022892393965
 31
0.0
  0
SPLINE
  5
110
330
6C
100
AcDbEntity
  8
Visible (ANSI)
100
AcDbSpline
210
0.0
220
0.0
230
1.0
 70
     8
 71
     3
 72
     8
 73
     4
 74
     0
 42
0.0000000001
 43
0.0000000001
 40
0.0
 40
0.0
 40
0.0
 40
0.0
 40
1.570796326794897
 40
1.570796326794897
 40
1.570796326794897
 40
1.570796326794897
 10
38.72871690537437
 20
30.1428892393965
 30
0.0
 10
38.72871690537437
 20
30.13472109849717
 30
0.0
 10
38.73614876447504
 20
30.1272892393965
 30
0.0
 10
38.74431690537438
 20
30.1272892393965
 30
0.0
  0
LINE
  5
111
330
6C
100
AcDbEntity
  8
Visible (ANSI)
100
AcDbLine
 10
38.65480816537949
 20
30.1428892393965
 30
0.0
 11
38.72871690537437
 21
30.1428892393965
 31
0.0
  0
LINE
  5
112
330
6C
100
AcDbEntity
  8
Visible (ANSI)
100
AcDbLine
 10
38.60371690537438
 20
30.1428892393965
 30
0.0
 11
38.65480816537949
 21
30.1428892393965
 31
0.0
  0
LINE
  5
113
330
6C
100
AcDbEntity
  8
Visible (ANSI)
100
AcDbLine
 10
48.58811690537439
 20
30.1272892393965
 30
0.0
 11
48.47871690537434
 21
30.1272892393965
 31
0.0
  0
LINE
  5
114
330
6C
100
AcDbEntity
  8
Visible (ANSI)
100
AcDbLine
 10
47.47871690537439
 20
30.0022892393965
 30
0.0
 11
48.58811690537439
 21
30.0022892393965
 31
0.0
  0
LINE
  5
115
330
6C
100
AcDbEntity
  8
Visible (ANSI)
100
AcDbLine
 10
47.47871690537439
 20
30.00241538059472
 30
0.0
 11
47.47871690537439
 21
30.0022892393965
 31
0.0
  0
LINE
  5
116
330
6C
100
AcDbEntity
  8
Visible (ANSI)
100
AcDbLine
 10
39.87581399228645
 20
30.0022892393965
 30
0.0
 11
47.4566198184623
 21
30.0022892393965
 31
0.0
  0
LINE
  5
117
330
6C
100
AcDbEntity
  8
Visible (ANSI)
100
AcDbLine
 10
38.74431690537438
 20
30.1272892393965
 30
0.0
 11
38.85371690537434
 21
30.1272892393965
 31
0.0
  0
LINE
  5
118
330
6C
100
AcDbEntity
  8
Visible (ANSI)
100
AcDbLine
 10
38.74431690537438
 20
30.0022892393965
 30
0.0
 11
39.85371690537437
 21
30.0022892393965
 31
0.0
  0
LINE
  5
119
330
6C
100
AcDbEntity
  8
Visible (ANSI)
100
AcDbLine
 10
39.85371690537437
 20
30.00241538059472
 30
0.0
 11
39.85371690537437
 21
30.0022892393965
 31
0.0
  0
LINE
  5
11A
330
6C
100
AcDbEntity
  8
Visible (ANSI)
100
AcDbLine
 10
38.72871690537438
 20
30.1428892393965
 30
0.0
 11
38.74431690537438
 21
30.1428892393965
 31
0.0
  0
LINE
  5
11B
330
6C
100
AcDbEntity
  8
Visible (ANSI)
100
AcDbLine
 10
48.58811690537438
 20
30.1428892393965
 30
0.0
 11
48.60371690537437
 21
30.1428892393965
 31
0.0
  0
SPLINE
  5
11C
330
6C
100
AcDbEntity
  8
Visible (ANSI)
100
AcDbSpline
210
0.0
220
0.0
230
1.0
 70
     8
 71
     3
 72
     8
 73
     4
 74
     0
 42
0.0000000001
 43
0.0000000001
 40
0.0
 40
0.0
 40
0.0
 40
0.0
 40
0.1111819782024558
 40
0.1111819782024558
 40
0.1111819782024558
 40
0.1111819782024558
 10
38.74431690537438
 20
30.1428892393965
 30
0.0
 10
38.74483825406728
 20
30.13767851068474
 30
0.0
 10
38.74535960276019
 20
30.13247749260662
 30
0.0
 10
38.7458809514531
 20
30.12731358132142
 30
0.0
  0
SPLINE
  5
11D
330
6C
100
AcDbEntity
  8
Visible (ANSI)
100
AcDbSpline
210
0.0
220
0.0
230
1.0
 70
     8
 71
     3
 72
     8
 73
     4
 74
     0
 42
0.0000000001
 43
0.0000000001
 40
1.45961434859247
 40
1.45961434859247
 40
1.45961434859247
 40
1.45961434859247
 40
1.570796326794895
 40
1.570796326794895
 40
1.570796326794895
 40
1.570796326794895
 10
48.58655285929565
 20
30.12729261129958
 30
0.0
 10
48.58707420798856
 20
30.13246938444553
 30
0.0
 10
48.58759555668147
 20
30.13767851068474
 30
0.0
 10
48.58811690537438
 20
30.1428892393965
 30
0.0
  0
LINE
  5
11E
330
6C
100
AcDbEntity
  8
Visible (ANSI)
100
AcDbLine
 10
47.4566198184623
 20
30.0022892393965
 30
0.0
 11
47.47871690537437
 21
30.0022892393965
 31
0.0
  0
LINE
  5
11F
330
6C
100
AcDbEntity
  8
Visible (ANSI)
100
AcDbLine
 10
47.4566198184623
 20
30.00241538059472
 30
0.0
 11
47.4566198184623
 21
30.0022892393965
 31
0.0
  0
SPLINE
  5
120
330
6C
100
AcDbEntity
  8
Visible (ANSI)
100
AcDbSpline
210
0.0
220
0.0
230
1.0
 70
     8
 71
     3
 72
     8
 73
     4
 74
     0
 42
0.0000000001
 43
0.0000000001
 40
0.0
 40
0.0
 40
0.0
 40
0.0
 40
1.570796326794895
 40
1.570796326794895
 40
1.570796326794895
 40
1.570796326794895
 10
48.58811690537438
 20
30.1428892393965
 30
0.0
 10
48.58075120973701
 20
30.13472109849717
 30
0.0
 10
48.57338551409965
 20
30.1272892393965
 30
0.0
 10
48.56601981846229
 20
30.1272892393965
 30
0.0
  0
SPLINE
  5
121
330
6C
100
AcDbEntity
  8
Visible (ANSI)
100
AcDbSpline
210
0.0
220
0.0
230
1.0
 70
     8
 71
     3
 72
     8
 73
     4
 74
     0
 42
0.0000000001
 43
0.0000000001
 40
0.0
 40
0.0
 40
0.0
 40
0.0
 40
1.570796326794896
 40
1.570796326794896
 40
1.570796326794896
 40
1.570796326794896
 10
38.74431690537438
 20
30.1428892393965
 30
0.0
 10
38.75168260101174
 20
30.13472109849717
 30
0.0
 10
38.7590482966491
 20
30.1272892393965
 30
0.0
 10
38.76641399228645
 20
30.1272892393965
 30
0.0
  0
LINE
  5
122
330
6C
100
AcDbEntity
  8
Visible (ANSI)
100
AcDbLine
 10
39.85371690537437
 20
30.0022892393965
 30
0.0
 11
39.87581399228645
 21
30.0022892393965
 31
0.0
  0
LINE
  5
123
330
6C
100
AcDbEntity
  8
Visible (ANSI)
100
AcDbLine
 10
39.87581399228645
 20
30.00241538059472
 30
0.0
 11
39.87581399228645
 21
30.0022892393965
 31
0.0
  0
LINE
  5
124
330
6C
100
AcDbEntity
  8
Visible (ANSI)
100
AcDbLine
 10
38.60371690537438
 20
30.1428892393965
 30
0.0
 11
38.60371690537436
 21
41.86168923939649
 31
0.0
  0
LINE
  5
125
330
6C
100
AcDbEntity
  8
Visible (ANSI)
100
AcDbLine
 10
48.6037169053744
 20
30.1428892393965
 30
0.0
 11
48.60371690537441
 21
41.8616892393965
 31
0.0
  0
LINE
  5
126
330
6C
100
AcDbEntity
  8
Visible (ANSI)
100
AcDbLine
 10
48.72871690537441
 20
41.8616892393965
 30
0.0
 11
48.7287169053744
 21
30.1428892393965
 31
0.0
  0
LINE
  5
127
330
6C
100
AcDbEntity
  8
Visible (ANSI)
100
AcDbLine
 10
48.60371690537441
 20
41.8616892393965
 30
0.0
 11
48.72871690537441
 21
41.8616892393965
 31
0.0
  0
LINE
  5
128
330
6C
100
AcDbEntity
  8
Visible (ANSI)
100
AcDbLine
 10
38.72871690537437
 20
41.86168923939649
 30
0.0
 11
38.72871690537437
 21
30.1428892393965
 31
0.0
  0
LINE
  5
129
330
6C
100
AcDbEntity
  8
Visible (ANSI)
100
AcDbLine
 10
38.60371690537436
 20
41.86168923939649
 30
0.0
 11
38.72871690537437
 21
41.86168923939649
 31
0.0
  0
LINE
  5
12A
330
6C
100
AcDbEntity
  8
Visible Narrow (ANSI)
100
AcDbLine
 10
38.74431690537437
 20
41.86168923939649
 30
0.0
 11
38.74431690537438
 21
30.1428892393965
 31
0.0
  0
LINE
  5
12B
330
6C
100
AcDbEntity
  8
Visible Narrow (ANSI)
100
AcDbLine
 10
48.58811690537438
 20
30.1428892393965
 30
0.0
 11
48.58811690537437
 21
41.86168923939649
 31
0.0
  0
LINE
  5
12C
330
6C
100
AcDbEntity
  8
Visible (ANSI)
100
AcDbLine
 10
38.74431690537437
 20
41.8616892393965
 30
0.0
 11
38.72871690537437
 21
41.8616892393965
 31
0.0
  0
LINE
  5
12D
330
6C
100
AcDbEntity
  8
Visible (ANSI)
100
AcDbLine
 10
39.35371690537437
 20
41.87728923939646
 30
0.0
 11
38.74431690537437
 21
41.87728923939649
 31
0.0
  0
LINE
  5
12E
330
6C
100
AcDbEntity
  8
Visible (ANSI)
100
AcDbLine
 10
39.35371690537439
 20
42.00228923939646
 30
0.0
 11
38.74431690537438
 21
42.0022892393965
 31
0.0
  0
LINE
  5
12F
330
6C
100
AcDbEntity
  8
Visible (ANSI)
100
AcDbLine
 10
48.58811690537441
 20
42.0022892393965
 30
0.0
 11
47.9787169053744
 21
42.0022892393965
 31
0.0
  0
LINE
  5
130
330
6C
100
AcDbEntity
  8
Visible (ANSI)
100
AcDbLine
 10
47.9787169053744
 20
41.87728923939652
 30
0.0
 11
48.58811690537441
 21
41.8772892393965
 31
0.0
  0
LINE
  5
131
330
6C
100
AcDbEntity
  8
Visible (ANSI)
100
AcDbLine
 10
47.4566198184623
 20
41.8772892393965
 30
0.0
 11
39.87581399228645
 21
41.87728923939649
 31
0.0
  0
LINE
  5
132
330
6C
100
AcDbEntity
  8
Visible (ANSI)
100
AcDbLine
 10
47.4566198184623
 20
42.0022892393965
 30
0.0
 11
39.87581399228645
 21
42.0022892393965
 31
0.0
  0
LINE
  5
133
330
6C
100
AcDbEntity
  8
Visible (ANSI)
100
AcDbLine
 10
48.60371690537437
 20
41.8616892393965
 30
0.0
 11
48.58811690537437
 21
41.8616892393965
 31
0.0
  0
LINE
  5
134
330
6C
100
AcDbEntity
  8
Visible (ANSI)
100
AcDbLine
 10
39.85371690537438
 20
42.00228923939643
 30
0.0
 11
39.35371690537439
 21
42.00228923939646
 31
0.0
  0
LINE
  5
135
330
6C
100
AcDbEntity
  8
Visible (ANSI)
100
AcDbLine
 10
39.35371690537439
 20
42.00228923939646
 30
0.0
 11
39.35371690537437
 21
41.87728923939646
 31
0.0
  0
LINE
  5
136
330
6C
100
AcDbEntity
  8
Visible (ANSI)
100
AcDbLine
 10
39.35371690537437
 20
41.87728923939646
 30
0.0
 11
39.85371690537437
 21
41.87728923939643
 31
0.0
  0
LINE
  5
137
330
6C
100
AcDbEntity
  8
Visible (ANSI)
100
AcDbLine
 10
39.85371690537437
 20
41.87728923939643
 30
0.0
 11
39.85371690537438
 21
42.00228923939643
 31
0.0
  0
LINE
  5
138
330
6C
100
AcDbEntity
  8
Visible (ANSI)
100
AcDbLine
 10
47.9787169053744
 20
42.0022892393965
 30
0.0
 11
47.47871690537439
 21
42.0022892393965
 31
0.0
  0
LINE
  5
139
330
6C
100
AcDbEntity
  8
Visible (ANSI)
100
AcDbLine
 10
47.47871690537439
 20
42.0022892393965
 30
0.0
 11
47.47871690537439
 21
41.8772892393965
 31
0.0
  0
LINE
  5
13A
330
6C
100
AcDbEntity
  8
Visible (ANSI)
100
AcDbLine
 10
47.47871690537439
 20
41.8772892393965
 30
0.0
 11
47.9787169053744
 21
41.87728923939652
 31
0.0
  0
LINE
  5
13B
330
6C
100
AcDbEntity
  8
Visible (ANSI)
100
AcDbLine
 10
47.9787169053744
 20
41.87728923939652
 30
0.0
 11
47.9787169053744
 21
42.0022892393965
 31
0.0
  0
ARC
  5
13C
330
6C
100
AcDbEntity
  8
Visible (ANSI)
100
AcDbCircle
 10
38.74431690537437
 20
41.86168923939648
 30
0.0
 40
0.0156
100
AcDbArc
 50
90.0
 51
180.0
  0
ARC
  5
13D
330
6C
100
AcDbEntity
  8
Visible (ANSI)
100
AcDbCircle
 10
38.74431690537437
 20
41.86168923939649
 30
0.0
 40
0.1405999999999981
100
AcDbArc
 50
89.99999999999657
 51
180.0
  0
ARC
  5
13E
330
6C
100
AcDbEntity
  8
Visible (ANSI)
100
AcDbCircle
 10
48.58811690537441
 20
41.8616892393965
 30
0.0
 40
0.1406000000000037
100
AcDbArc
 50
0.0
 51
90.0
  0
ARC
  5
13F
330
6C
100
AcDbEntity
  8
Visible (ANSI)
100
AcDbCircle
 10
48.58811690537441
 20
41.8616892393965
 30
0.0
 40
0.0156000000000028
100
AcDbArc
 50
0.0
 51
90.0
  0
LINE
  5
140
330
6C
100
AcDbEntity
  8
Visible Narrow (ANSI)
100
AcDbLine
 10
48.58811690537437
 20
41.86168923939649
 30
0.0
 11
38.74431690537437
 21
41.86168923939649
 31
0.0
  0
SPLINE
  5
141
330
6C
100
AcDbEntity
  8
Visible (ANSI)
100
AcDbSpline
210
0.0
220
0.0
230
1.0
 70
     8
 71
     3
 72
     8
 73
     4
 74
     0
 42
0.0000000001
 43
0.0000000001
 40
0.0
 40
0.0
 40
0.0
 40
0.0
 40
0.1111819782023944
 40
0.1111819782023944
 40
0.1111819782023944
 40
0.1111819782023944
 10
48.58811690537437
 20
41.86168923939651
 30
0.0
 10
48.58759555668147
 20
41.86689996810826
 30
0.0
 10
48.58707420798855
 20
41.87210098618638
 30
0.0
 10
48.58655285929565
 20
41.87726489747158
 30
0.0
  0
SPLINE
  5
142
330
6C
100
AcDbEntity
  8
Visible (ANSI)
100
AcDbSpline
210
0.0
220
0.0
230
1.0
 70
     8
 71
     3
 72
     8
 73
     4
 74
     0
 42
0.0000000001
 43
0.0000000001
 40
1.459614348592564
 40
1.459614348592564
 40
1.459614348592564
 40
1.459614348592564
 40
1.570796326794991
 40
1.570796326794991
 40
1.570796326794991
 40
1.570796326794991
 10
38.74588095145309
 20
41.8772858674934
 30
0.0
 10
38.74535960276019
 20
41.87210909434745
 30
0.0
 10
38.74483825406728
 20
41.86689996810824
 30
0.0
 10
38.74431690537437
 20
41.86168923939649
 30
0.0
  0
LINE
  5
143
330
6C
100
AcDbEntity
  8
Visible (ANSI)
100
AcDbLine
 10
47.47871690537437
 20
41.8772892393965
 30
0.0
 11
47.4566198184623
 21
41.8772892393965
 31
0.0
  0
LINE
  5
144
330
6C
100
AcDbEntity
  8
Visible (ANSI)
100
AcDbLine
 10
39.85371690537438
 20
41.87728923939649
 30
0.0
 11
39.87581399228645
 21
41.87728923939649
 31
0.0
  0
LINE
  5
145
330
6C
100
AcDbEntity
  8
Visible (ANSI)
100
AcDbLine
 10
39.87581399228645
 20
42.0022892393965
 30
0.0
 11
39.85371690537438
 21
42.0022892393965
 31
0.0
  0
LINE
  5
146
330
6C
100
AcDbEntity
  8
Visible (ANSI)
100
AcDbLine
 10
39.87581399228645
 20
41.87728923939649
 30
0.0
 11
39.87581399228645
 21
42.0022892393965
 31
0.0
  0
SPLINE
  5
147
330
6C
100
AcDbEntity
  8
Visible (ANSI)
100
AcDbSpline
210
0.0
220
0.0
230
1.0
 70
     8
 71
     3
 72
     8
 73
     4
 74
     0
 42
0.0000000001
 43
0.0000000001
 40
0.0
 40
0.0
 40
0.0
 40
0.0
 40
1.570796326794991
 40
1.570796326794991
 40
1.570796326794991
 40
1.570796326794991
 10
38.74431690537437
 20
41.86168923939649
 30
0.0
 10
38.75168260101174
 20
41.86985738029583
 30
0.0
 10
38.7590482966491
 20
41.87728923939649
 30
0.0
 10
38.76641399228645
 20
41.87728923939649
 30
0.0
  0
SPLINE
  5
148
330
6C
100
AcDbEntity
  8
Visible (ANSI)
100
AcDbSpline
210
0.0
220
0.0
230
1.0
 70
     8
 71
     3
 72
     8
 73
     4
 74
     0
 42
0.0000000001
 43
0.0000000001
 40
0.0
 40
0.0
 40
0.0
 40
0.0
 40
1.570796326794887
 40
1.570796326794887
 40
1.570796326794887
 40
1.570796326794887
 10
48.58811690537437
 20
41.86168923939649
 30
0.0
 10
48.58075120973701
 20
41.86985738029583
 30
0.0
 10
48.57338551409965
 20
41.87728923939649
 30
0.0
 10
48.56601981846229
 20
41.87728923939649
 30
0.0
  0
LINE
  5
149
330
6C
100
AcDbEntity
  8
Visible (ANSI)
100
AcDbLine
 10
47.47871690537437
 20
42.0022892393965
 30
0.0
 11
47.4566198184623
 21
42.0022892393965
 31
0.0
  0
LINE
  5
14A
330
6C
100
AcDbEntity
  8
Visible (ANSI)
100
AcDbLine
 10
47.4566198184623
 20
41.8772892393965
 30
0.0
 11
47.4566198184623
 21
42.0022892393965
 31
0.0
  0
LINE
  5
14B
330
6C
100
AcDbEntity
  8
Visible (ANSI)
100
AcDbLine
 10
48.35371690537434
 20
30.12741538059472
 30
0.0
 11
48.47871690537434
 21
30.12741538059472
 31
0.0
  0
LINE
  5
14C
330
6C
100
AcDbEntity
  8
Visible Narrow (ANSI)
100
AcDbLine
 10
48.35371690537434
 20
30.12741538059472
 30
0.0
 11
48.35371690537434
 21
30.00241538059472
 31
0.0
  0
LINE
  5
14D
330
6C
100
AcDbEntity
  8
Visible (ANSI)
100
AcDbLine
 10
48.47871690537434
 20
30.00241538059472
 30
0.0
 11
48.35371690537434
 21
30.00241538059472
 31
0.0
  0
LINE
  5
14E
330
6C
100
AcDbEntity
  8
Visible (ANSI)
100
AcDbLine
 10
48.47871690537434
 20
30.00241538059472
 30
0.0
 11
48.47871690537434
 21
30.12741538059472
 31
0.0
  0
LINE
  5
14F
330
6C
100
AcDbEntity
  8
Visible (ANSI)
100
AcDbLine
 10
38.97871690537434
 20
30.00241538059472
 30
0.0
 11
38.85371690537434
 21
30.00241538059472
 31
0.0
  0
LINE
  5
150
330
6C
100
AcDbEntity
  8
Visible (ANSI)
100
AcDbLine
 10
38.85371690537434
 20
30.12741538059472
 30
0.0
 11
38.97871690537434
 21
30.12741538059472
 31
0.0
  0
LINE
  5
151
330
6C
100
AcDbEntity
  8
Visible (ANSI)
100
AcDbLine
 10
38.85371690537434
 20
30.12741538059472
 30
0.0
 11
38.85371690537434
 21
30.00241538059472
 31
0.0
  0
LINE
  5
152
330
6C
100
AcDbEntity
  8
Visible Narrow (ANSI)
100
AcDbLine
 10
38.97871690537434
 20
30.00241538059472
 30
0.0
 11
38.97871690537434
 21
30.12741538059472
 31
0.0
  0
LINE
  5
153
330
6C
100
AcDbEntity
  8
Visible (ANSI)
100
AcDbLine
 10
48.47871690537434
 20
30.25228923939652
 30
0.0
 11
48.47871690537434
 21
30.21110845283134
 31
0.0
  0
LINE
  5
154
330
6C
100
AcDbEntity
  8
Visible (ANSI)
100
AcDbLine
 10
38.85371690537434
 20
30.25228923939652
 30
0.0
 11
38.85371690537434
 21
30.21110845283134
 31
0.0
  0
LINE
  5
155
330
6C
100
AcDbEntity
  8
Visible (ANSI)
100
AcDbLine
 10
48.47871690537434
 20
30.25228923939652
 30
0.0
 11
38.85371690537434
 21
30.25228923939652
 31
0.0
  0
LINE
  5
156
330
6C
100
AcDbEntity
  8
Visible Narrow (ANSI)
100
AcDbLine
 10
48.47871690537434
 20
30.21110845283134
 30
0.0
 11
38.85371690537434
 21
30.21110845283134
 31
0.0
  0
LINE
  5
157
330
6C
100
AcDbEntity
  8
Visible (ANSI)
100
AcDbLine
 10
48.47871690537434
 20
30.13198451480821
 30
0.0
 11
48.47871690537434
 21
30.21110845283134
 31
0.0
  0
LINE
  5
158
330
6C
100
AcDbEntity
  8
Visible (ANSI)
100
AcDbLine
 10
38.85371690537434
 20
30.21110845283134
 30
0.0
 11
38.85371690537434
 21
30.13198451480821
 31
0.0
  0
LINE
  5
159
330
6C
100
AcDbEntity
  8
Visible (ANSI)
100
AcDbLine
 10
48.47871690537434
 20
30.12741538059472
 30
0.0
 11
48.47871690537434
 21
30.13198451480821
 31
0.0
  0
LINE
  5
15A
330
6C
100
AcDbEntity
  8
Visible (ANSI)
100
AcDbLine
 10
38.85371690537434
 20
30.12741538059472
 30
0.0
 11
38.85371690537434
 21
30.13198451480821
 31
0.0
  0
LINE
  5
15B
330
6C
100
AcDbEntity
  8
Visible Narrow (ANSI)
100
AcDbLine
 10
48.47871690537434
 20
30.13198451480821
 30
0.0
 11
38.85371690537434
 21
30.13198451480821
 31
0.0
  0
LINE
  5
15C
330
6C
100
AcDbEntity
  8
Visible (ANSI)
100
AcDbLine
 10
38.97871690537434
 20
30.00241538059472
 30
0.0
 11
48.35371690537434
 21
30.00241538059472
 31
0.0
  0
LINE
  5
15D
330
6C
100
AcDbEntity
  8
Visible (ANSI)
100
AcDbLine
 10
48.35371690537434
 20
30.12741538059472
 30
0.0
 11
38.97871690537434
 21
30.12741538059472
 31
0.0
  0
MTEXT
  5
15F
330
6C
100
AcDbEntity
  8
Symbol (ANSI)
100
AcDbMText
 10
40.77532138817393
 20
26.53966027473753
 30
0.0
 40
0.7200000088984572
 41
0.0
 71
     7
 72
     1
  1
FRONT VIEW
  7
Text Style168
 73
     1
 44
1.0
  0
LINE
  5
161
330
6C
100
AcDbEntity
  8
Symbol (ANSI)
370
    30
100
AcDbLine
 10
40.70332120296361
 20
26.39283045048819
 30
0.0
 11
46.49191122867768
 21
26.39283045048819
 31
0.0
  0
SPLINE
  5
162
330
6C
100
AcDbEntity
  8
Visible (ANSI)
100
AcDbSpline
210
0.0
220
0.0
230
1.0
 70
     8
 71
     3
 72
    11
 73
     7
 74
     0
 42
0.0000000001
 43
0.0000000001
 40
0.0
 40
0.0
 40
0.0
 40
0.0
 40
1.01858281548856
 40
1.01858281548856
 40
1.01858281548856
 40
1.570796326794896
 40
1.570796326794896
 40
1.570796326794896
 40
1.570796326794896
 10
10.49895596985332
 20
30.14288923939649
 30
0.0
 10
10.49895596985332
 20
30.0951516581106
 30
0.0
 10
10.52515887543245
 20
30.0482291028284
 30
0.0
 10
10.56580100330163
 20
30.02318725566624
 30
0.0
 10
10.5878346875503
 20
30.00961109264764
 30
0.0
 10
10.6136755632901
 20
30.0022892393965
 30
0.0
 10
10.63955596985332
 20
30.0022892393965
 30
0.0
  0
LINE
  5
163
330
6C
100
AcDbEntity
  8
Visible (ANSI)
100
AcDbLine
 10
10.63955596985332
 20
30.12728923939649
 30
0.0
 11
10.64112001593205
 21
30.12728923939649
 31
0.0
  0
LINE
  5
164
330
6C
100
AcDbEntity
  8
Visible (ANSI)
100
AcDbLine
 10
10.63955596985332
 20
30.12728923939649
 30
0.0
 11
10.63955596985332
 21
30.0022892393965
 31
0.0
  0
SPLINE
  5
165
330
6C
100
AcDbEntity
  8
Visible (ANSI)
100
AcDbSpline
210
0.0
220
0.0
230
1.0
 70
     8
 71
     3
 72
     8
 73
     4
 74
     0
 42
0.0000000001
 43
0.0000000001
 40
0.0
 40
0.0
 40
0.0
 40
0.0
 40
1.570796326794896
 40
1.570796326794896
 40
1.570796326794896
 40
1.570796326794896
 10
10.62395596985332
 20
30.14288923939649
 30
0.0
 10
10.62395596985332
 20
30.13472109849716
 30
0.0
 10
10.63138782895399
 20
30.12728923939649
 30
0.0
 10
10.63955596985332
 20
30.12728923939649
 30
0.0
  0
LINE
  5
166
330
6C
100
AcDbEntity
  8
Visible (ANSI)
100
AcDbLine
 10
10.63955596985332
 20
30.0022892393965
 30
0.0
 11
10.66165305676541
 21
30.0022892393965
 31
0.0
  0
SPLINE
  5
167
330
6C
100
AcDbEntity
  8
Visible (ANSI)
100
AcDbSpline
210
0.0
220
0.0
230
1.0
 70
     8
 71
     3
 72
    11
 73
     7
 74
     0
 42
0.0000000001
 43
0.0000000001
 40
0.0
 40
0.0
 40
0.0
 40
0.0
 40
1.018582815488561
 40
1.018582815488561
 40
1.018582815488561
 40
1.570796326794895
 40
1.570796326794895
 40
1.570796326794895
 40
1.570796326794895
 10
10.6616530567654
 20
30.0022892393965
 30
0.0
 10
10.65687677172298
 20
30.0022892393965
 30
0.0
 10
10.65210048668056
 20
30.02849214497562
 30
0.0
 10
10.64732420163815
 20
30.0691342728448
 30
0.0
 10
10.64473479104319
 20
30.09116795709347
 30
0.0
 10
10.64214538044823
 20
30.11700883283327
 30
0.0
 10
10.63955596985327
 20
30.14288923939649
 30
0.0
  0
LINE
  5
168
330
6C
100
AcDbEntity
  8
Visible (ANSI)
100
AcDbLine
 10
16.49895596985338
 20
30.0022892393965
 30
0.0
 11
10.6616530567654
 21
30.0022892393965
 31
0.0
  0
SPLINE
  5
169
330
6C
100
AcDbEntity
  8
Visible (ANSI)
100
AcDbSpline
210
0.0
220
0.0
230
1.0
 70
     8
 71
     3
 72
    11
 73
     7
 74
     0
 42
0.0000000001
 43
0.0000000001
 40
0.0
 40
0.0
 40
0.0
 40
0.0
 40
1.018582815488561
 40
1.018582815488561
 40
1.018582815488561
 40
1.570796326794897
 40
1.570796326794897
 40
1.570796326794897
 40
1.570796326794897
 10
16.52266711881534
 20
30.14288923939649
 30
0.0
 10
16.51754195428229
 20
30.09515165811059
 30
0.0
 10
16.51241678974925
 20
30.0482291028284
 30
0.0
 10
16.50729162521622
 20
30.02318725566623
 30
0.0
 10
16.5045130734286
 20
30.00961109264764
 30
0.0
 10
16.50173452164099
 20
30.0022892393965
 30
0.0
 10
16.49895596985338
 20
30.0022892393965
 30
0.0
  0
LINE
  5
16A
330
6C
100
AcDbEntity
  8
Visible Narrow (ANSI)
100
AcDbLine
 10
10.63955596985327
 20
30.14288923939649
 30
0.0
 11
16.52266711881534
 21
30.14288923939649
 31
0.0
  0
LINE
  5
16B
330
6C
100
AcDbEntity
  8
Visible (ANSI)
100
AcDbLine
 10
10.63955596985327
 20
30.14288923939649
 30
0.0
 11
10.49895596985332
 21
30.14288923939649
 31
0.0
  0
LINE
  5
16C
330
6C
100
AcDbEntity
  8
Visible (ANSI)
100
AcDbLine
 10
16.52266711881534
 20
30.14288923939649
 30
0.0
 11
18.49895596985328
 21
41.86168923939648
 31
0.0
  0
LINE
  5
16D
330
6C
100
AcDbEntity
  8
Visible Narrow (ANSI)
100
AcDbLine
 10
18.49895596985328
 20
41.86168923939648
 30
0.0
 11
10.63955596985327
 21
41.86168923939649
 31
0.0
  0
LINE
  5
16E
330
6C
100
AcDbEntity
  8
Visible (ANSI)
100
AcDbLine
 10
18.49895596985328
 20
41.86168923939648
 30
0.0
 11
18.49895596985332
 21
42.00228923939648
 31
0.0
  0
LINE
  5
16F
330
6C
100
AcDbEntity
  8
Visible (ANSI)
100
AcDbLine
 10
10.6616530567654
 20
42.00228923939649
 30
0.0
 11
18.49895596985332
 21
42.00228923939649
 31
0.0
  0
LINE
  5
170
330
6C
100
AcDbEntity
  8
Visible Narrow (ANSI)
100
AcDbLine
 10
10.63955596985327
 20
41.86168923939649
 30
0.0
 11
10.63955596985327
 21
30.14288923939649
 31
0.0
  0
LINE
  5
171
330
6C
100
AcDbEntity
  8
Visible (ANSI)
100
AcDbLine
 10
10.49895596985332
 20
30.14288923939649
 30
0.0
 11
10.49895596985332
 21
41.86168923939649
 31
0.0
  0
SPLINE
  5
172
330
6C
100
AcDbEntity
  8
Visible (ANSI)
100
AcDbSpline
210
0.0
220
0.0
230
1.0
 70
     8
 71
     3
 72
    11
 73
     7
 74
     0
 42
0.0000000001
 43
0.0000000001
 40
0.0
 40
0.0
 40
0.0
 40
0.0
 40
1.018582815488511
 40
1.018582815488511
 40
1.018582815488511
 40
1.570796326794991
 40
1.570796326794991
 40
1.570796326794991
 40
1.570796326794991
 10
10.63955596985334
 20
42.00228923939648
 30
0.0
 10
10.59181838856744
 20
42.00228923939649
 30
0.0
 10
10.54489583328525
 20
41.97608633381736
 30
0.0
 10
10.51985398612307
 20
41.9354442059482
 30
0.0
 10
10.50627782310447
 20
41.91341052169952
 30
0.0
 10
10.49895596985332
 20
41.88756964595971
 30
0.0
 10
10.49895596985332
 20
41.86168923939648
 30
0.0
  0
LINE
  5
173
330
6C
100
AcDbEntity
  8
Visible (ANSI)
100
AcDbLine
 10
10.63955596985333
 20
41.87728923939648
 30
0.0
 11
10.64112001593204
 21
41.87728923939648
 31
0.0
  0
LINE
  5
174
330
6C
100
AcDbEntity
  8
Visible (ANSI)
100
AcDbLine
 10
10.66165305676541
 20
42.00228923939649
 30
0.0
 11
10.63955596985333
 21
42.00228923939649
 31
0.0
  0
LINE
  5
175
330
6C
100
AcDbEntity
  8
Visible (ANSI)
100
AcDbLine
 10
10.63955596985333
 20
41.87728923939648
 30
0.0
 11
10.63955596985333
 21
42.00228923939649
 31
0.0
  0
SPLINE
  5
176
330
6C
100
AcDbEntity
  8
Visible (ANSI)
100
AcDbSpline
210
0.0
220
0.0
230
1.0
 70
     8
 71
     3
 72
     8
 73
     4
 74
     0
 42
0.0000000001
 43
0.0000000001
 40
0.0
 40
0.0
 40
0.0
 40
0.0
 40
1.570796326794991
 40
1.570796326794991
 40
1.570796326794991
 40
1.570796326794991
 10
10.62395596985332
 20
41.86168923939648
 30
0.0
 10
10.62395596985332
 20
41.86985738029582
 30
0.0
 10
10.63138782895399
 20
41.87728923939649
 30
0.0
 10
10.63955596985332
 20
41.87728923939649
 30
0.0
  0
SPLINE
  5
177
330
6C
100
AcDbEntity
  8
Visible (ANSI)
100
AcDbSpline
210
0.0
220
0.0
230
1.0
 70
     8
 71
     3
 72
    11
 73
     7
 74
     0
 42
0.0000000001
 43
0.0000000001
 40
0.0
 40
0.0
 40
0.0
 40
0.0
 40
1.018582815488563
 40
1.018582815488563
 40
1.018582815488563
 40
1.570796326794888
 40
1.570796326794888
 40
1.570796326794888
 40
1.570796326794888
 10
10.63955596985327
 20
41.8616892393965
 30
0.0
 10
10.64433225489568
 20
41.9094268206824
 30
0.0
 10
10.64910853993809
 20
41.9563493759646
 30
0.0
 10
10.65388482498051
 20
41.98139122312675
 30
0.0
 10
10.65647423557547
 20
41.99496738614534
 30
0.0
 10
10.65906364617043
 20
42.0022892393965
 30
0.0
 10
10.6616530567654
 20
42.00228923939649
 30
0.0
  0
LINE
  5
178
330
6C
100
AcDbEntity
  8
Visible (ANSI)
100
AcDbLine
 10
10.49895596985332
 20
41.86168923939649
 30
0.0
 11
10.63955596985327
 21
41.86168923939649
 31
0.0
  0
LINE
  5
179
330
6C
100
AcDbEntity
  8
Visible (ANSI)
100
AcDbLine
 10
18.24895596985338
 20
30.00241538059471
 30
0.0
 11
18.12395596985335
 21
30.00241538059471
 31
0.0
  0
LINE
  5
17A
330
6C
100
AcDbEntity
  8
Visible (ANSI)
100
AcDbLine
 10
18.12395596985334
 20
30.12741538059471
 30
0.0
 11
18.24895596985338
 21
30.12741538059471
 31
0.0
  0
LINE
  5
17B
330
6C
100
AcDbEntity
  8
Visible Narrow (ANSI)
100
AcDbLine
 10
18.12395596985335
 20
30.12741538059471
 30
0.0
 11
18.12395596985335
 21
30.00241538059471
 31
0.0
  0
LINE
  5
17C
330
6C
100
AcDbEntity
  8
Visible (ANSI)
100
AcDbLine
 10
18.24895596985338
 20
30.00241538059471
 30
0.0
 11
18.24895596985338
 21
30.12741538059471
 31
0.0
  0
LINE
  5
17D
330
6C
100
AcDbEntity
  8
Visible (ANSI)
100
AcDbLine
 10
16.71669439672301
 20
30.00241538059471
 30
0.0
 11
18.12395596985335
 21
30.00241538059471
 31
0.0
  0
LINE
  5
17E
330
6C
100
AcDbEntity
  8
Visible (ANSI)
100
AcDbLine
 10
18.12395596985335
 20
30.12741538059471
 30
0.0
 11
16.71669439672301
 21
30.12741538059471
 31
0.0
  0
ARC
  5
17F
330
6C
100
AcDbEntity
  8
Visible (ANSI)
100
AcDbCircle
 10
16.716694396723
 20
30.14301538059471
 30
0.0
 40
0.0156000000000003
100
AcDbArc
 50
225.0000000000055
 51
270.0000000000077
  0
ARC
  5
180
330
6C
100
AcDbEntity
  8
Visible (ANSI)
100
AcDbCircle
 10
16.716694396723
 20
30.14301538059471
 30
0.0
 40
0.1405999999999998
100
AcDbArc
 50
225.0000000000006
 51
270.0000000000009
  0
LINE
  5
181
330
6C
100
AcDbEntity
  8
Visible (ANSI)
100
AcDbLine
 10
16.62653959291336
 20
30.21110845283133
 30
0.0
 11
16.70566353093649
 21
30.1319845148082
 31
0.0
  0
LINE
  5
182
330
6C
100
AcDbEntity
  8
Visible (ANSI)
100
AcDbLine
 10
16.61727518328817
 20
30.04359616715988
 30
0.0
 11
16.53815124526504
 21
30.12272010518302
 31
0.0
  0
ARC
  5
183
330
6C
100
AcDbEntity
  8
Visible (ANSI)
100
AcDbCircle
 10
16.52712037947853
 20
30.1116892393965
 30
0.0
 40
0.1406000000000007
100
AcDbArc
 50
45.0
 51
84.33437806335728
  0
ARC
  5
184
330
6C
100
AcDbEntity
  8
Visible (ANSI)
100
AcDbCircle
 10
16.52712037947853
 20
30.1116892393965
 30
0.0
 40
0.0156000000000006
100
AcDbArc
 50
45.0
 51
89.9999999999923
  0
LINE
  5
185
330
6C
100
AcDbEntity
  8
Visible (ANSI)
100
AcDbLine
 10
16.52712037947853
 20
30.12728923939651
 30
0.0
 11
16.52098882838267
 21
30.12728923939651
 31
0.0
  0
MTEXT
  5
186
330
6C
100
AcDbEntity
  8
Symbol (ANSI)
100
AcDbMText
 10
12.07213725308084
 20
26.57000063244313
 30
0.0
 40
0.7200000088984572
 41
0.0
 71
     7
 72
     1
  1
LEFT VIEW
  7
Text Style168
 73
     1
 44
1.0
  0
LINE
  5
187
330
6C
100
AcDbEntity
  8
Symbol (ANSI)
370
    30
100
AcDbLine
 10
12.00013706787052
 20
26.40800063044097
 30
0.0
 11
16.86042877416598
 21
26.40800063044097
 31
0.0
  0
LINE
  5
188
330
6C
100
AcDbEntity
  8
Visible (ANSI)
100
AcDbLine
 10
73.23364126185687
 20
30.0022892393965
 30
0.0
 11
67.39633834876895
 21
30.0022892393965
 31
0.0
  0
LINE
  5
189
330
6C
100
AcDbEntity
  8
Visible Narrow (ANSI)
100
AcDbLine
 10
67.372627199807
 20
30.1428892393965
 30
0.0
 11
73.255738348769
 21
30.14288923939649
 31
0.0
  0
SPLINE
  5
18A
330
6C
100
AcDbEntity
  8
Visible (ANSI)
100
AcDbSpline
210
0.0
220
0.0
230
1.0
 70
     8
 71
     3
 72
    11
 73
     7
 74
     0
 42
0.0000000001
 43
0.0000000001
 40
0.0
 40
0.0
 40
0.0
 40
0.0
 40
1.018582815488612
 40
1.018582815488612
 40
1.018582815488612
 40
1.570796326794896
 40
1.570796326794896
 40
1.570796326794896
 40
1.570796326794896
 10
67.39633834876895
 20
30.0022892393965
 30
0.0
 10
67.39121318423592
 20
30.0022892393965
 30
0.0
 10
67.3860880197029
 20
30.02849214497563
 30
0.0
 10
67.38096285516985
 20
30.06913427284481
 30
0.0
 10
67.37818430338222
 20
30.09116795709348
 30
0.0
 10
67.37540575159461
 20
30.11700883283327
 30
0.0
 10
67.372627199807
 20
30.1428892393965
 30
0.0
  0
SPLINE
  5
18B
330
6C
100
AcDbEntity
  8
Visible (ANSI)
100
AcDbSpline
210
0.0
220
0.0
230
1.0
 70
     8
 71
     3
 72
    11
 73
     7
 74
     0
 42
0.0000000001
 43
0.0000000001
 40
0.0
 40
0.0
 40
0.0
 40
0.0
 40
1.018582815488613
 40
1.018582815488613
 40
1.018582815488613
 40
1.570796326794897
 40
1.570796326794897
 40
1.570796326794897
 40
1.570796326794897
 10
73.255738348769
 20
30.14288923939649
 30
0.0
 10
73.2509620637266
 20
30.09515165811059
 30
0.0
 10
73.24618577868418
 20
30.0482291028284
 30
0.0
 10
73.24140949364177
 20
30.02318725566623
 30
0.0
 10
73.2388200830468
 20
30.00961109264764
 30
0.0
 10
73.23623067245185
 20
30.0022892393965
 30
0.0
 10
73.23364126185687
 20
30.0022892393965
 30
0.0
  0
SPLINE
  5
18C
330
6C
100
AcDbEntity
  8
Visible (ANSI)
100
AcDbSpline
210
0.0
220
0.0
230
1.0
 70
     8
 71
     3
 72
    11
 73
     7
 74
     0
 42
0.0000000001
 43
0.0000000001
 40
0.0
 40
0.0
 40
0.0
 40
0.0
 40
1.018582815488561
 40
1.018582815488561
 40
1.018582815488561
 40
1.570796326794895
 40
1.570796326794895
 40
1.570796326794895
 40
1.570796326794895
 10
73.25573834876895
 20
30.0022892393965
 30
0.0
 10
73.30347593005484
 20
30.0022892393965
 30
0.0
 10
73.35039848533703
 20
30.02849214497562
 30
0.0
 10
73.37544033249921
 20
30.0691342728448
 30
0.0
 10
73.38901649551781
 20
30.09116795709347
 30
0.0
 10
73.39633834876896
 20
30.11700883283327
 30
0.0
 10
73.39633834876896
 20
30.14288923939649
 30
0.0
  0
LINE
  5
18D
330
6C
100
AcDbEntity
  8
Visible (ANSI)
100
AcDbLine
 10
73.25573834876895
 20
30.12728923939649
 30
0.0
 11
73.25417430269023
 21
30.12728923939649
 31
0.0
  0
LINE
  5
18E
330
6C
100
AcDbEntity
  8
Visible (ANSI)
100
AcDbLine
 10
73.23364126185686
 20
30.0022892393965
 30
0.0
 11
73.25573834876895
 21
30.0022892393965
 31
0.0
  0
LINE
  5
18F
330
6C
100
AcDbEntity
  8
Visible (ANSI)
100
AcDbLine
 10
73.25573834876895
 20
30.12728923939649
 30
0.0
 11
73.25573834876895
 21
30.0022892393965
 31
0.0
  0
SPLINE
  5
190
330
6C
100
AcDbEntity
  8
Visible (ANSI)
100
AcDbSpline
210
0.0
220
0.0
230
1.0
 70
     8
 71
     3
 72
     8
 73
     4
 74
     0
 42
0.0000000001
 43
0.0000000001
 40
0.0
 40
0.0
 40
0.0
 40
0.0
 40
1.570796326794895
 40
1.570796326794895
 40
1.570796326794895
 40
1.570796326794895
 10
73.27133834876895
 20
30.14288923939649
 30
0.0
 10
73.27133834876895
 20
30.13472109849716
 30
0.0
 10
73.26390648966828
 20
30.12728923939649
 30
0.0
 10
73.25573834876895
 20
30.12728923939649
 30
0.0
  0
LINE
  5
191
330
6C
100
AcDbEntity
  8
Visible (ANSI)
100
AcDbLine
 10
73.39633834876895
 20
30.14288923939649
 30
0.0
 11
73.255738348769
 21
30.14288923939649
 31
0.0
  0
LINE
  5
192
330
6C
100
AcDbEntity
  8
Visible (ANSI)
100
AcDbLine
 10
73.39633834876896
 20
41.86168923939649
 30
0.0
 11
73.39633834876896
 21
30.14288923939649
 31
0.0
  0
LINE
  5
193
330
6C
100
AcDbEntity
  8
Visible Narrow (ANSI)
100
AcDbLine
 10
73.255738348769
 20
30.14288923939649
 30
0.0
 11
73.255738348769
 21
41.86168923939649
 31
0.0
  0
LINE
  5
194
330
6C
100
AcDbEntity
  8
Visible (ANSI)
100
AcDbLine
 10
73.255738348769
 20
41.8616892393965
 30
0.0
 11
73.39633834876895
 21
41.8616892393965
 31
0.0
  0
LINE
  5
195
330
6C
100
AcDbEntity
  8
Visible (ANSI)
100
AcDbLine
 10
65.39633834876901
 20
41.86168923939649
 30
0.0
 11
67.372627199807
 21
30.1428892393965
 31
0.0
  0
LINE
  5
196
330
6C
100
AcDbEntity
  8
Visible (ANSI)
100
AcDbLine
 10
65.39633834876896
 20
42.0022892393965
 30
0.0
 11
65.39633834876901
 21
41.8616892393965
 31
0.0
  0
LINE
  5
197
330
6C
100
AcDbEntity
  8
Visible (ANSI)
100
AcDbLine
 10
65.39633834876896
 20
42.0022892393965
 30
0.0
 11
73.23364126185687
 21
42.0022892393965
 31
0.0
  0
LINE
  5
198
330
6C
100
AcDbEntity
  8
Visible Narrow (ANSI)
100
AcDbLine
 10
73.255738348769
 20
41.86168923939649
 30
0.0
 11
65.39633834876901
 21
41.86168923939649
 31
0.0
  0
SPLINE
  5
199
330
6C
100
AcDbEntity
  8
Visible (ANSI)
100
AcDbSpline
210
0.0
220
0.0
230
1.0
 70
     8
 71
     3
 72
    11
 73
     7
 74
     0
 42
0.0000000001
 43
0.0000000001
 40
0.0
 40
0.0
 40
0.0
 40
0.0
 40
1.018582815488505
 40
1.018582815488505
 40
1.018582815488505
 40
1.570796326794887
 40
1.570796326794887
 40
1.570796326794887
 40
1.570796326794887
 10
73.39633834876896
 20
41.8616892393965
 30
0.0
 10
73.39633834876895
 20
41.90942682068239
 30
0.0
 10
73.37013544318981
 20
41.95634937596459
 30
0.0
 10
73.32949331532063
 20
41.98139122312674
 30
0.0
 10
73.30745963107196
 20
41.99496738614534
 30
0.0
 10
73.28161875533216
 20
42.00228923939649
 30
0.0
 10
73.25573834876893
 20
42.00228923939649
 30
0.0
  0
LINE
  5
19A
330
6C
100
AcDbEntity
  8
Visible (ANSI)
100
AcDbLine
 10
73.25573834876895
 20
41.87728923939649
 30
0.0
 11
73.25417430269023
 21
41.87728923939649
 31
0.0
  0
LINE
  5
19B
330
6C
100
AcDbEntity
  8
Visible (ANSI)
100
AcDbLine
 10
73.25573834876895
 20
41.87728923939649
 30
0.0
 11
73.25573834876895
 21
42.00228923939649
 31
0.0
  0
SPLINE
  5
19C
330
6C
100
AcDbEntity
  8
Visible (ANSI)
100
AcDbSpline
210
0.0
220
0.0
230
1.0
 70
     8
 71
     3
 72
     8
 73
     4
 74
     0
 42
0.0000000001
 43
0.0000000001
 40
0.0
 40
0.0
 40
0.0
 40
0.0
 40
1.570796326794887
 40
1.570796326794887
 40
1.570796326794887
 40
1.570796326794887
 10
73.27133834876895
 20
41.86168923939648
 30
0.0
 10
73.27133834876895
 20
41.86985738029582
 30
0.0
 10
73.26390648966828
 20
41.87728923939649
 30
0.0
 10
73.25573834876895
 20
41.87728923939649
 30
0.0
  0
LINE
  5
19D
330
6C
100
AcDbEntity
  8
Visible (ANSI)
100
AcDbLine
 10
73.25573834876895
 20
42.00228923939649
 30
0.0
 11
73.23364126185686
 21
42.00228923939649
 31
0.0
  0
SPLINE
  5
19E
330
6C
100
AcDbEntity
  8
Visible (ANSI)
100
AcDbSpline
210
0.0
220
0.0
230
1.0
 70
     8
 71
     3
 72
    11
 73
     7
 74
     0
 42
0.0000000001
 43
0.0000000001
 40
0.0
 40
0.0
 40
0.0
 40
0.0
 40
1.018582815488597
 40
1.018582815488597
 40
1.018582815488597
 40
1.570796326794887
 40
1.570796326794887
 40
1.570796326794887
 40
1.570796326794887
 10
73.23364126185687
 20
42.0022892393965
 30
0.0
 10
73.23841754689929
 20
42.0022892393965
 30
0.0
 10
73.24319383194171
 20
41.97608633381736
 30
0.0
 10
73.24797011698412
 20
41.93544420594818
 30
0.0
 10
73.25055952757908
 20
41.91341052169952
 30
0.0
 10
73.25314893817405
 20
41.88756964595973
 30
0.0
 10
73.255738348769
 20
41.8616892393965
 30
0.0
  0
LINE
  5
19F
330
6C
100
AcDbEntity
  8
Visible (ANSI)
100
AcDbLine
 10
65.6463383487689
 20
30.12741538059471
 30
0.0
 11
65.77133834876893
 21
30.12741538059471
 31
0.0
  0
LINE
  5
1A0
330
6C
100
AcDbEntity
  8
Visible (ANSI)
100
AcDbLine
 10
65.6463383487689
 20
30.12741538059471
 30
0.0
 11
65.6463383487689
 21
30.00241538059472
 31
0.0
  0
LINE
  5
1A1
330
6C
100
AcDbEntity
  8
Visible (ANSI)
100
AcDbLine
 10
65.77133834876892
 20
30.00241538059471
 30
0.0
 11
65.6463383487689
 21
30.00241538059471
 31
0.0
  0
LINE
  5
1A2
330
6C
100
AcDbEntity
  8
Visible Narrow (ANSI)
100
AcDbLine
 10
65.77133834876893
 20
30.00241538059472
 30
0.0
 11
65.77133834876893
 21
30.12741538059471
 31
0.0
  0
LINE
  5
1A3
330
6C
100
AcDbEntity
  8
Visible (ANSI)
100
AcDbLine
 10
65.77133834876893
 20
30.00241538059472
 30
0.0
 11
67.17859992189926
 21
30.00241538059471
 31
0.0
  0
LINE
  5
1A4
330
6C
100
AcDbEntity
  8
Visible (ANSI)
100
AcDbLine
 10
67.17859992189926
 20
30.12741538059471
 30
0.0
 11
65.77133834876893
 21
30.12741538059471
 31
0.0
  0
ARC
  5
1A5
330
6C
100
AcDbEntity
  8
Visible (ANSI)
100
AcDbCircle
 10
67.17859992189926
 20
30.14301538059471
 30
0.0
 40
0.1405999999999992
100
AcDbArc
 50
270.0
 51
315.0000000000024
  0
ARC
  5
1A6
330
6C
100
AcDbEntity
  8
Visible (ANSI)
100
AcDbCircle
 10
67.17859992189926
 20
30.14301538059471
 30
0.0
 40
0.0155999999999989
100
AcDbArc
 50
270.0
 51
315.0000000000218
  0
LINE
  5
1A7
330
6C
100
AcDbEntity
  8
Visible (ANSI)
100
AcDbLine
 10
67.35714307335723
 20
30.12272010518302
 30
0.0
 11
67.27801913533409
 21
30.04359616715988
 31
0.0
  0
LINE
  5
1A8
330
6C
100
AcDbEntity
  8
Visible (ANSI)
100
AcDbLine
 10
67.18963078768577
 20
30.1319845148082
 30
0.0
 11
67.26875472570892
 21
30.21110845283134
 31
0.0
  0
ARC
  5
1A9
330
6C
100
AcDbEntity
  8
Visible (ANSI)
100
AcDbCircle
 10
67.36817393914375
 20
30.11168923939651
 30
0.0
 40
0.0155999999999992
100
AcDbArc
 50
90.00000000009249
 51
134.9999999999782
  0
ARC
  5
1AA
330
6C
100
AcDbEntity
  8
Visible (ANSI)
100
AcDbCircle
 10
67.36817393914375
 20
30.11168923939651
 30
0.0
 40
0.1405999999999993
100
AcDbArc
 50
95.66562193662042
 51
134.9999999999976
  0
LINE
  5
1AB
330
6C
100
AcDbEntity
  8
Visible (ANSI)
100
AcDbLine
 10
67.37430549023965
 20
30.12728923939651
 30
0.0
 11
67.36817393914371
 21
30.12728923939651
 31
0.0
  0
MTEXT
  5
1AC
330
6C
100
AcDbEntity
  8
Symbol (ANSI)
100
AcDbMText
 10
66.59507759941724
 20
26.54316108549587
 30
0.0
 40
0.7200000088984572
 41
0.0
 71
     7
 72
     1
  1
RIGHT VIEW
  7
Text Style168
 73
     1
 44
1.0
  0
LINE
  5
1AD
330
6C
100
AcDbEntity
  8
Symbol (ANSI)
370
    30
100
AcDbLine
 10
66.52307741420692
 20
26.39516432432708
 30
0.0
 11
72.13254262278614
 21
26.39516432432708
 31
0.0
  0
CIRCLE
  5
1AE
330
6C
100
AcDbEntity
  8
Visible (ANSI)
100
AcDbCircle
 10
40.85371690537019
 20
21.28102222655273
 30
0.0
 40
0.28125
  0
CIRCLE
  5
1AF
330
6C
100
AcDbEntity
  8
Visible (ANSI)
100
AcDbCircle
 10
46.47871690537019
 20
21.28102222655273
 30
0.0
 40
0.28125
  0
CIRCLE
  5
1B0
330
6C
100
AcDbEntity
  8
Visible (ANSI)
100
AcDbCircle
 10
39.29121690537021
 20
19.96852222655272
 30
0.0
 40
0.28125
  0
CIRCLE
  5
1B1
330
6C
100
AcDbEntity
  8
Visible (ANSI)
100
AcDbCircle
 10
39.29121690537021
 20
14.96852222655272
 30
0.0
 40
0.28125
  0
CIRCLE
  5
1B2
330
6C
100
AcDbEntity
  8
Visible (ANSI)
100
AcDbCircle
 10
48.0412169053702
 20
19.96852222655272
 30
0.0
 40
0.28125
  0
CIRCLE
  5
1B3
330
6C
100
AcDbEntity
  8
Visible (ANSI)
100
AcDbCircle
 10
48.04121690537024
 20
14.96852222655272
 30
0.0
 40
0.28125
  0
LINE
  5
1B4
330
6C
100
AcDbEntity
  8
Visible (ANSI)
100
AcDbLine
 10
38.60371690537019
 20
13.96852222655267
 30
0.0
 11
38.60371690537021
 21
21.82792222655268
 31
0.0
  0
LINE
  5
1B5
330
6C
100
AcDbEntity
  8
Visible (ANSI)
100
AcDbLine
 10
38.60371690537021
 20
13.96852222655267
 30
0.0
 11
38.74431690537021
 21
13.96852222655272
 31
0.0
  0
LINE
  5
1B6
330
6C
100
AcDbEntity
  8
Visible (ANSI)
100
AcDbLine
 10
48.58811690537023
 20
13.96852222655272
 30
0.0
 11
48.72871690537023
 21
13.96852222655268
 31
0.0
  0
LINE
  5
1B7
330
6C
100
AcDbEntity
  8
Visible Narrow (ANSI)
100
AcDbLine
 10
48.56601981845811
 20
21.82792222655272
 30
0.0
 11
38.76641399228228
 21
21.82792222655272
 31
0.0
  0
LINE
  5
1B8
330
6C
100
AcDbEntity
  8
Visible (ANSI)
100
AcDbLine
 10
38.7443169053702
 20
21.96852222655268
 30
0.0
 11
48.5881169053702
 21
21.96852222655268
 31
0.0
  0
LINE
  5
1B9
330
6C
100
AcDbEntity
  8
Visible Narrow (ANSI)
100
AcDbLine
 10
38.74431690537021
 20
21.80582513964064
 30
0.0
 11
38.74431690537021
 21
13.96852222655272
 31
0.0
  0
LINE
  5
1BA
330
6C
100
AcDbEntity
  8
Visible Narrow (ANSI)
100
AcDbLine
 10
48.58811690537023
 20
13.96852222655272
 30
0.0
 11
48.5881169053702
 21
21.80582513964064
 31
0.0
  0
LINE
  5
1BB
330
6C
100
AcDbEntity
  8
Visible (ANSI)
100
AcDbLine
 10
48.72871690537019
 20
21.82792222655268
 30
0.0
 11
48.72871690537024
 21
13.96852222655268
 31
0.0
  0
ARC
  5
1BC
330
6C
100
AcDbEntity
  8
Visible (ANSI)
100
AcDbCircle
 10
48.5881169053702
 20
21.82792222655268
 30
0.0
 40
0.1405999999999979
100
AcDbArc
 50
0.0
 51
90.0
  0
ARC
  5
1BD
330
6C
100
AcDbEntity
  8
Visible (ANSI)
100
AcDbCircle
 10
38.7443169053702
 20
21.82792222655268
 30
0.0
 40
0.0156
100
AcDbArc
 50
90.0
 51
180.0
  0
LINE
  5
1BE
330
6C
100
AcDbEntity
  8
Visible (ANSI)
100
AcDbLine
 10
39.35371690537021
 20
13.96852222655272
 30
0.0
 11
38.74431690537021
 21
13.96852222655272
 31
0.0
  0
LINE
  5
1BF
330
6C
100
AcDbEntity
  8
Visible (ANSI)
100
AcDbLine
 10
48.58811690537023
 20
13.96852222655272
 30
0.0
 11
47.97871690537023
 21
13.96852222655272
 31
0.0
  0
LINE
  5
1C0
330
6C
100
AcDbEntity
  8
Visible (ANSI)
100
AcDbLine
 10
47.45661981845812
 20
20.71852222655271
 30
0.0
 11
39.87581399228228
 21
20.71852222655272
 31
0.0
  0
LINE
  5
1C1
330
6C
100
AcDbEntity
  8
Visible (ANSI)
100
AcDbLine
 10
39.85371690537021
 20
20.69642513964065
 30
0.0
 11
39.85371690537021
 21
14.46852222655272
 31
0.0
  0
LINE
  5
1C2
330
6C
100
AcDbEntity
  8
Visible (ANSI)
100
AcDbLine
 10
47.47871690537023
 20
14.46852222655271
 30
0.0
 11
47.4787169053702
 21
20.69642513964064
 31
0.0
  0
ARC
  5
1C3
330
6C
100
AcDbEntity
  8
Visible (ANSI)
100
AcDbCircle
 10
38.7443169053702
 20
21.82792222655268
 30
0.0
 40
0.1406000000000001
100
AcDbArc
 50
90.0
 51
180.0
  0
ARC
  5
1C4
330
6C
100
AcDbEntity
  8
Visible (ANSI)
100
AcDbCircle
 10
48.5881169053702
 20
21.82792222655268
 30
0.0
 40
0.0155999999999986
100
AcDbArc
 50
0.0
 51
90.0
  0
LINE
  5
1C5
330
6C
100
AcDbEntity
  8
Visible (ANSI)
100
AcDbLine
 10
39.85371690537021
 20
14.46852222655272
 30
0.0
 11
39.35371690537021
 21
13.96852222655272
 31
0.0
  0
LINE
  5
1C6
330
6C
100
AcDbEntity
  8
Visible (ANSI)
100
AcDbLine
 10
47.97871690537023
 20
13.96852222655272
 30
0.0
 11
47.47871690537023
 21
14.46852222655271
 31
0.0
  0
SPLINE
  5
1C7
330
6C
100
AcDbEntity
  8
Visible (ANSI)
100
AcDbSpline
210
0.0
220
0.0
230
1.0
 70
     8
 71
     3
 72
    11
 73
     7
 74
     0
 42
0.0000000001
 43
0.0000000001
 40
0.0
 40
0.0
 40
0.0
 40
0.0
 40
1.018582815488505
 40
1.018582815488505
 40
1.018582815488505
 40
1.570796326794887
 40
1.570796326794887
 40
1.570796326794887
 40
1.570796326794887
 10
48.5881169053702
 20
21.96852222655268
 30
0.0
 10
48.58334062032779
 20
21.96852222655269
 30
0.0
 10
48.5785643352854
 20
21.94231932097357
 30
0.0
 10
48.57378805024299
 20
21.90167719310441
 30
0.0
 10
48.57119863964803
 20
21.87964350885573
 30
0.0
 10
48.56860922905307
 20
21.85380263311593
 30
0.0
 10
48.56601981845811
 20
21.82792222655271
 30
0.0
  0
SPLINE
  5
1C8
330
6C
100
AcDbEntity
  8
Visible (ANSI)
100
AcDbSpline
210
0.0
220
0.0
230
1.0
 70
     8
 71
     3
 72
    11
 73
     7
 74
     0
 42
0.0000000001
 43
0.0000000001
 40
0.0
 40
0.0
 40
0.0
 40
0.0
 40
1.018582815488511
 40
1.018582815488511
 40
1.018582815488511
 40
1.570796326794991
 40
1.570796326794991
 40
1.570796326794991
 40
1.570796326794991
 10
38.76641399228228
 20
21.82792222655271
 30
0.0
 10
38.76163770723989
 20
21.8756598078386
 30
0.0
 10
38.75686142219747
 20
21.92258236312079
 30
0.0
 10
38.75208513715507
 20
21.94762421028295
 30
0.0
 10
38.74949572656012
 20
21.96120037330154
 30
0.0
 10
38.74690631596516
 20
21.96852222655269
 30
0.0
 10
38.7443169053702
 20
21.96852222655268
 30
0.0
  0
LINE
  5
1C9
330
6C
100
AcDbEntity
  8
Visible (ANSI)
100
AcDbLine
 10
39.87581399228228
 20
20.71852222655272
 30
0.0
 11
38.76641399228228
 21
21.82792222655272
 31
0.0
  0
SPLINE
  5
1CA
330
6C
100
AcDbEntity
  8
Visible (ANSI)
100
AcDbSpline
210
0.0
220
0.0
230
1.0
 70
    24
 71
     3
 72
     8
 73
     4
 74
     0
 42
0.0000000001
 43
0.0000000001
 40
0.0
 40
0.0
 40
0.0
 40
0.0
 40
0.3175000000000055
 40
0.3175000000000055
 40
0.3175000000000055
 40
0.3175000000000055
 10
38.7443169053702
 20
21.84352222655268
 30
0.0
 10
38.7443169053702
 20
21.88518889321935
 30
0.0
 10
38.7443169053702
 20
21.92685555988601
 30
0.0
 10
38.7443169053702
 20
21.96852222655268
 30
0.0
  0
SPLINE
  5
1CB
330
6C
100
AcDbEntity
  8
Visible (ANSI)
100
AcDbSpline
210
0.0
220
0.0
230
1.0
 70
     8
 71
     3
 72
     8
 73
     4
 74
     0
 42
0.0000000001
 43
0.0000000001
 40
0.0
 40
0.0
 40
0.0
 40
0.0
 40
1.570796326794991
 40
1.570796326794991
 40
1.570796326794991
 40
1.570796326794991
 10
38.7443169053702
 20
21.84352222655268
 30
0.0
 10
38.75168260100757
 20
21.84352222655268
 30
0.0
 10
38.75904829664493
 20
21.83609036745202
 30
0.0
 10
38.76641399228228
 20
21.82792222655268
 30
0.0
  0
SPLINE
  5
1CC
330
6C
100
AcDbEntity
  8
Visible (ANSI)
100
AcDbSpline
210
0.0
220
0.0
230
1.0
 70
     8
 71
     3
 72
     8
 73
     4
 74
     0
 42
0.0000000001
 43
0.0000000001
 40
0.0
 40
0.0
 40
0.0
 40
0.0
 40
1.570796326794887
 40
1.570796326794887
 40
1.570796326794887
 40
1.570796326794887
 10
48.5881169053702
 20
21.84352222655268
 30
0.0
 10
48.58075120973284
 20
21.84352222655268
 30
0.0
 10
48.57338551409547
 20
21.83609036745202
 30
0.0
 10
48.56601981845811
 20
21.82792222655268
 30
0.0
  0
SPLINE
  5
1CD
330
6C
100
AcDbEntity
  8
Visible (ANSI)
100
AcDbSpline
210
0.0
220
0.0
230
1.0
 70
    24
 71
     3
 72
     8
 73
     4
 74
     0
 42
0.0000000001
 43
0.0000000001
 40
-0.3175000000000077
 40
-0.3175000000000077
 40
-0.3175000000000077
 40
-0.3175000000000077
 40
0.0
 40
0.0
 40
0.0
 40
0.0
 10
48.5881169053702
 20
21.96852222655268
 30
0.0
 10
48.5881169053702
 20
21.92685555988601
 30
0.0
 10
48.5881169053702
 20
21.88518889321935
 30
0.0
 10
48.5881169053702
 20
21.84352222655268
 30
0.0
  0
LINE
  5
1CE
330
6C
100
AcDbEntity
  8
Visible (ANSI)
100
AcDbLine
 10
48.56601981845811
 20
21.82792222655272
 30
0.0
 11
47.45661981845812
 21
20.71852222655271
 31
0.0
  0
SPLINE
  5
1CF
330
6C
100
AcDbEntity
  8
Visible (ANSI)
100
AcDbSpline
210
0.0
220
0.0
230
1.0
 70
     8
 71
     3
 72
    11
 73
     7
 74
     0
 42
0.0000000001
 43
0.0000000001
 40
0.0
 40
0.0
 40
0.0
 40
0.0
 40
1.018582815488563
 40
1.018582815488563
 40
1.018582815488563
 40
1.570796326794888
 40
1.570796326794888
 40
1.570796326794888
 40
1.570796326794888
 10
38.60371690537021
 20
21.82792222655268
 30
0.0
 10
38.60371690537021
 20
21.82314594151029
 30
0.0
 10
38.62991981094934
 20
21.8183696564679
 30
0.0
 10
38.67056193881852
 20
21.8135933714255
 30
0.0
 10
38.69259562306719
 20
21.81100396083055
 30
0.0
 10
38.71843649880699
 20
21.8084145502356
 30
0.0
 10
38.74431690537021
 20
21.80582513964064
 30
0.0
  0
SPLINE
  5
1D0
330
6C
100
AcDbEntity
  8
Visible (ANSI)
100
AcDbSpline
210
0.0
220
0.0
230
1.0
 70
     8
 71
     3
 72
     8
 73
     4
 74
     0
 42
0.0000000001
 43
0.0000000001
 40
0.0
 40
0.0
 40
0.0
 40
0.0
 40
1.570796326794888
 40
1.570796326794888
 40
1.570796326794888
 40
1.570796326794888
 10
38.7287169053702
 20
21.82792222655268
 30
0.0
 10
38.7287169053702
 20
21.82055653091532
 30
0.0
 10
38.73614876447087
 20
21.81319083527796
 30
0.0
 10
38.7443169053702
 20
21.80582513964061
 30
0.0
  0
SPLINE
  5
1D1
330
6C
100
AcDbEntity
  8
Visible (ANSI)
100
AcDbSpline
210
0.0
220
0.0
230
1.0
 70
    24
 71
     3
 72
     8
 73
     4
 74
     0
 42
0.0000000001
 43
0.0000000001
 40
-0.3175000000000001
 40
-0.3175000000000001
 40
-0.3175000000000001
 40
-0.3175000000000001
 40
0.0
 40
0.0
 40
0.0
 40
0.0
 10
38.60371690537021
 20
21.82792222655268
 30
0.0
 10
38.64538357203687
 20
21.82792222655268
 30
0.0
 10
38.68705023870353
 20
21.82792222655268
 30
0.0
 10
38.7287169053702
 20
21.82792222655268
 30
0.0
  0
LINE
  5
1D2
330
6C
100
AcDbEntity
  8
Visible (ANSI)
100
AcDbLine
 10
38.74431690537021
 20
21.80582513964064
 30
0.0
 11
39.85371690537021
 21
20.69642513964065
 31
0.0
  0
SPLINE
  5
1D3
330
6C
100
AcDbEntity
  8
Visible (ANSI)
100
AcDbSpline
210
0.0
220
0.0
230
1.0
 70
     8
 71
     3
 72
    11
 73
     7
 74
     0
 42
0.0000000001
 43
0.0000000001
 40
0.0
 40
0.0
 40
0.0
 40
0.0
 40
1.018582815488597
 40
1.018582815488597
 40
1.018582815488597
 40
1.570796326794887
 40
1.570796326794887
 40
1.570796326794887
 40
1.570796326794887
 10
48.58811690537019
 20
21.80582513964064
 30
0.0
 10
48.63585448665609
 20
21.81060142468305
 30
0.0
 10
48.68277704193829
 20
21.81537770972544
 30
0.0
 10
48.70781888910045
 20
21.82015399476784
 30
0.0
 10
48.72139505211904
 20
21.82274340536278
 30
0.0
 10
48.72871690537019
 20
21.82533281595773
 30
0.0
 10
48.72871690537019
 20
21.82792222655268
 30
0.0
  0
LINE
  5
1D4
330
6C
100
AcDbEntity
  8
Visible (ANSI)
100
AcDbLine
 10
47.4787169053702
 20
20.69642513964064
 30
0.0
 11
48.5881169053702
 21
21.80582513964064
 31
0.0
  0
SPLINE
  5
1D5
330
6C
100
AcDbEntity
  8
Visible (ANSI)
100
AcDbSpline
210
0.0
220
0.0
230
1.0
 70
    24
 71
     3
 72
     8
 73
     4
 74
     0
 42
0.0000000001
 43
0.0000000001
 40
0.0
 40
0.0
 40
0.0
 40
0.0
 40
0.317499999999999
 40
0.317499999999999
 40
0.317499999999999
 40
0.317499999999999
 10
48.6037169053702
 20
21.82792222655268
 30
0.0
 10
48.64538357203685
 20
21.82792222655268
 30
0.0
 10
48.68705023870353
 20
21.82792222655268
 30
0.0
 10
48.72871690537019
 20
21.82792222655268
 30
0.0
  0
SPLINE
  5
1D6
330
6C
100
AcDbEntity
  8
Visible (ANSI)
100
AcDbSpline
210
0.0
220
0.0
230
1.0
 70
     8
 71
     3
 72
     8
 73
     4
 74
     0
 42
0.0000000001
 43
0.0000000001
 40
0.0
 40
0.0
 40
0.0
 40
0.0
 40
1.570796326794887
 40
1.570796326794887
 40
1.570796326794887
 40
1.570796326794887
 10
48.6037169053702
 20
21.82792222655268
 30
0.0
 10
48.6037169053702
 20
21.82055653091532
 30
0.0
 10
48.59628504626953
 20
21.81319083527796
 30
0.0
 10
48.5881169053702
 20
21.80582513964061
 30
0.0
  0
CIRCLE
  5
1D7
330
6C
100
AcDbEntity
  8
Visible (ANSI)
100
AcDbCircle
 10
43.66621690537016
 20
18.21852222654923
 30
0.0
 40
0.28125
  0
CIRCLE
  5
1D8
330
6C
100
AcDbEntity
  8
Visible (ANSI)
100
AcDbCircle
 10
40.72871690537016
 20
15.2185222265492
 30
0.0
 40
0.28125
  0
CIRCLE
  5
1D9
330
6C
100
AcDbEntity
  8
Visible (ANSI)
100
AcDbCircle
 10
46.60371690537016
 20
15.2185222265492
 30
0.0
 40
0.28125
  0
LINE
  5
1DA
330
6C
100
AcDbEntity
  8
Visible (ANSI)
100
AcDbLine
 10
48.47871690537015
 20
21.69642513963712
 30
0.0
 11
48.47871690537015
 21
21.71861939005439
 31
0.0
  0
LINE
  5
1DB
330
6C
100
AcDbEntity
  8
Visible (ANSI)
100
AcDbLine
 10
38.85371690537015
 20
21.71861939005439
 30
0.0
 11
38.85371690537015
 21
21.6964251396372
 31
0.0
  0
ARC
  5
1DC
330
6C
100
AcDbEntity
  8
Visible (ANSI)
100
AcDbCircle
 10
38.97871690537017
 20
21.71861939005439
 30
0.0
 40
0.125000000000015
100
AcDbArc
 50
170.6375988628243
 51
180.0
  0
ARC
  5
1DD
330
6C
100
AcDbEntity
  8
Visible (ANSI)
100
AcDbCircle
 10
48.3537169053698
 20
21.71861939005435
 30
0.0
 40
0.1250000000003548
100
AcDbArc
 50
0.0
 51
9.362401137140466
  0
LINE
  5
1DE
330
6C
100
AcDbEntity
  8
Visible Narrow (ANSI)
100
AcDbLine
 10
47.47871690537022
 20
15.94035781692402
 30
0.0
 11
39.85371690537021
 21
15.94035781692405
 31
0.0
  0
LINE
  5
1DF
330
6C
100
AcDbEntity
  8
Visible Narrow (ANSI)
100
AcDbLine
 10
47.47871690537022
 20
15.84093860348921
 30
0.0
 11
39.85371690537021
 21
15.84093860348921
 31
0.0
  0
LINE
  5
1E0
330
6C
100
AcDbEntity
  8
Visible Narrow (ANSI)
100
AcDbLine
 10
47.47871690537022
 20
15.76181466546605
 30
0.0
 11
39.85371690537021
 21
15.76181466546605
 31
0.0
  0
LINE
  5
1E1
330
6C
100
AcDbEntity
  8
Visible Narrow (ANSI)
100
AcDbLine
 10
47.47871690537022
 20
15.75078379967954
 30
0.0
 11
39.85371690537021
 21
15.75078379967954
 31
0.0
  0
LINE
  5
1E2
330
6C
100
AcDbEntity
  8
Visible (ANSI)
100
AcDbLine
 10
47.72871690537022
 20
14.2185222265492
 30
0.0
 11
39.60371690537021
 21
14.2185222265492
 31
0.0
  0
MTEXT
  5
1E3
330
6C
100
AcDbEntity
  8
Symbol (ANSI)
100
AcDbMText
 10
40.35348841546301
 20
10.94725405161345
 30
0.0
 40
0.7200000088984572
 41
0.0
 71
     7
 72
     1
  1
BOTTOM VIEW
  7
Text Style168
 73
     1
 44
1.0
  0
LINE
  5
1E4
330
6C
100
AcDbEntity
  8
Symbol (ANSI)
370
    30
100
AcDbLine
 10
40.28148823025268
 20
10.80042422736411
 30
0.0
 11
46.90385468491029
 21
10.80042422736411
 31
0.0
  0
LINE
  5
1E5
330
6C
100
AcDbEntity
  8
Visible Narrow (ANSI)
100
AcDbLine
 10
48.58811690537818
 20
49.29300730442987
 30
0.0
 11
48.58811690537821
 21
55.1303102175178
 31
0.0
  0
LINE
  5
1E6
330
6C
100
AcDbEntity
  8
Visible (ANSI)
100
AcDbLine
 10
48.72871690537821
 20
55.15402136647985
 30
0.0
 11
48.72871690537817
 21
49.27091021751783
 31
0.0
  0
SPLINE
  5
1E7
330
6C
100
AcDbEntity
  8
Visible (ANSI)
100
AcDbSpline
210
0.0
220
0.0
230
1.0
 70
     8
 71
     3
 72
    11
 73
     7
 74
     0
 42
0.0000000001
 43
0.0000000001
 40
0.0
 40
0.0
 40
0.0
 40
0.0
 40
1.018582815488612
 40
1.018582815488612
 40
1.018582815488612
 40
1.570796326794896
 40
1.570796326794896
 40
1.570796326794896
 40
1.570796326794896
 10
48.58811690537821
 20
55.1303102175178
 30
0.0
 10
48.63585448666411
 20
55.13543538205085
 30
0.0
 10
48.68277704194631
 20
55.1405605465839
 30
0.0
 10
48.70781888910848
 20
55.14568571111696
 30
0.0
 10
48.72139505212707
 20
55.14846426290459
 30
0.0
 10
48.72871690537821
 20
55.15124281469222
 30
0.0
 10
48.72871690537821
 20
55.15402136647985
 30
0.0
  0
LINE
  5
1E8
330
6C
100
AcDbEntity
  8
Visible (ANSI)
100
AcDbLine
 10
48.6776256453731
 20
55.15402136647985
 30
0.0
 11
48.72871690537821
 21
55.15402136647985
 31
0.0
  0
LINE
  5
1E9
330
6C
100
AcDbEntity
  8
Visible (ANSI)
100
AcDbLine
 10
48.60371690537821
 20
55.15402136647985
 30
0.0
 11
48.6776256453731
 21
55.15402136647985
 31
0.0
  0
SPLINE
  5
1EA
330
6C
100
AcDbEntity
  8
Visible (ANSI)
100
AcDbSpline
210
0.0
220
0.0
230
1.0
 70
     8
 71
     3
 72
     8
 73
     4
 74
     0
 42
0.0000000001
 43
0.0000000001
 40
0.0
 40
0.0
 40
0.0
 40
0.0
 40
1.570796326794896
 40
1.570796326794896
 40
1.570796326794896
 40
1.570796326794896
 10
48.60371690537821
 20
55.15402136647985
 30
0.0
 10
48.60371690537821
 20
55.14611765015917
 30
0.0
 10
48.59628504627755
 20
55.1382139338385
 30
0.0
 10
48.58811690537821
 20
55.13031021751783
 30
0.0
  0
LINE
  5
1EB
330
6C
100
AcDbEntity
  8
Visible Narrow (ANSI)
100
AcDbLine
 10
38.76641399229027
 20
49.27091021751779
 30
0.0
 11
48.5660198184661
 21
49.27091021751779
 31
0.0
  0
LINE
  5
1EC
330
6C
100
AcDbEntity
  8
Visible (ANSI)
100
AcDbLine
 10
48.58811690537819
 20
49.13031021751784
 30
0.0
 11
38.74431690537818
 21
49.13031021751784
 31
0.0
  0
LINE
  5
1ED
330
6C
100
AcDbEntity
  8
Visible Narrow (ANSI)
100
AcDbLine
 10
38.74431690537818
 20
55.13031021751785
 30
0.0
 11
38.74431690537818
 21
49.29300730442987
 31
0.0
  0
SPLINE
  5
1EE
330
6C
100
AcDbEntity
  8
Visible (ANSI)
100
AcDbSpline
210
0.0
220
0.0
230
1.0
 70
     8
 71
     3
 72
    11
 73
     7
 74
     0
 42
0.0000000001
 43
0.0000000001
 40
0.0
 40
0.0
 40
0.0
 40
0.0
 40
1.018582815488561
 40
1.018582815488561
 40
1.018582815488561
 40
1.570796326794897
 40
1.570796326794897
 40
1.570796326794897
 40
1.570796326794897
 10
38.60371690537819
 20
55.1540213664799
 30
0.0
 10
38.60371690537819
 20
55.14889620194684
 30
0.0
 10
38.62991981095731
 20
55.14377103741377
 30
0.0
 10
38.67056193882649
 20
55.13864587288072
 30
0.0
 10
38.69259562307517
 20
55.1358673210931
 30
0.0
 10
38.71843649881496
 20
55.13308876930548
 30
0.0
 10
38.74431690537818
 20
55.13031021751785
 30
0.0
  0
LINE
  5
1EF
330
6C
100
AcDbEntity
  8
Visible (ANSI)
100
AcDbLine
 10
38.60371690537819
 20
49.27091021751784
 30
0.0
 11
38.60371690537819
 21
55.1540213664799
 31
0.0
  0
SPLINE
  5
1F0
330
6C
100
AcDbEntity
  8
Visible (ANSI)
100
AcDbSpline
210
0.0
220
0.0
230
1.0
 70
     8
 71
     3
 72
     8
 73
     4
 74
     0
 42
0.0000000001
 43
0.0000000001
 40
0.0
 40
0.0
 40
0.0
 40
0.0
 40
1.570796326794897
 40
1.570796326794897
 40
1.570796326794897
 40
1.570796326794897
 10
38.72871690537818
 20
55.1540213664799
 30
0.0
 10
38.72871690537818
 20
55.14611765015922
 30
0.0
 10
38.73614876447885
 20
55.13821393383856
 30
0.0
 10
38.74431690537818
 20
55.13031021751789
 30
0.0
  0
LINE
  5
1F1
330
6C
100
AcDbEntity
  8
Visible (ANSI)
100
AcDbLine
 10
38.6548081653833
 20
55.1540213664799
 30
0.0
 11
38.72871690537818
 21
55.1540213664799
 31
0.0
  0
LINE
  5
1F2
330
6C
100
AcDbEntity
  8
Visible (ANSI)
100
AcDbLine
 10
38.60371690537819
 20
55.1540213664799
 30
0.0
 11
38.6548081653833
 21
55.1540213664799
 31
0.0
  0
SPLINE
  5
1F3
330
6C
100
AcDbEntity
  8
Visible (ANSI)
100
AcDbSpline
210
0.0
220
0.0
230
1.0
 70
     8
 71
     3
 72
    11
 73
     7
 74
     0
 42
0.0000000001
 43
0.0000000001
 40
0.0
 40
0.0
 40
0.0
 40
0.0
 40
1.018582815488613
 40
1.018582815488613
 40
1.018582815488613
 40
1.570796326794897
 40
1.570796326794897
 40
1.570796326794897
 40
1.570796326794897
 10
48.72871690537817
 20
49.27091021751784
 30
0.0
 10
48.72871690537817
 20
49.27568650256022
 30
0.0
 10
48.70251399979904
 20
49.28046278760262
 30
0.0
 10
48.66187187192987
 20
49.28523907264501
 30
0.0
 10
48.63983818768119
 20
49.28782848323996
 30
0.0
 10
48.6139973119414
 20
49.29041789383491
 30
0.0
 10
48.58811690537818
 20
49.29300730442987
 30
0.0
  0
SPLINE
  5
1F4
330
6C
100
AcDbEntity
  8
Visible (ANSI)
100
AcDbSpline
210
0.0
220
0.0
230
1.0
 70
     8
 71
     3
 72
     8
 73
     4
 74
     0
 42
0.0000000001
 43
0.0000000001
 40
0.0
 40
0.0
 40
0.0
 40
0.0
 40
1.570796326794897
 40
1.570796326794897
 40
1.570796326794897
 40
1.570796326794897
 10
48.60371690537817
 20
49.27091021751784
 30
0.0
 10
48.60371690537817
 20
49.27827591315519
 30
0.0
 10
48.59628504627751
 20
49.28564160879254
 30
0.0
 10
48.58811690537818
 20
49.2930073044299
 30
0.0
  0
SPLINE
  5
1F5
330
6C
100
AcDbEntity
  8
Visible (ANSI)
100
AcDbSpline
210
0.0
220
0.0
230
1.0
 70
    24
 71
     3
 72
     8
 73
     4
 74
     0
 42
0.0000000001
 43
0.0000000001
 40
-0.317499999999999
 40
-0.317499999999999
 40
-0.317499999999999
 40
-0.317499999999999
 40
0.0
 40
0.0
 40
0.0
 40
0.0
 10
48.72871690537817
 20
49.27091021751784
 30
0.0
 10
48.68705023871151
 20
49.27091021751784
 30
0.0
 10
48.64538357204484
 20
49.27091021751784
 30
0.0
 10
48.60371690537817
 20
49.27091021751784
 30
0.0
  0
LINE
  5
1F6
330
6C
100
AcDbEntity
  8
Visible (ANSI)
100
AcDbLine
 10
48.58811690537818
 20
49.29300730442987
 30
0.0
 11
47.47871690537818
 21
50.40240730442988
 31
0.0
  0
SPLINE
  5
1F7
330
6C
100
AcDbEntity
  8
Visible (ANSI)
100
AcDbSpline
210
0.0
220
0.0
230
1.0
 70
     8
 71
     3
 72
    11
 73
     7
 74
     0
 42
0.0000000001
 43
0.0000000001
 40
0.0
 40
0.0
 40
0.0
 40
0.0
 40
1.01858281548856
 40
1.01858281548856
 40
1.01858281548856
 40
1.570796326794896
 40
1.570796326794896
 40
1.570796326794896
 40
1.570796326794896
 10
38.74431690537818
 20
49.13031021751784
 30
0.0
 10
38.74909319042059
 20
49.13031021751781
 30
0.0
 10
38.753869475463
 20
49.15651312309694
 30
0.0
 10
38.7586457605054
 20
49.1971552509661
 30
0.0
 10
38.76123517110035
 20
49.21918893521477
 30
0.0
 10
38.7638245816953
 20
49.24502981095457
 30
0.0
 10
38.76641399229027
 20
49.27091021751779
 30
0.0
  0
SPLINE
  5
1F8
330
6C
100
AcDbEntity
  8
Visible (ANSI)
100
AcDbSpline
210
0.0
220
0.0
230
1.0
 70
     8
 71
     3
 72
    11
 73
     7
 74
     0
 42
0.0000000001
 43
0.0000000001
 40
0.0
 40
0.0
 40
0.0
 40
0.0
 40
1.018582815488561
 40
1.018582815488561
 40
1.018582815488561
 40
1.570796326794895
 40
1.570796326794895
 40
1.570796326794895
 40
1.570796326794895
 10
48.5660198184661
 20
49.27091021751779
 30
0.0
 10
48.57079610350851
 20
49.22317263623189
 30
0.0
 10
48.57557238855091
 20
49.17625008094971
 30
0.0
 10
48.58034867359331
 20
49.15120823378757
 30
0.0
 10
48.58293808418827
 20
49.13763207076897
 30
0.0
 10
48.58552749478323
 20
49.13031021751783
 30
0.0
 10
48.58811690537819
 20
49.13031021751784
 30
0.0
  0
LINE
  5
1F9
330
6C
100
AcDbEntity
  8
Visible (ANSI)
100
AcDbLine
 10
47.45661981846611
 20
50.38031021751779
 30
0.0
 11
48.5660198184661
 21
49.27091021751779
 31
0.0
  0
SPLINE
  5
1FA
330
6C
100
AcDbEntity
  8
Visible (ANSI)
100
AcDbSpline
210
0.0
220
0.0
230
1.0
 70
    24
 71
     3
 72
     8
 73
     4
 74
     0
 42
0.0000000001
 43
0.0000000001
 40
0.0
 40
0.0
 40
0.0
 40
0.0
 40
0.3175000000000001
 40
0.3175000000000001
 40
0.3175000000000001
 40
0.3175000000000001
 10
48.58811690537819
 20
49.25531021751783
 30
0.0
 10
48.58811690537819
 20
49.21364355085117
 30
0.0
 10
48.58811690537819
 20
49.1719768841845
 30
0.0
 10
48.58811690537819
 20
49.13031021751784
 30
0.0
  0
SPLINE
  5
1FB
330
6C
100
AcDbEntity
  8
Visible (ANSI)
100
AcDbSpline
210
0.0
220
0.0
230
1.0
 70
     8
 71
     3
 72
     8
 73
     4
 74
     0
 42
0.0000000001
 43
0.0000000001
 40
0.0
 40
0.0
 40
0.0
 40
0.0
 40
1.570796326794895
 40
1.570796326794895
 40
1.570796326794895
 40
1.570796326794895
 10
48.58811690537819
 20
49.25531021751783
 30
0.0
 10
48.58075120974081
 20
49.25531021751783
 30
0.0
 10
48.57338551410347
 20
49.2627420766185
 30
0.0
 10
48.5660198184661
 20
49.27091021751783
 30
0.0
  0
SPLINE
  5
1FC
330
6C
100
AcDbEntity
  8
Visible (ANSI)
100
AcDbSpline
210
0.0
220
0.0
230
1.0
 70
     8
 71
     3
 72
     8
 73
     4
 74
     0
 42
0.0000000001
 43
0.0000000001
 40
0.0
 40
0.0
 40
0.0
 40
0.0
 40
1.570796326794896
 40
1.570796326794896
 40
1.570796326794896
 40
1.570796326794896
 10
38.74431690537818
 20
49.25531021751783
 30
0.0
 10
38.75168260101555
 20
49.25531021751783
 30
0.0
 10
38.75904829665291
 20
49.2627420766185
 30
0.0
 10
38.76641399229027
 20
49.27091021751783
 30
0.0
  0
SPLINE
  5
1FD
330
6C
100
AcDbEntity
  8
Visible (ANSI)
100
AcDbSpline
210
0.0
220
0.0
230
1.0
 70
    24
 71
     3
 72
     8
 73
     4
 74
     0
 42
0.0000000001
 43
0.0000000001
 40
-0.3175000000000001
 40
-0.3175000000000001
 40
-0.3175000000000001
 40
-0.3175000000000001
 40
0.0
 40
0.0
 40
0.0
 40
0.0
 10
38.74431690537818
 20
49.13031021751784
 30
0.0
 10
38.74431690537818
 20
49.1719768841845
 30
0.0
 10
38.74431690537818
 20
49.21364355085117
 30
0.0
 10
38.74431690537818
 20
49.25531021751783
 30
0.0
  0
LINE
  5
1FE
330
6C
100
AcDbEntity
  8
Visible (ANSI)
100
AcDbLine
 10
38.76641399229027
 20
49.27091021751779
 30
0.0
 11
39.87581399229027
 21
50.38031021751779
 31
0.0
  0
SPLINE
  5
1FF
330
6C
100
AcDbEntity
  8
Visible (ANSI)
100
AcDbSpline
210
0.0
220
0.0
230
1.0
 70
     8
 71
     3
 72
    11
 73
     7
 74
     0
 42
0.0000000001
 43
0.0000000001
 40
0.0
 40
0.0
 40
0.0
 40
0.0
 40
1.018582815488561
 40
1.018582815488561
 40
1.018582815488561
 40
1.570796326794895
 40
1.570796326794895
 40
1.570796326794895
 40
1.570796326794895
 10
38.74431690537818
 20
49.29300730442987
 30
0.0
 10
38.69657932409229
 20
49.28823101938747
 30
0.0
 10
38.64965676881009
 20
49.28345473434507
 30
0.0
 10
38.62461492164793
 20
49.27867844930268
 30
0.0
 10
38.61103875862933
 20
49.27608903870773
 30
0.0
 10
38.60371690537819
 20
49.27349962811278
 30
0.0
 10
38.60371690537819
 20
49.27091021751784
 30
0.0
  0
LINE
  5
200
330
6C
100
AcDbEntity
  8
Visible (ANSI)
100
AcDbLine
 10
39.85371690537818
 20
50.40240730442988
 30
0.0
 11
38.74431690537818
 21
49.29300730442987
 31
0.0
  0
SPLINE
  5
201
330
6C
100
AcDbEntity
  8
Visible (ANSI)
100
AcDbSpline
210
0.0
220
0.0
230
1.0
 70
    24
 71
     3
 72
     8
 73
     4
 74
     0
 42
0.0000000001
 43
0.0000000001
 40
0.0
 40
0.0
 40
0.0
 40
0.0
 40
0.3175000000000001
 40
0.3175000000000001
 40
0.3175000000000001
 40
0.3175000000000001
 10
38.72871690537819
 20
49.27091021751784
 30
0.0
 10
38.68705023871152
 20
49.27091021751784
 30
0.0
 10
38.64538357204485
 20
49.27091021751784
 30
0.0
 10
38.60371690537819
 20
49.27091021751784
 30
0.0
  0
SPLINE
  5
202
330
6C
100
AcDbEntity
  8
Visible (ANSI)
100
AcDbSpline
210
0.0
220
0.0
230
1.0
 70
     8
 71
     3
 72
     8
 73
     4
 74
     0
 42
0.0000000001
 43
0.0000000001
 40
0.0
 40
0.0
 40
0.0
 40
0.0
 40
1.570796326794895
 40
1.570796326794895
 40
1.570796326794895
 40
1.570796326794895
 10
38.72871690537819
 20
49.27091021751784
 30
0.0
 10
38.72871690537819
 20
49.27827591315519
 30
0.0
 10
38.73614876447885
 20
49.28564160879254
 30
0.0
 10
38.74431690537818
 20
49.2930073044299
 30
0.0
  0
LINE
  5
203
330
6C
100
AcDbEntity
  8
Visible (ANSI)
100
AcDbLine
 10
47.47871690537821
 20
55.13031021751781
 30
0.0
 11
48.58811690537821
 21
55.1303102175178
 31
0.0
  0
LINE
  5
204
330
6C
100
AcDbEntity
  8
Visible (ANSI)
100
AcDbLine
 10
47.47871690537818
 20
50.40240730442988
 30
0.0
 11
47.47871690537821
 21
55.13031021751781
 31
0.0
  0
LINE
  5
205
330
6C
100
AcDbEntity
  8
Visible (ANSI)
100
AcDbLine
 10
39.87581399229027
 20
50.38031021751779
 30
0.0
 11
47.45661981846611
 21
50.38031021751779
 31
0.0
  0
LINE
  5
206
330
6C
100
AcDbEntity
  8
Visible (ANSI)
100
AcDbLine
 10
38.74431690537818
 20
55.13031021751785
 30
0.0
 11
39.85371690537818
 21
55.13031021751785
 31
0.0
  0
LINE
  5
207
330
6C
100
AcDbEntity
  8
Visible (ANSI)
100
AcDbLine
 10
39.85371690537818
 20
55.13031021751785
 30
0.0
 11
39.85371690537818
 21
50.40240730442988
 31
0.0
  0
ARC
  5
208
330
6C
100
AcDbEntity
  8
Visible (ANSI)
100
AcDbCircle
 10
38.74431690537818
 20
49.27091021751784
 30
0.0
 40
0.0156
100
AcDbArc
 50
180.0
 51
270.0
  0
ARC
  5
209
330
6C
100
AcDbEntity
  8
Visible (ANSI)
100
AcDbCircle
 10
38.74431690537818
 20
49.27091021751784
 30
0.0
 40
0.1406
100
AcDbArc
 50
180.0
 51
270.0
  0
ARC
  5
20A
330
6C
100
AcDbEntity
  8
Visible (ANSI)
100
AcDbCircle
 10
48.58811690537818
 20
49.27091021751784
 30
0.0
 40
0.0155999999999991
100
AcDbArc
 50
270.0000000000308
 51
0.0
  0
ARC
  5
20B
330
6C
100
AcDbEntity
  8
Visible (ANSI)
100
AcDbCircle
 10
48.58811690537819
 20
49.27091021751783
 30
0.0
 40
0.1405999999999967
100
AcDbArc
 50
270.0000000000034
 51
0.0
  0
LINE
  5
20C
330
6C
100
AcDbEntity
  8
Visible (ANSI)
100
AcDbLine
 10
38.60371690537819
 20
55.1540213664799
 30
0.0
 11
38.60371690537818
 21
57.13031021752132
 31
0.0
  0
LINE
  5
20D
330
6C
100
AcDbEntity
  8
Visible (ANSI)
100
AcDbLine
 10
48.60371690537821
 20
55.15402136647985
 30
0.0
 11
48.60371690537822
 21
57.13031021752131
 31
0.0
  0
LINE
  5
20E
330
6C
100
AcDbEntity
  8
Visible (ANSI)
100
AcDbLine
 10
48.72871690537822
 20
57.13031021752131
 30
0.0
 11
48.72871690537821
 21
55.15402136647985
 31
0.0
  0
LINE
  5
20F
330
6C
100
AcDbEntity
  8
Visible (ANSI)
100
AcDbLine
 10
48.60371690537822
 20
57.13031021752131
 30
0.0
 11
48.72871690537822
 21
57.13031021752131
 31
0.0
  0
LINE
  5
210
330
6C
100
AcDbEntity
  8
Visible (ANSI)
100
AcDbLine
 10
38.72871690537818
 20
57.13031021752132
 30
0.0
 11
38.72871690537818
 21
55.1540213664799
 31
0.0
  0
LINE
  5
211
330
6C
100
AcDbEntity
  8
Visible (ANSI)
100
AcDbLine
 10
38.60371690537818
 20
57.13031021752132
 30
0.0
 11
38.72871690537818
 21
57.13031021752132
 31
0.0
  0
LINE
  5
212
330
6C
100
AcDbEntity
  8
Visible (ANSI)
100
AcDbLine
 10
39.35371690537819
 20
57.13031021752132
 30
0.0
 11
39.60371690537819
 21
56.88031021752132
 31
0.0
  0
LINE
  5
213
330
6C
100
AcDbEntity
  8
Visible (ANSI)
100
AcDbLine
 10
47.72871690537821
 20
56.88031021752132
 30
0.0
 11
47.9787169053782
 21
57.13031021752132
 31
0.0
  0
LINE
  5
214
330
6C
100
AcDbEntity
  8
Visible (ANSI)
100
AcDbLine
 10
39.35371690537819
 20
57.13031021752132
 30
0.0
 11
38.74431690537818
 21
57.13031021752132
 31
0.0
  0
LINE
  5
215
330
6C
100
AcDbEntity
  8
Visible (ANSI)
100
AcDbLine
 10
47.9787169053782
 20
57.13031021752132
 30
0.0
 11
48.58811690537822
 21
57.13031021752132
 31
0.0
  0
LINE
  5
216
330
6C
100
AcDbEntity
  8
Visible Narrow (ANSI)
100
AcDbLine
 10
38.74431690537818
 20
57.13031021752132
 30
0.0
 11
38.74431690537818
 21
55.13031021752137
 31
0.0
  0
LINE
  5
217
330
6C
100
AcDbEntity
  8
Visible (ANSI)
100
AcDbLine
 10
38.74431690537818
 20
57.13031021752133
 30
0.0
 11
38.72871690537818
 21
57.13031021752132
 31
0.0
  0
LINE
  5
218
330
6C
100
AcDbEntity
  8
Visible (ANSI)
100
AcDbLine
 10
48.58811690537822
 20
57.13031021752132
 30
0.0
 11
48.60371690537823
 21
57.13031021752131
 31
0.0
  0
LINE
  5
219
330
6C
100
AcDbEntity
  8
Visible Narrow (ANSI)
100
AcDbLine
 10
48.5881169053782
 20
55.13031021752133
 30
0.0
 11
48.58811690537822
 21
57.13031021752132
 31
0.0
  0
CIRCLE
  5
21A
330
6C
100
AcDbEntity
  8
Visible (ANSI)
100
AcDbCircle
 10
43.66621690537815
 20
52.88031021751782
 30
0.0
 40
0.28125
  0
CIRCLE
  5
21B
330
6C
100
AcDbEntity
  8
Visible (ANSI)
100
AcDbCircle
 10
40.72871690537815
 20
55.88031021751779
 30
0.0
 40
0.28125
  0
CIRCLE
  5
21C
330
6C
100
AcDbEntity
  8
Visible (ANSI)
100
AcDbCircle
 10
46.60371690537814
 20
55.88031021751779
 30
0.0
 40
0.28125
  0
ARC
  5
21D
330
6C
100
AcDbEntity
  8
Visible (ANSI)
100
AcDbCircle
 10
48.35371690537815
 20
56.75531021751779
 30
0.0
 40
0.1249999999999988
100
AcDbArc
 50
0.0
 51
90.0
  0
ARC
  5
21E
330
6C
100
AcDbEntity
  8
Visible (ANSI)
100
AcDbCircle
 10
38.97871690537814
 20
56.75531021751778
 30
0.0
 40
0.125
100
AcDbArc
 50
90.0
 51
180.0
  0
ARC
  5
21F
330
6C
100
AcDbEntity
  8
Visible (ANSI)
100
AcDbCircle
 10
38.97871690537813
 20
49.38021305401266
 30
0.0
 40
0.1249999999999818
100
AcDbArc
 50
180.0
 51
189.36240113718
  0
ARC
  5
220
330
6C
100
AcDbEntity
  8
Visible (ANSI)
100
AcDbCircle
 10
48.35371690537821
 20
49.38021305401266
 30
0.0
 40
0.1249999999999367
100
AcDbArc
 50
350.6375988628472
 51
0.0
  0
LINE
  5
221
330
6C
100
AcDbEntity
  8
Visible (ANSI)
100
AcDbLine
 10
48.47871690537814
 20
56.75531021751778
 30
0.0
 11
48.47871690537814
 21
55.34804864438743
 31
0.0
  0
LINE
  5
222
330
6C
100
AcDbEntity
  8
Visible (ANSI)
100
AcDbLine
 10
38.97871690537814
 20
56.88031021751779
 30
0.0
 11
48.35371690537815
 21
56.88031021751779
 31
0.0
  0
LINE
  5
223
330
6C
100
AcDbEntity
  8
Visible (ANSI)
100
AcDbLine
 10
38.85371690537815
 20
55.34804864438743
 30
0.0
 11
38.85371690537815
 21
56.75531021751778
 31
0.0
  0
LINE
  5
224
330
6C
100
AcDbEntity
  8
Visible (ANSI)
100
AcDbLine
 10
48.47871690537814
 20
55.24862943095263
 30
0.0
 11
48.47871690537814
 21
55.34804864438743
 31
0.0
  0
LINE
  5
225
330
6C
100
AcDbEntity
  8
Visible Narrow (ANSI)
100
AcDbLine
 10
38.85371690537815
 20
55.34804864438743
 30
0.0
 11
48.47871690537814
 21
55.34804864438743
 31
0.0
  0
LINE
  5
226
330
6C
100
AcDbEntity
  8
Visible (ANSI)
100
AcDbLine
 10
38.85371690537815
 20
55.24862943095263
 30
0.0
 11
38.85371690537815
 21
55.34804864438743
 31
0.0
  0
LINE
  5
227
330
6C
100
AcDbEntity
  8
Visible Narrow (ANSI)
100
AcDbLine
 10
38.85371690537815
 20
55.24862943095262
 30
0.0
 11
48.47871690537814
 21
55.24862943095262
 31
0.0
  0
LINE
  5
228
330
6C
100
AcDbEntity
  8
Visible (ANSI)
100
AcDbLine
 10
48.47871690537814
 20
55.16950549292952
 30
0.0
 11
48.47871690537814
 21
55.24862943095262
 31
0.0
  0
LINE
  5
229
330
6C
100
AcDbEntity
  8
Visible (ANSI)
100
AcDbLine
 10
38.85371690537815
 20
55.24862943095262
 30
0.0
 11
38.85371690537814
 21
55.16950549292952
 31
0.0
  0
LINE
  5
22A
330
6C
100
AcDbEntity
  8
Visible (ANSI)
100
AcDbLine
 10
48.47871690537814
 20
55.16950549292952
 30
0.0
 11
48.47871690537814
 21
55.15847462714305
 31
0.0
  0
LINE
  5
22B
330
6C
100
AcDbEntity
  8
Visible (ANSI)
100
AcDbLine
 10
38.85371690537814
 20
55.16950549292952
 30
0.0
 11
38.85371690537814
 21
55.15847462714301
 31
0.0
  0
LINE
  5
22C
330
6C
100
AcDbEntity
  8
Visible Narrow (ANSI)
100
AcDbLine
 10
38.85371690537814
 20
55.15847462714301
 30
0.0
 11
48.47871690537814
 21
55.15847462714304
 31
0.0
  0
LINE
  5
22D
330
6C
100
AcDbEntity
  8
Visible Narrow (ANSI)
100
AcDbLine
 10
38.85371690537814
 20
55.16950549292952
 30
0.0
 11
48.47871690537814
 21
55.16950549292952
 31
0.0
  0
LINE
  5
22E
330
6C
100
AcDbEntity
  8
Visible (ANSI)
100
AcDbLine
 10
48.47871690537814
 20
49.38021305401266
 30
0.0
 11
48.47871690537814
 21
49.40240730442994
 31
0.0
  0
LINE
  5
22F
330
6C
100
AcDbEntity
  8
Visible (ANSI)
100
AcDbLine
 10
48.47871690537814
 20
55.13031021751783
 30
0.0
 11
48.47871690537814
 21
55.15847462714304
 31
0.0
  0
LINE
  5
230
330
6C
100
AcDbEntity
  8
Visible (ANSI)
100
AcDbLine
 10
38.85371690537814
 20
55.15847462714301
 30
0.0
 11
38.85371690537814
 21
55.13031021751788
 31
0.0
  0
LINE
  5
231
330
6C
100
AcDbEntity
  8
Visible (ANSI)
100
AcDbLine
 10
38.85371690537814
 20
49.40240730442987
 30
0.0
 11
38.85371690537814
 21
49.38021305401266
 31
0.0
  0
MTEXT
  5
232
330
6C
100
AcDbEntity
  8
Symbol (ANSI)
100
AcDbMText
 10
41.3431713537289
 20
46.33408068842293
 30
0.0
 40
0.7200000088984572
 41
0.0
 71
     7
 72
     1
  1
TOP VIEW
  7
Text Style168
 73
     1
 44
1.0
  0
LINE
  5
233
330
6C
100
AcDbEntity
  8
Symbol (ANSI)
370
    30
100
AcDbLine
 10
41.34374735521058
 20
46.18725086417359
 30
0.0
 11
45.88663221941697
 21
46.18725086417359
 31
0.0
  0
ELLIPSE
  5
234
330
6C
100
AcDbEntity
  8
Visible (ANSI)
100
AcDbEllipse
 10
91.91157624890331
 20
55.87550053224205
 30
0.0
 11
-0.28125
 21
0.0000000000000178
 31
0.0
210
0.0
220
0.0
230
1.0
 40
0.575861700985309
 41
0.0
 42
6.283185307179586
  0
ELLIPSE
  5
235
330
6C
100
AcDbEntity
  8
Visible (ANSI)
100
AcDbEllipse
 10
91.91157624890331
 20
55.77330714163673
 30
0.0
 11
0.28125
 21
-0.0000000000000013
 31
0.0
210
0.0
220
0.0
230
1.0
 40
0.5758617009853086
 41
0.3209702928256556
 42
2.820622360764152
  0
ELLIPSE
  5
236
330
6C
100
AcDbEntity
  8
Visible (ANSI)
100
AcDbEllipse
 10
95.88905189307824
 20
53.58502464216051
 30
0.0
 11
-0.28125
 21
0.0000000000000178
 31
0.0
210
0.0
220
0.0
230
1.0
 40
0.575861700985309
 41
0.0
 42
6.283185307179586
  0
ELLIPSE
  5
237
330
6C
100
AcDbEntity
  8
Visible (ANSI)
100
AcDbEllipse
 10
95.88905189307823
 20
53.4828312515552
 30
0.0
 11
0.281249999999999
 21
-0.0000000000000013
 31
0.0
210
0.0
220
0.0
230
1.0
 40
0.5758617009853087
 41
0.3209702928256555
 42
2.820622360764152
  0
ELLIPSE
  5
238
330
6C
100
AcDbEntity
  8
Visible (ANSI)
100
AcDbEllipse
 10
89.87864425299198
 20
55.97729946068993
 30
0.0
 11
-0.28125
 21
0.0000000000000292
 31
0.0
210
0.0
220
0.0
230
1.0
 40
0.575861700985342
 41
0.0
 42
6.283185307179586
  0
ELLIPSE
  5
239
330
6C
100
AcDbEntity
  8
Visible (ANSI)
100
AcDbEllipse
 10
89.87864425299196
 20
55.87510607008462
 30
0.0
 11
0.2812499999999973
 21
-0.0000000000000131
 31
0.0
210
0.0
220
0.0
230
1.0
 40
0.5758617009853412
 41
0.320970292825589
 42
2.820622360764188
  0
ELLIPSE
  5
23A
330
6C
100
AcDbEntity
  8
Visible (ANSI)
100
AcDbEllipse
 10
86.34311034705975
 20
53.94132089172796
 30
0.0
 11
-0.28125
 21
0.0000000000000292
 31
0.0
210
0.0
220
0.0
230
1.0
 40
0.575861700985342
 41
0.0
 42
6.283185307179586
  0
ELLIPSE
  5
23B
330
6C
100
AcDbEntity
  8
Visible (ANSI)
100
AcDbEllipse
 10
86.34311034705975
 20
53.83912750112264
 30
0.0
 11
0.2812499999999984
 21
-0.0000000000000131
 31
0.0
210
0.0
220
0.0
230
1.0
 40
0.5758617009853412
 41
0.3209702928255893
 42
2.820622360764188
  0
ELLIPSE
  5
23C
330
6C
100
AcDbEntity
  8
Visible (ANSI)
100
AcDbEllipse
 10
96.06582858837519
 20
52.41433696500757
 30
0.0
 11
-0.28125
 21
0.0000000000000182
 31
0.0
210
0.0
220
0.0
230
1.0
 40
0.5758617009853151
 41
0.0
 42
6.283185307179586
  0
ELLIPSE
  5
23D
330
6C
100
AcDbEntity
  8
Visible (ANSI)
100
AcDbEllipse
 10
96.06582858837519
 20
52.31214357440226
 30
0.0
 11
0.2812500000000017
 21
-0.0000000000000025
 31
0.0
210
0.0
220
0.0
230
1.0
 40
0.5758617009853174
 41
0.3209702928256389
 42
2.820622360764115
  0
ELLIPSE
  5
23E
330
6C
100
AcDbEntity
  8
Visible (ANSI)
100
AcDbEllipse
 10
92.53029468244298
 20
50.37835839604558
 30
0.0
 11
-0.28125
 21
0.0000000000000182
 31
0.0
210
0.0
220
0.0
230
1.0
 40
0.5758617009853151
 41
0.0
 42
6.283185307179586
  0
ELLIPSE
  5
23F
330
6C
100
AcDbEntity
  8
Visible (ANSI)
100
AcDbEllipse
 10
92.53029468244298
 20
50.27616500544027
 30
0.0
 11
0.2812500000000013
 21
-0.0000000000000026
 31
0.0
210
0.0
220
0.0
230
1.0
 40
0.5758617009853172
 41
0.3209702928256402
 42
2.820622360764165
  0
SPLINE
  5
240
330
6C
100
AcDbEntity
  8
Visible (ANSI)
100
AcDbSpline
210
0.0
220
0.0
230
1.0
 70
     8
 71
     3
 72
     8
 73
     4
 74
     0
 42
0.0000000001
 43
0.0000000001
 40
0.0
 40
0.0
 40
0.0
 40
0.0
 40
0.7873318718203313
 40
0.7873318718203313
 40
0.7873318718203313
 40
0.7873318718203313
 10
97.86675884937906
 20
43.19591124964334
 30
0.0
 10
97.86414827106128
 20
43.16424073901291
 30
0.0
 10
97.85046744273566
 20
43.13934327518577
 30
0.0
 10
97.82955797011148
 20
43.1269603900948
 30
0.0
  0
SPLINE
  5
241
330
6C
100
AcDbEntity
  8
Visible (ANSI)
100
AcDbSpline
210
0.0
220
0.0
230
1.0
 70
     8
 71
     3
 72
     8
 73
     4
 74
     0
 42
0.0000000001
 43
0.0000000001
 40
0.0
 40
0.0
 40
0.0
 40
0.0
 40
0.0154576661982306
 40
0.0154576661982306
 40
0.0154576661982306
 40
0.0154576661982306
 10
90.81775276908556
 20
47.26786838756608
 30
0.0
 10
90.8178040225019
 20
47.26777315835967
 30
0.0
 10
90.81785476702044
 20
47.26767769438997
 30
0.0
 10
90.81790500715296
 20
47.26758200347157
 30
0.0
  0
SPLINE
  5
242
330
6C
100
AcDbEntity
  8
Visible (ANSI)
100
AcDbSpline
210
0.0
220
0.0
230
1.0
 70
     8
 71
     3
 72
     8
 73
     4
 74
     0
 42
0.0000000001
 43
0.0000000001
 40
0.0
 40
0.0
 40
0.0
 40
0.0
 40
0.7642854944727074
 40
0.7642854944727074
 40
0.7642854944727074
 40
0.7642854944727074
 10
90.79569103751255
 20
47.26786838756608
 30
0.0
 10
90.79315687471298
 20
47.2631598953412
 30
0.0
 10
90.79186680807358
 20
47.25787748020713
 30
0.0
 10
90.79127548139947
 20
47.25296572523389
 30
0.0
  0
LINE
  5
243
330
6C
100
AcDbEntity
  8
Visible Narrow (ANSI)
100
AcDbLine
 10
93.7067710614745
 20
40.80033360602175
 30
0.0
 11
97.86675884937906
 21
43.19591124964334
 31
0.0
  0
SPLINE
  5
244
330
6C
100
AcDbEntity
  8
Visible (ANSI)
100
AcDbSpline
210
0.0
220
0.0
230
1.0
 70
     8
 71
     3
 72
    11
 73
     7
 74
     0
 42
0.0000000001
 43
0.0000000001
 40
0.0
 40
0.0
 40
0.0
 40
0.0
 40
1.018582815488612
 40
1.018582815488612
 40
1.018582815488612
 40
1.570796326794896
 40
1.570796326794896
 40
1.570796326794896
 40
1.570796326794896
 10
93.62411816226041
 20
40.7522932758545
 30
0.0
 10
93.65424969110909
 20
40.73076779233773
 30
0.0
 10
93.68380490954374
 20
40.73099629403505
 30
0.0
 10
93.69788813088954
 20
40.75193927096177
 30
0.0
 10
93.70552319501156
 20
40.76329327639958
 30
0.0
 10
93.7087357942854
 20
40.7803065684247
 30
0.0
 10
93.7067710614745
 20
40.80033360602175
 30
0.0
  0
LINE
  5
245
330
6C
100
AcDbEntity
  8
Visible (ANSI)
100
AcDbLine
 10
93.62411816226041
 20
40.84673100823223
 30
0.0
 11
93.62411816226041
 21
40.7522932758545
 31
0.0
  0
LINE
  5
246
330
6C
100
AcDbEntity
  8
Visible (ANSI)
100
AcDbLine
 10
93.6706440850655
 20
40.82113774810808
 30
0.0
 11
93.7067710614745
 21
40.80033360602175
 31
0.0
  0
LINE
  5
247
330
6C
100
AcDbEntity
  8
Visible (ANSI)
100
AcDbLine
 10
93.61838271382616
 20
40.85123307024579
 30
0.0
 11
93.6706440850655
 21
40.82113774810808
 31
0.0
  0
SPLINE
  5
248
330
6C
100
AcDbEntity
  8
Visible (ANSI)
100
AcDbSpline
210
0.0
220
0.0
230
1.0
 70
     8
 71
     3
 72
     8
 73
     4
 74
     0
 42
0.0000000001
 43
0.0000000001
 40
0.0
 40
0.0
 40
0.0
 40
0.0
 40
0.0380457206133822
 40
0.0380457206133822
 40
0.0380457206133822
 40
0.0380457206133822
 10
93.61838271382616
 20
40.85123307024579
 30
0.0
 10
93.61851807754703
 20
40.85114927934693
 30
0.0
 10
93.61865035840406
 20
40.85106761687653
 30
0.0
 10
93.6187796236687
 20
40.85098812187381
 30
0.0
  0
LINE
  5
249
330
6C
100
AcDbEntity
  8
Visible Narrow (ANSI)
100
AcDbLine
 10
90.81775276908556
 20
47.26786838756608
 30
0.0
 11
90.81809848262524
 21
47.26766930437908
 31
0.0
  0
SPLINE
  5
24A
330
6C
100
AcDbEntity
  8
Visible (ANSI)
100
AcDbSpline
210
0.0
220
0.0
230
1.0
 70
     8
 71
     3
 72
    11
 73
     7
 74
     0
 42
0.0000000001
 43
0.0000000001
 40
0.0
 40
0.0
 40
0.0
 40
0.0
 40
1.018582815488561
 40
1.018582815488561
 40
1.018582815488561
 40
1.196416296957889
 40
1.196416296957889
 40
1.196416296957889
 40
1.196416296957889
 10
86.54731490195958
 20
44.9231902081685
 30
0.0
 10
86.55093894055559
 20
44.88624943087162
 30
0.0
 10
86.57309123137341
 20
44.83930526490001
 30
0.0
 10
86.60545359418755
 20
44.80437001951445
 30
0.0
 10
86.61110371076158
 20
44.79827070562615
 30
0.0
 10
86.61703301918008
 20
44.79254089577401
 30
0.0
 10
86.62315254274387
 20
44.78726097684318
 30
0.0
  0
LINE
  5
24B
330
6C
100
AcDbEntity
  8
Visible Narrow (ANSI)
100
AcDbLine
 10
86.67485171548086
 20
44.86937660467518
 30
0.0
 11
86.66350042961516
 21
44.86283983388819
 31
0.0
  0
LINE
  5
24C
330
6C
100
AcDbEntity
  8
Visible (ANSI)
100
AcDbLine
 10
86.66350042961516
 20
44.86283983388819
 30
0.0
 11
86.66350042961516
 21
44.85481082442013
 31
0.0
  0
SPLINE
  5
24D
330
6C
100
AcDbEntity
  8
Visible (ANSI)
100
AcDbSpline
210
0.0
220
0.0
230
1.0
 70
     8
 71
     3
 72
     8
 73
     4
 74
     0
 42
0.0000000001
 43
0.0000000001
 40
0.0
 40
0.0
 40
0.0
 40
0.0
 40
1.570796326794897
 40
1.570796326794897
 40
1.570796326794897
 40
1.570796326794897
 10
86.6357032496079
 20
44.87229074394447
 30
0.0
 10
86.64129202101483
 20
44.86883126324572
 30
0.0
 10
86.65213591038865
 20
44.86294750644325
 30
0.0
 10
86.66350042961516
 20
44.86283983388819
 30
0.0
  0
LINE
  5
24E
330
6C
100
AcDbEntity
  8
Visible (ANSI)
100
AcDbLine
 10
86.58344187836856
 20
44.90238606608218
 30
0.0
 11
86.6357032496079
 21
44.87229074394447
 31
0.0
  0
LINE
  5
24F
330
6C
100
AcDbEntity
  8
Visible (ANSI)
100
AcDbLine
 10
86.54731490195958
 20
44.9231902081685
 30
0.0
 11
86.58344187836856
 21
44.90238606608218
 31
0.0
  0
LINE
  5
250
330
6C
100
AcDbEntity
  8
Visible Narrow (ANSI)
100
AcDbLine
 10
86.6357032496079
 20
44.87229074394447
 30
0.0
 11
90.79569103751255
 21
47.26786838756608
 31
0.0
  0
LINE
  5
251
330
6C
100
AcDbEntity
  8
Visible (ANSI)
100
AcDbLine
 10
93.68591957405223
 20
40.74058311713083
 30
0.0
 11
97.82967182993964
 21
43.12681133966861
 31
0.0
  0
SPLINE
  5
252
330
6C
100
AcDbEntity
  8
Visible (ANSI)
100
AcDbSpline
210
0.0
220
0.0
230
1.0
 70
     8
 71
     3
 72
    16
 73
    12
 74
     0
 42
0.0000000001
 43
0.0000000001
 40
0.0494782891203049
 40
0.0494782891203049
 40
0.0494782891203049
 40
0.0494782891203049
 40
0.0518396770900638
 40
0.0518396770900638
 40
0.0647380439720557
 40
0.0647380439720557
 40
0.0776364099343969
 40
0.0776364099343969
 40
0.0905347759362609
 40
0.0905347759362609
 40
0.0989896749139164
 40
0.0989896749139164
 40
0.0989896749139164
 40
0.0989896749139164
 10
93.62638821195725
 20
40.84396099760646
 30
0.0
 10
93.62638821197316
 20
40.84396099757882
 30
0.0
 10
93.62638368048934
 20
40.843968865006
 30
0.0
 10
93.62632346418378
 20
40.84406861593904
 30
0.0
 10
93.62612395442971
 20
40.84438698515855
 30
0.0
 10
93.62536450424832
 20
40.84537037952021
 30
0.0
 10
93.62479446764849
 20
40.84604665032364
 30
0.0
 10
93.62328330302805
 20
40.84757662603674
 30
0.0
 10
93.62232305246168
 20
40.84844813980721
 30
0.0
 10
93.62046582617072
 20
40.84987686878585
 30
0.0
 10
93.61965228745427
 20
40.85044621566441
 30
0.0
 10
93.61878082249024
 20
40.85098641141462
 30
0.0
  0
LINE
  5
253
330
6C
100
AcDbEntity
  8
Visible (ANSI)
100
AcDbLine
 10
93.61723329409263
 20
40.85845139835398
 30
0.0
 11
93.54676068039854
 21
40.89903387754872
 31
0.0
  0
LINE
  5
254
330
6C
100
AcDbEntity
  8
Visible (ANSI)
100
AcDbLine
 10
93.49021518534321
 20
40.82940287190901
 30
0.0
 11
93.62411816226041
 21
40.7522932758545
 31
0.0
  0
LINE
  5
255
330
6C
100
AcDbEntity
  8
Visible (ANSI)
100
AcDbLine
 10
86.66350042961516
 20
44.86283983388819
 30
0.0
 11
86.66766669531616
 21
44.86044064103486
 31
0.0
  0
ELLIPSE
  5
256
330
6C
100
AcDbEntity
  8
Visible (ANSI)
100
AcDbEllipse
 10
90.80672190329906
 20
47.26151613443092
 30
0.0
 11
0.0156
 21
-0.0000000000000009
 31
0.0
210
0.0
220
0.0
230
1.0
 40
0.5758617009853121
 41
0.7853981633986509
 42
2.356194490192908
  0
ELLIPSE
  5
257
330
6C
100
AcDbEntity
  8
Visible (ANSI)
100
AcDbEllipse
 10
97.76733963594423
 20
43.25316296700253
 30
0.0
 11
0.1405999999999981
 21
0.0
 31
0.0
210
0.0
220
0.0
230
1.0
 40
0.5758617009853119
 41
5.497787143782267
 42
6.283185307179586
  0
LINE
  5
258
330
6C
100
AcDbEntity
  8
Visible (ANSI)
100
AcDbLine
 10
86.54731490195958
 20
44.9231902081685
 30
0.0
 11
85.14986765380747
 21
53.69912510541492
 31
0.0
  0
LINE
  5
259
330
6C
100
AcDbEntity
  8
Visible (ANSI)
100
AcDbLine
 10
93.61838271382616
 20
40.85123307024579
 30
0.0
 11
92.22093546567405
 21
49.62716796749218
 31
0.0
  0
LINE
  5
25A
330
6C
100
AcDbEntity
  8
Visible (ANSI)
100
AcDbLine
 10
92.30932381332237
 20
49.57626850326814
 30
0.0
 11
93.7067710614745
 21
40.80033360602175
 31
0.0
  0
LINE
  5
25B
330
6C
100
AcDbEntity
  8
Visible (ANSI)
100
AcDbLine
 10
92.22093546567405
 20
49.62716796749218
 30
0.0
 11
92.30932381332237
 21
49.57626850326814
 31
0.0
  0
LINE
  5
25C
330
6C
100
AcDbEntity
  8
Visible (ANSI)
100
AcDbLine
 10
85.23825600145583
 20
53.64822564119088
 30
0.0
 11
86.6357032496079
 21
44.87229074394447
 31
0.0
  0
LINE
  5
25D
330
6C
100
AcDbEntity
  8
Visible (ANSI)
100
AcDbLine
 10
85.14986765380747
 20
53.69912510541492
 30
0.0
 11
85.23825600145583
 21
53.64822564119088
 31
0.0
  0
ELLIPSE
  5
25E
330
6C
100
AcDbEntity
  8
Visible (ANSI)
100
AcDbEllipse
 10
97.76733963594423
 20
52.8338342136073
 30
0.0
 11
0.1405999999999979
 21
0.0
 31
0.0
210
0.0
220
0.0
230
1.0
 40
0.5758617009853119
 41
5.497787143782341
 42
7.06858347057722
  0
ELLIPSE
  5
25F
330
6C
100
AcDbEntity
  8
Visible (ANSI)
100
AcDbEllipse
 10
90.80672190329906
 20
56.84218738103568
 30
0.0
 11
-0.0156
 21
-0.0000000000000009
 31
0.0
210
0.0
220
0.0
230
1.0
 40
0.5758617009853119
 41
3.926990816986677
 42
5.497787143780934
  0
LINE
  5
260
330
6C
100
AcDbEntity
  8
Visible (ANSI)
100
AcDbLine
 10
85.68019773969748
 20
53.40648205521823
 30
0.0
 11
85.24928686724233
 21
53.65462712320327
 31
0.0
  0
LINE
  5
261
330
6C
100
AcDbEntity
  8
Visible (ANSI)
100
AcDbLine
 10
90.7910969032993
 20
55.94245742734283
 30
0.0
 11
86.38730452088402
 21
53.40648205521826
 31
0.0
  0
LINE
  5
262
330
6C
100
AcDbEntity
  8
Visible (ANSI)
100
AcDbLine
 10
85.68019773969748
 20
53.50867544582354
 30
0.0
 11
85.24928686724233
 21
53.75682051380858
 31
0.0
  0
LINE
  5
263
330
6C
100
AcDbEntity
  8
Visible (ANSI)
100
AcDbLine
 10
92.20990459988753
 20
49.7484673463802
 30
0.0
 11
91.77899372743238
 21
49.99661241436521
 31
0.0
  0
LINE
  5
264
330
6C
100
AcDbEntity
  8
Visible (ANSI)
100
AcDbLine
 10
91.77899372743238
 20
49.89441902375991
 30
0.0
 11
92.20990459988753
 21
49.64627395577487
 31
0.0
  0
LINE
  5
265
330
6C
100
AcDbEntity
  8
Visible (ANSI)
100
AcDbLine
 10
96.10968026489771
 20
52.89768464405734
 30
0.0
 11
90.82234690329929
 21
55.94245742734289
 31
0.0
  0
LINE
  5
266
330
6C
100
AcDbEntity
  8
Visible (ANSI)
100
AcDbLine
 10
96.18278610984752
 20
52.95777917843791
 30
0.0
 11
90.82234690329929
 21
56.0446508179482
 31
0.0
  0
LINE
  5
267
330
6C
100
AcDbEntity
  8
Visible (ANSI)
100
AcDbLine
 10
90.7910969032993
 20
56.04465081794815
 30
0.0
 11
86.38730452088402
 21
53.50867544582358
 31
0.0
  0
LINE
  5
268
330
6C
100
AcDbEntity
  8
Visible (ANSI)
100
AcDbLine
 10
91.77899372743228
 20
50.40380812815755
 30
0.0
 11
96.18278610984752
 21
52.93978350028212
 31
0.0
  0
ELLIPSE
  5
269
330
6C
100
AcDbEntity
  8
Visible (ANSI)
100
AcDbEllipse
 10
90.80672190329906
 20
56.84218738103568
 30
0.0
 11
0.1406000000000023
 21
0.0
 31
0.0
210
0.0
220
0.0
230
1.0
 40
0.5758617009853118
 41
1.459435432737798
 42
1.682157220851756
  0
LINE
  5
26A
330
6C
100
AcDbEntity
  8
Visible Narrow (ANSI)
100
AcDbLine
 10
97.86675884937906
 20
43.19591124964334
 30
0.0
 11
97.86675884937906
 21
52.7765824962481
 31
0.0
  0
LINE
  5
26B
330
6C
100
AcDbEntity
  8
Visible Narrow (ANSI)
100
AcDbLine
 10
90.81775276908556
 20
56.84853963417083
 30
0.0
 11
90.81775276908556
 21
47.26786838756608
 31
0.0
  0
LINE
  5
26C
330
6C
100
AcDbEntity
  8
Visible Narrow (ANSI)
100
AcDbLine
 10
90.79569103751255
 20
47.26786838756608
 30
0.0
 11
90.79569103751255
 21
56.84853963417083
 31
0.0
  0
LINE
  5
26D
330
6C
100
AcDbEntity
  8
Visible (ANSI)
100
AcDbLine
 10
97.90793963594424
 20
52.8338342136073
 30
0.0
 11
97.90793963594424
 21
43.25316296700253
 31
0.0
  0
LINE
  5
26E
330
6C
100
AcDbEntity
  8
Visible (ANSI)
100
AcDbLine
 10
86.38730452088402
 20
53.50867544582358
 30
0.0
 11
85.68019773969748
 21
53.50867544582354
 31
0.0
  0
LINE
  5
26F
330
6C
100
AcDbEntity
  8
Visible (ANSI)
100
AcDbLine
 10
85.68019773969748
 20
53.50867544582354
 30
0.0
 11
85.68019773969748
 21
53.40648205521823
 31
0.0
  0
LINE
  5
270
330
6C
100
AcDbEntity
  8
Visible (ANSI)
100
AcDbLine
 10
85.68019773969748
 20
53.40648205521823
 30
0.0
 11
86.38730452088402
 21
53.40648205521826
 31
0.0
  0
LINE
  5
271
330
6C
100
AcDbEntity
  8
Visible (ANSI)
100
AcDbLine
 10
86.38730452088402
 20
53.40648205521826
 30
0.0
 11
86.38730452088402
 21
53.50867544582358
 31
0.0
  0
LINE
  5
272
330
6C
100
AcDbEntity
  8
Visible (ANSI)
100
AcDbLine
 10
91.77899372743238
 20
49.99661241436521
 30
0.0
 11
91.77899372743228
 21
50.40380812815755
 31
0.0
  0
LINE
  5
273
330
6C
100
AcDbEntity
  8
Visible (ANSI)
100
AcDbLine
 10
91.77899372743238
 20
49.89441902375991
 30
0.0
 11
91.77899372743238
 21
49.99661241436521
 31
0.0
  0
ELLIPSE
  5
274
330
6C
100
AcDbEntity
  8
Visible (ANSI)
100
AcDbEllipse
 10
85.24928686724233
 20
53.64187338805573
 30
0.0
 11
-0.0077849025007167
 21
0.0135187016038647
 31
0.0
210
0.0
220
0.0
230
1.0
 40
0.5780931159158106
 41
5.499720852205022
 42
7.070517178999503
  0
ELLIPSE
  5
275
330
6C
100
AcDbEntity
  8
Visible (ANSI)
100
AcDbEllipse
 10
85.24928686724233
 20
53.64187338805573
 30
0.0
 11
-0.0701639289487664
 21
0.12184163112201
 31
0.0
210
0.0
220
0.0
230
1.0
 40
0.5780931159158105
 41
5.499720852205022
 42
7.070517178999974
  0
ELLIPSE
  5
276
330
6C
100
AcDbEntity
  8
Visible (ANSI)
100
AcDbEllipse
 10
92.20990459988753
 20
49.63352022062733
 30
0.0
 11
-0.0701639289487765
 21
0.1218416311220106
 31
0.0
210
0.0
220
0.0
230
0.9999999999999998
 40
0.5780931159158105
 41
3.928924525409936
 42
5.49972085220468
  0
ELLIPSE
  5
277
330
6C
100
AcDbEntity
  8
Visible (ANSI)
100
AcDbEllipse
 10
92.20990459988753
 20
49.63352022062733
 30
0.0
 11
0.0077849025007173
 21
-0.0135187016038676
 31
0.0
210
0.0
220
0.0
230
1.0
 40
0.5780931159158105
 41
0.7873318718214044
 42
2.358128198615402
  0
LINE
  5
278
330
6C
100
AcDbEntity
  8
Visible Narrow (ANSI)
100
AcDbLine
 10
97.75171463594423
 20
52.95777917843804
 30
0.0
 11
90.82234690329906
 21
56.94813666771063
 31
0.0
  0
LINE
  5
279
330
6C
100
AcDbEntity
  8
Visible Narrow (ANSI)
100
AcDbLine
 10
90.8223469032991
 20
56.84589404822808
 30
0.0
 11
90.81775276908556
 21
56.84853963417083
 31
0.0
  0
LINE
  5
27A
330
6C
100
AcDbEntity
  8
Visible Narrow (ANSI)
100
AcDbLine
 10
90.79109690329907
 20
56.94813666771063
 30
0.0
 11
85.24928686724233
 21
53.75682051380858
 31
0.0
  0
LINE
  5
27B
330
6C
100
AcDbEntity
  8
Visible Narrow (ANSI)
100
AcDbLine
 10
90.79569103751255
 20
56.84853963417083
 30
0.0
 11
90.79109690329909
 21
56.84589404822812
 31
0.0
  0
LINE
  5
27C
330
6C
100
AcDbEntity
  8
Visible Narrow (ANSI)
100
AcDbLine
 10
85.24932961090554
 20
53.65460250876465
 30
0.0
 11
85.23825600145583
 21
53.64822564119088
 31
0.0
  0
LINE
  5
27D
330
6C
100
AcDbEntity
  8
Visible Narrow (ANSI)
100
AcDbLine
 10
92.20990459988753
 20
49.7484673463802
 30
0.0
 11
97.75171463594423
 21
52.93978350028226
 31
0.0
  0
LINE
  5
27E
330
6C
100
AcDbEntity
  8
Visible Narrow (ANSI)
100
AcDbLine
 10
97.86675884937906
 20
52.7765824962481
 30
0.0
 11
92.30932381332237
 21
49.57626850326814
 31
0.0
  0
LINE
  5
27F
330
6C
100
AcDbEntity
  8
Visible (ANSI)
100
AcDbLine
 10
90.88471756720117
 20
56.95951901594579
 30
0.0
 11
97.8296718299396
 21
52.96018584094124
 31
0.0
  0
LINE
  5
280
330
6C
100
AcDbEntity
  8
Visible (ANSI)
100
AcDbLine
 10
85.17912293829358
 20
53.76371501917773
 30
0.0
 11
90.72872623939693
 21
56.95951901594576
 31
0.0
  0
SPLINE
  5
281
330
6C
100
AcDbEntity
  8
Visible (ANSI)
100
AcDbSpline
210
0.0
220
0.0
230
1.0
 70
     8
 71
     3
 72
    11
 73
     7
 74
     0
 42
0.0000000001
 43
0.0000000001
 40
0.0
 40
0.0
 40
0.0
 40
0.0
 40
1.018582815488505
 40
1.018582815488505
 40
1.018582815488505
 40
1.570796326794887
 40
1.570796326794887
 40
1.570796326794887
 40
1.570796326794887
 10
97.86675884937904
 20
52.89108593096651
 30
0.0
 10
97.86338150583667
 20
52.93205853609085
 30
0.0
 10
97.84147591007252
 20
52.96169510820845
 30
0.0
 10
97.80936024231202
 20
52.967563580886
 30
0.0
 10
97.79194908497428
 20
52.97074510903866
 30
0.0
 10
97.77184583671591
 20
52.96726317216627
 30
0.0
 10
97.75171463594423
 20
52.95777917843803
 30
0.0
  0
SPLINE
  5
282
330
6C
100
AcDbEntity
  8
Visible (ANSI)
100
AcDbSpline
210
0.0
220
0.0
230
1.0
 70
     8
 71
     3
 72
     8
 73
     4
 74
     0
 42
0.0000000001
 43
0.0000000001
 40
0.0
 40
0.0
 40
0.0
 40
0.0
 40
0.78346445497453
 40
0.78346445497453
 40
0.78346445497453
 40
0.78346445497453
 10
90.82234690329906
 20
56.94813666771062
 30
0.0
 10
90.84571295490608
 20
56.96458417717835
 30
0.0
 10
90.86873804734475
 20
56.96816150327592
 30
0.0
 10
90.88464374637846
 20
56.95934168563038
 30
0.0
  0
LINE
  5
283
330
6C
100
AcDbEntity
  8
Visible (ANSI)
100
AcDbLine
 10
90.82234690329929
 20
56.0446508179482
 30
0.0
 11
90.82234690329906
 21
56.94813666771063
 31
0.0
  0
LINE
  5
284
330
6C
100
AcDbEntity
  8
Visible (ANSI)
100
AcDbLine
 10
90.82234690329929
 20
55.94245742734289
 30
0.0
 11
90.82234690329929
 21
56.0446508179482
 31
0.0
  0
SPLINE
  5
285
330
6C
100
AcDbEntity
  8
Visible (ANSI)
100
AcDbSpline
210
0.0
220
0.0
230
1.0
 70
     8
 71
     3
 72
     8
 73
     4
 74
     0
 42
0.0000000001
 43
0.0000000001
 40
0.0
 40
0.0
 40
0.0
 40
0.0
 40
0.7912825099077098
 40
0.7912825099077098
 40
0.7912825099077098
 40
0.7912825099077098
 10
90.81775276908556
 20
56.84853963417083
 30
0.0
 10
90.8203764466446
 20
56.85039269460159
 30
0.0
 10
90.82166658481391
 20
56.85132507111575
 30
0.0
 10
90.82222839638538
 20
56.85098554388377
 30
0.0
  0
LINE
  5
286
330
6C
100
AcDbEntity
  8
Visible (ANSI)
100
AcDbLine
 10
97.75171463594423
 20
52.93978350028226
 30
0.0
 11
97.75171463594423
 21
52.95777917843804
 31
0.0
  0
SPLINE
  5
287
330
6C
100
AcDbEntity
  8
Visible (ANSI)
100
AcDbSpline
210
0.0
220
0.0
230
1.0
 70
    24
 71
     3
 72
     8
 73
     4
 74
     0
 42
0.0000000001
 43
0.0000000001
 40
-0.3175000000000077
 40
-0.3175000000000077
 40
-0.3175000000000077
 40
-0.3175000000000077
 40
-0.1853944325780471
 40
-0.1853944325780471
 40
-0.1853944325780471
 40
-0.1853944325780471
 10
97.86675884937904
 20
52.89108593096651
 30
0.0
 10
97.85449995927976
 20
52.88402650566174
 30
0.0
 10
97.84224106918049
 20
52.87696708035697
 30
0.0
 10
97.8299821790812
 20
52.86990765505221
 30
0.0
  0
LINE
  5
288
330
6C
100
AcDbEntity
  8
Visible (ANSI)
100
AcDbLine
 10
97.75171463594423
 20
52.95777917843804
 30
0.0
 11
96.18278610984752
 21
52.95777917843791
 31
0.0
  0
LINE
  5
289
330
6C
100
AcDbEntity
  8
Visible (ANSI)
100
AcDbLine
 10
96.18278610984752
 20
52.93978350028212
 30
0.0
 11
96.18278610984752
 21
52.95777917843791
 31
0.0
  0
SPLINE
  5
28A
330
6C
100
AcDbEntity
  8
Visible (ANSI)
100
AcDbSpline
210
0.0
220
0.0
230
1.0
 70
     8
 71
     3
 72
    11
 73
     7
 74
     0
 42
0.0000000001
 43
0.0000000001
 40
0.7873318718202251
 40
0.7873318718202251
 40
0.7873318718202251
 40
0.7873318718202251
 40
1.018582815488563
 40
1.018582815488563
 40
1.018582815488563
 40
1.570796326794888
 40
1.570796326794888
 40
1.570796326794888
 40
1.570796326794888
 10
90.72884009922507
 20
56.95936996551957
 30
0.0
 10
90.73344798823194
 20
56.96212389943266
 30
0.0
 10
90.73867948026981
 20
56.9637982216082
 30
0.0
 10
90.74443723567707
 20
56.96424745153168
 30
0.0
 10
90.75818641343287
 20
56.9653201858933
 30
0.0
 10
90.77462768210933
 20
56.95972945522989
 30
0.0
 10
90.79109690329907
 20
56.94813666771063
 30
0.0
  0
SPLINE
  5
28B
330
6C
100
AcDbEntity
  8
Visible (ANSI)
100
AcDbSpline
210
0.0
220
0.0
230
1.0
 70
     8
 71
     3
 72
     8
 73
     4
 74
     0
 42
0.0000000001
 43
0.0000000001
 40
0.0
 40
0.0
 40
0.0
 40
0.0
 40
0.7912825098800325
 40
0.7912825098800325
 40
0.7912825098800325
 40
0.7912825098800325
 10
90.79569103751255
 20
56.84853963417083
 30
0.0
 10
90.79306735995359
 20
56.85039269460153
 30
0.0
 10
90.79177722178428
 20
56.85132507111568
 30
0.0
 10
90.79121541021281
 20
56.8509855438838
 30
0.0
  0
LINE
  5
28C
330
6C
100
AcDbEntity
  8
Visible (ANSI)
100
AcDbLine
 10
90.79109690329907
 20
56.94813666771063
 30
0.0
 11
90.7910969032993
 21
56.04465081794815
 31
0.0
  0
LINE
  5
28D
330
6C
100
AcDbEntity
  8
Visible (ANSI)
100
AcDbLine
 10
90.7910969032993
 20
55.94245742734283
 30
0.0
 11
90.7910969032993
 21
56.04465081794815
 31
0.0
  0
SPLINE
  5
28E
330
6C
100
AcDbEntity
  8
Visible (ANSI)
100
AcDbSpline
210
0.0
220
0.0
230
1.0
 70
     8
 71
     3
 72
    11
 73
     7
 74
     0
 42
0.0000000001
 43
0.0000000001
 40
0.0
 40
0.0
 40
0.0
 40
0.0
 40
1.018582815488597
 40
1.018582815488597
 40
1.018582815488597
 40
1.570796326794887
 40
1.570796326794887
 40
1.570796326794887
 40
1.570796326794887
 10
97.75171463594423
 20
52.93978350028226
 30
0.0
 10
97.7888475469313
 20
52.92228984459296
 30
0.0
 10
97.8254041475043
 20
52.88370595388023
 30
0.0
 10
97.84648875098847
 20
52.84222704906055
 30
0.0
 10
97.85791953771239
 20
52.81973971535796
 30
0.0
 10
97.8649278595881
 20
52.79668655132812
 30
0.0
 10
97.86675884937906
 20
52.7765824962481
 30
0.0
  0
LINE
  5
28F
330
6C
100
AcDbEntity
  8
Visible (ANSI)
100
AcDbLine
 10
96.18278610984752
 20
52.93978350028212
 30
0.0
 11
97.75171463594423
 21
52.93978350028226
 31
0.0
  0
SPLINE
  5
290
330
6C
100
AcDbEntity
  8
Visible (ANSI)
100
AcDbSpline
210
0.0
220
0.0
230
1.0
 70
     8
 71
     3
 72
    10
 73
     6
 74
     0
 42
0.0000000001
 43
0.0000000001
 40
0.0
 40
0.0
 40
0.0
 40
0.0
 40
0.0122589744718548
 40
0.0122589744718548
 40
0.015246778519482
 40
0.015246778519482
 40
0.015246778519482
 40
0.015246778519482
 10
90.81886962177076
 20
56.84933514794375
 30
0.0
 10
90.82000985388997
 20
56.85015111660078
 30
0.0
 10
90.82100272415111
 20
56.8509976864161
 30
0.0
 10
90.82199124514479
 20
56.85194505740852
 30
0.0
 10
90.82217443089103
 20
56.85212675662048
 30
0.0
 10
90.82234690329908
 20
56.85230305393754
 30
0.0
  0
SPLINE
  5
291
330
6C
100
AcDbEntity
  8
Visible (ANSI)
100
AcDbSpline
210
0.0
220
0.0
230
1.0
 70
     8
 71
     3
 72
    10
 73
     6
 74
     0
 42
0.0000000001
 43
0.0000000001
 40
0.0668604181198684
 40
0.0668604181198684
 40
0.0668604181198684
 40
0.0668604181198684
 40
0.0723508068919237
 40
0.0723508068919237
 40
0.0821221175208208
 40
0.0821221175208208
 40
0.0821221175208208
 40
0.0821221175208208
 10
90.79109690329909
 20
56.85230329412453
 30
0.0
 10
90.79141464594574
 20
56.85197864340821
 30
0.0
 10
90.7917690398396
 20
56.8516351418084
 30
0.0
 10
90.79285085024624
 20
56.85065409753129
 30
0.0
 10
90.79366533537575
 20
56.84998553539905
 30
0.0
 10
90.79457418482734
 20
56.84933514794376
 30
0.0
  0
ELLIPSE
  5
292
330
6C
100
AcDbEntity
  8
Visible (ANSI)
100
AcDbEllipse
 10
91.73479955360726
 20
43.87704699681225
 30
0.0
 11
0.28125
 21
-0.0000000000000169
 31
0.0
210
0.0
220
0.0
230
1.0
 40
0.5758617009853115
 41
0.0
 42
6.283185307179586
  0
ELLIPSE
  5
293
330
6C
100
AcDbEntity
  8
Visible (ANSI)
100
AcDbEllipse
 10
91.73479955360726
 20
43.77485360620694
 30
0.0
 11
0.2812499999999998
 21
-0.0000000000000001
 31
0.0
210
0.0
220
0.0
230
1.0
 40
0.5758617009853113
 41
0.3209702928256465
 42
2.820622360764147
  0
ELLIPSE
  5
294
330
6C
100
AcDbEntity
  8
Visible (ANSI)
100
AcDbEllipse
 10
87.53635304031215
 20
43.74950700046848
 30
0.0
 11
0.28125
 21
-0.0000000000000168
 31
0.0
210
0.0
220
0.0
230
1.0
 40
0.5758617009853117
 41
0.0
 42
6.283185307179586
  0
ELLIPSE
  5
295
330
6C
100
AcDbEntity
  8
Visible (ANSI)
100
AcDbEllipse
 10
87.53635304031215
 20
43.64731360986316
 30
0.0
 11
0.2812500000000002
 21
0.0
 31
0.0
210
0.0
220
0.0
230
1.0
 40
0.5758617009853114
 41
0.3209702928256464
 42
2.820622360764147
  0
ELLIPSE
  5
296
330
6C
100
AcDbEntity
  8
Visible (ANSI)
100
AcDbEllipse
 10
91.69060537978372
 20
41.35723218193887
 30
0.0
 11
0.28125
 21
-0.0000000000000168
 31
0.0
210
0.0
220
0.0
230
1.0
 40
0.5758617009853117
 41
0.0
 42
6.283185307179586
  0
ELLIPSE
  5
297
330
6C
100
AcDbEntity
  8
Visible (ANSI)
100
AcDbEllipse
 10
91.69060537978372
 20
41.25503879133355
 30
0.0
 11
0.2812499999999995
 21
0.0
 31
0.0
210
0.0
220
0.0
230
1.0
 40
0.5758617009853115
 41
0.3209702928256466
 42
2.820622360764147
  0
ELLIPSE
  5
298
330
6C
100
AcDbEntity
  8
Visible (ANSI)
100
AcDbEllipse
 10
92.30932381332223
 20
40.28834343323405
 30
0.0
 11
-0.1249999999999982
 21
0.0000000000000075
 31
0.0
210
0.0
220
0.0
230
1.0
 40
0.5758617009853114
 41
0.7853981633977023
 42
2.356194490192615
  0
LINE
  5
299
330
6C
100
AcDbEntity
  8
Visible Narrow (ANSI)
100
AcDbLine
 10
92.22093546567393
 20
40.23744396900999
 30
0.0
 11
92.22093546567393
 21
40.13525057840467
 31
0.0
  0
ELLIPSE
  5
29A
330
6C
100
AcDbEntity
  8
Visible (ANSI)
100
AcDbEllipse
 10
92.30932381332223
 20
40.18615004262872
 30
0.0
 11
0.1249999999999989
 21
0.0000000000000074
 31
0.0
210
0.0
220
0.0
230
1.0
 40
0.5758617009853118
 41
3.926990816987148
 42
5.497787143782062
  0
LINE
  5
29B
330
6C
100
AcDbEntity
  8
Visible Narrow (ANSI)
100
AcDbLine
 10
92.39771216097057
 20
40.13525057840469
 30
0.0
 11
92.39771216097057
 21
40.23744396901
 31
0.0
  0
ELLIPSE
  5
29C
330
6C
100
AcDbEntity
  8
Visible (ANSI)
100
AcDbEllipse
 10
85.68019773969737
 20
44.00360985943129
 30
0.0
 11
-0.1249999999999999
 21
0.0000000000000001
 31
0.0
210
0.0
220
0.0
230
1.0
 40
0.5758617009853115
 41
0.000000000000005
 42
0.7853981633976139
  0
ELLIPSE
  5
29D
330
6C
100
AcDbEntity
  8
Visible (ANSI)
100
AcDbEllipse
 10
85.68019773969737
 20
44.1058032500366
 30
0.0
 11
-0.125
 21
0.0
 31
0.0
210
0.0
220
0.0
230
1.0
 40
0.5758617009853115
 41
5.497787143782234
 42
7.068583470577114
  0
LINE
  5
29E
330
6C
100
AcDbEntity
  8
Visible Narrow (ANSI)
100
AcDbLine
 10
85.59180939204905
 20
43.95271039520724
 30
0.0
 11
85.59180939204905
 21
44.05490378581256
 31
0.0
  0
ELLIPSE
  5
29F
330
6C
100
AcDbEntity
  8
Visible (ANSI)
100
AcDbEllipse
 10
90.89517895592077
 20
47.21100146804976
 30
0.0
 11
0.1249999999999988
 21
-0.0000000000000074
 31
0.0
210
0.0
220
0.0
230
1.0
 40
0.5758617009853115
 41
0.8248293379543767
 42
2.356194490192613
  0
LINE
  5
2A0
330
6C
100
AcDbEntity
  8
Visible (ANSI)
100
AcDbLine
 10
85.55519773969738
 20
44.00360985943129
 30
0.0
 11
85.55519773969738
 21
44.1058032500366
 31
0.0
  0
LINE
  5
2A1
330
6C
100
AcDbEntity
  8
Visible (ANSI)
100
AcDbLine
 10
92.39771216097057
 20
40.13525057840469
 30
0.0
 11
93.39279636223414
 21
40.70828145916811
 31
0.0
  0
LINE
  5
2A2
330
6C
100
AcDbEntity
  8
Visible (ANSI)
100
AcDbLine
 10
93.39279636223414
 20
40.81047484977343
 30
0.0
 11
92.39771216097057
 21
40.23744396901
 31
0.0
  0
LINE
  5
2A3
330
6C
100
AcDbEntity
  8
Visible (ANSI)
100
AcDbLine
 10
85.59180939204905
 20
43.95271039520724
 30
0.0
 11
92.22093546567393
 21
40.13525057840467
 31
0.0
  0
LINE
  5
2A4
330
6C
100
AcDbEntity
  8
Visible (ANSI)
100
AcDbLine
 10
85.59180939204905
 20
44.15670271426065
 30
0.0
 11
86.5868935933126
 21
44.72973359502406
 31
0.0
  0
LINE
  5
2A5
330
6C
100
AcDbEntity
  8
Visible (ANSI)
100
AcDbLine
 10
92.22093546567393
 20
40.23744396900999
 30
0.0
 11
85.59180939204905
 21
44.05490378581256
 31
0.0
  0
ELLIPSE
  5
2A6
330
6C
100
AcDbEntity
  8
Visible (ANSI)
100
AcDbEllipse
 10
93.39279636223414
 20
40.82322858492097
 30
0.0
 11
0.0701639289487284
 21
0.1218416311220331
 31
0.0
210
0.0
220
0.0
230
1.0
 40
0.5780931159156392
 41
3.925057108563866
 42
4.710455271961564
  0
ELLIPSE
  5
2A7
330
6C
100
AcDbEntity
  8
Visible (ANSI)
100
AcDbEllipse
 10
93.39279636223414
 20
40.82322858492097
 30
0.0
 11
0.0077849025007119
 21
0.0135187016038663
 31
0.0
210
0.0
220
0.0
230
1.0
 40
0.5780931159156392
 41
3.925057108564035
 42
4.710455271961271
  0
ELLIPSE
  5
2A8
330
6C
100
AcDbEntity
  8
Visible (ANSI)
100
AcDbEllipse
 10
86.5868935933126
 20
44.7424873301716
 30
0.0
 11
0.0077849025007126
 21
0.0135187016038675
 31
0.0
210
0.0
220
0.0
230
1.0
 40
0.578093115915639
 41
3.925057108564034
 42
4.710455271961271
  0
LINE
  5
2A9
330
6C
100
AcDbEntity
  8
Visible Narrow (ANSI)
100
AcDbLine
 10
93.40059636223413
 20
40.81870205358037
 30
0.0
 11
86.59469359331261
 21
44.737960798831
 31
0.0
  0
LINE
  5
2AA
330
6C
100
AcDbEntity
  8
Visible Narrow (ANSI)
100
AcDbLine
 10
93.39279636223414
 20
40.81047484977343
 30
0.0
 11
86.5868935933126
 21
44.72973359502406
 31
0.0
  0
LINE
  5
2AB
330
6C
100
AcDbEntity
  8
Visible (ANSI)
100
AcDbLine
 10
93.51904543536447
 20
40.87933824686092
 30
0.0
 11
93.46309636223413
 21
40.78243177040249
 31
0.0
  0
LINE
  5
2AC
330
6C
100
AcDbEntity
  8
Visible (ANSI)
100
AcDbLine
 10
93.40059636223413
 20
40.81870205358037
 30
0.0
 11
93.45654543536447
 21
40.91560853003881
 31
0.0
  0
LINE
  5
2AD
330
6C
100
AcDbEntity
  8
Visible (ANSI)
100
AcDbLine
 10
86.65064266644293
 20
44.83486727528943
 30
0.0
 11
86.59469359331261
 21
44.737960798831
 31
0.0
  0
ELLIPSE
  5
2AE
330
6C
100
AcDbEntity
  8
Visible (ANSI)
100
AcDbEllipse
 10
93.52684543536446
 20
40.87481171552033
 30
0.0
 11
0.0077849025007128
 21
0.013518701603866
 31
0.0
210
0.0
220
0.0
230
1.0
 40
0.5780931159156393
 41
0.7834644549774579
 42
1.568862618372518
  0
ELLIPSE
  5
2AF
330
6C
100
AcDbEntity
  8
Visible (ANSI)
100
AcDbEllipse
 10
93.52684543536446
 20
40.87481171552033
 30
0.0
 11
0.0701639289487356
 21
0.1218416311220288
 31
0.0
210
0.0
220
0.0
230
1.0
 40
0.5780931159156392
 41
0.7834644549745847
 42
1.568862618371857
  0
ELLIPSE
  5
2B0
330
6C
100
AcDbEntity
  8
Visible (ANSI)
100
AcDbEllipse
 10
86.72094266644291
 20
44.79407046077095
 30
0.0
 11
0.0701639289487363
 21
0.1218416311220301
 31
0.0
210
0.0
220
0.0
230
1.0
 40
0.578093115915643
 41
0.7834644549744106
 42
1.568862618371857
  0
LINE
  5
2B1
330
6C
100
AcDbEntity
  8
Visible Narrow (ANSI)
100
AcDbLine
 10
93.52684543536446
 20
40.98975884127317
 30
0.0
 11
86.72094266644291
 21
44.90901758652382
 31
0.0
  0
LINE
  5
2B2
330
6C
100
AcDbEntity
  8
Visible Narrow (ANSI)
100
AcDbLine
 10
93.45654543536447
 20
40.91560853003881
 30
0.0
 11
86.65064266644293
 21
44.83486727528943
 31
0.0
  0
LINE
  5
2B3
330
6C
100
AcDbEntity
  8
Visible (ANSI)
100
AcDbLine
 10
93.60539448396876
 20
40.93279883940793
 30
0.0
 11
93.52684543536446
 21
40.88756545066785
 31
0.0
  0
LINE
  5
2B4
330
6C
100
AcDbEntity
  8
Visible (ANSI)
100
AcDbLine
 10
93.52684543536446
 20
40.98975884127317
 30
0.0
 11
93.59048844358758
 21
41.02640841224437
 31
0.0
  0
LINE
  5
2B5
330
6C
100
AcDbEntity
  8
Visible (ANSI)
100
AcDbLine
 10
90.80679060827243
 20
47.26190093227379
 30
0.0
 11
86.72094266644291
 21
44.90901758652382
 31
0.0
  0
LINE
  5
2B6
330
6C
100
AcDbEntity
  8
Visible Narrow (ANSI)
100
AcDbLine
 10
90.98001424531686
 20
47.26386787331695
 30
0.0
 11
92.76052830105927
 21
46.23853802054918
 31
0.0
  0
DIMENSION
  5
2B7
330
6C
100
AcDbEntity
  8
Dimension (ANSI)
100
AcDbDimension
  2
*D4
 10
36.38211218096494
 20
30.00241538059472
 30
0.0
 11
36.38211218096493
 21
36.00235230999561
 31
0.0
 70
   160
  1
<>{\PHEIGHT}
 71
     5
 42
11.99987385880178
  3
Default (ANSI)
100
AcDbAlignedDimension
 13
38.74431690537438
 23
42.0022892393965
 33
0.0
 14
38.97871690537433
 24
30.00241538059472
 34
0.0
 50
90.0
100
AcDbRotatedDimension
1001
ACAD
1000
DSTYLE
1002
{
1070
   289
1070
     1
1070
   271
1070
     2
1070
   272
1070
     2
1070
    48
1040
0.0
1070
    47
1040
0.0
1002
}
  0
DIMENSION
  5
3B8
330
6C
100
AcDbEntity
  8
Dimension (ANSI)
100
AcDbDimension
  2
*D5
 10
48.72871690537441
 20
43.83019317640437
 30
0.0
 11
43.66621690537439
 21
43.83019317640437
 31
0.0
 70
   160
  1
<>{\PWIDTH}
 71
     5
 42
10.12500000000005
  3
Default (ANSI)
100
AcDbAlignedDimension
 13
38.60371690537436
 23
41.86168923939649
 33
0.0
 14
48.72871690537441
 24
41.8616892393965
 34
0.0
100
AcDbRotatedDimension
1001
ACAD
1000
DSTYLE
1002
{
1070
   289
1070
     1
1070
    73
1070
     0
1070
    74
1070
     0
1070
   271
1070
     2
1070
   272
1070
     2
1070
    48
1040
0.0
1070
    47
1040
0.0
1002
}
  0
DIMENSION
  5
4B6
330
6C
100
AcDbEntity
  8
Dimension (ANSI)
100
AcDbDimension
  2
*D6
 10
18.49895596985331
 20
45.05164446056743
 30
0.0
 11
14.49895596985331
 21
45.05164446056743
 31
0.0
 70
   160
  1
<>
 42
7.999999999999998
  3
Default (ANSI)
100
AcDbAlignedDimension
 13
10.49895596985332
 23
41.86168923939649
 33
0.0
 14
18.49895596985331
 24
42.00228923939649
 34
0.0
100
AcDbRotatedDimension
1001
ACAD
1000
DSTYLE
1002
{
1070
   289
1070
     1
1070
    73
1070
     0
1070
    74
1070
     0
1070
   271
1070
     2
1070
   272
1070
     2
1070
    48
1040
0.0
1070
    47
1040
0.0
1002
}
  0
DIMENSION
  5
5A0
330
6C
100
AcDbEntity
  8
Dimension (ANSI)
100
AcDbDimension
  2
*D7
 10
20.66458508361574
 20
44.90946748176564
 30
0.0
 11
21.46397359116781
 21
44.09709570695777
 31
0.0
 70
   165
  1
<>
 42
1.403725741975224
  3
Default (ANSI)
100
AcDb3PointAngularDimension
 13
18.89766711881528
 23
42.00228923939649
 33
0.0
 14
18.58502753392865
 24
42.37206779289423
 34
0.0
 15
18.52266711881528
 25
42.00228923939649
 35
0.0
1001
ACAD_DSTYLE_DIMANGULAR_EXTENSION
1070
   387
1070
     1
1001
ACAD
1000
DSTYLE
1002
{
1070
   179
1070
     0
1070
   272
1070
     0
1070
    48
1040
0.0
1070
    47
1040
0.0
1002
}
  0
DIMENSION
  5
6C9
330
6C
100
AcDbEntity
  8
Dimension (ANSI)
100
AcDbDimension
  2
*D8
 10
48.7287169053782
 20
51.51124075020688
 30
0.0
 11
52.43811423637569
 21
51.51124075020688
 31
0.0
 70
   160
  1
<>{\P(2 PL.)}
 71
     5
 42
1.250000000000007
  3
Default (ANSI)
100
AcDbAlignedDimension
 13
47.47871690537819
 23
51.7227812744681
 33
0.0
 14
48.7287169053782
 24
51.65524384030344
 34
0.0
100
AcDbRotatedDimension
1001
ACAD
1000
DSTYLE
1002
{
1070
   289
1070
     1
1070
    73
1070
     0
1070
    74
1070
     0
1070
   271
1070
     2
1070
    76
1070
     1
1070
    75
1070
     1
1070
   272
1070
     2
1070
    48
1040
0.0
1070
    47
1040
0.0
1002
}
  0
DIMENSION
  5
7B8
330
6C
100
AcDbEntity
  8
Dimension (ANSI)
100
AcDbDimension
  2
*D9
 10
40.123360601358
 20
49.13031021751784
 30
0.0
 11
41.77431673145113
 21
51.998573305514
 31
0.0
 70
   160
  1
<>
 42
1.24999999999995
  3
Default (ANSI)
100
AcDbAlignedDimension
 13
41.43218266716653
 23
50.38031021751779
 33
0.0
 14
41.56026224545917
 24
49.13031021751784
 34
0.0
 50
270.0
100
AcDbRotatedDimension
1001
ACAD
1000
DSTYLE
1002
{
1070
   289
1070
     1
1070
   271
1070
     2
1070
    76
1070
     1
1070
    75
1070
     1
1070
   272
1070
     2
1070
    48
1040
0.0
1070
    47
1040
0.0
1002
}
  0
LINE
  5
8AC
330
6C
100
AcDbEntity
  8
Center Mark (ANSI)
  6
CHAIN
 48
0.1908618211746216
100
AcDbLine
 10
39.2912169053702
 20
15.99977222655272
 30
0.0
 11
39.2912169053702
 21
13.93727222655272
 31
0.0
  0
LINE
  5
8AD
330
6C
100
AcDbEntity
  8
Center Mark (ANSI)
  6
CHAIN
 48
0.1908618211746216
100
AcDbLine
 10
39.29121690537021
 20
20.99977222655272
 30
0.0
 11
39.29121690537021
 21
18.93727222655271
 31
0.0
  0
LINE
  5
8AE
330
6C
100
AcDbEntity
  8
Centerline (ANSI)
  6
CHAIN
 48
0.9524481296539306
100
AcDbLine
 10
39.2912169053702
 20
13.93727222655272
 30
0.0
 11
39.29121690537021
 21
20.99977222655272
 31
0.0
  0
LINE
  5
8AF
330
6C
100
AcDbEntity
  8
Center Mark (ANSI)
  6
CHAIN
 48
0.1908618211746216
100
AcDbLine
 10
40.85371690537019
 20
22.31227222655272
 30
0.0
 11
40.85371690537019
 21
20.24977222655272
 31
0.0
  0
LINE
  5
8B0
330
6C
100
AcDbEntity
  8
Center Mark (ANSI)
  6
CHAIN
 48
0.1908618211746216
100
AcDbLine
 10
46.47871690537019
 20
22.31227222655272
 30
0.0
 11
46.47871690537019
 21
20.24977222655272
 31
0.0
  0
LINE
  5
8B1
330
6C
100
AcDbEntity
  8
Centerline (ANSI)
  6
CHAIN
 48
0.9524481296539306
100
AcDbLine
 10
39.82246690537019
 20
21.28102222655272
 30
0.0
 11
47.5099669053702
 21
21.28102222655273
 31
0.0
  0
LINE
  5
8B2
330
6C
100
AcDbEntity
  8
Center Mark (ANSI)
  6
CHAIN
 48
0.1908618211746216
100
AcDbLine
 10
48.0412169053702
 20
20.99977222655272
 30
0.0
 11
48.0412169053702
 21
18.93727222655271
 31
0.0
  0
LINE
  5
8B3
330
6C
100
AcDbEntity
  8
Center Mark (ANSI)
  6
CHAIN
 48
0.1908618211746216
100
AcDbLine
 10
48.04121690537023
 20
15.99977222655272
 30
0.0
 11
48.04121690537023
 21
13.93727222655272
 31
0.0
  0
LINE
  5
8B4
330
6C
100
AcDbEntity
  8
Centerline (ANSI)
  6
CHAIN
 48
0.9524481296539306
100
AcDbLine
 10
48.04121690537019
 20
20.99977222655272
 30
0.0
 11
48.04121690537024
 21
13.93727222655272
 31
0.0
  0
DIMENSION
  5
8B5
330
6C
100
AcDbEntity
  8
Dimension (ANSI)
100
AcDbDimension
  2
*D10
 10
35.24127978525833
 20
19.96852222655272
 30
0.0
 11
33.54746651166941
 21
18.94081031965886
 31
0.0
 70
   160
  1
<>
 42
1.99999999999996
  3
Default (ANSI)
100
AcDbAlignedDimension
 13
38.7443169053702
 23
21.96852222655268
 33
0.0
 14
38.25996690537021
 24
19.96852222655272
 34
0.0
 50
270.0
100
AcDbRotatedDimension
1001
ACAD
1000
DSTYLE
1002
{
1070
   289
1070
     2
1070
   271
1070
     2
1070
   272
1070
     2
1070
    48
1040
0.0
1070
    47
1040
0.0
1002
}
  0
DIMENSION
  5
9B5
330
6C
100
AcDbEntity
  8
Dimension (ANSI)
100
AcDbDimension
  2
*D11
 10
30.71282084237808
 20
14.96852222655272
 30
0.0
 11
30.71282084237807
 21
18.4685222265527
 31
0.0
 70
   160
  1
<>
 42
6.999999999999959
  3
Default (ANSI)
100
AcDbAlignedDimension
 13
38.7443169053702
 23
21.96852222655268
 33
0.0
 14
38.2599669053702
 24
14.96852222655272
 34
0.0
 50
270.0
100
AcDbRotatedDimension
1001
ACAD
1000
DSTYLE
1002
{
1070
   289
1070
     1
1070
   271
1070
     2
1070
   272
1070
     2
1070
    48
1040
0.0
1070
    47
1040
0.0
1002
}
  0
DIMENSION
  5
A9F
330
6C
100
AcDbEntity
  8
Dimension (ANSI)
100
AcDbDimension
  2
*D12
 10
34.94233775865768
 20
21.28102222655273
 30
0.0
 11
36.62186531774799
 21
23.5867853145489
 31
0.0
 70
   160
  1
<>
 42
0.6874999999999539
  3
Default (ANSI)
100
AcDbAlignedDimension
 13
38.7443169053702
 23
21.96852222655268
 33
0.0
 14
39.82246690537019
 24
21.28102222655273
 34
0.0
 50
270.0
100
AcDbRotatedDimension
1001
ACAD
1000
DSTYLE
1002
{
1070
   289
1070
     1
1070
   271
1070
     2
1070
   272
1070
     2
1070
    48
1040
0.0
1070
    47
1040
0.0
1002
}
  0
DIMENSION
  5
B9F
330
6C
100
AcDbEntity
  8
Dimension (ANSI)
100
AcDbDimension
  2
*D13
 10
46.47871690537019
 20
24.43790465023325
 30
0.0
 11
50.83290651106429
 21
24.43790465023325
 31
0.0
 70
   160
  1
<>
 42
2.249999999999992
  3
Default (ANSI)
100
AcDbAlignedDimension
 13
48.72871690537019
 23
21.82792222655268
 33
0.0
 14
46.47871690537019
 24
22.31227222655272
 34
0.0
 50
180.0
100
AcDbRotatedDimension
1001
ACAD
1000
DSTYLE
1002
{
1070
   289
1070
     2
1070
    73
1070
     0
1070
    74
1070
     0
1070
   271
1070
     2
1070
   272
1070
     2
1070
    48
1040
0.0
1070
    47
1040
0.0
1002
}
  0
DIMENSION
  5
C89
330
6C
100
AcDbEntity
  8
Dimension (ANSI)
100
AcDbDimension
  2
*D14
 10
40.85371690537019
 20
24.43790465023325
 30
0.0
 11
42.5475301789591
 21
24.43790465023325
 31
0.0
 70
   160
  1
<>
 42
2.249999999999992
  3
Default (ANSI)
100
AcDbAlignedDimension
 13
38.60371690537021
 23
21.82792222655268
 33
0.0
 14
40.85371690537019
 24
22.31227222655272
 34
0.0
100
AcDbRotatedDimension
1001
ACAD
1000
DSTYLE
1002
{
1070
   289
1070
     2
1070
    73
1070
     0
1070
    74
1070
     0
1070
   271
1070
     2
1070
   272
1070
     2
1070
    48
1040
0.0
1070
    47
1040
0.0
1002
}
  0
LINE
  5
D73
330
6C
100
AcDbEntity
  8
Centerline (ANSI)
  6
CHAIN
 48
0.9524481296539306
100
AcDbLine
 10
38.25996690537021
 20
19.96852222655272
 30
0.0
 11
49.07246690537021
 21
19.96852222655272
 31
0.0
  0
LINE
  5
D74
330
6C
100
AcDbEntity
  8
Centerline (ANSI)
  6
CHAIN
 48
0.9524481296539306
100
AcDbLine
 10
38.2599669053702
 20
14.96852222655272
 30
0.0
 11
49.07246690537023
 21
14.96852222655272
 31
0.0
  0
DIMENSION
  5
D75
330
6C
100
AcDbEntity
  8
Dimension (ANSI)
100
AcDbDimension
  2
*D15
 10
39.2912169053702
 20
12.71159621108187
 30
0.0
 11
34.8943195743727
 21
12.71159621108187
 31
0.0
 70
   160
  1
<>{\P(2 PL.)}
 71
     5
 42
0.6875000000000071
  3
Default (ANSI)
100
AcDbAlignedDimension
 13
38.60371690537019
 23
13.96852222655268
 33
0.0
 14
39.2912169053702
 24
13.93727222655272
 34
0.0
100
AcDbRotatedDimension
1001
ACAD
1000
DSTYLE
1002
{
1070
   289
1070
     1
1070
    73
1070
     0
1070
    74
1070
     0
1070
   271
1070
     2
1070
   272
1070
     2
1070
    48
1040
0.0
1070
    47
1040
0.0
1002
}
  0
DIMENSION
  5
E73
330
6C
100
AcDbEntity
  8
Dimension (ANSI)
100
AcDbDimension
  2
*D16
 10
47.86775604396457
 20
14.74713367205995
 30
0.0
 11
52.75482345681338
 21
17.66750759735282
 31
0.0
 70
   163
  1
<>{\P(6 PL.)}
 71
     5
 42
0.5625
  3
Default (ANSI)
100
AcDbDiametricDimension
 15
48.21467776677588
 25
15.18991078104551
 35
0.0
 40
0.0
1001
ACAD
1000
DSTYLE
1002
{
1070
   144
1040
1.00000000000005
1070
   271
1070
     3
1070
   272
1070
     2
1070
    48
1040
0.0
1070
    47
1040
0.0
1002
}
1001
ACAD_DSTYLE_DIMRADIAL_EXTENSION
1070
   387
1070
     1
1070
   388
1040
0.0
1070
   390
1040
0.0
  0
LINE
  5
F2D
330
6C
100
AcDbEntity
  8
Center Mark (ANSI)
  6
CHAIN
 48
0.1908618211746216
100
AcDbLine
 10
40.72871690537815
 20
56.91156021751779
 30
0.0
 11
40.72871690537815
 21
54.84906021751779
 31
0.0
  0
LINE
  5
F2E
330
6C
100
AcDbEntity
  8
Center Mark (ANSI)
  6
CHAIN
 48
0.1908618211746216
100
AcDbLine
 10
46.60371690537814
 20
56.91156021751779
 30
0.0
 11
46.60371690537814
 21
54.84906021751779
 31
0.0
  0
LINE
  5
F2F
330
6C
100
AcDbEntity
  8
Centerline (ANSI)
  6
CHAIN
 48
0.9524481296539306
100
AcDbLine
 10
39.69746690537815
 20
55.88031021751779
 30
0.0
 11
47.63496690537815
 21
55.88031021751779
 31
0.0
  0
LINE
  5
F30
330
6C
100
AcDbEntity
  8
Center Mark (ANSI)
  6
CHAIN
 48
0.1908618211746216
100
AcDbLine
 10
44.69746690537815
 20
52.88031021751783
 30
0.0
 11
42.63496690537814
 21
52.88031021751783
 31
0.0
  0
LINE
  5
F31
330
6C
100
AcDbEntity
  8
Center Mark (ANSI)
  6
CHAIN
 48
0.1908618211746216
100
AcDbLine
 10
43.66621690537814
 20
53.91156021751783
 30
0.0
 11
43.66621690537814
 21
51.84906021751783
 31
0.0
  0
DIMENSION
  5
F32
330
6C
100
AcDbEntity
  8
Dimension (ANSI)
100
AcDbDimension
  2
*D17
 10
40.72871690537815
 20
59.49251494193076
 30
0.0
 11
36.49952729968406
 21
59.49251494193076
 31
0.0
 70
   160
  1
<>
 42
2.124999999999971
  3
Default (ANSI)
100
AcDbAlignedDimension
 13
38.60371690537818
 23
57.13031021752131
 33
0.0
 14
40.72871690537815
 24
56.91156021751779
 34
0.0
 50
180.0
100
AcDbRotatedDimension
1001
ACAD
1000
DSTYLE
1002
{
1070
   289
1070
     2
1070
    73
1070
     0
1070
    74
1070
     0
1070
   271
1070
     2
1070
   272
1070
     2
1070
    48
1040
0.0
1070
    47
1040
0.0
1002
}
  0
DIMENSION
  5
101C
330
6C
100
AcDbEntity
  8
Dimension (ANSI)
100
AcDbDimension
  2
*D18
 10
43.66621690537814
 20
60.90983777657643
 30
0.0
 11
41.13496690537815
 21
60.90983777657643
 31
0.0
 70
   160
  1
<>
 42
5.062499999999964
  3
Default (ANSI)
100
AcDbAlignedDimension
 13
38.60371690537818
 23
57.13031021752131
 33
0.0
 14
43.66621690537814
 24
53.91156021751783
 34
0.0
 50
180.0
100
AcDbRotatedDimension
1001
ACAD
1000
DSTYLE
1002
{
1070
   289
1070
     1
1070
    73
1070
     0
1070
    74
1070
     0
1070
   271
1070
     2
1070
   272
1070
     2
1070
    48
1040
0.0
1070
    47
1040
0.0
1002
}
  0
DIMENSION
  5
1106
330
6C
100
AcDbEntity
  8
Dimension (ANSI)
100
AcDbDimension
  2
*D19
 10
46.60371690537814
 20
59.49251494193076
 30
0.0
 11
50.83290651107233
 21
59.49251494193076
 31
0.0
 70
   160
  1
<>
 42
2.125000000000071
  3
Default (ANSI)
100
AcDbAlignedDimension
 13
48.72871690537822
 23
57.13031021752131
 33
0.0
 14
46.60371690537814
 24
56.91156021751779
 34
0.0
 50
180.0
100
AcDbRotatedDimension
1001
ACAD
1000
DSTYLE
1002
{
1070
   289
1070
     2
1070
    73
1070
     0
1070
    74
1070
     0
1070
   271
1070
     2
1070
   272
1070
     2
1070
    48
1040
0.0
1070
    47
1040
0.0
1002
}
  0
DIMENSION
  5
11F0
330
6C
100
AcDbEntity
  8
Dimension (ANSI)
100
AcDbDimension
  2
*D20
 10
37.89246831106189
 20
55.88031021751779
 30
0.0
 11
36.24151218096873
 21
54.26204712952158
 31
0.0
 70
   160
  1
<>
 42
1.250000000003524
  3
Default (ANSI)
100
AcDbAlignedDimension
 13
38.60371690537818
 23
57.13031021752131
 33
0.0
 14
39.69746690537815
 24
55.88031021751779
 34
0.0
 50
90.0
100
AcDbRotatedDimension
1001
ACAD
1000
DSTYLE
1002
{
1070
   289
1070
     1
1070
   271
1070
     2
1070
   272
1070
     2
1070
    48
1040
0.0
1070
    47
1040
0.0
1002
}
  0
DIMENSION
  5
12ED
330
6C
100
AcDbEntity
  8
Dimension (ANSI)
100
AcDbDimension
  2
*D21
 10
33.40686651167741
 20
52.88031021751783
 30
0.0
 11
33.40686651167739
 21
55.00531021751957
 31
0.0
 70
   160
  1
<>
 42
4.250000000003481
  3
Default (ANSI)
100
AcDbAlignedDimension
 13
38.60371690537818
 23
57.13031021752131
 33
0.0
 14
42.63496690537814
 24
52.88031021751783
 34
0.0
 50
90.0
100
AcDbRotatedDimension
1001
ACAD
1000
DSTYLE
1002
{
1070
   289
1070
     1
1070
   271
1070
     2
1070
   272
1070
     2
1070
    48
1040
0.0
1070
    47
1040
0.0
1002
}
  0
DIMENSION
  5
13DD
330
6C
100
AcDbEntity
  8
Dimension (ANSI)
100
AcDbDimension
  2
*D22
 10
43.48266751164181
 20
53.09340921460374
 30
0.0
 11
51.26716410663876
 21
47.07300215710259
 31
0.0
 70
   163
  1
<>{\P(3 PL.)}
 71
     5
 42
0.5625
  3
Default (ANSI)
100
AcDbDiametricDimension
 15
43.84976629911449
 25
52.6672112204319
 35
0.0
 40
0.0
1001
ACAD
1000
DSTYLE
1002
{
1070
   144
1040
0.9999999999999683
1070
   271
1070
     3
1070
   272
1070
     3
1070
    48
1040
0.0
1070
    47
1040
0.0
1002
}
1001
ACAD_DSTYLE_DIMRADIAL_EXTENSION
1070
   387
1070
     1
1070
   388
1040
0.0
1070
   390
1040
0.0
  0
DIMENSION
  5
1496
330
6C
100
AcDbEntity
  8
Dimension (ANSI)
100
AcDbDimension
  2
*D23
 10
18.24895596985338
 20
28.42115951715689
 30
0.0
 11
14.37395596985335
 21
28.42115951715689
 31
0.0
 70
   160
  1
<>
 42
7.750000000000065
  3
Default (ANSI)
100
AcDbAlignedDimension
 13
10.49895596985332
 23
30.1428892393965
 33
0.0
 14
18.24895596985338
 24
30.00241538059471
 34
0.0
100
AcDbRotatedDimension
1001
ACAD
1000
DSTYLE
1002
{
1070
   289
1070
     1
1070
    73
1070
     0
1070
    74
1070
     0
1070
   271
1070
     2
1070
   272
1070
     2
1070
    48
1040
0.0
1070
    47
1040
0.0
1002
}
  0
MTEXT
  5
1580
102
{ACAD_XDICTIONARY
360
158C
102
}
330
6C
100
AcDbEntity
  8
Symbol (ANSI)
100
AcDbMText
 10
56.77331801185878
 20
5.191480436688503
 30
0.0
 40
0.6000000191485788
 41
44.30032264529251
 71
     4
 72
     1
  3
{\fRomanS|b0|i0|c0|p2;\H2x;PART#: SSFK1210\P(DATA SUBJECT TO CHANGE WITHOUT NOTICE)\H1.6157x; \H0.61894x;\P \H1.352x; \H0.73963x;\P\H0.6x;THIS DRAWING IS PROPERTY OF HUBBELL INC. WIEGMANN\H1.5633x; \H0.63966x;\PALL INFORMATION IS PROPRIETARY AND NOT 
  1
TO BE DUPLICATED\H1.234x; \H0.81039x;\P\H1.2571x; }
  7
Note Text (ANSI)
 73
     1
 44
0.8026435375213623
  0
ENDSEC
  0
SECTION
  2
OBJECTS
  0
DICTIONARY
  5
C
330
0
100
AcDbDictionary
281
     1
  3
ACAD_CIP_PREVIOUS_PRODUCT_INFO
350
1582
  3
ACAD_COLOR
350
63
  3
ACAD_GROUP
350
D
  3
ACAD_LAYOUT
350
62
  3
ACAD_MATERIAL
350
10
  3
ACAD_MLEADERSTYLE
350
66
  3
ACAD_MLINESTYLE
350
5F
  3
ACAD_PLOTSETTINGS
350
61
  3
ACAD_PLOTSTYLENAME
350
E
  3
ACAD_SCALELIST
350
42
  3
ACAD_TABLESTYLE
350
64
  3
ACAD_VISUALSTYLE
350
29
  3
ACDB_RECOMPOSE_DATA
350
158E
  3
AcDbVariableDictionary
350
76
  0
DICTIONARY
  5
15C4
330
F27
100
AcDbDictionary
280
     1
281
     1
  3
ACAD_MTEXT_2008_RT
360
15C5
  0
DICTIONARY
  5
15C6
330
1490
100
AcDbDictionary
280
     1
281
     1
  3
ACAD_MTEXT_2008_RT
360
15C7
  0
DICTIONARY
  5
158C
330
1580
100
AcDbDictionary
280
     1
281
     1
  3
ACAD_MTEXT_2008_RT
360
158D
  0
XRECORD
  5
1582
102
{ACAD_REACTORS
330
C
102
}
330
C
100
AcDbXrecord
280
     1
300
INVNTOR
300
2012
300
PDSP_F_S
  0
DICTIONARY
  5
63
102
{ACAD_REACTORS
330
C
102
}
330
C
100
AcDbDictionary
281
     1
  0
DICTIONARY
  5
D
102
{ACAD_REACTORS
330
C
102
}
330
C
100
AcDbDictionary
281
     1
  0
DICTIONARY
  5
62
102
{ACAD_REACTORS
330
C
102
}
330
C
100
AcDbDictionary
281
     1
  3
Layout1
350
6B
  3
Layout2
350
73
  3
Model
350
6F
  0
DICTIONARY
  5
10
102
{ACAD_REACTORS
330
C
102
}
330
C
100
AcDbDictionary
281
     1
  3
ByBlock
350
19
  3
ByLayer
350
11
  3
Global
350
21
  0
DICTIONARY
  5
66
102
{ACAD_REACTORS
330
C
102
}
330
C
100
AcDbDictionary
281
     1
  3
Standard
350
67
  0
DICTIONARY
  5
5F
102
{ACAD_REACTORS
330
C
102
}
330
C
100
AcDbDictionary
281
     1
  3
Standard
350
60
  0
DICTIONARY
  5
61
102
{ACAD_REACTORS
330
C
102
}
330
C
100
AcDbDictionary
281
     1
  0
ACDBDICTIONARYWDFLT
  5
E
102
{ACAD_REACTORS
330
C
102
}
330
C
100
AcDbDictionary
281
     1
  3
Normal
350
F
100
AcDbDictionaryWithDefault
340
F
  0
DICTIONARY
  5
42
102
{ACAD_REACTORS
330
C
102
}
330
C
100
AcDbDictionary
281
     1
  3
A0
350
43
  3
A1
350
44
  3
A2
350
45
  3
A3
350
46
  3
A4
350
47
  3
A5
350
48
  3
A6
350
49
  3
A7
350
4A
  3
A8
350
4B
  3
A9
350
4C
  3
B0
350
4D
  3
B1
350
4E
  3
B2
350
4F
  3
B3
350
50
  3
B4
350
51
  3
B5
350
52
  3
B6
350
53
  0
DICTIONARY
  5
64
102
{ACAD_REACTORS
330
C
102
}
330
C
100
AcDbDictionary
281
     1
  3
Standard
350
65
  0
DICTIONARY
  5
29
102
{ACAD_REACTORS
330
C
102
}
330
C
100
AcDbDictionary
281
     1
  3
2dWireframe
350
2F
  3
Basic
350
2E
  3
Brighten
350
35
  3
ColorChange
350
39
  3
Conceptual
350
32
  3
Dim
350
34
  3
EdgeColorOff
350
41
  3
Facepattern
350
38
  3
Flat
350
2A
  3
FlatWithEdges
350
2B
  3
Gouraud
350
2C
  3
GouraudWithEdges
350
2D
  3
Hidden
350
31
  3
JitterOff
350
3F
  3
Linepattern
350
37
  3
OverhangOff
350
40
  3
Realistic
350
33
  3
Shaded
350
3E
  3
Shaded with edges
350
3D
  3
Shades of Gray
350
3A
  3
Sketchy
350
3B
  3
Thicken
350
36
  3
Wireframe
350
30
  3
X-Ray
350
3C
  0
XRECORD
  5
158E
102
{ACAD_REACTORS
330
C
102
}
330
C
100
AcDbXrecord
280
     1
 90
        1
330
65
330
8B5
330
B9F
330
C89
330
F32
330
1106
330
1580
  0
DICTIONARY
  5
76
102
{ACAD_REACTORS
330
C
102
}
330
C
100
AcDbDictionary
281
     1
  3
CANNOSCALE
350
79
  3
CMLEADERSTYLE
350
78
  3
CTABLESTYLE
350
77
  3
LAYEREVAL
350
1585
  3
LAYERNOTIFY
350
1586
  3
LIGHTINGUNITS
350
1584
  3
MSLTSCALE
350
1583
  3
XCLIPFRAME
350
1587
  0
XRECORD
  5
15C5
102
{ACAD_REACTORS
330
15C4
102
}
330
15C4
100
AcDbXrecord
280
     1
 40
24491.0
  1
\A1;\U+22050.563{\P(6 PL.)}
  0
XRECORD
  5
15C7
102
{ACAD_REACTORS
330
15C6
102
}
330
15C6
100
AcDbXrecord
280
     1
 40
24428.0
  1
\A1;\U+22050.563{\P(3 PL.)}
  0
XRECORD
  5
158D
102
{ACAD_REACTORS
330
158C
102
}
330
158C
100
AcDbXrecord
280
     1
 40
3068686.0
  1
\pxsm0.94;{\fRomanS|b0|i0;\H1.2000;PART#: SSFK1210\P(DATA SUBJECT TO CHANGE WITHOUT NOTICE)\P \P\fRomanS|b0|i0;\H0.7200;THIS DRAWING IS PROPERTY OF HUBBELL INC. WIEGMANN\PALL INFORMATION IS PROPRIETARY AND NOT TO BE DUPLICATED\P}
  0
LAYOUT
  5
6B
102
{ACAD_REACTORS
330
62
102
}
330
62
100
AcDbPlotSettings
  1

  2

  4

  6

 40
0.0
 41
0.0
 42
0.0
 43
0.0
 44
0.0
 45
0.0
 46
0.0
 47
0.0
 48
0.0
 49
0.0
140
0.0
141
0.0
142
1.0
143
1.0
 70
   688
 72
     0
 73
     0
 74
     5
  7

 75
    16
147
1.0
 76
     0
 77
     2
 78
   300
148
0.0
149
0.0
100
AcDbLayout
  1
Layout1
 70
     1
 71
     1
 10
0.0
 20
0.0
 11
12.0
 21
9.0
 12
0.0
 22
0.0
 32
0.0
 14
0.0
 24
0.0
 34
0.0
 15
0.0
 25
0.0
 35
0.0
146
0.0
 13
0.0
 23
0.0
 33
0.0
 16
1.0
 26
0.0
 36
0.0
 17
0.0
 27
1.0
 37
0.0
 76
     0
330
68
  0
LAYOUT
  5
73
102
{ACAD_REACTORS
330
62
102
}
330
62
100
AcDbPlotSettings
  1

  2

  4

  6

 40
0.0
 41
0.0
 42
0.0
 43
0.0
 44
0.0
 45
0.0
 46
0.0
 47
0.0
 48
0.0
 49
0.0
140
0.0
141
0.0
142
1.0
143
1.0
 70
   688
 72
     0
 73
     0
 74
     5
  7

 75
    16
147
1.0
 76
     0
 77
     2
 78
   300
148
0.0
149
0.0
100
AcDbLayout
  1
Layout2
 70
     1
 71
     2
 10
0.0
 20
0.0
 11
12.0
 21
9.0
 12
0.0
 22
0.0
 32
0.0
 14
0.0
 24
0.0
 34
0.0
 15
0.0
 25
0.0
 35
0.0
146
0.0
 13
0.0
 23
0.0
 33
0.0
 16
1.0
 26
0.0
 36
0.0
 17
0.0
 27
1.0
 37
0.0
 76
     0
330
70
  0
LAYOUT
  5
6F
102
{ACAD_REACTORS
330
62
102
}
330
62
100
AcDbPlotSettings
  1

  2

  4

  6

 40
0.0
 41
0.0
 42
0.0
 43
0.0
 44
0.0
 45
0.0
 46
0.0
 47
0.0
 48
0.0
 49
0.0
140
0.0
141
0.0
142
1.0
143
1.0
 70
  1712
 72
     0
 73
     0
 74
     0
  7

 75
     0
147
1.0
 76
     0
 77
     2
 78
   300
148
0.0
149
0.0
100
AcDbLayout
  1
Model
 70
     1
 71
     0
 10
0.0
 20
0.0
 11
12.0
 21
9.0
 12
0.0
 22
0.0
 32
0.0
 14
0.0
 24
0.0
 34
0.0
 15
0.0
 25
0.0
 35
0.0
146
0.0
 13
0.0
 23
0.0
 33
0.0
 16
1.0
 26
0.0
 36
0.0
 17
0.0
 27
1.0
 37
0.0
 76
     0
330
6C
  0
MATERIAL
  5
19
102
{ACAD_XDICTIONARY
360
1A
102
}
102
{ACAD_REACTORS
330
10
102
}
330
10
100
AcDbMaterial
  1
ByBlock
 72
     0
 43
0.0208333333333333
 43
0.0
 43
0.0
 43
0.0
 43
0.0
 43
0.0208333333333333
 43
0.0
 43
0.0
 43
0.0
 43
0.0
 43
1.0
 43
0.0
 43
0.0
 43
0.0
 43
0.0
 43
1.0
 77
     0
 47
0.0208333333333333
 47
0.0
 47
0.0
 47
0.0
 47
0.0
 47
0.0208333333333333
 47
0.0
 47
0.0
 47
0.0
 47
0.0
 47
1.0
 47
0.0
 47
0.0
 47
0.0
 47
0.0
 47
1.0
171
     0
 49
0.0208333333333333
 49
0.0
 49
0.0
 49
0.0
 49
0.0
 49
0.0208333333333333
 49
0.0
 49
0.0
 49
0.0
 49
0.0
 49
1.0
 49
0.0
 49
0.0
 49
0.0
 49
0.0
 49
1.0
175
     0
142
0.0208333333333333
142
0.0
142
0.0
142
0.0
142
0.0
142
0.0208333333333333
142
0.0
142
0.0
142
0.0
142
0.0
142
1.0
142
0.0
142
0.0
142
0.0
142
0.0
142
1.0
179
     0
144
0.0208333333333333
144
0.0
144
0.0
144
0.0
144
0.0
144
0.0208333333333333
144
0.0
144
0.0
144
0.0
144
0.0
144
1.0
144
0.0
144
0.0
144
0.0
144
0.0
144
1.0
147
0.0208333333333333
147
0.0
147
0.0
147
0.0
147
0.0
147
0.0208333333333333
147
0.0
147
0.0
147
0.0
147
0.0
147
1.0
147
0.0
147
0.0
147
0.0
147
0.0
147
1.0
  0
MATERIAL
  5
11
102
{ACAD_XDICTIONARY
360
12
102
}
102
{ACAD_REACTORS
330
10
102
}
330
10
100
AcDbMaterial
  1
ByLayer
 72
     0
 43
0.0208333333333333
 43
0.0
 43
0.0
 43
0.0
 43
0.0
 43
0.0208333333333333
 43
0.0
 43
0.0
 43
0.0
 43
0.0
 43
1.0
 43
0.0
 43
0.0
 43
0.0
 43
0.0
 43
1.0
 77
     0
 47
0.0208333333333333
 47
0.0
 47
0.0
 47
0.0
 47
0.0
 47
0.0208333333333333
 47
0.0
 47
0.0
 47
0.0
 47
0.0
 47
1.0
 47
0.0
 47
0.0
 47
0.0
 47
0.0
 47
1.0
171
     0
 49
0.0208333333333333
 49
0.0
 49
0.0
 49
0.0
 49
0.0
 49
0.0208333333333333
 49
0.0
 49
0.0
 49
0.0
 49
0.0
 49
1.0
 49
0.0
 49
0.0
 49
0.0
 49
0.0
 49
1.0
175
     0
142
0.0208333333333333
142
0.0
142
0.0
142
0.0
142
0.0
142
0.0208333333333333
142
0.0
142
0.0
142
0.0
142
0.0
142
1.0
142
0.0
142
0.0
142
0.0
142
0.0
142
1.0
179
     0
144
0.0208333333333333
144
0.0
144
0.0
144
0.0
144
0.0
144
0.0208333333333333
144
0.0
144
0.0
144
0.0
144
0.0
144
1.0
144
0.0
144
0.0
144
0.0
144
0.0
144
1.0
147
0.0208333333333333
147
0.0
147
0.0
147
0.0
147
0.0
147
0.0208333333333333
147
0.0
147
0.0
147
0.0
147
0.0
147
1.0
147
0.0
147
0.0
147
0.0
147
0.0
147
1.0
  0
MATERIAL
  5
21
102
{ACAD_XDICTIONARY
360
22
102
}
102
{ACAD_REACTORS
330
10
102
}
330
10
100
AcDbMaterial
  1
Global
 72
     0
 43
0.0208333333333333
 43
0.0
 43
0.0
 43
0.0
 43
0.0
 43
0.0208333333333333
 43
0.0
 43
0.0
 43
0.0
 43
0.0
 43
1.0
 43
0.0
 43
0.0
 43
0.0
 43
0.0
 43
1.0
 77
     0
 47
0.0208333333333333
 47
0.0
 47
0.0
 47
0.0
 47
0.0
 47
0.0208333333333333
 47
0.0
 47
0.0
 47
0.0
 47
0.0
 47
1.0
 47
0.0
 47
0.0
 47
0.0
 47
0.0
 47
1.0
171
     0
 49
0.0208333333333333
 49
0.0
 49
0.0
 49
0.0
 49
0.0
 49
0.0208333333333333
 49
0.0
 49
0.0
 49
0.0
 49
0.0
 49
1.0
 49
0.0
 49
0.0
 49
0.0
 49
0.0
 49
1.0
175
     0
142
0.0208333333333333
142
0.0
142
0.0
142
0.0
142
0.0
142
0.0208333333333333
142
0.0
142
0.0
142
0.0
142
0.0
142
1.0
142
0.0
142
0.0
142
0.0
142
0.0
142
1.0
179
     0
144
0.0208333333333333
144
0.0
144
0.0
144
0.0
144
0.0
144
0.0208333333333333
144
0.0
144
0.0
144
0.0
144
0.0
144
1.0
144
0.0
144
0.0
144
0.0
144
0.0
144
1.0
147
0.0208333333333333
147
0.0
147
0.0
147
0.0
147
0.0
147
0.0208333333333333
147
0.0
147
0.0
147
0.0
147
0.0
147
1.0
147
0.0
147
0.0
147
0.0
147
0.0
147
1.0
  0
MLEADERSTYLE
  5
67
102
{ACAD_XDICTIONARY
360
158A
102
}
102
{ACAD_REACTORS
330
66
102
}
330
66
100
AcDbMLeaderStyle
170
     2
171
     1
172
     0
 90
        2
 40
0.0
 41
0.0
173
     1
 91
-1056964608
340
5B
 92
       -2
290
     1
 42
0.09
291
     1
 43
0.36
  3
Standard
 44
0.18
300

342
55
174
     1
178
     6
175
     1
176
     0
 93
-1056964608
 45
0.18
292
     0
297
     0
 46
0.18
 94
-1056964608
 47
1.0
 49
1.0
140
1.0
293
     1
141
0.0
294
     1
177
     0
142
1.0
295
     0
296
     0
143
0.125
1001
ACAD_MLEADERVER
1070
     2
  0
MLINESTYLE
  5
60
102
{ACAD_REACTORS
330
5F
102
}
330
5F
100
AcDbMlineStyle
  2
STANDARD
 70
     0
  3

 62
   256
 51
90.0
 52
90.0
 71
     2
 49
0.5
 62
   256
  6
BYLAYER
 49
-0.5
 62
   256
  6
BYLAYER
  0
ACDBPLACEHOLDER
  5
F
102
{ACAD_REACTORS
330
E
102
}
330
E
  0
SCALE
  5
43
102
{ACAD_REACTORS
330
42
102
}
330
42
100
AcDbScale
 70
     0
300
1:1
140
1.0
141
1.0
290
     1
  0
SCALE
  5
44
102
{ACAD_REACTORS
330
42
102
}
330
42
100
AcDbScale
 70
     0
300
1/128" = 1'-0"
140
0.0078125
141
12.0
290
     0
  0
SCALE
  5
45
102
{ACAD_REACTORS
330
42
102
}
330
42
100
AcDbScale
 70
     0
300
1/64" = 1'-0"
140
0.015625
141
12.0
290
     0
  0
SCALE
  5
46
102
{ACAD_REACTORS
330
42
102
}
330
42
100
AcDbScale
 70
     0
300
1/32" = 1'-0"
140
0.03125
141
12.0
290
     0
  0
SCALE
  5
47
102
{ACAD_REACTORS
330
42
102
}
330
42
100
AcDbScale
 70
     0
300
1/16" = 1'-0"
140
0.0625
141
12.0
290
     0
  0
SCALE
  5
48
102
{ACAD_REACTORS
330
42
102
}
330
42
100
AcDbScale
 70
     0
300
3/32" = 1'-0"
140
0.09375
141
12.0
290
     0
  0
SCALE
  5
49
102
{ACAD_REACTORS
330
42
102
}
330
42
100
AcDbScale
 70
     0
300
1/8" = 1'-0"
140
0.125
141
12.0
290
     0
  0
SCALE
  5
4A
102
{ACAD_REACTORS
330
42
102
}
330
42
100
AcDbScale
 70
     0
300
3/16" = 1'-0"
140
0.1875
141
12.0
290
     0
  0
SCALE
  5
4B
102
{ACAD_REACTORS
330
42
102
}
330
42
100
AcDbScale
 70
     0
300
1/4" = 1'-0"
140
0.25
141
12.0
290
     0
  0
SCALE
  5
4C
102
{ACAD_REACTORS
330
42
102
}
330
42
100
AcDbScale
 70
     0
300
3/8" = 1'-0"
140
0.375
141
12.0
290
     0
  0
SCALE
  5
4D
102
{ACAD_REACTORS
330
42
102
}
330
42
100
AcDbScale
 70
     0
300
1/2" = 1'-0"
140
0.5
141
12.0
290
     0
  0
SCALE
  5
4E
102
{ACAD_REACTORS
330
42
102
}
330
42
100
AcDbScale
 70
     0
300
3/4" = 1'-0"
140
0.75
141
12.0
290
     0
  0
SCALE
  5
4F
102
{ACAD_REACTORS
330
42
102
}
330
42
100
AcDbScale
 70
     0
300
1" = 1'-0"
140
1.0
141
12.0
290
     0
  0
SCALE
  5
50
102
{ACAD_REACTORS
330
42
102
}
330
42
100
AcDbScale
 70
     0
300
1-1/2" = 1'-0"
140
1.5
141
12.0
290
     0
  0
SCALE
  5
51
102
{ACAD_REACTORS
330
42
102
}
330
42
100
AcDbScale
 70
     0
300
3" = 1'-0"
140
3.0
141
12.0
290
     0
  0
SCALE
  5
52
102
{ACAD_REACTORS
330
42
102
}
330
42
100
AcDbScale
 70
     0
300
6" = 1'-0"
140
6.0
141
12.0
290
     0
  0
SCALE
  5
53
102
{ACAD_REACTORS
330
42
102
}
330
42
100
AcDbScale
 70
     0
300
1'-0" = 1'-0"
140
12.0
141
12.0
290
     0
  0
TABLESTYLE
  5
65
102
{ACAD_XDICTIONARY
360
1588
102
}
102
{ACAD_REACTORS
330
64
102
}
330
64
100
AcDbTableStyle
  3
Standard
 70
     0
 71
     0
 40
0.06
 41
0.06
280
     0
281
     0
  7
Standard
140
0.18
170
     2
 62
     0
 63
     7
283
     0
274
    -2
284
     1
 64
     0
275
    -2
285
     1
 65
     0
276
    -2
286
     1
 66
     0
277
    -2
287
     1
 67
     0
278
    -2
288
     1
 68
     0
279
    -2
289
     1
 69
     0
  7
Standard
140
0.25
170
     5
 62
     0
 63
     7
283
     0
274
    -2
284
     1
 64
     0
275
    -2
285
     1
 65
     0
276
    -2
286
     1
 66
     0
277
    -2
287
     1
 67
     0
278
    -2
288
     1
 68
     0
279
    -2
289
     1
 69
     0
  7
Standard
140
0.18
170
     5
 62
     0
 63
     7
283
     0
274
    -2
284
     1
 64
     0
275
    -2
285
     1
 65
     0
276
    -2
286
     1
 66
     0
277
    -2
287
     1
 67
     0
278
    -2
288
     1
 68
     0
279
    -2
289
     1
 69
     0
  0
VISUALSTYLE
  5
2F
102
{ACAD_XDICTIONARY
360
159C
102
}
102
{ACAD_REACTORS
330
29
102
}
330
29
100
AcDbVisualStyle
  2
2dWireframe
 70
     4
 71
     0
 72
     2
 73
     0
 90
        0
 40
-0.6
 41
-30.0
 62
     5
 63
     7
421
 16777215
 74
     1
 91
        4
 64
     7
 65
   257
 75
     1
175
     1
 42
1.0
 92
        0
 66
   257
 43
1.0
 76
     1
 77
     6
 78
     2
 67
     7
 79
     5
170
     0
171
     0
290
     0
174
     0
 93
        1
 44
0.0
173
     0
291
     0
 45
0.0
1001
ACAD
1000
AcDbSavedByObjectVersion
1070
     0
  0
VISUALSTYLE
  5
2E
102
{ACAD_XDICTIONARY
360
159A
102
}
102
{ACAD_REACTORS
330
29
102
}
330
29
100
AcDbVisualStyle
  2
Basic
 70
     7
 71
     1
 72
     0
 73
     1
 90
        0
 40
-0.6
 41
-30.0
 62
     5
 63
     7
421
 16777215
 74
     0
 91
        4
 64
     7
 65
   257
 75
     1
175
     1
 42
1.0
 92
        8
 66
     7
 43
1.0
 76
     1
 77
     6
 78
     2
 67
     7
 79
     5
170
     0
171
     0
290
     0
174
     0
 93
        1
 44
0.0
173
     0
291
     1
 45
0.0
1001
ACAD
1000
AcDbSavedByObjectVersion
1070
     0
  0
VISUALSTYLE
  5
35
102
{ACAD_XDICTIONARY
360
15A8
102
}
102
{ACAD_REACTORS
330
29
102
}
330
29
100
AcDbVisualStyle
  2
Brighten
 70
    12
 71
     2
 72
     2
 73
     0
 90
        0
 40
-0.6
 41
-30.0
 62
     5
 63
     7
421
 16777215
 74
     1
 91
        4
 64
     7
 65
   257
 75
     1
175
     1
 42
1.0
 92
        8
 66
     7
 43
1.0
 76
     1
 77
     6
 78
     2
 67
     7
 79
     5
170
     0
171
     0
290
     0
174
     0
 93
        1
 44
50.0
173
     0
291
     1
 45
0.0
1001
ACAD
1000
AcDbSavedByObjectVersion
1070
     0
  0
VISUALSTYLE
  5
39
102
{ACAD_XDICTIONARY
360
15B0
102
}
102
{ACAD_REACTORS
330
29
102
}
330
29
100
AcDbVisualStyle
  2
ColorChange
 70
    16
 71
     2
 72
     2
 73
     3
 90
        0
 40
-0.6
 41
-30.0
 62
     5
 63
     8
421
  8421504
 74
     1
 91
        4
 64
     7
 65
   257
 75
     1
175
     1
 42
1.0
 92
        8
 66
     8
424
  8421504
 43
1.0
 76
     1
 77
     6
 78
     2
 67
     7
 79
     5
170
     0
171
     0
290
     0
174
     0
 93
        1
 44
0.0
173
     0
291
     1
 45
0.0
1001
ACAD
1000
AcDbSavedByObjectVersion
1070
     0
  0
VISUALSTYLE
  5
32
102
{ACAD_XDICTIONARY
360
15A2
102
}
102
{ACAD_REACTORS
330
29
102
}
330
29
100
AcDbVisualStyle
  2
Conceptual
 70
     9
 71
     3
 72
     2
 73
     0
 90
        0
 40
-0.6
 41
-30.0
 62
     5
 63
     7
421
 16777215
 74
     2
 91
        2
 64
     7
 65
   257
 75
     1
175
     1
 42
179.0
 92
        8
 66
     7
 43
1.0
 76
     1
 77
     6
 78
     2
 67
     7
 79
     3
170
     0
171
     0
290
     0
174
     0
 93
        1
 44
0.0
173
     0
291
     0
 45
0.0
1001
ACAD
1000
AcDbSavedByObjectVersion
1070
     0
  0
VISUALSTYLE
  5
34
102
{ACAD_XDICTIONARY
360
15A6
102
}
102
{ACAD_REACTORS
330
29
102
}
330
29
100
AcDbVisualStyle
  2
Dim
 70
    11
 71
     2
 72
     2
 73
     0
 90
        0
 40
-0.6
 41
-30.0
 62
     5
 63
     7
421
 16777215
 74
     1
 91
        4
 64
     7
 65
   257
 75
     1
175
     1
 42
1.0
 92
        8
 66
     7
 43
1.0
 76
     1
 77
     6
 78
     2
 67
     7
 79
     5
170
     0
171
     0
290
     0
174
     0
 93
        1
 44
-50.0
173
     0
291
     1
 45
0.0
1001
ACAD
1000
AcDbSavedByObjectVersion
1070
     0
  0
VISUALSTYLE
  5
41
102
{ACAD_XDICTIONARY
360
15C0
102
}
102
{ACAD_REACTORS
330
29
102
}
330
29
100
AcDbVisualStyle
  2
EdgeColorOff
 70
    22
 71
     2
 72
     2
 73
     0
 90
        0
 40
-0.6
 41
-30.0
 62
     5
 63
     7
421
 16777215
 74
     1
 91
        4
 64
     7
 65
   257
 75
     1
175
     1
 42
1.0
 92
        8
 66
     7
 43
1.0
 76
     1
 77
     6
 78
     2
 67
     7
 79
     5
170
     0
171
     0
290
     0
174
     0
 93
        1
 44
0.0
173
     0
291
     1
 45
0.0
1001
ACAD
1000
AcDbSavedByObjectVersion
1070
     0
  0
VISUALSTYLE
  5
38
102
{ACAD_XDICTIONARY
360
15AE
102
}
102
{ACAD_REACTORS
330
29
102
}
330
29
100
AcDbVisualStyle
  2
Facepattern
 70
    15
 71
     2
 72
     2
 73
     0
 90
        0
 40
-0.6
 41
-30.0
 62
     5
 63
     7
421
 16777215
 74
     1
 91
        4
 64
     7
 65
   257
 75
     1
175
     1
 42
1.0
 92
        8
 66
     7
 43
1.0
 76
     1
 77
     6
 78
     2
 67
     7
 79
     5
170
     0
171
     0
290
     0
174
     0
 93
        1
 44
0.0
173
     0
291
     1
 45
0.0
1001
ACAD
1000
AcDbSavedByObjectVersion
1070
     0
  0
VISUALSTYLE
  5
2A
102
{ACAD_XDICTIONARY
360
1592
102
}
102
{ACAD_REACTORS
330
29
102
}
330
29
100
AcDbVisualStyle
  2
Flat
 70
     0
 71
     2
 72
     1
 73
     1
 90
        2
 40
-0.6
 41
30.0
 62
     5
 63
     7
421
 16777215
 74
     0
 91
        0
 64
     7
 65
   257
 75
     1
175
     1
 42
1.0
 92
        8
 66
     7
 43
1.0
 76
     1
 77
     6
 78
     2
 67
     7
 79
     5
170
     0
171
     0
290
     0
174
     0
 93
       13
 44
0.0
173
     0
291
     1
 45
0.0
1001
ACAD
1000
AcDbSavedByObjectVersion
1070
     0
  0
VISUALSTYLE
  5
2B
102
{ACAD_XDICTIONARY
360
1594
102
}
102
{ACAD_REACTORS
330
29
102
}
330
29
100
AcDbVisualStyle
  2
FlatWithEdges
 70
     1
 71
     2
 72
     1
 73
     1
 90
        2
 40
-0.6
 41
30.0
 62
     5
 63
     7
421
 16777215
 74
     1
 91
        0
 64
     7
 65
   257
 75
     1
175
     1
 42
1.0
 92
        0
 66
   257
 43
1.0
 76
     1
 77
     6
 78
     2
 67
     7
 79
     5
170
     0
171
     0
290
     0
174
     0
 93
       13
 44
0.0
173
     0
291
     1
 45
0.0
1001
ACAD
1000
AcDbSavedByObjectVersion
1070
     0
  0
VISUALSTYLE
  5
2C
102
{ACAD_XDICTIONARY
360
1596
102
}
102
{ACAD_REACTORS
330
29
102
}
330
29
100
AcDbVisualStyle
  2
Gouraud
 70
     2
 71
     2
 72
     2
 73
     1
 90
        2
 40
-0.6
 41
30.0
 62
     5
 63
     7
421
 16777215
 74
     0
 91
        0
 64
     7
 65
   257
 75
     1
175
     1
 42
1.0
 92
        0
 66
     7
 43
1.0
 76
     1
 77
     6
 78
     2
 67
     7
 79
     5
170
     0
171
     0
290
     0
174
     0
 93
       13
 44
0.0
173
     0
291
     1
 45
0.0
1001
ACAD
1000
AcDbSavedByObjectVersion
1070
     0
  0
VISUALSTYLE
  5
2D
102
{ACAD_XDICTIONARY
360
1598
102
}
102
{ACAD_REACTORS
330
29
102
}
330
29
100
AcDbVisualStyle
  2
GouraudWithEdges
 70
     3
 71
     2
 72
     2
 73
     1
 90
        2
 40
-0.6
 41
30.0
 62
     5
 63
     7
421
 16777215
 74
     1
 91
        0
 64
     7
 65
   257
 75
     1
175
     1
 42
1.0
 92
        0
 66
   257
 43
1.0
 76
     1
 77
     6
 78
     2
 67
     7
 79
     5
170
     0
171
     0
290
     0
174
     0
 93
       13
 44
0.0
173
     0
291
     1
 45
0.0
1001
ACAD
1000
AcDbSavedByObjectVersion
1070
     0
  0
VISUALSTYLE
  5
31
102
{ACAD_XDICTIONARY
360
15A0
102
}
102
{ACAD_REACTORS
330
29
102
}
330
29
100
AcDbVisualStyle
  2
Hidden
 70
     6
 71
     1
 72
     2
 73
     2
 90
        0
 40
-0.6
 41
-30.0
 62
     5
 63
     7
421
 16777215
 74
     2
 91
        2
 64
     7
 65
   257
 75
     2
175
     1
 42
40.0
 92
        0
 66
   257
 43
1.0
 76
     1
 77
     6
 78
     2
 67
     7
 79
     3
170
     0
171
     0
290
     0
174
     0
 93
        1
 44
0.0
173
     0
291
     0
 45
0.0
1001
ACAD
1000
AcDbSavedByObjectVersion
1070
     0
  0
VISUALSTYLE
  5
3F
102
{ACAD_XDICTIONARY
360
15BC
102
}
102
{ACAD_REACTORS
330
29
102
}
330
29
100
AcDbVisualStyle
  2
JitterOff
 70
    20
 71
     2
 72
     2
 73
     0
 90
        0
 40
-0.6
 41
-30.0
 62
     5
 63
     7
421
 16777215
 74
     1
 91
        4
 64
     7
 65
   257
 75
     1
175
     1
 42
1.0
 92
       10
 66
     7
 43
1.0
 76
     1
 77
     6
 78
     2
 67
     7
 79
     5
170
     0
171
     0
290
     0
174
     0
 93
        1
 44
0.0
173
     0
291
     1
 45
0.0
1001
ACAD
1000
AcDbSavedByObjectVersion
1070
     0
  0
VISUALSTYLE
  5
37
102
{ACAD_XDICTIONARY
360
15AC
102
}
102
{ACAD_REACTORS
330
29
102
}
330
29
100
AcDbVisualStyle
  2
Linepattern
 70
    14
 71
     2
 72
     2
 73
     0
 90
        0
 40
-0.6
 41
-30.0
 62
     5
 63
     7
421
 16777215
 74
     1
 91
        4
 64
     7
 65
   257
 75
     7
175
     7
 42
1.0
 92
        8
 66
     7
 43
1.0
 76
     1
 77
     6
 78
     2
 67
     7
 79
     5
170
     0
171
     0
290
     0
174
     0
 93
        1
 44
0.0
173
     0
291
     1
 45
0.0
1001
ACAD
1000
AcDbSavedByObjectVersion
1070
     0
  0
VISUALSTYLE
  5
40
102
{ACAD_XDICTIONARY
360
15BE
102
}
102
{ACAD_REACTORS
330
29
102
}
330
29
100
AcDbVisualStyle
  2
OverhangOff
 70
    21
 71
     2
 72
     2
 73
     0
 90
        0
 40
-0.6
 41
-30.0
 62
     5
 63
     7
421
 16777215
 74
     1
 91
        4
 64
     7
 65
   257
 75
     1
175
     1
 42
1.0
 92
        9
 66
     7
 43
1.0
 76
     1
 77
     6
 78
     2
 67
     7
 79
     5
170
     0
171
     0
290
     0
174
     0
 93
        1
 44
0.0
173
     0
291
     1
 45
0.0
1001
ACAD
1000
AcDbSavedByObjectVersion
1070
     0
  0
VISUALSTYLE
  5
33
102
{ACAD_XDICTIONARY
360
15A4
102
}
102
{ACAD_REACTORS
330
29
102
}
330
29
100
AcDbVisualStyle
  2
Realistic
 70
     8
 71
     2
 72
     3
 73
     0
 90
        2
 40
-0.6
 41
30.0
 62
     5
 63
     7
421
 16777215
 74
     0
 91
        0
 64
     7
 65
   257
 75
     1
175
     1
 42
1.0
 92
        8
 66
   257
 43
1.0
 76
     1
 77
     6
 78
     2
 67
     7
 79
     3
170
     0
171
     0
290
     0
174
     0
 93
       13
 44
0.0
173
     0
291
     0
 45
0.0
1001
ACAD
1000
AcDbSavedByObjectVersion
1070
     0
  0
VISUALSTYLE
  5
3E
102
{ACAD_XDICTIONARY
360
15BA
102
}
102
{ACAD_REACTORS
330
29
102
}
330
29
100
AcDbVisualStyle
  2
Shaded
 70
    27
 71
     2
 72
     2
 73
     1
 90
        2
 40
-0.6
 41
30.0
 62
     5
 63
     7
421
 16777215
 74
     0
 91
        4
 64
     7
 65
   257
 75
     1
175
     1
 42
1.0
 92
        8
 66
   257
 43
1.0
 76
     1
 77
     6
 78
     2
 67
     8
425
  7895160
 79
     3
170
     0
171
     0
290
     0
174
     0
 93
        5
 44
0.0
173
     0
291
     0
 45
0.0
1001
ACAD
1000
AcDbSavedByObjectVersion
1070
     0
  0
VISUALSTYLE
  5
3D
102
{ACAD_XDICTIONARY
360
15B8
102
}
102
{ACAD_REACTORS
330
29
102
}
330
29
100
AcDbVisualStyle
  2
Shaded with edges
 70
    26
 71
     2
 72
     2
 73
     1
 90
        2
 40
-0.6
 41
30.0
 62
     5
 63
     7
421
 16777215
 74
     1
 91
       10
 64
     7
 65
   257
 75
     2
175
     1
 42
1.0
 92
        8
 66
   257
 43
1.0
 76
     1
 77
     6
 78
     2
 67
     7
 79
     3
170
     0
171
     0
290
     0
174
     0
 93
        5
 44
0.0
173
     0
291
     0
 45
0.0
1001
ACAD
1000
AcDbSavedByObjectVersion
1070
     0
  0
VISUALSTYLE
  5
3A
102
{ACAD_XDICTIONARY
360
15B2
102
}
102
{ACAD_REACTORS
330
29
102
}
330
29
100
AcDbVisualStyle
  2
Shades of Gray
 70
    23
 71
     2
 72
     2
 73
     3
 90
        0
 40
-0.6
 41
-30.0
 62
     5
 63
     7
421
 16777215
 74
     2
 91
        2
 64
     7
 65
     7
 75
     1
175
     1
 42
40.0
 92
        8
 66
     7
 43
1.0
 76
     1
 77
     6
 78
     2
 67
     7
 79
     3
170
     0
171
     0
290
     0
174
     0
 93
        1
 44
0.0
173
     0
291
     0
 45
0.0
1001
ACAD
1000
AcDbSavedByObjectVersion
1070
     0
  0
VISUALSTYLE
  5
3B
102
{ACAD_XDICTIONARY
360
15B4
102
}
102
{ACAD_REACTORS
330
29
102
}
330
29
100
AcDbVisualStyle
  2
Sketchy
 70
    24
 71
     1
 72
     2
 73
     2
 90
        0
 40
-0.6
 41
-30.0
 62
     5
 63
     7
421
 16777215
 74
     2
 91
        2
 64
     7
 65
     7
 75
     1
175
     1
 42
40.0
 92
       11
 66
     7
 43
1.0
 76
     1
 77
     6
 78
     2
 67
     7
 79
     6
170
     0
171
     0
290
     0
174
     0
 93
        1
 44
0.0
173
     0
291
     0
 45
0.0
1001
ACAD
1000
AcDbSavedByObjectVersion
1070
     0
  0
VISUALSTYLE
  5
36
102
{ACAD_XDICTIONARY
360
15AA
102
}
102
{ACAD_REACTORS
330
29
102
}
330
29
100
AcDbVisualStyle
  2
Thicken
 70
    13
 71
     2
 72
     2
 73
     0
 90
        0
 40
-0.6
 41
-30.0
 62
     5
 63
     7
421
 16777215
 74
     1
 91
        4
 64
     7
 65
   257
 75
     1
175
     1
 42
1.0
 92
       12
 66
     7
 43
1.0
 76
     1
 77
     6
 78
     2
 67
     7
 79
     5
170
     0
171
     0
290
     0
174
     0
 93
        1
 44
0.0
173
     0
291
     1
 45
0.0
1001
ACAD
1000
AcDbSavedByObjectVersion
1070
     0
  0
VISUALSTYLE
  5
30
102
{ACAD_XDICTIONARY
360
159E
102
}
102
{ACAD_REACTORS
330
29
102
}
330
29
100
AcDbVisualStyle
  2
Wireframe
 70
     5
 71
     0
 72
     2
 73
     0
 90
        0
 40
-0.6
 41
-30.0
 62
     5
 63
     7
421
 16777215
 74
     1
 91
        4
 64
     7
 65
   257
 75
     1
175
     1
 42
1.0
 92
        0
 66
   257
 43
1.0
 76
     1
 77
     6
 78
     2
 67
     7
 79
     3
170
     0
171
     0
290
     0
174
     0
 93
        1
 44
0.0
173
     0
291
     0
 45
0.0
1001
ACAD
1000
AcDbSavedByObjectVersion
1070
     0
  0
VISUALSTYLE
  5
3C
102
{ACAD_XDICTIONARY
360
15B6
102
}
102
{ACAD_REACTORS
330
29
102
}
330
29
100
AcDbVisualStyle
  2
X-Ray
 70
    25
 71
     2
 72
     2
 73
     1
 90
        1
 40
0.5
 41
-30.0
 62
     5
 63
     7
421
 16777215
 74
     1
 91
        0
 64
     7
 65
   257
 75
     1
175
     1
 42
1.0
 92
        8
 66
     7
 43
1.0
 76
     1
 77
     6
 78
     2
 67
     7
 79
     3
170
     0
171
     0
290
     0
174
     0
 93
       13
 44
0.0
173
     0
291
     0
 45
0.0
1001
ACAD
1000
AcDbSavedByObjectVersion
1070
     0
  0
DICTIONARYVAR
  5
79
102
{ACAD_REACTORS
330
76
102
}
330
76
100
DictionaryVariables
280
     0
  1
1:1
  0
DICTIONARYVAR
  5
78
102
{ACAD_REACTORS
330
76
102
}
330
76
100
DictionaryVariables
280
     0
  1
STANDARD
  0
DICTIONARYVAR
  5
77
102
{ACAD_REACTORS
330
76
102
}
330
76
100
DictionaryVariables
280
     0
  1
STANDARD
  0
DICTIONARYVAR
  5
1585
102
{ACAD_REACTORS
330
76
102
}
330
76
100
DictionaryVariables
280
     0
  1
0
  0
DICTIONARYVAR
  5
1586
102
{ACAD_REACTORS
330
76
102
}
330
76
100
DictionaryVariables
280
     0
  1
0
  0
DICTIONARYVAR
  5
1584
102
{ACAD_REACTORS
330
76
102
}
330
76
100
DictionaryVariables
280
     0
  1
2
  0
DICTIONARYVAR
  5
1583
102
{ACAD_REACTORS
330
76
102
}
330
76
100
DictionaryVariables
280
     0
  1
1
  0
DICTIONARYVAR
  5
1587
102
{ACAD_REACTORS
330
76
102
}
330
76
100
DictionaryVariables
280
     0
  1
2
  0
DICTIONARY
  5
1A
330
19
100
AcDbDictionary
280
     1
281
     1
  3
ACAD_XREC_ROUNDTRIP
360
1590
  3
BUMPTILE
360
1C
  3
DIFFUSETILE
360
1B
  3
OPACITYTILE
360
1F
  3
REFLECTIONTILE
360
1E
  3
REFRACTIONTILE
360
20
  3
SPECULARTILE
360
1D
  0
DICTIONARY
  5
12
330
11
100
AcDbDictionary
280
     1
281
     1
  3
ACAD_XREC_ROUNDTRIP
360
158F
  3
BUMPTILE
360
14
  3
DIFFUSETILE
360
13
  3
FBXASSET
360
F5
  3
OPACITYTILE
360
17
  3
REFLECTIONTILE
360
16
  3
REFRACTIONTILE
360
18
  3
SPECULARTILE
360
15
  0
DICTIONARY
  5
22
330
21
100
AcDbDictionary
280
     1
281
     1
  3
ACAD_XREC_ROUNDTRIP
360
1591
  3
BUMPTILE
360
24
  3
DIFFUSETILE
360
23
  3
FBXASSET
360
BA
  3
OPACITYTILE
360
27
  3
REFLECTIONTILE
360
26
  3
REFRACTIONTILE
360
28
  3
SPECULARTILE
360
25
  0
DICTIONARY
  5
158A
330
67
100
AcDbDictionary
280
     1
281
     1
  3
ACAD_XREC_ROUNDTRIP
360
158B
  0
DICTIONARY
  5
1588
330
65
100
AcDbDictionary
280
     1
281
     1
  3
ACAD_ROUNDTRIP_2008_TABLESTYLE_CELLSTYLEMAP
360
1589
  3
ACAD_XREC_ROUNDTRIP
360
15C2
  0
DICTIONARY
  5
159C
330
2F
100
AcDbDictionary
280
     1
281
     1
  3
ACAD_XREC_ROUNDTRIP
360
159D
  0
DICTIONARY
  5
159A
330
2E
100
AcDbDictionary
280
     1
281
     1
  3
ACAD_XREC_ROUNDTRIP
360
159B
  0
DICTIONARY
  5
15A8
330
35
100
AcDbDictionary
280
     1
281
     1
  3
ACAD_XREC_ROUNDTRIP
360
15A9
  0
DICTIONARY
  5
15B0
330
39
100
AcDbDictionary
280
     1
281
     1
  3
ACAD_XREC_ROUNDTRIP
360
15B1
  0
DICTIONARY
  5
15A2
330
32
100
AcDbDictionary
280
     1
281
     1
  3
ACAD_XREC_ROUNDTRIP
360
15A3
  0
DICTIONARY
  5
15A6
330
34
100
AcDbDictionary
280
     1
281
     1
  3
ACAD_XREC_ROUNDTRIP
360
15A7
  0
DICTIONARY
  5
15C0
330
41
100
AcDbDictionary
280
     1
281
     1
  3
ACAD_XREC_ROUNDTRIP
360
15C1
  0
DICTIONARY
  5
15AE
330
38
100
AcDbDictionary
280
     1
281
     1
  3
ACAD_XREC_ROUNDTRIP
360
15AF
  0
DICTIONARY
  5
1592
330
2A
100
AcDbDictionary
280
     1
281
     1
  3
ACAD_XREC_ROUNDTRIP
360
1593
  0
DICTIONARY
  5
1594
330
2B
100
AcDbDictionary
280
     1
281
     1
  3
ACAD_XREC_ROUNDTRIP
360
1595
  0
DICTIONARY
  5
1596
330
2C
100
AcDbDictionary
280
     1
281
     1
  3
ACAD_XREC_ROUNDTRIP
360
1597
  0
DICTIONARY
  5
1598
330
2D
100
AcDbDictionary
280
     1
281
     1
  3
ACAD_XREC_ROUNDTRIP
360
1599
  0
DICTIONARY
  5
15A0
330
31
100
AcDbDictionary
280
     1
281
     1
  3
ACAD_XREC_ROUNDTRIP
360
15A1
  0
DICTIONARY
  5
15BC
330
3F
100
AcDbDictionary
280
     1
281
     1
  3
ACAD_XREC_ROUNDTRIP
360
15BD
  0
DICTIONARY
  5
15AC
330
37
100
AcDbDictionary
280
     1
281
     1
  3
ACAD_XREC_ROUNDTRIP
360
15AD
  0
DICTIONARY
  5
15BE
330
40
100
AcDbDictionary
280
     1
281
     1
  3
ACAD_XREC_ROUNDTRIP
360
15BF
  0
DICTIONARY
  5
15A4
330
33
100
AcDbDictionary
280
     1
281
     1
  3
ACAD_XREC_ROUNDTRIP
360
15A5
  0
DICTIONARY
  5
15BA
330
3E
100
AcDbDictionary
280
     1
281
     1
  3
ACAD_XREC_ROUNDTRIP
360
15BB
  0
DICTIONARY
  5
15B8
330
3D
100
AcDbDictionary
280
     1
281
     1
  3
ACAD_XREC_ROUNDTRIP
360
15B9
  0
DICTIONARY
  5
15B2
330
3A
100
AcDbDictionary
280
     1
281
     1
  3
ACAD_XREC_ROUNDTRIP
360
15B3
  0
DICTIONARY
  5
15B4
330
3B
100
AcDbDictionary
280
     1
281
     1
  3
ACAD_XREC_ROUNDTRIP
360
15B5
  0
DICTIONARY
  5
15AA
330
36
100
AcDbDictionary
280
     1
281
     1
  3
ACAD_XREC_ROUNDTRIP
360
15AB
  0
DICTIONARY
  5
159E
330
30
100
AcDbDictionary
280
     1
281
     1
  3
ACAD_XREC_ROUNDTRIP
360
159F
  0
DICTIONARY
  5
15B6
330
3C
100
AcDbDictionary
280
     1
281
     1
  3
ACAD_XREC_ROUNDTRIP
360
15B7
  0
XRECORD
  5
1590
102
{ACAD_REACTORS
330
1A
102
}
330
1A
100
AcDbXrecord
280
     1
102
MATERIAL
148
0.0
149
0.0
149
0.0
 93
        0
 94
      127
282
     0
 72
     0
 77
     0
171
     0
175
     0
179
     0
273
     0
  0
XRECORD
  5
1C
102
{ACAD_REACTORS
330
1A
102
}
330
1A
100
AcDbXrecord
280
     1
270
     1
271
     1
  0
XRECORD
  5
1B
102
{ACAD_REACTORS
330
1A
102
}
330
1A
100
AcDbXrecord
280
     1
270
     1
271
     1
  0
XRECORD
  5
1F
102
{ACAD_REACTORS
330
1A
102
}
330
1A
100
AcDbXrecord
280
     1
270
     1
271
     1
  0
XRECORD
  5
1E
102
{ACAD_REACTORS
330
1A
102
}
330
1A
100
AcDbXrecord
280
     1
270
     1
271
     1
  0
XRECORD
  5
20
102
{ACAD_REACTORS
330
1A
102
}
330
1A
100
AcDbXrecord
280
     1
270
     1
271
     1
  0
XRECORD
  5
1D
102
{ACAD_REACTORS
330
1A
102
}
330
1A
100
AcDbXrecord
280
     1
270
     1
271
     1
  0
XRECORD
  5
158F
102
{ACAD_REACTORS
330
12
102
}
330
12
100
AcDbXrecord
280
     1
102
MATERIAL
148
0.0
149
0.0
149
0.0
 93
        0
 94
      127
282
     0
 72
     0
 77
     0
171
     0
175
     0
179
     0
273
     0
  0
XRECORD
  5
14
102
{ACAD_REACTORS
330
12
102
}
330
12
100
AcDbXrecord
280
     1
270
     1
271
     1
  0
XRECORD
  5
13
102
{ACAD_REACTORS
330
12
102
}
330
12
100
AcDbXrecord
280
     1
270
     1
271
     1
  0
XRECORD
  5
F5
102
{ACAD_REACTORS
330
12
102
}
330
12
100
AcDbXrecord
280
     1
 70
     1
 90
1959938040
 71
     1
  1
894D46FA-29FF-4A62-8628-3873C03C8FD6
311
504B03040A0000080000203BB1423DEE336E79000000790000001B0000006175746F6465736B2D64657369676E2D7061636B6167652E786D6C3C3F786D6C2076657273696F6E3D22312E302220656E636F64696E673D227574662D3822203F3E3C666F726D6174733E3C666F726D61743E687474703A2F2F736368656D612E
311
6175746F6465736B2E636F6D2F64657369676E2D7061636B6167652F323030393C2F666F726D61743E3C2F666F726D6174733E504B0304140006080800203BB142D486FD9CA0000000F4000000130000005B436F6E74656E745F54797065735D2E786D6C7D8EC10E82300C865F65E91D8A1E8C310C0EEA1BF002731658846E
311
D98AC1B77784ABF1D8FE5FBFBF75BBCE937A534CCEB38643598122B6FEE978D0B0485F9C41B54DDD7D022595594E1A469170414C76A4D9A4D207E29CF43ECE46F218070CC6BECC4078ACAA135ACF422C856C0E68EA1BF5669944DDD7BCDE7B1F8E415D77AECB980613C2E4AC91FC167A2B244592486606FC29C8FD7F045B9A
311
EF7053A7E60B504B0304140006080800203BB142B22AB707EB0000007C01000008000000636F72652E786D6C8D90DD8EC22010855F8570BBA1E5C7D6DA504C5DDD27D81720809568A129607CFCA55A93DDBBBD9AC999F3CD4C0EDF3FC61BB89B3958EF3A480A0C8171CA6BEB860EA678460D047BC167EFE32F1B044E8EA683
311
8B0C051F669FA65552DE45E362569DD7661565082642A06EB9E960501733CA42A6981DE15A4C525DE5600AF2EE329C92D5E075C4EABCCF9EAD99A1A08CD6F5E7EE8448DD53B4C198A1BE69183A1CF0E6EB74A4FDEEC878B9C082473BBEEFABD9C86874E631610857886CBFF1B6A5558BF107AE5A8679B9D8FF4069D2FF8492
311
7591D1F5DD1716A020F991E740F072C922976750B92EB9891F504B0304140006080800203BB14255019EA25F0000007C00000007000000636E782E786D6C4DCB3B0E80201045D1AD90E915ED2CF8AC45050C11660C8261F98AB1B07AC9C97D42D718D865D3E909258CFD00CCE24AC6E326A164D74DC0B4128928FF32603847
311
2BA13128B1252AC747C6BAB984FC68F0B87FE8960A5C09FE86CFB69FBA01504B0304140006080800203BB142AE90E9FE66010000020300000C0000006662782F636F72652E786D6C8D525B6E833010BC8AE5DF0A6C206F194749939EA017708C4351C0467EA01CBFCB234A5345518464AC999DDDD901B6BD3635EA947595D1
311
394E628A91D2D214952E731CFC395A61B4E5CC1AE3FF9461A445A372DCC398B3D29AD04E9034DA2BED01D5A65013289C531E2359C325C74EFEA846C42278A87097B815F2224A152731D050C799F3160CA071487F627E3E5D191971CE42A88A89AD0A98569D2B65314FB374B1F85C1FA364B14BA319A559B45BADB268BFA7B3
311
AFE321DDAD0F1923BD98335F353777D22AE155017A9A64119D47C9F29B2E37E97C43E9079D6F32CA485FFE200A6DF1A62854DA67E964779439CC13303210FFB685883C72A2033F8433D28708AF21E1C7A0211008D98B537DDBE30250A7A43776064C61C29DEA441D144CA56878181959E83C3480CD9EF6495FF479DD033EA0
311
D02558131EAEA7E0FBE96C9C3A45D12A1B75FE8AB4B18DA8EFE6468BF7F33EE8A95C9ADAD877D4645A954C6192FEEFE5BF504B0304140006080800203BB142A11F0C157D0000009D0000000B0000006662782F636E782E786D6C4DCCD10A83201805E05791FFDEB5A158811AABE67BC4B290D9EF703AF6F8B3D1C5E0C0818F
311
C391DD67F3E46DE3CB055470399D8158BC87D9E1AA20A78536403A2D6308E96F0604A7CD2AD819B45C63C8CF8366BB4CD9A7A2DEE1E3C09671CE076328EB4D43797F33B41D84A0CC8C62AC6B5E72854ACBEAF7547A3FD65F504B0304140006080800203BB1425AB1E1AF2C01000014020000310000006662782F3933343434
311
4346462D334246382D344245462D394336362D3346443644373734373734412F636F72652E786D6C8D515B6EC32010BC0AE22B55850D7E2611266A92FA04BD8003244189C1E251E5F885DA91DABF488845B333B32396EE1EE31D7C4BEB94D11D241986406A6E84D2970E067F466B08768C5A63FC1F1A047A186507130C19BD
311
5813A605E2467BA97D44B511720107E7A48780DFE3A3838E5FE5386443F091E16ED934F0DB709119C9623BF21875DEC600601E926EC83665555587BE47E5BE5FA36AFFD9A3CDA16950D91F9B63DB56F17CD07C16321A82128B5C8918479D95B4AF9A2431A35E8DCFF8DCCAC14B0159814989708D48FB85DB6D516F317EC7F5
311
B6C4344FF47FA23089174541695F164BDC59E62023349F1B8C0A134EF76718F9988CF520CD5B39C9DF20C31926A46849D3D27CA6C60F889E4DB5783A6F6CFCE0D5ED14D9A49E8D9B8AD13CED2896DF05C69AF6C97E00504B0304140006080800203BB142AC6BFDFC4E01000033030000300000006662782F39333434344346
311
462D334246382D344245462D394336362D3346443644373734373734412F636E782E786D6CD593CD6EC32010845F0571AD6CE3FC561126520F7D821E7A25B069683058FC54CDDB7749489A4B0E3DF682ACD96166F509F3EDF768C9178468BC1B68DF324AC029AF8DFB18684EFBE69992ADE0C1FB7467A3C4C911065A642AF8
311
47F079AA9286BDCC36A16A8D3B563140F439288828979BC47A252D06806B328A30EE406BD0E466C4AF3D045C05C5DD89A40390D79777E2779FA052E45D4911BC2B1D8297B336DD99285156C638D0A80E30CA56E6E435C463AB65926DDF5EBB1EECF49B44CA856B650E8694F28196938ABA518B1C798743C1630A48AF9AD269
311
022AE43459A36442C8DDD978F1089E8D4BAB45F51A041FD0DDAFE68B05869D678227334275A8003281A662C6FA79C3964DBF7E63EBCD6CB961EC892D3773C6BB62177CE7BDAD973006829F88F22E814B54F4BC2BE347F8AA8F681390B50FA73F804400B5F542E796F19FF974E7F78DB802FE05E207504B0304140006080800
311
203BB142BA2A70C2A405000081100000340000006662782F39333434344346462D334246382D344245462D394336362D3346443644373734373734412F6F626A656374732E786D6CAD575B8FDA3814FE2B51F665F7814B8052669549C540A9503B6D55D46A1F9090499C8C779C8B6C67CAECAFDFCFB113120A5376D5975C7C
311
393EE73BDFB9D87F7348B9F34485647976EB7AFDA1EBD02CCC239625B76EA9E2DECC75DE04BEC873D55AE63A1949E9ADAB87DDC04F445E167628A23129B93A195DDDFDE5C89066D475424EA4BC7565F84053D227A5CA232A1FFB1151A49FC487BED7370BBB6213418A8713A105113453D014E319A4384629AFFB3B7407813F
311
D0F381AF9F76D5F8F2AA41654FF77C964945B2F087C34EC48CBDC9F2EDE8D54DEFD56432EE4DA623AF77B7BA5BF6BCD7E3E162BA58DCCCDFDEE060A90424594D048DDDE01DB0112CF407662AF04B96A9F1C82EB10E1A08FAC4B4A7DC60E478FEC0AC69ACB3469E533FCCB38C86155640A3B2CF8A8E6841B3083E675442B316
311
42C3EEAFA7716C4D8FF5BF3DB23D7C1D02ED1D2D41B5EEF5BBAD69BEFF1B26C86B182424D50C34585A430D57874784F779CEED1C934E4A14158C7087B3BD20E2D90DB0542F09FC8E18CD64A1A3415BE006F08299EED20561F4739E9FD3322E39D73476832A0A768815AA64A519FB878AA3F66D64A0137CA5D930B306A9E782
311
BAC18DA1C8EC844D064827E62481CB61A6DE391E9D18BAD071BA5EBAC1FBD5FEB0D1B17BFEF042E405154AD307D4AA1D57BF354A5627EF2ACFE90DEE892A4750BE00F98F08F5A32AF09B6087C961624F51826432CE450ADF3843A737C463E878D5537FB7BEFC41B3B9EBBD4B78C2D91AAA5F8067D786B62F5B7006FE13089F
311
8BB1356D13128EB471CF3200A449E2F01C43C8C3F1FEE0066B64396465EC223CF06032D47DC2A73FB0629028AA935AEF0C589EA4C52B123460AB1809350CF9AD82473FFD90CEAA83EDB24BF0BEFA25749D2F37EF37A5884948EF6D4C2F69CC32A650E28EBC692BD4C1BC63D1237DFE9E8B0886FE88F7A68D776A8F92405B63
311
AE814FEA9CAE7F8E27770E08B12FC975BAF17F72028CD085B525FF9EC990724E329A97F5B92FD60F940D03B10E76CDE4A6C01C0B0B4863664E6210453A14ACD02036D5AA499AFD0BD67D5D7F0423DDE0EEF903796E67AFFD31F78639CFC56EFFBC3369E92CD4DFBADCB6180CB414D0BD0A923AFE2DE8BB88C571299104CFE0
311
FA6DBD68FB4EA705A4885AAA899609EC47701161495BCB45B516049534CF760C75137177F680B67C406A195009BCA4B1A43CDE31CECB7417338E6AB44B4971018EFFAFFFBE4C8B1D49F33253176477544775E8EADE61AFFC4E54F8E0069BEADDBB43EE8D6874810CBA969CC1AAE3DAD9CD643999AEE6BDD1CD6AD59BCCA7A3
311
DE6C3A9AF5C6B3D7E3C570BC98AD96D3DA4F4693C0AF4B4D3BA2E1259436BF14CCBAEFEB1AF16393801BDC1325B7EF4C78D6EFAFEB3E7A617F803DA897CDC679F484BE8F463F17705C7956D03A2D384D69A6888EA17BFDC1BF10F4191D65CCF83A2509BD42CAA7779B13633072C5BECF3ADEE9F793BD7674A103F2AC10F550
311
A6FB8C307EB2313148F68B2CB1F8D53E69DEA6D0D4BFFACF3A069DA9CC398B90072327A1794A15B2E1154548A454827AED9E3EB2778F2B763F990E51913DA7B5260F044D3297080B50AB0C5577DCF90D4D9DEEAB6E5D94DBFE231E3653B80E3873EBA249572CA4B2BF4781D6AD50251C5C6A77F268FC499670F4DA6653F3DF
311
ECD2D8744A72B3E49AFEC9DA6552B8350069A440DF808608DEA99409FC4A373B1FFE27C36B751CA2F0B92F5563CB71A031A63A06216A8CB2B70534318FF6E80302F565B3BC7EB5A683C855B7AC174960A4F61411497553D0FA5995E6CBCF037428CEFA9353F032812FAF97D41314642E75808345608595591005AA2EFEDC7E
311
16396EB2A9B362A080F3FB6136FD63BBC8D334CFCCD0766EEFC3CEE601B7DB688BE440F5B5446E47436FB4ADAE03F686B2DB1349FB24928F188067056B80EEB81FBC347746D42133D1AC1B68579C3074BD746C619B40A8A54B3BB76A70D07864D4410CE92BA58E98F682E2C51BC1A05A0A15047AF9E05F504B030414000608
311
0000203BB142000000000000000000000000350000006662782F39333434344346462D334246382D344245462D394336362D3346443644373734373734412F76657274696365732E62696E504B0304140006080800203BB142F270F1330600000004000000360000006662782F39333434344346462D334246382D34424546
311
2D394336362D3346443644373734373734412F747269616E676C65732E62696E636660600000504B0304140006080000203BB142000000000000000000000000370000006662782F39333434344346462D334246382D344245462D394336362D3346443644373734373734412F617474726962757465732E62696E504B0304
311
140006080800203BB142D5987DFC8F00000041010000360000006662782F39333434344346462D334246382D344245462D394336362D3346443644373734373734412F6469726563746F72792E786D6C858F410EC2201045AF4266AF15DDB800BA74E7C21B903225242D6328188F2FA5C4183471359997F9FF81E89FF3C41E
311
1816475E02DF1F80A11FC8386F25A438EECEC07A250251FC3803E6F58C12560C4AD840E95E91C151A72936F496F35732D860FE635F62C8F2DA16B505C545B74125BAA2FA9E05D7CC053D063734D5C7665FD55B6B8D15D5E9BFEAFD8490FFA45E504B0304140006080800203BB142A181999FFE000000A00100003B00000066
311
62782F39333434344346462D334246382D344245462D394336362D3346443644373734373734412F7265736F75726365732F636F72652E786D6C8D504B6E833010BD0AF2B632D83810828C2352DA13F4029699102BC146FE543D7E4DA052BBEB6666F43E9AA7C7CF5FF323FB04E7B5351DA23941191865476DA60EC570C50D
311
CACE823B6BC32F19CA8C9CA1432B8C049F9C8DCB0E296B029890506347D841E93D0494A9473A3AE4D50D6699CB1892C2DFF345AABB9C20A779A2934E701F5C0A906D4FD68984036FA353E079B1B182C7A8C75DA3C7F4535F3538244A56D6F5EB69C0B4EE4B7C2084E1BE6918BE5CC8E1FD6D28FBD3C078B19A050F7AFEC9A8
311
1CC80063F213CA30A9303D7E90635B562D212FA46A19E1C52AFF638ACBF84F53D426B0728FBBD93C123405791282176B5F693DCB4C7BED567C03504B010214000A0000080000203BB1423DEE336E79000000790000001B00000000000000000000000000000000006175746F6465736B2D64657369676E2D7061636B616765
311
2E786D6C504B01021400140006080800203BB142D486FD9CA0000000F40000001300000000000000000000000000B20000005B436F6E74656E745F54797065735D2E786D6C504B01021400140006080800203BB142B22AB707EB0000007C010000080000000000000000000000000083010000636F72652E786D6C504B0102
311
1400140006080800203BB14255019EA25F0000007C000000070000000000000000000000000094020000636E782E786D6C504B01021400140006080800203BB142AE90E9FE66010000020300000C00000000000000000000000000180300006662782F636F72652E786D6C504B01021400140006080800203BB142A11F0C15
311
7D0000009D0000000B00000000000000000000000000A80400006662782F636E782E786D6C504B01021400140006080800203BB1425AB1E1AF2C0100001402000031000000000000000000000000004E0500006662782F39333434344346462D334246382D344245462D394336362D3346443644373734373734412F636F72
311
652E786D6C504B01021400140006080800203BB142AC6BFDFC4E010000330300003000000000000000000000000000C90600006662782F39333434344346462D334246382D344245462D394336362D3346443644373734373734412F636E782E786D6C504B01021400140006080800203BB142BA2A70C2A405000081100000
311
3400000000000000000000000000650800006662782F39333434344346462D334246382D344245462D394336362D3346443644373734373734412F6F626A656374732E786D6C504B01021400140006080000203BB14200000000000000000000000035000000000000000000000000005B0E00006662782F39333434344346
311
462D334246382D344245462D394336362D3346443644373734373734412F76657274696365732E62696E504B01021400140006080800203BB142F270F13306000000040000003600000000000000000000000000AE0E00006662782F39333434344346462D334246382D344245462D394336362D3346443644373734373734
311
412F747269616E676C65732E62696E504B01021400140006080000203BB1420000000000000000000000003700000000000000000000000000080F00006662782F39333434344346462D334246382D344245462D394336362D3346443644373734373734412F617474726962757465732E62696E504B010214001400060808
311
00203BB142D5987DFC8F0000004101000036000000000000000000000000005D0F00006662782F39333434344346462D334246382D344245462D394336362D3346443644373734373734412F6469726563746F72792E786D6C504B01021400140006080800203BB142A181999FFE000000A00100003B000000000000000000
311
00000000401000006662782F39333434344346462D334246382D344245462D394336362D3346443644373734373734412F7265736F75726365732F636F72652E786D6C504B0506000000000E000E0080040000971100000000
310
504B03040A0000080000203BB1423DEE336E79000000790000001B0000006175746F6465736B2D64657369676E2D7061636B6167652E786D6C3C3F786D6C2076657273696F6E3D22312E302220656E636F64696E673D227574662D3822203F3E3C666F726D6174733E3C666F726D61743E687474703A2F2F736368656D612E
310
6175746F6465736B2E636F6D2F64657369676E2D7061636B6167652F323030393C2F666F726D61743E3C2F666F726D6174733E504B0304140006080800203BB142D486FD9CA0000000F4000000130000005B436F6E74656E745F54797065735D2E786D6C7D8EC10E82300C865F65E91D8A1E8C310C0EEA1BF002731658846E
310
D98AC1B77784ABF1D8FE5FBFBF75BBCE937A534CCEB38643598122B6FEE978D0B0485F9C41B54DDD7D022595594E1A469170414C76A4D9A4D207E29CF43ECE46F218070CC6BECC4078ACAA135ACF422C856C0E68EA1BF5669944DDD7BCDE7B1F8E415D77AECB980613C2E4AC91FC167A2B244592486606FC29C8FD7F045B9A
310
EF7053A7E60B504B0304140006080800203BB14298A60DF5EC0000007C01000008000000636F72652E786D6C8D904D6EC3201085AF82665B6183FF6561A238894FD00B204C1C94182C03558F5F9C3852BBEB6A466FDE37337AECF03D3FD0975A9DB6A6039A1040CA483B6A337510FC1537800E9CADD6FA5F364046CCAA834D
310
06CEA6D5866597A4355E191F556347B58BC239E501C9476C3A70F2A6669188E0A3C3DD9345C8BB985442DF5D8443D0237A1DD163DCA7AF5AADC0FBE1DC37C7F3091FCBAAC045732970DF5F4A9CE57D559D869A16CDC0D20DE6CCEBF97D5FAE4A783502CF08CD312931AD3F49DD66654BC80729DB9CB074B3FF81C232FE130A
310
DAF83CDBDF7D610E388D8F3C079CA55B16B13C838A75CB8DFF00504B0304140006080800203BB14255019EA25F0000007C00000007000000636E782E786D6C4DCB3B0E80201045D1AD90E915ED2CF8AC45050C11660C8261F98AB1B07AC9C97D42D718D865D3E909258CFD00CCE24AC6E326A164D74DC0B4128928FF326038
310
472BA13128B1252AC747C6BAB984FC68F0B87FE8960A5C09FE86CFB69FBA01504B0304140006080800203BB14207B900CD68010000020300000C0000006662782F636F72652E786D6C8D52ED8A8330107C9590BF87267EB5A5C494DA8F27B8174835F5A49A484CA48F7FEB47F17A945284186676766747D9EEDED4A897A6AB
310
B44A71E0538CA4CA7551A932C5CE5EBD0D463BCE8CD6F64F19464A3432C5038C392B8D76ED0CE55A59A92CA04A17720645D7498B515EC325C55DFE231BE10B67A1A2BBF9ADC86FA2947EE0030D759C75D68001340D194ECCAF973B2313CE99735531B35501D3AA6B250DE6D9F9986DF6C783B74F56B1176F4EB19765A7C40B
310
A36CB53A9CD741BC3933328839B355F370971B29AC2C300F69107934F182F5375D6FC3644BE9174DB6116564287F12B9B6F850E42A65A370B63BC93ACC03303212FFB685882CEA440F7E08676408115E63C2CF41432010B21597FAB1C70DA05EE6569B189842BB85EA45ED244CA5687C189958E83C3680CD5EF609DFF479DF
310
033EA05025581316AE176787E96C9A3A47D14AE3F5F68E94368DA8177393C5E55C06BD94E7BAD6E61335995725739864F87BF92F504B0304140006080800203BB142BB8BE8087E0000009D0000000B0000006662782F636E782E786D6C4DCCD10A83201886E15B91FFDCA55B59811AA4EB3E625948A6C3E9D8E5AF46073BFA
310
E0E1E3E5DD6773E86DE2CB062F805E0820E31F61B27E1190D38C1B409DE43184F47703E4C7CD083818245F62C8CF9326338FD9A55D9DF5EB89B796E84A538529550C974AD5B8D78CE0B2D2AC1D9A7EA8AF7728242F7EA57D8FB0FC02504B0304140006080800203BB142BC322A672A01000013020000310000006662782F33
310
393044354431432D313143362D344343372D424436302D3435443639463842463732452F636F72652E786D6C8D515B6EC32010BC0AE22B55850D7E26112652ECE604BD8003244589C1E251E5F885DA91DABFFCB06876667660E9E131DDC1B7B44E19DD41926108A4E646287DED60F017B485E0C0A835C6FFA141A0C7497630
310
C190D1AB35615E216EB497DA47541B215770744E7A08F83D5E3AE8F8979CC66C0C3E32DC2D9B477E1BAF3223596C471EA3CEDB18002C43D20959B9C3433D901E11D237A8EAFB161D8706A3AA1E9ADD697B3CB5C507CD1721A32128B1CA958871D44549FBAA491233EAD5F48CCFAD1CBD149015989408D788B49FB8DD17F51E
310
E3775CEF4B4CF344FF270AB378511494F665B1C65D640E3242F3A5C1A830E17C7F86918FD9580FD2BC8D93FC0D329C6142DA6D59D07C61C6F747CBA65A2D9D3736FEEFE6768EE472F56D2A46F3B4A2587EF7176B5A27FB01504B0304140006080800203BB142CACC32EB5601000033030000300000006662782F3339304435
310
4431432D313143362D344343372D424436302D3435443639463842463732452F636E782E786D6CBD93C96E032110447F05718D66F37893C56029877C410EB96268C7C40C8C58A2F8EFD3D8D8F1C58748512E68545D54B59E18B6FD1A0DF9041FB4B303EDEA9612B0D2296DDF079AE2BE5A53B2E5CC3B17EF6C945831C240B3
310
4C397BF72E4D4552B017C944548DB6C7227A082E790901E57C93182785C100B0554211C61D28058ADC8CF8B5078FABA0B83B917800F2F2FC46DCEE03640CACC9299C35B983B37C96A63B1325D28810061AE40146518B149D8270AC9588A2EEEA6BD7839D7E9248BE70AD4C5E935C3ED07C525E36AA91236B70C859881EE915
310
533C4D40B99826A3A58808B9391B2F1ECE92B671392F5E8DE03DBAFBD972BDC6B0F38CB3A847280EE941445094CFDAAEAFDA45D5AD5EDBD566B6D8B4ED53BBD8F42D6BB29DB39D73A65CC218F06E22D2D9083652DEB1268F1FE12B3EA2B447D6CE9F7E01120194D60B9D5BC65FF2E996FD7CFE8F7C9AF3FB465C1EFF02FE0D
310
504B0304140006080800203BB1421FC62695630700009A1B0000340000006662782F33393044354431432D313143362D344343372D424436302D3435443639463842463732452F6F626A656374732E786D6CED59DD73A33610FF5718FAD23E181BDB499D0EA193D8CD8DA74D7B73EEDDF4C1338C0C3251230423895CDCBFBE
310
AB0F301093E0367DEB830D0869B5FBDB4F2DC18FCF19759E30172467D7AEEF4D5C07B3384F084BAFDD52EE470BD7F9310C789ECBC634D76128C3D7AE1A76C320E57959D8A104EF51496567F4EEF60F47C49861D7892912E2DA15F103CE90874A9927583C7A0992C84BF7CF9EEF99896DB22947C54387688138661238857106
310
541CC394DF7E9CB8E33018ABF761A0FEEDACD9A059F3FE59632D759B4BC284442C7EC15287CC6C104B337FBEFA697A7135BA98CF67A3F9E5D41FDDDEDDAE46FEF7B3C9F272B9BCBAF9E90AD8DBE539B53225B8C02C01FD1DDCD00FC6EA4D2DBA45E014D771CE188E3590009516AB4B9060015B35E09BB41F7D2551E3B596B0
310
F13C57EF2D0B8DE1599B4ADFAC6140B4E8822076BB4AE2EADA942FDFFD09828B2146C90596C0AD901CB46BE1E1E0156E3809C666340C76475D10E16448624E107528D971C4412930554D0903B3C09251CEC18194A324D09A33AFDBB6059EF9B6EB9CE2725F52AA3CC30DB56345E07E580ACD19F90BF323F74D64802790B624
310
4C2E2C97F2506037BC0AC67A300CD46536B52F0D90CE9EA2546844CCDB8EA04BE5FAEB951BFE7CB77BDEA870707AF382E705E652199DD2A3E60B0CD95E154A765B7F90E6D40210C6806A571E41F904C8FF0AD1E3C80AE88D93E7F9F3DCCE951C31B1CF7906BA7126CE68027F13C7D7FFEABE71178CEBC56DEDF5E1096EAAA0
310
5AFC7B3CDB3268AC2CFF0D38C3E0090C3EE733FB6A13230AF67C4F1800A48CC4A1390C4168DFEF9EDD700D8113023DAC4234F4416460F7096E83B12573D44AE55ED6EB18206AF7980D5112C0A62D12D8E8D1D307C81E9CC447353545EC83F7E25DCCF566B5F97953F23D8AF1BDF5E915DE13462464CDD30CB5306F49F4880F
310
5F739E80A02FF1DE34F1CEEC5602D056982BE0D30A04F570DCB9B5410CEBD25C859BE08D1D400895AB1BF4EF898831A588E1BCACF6ADA39B32D4DAE36DCDE0865303F16CDA31618E9F88AA2AC0698E335A8C42DE8F392914886EF8C14856074DAF47BACFEB5FC122EBF93DB3D60C422F43F4771DB44EE0D0B2EC0A690B442D
310
F0EE18CEE39CE63CDA1D2213E95CA825808DB6B77C691185586F94A4A8800769BFAB424A6AA48D12B2DF9702E2EA0916BFAC974D73987833FFC269FE779C710ED1167C1771EB779D3D2292A114477B94F46DD7DCADA62D34C91ED21CEF29C8459E883C4448469304A7E7407316F1AB77A59ED25C08C2B0807C7512FC261A13
310
0F0289D166C5B2D26A076822A20C4B44CF414091E90157A71D5DE3C6503ABCCD636DBDAF69AC49F43FB2088EA096CC5944A014851CF226E3BE770131A48DAE41B9832F585B455B8B414B2821E243F41593F4419E83BA21DF837B0C4792524679816230EB01645FF88A526A87F71D8A1F55FE88E292BE9781084CF711A1B4CC
310
22F81106278F21AE5D07A65751681037B14FE20C8A32244B3E6493CB8BC98B7D4CCDD00D818D8DF68442D88E3254F4A0DE0A88BA1E716AF02DF51EA5EECAAC885096976C90A178B3AE3759F25DB52AB203F955A522948D15614B300C08937556AD623698BA0EACE0463A501D2281B2829A53D81B89C7AFBD4953EEDD805B3F
310
7DDF0D3228FC7AB4D78CA8F30A06CB63AB30105F918C1FDC70A3AFA35BA8BF139C1C537D556B362B40404C45F29213ABA2CF6B286F6C8DE686F7488AED079375ABEBE7B507DD8F600C6BA076A917AE15D0196612A9CAE45EDDD04F0842708B86195FAB9C7A0E959B24D15523A277A44F9DAD32A2B56946BCE201B33C831FDB
310
1216D332C15B9488C7E85ED2684314EB564A2F2315C6AF0AF8DB874D071E181920D24755E0E1AF9DB57674A9CAA59344E44399ED182210045BA2A546375EC152AB914ACBF5559D29A0EE0203B32A9EFF7FB268B623FE3F59A4D630FED5C9E2F6F00B3A34FB228D741E2BBB3EEB1850E72745E53D8E01BAED5053ADB38849E6
310
567EEB4C1104C52ACA0FAEC6AAA06108F671FC8FB3765F1634DB75F83F2F6BFB2F2A8EB3B24A6BB2EA529DA85CD7CD1CB6B89AAFE6977737A3E9D5DDDD687E73391D2D2EA78BD16CF1FD6C39992D1777ABCB1A4DEDA8615007339DBBE0D904B56A583D590CA02B2B724A1238CD274E8A21E64B38D30F689FF30C0B489ECD66
310
77629BF203563F993EA7443B8A2B4E1E103488A980B40E1895B16C8F3BDF406B52C241FBDA85A691F7087FD62A5D0732CFB50BAD0249622CBC1DB49954434F138794AB73BF2506F82096AA946816D5CFF52A854D2BFCD75386A4012B57AB8701855B01DDAF568742F366798ACF12BC62C741126E77A5846ACDC8721CA885D1
310
DB1CD56F64A3843DDAAD9FC1755F17CBF7F49C1622833E19BC6A0486EA48229EEA7EB762CCB274B3FA38863E9BB3FECD296899822E87531A710CC65CAA820AAC08ACC2D22C9004535DFEB0FDC873F8C49339BA2A72BE7D5E5C7EB75DE659963333B4BD815359021F8A9CCD037CF649B6503C60D55C17DBE9C49F6E7553DBF6
310
D9A31D12D85355110C54C58412A4637260972F1A54B67D3956AAE84C5FAF1C1B44A11960ECE8458FD77CE472C087D4E714E531DACF2B695FED6B8FF554B0090E1DE9F06F504B0304140006080000203BB142000000000000000000000000350000006662782F33393044354431432D313143362D344343372D424436302D34
310
35443639463842463732452F76657274696365732E62696E504B0304140006080800203BB142F270F1330600000004000000360000006662782F33393044354431432D313143362D344343372D424436302D3435443639463842463732452F747269616E676C65732E62696E636660600000504B0304140006080000203BB1
310
42000000000000000000000000370000006662782F33393044354431432D313143362D344343372D424436302D3435443639463842463732452F617474726962757465732E62696E504B0304140006080800203BB142D5987DFC8F00000041010000360000006662782F33393044354431432D313143362D344343372D4244
310
36302D3435443639463842463732452F6469726563746F72792E786D6C858F410EC2201045AF4266AF15DDB800BA74E7C21B903225242D6328188F2FA5C4183471359997F9FF81E89FF3C41E1816475E02DF1F80A11FC8386F25A438EECEC07A250251FC3803E6F58C12560C4AD840E95E91C151A72936F496F35732D860FE
310
635F62C8F2DA16B505C545B74125BAA2FA9E05D7CC053D063734D5C7665FD55B6B8D15D5E9BFEAFD8490FFA45E504B0304140006080800203BB1428B0D236DFE000000A00100003B0000006662782F33393044354431432D313143362D344343372D424436302D3435443639463842463732452F7265736F75726365732F63
310
6F72652E786D6C8D50596AC33010BD8A99DF225BF28E9115E22639412F20E44922124B414BE9F12B272EB47FFD9919DEC23C1EDF7D2DF7EC139DD7D68CC0720A191A65676D2E23C470263D643BC19DB5E1970C3223171C618541F08BB3F1B141CA9A802624D4D81937507A8F0132754FC7085E5D7191B98C2129FC2D7F4875
310
9317CC599EE8A413DC07970264AF27EB04E1D0DBE8147A5EBC58C163D4F3A6D173FAA9CF1A1D88E97498FAFD6122FBA6AD49DD1F6B324DC78694D5D4B6EFA78ED5FD8917AB59F0A0979F8CCAA10C38832829AB086D08EB3E683794CD40E91B6D868AF26295FF31C5C7FC4F53D42654E516F765F320580AF224042FD6BED27A
310
9699F6DAADF806504B010214000A0000080000203BB1423DEE336E79000000790000001B00000000000000000000000000000000006175746F6465736B2D64657369676E2D7061636B6167652E786D6C504B01021400140006080800203BB142D486FD9CA0000000F40000001300000000000000000000000000B20000005B
310
436F6E74656E745F54797065735D2E786D6C504B01021400140006080800203BB14298A60DF5EC0000007C010000080000000000000000000000000083010000636F72652E786D6C504B01021400140006080800203BB14255019EA25F0000007C000000070000000000000000000000000095020000636E782E786D6C504B
310
01021400140006080800203BB14207B900CD68010000020300000C00000000000000000000000000190300006662782F636F72652E786D6C504B01021400140006080800203BB142BB8BE8087E0000009D0000000B00000000000000000000000000AB0400006662782F636E782E786D6C504B01021400140006080800203B
310
B142BC322A672A010000130200003100000000000000000000000000520500006662782F33393044354431432D313143362D344343372D424436302D3435443639463842463732452F636F72652E786D6C504B01021400140006080800203BB142CACC32EB56010000330300003000000000000000000000000000CB060000
310
6662782F33393044354431432D313143362D344343372D424436302D3435443639463842463732452F636E782E786D6C504B01021400140006080800203BB1421FC62695630700009A1B000034000000000000000000000000006F0800006662782F33393044354431432D313143362D344343372D424436302D3435443639
310
463842463732452F6F626A656374732E786D6C504B01021400140006080000203BB1420000000000000000000000003500000000000000000000000000241000006662782F33393044354431432D313143362D344343372D424436302D3435443639463842463732452F76657274696365732E62696E504B01021400140006
310
080800203BB142F270F13306000000040000003600000000000000000000000000771000006662782F33393044354431432D313143362D344343372D424436302D3435443639463842463732452F747269616E676C65732E62696E504B01021400140006080000203BB1420000000000000000000000003700000000000000
310
000000000000D11000006662782F33393044354431432D313143362D344343372D424436302D3435443639463842463732452F617474726962757465732E62696E504B01021400140006080800203BB142D5987DFC8F000000410100003600000000000000000000000000261100006662782F33393044354431432D313143
310
362D344343372D424436302D3435443639463842463732452F6469726563746F72792E786D6C504B01021400140006080800203BB1428B0D236DFE000000A00100003B00000000000000000000000000091200006662782F33393044354431432D313143362D344343372D424436302D3435443639463842463732452F7265
310
736F75726365732F636F72652E786D6C504B0506000000000E000E0080040000601300000000
  0
XRECORD
  5
17
102
{ACAD_REACTORS
330
12
102
}
330
12
100
AcDbXrecord
280
     1
270
     1
271
     1
  0
XRECORD
  5
16
102
{ACAD_REACTORS
330
12
102
}
330
12
100
AcDbXrecord
280
     1
270
     1
271
     1
  0
XRECORD
  5
18
102
{ACAD_REACTORS
330
12
102
}
330
12
100
AcDbXrecord
280
     1
270
     1
271
     1
  0
XRECORD
  5
15
102
{ACAD_REACTORS
330
12
102
}
330
12
100
AcDbXrecord
280
     1
270
     1
271
     1
  0
XRECORD
  5
1591
102
{ACAD_REACTORS
330
22
102
}
330
22
100
AcDbXrecord
280
     1
102
MATERIAL
148
0.0
149
0.0
149
0.0
 93
        0
 94
      127
282
     0
 72
     0
 77
     0
171
     0
175
     0
179
     0
273
     0
  0
XRECORD
  5
24
102
{ACAD_REACTORS
330
22
102
}
330
22
100
AcDbXrecord
280
     1
270
     1
271
     1
  0
XRECORD
  5
23
102
{ACAD_REACTORS
330
22
102
}
330
22
100
AcDbXrecord
280
     1
270
     1
271
     1
  0
XRECORD
  5
BA
102
{ACAD_REACTORS
330
22
102
}
330
22
100
AcDbXrecord
280
     1
 70
     1
 90
1959938040
 71
     1
  1
190A7A15-EC81-4D60-9A1F-FEF6968E75BF
311
504B03040A00000800001C3BB1423DEE336E79000000790000001B0000006175746F6465736B2D64657369676E2D7061636B6167652E786D6C3C3F786D6C2076657273696F6E3D22312E302220656E636F64696E673D227574662D3822203F3E3C666F726D6174733E3C666F726D61743E687474703A2F2F736368656D612E
311
6175746F6465736B2E636F6D2F64657369676E2D7061636B6167652F323030393C2F666F726D61743E3C2F666F726D6174733E504B03041400060808001C3BB142D486FD9CA0000000F4000000130000005B436F6E74656E745F54797065735D2E786D6C7D8EC10E82300C865F65E91D8A1E8C310C0EEA1BF002731658846E
311
D98AC1B77784ABF1D8FE5FBFBF75BBCE937A534CCEB38643598122B6FEE978D0B0485F9C41B54DDD7D022595594E1A469170414C76A4D9A4D207E29CF43ECE46F218070CC6BECC4078ACAA135ACF422C856C0E68EA1BF5669944DDD7BCDE7B1F8E415D77AECB980613C2E4AC91FC167A2B244592486606FC29C8FD7F045B9A
311
EF7053A7E60B504B03041400060808001C3BB1428366B01AEA0000007C01000008000000636F72652E786D6C8D90D16E842010457F85CC6B83A26850836CD8A6FD82FE0011D6925DC10834FDFCE2AE9BB46F7D6126977B6626979FBE971BFA325BB0DE8D501504907193D7D6CD23A478C11DA093E09BF7F1970D90538B1961
311
9741F079F3693DA4C9BB685CCCAAF3DA1CA20AC14440D32D372384E9D32CAA50296647B816AB9AAE6A3645F5EC329C92D5E8B1C4EA3CCF5EACD940B0FEFDADE95987E5594ADCBCB61277343F7D4B654F993C37B4E6E50E0B1EEDF2DC3F6D4645A341D4A4A298B4B8621F840D7533B4EC85B40325BCDCED7FA0B4EA7F42C9BA
311
48EBE3DC07164054F990FB87E0E59E452EF7A072DD73133F504B03041400060808001C3BB14255019EA25F0000007C00000007000000636E782E786D6C4DCB3B0E80201045D1AD90E915ED2CF8AC45050C11660C8261F98AB1B07AC9C97D42D718D865D3E909258CFD00CCE24AC6E326A164D74DC0B4128928FF326038472B
311
A13128B1252AC747C6BAB984FC68F0B87FE8960A5C09FE86CFB69FBA01504B03041400060808001C3BB142684F21CB66010000020300000C0000006662782F636F72652E786D6C8D525B6E833010BC8AE5DF0ACC5324917144AAF604BD80631C6A056C646C94E37779443455145548C69AD9D99D1DA0C75BD7A251DA41195D
311
E2388C30925A985AE9A6C4DE5D821D464746AD31EE5719469A77B2C4138C196DACF1FD0A09A39DD40E506D6AB9827C18A4C348B47029F120BE65C743EE1D540CD7B0E7E2CA1B19C621D050C7E8E02C1840CB90E9C4EC72BE51B2E08C7AAFEA9555354C5317252D66C5FEF323DB17BBA03A555590BDE755B04BE1D8E769B54F
311
8BEA94A50925939851A7BABB3B612577B2C62C89E23488F2202EBEA2E2906487BC788BF2431A5132953F887C5FFF53E4957669B2DA5D640366311899893FDB42440E0D7C043F8451328508AF39E1C7A0211008D9F1737BDFE30AD02885333603A6367EA346DE7A095323343F942C2C749E1BC0664FFB242FFABCEE011F90EB
311
06AC7107D7B377D374BA4C5DA3E8A50D467743DAD88EB79BB9C5E2766E839ECA85698DFD8F9AACAB92354C32FDBDEC07504B03041400060808001C3BB142514182057E0000009D0000000B0000006662782F636E782E786D6C4DCCD10A83201886E15B91FFDC956966A0C666BB90581691E9703A76F9ABD1C18E3E78F87865
311
F7D91C7ADBF85A8257402E2520EB1F615CFCAC20A7090B409D963184F47703E487CD2A3818B49C63C8CF93463B0DD9A55DDDE2D7136B7EBF51D630DC9B9A60466889DB961A2C2A53F5BC3157C138145A16BFD2BE47587F01504B03041400060808001C3BB142C01374082B01000014020000310000006662782F3536454233
311
3437342D444335312D343133302D393933432D3832433244363743413834362F636F72652E786D6C8D515B6EC32010BC0AE22B55850D367E24C244ADD31BF402C4262E4A0C168F2AC72FD48ED4FEE58745B333B3A35D76BCCF37F02DAD53467790641802A907332A3D7530F80B6A213872668DF17F68106831CB0E26187236
311
5913960D1A8CF652FB886A33CA0D14CE490FC1708B9F0EBAE14BCE2213C14786BB668B18AE629219C9623BF23873DEC600601D925EC8ABFAE3BDA40D45A7BE22889212A3FDBEEC515BF4C5A96EFAB796D62C5F859C85A0C64DAEC618475D94B4CF9A2431675ECD8FF88395C2CB11F2029312E10A91E6133787821EAAE61557
311
8712B33CD1FF89C2323E290A4AFBB2D8E2AE32073961F9DAE06C34E17C7B8491F7C5580FD2BC9D93C30BE438C384E096E282E52B352E207AD674F374DED8B8E0DDF51CD9A45A8D6BCA599E6E14CBEF01634DF7E43F504B03041400060808001C3BB1424FAD6FDE4F01000033030000300000006662782F3536454233343734
311
2D444335312D343133302D393933432D3832433244363743413834362F636E782E786D6CD593CD6E022114855F85B06DE64F476D0C8349177D822EBA65E05AA90C4CF869EADBF7A268DDB8E8B21B3239F770CECD1786EDBE2743BEC007EDEC40BBBAA504AC744ADB8F81A6B8AF9E29D971E69D8B77364AAC9860A059A69C7D
311
7897E62229D88B6422AA46DB63113D0497BC848072BE498C93C26000D82AA108D3084A812237237EEDC1E32A288E27120F405E5FDE891B3F41C6C09A9CC259933B38CB6769BA3351228D0861A0411E6012B548D12908C75A8928EAAEBE763DD8E93789E40BD7CAE435C9E503CD27E565A31A39B206879C85E8915E31C5D30C
311
948B79365A8A88909BB3F1E2E12C691BD77DF16A04EFD1DDAD977D8F61E71967514F501CD28388A0285FB4DDB26A5755B7796B37DB45BF5D6D9EDAD576D9B226DB391B9D33E512C680773391CE46B091F28E3579FC085FF111A53DB276FEF4079008A0B45EE8DC32FE339FE6FCBE1197C7BF80FF00504B0304140006080800
311
1C3BB142413C4A46A505000080100000340000006662782F35364542333437342D444335312D343133302D393933432D3832433244363743413834362F6F626A656374732E786D6CAD575D8F9B3814FD2B887DD97D480849663A59315499645245D5B455A356FB1029326018760C46C6CC64F6D7EF313604D2649A5DF52504
311
737D7DEFB9E77ED87BBFCF98F54C4599F2FCD6768723DBA279C8A3344F6EED4AC6831BDB7AEF7B8273D911B3AD9C64F4D656CBB6EF25825785598A684C2A268F5657777F596548736A5B212365796B97E123CDC890549247B47C1A4644926112EF87EE500BF6D52682148F474A0B22682E6129D67368B1B4516EFF75643BBE
311
E7A8EFBEA77E8DD4E4BC9453FBD33F3FCD4B49F2F087C38ED44CDCE9F27E7C351B5C4DA793C1F47AEC0EEE5677CB81FB6E325A5C2F16B3F9FD0C0797524093B144D0D8F63F001B91869EA33FF95E95E67232362226408EA0CFA98A94ED8F2DD773B44CEB9D71F294F921CF731AD658018DDA3FA33AA205CD23C43CA5252CEB
311
2034EABFBA0AC7CEE7897A374776972F43A0BBA3A3A8B1BD79762DE5C1DF70A1BC8441A2A48A811A4BE3A8E6EAE88070C03933DFD2D2CA88A42225CC6269208878B57D882A11DFEBA9514C162A1B9407B68F28E8CF7DBA208D7ECEF35356C615638AC6B65F67C10EB94265595B96FE43C5C1FA2E32B009B1526CB8310EC9D7
311
82DAFE4C53E4E6884D1A482B662441C8E1A6DA39191F39BA5079BA5EDAFEC755B0DFA8DC3D7D782178418554F401B59AC0354F8592B1C9BD28726A837D64CA0194AF40FE1352FD600AE226D2FD743F35A74841F232E622436CAC913518E16764B9F5AFFADFF9E739EDE67EF4CEE189602BA87E019E7D1FBAB1ECC0E97BCF20
311
3C1713E3DA26240C65E321CD01902289C538965087E3606FFB6B54395465EC22CC77E132CC7DC65FCF316A5028EA933ACF1C581E95C50B0A3460AB19093334F98D818738FD50CEEA838DD83978AF7E095DE7CBCDC74D256212D20793D34B1AA7792AD1E20EBCE91AD4C3BCE7D1137D7DE12282A33FE2BDE9E29D99A34AA0AD
311
3057C0274D4D572F87937B0784D89770556EBC9F9C00275463EDE87F48CB90324672CAABE6DC37FB07DA86865825BB6272DB600E8D05A4D15F8E72104D3A1469A1406CBB555B348767BCFBB6FE0446429EF180B083507028BD21675CEC82D79DAE4A2791FEDEA7B681C0515AC0F63A479AF43798EFA2348EAB1235F004ACDF
311
D78B6EE85455408568B4EA6499C27DE4161186B38D5E346B41D04879BE4BD1369176270FE8EA07A28600B5C273169794C5BB94B12ADBC5294333DA65A43803C7FFB73FA8B26247325EE5F28CEE9EE9680E7DDB7BE42D5F880C1F6D7F533F077728BD118D0E61EE09AB567202AB7E6867A3F9BBB97B35B85FDCB883E9F27A34
311
98CDDDD56075BFBA9E5DDFDCBFBBBA5B3571D2CA7DAFE934DD844694D0D9BC4AA4267CDFD6481F53036CFF81C872FB416767F3FCB61E6214F61CEC41BB6C37CEA3678C7D34FAB98283E44945EBAC6034A3B9242A851ED41FF69560CCE819A3D7D71949E8055A3E7FD81C3983950BF67D51E94E5F8EF69AD5854AC8934AE463
311
95053949D9D1C64423392CF2C4E0D7C4A47DEA3ED3BCAA3713180CA62567698432185909E51995288617F42091D112D4EB8EF491B97A5CB0FB590F8892048C36963C12CCC8AC445A805A5528FBEBD66F98E9D458756BA3DB0E9FF0632A856D8133B73666749986B41C06E8CF6A12AA95834BDD411E733FC91386515B6F6ADF
311
DB5D0A9B5E476E452E199F8C5FBA821B0750460A8C0D9887109DDA18DFAB6D33DFC3FFE478638E4524FE06956C7D392CB4CED4C72045B553E6B28019E6C91CBD47A2BEED963BAC657A885C74C97A93045AEB401291D41705659F3169BEFCE26040B1D69FAD8255096279B9A681A02073A5121C2C022B8CCE82485075F1E7F6
311
8BE0B8C866D62A0505ACDFF737D77F6C173CCB78AE97B673731DB6368FB8DC465B1407AA6E25E5763C72C7DBFA36602E28BB80947448A2F2090B88AC485BA07BE1072FF595117D487F68E51C158A2386AE9796696C53283574E9D656050EE68E9C5AC82175A35419D31528DEBC1038B5284C1018E5FD7F01504B0304140006
311
0800001C3BB142000000000000000000000000350000006662782F35364542333437342D444335312D343133302D393933432D3832433244363743413834362F76657274696365732E62696E504B03041400060808001C3BB142F270F1330600000004000000360000006662782F35364542333437342D444335312D343133
311
302D393933432D3832433244363743413834362F747269616E676C65732E62696E636660600000504B03041400060800001C3BB142000000000000000000000000370000006662782F35364542333437342D444335312D343133302D393933432D3832433244363743413834362F617474726962757465732E62696E504B03
311
041400060808001C3BB142D5987DFC8F00000041010000360000006662782F35364542333437342D444335312D343133302D393933432D3832433244363743413834362F6469726563746F72792E786D6C858F410EC2201045AF4266AF15DDB800BA74E7C21B903225242D6328188F2FA5C4183471359997F9FF81E89FF3C4
311
1E1816475E02DF1F80A11FC8386F25A438EECEC07A250251FC3803E6F58C12560C4AD840E95E91C151A72936F496F35732D860FE635F62C8F2DA16B505C545B74125BAA2FA9E05D7CC053D063734D5C7665FD55B6B8D15D5E9BFEAFD8490FFA45E504B03041400060808001C3BB1427307246AFC000000A00100003B000000
311
6662782F35364542333437342D444335312D343133302D393933432D3832433244363743413834362F7265736F75726365732F636F72652E786D6C8D50596AC33010BD8A99DF226FB2516C6405A7B427E805843C714462C968293D7EE5D885F6AF3F33C35B98C7E3E7AFE5917DA2F3DA9A01AABC840C8DB29336F300315CC9
311
09B2B3E0CEDAF04B0699910B0EB0C120F8EC6C5C0F485913D084841A3BE1014AEF3140A61EE918C0AB1B2E3297312485BFE7AB547739635EE5894E3AC17D702940B63FD9260887DE46A7D0F36267058F514F87464FE9A7BE6A742058F7FED6748C91F1328EA4796D4772A269742D1D3BCAC64B436B5E6C66C1835E7E322A87
311
32E004A22E2B4ACA9654ECA3647DDDF42D7B29DB9E96BCD8E47F4C719DFE698ADA045A1F71779B0751A5204F42F062EB2BAD6799696FDD8A6F504B010214000A00000800001C3BB1423DEE336E79000000790000001B00000000000000000000000000000000006175746F6465736B2D64657369676E2D7061636B6167652E
311
786D6C504B010214001400060808001C3BB142D486FD9CA0000000F40000001300000000000000000000000000B20000005B436F6E74656E745F54797065735D2E786D6C504B010214001400060808001C3BB1428366B01AEA0000007C010000080000000000000000000000000083010000636F72652E786D6C504B010214
311
001400060808001C3BB14255019EA25F0000007C000000070000000000000000000000000093020000636E782E786D6C504B010214001400060808001C3BB142684F21CB66010000020300000C00000000000000000000000000170300006662782F636F72652E786D6C504B010214001400060808001C3BB142514182057E
311
0000009D0000000B00000000000000000000000000A70400006662782F636E782E786D6C504B010214001400060808001C3BB142C01374082B0100001402000031000000000000000000000000004E0500006662782F35364542333437342D444335312D343133302D393933432D3832433244363743413834362F636F7265
311
2E786D6C504B010214001400060808001C3BB1424FAD6FDE4F010000330300003000000000000000000000000000C80600006662782F35364542333437342D444335312D343133302D393933432D3832433244363743413834362F636E782E786D6C504B010214001400060808001C3BB142413C4A46A50500008010000034
311
00000000000000000000000000650800006662782F35364542333437342D444335312D343133302D393933432D3832433244363743413834362F6F626A656374732E786D6C504B010214001400060800001C3BB14200000000000000000000000035000000000000000000000000005C0E00006662782F3536454233343734
311
2D444335312D343133302D393933432D3832433244363743413834362F76657274696365732E62696E504B010214001400060808001C3BB142F270F13306000000040000003600000000000000000000000000AF0E00006662782F35364542333437342D444335312D343133302D393933432D383243324436374341383436
311
2F747269616E676C65732E62696E504B010214001400060800001C3BB1420000000000000000000000003700000000000000000000000000090F00006662782F35364542333437342D444335312D343133302D393933432D3832433244363743413834362F617474726962757465732E62696E504B01021400140006080800
311
1C3BB142D5987DFC8F0000004101000036000000000000000000000000005E0F00006662782F35364542333437342D444335312D343133302D393933432D3832433244363743413834362F6469726563746F72792E786D6C504B010214001400060808001C3BB1427307246AFC000000A00100003B00000000000000000000
311
000000411000006662782F35364542333437342D444335312D343133302D393933432D3832433244363743413834362F7265736F75726365732F636F72652E786D6C504B0506000000000E000E0080040000961100000000
310
504B03040A00000800001C3BB1423DEE336E79000000790000001B0000006175746F6465736B2D64657369676E2D7061636B6167652E786D6C3C3F786D6C2076657273696F6E3D22312E302220656E636F64696E673D227574662D3822203F3E3C666F726D6174733E3C666F726D61743E687474703A2F2F736368656D612E
310
6175746F6465736B2E636F6D2F64657369676E2D7061636B6167652F323030393C2F666F726D61743E3C2F666F726D6174733E504B03041400060808001C3BB142D486FD9CA0000000F4000000130000005B436F6E74656E745F54797065735D2E786D6C7D8EC10E82300C865F65E91D8A1E8C310C0EEA1BF002731658846E
310
D98AC1B77784ABF1D8FE5FBFBF75BBCE937A534CCEB38643598122B6FEE978D0B0485F9C41B54DDD7D022595594E1A469170414C76A4D9A4D207E29CF43ECE46F218070CC6BECC4078ACAA135ACF422C856C0E68EA1BF5669944DDD7BCDE7B1F8E415D77AECB980613C2E4AC91FC167A2B244592486606FC29C8FD7F045B9A
310
EF7053A7E60B504B03041400060808001C3BB1429001B5AFEB0000007C01000008000000636F72652E786D6C8D90D16E842010457FC5CC6B83828A6E0CB23175FD82FE0001D6925DC10834FDFCE2AE9BB46F7D9AC99D7B6626979DBF977BF6A5376F9CED81E418326DA553C6CE3DC4704527C8CE9C6DCE855F36C8AC58740F
310
BB0C9CCD9B8BEB21496783B621A9D6297D88C27B1D2093F7D4F4E0E5A75E442E62480E7FCB57216F62D6397975098ED1A8EC79C4A8B4CF5C8DDE80D3068F743C4D88D4D388EA13BDA081E006E1761AF0657C1FDAAA61C50E7316CCF2BA2F372D8256C04B4C2A842922ED076EBBB2EE68FB8669576156ECF63F505CD53FA168
310
6CA8CAE3DD27E68193F4C863C059B16791CA23A854F7DCF80F504B03041400060808001C3BB14255019EA25F0000007C00000007000000636E782E786D6C4DCB3B0E80201045D1AD90E915ED2CF8AC45050C11660C8261F98AB1B07AC9C97D42D718D865D3E909258CFD00CCE24AC6E326A164D74DC0B4128928FF32603847
310
2BA13128B1252AC747C6BAB984FC68F0B87FE8960A5C09FE86CFB69FBA01504B03041400060808001C3BB1428F61869767010000020300000C0000006662782F636F72652E786D6C8D52ED8A8330107C9590BF474CFCAAA5C49472B64F702F906AEA49359198481FFFD68FD2EB51CA21C430B3B33B3BCAF7B7AE45A3B24363
310
748EC38061A47469AA46D739F6EE42B618ED05B7C6B85F651869D9A91C4F3016BCB6C6F72B541AED9476806A53A91594C3A01C46650B971C0FE5B7EA6420BD838AE11AF4B2BCCA5A05610034D4093E380B06D032643AB1B89C6F9C2EB8E0DE37D5CA36154C6B2E8DB258A41B56A4C5F644C2E45490649B1EC921641BC2B2D3
310
811D8BCF43166F389DC482BBA6BBBB2BAD924E5558442C8C094B49987DB16C1725BB34FB60E92E669C4EE54F22DF57FF14F946BB385AED2EB2018B108CCCC49F6D2122870639821F2A389D4284D79CF073D0100884ECE4B9BDEF71056854A5333601A632FE418DB2F50AA632343F9C2E2C749E1BC0662FFB446FFABCEF011F
310
50EA1AAC4907D7B377D374BE4C5DA3E89525A3BB216D6C27DB87B9C5E2E37C0C7A292F4D6BEC7FD4745D95AE61D2E9EF153F504B03041400060808001C3BB142316B45C67E0000009D0000000B0000006662782F636E782E786D6C4DCCD10A83201886E15B91FFDCD53F1B6BA08695BB8F581692E9703A76F9ABD1C18E3E78
310
F87879F3591D799BF8B2C10BC05309C4F84718AD9F05E434D11A4823790C21FDDD80F86135027606C9E718F2F3A0D14C4376695367FD72608B8AB13B6B69D97515AD1035BDE9ABA697FAACB1EFB5520CA190BCF895B6DDC3F20B504B03041400060808001C3BB14265EC6D952D01000014020000310000006662782F423141
310
33334633422D304343342D343131452D394537452D3538324531444445414133312F636F72652E786D6C8D515B6EC32010BC0AE22B55850DC68EE30813E5E19EA0172036495162B07854397EA176A4F62F3F80666766875DB67B8C77F02DAD5346B790641802A97B33287D6D61F017B48160C79935C6FFA141A0C5285B9860
310
C8D9D59A302D506FB497DA47549B412EA0704E7A08FA7B7CB4D0F55F721499083E32DC2D9B447F135799912C96238F33E76D0C00E626E984FC40F6947ED003C2C763894A423AD4747587AA4DD191D3A9DBEF2961F92CE42C04352C7235C438EAA2A47DD5248939F36A7CC6EFAD145E0E90179850842B44EA4F5C6F8B725BD5
310
EFB8DA52CCF244FF270AD3F0A22828ED69B1C49D650EF2F89BB9C0D960C2F9FE0C231F93B11EA47E2B27FB37C871860929EB66DDB07CA6C60144CF75B9783A6F6C1CF0EA768EEC34A664BC2E39CBD38EE2F5BBC078A77DF21F504B03041400060808001C3BB142290AA0C95601000033030000300000006662782F42314133
310
334633422D304343342D343131452D394537452D3538324531444445414133312F636E782E786D6CBD93CD6EC32010845F0571ADFC173B3F8A30917AE813F4D02B864D4383C1025C356FDF2521692E3954AA7A41D6EC30B3FA84D9EE6B34E4137CD0CEF6B4296B4AC04AA7B47DEFE91CF7C586921D67DEB97867A3C48A117A
310
9A64CAD9BB77F39425057B319B88AAD1F698450FC1CD5E424039DD24C6496130006C31A308E3004A812237237EEDC1E32A280E27120F405E9EDF881B3E40C6C0AA94C259953A384B676EBA3351228D08A1A7411E6014A598A353108EA51251944D79ED7AB0D34F124917AE95B3D72495F7349D94E78D4AE4C82A1C7216A247
310
7AD9144F13502EA6C968292242AECEC68B87B359DBB8EAB25723788FEE76B1DA6C30EC3CE32CEA11B2437A101114E58BBA698B7A5934EBD77ABD5D74DBE5FAA95E6EDB9A55C9CED9E09CC9973006BC9B887436828D9437AC4AE347F8B28F28ED91B5F3A75F804400B9F542E796F1977C9A55DB75FFC8A73ABF6FC4E5F12FE0
310
DF504B03041400060808001C3BB142019EF89763070000991B0000340000006662782F42314133334633422D304343342D343131452D394537452D3538324531444445414133312F6F626A656374732E786D6CED595B73A33614FE2B0C7D691F8C4DEC64930EA1933897F1EC647767DDDDE98367181964A24608461289D35F
310
DFA30B18884970377DDB071B10D2D139DFB9EA10FCB1CDA8F388B920393B777D6FE23A98C57942587AEE9672333A759D3FC280E7B96C4C731D86327CEEAA61370C529E97851D4AF006955476466F2EFF72448C19769D982221CE5D11DFE30C79A8947982C583972089BC74B3F57CCF4C6C934D392AEE3B440BC43193C0298C
310
33A0E218A6FCF6E3C41D87C158BD0F03F56F674D07CD9AF5CF1A6BA9DB5C12262462F10B963A64A683589AFAB3ABEBA3E3B3D1F16C361DCD4E8EFCD1E5CDE5D5C8FF309DCC4FE6F3B38BEB33606F9DE7D4CA94E002B304F4F7EC867E30566F6AD12D02FBB88E73C670AC8104A8B4585D82040BD8AA01DFA4FDE82B891AAFB5
310
848DE7997A6F59680C4FDB54FA660D03A2451704B1DB551257D7A67CF9FA6F105C0C314A2EB0046E85E4A05D0B0F07AF70C3493036A361B0DEE982082743127382A843C99A230E4A81A96A4A189805968C720E0EA41C2581D69C79DDB62DF0CCB75D671F979B9252E5196EA81D2B02F7C35268CEC83F98EFB86F22033C81B4
310
2561F2D472299F0BEC8667C1580F8681BA4C8FEC4B03A4B3A128151A11F3B623E85CB9FEE2CA0D3FDEACB74B150EF66F5EF0BCC05C2AA3537AD47C8121DBAB42C96EEB0FD29C5A00C21850EDCA1D285F01F94F103D76AC80DE38D9CEB6333B5772C4C426E719E8C69938A309FC4D1C5FFFABFBC65D30AE17B7B5D78727B8A9
310
82EAF4C7F16CCBA0B1B2FC37E00C834730F89C4FEDAB658C28D8F31D610090321287E63004A17DB3DEBAE1020227047A588568E883C8C0EE23DC06634B66A795CABDACD73140D4EE311DA224804D5B24B0D1A3A75BC81E9CC43B353545EC83F7F85DCCF5E26AF97159F20D8AF19DF5E92BBC218C48C89AFB196A61DE92E801
310
3F3FE53C01415FE2BD6CE29DD9AD04A0AD3057C0A71508EA61B7736B8318D6A5B90A37C11B3B80102A5737E8DF1111634A11C37959ED5B473765A8B5C7DB9AC10D8F0CC4D3A38E0973FC485455014EB39BD16214F27ECC49A14074C35B23591D34BD1EE9BE2D3E8145D6F37B662D18845E86E89F3A68EDC1A165D915D21688
310
5AE0F52E9CC739CD79B47E8E4CA473A1960036DADEF2BD451462BD5192A2021EA4FDAE0A29A991364AC866530A88AB7B58FCBE9837CD61E24DFD63A7F9DF71C619445BF05DC4ADDF75F6884886521C6D50D2B75D73B79AB6D0247B4873BCA120177924F23942329A24383D049A83889FBD2BF594E642108605E4ABBDE037D1
310
987810488C362B9695563B4013116558227A08028A4C0FB83AEDE81A3786D2E16D1E6BEB7D4D634DA2FF93457004B564CE2202A528E4903719F7BD6388216D740DCA1D7CC1DA2ADA5A0C5A4209113F474F98A4F7F210D40DF91EDC6338929432CA0B1483590F20FBC25794523BBCAF51FCA0F2471497F4BD0C4460BA8908A5
310
6516C18F3038790C71ED3A30BD8A4283B8897D126750942159F2219B9C1C4F5EEC636A866E086C6CB42114C27694A1A207F55640D4F58853836FA9F728755D664584B2BC64830CC59B76BDC992EFAA55911DC8AF2A15A16CAC085B82614098ACB36A15B3C1D475600537D281EA3912282BA83985BD9178FCDA9B34E5DE0DB8
310
F5D3F7DD2083C2AF477BCD883AAB60B03CB60A03F184647CEF864B7D1D5D42FD9DE06497EAAB5AB3590102622A92979C58157D5B4079636B3437BC4352AC6E4DD6ADAEDF161E743F8231AC81DAA55EB85040679849A42A933B7543BF2208C12D1A667CA172EA21542E9244578D88DE903E75B6CA88D6A619F18A7BCCF20C7E
310
6C45584CCB04AF50221EA23B49A32551AC5B29BD8C5418BF2AE0E7DB65071E181920D21755E0E1A7CE5A3B3A57E5D25E22F2BECCD60C1108822DD152A31BAF60A9D548A5E5FAAACE14507781815915CF7E9E2C9AED889F278BD41AC68F9D2C68BE4674176D1AD93C56667DD029A04E4F8ACA7B9C0274D7A1A65A271193CBAD
310
F8D69722888955901F5C8C5531C310ECE3F83F27EDBE2468B6EBF07F58D2F65F141C072595D664D5A4DA53B82E9A29CC3F9B5C7CB8F08F47D7F3537F34BB3A998CCE2EFC9BD1CDF5CDC9D9C9E9F587E3CB9B1A4DEDA76150C7329DBAE0D9C4B46A583D590CA0292B724A1238CC274E8A21E44B38D20FE89EF30C0BC89DCD5E
310
77627BF203563F9A36A7446B8A2B4EEE11F487A980AC0E1895B16C8F3BBF406752C239FBDC859E91F7007FD62A5D0712CFB90B9D0249622CBC357499543F4F13878CAB53BF2506F82096AA8C6816D5CFF52A854D2BFAD7538664012B57AB8501755B01CDAF568342F366798A0F12BC62C741126ED7A58462CDC8B21BA885D1
310
DBECD46F64A3843DD8ADB7E0BAAF8BE57B7A4E0B91415F0C5E3502437524114F75BB5B316659BAB8FA3286369BB3F8EC14B44C4197C3298D3806632E553D055604566169164882A9CE7F5F7DE1397CE1C91C5D1439BF6E4F4F7E5BCDF32CCB99195A5DC0A12C81EF44CEF21EBEFA242BA81DB0EAAD8BD5D1C43F5AE99EB66D
310
B3476B24B0A78A2218A86A092548C7E4C02E5FF4A76CF772AC54D199BEB8726C10855E80B1A3172D5EF38DCB011F525F5394C7683FAFA47DB5AD3DD653C1263834A4C37F01504B03041400060800001C3BB142000000000000000000000000350000006662782F42314133334633422D304343342D343131452D394537452D
310
3538324531444445414133312F76657274696365732E62696E504B03041400060808001C3BB142F270F1330600000004000000360000006662782F42314133334633422D304343342D343131452D394537452D3538324531444445414133312F747269616E676C65732E62696E636660600000504B03041400060800001C3B
310
B142000000000000000000000000370000006662782F42314133334633422D304343342D343131452D394537452D3538324531444445414133312F617474726962757465732E62696E504B03041400060808001C3BB142D5987DFC8F00000041010000360000006662782F42314133334633422D304343342D343131452D39
310
4537452D3538324531444445414133312F6469726563746F72792E786D6C858F410EC2201045AF4266AF15DDB800BA74E7C21B903225242D6328188F2FA5C4183471359997F9FF81E89FF3C41E1816475E02DF1F80A11FC8386F25A438EECEC07A250251FC3803E6F58C12560C4AD840E95E91C151A72936F496F35732D860
310
FE635F62C8F2DA16B505C545B74125BAA2FA9E05D7CC053D063734D5C7665FD55B6B8D15D5E9BFEAFD8490FFA45E504B03041400060808001C3BB142F8EBE89EFE000000A00100003B0000006662782F42314133334633422D304343342D343131452D394537452D3538324531444445414133312F7265736F75726365732F
310
636F72652E786D6C8D50596AC33010BD8A99DF225BF21287202B98DA39412F20E44922124B464BE9F12BC72EB47FFD9919DEC23C1E3F7FCDCFEC139DD7D674C0720A191A65276D6E1DC4702547C8CE823B6BC32F196446CED8C10A83E03767E3B243CA9A802624D4D80977507A8F0132F54C47075EDD7196B98C2129FC235F
310
A47AC81BE62C4F74D209EE834B01B2EDC93A4138F4363A859E171B2B788C7ADA357A4A3FF555A303D11CE8D00CC791B0FA3290FAD88CA467F440687BE9E938BCF76D75E0C56A163CE8F927A37228034E204ACA2A421BC2DA0FDA9ECAFAD4B46FB439559417ABFC8F292ED33F4D519B50957BDCCDE641B014E445085EAC7DA5
310
F52A33EDB55BF10D504B010214000A00000800001C3BB1423DEE336E79000000790000001B00000000000000000000000000000000006175746F6465736B2D64657369676E2D7061636B6167652E786D6C504B010214001400060808001C3BB142D486FD9CA0000000F40000001300000000000000000000000000B2000000
310
5B436F6E74656E745F54797065735D2E786D6C504B010214001400060808001C3BB1429001B5AFEB0000007C010000080000000000000000000000000083010000636F72652E786D6C504B010214001400060808001C3BB14255019EA25F0000007C000000070000000000000000000000000094020000636E782E786D6C50
310
4B010214001400060808001C3BB1428F61869767010000020300000C00000000000000000000000000180300006662782F636F72652E786D6C504B010214001400060808001C3BB142316B45C67E0000009D0000000B00000000000000000000000000A90400006662782F636E782E786D6C504B010214001400060808001C
310
3BB14265EC6D952D010000140200003100000000000000000000000000500500006662782F42314133334633422D304343342D343131452D394537452D3538324531444445414133312F636F72652E786D6C504B010214001400060808001C3BB142290AA0C956010000330300003000000000000000000000000000CC0600
310
006662782F42314133334633422D304343342D343131452D394537452D3538324531444445414133312F636E782E786D6C504B010214001400060808001C3BB142019EF89763070000991B00003400000000000000000000000000700800006662782F42314133334633422D304343342D343131452D394537452D35383245
310
31444445414133312F6F626A656374732E786D6C504B010214001400060800001C3BB1420000000000000000000000003500000000000000000000000000251000006662782F42314133334633422D304343342D343131452D394537452D3538324531444445414133312F76657274696365732E62696E504B010214001400
310
060808001C3BB142F270F13306000000040000003600000000000000000000000000781000006662782F42314133334633422D304343342D343131452D394537452D3538324531444445414133312F747269616E676C65732E62696E504B010214001400060800001C3BB14200000000000000000000000037000000000000
310
00000000000000D21000006662782F42314133334633422D304343342D343131452D394537452D3538324531444445414133312F617474726962757465732E62696E504B010214001400060808001C3BB142D5987DFC8F000000410100003600000000000000000000000000271100006662782F42314133334633422D3043
310
43342D343131452D394537452D3538324531444445414133312F6469726563746F72792E786D6C504B010214001400060808001C3BB142F8EBE89EFE000000A00100003B000000000000000000000000000A1200006662782F42314133334633422D304343342D343131452D394537452D3538324531444445414133312F72
310
65736F75726365732F636F72652E786D6C504B0506000000000E000E0080040000611300000000
  0
XRECORD
  5
27
102
{ACAD_REACTORS
330
22
102
}
330
22
100
AcDbXrecord
280
     1
270
     1
271
     1
  0
XRECORD
  5
26
102
{ACAD_REACTORS
330
22
102
}
330
22
100
AcDbXrecord
280
     1
270
     1
271
     1
  0
XRECORD
  5
28
102
{ACAD_REACTORS
330
22
102
}
330
22
100
AcDbXrecord
280
     1
270
     1
271
     1
  0
XRECORD
  5
25
102
{ACAD_REACTORS
330
22
102
}
330
22
100
AcDbXrecord
280
     1
270
     1
271
     1
  0
XRECORD
  5
158B
102
{ACAD_REACTORS
330
158A
102
}
330
158A
100
AcDbXrecord
280
     1
102
ACAD_ROUNDTRIP_2012_MLEADER_STYLE
298
     1
  0
CELLSTYLEMAP
  5
1589
102
{ACAD_REACTORS
330
1588
102
}
330
1588
100
AcDbCellStyleMap
 90
        3
300
CELLSTYLE
  1
TABLEFORMAT_BEGIN
 90
        5
170
     1
 91
        0
 92
    32768
 62
   257
 93
        1
300
CONTENTFORMAT
  1
CONTENTFORMAT_BEGIN
 90
        0
 91
        0
 92
      512
 93
        0
300

 40
0.0
140
1.0
 94
        5
 62
     0
340
55
144
0.25
309
CONTENTFORMAT_END
171
     0
 94
        0
309
TABLEFORMAT_END
  1
CELLSTYLE_BEGIN
 90
        1
 91
        1
300
_TITLE
309
CELLSTYLE_END
300
CELLSTYLE
  1
TABLEFORMAT_BEGIN
 90
        5
170
     1
 91
        0
 92
        0
 62
   257
 93
        1
300
CONTENTFORMAT
  1
CONTENTFORMAT_BEGIN
 90
        0
 91
        0
 92
      512
 93
        0
300

 40
0.0
140
1.0
 94
        5
 62
     0
340
55
144
0.18
309
CONTENTFORMAT_END
171
     0
 94
        0
309
TABLEFORMAT_END
  1
CELLSTYLE_BEGIN
 90
        2
 91
        1
300
_HEADER
309
CELLSTYLE_END
300
CELLSTYLE
  1
TABLEFORMAT_BEGIN
 90
        5
170
     1
 91
        0
 92
        0
 62
   257
 93
        1
300
CONTENTFORMAT
  1
CONTENTFORMAT_BEGIN
 90
        0
 91
        0
 92
      512
 93
        0
300

 40
0.0
140
1.0
 94
        2
 62
     0
340
55
144
0.18
309
CONTENTFORMAT_END
171
     0
 94
        0
309
TABLEFORMAT_END
  1
CELLSTYLE_BEGIN
 90
        3
 91
        2
300
_DATA
309
CELLSTYLE_END
  0
XRECORD
  5
15C2
102
{ACAD_REACTORS
330
1588
102
}
330
1588
100
AcDbXrecord
280
     1
102
ACAD_ROUNDTRIP_PRE2007_TABLESTYLE
 90
      512
 91
        0
  1

 92
      512
 93
        0
  2

 94
      512
 95
        0
  3

  0
XRECORD
  5
159D
102
{ACAD_REACTORS
330
159C
102
}
330
159C
100
AcDbXrecord
280
     1
102
RTVSPropertyOp0
 70
     1
102
RTVSPropertyOp1
 70
     1
102
RTVSPropertyOp2
 70
     1
102
RTVSPropertyOp3
 70
     1
102
RTVSPropertyOp4
 70
     1
102
RTVSPropertyOp5
 70
     1
102
RTVSPropertyOp6
 70
     1
102
RTVSPropertyOp7
 70
     1
102
RTVSPropertyOp8
 70
     1
102
RTVSPropertyOp9
 70
     1
102
RTVSPropertyOp10
 70
     1
102
RTVSPropertyOp11
 70
     1
102
RTVSPropertyOp12
 70
     1
102
RTVSPropertyOp13
 70
     1
102
RTVSPropertyOp14
 70
     1
102
RTVSPropertyOp15
 70
     1
102
RTVSPropertyOp16
 70
     1
102
RTVSPropertyOp17
 70
     1
102
RTVSPropertyOp18
 70
     1
102
RTVSPropertyOp19
 70
     1
102
RTVSPropertyOp20
 70
     1
102
RTVSPropertyOp21
 70
     1
102
RTVSPropertyOp22
 70
     1
102
RTVSPropertyOp23
 70
     1
102
RTVSPropertyOp24
 70
     1
102
RTVSPropertyOp25
 70
     1
102
RTVSPropertyOp26
 70
     1
102
RTVSPropertyOp27
 70
     1
102
RTVSPropertyOp28
 70
     1
102
RTVSPropertyOp29
 70
     1
102
RTVSPropertyOp30
 70
     1
102
RTVSPropertyOp31
 70
     1
102
RTVSPropertyOp32
 70
     1
  0
XRECORD
  5
159B
102
{ACAD_REACTORS
330
159A
102
}
330
159A
100
AcDbXrecord
280
     1
102
RTVSPropertyOp0
 70
     1
102
RTVSPropertyOp1
 70
     1
102
RTVSPropertyOp2
 70
     1
102
RTVSPropertyOp3
 70
     1
102
RTVSPropertyOp4
 70
     1
102
RTVSPropertyOp5
 70
     1
102
RTVSPropertyOp6
 70
     1
102
RTVSPropertyOp7
 70
     1
102
RTVSPropertyOp8
 70
     1
102
RTVSPropertyOp9
 70
     1
102
RTVSPropertyOp10
 70
     1
102
RTVSPropertyOp11
 70
     1
102
RTVSPropertyOp12
 70
     1
102
RTVSPropertyOp13
 70
     1
102
RTVSPropertyOp14
 70
     1
102
RTVSPropertyOp15
 70
     1
102
RTVSPropertyOp16
 70
     1
102
RTVSPropertyOp17
 70
     1
102
RTVSPropertyOp18
 70
     1
102
RTVSPropertyOp19
 70
     1
102
RTVSPropertyOp20
 70
     1
102
RTVSPropertyOp21
 70
     1
102
RTVSPropertyOp22
 70
     1
102
RTVSPropertyOp23
 70
     1
102
RTVSPropertyOp24
 70
     1
102
RTVSPropertyOp25
 70
     1
102
RTVSPropertyOp26
 70
     1
102
RTVSPropertyOp27
 70
     1
102
RTVSPropertyOp28
 70
     1
102
RTVSPropertyOp29
 70
     1
102
RTVSPropertyOp30
 70
     1
102
RTVSPropertyOp31
 70
     1
102
RTVSPropertyOp32
 70
     1
  0
XRECORD
  5
15A9
102
{ACAD_REACTORS
330
15A8
102
}
330
15A8
100
AcDbXrecord
280
     1
102
RTVSPropertyOp0
 70
     1
102
RTVSPropertyOp1
 70
     1
102
RTVSPropertyOp2
 70
     1
102
RTVSPropertyOp3
 70
     1
102
RTVSPropertyOp4
 70
     1
102
RTVSPropertyOp5
 70
     1
102
RTVSPropertyOp6
 70
     1
102
RTVSPropertyOp7
 70
     1
102
RTVSPropertyOp8
 70
     1
102
RTVSPropertyOp9
 70
     1
102
RTVSPropertyOp10
 70
     1
102
RTVSPropertyOp11
 70
     1
102
RTVSPropertyOp12
 70
     1
102
RTVSPropertyOp13
 70
     1
102
RTVSPropertyOp14
 70
     1
102
RTVSPropertyOp15
 70
     1
102
RTVSPropertyOp16
 70
     1
102
RTVSPropertyOp17
 70
     1
102
RTVSPropertyOp18
 70
     1
102
RTVSPropertyOp19
 70
     1
102
RTVSPropertyOp20
 70
     1
102
RTVSPropertyOp21
 70
     1
102
RTVSPropertyOp22
 70
     1
102
RTVSPropertyOp23
 70
     1
102
RTVSPropertyOp24
 70
     1
102
RTVSPropertyOp25
 70
     1
102
RTVSPropertyOp26
 70
     1
102
RTVSPropertyOp27
 70
     1
102
RTVSPropertyOp28
 70
     1
102
RTVSPropertyOp29
 70
     1
102
RTVSPropertyOp30
 70
     1
102
RTVSPropertyOp31
 70
     1
102
RTVSPropertyOp32
 70
     1
  0
XRECORD
  5
15B1
102
{ACAD_REACTORS
330
15B0
102
}
330
15B0
100
AcDbXrecord
280
     1
102
RTVSPropertyOp0
 70
     1
102
RTVSPropertyOp1
 70
     1
102
RTVSPropertyOp2
 70
     1
102
RTVSPropertyOp3
 70
     1
102
RTVSPropertyOp4
 70
     1
102
RTVSPropertyOp5
 70
     1
102
RTVSPropertyOp6
 70
     1
102
RTVSPropertyOp7
 70
     1
102
RTVSPropertyOp8
 70
     1
102
RTVSPropertyOp9
 70
     1
102
RTVSPropertyOp10
 70
     1
102
RTVSPropertyOp11
 70
     1
102
RTVSPropertyOp12
 70
     1
102
RTVSPropertyOp13
 70
     1
102
RTVSPropertyOp14
 70
     1
102
RTVSPropertyOp15
 70
     1
102
RTVSPropertyOp16
 70
     1
102
RTVSPropertyOp17
 70
     1
102
RTVSPropertyOp18
 70
     1
102
RTVSPropertyOp19
 70
     1
102
RTVSPropertyOp20
 70
     1
102
RTVSPropertyOp21
 70
     1
102
RTVSPropertyOp22
 70
     1
102
RTVSPropertyOp23
 70
     1
102
RTVSPropertyOp24
 70
     1
102
RTVSPropertyOp25
 70
     1
102
RTVSPropertyOp26
 70
     1
102
RTVSPropertyOp27
 70
     1
102
RTVSPropertyOp28
 70
     1
102
RTVSPropertyOp29
 70
     1
102
RTVSPropertyOp30
 70
     1
102
RTVSPropertyOp31
 70
     1
102
RTVSPropertyOp32
 70
     1
  0
XRECORD
  5
15A3
102
{ACAD_REACTORS
330
15A2
102
}
330
15A2
100
AcDbXrecord
280
     1
102
RTVSPropertyOp0
 70
     1
102
RTVSPropertyOp1
 70
     1
102
RTVSPropertyOp2
 70
     1
102
RTVSPropertyOp3
 70
     1
102
RTVSPropertyOp4
 70
     1
102
RTVSPropertyOp5
 70
     1
102
RTVSPropertyOp6
 70
     1
102
RTVSPropertyOp7
 70
     1
102
RTVSPropertyOp8
 70
     1
102
RTVSPropertyOp9
 70
     1
102
RTVSPropertyOp10
 70
     1
102
RTVSPropertyOp11
 70
     1
102
RTVSPropertyOp12
 70
     1
102
RTVSPropertyOp13
 70
     1
102
RTVSPropertyOp14
 70
     1
102
RTVSPropertyOp15
 70
     1
102
RTVSPropertyOp16
 70
     1
102
RTVSPropertyOp17
 70
     1
102
RTVSPropertyOp18
 70
     1
102
RTVSPropertyOp19
 70
     1
102
RTVSPropertyOp20
 70
     1
102
RTVSPropertyOp21
 70
     1
102
RTVSPropertyOp22
 70
     1
102
RTVSPropertyOp23
 70
     1
102
RTVSPropertyOp24
 70
     1
102
RTVSPropertyOp25
 70
     1
102
RTVSPropertyOp26
 70
     1
102
RTVSPropertyOp27
 70
     1
102
RTVSPropertyOp28
 70
     1
102
RTVSPropertyOp29
 70
     1
102
RTVSPropertyOp30
 70
     1
102
RTVSPropertyOp31
 70
     1
102
RTVSPropertyOp32
 70
     1
  0
XRECORD
  5
15A7
102
{ACAD_REACTORS
330
15A6
102
}
330
15A6
100
AcDbXrecord
280
     1
102
RTVSPropertyOp0
 70
     1
102
RTVSPropertyOp1
 70
     1
102
RTVSPropertyOp2
 70
     1
102
RTVSPropertyOp3
 70
     1
102
RTVSPropertyOp4
 70
     1
102
RTVSPropertyOp5
 70
     1
102
RTVSPropertyOp6
 70
     1
102
RTVSPropertyOp7
 70
     1
102
RTVSPropertyOp8
 70
     1
102
RTVSPropertyOp9
 70
     1
102
RTVSPropertyOp10
 70
     1
102
RTVSPropertyOp11
 70
     1
102
RTVSPropertyOp12
 70
     1
102
RTVSPropertyOp13
 70
     1
102
RTVSPropertyOp14
 70
     1
102
RTVSPropertyOp15
 70
     1
102
RTVSPropertyOp16
 70
     1
102
RTVSPropertyOp17
 70
     1
102
RTVSPropertyOp18
 70
     1
102
RTVSPropertyOp19
 70
     1
102
RTVSPropertyOp20
 70
     1
102
RTVSPropertyOp21
 70
     1
102
RTVSPropertyOp22
 70
     1
102
RTVSPropertyOp23
 70
     1
102
RTVSPropertyOp24
 70
     1
102
RTVSPropertyOp25
 70
     1
102
RTVSPropertyOp26
 70
     1
102
RTVSPropertyOp27
 70
     1
102
RTVSPropertyOp28
 70
     1
102
RTVSPropertyOp29
 70
     1
102
RTVSPropertyOp30
 70
     1
102
RTVSPropertyOp31
 70
     1
102
RTVSPropertyOp32
 70
     1
  0
XRECORD
  5
15C1
102
{ACAD_REACTORS
330
15C0
102
}
330
15C0
100
AcDbXrecord
280
     1
102
RTVSPropertyOp0
 70
     0
102
RTVSPropertyOp1
 70
     0
102
RTVSPropertyOp2
 70
     0
102
RTVSPropertyOp3
 70
     0
102
RTVSPropertyOp4
 70
     0
102
RTVSPropertyOp5
 70
     0
102
RTVSPropertyOp6
 70
     0
102
RTVSPropertyOp7
 70
     0
102
RTVSPropertyOp8
 70
     0
102
RTVSPropertyOp9
 70
     0
102
RTVSPropertyOp10
 70
     0
102
RTVSPropertyOp11
 70
     0
102
RTVSPropertyOp12
 70
     0
102
RTVSPropertyOp13
 70
     0
102
RTVSPropertyOp14
 70
     2
102
RTVSPropertyOp15
 70
     0
102
RTVSPropertyOp16
 70
     0
102
RTVSPropertyOp17
 70
     0
102
RTVSPropertyOp18
 70
     0
102
RTVSPropertyOp19
 70
     0
102
RTVSPropertyOp20
 70
     0
102
RTVSPropertyOp21
 70
     0
102
RTVSPropertyOp22
 70
     0
102
RTVSPropertyOp23
 70
     0
102
RTVSPropertyOp24
 70
     0
102
RTVSPropertyOp25
 70
     0
102
RTVSPropertyOp26
 70
     0
102
RTVSPropertyOp27
 70
     0
102
RTVSPropertyOp28
 70
     1
102
RTVSPropertyOp29
 70
     1
102
RTVSPropertyOp30
 70
     1
102
RTVSPropertyOp31
 70
     1
102
RTVSPropertyOp32
 70
     1
  0
XRECORD
  5
15AF
102
{ACAD_REACTORS
330
15AE
102
}
330
15AE
100
AcDbXrecord
280
     1
102
RTVSPropertyOp0
 70
     1
102
RTVSPropertyOp1
 70
     1
102
RTVSPropertyOp2
 70
     1
102
RTVSPropertyOp3
 70
     1
102
RTVSPropertyOp4
 70
     1
102
RTVSPropertyOp5
 70
     1
102
RTVSPropertyOp6
 70
     1
102
RTVSPropertyOp7
 70
     1
102
RTVSPropertyOp8
 70
     1
102
RTVSPropertyOp9
 70
     1
102
RTVSPropertyOp10
 70
     1
102
RTVSPropertyOp11
 70
     1
102
RTVSPropertyOp12
 70
     1
102
RTVSPropertyOp13
 70
     1
102
RTVSPropertyOp14
 70
     1
102
RTVSPropertyOp15
 70
     1
102
RTVSPropertyOp16
 70
     1
102
RTVSPropertyOp17
 70
     1
102
RTVSPropertyOp18
 70
     1
102
RTVSPropertyOp19
 70
     1
102
RTVSPropertyOp20
 70
     1
102
RTVSPropertyOp21
 70
     1
102
RTVSPropertyOp22
 70
     1
102
RTVSPropertyOp23
 70
     1
102
RTVSPropertyOp24
 70
     1
102
RTVSPropertyOp25
 70
     1
102
RTVSPropertyOp26
 70
     1
102
RTVSPropertyOp27
 70
     1
102
RTVSPropertyOp28
 70
     1
102
RTVSPropertyOp29
 70
     1
102
RTVSPropertyOp30
 70
     1
102
RTVSPropertyOp31
 70
     1
102
RTVSPropertyOp32
 70
     1
  0
XRECORD
  5
1593
102
{ACAD_REACTORS
330
1592
102
}
330
1592
100
AcDbXrecord
280
     1
102
RTVSPropertyOp0
 70
     1
102
RTVSPropertyOp1
 70
     1
102
RTVSPropertyOp2
 70
     1
102
RTVSPropertyOp3
 70
     1
102
RTVSPropertyOp4
 70
     1
102
RTVSPropertyOp5
 70
     1
102
RTVSPropertyOp6
 70
     1
102
RTVSPropertyOp7
 70
     1
102
RTVSPropertyOp8
 70
     1
102
RTVSPropertyOp9
 70
     1
102
RTVSPropertyOp10
 70
     1
102
RTVSPropertyOp11
 70
     1
102
RTVSPropertyOp12
 70
     1
102
RTVSPropertyOp13
 70
     1
102
RTVSPropertyOp14
 70
     1
102
RTVSPropertyOp15
 70
     1
102
RTVSPropertyOp16
 70
     1
102
RTVSPropertyOp17
 70
     1
102
RTVSPropertyOp18
 70
     1
102
RTVSPropertyOp19
 70
     1
102
RTVSPropertyOp20
 70
     1
102
RTVSPropertyOp21
 70
     1
102
RTVSPropertyOp22
 70
     1
102
RTVSPropertyOp23
 70
     1
102
RTVSPropertyOp24
 70
     1
102
RTVSPropertyOp25
 70
     1
102
RTVSPropertyOp26
 70
     1
102
RTVSPropertyOp27
 70
     1
102
RTVSPropertyOp28
 70
     1
102
RTVSPropertyOp29
 70
     1
102
RTVSPropertyOp30
 70
     1
102
RTVSPropertyOp31
 70
     1
102
RTVSPropertyOp32
 70
     1
  0
XRECORD
  5
1595
102
{ACAD_REACTORS
330
1594
102
}
330
1594
100
AcDbXrecord
280
     1
102
RTVSPropertyOp0
 70
     1
102
RTVSPropertyOp1
 70
     1
102
RTVSPropertyOp2
 70
     1
102
RTVSPropertyOp3
 70
     1
102
RTVSPropertyOp4
 70
     1
102
RTVSPropertyOp5
 70
     1
102
RTVSPropertyOp6
 70
     1
102
RTVSPropertyOp7
 70
     1
102
RTVSPropertyOp8
 70
     1
102
RTVSPropertyOp9
 70
     1
102
RTVSPropertyOp10
 70
     1
102
RTVSPropertyOp11
 70
     1
102
RTVSPropertyOp12
 70
     1
102
RTVSPropertyOp13
 70
     1
102
RTVSPropertyOp14
 70
     1
102
RTVSPropertyOp15
 70
     1
102
RTVSPropertyOp16
 70
     1
102
RTVSPropertyOp17
 70
     1
102
RTVSPropertyOp18
 70
     1
102
RTVSPropertyOp19
 70
     1
102
RTVSPropertyOp20
 70
     1
102
RTVSPropertyOp21
 70
     1
102
RTVSPropertyOp22
 70
     1
102
RTVSPropertyOp23
 70
     1
102
RTVSPropertyOp24
 70
     1
102
RTVSPropertyOp25
 70
     1
102
RTVSPropertyOp26
 70
     1
102
RTVSPropertyOp27
 70
     1
102
RTVSPropertyOp28
 70
     1
102
RTVSPropertyOp29
 70
     1
102
RTVSPropertyOp30
 70
     1
102
RTVSPropertyOp31
 70
     1
102
RTVSPropertyOp32
 70
     1
  0
XRECORD
  5
1597
102
{ACAD_REACTORS
330
1596
102
}
330
1596
100
AcDbXrecord
280
     1
102
RTVSPropertyOp0
 70
     1
102
RTVSPropertyOp1
 70
     1
102
RTVSPropertyOp2
 70
     1
102
RTVSPropertyOp3
 70
     1
102
RTVSPropertyOp4
 70
     1
102
RTVSPropertyOp5
 70
     1
102
RTVSPropertyOp6
 70
     1
102
RTVSPropertyOp7
 70
     1
102
RTVSPropertyOp8
 70
     1
102
RTVSPropertyOp9
 70
     1
102
RTVSPropertyOp10
 70
     1
102
RTVSPropertyOp11
 70
     1
102
RTVSPropertyOp12
 70
     1
102
RTVSPropertyOp13
 70
     1
102
RTVSPropertyOp14
 70
     1
102
RTVSPropertyOp15
 70
     1
102
RTVSPropertyOp16
 70
     1
102
RTVSPropertyOp17
 70
     1
102
RTVSPropertyOp18
 70
     1
102
RTVSPropertyOp19
 70
     1
102
RTVSPropertyOp20
 70
     1
102
RTVSPropertyOp21
 70
     1
102
RTVSPropertyOp22
 70
     1
102
RTVSPropertyOp23
 70
     1
102
RTVSPropertyOp24
 70
     1
102
RTVSPropertyOp25
 70
     1
102
RTVSPropertyOp26
 70
     1
102
RTVSPropertyOp27
 70
     1
102
RTVSPropertyOp28
 70
     1
102
RTVSPropertyOp29
 70
     1
102
RTVSPropertyOp30
 70
     1
102
RTVSPropertyOp31
 70
     1
102
RTVSPropertyOp32
 70
     1
  0
XRECORD
  5
1599
102
{ACAD_REACTORS
330
1598
102
}
330
1598
100
AcDbXrecord
280
     1
102
RTVSPropertyOp0
 70
     1
102
RTVSPropertyOp1
 70
     1
102
RTVSPropertyOp2
 70
     1
102
RTVSPropertyOp3
 70
     1
102
RTVSPropertyOp4
 70
     1
102
RTVSPropertyOp5
 70
     1
102
RTVSPropertyOp6
 70
     1
102
RTVSPropertyOp7
 70
     1
102
RTVSPropertyOp8
 70
     1
102
RTVSPropertyOp9
 70
     1
102
RTVSPropertyOp10
 70
     1
102
RTVSPropertyOp11
 70
     1
102
RTVSPropertyOp12
 70
     1
102
RTVSPropertyOp13
 70
     1
102
RTVSPropertyOp14
 70
     1
102
RTVSPropertyOp15
 70
     1
102
RTVSPropertyOp16
 70
     1
102
RTVSPropertyOp17
 70
     1
102
RTVSPropertyOp18
 70
     1
102
RTVSPropertyOp19
 70
     1
102
RTVSPropertyOp20
 70
     1
102
RTVSPropertyOp21
 70
     1
102
RTVSPropertyOp22
 70
     1
102
RTVSPropertyOp23
 70
     1
102
RTVSPropertyOp24
 70
     1
102
RTVSPropertyOp25
 70
     1
102
RTVSPropertyOp26
 70
     1
102
RTVSPropertyOp27
 70
     1
102
RTVSPropertyOp28
 70
     1
102
RTVSPropertyOp29
 70
     1
102
RTVSPropertyOp30
 70
     1
102
RTVSPropertyOp31
 70
     1
102
RTVSPropertyOp32
 70
     1
  0
XRECORD
  5
15A1
102
{ACAD_REACTORS
330
15A0
102
}
330
15A0
100
AcDbXrecord
280
     1
102
RTVSPropertyOp0
 70
     1
102
RTVSPropertyOp1
 70
     1
102
RTVSPropertyOp2
 70
     1
102
RTVSPropertyOp3
 70
     1
102
RTVSPropertyOp4
 70
     1
102
RTVSPropertyOp5
 70
     1
102
RTVSPropertyOp6
 70
     1
102
RTVSPropertyOp7
 70
     1
102
RTVSPropertyOp8
 70
     1
102
RTVSPropertyOp9
 70
     1
102
RTVSPropertyOp10
 70
     1
102
RTVSPropertyOp11
 70
     1
102
RTVSPropertyOp12
 70
     1
102
RTVSPropertyOp13
 70
     1
102
RTVSPropertyOp14
 70
     1
102
RTVSPropertyOp15
 70
     1
102
RTVSPropertyOp16
 70
     1
102
RTVSPropertyOp17
 70
     1
102
RTVSPropertyOp18
 70
     1
102
RTVSPropertyOp19
 70
     1
102
RTVSPropertyOp20
 70
     1
102
RTVSPropertyOp21
 70
     1
102
RTVSPropertyOp22
 70
     1
102
RTVSPropertyOp23
 70
     1
102
RTVSPropertyOp24
 70
     1
102
RTVSPropertyOp25
 70
     1
102
RTVSPropertyOp26
 70
     1
102
RTVSPropertyOp27
 70
     1
102
RTVSPropertyOp28
 70
     1
102
RTVSPropertyOp29
 70
     1
102
RTVSPropertyOp30
 70
     1
102
RTVSPropertyOp31
 70
     1
102
RTVSPropertyOp32
 70
     1
  0
XRECORD
  5
15BD
102
{ACAD_REACTORS
330
15BC
102
}
330
15BC
100
AcDbXrecord
280
     1
102
RTVSPropertyOp0
 70
     0
102
RTVSPropertyOp1
 70
     0
102
RTVSPropertyOp2
 70
     0
102
RTVSPropertyOp3
 70
     0
102
RTVSPropertyOp4
 70
     0
102
RTVSPropertyOp5
 70
     0
102
RTVSPropertyOp6
 70
     0
102
RTVSPropertyOp7
 70
     0
102
RTVSPropertyOp8
 70
     0
102
RTVSPropertyOp9
 70
     0
102
RTVSPropertyOp10
 70
     0
102
RTVSPropertyOp11
 70
     0
102
RTVSPropertyOp12
 70
     0
102
RTVSPropertyOp13
 70
     0
102
RTVSPropertyOp14
 70
     2
102
RTVSPropertyOp15
 70
     0
102
RTVSPropertyOp16
 70
     0
102
RTVSPropertyOp17
 70
     0
102
RTVSPropertyOp18
 70
     0
102
RTVSPropertyOp19
 70
     0
102
RTVSPropertyOp20
 70
     0
102
RTVSPropertyOp21
 70
     0
102
RTVSPropertyOp22
 70
     0
102
RTVSPropertyOp23
 70
     0
102
RTVSPropertyOp24
 70
     0
102
RTVSPropertyOp25
 70
     0
102
RTVSPropertyOp26
 70
     0
102
RTVSPropertyOp27
 70
     0
102
RTVSPropertyOp28
 70
     1
102
RTVSPropertyOp29
 70
     1
102
RTVSPropertyOp30
 70
     1
102
RTVSPropertyOp31
 70
     1
102
RTVSPropertyOp32
 70
     1
  0
XRECORD
  5
15AD
102
{ACAD_REACTORS
330
15AC
102
}
330
15AC
100
AcDbXrecord
280
     1
102
RTVSPropertyOp0
 70
     1
102
RTVSPropertyOp1
 70
     1
102
RTVSPropertyOp2
 70
     1
102
RTVSPropertyOp3
 70
     1
102
RTVSPropertyOp4
 70
     1
102
RTVSPropertyOp5
 70
     1
102
RTVSPropertyOp6
 70
     1
102
RTVSPropertyOp7
 70
     1
102
RTVSPropertyOp8
 70
     1
102
RTVSPropertyOp9
 70
     1
102
RTVSPropertyOp10
 70
     1
102
RTVSPropertyOp11
 70
     1
102
RTVSPropertyOp12
 70
     1
102
RTVSPropertyOp13
 70
     1
102
RTVSPropertyOp14
 70
     1
102
RTVSPropertyOp15
 70
     1
102
RTVSPropertyOp16
 70
     1
102
RTVSPropertyOp17
 70
     1
102
RTVSPropertyOp18
 70
     1
102
RTVSPropertyOp19
 70
     1
102
RTVSPropertyOp20
 70
     1
102
RTVSPropertyOp21
 70
     1
102
RTVSPropertyOp22
 70
     1
102
RTVSPropertyOp23
 70
     1
102
RTVSPropertyOp24
 70
     1
102
RTVSPropertyOp25
 70
     1
102
RTVSPropertyOp26
 70
     1
102
RTVSPropertyOp27
 70
     1
102
RTVSPropertyOp28
 70
     1
102
RTVSPropertyOp29
 70
     1
102
RTVSPropertyOp30
 70
     1
102
RTVSPropertyOp31
 70
     1
102
RTVSPropertyOp32
 70
     1
  0
XRECORD
  5
15BF
102
{ACAD_REACTORS
330
15BE
102
}
330
15BE
100
AcDbXrecord
280
     1
102
RTVSPropertyOp0
 70
     0
102
RTVSPropertyOp1
 70
     0
102
RTVSPropertyOp2
 70
     0
102
RTVSPropertyOp3
 70
     0
102
RTVSPropertyOp4
 70
     0
102
RTVSPropertyOp5
 70
     0
102
RTVSPropertyOp6
 70
     0
102
RTVSPropertyOp7
 70
     0
102
RTVSPropertyOp8
 70
     0
102
RTVSPropertyOp9
 70
     0
102
RTVSPropertyOp10
 70
     0
102
RTVSPropertyOp11
 70
     0
102
RTVSPropertyOp12
 70
     0
102
RTVSPropertyOp13
 70
     0
102
RTVSPropertyOp14
 70
     2
102
RTVSPropertyOp15
 70
     0
102
RTVSPropertyOp16
 70
     0
102
RTVSPropertyOp17
 70
     0
102
RTVSPropertyOp18
 70
     0
102
RTVSPropertyOp19
 70
     0
102
RTVSPropertyOp20
 70
     0
102
RTVSPropertyOp21
 70
     0
102
RTVSPropertyOp22
 70
     0
102
RTVSPropertyOp23
 70
     0
102
RTVSPropertyOp24
 70
     0
102
RTVSPropertyOp25
 70
     0
102
RTVSPropertyOp26
 70
     0
102
RTVSPropertyOp27
 70
     0
102
RTVSPropertyOp28
 70
     1
102
RTVSPropertyOp29
 70
     1
102
RTVSPropertyOp30
 70
     1
102
RTVSPropertyOp31
 70
     1
102
RTVSPropertyOp32
 70
     1
  0
XRECORD
  5
15A5
102
{ACAD_REACTORS
330
15A4
102
}
330
15A4
100
AcDbXrecord
280
     1
102
RTVSPropertyOp0
 70
     1
102
RTVSPropertyOp1
 70
     1
102
RTVSPropertyOp2
 70
     1
102
RTVSPropertyOp3
 70
     1
102
RTVSPropertyOp4
 70
     1
102
RTVSPropertyOp5
 70
     1
102
RTVSPropertyOp6
 70
     1
102
RTVSPropertyOp7
 70
     1
102
RTVSPropertyOp8
 70
     1
102
RTVSPropertyOp9
 70
     1
102
RTVSPropertyOp10
 70
     1
102
RTVSPropertyOp11
 70
     1
102
RTVSPropertyOp12
 70
     1
102
RTVSPropertyOp13
 70
     1
102
RTVSPropertyOp14
 70
     1
102
RTVSPropertyOp15
 70
     1
102
RTVSPropertyOp16
 70
     1
102
RTVSPropertyOp17
 70
     1
102
RTVSPropertyOp18
 70
     1
102
RTVSPropertyOp19
 70
     1
102
RTVSPropertyOp20
 70
     1
102
RTVSPropertyOp21
 70
     1
102
RTVSPropertyOp22
 70
     1
102
RTVSPropertyOp23
 70
     1
102
RTVSPropertyOp24
 70
     1
102
RTVSPropertyOp25
 70
     1
102
RTVSPropertyOp26
 70
     1
102
RTVSPropertyOp27
 70
     1
102
RTVSPropertyOp28
 70
     1
102
RTVSPropertyOp29
 70
     1
102
RTVSPropertyOp30
 70
     1
102
RTVSPropertyOp31
 70
     1
102
RTVSPropertyOp32
 70
     1
  0
XRECORD
  5
15BB
102
{ACAD_REACTORS
330
15BA
102
}
330
15BA
100
AcDbXrecord
280
     1
102
RTVSPropertyOp0
 70
     1
102
RTVSPropertyOp1
 70
     1
102
RTVSPropertyOp2
 70
     1
102
RTVSPropertyOp3
 70
     1
102
RTVSPropertyOp4
 70
     1
102
RTVSPropertyOp5
 70
     1
102
RTVSPropertyOp6
 70
     1
102
RTVSPropertyOp7
 70
     1
102
RTVSPropertyOp8
 70
     1
102
RTVSPropertyOp9
 70
     1
102
RTVSPropertyOp10
 70
     1
102
RTVSPropertyOp11
 70
     1
102
RTVSPropertyOp12
 70
     1
102
RTVSPropertyOp13
 70
     1
102
RTVSPropertyOp14
 70
     1
102
RTVSPropertyOp15
 70
     1
102
RTVSPropertyOp16
 70
     1
102
RTVSPropertyOp17
 70
     1
102
RTVSPropertyOp18
 70
     1
102
RTVSPropertyOp19
 70
     1
102
RTVSPropertyOp20
 70
     1
102
RTVSPropertyOp21
 70
     1
102
RTVSPropertyOp22
 70
     1
102
RTVSPropertyOp23
 70
     1
102
RTVSPropertyOp24
 70
     1
102
RTVSPropertyOp25
 70
     1
102
RTVSPropertyOp26
 70
     1
102
RTVSPropertyOp27
 70
     1
102
RTVSPropertyOp28
 70
     1
102
RTVSPropertyOp29
 70
     1
102
RTVSPropertyOp30
 70
     1
102
RTVSPropertyOp31
 70
     1
102
RTVSPropertyOp32
 70
     1
  0
XRECORD
  5
15B9
102
{ACAD_REACTORS
330
15B8
102
}
330
15B8
100
AcDbXrecord
280
     1
102
RTVSPropertyOp0
 70
     1
102
RTVSPropertyOp1
 70
     1
102
RTVSPropertyOp2
 70
     1
102
RTVSPropertyOp3
 70
     1
102
RTVSPropertyOp4
 70
     1
102
RTVSPropertyOp5
 70
     1
102
RTVSPropertyOp6
 70
     1
102
RTVSPropertyOp7
 70
     1
102
RTVSPropertyOp8
 70
     1
102
RTVSPropertyOp9
 70
     1
102
RTVSPropertyOp10
 70
     1
102
RTVSPropertyOp11
 70
     1
102
RTVSPropertyOp12
 70
     1
102
RTVSPropertyOp13
 70
     1
102
RTVSPropertyOp14
 70
     1
102
RTVSPropertyOp15
 70
     1
102
RTVSPropertyOp16
 70
     1
102
RTVSPropertyOp17
 70
     1
102
RTVSPropertyOp18
 70
     1
102
RTVSPropertyOp19
 70
     1
102
RTVSPropertyOp20
 70
     1
102
RTVSPropertyOp21
 70
     1
102
RTVSPropertyOp22
 70
     1
102
RTVSPropertyOp23
 70
     1
102
RTVSPropertyOp24
 70
     1
102
RTVSPropertyOp25
 70
     1
102
RTVSPropertyOp26
 70
     1
102
RTVSPropertyOp27
 70
     1
102
RTVSPropertyOp28
 70
     1
102
RTVSPropertyOp29
 70
     1
102
RTVSPropertyOp30
 70
     1
102
RTVSPropertyOp31
 70
     1
102
RTVSPropertyOp32
 70
     1
  0
XRECORD
  5
15B3
102
{ACAD_REACTORS
330
15B2
102
}
330
15B2
100
AcDbXrecord
280
     1
102
RTVSPropertyOp0
 70
     1
102
RTVSPropertyOp1
 70
     1
102
RTVSPropertyOp2
 70
     1
102
RTVSPropertyOp3
 70
     1
102
RTVSPropertyOp4
 70
     1
102
RTVSPropertyOp5
 70
     1
102
RTVSPropertyOp6
 70
     1
102
RTVSPropertyOp7
 70
     1
102
RTVSPropertyOp8
 70
     1
102
RTVSPropertyOp9
 70
     1
102
RTVSPropertyOp10
 70
     1
102
RTVSPropertyOp11
 70
     1
102
RTVSPropertyOp12
 70
     1
102
RTVSPropertyOp13
 70
     1
102
RTVSPropertyOp14
 70
     1
102
RTVSPropertyOp15
 70
     1
102
RTVSPropertyOp16
 70
     1
102
RTVSPropertyOp17
 70
     1
102
RTVSPropertyOp18
 70
     1
102
RTVSPropertyOp19
 70
     1
102
RTVSPropertyOp20
 70
     1
102
RTVSPropertyOp21
 70
     1
102
RTVSPropertyOp22
 70
     1
102
RTVSPropertyOp23
 70
     1
102
RTVSPropertyOp24
 70
     1
102
RTVSPropertyOp25
 70
     1
102
RTVSPropertyOp26
 70
     1
102
RTVSPropertyOp27
 70
     1
102
RTVSPropertyOp28
 70
     1
102
RTVSPropertyOp29
 70
     1
102
RTVSPropertyOp30
 70
     1
102
RTVSPropertyOp31
 70
     1
102
RTVSPropertyOp32
 70
     1
  0
XRECORD
  5
15B5
102
{ACAD_REACTORS
330
15B4
102
}
330
15B4
100
AcDbXrecord
280
     1
102
RTVSPropertyOp0
 70
     1
102
RTVSPropertyOp1
 70
     1
102
RTVSPropertyOp2
 70
     1
102
RTVSPropertyOp3
 70
     1
102
RTVSPropertyOp4
 70
     1
102
RTVSPropertyOp5
 70
     1
102
RTVSPropertyOp6
 70
     1
102
RTVSPropertyOp7
 70
     1
102
RTVSPropertyOp8
 70
     1
102
RTVSPropertyOp9
 70
     1
102
RTVSPropertyOp10
 70
     1
102
RTVSPropertyOp11
 70
     1
102
RTVSPropertyOp12
 70
     1
102
RTVSPropertyOp13
 70
     1
102
RTVSPropertyOp14
 70
     1
102
RTVSPropertyOp15
 70
     1
102
RTVSPropertyOp16
 70
     1
102
RTVSPropertyOp17
 70
     1
102
RTVSPropertyOp18
 70
     1
102
RTVSPropertyOp19
 70
     1
102
RTVSPropertyOp20
 70
     1
102
RTVSPropertyOp21
 70
     1
102
RTVSPropertyOp22
 70
     1
102
RTVSPropertyOp23
 70
     1
102
RTVSPropertyOp24
 70
     1
102
RTVSPropertyOp25
 70
     1
102
RTVSPropertyOp26
 70
     1
102
RTVSPropertyOp27
 70
     1
102
RTVSPropertyOp28
 70
     1
102
RTVSPropertyOp29
 70
     1
102
RTVSPropertyOp30
 70
     1
102
RTVSPropertyOp31
 70
     1
102
RTVSPropertyOp32
 70
     1
  0
XRECORD
  5
15AB
102
{ACAD_REACTORS
330
15AA
102
}
330
15AA
100
AcDbXrecord
280
     1
102
RTVSPropertyOp0
 70
     1
102
RTVSPropertyOp1
 70
     1
102
RTVSPropertyOp2
 70
     1
102
RTVSPropertyOp3
 70
     1
102
RTVSPropertyOp4
 70
     1
102
RTVSPropertyOp5
 70
     1
102
RTVSPropertyOp6
 70
     1
102
RTVSPropertyOp7
 70
     1
102
RTVSPropertyOp8
 70
     1
102
RTVSPropertyOp9
 70
     1
102
RTVSPropertyOp10
 70
     1
102
RTVSPropertyOp11
 70
     1
102
RTVSPropertyOp12
 70
     1
102
RTVSPropertyOp13
 70
     1
102
RTVSPropertyOp14
 70
     1
102
RTVSPropertyOp15
 70
     1
102
RTVSPropertyOp16
 70
     1
102
RTVSPropertyOp17
 70
     1
102
RTVSPropertyOp18
 70
     1
102
RTVSPropertyOp19
 70
     1
102
RTVSPropertyOp20
 70
     1
102
RTVSPropertyOp21
 70
     1
102
RTVSPropertyOp22
 70
     1
102
RTVSPropertyOp23
 70
     1
102
RTVSPropertyOp24
 70
     1
102
RTVSPropertyOp25
 70
     1
102
RTVSPropertyOp26
 70
     1
102
RTVSPropertyOp27
 70
     1
102
RTVSPropertyOp28
 70
     1
102
RTVSPropertyOp29
 70
     1
102
RTVSPropertyOp30
 70
     1
102
RTVSPropertyOp31
 70
     1
102
RTVSPropertyOp32
 70
     1
  0
XRECORD
  5
159F
102
{ACAD_REACTORS
330
159E
102
}
330
159E
100
AcDbXrecord
280
     1
102
RTVSPropertyOp0
 70
     1
102
RTVSPropertyOp1
 70
     1
102
RTVSPropertyOp2
 70
     1
102
RTVSPropertyOp3
 70
     1
102
RTVSPropertyOp4
 70
     1
102
RTVSPropertyOp5
 70
     1
102
RTVSPropertyOp6
 70
     1
102
RTVSPropertyOp7
 70
     1
102
RTVSPropertyOp8
 70
     1
102
RTVSPropertyOp9
 70
     1
102
RTVSPropertyOp10
 70
     1
102
RTVSPropertyOp11
 70
     1
102
RTVSPropertyOp12
 70
     1
102
RTVSPropertyOp13
 70
     1
102
RTVSPropertyOp14
 70
     1
102
RTVSPropertyOp15
 70
     1
102
RTVSPropertyOp16
 70
     1
102
RTVSPropertyOp17
 70
     1
102
RTVSPropertyOp18
 70
     1
102
RTVSPropertyOp19
 70
     1
102
RTVSPropertyOp20
 70
     1
102
RTVSPropertyOp21
 70
     1
102
RTVSPropertyOp22
 70
     1
102
RTVSPropertyOp23
 70
     1
102
RTVSPropertyOp24
 70
     1
102
RTVSPropertyOp25
 70
     1
102
RTVSPropertyOp26
 70
     1
102
RTVSPropertyOp27
 70
     1
102
RTVSPropertyOp28
 70
     1
102
RTVSPropertyOp29
 70
     1
102
RTVSPropertyOp30
 70
     1
102
RTVSPropertyOp31
 70
     1
102
RTVSPropertyOp32
 70
     1
  0
XRECORD
  5
15B7
102
{ACAD_REACTORS
330
15B6
102
}
330
15B6
100
AcDbXrecord
280
     1
102
RTVSPropertyOp0
 70
     1
102
RTVSPropertyOp1
 70
     1
102
RTVSPropertyOp2
 70
     1
102
RTVSPropertyOp3
 70
     1
102
RTVSPropertyOp4
 70
     1
102
RTVSPropertyOp5
 70
     1
102
RTVSPropertyOp6
 70
     1
102
RTVSPropertyOp7
 70
     1
102
RTVSPropertyOp8
 70
     1
102
RTVSPropertyOp9
 70
     1
102
RTVSPropertyOp10
 70
     1
102
RTVSPropertyOp11
 70
     1
102
RTVSPropertyOp12
 70
     1
102
RTVSPropertyOp13
 70
     1
102
RTVSPropertyOp14
 70
     1
102
RTVSPropertyOp15
 70
     1
102
RTVSPropertyOp16
 70
     1
102
RTVSPropertyOp17
 70
     1
102
RTVSPropertyOp18
 70
     1
102
RTVSPropertyOp19
 70
     1
102
RTVSPropertyOp20
 70
     1
102
RTVSPropertyOp21
 70
     1
102
RTVSPropertyOp22
 70
     1
102
RTVSPropertyOp23
 70
     1
102
RTVSPropertyOp24
 70
     1
102
RTVSPropertyOp25
 70
     1
102
RTVSPropertyOp26
 70
     1
102
RTVSPropertyOp27
 70
     1
102
RTVSPropertyOp28
 70
     1
102
RTVSPropertyOp29
 70
     1
102
RTVSPropertyOp30
 70
     1
102
RTVSPropertyOp31
 70
     1
102
RTVSPropertyOp32
 70
     1
  0
ENDSEC
  0
EOF
