  0
SECTION
  2
HEADER
  9
$ACADVER
  1
AC1018
  9
$ACADMAINTVER
 70
   104
  9
$DWGCODEPAGE
  3
ANSI_1252
  9
$AUTHOR
  1
VR
  9
$REVISIONNUMBER
  1
-
  9
$CUSTOMPROPERTYTAG
  1
Manager
  9
$CUSTOMPROPERTY
  1

  9
$CUSTOMPROPERTYTAG
  1
Company
  9
$CUSTOMPROPERTY
  1

  9
$CUSTOMPROPERTYTAG
  1
Category
  9
$CUSTOMPROPERTY
  1

  9
$CUSTOMPROPERTYTAG
  1
Part Number
  9
$CUSTOMPROPERTY
  1
SSFK1220-S
  9
$CUSTOMPROPERTYTAG
  1
Description
  9
$CUSTOMPROPERTY
  1

  9
$CUSTOMPROPERTYTAG
  1
Project
  9
$CUSTOMPROPERTY
  1

  9
$CUSTOMPROPERTYTAG
  1
Designer
  9
$CUSTOMPROPERTY
  1
VR
  9
$CUSTOMPROPERTYTAG
  1
Engineer
  9
$CUSTOMPROPERTY
  1

  9
$CUSTOMPROPERTYTAG
  1
Authority
  9
$CUSTOMPROPERTY
  1

  9
$CUSTOMPROPERTYTAG
  1
Cost Center
  9
$CUSTOMPROPERTY
  1

  9
$CUSTOMPROPERTYTAG
  1
Vendor
  9
$CUSTOMPROPERTY
  1

  9
$CUSTOMPROPERTYTAG
  1
User Status
  9
$CUSTOMPROPERTY
  1

  9
$CUSTOMPROPERTYTAG
  1
Design Status
  9
$CUSTOMPROPERTY
  1
WorkInProgress
  9
$CUSTOMPROPERTYTAG
  1
Checked by
  9
$CUSTOMPROPERTY
  1
NJ
  9
$CUSTOMPROPERTYTAG
  1
Date Checked
  9
$CUSTOMPROPERTY
  1
05/08/2013
  9
$CUSTOMPROPERTYTAG
  1
Engr Approved by
  9
$CUSTOMPROPERTY
  1

  9
$CUSTOMPROPERTYTAG
  1
Mfg Approved by
  9
$CUSTOMPROPERTY
  1

  9
$CUSTOMPROPERTYTAG
  1
DWG. NO
  9
$CUSTOMPROPERTY
  1

  9
$CUSTOMPROPERTYTAG
  1
NUMBER OF SHEETS
  9
$CUSTOMPROPERTY
  1
1
  9
$CUSTOMPROPERTYTAG
  1
DRAWING #
  9
$CUSTOMPROPERTY
  1

  9
$INSBASE
 10
0.0
 20
0.0
 30
0.0
  9
$EXTMIN
 10
0.0
 20
0.0
 30
0.0
  9
$EXTMAX
 10
102.0
 20
66.0
 30
0.0
  9
$LIMMIN
 10
0.0
 20
0.0
  9
$LIMMAX
 10
102.0
 20
66.0
  9
$ORTHOMODE
 70
     0
  9
$REGENMODE
 70
     1
  9
$FILLMODE
 70
     1
  9
$QTEXTMODE
 70
     0
  9
$MIRRTEXT
 70
     0
  9
$LTSCALE
 40
6.0
  9
$ATTMODE
 70
     1
  9
$TEXTSIZE
 40
0.2
  9
$TRACEWID
 40
0.05
  9
$TEXTSTYLE
  7
Standard
  9
$CLAYER
  8
0
  9
$CELTYPE
  6
ByLayer
  9
$CECOLOR
 62
   256
  9
$CELTSCALE
 40
1.0
  9
$DISPSILH
 70
     0
  9
$DIMSCALE
 40
1.0
  9
$DIMASZ
 40
0.0708661417322835
  9
$DIMEXO
 40
0.0625
  9
$DIMDLI
 40
0.38
  9
$DIMRND
 40
0.0
  9
$DIMDLE
 40
0.0
  9
$DIMEXE
 40
0.18
  9
$DIMTP
 40
0.0
  9
$DIMTM
 40
0.0
  9
$DIMTXT
 40
0.0708661417322835
  9
$DIMCEN
 40
0.09
  9
$DIMTSZ
 40
0.0
  9
$DIMTOL
 70
     0
  9
$DIMLIM
 70
     0
  9
$DIMTIH
 70
     1
  9
$DIMTOH
 70
     1
  9
$DIMSE1
 70
     0
  9
$DIMSE2
 70
     0
  9
$DIMTAD
 70
     0
  9
$DIMZIN
 70
     0
  9
$DIMBLK
  1

  9
$DIMASO
 70
     1
  9
$DIMSHO
 70
     1
  9
$DIMPOST
  1

  9
$DIMAPOST
  1

  9
$DIMALT
 70
     0
  9
$DIMALTD
 70
     2
  9
$DIMALTF
 40
25.4
  9
$DIMLFAC
 40
1.0
  9
$DIMTOFL
 70
     0
  9
$DIMTVP
 40
0.0
  9
$DIMTIX
 70
     0
  9
$DIMSOXD
 70
     0
  9
$DIMSAH
 70
     0
  9
$DIMBLK1
  1

  9
$DIMBLK2
  1

  9
$DIMSTYLE
  2
Standard
  9
$DIMCLRD
 70
     0
  9
$DIMCLRE
 70
     0
  9
$DIMCLRT
 70
     0
  9
$DIMTFAC
 40
1.0
  9
$DIMGAP
 40
0.09
  9
$DIMJUST
 70
     0
  9
$DIMSD1
 70
     0
  9
$DIMSD2
 70
     0
  9
$DIMTOLJ
 70
     1
  9
$DIMTZIN
 70
     0
  9
$DIMALTZ
 70
     0
  9
$DIMALTTZ
 70
     0
  9
$DIMUPT
 70
     0
  9
$DIMDEC
 70
     4
  9
$DIMTDEC
 70
     4
  9
$DIMALTU
 70
     2
  9
$DIMALTTD
 70
     2
  9
$DIMTXSTY
  7
Standard
  9
$DIMAUNIT
 70
     0
  9
$DIMADEC
 70
     0
  9
$DIMALTRND
 40
0.0
  9
$DIMAZIN
 70
     0
  9
$DIMDSEP
 70
    46
  9
$DIMATFIT
 70
     3
  9
$DIMFRAC
 70
     0
  9
$DIMLDRBLK
  1

  9
$DIMLUNIT
 70
     2
  9
$DIMLWD
 70
    -2
  9
$DIMLWE
 70
    -2
  9
$DIMTMOVE
 70
     0
  9
$LUNITS
 70
     2
  9
$LUPREC
 70
     4
  9
$SKETCHINC
 40
0.1
  9
$FILLETRAD
 40
0.0
  9
$AUNITS
 70
     0
  9
$AUPREC
 70
     0
  9
$MENU
  1
.
  9
$ELEVATION
 40
0.0
  9
$PELEVATION
 40
0.0
  9
$THICKNESS
 40
0.0
  9
$LIMCHECK
 70
     0
  9
$CHAMFERA
 40
0.0
  9
$CHAMFERB
 40
0.0
  9
$CHAMFERC
 40
0.0
  9
$CHAMFERD
 40
0.0
  9
$SKPOLY
 70
     0
  9
$TDCREATE
 40
2456430.309885104
  9
$TDUCREATE
 40
2456430.080718438
  9
$TDUPDATE
 40
2456430.309885116
  9
$TDUUPDATE
 40
2456430.080718449
  9
$TDINDWG
 40
0.0000480208
  9
$TDUSRTIMER
 40
0.0000480208
  9
$USRTIMER
 70
     1
  9
$ANGBASE
 50
0.0
  9
$ANGDIR
 70
     0
  9
$PDMODE
 70
     0
  9
$PDSIZE
 40
0.0
  9
$PLINEWID
 40
0.0
  9
$SPLFRAME
 70
     0
  9
$SPLINETYPE
 70
     6
  9
$SPLINESEGS
 70
     8
  9
$HANDSEED
  5
15C8
  9
$SURFTAB1
 70
     6
  9
$SURFTAB2
 70
     6
  9
$SURFTYPE
 70
     6
  9
$SURFU
 70
     6
  9
$SURFV
 70
     6
  9
$UCSBASE
  2

  9
$UCSNAME
  2

  9
$UCSORG
 10
0.0
 20
0.0
 30
0.0
  9
$UCSXDIR
 10
1.0
 20
0.0
 30
0.0
  9
$UCSYDIR
 10
0.0
 20
1.0
 30
0.0
  9
$UCSORTHOREF
  2

  9
$UCSORTHOVIEW
 70
     0
  9
$UCSORGTOP
 10
0.0
 20
0.0
 30
0.0
  9
$UCSORGBOTTOM
 10
0.0
 20
0.0
 30
0.0
  9
$UCSORGLEFT
 10
0.0
 20
0.0
 30
0.0
  9
$UCSORGRIGHT
 10
0.0
 20
0.0
 30
0.0
  9
$UCSORGFRONT
 10
0.0
 20
0.0
 30
0.0
  9
$UCSORGBACK
 10
0.0
 20
0.0
 30
0.0
  9
$PUCSBASE
  2

  9
$PUCSNAME
  2

  9
$PUCSORG
 10
0.0
 20
0.0
 30
0.0
  9
$PUCSXDIR
 10
1.0
 20
0.0
 30
0.0
  9
$PUCSYDIR
 10
0.0
 20
1.0
 30
0.0
  9
$PUCSORTHOREF
  2

  9
$PUCSORTHOVIEW
 70
     0
  9
$PUCSORGTOP
 10
0.0
 20
0.0
 30
0.0
  9
$PUCSORGBOTTOM
 10
0.0
 20
0.0
 30
0.0
  9
$PUCSORGLEFT
 10
0.0
 20
0.0
 30
0.0
  9
$PUCSORGRIGHT
 10
0.0
 20
0.0
 30
0.0
  9
$PUCSORGFRONT
 10
0.0
 20
0.0
 30
0.0
  9
$PUCSORGBACK
 10
0.0
 20
0.0
 30
0.0
  9
$USERI1
 70
     0
  9
$USERI2
 70
     0
  9
$USERI3
 70
     0
  9
$USERI4
 70
     0
  9
$USERI5
 70
     0
  9
$USERR1
 40
0.0
  9
$USERR2
 40
0.0
  9
$USERR3
 40
0.0
  9
$USERR4
 40
0.0
  9
$USERR5
 40
0.0
  9
$WORLDVIEW
 70
     1
  9
$SHADEDGE
 70
     3
  9
$SHADEDIF
 70
    70
  9
$TILEMODE
 70
     1
  9
$MAXACTVP
 70
    64
  9
$PINSBASE
 10
0.0
 20
0.0
 30
0.0
  9
$PLIMCHECK
 70
     0
  9
$PEXTMIN
 10
0.0
 20
0.0
 30
0.0
  9
$PEXTMAX
 10
102.0
 20
66.0
 30
0.0
  9
$PLIMMIN
 10
0.0
 20
0.0
  9
$PLIMMAX
 10
102.0
 20
66.0
  9
$UNITMODE
 70
     0
  9
$VISRETAIN
 70
     1
  9
$PLINEGEN
 70
     0
  9
$PSLTSCALE
 70
     1
  9
$TREEDEPTH
 70
  3020
  9
$CMLSTYLE
  2
Standard
  9
$CMLJUST
 70
     0
  9
$CMLSCALE
 40
1.0
  9
$PROXYGRAPHICS
 70
     1
  9
$MEASUREMENT
 70
     0
  9
$CELWEIGHT
370
    -1
  9
$ENDCAPS
280
     0
  9
$JOINSTYLE
280
     0
  9
$LWDISPLAY
290
     0
  9
$INSUNITS
 70
     1
  9
$HYPERLINKBASE
  1

  9
$STYLESHEET
  1

  9
$XEDIT
290
     1
  9
$CEPSNTYPE
380
     0
  9
$PSTYLEMODE
290
     1
  9
$FINGERPRINTGUID
  2
{54097E2D-E007-496C-B893-233BF11C0EAE}
  9
$VERSIONGUID
  2
{767E25F5-D6D9-4AD0-AC07-90C5E85F38CD}
  9
$EXTNAMES
290
     1
  9
$PSVPSCALE
 40
0.0
  9
$OLESTARTUP
290
     0
  9
$SORTENTS
280
   127
  9
$INDEXCTL
280
     0
  9
$HIDETEXT
280
     1
  9
$XCLIPFRAME
290
     0
  9
$HALOGAP
280
     0
  9
$OBSCOLOR
 70
   257
  9
$OBSLTYPE
280
     0
  9
$INTERSECTIONDISPLAY
280
     0
  9
$INTERSECTIONCOLOR
 70
   257
  9
$DIMASSOC
280
     1
  9
$PROJECTNAME
  1

  0
ENDSEC
  0
SECTION
  2
CLASSES
  0
CLASS
  1
ACDBDICTIONARYWDFLT
  2
AcDbDictionaryWithDefault
  3
ObjectDBX Classes
 90
        0
 91
        1
280
     0
281
     0
  0
CLASS
  1
MATERIAL
  2
AcDbMaterial
  3
ObjectDBX Classes
 90
     1153
 91
        3
280
     0
281
     0
  0
CLASS
  1
VISUALSTYLE
  2
AcDbVisualStyle
  3
ObjectDBX Classes
 90
     4095
 91
       24
280
     0
281
     0
  0
CLASS
  1
SCALE
  2
AcDbScale
  3
ObjectDBX Classes
 90
     1153
 91
       17
280
     0
281
     0
  0
CLASS
  1
TABLESTYLE
  2
AcDbTableStyle
  3
ObjectDBX Classes
 90
     4095
 91
        1
280
     0
281
     0
  0
CLASS
  1
MLEADERSTYLE
  2
AcDbMLeaderStyle
  3
ACDB_MLEADERSTYLE_CLASS
 90
     4095
 91
        1
280
     0
281
     0
  0
CLASS
  1
DICTIONARYVAR
  2
AcDbDictionaryVar
  3
ObjectDBX Classes
 90
        0
 91
        8
280
     0
281
     0
  0
CLASS
  1
CELLSTYLEMAP
  2
AcDbCellStyleMap
  3
ObjectDBX Classes
 90
     1152
 91
        1
280
     0
281
     0
  0
ENDSEC
  0
SECTION
  2
TABLES
  0
TABLE
  2
VPORT
  5
8
330
0
100
AcDbSymbolTable
 70
     1
  0
VPORT
  5
57
330
8
100
AcDbSymbolTableRecord
100
AcDbViewportTableRecord
  2
*Active
 70
     0
 10
0.0
 20
0.0
 11
1.0
 21
1.0
 12
51.0
 22
33.0
 13
0.0
 23
0.0
 14
1.0
 24
1.0
 15
0.0
 25
0.0
 16
0.0
 26
0.0
 36
1.0
 17
0.0
 27
0.0
 37
0.0
 40
66.0
 41
1.545454545454545
 42
50.0
 43
0.0
 44
0.0
 50
0.0
 51
0.0
 71
     0
 72
   100
 73
     1
 74
     1
 75
     0
 76
     0
 77
     0
 78
     0
281
     0
 65
     1
110
0.0
120
0.0
130
0.0
111
1.0
121
0.0
131
0.0
112
0.0
122
1.0
132
0.0
 79
     0
146
0.0
  0
ENDTAB
  0
TABLE
  2
LTYPE
  5
5
330
0
100
AcDbSymbolTable
 70
    59
  0
LTYPE
  5
5B
330
5
100
AcDbSymbolTableRecord
100
AcDbLinetypeTableRecord
  2
ByBlock
 70
     0
  3

 72
    65
 73
     0
 40
0.0
  0
LTYPE
  5
5C
330
5
100
AcDbSymbolTableRecord
100
AcDbLinetypeTableRecord
  2
ByLayer
 70
     0
  3

 72
    65
 73
     0
 40
0.0
  0
LTYPE
  5
5D
330
5
100
AcDbSymbolTableRecord
100
AcDbLinetypeTableRecord
  2
Continuous
 70
     0
  3
Solid line
 72
    65
 73
     0
 40
0.0
  0
LTYPE
  5
7C
330
5
100
AcDbSymbolTableRecord
100
AcDbLinetypeTableRecord
  2
BY_STANDARD
 70
     0
  3
By Standard ____________    ____    ____   _
 72
    65
 73
     6
 40
1.240299999999999
 49
0.6614
 74
     0
 49
-0.0827
 74
     0
 49
0.1654
 74
     0
 49
-0.0827
 74
     0
 49
0.1654
 74
     0
 49
-0.0827
 74
     0
  0
LTYPE
  5
7D
330
5
100
AcDbSymbolTableRecord
100
AcDbLinetypeTableRecord
  2
CHAIN
 70
     0
  3
Chain ____ _ ____ _ ____ _ ____ _ ____ _ ____
 72
    65
 73
     4
 40
0.7087
 49
0.4724000000000001
 74
     0
 49
-0.0591
 74
     0
 49
0.1181
 74
     0
 49
-0.0591
 74
     0
  0
LTYPE
  5
7E
330
5
100
AcDbSymbolTableRecord
100
AcDbLinetypeTableRecord
  2
DASH_DOT
 70
     0
  3
Dash dot __ . __ . __ . __ . __ . __ . __ . __
 72
    65
 73
     4
 40
0.37
 49
0.24
 74
     0
 49
-0.06
 74
     0
 49
0.01
 74
     0
 49
-0.06
 74
     0
  0
LTYPE
  5
7F
330
5
100
AcDbSymbolTableRecord
100
AcDbLinetypeTableRecord
  2
DOUBLE_DASH_DOT
 70
     0
  3
Double-Dash Dot __ __ . __ __ . __ __ . __ _
 72
    65
 73
     6
 40
0.4398
 49
0.24
 74
     0
 49
-0.06
 74
     0
 49
0.0098
 74
     0
 49
-0.06
 74
     0
 49
0.01
 74
     0
 49
-0.06
 74
     0
  0
LTYPE
  5
80
330
5
100
AcDbSymbolTableRecord
100
AcDbLinetypeTableRecord
  2
DASH_TRIPLE_DOT
 70
     0
  3
Dash Triple-Dot _ . . . _ . . . _ . . . _
 72
    65
 73
     8
 40
0.51
 49
0.24
 74
     0
 49
-0.06
 74
     0
 49
0.01
 74
     0
 49
-0.06
 74
     0
 49
0.01
 74
     0
 49
-0.06
 74
     0
 49
0.01
 74
     0
 49
-0.06
 74
     0
  0
LTYPE
  5
81
330
5
100
AcDbSymbolTableRecord
100
AcDbLinetypeTableRecord
  2
DASHED
 70
     0
  3
Dashed __ __ __ __ __ __ __ __ __ __ __ __ __ _
 72
    65
 73
     2
 40
0.2067
 49
0.1654
 74
     0
 49
-0.0413
 74
     0
  0
LTYPE
  5
82
330
5
100
AcDbSymbolTableRecord
100
AcDbLinetypeTableRecord
  2
DASH_DOUBLE_DOT
 70
     0
  3
Dash Double-Dot __ . . __ . . __ . . __ . .
 72
    65
 73
     6
 40
0.4398
 49
0.24
 74
     0
 49
-0.06
 74
     0
 49
0.0098
 74
     0
 49
-0.06
 74
     0
 49
0.01
 74
     0
 49
-0.06
 74
     0
  0
LTYPE
  5
83
330
5
100
AcDbSymbolTableRecord
100
AcDbLinetypeTableRecord
  2
DASHED_SPACE
 70
     0
  3
Dashed Space __ __ __ __ __ __ __ __ __ __ __ _
 72
    65
 73
     2
 40
0.2067
 49
0.1654
 74
     0
 49
-0.0413
 74
     0
  0
LTYPE
  5
84
330
5
100
AcDbSymbolTableRecord
100
AcDbLinetypeTableRecord
  2
DOTTED
 70
     0
  3
Dotted . . . . . . . . . . . . . . . . . . . . 
 72
    65
 73
     2
 40
0.0482
 49
0.0069
 74
     0
 49
-0.0413
 74
     0
  0
LTYPE
  5
85
330
5
100
AcDbSymbolTableRecord
100
AcDbLinetypeTableRecord
  2
DOUBLE_DASH_CHAIN
 70
     0
  3
Double-Dash Chain ______  __  __  ______  __  _
 72
    65
 73
     6
 40
1.240299999999999
 49
0.6614
 74
     0
 49
-0.0827
 74
     0
 49
0.1654
 74
     0
 49
-0.0827
 74
     0
 49
0.1654
 74
     0
 49
-0.0827
 74
     0
  0
LTYPE
  5
87
330
5
100
AcDbSymbolTableRecord
100
AcDbLinetypeTableRecord
  2
DOUBLE_DASH_DOUBLE_DOT
 70
     0
  3
Double-Dash Double-dot _ _ . . _ _ . . _
 72
    65
 73
     8
 40
0.7400000000000001
 49
0.24
 74
     0
 49
-0.06
 74
     0
 49
0.24
 74
     0
 49
-0.06
 74
     0
 49
0.01
 74
     0
 49
-0.06
 74
     0
 49
0.01
 74
     0
 49
-0.06
 74
     0
  0
LTYPE
  5
88
330
5
100
AcDbSymbolTableRecord
100
AcDbLinetypeTableRecord
  2
DOUBLE_DASH_TRIPLE_DOT
 70
     0
  3
Double Dash Triple Dot __ __ . . . __ __ . .
 72
    65
 73
    10
 40
0.8100000000000001
 49
0.24
 74
     0
 49
-0.06
 74
     0
 49
0.24
 74
     0
 49
-0.06
 74
     0
 49
0.01
 74
     0
 49
-0.06
 74
     0
 49
0.01
 74
     0
 49
-0.06
 74
     0
 49
0.01
 74
     0
 49
-0.06
 74
     0
  0
LTYPE
  5
89
330
5
100
AcDbSymbolTableRecord
100
AcDbLinetypeTableRecord
  2
LONG_DASH_DOTTED
 70
     0
  3
Long Dash Dotted ____ . ____ . ____ . ____ . _
 72
    65
 73
     4
 40
0.3543
 49
0.2362
 74
     0
 49
-0.0295
 74
     0
 49
0.0591
 74
     0
 49
-0.0295
 74
     0
  0
LTYPE
  5
8A
330
5
100
AcDbSymbolTableRecord
100
AcDbLinetypeTableRecord
  2
LONG_DASH_DOUBLE_DOT
 70
     0
  3
Long Dash Double Dot ________  .  .  ________  
 72
    65
 73
     6
 40
0.6799999999999999
 49
0.48
 74
     0
 49
-0.06
 74
     0
 49
0.01
 74
     0
 49
-0.06
 74
     0
 49
0.01
 74
     0
 49
-0.06
 74
     0
  0
LTYPE
  5
8B
330
5
100
AcDbSymbolTableRecord
100
AcDbLinetypeTableRecord
  2
LONG_DASH_TRIPLE_DOT
 70
     0
  3
Long Dash Triple Dot ____ ... ____ ... ____
 72
    65
 73
     8
 40
0.3689
 49
0.2362
 74
     0
 49
-0.0295
 74
     0
 49
0.0049
 74
     0
 49
-0.0295
 74
     0
 49
0.0049
 74
     0
 49
-0.0295
 74
     0
 49
0.0049
 74
     0
 49
-0.0295
 74
     0
  0
LTYPE
  5
8C
330
5
100
AcDbSymbolTableRecord
100
AcDbLinetypeTableRecord
  2
BORDER
 70
     0
  3
Border __ __ . __ __ . __ __ . __ __ . __ __ .
 72
    65
 73
     6
 40
1.75
 49
0.5
 74
     0
 49
-0.25
 74
     0
 49
0.5
 74
     0
 49
-0.25
 74
     0
 49
0.0
 74
     0
 49
-0.25
 74
     0
  0
LTYPE
  5
8D
330
5
100
AcDbSymbolTableRecord
100
AcDbLinetypeTableRecord
  2
BORDER2
 70
     0
  3
Border (.5x) __.__.__.__.__.__.__.__.__.__.__.
 72
    65
 73
     6
 40
0.875
 49
0.25
 74
     0
 49
-0.125
 74
     0
 49
0.25
 74
     0
 49
-0.125
 74
     0
 49
0.0
 74
     0
 49
-0.125
 74
     0
  0
LTYPE
  5
8E
330
5
100
AcDbSymbolTableRecord
100
AcDbLinetypeTableRecord
  2
BORDERX2
 70
     0
  3
Border (2x) ____  ____  .  ____  ____  .  ___
 72
    65
 73
     6
 40
3.5
 49
1.0
 74
     0
 49
-0.5
 74
     0
 49
1.0
 74
     0
 49
-0.5
 74
     0
 49
0.0
 74
     0
 49
-0.5
 74
     0
  0
LTYPE
  5
8F
330
5
100
AcDbSymbolTableRecord
100
AcDbLinetypeTableRecord
  2
CENTER
 70
     0
  3
Center ____ _ ____ _ ____ _ ____ _ ____ _ ____
 72
    65
 73
     4
 40
2.0
 49
1.25
 74
     0
 49
-0.25
 74
     0
 49
0.25
 74
     0
 49
-0.25
 74
     0
  0
LTYPE
  5
90
330
5
100
AcDbSymbolTableRecord
100
AcDbLinetypeTableRecord
  2
CENTER2
 70
     0
  3
Center (.5x) ___ _ ___ _ ___ _ ___ _ ___ _ ___
 72
    65
 73
     4
 40
1.125
 49
0.75
 74
     0
 49
-0.125
 74
     0
 49
0.125
 74
     0
 49
-0.125
 74
     0
  0
LTYPE
  5
91
330
5
100
AcDbSymbolTableRecord
100
AcDbLinetypeTableRecord
  2
CENTERX2
 70
     0
  3
Center (2x) ________  __  ________  __  _____
 72
    65
 73
     4
 40
4.0
 49
2.5
 74
     0
 49
-0.5
 74
     0
 49
0.5
 74
     0
 49
-0.5
 74
     0
  0
LTYPE
  5
92
330
5
100
AcDbSymbolTableRecord
100
AcDbLinetypeTableRecord
  2
DASHDOT2
 70
     0
  3
Dash dot (.5x) _._._._._._._._._._._._._._._.
 72
    65
 73
     4
 40
0.5
 49
0.25
 74
     0
 49
-0.125
 74
     0
 49
0.0
 74
     0
 49
-0.125
 74
     0
  0
LTYPE
  5
93
330
5
100
AcDbSymbolTableRecord
100
AcDbLinetypeTableRecord
  2
DASHDOTX2
 70
     0
  3
Dash dot (2x) ____  .  ____  .  ____  .  ___
 72
    65
 73
     4
 40
2.0
 49
1.0
 74
     0
 49
-0.5
 74
     0
 49
0.0
 74
     0
 49
-0.5
 74
     0
  0
LTYPE
  5
95
330
5
100
AcDbSymbolTableRecord
100
AcDbLinetypeTableRecord
  2
DASHED2
 70
     0
  3
Dashed (.5x) _ _ _ _ _ _ _ _ _ _ _ _ _ _ _ _ _
 72
    65
 73
     2
 40
0.375
 49
0.25
 74
     0
 49
-0.125
 74
     0
  0
LTYPE
  5
96
330
5
100
AcDbSymbolTableRecord
100
AcDbLinetypeTableRecord
  2
DASHEDX2
 70
     0
  3
Dashed (2x) ____  ____  ____  ____  ____  ___
 72
    65
 73
     2
 40
1.5
 49
1.0
 74
     0
 49
-0.5
 74
     0
  0
LTYPE
  5
97
330
5
100
AcDbSymbolTableRecord
100
AcDbLinetypeTableRecord
  2
DIVIDE
 70
     0
  3
Divide ____ . . ____ . . ____ . . ____ . . ____
 72
    65
 73
     6
 40
1.25
 49
0.5
 74
     0
 49
-0.25
 74
     0
 49
0.0
 74
     0
 49
-0.25
 74
     0
 49
0.0
 74
     0
 49
-0.25
 74
     0
  0
LTYPE
  5
98
330
5
100
AcDbSymbolTableRecord
100
AcDbLinetypeTableRecord
  2
DIVIDE2
 70
     0
  3
Divide (.5x) __..__..__..__..__..__..__..__.._
 72
    65
 73
     6
 40
0.625
 49
0.25
 74
     0
 49
-0.125
 74
     0
 49
0.0
 74
     0
 49
-0.125
 74
     0
 49
0.0
 74
     0
 49
-0.125
 74
     0
  0
LTYPE
  5
99
330
5
100
AcDbSymbolTableRecord
100
AcDbLinetypeTableRecord
  2
DIVIDEX2
 70
     0
  3
Divide (2x) ________  .  .  ________  .  .  _
 72
    65
 73
     6
 40
2.5
 49
1.0
 74
     0
 49
-0.5
 74
     0
 49
0.0
 74
     0
 49
-0.5
 74
     0
 49
0.0
 74
     0
 49
-0.5
 74
     0
  0
LTYPE
  5
9A
330
5
100
AcDbSymbolTableRecord
100
AcDbLinetypeTableRecord
  2
DOT
 70
     0
  3
Dot . . . . . . . . . . . . . . . . . . . . . .
 72
    65
 73
     2
 40
0.25
 49
0.0
 74
     0
 49
-0.25
 74
     0
  0
LTYPE
  5
9B
330
5
100
AcDbSymbolTableRecord
100
AcDbLinetypeTableRecord
  2
DOT2
 70
     0
  3
Dot (.5x) .....................................
 72
    65
 73
     2
 40
0.125
 49
0.0
 74
     0
 49
-0.125
 74
     0
  0
LTYPE
  5
9C
330
5
100
AcDbSymbolTableRecord
100
AcDbLinetypeTableRecord
  2
DOTX2
 70
     0
  3
Dot (2x) .  .  .  .  .  .  .  .  .  .  .  .  . 
 72
    65
 73
     2
 40
0.5
 49
0.0
 74
     0
 49
-0.5
 74
     0
  0
LTYPE
  5
9D
330
5
100
AcDbSymbolTableRecord
100
AcDbLinetypeTableRecord
  2
HIDDEN
 70
     0
  3
Hidden __ __ __ __ __ __ __ __ __ __ __ __ __ _
 72
    65
 73
     2
 40
0.375
 49
0.25
 74
     0
 49
-0.125
 74
     0
  0
LTYPE
  5
9E
330
5
100
AcDbSymbolTableRecord
100
AcDbLinetypeTableRecord
  2
HIDDEN2
 70
     0
  3
Hidden (.5x) _ _ _ _ _ _ _ _ _ _ _ _ _ _ _ _ _
 72
    65
 73
     2
 40
0.1875
 49
0.125
 74
     0
 49
-0.0625
 74
     0
  0
LTYPE
  5
9F
330
5
100
AcDbSymbolTableRecord
100
AcDbLinetypeTableRecord
  2
HIDDENX2
 70
     0
  3
Hidden (2x) ____ ____ ____ ____ ____ ____ ____
 72
    65
 73
     2
 40
0.75
 49
0.5
 74
     0
 49
-0.25
 74
     0
  0
LTYPE
  5
A0
330
5
100
AcDbSymbolTableRecord
100
AcDbLinetypeTableRecord
  2
PHANTOM
 70
     0
  3
Phantom ______  __  __  ______  __  __  ______
 72
    65
 73
     6
 40
2.5
 49
1.25
 74
     0
 49
-0.25
 74
     0
 49
0.25
 74
     0
 49
-0.25
 74
     0
 49
0.25
 74
     0
 49
-0.25
 74
     0
  0
LTYPE
  5
A1
330
5
100
AcDbSymbolTableRecord
100
AcDbLinetypeTableRecord
  2
PHANTOM2
 70
     0
  3
Phantom (.5x) ___ _ _ ___ _ _ ___ _ _ ___ _ _
 72
    65
 73
     6
 40
1.25
 49
0.625
 74
     0
 49
-0.125
 74
     0
 49
0.125
 74
     0
 49
-0.125
 74
     0
 49
0.125
 74
     0
 49
-0.125
 74
     0
  0
LTYPE
  5
A2
330
5
100
AcDbSymbolTableRecord
100
AcDbLinetypeTableRecord
  2
PHANTOMX2
 70
     0
  3
Phantom (2x) ____________    ____    ____   _
 72
    65
 73
     6
 40
5.0
 49
2.5
 74
     0
 49
-0.5
 74
     0
 49
0.5
 74
     0
 49
-0.5
 74
     0
 49
0.5
 74
     0
 49
-0.5
 74
     0
  0
LTYPE
  5
A3
330
5
100
AcDbSymbolTableRecord
100
AcDbLinetypeTableRecord
  2
ACAD_ISO02W100
 70
     0
  3
ISO dash __ __ __ __ __ __ __ __ __ __ __ __ __
 72
    65
 73
     2
 40
0.59
 49
0.47
 74
     0
 49
-0.12
 74
     0
  0
LTYPE
  5
A4
330
5
100
AcDbSymbolTableRecord
100
AcDbLinetypeTableRecord
  2
ACAD_ISO03W100
 70
     0
  3
ISO dash space __    __    __    __    __    __
 72
    65
 73
     2
 40
1.179999999999999
 49
0.47
 74
     0
 49
-0.71
 74
     0
  0
LTYPE
  5
A5
330
5
100
AcDbSymbolTableRecord
100
AcDbLinetypeTableRecord
  2
ACAD_ISO04W100
 70
     0
  3
ISO long-dash dot ____ . ____ . ____ . ____ . _
 72
    65
 73
     4
 40
1.179999999999999
 49
0.9399999999999998
 74
     0
 49
-0.12
 74
     0
 49
0.0
 74
     0
 49
-0.12
 74
     0
  0
LTYPE
  5
A6
330
5
100
AcDbSymbolTableRecord
100
AcDbLinetypeTableRecord
  2
ACAD_ISO05W100
 70
     0
  3
ISO long-dash double-dot ____ .. ____ .. ____ .
 72
    65
 73
     6
 40
1.299999999999999
 49
0.9399999999999998
 74
     0
 49
-0.12
 74
     0
 49
0.0
 74
     0
 49
-0.12
 74
     0
 49
0.0
 74
     0
 49
-0.12
 74
     0
  0
LTYPE
  5
A7
330
5
100
AcDbSymbolTableRecord
100
AcDbLinetypeTableRecord
  2
ACAD_ISO06W100
 70
     0
  3
ISO long-dash triple-dot ____ ... ____ ... ____
 72
    65
 73
     8
 40
1.419999999999999
 49
0.9399999999999998
 74
     0
 49
-0.12
 74
     0
 49
0.0
 74
     0
 49
-0.12
 74
     0
 49
0.0
 74
     0
 49
-0.12
 74
     0
 49
0.0
 74
     0
 49
-0.12
 74
     0
  0
LTYPE
  5
A8
330
5
100
AcDbSymbolTableRecord
100
AcDbLinetypeTableRecord
  2
ACAD_ISO07W100
 70
     0
  3
ISO dot . . . . . . . . . . . . . . . . . . . .
 72
    65
 73
     2
 40
0.12
 49
0.0
 74
     0
 49
-0.12
 74
     0
  0
LTYPE
  5
A9
330
5
100
AcDbSymbolTableRecord
100
AcDbLinetypeTableRecord
  2
ACAD_ISO08W100
 70
     0
  3
ISO long-dash short-dash ____ __ ____ __ ____ _
 72
    65
 73
     4
 40
0.95
 49
0.47
 74
     0
 49
-0.12
 74
     0
 49
0.24
 74
     0
 49
-0.12
 74
     0
  0
LTYPE
  5
AA
330
5
100
AcDbSymbolTableRecord
100
AcDbLinetypeTableRecord
  2
ACAD_ISO09W100
 70
     0
  3
ISO long-dash double-short-dash ____ __ __ ____
 72
    65
 73
     6
 40
1.31
 49
0.47
 74
     0
 49
-0.12
 74
     0
 49
0.24
 74
     0
 49
-0.12
 74
     0
 49
0.24
 74
     0
 49
-0.12
 74
     0
  0
LTYPE
  5
AB
330
5
100
AcDbSymbolTableRecord
100
AcDbLinetypeTableRecord
  2
ACAD_ISO10W100
 70
     0
  3
ISO dash dot __ . __ . __ . __ . __ . __ . __ .
 72
    65
 73
     4
 40
0.71
 49
0.47
 74
     0
 49
-0.12
 74
     0
 49
0.0
 74
     0
 49
-0.12
 74
     0
  0
LTYPE
  5
AC
330
5
100
AcDbSymbolTableRecord
100
AcDbLinetypeTableRecord
  2
ACAD_ISO11W100
 70
     0
  3
ISO double-dash dot __ __ . __ __ . __ __ . __ 
 72
    65
 73
     6
 40
1.299999999999999
 49
0.47
 74
     0
 49
-0.12
 74
     0
 49
0.47
 74
     0
 49
-0.12
 74
     0
 49
0.0
 74
     0
 49
-0.12
 74
     0
  0
LTYPE
  5
AD
330
5
100
AcDbSymbolTableRecord
100
AcDbLinetypeTableRecord
  2
ACAD_ISO12W100
 70
     0
  3
ISO dash double-dot __ . . __ . . __ . . __ . .
 72
    65
 73
     6
 40
0.8299999999999998
 49
0.47
 74
     0
 49
-0.12
 74
     0
 49
0.0
 74
     0
 49
-0.12
 74
     0
 49
0.0
 74
     0
 49
-0.12
 74
     0
  0
LTYPE
  5
AE
330
5
100
AcDbSymbolTableRecord
100
AcDbLinetypeTableRecord
  2
ACAD_ISO13W100
 70
     0
  3
ISO double-dash double-dot __ __ . . __ __ . . 
 72
    65
 73
     8
 40
1.419999999999999
 49
0.47
 74
     0
 49
-0.12
 74
     0
 49
0.47
 74
     0
 49
-0.12
 74
     0
 49
0.0
 74
     0
 49
-0.12
 74
     0
 49
0.0
 74
     0
 49
-0.12
 74
     0
  0
LTYPE
  5
AF
330
5
100
AcDbSymbolTableRecord
100
AcDbLinetypeTableRecord
  2
ACAD_ISO14W100
 70
     0
  3
ISO dash triple-dot __ . . . __ . . . __ . . . 
 72
    65
 73
     8
 40
0.95
 49
0.47
 74
     0
 49
-0.12
 74
     0
 49
0.0
 74
     0
 49
-0.12
 74
     0
 49
0.0
 74
     0
 49
-0.12
 74
     0
 49
0.0
 74
     0
 49
-0.12
 74
     0
  0
LTYPE
  5
B0
330
5
100
AcDbSymbolTableRecord
100
AcDbLinetypeTableRecord
  2
ACAD_ISO15W100
 70
     0
  3
ISO double-dash triple-dot __ __ . . . __ __ . 
 72
    65
 73
    10
 40
1.539999999999999
 49
0.47
 74
     0
 49
-0.12
 74
     0
 49
0.47
 74
     0
 49
-0.12
 74
     0
 49
0.0
 74
     0
 49
-0.12
 74
     0
 49
0.0
 74
     0
 49
-0.12
 74
     0
 49
0.0
 74
     0
 49
-0.12
 74
     0
  0
LTYPE
  5
B3
330
5
100
AcDbSymbolTableRecord
100
AcDbLinetypeTableRecord
  2
FENCELINE1
 70
     0
  3
Fenceline circle ----0-----0----0-----0----0---
 72
    65
 73
     4
 40
1.45
 49
0.25
 74
     0
 49
-0.1
 74
     4
 75
   133
340
B2
 46
0.1
 50
0.0
 44
-0.1
 45
0.0
 49
-0.1
 74
     0
 49
1.0
 74
     0
  0
LTYPE
  5
B4
330
5
100
AcDbSymbolTableRecord
100
AcDbLinetypeTableRecord
  2
FENCELINE2
 70
     0
  3
Fenceline square ----[]-----[]----[]-----[]----
 72
    65
 73
     4
 40
1.45
 49
0.25
 74
     0
 49
-0.1
 74
     4
 75
   132
340
B2
 46
0.1
 50
0.0
 44
-0.1
 45
0.0
 49
-0.1
 74
     0
 49
1.0
 74
     0
  0
LTYPE
  5
B5
330
5
100
AcDbSymbolTableRecord
100
AcDbLinetypeTableRecord
  2
TRACKS
 70
     0
  3
Tracks -|-|-|-|-|-|-|-|-|-|-|-|-|-|-|-|-|-|-|-|
 72
    65
 73
     2
 40
0.3
 49
0.15
 74
     4
 75
   130
340
B2
 46
0.25
 50
0.0
 44
0.0
 45
0.0
 49
0.15
 74
     0
  0
LTYPE
  5
B6
330
5
100
AcDbSymbolTableRecord
100
AcDbLinetypeTableRecord
  2
BATTING
 70
     0
  3
Batting SSSSSSSSSSSSSSSSSSSSSSSSSSSSSSSSSSSSSSS
 72
    65
 73
     4
 40
0.4001000000000001
 49
0.0001
 74
     0
 49
-0.1
 74
     4
 75
   134
340
B2
 46
0.1
 50
0.0
 44
-0.1
 45
0.0
 49
-0.2
 74
     4
 75
   134
340
B2
 46
0.1
 50
180.0
 44
0.1
 45
0.0
 49
-0.1
 74
     0
  0
LTYPE
  5
B7
330
5
100
AcDbSymbolTableRecord
100
AcDbLinetypeTableRecord
  2
HOT_WATER_SUPPLY
 70
     0
  3
Hot water supply ---- HW ---- HW ---- HW ----
 72
    65
 73
     3
 40
0.9
 49
0.5
 74
     0
 49
-0.2
 74
     2
 75
     0
340
55
 46
0.1
 50
0.0
 44
-0.1
 45
-0.05
  9
HW
 49
-0.2
 74
     0
  0
LTYPE
  5
B8
330
5
100
AcDbSymbolTableRecord
100
AcDbLinetypeTableRecord
  2
GAS_LINE
 70
     0
  3
Gas line ----GAS----GAS----GAS----GAS----GAS---
 72
    65
 73
     3
 40
0.95
 49
0.5
 74
     0
 49
-0.2
 74
     2
 75
     0
340
55
 46
0.1
 50
0.0
 44
-0.1
 45
-0.05
  9
GAS
 49
-0.25
 74
     0
  0
LTYPE
  5
B9
330
5
100
AcDbSymbolTableRecord
100
AcDbLinetypeTableRecord
  2
ZIGZAG
 70
     0
  3
Zig zag /\/\/\/\/\/\/\/\/\/\/\/\/\/\/\/\/\/\/\/
 72
    65
 73
     4
 40
0.8001000000000001
 49
0.0001
 74
     0
 49
-0.2
 74
     4
 75
   131
340
B2
 46
0.2
 50
0.0
 44
-0.2
 45
0.0
 49
-0.4
 74
     4
 75
   131
340
B2
 46
0.2
 50
180.0
 44
0.2
 45
0.0
 49
-0.2
 74
     0
  0
ENDTAB
  0
TABLE
  2
LAYER
  5
2
330
0
100
AcDbSymbolTable
 70
    27
  0
LAYER
  5
54
330
2
100
AcDbSymbolTableRecord
100
AcDbLayerTableRecord
  2
0
 70
     0
 62
     7
  6
Continuous
370
     0
390
F
  0
LAYER
  5
C0
330
2
100
AcDbSymbolTableRecord
100
AcDbLayerTableRecord
  2
Center Mark (ANSI)
 70
     0
 62
     7
  6
Continuous
370
     5
390
F
  0
LAYER
  5
C1
330
2
100
AcDbSymbolTableRecord
100
AcDbLayerTableRecord
  2
Centerline (ANSI)
 70
     0
 62
     7
  6
Continuous
370
     5
390
F
  0
LAYER
  5
C3
330
2
100
AcDbSymbolTableRecord
100
AcDbLayerTableRecord
  2
Dimension (ANSI)
 70
     0
 62
     7
  6
Continuous
370
     5
390
F
  0
LAYER
  5
CC
330
2
100
AcDbSymbolTableRecord
100
AcDbLayerTableRecord
  2
Symbol (ANSI)
 70
     0
 62
     7
  6
Continuous
370
     5
390
F
  0
LAYER
  5
CF
330
2
100
AcDbSymbolTableRecord
100
AcDbLayerTableRecord
  2
Visible (ANSI)
 70
     0
 62
     7
  6
Continuous
370
     5
390
F
  0
LAYER
  5
D0
330
2
100
AcDbSymbolTableRecord
100
AcDbLayerTableRecord
  2
Visible Narrow (ANSI)
 70
     0
 62
     7
  6
Continuous
370
     5
390
F
  0
LAYER
  5
2B9
330
2
100
AcDbSymbolTableRecord
100
AcDbLayerTableRecord
  2
Defpoints
 70
     0
 62
     7
  6
Continuous
290
     0
370
    -3
390
F
  0
ENDTAB
  0
TABLE
  2
STYLE
  5
3
330
0
100
AcDbSymbolTable
 70
    10
  0
STYLE
  5
55
330
3
100
AcDbSymbolTableRecord
100
AcDbTextStyleTableRecord
  2
Standard
 70
     0
 40
0.0
 41
1.0
 50
0.0
 71
     0
 42
0.2
  3
txt
  4

  0
STYLE
  5
5A
330
3
100
AcDbSymbolTableRecord
100
AcDbTextStyleTableRecord
  2
Annotative
 70
     0
 40
0.0
 41
1.0
 50
0.0
 71
     0
 42
0.2
  3
txt
  4

1001
AcadAnnotative
1000
AnnotativeData
1002
{
1070
     1
1070
     1
1002
}
  0
STYLE
  5
B2
330
3
100
AcDbSymbolTableRecord
100
AcDbTextStyleTableRecord
  2

 70
     1
 40
0.0
 41
1.0
 50
0.0
 71
     0
 42
0.2
  3
ltypeshp.shx
  4

  0
STYLE
  5
D4
330
3
100
AcDbSymbolTableRecord
100
AcDbTextStyleTableRecord
  2
ITALICC_120
 70
     0
 40
0.0
 41
1.0
 50
0.0
 71
     0
 42
0.2
  3
italicc.shx
  4

  0
STYLE
  5
D5
330
3
100
AcDbSymbolTableRecord
100
AcDbTextStyleTableRecord
  2
Label Text (ANSI)
 70
     0
 40
0.0
 41
1.0
 50
0.0
 71
     0
 42
0.2
  3
tahoma.ttf
  4

1001
ACAD
1000
Tahoma
1071
      256
  0
STYLE
  5
D6
330
3
100
AcDbSymbolTableRecord
100
AcDbTextStyleTableRecord
  2
Note Text (ANSI)
 70
     0
 40
0.0
 41
1.0
 50
0.0
 71
     0
 42
0.2
  3
RomanS.shx
  4

  0
STYLE
  5
D7
330
3
100
AcDbSymbolTableRecord
100
AcDbTextStyleTableRecord
  2
ROMANS
 70
     0
 40
0.0
 41
1.0
 50
0.0
 71
     0
 42
0.2
  3
romans.shx
  4

  0
STYLE
  5
D8
330
3
100
AcDbSymbolTableRecord
100
AcDbTextStyleTableRecord
  2
SANSSERIF_114
 70
     0
 40
0.0
 41
1.0
 50
0.0
 71
     0
 42
0.2
  3
tahoma.ttf
  4

1001
ACAD
1000
Tahoma
1071
      256
  0
STYLE
  5
D9
330
3
100
AcDbSymbolTableRecord
100
AcDbTextStyleTableRecord
  2
SANSSERIF_117
 70
     0
 40
0.0
 41
1.0
 50
0.0
 71
     0
 42
0.2
  3
tahoma.ttf
  4

1001
ACAD
1000
Tahoma
1071
      256
  0
STYLE
  5
15E
330
3
100
AcDbSymbolTableRecord
100
AcDbTextStyleTableRecord
  2
Text Style168
 70
     0
 40
0.0
 41
1.0
 50
0.0
 71
     0
 42
0.2
  3
tahoma.ttf
  4

1001
ACAD
1000
Tahoma
1071
      256
  0
ENDTAB
  0
TABLE
  2
VIEW
  5
6
330
0
100
AcDbSymbolTable
 70
     0
  0
ENDTAB
  0
TABLE
  2
UCS
  5
7
330
0
100
AcDbSymbolTable
 70
     0
  0
ENDTAB
  0
TABLE
  2
APPID
  5
9
330
0
100
AcDbSymbolTable
 70
     5
  0
APPID
  5
56
330
9
100
AcDbSymbolTableRecord
100
AcDbRegAppTableRecord
  2
ACAD
 70
     0
  0
APPID
  5
5E
330
9
100
AcDbSymbolTableRecord
100
AcDbRegAppTableRecord
  2
AcadAnnotative
 70
     0
  0
APPID
  5
623
330
9
100
AcDbSymbolTableRecord
100
AcDbRegAppTableRecord
  2
ACAD_DSTYLE_DIMANGULAR_EXTENSION
 70
     0
  0
APPID
  5
F0C
330
9
100
AcDbSymbolTableRecord
100
AcDbRegAppTableRecord
  2
ACAD_DSTYLE_DIMRADIAL_EXTENSION
 70
     0
  0
APPID
  5
15C3
330
9
100
AcDbSymbolTableRecord
100
AcDbRegAppTableRecord
  2
ACAD_MLEADERVER
 70
     0
  0
ENDTAB
  0
TABLE
  2
DIMSTYLE
  5
A
330
0
100
AcDbSymbolTable
 70
    15
100
AcDbDimStyleTable
 71
     2
340
E2
340
58
  0
DIMSTYLE
105
58
330
A
100
AcDbSymbolTableRecord
100
AcDbDimStyleTableRecord
  2
Standard
 70
     0
340
55
  0
DIMSTYLE
105
59
330
A
100
AcDbSymbolTableRecord
100
AcDbDimStyleTableRecord
  2
Annotative
 70
     0
340
55
1001
AcadAnnotative
1000
AnnotativeData
1002
{
1070
     1
1070
     1
1002
}
  0
DIMSTYLE
105
DA
330
A
100
AcDbSymbolTableRecord
100
AcDbDimStyleTableRecord
  2
Architectural (ANSI)
 70
     0
 40
6.0
 41
0.0984251946210861
 43
0.2362204724409449
 44
0.125
 45
0.00000001
 46
0.3937007874015748
 78
     3
 79
     3
140
0.1000000014901161
146
1.200000047683715
147
0.031496062992126
171
     1
176
   256
177
   256
178
   256
272
     2
274
     1
276
     2
277
     4
284
    12
285
     4
286
    12
340
D6
371
    -1
372
    -1
  0
DIMSTYLE
105
DB
330
A
100
AcDbSymbolTableRecord
100
AcDbDimStyleTableRecord
  2
Architectural (ANSI)$7
 70
     0
 40
6.0
 41
0.0984251946210861
 43
0.2362204724409449
 44
0.125
 45
0.00000001
 46
0.3937007874015748
 78
     3
 79
     3
140
0.1000000014901161
146
1.200000047683715
147
0.031496062992126
171
     1
176
   256
177
   256
178
   256
272
     2
274
     1
276
     2
277
     4
284
    12
285
     4
286
    12
340
D6
371
    -1
372
    -1
  0
DIMSTYLE
105
DC
330
A
100
AcDbSymbolTableRecord
100
AcDbDimStyleTableRecord
  2
Default - Fraction (ANSI)
 70
     0
 40
6.0
 41
0.0984251946210861
 43
0.2362204724409449
 44
0.125
 45
0.00000001
 46
0.3937007874015748
 79
     3
140
0.1000000014901161
146
1.200000047683715
147
0.031496062992126
171
     1
176
   256
177
   256
178
   256
272
     2
274
     1
276
     2
277
     5
284
    12
285
     4
286
    12
340
D6
371
    -1
372
    -1
  0
DIMSTYLE
105
DD
330
A
100
AcDbSymbolTableRecord
100
AcDbDimStyleTableRecord
  2
Default - Fraction (ANSI)$7
 70
     0
 40
6.0
 41
0.0984251946210861
 43
0.2362204724409449
 44
0.125
 45
0.00000001
 46
0.3937007874015748
 79
     3
140
0.1000000014901161
146
1.200000047683715
147
0.031496062992126
171
     1
176
   256
177
   256
178
   256
272
     2
274
     1
276
     2
277
     5
284
    12
285
     4
286
    12
340
D6
371
    -1
372
    -1
  0
DIMSTYLE
105
DE
330
A
100
AcDbSymbolTableRecord
100
AcDbDimStyleTableRecord
  2
Default - mm (ANSI)
 70
     0
 40
6.0
 41
0.0984251946210861
 42
0.063
 43
0.2362204724409449
 44
0.125
 45
0.00000001
 46
0.3937007874015748
 73
     0
 78
     4
 79
     1
140
0.1000000014901161
143
1.0
144
25.4
146
1.200000047683715
147
0.031496062992126
171
     1
176
   256
177
   256
178
   256
179
     1
271
     2
272
     2
274
     1
284
     4
285
     4
340
D6
371
    -1
372
    -1
  0
DIMSTYLE
105
DF
330
A
100
AcDbSymbolTableRecord
100
AcDbDimStyleTableRecord
  2
Default - mm (ANSI)$7
 70
     0
 40
6.0
 41
0.0984251946210861
 42
0.063
 43
0.2362204724409449
 44
0.125
 45
0.00000001
 46
0.3937007874015748
 73
     0
 78
     4
 79
     1
140
0.1000000014901161
143
1.0
144
25.4
146
1.200000047683715
147
0.031496062992126
171
     1
176
   256
177
   256
178
   256
179
     1
271
     2
272
     2
274
     1
284
     4
285
     4
340
D6
371
    -1
372
    -1
  0
DIMSTYLE
105
E0
330
A
100
AcDbSymbolTableRecord
100
AcDbDimStyleTableRecord
  2
Default - mm [in] (ANSI)
 70
     0
  4
 in
 40
6.0
 41
0.0984251946210861
 42
0.063
 43
0.25
 44
0.125
 45
0.00000001
 46
0.3937007874015748
 73
     0
 78
     4
 79
     1
140
0.1000000014901161
143
0.03937
144
25.4
146
1.200000047683715
147
0.031496062992126
170
     1
171
     3
176
   256
177
   256
178
   256
179
     1
271
     2
272
     2
274
     3
284
     4
285
     4
286
     4
340
D6
371
    -1
372
    -1
  0
DIMSTYLE
105
E1
330
A
100
AcDbSymbolTableRecord
100
AcDbDimStyleTableRecord
  2
Default - mm [in] (ANSI)$7
 70
     0
  4
 in
 40
6.0
 41
0.0984251946210861
 42
0.063
 43
0.25
 44
0.125
 45
0.00000001
 46
0.3937007874015748
 73
     0
 78
     4
 79
     1
140
0.1000000014901161
143
0.03937
144
25.4
146
1.200000047683715
147
0.031496062992126
170
     1
171
     3
176
   256
177
   256
178
   256
179
     1
271
     2
272
     2
274
     3
284
     4
285
     4
286
     4
340
D6
371
    -1
372
    -1
  0
DIMSTYLE
105
E2
102
{ACAD_REACTORS
330
2B7
330
3B8
330
4B6
330
5A0
330
6C9
330
7B8
330
8B5
330
9B5
330
A9F
330
B9F
330
C89
330
D75
330
E73
330
F32
330
101C
330
1106
330
11F0
330
12ED
330
13DD
330
1496
102
}
330
A
100
AcDbSymbolTableRecord
100
AcDbDimStyleTableRecord
  2
Default (ANSI)
 70
     0
 40
6.0
 41
0.0984251946210861
 43
0.2362204724409449
 44
0.125
 45
0.00000001
 46
0.3937007874015748
140
0.1000000014901161
147
0.031496062992126
176
   256
177
   256
178
   256
271
     2
272
     2
340
D7
371
    -1
372
    -1
  0
DIMSTYLE
105
E3
330
A
100
AcDbSymbolTableRecord
100
AcDbDimStyleTableRecord
  2
Default (ANSI)$7
 70
     0
 40
6.0
 41
0.0984251946210861
 43
0.2362204724409449
 44
0.125
 45
0.00000001
 46
0.3937007874015748
140
0.1000000014901161
147
0.031496062992126
176
   256
177
   256
178
   256
271
     2
272
     2
340
D7
371
    -1
372
    -1
  0
DIMSTYLE
105
E4
330
A
100
AcDbSymbolTableRecord
100
AcDbDimStyleTableRecord
  2
Alternate (ANSI)
 70
     0
 40
6.0
 41
0.0979999974370003
340
55
342
E5
  0
DIMSTYLE
105
F7
330
A
100
AcDbSymbolTableRecord
100
AcDbDimStyleTableRecord
  2
Datum (ANSI)
 70
     0
 40
6.0
 41
0.0979999974370003
340
55
342
E5
  0
DIMSTYLE
105
106
330
A
100
AcDbSymbolTableRecord
100
AcDbDimStyleTableRecord
  2
Large (ANSI)
 70
     0
 40
6.0
 41
0.1959999948740005
340
55
342
E5
  0
ENDTAB
  0
TABLE
  2
BLOCK_RECORD
  5
1
330
0
100
AcDbSymbolTable
 70
    24
  0
BLOCK_RECORD
  5
6C
330
1
100
AcDbSymbolTableRecord
100
AcDbBlockTableRecord
  2
*Model_Space
340
6F
  0
BLOCK_RECORD
  5
68
330
1
100
AcDbSymbolTableRecord
100
AcDbBlockTableRecord
  2
*Paper_Space
340
6B
  0
BLOCK_RECORD
  5
70
330
1
100
AcDbSymbolTableRecord
100
AcDbBlockTableRecord
  2
*Paper_Space0
340
73
  0
BLOCK_RECORD
  5
E5
330
1
100
AcDbSymbolTableRecord
100
AcDbBlockTableRecord
  2
_Closed
340
0
  0
BLOCK_RECORD
  5
EC
330
1
100
AcDbSymbolTableRecord
100
AcDbBlockTableRecord
  2
DatumFilled45
340
0
  0
BLOCK_RECORD
  5
F8
330
1
100
AcDbSymbolTableRecord
100
AcDbBlockTableRecord
  2
Filled-1
340
0
  0
BLOCK_RECORD
  5
2BA
330
1
100
AcDbSymbolTableRecord
100
AcDbBlockTableRecord
  2
*D4
340
0
  0
BLOCK_RECORD
  5
3B9
330
1
100
AcDbSymbolTableRecord
100
AcDbBlockTableRecord
  2
*D5
340
0
  0
BLOCK_RECORD
  5
4B7
330
1
100
AcDbSymbolTableRecord
100
AcDbBlockTableRecord
  2
*D6
340
0
  0
BLOCK_RECORD
  5
5A1
330
1
100
AcDbSymbolTableRecord
100
AcDbBlockTableRecord
  2
*D7
340
0
  0
BLOCK_RECORD
  5
6CA
330
1
100
AcDbSymbolTableRecord
100
AcDbBlockTableRecord
  2
*D8
340
0
  0
BLOCK_RECORD
  5
7B9
330
1
100
AcDbSymbolTableRecord
100
AcDbBlockTableRecord
  2
*D9
340
0
  0
BLOCK_RECORD
  5
8B6
330
1
100
AcDbSymbolTableRecord
100
AcDbBlockTableRecord
  2
*D10
340
0
  0
BLOCK_RECORD
  5
9B6
330
1
100
AcDbSymbolTableRecord
100
AcDbBlockTableRecord
  2
*D11
340
0
  0
BLOCK_RECORD
  5
AA0
330
1
100
AcDbSymbolTableRecord
100
AcDbBlockTableRecord
  2
*D12
340
0
  0
BLOCK_RECORD
  5
BA0
330
1
100
AcDbSymbolTableRecord
100
AcDbBlockTableRecord
  2
*D13
340
0
  0
BLOCK_RECORD
  5
C8A
330
1
100
AcDbSymbolTableRecord
100
AcDbBlockTableRecord
  2
*D14
340
0
  0
BLOCK_RECORD
  5
D76
330
1
100
AcDbSymbolTableRecord
100
AcDbBlockTableRecord
  2
*D15
340
0
  0
BLOCK_RECORD
  5
E74
330
1
100
AcDbSymbolTableRecord
100
AcDbBlockTableRecord
  2
*D16
340
0
  0
BLOCK_RECORD
  5
F33
330
1
100
AcDbSymbolTableRecord
100
AcDbBlockTableRecord
  2
*D17
340
0
  0
BLOCK_RECORD
  5
101D
330
1
100
AcDbSymbolTableRecord
100
AcDbBlockTableRecord
  2
*D18
340
0
  0
BLOCK_RECORD
  5
1107
330
1
100
AcDbSymbolTableRecord
100
AcDbBlockTableRecord
  2
*D19
340
0
  0
BLOCK_RECORD
  5
11F1
330
1
100
AcDbSymbolTableRecord
100
AcDbBlockTableRecord
  2
*D20
340
0
  0
BLOCK_RECORD
  5
12EE
330
1
100
AcDbSymbolTableRecord
100
AcDbBlockTableRecord
  2
*D21
340
0
  0
BLOCK_RECORD
  5
13DE
330
1
100
AcDbSymbolTableRecord
100
AcDbBlockTableRecord
  2
*D22
340
0
  0
BLOCK_RECORD
  5
1497
330
1
100
AcDbSymbolTableRecord
100
AcDbBlockTableRecord
  2
*D23
340
0
  0
ENDTAB
  0
ENDSEC
  0
SECTION
  2
BLOCKS
  0
BLOCK
  5
6D
330
6C
100
AcDbEntity
  8
0
100
AcDbBlockBegin
  2
*Model_Space
 70
     0
 10
0.0
 20
0.0
 30
0.0
  3
*Model_Space
  1

  0
ENDBLK
  5
6E
330
6C
100
AcDbEntity
  8
0
100
AcDbBlockEnd
  0
BLOCK
  5
69
330
68
100
AcDbEntity
 67
     1
  8
0
100
AcDbBlockBegin
  2
*Paper_Space
 70
     0
 10
0.0
 20
0.0
 30
0.0
  3
*Paper_Space
  1

  0
ENDBLK
  5
6A
330
68
100
AcDbEntity
 67
     1
  8
0
100
AcDbBlockEnd
  0
BLOCK
  5
71
330
70
100
AcDbEntity
 67
     1
  8
0
100
AcDbBlockBegin
  2
*Paper_Space0
 70
     0
 10
0.0
 20
0.0
 30
0.0
  3
*Paper_Space0
  1

  0
ENDBLK
  5
72
330
70
100
AcDbEntity
 67
     1
  8
0
100
AcDbBlockEnd
  0
BLOCK
  5
EA
330
E5
100
AcDbEntity
  8
0
100
AcDbBlockBegin
  2
_Closed
 70
     0
 10
0.0
 20
0.0
 30
0.0
  3
_Closed
  1

  0
LINE
  5
E6
330
E5
100
AcDbEntity
  8
0
  6
ByBlock
 62
     0
370
    -2
100
AcDbLine
 10
-1.0
 20
0.1666666666666666
 30
0.0
 11
0.0
 21
0.0
 31
0.0
  0
LINE
  5
E7
330
E5
100
AcDbEntity
  8
0
  6
ByBlock
 62
     0
370
    -2
100
AcDbLine
 10
0.0
 20
0.0
 30
0.0
 11
-1.0
 21
-0.1666666666666666
 31
0.0
  0
LINE
  5
E8
330
E5
100
AcDbEntity
  8
0
  6
ByBlock
 62
     0
370
    -2
100
AcDbLine
 10
-1.0
 20
0.1666666666666666
 30
0.0
 11
-1.0
 21
-0.1666666666666666
 31
0.0
  0
LINE
  5
E9
330
E5
100
AcDbEntity
  8
0
  6
ByBlock
 62
     0
370
    -2
100
AcDbLine
 10
0.0
 20
0.0
 30
0.0
 11
-1.0
 21
0.0
 31
0.0
  0
ENDBLK
  5
EB
330
E5
100
AcDbEntity
  8
0
100
AcDbBlockEnd
  0
BLOCK
  5
ED
330
EC
100
AcDbEntity
  8
0
100
AcDbBlockBegin
  2
DatumFilled45
 70
     0
 10
0.0
 20
0.0
 30
0.0
  3
DatumFilled45
  1

  0
POLYLINE
  5
EF
330
EC
100
AcDbEntity
  8
0
 62
     0
100
AcDb2dPolyline
 66
     1
 10
0.0
 20
0.0
 30
0.0
 70
   128
  0
VERTEX
  5
F0
330
EF
100
AcDbEntity
  8
0
 62
     0
100
AcDbVertex
100
AcDb2dVertex
 10
0.0
 20
0.9999999999999998
 30
0.0
  0
VERTEX
  5
F1
330
EF
100
AcDbEntity
  8
0
 62
     0
100
AcDbVertex
100
AcDb2dVertex
 10
0.0
 20
-0.9999999999999998
 30
0.0
  0
VERTEX
  5
F3
330
EF
100
AcDbEntity
  8
0
 62
     0
100
AcDbVertex
100
AcDb2dVertex
 10
-0.9999999999999998
 20
0.0
 30
0.0
  0
VERTEX
  5
F4
330
EF
100
AcDbEntity
  8
0
 62
     0
100
AcDbVertex
100
AcDb2dVertex
 10
0.0
 20
0.9999999999999998
 30
0.0
  0
SEQEND
  5
F2
330
EF
100
AcDbEntity
  8
0
 62
     0
  0
SOLID
  5
F6
330
EC
100
AcDbEntity
  8
0
 62
     0
100
AcDbTrace
 10
0.0
 20
0.9999999999999998
 30
0.0
 11
0.0
 21
-0.9999999999999998
 31
0.0
 12
-0.9999999999999998
 22
0.0
 32
0.0
 13
0.0
 23
0.9999999999999998
 33
0.0
  0
ENDBLK
  5
EE
330
EC
100
AcDbEntity
  8
0
100
AcDbBlockEnd
  0
BLOCK
  5
F9
330
F8
100
AcDbEntity
  8
0
100
AcDbBlockBegin
  2
Filled-1
 70
     0
 10
0.0
 20
0.0
 30
0.0
  3
Filled-1
  1

  0
LINE
  5
FB
330
F8
100
AcDbEntity
  8
0
 62
     0
100
AcDbLine
 10
-0.9999999999999998
 20
0.0
 30
0.0
 11
0.0
 21
0.0
 31
0.0
  0
POLYLINE
  5
FC
330
F8
100
AcDbEntity
  8
0
 62
     0
100
AcDb2dPolyline
 66
     1
 10
0.0
 20
0.0
 30
0.0
 70
   128
  0
VERTEX
  5
FD
330
FC
100
AcDbEntity
  8
0
 62
     0
100
AcDbVertex
100
AcDb2dVertex
 10
-0.9999999999999998
 20
-0.0994897959183674
 30
0.0
  0
VERTEX
  5
FE
330
FC
100
AcDbEntity
  8
0
 62
     0
100
AcDbVertex
100
AcDb2dVertex
 10
0.0
 20
0.0
 30
0.0
  0
VERTEX
  5
100
330
FC
100
AcDbEntity
  8
0
 62
     0
100
AcDbVertex
100
AcDb2dVertex
 10
-0.9999999999999998
 20
0.0994897959183674
 30
0.0
  0
VERTEX
  5
101
330
FC
100
AcDbEntity
  8
0
 62
     0
100
AcDbVertex
100
AcDb2dVertex
 10
-0.9999999999999998
 20
-0.0994897959183674
 30
0.0
  0
SEQEND
  5
FF
330
FC
100
AcDbEntity
  8
0
 62
     0
  0
SOLID
  5
102
330
F8
100
AcDbEntity
  8
0
 62
     0
100
AcDbTrace
 10
-0.9999999999999998
 20
-0.0994897959183674
 30
0.0
 11
0.0
 21
0.0
 31
0.0
 12
-0.9999999999999998
 22
0.0994897959183674
 32
0.0
 13
-0.9999999999999998
 23
-0.0994897959183674
 33
0.0
  0
LINE
  5
103
330
F8
100
AcDbEntity
  8
0
 62
     0
100
AcDbLine
 10
-0.9999999999999998
 20
-0.0994897959183674
 30
0.0
 11
0.0
 21
0.0
 31
0.0
  0
LINE
  5
104
330
F8
100
AcDbEntity
  8
0
 62
     0
100
AcDbLine
 10
0.0
 20
0.0
 30
0.0
 11
-0.9999999999999998
 21
0.0994897959183674
 31
0.0
  0
LINE
  5
105
330
F8
100
AcDbEntity
  8
0
 62
     0
100
AcDbLine
 10
-0.9999999999999998
 20
0.0994897959183674
 30
0.0
 11
-0.9999999999999998
 21
-0.0994897959183674
 31
0.0
  0
ENDBLK
  5
FA
330
F8
100
AcDbEntity
  8
0
100
AcDbBlockEnd
  0
BLOCK
  5
2BB
330
2BA
100
AcDbEntity
  8
0
100
AcDbBlockBegin
  2
*D4
 70
     1
 10
0.0
 20
0.0
 30
0.0
  3
*D4
  1

  0
LINE
  5
3AE
330
2BA
100
AcDbEntity
  8
Dimension (ANSI)
440
 16777216
100
AcDbLine
 10
33.29577145758565
 20
41.56101652868602
 30
0.0
 11
30.5585667331762
 21
41.56101652868602
 31
0.0
  0
LINE
  5
3AF
330
2BA
100
AcDbEntity
  8
Dimension (ANSI)
440
 16777216
100
AcDbLine
 10
33.53017145758561
 20
29.56114266988425
 30
0.0
 11
30.5585667331762
 21
29.56114266988425
 31
0.0
  0
LINE
  5
3B0
330
2BA
100
AcDbEntity
  8
Dimension (ANSI)
440
 16777216
100
AcDbLine
 10
31.3085667331762
 20
40.97046536095951
 30
0.0
 11
31.3085667331762
 21
36.55005598915881
 31
0.0
  0
LINE
  5
3B1
330
2BA
100
AcDbEntity
  8
Dimension (ANSI)
440
 16777216
100
AcDbLine
 10
31.3085667331762
 20
30.15169383761076
 30
0.0
 11
31.3085667331762
 21
34.57210320941145
 31
0.0
  0
SOLID
  5
3B2
330
2BA
100
AcDbEntity
  8
Dimension (ANSI)
440
 16777216
100
AcDbTrace
 10
31.21014153855512
 20
40.97046536095951
 30
0.0
 11
31.40699192779729
 21
40.97046536095951
 31
0.0
 12
31.3085667331762
 22
41.56101652868602
 32
0.0
 13
31.3085667331762
 23
41.56101652868602
 33
0.0
  0
SOLID
  5
3B3
330
2BA
100
AcDbEntity
  8
Dimension (ANSI)
440
 16777216
100
AcDbTrace
 10
31.21014153855511
 20
30.15169383761076
 30
0.0
 11
31.40699192779728
 21
30.15169383761076
 31
0.0
 12
31.3085667331762
 22
29.56114266988425
 32
0.0
 13
31.3085667331762
 23
29.56114266988425
 33
0.0
  0
MTEXT
  5
3B4
330
2BA
100
AcDbEntity
  8
Dimension (ANSI)
440
 16777216
100
AcDbMText
 10
31.30856673317619
 20
35.56107959928514
 30
0.0
 40
0.6000000089406968
 41
0.0
 71
     5
 72
     1
  1
\A1;12.00{\PHEIGHT}
  7
ROMANS
 73
     1
 44
1.0
  0
POINT
  5
3B5
330
2BA
100
AcDbEntity
  8
Defpoints
 62
     0
440
 16777216
100
AcDbPoint
 10
33.67077145758564
 20
41.56101652868602
 30
0.0
  0
POINT
  5
3B6
330
2BA
100
AcDbEntity
  8
Defpoints
 62
     0
440
 16777216
100
AcDbPoint
 10
33.90517145758561
 20
29.56114266988425
 30
0.0
  0
POINT
  5
3B7
330
2BA
100
AcDbEntity
  8
Defpoints
 62
     0
440
 16777216
100
AcDbPoint
 10
31.3085667331762
 20
29.56114266988425
 30
0.0
  0
ENDBLK
  5
2BC
330
2BA
100
AcDbEntity
  8
0
100
AcDbBlockEnd
  0
BLOCK
  5
3BA
330
3B9
100
AcDbEntity
  8
0
100
AcDbBlockBegin
  2
*D5
 70
     1
 10
0.0
 20
0.0
 30
0.0
  3
*D5
  1

  0
LINE
  5
4AC
330
3B9
100
AcDbEntity
  8
Dimension (ANSI)
440
 16777216
100
AcDbLine
 10
33.53017145758564
 20
41.79541652868603
 30
0.0
 11
33.53017145758564
 21
44.13892046569391
 31
0.0
  0
LINE
  5
4AD
330
3B9
100
AcDbEntity
  8
Dimension (ANSI)
440
 16777216
100
AcDbLine
 10
53.65517145758567
 20
41.79541652868603
 30
0.0
 11
53.65517145758567
 21
44.13892046569391
 31
0.0
  0
LINE
  5
4AE
330
3B9
100
AcDbEntity
  8
Dimension (ANSI)
440
 16777216
100
AcDbLine
 10
34.12072262531216
 20
43.38892046569391
 30
0.0
 11
42.18940934725291
 21
43.38892046569391
 31
0.0
  0
LINE
  5
4AF
330
3B9
100
AcDbEntity
  8
Dimension (ANSI)
440
 16777216
100
AcDbLine
 10
53.06462028985915
 20
43.38892046569391
 30
0.0
 11
44.9959335679184
 21
43.38892046569391
 31
0.0
  0
SOLID
  5
4B0
330
3B9
100
AcDbEntity
  8
Dimension (ANSI)
440
 16777216
100
AcDbTrace
 10
34.12072262531216
 20
43.487345660315
 30
0.0
 11
34.12072262531216
 21
43.29049527107282
 31
0.0
 12
33.53017145758564
 22
43.38892046569391
 32
0.0
 13
33.53017145758564
 23
43.38892046569391
 33
0.0
  0
SOLID
  5
4B1
330
3B9
100
AcDbEntity
  8
Dimension (ANSI)
440
 16777216
100
AcDbTrace
 10
53.06462028985915
 20
43.487345660315
 30
0.0
 11
53.06462028985915
 21
43.29049527107282
 31
0.0
 12
53.65517145758567
 22
43.38892046569391
 32
0.0
 13
53.65517145758567
 23
43.38892046569391
 33
0.0
  0
MTEXT
  5
4B2
330
3B9
100
AcDbEntity
  8
Dimension (ANSI)
440
 16777216
100
AcDbMText
 10
43.59267145758566
 20
43.38892046569391
 30
0.0
 40
0.6000000089406968
 41
0.0
 71
     5
 72
     1
  1
\A1;20.13{\PWIDTH}
  7
ROMANS
 73
     1
 44
1.0
  0
POINT
  5
4B3
330
3B9
100
AcDbEntity
  8
Defpoints
 62
     0
440
 16777216
100
AcDbPoint
 10
33.53017145758564
 20
41.42041652868603
 30
0.0
  0
POINT
  5
4B4
330
3B9
100
AcDbEntity
  8
Defpoints
 62
     0
440
 16777216
100
AcDbPoint
 10
53.65517145758567
 20
41.42041652868603
 30
0.0
  0
POINT
  5
4B5
330
3B9
100
AcDbEntity
  8
Defpoints
 62
     0
440
 16777216
100
AcDbPoint
 10
53.65517145758567
 20
43.38892046569391
 30
0.0
  0
ENDBLK
  5
3BB
330
3B9
100
AcDbEntity
  8
0
100
AcDbBlockEnd
  0
BLOCK
  5
4B8
330
4B7
100
AcDbEntity
  8
0
100
AcDbBlockBegin
  2
*D6
 70
     1
 10
0.0
 20
0.0
 30
0.0
  3
*D6
  1

  0
LINE
  5
596
330
4B7
100
AcDbEntity
  8
Dimension (ANSI)
440
 16777216
100
AcDbLine
 10
10.49895596985181
 20
41.79541652868603
 30
0.0
 11
10.49895596985181
 21
45.36037174985696
 31
0.0
  0
LINE
  5
597
330
4B7
100
AcDbEntity
  8
Dimension (ANSI)
440
 16777216
100
AcDbLine
 10
18.49895596985181
 20
41.93601652868602
 30
0.0
 11
18.49895596985181
 21
45.36037174985696
 31
0.0
  0
LINE
  5
598
330
4B7
100
AcDbEntity
  8
Dimension (ANSI)
440
 16777216
100
AcDbLine
 10
11.08950713757832
 20
44.61037174985697
 30
0.0
 11
13.39569386398941
 21
44.61037174985697
 31
0.0
  0
LINE
  5
599
330
4B7
100
AcDbEntity
  8
Dimension (ANSI)
440
 16777216
100
AcDbLine
 10
17.90840480212529
 20
44.61037174985697
 30
0.0
 11
15.60221807571419
 21
44.61037174985697
 31
0.0
  0
SOLID
  5
59A
330
4B7
100
AcDbEntity
  8
Dimension (ANSI)
440
 16777216
100
AcDbTrace
 10
11.08950713757832
 20
44.70879694447805
 30
0.0
 11
11.08950713757832
 21
44.51194655523588
 31
0.0
 12
10.49895596985181
 22
44.61037174985697
 32
0.0
 13
10.49895596985181
 23
44.61037174985697
 33
0.0
  0
SOLID
  5
59B
330
4B7
100
AcDbEntity
  8
Dimension (ANSI)
440
 16777216
100
AcDbTrace
 10
17.90840480212529
 20
44.70879694447805
 30
0.0
 11
17.90840480212529
 21
44.51194655523588
 31
0.0
 12
18.49895596985181
 22
44.61037174985697
 32
0.0
 13
18.49895596985181
 23
44.61037174985697
 33
0.0
  0
MTEXT
  5
59C
330
4B7
100
AcDbEntity
  8
Dimension (ANSI)
440
 16777216
100
AcDbMText
 10
13.58467024194217
 20
44.91037175432731
 30
0.0
 40
0.6000000089406968
 41
0.0
 71
     1
 72
     1
  1
\A1;8.00
  7
ROMANS
 73
     1
 44
1.0
  0
POINT
  5
59D
330
4B7
100
AcDbEntity
  8
Defpoints
 62
     0
440
 16777216
100
AcDbPoint
 10
10.49895596985181
 20
41.42041652868603
 30
0.0
  0
POINT
  5
59E
330
4B7
100
AcDbEntity
  8
Defpoints
 62
     0
440
 16777216
100
AcDbPoint
 10
18.49895596985181
 20
41.56101652868602
 30
0.0
  0
POINT
  5
59F
330
4B7
100
AcDbEntity
  8
Defpoints
 62
     0
440
 16777216
100
AcDbPoint
 10
18.49895596985181
 20
44.61037174985697
 30
0.0
  0
ENDBLK
  5
4B9
330
4B7
100
AcDbEntity
  8
0
100
AcDbBlockEnd
  0
BLOCK
  5
5A2
330
5A1
100
AcDbEntity
  8
0
100
AcDbBlockBegin
  2
*D7
 70
     1
 10
0.0
 20
0.0
 30
0.0
  3
*D7
  1

  0
LINE
  5
6BE
330
5A1
100
AcDbEntity
  8
Dimension (ANSI)
440
 16777216
100
AcDbLine
 10
19.27266711881377
 20
41.56101652868602
 30
0.0
 11
22.88369161344799
 21
41.56101652868601
 31
0.0
  0
LINE
  5
6BF
330
5A1
100
AcDbEntity
  8
Dimension (ANSI)
440
 16777216
100
AcDbLine
 10
18.6473879490405
 20
42.30057363568152
 30
0.0
 11
19.24788124629361
 21
45.86131874040363
 31
0.0
  0
ARC
  5
6C0
330
5A1
100
AcDbEntity
  8
Dimension (ANSI)
440
 16777216
100
AcDbCircle
 10
18.52266711881377
 20
41.56101652868602
 30
0.0
 40
3.611024494634226
100
AcDbArc
 50
9.380692531081454
 51
26.40427917901583
  0
ARC
  5
6C1
330
5A1
100
AcDbEntity
  8
Dimension (ANSI)
440
 16777216
100
AcDbCircle
 10
18.52266711881377
 20
41.56101652868602
 30
0.0
 40
3.611024494634226
100
AcDbArc
 50
45.68634465912931
 51
71.04686807796887
  0
SOLID
  5
6C2
330
5A1
100
AcDbEntity
  8
Dimension (ANSI)
440
 16777216
100
AcDbTrace
 10
22.18349748544573
 20
42.15763833163482
 30
0.0
 11
21.98730631303003
 21
42.14154176023145
 31
0.0
 12
22.13369161344798
 22
41.561016528686
 32
0.0
 13
22.13369161344798
 23
41.561016528686
 33
0.0
  0
SOLID
  5
6C3
330
5A1
100
AcDbEntity
  8
Dimension (ANSI)
440
 16777216
100
AcDbTrace
 10
19.67125943550491
 20
44.88087646256853
 30
0.0
 11
19.71975738175354
 21
45.07165912675598
 31
0.0
 12
19.12316041606689
 22
45.12176163340812
 32
0.0
 13
19.12316041606689
 23
45.12176163340812
 33
0.0
  0
MTEXT
  5
6C4
330
5A1
100
AcDbEntity
  8
Dimension (ANSI)
440
 16777216
100
AcDbMText
 10
20.8639735822271
 20
43.95582300071765
 30
0.0
 40
0.6000000089406968
 41
0.0
 71
     1
 72
     1
  1
\A1;80\U+00B0
  7
ROMANS
 73
     1
 44
1.0
  0
POINT
  5
6C5
330
5A1
100
AcDbEntity
  8
Defpoints
 62
     0
440
 16777216
100
AcDbPoint
 10
18.52266711881377
 20
41.56101652868602
 30
0.0
  0
POINT
  5
6C6
330
5A1
100
AcDbEntity
  8
Defpoints
 62
     0
440
 16777216
100
AcDbPoint
 10
18.89766711881377
 20
41.56101652868602
 30
0.0
  0
POINT
  5
6C7
330
5A1
100
AcDbEntity
  8
Defpoints
 62
     0
440
 16777216
100
AcDbPoint
 10
18.58502753392713
 20
41.93079508218377
 30
0.0
  0
POINT
  5
6C8
330
5A1
100
AcDbEntity
  8
Defpoints
 62
     0
440
 16777216
100
AcDbPoint
 10
20.66458508361492
 20
44.46819477105618
 30
0.0
  0
ENDBLK
  5
5A3
330
5A1
100
AcDbEntity
  8
0
100
AcDbBlockEnd
  0
BLOCK
  5
6CB
330
6CA
100
AcDbEntity
  8
0
100
AcDbBlockBegin
  2
*D8
 70
     1
 10
0.0
 20
0.0
 30
0.0
  3
*D8
  1

  0
LINE
  5
7B0
330
6CA
100
AcDbEntity
  8
Dimension (ANSI)
440
 16777216
100
AcDbLine
 10
51.81462028986318
 20
51.14351349128147
 30
0.0
 11
51.22406912213666
 21
51.14351349128147
 31
0.0
  0
LINE
  5
7B1
330
6CA
100
AcDbEntity
  8
Dimension (ANSI)
440
 16777216
100
AcDbLine
 10
54.24572262531619
 20
51.14351349128147
 30
0.0
 11
55.61844953028833
 21
51.14351349128147
 31
0.0
  0
SOLID
  5
7B2
330
6CA
100
AcDbEntity
  8
Dimension (ANSI)
440
 16777216
100
AcDbTrace
 10
51.81462028986318
 20
51.24193868590256
 30
0.0
 11
51.81462028986318
 21
51.04508829666039
 31
0.0
 12
52.40517145758969
 22
51.14351349128147
 32
0.0
 13
52.40517145758969
 23
51.14351349128147
 33
0.0
  0
SOLID
  5
7B3
330
6CA
100
AcDbEntity
  8
Dimension (ANSI)
440
 16777216
100
AcDbTrace
 10
54.24572262531619
 20
51.24193868590256
 30
0.0
 11
54.24572262531619
 21
51.04508829666039
 31
0.0
 12
53.65517145758968
 22
51.14351349128147
 32
0.0
 13
53.65517145758968
 23
51.14351349128147
 33
0.0
  0
MTEXT
  5
7B4
330
6CA
100
AcDbEntity
  8
Dimension (ANSI)
440
 16777216
100
AcDbMText
 10
57.36456878858717
 20
51.14351349128147
 30
0.0
 40
0.6000000089406968
 41
0.0
 71
     5
 72
     1
  1
\A1;1.25{\P(2 PL.)}
  7
ROMANS
 73
     1
 44
1.0
  0
POINT
  5
7B5
330
6CA
100
AcDbEntity
  8
Defpoints
 62
     0
440
 16777216
100
AcDbPoint
 10
52.40517145758969
 20
51.3550540155427
 30
0.0
  0
POINT
  5
7B6
330
6CA
100
AcDbEntity
  8
Defpoints
 62
     0
440
 16777216
100
AcDbPoint
 10
53.65517145758968
 20
51.28751658137804
 30
0.0
  0
POINT
  5
7B7
330
6CA
100
AcDbEntity
  8
Defpoints
 62
     0
440
 16777216
100
AcDbPoint
 10
53.65517145758968
 20
51.14351349128147
 30
0.0
  0
ENDBLK
  5
6CC
330
6CA
100
AcDbEntity
  8
0
100
AcDbBlockEnd
  0
BLOCK
  5
7BA
330
7B9
100
AcDbEntity
  8
0
100
AcDbBlockBegin
  2
*D9
 70
     1
 10
0.0
 20
0.0
 30
0.0
  3
*D9
  1

  0
LINE
  5
8A3
330
7B9
100
AcDbEntity
  8
Dimension (ANSI)
440
 16777216
100
AcDbLine
 10
37.10285372303433
 20
48.17203179086591
 30
0.0
 11
37.10285372303432
 21
47.5814806231394
 31
0.0
  0
LINE
  5
8A4
330
7B9
100
AcDbEntity
  8
Dimension (ANSI)
440
 16777216
100
AcDbLine
 10
37.10285372303433
 20
50.60313412631891
 30
0.0
 11
37.10285372303433
 21
51.63084604658859
 31
0.0
  0
LINE
  5
8A5
330
7B9
100
AcDbEntity
  8
Dimension (ANSI)
440
 16777216
100
AcDbLine
 10
37.10285372303433
 20
51.63084604658859
 30
0.0
 11
37.69340489076085
 21
51.63084604658859
 31
0.0
  0
SOLID
  5
8A6
330
7B9
100
AcDbEntity
  8
Dimension (ANSI)
440
 16777216
100
AcDbTrace
 10
37.00442852841324
 20
48.17203179086591
 30
0.0
 11
37.20127891765542
 21
48.17203179086591
 31
0.0
 12
37.10285372303433
 22
48.76258295859243
 32
0.0
 13
37.10285372303433
 23
48.76258295859243
 33
0.0
  0
SOLID
  5
8A7
330
7B9
100
AcDbEntity
  8
Dimension (ANSI)
440
 16777216
100
AcDbTrace
 10
37.00442852841324
 20
50.60313412631891
 30
0.0
 11
37.20127891765542
 21
50.60313412631891
 31
0.0
 12
37.10285372303433
 22
50.01258295859239
 32
0.0
 13
37.10285372303433
 23
50.01258295859239
 33
0.0
  0
MTEXT
  5
8A8
330
7B9
100
AcDbEntity
  8
Dimension (ANSI)
440
 16777216
100
AcDbMText
 10
37.88238126871359
 20
51.93084605105894
 30
0.0
 40
0.6000000089406968
 41
0.0
 71
     1
 72
     1
  1
\A1;1.25
  7
ROMANS
 73
     1
 44
1.0
  0
POINT
  5
8A9
330
7B9
100
AcDbEntity
  8
Defpoints
 62
     0
440
 16777216
100
AcDbPoint
 10
38.41167578884286
 20
50.01258295859239
 30
0.0
  0
POINT
  5
8AA
330
7B9
100
AcDbEntity
  8
Defpoints
 62
     0
440
 16777216
100
AcDbPoint
 10
39.34734515265652
 20
48.76258295859243
 30
0.0
  0
POINT
  5
8AB
330
7B9
100
AcDbEntity
  8
Defpoints
 62
     0
440
 16777216
100
AcDbPoint
 10
37.10285372303433
 20
48.76258295859243
 30
0.0
  0
ENDBLK
  5
7BB
330
7B9
100
AcDbEntity
  8
0
100
AcDbBlockEnd
  0
BLOCK
  5
8B7
330
8B6
100
AcDbEntity
  8
0
100
AcDbBlockBegin
  2
*D10
 70
     1
 10
0.0
 20
0.0
 30
0.0
  3
*D10
  1

  0
LINE
  5
9AA
330
8B6
100
AcDbEntity
  8
Dimension (ANSI)
440
 16777216
100
AcDbLine
 10
33.2957714575816
 20
21.96852222655273
 30
0.0
 11
30.83505717211539
 21
21.96852222655273
 31
0.0
  0
LINE
  5
9AB
330
8B6
100
AcDbEntity
  8
Dimension (ANSI)
440
 16777216
100
AcDbLine
 10
32.8114214575816
 20
19.96852222655276
 30
0.0
 11
30.83505717211539
 21
19.96852222655276
 31
0.0
  0
LINE
  5
9AC
330
8B6
100
AcDbEntity
  8
Dimension (ANSI)
440
 16777216
100
AcDbLine
 10
31.58505717211539
 20
21.37797105882621
 30
0.0
 11
31.58505717211539
 21
20.55907339427928
 31
0.0
  0
LINE
  5
9AD
330
8B6
100
AcDbEntity
  8
Dimension (ANSI)
440
 16777216
100
AcDbLine
 10
31.58505717211539
 20
19.96852222655276
 30
0.0
 11
31.58505717211539
 21
18.9408103196589
 31
0.0
  0
LINE
  5
9AE
330
8B6
100
AcDbEntity
  8
Dimension (ANSI)
440
 16777216
100
AcDbLine
 10
31.58505717211539
 20
18.9408103196589
 30
0.0
 11
30.99450600438887
 21
18.9408103196589
 31
0.0
  0
SOLID
  5
9AF
330
8B6
100
AcDbEntity
  8
Dimension (ANSI)
440
 16777216
100
AcDbTrace
 10
31.48663197749431
 20
21.37797105882621
 30
0.0
 11
31.68348236673648
 21
21.37797105882621
 31
0.0
 12
31.58505717211539
 22
21.96852222655273
 32
0.0
 13
31.58505717211539
 23
21.96852222655273
 33
0.0
  0
SOLID
  5
9B0
330
8B6
100
AcDbEntity
  8
Dimension (ANSI)
440
 16777216
100
AcDbTrace
 10
31.48663197749431
 20
20.55907339427928
 30
0.0
 11
31.68348236673648
 21
20.55907339427928
 31
0.0
 12
31.58505717211539
 22
19.96852222655276
 32
0.0
 13
31.58505717211539
 23
19.96852222655276
 33
0.0
  0
MTEXT
  5
9B1
330
8B6
100
AcDbEntity
  8
Dimension (ANSI)
440
 16777216
100
AcDbMText
 10
28.97695817061685
 20
19.24081032412926
 30
0.0
 40
0.6000000089406968
 41
0.0
 71
     1
 72
     1
  1
\A1;2.00
  7
ROMANS
 73
     1
 44
1.0
  0
POINT
  5
9B2
330
8B6
100
AcDbEntity
  8
Defpoints
 62
     0
440
 16777216
100
AcDbPoint
 10
33.6707714575816
 20
21.96852222655273
 30
0.0
  0
POINT
  5
9B3
330
8B6
100
AcDbEntity
  8
Defpoints
 62
     0
440
 16777216
100
AcDbPoint
 10
33.1864214575816
 20
19.96852222655276
 30
0.0
  0
POINT
  5
9B4
330
8B6
100
AcDbEntity
  8
Defpoints
 62
     0
440
 16777216
100
AcDbPoint
 10
31.58505717211539
 20
19.96852222655276
 30
0.0
  0
ENDBLK
  5
8B8
330
8B6
100
AcDbEntity
  8
0
100
AcDbBlockEnd
  0
BLOCK
  5
9B7
330
9B6
100
AcDbEntity
  8
0
100
AcDbBlockBegin
  2
*D11
 70
     1
 10
0.0
 20
0.0
 30
0.0
  3
*D11
  1

  0
LINE
  5
A95
330
9B6
100
AcDbEntity
  8
Dimension (ANSI)
440
 16777216
100
AcDbLine
 10
33.2957714575816
 20
21.96852222655273
 30
0.0
 11
26.30659822923515
 21
21.96852222655273
 31
0.0
  0
LINE
  5
A96
330
9B6
100
AcDbEntity
  8
Dimension (ANSI)
440
 16777216
100
AcDbLine
 10
32.8114214575816
 20
14.96852222655276
 30
0.0
 11
26.30659822923515
 21
14.96852222655276
 31
0.0
  0
LINE
  5
A97
330
9B6
100
AcDbEntity
  8
Dimension (ANSI)
440
 16777216
100
AcDbLine
 10
27.05659822923515
 20
21.37797105882621
 30
0.0
 11
27.05659822923515
 21
18.95749860897584
 31
0.0
  0
LINE
  5
A98
330
9B6
100
AcDbEntity
  8
Dimension (ANSI)
440
 16777216
100
AcDbLine
 10
27.05659822923515
 20
15.55907339427928
 30
0.0
 11
27.05659822923515
 21
17.97954584412963
 31
0.0
  0
SOLID
  5
A99
330
9B6
100
AcDbEntity
  8
Dimension (ANSI)
440
 16777216
100
AcDbTrace
 10
26.95817303461406
 20
21.37797105882621
 30
0.0
 11
27.15502342385623
 21
21.37797105882621
 31
0.0
 12
27.05659822923515
 22
21.96852222655273
 32
0.0
 13
27.05659822923515
 23
21.96852222655273
 33
0.0
  0
SOLID
  5
A9A
330
9B6
100
AcDbEntity
  8
Dimension (ANSI)
440
 16777216
100
AcDbTrace
 10
26.95817303461406
 20
15.55907339427928
 30
0.0
 11
27.15502342385623
 21
15.55907339427928
 31
0.0
 12
27.05659822923515
 22
14.96852222655276
 32
0.0
 13
27.05659822923515
 23
14.96852222655276
 33
0.0
  0
MTEXT
  5
A9B
330
9B6
100
AcDbEntity
  8
Dimension (ANSI)
440
 16777216
100
AcDbMText
 10
26.14231250132551
 20
18.76852223102309
 30
0.0
 40
0.6000000089406968
 41
0.0
 71
     1
 72
     1
  1
\A1;7.00
  7
ROMANS
 73
     1
 44
1.0
  0
POINT
  5
A9C
330
9B6
100
AcDbEntity
  8
Defpoints
 62
     0
440
 16777216
100
AcDbPoint
 10
33.6707714575816
 20
21.96852222655273
 30
0.0
  0
POINT
  5
A9D
330
9B6
100
AcDbEntity
  8
Defpoints
 62
     0
440
 16777216
100
AcDbPoint
 10
33.1864214575816
 20
14.96852222655276
 30
0.0
  0
POINT
  5
A9E
330
9B6
100
AcDbEntity
  8
Defpoints
 62
     0
440
 16777216
100
AcDbPoint
 10
27.05659822923515
 20
14.96852222655276
 30
0.0
  0
ENDBLK
  5
9B8
330
9B6
100
AcDbEntity
  8
0
100
AcDbBlockEnd
  0
BLOCK
  5
AA1
330
AA0
100
AcDbEntity
  8
0
100
AcDbBlockBegin
  2
*D12
 70
     1
 10
0.0
 20
0.0
 30
0.0
  3
*D12
  1

  0
LINE
  5
B94
330
AA0
100
AcDbEntity
  8
Dimension (ANSI)
440
 16777216
100
AcDbLine
 10
33.2957714575816
 20
21.96852222655273
 30
0.0
 11
29.21949232368815
 21
21.96852222655273
 31
0.0
  0
LINE
  5
B95
330
AA0
100
AcDbEntity
  8
Dimension (ANSI)
440
 16777216
100
AcDbLine
 10
34.3739214575816
 20
21.28102222655277
 30
0.0
 11
29.21949232368815
 21
21.28102222655277
 31
0.0
  0
LINE
  5
B96
330
AA0
100
AcDbEntity
  8
Dimension (ANSI)
440
 16777216
100
AcDbLine
 10
29.96949232368815
 20
20.69047105882626
 30
0.0
 11
29.96949232368815
 21
20.09991989109974
 31
0.0
  0
LINE
  5
B97
330
AA0
100
AcDbEntity
  8
Dimension (ANSI)
440
 16777216
100
AcDbLine
 10
29.96949232368815
 20
22.55907339427924
 30
0.0
 11
29.96949232368815
 21
23.58678531454894
 31
0.0
  0
LINE
  5
B98
330
AA0
100
AcDbEntity
  8
Dimension (ANSI)
440
 16777216
100
AcDbLine
 10
29.96949232368815
 20
23.58678531454894
 30
0.0
 11
30.56004349141466
 21
23.58678531454894
 31
0.0
  0
SOLID
  5
B99
330
AA0
100
AcDbEntity
  8
Dimension (ANSI)
440
 16777216
100
AcDbTrace
 10
29.87106712906706
 20
20.69047105882626
 30
0.0
 11
30.06791751830923
 21
20.69047105882626
 31
0.0
 12
29.96949232368815
 22
21.28102222655277
 32
0.0
 13
29.96949232368815
 23
21.28102222655277
 33
0.0
  0
SOLID
  5
B9A
330
AA0
100
AcDbEntity
  8
Dimension (ANSI)
440
 16777216
100
AcDbTrace
 10
29.87106712906706
 20
22.55907339427924
 30
0.0
 11
30.06791751830923
 21
22.55907339427924
 31
0.0
 12
29.96949232368815
 22
21.96852222655273
 32
0.0
 13
29.96949232368815
 23
21.96852222655273
 33
0.0
  0
MTEXT
  5
B9B
330
AA0
100
AcDbEntity
  8
Dimension (ANSI)
440
 16777216
100
AcDbMText
 10
30.74901986936741
 20
23.88678531901929
 30
0.0
 40
0.6000000089406968
 41
0.0
 71
     1
 72
     1
  1
\A1;0.69
  7
ROMANS
 73
     1
 44
1.0
  0
POINT
  5
B9C
330
AA0
100
AcDbEntity
  8
Defpoints
 62
     0
440
 16777216
100
AcDbPoint
 10
33.6707714575816
 20
21.96852222655273
 30
0.0
  0
POINT
  5
B9D
330
AA0
100
AcDbEntity
  8
Defpoints
 62
     0
440
 16777216
100
AcDbPoint
 10
34.7489214575816
 20
21.28102222655277
 30
0.0
  0
POINT
  5
B9E
330
AA0
100
AcDbEntity
  8
Defpoints
 62
     0
440
 16777216
100
AcDbPoint
 10
29.96949232368815
 20
21.28102222655277
 30
0.0
  0
ENDBLK
  5
AA2
330
AA0
100
AcDbEntity
  8
0
100
AcDbBlockEnd
  0
BLOCK
  5
BA1
330
BA0
100
AcDbEntity
  8
0
100
AcDbBlockBegin
  2
*D13
 70
     1
 10
0.0
 20
0.0
 30
0.0
  3
*D13
  1

  0
LINE
  5
C7F
330
BA0
100
AcDbEntity
  8
Dimension (ANSI)
440
 16777216
100
AcDbLine
 10
53.65517145758159
 20
22.20292222655272
 30
0.0
 11
53.65517145758159
 21
25.18790465023329
 31
0.0
  0
LINE
  5
C80
330
BA0
100
AcDbEntity
  8
Dimension (ANSI)
440
 16777216
100
AcDbLine
 10
51.4051714575816
 20
22.68727222655277
 30
0.0
 11
51.4051714575816
 21
25.18790465023329
 31
0.0
  0
LINE
  5
C81
330
BA0
100
AcDbEntity
  8
Dimension (ANSI)
440
 16777216
100
AcDbLine
 10
51.99572262530812
 20
24.43790465023329
 30
0.0
 11
53.06462028985508
 21
24.43790465023329
 31
0.0
  0
LINE
  5
C82
330
BA0
100
AcDbEntity
  8
Dimension (ANSI)
440
 16777216
100
AcDbLine
 10
53.65517145758159
 20
24.43790465023329
 30
0.0
 11
54.6560989574133
 21
24.43790465023329
 31
0.0
  0
SOLID
  5
C83
330
BA0
100
AcDbEntity
  8
Dimension (ANSI)
440
 16777216
100
AcDbTrace
 10
51.99572262530812
 20
24.53632984485437
 30
0.0
 11
51.99572262530812
 21
24.3394794556122
 31
0.0
 12
51.4051714575816
 22
24.43790465023329
 32
0.0
 13
51.4051714575816
 23
24.43790465023329
 33
0.0
  0
SOLID
  5
C84
330
BA0
100
AcDbEntity
  8
Dimension (ANSI)
440
 16777216
100
AcDbTrace
 10
53.06462028985508
 20
24.53632984485437
 30
0.0
 11
53.06462028985508
 21
24.3394794556122
 31
0.0
 12
53.65517145758159
 22
24.43790465023329
 32
0.0
 13
53.65517145758159
 23
24.43790465023329
 33
0.0
  0
MTEXT
  5
C85
330
BA0
100
AcDbEntity
  8
Dimension (ANSI)
440
 16777216
100
AcDbMText
 10
54.84507533536606
 20
24.73790465470364
 30
0.0
 40
0.6000000089406968
 41
0.0
 71
     1
 72
     1
  1
\A1;2.25
  7
ROMANS
 73
     1
 44
1.0
  0
POINT
  5
C86
330
BA0
100
AcDbEntity
  8
Defpoints
 62
     0
440
 16777216
100
AcDbPoint
 10
53.65517145758159
 20
21.82792222655272
 30
0.0
  0
POINT
  5
C87
330
BA0
100
AcDbEntity
  8
Defpoints
 62
     0
440
 16777216
100
AcDbPoint
 10
51.4051714575816
 20
22.31227222655277
 30
0.0
  0
POINT
  5
C88
330
BA0
100
AcDbEntity
  8
Defpoints
 62
     0
440
 16777216
100
AcDbPoint
 10
51.4051714575816
 20
24.43790465023329
 30
0.0
  0
ENDBLK
  5
BA2
330
BA0
100
AcDbEntity
  8
0
100
AcDbBlockEnd
  0
BLOCK
  5
C8B
330
C8A
100
AcDbEntity
  8
0
100
AcDbBlockBegin
  2
*D14
 70
     1
 10
0.0
 20
0.0
 30
0.0
  3
*D14
  1

  0
LINE
  5
D69
330
C8A
100
AcDbEntity
  8
Dimension (ANSI)
440
 16777216
100
AcDbLine
 10
33.53017145758161
 20
22.20292222655273
 30
0.0
 11
33.53017145758161
 21
25.18790465023329
 31
0.0
  0
LINE
  5
D6A
330
C8A
100
AcDbEntity
  8
Dimension (ANSI)
440
 16777216
100
AcDbLine
 10
35.7801714575816
 20
22.68727222655277
 30
0.0
 11
35.7801714575816
 21
25.18790465023329
 31
0.0
  0
LINE
  5
D6B
330
C8A
100
AcDbEntity
  8
Dimension (ANSI)
440
 16777216
100
AcDbLine
 10
34.12072262530812
 20
24.43790465023329
 30
0.0
 11
35.18962028985509
 21
24.43790465023329
 31
0.0
  0
LINE
  5
D6C
330
C8A
100
AcDbEntity
  8
Dimension (ANSI)
440
 16777216
100
AcDbLine
 10
35.7801714575816
 20
24.43790465023329
 30
0.0
 11
36.37072262530812
 21
24.43790465023329
 31
0.0
  0
SOLID
  5
D6D
330
C8A
100
AcDbEntity
  8
Dimension (ANSI)
440
 16777216
100
AcDbTrace
 10
34.12072262530812
 20
24.53632984485438
 30
0.0
 11
34.12072262530812
 21
24.3394794556122
 31
0.0
 12
33.53017145758161
 22
24.43790465023329
 32
0.0
 13
33.53017145758161
 23
24.43790465023329
 33
0.0
  0
SOLID
  5
D6E
330
C8A
100
AcDbEntity
  8
Dimension (ANSI)
440
 16777216
100
AcDbTrace
 10
35.18962028985509
 20
24.53632984485438
 30
0.0
 11
35.18962028985509
 21
24.3394794556122
 31
0.0
 12
35.7801714575816
 22
24.43790465023329
 32
0.0
 13
35.7801714575816
 23
24.43790465023329
 33
0.0
  0
MTEXT
  5
D6F
330
C8A
100
AcDbEntity
  8
Dimension (ANSI)
440
 16777216
100
AcDbMText
 10
36.55969900326088
 20
24.73790465470364
 30
0.0
 40
0.6000000089406968
 41
0.0
 71
     1
 72
     1
  1
\A1;2.25
  7
ROMANS
 73
     1
 44
1.0
  0
POINT
  5
D70
330
C8A
100
AcDbEntity
  8
Defpoints
 62
     0
440
 16777216
100
AcDbPoint
 10
33.53017145758161
 20
21.82792222655272
 30
0.0
  0
POINT
  5
D71
330
C8A
100
AcDbEntity
  8
Defpoints
 62
     0
440
 16777216
100
AcDbPoint
 10
35.7801714575816
 20
22.31227222655277
 30
0.0
  0
POINT
  5
D72
330
C8A
100
AcDbEntity
  8
Defpoints
 62
     0
440
 16777216
100
AcDbPoint
 10
35.7801714575816
 20
24.43790465023329
 30
0.0
  0
ENDBLK
  5
C8C
330
C8A
100
AcDbEntity
  8
0
100
AcDbBlockEnd
  0
BLOCK
  5
D77
330
D76
100
AcDbEntity
  8
0
100
AcDbBlockBegin
  2
*D15
 70
     1
 10
0.0
 20
0.0
 30
0.0
  3
*D15
  1

  0
LINE
  5
E69
330
D76
100
AcDbEntity
  8
Dimension (ANSI)
440
 16777216
100
AcDbLine
 10
33.53017145758161
 20
13.59352222655273
 30
0.0
 11
33.53017145758161
 21
11.96159621108191
 31
0.0
  0
LINE
  5
E6A
330
D76
100
AcDbEntity
  8
Dimension (ANSI)
440
 16777216
100
AcDbLine
 10
34.21767145758161
 20
13.56227222655277
 30
0.0
 11
34.21767145758161
 21
11.96159621108191
 31
0.0
  0
LINE
  5
E6B
330
D76
100
AcDbEntity
  8
Dimension (ANSI)
440
 16777216
100
AcDbLine
 10
34.80822262530813
 20
12.71159621108191
 30
0.0
 11
35.39877379303464
 21
12.71159621108191
 31
0.0
  0
LINE
  5
E6C
330
D76
100
AcDbEntity
  8
Dimension (ANSI)
440
 16777216
100
AcDbLine
 10
32.93962028985509
 20
12.71159621108191
 30
0.0
 11
31.56689338488295
 21
12.71159621108191
 31
0.0
  0
SOLID
  5
E6D
330
D76
100
AcDbEntity
  8
Dimension (ANSI)
440
 16777216
100
AcDbTrace
 10
34.80822262530813
 20
12.810021405703
 30
0.0
 11
34.80822262530813
 21
12.61317101646083
 31
0.0
 12
34.21767145758161
 22
12.71159621108191
 32
0.0
 13
34.21767145758161
 23
12.71159621108191
 33
0.0
  0
SOLID
  5
E6E
330
D76
100
AcDbEntity
  8
Dimension (ANSI)
440
 16777216
100
AcDbTrace
 10
32.93962028985509
 20
12.810021405703
 30
0.0
 11
32.93962028985509
 21
12.61317101646083
 31
0.0
 12
33.53017145758161
 22
12.71159621108191
 32
0.0
 13
33.53017145758161
 23
12.71159621108191
 33
0.0
  0
MTEXT
  5
E6F
330
D76
100
AcDbEntity
  8
Dimension (ANSI)
440
 16777216
100
AcDbMText
 10
29.8207741265841
 20
12.71159621108191
 30
0.0
 40
0.6000000089406968
 41
0.0
 71
     5
 72
     1
  1
\A1;0.69{\P(2 PL.)}
  7
ROMANS
 73
     1
 44
1.0
  0
POINT
  5
E70
330
D76
100
AcDbEntity
  8
Defpoints
 62
     0
440
 16777216
100
AcDbPoint
 10
33.53017145758161
 20
13.96852222655273
 30
0.0
  0
POINT
  5
E71
330
D76
100
AcDbEntity
  8
Defpoints
 62
     0
440
 16777216
100
AcDbPoint
 10
34.21767145758161
 20
13.93727222655277
 30
0.0
  0
POINT
  5
E72
330
D76
100
AcDbEntity
  8
Defpoints
 62
     0
440
 16777216
100
AcDbPoint
 10
34.21767145758161
 20
12.71159621108191
 30
0.0
  0
ENDBLK
  5
D78
330
D76
100
AcDbEntity
  8
0
100
AcDbBlockEnd
  0
BLOCK
  5
E75
330
E74
100
AcDbEntity
  8
0
100
AcDbBlockBegin
  2
*D16
 70
     1
 10
0.0
 20
0.0
 30
0.0
  3
*D16
  1

  0
LINE
  5
F25
330
E74
100
AcDbEntity
  8
Dimension (ANSI)
440
 16777216
100
AcDbLine
 10
55.93515875072592
 20
17.66750759735287
 30
0.0
 11
55.08236220305789
 21
17.66750759735288
 31
0.0
  0
LINE
  5
F26
330
E74
100
AcDbEntity
  8
Dimension (ANSI)
440
 16777216
100
AcDbLine
 10
55.08236220305789
 20
17.66750759735288
 30
0.0
 11
53.5053545919045
 21
15.65476862771934
 31
0.0
  0
MTEXT
  5
F27
102
{ACAD_XDICTIONARY
360
15C4
102
}
330
E74
100
AcDbEntity
  8
Dimension (ANSI)
440
 16777216
100
AcDbMText
 10
57.68127800902476
 20
17.66750759735286
 30
0.0
 40
0.6000000089406968
 41
0.0
 71
     5
 72
     1
  1
\A1;\U+22050.563{\P(6 PL.)}
  7
ROMANS
 73
     1
 44
1.0
  0
SOLID
  5
F28
330
E74
100
AcDbEntity
  8
Dimension (ANSI)
440
 16777216
100
AcDbTrace
 10
53.42787828412554
 20
15.7154723398722
 30
0.0
 11
53.58283089968346
 21
15.59406491556647
 31
0.0
 12
53.14113231898731
 22
15.18991078104556
 32
0.0
 13
53.14113231898731
 23
15.18991078104556
 33
0.0
  0
LINE
  5
F29
330
E74
100
AcDbEntity
  8
Dimension (ANSI)
440
 16777216
100
AcDbLine
 10
52.42767145758164
 20
14.96852222655278
 30
0.0
 11
53.50767145758164
 21
14.96852222655277
 31
0.0
  0
LINE
  5
F2A
330
E74
100
AcDbEntity
  8
Dimension (ANSI)
440
 16777216
100
AcDbLine
 10
52.96767145758164
 20
14.42852222655277
 30
0.0
 11
52.96767145758164
 21
15.50852222655277
 31
0.0
  0
POINT
  5
F2B
330
E74
100
AcDbEntity
  8
Defpoints
 62
     0
440
 16777216
100
AcDbPoint
 10
53.14113231898731
 20
15.18991078104556
 30
0.0
  0
POINT
  5
F2C
330
E74
100
AcDbEntity
  8
Defpoints
 62
     0
440
 16777216
100
AcDbPoint
 10
52.79421059617598
 20
14.74713367206
 30
0.0
  0
ENDBLK
  5
E76
330
E74
100
AcDbEntity
  8
0
100
AcDbBlockEnd
  0
BLOCK
  5
F34
330
F33
100
AcDbEntity
  8
0
100
AcDbBlockBegin
  2
*D17
 70
     1
 10
0.0
 20
0.0
 30
0.0
  3
*D17
  1

  0
LINE
  5
1012
330
F33
100
AcDbEntity
  8
Dimension (ANSI)
440
 16777216
100
AcDbLine
 10
33.53017145758967
 20
57.13758295859591
 30
0.0
 11
33.53017145758967
 21
59.87478768300536
 31
0.0
  0
LINE
  5
1013
330
F33
100
AcDbEntity
  8
Dimension (ANSI)
440
 16777216
100
AcDbLine
 10
35.65517145758963
 20
56.91883295859239
 30
0.0
 11
35.65517145758963
 21
59.87478768300536
 31
0.0
  0
LINE
  5
1014
330
F33
100
AcDbEntity
  8
Dimension (ANSI)
440
 16777216
100
AcDbLine
 10
34.12072262531618
 20
59.12478768300536
 30
0.0
 11
35.06462028986311
 21
59.12478768300536
 31
0.0
  0
LINE
  5
1015
330
F33
100
AcDbEntity
  8
Dimension (ANSI)
440
 16777216
100
AcDbLine
 10
35.65517145758963
 20
59.12478768300536
 30
0.0
 11
36.65609895742136
 21
59.12478768300536
 31
0.0
  0
SOLID
  5
1016
330
F33
100
AcDbEntity
  8
Dimension (ANSI)
440
 16777216
100
AcDbTrace
 10
34.12072262531618
 20
59.22321287762644
 30
0.0
 11
34.12072262531618
 21
59.02636248838427
 31
0.0
 12
33.53017145758967
 22
59.12478768300536
 32
0.0
 13
33.53017145758967
 23
59.12478768300536
 33
0.0
  0
SOLID
  5
1017
330
F33
100
AcDbEntity
  8
Dimension (ANSI)
440
 16777216
100
AcDbTrace
 10
35.06462028986311
 20
59.22321287762644
 30
0.0
 11
35.06462028986311
 21
59.02636248838427
 31
0.0
 12
35.65517145758963
 22
59.12478768300536
 32
0.0
 13
35.65517145758963
 23
59.12478768300536
 33
0.0
  0
MTEXT
  5
1018
330
F33
100
AcDbEntity
  8
Dimension (ANSI)
440
 16777216
100
AcDbMText
 10
36.84507533537412
 20
59.4247876874757
 30
0.0
 40
0.6000000089406968
 41
0.0
 71
     1
 72
     1
  1
\A1;2.13
  7
ROMANS
 73
     1
 44
1.0
  0
POINT
  5
1019
330
F33
100
AcDbEntity
  8
Defpoints
 62
     0
440
 16777216
100
AcDbPoint
 10
33.53017145758967
 20
56.7625829585959
 30
0.0
  0
POINT
  5
101A
330
F33
100
AcDbEntity
  8
Defpoints
 62
     0
440
 16777216
100
AcDbPoint
 10
35.65517145758963
 20
56.54383295859239
 30
0.0
  0
POINT
  5
101B
330
F33
100
AcDbEntity
  8
Defpoints
 62
     0
440
 16777216
100
AcDbPoint
 10
35.65517145758963
 20
59.12478768300536
 30
0.0
  0
ENDBLK
  5
F35
330
F33
100
AcDbEntity
  8
0
100
AcDbBlockEnd
  0
BLOCK
  5
101E
330
101D
100
AcDbEntity
  8
0
100
AcDbBlockBegin
  2
*D18
 70
     1
 10
0.0
 20
0.0
 30
0.0
  3
*D18
  1

  0
LINE
  5
10FC
330
101D
100
AcDbEntity
  8
Dimension (ANSI)
440
 16777216
100
AcDbLine
 10
33.53017145758967
 20
57.13758295859591
 30
0.0
 11
33.53017145758967
 21
61.55018140553625
 31
0.0
  0
LINE
  5
10FD
330
101D
100
AcDbEntity
  8
Dimension (ANSI)
440
 16777216
100
AcDbLine
 10
43.59267145758963
 20
53.91883295859242
 30
0.0
 11
43.59267145758963
 21
61.55018140553625
 31
0.0
  0
LINE
  5
10FE
330
101D
100
AcDbEntity
  8
Dimension (ANSI)
440
 16777216
100
AcDbLine
 10
34.12072262531618
 20
60.80018140553625
 30
0.0
 11
37.21530220525127
 21
60.80018140553625
 31
0.0
  0
LINE
  5
10FF
330
101D
100
AcDbEntity
  8
Dimension (ANSI)
440
 16777216
100
AcDbLine
 10
43.00212028986311
 20
60.80018140553625
 30
0.0
 11
39.90754070992803
 21
60.80018140553625
 31
0.0
  0
SOLID
  5
1100
330
101D
100
AcDbEntity
  8
Dimension (ANSI)
440
 16777216
100
AcDbTrace
 10
34.12072262531618
 20
60.89860660015734
 30
0.0
 11
34.12072262531618
 21
60.70175621091516
 31
0.0
 12
33.53017145758967
 22
60.80018140553625
 32
0.0
 13
33.53017145758967
 23
60.80018140553625
 33
0.0
  0
SOLID
  5
1101
330
101D
100
AcDbEntity
  8
Dimension (ANSI)
440
 16777216
100
AcDbTrace
 10
43.00212028986311
 20
60.89860660015734
 30
0.0
 11
43.00212028986311
 21
60.70175621091516
 31
0.0
 12
43.59267145758963
 22
60.80018140553625
 32
0.0
 13
43.59267145758963
 23
60.80018140553625
 33
0.0
  0
MTEXT
  5
1102
330
101D
100
AcDbEntity
  8
Dimension (ANSI)
440
 16777216
100
AcDbMText
 10
37.40427858320402
 20
61.1001814100066
 30
0.0
 40
0.6000000089406968
 41
0.0
 71
     1
 72
     1
  1
\A1;10.06
  7
ROMANS
 73
     1
 44
1.0
  0
POINT
  5
1103
330
101D
100
AcDbEntity
  8
Defpoints
 62
     0
440
 16777216
100
AcDbPoint
 10
33.53017145758967
 20
56.7625829585959
 30
0.0
  0
POINT
  5
1104
330
101D
100
AcDbEntity
  8
Defpoints
 62
     0
440
 16777216
100
AcDbPoint
 10
43.59267145758963
 20
53.54383295859243
 30
0.0
  0
POINT
  5
1105
330
101D
100
AcDbEntity
  8
Defpoints
 62
     0
440
 16777216
100
AcDbPoint
 10
43.59267145758963
 20
60.80018140553625
 30
0.0
  0
ENDBLK
  5
101F
330
101D
100
AcDbEntity
  8
0
100
AcDbBlockEnd
  0
BLOCK
  5
1108
330
1107
100
AcDbEntity
  8
0
100
AcDbBlockBegin
  2
*D19
 70
     1
 10
0.0
 20
0.0
 30
0.0
  3
*D19
  1

  0
LINE
  5
11E6
330
1107
100
AcDbEntity
  8
Dimension (ANSI)
440
 16777216
100
AcDbLine
 10
53.6551714575897
 20
57.13758295859591
 30
0.0
 11
53.6551714575897
 21
59.87478768300537
 31
0.0
  0
LINE
  5
11E7
330
1107
100
AcDbEntity
  8
Dimension (ANSI)
440
 16777216
100
AcDbLine
 10
51.53017145758964
 20
56.91883295859239
 30
0.0
 11
51.53017145758964
 21
59.87478768300537
 31
0.0
  0
LINE
  5
11E8
330
1107
100
AcDbEntity
  8
Dimension (ANSI)
440
 16777216
100
AcDbLine
 10
52.12072262531616
 20
59.12478768300537
 30
0.0
 11
53.06462028986318
 21
59.12478768300537
 31
0.0
  0
LINE
  5
11E9
330
1107
100
AcDbEntity
  8
Dimension (ANSI)
440
 16777216
100
AcDbLine
 10
53.6551714575897
 20
59.12478768300537
 30
0.0
 11
54.65609895742142
 21
59.12478768300537
 31
0.0
  0
SOLID
  5
11EA
330
1107
100
AcDbEntity
  8
Dimension (ANSI)
440
 16777216
100
AcDbTrace
 10
52.12072262531616
 20
59.22321287762645
 30
0.0
 11
52.12072262531616
 21
59.02636248838428
 31
0.0
 12
51.53017145758964
 22
59.12478768300537
 32
0.0
 13
51.53017145758964
 23
59.12478768300537
 33
0.0
  0
SOLID
  5
11EB
330
1107
100
AcDbEntity
  8
Dimension (ANSI)
440
 16777216
100
AcDbTrace
 10
53.06462028986318
 20
59.22321287762645
 30
0.0
 11
53.06462028986318
 21
59.02636248838428
 31
0.0
 12
53.6551714575897
 22
59.12478768300537
 32
0.0
 13
53.6551714575897
 23
59.12478768300537
 33
0.0
  0
MTEXT
  5
11EC
330
1107
100
AcDbEntity
  8
Dimension (ANSI)
440
 16777216
100
AcDbMText
 10
54.84507533537417
 20
59.42478768747571
 30
0.0
 40
0.6000000089406968
 41
0.0
 71
     1
 72
     1
  1
\A1;2.13
  7
ROMANS
 73
     1
 44
1.0
  0
POINT
  5
11ED
330
1107
100
AcDbEntity
  8
Defpoints
 62
     0
440
 16777216
100
AcDbPoint
 10
53.6551714575897
 20
56.7625829585959
 30
0.0
  0
POINT
  5
11EE
330
1107
100
AcDbEntity
  8
Defpoints
 62
     0
440
 16777216
100
AcDbPoint
 10
51.53017145758964
 20
56.54383295859239
 30
0.0
  0
POINT
  5
11EF
330
1107
100
AcDbEntity
  8
Defpoints
 62
     0
440
 16777216
100
AcDbPoint
 10
51.53017145758964
 20
59.12478768300537
 30
0.0
  0
ENDBLK
  5
1109
330
1107
100
AcDbEntity
  8
0
100
AcDbBlockEnd
  0
BLOCK
  5
11F2
330
11F1
100
AcDbEntity
  8
0
100
AcDbBlockBegin
  2
*D20
 70
     1
 10
0.0
 20
0.0
 30
0.0
  3
*D20
  1

  0
LINE
  5
12E2
330
11F1
100
AcDbEntity
  8
Dimension (ANSI)
440
 16777216
100
AcDbLine
 10
33.15517145758967
 20
56.7625829585959
 30
0.0
 11
32.06892286327337
 21
56.7625829585959
 31
0.0
  0
LINE
  5
12E3
330
11F1
100
AcDbEntity
  8
Dimension (ANSI)
440
 16777216
100
AcDbLine
 10
34.24892145758963
 20
55.51258295859239
 30
0.0
 11
32.06892286327337
 21
55.51258295859239
 31
0.0
  0
LINE
  5
12E4
330
11F1
100
AcDbEntity
  8
Dimension (ANSI)
440
 16777216
100
AcDbLine
 10
32.81892286327336
 20
57.35313412632242
 30
0.0
 11
32.81892286327336
 21
57.94368529404894
 31
0.0
  0
LINE
  5
12E5
330
11F1
100
AcDbEntity
  8
Dimension (ANSI)
440
 16777216
100
AcDbLine
 10
32.81892286327336
 20
54.92203179086587
 30
0.0
 11
32.81892286327336
 21
53.89431987059618
 31
0.0
  0
LINE
  5
12E6
330
11F1
100
AcDbEntity
  8
Dimension (ANSI)
440
 16777216
100
AcDbLine
 10
32.81892286327336
 20
53.89431987059618
 30
0.0
 11
32.22837169554685
 21
53.89431987059618
 31
0.0
  0
SOLID
  5
12E7
330
11F1
100
AcDbEntity
  8
Dimension (ANSI)
440
 16777216
100
AcDbTrace
 10
32.72049766865228
 20
57.35313412632242
 30
0.0
 11
32.91734805789445
 21
57.35313412632242
 31
0.0
 12
32.81892286327336
 22
56.7625829585959
 32
0.0
 13
32.81892286327336
 23
56.7625829585959
 33
0.0
  0
SOLID
  5
12E8
330
11F1
100
AcDbEntity
  8
Dimension (ANSI)
440
 16777216
100
AcDbTrace
 10
32.72049766865228
 20
54.92203179086587
 30
0.0
 11
32.91734805789445
 21
54.92203179086587
 31
0.0
 12
32.81892286327336
 22
55.51258295859239
 32
0.0
 13
32.81892286327336
 23
55.51258295859239
 33
0.0
  0
MTEXT
  5
12E9
330
11F1
100
AcDbEntity
  8
Dimension (ANSI)
440
 16777216
100
AcDbMText
 10
30.29653814876635
 20
54.19431987506653
 30
0.0
 40
0.6000000089406968
 41
0.0
 71
     1
 72
     1
  1
\A1;1.25
  7
ROMANS
 73
     1
 44
1.0
  0
POINT
  5
12EA
330
11F1
100
AcDbEntity
  8
Defpoints
 62
     0
440
 16777216
100
AcDbPoint
 10
33.53017145758967
 20
56.7625829585959
 30
0.0
  0
POINT
  5
12EB
330
11F1
100
AcDbEntity
  8
Defpoints
 62
     0
440
 16777216
100
AcDbPoint
 10
34.62392145758963
 20
55.51258295859239
 30
0.0
  0
POINT
  5
12EC
330
11F1
100
AcDbEntity
  8
Defpoints
 62
     0
440
 16777216
100
AcDbPoint
 10
32.81892286327336
 20
55.51258295859239
 30
0.0
  0
ENDBLK
  5
11F3
330
11F1
100
AcDbEntity
  8
0
100
AcDbBlockEnd
  0
BLOCK
  5
12EF
330
12EE
100
AcDbEntity
  8
0
100
AcDbBlockBegin
  2
*D21
 70
     1
 10
0.0
 20
0.0
 30
0.0
  3
*D21
  1

  0
LINE
  5
13D3
330
12EE
100
AcDbEntity
  8
Dimension (ANSI)
440
 16777216
100
AcDbLine
 10
33.15517145758967
 20
56.7625829585959
 30
0.0
 11
27.58332106388889
 21
56.7625829585959
 31
0.0
  0
LINE
  5
13D4
330
12EE
100
AcDbEntity
  8
Dimension (ANSI)
440
 16777216
100
AcDbLine
 10
42.18642145758962
 20
52.51258295859242
 30
0.0
 11
27.58332106388889
 21
52.51258295859242
 31
0.0
  0
LINE
  5
13D5
330
12EE
100
AcDbEntity
  8
Dimension (ANSI)
440
 16777216
100
AcDbLine
 10
28.33332106388889
 20
56.17203179086939
 30
0.0
 11
28.33332106388889
 21
55.12655934101726
 31
0.0
  0
LINE
  5
13D6
330
12EE
100
AcDbEntity
  8
Dimension (ANSI)
440
 16777216
100
AcDbLine
 10
28.33332106388889
 20
53.10313412631894
 30
0.0
 11
28.33332106388889
 21
54.14860657617105
 31
0.0
  0
SOLID
  5
13D7
330
12EE
100
AcDbEntity
  8
Dimension (ANSI)
440
 16777216
100
AcDbTrace
 10
28.2348958692678
 20
56.17203179086939
 30
0.0
 11
28.43174625850998
 21
56.17203179086939
 31
0.0
 12
28.33332106388889
 22
56.7625829585959
 32
0.0
 13
28.33332106388889
 23
56.7625829585959
 33
0.0
  0
SOLID
  5
13D8
330
12EE
100
AcDbEntity
  8
Dimension (ANSI)
440
 16777216
100
AcDbTrace
 10
28.2348958692678
 20
53.10313412631894
 30
0.0
 11
28.43174625850997
 21
53.10313412631894
 31
0.0
 12
28.33332106388889
 22
52.51258295859242
 32
0.0
 13
28.33332106388889
 23
52.51258295859242
 33
0.0
  0
MTEXT
  5
13D9
330
12EE
100
AcDbEntity
  8
Dimension (ANSI)
440
 16777216
100
AcDbMText
 10
27.41903533597925
 20
54.93758296306451
 30
0.0
 40
0.6000000089406968
 41
0.0
 71
     1
 72
     1
  1
\A1;4.25
  7
ROMANS
 73
     1
 44
1.0
  0
POINT
  5
13DA
330
12EE
100
AcDbEntity
  8
Defpoints
 62
     0
440
 16777216
100
AcDbPoint
 10
33.53017145758967
 20
56.7625829585959
 30
0.0
  0
POINT
  5
13DB
330
12EE
100
AcDbEntity
  8
Defpoints
 62
     0
440
 16777216
100
AcDbPoint
 10
42.56142145758962
 20
52.51258295859242
 30
0.0
  0
POINT
  5
13DC
330
12EE
100
AcDbEntity
  8
Defpoints
 62
     0
440
 16777216
100
AcDbPoint
 10
28.33332106388889
 20
52.51258295859242
 30
0.0
  0
ENDBLK
  5
12F0
330
12EE
100
AcDbEntity
  8
0
100
AcDbBlockEnd
  0
BLOCK
  5
13DF
330
13DE
100
AcDbEntity
  8
0
100
AcDbBlockBegin
  2
*D22
 70
     1
 10
0.0
 20
0.0
 30
0.0
  3
*D22
  1

  0
LINE
  5
148E
330
13DE
100
AcDbEntity
  8
Dimension (ANSI)
440
 16777216
100
AcDbLine
 10
49.44749940055139
 20
46.70527489817717
 30
0.0
 11
48.59470285288353
 21
46.70527489817717
 31
0.0
  0
LINE
  5
148F
330
13DE
100
AcDbEntity
  8
Dimension (ANSI)
440
 16777216
100
AcDbLine
 10
48.59470285288353
 20
46.70527489817717
 30
0.0
 11
44.16162639374904
 21
51.85203200925606
 31
0.0
  0
MTEXT
  5
1490
102
{ACAD_XDICTIONARY
360
15C6
102
}
330
13DE
100
AcDbEntity
  8
Dimension (ANSI)
440
 16777216
100
AcDbMText
 10
51.19361865885024
 20
46.70527489817717
 30
0.0
 40
0.6000000089406968
 41
0.0
 71
     5
 72
     1
  1
\A1;\U+22050.563{\P(3 PL.)}
  7
ROMANS
 73
     1
 44
1.0
  0
SOLID
  5
1491
330
13DE
100
AcDbEntity
  8
Dimension (ANSI)
440
 16777216
100
AcDbTrace
 10
44.23620171912411
 20
51.91626626632658
 30
0.0
 11
44.08705106837397
 21
51.78779775218554
 31
0.0
 12
43.77622085132595
 22
52.2994839615065
 32
0.0
 13
43.77622085132595
 23
52.2994839615065
 33
0.0
  0
LINE
  5
1492
330
13DE
100
AcDbEntity
  8
Dimension (ANSI)
440
 16777216
100
AcDbLine
 10
43.05267145758961
 20
52.51258295859241
 30
0.0
 11
44.1326714575896
 21
52.51258295859241
 31
0.0
  0
LINE
  5
1493
330
13DE
100
AcDbEntity
  8
Dimension (ANSI)
440
 16777216
100
AcDbLine
 10
43.59267145758962
 20
51.97258295859242
 30
0.0
 11
43.59267145758962
 21
53.05258295859242
 31
0.0
  0
POINT
  5
1494
330
13DE
100
AcDbEntity
  8
Defpoints
 62
     0
440
 16777216
100
AcDbPoint
 10
43.77622085132595
 20
52.2994839615065
 30
0.0
  0
POINT
  5
1495
330
13DE
100
AcDbEntity
  8
Defpoints
 62
     0
440
 16777216
100
AcDbPoint
 10
43.40912206385327
 20
52.72568195567832
 30
0.0
  0
ENDBLK
  5
13E0
330
13DE
100
AcDbEntity
  8
0
100
AcDbBlockEnd
  0
BLOCK
  5
1498
330
1497
100
AcDbEntity
  8
0
100
AcDbBlockBegin
  2
*D23
 70
     1
 10
0.0
 20
0.0
 30
0.0
  3
*D23
  1

  0
LINE
  5
1576
330
1497
100
AcDbEntity
  8
Dimension (ANSI)
440
 16777216
100
AcDbLine
 10
10.49895596985181
 20
29.32661652868604
 30
0.0
 11
10.49895596985181
 21
27.22988680644644
 31
0.0
  0
LINE
  5
1577
330
1497
100
AcDbEntity
  8
Dimension (ANSI)
440
 16777216
100
AcDbLine
 10
18.24895596985187
 20
29.18614266988425
 30
0.0
 11
18.24895596985187
 21
27.22988680644644
 31
0.0
  0
LINE
  5
1578
330
1497
100
AcDbEntity
  8
Dimension (ANSI)
440
 16777216
100
AcDbLine
 10
11.08950713757832
 20
27.97988680644643
 30
0.0
 11
13.27069386398945
 21
27.97988680644643
 31
0.0
  0
LINE
  5
1579
330
1497
100
AcDbEntity
  8
Dimension (ANSI)
440
 16777216
100
AcDbLine
 10
17.65840480212536
 20
27.97988680644643
 30
0.0
 11
15.47721807571423
 21
27.97988680644643
 31
0.0
  0
SOLID
  5
157A
330
1497
100
AcDbEntity
  8
Dimension (ANSI)
440
 16777216
100
AcDbTrace
 10
11.08950713757832
 20
28.07831200106752
 30
0.0
 11
11.08950713757832
 21
27.88146161182535
 31
0.0
 12
10.49895596985181
 22
27.97988680644643
 32
0.0
 13
10.49895596985181
 23
27.97988680644643
 33
0.0
  0
SOLID
  5
157B
330
1497
100
AcDbEntity
  8
Dimension (ANSI)
440
 16777216
100
AcDbTrace
 10
17.65840480212536
 20
28.07831200106752
 30
0.0
 11
17.65840480212536
 21
27.88146161182535
 31
0.0
 12
18.24895596985187
 22
27.97988680644643
 32
0.0
 13
18.24895596985187
 23
27.97988680644643
 33
0.0
  0
MTEXT
  5
157C
330
1497
100
AcDbEntity
  8
Dimension (ANSI)
440
 16777216
100
AcDbMText
 10
13.45967024194221
 20
28.27988681091678
 30
0.0
 40
0.6000000089406968
 41
0.0
 71
     1
 72
     1
  1
\A1;7.75
  7
ROMANS
 73
     1
 44
1.0
  0
POINT
  5
157D
330
1497
100
AcDbEntity
  8
Defpoints
 62
     0
440
 16777216
100
AcDbPoint
 10
10.49895596985181
 20
29.70161652868604
 30
0.0
  0
POINT
  5
157E
330
1497
100
AcDbEntity
  8
Defpoints
 62
     0
440
 16777216
100
AcDbPoint
 10
18.24895596985187
 20
29.56114266988425
 30
0.0
  0
POINT
  5
157F
330
1497
100
AcDbEntity
  8
Defpoints
 62
     0
440
 16777216
100
AcDbPoint
 10
18.24895596985187
 20
27.97988680644643
 30
0.0
  0
ENDBLK
  5
1499
330
1497
100
AcDbEntity
  8
0
100
AcDbBlockEnd
  0
ENDSEC
  0
SECTION
  2
ENTITIES
  0
SPLINE
  5
107
330
6C
100
AcDbEntity
  8
Visible (ANSI)
100
AcDbSpline
210
0.0
220
0.0
230
1.0
 70
     8
 71
     3
 72
    11
 73
     7
 74
     0
 42
0.0000000001
 43
0.0000000001
 40
0.0
 40
0.0
 40
0.0
 40
0.0
 40
1.018582815488603
 40
1.018582815488603
 40
1.018582815488603
 40
1.570796326795075
 40
1.570796326795075
 40
1.570796326795075
 40
1.570796326795075
 10
53.51457145758566
 20
29.56101652868602
 30
0.0
 10
53.56230903887157
 20
29.56101652868602
 30
0.0
 10
53.60923159415378
 20
29.58721943426516
 30
0.0
 10
53.63427344131594
 20
29.62786156213434
 30
0.0
 10
53.64784960433453
 20
29.64989524638302
 30
0.0
 10
53.65517145758568
 20
29.67573612212282
 30
0.0
 10
53.65517145758567
 20
29.70161652868605
 30
0.0
  0
LINE
  5
108
330
6C
100
AcDbEntity
  8
Visible (ANSI)
100
AcDbLine
 10
53.51457145758566
 20
29.68601652868602
 30
0.0
 11
53.51457145758566
 21
29.56101652868602
 31
0.0
  0
LINE
  5
109
330
6C
100
AcDbEntity
  8
Visible (ANSI)
100
AcDbLine
 10
53.60408019758054
 20
29.70161652868604
 30
0.0
 11
53.65517145758567
 21
29.70161652868604
 31
0.0
  0
LINE
  5
10A
330
6C
100
AcDbEntity
  8
Visible (ANSI)
100
AcDbLine
 10
53.53017145758567
 20
29.70161652868604
 30
0.0
 11
53.60408019758054
 21
29.70161652868604
 31
0.0
  0
SPLINE
  5
10B
330
6C
100
AcDbEntity
  8
Visible (ANSI)
100
AcDbSpline
210
0.0
220
0.0
230
1.0
 70
     8
 71
     3
 72
     8
 73
     4
 74
     0
 42
0.0000000001
 43
0.0000000001
 40
0.0
 40
0.0
 40
0.0
 40
0.0
 40
1.570796326795075
 40
1.570796326795075
 40
1.570796326795075
 40
1.570796326795075
 10
53.53017145758567
 20
29.70161652868603
 30
0.0
 10
53.53017145758567
 20
29.6934483877867
 30
0.0
 10
53.522739598485
 20
29.68601652868603
 30
0.0
 10
53.51457145758566
 20
29.68601652868603
 30
0.0
  0
LINE
  5
10C
330
6C
100
AcDbEntity
  8
Visible Narrow (ANSI)
100
AcDbLine
 10
33.67077145758564
 20
29.70161652868603
 30
0.0
 11
33.78017145758561
 21
29.70161652868603
 31
0.0
  0
LINE
  5
10D
330
6C
100
AcDbEntity
  8
Visible Narrow (ANSI)
100
AcDbLine
 10
53.4051714575856
 20
29.70161652868603
 30
0.0
 11
53.51457145758565
 21
29.70161652868603
 31
0.0
  0
SPLINE
  5
10E
330
6C
100
AcDbEntity
  8
Visible (ANSI)
100
AcDbSpline
210
0.0
220
0.0
230
1.0
 70
     8
 71
     3
 72
    11
 73
     7
 74
     0
 42
0.0000000001
 43
0.0000000001
 40
0.0
 40
0.0
 40
0.0
 40
0.0
 40
1.018582815488561
 40
1.018582815488561
 40
1.018582815488561
 40
1.570796326794897
 40
1.570796326794897
 40
1.570796326794897
 40
1.570796326794897
 10
33.53017145758564
 20
29.70161652868603
 30
0.0
 10
33.53017145758564
 20
29.65387894740013
 30
0.0
 10
33.55637436316477
 20
29.60695639211794
 30
0.0
 10
33.59701649103394
 20
29.58191454495578
 30
0.0
 10
33.61905017528262
 20
29.56833838193718
 30
0.0
 10
33.64489105102241
 20
29.56101652868603
 30
0.0
 10
33.67077145758564
 20
29.56101652868603
 30
0.0
  0
LINE
  5
10F
330
6C
100
AcDbEntity
  8
Visible (ANSI)
100
AcDbLine
 10
33.67077145758564
 20
29.68601652868603
 30
0.0
 11
33.67077145758564
 21
29.56101652868603
 31
0.0
  0
SPLINE
  5
110
330
6C
100
AcDbEntity
  8
Visible (ANSI)
100
AcDbSpline
210
0.0
220
0.0
230
1.0
 70
     8
 71
     3
 72
     8
 73
     4
 74
     0
 42
0.0000000001
 43
0.0000000001
 40
0.0
 40
0.0
 40
0.0
 40
0.0
 40
1.570796326794897
 40
1.570796326794897
 40
1.570796326794897
 40
1.570796326794897
 10
33.65517145758564
 20
29.70161652868603
 30
0.0
 10
33.65517145758564
 20
29.6934483877867
 30
0.0
 10
33.66260331668631
 20
29.68601652868603
 30
0.0
 10
33.67077145758564
 20
29.68601652868603
 30
0.0
  0
LINE
  5
111
330
6C
100
AcDbEntity
  8
Visible (ANSI)
100
AcDbLine
 10
33.58126271759075
 20
29.70161652868603
 30
0.0
 11
33.65517145758564
 21
29.70161652868603
 31
0.0
  0
LINE
  5
112
330
6C
100
AcDbEntity
  8
Visible (ANSI)
100
AcDbLine
 10
33.53017145758564
 20
29.70161652868603
 30
0.0
 11
33.58126271759075
 21
29.70161652868603
 31
0.0
  0
LINE
  5
113
330
6C
100
AcDbEntity
  8
Visible (ANSI)
100
AcDbLine
 10
53.51457145758566
 20
29.68601652868602
 30
0.0
 11
53.4051714575856
 21
29.68601652868602
 31
0.0
  0
LINE
  5
114
330
6C
100
AcDbEntity
  8
Visible (ANSI)
100
AcDbLine
 10
52.40517145758566
 20
29.56101652868602
 30
0.0
 11
53.51457145758566
 21
29.56101652868602
 31
0.0
  0
LINE
  5
115
330
6C
100
AcDbEntity
  8
Visible (ANSI)
100
AcDbLine
 10
52.40517145758566
 20
29.56114266988425
 30
0.0
 11
52.40517145758566
 21
29.56101652868602
 31
0.0
  0
LINE
  5
116
330
6C
100
AcDbEntity
  8
Visible (ANSI)
100
AcDbLine
 10
34.80226854449771
 20
29.56101652868603
 30
0.0
 11
52.38307437067356
 21
29.56101652868603
 31
0.0
  0
LINE
  5
117
330
6C
100
AcDbEntity
  8
Visible (ANSI)
100
AcDbLine
 10
33.67077145758564
 20
29.68601652868603
 30
0.0
 11
33.78017145758561
 21
29.68601652868603
 31
0.0
  0
LINE
  5
118
330
6C
100
AcDbEntity
  8
Visible (ANSI)
100
AcDbLine
 10
33.67077145758564
 20
29.56101652868603
 30
0.0
 11
34.78017145758564
 21
29.56101652868603
 31
0.0
  0
LINE
  5
119
330
6C
100
AcDbEntity
  8
Visible (ANSI)
100
AcDbLine
 10
34.78017145758564
 20
29.56114266988425
 30
0.0
 11
34.78017145758564
 21
29.56101652868603
 31
0.0
  0
LINE
  5
11A
330
6C
100
AcDbEntity
  8
Visible (ANSI)
100
AcDbLine
 10
33.65517145758564
 20
29.70161652868603
 30
0.0
 11
33.67077145758564
 21
29.70161652868603
 31
0.0
  0
LINE
  5
11B
330
6C
100
AcDbEntity
  8
Visible (ANSI)
100
AcDbLine
 10
53.51457145758566
 20
29.70161652868603
 30
0.0
 11
53.53017145758564
 21
29.70161652868603
 31
0.0
  0
SPLINE
  5
11C
330
6C
100
AcDbEntity
  8
Visible (ANSI)
100
AcDbSpline
210
0.0
220
0.0
230
1.0
 70
     8
 71
     3
 72
     8
 73
     4
 74
     0
 42
0.0000000001
 43
0.0000000001
 40
0.0
 40
0.0
 40
0.0
 40
0.0
 40
0.1111819782024558
 40
0.1111819782024558
 40
0.1111819782024558
 40
0.1111819782024558
 10
33.67077145758564
 20
29.70161652868603
 30
0.0
 10
33.67129280627855
 20
29.69640579997428
 30
0.0
 10
33.67181415497145
 20
29.69120478189616
 30
0.0
 10
33.67233550366437
 20
29.68604087061095
 30
0.0
  0
SPLINE
  5
11D
330
6C
100
AcDbEntity
  8
Visible (ANSI)
100
AcDbSpline
210
0.0
220
0.0
230
1.0
 70
     8
 71
     3
 72
     8
 73
     4
 74
     0
 42
0.0000000001
 43
0.0000000001
 40
1.45961434859238
 40
1.45961434859238
 40
1.45961434859238
 40
1.45961434859238
 40
1.570796326794896
 40
1.570796326794896
 40
1.570796326794896
 40
1.570796326794896
 10
53.51300741150692
 20
29.68601990058911
 30
0.0
 10
53.51352876019983
 20
29.69119667373506
 30
0.0
 10
53.51405010889273
 20
29.69640579997428
 30
0.0
 10
53.51457145758565
 20
29.70161652868603
 30
0.0
  0
LINE
  5
11E
330
6C
100
AcDbEntity
  8
Visible (ANSI)
100
AcDbLine
 10
52.38307437067356
 20
29.56101652868603
 30
0.0
 11
52.40517145758565
 21
29.56101652868603
 31
0.0
  0
LINE
  5
11F
330
6C
100
AcDbEntity
  8
Visible (ANSI)
100
AcDbLine
 10
52.38307437067356
 20
29.56114266988425
 30
0.0
 11
52.38307437067356
 21
29.56101652868603
 31
0.0
  0
SPLINE
  5
120
330
6C
100
AcDbEntity
  8
Visible (ANSI)
100
AcDbSpline
210
0.0
220
0.0
230
1.0
 70
     8
 71
     3
 72
     8
 73
     4
 74
     0
 42
0.0000000001
 43
0.0000000001
 40
0.0
 40
0.0
 40
0.0
 40
0.0
 40
1.570796326794896
 40
1.570796326794896
 40
1.570796326794896
 40
1.570796326794896
 10
53.51457145758565
 20
29.70161652868603
 30
0.0
 10
53.50720576194827
 20
29.6934483877867
 30
0.0
 10
53.49984006631092
 20
29.68601652868603
 30
0.0
 10
53.49247437067355
 20
29.68601652868603
 30
0.0
  0
SPLINE
  5
121
330
6C
100
AcDbEntity
  8
Visible (ANSI)
100
AcDbSpline
210
0.0
220
0.0
230
1.0
 70
     8
 71
     3
 72
     8
 73
     4
 74
     0
 42
0.0000000001
 43
0.0000000001
 40
0.0
 40
0.0
 40
0.0
 40
0.0
 40
1.570796326794896
 40
1.570796326794896
 40
1.570796326794896
 40
1.570796326794896
 10
33.67077145758564
 20
29.70161652868603
 30
0.0
 10
33.678137153223
 20
29.6934483877867
 30
0.0
 10
33.68550284886036
 20
29.68601652868603
 30
0.0
 10
33.69286854449772
 20
29.68601652868603
 30
0.0
  0
LINE
  5
122
330
6C
100
AcDbEntity
  8
Visible (ANSI)
100
AcDbLine
 10
34.78017145758564
 20
29.56101652868603
 30
0.0
 11
34.80226854449771
 21
29.56101652868603
 31
0.0
  0
LINE
  5
123
330
6C
100
AcDbEntity
  8
Visible (ANSI)
100
AcDbLine
 10
34.80226854449771
 20
29.56114266988425
 30
0.0
 11
34.80226854449771
 21
29.56101652868603
 31
0.0
  0
LINE
  5
124
330
6C
100
AcDbEntity
  8
Visible (ANSI)
100
AcDbLine
 10
33.53017145758564
 20
29.70161652868603
 30
0.0
 11
33.53017145758564
 21
41.42041652868603
 31
0.0
  0
LINE
  5
125
330
6C
100
AcDbEntity
  8
Visible (ANSI)
100
AcDbLine
 10
53.53017145758567
 20
29.70161652868604
 30
0.0
 11
53.53017145758567
 21
41.42041652868603
 31
0.0
  0
LINE
  5
126
330
6C
100
AcDbEntity
  8
Visible (ANSI)
100
AcDbLine
 10
53.65517145758567
 20
41.42041652868603
 30
0.0
 11
53.65517145758567
 21
29.70161652868604
 31
0.0
  0
LINE
  5
127
330
6C
100
AcDbEntity
  8
Visible (ANSI)
100
AcDbLine
 10
53.53017145758567
 20
41.42041652868603
 30
0.0
 11
53.65517145758567
 21
41.42041652868603
 31
0.0
  0
LINE
  5
128
330
6C
100
AcDbEntity
  8
Visible (ANSI)
100
AcDbLine
 10
33.65517145758564
 20
41.42041652868603
 30
0.0
 11
33.65517145758564
 21
29.70161652868603
 31
0.0
  0
LINE
  5
129
330
6C
100
AcDbEntity
  8
Visible (ANSI)
100
AcDbLine
 10
33.53017145758564
 20
41.42041652868603
 30
0.0
 11
33.65517145758564
 21
41.42041652868603
 31
0.0
  0
LINE
  5
12A
330
6C
100
AcDbEntity
  8
Visible Narrow (ANSI)
100
AcDbLine
 10
33.67077145758564
 20
41.42041652868603
 30
0.0
 11
33.67077145758564
 21
29.70161652868603
 31
0.0
  0
LINE
  5
12B
330
6C
100
AcDbEntity
  8
Visible Narrow (ANSI)
100
AcDbLine
 10
53.51457145758565
 20
29.70161652868603
 30
0.0
 11
53.51457145758564
 21
41.42041652868603
 31
0.0
  0
LINE
  5
12C
330
6C
100
AcDbEntity
  8
Visible (ANSI)
100
AcDbLine
 10
33.67077145758564
 20
41.42041652868603
 30
0.0
 11
33.65517145758564
 21
41.42041652868603
 31
0.0
  0
LINE
  5
12D
330
6C
100
AcDbEntity
  8
Visible (ANSI)
100
AcDbLine
 10
34.28017145758564
 20
41.43601652868599
 30
0.0
 11
33.67077145758563
 21
41.43601652868603
 31
0.0
  0
LINE
  5
12E
330
6C
100
AcDbEntity
  8
Visible (ANSI)
100
AcDbLine
 10
34.28017145758565
 20
41.56101652868599
 30
0.0
 11
33.67077145758564
 21
41.56101652868602
 31
0.0
  0
LINE
  5
12F
330
6C
100
AcDbEntity
  8
Visible (ANSI)
100
AcDbLine
 10
53.51457145758566
 20
41.56101652868605
 30
0.0
 11
52.90517145758566
 21
41.56101652868605
 31
0.0
  0
LINE
  5
130
330
6C
100
AcDbEntity
  8
Visible (ANSI)
100
AcDbLine
 10
52.90517145758566
 20
41.43601652868609
 30
0.0
 11
53.51457145758566
 21
41.43601652868603
 31
0.0
  0
LINE
  5
131
330
6C
100
AcDbEntity
  8
Visible (ANSI)
100
AcDbLine
 10
52.38307437067355
 20
41.43601652868603
 30
0.0
 11
34.80226854449771
 21
41.43601652868603
 31
0.0
  0
LINE
  5
132
330
6C
100
AcDbEntity
  8
Visible (ANSI)
100
AcDbLine
 10
52.38307437067355
 20
41.56101652868604
 30
0.0
 11
34.80226854449771
 21
41.56101652868604
 31
0.0
  0
LINE
  5
133
330
6C
100
AcDbEntity
  8
Visible (ANSI)
100
AcDbLine
 10
53.53017145758563
 20
41.42041652868603
 30
0.0
 11
53.51457145758564
 21
41.42041652868603
 31
0.0
  0
LINE
  5
134
330
6C
100
AcDbEntity
  8
Visible (ANSI)
100
AcDbLine
 10
34.78017145758565
 20
41.56101652868597
 30
0.0
 11
34.28017145758565
 21
41.56101652868599
 31
0.0
  0
LINE
  5
135
330
6C
100
AcDbEntity
  8
Visible (ANSI)
100
AcDbLine
 10
34.28017145758565
 20
41.56101652868599
 30
0.0
 11
34.28017145758564
 21
41.43601652868599
 31
0.0
  0
LINE
  5
136
330
6C
100
AcDbEntity
  8
Visible (ANSI)
100
AcDbLine
 10
34.28017145758564
 20
41.43601652868599
 30
0.0
 11
34.78017145758564
 21
41.43601652868597
 31
0.0
  0
LINE
  5
137
330
6C
100
AcDbEntity
  8
Visible (ANSI)
100
AcDbLine
 10
34.78017145758564
 20
41.43601652868597
 30
0.0
 11
34.78017145758565
 21
41.56101652868597
 31
0.0
  0
LINE
  5
138
330
6C
100
AcDbEntity
  8
Visible (ANSI)
100
AcDbLine
 10
52.90517145758566
 20
41.56101652868605
 30
0.0
 11
52.40517145758566
 21
41.56101652868605
 31
0.0
  0
LINE
  5
139
330
6C
100
AcDbEntity
  8
Visible (ANSI)
100
AcDbLine
 10
52.40517145758566
 20
41.56101652868605
 30
0.0
 11
52.40517145758566
 21
41.43601652868606
 31
0.0
  0
LINE
  5
13A
330
6C
100
AcDbEntity
  8
Visible (ANSI)
100
AcDbLine
 10
52.40517145758566
 20
41.43601652868606
 30
0.0
 11
52.90517145758566
 21
41.43601652868609
 31
0.0
  0
LINE
  5
13B
330
6C
100
AcDbEntity
  8
Visible (ANSI)
100
AcDbLine
 10
52.90517145758566
 20
41.43601652868609
 30
0.0
 11
52.90517145758566
 21
41.56101652868605
 31
0.0
  0
ARC
  5
13C
330
6C
100
AcDbEntity
  8
Visible (ANSI)
100
AcDbCircle
 10
33.67077145758563
 20
41.42041652868602
 30
0.0
 40
0.0156
100
AcDbArc
 50
90.0
 51
180.0
  0
ARC
  5
13D
330
6C
100
AcDbEntity
  8
Visible (ANSI)
100
AcDbCircle
 10
33.67077145758563
 20
41.42041652868602
 30
0.0
 40
0.1405999999999981
100
AcDbArc
 50
89.99999999999657
 51
180.0
  0
ARC
  5
13E
330
6C
100
AcDbEntity
  8
Visible (ANSI)
100
AcDbCircle
 10
53.51457145758566
 20
41.42041652868603
 30
0.0
 40
0.1406000000000107
100
AcDbArc
 50
0.0
 51
90.0
  0
ARC
  5
13F
330
6C
100
AcDbEntity
  8
Visible (ANSI)
100
AcDbCircle
 10
53.51457145758566
 20
41.42041652868603
 30
0.0
 40
0.0156000000000154
100
AcDbArc
 50
0.0
 51
89.99999999996919
  0
LINE
  5
140
330
6C
100
AcDbEntity
  8
Visible Narrow (ANSI)
100
AcDbLine
 10
53.51457145758564
 20
41.42041652868603
 30
0.0
 11
33.67077145758564
 21
41.42041652868603
 31
0.0
  0
SPLINE
  5
141
330
6C
100
AcDbEntity
  8
Visible (ANSI)
100
AcDbSpline
210
0.0
220
0.0
230
1.0
 70
     8
 71
     3
 72
     8
 73
     4
 74
     0
 42
0.0000000001
 43
0.0000000001
 40
0.0
 40
0.0
 40
0.0
 40
0.0
 40
0.1111819782024535
 40
0.1111819782024535
 40
0.1111819782024535
 40
0.1111819782024535
 10
53.51457145758564
 20
41.42041652868605
 30
0.0
 10
53.51405010889272
 20
41.4256272573978
 30
0.0
 10
53.51352876019982
 20
41.43082827547592
 30
0.0
 10
53.51300741150691
 20
41.43599218676111
 30
0.0
  0
SPLINE
  5
142
330
6C
100
AcDbEntity
  8
Visible (ANSI)
100
AcDbSpline
210
0.0
220
0.0
230
1.0
 70
     8
 71
     3
 72
     8
 73
     4
 74
     0
 42
0.0000000001
 43
0.0000000001
 40
1.459614348592574
 40
1.459614348592574
 40
1.459614348592574
 40
1.459614348592574
 40
1.570796326794991
 40
1.570796326794991
 40
1.570796326794991
 40
1.570796326794991
 10
33.67233550366436
 20
41.43601315678294
 30
0.0
 10
33.67181415497145
 20
41.43083638363699
 30
0.0
 10
33.67129280627854
 20
41.42562725739778
 30
0.0
 10
33.67077145758564
 20
41.42041652868603
 30
0.0
  0
LINE
  5
143
330
6C
100
AcDbEntity
  8
Visible (ANSI)
100
AcDbLine
 10
52.40517145758565
 20
41.43601652868603
 30
0.0
 11
52.38307437067355
 21
41.43601652868603
 31
0.0
  0
LINE
  5
144
330
6C
100
AcDbEntity
  8
Visible (ANSI)
100
AcDbLine
 10
34.78017145758565
 20
41.43601652868603
 30
0.0
 11
34.80226854449771
 21
41.43601652868603
 31
0.0
  0
LINE
  5
145
330
6C
100
AcDbEntity
  8
Visible (ANSI)
100
AcDbLine
 10
34.80226854449771
 20
41.56101652868604
 30
0.0
 11
34.78017145758565
 21
41.56101652868604
 31
0.0
  0
LINE
  5
146
330
6C
100
AcDbEntity
  8
Visible (ANSI)
100
AcDbLine
 10
34.80226854449771
 20
41.43601652868603
 30
0.0
 11
34.80226854449771
 21
41.56101652868604
 31
0.0
  0
SPLINE
  5
147
330
6C
100
AcDbEntity
  8
Visible (ANSI)
100
AcDbSpline
210
0.0
220
0.0
230
1.0
 70
     8
 71
     3
 72
     8
 73
     4
 74
     0
 42
0.0000000001
 43
0.0000000001
 40
0.0
 40
0.0
 40
0.0
 40
0.0
 40
1.570796326794991
 40
1.570796326794991
 40
1.570796326794991
 40
1.570796326794991
 10
33.67077145758563
 20
41.42041652868603
 30
0.0
 10
33.678137153223
 20
41.42858466958536
 30
0.0
 10
33.68550284886036
 20
41.43601652868603
 30
0.0
 10
33.69286854449772
 20
41.43601652868603
 30
0.0
  0
SPLINE
  5
148
330
6C
100
AcDbEntity
  8
Visible (ANSI)
100
AcDbSpline
210
0.0
220
0.0
230
1.0
 70
     8
 71
     3
 72
     8
 73
     4
 74
     0
 42
0.0000000001
 43
0.0000000001
 40
0.0
 40
0.0
 40
0.0
 40
0.0
 40
1.570796326794887
 40
1.570796326794887
 40
1.570796326794887
 40
1.570796326794887
 10
53.51457145758564
 20
41.42041652868603
 30
0.0
 10
53.50720576194827
 20
41.42858466958536
 30
0.0
 10
53.49984006631091
 20
41.43601652868603
 30
0.0
 10
53.49247437067355
 20
41.43601652868603
 30
0.0
  0
LINE
  5
149
330
6C
100
AcDbEntity
  8
Visible (ANSI)
100
AcDbLine
 10
52.40517145758565
 20
41.56101652868604
 30
0.0
 11
52.38307437067355
 21
41.56101652868604
 31
0.0
  0
LINE
  5
14A
330
6C
100
AcDbEntity
  8
Visible (ANSI)
100
AcDbLine
 10
52.38307437067355
 20
41.43601652868603
 30
0.0
 11
52.38307437067355
 21
41.56101652868604
 31
0.0
  0
LINE
  5
14B
330
6C
100
AcDbEntity
  8
Visible (ANSI)
100
AcDbLine
 10
53.28017145758561
 20
29.68614266988425
 30
0.0
 11
53.4051714575856
 21
29.68614266988425
 31
0.0
  0
LINE
  5
14C
330
6C
100
AcDbEntity
  8
Visible Narrow (ANSI)
100
AcDbLine
 10
53.2801714575856
 20
29.68614266988425
 30
0.0
 11
53.2801714575856
 21
29.56114266988425
 31
0.0
  0
LINE
  5
14D
330
6C
100
AcDbEntity
  8
Visible (ANSI)
100
AcDbLine
 10
53.40517145758561
 20
29.56114266988425
 30
0.0
 11
53.28017145758561
 21
29.56114266988425
 31
0.0
  0
LINE
  5
14E
330
6C
100
AcDbEntity
  8
Visible (ANSI)
100
AcDbLine
 10
53.4051714575856
 20
29.56114266988425
 30
0.0
 11
53.4051714575856
 21
29.68614266988425
 31
0.0
  0
LINE
  5
14F
330
6C
100
AcDbEntity
  8
Visible (ANSI)
100
AcDbLine
 10
33.90517145758561
 20
29.56114266988425
 30
0.0
 11
33.78017145758561
 21
29.56114266988425
 31
0.0
  0
LINE
  5
150
330
6C
100
AcDbEntity
  8
Visible (ANSI)
100
AcDbLine
 10
33.78017145758561
 20
29.68614266988425
 30
0.0
 11
33.90517145758561
 21
29.68614266988425
 31
0.0
  0
LINE
  5
151
330
6C
100
AcDbEntity
  8
Visible (ANSI)
100
AcDbLine
 10
33.78017145758561
 20
29.68614266988425
 30
0.0
 11
33.78017145758561
 21
29.56114266988425
 31
0.0
  0
LINE
  5
152
330
6C
100
AcDbEntity
  8
Visible Narrow (ANSI)
100
AcDbLine
 10
33.90517145758561
 20
29.56114266988425
 30
0.0
 11
33.90517145758561
 21
29.68614266988425
 31
0.0
  0
LINE
  5
153
330
6C
100
AcDbEntity
  8
Visible (ANSI)
100
AcDbLine
 10
53.4051714575856
 20
29.81101652868605
 30
0.0
 11
53.4051714575856
 21
29.76983574212088
 31
0.0
  0
LINE
  5
154
330
6C
100
AcDbEntity
  8
Visible (ANSI)
100
AcDbLine
 10
33.78017145758561
 20
29.81101652868605
 30
0.0
 11
33.78017145758561
 21
29.76983574212087
 31
0.0
  0
LINE
  5
155
330
6C
100
AcDbEntity
  8
Visible (ANSI)
100
AcDbLine
 10
53.4051714575856
 20
29.81101652868605
 30
0.0
 11
33.78017145758561
 21
29.81101652868605
 31
0.0
  0
LINE
  5
156
330
6C
100
AcDbEntity
  8
Visible Narrow (ANSI)
100
AcDbLine
 10
53.4051714575856
 20
29.76983574212088
 30
0.0
 11
33.78017145758561
 21
29.76983574212087
 31
0.0
  0
LINE
  5
157
330
6C
100
AcDbEntity
  8
Visible (ANSI)
100
AcDbLine
 10
53.4051714575856
 20
29.69071180409774
 30
0.0
 11
53.4051714575856
 21
29.76983574212088
 31
0.0
  0
LINE
  5
158
330
6C
100
AcDbEntity
  8
Visible (ANSI)
100
AcDbLine
 10
33.78017145758561
 20
29.76983574212087
 30
0.0
 11
33.78017145758561
 21
29.69071180409773
 31
0.0
  0
LINE
  5
159
330
6C
100
AcDbEntity
  8
Visible (ANSI)
100
AcDbLine
 10
53.4051714575856
 20
29.68614266988425
 30
0.0
 11
53.4051714575856
 21
29.69071180409774
 31
0.0
  0
LINE
  5
15A
330
6C
100
AcDbEntity
  8
Visible (ANSI)
100
AcDbLine
 10
33.78017145758561
 20
29.68614266988425
 30
0.0
 11
33.78017145758561
 21
29.69071180409773
 31
0.0
  0
LINE
  5
15B
330
6C
100
AcDbEntity
  8
Visible Narrow (ANSI)
100
AcDbLine
 10
53.4051714575856
 20
29.69071180409774
 30
0.0
 11
33.78017145758561
 21
29.69071180409773
 31
0.0
  0
LINE
  5
15C
330
6C
100
AcDbEntity
  8
Visible (ANSI)
100
AcDbLine
 10
33.90517145758561
 20
29.56114266988425
 30
0.0
 11
53.2801714575856
 21
29.56114266988425
 31
0.0
  0
LINE
  5
15D
330
6C
100
AcDbEntity
  8
Visible (ANSI)
100
AcDbLine
 10
53.2801714575856
 20
29.68614266988425
 30
0.0
 11
33.90517145758561
 21
29.68614266988425
 31
0.0
  0
MTEXT
  5
15F
330
6C
100
AcDbEntity
  8
Symbol (ANSI)
100
AcDbMText
 10
40.7017759403852
 20
26.09838756402707
 30
0.0
 40
0.7200000088984572
 41
0.0
 71
     7
 72
     1
  1
FRONT VIEW
  7
Text Style168
 73
     1
 44
1.0
  0
LINE
  5
161
330
6C
100
AcDbEntity
  8
Symbol (ANSI)
370
    30
100
AcDbLine
 10
40.62977575517488
 20
25.95155773977773
 30
0.0
 11
46.41836578088894
 21
25.95155773977773
 31
0.0
  0
SPLINE
  5
162
330
6C
100
AcDbEntity
  8
Visible (ANSI)
100
AcDbSpline
210
0.0
220
0.0
230
1.0
 70
     8
 71
     3
 72
    11
 73
     7
 74
     0
 42
0.0000000001
 43
0.0000000001
 40
0.0
 40
0.0
 40
0.0
 40
0.0
 40
1.01858281548856
 40
1.01858281548856
 40
1.01858281548856
 40
1.570796326794896
 40
1.570796326794896
 40
1.570796326794896
 40
1.570796326794896
 10
10.49895596985181
 20
29.70161652868603
 30
0.0
 10
10.49895596985181
 20
29.65387894740014
 30
0.0
 10
10.52515887543094
 20
29.60695639211794
 30
0.0
 10
10.56580100330012
 20
29.58191454495578
 30
0.0
 10
10.58783468754879
 20
29.56833838193718
 30
0.0
 10
10.61367556328859
 20
29.56101652868603
 30
0.0
 10
10.63955596985181
 20
29.56101652868603
 30
0.0
  0
LINE
  5
163
330
6C
100
AcDbEntity
  8
Visible (ANSI)
100
AcDbLine
 10
10.63955596985181
 20
29.68601652868603
 30
0.0
 11
10.64112001593054
 21
29.68601652868603
 31
0.0
  0
LINE
  5
164
330
6C
100
AcDbEntity
  8
Visible (ANSI)
100
AcDbLine
 10
10.63955596985181
 20
29.68601652868603
 30
0.0
 11
10.63955596985181
 21
29.56101652868603
 31
0.0
  0
SPLINE
  5
165
330
6C
100
AcDbEntity
  8
Visible (ANSI)
100
AcDbSpline
210
0.0
220
0.0
230
1.0
 70
     8
 71
     3
 72
     8
 73
     4
 74
     0
 42
0.0000000001
 43
0.0000000001
 40
0.0
 40
0.0
 40
0.0
 40
0.0
 40
1.570796326794896
 40
1.570796326794896
 40
1.570796326794896
 40
1.570796326794896
 10
10.6239559698518
 20
29.70161652868603
 30
0.0
 10
10.62395596985181
 20
29.6934483877867
 30
0.0
 10
10.63138782895248
 20
29.68601652868603
 30
0.0
 10
10.63955596985181
 20
29.68601652868603
 30
0.0
  0
LINE
  5
166
330
6C
100
AcDbEntity
  8
Visible (ANSI)
100
AcDbLine
 10
10.63955596985181
 20
29.56101652868603
 30
0.0
 11
10.6616530567639
 21
29.56101652868603
 31
0.0
  0
SPLINE
  5
167
330
6C
100
AcDbEntity
  8
Visible (ANSI)
100
AcDbSpline
210
0.0
220
0.0
230
1.0
 70
     8
 71
     3
 72
    11
 73
     7
 74
     0
 42
0.0000000001
 43
0.0000000001
 40
0.0
 40
0.0
 40
0.0
 40
0.0
 40
1.018582815488561
 40
1.018582815488561
 40
1.018582815488561
 40
1.570796326794895
 40
1.570796326794895
 40
1.570796326794895
 40
1.570796326794895
 10
10.66165305676388
 20
29.56101652868603
 30
0.0
 10
10.65687677172147
 20
29.56101652868603
 30
0.0
 10
10.65210048667905
 20
29.58721943426516
 30
0.0
 10
10.64732420163664
 20
29.62786156213434
 30
0.0
 10
10.64473479104168
 20
29.64989524638301
 30
0.0
 10
10.64214538044672
 20
29.67573612212281
 30
0.0
 10
10.63955596985176
 20
29.70161652868603
 30
0.0
  0
LINE
  5
168
330
6C
100
AcDbEntity
  8
Visible (ANSI)
100
AcDbLine
 10
16.49895596985192
 20
29.56101652868603
 30
0.0
 11
10.66165305676388
 21
29.56101652868603
 31
0.0
  0
SPLINE
  5
169
330
6C
100
AcDbEntity
  8
Visible (ANSI)
100
AcDbSpline
210
0.0
220
0.0
230
1.0
 70
     8
 71
     3
 72
    11
 73
     7
 74
     0
 42
0.0000000001
 43
0.0000000001
 40
0.0
 40
0.0
 40
0.0
 40
0.0
 40
1.018582815488561
 40
1.018582815488561
 40
1.018582815488561
 40
1.570796326794897
 40
1.570796326794897
 40
1.570796326794897
 40
1.570796326794897
 10
16.52266711881388
 20
29.70161652868603
 30
0.0
 10
16.51754195428084
 20
29.65387894740013
 30
0.0
 10
16.5124167897478
 20
29.60695639211794
 30
0.0
 10
16.50729162521476
 20
29.58191454495578
 30
0.0
 10
16.50451307342715
 20
29.56833838193718
 30
0.0
 10
16.50173452163953
 20
29.56101652868603
 30
0.0
 10
16.49895596985192
 20
29.56101652868603
 30
0.0
  0
LINE
  5
16A
330
6C
100
AcDbEntity
  8
Visible Narrow (ANSI)
100
AcDbLine
 10
10.63955596985176
 20
29.70161652868603
 30
0.0
 11
16.52266711881388
 21
29.70161652868603
 31
0.0
  0
LINE
  5
16B
330
6C
100
AcDbEntity
  8
Visible (ANSI)
100
AcDbLine
 10
10.63955596985176
 20
29.70161652868603
 30
0.0
 11
10.49895596985181
 21
29.70161652868603
 31
0.0
  0
LINE
  5
16C
330
6C
100
AcDbEntity
  8
Visible (ANSI)
100
AcDbLine
 10
16.52266711881388
 20
29.70161652868603
 30
0.0
 11
18.49895596985177
 21
41.42041652868603
 31
0.0
  0
LINE
  5
16D
330
6C
100
AcDbEntity
  8
Visible Narrow (ANSI)
100
AcDbLine
 10
18.49895596985177
 20
41.42041652868603
 30
0.0
 11
10.63955596985176
 21
41.42041652868603
 31
0.0
  0
LINE
  5
16E
330
6C
100
AcDbEntity
  8
Visible (ANSI)
100
AcDbLine
 10
18.49895596985177
 20
41.42041652868602
 30
0.0
 11
18.49895596985181
 21
41.56101652868602
 31
0.0
  0
LINE
  5
16F
330
6C
100
AcDbEntity
  8
Visible (ANSI)
100
AcDbLine
 10
10.66165305676388
 20
41.56101652868602
 30
0.0
 11
18.49895596985181
 21
41.56101652868602
 31
0.0
  0
LINE
  5
170
330
6C
100
AcDbEntity
  8
Visible Narrow (ANSI)
100
AcDbLine
 10
10.63955596985176
 20
41.42041652868603
 30
0.0
 11
10.63955596985176
 21
29.70161652868603
 31
0.0
  0
LINE
  5
171
330
6C
100
AcDbEntity
  8
Visible (ANSI)
100
AcDbLine
 10
10.49895596985181
 20
29.70161652868603
 30
0.0
 11
10.49895596985181
 21
41.42041652868603
 31
0.0
  0
SPLINE
  5
172
330
6C
100
AcDbEntity
  8
Visible (ANSI)
100
AcDbSpline
210
0.0
220
0.0
230
1.0
 70
     8
 71
     3
 72
    11
 73
     7
 74
     0
 42
0.0000000001
 43
0.0000000001
 40
0.0
 40
0.0
 40
0.0
 40
0.0
 40
1.01858281548851
 40
1.01858281548851
 40
1.01858281548851
 40
1.570796326794991
 40
1.570796326794991
 40
1.570796326794991
 40
1.570796326794991
 10
10.63955596985183
 20
41.56101652868602
 30
0.0
 10
10.59181838856593
 20
41.56101652868602
 30
0.0
 10
10.54489583328374
 20
41.5348136231069
 30
0.0
 10
10.51985398612157
 20
41.49417149523774
 30
0.0
 10
10.50627782310296
 20
41.47213781098907
 30
0.0
 10
10.49895596985181
 20
41.44629693524925
 30
0.0
 10
10.49895596985181
 20
41.42041652868603
 30
0.0
  0
LINE
  5
173
330
6C
100
AcDbEntity
  8
Visible (ANSI)
100
AcDbLine
 10
10.63955596985182
 20
41.43601652868603
 30
0.0
 11
10.64112001593053
 21
41.43601652868603
 31
0.0
  0
LINE
  5
174
330
6C
100
AcDbEntity
  8
Visible (ANSI)
100
AcDbLine
 10
10.6616530567639
 20
41.56101652868602
 30
0.0
 11
10.63955596985182
 21
41.56101652868602
 31
0.0
  0
LINE
  5
175
330
6C
100
AcDbEntity
  8
Visible (ANSI)
100
AcDbLine
 10
10.63955596985182
 20
41.43601652868603
 30
0.0
 11
10.63955596985182
 21
41.56101652868602
 31
0.0
  0
SPLINE
  5
176
330
6C
100
AcDbEntity
  8
Visible (ANSI)
100
AcDbSpline
210
0.0
220
0.0
230
1.0
 70
     8
 71
     3
 72
     8
 73
     4
 74
     0
 42
0.0000000001
 43
0.0000000001
 40
0.0
 40
0.0
 40
0.0
 40
0.0
 40
1.570796326794991
 40
1.570796326794991
 40
1.570796326794991
 40
1.570796326794991
 10
10.6239559698518
 20
41.42041652868603
 30
0.0
 10
10.62395596985181
 20
41.42858466958536
 30
0.0
 10
10.63138782895248
 20
41.43601652868603
 30
0.0
 10
10.63955596985181
 20
41.43601652868603
 30
0.0
  0
SPLINE
  5
177
330
6C
100
AcDbEntity
  8
Visible (ANSI)
100
AcDbSpline
210
0.0
220
0.0
230
1.0
 70
     8
 71
     3
 72
    11
 73
     7
 74
     0
 42
0.0000000001
 43
0.0000000001
 40
0.0
 40
0.0
 40
0.0
 40
0.0
 40
1.018582815488563
 40
1.018582815488563
 40
1.018582815488563
 40
1.570796326794888
 40
1.570796326794888
 40
1.570796326794888
 40
1.570796326794888
 10
10.63955596985176
 20
41.42041652868604
 30
0.0
 10
10.64433225489417
 20
41.46815410997193
 30
0.0
 10
10.64910853993658
 20
41.51507666525414
 30
0.0
 10
10.65388482497899
 20
41.54011851241629
 30
0.0
 10
10.65647423557396
 20
41.55369467543489
 30
0.0
 10
10.65906364616892
 20
41.56101652868602
 30
0.0
 10
10.66165305676388
 20
41.56101652868602
 30
0.0
  0
LINE
  5
178
330
6C
100
AcDbEntity
  8
Visible (ANSI)
100
AcDbLine
 10
10.49895596985181
 20
41.42041652868603
 30
0.0
 11
10.63955596985176
 21
41.42041652868603
 31
0.0
  0
LINE
  5
179
330
6C
100
AcDbEntity
  8
Visible (ANSI)
100
AcDbLine
 10
18.24895596985187
 20
29.56114266988425
 30
0.0
 11
18.12395596985184
 21
29.56114266988425
 31
0.0
  0
LINE
  5
17A
330
6C
100
AcDbEntity
  8
Visible (ANSI)
100
AcDbLine
 10
18.12395596985183
 20
29.68614266988425
 30
0.0
 11
18.24895596985187
 21
29.68614266988425
 31
0.0
  0
LINE
  5
17B
330
6C
100
AcDbEntity
  8
Visible Narrow (ANSI)
100
AcDbLine
 10
18.12395596985184
 20
29.68614266988425
 30
0.0
 11
18.12395596985184
 21
29.56114266988425
 31
0.0
  0
LINE
  5
17C
330
6C
100
AcDbEntity
  8
Visible (ANSI)
100
AcDbLine
 10
18.24895596985187
 20
29.56114266988425
 30
0.0
 11
18.24895596985187
 21
29.68614266988425
 31
0.0
  0
LINE
  5
17D
330
6C
100
AcDbEntity
  8
Visible (ANSI)
100
AcDbLine
 10
16.7166943967215
 20
29.56114266988425
 30
0.0
 11
18.12395596985184
 21
29.56114266988425
 31
0.0
  0
LINE
  5
17E
330
6C
100
AcDbEntity
  8
Visible (ANSI)
100
AcDbLine
 10
18.12395596985184
 20
29.68614266988425
 30
0.0
 11
16.7166943967215
 21
29.68614266988425
 31
0.0
  0
ARC
  5
17F
330
6C
100
AcDbEntity
  8
Visible (ANSI)
100
AcDbCircle
 10
16.71669439672149
 20
29.70174266988425
 30
0.0
 40
0.0156000000000005
100
AcDbArc
 50
225.0000000000163
 51
270.0000000000154
  0
ARC
  5
180
330
6C
100
AcDbEntity
  8
Visible (ANSI)
100
AcDbCircle
 10
16.71669439672149
 20
29.70174266988425
 30
0.0
 40
0.1406000000000012
100
AcDbArc
 50
225.0000000000018
 51
270.0000000000017
  0
LINE
  5
181
330
6C
100
AcDbEntity
  8
Visible (ANSI)
100
AcDbLine
 10
16.62653959291185
 20
29.76983574212087
 30
0.0
 11
16.70566353093498
 21
29.69071180409773
 31
0.0
  0
LINE
  5
182
330
6C
100
AcDbEntity
  8
Visible (ANSI)
100
AcDbLine
 10
16.61727518328667
 20
29.60232345644941
 30
0.0
 11
16.53815124526353
 21
29.68144739447255
 31
0.0
  0
ARC
  5
183
330
6C
100
AcDbEntity
  8
Visible (ANSI)
100
AcDbCircle
 10
16.52712037947702
 20
29.67041652868605
 30
0.0
 40
0.1405999999999975
100
AcDbArc
 50
44.99999999999938
 51
84.33437806333651
  0
ARC
  5
184
330
6C
100
AcDbEntity
  8
Visible (ANSI)
100
AcDbCircle
 10
16.52712037947702
 20
29.67041652868605
 30
0.0
 40
0.0156000000000001
100
AcDbArc
 50
45.0
 51
90.0
  0
LINE
  5
185
330
6C
100
AcDbEntity
  8
Visible (ANSI)
100
AcDbLine
 10
16.52712037947702
 20
29.68601652868605
 30
0.0
 11
16.52098882838121
 21
29.68601652868605
 31
0.0
  0
MTEXT
  5
186
330
6C
100
AcDbEntity
  8
Symbol (ANSI)
100
AcDbMText
 10
12.07213725308084
 20
26.12872792173266
 30
0.0
 40
0.7200000088984572
 41
0.0
 71
     7
 72
     1
  1
LEFT VIEW
  7
Text Style168
 73
     1
 44
1.0
  0
LINE
  5
187
330
6C
100
AcDbEntity
  8
Symbol (ANSI)
370
    30
100
AcDbLine
 10
12.00013706787052
 20
25.96672791973051
 30
0.0
 11
16.86042877416598
 21
25.96672791973051
 31
0.0
  0
LINE
  5
188
330
6C
100
AcDbEntity
  8
Visible (ANSI)
100
AcDbLine
 10
73.2336412618584
 20
29.56101652868603
 30
0.0
 11
67.39633834877047
 21
29.56101652868602
 31
0.0
  0
LINE
  5
189
330
6C
100
AcDbEntity
  8
Visible Narrow (ANSI)
100
AcDbLine
 10
67.37262719980851
 20
29.70161652868604
 30
0.0
 11
73.25573834877051
 21
29.70161652868603
 31
0.0
  0
SPLINE
  5
18A
330
6C
100
AcDbEntity
  8
Visible (ANSI)
100
AcDbSpline
210
0.0
220
0.0
230
1.0
 70
     8
 71
     3
 72
    11
 73
     7
 74
     0
 42
0.0000000001
 43
0.0000000001
 40
0.0
 40
0.0
 40
0.0
 40
0.0
 40
1.018582815488603
 40
1.018582815488603
 40
1.018582815488603
 40
1.570796326795075
 40
1.570796326795075
 40
1.570796326795075
 40
1.570796326795075
 10
67.39633834877047
 20
29.56101652868602
 30
0.0
 10
67.39121318423745
 20
29.56101652868602
 30
0.0
 10
67.3860880197044
 20
29.58721943426516
 30
0.0
 10
67.38096285517137
 20
29.62786156213434
 30
0.0
 10
67.37818430338375
 20
29.64989524638302
 30
0.0
 10
67.37540575159613
 20
29.67573612212282
 30
0.0
 10
67.37262719980851
 20
29.70161652868605
 30
0.0
  0
SPLINE
  5
18B
330
6C
100
AcDbEntity
  8
Visible (ANSI)
100
AcDbSpline
210
0.0
220
0.0
230
1.0
 70
     8
 71
     3
 72
    11
 73
     7
 74
     0
 42
0.0000000001
 43
0.0000000001
 40
0.0
 40
0.0
 40
0.0
 40
0.0
 40
1.018582815488518
 40
1.018582815488518
 40
1.018582815488518
 40
1.570796326794896
 40
1.570796326794896
 40
1.570796326794896
 40
1.570796326794896
 10
73.25573834877052
 20
29.70161652868605
 30
0.0
 10
73.25096206372811
 20
29.65387894740016
 30
0.0
 10
73.24618577868569
 20
29.60695639211796
 30
0.0
 10
73.24140949364329
 20
29.58191454495579
 30
0.0
 10
73.23882008304832
 20
29.56833838193718
 30
0.0
 10
73.23623067245335
 20
29.56101652868603
 30
0.0
 10
73.2336412618584
 20
29.56101652868603
 30
0.0
  0
SPLINE
  5
18C
330
6C
100
AcDbEntity
  8
Visible (ANSI)
100
AcDbSpline
210
0.0
220
0.0
230
1.0
 70
     8
 71
     3
 72
    11
 73
     7
 74
     0
 42
0.0000000001
 43
0.0000000001
 40
0.0
 40
0.0
 40
0.0
 40
0.0
 40
1.01858281548856
 40
1.01858281548856
 40
1.01858281548856
 40
1.570796326794896
 40
1.570796326794896
 40
1.570796326794896
 40
1.570796326794896
 10
73.25573834877046
 20
29.56101652868603
 30
0.0
 10
73.30347593005637
 20
29.56101652868603
 30
0.0
 10
73.35039848533856
 20
29.58721943426516
 30
0.0
 10
73.37544033250073
 20
29.62786156213434
 30
0.0
 10
73.38901649551933
 20
29.64989524638301
 30
0.0
 10
73.39633834877047
 20
29.67573612212281
 30
0.0
 10
73.39633834877047
 20
29.70161652868603
 30
0.0
  0
LINE
  5
18D
330
6C
100
AcDbEntity
  8
Visible (ANSI)
100
AcDbLine
 10
73.25573834877046
 20
29.68601652868603
 30
0.0
 11
73.25417430269173
 21
29.68601652868603
 31
0.0
  0
LINE
  5
18E
330
6C
100
AcDbEntity
  8
Visible (ANSI)
100
AcDbLine
 10
73.23364126185838
 20
29.56101652868603
 30
0.0
 11
73.25573834877046
 21
29.56101652868603
 31
0.0
  0
LINE
  5
18F
330
6C
100
AcDbEntity
  8
Visible (ANSI)
100
AcDbLine
 10
73.25573834877046
 20
29.68601652868603
 30
0.0
 11
73.25573834877046
 21
29.56101652868603
 31
0.0
  0
SPLINE
  5
190
330
6C
100
AcDbEntity
  8
Visible (ANSI)
100
AcDbSpline
210
0.0
220
0.0
230
1.0
 70
     8
 71
     3
 72
     8
 73
     4
 74
     0
 42
0.0000000001
 43
0.0000000001
 40
0.0
 40
0.0
 40
0.0
 40
0.0
 40
1.570796326794896
 40
1.570796326794896
 40
1.570796326794896
 40
1.570796326794896
 10
73.27133834877047
 20
29.70161652868603
 30
0.0
 10
73.27133834877047
 20
29.6934483877867
 30
0.0
 10
73.26390648966981
 20
29.68601652868603
 30
0.0
 10
73.25573834877046
 20
29.68601652868603
 30
0.0
  0
LINE
  5
191
330
6C
100
AcDbEntity
  8
Visible (ANSI)
100
AcDbLine
 10
73.39633834877047
 20
29.70161652868603
 30
0.0
 11
73.25573834877051
 21
29.70161652868603
 31
0.0
  0
LINE
  5
192
330
6C
100
AcDbEntity
  8
Visible (ANSI)
100
AcDbLine
 10
73.39633834877047
 20
41.42041652868603
 30
0.0
 11
73.39633834877047
 21
29.70161652868603
 31
0.0
  0
LINE
  5
193
330
6C
100
AcDbEntity
  8
Visible Narrow (ANSI)
100
AcDbLine
 10
73.25573834877051
 20
29.70161652868603
 30
0.0
 11
73.25573834877051
 21
41.42041652868603
 31
0.0
  0
LINE
  5
194
330
6C
100
AcDbEntity
  8
Visible (ANSI)
100
AcDbLine
 10
73.25573834877051
 20
41.42041652868603
 30
0.0
 11
73.39633834877048
 21
41.42041652868603
 31
0.0
  0
LINE
  5
195
330
6C
100
AcDbEntity
  8
Visible (ANSI)
100
AcDbLine
 10
65.39633834877053
 20
41.42041652868603
 30
0.0
 11
67.37262719980851
 21
29.70161652868604
 31
0.0
  0
LINE
  5
196
330
6C
100
AcDbEntity
  8
Visible (ANSI)
100
AcDbLine
 10
65.39633834877048
 20
41.56101652868605
 30
0.0
 11
65.39633834877053
 21
41.42041652868604
 31
0.0
  0
LINE
  5
197
330
6C
100
AcDbEntity
  8
Visible (ANSI)
100
AcDbLine
 10
65.39633834877048
 20
41.56101652868605
 30
0.0
 11
73.2336412618584
 21
41.56101652868604
 31
0.0
  0
LINE
  5
198
330
6C
100
AcDbEntity
  8
Visible Narrow (ANSI)
100
AcDbLine
 10
73.25573834877051
 20
41.42041652868603
 30
0.0
 11
65.39633834877053
 21
41.42041652868603
 31
0.0
  0
SPLINE
  5
199
330
6C
100
AcDbEntity
  8
Visible (ANSI)
100
AcDbSpline
210
0.0
220
0.0
230
1.0
 70
     8
 71
     3
 72
    11
 73
     7
 74
     0
 42
0.0000000001
 43
0.0000000001
 40
0.0
 40
0.0
 40
0.0
 40
0.0
 40
1.018582815488504
 40
1.018582815488504
 40
1.018582815488504
 40
1.570796326794887
 40
1.570796326794887
 40
1.570796326794887
 40
1.570796326794887
 10
73.39633834877047
 20
41.42041652868605
 30
0.0
 10
73.39633834877045
 20
41.46815410997193
 30
0.0
 10
73.37013544319133
 20
41.51507666525413
 30
0.0
 10
73.32949331532216
 20
41.54011851241629
 30
0.0
 10
73.30745963107347
 20
41.55369467543488
 30
0.0
 10
73.28161875533367
 20
41.56101652868602
 30
0.0
 10
73.25573834877045
 20
41.56101652868602
 30
0.0
  0
LINE
  5
19A
330
6C
100
AcDbEntity
  8
Visible (ANSI)
100
AcDbLine
 10
73.25573834877046
 20
41.43601652868603
 30
0.0
 11
73.25417430269173
 21
41.43601652868603
 31
0.0
  0
LINE
  5
19B
330
6C
100
AcDbEntity
  8
Visible (ANSI)
100
AcDbLine
 10
73.25573834877046
 20
41.43601652868603
 30
0.0
 11
73.25573834877046
 21
41.56101652868602
 31
0.0
  0
SPLINE
  5
19C
330
6C
100
AcDbEntity
  8
Visible (ANSI)
100
AcDbSpline
210
0.0
220
0.0
230
1.0
 70
     8
 71
     3
 72
     8
 73
     4
 74
     0
 42
0.0000000001
 43
0.0000000001
 40
0.0
 40
0.0
 40
0.0
 40
0.0
 40
1.570796326794887
 40
1.570796326794887
 40
1.570796326794887
 40
1.570796326794887
 10
73.27133834877047
 20
41.42041652868603
 30
0.0
 10
73.27133834877047
 20
41.42858466958536
 30
0.0
 10
73.26390648966979
 20
41.43601652868603
 30
0.0
 10
73.25573834877046
 20
41.43601652868603
 30
0.0
  0
LINE
  5
19D
330
6C
100
AcDbEntity
  8
Visible (ANSI)
100
AcDbLine
 10
73.25573834877046
 20
41.56101652868602
 30
0.0
 11
73.23364126185836
 21
41.56101652868602
 31
0.0
  0
SPLINE
  5
19E
330
6C
100
AcDbEntity
  8
Visible (ANSI)
100
AcDbSpline
210
0.0
220
0.0
230
1.0
 70
     8
 71
     3
 72
    11
 73
     7
 74
     0
 42
0.0000000001
 43
0.0000000001
 40
0.0
 40
0.0
 40
0.0
 40
0.0
 40
1.018582815488545
 40
1.018582815488545
 40
1.018582815488545
 40
1.570796326794715
 40
1.570796326794715
 40
1.570796326794715
 40
1.570796326794715
 10
73.2336412618584
 20
41.56101652868604
 30
0.0
 10
73.2384175469008
 20
41.56101652868602
 30
0.0
 10
73.24319383194323
 20
41.5348136231069
 30
0.0
 10
73.24797011698564
 20
41.49417149523771
 30
0.0
 10
73.2505595275806
 20
41.47213781098904
 30
0.0
 10
73.25314893817555
 20
41.44629693524925
 30
0.0
 10
73.25573834877052
 20
41.42041652868604
 30
0.0
  0
LINE
  5
19F
330
6C
100
AcDbEntity
  8
Visible (ANSI)
100
AcDbLine
 10
65.64633834877041
 20
29.68614266988425
 30
0.0
 11
65.77133834877044
 21
29.68614266988425
 31
0.0
  0
LINE
  5
1A0
330
6C
100
AcDbEntity
  8
Visible (ANSI)
100
AcDbLine
 10
65.6463383487704
 20
29.68614266988425
 30
0.0
 11
65.6463383487704
 21
29.56114266988425
 31
0.0
  0
LINE
  5
1A1
330
6C
100
AcDbEntity
  8
Visible (ANSI)
100
AcDbLine
 10
65.77133834877044
 20
29.56114266988425
 30
0.0
 11
65.6463383487704
 21
29.56114266988425
 31
0.0
  0
LINE
  5
1A2
330
6C
100
AcDbEntity
  8
Visible Narrow (ANSI)
100
AcDbLine
 10
65.77133834877044
 20
29.56114266988425
 30
0.0
 11
65.77133834877044
 21
29.68614266988425
 31
0.0
  0
LINE
  5
1A3
330
6C
100
AcDbEntity
  8
Visible (ANSI)
100
AcDbLine
 10
65.77133834877044
 20
29.56114266988425
 30
0.0
 11
67.17859992190078
 21
29.56114266988425
 31
0.0
  0
LINE
  5
1A4
330
6C
100
AcDbEntity
  8
Visible (ANSI)
100
AcDbLine
 10
67.17859992190078
 20
29.68614266988425
 30
0.0
 11
65.77133834877044
 21
29.68614266988425
 31
0.0
  0
ARC
  5
1A5
330
6C
100
AcDbEntity
  8
Visible (ANSI)
100
AcDbCircle
 10
67.17859992190078
 20
29.70174266988425
 30
0.0
 40
0.1406000000000005
100
AcDbArc
 50
269.9999999999966
 51
314.9999999999963
  0
ARC
  5
1A6
330
6C
100
AcDbEntity
  8
Visible (ANSI)
100
AcDbCircle
 10
67.17859992190078
 20
29.70174266988425
 30
0.0
 40
0.0156000000000004
100
AcDbArc
 50
269.9999999999691
 51
314.9999999999673
  0
LINE
  5
1A7
330
6C
100
AcDbEntity
  8
Visible (ANSI)
100
AcDbLine
 10
67.35714307335874
 20
29.68144739447256
 30
0.0
 11
67.27801913533561
 21
29.60232345644942
 31
0.0
  0
LINE
  5
1A8
330
6C
100
AcDbEntity
  8
Visible (ANSI)
100
AcDbLine
 10
67.18963078768729
 20
29.69071180409774
 30
0.0
 11
67.26875472571042
 21
29.76983574212088
 31
0.0
  0
ARC
  5
1A9
330
6C
100
AcDbEntity
  8
Visible (ANSI)
100
AcDbCircle
 10
67.36817393914527
 20
29.67041652868605
 30
0.0
 40
0.0155999999999999
100
AcDbArc
 50
89.99999999956846
 51
134.9999999999891
  0
ARC
  5
1AA
330
6C
100
AcDbEntity
  8
Visible (ANSI)
100
AcDbCircle
 10
67.36817393914527
 20
29.67041652868605
 30
0.0
 40
0.1405999999999989
100
AcDbArc
 50
95.66562193662042
 51
134.9999999999976
  0
LINE
  5
1AB
330
6C
100
AcDbEntity
  8
Visible (ANSI)
100
AcDbLine
 10
67.37430549024117
 20
29.68601652868605
 30
0.0
 11
67.36817393914538
 21
29.68601652868605
 31
0.0
  0
MTEXT
  5
1AC
330
6C
100
AcDbEntity
  8
Symbol (ANSI)
100
AcDbMText
 10
66.59507759941724
 20
26.1018883747854
 30
0.0
 40
0.7200000088984572
 41
0.0
 71
     7
 72
     1
  1
RIGHT VIEW
  7
Text Style168
 73
     1
 44
1.0
  0
LINE
  5
1AD
330
6C
100
AcDbEntity
  8
Symbol (ANSI)
370
    30
100
AcDbLine
 10
66.52307741420692
 20
25.95389161361661
 30
0.0
 11
72.13254262278614
 21
25.95389161361661
 31
0.0
  0
CIRCLE
  5
1AE
330
6C
100
AcDbEntity
  8
Visible (ANSI)
100
AcDbCircle
 10
35.7801714575816
 20
21.28102222655277
 30
0.0
 40
0.28125
  0
CIRCLE
  5
1AF
330
6C
100
AcDbEntity
  8
Visible (ANSI)
100
AcDbCircle
 10
51.4051714575816
 20
21.28102222655277
 30
0.0
 40
0.28125
  0
CIRCLE
  5
1B0
330
6C
100
AcDbEntity
  8
Visible (ANSI)
100
AcDbCircle
 10
34.21767145758161
 20
19.96852222655276
 30
0.0
 40
0.28125
  0
CIRCLE
  5
1B1
330
6C
100
AcDbEntity
  8
Visible (ANSI)
100
AcDbCircle
 10
34.2176714575816
 20
14.96852222655277
 30
0.0
 40
0.28125
  0
CIRCLE
  5
1B2
330
6C
100
AcDbEntity
  8
Visible (ANSI)
100
AcDbCircle
 10
52.9676714575816
 20
19.96852222655277
 30
0.0
 40
0.28125
  0
CIRCLE
  5
1B3
330
6C
100
AcDbEntity
  8
Visible (ANSI)
100
AcDbCircle
 10
52.96767145758163
 20
14.96852222655277
 30
0.0
 40
0.28125
  0
LINE
  5
1B4
330
6C
100
AcDbEntity
  8
Visible (ANSI)
100
AcDbLine
 10
33.53017145758161
 20
13.96852222655272
 30
0.0
 11
33.53017145758161
 21
21.82792222655272
 31
0.0
  0
LINE
  5
1B5
330
6C
100
AcDbEntity
  8
Visible (ANSI)
100
AcDbLine
 10
33.53017145758161
 20
13.96852222655272
 30
0.0
 11
33.67077145758161
 21
13.96852222655276
 31
0.0
  0
LINE
  5
1B6
330
6C
100
AcDbEntity
  8
Visible (ANSI)
100
AcDbLine
 10
53.51457145758163
 20
13.96852222655277
 30
0.0
 11
53.65517145758165
 21
13.96852222655273
 31
0.0
  0
LINE
  5
1B7
330
6C
100
AcDbEntity
  8
Visible Narrow (ANSI)
100
AcDbLine
 10
53.49247437066951
 20
21.82792222655276
 30
0.0
 11
33.69286854449368
 21
21.82792222655276
 31
0.0
  0
LINE
  5
1B8
330
6C
100
AcDbEntity
  8
Visible (ANSI)
100
AcDbLine
 10
33.6707714575816
 20
21.96852222655273
 30
0.0
 11
53.5145714575816
 21
21.96852222655273
 31
0.0
  0
LINE
  5
1B9
330
6C
100
AcDbEntity
  8
Visible Narrow (ANSI)
100
AcDbLine
 10
33.67077145758161
 20
21.80582513964069
 30
0.0
 11
33.67077145758161
 21
13.96852222655276
 31
0.0
  0
LINE
  5
1BA
330
6C
100
AcDbEntity
  8
Visible Narrow (ANSI)
100
AcDbLine
 10
53.51457145758163
 20
13.96852222655277
 30
0.0
 11
53.5145714575816
 21
21.80582513964069
 31
0.0
  0
LINE
  5
1BB
330
6C
100
AcDbEntity
  8
Visible (ANSI)
100
AcDbLine
 10
53.65517145758159
 20
21.82792222655272
 30
0.0
 11
53.65517145758165
 21
13.96852222655273
 31
0.0
  0
ARC
  5
1BC
330
6C
100
AcDbEntity
  8
Visible (ANSI)
100
AcDbCircle
 10
53.5145714575816
 20
21.82792222655273
 30
0.0
 40
0.1405999999999986
100
AcDbArc
 50
0.0
 51
90.0
  0
ARC
  5
1BD
330
6C
100
AcDbEntity
  8
Visible (ANSI)
100
AcDbCircle
 10
33.6707714575816
 20
21.82792222655272
 30
0.0
 40
0.0156
100
AcDbArc
 50
90.0
 51
180.0
  0
LINE
  5
1BE
330
6C
100
AcDbEntity
  8
Visible (ANSI)
100
AcDbLine
 10
34.28017145758161
 20
13.96852222655276
 30
0.0
 11
33.67077145758161
 21
13.96852222655276
 31
0.0
  0
LINE
  5
1BF
330
6C
100
AcDbEntity
  8
Visible (ANSI)
100
AcDbLine
 10
53.51457145758163
 20
13.96852222655277
 30
0.0
 11
52.90517145758162
 21
13.96852222655277
 31
0.0
  0
LINE
  5
1C0
330
6C
100
AcDbEntity
  8
Visible (ANSI)
100
AcDbLine
 10
52.38307437066952
 20
20.71852222655276
 30
0.0
 11
34.80226854449368
 21
20.71852222655277
 31
0.0
  0
LINE
  5
1C1
330
6C
100
AcDbEntity
  8
Visible (ANSI)
100
AcDbLine
 10
34.78017145758161
 20
20.69642513964069
 30
0.0
 11
34.78017145758161
 21
14.46852222655276
 31
0.0
  0
LINE
  5
1C2
330
6C
100
AcDbEntity
  8
Visible (ANSI)
100
AcDbLine
 10
52.40517145758162
 20
14.46852222655277
 30
0.0
 11
52.4051714575816
 21
20.69642513964069
 31
0.0
  0
ARC
  5
1C3
330
6C
100
AcDbEntity
  8
Visible (ANSI)
100
AcDbCircle
 10
33.6707714575816
 20
21.82792222655272
 30
0.0
 40
0.1406000000000001
100
AcDbArc
 50
90.0
 51
180.0
  0
ARC
  5
1C4
330
6C
100
AcDbEntity
  8
Visible (ANSI)
100
AcDbCircle
 10
53.51457145758159
 20
21.82792222655272
 30
0.0
 40
0.0156000000000042
100
AcDbArc
 50
0.0
 51
89.99999999996919
  0
LINE
  5
1C5
330
6C
100
AcDbEntity
  8
Visible (ANSI)
100
AcDbLine
 10
34.78017145758161
 20
14.46852222655276
 30
0.0
 11
34.28017145758161
 21
13.96852222655276
 31
0.0
  0
LINE
  5
1C6
330
6C
100
AcDbEntity
  8
Visible (ANSI)
100
AcDbLine
 10
52.90517145758162
 20
13.96852222655277
 30
0.0
 11
52.40517145758162
 21
14.46852222655277
 31
0.0
  0
SPLINE
  5
1C7
330
6C
100
AcDbEntity
  8
Visible (ANSI)
100
AcDbSpline
210
0.0
220
0.0
230
1.0
 70
     8
 71
     3
 72
    11
 73
     7
 74
     0
 42
0.0000000001
 43
0.0000000001
 40
0.0
 40
0.0
 40
0.0
 40
0.0
 40
1.018582815488504
 40
1.018582815488504
 40
1.018582815488504
 40
1.570796326794887
 40
1.570796326794887
 40
1.570796326794887
 40
1.570796326794887
 10
53.5145714575816
 20
21.96852222655273
 30
0.0
 10
53.50979517253919
 20
21.96852222655274
 30
0.0
 10
53.50501888749679
 20
21.94231932097361
 30
0.0
 10
53.50024260245438
 20
21.90167719310445
 30
0.0
 10
53.49765319185943
 20
21.87964350885577
 30
0.0
 10
53.49506378126447
 20
21.85380263311598
 30
0.0
 10
53.49247437066951
 20
21.82792222655275
 30
0.0
  0
SPLINE
  5
1C8
330
6C
100
AcDbEntity
  8
Visible (ANSI)
100
AcDbSpline
210
0.0
220
0.0
230
1.0
 70
     8
 71
     3
 72
    11
 73
     7
 74
     0
 42
0.0000000001
 43
0.0000000001
 40
0.0
 40
0.0
 40
0.0
 40
0.0
 40
1.01858281548851
 40
1.01858281548851
 40
1.01858281548851
 40
1.570796326794991
 40
1.570796326794991
 40
1.570796326794991
 40
1.570796326794991
 10
33.69286854449369
 20
21.82792222655275
 30
0.0
 10
33.68809225945128
 20
21.87565980783864
 30
0.0
 10
33.68331597440887
 20
21.92258236312083
 30
0.0
 10
33.67853968936647
 20
21.94762421028299
 30
0.0
 10
33.67595027877152
 20
21.96120037330159
 30
0.0
 10
33.67336086817656
 20
21.96852222655273
 30
0.0
 10
33.6707714575816
 20
21.96852222655273
 30
0.0
  0
LINE
  5
1C9
330
6C
100
AcDbEntity
  8
Visible (ANSI)
100
AcDbLine
 10
34.80226854449368
 20
20.71852222655277
 30
0.0
 11
33.69286854449369
 21
21.82792222655276
 31
0.0
  0
SPLINE
  5
1CA
330
6C
100
AcDbEntity
  8
Visible (ANSI)
100
AcDbSpline
210
0.0
220
0.0
230
1.0
 70
    24
 71
     3
 72
     8
 73
     4
 74
     0
 42
0.0000000001
 43
0.0000000001
 40
0.0
 40
0.0
 40
0.0
 40
0.0
 40
0.3175000000000055
 40
0.3175000000000055
 40
0.3175000000000055
 40
0.3175000000000055
 10
33.67077145758159
 20
21.84352222655272
 30
0.0
 10
33.67077145758159
 20
21.88518889321939
 30
0.0
 10
33.67077145758159
 20
21.92685555988606
 30
0.0
 10
33.67077145758159
 20
21.96852222655273
 30
0.0
  0
SPLINE
  5
1CB
330
6C
100
AcDbEntity
  8
Visible (ANSI)
100
AcDbSpline
210
0.0
220
0.0
230
1.0
 70
     8
 71
     3
 72
     8
 73
     4
 74
     0
 42
0.0000000001
 43
0.0000000001
 40
0.0
 40
0.0
 40
0.0
 40
0.0
 40
1.570796326794991
 40
1.570796326794991
 40
1.570796326794991
 40
1.570796326794991
 10
33.67077145758159
 20
21.84352222655273
 30
0.0
 10
33.67813715321896
 20
21.84352222655273
 30
0.0
 10
33.68550284885632
 20
21.83609036745206
 30
0.0
 10
33.69286854449368
 20
21.82792222655273
 30
0.0
  0
SPLINE
  5
1CC
330
6C
100
AcDbEntity
  8
Visible (ANSI)
100
AcDbSpline
210
0.0
220
0.0
230
1.0
 70
     8
 71
     3
 72
     8
 73
     4
 74
     0
 42
0.0000000001
 43
0.0000000001
 40
0.0
 40
0.0
 40
0.0
 40
0.0
 40
1.570796326794887
 40
1.570796326794887
 40
1.570796326794887
 40
1.570796326794887
 10
53.5145714575816
 20
21.84352222655273
 30
0.0
 10
53.50720576194424
 20
21.84352222655273
 30
0.0
 10
53.49984006630688
 20
21.83609036745206
 30
0.0
 10
53.49247437066951
 20
21.82792222655273
 30
0.0
  0
SPLINE
  5
1CD
330
6C
100
AcDbEntity
  8
Visible (ANSI)
100
AcDbSpline
210
0.0
220
0.0
230
1.0
 70
    24
 71
     3
 72
     8
 73
     4
 74
     0
 42
0.0000000001
 43
0.0000000001
 40
-0.3175000000000077
 40
-0.3175000000000077
 40
-0.3175000000000077
 40
-0.3175000000000077
 40
0.0
 40
0.0
 40
0.0
 40
0.0
 10
53.5145714575816
 20
21.96852222655273
 30
0.0
 10
53.5145714575816
 20
21.92685555988606
 30
0.0
 10
53.5145714575816
 20
21.88518889321939
 30
0.0
 10
53.5145714575816
 20
21.84352222655273
 30
0.0
  0
LINE
  5
1CE
330
6C
100
AcDbEntity
  8
Visible (ANSI)
100
AcDbLine
 10
53.49247437066951
 20
21.82792222655276
 30
0.0
 11
52.38307437066952
 21
20.71852222655276
 31
0.0
  0
SPLINE
  5
1CF
330
6C
100
AcDbEntity
  8
Visible (ANSI)
100
AcDbSpline
210
0.0
220
0.0
230
1.0
 70
     8
 71
     3
 72
    11
 73
     7
 74
     0
 42
0.0000000001
 43
0.0000000001
 40
0.0
 40
0.0
 40
0.0
 40
0.0
 40
1.018582815488563
 40
1.018582815488563
 40
1.018582815488563
 40
1.570796326794888
 40
1.570796326794888
 40
1.570796326794888
 40
1.570796326794888
 10
33.53017145758161
 20
21.82792222655272
 30
0.0
 10
33.53017145758161
 20
21.82314594151034
 30
0.0
 10
33.55637436316075
 20
21.81836965646795
 30
0.0
 10
33.59701649102992
 20
21.81359337142555
 30
0.0
 10
33.6190501752786
 20
21.8110039608306
 30
0.0
 10
33.64489105101839
 20
21.80841455023564
 30
0.0
 10
33.67077145758162
 20
21.80582513964069
 30
0.0
  0
SPLINE
  5
1D0
330
6C
100
AcDbEntity
  8
Visible (ANSI)
100
AcDbSpline
210
0.0
220
0.0
230
1.0
 70
     8
 71
     3
 72
     8
 73
     4
 74
     0
 42
0.0000000001
 43
0.0000000001
 40
0.0
 40
0.0
 40
0.0
 40
0.0
 40
1.570796326794888
 40
1.570796326794888
 40
1.570796326794888
 40
1.570796326794888
 10
33.6551714575816
 20
21.82792222655272
 30
0.0
 10
33.6551714575816
 20
21.82055653091537
 30
0.0
 10
33.66260331668227
 20
21.81319083527801
 30
0.0
 10
33.6707714575816
 20
21.80582513964065
 30
0.0
  0
SPLINE
  5
1D1
330
6C
100
AcDbEntity
  8
Visible (ANSI)
100
AcDbSpline
210
0.0
220
0.0
230
1.0
 70
    24
 71
     3
 72
     8
 73
     4
 74
     0
 42
0.0000000001
 43
0.0000000001
 40
-0.3175000000000001
 40
-0.3175000000000001
 40
-0.3175000000000001
 40
-0.3175000000000001
 40
0.0
 40
0.0
 40
0.0
 40
0.0
 10
33.53017145758161
 20
21.82792222655272
 30
0.0
 10
33.57183812424827
 20
21.82792222655272
 30
0.0
 10
33.61350479091494
 20
21.82792222655272
 30
0.0
 10
33.6551714575816
 20
21.82792222655272
 30
0.0
  0
LINE
  5
1D2
330
6C
100
AcDbEntity
  8
Visible (ANSI)
100
AcDbLine
 10
33.67077145758161
 20
21.80582513964069
 30
0.0
 11
34.78017145758161
 21
20.69642513964069
 31
0.0
  0
SPLINE
  5
1D3
330
6C
100
AcDbEntity
  8
Visible (ANSI)
100
AcDbSpline
210
0.0
220
0.0
230
1.0
 70
     8
 71
     3
 72
    11
 73
     7
 74
     0
 42
0.0000000001
 43
0.0000000001
 40
0.0
 40
0.0
 40
0.0
 40
0.0
 40
1.018582815488545
 40
1.018582815488545
 40
1.018582815488545
 40
1.570796326794715
 40
1.570796326794715
 40
1.570796326794715
 40
1.570796326794715
 10
53.5145714575816
 20
21.80582513964069
 30
0.0
 10
53.5623090388675
 20
21.8106014246831
 30
0.0
 10
53.60923159414969
 20
21.81537770972549
 30
0.0
 10
53.63427344131186
 20
21.82015399476789
 30
0.0
 10
53.64784960433044
 20
21.82274340536283
 30
0.0
 10
53.65517145758159
 20
21.82533281595778
 30
0.0
 10
53.65517145758159
 20
21.82792222655272
 30
0.0
  0
LINE
  5
1D4
330
6C
100
AcDbEntity
  8
Visible (ANSI)
100
AcDbLine
 10
52.4051714575816
 20
20.69642513964069
 30
0.0
 11
53.5145714575816
 21
21.80582513964069
 31
0.0
  0
SPLINE
  5
1D5
330
6C
100
AcDbEntity
  8
Visible (ANSI)
100
AcDbSpline
210
0.0
220
0.0
230
1.0
 70
    24
 71
     3
 72
     8
 73
     4
 74
     0
 42
0.0000000001
 43
0.0000000001
 40
0.0
 40
0.0
 40
0.0
 40
0.0
 40
0.3175000000000026
 40
0.3175000000000026
 40
0.3175000000000026
 40
0.3175000000000026
 10
53.53017145758158
 20
21.82792222655272
 30
0.0
 10
53.57183812424826
 20
21.82792222655272
 30
0.0
 10
53.61350479091492
 20
21.82792222655272
 30
0.0
 10
53.65517145758159
 20
21.82792222655272
 30
0.0
  0
SPLINE
  5
1D6
330
6C
100
AcDbEntity
  8
Visible (ANSI)
100
AcDbSpline
210
0.0
220
0.0
230
1.0
 70
     8
 71
     3
 72
     8
 73
     4
 74
     0
 42
0.0000000001
 43
0.0000000001
 40
0.0
 40
0.0
 40
0.0
 40
0.0
 40
1.570796326794715
 40
1.570796326794715
 40
1.570796326794715
 40
1.570796326794715
 10
53.53017145758158
 20
21.82792222655272
 30
0.0
 10
53.53017145758158
 20
21.82055653091537
 30
0.0
 10
53.52273959848092
 20
21.81319083527801
 30
0.0
 10
53.51457145758159
 20
21.80582513964065
 30
0.0
  0
CIRCLE
  5
1D7
330
6C
100
AcDbEntity
  8
Visible (ANSI)
100
AcDbCircle
 10
43.59267145758156
 20
18.21852222654928
 30
0.0
 40
0.28125
  0
CIRCLE
  5
1D8
330
6C
100
AcDbEntity
  8
Visible (ANSI)
100
AcDbCircle
 10
35.65517145758157
 20
15.21852222654924
 30
0.0
 40
0.28125
  0
CIRCLE
  5
1D9
330
6C
100
AcDbEntity
  8
Visible (ANSI)
100
AcDbCircle
 10
51.53017145758157
 20
15.21852222654924
 30
0.0
 40
0.28125
  0
LINE
  5
1DA
330
6C
100
AcDbEntity
  8
Visible (ANSI)
100
AcDbLine
 10
53.40517145758156
 20
21.69642513963716
 30
0.0
 11
53.40517145758156
 21
21.71861939005444
 31
0.0
  0
LINE
  5
1DB
330
6C
100
AcDbEntity
  8
Visible (ANSI)
100
AcDbLine
 10
33.78017145758157
 20
21.71861939005444
 30
0.0
 11
33.78017145758157
 21
21.69642513963724
 31
0.0
  0
ARC
  5
1DC
330
6C
100
AcDbEntity
  8
Visible (ANSI)
100
AcDbCircle
 10
33.90517145758155
 20
21.71861939005444
 30
0.0
 40
0.1249999999999751
100
AcDbArc
 50
170.637598862825
 51
180.0
  0
ARC
  5
1DD
330
6C
100
AcDbEntity
  8
Visible (ANSI)
100
AcDbCircle
 10
53.28017145758165
 20
21.71861939005444
 30
0.0
 40
0.1249999999999141
100
AcDbArc
 50
0.0
 51
9.36240113715595
  0
LINE
  5
1DE
330
6C
100
AcDbEntity
  8
Visible Narrow (ANSI)
100
AcDbLine
 10
52.40517145758162
 20
15.94035781692421
 30
0.0
 11
34.78017145758161
 21
15.9403578169241
 31
0.0
  0
LINE
  5
1DF
330
6C
100
AcDbEntity
  8
Visible Narrow (ANSI)
100
AcDbLine
 10
52.40517145758162
 20
15.84093860348926
 30
0.0
 11
34.78017145758161
 21
15.84093860348926
 31
0.0
  0
LINE
  5
1E0
330
6C
100
AcDbEntity
  8
Visible Narrow (ANSI)
100
AcDbLine
 10
52.40517145758162
 20
15.7618146654661
 30
0.0
 11
34.78017145758161
 21
15.7618146654661
 31
0.0
  0
LINE
  5
1E1
330
6C
100
AcDbEntity
  8
Visible Narrow (ANSI)
100
AcDbLine
 10
52.40517145758162
 20
15.75078379967959
 30
0.0
 11
34.78017145758161
 21
15.75078379967958
 31
0.0
  0
LINE
  5
1E2
330
6C
100
AcDbEntity
  8
Visible (ANSI)
100
AcDbLine
 10
52.65517145758162
 20
14.21852222654924
 30
0.0
 11
34.53017145758161
 21
14.21852222654924
 31
0.0
  0
MTEXT
  5
1E3
330
6C
100
AcDbEntity
  8
Symbol (ANSI)
100
AcDbMText
 10
40.27994296767441
 20
10.94725405161347
 30
0.0
 40
0.7200000088984572
 41
0.0
 71
     7
 72
     1
  1
BOTTOM VIEW
  7
Text Style168
 73
     1
 44
1.0
  0
LINE
  5
1E4
330
6C
100
AcDbEntity
  8
Symbol (ANSI)
370
    30
100
AcDbLine
 10
40.20794278246409
 20
10.80042422736413
 30
0.0
 11
46.8303092371217
 21
10.80042422736413
 31
0.0
  0
LINE
  5
1E5
330
6C
100
AcDbEntity
  8
Visible Narrow (ANSI)
100
AcDbLine
 10
53.51457145758967
 20
48.92528004550447
 30
0.0
 11
53.5145714575897
 21
54.76258295859238
 31
0.0
  0
LINE
  5
1E6
330
6C
100
AcDbEntity
  8
Visible (ANSI)
100
AcDbLine
 10
53.6551714575897
 20
54.78629410755444
 30
0.0
 11
53.65517145758967
 21
48.90318295859245
 31
0.0
  0
SPLINE
  5
1E7
330
6C
100
AcDbEntity
  8
Visible (ANSI)
100
AcDbSpline
210
0.0
220
0.0
230
1.0
 70
     8
 71
     3
 72
    11
 73
     7
 74
     0
 42
0.0000000001
 43
0.0000000001
 40
0.0
 40
0.0
 40
0.0
 40
0.0
 40
1.018582815488603
 40
1.018582815488603
 40
1.018582815488603
 40
1.570796326795075
 40
1.570796326795075
 40
1.570796326795075
 40
1.570796326795075
 10
53.5145714575897
 20
54.76258295859239
 30
0.0
 10
53.5623090388756
 20
54.76770812312544
 30
0.0
 10
53.6092315941578
 20
54.7728332876585
 30
0.0
 10
53.63427344131997
 20
54.77795845219155
 30
0.0
 10
53.64784960433857
 20
54.78073700397917
 30
0.0
 10
53.65517145758971
 20
54.78351555576681
 30
0.0
 10
53.6551714575897
 20
54.78629410755444
 30
0.0
  0
LINE
  5
1E8
330
6C
100
AcDbEntity
  8
Visible (ANSI)
100
AcDbLine
 10
53.60408019758457
 20
54.78629410755444
 30
0.0
 11
53.6551714575897
 21
54.78629410755444
 31
0.0
  0
LINE
  5
1E9
330
6C
100
AcDbEntity
  8
Visible (ANSI)
100
AcDbLine
 10
53.53017145758969
 20
54.78629410755444
 30
0.0
 11
53.60408019758457
 21
54.78629410755444
 31
0.0
  0
SPLINE
  5
1EA
330
6C
100
AcDbEntity
  8
Visible (ANSI)
100
AcDbSpline
210
0.0
220
0.0
230
1.0
 70
     8
 71
     3
 72
     8
 73
     4
 74
     0
 42
0.0000000001
 43
0.0000000001
 40
0.0
 40
0.0
 40
0.0
 40
0.0
 40
1.570796326795075
 40
1.570796326795075
 40
1.570796326795075
 40
1.570796326795075
 10
53.53017145758969
 20
54.78629410755444
 30
0.0
 10
53.53017145758969
 20
54.77839039123376
 30
0.0
 10
53.52273959848903
 20
54.7704866749131
 30
0.0
 10
53.5145714575897
 20
54.76258295859243
 30
0.0
  0
LINE
  5
1EB
330
6C
100
AcDbEntity
  8
Visible Narrow (ANSI)
100
AcDbLine
 10
33.69286854450175
 20
48.90318295859239
 30
0.0
 11
53.49247437067758
 21
48.90318295859239
 31
0.0
  0
LINE
  5
1EC
330
6C
100
AcDbEntity
  8
Visible (ANSI)
100
AcDbLine
 10
53.51457145758967
 20
48.76258295859243
 30
0.0
 11
33.67077145758967
 21
48.76258295859243
 31
0.0
  0
LINE
  5
1ED
330
6C
100
AcDbEntity
  8
Visible Narrow (ANSI)
100
AcDbLine
 10
33.67077145758967
 20
54.76258295859249
 30
0.0
 11
33.67077145758967
 21
48.92528004550447
 31
0.0
  0
SPLINE
  5
1EE
330
6C
100
AcDbEntity
  8
Visible (ANSI)
100
AcDbSpline
210
0.0
220
0.0
230
1.0
 70
     8
 71
     3
 72
    11
 73
     7
 74
     0
 42
0.0000000001
 43
0.0000000001
 40
0.0
 40
0.0
 40
0.0
 40
0.0
 40
1.018582815488561
 40
1.018582815488561
 40
1.018582815488561
 40
1.570796326794897
 40
1.570796326794897
 40
1.570796326794897
 40
1.570796326794897
 10
33.53017145758967
 20
54.78629410755456
 30
0.0
 10
33.53017145758967
 20
54.78116894302149
 30
0.0
 10
33.5563743631688
 20
54.77604377848843
 30
0.0
 10
33.59701649103797
 20
54.77091861395537
 30
0.0
 10
33.61905017528665
 20
54.76814006216775
 30
0.0
 10
33.64489105102644
 20
54.76536151038012
 30
0.0
 10
33.67077145758967
 20
54.76258295859249
 30
0.0
  0
LINE
  5
1EF
330
6C
100
AcDbEntity
  8
Visible (ANSI)
100
AcDbLine
 10
33.53017145758967
 20
48.90318295859244
 30
0.0
 11
33.53017145758967
 21
54.78629410755456
 31
0.0
  0
SPLINE
  5
1F0
330
6C
100
AcDbEntity
  8
Visible (ANSI)
100
AcDbSpline
210
0.0
220
0.0
230
1.0
 70
     8
 71
     3
 72
     8
 73
     4
 74
     0
 42
0.0000000001
 43
0.0000000001
 40
0.0
 40
0.0
 40
0.0
 40
0.0
 40
1.570796326794897
 40
1.570796326794897
 40
1.570796326794897
 40
1.570796326794897
 10
33.65517145758967
 20
54.78629410755456
 30
0.0
 10
33.65517145758967
 20
54.77839039123388
 30
0.0
 10
33.66260331669033
 20
54.7704866749132
 30
0.0
 10
33.67077145758967
 20
54.76258295859254
 30
0.0
  0
LINE
  5
1F1
330
6C
100
AcDbEntity
  8
Visible (ANSI)
100
AcDbLine
 10
33.58126271759477
 20
54.78629410755456
 30
0.0
 11
33.65517145758967
 21
54.78629410755456
 31
0.0
  0
LINE
  5
1F2
330
6C
100
AcDbEntity
  8
Visible (ANSI)
100
AcDbLine
 10
33.53017145758967
 20
54.78629410755456
 30
0.0
 11
33.58126271759477
 21
54.78629410755456
 31
0.0
  0
SPLINE
  5
1F3
330
6C
100
AcDbEntity
  8
Visible (ANSI)
100
AcDbSpline
210
0.0
220
0.0
230
1.0
 70
     8
 71
     3
 72
    11
 73
     7
 74
     0
 42
0.0000000001
 43
0.0000000001
 40
0.0
 40
0.0
 40
0.0
 40
0.0
 40
1.018582815488518
 40
1.018582815488518
 40
1.018582815488518
 40
1.570796326794896
 40
1.570796326794896
 40
1.570796326794896
 40
1.570796326794896
 10
53.65517145758967
 20
48.90318295859244
 30
0.0
 10
53.65517145758967
 20
48.90795924363482
 30
0.0
 10
53.62896855201055
 20
48.91273552867721
 30
0.0
 10
53.58832642414139
 20
48.91751181371962
 30
0.0
 10
53.56629273989271
 20
48.92010122431456
 30
0.0
 10
53.54045186415291
 20
48.92269063490951
 30
0.0
 10
53.51457145758969
 20
48.92528004550447
 30
0.0
  0
SPLINE
  5
1F4
330
6C
100
AcDbEntity
  8
Visible (ANSI)
100
AcDbSpline
210
0.0
220
0.0
230
1.0
 70
     8
 71
     3
 72
     8
 73
     4
 74
     0
 42
0.0000000001
 43
0.0000000001
 40
0.0
 40
0.0
 40
0.0
 40
0.0
 40
1.570796326794896
 40
1.570796326794896
 40
1.570796326794896
 40
1.570796326794896
 10
53.53017145758966
 20
48.90318295859244
 30
0.0
 10
53.53017145758966
 20
48.91054865422979
 30
0.0
 10
53.52273959848901
 20
48.91791434986714
 30
0.0
 10
53.51457145758966
 20
48.92528004550451
 30
0.0
  0
SPLINE
  5
1F5
330
6C
100
AcDbEntity
  8
Visible (ANSI)
100
AcDbSpline
210
0.0
220
0.0
230
1.0
 70
    24
 71
     3
 72
     8
 73
     4
 74
     0
 42
0.0000000001
 43
0.0000000001
 40
-0.3175000000000097
 40
-0.3175000000000097
 40
-0.3175000000000097
 40
-0.3175000000000097
 40
0.0
 40
0.0
 40
0.0
 40
0.0
 10
53.65517145758967
 20
48.90318295859244
 30
0.0
 10
53.61350479092299
 20
48.90318295859244
 30
0.0
 10
53.57183812425633
 20
48.90318295859244
 30
0.0
 10
53.53017145758966
 20
48.90318295859244
 30
0.0
  0
LINE
  5
1F6
330
6C
100
AcDbEntity
  8
Visible (ANSI)
100
AcDbLine
 10
53.51457145758967
 20
48.92528004550447
 30
0.0
 11
52.40517145758968
 21
50.03468004550447
 31
0.0
  0
SPLINE
  5
1F7
330
6C
100
AcDbEntity
  8
Visible (ANSI)
100
AcDbSpline
210
0.0
220
0.0
230
1.0
 70
     8
 71
     3
 72
    11
 73
     7
 74
     0
 42
0.0000000001
 43
0.0000000001
 40
0.0
 40
0.0
 40
0.0
 40
0.0
 40
1.01858281548856
 40
1.01858281548856
 40
1.01858281548856
 40
1.570796326794896
 40
1.570796326794896
 40
1.570796326794896
 40
1.570796326794896
 10
33.67077145758967
 20
48.76258295859243
 30
0.0
 10
33.67554774263207
 20
48.76258295859241
 30
0.0
 10
33.68032402767447
 20
48.78878586417154
 30
0.0
 10
33.68510031271688
 20
48.8294279920407
 30
0.0
 10
33.68768972331184
 20
48.85146167628937
 30
0.0
 10
33.69027913390679
 20
48.87730255202917
 30
0.0
 10
33.69286854450175
 20
48.90318295859239
 30
0.0
  0
SPLINE
  5
1F8
330
6C
100
AcDbEntity
  8
Visible (ANSI)
100
AcDbSpline
210
0.0
220
0.0
230
1.0
 70
     8
 71
     3
 72
    11
 73
     7
 74
     0
 42
0.0000000001
 43
0.0000000001
 40
0.0
 40
0.0
 40
0.0
 40
0.0
 40
1.01858281548856
 40
1.01858281548856
 40
1.01858281548856
 40
1.570796326794896
 40
1.570796326794896
 40
1.570796326794896
 40
1.570796326794896
 10
53.49247437067758
 20
48.90318295859239
 30
0.0
 10
53.49725065571998
 20
48.85544537730649
 30
0.0
 10
53.50202694076238
 20
48.80852282202431
 30
0.0
 10
53.5068032258048
 20
48.78348097486216
 30
0.0
 10
53.50939263639975
 20
48.76990481184357
 30
0.0
 10
53.51198204699471
 20
48.76258295859242
 30
0.0
 10
53.51457145758967
 20
48.76258295859243
 30
0.0
  0
LINE
  5
1F9
330
6C
100
AcDbEntity
  8
Visible (ANSI)
100
AcDbLine
 10
52.38307437067759
 20
50.01258295859239
 30
0.0
 11
53.49247437067758
 21
48.90318295859239
 31
0.0
  0
SPLINE
  5
1FA
330
6C
100
AcDbEntity
  8
Visible (ANSI)
100
AcDbSpline
210
0.0
220
0.0
230
1.0
 70
    24
 71
     3
 72
     8
 73
     4
 74
     0
 42
0.0000000001
 43
0.0000000001
 40
0.0
 40
0.0
 40
0.0
 40
0.0
 40
0.3175000000000001
 40
0.3175000000000001
 40
0.3175000000000001
 40
0.3175000000000001
 10
53.51457145758967
 20
48.88758295859243
 30
0.0
 10
53.51457145758967
 20
48.84591629192577
 30
0.0
 10
53.51457145758967
 20
48.80424962525911
 30
0.0
 10
53.51457145758967
 20
48.76258295859243
 30
0.0
  0
SPLINE
  5
1FB
330
6C
100
AcDbEntity
  8
Visible (ANSI)
100
AcDbSpline
210
0.0
220
0.0
230
1.0
 70
     8
 71
     3
 72
     8
 73
     4
 74
     0
 42
0.0000000001
 43
0.0000000001
 40
0.0
 40
0.0
 40
0.0
 40
0.0
 40
1.570796326794896
 40
1.570796326794896
 40
1.570796326794896
 40
1.570796326794896
 10
53.51457145758967
 20
48.88758295859243
 30
0.0
 10
53.50720576195231
 20
48.88758295859243
 30
0.0
 10
53.49984006631494
 20
48.8950148176931
 30
0.0
 10
53.49247437067758
 20
48.90318295859243
 30
0.0
  0
SPLINE
  5
1FC
330
6C
100
AcDbEntity
  8
Visible (ANSI)
100
AcDbSpline
210
0.0
220
0.0
230
1.0
 70
     8
 71
     3
 72
     8
 73
     4
 74
     0
 42
0.0000000001
 43
0.0000000001
 40
0.0
 40
0.0
 40
0.0
 40
0.0
 40
1.570796326794896
 40
1.570796326794896
 40
1.570796326794896
 40
1.570796326794896
 10
33.67077145758967
 20
48.88758295859243
 30
0.0
 10
33.67813715322703
 20
48.88758295859243
 30
0.0
 10
33.68550284886439
 20
48.8950148176931
 30
0.0
 10
33.69286854450175
 20
48.90318295859243
 30
0.0
  0
SPLINE
  5
1FD
330
6C
100
AcDbEntity
  8
Visible (ANSI)
100
AcDbSpline
210
0.0
220
0.0
230
1.0
 70
    24
 71
     3
 72
     8
 73
     4
 74
     0
 42
0.0000000001
 43
0.0000000001
 40
-0.3175000000000001
 40
-0.3175000000000001
 40
-0.3175000000000001
 40
-0.3175000000000001
 40
0.0
 40
0.0
 40
0.0
 40
0.0
 10
33.67077145758967
 20
48.76258295859243
 30
0.0
 10
33.67077145758967
 20
48.80424962525911
 30
0.0
 10
33.67077145758967
 20
48.84591629192577
 30
0.0
 10
33.67077145758967
 20
48.88758295859243
 30
0.0
  0
LINE
  5
1FE
330
6C
100
AcDbEntity
  8
Visible (ANSI)
100
AcDbLine
 10
33.69286854450175
 20
48.90318295859239
 30
0.0
 11
34.80226854450175
 21
50.01258295859239
 31
0.0
  0
SPLINE
  5
1FF
330
6C
100
AcDbEntity
  8
Visible (ANSI)
100
AcDbSpline
210
0.0
220
0.0
230
1.0
 70
     8
 71
     3
 72
    11
 73
     7
 74
     0
 42
0.0000000001
 43
0.0000000001
 40
0.0
 40
0.0
 40
0.0
 40
0.0
 40
1.018582815488561
 40
1.018582815488561
 40
1.018582815488561
 40
1.570796326794895
 40
1.570796326794895
 40
1.570796326794895
 40
1.570796326794895
 10
33.67077145758967
 20
48.92528004550447
 30
0.0
 10
33.62303387630377
 20
48.92050376046206
 30
0.0
 10
33.57611132102157
 20
48.91572747541967
 30
0.0
 10
33.55106947385941
 20
48.91095119037728
 30
0.0
 10
33.53749331084082
 20
48.90836177978233
 30
0.0
 10
33.53017145758967
 20
48.90577236918738
 30
0.0
 10
33.53017145758967
 20
48.90318295859244
 30
0.0
  0
LINE
  5
200
330
6C
100
AcDbEntity
  8
Visible (ANSI)
100
AcDbLine
 10
34.78017145758967
 20
50.03468004550447
 30
0.0
 11
33.67077145758967
 21
48.92528004550447
 31
0.0
  0
SPLINE
  5
201
330
6C
100
AcDbEntity
  8
Visible (ANSI)
100
AcDbSpline
210
0.0
220
0.0
230
1.0
 70
    24
 71
     3
 72
     8
 73
     4
 74
     0
 42
0.0000000001
 43
0.0000000001
 40
0.0
 40
0.0
 40
0.0
 40
0.0
 40
0.3175000000000001
 40
0.3175000000000001
 40
0.3175000000000001
 40
0.3175000000000001
 10
33.65517145758967
 20
48.90318295859244
 30
0.0
 10
33.613504790923
 20
48.90318295859244
 30
0.0
 10
33.57183812425634
 20
48.90318295859244
 30
0.0
 10
33.53017145758967
 20
48.90318295859244
 30
0.0
  0
SPLINE
  5
202
330
6C
100
AcDbEntity
  8
Visible (ANSI)
100
AcDbSpline
210
0.0
220
0.0
230
1.0
 70
     8
 71
     3
 72
     8
 73
     4
 74
     0
 42
0.0000000001
 43
0.0000000001
 40
0.0
 40
0.0
 40
0.0
 40
0.0
 40
1.570796326794895
 40
1.570796326794895
 40
1.570796326794895
 40
1.570796326794895
 10
33.65517145758967
 20
48.90318295859244
 30
0.0
 10
33.65517145758967
 20
48.91054865422979
 30
0.0
 10
33.66260331669033
 20
48.91791434986714
 30
0.0
 10
33.67077145758967
 20
48.92528004550451
 30
0.0
  0
LINE
  5
203
330
6C
100
AcDbEntity
  8
Visible (ANSI)
100
AcDbLine
 10
52.40517145758969
 20
54.76258295859239
 30
0.0
 11
53.5145714575897
 21
54.76258295859238
 31
0.0
  0
LINE
  5
204
330
6C
100
AcDbEntity
  8
Visible (ANSI)
100
AcDbLine
 10
52.40517145758968
 20
50.03468004550447
 30
0.0
 11
52.40517145758969
 21
54.76258295859239
 31
0.0
  0
LINE
  5
205
330
6C
100
AcDbEntity
  8
Visible (ANSI)
100
AcDbLine
 10
34.80226854450175
 20
50.01258295859239
 30
0.0
 11
52.38307437067759
 21
50.01258295859239
 31
0.0
  0
LINE
  5
206
330
6C
100
AcDbEntity
  8
Visible (ANSI)
100
AcDbLine
 10
33.67077145758967
 20
54.76258295859249
 30
0.0
 11
34.78017145758967
 21
54.76258295859251
 31
0.0
  0
LINE
  5
207
330
6C
100
AcDbEntity
  8
Visible (ANSI)
100
AcDbLine
 10
34.78017145758967
 20
54.76258295859251
 30
0.0
 11
34.78017145758967
 21
50.03468004550447
 31
0.0
  0
ARC
  5
208
330
6C
100
AcDbEntity
  8
Visible (ANSI)
100
AcDbCircle
 10
33.67077145758967
 20
48.90318295859244
 30
0.0
 40
0.0156
100
AcDbArc
 50
180.0
 51
270.0
  0
ARC
  5
209
330
6C
100
AcDbEntity
  8
Visible (ANSI)
100
AcDbCircle
 10
33.67077145758967
 20
48.90318295859244
 30
0.0
 40
0.1406000000000001
100
AcDbArc
 50
180.0
 51
270.0
  0
ARC
  5
20A
330
6C
100
AcDbEntity
  8
Visible (ANSI)
100
AcDbCircle
 10
53.51457145758967
 20
48.90318295859243
 30
0.0
 40
0.0156000000000008
100
AcDbArc
 50
270.0000000000308
 51
0.0
  0
ARC
  5
20B
330
6C
100
AcDbEntity
  8
Visible (ANSI)
100
AcDbCircle
 10
53.51457145758967
 20
48.90318295859243
 30
0.0
 40
0.140599999999994
100
AcDbArc
 50
269.9999999999966
 51
0.0
  0
LINE
  5
20C
330
6C
100
AcDbEntity
  8
Visible (ANSI)
100
AcDbLine
 10
33.53017145758967
 20
54.78629410755456
 30
0.0
 11
33.53017145758967
 21
56.76258295859591
 31
0.0
  0
LINE
  5
20D
330
6C
100
AcDbEntity
  8
Visible (ANSI)
100
AcDbLine
 10
53.53017145758969
 20
54.78629410755444
 30
0.0
 11
53.5301714575897
 21
56.7625829585959
 31
0.0
  0
LINE
  5
20E
330
6C
100
AcDbEntity
  8
Visible (ANSI)
100
AcDbLine
 10
53.6551714575897
 20
56.7625829585959
 30
0.0
 11
53.6551714575897
 21
54.78629410755444
 31
0.0
  0
LINE
  5
20F
330
6C
100
AcDbEntity
  8
Visible (ANSI)
100
AcDbLine
 10
53.5301714575897
 20
56.7625829585959
 30
0.0
 11
53.6551714575897
 21
56.7625829585959
 31
0.0
  0
LINE
  5
210
330
6C
100
AcDbEntity
  8
Visible (ANSI)
100
AcDbLine
 10
33.65517145758967
 20
56.76258295859591
 30
0.0
 11
33.65517145758967
 21
54.78629410755456
 31
0.0
  0
LINE
  5
211
330
6C
100
AcDbEntity
  8
Visible (ANSI)
100
AcDbLine
 10
33.53017145758967
 20
56.76258295859591
 30
0.0
 11
33.65517145758967
 21
56.76258295859591
 31
0.0
  0
LINE
  5
212
330
6C
100
AcDbEntity
  8
Visible (ANSI)
100
AcDbLine
 10
34.28017145758967
 20
56.76258295859591
 30
0.0
 11
34.53017145758967
 21
56.51258295859591
 31
0.0
  0
LINE
  5
213
330
6C
100
AcDbEntity
  8
Visible (ANSI)
100
AcDbLine
 10
52.65517145758969
 20
56.51258295859591
 30
0.0
 11
52.90517145758968
 21
56.76258295859591
 31
0.0
  0
LINE
  5
214
330
6C
100
AcDbEntity
  8
Visible (ANSI)
100
AcDbLine
 10
34.28017145758967
 20
56.76258295859591
 30
0.0
 11
33.67077145758966
 21
56.76258295859591
 31
0.0
  0
LINE
  5
215
330
6C
100
AcDbEntity
  8
Visible (ANSI)
100
AcDbLine
 10
52.90517145758968
 20
56.76258295859591
 30
0.0
 11
53.5145714575897
 21
56.7625829585959
 31
0.0
  0
LINE
  5
216
330
6C
100
AcDbEntity
  8
Visible Narrow (ANSI)
100
AcDbLine
 10
33.67077145758966
 20
56.76258295859591
 30
0.0
 11
33.67077145758966
 21
54.76258295859602
 31
0.0
  0
LINE
  5
217
330
6C
100
AcDbEntity
  8
Visible (ANSI)
100
AcDbLine
 10
33.67077145758966
 20
56.76258295859593
 30
0.0
 11
33.65517145758967
 21
56.76258295859591
 31
0.0
  0
LINE
  5
218
330
6C
100
AcDbEntity
  8
Visible (ANSI)
100
AcDbLine
 10
53.5145714575897
 20
56.76258295859591
 30
0.0
 11
53.5301714575897
 21
56.7625829585959
 31
0.0
  0
LINE
  5
219
330
6C
100
AcDbEntity
  8
Visible Narrow (ANSI)
100
AcDbLine
 10
53.51457145758969
 20
54.76258295859591
 30
0.0
 11
53.5145714575897
 21
56.7625829585959
 31
0.0
  0
CIRCLE
  5
21A
330
6C
100
AcDbEntity
  8
Visible (ANSI)
100
AcDbCircle
 10
43.59267145758963
 20
52.51258295859242
 30
0.0
 40
0.28125
  0
CIRCLE
  5
21B
330
6C
100
AcDbEntity
  8
Visible (ANSI)
100
AcDbCircle
 10
35.65517145758964
 20
55.51258295859239
 30
0.0
 40
0.28125
  0
CIRCLE
  5
21C
330
6C
100
AcDbEntity
  8
Visible (ANSI)
100
AcDbCircle
 10
51.53017145758964
 20
55.51258295859239
 30
0.0
 40
0.28125
  0
ARC
  5
21D
330
6C
100
AcDbEntity
  8
Visible (ANSI)
100
AcDbCircle
 10
53.28017145758964
 20
56.38758295859238
 30
0.0
 40
0.1250000000000002
100
AcDbArc
 50
0.0
 51
90.0
  0
ARC
  5
21E
330
6C
100
AcDbEntity
  8
Visible (ANSI)
100
AcDbCircle
 10
33.90517145758964
 20
56.38758295859238
 30
0.0
 40
0.125
100
AcDbArc
 50
90.0
 51
180.0
  0
ARC
  5
21F
330
6C
100
AcDbEntity
  8
Visible (ANSI)
100
AcDbCircle
 10
33.90517145758965
 20
49.01248579508727
 30
0.0
 40
0.125000000000015
100
AcDbArc
 50
180.0
 51
189.3624011371779
  0
ARC
  5
220
330
6C
100
AcDbEntity
  8
Visible (ANSI)
100
AcDbCircle
 10
53.28017145758969
 20
49.01248579508727
 30
0.0
 40
0.1249999999999394
100
AcDbArc
 50
350.6375988628402
 51
0.0
  0
LINE
  5
221
330
6C
100
AcDbEntity
  8
Visible (ANSI)
100
AcDbLine
 10
53.40517145758963
 20
56.38758295859238
 30
0.0
 11
53.40517145758963
 21
54.98032138546204
 31
0.0
  0
LINE
  5
222
330
6C
100
AcDbEntity
  8
Visible (ANSI)
100
AcDbLine
 10
33.90517145758964
 20
56.51258295859238
 30
0.0
 11
53.28017145758963
 21
56.51258295859238
 31
0.0
  0
LINE
  5
223
330
6C
100
AcDbEntity
  8
Visible (ANSI)
100
AcDbLine
 10
33.78017145758964
 20
54.98032138546204
 30
0.0
 11
33.78017145758963
 21
56.38758295859238
 31
0.0
  0
LINE
  5
224
330
6C
100
AcDbEntity
  8
Visible (ANSI)
100
AcDbLine
 10
53.40517145758962
 20
54.88090217202723
 30
0.0
 11
53.40517145758962
 21
54.98032138546204
 31
0.0
  0
LINE
  5
225
330
6C
100
AcDbEntity
  8
Visible Narrow (ANSI)
100
AcDbLine
 10
33.78017145758964
 20
54.98032138546204
 30
0.0
 11
53.40517145758963
 21
54.98032138546204
 31
0.0
  0
LINE
  5
226
330
6C
100
AcDbEntity
  8
Visible (ANSI)
100
AcDbLine
 10
33.78017145758964
 20
54.88090217202723
 30
0.0
 11
33.78017145758964
 21
54.98032138546204
 31
0.0
  0
LINE
  5
227
330
6C
100
AcDbEntity
  8
Visible Narrow (ANSI)
100
AcDbLine
 10
33.78017145758964
 20
54.88090217202723
 30
0.0
 11
53.40517145758962
 21
54.88090217202723
 31
0.0
  0
LINE
  5
228
330
6C
100
AcDbEntity
  8
Visible (ANSI)
100
AcDbLine
 10
53.40517145758962
 20
54.80177823400411
 30
0.0
 11
53.40517145758962
 21
54.88090217202723
 31
0.0
  0
LINE
  5
229
330
6C
100
AcDbEntity
  8
Visible (ANSI)
100
AcDbLine
 10
33.78017145758964
 20
54.88090217202723
 30
0.0
 11
33.78017145758964
 21
54.80177823400411
 31
0.0
  0
LINE
  5
22A
330
6C
100
AcDbEntity
  8
Visible (ANSI)
100
AcDbLine
 10
53.40517145758962
 20
54.80177823400411
 30
0.0
 11
53.40517145758962
 21
54.79074736821749
 31
0.0
  0
LINE
  5
22B
330
6C
100
AcDbEntity
  8
Visible (ANSI)
100
AcDbLine
 10
33.78017145758964
 20
54.80177823400411
 30
0.0
 11
33.78017145758964
 21
54.79074736821761
 31
0.0
  0
LINE
  5
22C
330
6C
100
AcDbEntity
  8
Visible Narrow (ANSI)
100
AcDbLine
 10
33.78017145758964
 20
54.79074736821761
 30
0.0
 11
53.40517145758962
 21
54.79074736821749
 31
0.0
  0
LINE
  5
22D
330
6C
100
AcDbEntity
  8
Visible Narrow (ANSI)
100
AcDbLine
 10
33.78017145758964
 20
54.80177823400411
 30
0.0
 11
53.40517145758962
 21
54.80177823400411
 31
0.0
  0
LINE
  5
22E
330
6C
100
AcDbEntity
  8
Visible (ANSI)
100
AcDbLine
 10
53.40517145758963
 20
49.01248579508726
 30
0.0
 11
53.40517145758963
 21
49.03468004550454
 31
0.0
  0
LINE
  5
22F
330
6C
100
AcDbEntity
  8
Visible (ANSI)
100
AcDbLine
 10
53.40517145758963
 20
54.76258295859242
 30
0.0
 11
53.40517145758962
 21
54.79074736821749
 31
0.0
  0
LINE
  5
230
330
6C
100
AcDbEntity
  8
Visible (ANSI)
100
AcDbLine
 10
33.78017145758964
 20
54.79074736821761
 30
0.0
 11
33.78017145758964
 21
54.76258295859253
 31
0.0
  0
LINE
  5
231
330
6C
100
AcDbEntity
  8
Visible (ANSI)
100
AcDbLine
 10
33.78017145758964
 20
49.03468004550447
 30
0.0
 11
33.78017145758963
 21
49.01248579508727
 31
0.0
  0
MTEXT
  5
232
330
6C
100
AcDbEntity
  8
Symbol (ANSI)
100
AcDbMText
 10
41.26962590594039
 20
45.96635342949755
 30
0.0
 40
0.7200000088984572
 41
0.0
 71
     7
 72
     1
  1
TOP VIEW
  7
Text Style168
 73
     1
 44
1.0
  0
LINE
  5
233
330
6C
100
AcDbEntity
  8
Symbol (ANSI)
370
    30
100
AcDbLine
 10
41.27020190742207
 20
45.81952360524821
 30
0.0
 11
45.81308677162846
 21
45.81952360524821
 31
0.0
  0
ELLIPSE
  5
234
330
6C
100
AcDbEntity
  8
Visible (ANSI)
100
AcDbEllipse
 10
85.21358808805491
 20
56.29347916193172
 30
0.0
 11
-0.28125
 21
0.000000000000018
 31
0.0
210
0.0
220
0.0
230
1.0
 40
0.5758617009853087
 41
0.0
 42
6.283185307179586
  0
ELLIPSE
  5
235
330
6C
100
AcDbEntity
  8
Visible (ANSI)
100
AcDbEllipse
 10
85.21358808805491
 20
56.19128577132641
 30
0.0
 11
0.2812500000000009
 21
-0.0000000000000013
 31
0.0
210
0.0
220
0.0
230
1.0
 40
0.5758617009853086
 41
0.3209702928256364
 42
2.820622360764152
  0
ELLIPSE
  5
236
330
6C
100
AcDbEntity
  8
Visible (ANSI)
100
AcDbEllipse
 10
96.26213154409635
 20
49.93104613392745
 30
0.0
 11
-0.28125
 21
0.000000000000018
 31
0.0
210
0.0
220
0.0
230
1.0
 40
0.5758617009853087
 41
0.0
 42
6.283185307179586
  0
ELLIPSE
  5
237
330
6C
100
AcDbEntity
  8
Visible (ANSI)
100
AcDbEllipse
 10
96.26213154409633
 20
49.82885274332213
 30
0.0
 11
0.2812500000000028
 21
0.0000000000000003
 31
0.0
210
0.0
220
0.0
230
1.0
 40
0.5758617009853101
 41
0.3209702928256266
 42
2.820622360764095
  0
ELLIPSE
  5
238
330
6C
100
AcDbEntity
  8
Visible (ANSI)
100
AcDbEllipse
 10
83.18065609214356
 20
56.39527809037961
 30
0.0
 11
-0.28125
 21
0.0000000000000292
 31
0.0
210
0.0
220
0.0
230
1.0
 40
0.5758617009853421
 41
0.0
 42
6.283185307179586
  0
ELLIPSE
  5
239
330
6C
100
AcDbEntity
  8
Visible (ANSI)
100
AcDbEllipse
 10
83.18065609214356
 20
56.29308469977429
 30
0.0
 11
0.2812499999999971
 21
-0.0000000000000131
 31
0.0
210
0.0
220
0.0
230
1.0
 40
0.5758617009853415
 41
0.3209702928255889
 42
2.820622360764188
  0
ELLIPSE
  5
23A
330
6C
100
AcDbEntity
  8
Visible (ANSI)
100
AcDbEllipse
 10
79.64512218621134
 20
54.35929952141762
 30
0.0
 11
-0.28125
 21
0.0000000000000292
 31
0.0
210
0.0
220
0.0
230
1.0
 40
0.5758617009853421
 41
0.0
 42
6.283185307179586
  0
ELLIPSE
  5
23B
330
6C
100
AcDbEntity
  8
Visible (ANSI)
100
AcDbEllipse
 10
79.64512218621134
 20
54.25710613081231
 30
0.0
 11
0.2812499999999983
 21
-0.0000000000000131
 31
0.0
210
0.0
220
0.0
230
1.0
 40
0.5758617009853415
 41
0.3209702928255895
 42
2.820622360764188
  0
ELLIPSE
  5
23C
330
6C
100
AcDbEntity
  8
Visible (ANSI)
100
AcDbEllipse
 10
96.43890823939329
 20
48.76035845677451
 30
0.0
 11
-0.28125
 21
0.0000000000000185
 31
0.0
210
0.0
220
0.0
230
1.0
 40
0.5758617009853148
 41
0.0
 42
6.283185307179586
  0
ELLIPSE
  5
23D
330
6C
100
AcDbEntity
  8
Visible (ANSI)
100
AcDbEllipse
 10
96.43890823939329
 20
48.65816506616919
 30
0.0
 11
0.2812500000000035
 21
-0.0000000000000026
 31
0.0
210
0.0
220
0.0
230
1.0
 40
0.5758617009853175
 41
0.3209702928256393
 42
2.820622360764115
  0
ELLIPSE
  5
23E
330
6C
100
AcDbEntity
  8
Visible (ANSI)
100
AcDbEllipse
 10
92.9033743334611
 20
46.72437988781253
 30
0.0
 11
-0.28125
 21
0.0000000000000185
 31
0.0
210
0.0
220
0.0
230
1.0
 40
0.5758617009853148
 41
0.0
 42
6.283185307179586
  0
ELLIPSE
  5
23F
330
6C
100
AcDbEntity
  8
Visible (ANSI)
100
AcDbEllipse
 10
92.9033743334611
 20
46.62218649720721
 30
0.0
 11
0.2812500000000032
 21
-0.0000000000000025
 31
0.0
210
0.0
220
0.0
230
1.0
 40
0.5758617009853174
 41
0.3209702928256392
 42
2.820622360764115
  0
SPLINE
  5
240
330
6C
100
AcDbEntity
  8
Visible (ANSI)
100
AcDbSpline
210
0.0
220
0.0
230
1.0
 70
     8
 71
     3
 72
     8
 73
     4
 74
     0
 42
0.0000000001
 43
0.0000000001
 40
0.0
 40
0.0
 40
0.0
 40
0.0
 40
0.7873318718205118
 40
0.7873318718205118
 40
0.7873318718205118
 40
0.7873318718205118
 10
98.23983850039716
 20
39.54193274141029
 30
0.0
 10
98.23722792207938
 20
39.51026223077986
 30
0.0
 10
98.22354709375376
 20
39.4853647669527
 30
0.0
 10
98.20263762112958
 20
39.47298188186174
 30
0.0
  0
SPLINE
  5
241
330
6C
100
AcDbEntity
  8
Visible (ANSI)
100
AcDbSpline
210
0.0
220
0.0
230
1.0
 70
     8
 71
     3
 72
     8
 73
     4
 74
     0
 42
0.0000000001
 43
0.0000000001
 40
0.0
 40
0.0
 40
0.0
 40
0.0
 40
0.0154576661984672
 40
0.0154576661984672
 40
0.0154576661984672
 40
0.0154576661984672
 10
84.11976460823714
 20
47.68584701725575
 30
0.0
 10
84.11981586165349
 20
47.68575178804934
 30
0.0
 10
84.11986660617202
 20
47.68565632407964
 30
0.0
 10
84.11991684630454
 20
47.68556063316123
 30
0.0
  0
SPLINE
  5
242
330
6C
100
AcDbEntity
  8
Visible (ANSI)
100
AcDbSpline
210
0.0
220
0.0
230
1.0
 70
     8
 71
     3
 72
     8
 73
     4
 74
     0
 42
0.0000000001
 43
0.0000000001
 40
0.0
 40
0.0
 40
0.0
 40
0.0
 40
0.7642854944730202
 40
0.7642854944730202
 40
0.7642854944730202
 40
0.7642854944730202
 10
84.09770287666413
 20
47.68584701725575
 30
0.0
 10
84.09516871386458
 20
47.68113852503088
 30
0.0
 10
84.09387864722518
 20
47.67585610989679
 30
0.0
 10
84.09328732055106
 20
47.67094435492355
 30
0.0
  0
LINE
  5
243
330
6C
100
AcDbEntity
  8
Visible Narrow (ANSI)
100
AcDbLine
 10
94.07985071249262
 20
37.14635509778869
 30
0.0
 11
98.23983850039716
 21
39.54193274141028
 31
0.0
  0
SPLINE
  5
244
330
6C
100
AcDbEntity
  8
Visible (ANSI)
100
AcDbSpline
210
0.0
220
0.0
230
1.0
 70
     8
 71
     3
 72
    11
 73
     7
 74
     0
 42
0.0000000001
 43
0.0000000001
 40
0.0
 40
0.0
 40
0.0
 40
0.0
 40
1.018582815488603
 40
1.018582815488603
 40
1.018582815488603
 40
1.570796326795075
 40
1.570796326795075
 40
1.570796326795075
 40
1.570796326795075
 10
93.99719781327851
 20
37.09831476762143
 30
0.0
 10
94.02732934212719
 20
37.07678928410466
 30
0.0
 10
94.05688456056184
 20
37.07701778580197
 30
0.0
 10
94.07096778190764
 20
37.0979607627287
 30
0.0
 10
94.07860284602968
 20
37.10931476816651
 30
0.0
 10
94.08181544530352
 20
37.12632806019165
 30
0.0
 10
94.07985071249262
 20
37.1463550977887
 30
0.0
  0
LINE
  5
245
330
6C
100
AcDbEntity
  8
Visible (ANSI)
100
AcDbLine
 10
93.99719781327851
 20
37.19275249999917
 30
0.0
 11
93.99719781327851
 21
37.09831476762143
 31
0.0
  0
LINE
  5
246
330
6C
100
AcDbEntity
  8
Visible (ANSI)
100
AcDbLine
 10
94.0437237360836
 20
37.16715923987503
 30
0.0
 11
94.07985071249262
 21
37.14635509778869
 31
0.0
  0
LINE
  5
247
330
6C
100
AcDbEntity
  8
Visible (ANSI)
100
AcDbLine
 10
93.99146236484426
 20
37.19725456201273
 30
0.0
 11
94.0437237360836
 21
37.16715923987503
 31
0.0
  0
SPLINE
  5
248
330
6C
100
AcDbEntity
  8
Visible (ANSI)
100
AcDbSpline
210
0.0
220
0.0
230
1.0
 70
     8
 71
     3
 72
     8
 73
     4
 74
     0
 42
0.0000000001
 43
0.0000000001
 40
0.0
 40
0.0
 40
0.0
 40
0.0
 40
0.0380457206136823
 40
0.0380457206136823
 40
0.0380457206136823
 40
0.0380457206136823
 10
93.99146236484426
 20
37.19725456201273
 30
0.0
 10
93.99159772856513
 20
37.19717077111387
 30
0.0
 10
93.99173000942218
 20
37.19708910864345
 30
0.0
 10
93.9918592746868
 20
37.19700961364075
 30
0.0
  0
LINE
  5
249
330
6C
100
AcDbEntity
  8
Visible Narrow (ANSI)
100
AcDbLine
 10
84.11976460823714
 20
47.68584701725575
 30
0.0
 11
84.12011032177682
 21
47.68564793406874
 31
0.0
  0
SPLINE
  5
24A
330
6C
100
AcDbEntity
  8
Visible (ANSI)
100
AcDbSpline
210
0.0
220
0.0
230
1.0
 70
     8
 71
     3
 72
    11
 73
     7
 74
     0
 42
0.0000000001
 43
0.0000000001
 40
0.0
 40
0.0
 40
0.0
 40
0.0
 40
1.018582815488561
 40
1.018582815488561
 40
1.018582815488561
 40
1.196416296958048
 40
1.196416296958048
 40
1.196416296958048
 40
1.196416296958048
 10
79.84932674111113
 20
45.34116883785816
 30
0.0
 10
79.85295077970715
 20
45.30422806056128
 30
0.0
 10
79.87510307052494
 20
45.25728389458966
 30
0.0
 10
79.90746543333909
 20
45.2223486492041
 30
0.0
 10
79.91311554991316
 20
45.21624933531579
 30
0.0
 10
79.91904485833164
 20
45.21051952546365
 30
0.0
 10
79.92516438189544
 20
45.20523960653282
 30
0.0
  0
LINE
  5
24B
330
6C
100
AcDbEntity
  8
Visible Narrow (ANSI)
100
AcDbLine
 10
79.97686355463248
 20
45.28735523436486
 30
0.0
 11
79.96551226876672
 21
45.28081846357784
 31
0.0
  0
LINE
  5
24C
330
6C
100
AcDbEntity
  8
Visible (ANSI)
100
AcDbLine
 10
79.96551226876672
 20
45.28081846357784
 30
0.0
 11
79.96551226876672
 21
45.27278945410973
 31
0.0
  0
SPLINE
  5
24D
330
6C
100
AcDbEntity
  8
Visible (ANSI)
100
AcDbSpline
210
0.0
220
0.0
230
1.0
 70
     8
 71
     3
 72
     8
 73
     4
 74
     0
 42
0.0000000001
 43
0.0000000001
 40
0.0
 40
0.0
 40
0.0
 40
0.0
 40
1.570796326794897
 40
1.570796326794897
 40
1.570796326794897
 40
1.570796326794897
 10
79.93771508875944
 20
45.29026937363412
 30
0.0
 10
79.94330386016637
 20
45.28680989293537
 30
0.0
 10
79.9541477495402
 20
45.28092613613289
 30
0.0
 10
79.96551226876672
 20
45.28081846357784
 30
0.0
  0
LINE
  5
24E
330
6C
100
AcDbEntity
  8
Visible (ANSI)
100
AcDbLine
 10
79.8854537175201
 20
45.32036469577183
 30
0.0
 11
79.93771508875944
 21
45.29026937363412
 31
0.0
  0
LINE
  5
24F
330
6C
100
AcDbEntity
  8
Visible (ANSI)
100
AcDbLine
 10
79.84932674111113
 20
45.34116883785816
 30
0.0
 11
79.8854537175201
 21
45.32036469577183
 31
0.0
  0
LINE
  5
250
330
6C
100
AcDbEntity
  8
Visible Narrow (ANSI)
100
AcDbLine
 10
79.93771508875944
 20
45.29026937363412
 30
0.0
 11
84.09770287666413
 21
47.68584701725575
 31
0.0
  0
LINE
  5
251
330
6C
100
AcDbEntity
  8
Visible (ANSI)
100
AcDbLine
 10
94.05899922507034
 20
37.08660460889777
 30
0.0
 11
98.20275148095774
 21
39.47283283143553
 31
0.0
  0
SPLINE
  5
252
330
6C
100
AcDbEntity
  8
Visible (ANSI)
100
AcDbSpline
210
0.0
220
0.0
230
1.0
 70
     8
 71
     3
 72
    16
 73
    12
 74
     0
 42
0.0000000001
 43
0.0000000001
 40
0.049478289120296
 40
0.049478289120296
 40
0.049478289120296
 40
0.049478289120296
 40
0.051839677090083
 40
0.051839677090083
 40
0.0647380439720551
 40
0.0647380439720551
 40
0.077636409934436
 40
0.077636409934436
 40
0.090534775936307
 40
0.090534775936307
 40
0.0989896749138963
 40
0.0989896749138963
 40
0.0989896749138963
 40
0.0989896749138963
 10
93.99946786297537
 20
37.1899824893734
 30
0.0
 10
93.99946786299128
 20
37.18998248934576
 30
0.0
 10
93.99946333150746
 20
37.18999035677294
 30
0.0
 10
93.99940311520188
 20
37.19009010770597
 30
0.0
 10
93.99920360544781
 20
37.19040847692549
 30
0.0
 10
93.99844415526642
 20
37.19139187128714
 30
0.0
 10
93.99787411866659
 20
37.19206814209059
 30
0.0
 10
93.99636295404611
 20
37.19359811780369
 30
0.0
 10
93.99540270347976
 20
37.19446963157415
 30
0.0
 10
93.9935454771888
 20
37.1958983605528
 30
0.0
 10
93.99273193847237
 20
37.19646770743135
 30
0.0
 10
93.99186047350834
 20
37.19700790318154
 30
0.0
  0
LINE
  5
253
330
6C
100
AcDbEntity
  8
Visible (ANSI)
100
AcDbLine
 10
93.99031294511074
 20
37.2044728901209
 30
0.0
 11
93.91984033141662
 21
37.24505536931566
 31
0.0
  0
LINE
  5
254
330
6C
100
AcDbEntity
  8
Visible (ANSI)
100
AcDbLine
 10
93.86329483636131
 20
37.17542436367594
 30
0.0
 11
93.99719781327851
 21
37.09831476762143
 31
0.0
  0
LINE
  5
255
330
6C
100
AcDbEntity
  8
Visible (ANSI)
100
AcDbLine
 10
79.96551226876672
 20
45.28081846357784
 30
0.0
 11
79.96967853446775
 21
45.2784192707245
 31
0.0
  0
ELLIPSE
  5
256
330
6C
100
AcDbEntity
  8
Visible (ANSI)
100
AcDbEllipse
 10
84.10873374245065
 20
47.67949476412058
 30
0.0
 11
0.0156
 21
-0.0000000000000009
 31
0.0
210
0.0
220
0.0
230
1.0
 40
0.5758617009853121
 41
0.7853981633986509
 42
2.356194490192908
  0
ELLIPSE
  5
257
330
6C
100
AcDbEntity
  8
Visible (ANSI)
100
AcDbEllipse
 10
98.14041928696235
 20
39.59918445876947
 30
0.0
 11
0.1405999999999883
 21
0.0
 31
0.0
210
0.0
220
0.0
230
1.0
 40
0.5758617009853121
 41
5.497787143782183
 42
6.283185307179586
  0
LINE
  5
258
330
6C
100
AcDbEntity
  8
Visible (ANSI)
100
AcDbLine
 10
79.84932674111113
 20
45.34116883785816
 30
0.0
 11
78.45187949295908
 21
54.11710373510459
 31
0.0
  0
LINE
  5
259
330
6C
100
AcDbEntity
  8
Visible (ANSI)
100
AcDbLine
 10
93.99146236484426
 20
37.19725456201273
 30
0.0
 11
92.59401511669215
 21
45.97318945925911
 31
0.0
  0
LINE
  5
25A
330
6C
100
AcDbEntity
  8
Visible (ANSI)
100
AcDbLine
 10
92.68240346434048
 20
45.92228999503507
 30
0.0
 11
94.07985071249262
 21
37.14635509778869
 31
0.0
  0
LINE
  5
25B
330
6C
100
AcDbEntity
  8
Visible (ANSI)
100
AcDbLine
 10
92.59401511669215
 20
45.97318945925911
 30
0.0
 11
92.68240346434048
 21
45.92228999503507
 31
0.0
  0
LINE
  5
25C
330
6C
100
AcDbEntity
  8
Visible (ANSI)
100
AcDbLine
 10
78.5402678406074
 20
54.06620427088055
 30
0.0
 11
79.93771508875944
 21
45.29026937363412
 31
0.0
  0
LINE
  5
25D
330
6C
100
AcDbEntity
  8
Visible (ANSI)
100
AcDbLine
 10
78.45187949295908
 20
54.11710373510459
 30
0.0
 11
78.5402678406074
 21
54.06620427088055
 31
0.0
  0
ELLIPSE
  5
25E
330
6C
100
AcDbEntity
  8
Visible (ANSI)
100
AcDbEllipse
 10
98.14041928696234
 20
49.17985570537424
 30
0.0
 11
0.1405999999999986
 21
0.0
 31
0.0
210
0.0
220
0.0
230
1.0
 40
0.5758617009853121
 41
5.497787143782268
 42
7.06858347057722
  0
ELLIPSE
  5
25F
330
6C
100
AcDbEntity
  8
Visible (ANSI)
100
AcDbEllipse
 10
84.10873374245065
 20
57.26016601072535
 30
0.0
 11
-0.0156
 21
-0.0000000000000009
 31
0.0
210
0.0
220
0.0
230
1.0
 40
0.5758617009853121
 41
3.926990816986677
 42
5.497787143780935
  0
LINE
  5
260
330
6C
100
AcDbEntity
  8
Visible (ANSI)
100
AcDbLine
 10
78.98220957884905
 20
53.82446068490789
 30
0.0
 11
78.55129870639392
 21
54.07260575289294
 31
0.0
  0
LINE
  5
261
330
6C
100
AcDbEntity
  8
Visible (ANSI)
100
AcDbLine
 10
84.0931087424509
 20
56.36043605703251
 30
0.0
 11
79.6893163600356
 21
53.82446068490794
 31
0.0
  0
LINE
  5
262
330
6C
100
AcDbEntity
  8
Visible (ANSI)
100
AcDbLine
 10
78.98220957884908
 20
53.92665407551321
 30
0.0
 11
78.55129870639392
 21
54.17479914349826
 31
0.0
  0
LINE
  5
263
330
6C
100
AcDbEntity
  8
Visible (ANSI)
100
AcDbLine
 10
92.58298425090563
 20
46.09448883814714
 30
0.0
 11
92.15207337845049
 21
46.34263390613216
 31
0.0
  0
LINE
  5
264
330
6C
100
AcDbEntity
  8
Visible (ANSI)
100
AcDbLine
 10
92.15207337845049
 20
46.24044051552687
 30
0.0
 11
92.58298425090563
 21
45.99229544754183
 31
0.0
  0
LINE
  5
265
330
6C
100
AcDbEntity
  8
Visible (ANSI)
100
AcDbLine
 10
96.48275991591582
 20
49.24370613582429
 30
0.0
 11
84.12435874245089
 21
56.36043605703256
 31
0.0
  0
LINE
  5
266
330
6C
100
AcDbEntity
  8
Visible (ANSI)
100
AcDbLine
 10
96.55586576086562
 20
49.30380067020484
 30
0.0
 11
84.12435874245089
 21
56.46262944763789
 31
0.0
  0
LINE
  5
267
330
6C
100
AcDbEntity
  8
Visible (ANSI)
100
AcDbLine
 10
84.0931087424509
 20
56.46262944763782
 30
0.0
 11
79.6893163600356
 21
53.92665407551326
 31
0.0
  0
LINE
  5
268
330
6C
100
AcDbEntity
  8
Visible (ANSI)
100
AcDbLine
 10
92.15207337845036
 20
46.7498296199245
 30
0.0
 11
96.55586576086562
 21
49.28580499204906
 31
0.0
  0
ELLIPSE
  5
269
330
6C
100
AcDbEntity
  8
Visible (ANSI)
100
AcDbEllipse
 10
84.10873374245065
 20
57.26016601072535
 30
0.0
 11
0.1406000000000023
 21
0.0
 31
0.0
210
0.0
220
0.0
230
1.0
 40
0.5758617009853121
 41
1.459435432737798
 42
1.682157220851756
  0
LINE
  5
26A
330
6C
100
AcDbEntity
  8
Visible Narrow (ANSI)
100
AcDbLine
 10
98.23983850039716
 20
39.54193274141028
 30
0.0
 11
98.23983850039716
 21
49.12260398801503
 31
0.0
  0
LINE
  5
26B
330
6C
100
AcDbEntity
  8
Visible Narrow (ANSI)
100
AcDbLine
 10
84.11976460823714
 20
57.2665182638605
 30
0.0
 11
84.11976460823714
 21
47.68584701725575
 31
0.0
  0
LINE
  5
26C
330
6C
100
AcDbEntity
  8
Visible Narrow (ANSI)
100
AcDbLine
 10
84.09770287666413
 20
47.68584701725575
 30
0.0
 11
84.09770287666413
 21
57.2665182638605
 31
0.0
  0
LINE
  5
26D
330
6C
100
AcDbEntity
  8
Visible (ANSI)
100
AcDbLine
 10
98.28101928696234
 20
49.17985570537424
 30
0.0
 11
98.28101928696234
 21
39.59918445876947
 31
0.0
  0
LINE
  5
26E
330
6C
100
AcDbEntity
  8
Visible (ANSI)
100
AcDbLine
 10
79.6893163600356
 20
53.92665407551326
 30
0.0
 11
78.98220957884908
 21
53.92665407551321
 31
0.0
  0
LINE
  5
26F
330
6C
100
AcDbEntity
  8
Visible (ANSI)
100
AcDbLine
 10
78.98220957884908
 20
53.92665407551321
 30
0.0
 11
78.98220957884905
 21
53.82446068490789
 31
0.0
  0
LINE
  5
270
330
6C
100
AcDbEntity
  8
Visible (ANSI)
100
AcDbLine
 10
78.98220957884905
 20
53.82446068490789
 30
0.0
 11
79.6893163600356
 21
53.82446068490794
 31
0.0
  0
LINE
  5
271
330
6C
100
AcDbEntity
  8
Visible (ANSI)
100
AcDbLine
 10
79.6893163600356
 20
53.82446068490794
 30
0.0
 11
79.6893163600356
 21
53.92665407551326
 31
0.0
  0
LINE
  5
272
330
6C
100
AcDbEntity
  8
Visible (ANSI)
100
AcDbLine
 10
92.15207337845049
 20
46.34263390613216
 30
0.0
 11
92.15207337845036
 21
46.7498296199245
 31
0.0
  0
LINE
  5
273
330
6C
100
AcDbEntity
  8
Visible (ANSI)
100
AcDbLine
 10
92.15207337845049
 20
46.24044051552687
 30
0.0
 11
92.15207337845049
 21
46.34263390613216
 31
0.0
  0
ELLIPSE
  5
274
330
6C
100
AcDbEntity
  8
Visible (ANSI)
100
AcDbEllipse
 10
78.55129870639392
 20
54.0598520177454
 30
0.0
 11
-0.0077849025007167
 21
0.0135187016038647
 31
0.0
210
0.0
220
0.0
230
1.0
 40
0.5780931159158105
 41
5.499720852205022
 42
7.070517178999503
  0
ELLIPSE
  5
275
330
6C
100
AcDbEntity
  8
Visible (ANSI)
100
AcDbEllipse
 10
78.55129870639392
 20
54.0598520177454
 30
0.0
 11
-0.0701639289487664
 21
0.1218416311220099
 31
0.0
210
0.0
220
0.0
230
1.0
 40
0.5780931159158105
 41
5.499720852205022
 42
7.070517178999973
  0
ELLIPSE
  5
276
330
6C
100
AcDbEntity
  8
Visible (ANSI)
100
AcDbEllipse
 10
92.58298425090563
 20
45.97954171239426
 30
0.0
 11
-0.0701639289487799
 21
0.1218416311220166
 31
0.0
210
0.0
220
0.0
230
1.0
 40
0.5780931159158107
 41
3.928924525409936
 42
5.499720852204849
  0
ELLIPSE
  5
277
330
6C
100
AcDbEntity
  8
Visible (ANSI)
100
AcDbEllipse
 10
92.58298425090563
 20
45.97954171239426
 30
0.0
 11
0.0077849025007236
 21
-0.0135187016038785
 31
0.0
210
0.0
220
0.0
230
0.9999999999999998
 40
0.5780931159158106
 41
0.7873318718221621
 42
2.358128198615402
  0
LINE
  5
278
330
6C
100
AcDbEntity
  8
Visible Narrow (ANSI)
100
AcDbLine
 10
98.12479428696233
 20
49.30380067020498
 30
0.0
 11
84.12435874245064
 21
57.3661152974003
 31
0.0
  0
LINE
  5
279
330
6C
100
AcDbEntity
  8
Visible Narrow (ANSI)
100
AcDbLine
 10
84.12435874245067
 20
57.26387267791775
 30
0.0
 11
84.11976460823714
 21
57.2665182638605
 31
0.0
  0
LINE
  5
27A
330
6C
100
AcDbEntity
  8
Visible Narrow (ANSI)
100
AcDbLine
 10
84.09310874245065
 20
57.3661152974003
 30
0.0
 11
78.55129870639392
 21
54.17479914349826
 31
0.0
  0
LINE
  5
27B
330
6C
100
AcDbEntity
  8
Visible Narrow (ANSI)
100
AcDbLine
 10
84.09770287666413
 20
57.2665182638605
 30
0.0
 11
84.09310874245068
 21
57.26387267791779
 31
0.0
  0
LINE
  5
27C
330
6C
100
AcDbEntity
  8
Visible Narrow (ANSI)
100
AcDbLine
 10
78.55134145005713
 20
54.07258113845433
 30
0.0
 11
78.5402678406074
 21
54.06620427088055
 31
0.0
  0
LINE
  5
27D
330
6C
100
AcDbEntity
  8
Visible Narrow (ANSI)
100
AcDbLine
 10
92.58298425090563
 20
46.09448883814714
 30
0.0
 11
98.12479428696235
 21
49.28580499204919
 31
0.0
  0
LINE
  5
27E
330
6C
100
AcDbEntity
  8
Visible Narrow (ANSI)
100
AcDbLine
 10
98.23983850039716
 20
49.12260398801503
 30
0.0
 11
92.68240346434048
 21
45.92228999503507
 31
0.0
  0
LINE
  5
27F
330
6C
100
AcDbEntity
  8
Visible (ANSI)
100
AcDbLine
 10
84.18672940635275
 20
57.37749764563545
 30
0.0
 11
98.2027514809577
 21
49.30620733270817
 31
0.0
  0
LINE
  5
280
330
6C
100
AcDbEntity
  8
Visible (ANSI)
100
AcDbLine
 10
78.48113477744515
 20
54.18169364886741
 30
0.0
 11
84.0307380785485
 21
57.37749764563544
 31
0.0
  0
SPLINE
  5
281
330
6C
100
AcDbEntity
  8
Visible (ANSI)
100
AcDbSpline
210
0.0
220
0.0
230
1.0
 70
     8
 71
     3
 72
    11
 73
     7
 74
     0
 42
0.0000000001
 43
0.0000000001
 40
0.0
 40
0.0
 40
0.0
 40
0.0
 40
1.018582815488504
 40
1.018582815488504
 40
1.018582815488504
 40
1.570796326794887
 40
1.570796326794887
 40
1.570796326794887
 40
1.570796326794887
 10
98.23983850039715
 20
49.23710742273344
 30
0.0
 10
98.23646115685477
 20
49.27808002785778
 30
0.0
 10
98.21455556109064
 20
49.30771659997539
 30
0.0
 10
98.18243989333012
 20
49.31358507265294
 30
0.0
 10
98.16502873599239
 20
49.31676660080559
 30
0.0
 10
98.14492548773401
 20
49.31328466393321
 30
0.0
 10
98.12479428696233
 20
49.30380067020497
 30
0.0
  0
SPLINE
  5
282
330
6C
100
AcDbEntity
  8
Visible (ANSI)
100
AcDbSpline
210
0.0
220
0.0
230
1.0
 70
     8
 71
     3
 72
     8
 73
     4
 74
     0
 42
0.0000000001
 43
0.0000000001
 40
0.0
 40
0.0
 40
0.0
 40
0.0
 40
0.7834644549745235
 40
0.7834644549745235
 40
0.7834644549745235
 40
0.7834644549745235
 10
84.12435874245064
 20
57.36611529740029
 30
0.0
 10
84.14772479405765
 20
57.38256280686802
 30
0.0
 10
84.17074988649632
 20
57.38614013296559
 30
0.0
 10
84.18665558553005
 20
57.37732031532004
 30
0.0
  0
LINE
  5
283
330
6C
100
AcDbEntity
  8
Visible (ANSI)
100
AcDbLine
 10
84.12435874245089
 20
56.46262944763789
 30
0.0
 11
84.12435874245064
 21
57.3661152974003
 31
0.0
  0
LINE
  5
284
330
6C
100
AcDbEntity
  8
Visible (ANSI)
100
AcDbLine
 10
84.12435874245089
 20
56.36043605703256
 30
0.0
 11
84.12435874245089
 21
56.46262944763789
 31
0.0
  0
SPLINE
  5
285
330
6C
100
AcDbEntity
  8
Visible (ANSI)
100
AcDbSpline
210
0.0
220
0.0
230
1.0
 70
     8
 71
     3
 72
     8
 73
     4
 74
     0
 42
0.0000000001
 43
0.0000000001
 40
0.0
 40
0.0
 40
0.0
 40
0.0
 40
0.7912825099071252
 40
0.7912825099071252
 40
0.7912825099071252
 40
0.7912825099071252
 10
84.11976460823714
 20
57.26651826386049
 30
0.0
 10
84.12238828579619
 20
57.26837132429126
 30
0.0
 10
84.1236784239655
 20
57.26930370080541
 30
0.0
 10
84.12424023553695
 20
57.26896417357345
 30
0.0
  0
LINE
  5
286
330
6C
100
AcDbEntity
  8
Visible (ANSI)
100
AcDbLine
 10
98.12479428696233
 20
49.28580499204919
 30
0.0
 11
98.12479428696233
 21
49.30380067020498
 31
0.0
  0
SPLINE
  5
287
330
6C
100
AcDbEntity
  8
Visible (ANSI)
100
AcDbSpline
210
0.0
220
0.0
230
1.0
 70
    24
 71
     3
 72
     8
 73
     4
 74
     0
 42
0.0000000001
 43
0.0000000001
 40
-0.3175000000000077
 40
-0.3175000000000077
 40
-0.3175000000000077
 40
-0.3175000000000077
 40
-0.1853944325780448
 40
-0.1853944325780448
 40
-0.1853944325780448
 40
-0.1853944325780448
 10
98.23983850039715
 20
49.23710742273344
 30
0.0
 10
98.22757961029786
 20
49.23004799742868
 30
0.0
 10
98.21532072019859
 20
49.2229885721239
 30
0.0
 10
98.20306183009931
 20
49.21592914681914
 30
0.0
  0
LINE
  5
288
330
6C
100
AcDbEntity
  8
Visible (ANSI)
100
AcDbLine
 10
98.12479428696233
 20
49.30380067020498
 30
0.0
 11
96.55586576086562
 21
49.30380067020484
 31
0.0
  0
LINE
  5
289
330
6C
100
AcDbEntity
  8
Visible (ANSI)
100
AcDbLine
 10
96.55586576086562
 20
49.28580499204906
 30
0.0
 11
96.55586576086562
 21
49.30380067020484
 31
0.0
  0
SPLINE
  5
28A
330
6C
100
AcDbEntity
  8
Visible (ANSI)
100
AcDbSpline
210
0.0
220
0.0
230
1.0
 70
     8
 71
     3
 72
    11
 73
     7
 74
     0
 42
0.0000000001
 43
0.0000000001
 40
0.7873318718202251
 40
0.7873318718202251
 40
0.7873318718202251
 40
0.7873318718202251
 40
1.018582815488563
 40
1.018582815488563
 40
1.018582815488563
 40
1.570796326794888
 40
1.570796326794888
 40
1.570796326794888
 40
1.570796326794888
 10
84.03085193837664
 20
57.37734859520923
 30
0.0
 10
84.03545982738354
 20
57.38010252912232
 30
0.0
 10
84.04069131942138
 20
57.38177685129786
 30
0.0
 10
84.04644907482866
 20
57.38222608122136
 30
0.0
 10
84.06019825258445
 20
57.38329881558296
 30
0.0
 10
84.07663952126091
 20
57.37770808491956
 30
0.0
 10
84.09310874245065
 20
57.3661152974003
 30
0.0
  0
SPLINE
  5
28B
330
6C
100
AcDbEntity
  8
Visible (ANSI)
100
AcDbSpline
210
0.0
220
0.0
230
1.0
 70
     8
 71
     3
 72
     8
 73
     4
 74
     0
 42
0.0000000001
 43
0.0000000001
 40
0.0
 40
0.0
 40
0.0
 40
0.0
 40
0.7912825098800426
 40
0.7912825098800426
 40
0.7912825098800426
 40
0.7912825098800426
 10
84.09770287666413
 20
57.2665182638605
 30
0.0
 10
84.09507919910517
 20
57.2683713242912
 30
0.0
 10
84.09378906093586
 20
57.26930370080534
 30
0.0
 10
84.09322724936439
 20
57.26896417357347
 30
0.0
  0
LINE
  5
28C
330
6C
100
AcDbEntity
  8
Visible (ANSI)
100
AcDbLine
 10
84.09310874245065
 20
57.3661152974003
 30
0.0
 11
84.0931087424509
 21
56.46262944763782
 31
0.0
  0
LINE
  5
28D
330
6C
100
AcDbEntity
  8
Visible (ANSI)
100
AcDbLine
 10
84.0931087424509
 20
56.36043605703251
 30
0.0
 11
84.0931087424509
 21
56.46262944763782
 31
0.0
  0
SPLINE
  5
28E
330
6C
100
AcDbEntity
  8
Visible (ANSI)
100
AcDbSpline
210
0.0
220
0.0
230
1.0
 70
     8
 71
     3
 72
    11
 73
     7
 74
     0
 42
0.0000000001
 43
0.0000000001
 40
0.0
 40
0.0
 40
0.0
 40
0.0
 40
1.018582815488545
 40
1.018582815488545
 40
1.018582815488545
 40
1.570796326794715
 40
1.570796326794715
 40
1.570796326794715
 40
1.570796326794715
 10
98.12479428696235
 20
49.28580499204919
 30
0.0
 10
98.16192719794941
 20
49.26831133635988
 30
0.0
 10
98.19848379852242
 20
49.22972744564716
 30
0.0
 10
98.21956840200661
 20
49.18824854082747
 30
0.0
 10
98.23099918873049
 20
49.16576120712488
 30
0.0
 10
98.2380075106062
 20
49.14270804309504
 30
0.0
 10
98.23983850039716
 20
49.12260398801503
 30
0.0
  0
LINE
  5
28F
330
6C
100
AcDbEntity
  8
Visible (ANSI)
100
AcDbLine
 10
96.55586576086562
 20
49.28580499204906
 30
0.0
 11
98.12479428696235
 21
49.28580499204919
 31
0.0
  0
SPLINE
  5
290
330
6C
100
AcDbEntity
  8
Visible (ANSI)
100
AcDbSpline
210
0.0
220
0.0
230
1.0
 70
     8
 71
     3
 72
    10
 73
     6
 74
     0
 42
0.0000000001
 43
0.0000000001
 40
0.0
 40
0.0
 40
0.0
 40
0.0
 40
0.0122589744718898
 40
0.0122589744718898
 40
0.015246778519465
 40
0.015246778519465
 40
0.015246778519465
 40
0.015246778519465
 10
84.12088146092234
 20
57.26731377763342
 30
0.0
 10
84.12202169304157
 20
57.26812974629044
 30
0.0
 10
84.12301456330268
 20
57.26897631610576
 30
0.0
 10
84.12400308429637
 20
57.26992368709819
 30
0.0
 10
84.12418627004262
 20
57.27010538631016
 30
0.0
 10
84.12435874245066
 20
57.2702816836272
 30
0.0
  0
SPLINE
  5
291
330
6C
100
AcDbEntity
  8
Visible (ANSI)
100
AcDbSpline
210
0.0
220
0.0
230
1.0
 70
     8
 71
     3
 72
    10
 73
     6
 74
     0
 42
0.0000000001
 43
0.0000000001
 40
0.0668604181198685
 40
0.0668604181198685
 40
0.0668604181198685
 40
0.0668604181198685
 40
0.0723508068919237
 40
0.0723508068919237
 40
0.0821221175208208
 40
0.0821221175208208
 40
0.0821221175208208
 40
0.0821221175208208
 10
84.09310874245067
 20
57.2702819238142
 30
0.0
 10
84.09342648509731
 20
57.26995727309788
 30
0.0
 10
84.09378087899117
 20
57.26961377149807
 30
0.0
 10
84.09486268939783
 20
57.26863272722095
 30
0.0
 10
84.09567717452732
 20
57.26796416508872
 30
0.0
 10
84.09658602397895
 20
57.26731377763343
 30
0.0
  0
ELLIPSE
  5
292
330
6C
100
AcDbEntity
  8
Visible (ANSI)
100
AcDbEllipse
 10
88.57234529869211
 20
42.25904705754056
 30
0.0
 11
0.28125
 21
-0.0000000000000169
 31
0.0
210
0.0
220
0.0
230
1.0
 40
0.5758617009853115
 41
0.0
 42
6.283185307179586
  0
ELLIPSE
  5
293
330
6C
100
AcDbEntity
  8
Visible (ANSI)
100
AcDbEllipse
 10
88.57234529869211
 20
42.15685366693524
 30
0.0
 11
0.28125
 21
-0.0000000000000001
 31
0.0
210
0.0
220
0.0
230
1.0
 40
0.5758617009853115
 41
0.3209702928256473
 42
2.820622360764147
  0
ELLIPSE
  5
294
330
6C
100
AcDbEntity
  8
Visible (ANSI)
100
AcDbEllipse
 10
80.83836487946372
 20
44.16748563015814
 30
0.0
 11
0.28125
 21
-0.0000000000000168
 31
0.0
210
0.0
220
0.0
230
1.0
 40
0.5758617009853118
 41
0.0
 42
6.283185307179586
  0
ELLIPSE
  5
295
330
6C
100
AcDbEntity
  8
Visible (ANSI)
100
AcDbEllipse
 10
80.83836487946372
 20
44.06529223955283
 30
0.0
 11
0.2812500000000002
 21
-0.0000000000000001
 31
0.0
210
0.0
220
0.0
230
1.0
 40
0.5758617009853117
 41
0.3209702928256468
 42
2.820622360764166
  0
ELLIPSE
  5
296
330
6C
100
AcDbEntity
  8
Visible (ANSI)
100
AcDbEllipse
 10
92.06368503080183
 20
37.70325367370581
 30
0.0
 11
0.28125
 21
-0.0000000000000168
 31
0.0
210
0.0
220
0.0
230
1.0
 40
0.5758617009853118
 41
0.0
 42
6.283185307179586
  0
ELLIPSE
  5
297
330
6C
100
AcDbEntity
  8
Visible (ANSI)
100
AcDbEllipse
 10
92.06368503080184
 20
37.60106028310049
 30
0.0
 11
0.2812499999999991
 21
0.0
 31
0.0
210
0.0
220
0.0
230
1.0
 40
0.5758617009853117
 41
0.3209702928256708
 42
2.820622360764147
  0
ELLIPSE
  5
298
330
6C
100
AcDbEntity
  8
Visible (ANSI)
100
AcDbEllipse
 10
92.68240346434033
 20
36.63436492500098
 30
0.0
 11
-0.1249999999999982
 21
0.0000000000000075
 31
0.0
210
0.0
220
0.0
230
1.0
 40
0.5758617009853117
 41
0.7853981633977432
 42
2.356194490192699
  0
LINE
  5
299
330
6C
100
AcDbEntity
  8
Visible Narrow (ANSI)
100
AcDbLine
 10
92.59401511669203
 20
36.58346546077694
 30
0.0
 11
92.59401511669203
 21
36.48127207017161
 31
0.0
  0
ELLIPSE
  5
29A
330
6C
100
AcDbEntity
  8
Visible (ANSI)
100
AcDbEllipse
 10
92.68240346434033
 20
36.53217153439566
 30
0.0
 11
0.1250000000000001
 21
0.0000000000000074
 31
0.0
210
0.0
220
0.0
230
1.0
 40
0.5758617009853115
 41
3.926990816987148
 42
5.49778714378202
  0
LINE
  5
29B
330
6C
100
AcDbEntity
  8
Visible Narrow (ANSI)
100
AcDbLine
 10
92.77079181198867
 20
36.48127207017163
 30
0.0
 11
92.77079181198867
 21
36.58346546077695
 31
0.0
  0
ELLIPSE
  5
29C
330
6C
100
AcDbEntity
  8
Visible (ANSI)
100
AcDbEllipse
 10
78.98220957884895
 20
44.42158848912096
 30
0.0
 11
-0.125
 21
0.0000000000000001
 31
0.0
210
0.0
220
0.0
230
1.0
 40
0.5758617009853118
 41
0.0000000000000038
 42
0.785398163397613
  0
ELLIPSE
  5
29D
330
6C
100
AcDbEntity
  8
Visible (ANSI)
100
AcDbEllipse
 10
78.98220957884895
 20
44.52378187972628
 30
0.0
 11
-0.125
 21
0.0
 31
0.0
210
0.0
220
0.0
230
1.0
 40
0.5758617009853118
 41
5.497787143782234
 42
7.068583470577114
  0
LINE
  5
29E
330
6C
100
AcDbEntity
  8
Visible Narrow (ANSI)
100
AcDbLine
 10
78.89382123120064
 20
44.3706890248969
 30
0.0
 11
78.89382123120064
 21
44.47288241550222
 31
0.0
  0
ELLIPSE
  5
29F
330
6C
100
AcDbEntity
  8
Visible (ANSI)
100
AcDbEllipse
 10
84.19719079507235
 20
47.62898009773943
 30
0.0
 11
0.1249999999999988
 21
-0.0000000000000074
 31
0.0
210
0.0
220
0.0
230
1.0
 40
0.5758617009853115
 41
0.8248293379543767
 42
2.356194490192613
  0
LINE
  5
2A0
330
6C
100
AcDbEntity
  8
Visible (ANSI)
100
AcDbLine
 10
78.85720957884895
 20
44.42158848912096
 30
0.0
 11
78.85720957884895
 21
44.52378187972628
 31
0.0
  0
LINE
  5
2A1
330
6C
100
AcDbEntity
  8
Visible (ANSI)
100
AcDbLine
 10
92.77079181198867
 20
36.48127207017163
 30
0.0
 11
93.76587601325224
 21
37.05430295093505
 31
0.0
  0
LINE
  5
2A2
330
6C
100
AcDbEntity
  8
Visible (ANSI)
100
AcDbLine
 10
93.76587601325224
 20
37.15649634154037
 30
0.0
 11
92.77079181198867
 21
36.58346546077695
 31
0.0
  0
LINE
  5
2A3
330
6C
100
AcDbEntity
  8
Visible (ANSI)
100
AcDbLine
 10
78.89382123120064
 20
44.3706890248969
 30
0.0
 11
92.59401511669203
 21
36.48127207017161
 31
0.0
  0
LINE
  5
2A4
330
6C
100
AcDbEntity
  8
Visible (ANSI)
100
AcDbLine
 10
78.89382123120063
 20
44.57468134395031
 30
0.0
 11
79.88890543246419
 21
45.14771222471373
 31
0.0
  0
LINE
  5
2A5
330
6C
100
AcDbEntity
  8
Visible (ANSI)
100
AcDbLine
 10
92.59401511669203
 20
36.58346546077694
 30
0.0
 11
78.89382123120064
 21
44.47288241550222
 31
0.0
  0
ELLIPSE
  5
2A6
330
6C
100
AcDbEntity
  8
Visible (ANSI)
100
AcDbEllipse
 10
93.76587601325224
 20
37.16925007668792
 30
0.0
 11
0.070163928948729
 21
0.1218416311220342
 31
0.0
210
0.0
220
0.0
230
0.9999999999999998
 40
0.5780931159156392
 41
3.925057108563866
 42
4.710455271961564
  0
ELLIPSE
  5
2A7
330
6C
100
AcDbEntity
  8
Visible (ANSI)
100
AcDbEllipse
 10
93.76587601325224
 20
37.16925007668792
 30
0.0
 11
0.0077849025007126
 21
0.0135187016038676
 31
0.0
210
0.0
220
0.0
230
0.9999999999999998
 40
0.5780931159156393
 41
3.925057108564035
 42
4.710455271961504
  0
ELLIPSE
  5
2A8
330
6C
100
AcDbEntity
  8
Visible (ANSI)
100
AcDbEllipse
 10
79.88890543246419
 20
45.16046595986127
 30
0.0
 11
0.0077849025007127
 21
0.0135187016038677
 31
0.0
210
0.0
220
0.0
230
1.0
 40
0.578093115915639
 41
3.925057108564035
 42
4.710455271961271
  0
LINE
  5
2A9
330
6C
100
AcDbEntity
  8
Visible Narrow (ANSI)
100
AcDbLine
 10
93.77367601325223
 20
37.16472354534731
 30
0.0
 11
79.89670543246418
 21
45.15593942852066
 31
0.0
  0
LINE
  5
2AA
330
6C
100
AcDbEntity
  8
Visible Narrow (ANSI)
100
AcDbLine
 10
93.76587601325224
 20
37.15649634154037
 30
0.0
 11
79.88890543246419
 21
45.14771222471373
 31
0.0
  0
LINE
  5
2AB
330
6C
100
AcDbEntity
  8
Visible (ANSI)
100
AcDbLine
 10
93.89212508638257
 20
37.22535973862786
 30
0.0
 11
93.83617601325223
 21
37.12845326216943
 31
0.0
  0
LINE
  5
2AC
330
6C
100
AcDbEntity
  8
Visible (ANSI)
100
AcDbLine
 10
93.77367601325223
 20
37.16472354534731
 30
0.0
 11
93.82962508638257
 21
37.26163002180574
 31
0.0
  0
LINE
  5
2AD
330
6C
100
AcDbEntity
  8
Visible (ANSI)
100
AcDbLine
 10
79.95265450559454
 20
45.2528459049791
 30
0.0
 11
79.89670543246418
 21
45.15593942852066
 31
0.0
  0
ELLIPSE
  5
2AE
330
6C
100
AcDbEntity
  8
Visible (ANSI)
100
AcDbEllipse
 10
93.89992508638256
 20
37.22083320728727
 30
0.0
 11
0.0077849025007132
 21
0.0135187016038667
 31
0.0
210
0.0
220
0.0
230
1.0
 40
0.5780931159156393
 41
0.7834644549668078
 42
1.568862618372053
  0
ELLIPSE
  5
2AF
330
6C
100
AcDbEntity
  8
Visible (ANSI)
100
AcDbEllipse
 10
93.89992508638256
 20
37.22083320728727
 30
0.0
 11
0.0701639289487356
 21
0.1218416311220288
 31
0.0
210
0.0
220
0.0
230
1.0
 40
0.578093115915639
 41
0.7834644549735721
 42
1.568862618371857
  0
ELLIPSE
  5
2B0
330
6C
100
AcDbEntity
  8
Visible (ANSI)
100
AcDbEllipse
 10
80.02295450559453
 20
45.21204909046062
 30
0.0
 11
0.0701639289487364
 21
0.1218416311220301
 31
0.0
210
0.0
220
0.0
230
1.0
 40
0.5780931159156326
 41
0.7834644549744203
 42
1.568862618371857
  0
LINE
  5
2B1
330
6C
100
AcDbEntity
  8
Visible Narrow (ANSI)
100
AcDbLine
 10
93.89992508638265
 20
37.33578033304017
 30
0.0
 11
80.02295450559453
 21
45.32699621621349
 31
0.0
  0
LINE
  5
2B2
330
6C
100
AcDbEntity
  8
Visible Narrow (ANSI)
100
AcDbLine
 10
93.82962508638257
 20
37.26163002180574
 30
0.0
 11
79.95265450559454
 21
45.2528459049791
 31
0.0
  0
LINE
  5
2B3
330
6C
100
AcDbEntity
  8
Visible (ANSI)
100
AcDbLine
 10
93.97847413498686
 20
37.27882033117487
 30
0.0
 11
93.89992508638265
 21
37.23358694243485
 31
0.0
  0
LINE
  5
2B4
330
6C
100
AcDbEntity
  8
Visible (ANSI)
100
AcDbLine
 10
93.89992508638265
 20
37.33578033304017
 30
0.0
 11
93.96356809460568
 21
37.37242990401132
 31
0.0
  0
LINE
  5
2B5
330
6C
100
AcDbEntity
  8
Visible (ANSI)
100
AcDbLine
 10
84.10880244742402
 20
47.67987956196345
 30
0.0
 11
80.02295450559453
 21
45.32699621621349
 31
0.0
  0
LINE
  5
2B6
330
6C
100
AcDbEntity
  8
Visible Narrow (ANSI)
100
AcDbLine
 10
84.28202608446845
 20
47.68184650300661
 30
0.0
 11
93.13360795207737
 21
42.58455951231611
 31
0.0
  0
DIMENSION
  5
2B7
330
6C
100
AcDbEntity
  8
Dimension (ANSI)
100
AcDbDimension
  2
*D4
 10
31.3085667331762
 20
29.56114266988425
 30
0.0
 11
31.30856673317619
 21
35.56107959928514
 31
0.0
 70
   160
  1
<>{\PHEIGHT}
 71
     5
 42
11.99987385880177
  3
Default (ANSI)
100
AcDbAlignedDimension
 13
33.67077145758564
 23
41.56101652868602
 33
0.0
 14
33.90517145758561
 24
29.56114266988425
 34
0.0
 50
90.0
100
AcDbRotatedDimension
1001
ACAD
1000
DSTYLE
1002
{
1070
   289
1070
     1
1070
   271
1070
     2
1070
   272
1070
     2
1070
    48
1040
0.0
1070
    47
1040
0.0
1002
}
  0
DIMENSION
  5
3B8
330
6C
100
AcDbEntity
  8
Dimension (ANSI)
100
AcDbDimension
  2
*D5
 10
53.65517145758567
 20
43.38892046569391
 30
0.0
 11
43.59267145758566
 21
43.38892046569391
 31
0.0
 70
   160
  1
<>{\PWIDTH}
 71
     5
 42
20.12500000000004
  3
Default (ANSI)
100
AcDbAlignedDimension
 13
33.53017145758564
 23
41.42041652868603
 33
0.0
 14
53.65517145758567
 24
41.42041652868603
 34
0.0
100
AcDbRotatedDimension
1001
ACAD
1000
DSTYLE
1002
{
1070
   289
1070
     1
1070
    73
1070
     0
1070
    74
1070
     0
1070
   271
1070
     2
1070
   272
1070
     2
1070
    48
1040
0.0
1070
    47
1040
0.0
1002
}
  0
DIMENSION
  5
4B6
330
6C
100
AcDbEntity
  8
Dimension (ANSI)
100
AcDbDimension
  2
*D6
 10
18.49895596985181
 20
44.61037174985697
 30
0.0
 11
14.4989559698518
 21
44.61037174985697
 31
0.0
 70
   160
  1
<>
 42
8.000000000000001
  3
Default (ANSI)
100
AcDbAlignedDimension
 13
10.49895596985181
 23
41.42041652868603
 33
0.0
 14
18.49895596985181
 24
41.56101652868602
 34
0.0
100
AcDbRotatedDimension
1001
ACAD
1000
DSTYLE
1002
{
1070
   289
1070
     1
1070
    73
1070
     0
1070
    74
1070
     0
1070
   271
1070
     2
1070
   272
1070
     2
1070
    48
1040
0.0
1070
    47
1040
0.0
1002
}
  0
DIMENSION
  5
5A0
330
6C
100
AcDbEntity
  8
Dimension (ANSI)
100
AcDbDimension
  2
*D7
 10
20.66458508361492
 20
44.46819477105618
 30
0.0
 11
21.46397359116781
 21
43.65582299624731
 31
0.0
 70
   165
  1
<>
 42
1.403725741975229
  3
Default (ANSI)
100
AcDb3PointAngularDimension
 13
18.89766711881376
 23
41.56101652868602
 33
0.0
 14
18.58502753392713
 24
41.93079508218377
 34
0.0
 15
18.52266711881377
 25
41.56101652868602
 35
0.0
1001
ACAD_DSTYLE_DIMANGULAR_EXTENSION
1070
   387
1070
     1
1001
ACAD
1000
DSTYLE
1002
{
1070
   179
1070
     0
1070
   272
1070
     0
1070
    48
1040
0.0
1070
    47
1040
0.0
1002
}
  0
DIMENSION
  5
6C9
330
6C
100
AcDbEntity
  8
Dimension (ANSI)
100
AcDbDimension
  2
*D8
 10
53.65517145758968
 20
51.14351349128147
 30
0.0
 11
57.36456878858717
 21
51.14351349128147
 31
0.0
 70
   160
  1
<>{\P(2 PL.)}
 71
     5
 42
1.249999999999985
  3
Default (ANSI)
100
AcDbAlignedDimension
 13
52.40517145758969
 23
51.3550540155427
 33
0.0
 14
53.65517145758968
 24
51.28751658137804
 34
0.0
100
AcDbRotatedDimension
1001
ACAD
1000
DSTYLE
1002
{
1070
   289
1070
     1
1070
    73
1070
     0
1070
    74
1070
     0
1070
   271
1070
     2
1070
    76
1070
     1
1070
    75
1070
     1
1070
   272
1070
     2
1070
    48
1040
0.0
1070
    47
1040
0.0
1002
}
  0
DIMENSION
  5
7B8
330
6C
100
AcDbEntity
  8
Dimension (ANSI)
100
AcDbDimension
  2
*D9
 10
37.10285372303433
 20
48.76258295859243
 30
0.0
 11
38.75380985312746
 21
51.6308460465886
 31
0.0
 70
   160
  1
<>
 42
1.249999999999957
  3
Default (ANSI)
100
AcDbAlignedDimension
 13
38.41167578884286
 23
50.01258295859239
 33
0.0
 14
39.34734515265652
 24
48.76258295859243
 34
0.0
 50
270.0
100
AcDbRotatedDimension
1001
ACAD
1000
DSTYLE
1002
{
1070
   289
1070
     1
1070
   271
1070
     2
1070
    76
1070
     1
1070
    75
1070
     1
1070
   272
1070
     2
1070
    48
1040
0.0
1070
    47
1040
0.0
1002
}
  0
LINE
  5
8AC
330
6C
100
AcDbEntity
  8
Center Mark (ANSI)
  6
CHAIN
 48
0.1908618211746216
100
AcDbLine
 10
34.21767145758161
 20
15.99977222655276
 30
0.0
 11
34.21767145758161
 21
13.93727222655276
 31
0.0
  0
LINE
  5
8AD
330
6C
100
AcDbEntity
  8
Center Mark (ANSI)
  6
CHAIN
 48
0.1908618211746216
100
AcDbLine
 10
34.21767145758161
 20
20.99977222655276
 30
0.0
 11
34.21767145758161
 21
18.93727222655276
 31
0.0
  0
LINE
  5
8AE
330
6C
100
AcDbEntity
  8
Centerline (ANSI)
  6
CHAIN
 48
0.9524481296539306
100
AcDbLine
 10
34.21767145758161
 20
13.93727222655276
 30
0.0
 11
34.21767145758161
 21
20.99977222655276
 31
0.0
  0
LINE
  5
8AF
330
6C
100
AcDbEntity
  8
Center Mark (ANSI)
  6
CHAIN
 48
0.1908618211746216
100
AcDbLine
 10
35.7801714575816
 20
22.31227222655277
 30
0.0
 11
35.7801714575816
 21
20.24977222655277
 31
0.0
  0
LINE
  5
8B0
330
6C
100
AcDbEntity
  8
Center Mark (ANSI)
  6
CHAIN
 48
0.1908618211746216
100
AcDbLine
 10
51.4051714575816
 20
22.31227222655277
 30
0.0
 11
51.4051714575816
 21
20.24977222655277
 31
0.0
  0
LINE
  5
8B1
330
6C
100
AcDbEntity
  8
Centerline (ANSI)
  6
CHAIN
 48
0.9524481296539306
100
AcDbLine
 10
34.7489214575816
 20
21.28102222655277
 30
0.0
 11
52.4364214575816
 21
21.28102222655277
 31
0.0
  0
LINE
  5
8B2
330
6C
100
AcDbEntity
  8
Center Mark (ANSI)
  6
CHAIN
 48
0.1908618211746216
100
AcDbLine
 10
52.9676714575816
 20
20.99977222655277
 30
0.0
 11
52.9676714575816
 21
18.93727222655276
 31
0.0
  0
LINE
  5
8B3
330
6C
100
AcDbEntity
  8
Center Mark (ANSI)
  6
CHAIN
 48
0.1908618211746216
100
AcDbLine
 10
52.96767145758163
 20
15.99977222655277
 30
0.0
 11
52.96767145758163
 21
13.93727222655277
 31
0.0
  0
LINE
  5
8B4
330
6C
100
AcDbEntity
  8
Centerline (ANSI)
  6
CHAIN
 48
0.9524481296539306
100
AcDbLine
 10
52.9676714575816
 20
20.99977222655277
 30
0.0
 11
52.96767145758164
 21
13.93727222655277
 31
0.0
  0
DIMENSION
  5
8B5
330
6C
100
AcDbEntity
  8
Dimension (ANSI)
100
AcDbDimension
  2
*D10
 10
31.58505717211539
 20
19.96852222655276
 30
0.0
 11
29.89124389852648
 21
18.94081031965891
 31
0.0
 70
   160
  1
<>
 42
1.999999999999964
  3
Default (ANSI)
100
AcDbAlignedDimension
 13
33.6707714575816
 23
21.96852222655273
 33
0.0
 14
33.1864214575816
 24
19.96852222655276
 34
0.0
 50
270.0
100
AcDbRotatedDimension
1001
ACAD
1000
DSTYLE
1002
{
1070
   289
1070
     2
1070
   271
1070
     2
1070
   272
1070
     2
1070
    48
1040
0.0
1070
    47
1040
0.0
1002
}
  0
DIMENSION
  5
9B5
330
6C
100
AcDbEntity
  8
Dimension (ANSI)
100
AcDbDimension
  2
*D11
 10
27.05659822923515
 20
14.96852222655276
 30
0.0
 11
27.05659822923514
 21
18.46852222655274
 31
0.0
 70
   160
  1
<>
 42
6.999999999999964
  3
Default (ANSI)
100
AcDbAlignedDimension
 13
33.6707714575816
 23
21.96852222655273
 33
0.0
 14
33.1864214575816
 24
14.96852222655276
 34
0.0
 50
270.0
100
AcDbRotatedDimension
1001
ACAD
1000
DSTYLE
1002
{
1070
   289
1070
     1
1070
   271
1070
     2
1070
   272
1070
     2
1070
    48
1040
0.0
1070
    47
1040
0.0
1002
}
  0
DIMENSION
  5
A9F
330
6C
100
AcDbEntity
  8
Dimension (ANSI)
100
AcDbDimension
  2
*D12
 10
29.96949232368815
 20
21.28102222655277
 30
0.0
 11
31.64901988277846
 21
23.58678531454894
 31
0.0
 70
   160
  1
<>
 42
0.6874999999999574
  3
Default (ANSI)
100
AcDbAlignedDimension
 13
33.6707714575816
 23
21.96852222655273
 33
0.0
 14
34.7489214575816
 24
21.28102222655277
 34
0.0
 50
270.0
100
AcDbRotatedDimension
1001
ACAD
1000
DSTYLE
1002
{
1070
   289
1070
     1
1070
   271
1070
     2
1070
   272
1070
     2
1070
    48
1040
0.0
1070
    47
1040
0.0
1002
}
  0
DIMENSION
  5
B9F
330
6C
100
AcDbEntity
  8
Dimension (ANSI)
100
AcDbDimension
  2
*D13
 10
51.4051714575816
 20
24.43790465023329
 30
0.0
 11
55.7593610632757
 21
24.43790465023329
 31
0.0
 70
   160
  1
<>
 42
2.249999999999992
  3
Default (ANSI)
100
AcDbAlignedDimension
 13
53.65517145758159
 23
21.82792222655272
 33
0.0
 14
51.4051714575816
 24
22.31227222655277
 34
0.0
 50
180.0
100
AcDbRotatedDimension
1001
ACAD
1000
DSTYLE
1002
{
1070
   289
1070
     2
1070
    73
1070
     0
1070
    74
1070
     0
1070
   271
1070
     2
1070
   272
1070
     2
1070
    48
1040
0.0
1070
    47
1040
0.0
1002
}
  0
DIMENSION
  5
C89
330
6C
100
AcDbEntity
  8
Dimension (ANSI)
100
AcDbDimension
  2
*D14
 10
35.7801714575816
 20
24.43790465023329
 30
0.0
 11
37.47398473117051
 21
24.43790465023329
 31
0.0
 70
   160
  1
<>
 42
2.25
  3
Default (ANSI)
100
AcDbAlignedDimension
 13
33.53017145758161
 23
21.82792222655272
 33
0.0
 14
35.7801714575816
 24
22.31227222655277
 34
0.0
100
AcDbRotatedDimension
1001
ACAD
1000
DSTYLE
1002
{
1070
   289
1070
     2
1070
    73
1070
     0
1070
    74
1070
     0
1070
   271
1070
     2
1070
   272
1070
     2
1070
    48
1040
0.0
1070
    47
1040
0.0
1002
}
  0
LINE
  5
D73
330
6C
100
AcDbEntity
  8
Centerline (ANSI)
  6
CHAIN
 48
0.9524481296539306
100
AcDbLine
 10
33.1864214575816
 20
19.96852222655276
 30
0.0
 11
53.99892145758161
 21
19.96852222655277
 31
0.0
  0
LINE
  5
D74
330
6C
100
AcDbEntity
  8
Centerline (ANSI)
  6
CHAIN
 48
0.9524481296539306
100
AcDbLine
 10
33.1864214575816
 20
14.96852222655276
 30
0.0
 11
53.99892145758164
 21
14.96852222655277
 31
0.0
  0
DIMENSION
  5
D75
330
6C
100
AcDbEntity
  8
Dimension (ANSI)
100
AcDbDimension
  2
*D15
 10
34.21767145758161
 20
12.71159621108191
 30
0.0
 11
29.8207741265841
 21
12.71159621108191
 31
0.0
 70
   160
  1
<>{\P(2 PL.)}
 71
     5
 42
0.6875000000000071
  3
Default (ANSI)
100
AcDbAlignedDimension
 13
33.53017145758161
 23
13.96852222655273
 33
0.0
 14
34.21767145758161
 24
13.93727222655277
 34
0.0
100
AcDbRotatedDimension
1001
ACAD
1000
DSTYLE
1002
{
1070
   289
1070
     1
1070
    73
1070
     0
1070
    74
1070
     0
1070
   271
1070
     2
1070
   272
1070
     2
1070
    48
1040
0.0
1070
    47
1040
0.0
1002
}
  0
DIMENSION
  5
E73
330
6C
100
AcDbEntity
  8
Dimension (ANSI)
100
AcDbDimension
  2
*D16
 10
52.79421059617598
 20
14.74713367206
 30
0.0
 11
57.68127800902476
 21
17.66750759735286
 31
0.0
 70
   163
  1
<>{\P(6 PL.)}
 71
     5
 42
0.5625
  3
Default (ANSI)
100
AcDbDiametricDimension
 15
53.14113231898731
 25
15.18991078104556
 35
0.0
 40
0.0
1001
ACAD
1000
DSTYLE
1002
{
1070
   144
1040
1.000000000000025
1070
   271
1070
     3
1070
   272
1070
     2
1070
    48
1040
0.0
1070
    47
1040
0.0
1002
}
1001
ACAD_DSTYLE_DIMRADIAL_EXTENSION
1070
   387
1070
     1
1070
   388
1040
0.0
1070
   390
1040
0.0
  0
LINE
  5
F2D
330
6C
100
AcDbEntity
  8
Center Mark (ANSI)
  6
CHAIN
 48
0.1908618211746216
100
AcDbLine
 10
35.65517145758963
 20
56.54383295859239
 30
0.0
 11
35.65517145758963
 21
54.48133295859238
 31
0.0
  0
LINE
  5
F2E
330
6C
100
AcDbEntity
  8
Center Mark (ANSI)
  6
CHAIN
 48
0.1908618211746216
100
AcDbLine
 10
51.53017145758964
 20
56.54383295859239
 30
0.0
 11
51.53017145758964
 21
54.48133295859238
 31
0.0
  0
LINE
  5
F2F
330
6C
100
AcDbEntity
  8
Centerline (ANSI)
  6
CHAIN
 48
0.9524481296539306
100
AcDbLine
 10
34.62392145758963
 20
55.51258295859239
 30
0.0
 11
52.56142145758964
 21
55.51258295859239
 31
0.0
  0
LINE
  5
F30
330
6C
100
AcDbEntity
  8
Center Mark (ANSI)
  6
CHAIN
 48
0.1908618211746216
100
AcDbLine
 10
44.62392145758963
 20
52.51258295859242
 30
0.0
 11
42.56142145758962
 21
52.51258295859242
 31
0.0
  0
LINE
  5
F31
330
6C
100
AcDbEntity
  8
Center Mark (ANSI)
  6
CHAIN
 48
0.1908618211746216
100
AcDbLine
 10
43.59267145758963
 20
53.54383295859243
 30
0.0
 11
43.59267145758963
 21
51.48133295859242
 31
0.0
  0
DIMENSION
  5
F32
330
6C
100
AcDbEntity
  8
Dimension (ANSI)
100
AcDbDimension
  2
*D17
 10
35.65517145758963
 20
59.12478768300536
 30
0.0
 11
37.75936106328375
 21
59.12478768300536
 31
0.0
 70
   160
  1
<>
 42
2.124999999999964
  3
Default (ANSI)
100
AcDbAlignedDimension
 13
33.53017145758967
 23
56.7625829585959
 33
0.0
 14
35.65517145758963
 24
56.54383295859239
 34
0.0
 50
180.0
100
AcDbRotatedDimension
1001
ACAD
1000
DSTYLE
1002
{
1070
   289
1070
     2
1070
    73
1070
     0
1070
    74
1070
     0
1070
   271
1070
     2
1070
   272
1070
     2
1070
    48
1040
0.0
1070
    47
1040
0.0
1002
}
  0
DIMENSION
  5
101C
330
6C
100
AcDbEntity
  8
Dimension (ANSI)
100
AcDbDimension
  2
*D18
 10
43.59267145758963
 20
60.80018140553625
 30
0.0
 11
38.56142145758965
 21
60.80018140553625
 31
0.0
 70
   160
  1
<>
 42
10.06249999999996
  3
Default (ANSI)
100
AcDbAlignedDimension
 13
33.53017145758967
 23
56.7625829585959
 33
0.0
 14
43.59267145758963
 24
53.54383295859243
 34
0.0
 50
180.0
100
AcDbRotatedDimension
1001
ACAD
1000
DSTYLE
1002
{
1070
   289
1070
     1
1070
    73
1070
     0
1070
    74
1070
     0
1070
   271
1070
     2
1070
   272
1070
     2
1070
    48
1040
0.0
1070
    47
1040
0.0
1002
}
  0
DIMENSION
  5
1106
330
6C
100
AcDbEntity
  8
Dimension (ANSI)
100
AcDbDimension
  2
*D19
 10
51.53017145758964
 20
59.12478768300537
 30
0.0
 11
55.75936106328381
 21
59.12478768300537
 31
0.0
 70
   160
  1
<>
 42
2.125000000000063
  3
Default (ANSI)
100
AcDbAlignedDimension
 13
53.6551714575897
 23
56.7625829585959
 33
0.0
 14
51.53017145758964
 24
56.54383295859239
 34
0.0
 50
180.0
100
AcDbRotatedDimension
1001
ACAD
1000
DSTYLE
1002
{
1070
   289
1070
     2
1070
    73
1070
     0
1070
    74
1070
     0
1070
   271
1070
     2
1070
   272
1070
     2
1070
    48
1040
0.0
1070
    47
1040
0.0
1002
}
  0
DIMENSION
  5
11F0
330
6C
100
AcDbEntity
  8
Dimension (ANSI)
100
AcDbDimension
  2
*D20
 10
32.81892286327336
 20
55.51258295859239
 30
0.0
 11
31.16796673318022
 21
53.89431987059619
 31
0.0
 70
   160
  1
<>
 42
1.250000000003517
  3
Default (ANSI)
100
AcDbAlignedDimension
 13
33.53017145758967
 23
56.7625829585959
 33
0.0
 14
34.62392145758963
 24
55.51258295859239
 34
0.0
 50
90.0
100
AcDbRotatedDimension
1001
ACAD
1000
DSTYLE
1002
{
1070
   289
1070
     1
1070
   271
1070
     2
1070
   272
1070
     2
1070
    48
1040
0.0
1070
    47
1040
0.0
1002
}
  0
DIMENSION
  5
12ED
330
6C
100
AcDbEntity
  8
Dimension (ANSI)
100
AcDbDimension
  2
*D21
 10
28.33332106388889
 20
52.51258295859242
 30
0.0
 11
28.33332106388888
 21
54.63758295859417
 31
0.0
 70
   160
  1
<>
 42
4.250000000003481
  3
Default (ANSI)
100
AcDbAlignedDimension
 13
33.53017145758967
 23
56.7625829585959
 33
0.0
 14
42.56142145758962
 24
52.51258295859242
 34
0.0
 50
90.0
100
AcDbRotatedDimension
1001
ACAD
1000
DSTYLE
1002
{
1070
   289
1070
     1
1070
   271
1070
     2
1070
   272
1070
     2
1070
    48
1040
0.0
1070
    47
1040
0.0
1002
}
  0
DIMENSION
  5
13DD
330
6C
100
AcDbEntity
  8
Dimension (ANSI)
100
AcDbDimension
  2
*D22
 10
43.40912206385327
 20
52.72568195567832
 30
0.0
 11
51.19361865885024
 21
46.70527489817717
 31
0.0
 70
   163
  1
<>{\P(3 PL.)}
 71
     5
 42
0.5625
  3
Default (ANSI)
100
AcDbDiametricDimension
 15
43.77622085132595
 25
52.2994839615065
 35
0.0
 40
0.0
1001
ACAD
1000
DSTYLE
1002
{
1070
   144
1040
0.9999999999999873
1070
   271
1070
     3
1070
   272
1070
     3
1070
    48
1040
0.0
1070
    47
1040
0.0
1002
}
1001
ACAD_DSTYLE_DIMRADIAL_EXTENSION
1070
   387
1070
     1
1070
   388
1040
0.0
1070
   390
1040
0.0
  0
DIMENSION
  5
1496
330
6C
100
AcDbEntity
  8
Dimension (ANSI)
100
AcDbDimension
  2
*D23
 10
18.24895596985187
 20
27.97988680644643
 30
0.0
 11
14.37395596985184
 21
27.97988680644643
 31
0.0
 70
   160
  1
<>
 42
7.750000000000065
  3
Default (ANSI)
100
AcDbAlignedDimension
 13
10.49895596985181
 23
29.70161652868604
 33
0.0
 14
18.24895596985187
 24
29.56114266988425
 34
0.0
100
AcDbRotatedDimension
1001
ACAD
1000
DSTYLE
1002
{
1070
   289
1070
     1
1070
    73
1070
     0
1070
    74
1070
     0
1070
   271
1070
     2
1070
   272
1070
     2
1070
    48
1040
0.0
1070
    47
1040
0.0
1002
}
  0
MTEXT
  5
1580
102
{ACAD_XDICTIONARY
360
158C
102
}
330
6C
100
AcDbEntity
  8
Symbol (ANSI)
100
AcDbMText
 10
56.99395435522495
 20
5.117934984903428
 30
0.0
 40
0.6000000191485788
 41
44.30032264529253
 71
     4
 72
     1
  3
{\fRomanS|b0|i0|c0|p2;\H2x;PART#: SSFK1220\P(DATA SUBJECT TO CHANGE WITHOUT NOTICE)\H1.6157x; \H0.61894x;\P \H1.352x; \H0.73963x;\P\H0.6x;THIS DRAWING IS PROPERTY OF HUBBELL INC. WIEGMANN\H1.5633x; \H0.63966x;\PALL INFORMATION IS PROPRIETARY AND NOT 
  1
TO BE DUPLICATED\H1.234x; \H0.81039x;\P\H1.2571x; }
  7
Note Text (ANSI)
 73
     1
 44
0.8026435375213623
  0
ENDSEC
  0
SECTION
  2
OBJECTS
  0
DICTIONARY
  5
C
330
0
100
AcDbDictionary
281
     1
  3
ACAD_CIP_PREVIOUS_PRODUCT_INFO
350
1582
  3
ACAD_COLOR
350
63
  3
ACAD_GROUP
350
D
  3
ACAD_LAYOUT
350
62
  3
ACAD_MATERIAL
350
10
  3
ACAD_MLEADERSTYLE
350
66
  3
ACAD_MLINESTYLE
350
5F
  3
ACAD_PLOTSETTINGS
350
61
  3
ACAD_PLOTSTYLENAME
350
E
  3
ACAD_SCALELIST
350
42
  3
ACAD_TABLESTYLE
350
64
  3
ACAD_VISUALSTYLE
350
29
  3
ACDB_RECOMPOSE_DATA
350
158E
  3
AcDbVariableDictionary
350
76
  0
DICTIONARY
  5
15C4
330
F27
100
AcDbDictionary
280
     1
281
     1
  3
ACAD_MTEXT_2008_RT
360
15C5
  0
DICTIONARY
  5
15C6
330
1490
100
AcDbDictionary
280
     1
281
     1
  3
ACAD_MTEXT_2008_RT
360
15C7
  0
DICTIONARY
  5
158C
330
1580
100
AcDbDictionary
280
     1
281
     1
  3
ACAD_MTEXT_2008_RT
360
158D
  0
XRECORD
  5
1582
102
{ACAD_REACTORS
330
C
102
}
330
C
100
AcDbXrecord
280
     1
300
INVNTOR
300
2012
300
PDSP_F_S
  0
DICTIONARY
  5
63
102
{ACAD_REACTORS
330
C
102
}
330
C
100
AcDbDictionary
281
     1
  0
DICTIONARY
  5
D
102
{ACAD_REACTORS
330
C
102
}
330
C
100
AcDbDictionary
281
     1
  0
DICTIONARY
  5
62
102
{ACAD_REACTORS
330
C
102
}
330
C
100
AcDbDictionary
281
     1
  3
Layout1
350
6B
  3
Layout2
350
73
  3
Model
350
6F
  0
DICTIONARY
  5
10
102
{ACAD_REACTORS
330
C
102
}
330
C
100
AcDbDictionary
281
     1
  3
ByBlock
350
19
  3
ByLayer
350
11
  3
Global
350
21
  0
DICTIONARY
  5
66
102
{ACAD_REACTORS
330
C
102
}
330
C
100
AcDbDictionary
281
     1
  3
Standard
350
67
  0
DICTIONARY
  5
5F
102
{ACAD_REACTORS
330
C
102
}
330
C
100
AcDbDictionary
281
     1
  3
Standard
350
60
  0
DICTIONARY
  5
61
102
{ACAD_REACTORS
330
C
102
}
330
C
100
AcDbDictionary
281
     1
  0
ACDBDICTIONARYWDFLT
  5
E
102
{ACAD_REACTORS
330
C
102
}
330
C
100
AcDbDictionary
281
     1
  3
Normal
350
F
100
AcDbDictionaryWithDefault
340
F
  0
DICTIONARY
  5
42
102
{ACAD_REACTORS
330
C
102
}
330
C
100
AcDbDictionary
281
     1
  3
A0
350
43
  3
A1
350
44
  3
A2
350
45
  3
A3
350
46
  3
A4
350
47
  3
A5
350
48
  3
A6
350
49
  3
A7
350
4A
  3
A8
350
4B
  3
A9
350
4C
  3
B0
350
4D
  3
B1
350
4E
  3
B2
350
4F
  3
B3
350
50
  3
B4
350
51
  3
B5
350
52
  3
B6
350
53
  0
DICTIONARY
  5
64
102
{ACAD_REACTORS
330
C
102
}
330
C
100
AcDbDictionary
281
     1
  3
Standard
350
65
  0
DICTIONARY
  5
29
102
{ACAD_REACTORS
330
C
102
}
330
C
100
AcDbDictionary
281
     1
  3
2dWireframe
350
2F
  3
Basic
350
2E
  3
Brighten
350
35
  3
ColorChange
350
39
  3
Conceptual
350
32
  3
Dim
350
34
  3
EdgeColorOff
350
41
  3
Facepattern
350
38
  3
Flat
350
2A
  3
FlatWithEdges
350
2B
  3
Gouraud
350
2C
  3
GouraudWithEdges
350
2D
  3
Hidden
350
31
  3
JitterOff
350
3F
  3
Linepattern
350
37
  3
OverhangOff
350
40
  3
Realistic
350
33
  3
Shaded
350
3E
  3
Shaded with edges
350
3D
  3
Shades of Gray
350
3A
  3
Sketchy
350
3B
  3
Thicken
350
36
  3
Wireframe
350
30
  3
X-Ray
350
3C
  0
XRECORD
  5
158E
102
{ACAD_REACTORS
330
C
102
}
330
C
100
AcDbXrecord
280
     1
 90
        1
330
65
330
8B5
330
B9F
330
C89
330
F32
330
1106
330
1580
  0
DICTIONARY
  5
76
102
{ACAD_REACTORS
330
C
102
}
330
C
100
AcDbDictionary
281
     1
  3
CANNOSCALE
350
79
  3
CMLEADERSTYLE
350
78
  3
CTABLESTYLE
350
77
  3
LAYEREVAL
350
1585
  3
LAYERNOTIFY
350
1586
  3
LIGHTINGUNITS
350
1584
  3
MSLTSCALE
350
1583
  3
XCLIPFRAME
350
1587
  0
XRECORD
  5
15C5
102
{ACAD_REACTORS
330
15C4
102
}
330
15C4
100
AcDbXrecord
280
     1
 40
24491.0
  1
\A1;\U+22050.563{\P(6 PL.)}
  0
XRECORD
  5
15C7
102
{ACAD_REACTORS
330
15C6
102
}
330
15C6
100
AcDbXrecord
280
     1
 40
24428.0
  1
\A1;\U+22050.563{\P(3 PL.)}
  0
XRECORD
  5
158D
102
{ACAD_REACTORS
330
158C
102
}
330
158C
100
AcDbXrecord
280
     1
 40
3068727.0
  1
\pxsm0.94;{\fRomanS|b0|i0;\H1.2000;PART#: SSFK1220\P(DATA SUBJECT TO CHANGE WITHOUT NOTICE)\P \P\fRomanS|b0|i0;\H0.7200;THIS DRAWING IS PROPERTY OF HUBBELL INC. WIEGMANN\PALL INFORMATION IS PROPRIETARY AND NOT TO BE DUPLICATED\P}
  0
LAYOUT
  5
6B
102
{ACAD_REACTORS
330
62
102
}
330
62
100
AcDbPlotSettings
  1

  2

  4

  6

 40
0.0
 41
0.0
 42
0.0
 43
0.0
 44
0.0
 45
0.0
 46
0.0
 47
0.0
 48
0.0
 49
0.0
140
0.0
141
0.0
142
1.0
143
1.0
 70
   688
 72
     0
 73
     0
 74
     5
  7

 75
    16
147
1.0
 76
     0
 77
     2
 78
   300
148
0.0
149
0.0
100
AcDbLayout
  1
Layout1
 70
     1
 71
     1
 10
0.0
 20
0.0
 11
12.0
 21
9.0
 12
0.0
 22
0.0
 32
0.0
 14
0.0
 24
0.0
 34
0.0
 15
0.0
 25
0.0
 35
0.0
146
0.0
 13
0.0
 23
0.0
 33
0.0
 16
1.0
 26
0.0
 36
0.0
 17
0.0
 27
1.0
 37
0.0
 76
     0
330
68
  0
LAYOUT
  5
73
102
{ACAD_REACTORS
330
62
102
}
330
62
100
AcDbPlotSettings
  1

  2

  4

  6

 40
0.0
 41
0.0
 42
0.0
 43
0.0
 44
0.0
 45
0.0
 46
0.0
 47
0.0
 48
0.0
 49
0.0
140
0.0
141
0.0
142
1.0
143
1.0
 70
   688
 72
     0
 73
     0
 74
     5
  7

 75
    16
147
1.0
 76
     0
 77
     2
 78
   300
148
0.0
149
0.0
100
AcDbLayout
  1
Layout2
 70
     1
 71
     2
 10
0.0
 20
0.0
 11
12.0
 21
9.0
 12
0.0
 22
0.0
 32
0.0
 14
0.0
 24
0.0
 34
0.0
 15
0.0
 25
0.0
 35
0.0
146
0.0
 13
0.0
 23
0.0
 33
0.0
 16
1.0
 26
0.0
 36
0.0
 17
0.0
 27
1.0
 37
0.0
 76
     0
330
70
  0
LAYOUT
  5
6F
102
{ACAD_REACTORS
330
62
102
}
330
62
100
AcDbPlotSettings
  1

  2

  4

  6

 40
0.0
 41
0.0
 42
0.0
 43
0.0
 44
0.0
 45
0.0
 46
0.0
 47
0.0
 48
0.0
 49
0.0
140
0.0
141
0.0
142
1.0
143
1.0
 70
  1712
 72
     0
 73
     0
 74
     0
  7

 75
     0
147
1.0
 76
     0
 77
     2
 78
   300
148
0.0
149
0.0
100
AcDbLayout
  1
Model
 70
     1
 71
     0
 10
0.0
 20
0.0
 11
12.0
 21
9.0
 12
0.0
 22
0.0
 32
0.0
 14
0.0
 24
0.0
 34
0.0
 15
0.0
 25
0.0
 35
0.0
146
0.0
 13
0.0
 23
0.0
 33
0.0
 16
1.0
 26
0.0
 36
0.0
 17
0.0
 27
1.0
 37
0.0
 76
     0
330
6C
  0
MATERIAL
  5
19
102
{ACAD_XDICTIONARY
360
1A
102
}
102
{ACAD_REACTORS
330
10
102
}
330
10
100
AcDbMaterial
  1
ByBlock
 72
     0
 43
0.0208333333333333
 43
0.0
 43
0.0
 43
0.0
 43
0.0
 43
0.0208333333333333
 43
0.0
 43
0.0
 43
0.0
 43
0.0
 43
1.0
 43
0.0
 43
0.0
 43
0.0
 43
0.0
 43
1.0
 77
     0
 47
0.0208333333333333
 47
0.0
 47
0.0
 47
0.0
 47
0.0
 47
0.0208333333333333
 47
0.0
 47
0.0
 47
0.0
 47
0.0
 47
1.0
 47
0.0
 47
0.0
 47
0.0
 47
0.0
 47
1.0
171
     0
 49
0.0208333333333333
 49
0.0
 49
0.0
 49
0.0
 49
0.0
 49
0.0208333333333333
 49
0.0
 49
0.0
 49
0.0
 49
0.0
 49
1.0
 49
0.0
 49
0.0
 49
0.0
 49
0.0
 49
1.0
175
     0
142
0.0208333333333333
142
0.0
142
0.0
142
0.0
142
0.0
142
0.0208333333333333
142
0.0
142
0.0
142
0.0
142
0.0
142
1.0
142
0.0
142
0.0
142
0.0
142
0.0
142
1.0
179
     0
144
0.0208333333333333
144
0.0
144
0.0
144
0.0
144
0.0
144
0.0208333333333333
144
0.0
144
0.0
144
0.0
144
0.0
144
1.0
144
0.0
144
0.0
144
0.0
144
0.0
144
1.0
147
0.0208333333333333
147
0.0
147
0.0
147
0.0
147
0.0
147
0.0208333333333333
147
0.0
147
0.0
147
0.0
147
0.0
147
1.0
147
0.0
147
0.0
147
0.0
147
0.0
147
1.0
  0
MATERIAL
  5
11
102
{ACAD_XDICTIONARY
360
12
102
}
102
{ACAD_REACTORS
330
10
102
}
330
10
100
AcDbMaterial
  1
ByLayer
 72
     0
 43
0.0208333333333333
 43
0.0
 43
0.0
 43
0.0
 43
0.0
 43
0.0208333333333333
 43
0.0
 43
0.0
 43
0.0
 43
0.0
 43
1.0
 43
0.0
 43
0.0
 43
0.0
 43
0.0
 43
1.0
 77
     0
 47
0.0208333333333333
 47
0.0
 47
0.0
 47
0.0
 47
0.0
 47
0.0208333333333333
 47
0.0
 47
0.0
 47
0.0
 47
0.0
 47
1.0
 47
0.0
 47
0.0
 47
0.0
 47
0.0
 47
1.0
171
     0
 49
0.0208333333333333
 49
0.0
 49
0.0
 49
0.0
 49
0.0
 49
0.0208333333333333
 49
0.0
 49
0.0
 49
0.0
 49
0.0
 49
1.0
 49
0.0
 49
0.0
 49
0.0
 49
0.0
 49
1.0
175
     0
142
0.0208333333333333
142
0.0
142
0.0
142
0.0
142
0.0
142
0.0208333333333333
142
0.0
142
0.0
142
0.0
142
0.0
142
1.0
142
0.0
142
0.0
142
0.0
142
0.0
142
1.0
179
     0
144
0.0208333333333333
144
0.0
144
0.0
144
0.0
144
0.0
144
0.0208333333333333
144
0.0
144
0.0
144
0.0
144
0.0
144
1.0
144
0.0
144
0.0
144
0.0
144
0.0
144
1.0
147
0.0208333333333333
147
0.0
147
0.0
147
0.0
147
0.0
147
0.0208333333333333
147
0.0
147
0.0
147
0.0
147
0.0
147
1.0
147
0.0
147
0.0
147
0.0
147
0.0
147
1.0
  0
MATERIAL
  5
21
102
{ACAD_XDICTIONARY
360
22
102
}
102
{ACAD_REACTORS
330
10
102
}
330
10
100
AcDbMaterial
  1
Global
 72
     0
 43
0.0208333333333333
 43
0.0
 43
0.0
 43
0.0
 43
0.0
 43
0.0208333333333333
 43
0.0
 43
0.0
 43
0.0
 43
0.0
 43
1.0
 43
0.0
 43
0.0
 43
0.0
 43
0.0
 43
1.0
 77
     0
 47
0.0208333333333333
 47
0.0
 47
0.0
 47
0.0
 47
0.0
 47
0.0208333333333333
 47
0.0
 47
0.0
 47
0.0
 47
0.0
 47
1.0
 47
0.0
 47
0.0
 47
0.0
 47
0.0
 47
1.0
171
     0
 49
0.0208333333333333
 49
0.0
 49
0.0
 49
0.0
 49
0.0
 49
0.0208333333333333
 49
0.0
 49
0.0
 49
0.0
 49
0.0
 49
1.0
 49
0.0
 49
0.0
 49
0.0
 49
0.0
 49
1.0
175
     0
142
0.0208333333333333
142
0.0
142
0.0
142
0.0
142
0.0
142
0.0208333333333333
142
0.0
142
0.0
142
0.0
142
0.0
142
1.0
142
0.0
142
0.0
142
0.0
142
0.0
142
1.0
179
     0
144
0.0208333333333333
144
0.0
144
0.0
144
0.0
144
0.0
144
0.0208333333333333
144
0.0
144
0.0
144
0.0
144
0.0
144
1.0
144
0.0
144
0.0
144
0.0
144
0.0
144
1.0
147
0.0208333333333333
147
0.0
147
0.0
147
0.0
147
0.0
147
0.0208333333333333
147
0.0
147
0.0
147
0.0
147
0.0
147
1.0
147
0.0
147
0.0
147
0.0
147
0.0
147
1.0
  0
MLEADERSTYLE
  5
67
102
{ACAD_XDICTIONARY
360
158A
102
}
102
{ACAD_REACTORS
330
66
102
}
330
66
100
AcDbMLeaderStyle
170
     2
171
     1
172
     0
 90
        2
 40
0.0
 41
0.0
173
     1
 91
-1056964608
340
5B
 92
       -2
290
     1
 42
0.09
291
     1
 43
0.36
  3
Standard
 44
0.18
300

342
55
174
     1
178
     6
175
     1
176
     0
 93
-1056964608
 45
0.18
292
     0
297
     0
 46
0.18
 94
-1056964608
 47
1.0
 49
1.0
140
1.0
293
     1
141
0.0
294
     1
177
     0
142
1.0
295
     0
296
     0
143
0.125
1001
ACAD_MLEADERVER
1070
     2
  0
MLINESTYLE
  5
60
102
{ACAD_REACTORS
330
5F
102
}
330
5F
100
AcDbMlineStyle
  2
STANDARD
 70
     0
  3

 62
   256
 51
90.0
 52
90.0
 71
     2
 49
0.5
 62
   256
  6
BYLAYER
 49
-0.5
 62
   256
  6
BYLAYER
  0
ACDBPLACEHOLDER
  5
F
102
{ACAD_REACTORS
330
E
102
}
330
E
  0
SCALE
  5
43
102
{ACAD_REACTORS
330
42
102
}
330
42
100
AcDbScale
 70
     0
300
1:1
140
1.0
141
1.0
290
     1
  0
SCALE
  5
44
102
{ACAD_REACTORS
330
42
102
}
330
42
100
AcDbScale
 70
     0
300
1/128" = 1'-0"
140
0.0078125
141
12.0
290
     0
  0
SCALE
  5
45
102
{ACAD_REACTORS
330
42
102
}
330
42
100
AcDbScale
 70
     0
300
1/64" = 1'-0"
140
0.015625
141
12.0
290
     0
  0
SCALE
  5
46
102
{ACAD_REACTORS
330
42
102
}
330
42
100
AcDbScale
 70
     0
300
1/32" = 1'-0"
140
0.03125
141
12.0
290
     0
  0
SCALE
  5
47
102
{ACAD_REACTORS
330
42
102
}
330
42
100
AcDbScale
 70
     0
300
1/16" = 1'-0"
140
0.0625
141
12.0
290
     0
  0
SCALE
  5
48
102
{ACAD_REACTORS
330
42
102
}
330
42
100
AcDbScale
 70
     0
300
3/32" = 1'-0"
140
0.09375
141
12.0
290
     0
  0
SCALE
  5
49
102
{ACAD_REACTORS
330
42
102
}
330
42
100
AcDbScale
 70
     0
300
1/8" = 1'-0"
140
0.125
141
12.0
290
     0
  0
SCALE
  5
4A
102
{ACAD_REACTORS
330
42
102
}
330
42
100
AcDbScale
 70
     0
300
3/16" = 1'-0"
140
0.1875
141
12.0
290
     0
  0
SCALE
  5
4B
102
{ACAD_REACTORS
330
42
102
}
330
42
100
AcDbScale
 70
     0
300
1/4" = 1'-0"
140
0.25
141
12.0
290
     0
  0
SCALE
  5
4C
102
{ACAD_REACTORS
330
42
102
}
330
42
100
AcDbScale
 70
     0
300
3/8" = 1'-0"
140
0.375
141
12.0
290
     0
  0
SCALE
  5
4D
102
{ACAD_REACTORS
330
42
102
}
330
42
100
AcDbScale
 70
     0
300
1/2" = 1'-0"
140
0.5
141
12.0
290
     0
  0
SCALE
  5
4E
102
{ACAD_REACTORS
330
42
102
}
330
42
100
AcDbScale
 70
     0
300
3/4" = 1'-0"
140
0.75
141
12.0
290
     0
  0
SCALE
  5
4F
102
{ACAD_REACTORS
330
42
102
}
330
42
100
AcDbScale
 70
     0
300
1" = 1'-0"
140
1.0
141
12.0
290
     0
  0
SCALE
  5
50
102
{ACAD_REACTORS
330
42
102
}
330
42
100
AcDbScale
 70
     0
300
1-1/2" = 1'-0"
140
1.5
141
12.0
290
     0
  0
SCALE
  5
51
102
{ACAD_REACTORS
330
42
102
}
330
42
100
AcDbScale
 70
     0
300
3" = 1'-0"
140
3.0
141
12.0
290
     0
  0
SCALE
  5
52
102
{ACAD_REACTORS
330
42
102
}
330
42
100
AcDbScale
 70
     0
300
6" = 1'-0"
140
6.0
141
12.0
290
     0
  0
SCALE
  5
53
102
{ACAD_REACTORS
330
42
102
}
330
42
100
AcDbScale
 70
     0
300
1'-0" = 1'-0"
140
12.0
141
12.0
290
     0
  0
TABLESTYLE
  5
65
102
{ACAD_XDICTIONARY
360
1588
102
}
102
{ACAD_REACTORS
330
64
102
}
330
64
100
AcDbTableStyle
  3
Standard
 70
     0
 71
     0
 40
0.06
 41
0.06
280
     0
281
     0
  7
Standard
140
0.18
170
     2
 62
     0
 63
     7
283
     0
274
    -2
284
     1
 64
     0
275
    -2
285
     1
 65
     0
276
    -2
286
     1
 66
     0
277
    -2
287
     1
 67
     0
278
    -2
288
     1
 68
     0
279
    -2
289
     1
 69
     0
  7
Standard
140
0.25
170
     5
 62
     0
 63
     7
283
     0
274
    -2
284
     1
 64
     0
275
    -2
285
     1
 65
     0
276
    -2
286
     1
 66
     0
277
    -2
287
     1
 67
     0
278
    -2
288
     1
 68
     0
279
    -2
289
     1
 69
     0
  7
Standard
140
0.18
170
     5
 62
     0
 63
     7
283
     0
274
    -2
284
     1
 64
     0
275
    -2
285
     1
 65
     0
276
    -2
286
     1
 66
     0
277
    -2
287
     1
 67
     0
278
    -2
288
     1
 68
     0
279
    -2
289
     1
 69
     0
  0
VISUALSTYLE
  5
2F
102
{ACAD_XDICTIONARY
360
159C
102
}
102
{ACAD_REACTORS
330
29
102
}
330
29
100
AcDbVisualStyle
  2
2dWireframe
 70
     4
 71
     0
 72
     2
 73
     0
 90
        0
 40
-0.6
 41
-30.0
 62
     5
 63
     7
421
 16777215
 74
     1
 91
        4
 64
     7
 65
   257
 75
     1
175
     1
 42
1.0
 92
        0
 66
   257
 43
1.0
 76
     1
 77
     6
 78
     2
 67
     7
 79
     5
170
     0
171
     0
290
     0
174
     0
 93
        1
 44
0.0
173
     0
291
     0
 45
0.0
1001
ACAD
1000
AcDbSavedByObjectVersion
1070
     0
  0
VISUALSTYLE
  5
2E
102
{ACAD_XDICTIONARY
360
159A
102
}
102
{ACAD_REACTORS
330
29
102
}
330
29
100
AcDbVisualStyle
  2
Basic
 70
     7
 71
     1
 72
     0
 73
     1
 90
        0
 40
-0.6
 41
-30.0
 62
     5
 63
     7
421
 16777215
 74
     0
 91
        4
 64
     7
 65
   257
 75
     1
175
     1
 42
1.0
 92
        8
 66
     7
 43
1.0
 76
     1
 77
     6
 78
     2
 67
     7
 79
     5
170
     0
171
     0
290
     0
174
     0
 93
        1
 44
0.0
173
     0
291
     1
 45
0.0
1001
ACAD
1000
AcDbSavedByObjectVersion
1070
     0
  0
VISUALSTYLE
  5
35
102
{ACAD_XDICTIONARY
360
15A8
102
}
102
{ACAD_REACTORS
330
29
102
}
330
29
100
AcDbVisualStyle
  2
Brighten
 70
    12
 71
     2
 72
     2
 73
     0
 90
        0
 40
-0.6
 41
-30.0
 62
     5
 63
     7
421
 16777215
 74
     1
 91
        4
 64
     7
 65
   257
 75
     1
175
     1
 42
1.0
 92
        8
 66
     7
 43
1.0
 76
     1
 77
     6
 78
     2
 67
     7
 79
     5
170
     0
171
     0
290
     0
174
     0
 93
        1
 44
50.0
173
     0
291
     1
 45
0.0
1001
ACAD
1000
AcDbSavedByObjectVersion
1070
     0
  0
VISUALSTYLE
  5
39
102
{ACAD_XDICTIONARY
360
15B0
102
}
102
{ACAD_REACTORS
330
29
102
}
330
29
100
AcDbVisualStyle
  2
ColorChange
 70
    16
 71
     2
 72
     2
 73
     3
 90
        0
 40
-0.6
 41
-30.0
 62
     5
 63
     8
421
  8421504
 74
     1
 91
        4
 64
     7
 65
   257
 75
     1
175
     1
 42
1.0
 92
        8
 66
     8
424
  8421504
 43
1.0
 76
     1
 77
     6
 78
     2
 67
     7
 79
     5
170
     0
171
     0
290
     0
174
     0
 93
        1
 44
0.0
173
     0
291
     1
 45
0.0
1001
ACAD
1000
AcDbSavedByObjectVersion
1070
     0
  0
VISUALSTYLE
  5
32
102
{ACAD_XDICTIONARY
360
15A2
102
}
102
{ACAD_REACTORS
330
29
102
}
330
29
100
AcDbVisualStyle
  2
Conceptual
 70
     9
 71
     3
 72
     2
 73
     0
 90
        0
 40
-0.6
 41
-30.0
 62
     5
 63
     7
421
 16777215
 74
     2
 91
        2
 64
     7
 65
   257
 75
     1
175
     1
 42
179.0
 92
        8
 66
     7
 43
1.0
 76
     1
 77
     6
 78
     2
 67
     7
 79
     3
170
     0
171
     0
290
     0
174
     0
 93
        1
 44
0.0
173
     0
291
     0
 45
0.0
1001
ACAD
1000
AcDbSavedByObjectVersion
1070
     0
  0
VISUALSTYLE
  5
34
102
{ACAD_XDICTIONARY
360
15A6
102
}
102
{ACAD_REACTORS
330
29
102
}
330
29
100
AcDbVisualStyle
  2
Dim
 70
    11
 71
     2
 72
     2
 73
     0
 90
        0
 40
-0.6
 41
-30.0
 62
     5
 63
     7
421
 16777215
 74
     1
 91
        4
 64
     7
 65
   257
 75
     1
175
     1
 42
1.0
 92
        8
 66
     7
 43
1.0
 76
     1
 77
     6
 78
     2
 67
     7
 79
     5
170
     0
171
     0
290
     0
174
     0
 93
        1
 44
-50.0
173
     0
291
     1
 45
0.0
1001
ACAD
1000
AcDbSavedByObjectVersion
1070
     0
  0
VISUALSTYLE
  5
41
102
{ACAD_XDICTIONARY
360
15C0
102
}
102
{ACAD_REACTORS
330
29
102
}
330
29
100
AcDbVisualStyle
  2
EdgeColorOff
 70
    22
 71
     2
 72
     2
 73
     0
 90
        0
 40
-0.6
 41
-30.0
 62
     5
 63
     7
421
 16777215
 74
     1
 91
        4
 64
     7
 65
   257
 75
     1
175
     1
 42
1.0
 92
        8
 66
     7
 43
1.0
 76
     1
 77
     6
 78
     2
 67
     7
 79
     5
170
     0
171
     0
290
     0
174
     0
 93
        1
 44
0.0
173
     0
291
     1
 45
0.0
1001
ACAD
1000
AcDbSavedByObjectVersion
1070
     0
  0
VISUALSTYLE
  5
38
102
{ACAD_XDICTIONARY
360
15AE
102
}
102
{ACAD_REACTORS
330
29
102
}
330
29
100
AcDbVisualStyle
  2
Facepattern
 70
    15
 71
     2
 72
     2
 73
     0
 90
        0
 40
-0.6
 41
-30.0
 62
     5
 63
     7
421
 16777215
 74
     1
 91
        4
 64
     7
 65
   257
 75
     1
175
     1
 42
1.0
 92
        8
 66
     7
 43
1.0
 76
     1
 77
     6
 78
     2
 67
     7
 79
     5
170
     0
171
     0
290
     0
174
     0
 93
        1
 44
0.0
173
     0
291
     1
 45
0.0
1001
ACAD
1000
AcDbSavedByObjectVersion
1070
     0
  0
VISUALSTYLE
  5
2A
102
{ACAD_XDICTIONARY
360
1592
102
}
102
{ACAD_REACTORS
330
29
102
}
330
29
100
AcDbVisualStyle
  2
Flat
 70
     0
 71
     2
 72
     1
 73
     1
 90
        2
 40
-0.6
 41
30.0
 62
     5
 63
     7
421
 16777215
 74
     0
 91
        0
 64
     7
 65
   257
 75
     1
175
     1
 42
1.0
 92
        8
 66
     7
 43
1.0
 76
     1
 77
     6
 78
     2
 67
     7
 79
     5
170
     0
171
     0
290
     0
174
     0
 93
       13
 44
0.0
173
     0
291
     1
 45
0.0
1001
ACAD
1000
AcDbSavedByObjectVersion
1070
     0
  0
VISUALSTYLE
  5
2B
102
{ACAD_XDICTIONARY
360
1594
102
}
102
{ACAD_REACTORS
330
29
102
}
330
29
100
AcDbVisualStyle
  2
FlatWithEdges
 70
     1
 71
     2
 72
     1
 73
     1
 90
        2
 40
-0.6
 41
30.0
 62
     5
 63
     7
421
 16777215
 74
     1
 91
        0
 64
     7
 65
   257
 75
     1
175
     1
 42
1.0
 92
        0
 66
   257
 43
1.0
 76
     1
 77
     6
 78
     2
 67
     7
 79
     5
170
     0
171
     0
290
     0
174
     0
 93
       13
 44
0.0
173
     0
291
     1
 45
0.0
1001
ACAD
1000
AcDbSavedByObjectVersion
1070
     0
  0
VISUALSTYLE
  5
2C
102
{ACAD_XDICTIONARY
360
1596
102
}
102
{ACAD_REACTORS
330
29
102
}
330
29
100
AcDbVisualStyle
  2
Gouraud
 70
     2
 71
     2
 72
     2
 73
     1
 90
        2
 40
-0.6
 41
30.0
 62
     5
 63
     7
421
 16777215
 74
     0
 91
        0
 64
     7
 65
   257
 75
     1
175
     1
 42
1.0
 92
        0
 66
     7
 43
1.0
 76
     1
 77
     6
 78
     2
 67
     7
 79
     5
170
     0
171
     0
290
     0
174
     0
 93
       13
 44
0.0
173
     0
291
     1
 45
0.0
1001
ACAD
1000
AcDbSavedByObjectVersion
1070
     0
  0
VISUALSTYLE
  5
2D
102
{ACAD_XDICTIONARY
360
1598
102
}
102
{ACAD_REACTORS
330
29
102
}
330
29
100
AcDbVisualStyle
  2
GouraudWithEdges
 70
     3
 71
     2
 72
     2
 73
     1
 90
        2
 40
-0.6
 41
30.0
 62
     5
 63
     7
421
 16777215
 74
     1
 91
        0
 64
     7
 65
   257
 75
     1
175
     1
 42
1.0
 92
        0
 66
   257
 43
1.0
 76
     1
 77
     6
 78
     2
 67
     7
 79
     5
170
     0
171
     0
290
     0
174
     0
 93
       13
 44
0.0
173
     0
291
     1
 45
0.0
1001
ACAD
1000
AcDbSavedByObjectVersion
1070
     0
  0
VISUALSTYLE
  5
31
102
{ACAD_XDICTIONARY
360
15A0
102
}
102
{ACAD_REACTORS
330
29
102
}
330
29
100
AcDbVisualStyle
  2
Hidden
 70
     6
 71
     1
 72
     2
 73
     2
 90
        0
 40
-0.6
 41
-30.0
 62
     5
 63
     7
421
 16777215
 74
     2
 91
        2
 64
     7
 65
   257
 75
     2
175
     1
 42
40.0
 92
        0
 66
   257
 43
1.0
 76
     1
 77
     6
 78
     2
 67
     7
 79
     3
170
     0
171
     0
290
     0
174
     0
 93
        1
 44
0.0
173
     0
291
     0
 45
0.0
1001
ACAD
1000
AcDbSavedByObjectVersion
1070
     0
  0
VISUALSTYLE
  5
3F
102
{ACAD_XDICTIONARY
360
15BC
102
}
102
{ACAD_REACTORS
330
29
102
}
330
29
100
AcDbVisualStyle
  2
JitterOff
 70
    20
 71
     2
 72
     2
 73
     0
 90
        0
 40
-0.6
 41
-30.0
 62
     5
 63
     7
421
 16777215
 74
     1
 91
        4
 64
     7
 65
   257
 75
     1
175
     1
 42
1.0
 92
       10
 66
     7
 43
1.0
 76
     1
 77
     6
 78
     2
 67
     7
 79
     5
170
     0
171
     0
290
     0
174
     0
 93
        1
 44
0.0
173
     0
291
     1
 45
0.0
1001
ACAD
1000
AcDbSavedByObjectVersion
1070
     0
  0
VISUALSTYLE
  5
37
102
{ACAD_XDICTIONARY
360
15AC
102
}
102
{ACAD_REACTORS
330
29
102
}
330
29
100
AcDbVisualStyle
  2
Linepattern
 70
    14
 71
     2
 72
     2
 73
     0
 90
        0
 40
-0.6
 41
-30.0
 62
     5
 63
     7
421
 16777215
 74
     1
 91
        4
 64
     7
 65
   257
 75
     7
175
     7
 42
1.0
 92
        8
 66
     7
 43
1.0
 76
     1
 77
     6
 78
     2
 67
     7
 79
     5
170
     0
171
     0
290
     0
174
     0
 93
        1
 44
0.0
173
     0
291
     1
 45
0.0
1001
ACAD
1000
AcDbSavedByObjectVersion
1070
     0
  0
VISUALSTYLE
  5
40
102
{ACAD_XDICTIONARY
360
15BE
102
}
102
{ACAD_REACTORS
330
29
102
}
330
29
100
AcDbVisualStyle
  2
OverhangOff
 70
    21
 71
     2
 72
     2
 73
     0
 90
        0
 40
-0.6
 41
-30.0
 62
     5
 63
     7
421
 16777215
 74
     1
 91
        4
 64
     7
 65
   257
 75
     1
175
     1
 42
1.0
 92
        9
 66
     7
 43
1.0
 76
     1
 77
     6
 78
     2
 67
     7
 79
     5
170
     0
171
     0
290
     0
174
     0
 93
        1
 44
0.0
173
     0
291
     1
 45
0.0
1001
ACAD
1000
AcDbSavedByObjectVersion
1070
     0
  0
VISUALSTYLE
  5
33
102
{ACAD_XDICTIONARY
360
15A4
102
}
102
{ACAD_REACTORS
330
29
102
}
330
29
100
AcDbVisualStyle
  2
Realistic
 70
     8
 71
     2
 72
     3
 73
     0
 90
        2
 40
-0.6
 41
30.0
 62
     5
 63
     7
421
 16777215
 74
     0
 91
        0
 64
     7
 65
   257
 75
     1
175
     1
 42
1.0
 92
        8
 66
   257
 43
1.0
 76
     1
 77
     6
 78
     2
 67
     7
 79
     3
170
     0
171
     0
290
     0
174
     0
 93
       13
 44
0.0
173
     0
291
     0
 45
0.0
1001
ACAD
1000
AcDbSavedByObjectVersion
1070
     0
  0
VISUALSTYLE
  5
3E
102
{ACAD_XDICTIONARY
360
15BA
102
}
102
{ACAD_REACTORS
330
29
102
}
330
29
100
AcDbVisualStyle
  2
Shaded
 70
    27
 71
     2
 72
     2
 73
     1
 90
        2
 40
-0.6
 41
30.0
 62
     5
 63
     7
421
 16777215
 74
     0
 91
        4
 64
     7
 65
   257
 75
     1
175
     1
 42
1.0
 92
        8
 66
   257
 43
1.0
 76
     1
 77
     6
 78
     2
 67
     8
425
  7895160
 79
     3
170
     0
171
     0
290
     0
174
     0
 93
        5
 44
0.0
173
     0
291
     0
 45
0.0
1001
ACAD
1000
AcDbSavedByObjectVersion
1070
     0
  0
VISUALSTYLE
  5
3D
102
{ACAD_XDICTIONARY
360
15B8
102
}
102
{ACAD_REACTORS
330
29
102
}
330
29
100
AcDbVisualStyle
  2
Shaded with edges
 70
    26
 71
     2
 72
     2
 73
     1
 90
        2
 40
-0.6
 41
30.0
 62
     5
 63
     7
421
 16777215
 74
     1
 91
       10
 64
     7
 65
   257
 75
     2
175
     1
 42
1.0
 92
        8
 66
   257
 43
1.0
 76
     1
 77
     6
 78
     2
 67
     7
 79
     3
170
     0
171
     0
290
     0
174
     0
 93
        5
 44
0.0
173
     0
291
     0
 45
0.0
1001
ACAD
1000
AcDbSavedByObjectVersion
1070
     0
  0
VISUALSTYLE
  5
3A
102
{ACAD_XDICTIONARY
360
15B2
102
}
102
{ACAD_REACTORS
330
29
102
}
330
29
100
AcDbVisualStyle
  2
Shades of Gray
 70
    23
 71
     2
 72
     2
 73
     3
 90
        0
 40
-0.6
 41
-30.0
 62
     5
 63
     7
421
 16777215
 74
     2
 91
        2
 64
     7
 65
     7
 75
     1
175
     1
 42
40.0
 92
        8
 66
     7
 43
1.0
 76
     1
 77
     6
 78
     2
 67
     7
 79
     3
170
     0
171
     0
290
     0
174
     0
 93
        1
 44
0.0
173
     0
291
     0
 45
0.0
1001
ACAD
1000
AcDbSavedByObjectVersion
1070
     0
  0
VISUALSTYLE
  5
3B
102
{ACAD_XDICTIONARY
360
15B4
102
}
102
{ACAD_REACTORS
330
29
102
}
330
29
100
AcDbVisualStyle
  2
Sketchy
 70
    24
 71
     1
 72
     2
 73
     2
 90
        0
 40
-0.6
 41
-30.0
 62
     5
 63
     7
421
 16777215
 74
     2
 91
        2
 64
     7
 65
     7
 75
     1
175
     1
 42
40.0
 92
       11
 66
     7
 43
1.0
 76
     1
 77
     6
 78
     2
 67
     7
 79
     6
170
     0
171
     0
290
     0
174
     0
 93
        1
 44
0.0
173
     0
291
     0
 45
0.0
1001
ACAD
1000
AcDbSavedByObjectVersion
1070
     0
  0
VISUALSTYLE
  5
36
102
{ACAD_XDICTIONARY
360
15AA
102
}
102
{ACAD_REACTORS
330
29
102
}
330
29
100
AcDbVisualStyle
  2
Thicken
 70
    13
 71
     2
 72
     2
 73
     0
 90
        0
 40
-0.6
 41
-30.0
 62
     5
 63
     7
421
 16777215
 74
     1
 91
        4
 64
     7
 65
   257
 75
     1
175
     1
 42
1.0
 92
       12
 66
     7
 43
1.0
 76
     1
 77
     6
 78
     2
 67
     7
 79
     5
170
     0
171
     0
290
     0
174
     0
 93
        1
 44
0.0
173
     0
291
     1
 45
0.0
1001
ACAD
1000
AcDbSavedByObjectVersion
1070
     0
  0
VISUALSTYLE
  5
30
102
{ACAD_XDICTIONARY
360
159E
102
}
102
{ACAD_REACTORS
330
29
102
}
330
29
100
AcDbVisualStyle
  2
Wireframe
 70
     5
 71
     0
 72
     2
 73
     0
 90
        0
 40
-0.6
 41
-30.0
 62
     5
 63
     7
421
 16777215
 74
     1
 91
        4
 64
     7
 65
   257
 75
     1
175
     1
 42
1.0
 92
        0
 66
   257
 43
1.0
 76
     1
 77
     6
 78
     2
 67
     7
 79
     3
170
     0
171
     0
290
     0
174
     0
 93
        1
 44
0.0
173
     0
291
     0
 45
0.0
1001
ACAD
1000
AcDbSavedByObjectVersion
1070
     0
  0
VISUALSTYLE
  5
3C
102
{ACAD_XDICTIONARY
360
15B6
102
}
102
{ACAD_REACTORS
330
29
102
}
330
29
100
AcDbVisualStyle
  2
X-Ray
 70
    25
 71
     2
 72
     2
 73
     1
 90
        1
 40
0.5
 41
-30.0
 62
     5
 63
     7
421
 16777215
 74
     1
 91
        0
 64
     7
 65
   257
 75
     1
175
     1
 42
1.0
 92
        8
 66
     7
 43
1.0
 76
     1
 77
     6
 78
     2
 67
     7
 79
     3
170
     0
171
     0
290
     0
174
     0
 93
       13
 44
0.0
173
     0
291
     0
 45
0.0
1001
ACAD
1000
AcDbSavedByObjectVersion
1070
     0
  0
DICTIONARYVAR
  5
79
102
{ACAD_REACTORS
330
76
102
}
330
76
100
DictionaryVariables
280
     0
  1
1:1
  0
DICTIONARYVAR
  5
78
102
{ACAD_REACTORS
330
76
102
}
330
76
100
DictionaryVariables
280
     0
  1
STANDARD
  0
DICTIONARYVAR
  5
77
102
{ACAD_REACTORS
330
76
102
}
330
76
100
DictionaryVariables
280
     0
  1
STANDARD
  0
DICTIONARYVAR
  5
1585
102
{ACAD_REACTORS
330
76
102
}
330
76
100
DictionaryVariables
280
     0
  1
0
  0
DICTIONARYVAR
  5
1586
102
{ACAD_REACTORS
330
76
102
}
330
76
100
DictionaryVariables
280
     0
  1
0
  0
DICTIONARYVAR
  5
1584
102
{ACAD_REACTORS
330
76
102
}
330
76
100
DictionaryVariables
280
     0
  1
2
  0
DICTIONARYVAR
  5
1583
102
{ACAD_REACTORS
330
76
102
}
330
76
100
DictionaryVariables
280
     0
  1
1
  0
DICTIONARYVAR
  5
1587
102
{ACAD_REACTORS
330
76
102
}
330
76
100
DictionaryVariables
280
     0
  1
2
  0
DICTIONARY
  5
1A
330
19
100
AcDbDictionary
280
     1
281
     1
  3
ACAD_XREC_ROUNDTRIP
360
1590
  3
BUMPTILE
360
1C
  3
DIFFUSETILE
360
1B
  3
OPACITYTILE
360
1F
  3
REFLECTIONTILE
360
1E
  3
REFRACTIONTILE
360
20
  3
SPECULARTILE
360
1D
  0
DICTIONARY
  5
12
330
11
100
AcDbDictionary
280
     1
281
     1
  3
ACAD_XREC_ROUNDTRIP
360
158F
  3
BUMPTILE
360
14
  3
DIFFUSETILE
360
13
  3
FBXASSET
360
F5
  3
OPACITYTILE
360
17
  3
REFLECTIONTILE
360
16
  3
REFRACTIONTILE
360
18
  3
SPECULARTILE
360
15
  0
DICTIONARY
  5
22
330
21
100
AcDbDictionary
280
     1
281
     1
  3
ACAD_XREC_ROUNDTRIP
360
1591
  3
BUMPTILE
360
24
  3
DIFFUSETILE
360
23
  3
FBXASSET
360
BA
  3
OPACITYTILE
360
27
  3
REFLECTIONTILE
360
26
  3
REFRACTIONTILE
360
28
  3
SPECULARTILE
360
25
  0
DICTIONARY
  5
158A
330
67
100
AcDbDictionary
280
     1
281
     1
  3
ACAD_XREC_ROUNDTRIP
360
158B
  0
DICTIONARY
  5
1588
330
65
100
AcDbDictionary
280
     1
281
     1
  3
ACAD_ROUNDTRIP_2008_TABLESTYLE_CELLSTYLEMAP
360
1589
  3
ACAD_XREC_ROUNDTRIP
360
15C2
  0
DICTIONARY
  5
159C
330
2F
100
AcDbDictionary
280
     1
281
     1
  3
ACAD_XREC_ROUNDTRIP
360
159D
  0
DICTIONARY
  5
159A
330
2E
100
AcDbDictionary
280
     1
281
     1
  3
ACAD_XREC_ROUNDTRIP
360
159B
  0
DICTIONARY
  5
15A8
330
35
100
AcDbDictionary
280
     1
281
     1
  3
ACAD_XREC_ROUNDTRIP
360
15A9
  0
DICTIONARY
  5
15B0
330
39
100
AcDbDictionary
280
     1
281
     1
  3
ACAD_XREC_ROUNDTRIP
360
15B1
  0
DICTIONARY
  5
15A2
330
32
100
AcDbDictionary
280
     1
281
     1
  3
ACAD_XREC_ROUNDTRIP
360
15A3
  0
DICTIONARY
  5
15A6
330
34
100
AcDbDictionary
280
     1
281
     1
  3
ACAD_XREC_ROUNDTRIP
360
15A7
  0
DICTIONARY
  5
15C0
330
41
100
AcDbDictionary
280
     1
281
     1
  3
ACAD_XREC_ROUNDTRIP
360
15C1
  0
DICTIONARY
  5
15AE
330
38
100
AcDbDictionary
280
     1
281
     1
  3
ACAD_XREC_ROUNDTRIP
360
15AF
  0
DICTIONARY
  5
1592
330
2A
100
AcDbDictionary
280
     1
281
     1
  3
ACAD_XREC_ROUNDTRIP
360
1593
  0
DICTIONARY
  5
1594
330
2B
100
AcDbDictionary
280
     1
281
     1
  3
ACAD_XREC_ROUNDTRIP
360
1595
  0
DICTIONARY
  5
1596
330
2C
100
AcDbDictionary
280
     1
281
     1
  3
ACAD_XREC_ROUNDTRIP
360
1597
  0
DICTIONARY
  5
1598
330
2D
100
AcDbDictionary
280
     1
281
     1
  3
ACAD_XREC_ROUNDTRIP
360
1599
  0
DICTIONARY
  5
15A0
330
31
100
AcDbDictionary
280
     1
281
     1
  3
ACAD_XREC_ROUNDTRIP
360
15A1
  0
DICTIONARY
  5
15BC
330
3F
100
AcDbDictionary
280
     1
281
     1
  3
ACAD_XREC_ROUNDTRIP
360
15BD
  0
DICTIONARY
  5
15AC
330
37
100
AcDbDictionary
280
     1
281
     1
  3
ACAD_XREC_ROUNDTRIP
360
15AD
  0
DICTIONARY
  5
15BE
330
40
100
AcDbDictionary
280
     1
281
     1
  3
ACAD_XREC_ROUNDTRIP
360
15BF
  0
DICTIONARY
  5
15A4
330
33
100
AcDbDictionary
280
     1
281
     1
  3
ACAD_XREC_ROUNDTRIP
360
15A5
  0
DICTIONARY
  5
15BA
330
3E
100
AcDbDictionary
280
     1
281
     1
  3
ACAD_XREC_ROUNDTRIP
360
15BB
  0
DICTIONARY
  5
15B8
330
3D
100
AcDbDictionary
280
     1
281
     1
  3
ACAD_XREC_ROUNDTRIP
360
15B9
  0
DICTIONARY
  5
15B2
330
3A
100
AcDbDictionary
280
     1
281
     1
  3
ACAD_XREC_ROUNDTRIP
360
15B3
  0
DICTIONARY
  5
15B4
330
3B
100
AcDbDictionary
280
     1
281
     1
  3
ACAD_XREC_ROUNDTRIP
360
15B5
  0
DICTIONARY
  5
15AA
330
36
100
AcDbDictionary
280
     1
281
     1
  3
ACAD_XREC_ROUNDTRIP
360
15AB
  0
DICTIONARY
  5
159E
330
30
100
AcDbDictionary
280
     1
281
     1
  3
ACAD_XREC_ROUNDTRIP
360
159F
  0
DICTIONARY
  5
15B6
330
3C
100
AcDbDictionary
280
     1
281
     1
  3
ACAD_XREC_ROUNDTRIP
360
15B7
  0
XRECORD
  5
1590
102
{ACAD_REACTORS
330
1A
102
}
330
1A
100
AcDbXrecord
280
     1
102
MATERIAL
148
0.0
149
0.0
149
0.0
 93
        0
 94
      127
282
     0
 72
     0
 77
     0
171
     0
175
     0
179
     0
273
     0
  0
XRECORD
  5
1C
102
{ACAD_REACTORS
330
1A
102
}
330
1A
100
AcDbXrecord
280
     1
270
     1
271
     1
  0
XRECORD
  5
1B
102
{ACAD_REACTORS
330
1A
102
}
330
1A
100
AcDbXrecord
280
     1
270
     1
271
     1
  0
XRECORD
  5
1F
102
{ACAD_REACTORS
330
1A
102
}
330
1A
100
AcDbXrecord
280
     1
270
     1
271
     1
  0
XRECORD
  5
1E
102
{ACAD_REACTORS
330
1A
102
}
330
1A
100
AcDbXrecord
280
     1
270
     1
271
     1
  0
XRECORD
  5
20
102
{ACAD_REACTORS
330
1A
102
}
330
1A
100
AcDbXrecord
280
     1
270
     1
271
     1
  0
XRECORD
  5
1D
102
{ACAD_REACTORS
330
1A
102
}
330
1A
100
AcDbXrecord
280
     1
270
     1
271
     1
  0
XRECORD
  5
158F
102
{ACAD_REACTORS
330
12
102
}
330
12
100
AcDbXrecord
280
     1
102
MATERIAL
148
0.0
149
0.0
149
0.0
 93
        0
 94
      127
282
     0
 72
     0
 77
     0
171
     0
175
     0
179
     0
273
     0
  0
XRECORD
  5
14
102
{ACAD_REACTORS
330
12
102
}
330
12
100
AcDbXrecord
280
     1
270
     1
271
     1
  0
XRECORD
  5
13
102
{ACAD_REACTORS
330
12
102
}
330
12
100
AcDbXrecord
280
     1
270
     1
271
     1
  0
XRECORD
  5
F5
102
{ACAD_REACTORS
330
12
102
}
330
12
100
AcDbXrecord
280
     1
 70
     1
 90
1959938040
 71
     1
  1
7552D446-2390-46E8-B66E-7FE0601E446D
311
504B03040A0000080000483BB1423DEE336E79000000790000001B0000006175746F6465736B2D64657369676E2D7061636B6167652E786D6C3C3F786D6C2076657273696F6E3D22312E302220656E636F64696E673D227574662D3822203F3E3C666F726D6174733E3C666F726D61743E687474703A2F2F736368656D612E
311
6175746F6465736B2E636F6D2F64657369676E2D7061636B6167652F323030393C2F666F726D61743E3C2F666F726D6174733E504B0304140006080800483BB142D486FD9CA0000000F4000000130000005B436F6E74656E745F54797065735D2E786D6C7D8EC10E82300C865F65E91D8A1E8C310C0EEA1BF002731658846E
311
D98AC1B77784ABF1D8FE5FBFBF75BBCE937A534CCEB38643598122B6FEE978D0B0485F9C41B54DDD7D022595594E1A469170414C76A4D9A4D207E29CF43ECE46F218070CC6BECC4078ACAA135ACF422C856C0E68EA1BF5669944DDD7BCDE7B1F8E415D77AECB980613C2E4AC91FC167A2B244592486606FC29C8FD7F045B9A
311
EF7053A7E60B504B0304140006080800483BB1423163BC4DED0000007C01000008000000636F72652E786D6C8D90416EC3201045AF82665B61839DD88985899CDA3D412F80803828315806AA1EBF3871A476D7D58CFEFC3733FAECF43DDDD1975EBC71B6059A1140DA4AA78C1D5B88E1820F804E9C2DCE855F3640564CBA85
311
5506CEC6C5C57993A4B341DB9054EB94DE44E1BD0E80E43D352D7879D593C8440CC9E16FD92CE44D8C3AA3AF2EC1311A859E478C4AFBCCC5E80578DF5743557FECF0D07514EF8E94E0EE5897B8180EDD703E577DF15EB27C85390B667ADD978B16412BE005A125267B4CEB4F523745D5D0FA8DEC9B92B07CB5FF81E2ACFE09
311
456343596CEF3E310F9CA6471E03CEF2358B541E41A5BAE6C67F00504B0304140006080800483BB14255019EA25F0000007C00000007000000636E782E786D6C4DCB3B0E80201045D1AD90E915ED2CF8AC45050C11660C8261F98AB1B07AC9C97D42D718D865D3E909258CFD00CCE24AC6E326A164D74DC0B4128928FF3260
311
38472BA13128B1252AC747C6BAB984FC68F0B87FE8960A5C09FE86CFB69FBA01504B0304140006080800483BB142AC1A8ADF69010000020300000C0000006662782F636F72652E786D6C8D52ED8E8230107C95A67F2F500A0A6A4A0D9EDC13DC0B54A81C115A525AE2E3DFF2613C2FC61892D2CCECECCE0EB0FDB56DD0204D
311
5F6B9562EA07184955E8B256558A9D3D7B1B8CF69C19ADED9F328C9468658A4718735619EDBA052AB4B2525940952EE5028ABE9716A3A2814B8AFBE247B6C217CE42457FF13B515C44257DEA030D759CF5D68001340F194FCCCFA72B2333CE997375B9B07509D3EA732D0DE6C7639CC7C9D7CACBB38C7AAB2D0DBC6C9B445E
311
986FB2FC70888FE167C4C828E6CCD6EDCD5D61A4B0B2C43C0C68E4056B8F26DF41B20BE31D4D3E82F52E0A1819CB1F44AE2BDF14B95AD9285CECCEB21E730A4626E2DFB6109145BD18C00FE18C8C21C26B4AF83168080442B6E2D4DCF6B80034C8C26AB302A6D4EE4E0DA27112A606687A189959E83C3580CD9EF6095FF479
311
DD033EA05015581316AE2767C7E96C9EBA44D149E30DF68A9436AD68EEE6668BF7F33EE8A9BCD08D36EFA8C9B22A59C224E3DFCB7F01504B0304140006080800483BB14286597DE37D0000009D0000000B0000006662782F636E782E786D6C4DCCD10A83201886E15B91FFDC6526B6408DE5BC90581632D3703A76F9ABD1C1
311
8E3E78F87845FF593D7ADBF4723148A82F04900D8F38B9B0482879C65740BD1229C6FC770314C6D54A38189458522CDB49939DC7E2F3AEDE85E789EC66785733831B3D70CCB4EEF0706F29369453D210D232A3A152A2FA95F63DC2EA0B504B0304140006080800483BB1423485B4352C01000014020000310000006662782F
311
34414536393134452D334342362D344343392D424437322D4532363230333030373445432F636F72652E786D6C8D515B6EC32010BC0AE22B55850D7EE026C2448DEB1BF40204131725068B4795E317D78ED4FEE58745B333B3A35D76BC4F37F0AD9CD7D6B49064180265A41DB4195B18C305BD4170E4CC591BFED020306252
311
2D5C60C8D9E86C9C37485A139409093576501B28BC570102794B9F167AF9A52691891812C35FB359C8AB185546B2D44E3CCE7C70290058872C2FE4D57B4FF7A4EA51D99D28AABA6E8F4E1F4D81FA8216B8C4B8A9FA8EE5AB90B318F5B0C9F590E2E88B56EE599345CC59D0D323BE744A0435405E6052225C23D27CE2E650D0
311
03695E717D2831CB17FA3F519C872745519B50165BDC55E621272C5F1B9C0D369E6F8F30EA3E5B17C0326FE7957C811C6798909AEC1BCAF2959A16903C69B579FA605D5AF0EE7A4E6C52AFC6B4E22C5F6E94CAEF01535DEEC97F00504B0304140006080800483BB14295E9F0BA4E01000033030000300000006662782F3441
311
4536393134452D334342362D344343392D424437322D4532363230333030373445432F636E782E786D6CD593BB6E032110457F05D146FBF233B2582CA5C817A448CBC2D8C66661C5238AFF3E838D1D372E52A641AB3B977B47472CDB7E8F867C810FDAD99E76754B0958E994B6FB9EA6B8AB5E29D972E69D8B0F364AAC18A1
311
A759A69CEDBD4B539114EC44321155A3EDA9881E824B5E424039DF24C6496130006C9550847100A54091BB11BF76E07115148733890720EF6F9FC40D479031B026A770D6E40ECEF2599A1E4C94482342E869900718452D52740AC2A956228ABAAB6F5D4F76FA4D22F9C2AD32794D72794FF34979D9A8468EACC12167217AA4
311
574CF13C01E5629A8C962222E4E662BC7A384BDAC6D5A2783582F7E8EE56F3C502C32E33CEA21EA138A4071141513E6BBB79D52EAB6EFDD1AE37B3D5A65BBFB4CBCDBC654DB673363867CA258C01EF26229D8D6023E51D6BF2F819BEE2234A7B64EDFCF90F20114069BDD2B967FC673ECDE57D232E8F7F01FF01504B030414
311
0006080800483BB1428B7E862DA405000081100000340000006662782F34414536393134452D334342362D344343392D424437322D4532363230333030373445432F6F626A656374732E786D6CAD57DB6EDB3810FD1541FBB2FB60CBB21D3759282A123B298C366D51A3C53E1830688952B8A12E20A9D4D9AFDF43919225D7
311
4EBD8BBEE8C2CB70E6CC990B83B7BB8C3BCF544856E4D7AE3F1CB90ECDA32266797AED562A195CBACEDB301045A13ACB5C272719BD76F5B01B06A928AAD20EC53421155707A3F7B77F3932A239759D881329AF5D193DD28C0C49A58A98CAA7614C1419A6C96EE80FCDC2BED85490F2F140684904CD1534C5780E298E51CAEF
311
FF8E5C2F0C3C3D1F06FA69574D4EAFF26A7BFAE7B35C2A92473F1C762066E24F1777E38BABC1C5743A194C67637F707B7FBB18F86F26A3F96C3EBFBAB9BBC2C1520948B29A089AB8E13B6023581478662A0C2A96ABC9D82EB10EF2047D66DA536E3876FCC0336B5AEBAC91C7D48F8A3CA7518D15D0A8EDB3A2635AD23C86CF
311
1995D0AC83D0A8FFEB6B1C3BD313FD6F8FEC0E9F874077474750A37BF3EE6A5A6CFF8609F21C06094935030D96D650C3D5D11EE16D51703BC7A49311450523DCE16C2B887871432CD54BC2A027463359E868D016B821BC60A6FB744118FD9CE7C7B44C2ACE358DDDB08E820D62852A596BC6FEA162AF7D1719E8045F69365C
311
5A83D44B49DDF0CA50E4F2804D064827E12485CB61A6DE39191F183AD771BA5CB8E1FBFBED6EA563F7F8E1A5284A2A94A60FA8D538AE796B94AC4EFE599ED31BDC0355F6A07C01F21F11EA7B55E037C176D3DDD49EA204C96552880CBE7146CE6084C7C8F1EBA7FEEE7C055EBBB9EFBD5378C2D91AAA5F8067DF86AE2F3B70
311
86C133085F8889356D15118EB4F1C07200A449E2F00243C8C3C976E7864B64396465EC223CF46132D47DC667E059314814F5499D770E2C0FD2E219091AB0D58C841A86FC56C1BD9F7E4867F5C176D929782F7E095D6F16ABF7AB4A2424A20F36A6173461395328717BDE7415EA61DEB3E889BE7C2F440C437FC47BD5C53BB3
311
4749A0AD31D7C0A74D4ED73FFB937B0744D897163ADD043F390146E8C2DA91FFC064443927392DAAE6DC57EB07CA86815807BB66725B60F68505A43133073188221D09566A10DB6AD526CDE109EBBE2E3F82916E78FBF281BC74B3D7769F7BA3821762B37DD998B47414EA6F7D6E5B0C3C2D0574AF83A4897F0BFA26664952
311
4924C123B87E5BCEBBBED3690129A2916AA2650AFB115C4458D2367251AD0541252DF20D43DD44DC1D3DA02B1F905A06D4024F692C294F368CF32ADB248CA31A6D32529E80E3FFEBBFADB27243B2A2CAD509D93DD5511DFABAF7D82BBF13153DBAE1AA7E0F6E917B631A9F2083AE2547B0EAB9F6CDC5C578319DCE06E3C9D5
311
08FDD3DDE5E07636BB1BBCB9BF1BCD46FE1DA6168D9F8C2661D0949A6E44C34B286D41259875DFD725E2C72601377C204AAEDF99F06CDE5F9743F4C281873DA897EDC69BF8197D1F8D7F2E60BFF2A8A06556729AD15C111D430FFA837F21E8337ACA98F16546527A86944FEF5607C660E48C7D9F75BCD3EF077BEDE85C07E4
311
5121EAB1CAB63961FC60636A901C96796AF16B7CD2BE4DA1697EF59F750C3A53597016230FC64E4A8B8C2A64C3338A90C8A804F5BA3D7D6CEF1E67EC7E361DA2225B4E1B4D1E099A642E1116A05615A9FEB8F31B9A3ADD575DBB28B7C3273C6CA6701D70E6DA4593AE5844E5708B02AD5BA15A38B8D4EDE4D1F8933CE5E8B5
311
CDA6F6BFDDA5B1E995E476C939FD93B5CBA4706B00D24889BE010D11BC532B1306B56E763EFA4F8637EA3844E1735BA9D696FD406B4C7D0C42D418656F0B68629EECD13B04EAEB66F9C37A4D0F91B36E59AF92C0481D2822D2FAA6A0F5B32ADD2C3E7BE8509CE527A7E4550A5F9E2F692028C85CE900078BC00A2BB3240A54
311
9DFFB9FE2C0ADC6433E79E8102CEEFBBCBD91FEB799165456E86D637F63EECAC1E71BB8DD7480E545F4BE47A3CF2C7EBFA3A606F289B2D91744862F984017856B016E89EFBC14B7367441D3213ED3A4FBBE280A1CB85630BDB14422D5DBAB9558383C623A70E62485F2975C4741794AFDE08BC7A295410E8E5C37F01504B03
311
04140006080000483BB142000000000000000000000000350000006662782F34414536393134452D334342362D344343392D424437322D4532363230333030373445432F76657274696365732E62696E504B0304140006080800483BB142F270F1330600000004000000360000006662782F34414536393134452D33434236
311
2D344343392D424437322D4532363230333030373445432F747269616E676C65732E62696E636660600000504B0304140006080000483BB142000000000000000000000000370000006662782F34414536393134452D334342362D344343392D424437322D4532363230333030373445432F617474726962757465732E6269
311
6E504B0304140006080800483BB142D5987DFC8F00000041010000360000006662782F34414536393134452D334342362D344343392D424437322D4532363230333030373445432F6469726563746F72792E786D6C858F410EC2201045AF4266AF15DDB800BA74E7C21B903225242D6328188F2FA5C4183471359997F9FF81
311
E89FF3C41E1816475E02DF1F80A11FC8386F25A438EECEC07A250251FC3803E6F58C12560C4AD840E95E91C151A72936F496F35732D860FE635F62C8F2DA16B505C545B74125BAA2FA9E05D7CC053D063734D5C7665FD55B6B8D15D5E9BFEAFD8490FFA45E504B0304140006080800483BB142EE0D76F5FF000000A0010000
311
3B0000006662782F34414536393134452D334342362D344343392D424437322D4532363230333030373445432F7265736F75726365732F636F72652E786D6C8D504B6E833010BD0A9A6D65B0A18124328E48A127E8052C332156828DFCA97AFC9A844AEDAE9B99D1FB689E1E3F7DCDF7EC139DD7D6B4C0720A191A65476DA6
311
1662B8903D6427C19DB5E1970C3223676C618541F0C9D9B86C90B226A009093576C40D94DE63804CDDD3D18257579C652E63480A7FCB17A96E72C29CE5894E3AC17D702940F67CB24E100EBD8D4EA1E7C593153C463D6E1A3DA69FFAA2D181E8FB7AA89BF78A0C5DC7C8EB8151D21D9A8A94C3BE1BCEE7BA2FDF2A5EAC66C1
311
839E7F322A8732E008A2A4AC22744758F3419B63591F59F34277C78AF26295FF31C565FCA7296A13AA728BFBB479102C05791082176B5F693DCA4C7BED567C03504B010214000A0000080000483BB1423DEE336E79000000790000001B00000000000000000000000000000000006175746F6465736B2D64657369676E2D70
311
61636B6167652E786D6C504B01021400140006080800483BB142D486FD9CA0000000F40000001300000000000000000000000000B20000005B436F6E74656E745F54797065735D2E786D6C504B01021400140006080800483BB1423163BC4DED0000007C010000080000000000000000000000000083010000636F72652E78
311
6D6C504B01021400140006080800483BB14255019EA25F0000007C000000070000000000000000000000000096020000636E782E786D6C504B01021400140006080800483BB142AC1A8ADF69010000020300000C000000000000000000000000001A0300006662782F636F72652E786D6C504B01021400140006080800483B
311
B14286597DE37D0000009D0000000B00000000000000000000000000AD0400006662782F636E782E786D6C504B01021400140006080800483BB1423485B4352C010000140200003100000000000000000000000000530500006662782F34414536393134452D334342362D344343392D424437322D45323632303330303734
311
45432F636F72652E786D6C504B01021400140006080800483BB14295E9F0BA4E010000330300003000000000000000000000000000CE0600006662782F34414536393134452D334342362D344343392D424437322D4532363230333030373445432F636E782E786D6C504B01021400140006080800483BB1428B7E862DA405
311
00008110000034000000000000000000000000006A0800006662782F34414536393134452D334342362D344343392D424437322D4532363230333030373445432F6F626A656374732E786D6C504B01021400140006080000483BB1420000000000000000000000003500000000000000000000000000600E00006662782F34
311
414536393134452D334342362D344343392D424437322D4532363230333030373445432F76657274696365732E62696E504B01021400140006080800483BB142F270F13306000000040000003600000000000000000000000000B30E00006662782F34414536393134452D334342362D344343392D424437322D4532363230
311
333030373445432F747269616E676C65732E62696E504B01021400140006080000483BB14200000000000000000000000037000000000000000000000000000D0F00006662782F34414536393134452D334342362D344343392D424437322D4532363230333030373445432F617474726962757465732E62696E504B010214
311
00140006080800483BB142D5987DFC8F000000410100003600000000000000000000000000620F00006662782F34414536393134452D334342362D344343392D424437322D4532363230333030373445432F6469726563746F72792E786D6C504B01021400140006080800483BB142EE0D76F5FF000000A00100003B000000
311
00000000000000000000451000006662782F34414536393134452D334342362D344343392D424437322D4532363230333030373445432F7265736F75726365732F636F72652E786D6C504B0506000000000E000E00800400009D1100000000
310
504B03040A0000080000483BB1423DEE336E79000000790000001B0000006175746F6465736B2D64657369676E2D7061636B6167652E786D6C3C3F786D6C2076657273696F6E3D22312E302220656E636F64696E673D227574662D3822203F3E3C666F726D6174733E3C666F726D61743E687474703A2F2F736368656D612E
310
6175746F6465736B2E636F6D2F64657369676E2D7061636B6167652F323030393C2F666F726D61743E3C2F666F726D6174733E504B0304140006080800483BB142D486FD9CA0000000F4000000130000005B436F6E74656E745F54797065735D2E786D6C7D8EC10E82300C865F65E91D8A1E8C310C0EEA1BF002731658846E
310
D98AC1B77784ABF1D8FE5FBFBF75BBCE937A534CCEB38643598122B6FEE978D0B0485F9C41B54DDD7D022595594E1A469170414C76A4D9A4D207E29CF43ECE46F218070CC6BECC4078ACAA135ACF422C856C0E68EA1BF5669944DDD7BCDE7B1F8E415D77AECB980613C2E4AC91FC167A2B244592486606FC29C8FD7F045B9A
310
EF7053A7E60B504B0304140006080800483BB14266FFF927EB0000007C01000008000000636F72652E786D6C8D904D6EC3201085AF82665B61837F130B13B94A7C825E0001715162B00C543D7E71E248EDAEAB19BD79DFCCE8B1D3F77C475F7AF5C6D91E684600692B9D3276EA21862B3E003A71B63A177ED9005931EB1E36
310
19389B5617975D92CE066D4352AD537A1785F73A0092F7D4F4E0E5A79E452662480E7FCB16216F62D2197D75098ED128F43C6254DA67AE46AFC00772AE2EE5F08E2FF478C6D55037F848C60257646C695D8D4D7D1859BEC19C0533BFEECB558BA015F082D012931AD3F683B45DD174B47D23755712966FF63F505CD43FA168
310
6C288BFDDD27E681D3F4C863C059BE6591CA23A854B7DCF80F504B0304140006080800483BB14255019EA25F0000007C00000007000000636E782E786D6C4DCB3B0E80201045D1AD90E915ED2CF8AC45050C11660C8261F98AB1B07AC9C97D42D718D865D3E909258CFD00CCE24AC6E326A164D74DC0B4128928FF32603847
310
2BA13128B1252AC747C6BAB984FC68F0B87FE8960A5C09FE86CFB69FBA01504B0304140006080800483BB14222C8C55C68010000020300000C0000006662782F636F72652E786D6C8D52ED8A8330107C9590BF87267ED56B89293D5A9FE05E20D5D4936A2231913EFEAD1FC5EB514A116298D9D99D1D65FB5BDBA0419ABED6
310
2AC3814F3192AAD065ADAA0C3B7BF13E31DA7366B4B67FCA3052A295191E61CC5965B4EB16A8D0CA4A650155BA940B28FA5E5A8C8A062E19EE8B1FD90A5F380B15FDD5EF44711595F4031F68A8E3ACB7060CA079C878627E39DF189971CE9CABCB85AD4B98565F6A69303FD0637C8A0E5FDE29D81EBDF8906CBC2DCD432FA6
310
791A2471BE493E7346463167B66EEFEE0A23859525E6210D228F265E907ED374176E7641FA41935D441919CB1F44AE2BDF14B95AD9285CECCEB21EF3008C4CC4BF6D21228B7A31801FC219194384D794F063D01008846CC5B9B9EF7105689085D52606A6D46EA506D1380953299A1E4666163A4F0D60B3A77DC2177D5EF780
310
0F285405D68485EBD9D9713A9BA72E5174D27883BD21A54D2B9AD5DC6C713DD7414FE5856EB479474D9655C9122619FF5EFE0B504B0304140006080800483BB142432E0B967E0000009D0000000B0000006662782F636E782E786D6C4DCCD10A83201886E15B91FFDC9563AD0435D4E67DC4B290990EA76397BF1A1DECE883
310
878F97F59FD5A3B74D2F17030772AA01D9708F930B0B879267DC01EA054B31E6BF1BA030AE96C3CE20D89262791E34D9792C3E6FEA5D781CA8B52272B8196CCEDAE00B69074C8D6CB1AA69736D94A41D21500956FD4ADBEE61F105504B0304140006080800483BB14271E557112B01000014020000310000006662782F4343
310
4231414445462D463243462D343137442D394641372D4230393536354241393831312F636F72652E786D6C8D515B6EC32010BC0AE22B55850D7E261126CAA33E412FE000495162B07854397EA176A4F62F3F2C9A9D991D58BA7B8C77F02DAD53467790641802A9B9114A5F3B18FC05AD21D8316A8DF17F6810E861941D4C30
310
64F46A4D9816881BEDA5F611D546C8051C9C931E027E8F970E3AFE25C7211B828F0C77CBA681DF86ABCC4816DB91C7A8F3360600F3907442763C1EC8FEF4D1A3BE38F6A822ED096DFA7D8B0E785337F561BF591342F359C868084A2C7225621C7551D2BE6A92C48C7A353EE3732B072F0564052625C23522ED276EB745B325
310
ED3BAEB725A679A2FF138549BC280A4AFBB258E2CE3207597CCDDC60549870BE3FC3C8C764AC0769DECA49FE0619CE30217555562DCD676AFC80E8D9548BA7F3C6C60F5EDDCE915D2EC64DC5689E7614CBEF02634DFB643F504B0304140006080800483BB142F34E3FAD5701000033030000300000006662782F4343423141
310
4445462D463243462D343137442D394641372D4230393536354241393831312F636E782E786D6CBD93CD6EC23010845FC5F2B5CA1F81809063A41EFA043DF4EAD84B7149ECC83F5579FBAEC1502E1C2A55BD58D1EC7866F5C961BBAF69249FE0BCB6A6A74D595302465AA5CD7B4F63D8171B4A769C396BC39D8D122326E869
310
922967EFCEC6394B0AF6228E01D5519B63161D781B9D048F72BA49462BC58801608A88224C0328058ADC8CF8B50787ABA0389C48380079797E2376F800193CAB520A6755EAE02C9DB9E9CE44891C85F73DF5F2009328450C56813F964A045136E5B5EBC14E3F49245DB85646A7492AEF693A29CF1B95C8915538E4CC0787F4
310
B2299C66A05CCCF3A8A50808B93A1B2F1ECEA236A15B66AF46F00EDDEDA2DB6C30EC3CE32CE809B2433A100114E58BBA698B7A5534EBD77ABD5D74DB66FD54AFB66DCDAA64E76CB076CC9730069C9D89B42680099437AC4AE347F8B28F28ED90B575A75F804400B9F542E796F1977C9AAE5D2EFF914F757EDF88CBE15FC0BF
310
01504B0304140006080800483BB1427CC83874620700009A1B0000340000006662782F43434231414445462D463243462D343137442D394641372D4230393536354241393831312F6F626A656374732E786D6CED59DD73A33610FF5718FAD23E181BDBC9251DC24D1227379E36ED4DDDBBE98367181964A24608461249DCBF
310
BEAB0F301093E05EFA760F3620A4D5EE6F3FB5041F9F33EA3C622E48CE2E5CDF9BB80E66719E10965EB8A5DC8ECE5CE76318F03C978D69AEC350862F5C35EC8641CAF3B2B04309DEA292CACEE8EDD55F8E8831C3AE135324C4852BE27B9C210F95324FB078F0122491976E9F3DDF3313DB64538E8AFB0ED10271CC24700AE3
310
0CA8388629BFFD3871C7613056EFC340FDDB59B341B3E6FDB3C65AEA369784098958FC82A50E99D9209666FE7C71333D391F9DCCE7B3D1FC74EA8FAE6EAF1623FFC36C727D7A7D7D7E79730EEC6DF29C5A99125C609680FE766EE80763F5A616DD227088EB38670CC71A48804A8BD52548B080AD1AF04DDA8FBE92A8F15A4B
310
D8789EABF79685C6F0AC4DA56FD630205A744110BB5D2571756DCA976FFE06C1C510A3E4024BE056480EDAB5F070F00A379C0463331A069BBD2E887032243127883A946C38E2A01498AAA684815960C928E7E040CA511268CD99D76DDB02CF7CDB750E71B92D29559EE186DAB122703F2C85E68CFC83F99EFB2632C013485B
310
1226CF2C97725760373C0FC67A300CD46536B52F0D90CE96A2546844CCDB8EA0D7CAF5970B37FCE576F3BC52E1E0F0E605CF0BCCA5323AA547CD1718B2BD2A94ECB6FE20CDA905208C01D5AEDC83F20720FF1B448F3D2BA0374E9EE7CF733B5772C4C436E719E8C69938A309FC4D1C5FFFABFBC65D30AE17B7B5D78727B8A9
310
82EAECDBF16CCBA0B1B2FC37E00C834730F89CCFECAB558C28D8F31D610090321287E63004A17DBB7976C325044E08F4B00AD1D0079181DD47B80DC696CC5E2B957B59AF6380A8DD63364449009BB64860A3474F9F207B7012EFD5D414B10FDE937731D7CBC5EA9755C9B728C677D6A717784B189190350F33D4C2BC25D103
310
DE3DE53C01415FE2BD6AE29DD9AD04A0AD3057C0A71508EA61BF736B8318D6A5B90A37C11B3B80102A5737E8DF1111634A11C37959ED5B473765A8B5C7DB9AC10DA706E2D9B463C21C3F12555580D3EC67B41885BC1F73522810DDF09391AC0E9A5E8F745F96BF8145D6F37B662D19845E86E89F3A681DC0A165D915D21688
310
5AE0CD3E9CC739CD79B4D94526D2B9504B001B6D6FF9DA220AB1DE284951010FD27E578594D4481B2564BB2D05C4D5032C7E5D5E37CD61E2CDFC13A7F9DF71C639445BF05DC4ADDF75F6884886521C6D51D2B75D73B79AB6D0247B4873BCA520177924721721194D129C1E03CD51C4CFDF957A4A732108C302F2D541F09B68
310
4C3C0824469B15CB4AAB1DA08988322C113D060145A6075C9D76748D1B43E9F0368FB5F5BEA6B126D1FFC92238825A32671181521472C89B8CFBDE09C49036BA06E50EBE606D156D2D062DA1848877D11326E9BD3C067543BE07F7188E24A58CF202C560D603C8BEF015A5D40EEF1B143FA8FC11C5257D2F0311986E234269
310
9945F0230C4E1E435CBB0E4CAFA2D0206E629FC419146548967CC826A7279317FB989AA11B021B1B6D0985B01D65A8E841BD1510753DE2D4E05BEA3D4ADD945911A12C2FD92043F1665D6FB2E4BB6A556407F2AB4A45281B2BC29660181026EBAC5AC56C30751D58C18D74A0DA4502650535A7B037128F5F7B93A6DCBB01B7
310
7EFABE1B6450F8F568AF1951E7150C96C75661209E908CEFDD70A5AFA32BA8BF139CEC537D556B362B40404C45F29213ABA22F4B286F6C8DE68677488AF5279375ABEB97A507DD8F600C6BA076A9172E15D0196612A9CAE44EDDD03F1084E0160D33BE5439F5182A9749A2AB46446F499F3A5B65446BD38C78C53D6679063F
310
B6262CA66582D728110FD19DA4D18A28D6AD945E462A8C5F15F0F74FAB0E3C303240A4CFAAC0C34F9DB576F45A954B0789C8FB32DB30442008B6444B8D6EBC82A556239596EBAB3A5340DD050666553CFF7EB268B623BE9F2C526B18DF74B2B8DAFD8A76CDBE48239DC7CAAE8F3A06D4F94951798F63806E3BD454EB2C6292
310
B995DF3A530441B18AF283ABB12A6818827D1CFFE7ACDD9705CD761DFE8FCBDAFE8B8AE3A8ACD29AACBA54072AD76533877D3839992EE6F3D3D174763E8106EDCDD9E8EAF4F466F4E1F666723AF16FE0D5A246533B6A18D4C14CE72E783641AD1A564F1603E8CA8A9C92044EF389936288F912CEF403DAE73CC3029267B3D9
310
9DD8A6FC80D58FA6CF29D186E28A937B040D622A20AD0346652CDBE3CE0FD09A9470D0BE70A169E43DC09FB54AD781CC73E142AB4092180B6F036D26D5D0D3C421E5EADC6F89013E88A52A259A45F573BD4A61D30AFFF5942169C0CAD5EA6140E15640F7ABD5A1D0BC599EE2A304AFD8719084DB4D29A15A33B2EC076A61F4
310
367BF51BD928610F76EB6770DDD7C5F23D3DA785C8A04F06AF1A81A13A9288A7BADFAD18B32C5D2E3E8FA1CFE62C7F770A5AA6A0CBE194461C833197AAA0022B02ABB0340B24C154AF7F5E7FE6397CE2C91C5D15393F3E9F9DFEB4BECEB32C6766687D09A7B2043E1439AB7BF8EC93ACA178C0AAB92ED6D3893F5DEBA6B6ED
310
B3471B24B0A7AA2218A88A092548C7E4C02E5F34A86CFB72AC54D199BE5C3836884233C0D8D18B1EAFF9C8E5800FA9CF29CA63B49F57D2BEDAD71EEBA960131C3AD2E1BF504B0304140006080000483BB142000000000000000000000000350000006662782F43434231414445462D463243462D343137442D394641372D42
310
30393536354241393831312F76657274696365732E62696E504B0304140006080800483BB142F270F1330600000004000000360000006662782F43434231414445462D463243462D343137442D394641372D4230393536354241393831312F747269616E676C65732E62696E636660600000504B0304140006080000483BB1
310
42000000000000000000000000370000006662782F43434231414445462D463243462D343137442D394641372D4230393536354241393831312F617474726962757465732E62696E504B0304140006080800483BB142D5987DFC8F00000041010000360000006662782F43434231414445462D463243462D343137442D3946
310
41372D4230393536354241393831312F6469726563746F72792E786D6C858F410EC2201045AF4266AF15DDB800BA74E7C21B903225242D6328188F2FA5C4183471359997F9FF81E89FF3C41E1816475E02DF1F80A11FC8386F25A438EECEC07A250251FC3803E6F58C12560C4AD840E95E91C151A72936F496F35732D860FE
310
635F62C8F2DA16B505C545B74125BAA2FA9E05D7CC053D063734D5C7665FD55B6B8D15D5E9BFEAFD8490FFA45E504B0304140006080800483BB1420E15A416FD000000A00100003B0000006662782F43434231414445462D463243462D343137442D394641372D4230393536354241393831312F7265736F75726365732F63
310
6F72652E786D6C8D50596AC33010BD8A99DF225BF29A0459C190F804BD809027AE482C052DA5C7AF1CBBD0FEF56766780BF378FCFCB53CB24F745E5BD303CB296468949DB4997B88E1460E909D0577D6865F32C88C5CB0871506C16767E373879435014D48A8B113EEA0F41E0364EA918E1EBCFAC045E63286A4F0F7FC29D5
310
5DCE98B33CD14927B80F2E05C8B627EB04E1D0DBE8147A5E6CACE031EA69D7E829FDD4378D0EC4402FF5B51A067265C70BA987A625473A96A4A663C79A7A6C9BC3C88BD52C78D0CB4F46E550069C4094945584368475EFB43B95ED89756FB439559417ABFC8F293EA77F9AA236A12AF7B89BCD836029C88B10BC58FB4AEB55
310
66DA6BB7E21B504B010214000A0000080000483BB1423DEE336E79000000790000001B00000000000000000000000000000000006175746F6465736B2D64657369676E2D7061636B6167652E786D6C504B01021400140006080800483BB142D486FD9CA0000000F40000001300000000000000000000000000B20000005B43
310
6F6E74656E745F54797065735D2E786D6C504B01021400140006080800483BB14266FFF927EB0000007C010000080000000000000000000000000083010000636F72652E786D6C504B01021400140006080800483BB14255019EA25F0000007C000000070000000000000000000000000094020000636E782E786D6C504B01
310
021400140006080800483BB14222C8C55C68010000020300000C00000000000000000000000000180300006662782F636F72652E786D6C504B01021400140006080800483BB142432E0B967E0000009D0000000B00000000000000000000000000AA0400006662782F636E782E786D6C504B01021400140006080800483BB1
310
4271E557112B010000140200003100000000000000000000000000510500006662782F43434231414445462D463243462D343137442D394641372D4230393536354241393831312F636F72652E786D6C504B01021400140006080800483BB142F34E3FAD57010000330300003000000000000000000000000000CB06000066
310
62782F43434231414445462D463243462D343137442D394641372D4230393536354241393831312F636E782E786D6C504B01021400140006080800483BB1427CC83874620700009A1B00003400000000000000000000000000700800006662782F43434231414445462D463243462D343137442D394641372D423039353635
310
4241393831312F6F626A656374732E786D6C504B01021400140006080000483BB1420000000000000000000000003500000000000000000000000000241000006662782F43434231414445462D463243462D343137442D394641372D4230393536354241393831312F76657274696365732E62696E504B0102140014000608
310
0800483BB142F270F13306000000040000003600000000000000000000000000771000006662782F43434231414445462D463243462D343137442D394641372D4230393536354241393831312F747269616E676C65732E62696E504B01021400140006080000483BB142000000000000000000000000370000000000000000
310
0000000000D11000006662782F43434231414445462D463243462D343137442D394641372D4230393536354241393831312F617474726962757465732E62696E504B01021400140006080800483BB142D5987DFC8F000000410100003600000000000000000000000000261100006662782F43434231414445462D46324346
310
2D343137442D394641372D4230393536354241393831312F6469726563746F72792E786D6C504B01021400140006080800483BB1420E15A416FD000000A00100003B00000000000000000000000000091200006662782F43434231414445462D463243462D343137442D394641372D4230393536354241393831312F726573
310
6F75726365732F636F72652E786D6C504B0506000000000E000E00800400005F1300000000
  0
XRECORD
  5
17
102
{ACAD_REACTORS
330
12
102
}
330
12
100
AcDbXrecord
280
     1
270
     1
271
     1
  0
XRECORD
  5
16
102
{ACAD_REACTORS
330
12
102
}
330
12
100
AcDbXrecord
280
     1
270
     1
271
     1
  0
XRECORD
  5
18
102
{ACAD_REACTORS
330
12
102
}
330
12
100
AcDbXrecord
280
     1
270
     1
271
     1
  0
XRECORD
  5
15
102
{ACAD_REACTORS
330
12
102
}
330
12
100
AcDbXrecord
280
     1
270
     1
271
     1
  0
XRECORD
  5
1591
102
{ACAD_REACTORS
330
22
102
}
330
22
100
AcDbXrecord
280
     1
102
MATERIAL
148
0.0
149
0.0
149
0.0
 93
        0
 94
      127
282
     0
 72
     0
 77
     0
171
     0
175
     0
179
     0
273
     0
  0
XRECORD
  5
24
102
{ACAD_REACTORS
330
22
102
}
330
22
100
AcDbXrecord
280
     1
270
     1
271
     1
  0
XRECORD
  5
23
102
{ACAD_REACTORS
330
22
102
}
330
22
100
AcDbXrecord
280
     1
270
     1
271
     1
  0
XRECORD
  5
BA
102
{ACAD_REACTORS
330
22
102
}
330
22
100
AcDbXrecord
280
     1
 70
     1
 90
1959938040
 71
     1
  1
4C7A5D75-9214-4A8A-BDC7-24C7CAF17FFD
311
504B03040A0000080000473BB1423DEE336E79000000790000001B0000006175746F6465736B2D64657369676E2D7061636B6167652E786D6C3C3F786D6C2076657273696F6E3D22312E302220656E636F64696E673D227574662D3822203F3E3C666F726D6174733E3C666F726D61743E687474703A2F2F736368656D612E
311
6175746F6465736B2E636F6D2F64657369676E2D7061636B6167652F323030393C2F666F726D61743E3C2F666F726D6174733E504B0304140006080800473BB142D486FD9CA0000000F4000000130000005B436F6E74656E745F54797065735D2E786D6C7D8EC10E82300C865F65E91D8A1E8C310C0EEA1BF002731658846E
311
D98AC1B77784ABF1D8FE5FBFBF75BBCE937A534CCEB38643598122B6FEE978D0B0485F9C41B54DDD7D022595594E1A469170414C76A4D9A4D207E29CF43ECE46F218070CC6BECC4078ACAA135ACF422C856C0E68EA1BF5669944DDD7BCDE7B1F8E415D77AECB980613C2E4AC91FC167A2B244592486606FC29C8FD7F045B9A
311
EF7053A7E60B504B0304140006080800473BB1425F10925AEA0000007C01000008000000636F72652E786D6C8D904D6EC3201085AF82665B61F363378E8589DA2437E80510262E4A0C9681AAC72F248ED4EEBA9AD19BF7CD8C9E387CCF37F465D660BD1B8056049071DA8FD64D03A478C11DA08314ABF7F1970D9053B319A0
311
C820C5B4FAB46C92F62E1A17B3EAFC683651856022207DCBCD00417F9A59552AC5EC08D76A51FAAA2653D16797E194EC881E47EC98F7D98B352BC8AEEB08698F674CDE8F14373BCEF09E34677CE26FCD9E33CEC8898ABAC052443B3FEFEBD5A86846908C508E498BE9EE83EC7AF6DAD3E685B43D27A22EF63F505AC67F42C9
311
BAC8D9F6EE030B20CB23F7811475C922977B50B996DCE40F504B0304140006080800473BB14255019EA25F0000007C00000007000000636E782E786D6C4DCB3B0E80201045D1AD90E915ED2CF8AC45050C11660C8261F98AB1B07AC9C97D42D718D865D3E909258CFD00CCE24AC6E326A164D74DC0B4128928FF326038472B
311
A13128B1252AC747C6BAB984FC68F0B87FE8960A5C09FE86CFB69FBA01504B0304140006080800473BB142C942C52766010000020300000C0000006662782F636F72652E786D6C8D52D96E833010FC15CBAF15D81C690E19476D923FE80F38C6A12860231F289FDFE58868AA28AA908C35B3B33B3BC0F6B7B641BDB2AE36BA
311
C0494C31525A9AB2D6558183BF441B8CF69C5963FCAF328CB4685581071873565913BA1992467BA53DA0DA946A068573CA63241BB814D8C96FD58A58040F15EE1A77425E45A5E224061AEA3873DE8201340D194ECC2FE71B2313CE59087539B37509D3EA4BAD2CE69BCD86D2D5E114D1CF4312E5EB2C8DB6343F45C7EC23DF
311
666996D263C2C820E6CCD7EDDD9DB44A7855629ED2248BE82A4AD65F74BD4BDF7749FE4657BB8C3232943F884257FE53146AEDB374B63BC91CE6839191F8B32D44E491133DF8219C912144788D093F060D8140C85E9C9BFB1E57807A25BDB13930A5090BD58B2628984AD1F83032B1D0796C009B3DED93BEE8F3BA077C40A1
311
2BB0263C5CCFC10FD3D934758EA25336EAFD0D69635BD12CE6268BCBB90C7A2A97A631F63F6A32AF4AE630C9F0F7F21F504B0304140006080800473BB14217AE0A987E0000009D0000000B0000006662782F636E782E786D6C4DCCD10A83201886E15B91FFDCD55FAE0CD46891F711CB42663A5C8E5DFE6A74B0A30F1E3E5E
311
D17E5647DE26BE6CF012F0920331FE1E26EB1709699B2907D22A1143D8FE6E40FCB81A090783124B0CE979D264E631B96D5767FDE34444DDD543D7D02B96356515E7F4A62B468B7C60D8970536BD864C89EC57DAF708AB2F504B0304140006080800473BB1422D92FD952C01000014020000310000006662782F3131464137
311
4541392D353133372D343638382D424636342D3230453431433332313943462F636F72652E786D6C8D515B6EC32010BC0AE22B55850D18DB498489D22839412F406C92A2C460F1A872FC42ED48ED5F7E58343B333BDAE5BBC77807DFCA796D4D0749812150A6B78336D70EC670416B0876823B6BC31F1A04468EAA83198682
311
5F9D8DD302F5D6046542428D1DD4024AEF5580A0BFA74F077DFFA54659C81812C3DF8A49F63779550529523BF104F7C1A500601E925F280839EDDBE37E836A52B58835EB35FA38350C517C64E45051B2399C78390B058F510F8B5C0F298EBE68E55E35C962C1831E9FF17BA76450031414930AE11A91F613B75BDA6C097BC7
311
F5B6C2BCCCF47FA2380D2F8AA236A1A24BDC59E653565ECE0DC1071BCFF76718F598AC0B20CF5B79D5BF41810B4C70433165BC9CA96901C9B3618BA70FD6A505AF6EE7C426F56CDC30C1CB7CA3547E0F986ABEA7F801504B0304140006080800473BB14296D67C284F01000033030000300000006662782F31314641374541
311
392D353133372D343638382D424636342D3230453431433332313943462F636E782E786D6CD593CD6E022114855F85B06DE64F476D0C8349177D822EBA65E05AA90C4CF869EADBF7A268DDB8E8B21B3239F770CECD1786EDBE2743BEC007EDEC40BBBAA504AC744ADB8F81A6B8AF9E29D971E69D8B77364AAC9860A059A69C
311
7D7897E62229D88B6422AA46DB63113D0497BC848072BE498C93C26000D82AA108D3084A812237237EEDC1E32A288E27120F405E5FDE891B3F41C6C09A9CC259933B38CB6769BA3351228D0861A0411E6012B548D12908C75A8928EAAEBE763DD8E93789E40BD7CAE435C9E503CD27E565A31A39B206879C85E8915E31C5D3
311
0C948B79365A8A88909BB3F1E2E12C691BD77DF16A04EFD1DDAD977D8F61E71967514F501CD28388A0285FB4DDB26A5755B7796B37DBC57ADBF54FED6ABB6C5993ED9C8DCE99720963C0BB99486723D84879C79A3C7E84AFF888D21E593B7FFA034804505A2F746E19FF994F737EDF88CBE35FC07F00504B03041400060808
311
00473BB14223644769A505000080100000340000006662782F31314641374541392D353133372D343638382D424636342D3230453431433332313943462F6F626A656374732E786D6CAD575D8F9B3814FD2B887DD97DC80749A633B362A832495345D5B455A356FB1029326018760C46B69966F6D7EF313604D2649A5DF525
311
04737D7DEFB9E77ED87FBBCF99F34C85CC7871E77AC3B1EBD022E27156A4776EA592C18DEBBC0D7CC1B9EA88B94E41727AE7EA6537F053C1ABD22EC53421155347ABABFBBF1C19D182BA4EC4889477AE8C1E694E86A4523CA6F2691813458669B21F7A4323D8579B0A523E1E292D89A08582A5582FA0C5314679FDD7B13B0A
311
FC91FE1EF8FAD74A4DCF4B8D6A7FFAE7678554A4887E38EC48CDD49B2DDF4DAE6E0757B3D974307B33F106F7ABFBE5C0BB9E8E176F168BDBF9BB5B1C2C9580266B89A0891BBC0736228BFC91F914F85556A8E9C48AD8008D047DCE74A4DC60E278FEC8C8B4DE59274F991FF1A2A0518D15D0A8FDB3AA635AD22246CC332A61
311
5907A171FFD5D338763E4FF5BB3DB2BB7C1902DD1D1D458DEDCDB36B290FFF860BF21206094935030D96D651C3D5F101E1907366BF65D2C989A22223CC61592888787103886A91C0EFA9D14C163A1BB4076E802898CF7DBA208D7ECEF353562615639AC66E5067C10EB94295AC2DCBFEA1E2607D1719D884586936DC5887D4
311
4B49DDE0D650E4E6884D064827612445C8E1A6DE399D1C39BAD079BA5EBAC18755B8DFE8DC3D7D7829784985D2F401B59AC0354F8D92B5C9BB28727A837B64CA01942F40FE2352FD600AE226B2FD6C3FB3A728410A9970912336CED8198CF13376BCFA57FFEFFCF347EDE67EF4CEE189606BA87E019E7D1FBAB1ECC019F8CF
311
203C1753EBDA26220C65E3212B00902689C3389650879370EF066B54395465EC222CF0E032CC7DC65F7F64D5A050D427759E05B03C2A8B171468C05633126618F25B030F71FAA19CD5075BB173F05EFD12BACE979B0F9B4A2424A20F36A79734C98A4CA1C51D78D335A88779CFA327FAF29D8B188EFE88F7A68B776E8F9240
311
5B63AE814F9B9AAE5F0E27F70E88B02FE5BADCF83F39014EE8C6DAD1FF90C98832460ACAABE6DC57FB07DA86815827BB6672DB600E8D05A4315F8E72104D3A1259A9416CBB555B348767BCFBBAFE0846429EF190B083507828BD11675CECC2979DA94A2791FED6A7B68560A4B580ED758E34E96F31DFC55992541235F004AC
311
DFD68B6EE87455408568B49A6499C17DE4161196B38D5E346B41D04879B1CBD0369176270FE8EA07A29600B5C273164BCA925DC65895EF928CA119ED72529E81E3FFDB1F5679B92339AF0A754677CF743487BEED3DF2CAEF44458F6EB0A99F837B94DE98C68730F784752B3981552FB4B3C5F5FC6A797D35B89D78B3C16C7E
311
331FDC2F17D783C96C71BD98AFBCEBD56AD9C4C9280FFCA6D374131A514267F32B91D9F07D5D237D6C0D708307A2E4F6BDC9CEE6F9753DC428EC8FB007EDB2DD388F9F31F6D1F8E70A0E922715ADF392D19C168AE8147AD07FD8178231A3678C595FE724A51768F9F47E73E40C562ED8F759A73BFD7EB4D7AE2E74429E54A2
311
1EAB3C2C48C68E36A606C96159A416BF2626EDD3F499E655BFD9C06030959C6531CA60ECA494E754A1185ED083444E25A8D71DE9637BF5B860F7B319101509196D2C7924989199445A805A55A4FAEBCE6F98E9F45875E7A2DB0E9FF0632B85EB8033772E66749545540E43F4673D09D5CAC1A5EE208FB99F1429C3A86D36B5
311
EFED2E8D4DAF23B722978C4FD62F53C1AD03282325C606CC43884E6D4CE0D7B6D9EFD17F72BC31C7210A7FC34AB5BE1C165A67EA6390A2C6297B59C00CF3648FDE23515F77CB1BD6323D442EBA64BD4A02A375A08848EB8B82B6CF9A345F7E1E614071D69F9C9255296279B9A681A02073A5131C2C022BACCE92285075F1E7
311
F6B3E0B8C8E6CE2A03059CDFF7376FFED82E789EF3C22C6DE7F63AEC6C1E71B98DB7280E54DF4AE47632F626DBFA36602F28BB90483A24B17CC202222BB216E85EF8C14B7365441F321F5AB9910EC51143D74BC736B619945ABA746BAB06077347411DE490BE51EA8CE90A94AF5E0846B5284C1018E5837F01504B03041400
311
06080000473BB142000000000000000000000000350000006662782F31314641374541392D353133372D343638382D424636342D3230453431433332313943462F76657274696365732E62696E504B0304140006080800473BB142F270F1330600000004000000360000006662782F31314641374541392D353133372D3436
311
38382D424636342D3230453431433332313943462F747269616E676C65732E62696E636660600000504B0304140006080000473BB142000000000000000000000000370000006662782F31314641374541392D353133372D343638382D424636342D3230453431433332313943462F617474726962757465732E62696E504B
311
0304140006080800473BB142D5987DFC8F00000041010000360000006662782F31314641374541392D353133372D343638382D424636342D3230453431433332313943462F6469726563746F72792E786D6C858F410EC2201045AF4266AF15DDB800BA74E7C21B903225242D6328188F2FA5C4183471359997F9FF81E89FF3
311
C41E1816475E02DF1F80A11FC8386F25A438EECEC07A250251FC3803E6F58C12560C4AD840E95E91C151A72936F496F35732D860FE635F62C8F2DA16B505C545B74125BAA2FA9E05D7CC053D063734D5C7665FD55B6B8D15D5E9BFEAFD8490FFA45E504B0304140006080800473BB1424CBBBCC2FD000000A00100003B0000
311
006662782F31314641374541392D353133372D343638382D424636342D3230453431433332313943462F7265736F75726365732F636F72652E786D6C8D504B6EC32010BD8A35DB0A1B8CD33811266AE3DEA0174078E2A2C410F1A97AFC42EC4AEDAE9B99D1FB689E9E387D2DB7EA137D30CE0EC06A0A155AED2663E70152BC
311
901EAA9314DEB9F84B0695550B0E50609062F62EDD37483B1BD1C68C5A37E106AA103042A56FF91820E80F5C54AD52CC8A70ADEF4A5FD58C35AB339D755284E873806A7D5226488FC125AF31886665A548C94C9BC64CF9A7B918F420FBBEA774771E097D3D33D2ED794B0EB47B23237FE90EBCE52D1D99688A598A68969F8C
311
DAA38A38816C29E384EE08DBBFD3FDB17D3EB2EE89EE8E9C8AA6C8FF98D27DFAA729191B79BBC55D6D016409F220A4684A5F793DCACCBB742BBF01504B010214000A0000080000473BB1423DEE336E79000000790000001B00000000000000000000000000000000006175746F6465736B2D64657369676E2D7061636B6167
311
652E786D6C504B01021400140006080800473BB142D486FD9CA0000000F40000001300000000000000000000000000B20000005B436F6E74656E745F54797065735D2E786D6C504B01021400140006080800473BB1425F10925AEA0000007C010000080000000000000000000000000083010000636F72652E786D6C504B01
311
021400140006080800473BB14255019EA25F0000007C000000070000000000000000000000000093020000636E782E786D6C504B01021400140006080800473BB142C942C52766010000020300000C00000000000000000000000000170300006662782F636F72652E786D6C504B01021400140006080800473BB14217AE0A
311
987E0000009D0000000B00000000000000000000000000A70400006662782F636E782E786D6C504B01021400140006080800473BB1422D92FD952C0100001402000031000000000000000000000000004E0500006662782F31314641374541392D353133372D343638382D424636342D3230453431433332313943462F636F
311
72652E786D6C504B01021400140006080800473BB14296D67C284F010000330300003000000000000000000000000000C90600006662782F31314641374541392D353133372D343638382D424636342D3230453431433332313943462F636E782E786D6C504B01021400140006080800473BB14223644769A5050000801000
311
003400000000000000000000000000660800006662782F31314641374541392D353133372D343638382D424636342D3230453431433332313943462F6F626A656374732E786D6C504B01021400140006080000473BB14200000000000000000000000035000000000000000000000000005D0E00006662782F313146413745
311
41392D353133372D343638382D424636342D3230453431433332313943462F76657274696365732E62696E504B01021400140006080800473BB142F270F13306000000040000003600000000000000000000000000B00E00006662782F31314641374541392D353133372D343638382D424636342D32304534314333323139
311
43462F747269616E676C65732E62696E504B01021400140006080000473BB14200000000000000000000000037000000000000000000000000000A0F00006662782F31314641374541392D353133372D343638382D424636342D3230453431433332313943462F617474726962757465732E62696E504B0102140014000608
311
0800473BB142D5987DFC8F0000004101000036000000000000000000000000005F0F00006662782F31314641374541392D353133372D343638382D424636342D3230453431433332313943462F6469726563746F72792E786D6C504B01021400140006080800473BB1424CBBBCC2FD000000A00100003B0000000000000000
311
0000000000421000006662782F31314641374541392D353133372D343638382D424636342D3230453431433332313943462F7265736F75726365732F636F72652E786D6C504B0506000000000E000E0080040000981100000000
310
504B03040A0000080000473BB1423DEE336E79000000790000001B0000006175746F6465736B2D64657369676E2D7061636B6167652E786D6C3C3F786D6C2076657273696F6E3D22312E302220656E636F64696E673D227574662D3822203F3E3C666F726D6174733E3C666F726D61743E687474703A2F2F736368656D612E
310
6175746F6465736B2E636F6D2F64657369676E2D7061636B6167652F323030393C2F666F726D61743E3C2F666F726D6174733E504B0304140006080800473BB142D486FD9CA0000000F4000000130000005B436F6E74656E745F54797065735D2E786D6C7D8EC10E82300C865F65E91D8A1E8C310C0EEA1BF002731658846E
310
D98AC1B77784ABF1D8FE5FBFBF75BBCE937A534CCEB38643598122B6FEE978D0B0485F9C41B54DDD7D022595594E1A469170414C76A4D9A4D207E29CF43ECE46F218070CC6BECC4078ACAA135ACF422C856C0E68EA1BF5669944DDD7BCDE7B1F8E415D77AECB980613C2E4AC91FC167A2B244592486606FC29C8FD7F045B9A
310
EF7053A7E60B504B0304140006080800473BB1429F7FA8EAEB0000007C01000008000000636F72652E786D6C8D904D6EC3201085AF82665B61837F12D7C2448D2B4ED00B20202E4A0C9681AAC72F4E1CA9DD7535A337EF9B193D76FA9E6FE8CBACC17A37002D0820E394D7D64D03A478C11DA01367ABF7F1970D9093B31960
310
9381B369F569D925E55D342E66D5796D76518660222075CBCD00417D9A591632C5EC08D76291EA2A2753D06797E194AC468F2356E77DF662CD0A7C3C8F6D2B5E0526A21B7153098ABBF78662722607418F9D68DE3A566E3067D1CECFFB6A35321A0DBC22B4C6A4C5F4F8418E7D75E869F342DABE26ACDCEC7FA0B4E87F42C9
310
BA5857FBBB0F2C00A7F991FB80B372CB22977B50B96EB9F11F504B0304140006080800473BB14255019EA25F0000007C00000007000000636E782E786D6C4DCB3B0E80201045D1AD90E915ED2CF8AC45050C11660C8261F98AB1B07AC9C97D42D718D865D3E909258CFD00CCE24AC6E326A164D74DC0B4128928FF32603847
310
2BA13128B1252AC747C6BAB984FC68F0B87FE8960A5C09FE86CFB69FBA01504B0304140006080800473BB1425000843768010000020300000C0000006662782F636F72652E786D6C8D525B6E833010BC8AE5DF0A6C134868641C35A938412FE0804351C046C646397E9747445345518564AC999DDDD9017EB8B50D1A94ED6B
310
A333CC428A91D285296B5D65D8BB4B90627410DC1AE37E9561A465AB323CC258F0CA1ADF2D5061B453DA01AA4DA91650F6BD7218150D5C32DC17DFAA95A1F40E2AFA6BD8C9E22A2B15B21068A813BC77160CA079C878627139DF389971C1BDAFCB85AD4B98565F6A65B1381D4F4992BFE701CDD3531047390BD2CF9805F448
310
B739DBA579FC9172328A0577757B775758259D2AB18828DB043409D8EE8BEEF6D176CFE2379AEC379493B1FC41E4BBF29F225F6BB78916BBB3ACC782819189F8B32D44E4502F07F04304276388F09A127E0C1A0281909D3C37F73DAE000DAA70C6C6C094C6AFD4201BAF602A45D3C3C9CC42E7A9016CF6B44FF4A2CFEB1EF0
310
01A5AEC09A74703D7B374EE7F3D4258A4ED9607037A48D6D65B39A9B2DAEE73AE8A9BC308DB1FF51936555B28449C6BF57FC00504B0304140006080800473BB1426EE01DB77E0000009D0000000B0000006662782F636E782E786D6C4DCCD10E82201886E15B61FF39290AA11BE02CE33E5CA263213482D6E5A7CD838EBEED
310
D9B757749FD5A1B7892F1BBC04722A01197F0F93F58B849C66DC00EA948821A4BF1B203FAE46C2CEA0C412437E1E349979CC2E6DEAAC7F1C786D38AFB56698F072C0940E356E2F6D8FFB3361951ED8ADA21C0A258A5F69DB3DACBE504B0304140006080800473BB1427B6A82A02A01000014020000310000006662782F4338
310
3737334646352D313730442D343444332D394239412D4136313532464435453234372F636F72652E786D6C8D515B6EC32010BC0AE22B55651BFC8C234C9436CD097A0102C44589C1E251E5F885DA91DABFFCB068766676B44BF6F7E906BEA575CAE801E21C4120353742E97180C15FB22D047B4AAC31FE0F0D02CD2639C004
310
434A466BC2BC42DC682FB58FA83642AE20734E7A08F82D7E06E8F8979C58CE828F0C77CD67C6AF6C9439CE633BF22871DEC6006019925E48DFB75D579D4E4D863B74CCEAFA5865FD5B7FC80E2D6ECAD3B1F928EB8E148B9092109458E54AC438EAA2A47DD6248929F16A7AC4E756322F05A425C2558652864FD4EDCA7687EB
310
57D4EC2A448A44FF270AB378521494F655B9C65D640E524C8AA5418930E17C7B8491F7D9580FD2BC8D93FC055294238C1BDCA39E140B352E207AB6F5EAE9BCB171C19BEB39B2ABD5B8AD2929D28D62F93D60ACE99EF407504B0304140006080800473BB142F071B33F5601000033030000300000006662782F433837373346
310
46352D313730442D343444332D394239412D4136313532464435453234372F636E782E786D6CBD93CD6EC32010845F0571ADFC173B3F8A30917AE813F4D02B864D4383C1025C356FDF2521692E3954AA7A41D6EC30B3FA84D9EE6B34E4137CD0CEF6B4296B4AC04AA7B47DEFE91CF7C586921D67DEB97867A3C48A117A9A64
310
CAD9BB77F39425057B319B88AAD1F698450FC1CD5E424039DD24C6496130006C31A308E3004A812237237EEDC1E32A280E27120F405E9EDF881B3E40C6C0AA94C259953A384B676EBA3351228D08A1A7411E6014A598A353108EA51251944D79ED7AB0D34F124917AE95B3D72495F7349D94E78D4AE4C82A1C7216A2477AD9
310
144F13502EA6C968292242AECEC68B87B359DBB8EAB25723788FEE76B1DA6C30EC3CE32CEA11B2437A101114E58BBA698B7A5934EBD77ABD5DACB64DF7542FB76DCDAA64E76C70CEE44B1803DE4D443A1BC146CA1B56A5F1237CD94794F6C8DAF9D32F402280DC7AA173CBF84B3ECDAAEDBA7FE4539DDF37E2F2F817F06F50
310
4B0304140006080800473BB142705A479C61070000991B0000340000006662782F43383737334646352D313730442D343444332D394239412D4136313532464435453234372F6F626A656374732E786D6CED595B73A33614FE2B0C7D691F8C8DED6C920EA1E3D8CD8E6727DB9DBABBD307CF3032C8448D108C2472E9AFEFD1
310
050CC424B89BBEF5C106847474CE77AE3A04BF3C65D479C05C909C5DB9BE37711DCCE23C212CBD724BB91F5DB8CE2F61C0F35C36A6B90E4319BE72D5B01B0629CFCBC20E25788F4A2A3BA337D77F3A22C60CBB4E4C911057AE88EF70863C54CA3CC1E2DE4B90445EBA7FF27CCF4C6C934D392AEE3A440BC43193C0298C33A0
310
E218A6FCF6E3C41D87C158BD0F03F56F67CD06CD9AF7CF1A6BA9DB5C12262462F10B963A646683589AF9F3D5AFD3B3CBD1D97C3E1BCD3F4CFDD1F5CDF56AE49FCF26CB0FCBE5E5E2D74B606F97E7D4CA94E002B304F4F7EC867E30566F6AD12D02C7B88E73C670AC8104A8B4585D82040BD8AA01DFA4FDE82B891AAFB5848D
310
E7B97A6F59680CCFDA54FA660D03A2451704B1DB551257D7A67CF9EE2F105C0C314A2EB0046E85E4A05D0B0F07AF70C3493036A361B03BE882082743127382A843C98E230E4A81A96A4A189805968C720E0EA41C2581D69C79DDB62DF0CCB75DE71897FB9252E5196EA81D2B02F7C35268CEC8DF981FB86F22033C81B42561
310
F2C272299F0BEC8697C1580F8681BACCA6F6A501D2D953940A8D8879DB1174A95C7FBD72C34F37BBA78D0A07C7372F785E602E95D1293D6ABEC090ED55A164B7F507694E2D00610CA876E50194DF01F9CF103D0EAC80DE38799A3FCDED5CC91113FB9C67A01B67E28C26F037717CFDAFEE1B77C1B85EDCD65E1F9EE0A60AAA
310
8BEFC7B32D83C6CAF2DF80330C1EC0E0733EB3AF3631A260CFB7840140CA481C9AC31084F6FDEEC90DD7103821D0C32A44431F4406761FE036185B3207AD54EE65BD8E01A2768FD91025016CDA22818D1E3D7D84ECC1497C505353C43E78CFDEC55C17ABCDA74DC9F728C6B7D6A757784F189190358F33D4C2BC25D13D7E7E
310
CC790282BEC47BD3C43BB35B09405B61AE804F2B10D4C361E7D60631AC4B73156E823776002154AE6ED0BF2522C6942286F3B2DAB78E6ECA506B8FB735831B4E0DC4B369C784397E20AAAA00A739CC68310A793FE6A45020BAE14723591D34BD1EE9BEAE3F8345D6F37B66AD19845E86E81F3A681DC1A165D915D216885AE0
310
DD219CC739CD79B47B8E4CA473A1960036DADEF2AD451462BD5192A2021EA4FDAE0A29A991364AC87E5F0A88AB4758FCB65E36CD61E2CDFC33A7F9DF71C639445BF05DC4ADDF75F6884886521CED51D2B75D73B79AB6D0247B4873BCA720177920F23942329A24383D059A93885FBE2BF594E642108605E4ABA3E037D19878
310
10488C362B9695563B4013116558227A0A028A4C0FB83AEDE81A3786D2E16D1E6BEB7D4D634DA2FF91457004B564CE2202A528E4903719F7BD3388216D740DCA1D7CC1DA2ADA5A0C5A4209113F478F98A477F214D40DF91EDC6338929432CA0B1483590F20FBC25794523BBCEF507CAFF2471497F4BD0C4460BA8F08A56516
310
C18F3038790C71ED3A30BD8A4283B8897D126750942159F2219B7C389BBCD8C7D40CDD10D8D8684F2884ED2843450FEAAD80A8EB11A706DF52EF51EAAECC8A086579C906198A37EB7A9325DF55AB223B905F552A42D95811B604C380305967D52A6683A9EBC00A6EA403D57324505650730A7B23F1F8B53769CABD1B70EBA7
310
EFBB4106855F8FF69A11755EC160796C1506E211C9F8CE0D37FA3ABA86FA3BC1C921D557B566B30204C454242F39B12AFABA86F2C6D6686E788BA4D87E3459B7BA7E5D7BD0FD08C6B0066A977AE15A019D612691AA4C6ED50DFD1D41086ED130E36B95534FA1B248125D35227A43FAD4D92A235A9B66C42BEE30CB33F8B12D
310
61312D13BC4589B88F6E258D3644B16EA5F4325261FCAA80BF7DDC74E0819101227D51051E7EECACB5A34B552E1D2522EFCA6CC7108120D8122D35BAF10A965A8D545AAEAFEA4C017517189855F1FCFF9345B31DF1FFC922B586F17D270B9AEF103D449B46368F95599F740AA8D393A2F21EA700DD75A8A9D649C4E4722BBE
310
F5A508626215E407176355CC3004FB38FED749BB2F099AED3AFC9F96B4FD1705C74949A5355935A98E14AEEB560A5B9E2FCE56E767A3CBA93F1FCD17178BD1F56A793E9ACE97E7CBC58D7F7E73B3AAD1D47E1A06752CD3A90B9E4D4CAB86D593C5009AB222A72481C37CE2A41842BE8423FD80EE39CFB080DCD9EC7527B627
310
3F60F58369734AB4A3B8E2E40E417F980AC8EA805119CBF6B8F3037426259CB3AF5CE81979F7F067ADD27520F15CB9D0299024C6C2DB419749F5F33471C8B83AF55B62800F62A9CA886651FD5CAF52D8B4A27F3D654816B072B55A1850B715D0FC6A3528346F96A7F824C12B761C24E176574A28D68C2C87815A18BDCD41FD
310
46364AD8BDDDFA095CF775B17C4FCF692132E88BC1AB4660A88E24E2A96E772BC62C4B8BD59731B4D99CF56F4E41CB1474399CD2886330E652D553604560159666812498EAF2E7ED179EC3179ECCD14591F3E3D3C5879FB6CB3CCB726686B60B389425F09DC8D9DCC1579F640BB50356BD75B19D4EFCE956F7B46D9B3DDA21
310
813D5514C140554B28413A260776F9A23F65BB9763A58ACEF4F5CAB141147A01C68E5EB478CD372E077C487D4D511EA3FDBC92F6D5B6F6584F059BE0D0900EFF01504B0304140006080000473BB142000000000000000000000000350000006662782F43383737334646352D313730442D343444332D394239412D41363135
310
32464435453234372F76657274696365732E62696E504B0304140006080800473BB142F270F1330600000004000000360000006662782F43383737334646352D313730442D343444332D394239412D4136313532464435453234372F747269616E676C65732E62696E636660600000504B0304140006080000473BB1420000
310
00000000000000000000370000006662782F43383737334646352D313730442D343444332D394239412D4136313532464435453234372F617474726962757465732E62696E504B0304140006080800473BB142D5987DFC8F00000041010000360000006662782F43383737334646352D313730442D343444332D394239412D
310
4136313532464435453234372F6469726563746F72792E786D6C858F410EC2201045AF4266AF15DDB800BA74E7C21B903225242D6328188F2FA5C4183471359997F9FF81E89FF3C41E1816475E02DF1F80A11FC8386F25A438EECEC07A250251FC3803E6F58C12560C4AD840E95E91C151A72936F496F35732D860FE635F62
310
C8F2DA16B505C545B74125BAA2FA9E05D7CC053D063734D5C7665FD55B6B8D15D5E9BFEAFD8490FFA45E504B0304140006080800473BB142F795F5DBFE000000A00100003B0000006662782F43383737334646352D313730442D343444332D394239412D4136313532464435453234372F7265736F75726365732F636F7265
310
2E786D6C8D504B6E833010BD8A35DBCA60130834328E1A5A4ED00B5866925A0976E44FD5E3D7042AB5BB6E6646EFA3797AE2F835DFC827FA609CED81170C085AED26632F3DA478A61D90A314DEB9F84B06C4AA197B586090E2E25DBA6F907636A28D19B56EC20D54216004A26FF9E821E80F9C55A152CC8A702DEE4A5FD505
310
0B5E643AEBA408D1E700647DB24C901E834B5E6310E5CA4A919299368D99F24F7336E8410EA7A169C6E737CAC66EA0753572DABDD69CB213DB8FBCEDC6FAA513E56296229AF927A3F6A8224E202BC677943594B7EFAC3D54FB03AF9F5873D831512EF23FA6749FFE694AC6C65DB5C55D6D0124CF411E8414E5D2575E8F32F3
310
5EBA95DF504B010214000A0000080000473BB1423DEE336E79000000790000001B00000000000000000000000000000000006175746F6465736B2D64657369676E2D7061636B6167652E786D6C504B01021400140006080800473BB142D486FD9CA0000000F40000001300000000000000000000000000B20000005B436F6E
310
74656E745F54797065735D2E786D6C504B01021400140006080800473BB1429F7FA8EAEB0000007C010000080000000000000000000000000083010000636F72652E786D6C504B01021400140006080800473BB14255019EA25F0000007C000000070000000000000000000000000094020000636E782E786D6C504B010214
310
00140006080800473BB1425000843768010000020300000C00000000000000000000000000180300006662782F636F72652E786D6C504B01021400140006080800473BB1426EE01DB77E0000009D0000000B00000000000000000000000000AA0400006662782F636E782E786D6C504B01021400140006080800473BB1427B
310
6A82A02A010000140200003100000000000000000000000000510500006662782F43383737334646352D313730442D343444332D394239412D4136313532464435453234372F636F72652E786D6C504B01021400140006080800473BB142F071B33F56010000330300003000000000000000000000000000CA060000666278
310
2F43383737334646352D313730442D343444332D394239412D4136313532464435453234372F636E782E786D6C504B01021400140006080800473BB142705A479C61070000991B000034000000000000000000000000006E0800006662782F43383737334646352D313730442D343444332D394239412D4136313532464435
310
453234372F6F626A656374732E786D6C504B01021400140006080000473BB1420000000000000000000000003500000000000000000000000000211000006662782F43383737334646352D313730442D343444332D394239412D4136313532464435453234372F76657274696365732E62696E504B01021400140006080800
310
473BB142F270F13306000000040000003600000000000000000000000000741000006662782F43383737334646352D313730442D343444332D394239412D4136313532464435453234372F747269616E676C65732E62696E504B01021400140006080000473BB1420000000000000000000000003700000000000000000000
310
000000CE1000006662782F43383737334646352D313730442D343444332D394239412D4136313532464435453234372F617474726962757465732E62696E504B01021400140006080800473BB142D5987DFC8F000000410100003600000000000000000000000000231100006662782F43383737334646352D313730442D34
310
3444332D394239412D4136313532464435453234372F6469726563746F72792E786D6C504B01021400140006080800473BB142F795F5DBFE000000A00100003B00000000000000000000000000061200006662782F43383737334646352D313730442D343444332D394239412D4136313532464435453234372F7265736F75
310
726365732F636F72652E786D6C504B0506000000000E000E00800400005D1300000000
  0
XRECORD
  5
27
102
{ACAD_REACTORS
330
22
102
}
330
22
100
AcDbXrecord
280
     1
270
     1
271
     1
  0
XRECORD
  5
26
102
{ACAD_REACTORS
330
22
102
}
330
22
100
AcDbXrecord
280
     1
270
     1
271
     1
  0
XRECORD
  5
28
102
{ACAD_REACTORS
330
22
102
}
330
22
100
AcDbXrecord
280
     1
270
     1
271
     1
  0
XRECORD
  5
25
102
{ACAD_REACTORS
330
22
102
}
330
22
100
AcDbXrecord
280
     1
270
     1
271
     1
  0
XRECORD
  5
158B
102
{ACAD_REACTORS
330
158A
102
}
330
158A
100
AcDbXrecord
280
     1
102
ACAD_ROUNDTRIP_2012_MLEADER_STYLE
298
     1
  0
CELLSTYLEMAP
  5
1589
102
{ACAD_REACTORS
330
1588
102
}
330
1588
100
AcDbCellStyleMap
 90
        3
300
CELLSTYLE
  1
TABLEFORMAT_BEGIN
 90
        5
170
     1
 91
        0
 92
    32768
 62
   257
 93
        1
300
CONTENTFORMAT
  1
CONTENTFORMAT_BEGIN
 90
        0
 91
        0
 92
      512
 93
        0
300

 40
0.0
140
1.0
 94
        5
 62
     0
340
55
144
0.25
309
CONTENTFORMAT_END
171
     0
 94
        0
309
TABLEFORMAT_END
  1
CELLSTYLE_BEGIN
 90
        1
 91
        1
300
_TITLE
309
CELLSTYLE_END
300
CELLSTYLE
  1
TABLEFORMAT_BEGIN
 90
        5
170
     1
 91
        0
 92
        0
 62
   257
 93
        1
300
CONTENTFORMAT
  1
CONTENTFORMAT_BEGIN
 90
        0
 91
        0
 92
      512
 93
        0
300

 40
0.0
140
1.0
 94
        5
 62
     0
340
55
144
0.18
309
CONTENTFORMAT_END
171
     0
 94
        0
309
TABLEFORMAT_END
  1
CELLSTYLE_BEGIN
 90
        2
 91
        1
300
_HEADER
309
CELLSTYLE_END
300
CELLSTYLE
  1
TABLEFORMAT_BEGIN
 90
        5
170
     1
 91
        0
 92
        0
 62
   257
 93
        1
300
CONTENTFORMAT
  1
CONTENTFORMAT_BEGIN
 90
        0
 91
        0
 92
      512
 93
        0
300

 40
0.0
140
1.0
 94
        2
 62
     0
340
55
144
0.18
309
CONTENTFORMAT_END
171
     0
 94
        0
309
TABLEFORMAT_END
  1
CELLSTYLE_BEGIN
 90
        3
 91
        2
300
_DATA
309
CELLSTYLE_END
  0
XRECORD
  5
15C2
102
{ACAD_REACTORS
330
1588
102
}
330
1588
100
AcDbXrecord
280
     1
102
ACAD_ROUNDTRIP_PRE2007_TABLESTYLE
 90
      512
 91
        0
  1

 92
      512
 93
        0
  2

 94
      512
 95
        0
  3

  0
XRECORD
  5
159D
102
{ACAD_REACTORS
330
159C
102
}
330
159C
100
AcDbXrecord
280
     1
102
RTVSPropertyOp0
 70
     1
102
RTVSPropertyOp1
 70
     1
102
RTVSPropertyOp2
 70
     1
102
RTVSPropertyOp3
 70
     1
102
RTVSPropertyOp4
 70
     1
102
RTVSPropertyOp5
 70
     1
102
RTVSPropertyOp6
 70
     1
102
RTVSPropertyOp7
 70
     1
102
RTVSPropertyOp8
 70
     1
102
RTVSPropertyOp9
 70
     1
102
RTVSPropertyOp10
 70
     1
102
RTVSPropertyOp11
 70
     1
102
RTVSPropertyOp12
 70
     1
102
RTVSPropertyOp13
 70
     1
102
RTVSPropertyOp14
 70
     1
102
RTVSPropertyOp15
 70
     1
102
RTVSPropertyOp16
 70
     1
102
RTVSPropertyOp17
 70
     1
102
RTVSPropertyOp18
 70
     1
102
RTVSPropertyOp19
 70
     1
102
RTVSPropertyOp20
 70
     1
102
RTVSPropertyOp21
 70
     1
102
RTVSPropertyOp22
 70
     1
102
RTVSPropertyOp23
 70
     1
102
RTVSPropertyOp24
 70
     1
102
RTVSPropertyOp25
 70
     1
102
RTVSPropertyOp26
 70
     1
102
RTVSPropertyOp27
 70
     1
102
RTVSPropertyOp28
 70
     1
102
RTVSPropertyOp29
 70
     1
102
RTVSPropertyOp30
 70
     1
102
RTVSPropertyOp31
 70
     1
102
RTVSPropertyOp32
 70
     1
  0
XRECORD
  5
159B
102
{ACAD_REACTORS
330
159A
102
}
330
159A
100
AcDbXrecord
280
     1
102
RTVSPropertyOp0
 70
     1
102
RTVSPropertyOp1
 70
     1
102
RTVSPropertyOp2
 70
     1
102
RTVSPropertyOp3
 70
     1
102
RTVSPropertyOp4
 70
     1
102
RTVSPropertyOp5
 70
     1
102
RTVSPropertyOp6
 70
     1
102
RTVSPropertyOp7
 70
     1
102
RTVSPropertyOp8
 70
     1
102
RTVSPropertyOp9
 70
     1
102
RTVSPropertyOp10
 70
     1
102
RTVSPropertyOp11
 70
     1
102
RTVSPropertyOp12
 70
     1
102
RTVSPropertyOp13
 70
     1
102
RTVSPropertyOp14
 70
     1
102
RTVSPropertyOp15
 70
     1
102
RTVSPropertyOp16
 70
     1
102
RTVSPropertyOp17
 70
     1
102
RTVSPropertyOp18
 70
     1
102
RTVSPropertyOp19
 70
     1
102
RTVSPropertyOp20
 70
     1
102
RTVSPropertyOp21
 70
     1
102
RTVSPropertyOp22
 70
     1
102
RTVSPropertyOp23
 70
     1
102
RTVSPropertyOp24
 70
     1
102
RTVSPropertyOp25
 70
     1
102
RTVSPropertyOp26
 70
     1
102
RTVSPropertyOp27
 70
     1
102
RTVSPropertyOp28
 70
     1
102
RTVSPropertyOp29
 70
     1
102
RTVSPropertyOp30
 70
     1
102
RTVSPropertyOp31
 70
     1
102
RTVSPropertyOp32
 70
     1
  0
XRECORD
  5
15A9
102
{ACAD_REACTORS
330
15A8
102
}
330
15A8
100
AcDbXrecord
280
     1
102
RTVSPropertyOp0
 70
     1
102
RTVSPropertyOp1
 70
     1
102
RTVSPropertyOp2
 70
     1
102
RTVSPropertyOp3
 70
     1
102
RTVSPropertyOp4
 70
     1
102
RTVSPropertyOp5
 70
     1
102
RTVSPropertyOp6
 70
     1
102
RTVSPropertyOp7
 70
     1
102
RTVSPropertyOp8
 70
     1
102
RTVSPropertyOp9
 70
     1
102
RTVSPropertyOp10
 70
     1
102
RTVSPropertyOp11
 70
     1
102
RTVSPropertyOp12
 70
     1
102
RTVSPropertyOp13
 70
     1
102
RTVSPropertyOp14
 70
     1
102
RTVSPropertyOp15
 70
     1
102
RTVSPropertyOp16
 70
     1
102
RTVSPropertyOp17
 70
     1
102
RTVSPropertyOp18
 70
     1
102
RTVSPropertyOp19
 70
     1
102
RTVSPropertyOp20
 70
     1
102
RTVSPropertyOp21
 70
     1
102
RTVSPropertyOp22
 70
     1
102
RTVSPropertyOp23
 70
     1
102
RTVSPropertyOp24
 70
     1
102
RTVSPropertyOp25
 70
     1
102
RTVSPropertyOp26
 70
     1
102
RTVSPropertyOp27
 70
     1
102
RTVSPropertyOp28
 70
     1
102
RTVSPropertyOp29
 70
     1
102
RTVSPropertyOp30
 70
     1
102
RTVSPropertyOp31
 70
     1
102
RTVSPropertyOp32
 70
     1
  0
XRECORD
  5
15B1
102
{ACAD_REACTORS
330
15B0
102
}
330
15B0
100
AcDbXrecord
280
     1
102
RTVSPropertyOp0
 70
     1
102
RTVSPropertyOp1
 70
     1
102
RTVSPropertyOp2
 70
     1
102
RTVSPropertyOp3
 70
     1
102
RTVSPropertyOp4
 70
     1
102
RTVSPropertyOp5
 70
     1
102
RTVSPropertyOp6
 70
     1
102
RTVSPropertyOp7
 70
     1
102
RTVSPropertyOp8
 70
     1
102
RTVSPropertyOp9
 70
     1
102
RTVSPropertyOp10
 70
     1
102
RTVSPropertyOp11
 70
     1
102
RTVSPropertyOp12
 70
     1
102
RTVSPropertyOp13
 70
     1
102
RTVSPropertyOp14
 70
     1
102
RTVSPropertyOp15
 70
     1
102
RTVSPropertyOp16
 70
     1
102
RTVSPropertyOp17
 70
     1
102
RTVSPropertyOp18
 70
     1
102
RTVSPropertyOp19
 70
     1
102
RTVSPropertyOp20
 70
     1
102
RTVSPropertyOp21
 70
     1
102
RTVSPropertyOp22
 70
     1
102
RTVSPropertyOp23
 70
     1
102
RTVSPropertyOp24
 70
     1
102
RTVSPropertyOp25
 70
     1
102
RTVSPropertyOp26
 70
     1
102
RTVSPropertyOp27
 70
     1
102
RTVSPropertyOp28
 70
     1
102
RTVSPropertyOp29
 70
     1
102
RTVSPropertyOp30
 70
     1
102
RTVSPropertyOp31
 70
     1
102
RTVSPropertyOp32
 70
     1
  0
XRECORD
  5
15A3
102
{ACAD_REACTORS
330
15A2
102
}
330
15A2
100
AcDbXrecord
280
     1
102
RTVSPropertyOp0
 70
     1
102
RTVSPropertyOp1
 70
     1
102
RTVSPropertyOp2
 70
     1
102
RTVSPropertyOp3
 70
     1
102
RTVSPropertyOp4
 70
     1
102
RTVSPropertyOp5
 70
     1
102
RTVSPropertyOp6
 70
     1
102
RTVSPropertyOp7
 70
     1
102
RTVSPropertyOp8
 70
     1
102
RTVSPropertyOp9
 70
     1
102
RTVSPropertyOp10
 70
     1
102
RTVSPropertyOp11
 70
     1
102
RTVSPropertyOp12
 70
     1
102
RTVSPropertyOp13
 70
     1
102
RTVSPropertyOp14
 70
     1
102
RTVSPropertyOp15
 70
     1
102
RTVSPropertyOp16
 70
     1
102
RTVSPropertyOp17
 70
     1
102
RTVSPropertyOp18
 70
     1
102
RTVSPropertyOp19
 70
     1
102
RTVSPropertyOp20
 70
     1
102
RTVSPropertyOp21
 70
     1
102
RTVSPropertyOp22
 70
     1
102
RTVSPropertyOp23
 70
     1
102
RTVSPropertyOp24
 70
     1
102
RTVSPropertyOp25
 70
     1
102
RTVSPropertyOp26
 70
     1
102
RTVSPropertyOp27
 70
     1
102
RTVSPropertyOp28
 70
     1
102
RTVSPropertyOp29
 70
     1
102
RTVSPropertyOp30
 70
     1
102
RTVSPropertyOp31
 70
     1
102
RTVSPropertyOp32
 70
     1
  0
XRECORD
  5
15A7
102
{ACAD_REACTORS
330
15A6
102
}
330
15A6
100
AcDbXrecord
280
     1
102
RTVSPropertyOp0
 70
     1
102
RTVSPropertyOp1
 70
     1
102
RTVSPropertyOp2
 70
     1
102
RTVSPropertyOp3
 70
     1
102
RTVSPropertyOp4
 70
     1
102
RTVSPropertyOp5
 70
     1
102
RTVSPropertyOp6
 70
     1
102
RTVSPropertyOp7
 70
     1
102
RTVSPropertyOp8
 70
     1
102
RTVSPropertyOp9
 70
     1
102
RTVSPropertyOp10
 70
     1
102
RTVSPropertyOp11
 70
     1
102
RTVSPropertyOp12
 70
     1
102
RTVSPropertyOp13
 70
     1
102
RTVSPropertyOp14
 70
     1
102
RTVSPropertyOp15
 70
     1
102
RTVSPropertyOp16
 70
     1
102
RTVSPropertyOp17
 70
     1
102
RTVSPropertyOp18
 70
     1
102
RTVSPropertyOp19
 70
     1
102
RTVSPropertyOp20
 70
     1
102
RTVSPropertyOp21
 70
     1
102
RTVSPropertyOp22
 70
     1
102
RTVSPropertyOp23
 70
     1
102
RTVSPropertyOp24
 70
     1
102
RTVSPropertyOp25
 70
     1
102
RTVSPropertyOp26
 70
     1
102
RTVSPropertyOp27
 70
     1
102
RTVSPropertyOp28
 70
     1
102
RTVSPropertyOp29
 70
     1
102
RTVSPropertyOp30
 70
     1
102
RTVSPropertyOp31
 70
     1
102
RTVSPropertyOp32
 70
     1
  0
XRECORD
  5
15C1
102
{ACAD_REACTORS
330
15C0
102
}
330
15C0
100
AcDbXrecord
280
     1
102
RTVSPropertyOp0
 70
     0
102
RTVSPropertyOp1
 70
     0
102
RTVSPropertyOp2
 70
     0
102
RTVSPropertyOp3
 70
     0
102
RTVSPropertyOp4
 70
     0
102
RTVSPropertyOp5
 70
     0
102
RTVSPropertyOp6
 70
     0
102
RTVSPropertyOp7
 70
     0
102
RTVSPropertyOp8
 70
     0
102
RTVSPropertyOp9
 70
     0
102
RTVSPropertyOp10
 70
     0
102
RTVSPropertyOp11
 70
     0
102
RTVSPropertyOp12
 70
     0
102
RTVSPropertyOp13
 70
     0
102
RTVSPropertyOp14
 70
     2
102
RTVSPropertyOp15
 70
     0
102
RTVSPropertyOp16
 70
     0
102
RTVSPropertyOp17
 70
     0
102
RTVSPropertyOp18
 70
     0
102
RTVSPropertyOp19
 70
     0
102
RTVSPropertyOp20
 70
     0
102
RTVSPropertyOp21
 70
     0
102
RTVSPropertyOp22
 70
     0
102
RTVSPropertyOp23
 70
     0
102
RTVSPropertyOp24
 70
     0
102
RTVSPropertyOp25
 70
     0
102
RTVSPropertyOp26
 70
     0
102
RTVSPropertyOp27
 70
     0
102
RTVSPropertyOp28
 70
     1
102
RTVSPropertyOp29
 70
     1
102
RTVSPropertyOp30
 70
     1
102
RTVSPropertyOp31
 70
     1
102
RTVSPropertyOp32
 70
     1
  0
XRECORD
  5
15AF
102
{ACAD_REACTORS
330
15AE
102
}
330
15AE
100
AcDbXrecord
280
     1
102
RTVSPropertyOp0
 70
     1
102
RTVSPropertyOp1
 70
     1
102
RTVSPropertyOp2
 70
     1
102
RTVSPropertyOp3
 70
     1
102
RTVSPropertyOp4
 70
     1
102
RTVSPropertyOp5
 70
     1
102
RTVSPropertyOp6
 70
     1
102
RTVSPropertyOp7
 70
     1
102
RTVSPropertyOp8
 70
     1
102
RTVSPropertyOp9
 70
     1
102
RTVSPropertyOp10
 70
     1
102
RTVSPropertyOp11
 70
     1
102
RTVSPropertyOp12
 70
     1
102
RTVSPropertyOp13
 70
     1
102
RTVSPropertyOp14
 70
     1
102
RTVSPropertyOp15
 70
     1
102
RTVSPropertyOp16
 70
     1
102
RTVSPropertyOp17
 70
     1
102
RTVSPropertyOp18
 70
     1
102
RTVSPropertyOp19
 70
     1
102
RTVSPropertyOp20
 70
     1
102
RTVSPropertyOp21
 70
     1
102
RTVSPropertyOp22
 70
     1
102
RTVSPropertyOp23
 70
     1
102
RTVSPropertyOp24
 70
     1
102
RTVSPropertyOp25
 70
     1
102
RTVSPropertyOp26
 70
     1
102
RTVSPropertyOp27
 70
     1
102
RTVSPropertyOp28
 70
     1
102
RTVSPropertyOp29
 70
     1
102
RTVSPropertyOp30
 70
     1
102
RTVSPropertyOp31
 70
     1
102
RTVSPropertyOp32
 70
     1
  0
XRECORD
  5
1593
102
{ACAD_REACTORS
330
1592
102
}
330
1592
100
AcDbXrecord
280
     1
102
RTVSPropertyOp0
 70
     1
102
RTVSPropertyOp1
 70
     1
102
RTVSPropertyOp2
 70
     1
102
RTVSPropertyOp3
 70
     1
102
RTVSPropertyOp4
 70
     1
102
RTVSPropertyOp5
 70
     1
102
RTVSPropertyOp6
 70
     1
102
RTVSPropertyOp7
 70
     1
102
RTVSPropertyOp8
 70
     1
102
RTVSPropertyOp9
 70
     1
102
RTVSPropertyOp10
 70
     1
102
RTVSPropertyOp11
 70
     1
102
RTVSPropertyOp12
 70
     1
102
RTVSPropertyOp13
 70
     1
102
RTVSPropertyOp14
 70
     1
102
RTVSPropertyOp15
 70
     1
102
RTVSPropertyOp16
 70
     1
102
RTVSPropertyOp17
 70
     1
102
RTVSPropertyOp18
 70
     1
102
RTVSPropertyOp19
 70
     1
102
RTVSPropertyOp20
 70
     1
102
RTVSPropertyOp21
 70
     1
102
RTVSPropertyOp22
 70
     1
102
RTVSPropertyOp23
 70
     1
102
RTVSPropertyOp24
 70
     1
102
RTVSPropertyOp25
 70
     1
102
RTVSPropertyOp26
 70
     1
102
RTVSPropertyOp27
 70
     1
102
RTVSPropertyOp28
 70
     1
102
RTVSPropertyOp29
 70
     1
102
RTVSPropertyOp30
 70
     1
102
RTVSPropertyOp31
 70
     1
102
RTVSPropertyOp32
 70
     1
  0
XRECORD
  5
1595
102
{ACAD_REACTORS
330
1594
102
}
330
1594
100
AcDbXrecord
280
     1
102
RTVSPropertyOp0
 70
     1
102
RTVSPropertyOp1
 70
     1
102
RTVSPropertyOp2
 70
     1
102
RTVSPropertyOp3
 70
     1
102
RTVSPropertyOp4
 70
     1
102
RTVSPropertyOp5
 70
     1
102
RTVSPropertyOp6
 70
     1
102
RTVSPropertyOp7
 70
     1
102
RTVSPropertyOp8
 70
     1
102
RTVSPropertyOp9
 70
     1
102
RTVSPropertyOp10
 70
     1
102
RTVSPropertyOp11
 70
     1
102
RTVSPropertyOp12
 70
     1
102
RTVSPropertyOp13
 70
     1
102
RTVSPropertyOp14
 70
     1
102
RTVSPropertyOp15
 70
     1
102
RTVSPropertyOp16
 70
     1
102
RTVSPropertyOp17
 70
     1
102
RTVSPropertyOp18
 70
     1
102
RTVSPropertyOp19
 70
     1
102
RTVSPropertyOp20
 70
     1
102
RTVSPropertyOp21
 70
     1
102
RTVSPropertyOp22
 70
     1
102
RTVSPropertyOp23
 70
     1
102
RTVSPropertyOp24
 70
     1
102
RTVSPropertyOp25
 70
     1
102
RTVSPropertyOp26
 70
     1
102
RTVSPropertyOp27
 70
     1
102
RTVSPropertyOp28
 70
     1
102
RTVSPropertyOp29
 70
     1
102
RTVSPropertyOp30
 70
     1
102
RTVSPropertyOp31
 70
     1
102
RTVSPropertyOp32
 70
     1
  0
XRECORD
  5
1597
102
{ACAD_REACTORS
330
1596
102
}
330
1596
100
AcDbXrecord
280
     1
102
RTVSPropertyOp0
 70
     1
102
RTVSPropertyOp1
 70
     1
102
RTVSPropertyOp2
 70
     1
102
RTVSPropertyOp3
 70
     1
102
RTVSPropertyOp4
 70
     1
102
RTVSPropertyOp5
 70
     1
102
RTVSPropertyOp6
 70
     1
102
RTVSPropertyOp7
 70
     1
102
RTVSPropertyOp8
 70
     1
102
RTVSPropertyOp9
 70
     1
102
RTVSPropertyOp10
 70
     1
102
RTVSPropertyOp11
 70
     1
102
RTVSPropertyOp12
 70
     1
102
RTVSPropertyOp13
 70
     1
102
RTVSPropertyOp14
 70
     1
102
RTVSPropertyOp15
 70
     1
102
RTVSPropertyOp16
 70
     1
102
RTVSPropertyOp17
 70
     1
102
RTVSPropertyOp18
 70
     1
102
RTVSPropertyOp19
 70
     1
102
RTVSPropertyOp20
 70
     1
102
RTVSPropertyOp21
 70
     1
102
RTVSPropertyOp22
 70
     1
102
RTVSPropertyOp23
 70
     1
102
RTVSPropertyOp24
 70
     1
102
RTVSPropertyOp25
 70
     1
102
RTVSPropertyOp26
 70
     1
102
RTVSPropertyOp27
 70
     1
102
RTVSPropertyOp28
 70
     1
102
RTVSPropertyOp29
 70
     1
102
RTVSPropertyOp30
 70
     1
102
RTVSPropertyOp31
 70
     1
102
RTVSPropertyOp32
 70
     1
  0
XRECORD
  5
1599
102
{ACAD_REACTORS
330
1598
102
}
330
1598
100
AcDbXrecord
280
     1
102
RTVSPropertyOp0
 70
     1
102
RTVSPropertyOp1
 70
     1
102
RTVSPropertyOp2
 70
     1
102
RTVSPropertyOp3
 70
     1
102
RTVSPropertyOp4
 70
     1
102
RTVSPropertyOp5
 70
     1
102
RTVSPropertyOp6
 70
     1
102
RTVSPropertyOp7
 70
     1
102
RTVSPropertyOp8
 70
     1
102
RTVSPropertyOp9
 70
     1
102
RTVSPropertyOp10
 70
     1
102
RTVSPropertyOp11
 70
     1
102
RTVSPropertyOp12
 70
     1
102
RTVSPropertyOp13
 70
     1
102
RTVSPropertyOp14
 70
     1
102
RTVSPropertyOp15
 70
     1
102
RTVSPropertyOp16
 70
     1
102
RTVSPropertyOp17
 70
     1
102
RTVSPropertyOp18
 70
     1
102
RTVSPropertyOp19
 70
     1
102
RTVSPropertyOp20
 70
     1
102
RTVSPropertyOp21
 70
     1
102
RTVSPropertyOp22
 70
     1
102
RTVSPropertyOp23
 70
     1
102
RTVSPropertyOp24
 70
     1
102
RTVSPropertyOp25
 70
     1
102
RTVSPropertyOp26
 70
     1
102
RTVSPropertyOp27
 70
     1
102
RTVSPropertyOp28
 70
     1
102
RTVSPropertyOp29
 70
     1
102
RTVSPropertyOp30
 70
     1
102
RTVSPropertyOp31
 70
     1
102
RTVSPropertyOp32
 70
     1
  0
XRECORD
  5
15A1
102
{ACAD_REACTORS
330
15A0
102
}
330
15A0
100
AcDbXrecord
280
     1
102
RTVSPropertyOp0
 70
     1
102
RTVSPropertyOp1
 70
     1
102
RTVSPropertyOp2
 70
     1
102
RTVSPropertyOp3
 70
     1
102
RTVSPropertyOp4
 70
     1
102
RTVSPropertyOp5
 70
     1
102
RTVSPropertyOp6
 70
     1
102
RTVSPropertyOp7
 70
     1
102
RTVSPropertyOp8
 70
     1
102
RTVSPropertyOp9
 70
     1
102
RTVSPropertyOp10
 70
     1
102
RTVSPropertyOp11
 70
     1
102
RTVSPropertyOp12
 70
     1
102
RTVSPropertyOp13
 70
     1
102
RTVSPropertyOp14
 70
     1
102
RTVSPropertyOp15
 70
     1
102
RTVSPropertyOp16
 70
     1
102
RTVSPropertyOp17
 70
     1
102
RTVSPropertyOp18
 70
     1
102
RTVSPropertyOp19
 70
     1
102
RTVSPropertyOp20
 70
     1
102
RTVSPropertyOp21
 70
     1
102
RTVSPropertyOp22
 70
     1
102
RTVSPropertyOp23
 70
     1
102
RTVSPropertyOp24
 70
     1
102
RTVSPropertyOp25
 70
     1
102
RTVSPropertyOp26
 70
     1
102
RTVSPropertyOp27
 70
     1
102
RTVSPropertyOp28
 70
     1
102
RTVSPropertyOp29
 70
     1
102
RTVSPropertyOp30
 70
     1
102
RTVSPropertyOp31
 70
     1
102
RTVSPropertyOp32
 70
     1
  0
XRECORD
  5
15BD
102
{ACAD_REACTORS
330
15BC
102
}
330
15BC
100
AcDbXrecord
280
     1
102
RTVSPropertyOp0
 70
     0
102
RTVSPropertyOp1
 70
     0
102
RTVSPropertyOp2
 70
     0
102
RTVSPropertyOp3
 70
     0
102
RTVSPropertyOp4
 70
     0
102
RTVSPropertyOp5
 70
     0
102
RTVSPropertyOp6
 70
     0
102
RTVSPropertyOp7
 70
     0
102
RTVSPropertyOp8
 70
     0
102
RTVSPropertyOp9
 70
     0
102
RTVSPropertyOp10
 70
     0
102
RTVSPropertyOp11
 70
     0
102
RTVSPropertyOp12
 70
     0
102
RTVSPropertyOp13
 70
     0
102
RTVSPropertyOp14
 70
     2
102
RTVSPropertyOp15
 70
     0
102
RTVSPropertyOp16
 70
     0
102
RTVSPropertyOp17
 70
     0
102
RTVSPropertyOp18
 70
     0
102
RTVSPropertyOp19
 70
     0
102
RTVSPropertyOp20
 70
     0
102
RTVSPropertyOp21
 70
     0
102
RTVSPropertyOp22
 70
     0
102
RTVSPropertyOp23
 70
     0
102
RTVSPropertyOp24
 70
     0
102
RTVSPropertyOp25
 70
     0
102
RTVSPropertyOp26
 70
     0
102
RTVSPropertyOp27
 70
     0
102
RTVSPropertyOp28
 70
     1
102
RTVSPropertyOp29
 70
     1
102
RTVSPropertyOp30
 70
     1
102
RTVSPropertyOp31
 70
     1
102
RTVSPropertyOp32
 70
     1
  0
XRECORD
  5
15AD
102
{ACAD_REACTORS
330
15AC
102
}
330
15AC
100
AcDbXrecord
280
     1
102
RTVSPropertyOp0
 70
     1
102
RTVSPropertyOp1
 70
     1
102
RTVSPropertyOp2
 70
     1
102
RTVSPropertyOp3
 70
     1
102
RTVSPropertyOp4
 70
     1
102
RTVSPropertyOp5
 70
     1
102
RTVSPropertyOp6
 70
     1
102
RTVSPropertyOp7
 70
     1
102
RTVSPropertyOp8
 70
     1
102
RTVSPropertyOp9
 70
     1
102
RTVSPropertyOp10
 70
     1
102
RTVSPropertyOp11
 70
     1
102
RTVSPropertyOp12
 70
     1
102
RTVSPropertyOp13
 70
     1
102
RTVSPropertyOp14
 70
     1
102
RTVSPropertyOp15
 70
     1
102
RTVSPropertyOp16
 70
     1
102
RTVSPropertyOp17
 70
     1
102
RTVSPropertyOp18
 70
     1
102
RTVSPropertyOp19
 70
     1
102
RTVSPropertyOp20
 70
     1
102
RTVSPropertyOp21
 70
     1
102
RTVSPropertyOp22
 70
     1
102
RTVSPropertyOp23
 70
     1
102
RTVSPropertyOp24
 70
     1
102
RTVSPropertyOp25
 70
     1
102
RTVSPropertyOp26
 70
     1
102
RTVSPropertyOp27
 70
     1
102
RTVSPropertyOp28
 70
     1
102
RTVSPropertyOp29
 70
     1
102
RTVSPropertyOp30
 70
     1
102
RTVSPropertyOp31
 70
     1
102
RTVSPropertyOp32
 70
     1
  0
XRECORD
  5
15BF
102
{ACAD_REACTORS
330
15BE
102
}
330
15BE
100
AcDbXrecord
280
     1
102
RTVSPropertyOp0
 70
     0
102
RTVSPropertyOp1
 70
     0
102
RTVSPropertyOp2
 70
     0
102
RTVSPropertyOp3
 70
     0
102
RTVSPropertyOp4
 70
     0
102
RTVSPropertyOp5
 70
     0
102
RTVSPropertyOp6
 70
     0
102
RTVSPropertyOp7
 70
     0
102
RTVSPropertyOp8
 70
     0
102
RTVSPropertyOp9
 70
     0
102
RTVSPropertyOp10
 70
     0
102
RTVSPropertyOp11
 70
     0
102
RTVSPropertyOp12
 70
     0
102
RTVSPropertyOp13
 70
     0
102
RTVSPropertyOp14
 70
     2
102
RTVSPropertyOp15
 70
     0
102
RTVSPropertyOp16
 70
     0
102
RTVSPropertyOp17
 70
     0
102
RTVSPropertyOp18
 70
     0
102
RTVSPropertyOp19
 70
     0
102
RTVSPropertyOp20
 70
     0
102
RTVSPropertyOp21
 70
     0
102
RTVSPropertyOp22
 70
     0
102
RTVSPropertyOp23
 70
     0
102
RTVSPropertyOp24
 70
     0
102
RTVSPropertyOp25
 70
     0
102
RTVSPropertyOp26
 70
     0
102
RTVSPropertyOp27
 70
     0
102
RTVSPropertyOp28
 70
     1
102
RTVSPropertyOp29
 70
     1
102
RTVSPropertyOp30
 70
     1
102
RTVSPropertyOp31
 70
     1
102
RTVSPropertyOp32
 70
     1
  0
XRECORD
  5
15A5
102
{ACAD_REACTORS
330
15A4
102
}
330
15A4
100
AcDbXrecord
280
     1
102
RTVSPropertyOp0
 70
     1
102
RTVSPropertyOp1
 70
     1
102
RTVSPropertyOp2
 70
     1
102
RTVSPropertyOp3
 70
     1
102
RTVSPropertyOp4
 70
     1
102
RTVSPropertyOp5
 70
     1
102
RTVSPropertyOp6
 70
     1
102
RTVSPropertyOp7
 70
     1
102
RTVSPropertyOp8
 70
     1
102
RTVSPropertyOp9
 70
     1
102
RTVSPropertyOp10
 70
     1
102
RTVSPropertyOp11
 70
     1
102
RTVSPropertyOp12
 70
     1
102
RTVSPropertyOp13
 70
     1
102
RTVSPropertyOp14
 70
     1
102
RTVSPropertyOp15
 70
     1
102
RTVSPropertyOp16
 70
     1
102
RTVSPropertyOp17
 70
     1
102
RTVSPropertyOp18
 70
     1
102
RTVSPropertyOp19
 70
     1
102
RTVSPropertyOp20
 70
     1
102
RTVSPropertyOp21
 70
     1
102
RTVSPropertyOp22
 70
     1
102
RTVSPropertyOp23
 70
     1
102
RTVSPropertyOp24
 70
     1
102
RTVSPropertyOp25
 70
     1
102
RTVSPropertyOp26
 70
     1
102
RTVSPropertyOp27
 70
     1
102
RTVSPropertyOp28
 70
     1
102
RTVSPropertyOp29
 70
     1
102
RTVSPropertyOp30
 70
     1
102
RTVSPropertyOp31
 70
     1
102
RTVSPropertyOp32
 70
     1
  0
XRECORD
  5
15BB
102
{ACAD_REACTORS
330
15BA
102
}
330
15BA
100
AcDbXrecord
280
     1
102
RTVSPropertyOp0
 70
     1
102
RTVSPropertyOp1
 70
     1
102
RTVSPropertyOp2
 70
     1
102
RTVSPropertyOp3
 70
     1
102
RTVSPropertyOp4
 70
     1
102
RTVSPropertyOp5
 70
     1
102
RTVSPropertyOp6
 70
     1
102
RTVSPropertyOp7
 70
     1
102
RTVSPropertyOp8
 70
     1
102
RTVSPropertyOp9
 70
     1
102
RTVSPropertyOp10
 70
     1
102
RTVSPropertyOp11
 70
     1
102
RTVSPropertyOp12
 70
     1
102
RTVSPropertyOp13
 70
     1
102
RTVSPropertyOp14
 70
     1
102
RTVSPropertyOp15
 70
     1
102
RTVSPropertyOp16
 70
     1
102
RTVSPropertyOp17
 70
     1
102
RTVSPropertyOp18
 70
     1
102
RTVSPropertyOp19
 70
     1
102
RTVSPropertyOp20
 70
     1
102
RTVSPropertyOp21
 70
     1
102
RTVSPropertyOp22
 70
     1
102
RTVSPropertyOp23
 70
     1
102
RTVSPropertyOp24
 70
     1
102
RTVSPropertyOp25
 70
     1
102
RTVSPropertyOp26
 70
     1
102
RTVSPropertyOp27
 70
     1
102
RTVSPropertyOp28
 70
     1
102
RTVSPropertyOp29
 70
     1
102
RTVSPropertyOp30
 70
     1
102
RTVSPropertyOp31
 70
     1
102
RTVSPropertyOp32
 70
     1
  0
XRECORD
  5
15B9
102
{ACAD_REACTORS
330
15B8
102
}
330
15B8
100
AcDbXrecord
280
     1
102
RTVSPropertyOp0
 70
     1
102
RTVSPropertyOp1
 70
     1
102
RTVSPropertyOp2
 70
     1
102
RTVSPropertyOp3
 70
     1
102
RTVSPropertyOp4
 70
     1
102
RTVSPropertyOp5
 70
     1
102
RTVSPropertyOp6
 70
     1
102
RTVSPropertyOp7
 70
     1
102
RTVSPropertyOp8
 70
     1
102
RTVSPropertyOp9
 70
     1
102
RTVSPropertyOp10
 70
     1
102
RTVSPropertyOp11
 70
     1
102
RTVSPropertyOp12
 70
     1
102
RTVSPropertyOp13
 70
     1
102
RTVSPropertyOp14
 70
     1
102
RTVSPropertyOp15
 70
     1
102
RTVSPropertyOp16
 70
     1
102
RTVSPropertyOp17
 70
     1
102
RTVSPropertyOp18
 70
     1
102
RTVSPropertyOp19
 70
     1
102
RTVSPropertyOp20
 70
     1
102
RTVSPropertyOp21
 70
     1
102
RTVSPropertyOp22
 70
     1
102
RTVSPropertyOp23
 70
     1
102
RTVSPropertyOp24
 70
     1
102
RTVSPropertyOp25
 70
     1
102
RTVSPropertyOp26
 70
     1
102
RTVSPropertyOp27
 70
     1
102
RTVSPropertyOp28
 70
     1
102
RTVSPropertyOp29
 70
     1
102
RTVSPropertyOp30
 70
     1
102
RTVSPropertyOp31
 70
     1
102
RTVSPropertyOp32
 70
     1
  0
XRECORD
  5
15B3
102
{ACAD_REACTORS
330
15B2
102
}
330
15B2
100
AcDbXrecord
280
     1
102
RTVSPropertyOp0
 70
     1
102
RTVSPropertyOp1
 70
     1
102
RTVSPropertyOp2
 70
     1
102
RTVSPropertyOp3
 70
     1
102
RTVSPropertyOp4
 70
     1
102
RTVSPropertyOp5
 70
     1
102
RTVSPropertyOp6
 70
     1
102
RTVSPropertyOp7
 70
     1
102
RTVSPropertyOp8
 70
     1
102
RTVSPropertyOp9
 70
     1
102
RTVSPropertyOp10
 70
     1
102
RTVSPropertyOp11
 70
     1
102
RTVSPropertyOp12
 70
     1
102
RTVSPropertyOp13
 70
     1
102
RTVSPropertyOp14
 70
     1
102
RTVSPropertyOp15
 70
     1
102
RTVSPropertyOp16
 70
     1
102
RTVSPropertyOp17
 70
     1
102
RTVSPropertyOp18
 70
     1
102
RTVSPropertyOp19
 70
     1
102
RTVSPropertyOp20
 70
     1
102
RTVSPropertyOp21
 70
     1
102
RTVSPropertyOp22
 70
     1
102
RTVSPropertyOp23
 70
     1
102
RTVSPropertyOp24
 70
     1
102
RTVSPropertyOp25
 70
     1
102
RTVSPropertyOp26
 70
     1
102
RTVSPropertyOp27
 70
     1
102
RTVSPropertyOp28
 70
     1
102
RTVSPropertyOp29
 70
     1
102
RTVSPropertyOp30
 70
     1
102
RTVSPropertyOp31
 70
     1
102
RTVSPropertyOp32
 70
     1
  0
XRECORD
  5
15B5
102
{ACAD_REACTORS
330
15B4
102
}
330
15B4
100
AcDbXrecord
280
     1
102
RTVSPropertyOp0
 70
     1
102
RTVSPropertyOp1
 70
     1
102
RTVSPropertyOp2
 70
     1
102
RTVSPropertyOp3
 70
     1
102
RTVSPropertyOp4
 70
     1
102
RTVSPropertyOp5
 70
     1
102
RTVSPropertyOp6
 70
     1
102
RTVSPropertyOp7
 70
     1
102
RTVSPropertyOp8
 70
     1
102
RTVSPropertyOp9
 70
     1
102
RTVSPropertyOp10
 70
     1
102
RTVSPropertyOp11
 70
     1
102
RTVSPropertyOp12
 70
     1
102
RTVSPropertyOp13
 70
     1
102
RTVSPropertyOp14
 70
     1
102
RTVSPropertyOp15
 70
     1
102
RTVSPropertyOp16
 70
     1
102
RTVSPropertyOp17
 70
     1
102
RTVSPropertyOp18
 70
     1
102
RTVSPropertyOp19
 70
     1
102
RTVSPropertyOp20
 70
     1
102
RTVSPropertyOp21
 70
     1
102
RTVSPropertyOp22
 70
     1
102
RTVSPropertyOp23
 70
     1
102
RTVSPropertyOp24
 70
     1
102
RTVSPropertyOp25
 70
     1
102
RTVSPropertyOp26
 70
     1
102
RTVSPropertyOp27
 70
     1
102
RTVSPropertyOp28
 70
     1
102
RTVSPropertyOp29
 70
     1
102
RTVSPropertyOp30
 70
     1
102
RTVSPropertyOp31
 70
     1
102
RTVSPropertyOp32
 70
     1
  0
XRECORD
  5
15AB
102
{ACAD_REACTORS
330
15AA
102
}
330
15AA
100
AcDbXrecord
280
     1
102
RTVSPropertyOp0
 70
     1
102
RTVSPropertyOp1
 70
     1
102
RTVSPropertyOp2
 70
     1
102
RTVSPropertyOp3
 70
     1
102
RTVSPropertyOp4
 70
     1
102
RTVSPropertyOp5
 70
     1
102
RTVSPropertyOp6
 70
     1
102
RTVSPropertyOp7
 70
     1
102
RTVSPropertyOp8
 70
     1
102
RTVSPropertyOp9
 70
     1
102
RTVSPropertyOp10
 70
     1
102
RTVSPropertyOp11
 70
     1
102
RTVSPropertyOp12
 70
     1
102
RTVSPropertyOp13
 70
     1
102
RTVSPropertyOp14
 70
     1
102
RTVSPropertyOp15
 70
     1
102
RTVSPropertyOp16
 70
     1
102
RTVSPropertyOp17
 70
     1
102
RTVSPropertyOp18
 70
     1
102
RTVSPropertyOp19
 70
     1
102
RTVSPropertyOp20
 70
     1
102
RTVSPropertyOp21
 70
     1
102
RTVSPropertyOp22
 70
     1
102
RTVSPropertyOp23
 70
     1
102
RTVSPropertyOp24
 70
     1
102
RTVSPropertyOp25
 70
     1
102
RTVSPropertyOp26
 70
     1
102
RTVSPropertyOp27
 70
     1
102
RTVSPropertyOp28
 70
     1
102
RTVSPropertyOp29
 70
     1
102
RTVSPropertyOp30
 70
     1
102
RTVSPropertyOp31
 70
     1
102
RTVSPropertyOp32
 70
     1
  0
XRECORD
  5
159F
102
{ACAD_REACTORS
330
159E
102
}
330
159E
100
AcDbXrecord
280
     1
102
RTVSPropertyOp0
 70
     1
102
RTVSPropertyOp1
 70
     1
102
RTVSPropertyOp2
 70
     1
102
RTVSPropertyOp3
 70
     1
102
RTVSPropertyOp4
 70
     1
102
RTVSPropertyOp5
 70
     1
102
RTVSPropertyOp6
 70
     1
102
RTVSPropertyOp7
 70
     1
102
RTVSPropertyOp8
 70
     1
102
RTVSPropertyOp9
 70
     1
102
RTVSPropertyOp10
 70
     1
102
RTVSPropertyOp11
 70
     1
102
RTVSPropertyOp12
 70
     1
102
RTVSPropertyOp13
 70
     1
102
RTVSPropertyOp14
 70
     1
102
RTVSPropertyOp15
 70
     1
102
RTVSPropertyOp16
 70
     1
102
RTVSPropertyOp17
 70
     1
102
RTVSPropertyOp18
 70
     1
102
RTVSPropertyOp19
 70
     1
102
RTVSPropertyOp20
 70
     1
102
RTVSPropertyOp21
 70
     1
102
RTVSPropertyOp22
 70
     1
102
RTVSPropertyOp23
 70
     1
102
RTVSPropertyOp24
 70
     1
102
RTVSPropertyOp25
 70
     1
102
RTVSPropertyOp26
 70
     1
102
RTVSPropertyOp27
 70
     1
102
RTVSPropertyOp28
 70
     1
102
RTVSPropertyOp29
 70
     1
102
RTVSPropertyOp30
 70
     1
102
RTVSPropertyOp31
 70
     1
102
RTVSPropertyOp32
 70
     1
  0
XRECORD
  5
15B7
102
{ACAD_REACTORS
330
15B6
102
}
330
15B6
100
AcDbXrecord
280
     1
102
RTVSPropertyOp0
 70
     1
102
RTVSPropertyOp1
 70
     1
102
RTVSPropertyOp2
 70
     1
102
RTVSPropertyOp3
 70
     1
102
RTVSPropertyOp4
 70
     1
102
RTVSPropertyOp5
 70
     1
102
RTVSPropertyOp6
 70
     1
102
RTVSPropertyOp7
 70
     1
102
RTVSPropertyOp8
 70
     1
102
RTVSPropertyOp9
 70
     1
102
RTVSPropertyOp10
 70
     1
102
RTVSPropertyOp11
 70
     1
102
RTVSPropertyOp12
 70
     1
102
RTVSPropertyOp13
 70
     1
102
RTVSPropertyOp14
 70
     1
102
RTVSPropertyOp15
 70
     1
102
RTVSPropertyOp16
 70
     1
102
RTVSPropertyOp17
 70
     1
102
RTVSPropertyOp18
 70
     1
102
RTVSPropertyOp19
 70
     1
102
RTVSPropertyOp20
 70
     1
102
RTVSPropertyOp21
 70
     1
102
RTVSPropertyOp22
 70
     1
102
RTVSPropertyOp23
 70
     1
102
RTVSPropertyOp24
 70
     1
102
RTVSPropertyOp25
 70
     1
102
RTVSPropertyOp26
 70
     1
102
RTVSPropertyOp27
 70
     1
102
RTVSPropertyOp28
 70
     1
102
RTVSPropertyOp29
 70
     1
102
RTVSPropertyOp30
 70
     1
102
RTVSPropertyOp31
 70
     1
102
RTVSPropertyOp32
 70
     1
  0
ENDSEC
  0
EOF
