  0
SECTION
  2
HEADER
  9
$ACADVER
  1
AC1018
  9
$ACADMAINTVER
 70
   104
  9
$DWGCODEPAGE
  3
ANSI_1252
  9
$AUTHOR
  1
VR
  9
$REVISIONNUMBER
  1
-
  9
$CUSTOMPROPERTYTAG
  1
Manager
  9
$CUSTOMPROPERTY
  1

  9
$CUSTOMPROPERTYTAG
  1
Company
  9
$CUSTOMPROPERTY
  1

  9
$CUSTOMPROPERTYTAG
  1
Category
  9
$CUSTOMPROPERTY
  1

  9
$CUSTOMPROPERTYTAG
  1
Part Number
  9
$CUSTOMPROPERTY
  1
HWDSSFK2410-S
  9
$CUSTOMPROPERTYTAG
  1
Description
  9
$CUSTOMPROPERTY
  1

  9
$CUSTOMPROPERTYTAG
  1
Project
  9
$CUSTOMPROPERTY
  1

  9
$CUSTOMPROPERTYTAG
  1
Designer
  9
$CUSTOMPROPERTY
  1
VR
  9
$CUSTOMPROPERTYTAG
  1
Engineer
  9
$CUSTOMPROPERTY
  1

  9
$CUSTOMPROPERTYTAG
  1
Authority
  9
$CUSTOMPROPERTY
  1

  9
$CUSTOMPROPERTYTAG
  1
Cost Center
  9
$CUSTOMPROPERTY
  1

  9
$CUSTOMPROPERTYTAG
  1
Vendor
  9
$CUSTOMPROPERTY
  1

  9
$CUSTOMPROPERTYTAG
  1
User Status
  9
$CUSTOMPROPERTY
  1

  9
$CUSTOMPROPERTYTAG
  1
Design Status
  9
$CUSTOMPROPERTY
  1
WorkInProgress
  9
$CUSTOMPROPERTYTAG
  1
Checked by
  9
$CUSTOMPROPERTY
  1
NJ
  9
$CUSTOMPROPERTYTAG
  1
Date Checked
  9
$CUSTOMPROPERTY
  1
05/08/2013
  9
$CUSTOMPROPERTYTAG
  1
Engr Approved by
  9
$CUSTOMPROPERTY
  1

  9
$CUSTOMPROPERTYTAG
  1
Mfg Approved by
  9
$CUSTOMPROPERTY
  1

  9
$CUSTOMPROPERTYTAG
  1
DWG. NO
  9
$CUSTOMPROPERTY
  1

  9
$CUSTOMPROPERTYTAG
  1
NUMBER OF SHEETS
  9
$CUSTOMPROPERTY
  1
1
  9
$CUSTOMPROPERTYTAG
  1
DRAWING #
  9
$CUSTOMPROPERTY
  1

  9
$INSBASE
 10
0.0
 20
0.0
 30
0.0
  9
$EXTMIN
 10
0.0
 20
0.0
 30
0.0
  9
$EXTMAX
 10
136.0
 20
88.0
 30
0.0
  9
$LIMMIN
 10
0.0
 20
0.0
  9
$LIMMAX
 10
136.0
 20
88.0
  9
$ORTHOMODE
 70
     0
  9
$REGENMODE
 70
     1
  9
$FILLMODE
 70
     1
  9
$QTEXTMODE
 70
     0
  9
$MIRRTEXT
 70
     0
  9
$LTSCALE
 40
8.0
  9
$ATTMODE
 70
     1
  9
$TEXTSIZE
 40
0.2
  9
$TRACEWID
 40
0.05
  9
$TEXTSTYLE
  7
Standard
  9
$CLAYER
  8
0
  9
$CELTYPE
  6
ByLayer
  9
$CECOLOR
 62
   256
  9
$CELTSCALE
 40
1.0
  9
$DISPSILH
 70
     0
  9
$DIMSCALE
 40
1.0
  9
$DIMASZ
 40
0.0708661417322835
  9
$DIMEXO
 40
0.0625
  9
$DIMDLI
 40
0.38
  9
$DIMRND
 40
0.0
  9
$DIMDLE
 40
0.0
  9
$DIMEXE
 40
0.18
  9
$DIMTP
 40
0.0
  9
$DIMTM
 40
0.0
  9
$DIMTXT
 40
0.0708661417322835
  9
$DIMCEN
 40
0.09
  9
$DIMTSZ
 40
0.0
  9
$DIMTOL
 70
     0
  9
$DIMLIM
 70
     0
  9
$DIMTIH
 70
     1
  9
$DIMTOH
 70
     1
  9
$DIMSE1
 70
     0
  9
$DIMSE2
 70
     0
  9
$DIMTAD
 70
     0
  9
$DIMZIN
 70
     0
  9
$DIMBLK
  1

  9
$DIMASO
 70
     1
  9
$DIMSHO
 70
     1
  9
$DIMPOST
  1

  9
$DIMAPOST
  1

  9
$DIMALT
 70
     0
  9
$DIMALTD
 70
     2
  9
$DIMALTF
 40
25.4
  9
$DIMLFAC
 40
1.0
  9
$DIMTOFL
 70
     0
  9
$DIMTVP
 40
0.0
  9
$DIMTIX
 70
     0
  9
$DIMSOXD
 70
     0
  9
$DIMSAH
 70
     0
  9
$DIMBLK1
  1

  9
$DIMBLK2
  1

  9
$DIMSTYLE
  2
Standard
  9
$DIMCLRD
 70
     0
  9
$DIMCLRE
 70
     0
  9
$DIMCLRT
 70
     0
  9
$DIMTFAC
 40
1.0
  9
$DIMGAP
 40
0.09
  9
$DIMJUST
 70
     0
  9
$DIMSD1
 70
     0
  9
$DIMSD2
 70
     0
  9
$DIMTOLJ
 70
     1
  9
$DIMTZIN
 70
     0
  9
$DIMALTZ
 70
     0
  9
$DIMALTTZ
 70
     0
  9
$DIMUPT
 70
     0
  9
$DIMDEC
 70
     4
  9
$DIMTDEC
 70
     4
  9
$DIMALTU
 70
     2
  9
$DIMALTTD
 70
     2
  9
$DIMTXSTY
  7
Standard
  9
$DIMAUNIT
 70
     0
  9
$DIMADEC
 70
     0
  9
$DIMALTRND
 40
0.0
  9
$DIMAZIN
 70
     0
  9
$DIMDSEP
 70
    46
  9
$DIMATFIT
 70
     3
  9
$DIMFRAC
 70
     0
  9
$DIMLDRBLK
  1

  9
$DIMLUNIT
 70
     2
  9
$DIMLWD
 70
    -2
  9
$DIMLWE
 70
    -2
  9
$DIMTMOVE
 70
     0
  9
$LUNITS
 70
     2
  9
$LUPREC
 70
     4
  9
$SKETCHINC
 40
0.1
  9
$FILLETRAD
 40
0.0
  9
$AUNITS
 70
     0
  9
$AUPREC
 70
     0
  9
$MENU
  1
.
  9
$ELEVATION
 40
0.0
  9
$PELEVATION
 40
0.0
  9
$THICKNESS
 40
0.0
  9
$LIMCHECK
 70
     0
  9
$CHAMFERA
 40
0.0
  9
$CHAMFERB
 40
0.0
  9
$CHAMFERC
 40
0.0
  9
$CHAMFERD
 40
0.0
  9
$SKPOLY
 70
     0
  9
$TDCREATE
 40
2456430.309492813
  9
$TDUCREATE
 40
2456430.080326146
  9
$TDUPDATE
 40
2456430.309492813
  9
$TDUUPDATE
 40
2456430.080326146
  9
$TDINDWG
 40
0.0000481597
  9
$TDUSRTIMER
 40
0.0000481597
  9
$USRTIMER
 70
     1
  9
$ANGBASE
 50
0.0
  9
$ANGDIR
 70
     0
  9
$PDMODE
 70
     0
  9
$PDSIZE
 40
0.0
  9
$PLINEWID
 40
0.0
  9
$SPLFRAME
 70
     0
  9
$SPLINETYPE
 70
     6
  9
$SPLINESEGS
 70
     8
  9
$HANDSEED
  5
15BE
  9
$SURFTAB1
 70
     6
  9
$SURFTAB2
 70
     6
  9
$SURFTYPE
 70
     6
  9
$SURFU
 70
     6
  9
$SURFV
 70
     6
  9
$UCSBASE
  2

  9
$UCSNAME
  2

  9
$UCSORG
 10
0.0
 20
0.0
 30
0.0
  9
$UCSXDIR
 10
1.0
 20
0.0
 30
0.0
  9
$UCSYDIR
 10
0.0
 20
1.0
 30
0.0
  9
$UCSORTHOREF
  2

  9
$UCSORTHOVIEW
 70
     0
  9
$UCSORGTOP
 10
0.0
 20
0.0
 30
0.0
  9
$UCSORGBOTTOM
 10
0.0
 20
0.0
 30
0.0
  9
$UCSORGLEFT
 10
0.0
 20
0.0
 30
0.0
  9
$UCSORGRIGHT
 10
0.0
 20
0.0
 30
0.0
  9
$UCSORGFRONT
 10
0.0
 20
0.0
 30
0.0
  9
$UCSORGBACK
 10
0.0
 20
0.0
 30
0.0
  9
$PUCSBASE
  2

  9
$PUCSNAME
  2

  9
$PUCSORG
 10
0.0
 20
0.0
 30
0.0
  9
$PUCSXDIR
 10
1.0
 20
0.0
 30
0.0
  9
$PUCSYDIR
 10
0.0
 20
1.0
 30
0.0
  9
$PUCSORTHOREF
  2

  9
$PUCSORTHOVIEW
 70
     0
  9
$PUCSORGTOP
 10
0.0
 20
0.0
 30
0.0
  9
$PUCSORGBOTTOM
 10
0.0
 20
0.0
 30
0.0
  9
$PUCSORGLEFT
 10
0.0
 20
0.0
 30
0.0
  9
$PUCSORGRIGHT
 10
0.0
 20
0.0
 30
0.0
  9
$PUCSORGFRONT
 10
0.0
 20
0.0
 30
0.0
  9
$PUCSORGBACK
 10
0.0
 20
0.0
 30
0.0
  9
$USERI1
 70
     0
  9
$USERI2
 70
     0
  9
$USERI3
 70
     0
  9
$USERI4
 70
     0
  9
$USERI5
 70
     0
  9
$USERR1
 40
0.0
  9
$USERR2
 40
0.0
  9
$USERR3
 40
0.0
  9
$USERR4
 40
0.0
  9
$USERR5
 40
0.0
  9
$WORLDVIEW
 70
     1
  9
$SHADEDGE
 70
     3
  9
$SHADEDIF
 70
    70
  9
$TILEMODE
 70
     1
  9
$MAXACTVP
 70
    64
  9
$PINSBASE
 10
0.0
 20
0.0
 30
0.0
  9
$PLIMCHECK
 70
     0
  9
$PEXTMIN
 10
0.0
 20
0.0
 30
0.0
  9
$PEXTMAX
 10
136.0
 20
88.0
 30
0.0
  9
$PLIMMIN
 10
0.0
 20
0.0
  9
$PLIMMAX
 10
136.0
 20
88.0
  9
$UNITMODE
 70
     0
  9
$VISRETAIN
 70
     1
  9
$PLINEGEN
 70
     0
  9
$PSLTSCALE
 70
     1
  9
$TREEDEPTH
 70
  3020
  9
$CMLSTYLE
  2
Standard
  9
$CMLJUST
 70
     0
  9
$CMLSCALE
 40
1.0
  9
$PROXYGRAPHICS
 70
     1
  9
$MEASUREMENT
 70
     0
  9
$CELWEIGHT
370
    -1
  9
$ENDCAPS
280
     0
  9
$JOINSTYLE
280
     0
  9
$LWDISPLAY
290
     0
  9
$INSUNITS
 70
     1
  9
$HYPERLINKBASE
  1

  9
$STYLESHEET
  1

  9
$XEDIT
290
     1
  9
$CEPSNTYPE
380
     0
  9
$PSTYLEMODE
290
     1
  9
$FINGERPRINTGUID
  2
{BEC21AF3-1A21-4B7A-BF49-EB9B87607BB6}
  9
$VERSIONGUID
  2
{38EAF536-E807-4CC3-AF45-8C142AC8E877}
  9
$EXTNAMES
290
     1
  9
$PSVPSCALE
 40
0.0
  9
$OLESTARTUP
290
     0
  9
$SORTENTS
280
   127
  9
$INDEXCTL
280
     0
  9
$HIDETEXT
280
     1
  9
$XCLIPFRAME
290
     0
  9
$HALOGAP
280
     0
  9
$OBSCOLOR
 70
   257
  9
$OBSLTYPE
280
     0
  9
$INTERSECTIONDISPLAY
280
     0
  9
$INTERSECTIONCOLOR
 70
   257
  9
$DIMASSOC
280
     1
  9
$PROJECTNAME
  1

  0
ENDSEC
  0
SECTION
  2
CLASSES
  0
CLASS
  1
ACDBDICTIONARYWDFLT
  2
AcDbDictionaryWithDefault
  3
ObjectDBX Classes
 90
        0
 91
        1
280
     0
281
     0
  0
CLASS
  1
MATERIAL
  2
AcDbMaterial
  3
ObjectDBX Classes
 90
     1153
 91
        3
280
     0
281
     0
  0
CLASS
  1
VISUALSTYLE
  2
AcDbVisualStyle
  3
ObjectDBX Classes
 90
     4095
 91
       24
280
     0
281
     0
  0
CLASS
  1
SCALE
  2
AcDbScale
  3
ObjectDBX Classes
 90
     1153
 91
       17
280
     0
281
     0
  0
CLASS
  1
TABLESTYLE
  2
AcDbTableStyle
  3
ObjectDBX Classes
 90
     4095
 91
        1
280
     0
281
     0
  0
CLASS
  1
MLEADERSTYLE
  2
AcDbMLeaderStyle
  3
ACDB_MLEADERSTYLE_CLASS
 90
     4095
 91
        1
280
     0
281
     0
  0
CLASS
  1
DICTIONARYVAR
  2
AcDbDictionaryVar
  3
ObjectDBX Classes
 90
        0
 91
        8
280
     0
281
     0
  0
CLASS
  1
CELLSTYLEMAP
  2
AcDbCellStyleMap
  3
ObjectDBX Classes
 90
     1152
 91
        1
280
     0
281
     0
  0
ENDSEC
  0
SECTION
  2
TABLES
  0
TABLE
  2
VPORT
  5
8
330
0
100
AcDbSymbolTable
 70
     1
  0
VPORT
  5
57
330
8
100
AcDbSymbolTableRecord
100
AcDbViewportTableRecord
  2
*Active
 70
     0
 10
0.0
 20
0.0
 11
1.0
 21
1.0
 12
68.0
 22
44.0
 13
0.0
 23
0.0
 14
1.0
 24
1.0
 15
0.0
 25
0.0
 16
0.0
 26
0.0
 36
1.0
 17
0.0
 27
0.0
 37
0.0
 40
88.0
 41
1.545454545454545
 42
50.0
 43
0.0
 44
0.0
 50
0.0
 51
0.0
 71
     0
 72
   100
 73
     1
 74
     1
 75
     0
 76
     0
 77
     0
 78
     0
281
     0
 65
     1
110
0.0
120
0.0
130
0.0
111
1.0
121
0.0
131
0.0
112
0.0
122
1.0
132
0.0
 79
     0
146
0.0
  0
ENDTAB
  0
TABLE
  2
LTYPE
  5
5
330
0
100
AcDbSymbolTable
 70
    59
  0
LTYPE
  5
5B
330
5
100
AcDbSymbolTableRecord
100
AcDbLinetypeTableRecord
  2
ByBlock
 70
     0
  3

 72
    65
 73
     0
 40
0.0
  0
LTYPE
  5
5C
330
5
100
AcDbSymbolTableRecord
100
AcDbLinetypeTableRecord
  2
ByLayer
 70
     0
  3

 72
    65
 73
     0
 40
0.0
  0
LTYPE
  5
5D
330
5
100
AcDbSymbolTableRecord
100
AcDbLinetypeTableRecord
  2
Continuous
 70
     0
  3
Solid line
 72
    65
 73
     0
 40
0.0
  0
LTYPE
  5
7C
330
5
100
AcDbSymbolTableRecord
100
AcDbLinetypeTableRecord
  2
BY_STANDARD
 70
     0
  3
By Standard ____________    ____    ____   _
 72
    65
 73
     6
 40
1.240299999999999
 49
0.6614
 74
     0
 49
-0.0827
 74
     0
 49
0.1654
 74
     0
 49
-0.0827
 74
     0
 49
0.1654
 74
     0
 49
-0.0827
 74
     0
  0
LTYPE
  5
7D
330
5
100
AcDbSymbolTableRecord
100
AcDbLinetypeTableRecord
  2
CHAIN
 70
     0
  3
Chain ____ _ ____ _ ____ _ ____ _ ____ _ ____
 72
    65
 73
     4
 40
0.7087
 49
0.4724000000000001
 74
     0
 49
-0.0591
 74
     0
 49
0.1181
 74
     0
 49
-0.0591
 74
     0
  0
LTYPE
  5
7E
330
5
100
AcDbSymbolTableRecord
100
AcDbLinetypeTableRecord
  2
DASH_DOT
 70
     0
  3
Dash dot __ . __ . __ . __ . __ . __ . __ . __
 72
    65
 73
     4
 40
0.37
 49
0.24
 74
     0
 49
-0.06
 74
     0
 49
0.01
 74
     0
 49
-0.06
 74
     0
  0
LTYPE
  5
7F
330
5
100
AcDbSymbolTableRecord
100
AcDbLinetypeTableRecord
  2
DOUBLE_DASH_DOT
 70
     0
  3
Double-Dash Dot __ __ . __ __ . __ __ . __ _
 72
    65
 73
     6
 40
0.4398
 49
0.24
 74
     0
 49
-0.06
 74
     0
 49
0.0098
 74
     0
 49
-0.06
 74
     0
 49
0.01
 74
     0
 49
-0.06
 74
     0
  0
LTYPE
  5
80
330
5
100
AcDbSymbolTableRecord
100
AcDbLinetypeTableRecord
  2
DASH_TRIPLE_DOT
 70
     0
  3
Dash Triple-Dot _ . . . _ . . . _ . . . _
 72
    65
 73
     8
 40
0.51
 49
0.24
 74
     0
 49
-0.06
 74
     0
 49
0.01
 74
     0
 49
-0.06
 74
     0
 49
0.01
 74
     0
 49
-0.06
 74
     0
 49
0.01
 74
     0
 49
-0.06
 74
     0
  0
LTYPE
  5
81
330
5
100
AcDbSymbolTableRecord
100
AcDbLinetypeTableRecord
  2
DASHED
 70
     0
  3
Dashed __ __ __ __ __ __ __ __ __ __ __ __ __ _
 72
    65
 73
     2
 40
0.2067
 49
0.1654
 74
     0
 49
-0.0413
 74
     0
  0
LTYPE
  5
82
330
5
100
AcDbSymbolTableRecord
100
AcDbLinetypeTableRecord
  2
DASH_DOUBLE_DOT
 70
     0
  3
Dash Double-Dot __ . . __ . . __ . . __ . .
 72
    65
 73
     6
 40
0.4398
 49
0.24
 74
     0
 49
-0.06
 74
     0
 49
0.0098
 74
     0
 49
-0.06
 74
     0
 49
0.01
 74
     0
 49
-0.06
 74
     0
  0
LTYPE
  5
83
330
5
100
AcDbSymbolTableRecord
100
AcDbLinetypeTableRecord
  2
DASHED_SPACE
 70
     0
  3
Dashed Space __ __ __ __ __ __ __ __ __ __ __ _
 72
    65
 73
     2
 40
0.2067
 49
0.1654
 74
     0
 49
-0.0413
 74
     0
  0
LTYPE
  5
84
330
5
100
AcDbSymbolTableRecord
100
AcDbLinetypeTableRecord
  2
DOTTED
 70
     0
  3
Dotted . . . . . . . . . . . . . . . . . . . . 
 72
    65
 73
     2
 40
0.0482
 49
0.0069
 74
     0
 49
-0.0413
 74
     0
  0
LTYPE
  5
85
330
5
100
AcDbSymbolTableRecord
100
AcDbLinetypeTableRecord
  2
DOUBLE_DASH_CHAIN
 70
     0
  3
Double-Dash Chain ______  __  __  ______  __  _
 72
    65
 73
     6
 40
1.240299999999999
 49
0.6614
 74
     0
 49
-0.0827
 74
     0
 49
0.1654
 74
     0
 49
-0.0827
 74
     0
 49
0.1654
 74
     0
 49
-0.0827
 74
     0
  0
LTYPE
  5
87
330
5
100
AcDbSymbolTableRecord
100
AcDbLinetypeTableRecord
  2
DOUBLE_DASH_DOUBLE_DOT
 70
     0
  3
Double-Dash Double-dot _ _ . . _ _ . . _
 72
    65
 73
     8
 40
0.7400000000000001
 49
0.24
 74
     0
 49
-0.06
 74
     0
 49
0.24
 74
     0
 49
-0.06
 74
     0
 49
0.01
 74
     0
 49
-0.06
 74
     0
 49
0.01
 74
     0
 49
-0.06
 74
     0
  0
LTYPE
  5
88
330
5
100
AcDbSymbolTableRecord
100
AcDbLinetypeTableRecord
  2
DOUBLE_DASH_TRIPLE_DOT
 70
     0
  3
Double Dash Triple Dot __ __ . . . __ __ . .
 72
    65
 73
    10
 40
0.8100000000000001
 49
0.24
 74
     0
 49
-0.06
 74
     0
 49
0.24
 74
     0
 49
-0.06
 74
     0
 49
0.01
 74
     0
 49
-0.06
 74
     0
 49
0.01
 74
     0
 49
-0.06
 74
     0
 49
0.01
 74
     0
 49
-0.06
 74
     0
  0
LTYPE
  5
89
330
5
100
AcDbSymbolTableRecord
100
AcDbLinetypeTableRecord
  2
LONG_DASH_DOTTED
 70
     0
  3
Long Dash Dotted ____ . ____ . ____ . ____ . _
 72
    65
 73
     4
 40
0.3543
 49
0.2362
 74
     0
 49
-0.0295
 74
     0
 49
0.0591
 74
     0
 49
-0.0295
 74
     0
  0
LTYPE
  5
8A
330
5
100
AcDbSymbolTableRecord
100
AcDbLinetypeTableRecord
  2
LONG_DASH_DOUBLE_DOT
 70
     0
  3
Long Dash Double Dot ________  .  .  ________  
 72
    65
 73
     6
 40
0.6799999999999999
 49
0.48
 74
     0
 49
-0.06
 74
     0
 49
0.01
 74
     0
 49
-0.06
 74
     0
 49
0.01
 74
     0
 49
-0.06
 74
     0
  0
LTYPE
  5
8B
330
5
100
AcDbSymbolTableRecord
100
AcDbLinetypeTableRecord
  2
LONG_DASH_TRIPLE_DOT
 70
     0
  3
Long Dash Triple Dot ____ ... ____ ... ____
 72
    65
 73
     8
 40
0.3689
 49
0.2362
 74
     0
 49
-0.0295
 74
     0
 49
0.0049
 74
     0
 49
-0.0295
 74
     0
 49
0.0049
 74
     0
 49
-0.0295
 74
     0
 49
0.0049
 74
     0
 49
-0.0295
 74
     0
  0
LTYPE
  5
8C
330
5
100
AcDbSymbolTableRecord
100
AcDbLinetypeTableRecord
  2
BORDER
 70
     0
  3
Border __ __ . __ __ . __ __ . __ __ . __ __ .
 72
    65
 73
     6
 40
1.75
 49
0.5
 74
     0
 49
-0.25
 74
     0
 49
0.5
 74
     0
 49
-0.25
 74
     0
 49
0.0
 74
     0
 49
-0.25
 74
     0
  0
LTYPE
  5
8D
330
5
100
AcDbSymbolTableRecord
100
AcDbLinetypeTableRecord
  2
BORDER2
 70
     0
  3
Border (.5x) __.__.__.__.__.__.__.__.__.__.__.
 72
    65
 73
     6
 40
0.875
 49
0.25
 74
     0
 49
-0.125
 74
     0
 49
0.25
 74
     0
 49
-0.125
 74
     0
 49
0.0
 74
     0
 49
-0.125
 74
     0
  0
LTYPE
  5
8E
330
5
100
AcDbSymbolTableRecord
100
AcDbLinetypeTableRecord
  2
BORDERX2
 70
     0
  3
Border (2x) ____  ____  .  ____  ____  .  ___
 72
    65
 73
     6
 40
3.5
 49
1.0
 74
     0
 49
-0.5
 74
     0
 49
1.0
 74
     0
 49
-0.5
 74
     0
 49
0.0
 74
     0
 49
-0.5
 74
     0
  0
LTYPE
  5
8F
330
5
100
AcDbSymbolTableRecord
100
AcDbLinetypeTableRecord
  2
CENTER
 70
     0
  3
Center ____ _ ____ _ ____ _ ____ _ ____ _ ____
 72
    65
 73
     4
 40
2.0
 49
1.25
 74
     0
 49
-0.25
 74
     0
 49
0.25
 74
     0
 49
-0.25
 74
     0
  0
LTYPE
  5
90
330
5
100
AcDbSymbolTableRecord
100
AcDbLinetypeTableRecord
  2
CENTER2
 70
     0
  3
Center (.5x) ___ _ ___ _ ___ _ ___ _ ___ _ ___
 72
    65
 73
     4
 40
1.125
 49
0.75
 74
     0
 49
-0.125
 74
     0
 49
0.125
 74
     0
 49
-0.125
 74
     0
  0
LTYPE
  5
91
330
5
100
AcDbSymbolTableRecord
100
AcDbLinetypeTableRecord
  2
CENTERX2
 70
     0
  3
Center (2x) ________  __  ________  __  _____
 72
    65
 73
     4
 40
4.0
 49
2.5
 74
     0
 49
-0.5
 74
     0
 49
0.5
 74
     0
 49
-0.5
 74
     0
  0
LTYPE
  5
92
330
5
100
AcDbSymbolTableRecord
100
AcDbLinetypeTableRecord
  2
DASHDOT2
 70
     0
  3
Dash dot (.5x) _._._._._._._._._._._._._._._.
 72
    65
 73
     4
 40
0.5
 49
0.25
 74
     0
 49
-0.125
 74
     0
 49
0.0
 74
     0
 49
-0.125
 74
     0
  0
LTYPE
  5
93
330
5
100
AcDbSymbolTableRecord
100
AcDbLinetypeTableRecord
  2
DASHDOTX2
 70
     0
  3
Dash dot (2x) ____  .  ____  .  ____  .  ___
 72
    65
 73
     4
 40
2.0
 49
1.0
 74
     0
 49
-0.5
 74
     0
 49
0.0
 74
     0
 49
-0.5
 74
     0
  0
LTYPE
  5
95
330
5
100
AcDbSymbolTableRecord
100
AcDbLinetypeTableRecord
  2
DASHED2
 70
     0
  3
Dashed (.5x) _ _ _ _ _ _ _ _ _ _ _ _ _ _ _ _ _
 72
    65
 73
     2
 40
0.375
 49
0.25
 74
     0
 49
-0.125
 74
     0
  0
LTYPE
  5
96
330
5
100
AcDbSymbolTableRecord
100
AcDbLinetypeTableRecord
  2
DASHEDX2
 70
     0
  3
Dashed (2x) ____  ____  ____  ____  ____  ___
 72
    65
 73
     2
 40
1.5
 49
1.0
 74
     0
 49
-0.5
 74
     0
  0
LTYPE
  5
97
330
5
100
AcDbSymbolTableRecord
100
AcDbLinetypeTableRecord
  2
DIVIDE
 70
     0
  3
Divide ____ . . ____ . . ____ . . ____ . . ____
 72
    65
 73
     6
 40
1.25
 49
0.5
 74
     0
 49
-0.25
 74
     0
 49
0.0
 74
     0
 49
-0.25
 74
     0
 49
0.0
 74
     0
 49
-0.25
 74
     0
  0
LTYPE
  5
98
330
5
100
AcDbSymbolTableRecord
100
AcDbLinetypeTableRecord
  2
DIVIDE2
 70
     0
  3
Divide (.5x) __..__..__..__..__..__..__..__.._
 72
    65
 73
     6
 40
0.625
 49
0.25
 74
     0
 49
-0.125
 74
     0
 49
0.0
 74
     0
 49
-0.125
 74
     0
 49
0.0
 74
     0
 49
-0.125
 74
     0
  0
LTYPE
  5
99
330
5
100
AcDbSymbolTableRecord
100
AcDbLinetypeTableRecord
  2
DIVIDEX2
 70
     0
  3
Divide (2x) ________  .  .  ________  .  .  _
 72
    65
 73
     6
 40
2.5
 49
1.0
 74
     0
 49
-0.5
 74
     0
 49
0.0
 74
     0
 49
-0.5
 74
     0
 49
0.0
 74
     0
 49
-0.5
 74
     0
  0
LTYPE
  5
9A
330
5
100
AcDbSymbolTableRecord
100
AcDbLinetypeTableRecord
  2
DOT
 70
     0
  3
Dot . . . . . . . . . . . . . . . . . . . . . .
 72
    65
 73
     2
 40
0.25
 49
0.0
 74
     0
 49
-0.25
 74
     0
  0
LTYPE
  5
9B
330
5
100
AcDbSymbolTableRecord
100
AcDbLinetypeTableRecord
  2
DOT2
 70
     0
  3
Dot (.5x) .....................................
 72
    65
 73
     2
 40
0.125
 49
0.0
 74
     0
 49
-0.125
 74
     0
  0
LTYPE
  5
9C
330
5
100
AcDbSymbolTableRecord
100
AcDbLinetypeTableRecord
  2
DOTX2
 70
     0
  3
Dot (2x) .  .  .  .  .  .  .  .  .  .  .  .  . 
 72
    65
 73
     2
 40
0.5
 49
0.0
 74
     0
 49
-0.5
 74
     0
  0
LTYPE
  5
9D
330
5
100
AcDbSymbolTableRecord
100
AcDbLinetypeTableRecord
  2
HIDDEN
 70
     0
  3
Hidden __ __ __ __ __ __ __ __ __ __ __ __ __ _
 72
    65
 73
     2
 40
0.375
 49
0.25
 74
     0
 49
-0.125
 74
     0
  0
LTYPE
  5
9E
330
5
100
AcDbSymbolTableRecord
100
AcDbLinetypeTableRecord
  2
HIDDEN2
 70
     0
  3
Hidden (.5x) _ _ _ _ _ _ _ _ _ _ _ _ _ _ _ _ _
 72
    65
 73
     2
 40
0.1875
 49
0.125
 74
     0
 49
-0.0625
 74
     0
  0
LTYPE
  5
9F
330
5
100
AcDbSymbolTableRecord
100
AcDbLinetypeTableRecord
  2
HIDDENX2
 70
     0
  3
Hidden (2x) ____ ____ ____ ____ ____ ____ ____
 72
    65
 73
     2
 40
0.75
 49
0.5
 74
     0
 49
-0.25
 74
     0
  0
LTYPE
  5
A0
330
5
100
AcDbSymbolTableRecord
100
AcDbLinetypeTableRecord
  2
PHANTOM
 70
     0
  3
Phantom ______  __  __  ______  __  __  ______
 72
    65
 73
     6
 40
2.5
 49
1.25
 74
     0
 49
-0.25
 74
     0
 49
0.25
 74
     0
 49
-0.25
 74
     0
 49
0.25
 74
     0
 49
-0.25
 74
     0
  0
LTYPE
  5
A1
330
5
100
AcDbSymbolTableRecord
100
AcDbLinetypeTableRecord
  2
PHANTOM2
 70
     0
  3
Phantom (.5x) ___ _ _ ___ _ _ ___ _ _ ___ _ _
 72
    65
 73
     6
 40
1.25
 49
0.625
 74
     0
 49
-0.125
 74
     0
 49
0.125
 74
     0
 49
-0.125
 74
     0
 49
0.125
 74
     0
 49
-0.125
 74
     0
  0
LTYPE
  5
A2
330
5
100
AcDbSymbolTableRecord
100
AcDbLinetypeTableRecord
  2
PHANTOMX2
 70
     0
  3
Phantom (2x) ____________    ____    ____   _
 72
    65
 73
     6
 40
5.0
 49
2.5
 74
     0
 49
-0.5
 74
     0
 49
0.5
 74
     0
 49
-0.5
 74
     0
 49
0.5
 74
     0
 49
-0.5
 74
     0
  0
LTYPE
  5
A3
330
5
100
AcDbSymbolTableRecord
100
AcDbLinetypeTableRecord
  2
ACAD_ISO02W100
 70
     0
  3
ISO dash __ __ __ __ __ __ __ __ __ __ __ __ __
 72
    65
 73
     2
 40
0.59
 49
0.47
 74
     0
 49
-0.12
 74
     0
  0
LTYPE
  5
A4
330
5
100
AcDbSymbolTableRecord
100
AcDbLinetypeTableRecord
  2
ACAD_ISO03W100
 70
     0
  3
ISO dash space __    __    __    __    __    __
 72
    65
 73
     2
 40
1.179999999999999
 49
0.47
 74
     0
 49
-0.71
 74
     0
  0
LTYPE
  5
A5
330
5
100
AcDbSymbolTableRecord
100
AcDbLinetypeTableRecord
  2
ACAD_ISO04W100
 70
     0
  3
ISO long-dash dot ____ . ____ . ____ . ____ . _
 72
    65
 73
     4
 40
1.179999999999999
 49
0.9399999999999998
 74
     0
 49
-0.12
 74
     0
 49
0.0
 74
     0
 49
-0.12
 74
     0
  0
LTYPE
  5
A6
330
5
100
AcDbSymbolTableRecord
100
AcDbLinetypeTableRecord
  2
ACAD_ISO05W100
 70
     0
  3
ISO long-dash double-dot ____ .. ____ .. ____ .
 72
    65
 73
     6
 40
1.299999999999999
 49
0.9399999999999998
 74
     0
 49
-0.12
 74
     0
 49
0.0
 74
     0
 49
-0.12
 74
     0
 49
0.0
 74
     0
 49
-0.12
 74
     0
  0
LTYPE
  5
A7
330
5
100
AcDbSymbolTableRecord
100
AcDbLinetypeTableRecord
  2
ACAD_ISO06W100
 70
     0
  3
ISO long-dash triple-dot ____ ... ____ ... ____
 72
    65
 73
     8
 40
1.419999999999999
 49
0.9399999999999998
 74
     0
 49
-0.12
 74
     0
 49
0.0
 74
     0
 49
-0.12
 74
     0
 49
0.0
 74
     0
 49
-0.12
 74
     0
 49
0.0
 74
     0
 49
-0.12
 74
     0
  0
LTYPE
  5
A8
330
5
100
AcDbSymbolTableRecord
100
AcDbLinetypeTableRecord
  2
ACAD_ISO07W100
 70
     0
  3
ISO dot . . . . . . . . . . . . . . . . . . . .
 72
    65
 73
     2
 40
0.12
 49
0.0
 74
     0
 49
-0.12
 74
     0
  0
LTYPE
  5
A9
330
5
100
AcDbSymbolTableRecord
100
AcDbLinetypeTableRecord
  2
ACAD_ISO08W100
 70
     0
  3
ISO long-dash short-dash ____ __ ____ __ ____ _
 72
    65
 73
     4
 40
0.95
 49
0.47
 74
     0
 49
-0.12
 74
     0
 49
0.24
 74
     0
 49
-0.12
 74
     0
  0
LTYPE
  5
AA
330
5
100
AcDbSymbolTableRecord
100
AcDbLinetypeTableRecord
  2
ACAD_ISO09W100
 70
     0
  3
ISO long-dash double-short-dash ____ __ __ ____
 72
    65
 73
     6
 40
1.31
 49
0.47
 74
     0
 49
-0.12
 74
     0
 49
0.24
 74
     0
 49
-0.12
 74
     0
 49
0.24
 74
     0
 49
-0.12
 74
     0
  0
LTYPE
  5
AB
330
5
100
AcDbSymbolTableRecord
100
AcDbLinetypeTableRecord
  2
ACAD_ISO10W100
 70
     0
  3
ISO dash dot __ . __ . __ . __ . __ . __ . __ .
 72
    65
 73
     4
 40
0.71
 49
0.47
 74
     0
 49
-0.12
 74
     0
 49
0.0
 74
     0
 49
-0.12
 74
     0
  0
LTYPE
  5
AC
330
5
100
AcDbSymbolTableRecord
100
AcDbLinetypeTableRecord
  2
ACAD_ISO11W100
 70
     0
  3
ISO double-dash dot __ __ . __ __ . __ __ . __ 
 72
    65
 73
     6
 40
1.299999999999999
 49
0.47
 74
     0
 49
-0.12
 74
     0
 49
0.47
 74
     0
 49
-0.12
 74
     0
 49
0.0
 74
     0
 49
-0.12
 74
     0
  0
LTYPE
  5
AD
330
5
100
AcDbSymbolTableRecord
100
AcDbLinetypeTableRecord
  2
ACAD_ISO12W100
 70
     0
  3
ISO dash double-dot __ . . __ . . __ . . __ . .
 72
    65
 73
     6
 40
0.8299999999999998
 49
0.47
 74
     0
 49
-0.12
 74
     0
 49
0.0
 74
     0
 49
-0.12
 74
     0
 49
0.0
 74
     0
 49
-0.12
 74
     0
  0
LTYPE
  5
AE
330
5
100
AcDbSymbolTableRecord
100
AcDbLinetypeTableRecord
  2
ACAD_ISO13W100
 70
     0
  3
ISO double-dash double-dot __ __ . . __ __ . . 
 72
    65
 73
     8
 40
1.419999999999999
 49
0.47
 74
     0
 49
-0.12
 74
     0
 49
0.47
 74
     0
 49
-0.12
 74
     0
 49
0.0
 74
     0
 49
-0.12
 74
     0
 49
0.0
 74
     0
 49
-0.12
 74
     0
  0
LTYPE
  5
AF
330
5
100
AcDbSymbolTableRecord
100
AcDbLinetypeTableRecord
  2
ACAD_ISO14W100
 70
     0
  3
ISO dash triple-dot __ . . . __ . . . __ . . . 
 72
    65
 73
     8
 40
0.95
 49
0.47
 74
     0
 49
-0.12
 74
     0
 49
0.0
 74
     0
 49
-0.12
 74
     0
 49
0.0
 74
     0
 49
-0.12
 74
     0
 49
0.0
 74
     0
 49
-0.12
 74
     0
  0
LTYPE
  5
B0
330
5
100
AcDbSymbolTableRecord
100
AcDbLinetypeTableRecord
  2
ACAD_ISO15W100
 70
     0
  3
ISO double-dash triple-dot __ __ . . . __ __ . 
 72
    65
 73
    10
 40
1.539999999999999
 49
0.47
 74
     0
 49
-0.12
 74
     0
 49
0.47
 74
     0
 49
-0.12
 74
     0
 49
0.0
 74
     0
 49
-0.12
 74
     0
 49
0.0
 74
     0
 49
-0.12
 74
     0
 49
0.0
 74
     0
 49
-0.12
 74
     0
  0
LTYPE
  5
B3
330
5
100
AcDbSymbolTableRecord
100
AcDbLinetypeTableRecord
  2
FENCELINE1
 70
     0
  3
Fenceline circle ----0-----0----0-----0----0---
 72
    65
 73
     4
 40
1.45
 49
0.25
 74
     0
 49
-0.1
 74
     4
 75
   133
340
B2
 46
0.1
 50
0.0
 44
-0.1
 45
0.0
 49
-0.1
 74
     0
 49
1.0
 74
     0
  0
LTYPE
  5
B4
330
5
100
AcDbSymbolTableRecord
100
AcDbLinetypeTableRecord
  2
FENCELINE2
 70
     0
  3
Fenceline square ----[]-----[]----[]-----[]----
 72
    65
 73
     4
 40
1.45
 49
0.25
 74
     0
 49
-0.1
 74
     4
 75
   132
340
B2
 46
0.1
 50
0.0
 44
-0.1
 45
0.0
 49
-0.1
 74
     0
 49
1.0
 74
     0
  0
LTYPE
  5
B5
330
5
100
AcDbSymbolTableRecord
100
AcDbLinetypeTableRecord
  2
TRACKS
 70
     0
  3
Tracks -|-|-|-|-|-|-|-|-|-|-|-|-|-|-|-|-|-|-|-|
 72
    65
 73
     2
 40
0.3
 49
0.15
 74
     4
 75
   130
340
B2
 46
0.25
 50
0.0
 44
0.0
 45
0.0
 49
0.15
 74
     0
  0
LTYPE
  5
B6
330
5
100
AcDbSymbolTableRecord
100
AcDbLinetypeTableRecord
  2
BATTING
 70
     0
  3
Batting SSSSSSSSSSSSSSSSSSSSSSSSSSSSSSSSSSSSSSS
 72
    65
 73
     4
 40
0.4001000000000001
 49
0.0001
 74
     0
 49
-0.1
 74
     4
 75
   134
340
B2
 46
0.1
 50
0.0
 44
-0.1
 45
0.0
 49
-0.2
 74
     4
 75
   134
340
B2
 46
0.1
 50
180.0
 44
0.1
 45
0.0
 49
-0.1
 74
     0
  0
LTYPE
  5
B7
330
5
100
AcDbSymbolTableRecord
100
AcDbLinetypeTableRecord
  2
HOT_WATER_SUPPLY
 70
     0
  3
Hot water supply ---- HW ---- HW ---- HW ----
 72
    65
 73
     3
 40
0.9
 49
0.5
 74
     0
 49
-0.2
 74
     2
 75
     0
340
55
 46
0.1
 50
0.0
 44
-0.1
 45
-0.05
  9
HW
 49
-0.2
 74
     0
  0
LTYPE
  5
B8
330
5
100
AcDbSymbolTableRecord
100
AcDbLinetypeTableRecord
  2
GAS_LINE
 70
     0
  3
Gas line ----GAS----GAS----GAS----GAS----GAS---
 72
    65
 73
     3
 40
0.95
 49
0.5
 74
     0
 49
-0.2
 74
     2
 75
     0
340
55
 46
0.1
 50
0.0
 44
-0.1
 45
-0.05
  9
GAS
 49
-0.25
 74
     0
  0
LTYPE
  5
B9
330
5
100
AcDbSymbolTableRecord
100
AcDbLinetypeTableRecord
  2
ZIGZAG
 70
     0
  3
Zig zag /\/\/\/\/\/\/\/\/\/\/\/\/\/\/\/\/\/\/\/
 72
    65
 73
     4
 40
0.8001000000000001
 49
0.0001
 74
     0
 49
-0.2
 74
     4
 75
   131
340
B2
 46
0.2
 50
0.0
 44
-0.2
 45
0.0
 49
-0.4
 74
     4
 75
   131
340
B2
 46
0.2
 50
180.0
 44
0.2
 45
0.0
 49
-0.2
 74
     0
  0
ENDTAB
  0
TABLE
  2
LAYER
  5
2
330
0
100
AcDbSymbolTable
 70
    27
  0
LAYER
  5
54
330
2
100
AcDbSymbolTableRecord
100
AcDbLayerTableRecord
  2
0
 70
     0
 62
     7
  6
Continuous
370
     0
390
F
  0
LAYER
  5
C0
330
2
100
AcDbSymbolTableRecord
100
AcDbLayerTableRecord
  2
Center Mark (ANSI)
 70
     0
 62
     7
  6
Continuous
370
     5
390
F
  0
LAYER
  5
C1
330
2
100
AcDbSymbolTableRecord
100
AcDbLayerTableRecord
  2
Centerline (ANSI)
 70
     0
 62
     7
  6
Continuous
370
     5
390
F
  0
LAYER
  5
C3
330
2
100
AcDbSymbolTableRecord
100
AcDbLayerTableRecord
  2
Dimension (ANSI)
 70
     0
 62
     7
  6
Continuous
370
     5
390
F
  0
LAYER
  5
CC
330
2
100
AcDbSymbolTableRecord
100
AcDbLayerTableRecord
  2
Symbol (ANSI)
 70
     0
 62
     7
  6
Continuous
370
     5
390
F
  0
LAYER
  5
CF
330
2
100
AcDbSymbolTableRecord
100
AcDbLayerTableRecord
  2
Visible (ANSI)
 70
     0
 62
     7
  6
Continuous
370
     5
390
F
  0
LAYER
  5
D0
330
2
100
AcDbSymbolTableRecord
100
AcDbLayerTableRecord
  2
Visible Narrow (ANSI)
 70
     0
 62
     7
  6
Continuous
370
     5
390
F
  0
LAYER
  5
2BB
330
2
100
AcDbSymbolTableRecord
100
AcDbLayerTableRecord
  2
Defpoints
 70
     0
 62
     7
  6
Continuous
290
     0
370
    -3
390
F
  0
ENDTAB
  0
TABLE
  2
STYLE
  5
3
330
0
100
AcDbSymbolTable
 70
    10
  0
STYLE
  5
55
330
3
100
AcDbSymbolTableRecord
100
AcDbTextStyleTableRecord
  2
Standard
 70
     0
 40
0.0
 41
1.0
 50
0.0
 71
     0
 42
0.2
  3
txt
  4

  0
STYLE
  5
5A
330
3
100
AcDbSymbolTableRecord
100
AcDbTextStyleTableRecord
  2
Annotative
 70
     0
 40
0.0
 41
1.0
 50
0.0
 71
     0
 42
0.2
  3
txt
  4

1001
AcadAnnotative
1000
AnnotativeData
1002
{
1070
     1
1070
     1
1002
}
  0
STYLE
  5
B2
330
3
100
AcDbSymbolTableRecord
100
AcDbTextStyleTableRecord
  2

 70
     1
 40
0.0
 41
1.0
 50
0.0
 71
     0
 42
0.2
  3
ltypeshp.shx
  4

  0
STYLE
  5
D4
330
3
100
AcDbSymbolTableRecord
100
AcDbTextStyleTableRecord
  2
ITALICC_120
 70
     0
 40
0.0
 41
1.0
 50
0.0
 71
     0
 42
0.2
  3
italicc.shx
  4

  0
STYLE
  5
D5
330
3
100
AcDbSymbolTableRecord
100
AcDbTextStyleTableRecord
  2
Label Text (ANSI)
 70
     0
 40
0.0
 41
1.0
 50
0.0
 71
     0
 42
0.2
  3
tahoma.ttf
  4

1001
ACAD
1000
Tahoma
1071
      256
  0
STYLE
  5
D6
330
3
100
AcDbSymbolTableRecord
100
AcDbTextStyleTableRecord
  2
Note Text (ANSI)
 70
     0
 40
0.0
 41
1.0
 50
0.0
 71
     0
 42
0.2
  3
RomanS.shx
  4

  0
STYLE
  5
D7
330
3
100
AcDbSymbolTableRecord
100
AcDbTextStyleTableRecord
  2
ROMANS
 70
     0
 40
0.0
 41
1.0
 50
0.0
 71
     0
 42
0.2
  3
romans.shx
  4

  0
STYLE
  5
D8
330
3
100
AcDbSymbolTableRecord
100
AcDbTextStyleTableRecord
  2
SANSSERIF_114
 70
     0
 40
0.0
 41
1.0
 50
0.0
 71
     0
 42
0.2
  3
tahoma.ttf
  4

1001
ACAD
1000
Tahoma
1071
      256
  0
STYLE
  5
D9
330
3
100
AcDbSymbolTableRecord
100
AcDbTextStyleTableRecord
  2
SANSSERIF_117
 70
     0
 40
0.0
 41
1.0
 50
0.0
 71
     0
 42
0.2
  3
tahoma.ttf
  4

1001
ACAD
1000
Tahoma
1071
      256
  0
STYLE
  5
15E
330
3
100
AcDbSymbolTableRecord
100
AcDbTextStyleTableRecord
  2
Text Style168
 70
     0
 40
0.0
 41
1.0
 50
0.0
 71
     0
 42
0.2
  3
tahoma.ttf
  4

1001
ACAD
1000
Tahoma
1071
      256
  0
ENDTAB
  0
TABLE
  2
VIEW
  5
6
330
0
100
AcDbSymbolTable
 70
     0
  0
ENDTAB
  0
TABLE
  2
UCS
  5
7
330
0
100
AcDbSymbolTable
 70
     0
  0
ENDTAB
  0
TABLE
  2
APPID
  5
9
330
0
100
AcDbSymbolTable
 70
     5
  0
APPID
  5
56
330
9
100
AcDbSymbolTableRecord
100
AcDbRegAppTableRecord
  2
ACAD
 70
     0
  0
APPID
  5
5E
330
9
100
AcDbSymbolTableRecord
100
AcDbRegAppTableRecord
  2
AcadAnnotative
 70
     0
  0
APPID
  5
625
330
9
100
AcDbSymbolTableRecord
100
AcDbRegAppTableRecord
  2
ACAD_DSTYLE_DIMANGULAR_EXTENSION
 70
     0
  0
APPID
  5
F07
330
9
100
AcDbSymbolTableRecord
100
AcDbRegAppTableRecord
  2
ACAD_DSTYLE_DIMRADIAL_EXTENSION
 70
     0
  0
APPID
  5
15B9
330
9
100
AcDbSymbolTableRecord
100
AcDbRegAppTableRecord
  2
ACAD_MLEADERVER
 70
     0
  0
ENDTAB
  0
TABLE
  2
DIMSTYLE
  5
A
330
0
100
AcDbSymbolTable
 70
    15
100
AcDbDimStyleTable
 71
     2
340
E2
340
58
  0
DIMSTYLE
105
58
330
A
100
AcDbSymbolTableRecord
100
AcDbDimStyleTableRecord
  2
Standard
 70
     0
340
55
  0
DIMSTYLE
105
59
330
A
100
AcDbSymbolTableRecord
100
AcDbDimStyleTableRecord
  2
Annotative
 70
     0
340
55
1001
AcadAnnotative
1000
AnnotativeData
1002
{
1070
     1
1070
     1
1002
}
  0
DIMSTYLE
105
DA
330
A
100
AcDbSymbolTableRecord
100
AcDbDimStyleTableRecord
  2
Architectural (ANSI)
 70
     0
 40
8.0
 41
0.0984251946210861
 43
0.2362204724409449
 44
0.125
 45
0.00000001
 46
0.3937007874015748
 78
     3
 79
     3
140
0.1000000014901161
146
1.200000047683715
147
0.031496062992126
171
     1
176
   256
177
   256
178
   256
272
     2
274
     1
276
     2
277
     4
284
    12
285
     4
286
    12
340
D6
371
    -1
372
    -1
  0
DIMSTYLE
105
DB
330
A
100
AcDbSymbolTableRecord
100
AcDbDimStyleTableRecord
  2
Architectural (ANSI)$7
 70
     0
 40
8.0
 41
0.0984251946210861
 43
0.2362204724409449
 44
0.125
 45
0.00000001
 46
0.3937007874015748
 78
     3
 79
     3
140
0.1000000014901161
146
1.200000047683715
147
0.031496062992126
171
     1
176
   256
177
   256
178
   256
272
     2
274
     1
276
     2
277
     4
284
    12
285
     4
286
    12
340
D6
371
    -1
372
    -1
  0
DIMSTYLE
105
DC
330
A
100
AcDbSymbolTableRecord
100
AcDbDimStyleTableRecord
  2
Default - Fraction (ANSI)
 70
     0
 40
8.0
 41
0.0984251946210861
 43
0.2362204724409449
 44
0.125
 45
0.00000001
 46
0.3937007874015748
 79
     3
140
0.1000000014901161
146
1.200000047683715
147
0.031496062992126
171
     1
176
   256
177
   256
178
   256
272
     2
274
     1
276
     2
277
     5
284
    12
285
     4
286
    12
340
D6
371
    -1
372
    -1
  0
DIMSTYLE
105
DD
330
A
100
AcDbSymbolTableRecord
100
AcDbDimStyleTableRecord
  2
Default - Fraction (ANSI)$7
 70
     0
 40
8.0
 41
0.0984251946210861
 43
0.2362204724409449
 44
0.125
 45
0.00000001
 46
0.3937007874015748
 79
     3
140
0.1000000014901161
146
1.200000047683715
147
0.031496062992126
171
     1
176
   256
177
   256
178
   256
272
     2
274
     1
276
     2
277
     5
284
    12
285
     4
286
    12
340
D6
371
    -1
372
    -1
  0
DIMSTYLE
105
DE
330
A
100
AcDbSymbolTableRecord
100
AcDbDimStyleTableRecord
  2
Default - mm (ANSI)
 70
     0
 40
8.0
 41
0.0984251946210861
 42
0.063
 43
0.2362204724409449
 44
0.125
 45
0.00000001
 46
0.3937007874015748
 73
     0
 78
     4
 79
     1
140
0.1000000014901161
143
1.0
144
25.4
146
1.200000047683715
147
0.031496062992126
171
     1
176
   256
177
   256
178
   256
179
     1
271
     2
272
     2
274
     1
284
     4
285
     4
340
D6
371
    -1
372
    -1
  0
DIMSTYLE
105
DF
330
A
100
AcDbSymbolTableRecord
100
AcDbDimStyleTableRecord
  2
Default - mm (ANSI)$7
 70
     0
 40
8.0
 41
0.0984251946210861
 42
0.063
 43
0.2362204724409449
 44
0.125
 45
0.00000001
 46
0.3937007874015748
 73
     0
 78
     4
 79
     1
140
0.1000000014901161
143
1.0
144
25.4
146
1.200000047683715
147
0.031496062992126
171
     1
176
   256
177
   256
178
   256
179
     1
271
     2
272
     2
274
     1
284
     4
285
     4
340
D6
371
    -1
372
    -1
  0
DIMSTYLE
105
E0
330
A
100
AcDbSymbolTableRecord
100
AcDbDimStyleTableRecord
  2
Default - mm [in] (ANSI)
 70
     0
  4
 in
 40
8.0
 41
0.0984251946210861
 42
0.063
 43
0.25
 44
0.125
 45
0.00000001
 46
0.3937007874015748
 73
     0
 78
     4
 79
     1
140
0.1000000014901161
143
0.03937
144
25.4
146
1.200000047683715
147
0.031496062992126
170
     1
171
     3
176
   256
177
   256
178
   256
179
     1
271
     2
272
     2
274
     3
284
     4
285
     4
286
     4
340
D6
371
    -1
372
    -1
  0
DIMSTYLE
105
E1
330
A
100
AcDbSymbolTableRecord
100
AcDbDimStyleTableRecord
  2
Default - mm [in] (ANSI)$7
 70
     0
  4
 in
 40
8.0
 41
0.0984251946210861
 42
0.063
 43
0.25
 44
0.125
 45
0.00000001
 46
0.3937007874015748
 73
     0
 78
     4
 79
     1
140
0.1000000014901161
143
0.03937
144
25.4
146
1.200000047683715
147
0.031496062992126
170
     1
171
     3
176
   256
177
   256
178
   256
179
     1
271
     2
272
     2
274
     3
284
     4
285
     4
286
     4
340
D6
371
    -1
372
    -1
  0
DIMSTYLE
105
E2
102
{ACAD_REACTORS
330
2B9
330
3BA
330
4B8
330
5A2
330
6CB
330
7BA
330
8B8
330
9AA
330
A9A
330
B9A
330
C84
330
D70
330
E6E
330
F2D
330
1017
330
1101
330
11EB
330
12E9
330
13D3
330
148C
102
}
330
A
100
AcDbSymbolTableRecord
100
AcDbDimStyleTableRecord
  2
Default (ANSI)
 70
     0
 40
8.0
 41
0.0984251946210861
 43
0.2362204724409449
 44
0.125
 45
0.00000001
 46
0.3937007874015748
140
0.1000000014901161
147
0.031496062992126
176
   256
177
   256
178
   256
271
     2
272
     2
340
D7
371
    -1
372
    -1
  0
DIMSTYLE
105
E3
330
A
100
AcDbSymbolTableRecord
100
AcDbDimStyleTableRecord
  2
Default (ANSI)$7
 70
     0
 40
8.0
 41
0.0984251946210861
 43
0.2362204724409449
 44
0.125
 45
0.00000001
 46
0.3937007874015748
140
0.1000000014901161
147
0.031496062992126
176
   256
177
   256
178
   256
271
     2
272
     2
340
D7
371
    -1
372
    -1
  0
DIMSTYLE
105
E4
330
A
100
AcDbSymbolTableRecord
100
AcDbDimStyleTableRecord
  2
Alternate (ANSI)
 70
     0
 40
8.0
 41
0.0979999974370003
340
55
342
E5
  0
DIMSTYLE
105
F7
330
A
100
AcDbSymbolTableRecord
100
AcDbDimStyleTableRecord
  2
Datum (ANSI)
 70
     0
 40
8.0
 41
0.0979999974370003
340
55
342
E5
  0
DIMSTYLE
105
106
330
A
100
AcDbSymbolTableRecord
100
AcDbDimStyleTableRecord
  2
Large (ANSI)
 70
     0
 40
8.0
 41
0.1959999948740005
340
55
342
E5
  0
ENDTAB
  0
TABLE
  2
BLOCK_RECORD
  5
1
330
0
100
AcDbSymbolTable
 70
    24
  0
BLOCK_RECORD
  5
6C
330
1
100
AcDbSymbolTableRecord
100
AcDbBlockTableRecord
  2
*Model_Space
340
6F
  0
BLOCK_RECORD
  5
68
330
1
100
AcDbSymbolTableRecord
100
AcDbBlockTableRecord
  2
*Paper_Space
340
6B
  0
BLOCK_RECORD
  5
70
330
1
100
AcDbSymbolTableRecord
100
AcDbBlockTableRecord
  2
*Paper_Space0
340
73
  0
BLOCK_RECORD
  5
E5
330
1
100
AcDbSymbolTableRecord
100
AcDbBlockTableRecord
  2
_Closed
340
0
  0
BLOCK_RECORD
  5
EC
330
1
100
AcDbSymbolTableRecord
100
AcDbBlockTableRecord
  2
DatumFilled45
340
0
  0
BLOCK_RECORD
  5
F8
330
1
100
AcDbSymbolTableRecord
100
AcDbBlockTableRecord
  2
Filled-1
340
0
  0
BLOCK_RECORD
  5
2BC
330
1
100
AcDbSymbolTableRecord
100
AcDbBlockTableRecord
  2
*D4
340
0
  0
BLOCK_RECORD
  5
3BB
330
1
100
AcDbSymbolTableRecord
100
AcDbBlockTableRecord
  2
*D5
340
0
  0
BLOCK_RECORD
  5
4B9
330
1
100
AcDbSymbolTableRecord
100
AcDbBlockTableRecord
  2
*D6
340
0
  0
BLOCK_RECORD
  5
5A3
330
1
100
AcDbSymbolTableRecord
100
AcDbBlockTableRecord
  2
*D7
340
0
  0
BLOCK_RECORD
  5
6CC
330
1
100
AcDbSymbolTableRecord
100
AcDbBlockTableRecord
  2
*D8
340
0
  0
BLOCK_RECORD
  5
7BB
330
1
100
AcDbSymbolTableRecord
100
AcDbBlockTableRecord
  2
*D9
340
0
  0
BLOCK_RECORD
  5
8B9
330
1
100
AcDbSymbolTableRecord
100
AcDbBlockTableRecord
  2
*D10
340
0
  0
BLOCK_RECORD
  5
9AB
330
1
100
AcDbSymbolTableRecord
100
AcDbBlockTableRecord
  2
*D11
340
0
  0
BLOCK_RECORD
  5
A9B
330
1
100
AcDbSymbolTableRecord
100
AcDbBlockTableRecord
  2
*D12
340
0
  0
BLOCK_RECORD
  5
B9B
330
1
100
AcDbSymbolTableRecord
100
AcDbBlockTableRecord
  2
*D13
340
0
  0
BLOCK_RECORD
  5
C85
330
1
100
AcDbSymbolTableRecord
100
AcDbBlockTableRecord
  2
*D14
340
0
  0
BLOCK_RECORD
  5
D71
330
1
100
AcDbSymbolTableRecord
100
AcDbBlockTableRecord
  2
*D15
340
0
  0
BLOCK_RECORD
  5
E6F
330
1
100
AcDbSymbolTableRecord
100
AcDbBlockTableRecord
  2
*D16
340
0
  0
BLOCK_RECORD
  5
F2E
330
1
100
AcDbSymbolTableRecord
100
AcDbBlockTableRecord
  2
*D17
340
0
  0
BLOCK_RECORD
  5
1018
330
1
100
AcDbSymbolTableRecord
100
AcDbBlockTableRecord
  2
*D18
340
0
  0
BLOCK_RECORD
  5
1102
330
1
100
AcDbSymbolTableRecord
100
AcDbBlockTableRecord
  2
*D19
340
0
  0
BLOCK_RECORD
  5
11EC
330
1
100
AcDbSymbolTableRecord
100
AcDbBlockTableRecord
  2
*D20
340
0
  0
BLOCK_RECORD
  5
12EA
330
1
100
AcDbSymbolTableRecord
100
AcDbBlockTableRecord
  2
*D21
340
0
  0
BLOCK_RECORD
  5
13D4
330
1
100
AcDbSymbolTableRecord
100
AcDbBlockTableRecord
  2
*D22
340
0
  0
BLOCK_RECORD
  5
148D
330
1
100
AcDbSymbolTableRecord
100
AcDbBlockTableRecord
  2
*D23
340
0
  0
ENDTAB
  0
ENDSEC
  0
SECTION
  2
BLOCKS
  0
BLOCK
  5
6D
330
6C
100
AcDbEntity
  8
0
100
AcDbBlockBegin
  2
*Model_Space
 70
     0
 10
0.0
 20
0.0
 30
0.0
  3
*Model_Space
  1

  0
ENDBLK
  5
6E
330
6C
100
AcDbEntity
  8
0
100
AcDbBlockEnd
  0
BLOCK
  5
69
330
68
100
AcDbEntity
 67
     1
  8
0
100
AcDbBlockBegin
  2
*Paper_Space
 70
     0
 10
0.0
 20
0.0
 30
0.0
  3
*Paper_Space
  1

  0
ENDBLK
  5
6A
330
68
100
AcDbEntity
 67
     1
  8
0
100
AcDbBlockEnd
  0
BLOCK
  5
71
330
70
100
AcDbEntity
 67
     1
  8
0
100
AcDbBlockBegin
  2
*Paper_Space0
 70
     0
 10
0.0
 20
0.0
 30
0.0
  3
*Paper_Space0
  1

  0
ENDBLK
  5
72
330
70
100
AcDbEntity
 67
     1
  8
0
100
AcDbBlockEnd
  0
BLOCK
  5
EA
330
E5
100
AcDbEntity
  8
0
100
AcDbBlockBegin
  2
_Closed
 70
     0
 10
0.0
 20
0.0
 30
0.0
  3
_Closed
  1

  0
LINE
  5
E6
330
E5
100
AcDbEntity
  8
0
  6
ByBlock
 62
     0
370
    -2
100
AcDbLine
 10
-1.0
 20
0.1666666666666666
 30
0.0
 11
0.0
 21
0.0
 31
0.0
  0
LINE
  5
E7
330
E5
100
AcDbEntity
  8
0
  6
ByBlock
 62
     0
370
    -2
100
AcDbLine
 10
0.0
 20
0.0
 30
0.0
 11
-1.0
 21
-0.1666666666666666
 31
0.0
  0
LINE
  5
E8
330
E5
100
AcDbEntity
  8
0
  6
ByBlock
 62
     0
370
    -2
100
AcDbLine
 10
-1.0
 20
0.1666666666666666
 30
0.0
 11
-1.0
 21
-0.1666666666666666
 31
0.0
  0
LINE
  5
E9
330
E5
100
AcDbEntity
  8
0
  6
ByBlock
 62
     0
370
    -2
100
AcDbLine
 10
0.0
 20
0.0
 30
0.0
 11
-1.0
 21
0.0
 31
0.0
  0
ENDBLK
  5
EB
330
E5
100
AcDbEntity
  8
0
100
AcDbBlockEnd
  0
BLOCK
  5
ED
330
EC
100
AcDbEntity
  8
0
100
AcDbBlockBegin
  2
DatumFilled45
 70
     0
 10
0.0
 20
0.0
 30
0.0
  3
DatumFilled45
  1

  0
POLYLINE
  5
EF
330
EC
100
AcDbEntity
  8
0
 62
     0
100
AcDb2dPolyline
 66
     1
 10
0.0
 20
0.0
 30
0.0
 70
   128
  0
VERTEX
  5
F0
330
EF
100
AcDbEntity
  8
0
 62
     0
100
AcDbVertex
100
AcDb2dVertex
 10
0.0
 20
0.9999999999999998
 30
0.0
  0
VERTEX
  5
F1
330
EF
100
AcDbEntity
  8
0
 62
     0
100
AcDbVertex
100
AcDb2dVertex
 10
0.0
 20
-0.9999999999999998
 30
0.0
  0
VERTEX
  5
F3
330
EF
100
AcDbEntity
  8
0
 62
     0
100
AcDbVertex
100
AcDb2dVertex
 10
-0.9999999999999998
 20
0.0
 30
0.0
  0
VERTEX
  5
F4
330
EF
100
AcDbEntity
  8
0
 62
     0
100
AcDbVertex
100
AcDb2dVertex
 10
0.0
 20
0.9999999999999998
 30
0.0
  0
SEQEND
  5
F2
330
EF
100
AcDbEntity
  8
0
 62
     0
  0
SOLID
  5
F6
330
EC
100
AcDbEntity
  8
0
 62
     0
100
AcDbTrace
 10
0.0
 20
0.9999999999999998
 30
0.0
 11
0.0
 21
-0.9999999999999998
 31
0.0
 12
-0.9999999999999998
 22
0.0
 32
0.0
 13
0.0
 23
0.9999999999999998
 33
0.0
  0
ENDBLK
  5
EE
330
EC
100
AcDbEntity
  8
0
100
AcDbBlockEnd
  0
BLOCK
  5
F9
330
F8
100
AcDbEntity
  8
0
100
AcDbBlockBegin
  2
Filled-1
 70
     0
 10
0.0
 20
0.0
 30
0.0
  3
Filled-1
  1

  0
LINE
  5
FB
330
F8
100
AcDbEntity
  8
0
 62
     0
100
AcDbLine
 10
-0.9999999999999998
 20
0.0
 30
0.0
 11
0.0
 21
0.0
 31
0.0
  0
POLYLINE
  5
FC
330
F8
100
AcDbEntity
  8
0
 62
     0
100
AcDb2dPolyline
 66
     1
 10
0.0
 20
0.0
 30
0.0
 70
   128
  0
VERTEX
  5
FD
330
FC
100
AcDbEntity
  8
0
 62
     0
100
AcDbVertex
100
AcDb2dVertex
 10
-0.9999999999999998
 20
-0.0994897959183674
 30
0.0
  0
VERTEX
  5
FE
330
FC
100
AcDbEntity
  8
0
 62
     0
100
AcDbVertex
100
AcDb2dVertex
 10
0.0
 20
0.0
 30
0.0
  0
VERTEX
  5
100
330
FC
100
AcDbEntity
  8
0
 62
     0
100
AcDbVertex
100
AcDb2dVertex
 10
-0.9999999999999998
 20
0.0994897959183674
 30
0.0
  0
VERTEX
  5
101
330
FC
100
AcDbEntity
  8
0
 62
     0
100
AcDbVertex
100
AcDb2dVertex
 10
-0.9999999999999998
 20
-0.0994897959183674
 30
0.0
  0
SEQEND
  5
FF
330
FC
100
AcDbEntity
  8
0
 62
     0
  0
SOLID
  5
102
330
F8
100
AcDbEntity
  8
0
 62
     0
100
AcDbTrace
 10
-0.9999999999999998
 20
-0.0994897959183674
 30
0.0
 11
0.0
 21
0.0
 31
0.0
 12
-0.9999999999999998
 22
0.0994897959183674
 32
0.0
 13
-0.9999999999999998
 23
-0.0994897959183674
 33
0.0
  0
LINE
  5
103
330
F8
100
AcDbEntity
  8
0
 62
     0
100
AcDbLine
 10
-0.9999999999999998
 20
-0.0994897959183674
 30
0.0
 11
0.0
 21
0.0
 31
0.0
  0
LINE
  5
104
330
F8
100
AcDbEntity
  8
0
 62
     0
100
AcDbLine
 10
0.0
 20
0.0
 30
0.0
 11
-0.9999999999999998
 21
0.0994897959183674
 31
0.0
  0
LINE
  5
105
330
F8
100
AcDbEntity
  8
0
 62
     0
100
AcDbLine
 10
-0.9999999999999998
 20
0.0994897959183674
 30
0.0
 11
-0.9999999999999998
 21
-0.0994897959183674
 31
0.0
  0
ENDBLK
  5
FA
330
F8
100
AcDbEntity
  8
0
100
AcDbBlockEnd
  0
BLOCK
  5
2BD
330
2BC
100
AcDbEntity
  8
0
100
AcDbBlockBegin
  2
*D4
 70
     1
 10
0.0
 20
0.0
 30
0.0
  3
*D4
  1

  0
LINE
  5
3B0
330
2BC
100
AcDbEntity
  8
Dimension (ANSI)
440
 16777216
100
AcDbLine
 10
50.74045000241476
 20
57.94377966921313
 30
0.0
 11
47.09084370320217
 21
57.94377966921313
 31
0.0
  0
LINE
  5
3B1
330
2BC
100
AcDbEntity
  8
Dimension (ANSI)
440
 16777216
100
AcDbLine
 10
50.97485000241473
 20
33.94390581041136
 30
0.0
 11
47.09084370320216
 21
33.94390581041137
 31
0.0
  0
LINE
  5
3B2
330
2BC
100
AcDbEntity
  8
Dimension (ANSI)
440
 16777216
100
AcDbLine
 10
48.09084370320217
 20
57.15637811224444
 30
0.0
 11
48.09084370320217
 21
47.26247792631048
 31
0.0
  0
LINE
  5
3B3
330
2BC
100
AcDbEntity
  8
Dimension (ANSI)
440
 16777216
100
AcDbLine
 10
48.09084370320217
 20
34.73130736738005
 30
0.0
 11
48.09084370320217
 21
44.62520755331398
 31
0.0
  0
SOLID
  5
3B4
330
2BC
100
AcDbEntity
  8
Dimension (ANSI)
440
 16777216
100
AcDbTrace
 10
47.95961011037405
 20
57.15637811224445
 30
0.0
 11
48.22207729603029
 21
57.15637811224444
 31
0.0
 12
48.09084370320217
 22
57.94377966921313
 32
0.0
 13
48.09084370320217
 23
57.94377966921313
 33
0.0
  0
SOLID
  5
3B5
330
2BC
100
AcDbEntity
  8
Dimension (ANSI)
440
 16777216
100
AcDbTrace
 10
47.95961011037404
 20
34.73130736738005
 30
0.0
 11
48.22207729603029
 21
34.73130736738005
 31
0.0
 12
48.09084370320217
 22
33.94390581041136
 32
0.0
 13
48.09084370320217
 23
33.94390581041136
 33
0.0
  0
MTEXT
  5
3B6
330
2BC
100
AcDbEntity
  8
Dimension (ANSI)
440
 16777216
100
AcDbMText
 10
48.09084370320216
 20
45.94384273981225
 30
0.0
 40
0.8000000119209289
 41
0.0
 71
     5
 72
     1
  1
\A1;24.00{\PHEIGHT}
  7
ROMANS
 73
     1
 44
1.0
  0
POINT
  5
3B7
330
2BC
100
AcDbEntity
  8
Defpoints
 62
     0
440
 16777216
100
AcDbPoint
 10
51.24045000241476
 20
57.94377966921313
 30
0.0
  0
POINT
  5
3B8
330
2BC
100
AcDbEntity
  8
Defpoints
 62
     0
440
 16777216
100
AcDbPoint
 10
51.47485000241474
 20
33.94390581041136
 30
0.0
  0
POINT
  5
3B9
330
2BC
100
AcDbEntity
  8
Defpoints
 62
     0
440
 16777216
100
AcDbPoint
 10
48.09084370320217
 20
33.94390581041136
 30
0.0
  0
ENDBLK
  5
2BE
330
2BC
100
AcDbEntity
  8
0
100
AcDbBlockEnd
  0
BLOCK
  5
3BC
330
3BB
100
AcDbEntity
  8
0
100
AcDbBlockBegin
  2
*D5
 70
     1
 10
0.0
 20
0.0
 30
0.0
  3
*D5
  1

  0
LINE
  5
4AE
330
3BB
100
AcDbEntity
  8
Dimension (ANSI)
440
 16777216
100
AcDbLine
 10
51.09985000241476
 20
58.30317966921314
 30
0.0
 11
51.09985000241476
 21
60.77168360622103
 31
0.0
  0
LINE
  5
4AF
330
3BB
100
AcDbEntity
  8
Dimension (ANSI)
440
 16777216
100
AcDbLine
 10
61.22485000241502
 20
58.30317966921314
 30
0.0
 11
61.22485000241502
 21
60.77168360622103
 31
0.0
  0
LINE
  5
4B0
330
3BB
100
AcDbEntity
  8
Dimension (ANSI)
440
 16777216
100
AcDbLine
 10
51.88725155938345
 20
59.77168360622102
 30
0.0
 11
54.29133385530457
 21
59.77168360622102
 31
0.0
  0
LINE
  5
4B1
330
3BB
100
AcDbEntity
  8
Dimension (ANSI)
440
 16777216
100
AcDbLine
 10
60.43744844544633
 20
59.77168360622102
 30
0.0
 11
58.0333661495252
 21
59.77168360622102
 31
0.0
  0
SOLID
  5
4B2
330
3BB
100
AcDbEntity
  8
Dimension (ANSI)
440
 16777216
100
AcDbTrace
 10
51.88725155938345
 20
59.90291719904914
 30
0.0
 11
51.88725155938345
 21
59.6404500133929
 31
0.0
 12
51.09985000241476
 22
59.77168360622102
 32
0.0
 13
51.09985000241476
 23
59.77168360622102
 33
0.0
  0
SOLID
  5
4B3
330
3BB
100
AcDbEntity
  8
Dimension (ANSI)
440
 16777216
100
AcDbTrace
 10
60.43744844544633
 20
59.90291719904914
 30
0.0
 11
60.43744844544633
 21
59.6404500133929
 31
0.0
 12
61.22485000241502
 22
59.77168360622102
 32
0.0
 13
61.22485000241502
 23
59.77168360622102
 33
0.0
  0
MTEXT
  5
4B4
330
3BB
100
AcDbEntity
  8
Dimension (ANSI)
440
 16777216
100
AcDbMText
 10
56.16235000241489
 20
59.77168360622102
 30
0.0
 40
0.8000000119209289
 41
0.0
 71
     5
 72
     1
  1
\A1;10.13{\PWIDTH}
  7
ROMANS
 73
     1
 44
1.0
  0
POINT
  5
4B5
330
3BB
100
AcDbEntity
  8
Defpoints
 62
     0
440
 16777216
100
AcDbPoint
 10
51.09985000241476
 20
57.80317966921314
 30
0.0
  0
POINT
  5
4B6
330
3BB
100
AcDbEntity
  8
Defpoints
 62
     0
440
 16777216
100
AcDbPoint
 10
61.22485000241502
 20
57.80317966921314
 30
0.0
  0
POINT
  5
4B7
330
3BB
100
AcDbEntity
  8
Defpoints
 62
     0
440
 16777216
100
AcDbPoint
 10
61.22485000241502
 20
59.77168360622102
 30
0.0
  0
ENDBLK
  5
3BD
330
3BB
100
AcDbEntity
  8
0
100
AcDbBlockEnd
  0
BLOCK
  5
4BA
330
4B9
100
AcDbEntity
  8
0
100
AcDbBlockBegin
  2
*D6
 70
     1
 10
0.0
 20
0.0
 30
0.0
  3
*D6
  1

  0
LINE
  5
598
330
4B9
100
AcDbEntity
  8
Dimension (ANSI)
440
 16777216
100
AcDbLine
 10
15.33191717337717
 20
58.30317966921314
 30
0.0
 11
15.33191717337717
 21
61.95278596842573
 31
0.0
  0
LINE
  5
599
330
4B9
100
AcDbEntity
  8
Dimension (ANSI)
440
 16777216
100
AcDbLine
 10
23.33191717337718
 20
58.44377966921313
 30
0.0
 11
23.33191717337718
 21
61.95278596842573
 31
0.0
  0
LINE
  5
59A
330
4B9
100
AcDbEntity
  8
Dimension (ANSI)
440
 16777216
100
AcDbLine
 10
16.11931873034586
 20
60.95278596842574
 30
0.0
 11
17.86090103222732
 21
60.95278596842574
 31
0.0
  0
LINE
  5
59B
330
4B9
100
AcDbEntity
  8
Dimension (ANSI)
440
 16777216
100
AcDbLine
 10
22.54451561640849
 20
60.95278596842574
 30
0.0
 11
20.80293331452703
 21
60.95278596842574
 31
0.0
  0
SOLID
  5
59C
330
4B9
100
AcDbEntity
  8
Dimension (ANSI)
440
 16777216
100
AcDbTrace
 10
16.11931873034586
 20
61.08401956125385
 30
0.0
 11
16.11931873034586
 21
60.82155237559762
 31
0.0
 12
15.33191717337717
 22
60.95278596842574
 32
0.0
 13
15.33191717337717
 23
60.95278596842574
 33
0.0
  0
SOLID
  5
59D
330
4B9
100
AcDbEntity
  8
Dimension (ANSI)
440
 16777216
100
AcDbTrace
 10
22.54451561640849
 20
61.08401956125385
 30
0.0
 11
22.54451561640849
 21
60.82155237559762
 31
0.0
 12
23.33191717337718
 22
60.95278596842574
 32
0.0
 13
23.33191717337718
 23
60.95278596842574
 33
0.0
  0
MTEXT
  5
59E
330
4B9
100
AcDbEntity
  8
Dimension (ANSI)
440
 16777216
100
AcDbMText
 10
18.11286953616433
 20
61.3527859743862
 30
0.0
 40
0.8000000119209289
 41
0.0
 71
     1
 72
     1
  1
\A1;8.00
  7
ROMANS
 73
     1
 44
1.0
  0
POINT
  5
59F
330
4B9
100
AcDbEntity
  8
Defpoints
 62
     0
440
 16777216
100
AcDbPoint
 10
15.33191717337717
 20
57.80317966921314
 30
0.0
  0
POINT
  5
5A0
330
4B9
100
AcDbEntity
  8
Defpoints
 62
     0
440
 16777216
100
AcDbPoint
 10
23.33191717337718
 20
57.94377966921313
 30
0.0
  0
POINT
  5
5A1
330
4B9
100
AcDbEntity
  8
Defpoints
 62
     0
440
 16777216
100
AcDbPoint
 10
23.33191717337718
 20
60.95278596842574
 30
0.0
  0
ENDBLK
  5
4BB
330
4B9
100
AcDbEntity
  8
0
100
AcDbBlockEnd
  0
BLOCK
  5
5A4
330
5A3
100
AcDbEntity
  8
0
100
AcDbBlockBegin
  2
*D7
 70
     1
 10
0.0
 20
0.0
 30
0.0
  3
*D7
  1

  0
LINE
  5
6C0
330
5A3
100
AcDbEntity
  8
Dimension (ANSI)
440
 16777216
100
AcDbLine
 10
24.34370288466913
 20
57.94377966921313
 30
0.0
 11
27.95472737930378
 21
57.94377966921307
 31
0.0
  0
LINE
  5
6C1
330
5A3
100
AcDbEntity
  8
Dimension (ANSI)
440
 16777216
100
AcDbLine
 10
23.4272343348645
 20
58.94028481060892
 30
0.0
 11
23.72886844759235
 21
62.53868928521853
 31
0.0
  0
ARC
  5
6C2
330
5A3
100
AcDbEntity
  8
Dimension (ANSI)
440
 16777216
100
AcDbCircle
 10
23.34370288466913
 20
57.94377966921316
 30
0.0
 40
3.611024494634655
100
AcDbArc
 50
12.51851029234554
 51
23.55096926667717
  0
ARC
  5
6C3
330
5A3
100
AcDbEntity
  8
Dimension (ANSI)
440
 16777216
100
AcDbCircle
 10
23.34370288466913
 20
57.94377966921316
 30
0.0
 40
3.611024494634655
100
AcDbArc
 50
49.52273646684849
 51
72.68990688507021
  0
SOLID
  5
6C4
330
5A3
100
AcDbEntity
  8
Dimension (ANSI)
440
 16777216
100
AcDbTrace
 10
26.99933027370506
 20
58.74079538399812
 30
0.0
 11
26.7384277232666
 21
58.71217925705881
 31
0.0
 12
26.95472737930378
 22
57.94377966921307
 32
0.0
 13
26.95472737930378
 23
57.94377966921307
 33
0.0
  0
SOLID
  5
6C5
330
5A3
100
AcDbEntity
  8
Dimension (ANSI)
440
 16777216
100
AcDbTrace
 10
24.39298331338612
 20
61.26245489259726
 30
0.0
 11
24.44329299940577
 21
61.52005527893025
 31
0.0
 12
23.64533699739698
 22
61.54218414382274
 32
0.0
 13
23.64533699739698
 23
61.54218414382274
 33
0.0
  0
MTEXT
  5
6C6
330
5A3
100
AcDbEntity
  8
Dimension (ANSI)
440
 16777216
100
AcDbMText
 10
25.48500934510276
 20
60.43858614273488
 30
0.0
 40
0.8000000119209289
 41
0.0
 71
     1
 72
     1
  1
\A1;85\U+00B0
  7
ROMANS
 73
     1
 44
1.0
  0
POINT
  5
6C7
330
5A3
100
AcDbEntity
  8
Defpoints
 62
     0
440
 16777216
100
AcDbPoint
 10
23.34370288466912
 20
57.94377966921314
 30
0.0
  0
POINT
  5
6C8
330
5A3
100
AcDbEntity
  8
Defpoints
 62
     0
440
 16777216
100
AcDbPoint
 10
23.84370288466913
 20
57.94377966921313
 30
0.0
  0
POINT
  5
6C9
330
5A3
100
AcDbEntity
  8
Defpoints
 62
     0
440
 16777216
100
AcDbPoint
 10
23.38546860976681
 20
58.44203223991105
 30
0.0
  0
POINT
  5
6CA
330
5A3
100
AcDbEntity
  8
Defpoints
 62
     0
440
 16777216
100
AcDbPoint
 10
25.32067115950094
 20
60.96554973676627
 30
0.0
  0
ENDBLK
  5
5A5
330
5A3
100
AcDbEntity
  8
0
100
AcDbBlockEnd
  0
BLOCK
  5
6CD
330
6CC
100
AcDbEntity
  8
0
100
AcDbBlockBegin
  2
*D8
 70
     1
 10
0.0
 20
0.0
 30
0.0
  3
*D8
  1

  0
LINE
  5
7B2
330
6CC
100
AcDbEntity
  8
Dimension (ANSI)
440
 16777216
100
AcDbLine
 10
59.18744844545274
 20
71.9820704635221
 30
0.0
 11
58.40004688848406
 21
71.9820704635221
 31
0.0
  0
LINE
  5
7B3
330
6CC
100
AcDbEntity
  8
Dimension (ANSI)
440
 16777216
100
AcDbLine
 10
62.01225155939011
 20
71.9820704635221
 30
0.0
 11
63.84255409935295
 21
71.9820704635221
 31
0.0
  0
SOLID
  5
7B4
330
6CC
100
AcDbEntity
  8
Dimension (ANSI)
440
 16777216
100
AcDbTrace
 10
59.18744844545274
 20
72.11330405635021
 30
0.0
 11
59.18744844545274
 21
71.850836870694
 31
0.0
 12
59.97485000242143
 22
71.9820704635221
 32
0.0
 13
59.97485000242143
 23
71.9820704635221
 33
0.0
  0
SOLID
  5
7B5
330
6CC
100
AcDbEntity
  8
Dimension (ANSI)
440
 16777216
100
AcDbTrace
 10
62.01225155939011
 20
72.11330405635021
 30
0.0
 11
62.01225155939011
 21
71.850836870694
 31
0.0
 12
61.22485000242143
 22
71.9820704635221
 32
0.0
 13
61.22485000242143
 23
71.9820704635221
 33
0.0
  0
MTEXT
  5
7B6
330
6CC
100
AcDbEntity
  8
Dimension (ANSI)
440
 16777216
100
AcDbMText
 10
66.17071311041808
 20
71.9820704635221
 30
0.0
 40
0.8000000119209289
 41
0.0
 71
     5
 72
     1
  1
\A1;1.25{\P(2 PL.)}
  7
ROMANS
 73
     1
 44
1.0
  0
POINT
  5
7B7
330
6CC
100
AcDbEntity
  8
Defpoints
 62
     0
440
 16777216
100
AcDbPoint
 10
59.97485000242143
 20
70.70764839148703
 30
0.0
  0
POINT
  5
7B8
330
6CC
100
AcDbEntity
  8
Defpoints
 62
     0
440
 16777216
100
AcDbPoint
 10
61.22485000242143
 20
70.63527776255803
 30
0.0
  0
POINT
  5
7B9
330
6CC
100
AcDbEntity
  8
Defpoints
 62
     0
440
 16777216
100
AcDbPoint
 10
61.22485000242143
 20
71.9820704635221
 30
0.0
  0
ENDBLK
  5
6CE
330
6CC
100
AcDbEntity
  8
0
100
AcDbBlockEnd
  0
BLOCK
  5
7BC
330
7BB
100
AcDbEntity
  8
0
100
AcDbBlockBegin
  2
*D9
 70
     1
 10
0.0
 20
0.0
 30
0.0
  3
*D9
  1

  0
LINE
  5
8A6
330
7BB
100
AcDbEntity
  8
Dimension (ANSI)
440
 16777216
100
AcDbLine
 10
51.71219085601326
 20
67.32777577756805
 30
0.0
 11
51.71219085601326
 21
66.54037422059936
 31
0.0
  0
LINE
  5
8A7
330
7BB
100
AcDbEntity
  8
Dimension (ANSI)
440
 16777216
100
AcDbLine
 10
51.71219085601326
 20
70.15257889150539
 30
0.0
 11
51.71219085601326
 21
71.52286145186495
 31
0.0
  0
LINE
  5
8A8
330
7BB
100
AcDbEntity
  8
Dimension (ANSI)
440
 16777216
100
AcDbLine
 10
51.71219085601326
 20
71.52286145186495
 30
0.0
 11
52.49959241298196
 21
71.52286145186495
 31
0.0
  0
SOLID
  5
8A9
330
7BB
100
AcDbEntity
  8
Dimension (ANSI)
440
 16777216
100
AcDbTrace
 10
51.58095726318514
 20
67.32777577756805
 30
0.0
 11
51.84342444884138
 21
67.32777577756805
 31
0.0
 12
51.71219085601326
 22
68.11517733453674
 32
0.0
 13
51.71219085601326
 23
68.11517733453674
 33
0.0
  0
SOLID
  5
8AA
330
7BB
100
AcDbEntity
  8
Dimension (ANSI)
440
 16777216
100
AcDbTrace
 10
51.58095726318514
 20
70.15257889150539
 30
0.0
 11
51.84342444884138
 21
70.15257889150539
 31
0.0
 12
51.71219085601326
 22
69.36517733453669
 32
0.0
 13
51.71219085601326
 23
69.36517733453669
 33
0.0
  0
MTEXT
  5
8AB
330
7BB
100
AcDbEntity
  8
Dimension (ANSI)
440
 16777216
100
AcDbMText
 10
52.75156091691895
 20
71.92286145782543
 30
0.0
 40
0.8000000119209289
 41
0.0
 71
     1
 72
     1
  1
\A1;1.25
  7
ROMANS
 73
     1
 44
1.0
  0
POINT
  5
8AC
330
7BB
100
AcDbEntity
  8
Defpoints
 62
     0
440
 16777216
100
AcDbPoint
 10
53.92831576420971
 20
69.36517733453669
 30
0.0
  0
POINT
  5
8AD
330
7BB
100
AcDbEntity
  8
Defpoints
 62
     0
440
 16777216
100
AcDbPoint
 10
54.05639534250234
 20
68.11517733453674
 30
0.0
  0
POINT
  5
8AE
330
7BB
100
AcDbEntity
  8
Defpoints
 62
     0
440
 16777216
100
AcDbPoint
 10
51.71219085601326
 20
68.11517733453674
 30
0.0
  0
ENDBLK
  5
7BD
330
7BB
100
AcDbEntity
  8
0
100
AcDbBlockEnd
  0
BLOCK
  5
8BA
330
8B9
100
AcDbEntity
  8
0
100
AcDbBlockBegin
  2
*D10
 70
     1
 10
0.0
 20
0.0
 30
0.0
  3
*D10
  1

  0
LINE
  5
9A0
330
8B9
100
AcDbEntity
  8
Dimension (ANSI)
440
 16777216
100
AcDbLine
 10
50.74045000240783
 20
22.56472062426073
 30
0.0
 11
39.53178858508501
 21
22.56472062426073
 31
0.0
  0
LINE
  5
9A1
330
8B9
100
AcDbEntity
  8
Dimension (ANSI)
440
 16777216
100
AcDbLine
 10
50.00610000240782
 20
20.56472062426076
 30
0.0
 11
39.53178858508501
 21
20.56472062426077
 31
0.0
  0
LINE
  5
9A2
330
8B9
100
AcDbEntity
  8
Dimension (ANSI)
440
 16777216
100
AcDbLine
 10
40.531788585085
 20
23.35212218122942
 30
0.0
 11
40.531788585085
 21
24.13952373819811
 31
0.0
  0
LINE
  5
9A3
330
8B9
100
AcDbEntity
  8
Dimension (ANSI)
440
 16777216
100
AcDbLine
 10
40.531788585085
 20
19.77731906729207
 30
0.0
 11
40.531788585085
 21
18.98991751032338
 31
0.0
  0
SOLID
  5
9A4
330
8B9
100
AcDbEntity
  8
Dimension (ANSI)
440
 16777216
100
AcDbTrace
 10
40.40055499225688
 20
23.35212218122942
 30
0.0
 11
40.66302217791312
 21
23.35212218122942
 31
0.0
 12
40.531788585085
 22
22.56472062426073
 32
0.0
 13
40.531788585085
 23
22.56472062426073
 33
0.0
  0
SOLID
  5
9A5
330
8B9
100
AcDbEntity
  8
Dimension (ANSI)
440
 16777216
100
AcDbTrace
 10
40.40055499225688
 20
19.77731906729207
 30
0.0
 11
40.66302217791312
 21
19.77731906729207
 31
0.0
 12
40.531788585085
 22
20.56472062426076
 32
0.0
 13
40.531788585085
 23
20.56472062426076
 33
0.0
  0
MTEXT
  5
9A6
330
8B9
100
AcDbEntity
  8
Dimension (ANSI)
440
 16777216
100
AcDbMText
 10
39.31274094787215
 20
21.96472063022122
 30
0.0
 40
0.8000000119209289
 41
0.0
 71
     1
 72
     1
  1
\A1;2.00
  7
ROMANS
 73
     1
 44
1.0
  0
POINT
  5
9A7
330
8B9
100
AcDbEntity
  8
Defpoints
 62
     0
440
 16777216
100
AcDbPoint
 10
51.24045000240784
 20
22.56472062426073
 30
0.0
  0
POINT
  5
9A8
330
8B9
100
AcDbEntity
  8
Defpoints
 62
     0
440
 16777216
100
AcDbPoint
 10
50.50610000240782
 20
20.56472062426076
 30
0.0
  0
POINT
  5
9A9
330
8B9
100
AcDbEntity
  8
Defpoints
 62
     0
440
 16777216
100
AcDbPoint
 10
40.531788585085
 20
20.56472062426076
 30
0.0
  0
ENDBLK
  5
8BB
330
8B9
100
AcDbEntity
  8
0
100
AcDbBlockEnd
  0
BLOCK
  5
9AC
330
9AB
100
AcDbEntity
  8
0
100
AcDbBlockBegin
  2
*D11
 70
     1
 10
0.0
 20
0.0
 30
0.0
  3
*D11
  1

  0
LINE
  5
A90
330
9AB
100
AcDbEntity
  8
Dimension (ANSI)
440
 16777216
100
AcDbLine
 10
50.74045000240783
 20
22.56472062426073
 30
0.0
 11
36.29916102602988
 21
22.56472062426073
 31
0.0
  0
LINE
  5
A91
330
9AB
100
AcDbEntity
  8
Dimension (ANSI)
440
 16777216
100
AcDbLine
 10
50.00610000240782
 20
15.56472062426076
 30
0.0
 11
36.29916102602987
 21
15.56472062426077
 31
0.0
  0
LINE
  5
A92
330
9AB
100
AcDbEntity
  8
Dimension (ANSI)
440
 16777216
100
AcDbLine
 10
37.29916102602988
 20
21.77731906729204
 30
0.0
 11
37.29916102602988
 21
19.71668913415821
 31
0.0
  0
LINE
  5
A93
330
9AB
100
AcDbEntity
  8
Dimension (ANSI)
440
 16777216
100
AcDbLine
 10
37.29916102602988
 20
16.35212218122946
 30
0.0
 11
37.29916102602988
 21
18.41275211436327
 31
0.0
  0
SOLID
  5
A94
330
9AB
100
AcDbEntity
  8
Dimension (ANSI)
440
 16777216
100
AcDbTrace
 10
37.16792743320176
 20
21.77731906729204
 30
0.0
 11
37.430394618858
 21
21.77731906729204
 31
0.0
 12
37.29916102602988
 22
22.56472062426073
 32
0.0
 13
37.29916102602988
 23
22.56472062426073
 33
0.0
  0
SOLID
  5
A95
330
9AB
100
AcDbEntity
  8
Dimension (ANSI)
440
 16777216
100
AcDbTrace
 10
37.16792743320176
 20
16.35212218122946
 30
0.0
 11
37.430394618858
 21
16.35212218122946
 31
0.0
 12
37.29916102602987
 22
15.56472062426077
 32
0.0
 13
37.29916102602987
 23
15.56472062426077
 33
0.0
  0
MTEXT
  5
A96
330
9AB
100
AcDbEntity
  8
Dimension (ANSI)
440
 16777216
100
AcDbMText
 10
36.08011338881703
 20
19.46472063022121
 30
0.0
 40
0.8000000119209289
 41
0.0
 71
     1
 72
     1
  1
\A1;7.00
  7
ROMANS
 73
     1
 44
1.0
  0
POINT
  5
A97
330
9AB
100
AcDbEntity
  8
Defpoints
 62
     0
440
 16777216
100
AcDbPoint
 10
51.24045000240784
 20
22.56472062426073
 30
0.0
  0
POINT
  5
A98
330
9AB
100
AcDbEntity
  8
Defpoints
 62
     0
440
 16777216
100
AcDbPoint
 10
50.50610000240782
 20
15.56472062426076
 30
0.0
  0
POINT
  5
A99
330
9AB
100
AcDbEntity
  8
Defpoints
 62
     0
440
 16777216
100
AcDbPoint
 10
37.29916102602987
 20
15.56472062426077
 30
0.0
  0
ENDBLK
  5
9AD
330
9AB
100
AcDbEntity
  8
0
100
AcDbBlockEnd
  0
BLOCK
  5
A9C
330
A9B
100
AcDbEntity
  8
0
100
AcDbBlockBegin
  2
*D12
 70
     1
 10
0.0
 20
0.0
 30
0.0
  3
*D12
  1

  0
LINE
  5
B8F
330
A9B
100
AcDbEntity
  8
Dimension (ANSI)
440
 16777216
100
AcDbLine
 10
50.74045000240782
 20
22.56472062426073
 30
0.0
 11
40.63877716771525
 21
22.56472062426073
 31
0.0
  0
LINE
  5
B90
330
A9B
100
AcDbEntity
  8
Dimension (ANSI)
440
 16777216
100
AcDbLine
 10
51.56860000240783
 20
21.87722062426078
 30
0.0
 11
40.63877716771525
 21
21.87722062426078
 31
0.0
  0
LINE
  5
B91
330
A9B
100
AcDbEntity
  8
Dimension (ANSI)
440
 16777216
100
AcDbLine
 10
41.63877716771525
 20
21.08981906729209
 30
0.0
 11
41.63877716771525
 21
20.3024175103234
 31
0.0
  0
LINE
  5
B92
330
A9B
100
AcDbEntity
  8
Dimension (ANSI)
440
 16777216
100
AcDbLine
 10
41.63877716771525
 20
23.35212218122942
 30
0.0
 11
41.63877716771525
 21
24.72240474158901
 31
0.0
  0
LINE
  5
B93
330
A9B
100
AcDbEntity
  8
Dimension (ANSI)
440
 16777216
100
AcDbLine
 10
41.63877716771525
 20
24.72240474158901
 30
0.0
 11
42.42617872468394
 21
24.72240474158901
 31
0.0
  0
SOLID
  5
B94
330
A9B
100
AcDbEntity
  8
Dimension (ANSI)
440
 16777216
100
AcDbTrace
 10
41.50754357488714
 20
21.08981906729209
 30
0.0
 11
41.77001076054337
 21
21.08981906729209
 31
0.0
 12
41.63877716771525
 22
21.87722062426078
 32
0.0
 13
41.63877716771525
 23
21.87722062426078
 33
0.0
  0
SOLID
  5
B95
330
A9B
100
AcDbEntity
  8
Dimension (ANSI)
440
 16777216
100
AcDbTrace
 10
41.50754357488714
 20
23.35212218122942
 30
0.0
 11
41.77001076054337
 21
23.35212218122942
 31
0.0
 12
41.63877716771525
 22
22.56472062426073
 32
0.0
 13
41.63877716771525
 23
22.56472062426073
 33
0.0
  0
MTEXT
  5
B96
330
A9B
100
AcDbEntity
  8
Dimension (ANSI)
440
 16777216
100
AcDbMText
 10
42.67814722862094
 20
25.12240474754948
 30
0.0
 40
0.8000000119209289
 41
0.0
 71
     1
 72
     1
  1
\A1;0.69
  7
ROMANS
 73
     1
 44
1.0
  0
POINT
  5
B97
330
A9B
100
AcDbEntity
  8
Defpoints
 62
     0
440
 16777216
100
AcDbPoint
 10
51.24045000240782
 20
22.56472062426073
 30
0.0
  0
POINT
  5
B98
330
A9B
100
AcDbEntity
  8
Defpoints
 62
     0
440
 16777216
100
AcDbPoint
 10
52.06860000240783
 20
21.87722062426078
 30
0.0
  0
POINT
  5
B99
330
A9B
100
AcDbEntity
  8
Defpoints
 62
     0
440
 16777216
100
AcDbPoint
 10
41.63877716771525
 20
21.87722062426078
 30
0.0
  0
ENDBLK
  5
A9D
330
A9B
100
AcDbEntity
  8
0
100
AcDbBlockEnd
  0
BLOCK
  5
B9C
330
B9B
100
AcDbEntity
  8
0
100
AcDbBlockBegin
  2
*D13
 70
     1
 10
0.0
 20
0.0
 30
0.0
  3
*D13
  1

  0
LINE
  5
C7A
330
B9B
100
AcDbEntity
  8
Dimension (ANSI)
440
 16777216
100
AcDbLine
 10
61.22485000240782
 20
22.92412062426073
 30
0.0
 11
61.22485000240782
 21
26.0341030479413
 31
0.0
  0
LINE
  5
C7B
330
B9B
100
AcDbEntity
  8
Dimension (ANSI)
440
 16777216
100
AcDbLine
 10
58.97485000240784
 20
23.65847062426078
 30
0.0
 11
58.97485000240784
 21
26.0341030479413
 31
0.0
  0
LINE
  5
C7C
330
B9B
100
AcDbEntity
  8
Dimension (ANSI)
440
 16777216
100
AcDbLine
 10
58.18744844543915
 20
25.0341030479413
 30
0.0
 11
57.40004688847046
 21
25.0341030479413
 31
0.0
  0
LINE
  5
C7D
330
B9B
100
AcDbEntity
  8
Dimension (ANSI)
440
 16777216
100
AcDbLine
 10
62.01225155937651
 20
25.0341030479413
 30
0.0
 11
63.34682157698659
 21
25.0341030479413
 31
0.0
  0
SOLID
  5
C7E
330
B9B
100
AcDbEntity
  8
Dimension (ANSI)
440
 16777216
100
AcDbTrace
 10
58.18744844543915
 20
25.16533664076941
 30
0.0
 11
58.18744844543915
 21
24.90286945511318
 31
0.0
 12
58.97485000240784
 22
25.0341030479413
 32
0.0
 13
58.97485000240784
 23
25.0341030479413
 33
0.0
  0
SOLID
  5
C7F
330
B9B
100
AcDbEntity
  8
Dimension (ANSI)
440
 16777216
100
AcDbTrace
 10
62.01225155937651
 20
25.16533664076941
 30
0.0
 11
62.01225155937651
 21
24.90286945511318
 31
0.0
 12
61.22485000240782
 22
25.0341030479413
 32
0.0
 13
61.22485000240782
 23
25.0341030479413
 33
0.0
  0
MTEXT
  5
C80
330
B9B
100
AcDbEntity
  8
Dimension (ANSI)
440
 16777216
100
AcDbMText
 10
63.59879008092359
 20
25.43410305390176
 30
0.0
 40
0.8000000119209289
 41
0.0
 71
     1
 72
     1
  1
\A1;2.25
  7
ROMANS
 73
     1
 44
1.0
  0
POINT
  5
C81
330
B9B
100
AcDbEntity
  8
Defpoints
 62
     0
440
 16777216
100
AcDbPoint
 10
61.22485000240782
 20
22.42412062426073
 30
0.0
  0
POINT
  5
C82
330
B9B
100
AcDbEntity
  8
Defpoints
 62
     0
440
 16777216
100
AcDbPoint
 10
58.97485000240784
 20
23.15847062426078
 30
0.0
  0
POINT
  5
C83
330
B9B
100
AcDbEntity
  8
Defpoints
 62
     0
440
 16777216
100
AcDbPoint
 10
58.97485000240784
 20
25.0341030479413
 30
0.0
  0
ENDBLK
  5
B9D
330
B9B
100
AcDbEntity
  8
0
100
AcDbBlockEnd
  0
BLOCK
  5
C86
330
C85
100
AcDbEntity
  8
0
100
AcDbBlockBegin
  2
*D14
 70
     1
 10
0.0
 20
0.0
 30
0.0
  3
*D14
  1

  0
LINE
  5
D64
330
C85
100
AcDbEntity
  8
Dimension (ANSI)
440
 16777216
100
AcDbLine
 10
51.09985000240783
 20
22.92412062426073
 30
0.0
 11
51.09985000240783
 21
26.0341030479413
 31
0.0
  0
LINE
  5
D65
330
C85
100
AcDbEntity
  8
Dimension (ANSI)
440
 16777216
100
AcDbLine
 10
53.34985000240783
 20
23.65847062426078
 30
0.0
 11
53.34985000240783
 21
26.0341030479413
 31
0.0
  0
LINE
  5
D66
330
C85
100
AcDbEntity
  8
Dimension (ANSI)
440
 16777216
100
AcDbLine
 10
54.13725155937652
 20
25.0341030479413
 30
0.0
 11
54.92465311634521
 21
25.0341030479413
 31
0.0
  0
LINE
  5
D67
330
C85
100
AcDbEntity
  8
Dimension (ANSI)
440
 16777216
100
AcDbLine
 10
50.31244844543914
 20
25.0341030479413
 30
0.0
 11
48.97787842782904
 21
25.0341030479413
 31
0.0
  0
SOLID
  5
D68
330
C85
100
AcDbEntity
  8
Dimension (ANSI)
440
 16777216
100
AcDbTrace
 10
54.13725155937652
 20
25.16533664076941
 30
0.0
 11
54.13725155937652
 21
24.90286945511318
 31
0.0
 12
53.34985000240783
 22
25.0341030479413
 32
0.0
 13
53.34985000240783
 23
25.0341030479413
 33
0.0
  0
SOLID
  5
D69
330
C85
100
AcDbEntity
  8
Dimension (ANSI)
440
 16777216
100
AcDbTrace
 10
50.31244844543914
 20
25.16533664076941
 30
0.0
 11
50.31244844543914
 21
24.90286945511318
 31
0.0
 12
51.09985000240783
 22
25.0341030479413
 32
0.0
 13
51.09985000240783
 23
25.0341030479413
 33
0.0
  0
MTEXT
  5
D6A
330
C85
100
AcDbEntity
  8
Dimension (ANSI)
440
 16777216
100
AcDbMText
 10
46.28781464946634
 20
25.43410305390176
 30
0.0
 40
0.8000000119209289
 41
0.0
 71
     1
 72
     1
  1
\A1;2.25
  7
ROMANS
 73
     1
 44
1.0
  0
POINT
  5
D6B
330
C85
100
AcDbEntity
  8
Defpoints
 62
     0
440
 16777216
100
AcDbPoint
 10
51.09985000240783
 20
22.42412062426073
 30
0.0
  0
POINT
  5
D6C
330
C85
100
AcDbEntity
  8
Defpoints
 62
     0
440
 16777216
100
AcDbPoint
 10
53.34985000240783
 20
23.15847062426078
 30
0.0
  0
POINT
  5
D6D
330
C85
100
AcDbEntity
  8
Defpoints
 62
     0
440
 16777216
100
AcDbPoint
 10
53.34985000240783
 20
25.0341030479413
 30
0.0
  0
ENDBLK
  5
C87
330
C85
100
AcDbEntity
  8
0
100
AcDbBlockEnd
  0
BLOCK
  5
D72
330
D71
100
AcDbEntity
  8
0
100
AcDbBlockBegin
  2
*D15
 70
     1
 10
0.0
 20
0.0
 30
0.0
  3
*D15
  1

  0
LINE
  5
E64
330
D71
100
AcDbEntity
  8
Dimension (ANSI)
440
 16777216
100
AcDbLine
 10
51.09985000240782
 20
14.06472062426072
 30
0.0
 11
51.09985000240782
 21
11.61428115231361
 31
0.0
  0
LINE
  5
E65
330
D71
100
AcDbEntity
  8
Dimension (ANSI)
440
 16777216
100
AcDbLine
 10
51.78735000240782
 20
13.78347062426076
 30
0.0
 11
51.78735000240782
 21
11.61428115231361
 31
0.0
  0
LINE
  5
E66
330
D71
100
AcDbEntity
  8
Dimension (ANSI)
440
 16777216
100
AcDbLine
 10
52.57475155937651
 20
12.61428115231361
 30
0.0
 11
53.3621531163452
 21
12.61428115231361
 31
0.0
  0
LINE
  5
E67
330
D71
100
AcDbEntity
  8
Dimension (ANSI)
440
 16777216
100
AcDbLine
 10
50.31244844543913
 20
12.61428115231361
 30
0.0
 11
48.48214590547629
 21
12.61428115231361
 31
0.0
  0
SOLID
  5
E68
330
D71
100
AcDbEntity
  8
Dimension (ANSI)
440
 16777216
100
AcDbTrace
 10
52.57475155937651
 20
12.74551474514172
 30
0.0
 11
52.57475155937651
 21
12.48304755948549
 31
0.0
 12
51.78735000240782
 22
12.61428115231361
 32
0.0
 13
51.78735000240782
 23
12.61428115231361
 33
0.0
  0
SOLID
  5
E69
330
D71
100
AcDbEntity
  8
Dimension (ANSI)
440
 16777216
100
AcDbTrace
 10
50.31244844543913
 20
12.74551474514172
 30
0.0
 11
50.31244844543913
 21
12.48304755948549
 31
0.0
 12
51.09985000240782
 22
12.61428115231361
 32
0.0
 13
51.09985000240782
 23
12.61428115231361
 33
0.0
  0
MTEXT
  5
E6A
330
D71
100
AcDbEntity
  8
Dimension (ANSI)
440
 16777216
100
AcDbMText
 10
46.15398689441116
 20
12.61428115231361
 30
0.0
 40
0.8000000119209289
 41
0.0
 71
     5
 72
     1
  1
\A1;0.69{\P(2 PL.)}
  7
ROMANS
 73
     1
 44
1.0
  0
POINT
  5
E6B
330
D71
100
AcDbEntity
  8
Defpoints
 62
     0
440
 16777216
100
AcDbPoint
 10
51.09985000240782
 20
14.56472062426072
 30
0.0
  0
POINT
  5
E6C
330
D71
100
AcDbEntity
  8
Defpoints
 62
     0
440
 16777216
100
AcDbPoint
 10
51.78735000240782
 20
14.28347062426076
 30
0.0
  0
POINT
  5
E6D
330
D71
100
AcDbEntity
  8
Defpoints
 62
     0
440
 16777216
100
AcDbPoint
 10
51.78735000240782
 20
12.61428115231361
 30
0.0
  0
ENDBLK
  5
D73
330
D71
100
AcDbEntity
  8
0
100
AcDbBlockEnd
  0
BLOCK
  5
E70
330
E6F
100
AcDbEntity
  8
0
100
AcDbBlockBegin
  2
*D16
 70
     1
 10
0.0
 20
0.0
 30
0.0
  3
*D16
  1

  0
LINE
  5
F20
330
E6F
100
AcDbEntity
  8
Dimension (ANSI)
440
 16777216
100
AcDbLine
 10
63.78910281144168
 20
18.26370599506088
 30
0.0
 11
62.65204074788461
 21
18.26370599506088
 31
0.0
  0
LINE
  5
F21
330
E6F
100
AcDbEntity
  8
Dimension (ANSI)
440
 16777216
100
AcDbLine
 10
62.65204074788461
 20
18.26370599506088
 30
0.0
 11
61.19644056103671
 21
16.4059196409852
 31
0.0
  0
MTEXT
  5
F22
102
{ACAD_XDICTIONARY
360
15BA
102
}
330
E6F
100
AcDbEntity
  8
Dimension (ANSI)
440
 16777216
100
AcDbMText
 10
66.11726182250681
 20
18.26370599506088
 30
0.0
 40
0.8000000119209289
 41
0.0
 71
     5
 72
     1
  1
\A1;\U+22050.563{\P(6 PL.)}
  7
ROMANS
 73
     1
 44
1.0
  0
SOLID
  5
F23
330
E6F
100
AcDbEntity
  8
Dimension (ANSI)
440
 16777216
100
AcDbTrace
 10
61.09313881733143
 20
16.48685792385569
 30
0.0
 11
61.299742304742
 21
16.3249813581147
 31
0.0
 12
60.71081086381375
 22
15.78610917875352
 32
0.0
 13
60.71081086381375
 23
15.78610917875352
 33
0.0
  0
LINE
  5
F24
330
E6F
100
AcDbEntity
  8
Dimension (ANSI)
440
 16777216
100
AcDbLine
 10
59.81735000240807
 20
15.56472062426074
 30
0.0
 11
61.25735000240807
 21
15.56472062426074
 31
0.0
  0
LINE
  5
F25
330
E6F
100
AcDbEntity
  8
Dimension (ANSI)
440
 16777216
100
AcDbLine
 10
60.53735000240808
 20
14.84472062426074
 30
0.0
 11
60.53735000240809
 21
16.28472062426074
 31
0.0
  0
POINT
  5
F26
330
E6F
100
AcDbEntity
  8
Defpoints
 62
     0
440
 16777216
100
AcDbPoint
 10
60.71081086381375
 20
15.78610917875352
 30
0.0
  0
POINT
  5
F27
330
E6F
100
AcDbEntity
  8
Defpoints
 62
     0
440
 16777216
100
AcDbPoint
 10
60.3638891410024
 20
15.34333206976796
 30
0.0
  0
ENDBLK
  5
E71
330
E6F
100
AcDbEntity
  8
0
100
AcDbBlockEnd
  0
BLOCK
  5
F2F
330
F2E
100
AcDbEntity
  8
0
100
AcDbBlockBegin
  2
*D17
 70
     1
 10
0.0
 20
0.0
 30
0.0
  3
*D17
  1

  0
LINE
  5
100D
330
F2E
100
AcDbEntity
  8
Dimension (ANSI)
440
 16777216
100
AcDbLine
 10
51.09985000242133
 20
76.61517733454378
 30
0.0
 11
51.09985000242133
 21
80.32126777049656
 31
0.0
  0
LINE
  5
100E
330
F2E
100
AcDbEntity
  8
Dimension (ANSI)
440
 16777216
100
AcDbLine
 10
53.22485000242132
 20
76.64642733453669
 30
0.0
 11
53.22485000242132
 21
80.32126777049656
 31
0.0
  0
LINE
  5
100F
330
F2E
100
AcDbEntity
  8
Dimension (ANSI)
440
 16777216
100
AcDbLine
 10
54.01225155939001
 20
79.32126777049656
 30
0.0
 11
54.79965311635869
 21
79.32126777049656
 31
0.0
  0
LINE
  5
1010
330
F2E
100
AcDbEntity
  8
Dimension (ANSI)
440
 16777216
100
AcDbLine
 10
50.31244844545264
 20
79.32126777049656
 30
0.0
 11
48.97787842784254
 21
79.32126777049656
 31
0.0
  0
SOLID
  5
1011
330
F2E
100
AcDbEntity
  8
Dimension (ANSI)
440
 16777216
100
AcDbTrace
 10
54.01225155939001
 20
79.45250136332467
 30
0.0
 11
54.01225155939001
 21
79.19003417766845
 31
0.0
 12
53.22485000242132
 22
79.32126777049656
 32
0.0
 13
53.22485000242132
 23
79.32126777049656
 33
0.0
  0
SOLID
  5
1012
330
F2E
100
AcDbEntity
  8
Dimension (ANSI)
440
 16777216
100
AcDbTrace
 10
50.31244844545264
 20
79.45250136332467
 30
0.0
 11
50.31244844545264
 21
79.19003417766845
 31
0.0
 12
51.09985000242133
 22
79.32126777049656
 32
0.0
 13
51.09985000242133
 23
79.32126777049656
 33
0.0
  0
MTEXT
  5
1013
330
F2E
100
AcDbEntity
  8
Dimension (ANSI)
440
 16777216
100
AcDbMText
 10
46.28781464947985
 20
79.72126777645702
 30
0.0
 40
0.8000000119209289
 41
0.0
 71
     1
 72
     1
  1
\A1;2.13
  7
ROMANS
 73
     1
 44
1.0
  0
POINT
  5
1014
330
F2E
100
AcDbEntity
  8
Defpoints
 62
     0
440
 16777216
100
AcDbPoint
 10
51.09985000242133
 20
76.11517733454377
 30
0.0
  0
POINT
  5
1015
330
F2E
100
AcDbEntity
  8
Defpoints
 62
     0
440
 16777216
100
AcDbPoint
 10
53.22485000242132
 20
76.1464273345367
 30
0.0
  0
POINT
  5
1016
330
F2E
100
AcDbEntity
  8
Defpoints
 62
     0
440
 16777216
100
AcDbPoint
 10
53.22485000242132
 20
79.32126777049656
 30
0.0
  0
ENDBLK
  5
F30
330
F2E
100
AcDbEntity
  8
0
100
AcDbBlockEnd
  0
BLOCK
  5
1019
330
1018
100
AcDbEntity
  8
0
100
AcDbBlockBegin
  2
*D18
 70
     1
 10
0.0
 20
0.0
 30
0.0
  3
*D18
  1

  0
LINE
  5
10F7
330
1018
100
AcDbEntity
  8
Dimension (ANSI)
440
 16777216
100
AcDbLine
 10
51.09985000242133
 20
76.61517733454378
 30
0.0
 11
51.09985000242133
 21
82.72256203162298
 31
0.0
  0
LINE
  5
10F8
330
1018
100
AcDbEntity
  8
Dimension (ANSI)
440
 16777216
100
AcDbLine
 10
56.16235000242132
 20
73.64642733453674
 30
0.0
 11
56.16235000242132
 21
82.72256203162298
 31
0.0
  0
LINE
  5
10F9
330
1018
100
AcDbEntity
  8
Dimension (ANSI)
440
 16777216
100
AcDbLine
 10
55.37494844545263
 20
81.72256203162298
 30
0.0
 11
51.88725155939002
 21
81.72256203162298
 31
0.0
  0
LINE
  5
10FA
330
1018
100
AcDbEntity
  8
Dimension (ANSI)
440
 16777216
100
AcDbLine
 10
51.09985000242133
 20
81.72256203162298
 30
0.0
 11
49.7652800026457
 21
81.72256203162298
 31
0.0
  0
SOLID
  5
10FB
330
1018
100
AcDbEntity
  8
Dimension (ANSI)
440
 16777216
100
AcDbTrace
 10
55.37494844545263
 20
81.8537956244511
 30
0.0
 11
55.37494844545263
 21
81.59132843879488
 31
0.0
 12
56.16235000242132
 22
81.72256203162298
 32
0.0
 13
56.16235000242132
 23
81.72256203162298
 33
0.0
  0
SOLID
  5
10FC
330
1018
100
AcDbEntity
  8
Dimension (ANSI)
440
 16777216
100
AcDbTrace
 10
51.88725155939002
 20
81.8537956244511
 30
0.0
 11
51.88725155939002
 21
81.59132843879488
 31
0.0
 12
51.09985000242133
 22
81.72256203162298
 32
0.0
 13
51.09985000242133
 23
81.72256203162298
 33
0.0
  0
MTEXT
  5
10FD
330
1018
100
AcDbEntity
  8
Dimension (ANSI)
440
 16777216
100
AcDbMText
 10
47.075216224283
 20
82.12256203758345
 30
0.0
 40
0.8000000119209289
 41
0.0
 71
     1
 72
     1
  1
\A1;5.06
  7
ROMANS
 73
     1
 44
1.0
  0
POINT
  5
10FE
330
1018
100
AcDbEntity
  8
Defpoints
 62
     0
440
 16777216
100
AcDbPoint
 10
51.09985000242133
 20
76.11517733454377
 30
0.0
  0
POINT
  5
10FF
330
1018
100
AcDbEntity
  8
Defpoints
 62
     0
440
 16777216
100
AcDbPoint
 10
56.16235000242132
 20
73.14642733453673
 30
0.0
  0
POINT
  5
1100
330
1018
100
AcDbEntity
  8
Defpoints
 62
     0
440
 16777216
100
AcDbPoint
 10
56.16235000242132
 20
81.72256203162298
 30
0.0
  0
ENDBLK
  5
101A
330
1018
100
AcDbEntity
  8
0
100
AcDbBlockEnd
  0
BLOCK
  5
1103
330
1102
100
AcDbEntity
  8
0
100
AcDbBlockBegin
  2
*D19
 70
     1
 10
0.0
 20
0.0
 30
0.0
  3
*D19
  1

  0
LINE
  5
11E1
330
1102
100
AcDbEntity
  8
Dimension (ANSI)
440
 16777216
100
AcDbLine
 10
61.22485000242161
 20
76.61517733454378
 30
0.0
 11
61.22485000242161
 21
80.32126777049656
 31
0.0
  0
LINE
  5
11E2
330
1102
100
AcDbEntity
  8
Dimension (ANSI)
440
 16777216
100
AcDbLine
 10
59.09985000242131
 20
76.64642733453669
 30
0.0
 11
59.09985000242131
 21
80.32126777049656
 31
0.0
  0
LINE
  5
11E3
330
1102
100
AcDbEntity
  8
Dimension (ANSI)
440
 16777216
100
AcDbLine
 10
58.31244844545262
 20
79.32126777049656
 30
0.0
 11
57.52504688848393
 21
79.32126777049656
 31
0.0
  0
LINE
  5
11E4
330
1102
100
AcDbEntity
  8
Dimension (ANSI)
440
 16777216
100
AcDbLine
 10
62.01225155939029
 20
79.32126777049656
 30
0.0
 11
63.34682157700037
 21
79.32126777049656
 31
0.0
  0
SOLID
  5
11E5
330
1102
100
AcDbEntity
  8
Dimension (ANSI)
440
 16777216
100
AcDbTrace
 10
58.31244844545262
 20
79.45250136332467
 30
0.0
 11
58.31244844545262
 21
79.19003417766845
 31
0.0
 12
59.09985000242131
 22
79.32126777049656
 32
0.0
 13
59.09985000242131
 23
79.32126777049656
 33
0.0
  0
SOLID
  5
11E6
330
1102
100
AcDbEntity
  8
Dimension (ANSI)
440
 16777216
100
AcDbTrace
 10
62.01225155939029
 20
79.45250136332467
 30
0.0
 11
62.01225155939029
 21
79.19003417766845
 31
0.0
 12
61.22485000242161
 22
79.32126777049656
 32
0.0
 13
61.22485000242161
 23
79.32126777049656
 33
0.0
  0
MTEXT
  5
11E7
330
1102
100
AcDbEntity
  8
Dimension (ANSI)
440
 16777216
100
AcDbMText
 10
63.59879008093738
 20
79.72126777645702
 30
0.0
 40
0.8000000119209289
 41
0.0
 71
     1
 72
     1
  1
\A1;2.13
  7
ROMANS
 73
     1
 44
1.0
  0
POINT
  5
11E8
330
1102
100
AcDbEntity
  8
Defpoints
 62
     0
440
 16777216
100
AcDbPoint
 10
61.22485000242161
 20
76.11517733454377
 30
0.0
  0
POINT
  5
11E9
330
1102
100
AcDbEntity
  8
Defpoints
 62
     0
440
 16777216
100
AcDbPoint
 10
59.09985000242131
 20
76.1464273345367
 30
0.0
  0
POINT
  5
11EA
330
1102
100
AcDbEntity
  8
Defpoints
 62
     0
440
 16777216
100
AcDbPoint
 10
59.09985000242131
 20
79.32126777049656
 30
0.0
  0
ENDBLK
  5
1104
330
1102
100
AcDbEntity
  8
0
100
AcDbBlockEnd
  0
BLOCK
  5
11ED
330
11EC
100
AcDbEntity
  8
0
100
AcDbBlockBegin
  2
*D20
 70
     1
 10
0.0
 20
0.0
 30
0.0
  3
*D20
  1

  0
LINE
  5
12DE
330
11EC
100
AcDbEntity
  8
Dimension (ANSI)
440
 16777216
100
AcDbLine
 10
50.59985000242133
 20
76.11517733454377
 30
0.0
 11
47.26175476380537
 21
76.11517733454377
 31
0.0
  0
LINE
  5
12DF
330
11EC
100
AcDbEntity
  8
Dimension (ANSI)
440
 16777216
100
AcDbLine
 10
51.44360000242131
 20
74.8651773345367
 30
0.0
 11
47.26175476380537
 21
74.8651773345367
 31
0.0
  0
LINE
  5
12E0
330
11EC
100
AcDbEntity
  8
Dimension (ANSI)
440
 16777216
100
AcDbLine
 10
48.26175476380537
 20
76.90257889151246
 30
0.0
 11
48.26175476380537
 21
77.68998044848115
 31
0.0
  0
LINE
  5
12E1
330
11EC
100
AcDbEntity
  8
Dimension (ANSI)
440
 16777216
100
AcDbLine
 10
48.26175476380537
 20
74.077775777568
 30
0.0
 11
48.26175476380537
 21
72.70749321720839
 31
0.0
  0
LINE
  5
12E2
330
11EC
100
AcDbEntity
  8
Dimension (ANSI)
440
 16777216
100
AcDbLine
 10
48.26175476380537
 20
72.70749321720839
 30
0.0
 11
47.47435320683668
 21
72.70749321720839
 31
0.0
  0
SOLID
  5
12E3
330
11EC
100
AcDbEntity
  8
Dimension (ANSI)
440
 16777216
100
AcDbTrace
 10
48.13052117097726
 20
76.90257889151246
 30
0.0
 11
48.39298835663349
 21
76.90257889151246
 31
0.0
 12
48.26175476380537
 22
76.11517733454377
 32
0.0
 13
48.26175476380537
 23
76.11517733454377
 33
0.0
  0
SOLID
  5
12E4
330
11EC
100
AcDbEntity
  8
Dimension (ANSI)
440
 16777216
100
AcDbTrace
 10
48.13052117097726
 20
74.077775777568
 30
0.0
 11
48.39298835663349
 21
74.077775777568
 31
0.0
 12
48.26175476380537
 22
74.8651773345367
 32
0.0
 13
48.26175476380537
 23
74.8651773345367
 33
0.0
  0
MTEXT
  5
12E5
330
11EC
100
AcDbEntity
  8
Dimension (ANSI)
440
 16777216
100
AcDbMText
 10
44.89857514446269
 20
73.10749322316887
 30
0.0
 40
0.8000000119209289
 41
0.0
 71
     1
 72
     1
  1
\A1;1.25
  7
ROMANS
 73
     1
 44
1.0
  0
POINT
  5
12E6
330
11EC
100
AcDbEntity
  8
Defpoints
 62
     0
440
 16777216
100
AcDbPoint
 10
51.09985000242133
 20
76.11517733454377
 30
0.0
  0
POINT
  5
12E7
330
11EC
100
AcDbEntity
  8
Defpoints
 62
     0
440
 16777216
100
AcDbPoint
 10
51.94360000242131
 20
74.8651773345367
 30
0.0
  0
POINT
  5
12E8
330
11EC
100
AcDbEntity
  8
Defpoints
 62
     0
440
 16777216
100
AcDbPoint
 10
48.26175476380537
 20
74.8651773345367
 30
0.0
  0
ENDBLK
  5
11EE
330
11EC
100
AcDbEntity
  8
0
100
AcDbBlockEnd
  0
BLOCK
  5
12EB
330
12EA
100
AcDbEntity
  8
0
100
AcDbBlockBegin
  2
*D21
 70
     1
 10
0.0
 20
0.0
 30
0.0
  3
*D21
  1

  0
LINE
  5
13C9
330
12EA
100
AcDbEntity
  8
Dimension (ANSI)
440
 16777216
100
AcDbLine
 10
50.59985000242133
 20
76.11517733454377
 30
0.0
 11
41.28095236462606
 21
76.11517733454377
 31
0.0
  0
LINE
  5
13CA
330
12EA
100
AcDbEntity
  8
Dimension (ANSI)
440
 16777216
100
AcDbLine
 10
54.38110000242132
 20
71.86517733453674
 30
0.0
 11
41.28095236462606
 21
71.86517733453674
 31
0.0
  0
LINE
  5
13CB
330
12EA
100
AcDbEntity
  8
Dimension (ANSI)
440
 16777216
100
AcDbLine
 10
42.28095236462606
 20
75.32777577757508
 30
0.0
 11
42.28095236462606
 21
74.64214584443772
 31
0.0
  0
LINE
  5
13CC
330
12EA
100
AcDbEntity
  8
Dimension (ANSI)
440
 16777216
100
AcDbLine
 10
42.28095236462606
 20
72.65257889150543
 30
0.0
 11
42.28095236462606
 21
73.33820882464277
 31
0.0
  0
SOLID
  5
13CD
330
12EA
100
AcDbEntity
  8
Dimension (ANSI)
440
 16777216
100
AcDbTrace
 10
42.14971877179794
 20
75.32777577757508
 30
0.0
 11
42.41218595745418
 21
75.32777577757508
 31
0.0
 12
42.28095236462606
 22
76.11517733454377
 32
0.0
 13
42.28095236462606
 23
76.11517733454377
 33
0.0
  0
SOLID
  5
13CE
330
12EA
100
AcDbEntity
  8
Dimension (ANSI)
440
 16777216
100
AcDbTrace
 10
42.14971877179794
 20
72.65257889150543
 30
0.0
 11
42.41218595745418
 21
72.65257889150543
 31
0.0
 12
42.28095236462606
 22
71.86517733453674
 32
0.0
 13
42.28095236462606
 23
71.86517733453674
 33
0.0
  0
MTEXT
  5
13CF
330
12EA
100
AcDbEntity
  8
Dimension (ANSI)
440
 16777216
100
AcDbMText
 10
41.06190472741321
 20
74.39017734050072
 30
0.0
 40
0.8000000119209289
 41
0.0
 71
     1
 72
     1
  1
\A1;4.25
  7
ROMANS
 73
     1
 44
1.0
  0
POINT
  5
13D0
330
12EA
100
AcDbEntity
  8
Defpoints
 62
     0
440
 16777216
100
AcDbPoint
 10
51.09985000242133
 20
76.11517733454377
 30
0.0
  0
POINT
  5
13D1
330
12EA
100
AcDbEntity
  8
Defpoints
 62
     0
440
 16777216
100
AcDbPoint
 10
54.88110000242132
 20
71.86517733453674
 30
0.0
  0
POINT
  5
13D2
330
12EA
100
AcDbEntity
  8
Defpoints
 62
     0
440
 16777216
100
AcDbPoint
 10
42.28095236462606
 20
71.86517733453674
 30
0.0
  0
ENDBLK
  5
12EC
330
12EA
100
AcDbEntity
  8
0
100
AcDbBlockEnd
  0
BLOCK
  5
13D5
330
13D4
100
AcDbEntity
  8
0
100
AcDbBlockBegin
  2
*D22
 70
     1
 10
0.0
 20
0.0
 30
0.0
  3
*D22
  1

  0
LINE
  5
1484
330
13D4
100
AcDbEntity
  8
Dimension (ANSI)
440
 16777216
100
AcDbLine
 10
62.30144346127233
 20
66.05786927412141
 30
0.0
 11
61.1643813977148
 21
66.05786927412141
 31
0.0
  0
LINE
  5
1485
330
13D4
100
AcDbEntity
  8
Dimension (ANSI)
440
 16777216
100
AcDbLine
 10
61.1643813977148
 20
66.05786927412141
 30
0.0
 11
56.85977345272174
 21
71.05547573445019
 31
0.0
  0
MTEXT
  5
1486
102
{ACAD_XDICTIONARY
360
15BC
102
}
330
13D4
100
AcDbEntity
  8
Dimension (ANSI)
440
 16777216
100
AcDbMText
 10
64.62960247233747
 20
66.05786927412141
 30
0.0
 40
0.8000000119209289
 41
0.0
 71
     5
 72
     1
  1
\A1;\U+22050.563{\P(3 PL.)}
  7
ROMANS
 73
     1
 44
1.0
  0
SOLID
  5
1487
330
13D4
100
AcDbEntity
  8
Dimension (ANSI)
440
 16777216
100
AcDbTrace
 10
56.95920721988851
 20
71.1411214105442
 30
0.0
 11
56.76033968555498
 21
70.96983005835618
 31
0.0
 12
56.34589939615768
 22
71.6520783374508
 32
0.0
 13
56.34589939615768
 23
71.6520783374508
 33
0.0
  0
LINE
  5
1488
330
13D4
100
AcDbEntity
  8
Dimension (ANSI)
440
 16777216
100
AcDbLine
 10
55.44235000242133
 20
71.86517733453673
 30
0.0
 11
56.88235000242134
 21
71.86517733453673
 31
0.0
  0
LINE
  5
1489
330
13D4
100
AcDbEntity
  8
Dimension (ANSI)
440
 16777216
100
AcDbLine
 10
56.16235000242134
 20
71.14517733453673
 30
0.0
 11
56.16235000242134
 21
72.58517733453672
 31
0.0
  0
POINT
  5
148A
330
13D4
100
AcDbEntity
  8
Defpoints
 62
     0
440
 16777216
100
AcDbPoint
 10
56.34589939615768
 20
71.6520783374508
 30
0.0
  0
POINT
  5
148B
330
13D4
100
AcDbEntity
  8
Defpoints
 62
     0
440
 16777216
100
AcDbPoint
 10
55.97880060868501
 20
72.07827633162266
 30
0.0
  0
ENDBLK
  5
13D6
330
13D4
100
AcDbEntity
  8
0
100
AcDbBlockEnd
  0
BLOCK
  5
148E
330
148D
100
AcDbEntity
  8
0
100
AcDbBlockBegin
  2
*D23
 70
     1
 10
0.0
 20
0.0
 30
0.0
  3
*D23
  1

  0
LINE
  5
156C
330
148D
100
AcDbEntity
  8
Dimension (ANSI)
440
 16777216
100
AcDbLine
 10
15.33191717337717
 20
33.58437966921314
 30
0.0
 11
15.33191717337717
 21
31.36264994697355
 31
0.0
  0
LINE
  5
156D
330
148D
100
AcDbEntity
  8
Dimension (ANSI)
440
 16777216
100
AcDbLine
 10
23.08191717337724
 20
33.44390581041136
 30
0.0
 11
23.08191717337724
 21
31.36264994697355
 31
0.0
  0
LINE
  5
156E
330
148D
100
AcDbEntity
  8
Dimension (ANSI)
440
 16777216
100
AcDbLine
 10
16.11931873034586
 20
32.36264994697355
 30
0.0
 11
17.73590103222735
 21
32.36264994697355
 31
0.0
  0
LINE
  5
156F
330
148D
100
AcDbEntity
  8
Dimension (ANSI)
440
 16777216
100
AcDbLine
 10
22.29451561640855
 20
32.36264994697355
 30
0.0
 11
20.67793331452706
 21
32.36264994697355
 31
0.0
  0
SOLID
  5
1570
330
148D
100
AcDbEntity
  8
Dimension (ANSI)
440
 16777216
100
AcDbTrace
 10
16.11931873034586
 20
32.49388353980167
 30
0.0
 11
16.11931873034586
 21
32.23141635414543
 31
0.0
 12
15.33191717337717
 22
32.36264994697355
 32
0.0
 13
15.33191717337717
 23
32.36264994697355
 33
0.0
  0
SOLID
  5
1571
330
148D
100
AcDbEntity
  8
Dimension (ANSI)
440
 16777216
100
AcDbTrace
 10
22.29451561640855
 20
32.49388353980167
 30
0.0
 11
22.29451561640855
 21
32.23141635414543
 31
0.0
 12
23.08191717337724
 22
32.36264994697355
 32
0.0
 13
23.08191717337724
 23
32.36264994697355
 33
0.0
  0
MTEXT
  5
1572
330
148D
100
AcDbEntity
  8
Dimension (ANSI)
440
 16777216
100
AcDbMText
 10
17.98786953616436
 20
32.76264995293401
 30
0.0
 40
0.8000000119209289
 41
0.0
 71
     1
 72
     1
  1
\A1;7.75
  7
ROMANS
 73
     1
 44
1.0
  0
POINT
  5
1573
330
148D
100
AcDbEntity
  8
Defpoints
 62
     0
440
 16777216
100
AcDbPoint
 10
15.33191717337717
 20
34.08437966921314
 30
0.0
  0
POINT
  5
1574
330
148D
100
AcDbEntity
  8
Defpoints
 62
     0
440
 16777216
100
AcDbPoint
 10
23.08191717337724
 20
33.94390581041136
 30
0.0
  0
POINT
  5
1575
330
148D
100
AcDbEntity
  8
Defpoints
 62
     0
440
 16777216
100
AcDbPoint
 10
23.08191717337724
 20
32.36264994697355
 30
0.0
  0
ENDBLK
  5
148F
330
148D
100
AcDbEntity
  8
0
100
AcDbBlockEnd
  0
ENDSEC
  0
SECTION
  2
ENTITIES
  0
SPLINE
  5
107
330
6C
100
AcDbEntity
  8
Visible (ANSI)
100
AcDbSpline
210
0.0
220
0.0
230
1.0
 70
     8
 71
     3
 72
    11
 73
     7
 74
     0
 42
0.0000000001
 43
0.0000000001
 40
0.0
 40
0.0
 40
0.0
 40
0.0
 40
1.018582815488611
 40
1.018582815488611
 40
1.018582815488611
 40
1.570796326794896
 40
1.570796326794896
 40
1.570796326794896
 40
1.570796326794896
 10
61.08425000241496
 20
33.94377966921314
 30
0.0
 10
61.13198758370085
 20
33.94377966921314
 30
0.0
 10
61.17891013898306
 20
33.96998257479228
 30
0.0
 10
61.20395198614523
 20
34.01062470266146
 30
0.0
 10
61.21752814916381
 20
34.03265838691013
 30
0.0
 10
61.22485000241496
 20
34.05849926264993
 30
0.0
 10
61.22485000241496
 20
34.08437966921314
 30
0.0
  0
LINE
  5
108
330
6C
100
AcDbEntity
  8
Visible (ANSI)
100
AcDbLine
 10
61.08425000241496
 20
34.06877966921315
 30
0.0
 11
61.08425000241496
 21
33.94377966921314
 31
0.0
  0
LINE
  5
109
330
6C
100
AcDbEntity
  8
Visible (ANSI)
100
AcDbLine
 10
61.17375874240984
 20
34.08437966921314
 30
0.0
 11
61.22485000241496
 21
34.08437966921314
 31
0.0
  0
LINE
  5
10A
330
6C
100
AcDbEntity
  8
Visible (ANSI)
100
AcDbLine
 10
61.09985000241496
 20
34.08437966921314
 30
0.0
 11
61.17375874240984
 21
34.08437966921314
 31
0.0
  0
SPLINE
  5
10B
330
6C
100
AcDbEntity
  8
Visible (ANSI)
100
AcDbSpline
210
0.0
220
0.0
230
1.0
 70
     8
 71
     3
 72
     8
 73
     4
 74
     0
 42
0.0000000001
 43
0.0000000001
 40
0.0
 40
0.0
 40
0.0
 40
0.0
 40
1.570796326794896
 40
1.570796326794896
 40
1.570796326794896
 40
1.570796326794896
 10
61.09985000241496
 20
34.08437966921314
 30
0.0
 10
61.09985000241496
 20
34.07621152831382
 30
0.0
 10
61.09241814331429
 20
34.06877966921315
 30
0.0
 10
61.08425000241496
 20
34.06877966921315
 30
0.0
  0
LINE
  5
10C
330
6C
100
AcDbEntity
  8
Visible Narrow (ANSI)
100
AcDbLine
 10
51.24045000241476
 20
34.08437966921314
 30
0.0
 11
51.34985000241473
 21
34.08437966921314
 31
0.0
  0
LINE
  5
10D
330
6C
100
AcDbEntity
  8
Visible Narrow (ANSI)
100
AcDbLine
 10
60.97485000241473
 20
34.08437966921314
 30
0.0
 11
61.08425000241477
 21
34.08437966921314
 31
0.0
  0
SPLINE
  5
10E
330
6C
100
AcDbEntity
  8
Visible (ANSI)
100
AcDbSpline
210
0.0
220
0.0
230
1.0
 70
     8
 71
     3
 72
    11
 73
     7
 74
     0
 42
0.0000000001
 43
0.0000000001
 40
0.0
 40
0.0
 40
0.0
 40
0.0
 40
1.01858281548856
 40
1.01858281548856
 40
1.01858281548856
 40
1.570796326794896
 40
1.570796326794896
 40
1.570796326794896
 40
1.570796326794896
 10
51.09985000241477
 20
34.08437966921314
 30
0.0
 10
51.09985000241477
 20
34.03664208792725
 30
0.0
 10
51.1260529079939
 20
33.98971953264505
 30
0.0
 10
51.16669503586307
 20
33.96467768548289
 30
0.0
 10
51.18872872011174
 20
33.95110152246429
 30
0.0
 10
51.21456959585154
 20
33.94377966921314
 30
0.0
 10
51.24045000241476
 20
33.94377966921314
 30
0.0
  0
LINE
  5
10F
330
6C
100
AcDbEntity
  8
Visible (ANSI)
100
AcDbLine
 10
51.24045000241476
 20
34.06877966921314
 30
0.0
 11
51.24045000241476
 21
33.94377966921314
 31
0.0
  0
SPLINE
  5
110
330
6C
100
AcDbEntity
  8
Visible (ANSI)
100
AcDbSpline
210
0.0
220
0.0
230
1.0
 70
     8
 71
     3
 72
     8
 73
     4
 74
     0
 42
0.0000000001
 43
0.0000000001
 40
0.0
 40
0.0
 40
0.0
 40
0.0
 40
1.570796326794896
 40
1.570796326794896
 40
1.570796326794896
 40
1.570796326794896
 10
51.22485000241477
 20
34.08437966921314
 30
0.0
 10
51.22485000241477
 20
34.07621152831382
 30
0.0
 10
51.23228186151543
 20
34.06877966921314
 30
0.0
 10
51.24045000241476
 20
34.06877966921314
 30
0.0
  0
LINE
  5
111
330
6C
100
AcDbEntity
  8
Visible (ANSI)
100
AcDbLine
 10
51.15094126241989
 20
34.08437966921314
 30
0.0
 11
51.22485000241477
 21
34.08437966921314
 31
0.0
  0
LINE
  5
112
330
6C
100
AcDbEntity
  8
Visible (ANSI)
100
AcDbLine
 10
51.09985000241477
 20
34.08437966921314
 30
0.0
 11
51.15094126241989
 21
34.08437966921314
 31
0.0
  0
LINE
  5
113
330
6C
100
AcDbEntity
  8
Visible (ANSI)
100
AcDbLine
 10
61.08425000241496
 20
34.06877966921315
 30
0.0
 11
60.97485000241473
 21
34.06877966921315
 31
0.0
  0
LINE
  5
114
330
6C
100
AcDbEntity
  8
Visible (ANSI)
100
AcDbLine
 10
59.97485000241496
 20
33.94377966921314
 30
0.0
 11
61.08425000241496
 21
33.94377966921314
 31
0.0
  0
LINE
  5
115
330
6C
100
AcDbEntity
  8
Visible (ANSI)
100
AcDbLine
 10
59.97485000241496
 20
33.94390581041137
 30
0.0
 11
59.97485000241496
 21
33.94377966921314
 31
0.0
  0
LINE
  5
116
330
6C
100
AcDbEntity
  8
Visible (ANSI)
100
AcDbLine
 10
52.37194708932685
 20
33.94377966921314
 30
0.0
 11
59.95275291550272
 21
33.94377966921314
 31
0.0
  0
LINE
  5
117
330
6C
100
AcDbEntity
  8
Visible (ANSI)
100
AcDbLine
 10
51.24045000241476
 20
34.06877966921314
 30
0.0
 11
51.34985000241473
 21
34.06877966921314
 31
0.0
  0
LINE
  5
118
330
6C
100
AcDbEntity
  8
Visible (ANSI)
100
AcDbLine
 10
51.24045000241476
 20
33.94377966921314
 30
0.0
 11
52.34985000241476
 21
33.94377966921314
 31
0.0
  0
LINE
  5
119
330
6C
100
AcDbEntity
  8
Visible (ANSI)
100
AcDbLine
 10
52.34985000241476
 20
33.94390581041136
 30
0.0
 11
52.34985000241476
 21
33.94377966921314
 31
0.0
  0
LINE
  5
11A
330
6C
100
AcDbEntity
  8
Visible (ANSI)
100
AcDbLine
 10
51.22485000241477
 20
34.08437966921314
 30
0.0
 11
51.24045000241476
 21
34.08437966921314
 31
0.0
  0
LINE
  5
11B
330
6C
100
AcDbEntity
  8
Visible (ANSI)
100
AcDbLine
 10
61.08425000241477
 20
34.08437966921314
 30
0.0
 11
61.09985000241477
 21
34.08437966921314
 31
0.0
  0
SPLINE
  5
11C
330
6C
100
AcDbEntity
  8
Visible (ANSI)
100
AcDbSpline
210
0.0
220
0.0
230
1.0
 70
     8
 71
     3
 72
     8
 73
     4
 74
     0
 42
0.0000000001
 43
0.0000000001
 40
0.0
 40
0.0
 40
0.0
 40
0.0
 40
0.1111819782024558
 40
0.1111819782024558
 40
0.1111819782024558
 40
0.1111819782024558
 10
51.24045000241476
 20
34.08437966921314
 30
0.0
 10
51.24097135110767
 20
34.07916894050139
 30
0.0
 10
51.24149269980058
 20
34.07396792242327
 30
0.0
 10
51.24201404849349
 20
34.06880401113806
 30
0.0
  0
SPLINE
  5
11D
330
6C
100
AcDbEntity
  8
Visible (ANSI)
100
AcDbSpline
210
0.0
220
0.0
230
1.0
 70
     8
 71
     3
 72
     8
 73
     4
 74
     0
 42
0.0000000001
 43
0.0000000001
 40
1.45961434859247
 40
1.45961434859247
 40
1.45961434859247
 40
1.45961434859247
 40
1.570796326794896
 40
1.570796326794896
 40
1.570796326794896
 40
1.570796326794896
 10
61.08268595633604
 20
34.06878304111624
 30
0.0
 10
61.08320730502896
 20
34.07395981426218
 30
0.0
 10
61.08372865372186
 20
34.07916894050139
 30
0.0
 10
61.08425000241477
 20
34.08437966921314
 30
0.0
  0
LINE
  5
11E
330
6C
100
AcDbEntity
  8
Visible (ANSI)
100
AcDbLine
 10
59.95275291550272
 20
33.94377966921314
 30
0.0
 11
59.97485000241479
 21
33.94377966921314
 31
0.0
  0
LINE
  5
11F
330
6C
100
AcDbEntity
  8
Visible (ANSI)
100
AcDbLine
 10
59.95275291550272
 20
33.94390581041137
 30
0.0
 11
59.95275291550272
 21
33.94377966921314
 31
0.0
  0
SPLINE
  5
120
330
6C
100
AcDbEntity
  8
Visible (ANSI)
100
AcDbSpline
210
0.0
220
0.0
230
1.0
 70
     8
 71
     3
 72
     8
 73
     4
 74
     0
 42
0.0000000001
 43
0.0000000001
 40
0.0
 40
0.0
 40
0.0
 40
0.0
 40
1.570796326794896
 40
1.570796326794896
 40
1.570796326794896
 40
1.570796326794896
 10
61.08425000241477
 20
34.08437966921314
 30
0.0
 10
61.07688430677741
 20
34.07621152831382
 30
0.0
 10
61.06951861114005
 20
34.06877966921314
 30
0.0
 10
61.06215291550268
 20
34.06877966921314
 30
0.0
  0
SPLINE
  5
121
330
6C
100
AcDbEntity
  8
Visible (ANSI)
100
AcDbSpline
210
0.0
220
0.0
230
1.0
 70
     8
 71
     3
 72
     8
 73
     4
 74
     0
 42
0.0000000001
 43
0.0000000001
 40
0.0
 40
0.0
 40
0.0
 40
0.0
 40
1.570796326794896
 40
1.570796326794896
 40
1.570796326794896
 40
1.570796326794896
 10
51.24045000241476
 20
34.08437966921314
 30
0.0
 10
51.24781569805213
 20
34.07621152831382
 30
0.0
 10
51.25518139368949
 20
34.06877966921314
 30
0.0
 10
51.26254708932684
 20
34.06877966921314
 30
0.0
  0
LINE
  5
122
330
6C
100
AcDbEntity
  8
Visible (ANSI)
100
AcDbLine
 10
52.34985000241477
 20
33.94377966921314
 30
0.0
 11
52.37194708932685
 21
33.94377966921314
 31
0.0
  0
LINE
  5
123
330
6C
100
AcDbEntity
  8
Visible (ANSI)
100
AcDbLine
 10
52.37194708932685
 20
33.94390581041136
 30
0.0
 11
52.37194708932685
 21
33.94377966921314
 31
0.0
  0
LINE
  5
124
330
6C
100
AcDbEntity
  8
Visible (ANSI)
100
AcDbLine
 10
51.09985000241477
 20
34.08437966921314
 30
0.0
 11
51.09985000241476
 21
57.80317966921314
 31
0.0
  0
LINE
  5
125
330
6C
100
AcDbEntity
  8
Visible (ANSI)
100
AcDbLine
 10
61.09985000241496
 20
34.08437966921314
 30
0.0
 11
61.09985000241503
 21
57.80317966921314
 31
0.0
  0
LINE
  5
126
330
6C
100
AcDbEntity
  8
Visible (ANSI)
100
AcDbLine
 10
61.22485000241502
 20
57.80317966921314
 30
0.0
 11
61.22485000241496
 21
34.08437966921315
 31
0.0
  0
LINE
  5
127
330
6C
100
AcDbEntity
  8
Visible (ANSI)
100
AcDbLine
 10
61.09985000241503
 20
57.80317966921314
 30
0.0
 11
61.22485000241502
 21
57.80317966921314
 31
0.0
  0
LINE
  5
128
330
6C
100
AcDbEntity
  8
Visible (ANSI)
100
AcDbLine
 10
51.22485000241475
 20
57.80317966921314
 30
0.0
 11
51.22485000241477
 21
34.08437966921314
 31
0.0
  0
LINE
  5
129
330
6C
100
AcDbEntity
  8
Visible (ANSI)
100
AcDbLine
 10
51.09985000241476
 20
57.80317966921314
 30
0.0
 11
51.22485000241475
 21
57.80317966921314
 31
0.0
  0
LINE
  5
12A
330
6C
100
AcDbEntity
  8
Visible Narrow (ANSI)
100
AcDbLine
 10
51.24045000241476
 20
57.80317966921314
 30
0.0
 11
51.24045000241476
 21
34.08437966921314
 31
0.0
  0
LINE
  5
12B
330
6C
100
AcDbEntity
  8
Visible Narrow (ANSI)
100
AcDbLine
 10
61.08425000241477
 20
34.08437966921314
 30
0.0
 11
61.08425000241477
 21
57.80317966921314
 31
0.0
  0
LINE
  5
12C
330
6C
100
AcDbEntity
  8
Visible (ANSI)
100
AcDbLine
 10
51.24045000241476
 20
57.80317966921314
 30
0.0
 11
51.22485000241475
 21
57.80317966921314
 31
0.0
  0
LINE
  5
12D
330
6C
100
AcDbEntity
  8
Visible (ANSI)
100
AcDbLine
 10
51.84985000241476
 20
57.81877966921307
 30
0.0
 11
51.24045000241476
 21
57.81877966921312
 31
0.0
  0
LINE
  5
12E
330
6C
100
AcDbEntity
  8
Visible (ANSI)
100
AcDbLine
 10
51.84985000241476
 20
57.94377966921307
 30
0.0
 11
51.24045000241476
 21
57.94377966921313
 31
0.0
  0
LINE
  5
12F
330
6C
100
AcDbEntity
  8
Visible (ANSI)
100
AcDbLine
 10
61.08425000241504
 20
57.94377966921314
 30
0.0
 11
60.47485000241502
 21
57.94377966921317
 31
0.0
  0
LINE
  5
130
330
6C
100
AcDbEntity
  8
Visible (ANSI)
100
AcDbLine
 10
60.47485000241502
 20
57.81877966921324
 30
0.0
 11
61.08425000241503
 21
57.81877966921314
 31
0.0
  0
LINE
  5
131
330
6C
100
AcDbEntity
  8
Visible (ANSI)
100
AcDbLine
 10
59.95275291550271
 20
57.81877966921321
 30
0.0
 11
52.37194708932683
 21
57.81877966921321
 31
0.0
  0
LINE
  5
132
330
6C
100
AcDbEntity
  8
Visible (ANSI)
100
AcDbLine
 10
59.95275291550271
 20
57.94377966921322
 30
0.0
 11
52.37194708932683
 21
57.94377966921322
 31
0.0
  0
LINE
  5
133
330
6C
100
AcDbEntity
  8
Visible (ANSI)
100
AcDbLine
 10
61.09985000241476
 20
57.80317966921314
 30
0.0
 11
61.08425000241475
 21
57.80317966921314
 31
0.0
  0
LINE
  5
134
330
6C
100
AcDbEntity
  8
Visible (ANSI)
100
AcDbLine
 10
52.34985000241476
 20
57.9437796692132
 30
0.0
 11
51.84985000241476
 21
57.94377966921307
 31
0.0
  0
LINE
  5
135
330
6C
100
AcDbEntity
  8
Visible (ANSI)
100
AcDbLine
 10
51.84985000241476
 20
57.94377966921307
 30
0.0
 11
51.84985000241476
 21
57.81877966921307
 31
0.0
  0
LINE
  5
136
330
6C
100
AcDbEntity
  8
Visible (ANSI)
100
AcDbLine
 10
51.84985000241476
 20
57.81877966921307
 30
0.0
 11
52.34985000241476
 21
57.8187796692132
 31
0.0
  0
LINE
  5
137
330
6C
100
AcDbEntity
  8
Visible (ANSI)
100
AcDbLine
 10
52.34985000241476
 20
57.8187796692132
 30
0.0
 11
52.34985000241476
 21
57.9437796692132
 31
0.0
  0
LINE
  5
138
330
6C
100
AcDbEntity
  8
Visible (ANSI)
100
AcDbLine
 10
60.47485000241502
 20
57.94377966921317
 30
0.0
 11
59.97485000241501
 21
57.94377966921322
 31
0.0
  0
LINE
  5
139
330
6C
100
AcDbEntity
  8
Visible (ANSI)
100
AcDbLine
 10
59.97485000241501
 20
57.94377966921322
 30
0.0
 11
59.97485000241501
 21
57.81877966921321
 31
0.0
  0
LINE
  5
13A
330
6C
100
AcDbEntity
  8
Visible (ANSI)
100
AcDbLine
 10
59.97485000241501
 20
57.81877966921321
 30
0.0
 11
60.47485000241502
 21
57.81877966921324
 31
0.0
  0
LINE
  5
13B
330
6C
100
AcDbEntity
  8
Visible (ANSI)
100
AcDbLine
 10
60.47485000241502
 20
57.81877966921324
 30
0.0
 11
60.47485000241502
 21
57.94377966921317
 31
0.0
  0
ARC
  5
13C
330
6C
100
AcDbEntity
  8
Visible (ANSI)
100
AcDbCircle
 10
51.24045000241476
 20
57.80317966921312
 30
0.0
 40
0.0155999999999902
100
AcDbArc
 50
90.0
 51
180.0
  0
ARC
  5
13D
330
6C
100
AcDbEntity
  8
Visible (ANSI)
100
AcDbCircle
 10
51.24045000241476
 20
57.80317966921312
 30
0.0
 40
0.1405999999999911
100
AcDbArc
 50
90.00000000000458
 51
180.0
  0
ARC
  5
13E
330
6C
100
AcDbEntity
  8
Visible (ANSI)
100
AcDbCircle
 10
61.08425000241503
 20
57.80317966921312
 30
0.0
 40
0.1406000000000037
100
AcDbArc
 50
0.0
 51
89.99999999999543
  0
ARC
  5
13F
330
6C
100
AcDbEntity
  8
Visible (ANSI)
100
AcDbCircle
 10
61.08425000241503
 20
57.80317966921314
 30
0.0
 40
0.0156000000000042
100
AcDbArc
 50
0.0
 51
90.0
  0
LINE
  5
140
330
6C
100
AcDbEntity
  8
Visible Narrow (ANSI)
100
AcDbLine
 10
61.08425000241477
 20
57.80317966921314
 30
0.0
 11
51.24045000241476
 21
57.80317966921314
 31
0.0
  0
SPLINE
  5
141
330
6C
100
AcDbEntity
  8
Visible (ANSI)
100
AcDbSpline
210
0.0
220
0.0
230
1.0
 70
     8
 71
     3
 72
     8
 73
     4
 74
     0
 42
0.0000000001
 43
0.0000000001
 40
0.0
 40
0.0
 40
0.0
 40
0.0
 40
0.1111819782024951
 40
0.1111819782024951
 40
0.1111819782024951
 40
0.1111819782024951
 10
61.08425000241477
 20
57.80317966921314
 30
0.0
 10
61.08372865372185
 20
57.80839039792489
 30
0.0
 10
61.08320730502895
 20
57.81359141600303
 30
0.0
 10
61.08268595633604
 20
57.81875532728822
 30
0.0
  0
SPLINE
  5
142
330
6C
100
AcDbEntity
  8
Visible (ANSI)
100
AcDbSpline
210
0.0
220
0.0
230
1.0
 70
     8
 71
     3
 72
     8
 73
     4
 74
     0
 42
0.0000000001
 43
0.0000000001
 40
1.459614348592503
 40
1.459614348592503
 40
1.459614348592503
 40
1.459614348592503
 40
1.570796326794868
 40
1.570796326794868
 40
1.570796326794868
 40
1.570796326794868
 10
51.24201404849348
 20
57.81877629731004
 30
0.0
 10
51.24149269980058
 20
57.81359952416408
 30
0.0
 10
51.24097135110767
 20
57.80839039792489
 30
0.0
 10
51.24045000241476
 20
57.80317966921312
 30
0.0
  0
LINE
  5
143
330
6C
100
AcDbEntity
  8
Visible (ANSI)
100
AcDbLine
 10
59.97485000241479
 20
57.81877966921321
 30
0.0
 11
59.95275291550271
 21
57.81877966921321
 31
0.0
  0
LINE
  5
144
330
6C
100
AcDbEntity
  8
Visible (ANSI)
100
AcDbLine
 10
52.34985000241477
 20
57.81877966921321
 30
0.0
 11
52.37194708932683
 21
57.81877966921321
 31
0.0
  0
LINE
  5
145
330
6C
100
AcDbEntity
  8
Visible (ANSI)
100
AcDbLine
 10
52.37194708932683
 20
57.94377966921322
 30
0.0
 11
52.34985000241476
 21
57.94377966921322
 31
0.0
  0
LINE
  5
146
330
6C
100
AcDbEntity
  8
Visible (ANSI)
100
AcDbLine
 10
52.37194708932683
 20
57.81877966921321
 30
0.0
 11
52.37194708932683
 21
57.94377966921322
 31
0.0
  0
SPLINE
  5
147
330
6C
100
AcDbEntity
  8
Visible (ANSI)
100
AcDbSpline
210
0.0
220
0.0
230
1.0
 70
     8
 71
     3
 72
     8
 73
     4
 74
     0
 42
0.0000000001
 43
0.0000000001
 40
0.0
 40
0.0
 40
0.0
 40
0.0
 40
1.570796326794868
 40
1.570796326794868
 40
1.570796326794868
 40
1.570796326794868
 10
51.24045000241476
 20
57.80317966921314
 30
0.0
 10
51.24781569805212
 20
57.81134781011247
 30
0.0
 10
51.25518139368948
 20
57.81877966921314
 30
0.0
 10
51.26254708932684
 20
57.81877966921314
 30
0.0
  0
SPLINE
  5
148
330
6C
100
AcDbEntity
  8
Visible (ANSI)
100
AcDbSpline
210
0.0
220
0.0
230
1.0
 70
     8
 71
     3
 72
     8
 73
     4
 74
     0
 42
0.0000000001
 43
0.0000000001
 40
0.0
 40
0.0
 40
0.0
 40
0.0
 40
1.570796326794868
 40
1.570796326794868
 40
1.570796326794868
 40
1.570796326794868
 10
61.08425000241477
 20
57.80317966921314
 30
0.0
 10
61.07688430677741
 20
57.81134781011247
 30
0.0
 10
61.06951861114005
 20
57.81877966921314
 30
0.0
 10
61.06215291550268
 20
57.81877966921314
 30
0.0
  0
LINE
  5
149
330
6C
100
AcDbEntity
  8
Visible (ANSI)
100
AcDbLine
 10
59.97485000241481
 20
57.9437796692132
 30
0.0
 11
59.95275291550271
 21
57.94377966921322
 31
0.0
  0
LINE
  5
14A
330
6C
100
AcDbEntity
  8
Visible (ANSI)
100
AcDbLine
 10
59.95275291550271
 20
57.81877966921321
 30
0.0
 11
59.95275291550271
 21
57.94377966921322
 31
0.0
  0
LINE
  5
14B
330
6C
100
AcDbEntity
  8
Visible (ANSI)
100
AcDbLine
 10
60.84985000241473
 20
34.06890581041137
 30
0.0
 11
60.97485000241473
 21
34.06890581041137
 31
0.0
  0
LINE
  5
14C
330
6C
100
AcDbEntity
  8
Visible Narrow (ANSI)
100
AcDbLine
 10
60.84985000241473
 20
34.06890581041137
 30
0.0
 11
60.84985000241473
 21
33.94390581041136
 31
0.0
  0
LINE
  5
14D
330
6C
100
AcDbEntity
  8
Visible (ANSI)
100
AcDbLine
 10
60.97485000241473
 20
33.94390581041136
 30
0.0
 11
60.84985000241473
 21
33.94390581041136
 31
0.0
  0
LINE
  5
14E
330
6C
100
AcDbEntity
  8
Visible (ANSI)
100
AcDbLine
 10
60.97485000241473
 20
33.94390581041136
 30
0.0
 11
60.97485000241473
 21
34.06890581041137
 31
0.0
  0
LINE
  5
14F
330
6C
100
AcDbEntity
  8
Visible (ANSI)
100
AcDbLine
 10
51.47485000241474
 20
33.94390581041136
 30
0.0
 11
51.34985000241473
 21
33.94390581041136
 31
0.0
  0
LINE
  5
150
330
6C
100
AcDbEntity
  8
Visible (ANSI)
100
AcDbLine
 10
51.34985000241473
 20
34.06890581041136
 30
0.0
 11
51.47485000241474
 21
34.06890581041136
 31
0.0
  0
LINE
  5
151
330
6C
100
AcDbEntity
  8
Visible (ANSI)
100
AcDbLine
 10
51.34985000241473
 20
34.06890581041136
 30
0.0
 11
51.34985000241473
 21
33.94390581041136
 31
0.0
  0
LINE
  5
152
330
6C
100
AcDbEntity
  8
Visible Narrow (ANSI)
100
AcDbLine
 10
51.47485000241474
 20
33.94390581041136
 30
0.0
 11
51.47485000241474
 21
34.06890581041136
 31
0.0
  0
LINE
  5
153
330
6C
100
AcDbEntity
  8
Visible (ANSI)
100
AcDbLine
 10
60.97485000241473
 20
34.19377966921316
 30
0.0
 11
60.97485000241473
 21
34.15259888264799
 31
0.0
  0
LINE
  5
154
330
6C
100
AcDbEntity
  8
Visible (ANSI)
100
AcDbLine
 10
51.34985000241473
 20
34.19377966921315
 30
0.0
 11
51.34985000241473
 21
34.15259888264799
 31
0.0
  0
LINE
  5
155
330
6C
100
AcDbEntity
  8
Visible (ANSI)
100
AcDbLine
 10
60.97485000241473
 20
34.19377966921316
 30
0.0
 11
51.34985000241473
 21
34.19377966921316
 31
0.0
  0
LINE
  5
156
330
6C
100
AcDbEntity
  8
Visible Narrow (ANSI)
100
AcDbLine
 10
60.97485000241473
 20
34.15259888264799
 30
0.0
 11
51.34985000241473
 21
34.15259888264799
 31
0.0
  0
LINE
  5
157
330
6C
100
AcDbEntity
  8
Visible (ANSI)
100
AcDbLine
 10
60.97485000241473
 20
34.07347494462485
 30
0.0
 11
60.97485000241473
 21
34.15259888264799
 31
0.0
  0
LINE
  5
158
330
6C
100
AcDbEntity
  8
Visible (ANSI)
100
AcDbLine
 10
51.34985000241473
 20
34.15259888264799
 30
0.0
 11
51.34985000241473
 21
34.07347494462485
 31
0.0
  0
LINE
  5
159
330
6C
100
AcDbEntity
  8
Visible (ANSI)
100
AcDbLine
 10
60.97485000241473
 20
34.06890581041136
 30
0.0
 11
60.97485000241473
 21
34.07347494462485
 31
0.0
  0
LINE
  5
15A
330
6C
100
AcDbEntity
  8
Visible (ANSI)
100
AcDbLine
 10
51.34985000241473
 20
34.06890581041136
 30
0.0
 11
51.34985000241473
 21
34.07347494462485
 31
0.0
  0
LINE
  5
15B
330
6C
100
AcDbEntity
  8
Visible Narrow (ANSI)
100
AcDbLine
 10
60.97485000241473
 20
34.07347494462485
 30
0.0
 11
51.34985000241473
 21
34.07347494462485
 31
0.0
  0
LINE
  5
15C
330
6C
100
AcDbEntity
  8
Visible (ANSI)
100
AcDbLine
 10
51.47485000241474
 20
33.94390581041136
 30
0.0
 11
60.84985000241473
 21
33.94390581041136
 31
0.0
  0
LINE
  5
15D
330
6C
100
AcDbEntity
  8
Visible (ANSI)
100
AcDbLine
 10
60.84985000241473
 20
34.06890581041137
 30
0.0
 11
51.47485000241474
 21
34.06890581041136
 31
0.0
  0
MTEXT
  5
15F
330
6C
100
AcDbEntity
  8
Symbol (ANSI)
100
AcDbMText
 10
52.0365077515106
 20
29.85709809431272
 30
0.0
 40
0.9600000118646095
 41
0.0
 71
     7
 72
     1
  1
FRONT VIEW
  7
Text Style168
 73
     1
 44
1.0
  0
LINE
  5
161
330
6C
100
AcDbEntity
  8
Symbol (ANSI)
370
    30
100
AcDbLine
 10
51.94050750456351
 20
29.6613249953136
 30
0.0
 11
59.65862753884892
 21
29.6613249953136
 31
0.0
  0
SPLINE
  5
162
330
6C
100
AcDbEntity
  8
Visible (ANSI)
100
AcDbSpline
210
0.0
220
0.0
230
1.0
 70
     8
 71
     3
 72
    11
 73
     7
 74
     0
 42
0.0000000001
 43
0.0000000001
 40
0.0
 40
0.0
 40
0.0
 40
0.0
 40
1.01858281548856
 40
1.01858281548856
 40
1.01858281548856
 40
1.570796326794896
 40
1.570796326794896
 40
1.570796326794896
 40
1.570796326794896
 10
15.33191717337717
 20
34.08437966921314
 30
0.0
 10
15.33191717337717
 20
34.03664208792725
 30
0.0
 10
15.3581200789563
 20
33.98971953264505
 30
0.0
 10
15.39876220682548
 20
33.96467768548289
 30
0.0
 10
15.42079589107415
 20
33.95110152246429
 30
0.0
 10
15.44663676681395
 20
33.94377966921314
 30
0.0
 10
15.47251717337718
 20
33.94377966921314
 30
0.0
  0
LINE
  5
163
330
6C
100
AcDbEntity
  8
Visible (ANSI)
100
AcDbLine
 10
15.47251717337718
 20
34.06877966921314
 30
0.0
 11
15.4740812194559
 21
34.06877966921314
 31
0.0
  0
LINE
  5
164
330
6C
100
AcDbEntity
  8
Visible (ANSI)
100
AcDbLine
 10
15.47251717337718
 20
34.06877966921314
 30
0.0
 11
15.47251717337718
 21
33.94377966921314
 31
0.0
  0
SPLINE
  5
165
330
6C
100
AcDbEntity
  8
Visible (ANSI)
100
AcDbSpline
210
0.0
220
0.0
230
1.0
 70
     8
 71
     3
 72
     8
 73
     4
 74
     0
 42
0.0000000001
 43
0.0000000001
 40
0.0
 40
0.0
 40
0.0
 40
0.0
 40
1.570796326794896
 40
1.570796326794896
 40
1.570796326794896
 40
1.570796326794896
 10
15.45691717337717
 20
34.08437966921314
 30
0.0
 10
15.45691717337717
 20
34.07621152831382
 30
0.0
 10
15.46434903247784
 20
34.06877966921314
 30
0.0
 10
15.47251717337718
 20
34.06877966921314
 30
0.0
  0
LINE
  5
166
330
6C
100
AcDbEntity
  8
Visible (ANSI)
100
AcDbLine
 10
15.47251717337718
 20
33.94377966921314
 30
0.0
 11
15.49461426028926
 21
33.94377966921314
 31
0.0
  0
SPLINE
  5
167
330
6C
100
AcDbEntity
  8
Visible (ANSI)
100
AcDbSpline
210
0.0
220
0.0
230
1.0
 70
     8
 71
     3
 72
    11
 73
     7
 74
     0
 42
0.0000000001
 43
0.0000000001
 40
0.0
 40
0.0
 40
0.0
 40
0.0
 40
1.018582815488561
 40
1.018582815488561
 40
1.018582815488561
 40
1.570796326794895
 40
1.570796326794895
 40
1.570796326794895
 40
1.570796326794895
 10
15.49461426028925
 20
33.94377966921314
 30
0.0
 10
15.48983797524683
 20
33.94377966921314
 30
0.0
 10
15.48506169020441
 20
33.96998257479227
 30
0.0
 10
15.480285405162
 20
34.01062470266146
 30
0.0
 10
15.47769599456704
 20
34.03265838691012
 30
0.0
 10
15.47510658397208
 20
34.05849926264993
 30
0.0
 10
15.47251717337713
 20
34.08437966921314
 30
0.0
  0
LINE
  5
168
330
6C
100
AcDbEntity
  8
Visible (ANSI)
100
AcDbLine
 10
21.33191717337751
 20
33.94377966921314
 30
0.0
 11
15.49461426028925
 21
33.94377966921314
 31
0.0
  0
SPLINE
  5
169
330
6C
100
AcDbEntity
  8
Visible (ANSI)
100
AcDbSpline
210
0.0
220
0.0
230
1.0
 70
     8
 71
     3
 72
    11
 73
     7
 74
     0
 42
0.0000000001
 43
0.0000000001
 40
0.0
 40
0.0
 40
0.0
 40
0.0
 40
1.01858281548856
 40
1.01858281548856
 40
1.01858281548856
 40
1.570796326794896
 40
1.570796326794896
 40
1.570796326794896
 40
1.570796326794896
 10
21.34370288466946
 20
34.08437966921314
 30
0.0
 10
21.34115540333031
 20
34.03664208792725
 30
0.0
 10
21.33860792199117
 20
33.98971953264505
 30
0.0
 10
21.33606044065204
 20
33.96467768548289
 30
0.0
 10
21.33467935156053
 20
33.95110152246429
 30
0.0
 10
21.33329826246902
 20
33.94377966921314
 30
0.0
 10
21.33191717337751
 20
33.94377966921314
 30
0.0
  0
LINE
  5
16A
330
6C
100
AcDbEntity
  8
Visible Narrow (ANSI)
100
AcDbLine
 10
15.47251717337713
 20
34.08437966921314
 30
0.0
 11
21.34370288466946
 21
34.08437966921314
 31
0.0
  0
LINE
  5
16B
330
6C
100
AcDbEntity
  8
Visible (ANSI)
100
AcDbLine
 10
15.47251717337713
 20
34.08437966921314
 30
0.0
 11
15.33191717337717
 21
34.08437966921314
 31
0.0
  0
LINE
  5
16C
330
6C
100
AcDbEntity
  8
Visible (ANSI)
100
AcDbLine
 10
21.34370288466946
 20
34.08437966921314
 30
0.0
 11
23.33191717337713
 21
57.80317966921314
 31
0.0
  0
LINE
  5
16D
330
6C
100
AcDbEntity
  8
Visible Narrow (ANSI)
100
AcDbLine
 10
23.33191717337713
 20
57.80317966921314
 30
0.0
 11
15.47251717337713
 21
57.80317966921314
 31
0.0
  0
LINE
  5
16E
330
6C
100
AcDbEntity
  8
Visible (ANSI)
100
AcDbLine
 10
23.33191717337713
 20
57.80317966921312
 30
0.0
 11
23.33191717337718
 21
57.94377966921312
 31
0.0
  0
LINE
  5
16F
330
6C
100
AcDbEntity
  8
Visible (ANSI)
100
AcDbLine
 10
15.49461426028925
 20
57.94377966921314
 30
0.0
 11
23.33191717337718
 21
57.94377966921313
 31
0.0
  0
LINE
  5
170
330
6C
100
AcDbEntity
  8
Visible Narrow (ANSI)
100
AcDbLine
 10
15.47251717337713
 20
57.80317966921314
 30
0.0
 11
15.47251717337713
 21
34.08437966921314
 31
0.0
  0
LINE
  5
171
330
6C
100
AcDbEntity
  8
Visible (ANSI)
100
AcDbLine
 10
15.33191717337717
 20
34.08437966921314
 30
0.0
 11
15.33191717337717
 21
57.80317966921314
 31
0.0
  0
SPLINE
  5
172
330
6C
100
AcDbEntity
  8
Visible (ANSI)
100
AcDbSpline
210
0.0
220
0.0
230
1.0
 70
     8
 71
     3
 72
    11
 73
     7
 74
     0
 42
0.0000000001
 43
0.0000000001
 40
0.0
 40
0.0
 40
0.0
 40
0.0
 40
1.018582815488593
 40
1.018582815488593
 40
1.018582815488593
 40
1.570796326794868
 40
1.570796326794868
 40
1.570796326794868
 40
1.570796326794868
 10
15.47251717337717
 20
57.94377966921314
 30
0.0
 10
15.42477959209127
 20
57.94377966921314
 30
0.0
 10
15.37785703680907
 20
57.91757676363401
 30
0.0
 10
15.35281518964691
 20
57.87693463576482
 30
0.0
 10
15.33923902662831
 20
57.85490095151615
 30
0.0
 10
15.33191717337717
 20
57.82906007577635
 30
0.0
 10
15.33191717337717
 20
57.80317966921312
 30
0.0
  0
LINE
  5
173
330
6C
100
AcDbEntity
  8
Visible (ANSI)
100
AcDbLine
 10
15.47251717337718
 20
57.81877966921314
 30
0.0
 11
15.47408121945589
 21
57.81877966921314
 31
0.0
  0
LINE
  5
174
330
6C
100
AcDbEntity
  8
Visible (ANSI)
100
AcDbLine
 10
15.49461426028926
 20
57.94377966921315
 30
0.0
 11
15.47251717337717
 21
57.94377966921314
 31
0.0
  0
LINE
  5
175
330
6C
100
AcDbEntity
  8
Visible (ANSI)
100
AcDbLine
 10
15.47251717337718
 20
57.81877966921314
 30
0.0
 11
15.47251717337717
 21
57.94377966921314
 31
0.0
  0
SPLINE
  5
176
330
6C
100
AcDbEntity
  8
Visible (ANSI)
100
AcDbSpline
210
0.0
220
0.0
230
1.0
 70
     8
 71
     3
 72
     8
 73
     4
 74
     0
 42
0.0000000001
 43
0.0000000001
 40
0.0
 40
0.0
 40
0.0
 40
0.0
 40
1.570796326794868
 40
1.570796326794868
 40
1.570796326794868
 40
1.570796326794868
 10
15.45691717337717
 20
57.80317966921314
 30
0.0
 10
15.45691717337717
 20
57.81134781011247
 30
0.0
 10
15.46434903247784
 20
57.81877966921314
 30
0.0
 10
15.47251717337718
 20
57.81877966921314
 30
0.0
  0
SPLINE
  5
177
330
6C
100
AcDbEntity
  8
Visible (ANSI)
100
AcDbSpline
210
0.0
220
0.0
230
1.0
 70
     8
 71
     3
 72
    11
 73
     7
 74
     0
 42
0.0000000001
 43
0.0000000001
 40
0.0
 40
0.0
 40
0.0
 40
0.0
 40
1.018582815488625
 40
1.018582815488625
 40
1.018582815488625
 40
1.570796326794868
 40
1.570796326794868
 40
1.570796326794868
 40
1.570796326794868
 10
15.47251717337713
 20
57.80317966921316
 30
0.0
 10
15.47729345841953
 20
57.85091725049907
 30
0.0
 10
15.48206974346194
 20
57.89783980578127
 30
0.0
 10
15.48684602850436
 20
57.92288165294341
 30
0.0
 10
15.48943543909932
 20
57.936457815962
 30
0.0
 10
15.49202484969429
 20
57.94377966921314
 30
0.0
 10
15.49461426028925
 20
57.94377966921314
 30
0.0
  0
LINE
  5
178
330
6C
100
AcDbEntity
  8
Visible (ANSI)
100
AcDbLine
 10
15.33191717337717
 20
57.80317966921314
 30
0.0
 11
15.47251717337713
 21
57.80317966921314
 31
0.0
  0
LINE
  5
179
330
6C
100
AcDbEntity
  8
Visible (ANSI)
100
AcDbLine
 10
23.08191717337724
 20
33.94390581041136
 30
0.0
 11
22.9569171733772
 21
33.94390581041136
 31
0.0
  0
LINE
  5
17A
330
6C
100
AcDbEntity
  8
Visible (ANSI)
100
AcDbLine
 10
22.9569171733772
 20
34.06890581041136
 30
0.0
 11
23.08191717337724
 21
34.06890581041136
 31
0.0
  0
LINE
  5
17B
330
6C
100
AcDbEntity
  8
Visible Narrow (ANSI)
100
AcDbLine
 10
22.9569171733772
 20
34.06890581041136
 30
0.0
 11
22.9569171733772
 21
33.94390581041136
 31
0.0
  0
LINE
  5
17C
330
6C
100
AcDbEntity
  8
Visible (ANSI)
100
AcDbLine
 10
23.08191717337724
 20
33.94390581041136
 30
0.0
 11
23.08191717337724
 21
34.06890581041136
 31
0.0
  0
LINE
  5
17D
330
6C
100
AcDbEntity
  8
Visible (ANSI)
100
AcDbLine
 10
21.54965560024686
 20
33.94390581041136
 30
0.0
 11
22.9569171733772
 21
33.94390581041136
 31
0.0
  0
LINE
  5
17E
330
6C
100
AcDbEntity
  8
Visible (ANSI)
100
AcDbLine
 10
22.9569171733772
 20
34.06890581041136
 30
0.0
 11
21.54965560024686
 21
34.06890581041136
 31
0.0
  0
ARC
  5
17F
330
6C
100
AcDbEntity
  8
Visible (ANSI)
100
AcDbCircle
 10
21.54965560024686
 20
34.08450581041136
 30
0.0
 40
0.0156000000000003
100
AcDbArc
 50
225.0000000000145
 51
270.0000000000103
  0
ARC
  5
180
330
6C
100
AcDbEntity
  8
Visible (ANSI)
100
AcDbCircle
 10
21.54965560024686
 20
34.08450581041136
 30
0.0
 40
0.1405999999999998
100
AcDbArc
 50
225.0000000000016
 51
270.0000000000011
  0
LINE
  5
181
330
6C
100
AcDbEntity
  8
Visible (ANSI)
100
AcDbLine
 10
21.45950079643721
 20
34.15259888264799
 30
0.0
 11
21.53862473446035
 21
34.07347494462485
 31
0.0
  0
LINE
  5
182
330
6C
100
AcDbEntity
  8
Visible (ANSI)
100
AcDbLine
 10
21.45023638681203
 20
33.98508659697653
 30
0.0
 11
21.3711124487889
 21
34.06421053499967
 31
0.0
  0
ARC
  5
183
330
6C
100
AcDbEntity
  8
Visible (ANSI)
100
AcDbCircle
 10
21.36008158300239
 20
34.05317966921315
 30
0.0
 40
0.1406000000000006
100
AcDbArc
 50
45.0000000000008
 51
90.0
  0
ARC
  5
184
330
6C
100
AcDbEntity
  8
Visible (ANSI)
100
AcDbCircle
 10
21.36008158300239
 20
34.05317966921315
 30
0.0
 40
0.0156000000000006
100
AcDbArc
 50
44.99999999998546
 51
89.99999999998975
  0
LINE
  5
185
330
6C
100
AcDbEntity
  8
Visible (ANSI)
100
AcDbLine
 10
21.35287327453684
 20
34.19377966921316
 30
0.0
 11
21.36008158300239
 21
34.19377966921316
 31
0.0
  0
LINE
  5
186
330
6C
100
AcDbEntity
  8
Visible (ANSI)
100
AcDbLine
 10
21.36008158300239
 20
34.06877966921316
 30
0.0
 11
21.34286868441479
 21
34.06877966921316
 31
0.0
  0
MTEXT
  5
187
330
6C
100
AcDbEntity
  8
Symbol (ANSI)
100
AcDbMText
 10
15.8248681094708
 20
29.89755190458685
 30
0.0
 40
0.9600000118646095
 41
0.0
 71
     7
 72
     1
  1
LEFT VIEW
  7
Text Style168
 73
     1
 44
1.0
  0
LINE
  5
188
330
6C
100
AcDbEntity
  8
Symbol (ANSI)
370
    30
100
AcDbLine
 10
15.72886786252371
 20
29.68155190191732
 30
0.0
 11
22.20925680425099
 21
29.68155190191732
 31
0.0
  0
LINE
  5
189
330
6C
100
AcDbEntity
  8
Visible (ANSI)
100
AcDbLine
 10
96.36577816454044
 20
33.94377966921314
 30
0.0
 11
90.52847525145251
 21
33.94377966921314
 31
0.0
  0
LINE
  5
18A
330
6C
100
AcDbEntity
  8
Visible Narrow (ANSI)
100
AcDbLine
 10
90.51668954016058
 20
34.08437966921314
 30
0.0
 11
96.38787525145259
 21
34.08437966921314
 31
0.0
  0
SPLINE
  5
18B
330
6C
100
AcDbEntity
  8
Visible (ANSI)
100
AcDbSpline
210
0.0
220
0.0
230
1.0
 70
     8
 71
     3
 72
    11
 73
     7
 74
     0
 42
0.0000000001
 43
0.0000000001
 40
0.0
 40
0.0
 40
0.0
 40
0.0
 40
1.018582815488611
 40
1.018582815488611
 40
1.018582815488611
 40
1.570796326794896
 40
1.570796326794896
 40
1.570796326794896
 40
1.570796326794896
 10
90.52847525145251
 20
33.94377966921314
 30
0.0
 10
90.52592777011339
 20
33.94377966921314
 30
0.0
 10
90.52338028877427
 20
33.96998257479228
 30
0.0
 10
90.52083280743513
 20
34.01062470266146
 30
0.0
 10
90.51945171834359
 20
34.03265838691013
 30
0.0
 10
90.5180706292521
 20
34.05849926264993
 30
0.0
 10
90.51668954016058
 20
34.08437966921314
 30
0.0
  0
SPLINE
  5
18C
330
6C
100
AcDbEntity
  8
Visible (ANSI)
100
AcDbSpline
210
0.0
220
0.0
230
1.0
 70
     8
 71
     3
 72
    11
 73
     7
 74
     0
 42
0.0000000001
 43
0.0000000001
 40
0.0
 40
0.0
 40
0.0
 40
0.0
 40
1.018582815488612
 40
1.018582815488612
 40
1.018582815488612
 40
1.570796326794897
 40
1.570796326794897
 40
1.570796326794897
 40
1.570796326794897
 10
96.38787525145259
 20
34.08437966921314
 30
0.0
 10
96.38309896641018
 20
34.03664208792724
 30
0.0
 10
96.37832268136776
 20
33.98971953264505
 30
0.0
 10
96.37354639632535
 20
33.96467768548288
 30
0.0
 10
96.37095698573038
 20
33.95110152246429
 30
0.0
 10
96.36836757513542
 20
33.94377966921314
 30
0.0
 10
96.36577816454044
 20
33.94377966921314
 30
0.0
  0
SPLINE
  5
18D
330
6C
100
AcDbEntity
  8
Visible (ANSI)
100
AcDbSpline
210
0.0
220
0.0
230
1.0
 70
     8
 71
     3
 72
    11
 73
     7
 74
     0
 42
0.0000000001
 43
0.0000000001
 40
0.0
 40
0.0
 40
0.0
 40
0.0
 40
1.01858281548856
 40
1.01858281548856
 40
1.01858281548856
 40
1.570796326794896
 40
1.570796326794896
 40
1.570796326794896
 40
1.570796326794896
 10
96.38787525145254
 20
33.94377966921314
 30
0.0
 10
96.43561283273841
 20
33.94377966921314
 30
0.0
 10
96.48253538802062
 20
33.96998257479227
 30
0.0
 10
96.50757723518278
 20
34.01062470266146
 30
0.0
 10
96.52115339820138
 20
34.03265838691012
 30
0.0
 10
96.52847525145254
 20
34.05849926264993
 30
0.0
 10
96.52847525145254
 20
34.08437966921314
 30
0.0
  0
LINE
  5
18E
330
6C
100
AcDbEntity
  8
Visible (ANSI)
100
AcDbLine
 10
96.38787525145254
 20
34.06877966921314
 30
0.0
 11
96.38631120537381
 21
34.06877966921314
 31
0.0
  0
LINE
  5
18F
330
6C
100
AcDbEntity
  8
Visible (ANSI)
100
AcDbLine
 10
96.36577816454044
 20
33.94377966921314
 30
0.0
 11
96.38787525145254
 21
33.94377966921314
 31
0.0
  0
LINE
  5
190
330
6C
100
AcDbEntity
  8
Visible (ANSI)
100
AcDbLine
 10
96.38787525145254
 20
34.06877966921314
 30
0.0
 11
96.38787525145254
 21
33.94377966921314
 31
0.0
  0
SPLINE
  5
191
330
6C
100
AcDbEntity
  8
Visible (ANSI)
100
AcDbSpline
210
0.0
220
0.0
230
1.0
 70
     8
 71
     3
 72
     8
 73
     4
 74
     0
 42
0.0000000001
 43
0.0000000001
 40
0.0
 40
0.0
 40
0.0
 40
0.0
 40
1.570796326794896
 40
1.570796326794896
 40
1.570796326794896
 40
1.570796326794896
 10
96.40347525145251
 20
34.08437966921314
 30
0.0
 10
96.40347525145251
 20
34.07621152831382
 30
0.0
 10
96.39604339235187
 20
34.06877966921314
 30
0.0
 10
96.38787525145254
 20
34.06877966921314
 30
0.0
  0
LINE
  5
192
330
6C
100
AcDbEntity
  8
Visible (ANSI)
100
AcDbLine
 10
96.52847525145254
 20
34.08437966921314
 30
0.0
 11
96.38787525145259
 21
34.08437966921314
 31
0.0
  0
LINE
  5
193
330
6C
100
AcDbEntity
  8
Visible (ANSI)
100
AcDbLine
 10
96.52847525145254
 20
57.80317966921314
 30
0.0
 11
96.52847525145254
 21
34.08437966921314
 31
0.0
  0
LINE
  5
194
330
6C
100
AcDbEntity
  8
Visible Narrow (ANSI)
100
AcDbLine
 10
96.38787525145259
 20
34.08437966921314
 30
0.0
 11
96.38787525145259
 21
57.80317966921314
 31
0.0
  0
LINE
  5
195
330
6C
100
AcDbEntity
  8
Visible (ANSI)
100
AcDbLine
 10
96.38787525145259
 20
57.80317966921312
 30
0.0
 11
96.52847525145254
 21
57.80317966921312
 31
0.0
  0
LINE
  5
196
330
6C
100
AcDbEntity
  8
Visible (ANSI)
100
AcDbLine
 10
88.52847525145257
 20
57.80317966921314
 30
0.0
 11
90.51668954016058
 21
34.08437966921315
 31
0.0
  0
LINE
  5
197
330
6C
100
AcDbEntity
  8
Visible (ANSI)
100
AcDbLine
 10
88.52847525145254
 20
57.94377966921313
 30
0.0
 11
88.52847525145257
 21
57.80317966921314
 31
0.0
  0
LINE
  5
198
330
6C
100
AcDbEntity
  8
Visible (ANSI)
100
AcDbLine
 10
88.52847525145254
 20
57.94377966921314
 30
0.0
 11
96.36577816454044
 21
57.94377966921313
 31
0.0
  0
LINE
  5
199
330
6C
100
AcDbEntity
  8
Visible Narrow (ANSI)
100
AcDbLine
 10
96.38787525145259
 20
57.80317966921314
 30
0.0
 11
88.52847525145257
 21
57.80317966921314
 31
0.0
  0
SPLINE
  5
19A
330
6C
100
AcDbEntity
  8
Visible (ANSI)
100
AcDbSpline
210
0.0
220
0.0
230
1.0
 70
     8
 71
     3
 72
    11
 73
     7
 74
     0
 42
0.0000000001
 43
0.0000000001
 40
0.0
 40
0.0
 40
0.0
 40
0.0
 40
1.018582815488599
 40
1.018582815488599
 40
1.018582815488599
 40
1.570796326794868
 40
1.570796326794868
 40
1.570796326794868
 40
1.570796326794868
 10
96.52847525145254
 20
57.80317966921314
 30
0.0
 10
96.52847525145254
 20
57.85091725049904
 30
0.0
 10
96.5022723458734
 20
57.89783980578125
 30
0.0
 10
96.46163021800422
 20
57.9228816529434
 30
0.0
 10
96.43959653375555
 20
57.93645781596199
 30
0.0
 10
96.41375565801574
 20
57.94377966921314
 30
0.0
 10
96.38787525145254
 20
57.94377966921314
 30
0.0
  0
LINE
  5
19B
330
6C
100
AcDbEntity
  8
Visible (ANSI)
100
AcDbLine
 10
96.38787525145254
 20
57.81877966921314
 30
0.0
 11
96.38631120537381
 21
57.81877966921314
 31
0.0
  0
LINE
  5
19C
330
6C
100
AcDbEntity
  8
Visible (ANSI)
100
AcDbLine
 10
96.38787525145254
 20
57.81877966921314
 30
0.0
 11
96.38787525145254
 21
57.94377966921314
 31
0.0
  0
SPLINE
  5
19D
330
6C
100
AcDbEntity
  8
Visible (ANSI)
100
AcDbSpline
210
0.0
220
0.0
230
1.0
 70
     8
 71
     3
 72
     8
 73
     4
 74
     0
 42
0.0000000001
 43
0.0000000001
 40
0.0
 40
0.0
 40
0.0
 40
0.0
 40
1.570796326794868
 40
1.570796326794868
 40
1.570796326794868
 40
1.570796326794868
 10
96.40347525145253
 20
57.80317966921314
 30
0.0
 10
96.40347525145251
 20
57.81134781011247
 30
0.0
 10
96.39604339235187
 20
57.81877966921314
 30
0.0
 10
96.38787525145254
 20
57.81877966921314
 30
0.0
  0
LINE
  5
19E
330
6C
100
AcDbEntity
  8
Visible (ANSI)
100
AcDbLine
 10
96.38787525145254
 20
57.94377966921314
 30
0.0
 11
96.36577816454044
 21
57.94377966921314
 31
0.0
  0
SPLINE
  5
19F
330
6C
100
AcDbEntity
  8
Visible (ANSI)
100
AcDbSpline
210
0.0
220
0.0
230
1.0
 70
     8
 71
     3
 72
    11
 73
     7
 74
     0
 42
0.0000000001
 43
0.0000000001
 40
0.0
 40
0.0
 40
0.0
 40
0.0
 40
1.018582815488662
 40
1.018582815488662
 40
1.018582815488662
 40
1.570796326794936
 40
1.570796326794936
 40
1.570796326794936
 40
1.570796326794936
 10
96.36577816454044
 20
57.94377966921313
 30
0.0
 10
96.37055444958287
 20
57.94377966921313
 30
0.0
 10
96.37533073462529
 20
57.91757676363399
 30
0.0
 10
96.3801070196677
 20
57.87693463576481
 30
0.0
 10
96.38269643026267
 20
57.85490095151614
 30
0.0
 10
96.38528584085761
 20
57.82906007577634
 30
0.0
 10
96.38787525145259
 20
57.80317966921312
 30
0.0
  0
LINE
  5
1A0
330
6C
100
AcDbEntity
  8
Visible (ANSI)
100
AcDbLine
 10
88.77847525145247
 20
34.06890581041137
 30
0.0
 11
88.9034752514525
 21
34.06890581041137
 31
0.0
  0
LINE
  5
1A1
330
6C
100
AcDbEntity
  8
Visible (ANSI)
100
AcDbLine
 10
88.77847525145247
 20
34.06890581041137
 30
0.0
 11
88.77847525145247
 21
33.94390581041136
 31
0.0
  0
LINE
  5
1A2
330
6C
100
AcDbEntity
  8
Visible (ANSI)
100
AcDbLine
 10
88.9034752514525
 20
33.94390581041136
 30
0.0
 11
88.77847525145247
 21
33.94390581041136
 31
0.0
  0
LINE
  5
1A3
330
6C
100
AcDbEntity
  8
Visible Narrow (ANSI)
100
AcDbLine
 10
88.9034752514525
 20
33.94390581041136
 30
0.0
 11
88.9034752514525
 21
34.06890581041137
 31
0.0
  0
LINE
  5
1A4
330
6C
100
AcDbEntity
  8
Visible (ANSI)
100
AcDbLine
 10
88.9034752514525
 20
33.94390581041136
 30
0.0
 11
90.31073682458284
 21
33.94390581041136
 31
0.0
  0
LINE
  5
1A5
330
6C
100
AcDbEntity
  8
Visible (ANSI)
100
AcDbLine
 10
90.31073682458284
 20
34.06890581041137
 30
0.0
 11
88.9034752514525
 21
34.06890581041137
 31
0.0
  0
ARC
  5
1A6
330
6C
100
AcDbEntity
  8
Visible (ANSI)
100
AcDbCircle
 10
90.31073682458284
 20
34.08450581041136
 30
0.0
 40
0.1405999999999992
100
AcDbArc
 50
270.0
 51
315.0000000000016
  0
ARC
  5
1A7
330
6C
100
AcDbEntity
  8
Visible (ANSI)
100
AcDbCircle
 10
90.31073682458284
 20
34.08450581041136
 30
0.0
 40
0.0155999999999989
100
AcDbArc
 50
270.0
 51
315.0
  0
LINE
  5
1A8
330
6C
100
AcDbEntity
  8
Visible (ANSI)
100
AcDbLine
 10
90.4892799760408
 20
34.06421053499967
 30
0.0
 11
90.41015603801767
 21
33.98508659697653
 31
0.0
  0
LINE
  5
1A9
330
6C
100
AcDbEntity
  8
Visible (ANSI)
100
AcDbLine
 10
90.32176769036935
 20
34.07347494462485
 30
0.0
 11
90.40089162839249
 21
34.15259888264799
 31
0.0
  0
ARC
  5
1AA
330
6C
100
AcDbEntity
  8
Visible (ANSI)
100
AcDbCircle
 10
90.50031084182732
 20
34.05317966921316
 30
0.0
 40
0.0155999999999992
100
AcDbArc
 50
90.00000000012326
 51
135.0
  0
ARC
  5
1AB
330
6C
100
AcDbEntity
  8
Visible (ANSI)
100
AcDbCircle
 10
90.50031084182732
 20
34.05317966921316
 30
0.0
 40
0.1405999999999991
100
AcDbArc
 50
90.00000000000909
 51
135.0
  0
LINE
  5
1AC
330
6C
100
AcDbEntity
  8
Visible (ANSI)
100
AcDbLine
 10
90.51752374041525
 20
34.06877966921316
 30
0.0
 11
90.50031084182728
 21
34.06877966921316
 31
0.0
  0
LINE
  5
1AD
330
6C
100
AcDbEntity
  8
Visible (ANSI)
100
AcDbLine
 10
90.50031084182728
 20
34.19377966921316
 30
0.0
 11
90.50751915029321
 21
34.19377966921316
 31
0.0
  0
MTEXT
  5
1AE
330
6C
100
AcDbEntity
  8
Symbol (ANSI)
100
AcDbMText
 10
88.52212190458599
 20
29.8617658419905
 30
0.0
 40
0.9600000118646095
 41
0.0
 71
     7
 72
     1
  1
RIGHT VIEW
  7
Text Style168
 73
     1
 44
1.0
  0
LINE
  5
1AF
330
6C
100
AcDbEntity
  8
Symbol (ANSI)
370
    30
100
AcDbLine
 10
88.4261216576389
 20
29.66443682709879
 30
0.0
 11
95.90540860241121
 21
29.66443682709879
 31
0.0
  0
CIRCLE
  5
1B0
330
6C
100
AcDbEntity
  8
Visible (ANSI)
100
AcDbCircle
 10
53.34985000240782
 20
21.87722062426078
 30
0.0
 40
0.28125
  0
CIRCLE
  5
1B1
330
6C
100
AcDbEntity
  8
Visible (ANSI)
100
AcDbCircle
 10
58.97485000240784
 20
21.87722062426078
 30
0.0
 40
0.28125
  0
CIRCLE
  5
1B2
330
6C
100
AcDbEntity
  8
Visible (ANSI)
100
AcDbCircle
 10
51.78735000240781
 20
20.56472062426076
 30
0.0
 40
0.28125
  0
CIRCLE
  5
1B3
330
6C
100
AcDbEntity
  8
Visible (ANSI)
100
AcDbCircle
 10
51.78735000240781
 20
15.56472062426076
 30
0.0
 40
0.28125
  0
CIRCLE
  5
1B4
330
6C
100
AcDbEntity
  8
Visible (ANSI)
100
AcDbCircle
 10
60.53735000240788
 20
20.56472062426075
 30
0.0
 40
0.28125
  0
CIRCLE
  5
1B5
330
6C
100
AcDbEntity
  8
Visible (ANSI)
100
AcDbCircle
 10
60.53735000240807
 20
15.56472062426075
 30
0.0
 40
0.28125
  0
LINE
  5
1B6
330
6C
100
AcDbEntity
  8
Visible (ANSI)
100
AcDbLine
 10
51.09985000240782
 20
14.56472062426072
 30
0.0
 11
51.09985000240782
 21
22.42412062426073
 31
0.0
  0
LINE
  5
1B7
330
6C
100
AcDbEntity
  8
Visible (ANSI)
100
AcDbLine
 10
51.09985000240784
 20
14.56472062426072
 30
0.0
 11
51.24045000240782
 21
14.56472062426076
 31
0.0
  0
LINE
  5
1B8
330
6C
100
AcDbEntity
  8
Visible (ANSI)
100
AcDbLine
 10
61.0842500024081
 20
14.56472062426076
 30
0.0
 11
61.22485000240809
 21
14.56472062426073
 31
0.0
  0
LINE
  5
1B9
330
6C
100
AcDbEntity
  8
Visible Narrow (ANSI)
100
AcDbLine
 10
61.06215291549574
 20
22.42412062426078
 30
0.0
 11
51.26254708931991
 21
22.42412062426078
 31
0.0
  0
LINE
  5
1BA
330
6C
100
AcDbEntity
  8
Visible (ANSI)
100
AcDbLine
 10
51.24045000240782
 20
22.56472062426073
 30
0.0
 11
61.08425000240783
 21
22.56472062426073
 31
0.0
  0
LINE
  5
1BB
330
6C
100
AcDbEntity
  8
Visible Narrow (ANSI)
100
AcDbLine
 10
51.24045000240782
 20
22.40202353734869
 30
0.0
 11
51.24045000240782
 21
14.56472062426076
 31
0.0
  0
LINE
  5
1BC
330
6C
100
AcDbEntity
  8
Visible Narrow (ANSI)
100
AcDbLine
 10
61.0842500024081
 20
14.56472062426076
 30
0.0
 11
61.08425000240783
 21
22.40202353734869
 31
0.0
  0
LINE
  5
1BD
330
6C
100
AcDbEntity
  8
Visible (ANSI)
100
AcDbLine
 10
61.22485000240782
 20
22.42412062426073
 30
0.0
 11
61.22485000240809
 21
14.56472062426073
 31
0.0
  0
ARC
  5
1BE
330
6C
100
AcDbEntity
  8
Visible (ANSI)
100
AcDbCircle
 10
61.08425000240782
 20
22.42412062426073
 30
0.0
 40
0.1405999999999972
100
AcDbArc
 50
0.0
 51
90.0
  0
ARC
  5
1BF
330
6C
100
AcDbEntity
  8
Visible (ANSI)
100
AcDbCircle
 10
51.24045000240782
 20
22.42412062426073
 30
0.0
 40
0.0156
100
AcDbArc
 50
90.0
 51
180.0
  0
LINE
  5
1C0
330
6C
100
AcDbEntity
  8
Visible (ANSI)
100
AcDbLine
 10
51.84985000240782
 20
14.56472062426076
 30
0.0
 11
51.24045000240782
 21
14.56472062426076
 31
0.0
  0
LINE
  5
1C1
330
6C
100
AcDbEntity
  8
Visible (ANSI)
100
AcDbLine
 10
61.0842500024081
 20
14.56472062426076
 30
0.0
 11
60.47485000240809
 21
14.56472062426074
 31
0.0
  0
LINE
  5
1C2
330
6C
100
AcDbEntity
  8
Visible (ANSI)
100
AcDbLine
 10
59.95275291549577
 20
21.31472062426078
 30
0.0
 11
52.37194708931991
 21
21.31472062426078
 31
0.0
  0
LINE
  5
1C3
330
6C
100
AcDbEntity
  8
Visible (ANSI)
100
AcDbLine
 10
52.34985000240783
 20
21.29262353734869
 30
0.0
 11
52.34985000240781
 21
15.06472062426076
 31
0.0
  0
LINE
  5
1C4
330
6C
100
AcDbEntity
  8
Visible (ANSI)
100
AcDbLine
 10
59.97485000240807
 20
15.06472062426073
 30
0.0
 11
59.97485000240787
 21
21.29262353734869
 31
0.0
  0
ARC
  5
1C5
330
6C
100
AcDbEntity
  8
Visible (ANSI)
100
AcDbCircle
 10
51.24045000240782
 20
22.42412062426073
 30
0.0
 40
0.1406
100
AcDbArc
 50
90.0
 51
180.0
  0
ARC
  5
1C6
330
6C
100
AcDbEntity
  8
Visible (ANSI)
100
AcDbCircle
 10
61.08425000240782
 20
22.42412062426073
 30
0.0
 40
0.0155999999999986
100
AcDbArc
 50
0.0
 51
90.0
  0
LINE
  5
1C7
330
6C
100
AcDbEntity
  8
Visible (ANSI)
100
AcDbLine
 10
52.34985000240781
 20
15.06472062426076
 30
0.0
 11
51.84985000240782
 21
14.56472062426076
 31
0.0
  0
LINE
  5
1C8
330
6C
100
AcDbEntity
  8
Visible (ANSI)
100
AcDbLine
 10
60.47485000240809
 20
14.56472062426074
 30
0.0
 11
59.97485000240807
 21
15.06472062426073
 31
0.0
  0
SPLINE
  5
1C9
330
6C
100
AcDbEntity
  8
Visible (ANSI)
100
AcDbSpline
210
0.0
220
0.0
230
1.0
 70
     8
 71
     3
 72
    11
 73
     7
 74
     0
 42
0.0000000001
 43
0.0000000001
 40
0.0
 40
0.0
 40
0.0
 40
0.0
 40
1.018582815488599
 40
1.018582815488599
 40
1.018582815488599
 40
1.570796326794868
 40
1.570796326794868
 40
1.570796326794868
 40
1.570796326794868
 10
61.08425000240783
 20
22.56472062426073
 30
0.0
 10
61.07947371736542
 20
22.56472062426075
 30
0.0
 10
61.07469743232301
 20
22.53851771868163
 30
0.0
 10
61.06992114728061
 20
22.49787559081245
 30
0.0
 10
61.06733173668565
 20
22.47584190656379
 30
0.0
 10
61.0647423260907
 20
22.450001030824
 30
0.0
 10
61.06215291549574
 20
22.42412062426077
 30
0.0
  0
SPLINE
  5
1CA
330
6C
100
AcDbEntity
  8
Visible (ANSI)
100
AcDbSpline
210
0.0
220
0.0
230
1.0
 70
     8
 71
     3
 72
    11
 73
     7
 74
     0
 42
0.0000000001
 43
0.0000000001
 40
0.0
 40
0.0
 40
0.0
 40
0.0
 40
1.018582815488593
 40
1.018582815488593
 40
1.018582815488593
 40
1.570796326794868
 40
1.570796326794868
 40
1.570796326794868
 40
1.570796326794868
 10
51.26254708931991
 20
22.42412062426078
 30
0.0
 10
51.2577708042775
 20
22.47185820554668
 30
0.0
 10
51.2529945192351
 20
22.51878076082887
 30
0.0
 10
51.2482182341927
 20
22.54382260799101
 30
0.0
 10
51.24562882359773
 20
22.5573987710096
 30
0.0
 10
51.24303941300277
 20
22.56472062426074
 30
0.0
 10
51.24045000240782
 20
22.56472062426073
 30
0.0
  0
LINE
  5
1CB
330
6C
100
AcDbEntity
  8
Visible (ANSI)
100
AcDbLine
 10
52.37194708931991
 20
21.31472062426078
 30
0.0
 11
51.26254708931991
 21
22.42412062426078
 31
0.0
  0
SPLINE
  5
1CC
330
6C
100
AcDbEntity
  8
Visible (ANSI)
100
AcDbSpline
210
0.0
220
0.0
230
1.0
 70
    24
 71
     3
 72
     8
 73
     4
 74
     0
 42
0.0000000001
 43
0.0000000001
 40
-0.0000000000000001
 40
-0.0000000000000001
 40
-0.0000000000000001
 40
-0.0000000000000001
 40
0.3175000000000002
 40
0.3175000000000002
 40
0.3175000000000002
 40
0.3175000000000002
 10
51.24045000240782
 20
22.43972062426073
 30
0.0
 10
51.24045000240782
 20
22.48138729092739
 30
0.0
 10
51.24045000240782
 20
22.52305395759406
 30
0.0
 10
51.24045000240782
 20
22.56472062426073
 30
0.0
  0
SPLINE
  5
1CD
330
6C
100
AcDbEntity
  8
Visible (ANSI)
100
AcDbSpline
210
0.0
220
0.0
230
1.0
 70
     8
 71
     3
 72
     8
 73
     4
 74
     0
 42
0.0000000001
 43
0.0000000001
 40
0.0
 40
0.0
 40
0.0
 40
0.0
 40
1.570796326794868
 40
1.570796326794868
 40
1.570796326794868
 40
1.570796326794868
 10
51.24045000240782
 20
22.43972062426073
 30
0.0
 10
51.24781569804518
 20
22.43972062426073
 30
0.0
 10
51.25518139368254
 20
22.43228876516007
 30
0.0
 10
51.26254708931991
 20
22.42412062426073
 30
0.0
  0
SPLINE
  5
1CE
330
6C
100
AcDbEntity
  8
Visible (ANSI)
100
AcDbSpline
210
0.0
220
0.0
230
1.0
 70
     8
 71
     3
 72
     8
 73
     4
 74
     0
 42
0.0000000001
 43
0.0000000001
 40
0.0
 40
0.0
 40
0.0
 40
0.0
 40
1.570796326794868
 40
1.570796326794868
 40
1.570796326794868
 40
1.570796326794868
 10
61.08425000240783
 20
22.43972062426073
 30
0.0
 10
61.07688430677047
 20
22.43972062426073
 30
0.0
 10
61.0695186111331
 20
22.43228876516007
 30
0.0
 10
61.06215291549574
 20
22.42412062426073
 30
0.0
  0
SPLINE
  5
1CF
330
6C
100
AcDbEntity
  8
Visible (ANSI)
100
AcDbSpline
210
0.0
220
0.0
230
1.0
 70
    24
 71
     3
 72
     8
 73
     4
 74
     0
 42
0.0000000001
 43
0.0000000001
 40
-0.3175000000000004
 40
-0.3175000000000004
 40
-0.3175000000000004
 40
-0.3175000000000004
 40
0.0
 40
0.0
 40
0.0
 40
0.0
 10
61.08425000240783
 20
22.56472062426073
 30
0.0
 10
61.08425000240783
 20
22.52305395759406
 30
0.0
 10
61.08425000240783
 20
22.48138729092739
 30
0.0
 10
61.08425000240783
 20
22.43972062426073
 30
0.0
  0
LINE
  5
1D0
330
6C
100
AcDbEntity
  8
Visible (ANSI)
100
AcDbLine
 10
61.06215291549574
 20
22.42412062426078
 30
0.0
 11
59.95275291549577
 21
21.31472062426078
 31
0.0
  0
SPLINE
  5
1D1
330
6C
100
AcDbEntity
  8
Visible (ANSI)
100
AcDbSpline
210
0.0
220
0.0
230
1.0
 70
     8
 71
     3
 72
    11
 73
     7
 74
     0
 42
0.0000000001
 43
0.0000000001
 40
0.0
 40
0.0
 40
0.0
 40
0.0
 40
1.018582815488625
 40
1.018582815488625
 40
1.018582815488625
 40
1.570796326794868
 40
1.570796326794868
 40
1.570796326794868
 40
1.570796326794868
 10
51.09985000240782
 20
22.42412062426073
 30
0.0
 10
51.09985000240783
 20
22.41934433921834
 30
0.0
 10
51.12605290798697
 20
22.41456805417595
 30
0.0
 10
51.16669503585616
 20
22.40979176913355
 30
0.0
 10
51.18872872010484
 20
22.4072023585386
 30
0.0
 10
51.21456959584464
 20
22.40461294794364
 30
0.0
 10
51.24045000240785
 20
22.40202353734869
 30
0.0
  0
SPLINE
  5
1D2
330
6C
100
AcDbEntity
  8
Visible (ANSI)
100
AcDbSpline
210
0.0
220
0.0
230
1.0
 70
     8
 71
     3
 72
     8
 73
     4
 74
     0
 42
0.0000000001
 43
0.0000000001
 40
0.0
 40
0.0
 40
0.0
 40
0.0
 40
1.570796326794868
 40
1.570796326794868
 40
1.570796326794868
 40
1.570796326794868
 10
51.22485000240782
 20
22.42412062426073
 30
0.0
 10
51.22485000240782
 20
22.41675492862337
 30
0.0
 10
51.2322818615085
 20
22.40938923298601
 30
0.0
 10
51.24045000240784
 20
22.40202353734865
 30
0.0
  0
SPLINE
  5
1D3
330
6C
100
AcDbEntity
  8
Visible (ANSI)
100
AcDbSpline
210
0.0
220
0.0
230
1.0
 70
    24
 71
     3
 72
     8
 73
     4
 74
     0
 42
0.0000000001
 43
0.0000000001
 40
-0.3175000000000042
 40
-0.3175000000000042
 40
-0.3175000000000042
 40
-0.3175000000000042
 40
0.0
 40
0.0
 40
0.0
 40
0.0
 10
51.09985000240782
 20
22.42412062426073
 30
0.0
 10
51.14151666907449
 20
22.42412062426073
 30
0.0
 10
51.18318333574116
 20
22.42412062426073
 30
0.0
 10
51.22485000240782
 20
22.42412062426073
 30
0.0
  0
LINE
  5
1D4
330
6C
100
AcDbEntity
  8
Visible (ANSI)
100
AcDbLine
 10
51.24045000240782
 20
22.40202353734869
 30
0.0
 11
52.34985000240783
 21
21.29262353734869
 31
0.0
  0
SPLINE
  5
1D5
330
6C
100
AcDbEntity
  8
Visible (ANSI)
100
AcDbSpline
210
0.0
220
0.0
230
1.0
 70
     8
 71
     3
 72
    11
 73
     7
 74
     0
 42
0.0000000001
 43
0.0000000001
 40
0.0
 40
0.0
 40
0.0
 40
0.0
 40
1.018582815488662
 40
1.018582815488662
 40
1.018582815488662
 40
1.570796326794936
 40
1.570796326794936
 40
1.570796326794936
 40
1.570796326794936
 10
61.08425000240783
 20
22.40202353734869
 30
0.0
 10
61.13198758369373
 20
22.4067998223911
 30
0.0
 10
61.17891013897594
 20
22.41157610743349
 30
0.0
 10
61.20395198613809
 20
22.41635239247589
 30
0.0
 10
61.21752814915668
 20
22.41894180307084
 30
0.0
 10
61.22485000240782
 20
22.42153121366579
 30
0.0
 10
61.22485000240782
 20
22.42412062426073
 30
0.0
  0
LINE
  5
1D6
330
6C
100
AcDbEntity
  8
Visible (ANSI)
100
AcDbLine
 10
59.97485000240787
 20
21.29262353734869
 30
0.0
 11
61.08425000240783
 21
22.40202353734869
 31
0.0
  0
SPLINE
  5
1D7
330
6C
100
AcDbEntity
  8
Visible (ANSI)
100
AcDbSpline
210
0.0
220
0.0
230
1.0
 70
    24
 71
     3
 72
     8
 73
     4
 74
     0
 42
0.0000000001
 43
0.0000000001
 40
0.0
 40
0.0
 40
0.0
 40
0.0
 40
0.3175000000000132
 40
0.3175000000000132
 40
0.3175000000000132
 40
0.3175000000000132
 10
61.09985000240782
 20
22.42412062426073
 30
0.0
 10
61.14151666907448
 20
22.42412062426073
 30
0.0
 10
61.18318333574116
 20
22.42412062426073
 30
0.0
 10
61.22485000240782
 20
22.42412062426073
 30
0.0
  0
SPLINE
  5
1D8
330
6C
100
AcDbEntity
  8
Visible (ANSI)
100
AcDbSpline
210
0.0
220
0.0
230
1.0
 70
     8
 71
     3
 72
     8
 73
     4
 74
     0
 42
0.0000000001
 43
0.0000000001
 40
0.0
 40
0.0
 40
0.0
 40
0.0
 40
1.570796326794936
 40
1.570796326794936
 40
1.570796326794936
 40
1.570796326794936
 10
61.09985000240782
 20
22.42412062426073
 30
0.0
 10
61.09985000240782
 20
22.41675492862337
 30
0.0
 10
61.09241814330716
 20
22.40938923298601
 30
0.0
 10
61.08425000240782
 20
22.40202353734865
 30
0.0
  0
CIRCLE
  5
1D9
330
6C
100
AcDbEntity
  8
Visible (ANSI)
100
AcDbCircle
 10
56.16235000240779
 20
18.81472062425372
 30
0.0
 40
0.28125
  0
CIRCLE
  5
1DA
330
6C
100
AcDbEntity
  8
Visible (ANSI)
100
AcDbCircle
 10
53.22485000240779
 20
15.81472062425368
 30
0.0
 40
0.28125
  0
CIRCLE
  5
1DB
330
6C
100
AcDbEntity
  8
Visible (ANSI)
100
AcDbCircle
 10
59.0998500024078
 20
15.81472062425368
 30
0.0
 40
0.28125
  0
LINE
  5
1DC
330
6C
100
AcDbEntity
  8
Visible (ANSI)
100
AcDbLine
 10
60.97485000240779
 20
22.2926235373416
 30
0.0
 11
60.97485000240779
 21
22.31481778775888
 31
0.0
  0
LINE
  5
1DD
330
6C
100
AcDbEntity
  8
Visible (ANSI)
100
AcDbLine
 10
51.34985000240779
 20
22.31481778775888
 30
0.0
 11
51.34985000240779
 21
22.29262353734168
 31
0.0
  0
ARC
  5
1DE
330
6C
100
AcDbEntity
  8
Visible (ANSI)
100
AcDbCircle
 10
51.47485000240778
 20
22.31481778775888
 30
0.0
 40
0.1249999999999896
100
AcDbArc
 50
170.6375988628189
 51
180.0
  0
ARC
  5
1DF
330
6C
100
AcDbEntity
  8
Visible (ANSI)
100
AcDbCircle
 10
60.84985000240749
 20
22.31481778775885
 30
0.0
 40
0.1250000000003088
100
AcDbArc
 50
0.0
 51
9.362401137146761
  0
LINE
  5
1E0
330
6C
100
AcDbEntity
  8
Visible Narrow (ANSI)
100
AcDbLine
 10
59.97485000240803
 20
16.53655621462851
 30
0.0
 11
52.34985000240783
 21
16.53655621462853
 31
0.0
  0
LINE
  5
1E1
330
6C
100
AcDbEntity
  8
Visible Narrow (ANSI)
100
AcDbLine
 10
59.97485000240803
 20
16.4371370011937
 30
0.0
 11
52.34985000240783
 21
16.4371370011937
 31
0.0
  0
LINE
  5
1E2
330
6C
100
AcDbEntity
  8
Visible Narrow (ANSI)
100
AcDbLine
 10
59.97485000240803
 20
16.35801306317054
 30
0.0
 11
52.34985000240783
 21
16.35801306317054
 31
0.0
  0
LINE
  5
1E3
330
6C
100
AcDbEntity
  8
Visible Narrow (ANSI)
100
AcDbLine
 10
59.97485000240803
 20
16.34698219738403
 30
0.0
 11
52.34985000240783
 21
16.34698219738403
 31
0.0
  0
LINE
  5
1E4
330
6C
100
AcDbEntity
  8
Visible (ANSI)
100
AcDbLine
 10
60.22485000240805
 20
14.81472062425368
 30
0.0
 11
52.09985000240783
 21
14.81472062425368
 31
0.0
  0
MTEXT
  5
1E5
330
6C
100
AcDbEntity
  8
Symbol (ANSI)
100
AcDbMText
 10
51.71816548287888
 20
10.05185858266537
 30
0.0
 40
0.9600000118646095
 41
0.0
 71
     7
 72
     1
  1
BOTTOM VIEW
  7
Text Style168
 73
     1
 44
1.0
  0
LINE
  5
1E6
330
6C
100
AcDbEntity
  8
Symbol (ANSI)
370
    30
100
AcDbLine
 10
51.62216523593179
 20
9.856085483666248
 30
0.0
 11
60.45198717547526
 21
9.856085483666248
 31
0.0
  0
LINE
  5
1E7
330
6C
100
AcDbEntity
  8
Visible Narrow (ANSI)
100
AcDbLine
 10
61.08425000242135
 20
68.27787442144877
 30
0.0
 11
61.08425000242154
 21
74.11517733453671
 31
0.0
  0
LINE
  5
1E8
330
6C
100
AcDbEntity
  8
Visible (ANSI)
100
AcDbLine
 10
61.22485000242154
 20
74.12696304582873
 30
0.0
 11
61.22485000242135
 21
68.25577733453673
 31
0.0
  0
SPLINE
  5
1E9
330
6C
100
AcDbEntity
  8
Visible (ANSI)
100
AcDbSpline
210
0.0
220
0.0
230
1.0
 70
     8
 71
     3
 72
    11
 73
     7
 74
     0
 42
0.0000000001
 43
0.0000000001
 40
0.0
 40
0.0
 40
0.0
 40
0.0
 40
1.018582815488611
 40
1.018582815488611
 40
1.018582815488611
 40
1.570796326794896
 40
1.570796326794896
 40
1.570796326794896
 40
1.570796326794896
 10
61.08425000242154
 20
74.11517733453671
 30
0.0
 10
61.13198758370743
 20
74.11772481587584
 30
0.0
 10
61.17891013898964
 20
74.12027229721499
 30
0.0
 10
61.20395198615181
 20
74.12281977855416
 30
0.0
 10
61.21752814917039
 20
74.12420086764568
 30
0.0
 10
61.22485000242154
 20
74.12558195673721
 30
0.0
 10
61.22485000242154
 20
74.12696304582873
 30
0.0
  0
LINE
  5
1EA
330
6C
100
AcDbEntity
  8
Visible (ANSI)
100
AcDbLine
 10
61.17375874241642
 20
74.12696304582873
 30
0.0
 11
61.22485000242154
 21
74.12696304582873
 31
0.0
  0
LINE
  5
1EB
330
6C
100
AcDbEntity
  8
Visible (ANSI)
100
AcDbLine
 10
61.09985000242154
 20
74.12696304582873
 30
0.0
 11
61.17375874241642
 21
74.12696304582873
 31
0.0
  0
SPLINE
  5
1EC
330
6C
100
AcDbEntity
  8
Visible (ANSI)
100
AcDbSpline
210
0.0
220
0.0
230
1.0
 70
     8
 71
     3
 72
     8
 73
     4
 74
     0
 42
0.0000000001
 43
0.0000000001
 40
0.0
 40
0.0
 40
0.0
 40
0.0
 40
1.570796326794896
 40
1.570796326794896
 40
1.570796326794896
 40
1.570796326794896
 10
61.09985000242154
 20
74.12696304582873
 30
0.0
 10
61.09985000242154
 20
74.12303447539807
 30
0.0
 10
61.09241814332087
 20
74.11910590496741
 30
0.0
 10
61.08425000242154
 20
74.11517733453675
 30
0.0
  0
LINE
  5
1ED
330
6C
100
AcDbEntity
  8
Visible Narrow (ANSI)
100
AcDbLine
 10
51.26254708933342
 20
68.2557773345367
 30
0.0
 11
61.06215291550927
 21
68.2557773345367
 31
0.0
  0
LINE
  5
1EE
330
6C
100
AcDbEntity
  8
Visible (ANSI)
100
AcDbLine
 10
61.08425000242135
 20
68.11517733453674
 30
0.0
 11
51.24045000242134
 21
68.11517733453674
 31
0.0
  0
LINE
  5
1EF
330
6C
100
AcDbEntity
  8
Visible Narrow (ANSI)
100
AcDbLine
 10
51.24045000242134
 20
74.11517733453703
 30
0.0
 11
51.24045000242134
 21
68.27787442144877
 31
0.0
  0
SPLINE
  5
1F0
330
6C
100
AcDbEntity
  8
Visible (ANSI)
100
AcDbSpline
210
0.0
220
0.0
230
1.0
 70
     8
 71
     3
 72
    11
 73
     7
 74
     0
 42
0.0000000001
 43
0.0000000001
 40
0.0
 40
0.0
 40
0.0
 40
0.0
 40
1.01858281548856
 40
1.01858281548856
 40
1.01858281548856
 40
1.570796326794896
 40
1.570796326794896
 40
1.570796326794896
 40
1.570796326794896
 10
51.09985000242135
 20
74.12696304582907
 30
0.0
 10
51.09985000242135
 20
74.12441556448991
 30
0.0
 10
51.12605290800048
 20
74.12186808315074
 30
0.0
 10
51.16669503586965
 20
74.11932060181159
 30
0.0
 10
51.18872872011833
 20
74.11793951272009
 30
0.0
 10
51.21456959585812
 20
74.11655842362856
 30
0.0
 10
51.24045000242134
 20
74.11517733453703
 30
0.0
  0
LINE
  5
1F1
330
6C
100
AcDbEntity
  8
Visible (ANSI)
100
AcDbLine
 10
51.09985000242135
 20
68.25577733453674
 30
0.0
 11
51.09985000242135
 21
74.12696304582907
 31
0.0
  0
SPLINE
  5
1F2
330
6C
100
AcDbEntity
  8
Visible (ANSI)
100
AcDbSpline
210
0.0
220
0.0
230
1.0
 70
     8
 71
     3
 72
     8
 73
     4
 74
     0
 42
0.0000000001
 43
0.0000000001
 40
0.0
 40
0.0
 40
0.0
 40
0.0
 40
1.570796326794896
 40
1.570796326794896
 40
1.570796326794896
 40
1.570796326794896
 10
51.22485000242135
 20
74.12696304582907
 30
0.0
 10
51.22485000242135
 20
74.12303447539841
 30
0.0
 10
51.23228186152201
 20
74.11910590496773
 30
0.0
 10
51.24045000242134
 20
74.11517733453708
 30
0.0
  0
LINE
  5
1F3
330
6C
100
AcDbEntity
  8
Visible (ANSI)
100
AcDbLine
 10
51.15094126242647
 20
74.12696304582907
 30
0.0
 11
51.22485000242135
 21
74.12696304582907
 31
0.0
  0
LINE
  5
1F4
330
6C
100
AcDbEntity
  8
Visible (ANSI)
100
AcDbLine
 10
51.09985000242135
 20
74.12696304582907
 30
0.0
 11
51.15094126242647
 21
74.12696304582907
 31
0.0
  0
SPLINE
  5
1F5
330
6C
100
AcDbEntity
  8
Visible (ANSI)
100
AcDbSpline
210
0.0
220
0.0
230
1.0
 70
     8
 71
     3
 72
    11
 73
     7
 74
     0
 42
0.0000000001
 43
0.0000000001
 40
0.0
 40
0.0
 40
0.0
 40
0.0
 40
1.018582815488612
 40
1.018582815488612
 40
1.018582815488612
 40
1.570796326794897
 40
1.570796326794897
 40
1.570796326794897
 40
1.570796326794897
 10
61.22485000242135
 20
68.25577733453673
 30
0.0
 10
61.22485000242135
 20
68.26055361957912
 30
0.0
 10
61.19864709684222
 20
68.26532990462152
 30
0.0
 10
61.15800496897302
 20
68.27010618966392
 30
0.0
 10
61.13597128472435
 20
68.27269560025887
 30
0.0
 10
61.11013040898455
 20
68.27528501085382
 30
0.0
 10
61.08425000242135
 20
68.27787442144877
 30
0.0
  0
SPLINE
  5
1F6
330
6C
100
AcDbEntity
  8
Visible (ANSI)
100
AcDbSpline
210
0.0
220
0.0
230
1.0
 70
     8
 71
     3
 72
     8
 73
     4
 74
     0
 42
0.0000000001
 43
0.0000000001
 40
0.0
 40
0.0
 40
0.0
 40
0.0
 40
1.570796326794897
 40
1.570796326794897
 40
1.570796326794897
 40
1.570796326794897
 10
61.09985000242135
 20
68.25577733453674
 30
0.0
 10
61.09985000242135
 20
68.26314303017409
 30
0.0
 10
61.09241814332068
 20
68.27050872581145
 30
0.0
 10
61.08425000242135
 20
68.27787442144881
 30
0.0
  0
SPLINE
  5
1F7
330
6C
100
AcDbEntity
  8
Visible (ANSI)
100
AcDbSpline
210
0.0
220
0.0
230
1.0
 70
    24
 71
     3
 72
     8
 73
     4
 74
     0
 42
0.0000000001
 43
0.0000000001
 40
-0.317499999999999
 40
-0.317499999999999
 40
-0.317499999999999
 40
-0.317499999999999
 40
0.0000000000000036
 40
0.0000000000000036
 40
0.0000000000000036
 40
0.0000000000000036
 10
61.22485000242135
 20
68.25577733453673
 30
0.0
 10
61.18318333575468
 20
68.25577733453673
 30
0.0
 10
61.14151666908801
 20
68.25577733453674
 30
0.0
 10
61.09985000242134
 20
68.25577733453674
 30
0.0
  0
LINE
  5
1F8
330
6C
100
AcDbEntity
  8
Visible (ANSI)
100
AcDbLine
 10
61.08425000242135
 20
68.27787442144877
 30
0.0
 11
59.97485000242138
 21
69.38727442144878
 31
0.0
  0
SPLINE
  5
1F9
330
6C
100
AcDbEntity
  8
Visible (ANSI)
100
AcDbSpline
210
0.0
220
0.0
230
1.0
 70
     8
 71
     3
 72
    11
 73
     7
 74
     0
 42
0.0000000001
 43
0.0000000001
 40
0.0
 40
0.0
 40
0.0
 40
0.0
 40
1.01858281548856
 40
1.01858281548856
 40
1.01858281548856
 40
1.570796326794896
 40
1.570796326794896
 40
1.570796326794896
 40
1.570796326794896
 10
51.24045000242134
 20
68.11517733453674
 30
0.0
 10
51.24522628746375
 20
68.11517733453673
 30
0.0
 10
51.25000257250615
 20
68.14138024011585
 30
0.0
 10
51.25477885754856
 20
68.18202236798502
 30
0.0
 10
51.25736826814351
 20
68.20405605223368
 30
0.0
 10
51.25995767873847
 20
68.22989692797347
 30
0.0
 10
51.26254708933342
 20
68.2557773345367
 30
0.0
  0
SPLINE
  5
1FA
330
6C
100
AcDbEntity
  8
Visible (ANSI)
100
AcDbSpline
210
0.0
220
0.0
230
1.0
 70
     8
 71
     3
 72
    11
 73
     7
 74
     0
 42
0.0000000001
 43
0.0000000001
 40
0.0
 40
0.0
 40
0.0
 40
0.0
 40
1.01858281548856
 40
1.01858281548856
 40
1.01858281548856
 40
1.570796326794896
 40
1.570796326794896
 40
1.570796326794896
 40
1.570796326794896
 10
61.06215291550927
 20
68.2557773345367
 30
0.0
 10
61.06692920055166
 20
68.2080397532508
 30
0.0
 10
61.07170548559407
 20
68.16111719796861
 30
0.0
 10
61.07648177063648
 20
68.13607535080646
 30
0.0
 10
61.07907118123144
 20
68.12249918778786
 30
0.0
 10
61.08166059182639
 20
68.11517733453674
 30
0.0
 10
61.08425000242135
 20
68.11517733453674
 30
0.0
  0
LINE
  5
1FB
330
6C
100
AcDbEntity
  8
Visible (ANSI)
100
AcDbLine
 10
59.9527529155093
 20
69.36517733453671
 30
0.0
 11
61.06215291550927
 21
68.2557773345367
 31
0.0
  0
SPLINE
  5
1FC
330
6C
100
AcDbEntity
  8
Visible (ANSI)
100
AcDbSpline
210
0.0
220
0.0
230
1.0
 70
    24
 71
     3
 72
     8
 73
     4
 74
     0
 42
0.0000000001
 43
0.0000000001
 40
0.0
 40
0.0
 40
0.0
 40
0.0
 40
0.3175
 40
0.3175
 40
0.3175
 40
0.3175
 10
61.08425000242135
 20
68.24017733453674
 30
0.0
 10
61.08425000242135
 20
68.19851066787008
 30
0.0
 10
61.08425000242135
 20
68.15684400120341
 30
0.0
 10
61.08425000242135
 20
68.11517733453674
 30
0.0
  0
SPLINE
  5
1FD
330
6C
100
AcDbEntity
  8
Visible (ANSI)
100
AcDbSpline
210
0.0
220
0.0
230
1.0
 70
     8
 71
     3
 72
     8
 73
     4
 74
     0
 42
0.0000000001
 43
0.0000000001
 40
0.0
 40
0.0
 40
0.0
 40
0.0
 40
1.570796326794896
 40
1.570796326794896
 40
1.570796326794896
 40
1.570796326794896
 10
61.08425000242135
 20
68.24017733453674
 30
0.0
 10
61.07688430678399
 20
68.24017733453674
 30
0.0
 10
61.06951861114662
 20
68.2476091936374
 30
0.0
 10
61.06215291550927
 20
68.25577733453673
 30
0.0
  0
SPLINE
  5
1FE
330
6C
100
AcDbEntity
  8
Visible (ANSI)
100
AcDbSpline
210
0.0
220
0.0
230
1.0
 70
     8
 71
     3
 72
     8
 73
     4
 74
     0
 42
0.0000000001
 43
0.0000000001
 40
0.0
 40
0.0
 40
0.0
 40
0.0
 40
1.570796326794896
 40
1.570796326794896
 40
1.570796326794896
 40
1.570796326794896
 10
51.24045000242134
 20
68.24017733453674
 30
0.0
 10
51.24781569805871
 20
68.24017733453674
 30
0.0
 10
51.25518139369606
 20
68.2476091936374
 30
0.0
 10
51.26254708933342
 20
68.25577733453673
 30
0.0
  0
SPLINE
  5
1FF
330
6C
100
AcDbEntity
  8
Visible (ANSI)
100
AcDbSpline
210
0.0
220
0.0
230
1.0
 70
    24
 71
     3
 72
     8
 73
     4
 74
     0
 42
0.0000000001
 43
0.0000000001
 40
-0.3175
 40
-0.3175
 40
-0.3175
 40
-0.3175
 40
0.0
 40
0.0
 40
0.0
 40
0.0
 10
51.24045000242134
 20
68.11517733453674
 30
0.0
 10
51.24045000242134
 20
68.15684400120341
 30
0.0
 10
51.24045000242134
 20
68.19851066787008
 30
0.0
 10
51.24045000242134
 20
68.24017733453674
 30
0.0
  0
LINE
  5
200
330
6C
100
AcDbEntity
  8
Visible (ANSI)
100
AcDbLine
 10
51.26254708933342
 20
68.2557773345367
 30
0.0
 11
52.37194708933342
 21
69.36517733453671
 31
0.0
  0
SPLINE
  5
201
330
6C
100
AcDbEntity
  8
Visible (ANSI)
100
AcDbSpline
210
0.0
220
0.0
230
1.0
 70
     8
 71
     3
 72
    11
 73
     7
 74
     0
 42
0.0000000001
 43
0.0000000001
 40
0.0
 40
0.0
 40
0.0
 40
0.0
 40
1.018582815488561
 40
1.018582815488561
 40
1.018582815488561
 40
1.570796326794895
 40
1.570796326794895
 40
1.570796326794895
 40
1.570796326794895
 10
51.24045000242134
 20
68.27787442144877
 30
0.0
 10
51.19271242113545
 20
68.27309813640638
 30
0.0
 10
51.14578986585326
 20
68.26832185136398
 30
0.0
 10
51.12074801869109
 20
68.26354556632158
 30
0.0
 10
51.10717185567249
 20
68.26095615572665
 30
0.0
 10
51.09985000242135
 20
68.25836674513169
 30
0.0
 10
51.09985000242135
 20
68.25577733453674
 30
0.0
  0
LINE
  5
202
330
6C
100
AcDbEntity
  8
Visible (ANSI)
100
AcDbLine
 10
52.34985000242136
 20
69.38727442144878
 30
0.0
 11
51.24045000242134
 21
68.27787442144877
 31
0.0
  0
SPLINE
  5
203
330
6C
100
AcDbEntity
  8
Visible (ANSI)
100
AcDbSpline
210
0.0
220
0.0
230
1.0
 70
    24
 71
     3
 72
     8
 73
     4
 74
     0
 42
0.0000000001
 43
0.0000000001
 40
0.0
 40
0.0
 40
0.0
 40
0.0
 40
0.3175000000000001
 40
0.3175000000000001
 40
0.3175000000000001
 40
0.3175000000000001
 10
51.22485000242135
 20
68.25577733453674
 30
0.0
 10
51.18318333575468
 20
68.25577733453674
 30
0.0
 10
51.14151666908801
 20
68.25577733453674
 30
0.0
 10
51.09985000242135
 20
68.25577733453674
 30
0.0
  0
SPLINE
  5
204
330
6C
100
AcDbEntity
  8
Visible (ANSI)
100
AcDbSpline
210
0.0
220
0.0
230
1.0
 70
     8
 71
     3
 72
     8
 73
     4
 74
     0
 42
0.0000000001
 43
0.0000000001
 40
0.0
 40
0.0
 40
0.0
 40
0.0
 40
1.570796326794895
 40
1.570796326794895
 40
1.570796326794895
 40
1.570796326794895
 10
51.22485000242135
 20
68.25577733453674
 30
0.0
 10
51.22485000242135
 20
68.26314303017409
 30
0.0
 10
51.23228186152202
 20
68.27050872581145
 30
0.0
 10
51.24045000242134
 20
68.27787442144881
 30
0.0
  0
LINE
  5
205
330
6C
100
AcDbEntity
  8
Visible (ANSI)
100
AcDbLine
 10
59.97485000242154
 20
74.11517733453675
 30
0.0
 11
61.08425000242154
 21
74.11517733453671
 31
0.0
  0
LINE
  5
206
330
6C
100
AcDbEntity
  8
Visible (ANSI)
100
AcDbLine
 10
59.97485000242138
 20
69.38727442144878
 30
0.0
 11
59.97485000242154
 21
74.11517733453675
 31
0.0
  0
LINE
  5
207
330
6C
100
AcDbEntity
  8
Visible (ANSI)
100
AcDbLine
 10
52.37194708933342
 20
69.36517733453671
 30
0.0
 11
59.9527529155093
 21
69.36517733453671
 31
0.0
  0
LINE
  5
208
330
6C
100
AcDbEntity
  8
Visible (ANSI)
100
AcDbLine
 10
51.24045000242134
 20
74.11517733453703
 30
0.0
 11
52.34985000242134
 21
74.11517733453703
 31
0.0
  0
LINE
  5
209
330
6C
100
AcDbEntity
  8
Visible (ANSI)
100
AcDbLine
 10
52.34985000242134
 20
74.11517733453703
 30
0.0
 11
52.34985000242136
 21
69.38727442144878
 31
0.0
  0
ARC
  5
20A
330
6C
100
AcDbEntity
  8
Visible (ANSI)
100
AcDbCircle
 10
51.24045000242134
 20
68.25577733453674
 30
0.0
 40
0.0156
100
AcDbArc
 50
180.0
 51
270.0
  0
ARC
  5
20B
330
6C
100
AcDbEntity
  8
Visible (ANSI)
100
AcDbCircle
 10
51.24045000242134
 20
68.25577733453674
 30
0.0
 40
0.1406
100
AcDbArc
 50
180.0
 51
270.0
  0
ARC
  5
20C
330
6C
100
AcDbEntity
  8
Visible (ANSI)
100
AcDbCircle
 10
61.08425000242135
 20
68.25577733453674
 30
0.0
 40
0.0155999999999991
100
AcDbArc
 50
270.0
 51
0.0
  0
ARC
  5
20D
330
6C
100
AcDbEntity
  8
Visible (ANSI)
100
AcDbCircle
 10
61.08425000242135
 20
68.25577733453674
 30
0.0
 40
0.1405999999999967
100
AcDbArc
 50
270.0000000000046
 51
0.0
  0
LINE
  5
20E
330
6C
100
AcDbEntity
  8
Visible (ANSI)
100
AcDbLine
 10
51.09985000242135
 20
74.12696304582907
 30
0.0
 11
51.09985000242133
 21
76.11517733454377
 31
0.0
  0
LINE
  5
20F
330
6C
100
AcDbEntity
  8
Visible (ANSI)
100
AcDbLine
 10
61.09985000242154
 20
74.12696304582873
 30
0.0
 11
61.0998500024216
 21
76.11517733454377
 31
0.0
  0
LINE
  5
210
330
6C
100
AcDbEntity
  8
Visible (ANSI)
100
AcDbLine
 10
61.22485000242161
 20
76.11517733454377
 30
0.0
 11
61.22485000242154
 21
74.12696304582873
 31
0.0
  0
LINE
  5
211
330
6C
100
AcDbEntity
  8
Visible (ANSI)
100
AcDbLine
 10
61.0998500024216
 20
76.11517733454377
 30
0.0
 11
61.22485000242161
 21
76.11517733454377
 31
0.0
  0
LINE
  5
212
330
6C
100
AcDbEntity
  8
Visible (ANSI)
100
AcDbLine
 10
51.22485000242133
 20
76.11517733454377
 30
0.0
 11
51.22485000242135
 21
74.12696304582907
 31
0.0
  0
LINE
  5
213
330
6C
100
AcDbEntity
  8
Visible (ANSI)
100
AcDbLine
 10
51.09985000242133
 20
76.11517733454377
 30
0.0
 11
51.22485000242133
 21
76.11517733454377
 31
0.0
  0
LINE
  5
214
330
6C
100
AcDbEntity
  8
Visible (ANSI)
100
AcDbLine
 10
51.84985000242134
 20
76.11517733454379
 30
0.0
 11
52.09985000242134
 21
75.86517733454378
 31
0.0
  0
LINE
  5
215
330
6C
100
AcDbEntity
  8
Visible (ANSI)
100
AcDbLine
 10
60.22485000242156
 20
75.86517733454378
 30
0.0
 11
60.4748500024216
 21
76.1151773345438
 31
0.0
  0
LINE
  5
216
330
6C
100
AcDbEntity
  8
Visible (ANSI)
100
AcDbLine
 10
51.84985000242134
 20
76.11517733454379
 30
0.0
 11
51.24045000242134
 21
76.11517733454379
 31
0.0
  0
LINE
  5
217
330
6C
100
AcDbEntity
  8
Visible (ANSI)
100
AcDbLine
 10
60.4748500024216
 20
76.1151773345438
 30
0.0
 11
61.0842500024216
 21
76.11517733454377
 31
0.0
  0
LINE
  5
218
330
6C
100
AcDbEntity
  8
Visible Narrow (ANSI)
100
AcDbLine
 10
51.24045000242134
 20
76.11517733454379
 30
0.0
 11
51.24045000242134
 21
74.11517733454413
 31
0.0
  0
LINE
  5
219
330
6C
100
AcDbEntity
  8
Visible (ANSI)
100
AcDbLine
 10
51.24045000242134
 20
76.11517733454377
 30
0.0
 11
51.22485000242136
 21
76.11517733454377
 31
0.0
  0
LINE
  5
21A
330
6C
100
AcDbEntity
  8
Visible (ANSI)
100
AcDbLine
 10
61.0842500024216
 20
76.11517733454377
 30
0.0
 11
61.0998500024216
 21
76.11517733454377
 31
0.0
  0
LINE
  5
21B
330
6C
100
AcDbEntity
  8
Visible Narrow (ANSI)
100
AcDbLine
 10
61.08425000242154
 20
74.11517733454378
 30
0.0
 11
61.0842500024216
 21
76.11517733454377
 31
0.0
  0
CIRCLE
  5
21C
330
6C
100
AcDbEntity
  8
Visible (ANSI)
100
AcDbCircle
 10
56.16235000242131
 20
71.86517733453673
 30
0.0
 40
0.28125
  0
CIRCLE
  5
21D
330
6C
100
AcDbEntity
  8
Visible (ANSI)
100
AcDbCircle
 10
53.22485000242131
 20
74.8651773345367
 30
0.0
 40
0.28125
  0
CIRCLE
  5
21E
330
6C
100
AcDbEntity
  8
Visible (ANSI)
100
AcDbCircle
 10
59.09985000242131
 20
74.8651773345367
 30
0.0
 40
0.28125
  0
ARC
  5
21F
330
6C
100
AcDbEntity
  8
Visible (ANSI)
100
AcDbCircle
 10
60.84985000242131
 20
75.74017733453669
 30
0.0
 40
0.1249999999999988
100
AcDbArc
 50
0.0
 51
90.0
  0
ARC
  5
220
330
6C
100
AcDbEntity
  8
Visible (ANSI)
100
AcDbCircle
 10
51.47485000242131
 20
75.74017733453669
 30
0.0
 40
0.125
100
AcDbArc
 50
90.0
 51
180.0
  0
ARC
  5
221
330
6C
100
AcDbEntity
  8
Visible (ANSI)
100
AcDbCircle
 10
51.47485000242128
 20
68.36508017103156
 30
0.0
 40
0.1249999999999818
100
AcDbArc
 50
180.0
 51
189.3624011371832
  0
ARC
  5
222
330
6C
100
AcDbEntity
  8
Visible (ANSI)
100
AcDbCircle
 10
60.84985000242078
 20
68.3650801710316
 30
0.0
 40
0.1250000000005353
100
AcDbArc
 50
350.6375988628695
 51
0.0
  0
LINE
  5
223
330
6C
100
AcDbEntity
  8
Visible (ANSI)
100
AcDbLine
 10
60.9748500024213
 20
75.74017733453669
 30
0.0
 11
60.9748500024213
 21
74.33291576140636
 31
0.0
  0
LINE
  5
224
330
6C
100
AcDbEntity
  8
Visible (ANSI)
100
AcDbLine
 10
51.47485000242131
 20
75.86517733453669
 30
0.0
 11
60.84985000242131
 21
75.86517733453669
 31
0.0
  0
LINE
  5
225
330
6C
100
AcDbEntity
  8
Visible (ANSI)
100
AcDbLine
 10
51.34985000242132
 20
74.33291576140636
 30
0.0
 11
51.34985000242132
 21
75.74017733453669
 31
0.0
  0
LINE
  5
226
330
6C
100
AcDbEntity
  8
Visible (ANSI)
100
AcDbLine
 10
60.9748500024213
 20
74.23349654797151
 30
0.0
 11
60.9748500024213
 21
74.33291576140634
 31
0.0
  0
LINE
  5
227
330
6C
100
AcDbEntity
  8
Visible Narrow (ANSI)
100
AcDbLine
 10
51.34985000242132
 20
74.33291576140636
 30
0.0
 11
60.9748500024213
 21
74.33291576140636
 31
0.0
  0
LINE
  5
228
330
6C
100
AcDbEntity
  8
Visible (ANSI)
100
AcDbLine
 10
51.34985000242132
 20
74.23349654797153
 30
0.0
 11
51.34985000242132
 21
74.33291576140636
 31
0.0
  0
LINE
  5
229
330
6C
100
AcDbEntity
  8
Visible Narrow (ANSI)
100
AcDbLine
 10
51.34985000242132
 20
74.23349654797153
 30
0.0
 11
60.9748500024213
 21
74.23349654797153
 31
0.0
  0
LINE
  5
22A
330
6C
100
AcDbEntity
  8
Visible (ANSI)
100
AcDbLine
 10
60.9748500024213
 20
74.15437260994841
 30
0.0
 11
60.9748500024213
 21
74.23349654797153
 31
0.0
  0
LINE
  5
22B
330
6C
100
AcDbEntity
  8
Visible (ANSI)
100
AcDbLine
 10
51.34985000242132
 20
74.23349654797153
 30
0.0
 11
51.34985000242132
 21
74.15437260994841
 31
0.0
  0
LINE
  5
22C
330
6C
100
AcDbEntity
  8
Visible (ANSI)
100
AcDbLine
 10
60.9748500024213
 20
74.15437260994841
 30
0.0
 11
60.9748500024213
 21
74.14334174416194
 31
0.0
  0
LINE
  5
22D
330
6C
100
AcDbEntity
  8
Visible (ANSI)
100
AcDbLine
 10
51.34985000242132
 20
74.15437260994841
 30
0.0
 11
51.34985000242132
 21
74.1433417441619
 31
0.0
  0
LINE
  5
22E
330
6C
100
AcDbEntity
  8
Visible Narrow (ANSI)
100
AcDbLine
 10
51.34985000242132
 20
74.1433417441619
 30
0.0
 11
60.9748500024213
 21
74.14334174416194
 31
0.0
  0
LINE
  5
22F
330
6C
100
AcDbEntity
  8
Visible Narrow (ANSI)
100
AcDbLine
 10
51.34985000242132
 20
74.15437260994841
 30
0.0
 11
60.9748500024213
 21
74.15437260994841
 31
0.0
  0
LINE
  5
230
330
6C
100
AcDbEntity
  8
Visible (ANSI)
100
AcDbLine
 10
60.9748500024213
 20
68.36508017103156
 30
0.0
 11
60.9748500024213
 21
68.38727442144883
 31
0.0
  0
LINE
  5
231
330
6C
100
AcDbEntity
  8
Visible (ANSI)
100
AcDbLine
 10
60.9748500024213
 20
74.11517733453674
 30
0.0
 11
60.9748500024213
 21
74.14334174416194
 31
0.0
  0
LINE
  5
232
330
6C
100
AcDbEntity
  8
Visible (ANSI)
100
AcDbLine
 10
51.34985000242132
 20
74.1433417441619
 30
0.0
 11
51.34985000242132
 21
74.11517733453708
 31
0.0
  0
LINE
  5
233
330
6C
100
AcDbEntity
  8
Visible (ANSI)
100
AcDbLine
 10
51.34985000242132
 20
68.38727442144876
 30
0.0
 11
51.34985000242132
 21
68.36508017103156
 31
0.0
  0
MTEXT
  5
234
330
6C
100
AcDbEntity
  8
Symbol (ANSI)
100
AcDbMText
 10
53.08196497291053
 20
65.06883434990908
 30
0.0
 40
0.9600000118646095
 41
0.0
 71
     7
 72
     1
  1
TOP VIEW
  7
Text Style168
 73
     1
 44
1.0
  0
LINE
  5
235
330
6C
100
AcDbEntity
  8
Symbol (ANSI)
370
    30
100
AcDbLine
 10
53.0827329748861
 20
64.87306125090995
 30
0.0
 11
59.13991279382795
 21
64.87306125090995
 31
0.0
  0
ELLIPSE
  5
236
330
6C
100
AcDbEntity
  8
Visible (ANSI)
100
AcDbEllipse
 10
122.058465346613
 20
74.76516582273653
 30
0.0
 11
-0.375
 21
0.0000000000000428
 31
0.0
210
0.0
220
0.0
230
1.0
 40
0.5758617009852758
 41
0.0
 42
6.283185307179586
  0
ELLIPSE
  5
237
330
6C
100
AcDbEntity
  8
Visible (ANSI)
100
AcDbEllipse
 10
122.058465346613
 20
74.6289079685961
 30
0.0
 11
0.3749999999999978
 21
-0.0000000000000231
 31
0.0
210
0.0
220
0.0
230
1.0
 40
0.5758617009852816
 41
0.3209702928256632
 42
2.820622360764133
  0
ELLIPSE
  5
238
330
6C
100
AcDbEntity
  8
Visible (ANSI)
100
AcDbEllipse
 10
127.361766205513
 20
71.71119796929447
 30
0.0
 11
-0.375
 21
0.0000000000000428
 31
0.0
210
0.0
220
0.0
230
1.0
 40
0.5758617009852758
 41
0.0
 42
6.283185307179586
  0
ELLIPSE
  5
239
330
6C
100
AcDbEntity
  8
Visible (ANSI)
100
AcDbEllipse
 10
127.361766205513
 20
71.57494011515405
 30
0.0
 11
0.3749999999999978
 21
-0.0000000000000231
 31
0.0
210
0.0
220
0.0
230
1.0
 40
0.5758617009852816
 41
0.320970292825663
 42
2.820622360764132
  0
ELLIPSE
  5
23A
330
6C
100
AcDbEntity
  8
Visible (ANSI)
100
AcDbEllipse
 10
119.3478893520646
 20
74.90089772733373
 30
0.0
 11
-0.375
 21
0.0000000000000012
 31
0.0
210
0.0
220
0.0
230
1.0
 40
0.5758617009852763
 41
0.0
 42
6.283185307179586
  0
ELLIPSE
  5
23B
330
6C
100
AcDbEntity
  8
Visible (ANSI)
100
AcDbEllipse
 10
119.3478893520646
 20
74.76463987319331
 30
0.0
 11
0.3750000000000011
 21
0.0000000000000221
 31
0.0
210
0.0
220
0.0
230
1.0
 40
0.5758617009852708
 41
0.3209702928256704
 42
2.820622360764079
  0
ELLIPSE
  5
23C
330
6C
100
AcDbEntity
  8
Visible (ANSI)
100
AcDbEllipse
 10
114.6338441441549
 20
72.18625963538443
 30
0.0
 11
-0.375
 21
0.0000000000000012
 31
0.0
210
0.0
220
0.0
230
1.0
 40
0.5758617009852763
 41
0.0
 42
6.283185307179586
  0
ELLIPSE
  5
23D
330
6C
100
AcDbEntity
  8
Visible (ANSI)
100
AcDbEllipse
 10
114.633844144155
 20
72.05000178124402
 30
0.0
 11
0.3749999999999986
 21
0.0000000000000221
 31
0.0
210
0.0
220
0.0
230
1.0
 40
0.575861700985271
 41
0.3209702928256701
 42
2.820622360764128
  0
ELLIPSE
  5
23E
330
6C
100
AcDbEntity
  8
Visible (ANSI)
100
AcDbEllipse
 10
127.5974684659089
 20
70.15028106642382
 30
0.0
 11
-0.375
 21
0.0000000000000419
 31
0.0
210
0.0
220
0.0
230
1.0
 40
0.5758617009853458
 41
0.0
 42
6.283185307179586
  0
ELLIPSE
  5
23F
330
6C
100
AcDbEntity
  8
Visible (ANSI)
100
AcDbEllipse
 10
127.5974684659089
 20
70.0140232122834
 30
0.0
 11
0.3749999999999996
 21
-0.0000000000000209
 31
0.0
210
0.0
220
0.0
230
1.0
 40
0.575861700985347
 41
0.3209702928256016
 42
2.820622360764157
  0
ELLIPSE
  5
240
330
6C
100
AcDbEntity
  8
Visible (ANSI)
100
AcDbEllipse
 10
122.8834232579995
 20
67.43564297447445
 30
0.0
 11
-0.375
 21
0.0000000000000419
 31
0.0
210
0.0
220
0.0
230
1.0
 40
0.5758617009853458
 41
0.0
 42
6.283185307179586
  0
ELLIPSE
  5
241
330
6C
100
AcDbEntity
  8
Visible (ANSI)
100
AcDbEllipse
 10
122.8834232579995
 20
67.29938512033402
 30
0.0
 11
0.3750000000000008
 21
-0.0000000000000166
 31
0.0
210
0.0
220
0.0
230
1.0
 40
0.5758617009853495
 41
0.3209702928256303
 42
2.820622360764208
  0
SPLINE
  5
242
330
6C
100
AcDbEntity
  8
Visible (ANSI)
100
AcDbSpline
210
0.0
220
0.0
230
1.0
 70
     8
 71
     3
 72
     8
 73
     4
 74
     0
 42
0.0000000001
 43
0.0000000001
 40
0.0
 40
0.0
 40
0.0
 40
0.0
 40
0.7873318718203191
 40
0.7873318718203191
 40
0.7873318718203191
 40
0.7873318718203191
 10
129.9987088139141
 20
44.77829278179092
 30
0.0
 10
129.9952280428237
 20
44.73606543428369
 30
0.0
 10
129.9769869383895
 20
44.7028688158475
 30
0.0
 10
129.9491076415572
 20
44.68635830239288
 30
0.0
  0
SPLINE
  5
243
330
6C
100
AcDbEntity
  8
Visible (ANSI)
100
AcDbSpline
210
0.0
220
0.0
230
1.0
 70
     8
 71
     3
 72
     8
 73
     4
 74
     0
 42
0.0000000001
 43
0.0000000001
 40
0.0
 40
0.0
 40
0.0
 40
0.0
 40
0.0154576661982323
 40
0.0154576661982323
 40
0.0154576661982323
 40
0.0154576661982323
 10
120.6000340401894
 20
50.20756896568791
 30
0.0
 10
120.6001023780778
 20
50.20744199341269
 30
0.0
 10
120.6001700374359
 20
50.20731470811977
 30
0.0
 10
120.6002370242792
 20
50.20718712022856
 30
0.0
  0
SPLINE
  5
244
330
6C
100
AcDbEntity
  8
Visible (ANSI)
100
AcDbSpline
210
0.0
220
0.0
230
1.0
 70
     8
 71
     3
 72
     8
 73
     4
 74
     0
 42
0.0000000001
 43
0.0000000001
 40
0.0
 40
0.0
 40
0.0
 40
0.0
 40
0.7642854944727117
 40
0.7642854944727117
 40
0.7642854944727117
 40
0.7642854944727117
 10
120.570618398092
 20
50.20756896568791
 30
0.0
 10
120.5672395143593
 20
50.20129097605475
 30
0.0
 10
120.5655194255067
 20
50.19424775587598
 30
0.0
 10
120.5647309899412
 20
50.18769874924498
 30
0.0
  0
LINE
  5
245
330
6C
100
AcDbEntity
  8
Visible Narrow (ANSI)
100
AcDbLine
 10
124.4633018405016
 20
41.59066390643448
 30
0.0
 11
129.9987088139141
 21
44.77829278179092
 31
0.0
  0
SPLINE
  5
246
330
6C
100
AcDbEntity
  8
Visible (ANSI)
100
AcDbSpline
210
0.0
220
0.0
230
1.0
 70
     8
 71
     3
 72
    11
 73
     7
 74
     0
 42
0.0000000001
 43
0.0000000001
 40
0.0
 40
0.0
 40
0.0
 40
0.0
 40
1.018582815488611
 40
1.018582815488611
 40
1.018582815488611
 40
1.570796326794896
 40
1.570796326794896
 40
1.570796326794896
 40
1.570796326794896
 10
124.3418545644226
 20
41.52013548340572
 30
0.0
 10
124.3844601992424
 20
41.49283433411412
 30
0.0
 10
124.4262974201769
 20
41.4945384984413
 30
0.0
 10
124.4475053116594
 20
41.52386196307435
 30
0.0
 10
124.4590029376206
 20
41.53975935808481
 30
0.0
 10
124.4646039437843
 20
41.56320246854503
 30
0.0
 10
124.4633018405016
 20
41.59066390643448
 30
0.0
  0
LINE
  5
247
330
6C
100
AcDbEntity
  8
Visible Narrow (ANSI)
100
AcDbLine
 10
124.3418545644226
 20
41.65639333754613
 30
0.0
 11
124.345477958079
 21
41.65847991118042
 31
0.0
  0
LINE
  5
248
330
6C
100
AcDbEntity
  8
Visible (ANSI)
100
AcDbLine
 10
124.3418545644226
 20
41.65639333754613
 30
0.0
 11
124.3418545644226
 21
41.52013548340572
 31
0.0
  0
LINE
  5
249
330
6C
100
AcDbEntity
  8
Visible (ANSI)
100
AcDbLine
 10
124.4151325386229
 20
41.61840276254959
 30
0.0
 11
124.4633018405016
 21
41.59066390643448
 31
0.0
  0
LINE
  5
24A
330
6C
100
AcDbEntity
  8
Visible (ANSI)
100
AcDbLine
 10
124.3454507103038
 20
41.65852985873319
 30
0.0
 11
124.4151325386229
 21
41.61840276254959
 31
0.0
  0
SPLINE
  5
24B
330
6C
100
AcDbEntity
  8
Visible (ANSI)
100
AcDbSpline
210
0.0
220
0.0
230
1.0
 70
     8
 71
     3
 72
     8
 73
     4
 74
     0
 42
0.0000000001
 43
0.0000000001
 40
0.0
 40
0.0
 40
0.0
 40
0.0
 40
1.570796326794896
 40
1.570796326794896
 40
1.570796326794896
 40
1.570796326794896
 10
124.3454507103038
 20
41.6585298587332
 30
0.0
 10
124.3491546020263
 20
41.65175900131071
 30
0.0
 10
124.3458516697929
 20
41.6498256988734
 30
0.0
 10
124.3418545644226
 20
41.65639333754613
 30
0.0
  0
LINE
  5
24C
330
6C
100
AcDbEntity
  8
Visible Narrow (ANSI)
100
AcDbLine
 10
120.6000340401894
 20
50.20756896568791
 30
0.0
 11
120.6004949915756
 21
50.20730352143857
 31
0.0
  0
SPLINE
  5
24D
330
6C
100
AcDbEntity
  8
Visible (ANSI)
100
AcDbSpline
210
0.0
220
0.0
230
1.0
 70
     8
 71
     3
 72
    11
 73
     7
 74
     0
 42
0.0000000001
 43
0.0000000001
 40
0.0
 40
0.0
 40
0.0
 40
0.0
 40
1.01858281548856
 40
1.01858281548856
 40
1.01858281548856
 40
1.187541332809201
 40
1.187541332809201
 40
1.187541332809201
 40
1.187541332809201
 10
114.9173602944812
 20
47.0878060426301
 30
0.0
 10
114.919762082921
 20
47.03715217750349
 30
0.0
 10
114.9468682076566
 20
46.97316046081058
 30
0.0
 10
114.9875877617206
 20
46.9251806382324
 30
0.0
 10
114.9943421614375
 20
46.91722193368639
 30
0.0
 10
115.0014325884699
 20
46.90970795362569
 30
0.0
 10
115.0087572974364
 20
46.90273062092849
 30
0.0
  0
LINE
  5
24E
330
6C
100
AcDbEntity
  8
Visible Narrow (ANSI)
100
AcDbLine
 10
115.0761659687164
 20
47.00957992183337
 30
0.0
 11
115.0610309208953
 21
47.00086422745057
 31
0.0
  0
LINE
  5
24F
330
6C
100
AcDbEntity
  8
Visible (ANSI)
100
AcDbLine
 10
115.0610309208953
 20
47.00086422745057
 30
0.0
 11
115.0610309208953
 21
46.99015888149293
 31
0.0
  0
SPLINE
  5
250
330
6C
100
AcDbEntity
  8
Visible (ANSI)
100
AcDbSpline
210
0.0
220
0.0
230
1.0
 70
     8
 71
     3
 72
     8
 73
     4
 74
     0
 42
0.0000000001
 43
0.0000000001
 40
0.0
 40
0.0
 40
0.0
 40
0.0
 40
1.570796326794896
 40
1.570796326794896
 40
1.570796326794896
 40
1.570796326794896
 10
115.035211424679
 20
47.01994009033138
 30
0.0
 10
115.0389153164015
 20
47.0131692329089
 30
0.0
 10
115.0496260320799
 20
47.00316600734812
 30
0.0
 10
115.0610309208953
 20
47.00086422745057
 30
0.0
  0
LINE
  5
251
330
6C
100
AcDbEntity
  8
Visible (ANSI)
100
AcDbLine
 10
114.9655295963599
 20
47.06006718651499
 30
0.0
 11
115.035211424679
 21
47.01994009033138
 31
0.0
  0
LINE
  5
252
330
6C
100
AcDbEntity
  8
Visible (ANSI)
100
AcDbLine
 10
114.9173602944812
 20
47.0878060426301
 30
0.0
 11
114.9655295963599
 21
47.06006718651499
 31
0.0
  0
LINE
  5
253
330
6C
100
AcDbEntity
  8
Visible Narrow (ANSI)
100
AcDbLine
 10
115.035211424679
 20
47.01994009033138
 30
0.0
 11
120.570618398092
 21
50.20756896568791
 31
0.0
  0
LINE
  5
254
330
6C
100
AcDbEntity
  8
Visible (ANSI)
100
AcDbLine
 10
124.4298643109873
 20
41.50775129264387
 30
0.0
 11
129.9492594546614
 21
44.68615956849127
 31
0.0
  0
LINE
  5
255
330
6C
100
AcDbEntity
  8
Visible (ANSI)
100
AcDbLine
 10
124.3418545644226
 20
41.65639333754613
 30
0.0
 11
124.2387112552733
 21
41.7157896189981
 31
0.0
  0
LINE
  5
256
330
6C
100
AcDbEntity
  8
Visible (ANSI)
100
AcDbLine
 10
124.1633172618662
 20
41.62294827814514
 30
0.0
 11
124.3418545644226
 21
41.52013548340572
 31
0.0
  0
LINE
  5
257
330
6C
100
AcDbEntity
  8
Visible (ANSI)
100
AcDbLine
 10
115.0610309208953
 20
47.00086422745057
 30
0.0
 11
115.06658594183
 21
46.99766530364607
 31
0.0
  0
ELLIPSE
  5
258
330
6C
100
AcDbEntity
  8
Visible (ANSI)
100
AcDbEllipse
 10
120.5853262191407
 20
50.19909929484103
 30
0.0
 11
0.0208
 21
-0.0000000000000012
 31
0.0
210
0.0
220
0.0
230
1.0
 40
0.5758617009853121
 41
0.7853981633986518
 42
2.356194490192908
  0
ELLIPSE
  5
259
330
6C
100
AcDbEntity
  8
Visible (ANSI)
100
AcDbEllipse
 10
129.8661498626676
 20
44.85462840493652
 30
0.0
 11
0.1874666666666641
 21
0.0
 31
0.0
210
0.0
220
0.0
230
1.0
 40
0.5758617009853121
 41
5.497787143782304
 42
6.283185307179586
  0
LINE
  5
25A
330
6C
100
AcDbEntity
  8
Visible (ANSI)
100
AcDbLine
 10
114.9173602944812
 20
47.0878060426301
 30
0.0
 11
113.0428538864852
 21
71.86333192030033
 31
0.0
  0
LINE
  5
25B
330
6C
100
AcDbEntity
  8
Visible (ANSI)
100
AcDbLine
 10
124.3454507103038
 20
41.65852985873319
 30
0.0
 11
122.4709443023076
 21
66.43405573640319
 31
0.0
  0
LINE
  5
25C
330
6C
100
AcDbEntity
  8
Visible (ANSI)
100
AcDbLine
 10
122.5887954325053
 20
66.36618978410448
 30
0.0
 11
124.4633018405016
 21
41.59066390643448
 31
0.0
  0
LINE
  5
25D
330
6C
100
AcDbEntity
  8
Visible (ANSI)
100
AcDbLine
 10
122.4709443023076
 20
66.43405573640319
 30
0.0
 11
122.5887954325053
 21
66.36618978410448
 31
0.0
  0
LINE
  5
25E
330
6C
100
AcDbEntity
  8
Visible (ANSI)
100
AcDbLine
 10
113.160705016683
 20
71.79546596800161
 30
0.0
 11
115.035211424679
 21
47.01994009033138
 31
0.0
  0
LINE
  5
25F
330
6C
100
AcDbEntity
  8
Visible (ANSI)
100
AcDbLine
 10
113.0428538864852
 20
71.86333192030033
 30
0.0
 11
113.160705016683
 21
71.79546596800161
 31
0.0
  0
ELLIPSE
  5
260
330
6C
100
AcDbEntity
  8
Visible (ANSI)
100
AcDbEllipse
 10
129.8661498626676
 20
70.70961073122347
 30
0.0
 11
0.1874666666666629
 21
0.0
 31
0.0
210
0.0
220
0.0
230
1.0
 40
0.5758617009853121
 41
5.497787143782341
 42
7.06858347057722
  0
ELLIPSE
  5
261
330
6C
100
AcDbEntity
  8
Visible (ANSI)
100
AcDbEllipse
 10
120.5853262191407
 20
76.05408162112799
 30
0.0
 11
-0.0208
 21
-0.0000000000000012
 31
0.0
210
0.0
220
0.0
230
1.0
 40
0.5758617009853121
 41
3.926990816986676
 42
5.497787143780934
  0
LINE
  5
262
330
6C
100
AcDbEntity
  8
Visible (ANSI)
100
AcDbLine
 10
113.7499606676719
 20
71.47314118670471
 30
0.0
 11
113.1754128377317
 21
71.80400127735143
 31
0.0
  0
LINE
  5
263
330
6C
100
AcDbEntity
  8
Visible (ANSI)
100
AcDbLine
 10
120.5644928858077
 20
74.854441682871
 30
0.0
 11
114.692769709254
 21
71.47314118670492
 31
0.0
  0
LINE
  5
264
330
6C
100
AcDbEntity
  8
Visible (ANSI)
100
AcDbLine
 10
113.7499606676719
 20
71.60939904084513
 30
0.0
 11
113.1754128377317
 21
71.94025913149186
 31
0.0
  0
LINE
  5
265
330
6C
100
AcDbEntity
  8
Visible (ANSI)
100
AcDbLine
 10
122.4562364812589
 20
66.59578824158721
 30
0.0
 11
121.8816886513186
 21
66.92664833223393
 31
0.0
  0
LINE
  5
266
330
6C
100
AcDbEntity
  8
Visible (ANSI)
100
AcDbLine
 10
121.8816886513186
 20
66.79039047809357
 30
0.0
 11
122.4562364812589
 21
66.45953038744679
 31
0.0
  0
LINE
  5
267
330
6C
100
AcDbEntity
  8
Visible (ANSI)
100
AcDbLine
 10
127.655937367939
 20
70.79474463849026
 30
0.0
 11
120.6061595524744
 21
74.85444168287102
 31
0.0
  0
LINE
  5
268
330
6C
100
AcDbEntity
  8
Visible (ANSI)
100
AcDbLine
 10
127.753411827872
 20
70.87487068433104
 30
0.0
 11
120.6061595524744
 21
74.99069953701146
 31
0.0
  0
LINE
  5
269
330
6C
100
AcDbEntity
  8
Visible (ANSI)
100
AcDbLine
 10
120.5644928858077
 20
74.99069953701144
 30
0.0
 11
114.692769709254
 21
71.60939904084535
 31
0.0
  0
LINE
  5
26A
330
6C
100
AcDbEntity
  8
Visible (ANSI)
100
AcDbLine
 10
121.8816886513185
 20
67.46957595062376
 30
0.0
 11
127.753411827872
 21
70.85087644678996
 31
0.0
  0
ELLIPSE
  5
26B
330
6C
100
AcDbEntity
  8
Visible (ANSI)
100
AcDbEllipse
 10
120.5853262191407
 20
76.05408162112799
 30
0.0
 11
0.1874666666666655
 21
0.0
 31
0.0
210
0.0
220
0.0
230
1.0
 40
0.5758617009853122
 41
1.459435432737787
 42
1.682157220851875
  0
LINE
  5
26C
330
6C
100
AcDbEntity
  8
Visible Narrow (ANSI)
100
AcDbLine
 10
129.9987088139141
 20
44.77829278179092
 30
0.0
 11
129.9987088139141
 21
70.63327510807789
 31
0.0
  0
LINE
  5
26D
330
6C
100
AcDbEntity
  8
Visible Narrow (ANSI)
100
AcDbLine
 10
120.6000340401894
 20
76.06255129197487
 30
0.0
 11
120.6000340401894
 21
50.20756896568791
 31
0.0
  0
LINE
  5
26E
330
6C
100
AcDbEntity
  8
Visible Narrow (ANSI)
100
AcDbLine
 10
120.570618398092
 20
50.20756896568791
 30
0.0
 11
120.570618398092
 21
76.06255129197487
 31
0.0
  0
LINE
  5
26F
330
6C
100
AcDbEntity
  8
Visible (ANSI)
100
AcDbLine
 10
130.0536165293342
 20
70.70961073122347
 30
0.0
 11
130.0536165293342
 21
44.85462840493652
 31
0.0
  0
LINE
  5
270
330
6C
100
AcDbEntity
  8
Visible (ANSI)
100
AcDbLine
 10
114.692769709254
 20
71.60939904084535
 30
0.0
 11
113.7499606676719
 21
71.60939904084513
 31
0.0
  0
LINE
  5
271
330
6C
100
AcDbEntity
  8
Visible (ANSI)
100
AcDbLine
 10
113.7499606676719
 20
71.60939904084513
 30
0.0
 11
113.7499606676719
 21
71.47314118670471
 31
0.0
  0
LINE
  5
272
330
6C
100
AcDbEntity
  8
Visible (ANSI)
100
AcDbLine
 10
113.7499606676719
 20
71.47314118670471
 30
0.0
 11
114.692769709254
 21
71.47314118670492
 31
0.0
  0
LINE
  5
273
330
6C
100
AcDbEntity
  8
Visible (ANSI)
100
AcDbLine
 10
114.692769709254
 20
71.47314118670492
 30
0.0
 11
114.692769709254
 21
71.60939904084535
 31
0.0
  0
LINE
  5
274
330
6C
100
AcDbEntity
  8
Visible (ANSI)
100
AcDbLine
 10
121.8816886513186
 20
66.92664833223393
 30
0.0
 11
121.8816886513185
 21
67.46957595062376
 31
0.0
  0
LINE
  5
275
330
6C
100
AcDbEntity
  8
Visible (ANSI)
100
AcDbLine
 10
121.8816886513186
 20
66.79039047809357
 30
0.0
 11
121.8816886513186
 21
66.92664833223393
 31
0.0
  0
ELLIPSE
  5
276
330
6C
100
AcDbEntity
  8
Visible (ANSI)
100
AcDbEllipse
 10
113.1754128377317
 20
71.78699629715471
 30
0.0
 11
-0.0103798700009491
 21
0.0180249354718083
 31
0.0
210
0.0
220
0.0
230
1.0
 40
0.5780931159158105
 41
5.499720852205022
 42
7.070517178999403
  0
ELLIPSE
  5
277
330
6C
100
AcDbEntity
  8
Visible (ANSI)
100
AcDbEllipse
 10
113.1754128377317
 20
71.78699629715471
 30
0.0
 11
-0.0935519052650172
 21
0.1624555081626718
 31
0.0
210
0.0
220
0.0
230
1.0
 40
0.5780931159158105
 41
5.499720852205022
 42
7.070517178999828
  0
ELLIPSE
  5
278
330
6C
100
AcDbEntity
  8
Visible (ANSI)
100
AcDbEllipse
 10
122.4562364812589
 20
66.44252540725007
 30
0.0
 11
-0.0935519052650403
 21
0.1624555081626779
 31
0.0
210
0.0
220
0.0
230
1.0
 40
0.578093115915836
 41
3.928924525409962
 42
5.499720852204667
  0
ELLIPSE
  5
279
330
6C
100
AcDbEntity
  8
Visible (ANSI)
100
AcDbEllipse
 10
122.4562364812589
 20
66.44252540725007
 30
0.0
 11
0.0103798700009573
 21
-0.0180249354718251
 31
0.0
210
0.0
220
0.0
230
1.0
 40
0.5780931159158104
 41
0.7873318718214044
 42
2.358128198615402
  0
LINE
  5
27A
330
6C
100
AcDbEntity
  8
Visible Narrow (ANSI)
100
AcDbLine
 10
129.8453165293343
 20
70.87487068433117
 30
0.0
 11
120.6061595524741
 21
76.19534733669462
 31
0.0
  0
LINE
  5
27B
330
6C
100
AcDbEntity
  8
Visible Narrow (ANSI)
100
AcDbLine
 10
120.6061595524741
 20
76.05902384405119
 30
0.0
 11
120.6000340401894
 21
76.06255129197487
 31
0.0
  0
LINE
  5
27C
330
6C
100
AcDbEntity
  8
Visible Narrow (ANSI)
100
AcDbLine
 10
120.5644928858074
 20
76.1953473366946
 30
0.0
 11
113.1754128377317
 21
71.94025913149186
 31
0.0
  0
LINE
  5
27D
330
6C
100
AcDbEntity
  8
Visible Narrow (ANSI)
100
AcDbLine
 10
120.570618398092
 20
76.06255129197487
 30
0.0
 11
120.5644928858074
 21
76.05902384405125
 31
0.0
  0
LINE
  5
27E
330
6C
100
AcDbEntity
  8
Visible Narrow (ANSI)
100
AcDbLine
 10
113.1754698292827
 20
71.80396845809996
 30
0.0
 11
113.160705016683
 21
71.79546596800161
 31
0.0
  0
LINE
  5
27F
330
6C
100
AcDbEntity
  8
Visible Narrow (ANSI)
100
AcDbLine
 10
122.4562364812589
 20
66.59578824158721
 30
0.0
 11
129.8453165293343
 21
70.8508764467901
 31
0.0
  0
LINE
  5
280
330
6C
100
AcDbEntity
  8
Visible Narrow (ANSI)
100
AcDbLine
 10
129.9987088139141
 20
70.63327510807789
 30
0.0
 11
122.5887954325053
 21
66.36618978410448
 31
0.0
  0
LINE
  5
281
330
6C
100
AcDbEntity
  8
Visible (ANSI)
100
AcDbLine
 10
120.6893204376768
 20
76.21052380100813
 30
0.0
 11
129.9492594546614
 21
70.87807956766875
 31
0.0
  0
LINE
  5
282
330
6C
100
AcDbEntity
  8
Visible (ANSI)
100
AcDbLine
 10
113.0818609324667
 20
71.94945180531741
 30
0.0
 11
120.4813320006045
 21
76.2105238010081
 31
0.0
  0
SPLINE
  5
283
330
6C
100
AcDbEntity
  8
Visible (ANSI)
100
AcDbSpline
210
0.0
220
0.0
230
1.0
 70
     8
 71
     3
 72
    11
 73
     7
 74
     0
 42
0.0000000001
 43
0.0000000001
 40
0.0
 40
0.0
 40
0.0
 40
0.0
 40
1.018582815488599
 40
1.018582815488599
 40
1.018582815488599
 40
1.570796326794868
 40
1.570796326794868
 40
1.570796326794868
 40
1.570796326794868
 10
129.998708813914
 20
70.7859463543691
 30
0.0
 10
129.9942056891908
 20
70.84057649453488
 30
0.0
 10
129.964998228172
 20
70.88009192402504
 30
0.0
 10
129.9221773378246
 20
70.88791655426177
 30
0.0
 10
129.8989624613743
 20
70.89215859179863
 30
0.0
 10
129.8721581303631
 20
70.88751600930215
 30
0.0
 10
129.8453165293342
 20
70.87487068433116
 30
0.0
  0
SPLINE
  5
284
330
6C
100
AcDbEntity
  8
Visible (ANSI)
100
AcDbSpline
210
0.0
220
0.0
230
1.0
 70
     8
 71
     3
 72
     8
 73
     4
 74
     0
 42
0.0000000001
 43
0.0000000001
 40
0.0
 40
0.0
 40
0.0
 40
0.0
 40
0.78346445497436
 40
0.78346445497436
 40
0.78346445497436
 40
0.78346445497436
 10
120.6061595524741
 20
76.19534733669462
 30
0.0
 10
120.6373142879501
 20
76.21727734931823
 30
0.0
 10
120.6680144112016
 20
76.22204711744832
 30
0.0
 10
120.6892220099132
 20
76.21028736058761
 30
0.0
  0
LINE
  5
285
330
6C
100
AcDbEntity
  8
Visible (ANSI)
100
AcDbLine
 10
120.6061595524744
 20
74.99069953701146
 30
0.0
 11
120.6061595524741
 21
76.19534733669462
 31
0.0
  0
LINE
  5
286
330
6C
100
AcDbEntity
  8
Visible (ANSI)
100
AcDbLine
 10
120.6061595524744
 20
74.85444168287102
 30
0.0
 11
120.6061595524744
 21
74.99069953701146
 31
0.0
  0
SPLINE
  5
287
330
6C
100
AcDbEntity
  8
Visible (ANSI)
100
AcDbSpline
210
0.0
220
0.0
230
1.0
 70
     8
 71
     3
 72
     8
 73
     4
 74
     0
 42
0.0000000001
 43
0.0000000001
 40
0.0
 40
0.0
 40
0.0
 40
0.0
 40
0.7912825099109937
 40
0.7912825099109937
 40
0.7912825099109937
 40
0.7912825099109937
 10
120.6000340401894
 20
76.06255129197487
 30
0.0
 10
120.6035322769348
 20
76.0650220392159
 30
0.0
 10
120.6052524611605
 20
76.06626520790142
 30
0.0
 10
120.6060015432558
 20
76.06581250492546
 30
0.0
  0
LINE
  5
288
330
6C
100
AcDbEntity
  8
Visible (ANSI)
100
AcDbLine
 10
129.8453165293343
 20
70.8508764467901
 30
0.0
 11
129.8453165293343
 21
70.87487068433117
 31
0.0
  0
SPLINE
  5
289
330
6C
100
AcDbEntity
  8
Visible (ANSI)
100
AcDbSpline
210
0.0
220
0.0
230
1.0
 70
    24
 71
     3
 72
     8
 73
     4
 74
     0
 42
0.0000000001
 43
0.0000000001
 40
-0.3175000000000004
 40
-0.3175000000000004
 40
-0.3175000000000004
 40
-0.3175000000000004
 40
-0.1853944325780454
 40
-0.1853944325780454
 40
-0.1853944325780454
 40
-0.1853944325780454
 10
129.998708813914
 20
70.7859463543691
 30
0.0
 10
129.9823636271149
 20
70.77653378729607
 30
0.0
 10
129.9660184403159
 20
70.76712122022306
 30
0.0
 10
129.9496732535169
 20
70.75770865315002
 30
0.0
  0
LINE
  5
28A
330
6C
100
AcDbEntity
  8
Visible (ANSI)
100
AcDbLine
 10
129.8453165293343
 20
70.87487068433117
 30
0.0
 11
127.753411827872
 21
70.87487068433104
 31
0.0
  0
LINE
  5
28B
330
6C
100
AcDbEntity
  8
Visible (ANSI)
100
AcDbLine
 10
127.753411827872
 20
70.85087644678996
 30
0.0
 11
127.753411827872
 21
70.87487068433104
 31
0.0
  0
SPLINE
  5
28C
330
6C
100
AcDbEntity
  8
Visible (ANSI)
100
AcDbSpline
210
0.0
220
0.0
230
1.0
 70
     8
 71
     3
 72
    11
 73
     7
 74
     0
 42
0.0000000001
 43
0.0000000001
 40
0.7873318718200908
 40
0.7873318718200908
 40
0.7873318718200908
 40
0.7873318718200908
 40
1.018582815488625
 40
1.018582815488625
 40
1.018582815488625
 40
1.570796326794868
 40
1.570796326794868
 40
1.570796326794868
 40
1.570796326794868
 10
120.4814838137087
 20
76.21032506710652
 30
0.0
 10
120.4876276657179
 20
76.21399697899062
 30
0.0
 10
120.4946029884351
 20
76.21622940855804
 30
0.0
 10
120.5022799956448
 20
76.21682838178934
 30
0.0
 10
120.5206122326525
 20
76.21825869427148
 30
0.0
 10
120.542533924221
 20
76.21080438672028
 30
0.0
 10
120.5644928858074
 20
76.1953473366946
 30
0.0
  0
SPLINE
  5
28D
330
6C
100
AcDbEntity
  8
Visible (ANSI)
100
AcDbSpline
210
0.0
220
0.0
230
1.0
 70
     8
 71
     3
 72
     8
 73
     4
 74
     0
 42
0.0000000001
 43
0.0000000001
 40
0.0
 40
0.0
 40
0.0
 40
0.0
 40
0.7912825098845188
 40
0.7912825098845188
 40
0.7912825098845188
 40
0.7912825098845188
 10
120.570618398092
 20
76.06255129197487
 30
0.0
 10
120.5671201613467
 20
76.0650220392158
 30
0.0
 10
120.565399977121
 20
76.06626520790134
 30
0.0
 10
120.5646508950257
 20
76.06581250492547
 30
0.0
  0
LINE
  5
28E
330
6C
100
AcDbEntity
  8
Visible (ANSI)
100
AcDbLine
 10
120.5644928858074
 20
76.1953473366946
 30
0.0
 11
120.5644928858077
 21
74.99069953701144
 31
0.0
  0
LINE
  5
28F
330
6C
100
AcDbEntity
  8
Visible (ANSI)
100
AcDbLine
 10
120.5644928858077
 20
74.854441682871
 30
0.0
 11
120.5644928858077
 21
74.99069953701144
 31
0.0
  0
SPLINE
  5
290
330
6C
100
AcDbEntity
  8
Visible (ANSI)
100
AcDbSpline
210
0.0
220
0.0
230
1.0
 70
     8
 71
     3
 72
    11
 73
     7
 74
     0
 42
0.0000000001
 43
0.0000000001
 40
0.0
 40
0.0
 40
0.0
 40
0.0
 40
1.018582815488662
 40
1.018582815488662
 40
1.018582815488662
 40
1.570796326794936
 40
1.570796326794936
 40
1.570796326794936
 40
1.570796326794936
 10
129.8453165293343
 20
70.8508764467901
 30
0.0
 10
129.894827077317
 20
70.82755157253767
 30
0.0
 10
129.9435692114144
 20
70.77610638492071
 30
0.0
 10
129.9716820160599
 20
70.72080117849445
 30
0.0
 10
129.9869230650251
 20
70.690818066891
 30
0.0
 10
129.9962674941927
 20
70.6600805148512
 30
0.0
 10
129.9987088139141
 20
70.63327510807787
 30
0.0
  0
LINE
  5
291
330
6C
100
AcDbEntity
  8
Visible (ANSI)
100
AcDbLine
 10
127.753411827872
 20
70.85087644678996
 30
0.0
 11
129.8453165293343
 21
70.8508764467901
 31
0.0
  0
SPLINE
  5
292
330
6C
100
AcDbEntity
  8
Visible (ANSI)
100
AcDbSpline
210
0.0
220
0.0
230
1.0
 70
     8
 71
     3
 72
    10
 73
     6
 74
     0
 42
0.0000000001
 43
0.0000000001
 40
0.0
 40
0.0
 40
0.0
 40
0.0
 40
0.0122589744718884
 40
0.0122589744718884
 40
0.0152467785195263
 40
0.0152467785195263
 40
0.0152467785195263
 40
0.0152467785195263
 10
120.601523177103
 20
76.06361197700542
 30
0.0
 10
120.6030434865953
 20
76.0646999352148
 30
0.0
 10
120.6043673136101
 20
76.06582869496856
 30
0.0
 10
120.6056853416017
 20
76.06709185629179
 30
0.0
 10
120.6059295892633
 20
76.06733412190775
 30
0.0
 10
120.6061595524741
 20
76.06756918499717
 30
0.0
  0
SPLINE
  5
293
330
6C
100
AcDbEntity
  8
Visible (ANSI)
100
AcDbSpline
210
0.0
220
0.0
230
1.0
 70
     8
 71
     3
 72
    10
 73
     6
 74
     0
 42
0.0000000001
 43
0.0000000001
 40
0.0668604181197845
 40
0.0668604181197845
 40
0.0668604181197845
 40
0.0668604181197845
 40
0.072350806891898
 40
0.072350806891898
 40
0.0821221175207739
 40
0.0821221175207739
 40
0.0821221175207739
 40
0.0821221175207739
 10
120.5644928858074
 20
76.06756950524648
 30
0.0
 10
120.5649165426696
 20
76.06713663762471
 30
0.0
 10
120.5653890678614
 20
76.06667863549164
 30
0.0
 10
120.5668314817369
 20
76.06537057645548
 30
0.0
 10
120.5679174619096
 20
76.06447916027916
 30
0.0
 10
120.5691292611784
 20
76.06361197700543
 30
0.0
  0
ELLIPSE
  5
294
330
6C
100
AcDbEntity
  8
Visible (ANSI)
100
AcDbEllipse
 10
121.8227630862183
 20
45.68647377801614
 30
0.0
 11
0.375
 21
-0.0000000000000225
 31
0.0
210
0.0
220
0.0
230
1.0
 40
0.5758617009853117
 41
0.0
 42
6.283185307179586
  0
ELLIPSE
  5
295
330
6C
100
AcDbEntity
  8
Visible (ANSI)
100
AcDbEllipse
 10
121.8227630862183
 20
45.55021592387571
 30
0.0
 11
0.3749999999999996
 21
-0.0000000000000002
 31
0.0
210
0.0
220
0.0
230
1.0
 40
0.5758617009853119
 41
0.3209702928256472
 42
2.820622360764147
  0
ELLIPSE
  5
296
330
6C
100
AcDbEntity
  8
Visible (ANSI)
100
AcDbEllipse
 10
116.2248344018248
 20
45.51642044955777
 30
0.0
 11
0.375
 21
-0.0000000000000224
 31
0.0
210
0.0
220
0.0
230
1.0
 40
0.5758617009853119
 41
0.0
 42
6.283185307179586
  0
ELLIPSE
  5
297
330
6C
100
AcDbEntity
  8
Visible (ANSI)
100
AcDbEllipse
 10
116.2248344018248
 20
45.38016259541734
 30
0.0
 11
0.375
 21
-0.0000000000000001
 31
0.0
210
0.0
220
0.0
230
1.0
 40
0.5758617009853119
 41
0.3209702928256463
 42
2.820622360764147
  0
ELLIPSE
  5
298
330
6C
100
AcDbEntity
  8
Visible (ANSI)
100
AcDbEllipse
 10
121.7638375211202
 20
42.3267206915183
 30
0.0
 11
0.375
 21
-0.0000000000000224
 31
0.0
210
0.0
220
0.0
230
1.0
 40
0.5758617009853119
 41
0.0
 42
6.283185307179586
  0
ELLIPSE
  5
299
330
6C
100
AcDbEntity
  8
Visible (ANSI)
100
AcDbEllipse
 10
121.7638375211202
 20
42.19046283737786
 30
0.0
 11
0.3749999999999992
 21
0.0
 31
0.0
210
0.0
220
0.0
230
1.0
 40
0.5758617009853119
 41
0.3209702928256466
 42
2.820622360764147
  0
ELLIPSE
  5
29A
330
6C
100
AcDbEntity
  8
Visible (ANSI)
100
AcDbEllipse
 10
122.5887954325049
 20
40.90153569324519
 30
0.0
 11
-0.1666666666666642
 21
0.0000000000000099
 31
0.0
210
0.0
220
0.0
230
1.0
 40
0.5758617009853119
 41
0.7853981633977432
 42
2.356194490192697
  0
LINE
  5
29B
330
6C
100
AcDbEntity
  8
Visible Narrow (ANSI)
100
AcDbLine
 10
122.4709443023072
 20
40.83366974094646
 30
0.0
 11
122.4709443023072
 21
40.69741188680604
 31
0.0
  0
ELLIPSE
  5
29C
330
6C
100
AcDbEntity
  8
Visible (ANSI)
100
AcDbEllipse
 10
122.5887954325049
 20
40.76527783910477
 30
0.0
 11
0.1666666666666651
 21
0.0000000000000099
 31
0.0
210
0.0
220
0.0
230
1.0
 40
0.5758617009853121
 41
3.926990816987107
 42
5.497787143782062
  0
LINE
  5
29D
330
6C
100
AcDbEntity
  8
Visible Narrow (ANSI)
100
AcDbLine
 10
122.7066465627027
 20
40.69741188680605
 30
0.0
 11
122.7066465627027
 21
40.83366974094648
 31
0.0
  0
ELLIPSE
  5
29E
330
6C
100
AcDbEntity
  8
Visible (ANSI)
100
AcDbEllipse
 10
113.7499606676718
 20
45.85522426150819
 30
0.0
 11
-0.1666666666666664
 21
0.0000000000000002
 31
0.0
210
0.0
220
0.0
230
1.0
 40
0.5758617009853121
 41
0.000000000000005
 42
0.7853981633975725
  0
ELLIPSE
  5
29F
330
6C
100
AcDbEntity
  8
Visible (ANSI)
100
AcDbEllipse
 10
113.7499606676718
 20
45.99148211564862
 30
0.0
 11
-0.1666666666666666
 21
0.0
 31
0.0
210
0.0
220
0.0
230
1.0
 40
0.5758617009853119
 41
5.497787143782234
 42
7.068583470577155
  0
LINE
  5
2A0
330
6C
100
AcDbEntity
  8
Visible Narrow (ANSI)
100
AcDbLine
 10
113.632109537474
 20
45.78735830920946
 30
0.0
 11
113.632109537474
 21
45.92361616334988
 31
0.0
  0
ELLIPSE
  5
2A1
330
6C
100
AcDbEntity
  8
Visible (ANSI)
100
AcDbEllipse
 10
120.7032689559696
 20
50.13174640633281
 30
0.0
 11
0.166666666666665
 21
-0.0000000000000099
 31
0.0
210
0.0
220
0.0
230
1.0
 40
0.5758617009853118
 41
0.8248293379544548
 42
2.356194490192697
  0
LINE
  5
2A2
330
6C
100
AcDbEntity
  8
Visible (ANSI)
100
AcDbLine
 10
113.5832940010051
 20
45.85522426150819
 30
0.0
 11
113.5832940010051
 21
45.99148211564862
 31
0.0
  0
LINE
  5
2A3
330
6C
100
AcDbEntity
  8
Visible (ANSI)
100
AcDbLine
 10
122.7066465627027
 20
40.69741188680605
 30
0.0
 11
124.0334254977208
 21
41.46145306115728
 31
0.0
  0
LINE
  5
2A4
330
6C
100
AcDbEntity
  8
Visible (ANSI)
100
AcDbLine
 10
124.0334254977208
 20
41.5977109152977
 30
0.0
 11
122.7066465627027
 21
40.83366974094648
 31
0.0
  0
LINE
  5
2A5
330
6C
100
AcDbEntity
  8
Visible (ANSI)
100
AcDbLine
 10
113.632109537474
 20
45.78735830920946
 30
0.0
 11
122.4709443023072
 21
40.69741188680604
 31
0.0
  0
LINE
  5
2A6
330
6C
100
AcDbEntity
  8
Visible (ANSI)
100
AcDbLine
 10
113.632109537474
 20
46.05934806794732
 30
0.0
 11
114.9588884724921
 21
46.82338924229854
 31
0.0
  0
LINE
  5
2A7
330
6C
100
AcDbEntity
  8
Visible (ANSI)
100
AcDbLine
 10
122.4709443023072
 20
40.83366974094646
 30
0.0
 11
113.632109537474
 21
45.92361616334988
 31
0.0
  0
ELLIPSE
  5
2A8
330
6C
100
AcDbEntity
  8
Visible (ANSI)
100
AcDbEllipse
 10
124.0334254977208
 20
41.61471589549442
 30
0.0
 11
0.0935519052649711
 21
0.1624555081627107
 31
0.0
210
0.0
220
0.0
230
0.9999999999999998
 40
0.578093115915639
 41
3.925057108563866
 42
4.710455271961564
  0
ELLIPSE
  5
2A9
330
6C
100
AcDbEntity
  8
Visible (ANSI)
100
AcDbEllipse
 10
124.0334254977208
 20
41.61471589549442
 30
0.0
 11
0.0103798700009492
 21
0.0180249354718217
 31
0.0
210
0.0
220
0.0
230
1.0
 40
0.5780931159156388
 41
3.925057108564035
 42
4.710455271961504
  0
ELLIPSE
  5
2AA
330
6C
100
AcDbEntity
  8
Visible (ANSI)
100
AcDbEllipse
 10
114.9588884724921
 20
46.84039422249528
 30
0.0
 11
0.0103798700009501
 21
0.0180249354718233
 31
0.0
210
0.0
220
0.0
230
0.9999999999999998
 40
0.5780931159156389
 41
3.925057108564035
 42
4.710455271961504
  0
LINE
  5
2AB
330
6C
100
AcDbEntity
  8
Visible Narrow (ANSI)
100
AcDbLine
 10
124.0438254977208
 20
41.60868052037363
 30
0.0
 11
114.9692884724921
 21
46.83435884737447
 31
0.0
  0
LINE
  5
2AC
330
6C
100
AcDbEntity
  8
Visible Narrow (ANSI)
100
AcDbLine
 10
124.0334254977208
 20
41.5977109152977
 30
0.0
 11
114.9588884724921
 21
46.82338924229854
 31
0.0
  0
LINE
  5
2AD
330
6C
100
AcDbEntity
  8
Visible (ANSI)
100
AcDbLine
 10
124.2017575952279
 20
41.68952877808103
 30
0.0
 11
124.1271588310541
 21
41.56032014280312
 31
0.0
  0
LINE
  5
2AE
330
6C
100
AcDbEntity
  8
Visible (ANSI)
100
AcDbLine
 10
124.0438254977208
 20
41.60868052037363
 30
0.0
 11
124.1184242618946
 21
41.73788915565153
 31
0.0
  0
LINE
  5
2AF
330
6C
100
AcDbEntity
  8
Visible (ANSI)
100
AcDbLine
 10
115.0438872366658
 20
46.96356748265238
 30
0.0
 11
114.9692884724921
 21
46.83435884737447
 31
0.0
  0
ELLIPSE
  5
2B0
330
6C
100
AcDbEntity
  8
Visible (ANSI)
100
AcDbEllipse
 10
124.2121575952279
 20
41.68349340296023
 30
0.0
 11
0.0103798700009504
 21
0.0180249354718213
 31
0.0
210
0.0
220
0.0
230
0.9999999999999998
 40
0.578093115915639
 41
0.7834644549759365
 42
1.568862618372053
  0
ELLIPSE
  5
2B1
330
6C
100
AcDbEntity
  8
Visible (ANSI)
100
AcDbEllipse
 10
124.2121575952279
 20
41.68349340296023
 30
0.0
 11
0.0935519052649808
 21
0.162455508162705
 31
0.0
210
0.0
220
0.0
230
1.0
 40
0.578093115915639
 41
0.7834644549745847
 42
1.568862618371857
  0
ELLIPSE
  5
2B2
330
6C
100
AcDbEntity
  8
Visible (ANSI)
100
AcDbEllipse
 10
115.1376205699992
 20
46.90917172996107
 30
0.0
 11
0.0935519052649818
 21
0.1624555081627067
 31
0.0
210
0.0
220
0.0
230
0.9999999999999998
 40
0.578093115915643
 41
0.7834644549744106
 42
1.568862618371857
  0
LINE
  5
2B3
330
6C
100
AcDbEntity
  8
Visible Narrow (ANSI)
100
AcDbLine
 10
124.2121575952279
 20
41.83675623729736
 30
0.0
 11
115.1376205699992
 21
47.06243456429823
 31
0.0
  0
LINE
  5
2B4
330
6C
100
AcDbEntity
  8
Visible Narrow (ANSI)
100
AcDbLine
 10
124.1184242618946
 20
41.73788915565153
 30
0.0
 11
115.0438872366658
 21
46.96356748265238
 31
0.0
  0
LINE
  5
2B5
330
6C
100
AcDbEntity
  8
Visible (ANSI)
100
AcDbLine
 10
124.3368429155746
 20
41.77229988381972
 30
0.0
 11
124.2121575952279
 21
41.70049838315693
 31
0.0
  0
LINE
  5
2B6
330
6C
100
AcDbEntity
  8
Visible (ANSI)
100
AcDbLine
 10
124.2121575952279
 20
41.83675623729736
 30
0.0
 11
124.3269641147499
 21
41.90286891491356
 31
0.0
  0
LINE
  5
2B7
330
6C
100
AcDbEntity
  8
Visible (ANSI)
100
AcDbLine
 10
120.5854178257719
 20
50.19961235863153
 30
0.0
 11
115.1376205699992
 21
47.06243456429823
 31
0.0
  0
LINE
  5
2B8
330
6C
100
AcDbEntity
  8
Visible Narrow (ANSI)
100
AcDbLine
 10
120.8163826751644
 20
50.20223494668907
 30
0.0
 11
123.8303545369147
 21
48.46660398366019
 31
0.0
  0
DIMENSION
  5
2B9
330
6C
100
AcDbEntity
  8
Dimension (ANSI)
100
AcDbDimension
  2
*D4
 10
48.09084370320217
 20
33.94390581041136
 30
0.0
 11
48.09084370320216
 21
45.94384273981225
 31
0.0
 70
   160
  1
<>{\PHEIGHT}
 71
     5
 42
23.99987385880177
  3
Default (ANSI)
100
AcDbAlignedDimension
 13
51.24045000241476
 23
57.94377966921313
 33
0.0
 14
51.47485000241474
 24
33.94390581041136
 34
0.0
 50
90.0
100
AcDbRotatedDimension
1001
ACAD
1000
DSTYLE
1002
{
1070
   289
1070
     1
1070
   271
1070
     2
1070
   272
1070
     2
1070
    48
1040
0.0
1070
    47
1040
0.0
1002
}
  0
DIMENSION
  5
3BA
330
6C
100
AcDbEntity
  8
Dimension (ANSI)
100
AcDbDimension
  2
*D5
 10
61.22485000241502
 20
59.77168360622102
 30
0.0
 11
56.16235000241489
 21
59.77168360622102
 31
0.0
 70
   160
  1
<>{\PWIDTH}
 71
     5
 42
10.12500000000026
  3
Default (ANSI)
100
AcDbAlignedDimension
 13
51.09985000241476
 23
57.80317966921314
 33
0.0
 14
61.22485000241502
 24
57.80317966921314
 34
0.0
100
AcDbRotatedDimension
1001
ACAD
1000
DSTYLE
1002
{
1070
   289
1070
     1
1070
    73
1070
     0
1070
    74
1070
     0
1070
   271
1070
     2
1070
   272
1070
     2
1070
    48
1040
0.0
1070
    47
1040
0.0
1002
}
  0
DIMENSION
  5
4B8
330
6C
100
AcDbEntity
  8
Dimension (ANSI)
100
AcDbDimension
  2
*D6
 10
23.33191717337718
 20
60.95278596842574
 30
0.0
 11
19.33191717337717
 21
60.95278596842574
 31
0.0
 70
   160
  1
<>
 42
8.000000000000007
  3
Default (ANSI)
100
AcDbAlignedDimension
 13
15.33191717337717
 23
57.80317966921314
 33
0.0
 14
23.33191717337718
 24
57.94377966921313
 34
0.0
100
AcDbRotatedDimension
1001
ACAD
1000
DSTYLE
1002
{
1070
   289
1070
     1
1070
    73
1070
     0
1070
    74
1070
     0
1070
   271
1070
     2
1070
   272
1070
     2
1070
    48
1040
0.0
1070
    47
1040
0.0
1002
}
  0
DIMENSION
  5
5A2
330
6C
100
AcDbEntity
  8
Dimension (ANSI)
100
AcDbDimension
  2
*D7
 10
25.32067115950094
 20
60.96554973676627
 30
0.0
 11
26.2850093570237
 21
60.03858613677441
 31
0.0
 70
   165
  1
<>
 42
1.487167430158831
  3
Default (ANSI)
100
AcDb3PointAngularDimension
 13
23.84370288466912
 23
57.94377966921313
 33
0.0
 14
23.38546860976681
 24
58.44203223991103
 34
0.0
 15
23.34370288466912
 25
57.94377966921313
 35
0.0
1001
ACAD_DSTYLE_DIMANGULAR_EXTENSION
1070
   387
1070
     1
1001
ACAD
1000
DSTYLE
1002
{
1070
   179
1070
     0
1070
   272
1070
     0
1070
    48
1040
0.0
1070
    47
1040
0.0
1002
}
  0
DIMENSION
  5
6CB
330
6C
100
AcDbEntity
  8
Dimension (ANSI)
100
AcDbDimension
  2
*D8
 10
61.22485000242143
 20
71.9820704635221
 30
0.0
 11
66.17071311041808
 21
71.9820704635221
 31
0.0
 70
   160
  1
<>{\P(2 PL.)}
 71
     5
 42
1.249999999999992
  3
Default (ANSI)
100
AcDbAlignedDimension
 13
59.97485000242143
 23
70.70764839148703
 33
0.0
 14
61.22485000242143
 24
70.63527776255803
 34
0.0
100
AcDbRotatedDimension
1001
ACAD
1000
DSTYLE
1002
{
1070
   289
1070
     1
1070
    73
1070
     0
1070
    74
1070
     0
1070
   271
1070
     2
1070
    76
1070
     1
1070
    75
1070
     1
1070
   272
1070
     2
1070
    48
1040
0.0
1070
    47
1040
0.0
1002
}
  0
DIMENSION
  5
7BA
330
6C
100
AcDbEntity
  8
Dimension (ANSI)
100
AcDbDimension
  2
*D9
 10
51.71219085601326
 20
68.11517733453674
 30
0.0
 11
53.91346569613745
 21
71.52286145186497
 31
0.0
 70
   160
  1
<>
 42
1.249999999999957
  3
Default (ANSI)
100
AcDbAlignedDimension
 13
53.92831576420971
 23
69.36517733453669
 33
0.0
 14
54.05639534250234
 24
68.11517733453674
 34
0.0
 50
270.0
100
AcDbRotatedDimension
1001
ACAD
1000
DSTYLE
1002
{
1070
   289
1070
     1
1070
   271
1070
     2
1070
    76
1070
     1
1070
    75
1070
     1
1070
   272
1070
     2
1070
    48
1040
0.0
1070
    47
1040
0.0
1002
}
  0
LINE
  5
8AF
330
6C
100
AcDbEntity
  8
Center Mark (ANSI)
  6
CHAIN
 48
0.1778417080640793
100
AcDbLine
 10
51.78735000240782
 20
16.84597062426076
 30
0.0
 11
51.78735000240782
 21
14.28347062426076
 31
0.0
  0
LINE
  5
8B0
330
6C
100
AcDbEntity
  8
Center Mark (ANSI)
  6
CHAIN
 48
0.1778417080640793
100
AcDbLine
 10
51.78735000240782
 20
21.84597062426076
 30
0.0
 11
51.78735000240782
 21
19.28347062426076
 31
0.0
  0
LINE
  5
8B1
330
6C
100
AcDbEntity
  8
Centerline (ANSI)
  6
CHAIN
 48
0.5250450372695923
100
AcDbLine
 10
51.78735000240782
 20
14.28347062426076
 30
0.0
 11
51.78735000240782
 21
21.84597062426076
 31
0.0
  0
LINE
  5
8B2
330
6C
100
AcDbEntity
  8
Center Mark (ANSI)
  6
CHAIN
 48
0.1778417080640793
100
AcDbLine
 10
53.34985000240783
 20
23.15847062426078
 30
0.0
 11
53.34985000240783
 21
20.59597062426078
 31
0.0
  0
LINE
  5
8B3
330
6C
100
AcDbEntity
  8
Center Mark (ANSI)
  6
CHAIN
 48
0.1778417080640793
100
AcDbLine
 10
58.97485000240784
 20
23.15847062426078
 30
0.0
 11
58.97485000240784
 21
20.59597062426078
 31
0.0
  0
LINE
  5
8B4
330
6C
100
AcDbEntity
  8
Centerline (ANSI)
  6
CHAIN
 48
0.9524481296539306
100
AcDbLine
 10
52.06860000240783
 20
21.87722062426078
 30
0.0
 11
60.25610000240785
 21
21.87722062426078
 31
0.0
  0
LINE
  5
8B5
330
6C
100
AcDbEntity
  8
Center Mark (ANSI)
  6
CHAIN
 48
0.1778417080640793
100
AcDbLine
 10
60.5373500024079
 20
21.84597062426075
 30
0.0
 11
60.5373500024079
 21
19.28347062426075
 31
0.0
  0
LINE
  5
8B6
330
6C
100
AcDbEntity
  8
Center Mark (ANSI)
  6
CHAIN
 48
0.1778417080640793
100
AcDbLine
 10
60.53735000240807
 20
16.84597062426075
 30
0.0
 11
60.53735000240807
 21
14.28347062426075
 31
0.0
  0
LINE
  5
8B7
330
6C
100
AcDbEntity
  8
Centerline (ANSI)
  6
CHAIN
 48
0.5250450372695923
100
AcDbLine
 10
60.53735000240785
 20
21.84597062426075
 30
0.0
 11
60.53735000240811
 21
14.28347062426075
 31
0.0
  0
DIMENSION
  5
8B8
330
6C
100
AcDbEntity
  8
Dimension (ANSI)
100
AcDbDimension
  2
*D10
 10
40.531788585085
 20
20.56472062426076
 30
0.0
 11
40.53178858508499
 21
21.56472062426075
 31
0.0
 70
   160
  1
<>
 42
1.999999999999964
  3
Default (ANSI)
100
AcDbAlignedDimension
 13
51.24045000240784
 23
22.56472062426073
 33
0.0
 14
50.50610000240782
 24
20.56472062426076
 34
0.0
 50
270.0
100
AcDbRotatedDimension
1001
ACAD
1000
DSTYLE
1002
{
1070
   289
1070
     1
1070
   271
1070
     2
1070
   272
1070
     2
1070
    48
1040
0.0
1070
    47
1040
0.0
1002
}
  0
DIMENSION
  5
9AA
330
6C
100
AcDbEntity
  8
Dimension (ANSI)
100
AcDbDimension
  2
*D11
 10
37.29916102602987
 20
15.56472062426077
 30
0.0
 11
37.29916102602987
 21
19.06472062426074
 31
0.0
 70
   160
  1
<>
 42
6.99999999999996
  3
Default (ANSI)
100
AcDbAlignedDimension
 13
51.24045000240784
 23
22.56472062426073
 33
0.0
 14
50.50610000240782
 24
15.56472062426076
 34
0.0
 50
270.0
100
AcDbRotatedDimension
1001
ACAD
1000
DSTYLE
1002
{
1070
   289
1070
     1
1070
   271
1070
     2
1070
   272
1070
     2
1070
    48
1040
0.0
1070
    47
1040
0.0
1002
}
  0
DIMENSION
  5
A9A
330
6C
100
AcDbEntity
  8
Dimension (ANSI)
100
AcDbDimension
  2
*D12
 10
41.63877716771525
 20
21.87722062426078
 30
0.0
 11
43.87814724650233
 21
24.72240474158902
 31
0.0
 70
   160
  1
<>
 42
0.6874999999999467
  3
Default (ANSI)
100
AcDbAlignedDimension
 13
51.24045000240782
 23
22.56472062426073
 33
0.0
 14
52.06860000240783
 24
21.87722062426078
 34
0.0
 50
270.0
100
AcDbRotatedDimension
1001
ACAD
1000
DSTYLE
1002
{
1070
   289
1070
     1
1070
   271
1070
     2
1070
   272
1070
     2
1070
    48
1040
0.0
1070
    47
1040
0.0
1002
}
  0
DIMENSION
  5
B9A
330
6C
100
AcDbEntity
  8
Dimension (ANSI)
100
AcDbDimension
  2
*D13
 10
58.97485000240784
 20
25.0341030479413
 30
0.0
 11
64.81783771813645
 21
25.0341030479413
 31
0.0
 70
   160
  1
<>
 42
2.249999999999978
  3
Default (ANSI)
100
AcDbAlignedDimension
 13
61.22485000240782
 23
22.42412062426073
 33
0.0
 14
58.97485000240784
 24
23.15847062426078
 34
0.0
 50
180.0
100
AcDbRotatedDimension
1001
ACAD
1000
DSTYLE
1002
{
1070
   289
1070
     1
1070
    73
1070
     0
1070
    74
1070
     0
1070
   271
1070
     2
1070
   272
1070
     2
1070
    48
1040
0.0
1070
    47
1040
0.0
1002
}
  0
DIMENSION
  5
C84
330
6C
100
AcDbEntity
  8
Dimension (ANSI)
100
AcDbDimension
  2
*D14
 10
53.34985000240783
 20
25.0341030479413
 30
0.0
 11
47.50686228667919
 21
25.0341030479413
 31
0.0
 70
   160
  1
<>
 42
2.25
  3
Default (ANSI)
100
AcDbAlignedDimension
 13
51.09985000240783
 23
22.42412062426073
 33
0.0
 14
53.34985000240783
 24
23.15847062426078
 34
0.0
100
AcDbRotatedDimension
1001
ACAD
1000
DSTYLE
1002
{
1070
   289
1070
     1
1070
    73
1070
     0
1070
    74
1070
     0
1070
   271
1070
     2
1070
   272
1070
     2
1070
    48
1040
0.0
1070
    47
1040
0.0
1002
}
  0
LINE
  5
D6E
330
6C
100
AcDbEntity
  8
Centerline (ANSI)
  6
CHAIN
 48
0.9524481296539306
100
AcDbLine
 10
50.50610000240782
 20
20.56472062426077
 30
0.0
 11
61.81860000240789
 21
20.56472062426075
 31
0.0
  0
LINE
  5
D6F
330
6C
100
AcDbEntity
  8
Centerline (ANSI)
  6
CHAIN
 48
0.9524481296539306
100
AcDbLine
 10
50.50610000240782
 20
15.56472062426077
 30
0.0
 11
61.81860000240806
 21
15.56472062426075
 31
0.0
  0
DIMENSION
  5
D70
330
6C
100
AcDbEntity
  8
Dimension (ANSI)
100
AcDbDimension
  2
*D15
 10
51.78735000240782
 20
12.61428115231361
 30
0.0
 11
46.15398689441116
 21
12.61428115231361
 31
0.0
 70
   160
  1
<>{\P(2 PL.)}
 71
     5
 42
0.6875
  3
Default (ANSI)
100
AcDbAlignedDimension
 13
51.09985000240782
 23
14.56472062426072
 33
0.0
 14
51.78735000240782
 24
14.28347062426076
 34
0.0
100
AcDbRotatedDimension
1001
ACAD
1000
DSTYLE
1002
{
1070
   289
1070
     1
1070
    73
1070
     0
1070
    74
1070
     0
1070
   271
1070
     2
1070
   272
1070
     2
1070
    48
1040
0.0
1070
    47
1040
0.0
1002
}
  0
DIMENSION
  5
E6E
330
6C
100
AcDbEntity
  8
Dimension (ANSI)
100
AcDbDimension
  2
*D16
 10
60.3638891410024
 20
15.34333206976796
 30
0.0
 11
66.11726182250681
 21
18.26370599506088
 31
0.0
 70
   163
  1
<>{\P(6 PL.)}
 71
     5
 42
0.5625
  3
Default (ANSI)
100
AcDbDiametricDimension
 15
60.71081086381375
 25
15.78610917875352
 35
0.0
 40
0.0
1001
ACAD
1000
DSTYLE
1002
{
1070
   144
1040
1.000000000000012
1070
   271
1070
     3
1070
   272
1070
     2
1070
    48
1040
0.0
1070
    47
1040
0.0
1002
}
1001
ACAD_DSTYLE_DIMRADIAL_EXTENSION
1070
   387
1070
     1
1070
   388
1040
0.0
1070
   390
1040
0.0
  0
LINE
  5
F28
330
6C
100
AcDbEntity
  8
Center Mark (ANSI)
  6
CHAIN
 48
0.1778417080640793
100
AcDbLine
 10
53.22485000242132
 20
76.1464273345367
 30
0.0
 11
53.22485000242132
 21
73.58392733453668
 31
0.0
  0
LINE
  5
F29
330
6C
100
AcDbEntity
  8
Center Mark (ANSI)
  6
CHAIN
 48
0.1778417080640793
100
AcDbLine
 10
59.09985000242131
 20
76.1464273345367
 30
0.0
 11
59.09985000242131
 21
73.58392733453668
 31
0.0
  0
LINE
  5
F2A
330
6C
100
AcDbEntity
  8
Centerline (ANSI)
  6
CHAIN
 48
0.9524481296539306
100
AcDbLine
 10
51.94360000242131
 20
74.8651773345367
 30
0.0
 11
60.38110000242131
 21
74.8651773345367
 31
0.0
  0
LINE
  5
F2B
330
6C
100
AcDbEntity
  8
Center Mark (ANSI)
  6
CHAIN
 48
0.1778417080640793
100
AcDbLine
 10
57.44360000242132
 20
71.86517733453674
 30
0.0
 11
54.88110000242132
 21
71.86517733453674
 31
0.0
  0
LINE
  5
F2C
330
6C
100
AcDbEntity
  8
Center Mark (ANSI)
  6
CHAIN
 48
0.1778417080640793
100
AcDbLine
 10
56.16235000242132
 20
73.14642733453673
 30
0.0
 11
56.16235000242132
 21
70.58392733453674
 31
0.0
  0
DIMENSION
  5
F2D
330
6C
100
AcDbEntity
  8
Dimension (ANSI)
100
AcDbDimension
  2
*D17
 10
53.22485000242132
 20
79.32126777049656
 30
0.0
 11
47.50686228669269
 21
79.32126777049656
 31
0.0
 70
   160
  1
<>
 42
2.124999999999985
  3
Default (ANSI)
100
AcDbAlignedDimension
 13
51.09985000242133
 23
76.11517733454377
 33
0.0
 14
53.22485000242132
 24
76.1464273345367
 34
0.0
 50
180.0
100
AcDbRotatedDimension
1001
ACAD
1000
DSTYLE
1002
{
1070
   289
1070
     1
1070
    73
1070
     0
1070
    74
1070
     0
1070
   271
1070
     2
1070
   272
1070
     2
1070
    48
1040
0.0
1070
    47
1040
0.0
1002
}
  0
DIMENSION
  5
1017
330
6C
100
AcDbEntity
  8
Dimension (ANSI)
100
AcDbDimension
  2
*D18
 10
56.16235000242132
 20
81.72256203162298
 30
0.0
 11
48.29426386149584
 21
81.72256203162298
 31
0.0
 70
   160
  1
<>
 42
5.062499999999985
  3
Default (ANSI)
100
AcDbAlignedDimension
 13
51.09985000242133
 23
76.11517733454377
 33
0.0
 14
56.16235000242132
 24
73.14642733453673
 34
0.0
 50
180.0
100
AcDbRotatedDimension
1001
ACAD
1000
DSTYLE
1002
{
1070
   289
1070
     2
1070
    73
1070
     0
1070
    74
1070
     0
1070
   271
1070
     2
1070
   272
1070
     2
1070
    48
1040
0.0
1070
    47
1040
0.0
1002
}
  0
DIMENSION
  5
1101
330
6C
100
AcDbEntity
  8
Dimension (ANSI)
100
AcDbDimension
  2
*D19
 10
59.09985000242131
 20
79.32126777049656
 30
0.0
 11
64.81783771815023
 21
79.32126777049656
 31
0.0
 70
   160
  1
<>
 42
2.125000000000291
  3
Default (ANSI)
100
AcDbAlignedDimension
 13
61.22485000242161
 23
76.11517733454377
 33
0.0
 14
59.09985000242131
 24
76.1464273345367
 34
0.0
 50
180.0
100
AcDbRotatedDimension
1001
ACAD
1000
DSTYLE
1002
{
1070
   289
1070
     1
1070
    73
1070
     0
1070
    74
1070
     0
1070
   271
1070
     2
1070
   272
1070
     2
1070
    48
1040
0.0
1070
    47
1040
0.0
1002
}
  0
DIMENSION
  5
11EB
330
6C
100
AcDbEntity
  8
Dimension (ANSI)
100
AcDbDimension
  2
*D20
 10
48.26175476380537
 20
74.8651773345367
 30
0.0
 11
46.06047992368117
 21
72.70749321720841
 31
0.0
 70
   160
  1
<>
 42
1.250000000007077
  3
Default (ANSI)
100
AcDbAlignedDimension
 13
51.09985000242133
 23
76.11517733454377
 33
0.0
 14
51.94360000242131
 24
74.8651773345367
 34
0.0
 50
90.0
100
AcDbRotatedDimension
1001
ACAD
1000
DSTYLE
1002
{
1070
   289
1070
     1
1070
   271
1070
     2
1070
   272
1070
     2
1070
    48
1040
0.0
1070
    47
1040
0.0
1002
}
  0
DIMENSION
  5
12E9
330
6C
100
AcDbEntity
  8
Dimension (ANSI)
100
AcDbDimension
  2
*D21
 10
42.28095236462606
 20
71.86517733453674
 30
0.0
 11
42.28095236462606
 21
73.99017733454027
 31
0.0
 70
   160
  1
<>
 42
4.250000000007034
  3
Default (ANSI)
100
AcDbAlignedDimension
 13
51.09985000242133
 23
76.11517733454377
 33
0.0
 14
54.88110000242132
 24
71.86517733453674
 34
0.0
 50
90.0
100
AcDbRotatedDimension
1001
ACAD
1000
DSTYLE
1002
{
1070
   289
1070
     1
1070
   271
1070
     2
1070
   272
1070
     2
1070
    48
1040
0.0
1070
    47
1040
0.0
1002
}
  0
DIMENSION
  5
13D3
330
6C
100
AcDbEntity
  8
Dimension (ANSI)
100
AcDbDimension
  2
*D22
 10
55.97880060868501
 20
72.07827633162266
 30
0.0
 11
64.62960247233747
 21
66.05786927412141
 31
0.0
 70
   163
  1
<>{\P(3 PL.)}
 71
     5
 42
0.5625
  3
Default (ANSI)
100
AcDbDiametricDimension
 15
56.34589939615768
 25
71.6520783374508
 35
0.0
 40
0.0
1001
ACAD
1000
DSTYLE
1002
{
1070
   144
1040
0.9999999999999747
1070
   271
1070
     3
1070
   272
1070
     3
1070
    48
1040
0.0
1070
    47
1040
0.0
1002
}
1001
ACAD_DSTYLE_DIMRADIAL_EXTENSION
1070
   387
1070
     1
1070
   388
1040
0.0
1070
   390
1040
0.0
  0
DIMENSION
  5
148C
330
6C
100
AcDbEntity
  8
Dimension (ANSI)
100
AcDbDimension
  2
*D23
 10
23.08191717337724
 20
32.36264994697355
 30
0.0
 11
19.2069171733772
 21
32.36264994697355
 31
0.0
 70
   160
  1
<>
 42
7.750000000000071
  3
Default (ANSI)
100
AcDbAlignedDimension
 13
15.33191717337717
 23
34.08437966921314
 33
0.0
 14
23.08191717337724
 24
33.94390581041136
 34
0.0
100
AcDbRotatedDimension
1001
ACAD
1000
DSTYLE
1002
{
1070
   289
1070
     1
1070
    73
1070
     0
1070
    74
1070
     0
1070
   271
1070
     2
1070
   272
1070
     2
1070
    48
1040
0.0
1070
    47
1040
0.0
1002
}
  0
MTEXT
  5
1576
102
{ACAD_XDICTIONARY
360
1582
102
}
330
6C
100
AcDbEntity
  8
Symbol (ANSI)
100
AcDbMText
 10
75.69775734914504
 20
6.725852710824464
 30
0.0
 40
0.8000000255314382
 41
59.06709686039003
 71
     4
 72
     1
  3
{\fRomanS|b0|i0|c0|p2;\H2x;PART#: SSFK2410\P(DATA SUBJECT TO CHANGE WITHOUT NOTICE)\H1.6157x; \H0.61894x;\P \H1.352x; \H0.73963x;\P\H0.6x;THIS DRAWING IS PROPERTY OF HUBBELL INC. WIEGMANN\H1.5633x; \H0.63966x;\PALL INFORMATION IS PROPRIETARY AND NOT 
  1
TO BE DUPLICATED\H1.234x; \H0.81039x;\P\H1.2571x; }
  7
Note Text (ANSI)
 73
     1
 44
0.8026435375213623
  0
ENDSEC
  0
SECTION
  2
OBJECTS
  0
DICTIONARY
  5
C
330
0
100
AcDbDictionary
281
     1
  3
ACAD_CIP_PREVIOUS_PRODUCT_INFO
350
1578
  3
ACAD_COLOR
350
63
  3
ACAD_GROUP
350
D
  3
ACAD_LAYOUT
350
62
  3
ACAD_MATERIAL
350
10
  3
ACAD_MLEADERSTYLE
350
66
  3
ACAD_MLINESTYLE
350
5F
  3
ACAD_PLOTSETTINGS
350
61
  3
ACAD_PLOTSTYLENAME
350
E
  3
ACAD_SCALELIST
350
42
  3
ACAD_TABLESTYLE
350
64
  3
ACAD_VISUALSTYLE
350
29
  3
ACDB_RECOMPOSE_DATA
350
1584
  3
AcDbVariableDictionary
350
76
  0
DICTIONARY
  5
15BA
330
F22
100
AcDbDictionary
280
     1
281
     1
  3
ACAD_MTEXT_2008_RT
360
15BB
  0
DICTIONARY
  5
15BC
330
1486
100
AcDbDictionary
280
     1
281
     1
  3
ACAD_MTEXT_2008_RT
360
15BD
  0
DICTIONARY
  5
1582
330
1576
100
AcDbDictionary
280
     1
281
     1
  3
ACAD_MTEXT_2008_RT
360
1583
  0
XRECORD
  5
1578
102
{ACAD_REACTORS
330
C
102
}
330
C
100
AcDbXrecord
280
     1
300
INVNTOR
300
2012
300
PDSP_F_S
  0
DICTIONARY
  5
63
102
{ACAD_REACTORS
330
C
102
}
330
C
100
AcDbDictionary
281
     1
  0
DICTIONARY
  5
D
102
{ACAD_REACTORS
330
C
102
}
330
C
100
AcDbDictionary
281
     1
  0
DICTIONARY
  5
62
102
{ACAD_REACTORS
330
C
102
}
330
C
100
AcDbDictionary
281
     1
  3
Layout1
350
6B
  3
Layout2
350
73
  3
Model
350
6F
  0
DICTIONARY
  5
10
102
{ACAD_REACTORS
330
C
102
}
330
C
100
AcDbDictionary
281
     1
  3
ByBlock
350
19
  3
ByLayer
350
11
  3
Global
350
21
  0
DICTIONARY
  5
66
102
{ACAD_REACTORS
330
C
102
}
330
C
100
AcDbDictionary
281
     1
  3
Standard
350
67
  0
DICTIONARY
  5
5F
102
{ACAD_REACTORS
330
C
102
}
330
C
100
AcDbDictionary
281
     1
  3
Standard
350
60
  0
DICTIONARY
  5
61
102
{ACAD_REACTORS
330
C
102
}
330
C
100
AcDbDictionary
281
     1
  0
ACDBDICTIONARYWDFLT
  5
E
102
{ACAD_REACTORS
330
C
102
}
330
C
100
AcDbDictionary
281
     1
  3
Normal
350
F
100
AcDbDictionaryWithDefault
340
F
  0
DICTIONARY
  5
42
102
{ACAD_REACTORS
330
C
102
}
330
C
100
AcDbDictionary
281
     1
  3
A0
350
43
  3
A1
350
44
  3
A2
350
45
  3
A3
350
46
  3
A4
350
47
  3
A5
350
48
  3
A6
350
49
  3
A7
350
4A
  3
A8
350
4B
  3
A9
350
4C
  3
B0
350
4D
  3
B1
350
4E
  3
B2
350
4F
  3
B3
350
50
  3
B4
350
51
  3
B5
350
52
  3
B6
350
53
  0
DICTIONARY
  5
64
102
{ACAD_REACTORS
330
C
102
}
330
C
100
AcDbDictionary
281
     1
  3
Standard
350
65
  0
DICTIONARY
  5
29
102
{ACAD_REACTORS
330
C
102
}
330
C
100
AcDbDictionary
281
     1
  3
2dWireframe
350
2F
  3
Basic
350
2E
  3
Brighten
350
35
  3
ColorChange
350
39
  3
Conceptual
350
32
  3
Dim
350
34
  3
EdgeColorOff
350
41
  3
Facepattern
350
38
  3
Flat
350
2A
  3
FlatWithEdges
350
2B
  3
Gouraud
350
2C
  3
GouraudWithEdges
350
2D
  3
Hidden
350
31
  3
JitterOff
350
3F
  3
Linepattern
350
37
  3
OverhangOff
350
40
  3
Realistic
350
33
  3
Shaded
350
3E
  3
Shaded with edges
350
3D
  3
Shades of Gray
350
3A
  3
Sketchy
350
3B
  3
Thicken
350
36
  3
Wireframe
350
30
  3
X-Ray
350
3C
  0
XRECORD
  5
1584
102
{ACAD_REACTORS
330
C
102
}
330
C
100
AcDbXrecord
280
     1
 90
        1
330
65
330
1017
330
1576
  0
DICTIONARY
  5
76
102
{ACAD_REACTORS
330
C
102
}
330
C
100
AcDbDictionary
281
     1
  3
CANNOSCALE
350
79
  3
CMLEADERSTYLE
350
78
  3
CTABLESTYLE
350
77
  3
LAYEREVAL
350
157B
  3
LAYERNOTIFY
350
157C
  3
LIGHTINGUNITS
350
157A
  3
MSLTSCALE
350
1579
  3
XCLIPFRAME
350
157D
  0
XRECORD
  5
15BB
102
{ACAD_REACTORS
330
15BA
102
}
330
15BA
100
AcDbXrecord
280
     1
 40
24491.0
  1
\A1;\U+22050.563{\P(6 PL.)}
  0
XRECORD
  5
15BD
102
{ACAD_REACTORS
330
15BC
102
}
330
15BC
100
AcDbXrecord
280
     1
 40
24428.0
  1
\A1;\U+22050.563{\P(3 PL.)}
  0
XRECORD
  5
1583
102
{ACAD_REACTORS
330
1582
102
}
330
1582
100
AcDbXrecord
280
     1
 40
3068805.0
  1
\pxsm0.94;{\fRomanS|b0|i0;\H1.6000;PART#: SSFK2410\P(DATA SUBJECT TO CHANGE WITHOUT NOTICE)\P \P\fRomanS|b0|i0;\H0.9600;THIS DRAWING IS PROPERTY OF HUBBELL INC. WIEGMANN\PALL INFORMATION IS PROPRIETARY AND NOT TO BE DUPLICATED\P}
  0
LAYOUT
  5
6B
102
{ACAD_REACTORS
330
62
102
}
330
62
100
AcDbPlotSettings
  1

  2

  4

  6

 40
0.0
 41
0.0
 42
0.0
 43
0.0
 44
0.0
 45
0.0
 46
0.0
 47
0.0
 48
0.0
 49
0.0
140
0.0
141
0.0
142
1.0
143
1.0
 70
   688
 72
     0
 73
     0
 74
     5
  7

 75
    16
147
1.0
 76
     0
 77
     2
 78
   300
148
0.0
149
0.0
100
AcDbLayout
  1
Layout1
 70
     1
 71
     1
 10
0.0
 20
0.0
 11
12.0
 21
9.0
 12
0.0
 22
0.0
 32
0.0
 14
0.0
 24
0.0
 34
0.0
 15
0.0
 25
0.0
 35
0.0
146
0.0
 13
0.0
 23
0.0
 33
0.0
 16
1.0
 26
0.0
 36
0.0
 17
0.0
 27
1.0
 37
0.0
 76
     0
330
68
  0
LAYOUT
  5
73
102
{ACAD_REACTORS
330
62
102
}
330
62
100
AcDbPlotSettings
  1

  2

  4

  6

 40
0.0
 41
0.0
 42
0.0
 43
0.0
 44
0.0
 45
0.0
 46
0.0
 47
0.0
 48
0.0
 49
0.0
140
0.0
141
0.0
142
1.0
143
1.0
 70
   688
 72
     0
 73
     0
 74
     5
  7

 75
    16
147
1.0
 76
     0
 77
     2
 78
   300
148
0.0
149
0.0
100
AcDbLayout
  1
Layout2
 70
     1
 71
     2
 10
0.0
 20
0.0
 11
12.0
 21
9.0
 12
0.0
 22
0.0
 32
0.0
 14
0.0
 24
0.0
 34
0.0
 15
0.0
 25
0.0
 35
0.0
146
0.0
 13
0.0
 23
0.0
 33
0.0
 16
1.0
 26
0.0
 36
0.0
 17
0.0
 27
1.0
 37
0.0
 76
     0
330
70
  0
LAYOUT
  5
6F
102
{ACAD_REACTORS
330
62
102
}
330
62
100
AcDbPlotSettings
  1

  2

  4

  6

 40
0.0
 41
0.0
 42
0.0
 43
0.0
 44
0.0
 45
0.0
 46
0.0
 47
0.0
 48
0.0
 49
0.0
140
0.0
141
0.0
142
1.0
143
1.0
 70
  1712
 72
     0
 73
     0
 74
     0
  7

 75
     0
147
1.0
 76
     0
 77
     2
 78
   300
148
0.0
149
0.0
100
AcDbLayout
  1
Model
 70
     1
 71
     0
 10
0.0
 20
0.0
 11
12.0
 21
9.0
 12
0.0
 22
0.0
 32
0.0
 14
0.0
 24
0.0
 34
0.0
 15
0.0
 25
0.0
 35
0.0
146
0.0
 13
0.0
 23
0.0
 33
0.0
 16
1.0
 26
0.0
 36
0.0
 17
0.0
 27
1.0
 37
0.0
 76
     0
330
6C
  0
MATERIAL
  5
19
102
{ACAD_XDICTIONARY
360
1A
102
}
102
{ACAD_REACTORS
330
10
102
}
330
10
100
AcDbMaterial
  1
ByBlock
 72
     0
 43
0.0208333333333333
 43
0.0
 43
0.0
 43
0.0
 43
0.0
 43
0.0208333333333333
 43
0.0
 43
0.0
 43
0.0
 43
0.0
 43
1.0
 43
0.0
 43
0.0
 43
0.0
 43
0.0
 43
1.0
 77
     0
 47
0.0208333333333333
 47
0.0
 47
0.0
 47
0.0
 47
0.0
 47
0.0208333333333333
 47
0.0
 47
0.0
 47
0.0
 47
0.0
 47
1.0
 47
0.0
 47
0.0
 47
0.0
 47
0.0
 47
1.0
171
     0
 49
0.0208333333333333
 49
0.0
 49
0.0
 49
0.0
 49
0.0
 49
0.0208333333333333
 49
0.0
 49
0.0
 49
0.0
 49
0.0
 49
1.0
 49
0.0
 49
0.0
 49
0.0
 49
0.0
 49
1.0
175
     0
142
0.0208333333333333
142
0.0
142
0.0
142
0.0
142
0.0
142
0.0208333333333333
142
0.0
142
0.0
142
0.0
142
0.0
142
1.0
142
0.0
142
0.0
142
0.0
142
0.0
142
1.0
179
     0
144
0.0208333333333333
144
0.0
144
0.0
144
0.0
144
0.0
144
0.0208333333333333
144
0.0
144
0.0
144
0.0
144
0.0
144
1.0
144
0.0
144
0.0
144
0.0
144
0.0
144
1.0
147
0.0208333333333333
147
0.0
147
0.0
147
0.0
147
0.0
147
0.0208333333333333
147
0.0
147
0.0
147
0.0
147
0.0
147
1.0
147
0.0
147
0.0
147
0.0
147
0.0
147
1.0
  0
MATERIAL
  5
11
102
{ACAD_XDICTIONARY
360
12
102
}
102
{ACAD_REACTORS
330
10
102
}
330
10
100
AcDbMaterial
  1
ByLayer
 72
     0
 43
0.0208333333333333
 43
0.0
 43
0.0
 43
0.0
 43
0.0
 43
0.0208333333333333
 43
0.0
 43
0.0
 43
0.0
 43
0.0
 43
1.0
 43
0.0
 43
0.0
 43
0.0
 43
0.0
 43
1.0
 77
     0
 47
0.0208333333333333
 47
0.0
 47
0.0
 47
0.0
 47
0.0
 47
0.0208333333333333
 47
0.0
 47
0.0
 47
0.0
 47
0.0
 47
1.0
 47
0.0
 47
0.0
 47
0.0
 47
0.0
 47
1.0
171
     0
 49
0.0208333333333333
 49
0.0
 49
0.0
 49
0.0
 49
0.0
 49
0.0208333333333333
 49
0.0
 49
0.0
 49
0.0
 49
0.0
 49
1.0
 49
0.0
 49
0.0
 49
0.0
 49
0.0
 49
1.0
175
     0
142
0.0208333333333333
142
0.0
142
0.0
142
0.0
142
0.0
142
0.0208333333333333
142
0.0
142
0.0
142
0.0
142
0.0
142
1.0
142
0.0
142
0.0
142
0.0
142
0.0
142
1.0
179
     0
144
0.0208333333333333
144
0.0
144
0.0
144
0.0
144
0.0
144
0.0208333333333333
144
0.0
144
0.0
144
0.0
144
0.0
144
1.0
144
0.0
144
0.0
144
0.0
144
0.0
144
1.0
147
0.0208333333333333
147
0.0
147
0.0
147
0.0
147
0.0
147
0.0208333333333333
147
0.0
147
0.0
147
0.0
147
0.0
147
1.0
147
0.0
147
0.0
147
0.0
147
0.0
147
1.0
  0
MATERIAL
  5
21
102
{ACAD_XDICTIONARY
360
22
102
}
102
{ACAD_REACTORS
330
10
102
}
330
10
100
AcDbMaterial
  1
Global
 72
     0
 43
0.0208333333333333
 43
0.0
 43
0.0
 43
0.0
 43
0.0
 43
0.0208333333333333
 43
0.0
 43
0.0
 43
0.0
 43
0.0
 43
1.0
 43
0.0
 43
0.0
 43
0.0
 43
0.0
 43
1.0
 77
     0
 47
0.0208333333333333
 47
0.0
 47
0.0
 47
0.0
 47
0.0
 47
0.0208333333333333
 47
0.0
 47
0.0
 47
0.0
 47
0.0
 47
1.0
 47
0.0
 47
0.0
 47
0.0
 47
0.0
 47
1.0
171
     0
 49
0.0208333333333333
 49
0.0
 49
0.0
 49
0.0
 49
0.0
 49
0.0208333333333333
 49
0.0
 49
0.0
 49
0.0
 49
0.0
 49
1.0
 49
0.0
 49
0.0
 49
0.0
 49
0.0
 49
1.0
175
     0
142
0.0208333333333333
142
0.0
142
0.0
142
0.0
142
0.0
142
0.0208333333333333
142
0.0
142
0.0
142
0.0
142
0.0
142
1.0
142
0.0
142
0.0
142
0.0
142
0.0
142
1.0
179
     0
144
0.0208333333333333
144
0.0
144
0.0
144
0.0
144
0.0
144
0.0208333333333333
144
0.0
144
0.0
144
0.0
144
0.0
144
1.0
144
0.0
144
0.0
144
0.0
144
0.0
144
1.0
147
0.0208333333333333
147
0.0
147
0.0
147
0.0
147
0.0
147
0.0208333333333333
147
0.0
147
0.0
147
0.0
147
0.0
147
1.0
147
0.0
147
0.0
147
0.0
147
0.0
147
1.0
  0
MLEADERSTYLE
  5
67
102
{ACAD_XDICTIONARY
360
1580
102
}
102
{ACAD_REACTORS
330
66
102
}
330
66
100
AcDbMLeaderStyle
170
     2
171
     1
172
     0
 90
        2
 40
0.0
 41
0.0
173
     1
 91
-1056964608
340
5B
 92
       -2
290
     1
 42
0.09
291
     1
 43
0.36
  3
Standard
 44
0.18
300

342
55
174
     1
178
     6
175
     1
176
     0
 93
-1056964608
 45
0.18
292
     0
297
     0
 46
0.18
 94
-1056964608
 47
1.0
 49
1.0
140
1.0
293
     1
141
0.0
294
     1
177
     0
142
1.0
295
     0
296
     0
143
0.125
1001
ACAD_MLEADERVER
1070
     2
  0
MLINESTYLE
  5
60
102
{ACAD_REACTORS
330
5F
102
}
330
5F
100
AcDbMlineStyle
  2
STANDARD
 70
     0
  3

 62
   256
 51
90.0
 52
90.0
 71
     2
 49
0.5
 62
   256
  6
BYLAYER
 49
-0.5
 62
   256
  6
BYLAYER
  0
ACDBPLACEHOLDER
  5
F
102
{ACAD_REACTORS
330
E
102
}
330
E
  0
SCALE
  5
43
102
{ACAD_REACTORS
330
42
102
}
330
42
100
AcDbScale
 70
     0
300
1:1
140
1.0
141
1.0
290
     1
  0
SCALE
  5
44
102
{ACAD_REACTORS
330
42
102
}
330
42
100
AcDbScale
 70
     0
300
1/128" = 1'-0"
140
0.0078125
141
12.0
290
     0
  0
SCALE
  5
45
102
{ACAD_REACTORS
330
42
102
}
330
42
100
AcDbScale
 70
     0
300
1/64" = 1'-0"
140
0.015625
141
12.0
290
     0
  0
SCALE
  5
46
102
{ACAD_REACTORS
330
42
102
}
330
42
100
AcDbScale
 70
     0
300
1/32" = 1'-0"
140
0.03125
141
12.0
290
     0
  0
SCALE
  5
47
102
{ACAD_REACTORS
330
42
102
}
330
42
100
AcDbScale
 70
     0
300
1/16" = 1'-0"
140
0.0625
141
12.0
290
     0
  0
SCALE
  5
48
102
{ACAD_REACTORS
330
42
102
}
330
42
100
AcDbScale
 70
     0
300
3/32" = 1'-0"
140
0.09375
141
12.0
290
     0
  0
SCALE
  5
49
102
{ACAD_REACTORS
330
42
102
}
330
42
100
AcDbScale
 70
     0
300
1/8" = 1'-0"
140
0.125
141
12.0
290
     0
  0
SCALE
  5
4A
102
{ACAD_REACTORS
330
42
102
}
330
42
100
AcDbScale
 70
     0
300
3/16" = 1'-0"
140
0.1875
141
12.0
290
     0
  0
SCALE
  5
4B
102
{ACAD_REACTORS
330
42
102
}
330
42
100
AcDbScale
 70
     0
300
1/4" = 1'-0"
140
0.25
141
12.0
290
     0
  0
SCALE
  5
4C
102
{ACAD_REACTORS
330
42
102
}
330
42
100
AcDbScale
 70
     0
300
3/8" = 1'-0"
140
0.375
141
12.0
290
     0
  0
SCALE
  5
4D
102
{ACAD_REACTORS
330
42
102
}
330
42
100
AcDbScale
 70
     0
300
1/2" = 1'-0"
140
0.5
141
12.0
290
     0
  0
SCALE
  5
4E
102
{ACAD_REACTORS
330
42
102
}
330
42
100
AcDbScale
 70
     0
300
3/4" = 1'-0"
140
0.75
141
12.0
290
     0
  0
SCALE
  5
4F
102
{ACAD_REACTORS
330
42
102
}
330
42
100
AcDbScale
 70
     0
300
1" = 1'-0"
140
1.0
141
12.0
290
     0
  0
SCALE
  5
50
102
{ACAD_REACTORS
330
42
102
}
330
42
100
AcDbScale
 70
     0
300
1-1/2" = 1'-0"
140
1.5
141
12.0
290
     0
  0
SCALE
  5
51
102
{ACAD_REACTORS
330
42
102
}
330
42
100
AcDbScale
 70
     0
300
3" = 1'-0"
140
3.0
141
12.0
290
     0
  0
SCALE
  5
52
102
{ACAD_REACTORS
330
42
102
}
330
42
100
AcDbScale
 70
     0
300
6" = 1'-0"
140
6.0
141
12.0
290
     0
  0
SCALE
  5
53
102
{ACAD_REACTORS
330
42
102
}
330
42
100
AcDbScale
 70
     0
300
1'-0" = 1'-0"
140
12.0
141
12.0
290
     0
  0
TABLESTYLE
  5
65
102
{ACAD_XDICTIONARY
360
157E
102
}
102
{ACAD_REACTORS
330
64
102
}
330
64
100
AcDbTableStyle
  3
Standard
 70
     0
 71
     0
 40
0.06
 41
0.06
280
     0
281
     0
  7
Standard
140
0.18
170
     2
 62
     0
 63
     7
283
     0
274
    -2
284
     1
 64
     0
275
    -2
285
     1
 65
     0
276
    -2
286
     1
 66
     0
277
    -2
287
     1
 67
     0
278
    -2
288
     1
 68
     0
279
    -2
289
     1
 69
     0
  7
Standard
140
0.25
170
     5
 62
     0
 63
     7
283
     0
274
    -2
284
     1
 64
     0
275
    -2
285
     1
 65
     0
276
    -2
286
     1
 66
     0
277
    -2
287
     1
 67
     0
278
    -2
288
     1
 68
     0
279
    -2
289
     1
 69
     0
  7
Standard
140
0.18
170
     5
 62
     0
 63
     7
283
     0
274
    -2
284
     1
 64
     0
275
    -2
285
     1
 65
     0
276
    -2
286
     1
 66
     0
277
    -2
287
     1
 67
     0
278
    -2
288
     1
 68
     0
279
    -2
289
     1
 69
     0
  0
VISUALSTYLE
  5
2F
102
{ACAD_XDICTIONARY
360
1592
102
}
102
{ACAD_REACTORS
330
29
102
}
330
29
100
AcDbVisualStyle
  2
2dWireframe
 70
     4
 71
     0
 72
     2
 73
     0
 90
        0
 40
-0.6
 41
-30.0
 62
     5
 63
     7
421
 16777215
 74
     1
 91
        4
 64
     7
 65
   257
 75
     1
175
     1
 42
1.0
 92
        0
 66
   257
 43
1.0
 76
     1
 77
     6
 78
     2
 67
     7
 79
     5
170
     0
171
     0
290
     0
174
     0
 93
        1
 44
0.0
173
     0
291
     0
 45
0.0
1001
ACAD
1000
AcDbSavedByObjectVersion
1070
     0
  0
VISUALSTYLE
  5
2E
102
{ACAD_XDICTIONARY
360
1590
102
}
102
{ACAD_REACTORS
330
29
102
}
330
29
100
AcDbVisualStyle
  2
Basic
 70
     7
 71
     1
 72
     0
 73
     1
 90
        0
 40
-0.6
 41
-30.0
 62
     5
 63
     7
421
 16777215
 74
     0
 91
        4
 64
     7
 65
   257
 75
     1
175
     1
 42
1.0
 92
        8
 66
     7
 43
1.0
 76
     1
 77
     6
 78
     2
 67
     7
 79
     5
170
     0
171
     0
290
     0
174
     0
 93
        1
 44
0.0
173
     0
291
     1
 45
0.0
1001
ACAD
1000
AcDbSavedByObjectVersion
1070
     0
  0
VISUALSTYLE
  5
35
102
{ACAD_XDICTIONARY
360
159E
102
}
102
{ACAD_REACTORS
330
29
102
}
330
29
100
AcDbVisualStyle
  2
Brighten
 70
    12
 71
     2
 72
     2
 73
     0
 90
        0
 40
-0.6
 41
-30.0
 62
     5
 63
     7
421
 16777215
 74
     1
 91
        4
 64
     7
 65
   257
 75
     1
175
     1
 42
1.0
 92
        8
 66
     7
 43
1.0
 76
     1
 77
     6
 78
     2
 67
     7
 79
     5
170
     0
171
     0
290
     0
174
     0
 93
        1
 44
50.0
173
     0
291
     1
 45
0.0
1001
ACAD
1000
AcDbSavedByObjectVersion
1070
     0
  0
VISUALSTYLE
  5
39
102
{ACAD_XDICTIONARY
360
15A6
102
}
102
{ACAD_REACTORS
330
29
102
}
330
29
100
AcDbVisualStyle
  2
ColorChange
 70
    16
 71
     2
 72
     2
 73
     3
 90
        0
 40
-0.6
 41
-30.0
 62
     5
 63
     8
421
  8421504
 74
     1
 91
        4
 64
     7
 65
   257
 75
     1
175
     1
 42
1.0
 92
        8
 66
     8
424
  8421504
 43
1.0
 76
     1
 77
     6
 78
     2
 67
     7
 79
     5
170
     0
171
     0
290
     0
174
     0
 93
        1
 44
0.0
173
     0
291
     1
 45
0.0
1001
ACAD
1000
AcDbSavedByObjectVersion
1070
     0
  0
VISUALSTYLE
  5
32
102
{ACAD_XDICTIONARY
360
1598
102
}
102
{ACAD_REACTORS
330
29
102
}
330
29
100
AcDbVisualStyle
  2
Conceptual
 70
     9
 71
     3
 72
     2
 73
     0
 90
        0
 40
-0.6
 41
-30.0
 62
     5
 63
     7
421
 16777215
 74
     2
 91
        2
 64
     7
 65
   257
 75
     1
175
     1
 42
179.0
 92
        8
 66
     7
 43
1.0
 76
     1
 77
     6
 78
     2
 67
     7
 79
     3
170
     0
171
     0
290
     0
174
     0
 93
        1
 44
0.0
173
     0
291
     0
 45
0.0
1001
ACAD
1000
AcDbSavedByObjectVersion
1070
     0
  0
VISUALSTYLE
  5
34
102
{ACAD_XDICTIONARY
360
159C
102
}
102
{ACAD_REACTORS
330
29
102
}
330
29
100
AcDbVisualStyle
  2
Dim
 70
    11
 71
     2
 72
     2
 73
     0
 90
        0
 40
-0.6
 41
-30.0
 62
     5
 63
     7
421
 16777215
 74
     1
 91
        4
 64
     7
 65
   257
 75
     1
175
     1
 42
1.0
 92
        8
 66
     7
 43
1.0
 76
     1
 77
     6
 78
     2
 67
     7
 79
     5
170
     0
171
     0
290
     0
174
     0
 93
        1
 44
-50.0
173
     0
291
     1
 45
0.0
1001
ACAD
1000
AcDbSavedByObjectVersion
1070
     0
  0
VISUALSTYLE
  5
41
102
{ACAD_XDICTIONARY
360
15B6
102
}
102
{ACAD_REACTORS
330
29
102
}
330
29
100
AcDbVisualStyle
  2
EdgeColorOff
 70
    22
 71
     2
 72
     2
 73
     0
 90
        0
 40
-0.6
 41
-30.0
 62
     5
 63
     7
421
 16777215
 74
     1
 91
        4
 64
     7
 65
   257
 75
     1
175
     1
 42
1.0
 92
        8
 66
     7
 43
1.0
 76
     1
 77
     6
 78
     2
 67
     7
 79
     5
170
     0
171
     0
290
     0
174
     0
 93
        1
 44
0.0
173
     0
291
     1
 45
0.0
1001
ACAD
1000
AcDbSavedByObjectVersion
1070
     0
  0
VISUALSTYLE
  5
38
102
{ACAD_XDICTIONARY
360
15A4
102
}
102
{ACAD_REACTORS
330
29
102
}
330
29
100
AcDbVisualStyle
  2
Facepattern
 70
    15
 71
     2
 72
     2
 73
     0
 90
        0
 40
-0.6
 41
-30.0
 62
     5
 63
     7
421
 16777215
 74
     1
 91
        4
 64
     7
 65
   257
 75
     1
175
     1
 42
1.0
 92
        8
 66
     7
 43
1.0
 76
     1
 77
     6
 78
     2
 67
     7
 79
     5
170
     0
171
     0
290
     0
174
     0
 93
        1
 44
0.0
173
     0
291
     1
 45
0.0
1001
ACAD
1000
AcDbSavedByObjectVersion
1070
     0
  0
VISUALSTYLE
  5
2A
102
{ACAD_XDICTIONARY
360
1588
102
}
102
{ACAD_REACTORS
330
29
102
}
330
29
100
AcDbVisualStyle
  2
Flat
 70
     0
 71
     2
 72
     1
 73
     1
 90
        2
 40
-0.6
 41
30.0
 62
     5
 63
     7
421
 16777215
 74
     0
 91
        0
 64
     7
 65
   257
 75
     1
175
     1
 42
1.0
 92
        8
 66
     7
 43
1.0
 76
     1
 77
     6
 78
     2
 67
     7
 79
     5
170
     0
171
     0
290
     0
174
     0
 93
       13
 44
0.0
173
     0
291
     1
 45
0.0
1001
ACAD
1000
AcDbSavedByObjectVersion
1070
     0
  0
VISUALSTYLE
  5
2B
102
{ACAD_XDICTIONARY
360
158A
102
}
102
{ACAD_REACTORS
330
29
102
}
330
29
100
AcDbVisualStyle
  2
FlatWithEdges
 70
     1
 71
     2
 72
     1
 73
     1
 90
        2
 40
-0.6
 41
30.0
 62
     5
 63
     7
421
 16777215
 74
     1
 91
        0
 64
     7
 65
   257
 75
     1
175
     1
 42
1.0
 92
        0
 66
   257
 43
1.0
 76
     1
 77
     6
 78
     2
 67
     7
 79
     5
170
     0
171
     0
290
     0
174
     0
 93
       13
 44
0.0
173
     0
291
     1
 45
0.0
1001
ACAD
1000
AcDbSavedByObjectVersion
1070
     0
  0
VISUALSTYLE
  5
2C
102
{ACAD_XDICTIONARY
360
158C
102
}
102
{ACAD_REACTORS
330
29
102
}
330
29
100
AcDbVisualStyle
  2
Gouraud
 70
     2
 71
     2
 72
     2
 73
     1
 90
        2
 40
-0.6
 41
30.0
 62
     5
 63
     7
421
 16777215
 74
     0
 91
        0
 64
     7
 65
   257
 75
     1
175
     1
 42
1.0
 92
        0
 66
     7
 43
1.0
 76
     1
 77
     6
 78
     2
 67
     7
 79
     5
170
     0
171
     0
290
     0
174
     0
 93
       13
 44
0.0
173
     0
291
     1
 45
0.0
1001
ACAD
1000
AcDbSavedByObjectVersion
1070
     0
  0
VISUALSTYLE
  5
2D
102
{ACAD_XDICTIONARY
360
158E
102
}
102
{ACAD_REACTORS
330
29
102
}
330
29
100
AcDbVisualStyle
  2
GouraudWithEdges
 70
     3
 71
     2
 72
     2
 73
     1
 90
        2
 40
-0.6
 41
30.0
 62
     5
 63
     7
421
 16777215
 74
     1
 91
        0
 64
     7
 65
   257
 75
     1
175
     1
 42
1.0
 92
        0
 66
   257
 43
1.0
 76
     1
 77
     6
 78
     2
 67
     7
 79
     5
170
     0
171
     0
290
     0
174
     0
 93
       13
 44
0.0
173
     0
291
     1
 45
0.0
1001
ACAD
1000
AcDbSavedByObjectVersion
1070
     0
  0
VISUALSTYLE
  5
31
102
{ACAD_XDICTIONARY
360
1596
102
}
102
{ACAD_REACTORS
330
29
102
}
330
29
100
AcDbVisualStyle
  2
Hidden
 70
     6
 71
     1
 72
     2
 73
     2
 90
        0
 40
-0.6
 41
-30.0
 62
     5
 63
     7
421
 16777215
 74
     2
 91
        2
 64
     7
 65
   257
 75
     2
175
     1
 42
40.0
 92
        0
 66
   257
 43
1.0
 76
     1
 77
     6
 78
     2
 67
     7
 79
     3
170
     0
171
     0
290
     0
174
     0
 93
        1
 44
0.0
173
     0
291
     0
 45
0.0
1001
ACAD
1000
AcDbSavedByObjectVersion
1070
     0
  0
VISUALSTYLE
  5
3F
102
{ACAD_XDICTIONARY
360
15B2
102
}
102
{ACAD_REACTORS
330
29
102
}
330
29
100
AcDbVisualStyle
  2
JitterOff
 70
    20
 71
     2
 72
     2
 73
     0
 90
        0
 40
-0.6
 41
-30.0
 62
     5
 63
     7
421
 16777215
 74
     1
 91
        4
 64
     7
 65
   257
 75
     1
175
     1
 42
1.0
 92
       10
 66
     7
 43
1.0
 76
     1
 77
     6
 78
     2
 67
     7
 79
     5
170
     0
171
     0
290
     0
174
     0
 93
        1
 44
0.0
173
     0
291
     1
 45
0.0
1001
ACAD
1000
AcDbSavedByObjectVersion
1070
     0
  0
VISUALSTYLE
  5
37
102
{ACAD_XDICTIONARY
360
15A2
102
}
102
{ACAD_REACTORS
330
29
102
}
330
29
100
AcDbVisualStyle
  2
Linepattern
 70
    14
 71
     2
 72
     2
 73
     0
 90
        0
 40
-0.6
 41
-30.0
 62
     5
 63
     7
421
 16777215
 74
     1
 91
        4
 64
     7
 65
   257
 75
     7
175
     7
 42
1.0
 92
        8
 66
     7
 43
1.0
 76
     1
 77
     6
 78
     2
 67
     7
 79
     5
170
     0
171
     0
290
     0
174
     0
 93
        1
 44
0.0
173
     0
291
     1
 45
0.0
1001
ACAD
1000
AcDbSavedByObjectVersion
1070
     0
  0
VISUALSTYLE
  5
40
102
{ACAD_XDICTIONARY
360
15B4
102
}
102
{ACAD_REACTORS
330
29
102
}
330
29
100
AcDbVisualStyle
  2
OverhangOff
 70
    21
 71
     2
 72
     2
 73
     0
 90
        0
 40
-0.6
 41
-30.0
 62
     5
 63
     7
421
 16777215
 74
     1
 91
        4
 64
     7
 65
   257
 75
     1
175
     1
 42
1.0
 92
        9
 66
     7
 43
1.0
 76
     1
 77
     6
 78
     2
 67
     7
 79
     5
170
     0
171
     0
290
     0
174
     0
 93
        1
 44
0.0
173
     0
291
     1
 45
0.0
1001
ACAD
1000
AcDbSavedByObjectVersion
1070
     0
  0
VISUALSTYLE
  5
33
102
{ACAD_XDICTIONARY
360
159A
102
}
102
{ACAD_REACTORS
330
29
102
}
330
29
100
AcDbVisualStyle
  2
Realistic
 70
     8
 71
     2
 72
     3
 73
     0
 90
        2
 40
-0.6
 41
30.0
 62
     5
 63
     7
421
 16777215
 74
     0
 91
        0
 64
     7
 65
   257
 75
     1
175
     1
 42
1.0
 92
        8
 66
   257
 43
1.0
 76
     1
 77
     6
 78
     2
 67
     7
 79
     3
170
     0
171
     0
290
     0
174
     0
 93
       13
 44
0.0
173
     0
291
     0
 45
0.0
1001
ACAD
1000
AcDbSavedByObjectVersion
1070
     0
  0
VISUALSTYLE
  5
3E
102
{ACAD_XDICTIONARY
360
15B0
102
}
102
{ACAD_REACTORS
330
29
102
}
330
29
100
AcDbVisualStyle
  2
Shaded
 70
    27
 71
     2
 72
     2
 73
     1
 90
        2
 40
-0.6
 41
30.0
 62
     5
 63
     7
421
 16777215
 74
     0
 91
        4
 64
     7
 65
   257
 75
     1
175
     1
 42
1.0
 92
        8
 66
   257
 43
1.0
 76
     1
 77
     6
 78
     2
 67
     8
425
  7895160
 79
     3
170
     0
171
     0
290
     0
174
     0
 93
        5
 44
0.0
173
     0
291
     0
 45
0.0
1001
ACAD
1000
AcDbSavedByObjectVersion
1070
     0
  0
VISUALSTYLE
  5
3D
102
{ACAD_XDICTIONARY
360
15AE
102
}
102
{ACAD_REACTORS
330
29
102
}
330
29
100
AcDbVisualStyle
  2
Shaded with edges
 70
    26
 71
     2
 72
     2
 73
     1
 90
        2
 40
-0.6
 41
30.0
 62
     5
 63
     7
421
 16777215
 74
     1
 91
       10
 64
     7
 65
   257
 75
     2
175
     1
 42
1.0
 92
        8
 66
   257
 43
1.0
 76
     1
 77
     6
 78
     2
 67
     7
 79
     3
170
     0
171
     0
290
     0
174
     0
 93
        5
 44
0.0
173
     0
291
     0
 45
0.0
1001
ACAD
1000
AcDbSavedByObjectVersion
1070
     0
  0
VISUALSTYLE
  5
3A
102
{ACAD_XDICTIONARY
360
15A8
102
}
102
{ACAD_REACTORS
330
29
102
}
330
29
100
AcDbVisualStyle
  2
Shades of Gray
 70
    23
 71
     2
 72
     2
 73
     3
 90
        0
 40
-0.6
 41
-30.0
 62
     5
 63
     7
421
 16777215
 74
     2
 91
        2
 64
     7
 65
     7
 75
     1
175
     1
 42
40.0
 92
        8
 66
     7
 43
1.0
 76
     1
 77
     6
 78
     2
 67
     7
 79
     3
170
     0
171
     0
290
     0
174
     0
 93
        1
 44
0.0
173
     0
291
     0
 45
0.0
1001
ACAD
1000
AcDbSavedByObjectVersion
1070
     0
  0
VISUALSTYLE
  5
3B
102
{ACAD_XDICTIONARY
360
15AA
102
}
102
{ACAD_REACTORS
330
29
102
}
330
29
100
AcDbVisualStyle
  2
Sketchy
 70
    24
 71
     1
 72
     2
 73
     2
 90
        0
 40
-0.6
 41
-30.0
 62
     5
 63
     7
421
 16777215
 74
     2
 91
        2
 64
     7
 65
     7
 75
     1
175
     1
 42
40.0
 92
       11
 66
     7
 43
1.0
 76
     1
 77
     6
 78
     2
 67
     7
 79
     6
170
     0
171
     0
290
     0
174
     0
 93
        1
 44
0.0
173
     0
291
     0
 45
0.0
1001
ACAD
1000
AcDbSavedByObjectVersion
1070
     0
  0
VISUALSTYLE
  5
36
102
{ACAD_XDICTIONARY
360
15A0
102
}
102
{ACAD_REACTORS
330
29
102
}
330
29
100
AcDbVisualStyle
  2
Thicken
 70
    13
 71
     2
 72
     2
 73
     0
 90
        0
 40
-0.6
 41
-30.0
 62
     5
 63
     7
421
 16777215
 74
     1
 91
        4
 64
     7
 65
   257
 75
     1
175
     1
 42
1.0
 92
       12
 66
     7
 43
1.0
 76
     1
 77
     6
 78
     2
 67
     7
 79
     5
170
     0
171
     0
290
     0
174
     0
 93
        1
 44
0.0
173
     0
291
     1
 45
0.0
1001
ACAD
1000
AcDbSavedByObjectVersion
1070
     0
  0
VISUALSTYLE
  5
30
102
{ACAD_XDICTIONARY
360
1594
102
}
102
{ACAD_REACTORS
330
29
102
}
330
29
100
AcDbVisualStyle
  2
Wireframe
 70
     5
 71
     0
 72
     2
 73
     0
 90
        0
 40
-0.6
 41
-30.0
 62
     5
 63
     7
421
 16777215
 74
     1
 91
        4
 64
     7
 65
   257
 75
     1
175
     1
 42
1.0
 92
        0
 66
   257
 43
1.0
 76
     1
 77
     6
 78
     2
 67
     7
 79
     3
170
     0
171
     0
290
     0
174
     0
 93
        1
 44
0.0
173
     0
291
     0
 45
0.0
1001
ACAD
1000
AcDbSavedByObjectVersion
1070
     0
  0
VISUALSTYLE
  5
3C
102
{ACAD_XDICTIONARY
360
15AC
102
}
102
{ACAD_REACTORS
330
29
102
}
330
29
100
AcDbVisualStyle
  2
X-Ray
 70
    25
 71
     2
 72
     2
 73
     1
 90
        1
 40
0.5
 41
-30.0
 62
     5
 63
     7
421
 16777215
 74
     1
 91
        0
 64
     7
 65
   257
 75
     1
175
     1
 42
1.0
 92
        8
 66
     7
 43
1.0
 76
     1
 77
     6
 78
     2
 67
     7
 79
     3
170
     0
171
     0
290
     0
174
     0
 93
       13
 44
0.0
173
     0
291
     0
 45
0.0
1001
ACAD
1000
AcDbSavedByObjectVersion
1070
     0
  0
DICTIONARYVAR
  5
79
102
{ACAD_REACTORS
330
76
102
}
330
76
100
DictionaryVariables
280
     0
  1
1:1
  0
DICTIONARYVAR
  5
78
102
{ACAD_REACTORS
330
76
102
}
330
76
100
DictionaryVariables
280
     0
  1
STANDARD
  0
DICTIONARYVAR
  5
77
102
{ACAD_REACTORS
330
76
102
}
330
76
100
DictionaryVariables
280
     0
  1
STANDARD
  0
DICTIONARYVAR
  5
157B
102
{ACAD_REACTORS
330
76
102
}
330
76
100
DictionaryVariables
280
     0
  1
0
  0
DICTIONARYVAR
  5
157C
102
{ACAD_REACTORS
330
76
102
}
330
76
100
DictionaryVariables
280
     0
  1
0
  0
DICTIONARYVAR
  5
157A
102
{ACAD_REACTORS
330
76
102
}
330
76
100
DictionaryVariables
280
     0
  1
2
  0
DICTIONARYVAR
  5
1579
102
{ACAD_REACTORS
330
76
102
}
330
76
100
DictionaryVariables
280
     0
  1
1
  0
DICTIONARYVAR
  5
157D
102
{ACAD_REACTORS
330
76
102
}
330
76
100
DictionaryVariables
280
     0
  1
2
  0
DICTIONARY
  5
1A
330
19
100
AcDbDictionary
280
     1
281
     1
  3
ACAD_XREC_ROUNDTRIP
360
1586
  3
BUMPTILE
360
1C
  3
DIFFUSETILE
360
1B
  3
OPACITYTILE
360
1F
  3
REFLECTIONTILE
360
1E
  3
REFRACTIONTILE
360
20
  3
SPECULARTILE
360
1D
  0
DICTIONARY
  5
12
330
11
100
AcDbDictionary
280
     1
281
     1
  3
ACAD_XREC_ROUNDTRIP
360
1585
  3
BUMPTILE
360
14
  3
DIFFUSETILE
360
13
  3
FBXASSET
360
F5
  3
OPACITYTILE
360
17
  3
REFLECTIONTILE
360
16
  3
REFRACTIONTILE
360
18
  3
SPECULARTILE
360
15
  0
DICTIONARY
  5
22
330
21
100
AcDbDictionary
280
     1
281
     1
  3
ACAD_XREC_ROUNDTRIP
360
1587
  3
BUMPTILE
360
24
  3
DIFFUSETILE
360
23
  3
FBXASSET
360
BA
  3
OPACITYTILE
360
27
  3
REFLECTIONTILE
360
26
  3
REFRACTIONTILE
360
28
  3
SPECULARTILE
360
25
  0
DICTIONARY
  5
1580
330
67
100
AcDbDictionary
280
     1
281
     1
  3
ACAD_XREC_ROUNDTRIP
360
1581
  0
DICTIONARY
  5
157E
330
65
100
AcDbDictionary
280
     1
281
     1
  3
ACAD_ROUNDTRIP_2008_TABLESTYLE_CELLSTYLEMAP
360
157F
  3
ACAD_XREC_ROUNDTRIP
360
15B8
  0
DICTIONARY
  5
1592
330
2F
100
AcDbDictionary
280
     1
281
     1
  3
ACAD_XREC_ROUNDTRIP
360
1593
  0
DICTIONARY
  5
1590
330
2E
100
AcDbDictionary
280
     1
281
     1
  3
ACAD_XREC_ROUNDTRIP
360
1591
  0
DICTIONARY
  5
159E
330
35
100
AcDbDictionary
280
     1
281
     1
  3
ACAD_XREC_ROUNDTRIP
360
159F
  0
DICTIONARY
  5
15A6
330
39
100
AcDbDictionary
280
     1
281
     1
  3
ACAD_XREC_ROUNDTRIP
360
15A7
  0
DICTIONARY
  5
1598
330
32
100
AcDbDictionary
280
     1
281
     1
  3
ACAD_XREC_ROUNDTRIP
360
1599
  0
DICTIONARY
  5
159C
330
34
100
AcDbDictionary
280
     1
281
     1
  3
ACAD_XREC_ROUNDTRIP
360
159D
  0
DICTIONARY
  5
15B6
330
41
100
AcDbDictionary
280
     1
281
     1
  3
ACAD_XREC_ROUNDTRIP
360
15B7
  0
DICTIONARY
  5
15A4
330
38
100
AcDbDictionary
280
     1
281
     1
  3
ACAD_XREC_ROUNDTRIP
360
15A5
  0
DICTIONARY
  5
1588
330
2A
100
AcDbDictionary
280
     1
281
     1
  3
ACAD_XREC_ROUNDTRIP
360
1589
  0
DICTIONARY
  5
158A
330
2B
100
AcDbDictionary
280
     1
281
     1
  3
ACAD_XREC_ROUNDTRIP
360
158B
  0
DICTIONARY
  5
158C
330
2C
100
AcDbDictionary
280
     1
281
     1
  3
ACAD_XREC_ROUNDTRIP
360
158D
  0
DICTIONARY
  5
158E
330
2D
100
AcDbDictionary
280
     1
281
     1
  3
ACAD_XREC_ROUNDTRIP
360
158F
  0
DICTIONARY
  5
1596
330
31
100
AcDbDictionary
280
     1
281
     1
  3
ACAD_XREC_ROUNDTRIP
360
1597
  0
DICTIONARY
  5
15B2
330
3F
100
AcDbDictionary
280
     1
281
     1
  3
ACAD_XREC_ROUNDTRIP
360
15B3
  0
DICTIONARY
  5
15A2
330
37
100
AcDbDictionary
280
     1
281
     1
  3
ACAD_XREC_ROUNDTRIP
360
15A3
  0
DICTIONARY
  5
15B4
330
40
100
AcDbDictionary
280
     1
281
     1
  3
ACAD_XREC_ROUNDTRIP
360
15B5
  0
DICTIONARY
  5
159A
330
33
100
AcDbDictionary
280
     1
281
     1
  3
ACAD_XREC_ROUNDTRIP
360
159B
  0
DICTIONARY
  5
15B0
330
3E
100
AcDbDictionary
280
     1
281
     1
  3
ACAD_XREC_ROUNDTRIP
360
15B1
  0
DICTIONARY
  5
15AE
330
3D
100
AcDbDictionary
280
     1
281
     1
  3
ACAD_XREC_ROUNDTRIP
360
15AF
  0
DICTIONARY
  5
15A8
330
3A
100
AcDbDictionary
280
     1
281
     1
  3
ACAD_XREC_ROUNDTRIP
360
15A9
  0
DICTIONARY
  5
15AA
330
3B
100
AcDbDictionary
280
     1
281
     1
  3
ACAD_XREC_ROUNDTRIP
360
15AB
  0
DICTIONARY
  5
15A0
330
36
100
AcDbDictionary
280
     1
281
     1
  3
ACAD_XREC_ROUNDTRIP
360
15A1
  0
DICTIONARY
  5
1594
330
30
100
AcDbDictionary
280
     1
281
     1
  3
ACAD_XREC_ROUNDTRIP
360
1595
  0
DICTIONARY
  5
15AC
330
3C
100
AcDbDictionary
280
     1
281
     1
  3
ACAD_XREC_ROUNDTRIP
360
15AD
  0
XRECORD
  5
1586
102
{ACAD_REACTORS
330
1A
102
}
330
1A
100
AcDbXrecord
280
     1
102
MATERIAL
148
0.0
149
0.0
149
0.0
 93
        0
 94
      127
282
     0
 72
     0
 77
     0
171
     0
175
     0
179
     0
273
     0
  0
XRECORD
  5
1C
102
{ACAD_REACTORS
330
1A
102
}
330
1A
100
AcDbXrecord
280
     1
270
     1
271
     1
  0
XRECORD
  5
1B
102
{ACAD_REACTORS
330
1A
102
}
330
1A
100
AcDbXrecord
280
     1
270
     1
271
     1
  0
XRECORD
  5
1F
102
{ACAD_REACTORS
330
1A
102
}
330
1A
100
AcDbXrecord
280
     1
270
     1
271
     1
  0
XRECORD
  5
1E
102
{ACAD_REACTORS
330
1A
102
}
330
1A
100
AcDbXrecord
280
     1
270
     1
271
     1
  0
XRECORD
  5
20
102
{ACAD_REACTORS
330
1A
102
}
330
1A
100
AcDbXrecord
280
     1
270
     1
271
     1
  0
XRECORD
  5
1D
102
{ACAD_REACTORS
330
1A
102
}
330
1A
100
AcDbXrecord
280
     1
270
     1
271
     1
  0
XRECORD
  5
1585
102
{ACAD_REACTORS
330
12
102
}
330
12
100
AcDbXrecord
280
     1
102
MATERIAL
148
0.0
149
0.0
149
0.0
 93
        0
 94
      127
282
     0
 72
     0
 77
     0
171
     0
175
     0
179
     0
273
     0
  0
XRECORD
  5
14
102
{ACAD_REACTORS
330
12
102
}
330
12
100
AcDbXrecord
280
     1
270
     1
271
     1
  0
XRECORD
  5
13
102
{ACAD_REACTORS
330
12
102
}
330
12
100
AcDbXrecord
280
     1
270
     1
271
     1
  0
XRECORD
  5
F5
102
{ACAD_REACTORS
330
12
102
}
330
12
100
AcDbXrecord
280
     1
 70
     1
 90
1959938040
 71
     1
  1
C4CD82ED-B634-4149-AD05-1D8E19F20B5D
311
504B03040A0000080000353BB1423DEE336E79000000790000001B0000006175746F6465736B2D64657369676E2D7061636B6167652E786D6C3C3F786D6C2076657273696F6E3D22312E302220656E636F64696E673D227574662D3822203F3E3C666F726D6174733E3C666F726D61743E687474703A2F2F736368656D612E
311
6175746F6465736B2E636F6D2F64657369676E2D7061636B6167652F323030393C2F666F726D61743E3C2F666F726D6174733E504B0304140006080800353BB142D486FD9CA0000000F4000000130000005B436F6E74656E745F54797065735D2E786D6C7D8EC10E82300C865F65E91D8A1E8C310C0EEA1BF002731658846E
311
D98AC1B77784ABF1D8FE5FBFBF75BBCE937A534CCEB38643598122B6FEE978D0B0485F9C41B54DDD7D022595594E1A469170414C76A4D9A4D207E29CF43ECE46F218070CC6BECC4078ACAA135ACF422C856C0E68EA1BF5669944DDD7BCDE7B1F8E415D77AECB980613C2E4AC91FC167A2B244592486606FC29C8FD7F045B9A
311
EF7053A7E60B504B0304140006080800353BB142CF3950D2EC0000007C01000008000000636F72652E786D6C8D90416EC3201045AF82665B6183B1EBD4C2446EDC9EA01740405C94182C03558F5F9C3852BBEB6A467FFE9B197D7EFC9EAFE8CBACC17AD7032D0820E394D7D64D3DA478C6074047C157EFE32F1B202767D3C3
311
2683E0D3EAD3B24BCABB685CCCAAF3DAECA20CC14440EA9A9B1E82FA34B32C648AD9112EC522D5454EA6A08F2EC329598DEE47ACCEFBECD99A15444DD8697C1F187E2387175CBF8E231E9A8AE2B1ADD8735DB707761A78B9C182473B3FEEABD5C86834888A5086498369FB41DAAE6ABA9A3D91A66384979BFD0F9416FD4F28
311
591759B5BF7BC702089A1FB90D042FB72C72B90595EB969BF801504B0304140006080800353BB14255019EA25F0000007C00000007000000636E782E786D6C4DCB3B0E80201045D1AD90E915ED2CF8AC45050C11660C8261F98AB1B07AC9C97D42D718D865D3E909258CFD00CCE24AC6E326A164D74DC0B4128928FF326038
311
472BA13128B1252AC747C6BAB984FC68F0B87FE8960A5C09FE86CFB69FBA01504B0304140006080800353BB1425F04A5CD68010000020300000C0000006662782F636F72652E786D6C8D525B6E833010BC8AE5DF0A6C5E4D1A194769684FD00B38C6A128602363A31CBFCB23A2A9A2A84232D6CCCEEEEC00DB5FDB060DCAF6
311
B5D1398E428A91D2D294B5AE72ECDD39D862B4E7CC1AE37E9561A445AB723CC298B3CA1ADF2D9034DA29ED00D5A6540B28FA5E398C6403971CF7F25BB52214DE41457F093B212FA2526114020D759CF5CE8201340F194FCCCFA72B2333CE99F775B9B07509D3EA73AD2CE6294D8EC5E721093EE8F62D48DF8B223864711414
311
9B38794DD3CD36391E1819C59CB9BABDB9935609A74ACC631A2501CD8268F34537BB38DBA5C90BCD760965642CBF13F9AEFCA7C8D7DA25F1627796F59847606422FE6C0B1139D48B01FC10CEC81822BCA684EF8386402064274ECD6D8F0B408392CED81498D2F8951A44E3154CA5687A189959E83C3580CD1EF6899FF479DE
311
033EA0D01558130EAE27EFC6E96C9EBA44D1291B0CEE8AB4B1AD685673B3C5F55C073D944BD318FB1F355956254B9864FC7BF90F504B0304140006080800353BB142DC5677187D0000009D0000000B0000006662782F636E782E786D6C4DCCDF0A83201C86E15B91DFB92BFBEB400DDDBC90581692E9703A76F9ABD1C18E3E
311
78F878D9F0D91C7A9BF8B2C17320971290F18F3059BF70C869C614D020580C21FDDD00F971331C0E06C19618F2F3A4C9CC6376695767FD7A62ABB4EA88BEE19E5657DCD4A4C6EAAE4B2CBBAA57B269B592140AC18A5F69DF232CBE504B0304140006080800353BB1422743C8F72B01000014020000310000006662782F3542
311
4542363145432D373832392D343331332D424445302D4136323742413435454241382F636F72652E786D6C8D515B6EC32010BC0AE22B55651BF0B311268A5BDFA0177080A42831583CAA1CBF503B52FB971F16CDCECC8E76E9E13EDFC0B7B44E19DD439C2308A4E646287DE961F0E7AC83E0C0A835C6FFA141A0A759F630C1
311
90D18B3561D9206EB497DA47541B213770724E7A08F82D7E7AE8F8979CA77C0A3E32DC355F267E9D2E32C7796C471EA3CEDB1800AC43D20B593D8C4383C7F7ACEDC85B5695B8CC868F1165C786B4C3B1AAC7E1D8D16215321A82129B5C8918479D95B4CF9A2431A35ECD8FF8DCCAC94B011941712CAA33DC7EA2764FEA7D55
311
BEA27A5F225A24FA3F5158C493A2A0B42FC916779539C8302DD606A3C284D3ED1146DE17633D48F3764EF217C8508E30A91A82082D566A5C40F46CAACDD37963E38277D75364E37A356E2A468B74A3587E0F186BBA27FB01504B0304140006080800353BB142E280DA684F01000033030000300000006662782F3542454236
311
3145432D373832392D343331332D424445302D4136323742413435454241382F636E782E786D6CD593CD6E022114855F85B06DE6CF19B5310C265DF409BAE816E15AA90C4CF869EADBF7A268DDB8E8B21B3239F770CECD17866DBF2743BEC007EDEC48BBBAA504AC744ADB8F91A6B8AF9E29D972E69D8B77364AAC9860A459
311
A69C7D7897E62229D88B6422AA46DB63113D0497BC848072BE498C93C26000D82AA108D30E9402456E46FCDA83C75550DC9D483C00797D79276EF7093206D6E414CE9ADCC1593E4BD39D8912694408230DF20093A8458A4E4138D64A445177F5B5EBC14EBF49245FB85626AF492E1F693E292F1BD5C8913538E42C448FF48A
311
299E66A05CCCB3D1524484DC9C8D170F6749DBB81A8A5723788FEE6ED50F03869D679C453D4171480F2282A27CD1767DD52EAB6EFDD6AE378BE566E89FDAE5A66F5993ED9CED9C33E512C680773391CE46B091F28E3579FC085FF111A53DB276FEF4079008A0B45EE8DC32FE339FE6FCBE1197C7BF80FF00504B0304140006
311
080800353BB14268981837A405000081100000340000006662782F35424542363145432D373832392D343331332D424445302D4136323742413435454241382F6F626A656374732E786D6CAD575B6FDB3614FE2B82F6B23DF822DBC992415111DB496174698B1A2DF660C0A0244AE1425D405289B35FBF8F22254BAE9D7A43
311
5F74E1E5F09CEF7CE742FFDD2EE3CE33159215F98DEB0DC7AE43F3A888599EDEB8954A0657AEF32EF04551A8CE32D7C949466F5C3DEC067E2A8AAAB443314D48C5D5C1E8FDFC2F474634A7AE137122E58D2BA3479A9121A9541153F9348C8922C334D90DBDA159D8179B0A523E1E082D89A0B982A618CF21C5314A79FDDFB1
311
3B0AFC919E0F7CFDB4ABA6A7578D6A7BFAE7B35C2A9247DF1D762066EACD9677938BEBC1C56C361DCC2E27DE607E3F5F0EBCDFA7E3C5E562717D7B778D83A51290643511347183F7C046B0C81F99A9C0AF58AEA613BBC43A6824E833D39E728389E3F923B3A6B5CE1A794CFDA8C8731AD558018DDA3E2B3AA625CD63F89C51
311
09CD3A088DFBBF9EC6B1333DD5FFF6C8EEF079087477740435BA37EFAEA645F8374C90E7304848AA1968B0B4861AAE8EF7088745C1ED1C934E4614158C7087B35010F1EA0658AA97047E4F8C66B2D0D1A02D700378C14CF7E98230FA31CF8F6999549C6B1ABB411D055BC40A55B2D68CFD43C55EFB2E32D009BED26CB8B206
311
A9D792BAC1B5A1C8D5019B0C904EC2490A97C34CBD733A393074A1E374B574830FF7E16EAD63F7F8E1A5284A2A94A60FA8D538AE796B94AC4EDE599ED31BDC0355F6A07C01F21F11EA7B55E037C176B3DDCC9EA204C96552880CBE71C6CE608CC7D8F1EAA7FEEE7CF9A37673DF7BA7F084B335543F01CFBE0D5D5F76E00CFC
311
6710BE10536BDA3A221C69E381E5004893C4E1058690879370E7062B64396465EC223CF06032D47DC6A73FB2629028EA933AEF1C581EA4C533123460AB1909350CF9AD827B3F7D97CEEA83EDB253F05EFC14BADE2ED71FD6954848441F6C4C2F69C272A650E2F6BCE92AD4C3BC67D1137D7D29440C43BFC77BDDC53BB34749
311
A0AD31D7C0A74D4ED73FFB937B0744D897163ADDF83F380146E8C2DA91FFC064443927392DAAE6DC37EB07CA86815807BB66725B60F68505A43133073188221D09566A10DB6AD526CDE109EBBEAE3E82916E307FFD93BC76B357B8CFBD51C10BB10D5FB7262D1D85FA5B9FDB1683919602BAD741D2C4BF057D1BB324A92492
311
E0115CBFAD165DDFE9B48014D14835D13283FD082E222C691BB9A8D682A09216F996A16E22EE8E1ED0950F482D036A81A7349694275BC679956D13C6518DB619294FC0F1FFF50FABACDC92ACA8727542764F755487BEEE3DF6CA17A2A2473758D7EFC11CB937A6F10932E85A7204AB9E6B17B3C5F26A72B71CCC2FA7B3C1CC
311
9B5D0F6E97E38B81B7BCBAF3AEEF27E3F9C5B2F193D124F09B52D38D687809A5CDAF04B3EEFBBA42FCD824E0060F44C9CD7B139ECDFBEB6A885ED81F610FEA65BBF1367E46DF47E31F0BD8AF3C2A6895959C66345744C7D083FEE05F08FA8C9E32667C9591949E21E5D3FBF58131183963DF671DEFF4E560AF1D5DE8803C2A
311
443D56599813C60F36A606C96199A716BFC627EDDB149AE657FF59C7A03395056731F260ECA4B4C8A842363CA308898C4A50AFDBD3C7F6EE71C6EE67D3212A1272DA68F248D0247389B000B5AA48F5C79D5FD0D4E9BEEAC645B91D3EE1613385EB8033372E9A74C5222A87210AB46E856AE1E052B79347E34FF294A3D7369B
311
DAFF7697C6A65792DB25E7F44FD62E93C2AD01482325FA063444F04EAD4CE0D7BAD9F9E83F19DEA8E31085CFB052AD2DFB81D698FA1884A831CADE16D0C43CD9A37708D4B7CDF286F59A1E2267DDB2DE2481913A5044A4F54D41EB6755BA5D7E1EA14371569F9C9257297C79BEA481A02073A5031C2C022BACCC92285075F1
311
C7E6B3287093CD9C7B060A38BFEEAE2E7FDB2C8A2C2B7233B4B9B5F76167FD88DB6DBC4172A0FA5A223793B137D9D4D7017B43D98644D22189E51306E059C15AA07BEE072FCD9D1175C84CB4EB46DA15070C5D2D1D5BD866106AE9D2CDAD1A1C341E39751043FA4AA923A6BBA07CF34630AA974205815E3EF817504B030414
311
0006080000353BB142000000000000000000000000350000006662782F35424542363145432D373832392D343331332D424445302D4136323742413435454241382F76657274696365732E62696E504B0304140006080800353BB142F270F1330600000004000000360000006662782F35424542363145432D373832392D34
311
3331332D424445302D4136323742413435454241382F747269616E676C65732E62696E636660600000504B0304140006080000353BB142000000000000000000000000370000006662782F35424542363145432D373832392D343331332D424445302D4136323742413435454241382F617474726962757465732E62696E50
311
4B0304140006080800353BB142D5987DFC8F00000041010000360000006662782F35424542363145432D373832392D343331332D424445302D4136323742413435454241382F6469726563746F72792E786D6C858F410EC2201045AF4266AF15DDB800BA74E7C21B903225242D6328188F2FA5C4183471359997F9FF81E89F
311
F3C41E1816475E02DF1F80A11FC8386F25A438EECEC07A250251FC3803E6F58C12560C4AD840E95E91C151A72936F496F35732D860FE635F62C8F2DA16B505C545B74125BAA2FA9E05D7CC053D063734D5C7665FD55B6B8D15D5E9BFEAFD8490FFA45E504B0304140006080800353BB142DC927E4AFF000000A00100003B00
311
00006662782F35424542363145432D373832392D343331332D424445302D4136323742413435454241382F7265736F75726365732F636F72652E786D6C8D504B6E833010BD0A9A6D65B0319404194769684FD00B586642AD043BF2A7EAF16B122AB5BB6E6646EFA3797AE2F0B55C8B4FF4C1383B002B291468B59B8C9D0748
311
F14C76501CA4F0CEC55F3228AC5A708015062966EFD26D83B4B3116DCCA875136EA00A012314FA9A8F0182FEC045952AC5AC0897F2A6F445CD58B232D3592745883E07281E4FD609D26370C96B0CA27AB052A464A64D63A6FCD39C0D7A900DE5A7F1ED589357BADB93E6651CC9B1AD1919BB9A3F374DB7E3A7A3A856B314D1
311
2C3F19B5471571025953C6096D09EBDE69D7D76DDFF027DAF69C8A6A95FF31A5DBF44F533236F27A8BFBB005902C07B91352546B5F79DDCBCC7BED567E03504B010214000A0000080000353BB1423DEE336E79000000790000001B00000000000000000000000000000000006175746F6465736B2D64657369676E2D706163
311
6B6167652E786D6C504B01021400140006080800353BB142D486FD9CA0000000F40000001300000000000000000000000000B20000005B436F6E74656E745F54797065735D2E786D6C504B01021400140006080800353BB142CF3950D2EC0000007C010000080000000000000000000000000083010000636F72652E786D6C
311
504B01021400140006080800353BB14255019EA25F0000007C000000070000000000000000000000000095020000636E782E786D6C504B01021400140006080800353BB1425F04A5CD68010000020300000C00000000000000000000000000190300006662782F636F72652E786D6C504B01021400140006080800353BB142
311
DC5677187D0000009D0000000B00000000000000000000000000AB0400006662782F636E782E786D6C504B01021400140006080800353BB1422743C8F72B010000140200003100000000000000000000000000510500006662782F35424542363145432D373832392D343331332D424445302D413632374241343545424138
311
2F636F72652E786D6C504B01021400140006080800353BB142E280DA684F010000330300003000000000000000000000000000CB0600006662782F35424542363145432D373832392D343331332D424445302D4136323742413435454241382F636E782E786D6C504B01021400140006080800353BB14268981837A4050000
311
811000003400000000000000000000000000680800006662782F35424542363145432D373832392D343331332D424445302D4136323742413435454241382F6F626A656374732E786D6C504B01021400140006080000353BB14200000000000000000000000035000000000000000000000000005E0E00006662782F354245
311
42363145432D373832392D343331332D424445302D4136323742413435454241382F76657274696365732E62696E504B01021400140006080800353BB142F270F13306000000040000003600000000000000000000000000B10E00006662782F35424542363145432D373832392D343331332D424445302D41363237424134
311
35454241382F747269616E676C65732E62696E504B01021400140006080000353BB14200000000000000000000000037000000000000000000000000000B0F00006662782F35424542363145432D373832392D343331332D424445302D4136323742413435454241382F617474726962757465732E62696E504B0102140014
311
0006080800353BB142D5987DFC8F000000410100003600000000000000000000000000600F00006662782F35424542363145432D373832392D343331332D424445302D4136323742413435454241382F6469726563746F72792E786D6C504B01021400140006080800353BB142DC927E4AFF000000A00100003B0000000000
311
0000000000000000431000006662782F35424542363145432D373832392D343331332D424445302D4136323742413435454241382F7265736F75726365732F636F72652E786D6C504B0506000000000E000E00800400009B1100000000
310
504B03040A0000080000353BB1423DEE336E79000000790000001B0000006175746F6465736B2D64657369676E2D7061636B6167652E786D6C3C3F786D6C2076657273696F6E3D22312E302220656E636F64696E673D227574662D3822203F3E3C666F726D6174733E3C666F726D61743E687474703A2F2F736368656D612E
310
6175746F6465736B2E636F6D2F64657369676E2D7061636B6167652F323030393C2F666F726D61743E3C2F666F726D6174733E504B0304140006080800353BB142D486FD9CA0000000F4000000130000005B436F6E74656E745F54797065735D2E786D6C7D8EC10E82300C865F65E91D8A1E8C310C0EEA1BF002731658846E
310
D98AC1B77784ABF1D8FE5FBFBF75BBCE937A534CCEB38643598122B6FEE978D0B0485F9C41B54DDD7D022595594E1A469170414C76A4D9A4D207E29CF43ECE46F218070CC6BECC4078ACAA135ACF422C856C0E68EA1BF5669944DDD7BCDE7B1F8E415D77AECB980613C2E4AC91FC167A2B244592486606FC29C8FD7F045B9A
310
EF7053A7E60B504B0304140006080800353BB142C2B9E920EC0000007C01000008000000636F72652E786D6C8D904D6EC3201085AF82665B61F36327918589EC3439412F8030715162B00C543D7E71E248EDAEAB19BD79DFCCE889E3F774475F6609D6BB1668410019A7FD60DDD8428A577C00749462F13EFEB201726A322D
310
AC3248312E3ECD9BA4BD8BC6C5AC3A3F984D5421980848DF73D342D09F6652854A313BC2AD9895BEA9D114F4D56538253BA0E7113BE47DF66ACD02929C2F3BD67704B373D7E38AB30E1FD8AEC727D6D353C52EBCDEBD8B7285A588767ADDD78B51D10C2019A11C931AD3FD07D937AC6E2AFE46EA861351AEF63F509A877F42
310
C9BAC8D9F6EE130B20697EE43190A25CB3C8E51154AE6B6EF207504B0304140006080800353BB14255019EA25F0000007C00000007000000636E782E786D6C4DCB3B0E80201045D1AD90E915ED2CF8AC45050C11660C8261F98AB1B07AC9C97D42D718D865D3E909258CFD00CCE24AC6E326A164D74DC0B4128928FF326038
310
472BA13128B1252AC747C6BAB984FC68F0B87FE8960A5C09FE86CFB69FBA01504B0304140006080800353BB142B14F197068010000020300000C0000006662782F636F72652E786D6C8D52ED8E8230107C95A67F2FD052408D2935E2E913DC0B54A81C115A525AE2E3DFF2613C2F1763484A33B3B33B3BC077B7B64183B27D
310
6D7486A39062A47461CA5A5719F6EE126C30DA096E8D71BFCA30D2B255191E612C78658DEF16A830DA29ED00D5A6540B28FB5E398C8A062E19EE8B6FD5CA507A0715FD35EC647195950AA31068A813BC77160CA079C878627139DF389971C1BDAFCB85AD4B98565F6A65B1A0C7D38AE57B1AB0E33E0F9298ED830D5BE5C181
310
E5D12161A7385D7D72328A0577757B775758259D2AB160348A039A06D1FA8BAEB72CDD26F1074DB731E5642C7F12F9AE7C53E46BED62B6D89D653D16111899883FDB42440EF572003F4470328608AF29E1E7A0211008D9C97373DFE30AD0A00A676C024C69FC831A64E3154CA5687A389959E83C3580CDFEEDC35EF479DD03
310
3EA0D41558930EAE67EFC6E97C9EBA44D1291B0CEE86B4B1AD6C1EE6668B8FF331E85F79611A63DF51936555B28449C6BF57FC00504B0304140006080800353BB1427481201C7D0000009D0000000B0000006662782F636E782E786D6C4DCCD10A83201886E15B91FFDC6568C30335D4B6FB886521330DA76397BF1A1DECE8
310
83878F57F49F35A0B7CB2F9FA284F64200B9F848938F8B845A66CC01F54AE494CADF0D501C5727E1605062C9A96E274D6E1E6B28BB061F9F27524DAE8325160F374A3163B6C5BAA3041BC3F5BDED38339443A344F32BED7B84D517504B0304140006080800353BB1426045B7942B01000014020000310000006662782F3341
310
3036444330432D444533332D343443312D413533302D4242384146313538344233382F636F72652E786D6C8D515B6EC32010BC0AE22B55850DC64EAC0813E5D19EA017A0405294182C1E558E5FA81DA9FDCB0F8B66676647BB6C771F6FE05BFB609C1D20A93004DA4AA78CBD0C30C533EA21D871E69D8B7F68105831EA0116
310
187276F12E4D0B249D8DDAC68C5AA7F4028A10748440DEF26780417EE9515422C5CC08D76A12F22A2EBA22556E671E6721FA1C00CC43CA0B39DDE3F5E9888FE8F446296ADB2341FB8E627438F4FB77D2F5ED81F6AC9E859CA564D422372AC73167A3FDB32645CC5934E323BEF45A44AD206F30A10877886C3EF066DB74DB96
310
BEE26E4B31AB0BFD9F284DEA49513236D266893BCB02E484D5738333E5D2E7ED1146DF27E72328F35641CB17C871854943DABE6F583D53F302B2E7BA5D3C43743E2F7875FDCC6CBA18AF5BCEEA72A35C7E0F986BB927FF01504B0304140006080800353BB1428427157F5701000033030000300000006662782F3341303644
310
4330432D444533332D343443312D413533302D4242384146313538344233382F636E782E786D6CBD93CB6EC32010457F05B1ADFC8A9D87224CA42EFA055D748B61D2D0D860F1A89ABFEF9090349B2C2A55DD20EBCEE5DED11166BBAF69249FE0BCB6A6A74D595302465AA5CD7B4F63D8171B4A769C396BC39D8D122326E869
310
922967EFCEC6394B0AF6228E01D5519B63161D781B9D048F72BA49462BC58801608A88224C0328058ADC8CF8B50787ABA0389C48380079797E2376F800193CAB520A6755EAE02C9DB9E9CE44891C85F73DF5F2009328450C56813F964A045136E5B5EBC14E3F49245DB85646A7492AEF693A29CF1B95C8915538E4CC0787F4
310
B2299C66A05CCCF3A8A50808B93A1B2F1ECEA23661D565AF46F00EDDED62B5D960D879C659D013648774200228CA1775D316F5B268D6AFF57ABB586EBBF6A95E6EDB9A55C9CED960ED982F610C383B13694D0013286F5895C68FF0651F51DA216BEB4EBF00890072EB85CE2DE32FF934ABB6EBFE914F757EDF88CBE15FC0BF
310
01504B0304140006080800353BB142E1FAB3A4630700009A1B0000340000006662782F33413036444330432D444533332D343443312D413533302D4242384146313538344233382F6F626A656374732E786D6CED59DD73A33610FF5718FAD23E181BDB49930EA193D8971BCF35773775AFD307CF3032C8448D108C2492B87F
310
7D571F602026C16DFAD6071B10D26AF7B79F5A829F9F33EA3C622E48CEAE5CDF9BB80E66719E10965EB9A5DC8D2E5CE7E730E0792E1BD35C87A10C5FB96AD80D8394E765618712BC4325959DD1DB9B3F1C1163865D27A648882B57C4F738431E2A659E60F1E02548222FDD3D7BBE6726B6C9A61C15F71DA205E29849E014C6
310
1950710C537EFB71E28EC360ACDE8781FAB7B3668366CDFB678DB5D46D2E091312B1F8054B1D32B3412CCDFCF9F2C3F4EC7274369FCF46F3F3A93FBAB9BD598EFC1F6793C5F9627179FDE112D8DBE639B53225B8C02C01FDEDDDD00FC6EA4D2DBA45E018D771CE188E3590009516AB4B9060015B35E09BB41F7D2551E3B596
310
B0F13C57EF2D0B8DE1599B4ADFAC6140B4E8822076BB4AE2EADA942FDFFE09828B2146C90596C0AD901CB46BE1E1E0156E3809C666340CB6075D10E16448624E107528D972C4412930554D0903B3C09251CEC18194A324D09A33AFDBB6059EF9B6EB1CE3725752AA3CC30DB56345E07E580ACD19F90BF303F74D64802790B6
310
244C5E582EE5BEC06E78198CF56018A8CB6C6A5F1A209D1D45A9D08898B71D4117CAF5574B37FC74BB7D5EAB70707CF382E705E652199DD2A3E60B0CD95E154A765B7F90E6D40210C6806A571E40F91590FF0CD1E3C00AE88D93E7F9F3DCCE951C31B1CB7906BA7126CE68027F13C7D7FFEABE71178CEBC56DEDF5E1096EAA
310
A0BAF8F778B665D05859FE1B7086C123187CCE67F6D53A4614ECF98E300048198943731882D0BEDB3EBBE10A0227047A588568E883C8C0EE23DC06634BE6A095CABDACD73140D4EE311BA224804D5B24B0D1A3A78F903D38890F6A6A8AD807EFD9BB98EBF572FD695DF21D8AF19DF5E925DE11462464CDE30CB5306F49F480
310
F74F394F40D09778AF9B7867762B01682BCC15F06905827A38ECDCDA20867569AEC24DF0C60E2084CAD50DFA7744C49852C4705E56FBD6D14D196AEDF1B66670C3A9817836ED9830C78F445515E03487192D4621EFC79C140A4437FC6824AB83A6D723DDB7D567B0C87A7ECFAC1583D0CB10FD4D07AD2338B42CBB42DA0251
310
0BBC3D84F338A7398FB6FBC8443A176A0960A3ED2DBFB78842AC374A5254C083B4DF55212535D24609D9ED4A0171F5088BBFAF164D73987833FFCC69FE779C710ED1167C1771EB779D3D2292A114473B94F46DD7DCADA62D34C91ED21CEF28C8451E89DC4748469304A7A7407312F1CB77A59ED25C08C2B0807C7514FC261A
310
130F0289D166C5B2D26A076822A20C4B444F414091E90157A71D5DE3C6503ABCCD636DBDAF69AC49F43FB2088EA096CC5944A014851CF226E3BE770631A48DAE41B9832F585B455B8B414B2821E27DF484497A2F4F41DD90EFC13D86234929A3BC403198F500B22F7C4529B5C3FB16C50F2A7F447149DFCB4004A6BB88505A
310
6611FC088393C710D7AE03D3AB2834889BD8277106451992251FB2C9F9D9E4C53EA666E886C0C6463B42216C47192A7A506F05445D8F3835F8967A8F52B765564428CB4B36C850BC59D79B2CF9AE5A15D981FCAA5211CAC68AB025180684C93AAB56311B4C5D075670231DA8F691405941CD29EC8DC4E3D7DEA429F76EC0AD
310
9FBEEF0619147E3DDA6B46D4790583E5B15518882724E37B375CEBEBE806EAEF042787545FD59ACD0A10105391BCE4C4AAE8DB0ACA1B5BA3B9E11D9262F3D164DDEAFA6DE541F72318C31AA85DEA852B0574869944AA32B95337F4570421B845C38CAF544E3D85CA7592E8AA11D15BD2A7CE5619D1DA34235E718F599EC18F
310
6D088B6999E00D4AC443742769B4268A752BA597910AE35705FCF271DD8107460688F4551578F8A9B3D68E2E54B9749488BC2FB32D430482604BB4D4E8C62B586A355269B9BEAA3305D45D606056C5F3FF4F16CD76C4FF278BD41AC6BF3A59DCEC7F41FB665FA491CE6365D7271D03EAFCA4A8BCC73140B71D6AAA751631C9
310
DCCA6F9D2982A05845F9C1D55815340CC13E8EFF71D6EECB8266BB0EFFA7656DFF45C5715256694D565DAA2395EBAA99C316F3C5F262FA6139BA399FCD47737F7E39BA5E4ECE46FEF2E2837F793B9DDC9C2D6B34B5A386411DCC74EE826713D4AA61F5643180AEACC82949E0349F382986982FE14C3FA07DCE332C2079369B
310
DD896DCA0F58FD68FA9C126D29AE38B947D020A602D23A6054C6B23DEE7C07AD490907ED2B179A46DE03FC59AB741DC83C572EB40A2489B1F0B6D066520D3D4D1C52AECEFD9618E08358AA52A259543FD7AB1436ADF05F4F199206AC5CAD1E06146E0574BF5A1D0ACD9BE5293E49F08A1D0749B8DD9612AA3523CB61A01646
310
6F7350BF918D12F660B77E06D77D5D2CDFD3735A880CFA64F0AA1118AA238978AAFBDD8A31CBD2F5F2EB18FA6CCEEA8B53D032055D0EA734E2188CB954051558115885A5592009A6BAF869F395E7F08927737455E47CFF7C71FEC366916759CECCD0E61A4E65097C2872D6F7F0D927D940F18055735D6CA6137FBAD14D6DDB
310
678FB648604F5545305015134A908EC9815DBE6850D9F6E558A9A2337DB5746C10856680B1A3173D5EF391CB011F529F5394C7683FAFA47DB5AF3DD653C1263874A4C3BF01504B0304140006080000353BB142000000000000000000000000350000006662782F33413036444330432D444533332D343443312D413533302D
310
4242384146313538344233382F76657274696365732E62696E504B0304140006080800353BB142F270F1330600000004000000360000006662782F33413036444330432D444533332D343443312D413533302D4242384146313538344233382F747269616E676C65732E62696E636660600000504B0304140006080000353B
310
B142000000000000000000000000370000006662782F33413036444330432D444533332D343443312D413533302D4242384146313538344233382F617474726962757465732E62696E504B0304140006080800353BB142D5987DFC8F00000041010000360000006662782F33413036444330432D444533332D343443312D41
310
3533302D4242384146313538344233382F6469726563746F72792E786D6C858F410EC2201045AF4266AF15DDB800BA74E7C21B903225242D6328188F2FA5C4183471359997F9FF81E89FF3C41E1816475E02DF1F80A11FC8386F25A438EECEC07A250251FC3803E6F58C12560C4AD840E95E91C151A72936F496F35732D860
310
FE635F62C8F2DA16B505C545B74125BAA2FA9E05D7CC053D063734D5C7665FD55B6B8D15D5E9BFEAFD8490FFA45E504B0304140006080800353BB142CB9700B6FF000000A00100003B0000006662782F33413036444330432D444533332D343443312D413533302D4242384146313538344233382F7265736F75726365732F
310
636F72652E786D6C8D504B6E833010BD0A9A6D65B04D4852641C853439412F609909B5126CE44FD5E3D724546A77DDCC8CDE47F3F4C4E16BBA179FE88371B603565228D06A37183B7690E295ECA13848E19D8BBF6450583561070B0C528CDEA57985B4B3116DCCA87503AEA00A012314FA9E8F0E82FEC049952AC5AC08B772
310
56FAA6462C5999E9AC9322449F0314CF27CB04E931B8E43506513D59295232C3AA3143FE69AE063D487ABE6C79FF7A21FC7CECC9A6E647B2E7DB9E9C78CF4E1B7EA99BED9BA816B314D14C3F19B547157100C929AB096D08DBBDD35DCB9B7653BFD0A6ADA9A816F91F539A877F9A92B1B1E66BDCA72D806439C88390A25AFA
310
CAEB5166DE4BB7F21B504B010214000A0000080000353BB1423DEE336E79000000790000001B00000000000000000000000000000000006175746F6465736B2D64657369676E2D7061636B6167652E786D6C504B01021400140006080800353BB142D486FD9CA0000000F40000001300000000000000000000000000B20000
310
005B436F6E74656E745F54797065735D2E786D6C504B01021400140006080800353BB142C2B9E920EC0000007C010000080000000000000000000000000083010000636F72652E786D6C504B01021400140006080800353BB14255019EA25F0000007C000000070000000000000000000000000095020000636E782E786D6C
310
504B01021400140006080800353BB142B14F197068010000020300000C00000000000000000000000000190300006662782F636F72652E786D6C504B01021400140006080800353BB1427481201C7D0000009D0000000B00000000000000000000000000AB0400006662782F636E782E786D6C504B01021400140006080800
310
353BB1426045B7942B010000140200003100000000000000000000000000510500006662782F33413036444330432D444533332D343443312D413533302D4242384146313538344233382F636F72652E786D6C504B01021400140006080800353BB1428427157F57010000330300003000000000000000000000000000CB06
310
00006662782F33413036444330432D444533332D343443312D413533302D4242384146313538344233382F636E782E786D6C504B01021400140006080800353BB142E1FAB3A4630700009A1B00003400000000000000000000000000700800006662782F33413036444330432D444533332D343443312D413533302D424238
310
4146313538344233382F6F626A656374732E786D6C504B01021400140006080000353BB1420000000000000000000000003500000000000000000000000000251000006662782F33413036444330432D444533332D343443312D413533302D4242384146313538344233382F76657274696365732E62696E504B0102140014
310
0006080800353BB142F270F13306000000040000003600000000000000000000000000781000006662782F33413036444330432D444533332D343443312D413533302D4242384146313538344233382F747269616E676C65732E62696E504B01021400140006080000353BB142000000000000000000000000370000000000
310
0000000000000000D21000006662782F33413036444330432D444533332D343443312D413533302D4242384146313538344233382F617474726962757465732E62696E504B01021400140006080800353BB142D5987DFC8F000000410100003600000000000000000000000000271100006662782F33413036444330432D44
310
4533332D343443312D413533302D4242384146313538344233382F6469726563746F72792E786D6C504B01021400140006080800353BB142CB9700B6FF000000A00100003B000000000000000000000000000A1200006662782F33413036444330432D444533332D343443312D413533302D4242384146313538344233382F
310
7265736F75726365732F636F72652E786D6C504B0506000000000E000E0080040000621300000000
  0
XRECORD
  5
17
102
{ACAD_REACTORS
330
12
102
}
330
12
100
AcDbXrecord
280
     1
270
     1
271
     1
  0
XRECORD
  5
16
102
{ACAD_REACTORS
330
12
102
}
330
12
100
AcDbXrecord
280
     1
270
     1
271
     1
  0
XRECORD
  5
18
102
{ACAD_REACTORS
330
12
102
}
330
12
100
AcDbXrecord
280
     1
270
     1
271
     1
  0
XRECORD
  5
15
102
{ACAD_REACTORS
330
12
102
}
330
12
100
AcDbXrecord
280
     1
270
     1
271
     1
  0
XRECORD
  5
1587
102
{ACAD_REACTORS
330
22
102
}
330
22
100
AcDbXrecord
280
     1
102
MATERIAL
148
0.0
149
0.0
149
0.0
 93
        0
 94
      127
282
     0
 72
     0
 77
     0
171
     0
175
     0
179
     0
273
     0
  0
XRECORD
  5
24
102
{ACAD_REACTORS
330
22
102
}
330
22
100
AcDbXrecord
280
     1
270
     1
271
     1
  0
XRECORD
  5
23
102
{ACAD_REACTORS
330
22
102
}
330
22
100
AcDbXrecord
280
     1
270
     1
271
     1
  0
XRECORD
  5
BA
102
{ACAD_REACTORS
330
22
102
}
330
22
100
AcDbXrecord
280
     1
 70
     1
 90
1959938040
 71
     1
  1
F8FC0BA2-408A-48CE-81CB-B95ED0E0CD60
311
504B03040A0000080000343BB1423DEE336E79000000790000001B0000006175746F6465736B2D64657369676E2D7061636B6167652E786D6C3C3F786D6C2076657273696F6E3D22312E302220656E636F64696E673D227574662D3822203F3E3C666F726D6174733E3C666F726D61743E687474703A2F2F736368656D612E
311
6175746F6465736B2E636F6D2F64657369676E2D7061636B6167652F323030393C2F666F726D61743E3C2F666F726D6174733E504B0304140006080800343BB142D486FD9CA0000000F4000000130000005B436F6E74656E745F54797065735D2E786D6C7D8EC10E82300C865F65E91D8A1E8C310C0EEA1BF002731658846E
311
D98AC1B77784ABF1D8FE5FBFBF75BBCE937A534CCEB38643598122B6FEE978D0B0485F9C41B54DDD7D022595594E1A469170414C76A4D9A4D207E29CF43ECE46F218070CC6BECC4078ACAA135ACF422C856C0E68EA1BF5669944DDD7BCDE7B1F8E415D77AECB980613C2E4AC91FC167A2B244592486606FC29C8FD7F045B9A
311
EF7053A7E60B504B0304140006080800343BB1423340ED75EE0000007C01000008000000636F72652E786D6C7590416EC3201045AF82D856D860B01359982869EC13F402088883128365A0EAF18B13476A165DCDE8CF7F33A3CF0F3FD31D7C9B2558EF3A480A0C8171CA6BEBC60EA678417B080E822FDEC73F36089C9C4C07
311
57190A3E2E3ECD9BA4BC8BC6C5AC3AAFCD26CA104C8440DD73D3C1A0AE6692854C313BC2AD98A5BAC9D114E4D5653825ABC1F388D5799FBD58B340D1ECF615C5AC416CC03D62356DD0B13931D47FF603A3C7F370AE4FBC5C61C1A39D5EF7D56264341A8A0A138A708DC8EE0BEFDAAA6E19FEC0754B312F57FB1B9466FD1F44
311
DEA1645DA4D5F6EE130B5090FCC8632078B96691CB23A85CD7DCC42F504B0304140006080800343BB14255019EA25F0000007C00000007000000636E782E786D6C4DCB3B0E80201045D1AD90E915ED2CF8AC45050C11660C8261F98AB1B07AC9C97D42D718D865D3E909258CFD00CCE24AC6E326A164D74DC0B4128928FF32
311
6038472BA13128B1252AC747C6BAB984FC68F0B87FE8960A5C09FE86CFB69FBA01504B0304140006080800343BB142F47FA8D26B010000020300000C0000006662782F636F72652E786D6C8D525B6E833010BC8AE5DFCAD83C5345C651D22427E8051C70280AD8C8D828C7EFF288D254695421196B66677776806FAE6D8306
311
65FBDAE81C8701C348E9C294B5AE72ECDD99BC63B411DC1AE37E9461A465AB723CC258F0CA1ADF2D5061B453DA01AA4DA91650F6BD7218150D5C72DC175FAA9581F40E2AFA4BD0C9E2222B158401D0502778EF2C1840F390F1C4E27CBA723AE3827B5F970B5B9730AD3ED7CA6291ADDEA3982519498EEC409234CEC836DB25
311
E4F0713826F1767FDCA73B4E47B1E0AE6E6FEE0AABA4532516110B63C25212AE3ED96A1DA5EB84BDB1741D334EC7F20791EFCABF44E1A3C8D7DAC5D1627796F558846064227E6D0B1139D4CB01FC50C1E91822BCA6841F8386402064274FCD6D8F0B40832A9CB10930A5F1776A908D573095A1E9E17466A1F3D400367BDA27
311
7AD1E7750FF8805257604D3AB89EBC1BA7F379EA1245A72C19DC1569635BD9DCCDCD16EFE77DD05379611A63FFA3A6CBAA7409938E7FAFF806504B0304140006080800343BB14270B667657E0000009D0000000B0000006662782F636E782E786D6C4DCCD10A83201886E15B91FFDC956D99821A73D27DC4B290990EA76397
311
BF1A1DECE883878F57F49FD5A3B74D2F17830472AA01D9708F930B8B849267CC00F54AA418F3DF0D5018572B6167506249B13C0F9AEC3C169F37F52E3C0E6CDA1BE18CB498D5DD155F981930377CC05AD37343A9EEA821502951FD4ADBEE61F505504B0304140006080800343BB142D0C76332300100001402000031000000
311
6662782F32354331393831352D383037412D343844462D394439462D4242363332363642373644312F636F72652E786D6C8D915B6EC3201045B782F84A556183DF8E3051D3282BE8061C9BA42831583CAA2CBF43ED48CD47A5FE3068E69E990BC377F7E986BEA475CAE80EB3846224F56046A52F1D0EFE4C1A8C76825B63FC
311
2F1946BA9F6487631A0B7EB126CC6B6A30DA4BED21ABCD28D764EF9CF4180D37B874D80D9F72EA933E7850B86B32F7C3B5BFC8842550069DE0CE5B30809621F1C4222BDF59DBB09234B47E2345733892F6D01EC97E5FE55955EDEBEAC078BA808287A0C6155723D8516725ED7F9B445870AFA687FDC1CADECB1178CA72424B
311
C2EA0F5A6FB3725BD0575A6E73CAD3287F82C23CFE05B1672828EDF36CB5BB600E0B78CD52107C34E1747B9891F7D9588FE2BC8D93C30B1634A18C152DAB0159A4F001D0B32AD69ECE1B0B1FBCB99E40CD4A9EC6C65521781A7704E1678110E33EC537504B0304140006080800343BB142EFE39A0D52010000330300003000
311
00006662782F32354331393831352D383037412D343844462D394439462D4242363332363642373644312F636E782E786D6CC593CD6E022114855F85B06DE64F476D0C8349177D822EBA45B82A9581093F4D7DFB5E14AD1B17EDA61B3239F770CECD17866DBE46433EC107EDEC40BBBAA504AC744ADBFD4053DC55CF946C38
311
F3CEC53B1B25568C30D02C53CEF6DEA5A9480A76229988AAD1F658440FC1252F21A09C6F12E3A4301800B64A28C2B805A540919B11BF76E0711514B727120F405E5FDE89DB7E808C81353985B326777096CFD27467A2441A11C240833CC0286A91A253108EB51251D45D7DED7AB0D34F12C917AE95C96B92CB079A4FCACB46
311
3572640D0E390BD123BD628AA7092817D364B41411213767E3C5C359D2362EFBE2D508DEA3BB5BCEFB1EC3CE33CEA21EA138A4071141513E6BBB79D52EAA6EF5D6AED6B3C5BA6F9FDAC57ADEB226DB39DB3A67CA258C01EF26229D8D6023E51D6BF2F811BEE2234A7B64EDFCE91720114069BDD0B965FC3B9FEEEF7C9AF3FB
311
465C1EFF02FE0D504B0304140006080800343BB1422CD507ECA305000080100000340000006662782F32354331393831352D383037412D343844462D394439462D4242363332363642373644312F6F626A656374732E786D6CAD57DB6EDB3810FD1541FBB2FBE08B6C2775168A0A5F92C228D216355AEC8301839228851BEA
311
02924A9CFDFA3D94A89B6BA7DE455F2C8B1A0E67CE9CB9D07D7F48B8F54C8564597A6B3BC3B16DD134C84296C6B776A1A2C1DCB6DE7BAEC832D511B3AD9424F4D6D6CBB6E7C6222B72B314D288145C1DADDE2FFFB26440536A5B012752DEDA3278A4091992426521954FC39028328CA3C3D01956827DB5B120F9E391D29C08
311
9A2A588AF5145AACCA28A7FF3AB6479E3BD2DF3D57FF1AA9E979A951E94FFF7C964A45D2E087C38ED44C9DD9FA6E727533B89ACDA683D9F5C4192CEF97EB81F36E3A5E5DAF56378BBB1B1C2C9580266389A091ED7D00368205EEA8FAE4B9054BD57462444C8046823E331D29DB9B588E3BAA641AEF8C93A7CC0FB234A54189
311
15D028FD33AA439AD33444CC1995B0AC83D0B8FFEA681C3B9FA7FADD1CD95DBE0C81EE8E8EA2DAF6FAD9B534F3FF860BF21206094935032B2C8DA31557C72DC27E9671F38D492B218A0A46B8C5992F8878B53D886A11CFEDA9D14C163A1BB407B68728549FFB74411AFD9CE7A7AC8C0ACE358D6DAFCC823D72852A595AC6FE
311
A1A2B5BE8B0C6C42AC341BE6C621F59A53DBBBA928323F625305A415711223E47053EF9C4E8E1C5DE93CDDAC6DEFE3BD7FD8EADC3D7D782EB29C0AA5E9036AD581AB9F1A2563937351E4F406FBC8941694AF40FE1352BD35057113EC303BCCCC294A9054469948101B6B6C0DC6F8195B4EF9ABFF77FEB9A366733F7AE7F044
311
B03554BF00CFBE0FDD5876E0F4DC67103E1353E3DA36201C65E381A5004893C4E21996508723FF607B1B54395465EC22DC73E032CC7DC65F7764D4A0509427759E29B03C2A8B171468C05632126654E43706B671FAA19C95071BB173F05EFD12BA2ED6DB8FDB424424A00F26A7D73462295368712D6FBA06F530EF79F4445F
311
5F3211C2D11FF1DE76F14ECC5112686BCC35F0715DD3F54B7B72EF8000FBE24C971BF72727C009DD583BFA1F980C28E724A559519FFB66FF40DBA820D6C9AE99DC3498B6B18034D597A31C44930E04CB35884DB76A8AE6F08C77DF369FC048C8F3CC27BC15F2DBD21B643C137BFF755F55A593487FEF53DB4030D25AC0F632
311
47EAF43798EF43164585440D3C01EBF7CDAA1B3A5D1550216AAD55B2CCE03E728B08C3D95A2F9AB52068A459BA67689B48BB930774F50351438052E1398B25E5D19E715E24FB887134A37D42F23370FC7FFBFD22C9F724C98A549DD1DD331DCDA16F7B8FBCF285A8E0D1F6B6E573B044E90D69D886B927AC5BC909AC7AA1BD
311
9FDFAFC6CBC564301BCF1783D97C7537983BABE560797375B71EDF8D57EBEBD6A27286F2DCBAD374131A514267730BC14CF8BE6D903EA606D8DE035172F7A1CACEFAF96D33C428EC8EB007EDB2D9B8089F31F6D1F0E70A5AC9938A3649CE69425345740A3DE83FFC2BC198D133A65ADF2424A61768F9FC617BE40C562ED8F7
311
45A73B7D39DA6B56573A214F2A518F45E2A784F1A38D7185E4304F63835F1D93E659F599FA55BF99C0603095196721CA6068C5344BA84231BCA00789844A50AF3BD287E6EA71C1EEE76A4054C4E7B4B6E4916046E6126901DE1681EAAF5BBF61A6D363D5AD8D6E3B7CC28FA914B605CEDCDA98D1150BA81CFAE8CF7A122A95
311
834BDD411E9C2569CC316A579B9AF76697C6A6D7911B914BC627E35755C18D03282339C606CC43884E698CE796B699EFC17F72BC36C7220A7FFD4235BEB40B8D33E53148D1CA297359C00CF3648E3E2051DF76CB1996323D442EBA64BD49824AEB4011119717056D9F3169B1FE32C280626D3E5B392F62C4F2724D034141E6
311
422738580456189D3951A0EAEACFDD1791E1229B58F70C14B07E3FCCAFFFD8ADB224C9D26A69B730D7616BFB88CB6DB84371A0FA56227793B133D995B7017341D9FB44D22109E513161059C11AA07BE1072FAB2B23FA50F5A1911BE9501C3174B3B64C639B41A9A14BB7B66A703077A4D4420EE91BA5CE98AE40FEE6856054
311
8AC2048151DEFB17504B0304140006080000343BB142000000000000000000000000350000006662782F32354331393831352D383037412D343844462D394439462D4242363332363642373644312F76657274696365732E62696E504B0304140006080800343BB142F270F1330600000004000000360000006662782F3235
311
4331393831352D383037412D343844462D394439462D4242363332363642373644312F747269616E676C65732E62696E636660600000504B0304140006080000343BB142000000000000000000000000370000006662782F32354331393831352D383037412D343844462D394439462D4242363332363642373644312F6174
311
74726962757465732E62696E504B0304140006080800343BB142D5987DFC8F00000041010000360000006662782F32354331393831352D383037412D343844462D394439462D4242363332363642373644312F6469726563746F72792E786D6C858F410EC2201045AF4266AF15DDB800BA74E7C21B903225242D6328188F2F
311
A5C4183471359997F9FF81E89FF3C41E1816475E02DF1F80A11FC8386F25A438EECEC07A250251FC3803E6F58C12560C4AD840E95E91C151A72936F496F35732D860FE635F62C8F2DA16B505C545B74125BAA2FA9E05D7CC053D063734D5C7665FD55B6B8D15D5E9BFEAFD8490FFA45E504B0304140006080800343BB1425B
311
AAB04400010000A00100003B0000006662782F32354331393831352D383037412D343844462D394439462D4242363332363642373644312F7265736F75726365732F636F72652E786D6C7550596E833010BD0A9ADFCA60D644C8384A1A38412F609909B5126CE4A5EAF16B02959A8FFECC8CDEA2797AECF43D3F922FB44E19
311
DD419E5248504B332A3D7510FC8D1C213971668DF17F6490683163072B0C9C4DD6846587A4D11EB58FA83623EEA0700E3D24F2118F0E9CFCC459A422F8A870F77411F22E264CF334D251C799F3360648B627EB046ED19960253A966D2C6721A871D7A831FE543785167873381625AD6A520DB427555D36E4DC5C2AD2BFF743
311
559EAFC3B5BEB06C3573E6D5FC9B515A141E47E005CD4B426B921F3EE8A12DEAB6A26FB46E4BCAB255FE620ACBF89F297F3505A57D59EC71379B039EC7204F82B36CED2BAE679971AFDDF21F504B010214000A0000080000343BB1423DEE336E79000000790000001B00000000000000000000000000000000006175746F64
311
65736B2D64657369676E2D7061636B6167652E786D6C504B01021400140006080800343BB142D486FD9CA0000000F40000001300000000000000000000000000B20000005B436F6E74656E745F54797065735D2E786D6C504B01021400140006080800343BB1423340ED75EE0000007C010000080000000000000000000000
311
000083010000636F72652E786D6C504B01021400140006080800343BB14255019EA25F0000007C000000070000000000000000000000000097020000636E782E786D6C504B01021400140006080800343BB142F47FA8D26B010000020300000C000000000000000000000000001B0300006662782F636F72652E786D6C504B
311
01021400140006080800343BB14270B667657E0000009D0000000B00000000000000000000000000B00400006662782F636E782E786D6C504B01021400140006080800343BB142D0C7633230010000140200003100000000000000000000000000570500006662782F32354331393831352D383037412D343844462D394439
311
462D4242363332363642373644312F636F72652E786D6C504B01021400140006080800343BB142EFE39A0D52010000330300003000000000000000000000000000D60600006662782F32354331393831352D383037412D343844462D394439462D4242363332363642373644312F636E782E786D6C504B0102140014000608
311
0800343BB1422CD507ECA3050000801000003400000000000000000000000000760800006662782F32354331393831352D383037412D343844462D394439462D4242363332363642373644312F6F626A656374732E786D6C504B01021400140006080000343BB1420000000000000000000000003500000000000000000000
311
0000006B0E00006662782F32354331393831352D383037412D343844462D394439462D4242363332363642373644312F76657274696365732E62696E504B01021400140006080800343BB142F270F13306000000040000003600000000000000000000000000BE0E00006662782F32354331393831352D383037412D343844
311
462D394439462D4242363332363642373644312F747269616E676C65732E62696E504B01021400140006080000343BB1420000000000000000000000003700000000000000000000000000180F00006662782F32354331393831352D383037412D343844462D394439462D4242363332363642373644312F61747472696275
311
7465732E62696E504B01021400140006080800343BB142D5987DFC8F0000004101000036000000000000000000000000006D0F00006662782F32354331393831352D383037412D343844462D394439462D4242363332363642373644312F6469726563746F72792E786D6C504B01021400140006080800343BB1425BAAB044
311
00010000A00100003B00000000000000000000000000501000006662782F32354331393831352D383037412D343844462D394439462D4242363332363642373644312F7265736F75726365732F636F72652E786D6C504B0506000000000E000E0080040000A91100000000
310
504B03040A0000080000343BB1423DEE336E79000000790000001B0000006175746F6465736B2D64657369676E2D7061636B6167652E786D6C3C3F786D6C2076657273696F6E3D22312E302220656E636F64696E673D227574662D3822203F3E3C666F726D6174733E3C666F726D61743E687474703A2F2F736368656D612E
310
6175746F6465736B2E636F6D2F64657369676E2D7061636B6167652F323030393C2F666F726D61743E3C2F666F726D6174733E504B0304140006080800343BB142D486FD9CA0000000F4000000130000005B436F6E74656E745F54797065735D2E786D6C7D8EC10E82300C865F65E91D8A1E8C310C0EEA1BF002731658846E
310
D98AC1B77784ABF1D8FE5FBFBF75BBCE937A534CCEB38643598122B6FEE978D0B0485F9C41B54DDD7D022595594E1A469170414C76A4D9A4D207E29CF43ECE46F218070CC6BECC4078ACAA135ACF422C856C0E68EA1BF5669944DDD7BCDE7B1F8E415D77AECB980613C2E4AC91FC167A2B244592486606FC29C8FD7F045B9A
310
EF7053A7E60B504B0304140006080800343BB142EC937CDFEA0000007C01000008000000636F72652E786D6C8D90416EC3201045AF82665B61836DE4D4C24438524ED00B2020294A0C9681AAC72F4E1CA9DD7535A33FFFCD8C3E3F7ECF77F465D7E8821F81560490F53A18E7AF23E474C1074047C1D710D22F1B20AF663BC2
310
2683E0D735E4659774F0C9FA54541F8CDD4515A34D80F4BD342344FD696755A99C8A23DEAA45E99BBADA8ABEBA02E7EC0C7A1E71A6EC7317675710677AE84EB23FE169922DEE2863584AD261D9D046D2F7899D3BC9EB0D163CB9F9755FAF56256B403484B698304CFB0FD20F0D1B3AF246D8D0125E6FF63F505ECC3FA1EC7C
310
6A9BFDDD271641D0F2C8632078BD6551CA23A852B7DCC40F504B0304140006080800343BB14255019EA25F0000007C00000007000000636E782E786D6C4DCB3B0E80201045D1AD90E915ED2CF8AC45050C11660C8261F98AB1B07AC9C97D42D718D865D3E909258CFD00CCE24AC6E326A164D74DC0B4128928FF326038472B
310
A13128B1252AC747C6BAB984FC68F0B87FE8960A5C09FE86CFB69FBA01504B0304140006080800343BB142FB60912F67010000020300000C0000006662782F636F72652E786D6C8D52ED8A8330107C9590BF8726F183F64A4CB1853EC1BD40AAA917AA89C444FAF8B77E945E8F520E2186999DDDD951BEBF752D1A951BB435
310
056631C54899CAD6DA34050EFE126D31DA0BEEACF5BFCA3032B253059E602C78E36CE857A8B2C62BE30135B6562B288741798CAA162E051EAA6FD5C958060F15C335EE6575958D8A590C34D4093E780706D032643AB1B89C6F9C2CB8E021E87A65750DD3F4452B87C5896DB363B939468743994619CBF3A82C691695094B4A
310
F679C84F59C9C92416DCEBEEEEAE724A7A556391509646348FD8E68B6E7649BECBE807CD7729E5642A7F1285BEFEA72868E3D364B5BBC8062C181899893FDB42441E0D72043F4470328508AF39E1E7A0211008D9CB737BDFE30AD0A82A6F5D064C6DC3831A651B144CA5687E385958E83C3780CD5EF649DEF479DF033EA034
310
0D58931EAEE7E0A7E97C99BA46D12B178DFE868C759D6C1FE6168B8FF331E8A5BCB2AD75FF51937555B28649A6BF57FC00504B0304140006080800343BB14248C5A69F7D0000009D0000000B0000006662782F636E782E786D6C4DCCD10AC2201886E15B91FFFC6F5A820DD4D126DEC7686E484EC334BAFCB6D841471F3C7C
310
BCB2FBAC81BC5D7EF91415B01305E2E23D4D3E2E0A6A99F10AA4D332A754FE6E40E2B83A053B83964B4EF579D0E4E6B186B269F0F171201DCC6DA0DC20B35C20A7FD195B667B14961A662EDC8A9643A365F32B6DBB87F517504B0304140006080800343BB142F712B4DC2C01000014020000310000006662782F3043444143
310
3034442D314634372D343042322D393146422D3746304431443334463739342F636F72652E786D6C8D515B6E833010BC8AE5AF541560830349641C35419CA01770C0A156828DFCA872FC2E8548ED5F7EBCD6ECCCECD8CB8F8FF18EBE95F3DA9A1AD39460A44C677B6D861AC7704D76181D0577D6863F348C8C1C558D67180B
310
3E381BA715EAAC09CA04408DEDD50A4AEF55C0A8BBC3A5C6BEFB52A34C650CC0F0B77492DD4D0E2AA529B48127B80F0E02A065C87C6241CECDC799B026A12DAB12464E79B2A7ED29A95AD2D0A6606DB5673C5B8482C7A8FB55AE7B88A3AF5AB9574D66B1E0418FCFF89D5332A81E8B9CD02221DB84569FA43AE4DB0323EF64
310
7B2808CF66FA3F519CFA1745519B50E46BDC45E6B1A03C5B1A82F7365EEECF30EA315917D03C6FE355F706AF4A09CD73B62B4B9E2D54F800F02CD9EAE98375F0C19BDB05D8C56A5C32C1B37947507E170875DEA7F801504B0304140006080800343BB142871899ED5701000033030000300000006662782F30434441433034
310
442D314634372D343042322D393146422D3746304431443334463739342F636E782E786D6CBD93CB6EC32010457F05B1ADFC8A9D87224CA42EFA055D748B61D2D0D860F1A89ABFEF9090349B2C2A55DD20EBCEE5DED11166BBAF69249FE0BCB6A6A74D595302465AA5CD7B4F63D8171B4A769C396BC39D8D122326E8699229
310
67EFCEC6394B0AF6228E01D5519B63161D781B9D048F72BA49462BC58801608A88224C0328058ADC8CF8B50787ABA0389C48380079797E2376F800193CAB520A6755EAE02C9DB9E9CE44891C85F73DF5F2009328450C56813F964A045136E5B5EBC14E3F49245DB85646A7492AEF693A29CF1B95C8915538E4CC0787F4B229
310
9C66A05CCCF3A8A50808B93A1B2F1ECEA23661D565AF46F00EDDED62B5D960D879C659D013648774200228CA1775D316F5B268D6AFF57ABB586EBBFAA95E6EDB9A55C9CED960ED982F610C383B13694D0013286F5895C68FF0651F51DA216BEB4EBF00890072EB85CE2DE32FF934ABB6EBFE914F757EDF88CBE15FC0BF0150
310
4B0304140006080800343BB14224E2788161070000991B0000340000006662782F30434441433034442D314634372D343042322D393146422D3746304431443334463739342F6F626A656374732E786D6CED59DD73A33610FF5718FAD23E1843ECA44987D049ECE4C6D349EFE6DCBBE98367181964A246084612B9A47F7D57
310
1F602026C1BDF4AD0F3620A4D5EE6F3FB584BF3EE5D479C45C90825DBA81E7BB0E66499112965DBA95DC4DCE5DE7D728E445215BD35C87A11C5FBA6AD88DC28C1755698752BC431595BDD1DBEB3F1D9160865D27A148884B5724F738471EAA649162F1E0A548222FDB3D7981672676C9661C95F73DA225E29849E014C61950
310
710C5341F7D177A7513855EFA350FDDB59B351B3E6C3B3A65AEA2E9784098958F282A51E99D9289666C17C7973727A31399DCF6793F9D94930B9BEBD5E4E829F67FEE26CB1B8B8BAB900F6B64541AD4C292E314B417FCF6E148453F5A611DD227088EBA4600C271A48804A8BD52748B080AD5AF0F9DDC74049D47AAD256C3D
310
CFD57BCB426B78D6A532346B1C101DBA2088DDAE96B8BEB6E52BB67F81E0628C51728125702B2407ED5A783878851BF9E1D48C46E176AF0B229C1C49CC09A20E255B8E382805A6AA295168165832CA3938907294045A73E675D7B6C033DF769D435CEE2A4A9567B89176AC18DC0F4BA139237F63BEE7BE8D0CF004D25684C9
310
73CBA57C2EB11B5D84533D1885EA323BB12F0D90CE8EA24C6844CCDB9EA00BE5FAABA51BFD76BB7D5AAB707078F3921725E652199DD2A3E60B0CD95E154A76DB6094E6D40210C6806A57EE41F90CC8FF0ED163CF0AE88D93A7F9D3DCCE951C31B12B780EBA717C67E2C39FEF04FA5FDDB7EEC269B3B8ABBD213CC14D1554E7
310
DF8F6757068D95E5BF0567143E82C1177C665FAD1344C19EEF080380949138B4802108EDBBED931BAD207042A08755884601880CEC3EC26D38B564F65AA9DDCB7A1D0344ED1EB3314A02D8B445021B037AFA00D9839364AFA6B68843F09EBE8BB95E2DD7BFAD2BBE4309BEB33EBDC43BC28884AC7998A10EE61D891EF0F3B7
310
82A720E84BBCD76DBC73BB9500B415E60AF8AC06413DEC77EE6C90C0BAAC50E1267C63071042E5EA16FD3B22124C2962B8A8EA7D9BE8A60CB5F1785B33B8D189817876D233618E1F89AA2AC069F6333A8C42DE4F382915886EF4C148D6044D6F40BA2FABDFC1229BF903B3560C422F43F40F1DB40EE0D0B1EC1A690B4423F0
310
761FCE9382163CDE3EC726D2B9504B001B5D6FF9DA210AB1DE284951010FD27E578794CC481BA764B7AB04C4D5032C7E5D2DDAE6E07BB3E0D469FFF79C710ED1167C1771EB77BD3D6292A30CC73B940E6DD7DEADA12D34C901D21CEF28C8451E897C8E918CFD1467C7407314F18B77A59ED14208C2B0807C7510FC361ABE07
310
81C468B3665969B5073411718E25A2C720A0C80C80ABD38EAE7113281DDEE6B1B1DED734D626FA1F590447504B162C26508A420E7993F1C03B8518D245D7A0DCC317ACADA6ADC5A0159410C973FC0D93EC5E1E83BA213F807B0247924AC645891230EB11645FF88A526A8FF72D4A1E54FE88938ABE9781084C7731A1B4CA63
310
F81106278F31AEDD04A65751681137B14FE21C8A32242B3E6693B353FFC53EA666E887C0D6463B42216CC7392A0750EF04445D8F380DF896FA8052B7555EC6282F2A36CA50BC59DF9B2CF9BE5A15D991FCAA5211CAC69AB025188584C926ABD6311B4C5D075670231DA89E6381F2929A53D81B892768BC49531EDC805B3F7D
310
DF0D7228FC06B4D78EA8F31A06CB63A73010DF904CEEDD68ADAF936BA8BF539CEE537D5D6BB62B40404C45F28A13ABA22F2B286F6C8DE64677488ACD079375EBEB979507DD8F700A6BA0766916AE14D0396612A9CAE44EDDD0CF0842708786195FA99C7A0C95AB34D55523A2B764489D9D32A2B3694EBCF21EB322871FDB10
310
96D02AC51B948A87F84ED2784D14EB564A2F2735C6AF0AF8F1C3BA070F8C8C10E9932AF0F0B7DE5A3BBA50E5D24122F2BECAB70C1108821DD132A31BAF6499D548ADE5E6AACE14507781815915CFFF3F59B4DB11FF9F2C326B18DF77B2A0C516D17DB46965F34499F551A780263D292AEF710AD05D87866A93444C2EB7E25B
310
5F8A2126D6417E743156C70C437088E37F9DB48792A0D9AEC7FF71493B7851701C95543A935593EA40E1BA6AA7B0DBF3DB857F7D753299FBE75793F9F9E266721E2CAE27D717A7374BFFC65F2CCFF61C693F8DC22696E9D405CF26A6D5C3EAC962004D59515092C2613E75320C215FC2917E44F79CE75840EE6CF7BA53DB93
310
1FB1FAD1B43925DA525C73728FA03F4C056475C0A84A6477DCF9013A9312CED9972EF48CBC07F8B356E93A90782E5DE814489260E16DA1CBA4FA799A38645C9DFA2D31C007B14C6544B3A8796E56296C3AD1BF9932260B58B93A2D0CA8DB4A687E751A149A37CB537294E0353B0E9270BBAD24146B4696FD40238CDE66AF7E
310
231B25ECC16EFD04AEFBBA5881A7E7741019F5C5E0552330542712F14CB7BB156396A5ABE5A729B4D99CD547A7A45506BA1C4F69C2311873A5EA29B022B00A4BB344124C75F1CBE6132FE00B4FEEE8A2C8F9F1E9FCECA7CDA2C8F38299A1CD151CCA52F84EE4ACEFE1AB4FBA81DA01ABDEBAD89CF8C1C946F7B46D9B3DDE22
310
813D5514C1405D4B28417A260776F9A23F65BB9753A58ADEF4D5D2B141147A01C68E5EB478CD372E077C487D4D511EA3FDBC96F6D5B6F6544F059BE0D0908EFE01504B0304140006080000343BB142000000000000000000000000350000006662782F30434441433034442D314634372D343042322D393146422D37463044
310
31443334463739342F76657274696365732E62696E504B0304140006080800343BB142F270F1330600000004000000360000006662782F30434441433034442D314634372D343042322D393146422D3746304431443334463739342F747269616E676C65732E62696E636660600000504B0304140006080000343BB1420000
310
00000000000000000000370000006662782F30434441433034442D314634372D343042322D393146422D3746304431443334463739342F617474726962757465732E62696E504B0304140006080800343BB142D5987DFC8F00000041010000360000006662782F30434441433034442D314634372D343042322D393146422D
310
3746304431443334463739342F6469726563746F72792E786D6C858F410EC2201045AF4266AF15DDB800BA74E7C21B903225242D6328188F2FA5C4183471359997F9FF81E89FF3C41E1816475E02DF1F80A11FC8386F25A438EECEC07A250251FC3803E6F58C12560C4AD840E95E91C151A72936F496F35732D860FE635F62
310
C8F2DA16B505C545B74125BAA2FA9E05D7CC053D063734D5C7665FD55B6B8D15D5E9BFEAFD8490FFA45E504B0304140006080800343BB142FF385247FC000000A00100003B0000006662782F30434441433034442D314634372D343042322D393146422D3746304431443334463739342F7265736F75726365732F636F7265
310
2E786D6C8D50596AC33010BD8A99DF225BF28253232BC8859CA01710F224158925A3A5F4F8956317DABFFECC0C6F611E8F9FBF9647F1893E18674760258502AD76B3B1B71152BC92131467C1BD73F1970C0AAB161C618341F09B77693D20ED6C441B336ADD8C07A842C008857EE46384A03F7051A54A312BC2BD5C95BEAB1B
310
96ACCC74D6091EA2CF018AFDC93641780C2E798D81573B2B784A663E3466CE3FCDD5A0077161A7F64DF6139926D99096751D9192B644D6AC96EC75EA2EADE4D566163C9AE527A3F6A822CE206ACA1A423BC2FA77DA0F7537B4F48576434379B5C9FF98D23AFFD3948C8D4D7DC4DD6D0104CB419E84E0D5D6575ECF32F3DEBA
310
15DF504B010214000A0000080000343BB1423DEE336E79000000790000001B00000000000000000000000000000000006175746F6465736B2D64657369676E2D7061636B6167652E786D6C504B01021400140006080800343BB142D486FD9CA0000000F40000001300000000000000000000000000B20000005B436F6E7465
310
6E745F54797065735D2E786D6C504B01021400140006080800343BB142EC937CDFEA0000007C010000080000000000000000000000000083010000636F72652E786D6C504B01021400140006080800343BB14255019EA25F0000007C000000070000000000000000000000000093020000636E782E786D6C504B0102140014
310
0006080800343BB142FB60912F67010000020300000C00000000000000000000000000170300006662782F636F72652E786D6C504B01021400140006080800343BB14248C5A69F7D0000009D0000000B00000000000000000000000000A80400006662782F636E782E786D6C504B01021400140006080800343BB142F712B4
310
DC2C0100001402000031000000000000000000000000004E0500006662782F30434441433034442D314634372D343042322D393146422D3746304431443334463739342F636F72652E786D6C504B01021400140006080800343BB142871899ED57010000330300003000000000000000000000000000C90600006662782F30
310
434441433034442D314634372D343042322D393146422D3746304431443334463739342F636E782E786D6C504B01021400140006080800343BB14224E2788161070000991B000034000000000000000000000000006E0800006662782F30434441433034442D314634372D343042322D393146422D37463044314433344637
310
39342F6F626A656374732E786D6C504B01021400140006080000343BB1420000000000000000000000003500000000000000000000000000211000006662782F30434441433034442D314634372D343042322D393146422D3746304431443334463739342F76657274696365732E62696E504B01021400140006080800343B
310
B142F270F13306000000040000003600000000000000000000000000741000006662782F30434441433034442D314634372D343042322D393146422D3746304431443334463739342F747269616E676C65732E62696E504B01021400140006080000343BB14200000000000000000000000037000000000000000000000000
310
00CE1000006662782F30434441433034442D314634372D343042322D393146422D3746304431443334463739342F617474726962757465732E62696E504B01021400140006080800343BB142D5987DFC8F000000410100003600000000000000000000000000231100006662782F30434441433034442D314634372D343042
310
322D393146422D3746304431443334463739342F6469726563746F72792E786D6C504B01021400140006080800343BB142FF385247FC000000A00100003B00000000000000000000000000061200006662782F30434441433034442D314634372D343042322D393146422D3746304431443334463739342F7265736F757263
310
65732F636F72652E786D6C504B0506000000000E000E00800400005B1300000000
  0
XRECORD
  5
27
102
{ACAD_REACTORS
330
22
102
}
330
22
100
AcDbXrecord
280
     1
270
     1
271
     1
  0
XRECORD
  5
26
102
{ACAD_REACTORS
330
22
102
}
330
22
100
AcDbXrecord
280
     1
270
     1
271
     1
  0
XRECORD
  5
28
102
{ACAD_REACTORS
330
22
102
}
330
22
100
AcDbXrecord
280
     1
270
     1
271
     1
  0
XRECORD
  5
25
102
{ACAD_REACTORS
330
22
102
}
330
22
100
AcDbXrecord
280
     1
270
     1
271
     1
  0
XRECORD
  5
1581
102
{ACAD_REACTORS
330
1580
102
}
330
1580
100
AcDbXrecord
280
     1
102
ACAD_ROUNDTRIP_2012_MLEADER_STYLE
298
     1
  0
CELLSTYLEMAP
  5
157F
102
{ACAD_REACTORS
330
157E
102
}
330
157E
100
AcDbCellStyleMap
 90
        3
300
CELLSTYLE
  1
TABLEFORMAT_BEGIN
 90
        5
170
     1
 91
        0
 92
    32768
 62
   257
 93
        1
300
CONTENTFORMAT
  1
CONTENTFORMAT_BEGIN
 90
        0
 91
        0
 92
      512
 93
        0
300

 40
0.0
140
1.0
 94
        5
 62
     0
340
55
144
0.25
309
CONTENTFORMAT_END
171
     0
 94
        0
309
TABLEFORMAT_END
  1
CELLSTYLE_BEGIN
 90
        1
 91
        1
300
_TITLE
309
CELLSTYLE_END
300
CELLSTYLE
  1
TABLEFORMAT_BEGIN
 90
        5
170
     1
 91
        0
 92
        0
 62
   257
 93
        1
300
CONTENTFORMAT
  1
CONTENTFORMAT_BEGIN
 90
        0
 91
        0
 92
      512
 93
        0
300

 40
0.0
140
1.0
 94
        5
 62
     0
340
55
144
0.18
309
CONTENTFORMAT_END
171
     0
 94
        0
309
TABLEFORMAT_END
  1
CELLSTYLE_BEGIN
 90
        2
 91
        1
300
_HEADER
309
CELLSTYLE_END
300
CELLSTYLE
  1
TABLEFORMAT_BEGIN
 90
        5
170
     1
 91
        0
 92
        0
 62
   257
 93
        1
300
CONTENTFORMAT
  1
CONTENTFORMAT_BEGIN
 90
        0
 91
        0
 92
      512
 93
        0
300

 40
0.0
140
1.0
 94
        2
 62
     0
340
55
144
0.18
309
CONTENTFORMAT_END
171
     0
 94
        0
309
TABLEFORMAT_END
  1
CELLSTYLE_BEGIN
 90
        3
 91
        2
300
_DATA
309
CELLSTYLE_END
  0
XRECORD
  5
15B8
102
{ACAD_REACTORS
330
157E
102
}
330
157E
100
AcDbXrecord
280
     1
102
ACAD_ROUNDTRIP_PRE2007_TABLESTYLE
 90
      512
 91
        0
  1

 92
      512
 93
        0
  2

 94
      512
 95
        0
  3

  0
XRECORD
  5
1593
102
{ACAD_REACTORS
330
1592
102
}
330
1592
100
AcDbXrecord
280
     1
102
RTVSPropertyOp0
 70
     1
102
RTVSPropertyOp1
 70
     1
102
RTVSPropertyOp2
 70
     1
102
RTVSPropertyOp3
 70
     1
102
RTVSPropertyOp4
 70
     1
102
RTVSPropertyOp5
 70
     1
102
RTVSPropertyOp6
 70
     1
102
RTVSPropertyOp7
 70
     1
102
RTVSPropertyOp8
 70
     1
102
RTVSPropertyOp9
 70
     1
102
RTVSPropertyOp10
 70
     1
102
RTVSPropertyOp11
 70
     1
102
RTVSPropertyOp12
 70
     1
102
RTVSPropertyOp13
 70
     1
102
RTVSPropertyOp14
 70
     1
102
RTVSPropertyOp15
 70
     1
102
RTVSPropertyOp16
 70
     1
102
RTVSPropertyOp17
 70
     1
102
RTVSPropertyOp18
 70
     1
102
RTVSPropertyOp19
 70
     1
102
RTVSPropertyOp20
 70
     1
102
RTVSPropertyOp21
 70
     1
102
RTVSPropertyOp22
 70
     1
102
RTVSPropertyOp23
 70
     1
102
RTVSPropertyOp24
 70
     1
102
RTVSPropertyOp25
 70
     1
102
RTVSPropertyOp26
 70
     1
102
RTVSPropertyOp27
 70
     1
102
RTVSPropertyOp28
 70
     1
102
RTVSPropertyOp29
 70
     1
102
RTVSPropertyOp30
 70
     1
102
RTVSPropertyOp31
 70
     1
102
RTVSPropertyOp32
 70
     1
  0
XRECORD
  5
1591
102
{ACAD_REACTORS
330
1590
102
}
330
1590
100
AcDbXrecord
280
     1
102
RTVSPropertyOp0
 70
     1
102
RTVSPropertyOp1
 70
     1
102
RTVSPropertyOp2
 70
     1
102
RTVSPropertyOp3
 70
     1
102
RTVSPropertyOp4
 70
     1
102
RTVSPropertyOp5
 70
     1
102
RTVSPropertyOp6
 70
     1
102
RTVSPropertyOp7
 70
     1
102
RTVSPropertyOp8
 70
     1
102
RTVSPropertyOp9
 70
     1
102
RTVSPropertyOp10
 70
     1
102
RTVSPropertyOp11
 70
     1
102
RTVSPropertyOp12
 70
     1
102
RTVSPropertyOp13
 70
     1
102
RTVSPropertyOp14
 70
     1
102
RTVSPropertyOp15
 70
     1
102
RTVSPropertyOp16
 70
     1
102
RTVSPropertyOp17
 70
     1
102
RTVSPropertyOp18
 70
     1
102
RTVSPropertyOp19
 70
     1
102
RTVSPropertyOp20
 70
     1
102
RTVSPropertyOp21
 70
     1
102
RTVSPropertyOp22
 70
     1
102
RTVSPropertyOp23
 70
     1
102
RTVSPropertyOp24
 70
     1
102
RTVSPropertyOp25
 70
     1
102
RTVSPropertyOp26
 70
     1
102
RTVSPropertyOp27
 70
     1
102
RTVSPropertyOp28
 70
     1
102
RTVSPropertyOp29
 70
     1
102
RTVSPropertyOp30
 70
     1
102
RTVSPropertyOp31
 70
     1
102
RTVSPropertyOp32
 70
     1
  0
XRECORD
  5
159F
102
{ACAD_REACTORS
330
159E
102
}
330
159E
100
AcDbXrecord
280
     1
102
RTVSPropertyOp0
 70
     1
102
RTVSPropertyOp1
 70
     1
102
RTVSPropertyOp2
 70
     1
102
RTVSPropertyOp3
 70
     1
102
RTVSPropertyOp4
 70
     1
102
RTVSPropertyOp5
 70
     1
102
RTVSPropertyOp6
 70
     1
102
RTVSPropertyOp7
 70
     1
102
RTVSPropertyOp8
 70
     1
102
RTVSPropertyOp9
 70
     1
102
RTVSPropertyOp10
 70
     1
102
RTVSPropertyOp11
 70
     1
102
RTVSPropertyOp12
 70
     1
102
RTVSPropertyOp13
 70
     1
102
RTVSPropertyOp14
 70
     1
102
RTVSPropertyOp15
 70
     1
102
RTVSPropertyOp16
 70
     1
102
RTVSPropertyOp17
 70
     1
102
RTVSPropertyOp18
 70
     1
102
RTVSPropertyOp19
 70
     1
102
RTVSPropertyOp20
 70
     1
102
RTVSPropertyOp21
 70
     1
102
RTVSPropertyOp22
 70
     1
102
RTVSPropertyOp23
 70
     1
102
RTVSPropertyOp24
 70
     1
102
RTVSPropertyOp25
 70
     1
102
RTVSPropertyOp26
 70
     1
102
RTVSPropertyOp27
 70
     1
102
RTVSPropertyOp28
 70
     1
102
RTVSPropertyOp29
 70
     1
102
RTVSPropertyOp30
 70
     1
102
RTVSPropertyOp31
 70
     1
102
RTVSPropertyOp32
 70
     1
  0
XRECORD
  5
15A7
102
{ACAD_REACTORS
330
15A6
102
}
330
15A6
100
AcDbXrecord
280
     1
102
RTVSPropertyOp0
 70
     1
102
RTVSPropertyOp1
 70
     1
102
RTVSPropertyOp2
 70
     1
102
RTVSPropertyOp3
 70
     1
102
RTVSPropertyOp4
 70
     1
102
RTVSPropertyOp5
 70
     1
102
RTVSPropertyOp6
 70
     1
102
RTVSPropertyOp7
 70
     1
102
RTVSPropertyOp8
 70
     1
102
RTVSPropertyOp9
 70
     1
102
RTVSPropertyOp10
 70
     1
102
RTVSPropertyOp11
 70
     1
102
RTVSPropertyOp12
 70
     1
102
RTVSPropertyOp13
 70
     1
102
RTVSPropertyOp14
 70
     1
102
RTVSPropertyOp15
 70
     1
102
RTVSPropertyOp16
 70
     1
102
RTVSPropertyOp17
 70
     1
102
RTVSPropertyOp18
 70
     1
102
RTVSPropertyOp19
 70
     1
102
RTVSPropertyOp20
 70
     1
102
RTVSPropertyOp21
 70
     1
102
RTVSPropertyOp22
 70
     1
102
RTVSPropertyOp23
 70
     1
102
RTVSPropertyOp24
 70
     1
102
RTVSPropertyOp25
 70
     1
102
RTVSPropertyOp26
 70
     1
102
RTVSPropertyOp27
 70
     1
102
RTVSPropertyOp28
 70
     1
102
RTVSPropertyOp29
 70
     1
102
RTVSPropertyOp30
 70
     1
102
RTVSPropertyOp31
 70
     1
102
RTVSPropertyOp32
 70
     1
  0
XRECORD
  5
1599
102
{ACAD_REACTORS
330
1598
102
}
330
1598
100
AcDbXrecord
280
     1
102
RTVSPropertyOp0
 70
     1
102
RTVSPropertyOp1
 70
     1
102
RTVSPropertyOp2
 70
     1
102
RTVSPropertyOp3
 70
     1
102
RTVSPropertyOp4
 70
     1
102
RTVSPropertyOp5
 70
     1
102
RTVSPropertyOp6
 70
     1
102
RTVSPropertyOp7
 70
     1
102
RTVSPropertyOp8
 70
     1
102
RTVSPropertyOp9
 70
     1
102
RTVSPropertyOp10
 70
     1
102
RTVSPropertyOp11
 70
     1
102
RTVSPropertyOp12
 70
     1
102
RTVSPropertyOp13
 70
     1
102
RTVSPropertyOp14
 70
     1
102
RTVSPropertyOp15
 70
     1
102
RTVSPropertyOp16
 70
     1
102
RTVSPropertyOp17
 70
     1
102
RTVSPropertyOp18
 70
     1
102
RTVSPropertyOp19
 70
     1
102
RTVSPropertyOp20
 70
     1
102
RTVSPropertyOp21
 70
     1
102
RTVSPropertyOp22
 70
     1
102
RTVSPropertyOp23
 70
     1
102
RTVSPropertyOp24
 70
     1
102
RTVSPropertyOp25
 70
     1
102
RTVSPropertyOp26
 70
     1
102
RTVSPropertyOp27
 70
     1
102
RTVSPropertyOp28
 70
     1
102
RTVSPropertyOp29
 70
     1
102
RTVSPropertyOp30
 70
     1
102
RTVSPropertyOp31
 70
     1
102
RTVSPropertyOp32
 70
     1
  0
XRECORD
  5
159D
102
{ACAD_REACTORS
330
159C
102
}
330
159C
100
AcDbXrecord
280
     1
102
RTVSPropertyOp0
 70
     1
102
RTVSPropertyOp1
 70
     1
102
RTVSPropertyOp2
 70
     1
102
RTVSPropertyOp3
 70
     1
102
RTVSPropertyOp4
 70
     1
102
RTVSPropertyOp5
 70
     1
102
RTVSPropertyOp6
 70
     1
102
RTVSPropertyOp7
 70
     1
102
RTVSPropertyOp8
 70
     1
102
RTVSPropertyOp9
 70
     1
102
RTVSPropertyOp10
 70
     1
102
RTVSPropertyOp11
 70
     1
102
RTVSPropertyOp12
 70
     1
102
RTVSPropertyOp13
 70
     1
102
RTVSPropertyOp14
 70
     1
102
RTVSPropertyOp15
 70
     1
102
RTVSPropertyOp16
 70
     1
102
RTVSPropertyOp17
 70
     1
102
RTVSPropertyOp18
 70
     1
102
RTVSPropertyOp19
 70
     1
102
RTVSPropertyOp20
 70
     1
102
RTVSPropertyOp21
 70
     1
102
RTVSPropertyOp22
 70
     1
102
RTVSPropertyOp23
 70
     1
102
RTVSPropertyOp24
 70
     1
102
RTVSPropertyOp25
 70
     1
102
RTVSPropertyOp26
 70
     1
102
RTVSPropertyOp27
 70
     1
102
RTVSPropertyOp28
 70
     1
102
RTVSPropertyOp29
 70
     1
102
RTVSPropertyOp30
 70
     1
102
RTVSPropertyOp31
 70
     1
102
RTVSPropertyOp32
 70
     1
  0
XRECORD
  5
15B7
102
{ACAD_REACTORS
330
15B6
102
}
330
15B6
100
AcDbXrecord
280
     1
102
RTVSPropertyOp0
 70
     0
102
RTVSPropertyOp1
 70
     0
102
RTVSPropertyOp2
 70
     0
102
RTVSPropertyOp3
 70
     0
102
RTVSPropertyOp4
 70
     0
102
RTVSPropertyOp5
 70
     0
102
RTVSPropertyOp6
 70
     0
102
RTVSPropertyOp7
 70
     0
102
RTVSPropertyOp8
 70
     0
102
RTVSPropertyOp9
 70
     0
102
RTVSPropertyOp10
 70
     0
102
RTVSPropertyOp11
 70
     0
102
RTVSPropertyOp12
 70
     0
102
RTVSPropertyOp13
 70
     0
102
RTVSPropertyOp14
 70
     2
102
RTVSPropertyOp15
 70
     0
102
RTVSPropertyOp16
 70
     0
102
RTVSPropertyOp17
 70
     0
102
RTVSPropertyOp18
 70
     0
102
RTVSPropertyOp19
 70
     0
102
RTVSPropertyOp20
 70
     0
102
RTVSPropertyOp21
 70
     0
102
RTVSPropertyOp22
 70
     0
102
RTVSPropertyOp23
 70
     0
102
RTVSPropertyOp24
 70
     0
102
RTVSPropertyOp25
 70
     0
102
RTVSPropertyOp26
 70
     0
102
RTVSPropertyOp27
 70
     0
102
RTVSPropertyOp28
 70
     1
102
RTVSPropertyOp29
 70
     1
102
RTVSPropertyOp30
 70
     1
102
RTVSPropertyOp31
 70
     1
102
RTVSPropertyOp32
 70
     1
  0
XRECORD
  5
15A5
102
{ACAD_REACTORS
330
15A4
102
}
330
15A4
100
AcDbXrecord
280
     1
102
RTVSPropertyOp0
 70
     1
102
RTVSPropertyOp1
 70
     1
102
RTVSPropertyOp2
 70
     1
102
RTVSPropertyOp3
 70
     1
102
RTVSPropertyOp4
 70
     1
102
RTVSPropertyOp5
 70
     1
102
RTVSPropertyOp6
 70
     1
102
RTVSPropertyOp7
 70
     1
102
RTVSPropertyOp8
 70
     1
102
RTVSPropertyOp9
 70
     1
102
RTVSPropertyOp10
 70
     1
102
RTVSPropertyOp11
 70
     1
102
RTVSPropertyOp12
 70
     1
102
RTVSPropertyOp13
 70
     1
102
RTVSPropertyOp14
 70
     1
102
RTVSPropertyOp15
 70
     1
102
RTVSPropertyOp16
 70
     1
102
RTVSPropertyOp17
 70
     1
102
RTVSPropertyOp18
 70
     1
102
RTVSPropertyOp19
 70
     1
102
RTVSPropertyOp20
 70
     1
102
RTVSPropertyOp21
 70
     1
102
RTVSPropertyOp22
 70
     1
102
RTVSPropertyOp23
 70
     1
102
RTVSPropertyOp24
 70
     1
102
RTVSPropertyOp25
 70
     1
102
RTVSPropertyOp26
 70
     1
102
RTVSPropertyOp27
 70
     1
102
RTVSPropertyOp28
 70
     1
102
RTVSPropertyOp29
 70
     1
102
RTVSPropertyOp30
 70
     1
102
RTVSPropertyOp31
 70
     1
102
RTVSPropertyOp32
 70
     1
  0
XRECORD
  5
1589
102
{ACAD_REACTORS
330
1588
102
}
330
1588
100
AcDbXrecord
280
     1
102
RTVSPropertyOp0
 70
     1
102
RTVSPropertyOp1
 70
     1
102
RTVSPropertyOp2
 70
     1
102
RTVSPropertyOp3
 70
     1
102
RTVSPropertyOp4
 70
     1
102
RTVSPropertyOp5
 70
     1
102
RTVSPropertyOp6
 70
     1
102
RTVSPropertyOp7
 70
     1
102
RTVSPropertyOp8
 70
     1
102
RTVSPropertyOp9
 70
     1
102
RTVSPropertyOp10
 70
     1
102
RTVSPropertyOp11
 70
     1
102
RTVSPropertyOp12
 70
     1
102
RTVSPropertyOp13
 70
     1
102
RTVSPropertyOp14
 70
     1
102
RTVSPropertyOp15
 70
     1
102
RTVSPropertyOp16
 70
     1
102
RTVSPropertyOp17
 70
     1
102
RTVSPropertyOp18
 70
     1
102
RTVSPropertyOp19
 70
     1
102
RTVSPropertyOp20
 70
     1
102
RTVSPropertyOp21
 70
     1
102
RTVSPropertyOp22
 70
     1
102
RTVSPropertyOp23
 70
     1
102
RTVSPropertyOp24
 70
     1
102
RTVSPropertyOp25
 70
     1
102
RTVSPropertyOp26
 70
     1
102
RTVSPropertyOp27
 70
     1
102
RTVSPropertyOp28
 70
     1
102
RTVSPropertyOp29
 70
     1
102
RTVSPropertyOp30
 70
     1
102
RTVSPropertyOp31
 70
     1
102
RTVSPropertyOp32
 70
     1
  0
XRECORD
  5
158B
102
{ACAD_REACTORS
330
158A
102
}
330
158A
100
AcDbXrecord
280
     1
102
RTVSPropertyOp0
 70
     1
102
RTVSPropertyOp1
 70
     1
102
RTVSPropertyOp2
 70
     1
102
RTVSPropertyOp3
 70
     1
102
RTVSPropertyOp4
 70
     1
102
RTVSPropertyOp5
 70
     1
102
RTVSPropertyOp6
 70
     1
102
RTVSPropertyOp7
 70
     1
102
RTVSPropertyOp8
 70
     1
102
RTVSPropertyOp9
 70
     1
102
RTVSPropertyOp10
 70
     1
102
RTVSPropertyOp11
 70
     1
102
RTVSPropertyOp12
 70
     1
102
RTVSPropertyOp13
 70
     1
102
RTVSPropertyOp14
 70
     1
102
RTVSPropertyOp15
 70
     1
102
RTVSPropertyOp16
 70
     1
102
RTVSPropertyOp17
 70
     1
102
RTVSPropertyOp18
 70
     1
102
RTVSPropertyOp19
 70
     1
102
RTVSPropertyOp20
 70
     1
102
RTVSPropertyOp21
 70
     1
102
RTVSPropertyOp22
 70
     1
102
RTVSPropertyOp23
 70
     1
102
RTVSPropertyOp24
 70
     1
102
RTVSPropertyOp25
 70
     1
102
RTVSPropertyOp26
 70
     1
102
RTVSPropertyOp27
 70
     1
102
RTVSPropertyOp28
 70
     1
102
RTVSPropertyOp29
 70
     1
102
RTVSPropertyOp30
 70
     1
102
RTVSPropertyOp31
 70
     1
102
RTVSPropertyOp32
 70
     1
  0
XRECORD
  5
158D
102
{ACAD_REACTORS
330
158C
102
}
330
158C
100
AcDbXrecord
280
     1
102
RTVSPropertyOp0
 70
     1
102
RTVSPropertyOp1
 70
     1
102
RTVSPropertyOp2
 70
     1
102
RTVSPropertyOp3
 70
     1
102
RTVSPropertyOp4
 70
     1
102
RTVSPropertyOp5
 70
     1
102
RTVSPropertyOp6
 70
     1
102
RTVSPropertyOp7
 70
     1
102
RTVSPropertyOp8
 70
     1
102
RTVSPropertyOp9
 70
     1
102
RTVSPropertyOp10
 70
     1
102
RTVSPropertyOp11
 70
     1
102
RTVSPropertyOp12
 70
     1
102
RTVSPropertyOp13
 70
     1
102
RTVSPropertyOp14
 70
     1
102
RTVSPropertyOp15
 70
     1
102
RTVSPropertyOp16
 70
     1
102
RTVSPropertyOp17
 70
     1
102
RTVSPropertyOp18
 70
     1
102
RTVSPropertyOp19
 70
     1
102
RTVSPropertyOp20
 70
     1
102
RTVSPropertyOp21
 70
     1
102
RTVSPropertyOp22
 70
     1
102
RTVSPropertyOp23
 70
     1
102
RTVSPropertyOp24
 70
     1
102
RTVSPropertyOp25
 70
     1
102
RTVSPropertyOp26
 70
     1
102
RTVSPropertyOp27
 70
     1
102
RTVSPropertyOp28
 70
     1
102
RTVSPropertyOp29
 70
     1
102
RTVSPropertyOp30
 70
     1
102
RTVSPropertyOp31
 70
     1
102
RTVSPropertyOp32
 70
     1
  0
XRECORD
  5
158F
102
{ACAD_REACTORS
330
158E
102
}
330
158E
100
AcDbXrecord
280
     1
102
RTVSPropertyOp0
 70
     1
102
RTVSPropertyOp1
 70
     1
102
RTVSPropertyOp2
 70
     1
102
RTVSPropertyOp3
 70
     1
102
RTVSPropertyOp4
 70
     1
102
RTVSPropertyOp5
 70
     1
102
RTVSPropertyOp6
 70
     1
102
RTVSPropertyOp7
 70
     1
102
RTVSPropertyOp8
 70
     1
102
RTVSPropertyOp9
 70
     1
102
RTVSPropertyOp10
 70
     1
102
RTVSPropertyOp11
 70
     1
102
RTVSPropertyOp12
 70
     1
102
RTVSPropertyOp13
 70
     1
102
RTVSPropertyOp14
 70
     1
102
RTVSPropertyOp15
 70
     1
102
RTVSPropertyOp16
 70
     1
102
RTVSPropertyOp17
 70
     1
102
RTVSPropertyOp18
 70
     1
102
RTVSPropertyOp19
 70
     1
102
RTVSPropertyOp20
 70
     1
102
RTVSPropertyOp21
 70
     1
102
RTVSPropertyOp22
 70
     1
102
RTVSPropertyOp23
 70
     1
102
RTVSPropertyOp24
 70
     1
102
RTVSPropertyOp25
 70
     1
102
RTVSPropertyOp26
 70
     1
102
RTVSPropertyOp27
 70
     1
102
RTVSPropertyOp28
 70
     1
102
RTVSPropertyOp29
 70
     1
102
RTVSPropertyOp30
 70
     1
102
RTVSPropertyOp31
 70
     1
102
RTVSPropertyOp32
 70
     1
  0
XRECORD
  5
1597
102
{ACAD_REACTORS
330
1596
102
}
330
1596
100
AcDbXrecord
280
     1
102
RTVSPropertyOp0
 70
     1
102
RTVSPropertyOp1
 70
     1
102
RTVSPropertyOp2
 70
     1
102
RTVSPropertyOp3
 70
     1
102
RTVSPropertyOp4
 70
     1
102
RTVSPropertyOp5
 70
     1
102
RTVSPropertyOp6
 70
     1
102
RTVSPropertyOp7
 70
     1
102
RTVSPropertyOp8
 70
     1
102
RTVSPropertyOp9
 70
     1
102
RTVSPropertyOp10
 70
     1
102
RTVSPropertyOp11
 70
     1
102
RTVSPropertyOp12
 70
     1
102
RTVSPropertyOp13
 70
     1
102
RTVSPropertyOp14
 70
     1
102
RTVSPropertyOp15
 70
     1
102
RTVSPropertyOp16
 70
     1
102
RTVSPropertyOp17
 70
     1
102
RTVSPropertyOp18
 70
     1
102
RTVSPropertyOp19
 70
     1
102
RTVSPropertyOp20
 70
     1
102
RTVSPropertyOp21
 70
     1
102
RTVSPropertyOp22
 70
     1
102
RTVSPropertyOp23
 70
     1
102
RTVSPropertyOp24
 70
     1
102
RTVSPropertyOp25
 70
     1
102
RTVSPropertyOp26
 70
     1
102
RTVSPropertyOp27
 70
     1
102
RTVSPropertyOp28
 70
     1
102
RTVSPropertyOp29
 70
     1
102
RTVSPropertyOp30
 70
     1
102
RTVSPropertyOp31
 70
     1
102
RTVSPropertyOp32
 70
     1
  0
XRECORD
  5
15B3
102
{ACAD_REACTORS
330
15B2
102
}
330
15B2
100
AcDbXrecord
280
     1
102
RTVSPropertyOp0
 70
     0
102
RTVSPropertyOp1
 70
     0
102
RTVSPropertyOp2
 70
     0
102
RTVSPropertyOp3
 70
     0
102
RTVSPropertyOp4
 70
     0
102
RTVSPropertyOp5
 70
     0
102
RTVSPropertyOp6
 70
     0
102
RTVSPropertyOp7
 70
     0
102
RTVSPropertyOp8
 70
     0
102
RTVSPropertyOp9
 70
     0
102
RTVSPropertyOp10
 70
     0
102
RTVSPropertyOp11
 70
     0
102
RTVSPropertyOp12
 70
     0
102
RTVSPropertyOp13
 70
     0
102
RTVSPropertyOp14
 70
     2
102
RTVSPropertyOp15
 70
     0
102
RTVSPropertyOp16
 70
     0
102
RTVSPropertyOp17
 70
     0
102
RTVSPropertyOp18
 70
     0
102
RTVSPropertyOp19
 70
     0
102
RTVSPropertyOp20
 70
     0
102
RTVSPropertyOp21
 70
     0
102
RTVSPropertyOp22
 70
     0
102
RTVSPropertyOp23
 70
     0
102
RTVSPropertyOp24
 70
     0
102
RTVSPropertyOp25
 70
     0
102
RTVSPropertyOp26
 70
     0
102
RTVSPropertyOp27
 70
     0
102
RTVSPropertyOp28
 70
     1
102
RTVSPropertyOp29
 70
     1
102
RTVSPropertyOp30
 70
     1
102
RTVSPropertyOp31
 70
     1
102
RTVSPropertyOp32
 70
     1
  0
XRECORD
  5
15A3
102
{ACAD_REACTORS
330
15A2
102
}
330
15A2
100
AcDbXrecord
280
     1
102
RTVSPropertyOp0
 70
     1
102
RTVSPropertyOp1
 70
     1
102
RTVSPropertyOp2
 70
     1
102
RTVSPropertyOp3
 70
     1
102
RTVSPropertyOp4
 70
     1
102
RTVSPropertyOp5
 70
     1
102
RTVSPropertyOp6
 70
     1
102
RTVSPropertyOp7
 70
     1
102
RTVSPropertyOp8
 70
     1
102
RTVSPropertyOp9
 70
     1
102
RTVSPropertyOp10
 70
     1
102
RTVSPropertyOp11
 70
     1
102
RTVSPropertyOp12
 70
     1
102
RTVSPropertyOp13
 70
     1
102
RTVSPropertyOp14
 70
     1
102
RTVSPropertyOp15
 70
     1
102
RTVSPropertyOp16
 70
     1
102
RTVSPropertyOp17
 70
     1
102
RTVSPropertyOp18
 70
     1
102
RTVSPropertyOp19
 70
     1
102
RTVSPropertyOp20
 70
     1
102
RTVSPropertyOp21
 70
     1
102
RTVSPropertyOp22
 70
     1
102
RTVSPropertyOp23
 70
     1
102
RTVSPropertyOp24
 70
     1
102
RTVSPropertyOp25
 70
     1
102
RTVSPropertyOp26
 70
     1
102
RTVSPropertyOp27
 70
     1
102
RTVSPropertyOp28
 70
     1
102
RTVSPropertyOp29
 70
     1
102
RTVSPropertyOp30
 70
     1
102
RTVSPropertyOp31
 70
     1
102
RTVSPropertyOp32
 70
     1
  0
XRECORD
  5
15B5
102
{ACAD_REACTORS
330
15B4
102
}
330
15B4
100
AcDbXrecord
280
     1
102
RTVSPropertyOp0
 70
     0
102
RTVSPropertyOp1
 70
     0
102
RTVSPropertyOp2
 70
     0
102
RTVSPropertyOp3
 70
     0
102
RTVSPropertyOp4
 70
     0
102
RTVSPropertyOp5
 70
     0
102
RTVSPropertyOp6
 70
     0
102
RTVSPropertyOp7
 70
     0
102
RTVSPropertyOp8
 70
     0
102
RTVSPropertyOp9
 70
     0
102
RTVSPropertyOp10
 70
     0
102
RTVSPropertyOp11
 70
     0
102
RTVSPropertyOp12
 70
     0
102
RTVSPropertyOp13
 70
     0
102
RTVSPropertyOp14
 70
     2
102
RTVSPropertyOp15
 70
     0
102
RTVSPropertyOp16
 70
     0
102
RTVSPropertyOp17
 70
     0
102
RTVSPropertyOp18
 70
     0
102
RTVSPropertyOp19
 70
     0
102
RTVSPropertyOp20
 70
     0
102
RTVSPropertyOp21
 70
     0
102
RTVSPropertyOp22
 70
     0
102
RTVSPropertyOp23
 70
     0
102
RTVSPropertyOp24
 70
     0
102
RTVSPropertyOp25
 70
     0
102
RTVSPropertyOp26
 70
     0
102
RTVSPropertyOp27
 70
     0
102
RTVSPropertyOp28
 70
     1
102
RTVSPropertyOp29
 70
     1
102
RTVSPropertyOp30
 70
     1
102
RTVSPropertyOp31
 70
     1
102
RTVSPropertyOp32
 70
     1
  0
XRECORD
  5
159B
102
{ACAD_REACTORS
330
159A
102
}
330
159A
100
AcDbXrecord
280
     1
102
RTVSPropertyOp0
 70
     1
102
RTVSPropertyOp1
 70
     1
102
RTVSPropertyOp2
 70
     1
102
RTVSPropertyOp3
 70
     1
102
RTVSPropertyOp4
 70
     1
102
RTVSPropertyOp5
 70
     1
102
RTVSPropertyOp6
 70
     1
102
RTVSPropertyOp7
 70
     1
102
RTVSPropertyOp8
 70
     1
102
RTVSPropertyOp9
 70
     1
102
RTVSPropertyOp10
 70
     1
102
RTVSPropertyOp11
 70
     1
102
RTVSPropertyOp12
 70
     1
102
RTVSPropertyOp13
 70
     1
102
RTVSPropertyOp14
 70
     1
102
RTVSPropertyOp15
 70
     1
102
RTVSPropertyOp16
 70
     1
102
RTVSPropertyOp17
 70
     1
102
RTVSPropertyOp18
 70
     1
102
RTVSPropertyOp19
 70
     1
102
RTVSPropertyOp20
 70
     1
102
RTVSPropertyOp21
 70
     1
102
RTVSPropertyOp22
 70
     1
102
RTVSPropertyOp23
 70
     1
102
RTVSPropertyOp24
 70
     1
102
RTVSPropertyOp25
 70
     1
102
RTVSPropertyOp26
 70
     1
102
RTVSPropertyOp27
 70
     1
102
RTVSPropertyOp28
 70
     1
102
RTVSPropertyOp29
 70
     1
102
RTVSPropertyOp30
 70
     1
102
RTVSPropertyOp31
 70
     1
102
RTVSPropertyOp32
 70
     1
  0
XRECORD
  5
15B1
102
{ACAD_REACTORS
330
15B0
102
}
330
15B0
100
AcDbXrecord
280
     1
102
RTVSPropertyOp0
 70
     1
102
RTVSPropertyOp1
 70
     1
102
RTVSPropertyOp2
 70
     1
102
RTVSPropertyOp3
 70
     1
102
RTVSPropertyOp4
 70
     1
102
RTVSPropertyOp5
 70
     1
102
RTVSPropertyOp6
 70
     1
102
RTVSPropertyOp7
 70
     1
102
RTVSPropertyOp8
 70
     1
102
RTVSPropertyOp9
 70
     1
102
RTVSPropertyOp10
 70
     1
102
RTVSPropertyOp11
 70
     1
102
RTVSPropertyOp12
 70
     1
102
RTVSPropertyOp13
 70
     1
102
RTVSPropertyOp14
 70
     1
102
RTVSPropertyOp15
 70
     1
102
RTVSPropertyOp16
 70
     1
102
RTVSPropertyOp17
 70
     1
102
RTVSPropertyOp18
 70
     1
102
RTVSPropertyOp19
 70
     1
102
RTVSPropertyOp20
 70
     1
102
RTVSPropertyOp21
 70
     1
102
RTVSPropertyOp22
 70
     1
102
RTVSPropertyOp23
 70
     1
102
RTVSPropertyOp24
 70
     1
102
RTVSPropertyOp25
 70
     1
102
RTVSPropertyOp26
 70
     1
102
RTVSPropertyOp27
 70
     1
102
RTVSPropertyOp28
 70
     1
102
RTVSPropertyOp29
 70
     1
102
RTVSPropertyOp30
 70
     1
102
RTVSPropertyOp31
 70
     1
102
RTVSPropertyOp32
 70
     1
  0
XRECORD
  5
15AF
102
{ACAD_REACTORS
330
15AE
102
}
330
15AE
100
AcDbXrecord
280
     1
102
RTVSPropertyOp0
 70
     1
102
RTVSPropertyOp1
 70
     1
102
RTVSPropertyOp2
 70
     1
102
RTVSPropertyOp3
 70
     1
102
RTVSPropertyOp4
 70
     1
102
RTVSPropertyOp5
 70
     1
102
RTVSPropertyOp6
 70
     1
102
RTVSPropertyOp7
 70
     1
102
RTVSPropertyOp8
 70
     1
102
RTVSPropertyOp9
 70
     1
102
RTVSPropertyOp10
 70
     1
102
RTVSPropertyOp11
 70
     1
102
RTVSPropertyOp12
 70
     1
102
RTVSPropertyOp13
 70
     1
102
RTVSPropertyOp14
 70
     1
102
RTVSPropertyOp15
 70
     1
102
RTVSPropertyOp16
 70
     1
102
RTVSPropertyOp17
 70
     1
102
RTVSPropertyOp18
 70
     1
102
RTVSPropertyOp19
 70
     1
102
RTVSPropertyOp20
 70
     1
102
RTVSPropertyOp21
 70
     1
102
RTVSPropertyOp22
 70
     1
102
RTVSPropertyOp23
 70
     1
102
RTVSPropertyOp24
 70
     1
102
RTVSPropertyOp25
 70
     1
102
RTVSPropertyOp26
 70
     1
102
RTVSPropertyOp27
 70
     1
102
RTVSPropertyOp28
 70
     1
102
RTVSPropertyOp29
 70
     1
102
RTVSPropertyOp30
 70
     1
102
RTVSPropertyOp31
 70
     1
102
RTVSPropertyOp32
 70
     1
  0
XRECORD
  5
15A9
102
{ACAD_REACTORS
330
15A8
102
}
330
15A8
100
AcDbXrecord
280
     1
102
RTVSPropertyOp0
 70
     1
102
RTVSPropertyOp1
 70
     1
102
RTVSPropertyOp2
 70
     1
102
RTVSPropertyOp3
 70
     1
102
RTVSPropertyOp4
 70
     1
102
RTVSPropertyOp5
 70
     1
102
RTVSPropertyOp6
 70
     1
102
RTVSPropertyOp7
 70
     1
102
RTVSPropertyOp8
 70
     1
102
RTVSPropertyOp9
 70
     1
102
RTVSPropertyOp10
 70
     1
102
RTVSPropertyOp11
 70
     1
102
RTVSPropertyOp12
 70
     1
102
RTVSPropertyOp13
 70
     1
102
RTVSPropertyOp14
 70
     1
102
RTVSPropertyOp15
 70
     1
102
RTVSPropertyOp16
 70
     1
102
RTVSPropertyOp17
 70
     1
102
RTVSPropertyOp18
 70
     1
102
RTVSPropertyOp19
 70
     1
102
RTVSPropertyOp20
 70
     1
102
RTVSPropertyOp21
 70
     1
102
RTVSPropertyOp22
 70
     1
102
RTVSPropertyOp23
 70
     1
102
RTVSPropertyOp24
 70
     1
102
RTVSPropertyOp25
 70
     1
102
RTVSPropertyOp26
 70
     1
102
RTVSPropertyOp27
 70
     1
102
RTVSPropertyOp28
 70
     1
102
RTVSPropertyOp29
 70
     1
102
RTVSPropertyOp30
 70
     1
102
RTVSPropertyOp31
 70
     1
102
RTVSPropertyOp32
 70
     1
  0
XRECORD
  5
15AB
102
{ACAD_REACTORS
330
15AA
102
}
330
15AA
100
AcDbXrecord
280
     1
102
RTVSPropertyOp0
 70
     1
102
RTVSPropertyOp1
 70
     1
102
RTVSPropertyOp2
 70
     1
102
RTVSPropertyOp3
 70
     1
102
RTVSPropertyOp4
 70
     1
102
RTVSPropertyOp5
 70
     1
102
RTVSPropertyOp6
 70
     1
102
RTVSPropertyOp7
 70
     1
102
RTVSPropertyOp8
 70
     1
102
RTVSPropertyOp9
 70
     1
102
RTVSPropertyOp10
 70
     1
102
RTVSPropertyOp11
 70
     1
102
RTVSPropertyOp12
 70
     1
102
RTVSPropertyOp13
 70
     1
102
RTVSPropertyOp14
 70
     1
102
RTVSPropertyOp15
 70
     1
102
RTVSPropertyOp16
 70
     1
102
RTVSPropertyOp17
 70
     1
102
RTVSPropertyOp18
 70
     1
102
RTVSPropertyOp19
 70
     1
102
RTVSPropertyOp20
 70
     1
102
RTVSPropertyOp21
 70
     1
102
RTVSPropertyOp22
 70
     1
102
RTVSPropertyOp23
 70
     1
102
RTVSPropertyOp24
 70
     1
102
RTVSPropertyOp25
 70
     1
102
RTVSPropertyOp26
 70
     1
102
RTVSPropertyOp27
 70
     1
102
RTVSPropertyOp28
 70
     1
102
RTVSPropertyOp29
 70
     1
102
RTVSPropertyOp30
 70
     1
102
RTVSPropertyOp31
 70
     1
102
RTVSPropertyOp32
 70
     1
  0
XRECORD
  5
15A1
102
{ACAD_REACTORS
330
15A0
102
}
330
15A0
100
AcDbXrecord
280
     1
102
RTVSPropertyOp0
 70
     1
102
RTVSPropertyOp1
 70
     1
102
RTVSPropertyOp2
 70
     1
102
RTVSPropertyOp3
 70
     1
102
RTVSPropertyOp4
 70
     1
102
RTVSPropertyOp5
 70
     1
102
RTVSPropertyOp6
 70
     1
102
RTVSPropertyOp7
 70
     1
102
RTVSPropertyOp8
 70
     1
102
RTVSPropertyOp9
 70
     1
102
RTVSPropertyOp10
 70
     1
102
RTVSPropertyOp11
 70
     1
102
RTVSPropertyOp12
 70
     1
102
RTVSPropertyOp13
 70
     1
102
RTVSPropertyOp14
 70
     1
102
RTVSPropertyOp15
 70
     1
102
RTVSPropertyOp16
 70
     1
102
RTVSPropertyOp17
 70
     1
102
RTVSPropertyOp18
 70
     1
102
RTVSPropertyOp19
 70
     1
102
RTVSPropertyOp20
 70
     1
102
RTVSPropertyOp21
 70
     1
102
RTVSPropertyOp22
 70
     1
102
RTVSPropertyOp23
 70
     1
102
RTVSPropertyOp24
 70
     1
102
RTVSPropertyOp25
 70
     1
102
RTVSPropertyOp26
 70
     1
102
RTVSPropertyOp27
 70
     1
102
RTVSPropertyOp28
 70
     1
102
RTVSPropertyOp29
 70
     1
102
RTVSPropertyOp30
 70
     1
102
RTVSPropertyOp31
 70
     1
102
RTVSPropertyOp32
 70
     1
  0
XRECORD
  5
1595
102
{ACAD_REACTORS
330
1594
102
}
330
1594
100
AcDbXrecord
280
     1
102
RTVSPropertyOp0
 70
     1
102
RTVSPropertyOp1
 70
     1
102
RTVSPropertyOp2
 70
     1
102
RTVSPropertyOp3
 70
     1
102
RTVSPropertyOp4
 70
     1
102
RTVSPropertyOp5
 70
     1
102
RTVSPropertyOp6
 70
     1
102
RTVSPropertyOp7
 70
     1
102
RTVSPropertyOp8
 70
     1
102
RTVSPropertyOp9
 70
     1
102
RTVSPropertyOp10
 70
     1
102
RTVSPropertyOp11
 70
     1
102
RTVSPropertyOp12
 70
     1
102
RTVSPropertyOp13
 70
     1
102
RTVSPropertyOp14
 70
     1
102
RTVSPropertyOp15
 70
     1
102
RTVSPropertyOp16
 70
     1
102
RTVSPropertyOp17
 70
     1
102
RTVSPropertyOp18
 70
     1
102
RTVSPropertyOp19
 70
     1
102
RTVSPropertyOp20
 70
     1
102
RTVSPropertyOp21
 70
     1
102
RTVSPropertyOp22
 70
     1
102
RTVSPropertyOp23
 70
     1
102
RTVSPropertyOp24
 70
     1
102
RTVSPropertyOp25
 70
     1
102
RTVSPropertyOp26
 70
     1
102
RTVSPropertyOp27
 70
     1
102
RTVSPropertyOp28
 70
     1
102
RTVSPropertyOp29
 70
     1
102
RTVSPropertyOp30
 70
     1
102
RTVSPropertyOp31
 70
     1
102
RTVSPropertyOp32
 70
     1
  0
XRECORD
  5
15AD
102
{ACAD_REACTORS
330
15AC
102
}
330
15AC
100
AcDbXrecord
280
     1
102
RTVSPropertyOp0
 70
     1
102
RTVSPropertyOp1
 70
     1
102
RTVSPropertyOp2
 70
     1
102
RTVSPropertyOp3
 70
     1
102
RTVSPropertyOp4
 70
     1
102
RTVSPropertyOp5
 70
     1
102
RTVSPropertyOp6
 70
     1
102
RTVSPropertyOp7
 70
     1
102
RTVSPropertyOp8
 70
     1
102
RTVSPropertyOp9
 70
     1
102
RTVSPropertyOp10
 70
     1
102
RTVSPropertyOp11
 70
     1
102
RTVSPropertyOp12
 70
     1
102
RTVSPropertyOp13
 70
     1
102
RTVSPropertyOp14
 70
     1
102
RTVSPropertyOp15
 70
     1
102
RTVSPropertyOp16
 70
     1
102
RTVSPropertyOp17
 70
     1
102
RTVSPropertyOp18
 70
     1
102
RTVSPropertyOp19
 70
     1
102
RTVSPropertyOp20
 70
     1
102
RTVSPropertyOp21
 70
     1
102
RTVSPropertyOp22
 70
     1
102
RTVSPropertyOp23
 70
     1
102
RTVSPropertyOp24
 70
     1
102
RTVSPropertyOp25
 70
     1
102
RTVSPropertyOp26
 70
     1
102
RTVSPropertyOp27
 70
     1
102
RTVSPropertyOp28
 70
     1
102
RTVSPropertyOp29
 70
     1
102
RTVSPropertyOp30
 70
     1
102
RTVSPropertyOp31
 70
     1
102
RTVSPropertyOp32
 70
     1
  0
ENDSEC
  0
EOF
