  0
SECTION
  2
HEADER
  9
$ACADVER
  1
AC1024
  9
$ACADMAINTVER
 70
    63
  9
$DWGCODEPAGE
  3
ANSI_1252
  9
$AUTHOR
  1
KA
  9
$REVISIONNUMBER
  1
-
  9
$CUSTOMPROPERTYTAG
  1
Manager
  9
$CUSTOMPROPERTY
  1

  9
$CUSTOMPROPERTYTAG
  1
Company
  9
$CUSTOMPROPERTY
  1

  9
$CUSTOMPROPERTYTAG
  1
Category
  9
$CUSTOMPROPERTY
  1

  9
$CUSTOMPROPERTYTAG
  1
Part Number
  9
$CUSTOMPROPERTY
  1
SSJWL454-S
  9
$CUSTOMPROPERTYTAG
  1
Description
  9
$CUSTOMPROPERTY
  1

  9
$CUSTOMPROPERTYTAG
  1
Project
  9
$CUSTOMPROPERTY
  1

  9
$CUSTOMPROPERTYTAG
  1
Designer
  9
$CUSTOMPROPERTY
  1
KA
  9
$CUSTOMPROPERTYTAG
  1
Engineer
  9
$CUSTOMPROPERTY
  1

  9
$CUSTOMPROPERTYTAG
  1
Authority
  9
$CUSTOMPROPERTY
  1

  9
$CUSTOMPROPERTYTAG
  1
Cost Center
  9
$CUSTOMPROPERTY
  1

  9
$CUSTOMPROPERTYTAG
  1
Vendor
  9
$CUSTOMPROPERTY
  1

  9
$CUSTOMPROPERTYTAG
  1
User Status
  9
$CUSTOMPROPERTY
  1

  9
$CUSTOMPROPERTYTAG
  1
Design Status
  9
$CUSTOMPROPERTY
  1
WorkInProgress
  9
$CUSTOMPROPERTYTAG
  1
Checked by
  9
$CUSTOMPROPERTY
  1
DN
  9
$CUSTOMPROPERTYTAG
  1
Date Checked
  9
$CUSTOMPROPERTY
  1
12/04/2012
  9
$CUSTOMPROPERTYTAG
  1
Engr Approved by
  9
$CUSTOMPROPERTY
  1

  9
$CUSTOMPROPERTYTAG
  1
Date Eng Approved
  9
$CUSTOMPROPERTY
  1
12/04/2012
  9
$CUSTOMPROPERTYTAG
  1
Mfg Approved by
  9
$CUSTOMPROPERTY
  1

  9
$CUSTOMPROPERTYTAG
  1
Date Mfg Approved
  9
$CUSTOMPROPERTY
  1
12/04/2012
  9
$CUSTOMPROPERTYTAG
  1
DWG. NO
  9
$CUSTOMPROPERTY
  1

  9
$CUSTOMPROPERTYTAG
  1
NUMBER OF SHEETS
  9
$CUSTOMPROPERTY
  1
1
  9
$CUSTOMPROPERTYTAG
  1
DRAWING #
  9
$CUSTOMPROPERTY
  1

  9
$INSBASE
 10
0.0
 20
0.0
 30
0.0
  9
$EXTMIN
 10
0.0
 20
0.0
 30
0.0
  9
$EXTMAX
 10
45.33333333333333
 20
29.33333333333333
 30
0.0
  9
$LIMMIN
 10
0.0
 20
0.0
  9
$LIMMAX
 10
45.33333333333333
 20
29.33333333333333
  9
$ORTHOMODE
 70
     0
  9
$REGENMODE
 70
     1
  9
$FILLMODE
 70
     1
  9
$QTEXTMODE
 70
     0
  9
$MIRRTEXT
 70
     0
  9
$LTSCALE
 40
2.666666666666666
  9
$ATTMODE
 70
     1
  9
$TEXTSIZE
 40
0.2
  9
$TRACEWID
 40
0.05
  9
$TEXTSTYLE
  7
Standard
  9
$CLAYER
  8
0
  9
$CELTYPE
  6
ByLayer
  9
$CECOLOR
 62
   256
  9
$CELTSCALE
 40
1.0
  9
$DISPSILH
 70
     0
  9
$DIMSCALE
 40
1.0
  9
$DIMASZ
 40
0.0708661417322835
  9
$DIMEXO
 40
0.0625
  9
$DIMDLI
 40
0.38
  9
$DIMRND
 40
0.0
  9
$DIMDLE
 40
0.0
  9
$DIMEXE
 40
0.18
  9
$DIMTP
 40
0.0
  9
$DIMTM
 40
0.0
  9
$DIMTXT
 40
0.0708661417322835
  9
$DIMCEN
 40
0.09
  9
$DIMTSZ
 40
0.0
  9
$DIMTOL
 70
     0
  9
$DIMLIM
 70
     0
  9
$DIMTIH
 70
     1
  9
$DIMTOH
 70
     1
  9
$DIMSE1
 70
     0
  9
$DIMSE2
 70
     0
  9
$DIMTAD
 70
     0
  9
$DIMZIN
 70
     0
  9
$DIMBLK
  1

  9
$DIMASO
 70
     1
  9
$DIMSHO
 70
     1
  9
$DIMPOST
  1

  9
$DIMAPOST
  1

  9
$DIMALT
 70
     0
  9
$DIMALTD
 70
     2
  9
$DIMALTF
 40
25.4
  9
$DIMLFAC
 40
1.0
  9
$DIMTOFL
 70
     0
  9
$DIMTVP
 40
0.0
  9
$DIMTIX
 70
     0
  9
$DIMSOXD
 70
     0
  9
$DIMSAH
 70
     0
  9
$DIMBLK1
  1

  9
$DIMBLK2
  1

  9
$DIMSTYLE
  2
Standard
  9
$DIMCLRD
 70
     0
  9
$DIMCLRE
 70
     0
  9
$DIMCLRT
 70
     0
  9
$DIMTFAC
 40
1.0
  9
$DIMGAP
 40
0.09
  9
$DIMJUST
 70
     0
  9
$DIMSD1
 70
     0
  9
$DIMSD2
 70
     0
  9
$DIMTOLJ
 70
     1
  9
$DIMTZIN
 70
     0
  9
$DIMALTZ
 70
     0
  9
$DIMALTTZ
 70
     0
  9
$DIMUPT
 70
     0
  9
$DIMDEC
 70
     4
  9
$DIMTDEC
 70
     4
  9
$DIMALTU
 70
     2
  9
$DIMALTTD
 70
     2
  9
$DIMTXSTY
  7
Standard
  9
$DIMAUNIT
 70
     0
  9
$DIMADEC
 70
     0
  9
$DIMALTRND
 40
0.0
  9
$DIMAZIN
 70
     0
  9
$DIMDSEP
 70
    46
  9
$DIMATFIT
 70
     3
  9
$DIMFRAC
 70
     0
  9
$DIMLDRBLK
  1

  9
$DIMLUNIT
 70
     2
  9
$DIMLWD
 70
    -2
  9
$DIMLWE
 70
    -2
  9
$DIMTMOVE
 70
     0
  9
$DIMFXL
 40
1.0
  9
$DIMFXLON
 70
     0
  9
$DIMJOGANG
 40
0.7853981633974483
  9
$DIMTFILL
 70
     0
  9
$DIMTFILLCLR
 70
     0
  9
$DIMARCSYM
 70
     0
  9
$DIMLTYPE
  6

  9
$DIMLTEX1
  6

  9
$DIMLTEX2
  6

  9
$DIMTXTDIRECTION
 70
     0
  9
$LUNITS
 70
     2
  9
$LUPREC
 70
     4
  9
$SKETCHINC
 40
0.1
  9
$FILLETRAD
 40
0.0
  9
$AUNITS
 70
     0
  9
$AUPREC
 70
     0
  9
$MENU
  1
.
  9
$ELEVATION
 40
0.0
  9
$PELEVATION
 40
0.0
  9
$THICKNESS
 40
0.0
  9
$LIMCHECK
 70
     0
  9
$CHAMFERA
 40
0.0
  9
$CHAMFERB
 40
0.0
  9
$CHAMFERC
 40
0.0
  9
$CHAMFERD
 40
0.0
  9
$SKPOLY
 70
     0
  9
$TDCREATE
 40
2456295.390028496
  9
$TDUCREATE
 40
2456295.640028495
  9
$TDUPDATE
 40
2456295.390028507
  9
$TDUUPDATE
 40
2456295.640028507
  9
$TDINDWG
 40
0.0000153704
  9
$TDUSRTIMER
 40
0.0000153704
  9
$USRTIMER
 70
     1
  9
$ANGBASE
 50
0.0
  9
$ANGDIR
 70
     0
  9
$PDMODE
 70
     0
  9
$PDSIZE
 40
0.0
  9
$PLINEWID
 40
0.0
  9
$SPLFRAME
 70
     0
  9
$SPLINETYPE
 70
     6
  9
$SPLINESEGS
 70
     8
  9
$HANDSEED
  5
1831
  9
$SURFTAB1
 70
     6
  9
$SURFTAB2
 70
     6
  9
$SURFTYPE
 70
     6
  9
$SURFU
 70
     6
  9
$SURFV
 70
     6
  9
$UCSBASE
  2

  9
$UCSNAME
  2

  9
$UCSORG
 10
0.0
 20
0.0
 30
0.0
  9
$UCSXDIR
 10
1.0
 20
0.0
 30
0.0
  9
$UCSYDIR
 10
0.0
 20
1.0
 30
0.0
  9
$UCSORTHOREF
  2

  9
$UCSORTHOVIEW
 70
     0
  9
$UCSORGTOP
 10
0.0
 20
0.0
 30
0.0
  9
$UCSORGBOTTOM
 10
0.0
 20
0.0
 30
0.0
  9
$UCSORGLEFT
 10
0.0
 20
0.0
 30
0.0
  9
$UCSORGRIGHT
 10
0.0
 20
0.0
 30
0.0
  9
$UCSORGFRONT
 10
0.0
 20
0.0
 30
0.0
  9
$UCSORGBACK
 10
0.0
 20
0.0
 30
0.0
  9
$PUCSBASE
  2

  9
$PUCSNAME
  2

  9
$PUCSORG
 10
0.0
 20
0.0
 30
0.0
  9
$PUCSXDIR
 10
1.0
 20
0.0
 30
0.0
  9
$PUCSYDIR
 10
0.0
 20
1.0
 30
0.0
  9
$PUCSORTHOREF
  2

  9
$PUCSORTHOVIEW
 70
     0
  9
$PUCSORGTOP
 10
0.0
 20
0.0
 30
0.0
  9
$PUCSORGBOTTOM
 10
0.0
 20
0.0
 30
0.0
  9
$PUCSORGLEFT
 10
0.0
 20
0.0
 30
0.0
  9
$PUCSORGRIGHT
 10
0.0
 20
0.0
 30
0.0
  9
$PUCSORGFRONT
 10
0.0
 20
0.0
 30
0.0
  9
$PUCSORGBACK
 10
0.0
 20
0.0
 30
0.0
  9
$USERI1
 70
     0
  9
$USERI2
 70
     0
  9
$USERI3
 70
     0
  9
$USERI4
 70
     0
  9
$USERI5
 70
     0
  9
$USERR1
 40
0.0
  9
$USERR2
 40
0.0
  9
$USERR3
 40
0.0
  9
$USERR4
 40
0.0
  9
$USERR5
 40
0.0
  9
$WORLDVIEW
 70
     1
  9
$SHADEDGE
 70
     3
  9
$SHADEDIF
 70
    70
  9
$TILEMODE
 70
     1
  9
$MAXACTVP
 70
    64
  9
$PINSBASE
 10
0.0
 20
0.0
 30
0.0
  9
$PLIMCHECK
 70
     0
  9
$PEXTMIN
 10
0.0
 20
0.0
 30
0.0
  9
$PEXTMAX
 10
45.33333333333333
 20
29.33333333333333
 30
0.0
  9
$PLIMMIN
 10
0.0
 20
0.0
  9
$PLIMMAX
 10
45.33333333333333
 20
29.33333333333333
  9
$UNITMODE
 70
     0
  9
$VISRETAIN
 70
     1
  9
$PLINEGEN
 70
     0
  9
$PSLTSCALE
 70
     1
  9
$TREEDEPTH
 70
  3020
  9
$CMLSTYLE
  2
Standard
  9
$CMLJUST
 70
     0
  9
$CMLSCALE
 40
1.0
  9
$PROXYGRAPHICS
 70
     1
  9
$MEASUREMENT
 70
     0
  9
$CELWEIGHT
370
    -1
  9
$ENDCAPS
280
     0
  9
$JOINSTYLE
280
     0
  9
$LWDISPLAY
290
     0
  9
$INSUNITS
 70
     1
  9
$HYPERLINKBASE
  1

  9
$STYLESHEET
  1

  9
$XEDIT
290
     1
  9
$CEPSNTYPE
380
     0
  9
$PSTYLEMODE
290
     1
  9
$FINGERPRINTGUID
  2
{80534932-354D-4FD0-8843-67FD2271B00F}
  9
$VERSIONGUID
  2
{2E0C8FBA-7412-4BBB-BCCA-FF1CC37743D3}
  9
$EXTNAMES
290
     1
  9
$PSVPSCALE
 40
0.0
  9
$OLESTARTUP
290
     0
  9
$SORTENTS
280
   127
  9
$INDEXCTL
280
     0
  9
$HIDETEXT
280
     1
  9
$XCLIPFRAME
280
     2
  9
$HALOGAP
280
     0
  9
$OBSCOLOR
 70
   257
  9
$OBSLTYPE
280
     0
  9
$INTERSECTIONDISPLAY
280
     0
  9
$INTERSECTIONCOLOR
 70
   257
  9
$DIMASSOC
280
     1
  9
$PROJECTNAME
  1

  9
$CAMERADISPLAY
290
     0
  9
$LENSLENGTH
 40
50.0
  9
$CAMERAHEIGHT
 40
0.0
  9
$STEPSPERSEC
 40
2.0
  9
$STEPSIZE
 40
6.0
  9
$3DDWFPREC
 40
2.0
  9
$PSOLWIDTH
 40
0.25
  9
$PSOLHEIGHT
 40
4.0
  9
$LOFTANG1
 40
1.570796326794896
  9
$LOFTANG2
 40
1.570796326794896
  9
$LOFTMAG1
 40
0.0
  9
$LOFTMAG2
 40
0.0
  9
$LOFTPARAM
 70
     7
  9
$LOFTNORMALS
280
     1
  9
$LATITUDE
 40
37.795
  9
$LONGITUDE
 40
-122.394
  9
$NORTHDIRECTION
 40
0.0
  9
$TIMEZONE
 70
 -8000
  9
$LIGHTGLYPHDISPLAY
280
     1
  9
$TILEMODELIGHTSYNCH
280
     1
  9
$CMATERIAL
347
11
  9
$SOLIDHIST
280
     0
  9
$SHOWHIST
280
     1
  9
$DWFFRAME
280
     2
  9
$DGNFRAME
280
     0
  9
$REALWORLDSCALE
290
     1
  9
$INTERFERECOLOR
 62
     1
  9
$INTERFEREOBJVS
345
33
  9
$INTERFEREVPVS
346
30
  9
$CSHADOW
280
     0
  9
$SHADOWPLANELOCATION
 40
0.0
  0
ENDSEC
  0
SECTION
  2
CLASSES
  0
CLASS
  1
ACDBDICTIONARYWDFLT
  2
AcDbDictionaryWithDefault
  3
ObjectDBX Classes
 90
        0
 91
        1
280
     0
281
     0
  0
CLASS
  1
MATERIAL
  2
AcDbMaterial
  3
ObjectDBX Classes
 90
     1153
 91
        3
280
     0
281
     0
  0
CLASS
  1
VISUALSTYLE
  2
AcDbVisualStyle
  3
ObjectDBX Classes
 90
     4095
 91
       24
280
     0
281
     0
  0
CLASS
  1
SCALE
  2
AcDbScale
  3
ObjectDBX Classes
 90
     1153
 91
       17
280
     0
281
     0
  0
CLASS
  1
TABLESTYLE
  2
AcDbTableStyle
  3
ObjectDBX Classes
 90
     4095
 91
        1
280
     0
281
     0
  0
CLASS
  1
MLEADERSTYLE
  2
AcDbMLeaderStyle
  3
ACDB_MLEADERSTYLE_CLASS
 90
     4095
 91
        1
280
     0
281
     0
  0
CLASS
  1
DICTIONARYVAR
  2
AcDbDictionaryVar
  3
ObjectDBX Classes
 90
        0
 91
        3
280
     0
281
     0
  0
CLASS
  1
CELLSTYLEMAP
  2
AcDbCellStyleMap
  3
ObjectDBX Classes
 90
     1152
 91
        1
280
     0
281
     0
  0
ENDSEC
  0
SECTION
  2
TABLES
  0
TABLE
  2
VPORT
  5
8
330
0
100
AcDbSymbolTable
 70
     1
  0
VPORT
  5
57
330
8
100
AcDbSymbolTableRecord
100
AcDbViewportTableRecord
  2
*Active
 70
     0
 10
0.0
 20
0.0
 11
1.0
 21
1.0
 12
22.66666666666667
 22
14.66666666666666
 13
0.0
 23
0.0
 14
1.0
 24
1.0
 15
0.0
 25
0.0
 16
0.0
 26
0.0
 36
1.0
 17
0.0
 27
0.0
 37
0.0
 40
29.33333333333333
 41
1.545454545454545
 42
50.0
 43
0.0
 44
0.0
 50
0.0
 51
0.0
 71
     0
 72
   100
 73
     1
 74
     1
 75
     0
 76
     0
 77
     0
 78
     0
281
     0
 65
     1
110
0.0
120
0.0
130
0.0
111
1.0
121
0.0
131
0.0
112
0.0
122
1.0
132
0.0
 79
     0
146
0.0
 60
     3
 61
     5
292
     1
282
     1
141
0.0
142
0.0
 63
   250
421
  3355443
  0
ENDTAB
  0
TABLE
  2
LTYPE
  5
5
330
0
100
AcDbSymbolTable
 70
    59
  0
LTYPE
  5
5B
330
5
100
AcDbSymbolTableRecord
100
AcDbLinetypeTableRecord
  2
ByBlock
 70
     0
  3

 72
    65
 73
     0
 40
0.0
  0
LTYPE
  5
5C
330
5
100
AcDbSymbolTableRecord
100
AcDbLinetypeTableRecord
  2
ByLayer
 70
     0
  3

 72
    65
 73
     0
 40
0.0
  0
LTYPE
  5
5D
330
5
100
AcDbSymbolTableRecord
100
AcDbLinetypeTableRecord
  2
Continuous
 70
     0
  3
Solid line
 72
    65
 73
     0
 40
0.0
  0
LTYPE
  5
7C
330
5
100
AcDbSymbolTableRecord
100
AcDbLinetypeTableRecord
  2
BY_STANDARD
 70
     0
  3
By Standard ____________    ____    ____   _
 72
    65
 73
     6
 40
1.240299999999999
 49
0.6614
 74
     0
 49
-0.0827
 74
     0
 49
0.1654
 74
     0
 49
-0.0827
 74
     0
 49
0.1654
 74
     0
 49
-0.0827
 74
     0
  0
LTYPE
  5
7D
330
5
100
AcDbSymbolTableRecord
100
AcDbLinetypeTableRecord
  2
CHAIN
 70
     0
  3
Chain ____ _ ____ _ ____ _ ____ _ ____ _ ____
 72
    65
 73
     4
 40
0.7087
 49
0.4724000000000001
 74
     0
 49
-0.0591
 74
     0
 49
0.1181
 74
     0
 49
-0.0591
 74
     0
  0
LTYPE
  5
7E
330
5
100
AcDbSymbolTableRecord
100
AcDbLinetypeTableRecord
  2
DASH_DOT
 70
     0
  3
Dash dot __ . __ . __ . __ . __ . __ . __ . __
 72
    65
 73
     4
 40
0.37
 49
0.24
 74
     0
 49
-0.06
 74
     0
 49
0.01
 74
     0
 49
-0.06
 74
     0
  0
LTYPE
  5
7F
330
5
100
AcDbSymbolTableRecord
100
AcDbLinetypeTableRecord
  2
DOUBLE_DASH_DOT
 70
     0
  3
Double-Dash Dot __ __ . __ __ . __ __ . __ _
 72
    65
 73
     6
 40
0.4398
 49
0.24
 74
     0
 49
-0.06
 74
     0
 49
0.0098
 74
     0
 49
-0.06
 74
     0
 49
0.01
 74
     0
 49
-0.06
 74
     0
  0
LTYPE
  5
80
330
5
100
AcDbSymbolTableRecord
100
AcDbLinetypeTableRecord
  2
DASH_TRIPLE_DOT
 70
     0
  3
Dash Triple-Dot _ . . . _ . . . _ . . . _
 72
    65
 73
     8
 40
0.51
 49
0.24
 74
     0
 49
-0.06
 74
     0
 49
0.01
 74
     0
 49
-0.06
 74
     0
 49
0.01
 74
     0
 49
-0.06
 74
     0
 49
0.01
 74
     0
 49
-0.06
 74
     0
  0
LTYPE
  5
81
330
5
100
AcDbSymbolTableRecord
100
AcDbLinetypeTableRecord
  2
DASHED
 70
     0
  3
Dashed __ __ __ __ __ __ __ __ __ __ __ __ __ _
 72
    65
 73
     2
 40
0.2067
 49
0.1654
 74
     0
 49
-0.0413
 74
     0
  0
LTYPE
  5
82
330
5
100
AcDbSymbolTableRecord
100
AcDbLinetypeTableRecord
  2
DASH_DOUBLE_DOT
 70
     0
  3
Dash Double-Dot __ . . __ . . __ . . __ . .
 72
    65
 73
     6
 40
0.4398
 49
0.24
 74
     0
 49
-0.06
 74
     0
 49
0.0098
 74
     0
 49
-0.06
 74
     0
 49
0.01
 74
     0
 49
-0.06
 74
     0
  0
LTYPE
  5
83
330
5
100
AcDbSymbolTableRecord
100
AcDbLinetypeTableRecord
  2
DASHED_SPACE
 70
     0
  3
Dashed Space __ __ __ __ __ __ __ __ __ __ __ _
 72
    65
 73
     2
 40
0.2067
 49
0.1654
 74
     0
 49
-0.0413
 74
     0
  0
LTYPE
  5
84
330
5
100
AcDbSymbolTableRecord
100
AcDbLinetypeTableRecord
  2
DOTTED
 70
     0
  3
Dotted . . . . . . . . . . . . . . . . . . . . 
 72
    65
 73
     2
 40
0.0482
 49
0.0069
 74
     0
 49
-0.0413
 74
     0
  0
LTYPE
  5
85
330
5
100
AcDbSymbolTableRecord
100
AcDbLinetypeTableRecord
  2
DOUBLE_DASH_CHAIN
 70
     0
  3
Double-Dash Chain ______  __  __  ______  __  _
 72
    65
 73
     6
 40
1.240299999999999
 49
0.6614
 74
     0
 49
-0.0827
 74
     0
 49
0.1654
 74
     0
 49
-0.0827
 74
     0
 49
0.1654
 74
     0
 49
-0.0827
 74
     0
  0
LTYPE
  5
87
330
5
100
AcDbSymbolTableRecord
100
AcDbLinetypeTableRecord
  2
DOUBLE_DASH_DOUBLE_DOT
 70
     0
  3
Double-Dash Double-dot _ _ . . _ _ . . _
 72
    65
 73
     8
 40
0.7400000000000001
 49
0.24
 74
     0
 49
-0.06
 74
     0
 49
0.24
 74
     0
 49
-0.06
 74
     0
 49
0.01
 74
     0
 49
-0.06
 74
     0
 49
0.01
 74
     0
 49
-0.06
 74
     0
  0
LTYPE
  5
88
330
5
100
AcDbSymbolTableRecord
100
AcDbLinetypeTableRecord
  2
DOUBLE_DASH_TRIPLE_DOT
 70
     0
  3
Double Dash Triple Dot __ __ . . . __ __ . .
 72
    65
 73
    10
 40
0.8100000000000001
 49
0.24
 74
     0
 49
-0.06
 74
     0
 49
0.24
 74
     0
 49
-0.06
 74
     0
 49
0.01
 74
     0
 49
-0.06
 74
     0
 49
0.01
 74
     0
 49
-0.06
 74
     0
 49
0.01
 74
     0
 49
-0.06
 74
     0
  0
LTYPE
  5
89
330
5
100
AcDbSymbolTableRecord
100
AcDbLinetypeTableRecord
  2
LONG_DASH_DOTTED
 70
     0
  3
Long Dash Dotted ____ . ____ . ____ . ____ . _
 72
    65
 73
     4
 40
0.3543
 49
0.2362
 74
     0
 49
-0.0295
 74
     0
 49
0.0591
 74
     0
 49
-0.0295
 74
     0
  0
LTYPE
  5
8A
330
5
100
AcDbSymbolTableRecord
100
AcDbLinetypeTableRecord
  2
LONG_DASH_DOUBLE_DOT
 70
     0
  3
Long Dash Double Dot ________  .  .  ________  
 72
    65
 73
     6
 40
0.6799999999999999
 49
0.48
 74
     0
 49
-0.06
 74
     0
 49
0.01
 74
     0
 49
-0.06
 74
     0
 49
0.01
 74
     0
 49
-0.06
 74
     0
  0
LTYPE
  5
8B
330
5
100
AcDbSymbolTableRecord
100
AcDbLinetypeTableRecord
  2
LONG_DASH_TRIPLE_DOT
 70
     0
  3
Long Dash Triple Dot ____ ... ____ ... ____
 72
    65
 73
     8
 40
0.3689
 49
0.2362
 74
     0
 49
-0.0295
 74
     0
 49
0.0049
 74
     0
 49
-0.0295
 74
     0
 49
0.0049
 74
     0
 49
-0.0295
 74
     0
 49
0.0049
 74
     0
 49
-0.0295
 74
     0
  0
LTYPE
  5
8C
330
5
100
AcDbSymbolTableRecord
100
AcDbLinetypeTableRecord
  2
BORDER
 70
     0
  3
Border __ __ . __ __ . __ __ . __ __ . __ __ .
 72
    65
 73
     6
 40
1.75
 49
0.5
 74
     0
 49
-0.25
 74
     0
 49
0.5
 74
     0
 49
-0.25
 74
     0
 49
0.0
 74
     0
 49
-0.25
 74
     0
  0
LTYPE
  5
8D
330
5
100
AcDbSymbolTableRecord
100
AcDbLinetypeTableRecord
  2
BORDER2
 70
     0
  3
Border (.5x) __.__.__.__.__.__.__.__.__.__.__.
 72
    65
 73
     6
 40
0.875
 49
0.25
 74
     0
 49
-0.125
 74
     0
 49
0.25
 74
     0
 49
-0.125
 74
     0
 49
0.0
 74
     0
 49
-0.125
 74
     0
  0
LTYPE
  5
8E
330
5
100
AcDbSymbolTableRecord
100
AcDbLinetypeTableRecord
  2
BORDERX2
 70
     0
  3
Border (2x) ____  ____  .  ____  ____  .  ___
 72
    65
 73
     6
 40
3.5
 49
1.0
 74
     0
 49
-0.5
 74
     0
 49
1.0
 74
     0
 49
-0.5
 74
     0
 49
0.0
 74
     0
 49
-0.5
 74
     0
  0
LTYPE
  5
8F
330
5
100
AcDbSymbolTableRecord
100
AcDbLinetypeTableRecord
  2
CENTER
 70
     0
  3
Center ____ _ ____ _ ____ _ ____ _ ____ _ ____
 72
    65
 73
     4
 40
2.0
 49
1.25
 74
     0
 49
-0.25
 74
     0
 49
0.25
 74
     0
 49
-0.25
 74
     0
  0
LTYPE
  5
90
330
5
100
AcDbSymbolTableRecord
100
AcDbLinetypeTableRecord
  2
CENTER2
 70
     0
  3
Center (.5x) ___ _ ___ _ ___ _ ___ _ ___ _ ___
 72
    65
 73
     4
 40
1.125
 49
0.75
 74
     0
 49
-0.125
 74
     0
 49
0.125
 74
     0
 49
-0.125
 74
     0
  0
LTYPE
  5
91
330
5
100
AcDbSymbolTableRecord
100
AcDbLinetypeTableRecord
  2
CENTERX2
 70
     0
  3
Center (2x) ________  __  ________  __  _____
 72
    65
 73
     4
 40
4.0
 49
2.5
 74
     0
 49
-0.5
 74
     0
 49
0.5
 74
     0
 49
-0.5
 74
     0
  0
LTYPE
  5
92
330
5
100
AcDbSymbolTableRecord
100
AcDbLinetypeTableRecord
  2
DASHDOT2
 70
     0
  3
Dash dot (.5x) _._._._._._._._._._._._._._._.
 72
    65
 73
     4
 40
0.5
 49
0.25
 74
     0
 49
-0.125
 74
     0
 49
0.0
 74
     0
 49
-0.125
 74
     0
  0
LTYPE
  5
93
330
5
100
AcDbSymbolTableRecord
100
AcDbLinetypeTableRecord
  2
DASHDOTX2
 70
     0
  3
Dash dot (2x) ____  .  ____  .  ____  .  ___
 72
    65
 73
     4
 40
2.0
 49
1.0
 74
     0
 49
-0.5
 74
     0
 49
0.0
 74
     0
 49
-0.5
 74
     0
  0
LTYPE
  5
95
330
5
100
AcDbSymbolTableRecord
100
AcDbLinetypeTableRecord
  2
DASHED2
 70
     0
  3
Dashed (.5x) _ _ _ _ _ _ _ _ _ _ _ _ _ _ _ _ _
 72
    65
 73
     2
 40
0.375
 49
0.25
 74
     0
 49
-0.125
 74
     0
  0
LTYPE
  5
96
330
5
100
AcDbSymbolTableRecord
100
AcDbLinetypeTableRecord
  2
DASHEDX2
 70
     0
  3
Dashed (2x) ____  ____  ____  ____  ____  ___
 72
    65
 73
     2
 40
1.5
 49
1.0
 74
     0
 49
-0.5
 74
     0
  0
LTYPE
  5
97
330
5
100
AcDbSymbolTableRecord
100
AcDbLinetypeTableRecord
  2
DIVIDE
 70
     0
  3
Divide ____ . . ____ . . ____ . . ____ . . ____
 72
    65
 73
     6
 40
1.25
 49
0.5
 74
     0
 49
-0.25
 74
     0
 49
0.0
 74
     0
 49
-0.25
 74
     0
 49
0.0
 74
     0
 49
-0.25
 74
     0
  0
LTYPE
  5
98
330
5
100
AcDbSymbolTableRecord
100
AcDbLinetypeTableRecord
  2
DIVIDE2
 70
     0
  3
Divide (.5x) __..__..__..__..__..__..__..__.._
 72
    65
 73
     6
 40
0.625
 49
0.25
 74
     0
 49
-0.125
 74
     0
 49
0.0
 74
     0
 49
-0.125
 74
     0
 49
0.0
 74
     0
 49
-0.125
 74
     0
  0
LTYPE
  5
99
330
5
100
AcDbSymbolTableRecord
100
AcDbLinetypeTableRecord
  2
DIVIDEX2
 70
     0
  3
Divide (2x) ________  .  .  ________  .  .  _
 72
    65
 73
     6
 40
2.5
 49
1.0
 74
     0
 49
-0.5
 74
     0
 49
0.0
 74
     0
 49
-0.5
 74
     0
 49
0.0
 74
     0
 49
-0.5
 74
     0
  0
LTYPE
  5
9A
330
5
100
AcDbSymbolTableRecord
100
AcDbLinetypeTableRecord
  2
DOT
 70
     0
  3
Dot . . . . . . . . . . . . . . . . . . . . . .
 72
    65
 73
     2
 40
0.25
 49
0.0
 74
     0
 49
-0.25
 74
     0
  0
LTYPE
  5
9B
330
5
100
AcDbSymbolTableRecord
100
AcDbLinetypeTableRecord
  2
DOT2
 70
     0
  3
Dot (.5x) .....................................
 72
    65
 73
     2
 40
0.125
 49
0.0
 74
     0
 49
-0.125
 74
     0
  0
LTYPE
  5
9C
330
5
100
AcDbSymbolTableRecord
100
AcDbLinetypeTableRecord
  2
DOTX2
 70
     0
  3
Dot (2x) .  .  .  .  .  .  .  .  .  .  .  .  . 
 72
    65
 73
     2
 40
0.5
 49
0.0
 74
     0
 49
-0.5
 74
     0
  0
LTYPE
  5
9D
330
5
100
AcDbSymbolTableRecord
100
AcDbLinetypeTableRecord
  2
HIDDEN
 70
     0
  3
Hidden __ __ __ __ __ __ __ __ __ __ __ __ __ _
 72
    65
 73
     2
 40
0.375
 49
0.25
 74
     0
 49
-0.125
 74
     0
  0
LTYPE
  5
9E
330
5
100
AcDbSymbolTableRecord
100
AcDbLinetypeTableRecord
  2
HIDDEN2
 70
     0
  3
Hidden (.5x) _ _ _ _ _ _ _ _ _ _ _ _ _ _ _ _ _
 72
    65
 73
     2
 40
0.1875
 49
0.125
 74
     0
 49
-0.0625
 74
     0
  0
LTYPE
  5
9F
330
5
100
AcDbSymbolTableRecord
100
AcDbLinetypeTableRecord
  2
HIDDENX2
 70
     0
  3
Hidden (2x) ____ ____ ____ ____ ____ ____ ____
 72
    65
 73
     2
 40
0.75
 49
0.5
 74
     0
 49
-0.25
 74
     0
  0
LTYPE
  5
A0
330
5
100
AcDbSymbolTableRecord
100
AcDbLinetypeTableRecord
  2
PHANTOM
 70
     0
  3
Phantom ______  __  __  ______  __  __  ______
 72
    65
 73
     6
 40
2.5
 49
1.25
 74
     0
 49
-0.25
 74
     0
 49
0.25
 74
     0
 49
-0.25
 74
     0
 49
0.25
 74
     0
 49
-0.25
 74
     0
  0
LTYPE
  5
A1
330
5
100
AcDbSymbolTableRecord
100
AcDbLinetypeTableRecord
  2
PHANTOM2
 70
     0
  3
Phantom (.5x) ___ _ _ ___ _ _ ___ _ _ ___ _ _
 72
    65
 73
     6
 40
1.25
 49
0.625
 74
     0
 49
-0.125
 74
     0
 49
0.125
 74
     0
 49
-0.125
 74
     0
 49
0.125
 74
     0
 49
-0.125
 74
     0
  0
LTYPE
  5
A2
330
5
100
AcDbSymbolTableRecord
100
AcDbLinetypeTableRecord
  2
PHANTOMX2
 70
     0
  3
Phantom (2x) ____________    ____    ____   _
 72
    65
 73
     6
 40
5.0
 49
2.5
 74
     0
 49
-0.5
 74
     0
 49
0.5
 74
     0
 49
-0.5
 74
     0
 49
0.5
 74
     0
 49
-0.5
 74
     0
  0
LTYPE
  5
A3
330
5
100
AcDbSymbolTableRecord
100
AcDbLinetypeTableRecord
  2
ACAD_ISO02W100
 70
     0
  3
ISO dash __ __ __ __ __ __ __ __ __ __ __ __ __
 72
    65
 73
     2
 40
0.59
 49
0.47
 74
     0
 49
-0.12
 74
     0
  0
LTYPE
  5
A4
330
5
100
AcDbSymbolTableRecord
100
AcDbLinetypeTableRecord
  2
ACAD_ISO03W100
 70
     0
  3
ISO dash space __    __    __    __    __    __
 72
    65
 73
     2
 40
1.179999999999999
 49
0.47
 74
     0
 49
-0.71
 74
     0
  0
LTYPE
  5
A5
330
5
100
AcDbSymbolTableRecord
100
AcDbLinetypeTableRecord
  2
ACAD_ISO04W100
 70
     0
  3
ISO long-dash dot ____ . ____ . ____ . ____ . _
 72
    65
 73
     4
 40
1.179999999999999
 49
0.9399999999999998
 74
     0
 49
-0.12
 74
     0
 49
0.0
 74
     0
 49
-0.12
 74
     0
  0
LTYPE
  5
A6
330
5
100
AcDbSymbolTableRecord
100
AcDbLinetypeTableRecord
  2
ACAD_ISO05W100
 70
     0
  3
ISO long-dash double-dot ____ .. ____ .. ____ .
 72
    65
 73
     6
 40
1.299999999999999
 49
0.9399999999999998
 74
     0
 49
-0.12
 74
     0
 49
0.0
 74
     0
 49
-0.12
 74
     0
 49
0.0
 74
     0
 49
-0.12
 74
     0
  0
LTYPE
  5
A7
330
5
100
AcDbSymbolTableRecord
100
AcDbLinetypeTableRecord
  2
ACAD_ISO06W100
 70
     0
  3
ISO long-dash triple-dot ____ ... ____ ... ____
 72
    65
 73
     8
 40
1.419999999999999
 49
0.9399999999999998
 74
     0
 49
-0.12
 74
     0
 49
0.0
 74
     0
 49
-0.12
 74
     0
 49
0.0
 74
     0
 49
-0.12
 74
     0
 49
0.0
 74
     0
 49
-0.12
 74
     0
  0
LTYPE
  5
A8
330
5
100
AcDbSymbolTableRecord
100
AcDbLinetypeTableRecord
  2
ACAD_ISO07W100
 70
     0
  3
ISO dot . . . . . . . . . . . . . . . . . . . .
 72
    65
 73
     2
 40
0.12
 49
0.0
 74
     0
 49
-0.12
 74
     0
  0
LTYPE
  5
A9
330
5
100
AcDbSymbolTableRecord
100
AcDbLinetypeTableRecord
  2
ACAD_ISO08W100
 70
     0
  3
ISO long-dash short-dash ____ __ ____ __ ____ _
 72
    65
 73
     4
 40
0.95
 49
0.47
 74
     0
 49
-0.12
 74
     0
 49
0.24
 74
     0
 49
-0.12
 74
     0
  0
LTYPE
  5
AA
330
5
100
AcDbSymbolTableRecord
100
AcDbLinetypeTableRecord
  2
ACAD_ISO09W100
 70
     0
  3
ISO long-dash double-short-dash ____ __ __ ____
 72
    65
 73
     6
 40
1.31
 49
0.47
 74
     0
 49
-0.12
 74
     0
 49
0.24
 74
     0
 49
-0.12
 74
     0
 49
0.24
 74
     0
 49
-0.12
 74
     0
  0
LTYPE
  5
AB
330
5
100
AcDbSymbolTableRecord
100
AcDbLinetypeTableRecord
  2
ACAD_ISO10W100
 70
     0
  3
ISO dash dot __ . __ . __ . __ . __ . __ . __ .
 72
    65
 73
     4
 40
0.71
 49
0.47
 74
     0
 49
-0.12
 74
     0
 49
0.0
 74
     0
 49
-0.12
 74
     0
  0
LTYPE
  5
AC
330
5
100
AcDbSymbolTableRecord
100
AcDbLinetypeTableRecord
  2
ACAD_ISO11W100
 70
     0
  3
ISO double-dash dot __ __ . __ __ . __ __ . __ 
 72
    65
 73
     6
 40
1.299999999999999
 49
0.47
 74
     0
 49
-0.12
 74
     0
 49
0.47
 74
     0
 49
-0.12
 74
     0
 49
0.0
 74
     0
 49
-0.12
 74
     0
  0
LTYPE
  5
AD
330
5
100
AcDbSymbolTableRecord
100
AcDbLinetypeTableRecord
  2
ACAD_ISO12W100
 70
     0
  3
ISO dash double-dot __ . . __ . . __ . . __ . .
 72
    65
 73
     6
 40
0.8299999999999998
 49
0.47
 74
     0
 49
-0.12
 74
     0
 49
0.0
 74
     0
 49
-0.12
 74
     0
 49
0.0
 74
     0
 49
-0.12
 74
     0
  0
LTYPE
  5
AE
330
5
100
AcDbSymbolTableRecord
100
AcDbLinetypeTableRecord
  2
ACAD_ISO13W100
 70
     0
  3
ISO double-dash double-dot __ __ . . __ __ . . 
 72
    65
 73
     8
 40
1.419999999999999
 49
0.47
 74
     0
 49
-0.12
 74
     0
 49
0.47
 74
     0
 49
-0.12
 74
     0
 49
0.0
 74
     0
 49
-0.12
 74
     0
 49
0.0
 74
     0
 49
-0.12
 74
     0
  0
LTYPE
  5
AF
330
5
100
AcDbSymbolTableRecord
100
AcDbLinetypeTableRecord
  2
ACAD_ISO14W100
 70
     0
  3
ISO dash triple-dot __ . . . __ . . . __ . . . 
 72
    65
 73
     8
 40
0.95
 49
0.47
 74
     0
 49
-0.12
 74
     0
 49
0.0
 74
     0
 49
-0.12
 74
     0
 49
0.0
 74
     0
 49
-0.12
 74
     0
 49
0.0
 74
     0
 49
-0.12
 74
     0
  0
LTYPE
  5
B0
330
5
100
AcDbSymbolTableRecord
100
AcDbLinetypeTableRecord
  2
ACAD_ISO15W100
 70
     0
  3
ISO double-dash triple-dot __ __ . . . __ __ . 
 72
    65
 73
    10
 40
1.539999999999999
 49
0.47
 74
     0
 49
-0.12
 74
     0
 49
0.47
 74
     0
 49
-0.12
 74
     0
 49
0.0
 74
     0
 49
-0.12
 74
     0
 49
0.0
 74
     0
 49
-0.12
 74
     0
 49
0.0
 74
     0
 49
-0.12
 74
     0
  0
LTYPE
  5
B3
330
5
100
AcDbSymbolTableRecord
100
AcDbLinetypeTableRecord
  2
FENCELINE1
 70
     0
  3
Fenceline circle ----0-----0----0-----0----0---
 72
    65
 73
     4
 40
1.45
 49
0.25
 74
     0
 49
-0.1
 74
     4
 75
   133
340
B2
 46
0.1
 50
0.0
 44
-0.1
 45
0.0
 49
-0.1
 74
     0
 49
1.0
 74
     0
  0
LTYPE
  5
B4
330
5
100
AcDbSymbolTableRecord
100
AcDbLinetypeTableRecord
  2
FENCELINE2
 70
     0
  3
Fenceline square ----[]-----[]----[]-----[]----
 72
    65
 73
     4
 40
1.45
 49
0.25
 74
     0
 49
-0.1
 74
     4
 75
   132
340
B2
 46
0.1
 50
0.0
 44
-0.1
 45
0.0
 49
-0.1
 74
     0
 49
1.0
 74
     0
  0
LTYPE
  5
B5
330
5
100
AcDbSymbolTableRecord
100
AcDbLinetypeTableRecord
  2
TRACKS
 70
     0
  3
Tracks -|-|-|-|-|-|-|-|-|-|-|-|-|-|-|-|-|-|-|-|
 72
    65
 73
     2
 40
0.3
 49
0.15
 74
     4
 75
   130
340
B2
 46
0.25
 50
0.0
 44
0.0
 45
0.0
 49
0.15
 74
     0
  0
LTYPE
  5
B6
330
5
100
AcDbSymbolTableRecord
100
AcDbLinetypeTableRecord
  2
BATTING
 70
     0
  3
Batting SSSSSSSSSSSSSSSSSSSSSSSSSSSSSSSSSSSSSSS
 72
    65
 73
     4
 40
0.4001000000000001
 49
0.0001
 74
     0
 49
-0.1
 74
     4
 75
   134
340
B2
 46
0.1
 50
0.0
 44
-0.1
 45
0.0
 49
-0.2
 74
     4
 75
   134
340
B2
 46
0.1
 50
180.0
 44
0.1
 45
0.0
 49
-0.1
 74
     0
  0
LTYPE
  5
B7
330
5
100
AcDbSymbolTableRecord
100
AcDbLinetypeTableRecord
  2
HOT_WATER_SUPPLY
 70
     0
  3
Hot water supply ---- HW ---- HW ---- HW ----
 72
    65
 73
     3
 40
0.9
 49
0.5
 74
     0
 49
-0.2
 74
     2
 75
     0
340
55
 46
0.1
 50
0.0
 44
-0.1
 45
-0.05
  9
HW
 49
-0.2
 74
     0
  0
LTYPE
  5
B8
330
5
100
AcDbSymbolTableRecord
100
AcDbLinetypeTableRecord
  2
GAS_LINE
 70
     0
  3
Gas line ----GAS----GAS----GAS----GAS----GAS---
 72
    65
 73
     3
 40
0.95
 49
0.5
 74
     0
 49
-0.2
 74
     2
 75
     0
340
55
 46
0.1
 50
0.0
 44
-0.1
 45
-0.05
  9
GAS
 49
-0.25
 74
     0
  0
LTYPE
  5
B9
330
5
100
AcDbSymbolTableRecord
100
AcDbLinetypeTableRecord
  2
ZIGZAG
 70
     0
  3
Zig zag /\/\/\/\/\/\/\/\/\/\/\/\/\/\/\/\/\/\/\/
 72
    65
 73
     4
 40
0.8001000000000001
 49
0.0001
 74
     0
 49
-0.2
 74
     4
 75
   131
340
B2
 46
0.2
 50
0.0
 44
-0.2
 45
0.0
 49
-0.4
 74
     4
 75
   131
340
B2
 46
0.2
 50
180.0
 44
0.2
 45
0.0
 49
-0.2
 74
     0
  0
ENDTAB
  0
TABLE
  2
LAYER
  5
2
330
0
100
AcDbSymbolTable
 70
    27
  0
LAYER
  5
54
330
2
100
AcDbSymbolTableRecord
100
AcDbLayerTableRecord
  2
0
 70
     0
 62
     7
  6
Continuous
370
     0
390
F
347
21
  0
LAYER
  5
C0
330
2
100
AcDbSymbolTableRecord
100
AcDbLayerTableRecord
  2
Center Mark (ANSI)
 70
     0
 62
     7
  6
Continuous
370
     5
390
F
347
21
  0
LAYER
  5
C1
330
2
100
AcDbSymbolTableRecord
100
AcDbLayerTableRecord
  2
Centerline (ANSI)
 70
     0
 62
     7
  6
Continuous
370
     5
390
F
347
21
  0
LAYER
  5
C3
330
2
100
AcDbSymbolTableRecord
100
AcDbLayerTableRecord
  2
Dimension (ANSI)
 70
     0
 62
     7
  6
Continuous
370
     5
390
F
347
21
  0
LAYER
  5
CC
330
2
100
AcDbSymbolTableRecord
100
AcDbLayerTableRecord
  2
Symbol (ANSI)
 70
     0
 62
     7
  6
Continuous
370
     5
390
F
347
21
  0
LAYER
  5
CF
330
2
100
AcDbSymbolTableRecord
100
AcDbLayerTableRecord
  2
Visible (ANSI)
 70
     0
 62
     7
  6
Continuous
370
     5
390
F
347
21
  0
LAYER
  5
D0
330
2
100
AcDbSymbolTableRecord
100
AcDbLayerTableRecord
  2
Visible Narrow (ANSI)
 70
     0
 62
     7
  6
Continuous
370
     5
390
F
347
21
  0
LAYER
  5
128
330
2
100
AcDbSymbolTableRecord
100
AcDbLayerTableRecord
  2
Defpoints
 70
     0
 62
     7
  6
Continuous
290
     0
370
    -3
390
F
347
21
  0
ENDTAB
  0
TABLE
  2
STYLE
  5
3
330
0
100
AcDbSymbolTable
 70
    10
  0
STYLE
  5
55
330
3
100
AcDbSymbolTableRecord
100
AcDbTextStyleTableRecord
  2
Standard
 70
     0
 40
0.0
 41
1.0
 50
0.0
 71
     0
 42
0.2
  3
txt
  4

  0
STYLE
  5
5A
330
3
100
AcDbSymbolTableRecord
100
AcDbTextStyleTableRecord
  2
Annotative
 70
     0
 40
0.0
 41
1.0
 50
0.0
 71
     0
 42
0.2
  3
txt
  4

1001
AcadAnnotative
1000
AnnotativeData
1002
{
1070
     1
1070
     1
1002
}
  0
STYLE
  5
B2
330
3
100
AcDbSymbolTableRecord
100
AcDbTextStyleTableRecord
  2

 70
     1
 40
0.0
 41
1.0
 50
0.0
 71
     0
 42
0.2
  3
ltypeshp.shx
  4

  0
STYLE
  5
D4
330
3
100
AcDbSymbolTableRecord
100
AcDbTextStyleTableRecord
  2
ITALICC_120
 70
     0
 40
0.0
 41
1.0
 50
0.0
 71
     0
 42
0.2
  3
italicc.shx
  4

  0
STYLE
  5
D5
330
3
100
AcDbSymbolTableRecord
100
AcDbTextStyleTableRecord
  2
Label Text (ANSI)
 70
     0
 40
0.0
 41
1.0
 50
0.0
 71
     0
 42
0.2
  3
tahoma.ttf
  4

1001
ACAD
1000
Tahoma
1071
      256
  0
STYLE
  5
D6
330
3
100
AcDbSymbolTableRecord
100
AcDbTextStyleTableRecord
  2
Note Text (ANSI)
 70
     0
 40
0.0
 41
1.0
 50
0.0
 71
     0
 42
0.2
  3
RomanS.shx
  4

  0
STYLE
  5
D7
330
3
100
AcDbSymbolTableRecord
100
AcDbTextStyleTableRecord
  2
ROMANS
 70
     0
 40
0.0
 41
1.0
 50
0.0
 71
     0
 42
0.2
  3
romans.shx
  4

  0
STYLE
  5
D8
330
3
100
AcDbSymbolTableRecord
100
AcDbTextStyleTableRecord
  2
SANSSERIF_114
 70
     0
 40
0.0
 41
1.0
 50
0.0
 71
     0
 42
0.2
  3
tahoma.ttf
  4

1001
ACAD
1000
Tahoma
1071
      256
  0
STYLE
  5
D9
330
3
100
AcDbSymbolTableRecord
100
AcDbTextStyleTableRecord
  2
SANSSERIF_117
 70
     0
 40
0.0
 41
1.0
 50
0.0
 71
     0
 42
0.2
  3
tahoma.ttf
  4

1001
ACAD
1000
Tahoma
1071
      256
  0
STYLE
  5
122
330
3
100
AcDbSymbolTableRecord
100
AcDbTextStyleTableRecord
  2
Text Style168
 70
     0
 40
0.0
 41
1.0
 50
0.0
 71
     0
 42
0.2
  3
tahoma.ttf
  4

1001
ACAD
1000
Tahoma
1071
      256
  0
ENDTAB
  0
TABLE
  2
VIEW
  5
6
330
0
100
AcDbSymbolTable
 70
     0
  0
ENDTAB
  0
TABLE
  2
UCS
  5
7
330
0
100
AcDbSymbolTable
 70
     0
  0
ENDTAB
  0
TABLE
  2
APPID
  5
9
330
0
100
AcDbSymbolTable
 70
     4
  0
APPID
  5
56
330
9
100
AcDbSymbolTableRecord
100
AcDbRegAppTableRecord
  2
ACAD
 70
     0
  0
APPID
  5
5E
330
9
100
AcDbSymbolTableRecord
100
AcDbRegAppTableRecord
  2
AcadAnnotative
 70
     0
  0
APPID
  5
2A5
330
9
100
AcDbSymbolTableRecord
100
AcDbRegAppTableRecord
  2
ACAD_DSTYLE_DIMANGULAR_EXTENSION
 70
     0
  0
APPID
  5
EAA
330
9
100
AcDbSymbolTableRecord
100
AcDbRegAppTableRecord
  2
ACAD_DSTYLE_DIMRADIAL_EXTENSION
 70
     0
  0
ENDTAB
  0
TABLE
  2
DIMSTYLE
  5
A
330
0
100
AcDbSymbolTable
 70
    15
100
AcDbDimStyleTable
 71
     2
340
E2
340
58
  0
DIMSTYLE
105
58
330
A
100
AcDbSymbolTableRecord
100
AcDbDimStyleTableRecord
  2
Standard
 70
     0
340
55
  0
DIMSTYLE
105
59
330
A
100
AcDbSymbolTableRecord
100
AcDbDimStyleTableRecord
  2
Annotative
 70
     0
340
55
1001
AcadAnnotative
1000
AnnotativeData
1002
{
1070
     1
1070
     1
1002
}
  0
DIMSTYLE
105
DA
330
A
100
AcDbSymbolTableRecord
100
AcDbDimStyleTableRecord
  2
Architectural (ANSI)
 70
     0
 40
2.666666666666666
 41
0.0984251946210861
 43
0.2362204724409449
 44
0.125
 45
0.00000001
 46
0.3937007874015748
 78
     3
 79
     3
140
0.1000000014901161
146
1.200000047683715
147
0.031496062992126
171
     1
176
   256
177
   256
178
   256
272
     2
274
     1
276
     2
277
     4
284
    12
285
     4
286
    12
340
D6
371
    -1
372
    -1
  0
DIMSTYLE
105
DB
330
A
100
AcDbSymbolTableRecord
100
AcDbDimStyleTableRecord
  2
Architectural (ANSI)$7
 70
     0
 40
2.666666666666666
 41
0.0984251946210861
 43
0.2362204724409449
 44
0.125
 45
0.00000001
 46
0.3937007874015748
 78
     3
 79
     3
140
0.1000000014901161
146
1.200000047683715
147
0.031496062992126
171
     1
176
   256
177
   256
178
   256
272
     2
274
     1
276
     2
277
     4
284
    12
285
     4
286
    12
340
D6
371
    -1
372
    -1
  0
DIMSTYLE
105
DC
330
A
100
AcDbSymbolTableRecord
100
AcDbDimStyleTableRecord
  2
Default - Fraction (ANSI)
 70
     0
 40
2.666666666666666
 41
0.0984251946210861
 43
0.2362204724409449
 44
0.125
 45
0.00000001
 46
0.3937007874015748
 79
     3
140
0.1000000014901161
146
1.200000047683715
147
0.031496062992126
171
     1
176
   256
177
   256
178
   256
272
     2
274
     1
276
     2
277
     5
284
    12
285
     4
286
    12
340
D6
371
    -1
372
    -1
  0
DIMSTYLE
105
DD
330
A
100
AcDbSymbolTableRecord
100
AcDbDimStyleTableRecord
  2
Default - Fraction (ANSI)$7
 70
     0
 40
2.666666666666666
 41
0.0984251946210861
 43
0.2362204724409449
 44
0.125
 45
0.00000001
 46
0.3937007874015748
 79
     3
140
0.1000000014901161
146
1.200000047683715
147
0.031496062992126
171
     1
176
   256
177
   256
178
   256
272
     2
274
     1
276
     2
277
     5
284
    12
285
     4
286
    12
340
D6
371
    -1
372
    -1
  0
DIMSTYLE
105
DE
330
A
100
AcDbSymbolTableRecord
100
AcDbDimStyleTableRecord
  2
Default - mm (ANSI)
 70
     0
 40
2.666666666666666
 41
0.0984251946210861
 42
0.063
 43
0.2362204724409449
 44
0.125
 45
0.00000001
 46
0.3937007874015748
 73
     0
 78
     4
 79
     1
140
0.1000000014901161
143
1.0
144
25.4
146
1.200000047683715
147
0.031496062992126
171
     1
176
   256
177
   256
178
   256
179
     1
271
     2
272
     2
274
     1
284
     4
285
     4
340
D6
371
    -1
372
    -1
  0
DIMSTYLE
105
DF
330
A
100
AcDbSymbolTableRecord
100
AcDbDimStyleTableRecord
  2
Default - mm (ANSI)$7
 70
     0
 40
2.666666666666666
 41
0.0984251946210861
 42
0.063
 43
0.2362204724409449
 44
0.125
 45
0.00000001
 46
0.3937007874015748
 73
     0
 78
     4
 79
     1
140
0.1000000014901161
143
1.0
144
25.4
146
1.200000047683715
147
0.031496062992126
171
     1
176
   256
177
   256
178
   256
179
     1
271
     2
272
     2
274
     1
284
     4
285
     4
340
D6
371
    -1
372
    -1
  0
DIMSTYLE
105
E0
330
A
100
AcDbSymbolTableRecord
100
AcDbDimStyleTableRecord
  2
Default - mm [in] (ANSI)
 70
     0
  4
 in
 40
2.666666666666666
 41
0.0984251946210861
 42
0.063
 43
0.25
 44
0.125
 45
0.00000001
 46
0.3937007874015748
 73
     0
 78
     4
 79
     1
140
0.1000000014901161
143
0.03937
144
25.4
146
1.200000047683715
147
0.031496062992126
170
     1
171
     3
176
   256
177
   256
178
   256
179
     1
271
     2
272
     2
274
     3
284
     4
285
     4
286
     4
340
D6
371
    -1
372
    -1
  0
DIMSTYLE
105
E1
330
A
100
AcDbSymbolTableRecord
100
AcDbDimStyleTableRecord
  2
Default - mm [in] (ANSI)$7
 70
     0
  4
 in
 40
2.666666666666666
 41
0.0984251946210861
 42
0.063
 43
0.25
 44
0.125
 45
0.00000001
 46
0.3937007874015748
 73
     0
 78
     4
 79
     1
140
0.1000000014901161
143
0.03937
144
25.4
146
1.200000047683715
147
0.031496062992126
170
     1
171
     3
176
   256
177
   256
178
   256
179
     1
271
     2
272
     2
274
     3
284
     4
285
     4
286
     4
340
D6
371
    -1
372
    -1
  0
DIMSTYLE
105
E2
102
{ACAD_REACTORS
330
126
330
227
330
348
330
450
330
52F
330
60E
330
779
330
877
330
9F8
330
B19
330
C0D
330
D15
330
E09
330
ECB
330
F76
330
106F
330
117E
330
1277
330
136E
330
144D
330
1611
330
171C
102
}
330
A
100
AcDbSymbolTableRecord
100
AcDbDimStyleTableRecord
  2
Default (ANSI)
 70
     0
 40
2.666666666666666
 41
0.0984251946210861
 43
0.2362204724409449
 44
0.125
 45
0.00000001
 46
0.3937007874015748
140
0.1000000014901161
147
0.031496062992126
176
   256
177
   256
178
   256
271
     2
272
     2
340
D7
371
    -1
372
    -1
  0
DIMSTYLE
105
E3
330
A
100
AcDbSymbolTableRecord
100
AcDbDimStyleTableRecord
  2
Default (ANSI)$7
 70
     0
 40
2.666666666666666
 41
0.0984251946210861
 43
0.2362204724409449
 44
0.125
 45
0.00000001
 46
0.3937007874015748
140
0.1000000014901161
147
0.031496062992126
176
   256
177
   256
178
   256
271
     2
272
     2
340
D7
371
    -1
372
    -1
  0
DIMSTYLE
105
E4
330
A
100
AcDbSymbolTableRecord
100
AcDbDimStyleTableRecord
  2
Alternate (ANSI)
 70
     0
 40
2.666666666666666
 41
0.0979999974370003
340
55
342
E5
  0
DIMSTYLE
105
F7
330
A
100
AcDbSymbolTableRecord
100
AcDbDimStyleTableRecord
  2
Datum (ANSI)
 70
     0
 40
2.666666666666666
 41
0.0979999974370003
340
55
342
E5
  0
DIMSTYLE
105
106
330
A
100
AcDbSymbolTableRecord
100
AcDbDimStyleTableRecord
  2
Large (ANSI)
 70
     0
 40
2.666666666666666
 41
0.1959999948740005
340
55
342
E5
  0
ENDTAB
  0
TABLE
  2
BLOCK_RECORD
  5
1
330
0
100
AcDbSymbolTable
 70
    26
  0
BLOCK_RECORD
  5
6C
330
1
100
AcDbSymbolTableRecord
100
AcDbBlockTableRecord
  2
*Model_Space
340
6F
 70
     0
280
     1
281
     0
  0
BLOCK_RECORD
  5
68
330
1
100
AcDbSymbolTableRecord
100
AcDbBlockTableRecord
  2
*Paper_Space
340
6B
 70
     0
280
     1
281
     0
  0
BLOCK_RECORD
  5
70
330
1
100
AcDbSymbolTableRecord
100
AcDbBlockTableRecord
  2
*Paper_Space0
340
73
 70
     0
280
     1
281
     0
  0
BLOCK_RECORD
  5
E5
330
1
100
AcDbSymbolTableRecord
100
AcDbBlockTableRecord
  2
_Closed
340
0
 70
     0
280
     1
281
     0
  0
BLOCK_RECORD
  5
EC
330
1
100
AcDbSymbolTableRecord
100
AcDbBlockTableRecord
  2
DatumFilled45
340
0
 70
     0
280
     1
281
     0
  0
BLOCK_RECORD
  5
F8
330
1
100
AcDbSymbolTableRecord
100
AcDbBlockTableRecord
  2
Filled-1
340
0
 70
     0
280
     1
281
     0
  0
BLOCK_RECORD
  5
129
330
1
100
AcDbSymbolTableRecord
100
AcDbBlockTableRecord
  2
*D4
340
0
 70
     0
280
     1
281
     0
  0
BLOCK_RECORD
  5
228
330
1
100
AcDbSymbolTableRecord
100
AcDbBlockTableRecord
  2
*D5
340
0
 70
     0
280
     1
281
     0
  0
BLOCK_RECORD
  5
349
330
1
100
AcDbSymbolTableRecord
100
AcDbBlockTableRecord
  2
*D6
340
0
 70
     0
280
     1
281
     0
  0
BLOCK_RECORD
  5
451
330
1
100
AcDbSymbolTableRecord
100
AcDbBlockTableRecord
  2
*D7
340
0
 70
     0
280
     1
281
     0
  0
BLOCK_RECORD
  5
530
330
1
100
AcDbSymbolTableRecord
100
AcDbBlockTableRecord
  2
*D8
340
0
 70
     0
280
     1
281
     0
  0
BLOCK_RECORD
  5
60F
330
1
100
AcDbSymbolTableRecord
100
AcDbBlockTableRecord
  2
*D9
340
0
 70
     0
280
     1
281
     0
  0
BLOCK_RECORD
  5
77A
330
1
100
AcDbSymbolTableRecord
100
AcDbBlockTableRecord
  2
*D10
340
0
 70
     0
280
     1
281
     0
  0
BLOCK_RECORD
  5
878
330
1
100
AcDbSymbolTableRecord
100
AcDbBlockTableRecord
  2
*D11
340
0
 70
     0
280
     1
281
     0
  0
BLOCK_RECORD
  5
9F9
330
1
100
AcDbSymbolTableRecord
100
AcDbBlockTableRecord
  2
*D12
340
0
 70
     0
280
     1
281
     0
  0
BLOCK_RECORD
  5
B1A
330
1
100
AcDbSymbolTableRecord
100
AcDbBlockTableRecord
  2
*D13
340
0
 70
     0
280
     1
281
     0
  0
BLOCK_RECORD
  5
C0E
330
1
100
AcDbSymbolTableRecord
100
AcDbBlockTableRecord
  2
*D14
340
0
 70
     0
280
     1
281
     0
  0
BLOCK_RECORD
  5
D16
330
1
100
AcDbSymbolTableRecord
100
AcDbBlockTableRecord
  2
*D15
340
0
 70
     0
280
     1
281
     0
  0
BLOCK_RECORD
  5
E0A
330
1
100
AcDbSymbolTableRecord
100
AcDbBlockTableRecord
  2
*D16
340
0
 70
     0
280
     1
281
     0
  0
BLOCK_RECORD
  5
ECC
330
1
100
AcDbSymbolTableRecord
100
AcDbBlockTableRecord
  2
*D17
340
0
 70
     0
280
     1
281
     0
  0
BLOCK_RECORD
  5
F77
330
1
100
AcDbSymbolTableRecord
100
AcDbBlockTableRecord
  2
*D18
340
0
 70
     0
280
     1
281
     0
  0
BLOCK_RECORD
  5
1070
330
1
100
AcDbSymbolTableRecord
100
AcDbBlockTableRecord
  2
*D19
340
0
 70
     0
280
     1
281
     0
  0
BLOCK_RECORD
  5
117F
330
1
100
AcDbSymbolTableRecord
100
AcDbBlockTableRecord
  2
*D20
340
0
 70
     0
280
     1
281
     0
  0
BLOCK_RECORD
  5
1278
330
1
100
AcDbSymbolTableRecord
100
AcDbBlockTableRecord
  2
*D21
340
0
 70
     0
280
     1
281
     0
  0
BLOCK_RECORD
  5
136F
330
1
100
AcDbSymbolTableRecord
100
AcDbBlockTableRecord
  2
*D22
340
0
 70
     0
280
     1
281
     0
  0
BLOCK_RECORD
  5
144E
330
1
100
AcDbSymbolTableRecord
100
AcDbBlockTableRecord
  2
*D23
340
0
 70
     0
280
     1
281
     0
  0
BLOCK_RECORD
  5
1612
330
1
100
AcDbSymbolTableRecord
100
AcDbBlockTableRecord
  2
*D24
340
0
 70
     0
280
     1
281
     0
  0
BLOCK_RECORD
  5
171D
330
1
100
AcDbSymbolTableRecord
100
AcDbBlockTableRecord
  2
*D25
340
0
 70
     0
280
     1
281
     0
  0
ENDTAB
  0
ENDSEC
  0
SECTION
  2
BLOCKS
  0
BLOCK
  5
6D
330
6C
100
AcDbEntity
  8
0
100
AcDbBlockBegin
  2
*Model_Space
 70
     0
 10
0.0
 20
0.0
 30
0.0
  3
*Model_Space
  1

  0
ENDBLK
  5
6E
330
6C
100
AcDbEntity
  8
0
100
AcDbBlockEnd
  0
BLOCK
  5
69
330
68
100
AcDbEntity
 67
     1
  8
0
100
AcDbBlockBegin
  2
*Paper_Space
 70
     0
 10
0.0
 20
0.0
 30
0.0
  3
*Paper_Space
  1

  0
ENDBLK
  5
6A
330
68
100
AcDbEntity
 67
     1
  8
0
100
AcDbBlockEnd
  0
BLOCK
  5
71
330
70
100
AcDbEntity
 67
     1
  8
0
100
AcDbBlockBegin
  2
*Paper_Space0
 70
     0
 10
0.0
 20
0.0
 30
0.0
  3
*Paper_Space0
  1

  0
ENDBLK
  5
72
330
70
100
AcDbEntity
 67
     1
  8
0
100
AcDbBlockEnd
  0
BLOCK
  5
EA
330
E5
100
AcDbEntity
  8
0
100
AcDbBlockBegin
  2
_Closed
 70
     0
 10
0.0
 20
0.0
 30
0.0
  3
_Closed
  1

  0
LINE
  5
E6
330
E5
100
AcDbEntity
  8
0
  6
ByBlock
 62
     0
370
    -2
100
AcDbLine
 10
-1.0
 20
0.1666666666666666
 30
0.0
 11
0.0
 21
0.0
 31
0.0
  0
LINE
  5
E7
330
E5
100
AcDbEntity
  8
0
  6
ByBlock
 62
     0
370
    -2
100
AcDbLine
 10
0.0
 20
0.0
 30
0.0
 11
-1.0
 21
-0.1666666666666666
 31
0.0
  0
LINE
  5
E8
330
E5
100
AcDbEntity
  8
0
  6
ByBlock
 62
     0
370
    -2
100
AcDbLine
 10
-1.0
 20
0.1666666666666666
 30
0.0
 11
-1.0
 21
-0.1666666666666666
 31
0.0
  0
LINE
  5
E9
330
E5
100
AcDbEntity
  8
0
  6
ByBlock
 62
     0
370
    -2
100
AcDbLine
 10
0.0
 20
0.0
 30
0.0
 11
-1.0
 21
0.0
 31
0.0
  0
ENDBLK
  5
EB
330
E5
100
AcDbEntity
  8
0
100
AcDbBlockEnd
  0
BLOCK
  5
ED
330
EC
100
AcDbEntity
  8
0
100
AcDbBlockBegin
  2
DatumFilled45
 70
     0
 10
0.0
 20
0.0
 30
0.0
  3
DatumFilled45
  1

  0
POLYLINE
  5
EF
330
EC
100
AcDbEntity
  8
0
 62
     0
100
AcDb2dPolyline
 66
     1
 10
0.0
 20
0.0
 30
0.0
 70
   128
  0
VERTEX
  5
F0
330
EF
100
AcDbEntity
  8
0
 62
     0
100
AcDbVertex
100
AcDb2dVertex
 10
0.0
 20
0.9999999999999998
 30
0.0
  0
VERTEX
  5
F1
330
EF
100
AcDbEntity
  8
0
 62
     0
100
AcDbVertex
100
AcDb2dVertex
 10
0.0
 20
-0.9999999999999998
 30
0.0
  0
VERTEX
  5
F3
330
EF
100
AcDbEntity
  8
0
 62
     0
100
AcDbVertex
100
AcDb2dVertex
 10
-0.9999999999999998
 20
0.0
 30
0.0
  0
VERTEX
  5
F4
330
EF
100
AcDbEntity
  8
0
 62
     0
100
AcDbVertex
100
AcDb2dVertex
 10
0.0
 20
0.9999999999999998
 30
0.0
  0
SEQEND
  5
F2
330
EF
100
AcDbEntity
  8
0
 62
     0
  0
SOLID
  5
F6
330
EC
100
AcDbEntity
  8
0
 62
     0
100
AcDbTrace
 10
0.0
 20
0.9999999999999998
 30
0.0
 11
0.0
 21
-0.9999999999999998
 31
0.0
 12
-0.9999999999999998
 22
0.0
 32
0.0
 13
0.0
 23
0.9999999999999998
 33
0.0
  0
ENDBLK
  5
EE
330
EC
100
AcDbEntity
  8
0
100
AcDbBlockEnd
  0
BLOCK
  5
F9
330
F8
100
AcDbEntity
  8
0
100
AcDbBlockBegin
  2
Filled-1
 70
     0
 10
0.0
 20
0.0
 30
0.0
  3
Filled-1
  1

  0
LINE
  5
FB
330
F8
100
AcDbEntity
  8
0
 62
     0
100
AcDbLine
 10
-0.9999999999999998
 20
0.0
 30
0.0
 11
0.0
 21
0.0
 31
0.0
  0
POLYLINE
  5
FC
330
F8
100
AcDbEntity
  8
0
 62
     0
100
AcDb2dPolyline
 66
     1
 10
0.0
 20
0.0
 30
0.0
 70
   128
  0
VERTEX
  5
FD
330
FC
100
AcDbEntity
  8
0
 62
     0
100
AcDbVertex
100
AcDb2dVertex
 10
-0.9999999999999998
 20
-0.0994897959183674
 30
0.0
  0
VERTEX
  5
FE
330
FC
100
AcDbEntity
  8
0
 62
     0
100
AcDbVertex
100
AcDb2dVertex
 10
0.0
 20
0.0
 30
0.0
  0
VERTEX
  5
100
330
FC
100
AcDbEntity
  8
0
 62
     0
100
AcDbVertex
100
AcDb2dVertex
 10
-0.9999999999999998
 20
0.0994897959183674
 30
0.0
  0
VERTEX
  5
101
330
FC
100
AcDbEntity
  8
0
 62
     0
100
AcDbVertex
100
AcDb2dVertex
 10
-0.9999999999999998
 20
-0.0994897959183674
 30
0.0
  0
SEQEND
  5
FF
330
FC
100
AcDbEntity
  8
0
 62
     0
  0
SOLID
  5
102
330
F8
100
AcDbEntity
  8
0
 62
     0
100
AcDbTrace
 10
-0.9999999999999998
 20
-0.0994897959183674
 30
0.0
 11
0.0
 21
0.0
 31
0.0
 12
-0.9999999999999998
 22
0.0994897959183674
 32
0.0
 13
-0.9999999999999998
 23
-0.0994897959183674
 33
0.0
  0
LINE
  5
103
330
F8
100
AcDbEntity
  8
0
 62
     0
100
AcDbLine
 10
-0.9999999999999998
 20
-0.0994897959183674
 30
0.0
 11
0.0
 21
0.0
 31
0.0
  0
LINE
  5
104
330
F8
100
AcDbEntity
  8
0
 62
     0
100
AcDbLine
 10
0.0
 20
0.0
 30
0.0
 11
-0.9999999999999998
 21
0.0994897959183674
 31
0.0
  0
LINE
  5
105
330
F8
100
AcDbEntity
  8
0
 62
     0
100
AcDbLine
 10
-0.9999999999999998
 20
0.0994897959183674
 30
0.0
 11
-0.9999999999999998
 21
-0.0994897959183674
 31
0.0
  0
ENDBLK
  5
FA
330
F8
100
AcDbEntity
  8
0
100
AcDbBlockEnd
  0
BLOCK
  5
12A
330
129
100
AcDbEntity
  8
0
100
AcDbBlockBegin
  2
*D4
 70
     1
 10
0.0
 20
0.0
 30
0.0
  3
*D4
  1

  0
LINE
  5
21D
330
129
100
AcDbEntity
  8
Dimension (ANSI)
440
 16777216
100
AcDbLine
 10
25.11949048881115
 20
19.60689242541496
 30
0.0
 11
26.23159830905173
 21
19.60689242541496
 31
0.0
  0
LINE
  5
21E
330
129
100
AcDbEntity
  8
Dimension (ANSI)
440
 16777216
100
AcDbLine
 10
24.35799048881113
 20
22.85689242541499
 30
0.0
 11
26.23159830905173
 21
22.85689242541499
 31
0.0
  0
LINE
  5
21F
330
129
100
AcDbEntity
  8
Dimension (ANSI)
440
 16777216
100
AcDbLine
 10
25.8982649757184
 20
19.86935961107119
 30
0.0
 11
25.8982649757184
 21
20.84116217303946
 31
0.0
  0
LINE
  5
220
330
129
100
AcDbEntity
  8
Dimension (ANSI)
440
 16777216
100
AcDbLine
 10
25.8982649757184
 20
22.59442523975876
 30
0.0
 11
25.8982649757184
 21
21.72025229737162
 31
0.0
  0
SOLID
  5
221
330
129
100
AcDbEntity
  8
Dimension (ANSI)
440
 16777216
100
AcDbTrace
 10
25.8545204447757
 20
19.86935961107119
 30
0.0
 11
25.9420095066611
 21
19.86935961107119
 31
0.0
 12
25.8982649757184
 22
19.60689242541496
 32
0.0
 13
25.8982649757184
 23
19.60689242541496
 33
0.0
  0
SOLID
  5
222
330
129
100
AcDbEntity
  8
Dimension (ANSI)
440
 16777216
100
AcDbTrace
 10
25.8545204447757
 20
22.59442523975876
 30
0.0
 11
25.9420095066611
 21
22.59442523975876
 31
0.0
 12
25.8982649757184
 22
22.85689242541499
 32
0.0
 13
25.8982649757184
 23
22.85689242541499
 33
0.0
  0
MTEXT
  5
223
330
129
100
AcDbEntity
  8
Dimension (ANSI)
440
 16777216
100
AcDbMText
 10
25.8982649757184
 20
21.28070723520555
 30
0.0
 40
0.2666666706403096
 41
0.0
 46
0.0
 71
     5
 72
     1
  1
\A1;3.25{\PTYP.}
  7
ROMANS
 73
     1
 44
1.0
  0
POINT
  5
224
330
129
100
AcDbEntity
  8
Defpoints
 62
     0
440
 16777216
100
AcDbPoint
 10
24.95282382214448
 20
19.60689242541496
 30
0.0
  0
POINT
  5
225
330
129
100
AcDbEntity
  8
Defpoints
 62
     0
440
 16777216
100
AcDbPoint
 10
24.19132382214446
 20
22.85689242541499
 30
0.0
  0
POINT
  5
226
330
129
100
AcDbEntity
  8
Defpoints
 62
     0
440
 16777216
100
AcDbPoint
 10
25.8982649757184
 20
22.85689242541499
 30
0.0
  0
ENDBLK
  5
12B
330
129
100
AcDbEntity
  8
0
100
AcDbBlockEnd
  0
BLOCK
  5
229
330
228
100
AcDbEntity
  8
0
100
AcDbBlockBegin
  2
*D5
 70
     1
 10
0.0
 20
0.0
 30
0.0
  3
*D5
  1

  0
ARC
  5
33F
330
228
100
AcDbEntity
  8
Dimension (ANSI)
440
 16777216
100
AcDbCircle
 10
24.19132382214446
 20
22.856892425415
 30
0.0
 40
1.732283464566927
100
AcDbArc
 50
143.6895038880521
 51
194.9056973407111
  0
ARC
  5
340
330
228
100
AcDbEntity
  8
Dimension (ANSI)
440
 16777216
100
AcDbCircle
 10
24.19132382214446
 20
22.856892425415
 30
0.0
 40
1.732283464566927
100
AcDbArc
 50
210.5398808620211
 51
261.3104961119482
  0
SOLID
  5
341
330
228
100
AcDbEntity
  8
Dimension (ANSI)
440
 16777216
100
AcDbTrace
 10
22.76222897667631
 20
23.91118262846537
 30
0.0
 11
22.82860197942382
 21
23.85418297534478
 31
0.0
 12
22.96641443741186
 22
24.0818018101476
 32
0.0
 13
22.96641443741186
 23
24.0818018101476
 33
0.0
  0
SOLID
  5
342
330
228
100
AcDbEntity
  8
Dimension (ANSI)
440
 16777216
100
AcDbTrace
 10
23.93292487695427
 20
21.1881116588876
 30
0.0
 11
23.92629691787066
 21
21.10087401731027
 31
0.0
 12
24.19132382214446
 22
21.12460896084807
 32
0.0
 13
24.19132382214446
 23
21.12460896084807
 33
0.0
  0
MTEXT
  5
343
330
228
100
AcDbEntity
  8
Dimension (ANSI)
440
 16777216
100
AcDbMText
 10
22.21629940453814
 20
22.32730957868538
 30
0.0
 40
0.2666666706403096
 41
0.0
 46
0.0
 71
     1
 72
     1
  1
\A1;135\U+00B0
  7
ROMANS
 73
     1
 44
1.0
  0
POINT
  5
344
330
228
100
AcDbEntity
  8
Defpoints
 62
     0
440
 16777216
100
AcDbPoint
 10
24.19132382214446
 20
22.856892425415
 30
0.0
  0
POINT
  5
345
330
228
100
AcDbEntity
  8
Defpoints
 62
     0
440
 16777216
100
AcDbPoint
 10
21.93742095711234
 20
25.11079529044711
 30
0.0
  0
POINT
  5
346
330
228
100
AcDbEntity
  8
Defpoints
 62
     0
440
 16777216
100
AcDbPoint
 10
24.19132382214446
 20
22.69022575874833
 30
0.0
  0
POINT
  5
347
330
228
100
AcDbEntity
  8
Defpoints
 62
     0
440
 16777216
100
AcDbPoint
 10
22.45904035757753
 20
22.856892425415
 30
0.0
  0
ENDBLK
  5
22A
330
228
100
AcDbEntity
  8
0
100
AcDbBlockEnd
  0
BLOCK
  5
34A
330
349
100
AcDbEntity
  8
0
100
AcDbBlockBegin
  2
*D6
 70
     1
 10
0.0
 20
0.0
 30
0.0
  3
*D6
  1

  0
LINE
  5
446
330
349
100
AcDbEntity
  8
Dimension (ANSI)
440
 16777216
100
AcDbLine
 10
19.4111571554778
 20
19.60689242541496
 30
0.0
 11
19.05471025278086
 21
19.60689242541496
 31
0.0
  0
LINE
  5
447
330
349
100
AcDbEntity
  8
Dimension (ANSI)
440
 16777216
100
AcDbLine
 10
20.17265715547781
 20
21.26134178315382
 30
0.0
 11
19.05471025278086
 21
21.26134178315382
 31
0.0
  0
LINE
  5
448
330
349
100
AcDbEntity
  8
Dimension (ANSI)
440
 16777216
100
AcDbLine
 10
19.3880435861142
 20
19.34442523975873
 30
0.0
 11
19.3880435861142
 21
19.0819580541025
 31
0.0
  0
LINE
  5
449
330
349
100
AcDbEntity
  8
Dimension (ANSI)
440
 16777216
100
AcDbLine
 10
19.3880435861142
 20
21.52380896881005
 30
0.0
 11
19.3880435861142
 21
21.78627615446628
 31
0.0
  0
SOLID
  5
44A
330
349
100
AcDbEntity
  8
Dimension (ANSI)
440
 16777216
100
AcDbTrace
 10
19.34429905517149
 20
19.34442523975873
 30
0.0
 11
19.4317881170569
 21
19.34442523975873
 31
0.0
 12
19.3880435861142
 22
19.60689242541496
 32
0.0
 13
19.3880435861142
 23
19.60689242541496
 33
0.0
  0
SOLID
  5
44B
330
349
100
AcDbEntity
  8
Dimension (ANSI)
440
 16777216
100
AcDbTrace
 10
19.34429905517149
 20
21.52380896881005
 30
0.0
 11
19.4317881170569
 21
21.52380896881005
 31
0.0
 12
19.3880435861142
 22
21.26134178315382
 32
0.0
 13
19.3880435861142
 23
21.26134178315382
 33
0.0
  0
MTEXT
  5
44C
330
349
100
AcDbEntity
  8
Dimension (ANSI)
440
 16777216
100
AcDbMText
 10
19.38804358611419
 20
20.4341171042844
 30
0.0
 40
0.2666666706403096
 41
0.0
 46
0.0
 71
     5
 72
     1
  1
\A1;(1.65){\PTYP.}
  7
ROMANS
 73
     1
 44
1.0
  0
POINT
  5
44D
330
349
100
AcDbEntity
  8
Defpoints
 62
     0
440
 16777216
100
AcDbPoint
 10
19.57782382214447
 20
19.60689242541496
 30
0.0
  0
POINT
  5
44E
330
349
100
AcDbEntity
  8
Defpoints
 62
     0
440
 16777216
100
AcDbPoint
 10
20.33932382214448
 20
21.26134178315382
 30
0.0
  0
POINT
  5
44F
330
349
100
AcDbEntity
  8
Defpoints
 62
     0
440
 16777216
100
AcDbPoint
 10
19.3880435861142
 20
21.26134178315382
 30
0.0
  0
ENDBLK
  5
34B
330
349
100
AcDbEntity
  8
0
100
AcDbBlockEnd
  0
BLOCK
  5
452
330
451
100
AcDbEntity
  8
0
100
AcDbBlockBegin
  2
*D7
 70
     1
 10
0.0
 20
0.0
 30
0.0
  3
*D7
  1

  0
LINE
  5
527
330
451
100
AcDbEntity
  8
Dimension (ANSI)
440
 16777216
100
AcDbLine
 10
22.5382213083758
 20
24.24346208916634
 30
0.0
 11
21.52692290945167
 21
23.2321636902422
 31
0.0
  0
LINE
  5
528
330
451
100
AcDbEntity
  8
Dimension (ANSI)
440
 16777216
100
AcDbLine
 10
20.08097883726256
 20
21.78621961805308
 30
0.0
 11
21.09227723618669
 21
22.79751801697722
 31
0.0
  0
SOLID
  5
529
330
451
100
AcDbEntity
  8
Dimension (ANSI)
440
 16777216
100
AcDbTrace
 10
22.50728925390639
 20
24.27439414363575
 30
0.0
 11
22.56915336284522
 21
24.21253003469692
 31
0.0
 12
22.72381363519227
 22
24.4290544159828
 32
0.0
 13
22.72381363519227
 23
24.4290544159828
 33
0.0
  0
SOLID
  5
52A
330
451
100
AcDbEntity
  8
Dimension (ANSI)
440
 16777216
100
AcDbTrace
 10
20.05004678279315
 20
21.81715167252249
 30
0.0
 11
20.11191089173198
 21
21.75528756358367
 31
0.0
 12
19.89538651044609
 22
21.60062729123661
 32
0.0
 13
19.89538651044609
 23
21.60062729123661
 33
0.0
  0
MTEXT
  5
52B
330
451
100
AcDbEntity
  8
Dimension (ANSI)
440
 16777216
100
AcDbMText
 10
20.9032508604149
 20
23.14817418892986
 30
0.0
 40
0.2666666706403096
 41
0.0
 46
0.0
 71
     1
 72
     1
  1
\A1;4.00
  7
ROMANS
 73
     1
 44
1.0
  0
POINT
  5
52C
330
451
100
AcDbEntity
  8
Defpoints
 62
     0
440
 16777216
100
AcDbPoint
 10
22.02325468146173
 20
25.12961336971333
 30
0.0
  0
POINT
  5
52D
330
451
100
AcDbEntity
  8
Defpoints
 62
     0
440
 16777216
100
AcDbPoint
 10
19.20014094587172
 20
22.29587285581098
 30
0.0
  0
POINT
  5
52E
330
451
100
AcDbEntity
  8
Defpoints
 62
     0
440
 16777216
100
AcDbPoint
 10
19.89538651044609
 20
21.60062729123661
 30
0.0
  0
ENDBLK
  5
453
330
451
100
AcDbEntity
  8
0
100
AcDbBlockEnd
  0
BLOCK
  5
531
330
530
100
AcDbEntity
  8
0
100
AcDbBlockBegin
  2
*D8
 70
     1
 10
0.0
 20
0.0
 30
0.0
  3
*D8
  1

  0
LINE
  5
606
330
530
100
AcDbEntity
  8
Dimension (ANSI)
440
 16777216
100
AcDbLine
 10
24.00285663648823
 20
20.50418121730196
 30
0.0
 11
22.56498578434779
 21
20.50418121730196
 31
0.0
  0
LINE
  5
607
330
530
100
AcDbEntity
  8
Dimension (ANSI)
440
 16777216
100
AcDbLine
 10
20.5277910078007
 20
20.50418121730196
 30
0.0
 11
21.58430835691456
 21
20.50418121730196
 31
0.0
  0
SOLID
  5
608
330
530
100
AcDbEntity
  8
Dimension (ANSI)
440
 16777216
100
AcDbTrace
 10
24.00285663648823
 20
20.54792574824466
 30
0.0
 11
24.00285663648823
 21
20.46043668635925
 31
0.0
 12
24.26532382214446
 22
20.50418121730196
 32
0.0
 13
24.26532382214446
 23
20.50418121730196
 33
0.0
  0
SOLID
  5
609
330
530
100
AcDbEntity
  8
Dimension (ANSI)
440
 16777216
100
AcDbTrace
 10
20.5277910078007
 20
20.54792574824466
 30
0.0
 11
20.5277910078007
 21
20.46043668635925
 31
0.0
 12
20.26532382214447
 22
20.50418121730196
 32
0.0
 13
20.26532382214447
 23
20.50418121730196
 33
0.0
  0
MTEXT
  5
60A
330
530
100
AcDbEntity
  8
Dimension (ANSI)
440
 16777216
100
AcDbMText
 10
21.6682978582269
 20
20.63751455262211
 30
0.0
 40
0.2666666706403096
 41
0.0
 46
0.0
 71
     1
 72
     1
  1
\A1;4.00
  7
ROMANS
 73
     1
 44
1.0
  0
POINT
  5
60B
330
530
100
AcDbEntity
  8
Defpoints
 62
     0
440
 16777216
100
AcDbPoint
 10
24.26532382214446
 20
19.71677964249881
 30
0.0
  0
POINT
  5
60C
330
530
100
AcDbEntity
  8
Defpoints
 62
     0
440
 16777216
100
AcDbPoint
 10
20.26532382214447
 20
19.72429390950564
 30
0.0
  0
POINT
  5
60D
330
530
100
AcDbEntity
  8
Defpoints
 62
     0
440
 16777216
100
AcDbPoint
 10
20.26532382214447
 20
20.50418121730196
 30
0.0
  0
ENDBLK
  5
532
330
530
100
AcDbEntity
  8
0
100
AcDbBlockEnd
  0
BLOCK
  5
610
330
60F
100
AcDbEntity
  8
0
100
AcDbBlockBegin
  2
*D9
 70
     1
 10
0.0
 20
0.0
 30
0.0
  3
*D9
  1

  0
LINE
  5
6F8
330
60F
100
AcDbEntity
  8
Dimension (ANSI)
440
 16777216
100
AcDbLine
 10
24.95282382214448
 20
19.44022575874829
 30
0.0
 11
24.95282382214448
 21
18.48080695077554
 31
0.0
  0
LINE
  5
6F9
330
60F
100
AcDbEntity
  8
Dimension (ANSI)
440
 16777216
100
AcDbLine
 10
18.63098964828406
 20
21.72608566260049
 30
0.0
 11
18.63098964828406
 21
18.48080695077554
 31
0.0
  0
LINE
  5
6FA
330
60F
100
AcDbEntity
  8
Dimension (ANSI)
440
 16777216
100
AcDbLine
 10
24.69035663648825
 20
18.81414028410887
 30
0.0
 11
21.27997047086615
 21
18.81414028410887
 31
0.0
  0
LINE
  5
6FB
330
60F
100
AcDbEntity
  8
Dimension (ANSI)
440
 16777216
100
AcDbLine
 10
18.89345683394029
 20
18.81414028410887
 30
0.0
 11
19.96913430835443
 21
18.81414028410887
 31
0.0
  0
SOLID
  5
6FC
330
60F
100
AcDbEntity
  8
Dimension (ANSI)
440
 16777216
100
AcDbTrace
 10
24.69035663648825
 20
18.85788481505158
 30
0.0
 11
24.69035663648825
 21
18.77039575316617
 31
0.0
 12
24.95282382214448
 22
18.81414028410887
 32
0.0
 13
24.95282382214448
 23
18.81414028410887
 33
0.0
  0
SOLID
  5
6FD
330
60F
100
AcDbEntity
  8
Dimension (ANSI)
440
 16777216
100
AcDbTrace
 10
18.89345683394029
 20
18.85788481505158
 30
0.0
 11
18.89345683394029
 21
18.77039575316617
 31
0.0
 12
18.63098964828406
 22
18.81414028410887
 32
0.0
 13
18.63098964828406
 23
18.81414028410887
 33
0.0
  0
MTEXT
  5
6FE
330
60F
100
AcDbEntity
  8
Dimension (ANSI)
440
 16777216
100
AcDbMText
 10
20.05312380966677
 20
19.01731489031101
 30
0.0
 40
0.2666666706403096
 41
0.0
 46
0.0
 71
     1
 72
     1
  1
\A1;(6.32)
  7
ROMANS
 73
     1
 44
1.0
  0
POINT
  5
6FF
330
60F
100
AcDbEntity
  8
Defpoints
 62
     0
440
 16777216
100
AcDbPoint
 10
24.95282382214448
 20
19.60689242541496
 30
0.0
  0
POINT
  5
700
330
60F
100
AcDbEntity
  8
Defpoints
 62
     0
440
 16777216
100
AcDbPoint
 10
18.63098964828406
 20
21.89275232926716
 30
0.0
  0
POINT
  5
701
330
60F
100
AcDbEntity
  8
Defpoints
 62
     0
440
 16777216
100
AcDbPoint
 10
18.63098964828406
 20
18.81414028410887
 30
0.0
  0
ENDBLK
  5
611
330
60F
100
AcDbEntity
  8
0
100
AcDbBlockEnd
  0
BLOCK
  5
77B
330
77A
100
AcDbEntity
  8
0
100
AcDbBlockBegin
  2
*D10
 70
     1
 10
0.0
 20
0.0
 30
0.0
  3
*D10
  1

  0
LINE
  5
86D
330
77A
100
AcDbEntity
  8
Dimension (ANSI)
440
 16777216
100
AcDbLine
 10
6.158478549946744
 20
19.50272575874829
 30
0.0
 11
6.158478549946744
 21
18.5022539498933
 31
0.0
  0
LINE
  5
86E
330
77A
100
AcDbEntity
  8
Dimension (ANSI)
440
 16777216
100
AcDbLine
 10
10.15847854994675
 20
19.50272575874832
 30
0.0
 11
10.15847854994675
 21
18.5022539498933
 31
0.0
  0
LINE
  5
86F
330
77A
100
AcDbEntity
  8
Dimension (ANSI)
440
 16777216
100
AcDbLine
 10
6.420945735602974
 20
18.83558728322663
 30
0.0
 11
7.668139836230129
 21
18.83558728322663
 31
0.0
  0
LINE
  5
870
330
77A
100
AcDbEntity
  8
Dimension (ANSI)
440
 16777216
100
AcDbLine
 10
9.896011364290519
 20
18.83558728322663
 30
0.0
 11
8.648817263663364
 21
18.83558728322663
 31
0.0
  0
SOLID
  5
871
330
77A
100
AcDbEntity
  8
Dimension (ANSI)
440
 16777216
100
AcDbTrace
 10
6.420945735602974
 20
18.87933181416933
 30
0.0
 11
6.420945735602974
 21
18.79184275228393
 31
0.0
 12
6.158478549946744
 22
18.83558728322663
 32
0.0
 13
6.158478549946744
 23
18.83558728322663
 33
0.0
  0
SOLID
  5
872
330
77A
100
AcDbEntity
  8
Dimension (ANSI)
440
 16777216
100
AcDbTrace
 10
9.896011364290519
 20
18.87933181416933
 30
0.0
 11
9.896011364290519
 21
18.79184275228393
 31
0.0
 12
10.15847854994675
 22
18.83558728322663
 32
0.0
 13
10.15847854994675
 23
18.83558728322663
 33
0.0
  0
MTEXT
  5
873
330
77A
100
AcDbEntity
  8
Dimension (ANSI)
440
 16777216
100
AcDbMText
 10
8.158478549946746
 20
18.83558728322663
 30
0.0
 40
0.2666666706403096
 41
0.0
 46
0.0
 71
     5
 72
     1
  1
\A1;4.00{\PTYP.}
  7
ROMANS
 73
     1
 44
1.0
  0
POINT
  5
874
330
77A
100
AcDbEntity
  8
Defpoints
 62
     0
440
 16777216
100
AcDbPoint
 10
6.158478549946744
 20
19.66939242541496
 30
0.0
  0
POINT
  5
875
330
77A
100
AcDbEntity
  8
Defpoints
 62
     0
440
 16777216
100
AcDbPoint
 10
10.15847854994675
 20
19.66939242541499
 30
0.0
  0
POINT
  5
876
330
77A
100
AcDbEntity
  8
Defpoints
 62
     0
440
 16777216
100
AcDbPoint
 10
10.15847854994675
 20
18.83558728322663
 30
0.0
  0
ENDBLK
  5
77C
330
77A
100
AcDbEntity
  8
0
100
AcDbBlockEnd
  0
BLOCK
  5
879
330
878
100
AcDbEntity
  8
0
100
AcDbBlockBegin
  2
*D11
 70
     1
 10
0.0
 20
0.0
 30
0.0
  3
*D11
  1

  0
LINE
  5
961
330
878
100
AcDbEntity
  8
Dimension (ANSI)
440
 16777216
100
AcDbLine
 10
5.304311883279964
 20
19.60689242541495
 30
0.0
 11
3.832855190367761
 21
19.60689242541495
 31
0.0
  0
LINE
  5
962
330
878
100
AcDbEntity
  8
Dimension (ANSI)
440
 16777216
100
AcDbLine
 10
5.679311883280696
 20
25.69345127814482
 30
0.0
 11
3.832855190367762
 21
25.69345127814482
 31
0.0
  0
LINE
  5
963
330
878
100
AcDbEntity
  8
Dimension (ANSI)
440
 16777216
100
AcDbLine
 10
4.166188523701094
 20
19.86935961107118
 30
0.0
 11
4.166188523701095
 21
22.36300774426541
 31
0.0
  0
LINE
  5
964
330
878
100
AcDbEntity
  8
Dimension (ANSI)
440
 16777216
100
AcDbLine
 10
4.166188523701095
 20
25.43098409248859
 30
0.0
 11
4.166188523701095
 21
22.93733595929436
 31
0.0
  0
SOLID
  5
965
330
878
100
AcDbEntity
  8
Dimension (ANSI)
440
 16777216
100
AcDbTrace
 10
4.122443992758389
 20
19.86935961107118
 30
0.0
 11
4.2099330546438
 21
19.86935961107118
 31
0.0
 12
4.166188523701094
 22
19.60689242541495
 32
0.0
 13
4.166188523701094
 23
19.60689242541495
 33
0.0
  0
SOLID
  5
966
330
878
100
AcDbEntity
  8
Dimension (ANSI)
440
 16777216
100
AcDbTrace
 10
4.12244399275839
 20
25.43098409248859
 30
0.0
 11
4.2099330546438
 21
25.43098409248859
 31
0.0
 12
4.166188523701095
 22
25.69345127814482
 32
0.0
 13
4.166188523701095
 23
25.69345127814482
 33
0.0
  0
MTEXT
  5
967
330
878
100
AcDbEntity
  8
Dimension (ANSI)
440
 16777216
100
AcDbMText
 10
3.594759943757571
 20
22.85334645798203
 30
0.0
 40
0.2666666706403096
 41
0.0
 46
0.0
 71
     1
 72
     1
  1
\A1;(6.09)
  7
ROMANS
 73
     1
 44
1.0
  0
POINT
  5
968
330
878
100
AcDbEntity
  8
Defpoints
 62
     0
440
 16777216
100
AcDbPoint
 10
5.470978549946631
 20
19.60689242541495
 30
0.0
  0
POINT
  5
969
330
878
100
AcDbEntity
  8
Defpoints
 62
     0
440
 16777216
100
AcDbPoint
 10
5.845978549947363
 20
25.69345127814482
 30
0.0
  0
POINT
  5
96A
330
878
100
AcDbEntity
  8
Defpoints
 62
     0
440
 16777216
100
AcDbPoint
 10
4.166188523701095
 20
25.69345127814482
 30
0.0
  0
ENDBLK
  5
87A
330
878
100
AcDbEntity
  8
0
100
AcDbBlockEnd
  0
BLOCK
  5
9FA
330
9F9
100
AcDbEntity
  8
0
100
AcDbBlockBegin
  2
*D12
 70
     1
 10
0.0
 20
0.0
 30
0.0
  3
*D12
  1

  0
LINE
  5
B0E
330
9F9
100
AcDbEntity
  8
Dimension (ANSI)
440
 16777216
100
AcDbLine
 10
5.679311883274854
 20
11.52027223159208
 30
0.0
 11
5.031703383782943
 21
11.52027223159208
 31
0.0
  0
LINE
  5
B0F
330
9F9
100
AcDbEntity
  8
Dimension (ANSI)
440
 16777216
100
AcDbLine
 10
5.205353549941633
 20
11.14527223159194
 30
0.0
 11
5.031703383782943
 21
11.14527223159194
 31
0.0
  0
LINE
  5
B10
330
9F9
100
AcDbEntity
  8
Dimension (ANSI)
440
 16777216
100
AcDbLine
 10
5.365036717116276
 20
11.78273941724831
 30
0.0
 11
5.365036717116276
 21
12.04520660290454
 31
0.0
  0
LINE
  5
B11
330
9F9
100
AcDbEntity
  8
Dimension (ANSI)
440
 16777216
100
AcDbLine
 10
5.365036717116276
 20
10.88280504593571
 30
0.0
 11
5.365036717116276
 21
10.01598026663431
 31
0.0
  0
LINE
  5
B12
330
9F9
100
AcDbEntity
  8
Dimension (ANSI)
440
 16777216
100
AcDbLine
 10
5.365036717116276
 20
10.01598026663431
 30
0.0
 11
5.102569531460046
 21
10.01598026663431
 31
0.0
  0
SOLID
  5
B13
330
9F9
100
AcDbEntity
  8
Dimension (ANSI)
440
 16777216
100
AcDbTrace
 10
5.321292186173571
 20
11.78273941724831
 30
0.0
 11
5.408781248058981
 21
11.78273941724831
 31
0.0
 12
5.365036717116276
 22
11.52027223159208
 32
0.0
 13
5.365036717116276
 23
11.52027223159208
 33
0.0
  0
SOLID
  5
B14
330
9F9
100
AcDbEntity
  8
Dimension (ANSI)
440
 16777216
100
AcDbTrace
 10
5.321292186173571
 20
10.88280504593571
 30
0.0
 11
5.408781248058981
 21
10.88280504593571
 31
0.0
 12
5.365036717116276
 22
11.14527223159194
 32
0.0
 13
5.365036717116276
 23
11.14527223159194
 33
0.0
  0
MTEXT
  5
B15
330
9F9
100
AcDbEntity
  8
Dimension (ANSI)
440
 16777216
100
AcDbMText
 10
4.447151450204188
 20
10.01598026663431
 30
0.0
 40
0.2666666706403096
 41
0.0
 46
0.0
 71
     5
 72
     1
  1
\A1;(0.38){\PTYP.}
  7
ROMANS
 73
     1
 44
1.0
  0
POINT
  5
B16
330
9F9
100
AcDbEntity
  8
Defpoints
 62
     0
440
 16777216
100
AcDbPoint
 10
5.845978549941521
 20
11.52027223159208
 30
0.0
  0
POINT
  5
B17
330
9F9
100
AcDbEntity
  8
Defpoints
 62
     0
440
 16777216
100
AcDbPoint
 10
5.3720202166083
 20
11.14527223159194
 30
0.0
  0
POINT
  5
B18
330
9F9
100
AcDbEntity
  8
Defpoints
 62
     0
440
 16777216
100
AcDbPoint
 10
5.365036717116276
 20
11.14527223159194
 30
0.0
  0
ENDBLK
  5
9FB
330
9F9
100
AcDbEntity
  8
0
100
AcDbBlockEnd
  0
BLOCK
  5
B1B
330
B1A
100
AcDbEntity
  8
0
100
AcDbBlockBegin
  2
*D13
 70
     1
 10
0.0
 20
0.0
 30
0.0
  3
*D13
  1

  0
LINE
  5
C03
330
B1A
100
AcDbEntity
  8
Dimension (ANSI)
440
 16777216
100
AcDbLine
 10
5.679311883274853
 20
11.52027223159208
 30
0.0
 11
2.970304909001537
 21
11.52027223159208
 31
0.0
  0
LINE
  5
C04
330
B1A
100
AcDbEntity
  8
Dimension (ANSI)
440
 16777216
100
AcDbLine
 10
5.679311883276454
 20
6.145272231592079
 30
0.0
 11
2.970304909001535
 21
6.145272231592079
 31
0.0
  0
LINE
  5
C05
330
B1A
100
AcDbEntity
  8
Dimension (ANSI)
440
 16777216
100
AcDbLine
 10
3.30363824233487
 20
11.25780504593585
 30
0.0
 11
3.30363824233487
 21
9.119936339106555
 31
0.0
  0
LINE
  5
C06
330
B1A
100
AcDbEntity
  8
Dimension (ANSI)
440
 16777216
100
AcDbLine
 10
3.303638242334869
 20
6.407739417248309
 30
0.0
 11
3.303638242334869
 21
8.545608124077602
 31
0.0
  0
SOLID
  5
C07
330
B1A
100
AcDbEntity
  8
Dimension (ANSI)
440
 16777216
100
AcDbTrace
 10
3.259893711392165
 20
11.25780504593585
 30
0.0
 11
3.347382773277575
 21
11.25780504593585
 31
0.0
 12
3.30363824233487
 22
11.52027223159208
 32
0.0
 13
3.30363824233487
 23
11.52027223159208
 33
0.0
  0
SOLID
  5
C08
330
B1A
100
AcDbEntity
  8
Dimension (ANSI)
440
 16777216
100
AcDbTrace
 10
3.259893711392164
 20
6.407739417248309
 30
0.0
 11
3.347382773277574
 21
6.407739417248309
 31
0.0
 12
3.303638242334869
 22
6.145272231592079
 32
0.0
 13
3.303638242334869
 23
6.145272231592079
 33
0.0
  0
MTEXT
  5
C09
330
B1A
100
AcDbEntity
  8
Dimension (ANSI)
440
 16777216
100
AcDbMText
 10
2.732209662391348
 20
9.03594683779422
 30
0.0
 40
0.2666666706403096
 41
0.0
 46
0.0
 71
     1
 72
     1
  1
\A1;(5.38)
  7
ROMANS
 73
     1
 44
1.0
  0
POINT
  5
C0A
330
B1A
100
AcDbEntity
  8
Defpoints
 62
     0
440
 16777216
100
AcDbPoint
 10
5.84597854994152
 20
11.52027223159208
 30
0.0
  0
POINT
  5
C0B
330
B1A
100
AcDbEntity
  8
Defpoints
 62
     0
440
 16777216
100
AcDbPoint
 10
5.845978549943121
 20
6.145272231592079
 30
0.0
  0
POINT
  5
C0C
330
B1A
100
AcDbEntity
  8
Defpoints
 62
     0
440
 16777216
100
AcDbPoint
 10
3.303638242334869
 20
6.145272231592079
 30
0.0
  0
ENDBLK
  5
B1C
330
B1A
100
AcDbEntity
  8
0
100
AcDbBlockEnd
  0
BLOCK
  5
C0F
330
C0E
100
AcDbEntity
  8
0
100
AcDbBlockBegin
  2
*D14
 70
     1
 10
0.0
 20
0.0
 30
0.0
  3
*D14
  1

  0
LINE
  5
D0B
330
C0E
100
AcDbEntity
  8
Dimension (ANSI)
440
 16777216
100
AcDbLine
 10
5.470978549943009
 20
6.3536055649253
 30
0.0
 11
5.470978549943009
 21
5.081107610569012
 31
0.0
  0
LINE
  5
D0C
330
C0E
100
AcDbEntity
  8
Dimension (ANSI)
440
 16777216
100
AcDbLine
 10
5.845978549943149
 20
5.879647231592077
 30
0.0
 11
5.845978549943149
 21
5.081107610569012
 31
0.0
  0
LINE
  5
D0D
330
C0E
100
AcDbEntity
  8
Dimension (ANSI)
440
 16777216
100
AcDbLine
 10
5.208511364286779
 20
5.414440943902345
 30
0.0
 11
4.94604417863055
 21
5.414440943902345
 31
0.0
  0
LINE
  5
D0E
330
C0E
100
AcDbEntity
  8
Dimension (ANSI)
440
 16777216
100
AcDbLine
 10
6.108445735599379
 20
5.414440943902345
 30
0.0
 11
6.663302934850427
 21
5.414440943902345
 31
0.0
  0
SOLID
  5
D0F
330
C0E
100
AcDbEntity
  8
Dimension (ANSI)
440
 16777216
100
AcDbTrace
 10
5.208511364286779
 20
5.45818547484505
 30
0.0
 11
5.208511364286779
 21
5.37069641295964
 31
0.0
 12
5.470978549943009
 22
5.414440943902345
 32
0.0
 13
5.470978549943009
 23
5.414440943902345
 33
0.0
  0
SOLID
  5
D10
330
C0E
100
AcDbEntity
  8
Dimension (ANSI)
440
 16777216
100
AcDbTrace
 10
6.108445735599379
 20
5.45818547484505
 30
0.0
 11
6.108445735599379
 21
5.37069641295964
 31
0.0
 12
5.845978549943149
 22
5.414440943902345
 32
0.0
 13
5.845978549943149
 23
5.414440943902345
 33
0.0
  0
MTEXT
  5
D11
330
C0E
100
AcDbEntity
  8
Dimension (ANSI)
440
 16777216
100
AcDbMText
 10
6.747292436162762
 20
5.604917137216852
 30
0.0
 40
0.2666666706403096
 41
0.0
 46
0.0
 71
     1
 72
     1
  1
\A1;(0.38){\PTYP.}
  7
ROMANS
 73
     1
 44
1.0
  0
POINT
  5
D12
330
C0E
100
AcDbEntity
  8
Defpoints
 62
     0
440
 16777216
100
AcDbPoint
 10
5.470978549943009
 20
6.520272231591967
 30
0.0
  0
POINT
  5
D13
330
C0E
100
AcDbEntity
  8
Defpoints
 62
     0
440
 16777216
100
AcDbPoint
 10
5.845978549943149
 20
6.046313898258744
 30
0.0
  0
POINT
  5
D14
330
C0E
100
AcDbEntity
  8
Defpoints
 62
     0
440
 16777216
100
AcDbPoint
 10
5.845978549943149
 20
5.414440943902345
 30
0.0
  0
ENDBLK
  5
C10
330
C0E
100
AcDbEntity
  8
0
100
AcDbBlockEnd
  0
BLOCK
  5
D17
330
D16
100
AcDbEntity
  8
0
100
AcDbBlockBegin
  2
*D15
 70
     1
 10
0.0
 20
0.0
 30
0.0
  3
*D15
  1

  0
LINE
  5
DFF
330
D16
100
AcDbEntity
  8
Dimension (ANSI)
440
 16777216
100
AcDbLine
 10
5.470978549943009
 20
6.3536055649253
 30
0.0
 11
5.470978549943009
 21
4.005592212617994
 31
0.0
  0
LINE
  5
E00
330
D16
100
AcDbEntity
  8
Dimension (ANSI)
440
 16777216
100
AcDbLine
 10
10.845978549943
 20
6.353605564926894
 30
0.0
 11
10.845978549943
 21
4.005592212617994
 31
0.0
  0
LINE
  5
E01
330
D16
100
AcDbEntity
  8
Dimension (ANSI)
440
 16777216
100
AcDbLine
 10
5.733445735599238
 20
4.338925545951327
 30
0.0
 11
7.503060468687152
 21
4.338925545951327
 31
0.0
  0
LINE
  5
E02
330
D16
100
AcDbEntity
  8
Dimension (ANSI)
440
 16777216
100
AcDbLine
 10
10.58351136428677
 20
4.338925545951327
 30
0.0
 11
8.813896631198865
 21
4.338925545951327
 31
0.0
  0
SOLID
  5
E03
330
D16
100
AcDbEntity
  8
Dimension (ANSI)
440
 16777216
100
AcDbTrace
 10
5.733445735599238
 20
4.382670076894032
 30
0.0
 11
5.733445735599238
 21
4.295181015008622
 31
0.0
 12
5.470978549943009
 22
4.338925545951327
 32
0.0
 13
5.470978549943009
 23
4.338925545951327
 33
0.0
  0
SOLID
  5
E04
330
D16
100
AcDbEntity
  8
Dimension (ANSI)
440
 16777216
100
AcDbTrace
 10
10.58351136428677
 20
4.382670076894032
 30
0.0
 11
10.58351136428677
 21
4.295181015008622
 31
0.0
 12
10.845978549943
 22
4.338925545951327
 32
0.0
 13
10.845978549943
 23
4.338925545951327
 33
0.0
  0
MTEXT
  5
E05
330
D16
100
AcDbEntity
  8
Dimension (ANSI)
440
 16777216
100
AcDbMText
 10
7.587049969999488
 20
4.542100152153468
 30
0.0
 40
0.2666666706403096
 41
0.0
 46
0.0
 71
     1
 72
     1
  1
\A1;(5.38)
  7
ROMANS
 73
     1
 44
1.0
  0
POINT
  5
E06
330
D16
100
AcDbEntity
  8
Defpoints
 62
     0
440
 16777216
100
AcDbPoint
 10
5.470978549943009
 20
6.520272231591967
 30
0.0
  0
POINT
  5
E07
330
D16
100
AcDbEntity
  8
Defpoints
 62
     0
440
 16777216
100
AcDbPoint
 10
10.845978549943
 20
6.520272231593561
 30
0.0
  0
POINT
  5
E08
330
D16
100
AcDbEntity
  8
Defpoints
 62
     0
440
 16777216
100
AcDbPoint
 10
10.845978549943
 20
4.338925545951327
 30
0.0
  0
ENDBLK
  5
D18
330
D16
100
AcDbEntity
  8
0
100
AcDbBlockEnd
  0
BLOCK
  5
E0B
330
E0A
100
AcDbEntity
  8
0
100
AcDbBlockBegin
  2
*D16
 70
     1
 10
0.0
 20
0.0
 30
0.0
  3
*D16
  1

  0
LINE
  5
EC3
330
E0A
100
AcDbEntity
  8
Dimension (ANSI)
440
 16777216
100
AcDbLine
 10
11.91862932351737
 20
5.262141212084472
 30
0.0
 11
11.50744014967801
 21
5.26214121208447
 31
0.0
  0
LINE
  5
EC4
330
E0A
100
AcDbEntity
  8
Dimension (ANSI)
440
 16777216
100
AcDbLine
 10
11.50744014967801
 20
5.26214121208447
 30
0.0
 11
10.7272792905437
 21
6.209156110981462
 31
0.0
  0
MTEXT
  5
EC5
330
E0A
100
AcDbEntity
  8
Dimension (ANSI)
440
 16777216
100
AcDbMText
 10
12.69468232720575
 20
5.262141212084468
 30
0.0
 40
0.2666666706403096
 41
0.0
 46
0.0
 71
     5
 72
     1
  1
\A1;(∅0.28){\PTYP.}
  7
ROMANS
 73
     1
 44
1.0
  0
SOLID
  5
EC6
330
E0A
100
AcDbEntity
  8
Dimension (ANSI)
440
 16777216
100
AcDbTrace
 10
10.76104235827157
 20
6.236970482176955
 30
0.0
 11
10.69351622281583
 21
6.181341739785969
 31
0.0
 12
10.56039306337074
 22
6.411734517348669
 32
0.0
 13
10.56039306337074
 23
6.411734517348669
 33
0.0
  0
LINE
  5
EC7
330
E0A
100
AcDbEntity
  8
Dimension (ANSI)
440
 16777216
100
AcDbLine
 10
10.23097854994301
 20
6.520272231593456
 30
0.0
 11
10.71097854994301
 21
6.520272231593455
 31
0.0
  0
LINE
  5
EC8
330
E0A
100
AcDbEntity
  8
Dimension (ANSI)
440
 16777216
100
AcDbLine
 10
10.47097854994301
 20
6.280272231593454
 30
0.0
 11
10.47097854994301
 21
6.760272231593455
 31
0.0
  0
POINT
  5
EC9
330
E0A
100
AcDbEntity
  8
Defpoints
 62
     0
440
 16777216
100
AcDbPoint
 10
10.56039306337074
 20
6.411734517348669
 30
0.0
  0
POINT
  5
ECA
330
E0A
100
AcDbEntity
  8
Defpoints
 62
     0
440
 16777216
100
AcDbPoint
 10
10.38156403651528
 20
6.62880994583824
 30
0.0
  0
ENDBLK
  5
E0C
330
E0A
100
AcDbEntity
  8
0
100
AcDbBlockEnd
  0
BLOCK
  5
ECD
330
ECC
100
AcDbEntity
  8
0
100
AcDbBlockBegin
  2
*D17
 70
     1
 10
0.0
 20
0.0
 30
0.0
  3
*D17
  1

  0
LINE
  5
F70
330
ECC
100
AcDbEntity
  8
Dimension (ANSI)
440
 16777216
100
AcDbLine
 10
11.96035341035279
 20
4.094492928770971
 30
0.0
 11
11.57518125252123
 21
4.094492928770971
 31
0.0
  0
LINE
  5
F71
330
ECC
100
AcDbEntity
  8
Dimension (ANSI)
440
 16777216
100
AcDbLine
 10
11.57518125252123
 20
4.094492928770971
 30
0.0
 11
10.73507665567206
 21
5.940085534625309
 31
0.0
  0
MTEXT
  5
F72
330
ECC
100
AcDbEntity
  8
Dimension (ANSI)
440
 16777216
100
AcDbMText
 10
12.74910482692881
 20
4.094492928770971
 30
0.0
 40
0.2666666706403096
 41
0.0
 46
0.0
 71
     5
 72
     1
  1
\A1;(R0.38){\PTYP.}
  7
ROMANS
 73
     1
 44
1.0
  0
SOLID
  5
F73
330
ECC
100
AcDbEntity
  8
Dimension (ANSI)
440
 16777216
100
AcDbTrace
 10
10.77489046176145
 20
5.958208581611769
 30
0.0
 11
10.69526284958266
 21
5.921962487638849
 31
0.0
 12
10.6263383737533
 22
6.178968371161671
 32
0.0
 13
10.6263383737533
 23
6.178968371161671
 33
0.0
  0
POINT
  5
F74
330
ECC
100
AcDbEntity
  8
Defpoints
 62
     0
440
 16777216
100
AcDbPoint
 10
10.6263383737533
 20
6.178968371161671
 30
0.0
  0
POINT
  5
F75
330
ECC
100
AcDbEntity
  8
Defpoints
 62
     0
440
 16777216
100
AcDbPoint
 10
10.47097854994301
 20
6.520272231593452
 30
0.0
  0
ENDBLK
  5
ECE
330
ECC
100
AcDbEntity
  8
0
100
AcDbBlockEnd
  0
BLOCK
  5
F78
330
F77
100
AcDbEntity
  8
0
100
AcDbBlockBegin
  2
*D18
 70
     1
 10
0.0
 20
0.0
 30
0.0
  3
*D18
  1

  0
LINE
  5
1067
330
F77
100
AcDbEntity
  8
Dimension (ANSI)
440
 16777216
100
AcDbLine
 10
9.911636364285648
 20
9.874740906765678
 30
0.0
 11
9.649169178629417
 21
9.874740906765678
 31
0.0
  0
LINE
  5
1068
330
F77
100
AcDbEntity
  8
Dimension (ANSI)
440
 16777216
100
AcDbLine
 10
11.10844573559808
 20
9.874740906765678
 30
0.0
 11
11.81504370672428
 21
9.874740906765678
 31
0.0
  0
SOLID
  5
1069
330
F77
100
AcDbEntity
  8
Dimension (ANSI)
440
 16777216
100
AcDbTrace
 10
9.911636364285648
 20
9.918485437708383
 30
0.0
 11
9.911636364285648
 21
9.830996375822973
 31
0.0
 12
10.17410354994187
 22
9.874740906765678
 32
0.0
 13
10.17410354994187
 23
9.874740906765678
 33
0.0
  0
SOLID
  5
106A
330
F77
100
AcDbEntity
  8
Dimension (ANSI)
440
 16777216
100
AcDbTrace
 10
11.10844573559808
 20
9.918485437708383
 30
0.0
 11
11.10844573559808
 21
9.830996375822973
 31
0.0
 12
10.84597854994185
 22
9.874740906765678
 32
0.0
 13
10.84597854994185
 23
9.874740906765678
 33
0.0
  0
MTEXT
  5
106B
330
F77
100
AcDbEntity
  8
Dimension (ANSI)
440
 16777216
100
AcDbMText
 10
12.47046178798013
 20
9.874740906765678
 30
0.0
 40
0.2666666706403096
 41
0.0
 46
0.0
 71
     5
 72
     1
  1
\A1;(0.67){\PTYP.}
  7
ROMANS
 73
     1
 44
1.0
  0
POINT
  5
106C
330
F77
100
AcDbEntity
  8
Defpoints
 62
     0
440
 16777216
100
AcDbPoint
 10
10.84597854994185
 20
10.38612745039479
 30
0.0
  0
POINT
  5
106D
330
F77
100
AcDbEntity
  8
Defpoints
 62
     0
440
 16777216
100
AcDbPoint
 10
10.17410354994187
 20
10.31700358322175
 30
0.0
  0
POINT
  5
106E
330
F77
100
AcDbEntity
  8
Defpoints
 62
     0
440
 16777216
100
AcDbPoint
 10
10.17410354994187
 20
9.874740906765678
 30
0.0
  0
ENDBLK
  5
F79
330
F77
100
AcDbEntity
  8
0
100
AcDbBlockEnd
  0
BLOCK
  5
1071
330
1070
100
AcDbEntity
  8
0
100
AcDbBlockBegin
  2
*D19
 70
     1
 10
0.0
 20
0.0
 30
0.0
  3
*D19
  1

  0
LINE
  5
1175
330
1070
100
AcDbEntity
  8
Dimension (ANSI)
440
 16777216
100
AcDbLine
 10
10.01310204144896
 20
7.079614417249165
 30
0.0
 11
10.01310204144896
 21
7.342081602905394
 31
0.0
  0
LINE
  5
1176
330
1070
100
AcDbEntity
  8
Dimension (ANSI)
440
 16777216
100
AcDbLine
 10
10.01310204144896
 20
5.882805045936714
 30
0.0
 11
10.01310204144896
 21
5.293766311509583
 31
0.0
  0
LINE
  5
1177
330
1070
100
AcDbEntity
  8
Dimension (ANSI)
440
 16777216
100
AcDbLine
 10
10.01310204144896
 20
5.293766311509583
 30
0.0
 11
9.75063485579273
 21
5.293766311509584
 31
0.0
  0
SOLID
  5
1178
330
1070
100
AcDbEntity
  8
Dimension (ANSI)
440
 16777216
100
AcDbTrace
 10
9.969357510506254
 20
7.079614417249166
 30
0.0
 11
10.05684657239166
 21
7.079614417249165
 31
0.0
 12
10.01310204144896
 22
6.817147231592935
 32
0.0
 13
10.01310204144896
 23
6.817147231592935
 33
0.0
  0
SOLID
  5
1179
330
1070
100
AcDbEntity
  8
Dimension (ANSI)
440
 16777216
100
AcDbTrace
 10
9.969357510506254
 20
5.882805045936715
 30
0.0
 11
10.05684657239166
 21
5.882805045936714
 31
0.0
 12
10.01310204144896
 22
6.145272231592944
 32
0.0
 13
10.01310204144896
 23
6.145272231592944
 33
0.0
  0
MTEXT
  5
117A
330
1070
100
AcDbEntity
  8
Dimension (ANSI)
440
 16777216
100
AcDbMText
 10
9.095216774536872
 20
5.293766311509584
 30
0.0
 40
0.2666666706403096
 41
0.0
 46
0.0
 71
     5
 72
     1
  1
\A1;(0.67){\PTYP.}
  7
ROMANS
 73
     1
 44
1.0
  0
POINT
  5
117B
330
1070
100
AcDbEntity
  8
Defpoints
 62
     0
440
 16777216
100
AcDbPoint
 10
8.766190204330477
 20
6.145272231592945
 30
0.0
  0
POINT
  5
117C
330
1070
100
AcDbEntity
  8
Defpoints
 62
     0
440
 16777216
100
AcDbPoint
 10
8.736817039853955
 20
6.817147231592936
 30
0.0
  0
POINT
  5
117D
330
1070
100
AcDbEntity
  8
Defpoints
 62
     0
440
 16777216
100
AcDbPoint
 10
10.01310204144896
 20
6.817147231592935
 30
0.0
  0
ENDBLK
  5
1072
330
1070
100
AcDbEntity
  8
0
100
AcDbBlockEnd
  0
BLOCK
  5
1180
330
117F
100
AcDbEntity
  8
0
100
AcDbBlockBegin
  2
*D20
 70
     1
 10
0.0
 20
0.0
 30
0.0
  3
*D20
  1

  0
LINE
  5
126F
330
117F
100
AcDbEntity
  8
Dimension (ANSI)
440
 16777216
100
AcDbLine
 10
8.595514949689061
 20
10.49630504593684
 30
0.0
 11
8.595514949689061
 21
10.24210829261194
 31
0.0
  0
LINE
  5
1270
330
117F
100
AcDbEntity
  8
Dimension (ANSI)
440
 16777216
100
AcDbLine
 10
8.595514949689061
 20
7.169239417249307
 30
0.0
 11
8.595514949689061
 21
9.312224516729237
 31
0.0
  0
SOLID
  5
1271
330
117F
100
AcDbEntity
  8
Dimension (ANSI)
440
 16777216
100
AcDbTrace
 10
8.551770418746356
 20
10.49630504593684
 30
0.0
 11
8.639259480631766
 21
10.49630504593684
 31
0.0
 12
8.595514949689061
 22
10.75877223159307
 32
0.0
 13
8.595514949689061
 23
10.75877223159307
 33
0.0
  0
SOLID
  5
1272
330
117F
100
AcDbEntity
  8
Dimension (ANSI)
440
 16777216
100
AcDbTrace
 10
8.551770418746356
 20
7.169239417249307
 30
0.0
 11
8.639259480631766
 21
7.169239417249307
 31
0.0
 12
8.595514949689061
 22
6.906772231593077
 32
0.0
 13
8.595514949689061
 23
6.906772231593077
 33
0.0
  0
MTEXT
  5
1273
330
117F
100
AcDbEntity
  8
Dimension (ANSI)
440
 16777216
100
AcDbMText
 10
8.595514949689059
 20
9.777166404670589
 30
0.0
 40
0.2666666706403096
 41
0.0
 46
0.0
 71
     5
 72
     1
  1
\A1;(3.85){\POPENING}
  7
ROMANS
 73
     1
 44
1.0
  0
POINT
  5
1274
330
117F
100
AcDbEntity
  8
Defpoints
 62
     0
440
 16777216
100
AcDbPoint
 10
9.095619671514112
 20
10.75877223159307
 30
0.0
  0
POINT
  5
1275
330
117F
100
AcDbEntity
  8
Defpoints
 62
     0
440
 16777216
100
AcDbPoint
 10
9.095619671515256
 20
6.906772231593077
 30
0.0
  0
POINT
  5
1276
330
117F
100
AcDbEntity
  8
Defpoints
 62
     0
440
 16777216
100
AcDbPoint
 10
8.595514949689061
 20
6.906772231593077
 30
0.0
  0
ENDBLK
  5
1181
330
117F
100
AcDbEntity
  8
0
100
AcDbBlockEnd
  0
BLOCK
  5
1279
330
1278
100
AcDbEntity
  8
0
100
AcDbBlockBegin
  2
*D21
 70
     1
 10
0.0
 20
0.0
 30
0.0
  3
*D21
  1

  0
LINE
  5
1365
330
1278
100
AcDbEntity
  8
Dimension (ANSI)
440
 16777216
100
AcDbLine
 10
7.842709050316215
 20
10.49630504593684
 30
0.0
 11
7.842709050316215
 21
10.23383786028061
 31
0.0
  0
LINE
  5
1366
330
1278
100
AcDbEntity
  8
Dimension (ANSI)
440
 16777216
100
AcDbLine
 10
7.842709050316215
 20
11.78273941724927
 30
0.0
 11
7.842709050316215
 21
13.16870960710152
 31
0.0
  0
LINE
  5
1367
330
1278
100
AcDbEntity
  8
Dimension (ANSI)
440
 16777216
100
AcDbLine
 10
7.842709050316215
 20
13.16870960710152
 30
0.0
 11
8.105176235972445
 21
13.16870960710152
 31
0.0
  0
SOLID
  5
1368
330
1278
100
AcDbEntity
  8
Dimension (ANSI)
440
 16777216
100
AcDbTrace
 10
7.79896451937351
 20
10.49630504593684
 30
0.0
 11
7.88645358125892
 21
10.49630504593684
 31
0.0
 12
7.842709050316215
 22
10.75877223159307
 32
0.0
 13
7.842709050316215
 23
10.75877223159307
 33
0.0
  0
SOLID
  5
1369
330
1278
100
AcDbEntity
  8
Dimension (ANSI)
440
 16777216
100
AcDbTrace
 10
7.79896451937351
 20
11.78273941724927
 30
0.0
 11
7.88645358125892
 21
11.78273941724927
 31
0.0
 12
7.842709050316215
 22
11.52027223159304
 32
0.0
 13
7.842709050316215
 23
11.52027223159304
 33
0.0
  0
MTEXT
  5
136A
330
1278
100
AcDbEntity
  8
Dimension (ANSI)
440
 16777216
100
AcDbMText
 10
8.189165737284778
 20
13.30204294242168
 30
0.0
 40
0.2666666706403096
 41
0.0
 46
0.0
 71
     1
 72
     1
  1
\A1;0.76
  7
ROMANS
 73
     1
 44
1.0
  0
POINT
  5
136B
330
1278
100
AcDbEntity
  8
Defpoints
 62
     0
440
 16777216
100
AcDbPoint
 10
9.099793750880747
 20
11.52027223159304
 30
0.0
  0
POINT
  5
136C
330
1278
100
AcDbEntity
  8
Defpoints
 62
     0
440
 16777216
100
AcDbPoint
 10
9.096789106496197
 20
10.75877223159307
 30
0.0
  0
POINT
  5
136D
330
1278
100
AcDbEntity
  8
Defpoints
 62
     0
440
 16777216
100
AcDbPoint
 10
7.842709050316215
 20
10.75877223159307
 30
0.0
  0
ENDBLK
  5
127A
330
1278
100
AcDbEntity
  8
0
100
AcDbBlockEnd
  0
BLOCK
  5
1370
330
136F
100
AcDbEntity
  8
0
100
AcDbBlockBegin
  2
*D22
 70
     1
 10
0.0
 20
0.0
 30
0.0
  3
*D22
  1

  0
LINE
  5
1445
330
136F
100
AcDbEntity
  8
Dimension (ANSI)
440
 16777216
100
AcDbLine
 10
9.822011364286389
 20
7.93945379679402
 30
0.0
 11
9.559544178630158
 21
7.93945379679402
 31
0.0
  0
LINE
  5
1446
330
136F
100
AcDbEntity
  8
Dimension (ANSI)
440
 16777216
100
AcDbLine
 10
11.10844573559882
 20
7.93945379679402
 30
0.0
 11
11.80905656335563
 21
7.93945379679402
 31
0.0
  0
SOLID
  5
1447
330
136F
100
AcDbEntity
  8
Dimension (ANSI)
440
 16777216
100
AcDbTrace
 10
9.822011364286389
 20
7.983198327736725
 30
0.0
 11
9.822011364286389
 21
7.895709265851315
 31
0.0
 12
10.08447854994262
 22
7.93945379679402
 32
0.0
 13
10.08447854994262
 23
7.93945379679402
 33
0.0
  0
SOLID
  5
1448
330
136F
100
AcDbEntity
  8
Dimension (ANSI)
440
 16777216
100
AcDbTrace
 10
11.10844573559882
 20
7.983198327736725
 30
0.0
 11
11.10844573559882
 21
7.895709265851315
 31
0.0
 12
10.84597854994259
 22
7.93945379679402
 32
0.0
 13
10.84597854994259
 23
7.93945379679402
 33
0.0
  0
MTEXT
  5
1449
330
136F
100
AcDbEntity
  8
Dimension (ANSI)
440
 16777216
100
AcDbMText
 10
11.89304606466796
 20
8.072787132114175
 30
0.0
 40
0.2666666706403096
 41
0.0
 46
0.0
 71
     1
 72
     1
  1
\A1;0.76
  7
ROMANS
 73
     1
 44
1.0
  0
POINT
  5
144A
330
136F
100
AcDbEntity
  8
Defpoints
 62
     0
440
 16777216
100
AcDbPoint
 10
10.84597854994259
 20
7.894947434905902
 30
0.0
  0
POINT
  5
144B
330
136F
100
AcDbEntity
  8
Defpoints
 62
     0
440
 16777216
100
AcDbPoint
 10
10.08447854994262
 20
7.822897231593359
 30
0.0
  0
POINT
  5
144C
330
136F
100
AcDbEntity
  8
Defpoints
 62
     0
440
 16777216
100
AcDbPoint
 10
10.08447854994262
 20
7.93945379679402
 30
0.0
  0
ENDBLK
  5
1371
330
136F
100
AcDbEntity
  8
0
100
AcDbBlockEnd
  0
BLOCK
  5
144F
330
144E
100
AcDbEntity
  8
0
100
AcDbBlockBegin
  2
*D23
 70
     1
 10
0.0
 20
0.0
 30
0.0
  3
*D23
  1

  0
LINE
  5
153E
330
144E
100
AcDbEntity
  8
Dimension (ANSI)
440
 16777216
100
AcDbLine
 10
9.822011364286389
 20
7.93945379679402
 30
0.0
 11
8.442745763339667
 21
7.93945379679402
 31
0.0
  0
LINE
  5
153F
330
144E
100
AcDbEntity
  8
Dimension (ANSI)
440
 16777216
100
AcDbLine
 10
6.494945735598848
 20
7.93945379679402
 30
0.0
 11
6.636671498210236
 21
7.93945379679402
 31
0.0
  0
SOLID
  5
1540
330
144E
100
AcDbEntity
  8
Dimension (ANSI)
440
 16777216
100
AcDbTrace
 10
9.822011364286389
 20
7.983198327736725
 30
0.0
 11
9.822011364286389
 21
7.895709265851315
 31
0.0
 12
10.08447854994262
 22
7.93945379679402
 32
0.0
 13
10.08447854994262
 23
7.93945379679402
 33
0.0
  0
SOLID
  5
1541
330
144E
100
AcDbEntity
  8
Dimension (ANSI)
440
 16777216
100
AcDbTrace
 10
6.494945735598848
 20
7.983198327736725
 30
0.0
 11
6.494945735598848
 21
7.895709265851315
 31
0.0
 12
6.232478549942618
 22
7.93945379679402
 32
0.0
 13
6.232478549942618
 23
7.93945379679402
 33
0.0
  0
MTEXT
  5
1542
330
144E
100
AcDbEntity
  8
Dimension (ANSI)
440
 16777216
100
AcDbMText
 10
7.539708630774952
 20
7.93945379679402
 30
0.0
 40
0.2666666706403096
 41
0.0
 46
0.0
 71
     5
 72
     1
  1
\A1;(3.85){\POPENING}
  7
ROMANS
 73
     1
 44
1.0
  0
POINT
  5
1543
330
144E
100
AcDbEntity
  8
Defpoints
 62
     0
440
 16777216
100
AcDbPoint
 10
10.08447854994262
 20
7.821531376857272
 30
0.0
  0
POINT
  5
1544
330
144E
100
AcDbEntity
  8
Defpoints
 62
     0
440
 16777216
100
AcDbPoint
 10
6.232478549942618
 20
7.82153137685612
 30
0.0
  0
POINT
  5
1545
330
144E
100
AcDbEntity
  8
Defpoints
 62
     0
440
 16777216
100
AcDbPoint
 10
6.232478549942618
 20
7.93945379679402
 30
0.0
  0
ENDBLK
  5
1450
330
144E
100
AcDbEntity
  8
0
100
AcDbBlockEnd
  0
BLOCK
  5
1613
330
1612
100
AcDbEntity
  8
0
100
AcDbBlockBegin
  2
*D24
 70
     1
 10
0.0
 20
0.0
 30
0.0
  3
*D24
  1

  0
LINE
  5
1712
330
1612
100
AcDbEntity
  8
Dimension (ANSI)
440
 16777216
100
AcDbLine
 10
23.22809638206104
 20
24.29595632274697
 30
0.0
 11
23.41368870887751
 21
24.48154864956344
 31
0.0
  0
LINE
  5
1713
330
1612
100
AcDbEntity
  8
Dimension (ANSI)
440
 16777216
100
AcDbLine
 10
22.8045858266203
 20
23.87244576730623
 30
0.0
 11
22.61899349980383
 21
23.68685344048975
 31
0.0
  0
LINE
  5
1714
330
1612
100
AcDbEntity
  8
Dimension (ANSI)
440
 16777216
100
AcDbLine
 10
24.04765211124493
 20
24.85304486627463
 30
0.0
 11
23.7851849255887
 21
24.85304486627463
 31
0.0
  0
LINE
  5
1715
330
1612
100
AcDbEntity
  8
Dimension (ANSI)
440
 16777216
100
AcDbLine
 10
23.7851849255887
 20
24.85304486627463
 30
0.0
 11
23.41368870887751
 21
24.48154864956344
 31
0.0
  0
MTEXT
  5
1716
330
1612
100
AcDbEntity
  8
Dimension (ANSI)
440
 16777216
100
AcDbMText
 10
24.98243527602873
 20
24.85304486627463
 30
0.0
 40
0.2666666706403096
 41
0.0
 46
0.0
 71
     5
 72
     1
  1
\A1; 14 GA.\P304 S.S.
  7
ROMANS
 73
     1
 44
1.0
  0
SOLID
  5
1717
330
1612
100
AcDbEntity
  8
Dimension (ANSI)
440
 16777216
100
AcDbTrace
 10
23.19716432759163
 20
24.32688837721638
 30
0.0
 11
23.25902843653045
 21
24.26502426827756
 31
0.0
 12
23.04250405524457
 22
24.1103639959305
 32
0.0
 13
23.04250405524457
 23
24.1103639959305
 33
0.0
  0
SOLID
  5
1718
330
1612
100
AcDbEntity
  8
Dimension (ANSI)
440
 16777216
100
AcDbTrace
 10
22.77365377215089
 20
23.90337782177564
 30
0.0
 11
22.83551788108971
 21
23.84151371283682
 31
0.0
 12
22.99017815343676
 22
24.05803809412269
 32
0.0
 13
22.99017815343676
 23
24.05803809412269
 33
0.0
  0
POINT
  5
1719
330
1612
100
AcDbEntity
  8
Defpoints
 62
     0
440
 16777216
100
AcDbPoint
 10
23.04250405524457
 20
24.1103639959305
 30
0.0
  0
POINT
  5
171A
330
1612
100
AcDbEntity
  8
Defpoints
 62
     0
440
 16777216
100
AcDbPoint
 10
22.99125709740698
 20
24.05695915015247
 30
0.0
  0
POINT
  5
171B
330
1612
100
AcDbEntity
  8
Defpoints
 62
     0
440
 16777216
100
AcDbPoint
 10
22.99017815343676
 20
24.05803809412269
 30
0.0
  0
ENDBLK
  5
1614
330
1612
100
AcDbEntity
  8
0
100
AcDbBlockEnd
  0
BLOCK
  5
171E
330
171D
100
AcDbEntity
  8
0
100
AcDbBlockBegin
  2
*D25
 70
     1
 10
0.0
 20
0.0
 30
0.0
  3
*D25
  1

  0
LINE
  5
181D
330
171D
100
AcDbEntity
  8
Dimension (ANSI)
440
 16777216
100
AcDbLine
 10
18.68495298696384
 20
22.31790032157988
 30
0.0
 11
18.49936066014737
 21
22.50349264839635
 31
0.0
  0
LINE
  5
181E
330
171D
100
AcDbEntity
  8
Dimension (ANSI)
440
 16777216
100
AcDbLine
 10
19.1445259882451
 20
21.85832732029862
 30
0.0
 11
19.33011831506157
 21
21.67273499348215
 31
0.0
  0
LINE
  5
181F
330
171D
100
AcDbEntity
  8
Dimension (ANSI)
440
 16777216
100
AcDbLine
 10
17.86079311920041
 20
22.87959300368709
 30
0.0
 11
18.12326030485664
 21
22.87959300368708
 31
0.0
  0
LINE
  5
1820
330
171D
100
AcDbEntity
  8
Dimension (ANSI)
440
 16777216
100
AcDbLine
 10
18.12326030485664
 20
22.87959300368708
 30
0.0
 11
18.49936066014737
 21
22.50349264839635
 31
0.0
  0
MTEXT
  5
1821
330
171D
100
AcDbEntity
  8
Dimension (ANSI)
440
 16777216
100
AcDbMText
 10
16.92600995441661
 20
22.87959300368709
 30
0.0
 40
0.2666666706403096
 41
0.0
 46
0.0
 71
     5
 72
     1
  1
\A1; 10 GA.\P304 S.S.
  7
ROMANS
 73
     1
 44
1.0
  0
SOLID
  5
1822
330
171D
100
AcDbEntity
  8
Dimension (ANSI)
440
 16777216
100
AcDbTrace
 10
18.71588504143325
 20
22.34883237604929
 30
0.0
 11
18.65402093249443
 21
22.28696826711047
 31
0.0
 12
18.87054531378031
 22
22.13230799476341
 32
0.0
 13
18.87054531378031
 23
22.13230799476341
 33
0.0
  0
SOLID
  5
1823
330
171D
100
AcDbEntity
  8
Dimension (ANSI)
440
 16777216
100
AcDbTrace
 10
19.17545804271451
 20
21.88925937476803
 30
0.0
 11
19.11359393377569
 21
21.82739526582921
 31
0.0
 12
18.95893366142863
 22
22.04391964711509
 32
0.0
 13
18.95893366142863
 23
22.04391964711509
 33
0.0
  0
POINT
  5
1824
330
171D
100
AcDbEntity
  8
Defpoints
 62
     0
440
 16777216
100
AcDbPoint
 10
18.89615469122901
 20
22.15791737221211
 30
0.0
  0
POINT
  5
1825
330
171D
100
AcDbEntity
  8
Defpoints
 62
     0
440
 16777216
100
AcDbPoint
 10
18.98454303887733
 20
22.0695290245638
 30
0.0
  0
POINT
  5
1826
330
171D
100
AcDbEntity
  8
Defpoints
 62
     0
440
 16777216
100
AcDbPoint
 10
18.95893366142863
 20
22.04391964711509
 30
0.0
  0
ENDBLK
  5
171F
330
171D
100
AcDbEntity
  8
0
100
AcDbBlockEnd
  0
ENDSEC
  0
SECTION
  2
ENTITIES
  0
LINE
  5
107
330
6C
100
AcDbEntity
  8
Visible (ANSI)
100
AcDbLine
 10
24.23449681086435
 20
22.91837124031072
 30
0.0
 11
22.03394103274432
 21
25.11892701843074
 31
0.0
  0
ARC
  5
108
330
6C
100
AcDbEntity
  8
Visible (ANSI)
100
AcDbCircle
 10
24.16007382214446
 20
22.84394825159083
 30
0.0
 40
0.1052499999999997
100
AcDbArc
 50
0.0
 51
45.0
  0
LINE
  5
109
330
6C
100
AcDbEntity
  8
Visible (ANSI)
100
AcDbLine
 10
24.26532382214447
 20
19.73189242541496
 30
0.0
 11
24.26532382214447
 21
22.84394825159083
 31
0.0
  0
LINE
  5
10A
330
6C
100
AcDbEntity
  8
Visible (ANSI)
100
AcDbLine
 10
20.33932382214449
 20
19.73189242541496
 30
0.0
 11
20.33932382214448
 21
21.26134178315382
 31
0.0
  0
LINE
  5
10B
330
6C
100
AcDbEntity
  8
Visible (ANSI)
100
AcDbLine
 10
20.33932382214448
 20
21.26134178315382
 30
0.0
 11
19.25783980980593
 21
22.34282579549237
 31
0.0
  0
LINE
  5
10C
330
6C
100
AcDbEntity
  8
Visible (ANSI)
100
AcDbLine
 10
21.98161513093653
 20
25.06660111662292
 30
0.0
 11
24.19132382214446
 21
22.85689242541499
 31
0.0
  0
LINE
  5
10D
330
6C
100
AcDbEntity
  8
Visible (ANSI)
100
AcDbLine
 10
24.19132382214446
 20
22.85689242541499
 30
0.0
 11
24.19132382214447
 21
19.73189242541496
 31
0.0
  0
LINE
  5
10E
330
6C
100
AcDbEntity
  8
Visible (ANSI)
100
AcDbLine
 10
20.26532382214447
 20
19.73189242541495
 30
0.0
 11
20.26532382214448
 21
21.21774580571407
 31
0.0
  0
ARC
  5
10F
330
6C
100
AcDbEntity
  8
Visible (ANSI)
100
AcDbCircle
 10
20.23407382214447
 20
21.21774580571407
 30
0.0
 40
0.1052500000000005
100
AcDbArc
 50
0.0
 51
45.0
  0
ARC
  5
110
330
6C
100
AcDbEntity
  8
Visible (ANSI)
100
AcDbCircle
 10
20.23407382214447
 20
21.21774580571407
 30
0.0
 40
0.03125
100
AcDbArc
 50
0.0
 51
45.0
  0
LINE
  5
111
330
6C
100
AcDbEntity
  8
Visible (ANSI)
100
AcDbLine
 10
19.20551390799811
 20
22.29049989368458
 30
0.0
 11
20.25617090905655
 21
21.23984289262615
 31
0.0
  0
LINE
  5
112
330
6C
100
AcDbEntity
  8
Visible (ANSI)
100
AcDbLine
 10
22.5200769448101
 20
25.6050629304965
 30
0.0
 11
22.25491190186514
 21
25.33989788755155
 31
0.0
  0
LINE
  5
113
330
6C
100
AcDbEntity
  8
Visible (ANSI)
100
AcDbLine
 10
22.43168859716178
 20
25.69345127814482
 30
0.0
 11
22.5200769448101
 21
25.6050629304965
 31
0.0
  0
LINE
  5
114
330
6C
100
AcDbEntity
  8
Visible (ANSI)
100
AcDbLine
 10
22.16652355421683
 20
25.42828623519987
 30
0.0
 11
22.43168859716178
 21
25.69345127814482
 31
0.0
  0
LINE
  5
115
330
6C
100
AcDbEntity
  8
Visible (ANSI)
100
AcDbLine
 10
18.63098964828406
 20
21.89275232926716
 30
0.0
 11
18.71937799593238
 21
21.80436398161884
 31
0.0
  0
LINE
  5
116
330
6C
100
AcDbEntity
  8
Visible (ANSI)
100
AcDbLine
 10
18.98454303887733
 20
22.0695290245638
 30
0.0
 11
18.71937799593237
 21
21.80436398161884
 31
0.0
  0
LINE
  5
117
330
6C
100
AcDbEntity
  8
Visible (ANSI)
100
AcDbLine
 10
18.63098964828406
 20
21.89275232926716
 30
0.0
 11
18.89615469122901
 21
22.15791737221211
 31
0.0
  0
LINE
  5
118
330
6C
100
AcDbEntity
  8
Visible (ANSI)
100
AcDbLine
 10
18.98454303887733
 20
22.0695290245638
 30
0.0
 11
22.25491190186514
 21
25.33989788755155
 31
0.0
  0
LINE
  5
119
330
6C
100
AcDbEntity
  8
Visible (ANSI)
100
AcDbLine
 10
22.16652355421683
 20
25.42828623519987
 30
0.0
 11
18.89615469122902
 21
22.15791737221211
 31
0.0
  0
LINE
  5
11A
330
6C
100
AcDbEntity
  8
Visible (ANSI)
100
AcDbLine
 10
19.95282382214447
 20
19.60689242541495
 30
0.0
 11
19.57782382214447
 21
19.60689242541495
 31
0.0
  0
LINE
  5
11B
330
6C
100
AcDbEntity
  8
Visible (ANSI)
100
AcDbLine
 10
19.57782382214447
 20
19.73189242541496
 30
0.0
 11
19.95282382214447
 21
19.73189242541496
 31
0.0
  0
LINE
  5
11C
330
6C
100
AcDbEntity
  8
Visible (ANSI)
100
AcDbLine
 10
19.57782382214447
 20
19.73189242541496
 30
0.0
 11
19.57782382214447
 21
19.60689242541495
 31
0.0
  0
LINE
  5
11D
330
6C
100
AcDbEntity
  8
Visible (ANSI)
100
AcDbLine
 10
19.95282382214447
 20
19.60689242541495
 30
0.0
 11
24.57782382214448
 21
19.60689242541496
 31
0.0
  0
LINE
  5
11E
330
6C
100
AcDbEntity
  8
Visible (ANSI)
100
AcDbLine
 10
24.57782382214448
 20
19.73189242541496
 30
0.0
 11
19.95282382214447
 21
19.73189242541496
 31
0.0
  0
LINE
  5
11F
330
6C
100
AcDbEntity
  8
Visible (ANSI)
100
AcDbLine
 10
24.95282382214448
 20
19.60689242541496
 30
0.0
 11
24.57782382214448
 21
19.60689242541496
 31
0.0
  0
LINE
  5
120
330
6C
100
AcDbEntity
  8
Visible (ANSI)
100
AcDbLine
 10
24.95282382214448
 20
19.73189242541496
 30
0.0
 11
24.95282382214448
 21
19.60689242541496
 31
0.0
  0
LINE
  5
121
330
6C
100
AcDbEntity
  8
Visible (ANSI)
100
AcDbLine
 10
24.57782382214448
 20
19.73189242541496
 30
0.0
 11
24.95282382214448
 21
19.73189242541496
 31
0.0
  0
MTEXT
  5
123
330
6C
100
AcDbEntity
  8
Symbol (ANSI)
100
AcDbMText
 10
20.78871884157702
 20
16.45832881818245
 30
0.0
 40
0.3200000039548698
 41
0.0
 46
0.0
 71
     7
 72
     1
  1
SIDE VIEW
  7
Text Style168
 73
     1
 44
1.0
  0
LINE
  5
125
330
6C
100
AcDbEntity
  8
Symbol (ANSI)
370
    30
100
AcDbLine
 10
20.77233479943138
 20
16.39203384174323
 30
0.0
 11
22.9347983205127
 21
16.39203384174323
 31
0.0
  0
DIMENSION
  5
126
330
6C
100
AcDbEntity
  8
Dimension (ANSI)
100
AcDbDimension
280
     0
  2
*D4
 10
25.8982649757184
 20
22.85689242541499
 30
0.0
 11
25.8982649757184
 21
21.28070723520555
 31
0.0
 70
   160
  1
<>{\PTYP.}
 71
     5
 42
3.250000000000035
 73
     0
 74
     0
 75
     0
  3
Default (ANSI)
100
AcDbAlignedDimension
 13
24.95282382214448
 23
19.60689242541496
 33
0.0
 14
24.19132382214446
 24
22.85689242541499
 34
0.0
 50
270.0
100
AcDbRotatedDimension
1001
ACAD
1000
DSTYLE
1002
{
1070
   289
1070
     1
1070
   271
1070
     2
1070
   272
1070
     2
1070
    48
1040
0.0
1070
    47
1040
0.0
1002
}
  0
DIMENSION
  5
227
330
6C
100
AcDbEntity
  8
Dimension (ANSI)
100
AcDbDimension
280
     0
  2
*D5
 10
22.45904035757753
 20
22.856892425415
 30
0.0
 11
22.59090258472334
 21
22.19397624336523
 31
0.0
 70
   165
  1
<>
 42
2.356194490192344
 73
     0
 74
     0
 75
     0
  3
Default (ANSI)
100
AcDb3PointAngularDimension
 13
21.93742095711234
 23
25.11079529044711
 33
0.0
 14
24.19132382214446
 24
22.69022575874833
 34
0.0
 15
24.19132382214446
 25
22.856892425415
 35
0.0
1001
ACAD_DSTYLE_DIMANGULAR_EXTENSION
1070
   387
1070
     1
1001
ACAD
1000
DSTYLE
1002
{
1070
   179
1070
     0
1070
    76
1070
     1
1070
    75
1070
     1
1070
   272
1070
     0
1070
    48
1040
0.0
1070
    47
1040
0.0
1002
}
  0
DIMENSION
  5
348
330
6C
100
AcDbEntity
  8
Dimension (ANSI)
100
AcDbDimension
280
     0
  2
*D6
 10
19.3880435861142
 20
21.26134178315382
 30
0.0
 11
19.38804358611419
 21
20.4341171042844
 31
0.0
 70
   160
  1
(<>){\PTYP.}
 71
     5
 42
1.654449357738865
 73
     0
 74
     0
 75
     0
  3
Default (ANSI)
100
AcDbAlignedDimension
 13
19.57782382214447
 23
19.60689242541496
 33
0.0
 14
20.33932382214448
 24
21.26134178315382
 34
0.0
 50
270.0
100
AcDbRotatedDimension
1001
ACAD
1000
DSTYLE
1002
{
1070
   271
1070
     2
1070
   147
1040
1.797693134862314E+99
1070
    72
1070
     0
1070
    71
1070
     0
1070
   272
1070
     2
1070
    48
1040
0.0
1070
    47
1040
0.0
1002
}
  0
DIMENSION
  5
450
330
6C
100
AcDbEntity
  8
Dimension (ANSI)
100
AcDbDimension
280
     0
  2
*D7
 10
19.89538651044609
 20
21.60062729123661
 30
0.0
 11
21.30960007281918
 21
23.0148408536097
 31
0.0
 70
   160
  1
<>
 42
3.999999999999985
 73
     0
 74
     0
 75
     0
  3
Default (ANSI)
100
AcDbAlignedDimension
 13
22.02325468146173
 23
25.12961336971333
 33
0.0
 14
19.20014094587171
 24
22.29587285581098
 34
0.0
 50
45.00000000000015
100
AcDbRotatedDimension
1001
ACAD
1000
DSTYLE
1002
{
1070
   289
1070
     1
1070
   271
1070
     2
1070
    76
1070
     1
1070
    75
1070
     1
1070
   272
1070
     2
1070
    48
1040
0.0
1070
    47
1040
0.0
1002
}
  0
DIMENSION
  5
52F
330
6C
100
AcDbEntity
  8
Dimension (ANSI)
100
AcDbDimension
280
     0
  2
*D8
 10
20.26532382214447
 20
20.50418121730196
 30
0.0
 11
22.07464707063118
 21
20.50418121730196
 31
0.0
 70
   160
  1
<>
 42
3.999999999999989
 73
     0
 74
     0
 75
     0
  3
Default (ANSI)
100
AcDbAlignedDimension
 13
24.26532382214446
 23
19.71677964249881
 33
0.0
 14
20.26532382214447
 24
19.72429390950564
 34
0.0
100
AcDbRotatedDimension
1001
ACAD
1000
DSTYLE
1002
{
1070
   289
1070
     1
1070
    73
1070
     0
1070
    74
1070
     0
1070
   271
1070
     2
1070
    76
1070
     1
1070
    75
1070
     1
1070
   272
1070
     2
1070
    48
1040
0.0
1070
    47
1040
0.0
1002
}
  0
DIMENSION
  5
60E
330
6C
100
AcDbEntity
  8
Dimension (ANSI)
100
AcDbDimension
280
     0
  2
*D9
 10
18.63098964828406
 20
18.81414028410887
 30
0.0
 11
20.62455238961029
 21
18.81414028410887
 31
0.0
 70
   160
  1
(<>)
 42
6.32183417386042
 73
     0
 74
     0
 75
     0
  3
Default (ANSI)
100
AcDbAlignedDimension
 13
24.95282382214448
 23
19.60689242541496
 33
0.0
 14
18.63098964828406
 24
21.89275232926716
 34
0.0
 50
180.0
100
AcDbRotatedDimension
1001
ACAD
1000
DSTYLE
1002
{
1070
   289
1070
     1
1070
    73
1070
     0
1070
    74
1070
     0
1070
   271
1070
     2
1070
   147
1040
0.031496062992126
1070
    72
1070
     0
1070
    71
1070
     0
1070
   272
1070
     2
1070
    48
1040
0.0
1070
    47
1040
0.0
1002
}
  0
LINE
  5
702
330
6C
100
AcDbEntity
  8
Visible (ANSI)
100
AcDbLine
 10
8.252228549947224
 20
25.111218279167
 30
0.0
 11
8.252228549947236
 21
25.06702410534284
 31
0.0
  0
LINE
  5
703
330
6C
100
AcDbEntity
  8
Visible (ANSI)
100
AcDbLine
 10
8.252228549947238
 20
25.1635441809748
 30
0.0
 11
8.252228549947224
 21
25.111218279167
 31
0.0
  0
LINE
  5
704
330
6C
100
AcDbEntity
  8
Visible (ANSI)
100
AcDbLine
 10
8.252228549947236
 20
25.06702410534284
 30
0.0
 11
8.064728549947236
 21
25.06702410534284
 31
0.0
  0
LINE
  5
705
330
6C
100
AcDbEntity
  8
Visible (ANSI)
100
AcDbLine
 10
8.064728549947252
 20
25.11935000715064
 30
0.0
 11
8.100103549947275
 21
25.11935000715064
 31
0.0
  0
LINE
  5
706
330
6C
100
AcDbEntity
  8
Visible (ANSI)
100
AcDbLine
 10
8.216853549947215
 20
25.11935000715064
 30
0.0
 11
8.252228549947252
 21
25.11935000715064
 31
0.0
  0
LINE
  5
707
330
6C
100
AcDbEntity
  8
Visible (ANSI)
100
AcDbLine
 10
8.064728549947236
 20
25.06702410534284
 30
0.0
 11
8.064728549947224
 21
25.111218279167
 31
0.0
  0
LINE
  5
708
330
6C
100
AcDbEntity
  8
Visible (ANSI)
100
AcDbLine
 10
8.064728549947224
 20
25.111218279167
 30
0.0
 11
8.064728549947238
 21
25.1635441809748
 31
0.0
  0
LINE
  5
709
330
6C
100
AcDbEntity
  8
Visible (ANSI)
100
AcDbLine
 10
10.08447854994724
 20
25.1635441809748
 30
0.0
 11
8.252228549947238
 21
25.1635441809748
 31
0.0
  0
LINE
  5
70A
330
6C
100
AcDbEntity
  8
Visible (ANSI)
100
AcDbLine
 10
8.064728549947238
 20
25.1635441809748
 30
0.0
 11
6.232478549947239
 21
25.1635441809748
 31
0.0
  0
LINE
  5
70B
330
6C
100
AcDbEntity
  8
Visible (ANSI)
100
AcDbLine
 10
10.08447854994722
 20
25.111218279167
 30
0.0
 11
8.252228549947224
 21
25.111218279167
 31
0.0
  0
LINE
  5
70C
330
6C
100
AcDbEntity
  8
Visible (ANSI)
100
AcDbLine
 10
10.08447854994722
 20
25.111218279167
 30
0.0
 11
10.08447854994724
 21
25.1635441809748
 31
0.0
  0
LINE
  5
70D
330
6C
100
AcDbEntity
  8
Visible (ANSI)
100
AcDbLine
 10
6.232478549947223
 20
25.111218279167
 30
0.0
 11
6.232478549947223
 21
25.11079529044708
 31
0.0
  0
LINE
  5
70E
330
6C
100
AcDbEntity
  8
Visible (ANSI)
100
AcDbLine
 10
6.232478549947223
 20
25.111218279167
 30
0.0
 11
6.232478549947239
 21
25.1635441809748
 31
0.0
  0
LINE
  5
70F
330
6C
100
AcDbEntity
  8
Visible (ANSI)
100
AcDbLine
 10
8.064728549947224
 20
25.111218279167
 30
0.0
 11
6.232478549947223
 21
25.111218279167
 31
0.0
  0
LINE
  5
710
330
6C
100
AcDbEntity
  8
Visible (ANSI)
100
AcDbLine
 10
10.08447854994722
 20
25.111218279167
 30
0.0
 11
10.08447854994722
 21
25.11079529044711
 31
0.0
  0
LINE
  5
711
330
6C
100
AcDbEntity
  8
Visible (ANSI)
100
AcDbLine
 10
10.1584785499468
 20
23.68261636914558
 30
0.0
 11
10.0844785499468
 21
23.68261636914558
 31
0.0
  0
LINE
  5
712
330
6C
100
AcDbEntity
  8
Visible (ANSI)
100
AcDbLine
 10
10.08447854994682
 20
23.68261636914558
 30
0.0
 11
10.08447854994685
 21
23.77100471679389
 31
0.0
  0
LINE
  5
713
330
6C
100
AcDbEntity
  8
Visible (ANSI)
100
AcDbLine
 10
10.10010354994684
 20
23.77100471679389
 30
0.0
 11
10.08447854994685
 21
23.77100471679389
 31
0.0
  0
LINE
  5
714
330
6C
100
AcDbEntity
  8
Visible (ANSI)
100
AcDbLine
 10
10.08447854994685
 20
23.77100471679389
 30
0.0
 11
10.08447854994684
 21
23.81519889061806
 31
0.0
  0
LINE
  5
715
330
6C
100
AcDbEntity
  8
Visible (ANSI)
100
AcDbLine
 10
10.08447854994684
 20
23.81519889061806
 30
0.0
 11
10.13135354994682
 21
23.81519889061806
 31
0.0
  0
LINE
  5
716
330
6C
100
AcDbEntity
  8
Visible (ANSI)
100
AcDbLine
 10
10.08447854994641
 20
22.38829321566989
 30
0.0
 11
10.0844785499468
 21
23.68261636914558
 31
0.0
  0
LINE
  5
717
330
6C
100
AcDbEntity
  8
Visible (ANSI)
100
AcDbLine
 10
10.08447854994684
 20
23.81519889061806
 30
0.0
 11
10.08447854994722
 21
25.11079529044711
 31
0.0
  0
LINE
  5
718
330
6C
100
AcDbEntity
  8
Visible (ANSI)
100
AcDbLine
 10
10.15847854994684
 20
23.83437916205775
 30
0.0
 11
10.15847854994722
 21
25.11079529044711
 31
0.0
  0
LINE
  5
719
330
6C
100
AcDbEntity
  8
Visible (ANSI)
100
AcDbLine
 10
10.08447854994722
 20
25.11079529044711
 30
0.0
 11
10.15847854994722
 21
25.11079529044711
 31
0.0
  0
LINE
  5
71A
330
6C
100
AcDbEntity
  8
Visible (ANSI)
100
AcDbLine
 10
10.15847854994675
 20
19.73189242541496
 30
0.0
 11
10.15847854994675
 21
21.26134178315382
 31
0.0
  0
LINE
  5
71B
330
6C
100
AcDbEntity
  8
Visible (ANSI)
100
AcDbLine
 10
10.08447854994675
 20
21.26134178315382
 30
0.0
 11
10.15847854994675
 21
21.26134178315382
 31
0.0
  0
LINE
  5
71C
330
6C
100
AcDbEntity
  8
Visible (ANSI)
100
AcDbLine
 10
10.15847854994675
 20
21.26134178315382
 30
0.0
 11
10.15847854994659
 21
21.80436398161884
 31
0.0
  0
LINE
  5
71D
330
6C
100
AcDbEntity
  8
Visible (ANSI)
100
AcDbLine
 10
10.08447854994641
 20
22.38701996931652
 30
0.0
 11
10.12685626292153
 21
22.38701996931652
 31
0.0
  0
LINE
  5
71E
330
6C
100
AcDbEntity
  8
Visible (ANSI)
100
AcDbLine
 10
10.15847854994642
 20
22.4134372207201
 30
0.0
 11
10.1584785499468
 21
23.68261636914558
 31
0.0
  0
LINE
  5
71F
330
6C
100
AcDbEntity
  8
Visible (ANSI)
100
AcDbLine
 10
6.232478549946796
 20
23.68261636914555
 30
0.0
 11
6.158478549946795
 21
23.68261636914555
 31
0.0
  0
LINE
  5
720
330
6C
100
AcDbEntity
  8
Visible (ANSI)
100
AcDbLine
 10
6.158478549946821
 20
23.68261636914555
 30
0.0
 11
6.158478549946848
 21
23.77100471679387
 31
0.0
  0
LINE
  5
721
330
6C
100
AcDbEntity
  8
Visible (ANSI)
100
AcDbLine
 10
6.232478549946847
 20
23.77100471679387
 30
0.0
 11
6.232478549946821
 21
23.68261636914555
 31
0.0
  0
LINE
  5
722
330
6C
100
AcDbEntity
  8
Visible (ANSI)
100
AcDbLine
 10
6.232478549946847
 20
23.77100471679387
 30
0.0
 11
6.158478549946848
 21
23.77100471679387
 31
0.0
  0
LINE
  5
723
330
6C
100
AcDbEntity
  8
Visible (ANSI)
100
AcDbLine
 10
6.158478549946848
 20
23.77100471679387
 30
0.0
 11
6.158478549946835
 21
23.81519889061803
 31
0.0
  0
LINE
  5
724
330
6C
100
AcDbEntity
  8
Visible (ANSI)
100
AcDbLine
 10
6.232478549946835
 20
23.81519889061803
 30
0.0
 11
6.232478549946847
 21
23.77100471679387
 31
0.0
  0
LINE
  5
725
330
6C
100
AcDbEntity
  8
Visible (ANSI)
100
AcDbLine
 10
6.158478549946835
 20
23.81519889061803
 30
0.0
 11
6.232478549946835
 21
23.81519889061803
 31
0.0
  0
LINE
  5
726
330
6C
100
AcDbEntity
  8
Visible (ANSI)
100
AcDbLine
 10
6.158478549946745
 20
19.73189242541496
 30
0.0
 11
6.158478549946744
 21
21.2613417831538
 31
0.0
  0
LINE
  5
727
330
6C
100
AcDbEntity
  8
Visible (ANSI)
100
AcDbLine
 10
6.158478549946744
 20
21.2613417831538
 30
0.0
 11
6.158478549946582
 21
21.80436398161884
 31
0.0
  0
LINE
  5
728
330
6C
100
AcDbEntity
  8
Visible (ANSI)
100
AcDbLine
 10
6.158478549946416
 20
22.4134372207201
 30
0.0
 11
6.158478549946795
 21
23.68261636914555
 31
0.0
  0
LINE
  5
729
330
6C
100
AcDbEntity
  8
Visible (ANSI)
100
AcDbLine
 10
6.158478549946835
 20
23.81519889061803
 30
0.0
 11
6.158478549947221
 21
25.11079529044708
 31
0.0
  0
LINE
  5
72A
330
6C
100
AcDbEntity
  8
Visible (ANSI)
100
AcDbLine
 10
6.232478549946835
 20
23.81519889061803
 30
0.0
 11
6.232478549947221
 21
25.11079529044708
 31
0.0
  0
LINE
  5
72B
330
6C
100
AcDbEntity
  8
Visible (ANSI)
100
AcDbLine
 10
6.15847854994722
 20
25.11079529044708
 30
0.0
 11
6.23247854994722
 21
25.11079529044708
 31
0.0
  0
LINE
  5
72C
330
6C
100
AcDbEntity
  8
Visible (ANSI)
100
AcDbLine
 10
6.158478549946744
 20
21.2613417831538
 30
0.0
 11
6.232478549946745
 21
21.2613417831538
 31
0.0
  0
LINE
  5
72D
330
6C
100
AcDbEntity
  8
Visible (ANSI)
100
AcDbLine
 10
6.190100836971329
 20
22.3870199693165
 30
0.0
 11
6.232478549946409
 21
22.3870199693165
 31
0.0
  0
LINE
  5
72E
330
6C
100
AcDbEntity
  8
Visible (ANSI)
100
AcDbLine
 10
6.232478549946409
 20
22.3882932156699
 30
0.0
 11
6.232478549946796
 21
23.68261636914555
 31
0.0
  0
LINE
  5
72F
330
6C
100
AcDbEntity
  8
Visible (ANSI)
100
AcDbLine
 10
10.08447854994672
 20
19.73189242541495
 30
0.0
 11
10.08447854994672
 21
21.21774580571407
 31
0.0
  0
LINE
  5
730
330
6C
100
AcDbEntity
  8
Visible (ANSI)
100
AcDbLine
 10
6.232478549946693
 20
21.21774580571407
 30
0.0
 11
6.232478549946694
 21
19.73189242541495
 31
0.0
  0
LINE
  5
731
330
6C
100
AcDbEntity
  8
Visible (ANSI)
100
AcDbLine
 10
8.252228549946398
 20
22.38829321566989
 30
0.0
 11
8.252228549946392
 21
22.36783969787687
 31
0.0
  0
LINE
  5
732
330
6C
100
AcDbEntity
  8
Visible (ANSI)
100
AcDbLine
 10
8.064728549946391
 20
22.36783969787687
 30
0.0
 11
8.064728549946396
 21
22.38829321566989
 31
0.0
  0
LINE
  5
733
330
6C
100
AcDbEntity
  8
Visible (ANSI)
100
AcDbLine
 10
10.08447854994641
 20
22.3882932156699
 30
0.0
 11
8.252228549946398
 21
22.3882932156699
 31
0.0
  0
LINE
  5
734
330
6C
100
AcDbEntity
  8
Visible (ANSI)
100
AcDbLine
 10
8.064728549946396
 20
22.38829321566989
 30
0.0
 11
6.232478549946383
 21
22.38829321566989
 31
0.0
  0
LINE
  5
735
330
6C
100
AcDbEntity
  8
Visible (ANSI)
100
AcDbLine
 10
10.08447854994641
 20
22.37145302156471
 30
0.0
 11
10.08447854994641
 21
22.3882932156699
 31
0.0
  0
LINE
  5
736
330
6C
100
AcDbEntity
  8
Visible (ANSI)
100
AcDbLine
 10
6.232478549946524
 20
21.80436398161884
 30
0.0
 11
6.232478549946692
 21
21.23984289262615
 31
0.0
  0
LINE
  5
737
330
6C
100
AcDbEntity
  8
Visible (ANSI)
100
AcDbLine
 10
6.232478549946376
 20
22.37145302156471
 30
0.0
 11
6.232478549946383
 21
22.3882932156699
 31
0.0
  0
LINE
  5
738
330
6C
100
AcDbEntity
  8
Visible (ANSI)
100
AcDbLine
 10
10.08447854994655
 20
21.80436398161884
 30
0.0
 11
10.08447854994672
 21
21.23984289262615
 31
0.0
  0
LINE
  5
739
330
6C
100
AcDbEntity
  8
Visible (ANSI)
100
AcDbLine
 10
10.08447854994672
 20
21.23984289262615
 30
0.0
 11
10.08447854994672
 21
21.21774580571407
 31
0.0
  0
LINE
  5
73A
330
6C
100
AcDbEntity
  8
Visible (ANSI)
100
AcDbLine
 10
6.232478549946693
 20
21.23984289262615
 30
0.0
 11
6.232478549946695
 21
21.21774580571407
 31
0.0
  0
LINE
  5
73B
330
6C
100
AcDbEntity
  8
Visible (ANSI)
100
AcDbLine
 10
10.1001035499468
 20
23.79310180370599
 30
0.0
 11
10.17410354994681
 21
23.8454277055138
 31
0.0
  0
LINE
  5
73C
330
6C
100
AcDbEntity
  8
Visible (ANSI)
100
AcDbLine
 10
10.10010354994682
 20
23.70471345605767
 30
0.0
 11
10.1001035499468
 21
23.79310180370599
 31
0.0
  0
LINE
  5
73D
330
6C
100
AcDbEntity
  8
Visible (ANSI)
100
AcDbLine
 10
10.17410354994678
 20
23.74077590189819
 30
0.0
 11
10.1001035499468
 21
23.79310180370599
 31
0.0
  0
LINE
  5
73E
330
6C
100
AcDbEntity
  8
Visible (ANSI)
100
AcDbLine
 10
10.17410354994681
 20
23.65238755424987
 30
0.0
 11
10.15847854994682
 21
23.6634360977059
 31
0.0
  0
LINE
  5
73F
330
6C
100
AcDbEntity
  8
Visible (ANSI)
100
AcDbLine
 10
10.13135354994683
 20
23.68261636914558
 30
0.0
 11
10.10010354994682
 21
23.70471345605767
 31
0.0
  0
LINE
  5
740
330
6C
100
AcDbEntity
  8
Visible (ANSI)
100
AcDbLine
 10
8.232478549947222
 20
25.21836390953512
 30
0.0
 11
8.158478549947206
 21
25.16603800772732
 31
0.0
  0
LINE
  5
741
330
6C
100
AcDbEntity
  8
Visible (ANSI)
100
AcDbLine
 10
8.158478549947231
 20
25.0780726487989
 30
0.0
 11
8.158478549947206
 21
25.16603800772732
 31
0.0
  0
LINE
  5
742
330
6C
100
AcDbEntity
  8
Visible (ANSI)
100
AcDbLine
 10
8.232478549947247
 20
25.12997556188679
 30
0.0
 11
8.21745174633164
 21
25.11935000715065
 31
0.0
  0
LINE
  5
743
330
6C
100
AcDbEntity
  8
Visible (ANSI)
100
AcDbLine
 10
8.232478549947222
 20
25.21836390953512
 30
0.0
 11
8.232478549947247
 21
25.12997556188679
 31
0.0
  0
LINE
  5
744
330
6C
100
AcDbEntity
  8
Visible (ANSI)
100
AcDbLine
 10
8.158478549947206
 20
25.16603800772732
 30
0.0
 11
8.084478549947222
 21
25.21836390953512
 31
0.0
  0
LINE
  5
745
330
6C
100
AcDbEntity
  8
Visible (ANSI)
100
AcDbLine
 10
8.084478549947247
 20
25.12997556188679
 30
0.0
 11
8.084478549947222
 21
25.21836390953512
 31
0.0
  0
LINE
  5
746
330
6C
100
AcDbEntity
  8
Visible (ANSI)
100
AcDbLine
 10
8.09950535356285
 20
25.11935000715065
 30
0.0
 11
8.084478549947247
 21
25.12997556188679
 31
0.0
  0
LINE
  5
747
330
6C
100
AcDbEntity
  8
Visible (ANSI)
100
AcDbLine
 10
8.084478549946375
 20
22.36783969787687
 30
0.0
 11
8.158478549946391
 21
22.42016559968468
 31
0.0
  0
LINE
  5
748
330
6C
100
AcDbEntity
  8
Visible (ANSI)
100
AcDbLine
 10
8.158478549946391
 20
22.42016559968468
 30
0.0
 11
8.232478549946375
 21
22.36783969787687
 31
0.0
  0
LINE
  5
749
330
6C
100
AcDbEntity
  8
Visible (ANSI)
100
AcDbLine
 10
10.17410354994719
 20
25.12997556188679
 30
0.0
 11
10.17410354994681
 21
23.8454277055138
 31
0.0
  0
LINE
  5
74A
330
6C
100
AcDbEntity
  8
Visible (ANSI)
100
AcDbLine
 10
10.17410354994678
 20
23.74077590189819
 30
0.0
 11
10.1741035499464
 21
22.45622804552519
 31
0.0
  0
LINE
  5
74B
330
6C
100
AcDbEntity
  8
Visible (ANSI)
100
AcDbLine
 10
6.267853549947222
 20
25.21836390953512
 30
0.0
 11
8.084478549947222
 21
25.21836390953512
 31
0.0
  0
LINE
  5
74C
330
6C
100
AcDbEntity
  8
Visible (ANSI)
100
AcDbLine
 10
8.084478549947247
 20
25.12997556188679
 30
0.0
 11
8.064728549947256
 21
25.12997556188679
 31
0.0
  0
LINE
  5
74D
330
6C
100
AcDbEntity
  8
Visible (ANSI)
100
AcDbLine
 10
8.252228549947256
 20
25.12997556188679
 30
0.0
 11
8.232478549947247
 21
25.12997556188679
 31
0.0
  0
LINE
  5
74E
330
6C
100
AcDbEntity
  8
Visible (ANSI)
100
AcDbLine
 10
8.232478549947222
 20
25.21836390953512
 30
0.0
 11
10.04910354994722
 21
25.21836390953512
 31
0.0
  0
LINE
  5
74F
330
6C
100
AcDbEntity
  8
Visible (ANSI)
100
AcDbLine
 10
8.084478549946375
 20
22.36783969787687
 30
0.0
 11
6.267853549946377
 21
22.36783969787687
 31
0.0
  0
LINE
  5
750
330
6C
100
AcDbEntity
  8
Visible (ANSI)
100
AcDbLine
 10
10.04910354994637
 20
22.36783969787687
 30
0.0
 11
8.232478549946375
 21
22.36783969787687
 31
0.0
  0
ELLIPSE
  5
751
330
6C
100
AcDbEntity
  8
Visible (ANSI)
100
AcDbEllipse
 10
10.04910354994722
 20
25.04158721423848
 30
0.0
 11
0.1249999999999957
 21
-0.0000000000000005
 31
0.0
210
0.0
220
0.0
230
1.0
 40
0.7071067811865417
 41
0.0000000000008528
 42
0.5053605102847829
  0
ELLIPSE
  5
752
330
6C
100
AcDbEntity
  8
Visible (ANSI)
100
AcDbEllipse
 10
10.04910354994722
 20
25.04158721423848
 30
0.0
 11
-0.1249999999999916
 21
-0.0000000000000463
 31
0.0
210
0.0
220
0.0
230
1.0
 40
0.7071067811865418
 41
4.041066919761057
 42
4.425468440625914
  0
ELLIPSE
  5
753
330
6C
100
AcDbEntity
  8
Visible (ANSI)
100
AcDbEllipse
 10
10.04910354994719
 20
25.1299755618868
 30
0.0
 11
0.1249999999999999
 21
-0.0000000000000002
 31
0.0
210
0.0
220
0.0
230
1.0
 40
0.7071067811865416
 41
0.0
 42
1.57079632679448
  0
ELLIPSE
  5
754
330
6C
100
AcDbEntity
  8
Visible (ANSI)
100
AcDbEllipse
 10
6.26785354994722
 20
25.04158721423848
 30
0.0
 11
-0.1249999999999934
 21
-0.0000000000000371
 31
0.0
210
0.0
220
0.0
230
1.0
 40
0.7071067811865416
 41
4.999309520142441
 42
5.383711041008034
  0
ELLIPSE
  5
755
330
6C
100
AcDbEntity
  8
Visible (ANSI)
100
AcDbEllipse
 10
6.267853549947213
 20
25.04158721423848
 30
0.0
 11
-0.1249999999999912
 21
-0.0000000000000372
 31
0.0
210
0.0
220
0.0
230
1.0
 40
0.7071067811865417
 41
5.77782479689493
 42
6.283185307179166
  0
ELLIPSE
  5
756
330
6C
100
AcDbEntity
  8
Visible (ANSI)
100
AcDbEllipse
 10
6.267853549947196
 20
25.12997556188679
 30
0.0
 11
-0.1249999999999999
 21
0.0
 31
0.0
210
0.0
220
0.0
230
1.0
 40
0.7071067811865416
 41
4.712388980384904
 42
6.283185307180428
  0
LINE
  5
757
330
6C
100
AcDbEntity
  8
Visible (ANSI)
100
AcDbLine
 10
6.142853549946402
 20
22.45622804552519
 30
0.0
 11
6.142853549947195
 21
25.1299755618868
 31
0.0
  0
ELLIPSE
  5
758
330
6C
100
AcDbEntity
  8
Visible (ANSI)
100
AcDbEllipse
 10
6.267853549946402
 20
22.45622804552518
 30
0.0
 11
-0.1249999999999988
 21
-0.0000000000000005
 31
0.0
210
0.0
220
0.0
230
1.0
 40
0.7071067811865416
 41
0.0
 42
1.57079632679449
  0
ELLIPSE
  5
759
330
6C
100
AcDbEntity
  8
Visible (ANSI)
100
AcDbEllipse
 10
10.0491035499464
 20
22.45622804552519
 30
0.0
 11
0.1249999999999995
 21
0.0000000000000005
 31
0.0
210
0.0
220
0.0
230
1.0
 40
0.7071067811865415
 41
4.712388980384879
 42
6.283185307180416
  0
ELLIPSE
  5
75A
330
6C
100
AcDbEntity
  8
Visible (ANSI)
100
AcDbEllipse
 10
10.47097854994728
 20
25.42828623519987
 30
0.0
 11
0.3750000000000014
 21
-0.0000000000000004
 31
0.0
210
0.0
220
0.0
230
1.0
 40
0.7071067811865416
 41
0.0
 42
1.57079632679447
  0
LINE
  5
75B
330
6C
100
AcDbEntity
  8
Visible (ANSI)
100
AcDbLine
 10
5.845978549947363
 20
25.69345127814482
 30
0.0
 11
10.47097854994736
 21
25.69345127814482
 31
0.0
  0
ELLIPSE
  5
75C
330
6C
100
AcDbEntity
  8
Visible (ANSI)
100
AcDbEllipse
 10
5.845978549947286
 20
25.42828623519987
 30
0.0
 11
-0.3750000000000007
 21
-0.0000000000000001
 31
0.0
210
0.0
220
0.0
230
1.0
 40
0.7071067811865416
 41
4.712388980384901
 42
6.283185307180428
  0
LINE
  5
75D
330
6C
100
AcDbEntity
  8
Visible (ANSI)
100
AcDbLine
 10
5.470978549946314
 20
22.15791737221211
 30
0.0
 11
5.47097854994634
 21
22.0695290245638
 31
0.0
  0
LINE
  5
75E
330
6C
100
AcDbEntity
  8
Visible (ANSI)
100
AcDbLine
 10
5.470978549946314
 20
22.15791737221211
 30
0.0
 11
5.470978549947284
 21
25.42828623519987
 31
0.0
  0
ELLIPSE
  5
75F
330
6C
100
AcDbEntity
  8
Visible (ANSI)
100
AcDbEllipse
 10
5.84597854994634
 20
22.0695290245638
 30
0.0
 11
-0.3750000000000004
 21
-0.0000000000000001
 31
0.0
210
0.0
220
0.0
230
1.0
 40
0.7071067811865416
 41
0.0000000000008416
 42
1.570796326795105
  0
ELLIPSE
  5
760
330
6C
100
AcDbEntity
  8
Visible (ANSI)
100
AcDbEllipse
 10
5.845978549946314
 20
22.15791737221211
 30
0.0
 11
-0.3750000000000004
 21
0.0000000000000004
 31
0.0
210
0.0
220
0.0
230
1.0
 40
0.7071067811865416
 41
0.0
 42
1.570796326794474
  0
LINE
  5
761
330
6C
100
AcDbEntity
  8
Visible (ANSI)
100
AcDbLine
 10
5.84597854994626
 20
21.80436398161884
 30
0.0
 11
10.47097854994626
 21
21.80436398161884
 31
0.0
  0
LINE
  5
762
330
6C
100
AcDbEntity
  8
Visible (ANSI)
100
AcDbLine
 10
10.47097854994623
 20
21.89275232926716
 30
0.0
 11
5.845978549946234
 21
21.89275232926716
 31
0.0
  0
ELLIPSE
  5
763
330
6C
100
AcDbEntity
  8
Visible (ANSI)
100
AcDbEllipse
 10
10.47097854994634
 20
22.0695290245638
 30
0.0
 11
0.3750000000000004
 21
-0.0000000000000002
 31
0.0
210
0.0
220
0.0
230
1.0
 40
0.7071067811865416
 41
4.712388980384272
 42
6.283185307179796
  0
LINE
  5
764
330
6C
100
AcDbEntity
  8
Visible (ANSI)
100
AcDbLine
 10
10.84597854994631
 20
22.15791737221211
 30
0.0
 11
10.84597854994634
 21
22.0695290245638
 31
0.0
  0
ELLIPSE
  5
765
330
6C
100
AcDbEntity
  8
Visible (ANSI)
100
AcDbEllipse
 10
10.47097854994631
 20
22.15791737221211
 30
0.0
 11
0.3750000000000004
 21
0.0000000000000003
 31
0.0
210
0.0
220
0.0
230
1.0
 40
0.7071067811865416
 41
4.712388980384897
 42
6.283185307180425
  0
LINE
  5
766
330
6C
100
AcDbEntity
  8
Visible (ANSI)
100
AcDbLine
 10
10.84597854994728
 20
25.42828623519987
 30
0.0
 11
10.84597854994631
 21
22.15791737221211
 31
0.0
  0
ELLIPSE
  5
767
330
6C
100
AcDbEntity
  8
Visible (ANSI)
100
AcDbEllipse
 10
5.845978549947286
 20
25.42828623519987
 30
0.0
 11
-0.140625
 21
0.0
 31
0.0
210
0.0
220
0.0
230
1.0
 40
0.7071067811865416
 41
0.0
 42
6.283185307179586
  0
ELLIPSE
  5
768
330
6C
100
AcDbEntity
  8
Visible (ANSI)
100
AcDbEllipse
 10
5.845978549947312
 20
25.33989788755155
 30
0.0
 11
-0.1406250000000002
 21
-0.0000000000000521
 31
0.0
210
0.0
220
0.0
230
1.0
 40
0.7071067811865417
 41
3.60214664527049
 42
5.822631315497602
  0
ELLIPSE
  5
769
330
6C
100
AcDbEntity
  8
Visible (ANSI)
100
AcDbEllipse
 10
5.845978549946313
 20
22.15791737221211
 30
0.0
 11
-0.140625
 21
0.0
 31
0.0
210
0.0
220
0.0
230
1.0
 40
0.7071067811865416
 41
0.0
 42
6.283185307179586
  0
ELLIPSE
  5
76A
330
6C
100
AcDbEntity
  8
Visible (ANSI)
100
AcDbEllipse
 10
5.845978549946338
 20
22.0695290245638
 30
0.0
 11
-0.1406249999999999
 21
-0.000000000000052
 31
0.0
210
0.0
220
0.0
230
1.0
 40
0.7071067811865415
 41
3.60214664527046
 42
5.822631315497566
  0
ELLIPSE
  5
76B
330
6C
100
AcDbEntity
  8
Visible (ANSI)
100
AcDbEllipse
 10
10.47097854994728
 20
25.42828623519987
 30
0.0
 11
-0.140625
 21
0.0
 31
0.0
210
0.0
220
0.0
230
1.0
 40
0.7071067811865416
 41
0.0
 42
6.283185307179586
  0
ELLIPSE
  5
76C
330
6C
100
AcDbEntity
  8
Visible (ANSI)
100
AcDbEllipse
 10
10.47097854994731
 20
25.33989788755155
 30
0.0
 11
-0.140625
 21
-0.0000000000000521
 31
0.0
210
0.0
220
0.0
230
1.0
 40
0.7071067811865415
 41
3.602146645270494
 42
5.822631315497602
  0
ELLIPSE
  5
76D
330
6C
100
AcDbEntity
  8
Visible (ANSI)
100
AcDbEllipse
 10
10.47097854994631
 20
22.15791737221211
 30
0.0
 11
-0.140625
 21
0.0
 31
0.0
210
0.0
220
0.0
230
1.0
 40
0.7071067811865416
 41
0.0
 42
6.283185307179586
  0
ELLIPSE
  5
76E
330
6C
100
AcDbEntity
  8
Visible (ANSI)
100
AcDbEllipse
 10
10.47097854994633
 20
22.0695290245638
 30
0.0
 11
-0.140625
 21
-0.0000000000000521
 31
0.0
210
0.0
220
0.0
230
1.0
 40
0.7071067811865415
 41
3.602146645270494
 42
5.822631315497602
  0
LINE
  5
76F
330
6C
100
AcDbEntity
  8
Visible (ANSI)
100
AcDbLine
 10
10.84597854994663
 20
19.60689242541495
 30
0.0
 11
10.47097854994652
 21
19.60689242541495
 31
0.0
  0
LINE
  5
770
330
6C
100
AcDbEntity
  8
Visible (ANSI)
100
AcDbLine
 10
10.84597854994663
 20
19.73189242541496
 30
0.0
 11
10.84597854994663
 21
19.60689242541495
 31
0.0
  0
LINE
  5
771
330
6C
100
AcDbEntity
  8
Visible (ANSI)
100
AcDbLine
 10
10.47097854994652
 20
19.73189242541496
 30
0.0
 11
10.84597854994663
 21
19.73189242541496
 31
0.0
  0
LINE
  5
772
330
6C
100
AcDbEntity
  8
Visible (ANSI)
100
AcDbLine
 10
5.470978549946633
 20
19.73189242541495
 30
0.0
 11
5.470978549946633
 21
19.60689242541495
 31
0.0
  0
LINE
  5
773
330
6C
100
AcDbEntity
  8
Visible (ANSI)
100
AcDbLine
 10
5.845978549946522
 20
19.60689242541495
 30
0.0
 11
5.470978549946633
 21
19.60689242541495
 31
0.0
  0
LINE
  5
774
330
6C
100
AcDbEntity
  8
Visible (ANSI)
100
AcDbLine
 10
5.470978549946633
 20
19.73189242541495
 30
0.0
 11
5.845978549946522
 21
19.73189242541495
 31
0.0
  0
LINE
  5
775
330
6C
100
AcDbEntity
  8
Visible (ANSI)
100
AcDbLine
 10
5.845978549946521
 20
19.60689242541495
 30
0.0
 11
10.47097854994652
 21
19.60689242541495
 31
0.0
  0
LINE
  5
776
330
6C
100
AcDbEntity
  8
Visible (ANSI)
100
AcDbLine
 10
10.47097854994652
 20
19.73189242541496
 30
0.0
 11
5.845978549946521
 21
19.73189242541495
 31
0.0
  0
MTEXT
  5
777
330
6C
100
AcDbEntity
  8
Symbol (ANSI)
100
AcDbMText
 10
6.872347582579005
 20
16.47567892361119
 30
0.0
 40
0.3200000039548698
 41
0.0
 46
0.0
 71
     7
 72
     1
  1
FRONT VIEW
  7
Text Style168
 73
     1
 44
1.0
  0
LINE
  5
778
330
6C
100
AcDbEntity
  8
Symbol (ANSI)
370
    30
100
AcDbLine
 10
6.840347500263307
 20
16.41042122394482
 30
0.0
 11
9.413054178358446
 21
16.41042122394482
 31
0.0
  0
DIMENSION
  5
779
330
6C
100
AcDbEntity
  8
Dimension (ANSI)
100
AcDbDimension
280
     0
  2
*D10
 10
10.15847854994675
 20
18.83558728322663
 30
0.0
 11
8.158478549946746
 21
18.83558728322663
 31
0.0
 70
   160
  1
<>{\PTYP.}
 71
     5
 42
4.000000000000003
 73
     0
 74
     0
 75
     0
  3
Default (ANSI)
100
AcDbAlignedDimension
 13
6.158478549946744
 23
19.66939242541496
 33
0.0
 14
10.15847854994675
 24
19.66939242541499
 34
0.0
100
AcDbRotatedDimension
1001
ACAD
1000
DSTYLE
1002
{
1070
   289
1070
     1
1070
    73
1070
     0
1070
    74
1070
     0
1070
   271
1070
     2
1070
   272
1070
     2
1070
    48
1040
0.0
1070
    47
1040
0.0
1002
}
  0
DIMENSION
  5
877
330
6C
100
AcDbEntity
  8
Dimension (ANSI)
100
AcDbDimension
280
     0
  2
*D11
 10
4.166188523701095
 20
25.69345127814482
 30
0.0
 11
4.166188523701092
 21
22.65017185177988
 31
0.0
 70
   160
  1
(<>)
 42
6.086558852729861
 73
     0
 74
     0
 75
     0
  3
Default (ANSI)
100
AcDbAlignedDimension
 13
5.470978549946631
 23
19.60689242541495
 33
0.0
 14
5.845978549947363
 24
25.69345127814482
 34
0.0
 50
270.0
100
AcDbRotatedDimension
1001
ACAD
1000
DSTYLE
1002
{
1070
   289
1070
     1
1070
   271
1070
     2
1070
   147
1040
0.031496062992126
1070
    72
1070
     0
1070
    71
1070
     0
1070
   272
1070
     2
1070
    48
1040
0.0
1070
    47
1040
0.0
1002
}
  0
LINE
  5
96B
330
6C
100
AcDbEntity
  8
Visible (ANSI)
100
AcDbLine
 10
8.252228549942891
 20
6.906772231592828
 30
0.0
 11
8.252228549942913
 21
6.832772231592827
 31
0.0
  0
LINE
  5
96C
330
6C
100
AcDbEntity
  8
Visible (ANSI)
100
AcDbLine
 10
8.064728549942913
 20
6.832772231592772
 30
0.0
 11
8.064728549942891
 21
6.906772231592772
 31
0.0
  0
LINE
  5
96D
330
6C
100
AcDbEntity
  8
Visible (ANSI)
100
AcDbLine
 10
8.064728549942891
 20
6.906772231592791
 30
0.0
 11
8.252228549942891
 21
6.906772231592846
 31
0.0
  0
LINE
  5
96E
330
6C
100
AcDbEntity
  8
Visible (ANSI)
100
AcDbLine
 10
8.252228549942913
 20
6.832772231592846
 30
0.0
 11
8.064728549942913
 21
6.83277223159279
 31
0.0
  0
LINE
  5
96F
330
6C
100
AcDbEntity
  8
Visible (ANSI)
100
AcDbLine
 10
8.252228549942891
 20
6.906772231592828
 30
0.0
 11
10.08447854994289
 21
6.906772231593371
 31
0.0
  0
LINE
  5
970
330
6C
100
AcDbEntity
  8
Visible (ANSI)
100
AcDbLine
 10
6.232478549942891
 20
6.906772231592229
 30
0.0
 11
8.064728549942891
 21
6.906772231592772
 31
0.0
  0
LINE
  5
971
330
6C
100
AcDbEntity
  8
Visible (ANSI)
100
AcDbLine
 10
8.252228549942913
 20
6.832772231592827
 30
0.0
 11
10.08447854994291
 21
6.832772231593371
 31
0.0
  0
LINE
  5
972
330
6C
100
AcDbEntity
  8
Visible (ANSI)
100
AcDbLine
 10
10.08447854994289
 20
6.906772231593371
 30
0.0
 11
10.08447854994291
 21
6.832772231593371
 31
0.0
  0
LINE
  5
973
330
6C
100
AcDbEntity
  8
Visible (ANSI)
100
AcDbLine
 10
6.232478549942891
 20
6.906772231592229
 30
0.0
 11
6.232478549942913
 21
6.832772231592229
 31
0.0
  0
LINE
  5
974
330
6C
100
AcDbEntity
  8
Visible (ANSI)
100
AcDbLine
 10
6.232478549942913
 20
6.832772231592229
 30
0.0
 11
8.064728549942913
 21
6.832772231592772
 31
0.0
  0
LINE
  5
975
330
6C
100
AcDbEntity
  8
Visible (ANSI)
100
AcDbLine
 10
8.252228549942222
 20
9.16109808534645
 30
0.0
 11
8.252228549942234
 21
9.116903911522278
 31
0.0
  0
LINE
  5
976
330
6C
100
AcDbEntity
  8
Visible (ANSI)
100
AcDbLine
 10
8.252228549942234
 20
9.116903911522278
 30
0.0
 11
8.064728549942234
 21
9.116903911522221
 31
0.0
  0
LINE
  5
977
330
6C
100
AcDbEntity
  8
Visible (ANSI)
100
AcDbLine
 10
8.064728549942236
 20
9.116903911522221
 30
0.0
 11
8.064728549942222
 21
9.161098085346395
 31
0.0
  0
LINE
  5
978
330
6C
100
AcDbEntity
  8
Visible (ANSI)
100
AcDbLine
 10
10.08447854994222
 20
9.161098085346994
 30
0.0
 11
8.252228549942222
 21
9.16109808534645
 31
0.0
  0
LINE
  5
979
330
6C
100
AcDbEntity
  8
Visible (ANSI)
100
AcDbLine
 10
8.064728549942222
 20
9.161098085346395
 30
0.0
 11
6.232478549942221
 21
9.16109808534585
 31
0.0
  0
LINE
  5
97A
330
6C
100
AcDbEntity
  8
Visible (ANSI)
100
AcDbLine
 10
10.15847854994234
 20
8.739022231593379
 30
0.0
 11
10.08447854994234
 21
8.739022231593356
 31
0.0
  0
LINE
  5
97B
330
6C
100
AcDbEntity
  8
Visible (ANSI)
100
AcDbLine
 10
10.08447854994234
 20
8.739022231593377
 30
0.0
 11
10.08447854994229
 21
8.92652223159337
 31
0.0
  0
LINE
  5
97C
330
6C
100
AcDbEntity
  8
Visible (ANSI)
100
AcDbLine
 10
10.15847854994229
 20
8.926522231593393
 30
0.0
 11
10.1584785499423
 21
8.891147231593391
 31
0.0
  0
LINE
  5
97D
330
6C
100
AcDbEntity
  8
Visible (ANSI)
100
AcDbLine
 10
10.15847854994233
 20
8.77439723159339
 30
0.0
 11
10.15847854994234
 21
8.739022231593398
 31
0.0
  0
LINE
  5
97E
330
6C
100
AcDbEntity
  8
Visible (ANSI)
100
AcDbLine
 10
10.08447854994229
 20
8.926522231593352
 30
0.0
 11
10.15847854994229
 21
8.926522231593374
 31
0.0
  0
LINE
  5
97F
330
6C
100
AcDbEntity
  8
Visible (ANSI)
100
AcDbLine
 10
10.15847854994229
 20
8.926522231593374
 30
0.0
 11
10.15847854994174
 21
10.75877223159337
 31
0.0
  0
LINE
  5
980
330
6C
100
AcDbEntity
  8
Visible (ANSI)
100
AcDbLine
 10
10.08447854994174
 20
10.75877223159335
 30
0.0
 11
10.15847854994174
 21
10.75877223159337
 31
0.0
  0
LINE
  5
981
330
6C
100
AcDbEntity
  8
Visible (ANSI)
100
AcDbLine
 10
10.08447854994229
 20
8.926522231593352
 30
0.0
 11
10.08447854994174
 21
10.75877223159335
 31
0.0
  0
LINE
  5
982
330
6C
100
AcDbEntity
  8
Visible (ANSI)
100
AcDbLine
 10
10.08447854994289
 20
6.906772231593363
 30
0.0
 11
10.08447854994234
 21
8.739022231593356
 31
0.0
  0
LINE
  5
983
330
6C
100
AcDbEntity
  8
Visible (ANSI)
100
AcDbLine
 10
10.15847854994174
 20
10.75877223159385
 30
0.0
 11
10.15847854994174
 21
10.78391259637833
 31
0.0
  0
LINE
  5
984
330
6C
100
AcDbEntity
  8
Visible (ANSI)
100
AcDbLine
 10
10.15847854994152
 20
11.52027223159406
 30
0.0
 11
10.15847854994142
 21
11.8580331663533
 31
0.0
  0
LINE
  5
985
330
6C
100
AcDbEntity
  8
Visible (ANSI)
100
AcDbLine
 10
10.08447854994141
 20
11.88445041775685
 30
0.0
 11
10.12685626291655
 21
11.88445041775687
 31
0.0
  0
LINE
  5
986
330
6C
100
AcDbEntity
  8
Visible (ANSI)
100
AcDbLine
 10
10.08447854994289
 20
6.906772231593363
 30
0.0
 11
10.15847854994289
 21
6.906772231593386
 31
0.0
  0
LINE
  5
987
330
6C
100
AcDbEntity
  8
Visible (ANSI)
100
AcDbLine
 10
10.15847854994289
 20
6.906772231593386
 30
0.0
 11
10.15847854994234
 21
8.739022231593379
 31
0.0
  0
LINE
  5
988
330
6C
100
AcDbEntity
  8
Visible (ANSI)
100
AcDbLine
 10
6.232478549942345
 20
8.739022231592224
 30
0.0
 11
6.158478549942344
 21
8.739022231592201
 31
0.0
  0
LINE
  5
989
330
6C
100
AcDbEntity
  8
Visible (ANSI)
100
AcDbLine
 10
6.158478549942343
 20
8.739022231592221
 30
0.0
 11
6.158478549942333
 21
8.77439723159221
 31
0.0
  0
LINE
  5
98A
330
6C
100
AcDbEntity
  8
Visible (ANSI)
100
AcDbLine
 10
6.158478549942298
 20
8.891147231592217
 30
0.0
 11
6.158478549942288
 21
8.926522231592215
 31
0.0
  0
LINE
  5
98B
330
6C
100
AcDbEntity
  8
Visible (ANSI)
100
AcDbLine
 10
6.232478549942289
 20
8.926522231592239
 30
0.0
 11
6.232478549942344
 21
8.739022231592242
 31
0.0
  0
LINE
  5
98C
330
6C
100
AcDbEntity
  8
Visible (ANSI)
100
AcDbLine
 10
6.158478549942288
 20
8.926522231592199
 30
0.0
 11
6.232478549942289
 21
8.926522231592221
 31
0.0
  0
LINE
  5
98D
330
6C
100
AcDbEntity
  8
Visible (ANSI)
100
AcDbLine
 10
6.232478549942289
 20
8.926522231592221
 30
0.0
 11
6.232478549941743
 21
10.75877223159223
 31
0.0
  0
LINE
  5
98E
330
6C
100
AcDbEntity
  8
Visible (ANSI)
100
AcDbLine
 10
6.158478549941743
 20
10.75877223159221
 30
0.0
 11
6.232478549941743
 21
10.75877223159223
 31
0.0
  0
LINE
  5
98F
330
6C
100
AcDbEntity
  8
Visible (ANSI)
100
AcDbLine
 10
6.158478549942288
 20
8.926522231592199
 30
0.0
 11
6.158478549941742
 21
10.7587722315922
 31
0.0
  0
LINE
  5
990
330
6C
100
AcDbEntity
  8
Visible (ANSI)
100
AcDbLine
 10
6.158478549941742
 20
10.75877223159268
 30
0.0
 11
6.158478549941734
 21
10.78391259637717
 31
0.0
  0
LINE
  5
991
330
6C
100
AcDbEntity
  8
Visible (ANSI)
100
AcDbLine
 10
6.158478549941514
 20
11.52027223159291
 30
0.0
 11
6.158478549941413
 21
11.85803316635217
 31
0.0
  0
LINE
  5
992
330
6C
100
AcDbEntity
  8
Visible (ANSI)
100
AcDbLine
 10
6.15847854994289
 20
6.906772231592197
 30
0.0
 11
6.158478549942344
 21
8.739022231592201
 31
0.0
  0
LINE
  5
993
330
6C
100
AcDbEntity
  8
Visible (ANSI)
100
AcDbLine
 10
6.190100836966245
 20
11.88445041775573
 30
0.0
 11
6.232478549941406
 21
11.88445041775574
 31
0.0
  0
LINE
  5
994
330
6C
100
AcDbEntity
  8
Visible (ANSI)
100
AcDbLine
 10
6.15847854994289
 20
6.906772231592197
 30
0.0
 11
6.23247854994289
 21
6.906772231592219
 31
0.0
  0
LINE
  5
995
330
6C
100
AcDbEntity
  8
Visible (ANSI)
100
AcDbLine
 10
6.23247854994289
 20
6.906772231592219
 30
0.0
 11
6.232478549942344
 21
8.739022231592223
 31
0.0
  0
LINE
  5
996
330
6C
100
AcDbEntity
  8
Visible (ANSI)
100
AcDbLine
 10
8.25222854994171
 20
10.83277223159281
 30
0.0
 11
8.252228549941733
 21
10.75877223159282
 31
0.0
  0
LINE
  5
997
330
6C
100
AcDbEntity
  8
Visible (ANSI)
100
AcDbLine
 10
8.064728549941731
 20
10.75877223159276
 30
0.0
 11
8.06472854994171
 21
10.83277223159276
 31
0.0
  0
LINE
  5
998
330
6C
100
AcDbEntity
  8
Visible (ANSI)
100
AcDbLine
 10
8.064728549941708
 20
10.83277223159278
 30
0.0
 11
8.100103549941705
 21
10.83277223159279
 31
0.0
  0
LINE
  5
999
330
6C
100
AcDbEntity
  8
Visible (ANSI)
100
AcDbLine
 10
8.216853549941717
 20
10.83277223159282
 30
0.0
 11
8.25222854994171
 21
10.83277223159283
 31
0.0
  0
LINE
  5
99A
330
6C
100
AcDbEntity
  8
Visible (ANSI)
100
AcDbLine
 10
8.252228549941733
 20
10.75877223159283
 30
0.0
 11
8.06472854994173
 21
10.75877223159278
 31
0.0
  0
LINE
  5
99B
330
6C
100
AcDbEntity
  8
Visible (ANSI)
100
AcDbLine
 10
8.25222854994171
 20
10.83277223159281
 30
0.0
 11
10.08447854994172
 21
10.83277223159336
 31
0.0
  0
LINE
  5
99C
330
6C
100
AcDbEntity
  8
Visible (ANSI)
100
AcDbLine
 10
6.232478549941693
 20
10.83277223159222
 30
0.0
 11
8.06472854994171
 21
10.83277223159276
 31
0.0
  0
LINE
  5
99D
330
6C
100
AcDbEntity
  8
Visible (ANSI)
100
AcDbLine
 10
8.252228549941733
 20
10.75877223159282
 30
0.0
 11
10.08447854994175
 21
10.75877223159336
 31
0.0
  0
LINE
  5
99E
330
6C
100
AcDbEntity
  8
Visible (ANSI)
100
AcDbLine
 10
10.08447854994172
 20
10.83277223159336
 30
0.0
 11
10.08447854994175
 21
10.75877223159336
 31
0.0
  0
LINE
  5
99F
330
6C
100
AcDbEntity
  8
Visible (ANSI)
100
AcDbLine
 10
6.232478549941693
 20
10.83277223159222
 30
0.0
 11
6.232478549941714
 21
10.75877223159221
 31
0.0
  0
LINE
  5
9A0
330
6C
100
AcDbEntity
  8
Visible (ANSI)
100
AcDbLine
 10
6.232478549941714
 20
10.75877223159221
 30
0.0
 11
8.064728549941731
 21
10.75877223159276
 31
0.0
  0
LINE
  5
9A1
330
6C
100
AcDbEntity
  8
Visible (ANSI)
100
AcDbLine
 10
8.252228549941392
 20
11.90363068919598
 30
0.0
 11
8.252228549941394
 21
11.8938553920933
 31
0.0
  0
LINE
  5
9A2
330
6C
100
AcDbEntity
  8
Visible (ANSI)
100
AcDbLine
 10
8.252228549941394
 20
11.8938553920933
 30
0.0
 11
8.21865419220256
 21
11.89385539209329
 31
0.0
  0
LINE
  5
9A3
330
6C
100
AcDbEntity
  8
Visible (ANSI)
100
AcDbLine
 10
8.098302907680219
 20
11.89385539209325
 30
0.0
 11
8.064728549941394
 21
11.89385539209324
 31
0.0
  0
LINE
  5
9A4
330
6C
100
AcDbEntity
  8
Visible (ANSI)
100
AcDbLine
 10
8.064728549941394
 20
11.89385539209324
 30
0.0
 11
8.06472854994139
 21
11.90363068919592
 31
0.0
  0
LINE
  5
9A5
330
6C
100
AcDbEntity
  8
Visible (ANSI)
100
AcDbLine
 10
6.232478549941376
 20
11.90001736550754
 30
0.0
 11
6.232478549941489
 21
11.52027223159288
 31
0.0
  0
LINE
  5
9A6
330
6C
100
AcDbEntity
  8
Visible (ANSI)
100
AcDbLine
 10
6.232478549941689
 20
10.84328722022809
 30
0.0
 11
6.23247854994169
 21
10.8419251446806
 31
0.0
  0
LINE
  5
9A7
330
6C
100
AcDbEntity
  8
Visible (ANSI)
100
AcDbLine
 10
10.08447854994141
 20
11.90001736550868
 30
0.0
 11
10.08447854994152
 21
11.52027223159402
 31
0.0
  0
LINE
  5
9A8
330
6C
100
AcDbEntity
  8
Visible (ANSI)
100
AcDbLine
 10
10.08447854994172
 20
10.84328722022924
 30
0.0
 11
10.08447854994172
 21
10.84192514468174
 31
0.0
  0
LINE
  5
9A9
330
6C
100
AcDbEntity
  8
Visible (ANSI)
100
AcDbLine
 10
10.08447854994172
 20
10.84192514468174
 30
0.0
 11
10.08447854994172
 21
10.83277223159382
 31
0.0
  0
LINE
  5
9AA
330
6C
100
AcDbEntity
  8
Visible (ANSI)
100
AcDbLine
 10
6.232478549941691
 20
10.8419251446806
 30
0.0
 11
6.232478549941694
 21
10.83277223159267
 31
0.0
  0
LINE
  5
9AB
330
6C
100
AcDbEntity
  8
Visible (ANSI)
100
AcDbLine
 10
10.15847854994184
 20
10.43709122501605
 30
0.0
 11
10.17410354994183
 21
10.42604268156002
 31
0.0
  0
LINE
  5
9AC
330
6C
100
AcDbEntity
  8
Visible (ANSI)
100
AcDbLine
 10
10.17410354994178
 20
10.61908283282395
 30
0.0
 11
10.15847854994179
 21
10.60803428936791
 31
0.0
  0
LINE
  5
9AD
330
6C
100
AcDbEntity
  8
Visible (ANSI)
100
AcDbLine
 10
10.1741035499418
 20
10.5306944851756
 30
0.0
 11
10.15847854994182
 21
10.51964594171957
 31
0.0
  0
LINE
  5
9AE
330
6C
100
AcDbEntity
  8
Visible (ANSI)
100
AcDbLine
 10
8.232478549942218
 20
9.141494825186859
 30
0.0
 11
8.158478549942202
 21
9.193820726994626
 31
0.0
  0
LINE
  5
9AF
330
6C
100
AcDbEntity
  8
Visible (ANSI)
100
AcDbLine
 10
8.158478549942227
 20
9.116903911522255
 30
0.0
 11
8.158478549942202
 21
9.193820726994626
 31
0.0
  0
LINE
  5
9B0
330
6C
100
AcDbEntity
  8
Visible (ANSI)
100
AcDbLine
 10
8.232478549942218
 20
9.141494825186859
 30
0.0
 11
8.232478549942227
 21
9.116903911522308
 31
0.0
  0
LINE
  5
9B1
330
6C
100
AcDbEntity
  8
Visible (ANSI)
100
AcDbLine
 10
8.158478549942202
 20
9.193820726994626
 30
0.0
 11
8.08447854994222
 21
9.141494825186816
 31
0.0
  0
LINE
  5
9B2
330
6C
100
AcDbEntity
  8
Visible (ANSI)
100
AcDbLine
 10
8.084478549942225
 20
9.116903911522264
 30
0.0
 11
8.08447854994222
 21
9.141494825186814
 31
0.0
  0
LINE
  5
9B3
330
6C
100
AcDbEntity
  8
Visible (ANSI)
100
AcDbLine
 10
8.084478549941399
 20
11.90363068919592
 30
0.0
 11
8.100103549941385
 21
11.8925821457399
 31
0.0
  0
LINE
  5
9B4
330
6C
100
AcDbEntity
  8
Visible (ANSI)
100
AcDbLine
 10
8.21685354994142
 20
11.89258214573993
 30
0.0
 11
8.232478549941399
 21
11.90363068919596
 31
0.0
  0
LINE
  5
9B5
330
6C
100
AcDbEntity
  8
Visible (ANSI)
100
AcDbLine
 10
10.17410354994142
 20
11.81524234154824
 30
0.0
 11
10.17410354994151
 21
11.52027223159427
 31
0.0
  0
LINE
  5
9B6
330
6C
100
AcDbEntity
  8
Visible (ANSI)
100
AcDbLine
 10
8.064728549942227
 20
9.141494825186809
 30
0.0
 11
8.08447854994222
 21
9.141494825186816
 31
0.0
  0
LINE
  5
9B7
330
6C
100
AcDbEntity
  8
Visible (ANSI)
100
AcDbLine
 10
8.232478549942218
 20
9.141494825186859
 30
0.0
 11
8.252228549942225
 21
9.141494825186864
 31
0.0
  0
LINE
  5
9B8
330
6C
100
AcDbEntity
  8
Visible (ANSI)
100
AcDbLine
 10
6.267853549941401
 20
11.90363068919538
 30
0.0
 11
8.084478549941399
 21
11.90363068919592
 31
0.0
  0
LINE
  5
9B9
330
6C
100
AcDbEntity
  8
Visible (ANSI)
100
AcDbLine
 10
8.232478549941399
 20
11.90363068919596
 30
0.0
 11
10.0491035499414
 21
11.9036306891965
 31
0.0
  0
ELLIPSE
  5
9BA
330
6C
100
AcDbEntity
  8
Visible (ANSI)
100
AcDbEllipse
 10
10.04910354994222
 20
9.141494825187347
 30
0.0
 11
0.1249999999999992
 21
0.0000000000000371
 31
0.0
210
0.0
220
0.0
230
1.0
 40
0.7071067811863438
 41
5.777824796895536
 42
6.283185307179588
  0
ELLIPSE
  5
9BB
330
6C
100
AcDbEntity
  8
Visible (ANSI)
100
AcDbEllipse
 10
10.04910354994219
 20
9.229883172835691
 30
0.0
 11
0.1249999999999991
 21
0.0000000000000371
 31
0.0
210
0.0
220
0.0
230
1.0
 40
0.7071067811863437
 41
5.777824796895535
 42
6.283185307179588
  0
ELLIPSE
  5
9BC
330
6C
100
AcDbEntity
  8
Visible (ANSI)
100
AcDbEllipse
 10
6.26785354994222
 20
9.141494825186224
 30
0.0
 11
-0.125000000000001
 21
-0.0000000000000371
 31
0.0
210
0.0
220
0.0
230
1.0
 40
0.7071067811863437
 41
0.0
 42
0.5053605102842181
  0
ELLIPSE
  5
9BD
330
6C
100
AcDbEntity
  8
Visible (ANSI)
100
AcDbEllipse
 10
6.267853549942194
 20
9.229883172834568
 30
0.0
 11
-0.1250000000000009
 21
-0.0000000000000371
 31
0.0
210
0.0
220
0.0
230
1.0
 40
0.7071067811863438
 41
0.0000000000000024
 42
0.5053605102842221
  0
LINE
  5
9BE
330
6C
100
AcDbEntity
  8
Visible (ANSI)
100
AcDbLine
 10
6.142853549941514
 20
11.52027223159307
 30
0.0
 11
6.142853549941426
 21
11.81524234154704
 31
0.0
  0
ELLIPSE
  5
9BF
330
6C
100
AcDbEntity
  8
Visible (ANSI)
100
AcDbEllipse
 10
6.267853549941426
 20
11.81524234154708
 30
0.0
 11
-0.1249999999999988
 21
-0.0000000000000376
 31
0.0
210
0.0
220
0.0
230
1.0
 40
0.7071067811863438
 41
4.712388980384671
 42
6.283185307179577
  0
ELLIPSE
  5
9C0
330
6C
100
AcDbEntity
  8
Visible (ANSI)
100
AcDbEllipse
 10
10.04910354994142
 20
11.81524234154821
 30
0.0
 11
0.1249999999999992
 21
0.0000000000000374
 31
0.0
210
0.0
220
0.0
230
1.0
 40
0.7071067811863437
 41
0.0
 42
1.570796326794893
  0
LINE
  5
9C1
330
6C
100
AcDbEntity
  8
Visible (ANSI)
100
AcDbLine
 10
10.17410354994239
 20
8.578019108929517
 30
0.0
 11
10.15847854994239
 21
8.578019108929511
 31
0.0
  0
LINE
  5
9C2
330
6C
100
AcDbEntity
  8
Visible (ANSI)
100
AcDbLine
 10
6.158478549942392
 20
8.578019108928323
 30
0.0
 11
6.142853549942396
 21
8.578019108928319
 31
0.0
  0
LINE
  5
9C3
330
6C
100
AcDbEntity
  8
Visible (ANSI)
100
AcDbLine
 10
5.470978549941626
 20
11.14527223159298
 30
0.0
 11
5.470978549941338
 21
12.11355301485984
 31
0.0
  0
LINE
  5
9C4
330
6C
100
AcDbEntity
  8
Visible (ANSI)
100
AcDbLine
 10
5.470978549941311
 20
12.20194136250818
 30
0.0
 11
5.470978549941338
 21
12.11355301485984
 31
0.0
  0
ELLIPSE
  5
9C5
330
6C
100
AcDbEntity
  8
Visible (ANSI)
100
AcDbEllipse
 10
5.845978549941337
 20
12.11355301485995
 30
0.0
 11
-0.3750000000000004
 21
-0.0000000000001114
 31
0.0
210
0.0
220
0.0
230
1.0
 40
0.7071067811863437
 41
4.712388980384693
 42
6.283185307179588
  0
ELLIPSE
  5
9C6
330
6C
100
AcDbEntity
  8
Visible (ANSI)
100
AcDbEllipse
 10
5.84597854994131
 20
12.20194136250829
 30
0.0
 11
-0.3750000000000004
 21
-0.0000000000001118
 31
0.0
210
0.0
220
0.0
230
1.0
 40
0.7071067811863436
 41
4.712388980384689
 42
6.283185307179584
  0
LINE
  5
9C7
330
6C
100
AcDbEntity
  8
Visible (ANSI)
100
AcDbLine
 10
5.845978549941259
 20
12.37871805780483
 30
0.0
 11
10.47097854994126
 21
12.3787180578062
 31
0.0
  0
LINE
  5
9C8
330
6C
100
AcDbEntity
  8
Visible (ANSI)
100
AcDbLine
 10
10.47097854994123
 20
12.46710640545454
 30
0.0
 11
5.845978549941232
 21
12.46710640545317
 31
0.0
  0
ELLIPSE
  5
9C9
330
6C
100
AcDbEntity
  8
Visible (ANSI)
100
AcDbEllipse
 10
10.47097854994133
 20
12.11355301486132
 30
0.0
 11
0.3750000000000004
 21
0.0000000000001116
 31
0.0
210
0.0
220
0.0
230
1.0
 40
0.7071067811863436
 41
0.0
 42
1.570796326794894
  0
LINE
  5
9CA
330
6C
100
AcDbEntity
  8
Visible (ANSI)
100
AcDbLine
 10
10.84597854994131
 20
12.20194136250978
 30
0.0
 11
10.84597854994133
 21
12.11355301486143
 31
0.0
  0
ELLIPSE
  5
9CB
330
6C
100
AcDbEntity
  8
Visible (ANSI)
100
AcDbEllipse
 10
10.47097854994131
 20
12.20194136250966
 30
0.0
 11
0.3750000000000004
 21
0.0000000000001111
 31
0.0
210
0.0
220
0.0
230
1.0
 40
0.7071067811863437
 41
0.0000000000000113
 42
1.5707963267949
  0
LINE
  5
9CC
330
6C
100
AcDbEntity
  8
Visible (ANSI)
100
AcDbLine
 10
10.84597854994133
 20
12.11355301486143
 30
0.0
 11
10.84597854994162
 21
11.14527223159458
 31
0.0
  0
ELLIPSE
  5
9CD
330
6C
100
AcDbEntity
  8
Visible (ANSI)
100
AcDbEllipse
 10
5.84597854994131
 20
12.20194136250829
 30
0.0
 11
0.140625
 21
0.0000000000000521
 31
0.0
210
0.0
220
0.0
230
1.0
 40
0.7071067811863438
 41
3.602146645270867
 42
5.822631315498027
  0
ELLIPSE
  5
9CE
330
6C
100
AcDbEntity
  8
Visible (ANSI)
100
AcDbEllipse
 10
5.845978549941337
 20
12.11355301485995
 30
0.0
 11
0.140625
 21
0.0000000000000418
 31
0.0
210
0.0
220
0.0
230
1.0
 40
0.7071067811863438
 41
0.0
 42
6.283185307179586
  0
ELLIPSE
  5
9CF
330
6C
100
AcDbEntity
  8
Visible (ANSI)
100
AcDbEllipse
 10
10.47097854994131
 20
12.20194136250966
 30
0.0
 11
0.1406249999999999
 21
0.0000000000000521
 31
0.0
210
0.0
220
0.0
230
1.0
 40
0.7071067811863438
 41
3.602146645270872
 42
5.82263131549801
  0
ELLIPSE
  5
9D0
330
6C
100
AcDbEntity
  8
Visible (ANSI)
100
AcDbEllipse
 10
10.47097854994133
 20
12.11355301486132
 30
0.0
 11
0.140625
 21
0.0000000000000418
 31
0.0
210
0.0
220
0.0
230
1.0
 40
0.7071067811863438
 41
0.0
 42
6.283185307179586
  0
LINE
  5
9D1
330
6C
100
AcDbEntity
  8
Visible (ANSI)
100
AcDbLine
 10
8.15847854994174
 20
10.77439723159277
 30
0.0
 11
8.232478549941717
 21
10.84839723159279
 31
0.0
  0
LINE
  5
9D2
330
6C
100
AcDbEntity
  8
Visible (ANSI)
100
AcDbLine
 10
8.084478549941719
 20
10.84839723159274
 30
0.0
 11
8.15847854994174
 21
10.77439723159277
 31
0.0
  0
LINE
  5
9D3
330
6C
100
AcDbEntity
  8
Visible (ANSI)
100
AcDbLine
 10
10.17410354994229
 20
8.906772231593365
 30
0.0
 11
10.10010354994231
 21
8.832772231593342
 31
0.0
  0
LINE
  5
9D4
330
6C
100
AcDbEntity
  8
Visible (ANSI)
100
AcDbLine
 10
10.10010354994231
 20
8.832772231593342
 30
0.0
 11
10.17410354994234
 21
8.758772231593365
 31
0.0
  0
LINE
  5
9D5
330
6C
100
AcDbEntity
  8
Visible (ANSI)
100
AcDbLine
 10
6.142853549942341
 20
8.758772231592169
 30
0.0
 11
6.216853549942318
 21
8.832772231592189
 31
0.0
  0
LINE
  5
9D6
330
6C
100
AcDbEntity
  8
Visible (ANSI)
100
AcDbLine
 10
6.216853549942318
 20
8.832772231592189
 30
0.0
 11
6.142853549942296
 21
8.906772231592169
 31
0.0
  0
LINE
  5
9D7
330
6C
100
AcDbEntity
  8
Visible (ANSI)
100
AcDbLine
 10
8.232478549941717
 20
10.84839723159279
 30
0.0
 11
10.04910354994172
 21
10.84839723159333
 31
0.0
  0
LINE
  5
9D8
330
6C
100
AcDbEntity
  8
Visible (ANSI)
100
AcDbLine
 10
6.267853549941719
 20
10.84839723159221
 30
0.0
 11
8.084478549941719
 21
10.84839723159274
 31
0.0
  0
LINE
  5
9D9
330
6C
100
AcDbEntity
  8
Visible (ANSI)
100
AcDbLine
 10
10.17410354994234
 20
8.758772231593365
 30
0.0
 11
10.17410354994288
 21
6.942147231593362
 31
0.0
  0
LINE
  5
9DA
330
6C
100
AcDbEntity
  8
Visible (ANSI)
100
AcDbLine
 10
10.17410354994175
 20
10.72339723159336
 30
0.0
 11
10.17410354994229
 21
8.906772231593365
 31
0.0
  0
LINE
  5
9DB
330
6C
100
AcDbEntity
  8
Visible (ANSI)
100
AcDbLine
 10
6.142853549942882
 20
6.942147231592167
 30
0.0
 11
6.142853549942341
 21
8.758772231592169
 31
0.0
  0
LINE
  5
9DC
330
6C
100
AcDbEntity
  8
Visible (ANSI)
100
AcDbLine
 10
6.142853549942296
 20
8.906772231592169
 30
0.0
 11
6.142853549941756
 21
10.72339723159217
 31
0.0
  0
ARC
  5
9DD
330
6C
100
AcDbEntity
  8
Visible (ANSI)
100
AcDbCircle
 10
10.04910354994175
 20
10.72339723159333
 30
0.0
 40
0.125
100
AcDbArc
 50
0.0
 51
90.0000000000171
  0
ARC
  5
9DE
330
6C
100
AcDbEntity
  8
Visible (ANSI)
100
AcDbCircle
 10
10.04910354994288
 20
6.942147231593326
 30
0.0
 40
0.125
100
AcDbArc
 50
270.0000000000171
 51
0.0
  0
LINE
  5
9DF
330
6C
100
AcDbEntity
  8
Visible (ANSI)
100
AcDbLine
 10
10.04910354994291
 20
6.817147231593325
 30
0.0
 11
6.267853549942919
 21
6.817147231592204
 31
0.0
  0
ARC
  5
9E0
330
6C
100
AcDbEntity
  8
Visible (ANSI)
100
AcDbCircle
 10
6.267853549942881
 20
6.942147231592204
 30
0.0
 40
0.124999999999999
100
AcDbArc
 50
180.0
 51
270.0000000000175
  0
ARC
  5
9E1
330
6C
100
AcDbEntity
  8
Visible (ANSI)
100
AcDbCircle
 10
6.267853549941756
 20
10.7233972315922
 30
0.0
 40
0.1249999999999993
100
AcDbArc
 50
90.00000000001669
 51
180.0
  0
ARC
  5
9E2
330
6C
100
AcDbEntity
  8
Visible (ANSI)
100
AcDbCircle
 10
10.47097854994163
 20
11.14527223159345
 30
0.0
 40
0.3750000000000019
100
AcDbArc
 50
0.0
 51
90.00000000001682
  0
LINE
  5
9E3
330
6C
100
AcDbEntity
  8
Visible (ANSI)
100
AcDbLine
 10
10.84597854994163
 20
11.14527223159356
 30
0.0
 11
10.845978549943
 21
6.520272231593562
 31
0.0
  0
ARC
  5
9E4
330
6C
100
AcDbEntity
  8
Visible (ANSI)
100
AcDbCircle
 10
10.470978549943
 20
6.52027223159345
 30
0.0
 40
0.375
100
AcDbArc
 50
270.0000000000168
 51
0.0
  0
LINE
  5
9E5
330
6C
100
AcDbEntity
  8
Visible (ANSI)
100
AcDbLine
 10
10.47097854994311
 20
6.14527223159345
 30
0.0
 11
5.845978549943119
 21
6.145272231592078
 31
0.0
  0
ARC
  5
9E6
330
6C
100
AcDbEntity
  8
Visible (ANSI)
100
AcDbCircle
 10
5.845978549943008
 20
6.520272231592078
 30
0.0
 40
0.3750000000000008
100
AcDbArc
 50
180.0
 51
270.0000000000172
  0
LINE
  5
9E7
330
6C
100
AcDbEntity
  8
Visible (ANSI)
100
AcDbLine
 10
5.470978549943008
 20
6.520272231591967
 30
0.0
 11
5.470978549941631
 21
11.14527223159197
 31
0.0
  0
ARC
  5
9E8
330
6C
100
AcDbEntity
  8
Visible (ANSI)
100
AcDbCircle
 10
5.84597854994163
 20
11.14527223159208
 30
0.0
 40
0.3750000000000008
100
AcDbArc
 50
90.00000000001696
 51
180.0
  0
LINE
  5
9E9
330
6C
100
AcDbEntity
  8
Visible (ANSI)
100
AcDbLine
 10
5.845978549941518
 20
11.52027223159208
 30
0.0
 11
10.47097854994152
 21
11.52027223159345
 31
0.0
  0
CIRCLE
  5
9EA
330
6C
100
AcDbEntity
  8
Visible (ANSI)
100
AcDbCircle
 10
10.470978549943
 20
6.52027223159345
 30
0.0
 40
0.1406250000000002
  0
CIRCLE
  5
9EB
330
6C
100
AcDbEntity
  8
Visible (ANSI)
100
AcDbCircle
 10
5.845978549943008
 20
6.520272231592078
 30
0.0
 40
0.1406250000000002
  0
CIRCLE
  5
9EC
330
6C
100
AcDbEntity
  8
Visible (ANSI)
100
AcDbCircle
 10
10.47097854994163
 20
11.14527223159345
 30
0.0
 40
0.1406250000000002
  0
CIRCLE
  5
9ED
330
6C
100
AcDbEntity
  8
Visible (ANSI)
100
AcDbCircle
 10
5.845978549941632
 20
11.14527223159208
 30
0.0
 40
0.1406250000000002
  0
MTEXT
  5
9EE
330
6C
100
AcDbEntity
  8
Symbol (ANSI)
100
AcDbMText
 10
6.629107234862336
 20
2.430598078715691
 30
0.0
 40
0.3200000039548698
 41
0.0
 46
0.0
 71
     7
 72
     1
  1
BOTTOM VIEW
  7
Text Style168
 73
     1
 44
1.0
  0
LINE
  5
9EF
330
6C
100
AcDbEntity
  8
Symbol (ANSI)
370
    30
100
AcDbLine
 10
6.597107152546638
 20
2.365340379049317
 30
0.0
 11
9.540381132394463
 21
2.365340379049317
 31
0.0
  0
LINE
  5
9F0
330
6C
100
AcDbEntity
  8
Center Mark (ANSI)
  6
CHAIN
 48
0.1973718851804733
100
AcDbLine
 10
10.47097854994149
 20
11.61923056492679
 30
0.0
 11
10.47097854994177
 21
10.67131389826012
 31
0.0
  0
LINE
  5
9F1
330
6C
100
AcDbEntity
  8
Center Mark (ANSI)
  6
CHAIN
 48
0.1973718851804733
100
AcDbLine
 10
10.47097854994314
 20
6.046313898260116
 30
0.0
 11
10.47097854994286
 21
6.994230564926784
 31
0.0
  0
LINE
  5
9F2
330
6C
100
AcDbEntity
  8
Centerline (ANSI)
  6
CHAIN
 48
0.9524481296539306
100
AcDbLine
 10
10.47097854994149
 20
11.61923056492679
 30
0.0
 11
10.47097854994315
 21
6.046313898260116
 31
0.0
  0
LINE
  5
9F3
330
6C
100
AcDbEntity
  8
Center Mark (ANSI)
  6
CHAIN
 48
0.1973718851804733
100
AcDbLine
 10
5.372020216609674
 20
6.520272231591937
 30
0.0
 11
6.319936883276342
 21
6.520272231592218
 31
0.0
  0
LINE
  5
9F4
330
6C
100
AcDbEntity
  8
Centerline (ANSI)
  6
CHAIN
 48
0.9524481296539306
100
AcDbLine
 10
10.94493688327634
 20
6.520272231593591
 30
0.0
 11
5.372020216609674
 21
6.520272231591937
 31
0.0
  0
LINE
  5
9F5
330
6C
100
AcDbEntity
  8
Center Mark (ANSI)
  6
CHAIN
 48
0.1973718851804733
100
AcDbLine
 10
5.845978549941492
 20
11.61923056492541
 30
0.0
 11
5.845978549941773
 21
10.67131389825874
 31
0.0
  0
LINE
  5
9F6
330
6C
100
AcDbEntity
  8
Centerline (ANSI)
  6
CHAIN
 48
0.9524481296539306
100
AcDbLine
 10
5.845978549943149
 20
6.046313898258744
 30
0.0
 11
5.845978549941492
 21
11.61923056492541
 31
0.0
  0
LINE
  5
9F7
330
6C
100
AcDbEntity
  8
Centerline (ANSI)
  6
CHAIN
 48
0.9524481296539306
100
AcDbLine
 10
5.3720202166083
 20
11.14527223159194
 30
0.0
 11
10.94493688327496
 21
11.14527223159359
 31
0.0
  0
DIMENSION
  5
9F8
330
6C
100
AcDbEntity
  8
Dimension (ANSI)
100
AcDbDimension
280
     0
  2
*D12
 10
5.365036717116276
 20
11.14527223159194
 30
0.0
 11
4.447151450204188
 21
10.01598026663431
 31
0.0
 70
   160
  1
(<>){\PTYP.}
 71
     5
 42
0.3750000000001386
 73
     0
 74
     0
 75
     0
  3
Default (ANSI)
100
AcDbAlignedDimension
 13
5.845978549941521
 23
11.52027223159208
 33
0.0
 14
5.3720202166083
 24
11.14527223159194
 34
0.0
 50
270.0
100
AcDbRotatedDimension
1001
ACAD
1000
DSTYLE
1002
{
1070
   289
1070
     1
1070
   271
1070
     2
1070
   147
1040
0.031496062992126
1070
    72
1070
     0
1070
    71
1070
     0
1070
   272
1070
     2
1070
    48
1040
0.0
1070
    47
1040
0.0
1002
}
  0
DIMENSION
  5
B19
330
6C
100
AcDbEntity
  8
Dimension (ANSI)
100
AcDbDimension
280
     0
  2
*D13
 10
3.303638242334869
 20
6.145272231592079
 30
0.0
 11
3.303638242334868
 21
8.832772231592079
 31
0.0
 70
   160
  1
(<>)
 42
5.375000000000002
 73
     0
 74
     0
 75
     0
  3
Default (ANSI)
100
AcDbAlignedDimension
 13
5.84597854994152
 23
11.52027223159208
 33
0.0
 14
5.845978549943121
 24
6.145272231592079
 34
0.0
 50
270.0
100
AcDbRotatedDimension
1001
ACAD
1000
DSTYLE
1002
{
1070
   289
1070
     1
1070
   271
1070
     2
1070
   147
1040
0.031496062992126
1070
    72
1070
     0
1070
    71
1070
     0
1070
   272
1070
     2
1070
    48
1040
0.0
1070
    47
1040
0.0
1002
}
  0
DIMENSION
  5
C0D
330
6C
100
AcDbEntity
  8
Dimension (ANSI)
100
AcDbDimension
280
     0
  2
*D14
 10
5.845978549943149
 20
5.414440943902345
 30
0.0
 11
7.318721016106283
 21
5.414440943902345
 31
0.0
 70
   160
  1
(<>){\PTYP.}
 42
0.3750000000001403
 73
     0
 74
     0
 75
     0
  3
Default (ANSI)
100
AcDbAlignedDimension
 13
5.470978549943009
 23
6.520272231591967
 33
0.0
 14
5.845978549943149
 24
6.046313898258744
 34
0.0
100
AcDbRotatedDimension
1001
ACAD
1000
DSTYLE
1002
{
1070
   289
1070
     1
1070
    73
1070
     0
1070
    74
1070
     0
1070
   145
1040
-0.25
1070
   271
1070
     2
1070
   147
1040
0.031496062992126
1070
    72
1070
     0
1070
    71
1070
     0
1070
   272
1070
     2
1070
    48
1040
0.0
1070
    47
1040
0.0
1002
}
  0
DIMENSION
  5
D15
330
6C
100
AcDbEntity
  8
Dimension (ANSI)
100
AcDbDimension
280
     0
  2
*D15
 10
10.845978549943
 20
4.338925545951327
 30
0.0
 11
8.158478549943009
 21
4.338925545951327
 31
0.0
 70
   160
  1
(<>)
 42
5.374999999999994
 73
     0
 74
     0
 75
     0
  3
Default (ANSI)
100
AcDbAlignedDimension
 13
5.470978549943009
 23
6.520272231591967
 33
0.0
 14
10.845978549943
 24
6.520272231593561
 34
0.0
100
AcDbRotatedDimension
1001
ACAD
1000
DSTYLE
1002
{
1070
   289
1070
     1
1070
    73
1070
     0
1070
    74
1070
     0
1070
   271
1070
     2
1070
   147
1040
0.031496062992126
1070
    72
1070
     0
1070
    71
1070
     0
1070
   272
1070
     2
1070
    48
1040
0.0
1070
    47
1040
0.0
1002
}
  0
DIMENSION
  5
E09
330
6C
100
AcDbEntity
  8
Dimension (ANSI)
100
AcDbDimension
280
     0
  2
*D16
 10
10.38156403651528
 20
6.62880994583824
 30
0.0
 11
12.69468232720575
 21
5.262141212084468
 31
0.0
 70
   163
  1
(<>){\PTYP.}
 71
     5
 42
0.2812500000000002
 73
     0
 74
     0
 75
     0
  3
Default (ANSI)
100
AcDbDiametricDimension
 15
10.56039306337074
 25
6.411734517348669
 35
0.0
 40
0.0
1001
ACAD
1000
DSTYLE
1002
{
1070
   144
1040
0.9999999999999879
1070
   271
1070
     2
1070
   147
1040
0.031496062992126
1070
    72
1070
     0
1070
    71
1070
     0
1070
   272
1070
     2
1070
    48
1040
0.0
1070
    47
1040
0.0
1002
}
1001
ACAD_DSTYLE_DIMRADIAL_EXTENSION
1070
   387
1070
     1
1070
   388
1040
0.0
1070
   390
1040
0.0
  0
DIMENSION
  5
ECB
330
6C
100
AcDbEntity
  8
Dimension (ANSI)
100
AcDbDimension
280
     0
  2
*D17
 10
10.47097854994301
 20
6.520272231593452
 30
0.0
 11
12.74910482692881
 21
4.094492928770971
 31
0.0
 70
   164
  1
(<>){\PTYP.}
 71
     5
 42
0.3750000000000018
 73
     0
 74
     0
 75
     0
  3
Default (ANSI)
100
AcDbRadialDimension
 15
10.6263383737533
 25
6.178968371161671
 35
0.0
 40
0.0
1001
ACAD
1000
DSTYLE
1002
{
1070
   271
1070
     2
1070
   141
1040
0.0
1070
   147
1040
0.031496062992126
1070
    72
1070
     0
1070
    71
1070
     0
1070
   272
1070
     2
1070
    48
1040
0.0
1070
    47
1040
0.0
1002
}
1001
ACAD_DSTYLE_DIMRADIAL_EXTENSION
1070
   387
1070
     1
1070
   388
1040
0.0
1070
   390
1040
0.0
  0
DIMENSION
  5
F76
330
6C
100
AcDbEntity
  8
Dimension (ANSI)
100
AcDbDimension
280
     0
  2
*D18
 10
10.17410354994187
 20
9.874740906765678
 30
0.0
 11
12.47046178798013
 21
9.874740906765678
 31
0.0
 70
   160
  1
(<>){\PTYP.}
 71
     5
 42
0.6718749999999769
 73
     0
 74
     0
 75
     0
  3
Default (ANSI)
100
AcDbAlignedDimension
 13
10.84597854994185
 23
10.38612745039479
 33
0.0
 14
10.17410354994187
 24
10.31700358322175
 34
0.0
 50
180.0
100
AcDbRotatedDimension
1001
ACAD
1000
DSTYLE
1002
{
1070
   289
1070
     1
1070
    73
1070
     0
1070
    74
1070
     0
1070
   271
1070
     2
1070
    76
1070
     1
1070
    75
1070
     1
1070
   147
1040
0.031496062992126
1070
    72
1070
     0
1070
    71
1070
     0
1070
   272
1070
     2
1070
    48
1040
0.0
1070
    47
1040
0.0
1002
}
  0
DIMENSION
  5
106F
330
6C
100
AcDbEntity
  8
Dimension (ANSI)
100
AcDbDimension
280
     0
  2
*D19
 10
10.01310204144896
 20
6.817147231592935
 30
0.0
 11
9.095216774536872
 21
5.293766311509584
 31
0.0
 70
   160
  1
(<>){\PTYP.}
 71
     5
 42
0.6718749999999912
 73
     0
 74
     0
 75
     0
  3
Default (ANSI)
100
AcDbAlignedDimension
 13
8.766190204330477
 23
6.145272231592945
 33
0.0
 14
8.736817039853955
 24
6.817147231592936
 34
0.0
 50
90.0
100
AcDbRotatedDimension
1001
ACAD
1000
DSTYLE
1002
{
1070
   289
1070
     1
1070
   271
1070
     2
1070
    76
1070
     1
1070
    75
1070
     1
1070
   147
1040
0.031496062992126
1070
    72
1070
     0
1070
    71
1070
     0
1070
   272
1070
     2
1070
    48
1040
0.0
1070
    47
1040
0.0
1002
}
  0
DIMENSION
  5
117E
330
6C
100
AcDbEntity
  8
Dimension (ANSI)
100
AcDbDimension
280
     0
  2
*D20
 10
8.595514949689061
 20
6.906772231593077
 30
0.0
 11
8.595514949689059
 21
9.777166404670589
 31
0.0
 70
   160
  1
(<>){\POPENING}
 71
     5
 42
3.851999999999989
 73
     0
 74
     0
 75
     0
  3
Default (ANSI)
100
AcDbAlignedDimension
 13
9.095619671514112
 23
10.75877223159307
 33
0.0
 14
9.095619671515256
 24
6.906772231593077
 34
0.0
 50
270.0
100
AcDbRotatedDimension
1001
ACAD
1000
DSTYLE
1002
{
1070
   289
1070
     1
1070
   271
1070
     2
1070
    76
1070
     1
1070
    75
1070
     1
1070
   147
1040
0.031496062992126
1070
    72
1070
     0
1070
    71
1070
     0
1070
   272
1070
     2
1070
    48
1040
0.0
1070
    47
1040
0.0
1002
}
  0
DIMENSION
  5
1277
330
6C
100
AcDbEntity
  8
Dimension (ANSI)
100
AcDbDimension
280
     0
  2
*D21
 10
7.842709050316215
 20
10.75877223159307
 30
0.0
 11
8.595514949689059
 21
13.16870960710152
 31
0.0
 70
   160
  1
<>
 42
0.7614999999999803
 73
     0
 74
     0
 75
     0
  3
Default (ANSI)
100
AcDbAlignedDimension
 13
9.099793750880747
 23
11.52027223159304
 33
0.0
 14
9.096789106496197
 24
10.75877223159307
 34
0.0
 50
270.0
100
AcDbRotatedDimension
1001
ACAD
1000
DSTYLE
1002
{
1070
   289
1070
     1
1070
   271
1070
     2
1070
    76
1070
     1
1070
    75
1070
     1
1070
   272
1070
     2
1070
    48
1040
0.0
1070
    47
1040
0.0
1002
}
  0
DIMENSION
  5
136E
330
6C
100
AcDbEntity
  8
Dimension (ANSI)
100
AcDbDimension
280
     0
  2
*D22
 10
10.08447854994262
 20
7.93945379679402
 30
0.0
 11
12.29939527707225
 21
7.93945379679402
 31
0.0
 70
   160
  1
<>
 42
0.7614999999999786
 73
     0
 74
     0
 75
     0
  3
Default (ANSI)
100
AcDbAlignedDimension
 13
10.84597854994259
 23
7.894947434905902
 33
0.0
 14
10.08447854994262
 24
7.822897231593359
 34
0.0
 50
180.0
100
AcDbRotatedDimension
1001
ACAD
1000
DSTYLE
1002
{
1070
   289
1070
     1
1070
    73
1070
     0
1070
    74
1070
     0
1070
   271
1070
     2
1070
    76
1070
     1
1070
    75
1070
     1
1070
   272
1070
     2
1070
    48
1040
0.0
1070
    47
1040
0.0
1002
}
  0
DIMENSION
  5
144D
330
6C
100
AcDbEntity
  8
Dimension (ANSI)
100
AcDbDimension
280
     0
  2
*D23
 10
6.232478549942618
 20
7.93945379679402
 30
0.0
 11
7.539708630774952
 21
7.93945379679402
 31
0.0
 70
   160
  1
(<>){\POPENING}
 71
     5
 42
3.852
 73
     0
 74
     0
 75
     0
  3
Default (ANSI)
100
AcDbAlignedDimension
 13
10.08447854994262
 23
7.821531376857272
 33
0.0
 14
6.232478549942618
 24
7.82153137685612
 34
0.0
100
AcDbRotatedDimension
1001
ACAD
1000
DSTYLE
1002
{
1070
   289
1070
     1
1070
    73
1070
     0
1070
    74
1070
     0
1070
   271
1070
     2
1070
    76
1070
     1
1070
    75
1070
     1
1070
   147
1040
0.031496062992126
1070
    72
1070
     0
1070
    71
1070
     0
1070
   272
1070
     2
1070
    48
1040
0.0
1070
    47
1040
0.0
1002
}
  0
LINE
  5
1546
330
6C
100
AcDbEntity
  8
Visible Narrow (ANSI)
100
AcDbLine
 10
39.52355308587652
 20
21.52906583624608
 30
0.0
 11
38.40119492247435
 21
22.17538891733779
 31
0.0
  0
ELLIPSE
  5
1547
330
6C
100
AcDbEntity
  8
Visible (ANSI)
100
AcDbEllipse
 10
41.10287315669244
 20
20.59414616175349
 30
0.0
 11
0.0525231402692585
 21
0.0912079066542795
 31
0.0
210
0.0
220
0.0
230
0.9999999999999998
 40
0.5780931159158107
 41
5.495853435359274
 42
6.281251598756729
  0
LINE
  5
1548
330
6C
100
AcDbEntity
  8
Visible Narrow (ANSI)
100
AcDbLine
 10
38.39472283556227
 20
22.18972730023204
 30
0.0
 11
39.52815090710864
 21
21.53702948300665
 31
0.0
  0
LINE
  5
1549
330
6C
100
AcDbEntity
  8
Visible Narrow (ANSI)
100
AcDbLine
 10
41.11859914457426
 20
20.62138432655569
 30
0.0
 11
41.15549815669245
 21
20.68529518421796
 31
0.0
  0
LINE
  5
154A
330
6C
100
AcDbEntity
  8
Visible Narrow (ANSI)
100
AcDbLine
 10
41.17729614541234
 20
20.63700351063012
 30
0.0
 11
41.13432513245608
 21
20.61225815001607
 31
0.0
  0
ELLIPSE
  5
154B
330
6C
100
AcDbEntity
  8
Visible (ANSI)
100
AcDbEllipse
 10
38.37909783556227
 20
22.16266405128179
 30
0.0
 11
0.0155947566120126
 21
0.0270807323795366
 31
0.0
210
0.0
220
0.0
230
0.9999999999999998
 40
0.5780931159158106
 41
5.49585343535911
 42
6.281251598756472
  0
LINE
  5
154C
330
6C
100
AcDbEntity
  8
Visible (ANSI)
100
AcDbLine
 10
38.40119492247435
 20
22.17538891733779
 30
0.0
 11
38.40119492247435
 21
19.58508769944574
 31
0.0
  0
LINE
  5
154D
330
6C
100
AcDbEntity
  8
Visible (ANSI)
100
AcDbLine
 10
41.17729614541234
 20
20.58732101708226
 30
0.0
 11
41.17729614541234
 21
20.63700351063012
 31
0.0
  0
LINE
  5
154E
330
6C
100
AcDbEntity
  8
Visible (ANSI)
100
AcDbLine
 10
38.23532474558323
 20
22.28860364155324
 30
0.0
 11
38.26657474558324
 21
22.27046849996429
 31
0.0
  0
LINE
  5
154F
330
6C
100
AcDbEntity
  8
Visible (ANSI)
100
AcDbLine
 10
38.27232474558324
 20
22.35268941506745
 30
0.0
 11
38.23532474558323
 21
22.28860364155324
 31
0.0
  0
LINE
  5
1550
330
6C
100
AcDbEntity
  8
Visible (ANSI)
100
AcDbLine
 10
38.26657474558324
 20
22.27046849996429
 30
0.0
 11
38.13399222411078
 21
22.34681769630037
 31
0.0
  0
LINE
  5
1551
330
6C
100
AcDbEntity
  8
Visible (ANSI)
100
AcDbLine
 10
38.14473227342049
 20
22.36541997650558
 30
0.0
 11
38.13399222411078
 21
22.34681769630037
 31
0.0
  0
LINE
  5
1552
330
6C
100
AcDbEntity
  8
Visible (ANSI)
100
AcDbLine
 10
38.13399222411078
 20
22.34681769630037
 30
0.0
 11
38.10274222411078
 21
22.36495283788931
 31
0.0
  0
LINE
  5
1553
330
6C
100
AcDbEntity
  8
Visible (ANSI)
100
AcDbLine
 10
38.10274222411078
 20
22.36495283788931
 30
0.0
 11
38.13556166124538
 21
22.42179767613449
 31
0.0
  0
LINE
  5
1554
330
6C
100
AcDbEntity
  8
Visible (ANSI)
100
AcDbLine
 10
39.55483993918853
 20
21.61413803413819
 30
0.0
 11
38.27232474558324
 21
22.35268941506745
 31
0.0
  0
LINE
  5
1555
330
6C
100
AcDbEntity
  8
Visible (ANSI)
100
AcDbLine
 10
41.15549815669245
 20
20.68529518421796
 30
0.0
 11
40.13689283758586
 21
21.27641683814587
 31
0.0
  0
LINE
  5
1556
330
6C
100
AcDbEntity
  8
Visible (ANSI)
100
AcDbLine
 10
38.13383001540817
 20
22.43244322596359
 30
0.0
 11
36.84414582428193
 21
23.17512295799964
 31
0.0
  0
LINE
  5
1557
330
6C
100
AcDbEntity
  8
Visible (ANSI)
100
AcDbLine
 10
39.5309211454121
 20
21.54251929495712
 30
0.0
 11
38.23532474558323
 21
22.28860364155324
 31
0.0
  0
LINE
  5
1558
330
6C
100
AcDbEntity
  8
Visible (ANSI)
100
AcDbLine
 10
39.5309211454121
 20
21.54251929495712
 30
0.0
 11
39.56163466901335
 21
21.59571659002018
 31
0.0
  0
LINE
  5
1559
330
6C
100
AcDbEntity
  8
Visible (ANSI)
100
AcDbLine
 10
36.80714582428192
 20
23.11103718448542
 30
0.0
 11
38.39472283556227
 21
22.18972730023204
 31
0.0
  0
LINE
  5
155A
330
6C
100
AcDbEntity
  8
Visible (ANSI)
100
AcDbLine
 10
36.80714582428192
 20
23.11103718448542
 30
0.0
 11
36.84414582428193
 21
23.17512295799964
 31
0.0
  0
LINE
  5
155B
330
6C
100
AcDbEntity
  8
Visible (ANSI)
100
AcDbLine
 10
38.10274222411078
 20
22.36495283788931
 30
0.0
 11
36.80714582428192
 21
23.11103718448542
 31
0.0
  0
LINE
  5
155C
330
6C
100
AcDbEntity
  8
Visible (ANSI)
100
AcDbLine
 10
39.5309211454121
 20
21.54251929495712
 30
0.0
 11
39.5312202436043
 21
21.54234572093906
 31
0.0
  0
LINE
  5
155D
330
6C
100
AcDbEntity
  8
Visible (ANSI)
100
AcDbLine
 10
39.88169974558309
 20
17.28640190535343
 30
0.0
 11
39.88169974558309
 21
17.27367703929739
 31
0.0
  0
LINE
  5
155E
330
6C
100
AcDbEntity
  8
Visible (ANSI)
100
AcDbLine
 10
39.74911722411059
 20
17.21005270901738
 30
0.0
 11
39.88169974558309
 21
17.28640190535343
 31
0.0
  0
LINE
  5
155F
330
6C
100
AcDbEntity
  8
Visible (ANSI)
100
AcDbLine
 10
39.74911722411059
 20
17.19732784296134
 30
0.0
 11
39.74911722411059
 21
17.21005270901738
 31
0.0
  0
LINE
  5
1560
330
6C
100
AcDbEntity
  8
Visible (ANSI)
100
AcDbLine
 10
38.55340926040444
 20
19.77472937553077
 30
0.0
 11
38.52134524360415
 21
19.79319381478581
 31
0.0
  0
LINE
  5
1561
330
6C
100
AcDbEntity
  8
Visible (ANSI)
100
AcDbLine
 10
38.55265567206769
 20
19.77516333819222
 30
0.0
 11
38.56312396795439
 21
19.79329492844289
 31
0.0
  0
LINE
  5
1562
330
6C
100
AcDbEntity
  8
Visible (ANSI)
100
AcDbLine
 10
38.6360582331081
 20
19.91962057163387
 30
0.0
 11
38.64634524360417
 21
19.93743816689844
 31
0.0
  0
LINE
  5
1563
330
6C
100
AcDbEntity
  8
Visible (ANSI)
100
AcDbLine
 10
38.64709883194093
 20
19.93700420423699
 30
0.0
 11
38.64634524360417
 21
19.93743816689844
 31
0.0
  0
LINE
  5
1564
330
6C
100
AcDbEntity
  8
Visible (ANSI)
100
AcDbLine
 10
38.64634524360417
 20
19.93743816689844
 30
0.0
 11
38.61509524360416
 21
19.95557330848738
 31
0.0
  0
LINE
  5
1565
330
6C
100
AcDbEntity
  8
Visible (ANSI)
100
AcDbLine
 10
38.61509524360416
 20
19.95557330848738
 30
0.0
 11
38.64715926040446
 21
19.93710886923233
 31
0.0
  0
LINE
  5
1566
330
6C
100
AcDbEntity
  8
Visible (ANSI)
100
AcDbLine
 10
38.40119492247356
 20
16.45092722936974
 30
0.0
 11
38.40119492247355
 21
17.74449777025377
 31
0.0
  0
LINE
  5
1567
330
6C
100
AcDbEntity
  8
Visible (ANSI)
100
AcDbLine
 10
38.40119492247355
 20
17.74449777025377
 30
0.0
 11
38.17389283758557
 21
17.87640674602674
 31
0.0
  0
LINE
  5
1568
330
6C
100
AcDbEntity
  8
Visible (ANSI)
100
AcDbLine
 10
37.6335678608649
 20
18.18997058464661
 30
0.0
 11
37.60522024360402
 21
18.20642140233414
 31
0.0
  0
LINE
  5
1569
330
6C
100
AcDbEntity
  8
Visible (ANSI)
100
AcDbLine
 10
37.60522024360402
 20
18.20642140233414
 30
0.0
 11
38.52134524360415
 21
19.79319381478581
 31
0.0
  0
LINE
  5
156A
330
6C
100
AcDbEntity
  8
Visible (ANSI)
100
AcDbLine
 10
38.61509524360416
 20
19.95557330848738
 30
0.0
 11
39.5312202436043
 21
21.54234572093905
 31
0.0
  0
LINE
  5
156B
330
6C
100
AcDbEntity
  8
Visible (ANSI)
100
AcDbLine
 10
39.5312202436043
 20
21.54234572093905
 30
0.0
 11
39.55969610555146
 21
21.52594756264114
 31
0.0
  0
LINE
  5
156C
330
6C
100
AcDbEntity
  8
Visible (ANSI)
100
AcDbLine
 10
38.45352082428135
 20
16.45753759007213
 30
0.0
 11
38.45352082428135
 21
17.71436528743314
 31
0.0
  0
LINE
  5
156D
330
6C
100
AcDbEntity
  8
Visible (ANSI)
100
AcDbLine
 10
38.40119492247355
 20
17.74449777025377
 30
0.0
 11
38.45352082428135
 21
17.71436528743314
 31
0.0
  0
LINE
  5
156E
330
6C
100
AcDbEntity
  8
Visible (ANSI)
100
AcDbLine
 10
38.45352082428135
 20
17.71436528743314
 30
0.0
 11
38.17399382546739
 21
17.87658166187868
 31
0.0
  0
LINE
  5
156F
330
6C
100
AcDbEntity
  8
Visible (ANSI)
100
AcDbLine
 10
37.60522024360402
 20
18.20642140233414
 30
0.0
 11
37.63364567423356
 21
18.19005228550057
 31
0.0
  0
LINE
  5
1570
330
6C
100
AcDbEntity
  8
Visible (ANSI)
100
AcDbLine
 10
40.09999382546768
 20
21.21250598048359
 30
0.0
 11
41.17729614541232
 21
20.58732101708226
 31
0.0
  0
LINE
  5
1571
330
6C
100
AcDbEntity
  8
Visible (ANSI)
100
AcDbLine
 10
41.17729614541232
 20
20.58732101708226
 30
0.0
 11
41.17729614541233
 21
18.02129802429428
 31
0.0
  0
LINE
  5
1572
330
6C
100
AcDbEntity
  8
Visible (ANSI)
100
AcDbLine
 10
37.1055985226451
 20
18.83395558239968
 30
0.0
 11
37.06123310017021
 21
18.85950393005102
 31
0.0
  0
LINE
  5
1573
330
6C
100
AcDbEntity
  8
Visible (ANSI)
100
AcDbLine
 10
37.1055985226451
 20
18.88505227770234
 30
0.0
 11
37.1055985226451
 21
18.83395558239968
 31
0.0
  0
LINE
  5
1574
330
6C
100
AcDbEntity
  8
Visible (ANSI)
100
AcDbLine
 10
36.97301600117261
 20
18.80870308136629
 30
0.0
 11
37.1055985226451
 21
18.88505227770234
 31
0.0
  0
LINE
  5
1575
330
6C
100
AcDbEntity
  8
Visible (ANSI)
100
AcDbLine
 10
36.97301600117261
 20
18.75760638606363
 30
0.0
 11
36.97301600117261
 21
18.80870308136629
 31
0.0
  0
LINE
  5
1576
330
6C
100
AcDbEntity
  8
Visible (ANSI)
100
AcDbLine
 10
35.79756992247395
 20
21.3617117043141
 30
0.0
 11
35.74524402066616
 21
21.39184418713473
 31
0.0
  0
LINE
  5
1577
330
6C
100
AcDbEntity
  8
Visible (ANSI)
100
AcDbLine
 10
35.82881992247396
 20
21.34357656272515
 30
0.0
 11
35.79756992247395
 21
21.3617117043141
 31
0.0
  0
LINE
  5
1578
330
6C
100
AcDbEntity
  8
Visible (ANSI)
100
AcDbLine
 10
35.77655444912969
 20
21.37381371054113
 30
0.0
 11
35.87024402066618
 21
21.53608853924735
 31
0.0
  0
LINE
  5
1579
330
6C
100
AcDbEntity
  8
Visible (ANSI)
100
AcDbLine
 10
35.92256992247398
 20
21.50595605642672
 30
0.0
 11
35.82881992247396
 21
21.34357656272515
 31
0.0
  0
LINE
  5
157A
330
6C
100
AcDbEntity
  8
Visible (ANSI)
100
AcDbLine
 10
35.92256992247398
 20
21.50595605642672
 30
0.0
 11
35.87024402066618
 21
21.53608853924735
 31
0.0
  0
LINE
  5
157B
330
6C
100
AcDbEntity
  8
Visible (ANSI)
100
AcDbLine
 10
35.87024402066618
 20
21.53608853924735
 30
0.0
 11
35.83899402066617
 21
21.5542236808363
 31
0.0
  0
LINE
  5
157C
330
6C
100
AcDbEntity
  8
Visible (ANSI)
100
AcDbLine
 10
35.89131992247397
 20
21.52409119801566
 30
0.0
 11
35.92256992247398
 21
21.50595605642672
 31
0.0
  0
LINE
  5
157D
330
6C
100
AcDbEntity
  8
Visible (ANSI)
100
AcDbLine
 10
35.83899402066617
 20
21.5542236808363
 30
0.0
 11
35.89131992247397
 21
21.52409119801566
 31
0.0
  0
LINE
  5
157E
330
6C
100
AcDbEntity
  8
Visible (ANSI)
100
AcDbLine
 10
36.97301600117261
 20
18.75760638606363
 30
0.0
 11
36.81054751697536
 21
18.66404700839732
 31
0.0
  0
LINE
  5
157F
330
6C
100
AcDbEntity
  8
Visible (ANSI)
100
AcDbLine
 10
34.88044361346141
 20
19.7752868544482
 30
0.0
 11
34.82911902066601
 21
19.80507177468306
 31
0.0
  0
LINE
  5
1580
330
6C
100
AcDbEntity
  8
Visible (ANSI)
100
AcDbLine
 10
34.82911902066601
 20
19.80507177468306
 30
0.0
 11
35.74524402066616
 21
21.39184418713473
 31
0.0
  0
LINE
  5
1581
330
6C
100
AcDbEntity
  8
Visible (ANSI)
100
AcDbLine
 10
35.83899402066617
 20
21.5542236808363
 30
0.0
 11
36.75511902066631
 21
23.14099609328797
 31
0.0
  0
LINE
  5
1582
330
6C
100
AcDbEntity
  8
Visible (ANSI)
100
AcDbLine
 10
35.89131992247397
 20
21.52409119801566
 30
0.0
 11
36.8074449224741
 21
23.11086361046733
 31
0.0
  0
LINE
  5
1583
330
6C
100
AcDbEntity
  8
Visible (ANSI)
100
AcDbLine
 10
36.75511902066631
 20
23.14099609328797
 30
0.0
 11
36.8074449224741
 21
23.11086361046733
 31
0.0
  0
LINE
  5
1584
330
6C
100
AcDbEntity
  8
Visible (ANSI)
100
AcDbLine
 10
34.82911902066601
 20
19.80507177468306
 30
0.0
 11
34.88054286038251
 21
19.77545875487271
 31
0.0
  0
LINE
  5
1585
330
6C
100
AcDbEntity
  8
Visible (ANSI)
100
AcDbLine
 10
34.88144666343455
 20
19.77494230728986
 30
0.0
 11
35.79756992247395
 21
21.3617117043141
 31
0.0
  0
LINE
  5
1586
330
6C
100
AcDbEntity
  8
Visible (ANSI)
100
AcDbLine
 10
36.8074449224741
 20
23.11086361046733
 30
0.0
 11
38.39472283556225
 21
22.18972730023203
 31
0.0
  0
LINE
  5
1587
330
6C
100
AcDbEntity
  8
Visible (ANSI)
100
AcDbLine
 10
38.40119492247435
 20
22.17538891733779
 30
0.0
 11
38.40119492247436
 21
19.58508769944575
 31
0.0
  0
LINE
  5
1588
330
6C
100
AcDbEntity
  8
Visible (ANSI)
100
AcDbLine
 10
38.39682904238411
 20
19.5775257858605
 30
0.0
 11
37.1055985226451
 21
18.83395558239968
 31
0.0
  0
LINE
  5
1589
330
6C
100
AcDbEntity
  8
Visible (ANSI)
100
AcDbLine
 10
37.05327262083687
 20
17.20858059911413
 30
0.0
 11
37.05327262083687
 21
17.19732784296157
 31
0.0
  0
LINE
  5
158A
330
6C
100
AcDbEntity
  8
Visible (ANSI)
100
AcDbLine
 10
36.92069009936441
 20
17.27367703929765
 30
0.0
 11
36.92069009936441
 21
17.2849297954502
 31
0.0
  0
LINE
  5
158B
330
6C
100
AcDbEntity
  8
Visible (ANSI)
100
AcDbLine
 10
36.92069009936441
 20
17.2849297954502
 30
0.0
 11
36.94314764160036
 21
17.27199735697825
 31
0.0
  0
LINE
  5
158C
330
6C
100
AcDbEntity
  8
Visible (ANSI)
100
AcDbLine
 10
37.0282587184524
 20
17.22298514748953
 30
0.0
 11
37.05327262083687
 21
17.20858059911413
 31
0.0
  0
LINE
  5
158D
330
6C
100
AcDbEntity
  8
Visible (ANSI)
100
AcDbLine
 10
38.34886902066573
 20
16.45753759007213
 30
0.0
 11
38.34886902066574
 21
17.67872352142257
 31
0.0
  0
LINE
  5
158E
330
6C
100
AcDbEntity
  8
Visible (ANSI)
100
AcDbLine
 10
35.62509369953554
 20
19.24724141095088
 30
0.0
 11
35.62509369953554
 21
19.24341670513633
 31
0.0
  0
LINE
  5
158F
330
6C
100
AcDbEntity
  8
Visible (ANSI)
100
AcDbLine
 10
35.62509369953553
 20
18.4678243856646
 30
0.0
 11
35.62509369953553
 21
18.02129802429477
 31
0.0
  0
LINE
  5
1590
330
6C
100
AcDbEntity
  8
Visible (ANSI)
100
AcDbLine
 10
38.40119492247355
 20
16.45092722936973
 30
0.0
 11
38.40119492247355
 21
17.7088560042432
 31
0.0
  0
LINE
  5
1591
330
6C
100
AcDbEntity
  8
Visible Narrow (ANSI)
100
AcDbLine
 10
38.34886902066574
 20
17.67872352142257
 30
0.0
 11
38.13189763085642
 21
17.80366903502335
 31
0.0
  0
LINE
  5
1592
330
6C
100
AcDbEntity
  8
Visible Narrow (ANSI)
100
AcDbLine
 10
37.52602014222607
 20
18.15257067621483
 30
0.0
 11
36.28135948273826
 21
18.8693230807372
 31
0.0
  0
LINE
  5
1593
330
6C
100
AcDbEntity
  8
Visible Narrow (ANSI)
100
AcDbLine
 10
36.11894505566498
 20
18.96285132897619
 30
0.0
 11
35.62509369953554
 21
19.24724141095088
 31
0.0
  0
ELLIPSE
  5
1594
330
6C
100
AcDbEntity
  8
Visible (ANSI)
100
AcDbEllipse
 10
38.32677193375365
 20
17.66599865536656
 30
0.0
 11
0.0525231402692589
 21
0.0912079066542803
 31
0.0
210
0.0
220
0.0
230
1.0
 40
0.578093115915809
 41
5.495853435359273
 42
6.281251598756729
  0
LINE
  5
1595
330
6C
100
AcDbEntity
  8
Visible Narrow (ANSI)
100
AcDbLine
 10
35.61862161262346
 20
19.26157979384514
 30
0.0
 11
36.13004517804096
 21
18.96707054953976
 31
0.0
  0
LINE
  5
1596
330
6C
100
AcDbEntity
  8
Visible Narrow (ANSI)
100
AcDbLine
 10
36.27945500282654
 20
18.88103115369479
 30
0.0
 11
37.54894117292116
 21
18.14998268840655
 31
0.0
  0
LINE
  5
1597
330
6C
100
AcDbEntity
  8
Visible Narrow (ANSI)
100
AcDbLine
 10
38.13649545208855
 20
17.81163268178392
 30
0.0
 11
38.34239693375366
 21
17.69306190431682
 31
0.0
  0
LINE
  5
1598
330
6C
100
AcDbEntity
  8
Visible Narrow (ANSI)
100
AcDbLine
 10
38.34239693375366
 20
17.69306190431682
 30
0.0
 11
38.37939693375367
 21
17.75714767783104
 31
0.0
  0
ELLIPSE
  5
1599
330
6C
100
AcDbEntity
  8
Visible (ANSI)
100
AcDbEllipse
 10
38.32677193375366
 20
17.66599865536656
 30
0.0
 11
0.0155947566120127
 21
0.0270807323795367
 31
0.0
210
0.0
220
0.0
230
1.0
 40
0.5780931159158089
 41
5.495853435359109
 42
6.281251598756472
  0
LINE
  5
159A
330
6C
100
AcDbEntity
  8
Visible Narrow (ANSI)
100
AcDbLine
 10
38.40119492247355
 20
17.7088560042432
 30
0.0
 11
38.34886902066574
 21
17.67872352142257
 31
0.0
  0
ELLIPSE
  5
159B
330
6C
100
AcDbEntity
  8
Visible (ANSI)
100
AcDbEllipse
 10
35.60299661262345
 20
19.23451654489488
 30
0.0
 11
0.0155947566120127
 21
0.0270807323795367
 31
0.0
210
0.0
220
0.0
230
1.0
 40
0.5780931159158089
 41
5.495853435359109
 42
6.281251598756472
  0
LINE
  5
159C
330
6C
100
AcDbEntity
  8
Visible (ANSI)
100
AcDbLine
 10
36.27172352264455
 20
18.88894245385377
 30
0.0
 11
36.30297352264456
 21
18.87080731226482
 31
0.0
  0
LINE
  5
159D
330
6C
100
AcDbEntity
  8
Visible (ANSI)
100
AcDbLine
 10
36.30872352264456
 20
18.95302822736798
 30
0.0
 11
36.27172352264455
 21
18.88894245385377
 31
0.0
  0
LINE
  5
159E
330
6C
100
AcDbEntity
  8
Visible (ANSI)
100
AcDbLine
 10
36.30297352264456
 20
18.87080731226482
 30
0.0
 11
36.2779596202601
 21
18.88521186064022
 31
0.0
  0
LINE
  5
159F
330
6C
100
AcDbEntity
  8
Visible (ANSI)
100
AcDbLine
 10
36.20739100117211
 20
19.01124228211511
 30
0.0
 11
36.30866309418102
 21
18.95292356237264
 31
0.0
  0
LINE
  5
15A0
330
6C
100
AcDbEntity
  8
Visible (ANSI)
100
AcDbLine
 10
36.20739100117211
 20
19.01124228211511
 30
0.0
 11
36.1964643954935
 21
18.99231687733679
 31
0.0
  0
LINE
  5
15A1
330
6C
100
AcDbEntity
  8
Visible (ANSI)
100
AcDbLine
 10
36.1761410011721
 20
19.02937742370406
 30
0.0
 11
36.20739100117211
 21
19.01124228211511
 31
0.0
  0
LINE
  5
15A2
330
6C
100
AcDbEntity
  8
Visible (ANSI)
100
AcDbLine
 10
36.14301415074154
 20
18.97200013089508
 30
0.0
 11
36.1761410011721
 21
19.02937742370406
 31
0.0
  0
LINE
  5
15A3
330
6C
100
AcDbEntity
  8
Visible (ANSI)
100
AcDbLine
 10
37.60431992247343
 20
18.20694388077187
 30
0.0
 11
36.30872352264456
 21
18.95302822736798
 31
0.0
  0
LINE
  5
15A4
330
6C
100
AcDbEntity
  8
Visible (ANSI)
100
AcDbLine
 10
38.37939693375367
 20
17.75714767783104
 30
0.0
 11
38.17389283758556
 21
17.87640674602675
 31
0.0
  0
LINE
  5
15A5
330
6C
100
AcDbEntity
  8
Visible (ANSI)
100
AcDbLine
 10
37.6335678608649
 20
18.18997058464662
 30
0.0
 11
37.60431992247343
 21
18.20694388077187
 31
0.0
  0
LINE
  5
15A6
330
6C
100
AcDbEntity
  8
Visible (ANSI)
100
AcDbLine
 10
36.1761410011721
 20
19.02937742370406
 30
0.0
 11
34.88054460134323
 21
19.77546177030018
 31
0.0
  0
LINE
  5
15A7
330
6C
100
AcDbEntity
  8
Visible (ANSI)
100
AcDbLine
 10
37.55453812636666
 20
18.15021865410533
 30
0.0
 11
36.27172352264455
 21
18.88894245385377
 31
0.0
  0
LINE
  5
15A8
330
6C
100
AcDbEntity
  8
Visible (ANSI)
100
AcDbLine
 10
37.5733789857756
 20
18.15335269532498
 30
0.0
 11
37.60431992247343
 21
18.20694388077187
 31
0.0
  0
LINE
  5
15A9
330
6C
100
AcDbEntity
  8
Visible (ANSI)
100
AcDbLine
 10
34.84354460134323
 20
19.71137599678596
 30
0.0
 11
35.61862161262346
 21
19.26157979384514
 31
0.0
  0
LINE
  5
15AA
330
6C
100
AcDbEntity
  8
Visible (ANSI)
100
AcDbLine
 10
34.84354460134323
 20
19.71137599678596
 30
0.0
 11
34.88054460134323
 21
19.77546177030018
 31
0.0
  0
LINE
  5
15AB
330
6C
100
AcDbEntity
  8
Visible (ANSI)
100
AcDbLine
 10
36.13366354052189
 20
18.96844590999695
 30
0.0
 11
34.84354460134323
 21
19.71137599678596
 31
0.0
  0
LINE
  5
15AC
330
6C
100
AcDbEntity
  8
Visible (ANSI)
100
AcDbLine
 10
38.13689283758556
 20
17.81232097251254
 30
0.0
 11
38.34239693375366
 21
17.69306190431682
 31
0.0
  0
LINE
  5
15AD
330
6C
100
AcDbEntity
  8
Visible (ANSI)
100
AcDbLine
 10
38.5480187870602
 20
19.88615627019756
 30
0.0
 11
38.637344688868
 21
19.92010956089114
 31
0.0
  0
LINE
  5
15AE
330
6C
100
AcDbEntity
  8
Visible (ANSI)
100
AcDbLine
 10
38.563344688868
 20
19.79193801386271
 30
0.0
 11
38.5480187870602
 21
19.88615627019756
 31
0.0
  0
LINE
  5
15AF
330
6C
100
AcDbEntity
  8
Visible (ANSI)
100
AcDbLine
 10
38.23522098484703
 20
22.39222472246089
 30
0.0
 11
38.14589508303923
 21
22.35827143176731
 31
0.0
  0
LINE
  5
15B0
330
6C
100
AcDbEntity
  8
Visible (ANSI)
100
AcDbLine
 10
38.20809598484702
 20
22.32217472260749
 30
0.0
 11
38.14589508303923
 21
22.35827143176731
 31
0.0
  0
LINE
  5
15B1
330
6C
100
AcDbEntity
  8
Visible (ANSI)
100
AcDbLine
 10
38.29772098484704
 20
22.355954439283
 30
0.0
 11
38.27900722491447
 21
22.34884123115298
 31
0.0
  0
LINE
  5
15B2
330
6C
100
AcDbEntity
  8
Visible (ANSI)
100
AcDbLine
 10
38.23522098484703
 20
22.39222472246089
 30
0.0
 11
38.29772098484704
 21
22.355954439283
 31
0.0
  0
LINE
  5
15B3
330
6C
100
AcDbEntity
  8
Visible (ANSI)
100
AcDbLine
 10
38.14589508303923
 20
22.35827143176731
 30
0.0
 11
38.13056918123144
 21
22.45248968810216
 31
0.0
  0
LINE
  5
15B4
330
6C
100
AcDbEntity
  8
Visible (ANSI)
100
AcDbLine
 10
36.11494418123112
 20
18.96133057351856
 30
0.0
 11
36.20427008303893
 21
18.99528386421214
 31
0.0
  0
LINE
  5
15B5
330
6C
100
AcDbEntity
  8
Visible (ANSI)
100
AcDbLine
 10
36.26586976190836
 20
18.95953605947196
 30
0.0
 11
36.20427008303893
 21
18.99528386421214
 31
0.0
  0
LINE
  5
15B6
330
6C
100
AcDbEntity
  8
Visible (ANSI)
100
AcDbLine
 10
36.20427008303893
 20
18.99528386421214
 30
0.0
 11
36.21959598484671
 21
18.90106560787728
 31
0.0
  0
LINE
  5
15B7
330
6C
100
AcDbEntity
  8
Visible (ANSI)
100
AcDbLine
 10
36.27885994139069
 20
18.8846893822025
 30
0.0
 11
36.28204592426843
 21
18.86510307953545
 31
0.0
  0
LINE
  5
15B8
330
6C
100
AcDbEntity
  8
Visible (ANSI)
100
AcDbLine
 10
39.54565718886815
 20
21.49335034886769
 30
0.0
 11
38.637344688868
 21
19.92010956089114
 31
0.0
  0
LINE
  5
15B9
330
6C
100
AcDbEntity
  8
Visible (ANSI)
100
AcDbLine
 10
38.563344688868
 20
19.79193801386271
 30
0.0
 11
37.65503218886786
 21
18.21869722588617
 31
0.0
  0
LINE
  5
15BA
330
6C
100
AcDbEntity
  8
Visible (ANSI)
100
AcDbLine
 10
36.84602132485862
 20
23.19221160167027
 30
0.0
 11
38.13056918123144
 21
22.45248968810216
 31
0.0
  0
LINE
  5
15BB
330
6C
100
AcDbEntity
  8
Visible Narrow (ANSI)
100
AcDbLine
 10
36.84602132485862
 20
23.19221160167027
 30
0.0
 11
36.90852132485863
 21
23.15594131849238
 31
0.0
  0
LINE
  5
15BC
330
6C
100
AcDbEntity
  8
Visible (ANSI)
100
AcDbLine
 10
38.13061924180973
 20
22.4521819332661
 30
0.0
 11
36.90852132485863
 21
23.15594131849238
 31
0.0
  0
LINE
  5
15BD
330
6C
100
AcDbEntity
  8
Visible (ANSI)
100
AcDbLine
 10
39.52514207375087
 20
21.64912964320139
 30
0.0
 11
38.29772098484704
 21
22.355954439283
 31
0.0
  0
LINE
  5
15BE
330
6C
100
AcDbEntity
  8
Visible Narrow (ANSI)
100
AcDbLine
 10
39.51976884121985
 20
21.65250280889278
 30
0.0
 11
39.52025040113103
 21
21.65222334786325
 31
0.0
  0
LINE
  5
15BF
330
6C
100
AcDbEntity
  8
Visible (ANSI)
100
AcDbLine
 10
38.23522098484703
 20
22.39222472246089
 30
0.0
 11
39.51976884121985
 21
21.65250280889278
 31
0.0
  0
LINE
  5
15C0
330
6C
100
AcDbEntity
  8
Visible (ANSI)
100
AcDbLine
 10
36.11494418123112
 20
18.96133057351856
 30
0.0
 11
34.8303963248583
 21
19.70105248708667
 31
0.0
  0
LINE
  5
15C1
330
6C
100
AcDbEntity
  8
Visible (ANSI)
100
AcDbLine
 10
37.50414384121953
 20
18.16134369430917
 30
0.0
 11
36.21959598484671
 21
18.90106560787728
 31
0.0
  0
ELLIPSE
  5
15C2
330
6C
100
AcDbEntity
  8
Visible (ANSI)
100
AcDbEllipse
 10
39.45726884121984
 20
21.54424981309174
 30
0.0
 11
0.0627410136530935
 21
0.1081136679878281
 31
0.0
210
0.0
220
0.0
230
1.0
 40
0.8159692762135431
 41
4.715118375818312
 42
6.285914702613214
  0
ELLIPSE
  5
15C3
330
6C
100
AcDbEntity
  8
Visible (ANSI)
100
AcDbEllipse
 10
36.84602132485862
 20
23.04768832269134
 30
0.0
 11
0.06274101365309
 21
0.108113667987822
 31
0.0
210
0.0
220
0.0
230
0.9999999999999998
 40
0.8159692762135431
 41
0.0027293954335734
 42
0.506069974398693
  0
ELLIPSE
  5
15C4
330
6C
100
AcDbEntity
  8
Visible (ANSI)
100
AcDbEllipse
 10
36.84602132485862
 20
23.04768832269134
 30
0.0
 11
-0.0627410136530853
 21
-0.1081136679878351
 31
0.0
210
0.0
220
0.0
230
0.9999999999999998
 40
0.8159692762135431
 41
3.839637269384648
 42
4.427189620710203
  0
ELLIPSE
  5
15C5
330
6C
100
AcDbEntity
  8
Visible (ANSI)
100
AcDbEllipse
 10
36.78352132485861
 20
23.08395860586923
 30
0.0
 11
0.0627410136530935
 21
0.108113667987828
 31
0.0
210
0.0
220
0.0
230
1.0
 40
0.8159692762135431
 41
0.0027293954335477
 42
1.573525722228493
  0
LINE
  5
15C6
330
6C
100
AcDbEntity
  8
Visible Narrow (ANSI)
100
AcDbLine
 10
36.6951329772103
 20
23.13485807009328
 30
0.0
 11
36.73741019721158
 21
23.11032356223056
 31
0.0
  0
LINE
  5
15C7
330
6C
100
AcDbEntity
  8
Visible (ANSI)
100
AcDbLine
 10
35.85921680066493
 20
21.54248790552114
 30
0.0
 11
35.76550590567367
 21
21.38017614356916
 31
0.0
  0
LINE
  5
15C8
330
6C
100
AcDbEntity
  8
Visible (ANSI)
100
AcDbLine
 10
34.80450797721001
 20
19.86020494711176
 30
0.0
 11
36.6951329772103
 21
23.13485807009328
 31
0.0
  0
LINE
  5
15C9
330
6C
100
AcDbEntity
  8
Visible Narrow (ANSI)
100
AcDbLine
 10
34.80450797721001
 20
19.86020494711176
 30
0.0
 11
34.84678519721129
 21
19.83567043924903
 31
0.0
  0
ELLIPSE
  5
15CA
330
6C
100
AcDbEntity
  8
Visible (ANSI)
100
AcDbEllipse
 10
34.95539632485832
 20
19.77303519970982
 30
0.0
 11
-0.0627410136530944
 21
-0.1081136679878297
 31
0.0
210
0.0
220
0.0
230
0.9999999999999998
 40
0.8159692762135431
 41
5.001799348118637
 42
5.581690565824989
  0
ELLIPSE
  5
15CB
330
6C
100
AcDbEntity
  8
Visible (ANSI)
100
AcDbEllipse
 10
34.95539632485833
 20
19.77303519970982
 30
0.0
 11
-0.062741013653096
 21
-0.1081136679878324
 31
0.0
210
0.0
220
0.0
230
1.0
 40
0.8159692762135431
 41
5.7794158527201
 42
6.223716079462678
  0
ELLIPSE
  5
15CC
330
6C
100
AcDbEntity
  8
Visible (ANSI)
100
AcDbEllipse
 10
34.89289632485832
 20
19.80930548288771
 30
0.0
 11
-0.0627410136530929
 21
-0.1081136679878271
 31
0.0
210
0.0
220
0.0
230
1.0
 40
0.8159692762135431
 41
4.715118375818287
 42
6.285914702613213
  0
ELLIPSE
  5
15CD
330
6C
100
AcDbEntity
  8
Visible (ANSI)
100
AcDbEllipse
 10
37.56664384121954
 20
18.26959669011021
 30
0.0
 11
-0.0627410136530933
 21
-0.1081136679878277
 31
0.0
210
0.0
220
0.0
230
1.0
 40
0.8159692762135431
 41
0.0027293954335477
 42
1.573525722228493
  0
ELLIPSE
  5
15CE
330
6C
100
AcDbEntity
  8
Visible (ANSI)
100
AcDbEllipse
 10
40.02901701453291
 20
21.7015476989862
 30
0.0
 11
0.1882230409592809
 21
0.3243410039634849
 31
0.0
210
0.0
220
0.0
230
1.0
 40
0.8159692762135433
 41
4.715118375818279
 42
6.283185307179577
  0
ELLIPSE
  5
15CF
330
6C
100
AcDbEntity
  8
Visible (ANSI)
100
AcDbEllipse
 10
39.9665170145329
 20
21.73781798216408
 30
0.0
 11
0.1882230409592812
 21
0.3243410039634857
 31
0.0
210
0.0
220
0.0
230
1.0
 40
0.8159692762135431
 41
4.715118375818287
 42
6.28591470261318
  0
LINE
  5
15D0
330
6C
100
AcDbEntity
  8
Visible Narrow (ANSI)
100
AcDbLine
 10
40.23168205747782
 20
21.58511958949194
 30
0.0
 11
40.29418205747782
 21
21.54884930631405
 31
0.0
  0
LINE
  5
15D1
330
6C
100
AcDbEntity
  8
Visible (ANSI)
100
AcDbLine
 10
36.88364815154564
 20
23.94585714585703
 30
0.0
 11
40.15401701453293
 21
22.06257696956722
 31
0.0
  0
ELLIPSE
  5
15D2
330
6C
100
AcDbEntity
  8
Visible (ANSI)
100
AcDbEllipse
 10
36.69614815154561
 20
23.62109815845391
 30
0.0
 11
0.1882230409592809
 21
0.3243410039634849
 31
0.0
210
0.0
220
0.0
230
1.0
 40
0.8159692762135433
 41
0.002729395433569
 42
1.573525722228485
  0
LINE
  5
15D3
330
6C
100
AcDbEntity
  8
Visible (ANSI)
100
AcDbLine
 10
34.11848310860033
 20
19.7684357064875
 30
0.0
 11
36.43098310860069
 21
23.77379655112605
 31
0.0
  0
ELLIPSE
  5
15D4
330
6C
100
AcDbEntity
  8
Visible (ANSI)
100
AcDbEllipse
 10
34.44614815166339
 20
19.57946703084164
 30
0.0
 11
-0.1882230410774177
 21
-0.3243410041676568
 31
0.0
210
0.0
220
0.0
230
1.0
 40
0.8159692762135431
 41
0.0
 42
0.0027293954308414
  0
LINE
  5
15D5
330
6C
100
AcDbEntity
  8
Visible Narrow (ANSI)
100
AcDbLine
 10
34.19614815154522
 20
19.29097832641223
 30
0.0
 11
34.25864815154522
 21
19.25470804323434
 31
0.0
  0
ELLIPSE
  5
15D6
330
6C
100
AcDbEntity
  8
Visible (ANSI)
100
AcDbEllipse
 10
34.38364815154525
 20
19.61573731381536
 30
0.0
 11
-0.1882230409592807
 21
-0.3243410039634848
 31
0.0
210
0.0
220
0.0
230
1.0
 40
0.8159692762135433
 41
4.715118375818287
 42
6.28591470261318
  0
LINE
  5
15D7
330
6C
100
AcDbEntity
  8
Visible (ANSI)
100
AcDbLine
 10
34.25864815154522
 20
19.25470804323434
 30
0.0
 11
37.52901701453253
 21
17.37142786694452
 31
0.0
  0
LINE
  5
15D8
330
6C
100
AcDbEntity
  8
Visible Narrow (ANSI)
100
AcDbLine
 10
37.46651701453252
 20
17.40769815012241
 30
0.0
 11
37.52901701453253
 21
17.37142786694452
 31
0.0
  0
LINE
  5
15D9
330
6C
100
AcDbEntity
  8
Visible (ANSI)
100
AcDbLine
 10
37.46651701453252
 20
17.40769815012241
 30
0.0
 11
34.19614815154522
 21
19.29097832641223
 31
0.0
  0
ELLIPSE
  5
15DA
330
6C
100
AcDbEntity
  8
Visible (ANSI)
100
AcDbEllipse
 10
37.71651701453255
 20
17.69618685434764
 30
0.0
 11
-0.1882230409592808
 21
-0.3243410039634846
 31
0.0
210
0.0
220
0.0
230
1.0
 40
0.8159692762135433
 41
0.0027293954335953
 42
1.573525722228494
  0
LINE
  5
15DB
330
6C
100
AcDbEntity
  8
Visible Narrow (ANSI)
100
AcDbLine
 10
37.91918205747746
 20
17.57975874485338
 30
0.0
 11
37.98168205747747
 21
17.5434884616755
 31
0.0
  0
ELLIPSE
  5
15DC
330
6C
100
AcDbEntity
  8
Visible (ANSI)
100
AcDbEllipse
 10
37.65401701453254
 20
17.73245713752553
 30
0.0
 11
-0.1882230409592808
 21
-0.3243410039634848
 31
0.0
210
0.0
220
0.0
230
1.0
 40
0.8159692762135431
 41
0.002729395433569
 42
1.573525722228485
  0
LINE
  5
15DD
330
6C
100
AcDbEntity
  8
Visible (ANSI)
100
AcDbLine
 10
37.98168205747747
 20
17.5434884616755
 30
0.0
 11
40.29418205747783
 21
21.54884930631405
 31
0.0
  0
LINE
  5
15DE
330
6C
100
AcDbEntity
  8
Visible (ANSI)
100
AcDbLine
 10
40.23168205747782
 20
21.58511958949194
 30
0.0
 11
37.91918205747746
 21
17.57975874485338
 31
0.0
  0
LINE
  5
15DF
330
6C
100
AcDbEntity
  8
Visible (ANSI)
100
AcDbLine
 10
40.15474005549219
 20
22.06215898612757
 30
0.0
 11
40.21724005549219
 21
22.02588870294968
 31
0.0
  0
LINE
  5
15E0
330
6C
100
AcDbEntity
  8
Visible (ANSI)
100
AcDbLine
 10
34.19542511058597
 20
19.29139630985187
 30
0.0
 11
34.25792511058598
 21
19.25512602667398
 31
0.0
  0
ELLIPSE
  5
15E1
330
6C
100
AcDbEntity
  8
Visible (ANSI)
100
AcDbEllipse
 10
36.69614815154561
 20
23.62109815845391
 30
0.0
 11
0.0705836403597302
 21
0.1216278764863067
 31
0.0
210
0.0
220
0.0
230
1.0
 40
0.8159692762135431
 41
0.0
 42
6.283185307179586
  0
ELLIPSE
  5
15E2
330
6C
100
AcDbEntity
  8
Visible (ANSI)
100
AcDbEllipse
 10
36.75864815154562
 20
23.58482787527602
 30
0.0
 11
0.07058364035973
 21
0.1216278764863065
 31
0.0
210
0.0
220
0.0
230
0.9999999999999998
 40
0.8159692762135431
 41
0.3203287029216977
 42
2.821263950668107
  0
ELLIPSE
  5
15E3
330
6C
100
AcDbEntity
  8
Visible (ANSI)
100
AcDbEllipse
 10
34.38364815154525
 20
19.61573731381536
 30
0.0
 11
0.0705836403597302
 21
0.1216278764863067
 31
0.0
210
0.0
220
0.0
230
1.0
 40
0.8159692762135431
 41
0.0
 42
6.283185307179586
  0
ELLIPSE
  5
15E4
330
6C
100
AcDbEntity
  8
Visible (ANSI)
100
AcDbEllipse
 10
34.44614815154526
 20
19.57946703063747
 30
0.0
 11
0.0705836403597303
 21
0.1216278764863068
 31
0.0
210
0.0
220
0.0
230
1.0
 40
0.8159692762135431
 41
0.3203287029216981
 42
2.821263950668107
  0
ELLIPSE
  5
15E5
330
6C
100
AcDbEntity
  8
Visible (ANSI)
100
AcDbEllipse
 10
39.9665170145329
 20
21.73781798216408
 30
0.0
 11
0.0705836403597302
 21
0.1216278764863067
 31
0.0
210
0.0
220
0.0
230
1.0
 40
0.8159692762135431
 41
0.0
 42
6.283185307179586
  0
ELLIPSE
  5
15E6
330
6C
100
AcDbEntity
  8
Visible (ANSI)
100
AcDbEllipse
 10
40.02901701453291
 20
21.7015476989862
 30
0.0
 11
0.0705836403597303
 21
0.1216278764863066
 31
0.0
210
0.0
220
0.0
230
1.0
 40
0.8159692762135433
 41
0.3203287029216987
 42
2.821263950668108
  0
ELLIPSE
  5
15E7
330
6C
100
AcDbEntity
  8
Visible (ANSI)
100
AcDbEllipse
 10
37.65401701453254
 20
17.73245713752553
 30
0.0
 11
0.0705836403597302
 21
0.1216278764863067
 31
0.0
210
0.0
220
0.0
230
1.0
 40
0.8159692762135431
 41
0.0
 42
6.283185307179586
  0
ELLIPSE
  5
15E8
330
6C
100
AcDbEntity
  8
Visible (ANSI)
100
AcDbEllipse
 10
37.71651701453255
 20
17.69618685434765
 30
0.0
 11
0.0705836403597303
 21
0.1216278764863066
 31
0.0
210
0.0
220
0.0
230
1.0
 40
0.8159692762135433
 41
0.3203287029216987
 42
2.821263950668108
  0
LINE
  5
15E9
330
6C
100
AcDbEntity
  8
Visible (ANSI)
100
AcDbLine
 10
37.02825871845242
 20
17.22445725739298
 30
0.0
 11
37.02825871845242
 21
17.21173239133698
 31
0.0
  0
LINE
  5
15EA
330
6C
100
AcDbEntity
  8
Visible (ANSI)
100
AcDbLine
 10
36.92360691483682
 20
17.27199735697825
 30
0.0
 11
36.94570400174889
 21
17.27199735697825
 31
0.0
  0
LINE
  5
15EB
330
6C
100
AcDbEntity
  8
Visible (ANSI)
100
AcDbLine
 10
39.77413112649507
 20
17.21173239133674
 30
0.0
 11
39.77413112649507
 21
17.22445725739278
 31
0.0
  0
LINE
  5
15EC
330
6C
100
AcDbEntity
  8
Visible (ANSI)
100
AcDbLine
 10
39.85668584319857
 20
17.271997356978
 30
0.0
 11
39.8787829301107
 21
17.271997356978
 31
0.0
  0
LINE
  5
15ED
330
6C
100
AcDbEntity
  8
Visible (ANSI)
100
AcDbLine
 10
37.02825871845283
 20
18.751046721957
 30
0.0
 11
37.02825871845283
 21
18.84051524650631
 31
0.0
  0
LINE
  5
15EE
330
6C
100
AcDbEntity
  8
Visible (ANSI)
100
AcDbLine
 10
37.02825871845283
 20
18.751046721957
 30
0.0
 11
36.96162496041509
 21
18.75104672195701
 31
0.0
  0
LINE
  5
15EF
330
6C
100
AcDbEntity
  8
Visible (ANSI)
100
AcDbLine
 10
38.31280657482523
 20
16.47201047776886
 30
0.0
 11
37.02825871845242
 21
17.21173239133698
 31
0.0
  0
LINE
  5
15F0
330
6C
100
AcDbEntity
  8
Visible (ANSI)
100
AcDbLine
 10
36.92360691483682
 20
17.27199735697825
 30
0.0
 11
35.639059058464
 21
18.01171927054635
 31
0.0
  0
LINE
  5
15F1
330
6C
100
AcDbEntity
  8
Visible (ANSI)
100
AcDbLine
 10
41.1633307864839
 20
18.01171927054589
 30
0.0
 11
39.8787829301107
 21
17.271997356978
 31
0.0
  0
LINE
  5
15F2
330
6C
100
AcDbEntity
  8
Visible (ANSI)
100
AcDbLine
 10
39.77413112649507
 20
17.21173239133674
 30
0.0
 11
38.48958327012187
 21
16.47201047776885
 31
0.0
  0
LINE
  5
15F3
330
6C
100
AcDbEntity
  8
Visible (ANSI)
100
AcDbLine
 10
37.08658949985619
 20
18.84490215059699
 30
0.0
 11
37.02825871845285
 21
18.81131168759827
 31
0.0
  0
ELLIPSE
  5
15F4
330
6C
100
AcDbEntity
  8
Visible (ANSI)
100
AcDbEllipse
 10
38.40119492247357
 20
16.5229099419929
 30
0.0
 11
-0.125
 21
0.0000000000000072
 31
0.0
210
0.0
220
0.0
230
1.0
 40
0.5758617009853117
 41
0.785398163397554
 42
2.356194490192446
  0
ELLIPSE
  5
15F5
330
6C
100
AcDbEntity
  8
Visible (ANSI)
100
AcDbEllipse
 10
41.0749424388356
 20
18.06261873476994
 30
0.0
 11
0.1249999999999997
 21
0.0000000000000003
 31
0.0
210
0.0
220
0.0
230
1.0
 40
0.5758617009853115
 41
5.497787143782006
 42
6.894612392726378
  0
ELLIPSE
  5
15F6
330
6C
100
AcDbEntity
  8
Visible (ANSI)
100
AcDbEllipse
 10
38.40119492247437
 20
19.500134136942
 30
0.0
 11
-0.1250000000001861
 21
-0.0000000000000002
 31
0.0
210
0.0
220
0.0
230
1.0
 40
0.5758617009853117
 41
4.772945289795027
 42
4.829585993076595
  0
ELLIPSE
  5
15F7
330
6C
100
AcDbEntity
  8
Visible (ANSI)
100
AcDbEllipse
 10
35.72744740611233
 20
18.06261873477039
 30
0.0
 11
-0.1250000000000004
 21
-0.0000000000000002
 31
0.0
210
0.0
220
0.0
230
1.0
 40
0.5758617009853117
 41
5.671758221633027
 42
7.068583470576887
  0
ELLIPSE
  5
15F8
330
6C
100
AcDbEntity
  8
Visible (ANSI)
100
AcDbEllipse
 10
38.40119492247348
 20
16.0771451678753
 30
0.0
 11
0.3750000000000019
 21
0.000000000000023
 31
0.0
210
0.0
220
0.0
230
1.0
 40
0.5758617009853118
 41
3.926990816986862
 42
5.497787143781742
  0
LINE
  5
15F9
330
6C
100
AcDbEntity
  8
Visible Narrow (ANSI)
100
AcDbLine
 10
38.66635996541839
 20
16.02664016580847
 30
0.0
 11
38.66635996541839
 21
15.92444677520315
 31
0.0
  0
ELLIPSE
  5
15FA
330
6C
100
AcDbEntity
  8
Visible (ANSI)
100
AcDbEllipse
 10
38.40119492247348
 20
16.17933855848062
 30
0.0
 11
-0.3750000000000019
 21
0.0000000000000215
 31
0.0
210
0.0
220
0.0
230
1.0
 40
0.5758617009853117
 41
0.7853981633975434
 42
2.356194490192439
  0
LINE
  5
15FB
330
6C
100
AcDbEntity
  8
Visible Narrow (ANSI)
100
AcDbLine
 10
38.13602987952848
 20
16.02664016580851
 30
0.0
 11
38.13602987952848
 21
15.9244467752032
 31
0.0
  0
LINE
  5
15FC
330
6C
100
AcDbEntity
  8
Visible (ANSI)
100
AcDbLine
 10
38.66635996541839
 20
15.92444677520315
 30
0.0
 11
41.93672882840666
 21
17.80772695149242
 31
0.0
  0
LINE
  5
15FD
330
6C
100
AcDbEntity
  8
Visible Narrow (ANSI)
100
AcDbLine
 10
41.93672882840666
 20
17.90992034209774
 30
0.0
 11
41.93672882840666
 21
17.80772695149242
 31
0.0
  0
LINE
  5
15FE
330
6C
100
AcDbEntity
  8
Visible (ANSI)
100
AcDbLine
 10
41.93672882840666
 20
17.90992034209774
 30
0.0
 11
38.66635996541839
 21
16.02664016580847
 31
0.0
  0
ELLIPSE
  5
15FF
330
6C
100
AcDbEntity
  8
Visible (ANSI)
100
AcDbEllipse
 10
41.67156378546175
 20
17.96042534416457
 30
0.0
 11
0.374999999999998
 21
0.0000000000000007
 31
0.0
210
0.0
220
0.0
230
1.0
 40
0.5758617009853118
 41
5.49778714378198
 42
6.283185307179582
  0
ELLIPSE
  5
1600
330
6C
100
AcDbEntity
  8
Visible (ANSI)
100
AcDbEllipse
 10
41.67156378546174
 20
18.06261873476989
 30
0.0
 11
0.3750000000000011
 21
0.0000000000000007
 31
0.0
210
0.0
220
0.0
230
1.0
 40
0.5758617009853117
 41
5.497787143781994
 42
7.068583470576886
  0
LINE
  5
1601
330
6C
100
AcDbEntity
  8
Visible (ANSI)
100
AcDbLine
 10
41.17729614541235
 20
18.65264532405511
 30
0.0
 11
41.93672882840674
 21
18.21531712744199
 31
0.0
  0
LINE
  5
1602
330
6C
100
AcDbEntity
  8
Visible (ANSI)
100
AcDbLine
 10
34.86566101654126
 20
18.21531712744259
 30
0.0
 11
35.46462032713158
 21
18.56023485486002
 31
0.0
  0
ELLIPSE
  5
1603
330
6C
100
AcDbEntity
  8
Visible (ANSI)
100
AcDbEllipse
 10
35.13082605948618
 20
17.96042534416512
 30
0.0
 11
-0.3750000000000011
 21
-0.0000000000000003
 31
0.0
210
0.0
220
0.0
230
1.0
 40
0.5758617009853117
 41
0.0000000000000022
 42
0.7853981633973031
  0
LINE
  5
1604
330
6C
100
AcDbEntity
  8
Visible Narrow (ANSI)
100
AcDbLine
 10
34.86566101654118
 20
17.90992034209834
 30
0.0
 11
34.86566101654118
 21
17.80772695149302
 31
0.0
  0
ELLIPSE
  5
1605
330
6C
100
AcDbEntity
  8
Visible (ANSI)
100
AcDbEllipse
 10
35.13082605948618
 20
18.06261873477044
 30
0.0
 11
-0.3750000000000008
 21
-0.0000000000000008
 31
0.0
210
0.0
220
0.0
230
1.0
 40
0.5758617009853117
 41
5.49778714378198
 42
7.068583470576886
  0
LINE
  5
1606
330
6C
100
AcDbEntity
  8
Visible (ANSI)
100
AcDbLine
 10
34.86566101654118
 20
17.80772695149302
 30
0.0
 11
38.13602987952848
 21
15.9244467752032
 31
0.0
  0
LINE
  5
1607
330
6C
100
AcDbEntity
  8
Visible (ANSI)
100
AcDbLine
 10
38.13602987952848
 20
16.02664016580851
 30
0.0
 11
34.86566101654118
 21
17.90992034209834
 31
0.0
  0
LINE
  5
1608
330
6C
100
AcDbEntity
  8
Visible (ANSI)
100
AcDbLine
 10
42.04656378546174
 20
18.06261873476989
 30
0.0
 11
42.04656378546174
 21
17.96042534416457
 31
0.0
  0
LINE
  5
1609
330
6C
100
AcDbEntity
  8
Visible (ANSI)
100
AcDbLine
 10
34.75582605948618
 20
18.06261873477044
 30
0.0
 11
34.75582605948618
 21
17.96042534416512
 31
0.0
  0
ELLIPSE
  5
160A
330
6C
100
AcDbEntity
  8
Visible (ANSI)
100
AcDbEllipse
 10
41.67156378546174
 20
18.06261873476989
 30
0.0
 11
0.1406250000000002
 21
0.0000000000000003
 31
0.0
210
0.0
220
0.0
230
1.0
 40
0.5758617009853117
 41
0.0
 42
6.283185307179586
  0
ELLIPSE
  5
160B
330
6C
100
AcDbEntity
  8
Visible (ANSI)
100
AcDbEllipse
 10
41.67156378546174
 20
17.96042534416457
 30
0.0
 11
-0.1406249999999997
 21
-0.0000000000000087
 31
0.0
210
0.0
220
0.0
230
1.0
 40
0.5758617009853117
 41
3.824401853699317
 42
5.600376107069447
  0
ELLIPSE
  5
160C
330
6C
100
AcDbEntity
  8
Visible (ANSI)
100
AcDbEllipse
 10
38.40119492247348
 20
16.17933855848062
 30
0.0
 11
0.1406250000000002
 21
0.0000000000000003
 31
0.0
210
0.0
220
0.0
230
1.0
 40
0.5758617009853117
 41
0.0
 42
6.283185307179586
  0
ELLIPSE
  5
160D
330
6C
100
AcDbEntity
  8
Visible (ANSI)
100
AcDbEllipse
 10
38.40119492247348
 20
16.0771451678753
 30
0.0
 11
-0.1406249999999997
 21
-0.0000000000000086
 31
0.0
210
0.0
220
0.0
230
1.0
 40
0.5758617009853114
 41
3.824401853699317
 42
5.600376107069429
  0
ELLIPSE
  5
160E
330
6C
100
AcDbEntity
  8
Visible (ANSI)
100
AcDbEllipse
 10
35.13082605948618
 20
18.06261873477044
 30
0.0
 11
0.1406250000000002
 21
0.0000000000000003
 31
0.0
210
0.0
220
0.0
230
1.0
 40
0.5758617009853117
 41
0.0
 42
6.283185307179586
  0
ELLIPSE
  5
160F
330
6C
100
AcDbEntity
  8
Visible (ANSI)
100
AcDbEllipse
 10
35.13082605948618
 20
17.96042534416512
 30
0.0
 11
-0.1406249999999997
 21
-0.0000000000000086
 31
0.0
210
0.0
220
0.0
230
1.0
 40
0.5758617009853114
 41
3.824401853699317
 42
5.600376107069447
  0
MTEXT
  5
1610
330
6C
100
AcDbEntity
  8
Symbol (ANSI)
100
AcDbMText
 10
37.96335907773592
 20
12.21519172358386
 30
0.0
 40
0.4799999902880411
 41
0.0
 46
0.0
 71
     7
 72
     1
  1
 
  7
Label Text (ANSI)
 73
     1
 44
1.0
  0
DIMENSION
  5
1611
330
6C
100
AcDbEntity
  8
Dimension (ANSI)
100
AcDbDimension
280
     0
  2
*D24
 10
22.99017815343676
 20
24.05803809412269
 30
0.0
 11
23.79860378170308
 21
24.85304486627463
 31
0.0
 70
   160
  1
 14 GA.\P304 S.S.
 71
     5
 42
0.0740000000000052
 73
     0
 74
     0
 75
     0
  3
Default (ANSI)
100
AcDbAlignedDimension
 13
23.04250405524456
 23
24.11036399593049
 33
0.0
 14
22.99125709740698
 24
24.05695915015247
 34
0.0
 50
45.00000000000015
100
AcDbRotatedDimension
1001
ACAD
1000
DSTYLE
1002
{
1070
   289
1070
     1
1070
   279
1070
     1
1070
   271
1070
     2
1070
    76
1070
     1
1070
    75
1070
     1
1070
   272
1070
     2
1070
    48
1040
0.0
1070
    47
1040
0.0
1002
}
  0
DIMENSION
  5
171C
330
6C
100
AcDbEntity
  8
Dimension (ANSI)
100
AcDbDimension
280
     0
  2
*D25
 10
18.95893366142863
 20
22.04391964711509
 30
0.0
 11
18.10944638715668
 21
22.87959300368709
 31
0.0
 70
   160
  1
 10 GA.\P304 S.S.
 71
     5
 42
0.1250000000000018
 73
     0
 74
     0
 75
     0
  3
Default (ANSI)
100
AcDbAlignedDimension
 13
18.89615469122901
 23
22.15791737221211
 33
0.0
 14
18.98454303887733
 24
22.0695290245638
 34
0.0
 50
135.0
100
AcDbRotatedDimension
1001
ACAD
1000
DSTYLE
1002
{
1070
   289
1070
     1
1070
   279
1070
     1
1070
   271
1070
     2
1070
    76
1070
     1
1070
    75
1070
     1
1070
   272
1070
     2
1070
    48
1040
0.0
1070
    47
1040
0.0
1002
}
  0
MTEXT
  5
1827
102
{ACAD_XDICTIONARY
360
182E
102
}
330
6C
100
AcDbEntity
  8
Symbol (ANSI)
100
AcDbMText
 10
18.02435770532177
 20
12.99706233472073
 30
0.0
 40
0.2666666751771461
 41
26.66453385603535
 46
0.0
 71
     1
 72
     1
  3
{\fRomanS|b0|i0|c0|p2;\H1.95x;PART#: SSJWL454\P(DATA SUBJECT TO CHANGE WITHOUT NOTICE)\H1.8771x; \H0.53273x;\P\H0.51288x; \H2.4637x; \H0.40589x;\PTHIS DRAWING IS PROPERTY OF hUBBELL INC. WEIGMANN\H1.6952x; \H0.5899x;\PALL INFORMATION IS PROPRIETARY A
  1
ND NOT TO BE DUPLICATED\H1.588x; \H0.62972x;\P\H1.5731x; }
  7
Note Text (ANSI)
 73
     1
 44
0.6453872919082642
  0
ENDSEC
  0
SECTION
  2
OBJECTS
  0
DICTIONARY
  5
C
330
0
100
AcDbDictionary
281
     1
  3
ACAD_CIP_PREVIOUS_PRODUCT_INFO
350
1829
  3
ACAD_COLOR
350
63
  3
ACAD_GROUP
350
D
  3
ACAD_LAYOUT
350
62
  3
ACAD_MATERIAL
350
10
  3
ACAD_MLEADERSTYLE
350
66
  3
ACAD_MLINESTYLE
350
5F
  3
ACAD_PLOTSETTINGS
350
61
  3
ACAD_PLOTSTYLENAME
350
E
  3
ACAD_SCALELIST
350
42
  3
ACAD_TABLESTYLE
350
64
  3
ACAD_VISUALSTYLE
350
29
  3
ACDB_RECOMPOSE_DATA
350
1830
  3
AcDbVariableDictionary
350
76
  0
DICTIONARY
  5
182E
330
1827
100
AcDbDictionary
280
     1
281
     1
  3
ACAD_MTEXT_2008_RT
360
182F
  0
XRECORD
  5
1829
102
{ACAD_REACTORS
330
C
102
}
330
C
100
AcDbXrecord
280
     1
300
INVNTOR
300
2012
300
85795PDSP_2012_0F
  0
DICTIONARY
  5
63
102
{ACAD_REACTORS
330
C
102
}
330
C
100
AcDbDictionary
281
     1
  0
DICTIONARY
  5
D
102
{ACAD_REACTORS
330
C
102
}
330
C
100
AcDbDictionary
281
     1
  0
DICTIONARY
  5
62
102
{ACAD_REACTORS
330
C
102
}
330
C
100
AcDbDictionary
281
     1
  3
Layout1
350
6B
  3
Layout2
350
73
  3
Model
350
6F
  0
DICTIONARY
  5
10
102
{ACAD_REACTORS
330
C
102
}
330
C
100
AcDbDictionary
281
     1
  3
ByBlock
350
19
  3
ByLayer
350
11
  3
Global
350
21
  0
DICTIONARY
  5
66
102
{ACAD_REACTORS
330
C
102
}
330
C
100
AcDbDictionary
281
     1
  3
Standard
350
67
  0
DICTIONARY
  5
5F
102
{ACAD_REACTORS
330
C
102
}
330
C
100
AcDbDictionary
281
     1
  3
Standard
350
60
  0
DICTIONARY
  5
61
102
{ACAD_REACTORS
330
C
102
}
330
C
100
AcDbDictionary
281
     1
  0
ACDBDICTIONARYWDFLT
  5
E
102
{ACAD_REACTORS
330
C
102
}
330
C
100
AcDbDictionary
281
     1
  3
Normal
350
F
100
AcDbDictionaryWithDefault
340
F
  0
DICTIONARY
  5
42
102
{ACAD_REACTORS
330
C
102
}
330
C
100
AcDbDictionary
281
     1
  3
A0
350
43
  3
A1
350
44
  3
A2
350
45
  3
A3
350
46
  3
A4
350
47
  3
A5
350
48
  3
A6
350
49
  3
A7
350
4A
  3
A8
350
4B
  3
A9
350
4C
  3
B0
350
4D
  3
B1
350
4E
  3
B2
350
4F
  3
B3
350
50
  3
B4
350
51
  3
B5
350
52
  3
B6
350
53
  0
DICTIONARY
  5
64
102
{ACAD_REACTORS
330
C
102
}
330
C
100
AcDbDictionary
281
     1
  3
Standard
350
65
  0
DICTIONARY
  5
29
102
{ACAD_REACTORS
330
C
102
}
330
C
100
AcDbDictionary
281
     1
  3
2dWireframe
350
2F
  3
Basic
350
2E
  3
Brighten
350
35
  3
ColorChange
350
39
  3
Conceptual
350
32
  3
Dim
350
34
  3
EdgeColorOff
350
41
  3
Facepattern
350
38
  3
Flat
350
2A
  3
FlatWithEdges
350
2B
  3
Gouraud
350
2C
  3
GouraudWithEdges
350
2D
  3
Hidden
350
31
  3
JitterOff
350
3F
  3
Linepattern
350
37
  3
OverhangOff
350
40
  3
Realistic
350
33
  3
Shaded
350
3E
  3
Shaded with edges
350
3D
  3
Shades of Gray
350
3A
  3
Sketchy
350
3B
  3
Thicken
350
36
  3
Wireframe
350
30
  3
X-Ray
350
3C
  0
XRECORD
  5
1830
102
{ACAD_REACTORS
330
C
102
}
330
C
100
AcDbXrecord
280
     1
 90
        1
330
65
330
1827
  0
DICTIONARY
  5
76
102
{ACAD_REACTORS
330
C
102
}
330
C
100
AcDbDictionary
281
     1
  3
CANNOSCALE
350
79
  3
CMLEADERSTYLE
350
78
  3
CTABLESTYLE
350
77
  0
XRECORD
  5
182F
102
{ACAD_REACTORS
330
182E
102
}
330
182E
100
AcDbXrecord
280
     1
 40
3219711.0
  1
\pxsm0.94;{\fRomanS|b0|i0;\H0.5200;PART#: SSJWL454\P(DATA SUBJECT TO CHANGE WITHOUT NOTICE)\P\fRomanS|b0|i0;\H0.2667; \PTHIS DRAWING IS PROPERTY OF hUBBELL INC. WEIGMANN\PALL INFORMATION IS PROPRIETARY AND NOT TO BE DUPLICATED\P}
  0
LAYOUT
  5
6B
102
{ACAD_REACTORS
330
62
102
}
330
62
100
AcDbPlotSettings
  1

  2

  4

  6

 40
0.0
 41
0.0
 42
0.0
 43
0.0
 44
0.0
 45
0.0
 46
0.0
 47
0.0
 48
0.0
 49
0.0
140
0.0
141
0.0
142
1.0
143
1.0
 70
   688
 72
     0
 73
     0
 74
     5
  7

 75
    16
147
1.0
 76
     0
 77
     2
 78
   300
148
0.0
149
0.0
100
AcDbLayout
  1
Layout1
 70
     1
 71
     1
 10
0.0
 20
0.0
 11
12.0
 21
9.0
 12
0.0
 22
0.0
 32
0.0
 14
0.0
 24
0.0
 34
0.0
 15
0.0
 25
0.0
 35
0.0
146
0.0
 13
0.0
 23
0.0
 33
0.0
 16
1.0
 26
0.0
 36
0.0
 17
0.0
 27
1.0
 37
0.0
 76
     0
330
68
  0
LAYOUT
  5
73
102
{ACAD_REACTORS
330
62
102
}
330
62
100
AcDbPlotSettings
  1

  2

  4

  6

 40
0.0
 41
0.0
 42
0.0
 43
0.0
 44
0.0
 45
0.0
 46
0.0
 47
0.0
 48
0.0
 49
0.0
140
0.0
141
0.0
142
1.0
143
1.0
 70
   688
 72
     0
 73
     0
 74
     5
  7

 75
    16
147
1.0
 76
     0
 77
     2
 78
   300
148
0.0
149
0.0
100
AcDbLayout
  1
Layout2
 70
     1
 71
     2
 10
0.0
 20
0.0
 11
12.0
 21
9.0
 12
0.0
 22
0.0
 32
0.0
 14
0.0
 24
0.0
 34
0.0
 15
0.0
 25
0.0
 35
0.0
146
0.0
 13
0.0
 23
0.0
 33
0.0
 16
1.0
 26
0.0
 36
0.0
 17
0.0
 27
1.0
 37
0.0
 76
     0
330
70
  0
LAYOUT
  5
6F
102
{ACAD_REACTORS
330
62
102
}
330
62
100
AcDbPlotSettings
  1

  2

  4

  6

 40
0.0
 41
0.0
 42
0.0
 43
0.0
 44
0.0
 45
0.0
 46
0.0
 47
0.0
 48
0.0
 49
0.0
140
0.0
141
0.0
142
1.0
143
1.0
 70
  1712
 72
     0
 73
     0
 74
     0
  7

 75
     0
147
1.0
 76
     0
 77
     2
 78
   300
148
0.0
149
0.0
100
AcDbLayout
  1
Model
 70
     1
 71
     0
 10
0.0
 20
0.0
 11
12.0
 21
9.0
 12
0.0
 22
0.0
 32
0.0
 14
0.0
 24
0.0
 34
0.0
 15
0.0
 25
0.0
 35
0.0
146
0.0
 13
0.0
 23
0.0
 33
0.0
 16
1.0
 26
0.0
 36
0.0
 17
0.0
 27
1.0
 37
0.0
 76
     0
330
6C
  0
MATERIAL
  5
19
102
{ACAD_XDICTIONARY
360
1A
102
}
102
{ACAD_REACTORS
330
10
102
}
330
10
100
AcDbMaterial
  1
ByBlock
 72
     0
 43
0.0208333333333333
 43
0.0
 43
0.0
 43
0.0
 43
0.0
 43
0.0208333333333333
 43
0.0
 43
0.0
 43
0.0
 43
0.0
 43
1.0
 43
0.0
 43
0.0
 43
0.0
 43
0.0
 43
1.0
 77
     0
 47
0.0208333333333333
 47
0.0
 47
0.0
 47
0.0
 47
0.0
 47
0.0208333333333333
 47
0.0
 47
0.0
 47
0.0
 47
0.0
 47
1.0
 47
0.0
 47
0.0
 47
0.0
 47
0.0
 47
1.0
171
     0
 49
0.0208333333333333
 49
0.0
 49
0.0
 49
0.0
 49
0.0
 49
0.0208333333333333
 49
0.0
 49
0.0
 49
0.0
 49
0.0
 49
1.0
 49
0.0
 49
0.0
 49
0.0
 49
0.0
 49
1.0
175
     0
142
0.0208333333333333
142
0.0
142
0.0
142
0.0
142
0.0
142
0.0208333333333333
142
0.0
142
0.0
142
0.0
142
0.0
142
1.0
142
0.0
142
0.0
142
0.0
142
0.0
142
1.0
179
     0
144
0.0208333333333333
144
0.0
144
0.0
144
0.0
144
0.0
144
0.0208333333333333
144
0.0
144
0.0
144
0.0
144
0.0
144
1.0
144
0.0
144
0.0
144
0.0
144
0.0
144
1.0
147
0.0208333333333333
147
0.0
147
0.0
147
0.0
147
0.0
147
0.0208333333333333
147
0.0
147
0.0
147
0.0
147
0.0
147
1.0
147
0.0
147
0.0
147
0.0
147
0.0
147
1.0
  0
MATERIAL
  5
11
102
{ACAD_XDICTIONARY
360
12
102
}
102
{ACAD_REACTORS
330
10
102
}
330
10
100
AcDbMaterial
  1
ByLayer
 72
     0
 43
0.0208333333333333
 43
0.0
 43
0.0
 43
0.0
 43
0.0
 43
0.0208333333333333
 43
0.0
 43
0.0
 43
0.0
 43
0.0
 43
1.0
 43
0.0
 43
0.0
 43
0.0
 43
0.0
 43
1.0
 77
     0
 47
0.0208333333333333
 47
0.0
 47
0.0
 47
0.0
 47
0.0
 47
0.0208333333333333
 47
0.0
 47
0.0
 47
0.0
 47
0.0
 47
1.0
 47
0.0
 47
0.0
 47
0.0
 47
0.0
 47
1.0
171
     0
 49
0.0208333333333333
 49
0.0
 49
0.0
 49
0.0
 49
0.0
 49
0.0208333333333333
 49
0.0
 49
0.0
 49
0.0
 49
0.0
 49
1.0
 49
0.0
 49
0.0
 49
0.0
 49
0.0
 49
1.0
175
     0
142
0.0208333333333333
142
0.0
142
0.0
142
0.0
142
0.0
142
0.0208333333333333
142
0.0
142
0.0
142
0.0
142
0.0
142
1.0
142
0.0
142
0.0
142
0.0
142
0.0
142
1.0
179
     0
144
0.0208333333333333
144
0.0
144
0.0
144
0.0
144
0.0
144
0.0208333333333333
144
0.0
144
0.0
144
0.0
144
0.0
144
1.0
144
0.0
144
0.0
144
0.0
144
0.0
144
1.0
147
0.0208333333333333
147
0.0
147
0.0
147
0.0
147
0.0
147
0.0208333333333333
147
0.0
147
0.0
147
0.0
147
0.0
147
1.0
147
0.0
147
0.0
147
0.0
147
0.0
147
1.0
  0
MATERIAL
  5
21
102
{ACAD_XDICTIONARY
360
22
102
}
102
{ACAD_REACTORS
330
10
102
}
330
10
100
AcDbMaterial
  1
Global
 72
     0
 43
0.0208333333333333
 43
0.0
 43
0.0
 43
0.0
 43
0.0
 43
0.0208333333333333
 43
0.0
 43
0.0
 43
0.0
 43
0.0
 43
1.0
 43
0.0
 43
0.0
 43
0.0
 43
0.0
 43
1.0
 77
     0
 47
0.0208333333333333
 47
0.0
 47
0.0
 47
0.0
 47
0.0
 47
0.0208333333333333
 47
0.0
 47
0.0
 47
0.0
 47
0.0
 47
1.0
 47
0.0
 47
0.0
 47
0.0
 47
0.0
 47
1.0
171
     0
 49
0.0208333333333333
 49
0.0
 49
0.0
 49
0.0
 49
0.0
 49
0.0208333333333333
 49
0.0
 49
0.0
 49
0.0
 49
0.0
 49
1.0
 49
0.0
 49
0.0
 49
0.0
 49
0.0
 49
1.0
175
     0
142
0.0208333333333333
142
0.0
142
0.0
142
0.0
142
0.0
142
0.0208333333333333
142
0.0
142
0.0
142
0.0
142
0.0
142
1.0
142
0.0
142
0.0
142
0.0
142
0.0
142
1.0
179
     0
144
0.0208333333333333
144
0.0
144
0.0
144
0.0
144
0.0
144
0.0208333333333333
144
0.0
144
0.0
144
0.0
144
0.0
144
1.0
144
0.0
144
0.0
144
0.0
144
0.0
144
1.0
147
0.0208333333333333
147
0.0
147
0.0
147
0.0
147
0.0
147
0.0208333333333333
147
0.0
147
0.0
147
0.0
147
0.0
147
1.0
147
0.0
147
0.0
147
0.0
147
0.0
147
1.0
  0
MLEADERSTYLE
  5
67
102
{ACAD_XDICTIONARY
360
182C
102
}
102
{ACAD_REACTORS
330
66
102
}
330
66
100
AcDbMLeaderStyle
179
     2
170
     2
171
     1
172
     0
 90
        2
 40
0.0
 41
0.0
173
     1
 91
-1056964608
340
5B
 92
       -2
290
     1
 42
0.09
291
     1
 43
0.36
  3
Standard
 44
0.18
300

342
55
174
     1
178
     6
175
     1
176
     0
 93
-1056964608
 45
0.18
292
     0
297
     0
 46
0.18
 94
-1056964608
 47
1.0
 49
1.0
140
1.0
293
     1
141
0.0
294
     1
177
     0
142
1.0
295
     0
296
     0
143
0.125
271
     0
272
     9
273
     9
  0
MLINESTYLE
  5
60
102
{ACAD_REACTORS
330
5F
102
}
330
5F
100
AcDbMlineStyle
  2
STANDARD
 70
     0
  3

 62
   256
 51
90.0
 52
90.0
 71
     2
 49
0.5
 62
   256
  6
BYLAYER
 49
-0.5
 62
   256
  6
BYLAYER
  0
ACDBPLACEHOLDER
  5
F
102
{ACAD_REACTORS
330
E
102
}
330
E
  0
SCALE
  5
43
102
{ACAD_REACTORS
330
42
102
}
330
42
100
AcDbScale
 70
     0
300
1:1
140
1.0
141
1.0
290
     1
  0
SCALE
  5
44
102
{ACAD_REACTORS
330
42
102
}
330
42
100
AcDbScale
 70
     0
300
1/128" = 1'-0"
140
0.0078125
141
12.0
290
     0
  0
SCALE
  5
45
102
{ACAD_REACTORS
330
42
102
}
330
42
100
AcDbScale
 70
     0
300
1/64" = 1'-0"
140
0.015625
141
12.0
290
     0
  0
SCALE
  5
46
102
{ACAD_REACTORS
330
42
102
}
330
42
100
AcDbScale
 70
     0
300
1/32" = 1'-0"
140
0.03125
141
12.0
290
     0
  0
SCALE
  5
47
102
{ACAD_REACTORS
330
42
102
}
330
42
100
AcDbScale
 70
     0
300
1/16" = 1'-0"
140
0.0625
141
12.0
290
     0
  0
SCALE
  5
48
102
{ACAD_REACTORS
330
42
102
}
330
42
100
AcDbScale
 70
     0
300
3/32" = 1'-0"
140
0.09375
141
12.0
290
     0
  0
SCALE
  5
49
102
{ACAD_REACTORS
330
42
102
}
330
42
100
AcDbScale
 70
     0
300
1/8" = 1'-0"
140
0.125
141
12.0
290
     0
  0
SCALE
  5
4A
102
{ACAD_REACTORS
330
42
102
}
330
42
100
AcDbScale
 70
     0
300
3/16" = 1'-0"
140
0.1875
141
12.0
290
     0
  0
SCALE
  5
4B
102
{ACAD_REACTORS
330
42
102
}
330
42
100
AcDbScale
 70
     0
300
1/4" = 1'-0"
140
0.25
141
12.0
290
     0
  0
SCALE
  5
4C
102
{ACAD_REACTORS
330
42
102
}
330
42
100
AcDbScale
 70
     0
300
3/8" = 1'-0"
140
0.375
141
12.0
290
     0
  0
SCALE
  5
4D
102
{ACAD_REACTORS
330
42
102
}
330
42
100
AcDbScale
 70
     0
300
1/2" = 1'-0"
140
0.5
141
12.0
290
     0
  0
SCALE
  5
4E
102
{ACAD_REACTORS
330
42
102
}
330
42
100
AcDbScale
 70
     0
300
3/4" = 1'-0"
140
0.75
141
12.0
290
     0
  0
SCALE
  5
4F
102
{ACAD_REACTORS
330
42
102
}
330
42
100
AcDbScale
 70
     0
300
1" = 1'-0"
140
1.0
141
12.0
290
     0
  0
SCALE
  5
50
102
{ACAD_REACTORS
330
42
102
}
330
42
100
AcDbScale
 70
     0
300
1-1/2" = 1'-0"
140
1.5
141
12.0
290
     0
  0
SCALE
  5
51
102
{ACAD_REACTORS
330
42
102
}
330
42
100
AcDbScale
 70
     0
300
3" = 1'-0"
140
3.0
141
12.0
290
     0
  0
SCALE
  5
52
102
{ACAD_REACTORS
330
42
102
}
330
42
100
AcDbScale
 70
     0
300
6" = 1'-0"
140
6.0
141
12.0
290
     0
  0
SCALE
  5
53
102
{ACAD_REACTORS
330
42
102
}
330
42
100
AcDbScale
 70
     0
300
1'-0" = 1'-0"
140
12.0
141
12.0
290
     0
  0
TABLESTYLE
  5
65
102
{ACAD_XDICTIONARY
360
182A
102
}
102
{ACAD_REACTORS
330
64
102
}
330
64
100
AcDbTableStyle
280
     0
  3
Standard
 70
     0
 71
     0
 40
0.06
 41
0.06
280
     0
281
     0
  7
Standard
140
0.18
170
     2
 62
     0
 63
     7
283
     0
 90
      512
 91
        0
  1

274
    -2
284
     1
 64
     0
275
    -2
285
     1
 65
     0
276
    -2
286
     1
 66
     0
277
    -2
287
     1
 67
     0
278
    -2
288
     1
 68
     0
279
    -2
289
     1
 69
     0
  7
Standard
140
0.25
170
     5
 62
     0
 63
     7
283
     0
 90
      512
 91
        0
  1

274
    -2
284
     1
 64
     0
275
    -2
285
     1
 65
     0
276
    -2
286
     1
 66
     0
277
    -2
287
     1
 67
     0
278
    -2
288
     1
 68
     0
279
    -2
289
     1
 69
     0
  7
Standard
140
0.18
170
     5
 62
     0
 63
     7
283
     0
 90
      512
 91
        0
  1

274
    -2
284
     1
 64
     0
275
    -2
285
     1
 65
     0
276
    -2
286
     1
 66
     0
277
    -2
287
     1
 67
     0
278
    -2
288
     1
 68
     0
279
    -2
289
     1
 69
     0
  0
VISUALSTYLE
  5
2F
102
{ACAD_REACTORS
330
29
102
}
330
29
100
AcDbVisualStyle
  2
2dWireframe
 70
     4
177
     2
291
     0
 71
     0
176
     1
 72
     2
176
     1
 73
     0
176
     1
 90
        0
176
     1
 40
0.6
176
     1
 41
30.0
176
     1
 63
     7
421
 16777215
176
     1
 74
     1
176
     1
 91
        4
176
     1
 64
     7
176
     1
 65
   257
176
     1
 75
     1
176
     1
175
     1
176
     1
 42
1.0
176
     1
 92
        0
176
     1
 66
   257
176
     1
 43
1.0
176
     1
 76
     1
176
     1
 77
     6
176
     1
 78
     2
176
     1
 67
     7
176
     1
 79
     5
176
     1
170
     0
176
     1
171
     0
176
     1
290
     0
176
     1
 93
        1
176
     1
 44
0.0
176
     1
173
     0
176
     1
  0
VISUALSTYLE
  5
2E
102
{ACAD_REACTORS
330
29
102
}
330
29
100
AcDbVisualStyle
  2
Basic
 70
     7
177
     2
291
     1
 71
     1
176
     1
 72
     0
176
     1
 73
     1
176
     1
 90
        0
176
     1
 40
0.6
176
     1
 41
30.0
176
     1
 63
     7
421
 16777215
176
     1
 74
     0
176
     1
 91
        4
176
     1
 64
     7
176
     1
 65
   257
176
     1
 75
     1
176
     1
175
     1
176
     1
 42
1.0
176
     1
 92
        8
176
     1
 66
     7
176
     1
 43
1.0
176
     1
 76
     1
176
     1
 77
     6
176
     1
 78
     2
176
     1
 67
     7
176
     1
 79
     5
176
     1
170
     0
176
     1
171
     0
176
     1
290
     0
176
     1
 93
        1
176
     1
 44
0.0
176
     1
173
     0
176
     1
  0
VISUALSTYLE
  5
35
102
{ACAD_REACTORS
330
29
102
}
330
29
100
AcDbVisualStyle
  2
Brighten
 70
    12
177
     2
291
     1
 71
     2
176
     1
 72
     2
176
     1
 73
     0
176
     1
 90
        0
176
     1
 40
0.6
176
     1
 41
30.0
176
     1
 63
     7
421
 16777215
176
     1
 74
     1
176
     1
 91
        4
176
     1
 64
     7
176
     1
 65
   257
176
     1
 75
     1
176
     1
175
     1
176
     1
 42
1.0
176
     1
 92
        8
176
     1
 66
     7
176
     1
 43
1.0
176
     1
 76
     1
176
     1
 77
     6
176
     1
 78
     2
176
     1
 67
     7
176
     1
 79
     5
176
     1
170
     0
176
     1
171
     0
176
     1
290
     0
176
     1
 93
        1
176
     1
 44
50.0
176
     1
173
     0
176
     1
  0
VISUALSTYLE
  5
39
102
{ACAD_REACTORS
330
29
102
}
330
29
100
AcDbVisualStyle
  2
ColorChange
 70
    16
177
     2
291
     1
 71
     2
176
     1
 72
     2
176
     1
 73
     3
176
     1
 90
        0
176
     1
 40
0.6
176
     1
 41
30.0
176
     1
 63
     8
421
  8421504
176
     1
 74
     1
176
     1
 91
        4
176
     1
 64
     7
176
     1
 65
   257
176
     1
 75
     1
176
     1
175
     1
176
     1
 42
1.0
176
     1
 92
        8
176
     1
 66
     8
424
  8421504
176
     1
 43
1.0
176
     1
 76
     1
176
     1
 77
     6
176
     1
 78
     2
176
     1
 67
     7
176
     1
 79
     5
176
     1
170
     0
176
     1
171
     0
176
     1
290
     0
176
     1
 93
        1
176
     1
 44
0.0
176
     1
173
     0
176
     1
  0
VISUALSTYLE
  5
32
102
{ACAD_REACTORS
330
29
102
}
330
29
100
AcDbVisualStyle
  2
Conceptual
 70
     9
177
     2
291
     0
 71
     3
176
     1
 72
     2
176
     1
 73
     0
176
     1
 90
        0
176
     1
 40
0.6
176
     1
 41
30.0
176
     1
 63
     7
421
 16777215
176
     1
 74
     2
176
     1
 91
        2
176
     1
 64
     7
176
     1
 65
   257
176
     1
 75
     1
176
     1
175
     1
176
     1
 42
179.0
176
     1
 92
        8
176
     1
 66
     7
176
     1
 43
1.0
176
     1
 76
     1
176
     1
 77
     6
176
     1
 78
     2
176
     1
 67
     7
176
     1
 79
     3
176
     1
170
     0
176
     1
171
     0
176
     1
290
     0
176
     1
 93
        1
176
     1
 44
0.0
176
     1
173
     0
176
     1
  0
VISUALSTYLE
  5
34
102
{ACAD_REACTORS
330
29
102
}
330
29
100
AcDbVisualStyle
  2
Dim
 70
    11
177
     2
291
     1
 71
     2
176
     1
 72
     2
176
     1
 73
     0
176
     1
 90
        0
176
     1
 40
0.6
176
     1
 41
30.0
176
     1
 63
     7
421
 16777215
176
     1
 74
     1
176
     1
 91
        4
176
     1
 64
     7
176
     1
 65
   257
176
     1
 75
     1
176
     1
175
     1
176
     1
 42
1.0
176
     1
 92
        8
176
     1
 66
     7
176
     1
 43
1.0
176
     1
 76
     1
176
     1
 77
     6
176
     1
 78
     2
176
     1
 67
     7
176
     1
 79
     5
176
     1
170
     0
176
     1
171
     0
176
     1
290
     0
176
     1
 93
        1
176
     1
 44
-50.0
176
     1
173
     0
176
     1
  0
VISUALSTYLE
  5
41
102
{ACAD_REACTORS
330
29
102
}
330
29
100
AcDbVisualStyle
  2
EdgeColorOff
 70
    22
177
     2
291
     1
 71
     2
176
     0
 72
     2
176
     0
 73
     0
176
     0
 90
        0
176
     0
 40
0.6
176
     0
 41
30.0
176
     0
 63
     7
421
 16777215
176
     0
 74
     1
176
     0
 91
        4
176
     0
 64
     7
176
     0
 65
   257
176
     0
 75
     1
176
     0
175
     1
176
     0
 42
1.0
176
     0
 92
        8
176
     2
 66
     7
176
     0
 43
1.0
176
     0
 76
     1
176
     0
 77
     6
176
     0
 78
     2
176
     0
 67
     7
176
     0
 79
     5
176
     0
170
     0
176
     0
171
     0
176
     0
290
     0
176
     0
 93
        1
176
     0
 44
0.0
176
     0
173
     0
176
     0
  0
VISUALSTYLE
  5
38
102
{ACAD_REACTORS
330
29
102
}
330
29
100
AcDbVisualStyle
  2
Facepattern
 70
    15
177
     2
291
     1
 71
     2
176
     1
 72
     2
176
     1
 73
     0
176
     1
 90
        0
176
     1
 40
0.6
176
     1
 41
30.0
176
     1
 63
     7
421
 16777215
176
     1
 74
     1
176
     1
 91
        4
176
     1
 64
     7
176
     1
 65
   257
176
     1
 75
     1
176
     1
175
     1
176
     1
 42
1.0
176
     1
 92
        8
176
     1
 66
     7
176
     1
 43
1.0
176
     1
 76
     1
176
     1
 77
     6
176
     1
 78
     2
176
     1
 67
     7
176
     1
 79
     5
176
     1
170
     0
176
     1
171
     0
176
     1
290
     0
176
     1
 93
        1
176
     1
 44
0.0
176
     1
173
     0
176
     1
  0
VISUALSTYLE
  5
2A
102
{ACAD_REACTORS
330
29
102
}
330
29
100
AcDbVisualStyle
  2
Flat
 70
     0
177
     2
291
     1
 71
     2
176
     1
 72
     1
176
     1
 73
     1
176
     1
 90
        2
176
     1
 40
0.6
176
     1
 41
30.0
176
     1
 63
     7
421
 16777215
176
     1
 74
     0
176
     1
 91
        0
176
     1
 64
     7
176
     1
 65
   257
176
     1
 75
     1
176
     1
175
     1
176
     1
 42
1.0
176
     1
 92
        8
176
     1
 66
     7
176
     1
 43
1.0
176
     1
 76
     1
176
     1
 77
     6
176
     1
 78
     2
176
     1
 67
     7
176
     1
 79
     5
176
     1
170
     0
176
     1
171
     0
176
     1
290
     0
176
     1
 93
       13
176
     1
 44
0.0
176
     1
173
     0
176
     1
  0
VISUALSTYLE
  5
2B
102
{ACAD_REACTORS
330
29
102
}
330
29
100
AcDbVisualStyle
  2
FlatWithEdges
 70
     1
177
     2
291
     1
 71
     2
176
     1
 72
     1
176
     1
 73
     1
176
     1
 90
        2
176
     1
 40
0.6
176
     1
 41
30.0
176
     1
 63
     7
421
 16777215
176
     1
 74
     1
176
     1
 91
        0
176
     1
 64
     7
176
     1
 65
   257
176
     1
 75
     1
176
     1
175
     1
176
     1
 42
1.0
176
     1
 92
        0
176
     1
 66
   257
176
     1
 43
1.0
176
     1
 76
     1
176
     1
 77
     6
176
     1
 78
     2
176
     1
 67
     7
176
     1
 79
     5
176
     1
170
     0
176
     1
171
     0
176
     1
290
     0
176
     1
 93
       13
176
     1
 44
0.0
176
     1
173
     0
176
     1
  0
VISUALSTYLE
  5
2C
102
{ACAD_REACTORS
330
29
102
}
330
29
100
AcDbVisualStyle
  2
Gouraud
 70
     2
177
     2
291
     1
 71
     2
176
     1
 72
     2
176
     1
 73
     1
176
     1
 90
        2
176
     1
 40
0.6
176
     1
 41
30.0
176
     1
 63
     7
421
 16777215
176
     1
 74
     0
176
     1
 91
        0
176
     1
 64
     7
176
     1
 65
   257
176
     1
 75
     1
176
     1
175
     1
176
     1
 42
1.0
176
     1
 92
        0
176
     1
 66
     7
176
     1
 43
1.0
176
     1
 76
     1
176
     1
 77
     6
176
     1
 78
     2
176
     1
 67
     7
176
     1
 79
     5
176
     1
170
     0
176
     1
171
     0
176
     1
290
     0
176
     1
 93
       13
176
     1
 44
0.0
176
     1
173
     0
176
     1
  0
VISUALSTYLE
  5
2D
102
{ACAD_REACTORS
330
29
102
}
330
29
100
AcDbVisualStyle
  2
GouraudWithEdges
 70
     3
177
     2
291
     1
 71
     2
176
     1
 72
     2
176
     1
 73
     1
176
     1
 90
        2
176
     1
 40
0.6
176
     1
 41
30.0
176
     1
 63
     7
421
 16777215
176
     1
 74
     1
176
     1
 91
        0
176
     1
 64
     7
176
     1
 65
   257
176
     1
 75
     1
176
     1
175
     1
176
     1
 42
1.0
176
     1
 92
        0
176
     1
 66
   257
176
     1
 43
1.0
176
     1
 76
     1
176
     1
 77
     6
176
     1
 78
     2
176
     1
 67
     7
176
     1
 79
     5
176
     1
170
     0
176
     1
171
     0
176
     1
290
     0
176
     1
 93
       13
176
     1
 44
0.0
176
     1
173
     0
176
     1
  0
VISUALSTYLE
  5
31
102
{ACAD_REACTORS
330
29
102
}
330
29
100
AcDbVisualStyle
  2
Hidden
 70
     6
177
     2
291
     0
 71
     1
176
     1
 72
     2
176
     1
 73
     2
176
     1
 90
        0
176
     1
 40
0.6
176
     1
 41
30.0
176
     1
 63
     7
421
 16777215
176
     1
 74
     2
176
     1
 91
        2
176
     1
 64
     7
176
     1
 65
   257
176
     1
 75
     2
176
     1
175
     1
176
     1
 42
40.0
176
     1
 92
        0
176
     1
 66
   257
176
     1
 43
1.0
176
     1
 76
     1
176
     1
 77
     6
176
     1
 78
     2
176
     1
 67
     7
176
     1
 79
     3
176
     1
170
     0
176
     1
171
     0
176
     1
290
     0
176
     1
 93
        1
176
     1
 44
0.0
176
     1
173
     0
176
     1
  0
VISUALSTYLE
  5
3F
102
{ACAD_REACTORS
330
29
102
}
330
29
100
AcDbVisualStyle
  2
JitterOff
 70
    20
177
     2
291
     1
 71
     2
176
     0
 72
     2
176
     0
 73
     0
176
     0
 90
        0
176
     0
 40
0.6
176
     0
 41
30.0
176
     0
 63
     7
421
 16777215
176
     0
 74
     1
176
     0
 91
        4
176
     0
 64
     7
176
     0
 65
   257
176
     0
 75
     1
176
     0
175
     1
176
     0
 42
1.0
176
     0
 92
       10
176
     2
 66
     7
176
     0
 43
1.0
176
     0
 76
     1
176
     0
 77
     6
176
     0
 78
     2
176
     0
 67
     7
176
     0
 79
     5
176
     0
170
     0
176
     0
171
     0
176
     0
290
     0
176
     0
 93
        1
176
     0
 44
0.0
176
     0
173
     0
176
     0
  0
VISUALSTYLE
  5
37
102
{ACAD_REACTORS
330
29
102
}
330
29
100
AcDbVisualStyle
  2
Linepattern
 70
    14
177
     2
291
     1
 71
     2
176
     1
 72
     2
176
     1
 73
     0
176
     1
 90
        0
176
     1
 40
0.6
176
     1
 41
30.0
176
     1
 63
     7
421
 16777215
176
     1
 74
     1
176
     1
 91
        4
176
     1
 64
     7
176
     1
 65
   257
176
     1
 75
     7
176
     1
175
     7
176
     1
 42
1.0
176
     1
 92
        8
176
     1
 66
     7
176
     1
 43
1.0
176
     1
 76
     1
176
     1
 77
     6
176
     1
 78
     2
176
     1
 67
     7
176
     1
 79
     5
176
     1
170
     0
176
     1
171
     0
176
     1
290
     0
176
     1
 93
        1
176
     1
 44
0.0
176
     1
173
     0
176
     1
  0
VISUALSTYLE
  5
40
102
{ACAD_REACTORS
330
29
102
}
330
29
100
AcDbVisualStyle
  2
OverhangOff
 70
    21
177
     2
291
     1
 71
     2
176
     0
 72
     2
176
     0
 73
     0
176
     0
 90
        0
176
     0
 40
0.6
176
     0
 41
30.0
176
     0
 63
     7
421
 16777215
176
     0
 74
     1
176
     0
 91
        4
176
     0
 64
     7
176
     0
 65
   257
176
     0
 75
     1
176
     0
175
     1
176
     0
 42
1.0
176
     0
 92
        9
176
     2
 66
     7
176
     0
 43
1.0
176
     0
 76
     1
176
     0
 77
     6
176
     0
 78
     2
176
     0
 67
     7
176
     0
 79
     5
176
     0
170
     0
176
     0
171
     0
176
     0
290
     0
176
     0
 93
        1
176
     0
 44
0.0
176
     0
173
     0
176
     0
  0
VISUALSTYLE
  5
33
102
{ACAD_REACTORS
330
29
102
}
330
29
100
AcDbVisualStyle
  2
Realistic
 70
     8
177
     2
291
     0
 71
     2
176
     1
 72
     3
176
     1
 73
     0
176
     1
 90
        2
176
     1
 40
0.6
176
     1
 41
30.0
176
     1
 63
     7
421
 16777215
176
     1
 74
     0
176
     1
 91
        0
176
     1
 64
     7
176
     1
 65
   257
176
     1
 75
     1
176
     1
175
     1
176
     1
 42
1.0
176
     1
 92
        8
176
     1
 66
   257
176
     1
 43
1.0
176
     1
 76
     1
176
     1
 77
     6
176
     1
 78
     2
176
     1
 67
     7
176
     1
 79
     3
176
     1
170
     0
176
     1
171
     0
176
     1
290
     0
176
     1
 93
       13
176
     1
 44
0.0
176
     1
173
     0
176
     1
  0
VISUALSTYLE
  5
3E
102
{ACAD_REACTORS
330
29
102
}
330
29
100
AcDbVisualStyle
  2
Shaded
 70
    27
177
     2
291
     0
 71
     2
176
     1
 72
     2
176
     1
 73
     1
176
     1
 90
        2
176
     1
 40
0.6
176
     1
 41
30.0
176
     1
 63
     7
421
 16777215
176
     1
 74
     0
176
     1
 91
        4
176
     1
 64
     7
176
     1
 65
   257
176
     1
 75
     1
176
     1
175
     1
176
     1
 42
1.0
176
     1
 92
        8
176
     1
 66
   257
176
     1
 43
1.0
176
     1
 76
     1
176
     1
 77
     6
176
     1
 78
     2
176
     1
 67
     8
425
  7895160
176
     1
 79
     3
176
     1
170
     0
176
     1
171
     0
176
     1
290
     0
176
     1
 93
        5
176
     1
 44
0.0
176
     1
173
     0
176
     1
  0
VISUALSTYLE
  5
3D
102
{ACAD_REACTORS
330
29
102
}
330
29
100
AcDbVisualStyle
  2
Shaded with edges
 70
    26
177
     2
291
     0
 71
     2
176
     1
 72
     2
176
     1
 73
     1
176
     1
 90
        2
176
     1
 40
0.6
176
     1
 41
30.0
176
     1
 63
     7
421
 16777215
176
     1
 74
     1
176
     1
 91
       10
176
     1
 64
     7
176
     1
 65
   257
176
     1
 75
     2
176
     1
175
     1
176
     1
 42
1.0
176
     1
 92
        8
176
     1
 66
   257
176
     1
 43
1.0
176
     1
 76
     1
176
     1
 77
     6
176
     1
 78
     2
176
     1
 67
     7
176
     1
 79
     3
176
     1
170
     0
176
     1
171
     0
176
     1
290
     0
176
     1
 93
        5
176
     1
 44
0.0
176
     1
173
     0
176
     1
  0
VISUALSTYLE
  5
3A
102
{ACAD_REACTORS
330
29
102
}
330
29
100
AcDbVisualStyle
  2
Shades of Gray
 70
    23
177
     2
291
     0
 71
     2
176
     1
 72
     2
176
     1
 73
     3
176
     1
 90
        0
176
     1
 40
0.6
176
     1
 41
30.0
176
     1
 63
     7
421
 16777215
176
     1
 74
     2
176
     1
 91
        2
176
     1
 64
     7
176
     1
 65
     7
176
     1
 75
     1
176
     1
175
     1
176
     1
 42
40.0
176
     1
 92
        8
176
     1
 66
     7
176
     1
 43
1.0
176
     1
 76
     1
176
     1
 77
     6
176
     1
 78
     2
176
     1
 67
     7
176
     1
 79
     3
176
     1
170
     0
176
     1
171
     0
176
     1
290
     0
176
     1
 93
        1
176
     1
 44
0.0
176
     1
173
     0
176
     1
  0
VISUALSTYLE
  5
3B
102
{ACAD_REACTORS
330
29
102
}
330
29
100
AcDbVisualStyle
  2
Sketchy
 70
    24
177
     2
291
     0
 71
     1
176
     1
 72
     2
176
     1
 73
     2
176
     1
 90
        0
176
     1
 40
0.6
176
     1
 41
30.0
176
     1
 63
     7
421
 16777215
176
     1
 74
     2
176
     1
 91
        2
176
     1
 64
     7
176
     1
 65
     7
176
     1
 75
     1
176
     1
175
     1
176
     1
 42
40.0
176
     1
 92
       11
176
     1
 66
     7
176
     1
 43
1.0
176
     1
 76
     1
176
     1
 77
     6
176
     1
 78
     2
176
     1
 67
     7
176
     1
 79
     6
176
     1
170
     0
176
     1
171
     0
176
     1
290
     0
176
     1
 93
        1
176
     1
 44
0.0
176
     1
173
     0
176
     1
  0
VISUALSTYLE
  5
36
102
{ACAD_REACTORS
330
29
102
}
330
29
100
AcDbVisualStyle
  2
Thicken
 70
    13
177
     2
291
     1
 71
     2
176
     1
 72
     2
176
     1
 73
     0
176
     1
 90
        0
176
     1
 40
0.6
176
     1
 41
30.0
176
     1
 63
     7
421
 16777215
176
     1
 74
     1
176
     1
 91
        4
176
     1
 64
     7
176
     1
 65
   257
176
     1
 75
     1
176
     1
175
     1
176
     1
 42
1.0
176
     1
 92
       12
176
     1
 66
     7
176
     1
 43
1.0
176
     1
 76
     1
176
     1
 77
     6
176
     1
 78
     2
176
     1
 67
     7
176
     1
 79
     5
176
     1
170
     0
176
     1
171
     0
176
     1
290
     0
176
     1
 93
        1
176
     1
 44
0.0
176
     1
173
     0
176
     1
  0
VISUALSTYLE
  5
30
102
{ACAD_REACTORS
330
29
102
}
330
29
100
AcDbVisualStyle
  2
Wireframe
 70
     5
177
     2
291
     0
 71
     0
176
     1
 72
     2
176
     1
 73
     0
176
     1
 90
        0
176
     1
 40
0.6
176
     1
 41
30.0
176
     1
 63
     7
421
 16777215
176
     1
 74
     1
176
     1
 91
        4
176
     1
 64
     7
176
     1
 65
   257
176
     1
 75
     1
176
     1
175
     1
176
     1
 42
1.0
176
     1
 92
        0
176
     1
 66
   257
176
     1
 43
1.0
176
     1
 76
     1
176
     1
 77
     6
176
     1
 78
     2
176
     1
 67
     7
176
     1
 79
     3
176
     1
170
     0
176
     1
171
     0
176
     1
290
     0
176
     1
 93
        1
176
     1
 44
0.0
176
     1
173
     0
176
     1
  0
VISUALSTYLE
  5
3C
102
{ACAD_REACTORS
330
29
102
}
330
29
100
AcDbVisualStyle
  2
X-Ray
 70
    25
177
     2
291
     0
 71
     2
176
     1
 72
     2
176
     1
 73
     1
176
     1
 90
        1
176
     1
 40
0.5
176
     1
 41
30.0
176
     1
 63
     7
421
 16777215
176
     1
 74
     1
176
     1
 91
        0
176
     1
 64
     7
176
     1
 65
   257
176
     1
 75
     1
176
     1
175
     1
176
     1
 42
1.0
176
     1
 92
        8
176
     1
 66
     7
176
     1
 43
1.0
176
     1
 76
     1
176
     1
 77
     6
176
     1
 78
     2
176
     1
 67
     7
176
     1
 79
     3
176
     1
170
     0
176
     1
171
     0
176
     1
290
     0
176
     1
 93
       13
176
     1
 44
0.0
176
     1
173
     0
176
     1
  0
DICTIONARYVAR
  5
79
102
{ACAD_REACTORS
330
76
102
}
330
76
100
DictionaryVariables
280
     0
  1
1:1
  0
DICTIONARYVAR
  5
78
102
{ACAD_REACTORS
330
76
102
}
330
76
100
DictionaryVariables
280
     0
  1
STANDARD
  0
DICTIONARYVAR
  5
77
102
{ACAD_REACTORS
330
76
102
}
330
76
100
DictionaryVariables
280
     0
  1
STANDARD
  0
DICTIONARY
  5
1A
330
19
100
AcDbDictionary
280
     1
281
     1
  3
BUMPTILE
360
1C
  3
DIFFUSETILE
360
1B
  3
OPACITYTILE
360
1F
  3
REFLECTIONTILE
360
1E
  3
REFRACTIONTILE
360
20
  3
SPECULARTILE
360
1D
  0
DICTIONARY
  5
12
330
11
100
AcDbDictionary
280
     1
281
     1
  3
BUMPTILE
360
14
  3
DIFFUSETILE
360
13
  3
FBXASSET
360
F5
  3
OPACITYTILE
360
17
  3
REFLECTIONTILE
360
16
  3
REFRACTIONTILE
360
18
  3
SPECULARTILE
360
15
  0
DICTIONARY
  5
22
330
21
100
AcDbDictionary
280
     1
281
     1
  3
BUMPTILE
360
24
  3
DIFFUSETILE
360
23
  3
FBXASSET
360
BA
  3
OPACITYTILE
360
27
  3
REFLECTIONTILE
360
26
  3
REFRACTIONTILE
360
28
  3
SPECULARTILE
360
25
  0
DICTIONARY
  5
182C
330
67
100
AcDbDictionary
280
     1
281
     1
  3
ACAD_XREC_ROUNDTRIP
360
182D
  0
DICTIONARY
  5
182A
330
65
100
AcDbDictionary
280
     1
281
     1
  3
ACAD_ROUNDTRIP_2008_TABLESTYLE_CELLSTYLEMAP
360
182B
  0
XRECORD
  5
1C
102
{ACAD_REACTORS
330
1A
102
}
330
1A
100
AcDbXrecord
280
     1
270
     1
271
     1
  0
XRECORD
  5
1B
102
{ACAD_REACTORS
330
1A
102
}
330
1A
100
AcDbXrecord
280
     1
270
     1
271
     1
  0
XRECORD
  5
1F
102
{ACAD_REACTORS
330
1A
102
}
330
1A
100
AcDbXrecord
280
     1
270
     1
271
     1
  0
XRECORD
  5
1E
102
{ACAD_REACTORS
330
1A
102
}
330
1A
100
AcDbXrecord
280
     1
270
     1
271
     1
  0
XRECORD
  5
20
102
{ACAD_REACTORS
330
1A
102
}
330
1A
100
AcDbXrecord
280
     1
270
     1
271
     1
  0
XRECORD
  5
1D
102
{ACAD_REACTORS
330
1A
102
}
330
1A
100
AcDbXrecord
280
     1
270
     1
271
     1
  0
XRECORD
  5
14
102
{ACAD_REACTORS
330
12
102
}
330
12
100
AcDbXrecord
280
     1
270
     1
271
     1
  0
XRECORD
  5
13
102
{ACAD_REACTORS
330
12
102
}
330
12
100
AcDbXrecord
280
     1
270
     1
271
     1
  0
XRECORD
  5
F5
102
{ACAD_REACTORS
330
12
102
}
330
12
100
AcDbXrecord
280
     1
 70
     1
 90
1959938040
 71
     1
  1
79CCF3F5-34F5-41D5-98FF-2EAA95C881B1
311
504B03040A0000080000B34A22423DEE336E79000000790000001B0000006175746F6465736B2D64657369676E2D7061636B6167652E786D6C3C3F786D6C2076657273696F6E3D22312E302220656E636F64696E673D227574662D3822203F3E3C666F726D6174733E3C666F726D61743E687474703A2F2F736368656D612E
311
6175746F6465736B2E636F6D2F64657369676E2D7061636B6167652F323030393C2F666F726D61743E3C2F666F726D6174733E504B0304140006080800B34A2242D486FD9CA0000000F4000000130000005B436F6E74656E745F54797065735D2E786D6C7D8EC10E82300C865F65E91D8A1E8C310C0EEA1BF002731658846E
311
D98AC1B77784ABF1D8FE5FBFBF75BBCE937A534CCEB38643598122B6FEE978D0B0485F9C41B54DDD7D022595594E1A469170414C76A4D9A4D207E29CF43ECE46F218070CC6BECC4078ACAA135ACF422C856C0E68EA1BF5669944DDD7BCDE7B1F8E415D77AECB980613C2E4AC91FC167A2B244592486606FC29C8FD7F045B9A
311
EF7053A7E60B504B0304140006080800B34A22429EF1BA3BE80000007C01000008000000636F72652E786D6C8D90516EC3201044AF82F61F07B0DDC616264A2AF704BD0002E2A2C46019A872FC40E248ED5FBF7635CC6347C30FB7F98A7ECC1AAC7703D08A00324E796DDD34408A67BC0774107CF53EFEB201727236031419
311
049F569F964D52DE45E362569DD766136508260252D7BC0C10D4B799652553CC8E70A916A92E7232157D6D194EC96AF43C6275FECF9EAD5941D06624ED695FE363DB9C7053372D3E92EE0333F23E8EEDF8C91A42F8AEC082473BBFEEABD5C868340846688D09C5847D91AE67B4AF3B4CDEFA0215FB1F282DFA9F50B22ED66C
311
8BFBC442CE9A833C1E04DF952EF278149567E94DDC01504B0304140006080800B34A224255019EA25F0000007C00000007000000636E782E786D6C4DCB3B0E80201045D1AD90E915ED2CF8AC45050C11660C8261F98AB1B07AC9C97D42D718D865D3E909258CFD00CCE24AC6E326A164D74DC0B4128928FF326038472BA131
311
28B1252AC747C6BAB984FC68F0B87FE8960A5C09FE86CFB69FBA01504B0304140006080800B34A224239BF975F64010000020300000C0000006662782F636F72652E786D6C8D525B6E833010BC8AE57F63F36A93C8384A2A7A825EC00187A2808DFC40397E974794A68AA20AC958333BBBB3037C7FED3B342AEB5AA30B1C47
311
0C23A52B53B7BA2970F067B2C1682FB835C6FF2AC348CB5E157882B1E08D356158A1CA68AFB407549B5AADA0744E798CAA0E2E0576D5B7EA652483870A778906595D64A3A238021AEA0477DE8201B40C994E2CCEA72BA70B2E78086DBDB26D0DD3DA73AB2C167156B2FCB849C921CF8E244BB39C1CD8F68324ECBD2CF3F233
311
C918E374120BEEDBFEE6AEB24A7A556391B038252C262CF962DB5D12EFD22D616FBB4934953F88C250FF53145AEDD364B5BBC81C78052333F1675B88C8232747F04305A75388F09A137E0C1A028190BD3C75B73D2E008DAAF2C666C0D426DCA9517641C15486E687D38585CE7303D8EC699FE4459FD73DE0034ADD8035E9E1
311
7A0A7E9ACE97A96B1483B264F457A48DED657737B758BC9FF7414FE595E98CFD8F9AAEABD2354C3AFDBDE207504B0304140006080800B34A2242DB830C607D0000009D0000000B0000006662782F636E782E786D6C4DCCD10A83201805E05791FFDEA5B69A811A31F720B12C64A6C3E9E8F1B3D1C56ECE818FC311FDB63AF4
311
35F1638397402F0490F1CF3059BF48C869C61C50AF440C21FDCD00F97135120E06259618F2FBA4C9CC6376A9A8B3FE7522D10F5673D2E0863282AF2DA59877BC046777DD76437DD303544A54BFA7D2C7B1DA01504B0304140006080800B34A2242DD3FF9652A01000015020000310000006662782F30444532333830352D35
311
3132302D343631312D383938312D3838324344363941333744412F636F72652E786D6C8D51DB6EC3200CFD9588A7EE81C490362315A1AAD6FDC17E204B6887DA40C465EAE7CF2CA9B4BDF5C546F639C7075B1EEED3ADF8D63E18673BC24A2085B6831B8DBD7424C53315A43828E99D8B7F60A4B0FDA43B92CB44C98B77695E
311
4B83B351DB8855EB46BD16FB107424C570C34747C2F0A5A7BEEC534444B896733F5CFB8B2E59896DC42919A24703C5322447A2E0F4CE6B013BBA631CE8B6618C8A566010FCEDD4B4C7FAF57494D54254322533AE7433A21D7336DA3F2B92C94A46333DEC0F5EF7518F447160350546817F40BBE76C5FB7149A3D80AC32FC1F
311
29CDE393A4646CACF96A77A105A298AC968692A34B9FB787197D9F9D8F459EB7097A78C15F9500B5E0200472162C6E00459BED2A1AA2F3B8E1CDF513E16CB728375B25AB7C244CBF17C49C0FAA7E00504B0304140006080800B34A2242DCAA44BF4D01000033030000300000006662782F30444532333830352D353132302D
311
343631312D383938312D3838324344363941333744412F636E782E786D6CD593CD6EC23010845FC5F23D89030815E418A9873E410FBD3AF6022E8E1DF9A72A6FDF3518CA85438FBD58D1EC7866F5C9E1BBEFC9922F08D17837D0BE659480535E1B7718684EFBE685929DE0C1FBF460A3C4C909065A642AF821F83C5749C35E
311
669B50B5C69DAA1820FA1C144494CB4D62BD921603C03519459846D01A34B91BF16B0F015741713C937404F2F6FA41FCF8092A45DE9514C1BBD22178396BD383891265658C038DEA08936C654E5E433CB55A26D9F6EDADEBC94EBF49A45CB855E66048291F6839A9A81BB5C8917738143CA680F4AA299D67A042CEB3354A26
311
84DC5D8C578FE0D9B8B45E55AF41F001DDFD7AB95A61D8652678321354870A2013682A16AC5F36AC6FD8E29D6DB68B7EBBDC346CBD658C77C52EF8E8BDAD973006829F89F22E814B54F4BC2BE367F8AA8F681390B50FE73F804400B5F54AE79EF19FF97497F78DB802FE05E207504B0304140006080800B34A224210E91D89
311
A305000081100000340000006662782F30444532333830352D353132302D343631312D383938312D3838324344363941333744412F6F626A656374732E786D6CAD575B8FDA3814FE2B51F665F701428069619549C540A9503B6D55D46A1F9090933819EF3817D9CE94D95FBF9F13272414A6ECAA2FB9F8727CCE77BE73B1F7
311
E69072EB890AC9F2ECD6768723DBA25998472C4B6EED52C583996DBDF13D91E7AAB3CCB63292D25B5B0FDBBE9788BC2CCC50446352727532BABEFBCB9221CDA86D859C48796BCBF081A664484A9547543E0E23A2C830890F4377582FEC8B4D04291E4E841644D04C41538C679062D54AB9FDDF91EDF89EA3E77D4F3FCDAAC9
311
E5554E654FFF7C964945B2F087C34EC44CDCE9EAEDF8663EB8994E2783E9ABB13BB85BDFAD06EEEBC968F96AB99C2FDECE71B05402928C2682C6B6FF0ED808167A4E3DE57B25CBD4646C96180739823E31ED29DB1F5BAEE7D46B5AEB8C91E7D40FF32CA3618515D0A8EC33A2235AD02C82CF1995D0AC83D0A8FFEB6A1C3BD3
311
13FD6F8EEC0E5F874077474750A37BF3EE6A9A077FC304790D8384A49A813596C6D09AABA323C2419E7333C7A49512450523DCE22C10443CDB3E96EA25BED713A3992C7434680B6C1F5EA8A7FB744118FD9CE7E7B48C4BCE358D6DBF8A823D62852A5969C6FEA1E2A87D1719E8045F6936CC8C41EAB9A0B63FAF29323B6153
311
0DA4157392C0E53053EF9C8C4F0C5DEA38DDAC6CFFFD3A386C75EC9E3FBC10794185D2F401B51AC7356F8D92D1C9BDCA737A837DA2CA11942F40FE2342FDA80AFC26D8617A989A539420998C7391C237D6C81A8CF018596EF5D4DF9D2FCF6937F7BD77094F385B43F50BF0ECDBD0F565074EDF7B02E1733131A66D43C29136
311
EE59068034492C9E630879380E0EB6BF41964356C62EC27D172643DD277C7A8E118344519DD47967C0F2242D5E91A0015BC548A85193DF2878F4D30FE9AC3AD82CBB04EFCD2FA1EB62B57DBF2D454C427A6F627A45639631851277E44D57A11EE63D8B1EE9F3F75C4430F447BCB75DBC53739404DA1A730D7CD2E474FD733C
311
B97740887D49AED38DF7931360842EAC1DF9F74C86947392D1BC6CCE7DB17EA06CD410EB60D74C6E0BCCB1B08034F5CC490CA2488782151AC4B65AB5497378C1BAAF9B8F60A4EDDF3D7F20CFDDEC151C736F98F35CEC83E77D9D96CE42FDADCF6D8381A3A580EE559034F16F40DF472C8E4B89247806D76F9B65D7773A2D20
311
453452EB6899C27E04171186B48D5C546B415049F36CCF50371177670FE8CA07A4860195C04B1A4BCAE33DE3BC4CF731E3A846FB941417E0F8FFFA07655AEC499A9799BA20BBA73AAA435FF71E7BE577A2C207DBDF56EFC11D726F44A30B64D0B5E40C563DD7BE9E2F97EBC9FA663099E23175573783F96CBD1E8CDF2E16F3
311
9BE56CE6DE1DD1AC9A28DF6B4A4D37A2E1259436AF14CCB8EFEB06F1639280EDDF132577EFEAF06CDE5F3743F4C29E833DA897EDC645F484BE8F463F17705C7956D0262D384D69A6888EA17BFDC1BF10F4193D65EAF14D4A127A85944FEFB627C660E48A7D9F75BCD3EF277BCDE85207E45921EAA14C838C307EB231A9911C
311
165962F06B7CD2BEEB42D3FCEA3FE31874A632E72C421E8CAC84E62955C886571421915209EA757BFAC8DC3DAED8FD5477888A049C369A3C1034C95C222C40F23254FD71EB373475BAAFBAB5516E878F78984C615BE0CCAD8D265DB190CA618002AD5BA14A38B8D4EDE4C15992251CBD76BDA9FD6F77696C7A25B95D724DFF
311
64ECAA53B8310069A440DF808608DEA994F1BD4A37331FFE27C31B752CA2F01994AAB5E538D01A531D8310AD8D32B70534318FE6E80302F565B3DC61B5A687C855B7AC1749504B1D282292EAA6A0F5332A2D569F1D7428D6E69355F032812FAF97341014642E75808345608591591005AA2EFFDC7D16396EB2A9B566A080F5
311
FB61F6EA8FDD324FD33CAB87760B731FB6B60FB8DD463B2407AAAF2572371EB9E35D751D3037947D40241D92483E62009E15AC05BAE77EF0B2BE332273D613ED3A47BBE284A19B95650ADB14420D5DBAB9558383C623A31662485F2975C47417142FDE089C6A295410E8E5FD7F01504B0304140006080000B34A2242000000
311
000000000000000000350000006662782F30444532333830352D353132302D343631312D383938312D3838324344363941333744412F76657274696365732E62696E504B0304140006080800B34A2242F270F1330600000004000000360000006662782F30444532333830352D353132302D343631312D383938312D383832
311
4344363941333744412F747269616E676C65732E62696E636660600000504B0304140006080000B34A2242000000000000000000000000370000006662782F30444532333830352D353132302D343631312D383938312D3838324344363941333744412F617474726962757465732E62696E504B0304140006080800B34A22
311
42D5987DFC8F00000041010000360000006662782F30444532333830352D353132302D343631312D383938312D3838324344363941333744412F6469726563746F72792E786D6C858F410EC2201045AF4266AF15DDB800BA74E7C21B903225242D6328188F2FA5C4183471359997F9FF81E89FF3C41E1816475E02DF1F80A1
311
1FC8386F25A438EECEC07A250251FC3803E6F58C12560C4AD840E95E91C151A72936F496F35732D860FE635F62C8F2DA16B505C545B74125BAA2FA9E05D7CC053D063734D5C7665FD55B6B8D15D5E9BFEAFD8490FFA45E504B0304140006080800B34A22428D5A94A3FB000000A00100003B0000006662782F304445323338
311
30352D353132302D343631312D383938312D3838324344363941333744412F7265736F75726365732F636F72652E786D6C8D504B6EC32010BD0A628F0DD86E130B1325957B825E00E189831283C5A7EAF10BB12BB5BB6E6646EFA3797AE2F4B53CD027F8609C1D30AB284660B59B8C9D079CE2951C303A49E19D8BBF641859
311
B5C0800B8CA598BD4BEB0E696723D89851EB26D8411502448CF4231F030EFA068BAA548A5911EED5AAF45DCD50B12AD3592745883E0740DB9332B1F4105CF21A82A837568A94CCB46BCC947F9AAB018F256B47DA5D0E9C9CBBF642DAA6EDC8991EDF08A7AFE3D88DEFBCA554D4C52C4534CB4F46ED414598B0E49435843242
311
F9073DF69CF5CD91D097BE988AFC8F29ADD33F4DC9D8D8F03DEE660B396B0EF224A4A84B5F793DCBCCBB742BBF01504B010214000A0000080000B34A22423DEE336E79000000790000001B00000000000000000000000000000000006175746F6465736B2D64657369676E2D7061636B6167652E786D6C504B010214001400
311
06080800B34A2242D486FD9CA0000000F40000001300000000000000000000000000B20000005B436F6E74656E745F54797065735D2E786D6C504B01021400140006080800B34A22429EF1BA3BE80000007C010000080000000000000000000000000083010000636F72652E786D6C504B01021400140006080800B34A2242
311
55019EA25F0000007C000000070000000000000000000000000091020000636E782E786D6C504B01021400140006080800B34A224239BF975F64010000020300000C00000000000000000000000000150300006662782F636F72652E786D6C504B01021400140006080800B34A2242DB830C607D0000009D0000000B000000
311
00000000000000000000A30400006662782F636E782E786D6C504B01021400140006080800B34A2242DD3FF9652A010000150200003100000000000000000000000000490500006662782F30444532333830352D353132302D343631312D383938312D3838324344363941333744412F636F72652E786D6C504B0102140014
311
0006080800B34A2242DCAA44BF4D010000330300003000000000000000000000000000C20600006662782F30444532333830352D353132302D343631312D383938312D3838324344363941333744412F636E782E786D6C504B01021400140006080800B34A224210E91D89A305000081100000340000000000000000000000
311
00005D0800006662782F30444532333830352D353132302D343631312D383938312D3838324344363941333744412F6F626A656374732E786D6C504B01021400140006080000B34A22420000000000000000000000003500000000000000000000000000520E00006662782F30444532333830352D353132302D343631312D
311
383938312D3838324344363941333744412F76657274696365732E62696E504B01021400140006080800B34A2242F270F13306000000040000003600000000000000000000000000A50E00006662782F30444532333830352D353132302D343631312D383938312D3838324344363941333744412F747269616E676C65732E
311
62696E504B01021400140006080000B34A22420000000000000000000000003700000000000000000000000000FF0E00006662782F30444532333830352D353132302D343631312D383938312D3838324344363941333744412F617474726962757465732E62696E504B01021400140006080800B34A2242D5987DFC8F0000
311
00410100003600000000000000000000000000540F00006662782F30444532333830352D353132302D343631312D383938312D3838324344363941333744412F6469726563746F72792E786D6C504B01021400140006080800B34A22428D5A94A3FB000000A00100003B00000000000000000000000000371000006662782F
311
30444532333830352D353132302D343631312D383938312D3838324344363941333744412F7265736F75726365732F636F72652E786D6C504B0506000000000E000E00800400008B1100000000
310
504B03040A0000080000B34A22423DEE336E79000000790000001B0000006175746F6465736B2D64657369676E2D7061636B6167652E786D6C3C3F786D6C2076657273696F6E3D22312E302220656E636F64696E673D227574662D3822203F3E3C666F726D6174733E3C666F726D61743E687474703A2F2F736368656D612E
310
6175746F6465736B2E636F6D2F64657369676E2D7061636B6167652F323030393C2F666F726D61743E3C2F666F726D6174733E504B0304140006080800B34A2242D486FD9CA0000000F4000000130000005B436F6E74656E745F54797065735D2E786D6C7D8EC10E82300C865F65E91D8A1E8C310C0EEA1BF002731658846E
310
D98AC1B77784ABF1D8FE5FBFBF75BBCE937A534CCEB38643598122B6FEE978D0B0485F9C41B54DDD7D022595594E1A469170414C76A4D9A4D207E29CF43ECE46F218070CC6BECC4078ACAA135ACF422C856C0E68EA1BF5669944DDD7BCDE7B1F8E415D77AECB980613C2E4AC91FC167A2B244592486606FC29C8FD7F045B9A
310
EF7053A7E60B504B0304140006080800B34A224221E1DD1DEB0000007C01000008000000636F72652E786D6C8D90416E83301045AF62CDDE6003A5808CA3409A13F40296ED102BC146D8AE7AFC9A8448EDAEAB19FDF96F66F4D9E17BBEA32FBD7AE36C0F342380B4954E193BF510C30537800E9CADCE855F364056CCBA874D
310
06CEA6D5C56597A4B341DB9054EB94DE45E1BD0E80E43D353D7879D5B3C8440CC9E16FD922E44D4C3AA3AF2EC1311A859E478C4AFBCCC5E815F8B9294FD57BF58187BA79C355330CB83DD7353E8DEDB168C7B13E3547966F3067C1CCAFFB72D5226805BC20B4C48462527C92B62B6857B698D41D212CDFEC7FA0B8A87F42D1
310
D85016FBBB4FCC03A7E991C780B37CCB22954750A96EB9F11F504B0304140006080800B34A224255019EA25F0000007C00000007000000636E782E786D6C4DCB3B0E80201045D1AD90E915ED2CF8AC45050C11660C8261F98AB1B07AC9C97D42D718D865D3E909258CFD00CCE24AC6E326A164D74DC0B4128928FF32603847
310
2BA13128B1252AC747C6BAB984FC68F0B87FE8960A5C09FE86CFB69FBA01504B0304140006080800B34A224273802C0967010000020300000C0000006662782F636F72652E786D6C8D52ED8E8320107C15C27F04B5E7698334FDB83EC1BD0055EA912A3408A68F7F6BB5E9F5D2348D0992999DDDD951BEBA742D1A94EBB535
310
258E2386913295ADB5694A1CFC91E418AD0477D6FA3F651819D9A9128F3016BC71369C67A8B2C62BE30135B6563328FB5E798CAA162E25EEAB1FD5C948060F15FD293ACBEA241B15C511D0502778EF1D1840D390F1C4E278B8703AE18287A0EB99D5354CD347AD1C16FB3CDD2D3E175F6493E51F64916F36A4D86719D96D8B
310
75526CB7D92E5F733A8A05F7BABBB9AB9C925ED558242C4E098B094BBE59B14CE2655A10962D19E3742C7F108573FDA62868E3D364B63BC97A2C62307225FE6D0B1179D4CB01FC50C1E91822BCAE093F060D8140C85E1EDADB1E2780065579EB16C0D436DCA941B641C15486AE0FA7130B9DAF0D60B3A77D92177D5EF7800F
310
284D03D6A487EB21F8713A9FA6CE519C952383BF20635D27DBBBB9C9E2FDBC0F7A2AAF6C6BDD3B6A3AAF4AE730E9F8F78A5F504B0304140006080800B34A224224A769937E0000009D0000000B0000006662782F636E782E786D6C4DCCD10A83201886E15B91FFDC95D5CA400D13771FB12C64A6C3E9D8E5AF46073BFAE0E1
310
E365C36773E86DE2CB06CF815C4A40C6DFC36CFDCA21A705534083603184F47703E4A7CD703818045B63C8CF9366B34CD9A55D9DF58F139BABAC494D46ACBA51E3862A8A7BAD5B3C562DB9559D92B22FA110ACF895F63DC2E20B504B0304140006080800B34A224244F1ECE32B01000015020000310000006662782F343541
310
33313331422D433742452D343843382D394545362D4232363146323743414139302F636F72652E786D6C8D51CB6EC32010FC15C4293D6083711D3BC24449947E417F8018E2A2C460F1A8F2F985DA91DA5B2E2C9A9D991DEDB2FD63BA836FE5BCB6A687A4C010283358A9CDD8C318AEA88560CF99B336FCA14160C4A47A9861
310
C8D9E86C9C5768B0262813126AAC542B28BC570182E19E3E3DF4C3979A442162480C7F2B6631DCC4A80A52A476E271E6834B01C03224BF90D7EF074A2839A2D3F67846757B6A51773E37E85835E4A3DA9E0E870EB372117216A396AB5CCB14475FB572AF9A643167414FCFF883532228097985094598205C7DE26E57911DED
310
106E76384DCEF47FA238CB1745519B40AB35EE22F39013562E0DCEA48D97FB338C7ACCD60590E76DBC1ADE20C705C6356909DDD6AC5CB86903C9B4A957531FAC4B1BDEDC2E894E57E7A6E6ACCC474AE5F782A9E683F21F504B0304140006080800B34A2242BA0D8BA85501000033030000300000006662782F343541333133
310
31422D433742452D343843382D394545362D4232363146323743414139302F636E782E786D6CBD93C16EC32010447F0571B78DEDC84A224CA41EFA053DF48A6193D0D86001AE9ABFEF929034971C2A55BD206B7698593D61BEFB9A46F2093E18677B5A978C12B0CA69630F3D5DE2BE5853B213DC3B171F6C945839414F934C
310
053F78B7CC59D2B097CB18511D8D3D65D143708B5710504E37C9E8941C31006CB1A008D3005A832677237EEDC1E32A280E67128F405E5FDE891B3E40C5C0AB942278953A044F676E7A3051A24619424F833AC2244BB944A7219C4A2DA32CEBF2D6F564A79F24922EDC2A176F482AEF693AA9C81B95C8915738143C448FF4B2
310
299E67A042CEF368948C08B9BA18AF1EC1176363B7CA5E83E03DBADBA65BAF31EC32133C9A09B24379901134150DABDB82D5056BDED866DBD4DB7653B06ECB18AF925DF0C1B9315FC218F06E26CAD908365251F32A8D9FE1CB3EA28D47D6CE9F7F011201E4D62B9D7BC65FF2A9BB76B5FA473ED5E57D232E8F7F81F806504B
310
0304140006080800B34A224235AB3B5A620700009A1B0000340000006662782F34354133313331422D433742452D343843382D394545362D4232363146323743414139302F6F626A656374732E786D6CED59DD739B3810FF5718EEE5EEC1D8C4769BDC103A89D3743CBDB49DFADAB907CF3032C8441721184924F1FDF5B7FA
310
00033109BEE6DEFA6030425AEDFEF6534BF0EE31A3CE3DE682E4ECDCF5BD89EB6016E70961E9B95BCAEDE8D475DE8501CF73D998E63A0C65F8DC55C36E18A43C2F0B3B94E02D2AA9EC8C5E5FFEE5881833EC3A3145429CBB22BEC519F25029F3048B3B2F411279E9F6D1F33D33B14D36E5A8B8ED102D10C74C02A730CE808A
310
6398F2DB8F13771C0663F53E0CD4D5CE9A0E9A35EB9F35D652B7B9244C48C4E2272C75C84C07B134F56757EF4FE667A3F96C361DCDDE9CF8A3CBEBCBAB91FF763A59BC592CCE2EDE9F017B9B3CA756A604179825A0BF9D1BFAC158BDA945B7081CE23ACE19C3B10612A0D2627509122C60AB067C93F6A3AF246ABCD612369E
310
67EABD65A1313C6D53E99B350C88165D10C46E57495CDD9BF2E59BBF417031C428B9C012B8159283762D3C1CBCC20D27C1D88C86C166AF0B229C0C49CC09A20E251B8E382805A6AA296160165832CA3938907294045A73E675DBB6C0335F769D435C6E4B4A9567B8A176AC08DC0F4BA13923FF60BEE7BE890CF004D29684C9
310
53CBA5DC15D80DCF82B11E0C03759B9ED8970648674B512A3422E66D47D08572FDE5951B7EBCDE3CAE543838BC79C1F30273A98C4EE951F305866CEF0A25BBAD3F48736A01086340B52BF7A07C05E43F41F4D8B3027AE3E471F638B37325474C6C739E816E9C89339AC065E2F8FAAAFE37FE05E37A715B7B7D78829B2AA84E
310
7F1CCFB60C1A2BCB7F03CE30B80783CFF9D4BE5AC588823DDF100600292371680E4310DAB79B47375C42E084400FAB100D7D1019D8BD87BFC1D892D96BA5722FEB750C10B57B4C87280960D316096CF4E8E903640F4EE2BD9A9A22F6C13B7F1573BDB85A7D5C957C8B627C637DFA0A6F092312B2E661865A98B724BAC3BB87
310
9C2720E853BC574DBC33BB9500B415E60AF8B402413DEC776E6D10C3BA3457E1267861071042E5EA06FD1B22624C2962382FAB7DEBE8A60CB5F6785B33B8E18981787AD231618EEF89AA2AC069F6335A8C42DE8F392914886EF8C14856074DAF47BA6FCB4F6091F5FC9E594B06A19721FAA70E5A077068597685B405A21678
310
B30FE7714E731E6D769189742ED412C046DB5BBEB78842AC374A5254C083B4DF55212535D24609D96E4B0171F5008BDF978BA6394CBCA93F779AD78E33CE20DA82EF226EFDAEB347443294E2688B92BEED9ABBD5B48526D9439AE32D05B9C83D91BB08C96892E0F418688E227EF6AAD4539A0B41181690AF0E82DF4463E241
310
2031DAAC58565AED004D44946189E8310828323DE0EAB4A36BDC184A879779ACADF7398D3589FE4F16C111D492398B0894A290435E64DCF7E61043DAE81A943BF882B555B4B518B4841222DE450F98A4B7F218D40DF91EDC6338929432CA0B1483590F20FBC45794523BBC6F507CA7F2471497F4B50C4460BA8D08A56516C1
310
8F3038790C71ED3A303D8B4283B8897D126750942159F2219BBC994F9EEC636A866E086C6CB42514C27694A1A207F55640D4F58853836FA9F7287553664584B2BC64830CC59B76BDC992EFAA55911DC8AF2A15A16CAC085B82614098ACB36A15B3C1D475600537D2816A17099415D49CC25E483C7EED4D9A72EF06DCFAE9EB
310
6E9041E1D7A3BD66449D5530581E5B8581784032BE75C395BE8F2EA1FE4E70B24FF555ADD9AC00013115C94B4EAC8ABE2DA1BCB1359A1BDE2029D61F4CD6ADEEDF961E743F8231AC81DAA55EB85440679849A42A931BF5877E4510825B34CCF852E5D463A85C2489AE1A11BD267DEA6C9511AD4D33E215B798E519FCD89AB0
310
9896095EA344DC453792462BA258B7527A19A9307E56C0CF1F561D78606480485F5481871F3A6BEDE842954B0789C8DB32DB30442008B6444B8D6EBC82A556239596EBBB3A5340DD050666553CFB79B268B6237E9E2C526B183F74B2B8DCFD8176CDBE48239DC7CAAE8F3A06D4F94951798D63806E3BD454EB2C6292B995DF
310
3A530441B18AF283ABB12A6818827D1CFFE7ACDD9705CD761DFE8FCBDAFE938AE3A8ACD29AACBA54072AD7653387BD3D5B2CAEA7D7F3D1740697997F351F9D9D5E5F8F4EDE5F5C9CCD17A7A7FE65AD27433C0CEA60A673173C9BA0560DAB278B017465454E4902A7F9C44931C47C0967FA01ED739E6101C9B3D9EC4E6C537E
310
C0EA7BD3E794684371C5C92D8206311590D6418C3296ED71E717684D4A38689FBBD034F2EEE062ADD27520F39CBBD02A9024C6C2DB409B4935F4347148B93AF75B6210C8104B554A348BEAE77A95C2A615FEEB2943D28095ABD5C380C2AD80EE57AB43A179B33CC547095EB1E320097F37A5846ACDC8B21FA885D1DBECD56F
310
64A384DDD9AD1FC1759F17CBF7F49C1622833E193C6B0486EA48229EEA7EB762CCB27471F5650C7D3667F9D9296899822E87531A710CC65CAA820AAC08ACC2D22C9004535DFCBEFEC273F8C49339BA2A727E7D3C7DF3DB7A916759CECCD0FA024E65097C287256B7F0D9275943F18055735DAC4F26FEC95A37B56D9F3DDA20
310
813D5515C140554C28413A260776F9A44165DB9763A58ACEF4E59563832834038C1D3DE9F19A8F5C0EF890FA9CA23C46FB7925EDB37DEDB19E0A36C1A1231DFE0B504B0304140006080000B34A2242000000000000000000000000350000006662782F34354133313331422D433742452D343843382D394545362D42323631
310
46323743414139302F76657274696365732E62696E504B0304140006080800B34A2242F270F1330600000004000000360000006662782F34354133313331422D433742452D343843382D394545362D4232363146323743414139302F747269616E676C65732E62696E636660600000504B0304140006080000B34A22420000
310
00000000000000000000370000006662782F34354133313331422D433742452D343843382D394545362D4232363146323743414139302F617474726962757465732E62696E504B0304140006080800B34A2242D5987DFC8F00000041010000360000006662782F34354133313331422D433742452D343843382D394545362D
310
4232363146323743414139302F6469726563746F72792E786D6C858F410EC2201045AF4266AF15DDB800BA74E7C21B903225242D6328188F2FA5C4183471359997F9FF81E89FF3C41E1816475E02DF1F80A11FC8386F25A438EECEC07A250251FC3803E6F58C12560C4AD840E95E91C151A72936F496F35732D860FE635F62
310
C8F2DA16B505C545B74125BAA2FA9E05D7CC053D063734D5C7665FD55B6B8D15D5E9BFEAFD8490FFA45E504B0304140006080800B34A2242324AF385FD000000A00100003B0000006662782F34354133313331422D433742452D343843382D394545362D4232363146323743414139302F7265736F75726365732F636F7265
310
2E786D6C8D50596E833010BD0A9A7F83594A011947019413F4029699102BC1465EAA1EBF26A152FBD79F99D15B344F8F9DBED647F289D629A37BC8530A096A6966A5971E82BF9206921367D618FF4B0689162BF6B0C3C0D9624DD80E481AED51FB886A33E3010AE7D043221FF1E8C1C91BAE2215C14785BBA79B9077B1609A
310
A7918E3ACE9CB73140F27AB24FE0169D0956A263D98BE52C04351F1A35C79FEAAAD002BF34E554BD571319EAE68D54CD3090F652D7641ADB73D18E633D356796ED66CEBC5A7F324A8BC2E30CBCA07949684E68F141DBAEC8BBB225B4EE2865D92EFF630ADBFC4F5350DA97C511F76573C0F318E4497096ED7DC5F52C33EEBD
310
5BFE0D504B010214000A0000080000B34A22423DEE336E79000000790000001B00000000000000000000000000000000006175746F6465736B2D64657369676E2D7061636B6167652E786D6C504B01021400140006080800B34A2242D486FD9CA0000000F40000001300000000000000000000000000B20000005B436F6E74
310
656E745F54797065735D2E786D6C504B01021400140006080800B34A224221E1DD1DEB0000007C010000080000000000000000000000000083010000636F72652E786D6C504B01021400140006080800B34A224255019EA25F0000007C000000070000000000000000000000000094020000636E782E786D6C504B01021400
310
140006080800B34A224273802C0967010000020300000C00000000000000000000000000180300006662782F636F72652E786D6C504B01021400140006080800B34A224224A769937E0000009D0000000B00000000000000000000000000A90400006662782F636E782E786D6C504B01021400140006080800B34A224244F1
310
ECE32B010000150200003100000000000000000000000000500500006662782F34354133313331422D433742452D343843382D394545362D4232363146323743414139302F636F72652E786D6C504B01021400140006080800B34A2242BA0D8BA855010000330300003000000000000000000000000000CA0600006662782F
310
34354133313331422D433742452D343843382D394545362D4232363146323743414139302F636E782E786D6C504B01021400140006080800B34A224235AB3B5A620700009A1B000034000000000000000000000000006D0800006662782F34354133313331422D433742452D343843382D394545362D423236314632374341
310
4139302F6F626A656374732E786D6C504B01021400140006080000B34A22420000000000000000000000003500000000000000000000000000211000006662782F34354133313331422D433742452D343843382D394545362D4232363146323743414139302F76657274696365732E62696E504B01021400140006080800B3
310
4A2242F270F13306000000040000003600000000000000000000000000741000006662782F34354133313331422D433742452D343843382D394545362D4232363146323743414139302F747269616E676C65732E62696E504B01021400140006080000B34A2242000000000000000000000000370000000000000000000000
310
0000CE1000006662782F34354133313331422D433742452D343843382D394545362D4232363146323743414139302F617474726962757465732E62696E504B01021400140006080800B34A2242D5987DFC8F000000410100003600000000000000000000000000231100006662782F34354133313331422D433742452D3438
310
43382D394545362D4232363146323743414139302F6469726563746F72792E786D6C504B01021400140006080800B34A2242324AF385FD000000A00100003B00000000000000000000000000061200006662782F34354133313331422D433742452D343843382D394545362D4232363146323743414139302F7265736F7572
310
6365732F636F72652E786D6C504B0506000000000E000E00800400005C1300000000
  0
XRECORD
  5
17
102
{ACAD_REACTORS
330
12
102
}
330
12
100
AcDbXrecord
280
     1
270
     1
271
     1
  0
XRECORD
  5
16
102
{ACAD_REACTORS
330
12
102
}
330
12
100
AcDbXrecord
280
     1
270
     1
271
     1
  0
XRECORD
  5
18
102
{ACAD_REACTORS
330
12
102
}
330
12
100
AcDbXrecord
280
     1
270
     1
271
     1
  0
XRECORD
  5
15
102
{ACAD_REACTORS
330
12
102
}
330
12
100
AcDbXrecord
280
     1
270
     1
271
     1
  0
XRECORD
  5
24
102
{ACAD_REACTORS
330
22
102
}
330
22
100
AcDbXrecord
280
     1
270
     1
271
     1
  0
XRECORD
  5
23
102
{ACAD_REACTORS
330
22
102
}
330
22
100
AcDbXrecord
280
     1
270
     1
271
     1
  0
XRECORD
  5
BA
102
{ACAD_REACTORS
330
22
102
}
330
22
100
AcDbXrecord
280
     1
 70
     1
 90
1959938040
 71
     1
  1
A7C26ED0-708B-463B-8E69-EE618B2739BC
311
504B03040A0000080000B34A22423DEE336E79000000790000001B0000006175746F6465736B2D64657369676E2D7061636B6167652E786D6C3C3F786D6C2076657273696F6E3D22312E302220656E636F64696E673D227574662D3822203F3E3C666F726D6174733E3C666F726D61743E687474703A2F2F736368656D612E
311
6175746F6465736B2E636F6D2F64657369676E2D7061636B6167652F323030393C2F666F726D61743E3C2F666F726D6174733E504B0304140006080800B34A2242D486FD9CA0000000F4000000130000005B436F6E74656E745F54797065735D2E786D6C7D8EC10E82300C865F65E91D8A1E8C310C0EEA1BF002731658846E
311
D98AC1B77784ABF1D8FE5FBFBF75BBCE937A534CCEB38643598122B6FEE978D0B0485F9C41B54DDD7D022595594E1A469170414C76A4D9A4D207E29CF43ECE46F218070CC6BECC4078ACAA135ACF422C856C0E68EA1BF5669944DDD7BCDE7B1F8E415D77AECB980613C2E4AC91FC167A2B244592486606FC29C8FD7F045B9A
311
EF7053A7E60B504B0304140006080800B34A22424560B2ECEA0000007C01000008000000636F72652E786D6C8D90D18E832010457F85CC3B0A6A6D35485337F805FB0304A925AD600436FBF98BAD4D76DFF6692677EE99995C76FE9E1FE84BAFDE38DB01CD08206D951B8D9D3A88E18A4F80CE9CADCE855F364056CEBA834D
311
06CEA6D5C5659794B341DB9054EB46BD8BD27B1D00A9476A3AF0EAA66799C91892C3DFB345AABB9C7446DF5D826334237A1D3163DA67AE46AFC0C5A5EF8F82D4F8307C0CB822A4C70D15072C2AD18BFA74BCD443C5F20DE62C98F97D5FAD5A063D022F082D31A198149FA4690BDA960D26754B08CB37FB1F282EE33FA1686C
311
288BFDDD17E681D3F4C873C059BE6591CA33A854B7DCF80F504B0304140006080800B34A224255019EA25F0000007C00000007000000636E782E786D6C4DCB3B0E80201045D1AD90E915ED2CF8AC45050C11660C8261F98AB1B07AC9C97D42D718D865D3E909258CFD00CCE24AC6E326A164D74DC0B4128928FF326038472B
311
A13128B1252AC747C6BAB984FC68F0B87FE8960A5C09FE86CFB69FBA01504B0304140006080800B34A22420DABD6CE66010000020300000C0000006662782F636F72652E786D6C8D52ED8E8320107C15C27F04ADB51F419A7AB14F702F40957AA60A06C1F4F16FFD687ABD344D63826466677776941F6E6D830665FBDAE814
311
8701C348E9C294B5AE52ECDD856C313A086E8D717FCA30D2B255291E612C78658DEF16A830DA29ED00D5A6540B28FB5E398C8A062E29EE8B1FD5CA407A0715FD35E8647195950AC20068A813BC77160CA079C878627139DF389D71C1BDAFCB85AD4B98565F6A65B1C88F59B6C95942D6A7AF138919CBC82ECCD7248FF32C4F
311
B69B63728A391DC582BBBABDBB2BAC924E9558442C5C111612167DB3DD3E0AF7AB1D61C99E314EC7F22791EFCA0F45BED66E152D7667598F45084626E2DFB6109143BD1CC00F159C8E21C26B4AF8396808044276F2DCDCF7B80234A8C2191B03531AFFA006D9780553199A1E4E67163A4F0D60B3977DA2377DDEF7800F2875
311
05D6A483EBD9BB713A9FA72E5174CA92C1DD9036B695CDC3DC6CF1713E06BD9417A631F613355D56A54B9874FC7BC52F504B0304140006080800B34A22429741F2AB7D0000009D0000000B0000006662782F636E782E786D6C4DCCD10A83201886E15B91FFDC95662C410D65EB3E6259C84CC3E9D8E5AF46073BFAE0E1E315
311
FD67F5E86DD3CBC520815C6A40363CE2E4C222A1E41977807A25528CF9EF06288CAB95703028B1A458B693263B8FC5E75DBD0BCF13CD4079C36F0C0F44B7983594634335C1ADA939D346F37B77854A89EA57DAF708AB2F504B0304140006080800B34A22427EC914AC2C01000015020000310000006662782F424632393339
311
44342D463141352D343332392D423241312D3542303934414241394538372F636F72652E786D6C8D51CB6EC32010FC15C4293D600376121361225B6DBEA03FE01892A2C460F1A8F2F985DA91DA5B2E2C9A9D991DEDF2E363BA836FE5BCB6A685A4C01028335AA9CDB585315C5003C15170676DF84383C00C936A6186A1E057
311
67E3BC42A3354199905063A55AC1C17B152018EFE9D3423F7EA96928861812C3DF8A79186FC35515A448EDC413DC0797028065487EA1E84F9455ECBD4627D26D515D51867ADA11B4ED31ABBBBE631FCD9E978B50F018B55CE55AA638FAA2957BD5248B050F7A7AC61F9D1A829250504C2A8409C2F413B30325878A21BC3B60
311
CCCB4CFF278AB37C5114B509155DE32E320F05E1E5D2105CDA78BE3FC3A8C76C5D0079DEC6ABF10D0A5C605CD5FB9AD186970B376D2099EEEAD5D407EBD28637B773A293EDE2BCAB052FF39152F9BD60AAF9A0E207504B0304140006080800B34A2242DCAA44BF4D01000033030000300000006662782F4246323933394434
311
2D463141352D343332392D423241312D3542303934414241394538372F636E782E786D6CD593CD6EC23010845FC5F23D89030815E418A9873E410FBD3AF6022E8E1DF9A72A6FDF3518CA85438FBD58D1EC7866F5C9E1BBEFC9922F08D17837D0BE659480535E1B7718684EFBE685929DE0C1FBF460A3C4C909065A642AF821
311
F83C5749C35E669B50B5C69DAA1820FA1C144494CB4D62BD921603C03519459846D01A34B91BF16B0F015741713C937404F2F6FA41FCF8092A45DE9514C1BBD22178396BD383891265658C038DEA08936C654E5E433CB55A26D9F6EDADEBC94EBF49A45CB855E66048291F6839A9A81BB5C8917738143CA680F4AA299D67A0
311
42CEB3354A2684DC5D8C578FE0D9B8B45E55AF41F001DDFD7AB95A61D8652678321354870A2013682A16AC5F36AC6FD8E29D6DB68B7EBBDC346CBD658C77C52EF8E8BDAD973006829F89F22E814B54F4BC2BE367F8AA8F681390B50FE73F804400B5F54AE79EF19FF97497F78DB802FE05E207504B0304140006080800B34A
311
2242A7C66522A605000080100000340000006662782F42463239333944342D463141352D343332392D423241312D3542303934414241394538372F6F626A656374732E786D6CAD57DB6EDB3810FD1541FBB2FBE08B6C3771168A8AD84E0AA3485BD468B10F010C4AA2146E285120A9C4D9AFDF43899225D74EBD8BBE581635
311
1CCE9C3973A1FF7E9771E7994AC5447EED7AC3B1EBD03C1231CBD36BB7D4C960EE3AEF035F0AA13B62AE93938C5EBB66D90DFC548AB2B04B314D48C9F5C1EADDE22F474534A7AE1371A2D4B5ABA2479A912129B588A97A1AC64493619AEC86DEB016ECAB4D25291E0F941644D25CC352ACE7D0E2D44679FDD7B13B0AFC91F9
311
1EF8E6D74A4D4F4B8D2A7FFAE7B35C6992473F1C76A066EACD56B79377578377B3D97430BB987883C5DD6235F02EA7E3E5C5727975737B85839596D0642D913471830FC046B2C81FD59F02BF64B99E4EAC880DD048D2676622E50613C7F347B54CEB9D75F298F991C8731A5558018DCA3FAB3AA605CD63C49C5105CB3A088D
311
FBAF9EC1B1F3796ADEED91DDE5F310E8EEE8286A6C6F9E5D4B45F8375C50E730482A6A185863691DADB93ADE231C0AC1ED37A69C8C682A19E10E67A124F2D50D206A4402BFA7C630599A6C301EB801A2507FEED30569F4739E1FB3322939373476832A0BB6C815AA556519FB87CABDF55D6460136265D830B70EE9D782BAC1
311
554D91F9019B6A209D84931421879B66E77472E0E8D2E4E97AE5061FEFC2DDC6E4EEF1C30B290A2AB5A10FA8D504AE791A94AC4DDE5991331BDC0353F6A07C05F29F90EA7B531037C976B3DDCC9EA225C955226486D838636730C6CFD8F1AA5FF3BFF3CF1FB59BFBD13B8527826DA0FA0578F67DE8C6B20367E03F83F0424E
311
AD6B9B8870948D7B9603204312870B2CA10E27E1CE0DD6A872A8CAD84578E0C16598FB8CBFFEC8AA41A1A84EEA3C7360795016CF28D080AD6224CCA8C96F0DDCC7E98772561D6CC54EC1FBEE97D0F566B5F9B8296542227A6F737A451396338D16B7E74DD7A01EE63D8F9EE8EB8B90311CFD11EF4D17EFCC1EA580B6C1DC00
311
9F3635DDBCEC4FEE1D10615F2A4CB9F17F72029C308DB5A3FF9EA988724E722ACAE6DC37FB07DA460DB14976C3E4B6C1EC1B0B48537F39C84134E948B2C280D876ABB6680E4F78F76DFD098C843C1721E17BA1705F7A23C185DC86AFDBBA2A1D45FA7B9FDA168291D102B65739D2A4BFC57C1BB32429156AE01158BFAF97DD
311
D099AA800AD168AD936506F7915B445ACE367AD1AC25412315F996A16D22ED8E1ED0D50F442D012A85A72C5694275BC679996D13C6D18CB619294EC0F1FFED0FCBACD8924C94B93EA1BB673A9A43DFF61E79D50BD1D1A31B6CAAE76081D21BD3781FE69EB0692547B0EA85F6E67239B9B85D8D0797E3F902E3D3743198DF5E
311
5C0D6E6F2FBCF9627239BD5AC0756B513543057ED369BA098D28A1B3F9A564367CDFD6481F5B03DCE09E68F5F0A1CECEE6F96D3DC428EC8FB007EDB2DD78133F63ECA3F1CF15EC258F2A5A6705A719CD353129746FFEF0AF046346CF987A7D9D91949EA1E5F387CD8133583963DF1793EEF4E560AF5D5D9A843CAA443F9659
311
9813C60F36A63592C3224F2D7E4D4CDA67DD679A57F3660383C15409CE6294C1D849A9C8A846313CA307C98C2A50AF3BD2C7F6EA71C6EEE77A40D424E4B4B1E4916046E60A6901DE9691EEAF3BBF61A63363D5B58B6E3B7CC28FAD14AE03CE5CBB98D1358BA81A86E8CF6612AA94834BDD411E9C2579CA316AD79BDAF77697
311
C1A6D7915B9173C627EB575DC1AD03282305C606CC43884E654CE057B6D9EFD17F72BC31C7211A7FC352B7BEEC175A67AA6390A2B553F6B28019E6C91EBD43A2BEED9637AC647A889C75C97A9304B5D6812632AD2E0AC63E6BD2CDEACB08038AB3FEEC14BC4C11CBF3350D2405994B93E06011586175164483AACB3F1FBE48
311
818B6CE6DC3150C0F97D37BFF8E36129B24CE4F5D2C38DBD0E3B9B475C6EE30714076A6E25EA6132F6260FD56DC05E50B62151744862F584054456B216E85EF8C1CBFACA883E547F68E5462614070C5DAF1CDBD866506AE9D2ADAD061CCC1D39759043E6466932A62B50BC79211855A2304162940FFE05504B030414000608
311
0000B34A2242000000000000000000000000350000006662782F42463239333944342D463141352D343332392D423241312D3542303934414241394538372F76657274696365732E62696E504B0304140006080800B34A2242F270F1330600000004000000360000006662782F42463239333944342D463141352D34333239
311
2D423241312D3542303934414241394538372F747269616E676C65732E62696E636660600000504B0304140006080000B34A2242000000000000000000000000370000006662782F42463239333944342D463141352D343332392D423241312D3542303934414241394538372F617474726962757465732E62696E504B0304
311
140006080800B34A2242D5987DFC8F00000041010000360000006662782F42463239333944342D463141352D343332392D423241312D3542303934414241394538372F6469726563746F72792E786D6C858F410EC2201045AF4266AF15DDB800BA74E7C21B903225242D6328188F2FA5C4183471359997F9FF81E89FF3C41E
311
1816475E02DF1F80A11FC8386F25A438EECEC07A250251FC3803E6F58C12560C4AD840E95E91C151A72936F496F35732D860FE635F62C8F2DA16B505C545B74125BAA2FA9E05D7CC053D063734D5C7665FD55B6B8D15D5E9BFEAFD8490FFA45E504B0304140006080800B34A22422D8AEFDDFD000000A00100003B00000066
311
62782F42463239333944342D463141352D343332392D423241312D3542303934414241394538372F7265736F75726365732F636F72652E786D6C8D50596E833010BD0A9A7F83CD96041947A12227E8052C33A156828DBC543D7E4D42A5F6AF3F33A3B7689E1E3F7F2D8FEC139DD7D6F4C0720A191A65276DE61E62B8912364
311
67C19DB5E1970C322317EC618341F0D9D9B8EE90B226A009093576C21D94DE63804C3DD2D183571FB8C85CC69014FE9EAF52DDE58C39CB139D7482FBE05280ECF5649B201C7A1B9D42CF8B172B788C7ADA357A4A3FF54DA303315E86E130D28634D7B72BA9291DC8898D0D19EB7118DBE3E1D25E6B5E6C66C1835E7E322A87
311
32E004A2A4AC2294115ABED35357B2AE3A11DA7694F26293FF31C575FAA7296A13AA728FFBB279102C05791282175B5F693DCB4C7BEB567C03504B010214000A0000080000B34A22423DEE336E79000000790000001B00000000000000000000000000000000006175746F6465736B2D64657369676E2D7061636B6167652E
311
786D6C504B01021400140006080800B34A2242D486FD9CA0000000F40000001300000000000000000000000000B20000005B436F6E74656E745F54797065735D2E786D6C504B01021400140006080800B34A22424560B2ECEA0000007C010000080000000000000000000000000083010000636F72652E786D6C504B010214
311
00140006080800B34A224255019EA25F0000007C000000070000000000000000000000000093020000636E782E786D6C504B01021400140006080800B34A22420DABD6CE66010000020300000C00000000000000000000000000170300006662782F636F72652E786D6C504B01021400140006080800B34A22429741F2AB7D
311
0000009D0000000B00000000000000000000000000A70400006662782F636E782E786D6C504B01021400140006080800B34A22427EC914AC2C0100001502000031000000000000000000000000004D0500006662782F42463239333944342D463141352D343332392D423241312D3542303934414241394538372F636F7265
311
2E786D6C504B01021400140006080800B34A2242DCAA44BF4D010000330300003000000000000000000000000000C80600006662782F42463239333944342D463141352D343332392D423241312D3542303934414241394538372F636E782E786D6C504B01021400140006080800B34A2242A7C66522A60500008010000034
311
00000000000000000000000000630800006662782F42463239333944342D463141352D343332392D423241312D3542303934414241394538372F6F626A656374732E786D6C504B01021400140006080000B34A224200000000000000000000000035000000000000000000000000005B0E00006662782F4246323933394434
311
2D463141352D343332392D423241312D3542303934414241394538372F76657274696365732E62696E504B01021400140006080800B34A2242F270F13306000000040000003600000000000000000000000000AE0E00006662782F42463239333944342D463141352D343332392D423241312D354230393441424139453837
311
2F747269616E676C65732E62696E504B01021400140006080000B34A22420000000000000000000000003700000000000000000000000000080F00006662782F42463239333944342D463141352D343332392D423241312D3542303934414241394538372F617474726962757465732E62696E504B01021400140006080800
311
B34A2242D5987DFC8F0000004101000036000000000000000000000000005D0F00006662782F42463239333944342D463141352D343332392D423241312D3542303934414241394538372F6469726563746F72792E786D6C504B01021400140006080800B34A22422D8AEFDDFD000000A00100003B00000000000000000000
311
000000401000006662782F42463239333944342D463141352D343332392D423241312D3542303934414241394538372F7265736F75726365732F636F72652E786D6C504B0506000000000E000E0080040000961100000000
310
504B03040A0000080000B34A22423DEE336E79000000790000001B0000006175746F6465736B2D64657369676E2D7061636B6167652E786D6C3C3F786D6C2076657273696F6E3D22312E302220656E636F64696E673D227574662D3822203F3E3C666F726D6174733E3C666F726D61743E687474703A2F2F736368656D612E
310
6175746F6465736B2E636F6D2F64657369676E2D7061636B6167652F323030393C2F666F726D61743E3C2F666F726D6174733E504B0304140006080800B34A2242D486FD9CA0000000F4000000130000005B436F6E74656E745F54797065735D2E786D6C7D8EC10E82300C865F65E91D8A1E8C310C0EEA1BF002731658846E
310
D98AC1B77784ABF1D8FE5FBFBF75BBCE937A534CCEB38643598122B6FEE978D0B0485F9C41B54DDD7D022595594E1A469170414C76A4D9A4D207E29CF43ECE46F218070CC6BECC4078ACAA135ACF422C856C0E68EA1BF5669944DDD7BCDE7B1F8E415D77AECB980613C2E4AC91FC167A2B244592486606FC29C8FD7F045B9A
310
EF7053A7E60B504B0304140006080800B34A2242EC898ED4E80000007C01000008000000636F72652E786D6C8D90416EC3201045AF82668F0DB8718A8589123737E8051010072506CB40D5E317278ED4EEBA9AD19FFF66465F1CBEA73BFAB24B74C1F7402B02C87A1D8CF3630F395DF03BA083144B08E9970D905793ED6195
310
418A710979DE241D7CB23E15D507633751C56813207D2F4D0F515FEDA42A955371C45B352B7D53A3ADE8AB2B70CECEA0E71167CA3E77717601C91925EC8336787F3CB7F8ADE5033E71BAC3C3B9390DBB81ECDB2317F50A4B91DCF4BAAF17AB92352019292CA198B04FC23B46BB8663D27684887AB5FF81F26CFE0965E753C3
310
B6779F580449CB238F8114F59A45298FA04A5D73933F504B0304140006080800B34A224255019EA25F0000007C00000007000000636E782E786D6C4DCB3B0E80201045D1AD90E915ED2CF8AC45050C11660C8261F98AB1B07AC9C97D42D718D865D3E909258CFD00CCE24AC6E326A164D74DC0B4128928FF326038472BA131
310
28B1252AC747C6BAB984FC68F0B87FE8960A5C09FE86CFB69FBA01504B0304140006080800B34A224224DC5A2665010000020300000C0000006662782F636F72652E786D6C8D52ED8E8320107C15C27F05B5B5678334ADD737B817A04A3D52058360FAF8B77E345E2F4D73314132B3B33B3BCA0EF7B64183B4BD323AC75148
310
3192BA3495D2758EBDBB061F181D38B3C6B85F651869D1CA1C8F30E6ACB6C6770B541AEDA476806A53C905147D2F1D466503971CF7E5B76C4528BC838AFE1676A2BC895A86510834D471D63B0B06D03C643C31BF5EEE8CCC3867DEAB6A615505D3D455498B79164734FE8C9260773CA7C126CD8AE09445DBA03827A7625BD0
310
5D7ACC1819C59C39D53EDC95560A272BCC630A5A1A0534FEA2D93E8EF64916D0744F292363F993C877D53F455E6997C48BDD59D6631E819189F8B32D44E4502F06F04338236388F09A127E0E1A0281909DB8348F3D6E000DB274C66E80A98C5FA941345EC2548AA687919985CE5303D8EC659FF84D9FF73DE0030A5D8335E1
310
E07AF16E9CCEE6A94B149DB4C1E0EE481BDB8A6635375B5CCF75D04B79691A63FFA326CBAA6409938C7F2FFF01504B0304140006080800B34A22423492D0747E0000009D0000000B0000006662782F636E782E786D6C4DCCDF0E82201C86E15B61BF7352FE24B501CEA8EEC3253A264223685D7EDA3CE8E8DB9E7D7B65FB59
310
3C7ADBF472312820871A900D8F38B830292879C42740AD9629C6FC770314FAC52AD818B49C522CCF9D063BF6C5E755BD0BF38E5DC3056F6E672C98E930A784E28BB90A7C2477CE283182D51C2A2DAB5F69DD2DACBF504B0304140006080800B34A2242315B25002B01000015020000310000006662782F4136343734364539
310
2D373343412D343231322D424344372D3531463433323143373330342F636F72652E786D6C8D51CB6EC32010FC158B537AC00643ED24C24469DA7E417FC00192A0C460F1A8F2F95DD78ED4DE7261D1ECCCEC6857ECEEC3ADF836215AEF3A444B820AE394D7D69D3B94D309AF51B19322789FFED050E1FAC17468829114E7E0
310
F3B840CABB645C02D4796D16B08FD12454A81B7C3A14D5C50C7DD9E7048C782DC75E5DFBB32969096DE04911538000C53C647A91DC37BCE5CDC706B7ECB0C7BCA6357E3BBCB7F8957E7256D343CB0817D52C942267AB17B9D510C79EAC09CF9A4C6229921D1EF155307D321AC99A508609C5A4FE229B6D4DB76C8349B32544
310
5413FD9F288FFA4951B62EB17A893BCB2292545473430AEDF3F1F60863EEA30FA998E6ADA2512F489292104ED66CDDC206662E6C004C1BBE98C6E4036C78753D029D2DCE0D97A29A8E04E5F78250A783CA1F504B0304140006080800B34A2242BA0D8BA85501000033030000300000006662782F41363437343645392D3733
310
43412D343231322D424344372D3531463433323143373330342F636E782E786D6CBD93C16EC32010447F0571B78DEDC84A224CA41EFA053DF48A6193D0D86001AE9ABFEF929034971C2A55BD206B7698593D61BEFB9A46F2093E18677B5A978C12B0CA69630F3D5DE2BE5853B213DC3B171F6C945839414F934C053F78B7CC
310
59D2B097CB18511D8D3D65D143708B5710504E37C9E8941C31006CB1A008D3005A832677237EEDC1E32A280E67128F405E5FDE891B3E40C5C0AB942278953A044F676E7A3051A24619424F833AC2244BB944A7219C4A2DA32CEBF2D6F564A79F24922EDC2A176F482AEF693AA9C81B95C8915738143C448FF4B2299E67A042
310
CEF368948C08B9BA18AF1EC1176363B7CA5E83E03DBADBA65BAF31EC32133C9A09B24379901134150DABDB82D5056BDED866DBD4DB7653B06ECB18AF925DF0C1B9315FC218F06E26CAD908365251F32A8D9FE1CB3EA28D47D6CE9F7F011201E4D62B9D7BC65FF2A9BB76B5FA473ED5E57D232E8F7F81F806504B0304140006
310
080800B34A2242232261F962070000991B0000340000006662782F41363437343645392D373343412D343231322D424344372D3531463433323143373330342F6F626A656374732E786D6CED595B73A33614FE2B0C7D691F8C8DEDDC3A844EE2243B9E9DECEEACBB3B7DF00C23834CD408C1482297FEFA1E5DC0404C82BBE9
310
DB3ED880908ECEF9CE5587E08FA78C3A0F980B92B373D7F726AE83599C2784A5E76E29B7A353D7F9230C789ECBC634D76128C3E7AE1A76C320E57959D8A1046F51496567F4E6F22F47C49861D7892912E2DC15F11DCE90874A992758DC7B0992C84BB74F9EEF99896DB22947C55D87688138661238857106541CC394DF7E9C
310
B8E33018ABF761A0FEEDACD9A059F3FE59632D759B4BC284442C7EC15287CC6C104B337F7E753D3D3A1B1DCDE7B3D1FC78EA8F2E6F2EAF46FEC96CB2385E2CCE2EAECF80BD4D9E532B53820BCC12D0DFB31BFAC158BDA945B708ECE33ACE19C3B10612A0D2627509122C60AB067C93F6A3AF246ABCD612369EE7EABD65A131
310
3C6B53E99B350C88165D10C46E57495C5D9BF2E59BBF417031C428B9C012B8159283762D3C1CBCC20D27C1D88C86C166A70B229C0C49CC09A20E251B8E382805A6AA296160165832CA3938907294045A73E675DBB6C033DF769D7D5C6E4B4A9567B8A176AC08DC0F4BA13923FF60BEE3BE890CF004D29684C953CBA57C2EB0
310
1B9E05633D1806EA329BDA970648674B512A3422E66D47D08572FDE5951B7EBCD93CAD5438D8BF79C1F30273A98C4EE951F305866CAF0A25BBAD3F48736A01086340B52B77A07C05E43F41F4D8B1027AE3E469FE34B77325474C6C739E816E9C89339AC0DFC4F1F5BFBA6FDC05E37A715B7B7D78829B2AA84E7F1CCFB60C1A
310
2BCB7F03CE30780083CFF9CCBE5AC588823DDF120600292371680E4310DAB79B27375C42E084400FAB100D7D1019D87D80DB606CC9ECB452B997F53A0688DA3D66439404B0698B04367AF4F401B20727F14E4D4D11FBE03D7A1773BDB85A7D5C957C8B627C6B7DFA0A6F092312B2E67E865A98B724BAC7CF8F394F40D09778
310
AF9A7867762B01682BCC15F06905827AD8EDDCDA20867569AEC24DF0C60E2084CAD50DFAB744C49852C4705E56FBD6D14D196AEDF1B66670C3A9817836ED9830C70F445515E034BB192D4621EFC79C140A4437FC6024AB83A6D723DDB7E527B0C87A7ECFAC2583D0CB10FD5307AD3D38B42CBB42DA02510BBCD985F338A739
310
8F36CF9189742ED412C046DB5BBEB78842AC374A5254C083B4DF55212535D24609D96E4B0171750F8BDF978BA6394CBC997FE434FF3BCE3887680BBE8BB8F5BBCE1E11C9508AA32D4AFAB66BEE56D3169A640F698EB714E4220F443E4748469304A787407310F1B377A59ED25C08C2B0807CB517FC261A130F0289D166C5B2
310
D26A076822A20C4B440F414091E90157A71D5DE3C6503ABCCD636DBDAF69AC49F47FB2088EA096CC5944A014851CF226E3BE770431A48DAE41B9832F585B455B8B414B2821E2E7E81193F44E1E82BA21DF837B0C4792524679816230EB01645FF88A526A87F70D8AEF55FE88E292BE9781084CB711A1B4CC22F81106278F21
310
AE5D07A65751681037B14FE20C8A32244B3E6493E3A3C98B7D4CCDD00D818D8DB68442D88E3254F4A0DE0A88BA1E716AF02DF51EA56ECAAC885096976C90A178B3AE3759F25DB52AB203F955A522948D15614B300C08937556AD623698BA0EACE0463A503D4702650535A7B037128F5F7B93A6DCBB01B77EFABE1B6450F8F5
310
68AF1951E7150C96C75661201E918CEFDC70A5AFA34BA8BF139CEC527D556B362B40404C45F29213ABA26F4B286F6C8DE686B7488AF5079375ABEBB7A507DD8F600C6BA076A9172E15D0196612A9CAE456DDD0AF0842708B86195FAA9C7A08958B24D15523A237A44F9DAD32A2B56946BCE20EB33C831F5B1316D332C16B94
310
88FBE856D2684514EB564A2F2315C6AF0AF8F9C3AA030F8C0C10E98B2AF0F06367AD1D5DA872692F117957661B860804C19668A9D18D57B0D46AA4D2727D55670AA8BBC0C0AC8AE73F4F16CD76C4CF93456A0DE3C74E1634DF20BA8B368D6C1E2BB33EE81450A72745E53D4E01BAEB5053AD9388C9E5567CEB4B11C4C42AC8
310
0F2EC6AA986108F671FC9F93765F1234DB75F83F2C69FB2F0A8E83924A6BB26A52ED295C97CD147671B2981E5F5F4D462793D34BE8CFCE2E47A7D7C767A3EBEB63FFF4727A323BBB5CD4686A3F0D833A96E9D405CF26A655C3EAC962004D59915392C0613E71520C215FC2917E40F79C675840EE6CF6BA13DB931FB0FAC1B4
310
3925DA505C717287A03F4C056475C0A88C657BDCF9053A9312CED9E72EF48CBC7BF8B356E93A9078CE5DE814481263E16DA0CBA4FA799A38645C9DFA2D31C007B1546544B3A87EAE57296C5AD1BF9E32240B58B95A2D0CA8DB0A687EB51A149A37CB537C90E0153B0E9270BB2925146B4696DD402D8CDE66A77E231B25ECDE
310
6EFD04AEFBBA58BEA7E7B41019F4C5E0552330544712F154B7BB156396A58BAB2F6368B339CBCF4E41CB1474399CD2886330E652D553604560159666812498EAE2F7F5179EC3179ECCD14591F3EBD3E9F16FEB459E65393343EB0B389425F09DC859DDC1579F640DB50356BD75B19E4EFCE95AF7B46D9B3DDA20813D5514C1
310
40554B28413A260776F9A23F65BB9763A58ACEF4E595638328F4028C1DBD68F19A6F5C0EF890FA9AA23C46FB7925EDAB6DEDB19E0A36C1A1211DFE0B504B0304140006080000B34A2242000000000000000000000000350000006662782F41363437343645392D373343412D343231322D424344372D353146343332314337
310
3330342F76657274696365732E62696E504B0304140006080800B34A2242F270F1330600000004000000360000006662782F41363437343645392D373343412D343231322D424344372D3531463433323143373330342F747269616E676C65732E62696E636660600000504B0304140006080000B34A224200000000000000
310
0000000000370000006662782F41363437343645392D373343412D343231322D424344372D3531463433323143373330342F617474726962757465732E62696E504B0304140006080800B34A2242D5987DFC8F00000041010000360000006662782F41363437343645392D373343412D343231322D424344372D3531463433
310
323143373330342F6469726563746F72792E786D6C858F410EC2201045AF4266AF15DDB800BA74E7C21B903225242D6328188F2FA5C4183471359997F9FF81E89FF3C41E1816475E02DF1F80A11FC8386F25A438EECEC07A250251FC3803E6F58C12560C4AD840E95E91C151A72936F496F35732D860FE635F62C8F2DA16B5
310
05C545B74125BAA2FA9E05D7CC053D063734D5C7665FD55B6B8D15D5E9BFEAFD8490FFA45E504B0304140006080800B34A2242FF22A04CFC000000A00100003B0000006662782F41363437343645392D373343412D343231322D424344372D3531463433323143373330342F7265736F75726365732F636F72652E786D6C8D
310
504B6E833010BD0A9ABDC1360D29C8384A686ED00B586642AD041BF953F5F835814AEDAE9B99D1FB689E9E387DCD8FE2137D30CEF6C04A0A055AED4663A71E52BC9157284E5278E7E22F191456CDD8C30A8314937769D921ED6C441B336ADD883BA842C008857EE4A387A03F7056A54A312BC2BD5C94BEAB094B56663AEBA4
310
08D1E700C5F6649D203D0697BCC620AA8D95222533EE1A33E69FE666D0836C39A3FC8D71723C5F1BF2D2B403B9B4EC40866B7D190E033D36E75654AB598A68E69F8CDAA38A3882E494D5843242F93B6D3BCEBABA25B4E92815D52AFF634ACBF84F533236D67C8FBBD9024896833C0929AAB5AFBC9E65E6BD762BBF01504B01
310
0214000A0000080000B34A22423DEE336E79000000790000001B00000000000000000000000000000000006175746F6465736B2D64657369676E2D7061636B6167652E786D6C504B01021400140006080800B34A2242D486FD9CA0000000F40000001300000000000000000000000000B20000005B436F6E74656E745F5479
310
7065735D2E786D6C504B01021400140006080800B34A2242EC898ED4E80000007C010000080000000000000000000000000083010000636F72652E786D6C504B01021400140006080800B34A224255019EA25F0000007C000000070000000000000000000000000091020000636E782E786D6C504B01021400140006080800
310
B34A224224DC5A2665010000020300000C00000000000000000000000000150300006662782F636F72652E786D6C504B01021400140006080800B34A22423492D0747E0000009D0000000B00000000000000000000000000A40400006662782F636E782E786D6C504B01021400140006080800B34A2242315B25002B010000
310
1502000031000000000000000000000000004B0500006662782F41363437343645392D373343412D343231322D424344372D3531463433323143373330342F636F72652E786D6C504B01021400140006080800B34A2242BA0D8BA855010000330300003000000000000000000000000000C50600006662782F413634373436
310
45392D373343412D343231322D424344372D3531463433323143373330342F636E782E786D6C504B01021400140006080800B34A2242232261F962070000991B00003400000000000000000000000000680800006662782F41363437343645392D373343412D343231322D424344372D3531463433323143373330342F6F62
310
6A656374732E786D6C504B01021400140006080000B34A224200000000000000000000000035000000000000000000000000001C1000006662782F41363437343645392D373343412D343231322D424344372D3531463433323143373330342F76657274696365732E62696E504B01021400140006080800B34A2242F270F1
310
33060000000400000036000000000000000000000000006F1000006662782F41363437343645392D373343412D343231322D424344372D3531463433323143373330342F747269616E676C65732E62696E504B01021400140006080000B34A22420000000000000000000000003700000000000000000000000000C9100000
310
6662782F41363437343645392D373343412D343231322D424344372D3531463433323143373330342F617474726962757465732E62696E504B01021400140006080800B34A2242D5987DFC8F0000004101000036000000000000000000000000001E1100006662782F41363437343645392D373343412D343231322D424344
310
372D3531463433323143373330342F6469726563746F72792E786D6C504B01021400140006080800B34A2242FF22A04CFC000000A00100003B00000000000000000000000000011200006662782F41363437343645392D373343412D343231322D424344372D3531463433323143373330342F7265736F75726365732F636F
310
72652E786D6C504B0506000000000E000E0080040000561300000000
  0
XRECORD
  5
27
102
{ACAD_REACTORS
330
22
102
}
330
22
100
AcDbXrecord
280
     1
270
     1
271
     1
  0
XRECORD
  5
26
102
{ACAD_REACTORS
330
22
102
}
330
22
100
AcDbXrecord
280
     1
270
     1
271
     1
  0
XRECORD
  5
28
102
{ACAD_REACTORS
330
22
102
}
330
22
100
AcDbXrecord
280
     1
270
     1
271
     1
  0
XRECORD
  5
25
102
{ACAD_REACTORS
330
22
102
}
330
22
100
AcDbXrecord
280
     1
270
     1
271
     1
  0
XRECORD
  5
182D
102
{ACAD_REACTORS
330
182C
102
}
330
182C
100
AcDbXrecord
280
     1
102
ACAD_ROUNDTRIP_2012_MLEADER_STYLE
298
     1
  0
CELLSTYLEMAP
  5
182B
102
{ACAD_REACTORS
330
182A
102
}
330
182A
100
AcDbCellStyleMap
 90
        3
300
CELLSTYLE
  1
TABLEFORMAT_BEGIN
 90
        5
170
     1
 91
        0
 92
    32768
 62
   257
 93
        1
300
CONTENTFORMAT
  1
CONTENTFORMAT_BEGIN
 90
        0
 91
        0
 92
      512
 93
        0
300

 40
0.0
140
1.0
 94
        5
 62
     0
340
55
144
0.25
309
CONTENTFORMAT_END
171
     0
 94
        0
309
TABLEFORMAT_END
  1
CELLSTYLE_BEGIN
 90
        1
 91
        1
300
_TITLE
309
CELLSTYLE_END
300
CELLSTYLE
  1
TABLEFORMAT_BEGIN
 90
        5
170
     1
 91
        0
 92
        0
 62
   257
 93
        1
300
CONTENTFORMAT
  1
CONTENTFORMAT_BEGIN
 90
        0
 91
        0
 92
      512
 93
        0
300

 40
0.0
140
1.0
 94
        5
 62
     0
340
55
144
0.18
309
CONTENTFORMAT_END
171
     0
 94
        0
309
TABLEFORMAT_END
  1
CELLSTYLE_BEGIN
 90
        2
 91
        1
300
_HEADER
309
CELLSTYLE_END
300
CELLSTYLE
  1
TABLEFORMAT_BEGIN
 90
        5
170
     1
 91
        0
 92
        0
 62
   257
 93
        1
300
CONTENTFORMAT
  1
CONTENTFORMAT_BEGIN
 90
        0
 91
        0
 92
      512
 93
        0
300

 40
0.0
140
1.0
 94
        2
 62
     0
340
55
144
0.18
309
CONTENTFORMAT_END
171
     0
 94
        0
309
TABLEFORMAT_END
  1
CELLSTYLE_BEGIN
 90
        3
 91
        2
300
_DATA
309
CELLSTYLE_END
  0
ENDSEC
  0
EOF
