  0
SECTION
  2
HEADER
  9
$ACADVER
  1
AC1024
  9
$ACADMAINTVER
 70
    63
  9
$DWGCODEPAGE
  3
ANSI_1252
  9
$AUTHOR
  1
KA
  9
$REVISIONNUMBER
  1
-
  9
$CUSTOMPROPERTYTAG
  1
Manager
  9
$CUSTOMPROPERTY
  1

  9
$CUSTOMPROPERTYTAG
  1
Company
  9
$CUSTOMPROPERTY
  1

  9
$CUSTOMPROPERTYTAG
  1
Category
  9
$CUSTOMPROPERTY
  1

  9
$CUSTOMPROPERTYTAG
  1
Part Number
  9
$CUSTOMPROPERTY
  1
HWDSSJWL904
  9
$CUSTOMPROPERTYTAG
  1
Description
  9
$CUSTOMPROPERTY
  1

  9
$CUSTOMPROPERTYTAG
  1
Project
  9
$CUSTOMPROPERTY
  1

  9
$CUSTOMPROPERTYTAG
  1
Designer
  9
$CUSTOMPROPERTY
  1
KA
  9
$CUSTOMPROPERTYTAG
  1
Engineer
  9
$CUSTOMPROPERTY
  1

  9
$CUSTOMPROPERTYTAG
  1
Authority
  9
$CUSTOMPROPERTY
  1

  9
$CUSTOMPROPERTYTAG
  1
Cost Center
  9
$CUSTOMPROPERTY
  1

  9
$CUSTOMPROPERTYTAG
  1
Vendor
  9
$CUSTOMPROPERTY
  1

  9
$CUSTOMPROPERTYTAG
  1
User Status
  9
$CUSTOMPROPERTY
  1

  9
$CUSTOMPROPERTYTAG
  1
Design Status
  9
$CUSTOMPROPERTY
  1
WorkInProgress
  9
$CUSTOMPROPERTYTAG
  1
Checked by
  9
$CUSTOMPROPERTY
  1
DN
  9
$CUSTOMPROPERTYTAG
  1
Date Checked
  9
$CUSTOMPROPERTY
  1
10/23/2012
  9
$CUSTOMPROPERTYTAG
  1
Engr Approved by
  9
$CUSTOMPROPERTY
  1

  9
$CUSTOMPROPERTYTAG
  1
Mfg Approved by
  9
$CUSTOMPROPERTY
  1

  9
$CUSTOMPROPERTYTAG
  1
DWG. NO
  9
$CUSTOMPROPERTY
  1

  9
$CUSTOMPROPERTYTAG
  1
NUMBER OF SHEETS
  9
$CUSTOMPROPERTY
  1
1
  9
$CUSTOMPROPERTYTAG
  1
DRAWING #
  9
$CUSTOMPROPERTY
  1

  9
$INSBASE
 10
0.0
 20
0.0
 30
0.0
  9
$EXTMIN
 10
0.0
 20
0.0
 30
0.0
  9
$EXTMAX
 10
41.84615384615384
 20
27.07692307692308
 30
0.0
  9
$LIMMIN
 10
0.0
 20
0.0
  9
$LIMMAX
 10
41.84615384615384
 20
27.07692307692308
  9
$ORTHOMODE
 70
     0
  9
$REGENMODE
 70
     1
  9
$FILLMODE
 70
     1
  9
$QTEXTMODE
 70
     0
  9
$MIRRTEXT
 70
     0
  9
$LTSCALE
 40
2.461538461538461
  9
$ATTMODE
 70
     1
  9
$TEXTSIZE
 40
0.2
  9
$TRACEWID
 40
0.05
  9
$TEXTSTYLE
  7
Standard
  9
$CLAYER
  8
0
  9
$CELTYPE
  6
ByLayer
  9
$CECOLOR
 62
   256
  9
$CELTSCALE
 40
1.0
  9
$DISPSILH
 70
     0
  9
$DIMSCALE
 40
1.0
  9
$DIMASZ
 40
0.0708661417322835
  9
$DIMEXO
 40
0.0625
  9
$DIMDLI
 40
0.38
  9
$DIMRND
 40
0.0
  9
$DIMDLE
 40
0.0
  9
$DIMEXE
 40
0.18
  9
$DIMTP
 40
0.0
  9
$DIMTM
 40
0.0
  9
$DIMTXT
 40
0.0708661417322835
  9
$DIMCEN
 40
0.09
  9
$DIMTSZ
 40
0.0
  9
$DIMTOL
 70
     0
  9
$DIMLIM
 70
     0
  9
$DIMTIH
 70
     1
  9
$DIMTOH
 70
     1
  9
$DIMSE1
 70
     0
  9
$DIMSE2
 70
     0
  9
$DIMTAD
 70
     0
  9
$DIMZIN
 70
     0
  9
$DIMBLK
  1

  9
$DIMASO
 70
     1
  9
$DIMSHO
 70
     1
  9
$DIMPOST
  1

  9
$DIMAPOST
  1

  9
$DIMALT
 70
     0
  9
$DIMALTD
 70
     2
  9
$DIMALTF
 40
25.4
  9
$DIMLFAC
 40
1.0
  9
$DIMTOFL
 70
     0
  9
$DIMTVP
 40
0.0
  9
$DIMTIX
 70
     0
  9
$DIMSOXD
 70
     0
  9
$DIMSAH
 70
     0
  9
$DIMBLK1
  1

  9
$DIMBLK2
  1

  9
$DIMSTYLE
  2
Standard
  9
$DIMCLRD
 70
     0
  9
$DIMCLRE
 70
     0
  9
$DIMCLRT
 70
     0
  9
$DIMTFAC
 40
1.0
  9
$DIMGAP
 40
0.09
  9
$DIMJUST
 70
     0
  9
$DIMSD1
 70
     0
  9
$DIMSD2
 70
     0
  9
$DIMTOLJ
 70
     1
  9
$DIMTZIN
 70
     0
  9
$DIMALTZ
 70
     0
  9
$DIMALTTZ
 70
     0
  9
$DIMUPT
 70
     0
  9
$DIMDEC
 70
     4
  9
$DIMTDEC
 70
     4
  9
$DIMALTU
 70
     2
  9
$DIMALTTD
 70
     2
  9
$DIMTXSTY
  7
Standard
  9
$DIMAUNIT
 70
     0
  9
$DIMADEC
 70
     0
  9
$DIMALTRND
 40
0.0
  9
$DIMAZIN
 70
     0
  9
$DIMDSEP
 70
    46
  9
$DIMATFIT
 70
     3
  9
$DIMFRAC
 70
     0
  9
$DIMLDRBLK
  1

  9
$DIMLUNIT
 70
     2
  9
$DIMLWD
 70
    -2
  9
$DIMLWE
 70
    -2
  9
$DIMTMOVE
 70
     0
  9
$DIMFXL
 40
1.0
  9
$DIMFXLON
 70
     0
  9
$DIMJOGANG
 40
0.7853981633974483
  9
$DIMTFILL
 70
     0
  9
$DIMTFILLCLR
 70
     0
  9
$DIMARCSYM
 70
     0
  9
$DIMLTYPE
  6

  9
$DIMLTEX1
  6

  9
$DIMLTEX2
  6

  9
$DIMTXTDIRECTION
 70
     0
  9
$LUNITS
 70
     2
  9
$LUPREC
 70
     4
  9
$SKETCHINC
 40
0.1
  9
$FILLETRAD
 40
0.0
  9
$AUNITS
 70
     0
  9
$AUPREC
 70
     0
  9
$MENU
  1
.
  9
$ELEVATION
 40
0.0
  9
$PELEVATION
 40
0.0
  9
$THICKNESS
 40
0.0
  9
$LIMCHECK
 70
     0
  9
$CHAMFERA
 40
0.0
  9
$CHAMFERB
 40
0.0
  9
$CHAMFERC
 40
0.0
  9
$CHAMFERD
 40
0.0
  9
$SKPOLY
 70
     0
  9
$TDCREATE
 40
2456295.409272662
  9
$TDUCREATE
 40
2456295.659272662
  9
$TDUPDATE
 40
2456295.409272673
  9
$TDUUPDATE
 40
2456295.659272674
  9
$TDINDWG
 40
0.0000267593
  9
$TDUSRTIMER
 40
0.0000267593
  9
$USRTIMER
 70
     1
  9
$ANGBASE
 50
0.0
  9
$ANGDIR
 70
     0
  9
$PDMODE
 70
     0
  9
$PDSIZE
 40
0.0
  9
$PLINEWID
 40
0.0
  9
$SPLFRAME
 70
     0
  9
$SPLINETYPE
 70
     6
  9
$SPLINESEGS
 70
     8
  9
$HANDSEED
  5
148D
  9
$SURFTAB1
 70
     6
  9
$SURFTAB2
 70
     6
  9
$SURFTYPE
 70
     6
  9
$SURFU
 70
     6
  9
$SURFV
 70
     6
  9
$UCSBASE
  2

  9
$UCSNAME
  2

  9
$UCSORG
 10
0.0
 20
0.0
 30
0.0
  9
$UCSXDIR
 10
1.0
 20
0.0
 30
0.0
  9
$UCSYDIR
 10
0.0
 20
1.0
 30
0.0
  9
$UCSORTHOREF
  2

  9
$UCSORTHOVIEW
 70
     0
  9
$UCSORGTOP
 10
0.0
 20
0.0
 30
0.0
  9
$UCSORGBOTTOM
 10
0.0
 20
0.0
 30
0.0
  9
$UCSORGLEFT
 10
0.0
 20
0.0
 30
0.0
  9
$UCSORGRIGHT
 10
0.0
 20
0.0
 30
0.0
  9
$UCSORGFRONT
 10
0.0
 20
0.0
 30
0.0
  9
$UCSORGBACK
 10
0.0
 20
0.0
 30
0.0
  9
$PUCSBASE
  2

  9
$PUCSNAME
  2

  9
$PUCSORG
 10
0.0
 20
0.0
 30
0.0
  9
$PUCSXDIR
 10
1.0
 20
0.0
 30
0.0
  9
$PUCSYDIR
 10
0.0
 20
1.0
 30
0.0
  9
$PUCSORTHOREF
  2

  9
$PUCSORTHOVIEW
 70
     0
  9
$PUCSORGTOP
 10
0.0
 20
0.0
 30
0.0
  9
$PUCSORGBOTTOM
 10
0.0
 20
0.0
 30
0.0
  9
$PUCSORGLEFT
 10
0.0
 20
0.0
 30
0.0
  9
$PUCSORGRIGHT
 10
0.0
 20
0.0
 30
0.0
  9
$PUCSORGFRONT
 10
0.0
 20
0.0
 30
0.0
  9
$PUCSORGBACK
 10
0.0
 20
0.0
 30
0.0
  9
$USERI1
 70
     0
  9
$USERI2
 70
     0
  9
$USERI3
 70
     0
  9
$USERI4
 70
     0
  9
$USERI5
 70
     0
  9
$USERR1
 40
0.0
  9
$USERR2
 40
0.0
  9
$USERR3
 40
0.0
  9
$USERR4
 40
0.0
  9
$USERR5
 40
0.0
  9
$WORLDVIEW
 70
     1
  9
$SHADEDGE
 70
     3
  9
$SHADEDIF
 70
    70
  9
$TILEMODE
 70
     1
  9
$MAXACTVP
 70
    64
  9
$PINSBASE
 10
0.0
 20
0.0
 30
0.0
  9
$PLIMCHECK
 70
     0
  9
$PEXTMIN
 10
0.0
 20
0.0
 30
0.0
  9
$PEXTMAX
 10
41.84615384615384
 20
27.07692307692308
 30
0.0
  9
$PLIMMIN
 10
0.0
 20
0.0
  9
$PLIMMAX
 10
41.84615384615384
 20
27.07692307692308
  9
$UNITMODE
 70
     0
  9
$VISRETAIN
 70
     1
  9
$PLINEGEN
 70
     0
  9
$PSLTSCALE
 70
     1
  9
$TREEDEPTH
 70
  3020
  9
$CMLSTYLE
  2
Standard
  9
$CMLJUST
 70
     0
  9
$CMLSCALE
 40
1.0
  9
$PROXYGRAPHICS
 70
     1
  9
$MEASUREMENT
 70
     0
  9
$CELWEIGHT
370
    -1
  9
$ENDCAPS
280
     0
  9
$JOINSTYLE
280
     0
  9
$LWDISPLAY
290
     0
  9
$INSUNITS
 70
     1
  9
$HYPERLINKBASE
  1

  9
$STYLESHEET
  1

  9
$XEDIT
290
     1
  9
$CEPSNTYPE
380
     0
  9
$PSTYLEMODE
290
     1
  9
$FINGERPRINTGUID
  2
{10B08EAE-E3D9-47A5-90C2-D7EC63DDA7E8}
  9
$VERSIONGUID
  2
{589F7151-F657-4F71-9218-18A3DC0F96E0}
  9
$EXTNAMES
290
     1
  9
$PSVPSCALE
 40
0.0
  9
$OLESTARTUP
290
     0
  9
$SORTENTS
280
   127
  9
$INDEXCTL
280
     0
  9
$HIDETEXT
280
     1
  9
$XCLIPFRAME
280
     2
  9
$HALOGAP
280
     0
  9
$OBSCOLOR
 70
   257
  9
$OBSLTYPE
280
     0
  9
$INTERSECTIONDISPLAY
280
     0
  9
$INTERSECTIONCOLOR
 70
   257
  9
$DIMASSOC
280
     1
  9
$PROJECTNAME
  1

  9
$CAMERADISPLAY
290
     0
  9
$LENSLENGTH
 40
50.0
  9
$CAMERAHEIGHT
 40
0.0
  9
$STEPSPERSEC
 40
2.0
  9
$STEPSIZE
 40
6.0
  9
$3DDWFPREC
 40
2.0
  9
$PSOLWIDTH
 40
0.25
  9
$PSOLHEIGHT
 40
4.0
  9
$LOFTANG1
 40
1.570796326794896
  9
$LOFTANG2
 40
1.570796326794896
  9
$LOFTMAG1
 40
0.0
  9
$LOFTMAG2
 40
0.0
  9
$LOFTPARAM
 70
     7
  9
$LOFTNORMALS
280
     1
  9
$LATITUDE
 40
37.795
  9
$LONGITUDE
 40
-122.394
  9
$NORTHDIRECTION
 40
0.0
  9
$TIMEZONE
 70
 -8000
  9
$LIGHTGLYPHDISPLAY
280
     1
  9
$TILEMODELIGHTSYNCH
280
     1
  9
$CMATERIAL
347
11
  9
$SOLIDHIST
280
     0
  9
$SHOWHIST
280
     1
  9
$DWFFRAME
280
     2
  9
$DGNFRAME
280
     0
  9
$REALWORLDSCALE
290
     1
  9
$INTERFERECOLOR
 62
     1
  9
$INTERFEREOBJVS
345
33
  9
$INTERFEREVPVS
346
30
  9
$CSHADOW
280
     0
  9
$SHADOWPLANELOCATION
 40
0.0
  0
ENDSEC
  0
SECTION
  2
CLASSES
  0
CLASS
  1
ACDBDICTIONARYWDFLT
  2
AcDbDictionaryWithDefault
  3
ObjectDBX Classes
 90
        0
 91
        1
280
     0
281
     0
  0
CLASS
  1
MATERIAL
  2
AcDbMaterial
  3
ObjectDBX Classes
 90
     1153
 91
        3
280
     0
281
     0
  0
CLASS
  1
VISUALSTYLE
  2
AcDbVisualStyle
  3
ObjectDBX Classes
 90
     4095
 91
       24
280
     0
281
     0
  0
CLASS
  1
SCALE
  2
AcDbScale
  3
ObjectDBX Classes
 90
     1153
 91
       17
280
     0
281
     0
  0
CLASS
  1
TABLESTYLE
  2
AcDbTableStyle
  3
ObjectDBX Classes
 90
     4095
 91
        1
280
     0
281
     0
  0
CLASS
  1
MLEADERSTYLE
  2
AcDbMLeaderStyle
  3
ACDB_MLEADERSTYLE_CLASS
 90
     4095
 91
        1
280
     0
281
     0
  0
CLASS
  1
DICTIONARYVAR
  2
AcDbDictionaryVar
  3
ObjectDBX Classes
 90
        0
 91
        3
280
     0
281
     0
  0
CLASS
  1
CELLSTYLEMAP
  2
AcDbCellStyleMap
  3
ObjectDBX Classes
 90
     1152
 91
        1
280
     0
281
     0
  0
ENDSEC
  0
SECTION
  2
TABLES
  0
TABLE
  2
VPORT
  5
8
330
0
100
AcDbSymbolTable
 70
     1
  0
VPORT
  5
57
330
8
100
AcDbSymbolTableRecord
100
AcDbViewportTableRecord
  2
*Active
 70
     0
 10
0.0
 20
0.0
 11
1.0
 21
1.0
 12
20.92307692307692
 22
13.53846153846154
 13
0.0
 23
0.0
 14
1.0
 24
1.0
 15
0.0
 25
0.0
 16
0.0
 26
0.0
 36
1.0
 17
0.0
 27
0.0
 37
0.0
 40
27.07692307692308
 41
1.545454545454545
 42
50.0
 43
0.0
 44
0.0
 50
0.0
 51
0.0
 71
     0
 72
   100
 73
     1
 74
     1
 75
     0
 76
     0
 77
     0
 78
     0
281
     0
 65
     1
110
0.0
120
0.0
130
0.0
111
1.0
121
0.0
131
0.0
112
0.0
122
1.0
132
0.0
 79
     0
146
0.0
 60
     3
 61
     5
292
     1
282
     1
141
0.0
142
0.0
 63
   250
421
  3355443
  0
ENDTAB
  0
TABLE
  2
LTYPE
  5
5
330
0
100
AcDbSymbolTable
 70
    59
  0
LTYPE
  5
5B
330
5
100
AcDbSymbolTableRecord
100
AcDbLinetypeTableRecord
  2
ByBlock
 70
     0
  3

 72
    65
 73
     0
 40
0.0
  0
LTYPE
  5
5C
330
5
100
AcDbSymbolTableRecord
100
AcDbLinetypeTableRecord
  2
ByLayer
 70
     0
  3

 72
    65
 73
     0
 40
0.0
  0
LTYPE
  5
5D
330
5
100
AcDbSymbolTableRecord
100
AcDbLinetypeTableRecord
  2
Continuous
 70
     0
  3
Solid line
 72
    65
 73
     0
 40
0.0
  0
LTYPE
  5
7C
330
5
100
AcDbSymbolTableRecord
100
AcDbLinetypeTableRecord
  2
BY_STANDARD
 70
     0
  3
By Standard ____________    ____    ____   _
 72
    65
 73
     6
 40
1.240299999999999
 49
0.6614
 74
     0
 49
-0.0827
 74
     0
 49
0.1654
 74
     0
 49
-0.0827
 74
     0
 49
0.1654
 74
     0
 49
-0.0827
 74
     0
  0
LTYPE
  5
7D
330
5
100
AcDbSymbolTableRecord
100
AcDbLinetypeTableRecord
  2
CHAIN
 70
     0
  3
Chain ____ _ ____ _ ____ _ ____ _ ____ _ ____
 72
    65
 73
     4
 40
0.7087
 49
0.4724000000000001
 74
     0
 49
-0.0591
 74
     0
 49
0.1181
 74
     0
 49
-0.0591
 74
     0
  0
LTYPE
  5
7E
330
5
100
AcDbSymbolTableRecord
100
AcDbLinetypeTableRecord
  2
DASH_DOT
 70
     0
  3
Dash dot __ . __ . __ . __ . __ . __ . __ . __
 72
    65
 73
     4
 40
0.37
 49
0.24
 74
     0
 49
-0.06
 74
     0
 49
0.01
 74
     0
 49
-0.06
 74
     0
  0
LTYPE
  5
7F
330
5
100
AcDbSymbolTableRecord
100
AcDbLinetypeTableRecord
  2
DOUBLE_DASH_DOT
 70
     0
  3
Double-Dash Dot __ __ . __ __ . __ __ . __ _
 72
    65
 73
     6
 40
0.4398
 49
0.24
 74
     0
 49
-0.06
 74
     0
 49
0.0098
 74
     0
 49
-0.06
 74
     0
 49
0.01
 74
     0
 49
-0.06
 74
     0
  0
LTYPE
  5
80
330
5
100
AcDbSymbolTableRecord
100
AcDbLinetypeTableRecord
  2
DASH_TRIPLE_DOT
 70
     0
  3
Dash Triple-Dot _ . . . _ . . . _ . . . _
 72
    65
 73
     8
 40
0.51
 49
0.24
 74
     0
 49
-0.06
 74
     0
 49
0.01
 74
     0
 49
-0.06
 74
     0
 49
0.01
 74
     0
 49
-0.06
 74
     0
 49
0.01
 74
     0
 49
-0.06
 74
     0
  0
LTYPE
  5
81
330
5
100
AcDbSymbolTableRecord
100
AcDbLinetypeTableRecord
  2
DASHED
 70
     0
  3
Dashed __ __ __ __ __ __ __ __ __ __ __ __ __ _
 72
    65
 73
     2
 40
0.2067
 49
0.1654
 74
     0
 49
-0.0413
 74
     0
  0
LTYPE
  5
82
330
5
100
AcDbSymbolTableRecord
100
AcDbLinetypeTableRecord
  2
DASH_DOUBLE_DOT
 70
     0
  3
Dash Double-Dot __ . . __ . . __ . . __ . .
 72
    65
 73
     6
 40
0.4398
 49
0.24
 74
     0
 49
-0.06
 74
     0
 49
0.0098
 74
     0
 49
-0.06
 74
     0
 49
0.01
 74
     0
 49
-0.06
 74
     0
  0
LTYPE
  5
83
330
5
100
AcDbSymbolTableRecord
100
AcDbLinetypeTableRecord
  2
DASHED_SPACE
 70
     0
  3
Dashed Space __ __ __ __ __ __ __ __ __ __ __ _
 72
    65
 73
     2
 40
0.2067
 49
0.1654
 74
     0
 49
-0.0413
 74
     0
  0
LTYPE
  5
84
330
5
100
AcDbSymbolTableRecord
100
AcDbLinetypeTableRecord
  2
DOTTED
 70
     0
  3
Dotted . . . . . . . . . . . . . . . . . . . . 
 72
    65
 73
     2
 40
0.0482
 49
0.0069
 74
     0
 49
-0.0413
 74
     0
  0
LTYPE
  5
85
330
5
100
AcDbSymbolTableRecord
100
AcDbLinetypeTableRecord
  2
DOUBLE_DASH_CHAIN
 70
     0
  3
Double-Dash Chain ______  __  __  ______  __  _
 72
    65
 73
     6
 40
1.240299999999999
 49
0.6614
 74
     0
 49
-0.0827
 74
     0
 49
0.1654
 74
     0
 49
-0.0827
 74
     0
 49
0.1654
 74
     0
 49
-0.0827
 74
     0
  0
LTYPE
  5
87
330
5
100
AcDbSymbolTableRecord
100
AcDbLinetypeTableRecord
  2
DOUBLE_DASH_DOUBLE_DOT
 70
     0
  3
Double-Dash Double-dot _ _ . . _ _ . . _
 72
    65
 73
     8
 40
0.7400000000000001
 49
0.24
 74
     0
 49
-0.06
 74
     0
 49
0.24
 74
     0
 49
-0.06
 74
     0
 49
0.01
 74
     0
 49
-0.06
 74
     0
 49
0.01
 74
     0
 49
-0.06
 74
     0
  0
LTYPE
  5
88
330
5
100
AcDbSymbolTableRecord
100
AcDbLinetypeTableRecord
  2
DOUBLE_DASH_TRIPLE_DOT
 70
     0
  3
Double Dash Triple Dot __ __ . . . __ __ . .
 72
    65
 73
    10
 40
0.8100000000000001
 49
0.24
 74
     0
 49
-0.06
 74
     0
 49
0.24
 74
     0
 49
-0.06
 74
     0
 49
0.01
 74
     0
 49
-0.06
 74
     0
 49
0.01
 74
     0
 49
-0.06
 74
     0
 49
0.01
 74
     0
 49
-0.06
 74
     0
  0
LTYPE
  5
89
330
5
100
AcDbSymbolTableRecord
100
AcDbLinetypeTableRecord
  2
LONG_DASH_DOTTED
 70
     0
  3
Long Dash Dotted ____ . ____ . ____ . ____ . _
 72
    65
 73
     4
 40
0.3543
 49
0.2362
 74
     0
 49
-0.0295
 74
     0
 49
0.0591
 74
     0
 49
-0.0295
 74
     0
  0
LTYPE
  5
8A
330
5
100
AcDbSymbolTableRecord
100
AcDbLinetypeTableRecord
  2
LONG_DASH_DOUBLE_DOT
 70
     0
  3
Long Dash Double Dot ________  .  .  ________  
 72
    65
 73
     6
 40
0.6799999999999999
 49
0.48
 74
     0
 49
-0.06
 74
     0
 49
0.01
 74
     0
 49
-0.06
 74
     0
 49
0.01
 74
     0
 49
-0.06
 74
     0
  0
LTYPE
  5
8B
330
5
100
AcDbSymbolTableRecord
100
AcDbLinetypeTableRecord
  2
LONG_DASH_TRIPLE_DOT
 70
     0
  3
Long Dash Triple Dot ____ ... ____ ... ____
 72
    65
 73
     8
 40
0.3689
 49
0.2362
 74
     0
 49
-0.0295
 74
     0
 49
0.0049
 74
     0
 49
-0.0295
 74
     0
 49
0.0049
 74
     0
 49
-0.0295
 74
     0
 49
0.0049
 74
     0
 49
-0.0295
 74
     0
  0
LTYPE
  5
8C
330
5
100
AcDbSymbolTableRecord
100
AcDbLinetypeTableRecord
  2
BORDER
 70
     0
  3
Border __ __ . __ __ . __ __ . __ __ . __ __ .
 72
    65
 73
     6
 40
1.75
 49
0.5
 74
     0
 49
-0.25
 74
     0
 49
0.5
 74
     0
 49
-0.25
 74
     0
 49
0.0
 74
     0
 49
-0.25
 74
     0
  0
LTYPE
  5
8D
330
5
100
AcDbSymbolTableRecord
100
AcDbLinetypeTableRecord
  2
BORDER2
 70
     0
  3
Border (.5x) __.__.__.__.__.__.__.__.__.__.__.
 72
    65
 73
     6
 40
0.875
 49
0.25
 74
     0
 49
-0.125
 74
     0
 49
0.25
 74
     0
 49
-0.125
 74
     0
 49
0.0
 74
     0
 49
-0.125
 74
     0
  0
LTYPE
  5
8E
330
5
100
AcDbSymbolTableRecord
100
AcDbLinetypeTableRecord
  2
BORDERX2
 70
     0
  3
Border (2x) ____  ____  .  ____  ____  .  ___
 72
    65
 73
     6
 40
3.5
 49
1.0
 74
     0
 49
-0.5
 74
     0
 49
1.0
 74
     0
 49
-0.5
 74
     0
 49
0.0
 74
     0
 49
-0.5
 74
     0
  0
LTYPE
  5
8F
330
5
100
AcDbSymbolTableRecord
100
AcDbLinetypeTableRecord
  2
CENTER
 70
     0
  3
Center ____ _ ____ _ ____ _ ____ _ ____ _ ____
 72
    65
 73
     4
 40
2.0
 49
1.25
 74
     0
 49
-0.25
 74
     0
 49
0.25
 74
     0
 49
-0.25
 74
     0
  0
LTYPE
  5
90
330
5
100
AcDbSymbolTableRecord
100
AcDbLinetypeTableRecord
  2
CENTER2
 70
     0
  3
Center (.5x) ___ _ ___ _ ___ _ ___ _ ___ _ ___
 72
    65
 73
     4
 40
1.125
 49
0.75
 74
     0
 49
-0.125
 74
     0
 49
0.125
 74
     0
 49
-0.125
 74
     0
  0
LTYPE
  5
91
330
5
100
AcDbSymbolTableRecord
100
AcDbLinetypeTableRecord
  2
CENTERX2
 70
     0
  3
Center (2x) ________  __  ________  __  _____
 72
    65
 73
     4
 40
4.0
 49
2.5
 74
     0
 49
-0.5
 74
     0
 49
0.5
 74
     0
 49
-0.5
 74
     0
  0
LTYPE
  5
92
330
5
100
AcDbSymbolTableRecord
100
AcDbLinetypeTableRecord
  2
DASHDOT2
 70
     0
  3
Dash dot (.5x) _._._._._._._._._._._._._._._.
 72
    65
 73
     4
 40
0.5
 49
0.25
 74
     0
 49
-0.125
 74
     0
 49
0.0
 74
     0
 49
-0.125
 74
     0
  0
LTYPE
  5
93
330
5
100
AcDbSymbolTableRecord
100
AcDbLinetypeTableRecord
  2
DASHDOTX2
 70
     0
  3
Dash dot (2x) ____  .  ____  .  ____  .  ___
 72
    65
 73
     4
 40
2.0
 49
1.0
 74
     0
 49
-0.5
 74
     0
 49
0.0
 74
     0
 49
-0.5
 74
     0
  0
LTYPE
  5
95
330
5
100
AcDbSymbolTableRecord
100
AcDbLinetypeTableRecord
  2
DASHED2
 70
     0
  3
Dashed (.5x) _ _ _ _ _ _ _ _ _ _ _ _ _ _ _ _ _
 72
    65
 73
     2
 40
0.375
 49
0.25
 74
     0
 49
-0.125
 74
     0
  0
LTYPE
  5
96
330
5
100
AcDbSymbolTableRecord
100
AcDbLinetypeTableRecord
  2
DASHEDX2
 70
     0
  3
Dashed (2x) ____  ____  ____  ____  ____  ___
 72
    65
 73
     2
 40
1.5
 49
1.0
 74
     0
 49
-0.5
 74
     0
  0
LTYPE
  5
97
330
5
100
AcDbSymbolTableRecord
100
AcDbLinetypeTableRecord
  2
DIVIDE
 70
     0
  3
Divide ____ . . ____ . . ____ . . ____ . . ____
 72
    65
 73
     6
 40
1.25
 49
0.5
 74
     0
 49
-0.25
 74
     0
 49
0.0
 74
     0
 49
-0.25
 74
     0
 49
0.0
 74
     0
 49
-0.25
 74
     0
  0
LTYPE
  5
98
330
5
100
AcDbSymbolTableRecord
100
AcDbLinetypeTableRecord
  2
DIVIDE2
 70
     0
  3
Divide (.5x) __..__..__..__..__..__..__..__.._
 72
    65
 73
     6
 40
0.625
 49
0.25
 74
     0
 49
-0.125
 74
     0
 49
0.0
 74
     0
 49
-0.125
 74
     0
 49
0.0
 74
     0
 49
-0.125
 74
     0
  0
LTYPE
  5
99
330
5
100
AcDbSymbolTableRecord
100
AcDbLinetypeTableRecord
  2
DIVIDEX2
 70
     0
  3
Divide (2x) ________  .  .  ________  .  .  _
 72
    65
 73
     6
 40
2.5
 49
1.0
 74
     0
 49
-0.5
 74
     0
 49
0.0
 74
     0
 49
-0.5
 74
     0
 49
0.0
 74
     0
 49
-0.5
 74
     0
  0
LTYPE
  5
9A
330
5
100
AcDbSymbolTableRecord
100
AcDbLinetypeTableRecord
  2
DOT
 70
     0
  3
Dot . . . . . . . . . . . . . . . . . . . . . .
 72
    65
 73
     2
 40
0.25
 49
0.0
 74
     0
 49
-0.25
 74
     0
  0
LTYPE
  5
9B
330
5
100
AcDbSymbolTableRecord
100
AcDbLinetypeTableRecord
  2
DOT2
 70
     0
  3
Dot (.5x) .....................................
 72
    65
 73
     2
 40
0.125
 49
0.0
 74
     0
 49
-0.125
 74
     0
  0
LTYPE
  5
9C
330
5
100
AcDbSymbolTableRecord
100
AcDbLinetypeTableRecord
  2
DOTX2
 70
     0
  3
Dot (2x) .  .  .  .  .  .  .  .  .  .  .  .  . 
 72
    65
 73
     2
 40
0.5
 49
0.0
 74
     0
 49
-0.5
 74
     0
  0
LTYPE
  5
9D
330
5
100
AcDbSymbolTableRecord
100
AcDbLinetypeTableRecord
  2
HIDDEN
 70
     0
  3
Hidden __ __ __ __ __ __ __ __ __ __ __ __ __ _
 72
    65
 73
     2
 40
0.375
 49
0.25
 74
     0
 49
-0.125
 74
     0
  0
LTYPE
  5
9E
330
5
100
AcDbSymbolTableRecord
100
AcDbLinetypeTableRecord
  2
HIDDEN2
 70
     0
  3
Hidden (.5x) _ _ _ _ _ _ _ _ _ _ _ _ _ _ _ _ _
 72
    65
 73
     2
 40
0.1875
 49
0.125
 74
     0
 49
-0.0625
 74
     0
  0
LTYPE
  5
9F
330
5
100
AcDbSymbolTableRecord
100
AcDbLinetypeTableRecord
  2
HIDDENX2
 70
     0
  3
Hidden (2x) ____ ____ ____ ____ ____ ____ ____
 72
    65
 73
     2
 40
0.75
 49
0.5
 74
     0
 49
-0.25
 74
     0
  0
LTYPE
  5
A0
330
5
100
AcDbSymbolTableRecord
100
AcDbLinetypeTableRecord
  2
PHANTOM
 70
     0
  3
Phantom ______  __  __  ______  __  __  ______
 72
    65
 73
     6
 40
2.5
 49
1.25
 74
     0
 49
-0.25
 74
     0
 49
0.25
 74
     0
 49
-0.25
 74
     0
 49
0.25
 74
     0
 49
-0.25
 74
     0
  0
LTYPE
  5
A1
330
5
100
AcDbSymbolTableRecord
100
AcDbLinetypeTableRecord
  2
PHANTOM2
 70
     0
  3
Phantom (.5x) ___ _ _ ___ _ _ ___ _ _ ___ _ _
 72
    65
 73
     6
 40
1.25
 49
0.625
 74
     0
 49
-0.125
 74
     0
 49
0.125
 74
     0
 49
-0.125
 74
     0
 49
0.125
 74
     0
 49
-0.125
 74
     0
  0
LTYPE
  5
A2
330
5
100
AcDbSymbolTableRecord
100
AcDbLinetypeTableRecord
  2
PHANTOMX2
 70
     0
  3
Phantom (2x) ____________    ____    ____   _
 72
    65
 73
     6
 40
5.0
 49
2.5
 74
     0
 49
-0.5
 74
     0
 49
0.5
 74
     0
 49
-0.5
 74
     0
 49
0.5
 74
     0
 49
-0.5
 74
     0
  0
LTYPE
  5
A3
330
5
100
AcDbSymbolTableRecord
100
AcDbLinetypeTableRecord
  2
ACAD_ISO02W100
 70
     0
  3
ISO dash __ __ __ __ __ __ __ __ __ __ __ __ __
 72
    65
 73
     2
 40
0.59
 49
0.47
 74
     0
 49
-0.12
 74
     0
  0
LTYPE
  5
A4
330
5
100
AcDbSymbolTableRecord
100
AcDbLinetypeTableRecord
  2
ACAD_ISO03W100
 70
     0
  3
ISO dash space __    __    __    __    __    __
 72
    65
 73
     2
 40
1.179999999999999
 49
0.47
 74
     0
 49
-0.71
 74
     0
  0
LTYPE
  5
A5
330
5
100
AcDbSymbolTableRecord
100
AcDbLinetypeTableRecord
  2
ACAD_ISO04W100
 70
     0
  3
ISO long-dash dot ____ . ____ . ____ . ____ . _
 72
    65
 73
     4
 40
1.179999999999999
 49
0.9399999999999998
 74
     0
 49
-0.12
 74
     0
 49
0.0
 74
     0
 49
-0.12
 74
     0
  0
LTYPE
  5
A6
330
5
100
AcDbSymbolTableRecord
100
AcDbLinetypeTableRecord
  2
ACAD_ISO05W100
 70
     0
  3
ISO long-dash double-dot ____ .. ____ .. ____ .
 72
    65
 73
     6
 40
1.299999999999999
 49
0.9399999999999998
 74
     0
 49
-0.12
 74
     0
 49
0.0
 74
     0
 49
-0.12
 74
     0
 49
0.0
 74
     0
 49
-0.12
 74
     0
  0
LTYPE
  5
A7
330
5
100
AcDbSymbolTableRecord
100
AcDbLinetypeTableRecord
  2
ACAD_ISO06W100
 70
     0
  3
ISO long-dash triple-dot ____ ... ____ ... ____
 72
    65
 73
     8
 40
1.419999999999999
 49
0.9399999999999998
 74
     0
 49
-0.12
 74
     0
 49
0.0
 74
     0
 49
-0.12
 74
     0
 49
0.0
 74
     0
 49
-0.12
 74
     0
 49
0.0
 74
     0
 49
-0.12
 74
     0
  0
LTYPE
  5
A8
330
5
100
AcDbSymbolTableRecord
100
AcDbLinetypeTableRecord
  2
ACAD_ISO07W100
 70
     0
  3
ISO dot . . . . . . . . . . . . . . . . . . . .
 72
    65
 73
     2
 40
0.12
 49
0.0
 74
     0
 49
-0.12
 74
     0
  0
LTYPE
  5
A9
330
5
100
AcDbSymbolTableRecord
100
AcDbLinetypeTableRecord
  2
ACAD_ISO08W100
 70
     0
  3
ISO long-dash short-dash ____ __ ____ __ ____ _
 72
    65
 73
     4
 40
0.95
 49
0.47
 74
     0
 49
-0.12
 74
     0
 49
0.24
 74
     0
 49
-0.12
 74
     0
  0
LTYPE
  5
AA
330
5
100
AcDbSymbolTableRecord
100
AcDbLinetypeTableRecord
  2
ACAD_ISO09W100
 70
     0
  3
ISO long-dash double-short-dash ____ __ __ ____
 72
    65
 73
     6
 40
1.31
 49
0.47
 74
     0
 49
-0.12
 74
     0
 49
0.24
 74
     0
 49
-0.12
 74
     0
 49
0.24
 74
     0
 49
-0.12
 74
     0
  0
LTYPE
  5
AB
330
5
100
AcDbSymbolTableRecord
100
AcDbLinetypeTableRecord
  2
ACAD_ISO10W100
 70
     0
  3
ISO dash dot __ . __ . __ . __ . __ . __ . __ .
 72
    65
 73
     4
 40
0.71
 49
0.47
 74
     0
 49
-0.12
 74
     0
 49
0.0
 74
     0
 49
-0.12
 74
     0
  0
LTYPE
  5
AC
330
5
100
AcDbSymbolTableRecord
100
AcDbLinetypeTableRecord
  2
ACAD_ISO11W100
 70
     0
  3
ISO double-dash dot __ __ . __ __ . __ __ . __ 
 72
    65
 73
     6
 40
1.299999999999999
 49
0.47
 74
     0
 49
-0.12
 74
     0
 49
0.47
 74
     0
 49
-0.12
 74
     0
 49
0.0
 74
     0
 49
-0.12
 74
     0
  0
LTYPE
  5
AD
330
5
100
AcDbSymbolTableRecord
100
AcDbLinetypeTableRecord
  2
ACAD_ISO12W100
 70
     0
  3
ISO dash double-dot __ . . __ . . __ . . __ . .
 72
    65
 73
     6
 40
0.8299999999999998
 49
0.47
 74
     0
 49
-0.12
 74
     0
 49
0.0
 74
     0
 49
-0.12
 74
     0
 49
0.0
 74
     0
 49
-0.12
 74
     0
  0
LTYPE
  5
AE
330
5
100
AcDbSymbolTableRecord
100
AcDbLinetypeTableRecord
  2
ACAD_ISO13W100
 70
     0
  3
ISO double-dash double-dot __ __ . . __ __ . . 
 72
    65
 73
     8
 40
1.419999999999999
 49
0.47
 74
     0
 49
-0.12
 74
     0
 49
0.47
 74
     0
 49
-0.12
 74
     0
 49
0.0
 74
     0
 49
-0.12
 74
     0
 49
0.0
 74
     0
 49
-0.12
 74
     0
  0
LTYPE
  5
AF
330
5
100
AcDbSymbolTableRecord
100
AcDbLinetypeTableRecord
  2
ACAD_ISO14W100
 70
     0
  3
ISO dash triple-dot __ . . . __ . . . __ . . . 
 72
    65
 73
     8
 40
0.95
 49
0.47
 74
     0
 49
-0.12
 74
     0
 49
0.0
 74
     0
 49
-0.12
 74
     0
 49
0.0
 74
     0
 49
-0.12
 74
     0
 49
0.0
 74
     0
 49
-0.12
 74
     0
  0
LTYPE
  5
B0
330
5
100
AcDbSymbolTableRecord
100
AcDbLinetypeTableRecord
  2
ACAD_ISO15W100
 70
     0
  3
ISO double-dash triple-dot __ __ . . . __ __ . 
 72
    65
 73
    10
 40
1.539999999999999
 49
0.47
 74
     0
 49
-0.12
 74
     0
 49
0.47
 74
     0
 49
-0.12
 74
     0
 49
0.0
 74
     0
 49
-0.12
 74
     0
 49
0.0
 74
     0
 49
-0.12
 74
     0
 49
0.0
 74
     0
 49
-0.12
 74
     0
  0
LTYPE
  5
B3
330
5
100
AcDbSymbolTableRecord
100
AcDbLinetypeTableRecord
  2
FENCELINE1
 70
     0
  3
Fenceline circle ----0-----0----0-----0----0---
 72
    65
 73
     4
 40
1.45
 49
0.25
 74
     0
 49
-0.1
 74
     4
 75
   133
340
B2
 46
0.1
 50
0.0
 44
-0.1
 45
0.0
 49
-0.1
 74
     0
 49
1.0
 74
     0
  0
LTYPE
  5
B4
330
5
100
AcDbSymbolTableRecord
100
AcDbLinetypeTableRecord
  2
FENCELINE2
 70
     0
  3
Fenceline square ----[]-----[]----[]-----[]----
 72
    65
 73
     4
 40
1.45
 49
0.25
 74
     0
 49
-0.1
 74
     4
 75
   132
340
B2
 46
0.1
 50
0.0
 44
-0.1
 45
0.0
 49
-0.1
 74
     0
 49
1.0
 74
     0
  0
LTYPE
  5
B5
330
5
100
AcDbSymbolTableRecord
100
AcDbLinetypeTableRecord
  2
TRACKS
 70
     0
  3
Tracks -|-|-|-|-|-|-|-|-|-|-|-|-|-|-|-|-|-|-|-|
 72
    65
 73
     2
 40
0.3
 49
0.15
 74
     4
 75
   130
340
B2
 46
0.25
 50
0.0
 44
0.0
 45
0.0
 49
0.15
 74
     0
  0
LTYPE
  5
B6
330
5
100
AcDbSymbolTableRecord
100
AcDbLinetypeTableRecord
  2
BATTING
 70
     0
  3
Batting SSSSSSSSSSSSSSSSSSSSSSSSSSSSSSSSSSSSSSS
 72
    65
 73
     4
 40
0.4001000000000001
 49
0.0001
 74
     0
 49
-0.1
 74
     4
 75
   134
340
B2
 46
0.1
 50
0.0
 44
-0.1
 45
0.0
 49
-0.2
 74
     4
 75
   134
340
B2
 46
0.1
 50
180.0
 44
0.1
 45
0.0
 49
-0.1
 74
     0
  0
LTYPE
  5
B7
330
5
100
AcDbSymbolTableRecord
100
AcDbLinetypeTableRecord
  2
HOT_WATER_SUPPLY
 70
     0
  3
Hot water supply ---- HW ---- HW ---- HW ----
 72
    65
 73
     3
 40
0.9
 49
0.5
 74
     0
 49
-0.2
 74
     2
 75
     0
340
55
 46
0.1
 50
0.0
 44
-0.1
 45
-0.05
  9
HW
 49
-0.2
 74
     0
  0
LTYPE
  5
B8
330
5
100
AcDbSymbolTableRecord
100
AcDbLinetypeTableRecord
  2
GAS_LINE
 70
     0
  3
Gas line ----GAS----GAS----GAS----GAS----GAS---
 72
    65
 73
     3
 40
0.95
 49
0.5
 74
     0
 49
-0.2
 74
     2
 75
     0
340
55
 46
0.1
 50
0.0
 44
-0.1
 45
-0.05
  9
GAS
 49
-0.25
 74
     0
  0
LTYPE
  5
B9
330
5
100
AcDbSymbolTableRecord
100
AcDbLinetypeTableRecord
  2
ZIGZAG
 70
     0
  3
Zig zag /\/\/\/\/\/\/\/\/\/\/\/\/\/\/\/\/\/\/\/
 72
    65
 73
     4
 40
0.8001000000000001
 49
0.0001
 74
     0
 49
-0.2
 74
     4
 75
   131
340
B2
 46
0.2
 50
0.0
 44
-0.2
 45
0.0
 49
-0.4
 74
     4
 75
   131
340
B2
 46
0.2
 50
180.0
 44
0.2
 45
0.0
 49
-0.2
 74
     0
  0
ENDTAB
  0
TABLE
  2
LAYER
  5
2
330
0
100
AcDbSymbolTable
 70
    27
  0
LAYER
  5
54
330
2
100
AcDbSymbolTableRecord
100
AcDbLayerTableRecord
  2
0
 70
     0
 62
     7
  6
Continuous
370
     0
390
F
347
21
  0
LAYER
  5
C1
330
2
100
AcDbSymbolTableRecord
100
AcDbLayerTableRecord
  2
Centerline (ANSI)
 70
     0
 62
     7
  6
Continuous
370
     5
390
F
347
21
  0
LAYER
  5
C3
330
2
100
AcDbSymbolTableRecord
100
AcDbLayerTableRecord
  2
Dimension (ANSI)
 70
     0
 62
     7
  6
Continuous
370
     5
390
F
347
21
  0
LAYER
  5
CC
330
2
100
AcDbSymbolTableRecord
100
AcDbLayerTableRecord
  2
Symbol (ANSI)
 70
     0
 62
     7
  6
Continuous
370
     5
390
F
347
21
  0
LAYER
  5
CF
330
2
100
AcDbSymbolTableRecord
100
AcDbLayerTableRecord
  2
Visible (ANSI)
 70
     0
 62
     7
  6
Continuous
370
     5
390
F
347
21
  0
LAYER
  5
D0
330
2
100
AcDbSymbolTableRecord
100
AcDbLayerTableRecord
  2
Visible Narrow (ANSI)
 70
     0
 62
     7
  6
Continuous
370
     5
390
F
347
21
  0
LAYER
  5
2CB
330
2
100
AcDbSymbolTableRecord
100
AcDbLayerTableRecord
  2
Defpoints
 70
     0
 62
     7
  6
Continuous
290
     0
370
    -3
390
F
347
21
  0
ENDTAB
  0
TABLE
  2
STYLE
  5
3
330
0
100
AcDbSymbolTable
 70
    10
  0
STYLE
  5
55
330
3
100
AcDbSymbolTableRecord
100
AcDbTextStyleTableRecord
  2
Standard
 70
     0
 40
0.0
 41
1.0
 50
0.0
 71
     0
 42
0.2
  3
txt
  4

  0
STYLE
  5
5A
330
3
100
AcDbSymbolTableRecord
100
AcDbTextStyleTableRecord
  2
Annotative
 70
     0
 40
0.0
 41
1.0
 50
0.0
 71
     0
 42
0.2
  3
txt
  4

1001
AcadAnnotative
1000
AnnotativeData
1002
{
1070
     1
1070
     1
1002
}
  0
STYLE
  5
B2
330
3
100
AcDbSymbolTableRecord
100
AcDbTextStyleTableRecord
  2

 70
     1
 40
0.0
 41
1.0
 50
0.0
 71
     0
 42
0.2
  3
ltypeshp.shx
  4

  0
STYLE
  5
D4
330
3
100
AcDbSymbolTableRecord
100
AcDbTextStyleTableRecord
  2
ITALICC_120
 70
     0
 40
0.0
 41
1.0
 50
0.0
 71
     0
 42
0.2
  3
italicc.shx
  4

  0
STYLE
  5
D5
330
3
100
AcDbSymbolTableRecord
100
AcDbTextStyleTableRecord
  2
Label Text (ANSI)
 70
     0
 40
0.0
 41
1.0
 50
0.0
 71
     0
 42
0.2
  3
tahoma.ttf
  4

1001
ACAD
1000
Tahoma
1071
      256
  0
STYLE
  5
D6
330
3
100
AcDbSymbolTableRecord
100
AcDbTextStyleTableRecord
  2
Note Text (ANSI)
 70
     0
 40
0.0
 41
1.0
 50
0.0
 71
     0
 42
0.2
  3
RomanS.shx
  4

  0
STYLE
  5
D7
330
3
100
AcDbSymbolTableRecord
100
AcDbTextStyleTableRecord
  2
ROMANS
 70
     0
 40
0.0
 41
1.0
 50
0.0
 71
     0
 42
0.2
  3
romans.shx
  4

  0
STYLE
  5
D8
330
3
100
AcDbSymbolTableRecord
100
AcDbTextStyleTableRecord
  2
SANSSERIF_114
 70
     0
 40
0.0
 41
1.0
 50
0.0
 71
     0
 42
0.2
  3
tahoma.ttf
  4

1001
ACAD
1000
Tahoma
1071
      256
  0
STYLE
  5
D9
330
3
100
AcDbSymbolTableRecord
100
AcDbTextStyleTableRecord
  2
SANSSERIF_117
 70
     0
 40
0.0
 41
1.0
 50
0.0
 71
     0
 42
0.2
  3
tahoma.ttf
  4

1001
ACAD
1000
Tahoma
1071
      256
  0
STYLE
  5
168
330
3
100
AcDbSymbolTableRecord
100
AcDbTextStyleTableRecord
  2
Text Style168
 70
     0
 40
0.0
 41
1.0
 50
0.0
 71
     0
 42
0.2
  3
tahoma.ttf
  4

1001
ACAD
1000
Tahoma
1071
      256
  0
ENDTAB
  0
TABLE
  2
VIEW
  5
6
330
0
100
AcDbSymbolTable
 70
     0
  0
ENDTAB
  0
TABLE
  2
UCS
  5
7
330
0
100
AcDbSymbolTable
 70
     0
  0
ENDTAB
  0
TABLE
  2
APPID
  5
9
330
0
100
AcDbSymbolTable
 70
     3
  0
APPID
  5
56
330
9
100
AcDbSymbolTableRecord
100
AcDbRegAppTableRecord
  2
ACAD
 70
     0
  0
APPID
  5
5E
330
9
100
AcDbSymbolTableRecord
100
AcDbRegAppTableRecord
  2
AcadAnnotative
 70
     0
  0
APPID
  5
91E
330
9
100
AcDbSymbolTableRecord
100
AcDbRegAppTableRecord
  2
ACAD_DSTYLE_DIMANGULAR_EXTENSION
 70
     0
  0
ENDTAB
  0
TABLE
  2
DIMSTYLE
  5
A
330
0
100
AcDbSymbolTable
 70
    15
100
AcDbDimStyleTable
 71
     2
340
E2
340
58
  0
DIMSTYLE
105
58
330
A
100
AcDbSymbolTableRecord
100
AcDbDimStyleTableRecord
  2
Standard
 70
     0
340
55
  0
DIMSTYLE
105
59
330
A
100
AcDbSymbolTableRecord
100
AcDbDimStyleTableRecord
  2
Annotative
 70
     0
340
55
1001
AcadAnnotative
1000
AnnotativeData
1002
{
1070
     1
1070
     1
1002
}
  0
DIMSTYLE
105
DA
330
A
100
AcDbSymbolTableRecord
100
AcDbDimStyleTableRecord
  2
Architectural (ANSI)
 70
     0
 40
2.461538461538461
 41
0.0984251946210861
 43
0.2362204724409449
 44
0.125
 45
0.00000001
 46
0.3937007874015748
 78
     3
 79
     3
140
0.1000000014901161
146
1.200000047683715
147
0.031496062992126
171
     1
176
   256
177
   256
178
   256
272
     2
274
     1
276
     2
277
     4
284
    12
285
     4
286
    12
340
D6
371
    -1
372
    -1
  0
DIMSTYLE
105
DB
330
A
100
AcDbSymbolTableRecord
100
AcDbDimStyleTableRecord
  2
Architectural (ANSI)$7
 70
     0
 40
2.461538461538461
 41
0.0984251946210861
 43
0.2362204724409449
 44
0.125
 45
0.00000001
 46
0.3937007874015748
 78
     3
 79
     3
140
0.1000000014901161
146
1.200000047683715
147
0.031496062992126
171
     1
176
   256
177
   256
178
   256
272
     2
274
     1
276
     2
277
     4
284
    12
285
     4
286
    12
340
D6
371
    -1
372
    -1
  0
DIMSTYLE
105
DC
330
A
100
AcDbSymbolTableRecord
100
AcDbDimStyleTableRecord
  2
Default - Fraction (ANSI)
 70
     0
 40
2.461538461538461
 41
0.0984251946210861
 43
0.2362204724409449
 44
0.125
 45
0.00000001
 46
0.3937007874015748
 79
     3
140
0.1000000014901161
146
1.200000047683715
147
0.031496062992126
171
     1
176
   256
177
   256
178
   256
272
     2
274
     1
276
     2
277
     5
284
    12
285
     4
286
    12
340
D6
371
    -1
372
    -1
  0
DIMSTYLE
105
DD
330
A
100
AcDbSymbolTableRecord
100
AcDbDimStyleTableRecord
  2
Default - Fraction (ANSI)$7
 70
     0
 40
2.461538461538461
 41
0.0984251946210861
 43
0.2362204724409449
 44
0.125
 45
0.00000001
 46
0.3937007874015748
 79
     3
140
0.1000000014901161
146
1.200000047683715
147
0.031496062992126
171
     1
176
   256
177
   256
178
   256
272
     2
274
     1
276
     2
277
     5
284
    12
285
     4
286
    12
340
D6
371
    -1
372
    -1
  0
DIMSTYLE
105
DE
330
A
100
AcDbSymbolTableRecord
100
AcDbDimStyleTableRecord
  2
Default - mm (ANSI)
 70
     0
 40
2.461538461538461
 41
0.0984251946210861
 42
0.063
 43
0.2362204724409449
 44
0.125
 45
0.00000001
 46
0.3937007874015748
 73
     0
 78
     4
 79
     1
140
0.1000000014901161
143
1.0
144
25.4
146
1.200000047683715
147
0.031496062992126
171
     1
176
   256
177
   256
178
   256
179
     1
271
     2
272
     2
274
     1
284
     4
285
     4
340
D6
371
    -1
372
    -1
  0
DIMSTYLE
105
DF
330
A
100
AcDbSymbolTableRecord
100
AcDbDimStyleTableRecord
  2
Default - mm (ANSI)$7
 70
     0
 40
2.461538461538461
 41
0.0984251946210861
 42
0.063
 43
0.2362204724409449
 44
0.125
 45
0.00000001
 46
0.3937007874015748
 73
     0
 78
     4
 79
     1
140
0.1000000014901161
143
1.0
144
25.4
146
1.200000047683715
147
0.031496062992126
171
     1
176
   256
177
   256
178
   256
179
     1
271
     2
272
     2
274
     1
284
     4
285
     4
340
D6
371
    -1
372
    -1
  0
DIMSTYLE
105
E0
330
A
100
AcDbSymbolTableRecord
100
AcDbDimStyleTableRecord
  2
Default - mm [in] (ANSI)
 70
     0
  4
 in
 40
2.461538461538461
 41
0.0984251946210861
 42
0.063
 43
0.25
 44
0.125
 45
0.00000001
 46
0.3937007874015748
 73
     0
 78
     4
 79
     1
140
0.1000000014901161
143
0.03937
144
25.4
146
1.200000047683715
147
0.031496062992126
170
     1
171
     3
176
   256
177
   256
178
   256
179
     1
271
     2
272
     2
274
     3
284
     4
285
     4
286
     4
340
D6
371
    -1
372
    -1
  0
DIMSTYLE
105
E1
330
A
100
AcDbSymbolTableRecord
100
AcDbDimStyleTableRecord
  2
Default - mm [in] (ANSI)$7
 70
     0
  4
 in
 40
2.461538461538461
 41
0.0984251946210861
 42
0.063
 43
0.25
 44
0.125
 45
0.00000001
 46
0.3937007874015748
 73
     0
 78
     4
 79
     1
140
0.1000000014901161
143
0.03937
144
25.4
146
1.200000047683715
147
0.031496062992126
170
     1
171
     3
176
   256
177
   256
178
   256
179
     1
271
     2
272
     2
274
     3
284
     4
285
     4
286
     4
340
D6
371
    -1
372
    -1
  0
DIMSTYLE
105
E2
102
{ACAD_REACTORS
330
2C9
330
3B5
330
4A1
330
58B
330
6AE
330
798
330
8A0
330
9D7
330
AC1
330
BAB
330
C9F
330
D93
330
E87
330
F7B
330
109C
330
119A
330
1293
330
138C
102
}
330
A
100
AcDbSymbolTableRecord
100
AcDbDimStyleTableRecord
  2
Default (ANSI)
 70
     0
 40
2.461538461538461
 41
0.0984251946210861
 43
0.2362204724409449
 44
0.125
 45
0.00000001
 46
0.3937007874015748
140
0.1000000014901161
147
0.031496062992126
176
   256
177
   256
178
   256
271
     2
272
     2
340
D7
371
    -1
372
    -1
  0
DIMSTYLE
105
E3
330
A
100
AcDbSymbolTableRecord
100
AcDbDimStyleTableRecord
  2
Default (ANSI)$7
 70
     0
 40
2.461538461538461
 41
0.0984251946210861
 43
0.2362204724409449
 44
0.125
 45
0.00000001
 46
0.3937007874015748
140
0.1000000014901161
147
0.031496062992126
176
   256
177
   256
178
   256
271
     2
272
     2
340
D7
371
    -1
372
    -1
  0
DIMSTYLE
105
E4
330
A
100
AcDbSymbolTableRecord
100
AcDbDimStyleTableRecord
  2
Alternate (ANSI)
 70
     0
 40
2.461538461538461
 41
0.0979999974370003
340
55
342
E5
  0
DIMSTYLE
105
F7
330
A
100
AcDbSymbolTableRecord
100
AcDbDimStyleTableRecord
  2
Datum (ANSI)
 70
     0
 40
2.461538461538461
 41
0.0979999974370003
340
55
342
E5
  0
DIMSTYLE
105
106
330
A
100
AcDbSymbolTableRecord
100
AcDbDimStyleTableRecord
  2
Large (ANSI)
 70
     0
 40
2.461538461538461
 41
0.1959999948740005
340
55
342
E5
  0
ENDTAB
  0
TABLE
  2
BLOCK_RECORD
  5
1
330
0
100
AcDbSymbolTable
 70
    22
  0
BLOCK_RECORD
  5
6C
330
1
100
AcDbSymbolTableRecord
100
AcDbBlockTableRecord
  2
*Model_Space
340
6F
 70
     0
280
     1
281
     0
  0
BLOCK_RECORD
  5
68
330
1
100
AcDbSymbolTableRecord
100
AcDbBlockTableRecord
  2
*Paper_Space
340
6B
 70
     0
280
     1
281
     0
  0
BLOCK_RECORD
  5
70
330
1
100
AcDbSymbolTableRecord
100
AcDbBlockTableRecord
  2
*Paper_Space0
340
73
 70
     0
280
     1
281
     0
  0
BLOCK_RECORD
  5
E5
330
1
100
AcDbSymbolTableRecord
100
AcDbBlockTableRecord
  2
_Closed
340
0
 70
     0
280
     1
281
     0
  0
BLOCK_RECORD
  5
EC
330
1
100
AcDbSymbolTableRecord
100
AcDbBlockTableRecord
  2
DatumFilled45
340
0
 70
     0
280
     1
281
     0
  0
BLOCK_RECORD
  5
F8
330
1
100
AcDbSymbolTableRecord
100
AcDbBlockTableRecord
  2
Filled-1
340
0
 70
     0
280
     1
281
     0
  0
BLOCK_RECORD
  5
2CC
330
1
100
AcDbSymbolTableRecord
100
AcDbBlockTableRecord
  2
*D4
340
0
 70
     0
280
     1
281
     0
  0
BLOCK_RECORD
  5
3B6
330
1
100
AcDbSymbolTableRecord
100
AcDbBlockTableRecord
  2
*D5
340
0
 70
     0
280
     1
281
     0
  0
BLOCK_RECORD
  5
4A2
330
1
100
AcDbSymbolTableRecord
100
AcDbBlockTableRecord
  2
*D6
340
0
 70
     0
280
     1
281
     0
  0
BLOCK_RECORD
  5
58C
330
1
100
AcDbSymbolTableRecord
100
AcDbBlockTableRecord
  2
*D7
340
0
 70
     0
280
     1
281
     0
  0
BLOCK_RECORD
  5
6AF
330
1
100
AcDbSymbolTableRecord
100
AcDbBlockTableRecord
  2
*D8
340
0
 70
     0
280
     1
281
     0
  0
BLOCK_RECORD
  5
799
330
1
100
AcDbSymbolTableRecord
100
AcDbBlockTableRecord
  2
*D9
340
0
 70
     0
280
     1
281
     0
  0
BLOCK_RECORD
  5
8A1
330
1
100
AcDbSymbolTableRecord
100
AcDbBlockTableRecord
  2
*D10
340
0
 70
     0
280
     1
281
     0
  0
BLOCK_RECORD
  5
9D8
330
1
100
AcDbSymbolTableRecord
100
AcDbBlockTableRecord
  2
*D11
340
0
 70
     0
280
     1
281
     0
  0
BLOCK_RECORD
  5
AC2
330
1
100
AcDbSymbolTableRecord
100
AcDbBlockTableRecord
  2
*D12
340
0
 70
     0
280
     1
281
     0
  0
BLOCK_RECORD
  5
BAC
330
1
100
AcDbSymbolTableRecord
100
AcDbBlockTableRecord
  2
*D13
340
0
 70
     0
280
     1
281
     0
  0
BLOCK_RECORD
  5
CA0
330
1
100
AcDbSymbolTableRecord
100
AcDbBlockTableRecord
  2
*D14
340
0
 70
     0
280
     1
281
     0
  0
BLOCK_RECORD
  5
D94
330
1
100
AcDbSymbolTableRecord
100
AcDbBlockTableRecord
  2
*D15
340
0
 70
     0
280
     1
281
     0
  0
BLOCK_RECORD
  5
E88
330
1
100
AcDbSymbolTableRecord
100
AcDbBlockTableRecord
  2
*D16
340
0
 70
     0
280
     1
281
     0
  0
BLOCK_RECORD
  5
F7C
330
1
100
AcDbSymbolTableRecord
100
AcDbBlockTableRecord
  2
*D17
340
0
 70
     0
280
     1
281
     0
  0
BLOCK_RECORD
  5
109D
330
1
100
AcDbSymbolTableRecord
100
AcDbBlockTableRecord
  2
*D18
340
0
 70
     0
280
     1
281
     0
  0
BLOCK_RECORD
  5
119B
330
1
100
AcDbSymbolTableRecord
100
AcDbBlockTableRecord
  2
*D19
340
0
 70
     0
280
     1
281
     0
  0
BLOCK_RECORD
  5
1294
330
1
100
AcDbSymbolTableRecord
100
AcDbBlockTableRecord
  2
*D20
340
0
 70
     0
280
     1
281
     0
  0
BLOCK_RECORD
  5
138D
330
1
100
AcDbSymbolTableRecord
100
AcDbBlockTableRecord
  2
*D21
340
0
 70
     0
280
     1
281
     0
  0
ENDTAB
  0
ENDSEC
  0
SECTION
  2
BLOCKS
  0
BLOCK
  5
6D
330
6C
100
AcDbEntity
  8
0
100
AcDbBlockBegin
  2
*Model_Space
 70
     0
 10
0.0
 20
0.0
 30
0.0
  3
*Model_Space
  1

  0
ENDBLK
  5
6E
330
6C
100
AcDbEntity
  8
0
100
AcDbBlockEnd
  0
BLOCK
  5
69
330
68
100
AcDbEntity
 67
     1
  8
0
100
AcDbBlockBegin
  2
*Paper_Space
 70
     0
 10
0.0
 20
0.0
 30
0.0
  3
*Paper_Space
  1

  0
ENDBLK
  5
6A
330
68
100
AcDbEntity
 67
     1
  8
0
100
AcDbBlockEnd
  0
BLOCK
  5
71
330
70
100
AcDbEntity
 67
     1
  8
0
100
AcDbBlockBegin
  2
*Paper_Space0
 70
     0
 10
0.0
 20
0.0
 30
0.0
  3
*Paper_Space0
  1

  0
ENDBLK
  5
72
330
70
100
AcDbEntity
 67
     1
  8
0
100
AcDbBlockEnd
  0
BLOCK
  5
EA
330
E5
100
AcDbEntity
  8
0
100
AcDbBlockBegin
  2
_Closed
 70
     0
 10
0.0
 20
0.0
 30
0.0
  3
_Closed
  1

  0
LINE
  5
E6
330
E5
100
AcDbEntity
  8
0
  6
ByBlock
 62
     0
370
    -2
100
AcDbLine
 10
-1.0
 20
0.1666666666666666
 30
0.0
 11
0.0
 21
0.0
 31
0.0
  0
LINE
  5
E7
330
E5
100
AcDbEntity
  8
0
  6
ByBlock
 62
     0
370
    -2
100
AcDbLine
 10
0.0
 20
0.0
 30
0.0
 11
-1.0
 21
-0.1666666666666666
 31
0.0
  0
LINE
  5
E8
330
E5
100
AcDbEntity
  8
0
  6
ByBlock
 62
     0
370
    -2
100
AcDbLine
 10
-1.0
 20
0.1666666666666666
 30
0.0
 11
-1.0
 21
-0.1666666666666666
 31
0.0
  0
LINE
  5
E9
330
E5
100
AcDbEntity
  8
0
  6
ByBlock
 62
     0
370
    -2
100
AcDbLine
 10
0.0
 20
0.0
 30
0.0
 11
-1.0
 21
0.0
 31
0.0
  0
ENDBLK
  5
EB
330
E5
100
AcDbEntity
  8
0
100
AcDbBlockEnd
  0
BLOCK
  5
ED
330
EC
100
AcDbEntity
  8
0
100
AcDbBlockBegin
  2
DatumFilled45
 70
     0
 10
0.0
 20
0.0
 30
0.0
  3
DatumFilled45
  1

  0
POLYLINE
  5
EF
330
EC
100
AcDbEntity
  8
0
 62
     0
100
AcDb2dPolyline
 66
     1
 10
0.0
 20
0.0
 30
0.0
 70
   128
  0
VERTEX
  5
F0
330
EF
100
AcDbEntity
  8
0
 62
     0
100
AcDbVertex
100
AcDb2dVertex
 10
0.0
 20
0.9999999999999998
 30
0.0
  0
VERTEX
  5
F1
330
EF
100
AcDbEntity
  8
0
 62
     0
100
AcDbVertex
100
AcDb2dVertex
 10
0.0
 20
-0.9999999999999998
 30
0.0
  0
VERTEX
  5
F3
330
EF
100
AcDbEntity
  8
0
 62
     0
100
AcDbVertex
100
AcDb2dVertex
 10
-0.9999999999999998
 20
0.0
 30
0.0
  0
VERTEX
  5
F4
330
EF
100
AcDbEntity
  8
0
 62
     0
100
AcDbVertex
100
AcDb2dVertex
 10
0.0
 20
0.9999999999999998
 30
0.0
  0
SEQEND
  5
F2
330
EF
100
AcDbEntity
  8
0
 62
     0
  0
SOLID
  5
F6
330
EC
100
AcDbEntity
  8
0
 62
     0
100
AcDbTrace
 10
0.0
 20
0.9999999999999998
 30
0.0
 11
0.0
 21
-0.9999999999999998
 31
0.0
 12
-0.9999999999999998
 22
0.0
 32
0.0
 13
0.0
 23
0.9999999999999998
 33
0.0
  0
ENDBLK
  5
EE
330
EC
100
AcDbEntity
  8
0
100
AcDbBlockEnd
  0
BLOCK
  5
F9
330
F8
100
AcDbEntity
  8
0
100
AcDbBlockBegin
  2
Filled-1
 70
     0
 10
0.0
 20
0.0
 30
0.0
  3
Filled-1
  1

  0
LINE
  5
FB
330
F8
100
AcDbEntity
  8
0
 62
     0
100
AcDbLine
 10
-0.9999999999999998
 20
0.0
 30
0.0
 11
0.0
 21
0.0
 31
0.0
  0
POLYLINE
  5
FC
330
F8
100
AcDbEntity
  8
0
 62
     0
100
AcDb2dPolyline
 66
     1
 10
0.0
 20
0.0
 30
0.0
 70
   128
  0
VERTEX
  5
FD
330
FC
100
AcDbEntity
  8
0
 62
     0
100
AcDbVertex
100
AcDb2dVertex
 10
-0.9999999999999998
 20
-0.0994897959183674
 30
0.0
  0
VERTEX
  5
FE
330
FC
100
AcDbEntity
  8
0
 62
     0
100
AcDbVertex
100
AcDb2dVertex
 10
0.0
 20
0.0
 30
0.0
  0
VERTEX
  5
100
330
FC
100
AcDbEntity
  8
0
 62
     0
100
AcDbVertex
100
AcDb2dVertex
 10
-0.9999999999999998
 20
0.0994897959183674
 30
0.0
  0
VERTEX
  5
101
330
FC
100
AcDbEntity
  8
0
 62
     0
100
AcDbVertex
100
AcDb2dVertex
 10
-0.9999999999999998
 20
-0.0994897959183674
 30
0.0
  0
SEQEND
  5
FF
330
FC
100
AcDbEntity
  8
0
 62
     0
  0
SOLID
  5
102
330
F8
100
AcDbEntity
  8
0
 62
     0
100
AcDbTrace
 10
-0.9999999999999998
 20
-0.0994897959183674
 30
0.0
 11
0.0
 21
0.0
 31
0.0
 12
-0.9999999999999998
 22
0.0994897959183674
 32
0.0
 13
-0.9999999999999998
 23
-0.0994897959183674
 33
0.0
  0
LINE
  5
103
330
F8
100
AcDbEntity
  8
0
 62
     0
100
AcDbLine
 10
-0.9999999999999998
 20
-0.0994897959183674
 30
0.0
 11
0.0
 21
0.0
 31
0.0
  0
LINE
  5
104
330
F8
100
AcDbEntity
  8
0
 62
     0
100
AcDbLine
 10
0.0
 20
0.0
 30
0.0
 11
-0.9999999999999998
 21
0.0994897959183674
 31
0.0
  0
LINE
  5
105
330
F8
100
AcDbEntity
  8
0
 62
     0
100
AcDbLine
 10
-0.9999999999999998
 20
0.0994897959183674
 30
0.0
 11
-0.9999999999999998
 21
-0.0994897959183674
 31
0.0
  0
ENDBLK
  5
FA
330
F8
100
AcDbEntity
  8
0
100
AcDbBlockEnd
  0
BLOCK
  5
2CD
330
2CC
100
AcDbEntity
  8
0
100
AcDbBlockBegin
  2
*D4
 70
     1
 10
0.0
 20
0.0
 30
0.0
  3
*D4
  1

  0
LINE
  5
3AB
330
2CC
100
AcDbEntity
  8
Dimension (ANSI)
440
 16777216
100
AcDbLine
 10
19.08295146137737
 20
7.004359306974942
 30
0.0
 11
19.08295146137737
 21
6.358724223759125
 31
0.0
  0
LINE
  5
3AC
330
2CC
100
AcDbEntity
  8
Dimension (ANSI)
440
 16777216
100
AcDbLine
 10
26.07145146137716
 20
7.765859306974944
 30
0.0
 11
26.07145146137716
 21
6.358724223759125
 31
0.0
  0
LINE
  5
3AD
330
2CC
100
AcDbEntity
  8
Dimension (ANSI)
440
 16777216
100
AcDbLine
 10
19.32522886352158
 20
6.666416531451432
 30
0.0
 11
22.24179722921701
 21
6.666416531451432
 31
0.0
  0
LINE
  5
3AE
330
2CC
100
AcDbEntity
  8
Dimension (ANSI)
440
 16777216
100
AcDbLine
 10
25.82917405923295
 20
6.666416531451432
 30
0.0
 11
22.91260569353752
 21
6.666416531451432
 31
0.0
  0
SOLID
  5
3AF
330
2CC
100
AcDbEntity
  8
Dimension (ANSI)
440
 16777216
100
AcDbTrace
 10
19.32522886352158
 20
6.706796098475468
 30
0.0
 11
19.32522886352158
 21
6.626036964427397
 31
0.0
 12
19.08295146137737
 22
6.666416531451432
 32
0.0
 13
19.08295146137737
 23
6.666416531451432
 33
0.0
  0
SOLID
  5
3B0
330
2CC
100
AcDbEntity
  8
Dimension (ANSI)
440
 16777216
100
AcDbTrace
 10
25.82917405923295
 20
6.706796098475468
 30
0.0
 11
25.82917405923295
 21
6.626036964427397
 31
0.0
 12
26.07145146137716
 22
6.666416531451432
 32
0.0
 13
26.07145146137716
 23
6.666416531451432
 33
0.0
  0
MTEXT
  5
3B1
330
2CC
100
AcDbEntity
  8
Dimension (ANSI)
440
 16777216
100
AcDbMText
 10
22.31932599965917
 20
6.789493456362345
 30
0.0
 40
0.2461538498218243
 41
0.0
 46
0.0
 71
     1
 72
     1
  1
\A1;7.0
  7
ROMANS
 73
     1
 44
1.0
  0
POINT
  5
3B2
330
2CC
100
AcDbEntity
  8
Defpoints
 62
     0
440
 16777216
100
AcDbPoint
 10
19.08295146137737
 20
7.158205460821096
 30
0.0
  0
POINT
  5
3B3
330
2CC
100
AcDbEntity
  8
Defpoints
 62
     0
440
 16777216
100
AcDbPoint
 10
26.07145146137716
 20
7.919705460821099
 30
0.0
  0
POINT
  5
3B4
330
2CC
100
AcDbEntity
  8
Defpoints
 62
     0
440
 16777216
100
AcDbPoint
 10
26.07145146137716
 20
6.666416531451432
 30
0.0
  0
ENDBLK
  5
2CE
330
2CC
100
AcDbEntity
  8
0
100
AcDbBlockEnd
  0
BLOCK
  5
3B7
330
3B6
100
AcDbEntity
  8
0
100
AcDbBlockBegin
  2
*D5
 70
     1
 10
0.0
 20
0.0
 30
0.0
  3
*D5
  1

  0
LINE
  5
495
330
3B6
100
AcDbEntity
  8
Dimension (ANSI)
440
 16777216
100
AcDbLine
 10
26.15129761522334
 20
7.845705460821099
 30
0.0
 11
27.40227933071871
 21
7.845705460821099
 31
0.0
  0
LINE
  5
496
330
3B6
100
AcDbEntity
  8
Dimension (ANSI)
440
 16777216
100
AcDbLine
 10
26.91279761522345
 20
14.8342054608211
 30
0.0
 11
27.40227933071871
 21
14.8342054608211
 31
0.0
  0
LINE
  5
497
330
3B6
100
AcDbEntity
  8
Dimension (ANSI)
440
 16777216
100
AcDbLine
 10
27.09458702302641
 20
8.087982862965311
 30
0.0
 11
27.09458702302641
 21
11.13934976546803
 31
0.0
  0
LINE
  5
498
330
3B6
100
AcDbEntity
  8
Dimension (ANSI)
440
 16777216
100
AcDbLine
 10
27.09458702302641
 20
14.59192805867689
 30
0.0
 11
27.09458702302641
 21
11.54056115617417
 31
0.0
  0
SOLID
  5
499
330
3B6
100
AcDbEntity
  8
Dimension (ANSI)
440
 16777216
100
AcDbTrace
 10
27.05420745600237
 20
8.087982862965311
 30
0.0
 11
27.13496659005044
 21
8.087982862965311
 31
0.0
 12
27.0945870230264
 22
7.845705460821099
 32
0.0
 13
27.0945870230264
 23
7.845705460821099
 33
0.0
  0
SOLID
  5
49A
330
3B6
100
AcDbEntity
  8
Dimension (ANSI)
440
 16777216
100
AcDbTrace
 10
27.05420745600237
 20
14.59192805867689
 30
0.0
 11
27.13496659005044
 21
14.59192805867689
 31
0.0
 12
27.09458702302641
 22
14.8342054608211
 32
0.0
 13
27.09458702302641
 23
14.8342054608211
 33
0.0
  0
MTEXT
  5
49B
330
3B6
100
AcDbEntity
  8
Dimension (ANSI)
440
 16777216
100
AcDbMText
 10
26.8367115613083
 20
11.46303238573201
 30
0.0
 40
0.2461538498218243
 41
0.0
 46
0.0
 71
     1
 72
     1
  1
\A1;7.0
  7
ROMANS
 73
     1
 44
1.0
  0
POINT
  5
49C
330
3B6
100
AcDbEntity
  8
Defpoints
 62
     0
440
 16777216
100
AcDbPoint
 10
25.99745146137718
 20
7.8457054608211
 30
0.0
  0
POINT
  5
49D
330
3B6
100
AcDbEntity
  8
Defpoints
 62
     0
440
 16777216
100
AcDbPoint
 10
26.7589514613773
 20
14.8342054608211
 30
0.0
  0
POINT
  5
49E
330
3B6
100
AcDbEntity
  8
Defpoints
 62
     0
440
 16777216
100
AcDbPoint
 10
27.09458702302641
 20
14.8342054608211
 30
0.0
  0
ENDBLK
  5
3B8
330
3B6
100
AcDbEntity
  8
0
100
AcDbBlockEnd
  0
BLOCK
  5
4A3
330
4A2
100
AcDbEntity
  8
0
100
AcDbBlockBegin
  2
*D6
 70
     1
 10
0.0
 20
0.0
 30
0.0
  3
*D6
  1

  0
LINE
  5
581
330
4A2
100
AcDbEntity
  8
Dimension (ANSI)
440
 16777216
100
AcDbLine
 10
18.99160530753104
 20
7.8457054608211
 30
0.0
 11
18.06091403443805
 21
7.8457054608211
 31
0.0
  0
LINE
  5
582
330
4A2
100
AcDbEntity
  8
Dimension (ANSI)
440
 16777216
100
AcDbLine
 10
19.05410530753105
 20
11.84670546082108
 30
0.0
 11
18.06091403443805
 21
11.84670546082108
 31
0.0
  0
LINE
  5
583
330
4A2
100
AcDbEntity
  8
Dimension (ANSI)
440
 16777216
100
AcDbLine
 10
18.36860634213036
 20
8.087982862965313
 30
0.0
 11
18.36860634213036
 21
9.64559976546802
 31
0.0
  0
LINE
  5
584
330
4A2
100
AcDbEntity
  8
Dimension (ANSI)
440
 16777216
100
AcDbLine
 10
18.36860634213036
 20
11.60442805867686
 30
0.0
 11
18.36860634213036
 21
10.04681115617416
 31
0.0
  0
SOLID
  5
585
330
4A2
100
AcDbEntity
  8
Dimension (ANSI)
440
 16777216
100
AcDbTrace
 10
18.32822677510632
 20
8.087982862965313
 30
0.0
 11
18.40898590915439
 21
8.087982862965313
 31
0.0
 12
18.36860634213035
 22
7.8457054608211
 32
0.0
 13
18.36860634213035
 23
7.8457054608211
 33
0.0
  0
SOLID
  5
586
330
4A2
100
AcDbEntity
  8
Dimension (ANSI)
440
 16777216
100
AcDbTrace
 10
18.32822677510632
 20
11.60442805867686
 30
0.0
 11
18.40898590915439
 21
11.60442805867686
 31
0.0
 12
18.36860634213036
 22
11.84670546082108
 32
0.0
 13
18.36860634213036
 23
11.84670546082108
 33
0.0
  0
MTEXT
  5
587
330
4A2
100
AcDbEntity
  8
Dimension (ANSI)
440
 16777216
100
AcDbMText
 10
17.99351476144948
 20
9.969282385732002
 30
0.0
 40
0.2461538498218243
 41
0.0
 46
0.0
 71
     1
 72
     1
  1
\A1;4.00
  7
ROMANS
 73
     1
 44
1.0
  0
POINT
  5
588
330
4A2
100
AcDbEntity
  8
Defpoints
 62
     0
440
 16777216
100
AcDbPoint
 10
19.1454514613772
 20
7.8457054608211
 30
0.0
  0
POINT
  5
589
330
4A2
100
AcDbEntity
  8
Defpoints
 62
     0
440
 16777216
100
AcDbPoint
 10
19.2079514613772
 20
11.84670546082108
 30
0.0
  0
POINT
  5
58A
330
4A2
100
AcDbEntity
  8
Defpoints
 62
     0
440
 16777216
100
AcDbPoint
 10
18.36860634213036
 20
11.84670546082108
 30
0.0
  0
ENDBLK
  5
4A4
330
4A2
100
AcDbEntity
  8
0
100
AcDbBlockEnd
  0
BLOCK
  5
58D
330
58C
100
AcDbEntity
  8
0
100
AcDbBlockBegin
  2
*D7
 70
     1
 10
0.0
 20
0.0
 30
0.0
  3
*D7
  1

  0
LINE
  5
6A2
330
58C
100
AcDbEntity
  8
Dimension (ANSI)
440
 16777216
100
AcDbLine
 10
18.92910530753116
 20
7.158205460821099
 30
0.0
 11
18.06091403443805
 21
7.158205460821099
 31
0.0
  0
LINE
  5
6A3
330
58C
100
AcDbEntity
  8
Dimension (ANSI)
440
 16777216
100
AcDbLine
 10
18.99160530753104
 20
7.8457054608211
 30
0.0
 11
18.06091403443805
 21
7.8457054608211
 31
0.0
  0
LINE
  5
6A4
330
58C
100
AcDbEntity
  8
Dimension (ANSI)
440
 16777216
100
AcDbLine
 10
18.36860634213035
 20
6.915928058676887
 30
0.0
 11
18.36860634213035
 21
6.673650656532674
 31
0.0
  0
LINE
  5
6A5
330
58C
100
AcDbEntity
  8
Dimension (ANSI)
440
 16777216
100
AcDbLine
 10
18.36860634213036
 20
8.087982862965313
 30
0.0
 11
18.36860634213036
 21
8.330260265109524
 31
0.0
  0
LINE
  5
6A6
330
58C
100
AcDbEntity
  8
Dimension (ANSI)
440
 16777216
100
AcDbLine
 10
18.12632893998614
 20
6.388560454047343
 30
0.0
 11
18.36860634213035
 21
6.388560454047343
 31
0.0
  0
LINE
  5
6A7
330
58C
100
AcDbEntity
  8
Dimension (ANSI)
440
 16777216
100
AcDbLine
 10
18.36860634213035
 20
6.388560454047343
 30
0.0
 11
18.36860634213035
 21
6.673650656532674
 31
0.0
  0
MTEXT
  5
6A8
330
58C
100
AcDbEntity
  8
Dimension (ANSI)
440
 16777216
100
AcDbMText
 10
17.5213276342115
 20
6.388560454047347
 30
0.0
 40
0.2461538498218243
 41
0.0
 46
0.0
 71
     5
 72
     1
  1
\A1;(0.69){\PTYP.}
  7
ROMANS
 73
     1
 44
1.0
  0
SOLID
  5
6A9
330
58C
100
AcDbEntity
  8
Dimension (ANSI)
440
 16777216
100
AcDbTrace
 10
18.32822677510632
 20
6.915928058676887
 30
0.0
 11
18.40898590915439
 21
6.915928058676887
 31
0.0
 12
18.36860634213035
 22
7.158205460821099
 32
0.0
 13
18.36860634213035
 23
7.158205460821099
 33
0.0
  0
SOLID
  5
6AA
330
58C
100
AcDbEntity
  8
Dimension (ANSI)
440
 16777216
100
AcDbTrace
 10
18.32822677510632
 20
8.087982862965313
 30
0.0
 11
18.40898590915439
 21
8.087982862965313
 31
0.0
 12
18.36860634213035
 22
7.8457054608211
 32
0.0
 13
18.36860634213035
 23
7.8457054608211
 33
0.0
  0
POINT
  5
6AB
330
58C
100
AcDbEntity
  8
Defpoints
 62
     0
440
 16777216
100
AcDbPoint
 10
19.08295146137731
 20
7.158205460821099
 30
0.0
  0
POINT
  5
6AC
330
58C
100
AcDbEntity
  8
Defpoints
 62
     0
440
 16777216
100
AcDbPoint
 10
19.1454514613772
 20
7.8457054608211
 30
0.0
  0
POINT
  5
6AD
330
58C
100
AcDbEntity
  8
Defpoints
 62
     0
440
 16777216
100
AcDbPoint
 10
18.36860634213035
 20
7.8457054608211
 30
0.0
  0
ENDBLK
  5
58E
330
58C
100
AcDbEntity
  8
0
100
AcDbBlockEnd
  0
BLOCK
  5
6B0
330
6AF
100
AcDbEntity
  8
0
100
AcDbBlockBegin
  2
*D8
 70
     1
 10
0.0
 20
0.0
 30
0.0
  3
*D8
  1

  0
LINE
  5
78E
330
6AF
100
AcDbEntity
  8
Dimension (ANSI)
440
 16777216
100
AcDbLine
 10
22.07232014489623
 20
14.86305161466726
 30
0.0
 11
22.07232014489623
 21
16.46928969723276
 31
0.0
  0
LINE
  5
78F
330
6AF
100
AcDbEntity
  8
Dimension (ANSI)
440
 16777216
100
AcDbLine
 10
26.07145146137716
 20
14.87717271724294
 30
0.0
 11
26.07145146137716
 21
16.46928969723276
 31
0.0
  0
LINE
  5
790
330
6AF
100
AcDbEntity
  8
Dimension (ANSI)
440
 16777216
100
AcDbLine
 10
22.31459754704044
 20
16.16159738954045
 30
0.0
 11
23.61926545201367
 21
16.16159738954045
 31
0.0
  0
LINE
  5
791
330
6AF
100
AcDbEntity
  8
Dimension (ANSI)
440
 16777216
100
AcDbLine
 10
25.82917405923295
 20
16.16159738954045
 30
0.0
 11
24.52450615425973
 21
16.16159738954045
 31
0.0
  0
SOLID
  5
792
330
6AF
100
AcDbEntity
  8
Dimension (ANSI)
440
 16777216
100
AcDbTrace
 10
22.31459754704044
 20
16.20197695656448
 30
0.0
 11
22.31459754704044
 21
16.12121782251641
 31
0.0
 12
22.07232014489623
 22
16.16159738954045
 32
0.0
 13
22.07232014489623
 23
16.16159738954045
 33
0.0
  0
SOLID
  5
793
330
6AF
100
AcDbEntity
  8
Dimension (ANSI)
440
 16777216
100
AcDbTrace
 10
25.82917405923295
 20
16.20197695656448
 30
0.0
 11
25.82917405923295
 21
16.12121782251641
 31
0.0
 12
26.07145146137716
 22
16.16159738954045
 32
0.0
 13
26.07145146137716
 23
16.16159738954045
 33
0.0
  0
MTEXT
  5
794
330
6AF
100
AcDbEntity
  8
Dimension (ANSI)
440
 16777216
100
AcDbMText
 10
23.69679422245582
 20
16.28467431445136
 30
0.0
 40
0.2461538498218243
 41
0.0
 46
0.0
 71
     1
 72
     1
  1
\A1;4.00
  7
ROMANS
 73
     1
 44
1.0
  0
POINT
  5
795
330
6AF
100
AcDbEntity
  8
Defpoints
 62
     0
440
 16777216
100
AcDbPoint
 10
22.07232014489623
 20
14.70920546082111
 30
0.0
  0
POINT
  5
796
330
6AF
100
AcDbEntity
  8
Defpoints
 62
     0
440
 16777216
100
AcDbPoint
 10
26.07145146137716
 20
14.72332656339679
 30
0.0
  0
POINT
  5
797
330
6AF
100
AcDbEntity
  8
Defpoints
 62
     0
440
 16777216
100
AcDbPoint
 10
26.07145146137716
 20
16.16159738954045
 30
0.0
  0
ENDBLK
  5
6B1
330
6AF
100
AcDbEntity
  8
0
100
AcDbBlockEnd
  0
BLOCK
  5
79A
330
799
100
AcDbEntity
  8
0
100
AcDbBlockBegin
  2
*D9
 70
     1
 10
0.0
 20
0.0
 30
0.0
  3
*D9
  1

  0
LINE
  5
896
330
799
100
AcDbEntity
  8
Dimension (ANSI)
440
 16777216
100
AcDbLine
 10
26.7589514613773
 20
14.98805161466725
 30
0.0
 11
26.7589514613773
 21
16.46928969723276
 31
0.0
  0
LINE
  5
897
330
799
100
AcDbEntity
  8
Dimension (ANSI)
440
 16777216
100
AcDbLine
 10
26.07145146137716
 20
14.92555161466725
 30
0.0
 11
26.07145146137716
 21
16.46928969723276
 31
0.0
  0
LINE
  5
898
330
799
100
AcDbEntity
  8
Dimension (ANSI)
440
 16777216
100
AcDbLine
 10
25.82917405923295
 20
16.16159738954045
 30
0.0
 11
25.58689665708874
 21
16.16159738954045
 31
0.0
  0
LINE
  5
899
330
799
100
AcDbEntity
  8
Dimension (ANSI)
440
 16777216
100
AcDbLine
 10
27.00122886352151
 20
16.16159738954045
 30
0.0
 11
27.32446670490474
 21
16.16159738954045
 31
0.0
  0
SOLID
  5
89A
330
799
100
AcDbEntity
  8
Dimension (ANSI)
440
 16777216
100
AcDbTrace
 10
25.82917405923295
 20
16.20197695656448
 30
0.0
 11
25.82917405923295
 21
16.12121782251641
 31
0.0
 12
26.07145146137716
 22
16.16159738954045
 32
0.0
 13
26.07145146137716
 23
16.16159738954045
 33
0.0
  0
SOLID
  5
89B
330
799
100
AcDbEntity
  8
Dimension (ANSI)
440
 16777216
100
AcDbTrace
 10
27.00122886352151
 20
16.20197695656448
 30
0.0
 11
27.00122886352151
 21
16.12121782251641
 31
0.0
 12
26.7589514613773
 22
16.16159738954045
 32
0.0
 13
26.7589514613773
 23
16.16159738954045
 33
0.0
  0
MTEXT
  5
89C
330
799
100
AcDbEntity
  8
Dimension (ANSI)
440
 16777216
100
AcDbMText
 10
27.92946801067938
 20
16.16159738954045
 30
0.0
 40
0.2461538498218243
 41
0.0
 46
0.0
 71
     5
 72
     1
  1
\A1;(0.69){\PTYP.}
  7
ROMANS
 73
     1
 44
1.0
  0
POINT
  5
89D
330
799
100
AcDbEntity
  8
Defpoints
 62
     0
440
 16777216
100
AcDbPoint
 10
26.7589514613773
 20
14.8342054608211
 30
0.0
  0
POINT
  5
89E
330
799
100
AcDbEntity
  8
Defpoints
 62
     0
440
 16777216
100
AcDbPoint
 10
26.07145146137716
 20
14.7717054608211
 30
0.0
  0
POINT
  5
89F
330
799
100
AcDbEntity
  8
Defpoints
 62
     0
440
 16777216
100
AcDbPoint
 10
26.07145146137716
 20
16.16159738954045
 30
0.0
  0
ENDBLK
  5
79B
330
799
100
AcDbEntity
  8
0
100
AcDbBlockEnd
  0
BLOCK
  5
8A2
330
8A1
100
AcDbEntity
  8
0
100
AcDbBlockBegin
  2
*D10
 70
     1
 10
0.0
 20
0.0
 30
0.0
  3
*D10
  1

  0
LINE
  5
9CD
330
8A1
100
AcDbEntity
  8
Dimension (ANSI)
440
 16777216
100
AcDbLine
 10
22.07232014489623
 20
14.92629529818625
 30
0.0
 11
22.07232014489623
 21
16.47531887358208
 31
0.0
  0
ARC
  5
9CE
330
8A1
100
AcDbEntity
  8
Dimension (ANSI)
440
 16777216
100
AcDbCircle
 10
22.07232014489623
 20
14.37722594795572
 30
0.0
 40
1.790400617934066
100
AcDbArc
 50
97.75920520989433
 51
142.4611161600074
  0
ARC
  5
9CF
330
8A1
100
AcDbEntity
  8
Dimension (ANSI)
440
 16777216
100
AcDbCircle
 10
22.07232014489623
 20
14.37722594795572
 30
0.0
 40
1.790400617934066
100
AcDbArc
 50
171.0213063891171
 51
217.2407947901065
  0
SOLID
  5
9D0
330
8A1
100
AcDbEntity
  8
Dimension (ANSI)
440
 16777216
100
AcDbTrace
 10
21.82786585267025
 20
16.19152108482393
 30
0.0
 11
21.83333002448761
 21
16.1109470160515
 31
0.0
 12
22.07232014489623
 22
16.16762656588979
 32
0.0
 13
22.07232014489623
 23
16.16762656588979
 33
0.0
  0
SOLID
  5
9D1
330
8A1
100
AcDbEntity
  8
Dimension (ANSI)
440
 16777216
100
AcDbTrace
 10
20.6774026861822
 20
13.3202915587967
 30
0.0
 11
20.61656446281981
 21
13.26718084132555
 31
0.0
 12
20.80631572691448
 22
13.11122152997393
 32
0.0
 13
20.80631572691448
 23
13.11122152997393
 33
0.0
  0
MTEXT
  5
9D2
330
8A1
100
AcDbEntity
  8
Dimension (ANSI)
440
 16777216
100
AcDbMText
 10
20.41820565899138
 20
15.06238260173528
 30
0.0
 40
0.2461538498218243
 41
0.0
 46
0.0
 71
     5
 72
     1
  1
\A1;135\U+00B0{\PTYP.}
  7
ROMANS
 73
     1
 44
1.0
  0
POINT
  5
9D3
330
8A1
100
AcDbEntity
  8
Defpoints
 62
     0
440
 16777216
100
AcDbPoint
 10
22.07232014489623
 20
14.37722594795571
 30
0.0
  0
POINT
  5
9D4
330
8A1
100
AcDbEntity
  8
Defpoints
 62
     0
440
 16777216
100
AcDbPoint
 10
22.07232014489623
 20
14.7724491443401
 30
0.0
  0
POINT
  5
9D5
330
8A1
100
AcDbEntity
  8
Defpoints
 62
     0
440
 16777216
100
AcDbPoint
 10
21.96353448625214
 20
14.26844028931163
 30
0.0
  0
POINT
  5
9D6
330
8A1
100
AcDbEntity
  8
Defpoints
 62
     0
440
 16777216
100
AcDbPoint
 10
20.80631572691446
 20
15.64323036593747
 30
0.0
  0
ENDBLK
  5
8A3
330
8A1
100
AcDbEntity
  8
0
100
AcDbBlockEnd
  0
BLOCK
  5
9D9
330
9D8
100
AcDbEntity
  8
0
100
AcDbBlockBegin
  2
*D11
 70
     1
 10
0.0
 20
0.0
 30
0.0
  3
*D11
  1

  0
LINE
  5
AB7
330
9D8
100
AcDbEntity
  8
Dimension (ANSI)
440
 16777216
100
AcDbLine
 10
4.613416889752943
 20
14.86305161466722
 30
0.0
 11
4.613416889752943
 21
15.90632185193303
 31
0.0
  0
LINE
  5
AB8
330
9D8
100
AcDbEntity
  8
Dimension (ANSI)
440
 16777216
100
AcDbLine
 10
6.61341688975295
 20
14.60951653886571
 30
0.0
 11
6.61341688975295
 21
15.90632185193303
 31
0.0
  0
LINE
  5
AB9
330
9D8
100
AcDbEntity
  8
Dimension (ANSI)
440
 16777216
100
AcDbLine
 10
4.855694291897155
 20
15.59862954424072
 30
0.0
 11
5.074029251680207
 21
15.59862954424072
 31
0.0
  0
LINE
  5
ABA
330
9D8
100
AcDbEntity
  8
Dimension (ANSI)
440
 16777216
100
AcDbLine
 10
6.371139487608738
 20
15.59862954424072
 30
0.0
 11
5.97926995392627
 21
15.59862954424072
 31
0.0
  0
SOLID
  5
ABB
330
9D8
100
AcDbEntity
  8
Dimension (ANSI)
440
 16777216
100
AcDbTrace
 10
4.855694291897155
 20
15.63900911126475
 30
0.0
 11
4.855694291897155
 21
15.55824997721668
 31
0.0
 12
4.613416889752943
 22
15.59862954424072
 32
0.0
 13
4.613416889752943
 23
15.59862954424072
 33
0.0
  0
SOLID
  5
ABC
330
9D8
100
AcDbEntity
  8
Dimension (ANSI)
440
 16777216
100
AcDbTrace
 10
6.371139487608738
 20
15.63900911126475
 30
0.0
 11
6.371139487608738
 21
15.55824997721668
 31
0.0
 12
6.61341688975295
 22
15.59862954424072
 32
0.0
 13
6.61341688975295
 23
15.59862954424072
 33
0.0
  0
MTEXT
  5
ABD
330
9D8
100
AcDbEntity
  8
Dimension (ANSI)
440
 16777216
100
AcDbMText
 10
5.151558022122364
 20
15.72170646915163
 30
0.0
 40
0.2461538498218243
 41
0.0
 46
0.0
 71
     1
 72
     1
  1
\A1;2.00
  7
ROMANS
 73
     1
 44
1.0
  0
POINT
  5
ABE
330
9D8
100
AcDbEntity
  8
Defpoints
 62
     0
440
 16777216
100
AcDbPoint
 10
4.613416889752943
 20
14.70920546082106
 30
0.0
  0
POINT
  5
ABF
330
9D8
100
AcDbEntity
  8
Defpoints
 62
     0
440
 16777216
100
AcDbPoint
 10
6.61341688975295
 20
14.45567038501956
 30
0.0
  0
POINT
  5
AC0
330
9D8
100
AcDbEntity
  8
Defpoints
 62
     0
440
 16777216
100
AcDbPoint
 10
6.61341688975295
 20
15.59862954424072
 30
0.0
  0
ENDBLK
  5
9DA
330
9D8
100
AcDbEntity
  8
0
100
AcDbBlockEnd
  0
BLOCK
  5
AC3
330
AC2
100
AcDbEntity
  8
0
100
AcDbBlockBegin
  2
*D12
 70
     1
 10
0.0
 20
0.0
 30
0.0
  3
*D12
  1

  0
LINE
  5
BA1
330
AC2
100
AcDbEntity
  8
Dimension (ANSI)
440
 16777216
100
AcDbLine
 10
9.6302620704983
 20
9.845705460821102
 30
0.0
 11
10.75321785487141
 21
9.845705460821102
 31
0.0
  0
LINE
  5
BA2
330
AC2
100
AcDbEntity
  8
Dimension (ANSI)
440
 16777216
100
AcDbLine
 10
8.693263043599081
 20
7.8457054608211
 30
0.0
 11
10.75321785487141
 21
7.845705460821099
 31
0.0
  0
LINE
  5
BA3
330
AC2
100
AcDbEntity
  8
Dimension (ANSI)
440
 16777216
100
AcDbLine
 10
10.4455255471791
 20
9.60342805867689
 30
0.0
 11
10.4455255471791
 21
9.046311156174168
 31
0.0
  0
LINE
  5
BA4
330
AC2
100
AcDbEntity
  8
Dimension (ANSI)
440
 16777216
100
AcDbLine
 10
10.4455255471791
 20
8.087982862965311
 30
0.0
 11
10.4455255471791
 21
8.64509976546803
 31
0.0
  0
SOLID
  5
BA5
330
AC2
100
AcDbEntity
  8
Dimension (ANSI)
440
 16777216
100
AcDbTrace
 10
10.40514598015507
 20
9.60342805867689
 30
0.0
 11
10.48590511420314
 21
9.60342805867689
 31
0.0
 12
10.4455255471791
 22
9.845705460821102
 32
0.0
 13
10.4455255471791
 23
9.845705460821102
 33
0.0
  0
SOLID
  5
BA6
330
AC2
100
AcDbEntity
  8
Dimension (ANSI)
440
 16777216
100
AcDbTrace
 10
10.40514598015507
 20
8.087982862965311
 30
0.0
 11
10.48590511420314
 21
8.087982862965311
 31
0.0
 12
10.4455255471791
 22
7.845705460821099
 32
0.0
 13
10.4455255471791
 23
7.845705460821099
 33
0.0
  0
MTEXT
  5
BA7
330
AC2
100
AcDbEntity
  8
Dimension (ANSI)
440
 16777216
100
AcDbMText
 10
10.07043396649822
 20
8.968782385732012
 30
0.0
 40
0.2461538498218243
 41
0.0
 46
0.0
 71
     1
 72
     1
  1
\A1;2.00
  7
ROMANS
 73
     1
 44
1.0
  0
POINT
  5
BA8
330
AC2
100
AcDbEntity
  8
Defpoints
 62
     0
440
 16777216
100
AcDbPoint
 10
9.476415916652147
 20
9.845705460821102
 30
0.0
  0
POINT
  5
BA9
330
AC2
100
AcDbEntity
  8
Defpoints
 62
     0
440
 16777216
100
AcDbPoint
 10
8.539416889752928
 20
7.8457054608211
 30
0.0
  0
POINT
  5
BAA
330
AC2
100
AcDbEntity
  8
Defpoints
 62
     0
440
 16777216
100
AcDbPoint
 10
10.4455255471791
 20
7.845705460821099
 30
0.0
  0
ENDBLK
  5
AC4
330
AC2
100
AcDbEntity
  8
0
100
AcDbBlockEnd
  0
BLOCK
  5
BAD
330
BAC
100
AcDbEntity
  8
0
100
AcDbBlockBegin
  2
*D13
 70
     1
 10
0.0
 20
0.0
 30
0.0
  3
*D13
  1

  0
LINE
  5
C95
330
BAC
100
AcDbEntity
  8
Dimension (ANSI)
440
 16777216
100
AcDbLine
 10
4.147070735906793
 20
12.53320546082111
 30
0.0
 11
2.588316969677105
 21
12.53320546082111
 31
0.0
  0
LINE
  5
C96
330
BAC
100
AcDbEntity
  8
Dimension (ANSI)
440
 16777216
100
AcDbLine
 10
3.634564593738204
 20
9.845705460821108
 30
0.0
 11
2.588316969677105
 21
9.845705460821108
 31
0.0
  0
LINE
  5
C97
330
BAC
100
AcDbEntity
  8
Dimension (ANSI)
440
 16777216
100
AcDbLine
 10
2.896009277369413
 20
12.2909280586769
 30
0.0
 11
2.896009277369413
 21
11.4545300216037
 31
0.0
  0
LINE
  5
C98
330
BAC
100
AcDbEntity
  8
Dimension (ANSI)
440
 16777216
100
AcDbLine
 10
2.896009277369413
 20
10.08798286296532
 30
0.0
 11
2.896009277369413
 21
10.92438090003851
 31
0.0
  0
SOLID
  5
C99
330
BAC
100
AcDbEntity
  8
Dimension (ANSI)
440
 16777216
100
AcDbTrace
 10
2.855629710345377
 20
12.2909280586769
 30
0.0
 11
2.936388844393448
 21
12.2909280586769
 31
0.0
 12
2.896009277369413
 22
12.53320546082111
 32
0.0
 13
2.896009277369413
 23
12.53320546082111
 33
0.0
  0
SOLID
  5
C9A
330
BAC
100
AcDbEntity
  8
Dimension (ANSI)
440
 16777216
100
AcDbTrace
 10
2.855629710345377
 20
10.08798286296532
 30
0.0
 11
2.936388844393448
 21
10.08798286296532
 31
0.0
 12
2.896009277369413
 22
9.845705460821108
 32
0.0
 13
2.896009277369413
 23
9.845705460821108
 33
0.0
  0
MTEXT
  5
C9B
330
BAC
100
AcDbEntity
  8
Dimension (ANSI)
440
 16777216
100
AcDbMText
 10
2.368536742036931
 20
11.37700125116155
 30
0.0
 40
0.2461538498218243
 41
0.0
 46
0.0
 71
     1
 72
     1
  1
\A1;(2.69)
  7
ROMANS
 73
     1
 44
1.0
  0
POINT
  5
C9C
330
BAC
100
AcDbEntity
  8
Defpoints
 62
     0
440
 16777216
100
AcDbPoint
 10
4.300916889752947
 20
12.53320546082111
 30
0.0
  0
POINT
  5
C9D
330
BAC
100
AcDbEntity
  8
Defpoints
 62
     0
440
 16777216
100
AcDbPoint
 10
3.788410747584358
 20
9.845705460821108
 30
0.0
  0
POINT
  5
C9E
330
BAC
100
AcDbEntity
  8
Defpoints
 62
     0
440
 16777216
100
AcDbPoint
 10
2.896009277369413
 20
9.845705460821108
 30
0.0
  0
ENDBLK
  5
BAE
330
BAC
100
AcDbEntity
  8
0
100
AcDbBlockEnd
  0
BLOCK
  5
CA1
330
CA0
100
AcDbEntity
  8
0
100
AcDbBlockBegin
  2
*D14
 70
     1
 10
0.0
 20
0.0
 30
0.0
  3
*D14
  1

  0
LINE
  5
D89
330
CA0
100
AcDbEntity
  8
Dimension (ANSI)
440
 16777216
100
AcDbLine
 10
4.147070735906793
 20
12.53320546082111
 30
0.0
 11
1.393596816542794
 21
12.53320546082111
 31
0.0
  0
LINE
  5
D8A
330
CA0
100
AcDbEntity
  8
Dimension (ANSI)
440
 16777216
100
AcDbLine
 10
4.147070735906789
 20
7.158205460821108
 30
0.0
 11
1.393596816542792
 21
7.158205460821109
 31
0.0
  0
LINE
  5
D8B
330
CA0
100
AcDbEntity
  8
Dimension (ANSI)
440
 16777216
100
AcDbLine
 10
1.701289124235101
 20
12.2909280586769
 30
0.0
 11
1.701289124235101
 21
10.1107800216037
 31
0.0
  0
LINE
  5
D8C
330
CA0
100
AcDbEntity
  8
Dimension (ANSI)
440
 16777216
100
AcDbLine
 10
1.7012891242351
 20
7.400482862965321
 30
0.0
 11
1.701289124235101
 21
9.580630900038514
 31
0.0
  0
SOLID
  5
D8D
330
CA0
100
AcDbEntity
  8
Dimension (ANSI)
440
 16777216
100
AcDbTrace
 10
1.660909557211066
 20
12.2909280586769
 30
0.0
 11
1.741668691259136
 21
12.2909280586769
 31
0.0
 12
1.701289124235101
 22
12.53320546082111
 32
0.0
 13
1.701289124235101
 23
12.53320546082111
 33
0.0
  0
SOLID
  5
D8E
330
CA0
100
AcDbEntity
  8
Dimension (ANSI)
440
 16777216
100
AcDbTrace
 10
1.660909557211065
 20
7.400482862965321
 30
0.0
 11
1.741668691259135
 21
7.400482862965321
 31
0.0
 12
1.7012891242351
 22
7.158205460821109
 32
0.0
 13
1.7012891242351
 23
7.158205460821109
 33
0.0
  0
MTEXT
  5
D8F
330
CA0
100
AcDbEntity
  8
Dimension (ANSI)
440
 16777216
100
AcDbMText
 10
1.173816588902619
 20
10.03325125116154
 30
0.0
 40
0.2461538498218243
 41
0.0
 46
0.0
 71
     1
 72
     1
  1
\A1;(5.38)
  7
ROMANS
 73
     1
 44
1.0
  0
POINT
  5
D90
330
CA0
100
AcDbEntity
  8
Defpoints
 62
     0
440
 16777216
100
AcDbPoint
 10
4.300916889752947
 20
12.53320546082111
 30
0.0
  0
POINT
  5
D91
330
CA0
100
AcDbEntity
  8
Defpoints
 62
     0
440
 16777216
100
AcDbPoint
 10
4.300916889752943
 20
7.158205460821108
 30
0.0
  0
POINT
  5
D92
330
CA0
100
AcDbEntity
  8
Defpoints
 62
     0
440
 16777216
100
AcDbPoint
 10
1.7012891242351
 20
7.158205460821109
 30
0.0
  0
ENDBLK
  5
CA2
330
CA0
100
AcDbEntity
  8
0
100
AcDbBlockEnd
  0
BLOCK
  5
D95
330
D94
100
AcDbEntity
  8
0
100
AcDbBlockBegin
  2
*D15
 70
     1
 10
0.0
 20
0.0
 30
0.0
  3
*D15
  1

  0
LINE
  5
E7D
330
D94
100
AcDbEntity
  8
Dimension (ANSI)
440
 16777216
100
AcDbLine
 10
3.925916889752944
 20
7.379359306974955
 30
0.0
 11
3.925916889752944
 21
5.973216450278146
 31
0.0
  0
LINE
  5
E7E
330
D94
100
AcDbEntity
  8
Dimension (ANSI)
440
 16777216
100
AcDbLine
 10
6.613416889752947
 20
7.071666999282642
 30
0.0
 11
6.613416889752947
 21
5.973216450278146
 31
0.0
  0
LINE
  5
E7F
330
D94
100
AcDbEntity
  8
Dimension (ANSI)
440
 16777216
100
AcDbLine
 10
4.168194291897155
 20
6.280908757970453
 30
0.0
 11
4.664665583978309
 21
6.280908757970453
 31
0.0
  0
LINE
  5
E80
330
D94
100
AcDbEntity
  8
Dimension (ANSI)
440
 16777216
100
AcDbLine
 10
6.371139487608735
 20
6.280908757970453
 30
0.0
 11
5.874668195527582
 21
6.280908757970453
 31
0.0
  0
SOLID
  5
E81
330
D94
100
AcDbEntity
  8
Dimension (ANSI)
440
 16777216
100
AcDbTrace
 10
4.168194291897155
 20
6.321288324994489
 30
0.0
 11
4.168194291897155
 21
6.240529190946418
 31
0.0
 12
3.925916889752944
 22
6.280908757970453
 32
0.0
 13
3.925916889752944
 23
6.280908757970453
 33
0.0
  0
SOLID
  5
E82
330
D94
100
AcDbEntity
  8
Dimension (ANSI)
440
 16777216
100
AcDbTrace
 10
6.371139487608735
 20
6.321288324994489
 30
0.0
 11
6.371139487608735
 21
6.240529190946418
 31
0.0
 12
6.613416889752947
 22
6.280908757970453
 32
0.0
 13
6.613416889752947
 23
6.280908757970453
 33
0.0
  0
MTEXT
  5
E83
330
D94
100
AcDbEntity
  8
Dimension (ANSI)
440
 16777216
100
AcDbMText
 10
4.742194354420465
 20
6.468454548310891
 30
0.0
 40
0.2461538498218243
 41
0.0
 46
0.0
 71
     1
 72
     1
  1
\A1;(2.69)
  7
ROMANS
 73
     1
 44
1.0
  0
POINT
  5
E84
330
D94
100
AcDbEntity
  8
Defpoints
 62
     0
440
 16777216
100
AcDbPoint
 10
3.925916889752944
 20
7.533205460821109
 30
0.0
  0
POINT
  5
E85
330
D94
100
AcDbEntity
  8
Defpoints
 62
     0
440
 16777216
100
AcDbPoint
 10
6.613416889752947
 20
7.225513153128797
 30
0.0
  0
POINT
  5
E86
330
D94
100
AcDbEntity
  8
Defpoints
 62
     0
440
 16777216
100
AcDbPoint
 10
6.613416889752947
 20
6.280908757970453
 30
0.0
  0
ENDBLK
  5
D96
330
D94
100
AcDbEntity
  8
0
100
AcDbBlockEnd
  0
BLOCK
  5
E89
330
E88
100
AcDbEntity
  8
0
100
AcDbBlockBegin
  2
*D16
 70
     1
 10
0.0
 20
0.0
 30
0.0
  3
*D16
  1

  0
LINE
  5
F71
330
E88
100
AcDbEntity
  8
Dimension (ANSI)
440
 16777216
100
AcDbLine
 10
3.925916889752944
 20
7.379359306974955
 30
0.0
 11
3.925916889752944
 21
5.008537657195305
 31
0.0
  0
LINE
  5
F72
330
E88
100
AcDbEntity
  8
Dimension (ANSI)
440
 16777216
100
AcDbLine
 10
9.300916889752951
 20
7.379359306974944
 30
0.0
 11
9.300916889752951
 21
5.008537657195305
 31
0.0
  0
LINE
  5
F73
330
E88
100
AcDbEntity
  8
Dimension (ANSI)
440
 16777216
100
AcDbLine
 10
4.168194291897155
 20
5.316229964887613
 30
0.0
 11
6.00841558397831
 21
5.316229964887613
 31
0.0
  0
LINE
  5
F74
330
E88
100
AcDbEntity
  8
Dimension (ANSI)
440
 16777216
100
AcDbLine
 10
9.058639487608738
 20
5.316229964887613
 30
0.0
 11
7.218418195527583
 21
5.316229964887613
 31
0.0
  0
SOLID
  5
F75
330
E88
100
AcDbEntity
  8
Dimension (ANSI)
440
 16777216
100
AcDbTrace
 10
4.168194291897155
 20
5.356609531911648
 30
0.0
 11
4.168194291897155
 21
5.275850397863577
 31
0.0
 12
3.925916889752944
 22
5.316229964887613
 32
0.0
 13
3.925916889752944
 23
5.316229964887613
 33
0.0
  0
SOLID
  5
F76
330
E88
100
AcDbEntity
  8
Dimension (ANSI)
440
 16777216
100
AcDbTrace
 10
9.058639487608738
 20
5.356609531911648
 30
0.0
 11
9.058639487608738
 21
5.275850397863577
 31
0.0
 12
9.300916889752951
 22
5.316229964887613
 32
0.0
 13
9.300916889752951
 23
5.316229964887613
 33
0.0
  0
MTEXT
  5
F77
330
E88
100
AcDbEntity
  8
Dimension (ANSI)
440
 16777216
100
AcDbMText
 10
6.085944354420465
 20
5.50377575522805
 30
0.0
 40
0.2461538498218243
 41
0.0
 46
0.0
 71
     1
 72
     1
  1
\A1;(5.38)
  7
ROMANS
 73
     1
 44
1.0
  0
POINT
  5
F78
330
E88
100
AcDbEntity
  8
Defpoints
 62
     0
440
 16777216
100
AcDbPoint
 10
3.925916889752944
 20
7.533205460821109
 30
0.0
  0
POINT
  5
F79
330
E88
100
AcDbEntity
  8
Defpoints
 62
     0
440
 16777216
100
AcDbPoint
 10
9.300916889752951
 20
7.533205460821098
 30
0.0
  0
POINT
  5
F7A
330
E88
100
AcDbEntity
  8
Defpoints
 62
     0
440
 16777216
100
AcDbPoint
 10
9.300916889752951
 20
5.316229964887613
 30
0.0
  0
ENDBLK
  5
E8A
330
E88
100
AcDbEntity
  8
0
100
AcDbBlockEnd
  0
BLOCK
  5
F7D
330
F7C
100
AcDbEntity
  8
0
100
AcDbBlockBegin
  2
*D17
 70
     1
 10
0.0
 20
0.0
 30
0.0
  3
*D17
  1

  0
LINE
  5
1091
330
F7C
100
AcDbEntity
  8
Dimension (ANSI)
440
 16777216
100
AcDbLine
 10
9.079763043599104
 20
12.5332054608211
 30
0.0
 11
10.64858850691029
 21
12.5332054608211
 31
0.0
  0
LINE
  5
1092
330
F7C
100
AcDbEntity
  8
Dimension (ANSI)
440
 16777216
100
AcDbLine
 10
8.693263043599142
 20
11.77270546082108
 30
0.0
 11
10.64858850691029
 21
11.77270546082108
 31
0.0
  0
LINE
  5
1093
330
F7C
100
AcDbEntity
  8
Dimension (ANSI)
440
 16777216
100
AcDbLine
 10
10.34089619921798
 20
12.29092805867689
 30
0.0
 11
10.34089619921798
 21
12.01498286296529
 31
0.0
  0
LINE
  5
1094
330
F7C
100
AcDbEntity
  8
Dimension (ANSI)
440
 16777216
100
AcDbLine
 10
10.5831736013622
 20
13.40149925928772
 30
0.0
 11
10.34089619921798
 21
13.40149925928772
 31
0.0
  0
LINE
  5
1095
330
F7C
100
AcDbEntity
  8
Dimension (ANSI)
440
 16777216
100
AcDbLine
 10
10.34089619921798
 20
13.40149925928772
 30
0.0
 11
10.34089619921798
 21
12.5332054608211
 31
0.0
  0
MTEXT
  5
1096
330
F7C
100
AcDbEntity
  8
Dimension (ANSI)
440
 16777216
100
AcDbMText
 10
11.18817490713683
 20
13.40149925928772
 30
0.0
 40
0.2461538498218243
 41
0.0
 46
0.0
 71
     5
 72
     1
  1
\A1;(0.76){\PTYP.}
  7
ROMANS
 73
     1
 44
1.0
  0
SOLID
  5
1097
330
F7C
100
AcDbEntity
  8
Dimension (ANSI)
440
 16777216
100
AcDbTrace
 10
10.30051663219395
 20
12.29092805867689
 30
0.0
 11
10.38127576624202
 21
12.29092805867689
 31
0.0
 12
10.34089619921798
 22
12.5332054608211
 32
0.0
 13
10.34089619921798
 23
12.5332054608211
 33
0.0
  0
SOLID
  5
1098
330
F7C
100
AcDbEntity
  8
Dimension (ANSI)
440
 16777216
100
AcDbTrace
 10
10.30051663219395
 20
12.01498286296529
 30
0.0
 11
10.38127576624202
 21
12.01498286296529
 31
0.0
 12
10.34089619921798
 22
11.77270546082108
 32
0.0
 13
10.34089619921798
 23
11.77270546082108
 33
0.0
  0
POINT
  5
1099
330
F7C
100
AcDbEntity
  8
Defpoints
 62
     0
440
 16777216
100
AcDbPoint
 10
8.925916889752951
 20
12.5332054608211
 30
0.0
  0
POINT
  5
109A
330
F7C
100
AcDbEntity
  8
Defpoints
 62
     0
440
 16777216
100
AcDbPoint
 10
8.539416889752988
 20
11.77270546082108
 30
0.0
  0
POINT
  5
109B
330
F7C
100
AcDbEntity
  8
Defpoints
 62
     0
440
 16777216
100
AcDbPoint
 10
10.34089619921798
 20
11.77270546082108
 30
0.0
  0
ENDBLK
  5
F7E
330
F7C
100
AcDbEntity
  8
0
100
AcDbBlockEnd
  0
BLOCK
  5
109E
330
109D
100
AcDbEntity
  8
0
100
AcDbBlockBegin
  2
*D18
 70
     1
 10
0.0
 20
0.0
 30
0.0
  3
*D18
  1

  0
LINE
  5
1190
330
109D
100
AcDbEntity
  8
Dimension (ANSI)
440
 16777216
100
AcDbLine
 10
19.08295146137743
 20
12.31205161466725
 30
0.0
 11
19.08295146137743
 21
13.82068318831733
 31
0.0
  0
LINE
  5
1191
330
109D
100
AcDbEntity
  8
Dimension (ANSI)
440
 16777216
100
AcDbLine
 10
19.20795146137738
 20
12.68705161466725
 30
0.0
 11
19.20795146137738
 21
13.82068318831733
 31
0.0
  0
LINE
  5
1192
330
109D
100
AcDbEntity
  8
Dimension (ANSI)
440
 16777216
100
AcDbLine
 10
19.45022886352159
 20
13.51299088062502
 30
0.0
 11
19.6925062656658
 21
13.51299088062502
 31
0.0
  0
LINE
  5
1193
330
109D
100
AcDbEntity
  8
Dimension (ANSI)
440
 16777216
100
AcDbLine
 10
18.84067405923322
 20
13.51299088062502
 30
0.0
 11
18.20077524773902
 21
13.51299088062502
 31
0.0
  0
SOLID
  5
1194
330
109D
100
AcDbEntity
  8
Dimension (ANSI)
440
 16777216
100
AcDbTrace
 10
19.45022886352159
 20
13.55337044764906
 30
0.0
 11
19.45022886352159
 21
13.47261131360099
 31
0.0
 12
19.20795146137738
 22
13.51299088062502
 32
0.0
 13
19.20795146137738
 23
13.51299088062502
 33
0.0
  0
SOLID
  5
1195
330
109D
100
AcDbEntity
  8
Dimension (ANSI)
440
 16777216
100
AcDbTrace
 10
18.84067405923322
 20
13.55337044764906
 30
0.0
 11
18.84067405923322
 21
13.47261131360099
 31
0.0
 12
19.08295146137743
 22
13.51299088062502
 32
0.0
 13
19.08295146137743
 23
13.51299088062502
 33
0.0
  0
MTEXT
  5
1196
330
109D
100
AcDbEntity
  8
Dimension (ANSI)
440
 16777216
100
AcDbMText
 10
17.33789848024628
 20
13.51299088062502
 30
0.0
 40
0.2461538498218243
 41
0.0
 46
0.0
 71
     5
 72
     1
  1
\A1; 10 GA.\P304 S.S.
  7
ROMANS
 73
     1
 44
1.0
  0
POINT
  5
1197
330
109D
100
AcDbEntity
  8
Defpoints
 62
     0
440
 16777216
100
AcDbPoint
 10
19.08295146137743
 20
12.1582054608211
 30
0.0
  0
POINT
  5
1198
330
109D
100
AcDbEntity
  8
Defpoints
 62
     0
440
 16777216
100
AcDbPoint
 10
19.20795146137738
 20
12.5332054608211
 30
0.0
  0
POINT
  5
1199
330
109D
100
AcDbEntity
  8
Defpoints
 62
     0
440
 16777216
100
AcDbPoint
 10
19.20795146137738
 20
13.51299088062502
 30
0.0
  0
ENDBLK
  5
109F
330
109D
100
AcDbEntity
  8
0
100
AcDbBlockEnd
  0
BLOCK
  5
119C
330
119B
100
AcDbEntity
  8
0
100
AcDbBlockBegin
  2
*D19
 70
     1
 10
0.0
 20
0.0
 30
0.0
  3
*D19
  1

  0
LINE
  5
128B
330
119B
100
AcDbEntity
  8
Dimension (ANSI)
440
 16777216
100
AcDbLine
 10
8.781694291897157
 20
10.96214504790776
 30
0.0
 11
9.05863948760874
 21
10.96214504790776
 31
0.0
  0
LINE
  5
128C
330
119B
100
AcDbEntity
  8
Dimension (ANSI)
440
 16777216
100
AcDbLine
 10
9.300916889752953
 20
10.96214504790776
 30
0.0
 11
9.735894893443349
 21
10.96214504790776
 31
0.0
  0
SOLID
  5
128D
330
119B
100
AcDbEntity
  8
Dimension (ANSI)
440
 16777216
100
AcDbTrace
 10
8.781694291897157
 20
11.00252461493179
 30
0.0
 11
8.781694291897157
 21
10.92176548088372
 31
0.0
 12
8.539416889752944
 22
10.96214504790776
 32
0.0
 13
8.539416889752944
 23
10.96214504790776
 33
0.0
  0
SOLID
  5
128E
330
119B
100
AcDbEntity
  8
Dimension (ANSI)
440
 16777216
100
AcDbTrace
 10
9.05863948760874
 20
11.00252461493179
 30
0.0
 11
9.05863948760874
 21
10.92176548088372
 31
0.0
 12
9.300916889752953
 22
10.96214504790776
 32
0.0
 13
9.300916889752953
 23
10.96214504790776
 33
0.0
  0
MTEXT
  5
128F
330
119B
100
AcDbEntity
  8
Dimension (ANSI)
440
 16777216
100
AcDbMText
 10
10.34089619921799
 20
10.96214504790776
 30
0.0
 40
0.2461538498218243
 41
0.0
 46
0.0
 71
     5
 72
     1
  1
\A1;(0.76){\PTYP.}
  7
ROMANS
 73
     1
 44
1.0
  0
POINT
  5
1290
330
119B
100
AcDbEntity
  8
Defpoints
 62
     0
440
 16777216
100
AcDbPoint
 10
9.300916889752953
 20
10.56804619878233
 30
0.0
  0
POINT
  5
1291
330
119B
100
AcDbEntity
  8
Defpoints
 62
     0
440
 16777216
100
AcDbPoint
 10
8.539416889752944
 20
10.57344064359404
 30
0.0
  0
POINT
  5
1292
330
119B
100
AcDbEntity
  8
Defpoints
 62
     0
440
 16777216
100
AcDbPoint
 10
8.539416889752944
 20
10.96214504790776
 30
0.0
  0
ENDBLK
  5
119D
330
119B
100
AcDbEntity
  8
0
100
AcDbBlockEnd
  0
BLOCK
  5
1295
330
1294
100
AcDbEntity
  8
0
100
AcDbBlockBegin
  2
*D20
 70
     1
 10
0.0
 20
0.0
 30
0.0
  3
*D20
  1

  0
LINE
  5
1384
330
1294
100
AcDbEntity
  8
Dimension (ANSI)
440
 16777216
100
AcDbLine
 10
4.929694291897154
 20
10.96214504790776
 30
0.0
 11
5.060518072769205
 21
10.96214504790776
 31
0.0
  0
LINE
  5
1385
330
1294
100
AcDbEntity
  8
Dimension (ANSI)
440
 16777216
100
AcDbLine
 10
8.297139487608731
 20
10.96214504790776
 30
0.0
 11
6.727663548273296
 21
10.96214504790776
 31
0.0
  0
SOLID
  5
1386
330
1294
100
AcDbEntity
  8
Dimension (ANSI)
440
 16777216
100
AcDbTrace
 10
4.929694291897154
 20
11.00252461493179
 30
0.0
 11
4.929694291897154
 21
10.92176548088372
 31
0.0
 12
4.687416889752943
 22
10.96214504790776
 32
0.0
 13
4.687416889752943
 23
10.96214504790776
 33
0.0
  0
SOLID
  5
1387
330
1294
100
AcDbEntity
  8
Dimension (ANSI)
440
 16777216
100
AcDbTrace
 10
8.297139487608731
 20
11.00252461493179
 30
0.0
 11
8.297139487608731
 21
10.92176548088372
 31
0.0
 12
8.539416889752944
 22
10.96214504790776
 32
0.0
 13
8.539416889752944
 23
10.96214504790776
 33
0.0
  0
MTEXT
  5
1388
330
1294
100
AcDbEntity
  8
Dimension (ANSI)
440
 16777216
100
AcDbMText
 10
5.894090810521251
 20
10.96214504790776
 30
0.0
 40
0.2461538498218243
 41
0.0
 46
0.0
 71
     5
 72
     1
  1
\A1;(3.85){\POPENING\P(2 PL.)}
  7
ROMANS
 73
     1
 44
1.0
  0
POINT
  5
1389
330
1294
100
AcDbEntity
  8
Defpoints
 62
     0
440
 16777216
100
AcDbPoint
 10
4.687416889752943
 20
10.57344064359404
 30
0.0
  0
POINT
  5
138A
330
1294
100
AcDbEntity
  8
Defpoints
 62
     0
440
 16777216
100
AcDbPoint
 10
8.539416889752944
 20
10.57344064359404
 30
0.0
  0
POINT
  5
138B
330
1294
100
AcDbEntity
  8
Defpoints
 62
     0
440
 16777216
100
AcDbPoint
 10
8.539416889752944
 20
10.96214504790776
 30
0.0
  0
ENDBLK
  5
1296
330
1294
100
AcDbEntity
  8
0
100
AcDbBlockEnd
  0
BLOCK
  5
138E
330
138D
100
AcDbEntity
  8
0
100
AcDbBlockBegin
  2
*D21
 70
     1
 10
0.0
 20
0.0
 30
0.0
  3
*D21
  1

  0
LINE
  5
147D
330
138D
100
AcDbEntity
  8
Dimension (ANSI)
440
 16777216
100
AcDbLine
 10
7.555063270341231
 20
8.161982862965315
 30
0.0
 11
7.555063270341231
 21
8.982323671846765
 31
0.0
  0
LINE
  5
147E
330
138D
100
AcDbEntity
  8
Dimension (ANSI)
440
 16777216
100
AcDbLine
 10
7.555063270341232
 20
11.53042805867687
 30
0.0
 11
7.555063270341232
 21
10.37987207373648
 31
0.0
  0
SOLID
  5
147F
330
138D
100
AcDbEntity
  8
Dimension (ANSI)
440
 16777216
100
AcDbTrace
 10
7.514683703317196
 20
8.161982862965315
 30
0.0
 11
7.595442837365267
 21
8.161982862965315
 31
0.0
 12
7.555063270341231
 22
7.919705460821102
 32
0.0
 13
7.555063270341231
 23
7.919705460821102
 33
0.0
  0
SOLID
  5
1480
330
138D
100
AcDbEntity
  8
Dimension (ANSI)
440
 16777216
100
AcDbTrace
 10
7.514683703317197
 20
11.53042805867687
 30
0.0
 11
7.595442837365268
 21
11.53042805867687
 31
0.0
 12
7.555063270341232
 22
11.77270546082108
 32
0.0
 13
7.555063270341232
 23
11.77270546082108
 33
0.0
  0
MTEXT
  5
1481
330
138D
100
AcDbEntity
  8
Dimension (ANSI)
440
 16777216
100
AcDbMText
 10
7.55506327034123
 20
9.681097872791623
 30
0.0
 40
0.2461538498218243
 41
0.0
 46
0.0
 71
     5
 72
     1
  1
\A1;(3.85){\POPENING\P(2 PL.)}
  7
ROMANS
 73
     1
 44
1.0
  0
POINT
  5
1482
330
138D
100
AcDbEntity
  8
Defpoints
 62
     0
440
 16777216
100
AcDbPoint
 10
7.508040874020394
 20
7.919705460821102
 30
0.0
  0
POINT
  5
1483
330
138D
100
AcDbEntity
  8
Defpoints
 62
     0
440
 16777216
100
AcDbPoint
 10
7.490005329781748
 20
11.77270546082108
 30
0.0
  0
POINT
  5
1484
330
138D
100
AcDbEntity
  8
Defpoints
 62
     0
440
 16777216
100
AcDbPoint
 10
7.555063270341232
 20
11.77270546082108
 30
0.0
  0
ENDBLK
  5
138F
330
138D
100
AcDbEntity
  8
0
100
AcDbBlockEnd
  0
ENDSEC
  0
SECTION
  2
ENTITIES
  0
MTEXT
  5
107
102
{ACAD_XDICTIONARY
360
148A
102
}
330
6C
100
AcDbEntity
  8
Symbol (ANSI)
100
AcDbMText
 10
11.70837579073034
 20
22.77778885246238
 30
0.0
 40
0.2461538540096734
 41
18.06148827383911
 46
0.0
 71
     4
 72
     1
  3
{\fRomanS|b0|i0|c0|p2;\H1.95x;PART#: SSJWL904\P(DATA SUBJECT TO CHANGE WITHOUT NOTICE)\H1.8771x; \H0.53273x;\P\H0.51292x; \H2.4636x; \H0.40591x;\PTHIS DRAWING IS PROPERTY OF hUBBELL INC. WEIGMANN\H1.6952x; \H0.5899x;\PALL INFORMATION IS PROPRIETARY A
  1
ND NOT TO BE DUPLICATED\H1.588x; \H0.62971x;\P\H1.5731x; }
  7
Note Text (ANSI)
 73
     1
 44
0.6453872919082642
  0
LINE
  5
10A
330
6C
100
AcDbEntity
  8
Visible (ANSI)
100
AcDbLine
 10
8.613416889752944
 20
9.751955460821099
 30
0.0
 11
8.539416889752944
 21
9.751955460821099
 31
0.0
  0
LINE
  5
10B
330
6C
100
AcDbEntity
  8
Visible (ANSI)
100
AcDbLine
 10
8.539416889752944
 20
9.751955460821099
 30
0.0
 11
8.539416889752944
 21
9.939455460821099
 31
0.0
  0
LINE
  5
10C
330
6C
100
AcDbEntity
  8
Visible (ANSI)
100
AcDbLine
 10
8.613416889752944
 20
9.939455460821099
 30
0.0
 11
8.613416889752944
 21
9.9040804608211
 31
0.0
  0
LINE
  5
10D
330
6C
100
AcDbEntity
  8
Visible (ANSI)
100
AcDbLine
 10
8.613416889752944
 20
9.787330460821108
 30
0.0
 11
8.613416889752944
 21
9.751955460821099
 31
0.0
  0
LINE
  5
10E
330
6C
100
AcDbEntity
  8
Visible (ANSI)
100
AcDbLine
 10
8.539416889752944
 20
9.939455460821099
 30
0.0
 11
8.613416889752944
 21
9.939455460821099
 31
0.0
  0
LINE
  5
10F
330
6C
100
AcDbEntity
  8
Visible (ANSI)
100
AcDbLine
 10
8.539416889752944
 20
9.751955460821099
 30
0.0
 11
8.539416889752944
 21
7.9197054608211
 31
0.0
  0
LINE
  5
110
330
6C
100
AcDbEntity
  8
Visible (ANSI)
100
AcDbLine
 10
8.539416889752944
 20
7.9197054608211
 30
0.0
 11
8.613416889752944
 21
7.9197054608211
 31
0.0
  0
LINE
  5
111
330
6C
100
AcDbEntity
  8
Visible (ANSI)
100
AcDbLine
 10
8.613416889752944
 20
7.9197054608211
 30
0.0
 11
8.613416889752944
 21
9.751955460821099
 31
0.0
  0
LINE
  5
112
330
6C
100
AcDbEntity
  8
Visible (ANSI)
100
AcDbLine
 10
8.613416889752944
 20
9.939455460821099
 30
0.0
 11
8.613416889752944
 21
11.7717054608211
 31
0.0
  0
LINE
  5
113
330
6C
100
AcDbEntity
  8
Visible (ANSI)
100
AcDbLine
 10
8.539416889752944
 20
11.7717054608211
 30
0.0
 11
8.613416889752944
 21
11.7717054608211
 31
0.0
  0
LINE
  5
114
330
6C
100
AcDbEntity
  8
Visible (ANSI)
100
AcDbLine
 10
8.539416889752944
 20
11.7717054608211
 30
0.0
 11
8.539416889752944
 21
9.939455460821099
 31
0.0
  0
LINE
  5
115
330
6C
100
AcDbEntity
  8
Visible (ANSI)
100
AcDbLine
 10
8.613416889752944
 20
14.3457054608211
 30
0.0
 11
8.613416889752944
 21
14.7092054608211
 31
0.0
  0
LINE
  5
116
330
6C
100
AcDbEntity
  8
Visible (ANSI)
100
AcDbLine
 10
8.613416889752944
 20
11.7717054608211
 30
0.0
 11
8.613416889752944
 21
11.7968458256056
 31
0.0
  0
LINE
  5
117
330
6C
100
AcDbEntity
  8
Visible (ANSI)
100
AcDbLine
 10
8.613416889752944
 20
12.5332054608211
 30
0.0
 11
8.613416889752944
 21
14.3457054608211
 31
0.0
  0
LINE
  5
118
330
6C
100
AcDbEntity
  8
Visible (ANSI)
100
AcDbLine
 10
8.539416889752944
 20
14.3457054608211
 30
0.0
 11
8.613416889752944
 21
14.3457054608211
 31
0.0
  0
LINE
  5
119
330
6C
100
AcDbEntity
  8
Visible (ANSI)
100
AcDbLine
 10
8.539416889752944
 20
11.77270546082108
 30
0.0
 11
8.539416889752944
 21
11.7717054608211
 31
0.0
  0
LINE
  5
11A
330
6C
100
AcDbEntity
  8
Visible (ANSI)
100
AcDbLine
 10
6.519666889752935
 20
7.845705460821103
 30
0.0
 11
6.519666889752935
 21
7.919705460821102
 31
0.0
  0
LINE
  5
11B
330
6C
100
AcDbEntity
  8
Visible (ANSI)
100
AcDbLine
 10
6.519666889752935
 20
7.919705460821102
 30
0.0
 11
6.707166889752934
 21
7.919705460821102
 31
0.0
  0
LINE
  5
11C
330
6C
100
AcDbEntity
  8
Visible (ANSI)
100
AcDbLine
 10
6.707166889752934
 20
7.845705460821103
 30
0.0
 11
6.671791889752936
 21
7.845705460821103
 31
0.0
  0
LINE
  5
11D
330
6C
100
AcDbEntity
  8
Visible (ANSI)
100
AcDbLine
 10
6.555041889752941
 20
7.845705460821103
 30
0.0
 11
6.519666889752935
 21
7.845705460821103
 31
0.0
  0
LINE
  5
11E
330
6C
100
AcDbEntity
  8
Visible (ANSI)
100
AcDbLine
 10
6.707166889752934
 20
7.919705460821102
 30
0.0
 11
6.707166889752934
 21
7.845705460821103
 31
0.0
  0
LINE
  5
11F
330
6C
100
AcDbEntity
  8
Visible (ANSI)
100
AcDbLine
 10
4.718666889752942
 20
7.845705460821106
 30
0.0
 11
6.519666889752935
 21
7.845705460821103
 31
0.0
  0
LINE
  5
120
330
6C
100
AcDbEntity
  8
Visible (ANSI)
100
AcDbLine
 10
6.707166889752934
 20
7.845705460821103
 30
0.0
 11
8.539416889752928
 21
7.8457054608211
 31
0.0
  0
LINE
  5
121
330
6C
100
AcDbEntity
  8
Visible (ANSI)
100
AcDbLine
 10
6.519666889752935
 20
7.919705460821102
 30
0.0
 11
4.718666889752942
 21
7.919705460821105
 31
0.0
  0
LINE
  5
122
330
6C
100
AcDbEntity
  8
Visible (ANSI)
100
AcDbLine
 10
8.539416889752928
 20
7.919705460821099
 30
0.0
 11
6.707166889752934
 21
7.919705460821102
 31
0.0
  0
LINE
  5
123
330
6C
100
AcDbEntity
  8
Visible (ANSI)
100
AcDbLine
 10
8.539416889752928
 20
7.919705460821099
 30
0.0
 11
8.539416889752928
 21
7.8457054608211
 31
0.0
  0
LINE
  5
124
330
6C
100
AcDbEntity
  8
Visible (ANSI)
100
AcDbLine
 10
4.613416889752943
 20
9.939455460821095
 30
0.0
 11
4.687416889752942
 21
9.939455460821095
 31
0.0
  0
LINE
  5
125
330
6C
100
AcDbEntity
  8
Visible (ANSI)
100
AcDbLine
 10
4.687416889752942
 20
9.751955460821097
 30
0.0
 11
4.613416889752943
 21
9.751955460821097
 31
0.0
  0
LINE
  5
126
330
6C
100
AcDbEntity
  8
Visible (ANSI)
100
AcDbLine
 10
4.687416889752942
 20
9.939455460821095
 30
0.0
 11
4.687416889752942
 21
9.751955460821097
 31
0.0
  0
LINE
  5
127
330
6C
100
AcDbEntity
  8
Visible (ANSI)
100
AcDbLine
 10
4.613416889752943
 20
9.751955460821097
 30
0.0
 11
4.613416889752943
 21
9.787330460821092
 31
0.0
  0
LINE
  5
128
330
6C
100
AcDbEntity
  8
Visible (ANSI)
100
AcDbLine
 10
4.613416889752943
 20
9.9040804608211
 30
0.0
 11
4.613416889752943
 21
9.939455460821095
 31
0.0
  0
LINE
  5
129
330
6C
100
AcDbEntity
  8
Visible (ANSI)
100
AcDbLine
 10
4.687416889752942
 20
11.77170546082109
 30
0.0
 11
4.687416889752942
 21
11.77270546082107
 31
0.0
  0
LINE
  5
12A
330
6C
100
AcDbEntity
  8
Visible (ANSI)
100
AcDbLine
 10
4.687416889752942
 20
9.939455460821095
 30
0.0
 11
4.687416889752942
 21
11.77170546082109
 31
0.0
  0
LINE
  5
12B
330
6C
100
AcDbEntity
  8
Visible (ANSI)
100
AcDbLine
 10
4.687416889752942
 20
7.950955460821106
 30
0.0
 11
4.687416889752942
 21
9.751955460821097
 31
0.0
  0
LINE
  5
12C
330
6C
100
AcDbEntity
  8
Visible (ANSI)
100
AcDbLine
 10
4.613416889752943
 20
9.751955460821097
 30
0.0
 11
4.613416889752943
 21
7.950955460821106
 31
0.0
  0
LINE
  5
12D
330
6C
100
AcDbEntity
  8
Visible (ANSI)
100
AcDbLine
 10
4.613416889752943
 20
11.77170546082109
 30
0.0
 11
4.613416889752943
 21
9.939455460821095
 31
0.0
  0
LINE
  5
12E
330
6C
100
AcDbEntity
  8
Visible (ANSI)
100
AcDbLine
 10
4.613416889752943
 20
14.34570546082108
 30
0.0
 11
4.613416889752943
 21
12.53320546082108
 31
0.0
  0
LINE
  5
12F
330
6C
100
AcDbEntity
  8
Visible (ANSI)
100
AcDbLine
 10
4.613416889752943
 20
11.79684582560557
 30
0.0
 11
4.613416889752943
 21
11.77170546082109
 31
0.0
  0
LINE
  5
130
330
6C
100
AcDbEntity
  8
Visible (ANSI)
100
AcDbLine
 10
4.613416889752943
 20
14.70920546082107
 30
0.0
 11
4.613416889752943
 21
14.34570546082108
 31
0.0
  0
LINE
  5
131
330
6C
100
AcDbEntity
  8
Visible (ANSI)
100
AcDbLine
 10
4.613416889752943
 20
11.77170546082109
 30
0.0
 11
4.687416889752942
 21
11.77170546082109
 31
0.0
  0
LINE
  5
132
330
6C
100
AcDbEntity
  8
Visible (ANSI)
100
AcDbLine
 10
4.613416889752943
 20
14.34570546082108
 30
0.0
 11
4.687416889752943
 21
14.34570546082108
 31
0.0
  0
ARC
  5
133
330
6C
100
AcDbEntity
  8
Visible (ANSI)
100
AcDbCircle
 10
4.718666889752942
 20
7.950955460821106
 30
0.0
 40
0.1052499999999996
100
AcDbArc
 50
180.0
 51
270.0
  0
ARC
  5
134
330
6C
100
AcDbEntity
  8
Visible (ANSI)
100
AcDbCircle
 10
4.718666889752942
 20
7.950955460821106
 30
0.0
 40
0.0312499999999999
100
AcDbArc
 50
180.0
 51
270.0
  0
LINE
  5
135
330
6C
100
AcDbEntity
  8
Visible (ANSI)
100
AcDbLine
 10
8.53941688975299
 20
11.84670546082108
 30
0.0
 11
8.53941688975299
 21
11.77270546082108
 31
0.0
  0
LINE
  5
136
330
6C
100
AcDbEntity
  8
Visible (ANSI)
100
AcDbLine
 10
4.687416889752986
 20
11.84670546082109
 30
0.0
 11
8.53941688975299
 21
11.84670546082108
 31
0.0
  0
LINE
  5
137
330
6C
100
AcDbEntity
  8
Visible (ANSI)
100
AcDbLine
 10
4.687416889752986
 20
11.84670546082109
 30
0.0
 11
4.687416889752986
 21
11.77270546082109
 31
0.0
  0
LINE
  5
138
330
6C
100
AcDbEntity
  8
Visible (ANSI)
100
AcDbLine
 10
4.687416889752986
 20
11.77270546082109
 30
0.0
 11
8.53941688975299
 21
11.77270546082108
 31
0.0
  0
LINE
  5
139
330
6C
100
AcDbEntity
  8
Visible (ANSI)
100
AcDbLine
 10
4.687416889752985
 20
14.7092054608211
 30
0.0
 11
4.687416889752984
 21
14.39017012177988
 31
0.0
  0
LINE
  5
13A
330
6C
100
AcDbEntity
  8
Visible (ANSI)
100
AcDbLine
 10
8.53941688975299
 20
14.70920546082109
 30
0.0
 11
8.539416889752988
 21
14.39017012177987
 31
0.0
  0
LINE
  5
13B
330
6C
100
AcDbEntity
  8
Visible (ANSI)
100
AcDbLine
 10
4.687416889752984
 20
11.84670546082109
 30
0.0
 11
4.687416889752984
 21
11.85585837390901
 31
0.0
  0
LINE
  5
13C
330
6C
100
AcDbEntity
  8
Visible (ANSI)
100
AcDbLine
 10
8.539416889752988
 20
11.84670546082108
 30
0.0
 11
8.539416889752988
 21
11.855858373909
 31
0.0
  0
LINE
  5
13D
330
6C
100
AcDbEntity
  8
Visible (ANSI)
100
AcDbLine
 10
8.539416889752988
 20
14.39017012177987
 30
0.0
 11
8.539416889752988
 21
14.36807303486779
 31
0.0
  0
LINE
  5
13E
330
6C
100
AcDbEntity
  8
Visible (ANSI)
100
AcDbLine
 10
4.687416889752984
 20
14.39017012177988
 30
0.0
 11
4.687416889752984
 21
14.3680730348678
 31
0.0
  0
LINE
  5
13F
330
6C
100
AcDbEntity
  8
Visible (ANSI)
100
AcDbLine
 10
4.687416889752984
 20
11.85585837390901
 30
0.0
 11
4.687416889752984
 21
11.85622044945653
 31
0.0
  0
LINE
  5
140
330
6C
100
AcDbEntity
  8
Visible (ANSI)
100
AcDbLine
 10
4.687416889752984
 20
12.5332054608211
 30
0.0
 11
4.687416889752984
 21
14.3680730348678
 31
0.0
  0
LINE
  5
141
330
6C
100
AcDbEntity
  8
Visible (ANSI)
100
AcDbLine
 10
8.539416889752988
 20
14.36807303486779
 30
0.0
 11
8.539416889752988
 21
12.5332054608211
 31
0.0
  0
LINE
  5
142
330
6C
100
AcDbEntity
  8
Visible (ANSI)
100
AcDbLine
 10
8.539416889752988
 20
11.8562204494565
 30
0.0
 11
8.539416889752988
 21
11.855858373909
 31
0.0
  0
LINE
  5
143
330
6C
100
AcDbEntity
  8
Visible (ANSI)
100
AcDbLine
 10
6.613416889752946
 20
7.904080460821103
 30
0.0
 11
6.539416889752946
 21
7.830080460821104
 31
0.0
  0
LINE
  5
144
330
6C
100
AcDbEntity
  8
Visible (ANSI)
100
AcDbLine
 10
6.687416889752946
 20
7.830080460821104
 30
0.0
 11
6.613416889752946
 21
7.904080460821105
 31
0.0
  0
LINE
  5
145
330
6C
100
AcDbEntity
  8
Visible (ANSI)
100
AcDbLine
 10
4.597791889752945
 20
9.771705460821108
 30
0.0
 11
4.671791889752946
 21
9.845705460821108
 31
0.0
  0
LINE
  5
146
330
6C
100
AcDbEntity
  8
Visible (ANSI)
100
AcDbLine
 10
4.671791889752946
 20
9.845705460821108
 30
0.0
 11
4.597791889752945
 21
9.919705460821109
 31
0.0
  0
LINE
  5
147
330
6C
100
AcDbEntity
  8
Visible (ANSI)
100
AcDbLine
 10
8.629041889752951
 20
9.9197054608211
 30
0.0
 11
8.555041889752949
 21
9.845705460821102
 31
0.0
  0
LINE
  5
148
330
6C
100
AcDbEntity
  8
Visible (ANSI)
100
AcDbLine
 10
8.555041889752949
 20
9.845705460821102
 30
0.0
 11
8.629041889752951
 21
9.771705460821101
 31
0.0
  0
LINE
  5
149
330
6C
100
AcDbEntity
  8
Visible (ANSI)
100
AcDbLine
 10
6.539416889752946
 20
7.830080460821104
 30
0.0
 11
4.722791889752944
 21
7.830080460821108
 31
0.0
  0
LINE
  5
14A
330
6C
100
AcDbEntity
  8
Visible (ANSI)
100
AcDbLine
 10
8.504041889752949
 20
7.8300804608211
 30
0.0
 11
6.687416889752946
 21
7.830080460821104
 31
0.0
  0
LINE
  5
14B
330
6C
100
AcDbEntity
  8
Visible (ANSI)
100
AcDbLine
 10
4.597791889752945
 20
9.919705460821109
 30
0.0
 11
4.597791889752945
 21
11.73633046082111
 31
0.0
  0
LINE
  5
14C
330
6C
100
AcDbEntity
  8
Visible (ANSI)
100
AcDbLine
 10
4.597791889752944
 20
7.955080460821108
 30
0.0
 11
4.597791889752945
 21
9.771705460821108
 31
0.0
  0
LINE
  5
14D
330
6C
100
AcDbEntity
  8
Visible (ANSI)
100
AcDbLine
 10
8.629041889752953
 20
11.7363304608211
 30
0.0
 11
8.629041889752951
 21
9.9197054608211
 31
0.0
  0
LINE
  5
14E
330
6C
100
AcDbEntity
  8
Visible (ANSI)
100
AcDbLine
 10
8.629041889752951
 20
9.771705460821101
 30
0.0
 11
8.629041889752951
 21
7.9550804608211
 31
0.0
  0
ARC
  5
14F
330
6C
100
AcDbEntity
  8
Visible (ANSI)
100
AcDbCircle
 10
4.722791889752944
 20
7.955080460821108
 30
0.0
 40
0.1250000000000001
100
AcDbArc
 50
180.0
 51
270.0
  0
ARC
  5
150
330
6C
100
AcDbEntity
  8
Visible (ANSI)
100
AcDbCircle
 10
4.722791889752946
 20
11.73633046082111
 30
0.0
 40
0.1250000000000001
100
AcDbArc
 50
90.00000000000039
 51
180.0
  0
LINE
  5
151
330
6C
100
AcDbEntity
  8
Visible (ANSI)
100
AcDbLine
 10
4.722791889752947
 20
11.86133046082111
 30
0.0
 11
8.504041889752951
 21
11.8613304608211
 31
0.0
  0
ARC
  5
152
330
6C
100
AcDbEntity
  8
Visible (ANSI)
100
AcDbCircle
 10
8.504041889752953
 20
11.7363304608211
 30
0.0
 40
0.124999999999999
100
AcDbArc
 50
0.0
 51
90.0
  0
ARC
  5
153
330
6C
100
AcDbEntity
  8
Visible (ANSI)
100
AcDbCircle
 10
8.504041889752951
 20
7.9550804608211
 30
0.0
 40
0.1249999999999994
100
AcDbArc
 50
269.9999999999992
 51
0.0
  0
ARC
  5
154
330
6C
100
AcDbEntity
  8
Visible (ANSI)
100
AcDbCircle
 10
4.300916889752945
 20
7.533205460821109
 30
0.0
 40
0.3750000000000022
100
AcDbArc
 50
180.0
 51
270.0
  0
LINE
  5
155
330
6C
100
AcDbEntity
  8
Visible (ANSI)
100
AcDbLine
 10
3.925916889752944
 20
7.533205460821109
 30
0.0
 11
3.925916889752946
 21
12.15820546082111
 31
0.0
  0
ARC
  5
156
330
6C
100
AcDbEntity
  8
Visible (ANSI)
100
AcDbCircle
 10
4.300916889752945
 20
12.15820546082111
 30
0.0
 40
0.3750000000000004
100
AcDbArc
 50
89.99999999999975
 51
180.0
  0
LINE
  5
157
330
6C
100
AcDbEntity
  8
Visible (ANSI)
100
AcDbLine
 10
4.300916889752947
 20
12.53320546082111
 30
0.0
 11
8.925916889752953
 21
12.5332054608211
 31
0.0
  0
ARC
  5
158
330
6C
100
AcDbEntity
  8
Visible (ANSI)
100
AcDbCircle
 10
8.925916889752951
 20
12.1582054608211
 30
0.0
 40
0.3750000000000011
100
AcDbArc
 50
0.0
 51
90.0
  0
LINE
  5
159
330
6C
100
AcDbEntity
  8
Visible (ANSI)
100
AcDbLine
 10
9.300916889752953
 20
12.1582054608211
 30
0.0
 11
9.300916889752951
 21
7.533205460821099
 31
0.0
  0
ARC
  5
15A
330
6C
100
AcDbEntity
  8
Visible (ANSI)
100
AcDbCircle
 10
8.925916889752951
 20
7.5332054608211
 30
0.0
 40
0.3750000000000011
100
AcDbArc
 50
270.0
 51
0.0
  0
LINE
  5
15B
330
6C
100
AcDbEntity
  8
Visible (ANSI)
100
AcDbLine
 10
8.925916889752949
 20
7.1582054608211
 30
0.0
 11
4.300916889752944
 21
7.158205460821108
 31
0.0
  0
CIRCLE
  5
15C
330
6C
100
AcDbEntity
  8
Visible (ANSI)
100
AcDbCircle
 10
4.300916889752945
 20
12.15820546082111
 30
0.0
 40
0.1406250000000003
  0
CIRCLE
  5
15D
330
6C
100
AcDbEntity
  8
Visible (ANSI)
100
AcDbCircle
 10
8.925916889752951
 20
12.1582054608211
 30
0.0
 40
0.1406250000000003
  0
CIRCLE
  5
15E
330
6C
100
AcDbEntity
  8
Visible (ANSI)
100
AcDbCircle
 10
4.300916889752943
 20
7.533205460821109
 30
0.0
 40
0.1406250000000003
  0
CIRCLE
  5
15F
330
6C
100
AcDbEntity
  8
Visible (ANSI)
100
AcDbCircle
 10
8.925916889752949
 20
7.5332054608211
 30
0.0
 40
0.1406250000000003
  0
LINE
  5
160
330
6C
100
AcDbEntity
  8
Visible (ANSI)
100
AcDbLine
 10
9.300916889752937
 20
14.7092054608211
 30
0.0
 11
9.300916889752937
 21
14.8342054608211
 31
0.0
  0
LINE
  5
161
330
6C
100
AcDbEntity
  8
Visible (ANSI)
100
AcDbLine
 10
8.925916889752935
 20
14.8342054608211
 30
0.0
 11
9.300916889752937
 21
14.8342054608211
 31
0.0
  0
LINE
  5
162
330
6C
100
AcDbEntity
  8
Visible (ANSI)
100
AcDbLine
 10
9.300916889752938
 20
14.7092054608211
 30
0.0
 11
8.925916889752937
 21
14.7092054608211
 31
0.0
  0
LINE
  5
163
330
6C
100
AcDbEntity
  8
Visible (ANSI)
100
AcDbLine
 10
8.925916889752937
 20
14.8342054608211
 30
0.0
 11
4.300916889752933
 21
14.8342054608211
 31
0.0
  0
LINE
  5
164
330
6C
100
AcDbEntity
  8
Visible (ANSI)
100
AcDbLine
 10
4.300916889752933
 20
14.7092054608211
 30
0.0
 11
8.925916889752937
 21
14.7092054608211
 31
0.0
  0
LINE
  5
165
330
6C
100
AcDbEntity
  8
Visible (ANSI)
100
AcDbLine
 10
3.925916889752933
 20
14.8342054608211
 30
0.0
 11
4.300916889752933
 21
14.8342054608211
 31
0.0
  0
LINE
  5
166
330
6C
100
AcDbEntity
  8
Visible (ANSI)
100
AcDbLine
 10
3.925916889752933
 20
14.7092054608211
 30
0.0
 11
3.925916889752933
 21
14.8342054608211
 31
0.0
  0
LINE
  5
167
330
6C
100
AcDbEntity
  8
Visible (ANSI)
100
AcDbLine
 10
4.300916889752934
 20
14.7092054608211
 30
0.0
 11
3.925916889752933
 21
14.7092054608211
 31
0.0
  0
MTEXT
  5
169
330
6C
100
AcDbEntity
  8
Symbol (ANSI)
100
AcDbMText
 10
5.725928634123867
 20
4.113446132638721
 30
0.0
 40
0.2953846190352645
 41
0.0
 46
0.0
 71
     7
 72
     1
  1
FRONT VIEW
  7
Text Style168
 73
     1
 44
1.0
  0
LINE
  5
16B
330
6C
100
AcDbEntity
  8
Symbol (ANSI)
370
    30
100
AcDbLine
 10
5.696390096601684
 20
4.053208256023608
 30
0.0
 11
8.071196260997197
 21
4.053208256023608
 31
0.0
  0
LINE
  5
16C
330
6C
100
AcDbEntity
  8
Visible (ANSI)
100
AcDbLine
 10
25.96620146137719
 20
7.919705460821099
 30
0.0
 11
19.20795146137722
 21
7.919705460821099
 31
0.0
  0
LINE
  5
16D
330
6C
100
AcDbEntity
  8
Visible (ANSI)
100
AcDbLine
 10
22.14545146137719
 20
14.3457054608211
 30
0.0
 11
22.14545146137719
 21
14.7092054608211
 31
0.0
  0
LINE
  5
16E
330
6C
100
AcDbEntity
  8
Visible (ANSI)
100
AcDbLine
 10
19.57145146137719
 20
11.77170546082109
 30
0.0
 11
22.14545146137719
 21
14.3457054608211
 31
0.0
  0
LINE
  5
16F
330
6C
100
AcDbEntity
  8
Visible (ANSI)
100
AcDbLine
 10
19.20795146137723
 20
11.77170546082109
 30
0.0
 11
19.57145146137719
 21
11.77170546082109
 31
0.0
  0
LINE
  5
170
330
6C
100
AcDbEntity
  8
Visible (ANSI)
100
AcDbLine
 10
26.07145146137716
 20
14.7092054608211
 30
0.0
 11
26.07145146137716
 21
7.919705460821099
 31
0.0
  0
LINE
  5
171
330
6C
100
AcDbEntity
  8
Visible (ANSI)
100
AcDbLine
 10
25.96620146137719
 20
7.919705460821099
 30
0.0
 11
26.07145146137716
 21
7.919705460821099
 31
0.0
  0
LINE
  5
172
330
6C
100
AcDbEntity
  8
Visible (ANSI)
100
AcDbLine
 10
19.20795146137724
 20
7.845705460821098
 30
0.0
 11
25.99745146137718
 21
7.845705460821098
 31
0.0
  0
LINE
  5
173
330
6C
100
AcDbEntity
  8
Visible (ANSI)
100
AcDbLine
 10
25.99745146137718
 20
7.919705460821097
 30
0.0
 11
25.99745146137718
 21
7.845705460821098
 31
0.0
  0
ARC
  5
174
330
6C
100
AcDbEntity
  8
Visible (ANSI)
100
AcDbCircle
 10
19.52885548393743
 20
11.87795546082107
 30
0.0
 40
0.1052499999999993
100
AcDbArc
 50
270.0
 51
315.0
  0
ARC
  5
175
330
6C
100
AcDbEntity
  8
Visible (ANSI)
100
AcDbCircle
 10
19.52885548393743
 20
11.87795546082107
 30
0.0
 40
0.031249999999999
100
AcDbArc
 50
270.0
 51
315.0
  0
ARC
  5
176
330
6C
100
AcDbEntity
  8
Visible (ANSI)
100
AcDbCircle
 10
22.04107014489622
 20
14.39017012177987
 30
0.0
 40
0.1052500000000022
100
AcDbArc
 50
315.0000000000013
 51
352.6335791466312
  0
ARC
  5
177
330
6C
100
AcDbEntity
  8
Visible (ANSI)
100
AcDbCircle
 10
22.04107014489622
 20
14.39017012177987
 30
0.0
 40
0.031250000000001
100
AcDbArc
 50
315.0000000000045
 51
0.0
  0
LINE
  5
178
330
6C
100
AcDbEntity
  8
Visible (ANSI)
100
AcDbLine
 10
19.2079514613772
 20
11.84670546082108
 30
0.0
 11
19.52885548393742
 21
11.84670546082108
 31
0.0
  0
LINE
  5
179
330
6C
100
AcDbEntity
  8
Visible (ANSI)
100
AcDbLine
 10
19.2079514613772
 20
11.77270546082108
 30
0.0
 11
19.52885548393743
 21
11.77270546082108
 31
0.0
  0
LINE
  5
17A
330
6C
100
AcDbEntity
  8
Visible (ANSI)
100
AcDbLine
 10
22.07232014489623
 20
14.70920546082109
 30
0.0
 11
22.07232014489623
 21
14.39017012177987
 31
0.0
  0
LINE
  5
17B
330
6C
100
AcDbEntity
  8
Visible (ANSI)
100
AcDbLine
 10
22.0631672318083
 20
14.36807303486779
 30
0.0
 11
19.5509525708495
 21
11.855858373909
 31
0.0
  0
LINE
  5
17C
330
6C
100
AcDbEntity
  8
Visible (ANSI)
100
AcDbLine
 10
19.20795146137732
 20
12.5332054608211
 30
0.0
 11
19.08295146137732
 21
12.5332054608211
 31
0.0
  0
LINE
  5
17D
330
6C
100
AcDbEntity
  8
Visible (ANSI)
100
AcDbLine
 10
19.08295146137743
 20
12.1582054608211
 30
0.0
 11
19.08295146137732
 21
12.5332054608211
 31
0.0
  0
LINE
  5
17E
330
6C
100
AcDbEntity
  8
Visible (ANSI)
100
AcDbLine
 10
19.20795146137732
 20
12.5332054608211
 30
0.0
 11
19.20795146137743
 21
12.1582054608211
 31
0.0
  0
LINE
  5
17F
330
6C
100
AcDbEntity
  8
Visible (ANSI)
100
AcDbLine
 10
19.08295146137743
 20
12.1582054608211
 30
0.0
 11
19.08295146137743
 21
7.533205460821097
 31
0.0
  0
LINE
  5
180
330
6C
100
AcDbEntity
  8
Visible (ANSI)
100
AcDbLine
 10
19.20795146137743
 20
7.533205460821098
 30
0.0
 11
19.20795146137743
 21
12.1582054608211
 31
0.0
  0
LINE
  5
181
330
6C
100
AcDbEntity
  8
Visible (ANSI)
100
AcDbLine
 10
19.08295146137731
 20
7.158205460821097
 30
0.0
 11
19.08295146137743
 21
7.533205460821098
 31
0.0
  0
LINE
  5
182
330
6C
100
AcDbEntity
  8
Visible (ANSI)
100
AcDbLine
 10
19.20795146137731
 20
7.158205460821099
 30
0.0
 11
19.08295146137731
 21
7.158205460821099
 31
0.0
  0
LINE
  5
183
330
6C
100
AcDbEntity
  8
Visible (ANSI)
100
AcDbLine
 10
19.20795146137743
 20
7.533205460821098
 30
0.0
 11
19.20795146137731
 21
7.158205460821097
 31
0.0
  0
LINE
  5
184
330
6C
100
AcDbEntity
  8
Visible (ANSI)
100
AcDbLine
 10
26.38395146137741
 20
14.8342054608211
 30
0.0
 11
26.7589514613773
 21
14.8342054608211
 31
0.0
  0
LINE
  5
185
330
6C
100
AcDbEntity
  8
Visible (ANSI)
100
AcDbLine
 10
26.7589514613773
 20
14.7092054608211
 30
0.0
 11
26.38395146137741
 21
14.7092054608211
 31
0.0
  0
LINE
  5
186
330
6C
100
AcDbEntity
  8
Visible (ANSI)
100
AcDbLine
 10
26.75895146137729
 20
14.7092054608211
 30
0.0
 11
26.75895146137729
 21
14.8342054608211
 31
0.0
  0
LINE
  5
187
330
6C
100
AcDbEntity
  8
Visible (ANSI)
100
AcDbLine
 10
26.38395146137741
 20
14.8342054608211
 30
0.0
 11
21.75895146137742
 21
14.8342054608211
 31
0.0
  0
LINE
  5
188
330
6C
100
AcDbEntity
  8
Visible (ANSI)
100
AcDbLine
 10
21.75895146137742
 20
14.7092054608211
 30
0.0
 11
26.38395146137741
 21
14.7092054608211
 31
0.0
  0
LINE
  5
189
330
6C
100
AcDbEntity
  8
Visible (ANSI)
100
AcDbLine
 10
21.3839514613773
 20
14.8342054608211
 30
0.0
 11
21.75895146137742
 21
14.8342054608211
 31
0.0
  0
LINE
  5
18A
330
6C
100
AcDbEntity
  8
Visible (ANSI)
100
AcDbLine
 10
21.3839514613773
 20
14.7092054608211
 30
0.0
 11
21.3839514613773
 21
14.8342054608211
 31
0.0
  0
LINE
  5
18B
330
6C
100
AcDbEntity
  8
Visible (ANSI)
100
AcDbLine
 10
21.75895146137742
 20
14.7092054608211
 30
0.0
 11
21.3839514613773
 21
14.7092054608211
 31
0.0
  0
MTEXT
  5
18C
330
6C
100
AcDbEntity
  8
Symbol (ANSI)
100
AcDbMText
 10
21.14886637592412
 20
4.305987076539856
 30
0.0
 40
0.2953846190352645
 41
0.0
 46
0.0
 71
     7
 72
     1
  1
RIGHT SIDE VIEW
  7
Text Style168
 73
     1
 44
1.0
  0
LINE
  5
18D
330
6C
100
AcDbEntity
  8
Symbol (ANSI)
370
    30
100
AcDbLine
 10
21.11932783840194
 20
4.245270456573175
 30
0.0
 11
24.42864079400295
 21
4.245270456573175
 31
0.0
  0
LINE
  5
18E
330
6C
100
AcDbEntity
  8
Visible (ANSI)
100
AcDbLine
 10
6.707166889756812
 20
24.34841156767431
 30
0.0
 11
6.707166889756812
 21
24.27441156767431
 31
0.0
  0
LINE
  5
18F
330
6C
100
AcDbEntity
  8
Visible (ANSI)
100
AcDbLine
 10
6.519666889756812
 20
24.27441156767431
 30
0.0
 11
6.519666889756812
 21
24.34841156767431
 31
0.0
  0
LINE
  5
190
330
6C
100
AcDbEntity
  8
Visible (ANSI)
100
AcDbLine
 10
6.707166889756812
 20
24.27441156767429
 30
0.0
 11
6.519666889756812
 21
24.27441156767429
 31
0.0
  0
LINE
  5
191
330
6C
100
AcDbEntity
  8
Visible (ANSI)
100
AcDbLine
 10
6.519666889756812
 20
24.3484115676743
 30
0.0
 11
6.555041889756807
 21
24.3484115676743
 31
0.0
  0
LINE
  5
192
330
6C
100
AcDbEntity
  8
Visible (ANSI)
100
AcDbLine
 10
6.671791889756799
 20
24.3484115676743
 30
0.0
 11
6.707166889756812
 21
24.3484115676743
 31
0.0
  0
LINE
  5
193
330
6C
100
AcDbEntity
  8
Visible (ANSI)
100
AcDbLine
 10
6.519666889756812
 20
24.34841156767431
 30
0.0
 11
4.687416889756812
 21
24.34841156767431
 31
0.0
  0
LINE
  5
194
330
6C
100
AcDbEntity
  8
Visible (ANSI)
100
AcDbLine
 10
4.687416889756812
 20
24.27441156767431
 30
0.0
 11
4.687416889756812
 21
24.34841156767431
 31
0.0
  0
LINE
  5
195
330
6C
100
AcDbEntity
  8
Visible (ANSI)
100
AcDbLine
 10
4.687416889756812
 20
24.27441156767431
 30
0.0
 11
6.519666889756812
 21
24.27441156767431
 31
0.0
  0
LINE
  5
196
330
6C
100
AcDbEntity
  8
Visible (ANSI)
100
AcDbLine
 10
6.707166889756812
 20
24.27441156767431
 30
0.0
 11
8.508166889756811
 21
24.27441156767431
 31
0.0
  0
LINE
  5
197
330
6C
100
AcDbEntity
  8
Visible (ANSI)
100
AcDbLine
 10
8.508166889756811
 20
24.34841156767431
 30
0.0
 11
6.707166889756812
 21
24.34841156767431
 31
0.0
  0
LINE
  5
198
330
6C
100
AcDbEntity
  8
Visible (ANSI)
100
AcDbLine
 10
8.613416889756813
 20
22.25466156767431
 30
0.0
 11
8.539416889756811
 21
22.25466156767431
 31
0.0
  0
LINE
  5
199
330
6C
100
AcDbEntity
  8
Visible (ANSI)
100
AcDbLine
 10
8.539416889756811
 20
22.44216156767431
 30
0.0
 11
8.613416889756813
 21
22.44216156767431
 31
0.0
  0
LINE
  5
19A
330
6C
100
AcDbEntity
  8
Visible (ANSI)
100
AcDbLine
 10
8.539416889756811
 20
22.2546615676743
 30
0.0
 11
8.539416889756811
 21
22.44216156767429
 31
0.0
  0
LINE
  5
19B
330
6C
100
AcDbEntity
  8
Visible (ANSI)
100
AcDbLine
 10
8.613416889756813
 20
22.44216156767429
 30
0.0
 11
8.613416889756813
 21
22.40678656767431
 31
0.0
  0
LINE
  5
19C
330
6C
100
AcDbEntity
  8
Visible (ANSI)
100
AcDbLine
 10
8.613416889756813
 20
22.29003656767429
 30
0.0
 11
8.613416889756813
 21
22.2546615676743
 31
0.0
  0
LINE
  5
19D
330
6C
100
AcDbEntity
  8
Visible (ANSI)
100
AcDbLine
 10
8.613416889756813
 20
22.44216156767431
 30
0.0
 11
8.613416889756813
 21
24.24316156767432
 31
0.0
  0
LINE
  5
19E
330
6C
100
AcDbEntity
  8
Visible (ANSI)
100
AcDbLine
 10
8.613416889756813
 20
20.42241156767431
 30
0.0
 11
8.613416889756813
 21
22.25466156767431
 31
0.0
  0
LINE
  5
19F
330
6C
100
AcDbEntity
  8
Visible (ANSI)
100
AcDbLine
 10
8.613416889756813
 20
17.84841156767342
 30
0.0
 11
8.613416889756813
 21
19.66091156767396
 31
0.0
  0
LINE
  5
1A0
330
6C
100
AcDbEntity
  8
Visible (ANSI)
100
AcDbLine
 10
8.613416889756813
 20
20.39727120288971
 30
0.0
 11
8.613416889756813
 21
20.42241156767419
 31
0.0
  0
LINE
  5
1A1
330
6C
100
AcDbEntity
  8
Visible (ANSI)
100
AcDbLine
 10
8.613416889756813
 20
17.48491156767345
 30
0.0
 11
8.613416889756813
 21
17.84841156767342
 31
0.0
  0
LINE
  5
1A2
330
6C
100
AcDbEntity
  8
Visible (ANSI)
100
AcDbLine
 10
8.539416889756811
 20
24.24316156767432
 30
0.0
 11
8.539416889756811
 21
22.44216156767431
 31
0.0
  0
LINE
  5
1A3
330
6C
100
AcDbEntity
  8
Visible (ANSI)
100
AcDbLine
 10
8.539416889756811
 20
17.84841156767342
 30
0.0
 11
8.613416889756813
 21
17.84841156767342
 31
0.0
  0
LINE
  5
1A4
330
6C
100
AcDbEntity
  8
Visible (ANSI)
100
AcDbLine
 10
8.539416889756811
 20
20.42241156767431
 30
0.0
 11
8.613416889756813
 21
20.42241156767431
 31
0.0
  0
LINE
  5
1A5
330
6C
100
AcDbEntity
  8
Visible (ANSI)
100
AcDbLine
 10
8.539416889756811
 20
22.25466156767431
 30
0.0
 11
8.539416889756811
 21
20.42328025119337
 31
0.0
  0
ARC
  5
1A6
330
6C
100
AcDbEntity
  8
Visible (ANSI)
100
AcDbCircle
 10
8.508166889756811
 20
24.24316156767432
 30
0.0
 40
0.10525
100
AcDbArc
 50
0.0
 51
90.0
  0
ARC
  5
1A7
330
6C
100
AcDbEntity
  8
Visible (ANSI)
100
AcDbCircle
 10
8.508166889756811
 20
24.24316156767432
 30
0.0
 40
0.03125
100
AcDbArc
 50
0.0
 51
90.0
  0
LINE
  5
1A8
330
6C
100
AcDbEntity
  8
Visible (ANSI)
100
AcDbLine
 10
4.613416889756811
 20
22.44216156767432
 30
0.0
 11
4.687416889756811
 21
22.44216156767432
 31
0.0
  0
LINE
  5
1A9
330
6C
100
AcDbEntity
  8
Visible (ANSI)
100
AcDbLine
 10
4.687416889756811
 20
22.25466156767433
 30
0.0
 11
4.613416889756811
 21
22.25466156767432
 31
0.0
  0
LINE
  5
1AA
330
6C
100
AcDbEntity
  8
Visible (ANSI)
100
AcDbLine
 10
4.687416889756811
 20
22.4421615676743
 30
0.0
 11
4.687416889756811
 21
22.2546615676743
 31
0.0
  0
LINE
  5
1AB
330
6C
100
AcDbEntity
  8
Visible (ANSI)
100
AcDbLine
 10
4.613416889756811
 20
22.2546615676743
 30
0.0
 11
4.613416889756811
 21
22.29003656767432
 31
0.0
  0
LINE
  5
1AC
330
6C
100
AcDbEntity
  8
Visible (ANSI)
100
AcDbLine
 10
4.613416889756811
 20
22.40678656767431
 30
0.0
 11
4.613416889756811
 21
22.4421615676743
 31
0.0
  0
LINE
  5
1AD
330
6C
100
AcDbEntity
  8
Visible (ANSI)
100
AcDbLine
 10
4.613416889756811
 20
22.25466156767432
 30
0.0
 11
4.613416889756811
 21
20.42241156767433
 31
0.0
  0
LINE
  5
1AE
330
6C
100
AcDbEntity
  8
Visible (ANSI)
100
AcDbLine
 10
4.613416889756811
 20
20.42241156767433
 30
0.0
 11
4.687416889756811
 21
20.42241156767433
 31
0.0
  0
LINE
  5
1AF
330
6C
100
AcDbEntity
  8
Visible (ANSI)
100
AcDbLine
 10
4.687416889756811
 20
20.42328025119338
 30
0.0
 11
4.687416889756811
 21
22.25466156767433
 31
0.0
  0
LINE
  5
1B0
330
6C
100
AcDbEntity
  8
Visible (ANSI)
100
AcDbLine
 10
4.687416889756811
 20
22.44216156767432
 30
0.0
 11
4.687416889756811
 21
24.27441156767432
 31
0.0
  0
LINE
  5
1B1
330
6C
100
AcDbEntity
  8
Visible (ANSI)
100
AcDbLine
 10
4.613416889756811
 20
24.27441156767432
 30
0.0
 11
4.687416889756811
 21
24.27441156767432
 31
0.0
  0
LINE
  5
1B2
330
6C
100
AcDbEntity
  8
Visible (ANSI)
100
AcDbLine
 10
4.613416889756811
 20
24.27441156767432
 30
0.0
 11
4.613416889756811
 21
22.44216156767432
 31
0.0
  0
LINE
  5
1B3
330
6C
100
AcDbEntity
  8
Visible (ANSI)
100
AcDbLine
 10
4.613416889756811
 20
17.84841156767344
 30
0.0
 11
4.613416889756811
 21
17.48491156767346
 31
0.0
  0
LINE
  5
1B4
330
6C
100
AcDbEntity
  8
Visible (ANSI)
100
AcDbLine
 10
4.613416889756811
 20
20.4224115676742
 30
0.0
 11
4.613416889756811
 21
20.3972712028897
 31
0.0
  0
LINE
  5
1B5
330
6C
100
AcDbEntity
  8
Visible (ANSI)
100
AcDbLine
 10
4.613416889756811
 20
19.66091156767398
 30
0.0
 11
4.613416889756811
 21
17.84841156767344
 31
0.0
  0
LINE
  5
1B6
330
6C
100
AcDbEntity
  8
Visible (ANSI)
100
AcDbLine
 10
4.613416889756811
 20
17.84841156767344
 30
0.0
 11
4.68741688975681
 21
17.84841156767344
 31
0.0
  0
LINE
  5
1B7
330
6C
100
AcDbEntity
  8
Visible (ANSI)
100
AcDbLine
 10
8.539416889756857
 20
17.48491156767348
 30
0.0
 11
8.539416889756855
 21
17.8058155902337
 31
0.0
  0
LINE
  5
1B8
330
6C
100
AcDbEntity
  8
Visible (ANSI)
100
AcDbLine
 10
4.687416889756853
 20
17.48491156767346
 30
0.0
 11
4.687416889756852
 21
17.80581559023369
 31
0.0
  0
LINE
  5
1B9
330
6C
100
AcDbEntity
  8
Visible (ANSI)
100
AcDbLine
 10
4.687416889756853
 20
20.34928025119336
 30
0.0
 11
4.687416889756852
 21
20.42328025119336
 31
0.0
  0
LINE
  5
1BA
330
6C
100
AcDbEntity
  8
Visible (ANSI)
100
AcDbLine
 10
8.539416889756857
 20
20.34928025119337
 30
0.0
 11
4.687416889756852
 21
20.34928025119336
 31
0.0
  0
LINE
  5
1BB
330
6C
100
AcDbEntity
  8
Visible (ANSI)
100
AcDbLine
 10
8.539416889756857
 20
20.34928025119337
 30
0.0
 11
8.539416889756855
 21
20.42328025119337
 31
0.0
  0
LINE
  5
1BC
330
6C
100
AcDbEntity
  8
Visible (ANSI)
100
AcDbLine
 10
8.539416889756855
 20
20.42328025119337
 30
0.0
 11
4.687416889756852
 21
20.42328025119336
 31
0.0
  0
LINE
  5
1BD
330
6C
100
AcDbEntity
  8
Visible (ANSI)
100
AcDbLine
 10
4.687416889756852
 20
17.80581559023369
 30
0.0
 11
4.687416889756852
 21
17.82791267714577
 31
0.0
  0
LINE
  5
1BE
330
6C
100
AcDbEntity
  8
Visible (ANSI)
100
AcDbLine
 10
8.539416889756855
 20
17.8058155902337
 30
0.0
 11
8.539416889756855
 21
17.82791267714578
 31
0.0
  0
LINE
  5
1BF
330
6C
100
AcDbEntity
  8
Visible (ANSI)
100
AcDbLine
 10
8.539416889756855
 20
20.34928025119326
 30
0.0
 11
8.539416889756855
 21
20.34012733810533
 31
0.0
  0
LINE
  5
1C0
330
6C
100
AcDbEntity
  8
Visible (ANSI)
100
AcDbLine
 10
4.687416889756852
 20
20.34928025119324
 30
0.0
 11
4.687416889756852
 21
20.34012733810532
 31
0.0
  0
LINE
  5
1C1
330
6C
100
AcDbEntity
  8
Visible (ANSI)
100
AcDbLine
 10
4.687416889756852
 20
17.82791267714577
 30
0.0
 11
4.687416889756852
 21
19.66091156767399
 31
0.0
  0
LINE
  5
1C2
330
6C
100
AcDbEntity
  8
Visible (ANSI)
100
AcDbLine
 10
4.687416889756852
 20
20.33789657903876
 30
0.0
 11
4.687416889756852
 21
20.34012733810532
 31
0.0
  0
LINE
  5
1C3
330
6C
100
AcDbEntity
  8
Visible (ANSI)
100
AcDbLine
 10
8.539416889756855
 20
20.34012733810533
 30
0.0
 11
8.539416889756855
 21
20.33789657903879
 31
0.0
  0
LINE
  5
1C4
330
6C
100
AcDbEntity
  8
Visible (ANSI)
100
AcDbLine
 10
8.539416889756855
 20
19.66091156767399
 30
0.0
 11
8.539416889756855
 21
17.82791267714578
 31
0.0
  0
LINE
  5
1C5
330
6C
100
AcDbEntity
  8
Visible (ANSI)
100
AcDbLine
 10
3.925916889756812
 20
17.48491156767355
 30
0.0
 11
3.925916889756813
 21
17.35991156767355
 31
0.0
  0
LINE
  5
1C6
330
6C
100
AcDbEntity
  8
Visible (ANSI)
100
AcDbLine
 10
4.300916889756814
 20
17.35991156767366
 30
0.0
 11
3.925916889756813
 21
17.35991156767355
 31
0.0
  0
LINE
  5
1C7
330
6C
100
AcDbEntity
  8
Visible (ANSI)
100
AcDbLine
 10
3.925916889756812
 20
17.48491156767355
 30
0.0
 11
4.300916889756813
 21
17.48491156767366
 31
0.0
  0
LINE
  5
1C8
330
6C
100
AcDbEntity
  8
Visible (ANSI)
100
AcDbLine
 10
4.300916889756813
 20
17.35991156767366
 30
0.0
 11
8.92591688975682
 21
17.35991156767368
 31
0.0
  0
LINE
  5
1C9
330
6C
100
AcDbEntity
  8
Visible (ANSI)
100
AcDbLine
 10
8.92591688975682
 20
17.48491156767368
 30
0.0
 11
4.300916889756813
 21
17.48491156767366
 31
0.0
  0
LINE
  5
1CA
330
6C
100
AcDbEntity
  8
Visible (ANSI)
100
AcDbLine
 10
9.300916889756821
 20
17.35991156767357
 30
0.0
 11
8.92591688975682
 21
17.35991156767368
 31
0.0
  0
LINE
  5
1CB
330
6C
100
AcDbEntity
  8
Visible (ANSI)
100
AcDbLine
 10
9.30091688975682
 20
17.48491156767357
 30
0.0
 11
9.30091688975682
 21
17.35991156767357
 31
0.0
  0
LINE
  5
1CC
330
6C
100
AcDbEntity
  8
Visible (ANSI)
100
AcDbLine
 10
8.925916889756818
 20
17.48491156767368
 30
0.0
 11
9.30091688975682
 21
17.48491156767357
 31
0.0
  0
LINE
  5
1CD
330
6C
100
AcDbEntity
  8
Visible (ANSI)
100
AcDbLine
 10
6.613416889756803
 20
24.29003656767433
 30
0.0
 11
6.687416889756803
 21
24.36403656767434
 31
0.0
  0
LINE
  5
1CE
330
6C
100
AcDbEntity
  8
Visible (ANSI)
100
AcDbLine
 10
6.539416889756803
 20
24.36403656767433
 30
0.0
 11
6.613416889756803
 21
24.29003656767433
 31
0.0
  0
LINE
  5
1CF
330
6C
100
AcDbEntity
  8
Visible (ANSI)
100
AcDbLine
 10
8.629041889756804
 20
22.42241156767434
 30
0.0
 11
8.555041889756804
 21
22.34841156767434
 31
0.0
  0
LINE
  5
1D0
330
6C
100
AcDbEntity
  8
Visible (ANSI)
100
AcDbLine
 10
8.555041889756804
 20
22.34841156767434
 30
0.0
 11
8.629041889756804
 21
22.27441156767434
 31
0.0
  0
LINE
  5
1D1
330
6C
100
AcDbEntity
  8
Visible (ANSI)
100
AcDbLine
 10
4.597791889756801
 20
22.27441156767433
 30
0.0
 11
4.671791889756801
 21
22.34841156767433
 31
0.0
  0
LINE
  5
1D2
330
6C
100
AcDbEntity
  8
Visible (ANSI)
100
AcDbLine
 10
4.671791889756801
 20
22.34841156767433
 30
0.0
 11
4.597791889756801
 21
22.42241156767433
 31
0.0
  0
LINE
  5
1D3
330
6C
100
AcDbEntity
  8
Visible (ANSI)
100
AcDbLine
 10
6.687416889756803
 20
24.36403656767434
 30
0.0
 11
8.504041889756804
 21
24.36403656767434
 31
0.0
  0
LINE
  5
1D4
330
6C
100
AcDbEntity
  8
Visible (ANSI)
100
AcDbLine
 10
4.722791889756801
 20
24.36403656767433
 30
0.0
 11
6.539416889756803
 21
24.36403656767433
 31
0.0
  0
LINE
  5
1D5
330
6C
100
AcDbEntity
  8
Visible (ANSI)
100
AcDbLine
 10
8.629041889756804
 20
22.27441156767434
 30
0.0
 11
8.629041889756805
 21
20.45778656767434
 31
0.0
  0
LINE
  5
1D6
330
6C
100
AcDbEntity
  8
Visible (ANSI)
100
AcDbLine
 10
8.629041889756804
 20
24.23903656767434
 30
0.0
 11
8.629041889756804
 21
22.42241156767434
 31
0.0
  0
LINE
  5
1D7
330
6C
100
AcDbEntity
  8
Visible (ANSI)
100
AcDbLine
 10
4.597791889756801
 20
20.45778656767433
 30
0.0
 11
4.597791889756801
 21
22.27441156767433
 31
0.0
  0
LINE
  5
1D8
330
6C
100
AcDbEntity
  8
Visible (ANSI)
100
AcDbLine
 10
4.597791889756801
 20
22.42241156767433
 30
0.0
 11
4.5977918897568
 21
24.23903656767433
 31
0.0
  0
ARC
  5
1D9
330
6C
100
AcDbEntity
  8
Visible (ANSI)
100
AcDbCircle
 10
8.504041889756804
 20
24.23903656767434
 30
0.0
 40
0.125
100
AcDbArc
 50
0.0
 51
90.0
  0
ARC
  5
1DA
330
6C
100
AcDbEntity
  8
Visible (ANSI)
100
AcDbCircle
 10
8.504041889756804
 20
20.45778656767434
 30
0.0
 40
0.125
100
AcDbArc
 50
270.0
 51
0.0
  0
LINE
  5
1DB
330
6C
100
AcDbEntity
  8
Visible (ANSI)
100
AcDbLine
 10
8.504041889756804
 20
20.33278656767435
 30
0.0
 11
4.722791889756802
 21
20.33278656767433
 31
0.0
  0
ARC
  5
1DC
330
6C
100
AcDbEntity
  8
Visible (ANSI)
100
AcDbCircle
 10
4.722791889756801
 20
20.45778656767433
 30
0.0
 40
0.124999999999999
100
AcDbArc
 50
180.0
 51
270.0000000000004
  0
ARC
  5
1DD
330
6C
100
AcDbEntity
  8
Visible (ANSI)
100
AcDbCircle
 10
4.7227918897568
 20
24.23903656767433
 30
0.0
 40
0.1249999999999994
100
AcDbArc
 50
89.9999999999992
 51
180.0
  0
ARC
  5
1DE
330
6C
100
AcDbEntity
  8
Visible (ANSI)
100
AcDbCircle
 10
8.925916889756804
 20
24.66091156767434
 30
0.0
 40
0.375000000000002
100
AcDbArc
 50
0.0
 51
89.99999999999948
  0
LINE
  5
1DF
330
6C
100
AcDbEntity
  8
Visible (ANSI)
100
AcDbLine
 10
9.300916889756804
 20
24.66091156767434
 30
0.0
 11
9.300916889756805
 21
20.03591156767435
 31
0.0
  0
ARC
  5
1E0
330
6C
100
AcDbEntity
  8
Visible (ANSI)
100
AcDbCircle
 10
8.925916889756804
 20
20.03591156767435
 30
0.0
 40
0.3750000000000002
100
AcDbArc
 50
270.0000000000002
 51
0.0
  0
LINE
  5
1E1
330
6C
100
AcDbEntity
  8
Visible (ANSI)
100
AcDbLine
 10
8.925916889756804
 20
19.66091156767435
 30
0.0
 11
4.300916889756801
 21
19.66091156767434
 31
0.0
  0
ARC
  5
1E2
330
6C
100
AcDbEntity
  8
Visible (ANSI)
100
AcDbCircle
 10
4.300916889756801
 20
20.03591156767433
 30
0.0
 40
0.3750000000000009
100
AcDbArc
 50
180.0
 51
269.9999999999998
  0
LINE
  5
1E3
330
6C
100
AcDbEntity
  8
Visible (ANSI)
100
AcDbLine
 10
3.925916889756801
 20
20.03591156767433
 30
0.0
 11
3.925916889756799
 21
24.66091156767432
 31
0.0
  0
ARC
  5
1E4
330
6C
100
AcDbEntity
  8
Visible (ANSI)
100
AcDbCircle
 10
4.3009168897568
 20
24.66091156767432
 30
0.0
 40
0.3750000000000008
100
AcDbArc
 50
89.99999999999987
 51
180.0
  0
LINE
  5
1E5
330
6C
100
AcDbEntity
  8
Visible (ANSI)
100
AcDbLine
 10
4.3009168897568
 20
25.03591156767432
 30
0.0
 11
8.925916889756804
 21
25.03591156767434
 31
0.0
  0
CIRCLE
  5
1E6
330
6C
100
AcDbEntity
  8
Visible (ANSI)
100
AcDbCircle
 10
8.925916889756805
 20
20.03591156767435
 30
0.0
 40
0.1406250000000002
  0
CIRCLE
  5
1E7
330
6C
100
AcDbEntity
  8
Visible (ANSI)
100
AcDbCircle
 10
4.300916889756801
 20
20.03591156767433
 30
0.0
 40
0.1406250000000002
  0
CIRCLE
  5
1E8
330
6C
100
AcDbEntity
  8
Visible (ANSI)
100
AcDbCircle
 10
8.925916889756805
 20
24.66091156767434
 30
0.0
 40
0.1406250000000002
  0
CIRCLE
  5
1E9
330
6C
100
AcDbEntity
  8
Visible (ANSI)
100
AcDbCircle
 10
4.300916889756801
 20
24.66091156767432
 30
0.0
 40
0.1406250000000002
  0
MTEXT
  5
1EA
330
6C
100
AcDbEntity
  8
Symbol (ANSI)
100
AcDbMText
 10
5.88618662357953
 20
16.9124716478532
 30
0.0
 40
0.2953846190352645
 41
0.0
 46
0.0
 71
     7
 72
     1
  1
TOP VIEW
  7
Text Style168
 73
     1
 44
1.0
  0
LINE
  5
1EB
330
6C
100
AcDbEntity
  8
Symbol (ANSI)
370
    30
100
AcDbLine
 10
5.886422931879708
 20
16.85223377123809
 30
0.0
 11
7.750170568477201
 21
16.85223377123809
 31
0.0
  0
LINE
  5
1EC
330
6C
100
AcDbEntity
  8
Visible (ANSI)
100
AcDbLine
 10
38.41440303852185
 20
23.79091410579327
 30
0.0
 11
38.41440303852185
 21
23.73981741049061
 31
0.0
  0
LINE
  5
1ED
330
6C
100
AcDbEntity
  8
Visible (ANSI)
100
AcDbLine
 10
38.46672894032965
 20
23.82104658861391
 30
0.0
 11
38.41440303852185
 21
23.79091410579327
 31
0.0
  0
LINE
  5
1EE
330
6C
100
AcDbEntity
  8
Visible (ANSI)
100
AcDbLine
 10
38.28182051704935
 20
23.81616660682666
 30
0.0
 11
38.28182051704935
 21
23.86726330212932
 31
0.0
  0
LINE
  5
1EF
330
6C
100
AcDbEntity
  8
Visible (ANSI)
100
AcDbLine
 10
38.33414641885715
 20
23.8462990896473
 30
0.0
 11
38.28182051704935
 21
23.81616660682666
 31
0.0
  0
LINE
  5
1F0
330
6C
100
AcDbEntity
  8
Visible (ANSI)
100
AcDbLine
 10
38.33414641885715
 20
23.89739578494996
 30
0.0
 11
38.33414641885715
 21
23.8462990896473
 31
0.0
  0
LINE
  5
1F1
330
6C
100
AcDbEntity
  8
Visible (ANSI)
100
AcDbLine
 10
38.28182051704935
 20
23.86726330212932
 30
0.0
 11
38.33414641885715
 21
23.89739578494996
 31
0.0
  0
LINE
  5
1F2
330
6C
100
AcDbEntity
  8
Visible (ANSI)
100
AcDbLine
 10
38.41440303852185
 20
23.73981741049061
 30
0.0
 11
38.28182051704935
 21
23.81616660682666
 31
0.0
  0
LINE
  5
1F3
330
6C
100
AcDbEntity
  8
Visible (ANSI)
100
AcDbLine
 10
38.33414641885715
 20
23.8462990896473
 30
0.0
 11
38.35916032124163
 21
23.83189454127189
 31
0.0
  0
LINE
  5
1F4
330
6C
100
AcDbEntity
  8
Visible (ANSI)
100
AcDbLine
 10
38.33414641885715
 20
23.89739578494996
 30
0.0
 11
37.0385500190279
 21
24.64348013154586
 31
0.0
  0
LINE
  5
1F5
330
6C
100
AcDbEntity
  8
Visible (ANSI)
100
AcDbLine
 10
36.98622411722011
 20
24.61334764872522
 30
0.0
 11
37.0385500190279
 21
24.64348013154586
 31
0.0
  0
LINE
  5
1F6
330
6C
100
AcDbEntity
  8
Visible (ANSI)
100
AcDbLine
 10
36.98622411722011
 20
24.61334764872522
 30
0.0
 11
38.28182051704935
 21
23.86726330212932
 31
0.0
  0
LINE
  5
1F7
330
6C
100
AcDbEntity
  8
Visible (ANSI)
100
AcDbLine
 10
38.41440303852185
 20
23.79091410579327
 30
0.0
 11
39.68790235143901
 21
23.05755462525339
 31
0.0
  0
LINE
  5
1F8
330
6C
100
AcDbEntity
  8
Visible (ANSI)
100
AcDbLine
 10
39.74022825324681
 20
23.08768710807402
 30
0.0
 11
38.46672894032965
 21
23.82104658861391
 31
0.0
  0
LINE
  5
1F9
330
6C
100
AcDbEntity
  8
Visible (ANSI)
100
AcDbLine
 10
36.98622411722011
 20
24.61334764872522
 30
0.0
 11
36.98622411722011
 21
21.48423494909939
 31
0.0
  0
LINE
  5
1FA
330
6C
100
AcDbEntity
  8
Visible Narrow (ANSI)
100
AcDbLine
 10
39.68790235143901
 20
23.05755462525339
 30
0.0
 11
39.74022825324681
 21
23.08768710807402
 31
0.0
  0
LINE
  5
1FB
330
6C
100
AcDbEntity
  8
Visible Narrow (ANSI)
100
AcDbLine
 10
39.68790235143901
 20
23.03210489314137
 30
0.0
 11
39.68790235143901
 21
23.05755462525339
 31
0.0
  0
LINE
  5
1FC
330
6C
100
AcDbEntity
  8
Visible Narrow (ANSI)
100
AcDbLine
 10
39.74022825324683
 20
17.40013951089965
 30
0.0
 11
39.74022825324683
 21
22.39098160855355
 31
0.0
  0
LINE
  5
1FD
330
6C
100
AcDbEntity
  8
Visible Narrow (ANSI)
100
AcDbLine
 10
39.70691137422796
 20
23.02115832494406
 30
0.0
 11
39.68790235143901
 21
23.03210489314137
 31
0.0
  0
ELLIPSE
  5
1FE
330
6C
100
AcDbEntity
  8
Visible (ANSI)
100
AcDbEllipse
 10
39.66580526452693
 20
23.04482975919738
 30
0.0
 11
0.1052500000000006
 21
0.0
 31
0.0
210
0.0
220
0.0
230
1.0
 40
0.5758617009853117
 41
0.2461205573628304
 42
0.7853981633976055
  0
ELLIPSE
  5
1FF
330
6C
100
AcDbEntity
  8
Visible (ANSI)
100
AcDbEllipse
 10
39.66580526452693
 20
17.44299685977629
 30
0.0
 11
0.1052499999999999
 21
0.0
 31
0.0
210
0.0
220
0.0
230
1.0
 40
0.5758617009853117
 41
5.497787143782279
 42
6.283185307179584
  0
ELLIPSE
  5
200
330
6C
100
AcDbEntity
  8
Visible (ANSI)
100
AcDbEllipse
 10
39.66580526452693
 20
23.04482975919738
 30
0.0
 11
0.03125
 21
0.0
 31
0.0
210
0.0
220
0.0
230
1.0
 40
0.5758617009853119
 41
5.497787143782325
 42
7.068583470577272
  0
LINE
  5
201
330
6C
100
AcDbEntity
  8
Visible (ANSI)
100
AcDbLine
 10
39.77105526452693
 20
17.44299685977629
 30
0.0
 11
39.77105526452693
 21
22.40873370370561
 31
0.0
  0
LINE
  5
202
330
6C
100
AcDbEntity
  8
Visible (ANSI)
100
AcDbLine
 10
34.86490377366158
 20
16.30413263427153
 30
0.0
 11
34.88408404510131
 21
16.29308745053489
 31
0.0
  0
LINE
  5
203
330
6C
100
AcDbEntity
  8
Visible (ANSI)
100
AcDbLine
 10
38.30082953983872
 20
22.21144964806789
 30
0.0
 11
38.28182051704978
 21
22.22239621626519
 31
0.0
  0
LINE
  5
204
330
6C
100
AcDbEntity
  8
Visible (ANSI)
100
AcDbLine
 10
34.86490377366158
 20
16.13826560561658
 30
0.0
 11
34.86490377366158
 21
14.65289182887081
 31
0.0
  0
LINE
  5
205
330
6C
100
AcDbEntity
  8
Visible (ANSI)
100
AcDbLine
 10
34.86490377366158
 20
14.65289182887081
 30
0.0
 11
34.88408404510131
 21
14.64184664513417
 31
0.0
  0
LINE
  5
206
330
6C
100
AcDbEntity
  8
Visible (ANSI)
100
AcDbLine
 10
34.86490377366158
 20
17.78582966694058
 30
0.0
 11
34.86490377366158
 21
16.30413263427153
 31
0.0
  0
LINE
  5
207
330
6C
100
AcDbEntity
  8
Visible (ANSI)
100
AcDbLine
 10
39.74022825324683
 20
17.40013951089965
 30
0.0
 11
35.4475597613594
 21
14.92815613139457
 31
0.0
  0
LINE
  5
208
330
6C
100
AcDbEntity
  8
Visible (ANSI)
100
AcDbLine
 10
37.03855001902873
 20
21.13748057304578
 30
0.0
 11
37.03855001902873
 21
21.18561859276944
 31
0.0
  0
LINE
  5
209
330
6C
100
AcDbEntity
  8
Visible (ANSI)
100
AcDbLine
 10
35.33554418210612
 20
18.14821657224826
 30
0.0
 11
36.9229070898086
 21
20.8976052151649
 31
0.0
  0
LINE
  5
20A
330
6C
100
AcDbEntity
  8
Visible (ANSI)
100
AcDbLine
 10
35.14378814824973
 20
17.9024172184516
 30
0.0
 11
35.18579138323445
 21
17.92660527279679
 31
0.0
  0
LINE
  5
20B
330
6C
100
AcDbEntity
  8
Visible (ANSI)
100
AcDbLine
 10
39.68790235143901
 20
23.03210489314137
 30
0.0
 11
38.42579407927976
 21
22.3053050767079
 31
0.0
  0
LINE
  5
20C
330
6C
100
AcDbEntity
  8
Visible (ANSI)
100
AcDbLine
 10
35.16498016622602
 20
17.97488585561201
 30
0.0
 11
35.11247582902001
 21
17.94465061867945
 31
0.0
  0
LINE
  5
20D
330
6C
100
AcDbEntity
  8
Visible (ANSI)
100
AcDbLine
 10
36.8588112660139
 20
20.90735162893873
 30
0.0
 11
35.29503380972811
 21
18.19881411839291
 31
0.0
  0
LINE
  5
20E
330
6C
100
AcDbEntity
  8
Visible (ANSI)
100
AcDbLine
 10
36.98622411722091
 20
21.19143343930601
 30
0.0
 11
36.98622411722091
 21
21.13166572650921
 31
0.0
  0
LINE
  5
20F
330
6C
100
AcDbEntity
  8
Visible (ANSI)
100
AcDbLine
 10
38.28182051704978
 20
22.22239621626519
 30
0.0
 11
37.00084023105266
 21
21.48472872984203
 31
0.0
  0
LINE
  5
210
330
6C
100
AcDbEntity
  8
Visible (ANSI)
100
AcDbLine
 10
33.43672485235985
 20
15.47532537180277
 30
0.0
 11
33.480919026184
 21
15.50077510391479
 31
0.0
  0
LINE
  5
211
330
6C
100
AcDbEntity
  8
Visible (ANSI)
100
AcDbLine
 10
33.43672485235985
 20
15.41482688456442
 30
0.0
 11
33.43672485235985
 21
15.47532537180277
 31
0.0
  0
LINE
  5
212
330
6C
100
AcDbEntity
  8
Visible (ANSI)
100
AcDbLine
 10
33.480919026184
 20
15.44027661667644
 30
0.0
 11
33.43672485235985
 21
15.41482688456442
 31
0.0
  0
LINE
  5
213
330
6C
100
AcDbEntity
  8
Visible (ANSI)
100
AcDbLine
 10
33.480919026184
 20
15.44027661667644
 30
0.0
 11
33.480919026184
 21
15.50077510391479
 31
0.0
  0
LINE
  5
214
330
6C
100
AcDbEntity
  8
Visible (ANSI)
100
AcDbLine
 10
33.480919026184
 20
15.50077510391479
 30
0.0
 11
33.6135015476565
 21
15.42442590757874
 31
0.0
  0
LINE
  5
215
330
6C
100
AcDbEntity
  8
Visible (ANSI)
100
AcDbLine
 10
33.50577298232869
 20
15.42596417521475
 30
0.0
 11
33.480919026184
 21
15.44027661667644
 31
0.0
  0
LINE
  5
216
330
6C
100
AcDbEntity
  8
Visible (ANSI)
100
AcDbLine
 10
33.6135015476565
 20
15.42442590757874
 30
0.0
 11
33.56930737383235
 21
15.39897617546672
 31
0.0
  0
LINE
  5
217
330
6C
100
AcDbEntity
  8
Visible (ANSI)
100
AcDbLine
 10
33.56930737383235
 20
15.39897617546672
 30
0.0
 11
33.56930737383235
 21
15.33847768822837
 31
0.0
  0
LINE
  5
218
330
6C
100
AcDbEntity
  8
Visible (ANSI)
100
AcDbLine
 10
32.16322553944269
 20
16.1481863651043
 30
0.0
 11
33.43672485235985
 21
15.41482688456442
 31
0.0
  0
LINE
  5
219
330
6C
100
AcDbEntity
  8
Visible (ANSI)
100
AcDbLine
 10
34.86490377366159
 20
14.59239334163248
 30
0.0
 11
34.8826982109484
 21
14.60264047655654
 31
0.0
  0
LINE
  5
21A
330
6C
100
AcDbEntity
  8
Visible (ANSI)
100
AcDbLine
 10
35.44755976135941
 20
14.92792260979752
 30
0.0
 11
39.70999943835109
 21
17.38249837253796
 31
0.0
  0
LINE
  5
21B
330
6C
100
AcDbEntity
  8
Visible (ANSI)
100
AcDbLine
 10
33.56930737383235
 20
15.33847768822837
 30
0.0
 11
34.86490377366159
 21
14.59239334163248
 31
0.0
  0
LINE
  5
21C
330
6C
100
AcDbEntity
  8
Visible (ANSI)
100
AcDbLine
 10
33.43672485235985
 20
15.47532537180277
 30
0.0
 11
32.16322553944269
 21
16.20868485234265
 31
0.0
  0
LINE
  5
21D
330
6C
100
AcDbEntity
  8
Visible (ANSI)
100
AcDbLine
 10
39.70999943835109
 20
17.38273189413503
 30
0.0
 11
39.70999943835109
 21
17.38249837253796
 31
0.0
  0
LINE
  5
21E
330
6C
100
AcDbEntity
  8
Visible (ANSI)
100
AcDbLine
 10
34.86490377366159
 20
14.65289182887083
 30
0.0
 11
33.56930737383235
 21
15.39897617546672
 31
0.0
  0
LINE
  5
21F
330
6C
100
AcDbEntity
  8
Visible (ANSI)
100
AcDbLine
 10
34.86490377366159
 20
14.65289182887083
 30
0.0
 11
34.86490377366159
 21
14.59239334163248
 31
0.0
  0
LINE
  5
220
330
6C
100
AcDbEntity
  8
Visible Narrow (ANSI)
100
AcDbLine
 10
32.16322553944269
 20
16.20868485234265
 30
0.0
 11
32.16322553944269
 21
16.1481863651043
 31
0.0
  0
LINE
  5
221
330
6C
100
AcDbEntity
  8
Visible Narrow (ANSI)
100
AcDbLine
 10
32.1411284525306
 20
16.24695806604998
 30
0.0
 11
34.85220145760756
 21
17.80816117824943
 31
0.0
  0
LINE
  5
222
330
6C
100
AcDbEntity
  8
Visible Narrow (ANSI)
100
AcDbLine
 10
32.08880255072279
 20
16.27709054887062
 30
0.0
 11
32.1411284525306
 21
16.24695806604998
 31
0.0
  0
ELLIPSE
  5
223
330
6C
100
AcDbEntity
  8
Visible (ANSI)
100
AcDbEllipse
 10
32.16322553944269
 20
16.23423319999398
 30
0.0
 11
0.0525231402692642
 21
-0.0912079066542761
 31
0.0
210
0.0
220
0.0
230
1.0
 40
0.578093115915813
 41
3.928924525409863
 42
5.499720852204756
  0
LINE
  5
224
330
6C
100
AcDbEntity
  8
Visible Narrow (ANSI)
100
AcDbLine
 10
34.86490377366159
 20
17.7644778758154
 30
0.0
 11
32.16322553944269
 21
16.20868485234265
 31
0.0
  0
ELLIPSE
  5
225
330
6C
100
AcDbEntity
  8
Visible (ANSI)
100
AcDbEllipse
 10
32.16322553944269
 20
16.23423319999398
 30
0.0
 11
-0.0155947566120111
 21
0.0270807323795375
 31
0.0
210
0.0
220
0.0
230
1.0
 40
0.578093115915813
 41
0.7873318718205385
 42
2.358128198615712
  0
LINE
  5
226
330
6C
100
AcDbEntity
  8
Visible (ANSI)
100
AcDbLine
 10
35.69062771739125
 20
23.86726330212909
 30
0.0
 11
35.69062771739125
 21
23.81616660682643
 31
0.0
  0
LINE
  5
227
330
6C
100
AcDbEntity
  8
Visible (ANSI)
100
AcDbLine
 10
35.63830181558344
 20
23.89739578494971
 30
0.0
 11
35.69062771739125
 21
23.86726330212909
 31
0.0
  0
LINE
  5
228
330
6C
100
AcDbEntity
  8
Visible (ANSI)
100
AcDbLine
 10
35.63830181558344
 20
23.84629908964706
 30
0.0
 11
35.63830181558344
 21
23.89739578494971
 31
0.0
  0
LINE
  5
229
330
6C
100
AcDbEntity
  8
Visible (ANSI)
100
AcDbLine
 10
35.63830181558344
 20
23.84629908964706
 30
0.0
 11
35.69062771739125
 21
23.81616660682643
 31
0.0
  0
LINE
  5
22A
330
6C
100
AcDbEntity
  8
Visible (ANSI)
100
AcDbLine
 10
35.55804519591879
 20
23.73981741049036
 30
0.0
 11
35.55804519591879
 21
23.79091410579302
 31
0.0
  0
LINE
  5
22B
330
6C
100
AcDbEntity
  8
Visible (ANSI)
100
AcDbLine
 10
35.55804519591879
 20
23.79091410579302
 30
0.0
 11
35.50571929411098
 21
23.82104658861365
 31
0.0
  0
LINE
  5
22C
330
6C
100
AcDbEntity
  8
Visible (ANSI)
100
AcDbLine
 10
35.69062771739125
 20
23.81616660682643
 30
0.0
 11
35.55804519591879
 21
23.73981741049036
 31
0.0
  0
LINE
  5
22D
330
6C
100
AcDbEntity
  8
Visible (ANSI)
100
AcDbLine
 10
35.61328791319898
 20
23.83189454127167
 30
0.0
 11
35.63830181558344
 21
23.84629908964706
 31
0.0
  0
LINE
  5
22E
330
6C
100
AcDbEntity
  8
Visible (ANSI)
100
AcDbLine
 10
32.14112845253061
 20
17.87265052379937
 30
0.0
 11
32.18532262635476
 21
17.89810025591139
 31
0.0
  0
LINE
  5
22F
330
6C
100
AcDbEntity
  8
Visible (ANSI)
100
AcDbLine
 10
32.0888025507228
 20
17.90278300662
 30
0.0
 11
32.14112845253061
 21
17.87265052379937
 31
0.0
  0
LINE
  5
230
330
6C
100
AcDbEntity
  8
Visible (ANSI)
100
AcDbLine
 10
32.18532262635476
 20
17.74481017000342
 30
0.0
 11
32.14112845253061
 21
17.71936043789139
 31
0.0
  0
LINE
  5
231
330
6C
100
AcDbEntity
  8
Visible (ANSI)
100
AcDbLine
 10
32.13299672454695
 20
17.77494265282405
 30
0.0
 11
32.18532262635476
 21
17.74481017000342
 31
0.0
  0
LINE
  5
232
330
6C
100
AcDbEntity
  8
Visible (ANSI)
100
AcDbLine
 10
32.0888025507228
 20
17.74949292071202
 30
0.0
 11
32.13299672454695
 21
17.77494265282405
 31
0.0
  0
LINE
  5
233
330
6C
100
AcDbEntity
  8
Visible (ANSI)
100
AcDbLine
 10
32.14112845253061
 20
17.71936043789139
 30
0.0
 11
32.0888025507228
 21
17.74949292071202
 31
0.0
  0
LINE
  5
234
330
6C
100
AcDbEntity
  8
Visible (ANSI)
100
AcDbLine
 10
32.18532262635476
 20
17.89810025591139
 30
0.0
 11
32.18532262635476
 21
17.74481017000342
 31
0.0
  0
LINE
  5
235
330
6C
100
AcDbEntity
  8
Visible (ANSI)
100
AcDbLine
 10
32.13299672454695
 20
17.77494265282405
 30
0.0
 11
32.13299672454695
 21
17.80386338236535
 31
0.0
  0
LINE
  5
236
330
6C
100
AcDbEntity
  8
Visible (ANSI)
100
AcDbLine
 10
35.50571929411098
 20
23.82104658861365
 30
0.0
 11
34.21012289428212
 21
23.07496224201754
 31
0.0
  0
LINE
  5
237
330
6C
100
AcDbEntity
  8
Visible (ANSI)
100
AcDbLine
 10
34.21012289428212
 20
23.07496224201754
 30
0.0
 11
34.26192089475383
 21
23.04513375735827
 31
0.0
  0
LINE
  5
238
330
6C
100
AcDbEntity
  8
Visible (ANSI)
100
AcDbLine
 10
34.2635909494331
 20
23.04548748156388
 30
0.0
 11
35.55804519591879
 21
23.79091410579302
 31
0.0
  0
LINE
  5
239
330
6C
100
AcDbEntity
  8
Visible (ANSI)
100
AcDbLine
 10
32.14112845253061
 20
19.37060124329211
 30
0.0
 11
32.14263379441904
 21
19.37146811203255
 31
0.0
  0
LINE
  5
23A
330
6C
100
AcDbEntity
  8
Visible (ANSI)
100
AcDbLine
 10
32.14112845253061
 20
17.87265052379937
 30
0.0
 11
32.14112845253061
 21
19.3706012432921
 31
0.0
  0
LINE
  5
23B
330
6C
100
AcDbEntity
  8
Visible (ANSI)
100
AcDbLine
 10
32.1411284525306
 20
16.24695806604998
 30
0.0
 11
32.14112845253061
 21
17.71936043789139
 31
0.0
  0
LINE
  5
23C
330
6C
100
AcDbEntity
  8
Visible (ANSI)
100
AcDbLine
 10
36.98622411722011
 20
24.6133476487252
 30
0.0
 11
36.9862241172201
 21
21.48423494909938
 31
0.0
  0
LINE
  5
23D
330
6C
100
AcDbEntity
  8
Visible (ANSI)
100
AcDbLine
 10
35.69062771739125
 20
23.86726330212909
 30
0.0
 11
36.98622411722011
 21
24.6133476487252
 31
0.0
  0
LINE
  5
23E
330
6C
100
AcDbEntity
  8
Visible (ANSI)
100
AcDbLine
 10
32.0888025507228
 20
17.74949292071202
 30
0.0
 11
32.08880255072279
 21
16.27709054887062
 31
0.0
  0
LINE
  5
23F
330
6C
100
AcDbEntity
  8
Visible (ANSI)
100
AcDbLine
 10
36.93389821541229
 20
24.64348013154583
 30
0.0
 11
36.98622411722011
 21
24.6133476487252
 31
0.0
  0
LINE
  5
240
330
6C
100
AcDbEntity
  8
Visible (ANSI)
100
AcDbLine
 10
36.93389821541229
 20
24.64348013154583
 30
0.0
 11
35.63830181558344
 21
23.89739578494971
 31
0.0
  0
LINE
  5
241
330
6C
100
AcDbEntity
  8
Visible (ANSI)
100
AcDbLine
 10
32.0888025507228
 20
19.40073372611274
 30
0.0
 11
32.0888025507228
 21
17.90278300662
 31
0.0
  0
LINE
  5
242
330
6C
100
AcDbEntity
  8
Visible (ANSI)
100
AcDbLine
 10
32.10693990250656
 20
19.41117833236231
 30
0.0
 11
32.0888025507228
 21
19.40073372611274
 31
0.0
  0
LINE
  5
243
330
6C
100
AcDbEntity
  8
Visible (ANSI)
100
AcDbLine
 10
34.07017777360023
 20
22.48429550984969
 30
0.0
 11
32.53151341773853
 21
19.8192550929801
 31
0.0
  0
LINE
  5
244
330
6C
100
AcDbEntity
  8
Visible (ANSI)
100
AcDbLine
 10
34.21012289428212
 20
23.07496224201754
 30
0.0
 11
34.21012289428212
 21
23.05460574402393
 31
0.0
  0
LINE
  5
245
330
6C
100
AcDbEntity
  8
Visible (ANSI)
100
AcDbLine
 10
32.0888025507228
 20
19.40073372611274
 30
0.0
 11
32.14112845253061
 21
19.37060124329211
 31
0.0
  0
ELLIPSE
  5
246
330
6C
100
AcDbEntity
  8
Visible (ANSI)
100
AcDbEllipse
 10
35.13601135794814
 20
18.04506821041606
 30
0.0
 11
0.0525231402692301
 21
0.0912079066542966
 31
0.0
210
0.0
220
0.0
230
1.0
 40
0.5780931159156372
 41
3.925057108563946
 42
4.284811848927855
  0
LINE
  5
247
330
6C
100
AcDbEntity
  8
Visible Narrow (ANSI)
100
AcDbLine
 10
35.13601135794814
 20
17.95902137552638
 30
0.0
 11
35.13601135794814
 21
18.01525154233112
 31
0.0
  0
LINE
  5
248
330
6C
100
AcDbEntity
  8
Visible Narrow (ANSI)
100
AcDbLine
 10
35.12695065273677
 20
18.02473757587987
 30
0.0
 11
35.08312559496861
 21
18.04997474819201
 31
0.0
  0
ELLIPSE
  5
249
330
6C
100
AcDbEntity
  8
Visible (ANSI)
100
AcDbEllipse
 10
36.91241538050809
 20
21.12188512553903
 30
0.0
 11
0.0525231402692357
 21
0.0912079066542938
 31
0.0
210
0.0
220
0.0
230
1.0
 40
0.5780931159156372
 41
5.136040880391678
 42
5.367285137380287
  0
LINE
  5
24A
330
6C
100
AcDbEntity
  8
Visible Narrow (ANSI)
100
AcDbLine
 10
36.88202601721581
 20
21.1648349280884
 30
0.0
 11
36.92614579773782
 21
21.13942803622991
 31
0.0
  0
LINE
  5
24B
330
6C
100
AcDbEntity
  8
Visible Narrow (ANSI)
100
AcDbLine
 10
36.93794644536505
 20
21.13658748797552
 30
0.0
 11
36.98622411722094
 21
21.16438875021008
 31
0.0
  0
LINE
  5
24C
330
6C
100
AcDbEntity
  8
Visible (ANSI)
100
AcDbLine
 10
35.09096656139883
 20
17.9935802896033
 30
0.0
 11
35.1334568218628
 21
18.0180488032694
 31
0.0
  0
LINE
  5
24D
330
6C
100
AcDbEntity
  8
Visible (ANSI)
100
AcDbLine
 10
35.11212050467565
 20
17.94526354812289
 30
0.0
 11
35.13601135794814
 21
17.95902137552638
 31
0.0
  0
LINE
  5
24E
330
6C
100
AcDbEntity
  8
Visible (ANSI)
100
AcDbLine
 10
32.14192394765947
 20
19.39251634495407
 30
0.0
 11
32.14192394765947
 21
19.37187688559495
 31
0.0
  0
LINE
  5
24F
330
6C
100
AcDbEntity
  8
Visible (ANSI)
100
AcDbLine
 10
32.14192394765947
 20
19.37187688559495
 30
0.0
 11
34.84895946396658
 21
17.81299880854715
 31
0.0
  0
LINE
  5
250
330
6C
100
AcDbEntity
  8
Visible (ANSI)
100
AcDbLine
 10
34.24291187196488
 20
23.03418718916097
 30
0.0
 11
34.26306304809698
 21
23.04579147972526
 31
0.0
  0
LINE
  5
251
330
6C
100
AcDbEntity
  8
Visible (ANSI)
100
AcDbLine
 10
36.93451246742017
 20
21.18575942974541
 30
0.0
 11
36.93451246742017
 21
21.13733973606979
 31
0.0
  0
LINE
  5
252
330
6C
100
AcDbEntity
  8
Visible (ANSI)
100
AcDbLine
 10
36.97416691031367
 20
21.48457059808177
 30
0.0
 11
34.26306304809698
 21
23.04579147972526
 31
0.0
  0
LINE
  5
253
330
6C
100
AcDbEntity
  8
Visible (ANSI)
100
AcDbLine
 10
32.54676777224555
 20
19.81047069444625
 30
0.0
 11
34.08543212810724
 21
22.47551111131585
 31
0.0
  0
LINE
  5
254
330
6C
100
AcDbEntity
  8
Visible (ANSI)
100
AcDbLine
 10
36.85881126601396
 20
20.90735162893871
 30
0.0
 11
35.29503380972814
 21
18.19881411839287
 31
0.0
  0
LINE
  5
255
330
6C
100
AcDbEntity
  8
Visible (ANSI)
100
AcDbLine
 10
36.8156430522254
 20
20.91813999463835
 30
0.0
 11
35.26408255297723
 21
18.23076283927488
 31
0.0
  0
LINE
  5
256
330
6C
100
AcDbEntity
  8
Visible (ANSI)
100
AcDbLine
 10
33.45882193927195
 20
15.39892686769705
 30
0.0
 11
33.40649603746414
 21
15.36856086327933
 31
0.0
  0
LINE
  5
257
330
6C
100
AcDbEntity
  8
Visible (ANSI)
100
AcDbLine
 10
33.45882193927195
 20
15.39892686769705
 30
0.0
 11
33.54721028692026
 21
15.4498263319211
 31
0.0
  0
LINE
  5
258
330
6C
100
AcDbEntity
  8
Visible (ANSI)
100
AcDbLine
 10
33.57475686915176
 20
15.40211433111086
 30
0.0
 11
33.54721028692026
 21
15.4498263319211
 31
0.0
  0
LINE
  5
259
330
6C
100
AcDbEntity
  8
Visible (ANSI)
100
AcDbLine
 10
33.51114784107977
 20
15.30829589763807
 30
0.0
 11
33.45882193927195
 21
15.39892686769705
 31
0.0
  0
LINE
  5
25A
330
6C
100
AcDbEntity
  8
Visible (ANSI)
100
AcDbLine
 10
33.56930737383233
 20
15.34178774509749
 30
0.0
 11
33.51114784107977
 21
15.30829589763807
 31
0.0
  0
LINE
  5
25B
330
6C
100
AcDbEntity
  8
Visible (ANSI)
100
AcDbLine
 10
32.1219481810909
 20
17.7974516415677
 30
0.0
 11
32.17427408289871
 21
17.82781764598542
 31
0.0
  0
LINE
  5
25C
330
6C
100
AcDbEntity
  8
Visible (ANSI)
100
AcDbLine
 10
32.08588573525041
 20
17.77691818176137
 30
0.0
 11
32.17427408289871
 21
17.82781764598542
 31
0.0
  0
LINE
  5
25D
330
6C
100
AcDbEntity
  8
Visible (ANSI)
100
AcDbLine
 10
32.0335598334426
 20
17.74655217734365
 30
0.0
 11
32.08588573525041
 21
17.77691818176137
 31
0.0
  0
LINE
  5
25E
330
6C
100
AcDbEntity
  8
Visible (ANSI)
100
AcDbLine
 10
32.1219481810909
 20
17.7974516415677
 30
0.0
 11
32.03355983344259
 21
17.74655217734365
 31
0.0
  0
LINE
  5
25F
330
6C
100
AcDbEntity
  8
Visible (ANSI)
100
AcDbLine
 10
32.17427408289871
 20
17.82781764598542
 30
0.0
 11
32.14657794785001
 21
17.87578867944353
 31
0.0
  0
LINE
  5
260
330
6C
100
AcDbEntity
  8
Visible (ANSI)
100
AcDbLine
 10
32.0335598334426
 20
17.86754915182035
 30
0.0
 11
32.09177348076881
 21
17.90107216179018
 31
0.0
  0
LINE
  5
261
330
6C
100
AcDbEntity
  8
Visible (ANSI)
100
AcDbLine
 10
32.08588573525041
 20
17.77691818176137
 30
0.0
 11
32.0335598334426
 21
17.86754915182035
 31
0.0
  0
LINE
  5
262
330
6C
100
AcDbEntity
  8
Visible (ANSI)
100
AcDbLine
 10
34.88408404510131
 20
16.22604143059524
 30
0.0
 11
34.8317581432935
 21
16.19567542617752
 31
0.0
  0
LINE
  5
263
330
6C
100
AcDbEntity
  8
Visible (ANSI)
100
AcDbLine
 10
34.8317581432935
 20
16.19567542617752
 30
0.0
 11
34.88408404510131
 21
16.10504445611855
 31
0.0
  0
LINE
  5
264
330
6C
100
AcDbEntity
  8
Visible (ANSI)
100
AcDbLine
 10
33.46982767056527
 20
15.43388952976361
 30
0.0
 11
33.49468162670997
 21
15.41957708830191
 31
0.0
  0
LINE
  5
265
330
6C
100
AcDbEntity
  8
Visible Narrow (ANSI)
100
AcDbLine
 10
32.1772337105338
 20
16.14011959587207
 30
0.0
 11
32.12194818109093
 21
16.10828277684722
 31
0.0
  0
LINE
  5
266
330
6C
100
AcDbEntity
  8
Visible (ANSI)
100
AcDbLine
 10
33.40649603746414
 20
15.36856086327933
 30
0.0
 11
32.12194818109093
 21
16.10828277684722
 31
0.0
  0
LINE
  5
267
330
6C
100
AcDbEntity
  8
Visible (ANSI)
100
AcDbLine
 10
34.79569569745298
 20
14.56857398407018
 30
0.0
 11
33.51114784107977
 21
15.30829589763807
 31
0.0
  0
LINE
  5
268
330
6C
100
AcDbEntity
  8
Visible Narrow (ANSI)
100
AcDbLine
 10
34.85098122689584
 20
14.60041080309503
 30
0.0
 11
34.79569569745298
 21
14.56857398407018
 31
0.0
  0
LINE
  5
269
330
6C
100
AcDbEntity
  8
Visible Narrow (ANSI)
100
AcDbLine
 10
32.08880255072278
 20
19.38453786262745
 30
0.0
 11
32.0335598334426
 21
19.35272569748743
 31
0.0
  0
LINE
  5
26A
330
6C
100
AcDbEntity
  8
Visible (ANSI)
100
AcDbLine
 10
32.0335598334426
 20
17.86754915182035
 30
0.0
 11
32.0335598334426
 21
19.35272569748743
 31
0.0
  0
LINE
  5
26B
330
6C
100
AcDbEntity
  8
Visible (ANSI)
100
AcDbLine
 10
32.03355983344259
 20
16.26137563167657
 30
0.0
 11
32.0335598334426
 21
17.74655217734365
 31
0.0
  0
LINE
  5
26C
330
6C
100
AcDbEntity
  8
Visible Narrow (ANSI)
100
AcDbLine
 10
32.08880255072278
 20
16.29318779681659
 30
0.0
 11
32.03355983344259
 21
16.26137563167657
 31
0.0
  0
LINE
  5
26D
330
6C
100
AcDbEntity
  8
Visible (ANSI)
100
AcDbLine
 10
32.1219481810909
 20
17.7974516415677
 30
0.0
 11
32.1219481810909
 21
17.76858021979605
 31
0.0
  0
LINE
  5
26E
330
6C
100
AcDbEntity
  8
Visible (ANSI)
100
AcDbLine
 10
34.88408404510131
 20
17.71121797626232
 30
0.0
 11
34.88408404510131
 21
16.22604143059524
 31
0.0
  0
LINE
  5
26F
330
6C
100
AcDbEntity
  8
Visible (ANSI)
100
AcDbLine
 10
34.88408404510131
 20
16.10504445611855
 30
0.0
 11
34.88408404510131
 21
14.61986791045146
 31
0.0
  0
ELLIPSE
  5
270
330
6C
100
AcDbEntity
  8
Visible (ANSI)
100
AcDbEllipse
 10
32.12194818109093
 20
16.21047616745253
 30
0.0
 11
-0.0623790264480446
 21
0.1083229295181505
 31
0.0
210
0.0
220
0.0
230
1.0
 40
0.578093115915813
 41
0.7873318718206104
 42
2.358128198615478
  0
ELLIPSE
  5
271
330
6C
100
AcDbEntity
  8
Visible (ANSI)
100
AcDbEllipse
 10
32.12194818109094
 20
19.30182623326339
 30
0.0
 11
-0.0623790264480511
 21
0.1083229295181468
 31
0.0
210
0.0
220
0.0
230
1.0
 40
0.578093115915813
 41
5.499720852205021
 42
7.070517178999919
  0
LINE
  5
272
330
6C
100
AcDbEntity
  8
Visible (ANSI)
100
AcDbLine
 10
32.12194818109094
 20
19.40401962386871
 30
0.0
 11
34.79569569745298
 21
17.86431083109167
 31
0.0
  0
ELLIPSE
  5
273
330
6C
100
AcDbEntity
  8
Visible (ANSI)
100
AcDbEllipse
 10
34.79569569745298
 20
17.76211744048636
 30
0.0
 11
0.0623790264480441
 21
-0.1083229295181495
 31
0.0
210
0.0
220
0.0
230
1.0
 40
0.578093115915813
 41
0.7873318718205767
 42
2.358128198615478
  0
ELLIPSE
  5
274
330
6C
100
AcDbEntity
  8
Visible (ANSI)
100
AcDbEllipse
 10
34.79569569745298
 20
14.6707673746755
 30
0.0
 11
0.0623790264480507
 21
-0.1083229295181461
 31
0.0
210
0.0
220
0.0
230
1.0
 40
0.578093115915813
 41
5.49972085220502
 42
7.070517178999884
  0
ELLIPSE
  5
275
330
6C
100
AcDbEntity
  8
Visible (ANSI)
100
AcDbEllipse
 10
31.82363750777781
 20
16.0373591659157
 30
0.0
 11
-0.1871370793441346
 21
0.3249687885544529
 31
0.0
210
0.0
220
0.0
230
1.0
 40
0.5780931159158131
 41
0.7873318718205633
 42
2.358128198615478
  0
LINE
  5
276
330
6C
100
AcDbEntity
  8
Visible (ANSI)
100
AcDbLine
 10
31.55847246483281
 20
16.1900575585878
 30
0.0
 11
31.55847246483281
 21
19.97121301098455
 31
0.0
  0
ELLIPSE
  5
277
330
6C
100
AcDbEntity
  8
Visible (ANSI)
100
AcDbEllipse
 10
31.82363750777782
 20
19.81851461831245
 30
0.0
 11
-0.1871370793441531
 21
0.3249687885544402
 31
0.0
210
0.0
220
0.0
230
1.0
 40
0.578093115915813
 41
5.499720852204994
 42
7.070517178999923
  0
LINE
  5
278
330
6C
100
AcDbEntity
  8
Visible Narrow (ANSI)
100
AcDbLine
 10
31.91202585542612
 20
20.17599425435246
 30
0.0
 11
31.82363750777782
 21
20.12509479012841
 31
0.0
  0
ELLIPSE
  5
279
330
6C
100
AcDbEntity
  8
Visible (ANSI)
100
AcDbEllipse
 10
31.91202585542612
 20
19.8694140825365
 30
0.0
 11
-0.187137079344154
 21
0.3249687885544418
 31
0.0
210
0.0
220
0.0
230
1.0
 40
0.578093115915813
 41
5.499720852205021
 42
6.283185307179586
  0
LINE
  5
27A
330
6C
100
AcDbEntity
  8
Visible (ANSI)
100
AcDbLine
 10
31.82363750777782
 20
20.12509479012841
 30
0.0
 11
35.0940063707661
 21
18.24181461383914
 31
0.0
  0
LINE
  5
27B
330
6C
100
AcDbEntity
  8
Visible Narrow (ANSI)
100
AcDbLine
 10
35.1823947184144
 20
18.29271407806319
 30
0.0
 11
35.0940063707661
 21
18.24181461383914
 31
0.0
  0
LINE
  5
27C
330
6C
100
AcDbEntity
  8
Visible (ANSI)
100
AcDbLine
 10
35.1823947184144
 20
18.29271407806319
 30
0.0
 11
31.91202585542612
 21
20.17599425435246
 31
0.0
  0
ELLIPSE
  5
27D
330
6C
100
AcDbEntity
  8
Visible (ANSI)
100
AcDbEllipse
 10
35.09400637076609
 20
17.93523444202319
 30
0.0
 11
0.1871370793441341
 21
-0.324968788554452
 31
0.0
210
0.0
220
0.0
230
1.0
 40
0.5780931159158131
 41
0.7873318718205633
 42
2.358128198615478
  0
LINE
  5
27E
330
6C
100
AcDbEntity
  8
Visible Narrow (ANSI)
100
AcDbLine
 10
35.44755976135941
 20
17.83343551357513
 30
0.0
 11
35.3591714137111
 21
17.78253604935108
 31
0.0
  0
ELLIPSE
  5
27F
330
6C
100
AcDbEntity
  8
Visible (ANSI)
100
AcDbEllipse
 10
35.1823947184144
 20
17.98613390624724
 30
0.0
 11
-0.1871370793441729
 21
0.3249687885544296
 31
0.0
210
0.0
220
0.0
230
1.0
 40
0.578093115915813
 41
3.928924525409867
 42
5.499720852204769
  0
LINE
  5
280
330
6C
100
AcDbEntity
  8
Visible (ANSI)
100
AcDbLine
 10
35.3591714137111
 20
17.78253604935108
 30
0.0
 11
35.35917141371109
 21
14.00138059695433
 31
0.0
  0
LINE
  5
281
330
6C
100
AcDbEntity
  8
Visible Narrow (ANSI)
100
AcDbLine
 10
35.4475597613594
 20
14.05228006117839
 30
0.0
 11
35.35917141371109
 21
14.00138059695434
 31
0.0
  0
LINE
  5
282
330
6C
100
AcDbEntity
  8
Visible (ANSI)
100
AcDbLine
 10
35.4475597613594
 20
14.05228006117839
 30
0.0
 11
35.44755976135941
 21
17.83343551357513
 31
0.0
  0
ELLIPSE
  5
283
330
6C
100
AcDbEntity
  8
Visible (ANSI)
100
AcDbEllipse
 10
35.09400637076609
 20
14.15407898962644
 30
0.0
 11
0.1871370793441535
 21
-0.3249687885544408
 31
0.0
210
0.0
220
0.0
230
1.0
 40
0.578093115915813
 41
5.499720852204994
 42
7.070517178999918
  0
ELLIPSE
  5
284
330
6C
100
AcDbEntity
  8
Visible (ANSI)
100
AcDbEllipse
 10
35.1823947184144
 20
14.20497845385049
 30
0.0
 11
0.1871370793441526
 21
-0.3249687885544406
 31
0.0
210
0.0
220
0.0
230
1.0
 40
0.5780931159158131
 41
0.0000000000000197
 42
0.7873318718203519
  0
LINE
  5
285
330
6C
100
AcDbEntity
  8
Visible (ANSI)
100
AcDbLine
 10
35.09400637076609
 20
13.84749881781049
 30
0.0
 11
31.82363750777781
 21
15.73077899409975
 31
0.0
  0
LINE
  5
286
330
6C
100
AcDbEntity
  8
Visible (ANSI)
100
AcDbLine
 10
31.72488877608197
 20
20.19438287109095
 30
0.0
 11
31.63650042843366
 21
20.14348340686689
 31
0.0
  0
LINE
  5
287
330
6C
100
AcDbEntity
  8
Visible (ANSI)
100
AcDbLine
 10
35.36953179775855
 20
13.88000966529605
 30
0.0
 11
35.28114345011025
 21
13.829110201072
 31
0.0
  0
ELLIPSE
  5
288
330
6C
100
AcDbEntity
  8
Visible (ANSI)
100
AcDbEllipse
 10
31.91202585542612
 20
19.8694140825365
 30
0.0
 11
0.0701764047540648
 21
-0.121863295707911
 31
0.0
210
0.0
220
0.0
230
1.0
 40
0.5780931159158134
 41
3.819709301184445
 42
5.605068659584394
  0
ELLIPSE
  5
289
330
6C
100
AcDbEntity
  8
Visible (ANSI)
100
AcDbEllipse
 10
31.82363750777782
 20
19.81851461831245
 30
0.0
 11
-0.0701764047540502
 21
0.1218632957079193
 31
0.0
210
0.0
220
0.0
230
1.0
 40
0.5780931159158131
 41
0.0
 42
6.283185307179586
  0
ELLIPSE
  5
28A
330
6C
100
AcDbEntity
  8
Visible (ANSI)
100
AcDbEllipse
 10
35.1823947184144
 20
17.98613390624724
 30
0.0
 11
0.0701764047540651
 21
-0.1218632957079114
 31
0.0
210
0.0
220
0.0
230
1.0
 40
0.5780931159158131
 41
3.819709301184417
 42
5.605068659584393
  0
ELLIPSE
  5
28B
330
6C
100
AcDbEntity
  8
Visible (ANSI)
100
AcDbEllipse
 10
35.09400637076609
 20
17.93523444202319
 30
0.0
 11
-0.0701764047540502
 21
0.1218632957079193
 31
0.0
210
0.0
220
0.0
230
1.0
 40
0.5780931159158131
 41
0.0
 42
6.283185307179586
  0
ELLIPSE
  5
28C
330
6C
100
AcDbEntity
  8
Visible (ANSI)
100
AcDbEllipse
 10
31.91202585542612
 20
16.08825863013975
 30
0.0
 11
0.0701764047540647
 21
-0.121863295707911
 31
0.0
210
0.0
220
0.0
230
1.0
 40
0.5780931159158131
 41
3.819709301184445
 42
5.60506865958439
  0
ELLIPSE
  5
28D
330
6C
100
AcDbEntity
  8
Visible (ANSI)
100
AcDbEllipse
 10
31.82363750777781
 20
16.0373591659157
 30
0.0
 11
-0.0701764047540502
 21
0.1218632957079193
 31
0.0
210
0.0
220
0.0
230
1.0
 40
0.5780931159158131
 41
0.0
 42
6.283185307179586
  0
ELLIPSE
  5
28E
330
6C
100
AcDbEntity
  8
Visible (ANSI)
100
AcDbEllipse
 10
35.1823947184144
 20
14.20497845385049
 30
0.0
 11
0.0701764047540651
 21
-0.1218632957079114
 31
0.0
210
0.0
220
0.0
230
1.0
 40
0.5780931159158131
 41
3.819709301184431
 42
5.605068659584391
  0
ELLIPSE
  5
28F
330
6C
100
AcDbEntity
  8
Visible (ANSI)
100
AcDbEllipse
 10
35.09400637076609
 20
14.15407898962644
 30
0.0
 11
-0.0701764047540502
 21
0.1218632957079193
 31
0.0
210
0.0
220
0.0
230
1.0
 40
0.5780931159158131
 41
0.0
 42
6.283185307179586
  0
LINE
  5
290
330
6C
100
AcDbEntity
  8
Visible (ANSI)
100
AcDbLine
 10
38.35916032124163
 20
23.78435444168665
 30
0.0
 11
38.41440303852185
 21
23.78435444168665
 31
0.0
  0
LINE
  5
291
330
6C
100
AcDbEntity
  8
Visible (ANSI)
100
AcDbLine
 10
38.46381212485724
 20
23.88654783229197
 30
0.0
 11
38.46381212485724
 21
23.81936690629451
 31
0.0
  0
LINE
  5
292
330
6C
100
AcDbEntity
  8
Visible (ANSI)
100
AcDbLine
 10
38.35916032124163
 20
23.88654783229196
 30
0.0
 11
38.46381212485724
 21
23.88654783229197
 31
0.0
  0
LINE
  5
293
330
6C
100
AcDbEntity
  8
Visible (ANSI)
100
AcDbLine
 10
38.35916032124163
 20
23.88654783229196
 30
0.0
 11
38.35916032124163
 21
23.78435444168665
 31
0.0
  0
LINE
  5
294
330
6C
100
AcDbEntity
  8
Visible (ANSI)
100
AcDbLine
 10
38.35916032124162
 20
23.94681279793323
 30
0.0
 11
38.35916032124163
 21
23.88654783229196
 31
0.0
  0
LINE
  5
295
330
6C
100
AcDbEntity
  8
Visible (ANSI)
100
AcDbLine
 10
38.46381212485765
 20
22.3053050767079
 30
0.0
 11
38.35916032124205
 21
22.30530507670789
 31
0.0
  0
LINE
  5
296
330
6C
100
AcDbEntity
  8
Visible (ANSI)
100
AcDbLine
 10
38.35916032124205
 20
22.30530507670789
 30
0.0
 11
38.35916032124206
 21
22.24504011106663
 31
0.0
  0
LINE
  5
297
330
6C
100
AcDbEntity
  8
Visible (ANSI)
100
AcDbLine
 10
35.55804519591877
 20
23.78435444168641
 30
0.0
 11
35.61328791319897
 21
23.78435444168641
 31
0.0
  0
LINE
  5
298
330
6C
100
AcDbEntity
  8
Visible (ANSI)
100
AcDbLine
 10
35.61328791319897
 20
23.88654783229173
 30
0.0
 11
35.61328791319897
 21
23.78435444168641
 31
0.0
  0
LINE
  5
299
330
6C
100
AcDbEntity
  8
Visible (ANSI)
100
AcDbLine
 10
35.50863610958336
 20
23.88654783229172
 30
0.0
 11
35.61328791319897
 21
23.88654783229173
 31
0.0
  0
LINE
  5
29A
330
6C
100
AcDbEntity
  8
Visible (ANSI)
100
AcDbLine
 10
35.50863610958336
 20
23.81936690629427
 30
0.0
 11
35.50863610958336
 21
23.88654783229172
 31
0.0
  0
LINE
  5
29B
330
6C
100
AcDbEntity
  8
Visible (ANSI)
100
AcDbLine
 10
35.61328791319897
 20
23.88654783229173
 30
0.0
 11
35.61328791319894
 21
23.946812797933
 31
0.0
  0
LINE
  5
29C
330
6C
100
AcDbEntity
  8
Visible Narrow (ANSI)
100
AcDbLine
 10
39.74835998123044
 20
23.08242555200579
 30
0.0
 11
39.74835998123044
 21
23.14682591872409
 31
0.0
  0
LINE
  5
29D
330
6C
100
AcDbEntity
  8
Visible (ANSI)
100
AcDbLine
 10
38.46381212485724
 20
23.88654783229197
 30
0.0
 11
39.74835998123044
 21
23.14682591872409
 31
0.0
  0
LINE
  5
29E
330
6C
100
AcDbEntity
  8
Visible (ANSI)
100
AcDbLine
 10
37.0746124648684
 20
24.68653471150112
 30
0.0
 11
38.35916032124162
 21
23.94681279793323
 31
0.0
  0
LINE
  5
29F
330
6C
100
AcDbEntity
  8
Visible Narrow (ANSI)
100
AcDbLine
 10
37.0746124648684
 20
24.62271315014245
 30
0.0
 11
37.0746124648684
 21
24.68653471150112
 31
0.0
  0
LINE
  5
2A0
330
6C
100
AcDbEntity
  8
Visible (ANSI)
100
AcDbLine
 10
38.35916032124162
 20
23.84461940732792
 30
0.0
 11
38.33414641885714
 21
23.85902395570331
 31
0.0
  0
LINE
  5
2A1
330
6C
100
AcDbEntity
  8
Visible (ANSI)
100
AcDbLine
 10
38.35916032124206
 20
22.24504011106663
 30
0.0
 11
37.07461246486925
 21
21.50531819749852
 31
0.0
  0
LINE
  5
2A2
330
6C
100
AcDbEntity
  8
Visible (ANSI)
100
AcDbLine
 10
39.74835998123047
 20
23.04502699027601
 30
0.0
 11
38.46381212485765
 21
22.3053050767079
 31
0.0
  0
LINE
  5
2A3
330
6C
100
AcDbEntity
  8
Visible (ANSI)
100
AcDbLine
 10
34.22408825321054
 20
23.14682591872362
 30
0.0
 11
35.50863610958336
 21
23.88654783229172
 31
0.0
  0
LINE
  5
2A4
330
6C
100
AcDbEntity
  8
Visible Narrow (ANSI)
100
AcDbLine
 10
34.22408825321054
 20
23.08300435736494
 30
0.0
 11
34.22408825321054
 21
23.14682591872362
 31
0.0
  0
LINE
  5
2A5
330
6C
100
AcDbEntity
  8
Visible (ANSI)
100
AcDbLine
 10
35.63830181558343
 20
23.85902395570309
 30
0.0
 11
35.61328791319895
 21
23.84461940732768
 31
0.0
  0
LINE
  5
2A6
330
6C
100
AcDbEntity
  8
Visible Narrow (ANSI)
100
AcDbLine
 10
36.89783576957176
 20
24.62271315014243
 30
0.0
 11
36.89783576957176
 21
24.68653471150111
 31
0.0
  0
LINE
  5
2A7
330
6C
100
AcDbEntity
  8
Visible (ANSI)
100
AcDbLine
 10
35.61328791319894
 20
23.946812797933
 30
0.0
 11
36.89783576957176
 21
24.68653471150111
 31
0.0
  0
ELLIPSE
  5
2A8
330
6C
100
AcDbEntity
  8
Visible (ANSI)
100
AcDbEllipse
 10
39.65997163358214
 20
23.09592645450004
 30
0.0
 11
0.125
 21
-0.0000000000000003
 31
0.0
210
0.0
220
0.0
230
1.0
 40
0.5758617009853103
 41
5.497787143782298
 42
7.068583470577171
  0
ELLIPSE
  5
2A9
330
6C
100
AcDbEntity
  8
Visible (ANSI)
100
AcDbEllipse
 10
36.98622411722091
 20
21.55621766172255
 30
0.0
 11
-0.125
 21
0.0000000000000078
 31
0.0
210
0.0
220
0.0
230
1.0
 40
0.5758617009853101
 41
0.7853981633978702
 42
2.356194490192752
  0
LINE
  5
2AA
330
6C
100
AcDbEntity
  8
Visible (ANSI)
100
AcDbLine
 10
36.8978357695726
 20
21.5053181974985
 30
0.0
 11
34.22408825321057
 21
23.04502699027553
 31
0.0
  0
ELLIPSE
  5
2AB
330
6C
100
AcDbEntity
  8
Visible (ANSI)
100
AcDbEllipse
 10
34.31247660085887
 20
23.09592645449958
 30
0.0
 11
-0.124999999999999
 21
0.0000000000000003
 31
0.0
210
0.0
220
0.0
230
1.0
 40
0.5758617009853099
 41
5.497787143782259
 42
7.068583470577171
  0
ELLIPSE
  5
2AC
330
6C
100
AcDbEntity
  8
Visible (ANSI)
100
AcDbEllipse
 10
36.9862241172201
 20
24.63563524727707
 30
0.0
 11
0.1249999999999994
 21
-0.0000000000000078
 31
0.0
210
0.0
220
0.0
230
1.0
 40
0.5758617009853103
 41
0.7853981633978311
 42
2.356194490192752
  0
ELLIPSE
  5
2AD
330
6C
100
AcDbEntity
  8
Visible (ANSI)
100
AcDbEllipse
 10
40.25659298020829
 20
23.09592645450009
 30
0.0
 11
0.375000000000002
 21
-0.000000000000001
 31
0.0
210
0.0
220
0.0
230
1.0
 40
0.5758617009853101
 41
5.497787143782286
 42
7.068583470577181
  0
LINE
  5
2AE
330
6C
100
AcDbEntity
  8
Visible Narrow (ANSI)
100
AcDbLine
 10
40.52175802315328
 20
22.84103467122267
 30
0.0
 11
40.52175802315328
 21
22.94322806182799
 31
0.0
  0
ELLIPSE
  5
2AF
330
6C
100
AcDbEntity
  8
Visible (ANSI)
100
AcDbEllipse
 10
40.25659298020829
 20
22.99373306389477
 30
0.0
 11
0.3750000000000029
 21
-0.000000000000001
 31
0.0
210
0.0
220
0.0
230
1.0
 40
0.57586170098531
 41
5.497787143782285
 42
6.28318530717959
  0
LINE
  5
2B0
330
6C
100
AcDbEntity
  8
Visible (ANSI)
100
AcDbLine
 10
40.52175802315328
 20
22.94322806182799
 30
0.0
 11
37.25138916016599
 21
21.05994788553816
 31
0.0
  0
LINE
  5
2B1
330
6C
100
AcDbEntity
  8
Visible Narrow (ANSI)
100
AcDbLine
 10
37.25138916016599
 20
20.95775449493285
 30
0.0
 11
37.25138916016599
 21
21.05994788553816
 31
0.0
  0
LINE
  5
2B2
330
6C
100
AcDbEntity
  8
Visible (ANSI)
100
AcDbLine
 10
37.25138916016599
 20
20.95775449493285
 30
0.0
 11
40.52175802315328
 21
22.84103467122267
 31
0.0
  0
ELLIPSE
  5
2B3
330
6C
100
AcDbEntity
  8
Visible (ANSI)
100
AcDbEllipse
 10
36.986224117221
 20
21.21264627821027
 30
0.0
 11
-0.3750000000000002
 21
0.0000000000000233
 31
0.0
210
0.0
220
0.0
230
1.0
 40
0.5758617009853101
 41
0.7853981633978311
 42
2.356194490192738
  0
LINE
  5
2B4
330
6C
100
AcDbEntity
  8
Visible Narrow (ANSI)
100
AcDbLine
 10
36.72105907427609
 20
20.9577544949328
 30
0.0
 11
36.72105907427609
 21
21.05994788553812
 31
0.0
  0
ELLIPSE
  5
2B5
330
6C
100
AcDbEntity
  8
Visible (ANSI)
100
AcDbEllipse
 10
36.986224117221
 20
21.11045288760495
 30
0.0
 11
0.3750000000000011
 21
0.0000000000000213
 31
0.0
210
0.0
220
0.0
230
1.0
 40
0.5758617009853101
 41
3.926990816987146
 42
5.497787143782028
  0
LINE
  5
2B6
330
6C
100
AcDbEntity
  8
Visible (ANSI)
100
AcDbLine
 10
36.72105907427609
 20
21.05994788553812
 30
0.0
 11
33.4506902112878
 21
22.94322806182738
 31
0.0
  0
LINE
  5
2B7
330
6C
100
AcDbEntity
  8
Visible Narrow (ANSI)
100
AcDbLine
 10
33.4506902112878
 20
22.84103467122207
 30
0.0
 11
33.4506902112878
 21
22.94322806182738
 31
0.0
  0
LINE
  5
2B8
330
6C
100
AcDbEntity
  8
Visible (ANSI)
100
AcDbLine
 10
33.4506902112878
 20
22.84103467122207
 30
0.0
 11
36.72105907427609
 21
20.9577544949328
 31
0.0
  0
ELLIPSE
  5
2B9
330
6C
100
AcDbEntity
  8
Visible (ANSI)
100
AcDbEllipse
 10
33.71585525423272
 20
23.09592645449953
 30
0.0
 11
-0.3750000000000008
 21
0.000000000000001
 31
0.0
210
0.0
220
0.0
230
1.0
 40
0.5758617009853103
 41
5.497787143782286
 42
7.068583470577181
  0
ELLIPSE
  5
2BA
330
6C
100
AcDbEntity
  8
Visible (ANSI)
100
AcDbEllipse
 10
33.71585525423272
 20
22.99373306389421
 30
0.0
 11
-0.3750000000000017
 21
-0.0000000000000003
 31
0.0
210
0.0
220
0.0
230
1.0
 40
0.57586170098531
 41
0.0
 42
0.7853981633975753
  0
LINE
  5
2BB
330
6C
100
AcDbEntity
  8
Visible (ANSI)
100
AcDbLine
 10
33.45069021128773
 20
23.24862484717163
 30
0.0
 11
36.72105907427501
 21
25.13190502346145
 31
0.0
  0
ELLIPSE
  5
2BC
330
6C
100
AcDbEntity
  8
Visible (ANSI)
100
AcDbEllipse
 10
36.98622411722001
 20
24.97920663078935
 30
0.0
 11
0.3750000000000009
 21
-0.0000000000000233
 31
0.0
210
0.0
220
0.0
230
1.0
 40
0.5758617009853103
 41
0.7853981633978418
 42
2.356194490192738
  0
LINE
  5
2BD
330
6C
100
AcDbEntity
  8
Visible (ANSI)
100
AcDbLine
 10
37.25138916016492
 20
25.1319050234615
 30
0.0
 11
40.5217580231532
 21
23.24862484717224
 31
0.0
  0
LINE
  5
2BE
330
6C
100
AcDbEntity
  8
Visible (ANSI)
100
AcDbLine
 10
40.63159298020829
 20
22.99373306389477
 30
0.0
 11
40.63159298020829
 21
23.09592645450009
 31
0.0
  0
LINE
  5
2BF
330
6C
100
AcDbEntity
  8
Visible (ANSI)
100
AcDbLine
 10
33.34085525423272
 20
22.99373306389421
 30
0.0
 11
33.34085525423272
 21
23.09592645449953
 31
0.0
  0
ELLIPSE
  5
2C0
330
6C
100
AcDbEntity
  8
Visible (ANSI)
100
AcDbEllipse
 10
36.986224117221
 20
21.11045288760495
 30
0.0
 11
-0.1406249999999998
 21
-0.000000000000008
 31
0.0
210
0.0
220
0.0
230
1.0
 40
0.5758617009853103
 41
3.824401853699294
 42
5.600376107069463
  0
ELLIPSE
  5
2C1
330
6C
100
AcDbEntity
  8
Visible (ANSI)
100
AcDbEllipse
 10
36.986224117221
 20
21.21264627821027
 30
0.0
 11
0.1406250000000002
 21
-0.0000000000000004
 31
0.0
210
0.0
220
0.0
230
1.0
 40
0.57586170098531
 41
0.0
 42
6.283185307179586
  0
ELLIPSE
  5
2C2
330
6C
100
AcDbEntity
  8
Visible (ANSI)
100
AcDbEllipse
 10
33.71585525423272
 20
22.99373306389421
 30
0.0
 11
-0.1406250000000004
 21
-0.000000000000008
 31
0.0
210
0.0
220
0.0
230
1.0
 40
0.57586170098531
 41
3.824401853699296
 42
5.600376107069433
  0
ELLIPSE
  5
2C3
330
6C
100
AcDbEntity
  8
Visible (ANSI)
100
AcDbEllipse
 10
33.71585525423272
 20
23.09592645449953
 30
0.0
 11
0.1406250000000002
 21
-0.0000000000000004
 31
0.0
210
0.0
220
0.0
230
1.0
 40
0.57586170098531
 41
0.0
 42
6.283185307179586
  0
ELLIPSE
  5
2C4
330
6C
100
AcDbEntity
  8
Visible (ANSI)
100
AcDbEllipse
 10
40.25659298020829
 20
22.99373306389477
 30
0.0
 11
-0.1406249999999998
 21
-0.000000000000008
 31
0.0
210
0.0
220
0.0
230
1.0
 40
0.5758617009853103
 41
3.824401853699294
 42
5.600376107069463
  0
ELLIPSE
  5
2C5
330
6C
100
AcDbEntity
  8
Visible (ANSI)
100
AcDbEllipse
 10
40.25659298020829
 20
23.09592645450009
 30
0.0
 11
0.1406250000000002
 21
-0.0000000000000004
 31
0.0
210
0.0
220
0.0
230
1.0
 40
0.57586170098531
 41
0.0
 42
6.283185307179586
  0
ELLIPSE
  5
2C6
330
6C
100
AcDbEntity
  8
Visible (ANSI)
100
AcDbEllipse
 10
36.98622411722001
 20
24.87701324018404
 30
0.0
 11
-0.1406249999999995
 21
-0.000000000000008
 31
0.0
210
0.0
220
0.0
230
1.0
 40
0.57586170098531
 41
3.824401853699294
 42
5.600376107069496
  0
ELLIPSE
  5
2C7
330
6C
100
AcDbEntity
  8
Visible (ANSI)
100
AcDbEllipse
 10
36.98622411722001
 20
24.97920663078935
 30
0.0
 11
0.1406250000000002
 21
-0.0000000000000004
 31
0.0
210
0.0
220
0.0
230
1.0
 40
0.57586170098531
 41
0.0
 42
6.283185307179586
  0
MTEXT
  5
2C8
330
6C
100
AcDbEntity
  8
Symbol (ANSI)
100
AcDbMText
 10
36.07754753878238
 20
10.26399261026749
 30
0.0
 40
0.443076914112038
 41
0.0
 46
0.0
 71
     7
 72
     1
  1
 
  7
Label Text (ANSI)
 73
     1
 44
1.0
  0
DIMENSION
  5
2C9
330
6C
100
AcDbEntity
  8
Dimension (ANSI)
100
AcDbDimension
280
     0
  2
*D4
 10
26.07145146137716
 20
6.666416531451432
 30
0.0
 11
22.57720146137727
 21
6.666416531451432
 31
0.0
 70
   160
  1
<>
 42
6.988499999999788
 73
     0
 74
     0
 75
     0
  3
Default (ANSI)
100
AcDbAlignedDimension
 13
19.08295146137737
 23
7.158205460821096
 33
0.0
 14
26.07145146137716
 24
7.919705460821099
 34
0.0
 50
180.0
100
AcDbRotatedDimension
1001
ACAD
1000
DSTYLE
1002
{
1070
   289
1070
     1
1070
    73
1070
     0
1070
    74
1070
     0
1070
   271
1070
     1
1070
   272
1070
     1
1070
    48
1040
0.0
1070
    47
1040
0.0
1002
}
  0
DIMENSION
  5
3B5
330
6C
100
AcDbEntity
  8
Dimension (ANSI)
100
AcDbDimension
280
     0
  2
*D5
 10
27.09458702302641
 20
14.8342054608211
 30
0.0
 11
27.0945870230264
 21
11.3399554608211
 31
0.0
 70
   160
  1
<>
 42
6.988499999999999
 73
     0
 74
     0
 75
     0
  3
Default (ANSI)
100
AcDbAlignedDimension
 13
25.99745146137718
 23
7.8457054608211
 33
0.0
 14
26.7589514613773
 24
14.8342054608211
 34
0.0
 50
270.0
100
AcDbRotatedDimension
1001
ACAD
1000
DSTYLE
1002
{
1070
   289
1070
     1
1070
   271
1070
     1
1070
   272
1070
     1
1070
    48
1040
0.0
1070
    47
1040
0.0
1002
}
  0
LINE
  5
49F
330
6C
100
AcDbEntity
  8
Centerline (ANSI)
  6
CHAIN
 48
0.9524481296539306
100
AcDbLine
 10
6.613416889752947
 20
7.225513153128797
 30
0.0
 11
6.61341688975295
 21
14.45567038501956
 31
0.0
  0
LINE
  5
4A0
330
6C
100
AcDbEntity
  8
Centerline (ANSI)
  6
CHAIN
 48
0.9524481296539306
100
AcDbLine
 10
3.788410747584358
 20
9.845705460821108
 30
0.0
 11
9.476415916652147
 21
9.845705460821102
 31
0.0
  0
DIMENSION
  5
4A1
330
6C
100
AcDbEntity
  8
Dimension (ANSI)
100
AcDbDimension
280
     0
  2
*D6
 10
18.36860634213036
 20
11.84670546082108
 30
0.0
 11
18.36860634213035
 21
9.84620546082109
 31
0.0
 70
   160
  1
<>
 42
4.000999999999978
 73
     0
 74
     0
 75
     0
  3
Default (ANSI)
100
AcDbAlignedDimension
 13
19.1454514613772
 23
7.8457054608211
 33
0.0
 14
19.2079514613772
 24
11.84670546082108
 34
0.0
 50
270.0
100
AcDbRotatedDimension
1001
ACAD
1000
DSTYLE
1002
{
1070
   289
1070
     1
1070
   271
1070
     2
1070
   272
1070
     2
1070
    48
1040
0.0
1070
    47
1040
0.0
1002
}
  0
DIMENSION
  5
58B
330
6C
100
AcDbEntity
  8
Dimension (ANSI)
100
AcDbDimension
280
     0
  2
*D7
 10
18.36860634213035
 20
7.8457054608211
 30
0.0
 11
18.34917393338689
 21
6.388560454047347
 31
0.0
 70
   160
  1
(<>){\PTYP.}
 71
     5
 42
0.6875000000000009
 73
     0
 74
     0
 75
     0
  3
Default (ANSI)
100
AcDbAlignedDimension
 13
19.08295146137731
 23
7.158205460821099
 33
0.0
 14
19.1454514613772
 24
7.8457054608211
 34
0.0
 50
270.0
100
AcDbRotatedDimension
1001
ACAD
1000
DSTYLE
1002
{
1070
   289
1070
     1
1070
   279
1070
     1
1070
   271
1070
     2
1070
   147
1040
0.031496062992126
1070
    72
1070
     0
1070
    71
1070
     0
1070
   272
1070
     2
1070
    48
1040
0.0
1070
    47
1040
0.0
1002
}
  0
DIMENSION
  5
6AE
330
6C
100
AcDbEntity
  8
Dimension (ANSI)
100
AcDbDimension
280
     0
  2
*D8
 10
26.07145146137716
 20
16.16159738954045
 30
0.0
 11
24.0718858031367
 21
16.16159738954045
 31
0.0
 70
   160
  1
<>
 42
3.999131316480934
 73
     0
 74
     0
 75
     0
  3
Default (ANSI)
100
AcDbAlignedDimension
 13
22.07232014489623
 23
14.70920546082111
 33
0.0
 14
26.07145146137716
 24
14.72332656339679
 34
0.0
 50
180.0
100
AcDbRotatedDimension
1001
ACAD
1000
DSTYLE
1002
{
1070
   289
1070
     1
1070
    73
1070
     0
1070
    74
1070
     0
1070
   271
1070
     2
1070
   272
1070
     2
1070
    48
1040
0.0
1070
    47
1040
0.0
1002
}
  0
DIMENSION
  5
798
330
6C
100
AcDbEntity
  8
Dimension (ANSI)
100
AcDbDimension
280
     0
  2
*D9
 10
26.07145146137716
 20
16.16159738954045
 30
0.0
 11
27.92946801067938
 21
16.16159738954045
 31
0.0
 70
   160
  1
(<>){\PTYP.}
 71
     5
 42
0.6875000000001315
 73
     0
 74
     0
 75
     0
  3
Default (ANSI)
100
AcDbAlignedDimension
 13
26.7589514613773
 23
14.8342054608211
 33
0.0
 14
26.07145146137716
 24
14.7717054608211
 34
0.0
 50
180.0
100
AcDbRotatedDimension
1001
ACAD
1000
DSTYLE
1002
{
1070
   289
1070
     1
1070
    73
1070
     0
1070
    74
1070
     0
1070
   271
1070
     2
1070
   147
1040
0.031496062992126
1070
    72
1070
     0
1070
    71
1070
     0
1070
   272
1070
     2
1070
    48
1040
0.0
1070
    47
1040
0.0
1002
}
  0
DIMENSION
  5
8A0
330
6C
100
AcDbEntity
  8
Dimension (ANSI)
100
AcDbDimension
280
     0
  2
*D10
 10
20.80631572691446
 20
15.64323036593747
 30
0.0
 11
20.41820565899138
 21
15.06238260173528
 31
0.0
 70
   165
  1
<>{\PTYP.}
 71
     5
 42
2.356194490192358
 73
     0
 74
     0
 75
     0
  3
Default (ANSI)
100
AcDb3PointAngularDimension
 13
22.07232014489623
 23
14.7724491443401
 33
0.0
 14
21.96353448625214
 24
14.26844028931163
 34
0.0
 15
22.07232014489623
 25
14.37722594795571
 35
0.0
1001
ACAD_DSTYLE_DIMANGULAR_EXTENSION
1070
   387
1070
     1
1001
ACAD
1000
DSTYLE
1002
{
1070
   179
1070
     0
1070
    76
1070
     1
1070
   272
1070
     0
1070
    48
1040
0.0
1070
    47
1040
0.0
1002
}
  0
DIMENSION
  5
9D7
330
6C
100
AcDbEntity
  8
Dimension (ANSI)
100
AcDbDimension
280
     0
  2
*D11
 10
6.61341688975295
 20
15.59862954424072
 30
0.0
 11
5.526649602803239
 21
15.59862954424072
 31
0.0
 70
   160
  1
<>
 42
2.000000000000007
 73
     0
 74
     0
 75
     0
  3
Default (ANSI)
100
AcDbAlignedDimension
 13
4.613416889752943
 23
14.70920546082106
 33
0.0
 14
6.61341688975295
 24
14.45567038501956
 34
0.0
 50
180.0
100
AcDbRotatedDimension
1001
ACAD
1000
DSTYLE
1002
{
1070
   289
1070
     1
1070
    73
1070
     0
1070
    74
1070
     0
1070
   271
1070
     2
1070
   272
1070
     2
1070
    48
1040
0.0
1070
    47
1040
0.0
1002
}
  0
DIMENSION
  5
AC1
330
6C
100
AcDbEntity
  8
Dimension (ANSI)
100
AcDbDimension
280
     0
  2
*D12
 10
10.4455255471791
 20
7.845705460821099
 30
0.0
 11
10.4455255471791
 21
8.8457054608211
 31
0.0
 70
   160
  1
<>
 42
2.000000000000002
 73
     0
 74
     0
 75
     0
  3
Default (ANSI)
100
AcDbAlignedDimension
 13
9.476415916652147
 23
9.845705460821102
 33
0.0
 14
8.539416889752928
 24
7.8457054608211
 34
0.0
 50
270.0
100
AcDbRotatedDimension
1001
ACAD
1000
DSTYLE
1002
{
1070
   289
1070
     1
1070
   271
1070
     2
1070
   272
1070
     2
1070
    48
1040
0.0
1070
    47
1040
0.0
1002
}
  0
DIMENSION
  5
BAB
330
6C
100
AcDbEntity
  8
Dimension (ANSI)
100
AcDbDimension
280
     0
  2
*D13
 10
2.896009277369413
 20
9.845705460821108
 30
0.0
 11
2.896009277369411
 21
11.18945546082111
 31
0.0
 70
   160
  1
(<>)
 42
2.687500000000003
 73
     0
 74
     0
 75
     0
  3
Default (ANSI)
100
AcDbAlignedDimension
 13
4.300916889752947
 23
12.53320546082111
 33
0.0
 14
3.788410747584358
 24
9.845705460821108
 34
0.0
 50
270.0
100
AcDbRotatedDimension
1001
ACAD
1000
DSTYLE
1002
{
1070
   289
1070
     1
1070
   271
1070
     2
1070
   147
1040
0.031496062992126
1070
    72
1070
     0
1070
    71
1070
     0
1070
   272
1070
     2
1070
    48
1040
0.0
1070
    47
1040
0.0
1002
}
  0
DIMENSION
  5
C9F
330
6C
100
AcDbEntity
  8
Dimension (ANSI)
100
AcDbDimension
280
     0
  2
*D14
 10
1.7012891242351
 20
7.158205460821109
 30
0.0
 11
1.701289124235099
 21
9.845705460821108
 31
0.0
 70
   160
  1
(<>)
 42
5.375000000000001
 73
     0
 74
     0
 75
     0
  3
Default (ANSI)
100
AcDbAlignedDimension
 13
4.300916889752947
 23
12.53320546082111
 33
0.0
 14
4.300916889752943
 24
7.158205460821108
 34
0.0
 50
270.0
100
AcDbRotatedDimension
1001
ACAD
1000
DSTYLE
1002
{
1070
   289
1070
     1
1070
   271
1070
     2
1070
   147
1040
0.031496062992126
1070
    72
1070
     0
1070
    71
1070
     0
1070
   272
1070
     2
1070
    48
1040
0.0
1070
    47
1040
0.0
1002
}
  0
DIMENSION
  5
D93
330
6C
100
AcDbEntity
  8
Dimension (ANSI)
100
AcDbDimension
280
     0
  2
*D15
 10
6.613416889752947
 20
6.280908757970453
 30
0.0
 11
5.269666889752945
 21
6.280908757970453
 31
0.0
 70
   160
  1
(<>)
 42
2.687500000000003
 73
     0
 74
     0
 75
     0
  3
Default (ANSI)
100
AcDbAlignedDimension
 13
3.925916889752944
 23
7.533205460821109
 33
0.0
 14
6.613416889752947
 24
7.225513153128797
 34
0.0
100
AcDbRotatedDimension
1001
ACAD
1000
DSTYLE
1002
{
1070
   289
1070
     1
1070
    73
1070
     0
1070
    74
1070
     0
1070
   271
1070
     2
1070
   147
1040
0.031496062992126
1070
    72
1070
     0
1070
    71
1070
     0
1070
   272
1070
     2
1070
    48
1040
0.0
1070
    47
1040
0.0
1002
}
  0
DIMENSION
  5
E87
330
6C
100
AcDbEntity
  8
Dimension (ANSI)
100
AcDbDimension
280
     0
  2
*D16
 10
9.300916889752951
 20
5.316229964887613
 30
0.0
 11
6.613416889752946
 21
5.316229964887613
 31
0.0
 70
   160
  1
(<>)
 42
5.375000000000007
 73
     0
 74
     0
 75
     0
  3
Default (ANSI)
100
AcDbAlignedDimension
 13
3.925916889752944
 23
7.533205460821109
 33
0.0
 14
9.300916889752951
 24
7.533205460821098
 34
0.0
100
AcDbRotatedDimension
1001
ACAD
1000
DSTYLE
1002
{
1070
   289
1070
     1
1070
    73
1070
     0
1070
    74
1070
     0
1070
   271
1070
     2
1070
   147
1040
0.031496062992126
1070
    72
1070
     0
1070
    71
1070
     0
1070
   272
1070
     2
1070
    48
1040
0.0
1070
    47
1040
0.0
1002
}
  0
DIMENSION
  5
F7B
330
6C
100
AcDbEntity
  8
Dimension (ANSI)
100
AcDbDimension
280
     0
  2
*D17
 10
10.34089619921798
 20
11.77270546082108
 30
0.0
 11
10.36268739935658
 21
13.40149925928772
 31
0.0
 70
   160
  1
(<>){\PTYP.}
 71
     5
 42
0.76050000000002
 73
     0
 74
     0
 75
     0
  3
Default (ANSI)
100
AcDbAlignedDimension
 13
8.925916889752951
 23
12.5332054608211
 33
0.0
 14
8.539416889752988
 24
11.77270546082108
 34
0.0
 50
270.0
100
AcDbRotatedDimension
1001
ACAD
1000
DSTYLE
1002
{
1070
   289
1070
     2
1070
   279
1070
     1
1070
   271
1070
     2
1070
   147
1040
0.031496062992126
1070
    72
1070
     0
1070
    71
1070
     0
1070
   272
1070
     2
1070
    48
1040
0.0
1070
    47
1040
0.0
1002
}
  0
DIMENSION
  5
109C
330
6C
100
AcDbEntity
  8
Dimension (ANSI)
100
AcDbDimension
280
     0
  2
*D18
 10
19.20795146137738
 20
13.51299088062502
 30
0.0
 11
17.33789848024628
 21
13.51299088062502
 31
0.0
 70
   160
  1
 10 GA.\P304 S.S.
 71
     5
 42
0.1249999999999432
 73
     0
 74
     0
 75
     0
  3
Default (ANSI)
100
AcDbAlignedDimension
 13
19.08295146137743
 23
12.1582054608211
 33
0.0
 14
19.20795146137738
 24
12.5332054608211
 34
0.0
100
AcDbRotatedDimension
1001
ACAD
1000
DSTYLE
1002
{
1070
   289
1070
     1
1070
    73
1070
     0
1070
    74
1070
     0
1070
   271
1070
     2
1070
   272
1070
     2
1070
    48
1040
0.0
1070
    47
1040
0.0
1002
}
  0
DIMENSION
  5
119A
330
6C
100
AcDbEntity
  8
Dimension (ANSI)
100
AcDbDimension
280
     0
  2
*D19
 10
8.539416889752944
 20
10.96214504790776
 30
0.0
 11
10.34089619921799
 21
10.96214504790776
 31
0.0
 70
   160
  1
(<>){\PTYP.}
 71
     5
 42
0.7615000000000088
 73
     0
 74
     0
 75
     0
  3
Default (ANSI)
100
AcDbAlignedDimension
 13
9.300916889752953
 23
10.56804619878233
 33
0.0
 14
8.539416889752944
 24
10.57344064359404
 34
0.0
 50
180.0
100
AcDbRotatedDimension
1001
ACAD
1000
DSTYLE
1002
{
1070
   289
1070
     2
1070
    73
1070
     0
1070
    74
1070
     0
1070
   271
1070
     2
1070
    76
1070
     1
1070
    75
1070
     1
1070
   147
1040
0.031496062992126
1070
    72
1070
     0
1070
    71
1070
     0
1070
   272
1070
     2
1070
    48
1040
0.0
1070
    47
1040
0.0
1002
}
  0
DIMENSION
  5
1293
330
6C
100
AcDbEntity
  8
Dimension (ANSI)
100
AcDbDimension
280
     0
  2
*D20
 10
8.539416889752944
 20
10.96214504790776
 30
0.0
 11
5.894090810521251
 21
10.96214504790776
 31
0.0
 70
   160
  1
(<>){\POPENING\P(2 PL.)}
 71
     5
 42
3.852000000000001
 73
     0
 74
     0
 75
     0
  3
Default (ANSI)
100
AcDbAlignedDimension
 13
4.687416889752943
 23
10.57344064359404
 33
0.0
 14
8.539416889752944
 24
10.57344064359404
 34
0.0
100
AcDbRotatedDimension
1001
ACAD
1000
DSTYLE
1002
{
1070
   289
1070
     1
1070
    73
1070
     0
1070
    74
1070
     0
1070
   271
1070
     2
1070
    76
1070
     1
1070
    75
1070
     1
1070
   147
1040
0.031496062992126
1070
    72
1070
     0
1070
    71
1070
     0
1070
   272
1070
     2
1070
    48
1040
0.0
1070
    47
1040
0.0
1002
}
  0
DIMENSION
  5
138C
330
6C
100
AcDbEntity
  8
Dimension (ANSI)
100
AcDbDimension
280
     0
  2
*D21
 10
7.555063270341232
 20
11.77270546082108
 30
0.0
 11
7.55506327034123
 21
9.681097872791623
 31
0.0
 70
   160
  1
(<>){\POPENING\P(2 PL.)}
 71
     5
 42
3.852999999999981
 73
     0
 74
     0
 75
     0
  3
Default (ANSI)
100
AcDbAlignedDimension
 13
7.508040874020394
 23
7.919705460821102
 33
0.0
 14
7.490005329781748
 24
11.77270546082108
 34
0.0
 50
90.0
100
AcDbRotatedDimension
1001
ACAD
1000
DSTYLE
1002
{
1070
   289
1070
     1
1070
   271
1070
     2
1070
    76
1070
     1
1070
    75
1070
     1
1070
   147
1040
0.031496062992126
1070
    72
1070
     0
1070
    71
1070
     0
1070
   272
1070
     2
1070
    48
1040
0.0
1070
    47
1040
0.0
1002
}
  0
ENDSEC
  0
SECTION
  2
OBJECTS
  0
DICTIONARY
  5
C
330
0
100
AcDbDictionary
281
     1
  3
ACAD_CIP_PREVIOUS_PRODUCT_INFO
350
1485
  3
ACAD_COLOR
350
63
  3
ACAD_GROUP
350
D
  3
ACAD_LAYOUT
350
62
  3
ACAD_MATERIAL
350
10
  3
ACAD_MLEADERSTYLE
350
66
  3
ACAD_MLINESTYLE
350
5F
  3
ACAD_PLOTSETTINGS
350
61
  3
ACAD_PLOTSTYLENAME
350
E
  3
ACAD_SCALELIST
350
42
  3
ACAD_TABLESTYLE
350
64
  3
ACAD_VISUALSTYLE
350
29
  3
ACDB_RECOMPOSE_DATA
350
148C
  3
AcDbVariableDictionary
350
76
  0
DICTIONARY
  5
148A
330
107
100
AcDbDictionary
280
     1
281
     1
  3
ACAD_MTEXT_2008_RT
360
148B
  0
XRECORD
  5
1485
102
{ACAD_REACTORS
330
C
102
}
330
C
100
AcDbXrecord
280
     1
300
INVNTOR
300
2012
300
85795PDSP_2012_0F
  0
DICTIONARY
  5
63
102
{ACAD_REACTORS
330
C
102
}
330
C
100
AcDbDictionary
281
     1
  0
DICTIONARY
  5
D
102
{ACAD_REACTORS
330
C
102
}
330
C
100
AcDbDictionary
281
     1
  0
DICTIONARY
  5
62
102
{ACAD_REACTORS
330
C
102
}
330
C
100
AcDbDictionary
281
     1
  3
Layout1
350
6B
  3
Layout2
350
73
  3
Model
350
6F
  0
DICTIONARY
  5
10
102
{ACAD_REACTORS
330
C
102
}
330
C
100
AcDbDictionary
281
     1
  3
ByBlock
350
19
  3
ByLayer
350
11
  3
Global
350
21
  0
DICTIONARY
  5
66
102
{ACAD_REACTORS
330
C
102
}
330
C
100
AcDbDictionary
281
     1
  3
Standard
350
67
  0
DICTIONARY
  5
5F
102
{ACAD_REACTORS
330
C
102
}
330
C
100
AcDbDictionary
281
     1
  3
Standard
350
60
  0
DICTIONARY
  5
61
102
{ACAD_REACTORS
330
C
102
}
330
C
100
AcDbDictionary
281
     1
  0
ACDBDICTIONARYWDFLT
  5
E
102
{ACAD_REACTORS
330
C
102
}
330
C
100
AcDbDictionary
281
     1
  3
Normal
350
F
100
AcDbDictionaryWithDefault
340
F
  0
DICTIONARY
  5
42
102
{ACAD_REACTORS
330
C
102
}
330
C
100
AcDbDictionary
281
     1
  3
A0
350
43
  3
A1
350
44
  3
A2
350
45
  3
A3
350
46
  3
A4
350
47
  3
A5
350
48
  3
A6
350
49
  3
A7
350
4A
  3
A8
350
4B
  3
A9
350
4C
  3
B0
350
4D
  3
B1
350
4E
  3
B2
350
4F
  3
B3
350
50
  3
B4
350
51
  3
B5
350
52
  3
B6
350
53
  0
DICTIONARY
  5
64
102
{ACAD_REACTORS
330
C
102
}
330
C
100
AcDbDictionary
281
     1
  3
Standard
350
65
  0
DICTIONARY
  5
29
102
{ACAD_REACTORS
330
C
102
}
330
C
100
AcDbDictionary
281
     1
  3
2dWireframe
350
2F
  3
Basic
350
2E
  3
Brighten
350
35
  3
ColorChange
350
39
  3
Conceptual
350
32
  3
Dim
350
34
  3
EdgeColorOff
350
41
  3
Facepattern
350
38
  3
Flat
350
2A
  3
FlatWithEdges
350
2B
  3
Gouraud
350
2C
  3
GouraudWithEdges
350
2D
  3
Hidden
350
31
  3
JitterOff
350
3F
  3
Linepattern
350
37
  3
OverhangOff
350
40
  3
Realistic
350
33
  3
Shaded
350
3E
  3
Shaded with edges
350
3D
  3
Shades of Gray
350
3A
  3
Sketchy
350
3B
  3
Thicken
350
36
  3
Wireframe
350
30
  3
X-Ray
350
3C
  0
XRECORD
  5
148C
102
{ACAD_REACTORS
330
C
102
}
330
C
100
AcDbXrecord
280
     1
 90
        1
330
65
330
107
330
F7B
330
119A
  0
DICTIONARY
  5
76
102
{ACAD_REACTORS
330
C
102
}
330
C
100
AcDbDictionary
281
     1
  3
CANNOSCALE
350
79
  3
CMLEADERSTYLE
350
78
  3
CTABLESTYLE
350
77
  0
XRECORD
  5
148B
102
{ACAD_REACTORS
330
148A
102
}
330
148A
100
AcDbXrecord
280
     1
 40
3217693.0
  1
\pxsm0.94;{\fRomanS|b0|i0;\H0.4800;PART#: SSJWL904\P(DATA SUBJECT TO CHANGE WITHOUT NOTICE)\P\fRomanS|b0|i0;\H0.2462; \PTHIS DRAWING IS PROPERTY OF hUBBELL INC. WEIGMANN\PALL INFORMATION IS PROPRIETARY AND NOT TO BE DUPLICATED\P}
  0
LAYOUT
  5
6B
102
{ACAD_REACTORS
330
62
102
}
330
62
100
AcDbPlotSettings
  1

  2

  4

  6

 40
0.0
 41
0.0
 42
0.0
 43
0.0
 44
0.0
 45
0.0
 46
0.0
 47
0.0
 48
0.0
 49
0.0
140
0.0
141
0.0
142
1.0
143
1.0
 70
   688
 72
     0
 73
     0
 74
     5
  7

 75
    16
147
1.0
 76
     0
 77
     2
 78
   300
148
0.0
149
0.0
100
AcDbLayout
  1
Layout1
 70
     1
 71
     1
 10
0.0
 20
0.0
 11
12.0
 21
9.0
 12
0.0
 22
0.0
 32
0.0
 14
0.0
 24
0.0
 34
0.0
 15
0.0
 25
0.0
 35
0.0
146
0.0
 13
0.0
 23
0.0
 33
0.0
 16
1.0
 26
0.0
 36
0.0
 17
0.0
 27
1.0
 37
0.0
 76
     0
330
68
  0
LAYOUT
  5
73
102
{ACAD_REACTORS
330
62
102
}
330
62
100
AcDbPlotSettings
  1

  2

  4

  6

 40
0.0
 41
0.0
 42
0.0
 43
0.0
 44
0.0
 45
0.0
 46
0.0
 47
0.0
 48
0.0
 49
0.0
140
0.0
141
0.0
142
1.0
143
1.0
 70
   688
 72
     0
 73
     0
 74
     5
  7

 75
    16
147
1.0
 76
     0
 77
     2
 78
   300
148
0.0
149
0.0
100
AcDbLayout
  1
Layout2
 70
     1
 71
     2
 10
0.0
 20
0.0
 11
12.0
 21
9.0
 12
0.0
 22
0.0
 32
0.0
 14
0.0
 24
0.0
 34
0.0
 15
0.0
 25
0.0
 35
0.0
146
0.0
 13
0.0
 23
0.0
 33
0.0
 16
1.0
 26
0.0
 36
0.0
 17
0.0
 27
1.0
 37
0.0
 76
     0
330
70
  0
LAYOUT
  5
6F
102
{ACAD_REACTORS
330
62
102
}
330
62
100
AcDbPlotSettings
  1

  2

  4

  6

 40
0.0
 41
0.0
 42
0.0
 43
0.0
 44
0.0
 45
0.0
 46
0.0
 47
0.0
 48
0.0
 49
0.0
140
0.0
141
0.0
142
1.0
143
1.0
 70
  1712
 72
     0
 73
     0
 74
     0
  7

 75
     0
147
1.0
 76
     0
 77
     2
 78
   300
148
0.0
149
0.0
100
AcDbLayout
  1
Model
 70
     1
 71
     0
 10
0.0
 20
0.0
 11
12.0
 21
9.0
 12
0.0
 22
0.0
 32
0.0
 14
0.0
 24
0.0
 34
0.0
 15
0.0
 25
0.0
 35
0.0
146
0.0
 13
0.0
 23
0.0
 33
0.0
 16
1.0
 26
0.0
 36
0.0
 17
0.0
 27
1.0
 37
0.0
 76
     0
330
6C
  0
MATERIAL
  5
19
102
{ACAD_XDICTIONARY
360
1A
102
}
102
{ACAD_REACTORS
330
10
102
}
330
10
100
AcDbMaterial
  1
ByBlock
 72
     0
 43
0.0208333333333333
 43
0.0
 43
0.0
 43
0.0
 43
0.0
 43
0.0208333333333333
 43
0.0
 43
0.0
 43
0.0
 43
0.0
 43
1.0
 43
0.0
 43
0.0
 43
0.0
 43
0.0
 43
1.0
 77
     0
 47
0.0208333333333333
 47
0.0
 47
0.0
 47
0.0
 47
0.0
 47
0.0208333333333333
 47
0.0
 47
0.0
 47
0.0
 47
0.0
 47
1.0
 47
0.0
 47
0.0
 47
0.0
 47
0.0
 47
1.0
171
     0
 49
0.0208333333333333
 49
0.0
 49
0.0
 49
0.0
 49
0.0
 49
0.0208333333333333
 49
0.0
 49
0.0
 49
0.0
 49
0.0
 49
1.0
 49
0.0
 49
0.0
 49
0.0
 49
0.0
 49
1.0
175
     0
142
0.0208333333333333
142
0.0
142
0.0
142
0.0
142
0.0
142
0.0208333333333333
142
0.0
142
0.0
142
0.0
142
0.0
142
1.0
142
0.0
142
0.0
142
0.0
142
0.0
142
1.0
179
     0
144
0.0208333333333333
144
0.0
144
0.0
144
0.0
144
0.0
144
0.0208333333333333
144
0.0
144
0.0
144
0.0
144
0.0
144
1.0
144
0.0
144
0.0
144
0.0
144
0.0
144
1.0
147
0.0208333333333333
147
0.0
147
0.0
147
0.0
147
0.0
147
0.0208333333333333
147
0.0
147
0.0
147
0.0
147
0.0
147
1.0
147
0.0
147
0.0
147
0.0
147
0.0
147
1.0
  0
MATERIAL
  5
11
102
{ACAD_XDICTIONARY
360
12
102
}
102
{ACAD_REACTORS
330
10
102
}
330
10
100
AcDbMaterial
  1
ByLayer
 72
     0
 43
0.0208333333333333
 43
0.0
 43
0.0
 43
0.0
 43
0.0
 43
0.0208333333333333
 43
0.0
 43
0.0
 43
0.0
 43
0.0
 43
1.0
 43
0.0
 43
0.0
 43
0.0
 43
0.0
 43
1.0
 77
     0
 47
0.0208333333333333
 47
0.0
 47
0.0
 47
0.0
 47
0.0
 47
0.0208333333333333
 47
0.0
 47
0.0
 47
0.0
 47
0.0
 47
1.0
 47
0.0
 47
0.0
 47
0.0
 47
0.0
 47
1.0
171
     0
 49
0.0208333333333333
 49
0.0
 49
0.0
 49
0.0
 49
0.0
 49
0.0208333333333333
 49
0.0
 49
0.0
 49
0.0
 49
0.0
 49
1.0
 49
0.0
 49
0.0
 49
0.0
 49
0.0
 49
1.0
175
     0
142
0.0208333333333333
142
0.0
142
0.0
142
0.0
142
0.0
142
0.0208333333333333
142
0.0
142
0.0
142
0.0
142
0.0
142
1.0
142
0.0
142
0.0
142
0.0
142
0.0
142
1.0
179
     0
144
0.0208333333333333
144
0.0
144
0.0
144
0.0
144
0.0
144
0.0208333333333333
144
0.0
144
0.0
144
0.0
144
0.0
144
1.0
144
0.0
144
0.0
144
0.0
144
0.0
144
1.0
147
0.0208333333333333
147
0.0
147
0.0
147
0.0
147
0.0
147
0.0208333333333333
147
0.0
147
0.0
147
0.0
147
0.0
147
1.0
147
0.0
147
0.0
147
0.0
147
0.0
147
1.0
  0
MATERIAL
  5
21
102
{ACAD_XDICTIONARY
360
22
102
}
102
{ACAD_REACTORS
330
10
102
}
330
10
100
AcDbMaterial
  1
Global
 72
     0
 43
0.0208333333333333
 43
0.0
 43
0.0
 43
0.0
 43
0.0
 43
0.0208333333333333
 43
0.0
 43
0.0
 43
0.0
 43
0.0
 43
1.0
 43
0.0
 43
0.0
 43
0.0
 43
0.0
 43
1.0
 77
     0
 47
0.0208333333333333
 47
0.0
 47
0.0
 47
0.0
 47
0.0
 47
0.0208333333333333
 47
0.0
 47
0.0
 47
0.0
 47
0.0
 47
1.0
 47
0.0
 47
0.0
 47
0.0
 47
0.0
 47
1.0
171
     0
 49
0.0208333333333333
 49
0.0
 49
0.0
 49
0.0
 49
0.0
 49
0.0208333333333333
 49
0.0
 49
0.0
 49
0.0
 49
0.0
 49
1.0
 49
0.0
 49
0.0
 49
0.0
 49
0.0
 49
1.0
175
     0
142
0.0208333333333333
142
0.0
142
0.0
142
0.0
142
0.0
142
0.0208333333333333
142
0.0
142
0.0
142
0.0
142
0.0
142
1.0
142
0.0
142
0.0
142
0.0
142
0.0
142
1.0
179
     0
144
0.0208333333333333
144
0.0
144
0.0
144
0.0
144
0.0
144
0.0208333333333333
144
0.0
144
0.0
144
0.0
144
0.0
144
1.0
144
0.0
144
0.0
144
0.0
144
0.0
144
1.0
147
0.0208333333333333
147
0.0
147
0.0
147
0.0
147
0.0
147
0.0208333333333333
147
0.0
147
0.0
147
0.0
147
0.0
147
1.0
147
0.0
147
0.0
147
0.0
147
0.0
147
1.0
  0
MLEADERSTYLE
  5
67
102
{ACAD_XDICTIONARY
360
1488
102
}
102
{ACAD_REACTORS
330
66
102
}
330
66
100
AcDbMLeaderStyle
179
     2
170
     2
171
     1
172
     0
 90
        2
 40
0.0
 41
0.0
173
     1
 91
-1056964608
340
5B
 92
       -2
290
     1
 42
0.09
291
     1
 43
0.36
  3
Standard
 44
0.18
300

342
55
174
     1
178
     6
175
     1
176
     0
 93
-1056964608
 45
0.18
292
     0
297
     0
 46
0.18
 94
-1056964608
 47
1.0
 49
1.0
140
1.0
293
     1
141
0.0
294
     1
177
     0
142
1.0
295
     0
296
     0
143
0.125
271
     0
272
     9
273
     9
  0
MLINESTYLE
  5
60
102
{ACAD_REACTORS
330
5F
102
}
330
5F
100
AcDbMlineStyle
  2
STANDARD
 70
     0
  3

 62
   256
 51
90.0
 52
90.0
 71
     2
 49
0.5
 62
   256
  6
BYLAYER
 49
-0.5
 62
   256
  6
BYLAYER
  0
ACDBPLACEHOLDER
  5
F
102
{ACAD_REACTORS
330
E
102
}
330
E
  0
SCALE
  5
43
102
{ACAD_REACTORS
330
42
102
}
330
42
100
AcDbScale
 70
     0
300
1:1
140
1.0
141
1.0
290
     1
  0
SCALE
  5
44
102
{ACAD_REACTORS
330
42
102
}
330
42
100
AcDbScale
 70
     0
300
1/128" = 1'-0"
140
0.0078125
141
12.0
290
     0
  0
SCALE
  5
45
102
{ACAD_REACTORS
330
42
102
}
330
42
100
AcDbScale
 70
     0
300
1/64" = 1'-0"
140
0.015625
141
12.0
290
     0
  0
SCALE
  5
46
102
{ACAD_REACTORS
330
42
102
}
330
42
100
AcDbScale
 70
     0
300
1/32" = 1'-0"
140
0.03125
141
12.0
290
     0
  0
SCALE
  5
47
102
{ACAD_REACTORS
330
42
102
}
330
42
100
AcDbScale
 70
     0
300
1/16" = 1'-0"
140
0.0625
141
12.0
290
     0
  0
SCALE
  5
48
102
{ACAD_REACTORS
330
42
102
}
330
42
100
AcDbScale
 70
     0
300
3/32" = 1'-0"
140
0.09375
141
12.0
290
     0
  0
SCALE
  5
49
102
{ACAD_REACTORS
330
42
102
}
330
42
100
AcDbScale
 70
     0
300
1/8" = 1'-0"
140
0.125
141
12.0
290
     0
  0
SCALE
  5
4A
102
{ACAD_REACTORS
330
42
102
}
330
42
100
AcDbScale
 70
     0
300
3/16" = 1'-0"
140
0.1875
141
12.0
290
     0
  0
SCALE
  5
4B
102
{ACAD_REACTORS
330
42
102
}
330
42
100
AcDbScale
 70
     0
300
1/4" = 1'-0"
140
0.25
141
12.0
290
     0
  0
SCALE
  5
4C
102
{ACAD_REACTORS
330
42
102
}
330
42
100
AcDbScale
 70
     0
300
3/8" = 1'-0"
140
0.375
141
12.0
290
     0
  0
SCALE
  5
4D
102
{ACAD_REACTORS
330
42
102
}
330
42
100
AcDbScale
 70
     0
300
1/2" = 1'-0"
140
0.5
141
12.0
290
     0
  0
SCALE
  5
4E
102
{ACAD_REACTORS
330
42
102
}
330
42
100
AcDbScale
 70
     0
300
3/4" = 1'-0"
140
0.75
141
12.0
290
     0
  0
SCALE
  5
4F
102
{ACAD_REACTORS
330
42
102
}
330
42
100
AcDbScale
 70
     0
300
1" = 1'-0"
140
1.0
141
12.0
290
     0
  0
SCALE
  5
50
102
{ACAD_REACTORS
330
42
102
}
330
42
100
AcDbScale
 70
     0
300
1-1/2" = 1'-0"
140
1.5
141
12.0
290
     0
  0
SCALE
  5
51
102
{ACAD_REACTORS
330
42
102
}
330
42
100
AcDbScale
 70
     0
300
3" = 1'-0"
140
3.0
141
12.0
290
     0
  0
SCALE
  5
52
102
{ACAD_REACTORS
330
42
102
}
330
42
100
AcDbScale
 70
     0
300
6" = 1'-0"
140
6.0
141
12.0
290
     0
  0
SCALE
  5
53
102
{ACAD_REACTORS
330
42
102
}
330
42
100
AcDbScale
 70
     0
300
1'-0" = 1'-0"
140
12.0
141
12.0
290
     0
  0
TABLESTYLE
  5
65
102
{ACAD_XDICTIONARY
360
1486
102
}
102
{ACAD_REACTORS
330
64
102
}
330
64
100
AcDbTableStyle
280
     0
  3
Standard
 70
     0
 71
     0
 40
0.06
 41
0.06
280
     0
281
     0
  7
Standard
140
0.18
170
     2
 62
     0
 63
     7
283
     0
 90
      512
 91
        0
  1

274
    -2
284
     1
 64
     0
275
    -2
285
     1
 65
     0
276
    -2
286
     1
 66
     0
277
    -2
287
     1
 67
     0
278
    -2
288
     1
 68
     0
279
    -2
289
     1
 69
     0
  7
Standard
140
0.25
170
     5
 62
     0
 63
     7
283
     0
 90
      512
 91
        0
  1

274
    -2
284
     1
 64
     0
275
    -2
285
     1
 65
     0
276
    -2
286
     1
 66
     0
277
    -2
287
     1
 67
     0
278
    -2
288
     1
 68
     0
279
    -2
289
     1
 69
     0
  7
Standard
140
0.18
170
     5
 62
     0
 63
     7
283
     0
 90
      512
 91
        0
  1

274
    -2
284
     1
 64
     0
275
    -2
285
     1
 65
     0
276
    -2
286
     1
 66
     0
277
    -2
287
     1
 67
     0
278
    -2
288
     1
 68
     0
279
    -2
289
     1
 69
     0
  0
VISUALSTYLE
  5
2F
102
{ACAD_REACTORS
330
29
102
}
330
29
100
AcDbVisualStyle
  2
2dWireframe
 70
     4
177
     2
291
     0
 71
     0
176
     1
 72
     2
176
     1
 73
     0
176
     1
 90
        0
176
     1
 40
0.6
176
     1
 41
30.0
176
     1
 63
     7
421
 16777215
176
     1
 74
     1
176
     1
 91
        4
176
     1
 64
     7
176
     1
 65
   257
176
     1
 75
     1
176
     1
175
     1
176
     1
 42
1.0
176
     1
 92
        0
176
     1
 66
   257
176
     1
 43
1.0
176
     1
 76
     1
176
     1
 77
     6
176
     1
 78
     2
176
     1
 67
     7
176
     1
 79
     5
176
     1
170
     0
176
     1
171
     0
176
     1
290
     0
176
     1
 93
        1
176
     1
 44
0.0
176
     1
173
     0
176
     1
  0
VISUALSTYLE
  5
2E
102
{ACAD_REACTORS
330
29
102
}
330
29
100
AcDbVisualStyle
  2
Basic
 70
     7
177
     2
291
     1
 71
     1
176
     1
 72
     0
176
     1
 73
     1
176
     1
 90
        0
176
     1
 40
0.6
176
     1
 41
30.0
176
     1
 63
     7
421
 16777215
176
     1
 74
     0
176
     1
 91
        4
176
     1
 64
     7
176
     1
 65
   257
176
     1
 75
     1
176
     1
175
     1
176
     1
 42
1.0
176
     1
 92
        8
176
     1
 66
     7
176
     1
 43
1.0
176
     1
 76
     1
176
     1
 77
     6
176
     1
 78
     2
176
     1
 67
     7
176
     1
 79
     5
176
     1
170
     0
176
     1
171
     0
176
     1
290
     0
176
     1
 93
        1
176
     1
 44
0.0
176
     1
173
     0
176
     1
  0
VISUALSTYLE
  5
35
102
{ACAD_REACTORS
330
29
102
}
330
29
100
AcDbVisualStyle
  2
Brighten
 70
    12
177
     2
291
     1
 71
     2
176
     1
 72
     2
176
     1
 73
     0
176
     1
 90
        0
176
     1
 40
0.6
176
     1
 41
30.0
176
     1
 63
     7
421
 16777215
176
     1
 74
     1
176
     1
 91
        4
176
     1
 64
     7
176
     1
 65
   257
176
     1
 75
     1
176
     1
175
     1
176
     1
 42
1.0
176
     1
 92
        8
176
     1
 66
     7
176
     1
 43
1.0
176
     1
 76
     1
176
     1
 77
     6
176
     1
 78
     2
176
     1
 67
     7
176
     1
 79
     5
176
     1
170
     0
176
     1
171
     0
176
     1
290
     0
176
     1
 93
        1
176
     1
 44
50.0
176
     1
173
     0
176
     1
  0
VISUALSTYLE
  5
39
102
{ACAD_REACTORS
330
29
102
}
330
29
100
AcDbVisualStyle
  2
ColorChange
 70
    16
177
     2
291
     1
 71
     2
176
     1
 72
     2
176
     1
 73
     3
176
     1
 90
        0
176
     1
 40
0.6
176
     1
 41
30.0
176
     1
 63
     8
421
  8421504
176
     1
 74
     1
176
     1
 91
        4
176
     1
 64
     7
176
     1
 65
   257
176
     1
 75
     1
176
     1
175
     1
176
     1
 42
1.0
176
     1
 92
        8
176
     1
 66
     8
424
  8421504
176
     1
 43
1.0
176
     1
 76
     1
176
     1
 77
     6
176
     1
 78
     2
176
     1
 67
     7
176
     1
 79
     5
176
     1
170
     0
176
     1
171
     0
176
     1
290
     0
176
     1
 93
        1
176
     1
 44
0.0
176
     1
173
     0
176
     1
  0
VISUALSTYLE
  5
32
102
{ACAD_REACTORS
330
29
102
}
330
29
100
AcDbVisualStyle
  2
Conceptual
 70
     9
177
     2
291
     0
 71
     3
176
     1
 72
     2
176
     1
 73
     0
176
     1
 90
        0
176
     1
 40
0.6
176
     1
 41
30.0
176
     1
 63
     7
421
 16777215
176
     1
 74
     2
176
     1
 91
        2
176
     1
 64
     7
176
     1
 65
   257
176
     1
 75
     1
176
     1
175
     1
176
     1
 42
179.0
176
     1
 92
        8
176
     1
 66
     7
176
     1
 43
1.0
176
     1
 76
     1
176
     1
 77
     6
176
     1
 78
     2
176
     1
 67
     7
176
     1
 79
     3
176
     1
170
     0
176
     1
171
     0
176
     1
290
     0
176
     1
 93
        1
176
     1
 44
0.0
176
     1
173
     0
176
     1
  0
VISUALSTYLE
  5
34
102
{ACAD_REACTORS
330
29
102
}
330
29
100
AcDbVisualStyle
  2
Dim
 70
    11
177
     2
291
     1
 71
     2
176
     1
 72
     2
176
     1
 73
     0
176
     1
 90
        0
176
     1
 40
0.6
176
     1
 41
30.0
176
     1
 63
     7
421
 16777215
176
     1
 74
     1
176
     1
 91
        4
176
     1
 64
     7
176
     1
 65
   257
176
     1
 75
     1
176
     1
175
     1
176
     1
 42
1.0
176
     1
 92
        8
176
     1
 66
     7
176
     1
 43
1.0
176
     1
 76
     1
176
     1
 77
     6
176
     1
 78
     2
176
     1
 67
     7
176
     1
 79
     5
176
     1
170
     0
176
     1
171
     0
176
     1
290
     0
176
     1
 93
        1
176
     1
 44
-50.0
176
     1
173
     0
176
     1
  0
VISUALSTYLE
  5
41
102
{ACAD_REACTORS
330
29
102
}
330
29
100
AcDbVisualStyle
  2
EdgeColorOff
 70
    22
177
     2
291
     1
 71
     2
176
     0
 72
     2
176
     0
 73
     0
176
     0
 90
        0
176
     0
 40
0.6
176
     0
 41
30.0
176
     0
 63
     7
421
 16777215
176
     0
 74
     1
176
     0
 91
        4
176
     0
 64
     7
176
     0
 65
   257
176
     0
 75
     1
176
     0
175
     1
176
     0
 42
1.0
176
     0
 92
        8
176
     2
 66
     7
176
     0
 43
1.0
176
     0
 76
     1
176
     0
 77
     6
176
     0
 78
     2
176
     0
 67
     7
176
     0
 79
     5
176
     0
170
     0
176
     0
171
     0
176
     0
290
     0
176
     0
 93
        1
176
     0
 44
0.0
176
     0
173
     0
176
     0
  0
VISUALSTYLE
  5
38
102
{ACAD_REACTORS
330
29
102
}
330
29
100
AcDbVisualStyle
  2
Facepattern
 70
    15
177
     2
291
     1
 71
     2
176
     1
 72
     2
176
     1
 73
     0
176
     1
 90
        0
176
     1
 40
0.6
176
     1
 41
30.0
176
     1
 63
     7
421
 16777215
176
     1
 74
     1
176
     1
 91
        4
176
     1
 64
     7
176
     1
 65
   257
176
     1
 75
     1
176
     1
175
     1
176
     1
 42
1.0
176
     1
 92
        8
176
     1
 66
     7
176
     1
 43
1.0
176
     1
 76
     1
176
     1
 77
     6
176
     1
 78
     2
176
     1
 67
     7
176
     1
 79
     5
176
     1
170
     0
176
     1
171
     0
176
     1
290
     0
176
     1
 93
        1
176
     1
 44
0.0
176
     1
173
     0
176
     1
  0
VISUALSTYLE
  5
2A
102
{ACAD_REACTORS
330
29
102
}
330
29
100
AcDbVisualStyle
  2
Flat
 70
     0
177
     2
291
     1
 71
     2
176
     1
 72
     1
176
     1
 73
     1
176
     1
 90
        2
176
     1
 40
0.6
176
     1
 41
30.0
176
     1
 63
     7
421
 16777215
176
     1
 74
     0
176
     1
 91
        0
176
     1
 64
     7
176
     1
 65
   257
176
     1
 75
     1
176
     1
175
     1
176
     1
 42
1.0
176
     1
 92
        8
176
     1
 66
     7
176
     1
 43
1.0
176
     1
 76
     1
176
     1
 77
     6
176
     1
 78
     2
176
     1
 67
     7
176
     1
 79
     5
176
     1
170
     0
176
     1
171
     0
176
     1
290
     0
176
     1
 93
       13
176
     1
 44
0.0
176
     1
173
     0
176
     1
  0
VISUALSTYLE
  5
2B
102
{ACAD_REACTORS
330
29
102
}
330
29
100
AcDbVisualStyle
  2
FlatWithEdges
 70
     1
177
     2
291
     1
 71
     2
176
     1
 72
     1
176
     1
 73
     1
176
     1
 90
        2
176
     1
 40
0.6
176
     1
 41
30.0
176
     1
 63
     7
421
 16777215
176
     1
 74
     1
176
     1
 91
        0
176
     1
 64
     7
176
     1
 65
   257
176
     1
 75
     1
176
     1
175
     1
176
     1
 42
1.0
176
     1
 92
        0
176
     1
 66
   257
176
     1
 43
1.0
176
     1
 76
     1
176
     1
 77
     6
176
     1
 78
     2
176
     1
 67
     7
176
     1
 79
     5
176
     1
170
     0
176
     1
171
     0
176
     1
290
     0
176
     1
 93
       13
176
     1
 44
0.0
176
     1
173
     0
176
     1
  0
VISUALSTYLE
  5
2C
102
{ACAD_REACTORS
330
29
102
}
330
29
100
AcDbVisualStyle
  2
Gouraud
 70
     2
177
     2
291
     1
 71
     2
176
     1
 72
     2
176
     1
 73
     1
176
     1
 90
        2
176
     1
 40
0.6
176
     1
 41
30.0
176
     1
 63
     7
421
 16777215
176
     1
 74
     0
176
     1
 91
        0
176
     1
 64
     7
176
     1
 65
   257
176
     1
 75
     1
176
     1
175
     1
176
     1
 42
1.0
176
     1
 92
        0
176
     1
 66
     7
176
     1
 43
1.0
176
     1
 76
     1
176
     1
 77
     6
176
     1
 78
     2
176
     1
 67
     7
176
     1
 79
     5
176
     1
170
     0
176
     1
171
     0
176
     1
290
     0
176
     1
 93
       13
176
     1
 44
0.0
176
     1
173
     0
176
     1
  0
VISUALSTYLE
  5
2D
102
{ACAD_REACTORS
330
29
102
}
330
29
100
AcDbVisualStyle
  2
GouraudWithEdges
 70
     3
177
     2
291
     1
 71
     2
176
     1
 72
     2
176
     1
 73
     1
176
     1
 90
        2
176
     1
 40
0.6
176
     1
 41
30.0
176
     1
 63
     7
421
 16777215
176
     1
 74
     1
176
     1
 91
        0
176
     1
 64
     7
176
     1
 65
   257
176
     1
 75
     1
176
     1
175
     1
176
     1
 42
1.0
176
     1
 92
        0
176
     1
 66
   257
176
     1
 43
1.0
176
     1
 76
     1
176
     1
 77
     6
176
     1
 78
     2
176
     1
 67
     7
176
     1
 79
     5
176
     1
170
     0
176
     1
171
     0
176
     1
290
     0
176
     1
 93
       13
176
     1
 44
0.0
176
     1
173
     0
176
     1
  0
VISUALSTYLE
  5
31
102
{ACAD_REACTORS
330
29
102
}
330
29
100
AcDbVisualStyle
  2
Hidden
 70
     6
177
     2
291
     0
 71
     1
176
     1
 72
     2
176
     1
 73
     2
176
     1
 90
        0
176
     1
 40
0.6
176
     1
 41
30.0
176
     1
 63
     7
421
 16777215
176
     1
 74
     2
176
     1
 91
        2
176
     1
 64
     7
176
     1
 65
   257
176
     1
 75
     2
176
     1
175
     1
176
     1
 42
40.0
176
     1
 92
        0
176
     1
 66
   257
176
     1
 43
1.0
176
     1
 76
     1
176
     1
 77
     6
176
     1
 78
     2
176
     1
 67
     7
176
     1
 79
     3
176
     1
170
     0
176
     1
171
     0
176
     1
290
     0
176
     1
 93
        1
176
     1
 44
0.0
176
     1
173
     0
176
     1
  0
VISUALSTYLE
  5
3F
102
{ACAD_REACTORS
330
29
102
}
330
29
100
AcDbVisualStyle
  2
JitterOff
 70
    20
177
     2
291
     1
 71
     2
176
     0
 72
     2
176
     0
 73
     0
176
     0
 90
        0
176
     0
 40
0.6
176
     0
 41
30.0
176
     0
 63
     7
421
 16777215
176
     0
 74
     1
176
     0
 91
        4
176
     0
 64
     7
176
     0
 65
   257
176
     0
 75
     1
176
     0
175
     1
176
     0
 42
1.0
176
     0
 92
       10
176
     2
 66
     7
176
     0
 43
1.0
176
     0
 76
     1
176
     0
 77
     6
176
     0
 78
     2
176
     0
 67
     7
176
     0
 79
     5
176
     0
170
     0
176
     0
171
     0
176
     0
290
     0
176
     0
 93
        1
176
     0
 44
0.0
176
     0
173
     0
176
     0
  0
VISUALSTYLE
  5
37
102
{ACAD_REACTORS
330
29
102
}
330
29
100
AcDbVisualStyle
  2
Linepattern
 70
    14
177
     2
291
     1
 71
     2
176
     1
 72
     2
176
     1
 73
     0
176
     1
 90
        0
176
     1
 40
0.6
176
     1
 41
30.0
176
     1
 63
     7
421
 16777215
176
     1
 74
     1
176
     1
 91
        4
176
     1
 64
     7
176
     1
 65
   257
176
     1
 75
     7
176
     1
175
     7
176
     1
 42
1.0
176
     1
 92
        8
176
     1
 66
     7
176
     1
 43
1.0
176
     1
 76
     1
176
     1
 77
     6
176
     1
 78
     2
176
     1
 67
     7
176
     1
 79
     5
176
     1
170
     0
176
     1
171
     0
176
     1
290
     0
176
     1
 93
        1
176
     1
 44
0.0
176
     1
173
     0
176
     1
  0
VISUALSTYLE
  5
40
102
{ACAD_REACTORS
330
29
102
}
330
29
100
AcDbVisualStyle
  2
OverhangOff
 70
    21
177
     2
291
     1
 71
     2
176
     0
 72
     2
176
     0
 73
     0
176
     0
 90
        0
176
     0
 40
0.6
176
     0
 41
30.0
176
     0
 63
     7
421
 16777215
176
     0
 74
     1
176
     0
 91
        4
176
     0
 64
     7
176
     0
 65
   257
176
     0
 75
     1
176
     0
175
     1
176
     0
 42
1.0
176
     0
 92
        9
176
     2
 66
     7
176
     0
 43
1.0
176
     0
 76
     1
176
     0
 77
     6
176
     0
 78
     2
176
     0
 67
     7
176
     0
 79
     5
176
     0
170
     0
176
     0
171
     0
176
     0
290
     0
176
     0
 93
        1
176
     0
 44
0.0
176
     0
173
     0
176
     0
  0
VISUALSTYLE
  5
33
102
{ACAD_REACTORS
330
29
102
}
330
29
100
AcDbVisualStyle
  2
Realistic
 70
     8
177
     2
291
     0
 71
     2
176
     1
 72
     3
176
     1
 73
     0
176
     1
 90
        2
176
     1
 40
0.6
176
     1
 41
30.0
176
     1
 63
     7
421
 16777215
176
     1
 74
     0
176
     1
 91
        0
176
     1
 64
     7
176
     1
 65
   257
176
     1
 75
     1
176
     1
175
     1
176
     1
 42
1.0
176
     1
 92
        8
176
     1
 66
   257
176
     1
 43
1.0
176
     1
 76
     1
176
     1
 77
     6
176
     1
 78
     2
176
     1
 67
     7
176
     1
 79
     3
176
     1
170
     0
176
     1
171
     0
176
     1
290
     0
176
     1
 93
       13
176
     1
 44
0.0
176
     1
173
     0
176
     1
  0
VISUALSTYLE
  5
3E
102
{ACAD_REACTORS
330
29
102
}
330
29
100
AcDbVisualStyle
  2
Shaded
 70
    27
177
     2
291
     0
 71
     2
176
     1
 72
     2
176
     1
 73
     1
176
     1
 90
        2
176
     1
 40
0.6
176
     1
 41
30.0
176
     1
 63
     7
421
 16777215
176
     1
 74
     0
176
     1
 91
        4
176
     1
 64
     7
176
     1
 65
   257
176
     1
 75
     1
176
     1
175
     1
176
     1
 42
1.0
176
     1
 92
        8
176
     1
 66
   257
176
     1
 43
1.0
176
     1
 76
     1
176
     1
 77
     6
176
     1
 78
     2
176
     1
 67
     8
425
  7895160
176
     1
 79
     3
176
     1
170
     0
176
     1
171
     0
176
     1
290
     0
176
     1
 93
        5
176
     1
 44
0.0
176
     1
173
     0
176
     1
  0
VISUALSTYLE
  5
3D
102
{ACAD_REACTORS
330
29
102
}
330
29
100
AcDbVisualStyle
  2
Shaded with edges
 70
    26
177
     2
291
     0
 71
     2
176
     1
 72
     2
176
     1
 73
     1
176
     1
 90
        2
176
     1
 40
0.6
176
     1
 41
30.0
176
     1
 63
     7
421
 16777215
176
     1
 74
     1
176
     1
 91
       10
176
     1
 64
     7
176
     1
 65
   257
176
     1
 75
     2
176
     1
175
     1
176
     1
 42
1.0
176
     1
 92
        8
176
     1
 66
   257
176
     1
 43
1.0
176
     1
 76
     1
176
     1
 77
     6
176
     1
 78
     2
176
     1
 67
     7
176
     1
 79
     3
176
     1
170
     0
176
     1
171
     0
176
     1
290
     0
176
     1
 93
        5
176
     1
 44
0.0
176
     1
173
     0
176
     1
  0
VISUALSTYLE
  5
3A
102
{ACAD_REACTORS
330
29
102
}
330
29
100
AcDbVisualStyle
  2
Shades of Gray
 70
    23
177
     2
291
     0
 71
     2
176
     1
 72
     2
176
     1
 73
     3
176
     1
 90
        0
176
     1
 40
0.6
176
     1
 41
30.0
176
     1
 63
     7
421
 16777215
176
     1
 74
     2
176
     1
 91
        2
176
     1
 64
     7
176
     1
 65
     7
176
     1
 75
     1
176
     1
175
     1
176
     1
 42
40.0
176
     1
 92
        8
176
     1
 66
     7
176
     1
 43
1.0
176
     1
 76
     1
176
     1
 77
     6
176
     1
 78
     2
176
     1
 67
     7
176
     1
 79
     3
176
     1
170
     0
176
     1
171
     0
176
     1
290
     0
176
     1
 93
        1
176
     1
 44
0.0
176
     1
173
     0
176
     1
  0
VISUALSTYLE
  5
3B
102
{ACAD_REACTORS
330
29
102
}
330
29
100
AcDbVisualStyle
  2
Sketchy
 70
    24
177
     2
291
     0
 71
     1
176
     1
 72
     2
176
     1
 73
     2
176
     1
 90
        0
176
     1
 40
0.6
176
     1
 41
30.0
176
     1
 63
     7
421
 16777215
176
     1
 74
     2
176
     1
 91
        2
176
     1
 64
     7
176
     1
 65
     7
176
     1
 75
     1
176
     1
175
     1
176
     1
 42
40.0
176
     1
 92
       11
176
     1
 66
     7
176
     1
 43
1.0
176
     1
 76
     1
176
     1
 77
     6
176
     1
 78
     2
176
     1
 67
     7
176
     1
 79
     6
176
     1
170
     0
176
     1
171
     0
176
     1
290
     0
176
     1
 93
        1
176
     1
 44
0.0
176
     1
173
     0
176
     1
  0
VISUALSTYLE
  5
36
102
{ACAD_REACTORS
330
29
102
}
330
29
100
AcDbVisualStyle
  2
Thicken
 70
    13
177
     2
291
     1
 71
     2
176
     1
 72
     2
176
     1
 73
     0
176
     1
 90
        0
176
     1
 40
0.6
176
     1
 41
30.0
176
     1
 63
     7
421
 16777215
176
     1
 74
     1
176
     1
 91
        4
176
     1
 64
     7
176
     1
 65
   257
176
     1
 75
     1
176
     1
175
     1
176
     1
 42
1.0
176
     1
 92
       12
176
     1
 66
     7
176
     1
 43
1.0
176
     1
 76
     1
176
     1
 77
     6
176
     1
 78
     2
176
     1
 67
     7
176
     1
 79
     5
176
     1
170
     0
176
     1
171
     0
176
     1
290
     0
176
     1
 93
        1
176
     1
 44
0.0
176
     1
173
     0
176
     1
  0
VISUALSTYLE
  5
30
102
{ACAD_REACTORS
330
29
102
}
330
29
100
AcDbVisualStyle
  2
Wireframe
 70
     5
177
     2
291
     0
 71
     0
176
     1
 72
     2
176
     1
 73
     0
176
     1
 90
        0
176
     1
 40
0.6
176
     1
 41
30.0
176
     1
 63
     7
421
 16777215
176
     1
 74
     1
176
     1
 91
        4
176
     1
 64
     7
176
     1
 65
   257
176
     1
 75
     1
176
     1
175
     1
176
     1
 42
1.0
176
     1
 92
        0
176
     1
 66
   257
176
     1
 43
1.0
176
     1
 76
     1
176
     1
 77
     6
176
     1
 78
     2
176
     1
 67
     7
176
     1
 79
     3
176
     1
170
     0
176
     1
171
     0
176
     1
290
     0
176
     1
 93
        1
176
     1
 44
0.0
176
     1
173
     0
176
     1
  0
VISUALSTYLE
  5
3C
102
{ACAD_REACTORS
330
29
102
}
330
29
100
AcDbVisualStyle
  2
X-Ray
 70
    25
177
     2
291
     0
 71
     2
176
     1
 72
     2
176
     1
 73
     1
176
     1
 90
        1
176
     1
 40
0.5
176
     1
 41
30.0
176
     1
 63
     7
421
 16777215
176
     1
 74
     1
176
     1
 91
        0
176
     1
 64
     7
176
     1
 65
   257
176
     1
 75
     1
176
     1
175
     1
176
     1
 42
1.0
176
     1
 92
        8
176
     1
 66
     7
176
     1
 43
1.0
176
     1
 76
     1
176
     1
 77
     6
176
     1
 78
     2
176
     1
 67
     7
176
     1
 79
     3
176
     1
170
     0
176
     1
171
     0
176
     1
290
     0
176
     1
 93
       13
176
     1
 44
0.0
176
     1
173
     0
176
     1
  0
DICTIONARYVAR
  5
79
102
{ACAD_REACTORS
330
76
102
}
330
76
100
DictionaryVariables
280
     0
  1
1:1
  0
DICTIONARYVAR
  5
78
102
{ACAD_REACTORS
330
76
102
}
330
76
100
DictionaryVariables
280
     0
  1
STANDARD
  0
DICTIONARYVAR
  5
77
102
{ACAD_REACTORS
330
76
102
}
330
76
100
DictionaryVariables
280
     0
  1
STANDARD
  0
DICTIONARY
  5
1A
330
19
100
AcDbDictionary
280
     1
281
     1
  3
BUMPTILE
360
1C
  3
DIFFUSETILE
360
1B
  3
OPACITYTILE
360
1F
  3
REFLECTIONTILE
360
1E
  3
REFRACTIONTILE
360
20
  3
SPECULARTILE
360
1D
  0
DICTIONARY
  5
12
330
11
100
AcDbDictionary
280
     1
281
     1
  3
BUMPTILE
360
14
  3
DIFFUSETILE
360
13
  3
FBXASSET
360
F5
  3
OPACITYTILE
360
17
  3
REFLECTIONTILE
360
16
  3
REFRACTIONTILE
360
18
  3
SPECULARTILE
360
15
  0
DICTIONARY
  5
22
330
21
100
AcDbDictionary
280
     1
281
     1
  3
BUMPTILE
360
24
  3
DIFFUSETILE
360
23
  3
FBXASSET
360
BA
  3
OPACITYTILE
360
27
  3
REFLECTIONTILE
360
26
  3
REFRACTIONTILE
360
28
  3
SPECULARTILE
360
25
  0
DICTIONARY
  5
1488
330
67
100
AcDbDictionary
280
     1
281
     1
  3
ACAD_XREC_ROUNDTRIP
360
1489
  0
DICTIONARY
  5
1486
330
65
100
AcDbDictionary
280
     1
281
     1
  3
ACAD_ROUNDTRIP_2008_TABLESTYLE_CELLSTYLEMAP
360
1487
  0
XRECORD
  5
1C
102
{ACAD_REACTORS
330
1A
102
}
330
1A
100
AcDbXrecord
280
     1
270
     1
271
     1
  0
XRECORD
  5
1B
102
{ACAD_REACTORS
330
1A
102
}
330
1A
100
AcDbXrecord
280
     1
270
     1
271
     1
  0
XRECORD
  5
1F
102
{ACAD_REACTORS
330
1A
102
}
330
1A
100
AcDbXrecord
280
     1
270
     1
271
     1
  0
XRECORD
  5
1E
102
{ACAD_REACTORS
330
1A
102
}
330
1A
100
AcDbXrecord
280
     1
270
     1
271
     1
  0
XRECORD
  5
20
102
{ACAD_REACTORS
330
1A
102
}
330
1A
100
AcDbXrecord
280
     1
270
     1
271
     1
  0
XRECORD
  5
1D
102
{ACAD_REACTORS
330
1A
102
}
330
1A
100
AcDbXrecord
280
     1
270
     1
271
     1
  0
XRECORD
  5
14
102
{ACAD_REACTORS
330
12
102
}
330
12
100
AcDbXrecord
280
     1
270
     1
271
     1
  0
XRECORD
  5
13
102
{ACAD_REACTORS
330
12
102
}
330
12
100
AcDbXrecord
280
     1
270
     1
271
     1
  0
XRECORD
  5
F5
102
{ACAD_REACTORS
330
12
102
}
330
12
100
AcDbXrecord
280
     1
 70
     1
 90
1959938040
 71
     1
  1
415B5DBB-1EBC-4861-BA84-C280F9E30710
311
504B03040A00000800002A4E22423DEE336E79000000790000001B0000006175746F6465736B2D64657369676E2D7061636B6167652E786D6C3C3F786D6C2076657273696F6E3D22312E302220656E636F64696E673D227574662D3822203F3E3C666F726D6174733E3C666F726D61743E687474703A2F2F736368656D612E
311
6175746F6465736B2E636F6D2F64657369676E2D7061636B6167652F323030393C2F666F726D61743E3C2F666F726D6174733E504B03041400060808002A4E2242D486FD9CA0000000F4000000130000005B436F6E74656E745F54797065735D2E786D6C7D8EC10E82300C865F65E91D8A1E8C310C0EEA1BF002731658846E
311
D98AC1B77784ABF1D8FE5FBFBF75BBCE937A534CCEB38643598122B6FEE978D0B0485F9C41B54DDD7D022595594E1A469170414C76A4D9A4D207E29CF43ECE46F218070CC6BECC4078ACAA135ACF422C856C0E68EA1BF5669944DDD7BCDE7B1F8E415D77AECB980613C2E4AC91FC167A2B244592486606FC29C8FD7F045B9A
311
EF7053A7E60B504B03041400060808002A4E2242FA62CA20E70000007C01000008000000636F72652E786D6C8D90E16E832014855F85DCFF28A87162906666F609F60204A825AD6004963DFEB0B5C9F66FBFEEC9E17CDC9BC34FDFCB1D7D992D58EF06A00501649CF2DABA7980142FB80374127CF33EFE8A0172723103EC36
311
083E6F3EAD87A5BC8BC6C5EC3AAFCD61CA104C04A4EE590C10D4D52CB29029E644B815AB5437399B82BE548653B21A3D97589DFFB3176B3610A4799FD8F841F1B91B196EC69AE08E4D13AECE6F2D6BC7894E84F27287058F7679ED579B91D1681015A135261493EA93B0BE617D9575DB13C2CB3DFE074AABFE2794AC8B7575
311
9CFBC40288FD90C783E0E5DE451E8FA2F2DC7B133F504B03041400060808002A4E224255019EA25F0000007C00000007000000636E782E786D6C4DCB3B0E80201045D1AD90E915ED2CF8AC45050C11660C8261F98AB1B07AC9C97D42D718D865D3E909258CFD00CCE24AC6E326A164D74DC0B4128928FF326038472BA13128
311
B1252AC747C6BAB984FC68F0B87FE8960A5C09FE86CFB69FBA01504B03041400060808002A4E22428D48F0DA64010000020300000C0000006662782F636F72652E786D6C8D52ED8E8320107C15C27F05ADE9D50669CE9C7D827B018AD423553008A68F7FEB47D3EBA5691A1324333BBBB3A3EC70ED5A342A37686B0A9CC414
311
2365A4ADB5690A1CFC39DA6174E0CC59EBFF94616444A70A3CC198B3C6D9D0AF90B4C62BE30135B6562B288641798C640B97020FF247752216C143C570897B212FA2517112030D759C0DDE8101B40C994ECCCFA72B230BCE5908BA5E595DC3347DD6CA614EB3CF2A2FBF92E8B82BF3282B3734DAE55515A5C78F6DBE2DABA4
311
A20923939833AFBB9B3BE994F0AAC63CA5C926A24944D36F9AEFB37C9FC27DBBA79491A9FC4114FAFA4D51D0C66FD2D5EE221B309F8CCCC4BF6D21228F0631821FC219994284D79CF063D0100884ECC5A9BDED71016854D25B970153DB70A746D1060553299A1F4616163ACF0D60B3A77DD2177D5EF7800F284C03D68487EB
311
29F8693A5BA6AE51F4CA45A3BF22635D27DABBB9C5E2FDBC0F7A2A97B6B5EE1D355957256B9864FA7BF92F504B03041400060808002A4E2242BD152E497C0000009D0000000B0000006662782F636E782E786D6C4DCCD10A83201805E05791FFDE553252410D6CEE3D6259C84CC3E9D8E3CF4617BB3A9C8FC311C367F3E86D
311
D3CBC520A1BBB4806C78C4D9855542C90B66800625528CF96F06284C9B95703028B1A658F69366BB4CC5E7AADE85E789BAEDEF8C1883C75BC7F195F71AB391EA5A29A58413C64C078D12CDEFA9E671ACBE504B03041400060808002A4E2242475F8C062C01000015020000310000006662782F42303646383245452D434431
311
392D343936422D384337422D4344373737323932383845312F636F72652E786D6C8D51CB6EC32010FC15C4293DD806E2FA116122254DBFA03F400D495162B07854F9FC2EB523B5B75C58D89D991D76F9FE3EDDD0B7F6C1383B605A128CB41D9D32F632E014CF4587D15E70EF5CFC03C3C8CA490F38A7B1E017EFD2BCA64667
311
A3B611B2D629BD2665083A6234DEE032E0307EE94996324540846B39CBF12A2FBAA42594012778881E0CA0A5493EB13890E6BD63A753717CA37D51F7CDA1E88EED019E6DDBB29E75DD89F26A210A9E92512BDD28B063CE46FB67453259F068A687FDD16B19B5C28211BA2D082D08FB20FDAEEE770CEECD8E105E65F83F529A
311
D593A4646CDCB2D5EE420B58C06F9682E0CAA5CFDBC38CBECFCE4794FB6D821E5FB0202521DBA6ED7AD2F26AC1C20440B4A957D1109D87096FAE9F00A7AFBCCACA4D2D78959704E1778310F342C50F504B03041400060808002A4E224251A848134C01000033030000300000006662782F42303646383245452D434431392D
311
343936422D384337422D4344373737323932383845312F636E782E786D6CD593BD6E032110845F05D1DFAF4F566C71584A912748919683B54DCCC1899F287EFB2C3676DCB8489906A1D98F99D5E88EEDBE6743BEC007EDEC48BBBAA504AC744ADBC34853DC572F94EC38F3CEC5078C122B66186996296707EFD25224057B91
311
4C44D5687B2AA287E092971050CE2F8971521834005B2514619E402950E40EE26D0F1E5741713A937804F2F6FA41DCF4093206D66417CE9A9CC1593E4BD20344893422849106798459D42245A7209C6A25A2A8BBFA96F564A75F27921FDC2293D724878F349F94978D6AEC913538E42C448FED15289E17A05C2C8BD152442C
311
B9B9805786B3A46D5C0F85D558BC47BA5BAF8601CD2E33CEA29EA110D28388A028EFDB6E55B55DD5F6EFED663B6CB63DDED7DBB6654DC6399B9C33E511DA80770B91CE46B091F28E3579FCACBEC211A53D76EDFCF90F45620125F5DACEDDE33FF7D35CBE6FACCBE35FC07F00504B03041400060808002A4E2242806F9639A4
311
05000081100000340000006662782F42303646383245452D434431392D343936422D384337422D4344373737323932383845312F6F626A656374732E786D6CAD57DB6EDB3810FD1541FBB2FB60CBB29DD459282A623B298C366D5123C53E1830288952B8A12E20A9D4D9AFDF43899225C74EBD8BBEE8C2CB70E6CC990BBDF7
311
BB945BCF54489667D7B63B1CD916CDC23C6259726D972A1ECC6CEBBDEF893C579D65B69591945EDB7AD8F6BD44E4656186221A9392AB83D1BBF95F960C69466D2BE444CA6B5B868F34254352AA3CA2F2691811458649BC1BBAC37A615F6C2248F17820B42082660A9A623C8314AB56CAEDFF8E6CC7F71C3DEF7BFA69564D4E
311
AF722A7BFAE7B34C2A9285AF0E3B103371A7CBDBF1C5D5E0623A9D0CA697637730BF9B2F07EEBBC96871B9585CDDDC5EE160A90424194D048D6DFF03B0112CF49C7ACAF74A96A9C9D82C310E72047D66DA53B63FB65CCFA9D7B4D619238FA91FE65946C30A2BA051D9674447B4A059049F332AA15907A151FFD7D53876A627
311
FADF1CD91D3E0F81EE8E8EA046F7E6DDD5340FFE8609F21C06094935036B2C8DA13557477B84833CE7668E492B258A0A46B8C559208878B17D2CD54B7CAF27463359E868D016D83EBC504FF7E98230FA39CF8F6919979C6B1ADB7E15055BC40A55B2D28CFD43C55EFB2E32D009BED26C981983D44B416DFFAAA6C8EC804D35
311
9056CC490297C34CBD73323E3074A1E374B5B4FD8F77C16EAD63F7F8E185C80B2A94A60FA8D538AE796B948C4EEE599ED31BEC0355F6A07C03F29F11EA7B55E037C176D3DDD49CA204C9649C8B14BEB146D66084C7C872ABA7FEEE7C794EBBB9EFBD5378C2D91AAA5F8067DF86AE2F3B70FADE33089F8B89316D1D128EB471
311
CF3200A44962F11C43C8C371B0B3FD15B21CB2327611EEBB3019EA3EE3D3738C18248AEAA4CE3B03960769F18C040DD82A46428D9AFC46C1BD9F5EA5B3EA60B3EC14BC17BF84AE37CBF5C775296212D27B13D34B1AB38C2994B83D6FBA0AF530EF59F4445F7EE42282A1AFF15E77F14ECD5112686BCC35F04993D3F5CFFEE4
311
DE0121F625B94E37DE4F4E8011BAB076E4DF331952CE4946F3B239F7CDFA81B25143AC835D33B92D30FBC202D2D433073188221D0A566810DB6AD526CDE109EB1E569FC148DB9FBF7C222FDDEC15EC736F98F35C6C83976D9D968E42FDBDCF6D8381A3A580EE559034F16F40DF462C8E4B89247804D7EFAB45D7773A2D2045
311
3452EB6899C27E04171186B48D5C546B415049F36CCB50371177470FE8CA07A4860195C0531A4BCAE32DE3BC4CB731E3A846DB941427E0F8FFFA07655A6C499A97993A21BBA73AAA435FF71E7BE50FA2C247DB5F57EFC11CB937A2D10932E85A7204AB9E6BA7EEC5FC62399F0FDCDBF962309D5DA27FBA994D078BF16C7477
311
753B19BD73F71A554D94EF35A5A61BD1F0124A9B570A66DCF7B042FC982460FBF744C9CD873A3C9BF7C36A885ED873B007F5B2DD78133DA3EFA3D1CF05EC571E15B44A0B4E539A29A263E85E7FF06F047D464F997A7C9592849E21E5CB87F58131183963DF571DEFF4C7C15E33BAD0017954887A2CD320238C1F6C4C6A2487
311
459618FC1A9FB4EFBAD034BFFACF38069DA9CC398B9007232BA1794A15B2E1194548A454827ADD9E3E32778F33763FD71DA22201A78D268F044D3297080B90BC0C557FDCFA0D4D9DEEABAE6D94DBE1131E2653D81638736DA349572CA47218A040EB56A8120E2E753B797096640947AF5D6F6AFFDB5D1A9B5E496E979CD33F
311
19BBEA146E0C401A29D037A02182772A657CAFD2CDCC87FFC9F0461D8B287C06A56A6DD90FB4C654C720446BA3CC6D014DCC93397A87407DDB2C7758ADE92172D62DEB4D12D452078A88A4BA2968FD8C4A37CBAF0E3A146BF5C52A7899C097E74B1A080A32973AC0C122B0C2C82C880255177F6EBE8A1C37D9D4BA63A080F5
311
FB6E76F9C76691A7699ED5439B1B731FB6D68FB8DD461B2407AAAF2572331EB9E34D751D3037946D40241D92483E61009E15AC05BAE77EF0B2BE33A20ED513ED3A47BBE280A1ABA5650ADB14420D5DBAB9558383C623A31662485F2975C47417146FDE089C6A295410E8E5FD7F01504B03041400060800002A4E2242000000
311
000000000000000000350000006662782F42303646383245452D434431392D343936422D384337422D4344373737323932383845312F76657274696365732E62696E504B03041400060808002A4E2242F270F1330600000004000000360000006662782F42303646383245452D434431392D343936422D384337422D434437
311
3737323932383845312F747269616E676C65732E62696E636660600000504B03041400060800002A4E2242000000000000000000000000370000006662782F42303646383245452D434431392D343936422D384337422D4344373737323932383845312F617474726962757465732E62696E504B03041400060808002A4E22
311
42D5987DFC8F00000041010000360000006662782F42303646383245452D434431392D343936422D384337422D4344373737323932383845312F6469726563746F72792E786D6C858F410EC2201045AF4266AF15DDB800BA74E7C21B903225242D6328188F2FA5C4183471359997F9FF81E89FF3C41E1816475E02DF1F80A1
311
1FC8386F25A438EECEC07A250251FC3803E6F58C12560C4AD840E95E91C151A72936F496F35732D860FE635F62C8F2DA16B505C545B74125BAA2FA9E05D7CC053D063734D5C7665FD55B6B8D15D5E9BFEAFD8490FFA45E504B03041400060808002A4E2242E9C9E4B8FA000000A00100003B0000006662782F423036463832
311
45452D434431392D343936422D384337422D4344373737323932383845312F7265736F75726365732F636F72652E786D6C8D50DB6A843010FD1599F768BC605562964ADD2FE80F84386BC3AE89E452FAF94D560BED5B5F668673610E875DBEB647F689D629A34728730A196A6916A5D71182BF910EB20B67D618FF4B069916
311
1B8E9060E06CB526EC27248DF6A87D44B559F0048573E821938F788CE0E4076E2217C14785BBE7BB9077B1625EE6918E3ACE9CB73140763C4913B845678295E85871B09C85A09653A396F853DD145AE0B4799DFBE98D926B37F5A4996A4ABA7E9E49757D69FB769ACB9996AC4866CEBCDA7E324A8BC2E302BCA2654D684968
311
F54EFBA1E9872ADEED40292B92FC8F29ECCB3F4D41695F5767DCC3E680A7204F82B322F515D7B3CCB853B7FC1B504B010214000A00000800002A4E22423DEE336E79000000790000001B00000000000000000000000000000000006175746F6465736B2D64657369676E2D7061636B6167652E786D6C504B01021400140006
311
0808002A4E2242D486FD9CA0000000F40000001300000000000000000000000000B20000005B436F6E74656E745F54797065735D2E786D6C504B010214001400060808002A4E2242FA62CA20E70000007C010000080000000000000000000000000083010000636F72652E786D6C504B010214001400060808002A4E224255
311
019EA25F0000007C000000070000000000000000000000000090020000636E782E786D6C504B010214001400060808002A4E22428D48F0DA64010000020300000C00000000000000000000000000140300006662782F636F72652E786D6C504B010214001400060808002A4E2242BD152E497C0000009D0000000B00000000
311
000000000000000000A20400006662782F636E782E786D6C504B010214001400060808002A4E2242475F8C062C010000150200003100000000000000000000000000470500006662782F42303646383245452D434431392D343936422D384337422D4344373737323932383845312F636F72652E786D6C504B010214001400
311
060808002A4E224251A848134C010000330300003000000000000000000000000000C20600006662782F42303646383245452D434431392D343936422D384337422D4344373737323932383845312F636E782E786D6C504B010214001400060808002A4E2242806F9639A40500008110000034000000000000000000000000
311
005C0800006662782F42303646383245452D434431392D343936422D384337422D4344373737323932383845312F6F626A656374732E786D6C504B010214001400060800002A4E22420000000000000000000000003500000000000000000000000000520E00006662782F42303646383245452D434431392D343936422D38
311
4337422D4344373737323932383845312F76657274696365732E62696E504B010214001400060808002A4E2242F270F13306000000040000003600000000000000000000000000A50E00006662782F42303646383245452D434431392D343936422D384337422D4344373737323932383845312F747269616E676C65732E62
311
696E504B010214001400060800002A4E22420000000000000000000000003700000000000000000000000000FF0E00006662782F42303646383245452D434431392D343936422D384337422D4344373737323932383845312F617474726962757465732E62696E504B010214001400060808002A4E2242D5987DFC8F000000
311
410100003600000000000000000000000000540F00006662782F42303646383245452D434431392D343936422D384337422D4344373737323932383845312F6469726563746F72792E786D6C504B010214001400060808002A4E2242E9C9E4B8FA000000A00100003B00000000000000000000000000371000006662782F42
311
303646383245452D434431392D343936422D384337422D4344373737323932383845312F7265736F75726365732F636F72652E786D6C504B0506000000000E000E00800400008A1100000000
310
504B03040A00000800002A4E22423DEE336E79000000790000001B0000006175746F6465736B2D64657369676E2D7061636B6167652E786D6C3C3F786D6C2076657273696F6E3D22312E302220656E636F64696E673D227574662D3822203F3E3C666F726D6174733E3C666F726D61743E687474703A2F2F736368656D612E
310
6175746F6465736B2E636F6D2F64657369676E2D7061636B6167652F323030393C2F666F726D61743E3C2F666F726D6174733E504B03041400060808002A4E2242D486FD9CA0000000F4000000130000005B436F6E74656E745F54797065735D2E786D6C7D8EC10E82300C865F65E91D8A1E8C310C0EEA1BF002731658846E
310
D98AC1B77784ABF1D8FE5FBFBF75BBCE937A534CCEB38643598122B6FEE978D0B0485F9C41B54DDD7D022595594E1A469170414C76A4D9A4D207E29CF43ECE46F218070CC6BECC4078ACAA135ACF422C856C0E68EA1BF5669944DDD7BCDE7B1F8E415D77AECB980613C2E4AC91FC167A2B244592486606FC29C8FD7F045B9A
310
EF7053A7E60B504B03041400060808002A4E22426522D613EA0000007C01000008000000636F72652E786D6C8D905D6EC3201084AF82F61D1BFC93C616266A63FB04BD0002E2A0C46019A87AFCE2C491DAB73EED68988F5D0D3B7DCF77F4A5576F9CED80660490B6D22963A70E62B8E023A01367AB73E1570C9015B3EE60B3
310
81B3697571D92DE96CD03624D73AA5775378AF0320794FA2032FAF7A1699882125FC2D5B84BC894967F4A5121CA351E8B9C4A8F49FB918BD022F2929EB734F717D1E7B5C9143838F1F7D8DC7F7A11987F26DA88A9AE51BCC5930F36BBF5CB5085A012F082D31A198149FA469ABA62D923EB484B07C8BFF81E2A2FE09456343
310
59ECE73E310F9CA6431E0F9CE55B17693C8A4A73EB8DFF00504B03041400060808002A4E224255019EA25F0000007C00000007000000636E782E786D6C4DCB3B0E80201045D1AD90E915ED2CF8AC45050C11660C8261F98AB1B07AC9C97D42D718D865D3E909258CFD00CCE24AC6E326A164D74DC0B4128928FF326038472B
310
A13128B1252AC747C6BAB984FC68F0B87FE8960A5C09FE86CFB69FBA01504B03041400060808002A4E224271DD8BFB66010000020300000C0000006662782F636F72652E786D6C8D525B6E833010BC8AE57FB079A549641CB5799CA01770C0A156C046C646397E9747445345518464AC999DDDD901B6BB3535EAA5ED94D139
310
8E428A91D4852995AE72ECDD255863B4E3CC1AE3FE9461A44523733CC098B3CA1ADFCE5061B493DA01AA4D296750749D741815355C72DC153FB211A1F00E2ABA6BD88AE22A2A194621D050C759E72C1840D390E1C4FC72BE3132E19C79AFCA9955254C5317252DE64944936C7F88826C7F3A04295D6D82F5D7210B4E9FC7CD
310
E9987C1CD33863641073E65473775758299C2C318F699404340A68FC4D37DB74B38DE1BEDA52CAC850FE20F26DF9A6C82BED9278B63BC93ACC23303212FFB685881CEA440F7E08676408115E63C28F41432010B213E7FABEC715A05E16CED81498D2F885EA45ED254CA5687C189958E83C3680CD9EF6895FF479DD033EA0D0
310
1558130EAE67EF86E96C9A3A47D14A1BF4EE86B4B18DA8177393C5E55C063D9517A636F61D35995725739864F87BF92F504B03041400060808002A4E2242080078F07E0000009D0000000B0000006662782F636E782E786D6C4DCCD10A83201886E15B91FFDC95DAD2811AB8ADFB886521331D4EC72E7F353AE8E883878F57
310
76DFC5A38F4D6F17830272AA01D9F088A30BB38292272C00755AA618F3E106280C8B55B0316839A7585E3B8D761A8ACFAB7A179E3BD2861961CC0DD3F6DAE386538E05170293FB851166F8B9AF19545A56FFD2BA5B58FF00504B03041400060808002A4E22424A33C7812B01000015020000310000006662782F3234334238
310
4242442D323643462D343732372D383738382D3145393331334237354630332F636F72652E786D6C8D51CB6EC32010FC15C4293DD806DBF523C24472DB7C417F801892A2C460F1A8F2F95D6A476A6FB9B068766676B4CB0EF7F986BE95F3DA9A01D39C60A4CC64A5369701C770CE3A8C0E9C396BC31F1A4646CC6AC009C69C
310
5D9C8DCB064DD6046502A0C64AB581C27B15309A6EF019B09FBED42C72110330FC355FC474151795D31CDAC0E3CC070701D03A24BD9897753576E3F89E95CDDB31ABDBB2CDBAB6EB32FAD157B41ADBD723A958B10A398B51CB4DAE25C4D167ADDCB32649CC59D0F323FEE494084A829ED02A233423E527E9F775BF2FE1DFEC
310
096145A2FF13C5453E298ADA84AADCE2AE328F3965C5DAE04CDA78BA3DC2A8FB625D4069DECEABE90573921352D38E901E342B173600A64DBD99FA601D6C78773D01BD0256726E6ACE8A742428BF17849A0ECA7F00504B03041400060808002A4E2242370F87045301000033030000300000006662782F3234334238424244
310
2D323643462D343732372D383738382D3145393331334237354630332F636E782E786D6CBD93CD6EC32010845F0571F76F2C2B8930917AE813F4D02B864D4283C1025C356FDF2521692E3954AA7A41687698597DB2D9EE6B32E4137CD0CE0EB4296B4AC04AA7B43D0C7489FB624DC98E33EF5C7CB05162C504034D32E5ECE0
310
DD326749C15E2C26A26AB43D65D143708B9710504E2F897152180C005B2C28C2348252A0C8DD88B73D785C05C5F14CE211C8EBCB3B71E307C81858955238AB520767E9CC4D0F264AA411210C34C8234CA2144B740AC2A954228AB2296F5D4F76FA4922E9C1AD72F19AA4F281A693F2BC51891C598543CE42F4482F9BE27906
310
CAC53C1B2D4544C8D5C578F570B6681BFB2E7B3582F7E85EB5FD7A8D61971967514F901DD28388A0286FEB6655D44D51B76FF566DB6DB62DDEFB6D5DB32AD9391B9D33F911C680773391CE46B091F2865569FC0C5FF611A53DB276FEFC0B900820B75EE9DC33FE924FD3AFBAEE1FF95497EF1B7179FC0BF837504B03041400
310
060808002A4E22420986655A610700009A1B0000340000006662782F32343342384242442D323643462D343732372D383738382D3145393331334237354630332F6F626A656374732E786D6CED59DD739B3810FF5718EEE5EEC1D8C44E9ADC103AB1D3743CBDB49DFADAB907CF3032C84417211849A4F1FDF5B7FA00033109
310
BEE6DEFA6003425AEDFEF6534BF0F631A3CE03E682E4ECD2F5BD89EB6016E70961E9A55BCAEDE8DC75DE8601CF73D998E63A0C65F8D255C36E18A43C2F0B3B94E02D2AA9EC8CDECCFF72448C19769D9822212E5D11DFE10C79A8947982C5BD972089BC74FBE8F99E99D8269B7254DC7588168863268153186740C5314CF9ED
310
C7893B0E83B17A1F06EADFCE9A0E9A35EB9F35D652B7B9244C48C4E2272C75C84C07B134F567D7EF4E4E2F46A7B3D974343B3BF147F39BF9F5C87F339D2CCE168B8BAB7717C0DE26CFA99529C1056609E86FE7867E30566F6AD12D0287B88E73C670AC8104A8B4585D82040BD8AA01DFA4FDE82B891AAFB5848DE7997A6F59
310
680C4FDB54FA660D03A2451704B1DB551257D7A67CF9E66F105C0C314A2EB0046E85E4A05D0B0F07AF70C3493036A361B0D9EB82082743127382A843C986230E4A81A96A4A189805968C720E0EA41C2581D69C79DDB62DF0CC975DE71097DB9252E5196EA81D2B02F7C35268CEC83F98EFB96F22033C81B42561F2DC722977
310
0576C38B60AC07C3405DA627F6A501D2D952940A8D8879DB1174A15C7F79ED861F6E368F2B150E0E6F5EF0BCC05C2AA3537AD47C8121DBAB42C96EEB0FD29C5A00C21850EDCA3D285F00F98F103DF6AC80DE38799C3DCEEC5CC91113DB9C67A01B67E28C26F037717CFDAFEE1B77C1B85EDCD65E1F9EE0A60AAAF31FC7B32D
310
83C6CAF2DF80330C1EC0E0733EB5AF5631A260CFB7840140CA481C9AC31084F6EDE6D10D97103821D0C32A44431F4406761FE036185B327BAD54EE65BD8E01A2768FE91025016CDA22818D1E3DBD87ECC149BC575353C43E784F5FC55CAFAE571F5625DFA218DF5A9FBEC65BC28884AC7998A116E62D89EEF1EE7BCE1310F4
310
29DEAB26DE99DD4A00DA0A73057C5A81A01EF63BB73688615D9AAB7013BCB00308A1727583FE2D1131A614319C97D5BE757453865A7BBCAD19DCF0C4403C3DE99830C70F445515E034FB192D4621EFC79C140A44377C6F24AB83A6D723DDD7E547B0C87A7ECFAC2583D0CB10FD5307AD0338B42CBB42DA02510BBCD987F338
310
A7398F36BBC8443A176A0960A3ED2DDF5A4421D61B25292AE041DAEFAA90921A69A3846CB7A580B87A80C56FCB45D31C26DED43F759AFF1D679C41B405DF45DCFA5D678F886428C5D116257DDB3577AB690B4DB28734C75B0A72910722771192D124C1E931D01C45FCE255A9A7341782302C205F1D04BF89C6C4834062B459
310
B1ACB4DA019A8828C312D1631050647AC0D56947D7B831940E2FF3585BEF731A6B12FD9F2C8223A82573161128452187BCC8B8EF9D420C69A36B50EEE00BD656D1D662D0124A8878177DC724BD93C7A06EC8F7E01EC391A494515EA018CC7A00D927BEA294DAE17D83E27B953FA2B8A4AF652002D36D44282DB3087E84C1C9
310
63886BD781E959141AC44DEC933883A20CC9920FD9E4EC74F2641F533374436063A32DA110B6A30C153DA8B702A2AE479C1A7C4BBD47A99B322B2294E5251B6428DEB4EB4D967C57AD8AEC407E55A908656345D8120C03C2649D55AB980DA6AE032BB8910E54BB48A0ACA0E614F642E2F16B6FD2947B37E0D64F5F77830C0A
310
BF1EED3523EAAC82C1F2D82A0CC47724E33B375CE9EB680EF57782937DAAAF6ACD66050888A9485E726255F47509E58DADD1DCF01649B17E6FB26E75FDBAF4A0FB118C610DD42EF5C2A5023AC34C225599DCAA1BFA0541086ED130E34B95538FA1729524BA6A44F486F4A9B35546B436CD8857DC619667F0636BC2625A2678
310
8D12711FDD4A1AAD8862DD4AE965A4C2F859013FBD5F75E0819101227D56051EFEDE596B4717AA5C3A4844DE95D986210241B0255A6A74E3152CB51AA9B45C5FD59902EA2E3030ABE2D9CF9345B31DF1F364915AC3F8A193C57CF707DA35FB228D741E2BBB3EEA1850E72745E5358E01BAED5053ADB38849E6567EEB4C1104
310
C52ACA0FAEC6AAA06108F671FC9FB3765F1634DB75F83F2E6BFB4F2A8EA3B24A6BB2EA521DA85C97AD1CE69FCE4FAFE7F391FF6EBE18CDCECFA0417B753E1B2D4ECE273717EFA693370D8EB4A386411DCC74EE826713D4AA61F5643180AEACC82949E0349F382986982FE14C3FA07DCE332C2079369BDD896DCA0F58FD60FA
310
9C126D28AE38B943D020A602D23A6054C6B23DEEFC02AD490907ED4B179A46DE3DFC59AB741DC83C972EB40A2489B1F036D066520D3D4D1C52AECEFD9618E08358AA52A259543FD7AB1436ADF05F4F199206AC5CAD1E06146E0574BF5A1D0ACD9BE5293E4AF08A1D0749B8DD9412AA3523CB7EA016466FB357BF918D12766F
310
B77E04D77D5E2CDFD3735A880CFA64F0AC1118AA238978AAFBDD8A31CBD2D5F5E731F4D99CE527A7A0650ABA1C4E69C4311873A90A2AB022B00A4BB340124C75F1FBFA33CFE1134FE6E8AAC8F9F5F1FCECB7F522CFB29C99A1F5159CCA12F850E4ACEEE0B34FB286E201ABE6BA589F4CFC93B56E6ADB3E7BB441027BAA2A82
310
81AA985082744C0EECF24983CAB62FC74A159DE9CB6BC706516806183B7AD2E3351FB91CF021F53945798CF6F34ADA67FBDA633D156C8243473AFC17504B03041400060800002A4E2242000000000000000000000000350000006662782F32343342384242442D323643462D343732372D383738382D314539333133423735
310
4630332F76657274696365732E62696E504B03041400060808002A4E2242F270F1330600000004000000360000006662782F32343342384242442D323643462D343732372D383738382D3145393331334237354630332F747269616E676C65732E62696E636660600000504B03041400060800002A4E224200000000000000
310
0000000000370000006662782F32343342384242442D323643462D343732372D383738382D3145393331334237354630332F617474726962757465732E62696E504B03041400060808002A4E2242D5987DFC8F00000041010000360000006662782F32343342384242442D323643462D343732372D383738382D3145393331
310
334237354630332F6469726563746F72792E786D6C858F410EC2201045AF4266AF15DDB800BA74E7C21B903225242D6328188F2FA5C4183471359997F9FF81E89FF3C41E1816475E02DF1F80A11FC8386F25A438EECEC07A250251FC3803E6F58C12560C4AD840E95E91C151A72936F496F35732D860FE635F62C8F2DA16B5
310
05C545B74125BAA2FA9E05D7CC053D063734D5C7665FD55B6B8D15D5E9BFEAFD8490FFA45E504B03041400060808002A4E22427689F88BFC000000A00100003B0000006662782F32343342384242442D323643462D343732372D383738382D3145393331334237354630332F7265736F75726365732F636F72652E786D6C8D
310
50596E833010BD0A9A7F83D9D2808CA336C0097A01CB4CA89560232F558F5F13A8D4FEF56766F416CDD36397AFE5917CA275CAE80EF29442825A9A49E9B983E06FE40CC985336B8CFF2583448B053BD860E06CB626AC07248DF6A87D44B599F0008573E821918F7874E0E4072E2215C14785BBA7AB907731639AA7918E3ACE
310
9CB73140B23FD926708BCE042BD1B16C67390B414D87464DF1A7BA29B4C0CB9C96F5B5A7A4BE8E3DA9E8A921E7B7BE26E3EBD08C43F9325445CDB2CDCC9957CB4F466951789C8017342F09CD092DDE69D3564D5BC4FBD452CAB24DFEC714D6E99FA6A0B42F8B23EE6E73C0F318E44970966D7DC5F52C33EEAD5BFE0D504B01
310
0214000A00000800002A4E22423DEE336E79000000790000001B00000000000000000000000000000000006175746F6465736B2D64657369676E2D7061636B6167652E786D6C504B010214001400060808002A4E2242D486FD9CA0000000F40000001300000000000000000000000000B20000005B436F6E74656E745F5479
310
7065735D2E786D6C504B010214001400060808002A4E22426522D613EA0000007C010000080000000000000000000000000083010000636F72652E786D6C504B010214001400060808002A4E224255019EA25F0000007C000000070000000000000000000000000093020000636E782E786D6C504B01021400140006080800
310
2A4E224271DD8BFB66010000020300000C00000000000000000000000000170300006662782F636F72652E786D6C504B010214001400060808002A4E2242080078F07E0000009D0000000B00000000000000000000000000A70400006662782F636E782E786D6C504B010214001400060808002A4E22424A33C7812B010000
310
1502000031000000000000000000000000004E0500006662782F32343342384242442D323643462D343732372D383738382D3145393331334237354630332F636F72652E786D6C504B010214001400060808002A4E2242370F870453010000330300003000000000000000000000000000C80600006662782F323433423842
310
42442D323643462D343732372D383738382D3145393331334237354630332F636E782E786D6C504B010214001400060808002A4E22420986655A610700009A1B00003400000000000000000000000000690800006662782F32343342384242442D323643462D343732372D383738382D3145393331334237354630332F6F62
310
6A656374732E786D6C504B010214001400060800002A4E224200000000000000000000000035000000000000000000000000001C1000006662782F32343342384242442D323643462D343732372D383738382D3145393331334237354630332F76657274696365732E62696E504B010214001400060808002A4E2242F270F1
310
33060000000400000036000000000000000000000000006F1000006662782F32343342384242442D323643462D343732372D383738382D3145393331334237354630332F747269616E676C65732E62696E504B010214001400060800002A4E22420000000000000000000000003700000000000000000000000000C9100000
310
6662782F32343342384242442D323643462D343732372D383738382D3145393331334237354630332F617474726962757465732E62696E504B010214001400060808002A4E2242D5987DFC8F0000004101000036000000000000000000000000001E1100006662782F32343342384242442D323643462D343732372D383738
310
382D3145393331334237354630332F6469726563746F72792E786D6C504B010214001400060808002A4E22427689F88BFC000000A00100003B00000000000000000000000000011200006662782F32343342384242442D323643462D343732372D383738382D3145393331334237354630332F7265736F75726365732F636F
310
72652E786D6C504B0506000000000E000E0080040000561300000000
  0
XRECORD
  5
17
102
{ACAD_REACTORS
330
12
102
}
330
12
100
AcDbXrecord
280
     1
270
     1
271
     1
  0
XRECORD
  5
16
102
{ACAD_REACTORS
330
12
102
}
330
12
100
AcDbXrecord
280
     1
270
     1
271
     1
  0
XRECORD
  5
18
102
{ACAD_REACTORS
330
12
102
}
330
12
100
AcDbXrecord
280
     1
270
     1
271
     1
  0
XRECORD
  5
15
102
{ACAD_REACTORS
330
12
102
}
330
12
100
AcDbXrecord
280
     1
270
     1
271
     1
  0
XRECORD
  5
24
102
{ACAD_REACTORS
330
22
102
}
330
22
100
AcDbXrecord
280
     1
270
     1
271
     1
  0
XRECORD
  5
23
102
{ACAD_REACTORS
330
22
102
}
330
22
100
AcDbXrecord
280
     1
270
     1
271
     1
  0
XRECORD
  5
BA
102
{ACAD_REACTORS
330
22
102
}
330
22
100
AcDbXrecord
280
     1
 70
     1
 90
1959938040
 71
     1
  1
083F614F-CDD8-43CA-AF5F-66D2C1602293
311
504B03040A00000800002A4E22423DEE336E79000000790000001B0000006175746F6465736B2D64657369676E2D7061636B6167652E786D6C3C3F786D6C2076657273696F6E3D22312E302220656E636F64696E673D227574662D3822203F3E3C666F726D6174733E3C666F726D61743E687474703A2F2F736368656D612E
311
6175746F6465736B2E636F6D2F64657369676E2D7061636B6167652F323030393C2F666F726D61743E3C2F666F726D6174733E504B03041400060808002A4E2242D486FD9CA0000000F4000000130000005B436F6E74656E745F54797065735D2E786D6C7D8EC10E82300C865F65E91D8A1E8C310C0EEA1BF002731658846E
311
D98AC1B77784ABF1D8FE5FBFBF75BBCE937A534CCEB38643598122B6FEE978D0B0485F9C41B54DDD7D022595594E1A469170414C76A4D9A4D207E29CF43ECE46F218070CC6BECC4078ACAA135ACF422C856C0E68EA1BF5669944DDD7BCDE7B1F8E415D77AECB980613C2E4AC91FC167A2B244592486606FC29C8FD7F045B9A
311
EF7053A7E60B504B03041400060808002A4E2242C38B501CE80000007C01000008000000636F72652E786D6C8D90E16E832014855F85DCFF28A271689066D5F8047B0102B423AD6004963DFEB0B5C9F66FBFEEC9E17CDC9BC34FDFCB1D7D992D58EF06A80A02C838E5B575D70152BC6006E824F8E67DFC1503E4E46206D86D
311
10FCBAF9B41E96F22E1A17B3EBBC36872943301190BA673140509F6691854C3127C2AD58A5BAC9AB29AA97CA704A56A3E712ABF37FF662CD06A26EA7775693194FEC8DE2A61B477C6ECE139E6742E858B196B191973B2C78B4CB6BBFDA8C8C4683A0A4AA31A930A11FA4EB9BAEA759B73D21BCDCE37FA0B4EA7F42C9BA58D3
311
E3DC27164054F990C783E0E5DE451E8FA2F2DC7B133F504B03041400060808002A4E224255019EA25F0000007C00000007000000636E782E786D6C4DCB3B0E80201045D1AD90E915ED2CF8AC45050C11660C8261F98AB1B07AC9C97D42D718D865D3E909258CFD00CCE24AC6E326A164D74DC0B4128928FF326038472BA131
311
28B1252AC747C6BAB984FC68F0B87FE8960A5C09FE86CFB69FBA01504B03041400060808002A4E22428F92F30665010000020300000C0000006662782F636F72652E786D6C8D525B6E833010BC8AE57FB07928259171D410E504BD80030EB50236F203E5F85D1E519A2A8A2A2463CDECECCE0EB0FDADEFD028AD5346973889
311
294652D7A651BA2D71F097A8C068CF9935C6FF2AC3488B5E9678823167AD356158A1DA682FB507549B46AEA0704E7A8CEA0E2E2576F5B7EC452C82870A778D07515F452BE324061AEA3873DE8201B40C994ECC2FE71B230BCE5908AA5959D5C0347551D2629E6D8E9F45464FD1B1F848A37C5B55D1213F1CA3D389D2B44A8A
311
4D51548C4C62CEBCEAEFEE6A2B85970DE6294DB28826114DBFE876976F7729DC373B4A1999CA9F446168FE290A4AFB2C5DED2E328779024666E2CFB61091474E8CE0877046A610E13527FC1C340402217B71EEEE7B5C011A65ED8DCD81694C7850A3E88284A914CD0F230B0B9DE706B0D9CB3EE99B3EEF7BC00714BA056BC2
311
C3F51CFC349D2D53D7280669A3D1DF9036B617DDC3DC62F1713E06BD94D7A633F63F6AB2AE4AD630C9F4F7F21F504B03041400060808002A4E22427221766F7C0000009D0000000B0000006662782F636E782E786D6C4DCCD10A83201805E05791FFDEE5506B821A23E93D6259C84CC3E9D8E3CF4617BB3A878FC391FD67F3
311
E86DD3CBC5A0E07A21806C78C4D9855541C90BBE01EAB54C31E6BF19A0306D56C1C1A0E59A62D94F9AED32159FAB7A179E271242E9C0068A4DD78E98B582E3BBA84D7466E4940933500E8D96CDEFA9E671ACBF504B03041400060808002A4E224296E07E172B01000015020000310000006662782F30303333433443332D44
311
3736462D343639352D413936462D3937444635333439444333352F636F72652E786D6C8D51CB6EC32010FC15C4293DD8C6C671EA08135589F205FD0102C44589C1E251E5F3BBD48ED4DE726157BB33B3C32E3B3CA63BFAD63E1867075C9704236DA553C68E034EF15ABC6374E0CC3B17FFC030B262D203CE65CCD9E85D9AD7
311
9274366A1BA16A9DD26B5184A02346F20EC98083FCD29328458A8008B77216F226465DD625B401C759881E0CA065487E312784D2637BA4C569D79D8BB6EBB7C5470F59BF3B9DB7B4ED4F47BA65D542E42C25A356BA5160C75C8DF6AF8A643267D14C4FFBD26B11B5C2BC21352D485D90E693F4FBB6DF3790777B425895E1FF
311
4869562F9292B19136ABDD851630AF59B53438532E5DEE4F33FA313B1F519EB7095ABEC1AF4A584E4748D350562D58D8008876ED2A1AA2F3B0E1CDED02F01AF69495BB96B32A1F09C2EF0521E683F21F504B03041400060808002A4E224251A848134C01000033030000300000006662782F30303333433443332D44373646
311
2D343639352D413936462D3937444635333439444333352F636E782E786D6CD593BD6E032110845F05D1DFAF4F566C71584A912748919683B54DCCC1899F287EFB2C3676DCB8489906A1D98F99D5E88EEDBE6743BEC007EDEC48BBBAA504AC744ADBC34853DC572F94EC38F3CEC5078C122B66186996296707EFD25224057B
311
914C44D5687B2AA287E092971050CE2F8971521834005B2514619E402950E40EE26D0F1E5741713A937804F2F6FA41DCF4093206D66417CE9A9CC1593E4BD20344893422849106798459D42245A7209C6A25A2A8BBFA96F564A75F27921FDC2293D724878F349F94978D6AEC913538E42C448FED15289E17A05C2C8BD15244
311
2CB9B9805786B3A46D5C0F85D558BC47BA5BAF8601CD2E33CEA29EA110D28388A028EFDB6E55B55DD5F6EFED663B6CB63DDED7DBB6654DC6399B9C33E511DA80770B91CE46B091F28E3579FCACBEC211A53D76EDFCF90F45620125F5DACEDDE33FF7D35CBE6FACCBE35FC07F00504B03041400060808002A4E224237B94692
311
A405000080100000340000006662782F30303333433443332D443736462D343639352D413936462D3937444635333439444333352F6F626A656374732E786D6CAD575D8F9B3814FD2B887DD97DC80749663AB362A832495345D5B455A356FB1029326018EF188C6C33CDECAFDF633004D2649A5DF52504737D7DEFB9E77ED8
311
7FBBCFB8F34CA56222BF73BDE1D875681E8998E5E99D5BEA6470E33A6F035F0AA13B62AE93938CDEB966D90DFC548AB2B04B314D48C9F5D1EAEAFE2F474534A7AE1371A2D49DABA2479A912129B588A97A1AC64493619AEC87DEB016ECAB4D25291E8F941644D25CC352ACE7D0E2D44679FDD7B13B0AFC91F91EF8E6D74A4D
311
CF4B8D2A7FFAE7B35C6992473F1C76A466EACD96EF2657B783ABD96C3A985D4FBCC1FDEA7E39F0DE4CC78BEBC5E276FEEE16072B2DA1C95A2269E206EF818D64913FAA3F057EC9723D9D58111BA091A4CFCC44CA0D268EE78F6A99D63BEBE429F32391E734AAB0021A957F56754C0B9AC78839A30A9675101AF75F3D8363E7
311
F3D4BCDB23BBCB9721D0DDD151D4D8DE3CBB968AF06FB8A02E619054D430B0C6D23A5A73757C40381482DB6F4C3919D15432C21DCE4249E48B1B40D488047E4F8D61B234D9603C700344A1FEDCA70BD2E8E73C3F656552726E68EC065516EC902B54ABCA32F60F9507EBBBC8C026C4CAB0E1C63AA45F0AEA06B735456E8ED8
311
5403E9249CA40839DC343BA793234717264FD74B37F8B00AF71B93BBA70F2FA428A8D4863EA05613B8E66950B236791745CE6C708F4C3980F205C87F44AA1F4C41DC24DBCFF6337B8A96245789901962E38C9DC1183F63C7AB7ECDFFCE3F7FD46EEE47EF1C9E08B681EA17E0D9F7A11BCB0E9C81FF0CC20B39B5AE6D22C251
311
361E580E800C491C2EB0843A9C847B3758A3CAA12A6317E181079761EE33FEFA23AB0685A23AA9F3CC81E55159BCA04003B68A9130A326BF35F010A71FCA5975B0153B07EFD52FA1EB7CB9F9B029654222FA60737A491396338D1677E04DD7A01EE63D8F9EE8CB77216338FA23DE9B2EDE993D4A016D83B9013E6D6ABA7939
311
9CDC3B20C2BE549872E3FFE40438611A6B47FF035311E59CE45494CDB9AFF60FB48D1A6293EC86C96D8339341690A6FE72948368D291648501B1ED566DD11C9EF1EEEBFA231809792E42C20F42E1A1F446820BB90B5F7675553A89F4B73EB52D0423A3056CAF72A4497F8BF92E6649522AD4C013B07E5B2FBAA133550115A2
311
D15A27CB0CEE23B788B49C6DF4A2594B82462AF21D43DB44DA9D3CA0AB1F885A02540ACF59AC284F768CF332DB258CA319ED32529C81E3FFDB1F9659B1239928737D4677CF743487BEED3DF2AAEF44478F6EB0A99E837B94DE98C68730F7844D2B3981552FB4E39BE9EADA9BAD068BE5F266309B2EE683F9EA6A35B8BE5E4E
311
16DEF57832B99D3671AA95077ED369BA098D28A1B3F9A564367C5FD7481F5B03DCE08168B57D5F6767F3FCBA1E6214F647D88376D96E9CC7CF18FB68FC730507C9938AD659C16946734D4C0A3D983FFC0BC198D133A65E5F6724A51768F9F47E73E40C562ED8F7D9A43BFD7EB4D7AE2E4C429E54A21FCB2CCC09E3471BD31A
311
C96191A716BF2626EDB3EE33CDAB79B381C160AA046731CA60ECA4546454A3185ED083644615A8D71DE9637BF5B860F7733D206A1272DA58F24830237385B400B5CA48F7D79DDF30D399B1EACE45B71D3EE1C7560AD70167EE5CCCE89A45540D43F467330955CAC1A5EE208FB99FE429C7A85D6F6ADFDB5D069B5E476E452E
311
199FAC5F7505B70EA08C14181B300F213A9531815FD966BF47FFC9F1C61C8768FC0D4BDDFA7258689DA98E418AD64ED9CB026698277BF41E89FABA5BDEB092E92172D125EB5512D45A079AC8B4BA2818FBAC49F3E5E711061467FDC92978992296976B1A480A329726C1C122B0C2EA2C880655177F6E3F4B818B6CE6AC1828
311
E0FCBEBFB9FE63BB105926F27A693BB7D76167F388CB6DBC4571A0E656A2B693B137D956B7017B41D98544D12189D513161059C95AA07BE1072FEB2B23FA50FDA1951B99501C3174BD746C639B41A9A54BB7B61A703077E4D4410E991BA5C998AE40F1EA85605489C20489513EF817504B03041400060800002A4E22420000
311
00000000000000000000350000006662782F30303333433443332D443736462D343639352D413936462D3937444635333439444333352F76657274696365732E62696E504B03041400060808002A4E2242F270F1330600000004000000360000006662782F30303333433443332D443736462D343639352D413936462D3937
311
444635333439444333352F747269616E676C65732E62696E636660600000504B03041400060800002A4E2242000000000000000000000000370000006662782F30303333433443332D443736462D343639352D413936462D3937444635333439444333352F617474726962757465732E62696E504B03041400060808002A4E
311
2242D5987DFC8F00000041010000360000006662782F30303333433443332D443736462D343639352D413936462D3937444635333439444333352F6469726563746F72792E786D6C858F410EC2201045AF4266AF15DDB800BA74E7C21B903225242D6328188F2FA5C4183471359997F9FF81E89FF3C41E1816475E02DF1F80
311
A11FC8386F25A438EECEC07A250251FC3803E6F58C12560C4AD840E95E91C151A72936F496F35732D860FE635F62C8F2DA16B505C545B74125BAA2FA9E05D7CC053D063734D5C7665FD55B6B8D15D5E9BFEAFD8490FFA45E504B03041400060808002A4E2242AB610D2DFC000000A00100003B0000006662782F3030333343
311
3443332D443736462D343639352D413936462D3937444635333439444333352F7265736F75726365732F636F72652E786D6C8D504B6E833010BD0A9ABDC1184421328E1A684ED00B586642AD041BF953F5F835814AEDAE9B99D1FB689E1E3F7F2D8FEC139DD7D6F450E6143234CA4EDACC3DC470232D6467C19DB5E1970C32
311
2317EC618341F0D9D9B81E90B226A009093576C20394DE63804C3DD2D183571FB8C85CC69014FE9EAF52DDE58C7999273AE904F7C1A500D9FE649B201C7A1B9D42CF8B9D153C463D1D1A3DA59FFAA6D181A89AF1B5ADE81B19DB1746EA6E18C8A5BE8CE47AA5940D65DBB4EDC08BCD2C78D0CB4F46E550069C40305A568496
311
84B277DA9DEAEEC4D2DD9C28E5C526FF638AEBF44F53D42654EC88BBDB3C883205791282175B5F693DCB4C7BEB567C03504B010214000A00000800002A4E22423DEE336E79000000790000001B00000000000000000000000000000000006175746F6465736B2D64657369676E2D7061636B6167652E786D6C504B01021400
311
1400060808002A4E2242D486FD9CA0000000F40000001300000000000000000000000000B20000005B436F6E74656E745F54797065735D2E786D6C504B010214001400060808002A4E2242C38B501CE80000007C010000080000000000000000000000000083010000636F72652E786D6C504B010214001400060808002A4E
311
224255019EA25F0000007C000000070000000000000000000000000091020000636E782E786D6C504B010214001400060808002A4E22428F92F30665010000020300000C00000000000000000000000000150300006662782F636F72652E786D6C504B010214001400060808002A4E22427221766F7C0000009D0000000B00
311
000000000000000000000000A40400006662782F636E782E786D6C504B010214001400060808002A4E224296E07E172B010000150200003100000000000000000000000000490500006662782F30303333433443332D443736462D343639352D413936462D3937444635333439444333352F636F72652E786D6C504B010214
311
001400060808002A4E224251A848134C010000330300003000000000000000000000000000C30600006662782F30303333433443332D443736462D343639352D413936462D3937444635333439444333352F636E782E786D6C504B010214001400060808002A4E224237B94692A40500008010000034000000000000000000
311
000000005D0800006662782F30303333433443332D443736462D343639352D413936462D3937444635333439444333352F6F626A656374732E786D6C504B010214001400060800002A4E22420000000000000000000000003500000000000000000000000000530E00006662782F30303333433443332D443736462D343639
311
352D413936462D3937444635333439444333352F76657274696365732E62696E504B010214001400060808002A4E2242F270F13306000000040000003600000000000000000000000000A60E00006662782F30303333433443332D443736462D343639352D413936462D3937444635333439444333352F747269616E676C65
311
732E62696E504B010214001400060800002A4E22420000000000000000000000003700000000000000000000000000000F00006662782F30303333433443332D443736462D343639352D413936462D3937444635333439444333352F617474726962757465732E62696E504B010214001400060808002A4E2242D5987DFC8F
311
000000410100003600000000000000000000000000550F00006662782F30303333433443332D443736462D343639352D413936462D3937444635333439444333352F6469726563746F72792E786D6C504B010214001400060808002A4E2242AB610D2DFC000000A00100003B00000000000000000000000000381000006662
311
782F30303333433443332D443736462D343639352D413936462D3937444635333439444333352F7265736F75726365732F636F72652E786D6C504B0506000000000E000E00800400008D1100000000
310
504B03040A00000800002A4E22423DEE336E79000000790000001B0000006175746F6465736B2D64657369676E2D7061636B6167652E786D6C3C3F786D6C2076657273696F6E3D22312E302220656E636F64696E673D227574662D3822203F3E3C666F726D6174733E3C666F726D61743E687474703A2F2F736368656D612E
310
6175746F6465736B2E636F6D2F64657369676E2D7061636B6167652F323030393C2F666F726D61743E3C2F666F726D6174733E504B03041400060808002A4E2242D486FD9CA0000000F4000000130000005B436F6E74656E745F54797065735D2E786D6C7D8EC10E82300C865F65E91D8A1E8C310C0EEA1BF002731658846E
310
D98AC1B77784ABF1D8FE5FBFBF75BBCE937A534CCEB38643598122B6FEE978D0B0485F9C41B54DDD7D022595594E1A469170414C76A4D9A4D207E29CF43ECE46F218070CC6BECC4078ACAA135ACF422C856C0E68EA1BF5669944DDD7BCDE7B1F8E415D77AECB980613C2E4AC91FC167A2B244592486606FC29C8FD7F045B9A
310
EF7053A7E60B504B03041400060808002A4E2242BA161C60E70000007C01000008000000636F72652E786D6C8D905D6EC3201084AF82F61D9B1FAB0E16264A2AE504BD0002E2A2C46019A87AFCE2C491DAB73EED68988F5D8D3C7ECF77F4E5D6E46318813604900B265A1FA6114ABEE203A0A3926B8CF9570C50D0B31B61B3
310
41C9698D65D92D13437621573744EB7653A7E4322073AF6284643EDDAC1B5D724DA45BB36873D3936BE84B55B8146FD17389B7F53F7FF56E0525782F083B5C30EF2E1477A227F8D4F1333E334A2811FDA9A3EFB2DD6025B39F5FFBCDEA747616142394634231611F440C9D1858D56F0321B2DDE27FA0B2D87F42C587CCD97E
310
EE134BA0683DE4F1A064BB7551C7A3A83AB7DED40F504B03041400060808002A4E224255019EA25F0000007C00000007000000636E782E786D6C4DCB3B0E80201045D1AD90E915ED2CF8AC45050C11660C8261F98AB1B07AC9C97D42D718D865D3E909258CFD00CCE24AC6E326A164D74DC0B4128928FF326038472BA13128
310
B1252AC747C6BAB984FC68F0B87FE8960A5C09FE86CFB69FBA01504B03041400060808002A4E22429ABB677464010000020300000C0000006662782F636F72652E786D6C8D52ED8E8320107C15C27F04D45C6B8334ED257D827B018AB467AA60104C1FFFD68FC6EBA5692E26486676766747C5FEDE366830BEAF9D2D314F18
310
46C66A57D5F65AE2182E648BD15E0AEF5CF855869155AD29F1086329AEDEC56E81B4B3C1D800A875955940D5F72660A41BB894B8D7DFA655898A012AFA5BD2297D535793F00468A893A20F1E0CA079C878627939DF059D712962ACAB85AD2B98565F6AE3B12CB24DC1D2ED8964F98993BCD83072C8B32339A69C71566C0E39
310
FF1474144B11EAF6E14E7BA382A9B04C19CF08E384A55FACD8E5C52E85FBC78E3141C7F22751ECAA7F8A626D43962E7667598F25072313F1675B8828A05E0DE0874A41C710E13525FC1C3404022107756E1E7BDC001A8C0ECEE7C0542EAED4A09A68602A43D323E8CC42E7A9016CF6B24FFAA6CFFB1EF00195BD823515E07A
310
8E619C2EE6A94B149DF1640877649D6F55B39A9B2DAEE73AE8A55CBBC6F9FFA8E9B22A5DC2A4E3DF2B7F00504B03041400060808002A4E22422160F8C77D0000009D0000000B0000006662782F636E782E786D6C4DCCD10A83201886E15B91FFDCA5CBC902359C6BF711CB42321DA66397BF1A1DECE883878F57B49FC5A3B7
310
4DAB8B41023D1140363CE3E0C224A1E4115F01B54AA418F3DF0D50E8172B616750624AB1BC0E1AECD8179F37F52ECC07724E0D6FD8193717D661A699C6377E3758336A28A1E4C1EB0E2A25AA5F69DB3DACBE504B03041400060808002A4E2242C07C48FE2901000015020000310000006662782F36363143363934322D3935
310
34452D344134412D423644432D4134314331303130463633452F636F72652E786D6C8D51CB6EC32010FC15C4293D60834D506D61A2344DBFA03F400C495162B07854F9FC42ED48ED2D1716CDCECC8E76F9EE3EDDC0B7F6C1383B40526108B41D9D32F632C014CFE815829DE0DEB9F887068195931E6081A1E017EFD2BC42A3
310
B351DB9851EB945E4119828E108CB7FC196018BFF4242B996266846B35CBF12A2FBA22556E679EE021FA1C002C43CA0B0563E4C03ADAA06E4B8F88EEE91EBDB1F703DA53722098E00FD61E79BD08054FC9A8556E548E63CE46FB674D8A58F068A647FCD16B19B582A2C1A4459820DC7CE2AEA75DDFE43FEB31E675A1FF13A5
310
593D294AC6C6B659E32EB20005E1F5D2105CB974BA3DC2E8FBEC7C0465DE26E8F1050A5C61BCC5989276CBEB859B37904D195D4D43743E6F78733D657ABB3A332A785D8E94CBEF05732D07153F504B03041400060808002A4E2242370F87045301000033030000300000006662782F36363143363934322D393534452D3441
310
34412D423644432D4134314331303130463633452F636E782E786D6CBD93CD6EC32010845F0571F76F2C2B8930917AE813F4D02B864D4283C1025C356FDF2521692E3954AA7A41687698597DB2D9EE6B32E4137CD0CE0EB4296B4AC04AA7B43D0C7489FB624DC98E33EF5C7CB05162C504034D32E5ECE0DD326749C15E2C26
310
A26AB43D65D143708B9710504E2F897152180C005B2C28C2348252A0C8DD88B73D785C05C5F14CE211C8EBCB3B71E307C81858955238AB520767E9CC4D0F264AA411210C34C8234CA2144B740AC2A954228AB2296F5D4F76FA4922E9C1AD72F19AA4F281A693F2BC51891C598543CE42F4482F9BE27906CAC53C1B2D4544C8
310
D5C578F570B6681BFB2E7B3582F7E85EB5FD7A8D61971967514F901DD28388A0286FEB6655D44D51B76FF566DB6DB62DDEFB6D5DB32AD9391B9D33F911C680773391CE46B091F2865569FC0C5FF611A53DB276FEFC0B900820B75EE9DC33FE924FD3AFBAEE1FF95497EF1B7179FC0BF837504B03041400060808002A4E2242
310
1CC191C861070000991B0000340000006662782F36363143363934322D393534452D344134412D423644432D4134314331303130463633452F6F626A656374732E786D6CED595B739B3814FE2B0CFBB2FB606C6C279BEC103A89DD743C9DB49D7ADBD907CF3032C8441B211849E4B2BF7E8F2E602026C1DBEC5B1F6C404847
310
E77CE7AA43F0EE31A3CE3DE682E4ECC2F5BD89EB6016E70961E9855BCADDE8CC75DE8501CF73D998E63A0C65F8C255C36E18A43C2F0B3B94E01D2AA9EC8C5E5FFDE5881833EC3A3145425CB822BEC519F25029F3048B3B2F411279E9EED1F33D33B14D36E5A8B8ED102D10C74C02A730CE808A6398F2DB8F13771C0663F53E
310
0CD4BF9D351B346BDE3F6BACA56E7349989088C5CF58EA90990D6269E6CF97EFA727E7A393F97C369A9F4EFDD1D5F5D572E4FF3E9B2C4E178BF3CBF7E7C0DE36CFA99529C1056609E8EFC90DFD60ACDED4A25B040E711DE78CE15803095069B1BA040916B05503BE49FBD15712355E6B091BCF73F5DEB2D0189EB5A9F4CD1A
310
06448B2E0862B7AB24AEAE4DF9F2EDDF20B81862945C6009DC0AC941BB161E0E5EE18693606C46C360BBD705114E8624E6045187922D471C940253D59430300B2C19E51C1C48394A02AD39F3BA6D5BE099AFBBCE212E7725A5CA33DC503B5604EE87A5D09C917F30DF73DF44067802694BC2E499E5523E15D80DCF83B11E0C
310
0375994DED4B03A4B3A328151A11F3B623E842B9FE6AE9861FAFB78F6B150E0E6F5EF0BCC05C2AA3537AD47C8121DBAB42C96EEB0FD29C5A00C21850EDCA3D285F01F94F103DF6AC80DE38799C3FCEED5CC91113BB9C67A01B67E28C26F037717CFDAFEE1B77C1B85EDCD65E1F9EE0A60AAAB31FC7B32D83C6CAF2DF80330C
310
EEC1E0733EB3AFD631A260CF37840140CA481C9AC31084F6DDF6D10D57103821D0C32A44431F440676EFE136185B327BAD54EE65BD8E01A2768FD91025016CDA22818D1E3D7D80ECC149BC575353C43E784FDEC45C2F97EB8FEB92EF508C6FAC4F2FF18E3022216B1E66A885794BA23BFCF490F304047D8EF7BA897766B712
310
80B6C25C019F5620A887FDCEAD0D625897E62ADC04AFEC0042A85CDDA07F43448C29450CE765B56F1DDD94A1D61E6F6B06379C1A8867D38E09737C4F5455014EB39FD16214F27ECC49A14074C30F46B23A687A3DD27D5B7D028BACE7F7CC5A3108BD0CD13F75D03A8043CBB22BA42D10B5C0DB7D388F739AF368FB149948E7
310
422D016CB4BDE57B8B28C47AA32445053C48FB5D155252236D9490DDAE1410570FB0F87DB5689AC3C49BF9274EF3BFE38C7388B6E0BB885BBFEBEC11910CA538DAA1A46FBBE66E356DA149F690E67847412E724FE45384643449707A0C3447113F7F53EA29CD85200C0BC85707C16FA231F12090186D562C2BAD76802622CA
310
B044F4180414991E7075DAD1356E0CA5C3EB3CD6D6FB92C69A44FF278BE0086AC99C45044A51C821AF32EE7B271043DAE81A943BF882B555B4B518B48412227E8A1E30496FE531A81BF23DB8C77024296594172806B31E40F699AF28A57678DFA2F84EE58F282EE95B1988C07417114ACB2C821F6170F218E2DA75607A1185
310
067113FB24CEA02843B2E44336393D993CDBC7D40CDD10D8D868472884ED2843450FEAAD80A8EB11A706DF52EF51EAB6CC8A086579C906198A37EB7A9325DF55AB223B905F552A42D95811B604C380305967D52A6683A9EBC00A6EA403D55324505650730A7B25F1F8B53769CABD1B70EBA76FBB4106855F8FF69A11755EC1
310
60796C1506E201C9F8D60DD7FA3ABA82FA3BC1C93ED557B566B30204C454242F39B12AFAB682F2C6D6686E7883A4D87C3059B7BA7E5B79D0FD08C6B0066A977AE14A019D612691AA4C6ED40DFD8A2004B76898F195CAA9C750B94C125D35227A4DFAD4D92A235A9B66C42B6E31CB33F8B10D61312D13BC4189B88B6E248DD6
310
44B16EA5F4325261FCA2809F3FAC3BF0C0C80091BEA8020F3F74D6DAD1852A970E1291B765B6658840106C89961ADD78054BAD462A2DD75775A680BA0B0CCCAA78FEF364D16C47FC3C59A4D6307EEC6441F32DA2FB68D3C8E6B132EBA34E01757A5254DEE214A0BB0E35D53A89985C6EC5B7BE14414CAC82FCE062AC8A1986
310
601FC7FF3969F72541B35D87FFE392B6FFACE0382AA9B426AB26D581C275D54C6193B3D9F5A93FBF1E2D96CBB3D17CB6B81C5D5E9F5C8F4E4F97D3857F3A994ECFF75584F6D330A863994E5DF06C625A35AC9E2C06D094153925091CE61327C510F2251CE90774CF798605E4CE66AF3BB13DF901ABEF4D9B53A22DC51527B7
310
08FAC3544056078CCA58B6C79D5FA03329E19C7DE142CFC8BB833F6B95AE0389E7C2854E81243116DE16BA4CAA9FA78943C6D5A9DF12037C104B5546348BEAE77A95C2A615FDEB2943B28095ABD5C280BAAD80E657AB41A179B33CC547095EB1E32009B7DB5242B16664D90FD4C2E86DF6EA37B251C2EEECD68FE0BA2F8BE5
310
7B7A4E0B91415F0C5E3402437524114F75BB5B316659BA5C7E19439BCD597D760A5AA6A0CBE194461C833197AA9E022B02ABB0340B24C154177F6CBEF01CBEF0648E2E8A9C5F1FCF4E7FDB2CF22CCB9919DA5CC2A12C81EF44CEFA16BEFA241BA81DB0EAAD8BCD74E24F37BAA76DDBECD11609ECA9A20806AA5A4209D23139
310
B0CB67FD29DBBD1C2B5574A6AF968E0DA2D00B3076F4ACC56BBE7139E043EA6B8AF218EDE795B42FB6B5C77A2AD804878674F82F504B03041400060800002A4E2242000000000000000000000000350000006662782F36363143363934322D393534452D344134412D423644432D4134314331303130463633452F76657274
310
696365732E62696E504B03041400060808002A4E2242F270F1330600000004000000360000006662782F36363143363934322D393534452D344134412D423644432D4134314331303130463633452F747269616E676C65732E62696E636660600000504B03041400060800002A4E2242000000000000000000000000370000
310
006662782F36363143363934322D393534452D344134412D423644432D4134314331303130463633452F617474726962757465732E62696E504B03041400060808002A4E2242D5987DFC8F00000041010000360000006662782F36363143363934322D393534452D344134412D423644432D4134314331303130463633452F
310
6469726563746F72792E786D6C858F410EC2201045AF4266AF15DDB800BA74E7C21B903225242D6328188F2FA5C4183471359997F9FF81E89FF3C41E1816475E02DF1F80A11FC8386F25A438EECEC07A250251FC3803E6F58C12560C4AD840E95E91C151A72936F496F35732D860FE635F62C8F2DA16B505C545B74125BAA2
310
FA9E05D7CC053D063734D5C7665FD55B6B8D15D5E9BFEAFD8490FFA45E504B03041400060808002A4E2242D2FC4151FB000000A00100003B0000006662782F36363143363934322D393534452D344134412D423644432D4134314331303130463633452F7265736F75726365732F636F72652E786D6C8D504B6E833010BD8A
310
357B830DA804641C25557B825EC0B227899560237FAA1EBF2650A9DD7533337A1FCDD313C7AFF9413E3144EBDD04BC6240D0696FACBB4E90D3851E801CA508DEA75F32204ECD38C10A8314D7E0F3B243DABB842E15D479833BA862C404443FCA3141D4379C55A5722A8A78AF16A5EFEA8A15AF0A5D7452C4144A00B23D5927
310
C880D1E7A0318A7A63A5C8D99A5D634DF9692F1603C8A1ED07D61CDE68DBBD73DA0D3DA3A7AE3DD373C31967437FEAF8ABA857B314C9CE3F19754095D0806C186F29E394351F6C18BB616CCAFD323226EA55FEC79417F34F53B62EB5CD1E77B34590BC04791252D46B5F653DCB2C7BED567E03504B010214000A0000080000
310
2A4E22423DEE336E79000000790000001B00000000000000000000000000000000006175746F6465736B2D64657369676E2D7061636B6167652E786D6C504B010214001400060808002A4E2242D486FD9CA0000000F40000001300000000000000000000000000B20000005B436F6E74656E745F54797065735D2E786D6C50
310
4B010214001400060808002A4E2242BA161C60E70000007C010000080000000000000000000000000083010000636F72652E786D6C504B010214001400060808002A4E224255019EA25F0000007C000000070000000000000000000000000090020000636E782E786D6C504B010214001400060808002A4E22429ABB677464
310
010000020300000C00000000000000000000000000140300006662782F636F72652E786D6C504B010214001400060808002A4E22422160F8C77D0000009D0000000B00000000000000000000000000A20400006662782F636E782E786D6C504B010214001400060808002A4E2242C07C48FE29010000150200003100000000
310
000000000000000000480500006662782F36363143363934322D393534452D344134412D423644432D4134314331303130463633452F636F72652E786D6C504B010214001400060808002A4E2242370F870453010000330300003000000000000000000000000000C00600006662782F36363143363934322D393534452D34
310
4134412D423644432D4134314331303130463633452F636E782E786D6C504B010214001400060808002A4E22421CC191C861070000991B00003400000000000000000000000000610800006662782F36363143363934322D393534452D344134412D423644432D4134314331303130463633452F6F626A656374732E786D6C
310
504B010214001400060800002A4E22420000000000000000000000003500000000000000000000000000141000006662782F36363143363934322D393534452D344134412D423644432D4134314331303130463633452F76657274696365732E62696E504B010214001400060808002A4E2242F270F1330600000004000000
310
3600000000000000000000000000671000006662782F36363143363934322D393534452D344134412D423644432D4134314331303130463633452F747269616E676C65732E62696E504B010214001400060800002A4E22420000000000000000000000003700000000000000000000000000C11000006662782F3636314336
310
3934322D393534452D344134412D423644432D4134314331303130463633452F617474726962757465732E62696E504B010214001400060808002A4E2242D5987DFC8F000000410100003600000000000000000000000000161100006662782F36363143363934322D393534452D344134412D423644432D41343143313031
310
30463633452F6469726563746F72792E786D6C504B010214001400060808002A4E2242D2FC4151FB000000A00100003B00000000000000000000000000F91100006662782F36363143363934322D393534452D344134412D423644432D4134314331303130463633452F7265736F75726365732F636F72652E786D6C504B05
310
06000000000E000E00800400004D1300000000
  0
XRECORD
  5
27
102
{ACAD_REACTORS
330
22
102
}
330
22
100
AcDbXrecord
280
     1
270
     1
271
     1
  0
XRECORD
  5
26
102
{ACAD_REACTORS
330
22
102
}
330
22
100
AcDbXrecord
280
     1
270
     1
271
     1
  0
XRECORD
  5
28
102
{ACAD_REACTORS
330
22
102
}
330
22
100
AcDbXrecord
280
     1
270
     1
271
     1
  0
XRECORD
  5
25
102
{ACAD_REACTORS
330
22
102
}
330
22
100
AcDbXrecord
280
     1
270
     1
271
     1
  0
XRECORD
  5
1489
102
{ACAD_REACTORS
330
1488
102
}
330
1488
100
AcDbXrecord
280
     1
102
ACAD_ROUNDTRIP_2012_MLEADER_STYLE
298
     1
  0
CELLSTYLEMAP
  5
1487
102
{ACAD_REACTORS
330
1486
102
}
330
1486
100
AcDbCellStyleMap
 90
        3
300
CELLSTYLE
  1
TABLEFORMAT_BEGIN
 90
        5
170
     1
 91
        0
 92
    32768
 62
   257
 93
        1
300
CONTENTFORMAT
  1
CONTENTFORMAT_BEGIN
 90
        0
 91
        0
 92
      512
 93
        0
300

 40
0.0
140
1.0
 94
        5
 62
     0
340
55
144
0.25
309
CONTENTFORMAT_END
171
     0
 94
        0
309
TABLEFORMAT_END
  1
CELLSTYLE_BEGIN
 90
        1
 91
        1
300
_TITLE
309
CELLSTYLE_END
300
CELLSTYLE
  1
TABLEFORMAT_BEGIN
 90
        5
170
     1
 91
        0
 92
        0
 62
   257
 93
        1
300
CONTENTFORMAT
  1
CONTENTFORMAT_BEGIN
 90
        0
 91
        0
 92
      512
 93
        0
300

 40
0.0
140
1.0
 94
        5
 62
     0
340
55
144
0.18
309
CONTENTFORMAT_END
171
     0
 94
        0
309
TABLEFORMAT_END
  1
CELLSTYLE_BEGIN
 90
        2
 91
        1
300
_HEADER
309
CELLSTYLE_END
300
CELLSTYLE
  1
TABLEFORMAT_BEGIN
 90
        5
170
     1
 91
        0
 92
        0
 62
   257
 93
        1
300
CONTENTFORMAT
  1
CONTENTFORMAT_BEGIN
 90
        0
 91
        0
 92
      512
 93
        0
300

 40
0.0
140
1.0
 94
        2
 62
     0
340
55
144
0.18
309
CONTENTFORMAT_END
171
     0
 94
        0
309
TABLEFORMAT_END
  1
CELLSTYLE_BEGIN
 90
        3
 91
        2
300
_DATA
309
CELLSTYLE_END
  0
ENDSEC
  0
EOF
