  0
SECTION
  2
HEADER
  9
$ACADVER
  1
AC1024
  9
$ACADMAINTVER
 70
    63
  9
$DWGCODEPAGE
  3
ANSI_1252
  9
$AUTHOR
  1
KA
  9
$REVISIONNUMBER
  1
-
  9
$CUSTOMPROPERTYTAG
  1
Manager
  9
$CUSTOMPROPERTY
  1

  9
$CUSTOMPROPERTYTAG
  1
Company
  9
$CUSTOMPROPERTY
  1

  9
$CUSTOMPROPERTYTAG
  1
Category
  9
$CUSTOMPROPERTY
  1

  9
$CUSTOMPROPERTYTAG
  1
Part Number
  9
$CUSTOMPROPERTY
  1
SSJWL906-S
  9
$CUSTOMPROPERTYTAG
  1
Description
  9
$CUSTOMPROPERTY
  1

  9
$CUSTOMPROPERTYTAG
  1
Project
  9
$CUSTOMPROPERTY
  1

  9
$CUSTOMPROPERTYTAG
  1
Designer
  9
$CUSTOMPROPERTY
  1
KA
  9
$CUSTOMPROPERTYTAG
  1
Engineer
  9
$CUSTOMPROPERTY
  1

  9
$CUSTOMPROPERTYTAG
  1
Authority
  9
$CUSTOMPROPERTY
  1

  9
$CUSTOMPROPERTYTAG
  1
Cost Center
  9
$CUSTOMPROPERTY
  1

  9
$CUSTOMPROPERTYTAG
  1
Vendor
  9
$CUSTOMPROPERTY
  1

  9
$CUSTOMPROPERTYTAG
  1
User Status
  9
$CUSTOMPROPERTY
  1

  9
$CUSTOMPROPERTYTAG
  1
Design Status
  9
$CUSTOMPROPERTY
  1
WorkInProgress
  9
$CUSTOMPROPERTYTAG
  1
Checked by
  9
$CUSTOMPROPERTY
  1
DN
  9
$CUSTOMPROPERTYTAG
  1
Date Checked
  9
$CUSTOMPROPERTY
  1
10/23/2012
  9
$CUSTOMPROPERTYTAG
  1
Engr Approved by
  9
$CUSTOMPROPERTY
  1

  9
$CUSTOMPROPERTYTAG
  1
Mfg Approved by
  9
$CUSTOMPROPERTY
  1

  9
$CUSTOMPROPERTYTAG
  1
DWG. NO
  9
$CUSTOMPROPERTY
  1

  9
$CUSTOMPROPERTYTAG
  1
NUMBER OF SHEETS
  9
$CUSTOMPROPERTY
  1
1
  9
$CUSTOMPROPERTYTAG
  1
DRAWING #
  9
$CUSTOMPROPERTY
  1

  9
$INSBASE
 10
0.0
 20
0.0
 30
0.0
  9
$EXTMIN
 10
0.0
 20
0.0
 30
0.0
  9
$EXTMAX
 10
60.44444444444444
 20
39.11111111111111
 30
0.0
  9
$LIMMIN
 10
0.0
 20
0.0
  9
$LIMMAX
 10
60.44444444444444
 20
39.11111111111111
  9
$ORTHOMODE
 70
     0
  9
$REGENMODE
 70
     1
  9
$FILLMODE
 70
     1
  9
$QTEXTMODE
 70
     0
  9
$MIRRTEXT
 70
     0
  9
$LTSCALE
 40
3.555555555555555
  9
$ATTMODE
 70
     1
  9
$TEXTSIZE
 40
0.2
  9
$TRACEWID
 40
0.05
  9
$TEXTSTYLE
  7
Standard
  9
$CLAYER
  8
0
  9
$CELTYPE
  6
ByLayer
  9
$CECOLOR
 62
   256
  9
$CELTSCALE
 40
1.0
  9
$DISPSILH
 70
     0
  9
$DIMSCALE
 40
1.0
  9
$DIMASZ
 40
0.0708661417322835
  9
$DIMEXO
 40
0.0625
  9
$DIMDLI
 40
0.38
  9
$DIMRND
 40
0.0
  9
$DIMDLE
 40
0.0
  9
$DIMEXE
 40
0.18
  9
$DIMTP
 40
0.0
  9
$DIMTM
 40
0.0
  9
$DIMTXT
 40
0.0708661417322835
  9
$DIMCEN
 40
0.09
  9
$DIMTSZ
 40
0.0
  9
$DIMTOL
 70
     0
  9
$DIMLIM
 70
     0
  9
$DIMTIH
 70
     1
  9
$DIMTOH
 70
     1
  9
$DIMSE1
 70
     0
  9
$DIMSE2
 70
     0
  9
$DIMTAD
 70
     0
  9
$DIMZIN
 70
     0
  9
$DIMBLK
  1

  9
$DIMASO
 70
     1
  9
$DIMSHO
 70
     1
  9
$DIMPOST
  1

  9
$DIMAPOST
  1

  9
$DIMALT
 70
     0
  9
$DIMALTD
 70
     2
  9
$DIMALTF
 40
25.4
  9
$DIMLFAC
 40
1.0
  9
$DIMTOFL
 70
     0
  9
$DIMTVP
 40
0.0
  9
$DIMTIX
 70
     0
  9
$DIMSOXD
 70
     0
  9
$DIMSAH
 70
     0
  9
$DIMBLK1
  1

  9
$DIMBLK2
  1

  9
$DIMSTYLE
  2
Standard
  9
$DIMCLRD
 70
     0
  9
$DIMCLRE
 70
     0
  9
$DIMCLRT
 70
     0
  9
$DIMTFAC
 40
1.0
  9
$DIMGAP
 40
0.09
  9
$DIMJUST
 70
     0
  9
$DIMSD1
 70
     0
  9
$DIMSD2
 70
     0
  9
$DIMTOLJ
 70
     1
  9
$DIMTZIN
 70
     0
  9
$DIMALTZ
 70
     0
  9
$DIMALTTZ
 70
     0
  9
$DIMUPT
 70
     0
  9
$DIMDEC
 70
     4
  9
$DIMTDEC
 70
     4
  9
$DIMALTU
 70
     2
  9
$DIMALTTD
 70
     2
  9
$DIMTXSTY
  7
Standard
  9
$DIMAUNIT
 70
     0
  9
$DIMADEC
 70
     0
  9
$DIMALTRND
 40
0.0
  9
$DIMAZIN
 70
     0
  9
$DIMDSEP
 70
    46
  9
$DIMATFIT
 70
     3
  9
$DIMFRAC
 70
     0
  9
$DIMLDRBLK
  1

  9
$DIMLUNIT
 70
     2
  9
$DIMLWD
 70
    -2
  9
$DIMLWE
 70
    -2
  9
$DIMTMOVE
 70
     0
  9
$DIMFXL
 40
1.0
  9
$DIMFXLON
 70
     0
  9
$DIMJOGANG
 40
0.7853981633974483
  9
$DIMTFILL
 70
     0
  9
$DIMTFILLCLR
 70
     0
  9
$DIMARCSYM
 70
     0
  9
$DIMLTYPE
  6

  9
$DIMLTEX1
  6

  9
$DIMLTEX2
  6

  9
$DIMTXTDIRECTION
 70
     0
  9
$LUNITS
 70
     2
  9
$LUPREC
 70
     4
  9
$SKETCHINC
 40
0.1
  9
$FILLETRAD
 40
0.0
  9
$AUNITS
 70
     0
  9
$AUPREC
 70
     0
  9
$MENU
  1
.
  9
$ELEVATION
 40
0.0
  9
$PELEVATION
 40
0.0
  9
$THICKNESS
 40
0.0
  9
$LIMCHECK
 70
     0
  9
$CHAMFERA
 40
0.0
  9
$CHAMFERB
 40
0.0
  9
$CHAMFERC
 40
0.0
  9
$CHAMFERD
 40
0.0
  9
$SKPOLY
 70
     0
  9
$TDCREATE
 40
2456295.410643461
  9
$TDUCREATE
 40
2456295.660643461
  9
$TDUPDATE
 40
2456295.410643472
  9
$TDUUPDATE
 40
2456295.660643473
  9
$TDINDWG
 40
0.0000272454
  9
$TDUSRTIMER
 40
0.0000272454
  9
$USRTIMER
 70
     1
  9
$ANGBASE
 50
0.0
  9
$ANGDIR
 70
     0
  9
$PDMODE
 70
     0
  9
$PDSIZE
 40
0.0
  9
$PLINEWID
 40
0.0
  9
$SPLFRAME
 70
     0
  9
$SPLINETYPE
 70
     6
  9
$SPLINESEGS
 70
     8
  9
$HANDSEED
  5
149D
  9
$SURFTAB1
 70
     6
  9
$SURFTAB2
 70
     6
  9
$SURFTYPE
 70
     6
  9
$SURFU
 70
     6
  9
$SURFV
 70
     6
  9
$UCSBASE
  2

  9
$UCSNAME
  2

  9
$UCSORG
 10
0.0
 20
0.0
 30
0.0
  9
$UCSXDIR
 10
1.0
 20
0.0
 30
0.0
  9
$UCSYDIR
 10
0.0
 20
1.0
 30
0.0
  9
$UCSORTHOREF
  2

  9
$UCSORTHOVIEW
 70
     0
  9
$UCSORGTOP
 10
0.0
 20
0.0
 30
0.0
  9
$UCSORGBOTTOM
 10
0.0
 20
0.0
 30
0.0
  9
$UCSORGLEFT
 10
0.0
 20
0.0
 30
0.0
  9
$UCSORGRIGHT
 10
0.0
 20
0.0
 30
0.0
  9
$UCSORGFRONT
 10
0.0
 20
0.0
 30
0.0
  9
$UCSORGBACK
 10
0.0
 20
0.0
 30
0.0
  9
$PUCSBASE
  2

  9
$PUCSNAME
  2

  9
$PUCSORG
 10
0.0
 20
0.0
 30
0.0
  9
$PUCSXDIR
 10
1.0
 20
0.0
 30
0.0
  9
$PUCSYDIR
 10
0.0
 20
1.0
 30
0.0
  9
$PUCSORTHOREF
  2

  9
$PUCSORTHOVIEW
 70
     0
  9
$PUCSORGTOP
 10
0.0
 20
0.0
 30
0.0
  9
$PUCSORGBOTTOM
 10
0.0
 20
0.0
 30
0.0
  9
$PUCSORGLEFT
 10
0.0
 20
0.0
 30
0.0
  9
$PUCSORGRIGHT
 10
0.0
 20
0.0
 30
0.0
  9
$PUCSORGFRONT
 10
0.0
 20
0.0
 30
0.0
  9
$PUCSORGBACK
 10
0.0
 20
0.0
 30
0.0
  9
$USERI1
 70
     0
  9
$USERI2
 70
     0
  9
$USERI3
 70
     0
  9
$USERI4
 70
     0
  9
$USERI5
 70
     0
  9
$USERR1
 40
0.0
  9
$USERR2
 40
0.0
  9
$USERR3
 40
0.0
  9
$USERR4
 40
0.0
  9
$USERR5
 40
0.0
  9
$WORLDVIEW
 70
     1
  9
$SHADEDGE
 70
     3
  9
$SHADEDIF
 70
    70
  9
$TILEMODE
 70
     1
  9
$MAXACTVP
 70
    64
  9
$PINSBASE
 10
0.0
 20
0.0
 30
0.0
  9
$PLIMCHECK
 70
     0
  9
$PEXTMIN
 10
0.0
 20
0.0
 30
0.0
  9
$PEXTMAX
 10
60.44444444444444
 20
39.11111111111111
 30
0.0
  9
$PLIMMIN
 10
0.0
 20
0.0
  9
$PLIMMAX
 10
60.44444444444444
 20
39.11111111111111
  9
$UNITMODE
 70
     0
  9
$VISRETAIN
 70
     1
  9
$PLINEGEN
 70
     0
  9
$PSLTSCALE
 70
     1
  9
$TREEDEPTH
 70
  3020
  9
$CMLSTYLE
  2
Standard
  9
$CMLJUST
 70
     0
  9
$CMLSCALE
 40
1.0
  9
$PROXYGRAPHICS
 70
     1
  9
$MEASUREMENT
 70
     0
  9
$CELWEIGHT
370
    -1
  9
$ENDCAPS
280
     0
  9
$JOINSTYLE
280
     0
  9
$LWDISPLAY
290
     0
  9
$INSUNITS
 70
     1
  9
$HYPERLINKBASE
  1

  9
$STYLESHEET
  1

  9
$XEDIT
290
     1
  9
$CEPSNTYPE
380
     0
  9
$PSTYLEMODE
290
     1
  9
$FINGERPRINTGUID
  2
{9999A766-77FF-400A-B142-7BFA696C12E7}
  9
$VERSIONGUID
  2
{BF812CD1-9E2A-4462-A755-7D61088DA5BC}
  9
$EXTNAMES
290
     1
  9
$PSVPSCALE
 40
0.0
  9
$OLESTARTUP
290
     0
  9
$SORTENTS
280
   127
  9
$INDEXCTL
280
     0
  9
$HIDETEXT
280
     1
  9
$XCLIPFRAME
280
     2
  9
$HALOGAP
280
     0
  9
$OBSCOLOR
 70
   257
  9
$OBSLTYPE
280
     0
  9
$INTERSECTIONDISPLAY
280
     0
  9
$INTERSECTIONCOLOR
 70
   257
  9
$DIMASSOC
280
     1
  9
$PROJECTNAME
  1

  9
$CAMERADISPLAY
290
     0
  9
$LENSLENGTH
 40
50.0
  9
$CAMERAHEIGHT
 40
0.0
  9
$STEPSPERSEC
 40
2.0
  9
$STEPSIZE
 40
6.0
  9
$3DDWFPREC
 40
2.0
  9
$PSOLWIDTH
 40
0.25
  9
$PSOLHEIGHT
 40
4.0
  9
$LOFTANG1
 40
1.570796326794896
  9
$LOFTANG2
 40
1.570796326794896
  9
$LOFTMAG1
 40
0.0
  9
$LOFTMAG2
 40
0.0
  9
$LOFTPARAM
 70
     7
  9
$LOFTNORMALS
280
     1
  9
$LATITUDE
 40
37.795
  9
$LONGITUDE
 40
-122.394
  9
$NORTHDIRECTION
 40
0.0
  9
$TIMEZONE
 70
 -8000
  9
$LIGHTGLYPHDISPLAY
280
     1
  9
$TILEMODELIGHTSYNCH
280
     1
  9
$CMATERIAL
347
11
  9
$SOLIDHIST
280
     0
  9
$SHOWHIST
280
     1
  9
$DWFFRAME
280
     2
  9
$DGNFRAME
280
     0
  9
$REALWORLDSCALE
290
     1
  9
$INTERFERECOLOR
 62
     1
  9
$INTERFEREOBJVS
345
33
  9
$INTERFEREVPVS
346
30
  9
$CSHADOW
280
     0
  9
$SHADOWPLANELOCATION
 40
0.0
  0
ENDSEC
  0
SECTION
  2
CLASSES
  0
CLASS
  1
ACDBDICTIONARYWDFLT
  2
AcDbDictionaryWithDefault
  3
ObjectDBX Classes
 90
        0
 91
        1
280
     0
281
     0
  0
CLASS
  1
MATERIAL
  2
AcDbMaterial
  3
ObjectDBX Classes
 90
     1153
 91
        3
280
     0
281
     0
  0
CLASS
  1
VISUALSTYLE
  2
AcDbVisualStyle
  3
ObjectDBX Classes
 90
     4095
 91
       24
280
     0
281
     0
  0
CLASS
  1
SCALE
  2
AcDbScale
  3
ObjectDBX Classes
 90
     1153
 91
       17
280
     0
281
     0
  0
CLASS
  1
TABLESTYLE
  2
AcDbTableStyle
  3
ObjectDBX Classes
 90
     4095
 91
        1
280
     0
281
     0
  0
CLASS
  1
MLEADERSTYLE
  2
AcDbMLeaderStyle
  3
ACDB_MLEADERSTYLE_CLASS
 90
     4095
 91
        1
280
     0
281
     0
  0
CLASS
  1
DICTIONARYVAR
  2
AcDbDictionaryVar
  3
ObjectDBX Classes
 90
        0
 91
        3
280
     0
281
     0
  0
CLASS
  1
CELLSTYLEMAP
  2
AcDbCellStyleMap
  3
ObjectDBX Classes
 90
     1152
 91
        1
280
     0
281
     0
  0
ENDSEC
  0
SECTION
  2
TABLES
  0
TABLE
  2
VPORT
  5
8
330
0
100
AcDbSymbolTable
 70
     1
  0
VPORT
  5
57
330
8
100
AcDbSymbolTableRecord
100
AcDbViewportTableRecord
  2
*Active
 70
     0
 10
0.0
 20
0.0
 11
1.0
 21
1.0
 12
30.22222222222222
 22
19.55555555555555
 13
0.0
 23
0.0
 14
1.0
 24
1.0
 15
0.0
 25
0.0
 16
0.0
 26
0.0
 36
1.0
 17
0.0
 27
0.0
 37
0.0
 40
39.11111111111111
 41
1.545454545454545
 42
50.0
 43
0.0
 44
0.0
 50
0.0
 51
0.0
 71
     0
 72
   100
 73
     1
 74
     1
 75
     0
 76
     0
 77
     0
 78
     0
281
     0
 65
     1
110
0.0
120
0.0
130
0.0
111
1.0
121
0.0
131
0.0
112
0.0
122
1.0
132
0.0
 79
     0
146
0.0
 60
     3
 61
     5
292
     1
282
     1
141
0.0
142
0.0
 63
   250
421
  3355443
  0
ENDTAB
  0
TABLE
  2
LTYPE
  5
5
330
0
100
AcDbSymbolTable
 70
    59
  0
LTYPE
  5
5B
330
5
100
AcDbSymbolTableRecord
100
AcDbLinetypeTableRecord
  2
ByBlock
 70
     0
  3

 72
    65
 73
     0
 40
0.0
  0
LTYPE
  5
5C
330
5
100
AcDbSymbolTableRecord
100
AcDbLinetypeTableRecord
  2
ByLayer
 70
     0
  3

 72
    65
 73
     0
 40
0.0
  0
LTYPE
  5
5D
330
5
100
AcDbSymbolTableRecord
100
AcDbLinetypeTableRecord
  2
Continuous
 70
     0
  3
Solid line
 72
    65
 73
     0
 40
0.0
  0
LTYPE
  5
7C
330
5
100
AcDbSymbolTableRecord
100
AcDbLinetypeTableRecord
  2
BY_STANDARD
 70
     0
  3
By Standard ____________    ____    ____   _
 72
    65
 73
     6
 40
1.240299999999999
 49
0.6614
 74
     0
 49
-0.0827
 74
     0
 49
0.1654
 74
     0
 49
-0.0827
 74
     0
 49
0.1654
 74
     0
 49
-0.0827
 74
     0
  0
LTYPE
  5
7D
330
5
100
AcDbSymbolTableRecord
100
AcDbLinetypeTableRecord
  2
CHAIN
 70
     0
  3
Chain ____ _ ____ _ ____ _ ____ _ ____ _ ____
 72
    65
 73
     4
 40
0.7087
 49
0.4724000000000001
 74
     0
 49
-0.0591
 74
     0
 49
0.1181
 74
     0
 49
-0.0591
 74
     0
  0
LTYPE
  5
7E
330
5
100
AcDbSymbolTableRecord
100
AcDbLinetypeTableRecord
  2
DASH_DOT
 70
     0
  3
Dash dot __ . __ . __ . __ . __ . __ . __ . __
 72
    65
 73
     4
 40
0.37
 49
0.24
 74
     0
 49
-0.06
 74
     0
 49
0.01
 74
     0
 49
-0.06
 74
     0
  0
LTYPE
  5
7F
330
5
100
AcDbSymbolTableRecord
100
AcDbLinetypeTableRecord
  2
DOUBLE_DASH_DOT
 70
     0
  3
Double-Dash Dot __ __ . __ __ . __ __ . __ _
 72
    65
 73
     6
 40
0.4398
 49
0.24
 74
     0
 49
-0.06
 74
     0
 49
0.0098
 74
     0
 49
-0.06
 74
     0
 49
0.01
 74
     0
 49
-0.06
 74
     0
  0
LTYPE
  5
80
330
5
100
AcDbSymbolTableRecord
100
AcDbLinetypeTableRecord
  2
DASH_TRIPLE_DOT
 70
     0
  3
Dash Triple-Dot _ . . . _ . . . _ . . . _
 72
    65
 73
     8
 40
0.51
 49
0.24
 74
     0
 49
-0.06
 74
     0
 49
0.01
 74
     0
 49
-0.06
 74
     0
 49
0.01
 74
     0
 49
-0.06
 74
     0
 49
0.01
 74
     0
 49
-0.06
 74
     0
  0
LTYPE
  5
81
330
5
100
AcDbSymbolTableRecord
100
AcDbLinetypeTableRecord
  2
DASHED
 70
     0
  3
Dashed __ __ __ __ __ __ __ __ __ __ __ __ __ _
 72
    65
 73
     2
 40
0.2067
 49
0.1654
 74
     0
 49
-0.0413
 74
     0
  0
LTYPE
  5
82
330
5
100
AcDbSymbolTableRecord
100
AcDbLinetypeTableRecord
  2
DASH_DOUBLE_DOT
 70
     0
  3
Dash Double-Dot __ . . __ . . __ . . __ . .
 72
    65
 73
     6
 40
0.4398
 49
0.24
 74
     0
 49
-0.06
 74
     0
 49
0.0098
 74
     0
 49
-0.06
 74
     0
 49
0.01
 74
     0
 49
-0.06
 74
     0
  0
LTYPE
  5
83
330
5
100
AcDbSymbolTableRecord
100
AcDbLinetypeTableRecord
  2
DASHED_SPACE
 70
     0
  3
Dashed Space __ __ __ __ __ __ __ __ __ __ __ _
 72
    65
 73
     2
 40
0.2067
 49
0.1654
 74
     0
 49
-0.0413
 74
     0
  0
LTYPE
  5
84
330
5
100
AcDbSymbolTableRecord
100
AcDbLinetypeTableRecord
  2
DOTTED
 70
     0
  3
Dotted . . . . . . . . . . . . . . . . . . . . 
 72
    65
 73
     2
 40
0.0482
 49
0.0069
 74
     0
 49
-0.0413
 74
     0
  0
LTYPE
  5
85
330
5
100
AcDbSymbolTableRecord
100
AcDbLinetypeTableRecord
  2
DOUBLE_DASH_CHAIN
 70
     0
  3
Double-Dash Chain ______  __  __  ______  __  _
 72
    65
 73
     6
 40
1.240299999999999
 49
0.6614
 74
     0
 49
-0.0827
 74
     0
 49
0.1654
 74
     0
 49
-0.0827
 74
     0
 49
0.1654
 74
     0
 49
-0.0827
 74
     0
  0
LTYPE
  5
87
330
5
100
AcDbSymbolTableRecord
100
AcDbLinetypeTableRecord
  2
DOUBLE_DASH_DOUBLE_DOT
 70
     0
  3
Double-Dash Double-dot _ _ . . _ _ . . _
 72
    65
 73
     8
 40
0.7400000000000001
 49
0.24
 74
     0
 49
-0.06
 74
     0
 49
0.24
 74
     0
 49
-0.06
 74
     0
 49
0.01
 74
     0
 49
-0.06
 74
     0
 49
0.01
 74
     0
 49
-0.06
 74
     0
  0
LTYPE
  5
88
330
5
100
AcDbSymbolTableRecord
100
AcDbLinetypeTableRecord
  2
DOUBLE_DASH_TRIPLE_DOT
 70
     0
  3
Double Dash Triple Dot __ __ . . . __ __ . .
 72
    65
 73
    10
 40
0.8100000000000001
 49
0.24
 74
     0
 49
-0.06
 74
     0
 49
0.24
 74
     0
 49
-0.06
 74
     0
 49
0.01
 74
     0
 49
-0.06
 74
     0
 49
0.01
 74
     0
 49
-0.06
 74
     0
 49
0.01
 74
     0
 49
-0.06
 74
     0
  0
LTYPE
  5
89
330
5
100
AcDbSymbolTableRecord
100
AcDbLinetypeTableRecord
  2
LONG_DASH_DOTTED
 70
     0
  3
Long Dash Dotted ____ . ____ . ____ . ____ . _
 72
    65
 73
     4
 40
0.3543
 49
0.2362
 74
     0
 49
-0.0295
 74
     0
 49
0.0591
 74
     0
 49
-0.0295
 74
     0
  0
LTYPE
  5
8A
330
5
100
AcDbSymbolTableRecord
100
AcDbLinetypeTableRecord
  2
LONG_DASH_DOUBLE_DOT
 70
     0
  3
Long Dash Double Dot ________  .  .  ________  
 72
    65
 73
     6
 40
0.6799999999999999
 49
0.48
 74
     0
 49
-0.06
 74
     0
 49
0.01
 74
     0
 49
-0.06
 74
     0
 49
0.01
 74
     0
 49
-0.06
 74
     0
  0
LTYPE
  5
8B
330
5
100
AcDbSymbolTableRecord
100
AcDbLinetypeTableRecord
  2
LONG_DASH_TRIPLE_DOT
 70
     0
  3
Long Dash Triple Dot ____ ... ____ ... ____
 72
    65
 73
     8
 40
0.3689
 49
0.2362
 74
     0
 49
-0.0295
 74
     0
 49
0.0049
 74
     0
 49
-0.0295
 74
     0
 49
0.0049
 74
     0
 49
-0.0295
 74
     0
 49
0.0049
 74
     0
 49
-0.0295
 74
     0
  0
LTYPE
  5
8C
330
5
100
AcDbSymbolTableRecord
100
AcDbLinetypeTableRecord
  2
BORDER
 70
     0
  3
Border __ __ . __ __ . __ __ . __ __ . __ __ .
 72
    65
 73
     6
 40
1.75
 49
0.5
 74
     0
 49
-0.25
 74
     0
 49
0.5
 74
     0
 49
-0.25
 74
     0
 49
0.0
 74
     0
 49
-0.25
 74
     0
  0
LTYPE
  5
8D
330
5
100
AcDbSymbolTableRecord
100
AcDbLinetypeTableRecord
  2
BORDER2
 70
     0
  3
Border (.5x) __.__.__.__.__.__.__.__.__.__.__.
 72
    65
 73
     6
 40
0.875
 49
0.25
 74
     0
 49
-0.125
 74
     0
 49
0.25
 74
     0
 49
-0.125
 74
     0
 49
0.0
 74
     0
 49
-0.125
 74
     0
  0
LTYPE
  5
8E
330
5
100
AcDbSymbolTableRecord
100
AcDbLinetypeTableRecord
  2
BORDERX2
 70
     0
  3
Border (2x) ____  ____  .  ____  ____  .  ___
 72
    65
 73
     6
 40
3.5
 49
1.0
 74
     0
 49
-0.5
 74
     0
 49
1.0
 74
     0
 49
-0.5
 74
     0
 49
0.0
 74
     0
 49
-0.5
 74
     0
  0
LTYPE
  5
8F
330
5
100
AcDbSymbolTableRecord
100
AcDbLinetypeTableRecord
  2
CENTER
 70
     0
  3
Center ____ _ ____ _ ____ _ ____ _ ____ _ ____
 72
    65
 73
     4
 40
2.0
 49
1.25
 74
     0
 49
-0.25
 74
     0
 49
0.25
 74
     0
 49
-0.25
 74
     0
  0
LTYPE
  5
90
330
5
100
AcDbSymbolTableRecord
100
AcDbLinetypeTableRecord
  2
CENTER2
 70
     0
  3
Center (.5x) ___ _ ___ _ ___ _ ___ _ ___ _ ___
 72
    65
 73
     4
 40
1.125
 49
0.75
 74
     0
 49
-0.125
 74
     0
 49
0.125
 74
     0
 49
-0.125
 74
     0
  0
LTYPE
  5
91
330
5
100
AcDbSymbolTableRecord
100
AcDbLinetypeTableRecord
  2
CENTERX2
 70
     0
  3
Center (2x) ________  __  ________  __  _____
 72
    65
 73
     4
 40
4.0
 49
2.5
 74
     0
 49
-0.5
 74
     0
 49
0.5
 74
     0
 49
-0.5
 74
     0
  0
LTYPE
  5
92
330
5
100
AcDbSymbolTableRecord
100
AcDbLinetypeTableRecord
  2
DASHDOT2
 70
     0
  3
Dash dot (.5x) _._._._._._._._._._._._._._._.
 72
    65
 73
     4
 40
0.5
 49
0.25
 74
     0
 49
-0.125
 74
     0
 49
0.0
 74
     0
 49
-0.125
 74
     0
  0
LTYPE
  5
93
330
5
100
AcDbSymbolTableRecord
100
AcDbLinetypeTableRecord
  2
DASHDOTX2
 70
     0
  3
Dash dot (2x) ____  .  ____  .  ____  .  ___
 72
    65
 73
     4
 40
2.0
 49
1.0
 74
     0
 49
-0.5
 74
     0
 49
0.0
 74
     0
 49
-0.5
 74
     0
  0
LTYPE
  5
95
330
5
100
AcDbSymbolTableRecord
100
AcDbLinetypeTableRecord
  2
DASHED2
 70
     0
  3
Dashed (.5x) _ _ _ _ _ _ _ _ _ _ _ _ _ _ _ _ _
 72
    65
 73
     2
 40
0.375
 49
0.25
 74
     0
 49
-0.125
 74
     0
  0
LTYPE
  5
96
330
5
100
AcDbSymbolTableRecord
100
AcDbLinetypeTableRecord
  2
DASHEDX2
 70
     0
  3
Dashed (2x) ____  ____  ____  ____  ____  ___
 72
    65
 73
     2
 40
1.5
 49
1.0
 74
     0
 49
-0.5
 74
     0
  0
LTYPE
  5
97
330
5
100
AcDbSymbolTableRecord
100
AcDbLinetypeTableRecord
  2
DIVIDE
 70
     0
  3
Divide ____ . . ____ . . ____ . . ____ . . ____
 72
    65
 73
     6
 40
1.25
 49
0.5
 74
     0
 49
-0.25
 74
     0
 49
0.0
 74
     0
 49
-0.25
 74
     0
 49
0.0
 74
     0
 49
-0.25
 74
     0
  0
LTYPE
  5
98
330
5
100
AcDbSymbolTableRecord
100
AcDbLinetypeTableRecord
  2
DIVIDE2
 70
     0
  3
Divide (.5x) __..__..__..__..__..__..__..__.._
 72
    65
 73
     6
 40
0.625
 49
0.25
 74
     0
 49
-0.125
 74
     0
 49
0.0
 74
     0
 49
-0.125
 74
     0
 49
0.0
 74
     0
 49
-0.125
 74
     0
  0
LTYPE
  5
99
330
5
100
AcDbSymbolTableRecord
100
AcDbLinetypeTableRecord
  2
DIVIDEX2
 70
     0
  3
Divide (2x) ________  .  .  ________  .  .  _
 72
    65
 73
     6
 40
2.5
 49
1.0
 74
     0
 49
-0.5
 74
     0
 49
0.0
 74
     0
 49
-0.5
 74
     0
 49
0.0
 74
     0
 49
-0.5
 74
     0
  0
LTYPE
  5
9A
330
5
100
AcDbSymbolTableRecord
100
AcDbLinetypeTableRecord
  2
DOT
 70
     0
  3
Dot . . . . . . . . . . . . . . . . . . . . . .
 72
    65
 73
     2
 40
0.25
 49
0.0
 74
     0
 49
-0.25
 74
     0
  0
LTYPE
  5
9B
330
5
100
AcDbSymbolTableRecord
100
AcDbLinetypeTableRecord
  2
DOT2
 70
     0
  3
Dot (.5x) .....................................
 72
    65
 73
     2
 40
0.125
 49
0.0
 74
     0
 49
-0.125
 74
     0
  0
LTYPE
  5
9C
330
5
100
AcDbSymbolTableRecord
100
AcDbLinetypeTableRecord
  2
DOTX2
 70
     0
  3
Dot (2x) .  .  .  .  .  .  .  .  .  .  .  .  . 
 72
    65
 73
     2
 40
0.5
 49
0.0
 74
     0
 49
-0.5
 74
     0
  0
LTYPE
  5
9D
330
5
100
AcDbSymbolTableRecord
100
AcDbLinetypeTableRecord
  2
HIDDEN
 70
     0
  3
Hidden __ __ __ __ __ __ __ __ __ __ __ __ __ _
 72
    65
 73
     2
 40
0.375
 49
0.25
 74
     0
 49
-0.125
 74
     0
  0
LTYPE
  5
9E
330
5
100
AcDbSymbolTableRecord
100
AcDbLinetypeTableRecord
  2
HIDDEN2
 70
     0
  3
Hidden (.5x) _ _ _ _ _ _ _ _ _ _ _ _ _ _ _ _ _
 72
    65
 73
     2
 40
0.1875
 49
0.125
 74
     0
 49
-0.0625
 74
     0
  0
LTYPE
  5
9F
330
5
100
AcDbSymbolTableRecord
100
AcDbLinetypeTableRecord
  2
HIDDENX2
 70
     0
  3
Hidden (2x) ____ ____ ____ ____ ____ ____ ____
 72
    65
 73
     2
 40
0.75
 49
0.5
 74
     0
 49
-0.25
 74
     0
  0
LTYPE
  5
A0
330
5
100
AcDbSymbolTableRecord
100
AcDbLinetypeTableRecord
  2
PHANTOM
 70
     0
  3
Phantom ______  __  __  ______  __  __  ______
 72
    65
 73
     6
 40
2.5
 49
1.25
 74
     0
 49
-0.25
 74
     0
 49
0.25
 74
     0
 49
-0.25
 74
     0
 49
0.25
 74
     0
 49
-0.25
 74
     0
  0
LTYPE
  5
A1
330
5
100
AcDbSymbolTableRecord
100
AcDbLinetypeTableRecord
  2
PHANTOM2
 70
     0
  3
Phantom (.5x) ___ _ _ ___ _ _ ___ _ _ ___ _ _
 72
    65
 73
     6
 40
1.25
 49
0.625
 74
     0
 49
-0.125
 74
     0
 49
0.125
 74
     0
 49
-0.125
 74
     0
 49
0.125
 74
     0
 49
-0.125
 74
     0
  0
LTYPE
  5
A2
330
5
100
AcDbSymbolTableRecord
100
AcDbLinetypeTableRecord
  2
PHANTOMX2
 70
     0
  3
Phantom (2x) ____________    ____    ____   _
 72
    65
 73
     6
 40
5.0
 49
2.5
 74
     0
 49
-0.5
 74
     0
 49
0.5
 74
     0
 49
-0.5
 74
     0
 49
0.5
 74
     0
 49
-0.5
 74
     0
  0
LTYPE
  5
A3
330
5
100
AcDbSymbolTableRecord
100
AcDbLinetypeTableRecord
  2
ACAD_ISO02W100
 70
     0
  3
ISO dash __ __ __ __ __ __ __ __ __ __ __ __ __
 72
    65
 73
     2
 40
0.59
 49
0.47
 74
     0
 49
-0.12
 74
     0
  0
LTYPE
  5
A4
330
5
100
AcDbSymbolTableRecord
100
AcDbLinetypeTableRecord
  2
ACAD_ISO03W100
 70
     0
  3
ISO dash space __    __    __    __    __    __
 72
    65
 73
     2
 40
1.179999999999999
 49
0.47
 74
     0
 49
-0.71
 74
     0
  0
LTYPE
  5
A5
330
5
100
AcDbSymbolTableRecord
100
AcDbLinetypeTableRecord
  2
ACAD_ISO04W100
 70
     0
  3
ISO long-dash dot ____ . ____ . ____ . ____ . _
 72
    65
 73
     4
 40
1.179999999999999
 49
0.9399999999999998
 74
     0
 49
-0.12
 74
     0
 49
0.0
 74
     0
 49
-0.12
 74
     0
  0
LTYPE
  5
A6
330
5
100
AcDbSymbolTableRecord
100
AcDbLinetypeTableRecord
  2
ACAD_ISO05W100
 70
     0
  3
ISO long-dash double-dot ____ .. ____ .. ____ .
 72
    65
 73
     6
 40
1.299999999999999
 49
0.9399999999999998
 74
     0
 49
-0.12
 74
     0
 49
0.0
 74
     0
 49
-0.12
 74
     0
 49
0.0
 74
     0
 49
-0.12
 74
     0
  0
LTYPE
  5
A7
330
5
100
AcDbSymbolTableRecord
100
AcDbLinetypeTableRecord
  2
ACAD_ISO06W100
 70
     0
  3
ISO long-dash triple-dot ____ ... ____ ... ____
 72
    65
 73
     8
 40
1.419999999999999
 49
0.9399999999999998
 74
     0
 49
-0.12
 74
     0
 49
0.0
 74
     0
 49
-0.12
 74
     0
 49
0.0
 74
     0
 49
-0.12
 74
     0
 49
0.0
 74
     0
 49
-0.12
 74
     0
  0
LTYPE
  5
A8
330
5
100
AcDbSymbolTableRecord
100
AcDbLinetypeTableRecord
  2
ACAD_ISO07W100
 70
     0
  3
ISO dot . . . . . . . . . . . . . . . . . . . .
 72
    65
 73
     2
 40
0.12
 49
0.0
 74
     0
 49
-0.12
 74
     0
  0
LTYPE
  5
A9
330
5
100
AcDbSymbolTableRecord
100
AcDbLinetypeTableRecord
  2
ACAD_ISO08W100
 70
     0
  3
ISO long-dash short-dash ____ __ ____ __ ____ _
 72
    65
 73
     4
 40
0.95
 49
0.47
 74
     0
 49
-0.12
 74
     0
 49
0.24
 74
     0
 49
-0.12
 74
     0
  0
LTYPE
  5
AA
330
5
100
AcDbSymbolTableRecord
100
AcDbLinetypeTableRecord
  2
ACAD_ISO09W100
 70
     0
  3
ISO long-dash double-short-dash ____ __ __ ____
 72
    65
 73
     6
 40
1.31
 49
0.47
 74
     0
 49
-0.12
 74
     0
 49
0.24
 74
     0
 49
-0.12
 74
     0
 49
0.24
 74
     0
 49
-0.12
 74
     0
  0
LTYPE
  5
AB
330
5
100
AcDbSymbolTableRecord
100
AcDbLinetypeTableRecord
  2
ACAD_ISO10W100
 70
     0
  3
ISO dash dot __ . __ . __ . __ . __ . __ . __ .
 72
    65
 73
     4
 40
0.71
 49
0.47
 74
     0
 49
-0.12
 74
     0
 49
0.0
 74
     0
 49
-0.12
 74
     0
  0
LTYPE
  5
AC
330
5
100
AcDbSymbolTableRecord
100
AcDbLinetypeTableRecord
  2
ACAD_ISO11W100
 70
     0
  3
ISO double-dash dot __ __ . __ __ . __ __ . __ 
 72
    65
 73
     6
 40
1.299999999999999
 49
0.47
 74
     0
 49
-0.12
 74
     0
 49
0.47
 74
     0
 49
-0.12
 74
     0
 49
0.0
 74
     0
 49
-0.12
 74
     0
  0
LTYPE
  5
AD
330
5
100
AcDbSymbolTableRecord
100
AcDbLinetypeTableRecord
  2
ACAD_ISO12W100
 70
     0
  3
ISO dash double-dot __ . . __ . . __ . . __ . .
 72
    65
 73
     6
 40
0.8299999999999998
 49
0.47
 74
     0
 49
-0.12
 74
     0
 49
0.0
 74
     0
 49
-0.12
 74
     0
 49
0.0
 74
     0
 49
-0.12
 74
     0
  0
LTYPE
  5
AE
330
5
100
AcDbSymbolTableRecord
100
AcDbLinetypeTableRecord
  2
ACAD_ISO13W100
 70
     0
  3
ISO double-dash double-dot __ __ . . __ __ . . 
 72
    65
 73
     8
 40
1.419999999999999
 49
0.47
 74
     0
 49
-0.12
 74
     0
 49
0.47
 74
     0
 49
-0.12
 74
     0
 49
0.0
 74
     0
 49
-0.12
 74
     0
 49
0.0
 74
     0
 49
-0.12
 74
     0
  0
LTYPE
  5
AF
330
5
100
AcDbSymbolTableRecord
100
AcDbLinetypeTableRecord
  2
ACAD_ISO14W100
 70
     0
  3
ISO dash triple-dot __ . . . __ . . . __ . . . 
 72
    65
 73
     8
 40
0.95
 49
0.47
 74
     0
 49
-0.12
 74
     0
 49
0.0
 74
     0
 49
-0.12
 74
     0
 49
0.0
 74
     0
 49
-0.12
 74
     0
 49
0.0
 74
     0
 49
-0.12
 74
     0
  0
LTYPE
  5
B0
330
5
100
AcDbSymbolTableRecord
100
AcDbLinetypeTableRecord
  2
ACAD_ISO15W100
 70
     0
  3
ISO double-dash triple-dot __ __ . . . __ __ . 
 72
    65
 73
    10
 40
1.539999999999999
 49
0.47
 74
     0
 49
-0.12
 74
     0
 49
0.47
 74
     0
 49
-0.12
 74
     0
 49
0.0
 74
     0
 49
-0.12
 74
     0
 49
0.0
 74
     0
 49
-0.12
 74
     0
 49
0.0
 74
     0
 49
-0.12
 74
     0
  0
LTYPE
  5
B3
330
5
100
AcDbSymbolTableRecord
100
AcDbLinetypeTableRecord
  2
FENCELINE1
 70
     0
  3
Fenceline circle ----0-----0----0-----0----0---
 72
    65
 73
     4
 40
1.45
 49
0.25
 74
     0
 49
-0.1
 74
     4
 75
   133
340
B2
 46
0.1
 50
0.0
 44
-0.1
 45
0.0
 49
-0.1
 74
     0
 49
1.0
 74
     0
  0
LTYPE
  5
B4
330
5
100
AcDbSymbolTableRecord
100
AcDbLinetypeTableRecord
  2
FENCELINE2
 70
     0
  3
Fenceline square ----[]-----[]----[]-----[]----
 72
    65
 73
     4
 40
1.45
 49
0.25
 74
     0
 49
-0.1
 74
     4
 75
   132
340
B2
 46
0.1
 50
0.0
 44
-0.1
 45
0.0
 49
-0.1
 74
     0
 49
1.0
 74
     0
  0
LTYPE
  5
B5
330
5
100
AcDbSymbolTableRecord
100
AcDbLinetypeTableRecord
  2
TRACKS
 70
     0
  3
Tracks -|-|-|-|-|-|-|-|-|-|-|-|-|-|-|-|-|-|-|-|
 72
    65
 73
     2
 40
0.3
 49
0.15
 74
     4
 75
   130
340
B2
 46
0.25
 50
0.0
 44
0.0
 45
0.0
 49
0.15
 74
     0
  0
LTYPE
  5
B6
330
5
100
AcDbSymbolTableRecord
100
AcDbLinetypeTableRecord
  2
BATTING
 70
     0
  3
Batting SSSSSSSSSSSSSSSSSSSSSSSSSSSSSSSSSSSSSSS
 72
    65
 73
     4
 40
0.4001000000000001
 49
0.0001
 74
     0
 49
-0.1
 74
     4
 75
   134
340
B2
 46
0.1
 50
0.0
 44
-0.1
 45
0.0
 49
-0.2
 74
     4
 75
   134
340
B2
 46
0.1
 50
180.0
 44
0.1
 45
0.0
 49
-0.1
 74
     0
  0
LTYPE
  5
B7
330
5
100
AcDbSymbolTableRecord
100
AcDbLinetypeTableRecord
  2
HOT_WATER_SUPPLY
 70
     0
  3
Hot water supply ---- HW ---- HW ---- HW ----
 72
    65
 73
     3
 40
0.9
 49
0.5
 74
     0
 49
-0.2
 74
     2
 75
     0
340
55
 46
0.1
 50
0.0
 44
-0.1
 45
-0.05
  9
HW
 49
-0.2
 74
     0
  0
LTYPE
  5
B8
330
5
100
AcDbSymbolTableRecord
100
AcDbLinetypeTableRecord
  2
GAS_LINE
 70
     0
  3
Gas line ----GAS----GAS----GAS----GAS----GAS---
 72
    65
 73
     3
 40
0.95
 49
0.5
 74
     0
 49
-0.2
 74
     2
 75
     0
340
55
 46
0.1
 50
0.0
 44
-0.1
 45
-0.05
  9
GAS
 49
-0.25
 74
     0
  0
LTYPE
  5
B9
330
5
100
AcDbSymbolTableRecord
100
AcDbLinetypeTableRecord
  2
ZIGZAG
 70
     0
  3
Zig zag /\/\/\/\/\/\/\/\/\/\/\/\/\/\/\/\/\/\/\/
 72
    65
 73
     4
 40
0.8001000000000001
 49
0.0001
 74
     0
 49
-0.2
 74
     4
 75
   131
340
B2
 46
0.2
 50
0.0
 44
-0.2
 45
0.0
 49
-0.4
 74
     4
 75
   131
340
B2
 46
0.2
 50
180.0
 44
0.2
 45
0.0
 49
-0.2
 74
     0
  0
ENDTAB
  0
TABLE
  2
LAYER
  5
2
330
0
100
AcDbSymbolTable
 70
    27
  0
LAYER
  5
54
330
2
100
AcDbSymbolTableRecord
100
AcDbLayerTableRecord
  2
0
 70
     0
 62
     7
  6
Continuous
370
     0
390
F
347
21
  0
LAYER
  5
C1
330
2
100
AcDbSymbolTableRecord
100
AcDbLayerTableRecord
  2
Centerline (ANSI)
 70
     0
 62
     7
  6
Continuous
370
     5
390
F
347
21
  0
LAYER
  5
C3
330
2
100
AcDbSymbolTableRecord
100
AcDbLayerTableRecord
  2
Dimension (ANSI)
 70
     0
 62
     7
  6
Continuous
370
     5
390
F
347
21
  0
LAYER
  5
CC
330
2
100
AcDbSymbolTableRecord
100
AcDbLayerTableRecord
  2
Symbol (ANSI)
 70
     0
 62
     7
  6
Continuous
370
     5
390
F
347
21
  0
LAYER
  5
CF
330
2
100
AcDbSymbolTableRecord
100
AcDbLayerTableRecord
  2
Visible (ANSI)
 70
     0
 62
     7
  6
Continuous
370
     5
390
F
347
21
  0
LAYER
  5
D0
330
2
100
AcDbSymbolTableRecord
100
AcDbLayerTableRecord
  2
Visible Narrow (ANSI)
 70
     0
 62
     7
  6
Continuous
370
     5
390
F
347
21
  0
LAYER
  5
2E7
330
2
100
AcDbSymbolTableRecord
100
AcDbLayerTableRecord
  2
Defpoints
 70
     0
 62
     7
  6
Continuous
290
     0
370
    -3
390
F
347
21
  0
ENDTAB
  0
TABLE
  2
STYLE
  5
3
330
0
100
AcDbSymbolTable
 70
    10
  0
STYLE
  5
55
330
3
100
AcDbSymbolTableRecord
100
AcDbTextStyleTableRecord
  2
Standard
 70
     0
 40
0.0
 41
1.0
 50
0.0
 71
     0
 42
0.2
  3
txt
  4

  0
STYLE
  5
5A
330
3
100
AcDbSymbolTableRecord
100
AcDbTextStyleTableRecord
  2
Annotative
 70
     0
 40
0.0
 41
1.0
 50
0.0
 71
     0
 42
0.2
  3
txt
  4

1001
AcadAnnotative
1000
AnnotativeData
1002
{
1070
     1
1070
     1
1002
}
  0
STYLE
  5
B2
330
3
100
AcDbSymbolTableRecord
100
AcDbTextStyleTableRecord
  2

 70
     1
 40
0.0
 41
1.0
 50
0.0
 71
     0
 42
0.2
  3
ltypeshp.shx
  4

  0
STYLE
  5
D4
330
3
100
AcDbSymbolTableRecord
100
AcDbTextStyleTableRecord
  2
ITALICC_120
 70
     0
 40
0.0
 41
1.0
 50
0.0
 71
     0
 42
0.2
  3
italicc.shx
  4

  0
STYLE
  5
D5
330
3
100
AcDbSymbolTableRecord
100
AcDbTextStyleTableRecord
  2
Label Text (ANSI)
 70
     0
 40
0.0
 41
1.0
 50
0.0
 71
     0
 42
0.2
  3
tahoma.ttf
  4

1001
ACAD
1000
Tahoma
1071
      256
  0
STYLE
  5
D6
330
3
100
AcDbSymbolTableRecord
100
AcDbTextStyleTableRecord
  2
Note Text (ANSI)
 70
     0
 40
0.0
 41
1.0
 50
0.0
 71
     0
 42
0.2
  3
RomanS.shx
  4

  0
STYLE
  5
D7
330
3
100
AcDbSymbolTableRecord
100
AcDbTextStyleTableRecord
  2
ROMANS
 70
     0
 40
0.0
 41
1.0
 50
0.0
 71
     0
 42
0.2
  3
romans.shx
  4

  0
STYLE
  5
D8
330
3
100
AcDbSymbolTableRecord
100
AcDbTextStyleTableRecord
  2
SANSSERIF_114
 70
     0
 40
0.0
 41
1.0
 50
0.0
 71
     0
 42
0.2
  3
tahoma.ttf
  4

1001
ACAD
1000
Tahoma
1071
      256
  0
STYLE
  5
D9
330
3
100
AcDbSymbolTableRecord
100
AcDbTextStyleTableRecord
  2
SANSSERIF_117
 70
     0
 40
0.0
 41
1.0
 50
0.0
 71
     0
 42
0.2
  3
tahoma.ttf
  4

1001
ACAD
1000
Tahoma
1071
      256
  0
STYLE
  5
16C
330
3
100
AcDbSymbolTableRecord
100
AcDbTextStyleTableRecord
  2
Text Style168
 70
     0
 40
0.0
 41
1.0
 50
0.0
 71
     0
 42
0.2
  3
tahoma.ttf
  4

1001
ACAD
1000
Tahoma
1071
      256
  0
ENDTAB
  0
TABLE
  2
VIEW
  5
6
330
0
100
AcDbSymbolTable
 70
     0
  0
ENDTAB
  0
TABLE
  2
UCS
  5
7
330
0
100
AcDbSymbolTable
 70
     0
  0
ENDTAB
  0
TABLE
  2
APPID
  5
9
330
0
100
AcDbSymbolTable
 70
     3
  0
APPID
  5
56
330
9
100
AcDbSymbolTableRecord
100
AcDbRegAppTableRecord
  2
ACAD
 70
     0
  0
APPID
  5
5E
330
9
100
AcDbSymbolTableRecord
100
AcDbRegAppTableRecord
  2
AcadAnnotative
 70
     0
  0
APPID
  5
933
330
9
100
AcDbSymbolTableRecord
100
AcDbRegAppTableRecord
  2
ACAD_DSTYLE_DIMANGULAR_EXTENSION
 70
     0
  0
ENDTAB
  0
TABLE
  2
DIMSTYLE
  5
A
330
0
100
AcDbSymbolTable
 70
    15
100
AcDbDimStyleTable
 71
     2
340
E2
340
58
  0
DIMSTYLE
105
58
330
A
100
AcDbSymbolTableRecord
100
AcDbDimStyleTableRecord
  2
Standard
 70
     0
340
55
  0
DIMSTYLE
105
59
330
A
100
AcDbSymbolTableRecord
100
AcDbDimStyleTableRecord
  2
Annotative
 70
     0
340
55
1001
AcadAnnotative
1000
AnnotativeData
1002
{
1070
     1
1070
     1
1002
}
  0
DIMSTYLE
105
DA
330
A
100
AcDbSymbolTableRecord
100
AcDbDimStyleTableRecord
  2
Architectural (ANSI)
 70
     0
 40
3.555555555555555
 41
0.0984251946210861
 43
0.2362204724409449
 44
0.125
 45
0.00000001
 46
0.3937007874015748
 78
     3
 79
     3
140
0.1000000014901161
146
1.200000047683715
147
0.031496062992126
171
     1
176
   256
177
   256
178
   256
272
     2
274
     1
276
     2
277
     4
284
    12
285
     4
286
    12
340
D6
371
    -1
372
    -1
  0
DIMSTYLE
105
DB
330
A
100
AcDbSymbolTableRecord
100
AcDbDimStyleTableRecord
  2
Architectural (ANSI)$7
 70
     0
 40
3.555555555555555
 41
0.0984251946210861
 43
0.2362204724409449
 44
0.125
 45
0.00000001
 46
0.3937007874015748
 78
     3
 79
     3
140
0.1000000014901161
146
1.200000047683715
147
0.031496062992126
171
     1
176
   256
177
   256
178
   256
272
     2
274
     1
276
     2
277
     4
284
    12
285
     4
286
    12
340
D6
371
    -1
372
    -1
  0
DIMSTYLE
105
DC
330
A
100
AcDbSymbolTableRecord
100
AcDbDimStyleTableRecord
  2
Default - Fraction (ANSI)
 70
     0
 40
3.555555555555555
 41
0.0984251946210861
 43
0.2362204724409449
 44
0.125
 45
0.00000001
 46
0.3937007874015748
 79
     3
140
0.1000000014901161
146
1.200000047683715
147
0.031496062992126
171
     1
176
   256
177
   256
178
   256
272
     2
274
     1
276
     2
277
     5
284
    12
285
     4
286
    12
340
D6
371
    -1
372
    -1
  0
DIMSTYLE
105
DD
330
A
100
AcDbSymbolTableRecord
100
AcDbDimStyleTableRecord
  2
Default - Fraction (ANSI)$7
 70
     0
 40
3.555555555555555
 41
0.0984251946210861
 43
0.2362204724409449
 44
0.125
 45
0.00000001
 46
0.3937007874015748
 79
     3
140
0.1000000014901161
146
1.200000047683715
147
0.031496062992126
171
     1
176
   256
177
   256
178
   256
272
     2
274
     1
276
     2
277
     5
284
    12
285
     4
286
    12
340
D6
371
    -1
372
    -1
  0
DIMSTYLE
105
DE
330
A
100
AcDbSymbolTableRecord
100
AcDbDimStyleTableRecord
  2
Default - mm (ANSI)
 70
     0
 40
3.555555555555555
 41
0.0984251946210861
 42
0.063
 43
0.2362204724409449
 44
0.125
 45
0.00000001
 46
0.3937007874015748
 73
     0
 78
     4
 79
     1
140
0.1000000014901161
143
1.0
144
25.4
146
1.200000047683715
147
0.031496062992126
171
     1
176
   256
177
   256
178
   256
179
     1
271
     2
272
     2
274
     1
284
     4
285
     4
340
D6
371
    -1
372
    -1
  0
DIMSTYLE
105
DF
330
A
100
AcDbSymbolTableRecord
100
AcDbDimStyleTableRecord
  2
Default - mm (ANSI)$7
 70
     0
 40
3.555555555555555
 41
0.0984251946210861
 42
0.063
 43
0.2362204724409449
 44
0.125
 45
0.00000001
 46
0.3937007874015748
 73
     0
 78
     4
 79
     1
140
0.1000000014901161
143
1.0
144
25.4
146
1.200000047683715
147
0.031496062992126
171
     1
176
   256
177
   256
178
   256
179
     1
271
     2
272
     2
274
     1
284
     4
285
     4
340
D6
371
    -1
372
    -1
  0
DIMSTYLE
105
E0
330
A
100
AcDbSymbolTableRecord
100
AcDbDimStyleTableRecord
  2
Default - mm [in] (ANSI)
 70
     0
  4
 in
 40
3.555555555555555
 41
0.0984251946210861
 42
0.063
 43
0.25
 44
0.125
 45
0.00000001
 46
0.3937007874015748
 73
     0
 78
     4
 79
     1
140
0.1000000014901161
143
0.03937
144
25.4
146
1.200000047683715
147
0.031496062992126
170
     1
171
     3
176
   256
177
   256
178
   256
179
     1
271
     2
272
     2
274
     3
284
     4
285
     4
286
     4
340
D6
371
    -1
372
    -1
  0
DIMSTYLE
105
E1
330
A
100
AcDbSymbolTableRecord
100
AcDbDimStyleTableRecord
  2
Default - mm [in] (ANSI)$7
 70
     0
  4
 in
 40
3.555555555555555
 41
0.0984251946210861
 42
0.063
 43
0.25
 44
0.125
 45
0.00000001
 46
0.3937007874015748
 73
     0
 78
     4
 79
     1
140
0.1000000014901161
143
0.03937
144
25.4
146
1.200000047683715
147
0.031496062992126
170
     1
171
     3
176
   256
177
   256
178
   256
179
     1
271
     2
272
     2
274
     3
284
     4
285
     4
286
     4
340
D6
371
    -1
372
    -1
  0
DIMSTYLE
105
E2
102
{ACAD_REACTORS
330
2E5
330
3D1
330
4BD
330
5A7
330
6C3
330
7AD
330
8B5
330
9EC
330
AD6
330
BC0
330
CB4
330
DA8
330
E9C
330
F90
330
10AC
330
11AA
330
12A3
330
139C
102
}
330
A
100
AcDbSymbolTableRecord
100
AcDbDimStyleTableRecord
  2
Default (ANSI)
 70
     0
 40
3.555555555555555
 41
0.0984251946210861
 43
0.2362204724409449
 44
0.125
 45
0.00000001
 46
0.3937007874015748
140
0.1000000014901161
147
0.031496062992126
176
   256
177
   256
178
   256
271
     2
272
     2
340
D7
371
    -1
372
    -1
  0
DIMSTYLE
105
E3
330
A
100
AcDbSymbolTableRecord
100
AcDbDimStyleTableRecord
  2
Default (ANSI)$7
 70
     0
 40
3.555555555555555
 41
0.0984251946210861
 43
0.2362204724409449
 44
0.125
 45
0.00000001
 46
0.3937007874015748
140
0.1000000014901161
147
0.031496062992126
176
   256
177
   256
178
   256
271
     2
272
     2
340
D7
371
    -1
372
    -1
  0
DIMSTYLE
105
E4
330
A
100
AcDbSymbolTableRecord
100
AcDbDimStyleTableRecord
  2
Alternate (ANSI)
 70
     0
 40
3.555555555555555
 41
0.0979999974370003
340
55
342
E5
  0
DIMSTYLE
105
F7
330
A
100
AcDbSymbolTableRecord
100
AcDbDimStyleTableRecord
  2
Datum (ANSI)
 70
     0
 40
3.555555555555555
 41
0.0979999974370003
340
55
342
E5
  0
DIMSTYLE
105
106
330
A
100
AcDbSymbolTableRecord
100
AcDbDimStyleTableRecord
  2
Large (ANSI)
 70
     0
 40
3.555555555555555
 41
0.1959999948740005
340
55
342
E5
  0
ENDTAB
  0
TABLE
  2
BLOCK_RECORD
  5
1
330
0
100
AcDbSymbolTable
 70
    22
  0
BLOCK_RECORD
  5
6C
330
1
100
AcDbSymbolTableRecord
100
AcDbBlockTableRecord
  2
*Model_Space
340
6F
 70
     0
280
     1
281
     0
  0
BLOCK_RECORD
  5
68
330
1
100
AcDbSymbolTableRecord
100
AcDbBlockTableRecord
  2
*Paper_Space
340
6B
 70
     0
280
     1
281
     0
  0
BLOCK_RECORD
  5
70
330
1
100
AcDbSymbolTableRecord
100
AcDbBlockTableRecord
  2
*Paper_Space0
340
73
 70
     0
280
     1
281
     0
  0
BLOCK_RECORD
  5
E5
330
1
100
AcDbSymbolTableRecord
100
AcDbBlockTableRecord
  2
_Closed
340
0
 70
     0
280
     1
281
     0
  0
BLOCK_RECORD
  5
EC
330
1
100
AcDbSymbolTableRecord
100
AcDbBlockTableRecord
  2
DatumFilled45
340
0
 70
     0
280
     1
281
     0
  0
BLOCK_RECORD
  5
F8
330
1
100
AcDbSymbolTableRecord
100
AcDbBlockTableRecord
  2
Filled-1
340
0
 70
     0
280
     1
281
     0
  0
BLOCK_RECORD
  5
2E8
330
1
100
AcDbSymbolTableRecord
100
AcDbBlockTableRecord
  2
*D4
340
0
 70
     0
280
     1
281
     0
  0
BLOCK_RECORD
  5
3D2
330
1
100
AcDbSymbolTableRecord
100
AcDbBlockTableRecord
  2
*D5
340
0
 70
     0
280
     1
281
     0
  0
BLOCK_RECORD
  5
4BE
330
1
100
AcDbSymbolTableRecord
100
AcDbBlockTableRecord
  2
*D6
340
0
 70
     0
280
     1
281
     0
  0
BLOCK_RECORD
  5
5A8
330
1
100
AcDbSymbolTableRecord
100
AcDbBlockTableRecord
  2
*D7
340
0
 70
     0
280
     1
281
     0
  0
BLOCK_RECORD
  5
6C4
330
1
100
AcDbSymbolTableRecord
100
AcDbBlockTableRecord
  2
*D8
340
0
 70
     0
280
     1
281
     0
  0
BLOCK_RECORD
  5
7AE
330
1
100
AcDbSymbolTableRecord
100
AcDbBlockTableRecord
  2
*D9
340
0
 70
     0
280
     1
281
     0
  0
BLOCK_RECORD
  5
8B6
330
1
100
AcDbSymbolTableRecord
100
AcDbBlockTableRecord
  2
*D10
340
0
 70
     0
280
     1
281
     0
  0
BLOCK_RECORD
  5
9ED
330
1
100
AcDbSymbolTableRecord
100
AcDbBlockTableRecord
  2
*D11
340
0
 70
     0
280
     1
281
     0
  0
BLOCK_RECORD
  5
AD7
330
1
100
AcDbSymbolTableRecord
100
AcDbBlockTableRecord
  2
*D12
340
0
 70
     0
280
     1
281
     0
  0
BLOCK_RECORD
  5
BC1
330
1
100
AcDbSymbolTableRecord
100
AcDbBlockTableRecord
  2
*D13
340
0
 70
     0
280
     1
281
     0
  0
BLOCK_RECORD
  5
CB5
330
1
100
AcDbSymbolTableRecord
100
AcDbBlockTableRecord
  2
*D14
340
0
 70
     0
280
     1
281
     0
  0
BLOCK_RECORD
  5
DA9
330
1
100
AcDbSymbolTableRecord
100
AcDbBlockTableRecord
  2
*D15
340
0
 70
     0
280
     1
281
     0
  0
BLOCK_RECORD
  5
E9D
330
1
100
AcDbSymbolTableRecord
100
AcDbBlockTableRecord
  2
*D16
340
0
 70
     0
280
     1
281
     0
  0
BLOCK_RECORD
  5
F91
330
1
100
AcDbSymbolTableRecord
100
AcDbBlockTableRecord
  2
*D17
340
0
 70
     0
280
     1
281
     0
  0
BLOCK_RECORD
  5
10AD
330
1
100
AcDbSymbolTableRecord
100
AcDbBlockTableRecord
  2
*D18
340
0
 70
     0
280
     1
281
     0
  0
BLOCK_RECORD
  5
11AB
330
1
100
AcDbSymbolTableRecord
100
AcDbBlockTableRecord
  2
*D19
340
0
 70
     0
280
     1
281
     0
  0
BLOCK_RECORD
  5
12A4
330
1
100
AcDbSymbolTableRecord
100
AcDbBlockTableRecord
  2
*D20
340
0
 70
     0
280
     1
281
     0
  0
BLOCK_RECORD
  5
139D
330
1
100
AcDbSymbolTableRecord
100
AcDbBlockTableRecord
  2
*D21
340
0
 70
     0
280
     1
281
     0
  0
ENDTAB
  0
ENDSEC
  0
SECTION
  2
BLOCKS
  0
BLOCK
  5
6D
330
6C
100
AcDbEntity
  8
0
100
AcDbBlockBegin
  2
*Model_Space
 70
     0
 10
0.0
 20
0.0
 30
0.0
  3
*Model_Space
  1

  0
ENDBLK
  5
6E
330
6C
100
AcDbEntity
  8
0
100
AcDbBlockEnd
  0
BLOCK
  5
69
330
68
100
AcDbEntity
 67
     1
  8
0
100
AcDbBlockBegin
  2
*Paper_Space
 70
     0
 10
0.0
 20
0.0
 30
0.0
  3
*Paper_Space
  1

  0
ENDBLK
  5
6A
330
68
100
AcDbEntity
 67
     1
  8
0
100
AcDbBlockEnd
  0
BLOCK
  5
71
330
70
100
AcDbEntity
 67
     1
  8
0
100
AcDbBlockBegin
  2
*Paper_Space0
 70
     0
 10
0.0
 20
0.0
 30
0.0
  3
*Paper_Space0
  1

  0
ENDBLK
  5
72
330
70
100
AcDbEntity
 67
     1
  8
0
100
AcDbBlockEnd
  0
BLOCK
  5
EA
330
E5
100
AcDbEntity
  8
0
100
AcDbBlockBegin
  2
_Closed
 70
     0
 10
0.0
 20
0.0
 30
0.0
  3
_Closed
  1

  0
LINE
  5
E6
330
E5
100
AcDbEntity
  8
0
  6
ByBlock
 62
     0
370
    -2
100
AcDbLine
 10
-1.0
 20
0.1666666666666666
 30
0.0
 11
0.0
 21
0.0
 31
0.0
  0
LINE
  5
E7
330
E5
100
AcDbEntity
  8
0
  6
ByBlock
 62
     0
370
    -2
100
AcDbLine
 10
0.0
 20
0.0
 30
0.0
 11
-1.0
 21
-0.1666666666666666
 31
0.0
  0
LINE
  5
E8
330
E5
100
AcDbEntity
  8
0
  6
ByBlock
 62
     0
370
    -2
100
AcDbLine
 10
-1.0
 20
0.1666666666666666
 30
0.0
 11
-1.0
 21
-0.1666666666666666
 31
0.0
  0
LINE
  5
E9
330
E5
100
AcDbEntity
  8
0
  6
ByBlock
 62
     0
370
    -2
100
AcDbLine
 10
0.0
 20
0.0
 30
0.0
 11
-1.0
 21
0.0
 31
0.0
  0
ENDBLK
  5
EB
330
E5
100
AcDbEntity
  8
0
100
AcDbBlockEnd
  0
BLOCK
  5
ED
330
EC
100
AcDbEntity
  8
0
100
AcDbBlockBegin
  2
DatumFilled45
 70
     0
 10
0.0
 20
0.0
 30
0.0
  3
DatumFilled45
  1

  0
POLYLINE
  5
EF
330
EC
100
AcDbEntity
  8
0
 62
     0
100
AcDb2dPolyline
 66
     1
 10
0.0
 20
0.0
 30
0.0
 70
   128
  0
VERTEX
  5
F0
330
EF
100
AcDbEntity
  8
0
 62
     0
100
AcDbVertex
100
AcDb2dVertex
 10
0.0
 20
0.9999999999999998
 30
0.0
  0
VERTEX
  5
F1
330
EF
100
AcDbEntity
  8
0
 62
     0
100
AcDbVertex
100
AcDb2dVertex
 10
0.0
 20
-0.9999999999999998
 30
0.0
  0
VERTEX
  5
F3
330
EF
100
AcDbEntity
  8
0
 62
     0
100
AcDbVertex
100
AcDb2dVertex
 10
-0.9999999999999998
 20
0.0
 30
0.0
  0
VERTEX
  5
F4
330
EF
100
AcDbEntity
  8
0
 62
     0
100
AcDbVertex
100
AcDb2dVertex
 10
0.0
 20
0.9999999999999998
 30
0.0
  0
SEQEND
  5
F2
330
EF
100
AcDbEntity
  8
0
 62
     0
  0
SOLID
  5
F6
330
EC
100
AcDbEntity
  8
0
 62
     0
100
AcDbTrace
 10
0.0
 20
0.9999999999999998
 30
0.0
 11
0.0
 21
-0.9999999999999998
 31
0.0
 12
-0.9999999999999998
 22
0.0
 32
0.0
 13
0.0
 23
0.9999999999999998
 33
0.0
  0
ENDBLK
  5
EE
330
EC
100
AcDbEntity
  8
0
100
AcDbBlockEnd
  0
BLOCK
  5
F9
330
F8
100
AcDbEntity
  8
0
100
AcDbBlockBegin
  2
Filled-1
 70
     0
 10
0.0
 20
0.0
 30
0.0
  3
Filled-1
  1

  0
LINE
  5
FB
330
F8
100
AcDbEntity
  8
0
 62
     0
100
AcDbLine
 10
-0.9999999999999998
 20
0.0
 30
0.0
 11
0.0
 21
0.0
 31
0.0
  0
POLYLINE
  5
FC
330
F8
100
AcDbEntity
  8
0
 62
     0
100
AcDb2dPolyline
 66
     1
 10
0.0
 20
0.0
 30
0.0
 70
   128
  0
VERTEX
  5
FD
330
FC
100
AcDbEntity
  8
0
 62
     0
100
AcDbVertex
100
AcDb2dVertex
 10
-0.9999999999999998
 20
-0.0994897959183674
 30
0.0
  0
VERTEX
  5
FE
330
FC
100
AcDbEntity
  8
0
 62
     0
100
AcDbVertex
100
AcDb2dVertex
 10
0.0
 20
0.0
 30
0.0
  0
VERTEX
  5
100
330
FC
100
AcDbEntity
  8
0
 62
     0
100
AcDbVertex
100
AcDb2dVertex
 10
-0.9999999999999998
 20
0.0994897959183674
 30
0.0
  0
VERTEX
  5
101
330
FC
100
AcDbEntity
  8
0
 62
     0
100
AcDbVertex
100
AcDb2dVertex
 10
-0.9999999999999998
 20
-0.0994897959183674
 30
0.0
  0
SEQEND
  5
FF
330
FC
100
AcDbEntity
  8
0
 62
     0
  0
SOLID
  5
102
330
F8
100
AcDbEntity
  8
0
 62
     0
100
AcDbTrace
 10
-0.9999999999999998
 20
-0.0994897959183674
 30
0.0
 11
0.0
 21
0.0
 31
0.0
 12
-0.9999999999999998
 22
0.0994897959183674
 32
0.0
 13
-0.9999999999999998
 23
-0.0994897959183674
 33
0.0
  0
LINE
  5
103
330
F8
100
AcDbEntity
  8
0
 62
     0
100
AcDbLine
 10
-0.9999999999999998
 20
-0.0994897959183674
 30
0.0
 11
0.0
 21
0.0
 31
0.0
  0
LINE
  5
104
330
F8
100
AcDbEntity
  8
0
 62
     0
100
AcDbLine
 10
0.0
 20
0.0
 30
0.0
 11
-0.9999999999999998
 21
0.0994897959183674
 31
0.0
  0
LINE
  5
105
330
F8
100
AcDbEntity
  8
0
 62
     0
100
AcDbLine
 10
-0.9999999999999998
 20
0.0994897959183674
 30
0.0
 11
-0.9999999999999998
 21
-0.0994897959183674
 31
0.0
  0
ENDBLK
  5
FA
330
F8
100
AcDbEntity
  8
0
100
AcDbBlockEnd
  0
BLOCK
  5
2E9
330
2E8
100
AcDbEntity
  8
0
100
AcDbBlockBegin
  2
*D4
 70
     1
 10
0.0
 20
0.0
 30
0.0
  3
*D4
  1

  0
LINE
  5
3C7
330
2E8
100
AcDbEntity
  8
Dimension (ANSI)
440
 16777216
100
AcDbLine
 10
31.37922785728544
 20
10.76068566563048
 30
0.0
 11
31.37922785728544
 21
9.931915109034454
 31
0.0
  0
LINE
  5
3C8
330
2E8
100
AcDbEntity
  8
Dimension (ANSI)
440
 16777216
100
AcDbLine
 10
40.36772785728518
 20
11.64718566563048
 30
0.0
 11
40.36772785728518
 21
9.931915109034454
 31
0.0
  0
LINE
  5
3C9
330
2E8
100
AcDbEntity
  8
Dimension (ANSI)
440
 16777216
100
AcDbLine
 10
31.72918410482708
 20
10.3763595534789
 30
0.0
 11
35.38900507749828
 21
10.3763595534789
 31
0.0
  0
LINE
  5
3CA
330
2E8
100
AcDbEntity
  8
Dimension (ANSI)
440
 16777216
100
AcDbLine
 10
40.01777160974355
 20
10.3763595534789
 30
0.0
 11
36.35795063707236
 21
10.3763595534789
 31
0.0
  0
SOLID
  5
3CB
330
2E8
100
AcDbEntity
  8
Dimension (ANSI)
440
 16777216
100
AcDbTrace
 10
31.72918410482708
 20
10.43468559473584
 30
0.0
 11
31.72918410482708
 21
10.31803351222196
 31
0.0
 12
31.37922785728544
 22
10.3763595534789
 32
0.0
 13
31.37922785728544
 23
10.3763595534789
 33
0.0
  0
SOLID
  5
3CC
330
2E8
100
AcDbEntity
  8
Dimension (ANSI)
440
 16777216
100
AcDbTrace
 10
40.01777160974355
 20
10.43468559473584
 30
0.0
 11
40.01777160974355
 21
10.31803351222196
 31
0.0
 12
40.36772785728518
 22
10.3763595534789
 32
0.0
 13
40.36772785728518
 23
10.3763595534789
 33
0.0
  0
MTEXT
  5
3CD
330
2E8
100
AcDbEntity
  8
Dimension (ANSI)
440
 16777216
100
AcDbMText
 10
35.50099107924806
 20
10.55413733390577
 30
0.0
 40
0.3555555608537462
 41
0.0
 46
0.0
 71
     1
 72
     1
  1
\A1;9.0
  7
ROMANS
 73
     1
 44
1.0
  0
POINT
  5
3CE
330
2E8
100
AcDbEntity
  8
Defpoints
 62
     0
440
 16777216
100
AcDbPoint
 10
31.37922785728544
 20
10.9829078878527
 30
0.0
  0
POINT
  5
3CF
330
2E8
100
AcDbEntity
  8
Defpoints
 62
     0
440
 16777216
100
AcDbPoint
 10
40.36772785728518
 20
11.8694078878527
 30
0.0
  0
POINT
  5
3D0
330
2E8
100
AcDbEntity
  8
Defpoints
 62
     0
440
 16777216
100
AcDbPoint
 10
40.36772785728518
 20
10.3763595534789
 30
0.0
  0
ENDBLK
  5
2EA
330
2E8
100
AcDbEntity
  8
0
100
AcDbBlockEnd
  0
BLOCK
  5
3D3
330
3D2
100
AcDbEntity
  8
0
100
AcDbBlockBegin
  2
*D5
 70
     1
 10
0.0
 20
0.0
 30
0.0
  3
*D5
  1

  0
LINE
  5
4B1
330
3D2
100
AcDbEntity
  8
Dimension (ANSI)
440
 16777216
100
AcDbLine
 10
40.51595007950743
 20
11.7954078878527
 30
0.0
 11
42.69701482141488
 21
11.7954078878527
 31
0.0
  0
LINE
  5
4B2
330
3D2
100
AcDbEntity
  8
Dimension (ANSI)
440
 16777216
100
AcDbLine
 10
41.40245007950757
 20
20.7839078878527
 30
0.0
 11
42.69701482141489
 21
20.7839078878527
 31
0.0
  0
LINE
  5
4B3
330
3D2
100
AcDbEntity
  8
Dimension (ANSI)
440
 16777216
100
AcDbLine
 10
42.25257037697044
 20
12.14536413539434
 30
0.0
 11
42.25257037697044
 21
15.99989410567604
 31
0.0
  0
LINE
  5
4B4
330
3D2
100
AcDbEntity
  8
Dimension (ANSI)
440
 16777216
100
AcDbLine
 10
42.25257037697045
 20
20.43395164031106
 30
0.0
 11
42.25257037697045
 21
16.57942167002935
 31
0.0
  0
SOLID
  5
4B5
330
3D2
100
AcDbEntity
  8
Dimension (ANSI)
440
 16777216
100
AcDbTrace
 10
42.1942443357135
 20
12.14536413539434
 30
0.0
 11
42.31089641822738
 21
12.14536413539434
 31
0.0
 12
42.25257037697044
 22
11.7954078878527
 32
0.0
 13
42.25257037697044
 23
11.7954078878527
 33
0.0
  0
SOLID
  5
4B6
330
3D2
100
AcDbEntity
  8
Dimension (ANSI)
440
 16777216
100
AcDbTrace
 10
42.19424433571351
 20
20.43395164031106
 30
0.0
 11
42.31089641822739
 21
20.43395164031106
 31
0.0
 12
42.25257037697045
 22
20.7839078878527
 32
0.0
 13
42.25257037697045
 23
20.7839078878527
 33
0.0
  0
MTEXT
  5
4B7
330
3D2
100
AcDbEntity
  8
Dimension (ANSI)
440
 16777216
100
AcDbMText
 10
41.88008359893319
 20
16.46743566827957
 30
0.0
 40
0.3555555608537462
 41
0.0
 46
0.0
 71
     1
 72
     1
  1
\A1;9.0
  7
ROMANS
 73
     1
 44
1.0
  0
POINT
  5
4B8
330
3D2
100
AcDbEntity
  8
Defpoints
 62
     0
440
 16777216
100
AcDbPoint
 10
40.29372785728521
 20
11.7954078878527
 30
0.0
  0
POINT
  5
4B9
330
3D2
100
AcDbEntity
  8
Defpoints
 62
     0
440
 16777216
100
AcDbPoint
 10
41.18022785728535
 20
20.7839078878527
 30
0.0
  0
POINT
  5
4BA
330
3D2
100
AcDbEntity
  8
Defpoints
 62
     0
440
 16777216
100
AcDbPoint
 10
42.25257037697045
 20
20.7839078878527
 30
0.0
  0
ENDBLK
  5
3D4
330
3D2
100
AcDbEntity
  8
0
100
AcDbBlockEnd
  0
BLOCK
  5
4BF
330
4BE
100
AcDbEntity
  8
0
100
AcDbBlockBegin
  2
*D6
 70
     1
 10
0.0
 20
0.0
 30
0.0
  3
*D6
  1

  0
LINE
  5
59D
330
4BE
100
AcDbEntity
  8
Dimension (ANSI)
440
 16777216
100
AcDbLine
 10
31.21950563506301
 20
11.7954078878527
 30
0.0
 11
29.08572838516065
 21
11.7954078878527
 31
0.0
  0
LINE
  5
59E
330
4BE
100
AcDbEntity
  8
Dimension (ANSI)
440
 16777216
100
AcDbLine
 10
31.220630635063
 20
17.79640788785265
 30
0.0
 11
29.08572838516065
 21
17.79640788785265
 31
0.0
  0
LINE
  5
59F
330
4BE
100
AcDbEntity
  8
Dimension (ANSI)
440
 16777216
100
AcDbLine
 10
29.53017282960509
 20
12.14536413539434
 30
0.0
 11
29.53017282960509
 21
14.50614410567602
 31
0.0
  0
LINE
  5
5A0
330
4BE
100
AcDbEntity
  8
Dimension (ANSI)
440
 16777216
100
AcDbLine
 10
29.53017282960509
 20
17.44645164031101
 30
0.0
 11
29.53017282960509
 21
15.08567167002933
 31
0.0
  0
SOLID
  5
5A1
330
4BE
100
AcDbEntity
  8
Dimension (ANSI)
440
 16777216
100
AcDbTrace
 10
29.47184678834815
 20
12.14536413539434
 30
0.0
 11
29.58849887086203
 21
12.14536413539434
 31
0.0
 12
29.53017282960509
 22
11.7954078878527
 32
0.0
 13
29.53017282960509
 23
11.7954078878527
 33
0.0
  0
SOLID
  5
5A2
330
4BE
100
AcDbEntity
  8
Dimension (ANSI)
440
 16777216
100
AcDbTrace
 10
29.47184678834815
 20
17.44645164031101
 30
0.0
 11
29.58849887086203
 21
17.44645164031101
 31
0.0
 12
29.53017282960509
 22
17.79640788785265
 32
0.0
 13
29.53017282960509
 23
17.79640788785265
 33
0.0
  0
MTEXT
  5
5A3
330
4BE
100
AcDbEntity
  8
Dimension (ANSI)
440
 16777216
100
AcDbMText
 10
28.99683948832447
 20
14.97368566827955
 30
0.0
 40
0.3555555608537462
 41
0.0
 46
0.0
 71
     1
 72
     1
  1
\A1;6.00
  7
ROMANS
 73
     1
 44
1.0
  0
POINT
  5
5A4
330
4BE
100
AcDbEntity
  8
Defpoints
 62
     0
440
 16777216
100
AcDbPoint
 10
31.44172785728523
 20
11.7954078878527
 30
0.0
  0
POINT
  5
5A5
330
4BE
100
AcDbEntity
  8
Defpoints
 62
     0
440
 16777216
100
AcDbPoint
 10
31.44285285728522
 20
17.79640788785265
 30
0.0
  0
POINT
  5
5A6
330
4BE
100
AcDbEntity
  8
Defpoints
 62
     0
440
 16777216
100
AcDbPoint
 10
29.53017282960509
 20
17.79640788785265
 30
0.0
  0
ENDBLK
  5
4C0
330
4BE
100
AcDbEntity
  8
0
100
AcDbBlockEnd
  0
BLOCK
  5
5A9
330
5A8
100
AcDbEntity
  8
0
100
AcDbBlockBegin
  2
*D7
 70
     1
 10
0.0
 20
0.0
 30
0.0
  3
*D7
  1

  0
LINE
  5
6B8
330
5A8
100
AcDbEntity
  8
Dimension (ANSI)
440
 16777216
100
AcDbLine
 10
31.15700563506317
 20
10.9829078878527
 30
0.0
 11
30.3095754077101
 21
10.9829078878527
 31
0.0
  0
LINE
  5
6B9
330
5A8
100
AcDbEntity
  8
Dimension (ANSI)
440
 16777216
100
AcDbLine
 10
31.21950563506301
 20
11.7954078878527
 30
0.0
 11
30.3095754077101
 21
11.7954078878527
 31
0.0
  0
LINE
  5
6BA
330
5A8
100
AcDbEntity
  8
Dimension (ANSI)
440
 16777216
100
AcDbLine
 10
30.75401985215454
 20
12.14536413539434
 30
0.0
 11
30.75401985215454
 21
12.49532038293598
 31
0.0
  0
LINE
  5
6BB
330
5A8
100
AcDbEntity
  8
Dimension (ANSI)
440
 16777216
100
AcDbLine
 10
30.75401985215454
 20
10.63295164031106
 30
0.0
 11
30.75401985215454
 21
9.477185267909186
 31
0.0
  0
LINE
  5
6BC
330
5A8
100
AcDbEntity
  8
Dimension (ANSI)
440
 16777216
100
AcDbLine
 10
30.75401985215454
 20
9.477185267909186
 30
0.0
 11
30.4040636046129
 21
9.477185267909186
 31
0.0
  0
SOLID
  5
6BD
330
5A8
100
AcDbEntity
  8
Dimension (ANSI)
440
 16777216
100
AcDbTrace
 10
30.6956938108976
 20
12.14536413539434
 30
0.0
 11
30.81234589341149
 21
12.14536413539434
 31
0.0
 12
30.75401985215454
 22
11.7954078878527
 32
0.0
 13
30.75401985215454
 23
11.7954078878527
 33
0.0
  0
SOLID
  5
6BE
330
5A8
100
AcDbEntity
  8
Dimension (ANSI)
440
 16777216
100
AcDbTrace
 10
30.6956938108976
 20
10.63295164031106
 30
0.0
 11
30.81234589341149
 21
10.63295164031106
 31
0.0
 12
30.75401985215454
 22
10.9829078878527
 32
0.0
 13
30.75401985215454
 23
10.9829078878527
 33
0.0
  0
MTEXT
  5
6BF
330
5A8
100
AcDbEntity
  8
Dimension (ANSI)
440
 16777216
100
AcDbMText
 10
29.53017282960509
 20
9.477185267909192
 30
0.0
 40
0.3555555608537462
 41
0.0
 46
0.0
 71
     5
 72
     1
  1
\A1;(0.81){\PTYP.}
  7
ROMANS
 73
     1
 44
1.0
  0
POINT
  5
6C0
330
5A8
100
AcDbEntity
  8
Defpoints
 62
     0
440
 16777216
100
AcDbPoint
 10
31.37922785728539
 20
10.9829078878527
 30
0.0
  0
POINT
  5
6C1
330
5A8
100
AcDbEntity
  8
Defpoints
 62
     0
440
 16777216
100
AcDbPoint
 10
31.44172785728523
 20
11.7954078878527
 30
0.0
  0
POINT
  5
6C2
330
5A8
100
AcDbEntity
  8
Defpoints
 62
     0
440
 16777216
100
AcDbPoint
 10
30.75401985215454
 20
11.7954078878527
 30
0.0
  0
ENDBLK
  5
5AA
330
5A8
100
AcDbEntity
  8
0
100
AcDbBlockEnd
  0
BLOCK
  5
6C5
330
6C4
100
AcDbEntity
  8
0
100
AcDbBlockBegin
  2
*D8
 70
     1
 10
0.0
 20
0.0
 30
0.0
  3
*D8
  1

  0
LINE
  5
7A3
330
6C4
100
AcDbEntity
  8
Dimension (ANSI)
440
 16777216
100
AcDbLine
 10
34.36859654080424
 20
20.94437379359391
 30
0.0
 11
34.36859654080424
 21
22.55574426101648
 31
0.0
  0
LINE
  5
7A4
330
6C4
100
AcDbEntity
  8
Dimension (ANSI)
440
 16777216
100
AcDbLine
 10
40.36772785728518
 20
20.94363011007493
 30
0.0
 11
40.36772785728518
 21
22.55574426101648
 31
0.0
  0
LINE
  5
7A5
330
6C4
100
AcDbEntity
  8
Dimension (ANSI)
440
 16777216
100
AcDbLine
 10
34.71855278834588
 20
22.11129981657204
 30
0.0
 11
36.72284285601429
 21
22.11129981657204
 31
0.0
  0
LINE
  5
7A6
330
6C4
100
AcDbEntity
  8
Dimension (ANSI)
440
 16777216
100
AcDbLine
 10
40.01777160974355
 20
22.11129981657204
 30
0.0
 11
38.01348154207509
 21
22.11129981657204
 31
0.0
  0
SOLID
  5
7A7
330
6C4
100
AcDbEntity
  8
Dimension (ANSI)
440
 16777216
100
AcDbTrace
 10
34.71855278834588
 20
22.16962585782898
 30
0.0
 11
34.71855278834588
 21
22.05297377531509
 31
0.0
 12
34.36859654080424
 22
22.11129981657204
 32
0.0
 13
34.36859654080424
 23
22.11129981657204
 33
0.0
  0
SOLID
  5
7A8
330
6C4
100
AcDbEntity
  8
Dimension (ANSI)
440
 16777216
100
AcDbTrace
 10
40.01777160974355
 20
22.16962585782898
 30
0.0
 11
40.01777160974355
 21
22.05297377531509
 31
0.0
 12
40.36772785728518
 22
22.11129981657204
 32
0.0
 13
40.36772785728518
 23
22.11129981657204
 33
0.0
  0
MTEXT
  5
7A9
330
6C4
100
AcDbEntity
  8
Dimension (ANSI)
440
 16777216
100
AcDbMText
 10
36.83482885776407
 20
22.28907759699891
 30
0.0
 40
0.3555555608537462
 41
0.0
 46
0.0
 71
     1
 72
     1
  1
\A1;6.00
  7
ROMANS
 73
     1
 44
1.0
  0
POINT
  5
7AA
330
6C4
100
AcDbEntity
  8
Defpoints
 62
     0
440
 16777216
100
AcDbPoint
 10
34.36859654080424
 20
20.72215157137168
 30
0.0
  0
POINT
  5
7AB
330
6C4
100
AcDbEntity
  8
Defpoints
 62
     0
440
 16777216
100
AcDbPoint
 10
40.36772785728518
 20
20.7214078878527
 30
0.0
  0
POINT
  5
7AC
330
6C4
100
AcDbEntity
  8
Defpoints
 62
     0
440
 16777216
100
AcDbPoint
 10
40.36772785728518
 20
22.11129981657204
 30
0.0
  0
ENDBLK
  5
6C6
330
6C4
100
AcDbEntity
  8
0
100
AcDbBlockEnd
  0
BLOCK
  5
7AF
330
7AE
100
AcDbEntity
  8
0
100
AcDbBlockBegin
  2
*D9
 70
     1
 10
0.0
 20
0.0
 30
0.0
  3
*D9
  1

  0
LINE
  5
8AB
330
7AE
100
AcDbEntity
  8
Dimension (ANSI)
440
 16777216
100
AcDbLine
 10
41.18022785728535
 20
21.00613011007492
 30
0.0
 11
41.18022785728535
 21
22.55574426101647
 31
0.0
  0
LINE
  5
8AC
330
7AE
100
AcDbEntity
  8
Dimension (ANSI)
440
 16777216
100
AcDbLine
 10
40.36772785728518
 20
20.94363011007493
 30
0.0
 11
40.36772785728518
 21
22.55574426101647
 31
0.0
  0
LINE
  5
8AD
330
7AE
100
AcDbEntity
  8
Dimension (ANSI)
440
 16777216
100
AcDbLine
 10
40.01777160974355
 20
22.11129981657203
 30
0.0
 11
39.66781536220191
 21
22.11129981657203
 31
0.0
  0
LINE
  5
8AE
330
7AE
100
AcDbEntity
  8
Dimension (ANSI)
440
 16777216
100
AcDbLine
 10
41.53018410482699
 20
22.11129981657203
 30
0.0
 11
42.26999370382839
 21
22.11129981657203
 31
0.0
  0
SOLID
  5
8AF
330
7AE
100
AcDbEntity
  8
Dimension (ANSI)
440
 16777216
100
AcDbTrace
 10
40.01777160974355
 20
22.16962585782897
 30
0.0
 11
40.01777160974355
 21
22.05297377531509
 31
0.0
 12
40.36772785728518
 22
22.11129981657203
 32
0.0
 13
40.36772785728518
 23
22.11129981657203
 33
0.0
  0
SOLID
  5
8B0
330
7AE
100
AcDbEntity
  8
Dimension (ANSI)
440
 16777216
100
AcDbTrace
 10
41.53018410482699
 20
22.16962585782897
 30
0.0
 11
41.53018410482699
 21
22.05297377531509
 31
0.0
 12
41.18022785728535
 22
22.11129981657203
 32
0.0
 13
41.18022785728535
 23
22.11129981657203
 33
0.0
  0
MTEXT
  5
8B1
330
7AE
100
AcDbEntity
  8
Dimension (ANSI)
440
 16777216
100
AcDbMText
 10
43.1438844788362
 20
22.11129981657203
 30
0.0
 40
0.3555555608537462
 41
0.0
 46
0.0
 71
     5
 72
     1
  1
\A1;(0.81){\PTYP.}
  7
ROMANS
 73
     1
 44
1.0
  0
POINT
  5
8B2
330
7AE
100
AcDbEntity
  8
Defpoints
 62
     0
440
 16777216
100
AcDbPoint
 10
41.18022785728535
 20
20.7839078878527
 30
0.0
  0
POINT
  5
8B3
330
7AE
100
AcDbEntity
  8
Defpoints
 62
     0
440
 16777216
100
AcDbPoint
 10
40.36772785728518
 20
20.7214078878527
 30
0.0
  0
POINT
  5
8B4
330
7AE
100
AcDbEntity
  8
Defpoints
 62
     0
440
 16777216
100
AcDbPoint
 10
40.36772785728518
 20
22.11129981657203
 30
0.0
  0
ENDBLK
  5
7B0
330
7AE
100
AcDbEntity
  8
0
100
AcDbBlockEnd
  0
BLOCK
  5
8B7
330
8B6
100
AcDbEntity
  8
0
100
AcDbBlockBegin
  2
*D10
 70
     1
 10
0.0
 20
0.0
 30
0.0
  3
*D10
  1

  0
LINE
  5
9E2
330
8B6
100
AcDbEntity
  8
Dimension (ANSI)
440
 16777216
100
AcDbLine
 10
34.36859654080424
 20
20.94437379359391
 30
0.0
 11
34.36859654080424
 21
22.56177343736581
 31
0.0
  0
ARC
  5
9E3
330
8B6
100
AcDbEntity
  8
Dimension (ANSI)
440
 16777216
100
AcDbCircle
 10
34.36859654080424
 20
20.32692837498729
 30
0.0
 40
1.790400617934068
100
AcDbArc
 50
101.2170834787072
 51
134.7636169090669
  0
ARC
  5
9E4
330
8B6
100
AcDbEntity
  8
Dimension (ANSI)
440
 16777216
100
AcDbCircle
 10
34.36859654080424
 20
20.32692837498729
 30
0.0
 40
1.790400617934068
100
AcDbArc
 50
176.8271244916499
 51
213.7829165212927
  0
SOLID
  5
9E5
330
8B6
100
AcDbEntity
  8
Dimension (ANSI)
440
 16777216
100
AcDbTrace
 10
34.01461531141376
 20
22.14117415010997
 30
0.0
 11
34.02601586742776
 21
22.02508049964882
 31
0.0
 12
34.36859654080424
 22
22.11732899292137
 32
0.0
 13
34.36859654080424
 23
22.11732899292137
 33
0.0
  0
SOLID
  5
9E6
330
8B6
100
AcDbEntity
  8
Dimension (ANSI)
440
 16777216
100
AcDbTrace
 10
32.92558054072177
 20
19.36839460940074
 30
0.0
 11
32.8354285227612
 21
19.29436541237375
 31
0.0
 12
33.10259212282247
 22
19.06092395700553
 32
0.0
 13
33.10259212282247
 23
19.06092395700553
 33
0.0
  0
MTEXT
  5
9E7
330
8B6
100
AcDbEntity
  8
Dimension (ANSI)
440
 16777216
100
AcDbMText
 10
32.71448205489939
 20
21.01208502876686
 30
0.0
 40
0.3555555608537462
 41
0.0
 46
0.0
 71
     5
 72
     1
  1
\A1;135\U+00B0{\PTYP.}
  7
ROMANS
 73
     1
 44
1.0
  0
POINT
  5
9E8
330
8B6
100
AcDbEntity
  8
Defpoints
 62
     0
440
 16777216
100
AcDbPoint
 10
34.36859654080424
 20
20.32692837498729
 30
0.0
  0
POINT
  5
9E9
330
8B6
100
AcDbEntity
  8
Defpoints
 62
     0
440
 16777216
100
AcDbPoint
 10
34.36859654080424
 20
20.72215157137169
 30
0.0
  0
POINT
  5
9EA
330
8B6
100
AcDbEntity
  8
Defpoints
 62
     0
440
 16777216
100
AcDbPoint
 10
34.21146170054056
 20
20.16979353472362
 30
0.0
  0
POINT
  5
9EB
330
8B6
100
AcDbEntity
  8
Defpoints
 62
     0
440
 16777216
100
AcDbPoint
 10
33.10259212282247
 20
21.59293279296906
 30
0.0
  0
ENDBLK
  5
8B8
330
8B6
100
AcDbEntity
  8
0
100
AcDbBlockEnd
  0
BLOCK
  5
9EE
330
9ED
100
AcDbEntity
  8
0
100
AcDbBlockBegin
  2
*D11
 70
     1
 10
0.0
 20
0.0
 30
0.0
  3
*D11
  1

  0
LINE
  5
ACC
330
9ED
100
AcDbEntity
  8
Dimension (ANSI)
440
 16777216
100
AcDbLine
 10
6.552713285198699
 20
20.88113011007488
 30
0.0
 11
6.552713285198699
 21
22.42455734944701
 31
0.0
  0
LINE
  5
ACD
330
9ED
100
AcDbEntity
  8
Dimension (ANSI)
440
 16777216
100
AcDbLine
 10
9.552713285198707
 20
21.77369055613936
 30
0.0
 11
9.552713285198707
 21
22.42455734944701
 31
0.0
  0
LINE
  5
ACE
330
9ED
100
AcDbEntity
  8
Dimension (ANSI)
440
 16777216
100
AcDbLine
 10
6.902669532740338
 20
21.98011290500257
 30
0.0
 11
7.398928333576548
 21
21.98011290500257
 31
0.0
  0
LINE
  5
ACF
330
9ED
100
AcDbEntity
  8
Dimension (ANSI)
440
 16777216
100
AcDbLine
 10
9.202757037657068
 20
21.98011290500257
 30
0.0
 11
8.706498236820861
 21
21.98011290500257
 31
0.0
  0
SOLID
  5
AD0
330
9ED
100
AcDbEntity
  8
Dimension (ANSI)
440
 16777216
100
AcDbTrace
 10
6.902669532740338
 20
22.03843894625951
 30
0.0
 11
6.902669532740338
 21
21.92178686374563
 31
0.0
 12
6.552713285198699
 22
21.98011290500257
 32
0.0
 13
6.552713285198699
 23
21.98011290500257
 33
0.0
  0
SOLID
  5
AD1
330
9ED
100
AcDbEntity
  8
Dimension (ANSI)
440
 16777216
100
AcDbTrace
 10
9.202757037657068
 20
22.03843894625951
 30
0.0
 11
9.202757037657068
 21
21.92178686374563
 31
0.0
 12
9.552713285198707
 22
21.98011290500257
 32
0.0
 13
9.552713285198707
 23
21.98011290500257
 33
0.0
  0
MTEXT
  5
AD2
330
9ED
100
AcDbEntity
  8
Dimension (ANSI)
440
 16777216
100
AcDbMText
 10
7.510914335326329
 20
22.15789068542944
 30
0.0
 40
0.3555555608537462
 41
0.0
 46
0.0
 71
     1
 72
     1
  1
\A1;3.00
  7
ROMANS
 73
     1
 44
1.0
  0
POINT
  5
AD3
330
9ED
100
AcDbEntity
  8
Defpoints
 62
     0
440
 16777216
100
AcDbPoint
 10
6.552713285198699
 20
20.65890788785266
 30
0.0
  0
POINT
  5
AD4
330
9ED
100
AcDbEntity
  8
Defpoints
 62
     0
440
 16777216
100
AcDbPoint
 10
9.552713285198707
 20
21.55146833391714
 30
0.0
  0
POINT
  5
AD5
330
9ED
100
AcDbEntity
  8
Defpoints
 62
     0
440
 16777216
100
AcDbPoint
 10
9.552713285198707
 20
21.98011290500257
 30
0.0
  0
ENDBLK
  5
9EF
330
9ED
100
AcDbEntity
  8
0
100
AcDbBlockEnd
  0
BLOCK
  5
AD8
330
AD7
100
AcDbEntity
  8
0
100
AcDbBlockBegin
  2
*D12
 70
     1
 10
0.0
 20
0.0
 30
0.0
  3
*D12
  1

  0
LINE
  5
BB6
330
AD7
100
AcDbEntity
  8
Dimension (ANSI)
440
 16777216
100
AcDbLine
 10
14.00760076849755
 20
14.7954078878527
 30
0.0
 11
15.37221712030765
 21
14.7954078878527
 31
0.0
  0
LINE
  5
BB7
330
AD7
100
AcDbEntity
  8
Dimension (ANSI)
440
 16777216
100
AcDbLine
 10
12.7009355074209
 20
11.7954078878527
 30
0.0
 11
15.37221712030764
 21
11.7954078878527
 31
0.0
  0
LINE
  5
BB8
330
AD7
100
AcDbEntity
  8
Dimension (ANSI)
440
 16777216
100
AcDbLine
 10
14.9277726758632
 20
14.44545164031106
 30
0.0
 11
14.9277726758632
 21
13.58517167002935
 31
0.0
  0
LINE
  5
BB9
330
AD7
100
AcDbEntity
  8
Dimension (ANSI)
440
 16777216
100
AcDbLine
 10
14.9277726758632
 20
12.14536413539434
 30
0.0
 11
14.9277726758632
 21
13.00564410567604
 31
0.0
  0
SOLID
  5
BBA
330
AD7
100
AcDbEntity
  8
Dimension (ANSI)
440
 16777216
100
AcDbTrace
 10
14.86944663460626
 20
14.44545164031106
 30
0.0
 11
14.98609871712014
 21
14.44545164031106
 31
0.0
 12
14.9277726758632
 22
14.7954078878527
 32
0.0
 13
14.9277726758632
 23
14.7954078878527
 33
0.0
  0
SOLID
  5
BBB
330
AD7
100
AcDbEntity
  8
Dimension (ANSI)
440
 16777216
100
AcDbTrace
 10
14.86944663460626
 20
12.14536413539434
 30
0.0
 11
14.98609871712014
 21
12.14536413539434
 31
0.0
 12
14.9277726758632
 22
11.7954078878527
 32
0.0
 13
14.9277726758632
 23
11.7954078878527
 33
0.0
  0
MTEXT
  5
BBC
330
AD7
100
AcDbEntity
  8
Dimension (ANSI)
440
 16777216
100
AcDbMText
 10
14.38597372599083
 20
13.47318566827957
 30
0.0
 40
0.3555555608537462
 41
0.0
 46
0.0
 71
     1
 72
     1
  1
\A1;3.00
  7
ROMANS
 73
     1
 44
1.0
  0
POINT
  5
BBD
330
AD7
100
AcDbEntity
  8
Defpoints
 62
     0
440
 16777216
100
AcDbPoint
 10
13.78537854627532
 20
14.7954078878527
 30
0.0
  0
POINT
  5
BBE
330
AD7
100
AcDbEntity
  8
Defpoints
 62
     0
440
 16777216
100
AcDbPoint
 10
12.47871328519868
 20
11.7954078878527
 30
0.0
  0
POINT
  5
BBF
330
AD7
100
AcDbEntity
  8
Defpoints
 62
     0
440
 16777216
100
AcDbPoint
 10
14.9277726758632
 20
11.7954078878527
 30
0.0
  0
ENDBLK
  5
AD9
330
AD7
100
AcDbEntity
  8
0
100
AcDbBlockEnd
  0
BLOCK
  5
BC2
330
BC1
100
AcDbEntity
  8
0
100
AcDbBlockBegin
  2
*D13
 70
     1
 10
0.0
 20
0.0
 30
0.0
  3
*D13
  1

  0
LINE
  5
CAA
330
BC1
100
AcDbEntity
  8
Dimension (ANSI)
440
 16777216
100
AcDbLine
 10
5.892991062976479
 20
18.60790788785271
 30
0.0
 11
3.936130901391464
 21
18.60790788785271
 31
0.0
  0
LINE
  5
CAB
330
BC1
100
AcDbEntity
  8
Dimension (ANSI)
440
 16777216
100
AcDbLine
 10
5.152704413177407
 20
14.79540788785272
 30
0.0
 11
3.936130901391463
 21
14.79540788785272
 31
0.0
  0
LINE
  5
CAC
330
BC1
100
AcDbEntity
  8
Dimension (ANSI)
440
 16777216
100
AcDbLine
 10
4.380575345835909
 20
18.25795164031107
 30
0.0
 11
4.380575345835908
 21
17.08454336453868
 31
0.0
  0
LINE
  5
CAD
330
BC1
100
AcDbEntity
  8
Dimension (ANSI)
440
 16777216
100
AcDbLine
 10
4.380575345835908
 20
15.14536413539436
 30
0.0
 11
4.380575345835908
 21
16.31877241116675
 31
0.0
  0
SOLID
  5
CAE
330
BC1
100
AcDbEntity
  8
Dimension (ANSI)
440
 16777216
100
AcDbTrace
 10
4.322249304578969
 20
18.25795164031107
 30
0.0
 11
4.438901387092849
 21
18.25795164031107
 31
0.0
 12
4.380575345835909
 22
18.60790788785271
 32
0.0
 13
4.380575345835909
 23
18.60790788785271
 33
0.0
  0
SOLID
  5
CAF
330
BC1
100
AcDbEntity
  8
Dimension (ANSI)
440
 16777216
100
AcDbTrace
 10
4.322249304578968
 20
15.14536413539436
 30
0.0
 11
4.438901387092848
 21
15.14536413539436
 31
0.0
 12
4.380575345835908
 22
14.79540788785272
 32
0.0
 13
4.380575345835908
 23
14.79540788785272
 33
0.0
  0
MTEXT
  5
CB0
330
BC1
100
AcDbEntity
  8
Dimension (ANSI)
440
 16777216
100
AcDbMText
 10
3.618670572577878
 20
16.9725573627889
 30
0.0
 40
0.3555555608537462
 41
0.0
 46
0.0
 71
     1
 72
     1
  1
\A1;(3.81)
  7
ROMANS
 73
     1
 44
1.0
  0
POINT
  5
CB1
330
BC1
100
AcDbEntity
  8
Defpoints
 62
     0
440
 16777216
100
AcDbPoint
 10
6.115213285198701
 20
18.60790788785271
 30
0.0
  0
POINT
  5
CB2
330
BC1
100
AcDbEntity
  8
Defpoints
 62
     0
440
 16777216
100
AcDbPoint
 10
5.37492663539963
 20
14.79540788785272
 30
0.0
  0
POINT
  5
CB3
330
BC1
100
AcDbEntity
  8
Defpoints
 62
     0
440
 16777216
100
AcDbPoint
 10
4.380575345835908
 20
14.79540788785272
 30
0.0
  0
ENDBLK
  5
BC3
330
BC1
100
AcDbEntity
  8
0
100
AcDbBlockEnd
  0
BLOCK
  5
CB6
330
CB5
100
AcDbEntity
  8
0
100
AcDbBlockBegin
  2
*D14
 70
     1
 10
0.0
 20
0.0
 30
0.0
  3
*D14
  1

  0
LINE
  5
D9E
330
CB5
100
AcDbEntity
  8
Dimension (ANSI)
440
 16777216
100
AcDbLine
 10
5.892991062976479
 20
18.60790788785271
 30
0.0
 11
2.522183469624204
 21
18.60790788785271
 31
0.0
  0
LINE
  5
D9F
330
CB5
100
AcDbEntity
  8
Dimension (ANSI)
440
 16777216
100
AcDbLine
 10
5.892991062976475
 20
10.98290788785271
 30
0.0
 11
2.522183469624202
 21
10.98290788785271
 31
0.0
  0
LINE
  5
DA0
330
CB5
100
AcDbEntity
  8
Dimension (ANSI)
440
 16777216
100
AcDbLine
 10
2.966627914068648
 20
18.25795164031107
 30
0.0
 11
2.966627914068648
 21
15.17829336453869
 31
0.0
  0
LINE
  5
DA1
330
CB5
100
AcDbEntity
  8
Dimension (ANSI)
440
 16777216
100
AcDbLine
 10
2.966627914068647
 20
11.33286413539435
 30
0.0
 11
2.966627914068647
 21
14.41252241116675
 31
0.0
  0
SOLID
  5
DA2
330
CB5
100
AcDbEntity
  8
Dimension (ANSI)
440
 16777216
100
AcDbTrace
 10
2.908301872811708
 20
18.25795164031107
 30
0.0
 11
3.024953955325588
 21
18.25795164031107
 31
0.0
 12
2.966627914068648
 22
18.60790788785271
 32
0.0
 13
2.966627914068648
 23
18.60790788785271
 33
0.0
  0
SOLID
  5
DA3
330
CB5
100
AcDbEntity
  8
Dimension (ANSI)
440
 16777216
100
AcDbTrace
 10
2.908301872811707
 20
11.33286413539435
 30
0.0
 11
3.024953955325587
 21
11.33286413539435
 31
0.0
 12
2.966627914068646
 22
10.98290788785271
 32
0.0
 13
2.966627914068646
 23
10.98290788785271
 33
0.0
  0
MTEXT
  5
DA4
330
CB5
100
AcDbEntity
  8
Dimension (ANSI)
440
 16777216
100
AcDbMText
 10
2.204723140810618
 20
15.06630736278891
 30
0.0
 40
0.3555555608537462
 41
0.0
 46
0.0
 71
     1
 72
     1
  1
\A1;(7.63)
  7
ROMANS
 73
     1
 44
1.0
  0
POINT
  5
DA5
330
CB5
100
AcDbEntity
  8
Defpoints
 62
     0
440
 16777216
100
AcDbPoint
 10
6.115213285198701
 20
18.60790788785271
 30
0.0
  0
POINT
  5
DA6
330
CB5
100
AcDbEntity
  8
Defpoints
 62
     0
440
 16777216
100
AcDbPoint
 10
6.115213285198698
 20
10.98290788785271
 30
0.0
  0
POINT
  5
DA7
330
CB5
100
AcDbEntity
  8
Defpoints
 62
     0
440
 16777216
100
AcDbPoint
 10
2.966627914068646
 20
10.98290788785271
 30
0.0
  0
ENDBLK
  5
CB7
330
CB5
100
AcDbEntity
  8
0
100
AcDbBlockEnd
  0
BLOCK
  5
DAA
330
DA9
100
AcDbEntity
  8
0
100
AcDbBlockBegin
  2
*D15
 70
     1
 10
0.0
 20
0.0
 30
0.0
  3
*D15
  1

  0
LINE
  5
E92
330
DA9
100
AcDbEntity
  8
Dimension (ANSI)
440
 16777216
100
AcDbLine
 10
5.740213285198697
 20
11.13568566563049
 30
0.0
 11
5.740213285198697
 21
9.661166740557614
 31
0.0
  0
LINE
  5
E93
330
DA9
100
AcDbEntity
  8
Dimension (ANSI)
440
 16777216
100
AcDbLine
 10
9.552713285198704
 20
10.69124122118604
 30
0.0
 11
9.552713285198704
 21
9.661166740557614
 31
0.0
  0
LINE
  5
E94
330
DA9
100
AcDbEntity
  8
Dimension (ANSI)
440
 16777216
100
AcDbLine
 10
6.090169532740336
 20
10.10561118500206
 30
0.0
 11
6.772572510190892
 21
10.10561118500206
 31
0.0
  0
LINE
  5
E95
330
DA9
100
AcDbEntity
  8
Dimension (ANSI)
440
 16777216
100
AcDbLine
 10
9.202757037657065
 20
10.10561118500206
 30
0.0
 11
8.520354060206509
 21
10.10561118500206
 31
0.0
  0
SOLID
  5
E96
330
DA9
100
AcDbEntity
  8
Dimension (ANSI)
440
 16777216
100
AcDbTrace
 10
6.090169532740336
 20
10.163937226259
 30
0.0
 11
6.090169532740336
 21
10.04728514374512
 31
0.0
 12
5.740213285198697
 22
10.10561118500206
 32
0.0
 13
5.740213285198697
 23
10.10561118500206
 33
0.0
  0
SOLID
  5
E97
330
DA9
100
AcDbEntity
  8
Dimension (ANSI)
440
 16777216
100
AcDbTrace
 10
9.202757037657065
 20
10.163937226259
 30
0.0
 11
9.202757037657065
 21
10.04728514374512
 31
0.0
 12
9.552713285198704
 22
10.10561118500206
 32
0.0
 13
9.552713285198704
 23
10.10561118500206
 33
0.0
  0
MTEXT
  5
E98
330
DA9
100
AcDbEntity
  8
Dimension (ANSI)
440
 16777216
100
AcDbMText
 10
6.884558511940672
 20
10.37651065993824
 30
0.0
 40
0.3555555608537462
 41
0.0
 46
0.0
 71
     1
 72
     1
  1
\A1;(3.81)
  7
ROMANS
 73
     1
 44
1.0
  0
POINT
  5
E99
330
DA9
100
AcDbEntity
  8
Defpoints
 62
     0
440
 16777216
100
AcDbPoint
 10
5.740213285198697
 20
11.35790788785271
 30
0.0
  0
POINT
  5
E9A
330
DA9
100
AcDbEntity
  8
Defpoints
 62
     0
440
 16777216
100
AcDbPoint
 10
9.552713285198704
 20
10.91346344340826
 30
0.0
  0
POINT
  5
E9B
330
DA9
100
AcDbEntity
  8
Defpoints
 62
     0
440
 16777216
100
AcDbPoint
 10
9.552713285198704
 20
10.10561118500206
 30
0.0
  0
ENDBLK
  5
DAB
330
DA9
100
AcDbEntity
  8
0
100
AcDbBlockEnd
  0
BLOCK
  5
E9E
330
E9D
100
AcDbEntity
  8
0
100
AcDbBlockBegin
  2
*D16
 70
     1
 10
0.0
 20
0.0
 30
0.0
  3
*D16
  1

  0
LINE
  5
F86
330
E9D
100
AcDbEntity
  8
Dimension (ANSI)
440
 16777216
100
AcDbLine
 10
5.740213285198697
 20
11.13568566563049
 30
0.0
 11
5.740213285198697
 21
8.696487947474775
 31
0.0
  0
LINE
  5
F87
330
E9D
100
AcDbEntity
  8
Dimension (ANSI)
440
 16777216
100
AcDbLine
 10
13.36521328519871
 20
11.13568566563048
 30
0.0
 11
13.36521328519871
 21
8.696487947474775
 31
0.0
  0
LINE
  5
F88
330
E9D
100
AcDbEntity
  8
Dimension (ANSI)
440
 16777216
100
AcDbLine
 10
6.090169532740336
 20
9.14093239191922
 30
0.0
 11
8.678822510190892
 21
9.14093239191922
 31
0.0
  0
LINE
  5
F89
330
E9D
100
AcDbEntity
  8
Dimension (ANSI)
440
 16777216
100
AcDbLine
 10
13.01525703765707
 20
9.14093239191922
 30
0.0
 11
10.42660406020651
 21
9.14093239191922
 31
0.0
  0
SOLID
  5
F8A
330
E9D
100
AcDbEntity
  8
Dimension (ANSI)
440
 16777216
100
AcDbTrace
 10
6.090169532740336
 20
9.19925843317616
 30
0.0
 11
6.090169532740336
 21
9.082606350662279
 31
0.0
 12
5.740213285198697
 22
9.14093239191922
 32
0.0
 13
5.740213285198697
 23
9.14093239191922
 33
0.0
  0
SOLID
  5
F8B
330
E9D
100
AcDbEntity
  8
Dimension (ANSI)
440
 16777216
100
AcDbTrace
 10
13.01525703765707
 20
9.19925843317616
 30
0.0
 11
13.01525703765707
 21
9.082606350662279
 31
0.0
 12
13.36521328519871
 22
9.14093239191922
 32
0.0
 13
13.36521328519871
 23
9.14093239191922
 33
0.0
  0
MTEXT
  5
F8C
330
E9D
100
AcDbEntity
  8
Dimension (ANSI)
440
 16777216
100
AcDbMText
 10
8.790808511940673
 20
9.411831866855408
 30
0.0
 40
0.3555555608537462
 41
0.0
 46
0.0
 71
     1
 72
     1
  1
\A1;(7.63)
  7
ROMANS
 73
     1
 44
1.0
  0
POINT
  5
F8D
330
E9D
100
AcDbEntity
  8
Defpoints
 62
     0
440
 16777216
100
AcDbPoint
 10
5.740213285198697
 20
11.35790788785271
 30
0.0
  0
POINT
  5
F8E
330
E9D
100
AcDbEntity
  8
Defpoints
 62
     0
440
 16777216
100
AcDbPoint
 10
13.36521328519871
 20
11.3579078878527
 30
0.0
  0
POINT
  5
F8F
330
E9D
100
AcDbEntity
  8
Defpoints
 62
     0
440
 16777216
100
AcDbPoint
 10
13.36521328519871
 20
9.14093239191922
 30
0.0
  0
ENDBLK
  5
E9F
330
E9D
100
AcDbEntity
  8
0
100
AcDbBlockEnd
  0
BLOCK
  5
F92
330
F91
100
AcDbEntity
  8
0
100
AcDbBlockBegin
  2
*D17
 70
     1
 10
0.0
 20
0.0
 30
0.0
  3
*D17
  1

  0
LINE
  5
10A1
330
F91
100
AcDbEntity
  8
Dimension (ANSI)
440
 16777216
100
AcDbLine
 10
13.21243550742093
 20
18.6079078878527
 30
0.0
 11
13.62579001655874
 21
18.6079078878527
 31
0.0
  0
LINE
  5
10A2
330
F91
100
AcDbEntity
  8
Dimension (ANSI)
440
 16777216
100
AcDbLine
 10
12.70093550742098
 20
17.72240788785266
 30
0.0
 11
13.62579001655874
 21
17.72240788785266
 31
0.0
  0
LINE
  5
10A3
330
F91
100
AcDbEntity
  8
Dimension (ANSI)
440
 16777216
100
AcDbLine
 10
13.18134557211429
 20
17.37245164031102
 30
0.0
 11
13.18134557211429
 21
17.02249539276938
 31
0.0
  0
LINE
  5
10A4
330
F91
100
AcDbEntity
  8
Dimension (ANSI)
440
 16777216
100
AcDbLine
 10
13.18134557211429
 20
18.95786413539434
 30
0.0
 11
13.1813455721143
 21
20.11363050779621
 31
0.0
  0
LINE
  5
10A5
330
F91
100
AcDbEntity
  8
Dimension (ANSI)
440
 16777216
100
AcDbLine
 10
13.1813455721143
 20
20.11363050779621
 30
0.0
 11
13.53130181965594
 21
20.11363050779621
 31
0.0
  0
SOLID
  5
10A6
330
F91
100
AcDbEntity
  8
Dimension (ANSI)
440
 16777216
100
AcDbTrace
 10
13.12301953085735
 20
17.37245164031102
 30
0.0
 11
13.23967161337123
 21
17.37245164031102
 31
0.0
 12
13.18134557211429
 22
17.72240788785266
 32
0.0
 13
13.18134557211429
 23
17.72240788785266
 33
0.0
  0
SOLID
  5
10A7
330
F91
100
AcDbEntity
  8
Dimension (ANSI)
440
 16777216
100
AcDbTrace
 10
13.12301953085735
 20
18.95786413539434
 30
0.0
 11
13.23967161337123
 21
18.95786413539434
 31
0.0
 12
13.18134557211429
 22
18.6079078878527
 32
0.0
 13
13.18134557211429
 23
18.6079078878527
 33
0.0
  0
MTEXT
  5
10A8
330
F91
100
AcDbEntity
  8
Dimension (ANSI)
440
 16777216
100
AcDbMText
 10
14.40519259466374
 20
20.11363050779621
 30
0.0
 40
0.3555555608537462
 41
0.0
 46
0.0
 71
     5
 72
     1
  1
\A1;(0.89){\PTYP.}
  7
ROMANS
 73
     1
 44
1.0
  0
POINT
  5
10A9
330
F91
100
AcDbEntity
  8
Defpoints
 62
     0
440
 16777216
100
AcDbPoint
 10
12.99021328519871
 20
18.6079078878527
 30
0.0
  0
POINT
  5
10AA
330
F91
100
AcDbEntity
  8
Defpoints
 62
     0
440
 16777216
100
AcDbPoint
 10
12.47871328519876
 20
17.72240788785266
 30
0.0
  0
POINT
  5
10AB
330
F91
100
AcDbEntity
  8
Defpoints
 62
     0
440
 16777216
100
AcDbPoint
 10
13.18134557211429
 20
17.72240788785266
 30
0.0
  0
ENDBLK
  5
F93
330
F91
100
AcDbEntity
  8
0
100
AcDbBlockEnd
  0
BLOCK
  5
10AE
330
10AD
100
AcDbEntity
  8
0
100
AcDbBlockBegin
  2
*D18
 70
     1
 10
0.0
 20
0.0
 30
0.0
  3
*D18
  1

  0
LINE
  5
11A0
330
10AD
100
AcDbEntity
  8
Dimension (ANSI)
440
 16777216
100
AcDbLine
 10
31.37922785728551
 20
18.45513011007492
 30
0.0
 11
31.37922785728551
 21
20.03213775210107
 31
0.0
  0
LINE
  5
11A1
330
10AD
100
AcDbEntity
  8
Dimension (ANSI)
440
 16777216
100
AcDbLine
 10
31.50422785728546
 20
18.83013011007492
 30
0.0
 11
31.50422785728546
 21
20.03213775210107
 31
0.0
  0
LINE
  5
11A2
330
10AD
100
AcDbEntity
  8
Dimension (ANSI)
440
 16777216
100
AcDbLine
 10
31.8541841048271
 20
19.58769330765662
 30
0.0
 11
32.20414035236874
 21
19.58769330765662
 31
0.0
  0
LINE
  5
11A3
330
10AD
100
AcDbEntity
  8
Dimension (ANSI)
440
 16777216
100
AcDbLine
 10
31.02927160974387
 20
19.58769330765662
 30
0.0
 11
30.10497332647447
 21
19.58769330765662
 31
0.0
  0
SOLID
  5
11A4
330
10AD
100
AcDbEntity
  8
Dimension (ANSI)
440
 16777216
100
AcDbTrace
 10
31.8541841048271
 20
19.64601934891356
 30
0.0
 11
31.8541841048271
 21
19.52936726639968
 31
0.0
 12
31.50422785728546
 22
19.58769330765662
 32
0.0
 13
31.50422785728546
 23
19.58769330765662
 33
0.0
  0
SOLID
  5
11A5
330
10AD
100
AcDbEntity
  8
Dimension (ANSI)
440
 16777216
100
AcDbTrace
 10
31.02927160974387
 20
19.64601934891356
 30
0.0
 11
31.02927160974387
 21
19.52936726639968
 31
0.0
 12
31.37922785728551
 22
19.58769330765662
 32
0.0
 13
31.37922785728551
 23
19.58769330765662
 33
0.0
  0
MTEXT
  5
11A6
330
10AD
100
AcDbEntity
  8
Dimension (ANSI)
440
 16777216
100
AcDbMText
 10
28.85859577342941
 20
19.58769330765662
 30
0.0
 40
0.3555555608537462
 41
0.0
 46
0.0
 71
     5
 72
     1
  1
\A1; 10 GA.\P304 S.S.
  7
ROMANS
 73
     1
 44
1.0
  0
POINT
  5
11A7
330
10AD
100
AcDbEntity
  8
Defpoints
 62
     0
440
 16777216
100
AcDbPoint
 10
31.37922785728551
 20
18.2329078878527
 30
0.0
  0
POINT
  5
11A8
330
10AD
100
AcDbEntity
  8
Defpoints
 62
     0
440
 16777216
100
AcDbPoint
 10
31.50422785728546
 20
18.6079078878527
 30
0.0
  0
POINT
  5
11A9
330
10AD
100
AcDbEntity
  8
Defpoints
 62
     0
440
 16777216
100
AcDbPoint
 10
31.50422785728546
 20
19.58769330765662
 30
0.0
  0
ENDBLK
  5
10AF
330
10AD
100
AcDbEntity
  8
0
100
AcDbBlockEnd
  0
BLOCK
  5
11AC
330
11AB
100
AcDbEntity
  8
0
100
AcDbBlockBegin
  2
*D19
 70
     1
 10
0.0
 20
0.0
 30
0.0
  3
*D19
  1

  0
LINE
  5
129B
330
11AB
100
AcDbEntity
  8
Dimension (ANSI)
440
 16777216
100
AcDbLine
 10
12.12875703765706
 20
16.10202313711639
 30
0.0
 11
11.77880079011542
 21
16.10202313711639
 31
0.0
  0
LINE
  5
129C
330
11AB
100
AcDbEntity
  8
Dimension (ANSI)
440
 16777216
100
AcDbLine
 10
13.71516953274035
 20
16.10202313711639
 30
0.0
 11
14.45497913174175
 21
16.10202313711639
 31
0.0
  0
SOLID
  5
129D
330
11AB
100
AcDbEntity
  8
Dimension (ANSI)
440
 16777216
100
AcDbTrace
 10
12.12875703765706
 20
16.16034917837333
 30
0.0
 11
12.12875703765706
 21
16.04369709585945
 31
0.0
 12
12.4787132851987
 22
16.10202313711639
 32
0.0
 13
12.4787132851987
 23
16.10202313711639
 33
0.0
  0
SOLID
  5
129E
330
11AB
100
AcDbEntity
  8
Dimension (ANSI)
440
 16777216
100
AcDbTrace
 10
13.71516953274035
 20
16.16034917837333
 30
0.0
 11
13.71516953274035
 21
16.04369709585945
 31
0.0
 12
13.36521328519871
 22
16.10202313711639
 32
0.0
 13
13.36521328519871
 23
16.10202313711639
 33
0.0
  0
MTEXT
  5
129F
330
11AB
100
AcDbEntity
  8
Dimension (ANSI)
440
 16777216
100
AcDbMText
 10
15.32886990674955
 20
16.10202313711639
 30
0.0
 40
0.3555555608537462
 41
0.0
 46
0.0
 71
     5
 72
     1
  1
\A1;(0.89){\PTYP.}
  7
ROMANS
 73
     1
 44
1.0
  0
POINT
  5
12A0
330
11AB
100
AcDbEntity
  8
Defpoints
 62
     0
440
 16777216
100
AcDbPoint
 10
13.36521328519871
 20
15.86915763347075
 30
0.0
  0
POINT
  5
12A1
330
11AB
100
AcDbEntity
  8
Defpoints
 62
     0
440
 16777216
100
AcDbPoint
 10
12.4787132851987
 20
15.86915763347075
 30
0.0
  0
POINT
  5
12A2
330
11AB
100
AcDbEntity
  8
Defpoints
 62
     0
440
 16777216
100
AcDbPoint
 10
12.4787132851987
 20
16.10202313711639
 30
0.0
  0
ENDBLK
  5
11AD
330
11AB
100
AcDbEntity
  8
0
100
AcDbBlockEnd
  0
BLOCK
  5
12A5
330
12A4
100
AcDbEntity
  8
0
100
AcDbBlockBegin
  2
*D20
 70
     1
 10
0.0
 20
0.0
 30
0.0
  3
*D20
  1

  0
LINE
  5
1394
330
12A4
100
AcDbEntity
  8
Dimension (ANSI)
440
 16777216
100
AcDbLine
 10
6.976669532740339
 20
16.10202313711639
 30
0.0
 11
7.179847526006575
 21
16.10202313711639
 31
0.0
  0
LINE
  5
1395
330
12A4
100
AcDbEntity
  8
Dimension (ANSI)
440
 16777216
100
AcDbLine
 10
12.12875703765706
 20
16.10202313711639
 30
0.0
 11
9.58794654617915
 21
16.10202313711639
 31
0.0
  0
SOLID
  5
1396
330
12A4
100
AcDbEntity
  8
Dimension (ANSI)
440
 16777216
100
AcDbTrace
 10
6.976669532740339
 20
16.16034917837333
 30
0.0
 11
6.976669532740339
 21
16.04369709585945
 31
0.0
 12
6.626713285198699
 22
16.10202313711639
 32
0.0
 13
6.626713285198699
 23
16.10202313711639
 33
0.0
  0
SOLID
  5
1397
330
12A4
100
AcDbEntity
  8
Dimension (ANSI)
440
 16777216
100
AcDbTrace
 10
12.12875703765706
 20
16.16034917837333
 30
0.0
 11
12.12875703765706
 21
16.04369709585945
 31
0.0
 12
12.4787132851987
 22
16.10202313711639
 32
0.0
 13
12.4787132851987
 23
16.10202313711639
 33
0.0
  0
MTEXT
  5
1398
330
12A4
100
AcDbEntity
  8
Dimension (ANSI)
440
 16777216
100
AcDbMText
 10
8.383897036092863
 20
16.10202313711639
 30
0.0
 40
0.3555555608537462
 41
0.0
 46
0.0
 71
     5
 72
     1
  1
\A1;(5.85){\POPENING\P(2 PL.)}
  7
ROMANS
 73
     1
 44
1.0
  0
POINT
  5
1399
330
12A4
100
AcDbEntity
  8
Defpoints
 62
     0
440
 16777216
100
AcDbPoint
 10
6.626713285198699
 20
15.86915763347075
 30
0.0
  0
POINT
  5
139A
330
12A4
100
AcDbEntity
  8
Defpoints
 62
     0
440
 16777216
100
AcDbPoint
 10
12.4787132851987
 20
15.86915763347075
 30
0.0
  0
POINT
  5
139B
330
12A4
100
AcDbEntity
  8
Defpoints
 62
     0
440
 16777216
100
AcDbPoint
 10
12.4787132851987
 20
16.10202313711639
 30
0.0
  0
ENDBLK
  5
12A6
330
12A4
100
AcDbEntity
  8
0
100
AcDbBlockEnd
  0
BLOCK
  5
139E
330
139D
100
AcDbEntity
  8
0
100
AcDbBlockBegin
  2
*D21
 70
     1
 10
0.0
 20
0.0
 30
0.0
  3
*D21
  1

  0
LINE
  5
148D
330
139D
100
AcDbEntity
  8
Dimension (ANSI)
440
 16777216
100
AcDbLine
 10
10.93145830640232
 20
12.21936413539434
 30
0.0
 11
10.93145830640232
 21
12.62145978734732
 31
0.0
  0
LINE
  5
148E
330
139D
100
AcDbEntity
  8
Dimension (ANSI)
440
 16777216
100
AcDbLine
 10
10.93145830640232
 20
17.37245164031102
 30
0.0
 11
10.93145830640232
 21
14.64014081229913
 31
0.0
  0
SOLID
  5
148F
330
139D
100
AcDbEntity
  8
Dimension (ANSI)
440
 16777216
100
AcDbTrace
 10
10.87313226514538
 20
12.21936413539434
 30
0.0
 11
10.98978434765926
 21
12.21936413539434
 31
0.0
 12
10.93145830640232
 22
11.8694078878527
 32
0.0
 13
10.93145830640232
 23
11.8694078878527
 33
0.0
  0
SOLID
  5
1490
330
139D
100
AcDbEntity
  8
Dimension (ANSI)
440
 16777216
100
AcDbTrace
 10
10.87313226514538
 20
17.37245164031102
 30
0.0
 11
10.98978434765926
 21
17.37245164031102
 31
0.0
 12
10.93145830640232
 22
17.72240788785266
 32
0.0
 13
10.93145830640232
 23
17.72240788785266
 33
0.0
  0
MTEXT
  5
1491
330
139D
100
AcDbEntity
  8
Dimension (ANSI)
440
 16777216
100
AcDbMText
 10
10.93145830640232
 20
13.63080029982322
 30
0.0
 40
0.3555555608537462
 41
0.0
 46
0.0
 71
     5
 72
     1
  1
\A1;(5.85){\POPENING\P(2 PL.)}
  7
ROMANS
 73
     1
 44
1.0
  0
POINT
  5
1492
330
139D
100
AcDbEntity
  8
Defpoints
 62
     0
440
 16777216
100
AcDbPoint
 10
10.88443591008148
 20
11.8694078878527
 30
0.0
  0
POINT
  5
1493
330
139D
100
AcDbEntity
  8
Defpoints
 62
     0
440
 16777216
100
AcDbPoint
 10
10.8844359100815
 20
17.72240788785266
 30
0.0
  0
POINT
  5
1494
330
139D
100
AcDbEntity
  8
Defpoints
 62
     0
440
 16777216
100
AcDbPoint
 10
10.93145830640232
 20
17.72240788785266
 30
0.0
  0
ENDBLK
  5
139F
330
139D
100
AcDbEntity
  8
0
100
AcDbBlockEnd
  0
ENDSEC
  0
SECTION
  2
ENTITIES
  0
MTEXT
  5
107
102
{ACAD_XDICTIONARY
360
149A
102
}
330
6C
100
AcDbEntity
  8
Symbol (ANSI)
100
AcDbMText
 10
18.97881253996445
 20
31.25450733932202
 30
0.0
 40
0.3555555669028615
 41
26.08881639554539
 46
0.0
 71
     4
 72
     1
  3
{\fRomanS|b0|i0|c0|p2;\H1.9499x;PART#: SSJWL906\P(DATA SUBJECT TO CHANGE WITHOUT NOTICE)\H1.8771x; \H0.53273x;\P\H0.51291x; \H2.4636x; \H0.40591x;\PTHIS DRAWING IS PROPERTY OF hUBBELL INC. WEIGMANN\H1.6952x; \H0.5899x;\PALL INFORMATION IS PROPRIETARY
  1
 AND NOT TO BE DUPLICATED\H1.588x; \H0.62972x;\P\H1.5731x; }
  7
Note Text (ANSI)
 73
     1
 44
0.6453872919082642
  0
LINE
  5
10A
330
6C
100
AcDbEntity
  8
Visible (ANSI)
100
AcDbLine
 10
12.5527132851987
 20
14.7016578878527
 30
0.0
 11
12.4787132851987
 21
14.7016578878527
 31
0.0
  0
LINE
  5
10B
330
6C
100
AcDbEntity
  8
Visible (ANSI)
100
AcDbLine
 10
12.4787132851987
 20
14.7016578878527
 30
0.0
 11
12.4787132851987
 21
14.8891578878527
 31
0.0
  0
LINE
  5
10C
330
6C
100
AcDbEntity
  8
Visible (ANSI)
100
AcDbLine
 10
12.5527132851987
 20
14.8891578878527
 30
0.0
 11
12.5527132851987
 21
14.8537828878527
 31
0.0
  0
LINE
  5
10D
330
6C
100
AcDbEntity
  8
Visible (ANSI)
100
AcDbLine
 10
12.5527132851987
 20
14.73703288785271
 30
0.0
 11
12.5527132851987
 21
14.7016578878527
 31
0.0
  0
LINE
  5
10E
330
6C
100
AcDbEntity
  8
Visible (ANSI)
100
AcDbLine
 10
12.4787132851987
 20
14.8891578878527
 30
0.0
 11
12.5527132851987
 21
14.8891578878527
 31
0.0
  0
LINE
  5
10F
330
6C
100
AcDbEntity
  8
Visible (ANSI)
100
AcDbLine
 10
12.4787132851987
 20
14.7016578878527
 30
0.0
 11
12.4787132851987
 21
11.8694078878527
 31
0.0
  0
LINE
  5
110
330
6C
100
AcDbEntity
  8
Visible (ANSI)
100
AcDbLine
 10
12.4787132851987
 20
11.8694078878527
 30
0.0
 11
12.5527132851987
 21
11.8694078878527
 31
0.0
  0
LINE
  5
111
330
6C
100
AcDbEntity
  8
Visible (ANSI)
100
AcDbLine
 10
12.5527132851987
 20
11.8694078878527
 30
0.0
 11
12.5527132851987
 21
14.7016578878527
 31
0.0
  0
LINE
  5
112
330
6C
100
AcDbEntity
  8
Visible (ANSI)
100
AcDbLine
 10
12.5527132851987
 20
14.8891578878527
 30
0.0
 11
12.5527132851987
 21
17.7214078878527
 31
0.0
  0
LINE
  5
113
330
6C
100
AcDbEntity
  8
Visible (ANSI)
100
AcDbLine
 10
12.4787132851987
 20
17.7214078878527
 30
0.0
 11
12.5527132851987
 21
17.7214078878527
 31
0.0
  0
LINE
  5
114
330
6C
100
AcDbEntity
  8
Visible (ANSI)
100
AcDbLine
 10
12.4787132851987
 20
17.7214078878527
 30
0.0
 11
12.4787132851987
 21
14.8891578878527
 31
0.0
  0
LINE
  5
115
330
6C
100
AcDbEntity
  8
Visible (ANSI)
100
AcDbLine
 10
12.5527132851987
 20
20.2954078878527
 30
0.0
 11
12.5527132851987
 21
20.6589078878527
 31
0.0
  0
LINE
  5
116
330
6C
100
AcDbEntity
  8
Visible (ANSI)
100
AcDbLine
 10
12.5527132851987
 20
17.7214078878527
 30
0.0
 11
12.5527132851987
 21
17.74654825263721
 31
0.0
  0
LINE
  5
117
330
6C
100
AcDbEntity
  8
Visible (ANSI)
100
AcDbLine
 10
12.5527132851987
 20
18.60790788785271
 30
0.0
 11
12.5527132851987
 21
20.2954078878527
 31
0.0
  0
LINE
  5
118
330
6C
100
AcDbEntity
  8
Visible (ANSI)
100
AcDbLine
 10
12.4787132851987
 20
20.2954078878527
 30
0.0
 11
12.5527132851987
 21
20.2954078878527
 31
0.0
  0
LINE
  5
119
330
6C
100
AcDbEntity
  8
Visible (ANSI)
100
AcDbLine
 10
12.4787132851987
 20
17.72240788785266
 30
0.0
 11
12.4787132851987
 21
17.7214078878527
 31
0.0
  0
LINE
  5
11A
330
6C
100
AcDbEntity
  8
Visible (ANSI)
100
AcDbLine
 10
9.458963285198686
 20
11.79540788785271
 30
0.0
 11
9.458963285198686
 21
11.8694078878527
 31
0.0
  0
LINE
  5
11B
330
6C
100
AcDbEntity
  8
Visible (ANSI)
100
AcDbLine
 10
9.458963285198686
 20
11.8694078878527
 30
0.0
 11
9.646463285198686
 21
11.8694078878527
 31
0.0
  0
LINE
  5
11C
330
6C
100
AcDbEntity
  8
Visible (ANSI)
100
AcDbLine
 10
9.646463285198686
 20
11.79540788785271
 30
0.0
 11
9.611088285198686
 21
11.79540788785271
 31
0.0
  0
LINE
  5
11D
330
6C
100
AcDbEntity
  8
Visible (ANSI)
100
AcDbLine
 10
9.494338285198693
 20
11.79540788785271
 30
0.0
 11
9.458963285198686
 21
11.79540788785271
 31
0.0
  0
LINE
  5
11E
330
6C
100
AcDbEntity
  8
Visible (ANSI)
100
AcDbLine
 10
9.646463285198686
 20
11.8694078878527
 30
0.0
 11
9.646463285198686
 21
11.79540788785271
 31
0.0
  0
LINE
  5
11F
330
6C
100
AcDbEntity
  8
Visible (ANSI)
100
AcDbLine
 10
6.657963285198698
 20
11.79540788785271
 30
0.0
 11
9.458963285198688
 21
11.79540788785271
 31
0.0
  0
LINE
  5
120
330
6C
100
AcDbEntity
  8
Visible (ANSI)
100
AcDbLine
 10
9.646463285198686
 20
11.79540788785271
 30
0.0
 11
12.47871328519867
 21
11.7954078878527
 31
0.0
  0
LINE
  5
121
330
6C
100
AcDbEntity
  8
Visible (ANSI)
100
AcDbLine
 10
9.458963285198686
 20
11.8694078878527
 30
0.0
 11
6.657963285198698
 21
11.86940788785271
 31
0.0
  0
LINE
  5
122
330
6C
100
AcDbEntity
  8
Visible (ANSI)
100
AcDbLine
 10
12.47871328519867
 20
11.8694078878527
 30
0.0
 11
9.646463285198686
 21
11.8694078878527
 31
0.0
  0
LINE
  5
123
330
6C
100
AcDbEntity
  8
Visible (ANSI)
100
AcDbLine
 10
12.47871328519867
 20
11.8694078878527
 30
0.0
 11
12.47871328519867
 21
11.7954078878527
 31
0.0
  0
LINE
  5
124
330
6C
100
AcDbEntity
  8
Visible (ANSI)
100
AcDbLine
 10
6.552713285198699
 20
14.88915788785269
 30
0.0
 11
6.626713285198698
 21
14.88915788785269
 31
0.0
  0
LINE
  5
125
330
6C
100
AcDbEntity
  8
Visible (ANSI)
100
AcDbLine
 10
6.626713285198698
 20
14.70165788785269
 30
0.0
 11
6.552713285198699
 21
14.70165788785269
 31
0.0
  0
LINE
  5
126
330
6C
100
AcDbEntity
  8
Visible (ANSI)
100
AcDbLine
 10
6.626713285198698
 20
14.88915788785269
 30
0.0
 11
6.626713285198698
 21
14.70165788785269
 31
0.0
  0
LINE
  5
127
330
6C
100
AcDbEntity
  8
Visible (ANSI)
100
AcDbLine
 10
6.552713285198699
 20
14.70165788785269
 30
0.0
 11
6.552713285198699
 21
14.73703288785269
 31
0.0
  0
LINE
  5
128
330
6C
100
AcDbEntity
  8
Visible (ANSI)
100
AcDbLine
 10
6.552713285198699
 20
14.8537828878527
 30
0.0
 11
6.552713285198699
 21
14.88915788785269
 31
0.0
  0
LINE
  5
129
330
6C
100
AcDbEntity
  8
Visible (ANSI)
100
AcDbLine
 10
6.626713285198698
 20
17.72140788785268
 30
0.0
 11
6.626713285198698
 21
17.72240788785265
 31
0.0
  0
LINE
  5
12A
330
6C
100
AcDbEntity
  8
Visible (ANSI)
100
AcDbLine
 10
6.626713285198698
 20
14.88915788785269
 30
0.0
 11
6.626713285198698
 21
17.72140788785268
 31
0.0
  0
LINE
  5
12B
330
6C
100
AcDbEntity
  8
Visible (ANSI)
100
AcDbLine
 10
6.626713285198698
 20
11.90065788785271
 30
0.0
 11
6.626713285198698
 21
14.70165788785269
 31
0.0
  0
LINE
  5
12C
330
6C
100
AcDbEntity
  8
Visible (ANSI)
100
AcDbLine
 10
6.552713285198699
 20
14.70165788785269
 30
0.0
 11
6.552713285198699
 21
11.90065788785271
 31
0.0
  0
LINE
  5
12D
330
6C
100
AcDbEntity
  8
Visible (ANSI)
100
AcDbLine
 10
6.552713285198699
 20
17.72140788785268
 30
0.0
 11
6.552713285198699
 21
14.88915788785269
 31
0.0
  0
LINE
  5
12E
330
6C
100
AcDbEntity
  8
Visible (ANSI)
100
AcDbLine
 10
6.552713285198699
 20
20.29540788785268
 30
0.0
 11
6.552713285198699
 21
18.60790788785268
 31
0.0
  0
LINE
  5
12F
330
6C
100
AcDbEntity
  8
Visible (ANSI)
100
AcDbLine
 10
6.552713285198699
 20
17.74654825263716
 30
0.0
 11
6.552713285198699
 21
17.72140788785268
 31
0.0
  0
LINE
  5
130
330
6C
100
AcDbEntity
  8
Visible (ANSI)
100
AcDbLine
 10
6.552713285198699
 20
20.65890788785266
 30
0.0
 11
6.552713285198699
 21
20.29540788785268
 31
0.0
  0
LINE
  5
131
330
6C
100
AcDbEntity
  8
Visible (ANSI)
100
AcDbLine
 10
6.552713285198699
 20
17.72140788785268
 30
0.0
 11
6.626713285198698
 21
17.72140788785268
 31
0.0
  0
LINE
  5
132
330
6C
100
AcDbEntity
  8
Visible (ANSI)
100
AcDbLine
 10
6.552713285198699
 20
20.29540788785268
 30
0.0
 11
6.626713285198698
 21
20.29540788785268
 31
0.0
  0
ARC
  5
133
330
6C
100
AcDbEntity
  8
Visible (ANSI)
100
AcDbCircle
 10
6.657963285198698
 20
11.90065788785271
 30
0.0
 40
0.1052499999999996
100
AcDbArc
 50
180.0
 51
270.0
  0
ARC
  5
134
330
6C
100
AcDbEntity
  8
Visible (ANSI)
100
AcDbCircle
 10
6.657963285198698
 20
11.90065788785271
 30
0.0
 40
0.0312499999999999
100
AcDbArc
 50
180.0
 51
270.0
  0
LINE
  5
135
330
6C
100
AcDbEntity
  8
Visible (ANSI)
100
AcDbLine
 10
12.47871328519876
 20
17.79640788785265
 30
0.0
 11
12.47871328519876
 21
17.72240788785266
 31
0.0
  0
LINE
  5
136
330
6C
100
AcDbEntity
  8
Visible (ANSI)
100
AcDbLine
 10
6.626713285198756
 20
17.79640788785268
 30
0.0
 11
12.47871328519876
 21
17.79640788785266
 31
0.0
  0
LINE
  5
137
330
6C
100
AcDbEntity
  8
Visible (ANSI)
100
AcDbLine
 10
6.626713285198756
 20
17.79640788785268
 30
0.0
 11
6.626713285198756
 21
17.72240788785268
 31
0.0
  0
LINE
  5
138
330
6C
100
AcDbEntity
  8
Visible (ANSI)
100
AcDbLine
 10
6.626713285198756
 20
17.72240788785268
 30
0.0
 11
12.47871328519876
 21
17.72240788785266
 31
0.0
  0
LINE
  5
139
330
6C
100
AcDbEntity
  8
Visible (ANSI)
100
AcDbLine
 10
6.626713285198756
 20
20.6589078878527
 30
0.0
 11
6.626713285198755
 21
20.33987254881147
 31
0.0
  0
LINE
  5
13A
330
6C
100
AcDbEntity
  8
Visible (ANSI)
100
AcDbLine
 10
12.47871328519876
 20
20.6589078878527
 30
0.0
 11
12.47871328519876
 21
20.33987254881145
 31
0.0
  0
LINE
  5
13B
330
6C
100
AcDbEntity
  8
Visible (ANSI)
100
AcDbLine
 10
6.626713285198755
 20
17.79640788785268
 30
0.0
 11
6.626713285198755
 21
17.8055608009406
 31
0.0
  0
LINE
  5
13C
330
6C
100
AcDbEntity
  8
Visible (ANSI)
100
AcDbLine
 10
12.47871328519876
 20
17.79640788785266
 30
0.0
 11
12.47871328519876
 21
17.80556080094058
 31
0.0
  0
LINE
  5
13D
330
6C
100
AcDbEntity
  8
Visible (ANSI)
100
AcDbLine
 10
12.47871328519876
 20
20.33987254881145
 30
0.0
 11
12.47871328519876
 21
20.31777546189937
 31
0.0
  0
LINE
  5
13E
330
6C
100
AcDbEntity
  8
Visible (ANSI)
100
AcDbLine
 10
6.626713285198754
 20
20.33987254881147
 30
0.0
 11
6.626713285198754
 21
20.31777546189939
 31
0.0
  0
LINE
  5
13F
330
6C
100
AcDbEntity
  8
Visible (ANSI)
100
AcDbLine
 10
6.626713285198755
 20
17.8055608009406
 30
0.0
 11
6.626713285198755
 21
17.80592287648814
 31
0.0
  0
LINE
  5
140
330
6C
100
AcDbEntity
  8
Visible (ANSI)
100
AcDbLine
 10
6.626713285198755
 20
18.60790788785271
 30
0.0
 11
6.626713285198755
 21
20.31777546189939
 31
0.0
  0
LINE
  5
141
330
6C
100
AcDbEntity
  8
Visible (ANSI)
100
AcDbLine
 10
12.47871328519876
 20
20.31777546189937
 30
0.0
 11
12.47871328519876
 21
18.60790788785271
 31
0.0
  0
LINE
  5
142
330
6C
100
AcDbEntity
  8
Visible (ANSI)
100
AcDbLine
 10
12.47871328519876
 20
17.80592287648811
 30
0.0
 11
12.47871328519876
 21
17.80556080094058
 31
0.0
  0
LINE
  5
143
330
6C
100
AcDbEntity
  8
Visible (ANSI)
100
AcDbLine
 10
9.552713285198704
 20
11.85378288785271
 30
0.0
 11
9.478713285198702
 21
11.7797828878527
 31
0.0
  0
LINE
  5
144
330
6C
100
AcDbEntity
  8
Visible (ANSI)
100
AcDbLine
 10
9.626713285198702
 20
11.7797828878527
 30
0.0
 11
9.552713285198704
 21
11.85378288785271
 31
0.0
  0
LINE
  5
145
330
6C
100
AcDbEntity
  8
Visible (ANSI)
100
AcDbLine
 10
6.537088285198699
 20
14.72140788785271
 30
0.0
 11
6.611088285198699
 21
14.79540788785271
 31
0.0
  0
LINE
  5
146
330
6C
100
AcDbEntity
  8
Visible (ANSI)
100
AcDbLine
 10
6.611088285198699
 20
14.79540788785271
 30
0.0
 11
6.537088285198699
 21
14.86940788785271
 31
0.0
  0
LINE
  5
147
330
6C
100
AcDbEntity
  8
Visible (ANSI)
100
AcDbLine
 10
12.56833828519871
 20
14.8694078878527
 30
0.0
 11
12.49433828519871
 21
14.7954078878527
 31
0.0
  0
LINE
  5
148
330
6C
100
AcDbEntity
  8
Visible (ANSI)
100
AcDbLine
 10
12.49433828519871
 20
14.7954078878527
 30
0.0
 11
12.56833828519871
 21
14.7214078878527
 31
0.0
  0
LINE
  5
149
330
6C
100
AcDbEntity
  8
Visible (ANSI)
100
AcDbLine
 10
9.478713285198702
 20
11.7797828878527
 30
0.0
 11
6.662088285198698
 21
11.77978288785271
 31
0.0
  0
LINE
  5
14A
330
6C
100
AcDbEntity
  8
Visible (ANSI)
100
AcDbLine
 10
12.44333828519871
 20
11.7797828878527
 30
0.0
 11
9.626713285198702
 21
11.7797828878527
 31
0.0
  0
LINE
  5
14B
330
6C
100
AcDbEntity
  8
Visible (ANSI)
100
AcDbLine
 10
6.537088285198699
 20
14.86940788785271
 30
0.0
 11
6.537088285198701
 21
17.68603288785271
 31
0.0
  0
LINE
  5
14C
330
6C
100
AcDbEntity
  8
Visible (ANSI)
100
AcDbLine
 10
6.537088285198699
 20
11.90478288785271
 30
0.0
 11
6.537088285198699
 21
14.72140788785271
 31
0.0
  0
LINE
  5
14D
330
6C
100
AcDbEntity
  8
Visible (ANSI)
100
AcDbLine
 10
12.56833828519871
 20
17.6860328878527
 30
0.0
 11
12.56833828519871
 21
14.8694078878527
 31
0.0
  0
LINE
  5
14E
330
6C
100
AcDbEntity
  8
Visible (ANSI)
100
AcDbLine
 10
12.56833828519871
 20
14.7214078878527
 30
0.0
 11
12.56833828519871
 21
11.9047828878527
 31
0.0
  0
ARC
  5
14F
330
6C
100
AcDbEntity
  8
Visible (ANSI)
100
AcDbCircle
 10
6.662088285198697
 20
11.90478288785271
 30
0.0
 40
0.124999999999999
100
AcDbArc
 50
180.0
 51
270.0000000000011
  0
ARC
  5
150
330
6C
100
AcDbEntity
  8
Visible (ANSI)
100
AcDbCircle
 10
6.662088285198702
 20
17.68603288785271
 30
0.0
 40
0.1249999999999998
100
AcDbArc
 50
89.99999999999943
 51
180.0
  0
LINE
  5
151
330
6C
100
AcDbEntity
  8
Visible (ANSI)
100
AcDbLine
 10
6.662088285198702
 20
17.81103288785271
 30
0.0
 11
12.44333828519871
 21
17.8110328878527
 31
0.0
  0
ARC
  5
152
330
6C
100
AcDbEntity
  8
Visible (ANSI)
100
AcDbCircle
 10
12.44333828519871
 20
17.6860328878527
 30
0.0
 40
0.1249999999999994
100
AcDbArc
 50
0.0
 51
90.0
  0
ARC
  5
153
330
6C
100
AcDbEntity
  8
Visible (ANSI)
100
AcDbCircle
 10
12.44333828519871
 20
11.9047828878527
 30
0.0
 40
0.1249999999999998
100
AcDbArc
 50
269.9999999999989
 51
0.0
  0
ARC
  5
154
330
6C
100
AcDbEntity
  8
Visible (ANSI)
100
AcDbCircle
 10
6.115213285198699
 20
11.35790788785271
 30
0.0
 40
0.375000000000002
100
AcDbArc
 50
180.0
 51
270.0
  0
LINE
  5
155
330
6C
100
AcDbEntity
  8
Visible (ANSI)
100
AcDbLine
 10
5.740213285198699
 20
11.35790788785271
 30
0.0
 11
5.7402132851987
 21
18.23290788785271
 31
0.0
  0
ARC
  5
156
330
6C
100
AcDbEntity
  8
Visible (ANSI)
100
AcDbCircle
 10
6.1152132851987
 20
18.23290788785271
 30
0.0
 40
0.3750000000000007
100
AcDbArc
 50
89.99999999999962
 51
180.0
  0
LINE
  5
157
330
6C
100
AcDbEntity
  8
Visible (ANSI)
100
AcDbLine
 10
6.1152132851987
 20
18.60790788785271
 30
0.0
 11
12.99021328519871
 21
18.6079078878527
 31
0.0
  0
ARC
  5
158
330
6C
100
AcDbEntity
  8
Visible (ANSI)
100
AcDbCircle
 10
12.99021328519871
 20
18.2329078878527
 30
0.0
 40
0.3750000000000007
100
AcDbArc
 50
0.0
 51
90.0
  0
LINE
  5
159
330
6C
100
AcDbEntity
  8
Visible (ANSI)
100
AcDbLine
 10
13.36521328519871
 20
18.2329078878527
 30
0.0
 11
13.36521328519871
 21
11.3579078878527
 31
0.0
  0
ARC
  5
15A
330
6C
100
AcDbEntity
  8
Visible (ANSI)
100
AcDbCircle
 10
12.9902132851987
 20
11.3579078878527
 30
0.0
 40
0.3750000000000022
100
AcDbArc
 50
270.0
 51
0.0
  0
LINE
  5
15B
330
6C
100
AcDbEntity
  8
Visible (ANSI)
100
AcDbLine
 10
12.99021328519871
 20
10.9829078878527
 30
0.0
 11
6.115213285198699
 21
10.98290788785271
 31
0.0
  0
CIRCLE
  5
15C
330
6C
100
AcDbEntity
  8
Visible (ANSI)
100
AcDbCircle
 10
12.99021328519871
 20
14.7954078878527
 30
0.0
 40
0.1406250000000003
  0
CIRCLE
  5
15D
330
6C
100
AcDbEntity
  8
Visible (ANSI)
100
AcDbCircle
 10
9.552713285198702
 20
11.3579078878527
 30
0.0
 40
0.1406250000000001
  0
CIRCLE
  5
15E
330
6C
100
AcDbEntity
  8
Visible (ANSI)
100
AcDbCircle
 10
6.1152132851987
 20
14.79540788785271
 30
0.0
 40
0.1406250000000003
  0
CIRCLE
  5
15F
330
6C
100
AcDbEntity
  8
Visible (ANSI)
100
AcDbCircle
 10
9.552713285198704
 20
18.23290788785271
 30
0.0
 40
0.1406250000000001
  0
CIRCLE
  5
160
330
6C
100
AcDbEntity
  8
Visible (ANSI)
100
AcDbCircle
 10
6.240213285198701
 20
18.10790788785271
 30
0.0
 40
0.1406250000000002
  0
CIRCLE
  5
161
330
6C
100
AcDbEntity
  8
Visible (ANSI)
100
AcDbCircle
 10
12.86521328519871
 20
18.1079078878527
 30
0.0
 40
0.1406250000000002
  0
CIRCLE
  5
162
330
6C
100
AcDbEntity
  8
Visible (ANSI)
100
AcDbCircle
 10
6.240213285198696
 20
11.48290788785271
 30
0.0
 40
0.1406250000000002
  0
CIRCLE
  5
163
330
6C
100
AcDbEntity
  8
Visible (ANSI)
100
AcDbCircle
 10
12.8652132851987
 20
11.4829078878527
 30
0.0
 40
0.1406250000000002
  0
LINE
  5
164
330
6C
100
AcDbEntity
  8
Visible (ANSI)
100
AcDbLine
 10
13.36521328519868
 20
20.6589078878527
 30
0.0
 11
13.36521328519868
 21
20.7839078878527
 31
0.0
  0
LINE
  5
165
330
6C
100
AcDbEntity
  8
Visible (ANSI)
100
AcDbLine
 10
12.99021328519869
 20
20.7839078878527
 30
0.0
 11
13.36521328519868
 21
20.7839078878527
 31
0.0
  0
LINE
  5
166
330
6C
100
AcDbEntity
  8
Visible (ANSI)
100
AcDbLine
 10
13.36521328519868
 20
20.6589078878527
 30
0.0
 11
12.99021328519868
 21
20.6589078878527
 31
0.0
  0
LINE
  5
167
330
6C
100
AcDbEntity
  8
Visible (ANSI)
100
AcDbLine
 10
12.99021328519869
 20
20.7839078878527
 30
0.0
 11
6.115213285198682
 21
20.7839078878527
 31
0.0
  0
LINE
  5
168
330
6C
100
AcDbEntity
  8
Visible (ANSI)
100
AcDbLine
 10
6.115213285198683
 20
20.6589078878527
 30
0.0
 11
12.99021328519869
 21
20.6589078878527
 31
0.0
  0
LINE
  5
169
330
6C
100
AcDbEntity
  8
Visible (ANSI)
100
AcDbLine
 10
5.740213285198681
 20
20.7839078878527
 30
0.0
 11
6.115213285198682
 21
20.7839078878527
 31
0.0
  0
LINE
  5
16A
330
6C
100
AcDbEntity
  8
Visible (ANSI)
100
AcDbLine
 10
5.740213285198682
 20
20.6589078878527
 30
0.0
 11
5.740213285198682
 21
20.7839078878527
 31
0.0
  0
LINE
  5
16B
330
6C
100
AcDbEntity
  8
Visible (ANSI)
100
AcDbLine
 10
6.115213285198682
 20
20.6589078878527
 30
0.0
 11
5.740213285198681
 21
20.6589078878527
 31
0.0
  0
MTEXT
  5
16D
330
6C
100
AcDbEntity
  8
Symbol (ANSI)
100
AcDbMText
 10
8.019587820170928
 20
6.723665591638265
 30
0.0
 40
0.4266666719398265
 41
0.0
 46
0.0
 71
     7
 72
     1
  1
FRONT VIEW
  7
Text Style168
 73
     1
 44
1.0
  0
LINE
  5
16F
330
6C
100
AcDbEntity
  8
Symbol (ANSI)
370
    30
100
AcDbLine
 10
7.976921043749996
 20
6.636655325416434
 30
0.0
 11
11.40719661454351
 21
6.636655325416434
 31
0.0
  0
LINE
  5
170
330
6C
100
AcDbEntity
  8
Visible (ANSI)
100
AcDbLine
 10
40.26247785728521
 20
11.8694078878527
 30
0.0
 11
31.50422785728526
 21
11.8694078878527
 31
0.0
  0
LINE
  5
171
330
6C
100
AcDbEntity
  8
Visible (ANSI)
100
AcDbLine
 10
34.44172785728522
 20
20.2954078878527
 30
0.0
 11
34.44172785728522
 21
20.6589078878527
 31
0.0
  0
LINE
  5
172
330
6C
100
AcDbEntity
  8
Visible (ANSI)
100
AcDbLine
 10
31.86772785728522
 20
17.7214078878527
 30
0.0
 11
34.44172785728522
 21
20.2954078878527
 31
0.0
  0
LINE
  5
173
330
6C
100
AcDbEntity
  8
Visible (ANSI)
100
AcDbLine
 10
31.50422785728527
 20
17.7214078878527
 30
0.0
 11
31.86772785728522
 21
17.7214078878527
 31
0.0
  0
LINE
  5
174
330
6C
100
AcDbEntity
  8
Visible (ANSI)
100
AcDbLine
 10
40.36772785728518
 20
20.6589078878527
 30
0.0
 11
40.36772785728518
 21
11.8694078878527
 31
0.0
  0
LINE
  5
175
330
6C
100
AcDbEntity
  8
Visible (ANSI)
100
AcDbLine
 10
40.26247785728521
 20
11.8694078878527
 30
0.0
 11
40.36772785728518
 21
11.8694078878527
 31
0.0
  0
LINE
  5
176
330
6C
100
AcDbEntity
  8
Visible (ANSI)
100
AcDbLine
 10
31.50422785728529
 20
11.7954078878527
 30
0.0
 11
40.29372785728521
 21
11.7954078878527
 31
0.0
  0
LINE
  5
177
330
6C
100
AcDbEntity
  8
Visible (ANSI)
100
AcDbLine
 10
40.29372785728521
 20
11.8694078878527
 30
0.0
 11
40.29372785728521
 21
11.7954078878527
 31
0.0
  0
ARC
  5
178
330
6C
100
AcDbEntity
  8
Visible (ANSI)
100
AcDbCircle
 10
31.82513187984544
 20
17.82765788785266
 30
0.0
 40
0.1052500000000007
100
AcDbArc
 50
270.0
 51
314.9999999999991
  0
ARC
  5
179
330
6C
100
AcDbEntity
  8
Visible (ANSI)
100
AcDbCircle
 10
31.82513187984545
 20
17.82765788785266
 30
0.0
 40
0.0312499999999998
100
AcDbArc
 50
270.0
 51
315.0
  0
ARC
  5
17A
330
6C
100
AcDbEntity
  8
Visible (ANSI)
100
AcDbCircle
 10
34.33734654080424
 20
20.33987254881145
 30
0.0
 40
0.1052500000000023
100
AcDbArc
 50
315.000000000001
 51
352.63357914665
  0
ARC
  5
17B
330
6C
100
AcDbEntity
  8
Visible (ANSI)
100
AcDbCircle
 10
34.33734654080424
 20
20.33987254881145
 30
0.0
 40
0.0312500000000021
100
AcDbArc
 50
315.0000000000065
 51
0.0
  0
LINE
  5
17C
330
6C
100
AcDbEntity
  8
Visible (ANSI)
100
AcDbLine
 10
31.50422785728525
 20
17.79640788785266
 30
0.0
 11
31.82513187984544
 21
17.79640788785266
 31
0.0
  0
LINE
  5
17D
330
6C
100
AcDbEntity
  8
Visible (ANSI)
100
AcDbLine
 10
31.50422785728525
 20
17.72240788785266
 30
0.0
 11
31.82513187984544
 21
17.72240788785266
 31
0.0
  0
LINE
  5
17E
330
6C
100
AcDbEntity
  8
Visible (ANSI)
100
AcDbLine
 10
34.36859654080424
 20
20.65890788785269
 30
0.0
 11
34.36859654080424
 21
20.33987254881145
 31
0.0
  0
LINE
  5
17F
330
6C
100
AcDbEntity
  8
Visible (ANSI)
100
AcDbLine
 10
34.35944362771632
 20
20.31777546189937
 30
0.0
 11
31.84722896675752
 21
17.80556080094058
 31
0.0
  0
LINE
  5
180
330
6C
100
AcDbEntity
  8
Visible (ANSI)
100
AcDbLine
 10
31.5042278572854
 20
18.6079078878527
 30
0.0
 11
31.3792278572854
 21
18.6079078878527
 31
0.0
  0
LINE
  5
181
330
6C
100
AcDbEntity
  8
Visible (ANSI)
100
AcDbLine
 10
31.37922785728551
 20
18.2329078878527
 30
0.0
 11
31.3792278572854
 21
18.6079078878527
 31
0.0
  0
LINE
  5
182
330
6C
100
AcDbEntity
  8
Visible (ANSI)
100
AcDbLine
 10
31.5042278572854
 20
18.6079078878527
 30
0.0
 11
31.50422785728551
 21
18.2329078878527
 31
0.0
  0
LINE
  5
183
330
6C
100
AcDbEntity
  8
Visible (ANSI)
100
AcDbLine
 10
31.37922785728551
 20
18.2329078878527
 30
0.0
 11
31.3792278572855
 21
11.3579078878527
 31
0.0
  0
LINE
  5
184
330
6C
100
AcDbEntity
  8
Visible (ANSI)
100
AcDbLine
 10
31.5042278572855
 20
11.3579078878527
 30
0.0
 11
31.50422785728551
 21
18.2329078878527
 31
0.0
  0
LINE
  5
185
330
6C
100
AcDbEntity
  8
Visible (ANSI)
100
AcDbLine
 10
31.37922785728539
 20
10.9829078878527
 30
0.0
 11
31.3792278572855
 21
11.3579078878527
 31
0.0
  0
LINE
  5
186
330
6C
100
AcDbEntity
  8
Visible (ANSI)
100
AcDbLine
 10
31.50422785728539
 20
10.9829078878527
 30
0.0
 11
31.37922785728539
 21
10.9829078878527
 31
0.0
  0
LINE
  5
187
330
6C
100
AcDbEntity
  8
Visible (ANSI)
100
AcDbLine
 10
31.5042278572855
 20
11.3579078878527
 30
0.0
 11
31.50422785728539
 21
10.9829078878527
 31
0.0
  0
LINE
  5
188
330
6C
100
AcDbEntity
  8
Visible (ANSI)
100
AcDbLine
 10
40.80522785728546
 20
20.7839078878527
 30
0.0
 11
41.18022785728535
 21
20.7839078878527
 31
0.0
  0
LINE
  5
189
330
6C
100
AcDbEntity
  8
Visible (ANSI)
100
AcDbLine
 10
41.18022785728535
 20
20.6589078878527
 30
0.0
 11
40.80522785728546
 21
20.6589078878527
 31
0.0
  0
LINE
  5
18A
330
6C
100
AcDbEntity
  8
Visible (ANSI)
100
AcDbLine
 10
41.18022785728535
 20
20.6589078878527
 30
0.0
 11
41.18022785728535
 21
20.7839078878527
 31
0.0
  0
LINE
  5
18B
330
6C
100
AcDbEntity
  8
Visible (ANSI)
100
AcDbLine
 10
40.80522785728546
 20
20.7839078878527
 30
0.0
 11
33.93022785728548
 21
20.7839078878527
 31
0.0
  0
LINE
  5
18C
330
6C
100
AcDbEntity
  8
Visible (ANSI)
100
AcDbLine
 10
33.93022785728548
 20
20.6589078878527
 30
0.0
 11
40.80522785728546
 21
20.6589078878527
 31
0.0
  0
LINE
  5
18D
330
6C
100
AcDbEntity
  8
Visible (ANSI)
100
AcDbLine
 10
33.55522785728537
 20
20.7839078878527
 30
0.0
 11
33.93022785728548
 21
20.7839078878527
 31
0.0
  0
LINE
  5
18E
330
6C
100
AcDbEntity
  8
Visible (ANSI)
100
AcDbLine
 10
33.55522785728537
 20
20.6589078878527
 30
0.0
 11
33.55522785728537
 21
20.7839078878527
 31
0.0
  0
LINE
  5
18F
330
6C
100
AcDbEntity
  8
Visible (ANSI)
100
AcDbLine
 10
33.93022785728547
 20
20.6589078878527
 30
0.0
 11
33.55522785728537
 21
20.6589078878527
 31
0.0
  0
MTEXT
  5
190
330
6C
100
AcDbEntity
  8
Symbol (ANSI)
100
AcDbMText
 10
34.1826031127852
 20
7.033300032418069
 30
0.0
 40
0.4266666719398265
 41
0.0
 46
0.0
 71
     7
 72
     1
  1
RIGHT SIDE VIEW
  7
Text Style168
 73
     1
 44
1.0
  0
LINE
  5
191
330
6C
100
AcDbEntity
  8
Symbol (ANSI)
370
    30
100
AcDbLine
 10
34.13993633636427
 20
6.945598248021752
 30
0.0
 11
38.92005505001018
 21
6.945598248021752
 31
0.0
  0
LINE
  5
192
330
6C
100
AcDbEntity
  8
Visible (ANSI)
100
AcDbLine
 10
9.646463285204283
 20
34.7072055977516
 30
0.0
 11
9.646463285204283
 21
34.63320559775161
 31
0.0
  0
LINE
  5
193
330
6C
100
AcDbEntity
  8
Visible (ANSI)
100
AcDbLine
 10
9.458963285204285
 20
34.63320559775161
 30
0.0
 11
9.458963285204285
 21
34.7072055977516
 31
0.0
  0
LINE
  5
194
330
6C
100
AcDbEntity
  8
Visible (ANSI)
100
AcDbLine
 10
9.646463285204285
 20
34.63320559775159
 30
0.0
 11
9.458963285204285
 21
34.63320559775159
 31
0.0
  0
LINE
  5
195
330
6C
100
AcDbEntity
  8
Visible (ANSI)
100
AcDbLine
 10
9.458963285204285
 20
34.70720559775158
 30
0.0
 11
9.494338285204277
 21
34.70720559775158
 31
0.0
  0
LINE
  5
196
330
6C
100
AcDbEntity
  8
Visible (ANSI)
100
AcDbLine
 10
9.611088285204266
 20
34.70720559775158
 30
0.0
 11
9.646463285204285
 21
34.70720559775158
 31
0.0
  0
LINE
  5
197
330
6C
100
AcDbEntity
  8
Visible (ANSI)
100
AcDbLine
 10
9.458963285204285
 20
34.7072055977516
 30
0.0
 11
6.626713285204285
 21
34.7072055977516
 31
0.0
  0
LINE
  5
198
330
6C
100
AcDbEntity
  8
Visible (ANSI)
100
AcDbLine
 10
6.626713285204285
 20
34.63320559775161
 30
0.0
 11
6.626713285204285
 21
34.7072055977516
 31
0.0
  0
LINE
  5
199
330
6C
100
AcDbEntity
  8
Visible (ANSI)
100
AcDbLine
 10
6.626713285204285
 20
34.63320559775161
 30
0.0
 11
9.458963285204285
 21
34.63320559775161
 31
0.0
  0
LINE
  5
19A
330
6C
100
AcDbEntity
  8
Visible (ANSI)
100
AcDbLine
 10
9.646463285204283
 20
34.63320559775161
 30
0.0
 11
12.44746328520428
 21
34.63320559775161
 31
0.0
  0
LINE
  5
19B
330
6C
100
AcDbEntity
  8
Visible (ANSI)
100
AcDbLine
 10
12.44746328520428
 20
34.7072055977516
 30
0.0
 11
9.646463285204283
 21
34.7072055977516
 31
0.0
  0
LINE
  5
19C
330
6C
100
AcDbEntity
  8
Visible (ANSI)
100
AcDbLine
 10
12.55271328520428
 20
31.61345559775161
 30
0.0
 11
12.47871328520428
 21
31.61345559775161
 31
0.0
  0
LINE
  5
19D
330
6C
100
AcDbEntity
  8
Visible (ANSI)
100
AcDbLine
 10
12.47871328520428
 20
31.80095559775161
 30
0.0
 11
12.55271328520428
 21
31.80095559775161
 31
0.0
  0
LINE
  5
19E
330
6C
100
AcDbEntity
  8
Visible (ANSI)
100
AcDbLine
 10
12.47871328520428
 20
31.61345559775158
 30
0.0
 11
12.47871328520428
 21
31.80095559775159
 31
0.0
  0
LINE
  5
19F
330
6C
100
AcDbEntity
  8
Visible (ANSI)
100
AcDbLine
 10
12.55271328520428
 20
31.80095559775159
 30
0.0
 11
12.55271328520428
 21
31.76558059775161
 31
0.0
  0
LINE
  5
1A0
330
6C
100
AcDbEntity
  8
Visible (ANSI)
100
AcDbLine
 10
12.55271328520428
 20
31.64883059775158
 30
0.0
 11
12.55271328520428
 21
31.61345559775158
 31
0.0
  0
LINE
  5
1A1
330
6C
100
AcDbEntity
  8
Visible (ANSI)
100
AcDbLine
 10
12.55271328520428
 20
31.80095559775161
 30
0.0
 11
12.55271328520428
 21
34.60195559775161
 31
0.0
  0
LINE
  5
1A2
330
6C
100
AcDbEntity
  8
Visible (ANSI)
100
AcDbLine
 10
12.55271328520428
 20
28.78120559775161
 30
0.0
 11
12.55271328520428
 21
31.61345559775161
 31
0.0
  0
LINE
  5
1A3
330
6C
100
AcDbEntity
  8
Visible (ANSI)
100
AcDbLine
 10
12.55271328520428
 20
26.20720559775071
 30
0.0
 11
12.55271328520428
 21
27.89470559775122
 31
0.0
  0
LINE
  5
1A4
330
6C
100
AcDbEntity
  8
Visible (ANSI)
100
AcDbLine
 10
12.55271328520428
 20
28.75606523296701
 30
0.0
 11
12.55271328520428
 21
28.78120559775148
 31
0.0
  0
LINE
  5
1A5
330
6C
100
AcDbEntity
  8
Visible (ANSI)
100
AcDbLine
 10
12.55271328520428
 20
25.84370559775076
 30
0.0
 11
12.55271328520428
 21
26.20720559775071
 31
0.0
  0
LINE
  5
1A6
330
6C
100
AcDbEntity
  8
Visible (ANSI)
100
AcDbLine
 10
12.47871328520428
 20
34.60195559775161
 30
0.0
 11
12.47871328520428
 21
31.80095559775161
 31
0.0
  0
LINE
  5
1A7
330
6C
100
AcDbEntity
  8
Visible (ANSI)
100
AcDbLine
 10
12.47871328520428
 20
26.20720559775071
 30
0.0
 11
12.55271328520428
 21
26.20720559775071
 31
0.0
  0
LINE
  5
1A8
330
6C
100
AcDbEntity
  8
Visible (ANSI)
100
AcDbLine
 10
12.47871328520428
 20
28.78120559775161
 30
0.0
 11
12.55271328520428
 21
28.78120559775161
 31
0.0
  0
LINE
  5
1A9
330
6C
100
AcDbEntity
  8
Visible (ANSI)
100
AcDbLine
 10
12.47871328520428
 20
31.61345559775161
 30
0.0
 11
12.47871328520428
 21
28.78207428127066
 31
0.0
  0
ARC
  5
1AA
330
6C
100
AcDbEntity
  8
Visible (ANSI)
100
AcDbCircle
 10
12.44746328520428
 20
34.60195559775161
 30
0.0
 40
0.10525
100
AcDbArc
 50
0.0
 51
90.0
  0
ARC
  5
1AB
330
6C
100
AcDbEntity
  8
Visible (ANSI)
100
AcDbCircle
 10
12.44746328520428
 20
34.60195559775161
 30
0.0
 40
0.03125
100
AcDbArc
 50
0.0
 51
90.0
  0
LINE
  5
1AC
330
6C
100
AcDbEntity
  8
Visible (ANSI)
100
AcDbLine
 10
6.552713285204286
 20
31.80095559775161
 30
0.0
 11
6.626713285204287
 21
31.80095559775161
 31
0.0
  0
LINE
  5
1AD
330
6C
100
AcDbEntity
  8
Visible (ANSI)
100
AcDbLine
 10
6.626713285204287
 20
31.61345559775162
 30
0.0
 11
6.552713285204286
 21
31.61345559775162
 31
0.0
  0
LINE
  5
1AE
330
6C
100
AcDbEntity
  8
Visible (ANSI)
100
AcDbLine
 10
6.626713285204287
 20
31.8009555977516
 30
0.0
 11
6.626713285204287
 21
31.6134555977516
 31
0.0
  0
LINE
  5
1AF
330
6C
100
AcDbEntity
  8
Visible (ANSI)
100
AcDbLine
 10
6.552713285204286
 20
31.6134555977516
 30
0.0
 11
6.552713285204286
 21
31.64883059775162
 31
0.0
  0
LINE
  5
1B0
330
6C
100
AcDbEntity
  8
Visible (ANSI)
100
AcDbLine
 10
6.552713285204286
 20
31.76558059775159
 30
0.0
 11
6.552713285204286
 21
31.8009555977516
 31
0.0
  0
LINE
  5
1B1
330
6C
100
AcDbEntity
  8
Visible (ANSI)
100
AcDbLine
 10
6.552713285204286
 20
31.61345559775162
 30
0.0
 11
6.552713285204286
 21
28.78120559775162
 31
0.0
  0
LINE
  5
1B2
330
6C
100
AcDbEntity
  8
Visible (ANSI)
100
AcDbLine
 10
6.552713285204286
 20
28.78120559775162
 30
0.0
 11
6.626713285204285
 21
28.78120559775162
 31
0.0
  0
LINE
  5
1B3
330
6C
100
AcDbEntity
  8
Visible (ANSI)
100
AcDbLine
 10
6.626713285204285
 20
28.78207428127066
 30
0.0
 11
6.626713285204285
 21
31.61345559775162
 31
0.0
  0
LINE
  5
1B4
330
6C
100
AcDbEntity
  8
Visible (ANSI)
100
AcDbLine
 10
6.626713285204287
 20
31.80095559775161
 30
0.0
 11
6.626713285204287
 21
34.63320559775161
 31
0.0
  0
LINE
  5
1B5
330
6C
100
AcDbEntity
  8
Visible (ANSI)
100
AcDbLine
 10
6.552713285204286
 20
34.63320559775161
 30
0.0
 11
6.626713285204287
 21
34.63320559775161
 31
0.0
  0
LINE
  5
1B6
330
6C
100
AcDbEntity
  8
Visible (ANSI)
100
AcDbLine
 10
6.552713285204286
 20
34.63320559775161
 30
0.0
 11
6.552713285204286
 21
31.80095559775161
 31
0.0
  0
LINE
  5
1B7
330
6C
100
AcDbEntity
  8
Visible (ANSI)
100
AcDbLine
 10
6.552713285204286
 20
26.20720559775073
 30
0.0
 11
6.552713285204286
 21
25.84370559775076
 31
0.0
  0
LINE
  5
1B8
330
6C
100
AcDbEntity
  8
Visible (ANSI)
100
AcDbLine
 10
6.552713285204286
 20
28.78120559775149
 30
0.0
 11
6.552713285204286
 21
28.75606523296698
 31
0.0
  0
LINE
  5
1B9
330
6C
100
AcDbEntity
  8
Visible (ANSI)
100
AcDbLine
 10
6.552713285204286
 20
27.89470559775125
 30
0.0
 11
6.552713285204285
 21
26.20720559775073
 31
0.0
  0
LINE
  5
1BA
330
6C
100
AcDbEntity
  8
Visible (ANSI)
100
AcDbLine
 10
6.552713285204286
 20
26.20720559775073
 30
0.0
 11
6.626713285204285
 21
26.20720559775073
 31
0.0
  0
LINE
  5
1BB
330
6C
100
AcDbEntity
  8
Visible (ANSI)
100
AcDbLine
 10
12.47871328520435
 20
25.84370559775078
 30
0.0
 11
12.47871328520435
 21
26.16460962031098
 31
0.0
  0
LINE
  5
1BC
330
6C
100
AcDbEntity
  8
Visible (ANSI)
100
AcDbLine
 10
6.626713285204344
 20
25.84370559775076
 30
0.0
 11
6.626713285204343
 21
26.16460962031097
 31
0.0
  0
LINE
  5
1BD
330
6C
100
AcDbEntity
  8
Visible (ANSI)
100
AcDbLine
 10
6.626713285204344
 20
28.70807428127063
 30
0.0
 11
6.626713285204344
 21
28.78207428127063
 31
0.0
  0
LINE
  5
1BE
330
6C
100
AcDbEntity
  8
Visible (ANSI)
100
AcDbLine
 10
12.47871328520435
 20
28.70807428127065
 30
0.0
 11
6.626713285204344
 21
28.70807428127063
 31
0.0
  0
LINE
  5
1BF
330
6C
100
AcDbEntity
  8
Visible (ANSI)
100
AcDbLine
 10
12.47871328520435
 20
28.70807428127065
 30
0.0
 11
12.47871328520435
 21
28.78207428127065
 31
0.0
  0
LINE
  5
1C0
330
6C
100
AcDbEntity
  8
Visible (ANSI)
100
AcDbLine
 10
12.47871328520435
 20
28.78207428127065
 30
0.0
 11
6.626713285204344
 21
28.78207428127063
 31
0.0
  0
LINE
  5
1C1
330
6C
100
AcDbEntity
  8
Visible (ANSI)
100
AcDbLine
 10
6.626713285204343
 20
26.16460962031097
 30
0.0
 11
6.626713285204343
 21
26.18670670722305
 31
0.0
  0
LINE
  5
1C2
330
6C
100
AcDbEntity
  8
Visible (ANSI)
100
AcDbLine
 10
12.47871328520435
 20
26.16460962031098
 30
0.0
 11
12.47871328520435
 21
26.18670670722307
 31
0.0
  0
LINE
  5
1C3
330
6C
100
AcDbEntity
  8
Visible (ANSI)
100
AcDbLine
 10
12.47871328520435
 20
28.70807428127054
 30
0.0
 11
12.47871328520435
 21
28.69892136818262
 31
0.0
  0
LINE
  5
1C4
330
6C
100
AcDbEntity
  8
Visible (ANSI)
100
AcDbLine
 10
6.626713285204341
 20
28.70807428127053
 30
0.0
 11
6.626713285204341
 21
28.6989213681826
 31
0.0
  0
LINE
  5
1C5
330
6C
100
AcDbEntity
  8
Visible (ANSI)
100
AcDbLine
 10
6.626713285204343
 20
26.18670670722305
 30
0.0
 11
6.626713285204343
 21
27.89470559775125
 31
0.0
  0
LINE
  5
1C6
330
6C
100
AcDbEntity
  8
Visible (ANSI)
100
AcDbLine
 10
6.626713285204343
 20
28.69669060911605
 30
0.0
 11
6.626713285204343
 21
28.6989213681826
 31
0.0
  0
LINE
  5
1C7
330
6C
100
AcDbEntity
  8
Visible (ANSI)
100
AcDbLine
 10
12.47871328520435
 20
28.69892136818261
 30
0.0
 11
12.47871328520435
 21
28.69669060911609
 31
0.0
  0
LINE
  5
1C8
330
6C
100
AcDbEntity
  8
Visible (ANSI)
100
AcDbLine
 10
12.47871328520435
 20
27.89470559775125
 30
0.0
 11
12.47871328520435
 21
26.18670670722306
 31
0.0
  0
LINE
  5
1C9
330
6C
100
AcDbEntity
  8
Visible (ANSI)
100
AcDbLine
 10
5.740213285204287
 20
25.84370559775088
 30
0.0
 11
5.740213285204288
 21
25.71870559775089
 31
0.0
  0
LINE
  5
1CA
330
6C
100
AcDbEntity
  8
Visible (ANSI)
100
AcDbLine
 10
6.115213285204288
 20
25.718705597751
 30
0.0
 11
5.740213285204285
 21
25.71870559775089
 31
0.0
  0
LINE
  5
1CB
330
6C
100
AcDbEntity
  8
Visible (ANSI)
100
AcDbLine
 10
5.740213285204284
 20
25.84370559775089
 30
0.0
 11
6.115213285204286
 21
25.84370559775099
 31
0.0
  0
LINE
  5
1CC
330
6C
100
AcDbEntity
  8
Visible (ANSI)
100
AcDbLine
 10
6.115213285204286
 20
25.718705597751
 30
0.0
 11
12.99021328520429
 21
25.71870559775103
 31
0.0
  0
LINE
  5
1CD
330
6C
100
AcDbEntity
  8
Visible (ANSI)
100
AcDbLine
 10
12.99021328520429
 20
25.84370559775102
 30
0.0
 11
6.115213285204288
 21
25.84370559775099
 31
0.0
  0
LINE
  5
1CE
330
6C
100
AcDbEntity
  8
Visible (ANSI)
100
AcDbLine
 10
13.3652132852043
 20
25.71870559775091
 30
0.0
 11
12.99021328520429
 21
25.71870559775102
 31
0.0
  0
LINE
  5
1CF
330
6C
100
AcDbEntity
  8
Visible (ANSI)
100
AcDbLine
 10
13.3652132852043
 20
25.84370559775092
 30
0.0
 11
13.3652132852043
 21
25.71870559775092
 31
0.0
  0
LINE
  5
1D0
330
6C
100
AcDbEntity
  8
Visible (ANSI)
100
AcDbLine
 10
12.99021328520429
 20
25.84370559775102
 30
0.0
 11
13.3652132852043
 21
25.84370559775092
 31
0.0
  0
LINE
  5
1D1
330
6C
100
AcDbEntity
  8
Visible (ANSI)
100
AcDbLine
 10
9.552713285204271
 20
34.64883059775162
 30
0.0
 11
9.626713285204273
 21
34.72283059775162
 31
0.0
  0
LINE
  5
1D2
330
6C
100
AcDbEntity
  8
Visible (ANSI)
100
AcDbLine
 10
9.478713285204271
 20
34.72283059775162
 30
0.0
 11
9.552713285204271
 21
34.64883059775162
 31
0.0
  0
LINE
  5
1D3
330
6C
100
AcDbEntity
  8
Visible (ANSI)
100
AcDbLine
 10
12.56833828520427
 20
31.78120559775163
 30
0.0
 11
12.49433828520427
 21
31.70720559775163
 31
0.0
  0
LINE
  5
1D4
330
6C
100
AcDbEntity
  8
Visible (ANSI)
100
AcDbLine
 10
12.49433828520427
 20
31.70720559775163
 30
0.0
 11
12.56833828520427
 21
31.63320559775164
 31
0.0
  0
LINE
  5
1D5
330
6C
100
AcDbEntity
  8
Visible (ANSI)
100
AcDbLine
 10
6.537088285204268
 20
31.63320559775162
 30
0.0
 11
6.611088285204269
 21
31.70720559775162
 31
0.0
  0
LINE
  5
1D6
330
6C
100
AcDbEntity
  8
Visible (ANSI)
100
AcDbLine
 10
6.611088285204269
 20
31.70720559775162
 30
0.0
 11
6.537088285204268
 21
31.78120559775162
 31
0.0
  0
LINE
  5
1D7
330
6C
100
AcDbEntity
  8
Visible (ANSI)
100
AcDbLine
 10
9.626713285204273
 20
34.72283059775162
 30
0.0
 11
12.44333828520427
 21
34.72283059775163
 31
0.0
  0
LINE
  5
1D8
330
6C
100
AcDbEntity
  8
Visible (ANSI)
100
AcDbLine
 10
6.66208828520427
 20
34.72283059775161
 30
0.0
 11
9.478713285204271
 21
34.72283059775162
 31
0.0
  0
LINE
  5
1D9
330
6C
100
AcDbEntity
  8
Visible (ANSI)
100
AcDbLine
 10
12.56833828520427
 20
31.63320559775164
 30
0.0
 11
12.56833828520427
 21
28.81658059775164
 31
0.0
  0
LINE
  5
1DA
330
6C
100
AcDbEntity
  8
Visible (ANSI)
100
AcDbLine
 10
12.56833828520427
 20
34.59783059775163
 30
0.0
 11
12.56833828520427
 21
31.78120559775163
 31
0.0
  0
LINE
  5
1DB
330
6C
100
AcDbEntity
  8
Visible (ANSI)
100
AcDbLine
 10
6.537088285204268
 20
28.81658059775162
 30
0.0
 11
6.537088285204268
 21
31.63320559775162
 31
0.0
  0
LINE
  5
1DC
330
6C
100
AcDbEntity
  8
Visible (ANSI)
100
AcDbLine
 10
6.537088285204268
 20
31.78120559775162
 30
0.0
 11
6.537088285204271
 21
34.59783059775161
 31
0.0
  0
ARC
  5
1DD
330
6C
100
AcDbEntity
  8
Visible (ANSI)
100
AcDbCircle
 10
12.44333828520427
 20
34.59783059775163
 30
0.0
 40
0.124999999999999
100
AcDbArc
 50
0.0
 51
90.0
  0
ARC
  5
1DE
330
6C
100
AcDbEntity
  8
Visible (ANSI)
100
AcDbCircle
 10
12.44333828520427
 20
28.81658059775164
 30
0.0
 40
0.1249999999999997
100
AcDbArc
 50
270.0
 51
0.0
  0
LINE
  5
1DF
330
6C
100
AcDbEntity
  8
Visible (ANSI)
100
AcDbLine
 10
12.44333828520427
 20
28.69158059775164
 30
0.0
 11
6.662088285204269
 21
28.69158059775163
 31
0.0
  0
ARC
  5
1E0
330
6C
100
AcDbEntity
  8
Visible (ANSI)
100
AcDbCircle
 10
6.662088285204269
 20
28.81658059775162
 30
0.0
 40
0.1249999999999994
100
AcDbArc
 50
180.0
 51
269.9999999999994
  0
ARC
  5
1E1
330
6C
100
AcDbEntity
  8
Visible (ANSI)
100
AcDbCircle
 10
6.662088285204269
 20
34.59783059775161
 30
0.0
 40
0.1249999999999997
100
AcDbArc
 50
90.0
 51
180.0
  0
ARC
  5
1E2
330
6C
100
AcDbEntity
  8
Visible (ANSI)
100
AcDbCircle
 10
12.99021328520427
 20
35.14470559775162
 30
0.0
 40
0.3750000000000019
100
AcDbArc
 50
0.0
 51
89.99999999999925
  0
LINE
  5
1E3
330
6C
100
AcDbEntity
  8
Visible (ANSI)
100
AcDbLine
 10
13.36521328520427
 20
35.14470559775163
 30
0.0
 11
13.36521328520427
 21
28.26970559775165
 31
0.0
  0
ARC
  5
1E4
330
6C
100
AcDbEntity
  8
Visible (ANSI)
100
AcDbCircle
 10
12.99021328520427
 20
28.26970559775164
 30
0.0
 40
0.3750000000000005
100
AcDbArc
 50
270.0
 51
0.0
  0
LINE
  5
1E5
330
6C
100
AcDbEntity
  8
Visible (ANSI)
100
AcDbLine
 10
12.99021328520427
 20
27.89470559775165
 30
0.0
 11
6.115213285204269
 21
27.89470559775163
 31
0.0
  0
ARC
  5
1E6
330
6C
100
AcDbEntity
  8
Visible (ANSI)
100
AcDbCircle
 10
6.115213285204269
 20
28.26970559775162
 30
0.0
 40
0.3750000000000005
100
AcDbArc
 50
180.0
 51
269.9999999999998
  0
LINE
  5
1E7
330
6C
100
AcDbEntity
  8
Visible (ANSI)
100
AcDbLine
 10
5.740213285204269
 20
28.26970559775162
 30
0.0
 11
5.740213285204268
 21
35.14470559775161
 31
0.0
  0
ARC
  5
1E8
330
6C
100
AcDbEntity
  8
Visible (ANSI)
100
AcDbCircle
 10
6.11521328520427
 20
35.14470559775161
 30
0.0
 40
0.3750000000000019
100
AcDbArc
 50
90.00000000000019
 51
180.0
  0
LINE
  5
1E9
330
6C
100
AcDbEntity
  8
Visible (ANSI)
100
AcDbLine
 10
6.11521328520427
 20
35.5197055977516
 30
0.0
 11
12.99021328520427
 21
35.51970559775162
 31
0.0
  0
CIRCLE
  5
1EA
330
6C
100
AcDbEntity
  8
Visible (ANSI)
100
AcDbCircle
 10
6.115213285204267
 20
31.70720559775161
 30
0.0
 40
0.1406250000000003
  0
CIRCLE
  5
1EB
330
6C
100
AcDbEntity
  8
Visible (ANSI)
100
AcDbCircle
 10
9.552713285204271
 20
35.14470559775162
 30
0.0
 40
0.140625
  0
CIRCLE
  5
1EC
330
6C
100
AcDbEntity
  8
Visible (ANSI)
100
AcDbCircle
 10
12.99021328520427
 20
31.70720559775164
 30
0.0
 40
0.1406250000000003
  0
CIRCLE
  5
1ED
330
6C
100
AcDbEntity
  8
Visible (ANSI)
100
AcDbCircle
 10
9.552713285204275
 20
28.26970559775163
 30
0.0
 40
0.140625
  0
CIRCLE
  5
1EE
330
6C
100
AcDbEntity
  8
Visible (ANSI)
100
AcDbCircle
 10
12.86521328520427
 20
28.39470559775164
 30
0.0
 40
0.1406250000000002
  0
CIRCLE
  5
1EF
330
6C
100
AcDbEntity
  8
Visible (ANSI)
100
AcDbCircle
 10
6.240213285204268
 20
28.39470559775163
 30
0.0
 40
0.1406250000000002
  0
CIRCLE
  5
1F0
330
6C
100
AcDbEntity
  8
Visible (ANSI)
100
AcDbCircle
 10
12.86521328520427
 20
35.01970559775163
 30
0.0
 40
0.1406250000000002
  0
CIRCLE
  5
1F1
330
6C
100
AcDbEntity
  8
Visible (ANSI)
100
AcDbCircle
 10
6.240213285204271
 20
35.01970559775161
 30
0.0
 40
0.1406250000000002
  0
MTEXT
  5
1F2
330
6C
100
AcDbEntity
  8
Symbol (ANSI)
100
AcDbMText
 10
8.20633199122806
 20
24.04571299788304
 30
0.0
 40
0.4266666719398265
 41
0.0
 46
0.0
 71
     7
 72
     1
  1
TOP VIEW
  7
Text Style168
 73
     1
 44
1.0
  0
LINE
  5
1F3
330
6C
100
AcDbEntity
  8
Symbol (ANSI)
370
    30
100
AcDbLine
 10
8.206673325439426
 20
23.9587027316612
 30
0.0
 11
10.89875324496914
 21
23.9587027316612
 31
0.0
  0
LINE
  5
1F4
330
6C
100
AcDbEntity
  8
Visible (ANSI)
100
AcDbLine
 10
56.79106987670969
 20
36.67045567431218
 30
0.0
 11
56.79106987670969
 21
36.61935897900953
 31
0.0
  0
LINE
  5
1F5
330
6C
100
AcDbEntity
  8
Visible (ANSI)
100
AcDbLine
 10
56.8433957785175
 20
36.70058815713282
 30
0.0
 11
56.79106987670969
 21
36.67045567431218
 31
0.0
  0
LINE
  5
1F6
330
6C
100
AcDbEntity
  8
Visible (ANSI)
100
AcDbLine
 10
56.65848735523719
 20
36.69570817534558
 30
0.0
 11
56.65848735523719
 21
36.74680487064824
 31
0.0
  0
LINE
  5
1F7
330
6C
100
AcDbEntity
  8
Visible (ANSI)
100
AcDbLine
 10
56.71081325704499
 20
36.72584065816622
 30
0.0
 11
56.65848735523719
 21
36.69570817534558
 31
0.0
  0
LINE
  5
1F8
330
6C
100
AcDbEntity
  8
Visible (ANSI)
100
AcDbLine
 10
56.71081325704499
 20
36.77693735346887
 30
0.0
 11
56.71081325704499
 21
36.72584065816622
 31
0.0
  0
LINE
  5
1F9
330
6C
100
AcDbEntity
  8
Visible (ANSI)
100
AcDbLine
 10
56.65848735523719
 20
36.74680487064824
 30
0.0
 11
56.71081325704499
 21
36.77693735346887
 31
0.0
  0
LINE
  5
1FA
330
6C
100
AcDbEntity
  8
Visible (ANSI)
100
AcDbLine
 10
56.79106987670969
 20
36.61935897900953
 30
0.0
 11
56.65848735523719
 21
36.69570817534558
 31
0.0
  0
LINE
  5
1FB
330
6C
100
AcDbEntity
  8
Visible (ANSI)
100
AcDbLine
 10
56.71081325704499
 20
36.72584065816622
 30
0.0
 11
56.73582715942948
 21
36.71143610979081
 31
0.0
  0
LINE
  5
1FC
330
6C
100
AcDbEntity
  8
Visible (ANSI)
100
AcDbLine
 10
56.71081325704499
 20
36.77693735346887
 30
0.0
 11
54.70811007602909
 21
37.93021741385704
 31
0.0
  0
LINE
  5
1FD
330
6C
100
AcDbEntity
  8
Visible (ANSI)
100
AcDbLine
 10
54.6557841742213
 20
37.9000849310364
 30
0.0
 11
54.70811007602909
 21
37.93021741385704
 31
0.0
  0
LINE
  5
1FE
330
6C
100
AcDbEntity
  8
Visible (ANSI)
100
AcDbLine
 10
54.6557841742213
 20
37.9000849310364
 30
0.0
 11
56.65848735523719
 21
36.74680487064824
 31
0.0
  0
LINE
  5
1FF
330
6C
100
AcDbEntity
  8
Visible (ANSI)
100
AcDbLine
 10
56.79106987670969
 20
36.67045567431218
 30
0.0
 11
58.77167597081351
 21
35.52990047998003
 31
0.0
  0
LINE
  5
200
330
6C
100
AcDbEntity
  8
Visible (ANSI)
100
AcDbLine
 10
58.8240018726213
 20
35.56003296280067
 30
0.0
 11
56.8433957785175
 21
36.70058815713282
 31
0.0
  0
LINE
  5
201
330
6C
100
AcDbEntity
  8
Visible (ANSI)
100
AcDbLine
 10
54.6557841742213
 20
37.9000849310364
 30
0.0
 11
54.6557841742213
 21
33.14218937624124
 31
0.0
  0
LINE
  5
202
330
6C
100
AcDbEntity
  8
Visible Narrow (ANSI)
100
AcDbLine
 10
58.77167597081351
 20
35.52990047998003
 30
0.0
 11
58.8240018726213
 21
35.56003296280067
 31
0.0
  0
LINE
  5
203
330
6C
100
AcDbEntity
  8
Visible Narrow (ANSI)
100
AcDbLine
 10
58.77167597081351
 20
35.50445074786801
 30
0.0
 11
58.77167597081351
 21
35.52990047998003
 31
0.0
  0
LINE
  5
204
330
6C
100
AcDbEntity
  8
Visible Narrow (ANSI)
100
AcDbLine
 10
58.82400187262132
 20
28.23739111594122
 30
0.0
 11
58.82400187262132
 21
34.76152853483209
 31
0.0
  0
LINE
  5
205
330
6C
100
AcDbEntity
  8
Visible Narrow (ANSI)
100
AcDbLine
 10
58.79068499360246
 20
35.4935041796707
 30
0.0
 11
58.77167597081351
 21
35.50445074786801
 31
0.0
  0
ELLIPSE
  5
206
330
6C
100
AcDbEntity
  8
Visible (ANSI)
100
AcDbEllipse
 10
58.74957888390143
 20
35.51717561392402
 30
0.0
 11
0.10525
 21
0.0
 31
0.0
210
0.0
220
0.0
230
1.0
 40
0.5758617009853117
 41
0.2461205573628971
 42
0.7853981633976512
  0
ELLIPSE
  5
207
330
6C
100
AcDbEntity
  8
Visible (ANSI)
100
AcDbEllipse
 10
58.74957888390143
 20
28.28024846481785
 30
0.0
 11
0.1052499999999999
 21
0.0
 31
0.0
210
0.0
220
0.0
230
1.0
 40
0.5758617009853118
 41
5.497787143782309
 42
6.283185307179584
  0
ELLIPSE
  5
208
330
6C
100
AcDbEntity
  8
Visible (ANSI)
100
AcDbEllipse
 10
58.74957888390143
 20
35.51717561392402
 30
0.0
 11
0.03125
 21
0.0
 31
0.0
210
0.0
220
0.0
230
1.0
 40
0.5758617009853118
 41
5.497787143782485
 42
7.068583470577302
  0
LINE
  5
209
330
6C
100
AcDbEntity
  8
Visible (ANSI)
100
AcDbLine
 10
58.85482888390144
 20
28.28024846481785
 30
0.0
 11
58.85482888390143
 21
34.77928062998414
 31
0.0
  0
LINE
  5
20A
330
6C
100
AcDbEntity
  8
Visible (ANSI)
100
AcDbLine
 10
52.53446383066322
 20
27.14453993657084
 30
0.0
 11
52.55364410210294
 21
27.1334947528342
 31
0.0
  0
LINE
  5
20B
330
6C
100
AcDbEntity
  8
Visible (ANSI)
100
AcDbLine
 10
56.67749637802677
 20
34.27659978900214
 30
0.0
 11
56.65848735523783
 21
34.28754635719944
 31
0.0
  0
LINE
  5
20C
330
6C
100
AcDbEntity
  8
Visible (ANSI)
100
AcDbLine
 10
52.5344638306632
 20
26.97867290791592
 30
0.0
 11
52.5344638306632
 21
24.67575200632758
 31
0.0
  0
LINE
  5
20D
330
6C
100
AcDbEntity
  8
Visible (ANSI)
100
AcDbLine
 10
52.5344638306632
 20
24.67575200632758
 30
0.0
 11
52.55364410210293
 21
24.66470682259095
 31
0.0
  0
LINE
  5
20E
330
6C
100
AcDbEntity
  8
Visible (ANSI)
100
AcDbLine
 10
52.5344638306632
 20
29.44378409408246
 30
0.0
 11
52.53446383066322
 21
27.14453993657084
 31
0.0
  0
LINE
  5
20F
330
6C
100
AcDbEntity
  8
Visible (ANSI)
100
AcDbLine
 10
58.82400187262132
 20
28.23739111594122
 30
0.0
 11
53.20550816600936
 21
25.00191577307541
 31
0.0
  0
LINE
  5
210
330
6C
100
AcDbEntity
  8
Visible (ANSI)
100
AcDbLine
 10
54.70811007603034
 20
32.79543500018763
 30
0.0
 11
54.70811007603034
 21
32.84357301991129
 31
0.0
  0
LINE
  5
211
330
6C
100
AcDbEntity
  8
Visible (ANSI)
100
AcDbLine
 10
53.05958983399186
 20
29.90054266137746
 30
0.0
 11
54.53819186401351
 21
32.46155225093564
 31
0.0
  0
LINE
  5
212
330
6C
100
AcDbEntity
  8
Visible (ANSI)
100
AcDbLine
 10
52.81334820525136
 20
29.56037164559346
 30
0.0
 11
52.85535144023608
 21
29.58455969993865
 31
0.0
  0
LINE
  5
213
330
6C
100
AcDbEntity
  8
Visible (ANSI)
100
AcDbLine
 10
58.77167597081351
 20
35.50445074786801
 30
0.0
 11
56.80246091746783
 21
34.37045521764214
 31
0.0
  0
LINE
  5
214
330
6C
100
AcDbEntity
  8
Visible (ANSI)
100
AcDbLine
 10
52.83454022322765
 20
29.63284028275388
 30
0.0
 11
52.78203588602164
 21
29.6026050458213
 31
0.0
  0
LINE
  5
215
330
6C
100
AcDbEntity
  8
Visible (ANSI)
100
AcDbLine
 10
54.47722210864508
 20
32.47671316506504
 30
0.0
 11
53.01594127993928
 21
29.94570472643989
 31
0.0
  0
LINE
  5
216
330
6C
100
AcDbEntity
  8
Visible (ANSI)
100
AcDbLine
 10
54.65578417422253
 20
32.84938786644787
 30
0.0
 11
54.65578417422253
 21
32.78962015365106
 31
0.0
  0
LINE
  5
217
330
6C
100
AcDbEntity
  8
Visible (ANSI)
100
AcDbLine
 10
56.65848735523783
 20
34.28754635719944
 30
0.0
 11
54.67040028805429
 21
33.14268315698388
 31
0.0
  0
LINE
  5
218
330
6C
100
AcDbEntity
  8
Visible (ANSI)
100
AcDbLine
 10
50.39917812817483
 20
25.90538126305181
 30
0.0
 11
50.44337230199897
 21
25.93083099516384
 31
0.0
  0
LINE
  5
219
330
6C
100
AcDbEntity
  8
Visible (ANSI)
100
AcDbLine
 10
50.39917812817483
 20
25.84488277581347
 30
0.0
 11
50.39917812817483
 21
25.90538126305181
 31
0.0
  0
LINE
  5
21A
330
6C
100
AcDbEntity
  8
Visible (ANSI)
100
AcDbLine
 10
50.44337230199897
 20
25.87033250792549
 30
0.0
 11
50.39917812817483
 21
25.84488277581347
 31
0.0
  0
LINE
  5
21B
330
6C
100
AcDbEntity
  8
Visible (ANSI)
100
AcDbLine
 10
50.44337230199897
 20
25.87033250792549
 30
0.0
 11
50.44337230199897
 21
25.93083099516384
 31
0.0
  0
LINE
  5
21C
330
6C
100
AcDbEntity
  8
Visible (ANSI)
100
AcDbLine
 10
50.44337230199897
 20
25.93083099516384
 30
0.0
 11
50.57595482347148
 21
25.85448179882779
 31
0.0
  0
LINE
  5
21D
330
6C
100
AcDbEntity
  8
Visible (ANSI)
100
AcDbLine
 10
50.46822625814368
 20
25.8560200664638
 30
0.0
 11
50.44337230199897
 21
25.87033250792549
 31
0.0
  0
LINE
  5
21E
330
6C
100
AcDbEntity
  8
Visible (ANSI)
100
AcDbLine
 10
50.57595482347148
 20
25.85448179882779
 30
0.0
 11
50.53176064964731
 21
25.82903206671577
 31
0.0
  0
LINE
  5
21F
330
6C
100
AcDbEntity
  8
Visible (ANSI)
100
AcDbLine
 10
50.53176064964731
 20
25.82903206671577
 30
0.0
 11
50.53176064964731
 21
25.76853357947741
 31
0.0
  0
LINE
  5
220
330
6C
100
AcDbEntity
  8
Visible (ANSI)
100
AcDbLine
 10
48.41857203407101
 20
26.98543797014562
 30
0.0
 11
50.39917812817483
 21
25.84488277581347
 31
0.0
  0
LINE
  5
221
330
6C
100
AcDbEntity
  8
Visible (ANSI)
100
AcDbLine
 10
52.53446383066322
 20
24.61525351908925
 30
0.0
 11
52.55225826795004
 21
24.62550065401333
 31
0.0
  0
LINE
  5
222
330
6C
100
AcDbEntity
  8
Visible (ANSI)
100
AcDbLine
 10
53.20550816600938
 20
25.00168225147837
 30
0.0
 11
58.7937730577256
 21
28.21974997757953
 31
0.0
  0
LINE
  5
223
330
6C
100
AcDbEntity
  8
Visible (ANSI)
100
AcDbLine
 10
50.53176064964731
 20
25.76853357947741
 30
0.0
 11
52.53446383066322
 21
24.61525351908926
 31
0.0
  0
LINE
  5
224
330
6C
100
AcDbEntity
  8
Visible (ANSI)
100
AcDbLine
 10
50.39917812817483
 20
25.90538126305181
 30
0.0
 11
48.41857203407101
 21
27.04593645738397
 31
0.0
  0
LINE
  5
225
330
6C
100
AcDbEntity
  8
Visible (ANSI)
100
AcDbLine
 10
58.7937730577256
 20
28.21998349917659
 30
0.0
 11
58.7937730577256
 21
28.21974997757953
 31
0.0
  0
LINE
  5
226
330
6C
100
AcDbEntity
  8
Visible (ANSI)
100
AcDbLine
 10
52.53446383066322
 20
24.6757520063276
 30
0.0
 11
50.53176064964731
 21
25.82903206671577
 31
0.0
  0
LINE
  5
227
330
6C
100
AcDbEntity
  8
Visible (ANSI)
100
AcDbLine
 10
52.53446383066322
 20
24.6757520063276
 30
0.0
 11
52.53446383066322
 21
24.61525351908925
 31
0.0
  0
LINE
  5
228
330
6C
100
AcDbEntity
  8
Visible Narrow (ANSI)
100
AcDbLine
 10
48.41857203407101
 20
27.04593645738397
 30
0.0
 11
48.41857203407101
 21
26.98543797014562
 31
0.0
  0
LINE
  5
229
330
6C
100
AcDbEntity
  8
Visible Narrow (ANSI)
100
AcDbLine
 10
48.39647494715893
 20
27.08420967109131
 30
0.0
 11
52.52468802463987
 21
29.46148947592
 31
0.0
  0
LINE
  5
22A
330
6C
100
AcDbEntity
  8
Visible Narrow (ANSI)
100
AcDbLine
 10
48.34414904535112
 20
27.11434215391193
 30
0.0
 11
48.39647494715893
 21
27.08420967109131
 31
0.0
  0
ELLIPSE
  5
22B
330
6C
100
AcDbEntity
  8
Visible (ANSI)
100
AcDbEllipse
 10
48.41857203407101
 20
27.0714848050353
 30
0.0
 11
0.0525231402692642
 21
-0.091207906654276
 31
0.0
210
0.0
220
0.0
230
1.0
 40
0.5780931159158131
 41
3.928924525409914
 42
5.499720852204714
  0
LINE
  5
22C
330
6C
100
AcDbEntity
  8
Visible Narrow (ANSI)
100
AcDbLine
 10
52.53446383066322
 20
29.41612090844175
 30
0.0
 11
48.41857203407101
 21
27.04593645738397
 31
0.0
  0
ELLIPSE
  5
22D
330
6C
100
AcDbEntity
  8
Visible (ANSI)
100
AcDbEllipse
 10
48.41857203407101
 20
27.0714848050353
 30
0.0
 11
-0.0155947566120111
 21
0.0270807323795375
 31
0.0
210
0.0
220
0.0
230
1.0
 40
0.578093115915813
 41
0.7873318718206966
 42
2.3581281986154
  0
LINE
  5
22E
330
6C
100
AcDbEntity
  8
Visible (ANSI)
100
AcDbLine
 10
52.65308099320602
 20
36.74680487064787
 30
0.0
 11
52.65308099320602
 21
36.69570817534522
 31
0.0
  0
LINE
  5
22F
330
6C
100
AcDbEntity
  8
Visible (ANSI)
100
AcDbLine
 10
52.6007550913982
 20
36.7769373534685
 30
0.0
 11
52.65308099320602
 21
36.74680487064787
 31
0.0
  0
LINE
  5
230
330
6C
100
AcDbEntity
  8
Visible (ANSI)
100
AcDbLine
 10
52.6007550913982
 20
36.72584065816585
 30
0.0
 11
52.6007550913982
 21
36.7769373534685
 31
0.0
  0
LINE
  5
231
330
6C
100
AcDbEntity
  8
Visible (ANSI)
100
AcDbLine
 10
52.6007550913982
 20
36.72584065816585
 30
0.0
 11
52.65308099320602
 21
36.69570817534522
 31
0.0
  0
LINE
  5
232
330
6C
100
AcDbEntity
  8
Visible (ANSI)
100
AcDbLine
 10
52.52049847173355
 20
36.61935897900914
 30
0.0
 11
52.52049847173355
 21
36.6704556743118
 31
0.0
  0
LINE
  5
233
330
6C
100
AcDbEntity
  8
Visible (ANSI)
100
AcDbLine
 10
52.52049847173355
 20
36.6704556743118
 30
0.0
 11
52.46817256992574
 21
36.70058815713242
 31
0.0
  0
LINE
  5
234
330
6C
100
AcDbEntity
  8
Visible (ANSI)
100
AcDbLine
 10
52.65308099320602
 20
36.69570817534522
 30
0.0
 11
52.52049847173355
 21
36.61935897900914
 31
0.0
  0
LINE
  5
235
330
6C
100
AcDbEntity
  8
Visible (ANSI)
100
AcDbLine
 10
52.57574118901374
 20
36.71143610979044
 30
0.0
 11
52.6007550913982
 21
36.72584065816585
 31
0.0
  0
LINE
  5
236
330
6C
100
AcDbEntity
  8
Visible (ANSI)
100
AcDbLine
 10
48.39647494715893
 20
29.52744925368322
 30
0.0
 11
48.44066912098309
 21
29.55289898579525
 31
0.0
  0
LINE
  5
237
330
6C
100
AcDbEntity
  8
Visible (ANSI)
100
AcDbLine
 10
48.34414904535112
 20
29.55758173650385
 30
0.0
 11
48.39647494715893
 21
29.52744925368322
 31
0.0
  0
LINE
  5
238
330
6C
100
AcDbEntity
  8
Visible (ANSI)
100
AcDbLine
 10
48.44066912098309
 20
29.39960889988728
 30
0.0
 11
48.39647494715893
 21
29.37415916777525
 31
0.0
  0
LINE
  5
239
330
6C
100
AcDbEntity
  8
Visible (ANSI)
100
AcDbLine
 10
48.38834321917527
 20
29.4297413827079
 30
0.0
 11
48.44066912098309
 21
29.39960889988728
 31
0.0
  0
LINE
  5
23A
330
6C
100
AcDbEntity
  8
Visible (ANSI)
100
AcDbLine
 10
48.34414904535112
 20
29.40429165059588
 30
0.0
 11
48.38834321917527
 21
29.4297413827079
 31
0.0
  0
LINE
  5
23B
330
6C
100
AcDbEntity
  8
Visible (ANSI)
100
AcDbLine
 10
48.39647494715893
 20
29.37415916777525
 30
0.0
 11
48.34414904535112
 21
29.40429165059588
 31
0.0
  0
LINE
  5
23C
330
6C
100
AcDbEntity
  8
Visible (ANSI)
100
AcDbLine
 10
48.44066912098309
 20
29.55289898579525
 30
0.0
 11
48.44066912098309
 21
29.39960889988728
 31
0.0
  0
LINE
  5
23D
330
6C
100
AcDbEntity
  8
Visible (ANSI)
100
AcDbLine
 10
48.38834321917527
 20
29.4297413827079
 30
0.0
 11
48.38834321917527
 21
29.4586621122492
 31
0.0
  0
LINE
  5
23E
330
6C
100
AcDbEntity
  8
Visible (ANSI)
100
AcDbLine
 10
52.46817256992574
 20
36.70058815713242
 30
0.0
 11
50.46546938891045
 21
35.54730809674392
 31
0.0
  0
LINE
  5
23F
330
6C
100
AcDbEntity
  8
Visible (ANSI)
100
AcDbLine
 10
50.46546938891045
 20
35.54730809674392
 30
0.0
 11
50.51726738938217
 21
35.51747961208465
 31
0.0
  0
LINE
  5
240
330
6C
100
AcDbEntity
  8
Visible (ANSI)
100
AcDbLine
 10
50.5189374440614
 20
35.51783333629027
 30
0.0
 11
52.52049847173355
 21
36.6704556743118
 31
0.0
  0
LINE
  5
241
330
6C
100
AcDbEntity
  8
Visible (ANSI)
100
AcDbLine
 10
48.39647494715894
 20
31.8429470980185
 30
0.0
 11
48.39798028904734
 21
31.84381396675893
 31
0.0
  0
LINE
  5
242
330
6C
100
AcDbEntity
  8
Visible (ANSI)
100
AcDbLine
 10
48.39647494715893
 20
29.52744925368322
 30
0.0
 11
48.39647494715894
 21
31.8429470980185
 31
0.0
  0
LINE
  5
243
330
6C
100
AcDbEntity
  8
Visible (ANSI)
100
AcDbLine
 10
48.39647494715893
 20
27.08420967109131
 30
0.0
 11
48.39647494715893
 21
29.37415916777525
 31
0.0
  0
LINE
  5
244
330
6C
100
AcDbEntity
  8
Visible (ANSI)
100
AcDbLine
 10
54.65578417422131
 20
37.90008493103638
 30
0.0
 11
54.6557841742213
 21
33.14218937624122
 31
0.0
  0
LINE
  5
245
330
6C
100
AcDbEntity
  8
Visible (ANSI)
100
AcDbLine
 10
52.65308099320602
 20
36.74680487064787
 30
0.0
 11
54.65578417422131
 21
37.90008493103638
 31
0.0
  0
LINE
  5
246
330
6C
100
AcDbEntity
  8
Visible (ANSI)
100
AcDbLine
 10
48.34414904535112
 20
29.40429165059588
 30
0.0
 11
48.34414904535112
 21
27.11434215391193
 31
0.0
  0
LINE
  5
247
330
6C
100
AcDbEntity
  8
Visible (ANSI)
100
AcDbLine
 10
54.6034582724135
 20
37.93021741385701
 30
0.0
 11
54.65578417422131
 21
37.90008493103638
 31
0.0
  0
LINE
  5
248
330
6C
100
AcDbEntity
  8
Visible (ANSI)
100
AcDbLine
 10
54.6034582724135
 20
37.93021741385701
 30
0.0
 11
52.6007550913982
 21
36.7769373534685
 31
0.0
  0
LINE
  5
249
330
6C
100
AcDbEntity
  8
Visible (ANSI)
100
AcDbLine
 10
48.34414904535112
 20
31.87307958083913
 30
0.0
 11
48.34414904535112
 21
29.55758173650385
 31
0.0
  0
LINE
  5
24A
330
6C
100
AcDbEntity
  8
Visible (ANSI)
100
AcDbLine
 10
48.36228639713489
 20
31.8835241870887
 30
0.0
 11
48.34414904535112
 21
31.87307958083913
 31
0.0
  0
LINE
  5
24B
330
6C
100
AcDbEntity
  8
Visible (ANSI)
100
AcDbLine
 10
50.28141555315709
 20
34.88024295581733
 30
0.0
 11
48.8311395449437
 21
32.36829539377711
 31
0.0
  0
LINE
  5
24C
330
6C
100
AcDbEntity
  8
Visible (ANSI)
100
AcDbLine
 10
50.46546938891045
 20
35.54730809674392
 30
0.0
 11
50.46546938891045
 21
35.52695159875031
 31
0.0
  0
LINE
  5
24D
330
6C
100
AcDbEntity
  8
Visible (ANSI)
100
AcDbLine
 10
48.34414904535112
 20
31.87307958083913
 30
0.0
 11
48.39647494715894
 21
31.8429470980185
 31
0.0
  0
ELLIPSE
  5
24E
330
6C
100
AcDbEntity
  8
Visible (ANSI)
100
AcDbEllipse
 10
52.80557141494977
 20
29.70302263755788
 30
0.0
 11
0.0525231402692293
 21
0.0912079066542952
 31
0.0
210
0.0
220
0.0
230
0.9999999999999998
 40
0.5780931159156371
 41
3.925057108563905
 42
4.284811848927976
  0
LINE
  5
24F
330
6C
100
AcDbEntity
  8
Visible Narrow (ANSI)
100
AcDbLine
 10
52.80557141494976
 20
29.6169758026682
 30
0.0
 11
52.80557141494977
 21
29.67320596947298
 31
0.0
  0
LINE
  5
250
330
6C
100
AcDbEntity
  8
Visible Narrow (ANSI)
100
AcDbLine
 10
52.79651070973849
 20
29.68269200302165
 30
0.0
 11
52.75268565197025
 21
29.70792917533384
 31
0.0
  0
LINE
  5
251
330
6C
100
AcDbEntity
  8
Visible Narrow (ANSI)
100
AcDbLine
 10
50.52056359409287
 20
30.99332278038956
 30
0.0
 11
50.45432345794102
 21
31.03146793786744
 31
0.0
  0
LINE
  5
252
330
6C
100
AcDbEntity
  8
Visible Narrow (ANSI)
100
AcDbLine
 10
50.43080910574682
 20
31.07048756865431
 30
0.0
 11
50.51684262023626
 21
31.0209441626587
 31
0.0
  0
ELLIPSE
  5
253
330
6C
100
AcDbEntity
  8
Visible (ANSI)
100
AcDbEllipse
 10
54.58197543750973
 20
32.77983955268085
 30
0.0
 11
0.0525231402692376
 21
0.091207906654297
 31
0.0
210
0.0
220
0.0
230
1.0
 40
0.5780931159156371
 41
5.136040880391927
 42
5.367285137380605
  0
LINE
  5
254
330
6C
100
AcDbEntity
  8
Visible Narrow (ANSI)
100
AcDbLine
 10
52.25462825720431
 20
34.14551939082651
 30
0.0
 11
52.31918063100537
 21
34.10834615104682
 31
0.0
  0
LINE
  5
255
330
6C
100
AcDbEntity
  8
Visible Narrow (ANSI)
100
AcDbLine
 10
54.55158607421742
 20
32.82278935523024
 30
0.0
 11
54.59570585473938
 21
32.79738246337177
 31
0.0
  0
LINE
  5
256
330
6C
100
AcDbEntity
  8
Visible Narrow (ANSI)
100
AcDbLine
 10
54.60750650236671
 20
32.79454191511737
 30
0.0
 11
54.65578417422257
 21
32.8223431773519
 31
0.0
  0
LINE
  5
257
330
6C
100
AcDbEntity
  8
Visible Narrow (ANSI)
100
AcDbLine
 10
52.29331610545459
 20
34.09772107689707
 30
0.0
 11
52.20819878467758
 21
34.14673688202301
 31
0.0
  0
LINE
  5
258
330
6C
100
AcDbEntity
  8
Visible (ANSI)
100
AcDbLine
 10
52.76052661840047
 20
29.65153471674513
 30
0.0
 11
52.80301687886446
 21
29.67600323041124
 31
0.0
  0
LINE
  5
259
330
6C
100
AcDbEntity
  8
Visible (ANSI)
100
AcDbLine
 10
52.78168056167729
 20
29.60321797526474
 30
0.0
 11
52.80557141494977
 21
29.6169758026682
 31
0.0
  0
LINE
  5
25A
330
6C
100
AcDbEntity
  8
Visible (ANSI)
100
AcDbLine
 10
48.39727044228779
 20
31.86486219968048
 30
0.0
 11
48.39727044228779
 21
31.84422274032133
 31
0.0
  0
LINE
  5
25B
330
6C
100
AcDbEntity
  8
Visible (ANSI)
100
AcDbLine
 10
48.39727044228779
 20
31.84422274032133
 30
0.0
 11
52.51851952096825
 21
29.47095323568895
 31
0.0
  0
LINE
  5
25C
330
6C
100
AcDbEntity
  8
Visible (ANSI)
100
AcDbLine
 10
50.49825836659322
 20
35.50653304388736
 30
0.0
 11
50.5184095427253
 21
35.51813733445164
 31
0.0
  0
LINE
  5
25D
330
6C
100
AcDbEntity
  8
Visible (ANSI)
100
AcDbLine
 10
54.6040725244218
 20
32.84371385688726
 30
0.0
 11
54.6040725244218
 21
32.79529416321164
 31
0.0
  0
LINE
  5
25E
330
6C
100
AcDbEntity
  8
Visible (ANSI)
100
AcDbLine
 10
54.64372696731526
 20
33.14252502522362
 30
0.0
 11
50.5184095427253
 21
35.51813733445164
 31
0.0
  0
LINE
  5
25F
330
6C
100
AcDbEntity
  8
Visible (ANSI)
100
AcDbLine
 10
48.84639389945072
 20
32.35951099524327
 30
0.0
 11
50.29666990766411
 21
34.8714585572835
 31
0.0
  0
LINE
  5
260
330
6C
100
AcDbEntity
  8
Visible (ANSI)
100
AcDbLine
 10
54.47722210864516
 20
32.47671316506501
 30
0.0
 11
53.01594127993934
 21
29.94570472643984
 31
0.0
  0
LINE
  5
261
330
6C
100
AcDbEntity
  8
Visible (ANSI)
100
AcDbLine
 10
54.43635621469793
 20
32.4914892590865
 30
0.0
 11
52.98267878205426
 21
29.97365026689318
 31
0.0
  0
LINE
  5
262
330
6C
100
AcDbEntity
  8
Visible (ANSI)
100
AcDbLine
 10
50.42127521508693
 20
25.8289827589461
 30
0.0
 11
50.36894931327912
 21
25.79861675452838
 31
0.0
  0
LINE
  5
263
330
6C
100
AcDbEntity
  8
Visible (ANSI)
100
AcDbLine
 10
50.42127521508693
 20
25.8289827589461
 30
0.0
 11
50.50966356273524
 21
25.87988222317015
 31
0.0
  0
LINE
  5
264
330
6C
100
AcDbEntity
  8
Visible (ANSI)
100
AcDbLine
 10
50.53721014496674
 20
25.83217022235992
 30
0.0
 11
50.50966356273524
 21
25.87988222317015
 31
0.0
  0
LINE
  5
265
330
6C
100
AcDbEntity
  8
Visible (ANSI)
100
AcDbLine
 10
50.47360111689474
 20
25.73835178888713
 30
0.0
 11
50.42127521508693
 21
25.8289827589461
 31
0.0
  0
LINE
  5
266
330
6C
100
AcDbEntity
  8
Visible (ANSI)
100
AcDbLine
 10
50.53176064964731
 20
25.77184363634654
 30
0.0
 11
50.47360111689474
 21
25.73835178888713
 31
0.0
  0
LINE
  5
267
330
6C
100
AcDbEntity
  8
Visible (ANSI)
100
AcDbLine
 10
48.37729467571923
 20
29.45225037145156
 30
0.0
 11
48.42962057752704
 21
29.48261637586929
 31
0.0
  0
LINE
  5
268
330
6C
100
AcDbEntity
  8
Visible (ANSI)
100
AcDbLine
 10
48.34123222987874
 20
29.43171691164523
 30
0.0
 11
48.42962057752704
 21
29.48261637586928
 31
0.0
  0
LINE
  5
269
330
6C
100
AcDbEntity
  8
Visible (ANSI)
100
AcDbLine
 10
48.28890632807093
 20
29.40135090722752
 30
0.0
 11
48.34123222987874
 21
29.43171691164523
 31
0.0
  0
LINE
  5
26A
330
6C
100
AcDbEntity
  8
Visible (ANSI)
100
AcDbLine
 10
48.37729467571923
 20
29.45225037145156
 30
0.0
 11
48.28890632807093
 21
29.40135090722752
 31
0.0
  0
LINE
  5
26B
330
6C
100
AcDbEntity
  8
Visible (ANSI)
100
AcDbLine
 10
48.42962057752704
 20
29.48261637586928
 30
0.0
 11
48.40192444247835
 21
29.53058740932739
 31
0.0
  0
LINE
  5
26C
330
6C
100
AcDbEntity
  8
Visible (ANSI)
100
AcDbLine
 10
48.28890632807093
 20
29.52234788170421
 30
0.0
 11
48.34711997539713
 21
29.55587089167405
 31
0.0
  0
LINE
  5
26D
330
6C
100
AcDbEntity
  8
Visible (ANSI)
100
AcDbLine
 10
48.34123222987874
 20
29.43171691164523
 30
0.0
 11
48.28890632807093
 21
29.52234788170421
 31
0.0
  0
LINE
  5
26E
330
6C
100
AcDbEntity
  8
Visible (ANSI)
100
AcDbLine
 10
52.55364410210295
 20
27.06644873289456
 30
0.0
 11
52.50131820029514
 21
27.03608272847684
 31
0.0
  0
LINE
  5
26F
330
6C
100
AcDbEntity
  8
Visible (ANSI)
100
AcDbLine
 10
52.50131820029514
 20
27.03608272847684
 30
0.0
 11
52.55364410210295
 21
26.94545175841786
 31
0.0
  0
LINE
  5
270
330
6C
100
AcDbEntity
  8
Visible (ANSI)
100
AcDbLine
 10
50.43228094638026
 20
25.86394542101266
 30
0.0
 11
50.45713490252495
 21
25.84963297955097
 31
0.0
  0
LINE
  5
271
330
6C
100
AcDbEntity
  8
Visible Narrow (ANSI)
100
AcDbLine
 10
48.43258020516213
 20
26.9773712009134
 30
0.0
 11
48.37729467571925
 21
26.94553438188854
 31
0.0
  0
LINE
  5
272
330
6C
100
AcDbEntity
  8
Visible (ANSI)
100
AcDbLine
 10
50.36894931327912
 20
25.79861675452838
 30
0.0
 11
48.37729467571925
 21
26.94553438188854
 31
0.0
  0
LINE
  5
273
330
6C
100
AcDbEntity
  8
Visible (ANSI)
100
AcDbLine
 10
52.46525575445461
 20
24.59143416152696
 30
0.0
 11
50.47360111689474
 21
25.73835178888713
 31
0.0
  0
LINE
  5
274
330
6C
100
AcDbEntity
  8
Visible Narrow (ANSI)
100
AcDbLine
 10
52.52054128389747
 20
24.6232709805518
 30
0.0
 11
52.46525575445461
 21
24.59143416152696
 31
0.0
  0
LINE
  5
275
330
6C
100
AcDbEntity
  8
Visible Narrow (ANSI)
100
AcDbLine
 10
48.3441490453511
 20
31.85688371735385
 30
0.0
 11
48.28890632807094
 21
31.82507155221383
 31
0.0
  0
LINE
  5
276
330
6C
100
AcDbEntity
  8
Visible (ANSI)
100
AcDbLine
 10
48.28890632807093
 20
29.52234788170421
 30
0.0
 11
48.28890632807094
 21
31.82507155221383
 31
0.0
  0
LINE
  5
277
330
6C
100
AcDbEntity
  8
Visible (ANSI)
100
AcDbLine
 10
48.28890632807093
 20
27.09862723671789
 30
0.0
 11
48.28890632807093
 21
29.40135090722752
 31
0.0
  0
LINE
  5
278
330
6C
100
AcDbEntity
  8
Visible Narrow (ANSI)
100
AcDbLine
 10
48.3441490453511
 20
27.13043940185792
 30
0.0
 11
48.28890632807093
 21
27.09862723671789
 31
0.0
  0
LINE
  5
279
330
6C
100
AcDbEntity
  8
Visible (ANSI)
100
AcDbLine
 10
48.37729467571923
 20
29.45225037145156
 30
0.0
 11
48.37729467571923
 21
29.42337894967991
 31
0.0
  0
LINE
  5
27A
330
6C
100
AcDbEntity
  8
Visible (ANSI)
100
AcDbLine
 10
52.55364410210295
 20
29.36917240340418
 30
0.0
 11
52.55364410210295
 21
27.06644873289456
 31
0.0
  0
LINE
  5
27B
330
6C
100
AcDbEntity
  8
Visible (ANSI)
100
AcDbLine
 10
52.55364410210295
 20
26.94545175841786
 30
0.0
 11
52.55364410210295
 21
24.64272808790824
 31
0.0
  0
ELLIPSE
  5
27C
330
6C
100
AcDbEntity
  8
Visible (ANSI)
100
AcDbEllipse
 10
48.37729467571925
 20
27.04772777249386
 30
0.0
 11
-0.062379026448044
 21
0.1083229295181495
 31
0.0
210
0.0
220
0.0
230
1.0
 40
0.578093115915813
 41
0.7873318718205989
 42
2.3581281986154
  0
ELLIPSE
  5
27D
330
6C
100
AcDbEntity
  8
Visible (ANSI)
100
AcDbEllipse
 10
48.37729467571926
 20
31.7741720879898
 30
0.0
 11
-0.0623790264480509
 21
0.1083229295181464
 31
0.0
210
0.0
220
0.0
230
1.0
 40
0.5780931159158131
 41
5.49972085220502
 42
7.070517178999908
  0
LINE
  5
27E
330
6C
100
AcDbEntity
  8
Visible (ANSI)
100
AcDbLine
 10
48.37729467571926
 20
31.87636547859511
 30
0.0
 11
52.46525575445462
 21
29.52226525823353
 31
0.0
  0
ELLIPSE
  5
27F
330
6C
100
AcDbEntity
  8
Visible (ANSI)
100
AcDbEllipse
 10
52.46525575445462
 20
29.42007186762821
 30
0.0
 11
0.0623790264480443
 21
-0.1083229295181498
 31
0.0
210
0.0
220
0.0
230
1.0
 40
0.5780931159158131
 41
0.7873318718205989
 42
2.3581281986154
  0
ELLIPSE
  5
280
330
6C
100
AcDbEntity
  8
Visible (ANSI)
100
AcDbEllipse
 10
52.46525575445461
 20
24.69362755213228
 30
0.0
 11
0.0623790264480509
 21
-0.1083229295181464
 31
0.0
210
0.0
220
0.0
230
1.0
 40
0.5780931159158133
 41
5.49972085220502
 42
7.070517178999908
  0
ELLIPSE
  5
281
330
6C
100
AcDbEntity
  8
Visible (ANSI)
100
AcDbEllipse
 10
47.9905956547578
 20
26.82331684457575
 30
0.0
 11
-0.1871370793441347
 21
0.324968788554453
 31
0.0
210
0.0
220
0.0
230
1.0
 40
0.578093115915813
 41
0.7873318718205784
 42
2.358128198615474
  0
LINE
  5
282
330
6C
100
AcDbEntity
  8
Visible (ANSI)
100
AcDbLine
 10
47.72543061181281
 20
26.97601523724785
 30
0.0
 11
47.72543061181282
 21
32.59665172054031
 31
0.0
  0
ELLIPSE
  5
283
330
6C
100
AcDbEntity
  8
Visible (ANSI)
100
AcDbEllipse
 10
47.9905956547578
 20
32.44395332786821
 30
0.0
 11
-0.1871370793441534
 21
0.3249687885544406
 31
0.0
210
0.0
220
0.0
230
1.0
 40
0.578093115915813
 41
5.499720852205019
 42
7.070517178999927
  0
LINE
  5
284
330
6C
100
AcDbEntity
  8
Visible Narrow (ANSI)
100
AcDbLine
 10
48.07898400240611
 20
32.80143296390821
 30
0.0
 11
47.9905956547578
 21
32.75053349968417
 31
0.0
  0
ELLIPSE
  5
285
330
6C
100
AcDbEntity
  8
Visible (ANSI)
100
AcDbEllipse
 10
48.07898400240611
 20
32.49485279209225
 30
0.0
 11
-0.1871370793441551
 21
0.3249687885544435
 31
0.0
210
0.0
220
0.0
230
1.0
 40
0.578093115915813
 41
5.499720852205019
 42
6.283185307179581
  0
LINE
  5
286
330
6C
100
AcDbEntity
  8
Visible (ANSI)
100
AcDbLine
 10
47.9905956547578
 20
32.75053349968417
 30
0.0
 11
52.85195477541607
 21
29.95106296736228
 31
0.0
  0
LINE
  5
287
330
6C
100
AcDbEntity
  8
Visible Narrow (ANSI)
100
AcDbLine
 10
52.94034312306438
 20
30.00196243158633
 30
0.0
 11
52.85195477541607
 21
29.95106296736228
 31
0.0
  0
LINE
  5
288
330
6C
100
AcDbEntity
  8
Visible (ANSI)
100
AcDbLine
 10
52.94034312306438
 20
30.00196243158633
 30
0.0
 11
48.07898400240611
 21
32.80143296390821
 31
0.0
  0
ELLIPSE
  5
289
330
6C
100
AcDbEntity
  8
Visible (ANSI)
100
AcDbEllipse
 10
52.85195477541607
 20
29.64448279554633
 30
0.0
 11
0.1871370793441339
 21
-0.3249687885544517
 31
0.0
210
0.0
220
0.0
230
1.0
 40
0.578093115915813
 41
0.7873318718205776
 42
2.358128198615474
  0
LINE
  5
28A
330
6C
100
AcDbEntity
  8
Visible Narrow (ANSI)
100
AcDbLine
 10
53.20550816600938
 20
29.54268386709827
 30
0.0
 11
53.11711981836107
 21
29.49178440287422
 31
0.0
  0
ELLIPSE
  5
28B
330
6C
100
AcDbEntity
  8
Visible (ANSI)
100
AcDbEllipse
 10
52.94034312306438
 20
29.69538225977038
 30
0.0
 11
-0.1871370793441728
 21
0.3249687885544294
 31
0.0
210
0.0
220
0.0
230
0.9999999999999998
 40
0.578093115915813
 41
3.928924525409863
 42
5.499720852204773
  0
LINE
  5
28C
330
6C
100
AcDbEntity
  8
Visible (ANSI)
100
AcDbLine
 10
53.11711981836107
 20
29.49178440287422
 30
0.0
 11
53.11711981836106
 21
23.87114791958176
 31
0.0
  0
LINE
  5
28D
330
6C
100
AcDbEntity
  8
Visible Narrow (ANSI)
100
AcDbLine
 10
53.20550816600936
 20
23.92204738380581
 30
0.0
 11
53.11711981836106
 21
23.87114791958176
 31
0.0
  0
LINE
  5
28E
330
6C
100
AcDbEntity
  8
Visible (ANSI)
100
AcDbLine
 10
53.20550816600936
 20
23.92204738380581
 30
0.0
 11
53.20550816600938
 21
29.54268386709827
 31
0.0
  0
ELLIPSE
  5
28F
330
6C
100
AcDbEntity
  8
Visible (ANSI)
100
AcDbEllipse
 10
52.85195477541606
 20
24.02384631225387
 30
0.0
 11
0.1871370793441542
 21
-0.3249687885544418
 31
0.0
210
0.0
220
0.0
230
1.0
 40
0.578093115915813
 41
5.49972085220502
 42
7.070517178999911
  0
ELLIPSE
  5
290
330
6C
100
AcDbEntity
  8
Visible (ANSI)
100
AcDbEllipse
 10
52.94034312306437
 20
24.07474577647791
 30
0.0
 11
0.1871370793441554
 21
-0.3249687885544436
 31
0.0
210
0.0
220
0.0
230
1.0
 40
0.5780931159158131
 41
0.0
 42
0.7873318718203235
  0
LINE
  5
291
330
6C
100
AcDbEntity
  8
Visible (ANSI)
100
AcDbLine
 10
52.85195477541606
 20
23.71726614043791
 30
0.0
 11
47.9905956547578
 21
26.51673667275979
 31
0.0
  0
LINE
  5
292
330
6C
100
AcDbEntity
  8
Visible (ANSI)
100
AcDbLine
 10
47.89184692306196
 20
32.8198215806467
 30
0.0
 11
47.80345857541365
 21
32.76892211642265
 31
0.0
  0
LINE
  5
293
330
6C
100
AcDbEntity
  8
Visible (ANSI)
100
AcDbLine
 10
53.12748020240852
 20
23.74977698792347
 30
0.0
 11
53.03909185476022
 21
23.69887752369942
 31
0.0
  0
ELLIPSE
  5
294
330
6C
100
AcDbEntity
  8
Visible (ANSI)
100
AcDbEllipse
 10
52.94034312306438
 20
26.88506401812415
 30
0.0
 11
0.0701764047540647
 21
-0.1218632957079109
 31
0.0
210
0.0
220
0.0
230
1.0
 40
0.5780931159158131
 41
3.819709301184424
 42
5.605068659584296
  0
ELLIPSE
  5
295
330
6C
100
AcDbEntity
  8
Visible (ANSI)
100
AcDbEllipse
 10
52.85195477541607
 20
26.8341645539001
 30
0.0
 11
-0.0701764047540503
 21
0.1218632957079195
 31
0.0
210
0.0
220
0.0
230
1.0
 40
0.578093115915813
 41
0.0
 42
6.283185307179586
  0
ELLIPSE
  5
296
330
6C
100
AcDbEntity
  8
Visible (ANSI)
100
AcDbEllipse
 10
50.50966356273524
 20
25.47448104263885
 30
0.0
 11
0.0701764047540649
 21
-0.1218632957079111
 31
0.0
210
0.0
220
0.0
230
1.0
 40
0.578093115915813
 41
3.81970930118438
 42
5.605068659584295
  0
ELLIPSE
  5
297
330
6C
100
AcDbEntity
  8
Visible (ANSI)
100
AcDbEllipse
 10
50.42127521508693
 20
25.4235815784148
 30
0.0
 11
-0.0701764047540502
 21
0.1218632957079192
 31
0.0
210
0.0
220
0.0
230
1.0
 40
0.5780931159158131
 41
0.0
 42
6.283185307179586
  0
ELLIPSE
  5
298
330
6C
100
AcDbEntity
  8
Visible (ANSI)
100
AcDbEllipse
 10
48.07898400240611
 20
29.68453455044603
 30
0.0
 11
0.0701764047540648
 21
-0.1218632957079109
 31
0.0
210
0.0
220
0.0
230
0.9999999999999998
 40
0.5780931159158131
 41
3.819709301184422
 42
5.605068659584296
  0
ELLIPSE
  5
299
330
6C
100
AcDbEntity
  8
Visible (ANSI)
100
AcDbEllipse
 10
47.9905956547578
 20
29.63363508622198
 30
0.0
 11
-0.0701764047540503
 21
0.1218632957079195
 31
0.0
210
0.0
220
0.0
230
1.0
 40
0.578093115915813
 41
0.0
 42
6.283185307179586
  0
ELLIPSE
  5
29A
330
6C
100
AcDbEntity
  8
Visible (ANSI)
100
AcDbEllipse
 10
50.50966356273524
 20
31.09511752593132
 30
0.0
 11
0.0701764047540649
 21
-0.121863295707911
 31
0.0
210
0.0
220
0.0
230
1.0
 40
0.578093115915813
 41
3.81970930118438
 42
5.605068659584295
  0
ELLIPSE
  5
29B
330
6C
100
AcDbEntity
  8
Visible (ANSI)
100
AcDbEllipse
 10
50.42127521508694
 20
31.04421806170727
 30
0.0
 11
-0.0701764047540502
 21
0.1218632957079192
 31
0.0
210
0.0
220
0.0
230
1.0
 40
0.5780931159158131
 41
0.0
 42
6.283185307179586
  0
ELLIPSE
  5
29C
330
6C
100
AcDbEntity
  8
Visible (ANSI)
100
AcDbEllipse
 10
48.16737235005444
 20
32.34175993726291
 30
0.0
 11
0.0701764047540651
 21
-0.1218632957079114
 31
0.0
210
0.0
220
0.0
230
0.9999999999999998
 40
0.5780931159158133
 41
3.81970930118438
 42
5.605068659584295
  0
ELLIPSE
  5
29D
330
6C
100
AcDbEntity
  8
Visible (ANSI)
100
AcDbEllipse
 10
48.07898400240614
 20
32.29086047303886
 30
0.0
 11
-0.0701764047540502
 21
0.1218632957079194
 31
0.0
210
0.0
220
0.0
230
1.0
 40
0.578093115915813
 41
0.0
 42
6.283185307179586
  0
ELLIPSE
  5
29E
330
6C
100
AcDbEntity
  8
Visible (ANSI)
100
AcDbEllipse
 10
52.85195477541606
 20
29.64408833338909
 30
0.0
 11
0.070176404754065
 21
-0.1218632957079114
 31
0.0
210
0.0
220
0.0
230
0.9999999999999998
 40
0.578093115915813
 41
3.819709301184465
 42
5.6050686595844
  0
ELLIPSE
  5
29F
330
6C
100
AcDbEntity
  8
Visible (ANSI)
100
AcDbEllipse
 10
52.76356642776774
 20
29.59318886916504
 30
0.0
 11
-0.0701764047540502
 21
0.1218632957079194
 31
0.0
210
0.0
220
0.0
230
1.0
 40
0.578093115915813
 41
0.0
 42
6.283185307179586
  0
ELLIPSE
  5
2A0
330
6C
100
AcDbEntity
  8
Visible (ANSI)
100
AcDbEllipse
 10
48.16737235005444
 20
26.92551023518108
 30
0.0
 11
0.0701764047540654
 21
-0.121863295707912
 31
0.0
210
0.0
220
0.0
230
0.9999999999999998
 40
0.578093115915813
 41
3.81970930118438
 42
5.605068659584295
  0
ELLIPSE
  5
2A1
330
6C
100
AcDbEntity
  8
Visible (ANSI)
100
AcDbEllipse
 10
48.07898400240613
 20
26.87461077095703
 30
0.0
 11
-0.0701764047540502
 21
0.1218632957079194
 31
0.0
210
0.0
220
0.0
230
1.0
 40
0.578093115915813
 41
0.0
 42
6.283185307179586
  0
ELLIPSE
  5
2A2
330
6C
100
AcDbEntity
  8
Visible (ANSI)
100
AcDbEllipse
 10
52.85195477541604
 20
24.22783863130727
 30
0.0
 11
0.0701764047540644
 21
-0.1218632957079103
 31
0.0
210
0.0
220
0.0
230
1.0
 40
0.578093115915813
 41
3.819709301184422
 42
5.605068659584295
  0
ELLIPSE
  5
2A3
330
6C
100
AcDbEntity
  8
Visible (ANSI)
100
AcDbEllipse
 10
52.76356642776773
 20
24.17693916708322
 30
0.0
 11
-0.0701764047540502
 21
0.1218632957079194
 31
0.0
210
0.0
220
0.0
230
1.0
 40
0.578093115915813
 41
0.0
 42
6.283185307179586
  0
LINE
  5
2A4
330
6C
100
AcDbEntity
  8
Visible (ANSI)
100
AcDbLine
 10
56.73582715942949
 20
36.66389601020556
 30
0.0
 11
56.7910698767097
 21
36.66389601020556
 31
0.0
  0
LINE
  5
2A5
330
6C
100
AcDbEntity
  8
Visible (ANSI)
100
AcDbLine
 10
56.84047896304509
 20
36.76608940081088
 30
0.0
 11
56.84047896304509
 21
36.69890847481342
 31
0.0
  0
LINE
  5
2A6
330
6C
100
AcDbEntity
  8
Visible (ANSI)
100
AcDbLine
 10
56.73582715942949
 20
36.76608940081088
 30
0.0
 11
56.84047896304509
 21
36.76608940081088
 31
0.0
  0
LINE
  5
2A7
330
6C
100
AcDbEntity
  8
Visible (ANSI)
100
AcDbLine
 10
56.73582715942949
 20
36.76608940081088
 30
0.0
 11
56.73582715942949
 21
36.66389601020556
 31
0.0
  0
LINE
  5
2A8
330
6C
100
AcDbEntity
  8
Visible (ANSI)
100
AcDbLine
 10
56.73582715942947
 20
36.82635436645214
 30
0.0
 11
56.73582715942949
 21
36.76608940081088
 31
0.0
  0
LINE
  5
2A9
330
6C
100
AcDbEntity
  8
Visible (ANSI)
100
AcDbLine
 10
56.84047896304572
 20
34.37045521764214
 30
0.0
 11
56.73582715943012
 21
34.37045521764213
 31
0.0
  0
LINE
  5
2AA
330
6C
100
AcDbEntity
  8
Visible (ANSI)
100
AcDbLine
 10
56.73582715943012
 20
34.37045521764213
 30
0.0
 11
56.73582715943012
 21
34.31019025200087
 31
0.0
  0
LINE
  5
2AB
330
6C
100
AcDbEntity
  8
Visible (ANSI)
100
AcDbLine
 10
52.52049847173354
 20
36.6638960102052
 30
0.0
 11
52.57574118901373
 21
36.66389601020521
 31
0.0
  0
LINE
  5
2AC
330
6C
100
AcDbEntity
  8
Visible (ANSI)
100
AcDbLine
 10
52.57574118901373
 20
36.76608940081052
 30
0.0
 11
52.57574118901373
 21
36.66389601020521
 31
0.0
  0
LINE
  5
2AD
330
6C
100
AcDbEntity
  8
Visible (ANSI)
100
AcDbLine
 10
52.47108938539811
 20
36.76608940081051
 30
0.0
 11
52.57574118901373
 21
36.76608940081052
 31
0.0
  0
LINE
  5
2AE
330
6C
100
AcDbEntity
  8
Visible (ANSI)
100
AcDbLine
 10
52.47108938539811
 20
36.69890847481306
 30
0.0
 11
52.47108938539811
 21
36.76608940081051
 31
0.0
  0
LINE
  5
2AF
330
6C
100
AcDbEntity
  8
Visible (ANSI)
100
AcDbLine
 10
52.57574118901373
 20
36.76608940081052
 30
0.0
 11
52.5757411890137
 21
36.82635436645179
 31
0.0
  0
LINE
  5
2B0
330
6C
100
AcDbEntity
  8
Visible Narrow (ANSI)
100
AcDbLine
 10
58.83213360060495
 20
35.55477140673243
 30
0.0
 11
58.83213360060495
 21
35.61917177345073
 31
0.0
  0
LINE
  5
2B1
330
6C
100
AcDbEntity
  8
Visible (ANSI)
100
AcDbLine
 10
56.84047896304509
 20
36.76608940081088
 30
0.0
 11
58.83213360060495
 21
35.61917177345073
 31
0.0
  0
LINE
  5
2B2
330
6C
100
AcDbEntity
  8
Visible (ANSI)
100
AcDbLine
 10
54.7441725218696
 20
37.97327199381231
 30
0.0
 11
56.73582715942947
 21
36.82635436645214
 31
0.0
  0
LINE
  5
2B3
330
6C
100
AcDbEntity
  8
Visible Narrow (ANSI)
100
AcDbLine
 10
54.7441725218696
 20
37.90945043245363
 30
0.0
 11
54.7441725218696
 21
37.97327199381231
 31
0.0
  0
LINE
  5
2B4
330
6C
100
AcDbEntity
  8
Visible (ANSI)
100
AcDbLine
 10
56.73582715942947
 20
36.72416097584683
 30
0.0
 11
56.71081325704499
 21
36.73856552422222
 31
0.0
  0
LINE
  5
2B5
330
6C
100
AcDbEntity
  8
Visible (ANSI)
100
AcDbLine
 10
56.73582715943012
 20
34.31019025200087
 30
0.0
 11
54.74417252187087
 21
33.16327262464037
 31
0.0
  0
LINE
  5
2B6
330
6C
100
AcDbEntity
  8
Visible (ANSI)
100
AcDbLine
 10
58.83213360060498
 20
35.51737284500264
 30
0.0
 11
56.84047896304572
 21
34.37045521764214
 31
0.0
  0
LINE
  5
2B7
330
6C
100
AcDbEntity
  8
Visible (ANSI)
100
AcDbLine
 10
50.47943474783886
 20
35.61917177345002
 30
0.0
 11
52.47108938539811
 21
36.76608940081051
 31
0.0
  0
LINE
  5
2B8
330
6C
100
AcDbEntity
  8
Visible Narrow (ANSI)
100
AcDbLine
 10
50.47943474783886
 20
35.55535021209134
 30
0.0
 11
50.47943474783886
 21
35.61917177345002
 31
0.0
  0
LINE
  5
2B9
330
6C
100
AcDbEntity
  8
Visible (ANSI)
100
AcDbLine
 10
52.60075509139818
 20
36.73856552422188
 30
0.0
 11
52.5757411890137
 21
36.72416097584647
 31
0.0
  0
LINE
  5
2BA
330
6C
100
AcDbEntity
  8
Visible Narrow (ANSI)
100
AcDbLine
 10
54.56739582657296
 20
37.90945043245362
 30
0.0
 11
54.56739582657296
 21
37.97327199381228
 31
0.0
  0
LINE
  5
2BB
330
6C
100
AcDbEntity
  8
Visible (ANSI)
100
AcDbLine
 10
52.5757411890137
 20
36.82635436645179
 30
0.0
 11
54.56739582657296
 21
37.97327199381228
 31
0.0
  0
ELLIPSE
  5
2BC
330
6C
100
AcDbEntity
  8
Visible (ANSI)
100
AcDbEllipse
 10
58.74374525295665
 20
35.56827230922668
 30
0.0
 11
0.124999999999999
 21
-0.0000000000000003
 31
0.0
210
0.0
220
0.0
230
1.0
 40
0.5758617009853103
 41
5.497787143782282
 42
7.068583470577209
  0
ELLIPSE
  5
2BD
330
6C
100
AcDbEntity
  8
Visible (ANSI)
100
AcDbEllipse
 10
54.65578417422253
 20
33.2141720888644
 30
0.0
 11
-0.1249999999999997
 21
0.0000000000000078
 31
0.0
210
0.0
220
0.0
230
1.0
 40
0.57586170098531
 41
0.7853981633978453
 42
2.356194490192768
  0
LINE
  5
2BE
330
6C
100
AcDbEntity
  8
Visible (ANSI)
100
AcDbLine
 10
54.56739582657423
 20
33.16327262464036
 30
0.0
 11
50.47943474783888
 21
35.51737284500193
 31
0.0
  0
ELLIPSE
  5
2BF
330
6C
100
AcDbEntity
  8
Visible (ANSI)
100
AcDbEllipse
 10
50.56782309548719
 20
35.56827230922599
 30
0.0
 11
-0.1249999999999994
 21
0.0000000000000003
 31
0.0
210
0.0
220
0.0
230
1.0
 40
0.57586170098531
 41
5.497787143782284
 42
7.068583470577153
  0
ELLIPSE
  5
2C0
330
6C
100
AcDbEntity
  8
Visible (ANSI)
100
AcDbEllipse
 10
54.6557841742213
 20
37.92237252958825
 30
0.0
 11
0.1249999999999997
 21
-0.0000000000000078
 31
0.0
210
0.0
220
0.0
230
1.0
 40
0.5758617009853103
 41
0.7853981633978453
 42
2.356194490192768
  0
ELLIPSE
  5
2C1
330
6C
100
AcDbEntity
  8
Visible (ANSI)
100
AcDbEllipse
 10
59.51714329487944
 20
35.56827230922674
 30
0.0
 11
0.3750000000000019
 21
-0.000000000000001
 31
0.0
210
0.0
220
0.0
230
1.0
 40
0.5758617009853103
 41
5.497787143782303
 42
7.068583470577188
  0
LINE
  5
2C2
330
6C
100
AcDbEntity
  8
Visible Narrow (ANSI)
100
AcDbLine
 10
59.78230833782443
 20
35.31338052594933
 30
0.0
 11
59.78230833782443
 21
35.41557391655465
 31
0.0
  0
ELLIPSE
  5
2C3
330
6C
100
AcDbEntity
  8
Visible (ANSI)
100
AcDbEllipse
 10
59.51714329487944
 20
35.46607891862143
 30
0.0
 11
0.3749999999999999
 21
-0.000000000000001
 31
0.0
210
0.0
220
0.0
230
1.0
 40
0.57586170098531
 41
5.497787143782303
 42
6.283185307179591
  0
LINE
  5
2C4
330
6C
100
AcDbEntity
  8
Visible (ANSI)
100
AcDbLine
 10
59.78230833782443
 20
35.41557391655465
 30
0.0
 11
54.92094921716765
 21
32.61610338423194
 31
0.0
  0
LINE
  5
2C5
330
6C
100
AcDbEntity
  8
Visible Narrow (ANSI)
100
AcDbLine
 10
54.92094921716765
 20
32.51390999362662
 30
0.0
 11
54.92094921716765
 21
32.61610338423194
 31
0.0
  0
LINE
  5
2C6
330
6C
100
AcDbEntity
  8
Visible (ANSI)
100
AcDbLine
 10
54.92094921716765
 20
32.51390999362662
 30
0.0
 11
59.78230833782443
 21
35.31338052594933
 31
0.0
  0
ELLIPSE
  5
2C7
330
6C
100
AcDbEntity
  8
Visible (ANSI)
100
AcDbEllipse
 10
54.65578417422265
 20
32.76880177690404
 30
0.0
 11
-0.3750000000000005
 21
0.0000000000000233
 31
0.0
210
0.0
220
0.0
230
1.0
 40
0.57586170098531
 41
0.7853981633978453
 42
2.356194490192752
  0
LINE
  5
2C8
330
6C
100
AcDbEntity
  8
Visible Narrow (ANSI)
100
AcDbLine
 10
54.39061913127773
 20
32.51390999362658
 30
0.0
 11
54.39061913127773
 21
32.61610338423189
 31
0.0
  0
ELLIPSE
  5
2C9
330
6C
100
AcDbEntity
  8
Visible (ANSI)
100
AcDbEllipse
 10
54.65578417422265
 20
32.66660838629872
 30
0.0
 11
0.3750000000000005
 21
0.0000000000000212
 31
0.0
210
0.0
220
0.0
230
1.0
 40
0.57586170098531
 41
3.926990816987171
 42
5.497787143782059
  0
LINE
  5
2CA
330
6C
100
AcDbEntity
  8
Visible (ANSI)
100
AcDbLine
 10
54.39061913127773
 20
32.61610338423189
 30
0.0
 11
49.52926001061948
 21
35.41557391655377
 31
0.0
  0
LINE
  5
2CB
330
6C
100
AcDbEntity
  8
Visible Narrow (ANSI)
100
AcDbLine
 10
49.52926001061948
 20
35.31338052594845
 30
0.0
 11
49.52926001061948
 21
35.41557391655377
 31
0.0
  0
LINE
  5
2CC
330
6C
100
AcDbEntity
  8
Visible (ANSI)
100
AcDbLine
 10
49.52926001061948
 20
35.31338052594845
 30
0.0
 11
54.39061913127773
 21
32.51390999362658
 31
0.0
  0
ELLIPSE
  5
2CD
330
6C
100
AcDbEntity
  8
Visible (ANSI)
100
AcDbEllipse
 10
49.79442505356439
 20
35.56827230922592
 30
0.0
 11
-0.3750000000000006
 21
0.000000000000001
 31
0.0
210
0.0
220
0.0
230
1.0
 40
0.5758617009853101
 41
5.497787143782303
 42
7.068583470577189
  0
ELLIPSE
  5
2CE
330
6C
100
AcDbEntity
  8
Visible (ANSI)
100
AcDbEllipse
 10
49.79442505356441
 20
35.4660789186206
 30
0.0
 11
-0.3750000000000063
 21
-0.0000000000000018
 31
0.0
210
0.0
220
0.0
230
1.0
 40
0.5758617009853103
 41
0.0
 42
0.7853981633975265
  0
LINE
  5
2CF
330
6C
100
AcDbEntity
  8
Visible (ANSI)
100
AcDbLine
 10
49.5292600106194
 20
35.72097070189801
 30
0.0
 11
54.39061913127618
 21
38.52044123422072
 31
0.0
  0
ELLIPSE
  5
2D0
330
6C
100
AcDbEntity
  8
Visible (ANSI)
100
AcDbEllipse
 10
54.65578417422118
 20
38.36774284154862
 30
0.0
 11
0.3750000000000019
 21
-0.0000000000000234
 31
0.0
210
0.0
220
0.0
230
1.0
 40
0.5758617009853101
 41
0.7853981633978462
 42
2.356194490192734
  0
LINE
  5
2D1
330
6C
100
AcDbEntity
  8
Visible (ANSI)
100
AcDbLine
 10
54.9209492171661
 20
38.52044123422077
 30
0.0
 11
59.78230833782435
 21
35.72097070189889
 31
0.0
  0
LINE
  5
2D2
330
6C
100
AcDbEntity
  8
Visible (ANSI)
100
AcDbLine
 10
59.89214329487943
 20
35.46607891862143
 30
0.0
 11
59.89214329487943
 21
35.56827230922674
 31
0.0
  0
LINE
  5
2D3
330
6C
100
AcDbEntity
  8
Visible (ANSI)
100
AcDbLine
 10
49.4194250535644
 20
35.4660789186206
 30
0.0
 11
49.4194250535644
 21
35.56827230922591
 31
0.0
  0
ELLIPSE
  5
2D4
330
6C
100
AcDbEntity
  8
Visible (ANSI)
100
AcDbEllipse
 10
52.22510461389279
 20
36.86581418478195
 30
0.0
 11
-0.1406250000000006
 21
-0.000000000000008
 31
0.0
210
0.0
220
0.0
230
1.0
 40
0.5758617009853101
 41
3.824401853699312
 42
5.600376107069484
  0
ELLIPSE
  5
2D5
330
6C
100
AcDbEntity
  8
Visible (ANSI)
100
AcDbEllipse
 10
52.22510461389279
 20
36.96800757538726
 30
0.0
 11
0.1406250000000003
 21
-0.0000000000000004
 31
0.0
210
0.0
220
0.0
230
1.0
 40
0.5758617009853101
 41
0.0
 42
6.283185307179586
  0
ELLIPSE
  5
2D6
330
6C
100
AcDbEntity
  8
Visible (ANSI)
100
AcDbEllipse
 10
57.08646373455031
 20
36.86581418478237
 30
0.0
 11
-0.1406250000000008
 21
-0.000000000000008
 31
0.0
210
0.0
220
0.0
230
1.0
 40
0.57586170098531
 41
3.824401853699312
 42
5.600376107069484
  0
ELLIPSE
  5
2D7
330
6C
100
AcDbEntity
  8
Visible (ANSI)
100
AcDbEllipse
 10
57.08646373455031
 20
36.96800757538768
 30
0.0
 11
0.1406250000000001
 21
-0.0000000000000004
 31
0.0
210
0.0
220
0.0
230
1.0
 40
0.5758617009853101
 41
0.0
 42
6.283185307179586
  0
ELLIPSE
  5
2D8
330
6C
100
AcDbEntity
  8
Visible (ANSI)
100
AcDbEllipse
 10
57.08646373455104
 20
34.06634365246008
 30
0.0
 11
-0.1406249999999998
 21
-0.000000000000008
 31
0.0
210
0.0
220
0.0
230
1.0
 40
0.57586170098531
 41
3.824401853699312
 42
5.600376107069439
  0
ELLIPSE
  5
2D9
330
6C
100
AcDbEntity
  8
Visible (ANSI)
100
AcDbEllipse
 10
57.08646373455104
 20
34.16853704306539
 30
0.0
 11
0.1406250000000003
 21
-0.0000000000000004
 31
0.0
210
0.0
220
0.0
230
1.0
 40
0.5758617009853101
 41
0.0
 42
6.283185307179586
  0
ELLIPSE
  5
2DA
330
6C
100
AcDbEntity
  8
Visible (ANSI)
100
AcDbEllipse
 10
52.22510461389353
 20
34.06634365245966
 30
0.0
 11
-0.1406250000000001
 21
-0.000000000000008
 31
0.0
210
0.0
220
0.0
230
1.0
 40
0.5758617009853103
 41
3.824401853699312
 42
5.600376107069439
  0
ELLIPSE
  5
2DB
330
6C
100
AcDbEntity
  8
Visible (ANSI)
100
AcDbEllipse
 10
52.22510461389353
 20
34.16853704306497
 30
0.0
 11
0.1406250000000001
 21
-0.0000000000000004
 31
0.0
210
0.0
220
0.0
230
1.0
 40
0.5758617009853101
 41
0.0
 42
6.283185307179586
  0
ELLIPSE
  5
2DC
330
6C
100
AcDbEntity
  8
Visible (ANSI)
100
AcDbEllipse
 10
54.65578417422263
 20
32.76840731474681
 30
0.0
 11
-0.1406249999999994
 21
-0.000000000000008
 31
0.0
210
0.0
220
0.0
230
1.0
 40
0.57586170098531
 41
3.824401853699312
 42
5.600376107069439
  0
ELLIPSE
  5
2DD
330
6C
100
AcDbEntity
  8
Visible (ANSI)
100
AcDbEllipse
 10
54.65578417422263
 20
32.87060070535213
 30
0.0
 11
0.1406250000000002
 21
-0.0000000000000004
 31
0.0
210
0.0
220
0.0
230
1.0
 40
0.5758617009853101
 41
0.0
 42
6.283185307179586
  0
ELLIPSE
  5
2DE
330
6C
100
AcDbEntity
  8
Visible (ANSI)
100
AcDbEllipse
 10
49.97120174886104
 20
35.46607891862061
 30
0.0
 11
-0.1406249999999987
 21
-0.000000000000008
 31
0.0
210
0.0
220
0.0
230
1.0
 40
0.5758617009853103
 41
3.824401853699312
 42
5.600376107069439
  0
ELLIPSE
  5
2DF
330
6C
100
AcDbEntity
  8
Visible (ANSI)
100
AcDbEllipse
 10
49.97120174886104
 20
35.56827230922593
 30
0.0
 11
0.1406250000000002
 21
-0.0000000000000004
 31
0.0
210
0.0
220
0.0
230
1.0
 40
0.5758617009853101
 41
0.0
 42
6.283185307179586
  0
ELLIPSE
  5
2E0
330
6C
100
AcDbEntity
  8
Visible (ANSI)
100
AcDbEllipse
 10
59.3403665995828
 20
35.46607891862141
 30
0.0
 11
-0.1406250000000007
 21
-0.000000000000008
 31
0.0
210
0.0
220
0.0
230
1.0
 40
0.57586170098531
 41
3.824401853699312
 42
5.600376107069483
  0
ELLIPSE
  5
2E1
330
6C
100
AcDbEntity
  8
Visible (ANSI)
100
AcDbEllipse
 10
59.3403665995828
 20
35.56827230922673
 30
0.0
 11
0.1406250000000002
 21
-0.0000000000000004
 31
0.0
210
0.0
220
0.0
230
1.0
 40
0.5758617009853101
 41
0.0
 42
6.283185307179586
  0
ELLIPSE
  5
2E2
330
6C
100
AcDbEntity
  8
Visible (ANSI)
100
AcDbEllipse
 10
54.65578417422121
 20
38.16375052249522
 30
0.0
 11
-0.1406249999999994
 21
-0.000000000000008
 31
0.0
210
0.0
220
0.0
230
1.0
 40
0.57586170098531
 41
3.824401853699312
 42
5.600376107069439
  0
ELLIPSE
  5
2E3
330
6C
100
AcDbEntity
  8
Visible (ANSI)
100
AcDbEllipse
 10
54.65578417422121
 20
38.26594391310054
 30
0.0
 11
0.1406250000000002
 21
-0.0000000000000004
 31
0.0
210
0.0
220
0.0
230
1.0
 40
0.5758617009853101
 41
0.0
 42
6.283185307179586
  0
MTEXT
  5
2E4
330
6C
100
AcDbEntity
  8
Symbol (ANSI)
100
AcDbMText
 10
53.749012779971
 20
21.69622130402216
 30
0.0
 40
0.6399999870507214
 41
0.0
 46
0.0
 71
     7
 72
     1
  1
 
  7
Label Text (ANSI)
 73
     1
 44
1.0
  0
DIMENSION
  5
2E5
330
6C
100
AcDbEntity
  8
Dimension (ANSI)
100
AcDbDimension
280
     0
  2
*D4
 10
40.36772785728518
 20
10.3763595534789
 30
0.0
 11
35.87347785728532
 21
10.3763595534789
 31
0.0
 70
   160
  1
<>
 42
8.988499999999746
 73
     0
 74
     0
 75
     0
  3
Default (ANSI)
100
AcDbAlignedDimension
 13
31.37922785728544
 23
10.9829078878527
 33
0.0
 14
40.36772785728518
 24
11.8694078878527
 34
0.0
 50
180.0
100
AcDbRotatedDimension
1001
ACAD
1000
DSTYLE
1002
{
1070
   289
1070
     1
1070
    73
1070
     0
1070
    74
1070
     0
1070
   271
1070
     1
1070
   272
1070
     1
1070
    48
1040
0.0
1070
    47
1040
0.0
1002
}
  0
DIMENSION
  5
3D1
330
6C
100
AcDbEntity
  8
Dimension (ANSI)
100
AcDbDimension
280
     0
  2
*D5
 10
42.25257037697045
 20
20.7839078878527
 30
0.0
 11
42.25257037697044
 21
16.2896578878527
 31
0.0
 70
   160
  1
<>
 42
8.988499999999998
 73
     0
 74
     0
 75
     0
  3
Default (ANSI)
100
AcDbAlignedDimension
 13
40.29372785728521
 23
11.7954078878527
 33
0.0
 14
41.18022785728535
 24
20.7839078878527
 34
0.0
 50
270.0
100
AcDbRotatedDimension
1001
ACAD
1000
DSTYLE
1002
{
1070
   289
1070
     1
1070
   271
1070
     1
1070
   272
1070
     1
1070
    48
1040
0.0
1070
    47
1040
0.0
1002
}
  0
LINE
  5
4BB
330
6C
100
AcDbEntity
  8
Centerline (ANSI)
  6
CHAIN
 48
0.9524481296539306
100
AcDbLine
 10
9.552713285198704
 20
10.91346344340826
 30
0.0
 11
9.552713285198707
 21
21.55146833391714
 31
0.0
  0
LINE
  5
4BC
330
6C
100
AcDbEntity
  8
Centerline (ANSI)
  6
CHAIN
 48
0.9524481296539306
100
AcDbLine
 10
5.37492663539963
 20
14.79540788785272
 30
0.0
 11
13.78537854627532
 21
14.7954078878527
 31
0.0
  0
DIMENSION
  5
4BD
330
6C
100
AcDbEntity
  8
Dimension (ANSI)
100
AcDbDimension
280
     0
  2
*D6
 10
29.53017282960509
 20
17.79640788785265
 30
0.0
 11
29.53017282960509
 21
14.79590788785268
 31
0.0
 70
   160
  1
<>
 42
6.000999999999953
 73
     0
 74
     0
 75
     0
  3
Default (ANSI)
100
AcDbAlignedDimension
 13
31.44172785728523
 23
11.7954078878527
 33
0.0
 14
31.44285285728522
 24
17.79640788785265
 34
0.0
 50
270.0
100
AcDbRotatedDimension
1001
ACAD
1000
DSTYLE
1002
{
1070
   289
1070
     1
1070
   271
1070
     2
1070
   272
1070
     2
1070
    48
1040
0.0
1070
    47
1040
0.0
1002
}
  0
DIMENSION
  5
5A7
330
6C
100
AcDbEntity
  8
Dimension (ANSI)
100
AcDbDimension
280
     0
  2
*D7
 10
30.75401985215454
 20
11.7954078878527
 30
0.0
 11
29.53017282960509
 21
9.477185267909192
 31
0.0
 70
   160
  1
(<>){\PTYP.}
 71
     5
 42
0.8125000000000017
 73
     0
 74
     0
 75
     0
  3
Default (ANSI)
100
AcDbAlignedDimension
 13
31.37922785728539
 23
10.9829078878527
 33
0.0
 14
31.44172785728523
 24
11.7954078878527
 34
0.0
 50
270.0
100
AcDbRotatedDimension
1001
ACAD
1000
DSTYLE
1002
{
1070
   289
1070
     1
1070
   271
1070
     2
1070
   147
1040
0.031496062992126
1070
    72
1070
     0
1070
    71
1070
     0
1070
   272
1070
     2
1070
    48
1040
0.0
1070
    47
1040
0.0
1002
}
  0
DIMENSION
  5
6C3
330
6C
100
AcDbEntity
  8
Dimension (ANSI)
100
AcDbDimension
280
     0
  2
*D8
 10
40.36772785728518
 20
22.11129981657204
 30
0.0
 11
37.36816219904469
 21
22.11129981657204
 31
0.0
 70
   160
  1
<>
 42
5.999131316480948
 73
     0
 74
     0
 75
     0
  3
Default (ANSI)
100
AcDbAlignedDimension
 13
34.36859654080424
 23
20.72215157137168
 33
0.0
 14
40.36772785728518
 24
20.7214078878527
 34
0.0
 50
180.0
100
AcDbRotatedDimension
1001
ACAD
1000
DSTYLE
1002
{
1070
   289
1070
     1
1070
    73
1070
     0
1070
    74
1070
     0
1070
   271
1070
     2
1070
   272
1070
     2
1070
    48
1040
0.0
1070
    47
1040
0.0
1002
}
  0
DIMENSION
  5
7AD
330
6C
100
AcDbEntity
  8
Dimension (ANSI)
100
AcDbDimension
280
     0
  2
*D9
 10
40.36772785728518
 20
22.11129981657203
 30
0.0
 11
43.1438844788362
 21
22.11129981657203
 31
0.0
 70
   160
  1
(<>){\PTYP.}
 71
     5
 42
0.8125000000001634
 73
     0
 74
     0
 75
     0
  3
Default (ANSI)
100
AcDbAlignedDimension
 13
41.18022785728535
 23
20.7839078878527
 33
0.0
 14
40.36772785728518
 24
20.7214078878527
 34
0.0
 50
180.0
100
AcDbRotatedDimension
1001
ACAD
1000
DSTYLE
1002
{
1070
   289
1070
     1
1070
    73
1070
     0
1070
    74
1070
     0
1070
   271
1070
     2
1070
   147
1040
0.031496062992126
1070
    72
1070
     0
1070
    71
1070
     0
1070
   272
1070
     2
1070
    48
1040
0.0
1070
    47
1040
0.0
1002
}
  0
DIMENSION
  5
8B5
330
6C
100
AcDbEntity
  8
Dimension (ANSI)
100
AcDbDimension
280
     0
  2
*D10
 10
33.10259212282247
 20
21.59293279296906
 30
0.0
 11
32.71448205489939
 21
21.01208502876686
 31
0.0
 70
   165
  1
<>{\PTYP.}
 71
     5
 42
2.356194490192337
 73
     0
 74
     0
 75
     0
  3
Default (ANSI)
100
AcDb3PointAngularDimension
 13
34.36859654080424
 23
20.72215157137168
 33
0.0
 14
34.21146170054056
 24
20.16979353472362
 34
0.0
 15
34.36859654080424
 25
20.32692837498729
 35
0.0
1001
ACAD_DSTYLE_DIMANGULAR_EXTENSION
1070
   387
1070
     1
1001
ACAD
1000
DSTYLE
1002
{
1070
   179
1070
     0
1070
    76
1070
     1
1070
   272
1070
     0
1070
    48
1040
0.0
1070
    47
1040
0.0
1002
}
  0
DIMENSION
  5
9EC
330
6C
100
AcDbEntity
  8
Dimension (ANSI)
100
AcDbDimension
280
     0
  2
*D11
 10
9.552713285198707
 20
21.98011290500257
 30
0.0
 11
8.052713285198704
 21
21.98011290500257
 31
0.0
 70
   160
  1
<>
 42
3.000000000000008
 73
     0
 74
     0
 75
     0
  3
Default (ANSI)
100
AcDbAlignedDimension
 13
6.552713285198699
 23
20.65890788785266
 33
0.0
 14
9.552713285198707
 24
21.55146833391714
 34
0.0
 50
180.0
100
AcDbRotatedDimension
1001
ACAD
1000
DSTYLE
1002
{
1070
   289
1070
     1
1070
    73
1070
     0
1070
    74
1070
     0
1070
   271
1070
     2
1070
   272
1070
     2
1070
    48
1040
0.0
1070
    47
1040
0.0
1002
}
  0
DIMENSION
  5
AD6
330
6C
100
AcDbEntity
  8
Dimension (ANSI)
100
AcDbDimension
280
     0
  2
*D12
 10
14.9277726758632
 20
11.7954078878527
 30
0.0
 11
14.9277726758632
 21
13.29540788785269
 31
0.0
 70
   160
  1
<>
 42
2.999999999999998
 73
     0
 74
     0
 75
     0
  3
Default (ANSI)
100
AcDbAlignedDimension
 13
13.78537854627532
 23
14.7954078878527
 33
0.0
 14
12.47871328519868
 24
11.7954078878527
 34
0.0
 50
270.0
100
AcDbRotatedDimension
1001
ACAD
1000
DSTYLE
1002
{
1070
   289
1070
     1
1070
   271
1070
     2
1070
   272
1070
     2
1070
    48
1040
0.0
1070
    47
1040
0.0
1002
}
  0
DIMENSION
  5
BC0
330
6C
100
AcDbEntity
  8
Dimension (ANSI)
100
AcDbDimension
280
     0
  2
*D13
 10
4.380575345835908
 20
14.79540788785272
 30
0.0
 11
4.380575345835906
 21
16.70165788785271
 31
0.0
 70
   160
  1
(<>)
 42
3.812499999999994
 73
     0
 74
     0
 75
     0
  3
Default (ANSI)
100
AcDbAlignedDimension
 13
6.115213285198701
 23
18.60790788785271
 33
0.0
 14
5.37492663539963
 24
14.79540788785272
 34
0.0
 50
270.0
100
AcDbRotatedDimension
1001
ACAD
1000
DSTYLE
1002
{
1070
   289
1070
     1
1070
   271
1070
     2
1070
   147
1040
0.031496062992126
1070
    72
1070
     0
1070
    71
1070
     0
1070
   272
1070
     2
1070
    48
1040
0.0
1070
    47
1040
0.0
1002
}
  0
DIMENSION
  5
CB4
330
6C
100
AcDbEntity
  8
Dimension (ANSI)
100
AcDbDimension
280
     0
  2
*D14
 10
2.966627914068646
 20
10.98290788785271
 30
0.0
 11
2.966627914068645
 21
14.79540788785272
 31
0.0
 70
   160
  1
(<>)
 42
7.624999999999998
 73
     0
 74
     0
 75
     0
  3
Default (ANSI)
100
AcDbAlignedDimension
 13
6.115213285198701
 23
18.60790788785271
 33
0.0
 14
6.115213285198698
 24
10.98290788785271
 34
0.0
 50
270.0
100
AcDbRotatedDimension
1001
ACAD
1000
DSTYLE
1002
{
1070
   289
1070
     1
1070
   271
1070
     2
1070
   147
1040
0.031496062992126
1070
    72
1070
     0
1070
    71
1070
     0
1070
   272
1070
     2
1070
    48
1040
0.0
1070
    47
1040
0.0
1002
}
  0
DIMENSION
  5
DA8
330
6C
100
AcDbEntity
  8
Dimension (ANSI)
100
AcDbDimension
280
     0
  2
*D15
 10
9.552713285198704
 20
10.10561118500206
 30
0.0
 11
7.646463285198699
 21
10.10561118500206
 31
0.0
 70
   160
  1
(<>)
 42
3.812500000000007
 73
     0
 74
     0
 75
     0
  3
Default (ANSI)
100
AcDbAlignedDimension
 13
5.740213285198697
 23
11.35790788785271
 33
0.0
 14
9.552713285198704
 24
10.91346344340826
 34
0.0
100
AcDbRotatedDimension
1001
ACAD
1000
DSTYLE
1002
{
1070
   289
1070
     1
1070
    73
1070
     0
1070
    74
1070
     0
1070
   271
1070
     2
1070
   147
1040
0.031496062992126
1070
    72
1070
     0
1070
    71
1070
     0
1070
   272
1070
     2
1070
    48
1040
0.0
1070
    47
1040
0.0
1002
}
  0
DIMENSION
  5
E9C
330
6C
100
AcDbEntity
  8
Dimension (ANSI)
100
AcDbDimension
280
     0
  2
*D16
 10
13.36521328519871
 20
9.14093239191922
 30
0.0
 11
9.5527132851987
 21
9.14093239191922
 31
0.0
 70
   160
  1
(<>)
 42
7.62500000000001
 73
     0
 74
     0
 75
     0
  3
Default (ANSI)
100
AcDbAlignedDimension
 13
5.740213285198697
 23
11.35790788785271
 33
0.0
 14
13.36521328519871
 24
11.3579078878527
 34
0.0
100
AcDbRotatedDimension
1001
ACAD
1000
DSTYLE
1002
{
1070
   289
1070
     1
1070
    73
1070
     0
1070
    74
1070
     0
1070
   271
1070
     2
1070
   147
1040
0.031496062992126
1070
    72
1070
     0
1070
    71
1070
     0
1070
   272
1070
     2
1070
    48
1040
0.0
1070
    47
1040
0.0
1002
}
  0
DIMENSION
  5
F90
330
6C
100
AcDbEntity
  8
Dimension (ANSI)
100
AcDbDimension
280
     0
  2
*D17
 10
13.18134557211429
 20
17.72240788785266
 30
0.0
 11
14.40519259466374
 21
20.11363050779621
 31
0.0
 70
   160
  1
(<>){\PTYP.}
 71
     5
 42
0.8855000000000465
 73
     0
 74
     0
 75
     0
  3
Default (ANSI)
100
AcDbAlignedDimension
 13
12.99021328519871
 23
18.6079078878527
 33
0.0
 14
12.47871328519876
 24
17.72240788785266
 34
0.0
 50
270.0
100
AcDbRotatedDimension
1001
ACAD
1000
DSTYLE
1002
{
1070
   289
1070
     1
1070
   271
1070
     2
1070
   147
1040
0.031496062992126
1070
    72
1070
     0
1070
    71
1070
     0
1070
   272
1070
     2
1070
    48
1040
0.0
1070
    47
1040
0.0
1002
}
  0
DIMENSION
  5
10AC
330
6C
100
AcDbEntity
  8
Dimension (ANSI)
100
AcDbDimension
280
     0
  2
*D18
 10
31.50422785728546
 20
19.58769330765662
 30
0.0
 11
28.85859577342941
 21
19.58769330765662
 31
0.0
 70
   160
  1
 10 GA.\P304 S.S.
 71
     5
 42
0.1249999999999503
 73
     0
 74
     0
 75
     0
  3
Default (ANSI)
100
AcDbAlignedDimension
 13
31.37922785728551
 23
18.2329078878527
 33
0.0
 14
31.50422785728546
 24
18.6079078878527
 34
0.0
100
AcDbRotatedDimension
1001
ACAD
1000
DSTYLE
1002
{
1070
   289
1070
     1
1070
    73
1070
     0
1070
    74
1070
     0
1070
   271
1070
     2
1070
   272
1070
     2
1070
    48
1040
0.0
1070
    47
1040
0.0
1002
}
  0
DIMENSION
  5
11AA
330
6C
100
AcDbEntity
  8
Dimension (ANSI)
100
AcDbDimension
280
     0
  2
*D19
 10
12.4787132851987
 20
16.10202313711639
 30
0.0
 11
15.32886990674955
 21
16.10202313711639
 31
0.0
 70
   160
  1
(<>){\PTYP.}
 71
     5
 42
0.8865000000000122
 73
     0
 74
     0
 75
     0
  3
Default (ANSI)
100
AcDbAlignedDimension
 13
13.36521328519871
 23
15.86915763347075
 33
0.0
 14
12.4787132851987
 24
15.86915763347075
 34
0.0
 50
180.0
100
AcDbRotatedDimension
1001
ACAD
1000
DSTYLE
1002
{
1070
   289
1070
     1
1070
    73
1070
     0
1070
    74
1070
     0
1070
   271
1070
     2
1070
    76
1070
     1
1070
    75
1070
     1
1070
   147
1040
0.031496062992126
1070
    72
1070
     0
1070
    71
1070
     0
1070
   272
1070
     2
1070
    48
1040
0.0
1070
    47
1040
0.0
1002
}
  0
DIMENSION
  5
12A3
330
6C
100
AcDbEntity
  8
Dimension (ANSI)
100
AcDbDimension
280
     0
  2
*D20
 10
12.4787132851987
 20
16.10202313711639
 30
0.0
 11
8.383897036092863
 21
16.10202313711639
 31
0.0
 70
   160
  1
(<>){\POPENING\P(2 PL.)}
 71
     5
 42
5.851999999999999
 73
     0
 74
     0
 75
     0
  3
Default (ANSI)
100
AcDbAlignedDimension
 13
6.626713285198699
 23
15.86915763347075
 33
0.0
 14
12.4787132851987
 24
15.86915763347075
 34
0.0
100
AcDbRotatedDimension
1001
ACAD
1000
DSTYLE
1002
{
1070
   289
1070
     1
1070
    73
1070
     0
1070
    74
1070
     0
1070
   271
1070
     2
1070
    76
1070
     1
1070
    75
1070
     1
1070
   147
1040
0.031496062992126
1070
    72
1070
     0
1070
    71
1070
     0
1070
   272
1070
     2
1070
    48
1040
0.0
1070
    47
1040
0.0
1002
}
  0
DIMENSION
  5
139C
330
6C
100
AcDbEntity
  8
Dimension (ANSI)
100
AcDbDimension
280
     0
  2
*D21
 10
10.93145830640232
 20
17.72240788785266
 30
0.0
 11
10.93145830640232
 21
13.63080029982322
 31
0.0
 70
   160
  1
(<>){\POPENING\P(2 PL.)}
 71
     5
 42
5.852999999999958
 73
     0
 74
     0
 75
     0
  3
Default (ANSI)
100
AcDbAlignedDimension
 13
10.88443591008148
 23
11.8694078878527
 33
0.0
 14
10.8844359100815
 24
17.72240788785266
 34
0.0
 50
90.0
100
AcDbRotatedDimension
1001
ACAD
1000
DSTYLE
1002
{
1070
   289
1070
     1
1070
   271
1070
     2
1070
    76
1070
     1
1070
    75
1070
     1
1070
   147
1040
0.031496062992126
1070
    72
1070
     0
1070
    71
1070
     0
1070
   272
1070
     2
1070
    48
1040
0.0
1070
    47
1040
0.0
1002
}
  0
ENDSEC
  0
SECTION
  2
OBJECTS
  0
DICTIONARY
  5
C
330
0
100
AcDbDictionary
281
     1
  3
ACAD_CIP_PREVIOUS_PRODUCT_INFO
350
1495
  3
ACAD_COLOR
350
63
  3
ACAD_GROUP
350
D
  3
ACAD_LAYOUT
350
62
  3
ACAD_MATERIAL
350
10
  3
ACAD_MLEADERSTYLE
350
66
  3
ACAD_MLINESTYLE
350
5F
  3
ACAD_PLOTSETTINGS
350
61
  3
ACAD_PLOTSTYLENAME
350
E
  3
ACAD_SCALELIST
350
42
  3
ACAD_TABLESTYLE
350
64
  3
ACAD_VISUALSTYLE
350
29
  3
ACDB_RECOMPOSE_DATA
350
149C
  3
AcDbVariableDictionary
350
76
  0
DICTIONARY
  5
149A
330
107
100
AcDbDictionary
280
     1
281
     1
  3
ACAD_MTEXT_2008_RT
360
149B
  0
XRECORD
  5
1495
102
{ACAD_REACTORS
330
C
102
}
330
C
100
AcDbXrecord
280
     1
300
INVNTOR
300
2012
300
85795PDSP_2012_0F
  0
DICTIONARY
  5
63
102
{ACAD_REACTORS
330
C
102
}
330
C
100
AcDbDictionary
281
     1
  0
DICTIONARY
  5
D
102
{ACAD_REACTORS
330
C
102
}
330
C
100
AcDbDictionary
281
     1
  0
DICTIONARY
  5
62
102
{ACAD_REACTORS
330
C
102
}
330
C
100
AcDbDictionary
281
     1
  3
Layout1
350
6B
  3
Layout2
350
73
  3
Model
350
6F
  0
DICTIONARY
  5
10
102
{ACAD_REACTORS
330
C
102
}
330
C
100
AcDbDictionary
281
     1
  3
ByBlock
350
19
  3
ByLayer
350
11
  3
Global
350
21
  0
DICTIONARY
  5
66
102
{ACAD_REACTORS
330
C
102
}
330
C
100
AcDbDictionary
281
     1
  3
Standard
350
67
  0
DICTIONARY
  5
5F
102
{ACAD_REACTORS
330
C
102
}
330
C
100
AcDbDictionary
281
     1
  3
Standard
350
60
  0
DICTIONARY
  5
61
102
{ACAD_REACTORS
330
C
102
}
330
C
100
AcDbDictionary
281
     1
  0
ACDBDICTIONARYWDFLT
  5
E
102
{ACAD_REACTORS
330
C
102
}
330
C
100
AcDbDictionary
281
     1
  3
Normal
350
F
100
AcDbDictionaryWithDefault
340
F
  0
DICTIONARY
  5
42
102
{ACAD_REACTORS
330
C
102
}
330
C
100
AcDbDictionary
281
     1
  3
A0
350
43
  3
A1
350
44
  3
A2
350
45
  3
A3
350
46
  3
A4
350
47
  3
A5
350
48
  3
A6
350
49
  3
A7
350
4A
  3
A8
350
4B
  3
A9
350
4C
  3
B0
350
4D
  3
B1
350
4E
  3
B2
350
4F
  3
B3
350
50
  3
B4
350
51
  3
B5
350
52
  3
B6
350
53
  0
DICTIONARY
  5
64
102
{ACAD_REACTORS
330
C
102
}
330
C
100
AcDbDictionary
281
     1
  3
Standard
350
65
  0
DICTIONARY
  5
29
102
{ACAD_REACTORS
330
C
102
}
330
C
100
AcDbDictionary
281
     1
  3
2dWireframe
350
2F
  3
Basic
350
2E
  3
Brighten
350
35
  3
ColorChange
350
39
  3
Conceptual
350
32
  3
Dim
350
34
  3
EdgeColorOff
350
41
  3
Facepattern
350
38
  3
Flat
350
2A
  3
FlatWithEdges
350
2B
  3
Gouraud
350
2C
  3
GouraudWithEdges
350
2D
  3
Hidden
350
31
  3
JitterOff
350
3F
  3
Linepattern
350
37
  3
OverhangOff
350
40
  3
Realistic
350
33
  3
Shaded
350
3E
  3
Shaded with edges
350
3D
  3
Shades of Gray
350
3A
  3
Sketchy
350
3B
  3
Thicken
350
36
  3
Wireframe
350
30
  3
X-Ray
350
3C
  0
XRECORD
  5
149C
102
{ACAD_REACTORS
330
C
102
}
330
C
100
AcDbXrecord
280
     1
 90
        1
330
65
330
107
  0
DICTIONARY
  5
76
102
{ACAD_REACTORS
330
C
102
}
330
C
100
AcDbDictionary
281
     1
  3
CANNOSCALE
350
79
  3
CMLEADERSTYLE
350
78
  3
CTABLESTYLE
350
77
  0
XRECORD
  5
149B
102
{ACAD_REACTORS
330
149A
102
}
330
149A
100
AcDbXrecord
280
     1
 40
3259071.0
  1
\pxsm0.94;{\fRomanS|b0|i0;\H0.6933;PART#: SSJWL906\P(DATA SUBJECT TO CHANGE WITHOUT NOTICE)\P\fRomanS|b0|i0;\H0.3556; \PTHIS DRAWING IS PROPERTY OF hUBBELL INC. WEIGMANN\PALL INFORMATION IS PROPRIETARY AND NOT TO BE DUPLICATED\P}
  0
LAYOUT
  5
6B
102
{ACAD_REACTORS
330
62
102
}
330
62
100
AcDbPlotSettings
  1

  2

  4

  6

 40
0.0
 41
0.0
 42
0.0
 43
0.0
 44
0.0
 45
0.0
 46
0.0
 47
0.0
 48
0.0
 49
0.0
140
0.0
141
0.0
142
1.0
143
1.0
 70
   688
 72
     0
 73
     0
 74
     5
  7

 75
    16
147
1.0
 76
     0
 77
     2
 78
   300
148
0.0
149
0.0
100
AcDbLayout
  1
Layout1
 70
     1
 71
     1
 10
0.0
 20
0.0
 11
12.0
 21
9.0
 12
0.0
 22
0.0
 32
0.0
 14
0.0
 24
0.0
 34
0.0
 15
0.0
 25
0.0
 35
0.0
146
0.0
 13
0.0
 23
0.0
 33
0.0
 16
1.0
 26
0.0
 36
0.0
 17
0.0
 27
1.0
 37
0.0
 76
     0
330
68
  0
LAYOUT
  5
73
102
{ACAD_REACTORS
330
62
102
}
330
62
100
AcDbPlotSettings
  1

  2

  4

  6

 40
0.0
 41
0.0
 42
0.0
 43
0.0
 44
0.0
 45
0.0
 46
0.0
 47
0.0
 48
0.0
 49
0.0
140
0.0
141
0.0
142
1.0
143
1.0
 70
   688
 72
     0
 73
     0
 74
     5
  7

 75
    16
147
1.0
 76
     0
 77
     2
 78
   300
148
0.0
149
0.0
100
AcDbLayout
  1
Layout2
 70
     1
 71
     2
 10
0.0
 20
0.0
 11
12.0
 21
9.0
 12
0.0
 22
0.0
 32
0.0
 14
0.0
 24
0.0
 34
0.0
 15
0.0
 25
0.0
 35
0.0
146
0.0
 13
0.0
 23
0.0
 33
0.0
 16
1.0
 26
0.0
 36
0.0
 17
0.0
 27
1.0
 37
0.0
 76
     0
330
70
  0
LAYOUT
  5
6F
102
{ACAD_REACTORS
330
62
102
}
330
62
100
AcDbPlotSettings
  1

  2

  4

  6

 40
0.0
 41
0.0
 42
0.0
 43
0.0
 44
0.0
 45
0.0
 46
0.0
 47
0.0
 48
0.0
 49
0.0
140
0.0
141
0.0
142
1.0
143
1.0
 70
  1712
 72
     0
 73
     0
 74
     0
  7

 75
     0
147
1.0
 76
     0
 77
     2
 78
   300
148
0.0
149
0.0
100
AcDbLayout
  1
Model
 70
     1
 71
     0
 10
0.0
 20
0.0
 11
12.0
 21
9.0
 12
0.0
 22
0.0
 32
0.0
 14
0.0
 24
0.0
 34
0.0
 15
0.0
 25
0.0
 35
0.0
146
0.0
 13
0.0
 23
0.0
 33
0.0
 16
1.0
 26
0.0
 36
0.0
 17
0.0
 27
1.0
 37
0.0
 76
     0
330
6C
  0
MATERIAL
  5
19
102
{ACAD_XDICTIONARY
360
1A
102
}
102
{ACAD_REACTORS
330
10
102
}
330
10
100
AcDbMaterial
  1
ByBlock
 72
     0
 43
0.0208333333333333
 43
0.0
 43
0.0
 43
0.0
 43
0.0
 43
0.0208333333333333
 43
0.0
 43
0.0
 43
0.0
 43
0.0
 43
1.0
 43
0.0
 43
0.0
 43
0.0
 43
0.0
 43
1.0
 77
     0
 47
0.0208333333333333
 47
0.0
 47
0.0
 47
0.0
 47
0.0
 47
0.0208333333333333
 47
0.0
 47
0.0
 47
0.0
 47
0.0
 47
1.0
 47
0.0
 47
0.0
 47
0.0
 47
0.0
 47
1.0
171
     0
 49
0.0208333333333333
 49
0.0
 49
0.0
 49
0.0
 49
0.0
 49
0.0208333333333333
 49
0.0
 49
0.0
 49
0.0
 49
0.0
 49
1.0
 49
0.0
 49
0.0
 49
0.0
 49
0.0
 49
1.0
175
     0
142
0.0208333333333333
142
0.0
142
0.0
142
0.0
142
0.0
142
0.0208333333333333
142
0.0
142
0.0
142
0.0
142
0.0
142
1.0
142
0.0
142
0.0
142
0.0
142
0.0
142
1.0
179
     0
144
0.0208333333333333
144
0.0
144
0.0
144
0.0
144
0.0
144
0.0208333333333333
144
0.0
144
0.0
144
0.0
144
0.0
144
1.0
144
0.0
144
0.0
144
0.0
144
0.0
144
1.0
147
0.0208333333333333
147
0.0
147
0.0
147
0.0
147
0.0
147
0.0208333333333333
147
0.0
147
0.0
147
0.0
147
0.0
147
1.0
147
0.0
147
0.0
147
0.0
147
0.0
147
1.0
  0
MATERIAL
  5
11
102
{ACAD_XDICTIONARY
360
12
102
}
102
{ACAD_REACTORS
330
10
102
}
330
10
100
AcDbMaterial
  1
ByLayer
 72
     0
 43
0.0208333333333333
 43
0.0
 43
0.0
 43
0.0
 43
0.0
 43
0.0208333333333333
 43
0.0
 43
0.0
 43
0.0
 43
0.0
 43
1.0
 43
0.0
 43
0.0
 43
0.0
 43
0.0
 43
1.0
 77
     0
 47
0.0208333333333333
 47
0.0
 47
0.0
 47
0.0
 47
0.0
 47
0.0208333333333333
 47
0.0
 47
0.0
 47
0.0
 47
0.0
 47
1.0
 47
0.0
 47
0.0
 47
0.0
 47
0.0
 47
1.0
171
     0
 49
0.0208333333333333
 49
0.0
 49
0.0
 49
0.0
 49
0.0
 49
0.0208333333333333
 49
0.0
 49
0.0
 49
0.0
 49
0.0
 49
1.0
 49
0.0
 49
0.0
 49
0.0
 49
0.0
 49
1.0
175
     0
142
0.0208333333333333
142
0.0
142
0.0
142
0.0
142
0.0
142
0.0208333333333333
142
0.0
142
0.0
142
0.0
142
0.0
142
1.0
142
0.0
142
0.0
142
0.0
142
0.0
142
1.0
179
     0
144
0.0208333333333333
144
0.0
144
0.0
144
0.0
144
0.0
144
0.0208333333333333
144
0.0
144
0.0
144
0.0
144
0.0
144
1.0
144
0.0
144
0.0
144
0.0
144
0.0
144
1.0
147
0.0208333333333333
147
0.0
147
0.0
147
0.0
147
0.0
147
0.0208333333333333
147
0.0
147
0.0
147
0.0
147
0.0
147
1.0
147
0.0
147
0.0
147
0.0
147
0.0
147
1.0
  0
MATERIAL
  5
21
102
{ACAD_XDICTIONARY
360
22
102
}
102
{ACAD_REACTORS
330
10
102
}
330
10
100
AcDbMaterial
  1
Global
 72
     0
 43
0.0208333333333333
 43
0.0
 43
0.0
 43
0.0
 43
0.0
 43
0.0208333333333333
 43
0.0
 43
0.0
 43
0.0
 43
0.0
 43
1.0
 43
0.0
 43
0.0
 43
0.0
 43
0.0
 43
1.0
 77
     0
 47
0.0208333333333333
 47
0.0
 47
0.0
 47
0.0
 47
0.0
 47
0.0208333333333333
 47
0.0
 47
0.0
 47
0.0
 47
0.0
 47
1.0
 47
0.0
 47
0.0
 47
0.0
 47
0.0
 47
1.0
171
     0
 49
0.0208333333333333
 49
0.0
 49
0.0
 49
0.0
 49
0.0
 49
0.0208333333333333
 49
0.0
 49
0.0
 49
0.0
 49
0.0
 49
1.0
 49
0.0
 49
0.0
 49
0.0
 49
0.0
 49
1.0
175
     0
142
0.0208333333333333
142
0.0
142
0.0
142
0.0
142
0.0
142
0.0208333333333333
142
0.0
142
0.0
142
0.0
142
0.0
142
1.0
142
0.0
142
0.0
142
0.0
142
0.0
142
1.0
179
     0
144
0.0208333333333333
144
0.0
144
0.0
144
0.0
144
0.0
144
0.0208333333333333
144
0.0
144
0.0
144
0.0
144
0.0
144
1.0
144
0.0
144
0.0
144
0.0
144
0.0
144
1.0
147
0.0208333333333333
147
0.0
147
0.0
147
0.0
147
0.0
147
0.0208333333333333
147
0.0
147
0.0
147
0.0
147
0.0
147
1.0
147
0.0
147
0.0
147
0.0
147
0.0
147
1.0
  0
MLEADERSTYLE
  5
67
102
{ACAD_XDICTIONARY
360
1498
102
}
102
{ACAD_REACTORS
330
66
102
}
330
66
100
AcDbMLeaderStyle
179
     2
170
     2
171
     1
172
     0
 90
        2
 40
0.0
 41
0.0
173
     1
 91
-1056964608
340
5B
 92
       -2
290
     1
 42
0.09
291
     1
 43
0.36
  3
Standard
 44
0.18
300

342
55
174
     1
178
     6
175
     1
176
     0
 93
-1056964608
 45
0.18
292
     0
297
     0
 46
0.18
 94
-1056964608
 47
1.0
 49
1.0
140
1.0
293
     1
141
0.0
294
     1
177
     0
142
1.0
295
     0
296
     0
143
0.125
271
     0
272
     9
273
     9
  0
MLINESTYLE
  5
60
102
{ACAD_REACTORS
330
5F
102
}
330
5F
100
AcDbMlineStyle
  2
STANDARD
 70
     0
  3

 62
   256
 51
90.0
 52
90.0
 71
     2
 49
0.5
 62
   256
  6
BYLAYER
 49
-0.5
 62
   256
  6
BYLAYER
  0
ACDBPLACEHOLDER
  5
F
102
{ACAD_REACTORS
330
E
102
}
330
E
  0
SCALE
  5
43
102
{ACAD_REACTORS
330
42
102
}
330
42
100
AcDbScale
 70
     0
300
1:1
140
1.0
141
1.0
290
     1
  0
SCALE
  5
44
102
{ACAD_REACTORS
330
42
102
}
330
42
100
AcDbScale
 70
     0
300
1/128" = 1'-0"
140
0.0078125
141
12.0
290
     0
  0
SCALE
  5
45
102
{ACAD_REACTORS
330
42
102
}
330
42
100
AcDbScale
 70
     0
300
1/64" = 1'-0"
140
0.015625
141
12.0
290
     0
  0
SCALE
  5
46
102
{ACAD_REACTORS
330
42
102
}
330
42
100
AcDbScale
 70
     0
300
1/32" = 1'-0"
140
0.03125
141
12.0
290
     0
  0
SCALE
  5
47
102
{ACAD_REACTORS
330
42
102
}
330
42
100
AcDbScale
 70
     0
300
1/16" = 1'-0"
140
0.0625
141
12.0
290
     0
  0
SCALE
  5
48
102
{ACAD_REACTORS
330
42
102
}
330
42
100
AcDbScale
 70
     0
300
3/32" = 1'-0"
140
0.09375
141
12.0
290
     0
  0
SCALE
  5
49
102
{ACAD_REACTORS
330
42
102
}
330
42
100
AcDbScale
 70
     0
300
1/8" = 1'-0"
140
0.125
141
12.0
290
     0
  0
SCALE
  5
4A
102
{ACAD_REACTORS
330
42
102
}
330
42
100
AcDbScale
 70
     0
300
3/16" = 1'-0"
140
0.1875
141
12.0
290
     0
  0
SCALE
  5
4B
102
{ACAD_REACTORS
330
42
102
}
330
42
100
AcDbScale
 70
     0
300
1/4" = 1'-0"
140
0.25
141
12.0
290
     0
  0
SCALE
  5
4C
102
{ACAD_REACTORS
330
42
102
}
330
42
100
AcDbScale
 70
     0
300
3/8" = 1'-0"
140
0.375
141
12.0
290
     0
  0
SCALE
  5
4D
102
{ACAD_REACTORS
330
42
102
}
330
42
100
AcDbScale
 70
     0
300
1/2" = 1'-0"
140
0.5
141
12.0
290
     0
  0
SCALE
  5
4E
102
{ACAD_REACTORS
330
42
102
}
330
42
100
AcDbScale
 70
     0
300
3/4" = 1'-0"
140
0.75
141
12.0
290
     0
  0
SCALE
  5
4F
102
{ACAD_REACTORS
330
42
102
}
330
42
100
AcDbScale
 70
     0
300
1" = 1'-0"
140
1.0
141
12.0
290
     0
  0
SCALE
  5
50
102
{ACAD_REACTORS
330
42
102
}
330
42
100
AcDbScale
 70
     0
300
1-1/2" = 1'-0"
140
1.5
141
12.0
290
     0
  0
SCALE
  5
51
102
{ACAD_REACTORS
330
42
102
}
330
42
100
AcDbScale
 70
     0
300
3" = 1'-0"
140
3.0
141
12.0
290
     0
  0
SCALE
  5
52
102
{ACAD_REACTORS
330
42
102
}
330
42
100
AcDbScale
 70
     0
300
6" = 1'-0"
140
6.0
141
12.0
290
     0
  0
SCALE
  5
53
102
{ACAD_REACTORS
330
42
102
}
330
42
100
AcDbScale
 70
     0
300
1'-0" = 1'-0"
140
12.0
141
12.0
290
     0
  0
TABLESTYLE
  5
65
102
{ACAD_XDICTIONARY
360
1496
102
}
102
{ACAD_REACTORS
330
64
102
}
330
64
100
AcDbTableStyle
280
     0
  3
Standard
 70
     0
 71
     0
 40
0.06
 41
0.06
280
     0
281
     0
  7
Standard
140
0.18
170
     2
 62
     0
 63
     7
283
     0
 90
      512
 91
        0
  1

274
    -2
284
     1
 64
     0
275
    -2
285
     1
 65
     0
276
    -2
286
     1
 66
     0
277
    -2
287
     1
 67
     0
278
    -2
288
     1
 68
     0
279
    -2
289
     1
 69
     0
  7
Standard
140
0.25
170
     5
 62
     0
 63
     7
283
     0
 90
      512
 91
        0
  1

274
    -2
284
     1
 64
     0
275
    -2
285
     1
 65
     0
276
    -2
286
     1
 66
     0
277
    -2
287
     1
 67
     0
278
    -2
288
     1
 68
     0
279
    -2
289
     1
 69
     0
  7
Standard
140
0.18
170
     5
 62
     0
 63
     7
283
     0
 90
      512
 91
        0
  1

274
    -2
284
     1
 64
     0
275
    -2
285
     1
 65
     0
276
    -2
286
     1
 66
     0
277
    -2
287
     1
 67
     0
278
    -2
288
     1
 68
     0
279
    -2
289
     1
 69
     0
  0
VISUALSTYLE
  5
2F
102
{ACAD_REACTORS
330
29
102
}
330
29
100
AcDbVisualStyle
  2
2dWireframe
 70
     4
177
     2
291
     0
 71
     0
176
     1
 72
     2
176
     1
 73
     0
176
     1
 90
        0
176
     1
 40
0.6
176
     1
 41
30.0
176
     1
 63
     7
421
 16777215
176
     1
 74
     1
176
     1
 91
        4
176
     1
 64
     7
176
     1
 65
   257
176
     1
 75
     1
176
     1
175
     1
176
     1
 42
1.0
176
     1
 92
        0
176
     1
 66
   257
176
     1
 43
1.0
176
     1
 76
     1
176
     1
 77
     6
176
     1
 78
     2
176
     1
 67
     7
176
     1
 79
     5
176
     1
170
     0
176
     1
171
     0
176
     1
290
     0
176
     1
 93
        1
176
     1
 44
0.0
176
     1
173
     0
176
     1
  0
VISUALSTYLE
  5
2E
102
{ACAD_REACTORS
330
29
102
}
330
29
100
AcDbVisualStyle
  2
Basic
 70
     7
177
     2
291
     1
 71
     1
176
     1
 72
     0
176
     1
 73
     1
176
     1
 90
        0
176
     1
 40
0.6
176
     1
 41
30.0
176
     1
 63
     7
421
 16777215
176
     1
 74
     0
176
     1
 91
        4
176
     1
 64
     7
176
     1
 65
   257
176
     1
 75
     1
176
     1
175
     1
176
     1
 42
1.0
176
     1
 92
        8
176
     1
 66
     7
176
     1
 43
1.0
176
     1
 76
     1
176
     1
 77
     6
176
     1
 78
     2
176
     1
 67
     7
176
     1
 79
     5
176
     1
170
     0
176
     1
171
     0
176
     1
290
     0
176
     1
 93
        1
176
     1
 44
0.0
176
     1
173
     0
176
     1
  0
VISUALSTYLE
  5
35
102
{ACAD_REACTORS
330
29
102
}
330
29
100
AcDbVisualStyle
  2
Brighten
 70
    12
177
     2
291
     1
 71
     2
176
     1
 72
     2
176
     1
 73
     0
176
     1
 90
        0
176
     1
 40
0.6
176
     1
 41
30.0
176
     1
 63
     7
421
 16777215
176
     1
 74
     1
176
     1
 91
        4
176
     1
 64
     7
176
     1
 65
   257
176
     1
 75
     1
176
     1
175
     1
176
     1
 42
1.0
176
     1
 92
        8
176
     1
 66
     7
176
     1
 43
1.0
176
     1
 76
     1
176
     1
 77
     6
176
     1
 78
     2
176
     1
 67
     7
176
     1
 79
     5
176
     1
170
     0
176
     1
171
     0
176
     1
290
     0
176
     1
 93
        1
176
     1
 44
50.0
176
     1
173
     0
176
     1
  0
VISUALSTYLE
  5
39
102
{ACAD_REACTORS
330
29
102
}
330
29
100
AcDbVisualStyle
  2
ColorChange
 70
    16
177
     2
291
     1
 71
     2
176
     1
 72
     2
176
     1
 73
     3
176
     1
 90
        0
176
     1
 40
0.6
176
     1
 41
30.0
176
     1
 63
     8
421
  8421504
176
     1
 74
     1
176
     1
 91
        4
176
     1
 64
     7
176
     1
 65
   257
176
     1
 75
     1
176
     1
175
     1
176
     1
 42
1.0
176
     1
 92
        8
176
     1
 66
     8
424
  8421504
176
     1
 43
1.0
176
     1
 76
     1
176
     1
 77
     6
176
     1
 78
     2
176
     1
 67
     7
176
     1
 79
     5
176
     1
170
     0
176
     1
171
     0
176
     1
290
     0
176
     1
 93
        1
176
     1
 44
0.0
176
     1
173
     0
176
     1
  0
VISUALSTYLE
  5
32
102
{ACAD_REACTORS
330
29
102
}
330
29
100
AcDbVisualStyle
  2
Conceptual
 70
     9
177
     2
291
     0
 71
     3
176
     1
 72
     2
176
     1
 73
     0
176
     1
 90
        0
176
     1
 40
0.6
176
     1
 41
30.0
176
     1
 63
     7
421
 16777215
176
     1
 74
     2
176
     1
 91
        2
176
     1
 64
     7
176
     1
 65
   257
176
     1
 75
     1
176
     1
175
     1
176
     1
 42
179.0
176
     1
 92
        8
176
     1
 66
     7
176
     1
 43
1.0
176
     1
 76
     1
176
     1
 77
     6
176
     1
 78
     2
176
     1
 67
     7
176
     1
 79
     3
176
     1
170
     0
176
     1
171
     0
176
     1
290
     0
176
     1
 93
        1
176
     1
 44
0.0
176
     1
173
     0
176
     1
  0
VISUALSTYLE
  5
34
102
{ACAD_REACTORS
330
29
102
}
330
29
100
AcDbVisualStyle
  2
Dim
 70
    11
177
     2
291
     1
 71
     2
176
     1
 72
     2
176
     1
 73
     0
176
     1
 90
        0
176
     1
 40
0.6
176
     1
 41
30.0
176
     1
 63
     7
421
 16777215
176
     1
 74
     1
176
     1
 91
        4
176
     1
 64
     7
176
     1
 65
   257
176
     1
 75
     1
176
     1
175
     1
176
     1
 42
1.0
176
     1
 92
        8
176
     1
 66
     7
176
     1
 43
1.0
176
     1
 76
     1
176
     1
 77
     6
176
     1
 78
     2
176
     1
 67
     7
176
     1
 79
     5
176
     1
170
     0
176
     1
171
     0
176
     1
290
     0
176
     1
 93
        1
176
     1
 44
-50.0
176
     1
173
     0
176
     1
  0
VISUALSTYLE
  5
41
102
{ACAD_REACTORS
330
29
102
}
330
29
100
AcDbVisualStyle
  2
EdgeColorOff
 70
    22
177
     2
291
     1
 71
     2
176
     0
 72
     2
176
     0
 73
     0
176
     0
 90
        0
176
     0
 40
0.6
176
     0
 41
30.0
176
     0
 63
     7
421
 16777215
176
     0
 74
     1
176
     0
 91
        4
176
     0
 64
     7
176
     0
 65
   257
176
     0
 75
     1
176
     0
175
     1
176
     0
 42
1.0
176
     0
 92
        8
176
     2
 66
     7
176
     0
 43
1.0
176
     0
 76
     1
176
     0
 77
     6
176
     0
 78
     2
176
     0
 67
     7
176
     0
 79
     5
176
     0
170
     0
176
     0
171
     0
176
     0
290
     0
176
     0
 93
        1
176
     0
 44
0.0
176
     0
173
     0
176
     0
  0
VISUALSTYLE
  5
38
102
{ACAD_REACTORS
330
29
102
}
330
29
100
AcDbVisualStyle
  2
Facepattern
 70
    15
177
     2
291
     1
 71
     2
176
     1
 72
     2
176
     1
 73
     0
176
     1
 90
        0
176
     1
 40
0.6
176
     1
 41
30.0
176
     1
 63
     7
421
 16777215
176
     1
 74
     1
176
     1
 91
        4
176
     1
 64
     7
176
     1
 65
   257
176
     1
 75
     1
176
     1
175
     1
176
     1
 42
1.0
176
     1
 92
        8
176
     1
 66
     7
176
     1
 43
1.0
176
     1
 76
     1
176
     1
 77
     6
176
     1
 78
     2
176
     1
 67
     7
176
     1
 79
     5
176
     1
170
     0
176
     1
171
     0
176
     1
290
     0
176
     1
 93
        1
176
     1
 44
0.0
176
     1
173
     0
176
     1
  0
VISUALSTYLE
  5
2A
102
{ACAD_REACTORS
330
29
102
}
330
29
100
AcDbVisualStyle
  2
Flat
 70
     0
177
     2
291
     1
 71
     2
176
     1
 72
     1
176
     1
 73
     1
176
     1
 90
        2
176
     1
 40
0.6
176
     1
 41
30.0
176
     1
 63
     7
421
 16777215
176
     1
 74
     0
176
     1
 91
        0
176
     1
 64
     7
176
     1
 65
   257
176
     1
 75
     1
176
     1
175
     1
176
     1
 42
1.0
176
     1
 92
        8
176
     1
 66
     7
176
     1
 43
1.0
176
     1
 76
     1
176
     1
 77
     6
176
     1
 78
     2
176
     1
 67
     7
176
     1
 79
     5
176
     1
170
     0
176
     1
171
     0
176
     1
290
     0
176
     1
 93
       13
176
     1
 44
0.0
176
     1
173
     0
176
     1
  0
VISUALSTYLE
  5
2B
102
{ACAD_REACTORS
330
29
102
}
330
29
100
AcDbVisualStyle
  2
FlatWithEdges
 70
     1
177
     2
291
     1
 71
     2
176
     1
 72
     1
176
     1
 73
     1
176
     1
 90
        2
176
     1
 40
0.6
176
     1
 41
30.0
176
     1
 63
     7
421
 16777215
176
     1
 74
     1
176
     1
 91
        0
176
     1
 64
     7
176
     1
 65
   257
176
     1
 75
     1
176
     1
175
     1
176
     1
 42
1.0
176
     1
 92
        0
176
     1
 66
   257
176
     1
 43
1.0
176
     1
 76
     1
176
     1
 77
     6
176
     1
 78
     2
176
     1
 67
     7
176
     1
 79
     5
176
     1
170
     0
176
     1
171
     0
176
     1
290
     0
176
     1
 93
       13
176
     1
 44
0.0
176
     1
173
     0
176
     1
  0
VISUALSTYLE
  5
2C
102
{ACAD_REACTORS
330
29
102
}
330
29
100
AcDbVisualStyle
  2
Gouraud
 70
     2
177
     2
291
     1
 71
     2
176
     1
 72
     2
176
     1
 73
     1
176
     1
 90
        2
176
     1
 40
0.6
176
     1
 41
30.0
176
     1
 63
     7
421
 16777215
176
     1
 74
     0
176
     1
 91
        0
176
     1
 64
     7
176
     1
 65
   257
176
     1
 75
     1
176
     1
175
     1
176
     1
 42
1.0
176
     1
 92
        0
176
     1
 66
     7
176
     1
 43
1.0
176
     1
 76
     1
176
     1
 77
     6
176
     1
 78
     2
176
     1
 67
     7
176
     1
 79
     5
176
     1
170
     0
176
     1
171
     0
176
     1
290
     0
176
     1
 93
       13
176
     1
 44
0.0
176
     1
173
     0
176
     1
  0
VISUALSTYLE
  5
2D
102
{ACAD_REACTORS
330
29
102
}
330
29
100
AcDbVisualStyle
  2
GouraudWithEdges
 70
     3
177
     2
291
     1
 71
     2
176
     1
 72
     2
176
     1
 73
     1
176
     1
 90
        2
176
     1
 40
0.6
176
     1
 41
30.0
176
     1
 63
     7
421
 16777215
176
     1
 74
     1
176
     1
 91
        0
176
     1
 64
     7
176
     1
 65
   257
176
     1
 75
     1
176
     1
175
     1
176
     1
 42
1.0
176
     1
 92
        0
176
     1
 66
   257
176
     1
 43
1.0
176
     1
 76
     1
176
     1
 77
     6
176
     1
 78
     2
176
     1
 67
     7
176
     1
 79
     5
176
     1
170
     0
176
     1
171
     0
176
     1
290
     0
176
     1
 93
       13
176
     1
 44
0.0
176
     1
173
     0
176
     1
  0
VISUALSTYLE
  5
31
102
{ACAD_REACTORS
330
29
102
}
330
29
100
AcDbVisualStyle
  2
Hidden
 70
     6
177
     2
291
     0
 71
     1
176
     1
 72
     2
176
     1
 73
     2
176
     1
 90
        0
176
     1
 40
0.6
176
     1
 41
30.0
176
     1
 63
     7
421
 16777215
176
     1
 74
     2
176
     1
 91
        2
176
     1
 64
     7
176
     1
 65
   257
176
     1
 75
     2
176
     1
175
     1
176
     1
 42
40.0
176
     1
 92
        0
176
     1
 66
   257
176
     1
 43
1.0
176
     1
 76
     1
176
     1
 77
     6
176
     1
 78
     2
176
     1
 67
     7
176
     1
 79
     3
176
     1
170
     0
176
     1
171
     0
176
     1
290
     0
176
     1
 93
        1
176
     1
 44
0.0
176
     1
173
     0
176
     1
  0
VISUALSTYLE
  5
3F
102
{ACAD_REACTORS
330
29
102
}
330
29
100
AcDbVisualStyle
  2
JitterOff
 70
    20
177
     2
291
     1
 71
     2
176
     0
 72
     2
176
     0
 73
     0
176
     0
 90
        0
176
     0
 40
0.6
176
     0
 41
30.0
176
     0
 63
     7
421
 16777215
176
     0
 74
     1
176
     0
 91
        4
176
     0
 64
     7
176
     0
 65
   257
176
     0
 75
     1
176
     0
175
     1
176
     0
 42
1.0
176
     0
 92
       10
176
     2
 66
     7
176
     0
 43
1.0
176
     0
 76
     1
176
     0
 77
     6
176
     0
 78
     2
176
     0
 67
     7
176
     0
 79
     5
176
     0
170
     0
176
     0
171
     0
176
     0
290
     0
176
     0
 93
        1
176
     0
 44
0.0
176
     0
173
     0
176
     0
  0
VISUALSTYLE
  5
37
102
{ACAD_REACTORS
330
29
102
}
330
29
100
AcDbVisualStyle
  2
Linepattern
 70
    14
177
     2
291
     1
 71
     2
176
     1
 72
     2
176
     1
 73
     0
176
     1
 90
        0
176
     1
 40
0.6
176
     1
 41
30.0
176
     1
 63
     7
421
 16777215
176
     1
 74
     1
176
     1
 91
        4
176
     1
 64
     7
176
     1
 65
   257
176
     1
 75
     7
176
     1
175
     7
176
     1
 42
1.0
176
     1
 92
        8
176
     1
 66
     7
176
     1
 43
1.0
176
     1
 76
     1
176
     1
 77
     6
176
     1
 78
     2
176
     1
 67
     7
176
     1
 79
     5
176
     1
170
     0
176
     1
171
     0
176
     1
290
     0
176
     1
 93
        1
176
     1
 44
0.0
176
     1
173
     0
176
     1
  0
VISUALSTYLE
  5
40
102
{ACAD_REACTORS
330
29
102
}
330
29
100
AcDbVisualStyle
  2
OverhangOff
 70
    21
177
     2
291
     1
 71
     2
176
     0
 72
     2
176
     0
 73
     0
176
     0
 90
        0
176
     0
 40
0.6
176
     0
 41
30.0
176
     0
 63
     7
421
 16777215
176
     0
 74
     1
176
     0
 91
        4
176
     0
 64
     7
176
     0
 65
   257
176
     0
 75
     1
176
     0
175
     1
176
     0
 42
1.0
176
     0
 92
        9
176
     2
 66
     7
176
     0
 43
1.0
176
     0
 76
     1
176
     0
 77
     6
176
     0
 78
     2
176
     0
 67
     7
176
     0
 79
     5
176
     0
170
     0
176
     0
171
     0
176
     0
290
     0
176
     0
 93
        1
176
     0
 44
0.0
176
     0
173
     0
176
     0
  0
VISUALSTYLE
  5
33
102
{ACAD_REACTORS
330
29
102
}
330
29
100
AcDbVisualStyle
  2
Realistic
 70
     8
177
     2
291
     0
 71
     2
176
     1
 72
     3
176
     1
 73
     0
176
     1
 90
        2
176
     1
 40
0.6
176
     1
 41
30.0
176
     1
 63
     7
421
 16777215
176
     1
 74
     0
176
     1
 91
        0
176
     1
 64
     7
176
     1
 65
   257
176
     1
 75
     1
176
     1
175
     1
176
     1
 42
1.0
176
     1
 92
        8
176
     1
 66
   257
176
     1
 43
1.0
176
     1
 76
     1
176
     1
 77
     6
176
     1
 78
     2
176
     1
 67
     7
176
     1
 79
     3
176
     1
170
     0
176
     1
171
     0
176
     1
290
     0
176
     1
 93
       13
176
     1
 44
0.0
176
     1
173
     0
176
     1
  0
VISUALSTYLE
  5
3E
102
{ACAD_REACTORS
330
29
102
}
330
29
100
AcDbVisualStyle
  2
Shaded
 70
    27
177
     2
291
     0
 71
     2
176
     1
 72
     2
176
     1
 73
     1
176
     1
 90
        2
176
     1
 40
0.6
176
     1
 41
30.0
176
     1
 63
     7
421
 16777215
176
     1
 74
     0
176
     1
 91
        4
176
     1
 64
     7
176
     1
 65
   257
176
     1
 75
     1
176
     1
175
     1
176
     1
 42
1.0
176
     1
 92
        8
176
     1
 66
   257
176
     1
 43
1.0
176
     1
 76
     1
176
     1
 77
     6
176
     1
 78
     2
176
     1
 67
     8
425
  7895160
176
     1
 79
     3
176
     1
170
     0
176
     1
171
     0
176
     1
290
     0
176
     1
 93
        5
176
     1
 44
0.0
176
     1
173
     0
176
     1
  0
VISUALSTYLE
  5
3D
102
{ACAD_REACTORS
330
29
102
}
330
29
100
AcDbVisualStyle
  2
Shaded with edges
 70
    26
177
     2
291
     0
 71
     2
176
     1
 72
     2
176
     1
 73
     1
176
     1
 90
        2
176
     1
 40
0.6
176
     1
 41
30.0
176
     1
 63
     7
421
 16777215
176
     1
 74
     1
176
     1
 91
       10
176
     1
 64
     7
176
     1
 65
   257
176
     1
 75
     2
176
     1
175
     1
176
     1
 42
1.0
176
     1
 92
        8
176
     1
 66
   257
176
     1
 43
1.0
176
     1
 76
     1
176
     1
 77
     6
176
     1
 78
     2
176
     1
 67
     7
176
     1
 79
     3
176
     1
170
     0
176
     1
171
     0
176
     1
290
     0
176
     1
 93
        5
176
     1
 44
0.0
176
     1
173
     0
176
     1
  0
VISUALSTYLE
  5
3A
102
{ACAD_REACTORS
330
29
102
}
330
29
100
AcDbVisualStyle
  2
Shades of Gray
 70
    23
177
     2
291
     0
 71
     2
176
     1
 72
     2
176
     1
 73
     3
176
     1
 90
        0
176
     1
 40
0.6
176
     1
 41
30.0
176
     1
 63
     7
421
 16777215
176
     1
 74
     2
176
     1
 91
        2
176
     1
 64
     7
176
     1
 65
     7
176
     1
 75
     1
176
     1
175
     1
176
     1
 42
40.0
176
     1
 92
        8
176
     1
 66
     7
176
     1
 43
1.0
176
     1
 76
     1
176
     1
 77
     6
176
     1
 78
     2
176
     1
 67
     7
176
     1
 79
     3
176
     1
170
     0
176
     1
171
     0
176
     1
290
     0
176
     1
 93
        1
176
     1
 44
0.0
176
     1
173
     0
176
     1
  0
VISUALSTYLE
  5
3B
102
{ACAD_REACTORS
330
29
102
}
330
29
100
AcDbVisualStyle
  2
Sketchy
 70
    24
177
     2
291
     0
 71
     1
176
     1
 72
     2
176
     1
 73
     2
176
     1
 90
        0
176
     1
 40
0.6
176
     1
 41
30.0
176
     1
 63
     7
421
 16777215
176
     1
 74
     2
176
     1
 91
        2
176
     1
 64
     7
176
     1
 65
     7
176
     1
 75
     1
176
     1
175
     1
176
     1
 42
40.0
176
     1
 92
       11
176
     1
 66
     7
176
     1
 43
1.0
176
     1
 76
     1
176
     1
 77
     6
176
     1
 78
     2
176
     1
 67
     7
176
     1
 79
     6
176
     1
170
     0
176
     1
171
     0
176
     1
290
     0
176
     1
 93
        1
176
     1
 44
0.0
176
     1
173
     0
176
     1
  0
VISUALSTYLE
  5
36
102
{ACAD_REACTORS
330
29
102
}
330
29
100
AcDbVisualStyle
  2
Thicken
 70
    13
177
     2
291
     1
 71
     2
176
     1
 72
     2
176
     1
 73
     0
176
     1
 90
        0
176
     1
 40
0.6
176
     1
 41
30.0
176
     1
 63
     7
421
 16777215
176
     1
 74
     1
176
     1
 91
        4
176
     1
 64
     7
176
     1
 65
   257
176
     1
 75
     1
176
     1
175
     1
176
     1
 42
1.0
176
     1
 92
       12
176
     1
 66
     7
176
     1
 43
1.0
176
     1
 76
     1
176
     1
 77
     6
176
     1
 78
     2
176
     1
 67
     7
176
     1
 79
     5
176
     1
170
     0
176
     1
171
     0
176
     1
290
     0
176
     1
 93
        1
176
     1
 44
0.0
176
     1
173
     0
176
     1
  0
VISUALSTYLE
  5
30
102
{ACAD_REACTORS
330
29
102
}
330
29
100
AcDbVisualStyle
  2
Wireframe
 70
     5
177
     2
291
     0
 71
     0
176
     1
 72
     2
176
     1
 73
     0
176
     1
 90
        0
176
     1
 40
0.6
176
     1
 41
30.0
176
     1
 63
     7
421
 16777215
176
     1
 74
     1
176
     1
 91
        4
176
     1
 64
     7
176
     1
 65
   257
176
     1
 75
     1
176
     1
175
     1
176
     1
 42
1.0
176
     1
 92
        0
176
     1
 66
   257
176
     1
 43
1.0
176
     1
 76
     1
176
     1
 77
     6
176
     1
 78
     2
176
     1
 67
     7
176
     1
 79
     3
176
     1
170
     0
176
     1
171
     0
176
     1
290
     0
176
     1
 93
        1
176
     1
 44
0.0
176
     1
173
     0
176
     1
  0
VISUALSTYLE
  5
3C
102
{ACAD_REACTORS
330
29
102
}
330
29
100
AcDbVisualStyle
  2
X-Ray
 70
    25
177
     2
291
     0
 71
     2
176
     1
 72
     2
176
     1
 73
     1
176
     1
 90
        1
176
     1
 40
0.5
176
     1
 41
30.0
176
     1
 63
     7
421
 16777215
176
     1
 74
     1
176
     1
 91
        0
176
     1
 64
     7
176
     1
 65
   257
176
     1
 75
     1
176
     1
175
     1
176
     1
 42
1.0
176
     1
 92
        8
176
     1
 66
     7
176
     1
 43
1.0
176
     1
 76
     1
176
     1
 77
     6
176
     1
 78
     2
176
     1
 67
     7
176
     1
 79
     3
176
     1
170
     0
176
     1
171
     0
176
     1
290
     0
176
     1
 93
       13
176
     1
 44
0.0
176
     1
173
     0
176
     1
  0
DICTIONARYVAR
  5
79
102
{ACAD_REACTORS
330
76
102
}
330
76
100
DictionaryVariables
280
     0
  1
1:1
  0
DICTIONARYVAR
  5
78
102
{ACAD_REACTORS
330
76
102
}
330
76
100
DictionaryVariables
280
     0
  1
STANDARD
  0
DICTIONARYVAR
  5
77
102
{ACAD_REACTORS
330
76
102
}
330
76
100
DictionaryVariables
280
     0
  1
STANDARD
  0
DICTIONARY
  5
1A
330
19
100
AcDbDictionary
280
     1
281
     1
  3
BUMPTILE
360
1C
  3
DIFFUSETILE
360
1B
  3
OPACITYTILE
360
1F
  3
REFLECTIONTILE
360
1E
  3
REFRACTIONTILE
360
20
  3
SPECULARTILE
360
1D
  0
DICTIONARY
  5
12
330
11
100
AcDbDictionary
280
     1
281
     1
  3
BUMPTILE
360
14
  3
DIFFUSETILE
360
13
  3
FBXASSET
360
F5
  3
OPACITYTILE
360
17
  3
REFLECTIONTILE
360
16
  3
REFRACTIONTILE
360
18
  3
SPECULARTILE
360
15
  0
DICTIONARY
  5
22
330
21
100
AcDbDictionary
280
     1
281
     1
  3
BUMPTILE
360
24
  3
DIFFUSETILE
360
23
  3
FBXASSET
360
BA
  3
OPACITYTILE
360
27
  3
REFLECTIONTILE
360
26
  3
REFRACTIONTILE
360
28
  3
SPECULARTILE
360
25
  0
DICTIONARY
  5
1498
330
67
100
AcDbDictionary
280
     1
281
     1
  3
ACAD_XREC_ROUNDTRIP
360
1499
  0
DICTIONARY
  5
1496
330
65
100
AcDbDictionary
280
     1
281
     1
  3
ACAD_ROUNDTRIP_2008_TABLESTYLE_CELLSTYLEMAP
360
1497
  0
XRECORD
  5
1C
102
{ACAD_REACTORS
330
1A
102
}
330
1A
100
AcDbXrecord
280
     1
270
     1
271
     1
  0
XRECORD
  5
1B
102
{ACAD_REACTORS
330
1A
102
}
330
1A
100
AcDbXrecord
280
     1
270
     1
271
     1
  0
XRECORD
  5
1F
102
{ACAD_REACTORS
330
1A
102
}
330
1A
100
AcDbXrecord
280
     1
270
     1
271
     1
  0
XRECORD
  5
1E
102
{ACAD_REACTORS
330
1A
102
}
330
1A
100
AcDbXrecord
280
     1
270
     1
271
     1
  0
XRECORD
  5
20
102
{ACAD_REACTORS
330
1A
102
}
330
1A
100
AcDbXrecord
280
     1
270
     1
271
     1
  0
XRECORD
  5
1D
102
{ACAD_REACTORS
330
1A
102
}
330
1A
100
AcDbXrecord
280
     1
270
     1
271
     1
  0
XRECORD
  5
14
102
{ACAD_REACTORS
330
12
102
}
330
12
100
AcDbXrecord
280
     1
270
     1
271
     1
  0
XRECORD
  5
13
102
{ACAD_REACTORS
330
12
102
}
330
12
100
AcDbXrecord
280
     1
270
     1
271
     1
  0
XRECORD
  5
F5
102
{ACAD_REACTORS
330
12
102
}
330
12
100
AcDbXrecord
280
     1
 70
     1
 90
1959938040
 71
     1
  1
3F799DD3-0A93-48E3-A97C-5758871CE8BC
311
504B03040A00000800006A4E22423DEE336E79000000790000001B0000006175746F6465736B2D64657369676E2D7061636B6167652E786D6C3C3F786D6C2076657273696F6E3D22312E302220656E636F64696E673D227574662D3822203F3E3C666F726D6174733E3C666F726D61743E687474703A2F2F736368656D612E
311
6175746F6465736B2E636F6D2F64657369676E2D7061636B6167652F323030393C2F666F726D61743E3C2F666F726D6174733E504B03041400060808006A4E2242D486FD9CA0000000F4000000130000005B436F6E74656E745F54797065735D2E786D6C7D8EC10E82300C865F65E91D8A1E8C310C0EEA1BF002731658846E
311
D98AC1B77784ABF1D8FE5FBFBF75BBCE937A534CCEB38643598122B6FEE978D0B0485F9C41B54DDD7D022595594E1A469170414C76A4D9A4D207E29CF43ECE46F218070CC6BECC4078ACAA135ACF422C856C0E68EA1BF5669944DDD7BCDE7B1F8E415D77AECB980613C2E4AC91FC167A2B244592486606FC29C8FD7F045B9A
311
EF7053A7E60B504B03041400060808006A4E2242EEC296F3EA0000007C01000008000000636F72652E786D6C8D904D6EC3201085AF82668F0DF8278E8589ECD637E80510262E4A0C9681AAC72F4E1CA9DD7535A337EF9B193D7EF95EEEE84B6FDE38DB01CD08206D959B8C9D3B88E18A1B4017C137E7C22F1B202B17DDC12E
311
83E0F3E6E27A48CAD9A06D48AA75933E44E9BD0E80D43D351D78F5A91799C91892C3DFB255AA9B9C75465F5D826334137A1E3153DA67AE466F20C6F3D097D548F0D017275CB2EA8487A6A9F17B3FBE35F5D00F75C978BEC38207B3BCEEAB4DCBA027108CD002138A09FB20E7B6A22D2398D42D213CDFED7FA0B84EFF84A2B1
311
A160C7BB4FCC83A0E991C740F07CCF22954750A9EEB9891F504B03041400060808006A4E224255019EA25F0000007C00000007000000636E782E786D6C4DCB3B0E80201045D1AD90E915ED2CF8AC45050C11660C8261F98AB1B07AC9C97D42D718D865D3E909258CFD00CCE24AC6E326A164D74DC0B4128928FF326038472B
311
A13128B1252AC747C6BAB984FC68F0B87FE8960A5C09FE86CFB69FBA01504B03041400060808006A4E224208C67F6C66010000020300000C0000006662782F636F72652E786D6C8D52ED8E8320107C15C27F04ADB5BD0669F4AE6F702F40957AA60A06C1F4F16FFD68BC5E9AA6314132B3B33B3BCA8FB7B64183B27D6D748A
311
C38061A47461CA5A5729F6EE42F6181D05B7C6B83F651869D9AA148F3016BCB2C6770B5418ED9476806A53AA05947DAF1C4645039714F7C58F6A6520BD838AFE1A74B2B8CA4A05610034D409DE3B0B06D03C643CB1B89C6F9CCEB8E0DED7E5C2D6254CAB2FB5B2589C3EF22CDE9E18C9B3CD8EC4D17647F2FD3E215FD9E973
311
9FE4599EC411A7A3587057B777778555D2A9128B88851BC242C2A26FF671D886878811961C18E3742C7F10F9AE7C53E46BED36D1627796F55884606422FE6D0B1139D4CB01FC50C1E91822BCA6841F838640206427CFCD7D8F2B40832A9CB13130A5F12B35C8C62B98CAD0F4703AB3D0796A009B3DED13BDE8F3BA077C40A9
311
2BB0261D5CCFDE8DD3F93C7589A253960CEE86B4B1AD6C5673B3C5F55C073D9517A631F61D355D56A54B9874FC7BC52F504B03041400060808006A4E2242D43FA0AD7E0000009D0000000B0000006662782F636E782E786D6C4DCCD10A83201886E15B91FFDC65AD36033512F33E625948A6C3E9D8E5AF46073BFAE0E1E365
311
DD6773E86DE2CB06CFA1BC1040C63FC264FDC221A71953409D603184F47703E4C7CD703818045B62C8CF9326338FD9A55D9DF5EB894A36B4BAD30153455A5C5735C1526B8DCB56DEAEFD401ADD2B28042B7EA57D8FB0F802504B03041400060808006A4E22421AF5AE0F2D01000015020000310000006662782F4442353832
311
3738452D384430392D343234302D424646462D3139423633414530354641442F636F72652E786D6C8D51CB6EC23010FC95C8277A70B2CE8B04394620C817F407426CA805B1233F2A3EBF7613A4F6C6C56BCDCECC8E76E9FE393D926F61ACD4AA4324059408356A2ED5AD43DE5D7183923DA3466BF7878612354CA24311468C
311
DE8CF6F30A8D5A39A15C4095E66205076B8543C9F8089F0ED9F14B4C433A781718F69ECEC3781F6E22256968071EA3D69910205986C417B1D3B16AF26D73C6CD095A5CE625E063DFF798B4C7BA389CA1EA0F279A2D4246BD977C954B1EE2C8AB14E65D932866D4C9E9157F346270822396032930100CF927B4BB8AEC72C050
311
EF006816E9FF447EE66F8ABC54AEC8D7B88BCC224668B63418E5DA5F1EAF30E2396BE392386F63C5F88118A400C5B6290954345BB86103C1B42E5753EBB4091BDEDC2F814E022B3AD725A3593C5228BF170C351E94FD00504B03041400060808006A4E224256E3D3EB4D01000033030000300000006662782F444235383237
311
38452D384430392D343234302D424646462D3139423633414530354641442F636E782E786D6CD593CD6EC32010845F0571B78D93346A234CA41EFA043DF48A6193D060B0F8A99AB7EF929034971C7AEC0559B3C3CCEA13E6DBEFC9922F08D17837D0BE659480535E1BB71F684EBBE69992ADE0C1FB7467A3C4C909065A642A
311
F83EF83C5749C34E669B50B5C61DAB1820FA1C144494CB4D62BD921603C03519459846D01A34B919F16B07015741713C917400F2F6FA41FCF8092A45DE9514C1BBD22178396BD39D891265658C038DEA00936C654E5E433CB65A26D9F6EDB5EBC14EBF49A45CB856E66048291F6839A9A81BB5C8917738143CA680F4AA299D
311
66A042CEB3354A2684DC9D8D178FE0D9B8B45E55AF41F001DDFD7AB95A61D8792678321354870A2013682A16AC5F36AC6FD8E29DBD6C9EFACD82356CBD618C77C52EF8E8BDAD973006829F89F22E814B54F4BC2BE347F8AA8F681390B50FA73F804400B5F542E796F19FF974E7F78DB802FE05E207504B0304140006080800
311
6A4E2242B2C27994A605000081100000340000006662782F44423538323738452D384430392D343234302D424646462D3139423633414530354641442F6F626A656374732E786D6CAD57DB6EDB3810FD1541FBB2FB60CBB29DC65E282A1C3B298C366D51A3C53E1830288952B8A12E20A9D4D9AFDF43899225D74EBD8BBEE8
311
C2CB70E6CC990BBDB7FB945BCF5448966737B63B1CD916CDC23C62597263972A1ECC6CEBADEF893C579D65B6959194DED87AD8F6BD44E4656186221A9392ABA3D1FBDBBF2C19D28CDA56C8899437B60C1F694A86A4547944E5D330228A0C93783F7487F5C2BED84490E2F148684104CD1434C578062956AD94DBFF1DD98EEF
311
397ADEF7F4D3AC9A9C5FE554F6F4CF679954240B7F38EC48CCC49DAEEEC657F3C1D5743A194CDF8CDDC1EDFDED6AE05E4F46CB37CBE57C7137C7C1520948329A081ADBFE3B602358E839F594EF952C5393B159621CE408FACCB4A76C7F6CB99E53AF69AD33469E523FCCB38C86155640A3B2CF888E6841B3083E675442B30E
311
42A3FEAFAB71EC4C4FF4BF39B23B7C1902DD1D1D418DEECDBBAB691EFC0D13E4250C12926A06D6581A436BAE8E0E080779CECD1C93564A14158C708BB34010F162FB58AA97F85E4F8C66B2D0D1A02DB07D78A19EEED30561F4739E9FD2322E39D734B6FD2A0A768815AA64A519FB878A83F65D64A0137CA5D9303306A99782
311
DAFEBCA6C8EC884D359056CC490297C34CBD73323E3274A9E374BDB2FDF7F7C17EA363F7F4E185C80B2A94A60FA8D538AE796B948C4EEE459ED31BEC23550EA07C01F21F11EA0755E037C1F6D3FDD49CA204C9649C8B14BEB146D66084C7C872ABA7FEEE7C794EBBB9EFBD7378C2D91AAA5F8067DF86AE2F3B70FADE33089F
311
8B89316D13128EB4F1C03200A44962F11C43C8C371B0B7FD35B21CB2327611EEBB3019EA3EE3D3738C18248AEAA4CE3B03964769F182040DD82A46428D9AFC46C1839F7E4867D5C166D93978AF7E095D17ABCDFB4D296212D20713D32B1AB38C2994B8036FBA0AF530EF59F4445FBEE72282A13FE2BDE9E29D9AA324D0D698
311
6BE09326A7EB9FC3C9BD0342EC4B729D6EBC9F9C00237461EDC87F6032A49C938CE66573EEABF50365A3865807BB66725B600E8505A4A9678E6210453A14ACD020B6D5AA4D9AC333D67D5D7F04236DFFF6E50379E966AFE0907BC39CE76217BCECEAB47412EA6F7D6E1B0C1C2D0574AF82A4897F03FA2E62715C4A24C113B8
311
7E5B2FBBBED3690129A2915A47CB14F623B88830A46DE4A25A0B824A9A673B86BA89B83B7940573E20350CA8049ED358521EEF18E765BA8B194735DAA5A43803C7FFD73F28D36247D2BCCCD419D93DD5511DFABAF7D82BBF13153EDAFEA67A0F6E917B231A9D2183AE2527B0EAB976727F3D9FAF5693C1683147FF34BB9B0C
311
16F3EBE5E0EAFA6A36BB769777B35B986E34AA9A28DF6B4A4D37A2E1259436AF14CCB8EFEB1AF1639280ED3F1025B7EFEAF06CDE5FD743F4C29E833DA897EDC645F48CBE8F463F1770587952D03A2D384D69A6888EA107FDC1BF10F4193D65EAF1754A127A81944FEF3647C660E4827D9F75BCD3EF477BCDE85207E44921EA
311
B14C838C307EB431A9911C165962F06B7CD2BEEB42D3FCEA3FE31874A632E72C421E8CAC84E62955C886171421915209EA757BFAC8DC3D2ED8FD5C77888A049C369A3C1234C95C222C40F23254FD71EB373475BAAFBAB1516E874F78984C615BE0CC8D8D265DB190CA618002AD5BA14A38B8D4EDE4C15992251CBD76BDA9FD
311
6F77696C7A25B95D7249FF64ECAA53B8310069A440DF808608DEA994F1BD4A37331FFE27C31B752CA2F01994AAB5E530D01A531D8310AD8D32B70534314FE6E83D02F575B3DC61B5A687C845B7AC5749504B1D282292EAA6A0F5332A2D569F1D7428D6FA9355F032812F2F97341014642E75808345608591591005AA2EFFDC
311
7E16396EB2A975CF4001EBF7FDECCD1FDB659EA679560F6D17E63E6C6D1E71BB8DB6480E545F4BE4763C72C7DBEA3A606E28BB80483A24917CC2003C2B580B74CFFDE0657D67441DAA27DA758E76C51143D72BCB14B629841ABA7473AB06078D47462DC490BE52EA88E92E285EBD1138D552A820D0CBFBFF02504B03041400
311
060800006A4E2242000000000000000000000000350000006662782F44423538323738452D384430392D343234302D424646462D3139423633414530354641442F76657274696365732E62696E504B03041400060808006A4E2242F270F1330600000004000000360000006662782F44423538323738452D384430392D3432
311
34302D424646462D3139423633414530354641442F747269616E676C65732E62696E636660600000504B03041400060800006A4E2242000000000000000000000000370000006662782F44423538323738452D384430392D343234302D424646462D3139423633414530354641442F617474726962757465732E62696E504B
311
03041400060808006A4E2242D5987DFC8F00000041010000360000006662782F44423538323738452D384430392D343234302D424646462D3139423633414530354641442F6469726563746F72792E786D6C858F410EC2201045AF4266AF15DDB800BA74E7C21B903225242D6328188F2FA5C4183471359997F9FF81E89FF3
311
C41E1816475E02DF1F80A11FC8386F25A438EECEC07A250251FC3803E6F58C12560C4AD840E95E91C151A72936F496F35732D860FE635F62C8F2DA16B505C545B74125BAA2FA9E05D7CC053D063734D5C7665FD55B6B8D15D5E9BFEAFD8490FFA45E504B03041400060808006A4E22426A2F4854FD000000A00100003B0000
311
006662782F44423538323738452D384430392D343234302D424646462D3139423633414530354641442F7265736F75726365732F636F72652E786D6C8D50596E833010BD0A9A7F8359439071044D7A825EC032136225D8C84BD5E3D724546AFFFA33337A8BE6E9B1D3D7F2483ED13A65740F794A21412DCDA4F4DC43F057D2
311
4272E2CC1AE37FC920D162C11E3618389BAD09EB0E49A33D6A1F516D26DC41E11C7A48E4231E3D3879C345A422F8A870F77415F22E664CF334D251C799F33606485E4FB609DCA233C14A742C7BB19C85A0A65DA3A6F8535D155AE097E33854F5F99D8C43792055511FC8D8B60D390F97B7B61987B1A90A966D66CEBC5A7E32
311
4A8BC2E304BCA07949684E68F1418F5D9D770525B4E92865D926FF630AEBF44F5350DA97C51EF76573C0F318E44970966D7DC5F52C33EEAD5BFE0D504B010214000A00000800006A4E22423DEE336E79000000790000001B00000000000000000000000000000000006175746F6465736B2D64657369676E2D7061636B6167
311
652E786D6C504B010214001400060808006A4E2242D486FD9CA0000000F40000001300000000000000000000000000B20000005B436F6E74656E745F54797065735D2E786D6C504B010214001400060808006A4E2242EEC296F3EA0000007C010000080000000000000000000000000083010000636F72652E786D6C504B01
311
0214001400060808006A4E224255019EA25F0000007C000000070000000000000000000000000093020000636E782E786D6C504B010214001400060808006A4E224208C67F6C66010000020300000C00000000000000000000000000170300006662782F636F72652E786D6C504B010214001400060808006A4E2242D43FA0
311
AD7E0000009D0000000B00000000000000000000000000A70400006662782F636E782E786D6C504B010214001400060808006A4E22421AF5AE0F2D0100001502000031000000000000000000000000004E0500006662782F44423538323738452D384430392D343234302D424646462D3139423633414530354641442F636F
311
72652E786D6C504B010214001400060808006A4E224256E3D3EB4D010000330300003000000000000000000000000000CA0600006662782F44423538323738452D384430392D343234302D424646462D3139423633414530354641442F636E782E786D6C504B010214001400060808006A4E2242B2C27994A6050000811000
311
003400000000000000000000000000650800006662782F44423538323738452D384430392D343234302D424646462D3139423633414530354641442F6F626A656374732E786D6C504B010214001400060800006A4E224200000000000000000000000035000000000000000000000000005D0E00006662782F444235383237
311
38452D384430392D343234302D424646462D3139423633414530354641442F76657274696365732E62696E504B010214001400060808006A4E2242F270F13306000000040000003600000000000000000000000000B00E00006662782F44423538323738452D384430392D343234302D424646462D31394236334145303546
311
41442F747269616E676C65732E62696E504B010214001400060800006A4E224200000000000000000000000037000000000000000000000000000A0F00006662782F44423538323738452D384430392D343234302D424646462D3139423633414530354641442F617474726962757465732E62696E504B0102140014000608
311
08006A4E2242D5987DFC8F0000004101000036000000000000000000000000005F0F00006662782F44423538323738452D384430392D343234302D424646462D3139423633414530354641442F6469726563746F72792E786D6C504B010214001400060808006A4E22426A2F4854FD000000A00100003B0000000000000000
311
0000000000421000006662782F44423538323738452D384430392D343234302D424646462D3139423633414530354641442F7265736F75726365732F636F72652E786D6C504B0506000000000E000E0080040000981100000000
310
504B03040A00000800006A4E22423DEE336E79000000790000001B0000006175746F6465736B2D64657369676E2D7061636B6167652E786D6C3C3F786D6C2076657273696F6E3D22312E302220656E636F64696E673D227574662D3822203F3E3C666F726D6174733E3C666F726D61743E687474703A2F2F736368656D612E
310
6175746F6465736B2E636F6D2F64657369676E2D7061636B6167652F323030393C2F666F726D61743E3C2F666F726D6174733E504B03041400060808006A4E2242D486FD9CA0000000F4000000130000005B436F6E74656E745F54797065735D2E786D6C7D8EC10E82300C865F65E91D8A1E8C310C0EEA1BF002731658846E
310
D98AC1B77784ABF1D8FE5FBFBF75BBCE937A534CCEB38643598122B6FEE978D0B0485F9C41B54DDD7D022595594E1A469170414C76A4D9A4D207E29CF43ECE46F218070CC6BECC4078ACAA135ACF422C856C0E68EA1BF5669944DDD7BCDE7B1F8E415D77AECB980613C2E4AC91FC167A2B244592486606FC29C8FD7F045B9A
310
EF7053A7E60B504B03041400060808006A4E2242E8674771EB0000007C01000008000000636F72652E786D6C8D90416E83301045AF62CDDE6043021419470D8113F40296ED502BC146D8AE7AFC9A8448EDAEAB19FDF96F66F4D9E97BBEA32FBD7AE36C07342380B4954E193B7510C31537804E9CADCE855F364056CCBA834D
310
06CEA6D5C56597A4B341DB9054EB94DE45E1BD0E80E43D351D78F9A96791891892C3DFB245C89B9874465F5D8263340A3D8F1895F699ABD12BF07E6C483D8C03AECBBEC287F7BEC64D35527C1E8EE5488BFAD2F717966F3067C1CCAFFB72D5226805BC20B4C48462527C90B7F648DB826052B584B07CB3FF81E2A2FE094563
310
4359ECEF3E310F9CA6471E03CEF22D8B541E41A5BAE5C67F00504B03041400060808006A4E224255019EA25F0000007C00000007000000636E782E786D6C4DCB3B0E80201045D1AD90E915ED2CF8AC45050C11660C8261F98AB1B07AC9C97D42D718D865D3E909258CFD00CCE24AC6E326A164D74DC0B4128928FF32603847
310
2BA13128B1252AC747C6BAB984FC68F0B87FE8960A5C09FE86CFB69FBA01504B03041400060808006A4E22422430C9E866010000020300000C0000006662782F636F72652E786D6C8D52D18E823010FC95A6EFA505543C536AEE50BEE07EA042E588D092D2123FFF16C1705E8C3124A599D9D99D1DE0FB6BDBA041D9BE363A
310
C561C03052BA3065ADAB147B77265B8CF6825B63DC9F328CB46C558A47180B5E59E3BB192A8C764A3B40B529D50CCABE570EA3A2814B8AFBE247B53290DE41457F093A595C64A58230001AEA04EF9D0503681A329E589C4F574E275C70EFEB7266EB12A6D5E75A592CB27CCB92637E24499C6DC8EA334BC8769387E4EBB88E
310
F3304A0E5976E074140BEEEAF6EEAEB04A3A556211B130262C242CFA661FBB75B88B18619B1D639C8EE50F22DF956F8A7CAD5D1CCD7627598F4508466EC4BF6D2122877A39801F2A381D4384D72DE1C7A0211008D9C95373DFE302D0A00A67EC0A98D2F8851A64E3154C65E8F6703AB1D0F9D600367BDA277AD1E7750FF880
310
5257604D3AB89EBC1BA7F369EA1C45A72C19DC1569635BD92CE6268BCBB90C7A2A2F4C63EC3B6A3AAF4AE730E9F8F78A5F504B03041400060808006A4E22427DFAE4967C0000009D0000000B0000006662782F636E782E786D6C4DCCD10A83201805E05791FFDED56C5BBFA046AD17896521330DA7D1E3CF4617BB39073E0E
310
4734FB62C9A6C3C77827E17A298168F7F2A371B38414278A401A2582F7F16F06C40D8B9670302831079FD693463D0DC9C6ACD6B8F789885863CF7A7A633CC79D33CADBAEA55871563F4BF6E055078512C5EF29F771ACBE504B03041400060808006A4E2242A11E37992901000015020000310000006662782F383838373844
310
32442D343239442D343539322D394142412D3833393237433032363933422F636F72652E786D6C8D51CB6EC32010FC15C4293D6063ECD826C24449F309FD010748821283C5A3CAE7176A476A6FB9B068766676B4CBF6CFE901BE95F3DA9A01560586401961A536D701C670413D047BCE9CB5E10F0D02334E6A8019869C5D9D
310
8DF30A096B823221A1C64AB582A3F72A40201EE933402F6E6A1A8B3186C4F0F7621EC57DBCAAA22A523BF138F3C1A5006019925FC8FBBEEFFA1339A186D0F46C2941F4703CA0BEA6A4FBC4A4A5F591958B90B318B55CE55AA638FAA2957BD7248B390B7A7AC5174E8D4149C809AE6A842B84C917A6BB6DB52318E17687312B
310
33FD9F28CEF24D51D426D4648DBBC83CE4152B970667D2C6F3E315463D67EB02C8F3365E890FC8718171D3B5B4A30D2B176EDA40326D9BD5D407EBD28637F773A2D7AB73DB7056E623A5F27BC154F341F90F504B03041400060808006A4E224230441CFC5501000033030000300000006662782F38383837384432442D3432
310
39442D343539322D394142412D3833393237433032363933422F636E782E786D6CBD93C16EC32010447F0571B78D9DD44A234CA41EFA053DF44A6093D060B00057CDDF7749489A4B0E95AA5E90353BCCAC9E30DF7C8D967C4288C6BB81B635A3049CF2DAB8FD40E7B4AB56946C040FDEA73B1B254E8E30D02C53C1F7C1CF53
310
9134ECE46C13AAD6B8631103443F070511E57C9358AFA4C50070D58C228C5BD01A34B919F16B07015741717B22E900E4F5E59DF8ED07A814799353046F7287E0F92C4D77264A9495310E34AA038CB29673F21AE2B1D632C9BAADAF5D0F76FA4922F9C2B5720E86E4F281E6938AB2518D1C798343C1630A48AF98D269022AE4
310
3459A36442C8CDD978F1083E1B97FA65F11A041FD0BDE8FAD50AC3CE33C19319A1385400994053D1B17651B1B662DD1B7B5E3FB5EB8E55AC5F33C69B6C177CEBBD2D973006829F88F22E814B54B4BCC9E347F88A8F681390B50FA75F804400A5F542E796F1977CDA7EB15CFE239FE6FCBE1157C0BF407C03504B0304140006
310
0808006A4E22428E01293F640700009A1B0000340000006662782F38383837384432442D343239442D343539322D394142412D3833393237433032363933422F6F626A656374732E786D6CED59DD73A33610FF5718FAD23E189BD8B9C41D4227B12F379E36BD9B73EFA60F9E616490891A211849E4E2FEF55D7D80819804F7
310
D2B73ED8809056BBBFFDD412FCF29451E71173417276E5FADEC475308BF384B0F4CA2DE56E74E93ABF8401CF73D998E63A0C65F8CA55C36E18A43C2F0B3B94E01D2AA9EC8CDEDEFCE9881833EC3A3145425CB922BEC719F25029F3048B072F411279E9EEC9F33D33B14D36E5A8B8EF102D10C74C02A730CE808A6398F2DB8F
310
13771C0663F53E0CD4BF9D351D346BD63F6BACA56E7349989088C5CF58EA90990E6269EACF96EFCFCEE7A3F3D96C3A9ABD3BF34737B737CB917F319D2CDE2D16F3EBF773606F9BE7D4CA94E002B304F4B777433F18AB37B5E81681635CC7396338D64002545AAC2E4182056CD5806FD27EF495448DD75AC2C6F34CBDB72C34
310
86A76D2A7DB38601D1A20B82D8ED2A89AB6B53BE7CFB17082E861825175802B74272D0AE85878357B8E124189BD130D81E7441849321893941D4A164CB1107A5C05435250CCC024B46390707528E92406BCEBC6EDB1678E6EBAE738CCB5D49A9F20C37D48E1581FB61293467E46FCC0FDC3791019E40DA92307969B994FB02
310
BBE13C18EBC1305097E9997D6980747614A5422362DE76045D28D75F2DDDF0D7DBEDD35A8583E39B173C2F3097CAE8941E355F60C8F6AA50B2DBFA8334A71680300654BBF200CA6740FE77881E0756406F9C3CCD9E6676AEE488895DCE33D08D33714613F89B38BEFE57F78DBB605C2F6E6BAF0F4F705305D5E5F7E3D99641
310
6365F96FC019068F60F0399FDA57EB1851B0E73BC2002065240ECD610842FB6EFBE4862B089C10E86115A2A10F2203BB8F701B8C2D9983562AF7B25EC70051BBC774889200366D91C0468F9E3E40F6E0243EA8A929621FBCE76F62AED7CBF5AFEB92EF508CEFAC4F2FF18E3022216B1E67A885794BA207BCFF96F304047D8E
310
F7BA897766B71280B6C25C019F5620A887C3CEAD0D625897E62ADC04AFEC0042A85CDDA07F47448C29450CE765B56F1DDD94A1D61E6F6B06373C33104FCF3A26CCF12351550538CD61468B51C8FB31278502D10D3F18C9EAA0E9F548F765F53B58643DBF67D68A41E86588FEA183D6111C5A965D216D81A805DE1EC2799CD3
310
9C47DB7D64229D0BB504B0D1F696AF2DA210EB8D921415F020ED775548498DB4514276BB52405C3DC2E2D7D5A2690E136FEA9F3BCDFF8E33CE20DA82EF226EFDAEB347443294E2688792BEED9ABBD5B48526D9439AE31D05B9C82391FB08C96892E0F414684E223E7F53EA29CD85200C0BC85747C16FA231F12090186D562C
310
2BAD76802622CAB044F4140414991E7075DAD1356E0CA5C3EB3CD6D6FB92C69A44FF238BE0086AC99C45044A51C821AF32EE7BE71043DAE81A943BF882B555B4B518B4841222DE47DF3049EFE529A81BF23DB8C77024296594172806B31E40F699AF28A57678DFA2F841E58F282EE95B1988C07417114ACB2C821F6170F218
310
E2DA75607A1185067113FB24CEA02843B2E4433679773E79B68FA919BA21B0B1D18E5008DB51868A1ED45B0151D7234E0DBEA5DEA3D46D991511CAF2920D32146FDAF5264BBEAB56457620BFAA5484B2B1226C09860161B2CEAA55CC0653D78115DC4807AA7D24505650730A7B25F1F8B53769CABD1B70EBA76FBB4106855F
310
8FF69A117556C160796C1506E21B92F1BD1BAEF5757403F577829343AAAF6ACD66050888A9485E726255F46505E58DADD1DCF00E49B1F960B26E75FDB2F2A0FB118C610DD42EF5C295023AC34C225599DCA91BFA1941086ED130E32B95534FA1729D24BA6A44F496F4A9B35546B436CD8857DC639667F0631BC2625A267883
310
12F110DD491AAD8962DD4AE965A4C2F845013F7E5877E0819101227D52051EFED6596B4717AA5C3A4A44DE97D996210241B0255A6A74E3152CB51AA9B45C5FD59902EA2E3030ABE2D9FF278B663BE2FF93456A0DE3BB4E1637FBDFD0BED91769A4F358D9F549C7803A3F292A6F710CD06D879A6A9D454C32B7F25B678A2028
310
56517E703556050D43B08FE37F9DB5FBB2A0D9AEC3FF6959DB7F56719C94555A935597EA48E5BA6AE6B0E9EDC57CBE5C4E4793EB3934682FDF4F47D7F38BC5E8FCE2FCF2F2C25FBCBFBC59D4686A470D833A98E9DC05CF26A855C3EAC962005D59915392C0693E71520C315FC2997E40FB9C675840F26C36BB13DB941FB0FA
310
D1F43925DA525C71728FA0414C05A475C0A88C657BDCF9015A93120EDA572E348DBC07F8B356E93A9079AE5C6815481263E16DA1CDA41A7A9A38A45C9DFB2D31C007B154A544B3A87EAE57296C5AE1BF9E32240D58B95A3D0C28DC0AE87EB53A149A37CB537C92E0153B0E9270BB2D25546B4696C3402D8CDEE6A07E231B25
310
ECC16EFD04AEFBB258BEA7E7B41019F4C9E0452330544712F154F7BB156396A5EBE5A731F4D99CD547A7A0650ABA1C4E69C4311873A90A2AB022B00A4BB340124C75F1F3E613CFE1134FE6E8AAC8F9F1E9F2DD4F9B459E653933439B6B389525F0A1C859DFC3679F6403C50356CD75B1399BF8671BDDD4B67DF6688B04F654
310
5504035531A104E9981CD8E5B306956D5F8E952A3AD3574BC706516806183B7AD6E3351FB91CF021F53945798CF6F34ADA17FBDA633D156C8243473AFC07504B03041400060800006A4E2242000000000000000000000000350000006662782F38383837384432442D343239442D343539322D394142412D38333932374330
310
32363933422F76657274696365732E62696E504B03041400060808006A4E2242F270F1330600000004000000360000006662782F38383837384432442D343239442D343539322D394142412D3833393237433032363933422F747269616E676C65732E62696E636660600000504B03041400060800006A4E22420000000000
310
00000000000000370000006662782F38383837384432442D343239442D343539322D394142412D3833393237433032363933422F617474726962757465732E62696E504B03041400060808006A4E2242D5987DFC8F00000041010000360000006662782F38383837384432442D343239442D343539322D394142412D383339
310
3237433032363933422F6469726563746F72792E786D6C858F410EC2201045AF4266AF15DDB800BA74E7C21B903225242D6328188F2FA5C4183471359997F9FF81E89FF3C41E1816475E02DF1F80A11FC8386F25A438EECEC07A250251FC3803E6F58C12560C4AD840E95E91C151A72936F496F35732D860FE635F62C8F2DA
310
16B505C545B74125BAA2FA9E05D7CC053D063734D5C7665FD55B6B8D15D5E9BFEAFD8490FFA45E504B03041400060808006A4E2242FBCC69E9FD000000A00100003B0000006662782F38383837384432442D343239442D343539322D394142412D3833393237433032363933422F7265736F75726365732F636F72652E786D
310
6C8D504B6E833010BD0A9ABDC1862650641CB5249CA017B0CC24B112ECC89FAAC7AF1DA8D4EEBA9919BD8FE6E9F1C3D7722F3ED1796DCD00ACA450A05176D6E632400C67D2417110DC591B7EC9A03072C101320C825F9C8D8F0D52D6043421A1C6CEB881D27B0C50A87B3A06F0EA8A8B2C650C49E16FE543AA9BBC60C9CA44
310
279DE03EB814A0589FE409C2A1B7D129F4BC5A59C163D4F3A6D173FAA9CF1A1D8871EA687B9A8EA46DC63D79791B5BD2ED2746DE4FBB6662757B1CC723AFB259F0A0979F8CCAA10C3883A8296B086584D61FF4B5DFB1BEA684EE7B4A7995E57F4CF131FFD314B5094DBDC55D6D1E044B419E84E055EE2BAD679969E76EC537
310
504B010214000A00000800006A4E22423DEE336E79000000790000001B00000000000000000000000000000000006175746F6465736B2D64657369676E2D7061636B6167652E786D6C504B010214001400060808006A4E2242D486FD9CA0000000F40000001300000000000000000000000000B20000005B436F6E74656E74
310
5F54797065735D2E786D6C504B010214001400060808006A4E2242E8674771EB0000007C010000080000000000000000000000000083010000636F72652E786D6C504B010214001400060808006A4E224255019EA25F0000007C000000070000000000000000000000000094020000636E782E786D6C504B01021400140006
310
0808006A4E22422430C9E866010000020300000C00000000000000000000000000180300006662782F636F72652E786D6C504B010214001400060808006A4E22427DFAE4967C0000009D0000000B00000000000000000000000000A80400006662782F636E782E786D6C504B010214001400060808006A4E2242A11E379929
310
0100001502000031000000000000000000000000004D0500006662782F38383837384432442D343239442D343539322D394142412D3833393237433032363933422F636F72652E786D6C504B010214001400060808006A4E224230441CFC55010000330300003000000000000000000000000000C50600006662782F383838
310
37384432442D343239442D343539322D394142412D3833393237433032363933422F636E782E786D6C504B010214001400060808006A4E22428E01293F640700009A1B00003400000000000000000000000000680800006662782F38383837384432442D343239442D343539322D394142412D383339323743303236393342
310
2F6F626A656374732E786D6C504B010214001400060800006A4E224200000000000000000000000035000000000000000000000000001E1000006662782F38383837384432442D343239442D343539322D394142412D3833393237433032363933422F76657274696365732E62696E504B010214001400060808006A4E2242
310
F270F13306000000040000003600000000000000000000000000711000006662782F38383837384432442D343239442D343539322D394142412D3833393237433032363933422F747269616E676C65732E62696E504B010214001400060800006A4E22420000000000000000000000003700000000000000000000000000CB
310
1000006662782F38383837384432442D343239442D343539322D394142412D3833393237433032363933422F617474726962757465732E62696E504B010214001400060808006A4E2242D5987DFC8F000000410100003600000000000000000000000000201100006662782F38383837384432442D343239442D343539322D
310
394142412D3833393237433032363933422F6469726563746F72792E786D6C504B010214001400060808006A4E2242FBCC69E9FD000000A00100003B00000000000000000000000000031200006662782F38383837384432442D343239442D343539322D394142412D3833393237433032363933422F7265736F7572636573
310
2F636F72652E786D6C504B0506000000000E000E0080040000591300000000
  0
XRECORD
  5
17
102
{ACAD_REACTORS
330
12
102
}
330
12
100
AcDbXrecord
280
     1
270
     1
271
     1
  0
XRECORD
  5
16
102
{ACAD_REACTORS
330
12
102
}
330
12
100
AcDbXrecord
280
     1
270
     1
271
     1
  0
XRECORD
  5
18
102
{ACAD_REACTORS
330
12
102
}
330
12
100
AcDbXrecord
280
     1
270
     1
271
     1
  0
XRECORD
  5
15
102
{ACAD_REACTORS
330
12
102
}
330
12
100
AcDbXrecord
280
     1
270
     1
271
     1
  0
XRECORD
  5
24
102
{ACAD_REACTORS
330
22
102
}
330
22
100
AcDbXrecord
280
     1
270
     1
271
     1
  0
XRECORD
  5
23
102
{ACAD_REACTORS
330
22
102
}
330
22
100
AcDbXrecord
280
     1
270
     1
271
     1
  0
XRECORD
  5
BA
102
{ACAD_REACTORS
330
22
102
}
330
22
100
AcDbXrecord
280
     1
 70
     1
 90
1959938040
 71
     1
  1
8E35BEAB-35EC-4854-B5A4-DAAD525EF902
311
504B03040A00000800006A4E22423DEE336E79000000790000001B0000006175746F6465736B2D64657369676E2D7061636B6167652E786D6C3C3F786D6C2076657273696F6E3D22312E302220656E636F64696E673D227574662D3822203F3E3C666F726D6174733E3C666F726D61743E687474703A2F2F736368656D612E
311
6175746F6465736B2E636F6D2F64657369676E2D7061636B6167652F323030393C2F666F726D61743E3C2F666F726D6174733E504B03041400060808006A4E2242D486FD9CA0000000F4000000130000005B436F6E74656E745F54797065735D2E786D6C7D8EC10E82300C865F65E91D8A1E8C310C0EEA1BF002731658846E
311
D98AC1B77784ABF1D8FE5FBFBF75BBCE937A534CCEB38643598122B6FEE978D0B0485F9C41B54DDD7D022595594E1A469170414C76A4D9A4D207E29CF43ECE46F218070CC6BECC4078ACAA135ACF422C856C0E68EA1BF5669944DDD7BCDE7B1F8E415D77AECB980613C2E4AC91FC167A2B244592486606FC29C8FD7F045B9A
311
EF7053A7E60B504B03041400060808006A4E22428C4FF8FCEA0000007C01000008000000636F72652E786D6C8D904D6EC3201085AF62CD1E1BEC8438162672DCE404BD0002E2A0C46019A87AFC427EA476D7D58CDEBC6F66F4D8E17BBE175F7AF5C6D91E4889A1D0563A65ECD4430C17D44271E06C752EFCB24161C5AC7BC8
311
327036AD2E2E2F493A1BB40D49B54EE99728BCD7010A794F4D0F5E5EF52C4A114372F85BB9087913932EC9BB4B708C4615CF2346A57DE662F40A7C376CC6ED89B668A4E7066DDAD3808E23D9A1F3FE48DB76A4C30725ACCA3067C1CCEFFB72D5226805BCC6A44198205C7FE27DB7255D8D11A61DC6ACCAF63F505CD43FA168
311
6C68EAD7BB4FCC03CF8F3C069C55398B541E41A59A73E33F504B03041400060808006A4E224255019EA25F0000007C00000007000000636E782E786D6C4DCB3B0E80201045D1AD90E915ED2CF8AC45050C11660C8261F98AB1B07AC9C97D42D718D865D3E909258CFD00CCE24AC6E326A164D74DC0B4128928FF326038472B
311
A13128B1252AC747C6BAB984FC68F0B87FE8960A5C09FE86CFB69FBA01504B03041400060808006A4E2242970275E166010000020300000C0000006662782F636F72652E786D6C8D52ED8E8230107C95A6FF4B0B2AA22935CAE913DC0B54A81C115A525AE2E3DFF2613C2FC61892D2CCECECCE0EF0DDADA951AF6C57199DE2
311
306018299D9BA2D2658ABDBB9004A39DE0D618F7A70C232D1B95E201C68297D6F8768672A39DD20E506D0A3583B2EB94C328AFE192E22EFF518D0CA47750D15D8356E65759AA200C80863AC13B67C1009A860C271697F38DD30917DCFBAA98D9AA8069D5A552168BF57E99AD8E7142B2F8B420CBE4B827872C5C93D3E61027
311
4916EFBFE290D3412CB8AB9ABBBBDC2AE9548145C4C205612161D137DB6C57E1366284C55BC6381DCA9F44BE2D3E14F94ABB4534DB9D641D16839191F8B72D44E450277BF04305A74388F01A137E0E1A0281909D3CD7F73DAE00F52A77C62E81298C7F50BDACBD82A90C8D0FA7130B9DC706B0D9CB3ED19B3EEF7BC00794BA
311
046BD2C1F5ECDD309D4F53E7285A6549EF6E481BDBC8FA616EB2F8381F835ECA73531BFB899ACEABD2394C3AFCBDE217504B03041400060808006A4E22427DE9252F7E0000009D0000000B0000006662782F636E782E786D6C4DCCDF0A83201C86E15B91DFB9FD99AE1CA891D685C4B290990EA76397BF1A1DECE883878F97
311
779FCDA1B7892F1BBC80BAA800197F0FB3F5AB809C16CC007592C710D2DF0D909F3623E060907C8D213F4F9ACD3265977675D63F4EA4EADA105D535C29DD624A5583192103BED061647AEC55CB6E504A5EFE4AFB1E61F905504B03041400060808006A4E224240BCE6CC2C01000015020000310000006662782F3442353633
311
4331342D304243372D343442362D383333442D3234444538434541423738392F636F72652E786D6C8D51DB8EC22014FC15C293FB400B05B11A8AD9AA7FB03F505B54A28586CBC6CF5FD8D664F7CD170E99333367728ED83FC707F856CE6B6B1A480A0C8132BD1DB4B93630860BAA21D84BE1AC0D7F6810986E540DCC3094E2
311
EA6C9C16A8B7262813126AECA016B0F35E0508FA47FA34D0F737357645174362F87B3175FDBDBBAA8214A99D7852F8E05200300FC92F94AC5D737A200CE1F6B0418CB51CD5941E51C58EA7FA70FA6C37F55694B3508A18F5B0C8F590E2E88B56EE5D932C9622E8F115BF77AA0B6A80B2C284224C10AEBEF076B726BB0A23CC
311
77188B32D3FF89E234BC298ADA045A2D716799879288726E4831D8787EBCC2A8E7645D0079DECAABFE034A5C60CC28A67CC3453973D3069229678BA90FD6A50DAFEEE74427EBD9993329CA7CA4547E2F986A3EA8FC01504B03041400060808006A4E224256E3D3EB4D01000033030000300000006662782F34423536334331
311
342D304243372D343442362D383333442D3234444538434541423738392F636E782E786D6CD593CD6EC32010845F0571B78D93346A234CA41EFA043DF48A6193D060B0F8A99AB7EF929034971C7AEC0559B3C3CCEA13E6DBEFC9922F08D17837D0BE659480535E1BB71F684EBBE69992ADE0C1FB7467A3C4C909065A642AF8
311
3EF83C5749C34E669B50B5C61DAB1820FA1C144494CB4D62BD921603C03519459846D01A34B919F16B07015741713C917400F2F6FA41FCF8092A45DE9514C1BBD22178396BD39D891265658C038DEA00936C654E5E433CB65A26D9F6EDB5EBC14EBF49A45CB856E66048291F6839A9A81BB5C8917738143CA680F4AA299D66
311
A042CEB3354A2684DC9D8D178FE0D9B8B45E55AF41F001DDFD7AB95A61D8792678321354870A2013682A16AC5F36AC6FD8E29DBD6C9EFACD82356CBD618C77C52EF8E8BDAD973006829F89F22E814B54F4BC2BE347F8AA8F681390B50FA73F804400B5F542E796F19FF974E7F78DB802FE05E207504B03041400060808006A
311
4E22427B2DD54BA305000080100000340000006662782F34423536334331342D304243372D343442362D383333442D3234444538434541423738392F6F626A656374732E786D6CAD57DB6EDB3810FD1541FBB2FBE0BBDD260B45852F496114698B1A29F6C180414994C20D750149A5CE7EFD1E8A942C3976EA5DF4C5B2A8E1
311
70E6CC990BBD0FFB943BCF5448966737EEA83F741D9A8579C4B2E4C62D55DCBB729D0FBE27F25CB5C45C272329BD71F5B2EB7B89C8CBC22E453426255747AB778BBF1C19D28CBA4EC8899437AE0C1F694AFAA4547944E5533F228AF49378DF1FF58D60576D2248F178A4B42082660A96623D8316C71835EABE0EDD81EF0DF4
311
77DFD3BF566A725E6A50F9D33D9F6552912C7C75D8919AC968BABA1DCFAE7BB3E974D29BBE1B8F7A8BBBC5AA377A3F192EDF2D97D7F3DB6B1C2C9580266B89A0B1EB7F04368285DEC07CF2BD92656A32B622364003419F998E94EB8F9D913730328D77D6C953E6877996D1B0C20A6854FE59D5112D681621E68C4A58D64268
311
D87D1D691C5B9F27FADD1ED95EBE0C81F68E96A2DAF6FAD9B6340FFE860BF21206094935030D96D651C3D5E101E120CFB9FDC6A49312450523DCE12C1044BCB83E44B588EF75D468260B9D0DDA03D74714CCE72E5D90463FE7F9292BE392734D63D7AFB260875CA14A5696B17FA83858DF46063621569A0D57D621F55250D7
311
BF3614B93A629301D28939491072B8A9774EC6478E2E759EAE57AEFFE92ED86F74EE9E3EBC10794185D2F401B5EAC0D54F8D92B5697451E4F406F7C8940328DF80FC67A4FAC114C44DB0FD743FB5A728413219E722456C9CA1D31BE267E88CAA5FFDBFF5CF1B349BBBD13B872782ADA1FA0578767D68C7B205A7EF3D83F0B9
311
9858D73621E1281BF72C03409A240ECFB1843A1C077BD75FA3CAA12A6317E1FE082EC3DC67FCF506560D0A457552EB9901CBA3B2784181066C1523618621BF35F010A757E5AC3AD88A9D8377F64BE83A5F6D3E6D4A119390DEDB9C5ED198654CA1C51D78D336A88379C7A327FAF22317111C7D8DF7A68D776A8F92405B63AE
311
814FEA9AAE5F0E27770E08B12FC975B9F17E72029CD08DB5A5FF9EC990724E329A97F5B96FF60FB40D03B14E76CDE4A6C11C1A0B4863BE1CE5209A742858A1416CBA555334FB67BC7B587F062321CFF380F083507028BD61CE73B10B5E76A62A9D44FA7B97DA168281D602B6573952A7BFC57C17B1382E256AE00958BFAF97
311
EDD0E9AA800A516B35C93285FBC82D222C676BBD68D682A091E6D98EA16D22ED4E1ED0D60F442D012A85E72C9694C73BC67999EE62C6D18C762929CEC0F1FFED0FCAB4D891342F33754677C7743487AEED1DF2CA1F44858FAEBFA99EBD054A6F44A343983BC2BA959CC0AA13DAABDBC96C713B5FF426B3DB656F7A359BF616
311
B3F9B4B79ACF57B3F1ECF6EE7A38AEE36494FB5EDD69DA098D28A1B379A560367C0F6BA48FAD01AE7F4F94DC7E34D9593F1FD67D8CC2DE007BD02E9B8DF3E819631F8D7EAEE0207952D13A2D384D69A6884EA17BFD877F2318333AC698F5754A127A81962F1F3747CE60E5827D5F75BAD31F477BEDEA5227E44925EAB14C83
311
8C307EB4313148F68B2CB1F8D531699EA6CFD4AFFACD060683A9CC398B50062327A1794A158AE1053D48A454827AED913EB2578F0B763F9B01519180D3DA92478219994BA405A85586AABBEEFC86994E8F55372EBA6DFF093FB652B80E3873E36246572CA4B21FA03FEB49A8520E2EB50779CCFD244B38466DB3A9796F7669
311
6C3A1DB911B9647CB27E990A6E1D4019293036601E42742A637CAFB2CD7E0FFF93E3B5390E51F81B94AAF1E5B0D038531D8314354ED9CB026698277BF41E89FAB65BA37E25D341E4A24BD69B24305A7B8A88A4BA2868FBAC49F3D5D701061467FDC52978992096976BEA090A32973AC1C122B0C2EA2C880255977F6EBF8A1C
311
17D9D4B963A080F3FBFEEADD1FDB659EA6796696B6737B1D76368FB8DC465B1407AA6F25723B1E8EC6DBEA36602F28BB8048DA27917CC202222B58037427FCE0A5B932A20F990F8DDC4087E288A1EB95631BDB144A2D5DDAB5558383B923A30E7248DF2875C6B4058A372F04834A1426088CF2FEBF504B0304140006080000
311
6A4E2242000000000000000000000000350000006662782F34423536334331342D304243372D343442362D383333442D3234444538434541423738392F76657274696365732E62696E504B03041400060808006A4E2242F270F1330600000004000000360000006662782F34423536334331342D304243372D343442362D38
311
3333442D3234444538434541423738392F747269616E676C65732E62696E636660600000504B03041400060800006A4E2242000000000000000000000000370000006662782F34423536334331342D304243372D343442362D383333442D3234444538434541423738392F617474726962757465732E62696E504B03041400
311
060808006A4E2242D5987DFC8F00000041010000360000006662782F34423536334331342D304243372D343442362D383333442D3234444538434541423738392F6469726563746F72792E786D6C858F410EC2201045AF4266AF15DDB800BA74E7C21B903225242D6328188F2FA5C4183471359997F9FF81E89FF3C41E1816
311
475E02DF1F80A11FC8386F25A438EECEC07A250251FC3803E6F58C12560C4AD840E95E91C151A72936F496F35732D860FE635F62C8F2DA16B505C545B74125BAA2FA9E05D7CC053D063734D5C7665FD55B6B8D15D5E9BFEAFD8490FFA45E504B03041400060808006A4E22427C2E6C8CFD000000A00100003B000000666278
311
2F34423536334331342D304243372D343442362D383333442D3234444538434541423738392F7265736F75726365732F636F72652E786D6C8D504B6EC23010BD4A347B2776801022C728A470825EC072066A41ECC89FAAC7AF0DA9D4EEBA9919BD8FE6E9F1E3D7FC283ED1796D4D0FACA450A05176D2E6D6430C57D2427114
311
DC591B7EC9A03072C61E320C82DF9C8DCB0A296B029A905063275C41E93D0628D4231D3D78F581B32C650C49E1EFE522D55DDEB06465A2934E701F5C0A50BC9EE409C2A1B7D129F4BC7AB182C7A8A755A3A7F4535F353A10FB613BEECECD9E8CCD6543B6ED7920A791EDC9E5706ADA766C86B786F12A9B050F7AFEC9A81CCA
311
8013889AB20DA18CD0FA9D1EBA1DEB6A4A68D351CAAB2CFF638ACBF44F53D4266CEA35EECBE641E4204F42F02AF795D6B3CCB473B7E21B504B010214000A00000800006A4E22423DEE336E79000000790000001B00000000000000000000000000000000006175746F6465736B2D64657369676E2D7061636B6167652E786D
311
6C504B010214001400060808006A4E2242D486FD9CA0000000F40000001300000000000000000000000000B20000005B436F6E74656E745F54797065735D2E786D6C504B010214001400060808006A4E22428C4FF8FCEA0000007C010000080000000000000000000000000083010000636F72652E786D6C504B0102140014
311
00060808006A4E224255019EA25F0000007C000000070000000000000000000000000093020000636E782E786D6C504B010214001400060808006A4E2242970275E166010000020300000C00000000000000000000000000170300006662782F636F72652E786D6C504B010214001400060808006A4E22427DE9252F7E0000
311
009D0000000B00000000000000000000000000A70400006662782F636E782E786D6C504B010214001400060808006A4E224240BCE6CC2C0100001502000031000000000000000000000000004E0500006662782F34423536334331342D304243372D343442362D383333442D3234444538434541423738392F636F72652E78
311
6D6C504B010214001400060808006A4E224256E3D3EB4D010000330300003000000000000000000000000000C90600006662782F34423536334331342D304243372D343442362D383333442D3234444538434541423738392F636E782E786D6C504B010214001400060808006A4E22427B2DD54BA305000080100000340000
311
0000000000000000000000640800006662782F34423536334331342D304243372D343442362D383333442D3234444538434541423738392F6F626A656374732E786D6C504B010214001400060800006A4E22420000000000000000000000003500000000000000000000000000590E00006662782F34423536334331342D30
311
4243372D343442362D383333442D3234444538434541423738392F76657274696365732E62696E504B010214001400060808006A4E2242F270F13306000000040000003600000000000000000000000000AC0E00006662782F34423536334331342D304243372D343442362D383333442D3234444538434541423738392F74
311
7269616E676C65732E62696E504B010214001400060800006A4E22420000000000000000000000003700000000000000000000000000060F00006662782F34423536334331342D304243372D343442362D383333442D3234444538434541423738392F617474726962757465732E62696E504B010214001400060808006A4E
311
2242D5987DFC8F0000004101000036000000000000000000000000005B0F00006662782F34423536334331342D304243372D343442362D383333442D3234444538434541423738392F6469726563746F72792E786D6C504B010214001400060808006A4E22427C2E6C8CFD000000A00100003B000000000000000000000000
311
003E1000006662782F34423536334331342D304243372D343442362D383333442D3234444538434541423738392F7265736F75726365732F636F72652E786D6C504B0506000000000E000E0080040000941100000000
310
504B03040A00000800006A4E22423DEE336E79000000790000001B0000006175746F6465736B2D64657369676E2D7061636B6167652E786D6C3C3F786D6C2076657273696F6E3D22312E302220656E636F64696E673D227574662D3822203F3E3C666F726D6174733E3C666F726D61743E687474703A2F2F736368656D612E
310
6175746F6465736B2E636F6D2F64657369676E2D7061636B6167652F323030393C2F666F726D61743E3C2F666F726D6174733E504B03041400060808006A4E2242D486FD9CA0000000F4000000130000005B436F6E74656E745F54797065735D2E786D6C7D8EC10E82300C865F65E91D8A1E8C310C0EEA1BF002731658846E
310
D98AC1B77784ABF1D8FE5FBFBF75BBCE937A534CCEB38643598122B6FEE978D0B0485F9C41B54DDD7D022595594E1A469170414C76A4D9A4D207E29CF43ECE46F218070CC6BECC4078ACAA135ACF422C856C0E68EA1BF5669944DDD7BCDE7B1F8E415D77AECB980613C2E4AC91FC167A2B244592486606FC29C8FD7F045B9A
310
EF7053A7E60B504B03041400060808006A4E2242350182D4E90000007C01000008000000636F72652E786D6C8D90416EC3201045AF82668F0D38388E8589D2A83D412F80803828315806AA1EBF3871A476D7059AD1E7BF99D117C7EFE98EBEEC125DF003D08A00B25E07E3FC38404E17DC013A4AB184907ED9007935D90156
310
19A4189790E74DD2C127EB53517D307613558C3601D2F7D20C10F5D54EAA52391547BC55B3D23735DA8ABEBA02E7EC0C7A2E71A6CC7317671790E4BCDF95D7E073D73678C75A8EDFF89E617EF860DD89F18EBF9F44BDC2522437BDF6EBC5AA640D4846688309C5847D9243CF69CF08266D4F88A857FB1F28CFE69F50763E35
310
6C3BF7894590B41CF2F890A25EB328E51154A96B6EF207504B03041400060808006A4E224255019EA25F0000007C00000007000000636E782E786D6C4DCB3B0E80201045D1AD90E915ED2CF8AC45050C11660C8261F98AB1B07AC9C97D42D718D865D3E909258CFD00CCE24AC6E326A164D74DC0B4128928FF326038472BA1
310
3128B1252AC747C6BAB984FC68F0B87FE8960A5C09FE86CFB69FBA01504B03041400060808006A4E22424A334F6E64010000020300000C0000006662782F636F72652E786D6C8D52ED8E8320107C15C27F04B1F62B48D36BEE9EE05E802AF54C150C82E9E3DFFAD178BD344D635432B3B33B3B2A0EB7A646BD765D654D86E3
310
8861A44D6E8BCA94190EFE42B6181DA470D6FA3F651819D5E80C0F3096A27436B433945BE3B5F1801A5BE819545DA73D46790D870C77F98F6E54A482878AEE1AB52ABFAA5247710434D449D1790706D0346478627939DF049D702942A88A99AD0A98565D2AEDB064A7CD0AEE849CB6EB84ACF83A251FE9869374F7C5B7479E
310
6ED3CFA3A083580A5F357777B9D3CAEB024BCEE284B09830FECD76FB34DE7346D87ACF98A043F98328B4C59BA250199FF0D9EE24EBB08CC1C848FCDB1622F2A8533DF8A152D02144788D093F060D8140C85E9DEBFB1E57807A9D7BEB56C014362C54AFEAA0612A43E325E8C442E7B1016CF6B40F7FD1E7750FF880CA94604D
310
79389E831FA68B69EA1C45AB1DE9FD0D19EB1A552FE6268BCB7319F4549EDBDABA77D4745E95CE61D2E1EF95BF504B03041400060808006A4E2242256330277D0000009D0000000B0000006662782F636E782E786D6C4DCCD10A83201886E15B91FFDCA5E556821ADBC4FB886521990E9763973F1B1DECE883878F57F49FD5
310
A3B74D2F1783047A22806C78C4D1855942DE26DC01EA9548316E7F37406158AD849D418939C5FC3C68B4D390FD56D4BBB01CA879AB4973319833D361C69A3BEEE8B5C59A9A326772AB6B0E9512D5AF54760FAB2F504B03041400060808006A4E22421EB410472A01000015020000310000006662782F44393744303336462D
310
393446382D343433432D383141372D4431463141373530423232392F636F72652E786D6C8D51CB6EC32010FC15C4293D60835FB1234CD436CA17F40708900425068B4795CF2FD48ED4DE7261D1ECCCEC6897EE1FD31D7C2BE7B53523240586401961A5369711C670463D047B469DB5E10F0D02C32735C20C43462FCEC67985
310
84354199905063A55A41EEBD0A10887BFA8CD08BAB9A78C163480C7F2B662E6EFCA20A52A476E231EA834B01C03224BF901D86ED01D7DD110DCDB1474D537FA29EBC6FD1811C5369F147550DB45C848CC6A8E52AD732C5D167ADDCAB2659CC68D0D333BE708A072521AB30A9112608575F78D8B564576184BB1DC6B4CCF47F
310
A238CB1745519B50576BDC45E62123B45C1A8C4A1B4FF76718F598AD0B20CFDB7825DE20C305C6CDD0B675DFD272E1A60D24D3AE594D7DB02E6D78733B257ABD3A770DA3653E522ABF174C351F94FD00504B03041400060808006A4E224230441CFC5501000033030000300000006662782F44393744303336462D39344638
310
2D343433432D383141372D4431463141373530423232392F636E782E786D6CBD93C16EC32010447F0571B78D9DD44A234CA41EFA053DF44A6093D060B00057CDDF7749489A4B0E95AA5E90353BCCAC9E30DF7C8D967C4288C6BB81B635A3049CF2DAB8FD40E7B4AB56946C040FDEA73B1B254E8E30D02C53C1F7C1CF539134
310
ECE46C13AAD6B8631103443F070511E57C9358AFA4C50070D58C228C5BD01A34B919F16B07015741717B22E900E4F5E59DF8ED07A814799353046F7287E0F92C4D77264A9495310E34AA038CB29673F21AE2B1D632C9BAADAF5D0F76FA4922F9C2B5720E86E4F281E6938AB2518D1C798343C1630A48AF98D269022AE43459
310
A36442C8CDD978F1083E1B97FA65F11A041FD0BDE8FAD50AC3CE33C19319A1385400994053D1B17651B1B662DD1B7B5E3FB5EB8E55AC5F33C69B6C177CEBBD2D973006829F88F22E814B54B4BCC9E347F88A8F681390B50FA75F804400A5F542E796F1977CDA7EB15CFE239FE6FCBE1157C0BF407C03504B03041400060808
310
006A4E224270A92AB161070000991B0000340000006662782F44393744303336462D393446382D343433432D383141372D4431463141373530423232392F6F626A656374732E786D6CED595B73A33614FE2B0C7D691F8C4D6C6F930EA1E3D8C98E6727DB9DBABBD307CF3032C8448D108C2472E9AFEFD1050CC424B89BBEF5
310
C106847474CE77AE3A04BF3E65D479C05C909C5DBABE37711DCCE23C212CBD744BB91F9DBBCEAF61C0F35C36A6B90E4319BE74D5B01B0629CFCBC20E25788F4A2A3BA337577F3A22C60CBB4E4C911097AE88EF70863C54CA3CC1E2DE4B90445EBA7FF27CCF4C6C934D392AEE3A440BC43193C0298C33A0E218A6FCF6E3C41D
310
87C158BD0F03F56F674D07CD9AF5CF1A6BA9DB5C12262462F10B963A64A683589AFAB3D5F5D9FC62349FCDA6A3D987337F747573B51AF93F4F27CB0FCBE5C5E2FA02D8DBE539B53225B8C02C01FD3DBBA11F8CD59B5A748BC031AEE39C311C6B20012A2D569720C102B66AC037693FFA4AA2C66B2D61E379A6DE5B161AC3D3
310
3695BE59C38068D10541EC7695C4D5B5295FBEFB0B0417438C920B2C815B213968D7C2C3C12BDC70128CCD6818EC0EBA20C2C990C49C20EA50B2E388835260AA9A1206668125A39C8303294749A035675EB76D0B3CF36DD739C6E5BEA45479861B6AC78AC0FDB0149A33F237E607EE9BC8004F206D49983CB75CCAE702BBE1
310
4530D68361A02ED333FBD200E9EC294A8546C4BCED08BA54AEBF5EB9E1A79BDDD3468583E39B173C2F3097CAE8941E355F60C8F6AA50B2DBFA8334A71680300654BBF200CAEF80FC67881E0756406F9C3CCD9E6676AEE488897DCE33D08D33714613F89B38BEFE57F78DBB605C2F6E6BAF0F4F705305D5F9F7E3D996416365
310
F96FC019060F60F0399FDA579B1851B0E75BC2002065240ECD610842FB7EF7E4866B089C10E86115A2A10F2203BB0F701B8C2D9983562AF7B25EC70051BBC774889200366D91C0468F9E3E42F6E0243EA8A929621FBCF37731D7C56AF36953F23D8AF1ADF5E915DE13462464CDE30CB5306F49748F9F1F739E80A02FF1DE34
310
F1CEEC5602D056982BE0D30A04F570D8B9B5410CEBD25C859BE08D1D400895AB1BF46F898831A588E1BCACF6ADA39B32D4DAE36DCDE0866706E2E959C784397E20AAAA00A739CC68310A793FE6A45020BAE14723591D34BD1EE9BEAE3F8345D6F37B66AD19845E86E81F3A681DC1A165D915D216885AE0DD219CC739CD79B4
310
7B8E4CA473A1960036DADEF2AD451462BD5192A2021EA4FDAE0A29A991364AC87E5F0A88AB4758FCB65E36CD61E24DFDB9D3FCEF38E30CA22DF82EE2D6EF3A7B442443298EF628E9DBAEB95B4D5B68923DA439DE53908B3C10F91C21194D129C9E02CD49C42FDE957A4A732108C302F2D551F09B684C3C0824469B15CB4AAB
310
1DA08988322C113D050145A6075C9D76748D1B43E9F0368FB5F5BEA6B126D1FFC82238825A32671181521472C89B8CFBDE1C62481B5D8372075FB0B68AB61683965042C4CFD12326E99D3C057543BE07F7188E24A58CF202C560D603C8BEF015A5D40EEF3B14DFABFC11C5257D2F031198EE2342699945F0230C4E1E435CBB
310
0E4CAFA2D0206E629FC419146548967CC8261FE69317FB989AA11B021B1BED0985B01D65A8E841BD1510753DE2D4E05BEA3D4ADD955911A12C2FD92043F1A65D6FB2E4BB6A556407F2AB4A45281B2BC29660181026EBAC5AC56C30751D58C18D74A07A8E04CA0A6A4E616F241EBFF6264DB977036EFDF47D37C8A0F0EBD15E
310
33A2CE2A182C8FADC2403C2219DFB9E1465F4757507F273839A4FAAAD66C568080988AE4252756455FD750DED81ACD0D6F9114DB8F26EB56D7AF6B0FBA1FC118D640ED522F5C2BA033CC245295C9ADBAA1BF2308C12D1A667CAD72EA29541649A2AB46446F489F3A5B65446BD38C78C51D6679063FB6252CA66582B72811F7
310
D1ADA4D18628D6AD945E462A8C5F15F0B78F9B0E3C303240A42FAAC0C38F9DB57674A9CAA5A344E45D99ED182210045BA2A546375EC152AB914ACBF5559D29A0EE0203B32A9EFD7FB268B623FE3F59A4D630BEEF6441F31DA28768D3C8E6B132EB934E01757A5254DEE314A0BB0E35D53A89985C6EC5B7BE14414CAC82FCE0
310
62AC8A1986601FC7FF3A69F72541B35D87FFD392B6FFA2E03829A9B426AB26D591C275DD4C61E7D7D3F9D5F5E26A349D5F2F47B3F3F96C74355FCC46ABC562353F9B5FDF5C4CEA4C6C8887411DCB74EA826713D3AA61F5643180A6ACC82949E0309F382986902FE1483FA07BCE332C2077367BDD89EDC90F58FD60DA9C12ED
310
28AE38B943D01FA602B23A8851C6B23DEEFC009D4909E7EC4B177A46DE3DFC59AB741D483C972E740A2489B1F076D06552FD3C4D1C32AE4EFD9618C431C4529511CDA2FAB95EA5B06945FF7ACA902C60E56AB530A06E2BA0F9D56A5068DE2C4FF1498257EC3848C2EDAE9450AC19590E03B5307A9B83FA8D6C94B07BBBF513
310
B8EEEB62F99E9ED34264D01783578DC0501D49C453DDEE568C599616AB2F6368B339EBDF9C829629E87238A511C760CCA5AAA7C08AC02A2CCD024930D5E52FDB2F3C872F3C99A38B22E7C7A7F30F3F6D977996E5CC0C6D1770284BE03B91B3B983AF3EC9166A07AC7AEB627B36F1CFB6BAA76DDBECD10E09ECA9A20806AA5A
310
4209D23139B0CB17FD29DBBD1C2B5574A6AF578E0DA2D00B3076F4A2C56BBE7139E043EA6B8AF218EDE795B4AFB6B5C77A2AD804878674F80F504B03041400060800006A4E2242000000000000000000000000350000006662782F44393744303336462D393446382D343433432D383141372D443146314137353042323239
310
2F76657274696365732E62696E504B03041400060808006A4E2242F270F1330600000004000000360000006662782F44393744303336462D393446382D343433432D383141372D4431463141373530423232392F747269616E676C65732E62696E636660600000504B03041400060800006A4E224200000000000000000000
310
0000370000006662782F44393744303336462D393446382D343433432D383141372D4431463141373530423232392F617474726962757465732E62696E504B03041400060808006A4E2242D5987DFC8F00000041010000360000006662782F44393744303336462D393446382D343433432D383141372D4431463141373530
310
423232392F6469726563746F72792E786D6C858F410EC2201045AF4266AF15DDB800BA74E7C21B903225242D6328188F2FA5C4183471359997F9FF81E89FF3C41E1816475E02DF1F80A11FC8386F25A438EECEC07A250251FC3803E6F58C12560C4AD840E95E91C151A72936F496F35732D860FE635F62C8F2DA16B505C545
310
B74125BAA2FA9E05D7CC053D063734D5C7665FD55B6B8D15D5E9BFEAFD8490FFA45E504B03041400060808006A4E224226AAAC4CFB000000A00100003B0000006662782F44393744303336462D393446382D343433432D383141372D4431463141373530423232392F7265736F75726365732F636F72652E786D6C8D504B6E
310
833010BD0A9ABDC1989810641CA5517B825EC032136A25D8C89FAAC7AF09546A775DD8337A1FCDD313E7AFF9517CA20FC6D901EA92428156BBD1D86980146FA483E22C85772EFE924161D58C03AC3048317997961DD2CE46B431A3D68DB8832A048C50E8475E0608FA036755AA14B322DCCB45E9BB9AB0ACCB4C679D1421FA
310
1CA0D88EAC3F488FC125AF31886A63A548C98CBBC68CF9A6B919F420E9F578C88F916BD736E4C05A4E5EF891117E7A63DD85F18EBF5E44B59AA58866FEC9A83DAA88234846EB86D09A50F64E4F3DAF7B46096D7B4A45B5CAFF98D232FED3948C8D0DDBE36EB600B2CE419E8414D5DA571ECF32F35CBB95DF504B010214000A
310
00000800006A4E22423DEE336E79000000790000001B00000000000000000000000000000000006175746F6465736B2D64657369676E2D7061636B6167652E786D6C504B010214001400060808006A4E2242D486FD9CA0000000F40000001300000000000000000000000000B20000005B436F6E74656E745F54797065735D
310
2E786D6C504B010214001400060808006A4E2242350182D4E90000007C010000080000000000000000000000000083010000636F72652E786D6C504B010214001400060808006A4E224255019EA25F0000007C000000070000000000000000000000000092020000636E782E786D6C504B010214001400060808006A4E2242
310
4A334F6E64010000020300000C00000000000000000000000000160300006662782F636F72652E786D6C504B010214001400060808006A4E2242256330277D0000009D0000000B00000000000000000000000000A40400006662782F636E782E786D6C504B010214001400060808006A4E22421EB410472A01000015020000
310
31000000000000000000000000004A0500006662782F44393744303336462D393446382D343433432D383141372D4431463141373530423232392F636F72652E786D6C504B010214001400060808006A4E224230441CFC55010000330300003000000000000000000000000000C30600006662782F44393744303336462D39
310
3446382D343433432D383141372D4431463141373530423232392F636E782E786D6C504B010214001400060808006A4E224270A92AB161070000991B00003400000000000000000000000000660800006662782F44393744303336462D393446382D343433432D383141372D4431463141373530423232392F6F626A656374
310
732E786D6C504B010214001400060800006A4E22420000000000000000000000003500000000000000000000000000191000006662782F44393744303336462D393446382D343433432D383141372D4431463141373530423232392F76657274696365732E62696E504B010214001400060808006A4E2242F270F133060000
310
000400000036000000000000000000000000006C1000006662782F44393744303336462D393446382D343433432D383141372D4431463141373530423232392F747269616E676C65732E62696E504B010214001400060800006A4E22420000000000000000000000003700000000000000000000000000C61000006662782F
310
44393744303336462D393446382D343433432D383141372D4431463141373530423232392F617474726962757465732E62696E504B010214001400060808006A4E2242D5987DFC8F0000004101000036000000000000000000000000001B1100006662782F44393744303336462D393446382D343433432D383141372D4431
310
463141373530423232392F6469726563746F72792E786D6C504B010214001400060808006A4E224226AAAC4CFB000000A00100003B00000000000000000000000000FE1100006662782F44393744303336462D393446382D343433432D383141372D4431463141373530423232392F7265736F75726365732F636F72652E78
310
6D6C504B0506000000000E000E0080040000521300000000
  0
XRECORD
  5
27
102
{ACAD_REACTORS
330
22
102
}
330
22
100
AcDbXrecord
280
     1
270
     1
271
     1
  0
XRECORD
  5
26
102
{ACAD_REACTORS
330
22
102
}
330
22
100
AcDbXrecord
280
     1
270
     1
271
     1
  0
XRECORD
  5
28
102
{ACAD_REACTORS
330
22
102
}
330
22
100
AcDbXrecord
280
     1
270
     1
271
     1
  0
XRECORD
  5
25
102
{ACAD_REACTORS
330
22
102
}
330
22
100
AcDbXrecord
280
     1
270
     1
271
     1
  0
XRECORD
  5
1499
102
{ACAD_REACTORS
330
1498
102
}
330
1498
100
AcDbXrecord
280
     1
102
ACAD_ROUNDTRIP_2012_MLEADER_STYLE
298
     1
  0
CELLSTYLEMAP
  5
1497
102
{ACAD_REACTORS
330
1496
102
}
330
1496
100
AcDbCellStyleMap
 90
        3
300
CELLSTYLE
  1
TABLEFORMAT_BEGIN
 90
        5
170
     1
 91
        0
 92
    32768
 62
   257
 93
        1
300
CONTENTFORMAT
  1
CONTENTFORMAT_BEGIN
 90
        0
 91
        0
 92
      512
 93
        0
300

 40
0.0
140
1.0
 94
        5
 62
     0
340
55
144
0.25
309
CONTENTFORMAT_END
171
     0
 94
        0
309
TABLEFORMAT_END
  1
CELLSTYLE_BEGIN
 90
        1
 91
        1
300
_TITLE
309
CELLSTYLE_END
300
CELLSTYLE
  1
TABLEFORMAT_BEGIN
 90
        5
170
     1
 91
        0
 92
        0
 62
   257
 93
        1
300
CONTENTFORMAT
  1
CONTENTFORMAT_BEGIN
 90
        0
 91
        0
 92
      512
 93
        0
300

 40
0.0
140
1.0
 94
        5
 62
     0
340
55
144
0.18
309
CONTENTFORMAT_END
171
     0
 94
        0
309
TABLEFORMAT_END
  1
CELLSTYLE_BEGIN
 90
        2
 91
        1
300
_HEADER
309
CELLSTYLE_END
300
CELLSTYLE
  1
TABLEFORMAT_BEGIN
 90
        5
170
     1
 91
        0
 92
        0
 62
   257
 93
        1
300
CONTENTFORMAT
  1
CONTENTFORMAT_BEGIN
 90
        0
 91
        0
 92
      512
 93
        0
300

 40
0.0
140
1.0
 94
        2
 62
     0
340
55
144
0.18
309
CONTENTFORMAT_END
171
     0
 94
        0
309
TABLEFORMAT_END
  1
CELLSTYLE_BEGIN
 90
        3
 91
        2
300
_DATA
309
CELLSTYLE_END
  0
ENDSEC
  0
EOF
