  0
SECTION
  2
HEADER
  9
$ACADVER
  1
AC1024
  9
$ACADMAINTVER
 70
    63
  9
$DWGCODEPAGE
  3
ANSI_1252
  9
$AUTHOR
  1
KA
  9
$REVISIONNUMBER
  1
-
  9
$CUSTOMPROPERTYTAG
  1
Manager
  9
$CUSTOMPROPERTY
  1

  9
$CUSTOMPROPERTYTAG
  1
Company
  9
$CUSTOMPROPERTY
  1

  9
$CUSTOMPROPERTYTAG
  1
Category
  9
$CUSTOMPROPERTY
  1

  9
$CUSTOMPROPERTYTAG
  1
Part Number
  9
$CUSTOMPROPERTY
  1
SSJWN446-S
  9
$CUSTOMPROPERTYTAG
  1
Description
  9
$CUSTOMPROPERTY
  1

  9
$CUSTOMPROPERTYTAG
  1
Project
  9
$CUSTOMPROPERTY
  1

  9
$CUSTOMPROPERTYTAG
  1
Designer
  9
$CUSTOMPROPERTY
  1
KA
  9
$CUSTOMPROPERTYTAG
  1
Engineer
  9
$CUSTOMPROPERTY
  1

  9
$CUSTOMPROPERTYTAG
  1
Authority
  9
$CUSTOMPROPERTY
  1

  9
$CUSTOMPROPERTYTAG
  1
Cost Center
  9
$CUSTOMPROPERTY
  1

  9
$CUSTOMPROPERTYTAG
  1
Vendor
  9
$CUSTOMPROPERTY
  1

  9
$CUSTOMPROPERTYTAG
  1
User Status
  9
$CUSTOMPROPERTY
  1

  9
$CUSTOMPROPERTYTAG
  1
Design Status
  9
$CUSTOMPROPERTY
  1
WorkInProgress
  9
$CUSTOMPROPERTYTAG
  1
Checked by
  9
$CUSTOMPROPERTY
  1
JW
  9
$CUSTOMPROPERTYTAG
  1
Date Checked
  9
$CUSTOMPROPERTY
  1
10/29/2012
  9
$CUSTOMPROPERTYTAG
  1
Engr Approved by
  9
$CUSTOMPROPERTY
  1

  9
$CUSTOMPROPERTYTAG
  1
Date Eng Approved
  9
$CUSTOMPROPERTY
  1
10/29/2012
  9
$CUSTOMPROPERTYTAG
  1
Mfg Approved by
  9
$CUSTOMPROPERTY
  1

  9
$CUSTOMPROPERTYTAG
  1
Date Mfg Approved
  9
$CUSTOMPROPERTY
  1
10/29/2012
  9
$CUSTOMPROPERTYTAG
  1
DWG. NO
  9
$CUSTOMPROPERTY
  1

  9
$CUSTOMPROPERTYTAG
  1
NUMBER OF SHEETS
  9
$CUSTOMPROPERTY
  1
1
  9
$CUSTOMPROPERTYTAG
  1
DRAWING #
  9
$CUSTOMPROPERTY
  1

  9
$INSBASE
 10
0.0
 20
0.0
 30
0.0
  9
$EXTMIN
 10
0.0
 20
0.0
 30
0.0
  9
$EXTMAX
 10
45.33333333333333
 20
29.33333333333333
 30
0.0
  9
$LIMMIN
 10
0.0
 20
0.0
  9
$LIMMAX
 10
45.33333333333333
 20
29.33333333333333
  9
$ORTHOMODE
 70
     0
  9
$REGENMODE
 70
     1
  9
$FILLMODE
 70
     1
  9
$QTEXTMODE
 70
     0
  9
$MIRRTEXT
 70
     0
  9
$LTSCALE
 40
2.666666666666666
  9
$ATTMODE
 70
     1
  9
$TEXTSIZE
 40
0.2
  9
$TRACEWID
 40
0.05
  9
$TEXTSTYLE
  7
Standard
  9
$CLAYER
  8
0
  9
$CELTYPE
  6
ByLayer
  9
$CECOLOR
 62
   256
  9
$CELTSCALE
 40
1.0
  9
$DISPSILH
 70
     0
  9
$DIMSCALE
 40
1.0
  9
$DIMASZ
 40
0.0708661417322835
  9
$DIMEXO
 40
0.0625
  9
$DIMDLI
 40
0.38
  9
$DIMRND
 40
0.0
  9
$DIMDLE
 40
0.0
  9
$DIMEXE
 40
0.18
  9
$DIMTP
 40
0.0
  9
$DIMTM
 40
0.0
  9
$DIMTXT
 40
0.0708661417322835
  9
$DIMCEN
 40
0.09
  9
$DIMTSZ
 40
0.0
  9
$DIMTOL
 70
     0
  9
$DIMLIM
 70
     0
  9
$DIMTIH
 70
     1
  9
$DIMTOH
 70
     1
  9
$DIMSE1
 70
     0
  9
$DIMSE2
 70
     0
  9
$DIMTAD
 70
     0
  9
$DIMZIN
 70
     0
  9
$DIMBLK
  1

  9
$DIMASO
 70
     1
  9
$DIMSHO
 70
     1
  9
$DIMPOST
  1

  9
$DIMAPOST
  1

  9
$DIMALT
 70
     0
  9
$DIMALTD
 70
     2
  9
$DIMALTF
 40
25.4
  9
$DIMLFAC
 40
1.0
  9
$DIMTOFL
 70
     0
  9
$DIMTVP
 40
0.0
  9
$DIMTIX
 70
     0
  9
$DIMSOXD
 70
     0
  9
$DIMSAH
 70
     0
  9
$DIMBLK1
  1

  9
$DIMBLK2
  1

  9
$DIMSTYLE
  2
Standard
  9
$DIMCLRD
 70
     0
  9
$DIMCLRE
 70
     0
  9
$DIMCLRT
 70
     0
  9
$DIMTFAC
 40
1.0
  9
$DIMGAP
 40
0.09
  9
$DIMJUST
 70
     0
  9
$DIMSD1
 70
     0
  9
$DIMSD2
 70
     0
  9
$DIMTOLJ
 70
     1
  9
$DIMTZIN
 70
     0
  9
$DIMALTZ
 70
     0
  9
$DIMALTTZ
 70
     0
  9
$DIMUPT
 70
     0
  9
$DIMDEC
 70
     4
  9
$DIMTDEC
 70
     4
  9
$DIMALTU
 70
     2
  9
$DIMALTTD
 70
     2
  9
$DIMTXSTY
  7
Standard
  9
$DIMAUNIT
 70
     0
  9
$DIMADEC
 70
     0
  9
$DIMALTRND
 40
0.0
  9
$DIMAZIN
 70
     0
  9
$DIMDSEP
 70
    46
  9
$DIMATFIT
 70
     3
  9
$DIMFRAC
 70
     0
  9
$DIMLDRBLK
  1

  9
$DIMLUNIT
 70
     2
  9
$DIMLWD
 70
    -2
  9
$DIMLWE
 70
    -2
  9
$DIMTMOVE
 70
     0
  9
$DIMFXL
 40
1.0
  9
$DIMFXLON
 70
     0
  9
$DIMJOGANG
 40
0.7853981633974483
  9
$DIMTFILL
 70
     0
  9
$DIMTFILLCLR
 70
     0
  9
$DIMARCSYM
 70
     0
  9
$DIMLTYPE
  6

  9
$DIMLTEX1
  6

  9
$DIMLTEX2
  6

  9
$DIMTXTDIRECTION
 70
     0
  9
$LUNITS
 70
     2
  9
$LUPREC
 70
     4
  9
$SKETCHINC
 40
0.1
  9
$FILLETRAD
 40
0.0
  9
$AUNITS
 70
     0
  9
$AUPREC
 70
     0
  9
$MENU
  1
.
  9
$ELEVATION
 40
0.0
  9
$PELEVATION
 40
0.0
  9
$THICKNESS
 40
0.0
  9
$LIMCHECK
 70
     0
  9
$CHAMFERA
 40
0.0
  9
$CHAMFERB
 40
0.0
  9
$CHAMFERC
 40
0.0
  9
$CHAMFERD
 40
0.0
  9
$SKPOLY
 70
     0
  9
$TDCREATE
 40
2456295.413587465
  9
$TDUCREATE
 40
2456295.663587466
  9
$TDUPDATE
 40
2456295.413587477
  9
$TDUUPDATE
 40
2456295.663587477
  9
$TDINDWG
 40
0.0000294444
  9
$TDUSRTIMER
 40
0.0000294444
  9
$USRTIMER
 70
     1
  9
$ANGBASE
 50
0.0
  9
$ANGDIR
 70
     0
  9
$PDMODE
 70
     0
  9
$PDSIZE
 40
0.0
  9
$PLINEWID
 40
0.0
  9
$SPLFRAME
 70
     0
  9
$SPLINETYPE
 70
     6
  9
$SPLINESEGS
 70
     8
  9
$HANDSEED
  5
12D2
  9
$SURFTAB1
 70
     6
  9
$SURFTAB2
 70
     6
  9
$SURFTYPE
 70
     6
  9
$SURFU
 70
     6
  9
$SURFV
 70
     6
  9
$UCSBASE
  2

  9
$UCSNAME
  2

  9
$UCSORG
 10
0.0
 20
0.0
 30
0.0
  9
$UCSXDIR
 10
1.0
 20
0.0
 30
0.0
  9
$UCSYDIR
 10
0.0
 20
1.0
 30
0.0
  9
$UCSORTHOREF
  2

  9
$UCSORTHOVIEW
 70
     0
  9
$UCSORGTOP
 10
0.0
 20
0.0
 30
0.0
  9
$UCSORGBOTTOM
 10
0.0
 20
0.0
 30
0.0
  9
$UCSORGLEFT
 10
0.0
 20
0.0
 30
0.0
  9
$UCSORGRIGHT
 10
0.0
 20
0.0
 30
0.0
  9
$UCSORGFRONT
 10
0.0
 20
0.0
 30
0.0
  9
$UCSORGBACK
 10
0.0
 20
0.0
 30
0.0
  9
$PUCSBASE
  2

  9
$PUCSNAME
  2

  9
$PUCSORG
 10
0.0
 20
0.0
 30
0.0
  9
$PUCSXDIR
 10
1.0
 20
0.0
 30
0.0
  9
$PUCSYDIR
 10
0.0
 20
1.0
 30
0.0
  9
$PUCSORTHOREF
  2

  9
$PUCSORTHOVIEW
 70
     0
  9
$PUCSORGTOP
 10
0.0
 20
0.0
 30
0.0
  9
$PUCSORGBOTTOM
 10
0.0
 20
0.0
 30
0.0
  9
$PUCSORGLEFT
 10
0.0
 20
0.0
 30
0.0
  9
$PUCSORGRIGHT
 10
0.0
 20
0.0
 30
0.0
  9
$PUCSORGFRONT
 10
0.0
 20
0.0
 30
0.0
  9
$PUCSORGBACK
 10
0.0
 20
0.0
 30
0.0
  9
$USERI1
 70
     0
  9
$USERI2
 70
     0
  9
$USERI3
 70
     0
  9
$USERI4
 70
     0
  9
$USERI5
 70
     0
  9
$USERR1
 40
0.0
  9
$USERR2
 40
0.0
  9
$USERR3
 40
0.0
  9
$USERR4
 40
0.0
  9
$USERR5
 40
0.0
  9
$WORLDVIEW
 70
     1
  9
$SHADEDGE
 70
     3
  9
$SHADEDIF
 70
    70
  9
$TILEMODE
 70
     1
  9
$MAXACTVP
 70
    64
  9
$PINSBASE
 10
0.0
 20
0.0
 30
0.0
  9
$PLIMCHECK
 70
     0
  9
$PEXTMIN
 10
0.0
 20
0.0
 30
0.0
  9
$PEXTMAX
 10
45.33333333333333
 20
29.33333333333333
 30
0.0
  9
$PLIMMIN
 10
0.0
 20
0.0
  9
$PLIMMAX
 10
45.33333333333333
 20
29.33333333333333
  9
$UNITMODE
 70
     0
  9
$VISRETAIN
 70
     1
  9
$PLINEGEN
 70
     0
  9
$PSLTSCALE
 70
     1
  9
$TREEDEPTH
 70
  3020
  9
$CMLSTYLE
  2
Standard
  9
$CMLJUST
 70
     0
  9
$CMLSCALE
 40
1.0
  9
$PROXYGRAPHICS
 70
     1
  9
$MEASUREMENT
 70
     0
  9
$CELWEIGHT
370
    -1
  9
$ENDCAPS
280
     0
  9
$JOINSTYLE
280
     0
  9
$LWDISPLAY
290
     0
  9
$INSUNITS
 70
     1
  9
$HYPERLINKBASE
  1

  9
$STYLESHEET
  1

  9
$XEDIT
290
     1
  9
$CEPSNTYPE
380
     0
  9
$PSTYLEMODE
290
     1
  9
$FINGERPRINTGUID
  2
{7EA9A3D8-2A51-4536-862D-A559D0139E62}
  9
$VERSIONGUID
  2
{4AC60B86-BA76-4293-A0A2-328C8C106A65}
  9
$EXTNAMES
290
     1
  9
$PSVPSCALE
 40
0.0
  9
$OLESTARTUP
290
     0
  9
$SORTENTS
280
   127
  9
$INDEXCTL
280
     0
  9
$HIDETEXT
280
     1
  9
$XCLIPFRAME
280
     2
  9
$HALOGAP
280
     0
  9
$OBSCOLOR
 70
   257
  9
$OBSLTYPE
280
     0
  9
$INTERSECTIONDISPLAY
280
     0
  9
$INTERSECTIONCOLOR
 70
   257
  9
$DIMASSOC
280
     1
  9
$PROJECTNAME
  1

  9
$CAMERADISPLAY
290
     0
  9
$LENSLENGTH
 40
50.0
  9
$CAMERAHEIGHT
 40
0.0
  9
$STEPSPERSEC
 40
2.0
  9
$STEPSIZE
 40
6.0
  9
$3DDWFPREC
 40
2.0
  9
$PSOLWIDTH
 40
0.25
  9
$PSOLHEIGHT
 40
4.0
  9
$LOFTANG1
 40
1.570796326794896
  9
$LOFTANG2
 40
1.570796326794896
  9
$LOFTMAG1
 40
0.0
  9
$LOFTMAG2
 40
0.0
  9
$LOFTPARAM
 70
     7
  9
$LOFTNORMALS
280
     1
  9
$LATITUDE
 40
37.795
  9
$LONGITUDE
 40
-122.394
  9
$NORTHDIRECTION
 40
0.0
  9
$TIMEZONE
 70
 -8000
  9
$LIGHTGLYPHDISPLAY
280
     1
  9
$TILEMODELIGHTSYNCH
280
     1
  9
$CMATERIAL
347
11
  9
$SOLIDHIST
280
     0
  9
$SHOWHIST
280
     1
  9
$DWFFRAME
280
     2
  9
$DGNFRAME
280
     0
  9
$REALWORLDSCALE
290
     1
  9
$INTERFERECOLOR
 62
     1
  9
$INTERFEREOBJVS
345
33
  9
$INTERFEREVPVS
346
30
  9
$CSHADOW
280
     0
  9
$SHADOWPLANELOCATION
 40
0.0
  0
ENDSEC
  0
SECTION
  2
CLASSES
  0
CLASS
  1
ACDBDICTIONARYWDFLT
  2
AcDbDictionaryWithDefault
  3
ObjectDBX Classes
 90
        0
 91
        1
280
     0
281
     0
  0
CLASS
  1
MATERIAL
  2
AcDbMaterial
  3
ObjectDBX Classes
 90
     1153
 91
        3
280
     0
281
     0
  0
CLASS
  1
VISUALSTYLE
  2
AcDbVisualStyle
  3
ObjectDBX Classes
 90
     4095
 91
       24
280
     0
281
     0
  0
CLASS
  1
SCALE
  2
AcDbScale
  3
ObjectDBX Classes
 90
     1153
 91
       17
280
     0
281
     0
  0
CLASS
  1
TABLESTYLE
  2
AcDbTableStyle
  3
ObjectDBX Classes
 90
     4095
 91
        1
280
     0
281
     0
  0
CLASS
  1
MLEADERSTYLE
  2
AcDbMLeaderStyle
  3
ACDB_MLEADERSTYLE_CLASS
 90
     4095
 91
        1
280
     0
281
     0
  0
CLASS
  1
DICTIONARYVAR
  2
AcDbDictionaryVar
  3
ObjectDBX Classes
 90
        0
 91
        3
280
     0
281
     0
  0
CLASS
  1
CELLSTYLEMAP
  2
AcDbCellStyleMap
  3
ObjectDBX Classes
 90
     1152
 91
        1
280
     0
281
     0
  0
ENDSEC
  0
SECTION
  2
TABLES
  0
TABLE
  2
VPORT
  5
8
330
0
100
AcDbSymbolTable
 70
     1
  0
VPORT
  5
57
330
8
100
AcDbSymbolTableRecord
100
AcDbViewportTableRecord
  2
*Active
 70
     0
 10
0.0
 20
0.0
 11
1.0
 21
1.0
 12
22.66666666666667
 22
14.66666666666666
 13
0.0
 23
0.0
 14
1.0
 24
1.0
 15
0.0
 25
0.0
 16
0.0
 26
0.0
 36
1.0
 17
0.0
 27
0.0
 37
0.0
 40
29.33333333333333
 41
1.545454545454545
 42
50.0
 43
0.0
 44
0.0
 50
0.0
 51
0.0
 71
     0
 72
   100
 73
     1
 74
     1
 75
     0
 76
     0
 77
     0
 78
     0
281
     0
 65
     1
110
0.0
120
0.0
130
0.0
111
1.0
121
0.0
131
0.0
112
0.0
122
1.0
132
0.0
 79
     0
146
0.0
 60
     3
 61
     5
292
     1
282
     1
141
0.0
142
0.0
 63
   250
421
  3355443
  0
ENDTAB
  0
TABLE
  2
LTYPE
  5
5
330
0
100
AcDbSymbolTable
 70
    59
  0
LTYPE
  5
5B
330
5
100
AcDbSymbolTableRecord
100
AcDbLinetypeTableRecord
  2
ByBlock
 70
     0
  3

 72
    65
 73
     0
 40
0.0
  0
LTYPE
  5
5C
330
5
100
AcDbSymbolTableRecord
100
AcDbLinetypeTableRecord
  2
ByLayer
 70
     0
  3

 72
    65
 73
     0
 40
0.0
  0
LTYPE
  5
5D
330
5
100
AcDbSymbolTableRecord
100
AcDbLinetypeTableRecord
  2
Continuous
 70
     0
  3
Solid line
 72
    65
 73
     0
 40
0.0
  0
LTYPE
  5
7C
330
5
100
AcDbSymbolTableRecord
100
AcDbLinetypeTableRecord
  2
BY_STANDARD
 70
     0
  3
By Standard ____________    ____    ____   _
 72
    65
 73
     6
 40
1.240299999999999
 49
0.6614
 74
     0
 49
-0.0827
 74
     0
 49
0.1654
 74
     0
 49
-0.0827
 74
     0
 49
0.1654
 74
     0
 49
-0.0827
 74
     0
  0
LTYPE
  5
7D
330
5
100
AcDbSymbolTableRecord
100
AcDbLinetypeTableRecord
  2
CHAIN
 70
     0
  3
Chain ____ _ ____ _ ____ _ ____ _ ____ _ ____
 72
    65
 73
     4
 40
0.7087
 49
0.4724000000000001
 74
     0
 49
-0.0591
 74
     0
 49
0.1181
 74
     0
 49
-0.0591
 74
     0
  0
LTYPE
  5
7E
330
5
100
AcDbSymbolTableRecord
100
AcDbLinetypeTableRecord
  2
DASH_DOT
 70
     0
  3
Dash dot __ . __ . __ . __ . __ . __ . __ . __
 72
    65
 73
     4
 40
0.37
 49
0.24
 74
     0
 49
-0.06
 74
     0
 49
0.01
 74
     0
 49
-0.06
 74
     0
  0
LTYPE
  5
7F
330
5
100
AcDbSymbolTableRecord
100
AcDbLinetypeTableRecord
  2
DOUBLE_DASH_DOT
 70
     0
  3
Double-Dash Dot __ __ . __ __ . __ __ . __ _
 72
    65
 73
     6
 40
0.4398
 49
0.24
 74
     0
 49
-0.06
 74
     0
 49
0.0098
 74
     0
 49
-0.06
 74
     0
 49
0.01
 74
     0
 49
-0.06
 74
     0
  0
LTYPE
  5
80
330
5
100
AcDbSymbolTableRecord
100
AcDbLinetypeTableRecord
  2
DASH_TRIPLE_DOT
 70
     0
  3
Dash Triple-Dot _ . . . _ . . . _ . . . _
 72
    65
 73
     8
 40
0.51
 49
0.24
 74
     0
 49
-0.06
 74
     0
 49
0.01
 74
     0
 49
-0.06
 74
     0
 49
0.01
 74
     0
 49
-0.06
 74
     0
 49
0.01
 74
     0
 49
-0.06
 74
     0
  0
LTYPE
  5
81
330
5
100
AcDbSymbolTableRecord
100
AcDbLinetypeTableRecord
  2
DASHED
 70
     0
  3
Dashed __ __ __ __ __ __ __ __ __ __ __ __ __ _
 72
    65
 73
     2
 40
0.2067
 49
0.1654
 74
     0
 49
-0.0413
 74
     0
  0
LTYPE
  5
82
330
5
100
AcDbSymbolTableRecord
100
AcDbLinetypeTableRecord
  2
DASH_DOUBLE_DOT
 70
     0
  3
Dash Double-Dot __ . . __ . . __ . . __ . .
 72
    65
 73
     6
 40
0.4398
 49
0.24
 74
     0
 49
-0.06
 74
     0
 49
0.0098
 74
     0
 49
-0.06
 74
     0
 49
0.01
 74
     0
 49
-0.06
 74
     0
  0
LTYPE
  5
83
330
5
100
AcDbSymbolTableRecord
100
AcDbLinetypeTableRecord
  2
DASHED_SPACE
 70
     0
  3
Dashed Space __ __ __ __ __ __ __ __ __ __ __ _
 72
    65
 73
     2
 40
0.2067
 49
0.1654
 74
     0
 49
-0.0413
 74
     0
  0
LTYPE
  5
84
330
5
100
AcDbSymbolTableRecord
100
AcDbLinetypeTableRecord
  2
DOTTED
 70
     0
  3
Dotted . . . . . . . . . . . . . . . . . . . . 
 72
    65
 73
     2
 40
0.0482
 49
0.0069
 74
     0
 49
-0.0413
 74
     0
  0
LTYPE
  5
85
330
5
100
AcDbSymbolTableRecord
100
AcDbLinetypeTableRecord
  2
DOUBLE_DASH_CHAIN
 70
     0
  3
Double-Dash Chain ______  __  __  ______  __  _
 72
    65
 73
     6
 40
1.240299999999999
 49
0.6614
 74
     0
 49
-0.0827
 74
     0
 49
0.1654
 74
     0
 49
-0.0827
 74
     0
 49
0.1654
 74
     0
 49
-0.0827
 74
     0
  0
LTYPE
  5
87
330
5
100
AcDbSymbolTableRecord
100
AcDbLinetypeTableRecord
  2
DOUBLE_DASH_DOUBLE_DOT
 70
     0
  3
Double-Dash Double-dot _ _ . . _ _ . . _
 72
    65
 73
     8
 40
0.7400000000000001
 49
0.24
 74
     0
 49
-0.06
 74
     0
 49
0.24
 74
     0
 49
-0.06
 74
     0
 49
0.01
 74
     0
 49
-0.06
 74
     0
 49
0.01
 74
     0
 49
-0.06
 74
     0
  0
LTYPE
  5
88
330
5
100
AcDbSymbolTableRecord
100
AcDbLinetypeTableRecord
  2
DOUBLE_DASH_TRIPLE_DOT
 70
     0
  3
Double Dash Triple Dot __ __ . . . __ __ . .
 72
    65
 73
    10
 40
0.8100000000000001
 49
0.24
 74
     0
 49
-0.06
 74
     0
 49
0.24
 74
     0
 49
-0.06
 74
     0
 49
0.01
 74
     0
 49
-0.06
 74
     0
 49
0.01
 74
     0
 49
-0.06
 74
     0
 49
0.01
 74
     0
 49
-0.06
 74
     0
  0
LTYPE
  5
89
330
5
100
AcDbSymbolTableRecord
100
AcDbLinetypeTableRecord
  2
LONG_DASH_DOTTED
 70
     0
  3
Long Dash Dotted ____ . ____ . ____ . ____ . _
 72
    65
 73
     4
 40
0.3543
 49
0.2362
 74
     0
 49
-0.0295
 74
     0
 49
0.0591
 74
     0
 49
-0.0295
 74
     0
  0
LTYPE
  5
8A
330
5
100
AcDbSymbolTableRecord
100
AcDbLinetypeTableRecord
  2
LONG_DASH_DOUBLE_DOT
 70
     0
  3
Long Dash Double Dot ________  .  .  ________  
 72
    65
 73
     6
 40
0.6799999999999999
 49
0.48
 74
     0
 49
-0.06
 74
     0
 49
0.01
 74
     0
 49
-0.06
 74
     0
 49
0.01
 74
     0
 49
-0.06
 74
     0
  0
LTYPE
  5
8B
330
5
100
AcDbSymbolTableRecord
100
AcDbLinetypeTableRecord
  2
LONG_DASH_TRIPLE_DOT
 70
     0
  3
Long Dash Triple Dot ____ ... ____ ... ____
 72
    65
 73
     8
 40
0.3689
 49
0.2362
 74
     0
 49
-0.0295
 74
     0
 49
0.0049
 74
     0
 49
-0.0295
 74
     0
 49
0.0049
 74
     0
 49
-0.0295
 74
     0
 49
0.0049
 74
     0
 49
-0.0295
 74
     0
  0
LTYPE
  5
8C
330
5
100
AcDbSymbolTableRecord
100
AcDbLinetypeTableRecord
  2
BORDER
 70
     0
  3
Border __ __ . __ __ . __ __ . __ __ . __ __ .
 72
    65
 73
     6
 40
1.75
 49
0.5
 74
     0
 49
-0.25
 74
     0
 49
0.5
 74
     0
 49
-0.25
 74
     0
 49
0.0
 74
     0
 49
-0.25
 74
     0
  0
LTYPE
  5
8D
330
5
100
AcDbSymbolTableRecord
100
AcDbLinetypeTableRecord
  2
BORDER2
 70
     0
  3
Border (.5x) __.__.__.__.__.__.__.__.__.__.__.
 72
    65
 73
     6
 40
0.875
 49
0.25
 74
     0
 49
-0.125
 74
     0
 49
0.25
 74
     0
 49
-0.125
 74
     0
 49
0.0
 74
     0
 49
-0.125
 74
     0
  0
LTYPE
  5
8E
330
5
100
AcDbSymbolTableRecord
100
AcDbLinetypeTableRecord
  2
BORDERX2
 70
     0
  3
Border (2x) ____  ____  .  ____  ____  .  ___
 72
    65
 73
     6
 40
3.5
 49
1.0
 74
     0
 49
-0.5
 74
     0
 49
1.0
 74
     0
 49
-0.5
 74
     0
 49
0.0
 74
     0
 49
-0.5
 74
     0
  0
LTYPE
  5
8F
330
5
100
AcDbSymbolTableRecord
100
AcDbLinetypeTableRecord
  2
CENTER
 70
     0
  3
Center ____ _ ____ _ ____ _ ____ _ ____ _ ____
 72
    65
 73
     4
 40
2.0
 49
1.25
 74
     0
 49
-0.25
 74
     0
 49
0.25
 74
     0
 49
-0.25
 74
     0
  0
LTYPE
  5
90
330
5
100
AcDbSymbolTableRecord
100
AcDbLinetypeTableRecord
  2
CENTER2
 70
     0
  3
Center (.5x) ___ _ ___ _ ___ _ ___ _ ___ _ ___
 72
    65
 73
     4
 40
1.125
 49
0.75
 74
     0
 49
-0.125
 74
     0
 49
0.125
 74
     0
 49
-0.125
 74
     0
  0
LTYPE
  5
91
330
5
100
AcDbSymbolTableRecord
100
AcDbLinetypeTableRecord
  2
CENTERX2
 70
     0
  3
Center (2x) ________  __  ________  __  _____
 72
    65
 73
     4
 40
4.0
 49
2.5
 74
     0
 49
-0.5
 74
     0
 49
0.5
 74
     0
 49
-0.5
 74
     0
  0
LTYPE
  5
92
330
5
100
AcDbSymbolTableRecord
100
AcDbLinetypeTableRecord
  2
DASHDOT2
 70
     0
  3
Dash dot (.5x) _._._._._._._._._._._._._._._.
 72
    65
 73
     4
 40
0.5
 49
0.25
 74
     0
 49
-0.125
 74
     0
 49
0.0
 74
     0
 49
-0.125
 74
     0
  0
LTYPE
  5
93
330
5
100
AcDbSymbolTableRecord
100
AcDbLinetypeTableRecord
  2
DASHDOTX2
 70
     0
  3
Dash dot (2x) ____  .  ____  .  ____  .  ___
 72
    65
 73
     4
 40
2.0
 49
1.0
 74
     0
 49
-0.5
 74
     0
 49
0.0
 74
     0
 49
-0.5
 74
     0
  0
LTYPE
  5
95
330
5
100
AcDbSymbolTableRecord
100
AcDbLinetypeTableRecord
  2
DASHED2
 70
     0
  3
Dashed (.5x) _ _ _ _ _ _ _ _ _ _ _ _ _ _ _ _ _
 72
    65
 73
     2
 40
0.375
 49
0.25
 74
     0
 49
-0.125
 74
     0
  0
LTYPE
  5
96
330
5
100
AcDbSymbolTableRecord
100
AcDbLinetypeTableRecord
  2
DASHEDX2
 70
     0
  3
Dashed (2x) ____  ____  ____  ____  ____  ___
 72
    65
 73
     2
 40
1.5
 49
1.0
 74
     0
 49
-0.5
 74
     0
  0
LTYPE
  5
97
330
5
100
AcDbSymbolTableRecord
100
AcDbLinetypeTableRecord
  2
DIVIDE
 70
     0
  3
Divide ____ . . ____ . . ____ . . ____ . . ____
 72
    65
 73
     6
 40
1.25
 49
0.5
 74
     0
 49
-0.25
 74
     0
 49
0.0
 74
     0
 49
-0.25
 74
     0
 49
0.0
 74
     0
 49
-0.25
 74
     0
  0
LTYPE
  5
98
330
5
100
AcDbSymbolTableRecord
100
AcDbLinetypeTableRecord
  2
DIVIDE2
 70
     0
  3
Divide (.5x) __..__..__..__..__..__..__..__.._
 72
    65
 73
     6
 40
0.625
 49
0.25
 74
     0
 49
-0.125
 74
     0
 49
0.0
 74
     0
 49
-0.125
 74
     0
 49
0.0
 74
     0
 49
-0.125
 74
     0
  0
LTYPE
  5
99
330
5
100
AcDbSymbolTableRecord
100
AcDbLinetypeTableRecord
  2
DIVIDEX2
 70
     0
  3
Divide (2x) ________  .  .  ________  .  .  _
 72
    65
 73
     6
 40
2.5
 49
1.0
 74
     0
 49
-0.5
 74
     0
 49
0.0
 74
     0
 49
-0.5
 74
     0
 49
0.0
 74
     0
 49
-0.5
 74
     0
  0
LTYPE
  5
9A
330
5
100
AcDbSymbolTableRecord
100
AcDbLinetypeTableRecord
  2
DOT
 70
     0
  3
Dot . . . . . . . . . . . . . . . . . . . . . .
 72
    65
 73
     2
 40
0.25
 49
0.0
 74
     0
 49
-0.25
 74
     0
  0
LTYPE
  5
9B
330
5
100
AcDbSymbolTableRecord
100
AcDbLinetypeTableRecord
  2
DOT2
 70
     0
  3
Dot (.5x) .....................................
 72
    65
 73
     2
 40
0.125
 49
0.0
 74
     0
 49
-0.125
 74
     0
  0
LTYPE
  5
9C
330
5
100
AcDbSymbolTableRecord
100
AcDbLinetypeTableRecord
  2
DOTX2
 70
     0
  3
Dot (2x) .  .  .  .  .  .  .  .  .  .  .  .  . 
 72
    65
 73
     2
 40
0.5
 49
0.0
 74
     0
 49
-0.5
 74
     0
  0
LTYPE
  5
9D
330
5
100
AcDbSymbolTableRecord
100
AcDbLinetypeTableRecord
  2
HIDDEN
 70
     0
  3
Hidden __ __ __ __ __ __ __ __ __ __ __ __ __ _
 72
    65
 73
     2
 40
0.375
 49
0.25
 74
     0
 49
-0.125
 74
     0
  0
LTYPE
  5
9E
330
5
100
AcDbSymbolTableRecord
100
AcDbLinetypeTableRecord
  2
HIDDEN2
 70
     0
  3
Hidden (.5x) _ _ _ _ _ _ _ _ _ _ _ _ _ _ _ _ _
 72
    65
 73
     2
 40
0.1875
 49
0.125
 74
     0
 49
-0.0625
 74
     0
  0
LTYPE
  5
9F
330
5
100
AcDbSymbolTableRecord
100
AcDbLinetypeTableRecord
  2
HIDDENX2
 70
     0
  3
Hidden (2x) ____ ____ ____ ____ ____ ____ ____
 72
    65
 73
     2
 40
0.75
 49
0.5
 74
     0
 49
-0.25
 74
     0
  0
LTYPE
  5
A0
330
5
100
AcDbSymbolTableRecord
100
AcDbLinetypeTableRecord
  2
PHANTOM
 70
     0
  3
Phantom ______  __  __  ______  __  __  ______
 72
    65
 73
     6
 40
2.5
 49
1.25
 74
     0
 49
-0.25
 74
     0
 49
0.25
 74
     0
 49
-0.25
 74
     0
 49
0.25
 74
     0
 49
-0.25
 74
     0
  0
LTYPE
  5
A1
330
5
100
AcDbSymbolTableRecord
100
AcDbLinetypeTableRecord
  2
PHANTOM2
 70
     0
  3
Phantom (.5x) ___ _ _ ___ _ _ ___ _ _ ___ _ _
 72
    65
 73
     6
 40
1.25
 49
0.625
 74
     0
 49
-0.125
 74
     0
 49
0.125
 74
     0
 49
-0.125
 74
     0
 49
0.125
 74
     0
 49
-0.125
 74
     0
  0
LTYPE
  5
A2
330
5
100
AcDbSymbolTableRecord
100
AcDbLinetypeTableRecord
  2
PHANTOMX2
 70
     0
  3
Phantom (2x) ____________    ____    ____   _
 72
    65
 73
     6
 40
5.0
 49
2.5
 74
     0
 49
-0.5
 74
     0
 49
0.5
 74
     0
 49
-0.5
 74
     0
 49
0.5
 74
     0
 49
-0.5
 74
     0
  0
LTYPE
  5
A3
330
5
100
AcDbSymbolTableRecord
100
AcDbLinetypeTableRecord
  2
ACAD_ISO02W100
 70
     0
  3
ISO dash __ __ __ __ __ __ __ __ __ __ __ __ __
 72
    65
 73
     2
 40
0.59
 49
0.47
 74
     0
 49
-0.12
 74
     0
  0
LTYPE
  5
A4
330
5
100
AcDbSymbolTableRecord
100
AcDbLinetypeTableRecord
  2
ACAD_ISO03W100
 70
     0
  3
ISO dash space __    __    __    __    __    __
 72
    65
 73
     2
 40
1.179999999999999
 49
0.47
 74
     0
 49
-0.71
 74
     0
  0
LTYPE
  5
A5
330
5
100
AcDbSymbolTableRecord
100
AcDbLinetypeTableRecord
  2
ACAD_ISO04W100
 70
     0
  3
ISO long-dash dot ____ . ____ . ____ . ____ . _
 72
    65
 73
     4
 40
1.179999999999999
 49
0.9399999999999998
 74
     0
 49
-0.12
 74
     0
 49
0.0
 74
     0
 49
-0.12
 74
     0
  0
LTYPE
  5
A6
330
5
100
AcDbSymbolTableRecord
100
AcDbLinetypeTableRecord
  2
ACAD_ISO05W100
 70
     0
  3
ISO long-dash double-dot ____ .. ____ .. ____ .
 72
    65
 73
     6
 40
1.299999999999999
 49
0.9399999999999998
 74
     0
 49
-0.12
 74
     0
 49
0.0
 74
     0
 49
-0.12
 74
     0
 49
0.0
 74
     0
 49
-0.12
 74
     0
  0
LTYPE
  5
A7
330
5
100
AcDbSymbolTableRecord
100
AcDbLinetypeTableRecord
  2
ACAD_ISO06W100
 70
     0
  3
ISO long-dash triple-dot ____ ... ____ ... ____
 72
    65
 73
     8
 40
1.419999999999999
 49
0.9399999999999998
 74
     0
 49
-0.12
 74
     0
 49
0.0
 74
     0
 49
-0.12
 74
     0
 49
0.0
 74
     0
 49
-0.12
 74
     0
 49
0.0
 74
     0
 49
-0.12
 74
     0
  0
LTYPE
  5
A8
330
5
100
AcDbSymbolTableRecord
100
AcDbLinetypeTableRecord
  2
ACAD_ISO07W100
 70
     0
  3
ISO dot . . . . . . . . . . . . . . . . . . . .
 72
    65
 73
     2
 40
0.12
 49
0.0
 74
     0
 49
-0.12
 74
     0
  0
LTYPE
  5
A9
330
5
100
AcDbSymbolTableRecord
100
AcDbLinetypeTableRecord
  2
ACAD_ISO08W100
 70
     0
  3
ISO long-dash short-dash ____ __ ____ __ ____ _
 72
    65
 73
     4
 40
0.95
 49
0.47
 74
     0
 49
-0.12
 74
     0
 49
0.24
 74
     0
 49
-0.12
 74
     0
  0
LTYPE
  5
AA
330
5
100
AcDbSymbolTableRecord
100
AcDbLinetypeTableRecord
  2
ACAD_ISO09W100
 70
     0
  3
ISO long-dash double-short-dash ____ __ __ ____
 72
    65
 73
     6
 40
1.31
 49
0.47
 74
     0
 49
-0.12
 74
     0
 49
0.24
 74
     0
 49
-0.12
 74
     0
 49
0.24
 74
     0
 49
-0.12
 74
     0
  0
LTYPE
  5
AB
330
5
100
AcDbSymbolTableRecord
100
AcDbLinetypeTableRecord
  2
ACAD_ISO10W100
 70
     0
  3
ISO dash dot __ . __ . __ . __ . __ . __ . __ .
 72
    65
 73
     4
 40
0.71
 49
0.47
 74
     0
 49
-0.12
 74
     0
 49
0.0
 74
     0
 49
-0.12
 74
     0
  0
LTYPE
  5
AC
330
5
100
AcDbSymbolTableRecord
100
AcDbLinetypeTableRecord
  2
ACAD_ISO11W100
 70
     0
  3
ISO double-dash dot __ __ . __ __ . __ __ . __ 
 72
    65
 73
     6
 40
1.299999999999999
 49
0.47
 74
     0
 49
-0.12
 74
     0
 49
0.47
 74
     0
 49
-0.12
 74
     0
 49
0.0
 74
     0
 49
-0.12
 74
     0
  0
LTYPE
  5
AD
330
5
100
AcDbSymbolTableRecord
100
AcDbLinetypeTableRecord
  2
ACAD_ISO12W100
 70
     0
  3
ISO dash double-dot __ . . __ . . __ . . __ . .
 72
    65
 73
     6
 40
0.8299999999999998
 49
0.47
 74
     0
 49
-0.12
 74
     0
 49
0.0
 74
     0
 49
-0.12
 74
     0
 49
0.0
 74
     0
 49
-0.12
 74
     0
  0
LTYPE
  5
AE
330
5
100
AcDbSymbolTableRecord
100
AcDbLinetypeTableRecord
  2
ACAD_ISO13W100
 70
     0
  3
ISO double-dash double-dot __ __ . . __ __ . . 
 72
    65
 73
     8
 40
1.419999999999999
 49
0.47
 74
     0
 49
-0.12
 74
     0
 49
0.47
 74
     0
 49
-0.12
 74
     0
 49
0.0
 74
     0
 49
-0.12
 74
     0
 49
0.0
 74
     0
 49
-0.12
 74
     0
  0
LTYPE
  5
AF
330
5
100
AcDbSymbolTableRecord
100
AcDbLinetypeTableRecord
  2
ACAD_ISO14W100
 70
     0
  3
ISO dash triple-dot __ . . . __ . . . __ . . . 
 72
    65
 73
     8
 40
0.95
 49
0.47
 74
     0
 49
-0.12
 74
     0
 49
0.0
 74
     0
 49
-0.12
 74
     0
 49
0.0
 74
     0
 49
-0.12
 74
     0
 49
0.0
 74
     0
 49
-0.12
 74
     0
  0
LTYPE
  5
B0
330
5
100
AcDbSymbolTableRecord
100
AcDbLinetypeTableRecord
  2
ACAD_ISO15W100
 70
     0
  3
ISO double-dash triple-dot __ __ . . . __ __ . 
 72
    65
 73
    10
 40
1.539999999999999
 49
0.47
 74
     0
 49
-0.12
 74
     0
 49
0.47
 74
     0
 49
-0.12
 74
     0
 49
0.0
 74
     0
 49
-0.12
 74
     0
 49
0.0
 74
     0
 49
-0.12
 74
     0
 49
0.0
 74
     0
 49
-0.12
 74
     0
  0
LTYPE
  5
B3
330
5
100
AcDbSymbolTableRecord
100
AcDbLinetypeTableRecord
  2
FENCELINE1
 70
     0
  3
Fenceline circle ----0-----0----0-----0----0---
 72
    65
 73
     4
 40
1.45
 49
0.25
 74
     0
 49
-0.1
 74
     4
 75
   133
340
B2
 46
0.1
 50
0.0
 44
-0.1
 45
0.0
 49
-0.1
 74
     0
 49
1.0
 74
     0
  0
LTYPE
  5
B4
330
5
100
AcDbSymbolTableRecord
100
AcDbLinetypeTableRecord
  2
FENCELINE2
 70
     0
  3
Fenceline square ----[]-----[]----[]-----[]----
 72
    65
 73
     4
 40
1.45
 49
0.25
 74
     0
 49
-0.1
 74
     4
 75
   132
340
B2
 46
0.1
 50
0.0
 44
-0.1
 45
0.0
 49
-0.1
 74
     0
 49
1.0
 74
     0
  0
LTYPE
  5
B5
330
5
100
AcDbSymbolTableRecord
100
AcDbLinetypeTableRecord
  2
TRACKS
 70
     0
  3
Tracks -|-|-|-|-|-|-|-|-|-|-|-|-|-|-|-|-|-|-|-|
 72
    65
 73
     2
 40
0.3
 49
0.15
 74
     4
 75
   130
340
B2
 46
0.25
 50
0.0
 44
0.0
 45
0.0
 49
0.15
 74
     0
  0
LTYPE
  5
B6
330
5
100
AcDbSymbolTableRecord
100
AcDbLinetypeTableRecord
  2
BATTING
 70
     0
  3
Batting SSSSSSSSSSSSSSSSSSSSSSSSSSSSSSSSSSSSSSS
 72
    65
 73
     4
 40
0.4001000000000001
 49
0.0001
 74
     0
 49
-0.1
 74
     4
 75
   134
340
B2
 46
0.1
 50
0.0
 44
-0.1
 45
0.0
 49
-0.2
 74
     4
 75
   134
340
B2
 46
0.1
 50
180.0
 44
0.1
 45
0.0
 49
-0.1
 74
     0
  0
LTYPE
  5
B7
330
5
100
AcDbSymbolTableRecord
100
AcDbLinetypeTableRecord
  2
HOT_WATER_SUPPLY
 70
     0
  3
Hot water supply ---- HW ---- HW ---- HW ----
 72
    65
 73
     3
 40
0.9
 49
0.5
 74
     0
 49
-0.2
 74
     2
 75
     0
340
55
 46
0.1
 50
0.0
 44
-0.1
 45
-0.05
  9
HW
 49
-0.2
 74
     0
  0
LTYPE
  5
B8
330
5
100
AcDbSymbolTableRecord
100
AcDbLinetypeTableRecord
  2
GAS_LINE
 70
     0
  3
Gas line ----GAS----GAS----GAS----GAS----GAS---
 72
    65
 73
     3
 40
0.95
 49
0.5
 74
     0
 49
-0.2
 74
     2
 75
     0
340
55
 46
0.1
 50
0.0
 44
-0.1
 45
-0.05
  9
GAS
 49
-0.25
 74
     0
  0
LTYPE
  5
B9
330
5
100
AcDbSymbolTableRecord
100
AcDbLinetypeTableRecord
  2
ZIGZAG
 70
     0
  3
Zig zag /\/\/\/\/\/\/\/\/\/\/\/\/\/\/\/\/\/\/\/
 72
    65
 73
     4
 40
0.8001000000000001
 49
0.0001
 74
     0
 49
-0.2
 74
     4
 75
   131
340
B2
 46
0.2
 50
0.0
 44
-0.2
 45
0.0
 49
-0.4
 74
     4
 75
   131
340
B2
 46
0.2
 50
180.0
 44
0.2
 45
0.0
 49
-0.2
 74
     0
  0
ENDTAB
  0
TABLE
  2
LAYER
  5
2
330
0
100
AcDbSymbolTable
 70
    27
  0
LAYER
  5
54
330
2
100
AcDbSymbolTableRecord
100
AcDbLayerTableRecord
  2
0
 70
     0
 62
     7
  6
Continuous
370
     0
390
F
347
21
  0
LAYER
  5
C0
330
2
100
AcDbSymbolTableRecord
100
AcDbLayerTableRecord
  2
Center Mark (ANSI)
 70
     0
 62
     7
  6
Continuous
370
     5
390
F
347
21
  0
LAYER
  5
C1
330
2
100
AcDbSymbolTableRecord
100
AcDbLayerTableRecord
  2
Centerline (ANSI)
 70
     0
 62
     7
  6
Continuous
370
     5
390
F
347
21
  0
LAYER
  5
C3
330
2
100
AcDbSymbolTableRecord
100
AcDbLayerTableRecord
  2
Dimension (ANSI)
 70
     0
 62
     7
  6
Continuous
370
     5
390
F
347
21
  0
LAYER
  5
CC
330
2
100
AcDbSymbolTableRecord
100
AcDbLayerTableRecord
  2
Symbol (ANSI)
 70
     0
 62
     7
  6
Continuous
370
     5
390
F
347
21
  0
LAYER
  5
CF
330
2
100
AcDbSymbolTableRecord
100
AcDbLayerTableRecord
  2
Visible (ANSI)
 70
     0
 62
     7
  6
Continuous
370
     5
390
F
347
21
  0
LAYER
  5
D0
330
2
100
AcDbSymbolTableRecord
100
AcDbLayerTableRecord
  2
Visible Narrow (ANSI)
 70
     0
 62
     7
  6
Continuous
370
     5
390
F
347
21
  0
LAYER
  5
214
330
2
100
AcDbSymbolTableRecord
100
AcDbLayerTableRecord
  2
Defpoints
 70
     0
 62
     7
  6
Continuous
290
     0
370
    -3
390
F
347
21
  0
ENDTAB
  0
TABLE
  2
STYLE
  5
3
330
0
100
AcDbSymbolTable
 70
    10
  0
STYLE
  5
55
330
3
100
AcDbSymbolTableRecord
100
AcDbTextStyleTableRecord
  2
Standard
 70
     0
 40
0.0
 41
1.0
 50
0.0
 71
     0
 42
0.2
  3
txt
  4

  0
STYLE
  5
5A
330
3
100
AcDbSymbolTableRecord
100
AcDbTextStyleTableRecord
  2
Annotative
 70
     0
 40
0.0
 41
1.0
 50
0.0
 71
     0
 42
0.2
  3
txt
  4

1001
AcadAnnotative
1000
AnnotativeData
1002
{
1070
     1
1070
     1
1002
}
  0
STYLE
  5
B2
330
3
100
AcDbSymbolTableRecord
100
AcDbTextStyleTableRecord
  2

 70
     1
 40
0.0
 41
1.0
 50
0.0
 71
     0
 42
0.2
  3
ltypeshp.shx
  4

  0
STYLE
  5
D4
330
3
100
AcDbSymbolTableRecord
100
AcDbTextStyleTableRecord
  2
ITALICC_120
 70
     0
 40
0.0
 41
1.0
 50
0.0
 71
     0
 42
0.2
  3
italicc.shx
  4

  0
STYLE
  5
D5
330
3
100
AcDbSymbolTableRecord
100
AcDbTextStyleTableRecord
  2
Label Text (ANSI)
 70
     0
 40
0.0
 41
1.0
 50
0.0
 71
     0
 42
0.2
  3
tahoma.ttf
  4

1001
ACAD
1000
Tahoma
1071
      256
  0
STYLE
  5
D6
330
3
100
AcDbSymbolTableRecord
100
AcDbTextStyleTableRecord
  2
Note Text (ANSI)
 70
     0
 40
0.0
 41
1.0
 50
0.0
 71
     0
 42
0.2
  3
RomanS.shx
  4

  0
STYLE
  5
D7
330
3
100
AcDbSymbolTableRecord
100
AcDbTextStyleTableRecord
  2
ROMANS
 70
     0
 40
0.0
 41
1.0
 50
0.0
 71
     0
 42
0.2
  3
romans.shx
  4

  0
STYLE
  5
D8
330
3
100
AcDbSymbolTableRecord
100
AcDbTextStyleTableRecord
  2
SANSSERIF_114
 70
     0
 40
0.0
 41
1.0
 50
0.0
 71
     0
 42
0.2
  3
tahoma.ttf
  4

1001
ACAD
1000
Tahoma
1071
      256
  0
STYLE
  5
D9
330
3
100
AcDbSymbolTableRecord
100
AcDbTextStyleTableRecord
  2
SANSSERIF_117
 70
     0
 40
0.0
 41
1.0
 50
0.0
 71
     0
 42
0.2
  3
tahoma.ttf
  4

1001
ACAD
1000
Tahoma
1071
      256
  0
STYLE
  5
14F
330
3
100
AcDbSymbolTableRecord
100
AcDbTextStyleTableRecord
  2
Text Style168
 70
     0
 40
0.0
 41
1.0
 50
0.0
 71
     0
 42
0.2
  3
tahoma.ttf
  4

1001
ACAD
1000
Tahoma
1071
      256
  0
ENDTAB
  0
TABLE
  2
VIEW
  5
6
330
0
100
AcDbSymbolTable
 70
     0
  0
ENDTAB
  0
TABLE
  2
UCS
  5
7
330
0
100
AcDbSymbolTable
 70
     0
  0
ENDTAB
  0
TABLE
  2
APPID
  5
9
330
0
100
AcDbSymbolTable
 70
     2
  0
APPID
  5
56
330
9
100
AcDbSymbolTableRecord
100
AcDbRegAppTableRecord
  2
ACAD
 70
     0
  0
APPID
  5
5E
330
9
100
AcDbSymbolTableRecord
100
AcDbRegAppTableRecord
  2
AcadAnnotative
 70
     0
  0
ENDTAB
  0
TABLE
  2
DIMSTYLE
  5
A
330
0
100
AcDbSymbolTable
 70
    15
100
AcDbDimStyleTable
 71
     2
340
E2
340
58
  0
DIMSTYLE
105
58
330
A
100
AcDbSymbolTableRecord
100
AcDbDimStyleTableRecord
  2
Standard
 70
     0
340
55
  0
DIMSTYLE
105
59
330
A
100
AcDbSymbolTableRecord
100
AcDbDimStyleTableRecord
  2
Annotative
 70
     0
340
55
1001
AcadAnnotative
1000
AnnotativeData
1002
{
1070
     1
1070
     1
1002
}
  0
DIMSTYLE
105
DA
330
A
100
AcDbSymbolTableRecord
100
AcDbDimStyleTableRecord
  2
Architectural (ANSI)
 70
     0
 40
2.666666666666666
 41
0.0984251946210861
 43
0.2362204724409449
 44
0.125
 45
0.00000001
 46
0.3937007874015748
 78
     3
 79
     3
140
0.1000000014901161
146
1.200000047683715
147
0.031496062992126
171
     1
176
   256
177
   256
178
   256
272
     2
274
     1
276
     2
277
     4
284
    12
285
     4
286
    12
340
D6
371
    -1
372
    -1
  0
DIMSTYLE
105
DB
330
A
100
AcDbSymbolTableRecord
100
AcDbDimStyleTableRecord
  2
Architectural (ANSI)$7
 70
     0
 40
2.666666666666666
 41
0.0984251946210861
 43
0.2362204724409449
 44
0.125
 45
0.00000001
 46
0.3937007874015748
 78
     3
 79
     3
140
0.1000000014901161
146
1.200000047683715
147
0.031496062992126
171
     1
176
   256
177
   256
178
   256
272
     2
274
     1
276
     2
277
     4
284
    12
285
     4
286
    12
340
D6
371
    -1
372
    -1
  0
DIMSTYLE
105
DC
330
A
100
AcDbSymbolTableRecord
100
AcDbDimStyleTableRecord
  2
Default - Fraction (ANSI)
 70
     0
 40
2.666666666666666
 41
0.0984251946210861
 43
0.2362204724409449
 44
0.125
 45
0.00000001
 46
0.3937007874015748
 79
     3
140
0.1000000014901161
146
1.200000047683715
147
0.031496062992126
171
     1
176
   256
177
   256
178
   256
272
     2
274
     1
276
     2
277
     5
284
    12
285
     4
286
    12
340
D6
371
    -1
372
    -1
  0
DIMSTYLE
105
DD
330
A
100
AcDbSymbolTableRecord
100
AcDbDimStyleTableRecord
  2
Default - Fraction (ANSI)$7
 70
     0
 40
2.666666666666666
 41
0.0984251946210861
 43
0.2362204724409449
 44
0.125
 45
0.00000001
 46
0.3937007874015748
 79
     3
140
0.1000000014901161
146
1.200000047683715
147
0.031496062992126
171
     1
176
   256
177
   256
178
   256
272
     2
274
     1
276
     2
277
     5
284
    12
285
     4
286
    12
340
D6
371
    -1
372
    -1
  0
DIMSTYLE
105
DE
330
A
100
AcDbSymbolTableRecord
100
AcDbDimStyleTableRecord
  2
Default - mm (ANSI)
 70
     0
 40
2.666666666666666
 41
0.0984251946210861
 42
0.063
 43
0.2362204724409449
 44
0.125
 45
0.00000001
 46
0.3937007874015748
 73
     0
 78
     4
 79
     1
140
0.1000000014901161
143
1.0
144
25.4
146
1.200000047683715
147
0.031496062992126
171
     1
176
   256
177
   256
178
   256
179
     1
271
     2
272
     2
274
     1
284
     4
285
     4
340
D6
371
    -1
372
    -1
  0
DIMSTYLE
105
DF
330
A
100
AcDbSymbolTableRecord
100
AcDbDimStyleTableRecord
  2
Default - mm (ANSI)$7
 70
     0
 40
2.666666666666666
 41
0.0984251946210861
 42
0.063
 43
0.2362204724409449
 44
0.125
 45
0.00000001
 46
0.3937007874015748
 73
     0
 78
     4
 79
     1
140
0.1000000014901161
143
1.0
144
25.4
146
1.200000047683715
147
0.031496062992126
171
     1
176
   256
177
   256
178
   256
179
     1
271
     2
272
     2
274
     1
284
     4
285
     4
340
D6
371
    -1
372
    -1
  0
DIMSTYLE
105
E0
330
A
100
AcDbSymbolTableRecord
100
AcDbDimStyleTableRecord
  2
Default - mm [in] (ANSI)
 70
     0
  4
 in
 40
2.666666666666666
 41
0.0984251946210861
 42
0.063
 43
0.25
 44
0.125
 45
0.00000001
 46
0.3937007874015748
 73
     0
 78
     4
 79
     1
140
0.1000000014901161
143
0.03937
144
25.4
146
1.200000047683715
147
0.031496062992126
170
     1
171
     3
176
   256
177
   256
178
   256
179
     1
271
     2
272
     2
274
     3
284
     4
285
     4
286
     4
340
D6
371
    -1
372
    -1
  0
DIMSTYLE
105
E1
330
A
100
AcDbSymbolTableRecord
100
AcDbDimStyleTableRecord
  2
Default - mm [in] (ANSI)$7
 70
     0
  4
 in
 40
2.666666666666666
 41
0.0984251946210861
 42
0.063
 43
0.25
 44
0.125
 45
0.00000001
 46
0.3937007874015748
 73
     0
 78
     4
 79
     1
140
0.1000000014901161
143
0.03937
144
25.4
146
1.200000047683715
147
0.031496062992126
170
     1
171
     3
176
   256
177
   256
178
   256
179
     1
271
     2
272
     2
274
     3
284
     4
285
     4
286
     4
340
D6
371
    -1
372
    -1
  0
DIMSTYLE
105
E2
102
{ACAD_REACTORS
330
212
330
313
330
405
330
51F
330
613
330
707
330
800
330
8F9
330
A02
330
AF1
330
BE5
330
CD9
330
DE1
330
F02
330
FEC
330
10D6
330
11C5
102
}
330
A
100
AcDbSymbolTableRecord
100
AcDbDimStyleTableRecord
  2
Default (ANSI)
 70
     0
 40
2.666666666666666
 41
0.0984251946210861
 43
0.2362204724409449
 44
0.125
 45
0.00000001
 46
0.3937007874015748
140
0.1000000014901161
147
0.031496062992126
176
   256
177
   256
178
   256
271
     2
272
     2
340
D7
371
    -1
372
    -1
  0
DIMSTYLE
105
E3
330
A
100
AcDbSymbolTableRecord
100
AcDbDimStyleTableRecord
  2
Default (ANSI)$7
 70
     0
 40
2.666666666666666
 41
0.0984251946210861
 43
0.2362204724409449
 44
0.125
 45
0.00000001
 46
0.3937007874015748
140
0.1000000014901161
147
0.031496062992126
176
   256
177
   256
178
   256
271
     2
272
     2
340
D7
371
    -1
372
    -1
  0
DIMSTYLE
105
E4
330
A
100
AcDbSymbolTableRecord
100
AcDbDimStyleTableRecord
  2
Alternate (ANSI)
 70
     0
 40
2.666666666666666
 41
0.0979999974370003
340
55
342
E5
  0
DIMSTYLE
105
F7
330
A
100
AcDbSymbolTableRecord
100
AcDbDimStyleTableRecord
  2
Datum (ANSI)
 70
     0
 40
2.666666666666666
 41
0.0979999974370003
340
55
342
E5
  0
DIMSTYLE
105
106
330
A
100
AcDbSymbolTableRecord
100
AcDbDimStyleTableRecord
  2
Large (ANSI)
 70
     0
 40
2.666666666666666
 41
0.1959999948740005
340
55
342
E5
  0
ENDTAB
  0
TABLE
  2
BLOCK_RECORD
  5
1
330
0
100
AcDbSymbolTable
 70
    21
  0
BLOCK_RECORD
  5
6C
330
1
100
AcDbSymbolTableRecord
100
AcDbBlockTableRecord
  2
*Model_Space
340
6F
 70
     0
280
     1
281
     0
  0
BLOCK_RECORD
  5
68
330
1
100
AcDbSymbolTableRecord
100
AcDbBlockTableRecord
  2
*Paper_Space
340
6B
 70
     0
280
     1
281
     0
  0
BLOCK_RECORD
  5
70
330
1
100
AcDbSymbolTableRecord
100
AcDbBlockTableRecord
  2
*Paper_Space0
340
73
 70
     0
280
     1
281
     0
  0
BLOCK_RECORD
  5
E5
330
1
100
AcDbSymbolTableRecord
100
AcDbBlockTableRecord
  2
_Closed
340
0
 70
     0
280
     1
281
     0
  0
BLOCK_RECORD
  5
EC
330
1
100
AcDbSymbolTableRecord
100
AcDbBlockTableRecord
  2
DatumFilled45
340
0
 70
     0
280
     1
281
     0
  0
BLOCK_RECORD
  5
F8
330
1
100
AcDbSymbolTableRecord
100
AcDbBlockTableRecord
  2
Filled-1
340
0
 70
     0
280
     1
281
     0
  0
BLOCK_RECORD
  5
215
330
1
100
AcDbSymbolTableRecord
100
AcDbBlockTableRecord
  2
*D4
340
0
 70
     0
280
     1
281
     0
  0
BLOCK_RECORD
  5
314
330
1
100
AcDbSymbolTableRecord
100
AcDbBlockTableRecord
  2
*D5
340
0
 70
     0
280
     1
281
     0
  0
BLOCK_RECORD
  5
406
330
1
100
AcDbSymbolTableRecord
100
AcDbBlockTableRecord
  2
*D6
340
0
 70
     0
280
     1
281
     0
  0
BLOCK_RECORD
  5
520
330
1
100
AcDbSymbolTableRecord
100
AcDbBlockTableRecord
  2
*D7
340
0
 70
     0
280
     1
281
     0
  0
BLOCK_RECORD
  5
614
330
1
100
AcDbSymbolTableRecord
100
AcDbBlockTableRecord
  2
*D8
340
0
 70
     0
280
     1
281
     0
  0
BLOCK_RECORD
  5
708
330
1
100
AcDbSymbolTableRecord
100
AcDbBlockTableRecord
  2
*D9
340
0
 70
     0
280
     1
281
     0
  0
BLOCK_RECORD
  5
801
330
1
100
AcDbSymbolTableRecord
100
AcDbBlockTableRecord
  2
*D10
340
0
 70
     0
280
     1
281
     0
  0
BLOCK_RECORD
  5
8FA
330
1
100
AcDbSymbolTableRecord
100
AcDbBlockTableRecord
  2
*D11
340
0
 70
     0
280
     1
281
     0
  0
BLOCK_RECORD
  5
A03
330
1
100
AcDbSymbolTableRecord
100
AcDbBlockTableRecord
  2
*D12
340
0
 70
     0
280
     1
281
     0
  0
BLOCK_RECORD
  5
AF2
330
1
100
AcDbSymbolTableRecord
100
AcDbBlockTableRecord
  2
*D13
340
0
 70
     0
280
     1
281
     0
  0
BLOCK_RECORD
  5
BE6
330
1
100
AcDbSymbolTableRecord
100
AcDbBlockTableRecord
  2
*D14
340
0
 70
     0
280
     1
281
     0
  0
BLOCK_RECORD
  5
CDA
330
1
100
AcDbSymbolTableRecord
100
AcDbBlockTableRecord
  2
*D15
340
0
 70
     0
280
     1
281
     0
  0
BLOCK_RECORD
  5
DE2
330
1
100
AcDbSymbolTableRecord
100
AcDbBlockTableRecord
  2
*D16
340
0
 70
     0
280
     1
281
     0
  0
BLOCK_RECORD
  5
F03
330
1
100
AcDbSymbolTableRecord
100
AcDbBlockTableRecord
  2
*D17
340
0
 70
     0
280
     1
281
     0
  0
BLOCK_RECORD
  5
FED
330
1
100
AcDbSymbolTableRecord
100
AcDbBlockTableRecord
  2
*D18
340
0
 70
     0
280
     1
281
     0
  0
BLOCK_RECORD
  5
10D7
330
1
100
AcDbSymbolTableRecord
100
AcDbBlockTableRecord
  2
*D19
340
0
 70
     0
280
     1
281
     0
  0
BLOCK_RECORD
  5
11C6
330
1
100
AcDbSymbolTableRecord
100
AcDbBlockTableRecord
  2
*D20
340
0
 70
     0
280
     1
281
     0
  0
ENDTAB
  0
ENDSEC
  0
SECTION
  2
BLOCKS
  0
BLOCK
  5
6D
330
6C
100
AcDbEntity
  8
0
100
AcDbBlockBegin
  2
*Model_Space
 70
     0
 10
0.0
 20
0.0
 30
0.0
  3
*Model_Space
  1

  0
ENDBLK
  5
6E
330
6C
100
AcDbEntity
  8
0
100
AcDbBlockEnd
  0
BLOCK
  5
69
330
68
100
AcDbEntity
 67
     1
  8
0
100
AcDbBlockBegin
  2
*Paper_Space
 70
     0
 10
0.0
 20
0.0
 30
0.0
  3
*Paper_Space
  1

  0
ENDBLK
  5
6A
330
68
100
AcDbEntity
 67
     1
  8
0
100
AcDbBlockEnd
  0
BLOCK
  5
71
330
70
100
AcDbEntity
 67
     1
  8
0
100
AcDbBlockBegin
  2
*Paper_Space0
 70
     0
 10
0.0
 20
0.0
 30
0.0
  3
*Paper_Space0
  1

  0
ENDBLK
  5
72
330
70
100
AcDbEntity
 67
     1
  8
0
100
AcDbBlockEnd
  0
BLOCK
  5
EA
330
E5
100
AcDbEntity
  8
0
100
AcDbBlockBegin
  2
_Closed
 70
     0
 10
0.0
 20
0.0
 30
0.0
  3
_Closed
  1

  0
LINE
  5
E6
330
E5
100
AcDbEntity
  8
0
  6
ByBlock
 62
     0
370
    -2
100
AcDbLine
 10
-1.0
 20
0.1666666666666666
 30
0.0
 11
0.0
 21
0.0
 31
0.0
  0
LINE
  5
E7
330
E5
100
AcDbEntity
  8
0
  6
ByBlock
 62
     0
370
    -2
100
AcDbLine
 10
0.0
 20
0.0
 30
0.0
 11
-1.0
 21
-0.1666666666666666
 31
0.0
  0
LINE
  5
E8
330
E5
100
AcDbEntity
  8
0
  6
ByBlock
 62
     0
370
    -2
100
AcDbLine
 10
-1.0
 20
0.1666666666666666
 30
0.0
 11
-1.0
 21
-0.1666666666666666
 31
0.0
  0
LINE
  5
E9
330
E5
100
AcDbEntity
  8
0
  6
ByBlock
 62
     0
370
    -2
100
AcDbLine
 10
0.0
 20
0.0
 30
0.0
 11
-1.0
 21
0.0
 31
0.0
  0
ENDBLK
  5
EB
330
E5
100
AcDbEntity
  8
0
100
AcDbBlockEnd
  0
BLOCK
  5
ED
330
EC
100
AcDbEntity
  8
0
100
AcDbBlockBegin
  2
DatumFilled45
 70
     0
 10
0.0
 20
0.0
 30
0.0
  3
DatumFilled45
  1

  0
POLYLINE
  5
EF
330
EC
100
AcDbEntity
  8
0
 62
     0
100
AcDb2dPolyline
 66
     1
 10
0.0
 20
0.0
 30
0.0
 70
   128
  0
VERTEX
  5
F0
330
EF
100
AcDbEntity
  8
0
 62
     0
100
AcDbVertex
100
AcDb2dVertex
 10
0.0
 20
0.9999999999999998
 30
0.0
  0
VERTEX
  5
F1
330
EF
100
AcDbEntity
  8
0
 62
     0
100
AcDbVertex
100
AcDb2dVertex
 10
0.0
 20
-0.9999999999999998
 30
0.0
  0
VERTEX
  5
F3
330
EF
100
AcDbEntity
  8
0
 62
     0
100
AcDbVertex
100
AcDb2dVertex
 10
-0.9999999999999998
 20
0.0
 30
0.0
  0
VERTEX
  5
F4
330
EF
100
AcDbEntity
  8
0
 62
     0
100
AcDbVertex
100
AcDb2dVertex
 10
0.0
 20
0.9999999999999998
 30
0.0
  0
SEQEND
  5
F2
330
EF
100
AcDbEntity
  8
0
 62
     0
  0
SOLID
  5
F6
330
EC
100
AcDbEntity
  8
0
 62
     0
100
AcDbTrace
 10
0.0
 20
0.9999999999999998
 30
0.0
 11
0.0
 21
-0.9999999999999998
 31
0.0
 12
-0.9999999999999998
 22
0.0
 32
0.0
 13
0.0
 23
0.9999999999999998
 33
0.0
  0
ENDBLK
  5
EE
330
EC
100
AcDbEntity
  8
0
100
AcDbBlockEnd
  0
BLOCK
  5
F9
330
F8
100
AcDbEntity
  8
0
100
AcDbBlockBegin
  2
Filled-1
 70
     0
 10
0.0
 20
0.0
 30
0.0
  3
Filled-1
  1

  0
LINE
  5
FB
330
F8
100
AcDbEntity
  8
0
 62
     0
100
AcDbLine
 10
-0.9999999999999998
 20
0.0
 30
0.0
 11
0.0
 21
0.0
 31
0.0
  0
POLYLINE
  5
FC
330
F8
100
AcDbEntity
  8
0
 62
     0
100
AcDb2dPolyline
 66
     1
 10
0.0
 20
0.0
 30
0.0
 70
   128
  0
VERTEX
  5
FD
330
FC
100
AcDbEntity
  8
0
 62
     0
100
AcDbVertex
100
AcDb2dVertex
 10
-0.9999999999999998
 20
-0.0994897959183674
 30
0.0
  0
VERTEX
  5
FE
330
FC
100
AcDbEntity
  8
0
 62
     0
100
AcDbVertex
100
AcDb2dVertex
 10
0.0
 20
0.0
 30
0.0
  0
VERTEX
  5
100
330
FC
100
AcDbEntity
  8
0
 62
     0
100
AcDbVertex
100
AcDb2dVertex
 10
-0.9999999999999998
 20
0.0994897959183674
 30
0.0
  0
VERTEX
  5
101
330
FC
100
AcDbEntity
  8
0
 62
     0
100
AcDbVertex
100
AcDb2dVertex
 10
-0.9999999999999998
 20
-0.0994897959183674
 30
0.0
  0
SEQEND
  5
FF
330
FC
100
AcDbEntity
  8
0
 62
     0
  0
SOLID
  5
102
330
F8
100
AcDbEntity
  8
0
 62
     0
100
AcDbTrace
 10
-0.9999999999999998
 20
-0.0994897959183674
 30
0.0
 11
0.0
 21
0.0
 31
0.0
 12
-0.9999999999999998
 22
0.0994897959183674
 32
0.0
 13
-0.9999999999999998
 23
-0.0994897959183674
 33
0.0
  0
LINE
  5
103
330
F8
100
AcDbEntity
  8
0
 62
     0
100
AcDbLine
 10
-0.9999999999999998
 20
-0.0994897959183674
 30
0.0
 11
0.0
 21
0.0
 31
0.0
  0
LINE
  5
104
330
F8
100
AcDbEntity
  8
0
 62
     0
100
AcDbLine
 10
0.0
 20
0.0
 30
0.0
 11
-0.9999999999999998
 21
0.0994897959183674
 31
0.0
  0
LINE
  5
105
330
F8
100
AcDbEntity
  8
0
 62
     0
100
AcDbLine
 10
-0.9999999999999998
 20
0.0994897959183674
 30
0.0
 11
-0.9999999999999998
 21
-0.0994897959183674
 31
0.0
  0
ENDBLK
  5
FA
330
F8
100
AcDbEntity
  8
0
100
AcDbBlockEnd
  0
BLOCK
  5
216
330
215
100
AcDbEntity
  8
0
100
AcDbBlockBegin
  2
*D4
 70
     1
 10
0.0
 20
0.0
 30
0.0
  3
*D4
  1

  0
LINE
  5
309
330
215
100
AcDbEntity
  8
Dimension (ANSI)
440
 16777216
100
AcDbLine
 10
23.20566103914413
 20
8.560677115599697
 30
0.0
 11
23.20566103914413
 21
7.389363621060433
 31
0.0
  0
LINE
  5
30A
330
215
100
AcDbEntity
  8
Dimension (ANSI)
440
 16777216
100
AcDbLine
 10
29.20566103914568
 20
8.935677115599689
 30
0.0
 11
29.20566103914568
 21
7.389363621060433
 31
0.0
  0
LINE
  5
30B
330
215
100
AcDbEntity
  8
Dimension (ANSI)
440
 16777216
100
AcDbLine
 10
23.46812822480036
 20
7.722696954393766
 30
0.0
 11
25.42960803545686
 21
7.722696954393766
 31
0.0
  0
LINE
  5
30C
330
215
100
AcDbEntity
  8
Dimension (ANSI)
440
 16777216
100
AcDbLine
 10
28.94319385348945
 20
7.722696954393766
 30
0.0
 11
26.98171404283361
 21
7.722696954393766
 31
0.0
  0
SOLID
  5
30D
330
215
100
AcDbEntity
  8
Dimension (ANSI)
440
 16777216
100
AcDbTrace
 10
23.46812822480036
 20
7.766441485336471
 30
0.0
 11
23.46812822480036
 21
7.678952423451061
 31
0.0
 12
23.20566103914413
 22
7.722696954393766
 32
0.0
 13
23.20566103914413
 23
7.722696954393766
 33
0.0
  0
SOLID
  5
30E
330
215
100
AcDbEntity
  8
Dimension (ANSI)
440
 16777216
100
AcDbTrace
 10
28.94319385348945
 20
7.766441485336471
 30
0.0
 11
28.94319385348945
 21
7.678952423451061
 31
0.0
 12
29.20566103914568
 22
7.722696954393766
 32
0.0
 13
29.20566103914568
 23
7.722696954393766
 33
0.0
  0
MTEXT
  5
30F
330
215
100
AcDbEntity
  8
Dimension (ANSI)
440
 16777216
100
AcDbMText
 10
26.20566103914523
 20
7.722696954393766
 30
0.0
 40
0.2666666706403096
 41
0.0
 46
0.0
 71
     5
 72
     1
  1
\A1;6.00{\PLENGTH}
  7
ROMANS
 73
     1
 44
1.0
  0
POINT
  5
310
330
215
100
AcDbEntity
  8
Defpoints
 62
     0
440
 16777216
100
AcDbPoint
 10
23.20566103914413
 20
8.727343782266363
 30
0.0
  0
POINT
  5
311
330
215
100
AcDbEntity
  8
Defpoints
 62
     0
440
 16777216
100
AcDbPoint
 10
29.20566103914568
 20
9.102343782266355
 30
0.0
  0
POINT
  5
312
330
215
100
AcDbEntity
  8
Defpoints
 62
     0
440
 16777216
100
AcDbPoint
 10
29.20566103914568
 20
7.722696954393766
 30
0.0
  0
ENDBLK
  5
217
330
215
100
AcDbEntity
  8
0
100
AcDbBlockEnd
  0
BLOCK
  5
315
330
314
100
AcDbEntity
  8
0
100
AcDbBlockBegin
  2
*D5
 70
     1
 10
0.0
 20
0.0
 30
0.0
  3
*D5
  1

  0
LINE
  5
3F3
330
314
100
AcDbEntity
  8
Dimension (ANSI)
440
 16777216
100
AcDbLine
 10
6.285289493382871
 20
26.6360901848129
 30
0.0
 11
4.813832800469528
 21
26.6360901848129
 31
0.0
  0
LINE
  5
3F4
330
314
100
AcDbEntity
  8
Dimension (ANSI)
440
 16777216
100
AcDbLine
 10
6.660289493382865
 20
20.88609018481136
 30
0.0
 11
4.813832800469525
 21
20.88609018481136
 31
0.0
  0
LINE
  5
3F5
330
314
100
AcDbEntity
  8
Dimension (ANSI)
440
 16777216
100
AcDbLine
 10
5.147166133802861
 20
26.37362299915667
 30
0.0
 11
5.14716613380286
 21
23.97841302144542
 31
0.0
  0
LINE
  5
3F6
330
314
100
AcDbEntity
  8
Dimension (ANSI)
440
 16777216
100
AcDbLine
 10
5.147166133802859
 20
21.14855737046759
 30
0.0
 11
5.14716613380286
 21
23.54376734818044
 31
0.0
  0
SOLID
  5
3F7
330
314
100
AcDbEntity
  8
Dimension (ANSI)
440
 16777216
100
AcDbTrace
 10
5.103421602860156
 20
26.37362299915667
 30
0.0
 11
5.190910664745566
 21
26.37362299915667
 31
0.0
 12
5.147166133802861
 22
26.6360901848129
 32
0.0
 13
5.147166133802861
 23
26.6360901848129
 33
0.0
  0
SOLID
  5
3F8
330
314
100
AcDbEntity
  8
Dimension (ANSI)
440
 16777216
100
AcDbTrace
 10
5.103421602860154
 20
21.14855737046759
 30
0.0
 11
5.190910664745564
 21
21.14855737046759
 31
0.0
 12
5.147166133802859
 22
20.88609018481136
 32
0.0
 13
5.147166133802859
 23
20.88609018481136
 33
0.0
  0
MTEXT
  5
3F9
330
314
100
AcDbEntity
  8
Dimension (ANSI)
440
 16777216
100
AcDbMText
 10
4.740816921398575
 20
23.89442352013309
 30
0.0
 40
0.2666666706403096
 41
0.0
 46
0.0
 71
     1
 72
     1
  1
\A1;5.75
  7
ROMANS
 73
     1
 44
1.0
  0
POINT
  5
3FA
330
314
100
AcDbEntity
  8
Defpoints
 62
     0
440
 16777216
100
AcDbPoint
 10
6.451956160049538
 20
26.6360901848129
 30
0.0
  0
POINT
  5
3FB
330
314
100
AcDbEntity
  8
Defpoints
 62
     0
440
 16777216
100
AcDbPoint
 10
6.826956160049532
 20
20.88609018481136
 30
0.0
  0
POINT
  5
3FC
330
314
100
AcDbEntity
  8
Defpoints
 62
     0
440
 16777216
100
AcDbPoint
 10
5.147166133802859
 20
20.88609018481136
 30
0.0
  0
ENDBLK
  5
316
330
314
100
AcDbEntity
  8
0
100
AcDbBlockEnd
  0
BLOCK
  5
407
330
406
100
AcDbEntity
  8
0
100
AcDbBlockBegin
  2
*D6
 70
     1
 10
0.0
 20
0.0
 30
0.0
  3
*D6
  1

  0
LINE
  5
511
330
406
100
AcDbEntity
  8
Dimension (ANSI)
440
 16777216
100
AcDbLine
 10
11.99362282671619
 20
26.7610901848129
 30
0.0
 11
13.95577467098248
 21
26.7610901848129
 31
0.0
  0
LINE
  5
512
330
406
100
AcDbEntity
  8
Dimension (ANSI)
440
 16777216
100
AcDbLine
 10
11.99362282671619
 20
26.6360901848129
 30
0.0
 11
13.95577467098248
 21
26.6360901848129
 31
0.0
  0
LINE
  5
513
330
406
100
AcDbEntity
  8
Dimension (ANSI)
440
 16777216
100
AcDbLine
 10
13.62244133764915
 20
27.02355737046913
 30
0.0
 11
13.62244133764915
 21
27.28602455612536
 31
0.0
  0
LINE
  5
514
330
406
100
AcDbEntity
  8
Dimension (ANSI)
440
 16777216
100
AcDbLine
 10
13.62244133764915
 20
26.37362299915667
 30
0.0
 11
13.62244133764915
 21
26.11115581350045
 31
0.0
  0
LINE
  5
515
330
406
100
AcDbEntity
  8
Dimension (ANSI)
440
 16777216
100
AcDbLine
 10
13.88490852330538
 20
25.78942630291095
 30
0.0
 11
13.62244133764915
 21
25.78942630291095
 31
0.0
  0
LINE
  5
516
330
406
100
AcDbEntity
  8
Dimension (ANSI)
440
 16777216
100
AcDbLine
 10
13.62244133764915
 20
25.78942630291095
 30
0.0
 11
13.62244133764915
 21
26.11115581350045
 31
0.0
  0
MTEXT
  5
517
330
406
100
AcDbEntity
  8
Dimension (ANSI)
440
 16777216
100
AcDbMText
 10
14.81969168808917
 20
25.78942630291095
 30
0.0
 40
0.2666666706403096
 41
0.0
 46
0.0
 71
     5
 72
     1
  1
\A1; 10 GA.\P304 S.S.\P(2 PL.)
  7
ROMANS
 73
     1
 44
1.0
  0
SOLID
  5
518
330
406
100
AcDbEntity
  8
Dimension (ANSI)
440
 16777216
100
AcDbTrace
 10
13.57869680670644
 20
27.02355737046913
 30
0.0
 11
13.66618586859185
 21
27.02355737046913
 31
0.0
 12
13.62244133764915
 22
26.7610901848129
 32
0.0
 13
13.62244133764915
 23
26.7610901848129
 33
0.0
  0
SOLID
  5
519
330
406
100
AcDbEntity
  8
Dimension (ANSI)
440
 16777216
100
AcDbTrace
 10
13.57869680670644
 20
26.37362299915667
 30
0.0
 11
13.66618586859185
 21
26.37362299915667
 31
0.0
 12
13.62244133764915
 22
26.6360901848129
 32
0.0
 13
13.62244133764915
 23
26.6360901848129
 33
0.0
  0
POINT
  5
51A
330
406
100
AcDbEntity
  8
Defpoints
 62
     0
440
 16777216
100
AcDbPoint
 10
11.82695616004952
 20
26.7610901848129
 30
0.0
  0
POINT
  5
51B
330
406
100
AcDbEntity
  8
Defpoints
 62
     0
440
 16777216
100
AcDbPoint
 10
11.82695616004952
 20
26.6360901848129
 30
0.0
  0
POINT
  5
51C
330
406
100
AcDbEntity
  8
Defpoints
 62
     0
440
 16777216
100
AcDbPoint
 10
13.62244133764915
 20
26.6360901848129
 30
0.0
  0
ENDBLK
  5
408
330
406
100
AcDbEntity
  8
0
100
AcDbBlockEnd
  0
BLOCK
  5
521
330
520
100
AcDbEntity
  8
0
100
AcDbBlockBegin
  2
*D7
 70
     1
 10
0.0
 20
0.0
 30
0.0
  3
*D7
  1

  0
LINE
  5
609
330
520
100
AcDbEntity
  8
Dimension (ANSI)
440
 16777216
100
AcDbLine
 10
12.09258116004498
 20
13.72734378226633
 30
0.0
 11
13.30911659311585
 21
13.72734378226633
 31
0.0
  0
LINE
  5
60A
330
520
100
AcDbEntity
  8
Dimension (ANSI)
440
 16777216
100
AcDbLine
 10
12.09258116004497
 20
9.10234378226635
 30
0.0
 11
13.30911659311585
 21
9.10234378226635
 31
0.0
  0
LINE
  5
60B
330
520
100
AcDbEntity
  8
Dimension (ANSI)
440
 16777216
100
AcDbLine
 10
12.97578325978252
 20
13.4648765966101
 30
0.0
 11
12.97578325978252
 21
11.81685028633004
 31
0.0
  0
LINE
  5
60C
330
520
100
AcDbEntity
  8
Dimension (ANSI)
440
 16777216
100
AcDbLine
 10
12.97578325978252
 20
9.364810967922579
 30
0.0
 11
12.97578325978252
 21
11.24252207130109
 31
0.0
  0
SOLID
  5
60D
330
520
100
AcDbEntity
  8
Dimension (ANSI)
440
 16777216
100
AcDbTrace
 10
12.93203872883981
 20
13.4648765966101
 30
0.0
 11
13.01952779072522
 21
13.4648765966101
 31
0.0
 12
12.97578325978252
 22
13.72734378226633
 32
0.0
 13
12.97578325978252
 23
13.72734378226633
 33
0.0
  0
SOLID
  5
60E
330
520
100
AcDbEntity
  8
Dimension (ANSI)
440
 16777216
100
AcDbTrace
 10
12.93203872883981
 20
9.364810967922579
 30
0.0
 11
13.01952779072522
 21
9.364810967922579
 31
0.0
 12
12.97578325978252
 22
9.10234378226635
 32
0.0
 13
12.97578325978252
 23
9.10234378226635
 33
0.0
  0
MTEXT
  5
60F
330
520
100
AcDbEntity
  8
Dimension (ANSI)
440
 16777216
100
AcDbMText
 10
12.404354679839
 20
11.73286078501771
 30
0.0
 40
0.2666666706403096
 41
0.0
 46
0.0
 71
     1
 72
     1
  1
\A1;(4.63)
  7
ROMANS
 73
     1
 44
1.0
  0
POINT
  5
610
330
520
100
AcDbEntity
  8
Defpoints
 62
     0
440
 16777216
100
AcDbPoint
 10
11.92591449337832
 20
13.72734378226633
 30
0.0
  0
POINT
  5
611
330
520
100
AcDbEntity
  8
Defpoints
 62
     0
440
 16777216
100
AcDbPoint
 10
11.92591449337831
 20
9.102343782266352
 30
0.0
  0
POINT
  5
612
330
520
100
AcDbEntity
  8
Defpoints
 62
     0
440
 16777216
100
AcDbPoint
 10
12.97578325978252
 20
9.10234378226635
 30
0.0
  0
ENDBLK
  5
522
330
520
100
AcDbEntity
  8
0
100
AcDbBlockEnd
  0
BLOCK
  5
615
330
614
100
AcDbEntity
  8
0
100
AcDbBlockBegin
  2
*D8
 70
     1
 10
0.0
 20
0.0
 30
0.0
  3
*D8
  1

  0
LINE
  5
6FD
330
614
100
AcDbEntity
  8
Dimension (ANSI)
440
 16777216
100
AcDbLine
 10
6.826956160045003
 20
14.36796878226634
 30
0.0
 11
6.826956160045003
 21
16.21442547517971
 31
0.0
  0
LINE
  5
6FE
330
614
100
AcDbEntity
  8
Dimension (ANSI)
440
 16777216
100
AcDbLine
 10
11.45195616004498
 20
14.36796878226633
 30
0.0
 11
11.45195616004498
 21
16.21442547517971
 31
0.0
  0
LINE
  5
6FF
330
614
100
AcDbEntity
  8
Dimension (ANSI)
440
 16777216
100
AcDbLine
 10
7.089423345701233
 20
15.88109214184638
 30
0.0
 11
8.484038078789138
 21
15.88109214184638
 31
0.0
  0
LINE
  5
700
330
614
100
AcDbEntity
  8
Dimension (ANSI)
440
 16777216
100
AcDbLine
 10
11.18948897438875
 20
15.88109214184638
 30
0.0
 11
9.794874241300851
 21
15.88109214184638
 31
0.0
  0
SOLID
  5
701
330
614
100
AcDbEntity
  8
Dimension (ANSI)
440
 16777216
100
AcDbTrace
 10
7.089423345701233
 20
15.92483667278909
 30
0.0
 11
7.089423345701233
 21
15.83734761090368
 31
0.0
 12
6.826956160045003
 22
15.88109214184638
 32
0.0
 13
6.826956160045003
 23
15.88109214184638
 33
0.0
  0
SOLID
  5
702
330
614
100
AcDbEntity
  8
Dimension (ANSI)
440
 16777216
100
AcDbTrace
 10
11.18948897438875
 20
15.92483667278909
 30
0.0
 11
11.18948897438875
 21
15.83734761090368
 31
0.0
 12
11.45195616004498
 22
15.88109214184638
 32
0.0
 13
11.45195616004498
 23
15.88109214184638
 33
0.0
  0
MTEXT
  5
703
330
614
100
AcDbEntity
  8
Dimension (ANSI)
440
 16777216
100
AcDbMText
 10
8.568027580101475
 20
16.08426674804852
 30
0.0
 40
0.2666666706403096
 41
0.0
 46
0.0
 71
     1
 72
     1
  1
\A1;(4.63)
  7
ROMANS
 73
     1
 44
1.0
  0
POINT
  5
704
330
614
100
AcDbEntity
  8
Defpoints
 62
     0
440
 16777216
100
AcDbPoint
 10
6.826956160045003
 20
14.20130211559967
 30
0.0
  0
POINT
  5
705
330
614
100
AcDbEntity
  8
Defpoints
 62
     0
440
 16777216
100
AcDbPoint
 10
11.45195616004498
 20
14.20130211559966
 30
0.0
  0
POINT
  5
706
330
614
100
AcDbEntity
  8
Defpoints
 62
     0
440
 16777216
100
AcDbPoint
 10
11.45195616004498
 20
15.88109214184638
 30
0.0
  0
ENDBLK
  5
616
330
614
100
AcDbEntity
  8
0
100
AcDbBlockEnd
  0
BLOCK
  5
709
330
708
100
AcDbEntity
  8
0
100
AcDbBlockBegin
  2
*D9
 70
     1
 10
0.0
 20
0.0
 30
0.0
  3
*D9
  1

  0
LINE
  5
7F8
330
708
100
AcDbEntity
  8
Dimension (ANSI)
440
 16777216
100
AcDbLine
 10
10.08452395781457
 20
13.07837659661012
 30
0.0
 11
10.08452395781457
 21
12.6986090720208
 31
0.0
  0
LINE
  5
7F9
330
708
100
AcDbEntity
  8
Dimension (ANSI)
440
 16777216
100
AcDbLine
 10
10.08452395781456
 20
9.751310967922586
 30
0.0
 11
10.08452395781456
 21
11.7687252961381
 31
0.0
  0
SOLID
  5
7FA
330
708
100
AcDbEntity
  8
Dimension (ANSI)
440
 16777216
100
AcDbTrace
 10
10.04077942687186
 20
13.07837659661012
 30
0.0
 11
10.12826848875727
 21
13.07837659661012
 31
0.0
 12
10.08452395781457
 22
13.34084378226635
 32
0.0
 13
10.08452395781457
 23
13.34084378226635
 33
0.0
  0
SOLID
  5
7FB
330
708
100
AcDbEntity
  8
Dimension (ANSI)
440
 16777216
100
AcDbTrace
 10
10.04077942687186
 20
9.751310967922586
 30
0.0
 11
10.12826848875727
 21
9.751310967922586
 31
0.0
 12
10.08452395781456
 22
9.488843782266357
 32
0.0
 13
10.08452395781456
 23
9.488843782266357
 33
0.0
  0
MTEXT
  5
7FC
330
708
100
AcDbEntity
  8
Dimension (ANSI)
440
 16777216
100
AcDbMText
 10
10.08452395781456
 20
12.23366718407945
 30
0.0
 40
0.2666666706403096
 41
0.0
 46
0.0
 71
     5
 72
     1
  1
\A1;(3.85){\POPENING}
  7
ROMANS
 73
     1
 44
1.0
  0
POINT
  5
7FD
330
708
100
AcDbEntity
  8
Defpoints
 62
     0
440
 16777216
100
AcDbPoint
 10
10.25220245269204
 20
13.34084378226635
 30
0.0
  0
POINT
  5
7FE
330
708
100
AcDbEntity
  8
Defpoints
 62
     0
440
 16777216
100
AcDbPoint
 10
10.27452750498813
 20
9.488843782266357
 30
0.0
  0
POINT
  5
7FF
330
708
100
AcDbEntity
  8
Defpoints
 62
     0
440
 16777216
100
AcDbPoint
 10
10.08452395781456
 20
9.488843782266357
 30
0.0
  0
ENDBLK
  5
70A
330
708
100
AcDbEntity
  8
0
100
AcDbBlockEnd
  0
BLOCK
  5
802
330
801
100
AcDbEntity
  8
0
100
AcDbBlockBegin
  2
*D10
 70
     1
 10
0.0
 20
0.0
 30
0.0
  3
*D10
  1

  0
LINE
  5
8F1
330
801
100
AcDbEntity
  8
Dimension (ANSI)
440
 16777216
100
AcDbLine
 10
7.475923345701228
 20
10.78148919745108
 30
0.0
 11
8.085565479830579
 21
10.78148919745108
 31
0.0
  0
LINE
  5
8F2
330
801
100
AcDbEntity
  8
Dimension (ANSI)
440
 16777216
100
AcDbLine
 10
10.80298897438875
 20
10.78148919745108
 30
0.0
 11
9.891639744960011
 21
10.78148919745108
 31
0.0
  0
SOLID
  5
8F3
330
801
100
AcDbEntity
  8
Dimension (ANSI)
440
 16777216
100
AcDbTrace
 10
7.475923345701228
 20
10.82523372839379
 30
0.0
 11
7.475923345701228
 21
10.73774466650838
 31
0.0
 12
7.213456160044998
 22
10.78148919745108
 32
0.0
 13
7.213456160044998
 23
10.78148919745108
 33
0.0
  0
SOLID
  5
8F4
330
801
100
AcDbEntity
  8
Dimension (ANSI)
440
 16777216
100
AcDbTrace
 10
10.80298897438875
 20
10.82523372839379
 30
0.0
 11
10.80298897438875
 21
10.73774466650838
 31
0.0
 12
11.06545616004497
 22
10.78148919745108
 32
0.0
 13
11.06545616004497
 23
10.78148919745108
 33
0.0
  0
MTEXT
  5
8F5
330
801
100
AcDbEntity
  8
Dimension (ANSI)
440
 16777216
100
AcDbMText
 10
8.988602612395295
 20
10.78148919745108
 30
0.0
 40
0.2666666706403096
 41
0.0
 46
0.0
 71
     5
 72
     1
  1
\A1;(3.85){\POPENING}
  7
ROMANS
 73
     1
 44
1.0
  0
POINT
  5
8F6
330
801
100
AcDbEntity
  8
Defpoints
 62
     0
440
 16777216
100
AcDbPoint
 10
7.213456160044998
 20
10.51591509468185
 30
0.0
  0
POINT
  5
8F7
330
801
100
AcDbEntity
  8
Defpoints
 62
     0
440
 16777216
100
AcDbPoint
 10
11.06545616004497
 20
10.49050271077561
 30
0.0
  0
POINT
  5
8F8
330
801
100
AcDbEntity
  8
Defpoints
 62
     0
440
 16777216
100
AcDbPoint
 10
11.06545616004497
 20
10.78148919745108
 30
0.0
  0
ENDBLK
  5
803
330
801
100
AcDbEntity
  8
0
100
AcDbBlockEnd
  0
BLOCK
  5
8FB
330
8FA
100
AcDbEntity
  8
0
100
AcDbBlockBegin
  2
*D11
 70
     1
 10
0.0
 20
0.0
 30
0.0
  3
*D11
  1

  0
LINE
  5
9F9
330
8FA
100
AcDbEntity
  8
Dimension (ANSI)
440
 16777216
100
AcDbLine
 10
9.331718058441719
 20
13.07837659661012
 30
0.0
 11
9.331718058441719
 21
12.81590941095389
 31
0.0
  0
LINE
  5
9FA
330
8FA
100
AcDbEntity
  8
Dimension (ANSI)
440
 16777216
100
AcDbLine
 10
9.331718058441719
 20
14.36481096792256
 30
0.0
 11
9.331718058441719
 21
15.12876033673282
 31
0.0
  0
LINE
  5
9FB
330
8FA
100
AcDbEntity
  8
Dimension (ANSI)
440
 16777216
100
AcDbLine
 10
9.331718058441719
 20
15.12876033673282
 30
0.0
 11
9.594185244097948
 21
15.12876033673282
 31
0.0
  0
SOLID
  5
9FC
330
8FA
100
AcDbEntity
  8
Dimension (ANSI)
440
 16777216
100
AcDbTrace
 10
9.287973527499014
 20
13.07837659661012
 30
0.0
 11
9.375462589384424
 21
13.07837659661012
 31
0.0
 12
9.331718058441719
 22
13.34084378226635
 32
0.0
 13
9.331718058441719
 23
13.34084378226635
 33
0.0
  0
SOLID
  5
9FD
330
8FA
100
AcDbEntity
  8
Dimension (ANSI)
440
 16777216
100
AcDbTrace
 10
9.287973527499014
 20
14.36481096792256
 30
0.0
 11
9.375462589384424
 21
14.36481096792256
 31
0.0
 12
9.331718058441719
 22
14.10234378226633
 32
0.0
 13
9.331718058441719
 23
14.10234378226633
 33
0.0
  0
MTEXT
  5
9FE
330
8FA
100
AcDbEntity
  8
Dimension (ANSI)
440
 16777216
100
AcDbMText
 10
10.08452395781456
 20
15.12876033673282
 30
0.0
 40
0.2666666706403096
 41
0.0
 46
0.0
 71
     5
 72
     1
  1
\A1;0.76{\PTYP.}
  7
ROMANS
 73
     1
 44
1.0
  0
POINT
  5
9FF
330
8FA
100
AcDbEntity
  8
Defpoints
 62
     0
440
 16777216
100
AcDbPoint
 10
10.08452395781456
 20
14.10234378226633
 30
0.0
  0
POINT
  5
A00
330
8FA
100
AcDbEntity
  8
Defpoints
 62
     0
440
 16777216
100
AcDbPoint
 10
10.05622052405973
 20
13.34084378226635
 30
0.0
  0
POINT
  5
A01
330
8FA
100
AcDbEntity
  8
Defpoints
 62
     0
440
 16777216
100
AcDbPoint
 10
9.331718058441719
 20
13.34084378226635
 30
0.0
  0
ENDBLK
  5
8FC
330
8FA
100
AcDbEntity
  8
0
100
AcDbBlockEnd
  0
BLOCK
  5
A04
330
A03
100
AcDbEntity
  8
0
100
AcDbBlockBegin
  2
*D12
 70
     1
 10
0.0
 20
0.0
 30
0.0
  3
*D12
  1

  0
LINE
  5
AE9
330
A03
100
AcDbEntity
  8
Dimension (ANSI)
440
 16777216
100
AcDbLine
 10
7.475923345701228
 20
10.78148919745108
 30
0.0
 11
7.738390531357457
 21
10.78148919745108
 31
0.0
  0
LINE
  5
AEA
330
A03
100
AcDbEntity
  8
Dimension (ANSI)
440
 16777216
100
AcDbLine
 10
6.189488974388771
 20
10.78148919745108
 30
0.0
 11
5.744632301852071
 21
10.78148919745108
 31
0.0
  0
SOLID
  5
AEB
330
A03
100
AcDbEntity
  8
Dimension (ANSI)
440
 16777216
100
AcDbTrace
 10
7.475923345701228
 20
10.82523372839379
 30
0.0
 11
7.475923345701228
 21
10.73774466650838
 31
0.0
 12
7.213456160044998
 22
10.78148919745108
 32
0.0
 13
7.213456160044998
 23
10.78148919745108
 33
0.0
  0
SOLID
  5
AEC
330
A03
100
AcDbEntity
  8
Dimension (ANSI)
440
 16777216
100
AcDbTrace
 10
6.189488974388771
 20
10.82523372839379
 30
0.0
 11
6.189488974388771
 21
10.73774466650838
 31
0.0
 12
6.451956160045001
 22
10.78148919745108
 32
0.0
 13
6.451956160045001
 23
10.78148919745108
 33
0.0
  0
MTEXT
  5
AED
330
A03
100
AcDbEntity
  8
Dimension (ANSI)
440
 16777216
100
AcDbMText
 10
5.254293588135454
 20
10.78148919745108
 30
0.0
 40
0.2666666706403096
 41
0.0
 46
0.0
 71
     5
 72
     1
  1
\A1;0.76{\PTYP.}
  7
ROMANS
 73
     1
 44
1.0
  0
POINT
  5
AEE
330
A03
100
AcDbEntity
  8
Defpoints
 62
     0
440
 16777216
100
AcDbPoint
 10
6.451956160045001
 20
10.70489306443842
 30
0.0
  0
POINT
  5
AEF
330
A03
100
AcDbEntity
  8
Defpoints
 62
     0
440
 16777216
100
AcDbPoint
 10
7.213456160044998
 20
10.72749072554007
 30
0.0
  0
POINT
  5
AF0
330
A03
100
AcDbEntity
  8
Defpoints
 62
     0
440
 16777216
100
AcDbPoint
 10
7.213456160044998
 20
10.78148919745108
 30
0.0
  0
ENDBLK
  5
A05
330
A03
100
AcDbEntity
  8
0
100
AcDbBlockEnd
  0
BLOCK
  5
AF3
330
AF2
100
AcDbEntity
  8
0
100
AcDbBlockBegin
  2
*D13
 70
     1
 10
0.0
 20
0.0
 30
0.0
  3
*D13
  1

  0
LINE
  5
BDB
330
AF2
100
AcDbEntity
  8
Dimension (ANSI)
440
 16777216
100
AcDbLine
 10
11.61862282671164
 20
8.727343782266357
 30
0.0
 11
15.12575851746416
 21
8.727343782266355
 31
0.0
  0
LINE
  5
BDC
330
AF2
100
AcDbEntity
  8
Dimension (ANSI)
440
 16777216
100
AcDbLine
 10
11.61862282671165
 20
14.10234378226633
 30
0.0
 11
15.12575851746417
 21
14.10234378226633
 31
0.0
  0
LINE
  5
BDD
330
AF2
100
AcDbEntity
  8
Dimension (ANSI)
440
 16777216
100
AcDbLine
 10
14.79242518413083
 20
8.989810967922585
 30
0.0
 11
14.79242518413083
 21
11.12767967475186
 31
0.0
  0
LINE
  5
BDE
330
AF2
100
AcDbEntity
  8
Dimension (ANSI)
440
 16777216
100
AcDbLine
 10
14.79242518413083
 20
13.8398765966101
 30
0.0
 11
14.79242518413083
 21
11.70200788978082
 31
0.0
  0
SOLID
  5
BDF
330
AF2
100
AcDbEntity
  8
Dimension (ANSI)
440
 16777216
100
AcDbTrace
 10
14.74868065318813
 20
8.989810967922585
 30
0.0
 11
14.83616971507354
 21
8.989810967922585
 31
0.0
 12
14.79242518413083
 22
8.727343782266355
 32
0.0
 13
14.79242518413083
 23
8.727343782266355
 33
0.0
  0
SOLID
  5
BE0
330
AF2
100
AcDbEntity
  8
Dimension (ANSI)
440
 16777216
100
AcDbTrace
 10
14.74868065318813
 20
13.8398765966101
 30
0.0
 11
14.83616971507354
 21
13.8398765966101
 31
0.0
 12
14.79242518413083
 22
14.10234378226633
 32
0.0
 13
14.79242518413083
 23
14.10234378226633
 33
0.0
  0
MTEXT
  5
BE1
330
AF2
100
AcDbEntity
  8
Dimension (ANSI)
440
 16777216
100
AcDbMText
 10
14.22099660418731
 20
11.61801838846848
 30
0.0
 40
0.2666666706403096
 41
0.0
 46
0.0
 71
     1
 72
     1
  1
\A1;(5.38)
  7
ROMANS
 73
     1
 44
1.0
  0
POINT
  5
BE2
330
AF2
100
AcDbEntity
  8
Defpoints
 62
     0
440
 16777216
100
AcDbPoint
 10
11.45195616004498
 20
8.727343782266357
 30
0.0
  0
POINT
  5
BE3
330
AF2
100
AcDbEntity
  8
Defpoints
 62
     0
440
 16777216
100
AcDbPoint
 10
11.45195616004499
 20
14.10234378226633
 30
0.0
  0
POINT
  5
BE4
330
AF2
100
AcDbEntity
  8
Defpoints
 62
     0
440
 16777216
100
AcDbPoint
 10
14.79242518413083
 20
14.10234378226633
 30
0.0
  0
ENDBLK
  5
AF4
330
AF2
100
AcDbEntity
  8
0
100
AcDbBlockEnd
  0
BLOCK
  5
BE7
330
BE6
100
AcDbEntity
  8
0
100
AcDbBlockBegin
  2
*D14
 70
     1
 10
0.0
 20
0.0
 30
0.0
  3
*D14
  1

  0
LINE
  5
CCF
330
BE6
100
AcDbEntity
  8
Dimension (ANSI)
440
 16777216
100
AcDbLine
 10
6.451956160045007
 20
13.89401044893301
 30
0.0
 11
6.451956160045007
 21
17.07477785450057
 31
0.0
  0
LINE
  5
CD0
330
BE6
100
AcDbEntity
  8
Dimension (ANSI)
440
 16777216
100
AcDbLine
 10
11.82695616004498
 20
13.894010448933
 30
0.0
 11
11.82695616004498
 21
17.07477785450057
 31
0.0
  0
LINE
  5
CD1
330
BE6
100
AcDbEntity
  8
Dimension (ANSI)
440
 16777216
100
AcDbLine
 10
6.714423345701237
 20
16.74144452116724
 30
0.0
 11
8.419107216192783
 21
16.74144452116724
 31
0.0
  0
LINE
  5
CD2
330
BE6
100
AcDbEntity
  8
Dimension (ANSI)
440
 16777216
100
AcDbLine
 10
11.56448897438875
 20
16.74144452116724
 30
0.0
 11
9.729943378704495
 21
16.74144452116724
 31
0.0
  0
SOLID
  5
CD3
330
BE6
100
AcDbEntity
  8
Dimension (ANSI)
440
 16777216
100
AcDbTrace
 10
6.714423345701237
 20
16.78518905210995
 30
0.0
 11
6.714423345701237
 21
16.69769999022454
 31
0.0
 12
6.451956160045007
 22
16.74144452116724
 32
0.0
 13
6.451956160045007
 23
16.74144452116724
 33
0.0
  0
SOLID
  5
CD4
330
BE6
100
AcDbEntity
  8
Dimension (ANSI)
440
 16777216
100
AcDbTrace
 10
11.56448897438875
 20
16.78518905210995
 30
0.0
 11
11.56448897438875
 21
16.69769999022454
 31
0.0
 12
11.82695616004498
 22
16.74144452116724
 32
0.0
 13
11.82695616004498
 23
16.74144452116724
 33
0.0
  0
MTEXT
  5
CD5
330
BE6
100
AcDbEntity
  8
Dimension (ANSI)
440
 16777216
100
AcDbMText
 10
8.503096717505119
 20
16.94461912736938
 30
0.0
 40
0.2666666706403096
 41
0.0
 46
0.0
 71
     1
 72
     1
  1
\A1;(5.38)
  7
ROMANS
 73
     1
 44
1.0
  0
POINT
  5
CD6
330
BE6
100
AcDbEntity
  8
Defpoints
 62
     0
440
 16777216
100
AcDbPoint
 10
6.451956160045007
 20
13.72734378226634
 30
0.0
  0
POINT
  5
CD7
330
BE6
100
AcDbEntity
  8
Defpoints
 62
     0
440
 16777216
100
AcDbPoint
 10
11.82695616004498
 20
13.72734378226633
 30
0.0
  0
POINT
  5
CD8
330
BE6
100
AcDbEntity
  8
Defpoints
 62
     0
440
 16777216
100
AcDbPoint
 10
11.82695616004498
 20
16.74144452116724
 30
0.0
  0
ENDBLK
  5
BE8
330
BE6
100
AcDbEntity
  8
0
100
AcDbBlockEnd
  0
BLOCK
  5
CDB
330
CDA
100
AcDbEntity
  8
0
100
AcDbBlockBegin
  2
*D15
 70
     1
 10
0.0
 20
0.0
 30
0.0
  3
*D15
  1

  0
LINE
  5
DD7
330
CDA
100
AcDbEntity
  8
Dimension (ANSI)
440
 16777216
100
AcDbLine
 10
6.451956160044998
 20
13.89401044893301
 30
0.0
 11
6.451956160044998
 21
16.21442547517971
 31
0.0
  0
LINE
  5
DD8
330
CDA
100
AcDbEntity
  8
Dimension (ANSI)
440
 16777216
100
AcDbLine
 10
6.826956160044996
 20
14.36796878226634
 30
0.0
 11
6.826956160044996
 21
16.21442547517971
 31
0.0
  0
LINE
  5
DD9
330
CDA
100
AcDbEntity
  8
Dimension (ANSI)
440
 16777216
100
AcDbLine
 10
7.089423345701226
 20
15.88109214184638
 30
0.0
 11
7.351890531357455
 21
15.88109214184638
 31
0.0
  0
LINE
  5
DDA
330
CDA
100
AcDbEntity
  8
Dimension (ANSI)
440
 16777216
100
AcDbLine
 10
6.189488974388768
 20
15.88109214184638
 30
0.0
 11
5.927021788732538
 21
15.88109214184638
 31
0.0
  0
SOLID
  5
DDB
330
CDA
100
AcDbEntity
  8
Dimension (ANSI)
440
 16777216
100
AcDbTrace
 10
7.089423345701226
 20
15.92483667278909
 30
0.0
 11
7.089423345701226
 21
15.83734761090368
 31
0.0
 12
6.826956160044996
 22
15.88109214184638
 32
0.0
 13
6.826956160044996
 23
15.88109214184638
 33
0.0
  0
SOLID
  5
DDC
330
CDA
100
AcDbEntity
  8
Dimension (ANSI)
440
 16777216
100
AcDbTrace
 10
6.189488974388768
 20
15.92483667278909
 30
0.0
 11
6.189488974388768
 21
15.83734761090368
 31
0.0
 12
6.451956160044998
 22
15.88109214184638
 32
0.0
 13
6.451956160044998
 23
15.88109214184638
 33
0.0
  0
MTEXT
  5
DDD
330
CDA
100
AcDbEntity
  8
Dimension (ANSI)
440
 16777216
100
AcDbMText
 10
5.271603707476682
 20
15.88109214184638
 30
0.0
 40
0.2666666706403096
 41
0.0
 46
0.0
 71
     5
 72
     1
  1
\A1;(0.38){\PTYP.}
  7
ROMANS
 73
     1
 44
1.0
  0
POINT
  5
DDE
330
CDA
100
AcDbEntity
  8
Defpoints
 62
     0
440
 16777216
100
AcDbPoint
 10
6.451956160044998
 20
13.72734378226634
 30
0.0
  0
POINT
  5
DDF
330
CDA
100
AcDbEntity
  8
Defpoints
 62
     0
440
 16777216
100
AcDbPoint
 10
6.826956160044996
 20
14.20130211559967
 30
0.0
  0
POINT
  5
DE0
330
CDA
100
AcDbEntity
  8
Defpoints
 62
     0
440
 16777216
100
AcDbPoint
 10
6.826956160044996
 20
15.88109214184638
 30
0.0
  0
ENDBLK
  5
CDC
330
CDA
100
AcDbEntity
  8
0
100
AcDbBlockEnd
  0
BLOCK
  5
DE3
330
DE2
100
AcDbEntity
  8
0
100
AcDbBlockBegin
  2
*D16
 70
     1
 10
0.0
 20
0.0
 30
0.0
  3
*D16
  1

  0
LINE
  5
EF7
330
DE2
100
AcDbEntity
  8
Dimension (ANSI)
440
 16777216
100
AcDbLine
 10
11.61862282671164
 20
8.727343782266364
 30
0.0
 11
14.22700186002794
 21
8.727343782266363
 31
0.0
  0
LINE
  5
EF8
330
DE2
100
AcDbEntity
  8
Dimension (ANSI)
440
 16777216
100
AcDbLine
 10
7.467581160044996
 20
9.102343782266363
 30
0.0
 11
14.22700186002794
 21
9.102343782266361
 31
0.0
  0
LINE
  5
EF9
330
DE2
100
AcDbEntity
  8
Dimension (ANSI)
440
 16777216
100
AcDbLine
 10
13.8936685266946
 20
9.36481096792259
 30
0.0
 11
13.8936685266946
 21
9.627278153578821
 31
0.0
  0
LINE
  5
EFA
330
DE2
100
AcDbEntity
  8
Dimension (ANSI)
440
 16777216
100
AcDbLine
 10
13.8936685266946
 20
8.464876596610134
 30
0.0
 11
13.8936685266946
 21
7.598051817308729
 31
0.0
  0
LINE
  5
EFB
330
DE2
100
AcDbEntity
  8
Dimension (ANSI)
440
 16777216
100
AcDbLine
 10
13.8936685266946
 20
7.598051817308729
 30
0.0
 11
13.63120134103837
 21
7.598051817308729
 31
0.0
  0
SOLID
  5
EFC
330
DE2
100
AcDbEntity
  8
Dimension (ANSI)
440
 16777216
100
AcDbTrace
 10
13.8499239957519
 20
9.36481096792259
 30
0.0
 11
13.93741305763731
 21
9.36481096792259
 31
0.0
 12
13.8936685266946
 22
9.102343782266361
 32
0.0
 13
13.8936685266946
 23
9.102343782266361
 33
0.0
  0
SOLID
  5
EFD
330
DE2
100
AcDbEntity
  8
Dimension (ANSI)
440
 16777216
100
AcDbTrace
 10
13.8499239957519
 20
8.464876596610134
 30
0.0
 11
13.93741305763731
 21
8.464876596610134
 31
0.0
 12
13.8936685266946
 22
8.727343782266363
 32
0.0
 13
13.8936685266946
 23
8.727343782266363
 33
0.0
  0
MTEXT
  5
EFE
330
DE2
100
AcDbEntity
  8
Dimension (ANSI)
440
 16777216
100
AcDbMText
 10
12.97578325978252
 20
7.598051817308731
 30
0.0
 40
0.2666666706403096
 41
0.0
 46
0.0
 71
     5
 72
     1
  1
\A1;(0.38){\PTYP.}
  7
ROMANS
 73
     1
 44
1.0
  0
POINT
  5
EFF
330
DE2
100
AcDbEntity
  8
Defpoints
 62
     0
440
 16777216
100
AcDbPoint
 10
11.45195616004498
 20
8.727343782266364
 30
0.0
  0
POINT
  5
F00
330
DE2
100
AcDbEntity
  8
Defpoints
 62
     0
440
 16777216
100
AcDbPoint
 10
7.300914493378329
 20
9.102343782266363
 30
0.0
  0
POINT
  5
F01
330
DE2
100
AcDbEntity
  8
Defpoints
 62
     0
440
 16777216
100
AcDbPoint
 10
13.8936685266946
 20
9.102343782266361
 30
0.0
  0
ENDBLK
  5
DE4
330
DE2
100
AcDbEntity
  8
0
100
AcDbBlockEnd
  0
BLOCK
  5
F04
330
F03
100
AcDbEntity
  8
0
100
AcDbBlockBegin
  2
*D17
 70
     1
 10
0.0
 20
0.0
 30
0.0
  3
*D17
  1

  0
LINE
  5
FE2
330
F03
100
AcDbEntity
  8
Dimension (ANSI)
440
 16777216
100
AcDbLine
 10
7.139456160044995
 20
9.353427115599691
 30
0.0
 11
7.139456160044995
 21
7.485834355960207
 31
0.0
  0
LINE
  5
FE3
330
F03
100
AcDbEntity
  8
Dimension (ANSI)
440
 16777216
100
AcDbLine
 10
11.13945616004497
 20
9.322177115599686
 30
0.0
 11
11.13945616004497
 21
7.485834355960207
 31
0.0
  0
LINE
  5
FE4
330
F03
100
AcDbEntity
  8
Dimension (ANSI)
440
 16777216
100
AcDbLine
 10
7.401923345701225
 20
7.81916768929354
 30
0.0
 11
8.422254058822417
 21
7.81916768929354
 31
0.0
  0
LINE
  5
FE5
330
F03
100
AcDbEntity
  8
Dimension (ANSI)
440
 16777216
100
AcDbLine
 10
10.87698897438874
 20
7.81916768929354
 30
0.0
 11
9.402931486255653
 21
7.81916768929354
 31
0.0
  0
SOLID
  5
FE6
330
F03
100
AcDbEntity
  8
Dimension (ANSI)
440
 16777216
100
AcDbTrace
 10
7.401923345701225
 20
7.862912220236245
 30
0.0
 11
7.401923345701225
 21
7.775423158350835
 31
0.0
 12
7.139456160044995
 22
7.81916768929354
 32
0.0
 13
7.139456160044995
 23
7.81916768929354
 33
0.0
  0
SOLID
  5
FE7
330
F03
100
AcDbEntity
  8
Dimension (ANSI)
440
 16777216
100
AcDbTrace
 10
10.87698897438874
 20
7.862912220236245
 30
0.0
 11
10.87698897438874
 21
7.775423158350835
 31
0.0
 12
11.13945616004497
 22
7.81916768929354
 32
0.0
 13
11.13945616004497
 23
7.81916768929354
 33
0.0
  0
MTEXT
  5
FE8
330
F03
100
AcDbEntity
  8
Dimension (ANSI)
440
 16777216
100
AcDbMText
 10
8.506243560134754
 20
7.952501024613695
 30
0.0
 40
0.2666666706403096
 41
0.0
 46
0.0
 71
     1
 72
     1
  1
\A1;4.00
  7
ROMANS
 73
     1
 44
1.0
  0
POINT
  5
FE9
330
F03
100
AcDbEntity
  8
Defpoints
 62
     0
440
 16777216
100
AcDbPoint
 10
7.139456160044995
 20
9.520093782266357
 30
0.0
  0
POINT
  5
FEA
330
F03
100
AcDbEntity
  8
Defpoints
 62
     0
440
 16777216
100
AcDbPoint
 10
11.13945616004497
 20
9.488843782266352
 30
0.0
  0
POINT
  5
FEB
330
F03
100
AcDbEntity
  8
Defpoints
 62
     0
440
 16777216
100
AcDbPoint
 10
11.13945616004497
 20
7.81916768929354
 30
0.0
  0
ENDBLK
  5
F05
330
F03
100
AcDbEntity
  8
0
100
AcDbBlockEnd
  0
BLOCK
  5
FEE
330
FED
100
AcDbEntity
  8
0
100
AcDbBlockBegin
  2
*D18
 70
     1
 10
0.0
 20
0.0
 30
0.0
  3
*D18
  1

  0
LINE
  5
10CC
330
FED
100
AcDbEntity
  8
Dimension (ANSI)
440
 16777216
100
AcDbLine
 10
7.078039493378329
 20
9.414843782266357
 30
0.0
 11
3.790580753700409
 21
9.414843782266359
 31
0.0
  0
LINE
  5
10CD
330
FED
100
AcDbEntity
  8
Dimension (ANSI)
440
 16777216
100
AcDbLine
 10
7.046789493378334
 20
13.41484378226636
 30
0.0
 11
3.79058075370041
 21
13.41484378226636
 31
0.0
  0
LINE
  5
10CE
330
FED
100
AcDbEntity
  8
Dimension (ANSI)
440
 16777216
100
AcDbLine
 10
4.123914087033742
 20
9.677310967922586
 30
0.0
 11
4.123914087033743
 21
11.24415717370424
 31
0.0
  0
LINE
  5
10CF
330
FED
100
AcDbEntity
  8
Dimension (ANSI)
440
 16777216
100
AcDbLine
 10
4.123914087033743
 20
13.15237659661013
 30
0.0
 11
4.123914087033743
 21
11.67880284696922
 31
0.0
  0
SOLID
  5
10D0
330
FED
100
AcDbEntity
  8
Dimension (ANSI)
440
 16777216
100
AcDbTrace
 10
4.080169556091037
 20
9.677310967922586
 30
0.0
 11
4.167658617976448
 21
9.677310967922586
 31
0.0
 12
4.123914087033742
 22
9.414843782266357
 32
0.0
 13
4.123914087033742
 23
9.414843782266357
 33
0.0
  0
SOLID
  5
10D1
330
FED
100
AcDbEntity
  8
Dimension (ANSI)
440
 16777216
100
AcDbTrace
 10
4.080169556091038
 20
13.15237659661013
 30
0.0
 11
4.167658617976448
 21
13.15237659661013
 31
0.0
 12
4.123914087033743
 22
13.41484378226636
 32
0.0
 13
4.123914087033743
 23
13.41484378226636
 33
0.0
  0
MTEXT
  5
10D2
330
FED
100
AcDbEntity
  8
Dimension (ANSI)
440
 16777216
100
AcDbMText
 10
3.71756487462946
 20
11.59481334565689
 30
0.0
 40
0.2666666706403096
 41
0.0
 46
0.0
 71
     1
 72
     1
  1
\A1;4.00
  7
ROMANS
 73
     1
 44
1.0
  0
POINT
  5
10D3
330
FED
100
AcDbEntity
  8
Defpoints
 62
     0
440
 16777216
100
AcDbPoint
 10
7.244706160044996
 20
9.414843782266357
 30
0.0
  0
POINT
  5
10D4
330
FED
100
AcDbEntity
  8
Defpoints
 62
     0
440
 16777216
100
AcDbPoint
 10
7.213456160045001
 20
13.41484378226636
 30
0.0
  0
POINT
  5
10D5
330
FED
100
AcDbEntity
  8
Defpoints
 62
     0
440
 16777216
100
AcDbPoint
 10
4.123914087033743
 20
13.41484378226636
 30
0.0
  0
ENDBLK
  5
FEF
330
FED
100
AcDbEntity
  8
0
100
AcDbBlockEnd
  0
BLOCK
  5
10D8
330
10D7
100
AcDbEntity
  8
0
100
AcDbBlockBegin
  2
*D19
 70
     1
 10
0.0
 20
0.0
 30
0.0
  3
*D19
  1

  0
LINE
  5
11BD
330
10D7
100
AcDbEntity
  8
Dimension (ANSI)
440
 16777216
100
AcDbLine
 10
7.386298345701232
 20
12.63707680461312
 30
0.0
 11
7.648765531357461
 21
12.63707680461312
 31
0.0
  0
LINE
  5
11BE
330
10D7
100
AcDbEntity
  8
Dimension (ANSI)
440
 16777216
100
AcDbLine
 10
6.189488974388775
 20
12.63707680461312
 30
0.0
 11
5.744632301852075
 21
12.63707680461312
 31
0.0
  0
SOLID
  5
11BF
330
10D7
100
AcDbEntity
  8
Dimension (ANSI)
440
 16777216
100
AcDbTrace
 10
7.386298345701232
 20
12.68082133555582
 30
0.0
 11
7.386298345701232
 21
12.59333227367041
 31
0.0
 12
7.123831160045002
 22
12.63707680461312
 32
0.0
 13
7.123831160045002
 23
12.63707680461312
 33
0.0
  0
SOLID
  5
11C0
330
10D7
100
AcDbEntity
  8
Dimension (ANSI)
440
 16777216
100
AcDbTrace
 10
6.189488974388775
 20
12.68082133555582
 30
0.0
 11
6.189488974388775
 21
12.59333227367041
 31
0.0
 12
6.451956160045005
 22
12.63707680461312
 32
0.0
 13
6.451956160045005
 23
12.63707680461312
 33
0.0
  0
MTEXT
  5
11C1
330
10D7
100
AcDbEntity
  8
Dimension (ANSI)
440
 16777216
100
AcDbMText
 10
5.254293588135459
 20
12.63707680461312
 30
0.0
 40
0.2666666706403096
 41
0.0
 46
0.0
 71
     5
 72
     1
  1
\A1;0.67{\PTYP.}
  7
ROMANS
 73
     1
 44
1.0
  0
POINT
  5
11C2
330
10D7
100
AcDbEntity
  8
Defpoints
 62
     0
440
 16777216
100
AcDbPoint
 10
6.451956160045005
 20
12.63707680461312
 30
0.0
  0
POINT
  5
11C3
330
10D7
100
AcDbEntity
  8
Defpoints
 62
     0
440
 16777216
100
AcDbPoint
 10
7.123831160045002
 20
12.63707680461312
 30
0.0
  0
POINT
  5
11C4
330
10D7
100
AcDbEntity
  8
Defpoints
 62
     0
440
 16777216
100
AcDbPoint
 10
7.123831160045002
 20
12.63707680461312
 30
0.0
  0
ENDBLK
  5
10D9
330
10D7
100
AcDbEntity
  8
0
100
AcDbBlockEnd
  0
BLOCK
  5
11C7
330
11C6
100
AcDbEntity
  8
0
100
AcDbBlockBegin
  2
*D20
 70
     1
 10
0.0
 20
0.0
 30
0.0
  3
*D20
  1

  0
LINE
  5
12C1
330
11C6
100
AcDbEntity
  8
Dimension (ANSI)
440
 16777216
100
AcDbLine
 10
7.54399902089836
 20
13.16800159661011
 30
0.0
 11
7.54399902089836
 21
12.90553441095388
 31
0.0
  0
LINE
  5
12C2
330
11C6
100
AcDbEntity
  8
Dimension (ANSI)
440
 16777216
100
AcDbLine
 10
7.543999020898361
 20
14.36481096792256
 30
0.0
 11
7.543999020898361
 21
15.12876033673282
 31
0.0
  0
LINE
  5
12C3
330
11C6
100
AcDbEntity
  8
Dimension (ANSI)
440
 16777216
100
AcDbLine
 10
7.543999020898361
 20
15.12876033673282
 30
0.0
 11
7.806466206554591
 21
15.12876033673282
 31
0.0
  0
SOLID
  5
12C4
330
11C6
100
AcDbEntity
  8
Dimension (ANSI)
440
 16777216
100
AcDbTrace
 10
7.500254489955655
 20
13.16800159661011
 30
0.0
 11
7.587743551841065
 21
13.16800159661011
 31
0.0
 12
7.54399902089836
 22
13.43046878226634
 32
0.0
 13
7.54399902089836
 23
13.43046878226634
 33
0.0
  0
SOLID
  5
12C5
330
11C6
100
AcDbEntity
  8
Dimension (ANSI)
440
 16777216
100
AcDbTrace
 10
7.500254489955656
 20
14.36481096792256
 30
0.0
 11
7.587743551841066
 21
14.36481096792256
 31
0.0
 12
7.543999020898361
 22
14.10234378226634
 32
0.0
 13
7.543999020898361
 23
14.10234378226634
 33
0.0
  0
MTEXT
  5
12C6
330
11C6
100
AcDbEntity
  8
Dimension (ANSI)
440
 16777216
100
AcDbMText
 10
8.296804920271206
 20
15.12876033673282
 30
0.0
 40
0.2666666706403096
 41
0.0
 46
0.0
 71
     5
 72
     1
  1
\A1;0.67{\PTYP.}
  7
ROMANS
 73
     1
 44
1.0
  0
POINT
  5
12C7
330
11C6
100
AcDbEntity
  8
Defpoints
 62
     0
440
 16777216
100
AcDbPoint
 10
8.236523980901397
 20
14.10234378226634
 30
0.0
  0
POINT
  5
12C8
330
11C6
100
AcDbEntity
  8
Defpoints
 62
     0
440
 16777216
100
AcDbPoint
 10
8.236523980901397
 20
13.43046878226634
 30
0.0
  0
POINT
  5
12C9
330
11C6
100
AcDbEntity
  8
Defpoints
 62
     0
440
 16777216
100
AcDbPoint
 10
7.54399902089836
 20
13.43046878226634
 30
0.0
  0
ENDBLK
  5
11C8
330
11C6
100
AcDbEntity
  8
0
100
AcDbBlockEnd
  0
ENDSEC
  0
SECTION
  2
ENTITIES
  0
LINE
  5
107
330
6C
100
AcDbEntity
  8
Visible (ANSI)
100
AcDbLine
 10
7.213456160044999
 20
11.32109378226635
 30
0.0
 11
7.139456160044997
 21
11.32109378226635
 31
0.0
  0
LINE
  5
108
330
6C
100
AcDbEntity
  8
Visible (ANSI)
100
AcDbLine
 10
7.213456160044999
 20
11.50859378226636
 30
0.0
 11
7.213456160044999
 21
11.32109378226635
 31
0.0
  0
LINE
  5
109
330
6C
100
AcDbEntity
  8
Visible (ANSI)
100
AcDbLine
 10
7.139456160044997
 20
11.32109378226635
 30
0.0
 11
7.139456160044998
 21
11.50859378226636
 31
0.0
  0
LINE
  5
10A
330
6C
100
AcDbEntity
  8
Visible (ANSI)
100
AcDbLine
 10
7.139456160044998
 20
11.50859378226636
 30
0.0
 11
7.213456160044999
 21
11.50859378226636
 31
0.0
  0
LINE
  5
10B
330
6C
100
AcDbEntity
  8
Visible (ANSI)
100
AcDbLine
 10
7.139456160044997
 20
11.32109378226635
 30
0.0
 11
7.139456160044995
 21
9.520093782266357
 31
0.0
  0
LINE
  5
10C
330
6C
100
AcDbEntity
  8
Visible (ANSI)
100
AcDbLine
 10
7.213456160044999
 20
11.32109378226635
 30
0.0
 11
7.213456160044995
 21
9.520093782266357
 31
0.0
  0
LINE
  5
10D
330
6C
100
AcDbEntity
  8
Visible (ANSI)
100
AcDbLine
 10
7.213456160045002
 20
13.34084378226635
 30
0.0
 11
7.213456160044999
 21
11.50859378226636
 31
0.0
  0
LINE
  5
10E
330
6C
100
AcDbEntity
  8
Visible (ANSI)
100
AcDbLine
 10
7.213456160045002
 20
13.34084378226635
 30
0.0
 11
7.139456160045001
 21
13.34084378226635
 31
0.0
  0
LINE
  5
10F
330
6C
100
AcDbEntity
  8
Visible (ANSI)
100
AcDbLine
 10
7.139456160045001
 20
13.34084378226635
 30
0.0
 11
7.139456160044998
 21
11.50859378226636
 31
0.0
  0
LINE
  5
110
330
6C
100
AcDbEntity
  8
Visible (ANSI)
100
AcDbLine
 10
9.045706160044995
 20
9.414843782266357
 30
0.0
 11
9.045706160044995
 21
9.488843782266357
 31
0.0
  0
LINE
  5
111
330
6C
100
AcDbEntity
  8
Visible (ANSI)
100
AcDbLine
 10
9.233206160044993
 20
9.488843782266357
 30
0.0
 11
9.233206160044993
 21
9.414843782266357
 31
0.0
  0
LINE
  5
112
330
6C
100
AcDbEntity
  8
Visible (ANSI)
100
AcDbLine
 10
9.045706160044995
 20
9.488843782266357
 30
0.0
 11
9.233206160044993
 21
9.488843782266357
 31
0.0
  0
LINE
  5
113
330
6C
100
AcDbEntity
  8
Visible (ANSI)
100
AcDbLine
 10
9.233206160044993
 20
9.414843782266357
 30
0.0
 11
9.19783116004498
 21
9.414843782266357
 31
0.0
  0
LINE
  5
114
330
6C
100
AcDbEntity
  8
Visible (ANSI)
100
AcDbLine
 10
9.081081160044996
 20
9.414843782266357
 30
0.0
 11
9.045706160044995
 21
9.414843782266357
 31
0.0
  0
LINE
  5
115
330
6C
100
AcDbEntity
  8
Visible (ANSI)
100
AcDbLine
 10
9.233206160044993
 20
9.414843782266357
 30
0.0
 11
11.06545616004499
 21
9.414843782266357
 31
0.0
  0
LINE
  5
116
330
6C
100
AcDbEntity
  8
Visible (ANSI)
100
AcDbLine
 10
11.06545616004499
 20
9.488843782266357
 30
0.0
 11
11.06545616004499
 21
9.414843782266357
 31
0.0
  0
LINE
  5
117
330
6C
100
AcDbEntity
  8
Visible (ANSI)
100
AcDbLine
 10
9.233206160044993
 20
9.488843782266357
 30
0.0
 11
11.06545616004499
 21
9.488843782266357
 31
0.0
  0
LINE
  5
118
330
6C
100
AcDbEntity
  8
Visible (ANSI)
100
AcDbLine
 10
7.244706160044994
 20
9.488843782266357
 30
0.0
 11
9.045706160044995
 21
9.488843782266357
 31
0.0
  0
LINE
  5
119
330
6C
100
AcDbEntity
  8
Visible (ANSI)
100
AcDbLine
 10
7.244706160044994
 20
9.414843782266357
 30
0.0
 11
9.045706160044995
 21
9.414843782266357
 31
0.0
  0
ARC
  5
11A
330
6C
100
AcDbEntity
  8
Visible (ANSI)
100
AcDbCircle
 10
7.244706160044994
 20
9.520093782266357
 30
0.0
 40
0.1052500000000004
100
AcDbArc
 50
180.0
 51
269.9999999999995
  0
ARC
  5
11B
330
6C
100
AcDbEntity
  8
Visible (ANSI)
100
AcDbCircle
 10
7.244706160044994
 20
9.520093782266357
 30
0.0
 40
0.0312500000000002
100
AcDbArc
 50
180.0
 51
269.9999999999983
  0
LINE
  5
11C
330
6C
100
AcDbEntity
  8
Visible (ANSI)
100
AcDbLine
 10
9.045706160044993
 20
13.34084378226635
 30
0.0
 11
9.045706160044995
 21
13.41484378226635
 31
0.0
  0
LINE
  5
11D
330
6C
100
AcDbEntity
  8
Visible (ANSI)
100
AcDbLine
 10
9.233206160044995
 20
13.41484378226635
 30
0.0
 11
9.233206160044995
 21
13.34084378226635
 31
0.0
  0
LINE
  5
11E
330
6C
100
AcDbEntity
  8
Visible (ANSI)
100
AcDbLine
 10
9.233206160044991
 20
13.34084378226635
 30
0.0
 11
9.045706160044995
 21
13.34084378226635
 31
0.0
  0
LINE
  5
11F
330
6C
100
AcDbEntity
  8
Visible (ANSI)
100
AcDbLine
 10
9.045706160044995
 20
13.41484378226635
 30
0.0
 11
9.081081160044998
 21
13.41484378226635
 31
0.0
  0
LINE
  5
120
330
6C
100
AcDbEntity
  8
Visible (ANSI)
100
AcDbLine
 10
9.197831160045007
 20
13.41484378226635
 30
0.0
 11
9.233206160044993
 21
13.41484378226635
 31
0.0
  0
LINE
  5
121
330
6C
100
AcDbEntity
  8
Visible (ANSI)
100
AcDbLine
 10
9.045706160044995
 20
13.41484378226635
 30
0.0
 11
7.213456160045002
 21
13.41484378226636
 31
0.0
  0
LINE
  5
122
330
6C
100
AcDbEntity
  8
Visible (ANSI)
100
AcDbLine
 10
7.213456160045001
 20
13.34084378226636
 30
0.0
 11
7.213456160045002
 21
13.41484378226636
 31
0.0
  0
LINE
  5
123
330
6C
100
AcDbEntity
  8
Visible (ANSI)
100
AcDbLine
 10
7.213456160045001
 20
13.34084378226636
 30
0.0
 11
9.045706160044993
 21
13.34084378226635
 31
0.0
  0
LINE
  5
124
330
6C
100
AcDbEntity
  8
Visible (ANSI)
100
AcDbLine
 10
9.233206160044995
 20
13.34084378226635
 30
0.0
 11
11.03420616004498
 21
13.34084378226635
 31
0.0
  0
LINE
  5
125
330
6C
100
AcDbEntity
  8
Visible (ANSI)
100
AcDbLine
 10
11.03420616004498
 20
13.41484378226635
 30
0.0
 11
9.233206160044995
 21
13.41484378226635
 31
0.0
  0
LINE
  5
126
330
6C
100
AcDbEntity
  8
Visible (ANSI)
100
AcDbLine
 10
11.06545616004498
 20
11.50859378226635
 30
0.0
 11
11.13945616004498
 21
11.50859378226635
 31
0.0
  0
LINE
  5
127
330
6C
100
AcDbEntity
  8
Visible (ANSI)
100
AcDbLine
 10
11.13945616004498
 20
11.32109378226635
 30
0.0
 11
11.06545616004498
 21
11.32109378226635
 31
0.0
  0
LINE
  5
128
330
6C
100
AcDbEntity
  8
Visible (ANSI)
100
AcDbLine
 10
11.06545616004498
 20
11.32109378226635
 30
0.0
 11
11.06545616004498
 21
11.50859378226635
 31
0.0
  0
LINE
  5
129
330
6C
100
AcDbEntity
  8
Visible (ANSI)
100
AcDbLine
 10
11.13945616004498
 20
11.50859378226635
 30
0.0
 11
11.13945616004498
 21
11.47321878226633
 31
0.0
  0
LINE
  5
12A
330
6C
100
AcDbEntity
  8
Visible (ANSI)
100
AcDbLine
 10
11.13945616004498
 20
11.35646878226636
 30
0.0
 11
11.13945616004498
 21
11.32109378226635
 31
0.0
  0
LINE
  5
12B
330
6C
100
AcDbEntity
  8
Visible (ANSI)
100
AcDbLine
 10
11.06545616004497
 20
9.488843782266352
 30
0.0
 11
11.06545616004498
 21
11.32109378226635
 31
0.0
  0
LINE
  5
12C
330
6C
100
AcDbEntity
  8
Visible (ANSI)
100
AcDbLine
 10
11.06545616004498
 20
11.50859378226635
 30
0.0
 11
11.06545616004498
 21
13.30959378226635
 31
0.0
  0
LINE
  5
12D
330
6C
100
AcDbEntity
  8
Visible (ANSI)
100
AcDbLine
 10
11.13945616004498
 20
11.50859378226635
 30
0.0
 11
11.13945616004498
 21
13.30959378226635
 31
0.0
  0
LINE
  5
12E
330
6C
100
AcDbEntity
  8
Visible (ANSI)
100
AcDbLine
 10
11.13945616004497
 20
9.488843782266352
 30
0.0
 11
11.13945616004498
 21
11.32109378226635
 31
0.0
  0
LINE
  5
12F
330
6C
100
AcDbEntity
  8
Visible (ANSI)
100
AcDbLine
 10
11.06545616004497
 20
9.488843782266352
 30
0.0
 11
11.13945616004497
 21
9.488843782266352
 31
0.0
  0
ARC
  5
130
330
6C
100
AcDbEntity
  8
Visible (ANSI)
100
AcDbCircle
 10
11.03420616004498
 20
13.30959378226635
 30
0.0
 40
0.1052500000000002
100
AcDbArc
 50
0.0
 51
89.99999999999896
  0
ARC
  5
131
330
6C
100
AcDbEntity
  8
Visible (ANSI)
100
AcDbCircle
 10
11.03420616004498
 20
13.30959378226635
 30
0.0
 40
0.0312499999999999
100
AcDbArc
 50
0.0
 51
90.0
  0
LINE
  5
132
330
6C
100
AcDbEntity
  8
Visible (ANSI)
100
AcDbLine
 10
11.08108116004498
 20
11.41484378226634
 30
0.0
 11
11.15508116004498
 21
11.34084378226634
 31
0.0
  0
LINE
  5
133
330
6C
100
AcDbEntity
  8
Visible (ANSI)
100
AcDbLine
 10
11.15508116004498
 20
11.48884378226634
 30
0.0
 11
11.08108116004498
 21
11.41484378226634
 31
0.0
  0
LINE
  5
134
330
6C
100
AcDbEntity
  8
Visible (ANSI)
100
AcDbLine
 10
9.213456160044987
 20
9.399218782266357
 30
0.0
 11
9.139456160044987
 21
9.473218782266357
 31
0.0
  0
LINE
  5
135
330
6C
100
AcDbEntity
  8
Visible (ANSI)
100
AcDbLine
 10
9.139456160044987
 20
9.473218782266357
 30
0.0
 11
9.065456160044988
 21
9.399218782266357
 31
0.0
  0
LINE
  5
136
330
6C
100
AcDbEntity
  8
Visible (ANSI)
100
AcDbLine
 10
9.065456160044995
 20
13.43046878226634
 30
0.0
 11
9.139456160044995
 21
13.35646878226634
 31
0.0
  0
LINE
  5
137
330
6C
100
AcDbEntity
  8
Visible (ANSI)
100
AcDbLine
 10
9.139456160044995
 20
13.35646878226634
 30
0.0
 11
9.213456160044994
 21
13.43046878226634
 31
0.0
  0
LINE
  5
138
330
6C
100
AcDbEntity
  8
Visible (ANSI)
100
AcDbLine
 10
11.15508116004498
 20
11.34084378226634
 30
0.0
 11
11.15508116004498
 21
9.524218782266354
 31
0.0
  0
LINE
  5
139
330
6C
100
AcDbEntity
  8
Visible (ANSI)
100
AcDbLine
 10
11.15508116004498
 20
13.30546878226633
 30
0.0
 11
11.15508116004498
 21
11.48884378226634
 31
0.0
  0
LINE
  5
13A
330
6C
100
AcDbEntity
  8
Visible (ANSI)
100
AcDbLine
 10
9.065456160044988
 20
9.399218782266357
 30
0.0
 11
7.248831160044995
 21
9.399218782266361
 31
0.0
  0
LINE
  5
13B
330
6C
100
AcDbEntity
  8
Visible (ANSI)
100
AcDbLine
 10
11.03008116004498
 20
9.399218782266354
 30
0.0
 11
9.213456160044987
 21
9.399218782266357
 31
0.0
  0
LINE
  5
13C
330
6C
100
AcDbEntity
  8
Visible (ANSI)
100
AcDbLine
 10
7.248831160045003
 20
13.43046878226634
 30
0.0
 11
9.065456160044995
 21
13.43046878226634
 31
0.0
  0
LINE
  5
13D
330
6C
100
AcDbEntity
  8
Visible (ANSI)
100
AcDbLine
 10
9.213456160044994
 20
13.43046878226634
 30
0.0
 11
11.03008116004499
 21
13.43046878226634
 31
0.0
  0
ARC
  5
13E
330
6C
100
AcDbEntity
  8
Visible (ANSI)
100
AcDbCircle
 10
11.03008116004498
 20
9.524218782266354
 30
0.0
 40
0.1249999999999994
100
AcDbArc
 50
270.0
 51
0.0
  0
ARC
  5
13F
330
6C
100
AcDbEntity
  8
Visible (ANSI)
100
AcDbCircle
 10
7.248831160044995
 20
9.524218782266359
 30
0.0
 40
0.1249999999999994
100
AcDbArc
 50
180.0
 51
269.9999999999996
  0
LINE
  5
140
330
6C
100
AcDbEntity
  8
Visible (ANSI)
100
AcDbLine
 10
7.123831160044995
 20
9.524218782266359
 30
0.0
 11
7.123831160045002
 21
13.30546878226634
 31
0.0
  0
ARC
  5
141
330
6C
100
AcDbEntity
  8
Visible (ANSI)
100
AcDbCircle
 10
7.248831160045002
 20
13.30546878226634
 30
0.0
 40
0.1249999999999984
100
AcDbArc
 50
89.99999999999957
 51
180.0
  0
ARC
  5
142
330
6C
100
AcDbEntity
  8
Visible (ANSI)
100
AcDbCircle
 10
11.03008116004499
 20
13.30546878226634
 30
0.0
 40
0.1249999999999987
100
AcDbArc
 50
0.0
 51
90.0
  0
ARC
  5
143
330
6C
100
AcDbEntity
  8
Visible (ANSI)
100
AcDbCircle
 10
11.45195616004498
 20
9.102343782266357
 30
0.0
 40
0.375
100
AcDbArc
 50
270.0
 51
0.0
  0
LINE
  5
144
330
6C
100
AcDbEntity
  8
Visible (ANSI)
100
AcDbLine
 10
11.45195616004498
 20
8.727343782266357
 30
0.0
 11
6.826956160044996
 21
8.727343782266366
 31
0.0
  0
ARC
  5
145
330
6C
100
AcDbEntity
  8
Visible (ANSI)
100
AcDbCircle
 10
6.826956160044995
 20
9.102343782266363
 30
0.0
 40
0.3749999999999983
100
AcDbArc
 50
180.0
 51
270.0
  0
LINE
  5
146
330
6C
100
AcDbEntity
  8
Visible (ANSI)
100
AcDbLine
 10
6.451956160044998
 20
9.102343782266364
 30
0.0
 11
6.451956160045005
 21
13.72734378226634
 31
0.0
  0
ARC
  5
147
330
6C
100
AcDbEntity
  8
Visible (ANSI)
100
AcDbCircle
 10
6.826956160045003
 20
13.72734378226634
 30
0.0
 40
0.3749999999999991
100
AcDbArc
 50
90.0
 51
180.0
  0
LINE
  5
148
330
6C
100
AcDbEntity
  8
Visible (ANSI)
100
AcDbLine
 10
6.826956160045003
 20
14.10234378226634
 30
0.0
 11
11.45195616004498
 21
14.10234378226633
 31
0.0
  0
ARC
  5
149
330
6C
100
AcDbEntity
  8
Visible (ANSI)
100
AcDbCircle
 10
11.45195616004498
 20
13.72734378226633
 30
0.0
 40
0.374999999999999
100
AcDbArc
 50
0.0
 51
90.0
  0
LINE
  5
14A
330
6C
100
AcDbEntity
  8
Visible (ANSI)
100
AcDbLine
 10
11.82695616004498
 20
13.72734378226633
 30
0.0
 11
11.82695616004497
 21
9.102343782266355
 31
0.0
  0
CIRCLE
  5
14B
330
6C
100
AcDbEntity
  8
Visible (ANSI)
100
AcDbCircle
 10
6.826956160044996
 20
9.102343782266363
 30
0.0
 40
0.1406249999999995
  0
CIRCLE
  5
14C
330
6C
100
AcDbEntity
  8
Visible (ANSI)
100
AcDbCircle
 10
6.826956160045003
 20
13.72734378226634
 30
0.0
 40
0.1406249999999995
  0
CIRCLE
  5
14D
330
6C
100
AcDbEntity
  8
Visible (ANSI)
100
AcDbCircle
 10
11.45195616004498
 20
9.102343782266352
 30
0.0
 40
0.1406249999999995
  0
CIRCLE
  5
14E
330
6C
100
AcDbEntity
  8
Visible (ANSI)
100
AcDbCircle
 10
11.45195616004498
 20
13.72734378226633
 30
0.0
 40
0.1406249999999995
  0
MTEXT
  5
150
330
6C
100
AcDbEntity
  8
Symbol (ANSI)
100
AcDbMText
 10
7.92976809085711
 20
4.748354129087508
 30
0.0
 40
0.3200000039548698
 41
0.0
 46
0.0
 71
     7
 72
     1
  1
FRONT VIEW
  7
Text Style168
 73
     1
 44
1.0
  0
LINE
  5
152
330
6C
100
AcDbEntity
  8
Symbol (ANSI)
370
    30
100
AcDbLine
 10
7.897768008541412
 20
4.683096429421135
 30
0.0
 11
10.47047468663655
 21
4.683096429421135
 31
0.0
  0
LINE
  5
153
330
6C
100
AcDbEntity
  8
Visible (ANSI)
100
AcDbLine
 10
7.139456160049537
 20
26.63609018481273
 30
0.0
 11
7.139456160049537
 21
20.88609018481273
 31
0.0
  0
LINE
  5
154
330
6C
100
AcDbEntity
  8
Visible (ANSI)
100
AcDbLine
 10
11.13945616004952
 20
26.63609018481273
 30
0.0
 11
11.13945616004952
 21
20.88609018481269
 31
0.0
  0
LINE
  5
155
330
6C
100
AcDbEntity
  8
Visible (ANSI)
100
AcDbLine
 10
7.213456160049537
 20
20.88609018481275
 30
0.0
 11
7.213456160049537
 21
26.63609018481278
 31
0.0
  0
LINE
  5
156
330
6C
100
AcDbEntity
  8
Visible (ANSI)
100
AcDbLine
 10
6.451956160049541
 20
20.88609018481284
 30
0.0
 11
6.451956160049541
 21
20.76109018481284
 31
0.0
  0
LINE
  5
157
330
6C
100
AcDbEntity
  8
Visible (ANSI)
100
AcDbLine
 10
6.826956160049539
 20
20.76109018481295
 30
0.0
 11
6.45195616004954
 21
20.76109018481284
 31
0.0
  0
LINE
  5
158
330
6C
100
AcDbEntity
  8
Visible (ANSI)
100
AcDbLine
 10
6.45195616004954
 20
20.88609018481284
 30
0.0
 11
6.826956160049539
 21
20.88609018481295
 31
0.0
  0
LINE
  5
159
330
6C
100
AcDbEntity
  8
Visible (ANSI)
100
AcDbLine
 10
6.826956160049539
 20
20.76109018481295
 30
0.0
 11
11.45195616004952
 21
20.76109018481295
 31
0.0
  0
LINE
  5
15A
330
6C
100
AcDbEntity
  8
Visible (ANSI)
100
AcDbLine
 10
11.45195616004952
 20
20.88609018481295
 30
0.0
 11
6.826956160049539
 21
20.88609018481295
 31
0.0
  0
LINE
  5
15B
330
6C
100
AcDbEntity
  8
Visible (ANSI)
100
AcDbLine
 10
11.82695616004952
 20
20.76109018481284
 30
0.0
 11
11.45195616004952
 21
20.76109018481295
 31
0.0
  0
LINE
  5
15C
330
6C
100
AcDbEntity
  8
Visible (ANSI)
100
AcDbLine
 10
11.82695616004952
 20
20.88609018481283
 30
0.0
 11
11.82695616004952
 21
20.76109018481284
 31
0.0
  0
LINE
  5
15D
330
6C
100
AcDbEntity
  8
Visible (ANSI)
100
AcDbLine
 10
11.45195616004952
 20
20.88609018481295
 30
0.0
 11
11.82695616004952
 21
20.88609018481284
 31
0.0
  0
LINE
  5
15E
330
6C
100
AcDbEntity
  8
Visible (ANSI)
100
AcDbLine
 10
6.826956160049537
 20
26.63609018481296
 30
0.0
 11
6.451956160049538
 21
26.63609018481285
 31
0.0
  0
LINE
  5
15F
330
6C
100
AcDbEntity
  8
Visible (ANSI)
100
AcDbLine
 10
6.451956160049538
 20
26.76109018481285
 30
0.0
 11
6.826956160049538
 21
26.76109018481296
 31
0.0
  0
LINE
  5
160
330
6C
100
AcDbEntity
  8
Visible (ANSI)
100
AcDbLine
 10
6.451956160049538
 20
26.76109018481285
 30
0.0
 11
6.451956160049538
 21
26.63609018481285
 31
0.0
  0
LINE
  5
161
330
6C
100
AcDbEntity
  8
Visible (ANSI)
100
AcDbLine
 10
6.826956160049538
 20
26.63609018481296
 30
0.0
 11
11.45195616004952
 21
26.63609018481296
 31
0.0
  0
LINE
  5
162
330
6C
100
AcDbEntity
  8
Visible (ANSI)
100
AcDbLine
 10
11.45195616004952
 20
26.76109018481296
 30
0.0
 11
6.826956160049537
 21
26.76109018481296
 31
0.0
  0
LINE
  5
163
330
6C
100
AcDbEntity
  8
Visible (ANSI)
100
AcDbLine
 10
11.82695616004952
 20
26.63609018481285
 30
0.0
 11
11.45195616004952
 21
26.63609018481296
 31
0.0
  0
LINE
  5
164
330
6C
100
AcDbEntity
  8
Visible (ANSI)
100
AcDbLine
 10
11.82695616004952
 20
26.76109018481285
 30
0.0
 11
11.82695616004952
 21
26.63609018481285
 31
0.0
  0
LINE
  5
165
330
6C
100
AcDbEntity
  8
Visible (ANSI)
100
AcDbLine
 10
11.45195616004952
 20
26.76109018481296
 30
0.0
 11
11.82695616004952
 21
26.76109018481285
 31
0.0
  0
MTEXT
  5
166
330
6C
100
AcDbEntity
  8
Symbol (ANSI)
100
AcDbMText
 10
8.129670189567361
 20
19.40398353018735
 30
0.0
 40
0.3200000039548698
 41
0.0
 46
0.0
 71
     7
 72
     1
  1
TOP VIEW
  7
Text Style168
 73
     1
 44
1.0
  0
LINE
  5
167
330
6C
100
AcDbEntity
  8
Symbol (ANSI)
370
    30
100
AcDbLine
 10
8.129926190225885
 20
19.33872583052097
 30
0.0
 11
10.14898612987317
 21
19.33872583052097
 31
0.0
  0
LINE
  5
168
330
6C
100
AcDbEntity
  8
Visible (ANSI)
100
AcDbLine
 10
23.33066103914544
 20
9.414843782266355
 30
0.0
 11
29.08066103914545
 21
9.414843782266355
 31
0.0
  0
LINE
  5
169
330
6C
100
AcDbEntity
  8
Visible (ANSI)
100
AcDbLine
 10
23.33066103914541
 20
13.41484378226635
 30
0.0
 11
29.08066103914545
 21
13.41484378226635
 31
0.0
  0
LINE
  5
16A
330
6C
100
AcDbEntity
  8
Visible (ANSI)
100
AcDbLine
 10
29.08066103914548
 20
9.488843782266348
 30
0.0
 11
23.33066103914545
 21
9.48884378226635
 31
0.0
  0
LINE
  5
16B
330
6C
100
AcDbEntity
  8
Visible (ANSI)
100
AcDbLine
 10
23.20566103914556
 20
8.727343782266352
 30
0.0
 11
23.20566103914567
 21
9.10234378226635
 31
0.0
  0
LINE
  5
16C
330
6C
100
AcDbEntity
  8
Visible (ANSI)
100
AcDbLine
 10
23.33066103914556
 20
8.727343782266354
 30
0.0
 11
23.20566103914556
 21
8.727343782266354
 31
0.0
  0
LINE
  5
16D
330
6C
100
AcDbEntity
  8
Visible (ANSI)
100
AcDbLine
 10
23.33066103914567
 20
9.10234378226635
 30
0.0
 11
23.33066103914556
 21
8.727343782266352
 31
0.0
  0
LINE
  5
16E
330
6C
100
AcDbEntity
  8
Visible (ANSI)
100
AcDbLine
 10
23.33066103914556
 20
14.10234378226633
 30
0.0
 11
23.20566103914556
 21
14.10234378226633
 31
0.0
  0
LINE
  5
16F
330
6C
100
AcDbEntity
  8
Visible (ANSI)
100
AcDbLine
 10
23.20566103914567
 20
13.72734378226633
 30
0.0
 11
23.20566103914556
 21
14.10234378226633
 31
0.0
  0
LINE
  5
170
330
6C
100
AcDbEntity
  8
Visible (ANSI)
100
AcDbLine
 10
23.33066103914556
 20
14.10234378226633
 30
0.0
 11
23.33066103914567
 21
13.72734378226633
 31
0.0
  0
LINE
  5
171
330
6C
100
AcDbEntity
  8
Visible (ANSI)
100
AcDbLine
 10
23.20566103914567
 20
13.72734378226633
 30
0.0
 11
23.20566103914567
 21
9.102343782266352
 31
0.0
  0
LINE
  5
172
330
6C
100
AcDbEntity
  8
Visible (ANSI)
100
AcDbLine
 10
23.33066103914567
 20
9.102343782266352
 30
0.0
 11
23.33066103914567
 21
13.72734378226633
 31
0.0
  0
LINE
  5
173
330
6C
100
AcDbEntity
  8
Visible (ANSI)
100
AcDbLine
 10
29.20566103914556
 20
14.10234378226634
 30
0.0
 11
29.08066103914556
 21
14.10234378226634
 31
0.0
  0
LINE
  5
174
330
6C
100
AcDbEntity
  8
Visible (ANSI)
100
AcDbLine
 10
29.08066103914567
 20
13.72734378226634
 30
0.0
 11
29.08066103914556
 21
14.10234378226634
 31
0.0
  0
LINE
  5
175
330
6C
100
AcDbEntity
  8
Visible (ANSI)
100
AcDbLine
 10
29.20566103914556
 20
14.10234378226634
 30
0.0
 11
29.20566103914568
 21
13.72734378226634
 31
0.0
  0
LINE
  5
176
330
6C
100
AcDbEntity
  8
Visible (ANSI)
100
AcDbLine
 10
29.08066103914567
 20
13.72734378226634
 30
0.0
 11
29.08066103914567
 21
9.102343782266357
 31
0.0
  0
LINE
  5
177
330
6C
100
AcDbEntity
  8
Visible (ANSI)
100
AcDbLine
 10
29.20566103914568
 20
9.102343782266357
 30
0.0
 11
29.20566103914568
 21
13.72734378226634
 31
0.0
  0
LINE
  5
178
330
6C
100
AcDbEntity
  8
Visible (ANSI)
100
AcDbLine
 10
29.08066103914556
 20
8.727343782266357
 30
0.0
 11
29.08066103914567
 21
9.102343782266357
 31
0.0
  0
LINE
  5
179
330
6C
100
AcDbEntity
  8
Visible (ANSI)
100
AcDbLine
 10
29.20566103914556
 20
8.727343782266359
 30
0.0
 11
29.08066103914556
 21
8.727343782266359
 31
0.0
  0
LINE
  5
17A
330
6C
100
AcDbEntity
  8
Visible (ANSI)
100
AcDbLine
 10
29.20566103914568
 20
9.102343782266357
 30
0.0
 11
29.20566103914556
 21
8.727343782266357
 31
0.0
  0
MTEXT
  5
17B
330
6C
100
AcDbEntity
  8
Symbol (ANSI)
100
AcDbMText
 10
24.41143599732221
 20
4.57475230646763
 30
0.0
 40
0.3200000039548698
 41
0.0
 46
0.0
 71
     7
 72
     1
  1
RIGHT SIDE VIEW
  7
Text Style168
 73
     1
 44
1.0
  0
LINE
  5
17C
330
6C
100
AcDbEntity
  8
Symbol (ANSI)
370
    30
100
AcDbLine
 10
24.37943591500652
 20
4.508975968170392
 30
0.0
 11
27.96452495024094
 21
4.508975968170392
 31
0.0
  0
LINE
  5
17D
330
6C
100
AcDbEntity
  8
Visible (ANSI)
100
AcDbLine
 10
35.06877334675298
 20
19.52426341656522
 30
0.0
 11
35.02457917292883
 21
19.4988136844532
 31
0.0
  0
LINE
  5
17E
330
6C
100
AcDbEntity
  8
Visible (ANSI)
100
AcDbLine
 10
35.01644744494516
 20
19.55439589938585
 30
0.0
 11
35.06877334675298
 21
19.52426341656522
 31
0.0
  0
LINE
  5
17F
330
6C
100
AcDbEntity
  8
Visible (ANSI)
100
AcDbLine
 10
34.97225327112101
 20
19.52894616727382
 30
0.0
 11
35.01644744494516
 21
19.55439589938585
 31
0.0
  0
LINE
  5
180
330
6C
100
AcDbEntity
  8
Visible (ANSI)
100
AcDbLine
 10
35.02457917292883
 20
19.4988136844532
 30
0.0
 11
34.97225327112101
 21
19.52894616727382
 31
0.0
  0
LINE
  5
181
330
6C
100
AcDbEntity
  8
Visible (ANSI)
100
AcDbLine
 10
35.06877334675298
 20
19.6775535024732
 30
0.0
 11
35.06877334675298
 21
19.52426341656522
 31
0.0
  0
LINE
  5
182
330
6C
100
AcDbEntity
  8
Visible (ANSI)
100
AcDbLine
 10
35.01644744494516
 20
19.55439589938585
 30
0.0
 11
35.01644744494516
 21
19.65678652106979
 31
0.0
  0
LINE
  5
183
330
6C
100
AcDbEntity
  8
Visible (ANSI)
100
AcDbLine
 10
35.02457917292883
 20
19.65210377036117
 30
0.0
 11
35.06877334675298
 21
19.6775535024732
 31
0.0
  0
LINE
  5
184
330
6C
100
AcDbEntity
  8
Visible (ANSI)
100
AcDbLine
 10
34.97225327112101
 20
19.6822362531818
 30
0.0
 11
35.02457917292883
 21
19.65210377036117
 31
0.0
  0
LINE
  5
185
330
6C
100
AcDbEntity
  8
Visible (ANSI)
100
AcDbLine
 10
34.97225327112101
 20
19.52894616727382
 30
0.0
 11
34.97225327112101
 21
18.05654379543241
 31
0.0
  0
LINE
  5
186
330
6C
100
AcDbEntity
  8
Visible (ANSI)
100
AcDbLine
 10
35.02457917292883
 20
19.4988136844532
 30
0.0
 11
35.02457917292883
 21
18.02641131261178
 31
0.0
  0
LINE
  5
187
330
6C
100
AcDbEntity
  8
Visible (ANSI)
100
AcDbLine
 10
35.02457917292883
 20
21.15005448985392
 30
0.0
 11
35.02457917292883
 21
19.65210377036117
 31
0.0
  0
LINE
  5
188
330
6C
100
AcDbEntity
  8
Visible (ANSI)
100
AcDbLine
 10
35.02457917292883
 20
21.15005448985392
 30
0.0
 11
34.97225327112102
 21
21.18018697267455
 31
0.0
  0
LINE
  5
189
330
6C
100
AcDbEntity
  8
Visible (ANSI)
100
AcDbLine
 10
34.97225327112102
 20
21.18018697267455
 30
0.0
 11
34.97225327112101
 21
19.6822362531818
 31
0.0
  0
LINE
  5
18A
330
6C
100
AcDbEntity
  8
Visible (ANSI)
100
AcDbLine
 10
34.99039062290477
 20
21.1906315789241
 30
0.0
 11
34.97225327112102
 21
21.18018697267455
 31
0.0
  0
LINE
  5
18B
330
6C
100
AcDbEntity
  8
Visible Narrow (ANSI)
100
AcDbLine
 10
34.97225327112101
 20
18.05654379543241
 30
0.0
 11
35.02457917292883
 21
18.02641131261178
 31
0.0
  0
LINE
  5
18C
330
6C
100
AcDbEntity
  8
Visible Narrow (ANSI)
100
AcDbLine
 10
35.02457917292883
 20
18.02641131261178
 30
0.0
 11
37.73494139610941
 21
19.58720511273934
 31
0.0
  0
LINE
  5
18D
330
6C
100
AcDbEntity
  8
Visible Narrow (ANSI)
100
AcDbLine
 10
37.74835449405981
 20
19.5439311223772
 30
0.0
 11
35.04667625984091
 21
17.98813809890445
 31
0.0
  0
ELLIPSE
  5
18E
330
6C
100
AcDbEntity
  8
Visible (ANSI)
100
AcDbEllipse
 10
35.04667625984091
 20
18.01368644655578
 30
0.0
 11
0.0525231402692643
 21
-0.0912079066542768
 31
0.0
210
0.0
220
0.0
230
1.0
 40
0.5780931159158106
 41
3.928924525409932
 42
5.49972085220485
  0
LINE
  5
18F
330
6C
100
AcDbEntity
  8
Visible Narrow (ANSI)
100
AcDbLine
 10
35.04667625984091
 20
17.98813809890445
 30
0.0
 11
35.04667625984091
 21
17.9276396116661
 31
0.0
  0
ELLIPSE
  5
190
330
6C
100
AcDbEntity
  8
Visible (ANSI)
100
AcDbEllipse
 10
35.04667625984091
 20
18.01368644655578
 30
0.0
 11
0.0155947566120144
 21
-0.027080732379536
 31
0.0
210
0.0
220
0.0
230
1.0
 40
0.5780931159158105
 41
3.928924525409804
 42
5.499720852204849
  0
LINE
  5
191
330
6C
100
AcDbEntity
  8
Visible (ANSI)
100
AcDbLine
 10
36.32017557275807
 20
17.25477861836456
 30
0.0
 11
36.36436974658222
 21
17.28022835047658
 31
0.0
  0
LINE
  5
192
330
6C
100
AcDbEntity
  8
Visible (ANSI)
100
AcDbLine
 10
36.32017557275807
 20
17.19428013112621
 30
0.0
 11
36.32017557275807
 21
17.25477861836456
 31
0.0
  0
LINE
  5
193
330
6C
100
AcDbEntity
  8
Visible (ANSI)
100
AcDbLine
 10
36.36436974658222
 20
17.21972986323824
 30
0.0
 11
36.32017557275807
 21
17.19428013112621
 31
0.0
  0
LINE
  5
194
330
6C
100
AcDbEntity
  8
Visible (ANSI)
100
AcDbLine
 10
36.36436974658222
 20
17.21972986323824
 30
0.0
 11
36.36436974658222
 21
17.28022835047658
 31
0.0
  0
LINE
  5
195
330
6C
100
AcDbEntity
  8
Visible (ANSI)
100
AcDbLine
 10
36.49695226805472
 20
17.20387915414054
 30
0.0
 11
36.45275809423057
 21
17.17842942202851
 31
0.0
  0
LINE
  5
196
330
6C
100
AcDbEntity
  8
Visible (ANSI)
100
AcDbLine
 10
36.45275809423057
 20
17.17842942202851
 30
0.0
 11
36.45275809423057
 21
17.11793093479016
 31
0.0
  0
LINE
  5
197
330
6C
100
AcDbEntity
  8
Visible (ANSI)
100
AcDbLine
 10
36.36436974658222
 20
17.28022835047658
 30
0.0
 11
36.49695226805472
 21
17.20387915414054
 31
0.0
  0
LINE
  5
198
330
6C
100
AcDbEntity
  8
Visible (ANSI)
100
AcDbLine
 10
36.38922370272692
 20
17.20541742177655
 30
0.0
 11
36.36436974658222
 21
17.21972986323824
 31
0.0
  0
LINE
  5
199
330
6C
100
AcDbEntity
  8
Visible (ANSI)
100
AcDbLine
 10
36.45275809423057
 20
17.11793093479016
 30
0.0
 11
37.74835449405981
 21
16.37184658819427
 31
0.0
  0
LINE
  5
19A
330
6C
100
AcDbEntity
  8
Visible (ANSI)
100
AcDbLine
 10
37.74835449405981
 20
16.43234507543262
 30
0.0
 11
37.74835449405981
 21
16.37184658819427
 31
0.0
  0
LINE
  5
19B
330
6C
100
AcDbEntity
  8
Visible (ANSI)
100
AcDbLine
 10
36.45275809423057
 20
17.17842942202851
 30
0.0
 11
37.74835449405981
 21
16.43234507543262
 31
0.0
  0
LINE
  5
19C
330
6C
100
AcDbEntity
  8
Visible (ANSI)
100
AcDbLine
 10
35.04667625984091
 20
17.98813809890445
 30
0.0
 11
36.32017557275807
 21
17.25477861836456
 31
0.0
  0
LINE
  5
19D
330
6C
100
AcDbEntity
  8
Visible (ANSI)
100
AcDbLine
 10
35.04667625984091
 20
17.9276396116661
 30
0.0
 11
36.32017557275807
 21
17.19428013112621
 31
0.0
  0
LINE
  5
19E
330
6C
100
AcDbEntity
  8
Visible (ANSI)
100
AcDbLine
 10
37.74835449405981
 20
16.37184658819427
 30
0.0
 11
37.76614893134659
 21
16.38209372311831
 31
0.0
  0
LINE
  5
19F
330
6C
100
AcDbEntity
  8
Visible (ANSI)
100
AcDbLine
 10
38.33101048175759
 20
16.70737585635929
 30
0.0
 11
41.90260683353016
 21
18.76412140672458
 31
0.0
  0
LINE
  5
1A0
330
6C
100
AcDbEntity
  8
Visible (ANSI)
100
AcDbLine
 10
41.90260683353016
 20
18.76435492832167
 30
0.0
 11
41.90260683353016
 21
18.76412140672458
 31
0.0
  0
LINE
  5
1A1
330
6C
100
AcDbEntity
  8
Visible (ANSI)
100
AcDbLine
 10
40.57390761549549
 20
22.76133160749146
 30
0.0
 11
40.56281625987677
 21
22.75494452057863
 31
0.0
  0
LINE
  5
1A2
330
6C
100
AcDbEntity
  8
Visible (ANSI)
100
AcDbLine
 10
40.56281625987677
 20
22.75494452057863
 30
0.0
 11
40.43023373840428
 21
22.83129371691468
 31
0.0
  0
LINE
  5
1A3
330
6C
100
AcDbEntity
  8
Visible (ANSI)
100
AcDbLine
 10
40.43023373840428
 20
22.83129371691468
 30
0.0
 11
40.441325094023
 21
22.83768080382751
 31
0.0
  0
LINE
  5
1A4
330
6C
100
AcDbEntity
  8
Visible (ANSI)
100
AcDbLine
 10
36.45275809423057
 20
20.34999414376193
 30
0.0
 11
36.45275809423057
 21
20.32762094692198
 31
0.0
  0
LINE
  5
1A5
330
6C
100
AcDbEntity
  8
Visible (ANSI)
100
AcDbLine
 10
35.02457917292884
 20
21.15005448985392
 30
0.0
 11
35.02457917292884
 21
21.17242768669389
 31
0.0
  0
LINE
  5
1A6
330
6C
100
AcDbEntity
  8
Visible (ANSI)
100
AcDbLine
 10
35.02457917292884
 20
21.15005448985392
 30
0.0
 11
36.30929761694023
 21
20.41023434139853
 31
0.0
  0
LINE
  5
1A7
330
6C
100
AcDbEntity
  8
Visible (ANSI)
100
AcDbLine
 10
36.45275809423057
 20
20.32762094692198
 30
0.0
 11
37.72625740714771
 21
19.59426146638209
 31
0.0
  0
LINE
  5
1A8
330
6C
100
AcDbEntity
  8
Visible (ANSI)
100
AcDbLine
 10
35.55679299397691
 20
21.51703453336899
 30
0.0
 11
39.14439736520611
 21
23.582998489048
 31
0.0
  0
LINE
  5
1A9
330
6C
100
AcDbEntity
  8
Visible Narrow (ANSI)
100
AcDbLine
 10
37.72625740714771
 20
19.59426146638209
 30
0.0
 11
37.72625740714771
 21
19.6009086578738
 31
0.0
  0
LINE
  5
1AA
330
6C
100
AcDbEntity
  8
Visible Narrow (ANSI)
100
AcDbLine
 10
37.75404033410711
 20
19.55271399515357
 30
0.0
 11
37.7483544940598
 21
19.55598825267475
 31
0.0
  0
LINE
  5
1AB
330
6C
100
AcDbEntity
  8
Visible Narrow (ANSI)
100
AcDbLine
 10
37.96912128602278
 20
19.79461596001737
 30
0.0
 11
38.00089901104932
 21
19.81291553480459
 31
0.0
  0
LINE
  5
1AC
330
6C
100
AcDbEntity
  8
Visible Narrow (ANSI)
100
AcDbLine
 10
38.21343031743634
 20
19.93530417441328
 30
0.0
 11
41.84643634891427
 21
22.0274132073907
 31
0.0
  0
LINE
  5
1AD
330
6C
100
AcDbEntity
  8
Visible Narrow (ANSI)
100
AcDbLine
 10
41.92083037380859
 20
21.89849234446651
 30
0.0
 11
38.28750653992716
 21
19.80620030125645
 31
0.0
  0
LINE
  5
1AE
330
6C
100
AcDbEntity
  8
Visible Narrow (ANSI)
100
AcDbLine
 10
38.07455377400399
 20
19.68356895924237
 30
0.0
 11
38.04402411993672
 21
19.6659881007207
 31
0.0
  0
ELLIPSE
  5
1AF
330
6C
100
AcDbEntity
  8
Visible (ANSI)
100
AcDbEllipse
 10
37.72625740714771
 20
19.56871311873076
 30
0.0
 11
0.0155947566120101
 21
-0.0270807323795364
 31
0.0
210
0.0
220
0.0
230
1.0
 40
0.5780931159158073
 41
1.731339078844714
 42
2.358128198615409
  0
ELLIPSE
  5
1B0
330
6C
100
AcDbEntity
  8
Visible (ANSI)
100
AcDbEllipse
 10
37.72625740714771
 20
19.56871311873076
 30
0.0
 11
0.0155947566120126
 21
-0.0270807323795371
 31
0.0
210
0.0
220
0.0
230
1.0
 40
0.5780931159158073
 41
0.7873318718203413
 42
1.41049345457342
  0
LINE
  5
1B1
330
6C
100
AcDbEntity
  8
Visible (ANSI)
100
AcDbLine
 10
41.91073856151382
 20
20.42027848443101
 30
0.0
 11
41.92178710496985
 21
20.42664091745902
 31
0.0
  0
LINE
  5
1B2
330
6C
100
AcDbEntity
  8
Visible (ANSI)
100
AcDbLine
 10
41.92178710496985
 20
20.27335083155104
 30
0.0
 11
41.91073856151382
 21
20.26698839852304
 31
0.0
  0
LINE
  5
1B3
330
6C
100
AcDbEntity
  8
Visible (ANSI)
100
AcDbLine
 10
41.91073856151382
 20
20.31788786274707
 30
0.0
 11
41.92178710496986
 21
20.31152542971907
 31
0.0
  0
LINE
  5
1B4
330
6C
100
AcDbEntity
  8
Visible (ANSI)
100
AcDbLine
 10
41.91073856151382
 20
20.26698839852304
 30
0.0
 11
41.91073856151382
 21
20.42027848443101
 31
0.0
  0
LINE
  5
1B5
330
6C
100
AcDbEntity
  8
Visible (ANSI)
100
AcDbLine
 10
37.74835449405979
 20
18.08358588083333
 30
0.0
 11
37.76753476549949
 21
18.07254069709671
 31
0.0
  0
LINE
  5
1B6
330
6C
100
AcDbEntity
  8
Visible (ANSI)
100
AcDbLine
 10
37.74835449405979
 20
16.43234507543262
 30
0.0
 11
37.74835449405979
 21
17.91771885217831
 31
0.0
  0
LINE
  5
1B7
330
6C
100
AcDbEntity
  8
Visible (ANSI)
100
AcDbLine
 10
37.74835449405979
 20
18.08358588083333
 30
0.0
 11
37.7483544940598
 21
19.55598825267475
 31
0.0
  0
LINE
  5
1B8
330
6C
100
AcDbEntity
  8
Visible (ANSI)
100
AcDbLine
 10
41.92044489373279
 20
18.77462718401224
 30
0.0
 11
38.33101048175758
 21
16.70760937795637
 31
0.0
  0
LINE
  5
1B9
330
6C
100
AcDbEntity
  8
Visible (ANSI)
100
AcDbLine
 10
37.74835449405979
 20
16.43234507543262
 30
0.0
 11
37.76753476549949
 21
16.421299891696
 31
0.0
  0
LINE
  5
1BA
330
6C
100
AcDbEntity
  8
Visible (ANSI)
100
AcDbLine
 10
37.71520886369169
 20
17.97512867273931
 30
0.0
 11
37.7675347654995
 21
17.88449770268034
 31
0.0
  0
LINE
  5
1BB
330
6C
100
AcDbEntity
  8
Visible (ANSI)
100
AcDbLine
 10
37.7675347654995
 20
18.00549467715703
 30
0.0
 11
37.71520886369169
 21
17.97512867273931
 31
0.0
  0
LINE
  5
1BC
330
6C
100
AcDbEntity
  8
Visible (ANSI)
100
AcDbLine
 10
36.45820758954997
 20
17.18156757767266
 30
0.0
 11
36.43066100731847
 21
17.2292795784829
 31
0.0
  0
LINE
  5
1BD
330
6C
100
AcDbEntity
  8
Visible (ANSI)
100
AcDbLine
 10
36.34227265967016
 20
17.17838011425885
 30
0.0
 11
36.43066100731847
 21
17.2292795784829
 31
0.0
  0
LINE
  5
1BE
330
6C
100
AcDbEntity
  8
Visible (ANSI)
100
AcDbLine
 10
36.39459856147797
 20
17.08774914419987
 30
0.0
 11
36.34227265967016
 21
17.17838011425885
 31
0.0
  0
LINE
  5
1BF
330
6C
100
AcDbEntity
  8
Visible (ANSI)
100
AcDbLine
 10
36.45275809423056
 20
17.1212409916593
 30
0.0
 11
36.39459856147797
 21
17.08774914419987
 31
0.0
  0
LINE
  5
1C0
330
6C
100
AcDbEntity
  8
Visible (ANSI)
100
AcDbLine
 10
36.34227265967016
 20
17.17838011425885
 30
0.0
 11
36.28994675786235
 21
17.14801410984113
 31
0.0
  0
LINE
  5
1C1
330
6C
100
AcDbEntity
  8
Visible (ANSI)
100
AcDbLine
 10
36.34227265967016
 20
20.35311998680363
 30
0.0
 11
36.39480131988045
 21
20.38336923042281
 31
0.0
  0
LINE
  5
1C2
330
6C
100
AcDbEntity
  8
Visible (ANSI)
100
AcDbLine
 10
36.28994675786235
 20
20.4437509568626
 30
0.0
 11
36.34227265967016
 21
20.35311998680363
 31
0.0
  0
LINE
  5
1C3
330
6C
100
AcDbEntity
  8
Visible (ANSI)
100
AcDbLine
 10
36.34227265967016
 20
20.35311998680363
 30
0.0
 11
36.39459856147798
 21
20.38348599122135
 31
0.0
  0
LINE
  5
1C4
330
6C
100
AcDbEntity
  8
Visible (ANSI)
100
AcDbLine
 10
37.7675347654995
 20
17.88449770268034
 30
0.0
 11
37.7675347654995
 21
16.39932115701327
 31
0.0
  0
LINE
  5
1C5
330
6C
100
AcDbEntity
  8
Visible (ANSI)
100
AcDbLine
 10
37.7675347654995
 20
19.49067122282411
 30
0.0
 11
37.7675347654995
 21
18.00549467715703
 31
0.0
  0
LINE
  5
1C6
330
6C
100
AcDbEntity
  8
Visible (ANSI)
100
AcDbLine
 10
36.35327839096348
 20
17.21334277632541
 30
0.0
 11
36.37813234710817
 21
17.19903033486372
 31
0.0
  0
LINE
  5
1C7
330
6C
100
AcDbEntity
  8
Visible Narrow (ANSI)
100
AcDbLine
 10
35.06068443093203
 20
17.91957284243388
 30
0.0
 11
35.00539890148914
 21
17.88773602340902
 31
0.0
  0
LINE
  5
1C8
330
6C
100
AcDbEntity
  8
Visible (ANSI)
100
AcDbLine
 10
36.28994675786235
 20
17.14801410984113
 30
0.0
 11
35.00539890148914
 21
17.88773602340902
 31
0.0
  0
LINE
  5
1C9
330
6C
100
AcDbEntity
  8
Visible (ANSI)
100
AcDbLine
 10
37.67914641785117
 20
16.34802723063199
 30
0.0
 11
36.39459856147797
 21
17.08774914419987
 31
0.0
  0
LINE
  5
1CA
330
6C
100
AcDbEntity
  8
Visible Narrow (ANSI)
100
AcDbLine
 10
37.73443194729406
 20
16.37986404965685
 30
0.0
 11
37.67914641785117
 21
16.34802723063199
 31
0.0
  0
LINE
  5
1CB
330
6C
100
AcDbEntity
  8
Visible (ANSI)
100
AcDbLine
 10
35.00539890148915
 20
21.18347287043049
 30
0.0
 11
36.28994675786235
 21
20.4437509568626
 31
0.0
  0
LINE
  5
1CC
330
6C
100
AcDbEntity
  8
Visible (ANSI)
100
AcDbLine
 10
36.39459856147798
 20
20.38348599122135
 30
0.0
 11
37.67914641785117
 21
19.64376407765345
 31
0.0
  0
ELLIPSE
  5
1CD
330
6C
100
AcDbEntity
  8
Visible (ANSI)
100
AcDbEllipse
 10
37.67914641785117
 20
16.4502206212373
 30
0.0
 11
0.0623790264480503
 21
-0.1083229295181463
 31
0.0
210
0.0
220
0.0
230
1.0
 40
0.5780931159158102
 41
5.499720852205022
 42
7.070517178999878
  0
ELLIPSE
  5
1CE
330
6C
100
AcDbEntity
  8
Visible (ANSI)
100
AcDbEllipse
 10
35.00539890148915
 20
17.98992941401434
 30
0.0
 11
-0.0623790264480438
 21
0.1083229295181501
 31
0.0
210
0.0
220
0.0
230
1.0
 40
0.5780931159158101
 41
0.7873318718205376
 42
2.358128198615402
  0
LINE
  5
1CF
330
6C
100
AcDbEntity
  8
Visible Narrow (ANSI)
100
AcDbLine
 10
34.97225327112102
 20
18.07264104337841
 30
0.0
 11
34.91701055384082
 21
18.04082887823837
 31
0.0
  0
LINE
  5
1D0
330
6C
100
AcDbEntity
  8
Visible (ANSI)
100
AcDbLine
 10
34.91701055384082
 20
18.04082887823837
 30
0.0
 11
34.91701055384083
 21
21.13217894404921
 31
0.0
  0
LINE
  5
1D1
330
6C
100
AcDbEntity
  8
Visible (ANSI)
100
AcDbLine
 10
35.00539890148913
 20
19.66314895409779
 30
0.0
 11
35.00539890148913
 21
19.54803346635783
 31
0.0
  0
LINE
  5
1D2
330
6C
100
AcDbEntity
  8
Visible Narrow (ANSI)
100
AcDbLine
 10
34.97225327112102
 20
21.16399110918925
 30
0.0
 11
34.91701055384083
 21
21.13217894404921
 31
0.0
  0
ELLIPSE
  5
1D3
330
6C
100
AcDbEntity
  8
Visible (ANSI)
100
AcDbEllipse
 10
35.00539890148915
 20
21.08127947982517
 30
0.0
 11
-0.0623790264480498
 21
0.1083229295181454
 31
0.0
210
0.0
220
0.0
230
1.0
 40
0.5780931159158101
 41
5.499720852205022
 42
7.070517178999915
  0
ELLIPSE
  5
1D4
330
6C
100
AcDbEntity
  8
Visible (ANSI)
100
AcDbEllipse
 10
37.67914641785117
 20
19.54157068704814
 30
0.0
 11
0.0623790264480435
 21
-0.1083229295181495
 31
0.0
210
0.0
220
0.0
230
1.0
 40
0.5780931159158101
 41
0.7873318718205385
 42
2.358128198615402
  0
ELLIPSE
  5
1D5
330
6C
100
AcDbEntity
  8
Visible (ANSI)
100
AcDbEllipse
 10
37.97745709116429
 20
15.93353223618824
 30
0.0
 11
0.1871370793441518
 21
-0.3249687885544404
 31
0.0
210
0.0
220
0.0
230
1.0
 40
0.5780931159158102
 41
5.499720852205022
 42
7.070517178999917
  0
ELLIPSE
  5
1D6
330
6C
100
AcDbEntity
  8
Visible (ANSI)
100
AcDbEllipse
 10
38.06584543881259
 20
15.98443170041229
 30
0.0
 11
0.1871370793441507
 21
-0.324968788554439
 31
0.0
210
0.0
220
0.0
230
1.0
 40
0.5780931159158102
 41
0.0000000000000133
 42
0.7873318718203456
  0
LINE
  5
1D7
330
6C
100
AcDbEntity
  8
Visible Narrow (ANSI)
100
AcDbLine
 10
38.33101048175758
 20
15.83173330774019
 30
0.0
 11
38.24262213410928
 21
15.78083384351614
 31
0.0
  0
LINE
  5
1D8
330
6C
100
AcDbEntity
  8
Visible (ANSI)
100
AcDbLine
 10
37.97745709116429
 20
15.62695206437229
 30
0.0
 11
34.70708822817603
 21
17.51023224066156
 31
0.0
  0
ELLIPSE
  5
1D9
330
6C
100
AcDbEntity
  8
Visible (ANSI)
100
AcDbEllipse
 10
34.70708822817603
 20
17.8168124124775
 30
0.0
 11
-0.1871370793441315
 21
0.3249687885544501
 31
0.0
210
0.0
220
0.0
230
1.0
 40
0.5780931159158102
 41
0.7873318718205758
 42
2.358128198615457
  0
LINE
  5
1DA
330
6C
100
AcDbEntity
  8
Visible (ANSI)
100
AcDbLine
 10
34.44192318523104
 20
17.96951080514961
 30
0.0
 11
34.44192318523104
 21
21.75066625754634
 31
0.0
  0
ELLIPSE
  5
1DB
330
6C
100
AcDbEntity
  8
Visible (ANSI)
100
AcDbEllipse
 10
34.70708822817604
 20
21.59796786487424
 30
0.0
 11
-0.1871370793441513
 21
0.3249687885544396
 31
0.0
210
0.0
220
0.0
230
1.0
 40
0.5780931159158099
 41
5.499720852205022
 42
7.070517178999903
  0
LINE
  5
1DC
330
6C
100
AcDbEntity
  8
Visible Narrow (ANSI)
100
AcDbLine
 10
34.79547657582434
 20
21.95544750091423
 30
0.0
 11
34.70708822817604
 21
21.90454803669018
 31
0.0
  0
ELLIPSE
  5
1DD
330
6C
100
AcDbEntity
  8
Visible (ANSI)
100
AcDbEllipse
 10
34.79547657582434
 20
21.64886732909829
 30
0.0
 11
-0.1871370793441499
 21
0.3249687885544375
 31
0.0
210
0.0
220
0.0
230
1.0
 40
0.5780931159158101
 41
5.499720852205022
 42
6.283185307179596
  0
LINE
  5
1DE
330
6C
100
AcDbEntity
  8
Visible (ANSI)
100
AcDbLine
 10
34.70708822817604
 20
21.90454803669018
 30
0.0
 11
37.97745709116429
 21
20.02126786040092
 31
0.0
  0
LINE
  5
1DF
330
6C
100
AcDbEntity
  8
Visible Narrow (ANSI)
100
AcDbLine
 10
38.06584543881259
 20
20.07216732462497
 30
0.0
 11
37.97745709116429
 21
20.02126786040092
 31
0.0
  0
LINE
  5
1E0
330
6C
100
AcDbEntity
  8
Visible (ANSI)
100
AcDbLine
 10
38.06584543881259
 20
20.07216732462497
 30
0.0
 11
34.79547657582434
 21
21.95544750091423
 31
0.0
  0
ELLIPSE
  5
1E1
330
6C
100
AcDbEntity
  8
Visible (ANSI)
100
AcDbEllipse
 10
37.97745709116429
 20
19.71468768858497
 30
0.0
 11
0.1871370793441318
 21
-0.3249687885544507
 31
0.0
210
0.0
220
0.0
230
1.0
 40
0.5780931159158102
 41
0.7873318718205616
 42
2.358128198615457
  0
LINE
  5
1E2
330
6C
100
AcDbEntity
  8
Visible Narrow (ANSI)
100
AcDbLine
 10
38.33101048175759
 20
19.61288876013692
 30
0.0
 11
38.24262213410928
 21
19.56198929591287
 31
0.0
  0
ELLIPSE
  5
1E3
330
6C
100
AcDbEntity
  8
Visible (ANSI)
100
AcDbEllipse
 10
38.06584543881259
 20
19.76558715280901
 30
0.0
 11
-0.1871370793441706
 21
0.3249687885544284
 31
0.0
210
0.0
220
0.0
230
1.0
 40
0.5780931159158102
 41
3.928924525409891
 42
5.499720852204793
  0
LINE
  5
1E4
330
6C
100
AcDbEntity
  8
Visible (ANSI)
100
AcDbLine
 10
38.24262213410928
 20
19.56198929591287
 30
0.0
 11
38.24262213410928
 21
15.78083384351614
 31
0.0
  0
LINE
  5
1E5
330
6C
100
AcDbEntity
  8
Visible (ANSI)
100
AcDbLine
 10
38.33101048175758
 20
15.83173330774019
 30
0.0
 11
38.33101048175759
 21
19.61288876013692
 31
0.0
  0
LINE
  5
1E6
330
6C
100
AcDbEntity
  8
Visible (ANSI)
100
AcDbLine
 10
38.25298251815674
 20
15.65946291185785
 30
0.0
 11
38.16459417050844
 21
15.6085634476338
 31
0.0
  0
LINE
  5
1E7
330
6C
100
AcDbEntity
  8
Visible (ANSI)
100
AcDbLine
 10
34.60833949648019
 20
21.97383611765272
 30
0.0
 11
34.51995114883189
 21
21.92293665342868
 31
0.0
  0
ELLIPSE
  5
1E8
330
6C
100
AcDbEntity
  8
Visible (ANSI)
100
AcDbEllipse
 10
34.79547657582434
 20
17.86771187670155
 30
0.0
 11
0.0701764047540639
 21
-0.1218632957079104
 31
0.0
210
0.0
220
0.0
230
1.0
 40
0.5780931159158101
 41
3.819709301184452
 42
5.605068659584375
  0
ELLIPSE
  5
1E9
330
6C
100
AcDbEntity
  8
Visible (ANSI)
100
AcDbEllipse
 10
34.70708822817603
 20
17.8168124124775
 30
0.0
 11
0.0701764047540567
 21
-0.1218632957079147
 31
0.0
210
0.0
220
0.0
230
1.0
 40
0.5780931159158102
 41
0.0
 42
6.283185307179586
  0
ELLIPSE
  5
1EA
330
6C
100
AcDbEntity
  8
Visible (ANSI)
100
AcDbEllipse
 10
34.79547657582434
 20
21.64886732909828
 30
0.0
 11
0.0701764047540639
 21
-0.1218632957079105
 31
0.0
210
0.0
220
0.0
230
1.0
 40
0.5780931159158101
 41
3.81970930118439
 42
5.605068659584376
  0
ELLIPSE
  5
1EB
330
6C
100
AcDbEntity
  8
Visible (ANSI)
100
AcDbEllipse
 10
34.70708822817604
 20
21.59796786487424
 30
0.0
 11
0.0701764047540567
 21
-0.1218632957079147
 31
0.0
210
0.0
220
0.0
230
1.0
 40
0.5780931159158102
 41
0.0
 42
6.283185307179586
  0
ELLIPSE
  5
1EC
330
6C
100
AcDbEntity
  8
Visible (ANSI)
100
AcDbEllipse
 10
38.06584543881259
 20
15.98443170041229
 30
0.0
 11
0.0701764047540639
 21
-0.1218632957079105
 31
0.0
210
0.0
220
0.0
230
1.0
 40
0.5780931159158099
 41
3.819709301184454
 42
5.605068659584375
  0
ELLIPSE
  5
1ED
330
6C
100
AcDbEntity
  8
Visible (ANSI)
100
AcDbEllipse
 10
37.97745709116429
 20
15.93353223618824
 30
0.0
 11
0.0701764047540567
 21
-0.1218632957079147
 31
0.0
210
0.0
220
0.0
230
1.0
 40
0.5780931159158102
 41
0.0
 42
6.283185307179586
  0
ELLIPSE
  5
1EE
330
6C
100
AcDbEntity
  8
Visible (ANSI)
100
AcDbEllipse
 10
38.06584543881259
 20
19.76558715280901
 30
0.0
 11
0.0701764047540639
 21
-0.1218632957079105
 31
0.0
210
0.0
220
0.0
230
1.0
 40
0.5780931159158101
 41
3.819709301184452
 42
5.605068659584375
  0
ELLIPSE
  5
1EF
330
6C
100
AcDbEntity
  8
Visible (ANSI)
100
AcDbEllipse
 10
37.97745709116429
 20
19.71468768858497
 30
0.0
 11
0.0701764047540567
 21
-0.1218632957079147
 31
0.0
210
0.0
220
0.0
230
1.0
 40
0.5780931159158102
 41
0.0
 42
6.283185307179586
  0
LINE
  5
1F0
330
6C
100
AcDbEntity
  8
Visible (ANSI)
100
AcDbLine
 10
40.53796230373207
 20
22.76925696204031
 30
0.0
 11
40.5490536593508
 21
22.77564404895313
 31
0.0
  0
LINE
  5
1F1
330
6C
100
AcDbEntity
  8
Visible (ANSI)
100
AcDbLine
 10
40.4441990973327
 20
22.83602577539292
 30
0.0
 11
40.45524764078874
 21
22.81688916853926
 31
0.0
  0
LINE
  5
1F2
330
6C
100
AcDbEntity
  8
Visible (ANSI)
100
AcDbLine
 10
40.53780235749228
 20
22.76934906895401
 30
0.0
 11
40.54885090094832
 21
22.77576080975167
 31
0.0
  0
LINE
  5
1F3
330
6C
100
AcDbEntity
  8
Visible (ANSI)
100
AcDbLine
 10
40.54885090094832
 20
22.77576080975167
 30
0.0
 11
41.83339875732151
 21
22.03603889618379
 31
0.0
  0
LINE
  5
1F4
330
6C
100
AcDbEntity
  8
Visible (ANSI)
100
AcDbLine
 10
39.1596512409595
 20
23.57574768896082
 30
0.0
 11
40.4441990973327
 21
22.83602577539292
 31
0.0
  0
ELLIPSE
  5
1F5
330
6C
100
AcDbEntity
  8
Visible (ANSI)
100
AcDbEllipse
 10
39.1596512409595
 20
23.4735542983555
 30
0.0
 11
-0.0623790264480504
 21
0.1083229295181465
 31
0.0
210
0.0
220
0.0
230
1.0
 40
0.5780931159158108
 41
5.499720852205022
 42
6.893203517671912
  0
ELLIPSE
  5
1F6
330
6C
100
AcDbEntity
  8
Visible (ANSI)
100
AcDbEllipse
 10
41.83339875732151
 20
21.93384550557847
 30
0.0
 11
0.0623790264480439
 21
-0.1083229295181502
 31
0.0
210
0.0
220
0.0
230
1.0
 40
0.578093115915811
 41
0.7873318718205376
 42
2.358128198615402
  0
LINE
  5
1F7
330
6C
100
AcDbEntity
  8
Visible (ANSI)
100
AcDbLine
 10
41.92178710496984
 20
21.88294604135443
 30
0.0
 11
41.92178710496984
 21
18.79159597554359
 31
0.0
  0
ELLIPSE
  5
1F8
330
6C
100
AcDbEntity
  8
Visible (ANSI)
100
AcDbEllipse
 10
41.83339875732151
 20
18.84249543976762
 30
0.0
 11
0.0623790264480504
 21
-0.1083229295181465
 31
0.0
210
0.0
220
0.0
230
0.9999999999999998
 40
0.5780931159158107
 41
5.673167096687206
 42
7.070517178999879
  0
ELLIPSE
  5
1F9
330
6C
100
AcDbEntity
  8
Visible (ANSI)
100
AcDbEllipse
 10
38.86134056764638
 20
23.99024268340456
 30
0.0
 11
-0.187137079344152
 21
0.324968788554441
 31
0.0
210
0.0
220
0.0
230
1.0
 40
0.578093115915811
 41
5.499720852205022
 42
7.070517178999917
  0
LINE
  5
1FA
330
6C
100
AcDbEntity
  8
Visible Narrow (ANSI)
100
AcDbLine
 10
38.94972891529469
 20
24.34772231944456
 30
0.0
 11
38.86134056764638
 21
24.29682285522051
 31
0.0
  0
ELLIPSE
  5
1FB
330
6C
100
AcDbEntity
  8
Visible (ANSI)
100
AcDbEllipse
 10
38.94972891529469
 20
24.04114214762861
 30
0.0
 11
-0.1871370793441533
 21
0.3249687885544434
 31
0.0
210
0.0
220
0.0
230
1.0
 40
0.578093115915811
 41
5.499720852205023
 42
6.28318530717958
  0
LINE
  5
1FC
330
6C
100
AcDbEntity
  8
Visible (ANSI)
100
AcDbLine
 10
38.86134056764638
 20
24.29682285522051
 30
0.0
 11
42.13170943063464
 21
22.41354267893125
 31
0.0
  0
LINE
  5
1FD
330
6C
100
AcDbEntity
  8
Visible Narrow (ANSI)
100
AcDbLine
 10
42.22009777828294
 20
22.4644421431553
 30
0.0
 11
42.13170943063464
 21
22.41354267893125
 31
0.0
  0
LINE
  5
1FE
330
6C
100
AcDbEntity
  8
Visible (ANSI)
100
AcDbLine
 10
42.22009777828294
 20
22.4644421431553
 30
0.0
 11
38.94972891529469
 21
24.34772231944456
 31
0.0
  0
ELLIPSE
  5
1FF
330
6C
100
AcDbEntity
  8
Visible (ANSI)
100
AcDbEllipse
 10
42.13170943063464
 20
22.1069625071153
 30
0.0
 11
0.1871370793441316
 21
-0.3249687885544506
 31
0.0
210
0.0
220
0.0
230
0.9999999999999998
 40
0.578093115915811
 41
0.7873318718205758
 42
2.358128198615458
  0
LINE
  5
200
330
6C
100
AcDbEntity
  8
Visible Narrow (ANSI)
100
AcDbLine
 10
42.48526282122794
 20
22.00516357866725
 30
0.0
 11
42.39687447357963
 21
21.95426411444319
 31
0.0
  0
ELLIPSE
  5
201
330
6C
100
AcDbEntity
  8
Visible (ANSI)
100
AcDbEllipse
 10
42.22009777828294
 20
22.15786197133935
 30
0.0
 11
-0.187137079344171
 21
0.3249687885544292
 31
0.0
210
0.0
220
0.0
230
1.0
 40
0.5780931159158108
 41
3.928924525409891
 42
5.499720852204794
  0
LINE
  5
202
330
6C
100
AcDbEntity
  8
Visible (ANSI)
100
AcDbLine
 10
42.39687447357963
 20
21.95426411444319
 30
0.0
 11
42.39687447357963
 21
18.17310866204646
 31
0.0
  0
LINE
  5
203
330
6C
100
AcDbEntity
  8
Visible Narrow (ANSI)
100
AcDbLine
 10
42.48526282122794
 20
18.22400812627051
 30
0.0
 11
42.39687447357963
 21
18.17310866204646
 31
0.0
  0
LINE
  5
204
330
6C
100
AcDbEntity
  8
Visible (ANSI)
100
AcDbLine
 10
42.48526282122794
 20
18.22400812627051
 30
0.0
 11
42.48526282122794
 21
22.00516357866725
 31
0.0
  0
ELLIPSE
  5
205
330
6C
100
AcDbEntity
  8
Visible (ANSI)
100
AcDbEllipse
 10
42.13170943063463
 20
18.32580705471856
 30
0.0
 11
0.1871370793441514
 21
-0.3249687885544402
 31
0.0
210
0.0
220
0.0
230
0.9999999999999998
 40
0.5780931159158107
 41
5.499720852205023
 42
7.070517178999917
  0
ELLIPSE
  5
206
330
6C
100
AcDbEntity
  8
Visible (ANSI)
100
AcDbEllipse
 10
42.22009777828294
 20
18.37670651894261
 30
0.0
 11
0.187137079344153
 21
-0.3249687885544406
 31
0.0
210
0.0
220
0.0
230
0.9999999999999998
 40
0.5780931159158111
 41
0.0
 42
0.7873318718203102
  0
LINE
  5
207
330
6C
100
AcDbEntity
  8
Visible (ANSI)
100
AcDbLine
 10
42.13170943063463
 20
18.01922688290261
 30
0.0
 11
41.37039301248207
 21
18.45763985044786
 31
0.0
  0
LINE
  5
208
330
6C
100
AcDbEntity
  8
Visible (ANSI)
100
AcDbLine
 10
38.59617552470139
 20
23.26729852745756
 30
0.0
 11
38.59617552470139
 21
24.14294107607666
 31
0.0
  0
LINE
  5
209
330
6C
100
AcDbEntity
  8
Visible (ANSI)
100
AcDbLine
 10
38.76259183595054
 20
24.36611093618305
 30
0.0
 11
38.67420348830223
 21
24.315211471959
 31
0.0
  0
LINE
  5
20A
330
6C
100
AcDbEntity
  8
Visible (ANSI)
100
AcDbLine
 10
42.4072348576271
 20
18.05173773038817
 30
0.0
 11
42.31884650997879
 21
18.00083826616412
 31
0.0
  0
ELLIPSE
  5
20B
330
6C
100
AcDbEntity
  8
Visible (ANSI)
100
AcDbEllipse
 10
42.22009777828294
 20
22.15786197133935
 30
0.0
 11
0.0701764047540642
 21
-0.1218632957079111
 31
0.0
210
0.0
220
0.0
230
1.0
 40
0.578093115915811
 41
3.819709301184499
 42
5.605068659584377
  0
ELLIPSE
  5
20C
330
6C
100
AcDbEntity
  8
Visible (ANSI)
100
AcDbEllipse
 10
42.13170943063463
 20
22.1069625071153
 30
0.0
 11
-0.0701764047540567
 21
0.1218632957079149
 31
0.0
210
0.0
220
0.0
230
1.0
 40
0.5780931159158108
 41
0.0
 42
6.283185307179586
  0
ELLIPSE
  5
20D
330
6C
100
AcDbEntity
  8
Visible (ANSI)
100
AcDbEllipse
 10
42.22009777828294
 20
18.37670651894261
 30
0.0
 11
0.0701764047540642
 21
-0.1218632957079111
 31
0.0
210
0.0
220
0.0
230
1.0
 40
0.578093115915811
 41
3.819709301184499
 42
5.605068659584377
  0
ELLIPSE
  5
20E
330
6C
100
AcDbEntity
  8
Visible (ANSI)
100
AcDbEllipse
 10
42.13170943063463
 20
18.32580705471856
 30
0.0
 11
-0.0701764047540567
 21
0.1218632957079149
 31
0.0
210
0.0
220
0.0
230
1.0
 40
0.5780931159158108
 41
0.0
 42
6.283185307179586
  0
ELLIPSE
  5
20F
330
6C
100
AcDbEntity
  8
Visible (ANSI)
100
AcDbEllipse
 10
38.94972891529469
 20
24.04114214762861
 30
0.0
 11
0.0701764047540641
 21
-0.1218632957079107
 31
0.0
210
0.0
220
0.0
230
1.0
 40
0.578093115915811
 41
3.819709301184499
 42
5.605068659584376
  0
ELLIPSE
  5
210
330
6C
100
AcDbEntity
  8
Visible (ANSI)
100
AcDbEllipse
 10
38.86134056764638
 20
23.99024268340456
 30
0.0
 11
-0.0701764047540567
 21
0.1218632957079149
 31
0.0
210
0.0
220
0.0
230
1.0
 40
0.5780931159158108
 41
0.0
 42
6.283185307179586
  0
MTEXT
  5
211
330
6C
100
AcDbEntity
  8
Symbol (ANSI)
100
AcDbMText
 10
38.36051359098944
 20
12.59279594070387
 30
0.0
 40
0.4799999902880411
 41
0.0
 46
0.0
 71
     7
 72
     1
  1
 
  7
Label Text (ANSI)
 73
     1
 44
1.0
  0
DIMENSION
  5
212
330
6C
100
AcDbEntity
  8
Dimension (ANSI)
100
AcDbDimension
280
     0
  2
*D4
 10
29.20566103914568
 20
7.722696954393766
 30
0.0
 11
26.20566103914523
 21
7.722696954393766
 31
0.0
 70
   160
  1
<>{\PLENGTH}
 71
     5
 42
6.000000000001541
 73
     0
 74
     0
 75
     0
  3
Default (ANSI)
100
AcDbAlignedDimension
 13
23.20566103914413
 23
8.727343782266363
 33
0.0
 14
29.20566103914568
 24
9.102343782266355
 34
0.0
 50
180.0
100
AcDbRotatedDimension
1001
ACAD
1000
DSTYLE
1002
{
1070
   289
1070
     1
1070
    73
1070
     0
1070
    74
1070
     0
1070
   271
1070
     2
1070
   272
1070
     2
1070
    48
1040
0.0
1070
    47
1040
0.0
1002
}
  0
DIMENSION
  5
313
330
6C
100
AcDbEntity
  8
Dimension (ANSI)
100
AcDbDimension
280
     0
  2
*D5
 10
5.147166133802859
 20
20.88609018481136
 30
0.0
 11
5.147166133802857
 21
23.76109018481293
 31
0.0
 70
   160
  1
<>
 42
5.750000000001545
 73
     0
 74
     0
 75
     0
  3
Default (ANSI)
100
AcDbAlignedDimension
 13
6.451956160049538
 23
26.6360901848129
 33
0.0
 14
6.826956160049532
 24
20.88609018481136
 34
0.0
 50
90.0
100
AcDbRotatedDimension
1001
ACAD
1000
DSTYLE
1002
{
1070
   289
1070
     1
1070
   271
1070
     2
1070
   272
1070
     2
1070
    48
1040
0.0
1070
    47
1040
0.0
1002
}
  0
LINE
  5
3FD
330
6C
100
AcDbEntity
  8
Center Mark (ANSI)
  6
CHAIN
 48
0.1973718851804733
100
AcDbLine
 10
11.92591449337831
 20
9.102343782266352
 30
0.0
 11
10.97799782671164
 21
9.102343782266352
 31
0.0
  0
LINE
  5
3FE
330
6C
100
AcDbEntity
  8
Center Mark (ANSI)
  6
CHAIN
 48
0.1973718851804733
100
AcDbLine
 10
6.352997826711664
 20
9.102343782266363
 30
0.0
 11
7.30091449337833
 21
9.102343782266363
 31
0.0
  0
LINE
  5
3FF
330
6C
100
AcDbEntity
  8
Centerline (ANSI)
  6
CHAIN
 48
0.9524481296539306
100
AcDbLine
 10
11.92591449337831
 20
9.10234378226635
 30
0.0
 11
6.352997826711664
 21
9.102343782266364
 31
0.0
  0
LINE
  5
400
330
6C
100
AcDbEntity
  8
Center Mark (ANSI)
  6
CHAIN
 48
0.1973718851804733
100
AcDbLine
 10
6.826956160045004
 20
14.20130211559967
 30
0.0
 11
6.826956160045003
 21
13.25338544893301
 31
0.0
  0
LINE
  5
401
330
6C
100
AcDbEntity
  8
Centerline (ANSI)
  6
CHAIN
 48
0.9524481296539306
100
AcDbLine
 10
6.826956160044996
 20
8.62838544893303
 30
0.0
 11
6.826956160045004
 21
14.20130211559967
 31
0.0
  0
LINE
  5
402
330
6C
100
AcDbEntity
  8
Center Mark (ANSI)
  6
CHAIN
 48
0.1973718851804733
100
AcDbLine
 10
11.92591449337832
 20
13.72734378226633
 30
0.0
 11
10.97799782671165
 21
13.72734378226633
 31
0.0
  0
LINE
  5
403
330
6C
100
AcDbEntity
  8
Centerline (ANSI)
  6
CHAIN
 48
0.9524481296539306
100
AcDbLine
 10
6.35299782671167
 20
13.72734378226634
 30
0.0
 11
11.92591449337832
 21
13.72734378226633
 31
0.0
  0
LINE
  5
404
330
6C
100
AcDbEntity
  8
Centerline (ANSI)
  6
CHAIN
 48
0.9524481296539306
100
AcDbLine
 10
11.45195616004498
 20
14.20130211559966
 30
0.0
 11
11.45195616004498
 21
8.628385448933022
 31
0.0
  0
DIMENSION
  5
405
330
6C
100
AcDbEntity
  8
Dimension (ANSI)
100
AcDbDimension
280
     0
  2
*D6
 10
13.62244133764915
 20
26.6360901848129
 30
0.0
 11
13.63830924082855
 21
25.78942630291095
 31
0.0
 70
   160
  1
 10 GA.\P304 S.S.\P(2 PL.)
 71
     5
 42
0.1249999999999964
 73
     0
 74
     0
 75
     0
  3
Default (ANSI)
100
AcDbAlignedDimension
 13
11.82695616004952
 23
26.7610901848129
 33
0.0
 14
11.82695616004952
 24
26.6360901848129
 34
0.0
 50
90.0
100
AcDbRotatedDimension
1001
ACAD
1000
DSTYLE
1002
{
1070
   289
1070
     1
1070
   279
1070
     1
1070
   271
1070
     2
1070
   272
1070
     2
1070
    48
1040
0.0
1070
    47
1040
0.0
1002
}
  0
MTEXT
  5
51D
102
{ACAD_XDICTIONARY
360
12CF
102
}
330
6C
100
AcDbEntity
  8
Symbol (ANSI)
100
AcDbMText
 10
20.18633852521764
 20
26.94516850333566
 30
0.0
 40
0.2666666751771461
 41
22.57795422923182
 46
0.0
 71
     1
 72
     1
  3
{\fRomanS|b0|i0|c0|p2;\H1.95x;PART#: SSJWN446\P(DATA SUBJECT TO CHANGE WITHOUT NOTICE)\H1.8771x; \H0.53273x;\P\H0.51288x; \H2.4637x; \H0.40589x;\PTHIS DRAWING IS PROPERTY OF hUBBELL INC. WEIGMANN\H1.6952x; \H0.5899x;\PALL INFORMATION IS PROPRIETARY A
  1
ND NOT TO BE DUPLICATED\H1.588x; \H0.62972x;\P\H1.5731x; }
  7
Note Text (ANSI)
 73
     1
 44
0.6453872919082642
  0
DIMENSION
  5
51F
330
6C
100
AcDbEntity
  8
Dimension (ANSI)
100
AcDbDimension
280
     0
  2
*D7
 10
12.97578325978252
 20
9.10234378226635
 30
0.0
 11
12.97578325978252
 21
11.52968617881557
 31
0.0
 70
   160
  1
(<>)
 42
4.624999999999978
 73
     0
 74
     0
 75
     0
  3
Default (ANSI)
100
AcDbAlignedDimension
 13
11.92591449337832
 23
13.72734378226633
 33
0.0
 14
11.92591449337831
 24
9.102343782266352
 34
0.0
 50
90.0
100
AcDbRotatedDimension
1001
ACAD
1000
DSTYLE
1002
{
1070
   289
1070
     1
1070
   271
1070
     2
1070
   147
1040
0.031496062992126
1070
    72
1070
     0
1070
    71
1070
     0
1070
   272
1070
     2
1070
    48
1040
0.0
1070
    47
1040
0.0
1002
}
  0
DIMENSION
  5
613
330
6C
100
AcDbEntity
  8
Dimension (ANSI)
100
AcDbDimension
280
     0
  2
*D8
 10
11.45195616004498
 20
15.88109214184638
 30
0.0
 11
9.139456160044995
 21
15.88109214184638
 31
0.0
 70
   160
  1
(<>)
 42
4.624999999999982
 73
     0
 74
     0
 75
     0
  3
Default (ANSI)
100
AcDbAlignedDimension
 13
6.826956160045003
 23
14.20130211559967
 33
0.0
 14
11.45195616004498
 24
14.20130211559966
 34
0.0
 50
180.0
100
AcDbRotatedDimension
1001
ACAD
1000
DSTYLE
1002
{
1070
   289
1070
     1
1070
    73
1070
     0
1070
    74
1070
     0
1070
   271
1070
     2
1070
   147
1040
0.031496062992126
1070
    72
1070
     0
1070
    71
1070
     0
1070
   272
1070
     2
1070
    48
1040
0.0
1070
    47
1040
0.0
1002
}
  0
DIMENSION
  5
707
330
6C
100
AcDbEntity
  8
Dimension (ANSI)
100
AcDbDimension
280
     0
  2
*D9
 10
10.08452395781456
 20
9.488843782266357
 30
0.0
 11
10.08452395781456
 21
12.23366718407945
 31
0.0
 70
   160
  1
(<>){\POPENING}
 71
     5
 42
3.851999999999996
 73
     0
 74
     0
 75
     0
  3
Default (ANSI)
100
AcDbAlignedDimension
 13
10.25220245269204
 23
13.34084378226635
 33
0.0
 14
10.27452750498813
 24
9.488843782266357
 34
0.0
 50
270.0
100
AcDbRotatedDimension
1001
ACAD
1000
DSTYLE
1002
{
1070
   289
1070
     1
1070
   271
1070
     2
1070
    76
1070
     1
1070
    75
1070
     1
1070
   147
1040
0.031496062992126
1070
    72
1070
     0
1070
    71
1070
     0
1070
   272
1070
     2
1070
    48
1040
0.0
1070
    47
1040
0.0
1002
}
  0
DIMENSION
  5
800
330
6C
100
AcDbEntity
  8
Dimension (ANSI)
100
AcDbDimension
280
     0
  2
*D10
 10
11.06545616004497
 20
10.78148919745108
 30
0.0
 11
8.988602612395295
 21
10.78148919745108
 31
0.0
 70
   160
  1
(<>){\POPENING}
 71
     5
 42
3.851999999999978
 73
     0
 74
     0
 75
     0
  3
Default (ANSI)
100
AcDbAlignedDimension
 13
7.213456160044998
 23
10.51591509468185
 33
0.0
 14
11.06545616004497
 24
10.49050271077561
 34
0.0
 50
180.0
100
AcDbRotatedDimension
1001
ACAD
1000
DSTYLE
1002
{
1070
   289
1070
     1
1070
    73
1070
     0
1070
    74
1070
     0
1070
   271
1070
     2
1070
    76
1070
     1
1070
    75
1070
     1
1070
   147
1040
0.031496062992126
1070
    72
1070
     0
1070
    71
1070
     0
1070
   272
1070
     2
1070
    48
1040
0.0
1070
    47
1040
0.0
1002
}
  0
DIMENSION
  5
8F9
330
6C
100
AcDbEntity
  8
Dimension (ANSI)
100
AcDbDimension
280
     0
  2
*D11
 10
9.331718058441719
 20
13.34084378226635
 30
0.0
 11
10.08452395781456
 21
15.12876033673282
 31
0.0
 70
   160
  1
<>{\PTYP.}
 71
     5
 42
0.7614999999999803
 73
     0
 74
     0
 75
     0
  3
Default (ANSI)
100
AcDbAlignedDimension
 13
10.08452395781456
 23
14.10234378226633
 33
0.0
 14
10.05622052405973
 24
13.34084378226635
 34
0.0
 50
270.0
100
AcDbRotatedDimension
1001
ACAD
1000
DSTYLE
1002
{
1070
   289
1070
     1
1070
   271
1070
     2
1070
    76
1070
     1
1070
    75
1070
     1
1070
   272
1070
     2
1070
    48
1040
0.0
1070
    47
1040
0.0
1002
}
  0
DIMENSION
  5
A02
330
6C
100
AcDbEntity
  8
Dimension (ANSI)
100
AcDbDimension
280
     0
  2
*D12
 10
7.213456160044998
 20
10.78148919745108
 30
0.0
 11
5.254293588135454
 21
10.78148919745108
 31
0.0
 70
   160
  1
<>{\PTYP.}
 71
     5
 42
0.7614999999999972
 73
     0
 74
     0
 75
     0
  3
Default (ANSI)
100
AcDbAlignedDimension
 13
6.451956160045001
 23
10.70489306443842
 33
0.0
 14
7.213456160044998
 24
10.72749072554007
 34
0.0
100
AcDbRotatedDimension
1001
ACAD
1000
DSTYLE
1002
{
1070
   289
1070
     1
1070
    73
1070
     0
1070
    74
1070
     0
1070
   271
1070
     2
1070
    76
1070
     1
1070
    75
1070
     1
1070
   272
1070
     2
1070
    48
1040
0.0
1070
    47
1040
0.0
1002
}
  0
DIMENSION
  5
AF1
330
6C
100
AcDbEntity
  8
Dimension (ANSI)
100
AcDbDimension
280
     0
  2
*D13
 10
14.79242518413083
 20
14.10234378226633
 30
0.0
 11
14.79242518413083
 21
11.41484378226634
 31
0.0
 70
   160
  1
(<>)
 42
5.374999999999975
 73
     0
 74
     0
 75
     0
  3
Default (ANSI)
100
AcDbAlignedDimension
 13
11.45195616004498
 23
8.727343782266357
 33
0.0
 14
11.45195616004499
 24
14.10234378226633
 34
0.0
 50
90.0
100
AcDbRotatedDimension
1001
ACAD
1000
DSTYLE
1002
{
1070
   289
1070
     1
1070
   271
1070
     2
1070
   147
1040
0.031496062992126
1070
    72
1070
     0
1070
    71
1070
     0
1070
   272
1070
     2
1070
    48
1040
0.0
1070
    47
1040
0.0
1002
}
  0
DIMENSION
  5
BE5
330
6C
100
AcDbEntity
  8
Dimension (ANSI)
100
AcDbDimension
280
     0
  2
*D14
 10
11.82695616004498
 20
16.74144452116724
 30
0.0
 11
9.074525297448639
 21
16.74144452116724
 31
0.0
 70
   160
  1
(<>)
 42
5.374999999999976
 73
     0
 74
     0
 75
     0
  3
Default (ANSI)
100
AcDbAlignedDimension
 13
6.451956160045007
 23
13.72734378226634
 33
0.0
 14
11.82695616004498
 24
13.72734378226633
 34
0.0
100
AcDbRotatedDimension
1001
ACAD
1000
DSTYLE
1002
{
1070
   289
1070
     1
1070
    73
1070
     0
1070
    74
1070
     0
1070
   271
1070
     2
1070
   147
1040
0.031496062992126
1070
    72
1070
     0
1070
    71
1070
     0
1070
   272
1070
     2
1070
    48
1040
0.0
1070
    47
1040
0.0
1002
}
  0
DIMENSION
  5
CD9
330
6C
100
AcDbEntity
  8
Dimension (ANSI)
100
AcDbDimension
280
     0
  2
*D15
 10
6.826956160044996
 20
15.88109214184638
 30
0.0
 11
5.271603707476682
 21
15.88109214184638
 31
0.0
 70
   160
  1
(<>){\PTYP.}
 71
     5
 42
0.3749999999999982
 73
     0
 74
     0
 75
     0
  3
Default (ANSI)
100
AcDbAlignedDimension
 13
6.451956160044998
 23
13.72734378226634
 33
0.0
 14
6.826956160044996
 24
14.20130211559967
 34
0.0
100
AcDbRotatedDimension
1001
ACAD
1000
DSTYLE
1002
{
1070
   289
1070
     1
1070
    73
1070
     0
1070
    74
1070
     0
1070
   271
1070
     2
1070
   147
1040
0.031496062992126
1070
    72
1070
     0
1070
    71
1070
     0
1070
   272
1070
     2
1070
    48
1040
0.0
1070
    47
1040
0.0
1002
}
  0
DIMENSION
  5
DE1
330
6C
100
AcDbEntity
  8
Dimension (ANSI)
100
AcDbDimension
280
     0
  2
*D16
 10
13.8936685266946
 20
9.102343782266361
 30
0.0
 11
12.97578325978252
 21
7.598051817308731
 31
0.0
 70
   160
  1
(<>){\PTYP.}
 71
     5
 42
0.3749999999999982
 73
     0
 74
     0
 75
     0
  3
Default (ANSI)
100
AcDbAlignedDimension
 13
11.45195616004498
 23
8.727343782266364
 33
0.0
 14
7.300914493378329
 24
9.102343782266363
 34
0.0
 50
90.0
100
AcDbRotatedDimension
1001
ACAD
1000
DSTYLE
1002
{
1070
   289
1070
     1
1070
   271
1070
     2
1070
   147
1040
0.031496062992126
1070
    72
1070
     0
1070
    71
1070
     0
1070
   272
1070
     2
1070
    48
1040
0.0
1070
    47
1040
0.0
1002
}
  0
DIMENSION
  5
F02
330
6C
100
AcDbEntity
  8
Dimension (ANSI)
100
AcDbDimension
280
     0
  2
*D17
 10
11.13945616004497
 20
7.81916768929354
 30
0.0
 11
8.912592772539035
 21
7.81916768929354
 31
0.0
 70
   160
  1
<>
 42
3.999999999999977
 73
     0
 74
     0
 75
     0
  3
Default (ANSI)
100
AcDbAlignedDimension
 13
7.139456160044995
 23
9.520093782266357
 33
0.0
 14
11.13945616004497
 24
9.488843782266352
 34
0.0
 50
180.0
100
AcDbRotatedDimension
1001
ACAD
1000
DSTYLE
1002
{
1070
   289
1070
     1
1070
    73
1070
     0
1070
    74
1070
     0
1070
   271
1070
     2
1070
   272
1070
     2
1070
    48
1040
0.0
1070
    47
1040
0.0
1002
}
  0
DIMENSION
  5
FEC
330
6C
100
AcDbEntity
  8
Dimension (ANSI)
100
AcDbDimension
280
     0
  2
*D18
 10
4.123914087033743
 20
13.41484378226636
 30
0.0
 11
4.123914087033742
 21
11.46148001033673
 31
0.0
 70
   160
  1
<>
 42
4.0
 73
     0
 74
     0
 75
     0
  3
Default (ANSI)
100
AcDbAlignedDimension
 13
7.244706160044996
 23
9.414843782266357
 33
0.0
 14
7.213456160045001
 24
13.41484378226636
 34
0.0
 50
90.0
100
AcDbRotatedDimension
1001
ACAD
1000
DSTYLE
1002
{
1070
   289
1070
     1
1070
   271
1070
     2
1070
   272
1070
     2
1070
    48
1040
0.0
1070
    47
1040
0.0
1002
}
  0
DIMENSION
  5
10D6
330
6C
100
AcDbEntity
  8
Dimension (ANSI)
100
AcDbDimension
280
     0
  2
*D19
 10
7.123831160045002
 20
12.63707680461312
 30
0.0
 11
5.254293588135459
 21
12.63707680461312
 31
0.0
 70
   160
  1
<>{\PTYP.}
 71
     5
 42
0.6718749999999965
 73
     0
 74
     0
 75
     0
  3
Default (ANSI)
100
AcDbAlignedDimension
 13
6.451956160045005
 23
12.63707680461312
 33
0.0
 14
7.123831160045002
 24
12.63707680461312
 34
0.0
100
AcDbRotatedDimension
1001
ACAD
1000
DSTYLE
1002
{
1070
   289
1070
     1
1070
    73
1070
     0
1070
    74
1070
     0
1070
   271
1070
     2
1070
    76
1070
     1
1070
    75
1070
     1
1070
   272
1070
     2
1070
    48
1040
0.0
1070
    47
1040
0.0
1002
}
  0
DIMENSION
  5
11C5
330
6C
100
AcDbEntity
  8
Dimension (ANSI)
100
AcDbDimension
280
     0
  2
*D20
 10
7.54399902089836
 20
13.43046878226634
 30
0.0
 11
8.296804920271206
 21
15.12876033673282
 31
0.0
 70
   160
  1
<>{\PTYP.}
 71
     5
 42
0.6718749999999983
 73
     0
 74
     0
 75
     0
  3
Default (ANSI)
100
AcDbAlignedDimension
 13
8.236523980901397
 23
14.10234378226634
 33
0.0
 14
8.236523980901397
 24
13.43046878226634
 34
0.0
 50
270.0
100
AcDbRotatedDimension
1001
ACAD
1000
DSTYLE
1002
{
1070
   289
1070
     1
1070
   271
1070
     2
1070
    76
1070
     1
1070
    75
1070
     1
1070
   272
1070
     2
1070
    48
1040
0.0
1070
    47
1040
0.0
1002
}
  0
ENDSEC
  0
SECTION
  2
OBJECTS
  0
DICTIONARY
  5
C
330
0
100
AcDbDictionary
281
     1
  3
ACAD_CIP_PREVIOUS_PRODUCT_INFO
350
12CA
  3
ACAD_COLOR
350
63
  3
ACAD_GROUP
350
D
  3
ACAD_LAYOUT
350
62
  3
ACAD_MATERIAL
350
10
  3
ACAD_MLEADERSTYLE
350
66
  3
ACAD_MLINESTYLE
350
5F
  3
ACAD_PLOTSETTINGS
350
61
  3
ACAD_PLOTSTYLENAME
350
E
  3
ACAD_SCALELIST
350
42
  3
ACAD_TABLESTYLE
350
64
  3
ACAD_VISUALSTYLE
350
29
  3
ACDB_RECOMPOSE_DATA
350
12D1
  3
AcDbVariableDictionary
350
76
  0
DICTIONARY
  5
12CF
330
51D
100
AcDbDictionary
280
     1
281
     1
  3
ACAD_MTEXT_2008_RT
360
12D0
  0
XRECORD
  5
12CA
102
{ACAD_REACTORS
330
C
102
}
330
C
100
AcDbXrecord
280
     1
300
INVNTOR
300
2012
300
85795PDSP_2012_0F
  0
DICTIONARY
  5
63
102
{ACAD_REACTORS
330
C
102
}
330
C
100
AcDbDictionary
281
     1
  0
DICTIONARY
  5
D
102
{ACAD_REACTORS
330
C
102
}
330
C
100
AcDbDictionary
281
     1
  0
DICTIONARY
  5
62
102
{ACAD_REACTORS
330
C
102
}
330
C
100
AcDbDictionary
281
     1
  3
Layout1
350
6B
  3
Layout2
350
73
  3
Model
350
6F
  0
DICTIONARY
  5
10
102
{ACAD_REACTORS
330
C
102
}
330
C
100
AcDbDictionary
281
     1
  3
ByBlock
350
19
  3
ByLayer
350
11
  3
Global
350
21
  0
DICTIONARY
  5
66
102
{ACAD_REACTORS
330
C
102
}
330
C
100
AcDbDictionary
281
     1
  3
Standard
350
67
  0
DICTIONARY
  5
5F
102
{ACAD_REACTORS
330
C
102
}
330
C
100
AcDbDictionary
281
     1
  3
Standard
350
60
  0
DICTIONARY
  5
61
102
{ACAD_REACTORS
330
C
102
}
330
C
100
AcDbDictionary
281
     1
  0
ACDBDICTIONARYWDFLT
  5
E
102
{ACAD_REACTORS
330
C
102
}
330
C
100
AcDbDictionary
281
     1
  3
Normal
350
F
100
AcDbDictionaryWithDefault
340
F
  0
DICTIONARY
  5
42
102
{ACAD_REACTORS
330
C
102
}
330
C
100
AcDbDictionary
281
     1
  3
A0
350
43
  3
A1
350
44
  3
A2
350
45
  3
A3
350
46
  3
A4
350
47
  3
A5
350
48
  3
A6
350
49
  3
A7
350
4A
  3
A8
350
4B
  3
A9
350
4C
  3
B0
350
4D
  3
B1
350
4E
  3
B2
350
4F
  3
B3
350
50
  3
B4
350
51
  3
B5
350
52
  3
B6
350
53
  0
DICTIONARY
  5
64
102
{ACAD_REACTORS
330
C
102
}
330
C
100
AcDbDictionary
281
     1
  3
Standard
350
65
  0
DICTIONARY
  5
29
102
{ACAD_REACTORS
330
C
102
}
330
C
100
AcDbDictionary
281
     1
  3
2dWireframe
350
2F
  3
Basic
350
2E
  3
Brighten
350
35
  3
ColorChange
350
39
  3
Conceptual
350
32
  3
Dim
350
34
  3
EdgeColorOff
350
41
  3
Facepattern
350
38
  3
Flat
350
2A
  3
FlatWithEdges
350
2B
  3
Gouraud
350
2C
  3
GouraudWithEdges
350
2D
  3
Hidden
350
31
  3
JitterOff
350
3F
  3
Linepattern
350
37
  3
OverhangOff
350
40
  3
Realistic
350
33
  3
Shaded
350
3E
  3
Shaded with edges
350
3D
  3
Shades of Gray
350
3A
  3
Sketchy
350
3B
  3
Thicken
350
36
  3
Wireframe
350
30
  3
X-Ray
350
3C
  0
XRECORD
  5
12D1
102
{ACAD_REACTORS
330
C
102
}
330
C
100
AcDbXrecord
280
     1
 90
        1
330
65
330
51D
  0
DICTIONARY
  5
76
102
{ACAD_REACTORS
330
C
102
}
330
C
100
AcDbDictionary
281
     1
  3
CANNOSCALE
350
79
  3
CMLEADERSTYLE
350
78
  3
CTABLESTYLE
350
77
  0
XRECORD
  5
12D0
102
{ACAD_REACTORS
330
12CF
102
}
330
12CF
100
AcDbXrecord
280
     1
 40
3219841.0
  1
\pxsm0.94;{\fRomanS|b0|i0;\H0.5200;PART#: SSJWN446\P(DATA SUBJECT TO CHANGE WITHOUT NOTICE)\P\fRomanS|b0|i0;\H0.2667; \PTHIS DRAWING IS PROPERTY OF hUBBELL INC. WEIGMANN\PALL INFORMATION IS PROPRIETARY AND NOT TO BE DUPLICATED\P}
  0
LAYOUT
  5
6B
102
{ACAD_REACTORS
330
62
102
}
330
62
100
AcDbPlotSettings
  1

  2

  4

  6

 40
0.0
 41
0.0
 42
0.0
 43
0.0
 44
0.0
 45
0.0
 46
0.0
 47
0.0
 48
0.0
 49
0.0
140
0.0
141
0.0
142
1.0
143
1.0
 70
   688
 72
     0
 73
     0
 74
     5
  7

 75
    16
147
1.0
 76
     0
 77
     2
 78
   300
148
0.0
149
0.0
100
AcDbLayout
  1
Layout1
 70
     1
 71
     1
 10
0.0
 20
0.0
 11
12.0
 21
9.0
 12
0.0
 22
0.0
 32
0.0
 14
0.0
 24
0.0
 34
0.0
 15
0.0
 25
0.0
 35
0.0
146
0.0
 13
0.0
 23
0.0
 33
0.0
 16
1.0
 26
0.0
 36
0.0
 17
0.0
 27
1.0
 37
0.0
 76
     0
330
68
  0
LAYOUT
  5
73
102
{ACAD_REACTORS
330
62
102
}
330
62
100
AcDbPlotSettings
  1

  2

  4

  6

 40
0.0
 41
0.0
 42
0.0
 43
0.0
 44
0.0
 45
0.0
 46
0.0
 47
0.0
 48
0.0
 49
0.0
140
0.0
141
0.0
142
1.0
143
1.0
 70
   688
 72
     0
 73
     0
 74
     5
  7

 75
    16
147
1.0
 76
     0
 77
     2
 78
   300
148
0.0
149
0.0
100
AcDbLayout
  1
Layout2
 70
     1
 71
     2
 10
0.0
 20
0.0
 11
12.0
 21
9.0
 12
0.0
 22
0.0
 32
0.0
 14
0.0
 24
0.0
 34
0.0
 15
0.0
 25
0.0
 35
0.0
146
0.0
 13
0.0
 23
0.0
 33
0.0
 16
1.0
 26
0.0
 36
0.0
 17
0.0
 27
1.0
 37
0.0
 76
     0
330
70
  0
LAYOUT
  5
6F
102
{ACAD_REACTORS
330
62
102
}
330
62
100
AcDbPlotSettings
  1

  2

  4

  6

 40
0.0
 41
0.0
 42
0.0
 43
0.0
 44
0.0
 45
0.0
 46
0.0
 47
0.0
 48
0.0
 49
0.0
140
0.0
141
0.0
142
1.0
143
1.0
 70
  1712
 72
     0
 73
     0
 74
     0
  7

 75
     0
147
1.0
 76
     0
 77
     2
 78
   300
148
0.0
149
0.0
100
AcDbLayout
  1
Model
 70
     1
 71
     0
 10
0.0
 20
0.0
 11
12.0
 21
9.0
 12
0.0
 22
0.0
 32
0.0
 14
0.0
 24
0.0
 34
0.0
 15
0.0
 25
0.0
 35
0.0
146
0.0
 13
0.0
 23
0.0
 33
0.0
 16
1.0
 26
0.0
 36
0.0
 17
0.0
 27
1.0
 37
0.0
 76
     0
330
6C
  0
MATERIAL
  5
19
102
{ACAD_XDICTIONARY
360
1A
102
}
102
{ACAD_REACTORS
330
10
102
}
330
10
100
AcDbMaterial
  1
ByBlock
 72
     0
 43
0.0208333333333333
 43
0.0
 43
0.0
 43
0.0
 43
0.0
 43
0.0208333333333333
 43
0.0
 43
0.0
 43
0.0
 43
0.0
 43
1.0
 43
0.0
 43
0.0
 43
0.0
 43
0.0
 43
1.0
 77
     0
 47
0.0208333333333333
 47
0.0
 47
0.0
 47
0.0
 47
0.0
 47
0.0208333333333333
 47
0.0
 47
0.0
 47
0.0
 47
0.0
 47
1.0
 47
0.0
 47
0.0
 47
0.0
 47
0.0
 47
1.0
171
     0
 49
0.0208333333333333
 49
0.0
 49
0.0
 49
0.0
 49
0.0
 49
0.0208333333333333
 49
0.0
 49
0.0
 49
0.0
 49
0.0
 49
1.0
 49
0.0
 49
0.0
 49
0.0
 49
0.0
 49
1.0
175
     0
142
0.0208333333333333
142
0.0
142
0.0
142
0.0
142
0.0
142
0.0208333333333333
142
0.0
142
0.0
142
0.0
142
0.0
142
1.0
142
0.0
142
0.0
142
0.0
142
0.0
142
1.0
179
     0
144
0.0208333333333333
144
0.0
144
0.0
144
0.0
144
0.0
144
0.0208333333333333
144
0.0
144
0.0
144
0.0
144
0.0
144
1.0
144
0.0
144
0.0
144
0.0
144
0.0
144
1.0
147
0.0208333333333333
147
0.0
147
0.0
147
0.0
147
0.0
147
0.0208333333333333
147
0.0
147
0.0
147
0.0
147
0.0
147
1.0
147
0.0
147
0.0
147
0.0
147
0.0
147
1.0
  0
MATERIAL
  5
11
102
{ACAD_XDICTIONARY
360
12
102
}
102
{ACAD_REACTORS
330
10
102
}
330
10
100
AcDbMaterial
  1
ByLayer
 72
     0
 43
0.0208333333333333
 43
0.0
 43
0.0
 43
0.0
 43
0.0
 43
0.0208333333333333
 43
0.0
 43
0.0
 43
0.0
 43
0.0
 43
1.0
 43
0.0
 43
0.0
 43
0.0
 43
0.0
 43
1.0
 77
     0
 47
0.0208333333333333
 47
0.0
 47
0.0
 47
0.0
 47
0.0
 47
0.0208333333333333
 47
0.0
 47
0.0
 47
0.0
 47
0.0
 47
1.0
 47
0.0
 47
0.0
 47
0.0
 47
0.0
 47
1.0
171
     0
 49
0.0208333333333333
 49
0.0
 49
0.0
 49
0.0
 49
0.0
 49
0.0208333333333333
 49
0.0
 49
0.0
 49
0.0
 49
0.0
 49
1.0
 49
0.0
 49
0.0
 49
0.0
 49
0.0
 49
1.0
175
     0
142
0.0208333333333333
142
0.0
142
0.0
142
0.0
142
0.0
142
0.0208333333333333
142
0.0
142
0.0
142
0.0
142
0.0
142
1.0
142
0.0
142
0.0
142
0.0
142
0.0
142
1.0
179
     0
144
0.0208333333333333
144
0.0
144
0.0
144
0.0
144
0.0
144
0.0208333333333333
144
0.0
144
0.0
144
0.0
144
0.0
144
1.0
144
0.0
144
0.0
144
0.0
144
0.0
144
1.0
147
0.0208333333333333
147
0.0
147
0.0
147
0.0
147
0.0
147
0.0208333333333333
147
0.0
147
0.0
147
0.0
147
0.0
147
1.0
147
0.0
147
0.0
147
0.0
147
0.0
147
1.0
  0
MATERIAL
  5
21
102
{ACAD_XDICTIONARY
360
22
102
}
102
{ACAD_REACTORS
330
10
102
}
330
10
100
AcDbMaterial
  1
Global
 72
     0
 43
0.0208333333333333
 43
0.0
 43
0.0
 43
0.0
 43
0.0
 43
0.0208333333333333
 43
0.0
 43
0.0
 43
0.0
 43
0.0
 43
1.0
 43
0.0
 43
0.0
 43
0.0
 43
0.0
 43
1.0
 77
     0
 47
0.0208333333333333
 47
0.0
 47
0.0
 47
0.0
 47
0.0
 47
0.0208333333333333
 47
0.0
 47
0.0
 47
0.0
 47
0.0
 47
1.0
 47
0.0
 47
0.0
 47
0.0
 47
0.0
 47
1.0
171
     0
 49
0.0208333333333333
 49
0.0
 49
0.0
 49
0.0
 49
0.0
 49
0.0208333333333333
 49
0.0
 49
0.0
 49
0.0
 49
0.0
 49
1.0
 49
0.0
 49
0.0
 49
0.0
 49
0.0
 49
1.0
175
     0
142
0.0208333333333333
142
0.0
142
0.0
142
0.0
142
0.0
142
0.0208333333333333
142
0.0
142
0.0
142
0.0
142
0.0
142
1.0
142
0.0
142
0.0
142
0.0
142
0.0
142
1.0
179
     0
144
0.0208333333333333
144
0.0
144
0.0
144
0.0
144
0.0
144
0.0208333333333333
144
0.0
144
0.0
144
0.0
144
0.0
144
1.0
144
0.0
144
0.0
144
0.0
144
0.0
144
1.0
147
0.0208333333333333
147
0.0
147
0.0
147
0.0
147
0.0
147
0.0208333333333333
147
0.0
147
0.0
147
0.0
147
0.0
147
1.0
147
0.0
147
0.0
147
0.0
147
0.0
147
1.0
  0
MLEADERSTYLE
  5
67
102
{ACAD_XDICTIONARY
360
12CD
102
}
102
{ACAD_REACTORS
330
66
102
}
330
66
100
AcDbMLeaderStyle
179
     2
170
     2
171
     1
172
     0
 90
        2
 40
0.0
 41
0.0
173
     1
 91
-1056964608
340
5B
 92
       -2
290
     1
 42
0.09
291
     1
 43
0.36
  3
Standard
 44
0.18
300

342
55
174
     1
178
     6
175
     1
176
     0
 93
-1056964608
 45
0.18
292
     0
297
     0
 46
0.18
 94
-1056964608
 47
1.0
 49
1.0
140
1.0
293
     1
141
0.0
294
     1
177
     0
142
1.0
295
     0
296
     0
143
0.125
271
     0
272
     9
273
     9
  0
MLINESTYLE
  5
60
102
{ACAD_REACTORS
330
5F
102
}
330
5F
100
AcDbMlineStyle
  2
STANDARD
 70
     0
  3

 62
   256
 51
90.0
 52
90.0
 71
     2
 49
0.5
 62
   256
  6
BYLAYER
 49
-0.5
 62
   256
  6
BYLAYER
  0
ACDBPLACEHOLDER
  5
F
102
{ACAD_REACTORS
330
E
102
}
330
E
  0
SCALE
  5
43
102
{ACAD_REACTORS
330
42
102
}
330
42
100
AcDbScale
 70
     0
300
1:1
140
1.0
141
1.0
290
     1
  0
SCALE
  5
44
102
{ACAD_REACTORS
330
42
102
}
330
42
100
AcDbScale
 70
     0
300
1/128" = 1'-0"
140
0.0078125
141
12.0
290
     0
  0
SCALE
  5
45
102
{ACAD_REACTORS
330
42
102
}
330
42
100
AcDbScale
 70
     0
300
1/64" = 1'-0"
140
0.015625
141
12.0
290
     0
  0
SCALE
  5
46
102
{ACAD_REACTORS
330
42
102
}
330
42
100
AcDbScale
 70
     0
300
1/32" = 1'-0"
140
0.03125
141
12.0
290
     0
  0
SCALE
  5
47
102
{ACAD_REACTORS
330
42
102
}
330
42
100
AcDbScale
 70
     0
300
1/16" = 1'-0"
140
0.0625
141
12.0
290
     0
  0
SCALE
  5
48
102
{ACAD_REACTORS
330
42
102
}
330
42
100
AcDbScale
 70
     0
300
3/32" = 1'-0"
140
0.09375
141
12.0
290
     0
  0
SCALE
  5
49
102
{ACAD_REACTORS
330
42
102
}
330
42
100
AcDbScale
 70
     0
300
1/8" = 1'-0"
140
0.125
141
12.0
290
     0
  0
SCALE
  5
4A
102
{ACAD_REACTORS
330
42
102
}
330
42
100
AcDbScale
 70
     0
300
3/16" = 1'-0"
140
0.1875
141
12.0
290
     0
  0
SCALE
  5
4B
102
{ACAD_REACTORS
330
42
102
}
330
42
100
AcDbScale
 70
     0
300
1/4" = 1'-0"
140
0.25
141
12.0
290
     0
  0
SCALE
  5
4C
102
{ACAD_REACTORS
330
42
102
}
330
42
100
AcDbScale
 70
     0
300
3/8" = 1'-0"
140
0.375
141
12.0
290
     0
  0
SCALE
  5
4D
102
{ACAD_REACTORS
330
42
102
}
330
42
100
AcDbScale
 70
     0
300
1/2" = 1'-0"
140
0.5
141
12.0
290
     0
  0
SCALE
  5
4E
102
{ACAD_REACTORS
330
42
102
}
330
42
100
AcDbScale
 70
     0
300
3/4" = 1'-0"
140
0.75
141
12.0
290
     0
  0
SCALE
  5
4F
102
{ACAD_REACTORS
330
42
102
}
330
42
100
AcDbScale
 70
     0
300
1" = 1'-0"
140
1.0
141
12.0
290
     0
  0
SCALE
  5
50
102
{ACAD_REACTORS
330
42
102
}
330
42
100
AcDbScale
 70
     0
300
1-1/2" = 1'-0"
140
1.5
141
12.0
290
     0
  0
SCALE
  5
51
102
{ACAD_REACTORS
330
42
102
}
330
42
100
AcDbScale
 70
     0
300
3" = 1'-0"
140
3.0
141
12.0
290
     0
  0
SCALE
  5
52
102
{ACAD_REACTORS
330
42
102
}
330
42
100
AcDbScale
 70
     0
300
6" = 1'-0"
140
6.0
141
12.0
290
     0
  0
SCALE
  5
53
102
{ACAD_REACTORS
330
42
102
}
330
42
100
AcDbScale
 70
     0
300
1'-0" = 1'-0"
140
12.0
141
12.0
290
     0
  0
TABLESTYLE
  5
65
102
{ACAD_XDICTIONARY
360
12CB
102
}
102
{ACAD_REACTORS
330
64
102
}
330
64
100
AcDbTableStyle
280
     0
  3
Standard
 70
     0
 71
     0
 40
0.06
 41
0.06
280
     0
281
     0
  7
Standard
140
0.18
170
     2
 62
     0
 63
     7
283
     0
 90
      512
 91
        0
  1

274
    -2
284
     1
 64
     0
275
    -2
285
     1
 65
     0
276
    -2
286
     1
 66
     0
277
    -2
287
     1
 67
     0
278
    -2
288
     1
 68
     0
279
    -2
289
     1
 69
     0
  7
Standard
140
0.25
170
     5
 62
     0
 63
     7
283
     0
 90
      512
 91
        0
  1

274
    -2
284
     1
 64
     0
275
    -2
285
     1
 65
     0
276
    -2
286
     1
 66
     0
277
    -2
287
     1
 67
     0
278
    -2
288
     1
 68
     0
279
    -2
289
     1
 69
     0
  7
Standard
140
0.18
170
     5
 62
     0
 63
     7
283
     0
 90
      512
 91
        0
  1

274
    -2
284
     1
 64
     0
275
    -2
285
     1
 65
     0
276
    -2
286
     1
 66
     0
277
    -2
287
     1
 67
     0
278
    -2
288
     1
 68
     0
279
    -2
289
     1
 69
     0
  0
VISUALSTYLE
  5
2F
102
{ACAD_REACTORS
330
29
102
}
330
29
100
AcDbVisualStyle
  2
2dWireframe
 70
     4
177
     2
291
     0
 71
     0
176
     1
 72
     2
176
     1
 73
     0
176
     1
 90
        0
176
     1
 40
0.6
176
     1
 41
30.0
176
     1
 63
     7
421
 16777215
176
     1
 74
     1
176
     1
 91
        4
176
     1
 64
     7
176
     1
 65
   257
176
     1
 75
     1
176
     1
175
     1
176
     1
 42
1.0
176
     1
 92
        0
176
     1
 66
   257
176
     1
 43
1.0
176
     1
 76
     1
176
     1
 77
     6
176
     1
 78
     2
176
     1
 67
     7
176
     1
 79
     5
176
     1
170
     0
176
     1
171
     0
176
     1
290
     0
176
     1
 93
        1
176
     1
 44
0.0
176
     1
173
     0
176
     1
  0
VISUALSTYLE
  5
2E
102
{ACAD_REACTORS
330
29
102
}
330
29
100
AcDbVisualStyle
  2
Basic
 70
     7
177
     2
291
     1
 71
     1
176
     1
 72
     0
176
     1
 73
     1
176
     1
 90
        0
176
     1
 40
0.6
176
     1
 41
30.0
176
     1
 63
     7
421
 16777215
176
     1
 74
     0
176
     1
 91
        4
176
     1
 64
     7
176
     1
 65
   257
176
     1
 75
     1
176
     1
175
     1
176
     1
 42
1.0
176
     1
 92
        8
176
     1
 66
     7
176
     1
 43
1.0
176
     1
 76
     1
176
     1
 77
     6
176
     1
 78
     2
176
     1
 67
     7
176
     1
 79
     5
176
     1
170
     0
176
     1
171
     0
176
     1
290
     0
176
     1
 93
        1
176
     1
 44
0.0
176
     1
173
     0
176
     1
  0
VISUALSTYLE
  5
35
102
{ACAD_REACTORS
330
29
102
}
330
29
100
AcDbVisualStyle
  2
Brighten
 70
    12
177
     2
291
     1
 71
     2
176
     1
 72
     2
176
     1
 73
     0
176
     1
 90
        0
176
     1
 40
0.6
176
     1
 41
30.0
176
     1
 63
     7
421
 16777215
176
     1
 74
     1
176
     1
 91
        4
176
     1
 64
     7
176
     1
 65
   257
176
     1
 75
     1
176
     1
175
     1
176
     1
 42
1.0
176
     1
 92
        8
176
     1
 66
     7
176
     1
 43
1.0
176
     1
 76
     1
176
     1
 77
     6
176
     1
 78
     2
176
     1
 67
     7
176
     1
 79
     5
176
     1
170
     0
176
     1
171
     0
176
     1
290
     0
176
     1
 93
        1
176
     1
 44
50.0
176
     1
173
     0
176
     1
  0
VISUALSTYLE
  5
39
102
{ACAD_REACTORS
330
29
102
}
330
29
100
AcDbVisualStyle
  2
ColorChange
 70
    16
177
     2
291
     1
 71
     2
176
     1
 72
     2
176
     1
 73
     3
176
     1
 90
        0
176
     1
 40
0.6
176
     1
 41
30.0
176
     1
 63
     8
421
  8421504
176
     1
 74
     1
176
     1
 91
        4
176
     1
 64
     7
176
     1
 65
   257
176
     1
 75
     1
176
     1
175
     1
176
     1
 42
1.0
176
     1
 92
        8
176
     1
 66
     8
424
  8421504
176
     1
 43
1.0
176
     1
 76
     1
176
     1
 77
     6
176
     1
 78
     2
176
     1
 67
     7
176
     1
 79
     5
176
     1
170
     0
176
     1
171
     0
176
     1
290
     0
176
     1
 93
        1
176
     1
 44
0.0
176
     1
173
     0
176
     1
  0
VISUALSTYLE
  5
32
102
{ACAD_REACTORS
330
29
102
}
330
29
100
AcDbVisualStyle
  2
Conceptual
 70
     9
177
     2
291
     0
 71
     3
176
     1
 72
     2
176
     1
 73
     0
176
     1
 90
        0
176
     1
 40
0.6
176
     1
 41
30.0
176
     1
 63
     7
421
 16777215
176
     1
 74
     2
176
     1
 91
        2
176
     1
 64
     7
176
     1
 65
   257
176
     1
 75
     1
176
     1
175
     1
176
     1
 42
179.0
176
     1
 92
        8
176
     1
 66
     7
176
     1
 43
1.0
176
     1
 76
     1
176
     1
 77
     6
176
     1
 78
     2
176
     1
 67
     7
176
     1
 79
     3
176
     1
170
     0
176
     1
171
     0
176
     1
290
     0
176
     1
 93
        1
176
     1
 44
0.0
176
     1
173
     0
176
     1
  0
VISUALSTYLE
  5
34
102
{ACAD_REACTORS
330
29
102
}
330
29
100
AcDbVisualStyle
  2
Dim
 70
    11
177
     2
291
     1
 71
     2
176
     1
 72
     2
176
     1
 73
     0
176
     1
 90
        0
176
     1
 40
0.6
176
     1
 41
30.0
176
     1
 63
     7
421
 16777215
176
     1
 74
     1
176
     1
 91
        4
176
     1
 64
     7
176
     1
 65
   257
176
     1
 75
     1
176
     1
175
     1
176
     1
 42
1.0
176
     1
 92
        8
176
     1
 66
     7
176
     1
 43
1.0
176
     1
 76
     1
176
     1
 77
     6
176
     1
 78
     2
176
     1
 67
     7
176
     1
 79
     5
176
     1
170
     0
176
     1
171
     0
176
     1
290
     0
176
     1
 93
        1
176
     1
 44
-50.0
176
     1
173
     0
176
     1
  0
VISUALSTYLE
  5
41
102
{ACAD_REACTORS
330
29
102
}
330
29
100
AcDbVisualStyle
  2
EdgeColorOff
 70
    22
177
     2
291
     1
 71
     2
176
     0
 72
     2
176
     0
 73
     0
176
     0
 90
        0
176
     0
 40
0.6
176
     0
 41
30.0
176
     0
 63
     7
421
 16777215
176
     0
 74
     1
176
     0
 91
        4
176
     0
 64
     7
176
     0
 65
   257
176
     0
 75
     1
176
     0
175
     1
176
     0
 42
1.0
176
     0
 92
        8
176
     2
 66
     7
176
     0
 43
1.0
176
     0
 76
     1
176
     0
 77
     6
176
     0
 78
     2
176
     0
 67
     7
176
     0
 79
     5
176
     0
170
     0
176
     0
171
     0
176
     0
290
     0
176
     0
 93
        1
176
     0
 44
0.0
176
     0
173
     0
176
     0
  0
VISUALSTYLE
  5
38
102
{ACAD_REACTORS
330
29
102
}
330
29
100
AcDbVisualStyle
  2
Facepattern
 70
    15
177
     2
291
     1
 71
     2
176
     1
 72
     2
176
     1
 73
     0
176
     1
 90
        0
176
     1
 40
0.6
176
     1
 41
30.0
176
     1
 63
     7
421
 16777215
176
     1
 74
     1
176
     1
 91
        4
176
     1
 64
     7
176
     1
 65
   257
176
     1
 75
     1
176
     1
175
     1
176
     1
 42
1.0
176
     1
 92
        8
176
     1
 66
     7
176
     1
 43
1.0
176
     1
 76
     1
176
     1
 77
     6
176
     1
 78
     2
176
     1
 67
     7
176
     1
 79
     5
176
     1
170
     0
176
     1
171
     0
176
     1
290
     0
176
     1
 93
        1
176
     1
 44
0.0
176
     1
173
     0
176
     1
  0
VISUALSTYLE
  5
2A
102
{ACAD_REACTORS
330
29
102
}
330
29
100
AcDbVisualStyle
  2
Flat
 70
     0
177
     2
291
     1
 71
     2
176
     1
 72
     1
176
     1
 73
     1
176
     1
 90
        2
176
     1
 40
0.6
176
     1
 41
30.0
176
     1
 63
     7
421
 16777215
176
     1
 74
     0
176
     1
 91
        0
176
     1
 64
     7
176
     1
 65
   257
176
     1
 75
     1
176
     1
175
     1
176
     1
 42
1.0
176
     1
 92
        8
176
     1
 66
     7
176
     1
 43
1.0
176
     1
 76
     1
176
     1
 77
     6
176
     1
 78
     2
176
     1
 67
     7
176
     1
 79
     5
176
     1
170
     0
176
     1
171
     0
176
     1
290
     0
176
     1
 93
       13
176
     1
 44
0.0
176
     1
173
     0
176
     1
  0
VISUALSTYLE
  5
2B
102
{ACAD_REACTORS
330
29
102
}
330
29
100
AcDbVisualStyle
  2
FlatWithEdges
 70
     1
177
     2
291
     1
 71
     2
176
     1
 72
     1
176
     1
 73
     1
176
     1
 90
        2
176
     1
 40
0.6
176
     1
 41
30.0
176
     1
 63
     7
421
 16777215
176
     1
 74
     1
176
     1
 91
        0
176
     1
 64
     7
176
     1
 65
   257
176
     1
 75
     1
176
     1
175
     1
176
     1
 42
1.0
176
     1
 92
        0
176
     1
 66
   257
176
     1
 43
1.0
176
     1
 76
     1
176
     1
 77
     6
176
     1
 78
     2
176
     1
 67
     7
176
     1
 79
     5
176
     1
170
     0
176
     1
171
     0
176
     1
290
     0
176
     1
 93
       13
176
     1
 44
0.0
176
     1
173
     0
176
     1
  0
VISUALSTYLE
  5
2C
102
{ACAD_REACTORS
330
29
102
}
330
29
100
AcDbVisualStyle
  2
Gouraud
 70
     2
177
     2
291
     1
 71
     2
176
     1
 72
     2
176
     1
 73
     1
176
     1
 90
        2
176
     1
 40
0.6
176
     1
 41
30.0
176
     1
 63
     7
421
 16777215
176
     1
 74
     0
176
     1
 91
        0
176
     1
 64
     7
176
     1
 65
   257
176
     1
 75
     1
176
     1
175
     1
176
     1
 42
1.0
176
     1
 92
        0
176
     1
 66
     7
176
     1
 43
1.0
176
     1
 76
     1
176
     1
 77
     6
176
     1
 78
     2
176
     1
 67
     7
176
     1
 79
     5
176
     1
170
     0
176
     1
171
     0
176
     1
290
     0
176
     1
 93
       13
176
     1
 44
0.0
176
     1
173
     0
176
     1
  0
VISUALSTYLE
  5
2D
102
{ACAD_REACTORS
330
29
102
}
330
29
100
AcDbVisualStyle
  2
GouraudWithEdges
 70
     3
177
     2
291
     1
 71
     2
176
     1
 72
     2
176
     1
 73
     1
176
     1
 90
        2
176
     1
 40
0.6
176
     1
 41
30.0
176
     1
 63
     7
421
 16777215
176
     1
 74
     1
176
     1
 91
        0
176
     1
 64
     7
176
     1
 65
   257
176
     1
 75
     1
176
     1
175
     1
176
     1
 42
1.0
176
     1
 92
        0
176
     1
 66
   257
176
     1
 43
1.0
176
     1
 76
     1
176
     1
 77
     6
176
     1
 78
     2
176
     1
 67
     7
176
     1
 79
     5
176
     1
170
     0
176
     1
171
     0
176
     1
290
     0
176
     1
 93
       13
176
     1
 44
0.0
176
     1
173
     0
176
     1
  0
VISUALSTYLE
  5
31
102
{ACAD_REACTORS
330
29
102
}
330
29
100
AcDbVisualStyle
  2
Hidden
 70
     6
177
     2
291
     0
 71
     1
176
     1
 72
     2
176
     1
 73
     2
176
     1
 90
        0
176
     1
 40
0.6
176
     1
 41
30.0
176
     1
 63
     7
421
 16777215
176
     1
 74
     2
176
     1
 91
        2
176
     1
 64
     7
176
     1
 65
   257
176
     1
 75
     2
176
     1
175
     1
176
     1
 42
40.0
176
     1
 92
        0
176
     1
 66
   257
176
     1
 43
1.0
176
     1
 76
     1
176
     1
 77
     6
176
     1
 78
     2
176
     1
 67
     7
176
     1
 79
     3
176
     1
170
     0
176
     1
171
     0
176
     1
290
     0
176
     1
 93
        1
176
     1
 44
0.0
176
     1
173
     0
176
     1
  0
VISUALSTYLE
  5
3F
102
{ACAD_REACTORS
330
29
102
}
330
29
100
AcDbVisualStyle
  2
JitterOff
 70
    20
177
     2
291
     1
 71
     2
176
     0
 72
     2
176
     0
 73
     0
176
     0
 90
        0
176
     0
 40
0.6
176
     0
 41
30.0
176
     0
 63
     7
421
 16777215
176
     0
 74
     1
176
     0
 91
        4
176
     0
 64
     7
176
     0
 65
   257
176
     0
 75
     1
176
     0
175
     1
176
     0
 42
1.0
176
     0
 92
       10
176
     2
 66
     7
176
     0
 43
1.0
176
     0
 76
     1
176
     0
 77
     6
176
     0
 78
     2
176
     0
 67
     7
176
     0
 79
     5
176
     0
170
     0
176
     0
171
     0
176
     0
290
     0
176
     0
 93
        1
176
     0
 44
0.0
176
     0
173
     0
176
     0
  0
VISUALSTYLE
  5
37
102
{ACAD_REACTORS
330
29
102
}
330
29
100
AcDbVisualStyle
  2
Linepattern
 70
    14
177
     2
291
     1
 71
     2
176
     1
 72
     2
176
     1
 73
     0
176
     1
 90
        0
176
     1
 40
0.6
176
     1
 41
30.0
176
     1
 63
     7
421
 16777215
176
     1
 74
     1
176
     1
 91
        4
176
     1
 64
     7
176
     1
 65
   257
176
     1
 75
     7
176
     1
175
     7
176
     1
 42
1.0
176
     1
 92
        8
176
     1
 66
     7
176
     1
 43
1.0
176
     1
 76
     1
176
     1
 77
     6
176
     1
 78
     2
176
     1
 67
     7
176
     1
 79
     5
176
     1
170
     0
176
     1
171
     0
176
     1
290
     0
176
     1
 93
        1
176
     1
 44
0.0
176
     1
173
     0
176
     1
  0
VISUALSTYLE
  5
40
102
{ACAD_REACTORS
330
29
102
}
330
29
100
AcDbVisualStyle
  2
OverhangOff
 70
    21
177
     2
291
     1
 71
     2
176
     0
 72
     2
176
     0
 73
     0
176
     0
 90
        0
176
     0
 40
0.6
176
     0
 41
30.0
176
     0
 63
     7
421
 16777215
176
     0
 74
     1
176
     0
 91
        4
176
     0
 64
     7
176
     0
 65
   257
176
     0
 75
     1
176
     0
175
     1
176
     0
 42
1.0
176
     0
 92
        9
176
     2
 66
     7
176
     0
 43
1.0
176
     0
 76
     1
176
     0
 77
     6
176
     0
 78
     2
176
     0
 67
     7
176
     0
 79
     5
176
     0
170
     0
176
     0
171
     0
176
     0
290
     0
176
     0
 93
        1
176
     0
 44
0.0
176
     0
173
     0
176
     0
  0
VISUALSTYLE
  5
33
102
{ACAD_REACTORS
330
29
102
}
330
29
100
AcDbVisualStyle
  2
Realistic
 70
     8
177
     2
291
     0
 71
     2
176
     1
 72
     3
176
     1
 73
     0
176
     1
 90
        2
176
     1
 40
0.6
176
     1
 41
30.0
176
     1
 63
     7
421
 16777215
176
     1
 74
     0
176
     1
 91
        0
176
     1
 64
     7
176
     1
 65
   257
176
     1
 75
     1
176
     1
175
     1
176
     1
 42
1.0
176
     1
 92
        8
176
     1
 66
   257
176
     1
 43
1.0
176
     1
 76
     1
176
     1
 77
     6
176
     1
 78
     2
176
     1
 67
     7
176
     1
 79
     3
176
     1
170
     0
176
     1
171
     0
176
     1
290
     0
176
     1
 93
       13
176
     1
 44
0.0
176
     1
173
     0
176
     1
  0
VISUALSTYLE
  5
3E
102
{ACAD_REACTORS
330
29
102
}
330
29
100
AcDbVisualStyle
  2
Shaded
 70
    27
177
     2
291
     0
 71
     2
176
     1
 72
     2
176
     1
 73
     1
176
     1
 90
        2
176
     1
 40
0.6
176
     1
 41
30.0
176
     1
 63
     7
421
 16777215
176
     1
 74
     0
176
     1
 91
        4
176
     1
 64
     7
176
     1
 65
   257
176
     1
 75
     1
176
     1
175
     1
176
     1
 42
1.0
176
     1
 92
        8
176
     1
 66
   257
176
     1
 43
1.0
176
     1
 76
     1
176
     1
 77
     6
176
     1
 78
     2
176
     1
 67
     8
425
  7895160
176
     1
 79
     3
176
     1
170
     0
176
     1
171
     0
176
     1
290
     0
176
     1
 93
        5
176
     1
 44
0.0
176
     1
173
     0
176
     1
  0
VISUALSTYLE
  5
3D
102
{ACAD_REACTORS
330
29
102
}
330
29
100
AcDbVisualStyle
  2
Shaded with edges
 70
    26
177
     2
291
     0
 71
     2
176
     1
 72
     2
176
     1
 73
     1
176
     1
 90
        2
176
     1
 40
0.6
176
     1
 41
30.0
176
     1
 63
     7
421
 16777215
176
     1
 74
     1
176
     1
 91
       10
176
     1
 64
     7
176
     1
 65
   257
176
     1
 75
     2
176
     1
175
     1
176
     1
 42
1.0
176
     1
 92
        8
176
     1
 66
   257
176
     1
 43
1.0
176
     1
 76
     1
176
     1
 77
     6
176
     1
 78
     2
176
     1
 67
     7
176
     1
 79
     3
176
     1
170
     0
176
     1
171
     0
176
     1
290
     0
176
     1
 93
        5
176
     1
 44
0.0
176
     1
173
     0
176
     1
  0
VISUALSTYLE
  5
3A
102
{ACAD_REACTORS
330
29
102
}
330
29
100
AcDbVisualStyle
  2
Shades of Gray
 70
    23
177
     2
291
     0
 71
     2
176
     1
 72
     2
176
     1
 73
     3
176
     1
 90
        0
176
     1
 40
0.6
176
     1
 41
30.0
176
     1
 63
     7
421
 16777215
176
     1
 74
     2
176
     1
 91
        2
176
     1
 64
     7
176
     1
 65
     7
176
     1
 75
     1
176
     1
175
     1
176
     1
 42
40.0
176
     1
 92
        8
176
     1
 66
     7
176
     1
 43
1.0
176
     1
 76
     1
176
     1
 77
     6
176
     1
 78
     2
176
     1
 67
     7
176
     1
 79
     3
176
     1
170
     0
176
     1
171
     0
176
     1
290
     0
176
     1
 93
        1
176
     1
 44
0.0
176
     1
173
     0
176
     1
  0
VISUALSTYLE
  5
3B
102
{ACAD_REACTORS
330
29
102
}
330
29
100
AcDbVisualStyle
  2
Sketchy
 70
    24
177
     2
291
     0
 71
     1
176
     1
 72
     2
176
     1
 73
     2
176
     1
 90
        0
176
     1
 40
0.6
176
     1
 41
30.0
176
     1
 63
     7
421
 16777215
176
     1
 74
     2
176
     1
 91
        2
176
     1
 64
     7
176
     1
 65
     7
176
     1
 75
     1
176
     1
175
     1
176
     1
 42
40.0
176
     1
 92
       11
176
     1
 66
     7
176
     1
 43
1.0
176
     1
 76
     1
176
     1
 77
     6
176
     1
 78
     2
176
     1
 67
     7
176
     1
 79
     6
176
     1
170
     0
176
     1
171
     0
176
     1
290
     0
176
     1
 93
        1
176
     1
 44
0.0
176
     1
173
     0
176
     1
  0
VISUALSTYLE
  5
36
102
{ACAD_REACTORS
330
29
102
}
330
29
100
AcDbVisualStyle
  2
Thicken
 70
    13
177
     2
291
     1
 71
     2
176
     1
 72
     2
176
     1
 73
     0
176
     1
 90
        0
176
     1
 40
0.6
176
     1
 41
30.0
176
     1
 63
     7
421
 16777215
176
     1
 74
     1
176
     1
 91
        4
176
     1
 64
     7
176
     1
 65
   257
176
     1
 75
     1
176
     1
175
     1
176
     1
 42
1.0
176
     1
 92
       12
176
     1
 66
     7
176
     1
 43
1.0
176
     1
 76
     1
176
     1
 77
     6
176
     1
 78
     2
176
     1
 67
     7
176
     1
 79
     5
176
     1
170
     0
176
     1
171
     0
176
     1
290
     0
176
     1
 93
        1
176
     1
 44
0.0
176
     1
173
     0
176
     1
  0
VISUALSTYLE
  5
30
102
{ACAD_REACTORS
330
29
102
}
330
29
100
AcDbVisualStyle
  2
Wireframe
 70
     5
177
     2
291
     0
 71
     0
176
     1
 72
     2
176
     1
 73
     0
176
     1
 90
        0
176
     1
 40
0.6
176
     1
 41
30.0
176
     1
 63
     7
421
 16777215
176
     1
 74
     1
176
     1
 91
        4
176
     1
 64
     7
176
     1
 65
   257
176
     1
 75
     1
176
     1
175
     1
176
     1
 42
1.0
176
     1
 92
        0
176
     1
 66
   257
176
     1
 43
1.0
176
     1
 76
     1
176
     1
 77
     6
176
     1
 78
     2
176
     1
 67
     7
176
     1
 79
     3
176
     1
170
     0
176
     1
171
     0
176
     1
290
     0
176
     1
 93
        1
176
     1
 44
0.0
176
     1
173
     0
176
     1
  0
VISUALSTYLE
  5
3C
102
{ACAD_REACTORS
330
29
102
}
330
29
100
AcDbVisualStyle
  2
X-Ray
 70
    25
177
     2
291
     0
 71
     2
176
     1
 72
     2
176
     1
 73
     1
176
     1
 90
        1
176
     1
 40
0.5
176
     1
 41
30.0
176
     1
 63
     7
421
 16777215
176
     1
 74
     1
176
     1
 91
        0
176
     1
 64
     7
176
     1
 65
   257
176
     1
 75
     1
176
     1
175
     1
176
     1
 42
1.0
176
     1
 92
        8
176
     1
 66
     7
176
     1
 43
1.0
176
     1
 76
     1
176
     1
 77
     6
176
     1
 78
     2
176
     1
 67
     7
176
     1
 79
     3
176
     1
170
     0
176
     1
171
     0
176
     1
290
     0
176
     1
 93
       13
176
     1
 44
0.0
176
     1
173
     0
176
     1
  0
DICTIONARYVAR
  5
79
102
{ACAD_REACTORS
330
76
102
}
330
76
100
DictionaryVariables
280
     0
  1
1:1
  0
DICTIONARYVAR
  5
78
102
{ACAD_REACTORS
330
76
102
}
330
76
100
DictionaryVariables
280
     0
  1
STANDARD
  0
DICTIONARYVAR
  5
77
102
{ACAD_REACTORS
330
76
102
}
330
76
100
DictionaryVariables
280
     0
  1
STANDARD
  0
DICTIONARY
  5
1A
330
19
100
AcDbDictionary
280
     1
281
     1
  3
BUMPTILE
360
1C
  3
DIFFUSETILE
360
1B
  3
OPACITYTILE
360
1F
  3
REFLECTIONTILE
360
1E
  3
REFRACTIONTILE
360
20
  3
SPECULARTILE
360
1D
  0
DICTIONARY
  5
12
330
11
100
AcDbDictionary
280
     1
281
     1
  3
BUMPTILE
360
14
  3
DIFFUSETILE
360
13
  3
FBXASSET
360
F5
  3
OPACITYTILE
360
17
  3
REFLECTIONTILE
360
16
  3
REFRACTIONTILE
360
18
  3
SPECULARTILE
360
15
  0
DICTIONARY
  5
22
330
21
100
AcDbDictionary
280
     1
281
     1
  3
BUMPTILE
360
24
  3
DIFFUSETILE
360
23
  3
FBXASSET
360
BA
  3
OPACITYTILE
360
27
  3
REFLECTIONTILE
360
26
  3
REFRACTIONTILE
360
28
  3
SPECULARTILE
360
25
  0
DICTIONARY
  5
12CD
330
67
100
AcDbDictionary
280
     1
281
     1
  3
ACAD_XREC_ROUNDTRIP
360
12CE
  0
DICTIONARY
  5
12CB
330
65
100
AcDbDictionary
280
     1
281
     1
  3
ACAD_ROUNDTRIP_2008_TABLESTYLE_CELLSTYLEMAP
360
12CC
  0
XRECORD
  5
1C
102
{ACAD_REACTORS
330
1A
102
}
330
1A
100
AcDbXrecord
280
     1
270
     1
271
     1
  0
XRECORD
  5
1B
102
{ACAD_REACTORS
330
1A
102
}
330
1A
100
AcDbXrecord
280
     1
270
     1
271
     1
  0
XRECORD
  5
1F
102
{ACAD_REACTORS
330
1A
102
}
330
1A
100
AcDbXrecord
280
     1
270
     1
271
     1
  0
XRECORD
  5
1E
102
{ACAD_REACTORS
330
1A
102
}
330
1A
100
AcDbXrecord
280
     1
270
     1
271
     1
  0
XRECORD
  5
20
102
{ACAD_REACTORS
330
1A
102
}
330
1A
100
AcDbXrecord
280
     1
270
     1
271
     1
  0
XRECORD
  5
1D
102
{ACAD_REACTORS
330
1A
102
}
330
1A
100
AcDbXrecord
280
     1
270
     1
271
     1
  0
XRECORD
  5
14
102
{ACAD_REACTORS
330
12
102
}
330
12
100
AcDbXrecord
280
     1
270
     1
271
     1
  0
XRECORD
  5
13
102
{ACAD_REACTORS
330
12
102
}
330
12
100
AcDbXrecord
280
     1
270
     1
271
     1
  0
XRECORD
  5
F5
102
{ACAD_REACTORS
330
12
102
}
330
12
100
AcDbXrecord
280
     1
 70
     1
 90
1959938040
 71
     1
  1
1D678C7D-113C-4837-B15B-A5C8BF177D8D
311
504B03040A0000080000F14E22423DEE336E79000000790000001B0000006175746F6465736B2D64657369676E2D7061636B6167652E786D6C3C3F786D6C2076657273696F6E3D22312E302220656E636F64696E673D227574662D3822203F3E3C666F726D6174733E3C666F726D61743E687474703A2F2F736368656D612E
311
6175746F6465736B2E636F6D2F64657369676E2D7061636B6167652F323030393C2F666F726D61743E3C2F666F726D6174733E504B0304140006080800F14E2242D486FD9CA0000000F4000000130000005B436F6E74656E745F54797065735D2E786D6C7D8EC10E82300C865F65E91D8A1E8C310C0EEA1BF002731658846E
311
D98AC1B77784ABF1D8FE5FBFBF75BBCE937A534CCEB38643598122B6FEE978D0B0485F9C41B54DDD7D022595594E1A469170414C76A4D9A4D207E29CF43ECE46F218070CC6BECC4078ACAA135ACF422C856C0E68EA1BF5669944DDD7BCDE7B1F8E415D77AECB980613C2E4AC91FC167A2B244592486606FC29C8FD7F045B9A
311
EF7053A7E60B504B0304140006080800F14E224209A731EAEA0000007C01000008000000636F72652E786D6C8D90D16E832018855F85708F82A8538334ADDD9E602F40805AD20A4660D9E30F5A9B6C77BBFAFF1CCEC77F72D8E17BB9832FBD79E3EC08498121D0563A65EC3CC2182EA883E0C0D9E65CF86583C08A458F30CB
311
90B3797371DD25E96CD03624D53AA5775178AF0304F29E96117A79D58B28440CC9E16FC52AE44DCCBA20AF2DC1311A059E478C4AFF998BD11BE4A4A56FD3F14851D7F604D5E789A21E9F3A74FAA8FBFA7D9ACEB8A9589961CE82595EF7E5A645D00AF20A138A3041B8FAC4FDD03403AD116E078C5999ED7FA0B8AA7F42D1D8
311
40AB3DEE13F3296B0AF278E0ACCC5DA4F1282ACDDC1BFF01504B0304140006080800F14E224255019EA25F0000007C00000007000000636E782E786D6C4DCB3B0E80201045D1AD90E915ED2CF8AC45050C11660C8261F98AB1B07AC9C97D42D718D865D3E909258CFD00CCE24AC6E326A164D74DC0B4128928FF326038472B
311
A13128B1252AC747C6BAB984FC68F0B87FE8960A5C09FE86CFB69FBA01504B0304140006080800F14E22427693C29A67010000020300000C0000006662782F636F72652E786D6C8D52ED8E8230107C95A6FF4BCB879E9A52A378F704F702152A4784969496F8F8B77C18CE8B3186A434333BBBB3037C7F6B6AD42BDB5546A7
311
380C18464AE7A6A8749962EF2E6483D15E706B8CFB538691968D4AF10063C14B6B7C3B43B9D14E6907A836859A41D975CA6194D770497197FFA84606D23BA8E8AE412BF3AB2C55100640439DE09DB360004D4386138BCBF9C6E9840BEE7D55CC6C55C0B4EA52298B45B88E3FB2C321269BF53624C9298BC9961D37E4F8956C
311
93CF2C3BB155C4E92016DC55CDDD5D6E9574AAC02262614C584858F4CDB6BBD56A172784AD778C713A943F887C5BBC29F295767134DB9D641D78052323F16F5B88C8A14EF6E0870A4E8710E13526FC18340402213B79AEEF7B5C01EA55EE8C4D80298C5FA85ED65EC15486C687D38985CE6303D8EC699FE8459FD73DE0034A
311
5D8235E9E07AF66E98CEA7A97314ADB2A47737A48D6D64BD989B2C2EE732E8A93C37B5B1EFA8E9BC2A9DC3A4C3DF2B7E01504B0304140006080800F14E2242C1DF59AB7E0000009D0000000B0000006662782F636E782E786D6C4DCCDF0AC2201C86E15B91DFB9ED9F4E0375E4AAFB18CD0D99D3308D2EBF2D76D0D1070F1F
311
AFE83EAB436F135F367809D5A90464FC238CD6CF12729A3007D4291143487F37407E588D849D41893986FC3C6834D3905DDAD459BF1C78A9AB73CF4A8E1BAD392677D6634DC90D936B4B29614D5B33068512C5AFB4ED1E565F504B0304140006080800F14E2242A62972F22D01000015020000310000006662782F41323139
311
433730382D334242382D344637432D423534452D3444363535343733363237372F636F72652E786D6C8D51CB6EC32010FC158B537AC0061B6C27C2444DDA7E417FC00192A2C460F1A8F2F985DA91DA5B2E2C9A9D991DEDB2FD7DBA15DFCA796DCD00708940A18CB0529BCB006238C31E147BCE9CB5E10F0D14669CD400320C
311
38BB381BE71512D6046542428D956A0547EF550085B8A5CF00BCF852D3588E312486BF96F328AEE34595B84CEDC4E3CC07970214CB90FC02FE5AE3EDB1433D6C0E871E928FEE080F94BC43F2D6524ABAA6ADBB8E558B90B318B55CE55AA638FAAC957BD6248B390B7A7AC4174E8D4149C06B841B883044F527DAEE28DD3504
311
A2768710AB32FD9F28CEF24951D42634F51A779179C031AB960667D2C6D3ED1146DD67EB4291E76DBC122F80A312A1A6AB29C55B562DDCB48164DA92D5D407EBD28637D753A263BA38B784B32A1F2995DF0BA69A0FCA7F00504B0304140006080800F14E2242BE24AD454E01000033030000300000006662782F4132313943
311
3730382D334242382D344637432D423534452D3444363535343733363237372F636E782E786D6CD593CD6EC32010845F0571B78D13276A234CA41EFA043DF44A6093D260B0F8A99AB7EF929034971C7AEC0559B3C3CCEA13E6DBEFC9922F08D17837D2BE659480535E1B7718694EFBE68992ADE0C1FB7467A3C4C909465A64
311
2AF821F83C5749C35E669B50B5C61DAB1820FA1C144494CB4D62BD921603C03519459876A035687233E2D71E02AE82E2EE44D20790D79777E2779FA052E45D4911BC2B1D8297B336DD99285156C638D2A83E6092ADCCC96B88C756CB24DBBEBD763DD8E93789940BD7CA1C0C29E5232D271575A31639F20E8782C714905E35
311
A5D30C54C879B646C98490BBB3F1E2113C1B97D643F51A041FD0DDAF97C38061E799E0C94C501D2A804CA0A958B07ED9B0BE618B37F6BC59AD36CBA161EB0D63BC2B76C177DEDB7A096320F89928EF12B84445CFBB327E84AFFA88360159FB70FA034804505B2F746E19FF994F777EDF882BE05F207E00504B030414000608
311
0800F14E2242E84C8956A305000081100000340000006662782F41323139433730382D334242382D344637432D423534452D3444363535343733363237372F6F626A656374732E786D6CAD57D96EDB3814FD1541F332F3E045B693380345456C3785D1A62D6AA4980703062D510A27D402924A9DF9FA3914295972ECD433E8
311
8B162E97F79E7BEE42FFDD2EE5CE331592E5D98DEBF587AE43B3308F5896DCB8A58A7B53D77917F822CF556B99EB6424A537AE1E76033F117959D8A188C6A4E4EA60F46EF69723439A51D7093991F2C695E1234D499F942A8FA87CEA4744917E12EFFA5EDF2CEC8A4D04291E0F841644D04C41538C6790E218A5BCEEEFD01D
311
04FE40CF07BE7EDA55E3D3AB06953DDDF3592615C9C257871D88197B93C5FBD1C575EF623219F7269723AF37BB9B2D7ADED57838BF9CCFAF6FDF5FE360A90424594D048DDDE003B0112CF407662AF04B96A9F1C82EB10E1A08FACCB4A7DC60E478FEC0AC69ACB3461E533FCCB38C86155640A3B2CF8A8E6841B3083E675442
311
B31642C3EEAFA7716C4D8FF5BF3DB23D7C1E02ED1D2D41B5EEF5BBAD69BEFD1B26C873182424D50C34585A430D57877B84B779CEED1C934E4A14158C7087B3AD20E2C50DB0542F09FC8E18CD64A1A3415BE006F08299EED20561F4739E1FD3322E39D73476832A0A368815AA64A519FB878ABDF66D64A0137CA5D930B506A9
311
9782BAC1B5A1C8F4804D064827E62481CB61A6DE391E1D183AD771BA5CB8C1C7BBED6EA563F7F8E185C80B2A94A60FA8553BAE7E6B94AC4EDE599ED31BDC0355F6A07C03F29F11EA7B55E037C17693DDC49EA204C9649C8B14BE71864E6F88C7D0F1AAA7FE6E7DF9836673D77BA7F084B33554BF00CFAE0D6D5FB6E00CFC67
311
103E17636BDA2A241C69E39E65004893C4E139869087E3EDCE0D96C872C8CAD84578E0C164A8FB8C4F7F60C520515427B5DE19B03C488B672468C05631126A18F25B05F77E7A95CEAA83EDB253F05EFC12BADE2E561F57A5884948EF6D4C2F68CC32A650E2F6BC692BD4C1BC63D1137DF9918B0886BEC67BD5C63BB54749A0
311
AD31D7C027754ED73FFB933B0784D897E43ADDF83F390146E8C2DA927FCF6448392719CDCBFADC37EB07CA86815807BB66725360F68505A43133073188221D0A5668109B6AD524CDFE09EB1E969FC1483798BD7C222FEDECB5DDE7DE30E7B9D86C5F36262D1D85FA7B97DB1683819602BA574152C7BF057D13B1382E2592E0
311
115CBF2FE76DDFE9B48014514B35D13281FD082E222C696BB9A8D682A092E6D986A16E22EE8E1ED0960F482D032A81A7349694C71BC679996E62C6518D3629294EC0F1FFF5DF9669B121695E66EA84EC8EEAA80E5DDD3BEC953F880A1FDD6055BD7B33E4DE884627C8A06BC911ACBAAE5D5C5E4DE7576898BCF1BC37998EAF
311
7A33EF62D6BBBD984F6777DED5D562BAA8FD643409FCBAD4B4231A5E4269F34BC1ACFB1E96881F9B04DCE09E28B9FE60C2B37E3F2CFBE885FD01F6A05E361B6FA367F47D34FAB980FDCAA3829669C1694A3345740CDDEB0FFE8DA0CFE82863C6972949E81952BE7C581D18839133F67DD5F14E7F1CECB5A3731D904785A8C7
311
32DD6684F1838D8941B25F6489C5AFF649F33685A6FED57FD631E84C65CE59843C183909CD53AA900DCF284222A512D46BF7F491BD7B9CB1FBD974888A6C39AD3579246892B94458805A65A8BAE3CE6F68EA745F75E3A2DCF69FF0B099C275C0991B174DBA622195FD2D0AB46E852AE1E052BB9347E34FB284A3D7369B9AFF
311
6697C6A653929B25E7F44FD62E93C2AD01482305FA063444F04EA54CE057BAD9F9F03F195EABE31085CF6DA91A5BF6038D31D53108516394BD2DA08979B247EF10A86F9BE5F5AB351D44CEBA65BD490223B5A78848AA9B82D6CFAA74BBF83A4087E22CBF38052F13F8F27C493D4141E652073858045658990551A0EAFCCFF5
311
5791E3269B3A770C14707EDF4D2FFF58CFF334CD3333B4BEB5F76167F588DB6DB44672A0FA5A22D7A3A1375A57D7017B43D96C89A47D12C9270CC0B382354077DC0F5E9A3B23EA909968D60DB42B0E18BA5C38B6B04D20D4D2A59D5B3538683C32EA2086F49552474C7B41F1E68D60502D850A02BD7CF02F504B0304140006
311
080000F14E2242000000000000000000000000350000006662782F41323139433730382D334242382D344637432D423534452D3444363535343733363237372F76657274696365732E62696E504B0304140006080800F14E2242F270F1330600000004000000360000006662782F41323139433730382D334242382D344637
311
432D423534452D3444363535343733363237372F747269616E676C65732E62696E636660600000504B0304140006080000F14E2242000000000000000000000000370000006662782F41323139433730382D334242382D344637432D423534452D3444363535343733363237372F617474726962757465732E62696E504B03
311
04140006080800F14E2242D5987DFC8F00000041010000360000006662782F41323139433730382D334242382D344637432D423534452D3444363535343733363237372F6469726563746F72792E786D6C858F410EC2201045AF4266AF15DDB800BA74E7C21B903225242D6328188F2FA5C4183471359997F9FF81E89FF3C4
311
1E1816475E02DF1F80A11FC8386F25A438EECEC07A250251FC3803E6F58C12560C4AD840E95E91C151A72936F496F35732D860FE635F62C8F2DA16B505C545B74125BAA2FA9E05D7CC053D063734D5C7665FD55B6B8D15D5E9BFEAFD8490FFA45E504B0304140006080800F14E22421A0C1F72FD000000A00100003B000000
311
6662782F41323139433730382D334242382D344637432D423534452D3444363535343733363237372F7265736F75726365732F636F72652E786D6C8D50596E833010BD0AF2BFC1662B20E32821ED097A01CB4CA89560232F558F5F3B50A9FDEBCFCCE82D9AA7C74E5FEB23FB04EB94D123A2394119686966A59711057FC31D
311
CA4E9C5963FC2F19CAB458614409469C2DD684ED80A4D11EB48FA836331CA0700E3CCAE4231E2372F20356918BE0A3C2DDF34DC8BB5820A779A4A38E33E76D0C90ED4FD244DC8233C14A70ACD859CE4250F3A15173FCA96E0A2CE2B4AD5EA6F3B9C45DDB535C5FA70AF7E4D2E1CB5BDDD7AFD374254DC98A64E6CCABF527A3
311
B4203CCC8897845698504CCA77D20F4D33543526ED40082B92FC8F296CF33F4D41695F9547DCDDE662D618E4497056A4BEE27A961977EA967F03504B010214000A0000080000F14E22423DEE336E79000000790000001B00000000000000000000000000000000006175746F6465736B2D64657369676E2D7061636B616765
311
2E786D6C504B01021400140006080800F14E2242D486FD9CA0000000F40000001300000000000000000000000000B20000005B436F6E74656E745F54797065735D2E786D6C504B01021400140006080800F14E224209A731EAEA0000007C010000080000000000000000000000000083010000636F72652E786D6C504B0102
311
1400140006080800F14E224255019EA25F0000007C000000070000000000000000000000000093020000636E782E786D6C504B01021400140006080800F14E22427693C29A67010000020300000C00000000000000000000000000170300006662782F636F72652E786D6C504B01021400140006080800F14E2242C1DF59AB
311
7E0000009D0000000B00000000000000000000000000A80400006662782F636E782E786D6C504B01021400140006080800F14E2242A62972F22D0100001502000031000000000000000000000000004F0500006662782F41323139433730382D334242382D344637432D423534452D3444363535343733363237372F636F72
311
652E786D6C504B01021400140006080800F14E2242BE24AD454E010000330300003000000000000000000000000000CB0600006662782F41323139433730382D334242382D344637432D423534452D3444363535343733363237372F636E782E786D6C504B01021400140006080800F14E2242E84C8956A305000081100000
311
3400000000000000000000000000670800006662782F41323139433730382D334242382D344637432D423534452D3444363535343733363237372F6F626A656374732E786D6C504B01021400140006080000F14E224200000000000000000000000035000000000000000000000000005C0E00006662782F41323139433730
311
382D334242382D344637432D423534452D3444363535343733363237372F76657274696365732E62696E504B01021400140006080800F14E2242F270F13306000000040000003600000000000000000000000000AF0E00006662782F41323139433730382D334242382D344637432D423534452D3444363535343733363237
311
372F747269616E676C65732E62696E504B01021400140006080000F14E22420000000000000000000000003700000000000000000000000000090F00006662782F41323139433730382D334242382D344637432D423534452D3444363535343733363237372F617474726962757465732E62696E504B010214001400060808
311
00F14E2242D5987DFC8F0000004101000036000000000000000000000000005E0F00006662782F41323139433730382D334242382D344637432D423534452D3444363535343733363237372F6469726563746F72792E786D6C504B01021400140006080800F14E22421A0C1F72FD000000A00100003B000000000000000000
311
00000000411000006662782F41323139433730382D334242382D344637432D423534452D3444363535343733363237372F7265736F75726365732F636F72652E786D6C504B0506000000000E000E0080040000971100000000
310
504B03040A0000080000F14E22423DEE336E79000000790000001B0000006175746F6465736B2D64657369676E2D7061636B6167652E786D6C3C3F786D6C2076657273696F6E3D22312E302220656E636F64696E673D227574662D3822203F3E3C666F726D6174733E3C666F726D61743E687474703A2F2F736368656D612E
310
6175746F6465736B2E636F6D2F64657369676E2D7061636B6167652F323030393C2F666F726D61743E3C2F666F726D6174733E504B0304140006080800F14E2242D486FD9CA0000000F4000000130000005B436F6E74656E745F54797065735D2E786D6C7D8EC10E82300C865F65E91D8A1E8C310C0EEA1BF002731658846E
310
D98AC1B77784ABF1D8FE5FBFBF75BBCE937A534CCEB38643598122B6FEE978D0B0485F9C41B54DDD7D022595594E1A469170414C76A4D9A4D207E29CF43ECE46F218070CC6BECC4078ACAA135ACF422C856C0E68EA1BF5669944DDD7BCDE7B1F8E415D77AECB980613C2E4AC91FC167A2B244592486606FC29C8FD7F045B9A
310
EF7053A7E60B504B0304140006080800F14E2242D47F3F96EA0000007C01000008000000636F72652E786D6C8D90D18EC22010457F85CC3B2DB4D5D58662566DBF607F80007689169A02C6CF5FD09AECBEEDD34CEEDC3333B9ECF0986EE8AE176F9CED80160490B6D22963C70E62B8E01DA003678B73E1970D901593EE20CB
310
C0D9B8B838AF927436681B926A9DD2AB28BCD70190BCA5A6032FBFF5240A114372F86B310B7915A32EE8BB4B708C46A1D711A3D23E73317A017E6CFAA11F9A1DAE4EB4C7CD7E4BF027390D98561FE7E3B9A9091D282B33CC5930D3FBBE5CB4085A01AF08AD31A198545F64DF6E366DDD60B26D096165B6FF81E2ACFE094563
310
435DADEFBE300F3C3FF21C7056E62C527906956ACE8DFF00504B0304140006080800F14E224255019EA25F0000007C00000007000000636E782E786D6C4DCB3B0E80201045D1AD90E915ED2CF8AC45050C11660C8261F98AB1B07AC9C97D42D718D865D3E909258CFD00CCE24AC6E326A164D74DC0B4128928FF326038472B
310
A13128B1252AC747C6BAB984FC68F0B87FE8960A5C09FE86CFB69FBA01504B0304140006080800F14E22424905EBE366010000020300000C0000006662782F636F72652E786D6C8D525B6E833010BC8AE57F63F3489A46C651F3E004BD80030E45011B191BE5F85D1E114D15451192B16676766707F8EED6D4A857B6AB8C4E
310
7118308C94CE4D51E932C5DE5DC806A39DE0D618F7A70C232D1B95E201C68297D6F8768672A39DD20E506D0A3583B2EB94C328AFE192E22EFF518D0CA47750D15D8356E65759AA200C80863AC13B67C1009A860C271697F38DD30917DCFBAA98D9AA8069D5A552168B7D72CA4E59B221D1213C91E473CDC8173B64248C3E8E
310
FB6312B3300B391DC482BBAAB9BBCBAD924E1558442C8C090B098BBED9E776B5DAC60961EB2D639C0EE50F22DF166F8A7CA55D1CCD76275987C5606424FE6D0B1139D4C91EFC50C1E91022BCC6841F838640206427CFF57D8F2B40BDCA9DB1093085F10BD5CBDA2B98CAD0F8703AB1D0796C009B3DED13BDE8F3BA077C40A9
310
4BB0261D5CCFDE0DD3F934758EA25596F4EE86B4B18DAC177393C5E55C063D95E7A636F61D359D57A5739874F87BC52F504B0304140006080800F14E22426E9A6DDD7C0000009D0000000B0000006662782F636E782E786D6C4DCCD10A83201805E05791FFDEB5A641821AA4F33D6259C84CC3E9D8E3CF4617BB39073E0E87
310
0F9FCDA3B74D2F178380F6720564C323CE2EAC024A5E700F68903CC598FF6680C2B459010783E46B8A653F69B6CB547CAEEA5D789E688C564A5185091D09A62D619829A56B10D38D3DBBEB5B078DE4CDEFA9F6712CBF504B0304140006080800F14E2242C54710A42A01000015020000310000006662782F46464443434334
310
432D333442332D343133392D394343442D3943334635423839454432352F636F72652E786D6C8D51CB6EC32010FC15C4293D6083C1561C6122C569BEA03F400C495062B07854F9FCE2DA91DA5B2E2C9A9D991DEDF2FD737C806FED8371B683A4C010683B3865ECB583295ED01682BDE0DEB9F887068195A3EEE00C43C1AFDE
310
A569850667A3B631A3D629BD8232041D21181EF9D3C130DCF4280B996266847B31C9E12EAFBA20456E679EE021FA1C002C43E6178AD3E9D8F73DEB1165078A18A12D6AFBFE981F7AAA0FDBF6F358D5BC5C8482A764D42A372AC73117A3FDBB26B358F068C657FCC16B19B582A2C284224C10AEBE70BBABEB1D6508373B8C79
310
39D3FF89D2A4DE14256323ADD6B88B2C404178B93404572E9D1FAF30FA39391FC13C6F13F4F001052E30A66D430863BC5CB87903D9B461AB6988CEE70D6FEEE74CA7AB73C3042FE723E5F27BC15CE7838A1F504B0304140006080800F14E2242D88362525501000033030000300000006662782F46464443434334432D3334
310
42332D343133392D394343442D3943334635423839454432352F636E782E786D6CBD93CD6EC32010845F0571F75FEC58698489D4439FA0875E316C521A0C16E0AA79FB2E094973C9A152D50BB2668799D527CC765F93219FE0837676A04D595302563AA5ED61A04BDC171B4A769C79E7E29D8D122B26186892296707EF9639
310
4B0AF662311155A3ED318B1E825BBC848072BA498C93C26000D8624111A6119402456E46FCDA83C755501C4F24BE0379797E236EFC001903AB520A6755EAE02C9DB9E9CE44893422848106F90E9328C5129D82702C9588A26CCA6BD7839D7E9248BA70AD5CBC26A97CA0E9A43C6F54224756E190B3103DD2CBA6789A817231
310
CF464B11117275365E3C9C2DDAC6BECB5E8DE03DBADB55BFD960D879C659D4136487F4202228CA5775D3167553D4ABD7FA69BB5E6FDBAEA8FB6D5DB32AD9391B9D33F912C680773391CE46B091F2865569FC085FF611A53DB276FEF40B900820B75EE8DC32FE924FD3B75DF78F7CAAF3FB465C1EFF02FE0D504B0304140006
310
080800F14E2242A692C1F8620700009A1B0000340000006662782F46464443434334432D333442332D343133392D394343442D3943334635423839454432352F6F626A656374732E786D6CED595B73A33614FE2B0C7D691F8C4DECDC3A844E626F763CDBB43BEBEE4E1F3CC3C820133542309248E2FEFA1E5DC0404C82DBF4
310
6D1F6C404847E77CE7AA43F0CB73469D47CC05C9D995EB7B13D7C12CCE13C2D22BB794DBD185EBFC12063CCF65639AEB3094E12B570DBB6190F2BC2CEC5082B7A8A4B2337A7BF3A72362CCB0EBC4140971E58AF81E67C843A5CC132C1EBC0449E4A5DB67CFF7CCC436D994A3E2BE43B4401C33099CC238032A8E61CA6F3F4E
310
DC71188CD5FB3050FF76D674D0AC59FFACB196BACD2561422216BF60A943663A88A5A93F5B7C3839BD1C9DCE66D3D1ECECC41FDDDCDE2C46FEF974323F9BCF2FAF3F5C027B9B3CA756A604179825A0BF9D1BFAC158BDA945B7081CE23ACE19C3B10612A0D2627509122C60AB067C93F6A3AF246ABCD612369E67EABD65A131
310
3C6D53E99B350C88165D10C46E57495C5D9BF2E59BBF407031C428B9C012B8159283762D3C1CBCC20D27C1D88C86C166AF0B229C0C49CC09A20E251B8E382805A6AA296160165832CA3938907294045A73E675DBB6C033DF769D435C6E4B4A9567B8A176AC08DC0F4BA139237F63BEE7BE890CF004D29684C90BCBA5DC15D8
310
0D2F83B11E0C0375999ED8970648674B512A3422E66D47D0B972FDE5C20D3FDD6E9E572A1C1CDEBCE07981B95446A7F4A8F90243B6578592DDD61FA439B5008431A0DA957B50BE00F2BF41F4D8B3027AE3E479F63CB37325474C6C739E816E9C89339AC0DFC4F1F5BFBA6FDC05E37A715B7B7D78829B2AA82EFE3B9E6D1934
310
5696FF069C61F008069FF3A97DB58A11057BBE230C005246E2D01C8620B46F37CF6EB884C009811E56211AFA2032B0FB08B7C1D892D96BA5722FEB750C10B57B4C87280960D316096CF4E8E923640F4EE2BD9A9A22F6C17BFA2EE67ABD587D5A957C8B627C677D7A81B784110959F330432DCC5B123DE0DD53CE1310F425DE
310
AB26DE99DD4A00DA0A73057C5A81A01EF63BB73688615D9AAB7013BCB10308A1727583FE1D1131A614319C97D5BE757453865A7BBCAD19DCF0C4403C3DE99830C78F445515E034FB192D4621EFC79C140A4437FC6824AB83A6D723DDD7E56F6091F5FC9E594B06A19721FA870E5A077068597685B405A21678B30FE7714E73
310
1E6D769189742ED412C046DB5BBEB58842AC374A5254C083B4DF55212535D24609D96E4B0171F5008BDF96F3A6394CBCA97FEA34FF3BCE3883680BBE8BB8F5BBCE1E11C9508AA32D4AFAB66BEE56D3169A640F698EB714E4228F44EE2224A34982D363A0398AF8E5BB524F692E04615840BE3A087E138D890781C468B36259
310
69B5033411518625A2C720A0C8F480ABD38EAE7163281DDEE6B1B6DED734D624FA3F590447504BE62C22508A420E799371DF3B8518D246D7A0DCC117ACADA2ADC5A0259410F12E7AC224BD97C7A06EC8F7E01EC391A494515EA018CC7A00D917BEA294DAE17D83E207953FA2B8A4EF652002D36D44282DB3087E84C1C96388
310
6BD781E955141AC44DEC933883A20CC9920FD9E4EC74F2621F533374436063A32DA110B6A30C153DA8B702A2AE479C1A7C4BBD47A99B322B2294E5251B6428DEB4EB4D967C57AD8AEC407E55A908656345D8120C03C2649D55AB980DA6AE032BB8910E54BB48A0ACA0E614F646E2F16B6FD2947B37E0D64FDF77830C0ABF1E
310
ED3523EAAC82C1F2D82A0CC41392F1BD1BAEF4757403F57782937DAAAF6ACD66050888A9485E726255F47509E58DADD1DCF00E49B1FE68B26E75FDBAF4A0FB118C610DD42EF5C2A5023AC34C225599DCA91BFA0541086ED130E34B95538FA1729D24BA6A44F496F4A9B35546B436CD8857DC639667F0636BC2625A26788D12
310
F110DD491AAD8862DD4AE965A4C2F855017FFFB8EAC003230344FAAC0A3CFCD4596B47E7AA5C3A4844DE97D986210241B0255A6A74E3152CB51AA9B45C5FD59902EA2E3030ABE2D9F79345B31DF1FD64915AC3F84F278B9BDDAF68D7EC8B34D279ACECFAA863409D9F1495F73806E8B6434DB5CE2226995BF9AD33451014AB
310
283FB81AAB828621D8C7F1BFCEDA7D59D06CD7E1FFB8ACEDBFA8388ECA2AADC9AA4B75A0725D367398BF383BBF989F4347D69FCE47B38BE9F9E8C63FBD195D9FCE2F6E6EFDF3F3C5C5A246533B6A18D4C14CE72E783641AD1A564F1603E8CA8A9C92044EF389936288F912CEF403DAE73CC3029267B3D99DD8A6FC80D58FA6
310
CF29D186E28A937B040D622A20AD0346652CDBE3CE0FD09A9470D0BE72A169E43DC09FB54AD781CC73E542AB4092180B6F036D26D5D0D3C421E5EADC6F89013E88A52A259A45F573BD4A61D30AFFF5942169C0CAD5EA6140E15640F7ABD5A1D0BC599EE2A304AFD8719084DB4D29A15A33B2EC076A61F4367BF51BD928610F
310
76EB6770DDD7C5F23D3DA785C8A04F06AF1A81A13A9288A7BADFAD18B32C5D2F3E8FA1CFE62C7F770A5AA6A0CBE194461C833197AAA0022B02ABB0340B24C154E73FAF3FF31C3EF1648EAE8A9C1F9F2FCE7E5ACFF32CCB99195A5FC3A92C810F45CEEA1E3EFB246B281EB06AAE8BF5C9C43F59EBA6B6EDB3471B24B0A7AA22
310
18A88A092548C7E4C02E5F34A86CFB72AC54D199BE5C3836884233C0D8D18B1EAFF9C8E5800FA9CF29CA63B49F57D2BEDAD71EEBA960131C3AD2E13F504B0304140006080000F14E2242000000000000000000000000350000006662782F46464443434334432D333442332D343133392D394343442D394333463542383945
310
4432352F76657274696365732E62696E504B0304140006080800F14E2242F270F1330600000004000000360000006662782F46464443434334432D333442332D343133392D394343442D3943334635423839454432352F747269616E676C65732E62696E636660600000504B0304140006080000F14E224200000000000000
310
0000000000370000006662782F46464443434334432D333442332D343133392D394343442D3943334635423839454432352F617474726962757465732E62696E504B0304140006080800F14E2242D5987DFC8F00000041010000360000006662782F46464443434334432D333442332D343133392D394343442D3943334635
310
423839454432352F6469726563746F72792E786D6C858F410EC2201045AF4266AF15DDB800BA74E7C21B903225242D6328188F2FA5C4183471359997F9FF81E89FF3C41E1816475E02DF1F80A11FC8386F25A438EECEC07A250251FC3803E6F58C12560C4AD840E95E91C151A72936F496F35732D860FE635F62C8F2DA16B5
310
05C545B74125BAA2FA9E05D7CC053D063734D5C7665FD55B6B8D15D5E9BFEAFD8490FFA45E504B0304140006080800F14E2242241EABE6FC000000A00100003B0000006662782F46464443434334432D333442332D343133392D394343442D3943334635423839454432352F7265736F75726365732F636F72652E786D6C8D
310
504B6EC23010BD4A347B277612A0448E5181E404BD80E50C60416CE44FD5E3D726A9D4EEBA9919BD8FE6E9F1C3D7FC283ED1796D4D0FACA450A05176D2E6DA430C17F206C54170676DF82583C2C8197BC830087E75363E57485913D084841A3BE10A4AEF3140A11EE9E8C1AB1BCEB294312485BF974FA9EEF28A252B139D74
310
82FBE05280627992270887DE46A7D0F36A61058F514FAB464FE9A7BE6874208EED300E63BB23F5890DA4DD6F2979A7A791B07A773E9EDB86B291F12A9B050F7AFEC9A81CCA8013889AB286504668FD41F7DD66D3352DA1DB8E525E65F91F537C4EFF34456D4253AF71179B079183BC08C1ABDC575AAF32D3CEDD8A6F504B01
310
0214000A0000080000F14E22423DEE336E79000000790000001B00000000000000000000000000000000006175746F6465736B2D64657369676E2D7061636B6167652E786D6C504B01021400140006080800F14E2242D486FD9CA0000000F40000001300000000000000000000000000B20000005B436F6E74656E745F5479
310
7065735D2E786D6C504B01021400140006080800F14E2242D47F3F96EA0000007C010000080000000000000000000000000083010000636F72652E786D6C504B01021400140006080800F14E224255019EA25F0000007C000000070000000000000000000000000093020000636E782E786D6C504B01021400140006080800
310
F14E22424905EBE366010000020300000C00000000000000000000000000170300006662782F636F72652E786D6C504B01021400140006080800F14E22426E9A6DDD7C0000009D0000000B00000000000000000000000000A70400006662782F636E782E786D6C504B01021400140006080800F14E2242C54710A42A010000
310
1502000031000000000000000000000000004C0500006662782F46464443434334432D333442332D343133392D394343442D3943334635423839454432352F636F72652E786D6C504B01021400140006080800F14E2242D883625255010000330300003000000000000000000000000000C50600006662782F464644434343
310
34432D333442332D343133392D394343442D3943334635423839454432352F636E782E786D6C504B01021400140006080800F14E2242A692C1F8620700009A1B00003400000000000000000000000000680800006662782F46464443434334432D333442332D343133392D394343442D3943334635423839454432352F6F62
310
6A656374732E786D6C504B01021400140006080000F14E224200000000000000000000000035000000000000000000000000001C1000006662782F46464443434334432D333442332D343133392D394343442D3943334635423839454432352F76657274696365732E62696E504B01021400140006080800F14E2242F270F1
310
33060000000400000036000000000000000000000000006F1000006662782F46464443434334432D333442332D343133392D394343442D3943334635423839454432352F747269616E676C65732E62696E504B01021400140006080000F14E22420000000000000000000000003700000000000000000000000000C9100000
310
6662782F46464443434334432D333442332D343133392D394343442D3943334635423839454432352F617474726962757465732E62696E504B01021400140006080800F14E2242D5987DFC8F0000004101000036000000000000000000000000001E1100006662782F46464443434334432D333442332D343133392D394343
310
442D3943334635423839454432352F6469726563746F72792E786D6C504B01021400140006080800F14E2242241EABE6FC000000A00100003B00000000000000000000000000011200006662782F46464443434334432D333442332D343133392D394343442D3943334635423839454432352F7265736F75726365732F636F
310
72652E786D6C504B0506000000000E000E0080040000561300000000
  0
XRECORD
  5
17
102
{ACAD_REACTORS
330
12
102
}
330
12
100
AcDbXrecord
280
     1
270
     1
271
     1
  0
XRECORD
  5
16
102
{ACAD_REACTORS
330
12
102
}
330
12
100
AcDbXrecord
280
     1
270
     1
271
     1
  0
XRECORD
  5
18
102
{ACAD_REACTORS
330
12
102
}
330
12
100
AcDbXrecord
280
     1
270
     1
271
     1
  0
XRECORD
  5
15
102
{ACAD_REACTORS
330
12
102
}
330
12
100
AcDbXrecord
280
     1
270
     1
271
     1
  0
XRECORD
  5
24
102
{ACAD_REACTORS
330
22
102
}
330
22
100
AcDbXrecord
280
     1
270
     1
271
     1
  0
XRECORD
  5
23
102
{ACAD_REACTORS
330
22
102
}
330
22
100
AcDbXrecord
280
     1
270
     1
271
     1
  0
XRECORD
  5
BA
102
{ACAD_REACTORS
330
22
102
}
330
22
100
AcDbXrecord
280
     1
 70
     1
 90
1959938040
 71
     1
  1
EB8B8BB5-B85A-47D7-8AF0-5568614431E1
311
504B03040A0000080000F14E22423DEE336E79000000790000001B0000006175746F6465736B2D64657369676E2D7061636B6167652E786D6C3C3F786D6C2076657273696F6E3D22312E302220656E636F64696E673D227574662D3822203F3E3C666F726D6174733E3C666F726D61743E687474703A2F2F736368656D612E
311
6175746F6465736B2E636F6D2F64657369676E2D7061636B6167652F323030393C2F666F726D61743E3C2F666F726D6174733E504B0304140006080800F14E2242D486FD9CA0000000F4000000130000005B436F6E74656E745F54797065735D2E786D6C7D8EC10E82300C865F65E91D8A1E8C310C0EEA1BF002731658846E
311
D98AC1B77784ABF1D8FE5FBFBF75BBCE937A534CCEB38643598122B6FEE978D0B0485F9C41B54DDD7D022595594E1A469170414C76A4D9A4D207E29CF43ECE46F218070CC6BECC4078ACAA135ACF422C856C0E68EA1BF5669944DDD7BCDE7B1F8E415D77AECB980613C2E4AC91FC167A2B244592486606FC29C8FD7F045B9A
311
EF7053A7E60B504B0304140006080800F14E224298B3C5A0EA0000007C01000008000000636F72652E786D6C8D904D6EC3201085AF82668F0DFE8F8589E2A639412F8080B828315806AA1EBF3871A476D7D58CDEBC6F66F4D8F17BBEA32FBD7AE3EC00342380B4954E193B0D10C31577808E9CADCE855F364056CC7A804D06
311
CEA6D5C56597A4B341DB9054EB94DE45E1BD0E80E43D350378F9A96791891892C3DFB245C89B9874465F5D8263340A3D8F1895F699ABD12BF0E6D276DDF94071D3B435AE8AB6C0DD79A478ACCA9174D5DBFBE57462F9067316CCFCBA2F572D8256C00B424B4C2826C50739F475DD9715264D4F08CB37FB1F282EEA9F503436
311
94C5FEEE13F3C0697AE431E02CDFB248E51154AA5B6EFC07504B0304140006080800F14E224255019EA25F0000007C00000007000000636E782E786D6C4DCB3B0E80201045D1AD90E915ED2CF8AC45050C11660C8261F98AB1B07AC9C97D42D718D865D3E909258CFD00CCE24AC6E326A164D74DC0B4128928FF326038472B
311
A13128B1252AC747C6BAB984FC68F0B87FE8960A5C09FE86CFB69FBA01504B0304140006080800F14E22420DFDB56367010000020300000C0000006662782F636F72652E786D6C8D52ED8E8230107C95A6FF4BCB87C89952A3E7F904F702152A4784969496F8F8B77C18CF8B3186A434333BBBB3037C7B6D1B3428DBD746E7
311
380C18464A17A6AC759563EFCE24C3682BB835C6FD29C348CB56E57884B1E09535BE5BA0C268A7B403549B522DA0EC7BE5302A1AB8E4B82F7E542B03E91D54F497A093C545562A0803A0A14EF0DE593080E621E389C5F974E574C605F7BE2E17B62E615A7DAE95C5223DAEB3ECF01192345DAF4812AD23921DF621D927F19E
311
65C9E7D771B7E374140BEEEAF6E6AEB04A3A556211B130262C242CFA661F9BD56A132784A51BC6381DCB1F44BE2BDF14F95ABB385AECCEB21E8B108C4CC4BF6D2122877A39801F2A381D4384D794F063D0100884ECE4A9B9ED7101685085333601A634FE4E0DB2F10AA632343D9CCE2C749E1AC0664FFB442FFABCEE011F50
311
EA0AAC4907D79377E3743E4F5DA2E8942583BB226D6C2B9BBBB9D9E2FDBC0F7A2A2F4C63EC3B6ABAAC4A9730E9F8F78A5F504B0304140006080800F14E22420FF196557D0000009D0000000B0000006662782F636E782E786D6C4DCCD10A83201805E05791FFDEA5AE56821AE17A90581632D3703AF6F8B3D1C56ECE818FC3
311
11FD6773E86DE2CB062F815E0820E31F61B67E9590D3823B40BD123184F43703E4A7CD483818945863C8FB49B359A6EC525167FDF3C4A665FCD65C5BACF5A871AD0782794D59094669376A72E703544A54BFA7D2C7B1FA02504B0304140006080800F14E224276D856412A01000015020000310000006662782F3537323936
311
3533372D434345432D344341302D393431322D3934323131384543304439412F636F72652E786D6C8D51CB6EC32010FC158B537AC006633B71848922377FD01F20401294182C1E553EBF503B527BCB8545B333B3A35D7A784E8FE25B39AFAD19002E11289411566A731D400C17B803C58151676DF8430385E1931A408601A3
311
5767E3BC42C29AA04C48A8B152AD20F75E05508847FA0CC08B9B9A78C963480C7F2F672EEEFCAA4A5CA676E231EA834B018A65487E016BB775DFB5640BC7F134C2663C22D837B84E4F8DF1EE34A2CFFE48AB45C8688C5AAE722D531C7DD1CABD6B92C58C063DBDE20BA7785012B01A61021186A8FE42FDBE6DF7A481A8DB23
311
44AB4CFF278AB37C5314B509A45EE32E320F18A6D5D26054DA787EBCC2A8E76C5D28F2BC8D57E203305422441A8209EA69B570D3069269D7ACA63E589736BCB99F131DB78B73D7305AE523A5F27BC154F341D90F504B0304140006080800F14E2242BE24AD454E01000033030000300000006662782F35373239363533372D
311
434345432D344341302D393431322D3934323131384543304439412F636E782E786D6CD593CD6EC32010845F0571B78D13276A234CA41EFA043DF44A6093D260B0F8A99AB7EF929034971C7AEC0559B3C3CCEA13E6DBEFC9922F08D17837D2BE659480535E1B7718694EFBE68992ADE0C1FB7467A3C4C909465A642AF821F8
311
3C5749C35E669B50B5C61DAB1820FA1C144494CB4D62BD921603C03519459876A035687233E2D71E02AE82E2EE44D20790D79777E2779FA052E45D4911BC2B1D8297B336DD99285156C638D2A83E6092ADCCC96B88C756CB24DBBEBD763DD8E93789940BD7CA1C0C29E5232D271575A31639F20E8782C714905E35A5D30C54
311
C879B646C98490BBB3F1E2113C1B97D643F51A041FD0DDAF97C38061E799E0C94C501D2A804CA0A958B07ED9B0BE618B37F6BC59AD36CBA161EB0D63BC2B76C177DEDB7A096320F89928EF12B84445CFBB327E84AFFA88360159FB70FA034804505B2F746E19FF994F777EDF882BE05F207E00504B0304140006080800F14E
311
2242A7E06F75A305000080100000340000006662782F35373239363533372D434345432D344341302D393431322D3934323131384543304439412F6F626A656374732E786D6CAD57D96EDB3814FD1541F332F3E045B6933A03458597A4308AB4458D16F360C0A0244AE18412058A4A9CF9FA3994A8CDB553CFA03060495C2E
311
EF3DF7DC85EEFB43C2AD672A7326D25BDB198E6D8BA68108591ADFDA858A0673DB7AEFB95208D559665B2949E8ADAD876DCF8DA528323314D288145C1D8DDE2FFFB2F280A6D4B6024EF2FCD6CE83479A902129940869FE340C8922C3383A0C9D61B5B02F3696247B3C129A114953054D319E428A5529E5F43FC7F6C873477A
311
DE73F5BF59353DBF6A54DAD33F9FA5B92269F0C3614762A6CE6C7D37B9BA195CCD66D3C1EC7AE20C96F7CBF5C079371DAFAE57AB9BC5DD0D0ECE958424A389A491ED7D00369205EEA89AF2DC82A56A3A314B8C8346923E33ED29DB9B588E3BAAD634D619234FA91F8834A5418915D028ED33A2439AD13484CF19CDA15907A1
311
71FFD3D13876A6A7FADB1CD91DBE0C81EE8E8EA05AF7FAD9D554F87FC384FC1206C99C6A0656581A432BAE8E5B847D21B89963B99510452523DCE2CC9744BEDA1E96EA259EDB13A3992C7534680B6C0F5EA8A6FB744118FD9CE7A7B48C0ACE358D6DAF8C823D6285AABCD48CFD4365AB7D1719E8045F6936CC8D41EA35A3B6
311
775351647EC4A60A482BE22486CB61A6DE399D1C19BAD271BA59DBDEC77BFFB0D5B17BFAF04C8A8C4AA5E9036AD58EAB9F1A25A3937391E7F406FB48951694AF40FE1342BD55057E93EC303BCCCC294A92348F844CE01B6B6C0DC6F81B5B4EF9AFDF3B6FEEA8D9DCF7DE393CE16C0DD52FC0B36F43D7971D383DF719841772
311
6A4CDB0684236D3CB014006992585C60087938F20FB6B741964356C62EC23D072643DD67BCBA23230689A23CA9F34C81E5515ABC204103B6929150A322BF51B0F5D30FE9AC3CD82C3B07EFD52FA1EB62BDFDB82D644402FA60627A4D2396328512D7F2A6AB500FF39E454FF4F545C81086FE88F7B68B77628ECA81B6C65C03
311
1FD7395D7FB427F70E08B02F163ADDB83F390146E8C2DA91FFC0F280724E522A8AFADC37EB07CA4605B10E76CDE4A6C0B48505A4A9668E6210453A902CD32036D5AA499AC333D67DDB7C0223B19E0B9FF07691DFA6DE407021F7FEEBBECA4A2791FEDEA7B68160A4A580ED658CD4E16F30DF872C8A8A1C39F004ACDF37ABAE
311
EB74564086A8A556C13283F9882D220D676BB928D692A0908A74CF50361176270FE8CA07A28600A5C0731AE794477BC67991EC23C6518CF609C9CEC0F1FFF5F78B24DB934414A93A23BBA73A8A435FF71E79F317A28247DBDB96CFC112A937A461EBE6DE625D4A4E60D573EDDD728EDFF26AB09C5F2D06B377EB7783F9E27E
311
3CB8BABA9E5F3B68A99CBB16CDB287F2DCBAD274031A5E4265730BC98CFBBE6D103E2607D8DE0351F9EE43159DF5F3DB668856D81D610FCA65B371113EA3EDA3E1CF05B42B4F0ADA2419A7094D15D121F4A05FF8578236A3A74C35BE49484C2F90F2F9C3F6C8188C5CB0EF8B0E77FA72B4D78CAE74409E14A21E8BC44F09E3
311
471BE30AC96196C606BFDA27CDB3AA33F5A7FE328E41639A0BCE42A4C1D08AA948A84232BCA006C984E6A05EB7A50FCDD5E382DDCF5583A888CF69ADC923418FCC738405785B04AA3F6EFD869E4EB755B736AAEDF0097F2653D81638736BA347572CA0F9D0477DD69D50291C5CEA36F2E02C49638E56BBDAD47C37BB3436BD
311
8ADC2CB9A47D32765519DC18803492A16D403F04EF94CA786EA99B990FFE93E1B53A165178F50BD5D8D20E34C694C720442BA3CC65013DCC9339FA80407DDB2C6758AEE92172D125EB4D125452078AC8B8BC2868FD8C4A8BF597111A146BF3D9CA7811C397974B1A480A32173AC0C122B0C2C8CC880255577FEEBE48818B6C
311
62DD3350C0FAFD30BFFE63B7124922D26A68B730D7616BFB88CB6DB84372A0FA5692EF266367B22B6F03E682B2F7494E8724CC9F3000CF4AD600DD733F78595D199139AB8966DD48BBE288A19BB5650ADB0C420D5DBAB9558383BE23A5166248DF2875C47417646F5E0846E552A820D1CA7BFF02504B0304140006080000F1
311
4E2242000000000000000000000000350000006662782F35373239363533372D434345432D344341302D393431322D3934323131384543304439412F76657274696365732E62696E504B0304140006080800F14E2242F270F1330600000004000000360000006662782F35373239363533372D434345432D344341302D3934
311
31322D3934323131384543304439412F747269616E676C65732E62696E636660600000504B0304140006080000F14E2242000000000000000000000000370000006662782F35373239363533372D434345432D344341302D393431322D3934323131384543304439412F617474726962757465732E62696E504B0304140006
311
080800F14E2242D5987DFC8F00000041010000360000006662782F35373239363533372D434345432D344341302D393431322D3934323131384543304439412F6469726563746F72792E786D6C858F410EC2201045AF4266AF15DDB800BA74E7C21B903225242D6328188F2FA5C4183471359997F9FF81E89FF3C41E181647
311
5E02DF1F80A11FC8386F25A438EECEC07A250251FC3803E6F58C12560C4AD840E95E91C151A72936F496F35732D860FE635F62C8F2DA16B505C545B74125BAA2FA9E05D7CC053D063734D5C7665FD55B6B8D15D5E9BFEAFD8490FFA45E504B0304140006080800F14E22428B18EB38FD000000A00100003B0000006662782F
311
35373239363533372D434345432D344341302D393431322D3934323131384543304439412F7265736F75726365732F636F72652E786D6C8D50596E833010BD0A9A7F8359439071149AE604BD806526C44AB09197AAC7AF09546AFFFA33337A8BE6E9B1D3D7FC4C3ED13A65740F794A21412DCDA8F4D443F037D24272E2CC1A
311
E37FC920D162C61E5618389BAC09CB0E49A33D6A1F516D46DC41E11C7A48E4331E3D3879C759A422F8A8708F7411F221264CF334D251C799F3360648B627EB046ED19960253A966D2C6721A871D7A831FE5437851678733DB4EDE54849D31C6A52158782B497212743550EB4ADDEDEAFE733CB5633675ECD3F19A545E17104
311
5ED0BC243427B4F8A0C7AEAEBBB222B4E92865D92AFF630ACBF84F5350DA97C51E77B339E0790CF22238CBD6BEE27A9519F7DA2DFF06504B010214000A0000080000F14E22423DEE336E79000000790000001B00000000000000000000000000000000006175746F6465736B2D64657369676E2D7061636B6167652E786D6C
311
504B01021400140006080800F14E2242D486FD9CA0000000F40000001300000000000000000000000000B20000005B436F6E74656E745F54797065735D2E786D6C504B01021400140006080800F14E224298B3C5A0EA0000007C010000080000000000000000000000000083010000636F72652E786D6C504B010214001400
311
06080800F14E224255019EA25F0000007C000000070000000000000000000000000093020000636E782E786D6C504B01021400140006080800F14E22420DFDB56367010000020300000C00000000000000000000000000170300006662782F636F72652E786D6C504B01021400140006080800F14E22420FF196557D000000
311
9D0000000B00000000000000000000000000A80400006662782F636E782E786D6C504B01021400140006080800F14E224276D856412A0100001502000031000000000000000000000000004E0500006662782F35373239363533372D434345432D344341302D393431322D3934323131384543304439412F636F72652E786D
311
6C504B01021400140006080800F14E2242BE24AD454E010000330300003000000000000000000000000000C70600006662782F35373239363533372D434345432D344341302D393431322D3934323131384543304439412F636E782E786D6C504B01021400140006080800F14E2242A7E06F75A30500008010000034000000
311
00000000000000000000630800006662782F35373239363533372D434345432D344341302D393431322D3934323131384543304439412F6F626A656374732E786D6C504B01021400140006080000F14E22420000000000000000000000003500000000000000000000000000580E00006662782F35373239363533372D4343
311
45432D344341302D393431322D3934323131384543304439412F76657274696365732E62696E504B01021400140006080800F14E2242F270F13306000000040000003600000000000000000000000000AB0E00006662782F35373239363533372D434345432D344341302D393431322D3934323131384543304439412F7472
311
69616E676C65732E62696E504B01021400140006080000F14E22420000000000000000000000003700000000000000000000000000050F00006662782F35373239363533372D434345432D344341302D393431322D3934323131384543304439412F617474726962757465732E62696E504B01021400140006080800F14E22
311
42D5987DFC8F0000004101000036000000000000000000000000005A0F00006662782F35373239363533372D434345432D344341302D393431322D3934323131384543304439412F6469726563746F72792E786D6C504B01021400140006080800F14E22428B18EB38FD000000A00100003B00000000000000000000000000
311
3D1000006662782F35373239363533372D434345432D344341302D393431322D3934323131384543304439412F7265736F75726365732F636F72652E786D6C504B0506000000000E000E0080040000931100000000
310
504B03040A0000080000F14E22423DEE336E79000000790000001B0000006175746F6465736B2D64657369676E2D7061636B6167652E786D6C3C3F786D6C2076657273696F6E3D22312E302220656E636F64696E673D227574662D3822203F3E3C666F726D6174733E3C666F726D61743E687474703A2F2F736368656D612E
310
6175746F6465736B2E636F6D2F64657369676E2D7061636B6167652F323030393C2F666F726D61743E3C2F666F726D6174733E504B0304140006080800F14E2242D486FD9CA0000000F4000000130000005B436F6E74656E745F54797065735D2E786D6C7D8EC10E82300C865F65E91D8A1E8C310C0EEA1BF002731658846E
310
D98AC1B77784ABF1D8FE5FBFBF75BBCE937A534CCEB38643598122B6FEE978D0B0485F9C41B54DDD7D022595594E1A469170414C76A4D9A4D207E29CF43ECE46F218070CC6BECC4078ACAA135ACF422C856C0E68EA1BF5669944DDD7BCDE7B1F8E415D77AECB980613C2E4AC91FC167A2B244592486606FC29C8FD7F045B9A
310
EF7053A7E60B504B0304140006080800F14E2242BAE5F3D1EA0000007C01000008000000636F72652E786D6C8D905B8EC3200C45B782FC4F42DE0F11AAAA4D57301B404053D406A200A3597E499B4A337FF365EBFA1EDBBAF4F0333FD0B75A9DB666802C21809411566A330D10FC15B7800E8CAED6FA5F364086CF6A804D06
310
46A7D586659784355E191F5563A5DA45EE9CF280C4233603387153334F78F0D1E1EEC9C2C59D4F2AC93E5D8443D012BD8F6819F7E9AB562BB0B26DCE2DA96BDC36C51997A46BF0713C16F8D48D97AE29C7EAD4B534DD6046BD9E3FF7C5AAB85712584EB202930C93FC8B747D55F5458949DD1342D3CDFE070A8BFC2714B4F1
310
45BEBFFBC61CB02C3EF21A309A6E59C4F20A2AD62D37F604504B0304140006080800F14E224255019EA25F0000007C00000007000000636E782E786D6C4DCB3B0E80201045D1AD90E915ED2CF8AC45050C11660C8261F98AB1B07AC9C97D42D718D865D3E909258CFD00CCE24AC6E326A164D74DC0B4128928FF326038472B
310
A13128B1252AC747C6BAB984FC68F0B87FE8960A5C09FE86CFB69FBA01504B0304140006080800F14E2242ABEECF2367010000020300000C0000006662782F636F72652E786D6C8D52ED8E8230107C95A6FF4BCB870AA6D418F59EE05EA042E588D092D2121FFF960FE37931C69094666667777680EF6E6D830665FBDAE81C
310
8701C348E9C294B5AE72ECDD85A418ED04B7C6B83F651869D9AA1C8F3016BCB2C6770B5418ED9476806A53AA05947DAF1C464503971CF7C58F6A6520BD838AFE1A74B2B8CA4A05610034D409DE3B0B06D03C643CB1B89C6F9CCEB8E0DED7E5C2D6254CAB2FB5B25824E9E698B2F59AA49BF84812966DC8FEB48FC9213B7D65
310
9BE4B43A6429A7A3587057B777778555D2A9128B888531612161D137CBB6ABD5364E085B6F19E3742C7F12F9AEFC50E46BEDE268B13BCB7A2C42303211FFB685881CEAE5007EA8E0740C115E53C2CF41432010B293E7E6BEC715A04115CED80498D2F80735C8C62B98CAD0F4703AB3D0796A009BBDEC13BDE9F3BE077C40A9
310
2BB0261D5CCFDE8DD3F93C7589A253960CEE86B4B1AD6C1EE6668B8FF331E8A5BC308DB19FA8E9B22A5DC2A4E3DF2B7E01504B0304140006080800F14E2242F373C68C7D0000009D0000000B0000006662782F636E782E786D6C4DCCD10A83201886E15B91FFDCB5315B0A6AA0E57DC4B290990EA7D1E5AF46073BFAE0E1E3
310
E5EDB678B4DAF4713108B85DAE806C78C6D1855940C913A6805AC9538CF9EF06280C8B157030483EA758DE278D761A8ACFBB7A175E2712DA744453836BD61B4C14339812A531AD0DBBEBBE51A47B402579F52BED7B84E517504B0304140006080800F14E2242E03D61412B01000014020000310000006662782F3438374434
310
4338462D353945462D344239462D383442432D3835463933434537423444362F636F72652E786D6C8D51CB6EC32010FC15C4293D60E3183B7684899487BFA03F4030715162B07854F9FC42ED48ED2D1716CDCECC8E76E9E1393DC0B7B44E19DDC122C310482DCCA0F4D8C1E06FA881E0C0A835C6FFA141A0F9243B9860C8E8
310
684D98574818EDA5F611D566902BC89D931E02F1889F0E3AF125279EF1E023C3DDB3998B3B1F655664B11D798C3A6F6300B00C492F64A4D99DC9A9E951D55E7A448E6D8F1A723CA1A6EADBF274D91DC9B9A6F92264340435AC7235C438EAA6A47DD7248919F56A7AC51756722F07C8B6B828112E10DE7EE2765F55FB92205C
310
EF31A679A2FF13857978531494F6E5768DBBC81C6405CD9706A38309D7C72B8C7CCEC67A90E66D9C141F90E10C63828BAA6968BE50E302A2674D564FE78D8D0BDEDCAF915DAEC63561344F378AE5F780B1A67BB21F504B0304140006080800F14E2242D88362525501000033030000300000006662782F3438374434433846
310
2D353945462D344239462D383442432D3835463933434537423444362F636E782E786D6CBD93CD6EC32010845F0571F75FEC58698489D4439FA0875E316C521A0C16E0AA79FB2E094973C9A152D50BB2668799D527CC765F93219FE0837676A04D595302563AA5ED61A04BDC171B4A769C79E7E29D8D122B26186892296707
310
EF96394B0AF662311155A3ED318B1E825BBC848072BA498C93C26000D8624111A6119402456E46FCDA83C755501C4F24BE0379797E236EFC001903AB520A6755EAE02C9DB9E9CE44893422848106F90E9328C5129D82702C9588A26CCA6BD7839D7E9248BA70AD5CBC26A97CA0E9A43C6F54224756E190B3103DD2CBA6789A
310
817231CF464B11117275365E3C9C2DDAC6BECB5E8DE03DBADB55BFD960D879C659D4136487F4202228CA5775D3167553D4ABD7FA69BB5E6FDBAEA8FB6D5DB32AD9391B9D33F912C680773391CE46B091F2865569FC085FF611A53DB276FEF40B900820B75EE8DC32FE924FD3B75DF78F7CAAF3FB465C1EFF02FE0D504B0304
310
140006080800F14E2242B46D1EA25F070000991B0000340000006662782F34383744344338462D353945462D344239462D383442432D3835463933434537423444362F6F626A656374732E786D6CED595B6FA33814FE2B887DD97D08094DD269579455EF8A469D194D7646FB100939E0506F8D41B669D3FDF57B7C81000D2D
310
D9E9BE8DAA0630F6F139DFB9FA10FCB1CDA8F388B920393B737D6FE23A98C57942587AE69672333A719D3FC280E7B96C4C731D86327CE6AA61370C529E97851D4AF006955476466F2EFE72448C19769D982221CE5C11DFE30C79A8947982C583972089BC74B3F57CCF4C6C934D392AEE3B440BC43193C0298C33A0E218A6FC
310
F6E3C41D87C158BD0F03F56B674D07CD9AF5CF1A6BA9DB5C12262462F10B963A64A683589AFAB3ABEBA3F9E9683E9B4D47B3E3237F7471737135F23F4C2797C79797A7E7D7A7C0DE3ACFA99529C1056609E8EFD90DFD60ACDED4A25B04F6711DE78CE15803095069B1BA040916B05503BE49FBD15712355E6B091BCF33F5DE
310
B2D0189EB6A9F4CD1A06448B2E0862B7AB24AEAE4DF9F2F5DF20B81862945C6009DC0AC941BB161E0E5EE18693606C46C360BDD305114E8624E60451879235471C940253D59430300B2C19E51C1C48394A02AD39F3BA6D5BE0996FBBCE3E2E3725A5CA33DC503B5604EE87A5D09C917F30DF71DF44067802694BC2E489E552
310
3E17D80D4F83B11E0C0375991ED99706486743512A3422E66D47D04BE5FA8B2B37FC78B3DE2E5538D8BF79C1F30273A98C4EE951F305866CAF0A25BBAD3F48736A01086340B52B77A07C05E43F41F4D8B1027AE3643BDBCEEC5CC911139B9C67A01B67E28C26F033717CFDABEE1B77C1B85EDCD65E1F9EE0A60AAA931FC7B3
310
2D83C6CAF2DF80330C1EC1E0733EB5AF9631A260CF77840140CA481C9AC31084F6CD7AEB860B089C10E86115A2A10F2203BB8F701B8C2D999D562AF7B25EC70051BBC774889200366D91C0468F9E6E217B7012EFD4D414B10FDEF9BB98EBF9D5F2E3B2E41B14E33BEBD357784318919035F733D4C2BC25D1037E7ECA790282
310
BEC47BD9C43BB35B09405B61AE804F2B10D4C36EE7D60631AC4B73156E823776002154AE6ED0BF2322C6942286F3B2DAB78E6ECA506B8FB735831B1E1988A7471D13E6F891A8AA029C6637A3C528E4FD98934281E886B746B23A687A3DD27D5B7C028BACE7F7CC5A3008BD0CD13F75D0DA8343CBB22BA42D10B5C0EB5D388F
310
739AF368FD1C9948E7422D016CB4BDE57B8B28C47AA32445053C48FB5D155252236D9490CDA6141057F7B0F87D71D934878937F5E74EF3B7E38C3388B6E0BB885BBFEBEC11910CA538DAA0A46FBBE66E356DA149F690E67843412EF248E47384643449707A083407113F7D57EA29CD85200C0BC8577BC16FA231F12090186D
310
562C2BAD76802622CAB044F4100414991E7075DAD1356E0CA5C3DB3CD6D6FB9AC69A44FF278BE0086AC99C45044A51C8216F32EE7B7388216D740DCA1D7CC1DA2ADA5A0C5A4209113F474F98A4F7F210D40DF91EDC6338929432CA0B1483590F20FBC25794523BBCAF51FCA0F2471497F4BD0C4460BA8908A56516C13F6170
310
F218E2DA75607A1585067113FB24CEA02843B2E44336399E4F5EEC636A866E086C6CB42114C27694A1A207F55640D4F58853836FA9F728755D664584B2BC64830CC59B76BDC992EFAA55911DC8AF2A15A16CAC085B82614098ACB36A15B3C1D475600537D281EA3912282BA83985BD9178FCDA9B34E5DE0DB8F5D3F7DD2083
310
C2AF477BCD883AAB60B03CB60A03F184647CEF864B7D1D5D40FD9DE06497EAAB5AB3590102622A92979C58157D5B4079636B3437BC4352AC6E4DD6ADAEDF161E743F8231AC81DAA55EB85040679849A42A933B7543BF2208C12D1A667CA172EA2154CE9344578D88DE903E75B6CA88D6A619F18A7BCCF20CFED98AB0989609
310
5EA1443C447792464BA258B7527A19A9307E55C0CFB7CB0E3C303240A42FAAC0C34F9DB576F452954B7B89C8FB325B33442008B6444B8D6EBC82A556239596EBAB3A5340DD050666553CFB79B268B6237E9E2C526B183F76B2A0F91AD15DB46964F35899F541A7803A3D292AEF710AD05D879A6A9D444C2EB7E25B5F8A2026
310
56417E703156C50C43B08FE3FF9CB4FB92A0D9AEC3FF6149DB7F51701C94545A9355936A4FE1BA68A6B0EB8B13F8BB988F2E4EE6E7A3D987AB0FA393F39BC9683E3F3E39F6A167EB5FD77A32C4C3A08E653A75C1B38969D5B07AB218405356E4942470984F9C1443C89770A41FD03DE71916903B9BBDEEC4F6E407AC7E346D
310
4E89D614579CDC23E80F5301591DC42863D91E777E81CEA48473F6990B3D23EF017EAC55BA0E249E33173A0592C458786BE832A97E9E260E1957A77E4B0CE21862A9CA886651FD5CAF52D8B4A27F3D654816B072B55A1850B715D0FC6A3528346F96A7F820C12B761C24E1765D4A28D68C2CBB815A18BDCD4EFD46364AD883
310
DD7A0BAEFBBA58BEA7E7B41019F4C5E0552330544712F154B7BB156396A5F3AB2F6368B3398BCF4E41CB1474399CD2886330E652D553604560159666812498EAE5EFAB2F3C872F3C99A38B22E7D7EDC9F16FABCB3CCB72668656E770284BE03B91B3BC87AF3EC90A6A07AC7AEB627534F18F56BAA76DDBECD11A09ECA9A208
310
06AA5A4209D23139B0CB17FD29DBBD1C2B5574A62FAE1C1B44A11760ECE8458BD77CE372C087D4D714E531DACF2B695F6D6B8FF554B0090E0DE9F05F504B0304140006080000F14E2242000000000000000000000000350000006662782F34383744344338462D353945462D344239462D383442432D383546393343453742
310
3444362F76657274696365732E62696E504B0304140006080800F14E2242F270F1330600000004000000360000006662782F34383744344338462D353945462D344239462D383442432D3835463933434537423444362F747269616E676C65732E62696E636660600000504B0304140006080000F14E224200000000000000
310
0000000000370000006662782F34383744344338462D353945462D344239462D383442432D3835463933434537423444362F617474726962757465732E62696E504B0304140006080800F14E2242D5987DFC8F00000041010000360000006662782F34383744344338462D353945462D344239462D383442432D3835463933
310
434537423444362F6469726563746F72792E786D6C858F410EC2201045AF4266AF15DDB800BA74E7C21B903225242D6328188F2FA5C4183471359997F9FF81E89FF3C41E1816475E02DF1F80A11FC8386F25A438EECEC07A250251FC3803E6F58C12560C4AD840E95E91C151A72936F496F35732D860FE635F62C8F2DA16B5
310
05C545B74125BAA2FA9E05D7CC053D063734D5C7665FD55B6B8D15D5E9BFEAFD8490FFA45E504B0304140006080800F14E2242D20FAEE0FC000000A00100003B0000006662782F34383744344338462D353945462D344239462D383442432D3835463933434537423444362F7265736F75726365732F636F72652E786D6C8D
310
50596E833010BD0A9A7F83D9C222E3284AE8097A01CB4CA89560232F558F5F13A8D4FEF56766F416CDD363E7AFE5997CA275CAE801F29442825A9A49E97980E0EFA485E4CC9935C6FF9241A2C582036C3070365B13D60392467BD43EA2DA4C7880C239F490C8673C0670F20317918AE0A3C23DD255C8879831CDD348471D67
310
CEDB1820D99F6C13B845678295E858B6B39C85A0A643A3A6F853DD155AE055DBDC5A7AAA49DB943752D1AE2197F152926B37BE754D35D6D7AE65D966E6CCABE527A3B4283C4EC00B9A9784E68416EFB4EBEBBA2F2B424F3DA52CDBE47F4C619DFE690A4AFBB238E2EE36073C8F415E0467D9D6575CAF32E3DEBAE5DF504B01
310
0214000A0000080000F14E22423DEE336E79000000790000001B00000000000000000000000000000000006175746F6465736B2D64657369676E2D7061636B6167652E786D6C504B01021400140006080800F14E2242D486FD9CA0000000F40000001300000000000000000000000000B20000005B436F6E74656E745F5479
310
7065735D2E786D6C504B01021400140006080800F14E2242BAE5F3D1EA0000007C010000080000000000000000000000000083010000636F72652E786D6C504B01021400140006080800F14E224255019EA25F0000007C000000070000000000000000000000000093020000636E782E786D6C504B01021400140006080800
310
F14E2242ABEECF2367010000020300000C00000000000000000000000000170300006662782F636F72652E786D6C504B01021400140006080800F14E2242F373C68C7D0000009D0000000B00000000000000000000000000A80400006662782F636E782E786D6C504B01021400140006080800F14E2242E03D61412B010000
310
1402000031000000000000000000000000004E0500006662782F34383744344338462D353945462D344239462D383442432D3835463933434537423444362F636F72652E786D6C504B01021400140006080800F14E2242D883625255010000330300003000000000000000000000000000C80600006662782F343837443443
310
38462D353945462D344239462D383442432D3835463933434537423444362F636E782E786D6C504B01021400140006080800F14E2242B46D1EA25F070000991B000034000000000000000000000000006B0800006662782F34383744344338462D353945462D344239462D383442432D3835463933434537423444362F6F62
310
6A656374732E786D6C504B01021400140006080000F14E224200000000000000000000000035000000000000000000000000001C1000006662782F34383744344338462D353945462D344239462D383442432D3835463933434537423444362F76657274696365732E62696E504B01021400140006080800F14E2242F270F1
310
33060000000400000036000000000000000000000000006F1000006662782F34383744344338462D353945462D344239462D383442432D3835463933434537423444362F747269616E676C65732E62696E504B01021400140006080000F14E22420000000000000000000000003700000000000000000000000000C9100000
310
6662782F34383744344338462D353945462D344239462D383442432D3835463933434537423444362F617474726962757465732E62696E504B01021400140006080800F14E2242D5987DFC8F0000004101000036000000000000000000000000001E1100006662782F34383744344338462D353945462D344239462D383442
310
432D3835463933434537423444362F6469726563746F72792E786D6C504B01021400140006080800F14E2242D20FAEE0FC000000A00100003B00000000000000000000000000011200006662782F34383744344338462D353945462D344239462D383442432D3835463933434537423444362F7265736F75726365732F636F
310
72652E786D6C504B0506000000000E000E0080040000561300000000
  0
XRECORD
  5
27
102
{ACAD_REACTORS
330
22
102
}
330
22
100
AcDbXrecord
280
     1
270
     1
271
     1
  0
XRECORD
  5
26
102
{ACAD_REACTORS
330
22
102
}
330
22
100
AcDbXrecord
280
     1
270
     1
271
     1
  0
XRECORD
  5
28
102
{ACAD_REACTORS
330
22
102
}
330
22
100
AcDbXrecord
280
     1
270
     1
271
     1
  0
XRECORD
  5
25
102
{ACAD_REACTORS
330
22
102
}
330
22
100
AcDbXrecord
280
     1
270
     1
271
     1
  0
XRECORD
  5
12CE
102
{ACAD_REACTORS
330
12CD
102
}
330
12CD
100
AcDbXrecord
280
     1
102
ACAD_ROUNDTRIP_2012_MLEADER_STYLE
298
     1
  0
CELLSTYLEMAP
  5
12CC
102
{ACAD_REACTORS
330
12CB
102
}
330
12CB
100
AcDbCellStyleMap
 90
        3
300
CELLSTYLE
  1
TABLEFORMAT_BEGIN
 90
        5
170
     1
 91
        0
 92
    32768
 62
   257
 93
        1
300
CONTENTFORMAT
  1
CONTENTFORMAT_BEGIN
 90
        0
 91
        0
 92
      512
 93
        0
300

 40
0.0
140
1.0
 94
        5
 62
     0
340
55
144
0.25
309
CONTENTFORMAT_END
171
     0
 94
        0
309
TABLEFORMAT_END
  1
CELLSTYLE_BEGIN
 90
        1
 91
        1
300
_TITLE
309
CELLSTYLE_END
300
CELLSTYLE
  1
TABLEFORMAT_BEGIN
 90
        5
170
     1
 91
        0
 92
        0
 62
   257
 93
        1
300
CONTENTFORMAT
  1
CONTENTFORMAT_BEGIN
 90
        0
 91
        0
 92
      512
 93
        0
300

 40
0.0
140
1.0
 94
        5
 62
     0
340
55
144
0.18
309
CONTENTFORMAT_END
171
     0
 94
        0
309
TABLEFORMAT_END
  1
CELLSTYLE_BEGIN
 90
        2
 91
        1
300
_HEADER
309
CELLSTYLE_END
300
CELLSTYLE
  1
TABLEFORMAT_BEGIN
 90
        5
170
     1
 91
        0
 92
        0
 62
   257
 93
        1
300
CONTENTFORMAT
  1
CONTENTFORMAT_BEGIN
 90
        0
 91
        0
 92
      512
 93
        0
300

 40
0.0
140
1.0
 94
        2
 62
     0
340
55
144
0.18
309
CONTENTFORMAT_END
171
     0
 94
        0
309
TABLEFORMAT_END
  1
CELLSTYLE_BEGIN
 90
        3
 91
        2
300
_DATA
309
CELLSTYLE_END
  0
ENDSEC
  0
EOF
