  0
SECTION
  2
HEADER
  9
$ACADVER
  1
AC1024
  9
$ACADMAINTVER
 70
    63
  9
$DWGCODEPAGE
  3
ANSI_1252
  9
$AUTHOR
  1
KA
  9
$REVISIONNUMBER
  1
-
  9
$CUSTOMPROPERTYTAG
  1
Manager
  9
$CUSTOMPROPERTY
  1

  9
$CUSTOMPROPERTYTAG
  1
Company
  9
$CUSTOMPROPERTY
  1

  9
$CUSTOMPROPERTYTAG
  1
Category
  9
$CUSTOMPROPERTY
  1

  9
$CUSTOMPROPERTYTAG
  1
Part Number
  9
$CUSTOMPROPERTY
  1
SSJWN666-S
  9
$CUSTOMPROPERTYTAG
  1
Description
  9
$CUSTOMPROPERTY
  1

  9
$CUSTOMPROPERTYTAG
  1
Project
  9
$CUSTOMPROPERTY
  1

  9
$CUSTOMPROPERTYTAG
  1
Designer
  9
$CUSTOMPROPERTY
  1
KA
  9
$CUSTOMPROPERTYTAG
  1
Engineer
  9
$CUSTOMPROPERTY
  1

  9
$CUSTOMPROPERTYTAG
  1
Authority
  9
$CUSTOMPROPERTY
  1

  9
$CUSTOMPROPERTYTAG
  1
Cost Center
  9
$CUSTOMPROPERTY
  1

  9
$CUSTOMPROPERTYTAG
  1
Vendor
  9
$CUSTOMPROPERTY
  1

  9
$CUSTOMPROPERTYTAG
  1
User Status
  9
$CUSTOMPROPERTY
  1

  9
$CUSTOMPROPERTYTAG
  1
Design Status
  9
$CUSTOMPROPERTY
  1
WorkInProgress
  9
$CUSTOMPROPERTYTAG
  1
Checked by
  9
$CUSTOMPROPERTY
  1
JW
  9
$CUSTOMPROPERTYTAG
  1
Date Checked
  9
$CUSTOMPROPERTY
  1
10/29/2012
  9
$CUSTOMPROPERTYTAG
  1
Engr Approved by
  9
$CUSTOMPROPERTY
  1

  9
$CUSTOMPROPERTYTAG
  1
Date Eng Approved
  9
$CUSTOMPROPERTY
  1
10/29/2012
  9
$CUSTOMPROPERTYTAG
  1
Mfg Approved by
  9
$CUSTOMPROPERTY
  1

  9
$CUSTOMPROPERTYTAG
  1
Date Mfg Approved
  9
$CUSTOMPROPERTY
  1
10/29/2012
  9
$CUSTOMPROPERTYTAG
  1
DWG. NO
  9
$CUSTOMPROPERTY
  1

  9
$CUSTOMPROPERTYTAG
  1
NUMBER OF SHEETS
  9
$CUSTOMPROPERTY
  1
1
  9
$CUSTOMPROPERTYTAG
  1
DRAWING #
  9
$CUSTOMPROPERTY
  1

  9
$INSBASE
 10
0.0
 20
0.0
 30
0.0
  9
$EXTMIN
 10
0.0
 20
0.0
 30
0.0
  9
$EXTMAX
 10
45.33333333333333
 20
29.33333333333333
 30
0.0
  9
$LIMMIN
 10
0.0
 20
0.0
  9
$LIMMAX
 10
45.33333333333333
 20
29.33333333333333
  9
$ORTHOMODE
 70
     0
  9
$REGENMODE
 70
     1
  9
$FILLMODE
 70
     1
  9
$QTEXTMODE
 70
     0
  9
$MIRRTEXT
 70
     0
  9
$LTSCALE
 40
2.666666666666666
  9
$ATTMODE
 70
     1
  9
$TEXTSIZE
 40
0.2
  9
$TRACEWID
 40
0.05
  9
$TEXTSTYLE
  7
Standard
  9
$CLAYER
  8
0
  9
$CELTYPE
  6
ByLayer
  9
$CECOLOR
 62
   256
  9
$CELTSCALE
 40
1.0
  9
$DISPSILH
 70
     0
  9
$DIMSCALE
 40
1.0
  9
$DIMASZ
 40
0.0708661417322835
  9
$DIMEXO
 40
0.0625
  9
$DIMDLI
 40
0.38
  9
$DIMRND
 40
0.0
  9
$DIMDLE
 40
0.0
  9
$DIMEXE
 40
0.18
  9
$DIMTP
 40
0.0
  9
$DIMTM
 40
0.0
  9
$DIMTXT
 40
0.0708661417322835
  9
$DIMCEN
 40
0.09
  9
$DIMTSZ
 40
0.0
  9
$DIMTOL
 70
     0
  9
$DIMLIM
 70
     0
  9
$DIMTIH
 70
     1
  9
$DIMTOH
 70
     1
  9
$DIMSE1
 70
     0
  9
$DIMSE2
 70
     0
  9
$DIMTAD
 70
     0
  9
$DIMZIN
 70
     0
  9
$DIMBLK
  1

  9
$DIMASO
 70
     1
  9
$DIMSHO
 70
     1
  9
$DIMPOST
  1

  9
$DIMAPOST
  1

  9
$DIMALT
 70
     0
  9
$DIMALTD
 70
     2
  9
$DIMALTF
 40
25.4
  9
$DIMLFAC
 40
1.0
  9
$DIMTOFL
 70
     0
  9
$DIMTVP
 40
0.0
  9
$DIMTIX
 70
     0
  9
$DIMSOXD
 70
     0
  9
$DIMSAH
 70
     0
  9
$DIMBLK1
  1

  9
$DIMBLK2
  1

  9
$DIMSTYLE
  2
Standard
  9
$DIMCLRD
 70
     0
  9
$DIMCLRE
 70
     0
  9
$DIMCLRT
 70
     0
  9
$DIMTFAC
 40
1.0
  9
$DIMGAP
 40
0.09
  9
$DIMJUST
 70
     0
  9
$DIMSD1
 70
     0
  9
$DIMSD2
 70
     0
  9
$DIMTOLJ
 70
     1
  9
$DIMTZIN
 70
     0
  9
$DIMALTZ
 70
     0
  9
$DIMALTTZ
 70
     0
  9
$DIMUPT
 70
     0
  9
$DIMDEC
 70
     4
  9
$DIMTDEC
 70
     4
  9
$DIMALTU
 70
     2
  9
$DIMALTTD
 70
     2
  9
$DIMTXSTY
  7
Standard
  9
$DIMAUNIT
 70
     0
  9
$DIMADEC
 70
     0
  9
$DIMALTRND
 40
0.0
  9
$DIMAZIN
 70
     0
  9
$DIMDSEP
 70
    46
  9
$DIMATFIT
 70
     3
  9
$DIMFRAC
 70
     0
  9
$DIMLDRBLK
  1

  9
$DIMLUNIT
 70
     2
  9
$DIMLWD
 70
    -2
  9
$DIMLWE
 70
    -2
  9
$DIMTMOVE
 70
     0
  9
$DIMFXL
 40
1.0
  9
$DIMFXLON
 70
     0
  9
$DIMJOGANG
 40
0.7853981633974483
  9
$DIMTFILL
 70
     0
  9
$DIMTFILLCLR
 70
     0
  9
$DIMARCSYM
 70
     0
  9
$DIMLTYPE
  6

  9
$DIMLTEX1
  6

  9
$DIMLTEX2
  6

  9
$DIMTXTDIRECTION
 70
     0
  9
$LUNITS
 70
     2
  9
$LUPREC
 70
     4
  9
$SKETCHINC
 40
0.1
  9
$FILLETRAD
 40
0.0
  9
$AUNITS
 70
     0
  9
$AUPREC
 70
     0
  9
$MENU
  1
.
  9
$ELEVATION
 40
0.0
  9
$PELEVATION
 40
0.0
  9
$THICKNESS
 40
0.0
  9
$LIMCHECK
 70
     0
  9
$CHAMFERA
 40
0.0
  9
$CHAMFERB
 40
0.0
  9
$CHAMFERC
 40
0.0
  9
$CHAMFERD
 40
0.0
  9
$SKPOLY
 70
     0
  9
$TDCREATE
 40
2456295.412701400
  9
$TDUCREATE
 40
2456295.662701401
  9
$TDUPDATE
 40
2456295.412701412
  9
$TDUUPDATE
 40
2456295.662701412
  9
$TDINDWG
 40
0.0000280903
  9
$TDUSRTIMER
 40
0.0000280903
  9
$USRTIMER
 70
     1
  9
$ANGBASE
 50
0.0
  9
$ANGDIR
 70
     0
  9
$PDMODE
 70
     0
  9
$PDSIZE
 40
0.0
  9
$PLINEWID
 40
0.0
  9
$SPLFRAME
 70
     0
  9
$SPLINETYPE
 70
     6
  9
$SPLINESEGS
 70
     8
  9
$HANDSEED
  5
14D0
  9
$SURFTAB1
 70
     6
  9
$SURFTAB2
 70
     6
  9
$SURFTYPE
 70
     6
  9
$SURFU
 70
     6
  9
$SURFV
 70
     6
  9
$UCSBASE
  2

  9
$UCSNAME
  2

  9
$UCSORG
 10
0.0
 20
0.0
 30
0.0
  9
$UCSXDIR
 10
1.0
 20
0.0
 30
0.0
  9
$UCSYDIR
 10
0.0
 20
1.0
 30
0.0
  9
$UCSORTHOREF
  2

  9
$UCSORTHOVIEW
 70
     0
  9
$UCSORGTOP
 10
0.0
 20
0.0
 30
0.0
  9
$UCSORGBOTTOM
 10
0.0
 20
0.0
 30
0.0
  9
$UCSORGLEFT
 10
0.0
 20
0.0
 30
0.0
  9
$UCSORGRIGHT
 10
0.0
 20
0.0
 30
0.0
  9
$UCSORGFRONT
 10
0.0
 20
0.0
 30
0.0
  9
$UCSORGBACK
 10
0.0
 20
0.0
 30
0.0
  9
$PUCSBASE
  2

  9
$PUCSNAME
  2

  9
$PUCSORG
 10
0.0
 20
0.0
 30
0.0
  9
$PUCSXDIR
 10
1.0
 20
0.0
 30
0.0
  9
$PUCSYDIR
 10
0.0
 20
1.0
 30
0.0
  9
$PUCSORTHOREF
  2

  9
$PUCSORTHOVIEW
 70
     0
  9
$PUCSORGTOP
 10
0.0
 20
0.0
 30
0.0
  9
$PUCSORGBOTTOM
 10
0.0
 20
0.0
 30
0.0
  9
$PUCSORGLEFT
 10
0.0
 20
0.0
 30
0.0
  9
$PUCSORGRIGHT
 10
0.0
 20
0.0
 30
0.0
  9
$PUCSORGFRONT
 10
0.0
 20
0.0
 30
0.0
  9
$PUCSORGBACK
 10
0.0
 20
0.0
 30
0.0
  9
$USERI1
 70
     0
  9
$USERI2
 70
     0
  9
$USERI3
 70
     0
  9
$USERI4
 70
     0
  9
$USERI5
 70
     0
  9
$USERR1
 40
0.0
  9
$USERR2
 40
0.0
  9
$USERR3
 40
0.0
  9
$USERR4
 40
0.0
  9
$USERR5
 40
0.0
  9
$WORLDVIEW
 70
     1
  9
$SHADEDGE
 70
     3
  9
$SHADEDIF
 70
    70
  9
$TILEMODE
 70
     1
  9
$MAXACTVP
 70
    64
  9
$PINSBASE
 10
0.0
 20
0.0
 30
0.0
  9
$PLIMCHECK
 70
     0
  9
$PEXTMIN
 10
0.0
 20
0.0
 30
0.0
  9
$PEXTMAX
 10
45.33333333333333
 20
29.33333333333333
 30
0.0
  9
$PLIMMIN
 10
0.0
 20
0.0
  9
$PLIMMAX
 10
45.33333333333333
 20
29.33333333333333
  9
$UNITMODE
 70
     0
  9
$VISRETAIN
 70
     1
  9
$PLINEGEN
 70
     0
  9
$PSLTSCALE
 70
     1
  9
$TREEDEPTH
 70
  3020
  9
$CMLSTYLE
  2
Standard
  9
$CMLJUST
 70
     0
  9
$CMLSCALE
 40
1.0
  9
$PROXYGRAPHICS
 70
     1
  9
$MEASUREMENT
 70
     0
  9
$CELWEIGHT
370
    -1
  9
$ENDCAPS
280
     0
  9
$JOINSTYLE
280
     0
  9
$LWDISPLAY
290
     0
  9
$INSUNITS
 70
     1
  9
$HYPERLINKBASE
  1

  9
$STYLESHEET
  1

  9
$XEDIT
290
     1
  9
$CEPSNTYPE
380
     0
  9
$PSTYLEMODE
290
     1
  9
$FINGERPRINTGUID
  2
{8468AAF9-E14B-4792-A4B9-1BC4F43D7768}
  9
$VERSIONGUID
  2
{58C66EAB-45F2-497C-A316-A269CE72E52F}
  9
$EXTNAMES
290
     1
  9
$PSVPSCALE
 40
0.0
  9
$OLESTARTUP
290
     0
  9
$SORTENTS
280
   127
  9
$INDEXCTL
280
     0
  9
$HIDETEXT
280
     1
  9
$XCLIPFRAME
280
     2
  9
$HALOGAP
280
     0
  9
$OBSCOLOR
 70
   257
  9
$OBSLTYPE
280
     0
  9
$INTERSECTIONDISPLAY
280
     0
  9
$INTERSECTIONCOLOR
 70
   257
  9
$DIMASSOC
280
     1
  9
$PROJECTNAME
  1

  9
$CAMERADISPLAY
290
     0
  9
$LENSLENGTH
 40
50.0
  9
$CAMERAHEIGHT
 40
0.0
  9
$STEPSPERSEC
 40
2.0
  9
$STEPSIZE
 40
6.0
  9
$3DDWFPREC
 40
2.0
  9
$PSOLWIDTH
 40
0.25
  9
$PSOLHEIGHT
 40
4.0
  9
$LOFTANG1
 40
1.570796326794896
  9
$LOFTANG2
 40
1.570796326794896
  9
$LOFTMAG1
 40
0.0
  9
$LOFTMAG2
 40
0.0
  9
$LOFTPARAM
 70
     7
  9
$LOFTNORMALS
280
     1
  9
$LATITUDE
 40
37.795
  9
$LONGITUDE
 40
-122.394
  9
$NORTHDIRECTION
 40
0.0
  9
$TIMEZONE
 70
 -8000
  9
$LIGHTGLYPHDISPLAY
280
     1
  9
$TILEMODELIGHTSYNCH
280
     1
  9
$CMATERIAL
347
11
  9
$SOLIDHIST
280
     0
  9
$SHOWHIST
280
     1
  9
$DWFFRAME
280
     2
  9
$DGNFRAME
280
     0
  9
$REALWORLDSCALE
290
     1
  9
$INTERFERECOLOR
 62
     1
  9
$INTERFEREOBJVS
345
33
  9
$INTERFEREVPVS
346
30
  9
$CSHADOW
280
     0
  9
$SHADOWPLANELOCATION
 40
0.0
  0
ENDSEC
  0
SECTION
  2
CLASSES
  0
CLASS
  1
ACDBDICTIONARYWDFLT
  2
AcDbDictionaryWithDefault
  3
ObjectDBX Classes
 90
        0
 91
        1
280
     0
281
     0
  0
CLASS
  1
MATERIAL
  2
AcDbMaterial
  3
ObjectDBX Classes
 90
     1153
 91
        3
280
     0
281
     0
  0
CLASS
  1
VISUALSTYLE
  2
AcDbVisualStyle
  3
ObjectDBX Classes
 90
     4095
 91
       24
280
     0
281
     0
  0
CLASS
  1
SCALE
  2
AcDbScale
  3
ObjectDBX Classes
 90
     1153
 91
       17
280
     0
281
     0
  0
CLASS
  1
TABLESTYLE
  2
AcDbTableStyle
  3
ObjectDBX Classes
 90
     4095
 91
        1
280
     0
281
     0
  0
CLASS
  1
MLEADERSTYLE
  2
AcDbMLeaderStyle
  3
ACDB_MLEADERSTYLE_CLASS
 90
     4095
 91
        1
280
     0
281
     0
  0
CLASS
  1
DICTIONARYVAR
  2
AcDbDictionaryVar
  3
ObjectDBX Classes
 90
        0
 91
        3
280
     0
281
     0
  0
CLASS
  1
CELLSTYLEMAP
  2
AcDbCellStyleMap
  3
ObjectDBX Classes
 90
     1152
 91
        1
280
     0
281
     0
  0
ENDSEC
  0
SECTION
  2
TABLES
  0
TABLE
  2
VPORT
  5
8
330
0
100
AcDbSymbolTable
 70
     1
  0
VPORT
  5
57
330
8
100
AcDbSymbolTableRecord
100
AcDbViewportTableRecord
  2
*Active
 70
     0
 10
0.0
 20
0.0
 11
1.0
 21
1.0
 12
22.66666666666667
 22
14.66666666666666
 13
0.0
 23
0.0
 14
1.0
 24
1.0
 15
0.0
 25
0.0
 16
0.0
 26
0.0
 36
1.0
 17
0.0
 27
0.0
 37
0.0
 40
29.33333333333333
 41
1.545454545454545
 42
50.0
 43
0.0
 44
0.0
 50
0.0
 51
0.0
 71
     0
 72
   100
 73
     1
 74
     1
 75
     0
 76
     0
 77
     0
 78
     0
281
     0
 65
     1
110
0.0
120
0.0
130
0.0
111
1.0
121
0.0
131
0.0
112
0.0
122
1.0
132
0.0
 79
     0
146
0.0
 60
     3
 61
     5
292
     1
282
     1
141
0.0
142
0.0
 63
   250
421
  3355443
  0
ENDTAB
  0
TABLE
  2
LTYPE
  5
5
330
0
100
AcDbSymbolTable
 70
    59
  0
LTYPE
  5
5B
330
5
100
AcDbSymbolTableRecord
100
AcDbLinetypeTableRecord
  2
ByBlock
 70
     0
  3

 72
    65
 73
     0
 40
0.0
  0
LTYPE
  5
5C
330
5
100
AcDbSymbolTableRecord
100
AcDbLinetypeTableRecord
  2
ByLayer
 70
     0
  3

 72
    65
 73
     0
 40
0.0
  0
LTYPE
  5
5D
330
5
100
AcDbSymbolTableRecord
100
AcDbLinetypeTableRecord
  2
Continuous
 70
     0
  3
Solid line
 72
    65
 73
     0
 40
0.0
  0
LTYPE
  5
7C
330
5
100
AcDbSymbolTableRecord
100
AcDbLinetypeTableRecord
  2
BY_STANDARD
 70
     0
  3
By Standard ____________    ____    ____   _
 72
    65
 73
     6
 40
1.240299999999999
 49
0.6614
 74
     0
 49
-0.0827
 74
     0
 49
0.1654
 74
     0
 49
-0.0827
 74
     0
 49
0.1654
 74
     0
 49
-0.0827
 74
     0
  0
LTYPE
  5
7D
330
5
100
AcDbSymbolTableRecord
100
AcDbLinetypeTableRecord
  2
CHAIN
 70
     0
  3
Chain ____ _ ____ _ ____ _ ____ _ ____ _ ____
 72
    65
 73
     4
 40
0.7087
 49
0.4724000000000001
 74
     0
 49
-0.0591
 74
     0
 49
0.1181
 74
     0
 49
-0.0591
 74
     0
  0
LTYPE
  5
7E
330
5
100
AcDbSymbolTableRecord
100
AcDbLinetypeTableRecord
  2
DASH_DOT
 70
     0
  3
Dash dot __ . __ . __ . __ . __ . __ . __ . __
 72
    65
 73
     4
 40
0.37
 49
0.24
 74
     0
 49
-0.06
 74
     0
 49
0.01
 74
     0
 49
-0.06
 74
     0
  0
LTYPE
  5
7F
330
5
100
AcDbSymbolTableRecord
100
AcDbLinetypeTableRecord
  2
DOUBLE_DASH_DOT
 70
     0
  3
Double-Dash Dot __ __ . __ __ . __ __ . __ _
 72
    65
 73
     6
 40
0.4398
 49
0.24
 74
     0
 49
-0.06
 74
     0
 49
0.0098
 74
     0
 49
-0.06
 74
     0
 49
0.01
 74
     0
 49
-0.06
 74
     0
  0
LTYPE
  5
80
330
5
100
AcDbSymbolTableRecord
100
AcDbLinetypeTableRecord
  2
DASH_TRIPLE_DOT
 70
     0
  3
Dash Triple-Dot _ . . . _ . . . _ . . . _
 72
    65
 73
     8
 40
0.51
 49
0.24
 74
     0
 49
-0.06
 74
     0
 49
0.01
 74
     0
 49
-0.06
 74
     0
 49
0.01
 74
     0
 49
-0.06
 74
     0
 49
0.01
 74
     0
 49
-0.06
 74
     0
  0
LTYPE
  5
81
330
5
100
AcDbSymbolTableRecord
100
AcDbLinetypeTableRecord
  2
DASHED
 70
     0
  3
Dashed __ __ __ __ __ __ __ __ __ __ __ __ __ _
 72
    65
 73
     2
 40
0.2067
 49
0.1654
 74
     0
 49
-0.0413
 74
     0
  0
LTYPE
  5
82
330
5
100
AcDbSymbolTableRecord
100
AcDbLinetypeTableRecord
  2
DASH_DOUBLE_DOT
 70
     0
  3
Dash Double-Dot __ . . __ . . __ . . __ . .
 72
    65
 73
     6
 40
0.4398
 49
0.24
 74
     0
 49
-0.06
 74
     0
 49
0.0098
 74
     0
 49
-0.06
 74
     0
 49
0.01
 74
     0
 49
-0.06
 74
     0
  0
LTYPE
  5
83
330
5
100
AcDbSymbolTableRecord
100
AcDbLinetypeTableRecord
  2
DASHED_SPACE
 70
     0
  3
Dashed Space __ __ __ __ __ __ __ __ __ __ __ _
 72
    65
 73
     2
 40
0.2067
 49
0.1654
 74
     0
 49
-0.0413
 74
     0
  0
LTYPE
  5
84
330
5
100
AcDbSymbolTableRecord
100
AcDbLinetypeTableRecord
  2
DOTTED
 70
     0
  3
Dotted . . . . . . . . . . . . . . . . . . . . 
 72
    65
 73
     2
 40
0.0482
 49
0.0069
 74
     0
 49
-0.0413
 74
     0
  0
LTYPE
  5
85
330
5
100
AcDbSymbolTableRecord
100
AcDbLinetypeTableRecord
  2
DOUBLE_DASH_CHAIN
 70
     0
  3
Double-Dash Chain ______  __  __  ______  __  _
 72
    65
 73
     6
 40
1.240299999999999
 49
0.6614
 74
     0
 49
-0.0827
 74
     0
 49
0.1654
 74
     0
 49
-0.0827
 74
     0
 49
0.1654
 74
     0
 49
-0.0827
 74
     0
  0
LTYPE
  5
87
330
5
100
AcDbSymbolTableRecord
100
AcDbLinetypeTableRecord
  2
DOUBLE_DASH_DOUBLE_DOT
 70
     0
  3
Double-Dash Double-dot _ _ . . _ _ . . _
 72
    65
 73
     8
 40
0.7400000000000001
 49
0.24
 74
     0
 49
-0.06
 74
     0
 49
0.24
 74
     0
 49
-0.06
 74
     0
 49
0.01
 74
     0
 49
-0.06
 74
     0
 49
0.01
 74
     0
 49
-0.06
 74
     0
  0
LTYPE
  5
88
330
5
100
AcDbSymbolTableRecord
100
AcDbLinetypeTableRecord
  2
DOUBLE_DASH_TRIPLE_DOT
 70
     0
  3
Double Dash Triple Dot __ __ . . . __ __ . .
 72
    65
 73
    10
 40
0.8100000000000001
 49
0.24
 74
     0
 49
-0.06
 74
     0
 49
0.24
 74
     0
 49
-0.06
 74
     0
 49
0.01
 74
     0
 49
-0.06
 74
     0
 49
0.01
 74
     0
 49
-0.06
 74
     0
 49
0.01
 74
     0
 49
-0.06
 74
     0
  0
LTYPE
  5
89
330
5
100
AcDbSymbolTableRecord
100
AcDbLinetypeTableRecord
  2
LONG_DASH_DOTTED
 70
     0
  3
Long Dash Dotted ____ . ____ . ____ . ____ . _
 72
    65
 73
     4
 40
0.3543
 49
0.2362
 74
     0
 49
-0.0295
 74
     0
 49
0.0591
 74
     0
 49
-0.0295
 74
     0
  0
LTYPE
  5
8A
330
5
100
AcDbSymbolTableRecord
100
AcDbLinetypeTableRecord
  2
LONG_DASH_DOUBLE_DOT
 70
     0
  3
Long Dash Double Dot ________  .  .  ________  
 72
    65
 73
     6
 40
0.6799999999999999
 49
0.48
 74
     0
 49
-0.06
 74
     0
 49
0.01
 74
     0
 49
-0.06
 74
     0
 49
0.01
 74
     0
 49
-0.06
 74
     0
  0
LTYPE
  5
8B
330
5
100
AcDbSymbolTableRecord
100
AcDbLinetypeTableRecord
  2
LONG_DASH_TRIPLE_DOT
 70
     0
  3
Long Dash Triple Dot ____ ... ____ ... ____
 72
    65
 73
     8
 40
0.3689
 49
0.2362
 74
     0
 49
-0.0295
 74
     0
 49
0.0049
 74
     0
 49
-0.0295
 74
     0
 49
0.0049
 74
     0
 49
-0.0295
 74
     0
 49
0.0049
 74
     0
 49
-0.0295
 74
     0
  0
LTYPE
  5
8C
330
5
100
AcDbSymbolTableRecord
100
AcDbLinetypeTableRecord
  2
BORDER
 70
     0
  3
Border __ __ . __ __ . __ __ . __ __ . __ __ .
 72
    65
 73
     6
 40
1.75
 49
0.5
 74
     0
 49
-0.25
 74
     0
 49
0.5
 74
     0
 49
-0.25
 74
     0
 49
0.0
 74
     0
 49
-0.25
 74
     0
  0
LTYPE
  5
8D
330
5
100
AcDbSymbolTableRecord
100
AcDbLinetypeTableRecord
  2
BORDER2
 70
     0
  3
Border (.5x) __.__.__.__.__.__.__.__.__.__.__.
 72
    65
 73
     6
 40
0.875
 49
0.25
 74
     0
 49
-0.125
 74
     0
 49
0.25
 74
     0
 49
-0.125
 74
     0
 49
0.0
 74
     0
 49
-0.125
 74
     0
  0
LTYPE
  5
8E
330
5
100
AcDbSymbolTableRecord
100
AcDbLinetypeTableRecord
  2
BORDERX2
 70
     0
  3
Border (2x) ____  ____  .  ____  ____  .  ___
 72
    65
 73
     6
 40
3.5
 49
1.0
 74
     0
 49
-0.5
 74
     0
 49
1.0
 74
     0
 49
-0.5
 74
     0
 49
0.0
 74
     0
 49
-0.5
 74
     0
  0
LTYPE
  5
8F
330
5
100
AcDbSymbolTableRecord
100
AcDbLinetypeTableRecord
  2
CENTER
 70
     0
  3
Center ____ _ ____ _ ____ _ ____ _ ____ _ ____
 72
    65
 73
     4
 40
2.0
 49
1.25
 74
     0
 49
-0.25
 74
     0
 49
0.25
 74
     0
 49
-0.25
 74
     0
  0
LTYPE
  5
90
330
5
100
AcDbSymbolTableRecord
100
AcDbLinetypeTableRecord
  2
CENTER2
 70
     0
  3
Center (.5x) ___ _ ___ _ ___ _ ___ _ ___ _ ___
 72
    65
 73
     4
 40
1.125
 49
0.75
 74
     0
 49
-0.125
 74
     0
 49
0.125
 74
     0
 49
-0.125
 74
     0
  0
LTYPE
  5
91
330
5
100
AcDbSymbolTableRecord
100
AcDbLinetypeTableRecord
  2
CENTERX2
 70
     0
  3
Center (2x) ________  __  ________  __  _____
 72
    65
 73
     4
 40
4.0
 49
2.5
 74
     0
 49
-0.5
 74
     0
 49
0.5
 74
     0
 49
-0.5
 74
     0
  0
LTYPE
  5
92
330
5
100
AcDbSymbolTableRecord
100
AcDbLinetypeTableRecord
  2
DASHDOT2
 70
     0
  3
Dash dot (.5x) _._._._._._._._._._._._._._._.
 72
    65
 73
     4
 40
0.5
 49
0.25
 74
     0
 49
-0.125
 74
     0
 49
0.0
 74
     0
 49
-0.125
 74
     0
  0
LTYPE
  5
93
330
5
100
AcDbSymbolTableRecord
100
AcDbLinetypeTableRecord
  2
DASHDOTX2
 70
     0
  3
Dash dot (2x) ____  .  ____  .  ____  .  ___
 72
    65
 73
     4
 40
2.0
 49
1.0
 74
     0
 49
-0.5
 74
     0
 49
0.0
 74
     0
 49
-0.5
 74
     0
  0
LTYPE
  5
95
330
5
100
AcDbSymbolTableRecord
100
AcDbLinetypeTableRecord
  2
DASHED2
 70
     0
  3
Dashed (.5x) _ _ _ _ _ _ _ _ _ _ _ _ _ _ _ _ _
 72
    65
 73
     2
 40
0.375
 49
0.25
 74
     0
 49
-0.125
 74
     0
  0
LTYPE
  5
96
330
5
100
AcDbSymbolTableRecord
100
AcDbLinetypeTableRecord
  2
DASHEDX2
 70
     0
  3
Dashed (2x) ____  ____  ____  ____  ____  ___
 72
    65
 73
     2
 40
1.5
 49
1.0
 74
     0
 49
-0.5
 74
     0
  0
LTYPE
  5
97
330
5
100
AcDbSymbolTableRecord
100
AcDbLinetypeTableRecord
  2
DIVIDE
 70
     0
  3
Divide ____ . . ____ . . ____ . . ____ . . ____
 72
    65
 73
     6
 40
1.25
 49
0.5
 74
     0
 49
-0.25
 74
     0
 49
0.0
 74
     0
 49
-0.25
 74
     0
 49
0.0
 74
     0
 49
-0.25
 74
     0
  0
LTYPE
  5
98
330
5
100
AcDbSymbolTableRecord
100
AcDbLinetypeTableRecord
  2
DIVIDE2
 70
     0
  3
Divide (.5x) __..__..__..__..__..__..__..__.._
 72
    65
 73
     6
 40
0.625
 49
0.25
 74
     0
 49
-0.125
 74
     0
 49
0.0
 74
     0
 49
-0.125
 74
     0
 49
0.0
 74
     0
 49
-0.125
 74
     0
  0
LTYPE
  5
99
330
5
100
AcDbSymbolTableRecord
100
AcDbLinetypeTableRecord
  2
DIVIDEX2
 70
     0
  3
Divide (2x) ________  .  .  ________  .  .  _
 72
    65
 73
     6
 40
2.5
 49
1.0
 74
     0
 49
-0.5
 74
     0
 49
0.0
 74
     0
 49
-0.5
 74
     0
 49
0.0
 74
     0
 49
-0.5
 74
     0
  0
LTYPE
  5
9A
330
5
100
AcDbSymbolTableRecord
100
AcDbLinetypeTableRecord
  2
DOT
 70
     0
  3
Dot . . . . . . . . . . . . . . . . . . . . . .
 72
    65
 73
     2
 40
0.25
 49
0.0
 74
     0
 49
-0.25
 74
     0
  0
LTYPE
  5
9B
330
5
100
AcDbSymbolTableRecord
100
AcDbLinetypeTableRecord
  2
DOT2
 70
     0
  3
Dot (.5x) .....................................
 72
    65
 73
     2
 40
0.125
 49
0.0
 74
     0
 49
-0.125
 74
     0
  0
LTYPE
  5
9C
330
5
100
AcDbSymbolTableRecord
100
AcDbLinetypeTableRecord
  2
DOTX2
 70
     0
  3
Dot (2x) .  .  .  .  .  .  .  .  .  .  .  .  . 
 72
    65
 73
     2
 40
0.5
 49
0.0
 74
     0
 49
-0.5
 74
     0
  0
LTYPE
  5
9D
330
5
100
AcDbSymbolTableRecord
100
AcDbLinetypeTableRecord
  2
HIDDEN
 70
     0
  3
Hidden __ __ __ __ __ __ __ __ __ __ __ __ __ _
 72
    65
 73
     2
 40
0.375
 49
0.25
 74
     0
 49
-0.125
 74
     0
  0
LTYPE
  5
9E
330
5
100
AcDbSymbolTableRecord
100
AcDbLinetypeTableRecord
  2
HIDDEN2
 70
     0
  3
Hidden (.5x) _ _ _ _ _ _ _ _ _ _ _ _ _ _ _ _ _
 72
    65
 73
     2
 40
0.1875
 49
0.125
 74
     0
 49
-0.0625
 74
     0
  0
LTYPE
  5
9F
330
5
100
AcDbSymbolTableRecord
100
AcDbLinetypeTableRecord
  2
HIDDENX2
 70
     0
  3
Hidden (2x) ____ ____ ____ ____ ____ ____ ____
 72
    65
 73
     2
 40
0.75
 49
0.5
 74
     0
 49
-0.25
 74
     0
  0
LTYPE
  5
A0
330
5
100
AcDbSymbolTableRecord
100
AcDbLinetypeTableRecord
  2
PHANTOM
 70
     0
  3
Phantom ______  __  __  ______  __  __  ______
 72
    65
 73
     6
 40
2.5
 49
1.25
 74
     0
 49
-0.25
 74
     0
 49
0.25
 74
     0
 49
-0.25
 74
     0
 49
0.25
 74
     0
 49
-0.25
 74
     0
  0
LTYPE
  5
A1
330
5
100
AcDbSymbolTableRecord
100
AcDbLinetypeTableRecord
  2
PHANTOM2
 70
     0
  3
Phantom (.5x) ___ _ _ ___ _ _ ___ _ _ ___ _ _
 72
    65
 73
     6
 40
1.25
 49
0.625
 74
     0
 49
-0.125
 74
     0
 49
0.125
 74
     0
 49
-0.125
 74
     0
 49
0.125
 74
     0
 49
-0.125
 74
     0
  0
LTYPE
  5
A2
330
5
100
AcDbSymbolTableRecord
100
AcDbLinetypeTableRecord
  2
PHANTOMX2
 70
     0
  3
Phantom (2x) ____________    ____    ____   _
 72
    65
 73
     6
 40
5.0
 49
2.5
 74
     0
 49
-0.5
 74
     0
 49
0.5
 74
     0
 49
-0.5
 74
     0
 49
0.5
 74
     0
 49
-0.5
 74
     0
  0
LTYPE
  5
A3
330
5
100
AcDbSymbolTableRecord
100
AcDbLinetypeTableRecord
  2
ACAD_ISO02W100
 70
     0
  3
ISO dash __ __ __ __ __ __ __ __ __ __ __ __ __
 72
    65
 73
     2
 40
0.59
 49
0.47
 74
     0
 49
-0.12
 74
     0
  0
LTYPE
  5
A4
330
5
100
AcDbSymbolTableRecord
100
AcDbLinetypeTableRecord
  2
ACAD_ISO03W100
 70
     0
  3
ISO dash space __    __    __    __    __    __
 72
    65
 73
     2
 40
1.179999999999999
 49
0.47
 74
     0
 49
-0.71
 74
     0
  0
LTYPE
  5
A5
330
5
100
AcDbSymbolTableRecord
100
AcDbLinetypeTableRecord
  2
ACAD_ISO04W100
 70
     0
  3
ISO long-dash dot ____ . ____ . ____ . ____ . _
 72
    65
 73
     4
 40
1.179999999999999
 49
0.9399999999999998
 74
     0
 49
-0.12
 74
     0
 49
0.0
 74
     0
 49
-0.12
 74
     0
  0
LTYPE
  5
A6
330
5
100
AcDbSymbolTableRecord
100
AcDbLinetypeTableRecord
  2
ACAD_ISO05W100
 70
     0
  3
ISO long-dash double-dot ____ .. ____ .. ____ .
 72
    65
 73
     6
 40
1.299999999999999
 49
0.9399999999999998
 74
     0
 49
-0.12
 74
     0
 49
0.0
 74
     0
 49
-0.12
 74
     0
 49
0.0
 74
     0
 49
-0.12
 74
     0
  0
LTYPE
  5
A7
330
5
100
AcDbSymbolTableRecord
100
AcDbLinetypeTableRecord
  2
ACAD_ISO06W100
 70
     0
  3
ISO long-dash triple-dot ____ ... ____ ... ____
 72
    65
 73
     8
 40
1.419999999999999
 49
0.9399999999999998
 74
     0
 49
-0.12
 74
     0
 49
0.0
 74
     0
 49
-0.12
 74
     0
 49
0.0
 74
     0
 49
-0.12
 74
     0
 49
0.0
 74
     0
 49
-0.12
 74
     0
  0
LTYPE
  5
A8
330
5
100
AcDbSymbolTableRecord
100
AcDbLinetypeTableRecord
  2
ACAD_ISO07W100
 70
     0
  3
ISO dot . . . . . . . . . . . . . . . . . . . .
 72
    65
 73
     2
 40
0.12
 49
0.0
 74
     0
 49
-0.12
 74
     0
  0
LTYPE
  5
A9
330
5
100
AcDbSymbolTableRecord
100
AcDbLinetypeTableRecord
  2
ACAD_ISO08W100
 70
     0
  3
ISO long-dash short-dash ____ __ ____ __ ____ _
 72
    65
 73
     4
 40
0.95
 49
0.47
 74
     0
 49
-0.12
 74
     0
 49
0.24
 74
     0
 49
-0.12
 74
     0
  0
LTYPE
  5
AA
330
5
100
AcDbSymbolTableRecord
100
AcDbLinetypeTableRecord
  2
ACAD_ISO09W100
 70
     0
  3
ISO long-dash double-short-dash ____ __ __ ____
 72
    65
 73
     6
 40
1.31
 49
0.47
 74
     0
 49
-0.12
 74
     0
 49
0.24
 74
     0
 49
-0.12
 74
     0
 49
0.24
 74
     0
 49
-0.12
 74
     0
  0
LTYPE
  5
AB
330
5
100
AcDbSymbolTableRecord
100
AcDbLinetypeTableRecord
  2
ACAD_ISO10W100
 70
     0
  3
ISO dash dot __ . __ . __ . __ . __ . __ . __ .
 72
    65
 73
     4
 40
0.71
 49
0.47
 74
     0
 49
-0.12
 74
     0
 49
0.0
 74
     0
 49
-0.12
 74
     0
  0
LTYPE
  5
AC
330
5
100
AcDbSymbolTableRecord
100
AcDbLinetypeTableRecord
  2
ACAD_ISO11W100
 70
     0
  3
ISO double-dash dot __ __ . __ __ . __ __ . __ 
 72
    65
 73
     6
 40
1.299999999999999
 49
0.47
 74
     0
 49
-0.12
 74
     0
 49
0.47
 74
     0
 49
-0.12
 74
     0
 49
0.0
 74
     0
 49
-0.12
 74
     0
  0
LTYPE
  5
AD
330
5
100
AcDbSymbolTableRecord
100
AcDbLinetypeTableRecord
  2
ACAD_ISO12W100
 70
     0
  3
ISO dash double-dot __ . . __ . . __ . . __ . .
 72
    65
 73
     6
 40
0.8299999999999998
 49
0.47
 74
     0
 49
-0.12
 74
     0
 49
0.0
 74
     0
 49
-0.12
 74
     0
 49
0.0
 74
     0
 49
-0.12
 74
     0
  0
LTYPE
  5
AE
330
5
100
AcDbSymbolTableRecord
100
AcDbLinetypeTableRecord
  2
ACAD_ISO13W100
 70
     0
  3
ISO double-dash double-dot __ __ . . __ __ . . 
 72
    65
 73
     8
 40
1.419999999999999
 49
0.47
 74
     0
 49
-0.12
 74
     0
 49
0.47
 74
     0
 49
-0.12
 74
     0
 49
0.0
 74
     0
 49
-0.12
 74
     0
 49
0.0
 74
     0
 49
-0.12
 74
     0
  0
LTYPE
  5
AF
330
5
100
AcDbSymbolTableRecord
100
AcDbLinetypeTableRecord
  2
ACAD_ISO14W100
 70
     0
  3
ISO dash triple-dot __ . . . __ . . . __ . . . 
 72
    65
 73
     8
 40
0.95
 49
0.47
 74
     0
 49
-0.12
 74
     0
 49
0.0
 74
     0
 49
-0.12
 74
     0
 49
0.0
 74
     0
 49
-0.12
 74
     0
 49
0.0
 74
     0
 49
-0.12
 74
     0
  0
LTYPE
  5
B0
330
5
100
AcDbSymbolTableRecord
100
AcDbLinetypeTableRecord
  2
ACAD_ISO15W100
 70
     0
  3
ISO double-dash triple-dot __ __ . . . __ __ . 
 72
    65
 73
    10
 40
1.539999999999999
 49
0.47
 74
     0
 49
-0.12
 74
     0
 49
0.47
 74
     0
 49
-0.12
 74
     0
 49
0.0
 74
     0
 49
-0.12
 74
     0
 49
0.0
 74
     0
 49
-0.12
 74
     0
 49
0.0
 74
     0
 49
-0.12
 74
     0
  0
LTYPE
  5
B3
330
5
100
AcDbSymbolTableRecord
100
AcDbLinetypeTableRecord
  2
FENCELINE1
 70
     0
  3
Fenceline circle ----0-----0----0-----0----0---
 72
    65
 73
     4
 40
1.45
 49
0.25
 74
     0
 49
-0.1
 74
     4
 75
   133
340
B2
 46
0.1
 50
0.0
 44
-0.1
 45
0.0
 49
-0.1
 74
     0
 49
1.0
 74
     0
  0
LTYPE
  5
B4
330
5
100
AcDbSymbolTableRecord
100
AcDbLinetypeTableRecord
  2
FENCELINE2
 70
     0
  3
Fenceline square ----[]-----[]----[]-----[]----
 72
    65
 73
     4
 40
1.45
 49
0.25
 74
     0
 49
-0.1
 74
     4
 75
   132
340
B2
 46
0.1
 50
0.0
 44
-0.1
 45
0.0
 49
-0.1
 74
     0
 49
1.0
 74
     0
  0
LTYPE
  5
B5
330
5
100
AcDbSymbolTableRecord
100
AcDbLinetypeTableRecord
  2
TRACKS
 70
     0
  3
Tracks -|-|-|-|-|-|-|-|-|-|-|-|-|-|-|-|-|-|-|-|
 72
    65
 73
     2
 40
0.3
 49
0.15
 74
     4
 75
   130
340
B2
 46
0.25
 50
0.0
 44
0.0
 45
0.0
 49
0.15
 74
     0
  0
LTYPE
  5
B6
330
5
100
AcDbSymbolTableRecord
100
AcDbLinetypeTableRecord
  2
BATTING
 70
     0
  3
Batting SSSSSSSSSSSSSSSSSSSSSSSSSSSSSSSSSSSSSSS
 72
    65
 73
     4
 40
0.4001000000000001
 49
0.0001
 74
     0
 49
-0.1
 74
     4
 75
   134
340
B2
 46
0.1
 50
0.0
 44
-0.1
 45
0.0
 49
-0.2
 74
     4
 75
   134
340
B2
 46
0.1
 50
180.0
 44
0.1
 45
0.0
 49
-0.1
 74
     0
  0
LTYPE
  5
B7
330
5
100
AcDbSymbolTableRecord
100
AcDbLinetypeTableRecord
  2
HOT_WATER_SUPPLY
 70
     0
  3
Hot water supply ---- HW ---- HW ---- HW ----
 72
    65
 73
     3
 40
0.9
 49
0.5
 74
     0
 49
-0.2
 74
     2
 75
     0
340
55
 46
0.1
 50
0.0
 44
-0.1
 45
-0.05
  9
HW
 49
-0.2
 74
     0
  0
LTYPE
  5
B8
330
5
100
AcDbSymbolTableRecord
100
AcDbLinetypeTableRecord
  2
GAS_LINE
 70
     0
  3
Gas line ----GAS----GAS----GAS----GAS----GAS---
 72
    65
 73
     3
 40
0.95
 49
0.5
 74
     0
 49
-0.2
 74
     2
 75
     0
340
55
 46
0.1
 50
0.0
 44
-0.1
 45
-0.05
  9
GAS
 49
-0.25
 74
     0
  0
LTYPE
  5
B9
330
5
100
AcDbSymbolTableRecord
100
AcDbLinetypeTableRecord
  2
ZIGZAG
 70
     0
  3
Zig zag /\/\/\/\/\/\/\/\/\/\/\/\/\/\/\/\/\/\/\/
 72
    65
 73
     4
 40
0.8001000000000001
 49
0.0001
 74
     0
 49
-0.2
 74
     4
 75
   131
340
B2
 46
0.2
 50
0.0
 44
-0.2
 45
0.0
 49
-0.4
 74
     4
 75
   131
340
B2
 46
0.2
 50
180.0
 44
0.2
 45
0.0
 49
-0.2
 74
     0
  0
ENDTAB
  0
TABLE
  2
LAYER
  5
2
330
0
100
AcDbSymbolTable
 70
    27
  0
LAYER
  5
54
330
2
100
AcDbSymbolTableRecord
100
AcDbLayerTableRecord
  2
0
 70
     0
 62
     7
  6
Continuous
370
     0
390
F
347
21
  0
LAYER
  5
C0
330
2
100
AcDbSymbolTableRecord
100
AcDbLayerTableRecord
  2
Center Mark (ANSI)
 70
     0
 62
     7
  6
Continuous
370
     5
390
F
347
21
  0
LAYER
  5
C1
330
2
100
AcDbSymbolTableRecord
100
AcDbLayerTableRecord
  2
Centerline (ANSI)
 70
     0
 62
     7
  6
Continuous
370
     5
390
F
347
21
  0
LAYER
  5
C3
330
2
100
AcDbSymbolTableRecord
100
AcDbLayerTableRecord
  2
Dimension (ANSI)
 70
     0
 62
     7
  6
Continuous
370
     5
390
F
347
21
  0
LAYER
  5
CC
330
2
100
AcDbSymbolTableRecord
100
AcDbLayerTableRecord
  2
Symbol (ANSI)
 70
     0
 62
     7
  6
Continuous
370
     5
390
F
347
21
  0
LAYER
  5
CF
330
2
100
AcDbSymbolTableRecord
100
AcDbLayerTableRecord
  2
Visible (ANSI)
 70
     0
 62
     7
  6
Continuous
370
     5
390
F
347
21
  0
LAYER
  5
D0
330
2
100
AcDbSymbolTableRecord
100
AcDbLayerTableRecord
  2
Visible Narrow (ANSI)
 70
     0
 62
     7
  6
Continuous
370
     5
390
F
347
21
  0
LAYER
  5
226
330
2
100
AcDbSymbolTableRecord
100
AcDbLayerTableRecord
  2
Defpoints
 70
     0
 62
     7
  6
Continuous
290
     0
370
    -3
390
F
347
21
  0
ENDTAB
  0
TABLE
  2
STYLE
  5
3
330
0
100
AcDbSymbolTable
 70
    10
  0
STYLE
  5
55
330
3
100
AcDbSymbolTableRecord
100
AcDbTextStyleTableRecord
  2
Standard
 70
     0
 40
0.0
 41
1.0
 50
0.0
 71
     0
 42
0.2
  3
txt
  4

  0
STYLE
  5
5A
330
3
100
AcDbSymbolTableRecord
100
AcDbTextStyleTableRecord
  2
Annotative
 70
     0
 40
0.0
 41
1.0
 50
0.0
 71
     0
 42
0.2
  3
txt
  4

1001
AcadAnnotative
1000
AnnotativeData
1002
{
1070
     1
1070
     1
1002
}
  0
STYLE
  5
B2
330
3
100
AcDbSymbolTableRecord
100
AcDbTextStyleTableRecord
  2

 70
     1
 40
0.0
 41
1.0
 50
0.0
 71
     0
 42
0.2
  3
ltypeshp.shx
  4

  0
STYLE
  5
D4
330
3
100
AcDbSymbolTableRecord
100
AcDbTextStyleTableRecord
  2
ITALICC_120
 70
     0
 40
0.0
 41
1.0
 50
0.0
 71
     0
 42
0.2
  3
italicc.shx
  4

  0
STYLE
  5
D5
330
3
100
AcDbSymbolTableRecord
100
AcDbTextStyleTableRecord
  2
Label Text (ANSI)
 70
     0
 40
0.0
 41
1.0
 50
0.0
 71
     0
 42
0.2
  3
tahoma.ttf
  4

1001
ACAD
1000
Tahoma
1071
      256
  0
STYLE
  5
D6
330
3
100
AcDbSymbolTableRecord
100
AcDbTextStyleTableRecord
  2
Note Text (ANSI)
 70
     0
 40
0.0
 41
1.0
 50
0.0
 71
     0
 42
0.2
  3
RomanS.shx
  4

  0
STYLE
  5
D7
330
3
100
AcDbSymbolTableRecord
100
AcDbTextStyleTableRecord
  2
ROMANS
 70
     0
 40
0.0
 41
1.0
 50
0.0
 71
     0
 42
0.2
  3
romans.shx
  4

  0
STYLE
  5
D8
330
3
100
AcDbSymbolTableRecord
100
AcDbTextStyleTableRecord
  2
SANSSERIF_114
 70
     0
 40
0.0
 41
1.0
 50
0.0
 71
     0
 42
0.2
  3
tahoma.ttf
  4

1001
ACAD
1000
Tahoma
1071
      256
  0
STYLE
  5
D9
330
3
100
AcDbSymbolTableRecord
100
AcDbTextStyleTableRecord
  2
SANSSERIF_117
 70
     0
 40
0.0
 41
1.0
 50
0.0
 71
     0
 42
0.2
  3
tahoma.ttf
  4

1001
ACAD
1000
Tahoma
1071
      256
  0
STYLE
  5
155
330
3
100
AcDbSymbolTableRecord
100
AcDbTextStyleTableRecord
  2
Text Style168
 70
     0
 40
0.0
 41
1.0
 50
0.0
 71
     0
 42
0.2
  3
tahoma.ttf
  4

1001
ACAD
1000
Tahoma
1071
      256
  0
ENDTAB
  0
TABLE
  2
VIEW
  5
6
330
0
100
AcDbSymbolTable
 70
     0
  0
ENDTAB
  0
TABLE
  2
UCS
  5
7
330
0
100
AcDbSymbolTable
 70
     0
  0
ENDTAB
  0
TABLE
  2
APPID
  5
9
330
0
100
AcDbSymbolTable
 70
     2
  0
APPID
  5
56
330
9
100
AcDbSymbolTableRecord
100
AcDbRegAppTableRecord
  2
ACAD
 70
     0
  0
APPID
  5
5E
330
9
100
AcDbSymbolTableRecord
100
AcDbRegAppTableRecord
  2
AcadAnnotative
 70
     0
  0
ENDTAB
  0
TABLE
  2
DIMSTYLE
  5
A
330
0
100
AcDbSymbolTable
 70
    15
100
AcDbDimStyleTable
 71
     2
340
E2
340
58
  0
DIMSTYLE
105
58
330
A
100
AcDbSymbolTableRecord
100
AcDbDimStyleTableRecord
  2
Standard
 70
     0
340
55
  0
DIMSTYLE
105
59
330
A
100
AcDbSymbolTableRecord
100
AcDbDimStyleTableRecord
  2
Annotative
 70
     0
340
55
1001
AcadAnnotative
1000
AnnotativeData
1002
{
1070
     1
1070
     1
1002
}
  0
DIMSTYLE
105
DA
330
A
100
AcDbSymbolTableRecord
100
AcDbDimStyleTableRecord
  2
Architectural (ANSI)
 70
     0
 40
2.666666666666666
 41
0.0984251946210861
 43
0.2362204724409449
 44
0.125
 45
0.00000001
 46
0.3937007874015748
 78
     3
 79
     3
140
0.1000000014901161
146
1.200000047683715
147
0.031496062992126
171
     1
176
   256
177
   256
178
   256
272
     2
274
     1
276
     2
277
     4
284
    12
285
     4
286
    12
340
D6
371
    -1
372
    -1
  0
DIMSTYLE
105
DB
330
A
100
AcDbSymbolTableRecord
100
AcDbDimStyleTableRecord
  2
Architectural (ANSI)$7
 70
     0
 40
2.666666666666666
 41
0.0984251946210861
 43
0.2362204724409449
 44
0.125
 45
0.00000001
 46
0.3937007874015748
 78
     3
 79
     3
140
0.1000000014901161
146
1.200000047683715
147
0.031496062992126
171
     1
176
   256
177
   256
178
   256
272
     2
274
     1
276
     2
277
     4
284
    12
285
     4
286
    12
340
D6
371
    -1
372
    -1
  0
DIMSTYLE
105
DC
330
A
100
AcDbSymbolTableRecord
100
AcDbDimStyleTableRecord
  2
Default - Fraction (ANSI)
 70
     0
 40
2.666666666666666
 41
0.0984251946210861
 43
0.2362204724409449
 44
0.125
 45
0.00000001
 46
0.3937007874015748
 79
     3
140
0.1000000014901161
146
1.200000047683715
147
0.031496062992126
171
     1
176
   256
177
   256
178
   256
272
     2
274
     1
276
     2
277
     5
284
    12
285
     4
286
    12
340
D6
371
    -1
372
    -1
  0
DIMSTYLE
105
DD
330
A
100
AcDbSymbolTableRecord
100
AcDbDimStyleTableRecord
  2
Default - Fraction (ANSI)$7
 70
     0
 40
2.666666666666666
 41
0.0984251946210861
 43
0.2362204724409449
 44
0.125
 45
0.00000001
 46
0.3937007874015748
 79
     3
140
0.1000000014901161
146
1.200000047683715
147
0.031496062992126
171
     1
176
   256
177
   256
178
   256
272
     2
274
     1
276
     2
277
     5
284
    12
285
     4
286
    12
340
D6
371
    -1
372
    -1
  0
DIMSTYLE
105
DE
330
A
100
AcDbSymbolTableRecord
100
AcDbDimStyleTableRecord
  2
Default - mm (ANSI)
 70
     0
 40
2.666666666666666
 41
0.0984251946210861
 42
0.063
 43
0.2362204724409449
 44
0.125
 45
0.00000001
 46
0.3937007874015748
 73
     0
 78
     4
 79
     1
140
0.1000000014901161
143
1.0
144
25.4
146
1.200000047683715
147
0.031496062992126
171
     1
176
   256
177
   256
178
   256
179
     1
271
     2
272
     2
274
     1
284
     4
285
     4
340
D6
371
    -1
372
    -1
  0
DIMSTYLE
105
DF
330
A
100
AcDbSymbolTableRecord
100
AcDbDimStyleTableRecord
  2
Default - mm (ANSI)$7
 70
     0
 40
2.666666666666666
 41
0.0984251946210861
 42
0.063
 43
0.2362204724409449
 44
0.125
 45
0.00000001
 46
0.3937007874015748
 73
     0
 78
     4
 79
     1
140
0.1000000014901161
143
1.0
144
25.4
146
1.200000047683715
147
0.031496062992126
171
     1
176
   256
177
   256
178
   256
179
     1
271
     2
272
     2
274
     1
284
     4
285
     4
340
D6
371
    -1
372
    -1
  0
DIMSTYLE
105
E0
330
A
100
AcDbSymbolTableRecord
100
AcDbDimStyleTableRecord
  2
Default - mm [in] (ANSI)
 70
     0
  4
 in
 40
2.666666666666666
 41
0.0984251946210861
 42
0.063
 43
0.25
 44
0.125
 45
0.00000001
 46
0.3937007874015748
 73
     0
 78
     4
 79
     1
140
0.1000000014901161
143
0.03937
144
25.4
146
1.200000047683715
147
0.031496062992126
170
     1
171
     3
176
   256
177
   256
178
   256
179
     1
271
     2
272
     2
274
     3
284
     4
285
     4
286
     4
340
D6
371
    -1
372
    -1
  0
DIMSTYLE
105
E1
330
A
100
AcDbSymbolTableRecord
100
AcDbDimStyleTableRecord
  2
Default - mm [in] (ANSI)$7
 70
     0
  4
 in
 40
2.666666666666666
 41
0.0984251946210861
 42
0.063
 43
0.25
 44
0.125
 45
0.00000001
 46
0.3937007874015748
 73
     0
 78
     4
 79
     1
140
0.1000000014901161
143
0.03937
144
25.4
146
1.200000047683715
147
0.031496062992126
170
     1
171
     3
176
   256
177
   256
178
   256
179
     1
271
     2
272
     2
274
     3
284
     4
285
     4
286
     4
340
D6
371
    -1
372
    -1
  0
DIMSTYLE
105
E2
102
{ACAD_REACTORS
330
224
330
327
330
421
330
53B
330
62F
330
723
330
817
330
90B
330
A04
330
AFD
330
BF4
330
CD3
330
DC7
330
EBB
330
FC3
330
10DD
330
11DE
330
12F4
330
13DE
102
}
330
A
100
AcDbSymbolTableRecord
100
AcDbDimStyleTableRecord
  2
Default (ANSI)
 70
     0
 40
2.666666666666666
 41
0.0984251946210861
 43
0.2362204724409449
 44
0.125
 45
0.00000001
 46
0.3937007874015748
140
0.1000000014901161
147
0.031496062992126
176
   256
177
   256
178
   256
271
     2
272
     2
340
D7
371
    -1
372
    -1
  0
DIMSTYLE
105
E3
330
A
100
AcDbSymbolTableRecord
100
AcDbDimStyleTableRecord
  2
Default (ANSI)$7
 70
     0
 40
2.666666666666666
 41
0.0984251946210861
 43
0.2362204724409449
 44
0.125
 45
0.00000001
 46
0.3937007874015748
140
0.1000000014901161
147
0.031496062992126
176
   256
177
   256
178
   256
271
     2
272
     2
340
D7
371
    -1
372
    -1
  0
DIMSTYLE
105
E4
330
A
100
AcDbSymbolTableRecord
100
AcDbDimStyleTableRecord
  2
Alternate (ANSI)
 70
     0
 40
2.666666666666666
 41
0.0979999974370003
340
55
342
E5
  0
DIMSTYLE
105
F7
330
A
100
AcDbSymbolTableRecord
100
AcDbDimStyleTableRecord
  2
Datum (ANSI)
 70
     0
 40
2.666666666666666
 41
0.0979999974370003
340
55
342
E5
  0
DIMSTYLE
105
106
330
A
100
AcDbSymbolTableRecord
100
AcDbDimStyleTableRecord
  2
Large (ANSI)
 70
     0
 40
2.666666666666666
 41
0.1959999948740005
340
55
342
E5
  0
ENDTAB
  0
TABLE
  2
BLOCK_RECORD
  5
1
330
0
100
AcDbSymbolTable
 70
    23
  0
BLOCK_RECORD
  5
6C
330
1
100
AcDbSymbolTableRecord
100
AcDbBlockTableRecord
  2
*Model_Space
340
6F
 70
     0
280
     1
281
     0
  0
BLOCK_RECORD
  5
68
330
1
100
AcDbSymbolTableRecord
100
AcDbBlockTableRecord
  2
*Paper_Space
340
6B
 70
     0
280
     1
281
     0
  0
BLOCK_RECORD
  5
70
330
1
100
AcDbSymbolTableRecord
100
AcDbBlockTableRecord
  2
*Paper_Space0
340
73
 70
     0
280
     1
281
     0
  0
BLOCK_RECORD
  5
E5
330
1
100
AcDbSymbolTableRecord
100
AcDbBlockTableRecord
  2
_Closed
340
0
 70
     0
280
     1
281
     0
  0
BLOCK_RECORD
  5
EC
330
1
100
AcDbSymbolTableRecord
100
AcDbBlockTableRecord
  2
DatumFilled45
340
0
 70
     0
280
     1
281
     0
  0
BLOCK_RECORD
  5
F8
330
1
100
AcDbSymbolTableRecord
100
AcDbBlockTableRecord
  2
Filled-1
340
0
 70
     0
280
     1
281
     0
  0
BLOCK_RECORD
  5
227
330
1
100
AcDbSymbolTableRecord
100
AcDbBlockTableRecord
  2
*D4
340
0
 70
     0
280
     1
281
     0
  0
BLOCK_RECORD
  5
328
330
1
100
AcDbSymbolTableRecord
100
AcDbBlockTableRecord
  2
*D5
340
0
 70
     0
280
     1
281
     0
  0
BLOCK_RECORD
  5
422
330
1
100
AcDbSymbolTableRecord
100
AcDbBlockTableRecord
  2
*D6
340
0
 70
     0
280
     1
281
     0
  0
BLOCK_RECORD
  5
53C
330
1
100
AcDbSymbolTableRecord
100
AcDbBlockTableRecord
  2
*D7
340
0
 70
     0
280
     1
281
     0
  0
BLOCK_RECORD
  5
630
330
1
100
AcDbSymbolTableRecord
100
AcDbBlockTableRecord
  2
*D8
340
0
 70
     0
280
     1
281
     0
  0
BLOCK_RECORD
  5
724
330
1
100
AcDbSymbolTableRecord
100
AcDbBlockTableRecord
  2
*D9
340
0
 70
     0
280
     1
281
     0
  0
BLOCK_RECORD
  5
818
330
1
100
AcDbSymbolTableRecord
100
AcDbBlockTableRecord
  2
*D10
340
0
 70
     0
280
     1
281
     0
  0
BLOCK_RECORD
  5
90C
330
1
100
AcDbSymbolTableRecord
100
AcDbBlockTableRecord
  2
*D11
340
0
 70
     0
280
     1
281
     0
  0
BLOCK_RECORD
  5
A05
330
1
100
AcDbSymbolTableRecord
100
AcDbBlockTableRecord
  2
*D12
340
0
 70
     0
280
     1
281
     0
  0
BLOCK_RECORD
  5
AFE
330
1
100
AcDbSymbolTableRecord
100
AcDbBlockTableRecord
  2
*D13
340
0
 70
     0
280
     1
281
     0
  0
BLOCK_RECORD
  5
BF5
330
1
100
AcDbSymbolTableRecord
100
AcDbBlockTableRecord
  2
*D14
340
0
 70
     0
280
     1
281
     0
  0
BLOCK_RECORD
  5
CD4
330
1
100
AcDbSymbolTableRecord
100
AcDbBlockTableRecord
  2
*D15
340
0
 70
     0
280
     1
281
     0
  0
BLOCK_RECORD
  5
DC8
330
1
100
AcDbSymbolTableRecord
100
AcDbBlockTableRecord
  2
*D16
340
0
 70
     0
280
     1
281
     0
  0
BLOCK_RECORD
  5
EBC
330
1
100
AcDbSymbolTableRecord
100
AcDbBlockTableRecord
  2
*D17
340
0
 70
     0
280
     1
281
     0
  0
BLOCK_RECORD
  5
FC4
330
1
100
AcDbSymbolTableRecord
100
AcDbBlockTableRecord
  2
*D18
340
0
 70
     0
280
     1
281
     0
  0
BLOCK_RECORD
  5
10DE
330
1
100
AcDbSymbolTableRecord
100
AcDbBlockTableRecord
  2
*D19
340
0
 70
     0
280
     1
281
     0
  0
BLOCK_RECORD
  5
11DF
330
1
100
AcDbSymbolTableRecord
100
AcDbBlockTableRecord
  2
*D20
340
0
 70
     0
280
     1
281
     0
  0
BLOCK_RECORD
  5
12F5
330
1
100
AcDbSymbolTableRecord
100
AcDbBlockTableRecord
  2
*D21
340
0
 70
     0
280
     1
281
     0
  0
BLOCK_RECORD
  5
13DF
330
1
100
AcDbSymbolTableRecord
100
AcDbBlockTableRecord
  2
*D22
340
0
 70
     0
280
     1
281
     0
  0
ENDTAB
  0
ENDSEC
  0
SECTION
  2
BLOCKS
  0
BLOCK
  5
6D
330
6C
100
AcDbEntity
  8
0
100
AcDbBlockBegin
  2
*Model_Space
 70
     0
 10
0.0
 20
0.0
 30
0.0
  3
*Model_Space
  1

  0
ENDBLK
  5
6E
330
6C
100
AcDbEntity
  8
0
100
AcDbBlockEnd
  0
BLOCK
  5
69
330
68
100
AcDbEntity
 67
     1
  8
0
100
AcDbBlockBegin
  2
*Paper_Space
 70
     0
 10
0.0
 20
0.0
 30
0.0
  3
*Paper_Space
  1

  0
ENDBLK
  5
6A
330
68
100
AcDbEntity
 67
     1
  8
0
100
AcDbBlockEnd
  0
BLOCK
  5
71
330
70
100
AcDbEntity
 67
     1
  8
0
100
AcDbBlockBegin
  2
*Paper_Space0
 70
     0
 10
0.0
 20
0.0
 30
0.0
  3
*Paper_Space0
  1

  0
ENDBLK
  5
72
330
70
100
AcDbEntity
 67
     1
  8
0
100
AcDbBlockEnd
  0
BLOCK
  5
EA
330
E5
100
AcDbEntity
  8
0
100
AcDbBlockBegin
  2
_Closed
 70
     0
 10
0.0
 20
0.0
 30
0.0
  3
_Closed
  1

  0
LINE
  5
E6
330
E5
100
AcDbEntity
  8
0
  6
ByBlock
 62
     0
370
    -2
100
AcDbLine
 10
-1.0
 20
0.1666666666666666
 30
0.0
 11
0.0
 21
0.0
 31
0.0
  0
LINE
  5
E7
330
E5
100
AcDbEntity
  8
0
  6
ByBlock
 62
     0
370
    -2
100
AcDbLine
 10
0.0
 20
0.0
 30
0.0
 11
-1.0
 21
-0.1666666666666666
 31
0.0
  0
LINE
  5
E8
330
E5
100
AcDbEntity
  8
0
  6
ByBlock
 62
     0
370
    -2
100
AcDbLine
 10
-1.0
 20
0.1666666666666666
 30
0.0
 11
-1.0
 21
-0.1666666666666666
 31
0.0
  0
LINE
  5
E9
330
E5
100
AcDbEntity
  8
0
  6
ByBlock
 62
     0
370
    -2
100
AcDbLine
 10
0.0
 20
0.0
 30
0.0
 11
-1.0
 21
0.0
 31
0.0
  0
ENDBLK
  5
EB
330
E5
100
AcDbEntity
  8
0
100
AcDbBlockEnd
  0
BLOCK
  5
ED
330
EC
100
AcDbEntity
  8
0
100
AcDbBlockBegin
  2
DatumFilled45
 70
     0
 10
0.0
 20
0.0
 30
0.0
  3
DatumFilled45
  1

  0
POLYLINE
  5
EF
330
EC
100
AcDbEntity
  8
0
 62
     0
100
AcDb2dPolyline
 66
     1
 10
0.0
 20
0.0
 30
0.0
 70
   128
  0
VERTEX
  5
F0
330
EF
100
AcDbEntity
  8
0
 62
     0
100
AcDbVertex
100
AcDb2dVertex
 10
0.0
 20
0.9999999999999998
 30
0.0
  0
VERTEX
  5
F1
330
EF
100
AcDbEntity
  8
0
 62
     0
100
AcDbVertex
100
AcDb2dVertex
 10
0.0
 20
-0.9999999999999998
 30
0.0
  0
VERTEX
  5
F3
330
EF
100
AcDbEntity
  8
0
 62
     0
100
AcDbVertex
100
AcDb2dVertex
 10
-0.9999999999999998
 20
0.0
 30
0.0
  0
VERTEX
  5
F4
330
EF
100
AcDbEntity
  8
0
 62
     0
100
AcDbVertex
100
AcDb2dVertex
 10
0.0
 20
0.9999999999999998
 30
0.0
  0
SEQEND
  5
F2
330
EF
100
AcDbEntity
  8
0
 62
     0
  0
SOLID
  5
F6
330
EC
100
AcDbEntity
  8
0
 62
     0
100
AcDbTrace
 10
0.0
 20
0.9999999999999998
 30
0.0
 11
0.0
 21
-0.9999999999999998
 31
0.0
 12
-0.9999999999999998
 22
0.0
 32
0.0
 13
0.0
 23
0.9999999999999998
 33
0.0
  0
ENDBLK
  5
EE
330
EC
100
AcDbEntity
  8
0
100
AcDbBlockEnd
  0
BLOCK
  5
F9
330
F8
100
AcDbEntity
  8
0
100
AcDbBlockBegin
  2
Filled-1
 70
     0
 10
0.0
 20
0.0
 30
0.0
  3
Filled-1
  1

  0
LINE
  5
FB
330
F8
100
AcDbEntity
  8
0
 62
     0
100
AcDbLine
 10
-0.9999999999999998
 20
0.0
 30
0.0
 11
0.0
 21
0.0
 31
0.0
  0
POLYLINE
  5
FC
330
F8
100
AcDbEntity
  8
0
 62
     0
100
AcDb2dPolyline
 66
     1
 10
0.0
 20
0.0
 30
0.0
 70
   128
  0
VERTEX
  5
FD
330
FC
100
AcDbEntity
  8
0
 62
     0
100
AcDbVertex
100
AcDb2dVertex
 10
-0.9999999999999998
 20
-0.0994897959183674
 30
0.0
  0
VERTEX
  5
FE
330
FC
100
AcDbEntity
  8
0
 62
     0
100
AcDbVertex
100
AcDb2dVertex
 10
0.0
 20
0.0
 30
0.0
  0
VERTEX
  5
100
330
FC
100
AcDbEntity
  8
0
 62
     0
100
AcDbVertex
100
AcDb2dVertex
 10
-0.9999999999999998
 20
0.0994897959183674
 30
0.0
  0
VERTEX
  5
101
330
FC
100
AcDbEntity
  8
0
 62
     0
100
AcDbVertex
100
AcDb2dVertex
 10
-0.9999999999999998
 20
-0.0994897959183674
 30
0.0
  0
SEQEND
  5
FF
330
FC
100
AcDbEntity
  8
0
 62
     0
  0
SOLID
  5
102
330
F8
100
AcDbEntity
  8
0
 62
     0
100
AcDbTrace
 10
-0.9999999999999998
 20
-0.0994897959183674
 30
0.0
 11
0.0
 21
0.0
 31
0.0
 12
-0.9999999999999998
 22
0.0994897959183674
 32
0.0
 13
-0.9999999999999998
 23
-0.0994897959183674
 33
0.0
  0
LINE
  5
103
330
F8
100
AcDbEntity
  8
0
 62
     0
100
AcDbLine
 10
-0.9999999999999998
 20
-0.0994897959183674
 30
0.0
 11
0.0
 21
0.0
 31
0.0
  0
LINE
  5
104
330
F8
100
AcDbEntity
  8
0
 62
     0
100
AcDbLine
 10
0.0
 20
0.0
 30
0.0
 11
-0.9999999999999998
 21
0.0994897959183674
 31
0.0
  0
LINE
  5
105
330
F8
100
AcDbEntity
  8
0
 62
     0
100
AcDbLine
 10
-0.9999999999999998
 20
0.0994897959183674
 30
0.0
 11
-0.9999999999999998
 21
-0.0994897959183674
 31
0.0
  0
ENDBLK
  5
FA
330
F8
100
AcDbEntity
  8
0
100
AcDbBlockEnd
  0
BLOCK
  5
228
330
227
100
AcDbEntity
  8
0
100
AcDbBlockBegin
  2
*D4
 70
     1
 10
0.0
 20
0.0
 30
0.0
  3
*D4
  1

  0
LINE
  5
31B
330
227
100
AcDbEntity
  8
Dimension (ANSI)
440
 16777216
100
AcDbLine
 10
23.20566103914381
 20
7.435677115599681
 30
0.0
 11
23.20566103914381
 21
6.264363621060414
 31
0.0
  0
LINE
  5
31C
330
227
100
AcDbEntity
  8
Dimension (ANSI)
440
 16777216
100
AcDbLine
 10
29.20566103914601
 20
7.810677115599696
 30
0.0
 11
29.20566103914601
 21
6.264363621060414
 31
0.0
  0
LINE
  5
31D
330
227
100
AcDbEntity
  8
Dimension (ANSI)
440
 16777216
100
AcDbLine
 10
23.46812822480004
 20
6.597696954393747
 30
0.0
 11
25.42960803545653
 21
6.597696954393747
 31
0.0
  0
LINE
  5
31E
330
227
100
AcDbEntity
  8
Dimension (ANSI)
440
 16777216
100
AcDbLine
 10
28.94319385348978
 20
6.597696954393747
 30
0.0
 11
26.98171404283329
 21
6.597696954393747
 31
0.0
  0
SOLID
  5
31F
330
227
100
AcDbEntity
  8
Dimension (ANSI)
440
 16777216
100
AcDbTrace
 10
23.46812822480004
 20
6.641441485336452
 30
0.0
 11
23.46812822480004
 21
6.553952423451042
 31
0.0
 12
23.20566103914381
 22
6.597696954393747
 32
0.0
 13
23.20566103914381
 23
6.597696954393747
 33
0.0
  0
SOLID
  5
320
330
227
100
AcDbEntity
  8
Dimension (ANSI)
440
 16777216
100
AcDbTrace
 10
28.94319385348978
 20
6.641441485336452
 30
0.0
 11
28.94319385348978
 21
6.553952423451042
 31
0.0
 12
29.20566103914601
 22
6.597696954393747
 32
0.0
 13
29.20566103914601
 23
6.597696954393747
 33
0.0
  0
MTEXT
  5
321
330
227
100
AcDbEntity
  8
Dimension (ANSI)
440
 16777216
100
AcDbMText
 10
26.20566103914491
 20
6.597696954393747
 30
0.0
 40
0.2666666706403096
 41
0.0
 46
0.0
 71
     5
 72
     1
  1
\A1;6.00{\PLENGTH}
  7
ROMANS
 73
     1
 44
1.0
  0
POINT
  5
322
330
227
100
AcDbEntity
  8
Defpoints
 62
     0
440
 16777216
100
AcDbPoint
 10
23.20566103914381
 20
7.602343782266347
 30
0.0
  0
POINT
  5
323
330
227
100
AcDbEntity
  8
Defpoints
 62
     0
440
 16777216
100
AcDbPoint
 10
29.20566103914601
 20
7.977343782266363
 30
0.0
  0
POINT
  5
324
330
227
100
AcDbEntity
  8
Defpoints
 62
     0
440
 16777216
100
AcDbPoint
 10
29.20566103914601
 20
6.597696954393747
 30
0.0
  0
ENDBLK
  5
229
330
227
100
AcDbEntity
  8
0
100
AcDbBlockEnd
  0
BLOCK
  5
329
330
328
100
AcDbEntity
  8
0
100
AcDbBlockBegin
  2
*D5
 70
     1
 10
0.0
 20
0.0
 30
0.0
  3
*D5
  1

  0
LINE
  5
407
330
328
100
AcDbEntity
  8
Dimension (ANSI)
440
 16777216
100
AcDbLine
 10
5.16028949338288
 20
26.63609018481324
 30
0.0
 11
3.688832800469536
 21
26.63609018481324
 31
0.0
  0
LINE
  5
408
330
328
100
AcDbEntity
  8
Dimension (ANSI)
440
 16777216
100
AcDbLine
 10
5.535289493382896
 20
20.88609018481102
 30
0.0
 11
3.688832800469535
 21
20.88609018481102
 31
0.0
  0
LINE
  5
409
330
328
100
AcDbEntity
  8
Dimension (ANSI)
440
 16777216
100
AcDbLine
 10
4.02216613380287
 20
26.37362299915701
 30
0.0
 11
4.022166133802869
 21
23.97841302144575
 31
0.0
  0
LINE
  5
40A
330
328
100
AcDbEntity
  8
Dimension (ANSI)
440
 16777216
100
AcDbLine
 10
4.022166133802868
 20
21.14855737046725
 30
0.0
 11
4.022166133802869
 21
23.54376734818077
 31
0.0
  0
SOLID
  5
40B
330
328
100
AcDbEntity
  8
Dimension (ANSI)
440
 16777216
100
AcDbTrace
 10
3.978421602860164
 20
26.37362299915701
 30
0.0
 11
4.065910664745575
 21
26.37362299915701
 31
0.0
 12
4.02216613380287
 22
26.63609018481324
 32
0.0
 13
4.02216613380287
 23
26.63609018481324
 33
0.0
  0
SOLID
  5
40C
330
328
100
AcDbEntity
  8
Dimension (ANSI)
440
 16777216
100
AcDbTrace
 10
3.978421602860164
 20
21.14855737046725
 30
0.0
 11
4.065910664745573
 21
21.14855737046725
 31
0.0
 12
4.022166133802868
 22
20.88609018481102
 32
0.0
 13
4.022166133802868
 23
20.88609018481102
 33
0.0
  0
MTEXT
  5
40D
330
328
100
AcDbEntity
  8
Dimension (ANSI)
440
 16777216
100
AcDbMText
 10
3.615816921398584
 20
23.89442352013342
 30
0.0
 40
0.2666666706403096
 41
0.0
 46
0.0
 71
     1
 72
     1
  1
\A1;5.75
  7
ROMANS
 73
     1
 44
1.0
  0
POINT
  5
40E
330
328
100
AcDbEntity
  8
Defpoints
 62
     0
440
 16777216
100
AcDbPoint
 10
5.326956160049546
 20
26.63609018481324
 30
0.0
  0
POINT
  5
40F
330
328
100
AcDbEntity
  8
Defpoints
 62
     0
440
 16777216
100
AcDbPoint
 10
5.701956160049563
 20
20.88609018481102
 30
0.0
  0
POINT
  5
410
330
328
100
AcDbEntity
  8
Defpoints
 62
     0
440
 16777216
100
AcDbPoint
 10
4.022166133802868
 20
20.88609018481102
 30
0.0
  0
ENDBLK
  5
32A
330
328
100
AcDbEntity
  8
0
100
AcDbBlockEnd
  0
BLOCK
  5
423
330
422
100
AcDbEntity
  8
0
100
AcDbBlockBegin
  2
*D6
 70
     1
 10
0.0
 20
0.0
 30
0.0
  3
*D6
  1

  0
LINE
  5
52D
330
422
100
AcDbEntity
  8
Dimension (ANSI)
440
 16777216
100
AcDbLine
 10
13.11862282671619
 20
26.76109018481324
 30
0.0
 11
15.08077467098248
 21
26.76109018481324
 31
0.0
  0
LINE
  5
52E
330
422
100
AcDbEntity
  8
Dimension (ANSI)
440
 16777216
100
AcDbLine
 10
13.11862282671619
 20
26.63609018481324
 30
0.0
 11
15.08077467098248
 21
26.63609018481324
 31
0.0
  0
LINE
  5
52F
330
422
100
AcDbEntity
  8
Dimension (ANSI)
440
 16777216
100
AcDbLine
 10
14.74744133764915
 20
27.02355737046947
 30
0.0
 11
14.74744133764915
 21
27.2860245561257
 31
0.0
  0
LINE
  5
530
330
422
100
AcDbEntity
  8
Dimension (ANSI)
440
 16777216
100
AcDbLine
 10
14.74744133764915
 20
26.37362299915701
 30
0.0
 11
14.74744133764915
 21
26.11115581350078
 31
0.0
  0
LINE
  5
531
330
422
100
AcDbEntity
  8
Dimension (ANSI)
440
 16777216
100
AcDbLine
 10
15.00990852330537
 20
25.78942630291129
 30
0.0
 11
14.74744133764915
 21
25.78942630291129
 31
0.0
  0
LINE
  5
532
330
422
100
AcDbEntity
  8
Dimension (ANSI)
440
 16777216
100
AcDbLine
 10
14.74744133764915
 20
25.78942630291129
 30
0.0
 11
14.74744133764915
 21
26.11115581350078
 31
0.0
  0
MTEXT
  5
533
330
422
100
AcDbEntity
  8
Dimension (ANSI)
440
 16777216
100
AcDbMText
 10
15.94469168808917
 20
25.78942630291129
 30
0.0
 40
0.2666666706403096
 41
0.0
 46
0.0
 71
     5
 72
     1
  1
\A1; 10 GA.\P304 S.S.\P(2 PL.)
  7
ROMANS
 73
     1
 44
1.0
  0
SOLID
  5
534
330
422
100
AcDbEntity
  8
Dimension (ANSI)
440
 16777216
100
AcDbTrace
 10
14.70369680670644
 20
27.02355737046947
 30
0.0
 11
14.79118586859185
 21
27.02355737046947
 31
0.0
 12
14.74744133764915
 22
26.76109018481324
 32
0.0
 13
14.74744133764915
 23
26.76109018481324
 33
0.0
  0
SOLID
  5
535
330
422
100
AcDbEntity
  8
Dimension (ANSI)
440
 16777216
100
AcDbTrace
 10
14.70369680670644
 20
26.37362299915701
 30
0.0
 11
14.79118586859185
 21
26.37362299915701
 31
0.0
 12
14.74744133764915
 22
26.63609018481324
 32
0.0
 13
14.74744133764915
 23
26.63609018481324
 33
0.0
  0
POINT
  5
536
330
422
100
AcDbEntity
  8
Defpoints
 62
     0
440
 16777216
100
AcDbPoint
 10
12.95195616004952
 20
26.76109018481324
 30
0.0
  0
POINT
  5
537
330
422
100
AcDbEntity
  8
Defpoints
 62
     0
440
 16777216
100
AcDbPoint
 10
12.95195616004952
 20
26.63609018481324
 30
0.0
  0
POINT
  5
538
330
422
100
AcDbEntity
  8
Defpoints
 62
     0
440
 16777216
100
AcDbPoint
 10
14.74744133764915
 20
26.63609018481324
 30
0.0
  0
ENDBLK
  5
424
330
422
100
AcDbEntity
  8
0
100
AcDbBlockEnd
  0
BLOCK
  5
53D
330
53C
100
AcDbEntity
  8
0
100
AcDbBlockBegin
  2
*D7
 70
     1
 10
0.0
 20
0.0
 30
0.0
  3
*D7
  1

  0
LINE
  5
625
330
53C
100
AcDbEntity
  8
Dimension (ANSI)
440
 16777216
100
AcDbLine
 10
13.092581160045
 20
8.102343782266386
 30
0.0
 11
14.41660406390372
 21
8.102343782266386
 31
0.0
  0
LINE
  5
626
330
53C
100
AcDbEntity
  8
Dimension (ANSI)
440
 16777216
100
AcDbLine
 10
13.07695616004498
 20
11.41484378226637
 30
0.0
 11
14.41660406390372
 21
11.41484378226637
 31
0.0
  0
LINE
  5
627
330
53C
100
AcDbEntity
  8
Dimension (ANSI)
440
 16777216
100
AcDbLine
 10
14.08327073057039
 20
8.364810967922615
 30
0.0
 11
14.08327073057039
 21
9.471429674751904
 31
0.0
  0
LINE
  5
628
330
53C
100
AcDbEntity
  8
Dimension (ANSI)
440
 16777216
100
AcDbLine
 10
14.08327073057039
 20
11.15237659661014
 30
0.0
 11
14.08327073057039
 21
10.04575788978085
 31
0.0
  0
SOLID
  5
629
330
53C
100
AcDbEntity
  8
Dimension (ANSI)
440
 16777216
100
AcDbTrace
 10
14.03952619962768
 20
8.364810967922615
 30
0.0
 11
14.12701526151309
 21
8.364810967922615
 31
0.0
 12
14.08327073057039
 22
8.102343782266386
 32
0.0
 13
14.08327073057039
 23
8.102343782266386
 33
0.0
  0
SOLID
  5
62A
330
53C
100
AcDbEntity
  8
Dimension (ANSI)
440
 16777216
100
AcDbTrace
 10
14.03952619962768
 20
11.15237659661014
 30
0.0
 11
14.12701526151309
 21
11.15237659661014
 31
0.0
 12
14.08327073057039
 22
11.41484378226637
 32
0.0
 13
14.08327073057039
 23
11.41484378226637
 33
0.0
  0
MTEXT
  5
62B
330
53C
100
AcDbEntity
  8
Dimension (ANSI)
440
 16777216
100
AcDbMText
 10
13.51184215062687
 20
9.961768388468524
 30
0.0
 40
0.2666666706403096
 41
0.0
 46
0.0
 71
     1
 72
     1
  1
\A1;(3.31)
  7
ROMANS
 73
     1
 44
1.0
  0
POINT
  5
62C
330
53C
100
AcDbEntity
  8
Defpoints
 62
     0
440
 16777216
100
AcDbPoint
 10
12.92591449337833
 20
8.102343782266386
 30
0.0
  0
POINT
  5
62D
330
53C
100
AcDbEntity
  8
Defpoints
 62
     0
440
 16777216
100
AcDbPoint
 10
12.91028949337831
 20
11.41484378226637
 30
0.0
  0
POINT
  5
62E
330
53C
100
AcDbEntity
  8
Defpoints
 62
     0
440
 16777216
100
AcDbPoint
 10
14.08327073057039
 20
11.41484378226637
 30
0.0
  0
ENDBLK
  5
53E
330
53C
100
AcDbEntity
  8
0
100
AcDbBlockEnd
  0
BLOCK
  5
631
330
630
100
AcDbEntity
  8
0
100
AcDbBlockBegin
  2
*D8
 70
     1
 10
0.0
 20
0.0
 30
0.0
  3
*D8
  1

  0
LINE
  5
719
330
630
100
AcDbEntity
  8
Dimension (ANSI)
440
 16777216
100
AcDbLine
 10
13.09258116004496
 20
14.72734378226635
 30
0.0
 11
15.70523223220402
 21
14.72734378226635
 31
0.0
  0
LINE
  5
71A
330
630
100
AcDbEntity
  8
Dimension (ANSI)
440
 16777216
100
AcDbLine
 10
13.092581160045
 20
8.102343782266382
 30
0.0
 11
15.70523223220401
 21
8.102343782266382
 31
0.0
  0
LINE
  5
71B
330
630
100
AcDbEntity
  8
Dimension (ANSI)
440
 16777216
100
AcDbLine
 10
15.37189889887068
 20
14.46487659661013
 30
0.0
 11
15.37189889887068
 21
11.70200788978086
 31
0.0
  0
LINE
  5
71C
330
630
100
AcDbEntity
  8
Dimension (ANSI)
440
 16777216
100
AcDbLine
 10
15.37189889887068
 20
8.364810967922611
 30
0.0
 11
15.37189889887068
 21
11.1276796747519
 31
0.0
  0
SOLID
  5
71D
330
630
100
AcDbEntity
  8
Dimension (ANSI)
440
 16777216
100
AcDbTrace
 10
15.32815436792797
 20
14.46487659661013
 30
0.0
 11
15.41564342981339
 21
14.46487659661013
 31
0.0
 12
15.37189889887068
 22
14.72734378226635
 32
0.0
 13
15.37189889887068
 23
14.72734378226635
 33
0.0
  0
SOLID
  5
71E
330
630
100
AcDbEntity
  8
Dimension (ANSI)
440
 16777216
100
AcDbTrace
 10
15.32815436792797
 20
8.364810967922611
 30
0.0
 11
15.41564342981338
 21
8.364810967922611
 31
0.0
 12
15.37189889887068
 22
8.102343782266382
 32
0.0
 13
15.37189889887068
 23
8.102343782266382
 33
0.0
  0
MTEXT
  5
71F
330
630
100
AcDbEntity
  8
Dimension (ANSI)
440
 16777216
100
AcDbMText
 10
14.80047031892716
 20
11.61801838846852
 30
0.0
 40
0.2666666706403096
 41
0.0
 46
0.0
 71
     1
 72
     1
  1
\A1;(6.63)
  7
ROMANS
 73
     1
 44
1.0
  0
POINT
  5
720
330
630
100
AcDbEntity
  8
Defpoints
 62
     0
440
 16777216
100
AcDbPoint
 10
12.92591449337829
 20
14.72734378226635
 30
0.0
  0
POINT
  5
721
330
630
100
AcDbEntity
  8
Defpoints
 62
     0
440
 16777216
100
AcDbPoint
 10
12.92591449337833
 20
8.102343782266382
 30
0.0
  0
POINT
  5
722
330
630
100
AcDbEntity
  8
Defpoints
 62
     0
440
 16777216
100
AcDbPoint
 10
15.37189889887068
 20
8.102343782266382
 30
0.0
  0
ENDBLK
  5
632
330
630
100
AcDbEntity
  8
0
100
AcDbBlockEnd
  0
BLOCK
  5
725
330
724
100
AcDbEntity
  8
0
100
AcDbBlockBegin
  2
*D9
 70
     1
 10
0.0
 20
0.0
 30
0.0
  3
*D9
  1

  0
LINE
  5
80D
330
724
100
AcDbEntity
  8
Dimension (ANSI)
440
 16777216
100
AcDbLine
 10
5.826956160044985
 20
15.36796878226631
 30
0.0
 11
5.826956160044985
 21
16.14586321167884
 31
0.0
  0
LINE
  5
80E
330
724
100
AcDbEntity
  8
Dimension (ANSI)
440
 16777216
100
AcDbLine
 10
9.139456160044971
 20
15.35234378226633
 30
0.0
 11
9.139456160044971
 21
16.14586321167884
 31
0.0
  0
LINE
  5
80F
330
724
100
AcDbEntity
  8
Dimension (ANSI)
440
 16777216
100
AcDbLine
 10
6.089423345701215
 20
15.8125298783455
 30
0.0
 11
6.827788078789122
 21
15.8125298783455
 31
0.0
  0
LINE
  5
810
330
724
100
AcDbEntity
  8
Dimension (ANSI)
440
 16777216
100
AcDbLine
 10
8.876988974388742
 20
15.8125298783455
 30
0.0
 11
8.138624241300835
 21
15.8125298783455
 31
0.0
  0
SOLID
  5
811
330
724
100
AcDbEntity
  8
Dimension (ANSI)
440
 16777216
100
AcDbTrace
 10
6.089423345701215
 20
15.85627440928821
 30
0.0
 11
6.089423345701215
 21
15.7687853474028
 31
0.0
 12
5.826956160044985
 22
15.8125298783455
 32
0.0
 13
5.826956160044985
 23
15.8125298783455
 33
0.0
  0
SOLID
  5
812
330
724
100
AcDbEntity
  8
Dimension (ANSI)
440
 16777216
100
AcDbTrace
 10
8.876988974388742
 20
15.85627440928821
 30
0.0
 11
8.876988974388742
 21
15.7687853474028
 31
0.0
 12
9.139456160044971
 22
15.8125298783455
 32
0.0
 13
9.139456160044971
 23
15.8125298783455
 33
0.0
  0
MTEXT
  5
813
330
724
100
AcDbEntity
  8
Dimension (ANSI)
440
 16777216
100
AcDbMText
 10
6.911777580101458
 20
16.01570448454765
 30
0.0
 40
0.2666666706403096
 41
0.0
 46
0.0
 71
     1
 72
     1
  1
\A1;(3.31)
  7
ROMANS
 73
     1
 44
1.0
  0
POINT
  5
814
330
724
100
AcDbEntity
  8
Defpoints
 62
     0
440
 16777216
100
AcDbPoint
 10
5.826956160044985
 20
15.20130211559965
 30
0.0
  0
POINT
  5
815
330
724
100
AcDbEntity
  8
Defpoints
 62
     0
440
 16777216
100
AcDbPoint
 10
9.139456160044971
 20
15.18567711559967
 30
0.0
  0
POINT
  5
816
330
724
100
AcDbEntity
  8
Defpoints
 62
     0
440
 16777216
100
AcDbPoint
 10
9.139456160044971
 20
15.8125298783455
 30
0.0
  0
ENDBLK
  5
726
330
724
100
AcDbEntity
  8
0
100
AcDbBlockEnd
  0
BLOCK
  5
819
330
818
100
AcDbEntity
  8
0
100
AcDbBlockBegin
  2
*D10
 70
     1
 10
0.0
 20
0.0
 30
0.0
  3
*D10
  1

  0
LINE
  5
901
330
818
100
AcDbEntity
  8
Dimension (ANSI)
440
 16777216
100
AcDbLine
 10
5.826956160044987
 20
15.36796878226631
 30
0.0
 11
5.826956160044987
 21
16.91340007695589
 31
0.0
  0
LINE
  5
902
330
818
100
AcDbEntity
  8
Dimension (ANSI)
440
 16777216
100
AcDbLine
 10
12.45195616004496
 20
15.36796878226635
 30
0.0
 11
12.45195616004496
 21
16.91340007695589
 31
0.0
  0
LINE
  5
903
330
818
100
AcDbEntity
  8
Dimension (ANSI)
440
 16777216
100
AcDbLine
 10
6.089423345701217
 20
16.58006674362256
 30
0.0
 11
8.484038078789106
 21
16.58006674362256
 31
0.0
  0
LINE
  5
904
330
818
100
AcDbEntity
  8
Dimension (ANSI)
440
 16777216
100
AcDbLine
 10
12.18948897438873
 20
16.58006674362256
 30
0.0
 11
9.794874241300819
 21
16.58006674362256
 31
0.0
  0
SOLID
  5
905
330
818
100
AcDbEntity
  8
Dimension (ANSI)
440
 16777216
100
AcDbTrace
 10
6.089423345701217
 20
16.62381127456526
 30
0.0
 11
6.089423345701217
 21
16.53632221267986
 31
0.0
 12
5.826956160044987
 22
16.58006674362256
 32
0.0
 13
5.826956160044987
 23
16.58006674362256
 33
0.0
  0
SOLID
  5
906
330
818
100
AcDbEntity
  8
Dimension (ANSI)
440
 16777216
100
AcDbTrace
 10
12.18948897438873
 20
16.62381127456526
 30
0.0
 11
12.18948897438873
 21
16.53632221267986
 31
0.0
 12
12.45195616004496
 22
16.58006674362256
 32
0.0
 13
12.45195616004496
 23
16.58006674362256
 33
0.0
  0
MTEXT
  5
907
330
818
100
AcDbEntity
  8
Dimension (ANSI)
440
 16777216
100
AcDbMText
 10
8.568027580101443
 20
16.7832413498247
 30
0.0
 40
0.2666666706403096
 41
0.0
 46
0.0
 71
     1
 72
     1
  1
\A1;(6.63)
  7
ROMANS
 73
     1
 44
1.0
  0
POINT
  5
908
330
818
100
AcDbEntity
  8
Defpoints
 62
     0
440
 16777216
100
AcDbPoint
 10
5.826956160044987
 20
15.20130211559965
 30
0.0
  0
POINT
  5
909
330
818
100
AcDbEntity
  8
Defpoints
 62
     0
440
 16777216
100
AcDbPoint
 10
12.45195616004496
 20
15.20130211559968
 30
0.0
  0
POINT
  5
90A
330
818
100
AcDbEntity
  8
Defpoints
 62
     0
440
 16777216
100
AcDbPoint
 10
12.45195616004496
 20
16.58006674362256
 30
0.0
  0
ENDBLK
  5
81A
330
818
100
AcDbEntity
  8
0
100
AcDbBlockEnd
  0
BLOCK
  5
90D
330
90C
100
AcDbEntity
  8
0
100
AcDbBlockBegin
  2
*D11
 70
     1
 10
0.0
 20
0.0
 30
0.0
  3
*D11
  1

  0
LINE
  5
9FC
330
90C
100
AcDbEntity
  8
Dimension (ANSI)
440
 16777216
100
AcDbLine
 10
10.54428667024298
 20
14.07837659661013
 30
0.0
 11
10.54428667024298
 21
12.66317535282601
 31
0.0
  0
LINE
  5
9FD
330
90C
100
AcDbEntity
  8
Dimension (ANSI)
440
 16777216
100
AcDbLine
 10
10.54428667024298
 20
8.751310967922593
 30
0.0
 11
10.54428667024298
 21
11.73329157694331
 31
0.0
  0
SOLID
  5
9FE
330
90C
100
AcDbEntity
  8
Dimension (ANSI)
440
 16777216
100
AcDbTrace
 10
10.50054213930027
 20
14.07837659661013
 30
0.0
 11
10.58803120118568
 21
14.07837659661013
 31
0.0
 12
10.54428667024298
 22
14.34084378226636
 32
0.0
 13
10.54428667024298
 23
14.34084378226636
 33
0.0
  0
SOLID
  5
9FF
330
90C
100
AcDbEntity
  8
Dimension (ANSI)
440
 16777216
100
AcDbTrace
 10
10.50054213930027
 20
8.751310967922593
 30
0.0
 11
10.58803120118568
 21
8.751310967922593
 31
0.0
 12
10.54428667024298
 22
8.488843782266364
 32
0.0
 13
10.54428667024298
 23
8.488843782266364
 33
0.0
  0
MTEXT
  5
A00
330
90C
100
AcDbEntity
  8
Dimension (ANSI)
440
 16777216
100
AcDbMText
 10
10.54428667024297
 20
12.19823346488466
 30
0.0
 40
0.2666666706403096
 41
0.0
 46
0.0
 71
     5
 72
     1
  1
\A1;(5.85){\POPENING}
  7
ROMANS
 73
     1
 44
1.0
  0
POINT
  5
A01
330
90C
100
AcDbEntity
  8
Defpoints
 62
     0
440
 16777216
100
AcDbPoint
 10
10.84285679681144
 20
14.34084378226636
 30
0.0
  0
POINT
  5
A02
330
90C
100
AcDbEntity
  8
Defpoints
 62
     0
440
 16777216
100
AcDbPoint
 10
10.8428567968114
 20
8.488843782266364
 30
0.0
  0
POINT
  5
A03
330
90C
100
AcDbEntity
  8
Defpoints
 62
     0
440
 16777216
100
AcDbPoint
 10
10.54428667024298
 20
8.488843782266364
 30
0.0
  0
ENDBLK
  5
90E
330
90C
100
AcDbEntity
  8
0
100
AcDbBlockEnd
  0
BLOCK
  5
A06
330
A05
100
AcDbEntity
  8
0
100
AcDbBlockBegin
  2
*D12
 70
     1
 10
0.0
 20
0.0
 30
0.0
  3
*D12
  1

  0
LINE
  5
AF5
330
A05
100
AcDbEntity
  8
Dimension (ANSI)
440
 16777216
100
AcDbLine
 10
6.475923345701243
 20
10.35951163414373
 30
0.0
 11
7.085565479830594
 21
10.35951163414373
 31
0.0
  0
LINE
  5
AF6
330
A05
100
AcDbEntity
  8
Dimension (ANSI)
440
 16777216
100
AcDbLine
 10
11.80298897438877
 20
10.35951163414373
 30
0.0
 11
8.891639744960025
 21
10.35951163414373
 31
0.0
  0
SOLID
  5
AF7
330
A05
100
AcDbEntity
  8
Dimension (ANSI)
440
 16777216
100
AcDbTrace
 10
6.475923345701243
 20
10.40325616508643
 30
0.0
 11
6.475923345701243
 21
10.31576710320102
 31
0.0
 12
6.213456160045013
 22
10.35951163414373
 32
0.0
 13
6.213456160045013
 23
10.35951163414373
 33
0.0
  0
SOLID
  5
AF8
330
A05
100
AcDbEntity
  8
Dimension (ANSI)
440
 16777216
100
AcDbTrace
 10
11.80298897438877
 20
10.40325616508643
 30
0.0
 11
11.80298897438877
 21
10.31576710320102
 31
0.0
 12
12.065456160045
 22
10.35951163414373
 32
0.0
 13
12.065456160045
 23
10.35951163414373
 33
0.0
  0
MTEXT
  5
AF9
330
A05
100
AcDbEntity
  8
Dimension (ANSI)
440
 16777216
100
AcDbMText
 10
7.98860261239531
 20
10.35951163414373
 30
0.0
 40
0.2666666706403096
 41
0.0
 46
0.0
 71
     5
 72
     1
  1
\A1;(5.85){\POPENING}
  7
ROMANS
 73
     1
 44
1.0
  0
POINT
  5
AFA
330
A05
100
AcDbEntity
  8
Defpoints
 62
     0
440
 16777216
100
AcDbPoint
 10
6.213456160045013
 20
10.0371851659587
 30
0.0
  0
POINT
  5
AFB
330
A05
100
AcDbEntity
  8
Defpoints
 62
     0
440
 16777216
100
AcDbPoint
 10
12.065456160045
 20
10.03718516595872
 30
0.0
  0
POINT
  5
AFC
330
A05
100
AcDbEntity
  8
Defpoints
 62
     0
440
 16777216
100
AcDbPoint
 10
12.065456160045
 20
10.35951163414373
 30
0.0
  0
ENDBLK
  5
A07
330
A05
100
AcDbEntity
  8
0
100
AcDbBlockEnd
  0
BLOCK
  5
AFF
330
AFE
100
AcDbEntity
  8
0
100
AcDbBlockBegin
  2
*D13
 70
     1
 10
0.0
 20
0.0
 30
0.0
  3
*D13
  1

  0
LINE
  5
BEB
330
AFE
100
AcDbEntity
  8
Dimension (ANSI)
440
 16777216
100
AcDbLine
 10
9.797829977313949
 20
14.6033109679226
 30
0.0
 11
9.797829977313949
 21
14.96487659661011
 31
0.0
  0
LINE
  5
BEC
330
AFE
100
AcDbEntity
  8
Dimension (ANSI)
440
 16777216
100
AcDbLine
 10
9.797829977313949
 20
15.22734378226634
 30
0.0
 11
9.797829977313949
 21
15.68410462977472
 31
0.0
  0
LINE
  5
BED
330
AFE
100
AcDbEntity
  8
Dimension (ANSI)
440
 16777216
100
AcDbLine
 10
9.797829977313949
 20
15.68410462977472
 30
0.0
 11
10.06029716297017
 21
15.68410462977472
 31
0.0
  0
SOLID
  5
BEE
330
AFE
100
AcDbEntity
  8
Dimension (ANSI)
440
 16777216
100
AcDbTrace
 10
9.754085446371243
 20
14.6033109679226
 30
0.0
 11
9.841574508256654
 21
14.6033109679226
 31
0.0
 12
9.797829977313949
 22
14.34084378226637
 32
0.0
 13
9.797829977313949
 23
14.34084378226637
 33
0.0
  0
SOLID
  5
BEF
330
AFE
100
AcDbEntity
  8
Dimension (ANSI)
440
 16777216
100
AcDbTrace
 10
9.754085446371243
 20
14.96487659661011
 30
0.0
 11
9.841574508256654
 21
14.96487659661011
 31
0.0
 12
9.797829977313949
 22
15.22734378226634
 32
0.0
 13
9.797829977313949
 23
15.22734378226634
 33
0.0
  0
MTEXT
  5
BF0
330
AFE
100
AcDbEntity
  8
Dimension (ANSI)
440
 16777216
100
AcDbMText
 10
10.14428666428251
 20
15.81743796509488
 30
0.0
 40
0.2666666706403096
 41
0.0
 46
0.0
 71
     1
 72
     1
  1
\A1;0.89
  7
ROMANS
 73
     1
 44
1.0
  0
POINT
  5
BF1
330
AFE
100
AcDbEntity
  8
Defpoints
 62
     0
440
 16777216
100
AcDbPoint
 10
10.54428667024297
 20
15.22734378226634
 30
0.0
  0
POINT
  5
BF2
330
AFE
100
AcDbEntity
  8
Defpoints
 62
     0
440
 16777216
100
AcDbPoint
 10
10.54428667024297
 20
14.34084378226637
 30
0.0
  0
POINT
  5
BF3
330
AFE
100
AcDbEntity
  8
Defpoints
 62
     0
440
 16777216
100
AcDbPoint
 10
9.797829977313949
 20
14.34084378226637
 30
0.0
  0
ENDBLK
  5
B00
330
AFE
100
AcDbEntity
  8
0
100
AcDbBlockEnd
  0
BLOCK
  5
BF6
330
BF5
100
AcDbEntity
  8
0
100
AcDbBlockBegin
  2
*D14
 70
     1
 10
0.0
 20
0.0
 30
0.0
  3
*D14
  1

  0
LINE
  5
CCB
330
BF5
100
AcDbEntity
  8
Dimension (ANSI)
440
 16777216
100
AcDbLine
 10
5.950988974388781
 20
10.35951163414373
 30
0.0
 11
5.589423345701244
 21
10.35951163414373
 31
0.0
  0
LINE
  5
CCC
330
BF5
100
AcDbEntity
  8
Dimension (ANSI)
440
 16777216
100
AcDbLine
 10
5.326956160045014
 20
10.35951163414373
 30
0.0
 11
4.875750287009319
 21
10.35951163414373
 31
0.0
  0
SOLID
  5
CCD
330
BF5
100
AcDbEntity
  8
Dimension (ANSI)
440
 16777216
100
AcDbTrace
 10
5.950988974388781
 20
10.40325616508643
 30
0.0
 11
5.950988974388781
 21
10.31576710320102
 31
0.0
 12
6.213456160045011
 22
10.35951163414373
 32
0.0
 13
6.213456160045011
 23
10.35951163414373
 33
0.0
  0
SOLID
  5
CCE
330
BF5
100
AcDbEntity
  8
Dimension (ANSI)
440
 16777216
100
AcDbTrace
 10
5.589423345701244
 20
10.40325616508643
 30
0.0
 11
5.589423345701244
 21
10.31576710320102
 31
0.0
 12
5.326956160045014
 22
10.35951163414373
 32
0.0
 13
5.326956160045014
 23
10.35951163414373
 33
0.0
  0
MTEXT
  5
CCF
330
BF5
100
AcDbEntity
  8
Dimension (ANSI)
440
 16777216
100
AcDbMText
 10
3.991760773776054
 20
10.49284496946388
 30
0.0
 40
0.2666666706403096
 41
0.0
 46
0.0
 71
     1
 72
     1
  1
\A1;0.89
  7
ROMANS
 73
     1
 44
1.0
  0
POINT
  5
CD0
330
BF5
100
AcDbEntity
  8
Defpoints
 62
     0
440
 16777216
100
AcDbPoint
 10
5.326956160045014
 20
10.35951163414372
 30
0.0
  0
POINT
  5
CD1
330
BF5
100
AcDbEntity
  8
Defpoints
 62
     0
440
 16777216
100
AcDbPoint
 10
6.213456160045011
 20
10.35951163414373
 30
0.0
  0
POINT
  5
CD2
330
BF5
100
AcDbEntity
  8
Defpoints
 62
     0
440
 16777216
100
AcDbPoint
 10
6.213456160045011
 20
10.35951163414373
 30
0.0
  0
ENDBLK
  5
BF7
330
BF5
100
AcDbEntity
  8
0
100
AcDbBlockEnd
  0
BLOCK
  5
CD5
330
CD4
100
AcDbEntity
  8
0
100
AcDbBlockBegin
  2
*D15
 70
     1
 10
0.0
 20
0.0
 30
0.0
  3
*D15
  1

  0
LINE
  5
DBD
330
CD4
100
AcDbEntity
  8
Dimension (ANSI)
440
 16777216
100
AcDbLine
 10
12.74362282671166
 20
7.602343782266386
 30
0.0
 11
16.51806427937409
 21
7.602343782266385
 31
0.0
  0
LINE
  5
DBE
330
CD4
100
AcDbEntity
  8
Dimension (ANSI)
440
 16777216
100
AcDbLine
 10
12.74362282671162
 20
15.22734378226635
 30
0.0
 11
16.5180642793741
 21
15.22734378226635
 31
0.0
  0
LINE
  5
DBF
330
CD4
100
AcDbEntity
  8
Dimension (ANSI)
440
 16777216
100
AcDbLine
 10
16.18473094604076
 20
7.864810967922615
 30
0.0
 11
16.18473094604076
 21
11.961914379677
 31
0.0
  0
LINE
  5
DC0
330
CD4
100
AcDbEntity
  8
Dimension (ANSI)
440
 16777216
100
AcDbLine
 10
16.18473094604076
 20
14.96487659661012
 30
0.0
 11
16.18473094604076
 21
12.53624259470595
 31
0.0
  0
SOLID
  5
DC1
330
CD4
100
AcDbEntity
  8
Dimension (ANSI)
440
 16777216
100
AcDbTrace
 10
16.14098641509806
 20
7.864810967922615
 30
0.0
 11
16.22847547698346
 21
7.864810967922615
 31
0.0
 12
16.18473094604076
 22
7.602343782266385
 32
0.0
 13
16.18473094604076
 23
7.602343782266385
 33
0.0
  0
SOLID
  5
DC2
330
CD4
100
AcDbEntity
  8
Dimension (ANSI)
440
 16777216
100
AcDbTrace
 10
16.14098641509806
 20
14.96487659661012
 30
0.0
 11
16.22847547698347
 21
14.96487659661012
 31
0.0
 12
16.18473094604076
 22
15.22734378226635
 32
0.0
 13
16.18473094604076
 23
15.22734378226635
 33
0.0
  0
MTEXT
  5
DC3
330
CD4
100
AcDbEntity
  8
Dimension (ANSI)
440
 16777216
100
AcDbMText
 10
15.61330236609724
 20
12.45225309339362
 30
0.0
 40
0.2666666706403096
 41
0.0
 46
0.0
 71
     1
 72
     1
  1
\A1;(7.63)
  7
ROMANS
 73
     1
 44
1.0
  0
POINT
  5
DC4
330
CD4
100
AcDbEntity
  8
Defpoints
 62
     0
440
 16777216
100
AcDbPoint
 10
12.576956160045
 20
7.602343782266386
 30
0.0
  0
POINT
  5
DC5
330
CD4
100
AcDbEntity
  8
Defpoints
 62
     0
440
 16777216
100
AcDbPoint
 10
12.57695616004496
 20
15.22734378226635
 30
0.0
  0
POINT
  5
DC6
330
CD4
100
AcDbEntity
  8
Defpoints
 62
     0
440
 16777216
100
AcDbPoint
 10
16.18473094604076
 20
15.22734378226635
 30
0.0
  0
ENDBLK
  5
CD6
330
CD4
100
AcDbEntity
  8
0
100
AcDbBlockEnd
  0
BLOCK
  5
DC9
330
DC8
100
AcDbEntity
  8
0
100
AcDbBlockBegin
  2
*D16
 70
     1
 10
0.0
 20
0.0
 30
0.0
  3
*D16
  1

  0
LINE
  5
EB1
330
DC8
100
AcDbEntity
  8
Dimension (ANSI)
440
 16777216
100
AcDbLine
 10
5.326956160044989
 20
15.01901044893298
 30
0.0
 11
5.326956160044989
 21
17.69895244832918
 31
0.0
  0
LINE
  5
EB2
330
DC8
100
AcDbEntity
  8
Dimension (ANSI)
440
 16777216
100
AcDbLine
 10
12.95195616004496
 20
15.01901044893302
 30
0.0
 11
12.95195616004496
 21
17.69895244832918
 31
0.0
  0
LINE
  5
EB3
330
DC8
100
AcDbEntity
  8
Dimension (ANSI)
440
 16777216
100
AcDbLine
 10
5.589423345701219
 20
17.36561911499585
 30
0.0
 11
8.484038078789103
 21
17.36561911499585
 31
0.0
  0
LINE
  5
EB4
330
DC8
100
AcDbEntity
  8
Dimension (ANSI)
440
 16777216
100
AcDbLine
 10
12.68948897438873
 20
17.36561911499585
 30
0.0
 11
9.794874241300815
 21
17.36561911499585
 31
0.0
  0
SOLID
  5
EB5
330
DC8
100
AcDbEntity
  8
Dimension (ANSI)
440
 16777216
100
AcDbTrace
 10
5.589423345701219
 20
17.40936364593855
 30
0.0
 11
5.589423345701219
 21
17.32187458405314
 31
0.0
 12
5.326956160044989
 22
17.36561911499585
 32
0.0
 13
5.326956160044989
 23
17.36561911499585
 33
0.0
  0
SOLID
  5
EB6
330
DC8
100
AcDbEntity
  8
Dimension (ANSI)
440
 16777216
100
AcDbTrace
 10
12.68948897438873
 20
17.40936364593855
 30
0.0
 11
12.68948897438873
 21
17.32187458405314
 31
0.0
 12
12.95195616004496
 22
17.36561911499585
 32
0.0
 13
12.95195616004496
 23
17.36561911499585
 33
0.0
  0
MTEXT
  5
EB7
330
DC8
100
AcDbEntity
  8
Dimension (ANSI)
440
 16777216
100
AcDbMText
 10
8.568027580101439
 20
17.56879372119799
 30
0.0
 40
0.2666666706403096
 41
0.0
 46
0.0
 71
     1
 72
     1
  1
\A1;(7.63)
  7
ROMANS
 73
     1
 44
1.0
  0
POINT
  5
EB8
330
DC8
100
AcDbEntity
  8
Defpoints
 62
     0
440
 16777216
100
AcDbPoint
 10
5.326956160044989
 20
14.85234378226631
 30
0.0
  0
POINT
  5
EB9
330
DC8
100
AcDbEntity
  8
Defpoints
 62
     0
440
 16777216
100
AcDbPoint
 10
12.95195616004496
 20
14.85234378226636
 30
0.0
  0
POINT
  5
EBA
330
DC8
100
AcDbEntity
  8
Defpoints
 62
     0
440
 16777216
100
AcDbPoint
 10
12.95195616004496
 20
17.36561911499585
 30
0.0
  0
ENDBLK
  5
DCA
330
DC8
100
AcDbEntity
  8
0
100
AcDbBlockEnd
  0
BLOCK
  5
EBD
330
EBC
100
AcDbEntity
  8
0
100
AcDbBlockBegin
  2
*D17
 70
     1
 10
0.0
 20
0.0
 30
0.0
  3
*D17
  1

  0
LINE
  5
FB9
330
EBC
100
AcDbEntity
  8
Dimension (ANSI)
440
 16777216
100
AcDbLine
 10
5.326956160045027
 20
15.01901044893298
 30
0.0
 11
5.326956160045027
 21
16.14586321167883
 31
0.0
  0
LINE
  5
FBA
330
EBC
100
AcDbEntity
  8
Dimension (ANSI)
440
 16777216
100
AcDbLine
 10
5.826956160045028
 20
15.36796878226631
 30
0.0
 11
5.826956160045028
 21
16.14586321167883
 31
0.0
  0
LINE
  5
FBB
330
EBC
100
AcDbEntity
  8
Dimension (ANSI)
440
 16777216
100
AcDbLine
 10
6.089423345701258
 20
15.8125298783455
 30
0.0
 11
6.351890531357487
 21
15.8125298783455
 31
0.0
  0
LINE
  5
FBC
330
EBC
100
AcDbEntity
  8
Dimension (ANSI)
440
 16777216
100
AcDbLine
 10
5.064488974388797
 20
15.8125298783455
 30
0.0
 11
4.50963177513775
 21
15.8125298783455
 31
0.0
  0
SOLID
  5
FBD
330
EBC
100
AcDbEntity
  8
Dimension (ANSI)
440
 16777216
100
AcDbTrace
 10
6.089423345701258
 20
15.85627440928821
 30
0.0
 11
6.089423345701258
 21
15.7687853474028
 31
0.0
 12
5.826956160045028
 22
15.8125298783455
 32
0.0
 13
5.826956160045028
 23
15.8125298783455
 33
0.0
  0
SOLID
  5
FBE
330
EBC
100
AcDbEntity
  8
Dimension (ANSI)
440
 16777216
100
AcDbTrace
 10
5.064488974388797
 20
15.85627440928821
 30
0.0
 11
5.064488974388797
 21
15.7687853474028
 31
0.0
 12
5.326956160045027
 22
15.8125298783455
 32
0.0
 13
5.326956160045027
 23
15.8125298783455
 33
0.0
  0
MTEXT
  5
FBF
330
EBC
100
AcDbEntity
  8
Dimension (ANSI)
440
 16777216
100
AcDbMText
 10
3.854213693881893
 20
15.8125298783455
 30
0.0
 40
0.2666666706403096
 41
0.0
 46
0.0
 71
     5
 72
     1
  1
\A1;(0.50){\PTYP.}
  7
ROMANS
 73
     1
 44
1.0
  0
POINT
  5
FC0
330
EBC
100
AcDbEntity
  8
Defpoints
 62
     0
440
 16777216
100
AcDbPoint
 10
5.326956160045027
 20
14.85234378226631
 30
0.0
  0
POINT
  5
FC1
330
EBC
100
AcDbEntity
  8
Defpoints
 62
     0
440
 16777216
100
AcDbPoint
 10
5.826956160045028
 20
15.20130211559965
 30
0.0
  0
POINT
  5
FC2
330
EBC
100
AcDbEntity
  8
Defpoints
 62
     0
440
 16777216
100
AcDbPoint
 10
5.826956160045028
 20
15.8125298783455
 30
0.0
  0
ENDBLK
  5
EBE
330
EBC
100
AcDbEntity
  8
0
100
AcDbBlockEnd
  0
BLOCK
  5
FC5
330
FC4
100
AcDbEntity
  8
0
100
AcDbBlockBegin
  2
*D18
 70
     1
 10
0.0
 20
0.0
 30
0.0
  3
*D18
  1

  0
LINE
  5
10D2
330
FC4
100
AcDbEntity
  8
Dimension (ANSI)
440
 16777216
100
AcDbLine
 10
12.74362282671166
 20
7.602343782266349
 30
0.0
 11
15.3344893308158
 21
7.602343782266348
 31
0.0
  0
LINE
  5
10D3
330
FC4
100
AcDbEntity
  8
Dimension (ANSI)
440
 16777216
100
AcDbLine
 10
6.467581160045026
 20
8.102343782266347
 30
0.0
 11
15.3344893308158
 21
8.102343782266345
 31
0.0
  0
LINE
  5
10D4
330
FC4
100
AcDbEntity
  8
Dimension (ANSI)
440
 16777216
100
AcDbLine
 10
15.00115599748247
 20
8.364810967922574
 30
0.0
 11
15.00115599748247
 21
8.627278153578805
 31
0.0
  0
LINE
  5
10D5
330
FC4
100
AcDbEntity
  8
Dimension (ANSI)
440
 16777216
100
AcDbLine
 10
15.00115599748247
 20
7.339876596610118
 30
0.0
 11
15.00115599748247
 21
6.473051817308715
 31
0.0
  0
LINE
  5
10D6
330
FC4
100
AcDbEntity
  8
Dimension (ANSI)
440
 16777216
100
AcDbLine
 10
15.00115599748247
 20
6.473051817308715
 30
0.0
 11
14.73868881182624
 21
6.473051817308715
 31
0.0
  0
SOLID
  5
10D7
330
FC4
100
AcDbEntity
  8
Dimension (ANSI)
440
 16777216
100
AcDbTrace
 10
14.95741146653977
 20
8.364810967922574
 30
0.0
 11
15.04490052842518
 21
8.364810967922574
 31
0.0
 12
15.00115599748247
 22
8.102343782266345
 32
0.0
 13
15.00115599748247
 23
8.102343782266345
 33
0.0
  0
SOLID
  5
10D8
330
FC4
100
AcDbEntity
  8
Dimension (ANSI)
440
 16777216
100
AcDbTrace
 10
14.95741146653977
 20
7.339876596610118
 30
0.0
 11
15.04490052842518
 21
7.339876596610118
 31
0.0
 12
15.00115599748247
 22
7.602343782266348
 32
0.0
 13
15.00115599748247
 23
7.602343782266348
 33
0.0
  0
MTEXT
  5
10D9
330
FC4
100
AcDbEntity
  8
Dimension (ANSI)
440
 16777216
100
AcDbMText
 10
14.08327073057038
 20
6.473051817308718
 30
0.0
 40
0.2666666706403096
 41
0.0
 46
0.0
 71
     5
 72
     1
  1
\A1;(0.50){\PTYP.}
  7
ROMANS
 73
     1
 44
1.0
  0
POINT
  5
10DA
330
FC4
100
AcDbEntity
  8
Defpoints
 62
     0
440
 16777216
100
AcDbPoint
 10
12.576956160045
 20
7.602343782266349
 30
0.0
  0
POINT
  5
10DB
330
FC4
100
AcDbEntity
  8
Defpoints
 62
     0
440
 16777216
100
AcDbPoint
 10
6.300914493378359
 20
8.102343782266347
 30
0.0
  0
POINT
  5
10DC
330
FC4
100
AcDbEntity
  8
Defpoints
 62
     0
440
 16777216
100
AcDbPoint
 10
15.00115599748247
 20
8.102343782266345
 30
0.0
  0
ENDBLK
  5
FC6
330
FC4
100
AcDbEntity
  8
0
100
AcDbBlockEnd
  0
BLOCK
  5
10DF
330
10DE
100
AcDbEntity
  8
0
100
AcDbBlockBegin
  2
*D19
 70
     1
 10
0.0
 20
0.0
 30
0.0
  3
*D19
  1

  0
LINE
  5
11D5
330
10DE
100
AcDbEntity
  8
Dimension (ANSI)
440
 16777216
100
AcDbLine
 10
5.701956160045005
 20
12.05546878226632
 30
0.0
 11
5.701956160045005
 21
13.30259371147712
 31
0.0
  0
LINE
  5
11D6
330
10DE
100
AcDbEntity
  8
Dimension (ANSI)
440
 16777216
100
AcDbLine
 10
5.964423345701235
 20
12.96926037814378
 30
0.0
 11
6.226890531357464
 21
12.96926037814378
 31
0.0
  0
LINE
  5
11D7
330
10DE
100
AcDbEntity
  8
Dimension (ANSI)
440
 16777216
100
AcDbLine
 10
5.064488974388771
 20
12.96926037814378
 30
0.0
 11
4.802021788732542
 21
12.96926037814378
 31
0.0
  0
SOLID
  5
11D8
330
10DE
100
AcDbEntity
  8
Dimension (ANSI)
440
 16777216
100
AcDbTrace
 10
5.964423345701235
 20
13.01300490908649
 30
0.0
 11
5.964423345701235
 21
12.92551584720108
 31
0.0
 12
5.701956160045005
 22
12.96926037814378
 32
0.0
 13
5.701956160045005
 23
12.96926037814378
 33
0.0
  0
SOLID
  5
11D9
330
10DE
100
AcDbEntity
  8
Dimension (ANSI)
440
 16777216
100
AcDbTrace
 10
5.064488974388771
 20
13.01300490908649
 30
0.0
 11
5.064488974388771
 21
12.92551584720108
 31
0.0
 12
5.326956160045001
 22
12.96926037814378
 32
0.0
 13
5.326956160045001
 23
12.96926037814378
 33
0.0
  0
MTEXT
  5
11DA
330
10DE
100
AcDbEntity
  8
Dimension (ANSI)
440
 16777216
100
AcDbMText
 10
4.146603707476685
 20
12.96926037814378
 30
0.0
 40
0.2666666706403096
 41
0.0
 46
0.0
 71
     5
 72
     1
  1
\A1;(0.38){\PTYP.}
  7
ROMANS
 73
     1
 44
1.0
  0
POINT
  5
11DB
330
10DE
100
AcDbEntity
  8
Defpoints
 62
     0
440
 16777216
100
AcDbPoint
 10
5.326956160045001
 20
12.80851706919061
 30
0.0
  0
POINT
  5
11DC
330
10DE
100
AcDbEntity
  8
Defpoints
 62
     0
440
 16777216
100
AcDbPoint
 10
5.701956160045005
 20
11.88880211559966
 30
0.0
  0
POINT
  5
11DD
330
10DE
100
AcDbEntity
  8
Defpoints
 62
     0
440
 16777216
100
AcDbPoint
 10
5.701956160045005
 20
12.96926037814378
 30
0.0
  0
ENDBLK
  5
10E0
330
10DE
100
AcDbEntity
  8
0
100
AcDbBlockEnd
  0
BLOCK
  5
11E0
330
11DF
100
AcDbEntity
  8
0
100
AcDbBlockBegin
  2
*D20
 70
     1
 10
0.0
 20
0.0
 30
0.0
  3
*D20
  1

  0
LINE
  5
12EA
330
11DF
100
AcDbEntity
  8
Dimension (ANSI)
440
 16777216
100
AcDbLine
 10
9.893868409320305
 20
7.339876596610142
 30
0.0
 11
9.893868409320305
 21
7.077409410953912
 31
0.0
  0
LINE
  5
12EB
330
11DF
100
AcDbEntity
  8
Dimension (ANSI)
440
 16777216
100
AcDbLine
 10
9.893868409320305
 20
8.239810967922595
 30
0.0
 11
9.893868409320305
 21
8.502278153578824
 31
0.0
  0
LINE
  5
12EC
330
11DF
100
AcDbEntity
  8
Dimension (ANSI)
440
 16777216
100
AcDbLine
 10
10.15633559497653
 20
6.922632417962033
 30
0.0
 11
9.893868409320305
 21
6.922632417962034
 31
0.0
  0
LINE
  5
12ED
330
11DF
100
AcDbEntity
  8
Dimension (ANSI)
440
 16777216
100
AcDbLine
 10
9.893868409320305
 20
6.922632417962034
 30
0.0
 11
9.893868409320305
 21
7.077409410953912
 31
0.0
  0
MTEXT
  5
12EE
330
11DF
100
AcDbEntity
  8
Dimension (ANSI)
440
 16777216
100
AcDbMText
 10
10.81175367623239
 20
6.922632417962035
 30
0.0
 40
0.2666666706403096
 41
0.0
 46
0.0
 71
     5
 72
     1
  1
\A1;(0.38){\PTYP.}
  7
ROMANS
 73
     1
 44
1.0
  0
SOLID
  5
12EF
330
11DF
100
AcDbEntity
  8
Dimension (ANSI)
440
 16777216
100
AcDbTrace
 10
9.850123878377599
 20
7.339876596610142
 30
0.0
 11
9.93761294026301
 21
7.339876596610142
 31
0.0
 12
9.893868409320305
 22
7.602343782266371
 32
0.0
 13
9.893868409320305
 23
7.602343782266371
 33
0.0
  0
SOLID
  5
12F0
330
11DF
100
AcDbEntity
  8
Dimension (ANSI)
440
 16777216
100
AcDbTrace
 10
9.850123878377599
 20
8.239810967922595
 30
0.0
 11
9.93761294026301
 21
8.239810967922595
 31
0.0
 12
9.893868409320305
 22
7.977343782266365
 32
0.0
 13
9.893868409320305
 23
7.977343782266365
 33
0.0
  0
POINT
  5
12F1
330
11DF
100
AcDbEntity
  8
Defpoints
 62
     0
440
 16777216
100
AcDbPoint
 10
9.893868409320305
 20
7.602343782266371
 30
0.0
  0
POINT
  5
12F2
330
11DF
100
AcDbEntity
  8
Defpoints
 62
     0
440
 16777216
100
AcDbPoint
 10
9.139456160045011
 20
7.977343782266365
 30
0.0
  0
POINT
  5
12F3
330
11DF
100
AcDbEntity
  8
Defpoints
 62
     0
440
 16777216
100
AcDbPoint
 10
9.893868409320305
 20
7.977343782266365
 30
0.0
  0
ENDBLK
  5
11E1
330
11DF
100
AcDbEntity
  8
0
100
AcDbBlockEnd
  0
BLOCK
  5
12F6
330
12F5
100
AcDbEntity
  8
0
100
AcDbBlockBegin
  2
*D21
 70
     1
 10
0.0
 20
0.0
 30
0.0
  3
*D21
  1

  0
LINE
  5
13D4
330
12F5
100
AcDbEntity
  8
Dimension (ANSI)
440
 16777216
100
AcDbLine
 10
6.139456160045021
 20
8.353427115599698
 30
0.0
 11
6.139456160045021
 21
5.845799162843787
 31
0.0
  0
LINE
  5
13D5
330
12F5
100
AcDbEntity
  8
Dimension (ANSI)
440
 16777216
100
AcDbLine
 10
12.139456160045
 20
8.322177115599691
 30
0.0
 11
12.139456160045
 21
5.845799162843787
 31
0.0
  0
LINE
  5
13D6
330
12F5
100
AcDbEntity
  8
Dimension (ANSI)
440
 16777216
100
AcDbLine
 10
6.401923345701251
 20
6.17913249617712
 30
0.0
 11
8.655466652772208
 21
6.17913249617712
 31
0.0
  0
LINE
  5
13D7
330
12F5
100
AcDbEntity
  8
Dimension (ANSI)
440
 16777216
100
AcDbLine
 10
11.87698897438877
 20
6.17913249617712
 30
0.0
 11
9.62344566731781
 21
6.17913249617712
 31
0.0
  0
SOLID
  5
13D8
330
12F5
100
AcDbEntity
  8
Dimension (ANSI)
440
 16777216
100
AcDbTrace
 10
6.401923345701251
 20
6.222877027119825
 30
0.0
 11
6.401923345701251
 21
6.135387965234415
 31
0.0
 12
6.139456160045021
 22
6.17913249617712
 32
0.0
 13
6.139456160045021
 23
6.17913249617712
 33
0.0
  0
SOLID
  5
13D9
330
12F5
100
AcDbEntity
  8
Dimension (ANSI)
440
 16777216
100
AcDbTrace
 10
11.87698897438877
 20
6.222877027119825
 30
0.0
 11
11.87698897438877
 21
6.135387965234415
 31
0.0
 12
12.139456160045
 22
6.17913249617712
 32
0.0
 13
12.139456160045
 23
6.17913249617712
 33
0.0
  0
MTEXT
  5
13DA
330
12F5
100
AcDbEntity
  8
Dimension (ANSI)
440
 16777216
100
AcDbMText
 10
8.739456154084544
 20
6.312465831497275
 30
0.0
 40
0.2666666706403096
 41
0.0
 46
0.0
 71
     1
 72
     1
  1
\A1;6.00
  7
ROMANS
 73
     1
 44
1.0
  0
POINT
  5
13DB
330
12F5
100
AcDbEntity
  8
Defpoints
 62
     0
440
 16777216
100
AcDbPoint
 10
6.139456160045021
 20
8.520093782266364
 30
0.0
  0
POINT
  5
13DC
330
12F5
100
AcDbEntity
  8
Defpoints
 62
     0
440
 16777216
100
AcDbPoint
 10
12.139456160045
 20
8.488843782266357
 30
0.0
  0
POINT
  5
13DD
330
12F5
100
AcDbEntity
  8
Defpoints
 62
     0
440
 16777216
100
AcDbPoint
 10
12.139456160045
 20
6.17913249617712
 30
0.0
  0
ENDBLK
  5
12F7
330
12F5
100
AcDbEntity
  8
0
100
AcDbBlockEnd
  0
BLOCK
  5
13E0
330
13DF
100
AcDbEntity
  8
0
100
AcDbBlockBegin
  2
*D22
 70
     1
 10
0.0
 20
0.0
 30
0.0
  3
*D22
  1

  0
LINE
  5
14BE
330
13DF
100
AcDbEntity
  8
Dimension (ANSI)
440
 16777216
100
AcDbLine
 10
6.078039493378353
 20
8.414843782266363
 30
0.0
 11
2.790580753700433
 21
8.414843782266364
 31
0.0
  0
LINE
  5
14BF
330
13DF
100
AcDbEntity
  8
Dimension (ANSI)
440
 16777216
100
AcDbLine
 10
6.046789493378371
 20
14.4148437822664
 30
0.0
 11
2.790580753700434
 21
14.41484378226641
 31
0.0
  0
LINE
  5
14C0
330
13DF
100
AcDbEntity
  8
Dimension (ANSI)
440
 16777216
100
AcDbLine
 10
3.123914087033766
 20
8.677310967922593
 30
0.0
 11
3.123914087033767
 21
11.19752094563389
 31
0.0
  0
LINE
  5
14C1
330
13DF
100
AcDbEntity
  8
Dimension (ANSI)
440
 16777216
100
AcDbLine
 10
3.123914087033767
 20
14.15237659661018
 30
0.0
 11
3.123914087033767
 21
11.63216661889887
 31
0.0
  0
SOLID
  5
14C2
330
13DF
100
AcDbEntity
  8
Dimension (ANSI)
440
 16777216
100
AcDbTrace
 10
3.080169556091061
 20
8.677310967922593
 30
0.0
 11
3.167658617976471
 21
8.677310967922593
 31
0.0
 12
3.123914087033766
 22
8.414843782266364
 32
0.0
 13
3.123914087033766
 23
8.414843782266364
 33
0.0
  0
SOLID
  5
14C3
330
13DF
100
AcDbEntity
  8
Dimension (ANSI)
440
 16777216
100
AcDbTrace
 10
3.080169556091062
 20
14.15237659661018
 30
0.0
 11
3.167658617976472
 21
14.15237659661018
 31
0.0
 12
3.123914087033767
 22
14.41484378226641
 32
0.0
 13
3.123914087033767
 23
14.41484378226641
 33
0.0
  0
MTEXT
  5
14C4
330
13DF
100
AcDbEntity
  8
Dimension (ANSI)
440
 16777216
100
AcDbMText
 10
2.723914081073301
 20
11.54817711758654
 30
0.0
 40
0.2666666706403096
 41
0.0
 46
0.0
 71
     1
 72
     1
  1
\A1;6.00
  7
ROMANS
 73
     1
 44
1.0
  0
POINT
  5
14C5
330
13DF
100
AcDbEntity
  8
Defpoints
 62
     0
440
 16777216
100
AcDbPoint
 10
6.24470616004502
 20
8.414843782266363
 30
0.0
  0
POINT
  5
14C6
330
13DF
100
AcDbEntity
  8
Defpoints
 62
     0
440
 16777216
100
AcDbPoint
 10
6.213456160045038
 20
14.4148437822664
 30
0.0
  0
POINT
  5
14C7
330
13DF
100
AcDbEntity
  8
Defpoints
 62
     0
440
 16777216
100
AcDbPoint
 10
3.123914087033767
 20
14.41484378226641
 30
0.0
  0
ENDBLK
  5
13E1
330
13DF
100
AcDbEntity
  8
0
100
AcDbBlockEnd
  0
ENDSEC
  0
SECTION
  2
ENTITIES
  0
LINE
  5
107
330
6C
100
AcDbEntity
  8
Visible (ANSI)
100
AcDbLine
 10
6.213456160045007
 20
11.32109378226636
 30
0.0
 11
6.139456160045006
 21
11.32109378226636
 31
0.0
  0
LINE
  5
108
330
6C
100
AcDbEntity
  8
Visible (ANSI)
100
AcDbLine
 10
6.213456160045007
 20
11.50859378226636
 30
0.0
 11
6.213456160045008
 21
11.32109378226636
 31
0.0
  0
LINE
  5
109
330
6C
100
AcDbEntity
  8
Visible (ANSI)
100
AcDbLine
 10
6.139456160045006
 20
11.32109378226636
 30
0.0
 11
6.139456160045005
 21
11.50859378226636
 31
0.0
  0
LINE
  5
10A
330
6C
100
AcDbEntity
  8
Visible (ANSI)
100
AcDbLine
 10
6.139456160045005
 20
11.50859378226636
 30
0.0
 11
6.213456160045006
 21
11.50859378226636
 31
0.0
  0
LINE
  5
10B
330
6C
100
AcDbEntity
  8
Visible (ANSI)
100
AcDbLine
 10
6.139456160045006
 20
11.32109378226636
 30
0.0
 11
6.139456160045021
 21
8.520093782266364
 31
0.0
  0
LINE
  5
10C
330
6C
100
AcDbEntity
  8
Visible (ANSI)
100
AcDbLine
 10
6.213456160045007
 20
11.32109378226636
 30
0.0
 11
6.213456160045021
 21
8.520093782266364
 31
0.0
  0
LINE
  5
10D
330
6C
100
AcDbEntity
  8
Visible (ANSI)
100
AcDbLine
 10
6.21345616004499
 20
14.34084378226636
 30
0.0
 11
6.213456160045006
 21
11.50859378226636
 31
0.0
  0
LINE
  5
10E
330
6C
100
AcDbEntity
  8
Visible (ANSI)
100
AcDbLine
 10
6.21345616004499
 20
14.34084378226636
 30
0.0
 11
6.139456160044989
 21
14.34084378226636
 31
0.0
  0
LINE
  5
10F
330
6C
100
AcDbEntity
  8
Visible (ANSI)
100
AcDbLine
 10
6.139456160044989
 20
14.34084378226636
 30
0.0
 11
6.139456160045004
 21
11.50859378226636
 31
0.0
  0
LINE
  5
110
330
6C
100
AcDbEntity
  8
Visible (ANSI)
100
AcDbLine
 10
9.045706160045021
 20
8.414843782266364
 30
0.0
 11
9.045706160045021
 21
8.488843782266364
 31
0.0
  0
LINE
  5
111
330
6C
100
AcDbEntity
  8
Visible (ANSI)
100
AcDbLine
 10
9.233206160045021
 20
8.488843782266364
 30
0.0
 11
9.233206160045021
 21
8.414843782266364
 31
0.0
  0
LINE
  5
112
330
6C
100
AcDbEntity
  8
Visible (ANSI)
100
AcDbLine
 10
9.045706160045021
 20
8.488843782266364
 30
0.0
 11
9.233206160045021
 21
8.488843782266364
 31
0.0
  0
LINE
  5
113
330
6C
100
AcDbEntity
  8
Visible (ANSI)
100
AcDbLine
 10
9.233206160045021
 20
8.414843782266364
 30
0.0
 11
9.197831160044996
 21
8.414843782266364
 31
0.0
  0
LINE
  5
114
330
6C
100
AcDbEntity
  8
Visible (ANSI)
100
AcDbLine
 10
9.081081160045021
 20
8.414843782266364
 30
0.0
 11
9.045706160045021
 21
8.414843782266364
 31
0.0
  0
LINE
  5
115
330
6C
100
AcDbEntity
  8
Visible (ANSI)
100
AcDbLine
 10
9.233206160045021
 20
8.414843782266364
 30
0.0
 11
12.06545616004502
 21
8.414843782266364
 31
0.0
  0
LINE
  5
116
330
6C
100
AcDbEntity
  8
Visible (ANSI)
100
AcDbLine
 10
12.06545616004502
 20
8.488843782266364
 30
0.0
 11
12.06545616004502
 21
8.414843782266364
 31
0.0
  0
LINE
  5
117
330
6C
100
AcDbEntity
  8
Visible (ANSI)
100
AcDbLine
 10
9.233206160045021
 20
8.488843782266364
 30
0.0
 11
12.06545616004502
 21
8.488843782266364
 31
0.0
  0
LINE
  5
118
330
6C
100
AcDbEntity
  8
Visible (ANSI)
100
AcDbLine
 10
6.24470616004502
 20
8.488843782266364
 30
0.0
 11
9.045706160045021
 21
8.488843782266364
 31
0.0
  0
LINE
  5
119
330
6C
100
AcDbEntity
  8
Visible (ANSI)
100
AcDbLine
 10
6.24470616004502
 20
8.414843782266364
 30
0.0
 11
9.045706160045021
 21
8.414843782266364
 31
0.0
  0
ARC
  5
11A
330
6C
100
AcDbEntity
  8
Visible (ANSI)
100
AcDbCircle
 10
6.244706160045022
 20
8.520093782266366
 30
0.0
 40
0.1052500000000004
100
AcDbArc
 50
180.0
 51
270.0000000000005
  0
ARC
  5
11B
330
6C
100
AcDbEntity
  8
Visible (ANSI)
100
AcDbCircle
 10
6.244706160045022
 20
8.520093782266364
 30
0.0
 40
0.0312500000000002
100
AcDbArc
 50
180.0
 51
270.0
  0
LINE
  5
11C
330
6C
100
AcDbEntity
  8
Visible (ANSI)
100
AcDbLine
 10
9.045706160045023
 20
14.34084378226638
 30
0.0
 11
9.045706160045023
 21
14.41484378226638
 31
0.0
  0
LINE
  5
11D
330
6C
100
AcDbEntity
  8
Visible (ANSI)
100
AcDbLine
 10
9.233206160045027
 20
14.41484378226638
 30
0.0
 11
9.233206160045027
 21
14.34084378226638
 31
0.0
  0
LINE
  5
11E
330
6C
100
AcDbEntity
  8
Visible (ANSI)
100
AcDbLine
 10
9.233206160045027
 20
14.34084378226638
 30
0.0
 11
9.045706160045023
 21
14.34084378226638
 31
0.0
  0
LINE
  5
11F
330
6C
100
AcDbEntity
  8
Visible (ANSI)
100
AcDbLine
 10
9.045706160045025
 20
14.41484378226638
 30
0.0
 11
9.081081160044957
 21
14.41484378226638
 31
0.0
  0
LINE
  5
120
330
6C
100
AcDbEntity
  8
Visible (ANSI)
100
AcDbLine
 10
9.197831160045012
 20
14.41484378226638
 30
0.0
 11
9.233206160045027
 21
14.41484378226638
 31
0.0
  0
LINE
  5
121
330
6C
100
AcDbEntity
  8
Visible (ANSI)
100
AcDbLine
 10
9.045706160045025
 20
14.41484378226638
 30
0.0
 11
6.213456160045037
 21
14.4148437822664
 31
0.0
  0
LINE
  5
122
330
6C
100
AcDbEntity
  8
Visible (ANSI)
100
AcDbLine
 10
6.213456160045038
 20
14.34084378226641
 30
0.0
 11
6.213456160045038
 21
14.4148437822664
 31
0.0
  0
LINE
  5
123
330
6C
100
AcDbEntity
  8
Visible (ANSI)
100
AcDbLine
 10
6.213456160045038
 20
14.34084378226641
 30
0.0
 11
9.045706160045023
 21
14.34084378226638
 31
0.0
  0
LINE
  5
124
330
6C
100
AcDbEntity
  8
Visible (ANSI)
100
AcDbLine
 10
9.233206160045027
 20
14.34084378226638
 30
0.0
 11
12.03420616004501
 21
14.34084378226635
 31
0.0
  0
LINE
  5
125
330
6C
100
AcDbEntity
  8
Visible (ANSI)
100
AcDbLine
 10
12.03420616004502
 20
14.41484378226635
 30
0.0
 11
9.233206160045027
 21
14.41484378226638
 31
0.0
  0
LINE
  5
126
330
6C
100
AcDbEntity
  8
Visible (ANSI)
100
AcDbLine
 10
12.065456160045
 20
11.50859378226635
 30
0.0
 11
12.13945616004501
 21
11.50859378226635
 31
0.0
  0
LINE
  5
127
330
6C
100
AcDbEntity
  8
Visible (ANSI)
100
AcDbLine
 10
12.13945616004501
 20
11.32109378226635
 30
0.0
 11
12.06545616004501
 21
11.32109378226635
 31
0.0
  0
LINE
  5
128
330
6C
100
AcDbEntity
  8
Visible (ANSI)
100
AcDbLine
 10
12.06545616004501
 20
11.32109378226635
 30
0.0
 11
12.06545616004501
 21
11.50859378226635
 31
0.0
  0
LINE
  5
129
330
6C
100
AcDbEntity
  8
Visible (ANSI)
100
AcDbLine
 10
12.13945616004501
 20
11.50859378226635
 30
0.0
 11
12.13945616004501
 21
11.47321878226638
 31
0.0
  0
LINE
  5
12A
330
6C
100
AcDbEntity
  8
Visible (ANSI)
100
AcDbLine
 10
12.13945616004501
 20
11.35646878226635
 30
0.0
 11
12.13945616004501
 21
11.32109378226635
 31
0.0
  0
LINE
  5
12B
330
6C
100
AcDbEntity
  8
Visible (ANSI)
100
AcDbLine
 10
12.065456160045
 20
8.488843782266357
 30
0.0
 11
12.06545616004501
 21
11.32109378226635
 31
0.0
  0
LINE
  5
12C
330
6C
100
AcDbEntity
  8
Visible (ANSI)
100
AcDbLine
 10
12.065456160045
 20
11.50859378226635
 30
0.0
 11
12.06545616004501
 21
14.30959378226635
 31
0.0
  0
LINE
  5
12D
330
6C
100
AcDbEntity
  8
Visible (ANSI)
100
AcDbLine
 10
12.13945616004501
 20
11.50859378226635
 30
0.0
 11
12.13945616004501
 21
14.30959378226635
 31
0.0
  0
LINE
  5
12E
330
6C
100
AcDbEntity
  8
Visible (ANSI)
100
AcDbLine
 10
12.139456160045
 20
8.488843782266357
 30
0.0
 11
12.13945616004501
 21
11.32109378226635
 31
0.0
  0
LINE
  5
12F
330
6C
100
AcDbEntity
  8
Visible (ANSI)
100
AcDbLine
 10
12.065456160045
 20
8.488843782266357
 30
0.0
 11
12.139456160045
 21
8.488843782266357
 31
0.0
  0
ARC
  5
130
330
6C
100
AcDbEntity
  8
Visible (ANSI)
100
AcDbCircle
 10
12.03420616004501
 20
14.30959378226635
 30
0.0
 40
0.1052499999999995
100
AcDbArc
 50
0.0
 51
89.99999999999896
  0
ARC
  5
131
330
6C
100
AcDbEntity
  8
Visible (ANSI)
100
AcDbCircle
 10
12.03420616004501
 20
14.30959378226635
 30
0.0
 40
0.0312500000000002
100
AcDbArc
 50
0.0
 51
90.0
  0
LINE
  5
132
330
6C
100
AcDbEntity
  8
Visible (ANSI)
100
AcDbLine
 10
12.08108116004498
 20
11.41484378226637
 30
0.0
 11
12.15508116004498
 21
11.34084378226637
 31
0.0
  0
LINE
  5
133
330
6C
100
AcDbEntity
  8
Visible (ANSI)
100
AcDbLine
 10
12.15508116004498
 20
11.48884378226637
 30
0.0
 11
12.08108116004498
 21
11.41484378226637
 31
0.0
  0
LINE
  5
134
330
6C
100
AcDbEntity
  8
Visible (ANSI)
100
AcDbLine
 10
9.213456160045009
 20
8.399218782266364
 30
0.0
 11
9.139456160045009
 21
8.473218782266362
 31
0.0
  0
LINE
  5
135
330
6C
100
AcDbEntity
  8
Visible (ANSI)
100
AcDbLine
 10
9.139456160045009
 20
8.473218782266362
 30
0.0
 11
9.065456160045009
 21
8.399218782266363
 31
0.0
  0
LINE
  5
136
330
6C
100
AcDbEntity
  8
Visible (ANSI)
100
AcDbLine
 10
9.065456160044977
 20
14.43046878226634
 30
0.0
 11
9.139456160044977
 21
14.35646878226634
 31
0.0
  0
LINE
  5
137
330
6C
100
AcDbEntity
  8
Visible (ANSI)
100
AcDbLine
 10
9.139456160044977
 20
14.35646878226634
 30
0.0
 11
9.213456160044975
 21
14.43046878226634
 31
0.0
  0
LINE
  5
138
330
6C
100
AcDbEntity
  8
Visible (ANSI)
100
AcDbLine
 10
12.15508116004498
 20
11.34084378226637
 30
0.0
 11
12.155081160045
 21
8.52421878226638
 31
0.0
  0
LINE
  5
139
330
6C
100
AcDbEntity
  8
Visible (ANSI)
100
AcDbLine
 10
12.15508116004496
 20
14.30546878226635
 30
0.0
 11
12.15508116004498
 21
11.48884378226637
 31
0.0
  0
LINE
  5
13A
330
6C
100
AcDbEntity
  8
Visible (ANSI)
100
AcDbLine
 10
9.065456160045009
 20
8.399218782266363
 30
0.0
 11
6.248831160045019
 21
8.39921878226635
 31
0.0
  0
LINE
  5
13B
330
6C
100
AcDbEntity
  8
Visible (ANSI)
100
AcDbLine
 10
12.030081160045
 20
8.399218782266379
 30
0.0
 11
9.213456160045009
 21
8.399218782266364
 31
0.0
  0
LINE
  5
13C
330
6C
100
AcDbEntity
  8
Visible (ANSI)
100
AcDbLine
 10
6.24883116004499
 20
14.43046878226632
 30
0.0
 11
9.065456160044977
 21
14.43046878226634
 31
0.0
  0
LINE
  5
13D
330
6C
100
AcDbEntity
  8
Visible (ANSI)
100
AcDbLine
 10
9.213456160044975
 20
14.43046878226634
 30
0.0
 11
12.03008116004496
 21
14.43046878226635
 31
0.0
  0
ARC
  5
13E
330
6C
100
AcDbEntity
  8
Visible (ANSI)
100
AcDbCircle
 10
12.030081160045
 20
8.524218782266379
 30
0.0
 40
0.1249999999999984
100
AcDbArc
 50
270.0
 51
0.0
  0
ARC
  5
13F
330
6C
100
AcDbEntity
  8
Visible (ANSI)
100
AcDbCircle
 10
6.248831160045019
 20
8.524218782266348
 30
0.0
 40
0.1249999999999991
100
AcDbArc
 50
180.0
 51
270.0000000000004
  0
LINE
  5
140
330
6C
100
AcDbEntity
  8
Visible (ANSI)
100
AcDbLine
 10
6.12383116004502
 20
8.524218782266347
 30
0.0
 11
6.12383116004499
 21
14.30546878226632
 31
0.0
  0
ARC
  5
141
330
6C
100
AcDbEntity
  8
Visible (ANSI)
100
AcDbCircle
 10
6.248831160044989
 20
14.30546878226632
 30
0.0
 40
0.1249999999999988
100
AcDbArc
 50
90.00000000000044
 51
180.0
  0
ARC
  5
142
330
6C
100
AcDbEntity
  8
Visible (ANSI)
100
AcDbCircle
 10
12.03008116004496
 20
14.30546878226635
 30
0.0
 40
0.1249999999999991
100
AcDbArc
 50
0.0
 51
90.00000000000087
  0
ARC
  5
143
330
6C
100
AcDbEntity
  8
Visible (ANSI)
100
AcDbCircle
 10
12.576956160045
 20
7.977343782266386
 30
0.0
 40
0.375
100
AcDbArc
 50
270.0000000000003
 51
0.0
  0
LINE
  5
144
330
6C
100
AcDbEntity
  8
Visible (ANSI)
100
AcDbLine
 10
12.576956160045
 20
7.602343782266386
 30
0.0
 11
5.701956160045027
 21
7.60234378226635
 31
0.0
  0
ARC
  5
145
330
6C
100
AcDbEntity
  8
Visible (ANSI)
100
AcDbCircle
 10
5.701956160045024
 20
7.977343782266347
 30
0.0
 40
0.3749999999999986
100
AcDbArc
 50
180.0
 51
270.0000000000006
  0
LINE
  5
146
330
6C
100
AcDbEntity
  8
Visible (ANSI)
100
AcDbLine
 10
5.326956160045027
 20
7.977343782266346
 30
0.0
 11
5.32695616004499
 21
14.85234378226631
 31
0.0
  0
ARC
  5
147
330
6C
100
AcDbEntity
  8
Visible (ANSI)
100
AcDbCircle
 10
5.701956160044988
 20
14.85234378226632
 30
0.0
 40
0.3749999999999987
100
AcDbArc
 50
90.0000000000003
 51
180.0
  0
LINE
  5
148
330
6C
100
AcDbEntity
  8
Visible (ANSI)
100
AcDbLine
 10
5.701956160044987
 20
15.22734378226632
 30
0.0
 11
12.57695616004496
 21
15.22734378226635
 31
0.0
  0
ARC
  5
149
330
6C
100
AcDbEntity
  8
Visible (ANSI)
100
AcDbCircle
 10
12.57695616004496
 20
14.85234378226635
 30
0.0
 40
0.375
100
AcDbArc
 50
0.0
 51
90.0000000000003
  0
LINE
  5
14A
330
6C
100
AcDbEntity
  8
Visible (ANSI)
100
AcDbLine
 10
12.95195616004496
 20
14.85234378226636
 30
0.0
 11
12.95195616004499
 21
7.977343782266387
 31
0.0
  0
CIRCLE
  5
14B
330
6C
100
AcDbEntity
  8
Visible (ANSI)
100
AcDbCircle
 10
9.139456160044973
 20
14.85234378226633
 30
0.0
 40
0.1406249999999996
  0
CIRCLE
  5
14C
330
6C
100
AcDbEntity
  8
Visible (ANSI)
100
AcDbCircle
 10
12.57695616004498
 20
11.41484378226637
 30
0.0
 40
0.1406249999999994
  0
CIRCLE
  5
14D
330
6C
100
AcDbEntity
  8
Visible (ANSI)
100
AcDbCircle
 10
9.139456160045011
 20
7.977343782266366
 30
0.0
 40
0.1406249999999996
  0
CIRCLE
  5
14E
330
6C
100
AcDbEntity
  8
Visible (ANSI)
100
AcDbCircle
 10
5.701956160045005
 20
11.41484378226633
 30
0.0
 40
0.1406249999999994
  0
CIRCLE
  5
14F
330
6C
100
AcDbEntity
  8
Visible (ANSI)
100
AcDbCircle
 10
5.826956160045026
 20
8.102343782266347
 30
0.0
 40
0.1406249999999995
  0
CIRCLE
  5
150
330
6C
100
AcDbEntity
  8
Visible (ANSI)
100
AcDbCircle
 10
5.826956160044988
 20
14.72734378226632
 30
0.0
 40
0.1406249999999995
  0
CIRCLE
  5
151
330
6C
100
AcDbEntity
  8
Visible (ANSI)
100
AcDbCircle
 10
12.451956160045
 20
8.102343782266382
 30
0.0
 40
0.1406249999999995
  0
CIRCLE
  5
152
330
6C
100
AcDbEntity
  8
Visible (ANSI)
100
AcDbCircle
 10
12.45195616004496
 20
14.72734378226635
 30
0.0
 40
0.1406249999999995
  0
LINE
  5
153
330
6C
100
AcDbEntity
  8
Visible (ANSI)
100
AcDbLine
 10
6.139456160045014
 20
11.47321878226635
 30
0.0
 11
6.123831160045005
 21
11.48884378226635
 31
0.0
  0
LINE
  5
154
330
6C
100
AcDbEntity
  8
Visible (ANSI)
100
AcDbLine
 10
6.123831160045005
 20
11.34084378226636
 30
0.0
 11
6.139456160045014
 21
11.35646878226636
 31
0.0
  0
MTEXT
  5
156
330
6C
100
AcDbEntity
  8
Symbol (ANSI)
100
AcDbMText
 10
7.92976809085711
 20
4.748354129087508
 30
0.0
 40
0.3200000039548698
 41
0.0
 46
0.0
 71
     7
 72
     1
  1
FRONT VIEW
  7
Text Style168
 73
     1
 44
1.0
  0
LINE
  5
158
330
6C
100
AcDbEntity
  8
Symbol (ANSI)
370
    30
100
AcDbLine
 10
7.897768008541412
 20
4.683096429421135
 30
0.0
 11
10.47047468663655
 21
4.683096429421135
 31
0.0
  0
LINE
  5
159
330
6C
100
AcDbEntity
  8
Visible (ANSI)
100
AcDbLine
 10
6.139456160049526
 20
26.63609018481303
 30
0.0
 11
6.139456160049525
 21
20.88609018481303
 31
0.0
  0
LINE
  5
15A
330
6C
100
AcDbEntity
  8
Visible (ANSI)
100
AcDbLine
 10
12.13945616004955
 20
26.63609018481302
 30
0.0
 11
12.13945616004955
 21
20.88609018481299
 31
0.0
  0
LINE
  5
15B
330
6C
100
AcDbEntity
  8
Visible (ANSI)
100
AcDbLine
 10
6.213456160049572
 20
20.88609018481306
 30
0.0
 11
6.213456160049572
 21
26.63609018481308
 31
0.0
  0
LINE
  5
15C
330
6C
100
AcDbEntity
  8
Visible (ANSI)
100
AcDbLine
 10
5.326956160049525
 20
20.88609018481318
 30
0.0
 11
5.326956160049525
 21
20.76109018481318
 31
0.0
  0
LINE
  5
15D
330
6C
100
AcDbEntity
  8
Visible (ANSI)
100
AcDbLine
 10
5.701956160049522
 20
20.7610901848133
 30
0.0
 11
5.326956160049526
 21
20.76109018481318
 31
0.0
  0
LINE
  5
15E
330
6C
100
AcDbEntity
  8
Visible (ANSI)
100
AcDbLine
 10
5.326956160049526
 20
20.88609018481318
 30
0.0
 11
5.701956160049522
 21
20.88609018481329
 31
0.0
  0
LINE
  5
15F
330
6C
100
AcDbEntity
  8
Visible (ANSI)
100
AcDbLine
 10
5.701956160049522
 20
20.7610901848133
 30
0.0
 11
12.57695616004949
 21
20.76109018481329
 31
0.0
  0
LINE
  5
160
330
6C
100
AcDbEntity
  8
Visible (ANSI)
100
AcDbLine
 10
12.57695616004949
 20
20.88609018481329
 30
0.0
 11
5.701956160049522
 21
20.88609018481329
 31
0.0
  0
LINE
  5
161
330
6C
100
AcDbEntity
  8
Visible (ANSI)
100
AcDbLine
 10
12.9519561600495
 20
20.76109018481318
 30
0.0
 11
12.57695616004949
 21
20.76109018481329
 31
0.0
  0
LINE
  5
162
330
6C
100
AcDbEntity
  8
Visible (ANSI)
100
AcDbLine
 10
12.9519561600495
 20
20.88609018481318
 30
0.0
 11
12.9519561600495
 21
20.76109018481318
 31
0.0
  0
LINE
  5
163
330
6C
100
AcDbEntity
  8
Visible (ANSI)
100
AcDbLine
 10
12.57695616004949
 20
20.88609018481329
 30
0.0
 11
12.9519561600495
 21
20.88609018481318
 31
0.0
  0
LINE
  5
164
330
6C
100
AcDbEntity
  8
Visible (ANSI)
100
AcDbLine
 10
5.701956160049546
 20
26.63609018481329
 30
0.0
 11
5.326956160049546
 21
26.63609018481319
 31
0.0
  0
LINE
  5
165
330
6C
100
AcDbEntity
  8
Visible (ANSI)
100
AcDbLine
 10
5.326956160049546
 20
26.76109018481318
 30
0.0
 11
5.701956160049546
 21
26.76109018481329
 31
0.0
  0
LINE
  5
166
330
6C
100
AcDbEntity
  8
Visible (ANSI)
100
AcDbLine
 10
5.326956160049546
 20
26.76109018481318
 30
0.0
 11
5.326956160049546
 21
26.63609018481319
 31
0.0
  0
LINE
  5
167
330
6C
100
AcDbEntity
  8
Visible (ANSI)
100
AcDbLine
 10
5.701956160049546
 20
26.63609018481329
 30
0.0
 11
12.57695616004952
 21
26.63609018481329
 31
0.0
  0
LINE
  5
168
330
6C
100
AcDbEntity
  8
Visible (ANSI)
100
AcDbLine
 10
12.57695616004952
 20
26.76109018481329
 30
0.0
 11
5.701956160049546
 21
26.76109018481329
 31
0.0
  0
LINE
  5
169
330
6C
100
AcDbEntity
  8
Visible (ANSI)
100
AcDbLine
 10
12.95195616004952
 20
26.63609018481319
 30
0.0
 11
12.57695616004952
 21
26.63609018481329
 31
0.0
  0
LINE
  5
16A
330
6C
100
AcDbEntity
  8
Visible (ANSI)
100
AcDbLine
 10
12.95195616004952
 20
26.76109018481318
 30
0.0
 11
12.95195616004952
 21
26.63609018481319
 31
0.0
  0
LINE
  5
16B
330
6C
100
AcDbEntity
  8
Visible (ANSI)
100
AcDbLine
 10
12.57695616004952
 20
26.7610901848133
 30
0.0
 11
12.95195616004952
 21
26.76109018481318
 31
0.0
  0
MTEXT
  5
16C
330
6C
100
AcDbEntity
  8
Symbol (ANSI)
100
AcDbMText
 10
8.129670189567361
 20
19.40398353018735
 30
0.0
 40
0.3200000039548698
 41
0.0
 46
0.0
 71
     7
 72
     1
  1
TOP VIEW
  7
Text Style168
 73
     1
 44
1.0
  0
LINE
  5
16D
330
6C
100
AcDbEntity
  8
Symbol (ANSI)
370
    30
100
AcDbLine
 10
8.129926190225885
 20
19.33872583052097
 30
0.0
 11
10.14898612987317
 21
19.33872583052097
 31
0.0
  0
LINE
  5
16E
330
6C
100
AcDbEntity
  8
Visible (ANSI)
100
AcDbLine
 10
23.33066103914574
 20
8.414843782266361
 30
0.0
 11
29.08066103914575
 21
8.414843782266361
 31
0.0
  0
LINE
  5
16F
330
6C
100
AcDbEntity
  8
Visible (ANSI)
100
AcDbLine
 10
23.33066103914571
 20
14.41484378226635
 30
0.0
 11
29.08066103914574
 21
14.41484378226635
 31
0.0
  0
LINE
  5
170
330
6C
100
AcDbEntity
  8
Visible (ANSI)
100
AcDbLine
 10
29.08066103914577
 20
8.488843782266354
 30
0.0
 11
23.33066103914574
 21
8.488843782266355
 31
0.0
  0
LINE
  5
171
330
6C
100
AcDbEntity
  8
Visible (ANSI)
100
AcDbLine
 10
23.2056610391459
 20
7.602343782266384
 30
0.0
 11
23.205661039146
 21
7.977343782266385
 31
0.0
  0
LINE
  5
172
330
6C
100
AcDbEntity
  8
Visible (ANSI)
100
AcDbLine
 10
23.33066103914589
 20
7.602343782266384
 30
0.0
 11
23.2056610391459
 21
7.602343782266384
 31
0.0
  0
LINE
  5
173
330
6C
100
AcDbEntity
  8
Visible (ANSI)
100
AcDbLine
 10
23.33066103914601
 20
7.977343782266385
 30
0.0
 11
23.33066103914589
 21
7.602343782266384
 31
0.0
  0
LINE
  5
174
330
6C
100
AcDbEntity
  8
Visible (ANSI)
100
AcDbLine
 10
23.33066103914589
 20
15.22734378226635
 30
0.0
 11
23.2056610391459
 21
15.22734378226635
 31
0.0
  0
LINE
  5
175
330
6C
100
AcDbEntity
  8
Visible (ANSI)
100
AcDbLine
 10
23.205661039146
 20
14.85234378226635
 30
0.0
 11
23.2056610391459
 21
15.22734378226635
 31
0.0
  0
LINE
  5
176
330
6C
100
AcDbEntity
  8
Visible (ANSI)
100
AcDbLine
 10
23.33066103914589
 20
15.22734378226635
 30
0.0
 11
23.33066103914601
 21
14.85234378226635
 31
0.0
  0
LINE
  5
177
330
6C
100
AcDbEntity
  8
Visible (ANSI)
100
AcDbLine
 10
23.205661039146
 20
14.85234378226635
 30
0.0
 11
23.205661039146
 21
7.977343782266386
 31
0.0
  0
LINE
  5
178
330
6C
100
AcDbEntity
  8
Visible (ANSI)
100
AcDbLine
 10
23.33066103914601
 20
7.977343782266385
 30
0.0
 11
23.33066103914601
 21
14.85234378226635
 31
0.0
  0
LINE
  5
179
330
6C
100
AcDbEntity
  8
Visible (ANSI)
100
AcDbLine
 10
29.2056610391459
 20
15.22734378226634
 30
0.0
 11
29.0806610391459
 21
15.22734378226634
 31
0.0
  0
LINE
  5
17A
330
6C
100
AcDbEntity
  8
Visible (ANSI)
100
AcDbLine
 10
29.08066103914601
 20
14.85234378226634
 30
0.0
 11
29.0806610391459
 21
15.22734378226634
 31
0.0
  0
LINE
  5
17B
330
6C
100
AcDbEntity
  8
Visible (ANSI)
100
AcDbLine
 10
29.2056610391459
 20
15.22734378226635
 30
0.0
 11
29.20566103914601
 21
14.85234378226634
 31
0.0
  0
LINE
  5
17C
330
6C
100
AcDbEntity
  8
Visible (ANSI)
100
AcDbLine
 10
29.08066103914601
 20
14.85234378226634
 30
0.0
 11
29.08066103914601
 21
7.977343782266363
 31
0.0
  0
LINE
  5
17D
330
6C
100
AcDbEntity
  8
Visible (ANSI)
100
AcDbLine
 10
29.20566103914601
 20
7.977343782266363
 30
0.0
 11
29.20566103914601
 21
14.85234378226634
 31
0.0
  0
LINE
  5
17E
330
6C
100
AcDbEntity
  8
Visible (ANSI)
100
AcDbLine
 10
29.0806610391459
 20
7.602343782266364
 30
0.0
 11
29.08066103914601
 21
7.977343782266363
 31
0.0
  0
LINE
  5
17F
330
6C
100
AcDbEntity
  8
Visible (ANSI)
100
AcDbLine
 10
29.2056610391459
 20
7.602343782266365
 30
0.0
 11
29.0806610391459
 21
7.602343782266365
 31
0.0
  0
LINE
  5
180
330
6C
100
AcDbEntity
  8
Visible (ANSI)
100
AcDbLine
 10
29.20566103914601
 20
7.977343782266363
 30
0.0
 11
29.2056610391459
 21
7.602343782266364
 31
0.0
  0
MTEXT
  5
181
330
6C
100
AcDbEntity
  8
Symbol (ANSI)
100
AcDbMText
 10
24.41143599732221
 20
4.57475230646763
 30
0.0
 40
0.3200000039548698
 41
0.0
 46
0.0
 71
     7
 72
     1
  1
RIGHT SIDE VIEW
  7
Text Style168
 73
     1
 44
1.0
  0
LINE
  5
182
330
6C
100
AcDbEntity
  8
Symbol (ANSI)
370
    30
100
AcDbLine
 10
24.37943591500652
 20
4.508975968170392
 30
0.0
 11
27.96452495024094
 21
4.508975968170392
 31
0.0
  0
LINE
  5
183
330
6C
100
AcDbEntity
  8
Visible (ANSI)
100
AcDbLine
 10
35.62578570577183
 20
22.10574396705165
 30
0.0
 11
35.58159153194767
 21
22.08029423493963
 31
0.0
  0
LINE
  5
184
330
6C
100
AcDbEntity
  8
Visible (ANSI)
100
AcDbLine
 10
35.57345980396402
 20
22.13587644987228
 30
0.0
 11
35.62578570577183
 21
22.10574396705165
 31
0.0
  0
LINE
  5
185
330
6C
100
AcDbEntity
  8
Visible (ANSI)
100
AcDbLine
 10
35.52926563013986
 20
22.11042671776025
 30
0.0
 11
35.57345980396402
 21
22.13587644987228
 31
0.0
  0
LINE
  5
186
330
6C
100
AcDbEntity
  8
Visible (ANSI)
100
AcDbLine
 10
35.58159153194767
 20
22.08029423493963
 30
0.0
 11
35.52926563013986
 21
22.11042671776025
 31
0.0
  0
LINE
  5
187
330
6C
100
AcDbEntity
  8
Visible (ANSI)
100
AcDbLine
 10
35.62578570577183
 20
22.25903405295963
 30
0.0
 11
35.62578570577183
 21
22.10574396705165
 31
0.0
  0
LINE
  5
188
330
6C
100
AcDbEntity
  8
Visible (ANSI)
100
AcDbLine
 10
35.57345980396402
 20
22.13587644987228
 30
0.0
 11
35.57345980396402
 21
22.23826707155622
 31
0.0
  0
LINE
  5
189
330
6C
100
AcDbEntity
  8
Visible (ANSI)
100
AcDbLine
 10
35.58159153194767
 20
22.2335843208476
 30
0.0
 11
35.62578570577183
 21
22.25903405295963
 31
0.0
  0
LINE
  5
18A
330
6C
100
AcDbEntity
  8
Visible (ANSI)
100
AcDbLine
 10
35.52926563013986
 20
22.26371680366824
 30
0.0
 11
35.58159153194767
 21
22.2335843208476
 31
0.0
  0
LINE
  5
18B
330
6C
100
AcDbEntity
  8
Visible (ANSI)
100
AcDbLine
 10
35.52926563013986
 20
22.11042671776025
 30
0.0
 11
35.52926563013987
 21
19.82047722107629
 31
0.0
  0
LINE
  5
18C
330
6C
100
AcDbEntity
  8
Visible (ANSI)
100
AcDbLine
 10
35.58159153194767
 20
22.08029423493963
 30
0.0
 11
35.58159153194768
 21
19.79034473825567
 31
0.0
  0
LINE
  5
18D
330
6C
100
AcDbEntity
  8
Visible (ANSI)
100
AcDbLine
 10
35.58159153194766
 20
24.5490821651829
 30
0.0
 11
35.58159153194767
 21
22.2335843208476
 31
0.0
  0
LINE
  5
18E
330
6C
100
AcDbEntity
  8
Visible (ANSI)
100
AcDbLine
 10
35.58159153194766
 20
24.5490821651829
 30
0.0
 11
35.52926563013985
 21
24.57921464800352
 31
0.0
  0
LINE
  5
18F
330
6C
100
AcDbEntity
  8
Visible (ANSI)
100
AcDbLine
 10
35.52926563013985
 20
24.57921464800352
 30
0.0
 11
35.52926563013985
 21
22.26371680366824
 31
0.0
  0
LINE
  5
190
330
6C
100
AcDbEntity
  8
Visible (ANSI)
100
AcDbLine
 10
35.54740298192358
 20
24.58965925425307
 30
0.0
 11
35.52926563013985
 21
24.57921464800352
 31
0.0
  0
LINE
  5
191
330
6C
100
AcDbEntity
  8
Visible Narrow (ANSI)
100
AcDbLine
 10
35.52926563013987
 20
19.82047722107629
 30
0.0
 11
35.58159153194768
 21
19.79034473825567
 31
0.0
  0
LINE
  5
192
330
6C
100
AcDbEntity
  8
Visible Narrow (ANSI)
100
AcDbLine
 10
35.58159153194768
 20
19.79034473825567
 30
0.0
 11
39.70972014343438
 21
22.16757590235324
 31
0.0
  0
LINE
  5
193
330
6C
100
AcDbEntity
  8
Visible Narrow (ANSI)
100
AcDbLine
 10
39.71958041545199
 20
22.12225597560612
 30
0.0
 11
35.60368861885976
 21
19.75207152454833
 31
0.0
  0
ELLIPSE
  5
194
330
6C
100
AcDbEntity
  8
Visible (ANSI)
100
AcDbEllipse
 10
35.60368861885977
 20
19.77761987219966
 30
0.0
 11
0.0525231402692643
 21
-0.0912079066542768
 31
0.0
210
0.0
220
0.0
230
1.0
 40
0.5780931159158105
 41
3.92892452540989
 42
5.49972085220485
  0
LINE
  5
195
330
6C
100
AcDbEntity
  8
Visible Narrow (ANSI)
100
AcDbLine
 10
35.60368861885976
 20
19.75207152454833
 30
0.0
 11
35.60368861885976
 21
19.69157303730998
 31
0.0
  0
ELLIPSE
  5
196
330
6C
100
AcDbEntity
  8
Visible (ANSI)
100
AcDbEllipse
 10
35.60368861885977
 20
19.77761987219966
 30
0.0
 11
0.0155947566120144
 21
-0.027080732379536
 31
0.0
210
0.0
220
0.0
230
1.0
 40
0.5780931159158107
 41
3.928924525409804
 42
5.499720852204849
  0
LINE
  5
197
330
6C
100
AcDbEntity
  8
Visible (ANSI)
100
AcDbLine
 10
37.58429471296358
 20
18.61151633021617
 30
0.0
 11
37.62848888678774
 21
18.6369660623282
 31
0.0
  0
LINE
  5
198
330
6C
100
AcDbEntity
  8
Visible (ANSI)
100
AcDbLine
 10
37.58429471296358
 20
18.55101784297782
 30
0.0
 11
37.58429471296358
 21
18.61151633021617
 31
0.0
  0
LINE
  5
199
330
6C
100
AcDbEntity
  8
Visible (ANSI)
100
AcDbLine
 10
37.62848888678774
 20
18.57646757508985
 30
0.0
 11
37.58429471296358
 21
18.55101784297782
 31
0.0
  0
LINE
  5
19A
330
6C
100
AcDbEntity
  8
Visible (ANSI)
100
AcDbLine
 10
37.62848888678774
 20
18.57646757508985
 30
0.0
 11
37.62848888678774
 21
18.6369660623282
 31
0.0
  0
LINE
  5
19B
330
6C
100
AcDbEntity
  8
Visible (ANSI)
100
AcDbLine
 10
37.76107140826024
 20
18.56061686599215
 30
0.0
 11
37.71687723443608
 21
18.53516713388012
 31
0.0
  0
LINE
  5
19C
330
6C
100
AcDbEntity
  8
Visible (ANSI)
100
AcDbLine
 10
37.71687723443608
 20
18.53516713388012
 30
0.0
 11
37.71687723443608
 21
18.47466864664177
 31
0.0
  0
LINE
  5
19D
330
6C
100
AcDbEntity
  8
Visible (ANSI)
100
AcDbLine
 10
37.62848888678774
 20
18.6369660623282
 30
0.0
 11
37.76107140826024
 21
18.56061686599215
 31
0.0
  0
LINE
  5
19E
330
6C
100
AcDbEntity
  8
Visible (ANSI)
100
AcDbLine
 10
37.65334284293242
 20
18.56215513362816
 30
0.0
 11
37.62848888678774
 21
18.57646757508985
 31
0.0
  0
LINE
  5
19F
330
6C
100
AcDbEntity
  8
Visible (ANSI)
100
AcDbLine
 10
37.71687723443608
 20
18.47466864664177
 30
0.0
 11
39.71958041545198
 21
17.32138858625361
 31
0.0
  0
LINE
  5
1A0
330
6C
100
AcDbEntity
  8
Visible (ANSI)
100
AcDbLine
 10
39.71958041545198
 20
17.38188707349195
 30
0.0
 11
39.71958041545198
 21
17.32138858625361
 31
0.0
  0
LINE
  5
1A1
330
6C
100
AcDbEntity
  8
Visible (ANSI)
100
AcDbLine
 10
37.71687723443608
 20
18.53516713388012
 30
0.0
 11
39.71958041545198
 21
17.38188707349195
 31
0.0
  0
LINE
  5
1A2
330
6C
100
AcDbEntity
  8
Visible (ANSI)
100
AcDbLine
 10
35.60368861885976
 20
19.75207152454833
 30
0.0
 11
37.58429471296358
 21
18.61151633021617
 31
0.0
  0
LINE
  5
1A3
330
6C
100
AcDbEntity
  8
Visible (ANSI)
100
AcDbLine
 10
35.60368861885976
 20
19.69157303730998
 30
0.0
 11
37.58429471296358
 21
18.55101784297782
 31
0.0
  0
LINE
  5
1A4
330
6C
100
AcDbEntity
  8
Visible (ANSI)
100
AcDbLine
 10
39.71958041545198
 20
17.32138858625361
 30
0.0
 11
39.73737485273874
 21
17.33163572117765
 31
0.0
  0
LINE
  5
1A5
330
6C
100
AcDbEntity
  8
Visible (ANSI)
100
AcDbLine
 10
40.39062475079807
 20
17.70781731864269
 30
0.0
 11
43.87383275492232
 21
19.71366340478392
 31
0.0
  0
LINE
  5
1A6
330
6C
100
AcDbEntity
  8
Visible (ANSI)
100
AcDbLine
 10
43.87383275492232
 20
19.71389692638101
 30
0.0
 11
43.87383275492232
 21
19.71366340478392
 31
0.0
  0
LINE
  5
1A7
330
6C
100
AcDbEntity
  8
Visible (ANSI)
100
AcDbLine
 10
41.838026755701
 20
25.75316356902815
 30
0.0
 11
41.82693540008229
 21
25.74677648211534
 31
0.0
  0
LINE
  5
1A8
330
6C
100
AcDbEntity
  8
Visible (ANSI)
100
AcDbLine
 10
41.82693540008229
 20
25.74677648211534
 30
0.0
 11
41.6943528786098
 21
25.82312567845139
 31
0.0
  0
LINE
  5
1A9
330
6C
100
AcDbEntity
  8
Visible (ANSI)
100
AcDbLine
 10
41.6943528786098
 20
25.82312567845139
 30
0.0
 11
41.7054442342285
 21
25.8295127653642
 31
0.0
  0
LINE
  5
1AA
330
6C
100
AcDbEntity
  8
Visible (ANSI)
100
AcDbLine
 10
37.71687723443609
 20
23.34182610529862
 30
0.0
 11
37.71687723443609
 21
23.31945290845868
 31
0.0
  0
LINE
  5
1AB
330
6C
100
AcDbEntity
  8
Visible (ANSI)
100
AcDbLine
 10
35.58159153194772
 20
24.54908216518293
 30
0.0
 11
35.58159153194772
 21
24.57145536202284
 31
0.0
  0
LINE
  5
1AC
330
6C
100
AcDbEntity
  8
Visible (ANSI)
100
AcDbLine
 10
35.58159153194772
 20
24.54908216518293
 30
0.0
 11
37.5734167571457
 21
23.40206630293527
 31
0.0
  0
LINE
  5
1AD
330
6C
100
AcDbEntity
  8
Visible (ANSI)
100
AcDbLine
 10
37.71687723443609
 20
23.31945290845868
 30
0.0
 11
39.69748332853988
 21
22.1788977141265
 31
0.0
  0
LINE
  5
1AE
330
6C
100
AcDbEntity
  8
Visible (ANSI)
100
AcDbLine
 10
36.20253619794554
 20
24.96715890400065
 30
0.0
 11
39.70140972422496
 21
26.98202616437698
 31
0.0
  0
LINE
  5
1AF
330
6C
100
AcDbEntity
  8
Visible Narrow (ANSI)
100
AcDbLine
 10
39.69748332853988
 20
22.1788977141265
 30
0.0
 11
39.69748332853988
 21
22.1855449056182
 31
0.0
  0
LINE
  5
1B0
330
6C
100
AcDbEntity
  8
Visible Narrow (ANSI)
100
AcDbLine
 10
39.72526625549925
 20
22.13735024289801
 30
0.0
 11
39.71958041545196
 21
22.14062450041917
 31
0.0
  0
LINE
  5
1B1
330
6C
100
AcDbEntity
  8
Visible Narrow (ANSI)
100
AcDbLine
 10
39.94034720741492
 20
22.37925220776177
 30
0.0
 11
39.9721249324415
 21
22.39755178254902
 31
0.0
  0
LINE
  5
1B2
330
6C
100
AcDbEntity
  8
Visible Narrow (ANSI)
100
AcDbLine
 10
40.27324928183781
 20
22.57095776260053
 30
0.0
 11
43.81766227030644
 21
24.61204945513511
 31
0.0
  0
LINE
  5
1B3
330
6C
100
AcDbEntity
  8
Visible Narrow (ANSI)
100
AcDbLine
 10
43.89205629520073
 20
24.48312859221092
 30
0.0
 11
40.34725615191836
 21
22.44181395204675
 31
0.0
  0
LINE
  5
1B4
330
6C
100
AcDbEntity
  8
Visible Narrow (ANSI)
100
AcDbLine
 10
40.04577969539613
 20
22.26820520698677
 30
0.0
 11
40.01525004132889
 21
22.25062434846512
 31
0.0
  0
ELLIPSE
  5
1B5
330
6C
100
AcDbEntity
  8
Visible (ANSI)
100
AcDbEllipse
 10
39.69748332853988
 20
22.15334936647518
 30
0.0
 11
0.0155947566120102
 21
-0.0270807323795367
 31
0.0
210
0.0
220
0.0
230
1.0
 40
0.5780931159158073
 41
1.731339078850671
 42
2.358128198615409
  0
ELLIPSE
  5
1B6
330
6C
100
AcDbEntity
  8
Visible (ANSI)
100
AcDbEllipse
 10
39.69748332853988
 20
22.15334936647518
 30
0.0
 11
0.0155947566120141
 21
-0.0270807323795397
 31
0.0
210
0.0
220
0.0
230
1.0
 40
0.5780931159158074
 41
0.7873318718203422
 42
1.410493454566529
  0
LINE
  5
1B7
330
6C
100
AcDbEntity
  8
Visible (ANSI)
100
AcDbLine
 10
43.88196448290599
 20
22.18736760733289
 30
0.0
 11
43.89301302636201
 21
22.19373004036088
 31
0.0
  0
LINE
  5
1B8
330
6C
100
AcDbEntity
  8
Visible (ANSI)
100
AcDbLine
 10
43.89301302636201
 20
22.04043995445291
 30
0.0
 11
43.88196448290599
 21
22.03407752142491
 31
0.0
  0
LINE
  5
1B9
330
6C
100
AcDbEntity
  8
Visible (ANSI)
100
AcDbLine
 10
43.88196448290599
 20
22.08497698564894
 30
0.0
 11
43.89301302636201
 21
22.07861455262095
 31
0.0
  0
LINE
  5
1BA
330
6C
100
AcDbEntity
  8
Visible (ANSI)
100
AcDbLine
 10
43.88196448290599
 20
22.03407752142491
 30
0.0
 11
43.88196448290599
 21
22.18736760733289
 31
0.0
  0
LINE
  5
1BB
330
6C
100
AcDbEntity
  8
Visible (ANSI)
100
AcDbLine
 10
39.71958041545196
 20
19.85067500373521
 30
0.0
 11
39.73876068689163
 21
19.8396298199986
 31
0.0
  0
LINE
  5
1BC
330
6C
100
AcDbEntity
  8
Visible (ANSI)
100
AcDbLine
 10
39.71958041545196
 20
17.38188707349196
 30
0.0
 11
39.71958041545196
 21
19.68480797508018
 31
0.0
  0
LINE
  5
1BD
330
6C
100
AcDbEntity
  8
Visible (ANSI)
100
AcDbLine
 10
39.71958041545196
 20
19.85067500373521
 30
0.0
 11
39.71958041545196
 21
22.14062450041917
 31
0.0
  0
LINE
  5
1BE
330
6C
100
AcDbEntity
  8
Visible (ANSI)
100
AcDbLine
 10
43.89167081512495
 20
19.72416918207157
 30
0.0
 11
40.39062475079806
 21
17.70805084023977
 31
0.0
  0
LINE
  5
1BF
330
6C
100
AcDbEntity
  8
Visible (ANSI)
100
AcDbLine
 10
39.71958041545196
 20
17.38188707349196
 30
0.0
 11
39.73876068689165
 21
17.37084188975534
 31
0.0
  0
LINE
  5
1C0
330
6C
100
AcDbEntity
  8
Visible (ANSI)
100
AcDbLine
 10
39.68643478508383
 20
19.74221779564121
 30
0.0
 11
39.73876068689164
 21
19.65158682558224
 31
0.0
  0
LINE
  5
1C1
330
6C
100
AcDbEntity
  8
Visible (ANSI)
100
AcDbLine
 10
39.73876068689164
 20
19.77258380005893
 30
0.0
 11
39.68643478508383
 21
19.74221779564121
 31
0.0
  0
LINE
  5
1C2
330
6C
100
AcDbEntity
  8
Visible (ANSI)
100
AcDbLine
 10
37.72232672975548
 20
18.53830528952428
 30
0.0
 11
37.69478014752397
 21
18.58601729033451
 31
0.0
  0
LINE
  5
1C3
330
6C
100
AcDbEntity
  8
Visible (ANSI)
100
AcDbLine
 10
37.60639179987567
 20
18.53511782611046
 30
0.0
 11
37.69478014752397
 21
18.58601729033451
 31
0.0
  0
LINE
  5
1C4
330
6C
100
AcDbEntity
  8
Visible (ANSI)
100
AcDbLine
 10
37.65871770168348
 20
18.44448685605149
 30
0.0
 11
37.60639179987567
 21
18.53511782611046
 31
0.0
  0
LINE
  5
1C5
330
6C
100
AcDbEntity
  8
Visible (ANSI)
100
AcDbLine
 10
37.71687723443608
 20
18.47797870351092
 30
0.0
 11
37.65871770168348
 21
18.44448685605149
 31
0.0
  0
LINE
  5
1C6
330
6C
100
AcDbEntity
  8
Visible (ANSI)
100
AcDbLine
 10
37.60639179987567
 20
18.53511782611046
 30
0.0
 11
37.55406589806785
 21
18.50475182169274
 31
0.0
  0
LINE
  5
1C7
330
6C
100
AcDbEntity
  8
Visible (ANSI)
100
AcDbLine
 10
37.60639179987565
 20
23.34495194834033
 30
0.0
 11
37.65892046008592
 21
23.37520119195951
 31
0.0
  0
LINE
  5
1C8
330
6C
100
AcDbEntity
  8
Visible (ANSI)
100
AcDbLine
 10
37.55406589806784
 20
23.43558291839931
 30
0.0
 11
37.60639179987565
 21
23.34495194834033
 31
0.0
  0
LINE
  5
1C9
330
6C
100
AcDbEntity
  8
Visible (ANSI)
100
AcDbLine
 10
37.60639179987565
 20
23.34495194834033
 30
0.0
 11
37.65871770168346
 21
23.37531795275805
 31
0.0
  0
LINE
  5
1CA
330
6C
100
AcDbEntity
  8
Visible (ANSI)
100
AcDbLine
 10
39.73876068689164
 20
19.65158682558224
 30
0.0
 11
39.73876068689165
 21
17.34886315507263
 31
0.0
  0
LINE
  5
1CB
330
6C
100
AcDbEntity
  8
Visible (ANSI)
100
AcDbLine
 10
39.73876068689163
 20
22.07530747056855
 30
0.0
 11
39.73876068689164
 21
19.77258380005893
 31
0.0
  0
LINE
  5
1CC
330
6C
100
AcDbEntity
  8
Visible (ANSI)
100
AcDbLine
 10
37.61739753116899
 20
18.57008048817702
 30
0.0
 11
37.64225148731368
 21
18.55576804671533
 31
0.0
  0
LINE
  5
1CD
330
6C
100
AcDbEntity
  8
Visible Narrow (ANSI)
100
AcDbLine
 10
35.61769678995091
 20
19.68350626807776
 30
0.0
 11
35.56241126050801
 21
19.65166944905289
 31
0.0
  0
LINE
  5
1CE
330
6C
100
AcDbEntity
  8
Visible (ANSI)
100
AcDbLine
 10
37.55406589806785
 20
18.50475182169274
 30
0.0
 11
35.56241126050801
 21
19.65166944905289
 31
0.0
  0
LINE
  5
1CF
330
6C
100
AcDbEntity
  8
Visible (ANSI)
100
AcDbLine
 10
39.65037233924333
 20
17.29756922869134
 30
0.0
 11
37.65871770168348
 21
18.44448685605149
 31
0.0
  0
LINE
  5
1D0
330
6C
100
AcDbEntity
  8
Visible Narrow (ANSI)
100
AcDbLine
 10
39.7056578686862
 20
17.3294060477162
 30
0.0
 11
39.65037233924333
 21
17.29756922869134
 31
0.0
  0
LINE
  5
1D1
330
6C
100
AcDbEntity
  8
Visible (ANSI)
100
AcDbLine
 10
35.56241126050798
 20
24.58250054575945
 30
0.0
 11
37.55406589806784
 21
23.43558291839931
 31
0.0
  0
LINE
  5
1D2
330
6C
100
AcDbEntity
  8
Visible (ANSI)
100
AcDbLine
 10
37.65871770168346
 20
23.37531795275805
 30
0.0
 11
39.6503723392433
 21
22.22840032539791
 31
0.0
  0
ELLIPSE
  5
1D3
330
6C
100
AcDbEntity
  8
Visible (ANSI)
100
AcDbEllipse
 10
39.65037233924333
 20
17.39976261929666
 30
0.0
 11
0.0623790264480498
 21
-0.1083229295181454
 31
0.0
210
0.0
220
0.0
230
1.0
 40
0.5780931159158101
 41
5.499720852205022
 42
7.070517178999915
  0
ELLIPSE
  5
1D4
330
6C
100
AcDbEntity
  8
Visible (ANSI)
100
AcDbEllipse
 10
35.56241126050801
 20
19.75386283965821
 30
0.0
 11
-0.0623790264480437
 21
0.1083229295181498
 31
0.0
210
0.0
220
0.0
230
1.0
 40
0.5780931159158101
 41
0.7873318718205376
 42
2.3581281986154
  0
LINE
  5
1D5
330
6C
100
AcDbEntity
  8
Visible Narrow (ANSI)
100
AcDbLine
 10
35.52926563013988
 20
19.83657446902228
 30
0.0
 11
35.47402291285968
 21
19.80476230388224
 31
0.0
  0
LINE
  5
1D6
330
6C
100
AcDbEntity
  8
Visible (ANSI)
100
AcDbLine
 10
35.47402291285968
 20
19.80476230388224
 30
0.0
 11
35.47402291285965
 21
24.53120661937817
 31
0.0
  0
LINE
  5
1D7
330
6C
100
AcDbEntity
  8
Visible (ANSI)
100
AcDbLine
 10
35.56241126050796
 20
22.24462950458423
 30
0.0
 11
35.56241126050796
 21
22.12951401684426
 31
0.0
  0
LINE
  5
1D8
330
6C
100
AcDbEntity
  8
Visible Narrow (ANSI)
100
AcDbLine
 10
35.52926563013985
 20
24.56301878451821
 30
0.0
 11
35.47402291285965
 21
24.53120661937817
 31
0.0
  0
ELLIPSE
  5
1D9
330
6C
100
AcDbEntity
  8
Visible (ANSI)
100
AcDbEllipse
 10
35.56241126050798
 20
24.48030715515414
 30
0.0
 11
-0.06237902644805
 21
0.1083229295181457
 31
0.0
210
0.0
220
0.0
230
1.0
 40
0.5780931159158102
 41
5.499720852205022
 42
7.070517178999915
  0
ELLIPSE
  5
1DA
330
6C
100
AcDbEntity
  8
Visible (ANSI)
100
AcDbEllipse
 10
39.6503723392433
 20
22.12620693479259
 30
0.0
 11
0.0623790264480436
 21
-0.1083229295181498
 31
0.0
210
0.0
220
0.0
230
1.0
 40
0.5780931159158102
 41
0.7873318718205376
 42
2.358128198615402
  0
ELLIPSE
  5
1DB
330
6C
100
AcDbEntity
  8
Visible (ANSI)
100
AcDbEllipse
 10
40.03707136020477
 20
16.72998137941825
 30
0.0
 11
0.1871370793441518
 21
-0.3249687885544406
 31
0.0
210
0.0
220
0.0
230
1.0
 40
0.5780931159158101
 41
5.499720852205022
 42
7.070517178999923
  0
ELLIPSE
  5
1DC
330
6C
100
AcDbEntity
  8
Visible (ANSI)
100
AcDbEllipse
 10
40.12545970785307
 20
16.7808808436423
 30
0.0
 11
0.1871370793441522
 21
-0.324968788554441
 31
0.0
210
0.0
220
0.0
230
1.0
 40
0.5780931159158102
 41
0.0
 42
0.7873318718203306
  0
LINE
  5
1DD
330
6C
100
AcDbEntity
  8
Visible Narrow (ANSI)
100
AcDbLine
 10
40.39062475079806
 20
16.6281824509702
 30
0.0
 11
40.30223640314976
 21
16.57728298674615
 31
0.0
  0
LINE
  5
1DE
330
6C
100
AcDbEntity
  8
Visible (ANSI)
100
AcDbLine
 10
40.03707136020477
 20
16.4234012076023
 30
0.0
 11
35.17571223954656
 21
19.22287173992414
 31
0.0
  0
ELLIPSE
  5
1DF
330
6C
100
AcDbEntity
  8
Visible (ANSI)
100
AcDbEllipse
 10
35.17571223954656
 20
19.52945191174009
 30
0.0
 11
-0.1871370793441316
 21
0.3249687885544505
 31
0.0
210
0.0
220
0.0
230
0.9999999999999998
 40
0.5780931159158102
 41
0.7873318718205758
 42
2.358128198615458
  0
LINE
  5
1E0
330
6C
100
AcDbEntity
  8
Visible (ANSI)
100
AcDbLine
 10
34.91054719660156
 20
19.68215030441219
 30
0.0
 11
34.91054719660154
 21
25.30278678770465
 31
0.0
  0
ELLIPSE
  5
1E1
330
6C
100
AcDbEntity
  8
Visible (ANSI)
100
AcDbEllipse
 10
35.17571223954653
 20
25.15008839503254
 30
0.0
 11
-0.1871370793441511
 21
0.3249687885544393
 31
0.0
210
0.0
220
0.0
230
1.0
 40
0.5780931159158102
 41
5.499720852205022
 42
7.07051717899993
  0
LINE
  5
1E2
330
6C
100
AcDbEntity
  8
Visible Narrow (ANSI)
100
AcDbLine
 10
35.26410058719484
 20
25.50756803107255
 30
0.0
 11
35.17571223954653
 21
25.45666856684849
 31
0.0
  0
ELLIPSE
  5
1E3
330
6C
100
AcDbEntity
  8
Visible (ANSI)
100
AcDbEllipse
 10
35.26410058719484
 20
25.2009878592566
 30
0.0
 11
-0.1871370793441513
 21
0.3249687885544399
 31
0.0
210
0.0
220
0.0
230
0.9999999999999998
 40
0.5780931159158101
 41
5.499720852205022
 42
6.283185307179588
  0
LINE
  5
1E4
330
6C
100
AcDbEntity
  8
Visible (ANSI)
100
AcDbLine
 10
35.17571223954653
 20
25.45666856684849
 30
0.0
 11
40.03707136020474
 21
22.65719803452665
 31
0.0
  0
LINE
  5
1E5
330
6C
100
AcDbEntity
  8
Visible Narrow (ANSI)
100
AcDbLine
 10
40.12545970785304
 20
22.7080974987507
 30
0.0
 11
40.03707136020474
 21
22.65719803452665
 31
0.0
  0
LINE
  5
1E6
330
6C
100
AcDbEntity
  8
Visible (ANSI)
100
AcDbLine
 10
40.12545970785304
 20
22.7080974987507
 30
0.0
 11
35.26410058719484
 21
25.50756803107255
 31
0.0
  0
ELLIPSE
  5
1E7
330
6C
100
AcDbEntity
  8
Visible (ANSI)
100
AcDbEllipse
 10
40.03707136020475
 20
22.3506178627107
 30
0.0
 11
0.1871370793441324
 21
-0.3249687885544517
 31
0.0
210
0.0
220
0.0
230
1.0
 40
0.5780931159158101
 41
0.7873318718205616
 42
2.358128198615457
  0
LINE
  5
1E8
330
6C
100
AcDbEntity
  8
Visible Narrow (ANSI)
100
AcDbLine
 10
40.39062475079804
 20
22.24881893426265
 30
0.0
 11
40.30223640314973
 21
22.1979194700386
 31
0.0
  0
ELLIPSE
  5
1E9
330
6C
100
AcDbEntity
  8
Visible (ANSI)
100
AcDbEllipse
 10
40.12545970785304
 20
22.40151732693475
 30
0.0
 11
-0.1871370793441711
 21
0.3249687885544292
 31
0.0
210
0.0
220
0.0
230
1.0
 40
0.5780931159158104
 41
3.928924525409891
 42
5.499720852204792
  0
LINE
  5
1EA
330
6C
100
AcDbEntity
  8
Visible (ANSI)
100
AcDbLine
 10
40.30223640314973
 20
22.1979194700386
 30
0.0
 11
40.30223640314976
 21
16.57728298674615
 31
0.0
  0
LINE
  5
1EB
330
6C
100
AcDbEntity
  8
Visible (ANSI)
100
AcDbLine
 10
40.39062475079806
 20
16.6281824509702
 30
0.0
 11
40.39062475079804
 21
22.24881893426265
 31
0.0
  0
LINE
  5
1EC
330
6C
100
AcDbEntity
  8
Visible (ANSI)
100
AcDbLine
 10
40.31259678719723
 20
16.45591205508786
 30
0.0
 11
40.22420843954892
 21
16.40501259086381
 31
0.0
  0
LINE
  5
1ED
330
6C
100
AcDbEntity
  8
Visible (ANSI)
100
AcDbLine
 10
35.07696350785069
 20
25.52595664781103
 30
0.0
 11
34.98857516020239
 21
25.47505718358698
 31
0.0
  0
ELLIPSE
  5
1EE
330
6C
100
AcDbEntity
  8
Visible (ANSI)
100
AcDbEllipse
 10
37.69478014752394
 20
23.80125259309568
 30
0.0
 11
0.0701764047540639
 21
-0.1218632957079105
 31
0.0
210
0.0
220
0.0
230
1.0
 40
0.5780931159158099
 41
3.819709301184454
 42
5.605068659584375
  0
ELLIPSE
  5
1EF
330
6C
100
AcDbEntity
  8
Visible (ANSI)
100
AcDbEllipse
 10
37.60639179987564
 20
23.75035312887162
 30
0.0
 11
0.0701764047540567
 21
-0.1218632957079148
 31
0.0
210
0.0
220
0.0
230
1.0
 40
0.5780931159158103
 41
0.0
 42
6.283185307179586
  0
ELLIPSE
  5
1F0
330
6C
100
AcDbEntity
  8
Visible (ANSI)
100
AcDbEllipse
 10
40.12545970785306
 20
19.59119908528852
 30
0.0
 11
0.0701764047540642
 21
-0.121863295707911
 31
0.0
210
0.0
220
0.0
230
1.0
 40
0.5780931159158101
 41
3.819709301184499
 42
5.605068659584375
  0
ELLIPSE
  5
1F1
330
6C
100
AcDbEntity
  8
Visible (ANSI)
100
AcDbEllipse
 10
40.03707136020476
 20
19.54029962106448
 30
0.0
 11
0.0701764047540566
 21
-0.1218632957079147
 31
0.0
210
0.0
220
0.0
230
1.0
 40
0.5780931159158101
 41
0.0
 42
6.283185307179586
  0
ELLIPSE
  5
1F2
330
6C
100
AcDbEntity
  8
Visible (ANSI)
100
AcDbEllipse
 10
37.69478014752397
 20
18.18061610980322
 30
0.0
 11
0.0701764047540642
 21
-0.1218632957079109
 31
0.0
210
0.0
220
0.0
230
1.0
 40
0.5780931159158099
 41
3.819709301184499
 42
5.605068659584375
  0
ELLIPSE
  5
1F3
330
6C
100
AcDbEntity
  8
Visible (ANSI)
100
AcDbEllipse
 10
37.60639179987567
 20
18.12971664557917
 30
0.0
 11
0.0701764047540567
 21
-0.1218632957079148
 31
0.0
210
0.0
220
0.0
230
1.0
 40
0.5780931159158103
 41
0.0
 42
6.283185307179586
  0
ELLIPSE
  5
1F4
330
6C
100
AcDbEntity
  8
Visible (ANSI)
100
AcDbEllipse
 10
35.26410058719485
 20
22.39066961761036
 30
0.0
 11
0.0701764047540642
 21
-0.121863295707911
 31
0.0
210
0.0
220
0.0
230
1.0
 40
0.5780931159158102
 41
3.819709301184499
 42
5.605068659584375
  0
ELLIPSE
  5
1F5
330
6C
100
AcDbEntity
  8
Visible (ANSI)
100
AcDbEllipse
 10
35.17571223954655
 20
22.33977015338632
 30
0.0
 11
0.0701764047540566
 21
-0.1218632957079147
 31
0.0
210
0.0
220
0.0
230
1.0
 40
0.5780931159158101
 41
0.0
 42
6.283185307179586
  0
ELLIPSE
  5
1F6
330
6C
100
AcDbEntity
  8
Visible (ANSI)
100
AcDbEllipse
 10
35.3524889348432
 20
19.63164530234542
 30
0.0
 11
0.0701764047540636
 21
-0.1218632957079099
 31
0.0
210
0.0
220
0.0
230
1.0
 40
0.5780931159158103
 41
3.819709301184452
 42
5.605068659584375
  0
ELLIPSE
  5
1F7
330
6C
100
AcDbEntity
  8
Visible (ANSI)
100
AcDbEllipse
 10
35.26410058719489
 20
19.58074583812138
 30
0.0
 11
0.0701764047540566
 21
-0.1218632957079147
 31
0.0
210
0.0
220
0.0
230
1.0
 40
0.5780931159158102
 41
0.0
 42
6.283185307179586
  0
ELLIPSE
  5
1F8
330
6C
100
AcDbEntity
  8
Visible (ANSI)
100
AcDbEllipse
 10
35.35248893484317
 20
25.04789500442724
 30
0.0
 11
0.0701764047540633
 21
-0.1218632957079095
 31
0.0
210
0.0
220
0.0
230
1.0
 40
0.5780931159158102
 41
3.819709301184389
 42
5.605068659584379
  0
ELLIPSE
  5
1F9
330
6C
100
AcDbEntity
  8
Visible (ANSI)
100
AcDbEllipse
 10
35.26410058719487
 20
24.99699554020319
 30
0.0
 11
0.0701764047540566
 21
-0.1218632957079147
 31
0.0
210
0.0
220
0.0
230
1.0
 40
0.5780931159158102
 41
0.0
 42
6.283185307179586
  0
ELLIPSE
  5
1FA
330
6C
100
AcDbEntity
  8
Visible (ANSI)
100
AcDbEllipse
 10
40.03707136020475
 20
16.93397369847165
 30
0.0
 11
0.0701764047540636
 21
-0.1218632957079099
 31
0.0
210
0.0
220
0.0
230
1.0
 40
0.5780931159158103
 41
3.819709301184452
 42
5.605068659584375
  0
ELLIPSE
  5
1FB
330
6C
100
AcDbEntity
  8
Visible (ANSI)
100
AcDbEllipse
 10
39.94868301255644
 20
16.8830742342476
 30
0.0
 11
0.0701764047540566
 21
-0.1218632957079147
 31
0.0
210
0.0
220
0.0
230
1.0
 40
0.5780931159158102
 41
0.0
 42
6.283185307179586
  0
ELLIPSE
  5
1FC
330
6C
100
AcDbEntity
  8
Visible (ANSI)
100
AcDbEllipse
 10
40.03707136020472
 20
22.35022340055347
 30
0.0
 11
0.0701764047540636
 21
-0.1218632957079099
 31
0.0
210
0.0
220
0.0
230
1.0
 40
0.5780931159158103
 41
3.819709301184452
 42
5.605068659584375
  0
ELLIPSE
  5
1FD
330
6C
100
AcDbEntity
  8
Visible (ANSI)
100
AcDbEllipse
 10
39.94868301255642
 20
22.29932393632942
 30
0.0
 11
0.0701764047540566
 21
-0.1218632957079147
 31
0.0
210
0.0
220
0.0
230
1.0
 40
0.5780931159158102
 41
0.0
 42
6.283185307179586
  0
LINE
  5
1FE
330
6C
100
AcDbEntity
  8
Visible (ANSI)
100
AcDbLine
 10
41.80208144393759
 20
25.76108892357702
 30
0.0
 11
41.8131727995563
 21
25.76747601048984
 31
0.0
  0
LINE
  5
1FF
330
6C
100
AcDbEntity
  8
Visible (ANSI)
100
AcDbLine
 10
41.70831823753819
 20
25.82785773692963
 30
0.0
 11
41.71936678099423
 21
25.80872113007598
 31
0.0
  0
LINE
  5
200
330
6C
100
AcDbEntity
  8
Visible (ANSI)
100
AcDbLine
 10
41.80192149769779
 20
25.76118103049072
 30
0.0
 11
41.81297004115382
 21
25.76759277128837
 31
0.0
  0
LINE
  5
201
330
6C
100
AcDbEntity
  8
Visible (ANSI)
100
AcDbLine
 10
41.81297004115382
 20
25.76759277128837
 30
0.0
 11
43.80462467871367
 21
24.62067514392821
 31
0.0
  0
LINE
  5
202
330
6C
100
AcDbEntity
  8
Visible (ANSI)
100
AcDbLine
 10
39.71666359997835
 20
26.97477536428979
 30
0.0
 11
41.70831823753819
 21
25.82785773692963
 31
0.0
  0
ELLIPSE
  5
203
330
6C
100
AcDbEntity
  8
Visible (ANSI)
100
AcDbEllipse
 10
39.71666359997835
 20
26.87258197368447
 30
0.0
 11
-0.0623790264480504
 21
0.1083229295181466
 31
0.0
210
0.0
220
0.0
230
1.0
 40
0.578093115915811
 41
5.499720852205022
 42
6.893203517671732
  0
ELLIPSE
  5
204
330
6C
100
AcDbEntity
  8
Visible (ANSI)
100
AcDbEllipse
 10
43.80462467871367
 20
24.51848175332289
 30
0.0
 11
0.0623790264480437
 21
-0.1083229295181499
 31
0.0
210
0.0
220
0.0
230
1.0
 40
0.5780931159158108
 41
0.7873318718205376
 42
2.358128198615402
  0
LINE
  5
205
330
6C
100
AcDbEntity
  8
Visible (ANSI)
100
AcDbLine
 10
43.89301302636201
 20
24.46758228909886
 30
0.0
 11
43.893013026362
 21
19.74113797360294
 31
0.0
  0
ELLIPSE
  5
206
330
6C
100
AcDbEntity
  8
Visible (ANSI)
100
AcDbEllipse
 10
43.80462467871367
 20
19.79203743782697
 30
0.0
 11
0.0623790264480498
 21
-0.1083229295181455
 31
0.0
210
0.0
220
0.0
230
0.9999999999999998
 40
0.578093115915811
 41
5.673167096687285
 42
7.070517178999915
  0
ELLIPSE
  5
207
330
6C
100
AcDbEntity
  8
Visible (ANSI)
100
AcDbEllipse
 10
39.3299645790169
 20
27.54236321356288
 30
0.0
 11
-0.1871370793441519
 21
0.324968788554441
 31
0.0
210
0.0
220
0.0
230
0.9999999999999998
 40
0.5780931159158107
 41
5.499720852205022
 42
7.070517178999917
  0
LINE
  5
208
330
6C
100
AcDbEntity
  8
Visible Narrow (ANSI)
100
AcDbLine
 10
39.41835292666521
 20
27.89984284960288
 30
0.0
 11
39.3299645790169
 21
27.84894338537883
 31
0.0
  0
ELLIPSE
  5
209
330
6C
100
AcDbEntity
  8
Visible (ANSI)
100
AcDbEllipse
 10
39.41835292666521
 20
27.59326267778693
 30
0.0
 11
-0.1871370793441512
 21
0.3249687885544397
 31
0.0
210
0.0
220
0.0
230
0.9999999999999998
 40
0.5780931159158107
 41
5.499720852205022
 42
6.283185307179588
  0
LINE
  5
20A
330
6C
100
AcDbEntity
  8
Visible (ANSI)
100
AcDbLine
 10
39.3299645790169
 20
27.84894338537883
 30
0.0
 11
44.19132369967512
 21
25.04947285305695
 31
0.0
  0
LINE
  5
20B
330
6C
100
AcDbEntity
  8
Visible Narrow (ANSI)
100
AcDbLine
 10
44.27971204732343
 20
25.100372317281
 30
0.0
 11
44.19132369967512
 21
25.04947285305695
 31
0.0
  0
LINE
  5
20C
330
6C
100
AcDbEntity
  8
Visible (ANSI)
100
AcDbLine
 10
44.27971204732343
 20
25.100372317281
 30
0.0
 11
39.41835292666521
 21
27.89984284960288
 31
0.0
  0
ELLIPSE
  5
20D
330
6C
100
AcDbEntity
  8
Visible (ANSI)
100
AcDbEllipse
 10
44.19132369967512
 20
24.74289268124101
 30
0.0
 11
0.1871370793441318
 21
-0.324968788554451
 31
0.0
210
0.0
220
0.0
230
0.9999999999999998
 40
0.5780931159158107
 41
0.7873318718205633
 42
2.358128198615458
  0
LINE
  5
20E
330
6C
100
AcDbEntity
  8
Visible Narrow (ANSI)
100
AcDbLine
 10
44.54487709026841
 20
24.64109375279296
 30
0.0
 11
44.45648874262011
 21
24.5901942885689
 31
0.0
  0
ELLIPSE
  5
20F
330
6C
100
AcDbEntity
  8
Visible (ANSI)
100
AcDbEllipse
 10
44.27971204732343
 20
24.79379214546506
 30
0.0
 11
-0.1871370793441707
 21
0.3249687885544286
 31
0.0
210
0.0
220
0.0
230
1.0
 40
0.5780931159158107
 41
3.928924525409891
 42
5.499720852204793
  0
LINE
  5
210
330
6C
100
AcDbEntity
  8
Visible (ANSI)
100
AcDbLine
 10
44.45648874262011
 20
24.5901942885689
 30
0.0
 11
44.45648874262011
 21
18.96955780527645
 31
0.0
  0
LINE
  5
211
330
6C
100
AcDbEntity
  8
Visible Narrow (ANSI)
100
AcDbLine
 10
44.54487709026841
 20
19.02045726950051
 30
0.0
 11
44.45648874262011
 21
18.96955780527645
 31
0.0
  0
LINE
  5
212
330
6C
100
AcDbEntity
  8
Visible (ANSI)
100
AcDbLine
 10
44.54487709026841
 20
19.02045726950051
 30
0.0
 11
44.54487709026841
 21
24.64109375279296
 31
0.0
  0
ELLIPSE
  5
213
330
6C
100
AcDbEntity
  8
Visible (ANSI)
100
AcDbEllipse
 10
44.19132369967512
 20
19.12225619794856
 30
0.0
 11
0.1871370793441512
 21
-0.3249687885544397
 31
0.0
210
0.0
220
0.0
230
0.9999999999999998
 40
0.5780931159158108
 41
5.499720852205022
 42
7.070517178999917
  0
ELLIPSE
  5
214
330
6C
100
AcDbEntity
  8
Visible (ANSI)
100
AcDbEllipse
 10
44.27971204732343
 20
19.17315566217261
 30
0.0
 11
0.1871370793441515
 21
-0.3249687885544398
 31
0.0
210
0.0
220
0.0
230
1.0
 40
0.5780931159158108
 41
0.0
 42
0.7873318718203155
  0
LINE
  5
215
330
6C
100
AcDbEntity
  8
Visible (ANSI)
100
AcDbLine
 10
44.19132369967512
 20
18.81567602613261
 30
0.0
 11
43.25288808892443
 21
19.35608515320453
 31
0.0
  0
LINE
  5
216
330
6C
100
AcDbEntity
  8
Visible (ANSI)
100
AcDbLine
 10
39.06479953607191
 20
26.61542673856248
 30
0.0
 11
39.06479953607191
 21
27.69506160623498
 31
0.0
  0
LINE
  5
217
330
6C
100
AcDbEntity
  8
Visible (ANSI)
100
AcDbLine
 10
39.23121584732106
 20
27.91823146634137
 30
0.0
 11
39.14282749967276
 21
27.86733200211732
 31
0.0
  0
LINE
  5
218
330
6C
100
AcDbEntity
  8
Visible (ANSI)
100
AcDbLine
 10
44.46684912666758
 20
18.84818687361817
 30
0.0
 11
44.37846077901927
 21
18.79728740939412
 31
0.0
  0
ELLIPSE
  5
219
330
6C
100
AcDbEntity
  8
Visible (ANSI)
100
AcDbEllipse
 10
41.84903248699431
 20
26.19352741162599
 30
0.0
 11
0.0701764047540639
 21
-0.1218632957079103
 31
0.0
210
0.0
220
0.0
230
1.0
 40
0.5780931159158108
 41
3.819709301184452
 42
5.605068659584375
  0
ELLIPSE
  5
21A
330
6C
100
AcDbEntity
  8
Visible (ANSI)
100
AcDbEllipse
 10
41.760644139346
 20
26.14262794740194
 30
0.0
 11
-0.0701764047540568
 21
0.121863295707915
 31
0.0
210
0.0
220
0.0
230
0.9999999999999998
 40
0.5780931159158108
 41
0.0
 42
6.283185307179586
  0
ELLIPSE
  5
21B
330
6C
100
AcDbEntity
  8
Visible (ANSI)
100
AcDbEllipse
 10
44.27971204732343
 20
21.98347390381883
 30
0.0
 11
0.0701764047540639
 21
-0.1218632957079105
 31
0.0
210
0.0
220
0.0
230
1.0
 40
0.578093115915811
 41
3.819709301184452
 42
5.605068659584377
  0
ELLIPSE
  5
21C
330
6C
100
AcDbEntity
  8
Visible (ANSI)
100
AcDbEllipse
 10
44.19132369967512
 20
21.93257443959478
 30
0.0
 11
-0.0701764047540567
 21
0.1218632957079148
 31
0.0
210
0.0
220
0.0
230
1.0
 40
0.578093115915811
 41
0.0
 42
6.283185307179586
  0
ELLIPSE
  5
21D
330
6C
100
AcDbEntity
  8
Visible (ANSI)
100
AcDbEllipse
 10
44.1913236996751
 20
24.74249821908378
 30
0.0
 11
0.0701764047540642
 21
-0.1218632957079111
 31
0.0
210
0.0
220
0.0
230
1.0
 40
0.578093115915811
 41
3.819709301184499
 42
5.605068659584377
  0
ELLIPSE
  5
21E
330
6C
100
AcDbEntity
  8
Visible (ANSI)
100
AcDbEllipse
 10
44.10293535202678
 20
24.69159875485972
 30
0.0
 11
-0.0701764047540567
 21
0.1218632957079149
 31
0.0
210
0.0
220
0.0
230
1.0
 40
0.5780931159158108
 41
0.0
 42
6.283185307179586
  0
ELLIPSE
  5
21F
330
6C
100
AcDbEntity
  8
Visible (ANSI)
100
AcDbEllipse
 10
44.19132369967509
 20
19.32624851700196
 30
0.0
 11
0.0701764047540639
 21
-0.1218632957079106
 31
0.0
210
0.0
220
0.0
230
0.9999999999999998
 40
0.5780931159158108
 41
3.819709301184499
 42
5.605068659584377
  0
ELLIPSE
  5
220
330
6C
100
AcDbEntity
  8
Visible (ANSI)
100
AcDbEllipse
 10
44.10293535202678
 20
19.27534905277791
 30
0.0
 11
-0.0701764047540567
 21
0.1218632957079149
 31
0.0
210
0.0
220
0.0
230
1.0
 40
0.5780931159158108
 41
0.0
 42
6.283185307179586
  0
ELLIPSE
  5
221
330
6C
100
AcDbEntity
  8
Visible (ANSI)
100
AcDbEllipse
 10
39.50674127431354
 20
27.44016982295758
 30
0.0
 11
0.0701764047540636
 21
-0.12186329570791
 31
0.0
210
0.0
220
0.0
230
1.0
 40
0.578093115915811
 41
3.819709301184389
 42
5.605068659584376
  0
ELLIPSE
  5
222
330
6C
100
AcDbEntity
  8
Visible (ANSI)
100
AcDbEllipse
 10
39.41835292666524
 20
27.38927035873353
 30
0.0
 11
-0.0701764047540567
 21
0.1218632957079149
 31
0.0
210
0.0
220
0.0
230
1.0
 40
0.5780931159158108
 41
0.0
 42
6.283185307179586
  0
MTEXT
  5
223
330
6C
100
AcDbEntity
  8
Symbol (ANSI)
100
AcDbMText
 10
39.62463273119493
 20
14.76708077739803
 30
0.0
 40
0.4799999902880411
 41
0.0
 46
0.0
 71
     7
 72
     1
  1
 
  7
Label Text (ANSI)
 73
     1
 44
1.0
  0
DIMENSION
  5
224
330
6C
100
AcDbEntity
  8
Dimension (ANSI)
100
AcDbDimension
280
     0
  2
*D4
 10
29.20566103914601
 20
6.597696954393747
 30
0.0
 11
26.20566103914491
 21
6.597696954393747
 31
0.0
 70
   160
  1
<>{\PLENGTH}
 71
     5
 42
6.000000000002206
 73
     0
 74
     0
 75
     0
  3
Default (ANSI)
100
AcDbAlignedDimension
 13
23.20566103914381
 23
7.602343782266347
 33
0.0
 14
29.20566103914601
 24
7.977343782266363
 34
0.0
 50
180.0
100
AcDbRotatedDimension
1001
ACAD
1000
DSTYLE
1002
{
1070
   289
1070
     1
1070
    73
1070
     0
1070
    74
1070
     0
1070
   271
1070
     2
1070
   272
1070
     2
1070
    48
1040
0.0
1070
    47
1040
0.0
1002
}
  0
LINE
  5
325
330
6C
100
AcDbEntity
  8
Centerline (ANSI)
  6
CHAIN
 48
0.9524481296539306
100
AcDbLine
 10
12.91028949337831
 20
11.41484378226637
 30
0.0
 11
5.368622826711674
 21
11.41484378226633
 31
0.0
  0
LINE
  5
326
330
6C
100
AcDbEntity
  8
Centerline (ANSI)
  6
CHAIN
 48
0.9524481296539306
100
AcDbLine
 10
9.139456160044971
 20
15.18567711559967
 30
0.0
 11
9.139456160045012
 21
7.644010448933034
 31
0.0
  0
DIMENSION
  5
327
330
6C
100
AcDbEntity
  8
Dimension (ANSI)
100
AcDbDimension
280
     0
  2
*D5
 10
4.022166133802868
 20
20.88609018481102
 30
0.0
 11
4.022166133802866
 21
23.76109018481326
 31
0.0
 70
   160
  1
<>
 42
5.750000000002213
 73
     0
 74
     0
 75
     0
  3
Default (ANSI)
100
AcDbAlignedDimension
 13
5.326956160049546
 23
26.63609018481324
 33
0.0
 14
5.701956160049563
 24
20.88609018481102
 34
0.0
 50
90.0
100
AcDbRotatedDimension
1001
ACAD
1000
DSTYLE
1002
{
1070
   289
1070
     1
1070
   271
1070
     2
1070
   272
1070
     2
1070
    48
1040
0.0
1070
    47
1040
0.0
1002
}
  0
LINE
  5
411
330
6C
100
AcDbEntity
  8
Center Mark (ANSI)
  6
CHAIN
 48
0.1973718851804733
100
AcDbLine
 10
12.92591449337833
 20
8.102343782266386
 30
0.0
 11
11.97799782671166
 21
8.10234378226638
 31
0.0
  0
LINE
  5
412
330
6C
100
AcDbEntity
  8
Center Mark (ANSI)
  6
CHAIN
 48
0.1973718851804733
100
AcDbLine
 10
5.352997826711693
 20
8.102343782266345
 30
0.0
 11
6.300914493378359
 21
8.10234378226635
 31
0.0
  0
LINE
  5
413
330
6C
100
AcDbEntity
  8
Centerline (ANSI)
  6
CHAIN
 48
0.9524481296539306
100
AcDbLine
 10
12.92591449337833
 20
8.102343782266386
 30
0.0
 11
5.352997826711693
 21
8.102343782266345
 31
0.0
  0
LINE
  5
414
330
6C
100
AcDbEntity
  8
Center Mark (ANSI)
  6
CHAIN
 48
0.1973718851804733
100
AcDbLine
 10
5.826956160044985
 20
15.20130211559965
 30
0.0
 11
5.82695616004499
 21
14.25338544893298
 31
0.0
  0
LINE
  5
415
330
6C
100
AcDbEntity
  8
Centerline (ANSI)
  6
CHAIN
 48
0.9524481296539306
100
AcDbLine
 10
5.826956160045028
 20
7.628385448933014
 30
0.0
 11
5.826956160044985
 21
15.20130211559965
 31
0.0
  0
LINE
  5
416
330
6C
100
AcDbEntity
  8
Center Mark (ANSI)
  6
CHAIN
 48
0.1973718851804733
100
AcDbLine
 10
12.92591449337829
 20
14.72734378226635
 30
0.0
 11
11.97799782671163
 21
14.72734378226635
 31
0.0
  0
LINE
  5
417
330
6C
100
AcDbEntity
  8
Centerline (ANSI)
  6
CHAIN
 48
0.9524481296539306
100
AcDbLine
 10
5.352997826711654
 20
14.72734378226632
 30
0.0
 11
12.92591449337829
 21
14.72734378226635
 31
0.0
  0
LINE
  5
418
330
6C
100
AcDbEntity
  8
Centerline (ANSI)
  6
CHAIN
 48
0.9524481296539306
100
AcDbLine
 10
12.45195616004496
 20
15.20130211559968
 30
0.0
 11
12.451956160045
 21
7.628385448933049
 31
0.0
  0
LINE
  5
419
330
6C
100
AcDbEntity
  8
Center Mark (ANSI)
  6
CHAIN
 48
0.1973718851804733
100
AcDbLine
 10
13.05091449337831
 20
11.41484378226637
 30
0.0
 11
12.10299782671165
 21
11.41484378226637
 31
0.0
  0
LINE
  5
41A
330
6C
100
AcDbEntity
  8
Center Mark (ANSI)
  6
CHAIN
 48
0.1973718851804733
100
AcDbLine
 10
12.57695616004498
 20
11.8888021155997
 30
0.0
 11
12.57695616004498
 21
10.94088544893303
 31
0.0
  0
LINE
  5
41B
330
6C
100
AcDbEntity
  8
Center Mark (ANSI)
  6
CHAIN
 48
0.1973718851804733
100
AcDbLine
 10
9.613414493378343
 20
7.977343782266365
 30
0.0
 11
8.665497826711678
 21
7.977343782266365
 31
0.0
  0
LINE
  5
41C
330
6C
100
AcDbEntity
  8
Center Mark (ANSI)
  6
CHAIN
 48
0.1973718851804733
100
AcDbLine
 10
9.139456160045011
 20
8.451302115599698
 30
0.0
 11
9.139456160045011
 21
7.503385448933032
 31
0.0
  0
LINE
  5
41D
330
6C
100
AcDbEntity
  8
Center Mark (ANSI)
  6
CHAIN
 48
0.1973718851804733
100
AcDbLine
 10
6.175914493378338
 20
11.41484378226633
 30
0.0
 11
5.227997826711672
 21
11.41484378226633
 31
0.0
  0
LINE
  5
41E
330
6C
100
AcDbEntity
  8
Center Mark (ANSI)
  6
CHAIN
 48
0.1973718851804733
100
AcDbLine
 10
5.701956160045005
 20
11.88880211559966
 30
0.0
 11
5.701956160045005
 21
10.94088544893299
 31
0.0
  0
LINE
  5
41F
330
6C
100
AcDbEntity
  8
Center Mark (ANSI)
  6
CHAIN
 48
0.1973718851804733
100
AcDbLine
 10
9.613414493378305
 20
14.85234378226633
 30
0.0
 11
8.665497826711641
 21
14.85234378226633
 31
0.0
  0
LINE
  5
420
330
6C
100
AcDbEntity
  8
Center Mark (ANSI)
  6
CHAIN
 48
0.1973718851804733
100
AcDbLine
 10
9.139456160044973
 20
15.32630211559967
 30
0.0
 11
9.139456160044973
 21
14.378385448933
 31
0.0
  0
DIMENSION
  5
421
330
6C
100
AcDbEntity
  8
Dimension (ANSI)
100
AcDbDimension
280
     0
  2
*D6
 10
14.74744133764915
 20
26.63609018481324
 30
0.0
 11
14.76330924082855
 21
25.78942630291129
 31
0.0
 70
   160
  1
 10 GA.\P304 S.S.\P(2 PL.)
 71
     5
 42
0.1250000000000035
 73
     0
 74
     0
 75
     0
  3
Default (ANSI)
100
AcDbAlignedDimension
 13
12.95195616004952
 23
26.76109018481324
 33
0.0
 14
12.95195616004952
 24
26.63609018481324
 34
0.0
 50
90.0
100
AcDbRotatedDimension
1001
ACAD
1000
DSTYLE
1002
{
1070
   289
1070
     1
1070
   279
1070
     1
1070
   271
1070
     2
1070
   272
1070
     2
1070
    48
1040
0.0
1070
    47
1040
0.0
1002
}
  0
MTEXT
  5
539
102
{ACAD_XDICTIONARY
360
14CD
102
}
330
6C
100
AcDbEntity
  8
Symbol (ANSI)
100
AcDbMText
 10
14.82647337074634
 20
24.11354173926885
 30
0.0
 40
0.2666666751771461
 41
26.33551026979212
 46
0.0
 71
     1
 72
     1
  3
{\fRomanS|b0|i0|c0|p2;\H1.95x;PART#: SSJWN666\P(DATA SUBJECT TO CHANGE WITHOUT NOTICE)\H1.8771x; \H0.53273x;\P\H0.51288x; \H2.4637x; \H0.40589x;\PTHIS DRAWING IS PROPERTY OF hUBBELL INC. WEIGMANN\H1.6952x; \H0.5899x;\PALL INFORMATION IS PROPRIETARY A
  1
ND NOT TO BE DUPLICATED\H1.588x; \H0.62972x;\P\H1.5731x; }
  7
Note Text (ANSI)
 73
     1
 44
0.6453872919082642
  0
DIMENSION
  5
53B
330
6C
100
AcDbEntity
  8
Dimension (ANSI)
100
AcDbDimension
280
     0
  2
*D7
 10
14.08327073057039
 20
11.41484378226637
 30
0.0
 11
14.08327073057039
 21
9.758593782266384
 31
0.0
 70
   160
  1
(<>)
 42
3.312499999999985
 73
     0
 74
     0
 75
     0
  3
Default (ANSI)
100
AcDbAlignedDimension
 13
12.92591449337833
 23
8.102343782266386
 33
0.0
 14
12.91028949337831
 24
11.41484378226637
 34
0.0
 50
90.0
100
AcDbRotatedDimension
1001
ACAD
1000
DSTYLE
1002
{
1070
   289
1070
     1
1070
   271
1070
     2
1070
   147
1040
0.031496062992126
1070
    72
1070
     0
1070
    71
1070
     0
1070
   272
1070
     2
1070
    48
1040
0.0
1070
    47
1040
0.0
1002
}
  0
DIMENSION
  5
62F
330
6C
100
AcDbEntity
  8
Dimension (ANSI)
100
AcDbDimension
280
     0
  2
*D8
 10
15.37189889887068
 20
8.102343782266382
 30
0.0
 11
15.37189889887068
 21
11.41484378226638
 31
0.0
 70
   160
  1
(<>)
 42
6.624999999999973
 73
     0
 74
     0
 75
     0
  3
Default (ANSI)
100
AcDbAlignedDimension
 13
12.92591449337829
 23
14.72734378226635
 33
0.0
 14
12.92591449337833
 24
8.102343782266382
 34
0.0
 50
90.0
100
AcDbRotatedDimension
1001
ACAD
1000
DSTYLE
1002
{
1070
   289
1070
     1
1070
   271
1070
     2
1070
   147
1040
0.031496062992126
1070
    72
1070
     0
1070
    71
1070
     0
1070
   272
1070
     2
1070
    48
1040
0.0
1070
    47
1040
0.0
1002
}
  0
DIMENSION
  5
723
330
6C
100
AcDbEntity
  8
Dimension (ANSI)
100
AcDbDimension
280
     0
  2
*D9
 10
9.139456160044971
 20
15.8125298783455
 30
0.0
 11
7.483206160044979
 21
15.8125298783455
 31
0.0
 70
   160
  1
(<>)
 42
3.312499999999986
 73
     0
 74
     0
 75
     0
  3
Default (ANSI)
100
AcDbAlignedDimension
 13
5.826956160044985
 23
15.20130211559965
 33
0.0
 14
9.139456160044971
 24
15.18567711559967
 34
0.0
 50
180.0
100
AcDbRotatedDimension
1001
ACAD
1000
DSTYLE
1002
{
1070
   289
1070
     1
1070
    73
1070
     0
1070
    74
1070
     0
1070
   271
1070
     2
1070
   147
1040
0.031496062992126
1070
    72
1070
     0
1070
    71
1070
     0
1070
   272
1070
     2
1070
    48
1040
0.0
1070
    47
1040
0.0
1002
}
  0
DIMENSION
  5
817
330
6C
100
AcDbEntity
  8
Dimension (ANSI)
100
AcDbDimension
280
     0
  2
*D10
 10
12.45195616004496
 20
16.58006674362256
 30
0.0
 11
9.139456160044963
 21
16.58006674362256
 31
0.0
 70
   160
  1
(<>)
 42
6.624999999999971
 73
     0
 74
     0
 75
     0
  3
Default (ANSI)
100
AcDbAlignedDimension
 13
5.826956160044987
 23
15.20130211559965
 33
0.0
 14
12.45195616004496
 24
15.20130211559968
 34
0.0
 50
180.0
100
AcDbRotatedDimension
1001
ACAD
1000
DSTYLE
1002
{
1070
   289
1070
     1
1070
    73
1070
     0
1070
    74
1070
     0
1070
   271
1070
     2
1070
   147
1040
0.031496062992126
1070
    72
1070
     0
1070
    71
1070
     0
1070
   272
1070
     2
1070
    48
1040
0.0
1070
    47
1040
0.0
1002
}
  0
DIMENSION
  5
90B
330
6C
100
AcDbEntity
  8
Dimension (ANSI)
100
AcDbDimension
280
     0
  2
*D11
 10
10.54428667024298
 20
8.488843782266364
 30
0.0
 11
10.54428667024297
 21
12.19823346488466
 31
0.0
 70
   160
  1
(<>){\POPENING}
 71
     5
 42
5.852
 73
     0
 74
     0
 75
     0
  3
Default (ANSI)
100
AcDbAlignedDimension
 13
10.84285679681144
 23
14.34084378226636
 33
0.0
 14
10.8428567968114
 24
8.488843782266364
 34
0.0
 50
270.0
100
AcDbRotatedDimension
1001
ACAD
1000
DSTYLE
1002
{
1070
   289
1070
     1
1070
   271
1070
     2
1070
    76
1070
     1
1070
    75
1070
     1
1070
   147
1040
0.031496062992126
1070
    72
1070
     0
1070
    71
1070
     0
1070
   272
1070
     2
1070
    48
1040
0.0
1070
    47
1040
0.0
1002
}
  0
DIMENSION
  5
A04
330
6C
100
AcDbEntity
  8
Dimension (ANSI)
100
AcDbDimension
280
     0
  2
*D12
 10
12.065456160045
 20
10.35951163414373
 30
0.0
 11
7.98860261239531
 21
10.35951163414373
 31
0.0
 70
   160
  1
(<>){\POPENING}
 71
     5
 42
5.851999999999988
 73
     0
 74
     0
 75
     0
  3
Default (ANSI)
100
AcDbAlignedDimension
 13
6.213456160045013
 23
10.0371851659587
 33
0.0
 14
12.065456160045
 24
10.03718516595872
 34
0.0
 50
180.0
100
AcDbRotatedDimension
1001
ACAD
1000
DSTYLE
1002
{
1070
   289
1070
     1
1070
    73
1070
     0
1070
    74
1070
     0
1070
   271
1070
     2
1070
    76
1070
     1
1070
    75
1070
     1
1070
   147
1040
0.031496062992126
1070
    72
1070
     0
1070
    71
1070
     0
1070
   272
1070
     2
1070
    48
1040
0.0
1070
    47
1040
0.0
1002
}
  0
DIMENSION
  5
AFD
330
6C
100
AcDbEntity
  8
Dimension (ANSI)
100
AcDbDimension
280
     0
  2
*D13
 10
9.797829977313949
 20
14.34084378226637
 30
0.0
 11
10.54428667024297
 21
15.68410462977472
 31
0.0
 70
   160
  1
<>
 42
0.8864999999999714
 73
     0
 74
     0
 75
     0
  3
Default (ANSI)
100
AcDbAlignedDimension
 13
10.54428667024297
 23
15.22734378226634
 33
0.0
 14
10.54428667024297
 24
14.34084378226637
 34
0.0
 50
270.0
100
AcDbRotatedDimension
1001
ACAD
1000
DSTYLE
1002
{
1070
   289
1070
     2
1070
   271
1070
     2
1070
    76
1070
     1
1070
    75
1070
     1
1070
   272
1070
     2
1070
    48
1040
0.0
1070
    47
1040
0.0
1002
}
  0
DIMENSION
  5
BF4
330
6C
100
AcDbEntity
  8
Dimension (ANSI)
100
AcDbDimension
280
     0
  2
*D14
 10
6.213456160045011
 20
10.35951163414373
 30
0.0
 11
4.391760779736518
 21
10.35951163414373
 31
0.0
 70
   160
  1
<>
 42
0.8864999999999971
 73
     0
 74
     0
 75
     0
  3
Default (ANSI)
100
AcDbAlignedDimension
 13
5.326956160045014
 23
10.35951163414372
 33
0.0
 14
6.213456160045011
 24
10.35951163414373
 34
0.0
100
AcDbRotatedDimension
1001
ACAD
1000
DSTYLE
1002
{
1070
   289
1070
     2
1070
    73
1070
     0
1070
    74
1070
     0
1070
   271
1070
     2
1070
    76
1070
     1
1070
    75
1070
     1
1070
   272
1070
     2
1070
    48
1040
0.0
1070
    47
1040
0.0
1002
}
  0
DIMENSION
  5
CD3
330
6C
100
AcDbEntity
  8
Dimension (ANSI)
100
AcDbDimension
280
     0
  2
*D15
 10
16.18473094604076
 20
15.22734378226635
 30
0.0
 11
16.18473094604076
 21
12.24907848719148
 31
0.0
 70
   160
  1
(<>)
 42
7.624999999999968
 73
     0
 74
     0
 75
     0
  3
Default (ANSI)
100
AcDbAlignedDimension
 13
12.576956160045
 23
7.602343782266386
 33
0.0
 14
12.57695616004496
 24
15.22734378226635
 34
0.0
 50
90.0
100
AcDbRotatedDimension
1001
ACAD
1000
DSTYLE
1002
{
1070
   289
1070
     1
1070
   271
1070
     2
1070
   147
1040
0.031496062992126
1070
    72
1070
     0
1070
    71
1070
     0
1070
   272
1070
     2
1070
    48
1040
0.0
1070
    47
1040
0.0
1002
}
  0
DIMENSION
  5
DC7
330
6C
100
AcDbEntity
  8
Dimension (ANSI)
100
AcDbDimension
280
     0
  2
*D16
 10
12.95195616004496
 20
17.36561911499585
 30
0.0
 11
9.139456160044959
 21
17.36561911499585
 31
0.0
 70
   160
  1
(<>)
 42
7.624999999999968
 73
     0
 74
     0
 75
     0
  3
Default (ANSI)
100
AcDbAlignedDimension
 13
5.326956160044989
 23
14.85234378226631
 33
0.0
 14
12.95195616004496
 24
14.85234378226636
 34
0.0
100
AcDbRotatedDimension
1001
ACAD
1000
DSTYLE
1002
{
1070
   289
1070
     1
1070
    73
1070
     0
1070
    74
1070
     0
1070
   271
1070
     2
1070
   147
1040
0.031496062992126
1070
    72
1070
     0
1070
    71
1070
     0
1070
   272
1070
     2
1070
    48
1040
0.0
1070
    47
1040
0.0
1002
}
  0
DIMENSION
  5
EBB
330
6C
100
AcDbEntity
  8
Dimension (ANSI)
100
AcDbDimension
280
     0
  2
*D17
 10
5.826956160045028
 20
15.8125298783455
 30
0.0
 11
3.854213693881893
 21
15.8125298783455
 31
0.0
 70
   160
  1
(<>){\PTYP.}
 71
     5
 42
0.5000000000000009
 73
     0
 74
     0
 75
     0
  3
Default (ANSI)
100
AcDbAlignedDimension
 13
5.326956160045027
 23
14.85234378226631
 33
0.0
 14
5.826956160045028
 24
15.20130211559965
 34
0.0
100
AcDbRotatedDimension
1001
ACAD
1000
DSTYLE
1002
{
1070
   289
1070
     1
1070
    73
1070
     0
1070
    74
1070
     0
1070
   271
1070
     2
1070
   147
1040
0.031496062992126
1070
    72
1070
     0
1070
    71
1070
     0
1070
   272
1070
     2
1070
    48
1040
0.0
1070
    47
1040
0.0
1002
}
  0
DIMENSION
  5
FC3
330
6C
100
AcDbEntity
  8
Dimension (ANSI)
100
AcDbDimension
280
     0
  2
*D18
 10
15.00115599748247
 20
8.102343782266345
 30
0.0
 11
14.08327073057038
 21
6.473051817308718
 31
0.0
 70
   160
  1
(<>){\PTYP.}
 71
     5
 42
0.4999999999999965
 73
     0
 74
     0
 75
     0
  3
Default (ANSI)
100
AcDbAlignedDimension
 13
12.576956160045
 23
7.602343782266349
 33
0.0
 14
6.300914493378359
 24
8.102343782266347
 34
0.0
 50
90.0
100
AcDbRotatedDimension
1001
ACAD
1000
DSTYLE
1002
{
1070
   289
1070
     1
1070
   271
1070
     2
1070
   147
1040
0.031496062992126
1070
    72
1070
     0
1070
    71
1070
     0
1070
   272
1070
     2
1070
    48
1040
0.0
1070
    47
1040
0.0
1002
}
  0
DIMENSION
  5
10DD
330
6C
100
AcDbEntity
  8
Dimension (ANSI)
100
AcDbDimension
280
     0
  2
*D19
 10
5.701956160045005
 20
12.96926037814378
 30
0.0
 11
4.146603707476685
 21
12.96926037814378
 31
0.0
 70
   160
  1
(<>){\PTYP.}
 71
     5
 42
0.3750000000000044
 73
     0
 74
     0
 75
     0
  3
Default (ANSI)
100
AcDbAlignedDimension
 13
5.326956160045001
 23
12.80851706919061
 33
0.0
 14
5.701956160045005
 24
11.88880211559966
 34
0.0
100
AcDbRotatedDimension
1001
ACAD
1000
DSTYLE
1002
{
1070
   289
1070
     1
1070
    73
1070
     0
1070
    74
1070
     0
1070
   271
1070
     2
1070
    75
1070
     1
1070
   147
1040
0.031496062992126
1070
    72
1070
     0
1070
    71
1070
     0
1070
   272
1070
     2
1070
    48
1040
0.0
1070
    47
1040
0.0
1002
}
  0
DIMENSION
  5
11DE
330
6C
100
AcDbEntity
  8
Dimension (ANSI)
100
AcDbDimension
280
     0
  2
*D20
 10
9.893868409320305
 20
7.977343782266365
 30
0.0
 11
9.909004102938128
 21
6.922632417962035
 31
0.0
 70
   160
  1
(<>){\PTYP.}
 71
     5
 42
0.3749999999999938
 73
     0
 74
     0
 75
     0
  3
Default (ANSI)
100
AcDbAlignedDimension
 13
9.893868409320305
 23
7.602343782266371
 33
0.0
 14
9.139456160045011
 24
7.977343782266365
 34
0.0
 50
90.0
100
AcDbRotatedDimension
1001
ACAD
1000
DSTYLE
1002
{
1070
   289
1070
     1
1070
   279
1070
     1
1070
   271
1070
     2
1070
    76
1070
     1
1070
    75
1070
     1
1070
   147
1040
0.031496062992126
1070
    72
1070
     0
1070
    71
1070
     0
1070
   272
1070
     2
1070
    48
1040
0.0
1070
    47
1040
0.0
1002
}
  0
DIMENSION
  5
12F4
330
6C
100
AcDbEntity
  8
Dimension (ANSI)
100
AcDbDimension
280
     0
  2
*D21
 10
12.139456160045
 20
6.17913249617712
 30
0.0
 11
9.139456160045009
 21
6.17913249617712
 31
0.0
 70
   160
  1
<>
 42
5.999999999999976
 73
     0
 74
     0
 75
     0
  3
Default (ANSI)
100
AcDbAlignedDimension
 13
6.139456160045021
 23
8.520093782266364
 33
0.0
 14
12.139456160045
 24
8.488843782266357
 34
0.0
 50
180.0
100
AcDbRotatedDimension
1001
ACAD
1000
DSTYLE
1002
{
1070
   289
1070
     1
1070
    73
1070
     0
1070
    74
1070
     0
1070
   271
1070
     2
1070
   272
1070
     2
1070
    48
1040
0.0
1070
    47
1040
0.0
1002
}
  0
DIMENSION
  5
13DE
330
6C
100
AcDbEntity
  8
Dimension (ANSI)
100
AcDbDimension
280
     0
  2
*D22
 10
3.123914087033767
 20
14.41484378226641
 30
0.0
 11
3.123914087033765
 21
11.41484378226638
 31
0.0
 70
   160
  1
<>
 42
6.000000000000042
 73
     0
 74
     0
 75
     0
  3
Default (ANSI)
100
AcDbAlignedDimension
 13
6.24470616004502
 23
8.414843782266363
 33
0.0
 14
6.213456160045038
 24
14.4148437822664
 34
0.0
 50
90.0
100
AcDbRotatedDimension
1001
ACAD
1000
DSTYLE
1002
{
1070
   289
1070
     1
1070
   271
1070
     2
1070
   272
1070
     2
1070
    48
1040
0.0
1070
    47
1040
0.0
1002
}
  0
ENDSEC
  0
SECTION
  2
OBJECTS
  0
DICTIONARY
  5
C
330
0
100
AcDbDictionary
281
     1
  3
ACAD_CIP_PREVIOUS_PRODUCT_INFO
350
14C8
  3
ACAD_COLOR
350
63
  3
ACAD_GROUP
350
D
  3
ACAD_LAYOUT
350
62
  3
ACAD_MATERIAL
350
10
  3
ACAD_MLEADERSTYLE
350
66
  3
ACAD_MLINESTYLE
350
5F
  3
ACAD_PLOTSETTINGS
350
61
  3
ACAD_PLOTSTYLENAME
350
E
  3
ACAD_SCALELIST
350
42
  3
ACAD_TABLESTYLE
350
64
  3
ACAD_VISUALSTYLE
350
29
  3
ACDB_RECOMPOSE_DATA
350
14CF
  3
AcDbVariableDictionary
350
76
  0
DICTIONARY
  5
14CD
330
539
100
AcDbDictionary
280
     1
281
     1
  3
ACAD_MTEXT_2008_RT
360
14CE
  0
XRECORD
  5
14C8
102
{ACAD_REACTORS
330
C
102
}
330
C
100
AcDbXrecord
280
     1
300
INVNTOR
300
2012
300
85795PDSP_2012_0F
  0
DICTIONARY
  5
63
102
{ACAD_REACTORS
330
C
102
}
330
C
100
AcDbDictionary
281
     1
  0
DICTIONARY
  5
D
102
{ACAD_REACTORS
330
C
102
}
330
C
100
AcDbDictionary
281
     1
  0
DICTIONARY
  5
62
102
{ACAD_REACTORS
330
C
102
}
330
C
100
AcDbDictionary
281
     1
  3
Layout1
350
6B
  3
Layout2
350
73
  3
Model
350
6F
  0
DICTIONARY
  5
10
102
{ACAD_REACTORS
330
C
102
}
330
C
100
AcDbDictionary
281
     1
  3
ByBlock
350
19
  3
ByLayer
350
11
  3
Global
350
21
  0
DICTIONARY
  5
66
102
{ACAD_REACTORS
330
C
102
}
330
C
100
AcDbDictionary
281
     1
  3
Standard
350
67
  0
DICTIONARY
  5
5F
102
{ACAD_REACTORS
330
C
102
}
330
C
100
AcDbDictionary
281
     1
  3
Standard
350
60
  0
DICTIONARY
  5
61
102
{ACAD_REACTORS
330
C
102
}
330
C
100
AcDbDictionary
281
     1
  0
ACDBDICTIONARYWDFLT
  5
E
102
{ACAD_REACTORS
330
C
102
}
330
C
100
AcDbDictionary
281
     1
  3
Normal
350
F
100
AcDbDictionaryWithDefault
340
F
  0
DICTIONARY
  5
42
102
{ACAD_REACTORS
330
C
102
}
330
C
100
AcDbDictionary
281
     1
  3
A0
350
43
  3
A1
350
44
  3
A2
350
45
  3
A3
350
46
  3
A4
350
47
  3
A5
350
48
  3
A6
350
49
  3
A7
350
4A
  3
A8
350
4B
  3
A9
350
4C
  3
B0
350
4D
  3
B1
350
4E
  3
B2
350
4F
  3
B3
350
50
  3
B4
350
51
  3
B5
350
52
  3
B6
350
53
  0
DICTIONARY
  5
64
102
{ACAD_REACTORS
330
C
102
}
330
C
100
AcDbDictionary
281
     1
  3
Standard
350
65
  0
DICTIONARY
  5
29
102
{ACAD_REACTORS
330
C
102
}
330
C
100
AcDbDictionary
281
     1
  3
2dWireframe
350
2F
  3
Basic
350
2E
  3
Brighten
350
35
  3
ColorChange
350
39
  3
Conceptual
350
32
  3
Dim
350
34
  3
EdgeColorOff
350
41
  3
Facepattern
350
38
  3
Flat
350
2A
  3
FlatWithEdges
350
2B
  3
Gouraud
350
2C
  3
GouraudWithEdges
350
2D
  3
Hidden
350
31
  3
JitterOff
350
3F
  3
Linepattern
350
37
  3
OverhangOff
350
40
  3
Realistic
350
33
  3
Shaded
350
3E
  3
Shaded with edges
350
3D
  3
Shades of Gray
350
3A
  3
Sketchy
350
3B
  3
Thicken
350
36
  3
Wireframe
350
30
  3
X-Ray
350
3C
  0
XRECORD
  5
14CF
102
{ACAD_REACTORS
330
C
102
}
330
C
100
AcDbXrecord
280
     1
 90
        1
330
65
330
539
330
AFD
330
BF4
  0
DICTIONARY
  5
76
102
{ACAD_REACTORS
330
C
102
}
330
C
100
AcDbDictionary
281
     1
  3
CANNOSCALE
350
79
  3
CMLEADERSTYLE
350
78
  3
CTABLESTYLE
350
77
  0
XRECORD
  5
14CE
102
{ACAD_REACTORS
330
14CD
102
}
330
14CD
100
AcDbXrecord
280
     1
 40
3220015.0
  1
\pxsm0.94;{\fRomanS|b0|i0;\H0.5200;PART#: SSJWN666\P(DATA SUBJECT TO CHANGE WITHOUT NOTICE)\P\fRomanS|b0|i0;\H0.2667; \PTHIS DRAWING IS PROPERTY OF hUBBELL INC. WEIGMANN\PALL INFORMATION IS PROPRIETARY AND NOT TO BE DUPLICATED\P}
  0
LAYOUT
  5
6B
102
{ACAD_REACTORS
330
62
102
}
330
62
100
AcDbPlotSettings
  1

  2

  4

  6

 40
0.0
 41
0.0
 42
0.0
 43
0.0
 44
0.0
 45
0.0
 46
0.0
 47
0.0
 48
0.0
 49
0.0
140
0.0
141
0.0
142
1.0
143
1.0
 70
   688
 72
     0
 73
     0
 74
     5
  7

 75
    16
147
1.0
 76
     0
 77
     2
 78
   300
148
0.0
149
0.0
100
AcDbLayout
  1
Layout1
 70
     1
 71
     1
 10
0.0
 20
0.0
 11
12.0
 21
9.0
 12
0.0
 22
0.0
 32
0.0
 14
0.0
 24
0.0
 34
0.0
 15
0.0
 25
0.0
 35
0.0
146
0.0
 13
0.0
 23
0.0
 33
0.0
 16
1.0
 26
0.0
 36
0.0
 17
0.0
 27
1.0
 37
0.0
 76
     0
330
68
  0
LAYOUT
  5
73
102
{ACAD_REACTORS
330
62
102
}
330
62
100
AcDbPlotSettings
  1

  2

  4

  6

 40
0.0
 41
0.0
 42
0.0
 43
0.0
 44
0.0
 45
0.0
 46
0.0
 47
0.0
 48
0.0
 49
0.0
140
0.0
141
0.0
142
1.0
143
1.0
 70
   688
 72
     0
 73
     0
 74
     5
  7

 75
    16
147
1.0
 76
     0
 77
     2
 78
   300
148
0.0
149
0.0
100
AcDbLayout
  1
Layout2
 70
     1
 71
     2
 10
0.0
 20
0.0
 11
12.0
 21
9.0
 12
0.0
 22
0.0
 32
0.0
 14
0.0
 24
0.0
 34
0.0
 15
0.0
 25
0.0
 35
0.0
146
0.0
 13
0.0
 23
0.0
 33
0.0
 16
1.0
 26
0.0
 36
0.0
 17
0.0
 27
1.0
 37
0.0
 76
     0
330
70
  0
LAYOUT
  5
6F
102
{ACAD_REACTORS
330
62
102
}
330
62
100
AcDbPlotSettings
  1

  2

  4

  6

 40
0.0
 41
0.0
 42
0.0
 43
0.0
 44
0.0
 45
0.0
 46
0.0
 47
0.0
 48
0.0
 49
0.0
140
0.0
141
0.0
142
1.0
143
1.0
 70
  1712
 72
     0
 73
     0
 74
     0
  7

 75
     0
147
1.0
 76
     0
 77
     2
 78
   300
148
0.0
149
0.0
100
AcDbLayout
  1
Model
 70
     1
 71
     0
 10
0.0
 20
0.0
 11
12.0
 21
9.0
 12
0.0
 22
0.0
 32
0.0
 14
0.0
 24
0.0
 34
0.0
 15
0.0
 25
0.0
 35
0.0
146
0.0
 13
0.0
 23
0.0
 33
0.0
 16
1.0
 26
0.0
 36
0.0
 17
0.0
 27
1.0
 37
0.0
 76
     0
330
6C
  0
MATERIAL
  5
19
102
{ACAD_XDICTIONARY
360
1A
102
}
102
{ACAD_REACTORS
330
10
102
}
330
10
100
AcDbMaterial
  1
ByBlock
 72
     0
 43
0.0208333333333333
 43
0.0
 43
0.0
 43
0.0
 43
0.0
 43
0.0208333333333333
 43
0.0
 43
0.0
 43
0.0
 43
0.0
 43
1.0
 43
0.0
 43
0.0
 43
0.0
 43
0.0
 43
1.0
 77
     0
 47
0.0208333333333333
 47
0.0
 47
0.0
 47
0.0
 47
0.0
 47
0.0208333333333333
 47
0.0
 47
0.0
 47
0.0
 47
0.0
 47
1.0
 47
0.0
 47
0.0
 47
0.0
 47
0.0
 47
1.0
171
     0
 49
0.0208333333333333
 49
0.0
 49
0.0
 49
0.0
 49
0.0
 49
0.0208333333333333
 49
0.0
 49
0.0
 49
0.0
 49
0.0
 49
1.0
 49
0.0
 49
0.0
 49
0.0
 49
0.0
 49
1.0
175
     0
142
0.0208333333333333
142
0.0
142
0.0
142
0.0
142
0.0
142
0.0208333333333333
142
0.0
142
0.0
142
0.0
142
0.0
142
1.0
142
0.0
142
0.0
142
0.0
142
0.0
142
1.0
179
     0
144
0.0208333333333333
144
0.0
144
0.0
144
0.0
144
0.0
144
0.0208333333333333
144
0.0
144
0.0
144
0.0
144
0.0
144
1.0
144
0.0
144
0.0
144
0.0
144
0.0
144
1.0
147
0.0208333333333333
147
0.0
147
0.0
147
0.0
147
0.0
147
0.0208333333333333
147
0.0
147
0.0
147
0.0
147
0.0
147
1.0
147
0.0
147
0.0
147
0.0
147
0.0
147
1.0
  0
MATERIAL
  5
11
102
{ACAD_XDICTIONARY
360
12
102
}
102
{ACAD_REACTORS
330
10
102
}
330
10
100
AcDbMaterial
  1
ByLayer
 72
     0
 43
0.0208333333333333
 43
0.0
 43
0.0
 43
0.0
 43
0.0
 43
0.0208333333333333
 43
0.0
 43
0.0
 43
0.0
 43
0.0
 43
1.0
 43
0.0
 43
0.0
 43
0.0
 43
0.0
 43
1.0
 77
     0
 47
0.0208333333333333
 47
0.0
 47
0.0
 47
0.0
 47
0.0
 47
0.0208333333333333
 47
0.0
 47
0.0
 47
0.0
 47
0.0
 47
1.0
 47
0.0
 47
0.0
 47
0.0
 47
0.0
 47
1.0
171
     0
 49
0.0208333333333333
 49
0.0
 49
0.0
 49
0.0
 49
0.0
 49
0.0208333333333333
 49
0.0
 49
0.0
 49
0.0
 49
0.0
 49
1.0
 49
0.0
 49
0.0
 49
0.0
 49
0.0
 49
1.0
175
     0
142
0.0208333333333333
142
0.0
142
0.0
142
0.0
142
0.0
142
0.0208333333333333
142
0.0
142
0.0
142
0.0
142
0.0
142
1.0
142
0.0
142
0.0
142
0.0
142
0.0
142
1.0
179
     0
144
0.0208333333333333
144
0.0
144
0.0
144
0.0
144
0.0
144
0.0208333333333333
144
0.0
144
0.0
144
0.0
144
0.0
144
1.0
144
0.0
144
0.0
144
0.0
144
0.0
144
1.0
147
0.0208333333333333
147
0.0
147
0.0
147
0.0
147
0.0
147
0.0208333333333333
147
0.0
147
0.0
147
0.0
147
0.0
147
1.0
147
0.0
147
0.0
147
0.0
147
0.0
147
1.0
  0
MATERIAL
  5
21
102
{ACAD_XDICTIONARY
360
22
102
}
102
{ACAD_REACTORS
330
10
102
}
330
10
100
AcDbMaterial
  1
Global
 72
     0
 43
0.0208333333333333
 43
0.0
 43
0.0
 43
0.0
 43
0.0
 43
0.0208333333333333
 43
0.0
 43
0.0
 43
0.0
 43
0.0
 43
1.0
 43
0.0
 43
0.0
 43
0.0
 43
0.0
 43
1.0
 77
     0
 47
0.0208333333333333
 47
0.0
 47
0.0
 47
0.0
 47
0.0
 47
0.0208333333333333
 47
0.0
 47
0.0
 47
0.0
 47
0.0
 47
1.0
 47
0.0
 47
0.0
 47
0.0
 47
0.0
 47
1.0
171
     0
 49
0.0208333333333333
 49
0.0
 49
0.0
 49
0.0
 49
0.0
 49
0.0208333333333333
 49
0.0
 49
0.0
 49
0.0
 49
0.0
 49
1.0
 49
0.0
 49
0.0
 49
0.0
 49
0.0
 49
1.0
175
     0
142
0.0208333333333333
142
0.0
142
0.0
142
0.0
142
0.0
142
0.0208333333333333
142
0.0
142
0.0
142
0.0
142
0.0
142
1.0
142
0.0
142
0.0
142
0.0
142
0.0
142
1.0
179
     0
144
0.0208333333333333
144
0.0
144
0.0
144
0.0
144
0.0
144
0.0208333333333333
144
0.0
144
0.0
144
0.0
144
0.0
144
1.0
144
0.0
144
0.0
144
0.0
144
0.0
144
1.0
147
0.0208333333333333
147
0.0
147
0.0
147
0.0
147
0.0
147
0.0208333333333333
147
0.0
147
0.0
147
0.0
147
0.0
147
1.0
147
0.0
147
0.0
147
0.0
147
0.0
147
1.0
  0
MLEADERSTYLE
  5
67
102
{ACAD_XDICTIONARY
360
14CB
102
}
102
{ACAD_REACTORS
330
66
102
}
330
66
100
AcDbMLeaderStyle
179
     2
170
     2
171
     1
172
     0
 90
        2
 40
0.0
 41
0.0
173
     1
 91
-1056964608
340
5B
 92
       -2
290
     1
 42
0.09
291
     1
 43
0.36
  3
Standard
 44
0.18
300

342
55
174
     1
178
     6
175
     1
176
     0
 93
-1056964608
 45
0.18
292
     0
297
     0
 46
0.18
 94
-1056964608
 47
1.0
 49
1.0
140
1.0
293
     1
141
0.0
294
     1
177
     0
142
1.0
295
     0
296
     0
143
0.125
271
     0
272
     9
273
     9
  0
MLINESTYLE
  5
60
102
{ACAD_REACTORS
330
5F
102
}
330
5F
100
AcDbMlineStyle
  2
STANDARD
 70
     0
  3

 62
   256
 51
90.0
 52
90.0
 71
     2
 49
0.5
 62
   256
  6
BYLAYER
 49
-0.5
 62
   256
  6
BYLAYER
  0
ACDBPLACEHOLDER
  5
F
102
{ACAD_REACTORS
330
E
102
}
330
E
  0
SCALE
  5
43
102
{ACAD_REACTORS
330
42
102
}
330
42
100
AcDbScale
 70
     0
300
1:1
140
1.0
141
1.0
290
     1
  0
SCALE
  5
44
102
{ACAD_REACTORS
330
42
102
}
330
42
100
AcDbScale
 70
     0
300
1/128" = 1'-0"
140
0.0078125
141
12.0
290
     0
  0
SCALE
  5
45
102
{ACAD_REACTORS
330
42
102
}
330
42
100
AcDbScale
 70
     0
300
1/64" = 1'-0"
140
0.015625
141
12.0
290
     0
  0
SCALE
  5
46
102
{ACAD_REACTORS
330
42
102
}
330
42
100
AcDbScale
 70
     0
300
1/32" = 1'-0"
140
0.03125
141
12.0
290
     0
  0
SCALE
  5
47
102
{ACAD_REACTORS
330
42
102
}
330
42
100
AcDbScale
 70
     0
300
1/16" = 1'-0"
140
0.0625
141
12.0
290
     0
  0
SCALE
  5
48
102
{ACAD_REACTORS
330
42
102
}
330
42
100
AcDbScale
 70
     0
300
3/32" = 1'-0"
140
0.09375
141
12.0
290
     0
  0
SCALE
  5
49
102
{ACAD_REACTORS
330
42
102
}
330
42
100
AcDbScale
 70
     0
300
1/8" = 1'-0"
140
0.125
141
12.0
290
     0
  0
SCALE
  5
4A
102
{ACAD_REACTORS
330
42
102
}
330
42
100
AcDbScale
 70
     0
300
3/16" = 1'-0"
140
0.1875
141
12.0
290
     0
  0
SCALE
  5
4B
102
{ACAD_REACTORS
330
42
102
}
330
42
100
AcDbScale
 70
     0
300
1/4" = 1'-0"
140
0.25
141
12.0
290
     0
  0
SCALE
  5
4C
102
{ACAD_REACTORS
330
42
102
}
330
42
100
AcDbScale
 70
     0
300
3/8" = 1'-0"
140
0.375
141
12.0
290
     0
  0
SCALE
  5
4D
102
{ACAD_REACTORS
330
42
102
}
330
42
100
AcDbScale
 70
     0
300
1/2" = 1'-0"
140
0.5
141
12.0
290
     0
  0
SCALE
  5
4E
102
{ACAD_REACTORS
330
42
102
}
330
42
100
AcDbScale
 70
     0
300
3/4" = 1'-0"
140
0.75
141
12.0
290
     0
  0
SCALE
  5
4F
102
{ACAD_REACTORS
330
42
102
}
330
42
100
AcDbScale
 70
     0
300
1" = 1'-0"
140
1.0
141
12.0
290
     0
  0
SCALE
  5
50
102
{ACAD_REACTORS
330
42
102
}
330
42
100
AcDbScale
 70
     0
300
1-1/2" = 1'-0"
140
1.5
141
12.0
290
     0
  0
SCALE
  5
51
102
{ACAD_REACTORS
330
42
102
}
330
42
100
AcDbScale
 70
     0
300
3" = 1'-0"
140
3.0
141
12.0
290
     0
  0
SCALE
  5
52
102
{ACAD_REACTORS
330
42
102
}
330
42
100
AcDbScale
 70
     0
300
6" = 1'-0"
140
6.0
141
12.0
290
     0
  0
SCALE
  5
53
102
{ACAD_REACTORS
330
42
102
}
330
42
100
AcDbScale
 70
     0
300
1'-0" = 1'-0"
140
12.0
141
12.0
290
     0
  0
TABLESTYLE
  5
65
102
{ACAD_XDICTIONARY
360
14C9
102
}
102
{ACAD_REACTORS
330
64
102
}
330
64
100
AcDbTableStyle
280
     0
  3
Standard
 70
     0
 71
     0
 40
0.06
 41
0.06
280
     0
281
     0
  7
Standard
140
0.18
170
     2
 62
     0
 63
     7
283
     0
 90
      512
 91
        0
  1

274
    -2
284
     1
 64
     0
275
    -2
285
     1
 65
     0
276
    -2
286
     1
 66
     0
277
    -2
287
     1
 67
     0
278
    -2
288
     1
 68
     0
279
    -2
289
     1
 69
     0
  7
Standard
140
0.25
170
     5
 62
     0
 63
     7
283
     0
 90
      512
 91
        0
  1

274
    -2
284
     1
 64
     0
275
    -2
285
     1
 65
     0
276
    -2
286
     1
 66
     0
277
    -2
287
     1
 67
     0
278
    -2
288
     1
 68
     0
279
    -2
289
     1
 69
     0
  7
Standard
140
0.18
170
     5
 62
     0
 63
     7
283
     0
 90
      512
 91
        0
  1

274
    -2
284
     1
 64
     0
275
    -2
285
     1
 65
     0
276
    -2
286
     1
 66
     0
277
    -2
287
     1
 67
     0
278
    -2
288
     1
 68
     0
279
    -2
289
     1
 69
     0
  0
VISUALSTYLE
  5
2F
102
{ACAD_REACTORS
330
29
102
}
330
29
100
AcDbVisualStyle
  2
2dWireframe
 70
     4
177
     2
291
     0
 71
     0
176
     1
 72
     2
176
     1
 73
     0
176
     1
 90
        0
176
     1
 40
0.6
176
     1
 41
30.0
176
     1
 63
     7
421
 16777215
176
     1
 74
     1
176
     1
 91
        4
176
     1
 64
     7
176
     1
 65
   257
176
     1
 75
     1
176
     1
175
     1
176
     1
 42
1.0
176
     1
 92
        0
176
     1
 66
   257
176
     1
 43
1.0
176
     1
 76
     1
176
     1
 77
     6
176
     1
 78
     2
176
     1
 67
     7
176
     1
 79
     5
176
     1
170
     0
176
     1
171
     0
176
     1
290
     0
176
     1
 93
        1
176
     1
 44
0.0
176
     1
173
     0
176
     1
  0
VISUALSTYLE
  5
2E
102
{ACAD_REACTORS
330
29
102
}
330
29
100
AcDbVisualStyle
  2
Basic
 70
     7
177
     2
291
     1
 71
     1
176
     1
 72
     0
176
     1
 73
     1
176
     1
 90
        0
176
     1
 40
0.6
176
     1
 41
30.0
176
     1
 63
     7
421
 16777215
176
     1
 74
     0
176
     1
 91
        4
176
     1
 64
     7
176
     1
 65
   257
176
     1
 75
     1
176
     1
175
     1
176
     1
 42
1.0
176
     1
 92
        8
176
     1
 66
     7
176
     1
 43
1.0
176
     1
 76
     1
176
     1
 77
     6
176
     1
 78
     2
176
     1
 67
     7
176
     1
 79
     5
176
     1
170
     0
176
     1
171
     0
176
     1
290
     0
176
     1
 93
        1
176
     1
 44
0.0
176
     1
173
     0
176
     1
  0
VISUALSTYLE
  5
35
102
{ACAD_REACTORS
330
29
102
}
330
29
100
AcDbVisualStyle
  2
Brighten
 70
    12
177
     2
291
     1
 71
     2
176
     1
 72
     2
176
     1
 73
     0
176
     1
 90
        0
176
     1
 40
0.6
176
     1
 41
30.0
176
     1
 63
     7
421
 16777215
176
     1
 74
     1
176
     1
 91
        4
176
     1
 64
     7
176
     1
 65
   257
176
     1
 75
     1
176
     1
175
     1
176
     1
 42
1.0
176
     1
 92
        8
176
     1
 66
     7
176
     1
 43
1.0
176
     1
 76
     1
176
     1
 77
     6
176
     1
 78
     2
176
     1
 67
     7
176
     1
 79
     5
176
     1
170
     0
176
     1
171
     0
176
     1
290
     0
176
     1
 93
        1
176
     1
 44
50.0
176
     1
173
     0
176
     1
  0
VISUALSTYLE
  5
39
102
{ACAD_REACTORS
330
29
102
}
330
29
100
AcDbVisualStyle
  2
ColorChange
 70
    16
177
     2
291
     1
 71
     2
176
     1
 72
     2
176
     1
 73
     3
176
     1
 90
        0
176
     1
 40
0.6
176
     1
 41
30.0
176
     1
 63
     8
421
  8421504
176
     1
 74
     1
176
     1
 91
        4
176
     1
 64
     7
176
     1
 65
   257
176
     1
 75
     1
176
     1
175
     1
176
     1
 42
1.0
176
     1
 92
        8
176
     1
 66
     8
424
  8421504
176
     1
 43
1.0
176
     1
 76
     1
176
     1
 77
     6
176
     1
 78
     2
176
     1
 67
     7
176
     1
 79
     5
176
     1
170
     0
176
     1
171
     0
176
     1
290
     0
176
     1
 93
        1
176
     1
 44
0.0
176
     1
173
     0
176
     1
  0
VISUALSTYLE
  5
32
102
{ACAD_REACTORS
330
29
102
}
330
29
100
AcDbVisualStyle
  2
Conceptual
 70
     9
177
     2
291
     0
 71
     3
176
     1
 72
     2
176
     1
 73
     0
176
     1
 90
        0
176
     1
 40
0.6
176
     1
 41
30.0
176
     1
 63
     7
421
 16777215
176
     1
 74
     2
176
     1
 91
        2
176
     1
 64
     7
176
     1
 65
   257
176
     1
 75
     1
176
     1
175
     1
176
     1
 42
179.0
176
     1
 92
        8
176
     1
 66
     7
176
     1
 43
1.0
176
     1
 76
     1
176
     1
 77
     6
176
     1
 78
     2
176
     1
 67
     7
176
     1
 79
     3
176
     1
170
     0
176
     1
171
     0
176
     1
290
     0
176
     1
 93
        1
176
     1
 44
0.0
176
     1
173
     0
176
     1
  0
VISUALSTYLE
  5
34
102
{ACAD_REACTORS
330
29
102
}
330
29
100
AcDbVisualStyle
  2
Dim
 70
    11
177
     2
291
     1
 71
     2
176
     1
 72
     2
176
     1
 73
     0
176
     1
 90
        0
176
     1
 40
0.6
176
     1
 41
30.0
176
     1
 63
     7
421
 16777215
176
     1
 74
     1
176
     1
 91
        4
176
     1
 64
     7
176
     1
 65
   257
176
     1
 75
     1
176
     1
175
     1
176
     1
 42
1.0
176
     1
 92
        8
176
     1
 66
     7
176
     1
 43
1.0
176
     1
 76
     1
176
     1
 77
     6
176
     1
 78
     2
176
     1
 67
     7
176
     1
 79
     5
176
     1
170
     0
176
     1
171
     0
176
     1
290
     0
176
     1
 93
        1
176
     1
 44
-50.0
176
     1
173
     0
176
     1
  0
VISUALSTYLE
  5
41
102
{ACAD_REACTORS
330
29
102
}
330
29
100
AcDbVisualStyle
  2
EdgeColorOff
 70
    22
177
     2
291
     1
 71
     2
176
     0
 72
     2
176
     0
 73
     0
176
     0
 90
        0
176
     0
 40
0.6
176
     0
 41
30.0
176
     0
 63
     7
421
 16777215
176
     0
 74
     1
176
     0
 91
        4
176
     0
 64
     7
176
     0
 65
   257
176
     0
 75
     1
176
     0
175
     1
176
     0
 42
1.0
176
     0
 92
        8
176
     2
 66
     7
176
     0
 43
1.0
176
     0
 76
     1
176
     0
 77
     6
176
     0
 78
     2
176
     0
 67
     7
176
     0
 79
     5
176
     0
170
     0
176
     0
171
     0
176
     0
290
     0
176
     0
 93
        1
176
     0
 44
0.0
176
     0
173
     0
176
     0
  0
VISUALSTYLE
  5
38
102
{ACAD_REACTORS
330
29
102
}
330
29
100
AcDbVisualStyle
  2
Facepattern
 70
    15
177
     2
291
     1
 71
     2
176
     1
 72
     2
176
     1
 73
     0
176
     1
 90
        0
176
     1
 40
0.6
176
     1
 41
30.0
176
     1
 63
     7
421
 16777215
176
     1
 74
     1
176
     1
 91
        4
176
     1
 64
     7
176
     1
 65
   257
176
     1
 75
     1
176
     1
175
     1
176
     1
 42
1.0
176
     1
 92
        8
176
     1
 66
     7
176
     1
 43
1.0
176
     1
 76
     1
176
     1
 77
     6
176
     1
 78
     2
176
     1
 67
     7
176
     1
 79
     5
176
     1
170
     0
176
     1
171
     0
176
     1
290
     0
176
     1
 93
        1
176
     1
 44
0.0
176
     1
173
     0
176
     1
  0
VISUALSTYLE
  5
2A
102
{ACAD_REACTORS
330
29
102
}
330
29
100
AcDbVisualStyle
  2
Flat
 70
     0
177
     2
291
     1
 71
     2
176
     1
 72
     1
176
     1
 73
     1
176
     1
 90
        2
176
     1
 40
0.6
176
     1
 41
30.0
176
     1
 63
     7
421
 16777215
176
     1
 74
     0
176
     1
 91
        0
176
     1
 64
     7
176
     1
 65
   257
176
     1
 75
     1
176
     1
175
     1
176
     1
 42
1.0
176
     1
 92
        8
176
     1
 66
     7
176
     1
 43
1.0
176
     1
 76
     1
176
     1
 77
     6
176
     1
 78
     2
176
     1
 67
     7
176
     1
 79
     5
176
     1
170
     0
176
     1
171
     0
176
     1
290
     0
176
     1
 93
       13
176
     1
 44
0.0
176
     1
173
     0
176
     1
  0
VISUALSTYLE
  5
2B
102
{ACAD_REACTORS
330
29
102
}
330
29
100
AcDbVisualStyle
  2
FlatWithEdges
 70
     1
177
     2
291
     1
 71
     2
176
     1
 72
     1
176
     1
 73
     1
176
     1
 90
        2
176
     1
 40
0.6
176
     1
 41
30.0
176
     1
 63
     7
421
 16777215
176
     1
 74
     1
176
     1
 91
        0
176
     1
 64
     7
176
     1
 65
   257
176
     1
 75
     1
176
     1
175
     1
176
     1
 42
1.0
176
     1
 92
        0
176
     1
 66
   257
176
     1
 43
1.0
176
     1
 76
     1
176
     1
 77
     6
176
     1
 78
     2
176
     1
 67
     7
176
     1
 79
     5
176
     1
170
     0
176
     1
171
     0
176
     1
290
     0
176
     1
 93
       13
176
     1
 44
0.0
176
     1
173
     0
176
     1
  0
VISUALSTYLE
  5
2C
102
{ACAD_REACTORS
330
29
102
}
330
29
100
AcDbVisualStyle
  2
Gouraud
 70
     2
177
     2
291
     1
 71
     2
176
     1
 72
     2
176
     1
 73
     1
176
     1
 90
        2
176
     1
 40
0.6
176
     1
 41
30.0
176
     1
 63
     7
421
 16777215
176
     1
 74
     0
176
     1
 91
        0
176
     1
 64
     7
176
     1
 65
   257
176
     1
 75
     1
176
     1
175
     1
176
     1
 42
1.0
176
     1
 92
        0
176
     1
 66
     7
176
     1
 43
1.0
176
     1
 76
     1
176
     1
 77
     6
176
     1
 78
     2
176
     1
 67
     7
176
     1
 79
     5
176
     1
170
     0
176
     1
171
     0
176
     1
290
     0
176
     1
 93
       13
176
     1
 44
0.0
176
     1
173
     0
176
     1
  0
VISUALSTYLE
  5
2D
102
{ACAD_REACTORS
330
29
102
}
330
29
100
AcDbVisualStyle
  2
GouraudWithEdges
 70
     3
177
     2
291
     1
 71
     2
176
     1
 72
     2
176
     1
 73
     1
176
     1
 90
        2
176
     1
 40
0.6
176
     1
 41
30.0
176
     1
 63
     7
421
 16777215
176
     1
 74
     1
176
     1
 91
        0
176
     1
 64
     7
176
     1
 65
   257
176
     1
 75
     1
176
     1
175
     1
176
     1
 42
1.0
176
     1
 92
        0
176
     1
 66
   257
176
     1
 43
1.0
176
     1
 76
     1
176
     1
 77
     6
176
     1
 78
     2
176
     1
 67
     7
176
     1
 79
     5
176
     1
170
     0
176
     1
171
     0
176
     1
290
     0
176
     1
 93
       13
176
     1
 44
0.0
176
     1
173
     0
176
     1
  0
VISUALSTYLE
  5
31
102
{ACAD_REACTORS
330
29
102
}
330
29
100
AcDbVisualStyle
  2
Hidden
 70
     6
177
     2
291
     0
 71
     1
176
     1
 72
     2
176
     1
 73
     2
176
     1
 90
        0
176
     1
 40
0.6
176
     1
 41
30.0
176
     1
 63
     7
421
 16777215
176
     1
 74
     2
176
     1
 91
        2
176
     1
 64
     7
176
     1
 65
   257
176
     1
 75
     2
176
     1
175
     1
176
     1
 42
40.0
176
     1
 92
        0
176
     1
 66
   257
176
     1
 43
1.0
176
     1
 76
     1
176
     1
 77
     6
176
     1
 78
     2
176
     1
 67
     7
176
     1
 79
     3
176
     1
170
     0
176
     1
171
     0
176
     1
290
     0
176
     1
 93
        1
176
     1
 44
0.0
176
     1
173
     0
176
     1
  0
VISUALSTYLE
  5
3F
102
{ACAD_REACTORS
330
29
102
}
330
29
100
AcDbVisualStyle
  2
JitterOff
 70
    20
177
     2
291
     1
 71
     2
176
     0
 72
     2
176
     0
 73
     0
176
     0
 90
        0
176
     0
 40
0.6
176
     0
 41
30.0
176
     0
 63
     7
421
 16777215
176
     0
 74
     1
176
     0
 91
        4
176
     0
 64
     7
176
     0
 65
   257
176
     0
 75
     1
176
     0
175
     1
176
     0
 42
1.0
176
     0
 92
       10
176
     2
 66
     7
176
     0
 43
1.0
176
     0
 76
     1
176
     0
 77
     6
176
     0
 78
     2
176
     0
 67
     7
176
     0
 79
     5
176
     0
170
     0
176
     0
171
     0
176
     0
290
     0
176
     0
 93
        1
176
     0
 44
0.0
176
     0
173
     0
176
     0
  0
VISUALSTYLE
  5
37
102
{ACAD_REACTORS
330
29
102
}
330
29
100
AcDbVisualStyle
  2
Linepattern
 70
    14
177
     2
291
     1
 71
     2
176
     1
 72
     2
176
     1
 73
     0
176
     1
 90
        0
176
     1
 40
0.6
176
     1
 41
30.0
176
     1
 63
     7
421
 16777215
176
     1
 74
     1
176
     1
 91
        4
176
     1
 64
     7
176
     1
 65
   257
176
     1
 75
     7
176
     1
175
     7
176
     1
 42
1.0
176
     1
 92
        8
176
     1
 66
     7
176
     1
 43
1.0
176
     1
 76
     1
176
     1
 77
     6
176
     1
 78
     2
176
     1
 67
     7
176
     1
 79
     5
176
     1
170
     0
176
     1
171
     0
176
     1
290
     0
176
     1
 93
        1
176
     1
 44
0.0
176
     1
173
     0
176
     1
  0
VISUALSTYLE
  5
40
102
{ACAD_REACTORS
330
29
102
}
330
29
100
AcDbVisualStyle
  2
OverhangOff
 70
    21
177
     2
291
     1
 71
     2
176
     0
 72
     2
176
     0
 73
     0
176
     0
 90
        0
176
     0
 40
0.6
176
     0
 41
30.0
176
     0
 63
     7
421
 16777215
176
     0
 74
     1
176
     0
 91
        4
176
     0
 64
     7
176
     0
 65
   257
176
     0
 75
     1
176
     0
175
     1
176
     0
 42
1.0
176
     0
 92
        9
176
     2
 66
     7
176
     0
 43
1.0
176
     0
 76
     1
176
     0
 77
     6
176
     0
 78
     2
176
     0
 67
     7
176
     0
 79
     5
176
     0
170
     0
176
     0
171
     0
176
     0
290
     0
176
     0
 93
        1
176
     0
 44
0.0
176
     0
173
     0
176
     0
  0
VISUALSTYLE
  5
33
102
{ACAD_REACTORS
330
29
102
}
330
29
100
AcDbVisualStyle
  2
Realistic
 70
     8
177
     2
291
     0
 71
     2
176
     1
 72
     3
176
     1
 73
     0
176
     1
 90
        2
176
     1
 40
0.6
176
     1
 41
30.0
176
     1
 63
     7
421
 16777215
176
     1
 74
     0
176
     1
 91
        0
176
     1
 64
     7
176
     1
 65
   257
176
     1
 75
     1
176
     1
175
     1
176
     1
 42
1.0
176
     1
 92
        8
176
     1
 66
   257
176
     1
 43
1.0
176
     1
 76
     1
176
     1
 77
     6
176
     1
 78
     2
176
     1
 67
     7
176
     1
 79
     3
176
     1
170
     0
176
     1
171
     0
176
     1
290
     0
176
     1
 93
       13
176
     1
 44
0.0
176
     1
173
     0
176
     1
  0
VISUALSTYLE
  5
3E
102
{ACAD_REACTORS
330
29
102
}
330
29
100
AcDbVisualStyle
  2
Shaded
 70
    27
177
     2
291
     0
 71
     2
176
     1
 72
     2
176
     1
 73
     1
176
     1
 90
        2
176
     1
 40
0.6
176
     1
 41
30.0
176
     1
 63
     7
421
 16777215
176
     1
 74
     0
176
     1
 91
        4
176
     1
 64
     7
176
     1
 65
   257
176
     1
 75
     1
176
     1
175
     1
176
     1
 42
1.0
176
     1
 92
        8
176
     1
 66
   257
176
     1
 43
1.0
176
     1
 76
     1
176
     1
 77
     6
176
     1
 78
     2
176
     1
 67
     8
425
  7895160
176
     1
 79
     3
176
     1
170
     0
176
     1
171
     0
176
     1
290
     0
176
     1
 93
        5
176
     1
 44
0.0
176
     1
173
     0
176
     1
  0
VISUALSTYLE
  5
3D
102
{ACAD_REACTORS
330
29
102
}
330
29
100
AcDbVisualStyle
  2
Shaded with edges
 70
    26
177
     2
291
     0
 71
     2
176
     1
 72
     2
176
     1
 73
     1
176
     1
 90
        2
176
     1
 40
0.6
176
     1
 41
30.0
176
     1
 63
     7
421
 16777215
176
     1
 74
     1
176
     1
 91
       10
176
     1
 64
     7
176
     1
 65
   257
176
     1
 75
     2
176
     1
175
     1
176
     1
 42
1.0
176
     1
 92
        8
176
     1
 66
   257
176
     1
 43
1.0
176
     1
 76
     1
176
     1
 77
     6
176
     1
 78
     2
176
     1
 67
     7
176
     1
 79
     3
176
     1
170
     0
176
     1
171
     0
176
     1
290
     0
176
     1
 93
        5
176
     1
 44
0.0
176
     1
173
     0
176
     1
  0
VISUALSTYLE
  5
3A
102
{ACAD_REACTORS
330
29
102
}
330
29
100
AcDbVisualStyle
  2
Shades of Gray
 70
    23
177
     2
291
     0
 71
     2
176
     1
 72
     2
176
     1
 73
     3
176
     1
 90
        0
176
     1
 40
0.6
176
     1
 41
30.0
176
     1
 63
     7
421
 16777215
176
     1
 74
     2
176
     1
 91
        2
176
     1
 64
     7
176
     1
 65
     7
176
     1
 75
     1
176
     1
175
     1
176
     1
 42
40.0
176
     1
 92
        8
176
     1
 66
     7
176
     1
 43
1.0
176
     1
 76
     1
176
     1
 77
     6
176
     1
 78
     2
176
     1
 67
     7
176
     1
 79
     3
176
     1
170
     0
176
     1
171
     0
176
     1
290
     0
176
     1
 93
        1
176
     1
 44
0.0
176
     1
173
     0
176
     1
  0
VISUALSTYLE
  5
3B
102
{ACAD_REACTORS
330
29
102
}
330
29
100
AcDbVisualStyle
  2
Sketchy
 70
    24
177
     2
291
     0
 71
     1
176
     1
 72
     2
176
     1
 73
     2
176
     1
 90
        0
176
     1
 40
0.6
176
     1
 41
30.0
176
     1
 63
     7
421
 16777215
176
     1
 74
     2
176
     1
 91
        2
176
     1
 64
     7
176
     1
 65
     7
176
     1
 75
     1
176
     1
175
     1
176
     1
 42
40.0
176
     1
 92
       11
176
     1
 66
     7
176
     1
 43
1.0
176
     1
 76
     1
176
     1
 77
     6
176
     1
 78
     2
176
     1
 67
     7
176
     1
 79
     6
176
     1
170
     0
176
     1
171
     0
176
     1
290
     0
176
     1
 93
        1
176
     1
 44
0.0
176
     1
173
     0
176
     1
  0
VISUALSTYLE
  5
36
102
{ACAD_REACTORS
330
29
102
}
330
29
100
AcDbVisualStyle
  2
Thicken
 70
    13
177
     2
291
     1
 71
     2
176
     1
 72
     2
176
     1
 73
     0
176
     1
 90
        0
176
     1
 40
0.6
176
     1
 41
30.0
176
     1
 63
     7
421
 16777215
176
     1
 74
     1
176
     1
 91
        4
176
     1
 64
     7
176
     1
 65
   257
176
     1
 75
     1
176
     1
175
     1
176
     1
 42
1.0
176
     1
 92
       12
176
     1
 66
     7
176
     1
 43
1.0
176
     1
 76
     1
176
     1
 77
     6
176
     1
 78
     2
176
     1
 67
     7
176
     1
 79
     5
176
     1
170
     0
176
     1
171
     0
176
     1
290
     0
176
     1
 93
        1
176
     1
 44
0.0
176
     1
173
     0
176
     1
  0
VISUALSTYLE
  5
30
102
{ACAD_REACTORS
330
29
102
}
330
29
100
AcDbVisualStyle
  2
Wireframe
 70
     5
177
     2
291
     0
 71
     0
176
     1
 72
     2
176
     1
 73
     0
176
     1
 90
        0
176
     1
 40
0.6
176
     1
 41
30.0
176
     1
 63
     7
421
 16777215
176
     1
 74
     1
176
     1
 91
        4
176
     1
 64
     7
176
     1
 65
   257
176
     1
 75
     1
176
     1
175
     1
176
     1
 42
1.0
176
     1
 92
        0
176
     1
 66
   257
176
     1
 43
1.0
176
     1
 76
     1
176
     1
 77
     6
176
     1
 78
     2
176
     1
 67
     7
176
     1
 79
     3
176
     1
170
     0
176
     1
171
     0
176
     1
290
     0
176
     1
 93
        1
176
     1
 44
0.0
176
     1
173
     0
176
     1
  0
VISUALSTYLE
  5
3C
102
{ACAD_REACTORS
330
29
102
}
330
29
100
AcDbVisualStyle
  2
X-Ray
 70
    25
177
     2
291
     0
 71
     2
176
     1
 72
     2
176
     1
 73
     1
176
     1
 90
        1
176
     1
 40
0.5
176
     1
 41
30.0
176
     1
 63
     7
421
 16777215
176
     1
 74
     1
176
     1
 91
        0
176
     1
 64
     7
176
     1
 65
   257
176
     1
 75
     1
176
     1
175
     1
176
     1
 42
1.0
176
     1
 92
        8
176
     1
 66
     7
176
     1
 43
1.0
176
     1
 76
     1
176
     1
 77
     6
176
     1
 78
     2
176
     1
 67
     7
176
     1
 79
     3
176
     1
170
     0
176
     1
171
     0
176
     1
290
     0
176
     1
 93
       13
176
     1
 44
0.0
176
     1
173
     0
176
     1
  0
DICTIONARYVAR
  5
79
102
{ACAD_REACTORS
330
76
102
}
330
76
100
DictionaryVariables
280
     0
  1
1:1
  0
DICTIONARYVAR
  5
78
102
{ACAD_REACTORS
330
76
102
}
330
76
100
DictionaryVariables
280
     0
  1
STANDARD
  0
DICTIONARYVAR
  5
77
102
{ACAD_REACTORS
330
76
102
}
330
76
100
DictionaryVariables
280
     0
  1
STANDARD
  0
DICTIONARY
  5
1A
330
19
100
AcDbDictionary
280
     1
281
     1
  3
BUMPTILE
360
1C
  3
DIFFUSETILE
360
1B
  3
OPACITYTILE
360
1F
  3
REFLECTIONTILE
360
1E
  3
REFRACTIONTILE
360
20
  3
SPECULARTILE
360
1D
  0
DICTIONARY
  5
12
330
11
100
AcDbDictionary
280
     1
281
     1
  3
BUMPTILE
360
14
  3
DIFFUSETILE
360
13
  3
FBXASSET
360
F5
  3
OPACITYTILE
360
17
  3
REFLECTIONTILE
360
16
  3
REFRACTIONTILE
360
18
  3
SPECULARTILE
360
15
  0
DICTIONARY
  5
22
330
21
100
AcDbDictionary
280
     1
281
     1
  3
BUMPTILE
360
24
  3
DIFFUSETILE
360
23
  3
FBXASSET
360
BA
  3
OPACITYTILE
360
27
  3
REFLECTIONTILE
360
26
  3
REFRACTIONTILE
360
28
  3
SPECULARTILE
360
25
  0
DICTIONARY
  5
14CB
330
67
100
AcDbDictionary
280
     1
281
     1
  3
ACAD_XREC_ROUNDTRIP
360
14CC
  0
DICTIONARY
  5
14C9
330
65
100
AcDbDictionary
280
     1
281
     1
  3
ACAD_ROUNDTRIP_2008_TABLESTYLE_CELLSTYLEMAP
360
14CA
  0
XRECORD
  5
1C
102
{ACAD_REACTORS
330
1A
102
}
330
1A
100
AcDbXrecord
280
     1
270
     1
271
     1
  0
XRECORD
  5
1B
102
{ACAD_REACTORS
330
1A
102
}
330
1A
100
AcDbXrecord
280
     1
270
     1
271
     1
  0
XRECORD
  5
1F
102
{ACAD_REACTORS
330
1A
102
}
330
1A
100
AcDbXrecord
280
     1
270
     1
271
     1
  0
XRECORD
  5
1E
102
{ACAD_REACTORS
330
1A
102
}
330
1A
100
AcDbXrecord
280
     1
270
     1
271
     1
  0
XRECORD
  5
20
102
{ACAD_REACTORS
330
1A
102
}
330
1A
100
AcDbXrecord
280
     1
270
     1
271
     1
  0
XRECORD
  5
1D
102
{ACAD_REACTORS
330
1A
102
}
330
1A
100
AcDbXrecord
280
     1
270
     1
271
     1
  0
XRECORD
  5
14
102
{ACAD_REACTORS
330
12
102
}
330
12
100
AcDbXrecord
280
     1
270
     1
271
     1
  0
XRECORD
  5
13
102
{ACAD_REACTORS
330
12
102
}
330
12
100
AcDbXrecord
280
     1
270
     1
271
     1
  0
XRECORD
  5
F5
102
{ACAD_REACTORS
330
12
102
}
330
12
100
AcDbXrecord
280
     1
 70
     1
 90
1959938040
 71
     1
  1
2B93D860-59B4-4440-959A-78FC168DB55F
311
504B03040A0000080000C94E22423DEE336E79000000790000001B0000006175746F6465736B2D64657369676E2D7061636B6167652E786D6C3C3F786D6C2076657273696F6E3D22312E302220656E636F64696E673D227574662D3822203F3E3C666F726D6174733E3C666F726D61743E687474703A2F2F736368656D612E
311
6175746F6465736B2E636F6D2F64657369676E2D7061636B6167652F323030393C2F666F726D61743E3C2F666F726D6174733E504B0304140006080800C94E2242D486FD9CA0000000F4000000130000005B436F6E74656E745F54797065735D2E786D6C7D8EC10E82300C865F65E91D8A1E8C310C0EEA1BF002731658846E
311
D98AC1B77784ABF1D8FE5FBFBF75BBCE937A534CCEB38643598122B6FEE978D0B0485F9C41B54DDD7D022595594E1A469170414C76A4D9A4D207E29CF43ECE46F218070CC6BECC4078ACAA135ACF422C856C0E68EA1BF5669944DDD7BCDE7B1F8E415D77AECB980613C2E4AC91FC167A2B244592486606FC29C8FD7F045B9A
311
EF7053A7E60B504B0304140006080800C94E2242BFA2186AEA0000007C01000008000000636F72652E786D6C8D90D16E842010457F85CC3B0A8A4637C8A66AFB05FD0182AC4B760523D0F4F38BBB6ED2BEF5692677EE99995C7EFE5EEEE84B6FDE38DB01CD08206D959B8C9D3B88E1821B4067C137E7C22F1B202B17DDC12E
311
83E0F3E6E27A48CAD9A06D48AA75933E44E9BD0E80D43D351D7875D58BCC640CC9E16FD92AD54DCE3AA3AF2EC1319A093D8F9829ED3317A33710D5587E103AB4988EFD3B666F758BDBA12A71D38FAC65036BFA9AF17C87050F6679DD579B96414F200A424B4C2826C527694F153BD10693FA4408CF77FB1F28AED33FA1686C
311
288BE3DD27E641D0F4C8632078BE6791CA23A854F7DCC40F504B0304140006080800C94E224255019EA25F0000007C00000007000000636E782E786D6C4DCB3B0E80201045D1AD90E915ED2CF8AC45050C11660C8261F98AB1B07AC9C97D42D718D865D3E909258CFD00CCE24AC6E326A164D74DC0B4128928FF326038472B
311
A13128B1252AC747C6BAB984FC68F0B87FE8960A5C09FE86CFB69FBA01504B0304140006080800C94E22423D0F319967010000020300000C0000006662782F636F72652E786D6C8D52ED8E8320107C15C27F043FDA688334D7F6EE09EE05A852CF54C120983EFEAD1F8DD74BD33426486676766747F9FED6366850B6AF8DCE
311
7118308C942E4C59EB2AC7DE5D488AD15E706B8CFB53869196ADCAF10863C12B6B7CB74085D14E6907A836A55A40D9F7CA61543470C9715FFCA85606D23BA8E8AF41278BABAC54100640439DE0BDB36000CD43C6138BCBF9C6E98C0BEE7D5D2E6C5DC2B4FA522B8BC5E6147FB1F09891F074F824C9C73623D9711393F4704A
311
B2E498A4876DC2E92816DCD5EDDD5D619574AAC42262614C584858F4CDB2DD26D9852961DB1D639C8EE50F22DF956F8A7CAD5D1C2D7667598F45084626E2DFB6109143BD1CC00F159C8E21C26B4AF8316808044276F2DCDCF7B80234A8C2199B00531ABF52836CBC82A90C4D0FA7330B9DA706B0D9D33ED18B3EAF7BC00794
311
BA026BD2C1F5ECDD389DCF5397283A65C9E06E481BDBCA6635375B5CCF75D05379611A63DF51D36555BA8449C7BF57FC02504B0304140006080800C94E2242CE9592817C0000009D0000000B0000006662782F636E782E786D6C4DCCD10A83201886E15B91FFDC954323410D75BB90581632D3703A76F9ABD1C18E3E78F878
311
C5F059037ABBFCF2294A209716908B8F34F9B848A865C63DA041899C52F9BB018AE3EA241C0C4A2C39D5EDA4C9CD630D65D7E0E3F3C4D672CBD9CD606D688F29A716EB8E306C0CBB5F3B4688311A1A259A5F69DF23ACBE504B0304140006080800C94E224258A717362C01000015020000310000006662782F304339433935
311
44422D414234382D343934432D413631352D4242354532363531314242412F636F72652E786D6C8D514B6EC32014BC0A62952EB0C1C18E1D61A238ED0D7A0162488A1283C5A7CAF10BB523B5BB6C7868DECCBC81C70E8FE90EBE95F3DA9A1E920243A0CC68A536D71EC670412D0407CE9CB5E10F0D022326D5C30C43CEAECE
311
C67985466B823221A1C64AB582C27B152018EFE9D2433F7EA949142286C4F0B76216E34D5C55418AD44E3CCE7C7029005886E413727CEA4E5DFD3EA0E3405B443B7A42C786D46818EA8FAAA9091986232B172167316AB9CAB54C71F4452BF7AA49167316F4F48C3F3A2582929057986C112608579FB8DBD7744F5A849B3DC6
311
ACCCF47FA238CB1745519BB0ADD6B88BCC434E58B9343893369EEFCF30EA315B17409EB7F16A7C4BAF2A30DEEE760DC53B562EDCF403C9B4A1ABA90FD6A51FDEDCCE894EEAC5B9A19C957949A9FC6E30D5BC50FE03504B0304140006080800C94E22421C7041504D01000033030000300000006662782F3043394339354442
311
2D414234382D343934432D413631352D4242354532363531314242412F636E782E786D6CD593CD6EC32010845F0571B78D13374A234CA41EFA043DF44A6093D260B0F8A99AB7EF929034971C7AEC0559B3C3CCEA13E6DBEFC9922F08D17837D2BE659480535E1B7718694EFB664DC956F0E07DBAB351E2E404232D3215FC10
311
7C9EABA4612FB34DA85AE38E550C107D0E0A22CAE526B15E498B01E09A8C224C3BD01A34B919F16B0F015741717722E903C8EBCB3BF1BB4F5029F2AEA408DE950EC1CB599BEE4C94282B631C69541F30C956E6E435C463AB65926DDF5EBB1EECF49B44CA856B650E8694F29196938ABA518B1C798743C1630A48AF9AD26906
311
2AE43C5BA36442C8DDD978F1089E8D4BABA17A0D820FE8EE57CB61C0B0F34CF06426A80E154026D0542C58BF6C58DFB0C51B7BDE3C0D9B7EDDB0D58631DE15BBE03BEF6DBD843110FC4C9477095CA2A2E75D193FC2577D449B80AC7D38FD012402A8AD173AB78CFFCCA73BBF6FC415F02F103F504B0304140006080800C94E
311
2242B88FCF8AA405000081100000340000006662782F30433943393544422D414234382D343934432D413631352D4242354532363531314242412F6F626A656374732E786D6CAD57D98EDB3614FD15417D691FBCC8CBC42E340AC6762730D249821809FA60C0A0254AC30EB580A4269E7E7D0F454A961C7BE21679D1C2E5F2
311
DE73CF5DE8BF3DA4DC79A642B23CBB75BDFED0756816E611CB925BB754716FE63A6F035FE4B96A2D739D8CA4F4D6D5C36EE027222F0B3B14D198945C9D8CDE2FFE72644833EA3A212752DEBA327CA429E99352E511954FFD8828D24FE243DFEB9B855DB18920C5E389D082089A29688AF10C521CA394D7FD1DBA83C01FE8F9
311
C0D74FBB6A7C79D5A0B2A77B3ECBA42259F8DD612762C6DE64F5C7683AEF4D2793716F7233F27A8BFBC5AAE7BD190F9737CBE5FCEE8F390E964A4092D544D0D80DDE011BC1427F60A602BF64991A8FEC12EBA081A0CF4C7BCA0D468EE70FCC9AC63A6BE439F5C33CCB68586105342AFBACE88816348BE0734625346B2134EC
311
FE7A1AC7D6F458FFDB23DBC3D721D0DED11254EB5EBFDB9AE6FBBF6182BC86414252CD4083A535D470757844789FE7DCCE31E9A44451C1087738DB0B225EDC004BF592C0EF88D14C163A1AB4056E002F98E92E5D10463FE6F9392DE392734D6337A8A2608758A14A569AB17FA8386ADF46063AC1579A0D336B907A29A81BCC
311
0D4566276C32403A3127095C0E33F5CEF1E8C4D0A58ED3F5CA0DDEDFEF0F1B1DBBE70F2F445E50A1347D40ADDA71F55BA36475F2AEF29CDEE09EA87204E53390FF80503FAA02BF0976981C26F614254826E35CA4F08D33747A433C868E573DF577EBCB1F349BBBDEBB84279CADA1FA0978766D68FBB20567E03F83F0B9185B
311
D33621E1481B0F2C03409A240ECF31843C1CEF0F6EB046964356C62EC2030F2643DD677CFA032B0689A23AA9F5CE80E5495ABC224103B68A9150C390DF2A78F4D377E9AC3AD82EBB04EFF4A7D0F56EB579BF29454C42FA60637A45639631851277E44D5BA10EE61D8B9EE8CBB75C4430F47BBC376DBC537B9404DA1A730D7C
311
52E774FD733CB97340887D49AED38DFF831360842EAC2DF90F4C86947392D1BCACCF7DB57EA06C188875B06B263705E65858401A3373128328D2A1608506B1A9564DD2EC5FB0EECBFA0318E9068B973FC94B3B7BED8FB937CC792E76FB979D494B67A1FEDAE5B6C560A0A580EE5590D4F16F41DF452C8E4B89247806D7AFEB
311
65DB773A2D2045D4524DB44C603F828B084BDA5A2EAAB520A8A479B663A89B88BBB307B4E50352CB804AE0258D25E5F18E715EA6BB987154A35D4A8A0B70FC7FFDF7655AEC489A9799BA20BBA33AAA4357F70E7BE537A2C24737D854EFDE02B937A2D10532E85A7206AB8E6B478BF97835BB19F6A6F3C5A437994C86BDF974
311
7ED77B33BB5F7A37B3D5623ABDAFFD643409FCBAD4B4231A5E4269F34BC1ACFBBEAC113F3609B8C1035172FBCE8467FDFEB2EEA317F607D8837AD96CBC8B9ED1F7D1E8C7028E2BCF0A5AA705A729CD14D131F4A03FF867823EA3A38C195FA724A15748F9F86E73620C46AED8F749C73BFD76B2D78E2E75409E15A21ECB749F
311
11C64F362606C97E912516BFDA27CDDB149AFA57FF59C7A03395396711F260E424344FA94236BCA20889944A50AFDDD347F6EE71C5EE67D3212AB2E7B4D6E491A049E61261016A95A1EA8E3BBFA0A9D37DD5AD8B72DB7FC2C3660AD701676E5D34E98A8554F6F728D0BA15AA84834BED4E1E8D3FC9128E5EDB6C6AFE9B5D1A
311
9B4E496E965CD33F59BB4C0AB706208D14E81BD010C13B9532815FE966E7C3FF6478AD8E43143EF7A56A6C390E34C654C720448D51F6B68026E6C91E7D40A0BE6E96D7AFD67410B9EA96F52A098CD49E2222A96E0A5A3FABD2DDEAD3001D8AB3FEE814BC4CE0CBEB25F50405994B1DE06011586165164481AACBDFB79F448E
311
9B6CEADC3350C0F9F530BBF96DBBCCD334CFCCD0F6CEDE879DCD236EB7D116C981EA6B89DC8E86DE685B5D07EC0D65B72792F649249F3000CF0AD600DD713F7869EE8CA84366A25937D0AE3861E87AE5D8C23681504B97766ED5E0A0F1C8A88318D2574A1D31ED05C5AB378241B5142A08F4F2C1BF504B0304140006080000
311
C94E2242000000000000000000000000350000006662782F30433943393544422D414234382D343934432D413631352D4242354532363531314242412F76657274696365732E62696E504B0304140006080800C94E2242F270F1330600000004000000360000006662782F30433943393544422D414234382D343934432D41
311
3631352D4242354532363531314242412F747269616E676C65732E62696E636660600000504B0304140006080000C94E2242000000000000000000000000370000006662782F30433943393544422D414234382D343934432D413631352D4242354532363531314242412F617474726962757465732E62696E504B03041400
311
06080800C94E2242D5987DFC8F00000041010000360000006662782F30433943393544422D414234382D343934432D413631352D4242354532363531314242412F6469726563746F72792E786D6C858F410EC2201045AF4266AF15DDB800BA74E7C21B903225242D6328188F2FA5C4183471359997F9FF81E89FF3C41E1816
311
475E02DF1F80A11FC8386F25A438EECEC07A250251FC3803E6F58C12560C4AD840E95E91C151A72936F496F35732D860FE635F62C8F2DA16B505C545B74125BAA2FA9E05D7CC053D063734D5C7665FD55B6B8D15D5E9BFEAFD8490FFA45E504B0304140006080800C94E2242AC0936F2FD000000A00100003B000000666278
311
2F30433943393544422D414234382D343934432D413631352D4242354532363531314242412F7265736F75726365732F636F72652E786D6C8D504B6E833010BD0A9ABDC10E1001328E0AB427E8052C33A156821DF953F5F835814AEDAE9B99D1FB689E1EBF7CADF7EC139DD7D6F4C0720A191A65676D961E62B89206B28BE0
311
CEDAF04B0699912BF6B0C120F8E26C7C1C90B226A009093576C60394DE63804CDDD3D183571FB8CA5CC69014FE963FA4BAC9057396273AE904F7C1A500D9FE649B201C7A1B9D42CF8B9D153C463D1F1A3DA79FFAAAD181A8A7F28DB2B1216C1A5E49F5726E493BD6256986A96AABB16A8673C58BCD2C78D0EB4F46E550069C
311
419C282B0965849EDE69DBD555C71A42CF1DA5BCD8E47F4CF131FFD314B509E5E988BBDB3C0896823C09C18BADAFB49E65A6BD752BBE01504B010214000A0000080000C94E22423DEE336E79000000790000001B00000000000000000000000000000000006175746F6465736B2D64657369676E2D7061636B6167652E786D
311
6C504B01021400140006080800C94E2242D486FD9CA0000000F40000001300000000000000000000000000B20000005B436F6E74656E745F54797065735D2E786D6C504B01021400140006080800C94E2242BFA2186AEA0000007C010000080000000000000000000000000083010000636F72652E786D6C504B0102140014
311
0006080800C94E224255019EA25F0000007C000000070000000000000000000000000093020000636E782E786D6C504B01021400140006080800C94E22423D0F319967010000020300000C00000000000000000000000000170300006662782F636F72652E786D6C504B01021400140006080800C94E2242CE9592817C0000
311
009D0000000B00000000000000000000000000A80400006662782F636E782E786D6C504B01021400140006080800C94E224258A717362C0100001502000031000000000000000000000000004D0500006662782F30433943393544422D414234382D343934432D413631352D4242354532363531314242412F636F72652E78
311
6D6C504B01021400140006080800C94E22421C7041504D010000330300003000000000000000000000000000C80600006662782F30433943393544422D414234382D343934432D413631352D4242354532363531314242412F636E782E786D6C504B01021400140006080800C94E2242B88FCF8AA405000081100000340000
311
0000000000000000000000630800006662782F30433943393544422D414234382D343934432D413631352D4242354532363531314242412F6F626A656374732E786D6C504B01021400140006080000C94E22420000000000000000000000003500000000000000000000000000590E00006662782F30433943393544422D41
311
4234382D343934432D413631352D4242354532363531314242412F76657274696365732E62696E504B01021400140006080800C94E2242F270F13306000000040000003600000000000000000000000000AC0E00006662782F30433943393544422D414234382D343934432D413631352D4242354532363531314242412F74
311
7269616E676C65732E62696E504B01021400140006080000C94E22420000000000000000000000003700000000000000000000000000060F00006662782F30433943393544422D414234382D343934432D413631352D4242354532363531314242412F617474726962757465732E62696E504B01021400140006080800C94E
311
2242D5987DFC8F0000004101000036000000000000000000000000005B0F00006662782F30433943393544422D414234382D343934432D413631352D4242354532363531314242412F6469726563746F72792E786D6C504B01021400140006080800C94E2242AC0936F2FD000000A00100003B000000000000000000000000
311
003E1000006662782F30433943393544422D414234382D343934432D413631352D4242354532363531314242412F7265736F75726365732F636F72652E786D6C504B0506000000000E000E0080040000941100000000
310
504B03040A0000080000C94E22423DEE336E79000000790000001B0000006175746F6465736B2D64657369676E2D7061636B6167652E786D6C3C3F786D6C2076657273696F6E3D22312E302220656E636F64696E673D227574662D3822203F3E3C666F726D6174733E3C666F726D61743E687474703A2F2F736368656D612E
310
6175746F6465736B2E636F6D2F64657369676E2D7061636B6167652F323030393C2F666F726D61743E3C2F666F726D6174733E504B0304140006080800C94E2242D486FD9CA0000000F4000000130000005B436F6E74656E745F54797065735D2E786D6C7D8EC10E82300C865F65E91D8A1E8C310C0EEA1BF002731658846E
310
D98AC1B77784ABF1D8FE5FBFBF75BBCE937A534CCEB38643598122B6FEE978D0B0485F9C41B54DDD7D022595594E1A469170414C76A4D9A4D207E29CF43ECE46F218070CC6BECC4078ACAA135ACF422C856C0E68EA1BF5669944DDD7BCDE7B1F8E415D77AECB980613C2E4AC91FC167A2B244592486606FC29C8FD7F045B9A
310
EF7053A7E60B504B0304140006080800C94E22420DFD2ABBE80000007C01000008000000636F72652E786D6C8D904D6EC3201085AF82668F0D8E13190B13D9C9117A0104C44589C1E2A7EAF18B13476A775DCDE89BF766468F9FBF9707FA32215AEF06A01501649CF2DABA79809C6EB80374163C789F7EC90039B99801360C
310
82CFC1E77547CABB645C2AD4796D7628633409907A946680A83ECD222B995351C47BB54A7597B3A9E8BB2BE69CAD46AF2356977DF6664D0031313692A63BE1F142AEB8ED28C513EBAE984EED653C323615C2EBCD2C78B2CBFBBE0A4626A34134841E30A198341F84F5C7B6A71D26A79E105E6FF23FA6BCEA7F9AB275E9D0EC
310
EFBE6C11042D8F3C0782D75B16A53C832A75CB4DFC00504B0304140006080800C94E224255019EA25F0000007C00000007000000636E782E786D6C4DCB3B0E80201045D1AD90E915ED2CF8AC45050C11660C8261F98AB1B07AC9C97D42D718D865D3E909258CFD00CCE24AC6E326A164D74DC0B4128928FF326038472BA131
310
28B1252AC747C6BAB984FC68F0B87FE8960A5C09FE86CFB69FBA01504B0304140006080800C94E224291AF31DE63010000020300000C0000006662782F636F72652E786D6C8D52ED8E8320107C15C27F04AC6DB4419ADA3EC2BD0055DA33553008A68F7FEB47E3F5D234171324333BBBB3A3E2F0681B3468D7D7D6E498470C
310
236D4A5BD5E696E3E0AF24C5E82085B3D6FF2AC3C8A856E77884B114376743B740A5355E1B0FA8B1955E40D5F7DA63543670C9715F7EEB56452A78A8E8EF51A7CABBBAE9884740439D14BD776000CD43C613CBEBE521E88C4B11425D2D6C5DC1B4FA5A6B876591654716A73B723CB1334952CE4991A567C28BE474DC665901
310
88A0A3580A5FB74F77A5D3CAEB0ACB98F10D619CB0F88B65FB6DB2E72961BB3D63828EE52FA2D055FF1485DAF84DBCD89D653D961C8C4CC49F6D21228F7A35801F2A051D4384D794F06BD0100884ECD5A579EE710768D0A5B72E01A6B261A506D5040D53199A1E4167163A4F0D60B3B77DE20F7D3EF7800FA8CC0DAC290FD7
310
4BF0E374314F5DA2E8B423837F20635DAB9AD5DC6C713DD7416FE5A56DACFB8F9A2EABD2254C3AFEBDF207504B0304140006080800C94E22423D74F0BE7D0000009D0000000B0000006662782F636E782E786D6C4DCCD10AC2201805E05791FFDEA6F2170DD4B155BEC7686E484EC3347AFC5CECA2ABC3F9381CD97D564FDE
310
36BD5C0C0AF88101B1E11E2717160525CFF40CA4D332C598FF6640C2B85A051B83964B8AE5B9D364E7B1F85CD5BBF0D8915D10D9F53650C185A168D889F6D8D73AB49C9BA13D220A68B46C7E4F35B763FD05504B0304140006080800C94E224292EEC84B2A01000015020000310000006662782F30433434304445422D3231
310
32462D344630362D413441422D3242393131464239353434322F636F72652E786D6C8D51DB72C22010FD158627FB90648998AA4370B4AD5FD01F408296D140864BC7CFEFA68933ED9B2F2CEC9E73F6B02B76F7FE46BE4D88D6BB96B21228314EFBCEBA4B4B733A176B4A765204EFD31F18254EF5A6A5639A4A71093E0F734A
310
7B978C4B9875BE337352C5681225FA86979646FD657A55AA9C1011AFE5A0F4555D4CC94A2C234E8A98021A205393F1A412DE3887F78F4351B3FA58F02334C59EEFF179D830763C6C569CD7A29A8852E46CBB996E3BB463CFD684674546B214C9F60FFB3A18954C47650D6C59002BA0FE84CD76C5B76C5D40B30510D508FF47
310
CA43F724295B9796F56C77A2452A99A8A682149DCFA7DBC38CB90F3E2432F65B44A35FF057250067C038BC8A6AC2E20450B4E1B3684C3EE08417D713C297B372C3A5A8C62561F8DD20C671A1F207504B0304140006080800C94E22427AD78E475501000033030000300000006662782F30433434304445422D323132462D34
310
4630362D413441422D3242393131464239353434322F636E782E786D6CBD93C16EC32010447F0571B78D13D772234CA41EFA053DF48A6193D0D86001AE9ABFEF929034971C2A55BD206B7698593D61BEFD9A46F2093E18677B5A978C12B0CA6963F73D5DE2AEE828D90AEE9D8B77364AAC9CA0A749A682EFBD5BE62C69D8C9
310
658CA88EC61EB3E821B8C52B0828A79B64744A8E1800B65850846900AD41939B11BF76E07115148713890720AF2FEFC40D1FA062E0554A11BC4A1D82A73337DD992851A30CA1A7411D6092A55CA2D3108EA59651967579ED7AB0D34F124917AE958B372495F7349D54E48D4AE4C82B1C0A1EA2477AD9144F335021E779344A
310
46845C9D8D178FE08BB1B16DB2D720788FEEF5AAED3A0C3BCF048F6682EC501E64044DC58AD5EB82D5055BBDB1E7CD53B3A9BB82B51BC67895EC820FCE8DF912C680773351CE46B0918A9A5769FC085FF6116D3CB276FEF40B900820B75EE8DC32FE924FDDAE9BE61FF954E7F78DB83CFE05E21B504B0304140006080800C9
310
4E2242BD2AA49F630700009A1B0000340000006662782F30433434304445422D323132462D344630362D413441422D3242393131464239353434322F6F626A656374732E786D6CED59DD73A33610FF5718FAD23E189BD84EE30EA193D8CD8DA74D7B73EEDDF4C1338C0C3251230423895CDCBFBEAB0F301093E0367DEB830D
310
0869B5FBDB4F2DC18FCF19759E30172467D7AEEF4D5C07B3384F084BAFDD52EE4757AEF36318F03C978D69AEC35086AF5D35EC8641CAF3B2B04309DEA392CACEE8DDED1F8E8831C3AE135324C4B52BE2079C210F95324FB078F412249197EE9F3DDF3313DB64538E8A870ED10271CC24700AE30CA8388629BFFD3871C76130
310
56EFC340FDDB59D341B366FDB3C65AEA369784098958FC82A50E99E92096A6FE6CF5D3C57C319ACF66D3D1ECF2C21FDDDEDDAE46FEF7D3C9F272B95CDCFCB400F676794EAD4C092E304B407F0737F483B17A538B6E1138C5759C3386630D2440A5C5EA122458C0560DF826ED475F49D478AD256C3CCFD47BCB426378DAA6D2
310
376B18102DBA2088DDAE92B8BA36E5CB777F82E0628851728125702B2407ED5A783878851B4E82B1190D83DD5117443819929813441D4A761C71500A4C5553C2C02CB06494737020E52809B4E6CCEBB66D8167BEED3AA7B8DC97942ACF7043ED5811B81F96427346FEC2FCC87D1319E009A42D099357964B7928B01B2E82B1
310
1E0C0375995ED8970648674F512A3422E66D47D0A572FDF5CA0D7FBEDB3D6F543838BD79C1F30273A98C4EE951F305866CAF0A25BBAD3F48736A01086340B52B8FA07C02E47F85E8716405F4C6C9F3EC7966E74A8E98D8E73C03DD3813673481BF89E3EB7F75DFB80BC6F5E2B6F6FAF0043755505DFD7B3CDB3268AC2CFF0D
310
38C3E0090C3EE753FB6A13230AF67C4F1800A48CC4A1390C4168DFEF9EDD700D8113023DAC4234F4416460F7096E83B12573D44AE55ED6EB18206AF7980E5112C0A62D12D8E8D1D307C81E9CC447353545EC8377FE2EE67AB3DAFCBC29F91EC5F8DEFAF40AEF092312B2E669865A98B7247AC487AF394F40D097786F9A7867
310
762B01682BCC15F06905827A38EEDCDA20867569AEC24DF0C60E2084CAD50DFAF744C49852C4705E56FBD6D14D196AEDF1B66670C30B03F1F4A263C21C3F11555580D31C67B41885BC1F73522810DDF08391AC0E9A5E8F749FD7BF8245D6F37B66AD19845E86E8EF3A689DC0A165D915D216885AE0DD319CC739CD79B43B44
310
26D2B9504B001B6D6FF9D2220AB1DE284951010FD27E578594D4481B2564BF2F05C4D5132C7E592F9BE630F1A6FEDC69FE779C7106D1167C1771EB779D3D2292A114477B94F46DD7DCADA62D34C91ED21CEF29C8459E883C4448469304A7E7407316F1C5BB524F692E04615840BE3A097E138D890781C468B3625969B50334
310
11518625A2E720A0C8F480ABD38EAE7163281DDEE6B1B6DED734D624FA1F590447504BE62C22508A420E799371DF9B430C69A36B50EEE00BD656D1D662D0124A88F8107DC5247D90E7A06EC8F7E01EC391A494515EA018CC7A00D917BEA294DAE17D87E247953FA2B8A4EF652002D37D44282DB3087E84C1C963886BD781E9
310
55141AC44DEC933883A20CC9920FD9E4723E79B18FA919BA21B0B1D19E5008DB51868A1ED45B0151D7234E0DBEA5DEA3D45D991511CAF2920D32146FDAF5264BBEAB56457620BFAA5484B2B1226C09860161B2CEAA55CC0653D78115DC4807AA4324505650730A7B23F1F8B53769CABD1B70EBA7EFBB4106855F8FF69A1175
310
56C160796C1506E22B92F1831B6EF475740BF577829363AAAF6ACD66050888A9485E726255F4790DE58DADD1DCF01E49B1FD60B26E75FDBCF6A0FB118C610DD42EF5C2B5023AC34C225599DCAB1BFA0941086ED130E36B9553CFA1729324BA6A44F48EF4A9B35546B436CD88573C609667F0635BC2625A26788B12F118DD4B
310
1A6D8862DD4AE965A4C2F855017FFBB0E9C003230344FAA80A3CFCB5B3D68E2E55B97492887C28B31D430482604BB4D4E8C62B586A355269B9BEAA3305D45D606056C5B3FF4F16CD76C4FF278BD41AC6BF3A59DC1E7E4187665FA491CE6365D7671D03EAFCA4A8BCC73140B71D6AAA751631C9DCCA6F9D2982A05845F9C1D5
310
5815340CC13E8EFF71D6EECB8266BB0EFFE7656DFF45C5715656694D565DAA1395EBBA99C32E6E17D3D5D5E564345FDCCE46B3D96C325ACC1737A3EFAFEE96FEE5D5EA763EBFABD1D48E1A067530D3B90B9E4D50AB86D593C500BAB222A72481D37CE2A41862BE8433FD80F639CFB080E4D96C7627B6293F60F593E9734AB4
310
A3B8E2E4014183980A48EB805119CBF6B8F30DB426251CB4AF5D681A798FF067ADD27520F35CBBD02A9024C6C2DB419B4935F4347148B93AF75B62800F62A94A896651FD5CAF52D8B4C27F3D65481AB072B57A1850B815D0FD6A7528346F96A7F82CC12B761C24E176574AA8D68C2CC7815A18BDCD51FD46364AD8A3DDFA19
310
5CF775B17C4FCF692132E893C1AB4660A88E24E2A9EE772BC62C4B37AB8F63E8B339EBDF9C829629E87238A511C760CCA52AA8C08AC02A2CCD024930D5E50FDB8F3C874F3C99A3AB22E7DBE7ABCBEFB6CB3CCB726686B637702A4BE04391B37980CF3EC9168A07AC9AEB627B31F12FB6BAA96DFBECD10E09ECA9AA0806AA62
310
4209D23139B0CB170D2ADBBE1C2B5574A6AF578E0DA2D00C3076F4A2C76B3E7239E043EA738AF218EDE795B4AFF6B5C77A2AD804878E74F837504B0304140006080000C94E2242000000000000000000000000350000006662782F30433434304445422D323132462D344630362D413441422D324239313146423935343432
310
2F76657274696365732E62696E504B0304140006080800C94E2242F270F1330600000004000000360000006662782F30433434304445422D323132462D344630362D413441422D3242393131464239353434322F747269616E676C65732E62696E636660600000504B0304140006080000C94E224200000000000000000000
310
0000370000006662782F30433434304445422D323132462D344630362D413441422D3242393131464239353434322F617474726962757465732E62696E504B0304140006080800C94E2242D5987DFC8F00000041010000360000006662782F30433434304445422D323132462D344630362D413441422D3242393131464239
310
353434322F6469726563746F72792E786D6C858F410EC2201045AF4266AF15DDB800BA74E7C21B903225242D6328188F2FA5C4183471359997F9FF81E89FF3C41E1816475E02DF1F80A11FC8386F25A438EECEC07A250251FC3803E6F58C12560C4AD840E95E91C151A72936F496F35732D860FE635F62C8F2DA16B505C545
310
B74125BAA2FA9E05D7CC053D063734D5C7665FD55B6B8D15D5E9BFEAFD8490FFA45E504B0304140006080800C94E22426517778AFA000000A00100003B0000006662782F30433434304445422D323132462D344630362D413441422D3242393131464239353434322F7265736F75726365732F636F72652E786D6C8D504B6E
310
833010BD0A9ABDC1265001328E2039422F609909B5126CE44FD5E3D74EA8D4EEBA9919BD8FE6E9F1F3D7F6283ED1796DCD08ACA450A05176D1661D21861BE9A0380BEEAC0DBF645018B9E1081906C15767E37E40CA9A802624D4D8050F507A8F010AF548C7085E7DE0264B194352F87BB94B75972B96AC4C74D209EE834B01
310
8AD7933C4138F4363A859E572F56F018F57268F4927EEA9B460762EEFB89D65D4BA60BBD92A6638CCC7D77256C6E2E53DBF773427895CD8207BDFD64540E65C005444DD989504668FD4EFBA16D06D611FA3650CAAB2CFF638AFBF24F53D4269CEA23EECBE641B014E449085EE5BED27A969976EE567C03504B010214000A00
310
00080000C94E22423DEE336E79000000790000001B00000000000000000000000000000000006175746F6465736B2D64657369676E2D7061636B6167652E786D6C504B01021400140006080800C94E2242D486FD9CA0000000F40000001300000000000000000000000000B20000005B436F6E74656E745F54797065735D2E
310
786D6C504B01021400140006080800C94E22420DFD2ABBE80000007C010000080000000000000000000000000083010000636F72652E786D6C504B01021400140006080800C94E224255019EA25F0000007C000000070000000000000000000000000091020000636E782E786D6C504B01021400140006080800C94E224291
310
AF31DE63010000020300000C00000000000000000000000000150300006662782F636F72652E786D6C504B01021400140006080800C94E22423D74F0BE7D0000009D0000000B00000000000000000000000000A20400006662782F636E782E786D6C504B01021400140006080800C94E224292EEC84B2A0100001502000031
310
00000000000000000000000000480500006662782F30433434304445422D323132462D344630362D413441422D3242393131464239353434322F636F72652E786D6C504B01021400140006080800C94E22427AD78E4755010000330300003000000000000000000000000000C10600006662782F30433434304445422D3231
310
32462D344630362D413441422D3242393131464239353434322F636E782E786D6C504B01021400140006080800C94E2242BD2AA49F630700009A1B00003400000000000000000000000000640800006662782F30433434304445422D323132462D344630362D413441422D3242393131464239353434322F6F626A65637473
310
2E786D6C504B01021400140006080000C94E22420000000000000000000000003500000000000000000000000000191000006662782F30433434304445422D323132462D344630362D413441422D3242393131464239353434322F76657274696365732E62696E504B01021400140006080800C94E2242F270F13306000000
310
0400000036000000000000000000000000006C1000006662782F30433434304445422D323132462D344630362D413441422D3242393131464239353434322F747269616E676C65732E62696E504B01021400140006080000C94E22420000000000000000000000003700000000000000000000000000C61000006662782F30
310
433434304445422D323132462D344630362D413441422D3242393131464239353434322F617474726962757465732E62696E504B01021400140006080800C94E2242D5987DFC8F0000004101000036000000000000000000000000001B1100006662782F30433434304445422D323132462D344630362D413441422D324239
310
3131464239353434322F6469726563746F72792E786D6C504B01021400140006080800C94E22426517778AFA000000A00100003B00000000000000000000000000FE1100006662782F30433434304445422D323132462D344630362D413441422D3242393131464239353434322F7265736F75726365732F636F72652E786D
310
6C504B0506000000000E000E0080040000511300000000
  0
XRECORD
  5
17
102
{ACAD_REACTORS
330
12
102
}
330
12
100
AcDbXrecord
280
     1
270
     1
271
     1
  0
XRECORD
  5
16
102
{ACAD_REACTORS
330
12
102
}
330
12
100
AcDbXrecord
280
     1
270
     1
271
     1
  0
XRECORD
  5
18
102
{ACAD_REACTORS
330
12
102
}
330
12
100
AcDbXrecord
280
     1
270
     1
271
     1
  0
XRECORD
  5
15
102
{ACAD_REACTORS
330
12
102
}
330
12
100
AcDbXrecord
280
     1
270
     1
271
     1
  0
XRECORD
  5
24
102
{ACAD_REACTORS
330
22
102
}
330
22
100
AcDbXrecord
280
     1
270
     1
271
     1
  0
XRECORD
  5
23
102
{ACAD_REACTORS
330
22
102
}
330
22
100
AcDbXrecord
280
     1
270
     1
271
     1
  0
XRECORD
  5
BA
102
{ACAD_REACTORS
330
22
102
}
330
22
100
AcDbXrecord
280
     1
 70
     1
 90
1959938040
 71
     1
  1
6857F6CC-DD72-473A-B521-A6119243E79A
311
504B03040A0000080000C94E22423DEE336E79000000790000001B0000006175746F6465736B2D64657369676E2D7061636B6167652E786D6C3C3F786D6C2076657273696F6E3D22312E302220656E636F64696E673D227574662D3822203F3E3C666F726D6174733E3C666F726D61743E687474703A2F2F736368656D612E
311
6175746F6465736B2E636F6D2F64657369676E2D7061636B6167652F323030393C2F666F726D61743E3C2F666F726D6174733E504B0304140006080800C94E2242D486FD9CA0000000F4000000130000005B436F6E74656E745F54797065735D2E786D6C7D8EC10E82300C865F65E91D8A1E8C310C0EEA1BF002731658846E
311
D98AC1B77784ABF1D8FE5FBFBF75BBCE937A534CCEB38643598122B6FEE978D0B0485F9C41B54DDD7D022595594E1A469170414C76A4D9A4D207E29CF43ECE46F218070CC6BECC4078ACAA135ACF422C856C0E68EA1BF5669944DDD7BCDE7B1F8E415D77AECB980613C2E4AC91FC167A2B244592486606FC29C8FD7F045B9A
311
EF7053A7E60B504B0304140006080800C94E224264E989C8EA0000007C01000008000000636F72652E786D6C8D90416EC3201045AF82668F03C64E1C0B13B94E7B825E0001715062B00C543D7E71E248EDAEAB19FDF96F66F4F9E97BBAA32FB304EB5D07B420808C535E5B377690E20537804E822FDEC75F36404E4EA68355
311
06C1C7C5A779939477D1B89855E7B5D94419828980D43D371D047535932C648AD9116EC52CD54D8EA6A0AF2EC329598D9E47ACCEFBECC59A05C4FB79D813D610FC71A81B5CD57D838F555DE1C3C0FAAA67C3B97F237CB7C282473BBDEEABC5C868348892508609C5A4FC24C7B6AE5ADA60B26F498656FB1F28CDFA9F50B22E
311
B2727BF7890510343FF21808BE5BB3C8E51154AE6B6EE207504B0304140006080800C94E224255019EA25F0000007C00000007000000636E782E786D6C4DCB3B0E80201045D1AD90E915ED2CF8AC45050C11660C8261F98AB1B07AC9C97D42D718D865D3E909258CFD00CCE24AC6E326A164D74DC0B4128928FF326038472B
311
A13128B1252AC747C6BAB984FC68F0B87FE8960A5C09FE86CFB69FBA01504B0304140006080800C94E2242CA63376066010000020300000C0000006662782F636F72652E786D6C8D52ED8E8230107C95A6FF0BE54BD1941A4EEF9EE05EA042E588D092D2121FFF960FC37931C690946666677776801D6E6D830669FA5AAB0C
311
071EC548AA4297B5AA32ECEC85A4181D38335ADB3F651829D1CA0C8F30E6AC32DA750B546865A5B2802A5DCA05147D2F2D464503970CF7C58F6C85279C858AFEEA75A2B88A4A7A810734D471D65B0306D03C643C31BF9C6FCC9F71CE9CABCB85AD4B98565F6A6930FF3C1D37344A29F9DA262989933C25BB3889C9F618E571
311
1E1D4FF90765FE28E6CCD6EDDD5D61A4B0B2C43CA44144684068F84D77FB24DE0729A19B3D05D158FE20725DF9A6C8D5CA46E1627796F59807606422FE6D0B1159D48B01FCF89CF96388F09A127E0C1A028190AD3837F73DAE000DB2B0DAC4C094DAADD4201A27612A45D3C3FC9985CE5303D8EC699FF0459FD73DE0030A55
311
813561E17A76769CCEE6A94B149D3464B037A4B46945B39A9B2DAEE73AE8A9BCD08D36EFA8FD65557F09D31FFF5EFE0B504B0304140006080800C94E22428F7B72497D0000009D0000000B0000006662782F636E782E786D6C4DCCD10A83201886E15B91FFDCA553B1400D3BF03E6259C84AC3E9D8E5AF46073BFAE0E1E355
311
FD675BD1DBE757485103BD11403E3ED214E2A2A19619B7807AA3724AE5EF06288E9BD7703218B5E454F78B263F8F752D87AE213E2F9452384104C777EB2CE643D7624B9DC48409CA3ACB981B38344635BFD2B167D87C01504B0304140006080800C94E22424C06B84F2B01000015020000310000006662782F373735463530
311
35342D324146412D344239382D413146372D3033353133394133334642342F636F72652E786D6C8D51CB6E833010FC15E4537A30D81848888C2372E00BFA03C476522BC1467E54F9FC2E8548ED2D17AF353B333BDAE5A7E7F4C8BEB50FC6D90ED19CA04C5BE994B1B70EA578C507949D04F7CEC53F3494D971D21D5A6024F8
311
CDBB346F9074366A1B01B54EE90D1C43D01165F2019F0E05F9A5A7311F530446B8E7F328EFE34DE7348736F0040FD143806C1DB2BC48ECF7F55093BAC2653FF4B83AB707DCD3618F09AB296B7BC68673C58B5528784A466D72A3208EB91AEDDF3559C4824733BDE24BAFC7A8151225A10C138A49F949DA635D1DE90193E648
311
082F16FA3F519AD59BA2646C64E51677950524282FD686E0CAA5CBE315463F67E763B6CCDB052D3F90203921ACA94BD6C206562E6C004C9B6A330DD179D8F0EE7E013AAD57E7A612BC588E04E5F7825097838A1F504B0304140006080800C94E22421C7041504D01000033030000300000006662782F37373546353035342D
311
324146412D344239382D413146372D3033353133394133334642342F636E782E786D6CD593CD6EC32010845F0571B78D13374A234CA41EFA043DF44A6093D260B0F8A99AB7EF929034971C7AEC0559B3C3CCEA13E6DBEFC9922F08D17837D2BE659480535E1B7718694EFB664DC956F0E07DBAB351E2E404232D3215FC107C
311
9EABA4612FB34DA85AE38E550C107D0E0A22CAE526B15E498B01E09A8C224C3BD01A34B919F16B0F015741717722E903C8EBCB3BF1BB4F5029F2AEA408DE950EC1CB599BEE4C94282B631C69541F30C956E6E435C463AB65926DDF5EBB1EECF49B44CA856B650E8694F29196938ABA518B1C798743C1630A48AF9AD269062A
311
E43C5BA36442C8DDD978F1089E8D4BABA17A0D820FE8EE57CB61C0B0F34CF06426A80E154026D0542C58BF6C58DFB0C51B7BDE3C0D9B7EDDB0D58631DE15BBE03BEF6DBD843110FC4C9477095CA2A2E75D193FC2577D449B80AC7D38FD012402A8AD173AB78CFFCCA73BBF6FC415F02F103F504B0304140006080800C94E22
311
428101CB48A305000080100000340000006662782F37373546353035342D324146412D344239382D413146372D3033353133394133334642342F6F626A656374732E786D6CAD575B8F9B3814FE2B887DD97DC88524735B315499A45345D5B455A356FB1029326018EF188C6C3393D95FBF9FC10448936976D59710CCF1F139
311
DFF9CEC5FEBB5DC69D672A1513F9ADEB0DC7AE43F348C42C4F6FDD5227836BD77917F85208DD11739D9C64F4D635CB6EE0A75294855D8A69424AAE0F56EFEFFE72544473EA3A11274ADDBA2A7AA4191992528B98AAA7614C3419A6C96EE80D6BC1BEDA5492E2F140694124CD352CC57A0E2D4E6D94D77F1DBBA3C01F99EF81
311
6F7EADD4F4B4D4A8F2A77F3ECB952679F4C361076AA6DE6CF97E727133B898CDA683D9E5C41BDCDDDF2D07DED574BCB85C2C6EE6EF6F70B0D2129AAC2592266EF001D84816F9A3FA53E0972CD7D38915B1011A49FACC4CA4DC60E278FEA896D97B679D3C667E24F29C46155640A3F2CFAA8E6941F318316754C1B20E42E3FE
311
AB6770EC7C9E9A777B6477F93C04BA3B3A8A1ADB9B67D75211FE0D17D4390C928A1A06D6585A476BAE8E5B844321B8FDC69493114D2523DCE12C9444BEBA01448D48E0F7D418264B930DC603374014EACF7DBA208D7ECEF363562625E786C66E5065C116B942B5AA2C63FF50D95ADF4506362156860DD7D621FD5A5037B8A9
311
29727DC0A61A4827E12445C8E1A6D9399D1C38BA3079BA5ABAC1C7FB70B736B97BFCF0428A824A6DE8036A35816B9E06256B937756E4CC06F7C0941694AF40FE1352BD350571936C37DBCDEC295A925C254266888D33760663FC8C1DAFFA35FF3BFFFCD17E733F7AA7F044B00D54BF00CFBE0FDD5876E00CFC67105EC8A975
311
6D1D118EB2F1C072006448E2708125D4E124DCB9C10A550E5519BB080F3CB80C739FF1D71F59352814D5499D670E2C0FCAE219051AB0558C841935F9AD816D9C7E2867D5C156EC14BC17BF84AEF3E5FAE3BA940989E883CDE9254D58CE345A5CCB9BAE413DCC7B1E3DD1D717216338FA23DEEB2EDE993D4A016D83B9013E6D
311
6ABA79694FEE1D10615F2A4CB9F17F72029C308DB5A3FF81A988724E722ACAE6DC37FB07DA460DB14976C3E47D83691B0B48537F39C84134E948B2C280B8EF56FBA2393CE1DDB7D5273012F25C8484B742615B7A23C185DC86AFDBBA2A1D45FA7B9FDA168291D102B65739D2A4BFC57C1BB32429156AE01158BFAF16DDD099
311
AA800AD168AD936506F7915B445ACE367AD1AC25412315F996A16D22ED8E1ED0D50F442D012A85A72C5694275BC679996D13C6D18CB619294EC0F1FFED0FCBACD8924C94B93EA1BB673A9A43DFF61E79D50BD1D1A31BACABE7E00EA537A6711BE69EB0692547B0EA85F6F2FAE2EA1E63D260B9BC9A0C6657D3F9E0EE0233D4
311
FCD2F36E26B3E9FBAB9B79132755CD5081DF749A6E42234AE86C7E29990DDFB715D2C7D6003778205A6D3ED4D9D93CBFAD861885FD11F6A05DEE37CEE3678C7D34FEB98256F2A8A25556709AD15C1393420FE60FFF4A3066F48CA9D7571949E9195A3E7F581F38839533F67D31E94E5F0EF6DAD58549C8A34AF46399853961
311
FC60635A23392CF2D4E2D7C464FFACFB4CF36ADE6C6030982AC1598C32183B291519D5288667F420995105EA7547FAD85E3DCED8FD5C0F889A849C36963C12CCC85C212D40AD32D2FD75E737CC7466ACBA75D16D874FF8B195C275C0995B1733BA661155C310FDD94C42957270A93BC883B3244F3946ED7AD3FE7DBFCB60D3
311
EBC87B9173C627EB575DC1AD03282305C606CC43884E654CE057B6D9EFD17F72BC31C7211A7FC352EF7D6917F6CE54C720456BA7EC650133CC933D7A87447DDB2D6F58C9F41039EB92F526096AAD034D645A5D148C7DD6A4F9F2CB08038AB3FAEC14BC4C11CBF3350D2405994B93E06011586175164483AA8B3F375FA4C045
311
3673EE1928E0FCBEBBBEFC63B3105926F27A6933B7D76167FD88CB6DBC4171A0E656A23693B137D954B7017B41D98644D12189D513161059C9F640F7C20F5ED657460F4236FC361223138A0386AE968E6D6CB356BE5B5B0D38983B72EA2087CC8DD2644C57A078F34230AA4461AAC4281FFC0B504B0304140006080000C94E
311
2242000000000000000000000000350000006662782F37373546353035342D324146412D344239382D413146372D3033353133394133334642342F76657274696365732E62696E504B0304140006080800C94E2242F270F1330600000004000000360000006662782F37373546353035342D324146412D344239382D413146
311
372D3033353133394133334642342F747269616E676C65732E62696E636660600000504B0304140006080000C94E2242000000000000000000000000370000006662782F37373546353035342D324146412D344239382D413146372D3033353133394133334642342F617474726962757465732E62696E504B030414000608
311
0800C94E2242D5987DFC8F00000041010000360000006662782F37373546353035342D324146412D344239382D413146372D3033353133394133334642342F6469726563746F72792E786D6C858F410EC2201045AF4266AF15DDB800BA74E7C21B903225242D6328188F2FA5C4183471359997F9FF81E89FF3C41E1816475E
311
02DF1F80A11FC8386F25A438EECEC07A250251FC3803E6F58C12560C4AD840E95E91C151A72936F496F35732D860FE635F62C8F2DA16B505C545B74125BAA2FA9E05D7CC053D063734D5C7665FD55B6B8D15D5E9BFEAFD8490FFA45E504B0304140006080800C94E2242E80DBC56FD000000A00100003B0000006662782F37
311
373546353035342D324146412D344239382D413146372D3033353133394133334642342F7265736F75726365732F636F72652E786D6C8D50596E833010BD0A9A7F83D912828C234A9A13F4029699102BC1465EAA1EBF2650A9FDEBCFCCE82D9AA7C7CE5FF333F944EB94D11DE4298504B534A3D25307C1DF4803C999336B8C
311
FF2583448B193B5861E06CB2262C3B248DF6A87D44B51971078573E82191CF7874E0E41D67918AE0A3C23DD245C8879830CDD348471D67CEDB1820D99EAC13B845678295E858B6B19C85A0C65DA3C6F853DD145AE0EF97E140CBE3955C8F7543AABA6FC8A9AA2B721CCABEEACBE1D2BF5196AD66CEBC9A7F324A8BC2E308BC
311
A07949684E68F1414F6D5DB57943E8A1A5D1B4CAFF98C232FED31494F665B1C7DD6C0E781E83BC08CEB2B5AFB85E65C6BD76CBBF01504B010214000A0000080000C94E22423DEE336E79000000790000001B00000000000000000000000000000000006175746F6465736B2D64657369676E2D7061636B6167652E786D6C50
311
4B01021400140006080800C94E2242D486FD9CA0000000F40000001300000000000000000000000000B20000005B436F6E74656E745F54797065735D2E786D6C504B01021400140006080800C94E224264E989C8EA0000007C010000080000000000000000000000000083010000636F72652E786D6C504B01021400140006
311
080800C94E224255019EA25F0000007C000000070000000000000000000000000093020000636E782E786D6C504B01021400140006080800C94E2242CA63376066010000020300000C00000000000000000000000000170300006662782F636F72652E786D6C504B01021400140006080800C94E22428F7B72497D0000009D
311
0000000B00000000000000000000000000A70400006662782F636E782E786D6C504B01021400140006080800C94E22424C06B84F2B0100001502000031000000000000000000000000004D0500006662782F37373546353035342D324146412D344239382D413146372D3033353133394133334642342F636F72652E786D6C
311
504B01021400140006080800C94E22421C7041504D010000330300003000000000000000000000000000C70600006662782F37373546353035342D324146412D344239382D413146372D3033353133394133334642342F636E782E786D6C504B01021400140006080800C94E22428101CB48A3050000801000003400000000
311
000000000000000000620800006662782F37373546353035342D324146412D344239382D413146372D3033353133394133334642342F6F626A656374732E786D6C504B01021400140006080000C94E22420000000000000000000000003500000000000000000000000000570E00006662782F37373546353035342D324146
311
412D344239382D413146372D3033353133394133334642342F76657274696365732E62696E504B01021400140006080800C94E2242F270F13306000000040000003600000000000000000000000000AA0E00006662782F37373546353035342D324146412D344239382D413146372D3033353133394133334642342F747269
311
616E676C65732E62696E504B01021400140006080000C94E22420000000000000000000000003700000000000000000000000000040F00006662782F37373546353035342D324146412D344239382D413146372D3033353133394133334642342F617474726962757465732E62696E504B01021400140006080800C94E2242
311
D5987DFC8F000000410100003600000000000000000000000000590F00006662782F37373546353035342D324146412D344239382D413146372D3033353133394133334642342F6469726563746F72792E786D6C504B01021400140006080800C94E2242E80DBC56FD000000A00100003B000000000000000000000000003C
311
1000006662782F37373546353035342D324146412D344239382D413146372D3033353133394133334642342F7265736F75726365732F636F72652E786D6C504B0506000000000E000E0080040000921100000000
310
504B03040A0000080000C94E22423DEE336E79000000790000001B0000006175746F6465736B2D64657369676E2D7061636B6167652E786D6C3C3F786D6C2076657273696F6E3D22312E302220656E636F64696E673D227574662D3822203F3E3C666F726D6174733E3C666F726D61743E687474703A2F2F736368656D612E
310
6175746F6465736B2E636F6D2F64657369676E2D7061636B6167652F323030393C2F666F726D61743E3C2F666F726D6174733E504B0304140006080800C94E2242D486FD9CA0000000F4000000130000005B436F6E74656E745F54797065735D2E786D6C7D8EC10E82300C865F65E91D8A1E8C310C0EEA1BF002731658846E
310
D98AC1B77784ABF1D8FE5FBFBF75BBCE937A534CCEB38643598122B6FEE978D0B0485F9C41B54DDD7D022595594E1A469170414C76A4D9A4D207E29CF43ECE46F218070CC6BECC4078ACAA135ACF422C856C0E68EA1BF5669944DDD7BCDE7B1F8E415D77AECB980613C2E4AC91FC167A2B244592486606FC29C8FD7F045B9A
310
EF7053A7E60B504B0304140006080800C94E224250128C2AE90000007C01000008000000636F72652E786D6C8D90D16E842010457F85CC3B0AEA5A35C80663FFA03F4080DD925DC10834FDFCE2AE9BB46F7D9AC99D7B6626979DBF973BFA325BB0DE8D400B02C838E5B575D71152BCE00ED099B3CDFBF8CB06C8C9C58CB0CB
310
C0D975F3693D24E55D342E66D5796D0E518660222075CFCD08417D9A451632C5EC08B76295EA26AFA6A0AF2EC329598D9E47ACCEFBECC59A0D38A949FF26A61937A411B899AB194FDD7B8D3B31CF6DDF8A9398042B7798B36897D77DB519198D065E115A634231A93E483F9C9A817698B40321ACDCED7FA0B4EA7F42C9BA58
310
57C7BB4F2C00A7F991C780B372CF22974750B9EEB9F11F504B0304140006080800C94E224255019EA25F0000007C00000007000000636E782E786D6C4DCB3B0E80201045D1AD90E915ED2CF8AC45050C11660C8261F98AB1B07AC9C97D42D718D865D3E909258CFD00CCE24AC6E326A164D74DC0B4128928FF326038472BA1
310
3128B1252AC747C6BAB984FC68F0B87FE8960A5C09FE86CFB69FBA01504B0304140006080800C94E2242BB599A5565010000020300000C0000006662782F636F72652E786D6C8D52ED8E8320107C15C27F043FDAB30DD2D8786F702F40957AA60A06C1F4F16FFD68BC5E9AE662826466677776949FEE5D8B466587C6E80C87
310
01C348E9D2548DAE33ECDD95A4189D04B7C6B85F651869D9A90C4F3016BCB6C6F72B541AED9476806A53A91594C3A01C46650B970C0FE5B7EA6420BD838AE116F4B2BCC95A05610034D4093E380B06D032643AB1B85EEE9C2EB8E0DE37D5CA36154C6BAE8DB258B0981D3EF273411296E42429A2829CD3CF98A47951EC0FFB
310
7C979F734E27B1E0AEE91EEE4AABA4531516110B63C242C2A22F7638EE92639812B63F32C6E954FE24F27DF54F916FB48BA3D5EE221BB008C1C84CFCD9162272689023F8A182D3294478CD093F070D8140C84E5EDAC71E378046553A6313602AE3376A94AD573095A1F9E17461A1F3DC00367BD9277AD3E77D0FF88052D760
310
4D3AB85EBC9BA6F365EA1A45AF2C19DD1D69633BD96EE6168BDBB90D7A292F4D6BEC7FD4745D95AE61D2E9EF153F504B0304140006080800C94E22420887E1687E0000009D0000000B0000006662782F636E782E786D6C4DCCDF0E82201C86E15B61BF7352F20FB5014E92EEC3253A164243685D7ED83CE8E8DB9E7D7B59F7
310
592D7AEBB019EF3890530948BB879F8C5B38A438E30BA04EB0E07DFCBB0172E3AA39EC0C822DC1A7D741939EC76463566BDCF3C0FBF9DAAB96B4386F8DEB8A2A2C0749B1A45235CD50953749A010ACF895F2EE61F105504B0304140006080800C94E22426F5FE6302B01000015020000310000006662782F46323941453631
310
362D323941342D343337452D424442372D4237424535354433304342312F636F72652E786D6C8D51CB6EC32010FC158B537AC0063F481C61A2BA49BFA03F406D92A2C460F1A8F2F95D6A476A6FB9B06876667660F9E13EDDB26FE5BCB6A6433427285366B0A336970EC570C63B941D0477D6863F34941939A90E2518097E71
310
36CE2B3458139409801A3BAA1594DEAB80B2E106970EF9E14B4D32973100C35FF3590E57795139CDA10D3CC17D7010205B86A41389F7B27D3D31CA30D41AD7D5F684FB63BFC5FDB63F35CDB1226F3DE5C522143C463DAE723D421C7DD6CA3D6B92C482073D3DE20F4EC9A046244A422B4C2826E50769F74DBDA73B4CD89E10
310
5E24FA3F519CC72745519B50956BDC45E69180D72C0DC1471B3F6F8F30EA3E5B17B2346FE3D5F08204C909A9DBA665ACE4C5C2851F005356AFA63E58073FBCB97E02BD5A9D592D78919604E5778350D342C50F504B0304140006080800C94E22427AD78E475501000033030000300000006662782F46323941453631362D32
310
3941342D343337452D424442372D4237424535354433304342312F636E782E786D6CBD93C16EC32010447F0571B78D13D772234CA41EFA053DF48A6193D0D86001AE9ABFEF929034971C2A55BD206B7698593D61BEFD9A46F2093E18677B5A978C12B0CA6963F73D5DE2AEE828D90AEE9D8B77364AAC9CA0A749A682EFBD5B
310
E62C69D8C9658CA88EC61EB3E821B8C52B0828A79B64744A8E1800B65850846900AD41939B11BF76E07115148713890720AF2FEFC40D1FA062E0554A11BC4A1D82A73337DD992851A30CA1A7411D6092A55CA2D3108EA59651967579ED7AB0D34F124917AE958B372495F7349D54E48D4AE4C82B1C0A1EA2477AD9144F3350
310
21E779344A46845C9D8D178FE08BB1B16DB2D720788FEEF5AAED3A0C3BCF048F6682EC501E64044DC58AD5EB82D5055BBDB1E7CD53B3A9BB82B51BC67895EC820FCE8DF912C680773351CE46B0918A9A5769FC085FF6116D3CB276FEF40B900820B75EE8DC32FE924FDDAE9BE61FF954E7F78DB83CFE05E21B504B03041400
310
06080800C94E224206EB763561070000991B0000340000006662782F46323941453631362D323941342D343337452D424442372D4237424535354433304342312F6F626A656374732E786D6CED595B73A33614FE2B0C7D691F8C8DEDDC3A844E126F329E9DECEEACBB3B7DF00C23834CD408C1482297FEFA1E5DC0404C82BB
310
E9DB3ED880908ECEF9CE5587E08FA78C3A0F980B92B373D7F726AE83599C2784A5E76E29B7A353D7F9230C789ECBC634D76128C3E7AE1A76C320E57959D8A1046F51496567F4FAF22F47C49861D7892912E2DC15F11DCE90874A992758DC7B0992C84BB74F9EEF99896DB22947C55D87688138661238857106541CC394DF7E
310
9CB8E33018ABF761A0FEEDACD9A059F3FE59632D759B4BC284442C7EC15287CC6C104B337FBEF8303D3A1B1DCDE7B3D1FC78EA8F2EAF2F1723FF6436B93ABEBA3ABBF87006EC6DF29C5A99125C609680FE9EDDD00FC6EA4D2DBA45601FD771CE188E3590009516AB4B9060015B35E09BB41F7D2551E3B596B0F13C57EF2D0B
310
8DE1599B4ADFAC6140B4E8822076BB4AE2EADA942FDFFC0D828B2146C90596C0AD901CB46BE1E1E0156E3809C666340C363B5D10E16448624E107528D970C4412930554D0903B3C09251CEC18194A324D09A33AFDBB6059EF9B6EBECE3725B52AA3CC30DB56345E07E580ACD19F907F31DF74D64802790B6244C9E5A2EE573
310
81DDF02C18EBC1305097D9D4BE34403A5B8A52A111316F3B825E29D75F2EDCF0E3F5E669A5C2C1FECD0B9E17984B65744A8F9A2F30647B5528D96DFD419A530B401803AA5DB903E52B20FF09A2C78E15D01B274FF3A7B99D2B3962629BF30C74E34C9CD104FE268EAFFFD57DE32E18D78BDBDAEBC313DC544175FAE378B665
310
D05859FE1B7086C103187CCE67F6D52A4614ECF996300048198943731882D0BEDD3CB9E1120227047A588568E883C8C0EE03DC06634B66A795CABDACD73140D4EE311BA224804D5B24B0D1A3A71BC81E9CC43B353545EC83F7E85DCCF562B1FAB82AF916C5F8D6FAF4026F092312B2E67E865A98B724BAC7CF8F394F40D097
310
78AF9A7867762B01682BCC15F06905827AD8EDDCDA20867569AEC24DF0C60E2084CAD50DFAB744C49852C4705E56FBD6D14D196AEDF1B66670C3A9817836ED9830C70F445515E034BB192D4621EFC79C140A4437BC3192D541D3EB91EEDBF21358643DBF67D69241E86588FEA983D61E1C5A965D216D81A805DEECC2799CD3
310
9C479BE7C8443A176A0960A3ED2DDF5B4421D61B25292AE041DAEFAA90921A69A3846CB7A580B8BA87C5EFCBABA6394CBC997FE434FF3BCE3887680BBE8BB8F5BBCE1E11C9508AA32D4AFAB66BEE56D3169A640F698EB714E4220F443E4748469304A787407310F1B377A59ED25C08C2B0807CB517FC261A130F0289D166C5
310
B2D26A076822A20C4B440F414091E90157A71D5DE3C6503ABCCD636DBDAF69AC49F47FB2088EA096CC5944A014851CF226E3BE770431A48DAE41B9832F585B455B8B414B2821E2E7E81193F44E1E82BA21DF837B0C4792524679816230EB01645FF88A526A87F70D8AEF55FE88E292BE9781084CB711A1B4CC22F81106278F
310
21AE5D07A65751681037B14FE20C8A32244B3E6493E3A3C98B7D4CCDD00D818D8DB68442D88E3254F4A0DE0A88BA1E716AF02DF51EA56ECAAC885096976C90A178B3AE3759F25DB52AB203F955A522948D15614B300C08937556AD623698BA0EACE0463A503D4702650535A7B037128F5F7B93A6DCBB01B77EFABE1B6450F8
310
F568AF1951E7150C96C75661201E918CEFDC70A5AFA34BA8BF139CEC527D556B362B40404C45F29213ABA26F4B286F6C8DE686B7488AF58DC9BAD5F5DBD283EE4730863550BBD40B970AE80C3389546572AB6EE8570421B845C38C2F554E3D84CA4592E8AA11D16BD2A7CE5619D1DA34235E7187599EC18FAD098B6999E035
310
4AC47D742B69B4228A752BA597910AE35705FC7CB3EAC003230344FAA20A3CFCD8596B47AF54B9B49788BC2BB30D430482604BB4D4E8C62B586A355269B9BEAA3305D45D606056C5F39F278B663BE2E7C922B586F163270B9A6F10DD459B46368F95591F740AA8D393A2F21EA700DD75A8A9D649C4E4722BBEF5A508626215
310
E407176355CC3004FB38FECF49BB2F099AED3AFC1F96B4FD1705C74149A5355935A9F614AECB660A3B3E3D3AB9863EEC68B138998EE627B38BD1E51134692F8E7DFF6C3A9F7D3839BBA8D1D47E1A06752CD3A90B9E4D4CAB86D593C5009AB222A72481C37CE2A41842BE8423FD80EE39CFB080DCD9EC7527B6273F60F58369
310
734AB4A1B8E2E40E417F980AC8EA42F23296ED71E717E84C4A38679FBBD033F2EEE1CF5AA5EB40E23977A15320498C85B7812E93EAE769E2907175EAB7C4001FC4529511CDA2FAB95EA5B06945FF7ACA902C60E56AB530A06E2BA0F9D56A5068DE2C4FF1418257EC3848C2EDA69450AC19597603B5307A9B9DFA8D6C94B07B
310
BBF513B8EEEB62F99E9ED34264D01783578DC0501D49C453DDEE568C59962E165FC6D06673969F9D829629E87238A511C760CCA5AAA7C08AC02A2CCD024930D5ABDFD75F780E5F7832471745CEAF4FA7C7BFADAFF22CCB99195A5FC0A12C81EF44CEEA0EBEFA246BA81DB0EAAD8BF574E24FD7BAA76DDBECD10609ECA9A208
310
06AA5A4209D23139B0CB17FD29DBBD1C2B5574A62F178E0DA2D00B3076F4A2C56BBE7139E043EA6B8AF218EDE795B4AFB6B5C77A2AD804878674F82F504B0304140006080000C94E2242000000000000000000000000350000006662782F46323941453631362D323941342D343337452D424442372D423742453535443330
310
4342312F76657274696365732E62696E504B0304140006080800C94E2242F270F1330600000004000000360000006662782F46323941453631362D323941342D343337452D424442372D4237424535354433304342312F747269616E676C65732E62696E636660600000504B0304140006080000C94E224200000000000000
310
0000000000370000006662782F46323941453631362D323941342D343337452D424442372D4237424535354433304342312F617474726962757465732E62696E504B0304140006080800C94E2242D5987DFC8F00000041010000360000006662782F46323941453631362D323941342D343337452D424442372D4237424535
310
354433304342312F6469726563746F72792E786D6C858F410EC2201045AF4266AF15DDB800BA74E7C21B903225242D6328188F2FA5C4183471359997F9FF81E89FF3C41E1816475E02DF1F80A11FC8386F25A438EECEC07A250251FC3803E6F58C12560C4AD840E95E91C151A72936F496F35732D860FE635F62C8F2DA16B5
310
05C545B74125BAA2FA9E05D7CC053D063734D5C7665FD55B6B8D15D5E9BFEAFD8490FFA45E504B0304140006080800C94E22428F7C4692FC000000A00100003B0000006662782F46323941453631362D323941342D343337452D424442372D4237424535354433304342312F7265736F75726365732F636F72652E786D6C8D
310
50496E843010FC0AEABBC12C4300198F20E407F980657A8835838DBC44797ECC40A4E4964B77AB1675A9D8F56B7D249F689D32BA873CA590A09666567AE921F81B6920B972668DF1BF649068B1620F3B0C9C2DD684ED84A4D11EB58FA836339EA0700E3D24F2118F1E9CFCC055A422F8A870F77413F22E164CF334D251C799
310
F33606488E27FB046ED19960253A961D2C6721A8F9D4A839FE54378516382D69FB328CAFA4A2D540AAA998C8D8BC95A419A6A96EEBE1328C03CB7633675EAD3F19A545E171065ED0BC243427B478A76D77A9BABC21B4EE2865D92EFF630ADBFC4F5350DA97C519F7B039E0790CF22438CBF6BEE27A9619F7DE2DFF06504B01
310
0214000A0000080000C94E22423DEE336E79000000790000001B00000000000000000000000000000000006175746F6465736B2D64657369676E2D7061636B6167652E786D6C504B01021400140006080800C94E2242D486FD9CA0000000F40000001300000000000000000000000000B20000005B436F6E74656E745F5479
310
7065735D2E786D6C504B01021400140006080800C94E224250128C2AE90000007C010000080000000000000000000000000083010000636F72652E786D6C504B01021400140006080800C94E224255019EA25F0000007C000000070000000000000000000000000092020000636E782E786D6C504B01021400140006080800
310
C94E2242BB599A5565010000020300000C00000000000000000000000000160300006662782F636F72652E786D6C504B01021400140006080800C94E22420887E1687E0000009D0000000B00000000000000000000000000A50400006662782F636E782E786D6C504B01021400140006080800C94E22426F5FE6302B010000
310
1502000031000000000000000000000000004C0500006662782F46323941453631362D323941342D343337452D424442372D4237424535354433304342312F636F72652E786D6C504B01021400140006080800C94E22427AD78E4755010000330300003000000000000000000000000000C60600006662782F463239414536
310
31362D323941342D343337452D424442372D4237424535354433304342312F636E782E786D6C504B01021400140006080800C94E224206EB763561070000991B00003400000000000000000000000000690800006662782F46323941453631362D323941342D343337452D424442372D4237424535354433304342312F6F62
310
6A656374732E786D6C504B01021400140006080000C94E224200000000000000000000000035000000000000000000000000001C1000006662782F46323941453631362D323941342D343337452D424442372D4237424535354433304342312F76657274696365732E62696E504B01021400140006080800C94E2242F270F1
310
33060000000400000036000000000000000000000000006F1000006662782F46323941453631362D323941342D343337452D424442372D4237424535354433304342312F747269616E676C65732E62696E504B01021400140006080000C94E22420000000000000000000000003700000000000000000000000000C9100000
310
6662782F46323941453631362D323941342D343337452D424442372D4237424535354433304342312F617474726962757465732E62696E504B01021400140006080800C94E2242D5987DFC8F0000004101000036000000000000000000000000001E1100006662782F46323941453631362D323941342D343337452D424442
310
372D4237424535354433304342312F6469726563746F72792E786D6C504B01021400140006080800C94E22428F7C4692FC000000A00100003B00000000000000000000000000011200006662782F46323941453631362D323941342D343337452D424442372D4237424535354433304342312F7265736F75726365732F636F
310
72652E786D6C504B0506000000000E000E0080040000561300000000
  0
XRECORD
  5
27
102
{ACAD_REACTORS
330
22
102
}
330
22
100
AcDbXrecord
280
     1
270
     1
271
     1
  0
XRECORD
  5
26
102
{ACAD_REACTORS
330
22
102
}
330
22
100
AcDbXrecord
280
     1
270
     1
271
     1
  0
XRECORD
  5
28
102
{ACAD_REACTORS
330
22
102
}
330
22
100
AcDbXrecord
280
     1
270
     1
271
     1
  0
XRECORD
  5
25
102
{ACAD_REACTORS
330
22
102
}
330
22
100
AcDbXrecord
280
     1
270
     1
271
     1
  0
XRECORD
  5
14CC
102
{ACAD_REACTORS
330
14CB
102
}
330
14CB
100
AcDbXrecord
280
     1
102
ACAD_ROUNDTRIP_2012_MLEADER_STYLE
298
     1
  0
CELLSTYLEMAP
  5
14CA
102
{ACAD_REACTORS
330
14C9
102
}
330
14C9
100
AcDbCellStyleMap
 90
        3
300
CELLSTYLE
  1
TABLEFORMAT_BEGIN
 90
        5
170
     1
 91
        0
 92
    32768
 62
   257
 93
        1
300
CONTENTFORMAT
  1
CONTENTFORMAT_BEGIN
 90
        0
 91
        0
 92
      512
 93
        0
300

 40
0.0
140
1.0
 94
        5
 62
     0
340
55
144
0.25
309
CONTENTFORMAT_END
171
     0
 94
        0
309
TABLEFORMAT_END
  1
CELLSTYLE_BEGIN
 90
        1
 91
        1
300
_TITLE
309
CELLSTYLE_END
300
CELLSTYLE
  1
TABLEFORMAT_BEGIN
 90
        5
170
     1
 91
        0
 92
        0
 62
   257
 93
        1
300
CONTENTFORMAT
  1
CONTENTFORMAT_BEGIN
 90
        0
 91
        0
 92
      512
 93
        0
300

 40
0.0
140
1.0
 94
        5
 62
     0
340
55
144
0.18
309
CONTENTFORMAT_END
171
     0
 94
        0
309
TABLEFORMAT_END
  1
CELLSTYLE_BEGIN
 90
        2
 91
        1
300
_HEADER
309
CELLSTYLE_END
300
CELLSTYLE
  1
TABLEFORMAT_BEGIN
 90
        5
170
     1
 91
        0
 92
        0
 62
   257
 93
        1
300
CONTENTFORMAT
  1
CONTENTFORMAT_BEGIN
 90
        0
 91
        0
 92
      512
 93
        0
300

 40
0.0
140
1.0
 94
        2
 62
     0
340
55
144
0.18
309
CONTENTFORMAT_END
171
     0
 94
        0
309
TABLEFORMAT_END
  1
CELLSTYLE_BEGIN
 90
        3
 91
        2
300
_DATA
309
CELLSTYLE_END
  0
ENDSEC
  0
EOF
