  0
SECTION
  2
HEADER
  9
$ACADVER
  1
AC1024
  9
$ACADMAINTVER
 70
    63
  9
$DWGCODEPAGE
  3
ANSI_1252
  9
$AUTHOR
  1
KA
  9
$REVISIONNUMBER
  1
-
  9
$CUSTOMPROPERTYTAG
  1
Manager
  9
$CUSTOMPROPERTY
  1

  9
$CUSTOMPROPERTYTAG
  1
Company
  9
$CUSTOMPROPERTY
  1

  9
$CUSTOMPROPERTYTAG
  1
Category
  9
$CUSTOMPROPERTY
  1

  9
$CUSTOMPROPERTYTAG
  1
Part Number
  9
$CUSTOMPROPERTY
  1
SSJWS4-S
  9
$CUSTOMPROPERTYTAG
  1
Description
  9
$CUSTOMPROPERTY
  1

  9
$CUSTOMPROPERTYTAG
  1
Project
  9
$CUSTOMPROPERTY
  1

  9
$CUSTOMPROPERTYTAG
  1
Designer
  9
$CUSTOMPROPERTY
  1
KA
  9
$CUSTOMPROPERTYTAG
  1
Engineer
  9
$CUSTOMPROPERTY
  1

  9
$CUSTOMPROPERTYTAG
  1
Authority
  9
$CUSTOMPROPERTY
  1

  9
$CUSTOMPROPERTYTAG
  1
Cost Center
  9
$CUSTOMPROPERTY
  1

  9
$CUSTOMPROPERTYTAG
  1
Vendor
  9
$CUSTOMPROPERTY
  1

  9
$CUSTOMPROPERTYTAG
  1
User Status
  9
$CUSTOMPROPERTY
  1

  9
$CUSTOMPROPERTYTAG
  1
Design Status
  9
$CUSTOMPROPERTY
  1
WorkInProgress
  9
$CUSTOMPROPERTYTAG
  1
Checked by
  9
$CUSTOMPROPERTY
  1
JW
  9
$CUSTOMPROPERTYTAG
  1
Date Checked
  9
$CUSTOMPROPERTY
  1
01/02/2013
  9
$CUSTOMPROPERTYTAG
  1
Engr Approved by
  9
$CUSTOMPROPERTY
  1

  9
$CUSTOMPROPERTYTAG
  1
Date Eng Approved
  9
$CUSTOMPROPERTY
  1
01/02/2013
  9
$CUSTOMPROPERTYTAG
  1
Mfg Approved by
  9
$CUSTOMPROPERTY
  1

  9
$CUSTOMPROPERTYTAG
  1
Date Mfg Approved
  9
$CUSTOMPROPERTY
  1
01/02/2013
  9
$CUSTOMPROPERTYTAG
  1
DWG. NO
  9
$CUSTOMPROPERTY
  1

  9
$CUSTOMPROPERTYTAG
  1
NUMBER OF SHEETS
  9
$CUSTOMPROPERTY
  1
1
  9
$CUSTOMPROPERTYTAG
  1
DRAWING #
  9
$CUSTOMPROPERTY
  1

  9
$INSBASE
 10
0.0
 20
0.0
 30
0.0
  9
$EXTMIN
 10
0.0
 20
0.0
 30
0.0
  9
$EXTMAX
 10
60.44444444444444
 20
39.11111111111111
 30
0.0
  9
$LIMMIN
 10
0.0
 20
0.0
  9
$LIMMAX
 10
60.44444444444444
 20
39.11111111111111
  9
$ORTHOMODE
 70
     0
  9
$REGENMODE
 70
     1
  9
$FILLMODE
 70
     1
  9
$QTEXTMODE
 70
     0
  9
$MIRRTEXT
 70
     0
  9
$LTSCALE
 40
3.555555555555555
  9
$ATTMODE
 70
     1
  9
$TEXTSIZE
 40
0.2
  9
$TRACEWID
 40
0.05
  9
$TEXTSTYLE
  7
Standard
  9
$CLAYER
  8
0
  9
$CELTYPE
  6
ByLayer
  9
$CECOLOR
 62
   256
  9
$CELTSCALE
 40
1.0
  9
$DISPSILH
 70
     0
  9
$DIMSCALE
 40
1.0
  9
$DIMASZ
 40
0.0708661417322835
  9
$DIMEXO
 40
0.0625
  9
$DIMDLI
 40
0.38
  9
$DIMRND
 40
0.0
  9
$DIMDLE
 40
0.0
  9
$DIMEXE
 40
0.18
  9
$DIMTP
 40
0.0
  9
$DIMTM
 40
0.0
  9
$DIMTXT
 40
0.0708661417322835
  9
$DIMCEN
 40
0.09
  9
$DIMTSZ
 40
0.0
  9
$DIMTOL
 70
     0
  9
$DIMLIM
 70
     0
  9
$DIMTIH
 70
     1
  9
$DIMTOH
 70
     1
  9
$DIMSE1
 70
     0
  9
$DIMSE2
 70
     0
  9
$DIMTAD
 70
     0
  9
$DIMZIN
 70
     0
  9
$DIMBLK
  1

  9
$DIMASO
 70
     1
  9
$DIMSHO
 70
     1
  9
$DIMPOST
  1

  9
$DIMAPOST
  1

  9
$DIMALT
 70
     0
  9
$DIMALTD
 70
     2
  9
$DIMALTF
 40
25.4
  9
$DIMLFAC
 40
1.0
  9
$DIMTOFL
 70
     0
  9
$DIMTVP
 40
0.0
  9
$DIMTIX
 70
     0
  9
$DIMSOXD
 70
     0
  9
$DIMSAH
 70
     0
  9
$DIMBLK1
  1

  9
$DIMBLK2
  1

  9
$DIMSTYLE
  2
Standard
  9
$DIMCLRD
 70
     0
  9
$DIMCLRE
 70
     0
  9
$DIMCLRT
 70
     0
  9
$DIMTFAC
 40
1.0
  9
$DIMGAP
 40
0.09
  9
$DIMJUST
 70
     0
  9
$DIMSD1
 70
     0
  9
$DIMSD2
 70
     0
  9
$DIMTOLJ
 70
     1
  9
$DIMTZIN
 70
     0
  9
$DIMALTZ
 70
     0
  9
$DIMALTTZ
 70
     0
  9
$DIMUPT
 70
     0
  9
$DIMDEC
 70
     4
  9
$DIMTDEC
 70
     4
  9
$DIMALTU
 70
     2
  9
$DIMALTTD
 70
     2
  9
$DIMTXSTY
  7
Standard
  9
$DIMAUNIT
 70
     0
  9
$DIMADEC
 70
     0
  9
$DIMALTRND
 40
0.0
  9
$DIMAZIN
 70
     0
  9
$DIMDSEP
 70
    46
  9
$DIMATFIT
 70
     3
  9
$DIMFRAC
 70
     0
  9
$DIMLDRBLK
  1

  9
$DIMLUNIT
 70
     2
  9
$DIMLWD
 70
    -2
  9
$DIMLWE
 70
    -2
  9
$DIMTMOVE
 70
     0
  9
$DIMFXL
 40
1.0
  9
$DIMFXLON
 70
     0
  9
$DIMJOGANG
 40
0.7853981633974483
  9
$DIMTFILL
 70
     0
  9
$DIMTFILLCLR
 70
     0
  9
$DIMARCSYM
 70
     0
  9
$DIMLTYPE
  6

  9
$DIMLTEX1
  6

  9
$DIMLTEX2
  6

  9
$DIMTXTDIRECTION
 70
     0
  9
$LUNITS
 70
     2
  9
$LUPREC
 70
     4
  9
$SKETCHINC
 40
0.1
  9
$FILLETRAD
 40
0.0
  9
$AUNITS
 70
     0
  9
$AUPREC
 70
     0
  9
$MENU
  1
.
  9
$ELEVATION
 40
0.0
  9
$PELEVATION
 40
0.0
  9
$THICKNESS
 40
0.0
  9
$LIMCHECK
 70
     0
  9
$CHAMFERA
 40
0.0
  9
$CHAMFERB
 40
0.0
  9
$CHAMFERC
 40
0.0
  9
$CHAMFERD
 40
0.0
  9
$SKPOLY
 70
     0
  9
$TDCREATE
 40
2456295.585663553
  9
$TDUCREATE
 40
2456295.835663553
  9
$TDUPDATE
 40
2456295.585663565
  9
$TDUUPDATE
 40
2456295.835663565
  9
$TDINDWG
 40
0.0000175579
  9
$TDUSRTIMER
 40
0.0000175579
  9
$USRTIMER
 70
     1
  9
$ANGBASE
 50
0.0
  9
$ANGDIR
 70
     0
  9
$PDMODE
 70
     0
  9
$PDSIZE
 40
0.0
  9
$PLINEWID
 40
0.0
  9
$SPLFRAME
 70
     0
  9
$SPLINETYPE
 70
     6
  9
$SPLINESEGS
 70
     8
  9
$HANDSEED
  5
1118
  9
$SURFTAB1
 70
     6
  9
$SURFTAB2
 70
     6
  9
$SURFTYPE
 70
     6
  9
$SURFU
 70
     6
  9
$SURFV
 70
     6
  9
$UCSBASE
  2

  9
$UCSNAME
  2

  9
$UCSORG
 10
0.0
 20
0.0
 30
0.0
  9
$UCSXDIR
 10
1.0
 20
0.0
 30
0.0
  9
$UCSYDIR
 10
0.0
 20
1.0
 30
0.0
  9
$UCSORTHOREF
  2

  9
$UCSORTHOVIEW
 70
     0
  9
$UCSORGTOP
 10
0.0
 20
0.0
 30
0.0
  9
$UCSORGBOTTOM
 10
0.0
 20
0.0
 30
0.0
  9
$UCSORGLEFT
 10
0.0
 20
0.0
 30
0.0
  9
$UCSORGRIGHT
 10
0.0
 20
0.0
 30
0.0
  9
$UCSORGFRONT
 10
0.0
 20
0.0
 30
0.0
  9
$UCSORGBACK
 10
0.0
 20
0.0
 30
0.0
  9
$PUCSBASE
  2

  9
$PUCSNAME
  2

  9
$PUCSORG
 10
0.0
 20
0.0
 30
0.0
  9
$PUCSXDIR
 10
1.0
 20
0.0
 30
0.0
  9
$PUCSYDIR
 10
0.0
 20
1.0
 30
0.0
  9
$PUCSORTHOREF
  2

  9
$PUCSORTHOVIEW
 70
     0
  9
$PUCSORGTOP
 10
0.0
 20
0.0
 30
0.0
  9
$PUCSORGBOTTOM
 10
0.0
 20
0.0
 30
0.0
  9
$PUCSORGLEFT
 10
0.0
 20
0.0
 30
0.0
  9
$PUCSORGRIGHT
 10
0.0
 20
0.0
 30
0.0
  9
$PUCSORGFRONT
 10
0.0
 20
0.0
 30
0.0
  9
$PUCSORGBACK
 10
0.0
 20
0.0
 30
0.0
  9
$USERI1
 70
     0
  9
$USERI2
 70
     0
  9
$USERI3
 70
     0
  9
$USERI4
 70
     0
  9
$USERI5
 70
     0
  9
$USERR1
 40
0.0
  9
$USERR2
 40
0.0
  9
$USERR3
 40
0.0
  9
$USERR4
 40
0.0
  9
$USERR5
 40
0.0
  9
$WORLDVIEW
 70
     1
  9
$SHADEDGE
 70
     3
  9
$SHADEDIF
 70
    70
  9
$TILEMODE
 70
     1
  9
$MAXACTVP
 70
    64
  9
$PINSBASE
 10
0.0
 20
0.0
 30
0.0
  9
$PLIMCHECK
 70
     0
  9
$PEXTMIN
 10
0.0
 20
0.0
 30
0.0
  9
$PEXTMAX
 10
60.44444444444444
 20
39.11111111111111
 30
0.0
  9
$PLIMMIN
 10
0.0
 20
0.0
  9
$PLIMMAX
 10
60.44444444444444
 20
39.11111111111111
  9
$UNITMODE
 70
     0
  9
$VISRETAIN
 70
     1
  9
$PLINEGEN
 70
     0
  9
$PSLTSCALE
 70
     1
  9
$TREEDEPTH
 70
  3020
  9
$CMLSTYLE
  2
Standard
  9
$CMLJUST
 70
     0
  9
$CMLSCALE
 40
1.0
  9
$PROXYGRAPHICS
 70
     1
  9
$MEASUREMENT
 70
     0
  9
$CELWEIGHT
370
    -1
  9
$ENDCAPS
280
     0
  9
$JOINSTYLE
280
     0
  9
$LWDISPLAY
290
     0
  9
$INSUNITS
 70
     1
  9
$HYPERLINKBASE
  1

  9
$STYLESHEET
  1

  9
$XEDIT
290
     1
  9
$CEPSNTYPE
380
     0
  9
$PSTYLEMODE
290
     1
  9
$FINGERPRINTGUID
  2
{2106E844-B221-4301-8E94-7EE567EBC093}
  9
$VERSIONGUID
  2
{A565DB7F-F94F-4CFC-95B5-379E6CD903D4}
  9
$EXTNAMES
290
     1
  9
$PSVPSCALE
 40
0.0
  9
$OLESTARTUP
290
     0
  9
$SORTENTS
280
   127
  9
$INDEXCTL
280
     0
  9
$HIDETEXT
280
     1
  9
$XCLIPFRAME
280
     2
  9
$HALOGAP
280
     0
  9
$OBSCOLOR
 70
   257
  9
$OBSLTYPE
280
     0
  9
$INTERSECTIONDISPLAY
280
     0
  9
$INTERSECTIONCOLOR
 70
   257
  9
$DIMASSOC
280
     1
  9
$PROJECTNAME
  1

  9
$CAMERADISPLAY
290
     0
  9
$LENSLENGTH
 40
50.0
  9
$CAMERAHEIGHT
 40
0.0
  9
$STEPSPERSEC
 40
2.0
  9
$STEPSIZE
 40
6.0
  9
$3DDWFPREC
 40
2.0
  9
$PSOLWIDTH
 40
0.25
  9
$PSOLHEIGHT
 40
4.0
  9
$LOFTANG1
 40
1.570796326794896
  9
$LOFTANG2
 40
1.570796326794896
  9
$LOFTMAG1
 40
0.0
  9
$LOFTMAG2
 40
0.0
  9
$LOFTPARAM
 70
     7
  9
$LOFTNORMALS
280
     1
  9
$LATITUDE
 40
37.795
  9
$LONGITUDE
 40
-122.394
  9
$NORTHDIRECTION
 40
0.0
  9
$TIMEZONE
 70
 -8000
  9
$LIGHTGLYPHDISPLAY
280
     1
  9
$TILEMODELIGHTSYNCH
280
     1
  9
$CMATERIAL
347
11
  9
$SOLIDHIST
280
     0
  9
$SHOWHIST
280
     1
  9
$DWFFRAME
280
     2
  9
$DGNFRAME
280
     0
  9
$REALWORLDSCALE
290
     1
  9
$INTERFERECOLOR
 62
     1
  9
$INTERFEREOBJVS
345
33
  9
$INTERFEREVPVS
346
30
  9
$CSHADOW
280
     0
  9
$SHADOWPLANELOCATION
 40
0.0
  0
ENDSEC
  0
SECTION
  2
CLASSES
  0
CLASS
  1
ACDBDICTIONARYWDFLT
  2
AcDbDictionaryWithDefault
  3
ObjectDBX Classes
 90
        0
 91
        1
280
     0
281
     0
  0
CLASS
  1
MATERIAL
  2
AcDbMaterial
  3
ObjectDBX Classes
 90
     1153
 91
        3
280
     0
281
     0
  0
CLASS
  1
VISUALSTYLE
  2
AcDbVisualStyle
  3
ObjectDBX Classes
 90
     4095
 91
       24
280
     0
281
     0
  0
CLASS
  1
SCALE
  2
AcDbScale
  3
ObjectDBX Classes
 90
     1153
 91
       17
280
     0
281
     0
  0
CLASS
  1
TABLESTYLE
  2
AcDbTableStyle
  3
ObjectDBX Classes
 90
     4095
 91
        1
280
     0
281
     0
  0
CLASS
  1
MLEADERSTYLE
  2
AcDbMLeaderStyle
  3
ACDB_MLEADERSTYLE_CLASS
 90
     4095
 91
        1
280
     0
281
     0
  0
CLASS
  1
DICTIONARYVAR
  2
AcDbDictionaryVar
  3
ObjectDBX Classes
 90
        0
 91
        3
280
     0
281
     0
  0
CLASS
  1
CELLSTYLEMAP
  2
AcDbCellStyleMap
  3
ObjectDBX Classes
 90
     1152
 91
        1
280
     0
281
     0
  0
ENDSEC
  0
SECTION
  2
TABLES
  0
TABLE
  2
VPORT
  5
8
330
0
100
AcDbSymbolTable
 70
     1
  0
VPORT
  5
57
330
8
100
AcDbSymbolTableRecord
100
AcDbViewportTableRecord
  2
*Active
 70
     0
 10
0.0
 20
0.0
 11
1.0
 21
1.0
 12
30.22222222222222
 22
19.55555555555555
 13
0.0
 23
0.0
 14
1.0
 24
1.0
 15
0.0
 25
0.0
 16
0.0
 26
0.0
 36
1.0
 17
0.0
 27
0.0
 37
0.0
 40
39.11111111111111
 41
1.545454545454545
 42
50.0
 43
0.0
 44
0.0
 50
0.0
 51
0.0
 71
     0
 72
   100
 73
     1
 74
     1
 75
     0
 76
     0
 77
     0
 78
     0
281
     0
 65
     1
110
0.0
120
0.0
130
0.0
111
1.0
121
0.0
131
0.0
112
0.0
122
1.0
132
0.0
 79
     0
146
0.0
 60
     3
 61
     5
292
     1
282
     1
141
0.0
142
0.0
 63
   250
421
  3355443
  0
ENDTAB
  0
TABLE
  2
LTYPE
  5
5
330
0
100
AcDbSymbolTable
 70
    59
  0
LTYPE
  5
5B
330
5
100
AcDbSymbolTableRecord
100
AcDbLinetypeTableRecord
  2
ByBlock
 70
     0
  3

 72
    65
 73
     0
 40
0.0
  0
LTYPE
  5
5C
330
5
100
AcDbSymbolTableRecord
100
AcDbLinetypeTableRecord
  2
ByLayer
 70
     0
  3

 72
    65
 73
     0
 40
0.0
  0
LTYPE
  5
5D
330
5
100
AcDbSymbolTableRecord
100
AcDbLinetypeTableRecord
  2
Continuous
 70
     0
  3
Solid line
 72
    65
 73
     0
 40
0.0
  0
LTYPE
  5
7C
330
5
100
AcDbSymbolTableRecord
100
AcDbLinetypeTableRecord
  2
BY_STANDARD
 70
     0
  3
By Standard ____________    ____    ____   _
 72
    65
 73
     6
 40
1.240299999999999
 49
0.6614
 74
     0
 49
-0.0827
 74
     0
 49
0.1654
 74
     0
 49
-0.0827
 74
     0
 49
0.1654
 74
     0
 49
-0.0827
 74
     0
  0
LTYPE
  5
7D
330
5
100
AcDbSymbolTableRecord
100
AcDbLinetypeTableRecord
  2
CHAIN
 70
     0
  3
Chain ____ _ ____ _ ____ _ ____ _ ____ _ ____
 72
    65
 73
     4
 40
0.7087
 49
0.4724000000000001
 74
     0
 49
-0.0591
 74
     0
 49
0.1181
 74
     0
 49
-0.0591
 74
     0
  0
LTYPE
  5
7E
330
5
100
AcDbSymbolTableRecord
100
AcDbLinetypeTableRecord
  2
DASH_DOT
 70
     0
  3
Dash dot __ . __ . __ . __ . __ . __ . __ . __
 72
    65
 73
     4
 40
0.37
 49
0.24
 74
     0
 49
-0.06
 74
     0
 49
0.01
 74
     0
 49
-0.06
 74
     0
  0
LTYPE
  5
7F
330
5
100
AcDbSymbolTableRecord
100
AcDbLinetypeTableRecord
  2
DOUBLE_DASH_DOT
 70
     0
  3
Double-Dash Dot __ __ . __ __ . __ __ . __ _
 72
    65
 73
     6
 40
0.4398
 49
0.24
 74
     0
 49
-0.06
 74
     0
 49
0.0098
 74
     0
 49
-0.06
 74
     0
 49
0.01
 74
     0
 49
-0.06
 74
     0
  0
LTYPE
  5
80
330
5
100
AcDbSymbolTableRecord
100
AcDbLinetypeTableRecord
  2
DASH_TRIPLE_DOT
 70
     0
  3
Dash Triple-Dot _ . . . _ . . . _ . . . _
 72
    65
 73
     8
 40
0.51
 49
0.24
 74
     0
 49
-0.06
 74
     0
 49
0.01
 74
     0
 49
-0.06
 74
     0
 49
0.01
 74
     0
 49
-0.06
 74
     0
 49
0.01
 74
     0
 49
-0.06
 74
     0
  0
LTYPE
  5
81
330
5
100
AcDbSymbolTableRecord
100
AcDbLinetypeTableRecord
  2
DASHED
 70
     0
  3
Dashed __ __ __ __ __ __ __ __ __ __ __ __ __ _
 72
    65
 73
     2
 40
0.2067
 49
0.1654
 74
     0
 49
-0.0413
 74
     0
  0
LTYPE
  5
82
330
5
100
AcDbSymbolTableRecord
100
AcDbLinetypeTableRecord
  2
DASH_DOUBLE_DOT
 70
     0
  3
Dash Double-Dot __ . . __ . . __ . . __ . .
 72
    65
 73
     6
 40
0.4398
 49
0.24
 74
     0
 49
-0.06
 74
     0
 49
0.0098
 74
     0
 49
-0.06
 74
     0
 49
0.01
 74
     0
 49
-0.06
 74
     0
  0
LTYPE
  5
83
330
5
100
AcDbSymbolTableRecord
100
AcDbLinetypeTableRecord
  2
DASHED_SPACE
 70
     0
  3
Dashed Space __ __ __ __ __ __ __ __ __ __ __ _
 72
    65
 73
     2
 40
0.2067
 49
0.1654
 74
     0
 49
-0.0413
 74
     0
  0
LTYPE
  5
84
330
5
100
AcDbSymbolTableRecord
100
AcDbLinetypeTableRecord
  2
DOTTED
 70
     0
  3
Dotted . . . . . . . . . . . . . . . . . . . . 
 72
    65
 73
     2
 40
0.0482
 49
0.0069
 74
     0
 49
-0.0413
 74
     0
  0
LTYPE
  5
85
330
5
100
AcDbSymbolTableRecord
100
AcDbLinetypeTableRecord
  2
DOUBLE_DASH_CHAIN
 70
     0
  3
Double-Dash Chain ______  __  __  ______  __  _
 72
    65
 73
     6
 40
1.240299999999999
 49
0.6614
 74
     0
 49
-0.0827
 74
     0
 49
0.1654
 74
     0
 49
-0.0827
 74
     0
 49
0.1654
 74
     0
 49
-0.0827
 74
     0
  0
LTYPE
  5
87
330
5
100
AcDbSymbolTableRecord
100
AcDbLinetypeTableRecord
  2
DOUBLE_DASH_DOUBLE_DOT
 70
     0
  3
Double-Dash Double-dot _ _ . . _ _ . . _
 72
    65
 73
     8
 40
0.7400000000000001
 49
0.24
 74
     0
 49
-0.06
 74
     0
 49
0.24
 74
     0
 49
-0.06
 74
     0
 49
0.01
 74
     0
 49
-0.06
 74
     0
 49
0.01
 74
     0
 49
-0.06
 74
     0
  0
LTYPE
  5
88
330
5
100
AcDbSymbolTableRecord
100
AcDbLinetypeTableRecord
  2
DOUBLE_DASH_TRIPLE_DOT
 70
     0
  3
Double Dash Triple Dot __ __ . . . __ __ . .
 72
    65
 73
    10
 40
0.8100000000000001
 49
0.24
 74
     0
 49
-0.06
 74
     0
 49
0.24
 74
     0
 49
-0.06
 74
     0
 49
0.01
 74
     0
 49
-0.06
 74
     0
 49
0.01
 74
     0
 49
-0.06
 74
     0
 49
0.01
 74
     0
 49
-0.06
 74
     0
  0
LTYPE
  5
89
330
5
100
AcDbSymbolTableRecord
100
AcDbLinetypeTableRecord
  2
LONG_DASH_DOTTED
 70
     0
  3
Long Dash Dotted ____ . ____ . ____ . ____ . _
 72
    65
 73
     4
 40
0.3543
 49
0.2362
 74
     0
 49
-0.0295
 74
     0
 49
0.0591
 74
     0
 49
-0.0295
 74
     0
  0
LTYPE
  5
8A
330
5
100
AcDbSymbolTableRecord
100
AcDbLinetypeTableRecord
  2
LONG_DASH_DOUBLE_DOT
 70
     0
  3
Long Dash Double Dot ________  .  .  ________  
 72
    65
 73
     6
 40
0.6799999999999999
 49
0.48
 74
     0
 49
-0.06
 74
     0
 49
0.01
 74
     0
 49
-0.06
 74
     0
 49
0.01
 74
     0
 49
-0.06
 74
     0
  0
LTYPE
  5
8B
330
5
100
AcDbSymbolTableRecord
100
AcDbLinetypeTableRecord
  2
LONG_DASH_TRIPLE_DOT
 70
     0
  3
Long Dash Triple Dot ____ ... ____ ... ____
 72
    65
 73
     8
 40
0.3689
 49
0.2362
 74
     0
 49
-0.0295
 74
     0
 49
0.0049
 74
     0
 49
-0.0295
 74
     0
 49
0.0049
 74
     0
 49
-0.0295
 74
     0
 49
0.0049
 74
     0
 49
-0.0295
 74
     0
  0
LTYPE
  5
8C
330
5
100
AcDbSymbolTableRecord
100
AcDbLinetypeTableRecord
  2
BORDER
 70
     0
  3
Border __ __ . __ __ . __ __ . __ __ . __ __ .
 72
    65
 73
     6
 40
1.75
 49
0.5
 74
     0
 49
-0.25
 74
     0
 49
0.5
 74
     0
 49
-0.25
 74
     0
 49
0.0
 74
     0
 49
-0.25
 74
     0
  0
LTYPE
  5
8D
330
5
100
AcDbSymbolTableRecord
100
AcDbLinetypeTableRecord
  2
BORDER2
 70
     0
  3
Border (.5x) __.__.__.__.__.__.__.__.__.__.__.
 72
    65
 73
     6
 40
0.875
 49
0.25
 74
     0
 49
-0.125
 74
     0
 49
0.25
 74
     0
 49
-0.125
 74
     0
 49
0.0
 74
     0
 49
-0.125
 74
     0
  0
LTYPE
  5
8E
330
5
100
AcDbSymbolTableRecord
100
AcDbLinetypeTableRecord
  2
BORDERX2
 70
     0
  3
Border (2x) ____  ____  .  ____  ____  .  ___
 72
    65
 73
     6
 40
3.5
 49
1.0
 74
     0
 49
-0.5
 74
     0
 49
1.0
 74
     0
 49
-0.5
 74
     0
 49
0.0
 74
     0
 49
-0.5
 74
     0
  0
LTYPE
  5
8F
330
5
100
AcDbSymbolTableRecord
100
AcDbLinetypeTableRecord
  2
CENTER
 70
     0
  3
Center ____ _ ____ _ ____ _ ____ _ ____ _ ____
 72
    65
 73
     4
 40
2.0
 49
1.25
 74
     0
 49
-0.25
 74
     0
 49
0.25
 74
     0
 49
-0.25
 74
     0
  0
LTYPE
  5
90
330
5
100
AcDbSymbolTableRecord
100
AcDbLinetypeTableRecord
  2
CENTER2
 70
     0
  3
Center (.5x) ___ _ ___ _ ___ _ ___ _ ___ _ ___
 72
    65
 73
     4
 40
1.125
 49
0.75
 74
     0
 49
-0.125
 74
     0
 49
0.125
 74
     0
 49
-0.125
 74
     0
  0
LTYPE
  5
91
330
5
100
AcDbSymbolTableRecord
100
AcDbLinetypeTableRecord
  2
CENTERX2
 70
     0
  3
Center (2x) ________  __  ________  __  _____
 72
    65
 73
     4
 40
4.0
 49
2.5
 74
     0
 49
-0.5
 74
     0
 49
0.5
 74
     0
 49
-0.5
 74
     0
  0
LTYPE
  5
92
330
5
100
AcDbSymbolTableRecord
100
AcDbLinetypeTableRecord
  2
DASHDOT2
 70
     0
  3
Dash dot (.5x) _._._._._._._._._._._._._._._.
 72
    65
 73
     4
 40
0.5
 49
0.25
 74
     0
 49
-0.125
 74
     0
 49
0.0
 74
     0
 49
-0.125
 74
     0
  0
LTYPE
  5
93
330
5
100
AcDbSymbolTableRecord
100
AcDbLinetypeTableRecord
  2
DASHDOTX2
 70
     0
  3
Dash dot (2x) ____  .  ____  .  ____  .  ___
 72
    65
 73
     4
 40
2.0
 49
1.0
 74
     0
 49
-0.5
 74
     0
 49
0.0
 74
     0
 49
-0.5
 74
     0
  0
LTYPE
  5
95
330
5
100
AcDbSymbolTableRecord
100
AcDbLinetypeTableRecord
  2
DASHED2
 70
     0
  3
Dashed (.5x) _ _ _ _ _ _ _ _ _ _ _ _ _ _ _ _ _
 72
    65
 73
     2
 40
0.375
 49
0.25
 74
     0
 49
-0.125
 74
     0
  0
LTYPE
  5
96
330
5
100
AcDbSymbolTableRecord
100
AcDbLinetypeTableRecord
  2
DASHEDX2
 70
     0
  3
Dashed (2x) ____  ____  ____  ____  ____  ___
 72
    65
 73
     2
 40
1.5
 49
1.0
 74
     0
 49
-0.5
 74
     0
  0
LTYPE
  5
97
330
5
100
AcDbSymbolTableRecord
100
AcDbLinetypeTableRecord
  2
DIVIDE
 70
     0
  3
Divide ____ . . ____ . . ____ . . ____ . . ____
 72
    65
 73
     6
 40
1.25
 49
0.5
 74
     0
 49
-0.25
 74
     0
 49
0.0
 74
     0
 49
-0.25
 74
     0
 49
0.0
 74
     0
 49
-0.25
 74
     0
  0
LTYPE
  5
98
330
5
100
AcDbSymbolTableRecord
100
AcDbLinetypeTableRecord
  2
DIVIDE2
 70
     0
  3
Divide (.5x) __..__..__..__..__..__..__..__.._
 72
    65
 73
     6
 40
0.625
 49
0.25
 74
     0
 49
-0.125
 74
     0
 49
0.0
 74
     0
 49
-0.125
 74
     0
 49
0.0
 74
     0
 49
-0.125
 74
     0
  0
LTYPE
  5
99
330
5
100
AcDbSymbolTableRecord
100
AcDbLinetypeTableRecord
  2
DIVIDEX2
 70
     0
  3
Divide (2x) ________  .  .  ________  .  .  _
 72
    65
 73
     6
 40
2.5
 49
1.0
 74
     0
 49
-0.5
 74
     0
 49
0.0
 74
     0
 49
-0.5
 74
     0
 49
0.0
 74
     0
 49
-0.5
 74
     0
  0
LTYPE
  5
9A
330
5
100
AcDbSymbolTableRecord
100
AcDbLinetypeTableRecord
  2
DOT
 70
     0
  3
Dot . . . . . . . . . . . . . . . . . . . . . .
 72
    65
 73
     2
 40
0.25
 49
0.0
 74
     0
 49
-0.25
 74
     0
  0
LTYPE
  5
9B
330
5
100
AcDbSymbolTableRecord
100
AcDbLinetypeTableRecord
  2
DOT2
 70
     0
  3
Dot (.5x) .....................................
 72
    65
 73
     2
 40
0.125
 49
0.0
 74
     0
 49
-0.125
 74
     0
  0
LTYPE
  5
9C
330
5
100
AcDbSymbolTableRecord
100
AcDbLinetypeTableRecord
  2
DOTX2
 70
     0
  3
Dot (2x) .  .  .  .  .  .  .  .  .  .  .  .  . 
 72
    65
 73
     2
 40
0.5
 49
0.0
 74
     0
 49
-0.5
 74
     0
  0
LTYPE
  5
9D
330
5
100
AcDbSymbolTableRecord
100
AcDbLinetypeTableRecord
  2
HIDDEN
 70
     0
  3
Hidden __ __ __ __ __ __ __ __ __ __ __ __ __ _
 72
    65
 73
     2
 40
0.375
 49
0.25
 74
     0
 49
-0.125
 74
     0
  0
LTYPE
  5
9E
330
5
100
AcDbSymbolTableRecord
100
AcDbLinetypeTableRecord
  2
HIDDEN2
 70
     0
  3
Hidden (.5x) _ _ _ _ _ _ _ _ _ _ _ _ _ _ _ _ _
 72
    65
 73
     2
 40
0.1875
 49
0.125
 74
     0
 49
-0.0625
 74
     0
  0
LTYPE
  5
9F
330
5
100
AcDbSymbolTableRecord
100
AcDbLinetypeTableRecord
  2
HIDDENX2
 70
     0
  3
Hidden (2x) ____ ____ ____ ____ ____ ____ ____
 72
    65
 73
     2
 40
0.75
 49
0.5
 74
     0
 49
-0.25
 74
     0
  0
LTYPE
  5
A0
330
5
100
AcDbSymbolTableRecord
100
AcDbLinetypeTableRecord
  2
PHANTOM
 70
     0
  3
Phantom ______  __  __  ______  __  __  ______
 72
    65
 73
     6
 40
2.5
 49
1.25
 74
     0
 49
-0.25
 74
     0
 49
0.25
 74
     0
 49
-0.25
 74
     0
 49
0.25
 74
     0
 49
-0.25
 74
     0
  0
LTYPE
  5
A1
330
5
100
AcDbSymbolTableRecord
100
AcDbLinetypeTableRecord
  2
PHANTOM2
 70
     0
  3
Phantom (.5x) ___ _ _ ___ _ _ ___ _ _ ___ _ _
 72
    65
 73
     6
 40
1.25
 49
0.625
 74
     0
 49
-0.125
 74
     0
 49
0.125
 74
     0
 49
-0.125
 74
     0
 49
0.125
 74
     0
 49
-0.125
 74
     0
  0
LTYPE
  5
A2
330
5
100
AcDbSymbolTableRecord
100
AcDbLinetypeTableRecord
  2
PHANTOMX2
 70
     0
  3
Phantom (2x) ____________    ____    ____   _
 72
    65
 73
     6
 40
5.0
 49
2.5
 74
     0
 49
-0.5
 74
     0
 49
0.5
 74
     0
 49
-0.5
 74
     0
 49
0.5
 74
     0
 49
-0.5
 74
     0
  0
LTYPE
  5
A3
330
5
100
AcDbSymbolTableRecord
100
AcDbLinetypeTableRecord
  2
ACAD_ISO02W100
 70
     0
  3
ISO dash __ __ __ __ __ __ __ __ __ __ __ __ __
 72
    65
 73
     2
 40
0.59
 49
0.47
 74
     0
 49
-0.12
 74
     0
  0
LTYPE
  5
A4
330
5
100
AcDbSymbolTableRecord
100
AcDbLinetypeTableRecord
  2
ACAD_ISO03W100
 70
     0
  3
ISO dash space __    __    __    __    __    __
 72
    65
 73
     2
 40
1.179999999999999
 49
0.47
 74
     0
 49
-0.71
 74
     0
  0
LTYPE
  5
A5
330
5
100
AcDbSymbolTableRecord
100
AcDbLinetypeTableRecord
  2
ACAD_ISO04W100
 70
     0
  3
ISO long-dash dot ____ . ____ . ____ . ____ . _
 72
    65
 73
     4
 40
1.179999999999999
 49
0.9399999999999998
 74
     0
 49
-0.12
 74
     0
 49
0.0
 74
     0
 49
-0.12
 74
     0
  0
LTYPE
  5
A6
330
5
100
AcDbSymbolTableRecord
100
AcDbLinetypeTableRecord
  2
ACAD_ISO05W100
 70
     0
  3
ISO long-dash double-dot ____ .. ____ .. ____ .
 72
    65
 73
     6
 40
1.299999999999999
 49
0.9399999999999998
 74
     0
 49
-0.12
 74
     0
 49
0.0
 74
     0
 49
-0.12
 74
     0
 49
0.0
 74
     0
 49
-0.12
 74
     0
  0
LTYPE
  5
A7
330
5
100
AcDbSymbolTableRecord
100
AcDbLinetypeTableRecord
  2
ACAD_ISO06W100
 70
     0
  3
ISO long-dash triple-dot ____ ... ____ ... ____
 72
    65
 73
     8
 40
1.419999999999999
 49
0.9399999999999998
 74
     0
 49
-0.12
 74
     0
 49
0.0
 74
     0
 49
-0.12
 74
     0
 49
0.0
 74
     0
 49
-0.12
 74
     0
 49
0.0
 74
     0
 49
-0.12
 74
     0
  0
LTYPE
  5
A8
330
5
100
AcDbSymbolTableRecord
100
AcDbLinetypeTableRecord
  2
ACAD_ISO07W100
 70
     0
  3
ISO dot . . . . . . . . . . . . . . . . . . . .
 72
    65
 73
     2
 40
0.12
 49
0.0
 74
     0
 49
-0.12
 74
     0
  0
LTYPE
  5
A9
330
5
100
AcDbSymbolTableRecord
100
AcDbLinetypeTableRecord
  2
ACAD_ISO08W100
 70
     0
  3
ISO long-dash short-dash ____ __ ____ __ ____ _
 72
    65
 73
     4
 40
0.95
 49
0.47
 74
     0
 49
-0.12
 74
     0
 49
0.24
 74
     0
 49
-0.12
 74
     0
  0
LTYPE
  5
AA
330
5
100
AcDbSymbolTableRecord
100
AcDbLinetypeTableRecord
  2
ACAD_ISO09W100
 70
     0
  3
ISO long-dash double-short-dash ____ __ __ ____
 72
    65
 73
     6
 40
1.31
 49
0.47
 74
     0
 49
-0.12
 74
     0
 49
0.24
 74
     0
 49
-0.12
 74
     0
 49
0.24
 74
     0
 49
-0.12
 74
     0
  0
LTYPE
  5
AB
330
5
100
AcDbSymbolTableRecord
100
AcDbLinetypeTableRecord
  2
ACAD_ISO10W100
 70
     0
  3
ISO dash dot __ . __ . __ . __ . __ . __ . __ .
 72
    65
 73
     4
 40
0.71
 49
0.47
 74
     0
 49
-0.12
 74
     0
 49
0.0
 74
     0
 49
-0.12
 74
     0
  0
LTYPE
  5
AC
330
5
100
AcDbSymbolTableRecord
100
AcDbLinetypeTableRecord
  2
ACAD_ISO11W100
 70
     0
  3
ISO double-dash dot __ __ . __ __ . __ __ . __ 
 72
    65
 73
     6
 40
1.299999999999999
 49
0.47
 74
     0
 49
-0.12
 74
     0
 49
0.47
 74
     0
 49
-0.12
 74
     0
 49
0.0
 74
     0
 49
-0.12
 74
     0
  0
LTYPE
  5
AD
330
5
100
AcDbSymbolTableRecord
100
AcDbLinetypeTableRecord
  2
ACAD_ISO12W100
 70
     0
  3
ISO dash double-dot __ . . __ . . __ . . __ . .
 72
    65
 73
     6
 40
0.8299999999999998
 49
0.47
 74
     0
 49
-0.12
 74
     0
 49
0.0
 74
     0
 49
-0.12
 74
     0
 49
0.0
 74
     0
 49
-0.12
 74
     0
  0
LTYPE
  5
AE
330
5
100
AcDbSymbolTableRecord
100
AcDbLinetypeTableRecord
  2
ACAD_ISO13W100
 70
     0
  3
ISO double-dash double-dot __ __ . . __ __ . . 
 72
    65
 73
     8
 40
1.419999999999999
 49
0.47
 74
     0
 49
-0.12
 74
     0
 49
0.47
 74
     0
 49
-0.12
 74
     0
 49
0.0
 74
     0
 49
-0.12
 74
     0
 49
0.0
 74
     0
 49
-0.12
 74
     0
  0
LTYPE
  5
AF
330
5
100
AcDbSymbolTableRecord
100
AcDbLinetypeTableRecord
  2
ACAD_ISO14W100
 70
     0
  3
ISO dash triple-dot __ . . . __ . . . __ . . . 
 72
    65
 73
     8
 40
0.95
 49
0.47
 74
     0
 49
-0.12
 74
     0
 49
0.0
 74
     0
 49
-0.12
 74
     0
 49
0.0
 74
     0
 49
-0.12
 74
     0
 49
0.0
 74
     0
 49
-0.12
 74
     0
  0
LTYPE
  5
B0
330
5
100
AcDbSymbolTableRecord
100
AcDbLinetypeTableRecord
  2
ACAD_ISO15W100
 70
     0
  3
ISO double-dash triple-dot __ __ . . . __ __ . 
 72
    65
 73
    10
 40
1.539999999999999
 49
0.47
 74
     0
 49
-0.12
 74
     0
 49
0.47
 74
     0
 49
-0.12
 74
     0
 49
0.0
 74
     0
 49
-0.12
 74
     0
 49
0.0
 74
     0
 49
-0.12
 74
     0
 49
0.0
 74
     0
 49
-0.12
 74
     0
  0
LTYPE
  5
B3
330
5
100
AcDbSymbolTableRecord
100
AcDbLinetypeTableRecord
  2
FENCELINE1
 70
     0
  3
Fenceline circle ----0-----0----0-----0----0---
 72
    65
 73
     4
 40
1.45
 49
0.25
 74
     0
 49
-0.1
 74
     4
 75
   133
340
B2
 46
0.1
 50
0.0
 44
-0.1
 45
0.0
 49
-0.1
 74
     0
 49
1.0
 74
     0
  0
LTYPE
  5
B4
330
5
100
AcDbSymbolTableRecord
100
AcDbLinetypeTableRecord
  2
FENCELINE2
 70
     0
  3
Fenceline square ----[]-----[]----[]-----[]----
 72
    65
 73
     4
 40
1.45
 49
0.25
 74
     0
 49
-0.1
 74
     4
 75
   132
340
B2
 46
0.1
 50
0.0
 44
-0.1
 45
0.0
 49
-0.1
 74
     0
 49
1.0
 74
     0
  0
LTYPE
  5
B5
330
5
100
AcDbSymbolTableRecord
100
AcDbLinetypeTableRecord
  2
TRACKS
 70
     0
  3
Tracks -|-|-|-|-|-|-|-|-|-|-|-|-|-|-|-|-|-|-|-|
 72
    65
 73
     2
 40
0.3
 49
0.15
 74
     4
 75
   130
340
B2
 46
0.25
 50
0.0
 44
0.0
 45
0.0
 49
0.15
 74
     0
  0
LTYPE
  5
B6
330
5
100
AcDbSymbolTableRecord
100
AcDbLinetypeTableRecord
  2
BATTING
 70
     0
  3
Batting SSSSSSSSSSSSSSSSSSSSSSSSSSSSSSSSSSSSSSS
 72
    65
 73
     4
 40
0.4001000000000001
 49
0.0001
 74
     0
 49
-0.1
 74
     4
 75
   134
340
B2
 46
0.1
 50
0.0
 44
-0.1
 45
0.0
 49
-0.2
 74
     4
 75
   134
340
B2
 46
0.1
 50
180.0
 44
0.1
 45
0.0
 49
-0.1
 74
     0
  0
LTYPE
  5
B7
330
5
100
AcDbSymbolTableRecord
100
AcDbLinetypeTableRecord
  2
HOT_WATER_SUPPLY
 70
     0
  3
Hot water supply ---- HW ---- HW ---- HW ----
 72
    65
 73
     3
 40
0.9
 49
0.5
 74
     0
 49
-0.2
 74
     2
 75
     0
340
55
 46
0.1
 50
0.0
 44
-0.1
 45
-0.05
  9
HW
 49
-0.2
 74
     0
  0
LTYPE
  5
B8
330
5
100
AcDbSymbolTableRecord
100
AcDbLinetypeTableRecord
  2
GAS_LINE
 70
     0
  3
Gas line ----GAS----GAS----GAS----GAS----GAS---
 72
    65
 73
     3
 40
0.95
 49
0.5
 74
     0
 49
-0.2
 74
     2
 75
     0
340
55
 46
0.1
 50
0.0
 44
-0.1
 45
-0.05
  9
GAS
 49
-0.25
 74
     0
  0
LTYPE
  5
B9
330
5
100
AcDbSymbolTableRecord
100
AcDbLinetypeTableRecord
  2
ZIGZAG
 70
     0
  3
Zig zag /\/\/\/\/\/\/\/\/\/\/\/\/\/\/\/\/\/\/\/
 72
    65
 73
     4
 40
0.8001000000000001
 49
0.0001
 74
     0
 49
-0.2
 74
     4
 75
   131
340
B2
 46
0.2
 50
0.0
 44
-0.2
 45
0.0
 49
-0.4
 74
     4
 75
   131
340
B2
 46
0.2
 50
180.0
 44
0.2
 45
0.0
 49
-0.2
 74
     0
  0
ENDTAB
  0
TABLE
  2
LAYER
  5
2
330
0
100
AcDbSymbolTable
 70
    27
  0
LAYER
  5
54
330
2
100
AcDbSymbolTableRecord
100
AcDbLayerTableRecord
  2
0
 70
     0
 62
     7
  6
Continuous
370
     0
390
F
347
21
  0
LAYER
  5
C0
330
2
100
AcDbSymbolTableRecord
100
AcDbLayerTableRecord
  2
Center Mark (ANSI)
 70
     0
 62
     7
  6
Continuous
370
     5
390
F
347
21
  0
LAYER
  5
C1
330
2
100
AcDbSymbolTableRecord
100
AcDbLayerTableRecord
  2
Centerline (ANSI)
 70
     0
 62
     7
  6
Continuous
370
     5
390
F
347
21
  0
LAYER
  5
C3
330
2
100
AcDbSymbolTableRecord
100
AcDbLayerTableRecord
  2
Dimension (ANSI)
 70
     0
 62
     7
  6
Continuous
370
     5
390
F
347
21
  0
LAYER
  5
CC
330
2
100
AcDbSymbolTableRecord
100
AcDbLayerTableRecord
  2
Symbol (ANSI)
 70
     0
 62
     7
  6
Continuous
370
     5
390
F
347
21
  0
LAYER
  5
CF
330
2
100
AcDbSymbolTableRecord
100
AcDbLayerTableRecord
  2
Visible (ANSI)
 70
     0
 62
     7
  6
Continuous
370
     5
390
F
347
21
  0
LAYER
  5
D0
330
2
100
AcDbSymbolTableRecord
100
AcDbLayerTableRecord
  2
Visible Narrow (ANSI)
 70
     0
 62
     7
  6
Continuous
370
     5
390
F
347
21
  0
LAYER
  5
243
330
2
100
AcDbSymbolTableRecord
100
AcDbLayerTableRecord
  2
Defpoints
 70
     0
 62
     7
  6
Continuous
290
     0
370
    -3
390
F
347
21
  0
ENDTAB
  0
TABLE
  2
STYLE
  5
3
330
0
100
AcDbSymbolTable
 70
    10
  0
STYLE
  5
55
330
3
100
AcDbSymbolTableRecord
100
AcDbTextStyleTableRecord
  2
Standard
 70
     0
 40
0.0
 41
1.0
 50
0.0
 71
     0
 42
0.2
  3
txt
  4

  0
STYLE
  5
5A
330
3
100
AcDbSymbolTableRecord
100
AcDbTextStyleTableRecord
  2
Annotative
 70
     0
 40
0.0
 41
1.0
 50
0.0
 71
     0
 42
0.2
  3
txt
  4

1001
AcadAnnotative
1000
AnnotativeData
1002
{
1070
     1
1070
     1
1002
}
  0
STYLE
  5
B2
330
3
100
AcDbSymbolTableRecord
100
AcDbTextStyleTableRecord
  2

 70
     1
 40
0.0
 41
1.0
 50
0.0
 71
     0
 42
0.2
  3
ltypeshp.shx
  4

  0
STYLE
  5
D4
330
3
100
AcDbSymbolTableRecord
100
AcDbTextStyleTableRecord
  2
ITALICC_120
 70
     0
 40
0.0
 41
1.0
 50
0.0
 71
     0
 42
0.2
  3
italicc.shx
  4

  0
STYLE
  5
D5
330
3
100
AcDbSymbolTableRecord
100
AcDbTextStyleTableRecord
  2
Label Text (ANSI)
 70
     0
 40
0.0
 41
1.0
 50
0.0
 71
     0
 42
0.2
  3
tahoma.ttf
  4

1001
ACAD
1000
Tahoma
1071
      256
  0
STYLE
  5
D6
330
3
100
AcDbSymbolTableRecord
100
AcDbTextStyleTableRecord
  2
Note Text (ANSI)
 70
     0
 40
0.0
 41
1.0
 50
0.0
 71
     0
 42
0.2
  3
RomanS.shx
  4

  0
STYLE
  5
D7
330
3
100
AcDbSymbolTableRecord
100
AcDbTextStyleTableRecord
  2
ROMANS
 70
     0
 40
0.0
 41
1.0
 50
0.0
 71
     0
 42
0.2
  3
romans.shx
  4

  0
STYLE
  5
D8
330
3
100
AcDbSymbolTableRecord
100
AcDbTextStyleTableRecord
  2
SANSSERIF_114
 70
     0
 40
0.0
 41
1.0
 50
0.0
 71
     0
 42
0.2
  3
tahoma.ttf
  4

1001
ACAD
1000
Tahoma
1071
      256
  0
STYLE
  5
D9
330
3
100
AcDbSymbolTableRecord
100
AcDbTextStyleTableRecord
  2
SANSSERIF_117
 70
     0
 40
0.0
 41
1.0
 50
0.0
 71
     0
 42
0.2
  3
tahoma.ttf
  4

1001
ACAD
1000
Tahoma
1071
      256
  0
STYLE
  5
162
330
3
100
AcDbSymbolTableRecord
100
AcDbTextStyleTableRecord
  2
Text Style168
 70
     0
 40
0.0
 41
1.0
 50
0.0
 71
     0
 42
0.2
  3
tahoma.ttf
  4

1001
ACAD
1000
Tahoma
1071
      256
  0
ENDTAB
  0
TABLE
  2
VIEW
  5
6
330
0
100
AcDbSymbolTable
 70
     0
  0
ENDTAB
  0
TABLE
  2
UCS
  5
7
330
0
100
AcDbSymbolTable
 70
     0
  0
ENDTAB
  0
TABLE
  2
APPID
  5
9
330
0
100
AcDbSymbolTable
 70
     3
  0
APPID
  5
56
330
9
100
AcDbSymbolTableRecord
100
AcDbRegAppTableRecord
  2
ACAD
 70
     0
  0
APPID
  5
5E
330
9
100
AcDbSymbolTableRecord
100
AcDbRegAppTableRecord
  2
AcadAnnotative
 70
     0
  0
APPID
  5
B70
330
9
100
AcDbSymbolTableRecord
100
AcDbRegAppTableRecord
  2
ACAD_DSTYLE_DIMRADIAL_EXTENSION
 70
     0
  0
ENDTAB
  0
TABLE
  2
DIMSTYLE
  5
A
330
0
100
AcDbSymbolTable
 70
    15
100
AcDbDimStyleTable
 71
     2
340
F1
340
58
  0
DIMSTYLE
105
58
330
A
100
AcDbSymbolTableRecord
100
AcDbDimStyleTableRecord
  2
Standard
 70
     0
340
55
  0
DIMSTYLE
105
59
330
A
100
AcDbSymbolTableRecord
100
AcDbDimStyleTableRecord
  2
Annotative
 70
     0
340
55
1001
AcadAnnotative
1000
AnnotativeData
1002
{
1070
     1
1070
     1
1002
}
  0
DIMSTYLE
105
E9
330
A
100
AcDbSymbolTableRecord
100
AcDbDimStyleTableRecord
  2
Architectural (ANSI)
 70
     0
 40
3.555555555555555
 41
0.0984251946210861
 43
0.2362204724409449
 44
0.125
 45
0.00000001
 46
0.3937007874015748
 78
     3
 79
     3
140
0.0799999982118607
146
1.500000119209289
147
0.031496062992126
171
     1
176
   256
177
   256
178
   256
272
     2
274
     1
276
     2
277
     4
284
    12
285
     4
286
    12
340
D6
341
DA
371
    -1
372
    -1
  0
DIMSTYLE
105
EA
330
A
100
AcDbSymbolTableRecord
100
AcDbDimStyleTableRecord
  2
Architectural (ANSI)$7
 70
     0
 40
3.555555555555555
 41
0.0700000002980232
 43
0.2362204724409449
 44
0.125
 45
0.00000001
 46
0.3937007874015748
 78
     3
 79
     3
140
0.0799999982118607
146
1.500000119209289
147
0.031496062992126
171
     1
176
   256
177
   256
178
   256
272
     2
274
     1
276
     2
277
     4
284
    12
285
     4
286
    12
340
D6
341
DA
371
    -1
372
    -1
  0
DIMSTYLE
105
EB
330
A
100
AcDbSymbolTableRecord
100
AcDbDimStyleTableRecord
  2
Default - Fraction (ANSI)
 70
     0
 40
3.555555555555555
 41
0.0984251946210861
 43
0.2362204724409449
 44
0.125
 45
0.00000001
 46
0.3937007874015748
 79
     3
140
0.0799999982118607
146
1.500000119209289
147
0.031496062992126
171
     1
176
   256
177
   256
178
   256
272
     2
274
     1
276
     2
277
     5
284
    12
285
     4
286
    12
340
D6
341
DA
371
    -1
372
    -1
  0
DIMSTYLE
105
EC
330
A
100
AcDbSymbolTableRecord
100
AcDbDimStyleTableRecord
  2
Default - Fraction (ANSI)$7
 70
     0
 40
3.555555555555555
 41
0.0700000002980232
 43
0.2362204724409449
 44
0.125
 45
0.00000001
 46
0.3937007874015748
 79
     3
140
0.0799999982118607
146
1.500000119209289
147
0.031496062992126
171
     1
176
   256
177
   256
178
   256
272
     2
274
     1
276
     2
277
     5
284
    12
285
     4
286
    12
340
D6
341
DA
371
    -1
372
    -1
  0
DIMSTYLE
105
ED
330
A
100
AcDbSymbolTableRecord
100
AcDbDimStyleTableRecord
  2
Default - mm (ANSI)
 70
     0
 40
3.555555555555555
 41
0.0984251946210861
 42
0.063
 43
0.2362204724409449
 44
0.125
 45
0.00000001
 46
0.3937007874015748
 73
     0
 78
     4
 79
     1
140
0.0799999982118607
143
1.0
144
25.4
146
1.500000119209289
147
0.031496062992126
171
     1
176
   256
177
   256
178
   256
179
     1
271
     2
272
     2
274
     1
284
     4
285
     4
340
D6
341
DA
371
    -1
372
    -1
  0
DIMSTYLE
105
EE
330
A
100
AcDbSymbolTableRecord
100
AcDbDimStyleTableRecord
  2
Default - mm (ANSI)$7
 70
     0
 40
3.555555555555555
 41
0.0700000002980232
 42
0.063
 43
0.2362204724409449
 44
0.125
 45
0.00000001
 46
0.3937007874015748
 73
     0
 78
     4
 79
     1
140
0.0799999982118607
143
1.0
144
25.4
146
1.500000119209289
147
0.031496062992126
171
     1
176
   256
177
   256
178
   256
179
     1
271
     2
272
     2
274
     1
284
     4
285
     4
340
D6
341
DA
371
    -1
372
    -1
  0
DIMSTYLE
105
EF
330
A
100
AcDbSymbolTableRecord
100
AcDbDimStyleTableRecord
  2
Default - mm [in] (ANSI)
 70
     0
  4
 in
 40
3.555555555555555
 41
0.0984251946210861
 42
0.063
 43
0.25
 44
0.125
 45
0.00000001
 46
0.3937007874015748
 73
     0
 78
     4
 79
     1
140
0.0799999982118607
143
0.03937
144
25.4
146
1.500000119209289
147
0.031496062992126
170
     1
171
     3
176
   256
177
   256
178
   256
179
     1
271
     2
272
     2
274
     3
284
     4
285
     4
286
     4
340
D6
341
DA
371
    -1
372
    -1
  0
DIMSTYLE
105
F0
330
A
100
AcDbSymbolTableRecord
100
AcDbDimStyleTableRecord
  2
Default - mm [in] (ANSI)$7
 70
     0
  4
 in
 40
3.555555555555555
 41
0.0700000002980232
 42
0.063
 43
0.25
 44
0.125
 45
0.00000001
 46
0.3937007874015748
 73
     0
 78
     4
 79
     1
140
0.0799999982118607
143
0.03937
144
25.4
146
1.500000119209289
147
0.031496062992126
170
     1
171
     3
176
   256
177
   256
178
   256
179
     1
271
     2
272
     2
274
     3
284
     4
285
     4
286
     4
340
D6
341
DA
371
    -1
372
    -1
  0
DIMSTYLE
105
F1
102
{ACAD_REACTORS
330
241
330
33C
330
435
330
52C
330
60B
330
721
330
80B
330
8FA
330
9D9
330
AD7
330
B91
330
C34
330
D28
330
E3E
330
F3C
330
1026
102
}
330
A
100
AcDbSymbolTableRecord
100
AcDbDimStyleTableRecord
  2
Default (ANSI)
 70
     0
 40
3.555555555555555
 41
0.0700000002980232
 42
0.0315
 43
0.118
 44
0.0625
 45
0.00000001
 46
0.197
140
0.0799999982118607
146
1.25
147
0.0155
176
   256
177
   256
178
   256
271
     2
272
     2
340
D7
341
DA
342
DA
371
    -1
372
    -1
  0
DIMSTYLE
105
F2
330
A
100
AcDbSymbolTableRecord
100
AcDbDimStyleTableRecord
  2
Default (ANSI)$7
 70
     0
 40
3.555555555555555
 41
0.0700000002980232
 42
0.0315
 43
0.118
 44
0.0625
 45
0.00000001
 46
0.197
140
0.0799999982118607
146
1.25
147
0.0155
176
   256
177
   256
178
   256
271
     2
272
     2
340
D7
341
DA
342
DA
371
    -1
372
    -1
  0
DIMSTYLE
105
F3
330
A
100
AcDbSymbolTableRecord
100
AcDbDimStyleTableRecord
  2
Alternate (ANSI)
 70
     0
 40
3.555555555555555
 41
0.0979999974370003
340
55
342
F4
  0
DIMSTYLE
105
105
330
A
100
AcDbSymbolTableRecord
100
AcDbDimStyleTableRecord
  2
Datum (ANSI)
 70
     0
 40
3.555555555555555
 41
0.0979999974370003
340
55
342
F4
  0
DIMSTYLE
105
114
330
A
100
AcDbSymbolTableRecord
100
AcDbDimStyleTableRecord
  2
Large (ANSI)
 70
     0
 40
3.555555555555555
 41
0.1959999948740005
340
55
342
F4
  0
ENDTAB
  0
TABLE
  2
BLOCK_RECORD
  5
1
330
0
100
AcDbSymbolTable
 70
    21
  0
BLOCK_RECORD
  5
6C
330
1
100
AcDbSymbolTableRecord
100
AcDbBlockTableRecord
  2
*Model_Space
340
6F
 70
     0
280
     1
281
     0
  0
BLOCK_RECORD
  5
68
330
1
100
AcDbSymbolTableRecord
100
AcDbBlockTableRecord
  2
*Paper_Space
340
6B
 70
     0
280
     1
281
     0
  0
BLOCK_RECORD
  5
70
330
1
100
AcDbSymbolTableRecord
100
AcDbBlockTableRecord
  2
*Paper_Space0
340
73
 70
     0
280
     1
281
     0
  0
BLOCK_RECORD
  5
DA
330
1
100
AcDbSymbolTableRecord
100
AcDbBlockTableRecord
  2
Filled-1
340
0
102
{BLKREFS
331
336
331
337
331
42F
331
430
331
526
331
527
331
605
331
606
331
71B
331
71C
331
805
331
806
331
8F4
331
8F5
331
9D3
331
9D4
331
AD1
331
AD2
331
B8C
331
C31
331
D22
331
D23
331
E38
331
E39
331
F36
331
F37
331
1020
331
1021
331
110A
331
110B
102
}
 70
     0
280
     1
281
     0
  0
BLOCK_RECORD
  5
F4
330
1
100
AcDbSymbolTableRecord
100
AcDbBlockTableRecord
  2
_Closed
340
0
 70
     0
280
     1
281
     0
  0
BLOCK_RECORD
  5
FB
330
1
100
AcDbSymbolTableRecord
100
AcDbBlockTableRecord
  2
DatumFilled45
340
0
 70
     0
280
     1
281
     0
  0
BLOCK_RECORD
  5
106
330
1
100
AcDbSymbolTableRecord
100
AcDbBlockTableRecord
  2
Filled-2
340
0
 70
     0
280
     1
281
     0
  0
BLOCK_RECORD
  5
244
330
1
100
AcDbSymbolTableRecord
100
AcDbBlockTableRecord
  2
*D5
340
0
 70
     0
280
     1
281
     0
  0
BLOCK_RECORD
  5
33D
330
1
100
AcDbSymbolTableRecord
100
AcDbBlockTableRecord
  2
*D6
340
0
 70
     0
280
     1
281
     0
  0
BLOCK_RECORD
  5
436
330
1
100
AcDbSymbolTableRecord
100
AcDbBlockTableRecord
  2
*D7
340
0
 70
     0
280
     1
281
     0
  0
BLOCK_RECORD
  5
52D
330
1
100
AcDbSymbolTableRecord
100
AcDbBlockTableRecord
  2
*D8
340
0
 70
     0
280
     1
281
     0
  0
BLOCK_RECORD
  5
60C
330
1
100
AcDbSymbolTableRecord
100
AcDbBlockTableRecord
  2
*D9
340
0
 70
     0
280
     1
281
     0
  0
BLOCK_RECORD
  5
722
330
1
100
AcDbSymbolTableRecord
100
AcDbBlockTableRecord
  2
*D10
340
0
 70
     0
280
     1
281
     0
  0
BLOCK_RECORD
  5
80C
330
1
100
AcDbSymbolTableRecord
100
AcDbBlockTableRecord
  2
*D11
340
0
 70
     0
280
     1
281
     0
  0
BLOCK_RECORD
  5
8FB
330
1
100
AcDbSymbolTableRecord
100
AcDbBlockTableRecord
  2
*D12
340
0
 70
     0
280
     1
281
     0
  0
BLOCK_RECORD
  5
9DA
330
1
100
AcDbSymbolTableRecord
100
AcDbBlockTableRecord
  2
*D13
340
0
 70
     0
280
     1
281
     0
  0
BLOCK_RECORD
  5
AD8
330
1
100
AcDbSymbolTableRecord
100
AcDbBlockTableRecord
  2
*D14
340
0
 70
     0
280
     1
281
     0
  0
BLOCK_RECORD
  5
B92
330
1
100
AcDbSymbolTableRecord
100
AcDbBlockTableRecord
  2
*D15
340
0
 70
     0
280
     1
281
     0
  0
BLOCK_RECORD
  5
C35
330
1
100
AcDbSymbolTableRecord
100
AcDbBlockTableRecord
  2
*D16
340
0
 70
     0
280
     1
281
     0
  0
BLOCK_RECORD
  5
D29
330
1
100
AcDbSymbolTableRecord
100
AcDbBlockTableRecord
  2
*D17
340
0
 70
     0
280
     1
281
     0
  0
BLOCK_RECORD
  5
E3F
330
1
100
AcDbSymbolTableRecord
100
AcDbBlockTableRecord
  2
*D18
340
0
 70
     0
280
     1
281
     0
  0
BLOCK_RECORD
  5
F3D
330
1
100
AcDbSymbolTableRecord
100
AcDbBlockTableRecord
  2
*D19
340
0
 70
     0
280
     1
281
     0
  0
BLOCK_RECORD
  5
1027
330
1
100
AcDbSymbolTableRecord
100
AcDbBlockTableRecord
  2
*D20
340
0
 70
     0
280
     1
281
     0
  0
ENDTAB
  0
ENDSEC
  0
SECTION
  2
BLOCKS
  0
BLOCK
  5
6D
330
6C
100
AcDbEntity
  8
0
100
AcDbBlockBegin
  2
*Model_Space
 70
     0
 10
0.0
 20
0.0
 30
0.0
  3
*Model_Space
  1

  0
ENDBLK
  5
6E
330
6C
100
AcDbEntity
  8
0
100
AcDbBlockEnd
  0
BLOCK
  5
69
330
68
100
AcDbEntity
 67
     1
  8
0
100
AcDbBlockBegin
  2
*Paper_Space
 70
     0
 10
0.0
 20
0.0
 30
0.0
  3
*Paper_Space
  1

  0
ENDBLK
  5
6A
330
68
100
AcDbEntity
 67
     1
  8
0
100
AcDbBlockEnd
  0
BLOCK
  5
71
330
70
100
AcDbEntity
 67
     1
  8
0
100
AcDbBlockBegin
  2
*Paper_Space0
 70
     0
 10
0.0
 20
0.0
 30
0.0
  3
*Paper_Space0
  1

  0
ENDBLK
  5
72
330
70
100
AcDbEntity
 67
     1
  8
0
100
AcDbBlockEnd
  0
BLOCK
  5
DB
330
DA
100
AcDbEntity
  8
0
100
AcDbBlockBegin
  2
Filled-1
 70
     0
 10
0.0
 20
0.0
 30
0.0
  3
Filled-1
  1

  0
LINE
  5
DD
330
DA
100
AcDbEntity
  8
0
 62
     0
100
AcDbLine
 10
-0.9999999999999998
 20
0.0
 30
0.0
 11
0.0
 21
0.0
 31
0.0
  0
POLYLINE
  5
DF
330
DA
100
AcDbEntity
  8
0
 62
     0
100
AcDb2dPolyline
 66
     1
 10
0.0
 20
0.0
 30
0.0
 70
   128
  0
VERTEX
  5
E0
330
DF
100
AcDbEntity
  8
0
 62
     0
100
AcDbVertex
100
AcDb2dVertex
 10
-0.9999999999999998
 20
-0.1785714285714286
 30
0.0
  0
VERTEX
  5
E1
330
DF
100
AcDbEntity
  8
0
 62
     0
100
AcDbVertex
100
AcDb2dVertex
 10
0.0
 20
0.0
 30
0.0
  0
VERTEX
  5
E3
330
DF
100
AcDbEntity
  8
0
 62
     0
100
AcDbVertex
100
AcDb2dVertex
 10
-0.9999999999999998
 20
0.1785714285714286
 30
0.0
  0
VERTEX
  5
E4
330
DF
100
AcDbEntity
  8
0
 62
     0
100
AcDbVertex
100
AcDb2dVertex
 10
-0.9999999999999998
 20
-0.1785714285714286
 30
0.0
  0
SEQEND
  5
E2
330
DF
100
AcDbEntity
  8
0
 62
     0
  0
SOLID
  5
E5
330
DA
100
AcDbEntity
  8
0
 62
     0
100
AcDbTrace
 10
-0.9999999999999998
 20
-0.1785714285714286
 30
0.0
 11
0.0
 21
0.0
 31
0.0
 12
-0.9999999999999998
 22
0.1785714285714286
 32
0.0
 13
-0.9999999999999998
 23
-0.1785714285714286
 33
0.0
  0
LINE
  5
E6
330
DA
100
AcDbEntity
  8
0
 62
     0
100
AcDbLine
 10
-0.9999999999999998
 20
-0.1785714285714286
 30
0.0
 11
0.0
 21
0.0
 31
0.0
  0
LINE
  5
E7
330
DA
100
AcDbEntity
  8
0
 62
     0
100
AcDbLine
 10
0.0
 20
0.0
 30
0.0
 11
-0.9999999999999998
 21
0.1785714285714286
 31
0.0
  0
LINE
  5
E8
330
DA
100
AcDbEntity
  8
0
 62
     0
100
AcDbLine
 10
-0.9999999999999998
 20
0.1785714285714286
 30
0.0
 11
-0.9999999999999998
 21
-0.1785714285714286
 31
0.0
  0
ENDBLK
  5
DC
330
DA
100
AcDbEntity
  8
0
100
AcDbBlockEnd
  0
BLOCK
  5
F9
330
F4
100
AcDbEntity
  8
0
100
AcDbBlockBegin
  2
_Closed
 70
     0
 10
0.0
 20
0.0
 30
0.0
  3
_Closed
  1

  0
LINE
  5
F5
330
F4
100
AcDbEntity
  8
0
  6
ByBlock
 62
     0
370
    -2
100
AcDbLine
 10
-1.0
 20
0.1666666666666666
 30
0.0
 11
0.0
 21
0.0
 31
0.0
  0
LINE
  5
F6
330
F4
100
AcDbEntity
  8
0
  6
ByBlock
 62
     0
370
    -2
100
AcDbLine
 10
0.0
 20
0.0
 30
0.0
 11
-1.0
 21
-0.1666666666666666
 31
0.0
  0
LINE
  5
F7
330
F4
100
AcDbEntity
  8
0
  6
ByBlock
 62
     0
370
    -2
100
AcDbLine
 10
-1.0
 20
0.1666666666666666
 30
0.0
 11
-1.0
 21
-0.1666666666666666
 31
0.0
  0
LINE
  5
F8
330
F4
100
AcDbEntity
  8
0
  6
ByBlock
 62
     0
370
    -2
100
AcDbLine
 10
0.0
 20
0.0
 30
0.0
 11
-1.0
 21
0.0
 31
0.0
  0
ENDBLK
  5
FA
330
F4
100
AcDbEntity
  8
0
100
AcDbBlockEnd
  0
BLOCK
  5
FC
330
FB
100
AcDbEntity
  8
0
100
AcDbBlockBegin
  2
DatumFilled45
 70
     0
 10
0.0
 20
0.0
 30
0.0
  3
DatumFilled45
  1

  0
POLYLINE
  5
FE
330
FB
100
AcDbEntity
  8
0
 62
     0
100
AcDb2dPolyline
 66
     1
 10
0.0
 20
0.0
 30
0.0
 70
   128
  0
VERTEX
  5
FF
330
FE
100
AcDbEntity
  8
0
 62
     0
100
AcDbVertex
100
AcDb2dVertex
 10
0.0
 20
0.9999999999999998
 30
0.0
  0
VERTEX
  5
100
330
FE
100
AcDbEntity
  8
0
 62
     0
100
AcDbVertex
100
AcDb2dVertex
 10
0.0
 20
-0.9999999999999998
 30
0.0
  0
VERTEX
  5
102
330
FE
100
AcDbEntity
  8
0
 62
     0
100
AcDbVertex
100
AcDb2dVertex
 10
-0.9999999999999998
 20
0.0
 30
0.0
  0
VERTEX
  5
103
330
FE
100
AcDbEntity
  8
0
 62
     0
100
AcDbVertex
100
AcDb2dVertex
 10
0.0
 20
0.9999999999999998
 30
0.0
  0
SEQEND
  5
101
330
FE
100
AcDbEntity
  8
0
 62
     0
  0
SOLID
  5
104
330
FB
100
AcDbEntity
  8
0
 62
     0
100
AcDbTrace
 10
0.0
 20
0.9999999999999998
 30
0.0
 11
0.0
 21
-0.9999999999999998
 31
0.0
 12
-0.9999999999999998
 22
0.0
 32
0.0
 13
0.0
 23
0.9999999999999998
 33
0.0
  0
ENDBLK
  5
FD
330
FB
100
AcDbEntity
  8
0
100
AcDbBlockEnd
  0
BLOCK
  5
107
330
106
100
AcDbEntity
  8
0
100
AcDbBlockBegin
  2
Filled-2
 70
     0
 10
0.0
 20
0.0
 30
0.0
  3
Filled-2
  1

  0
LINE
  5
109
330
106
100
AcDbEntity
  8
0
 62
     0
100
AcDbLine
 10
-0.9999999999999998
 20
0.0
 30
0.0
 11
0.0
 21
0.0
 31
0.0
  0
POLYLINE
  5
10A
330
106
100
AcDbEntity
  8
0
 62
     0
100
AcDb2dPolyline
 66
     1
 10
0.0
 20
0.0
 30
0.0
 70
   128
  0
VERTEX
  5
10B
330
10A
100
AcDbEntity
  8
0
 62
     0
100
AcDbVertex
100
AcDb2dVertex
 10
-0.9999999999999998
 20
-0.0994897959183674
 30
0.0
  0
VERTEX
  5
10C
330
10A
100
AcDbEntity
  8
0
 62
     0
100
AcDbVertex
100
AcDb2dVertex
 10
0.0
 20
0.0
 30
0.0
  0
VERTEX
  5
10E
330
10A
100
AcDbEntity
  8
0
 62
     0
100
AcDbVertex
100
AcDb2dVertex
 10
-0.9999999999999998
 20
0.0994897959183674
 30
0.0
  0
VERTEX
  5
10F
330
10A
100
AcDbEntity
  8
0
 62
     0
100
AcDbVertex
100
AcDb2dVertex
 10
-0.9999999999999998
 20
-0.0994897959183674
 30
0.0
  0
SEQEND
  5
10D
330
10A
100
AcDbEntity
  8
0
 62
     0
  0
SOLID
  5
110
330
106
100
AcDbEntity
  8
0
 62
     0
100
AcDbTrace
 10
-0.9999999999999998
 20
-0.0994897959183674
 30
0.0
 11
0.0
 21
0.0
 31
0.0
 12
-0.9999999999999998
 22
0.0994897959183674
 32
0.0
 13
-0.9999999999999998
 23
-0.0994897959183674
 33
0.0
  0
LINE
  5
111
330
106
100
AcDbEntity
  8
0
 62
     0
100
AcDbLine
 10
-0.9999999999999998
 20
-0.0994897959183674
 30
0.0
 11
0.0
 21
0.0
 31
0.0
  0
LINE
  5
112
330
106
100
AcDbEntity
  8
0
 62
     0
100
AcDbLine
 10
0.0
 20
0.0
 30
0.0
 11
-0.9999999999999998
 21
0.0994897959183674
 31
0.0
  0
LINE
  5
113
330
106
100
AcDbEntity
  8
0
 62
     0
100
AcDbLine
 10
-0.9999999999999998
 20
0.0994897959183674
 30
0.0
 11
-0.9999999999999998
 21
-0.0994897959183674
 31
0.0
  0
ENDBLK
  5
108
330
106
100
AcDbEntity
  8
0
100
AcDbBlockEnd
  0
BLOCK
  5
245
330
244
100
AcDbEntity
  8
0
100
AcDbBlockBegin
  2
*D5
 70
     1
 10
0.0
 20
0.0
 30
0.0
  3
*D5
  1

  0
LINE
  5
334
330
244
100
AcDbEntity
  8
Dimension (ANSI)
440
 16777216
100
AcDbLine
 10
10.23463639592685
 20
13.24325356438022
 30
0.0
 11
10.42915494222342
 21
13.24325356438022
 31
0.0
  0
LINE
  5
335
330
244
100
AcDbEntity
  8
Dimension (ANSI)
440
 16777216
100
AcDbLine
 10
13.33885861602979
 20
13.24325356438022
 30
0.0
 11
12.286678712692
 21
13.24325356438022
 31
0.0
  0
INSERT
  5
336
330
244
100
AcDbEntity
  8
Dimension (ANSI)
440
 16777216
100
AcDbBlockReference
  2
Filled-1
 10
9.985747505978327
 20
13.24325356438022
 30
0.0
 41
0.248888889948527
 42
0.248888889948527
 43
0.248888889948527
 50
180.0
  0
INSERT
  5
337
330
244
100
AcDbEntity
  8
Dimension (ANSI)
440
 16777216
100
AcDbBlockReference
  2
Filled-1
 10
13.58774750597832
 20
13.24325356438022
 30
0.0
 41
0.248888889948527
 42
0.248888889948527
 43
0.248888889948527
  0
MTEXT
  5
338
330
244
100
AcDbEntity
  8
Dimension (ANSI)
440
 16777216
100
AcDbMText
 10
11.35791682745771
 20
13.24325356438022
 30
0.0
 40
0.2844444380866156
 41
0.0
 46
0.0
 71
     5
 72
     1
  1
\A1;(3.60){\POPENING}
  7
ROMANS
 73
     1
 44
1.0
  0
POINT
  5
339
330
244
100
AcDbEntity
  8
Defpoints
 62
     0
440
 16777216
100
AcDbPoint
 10
9.985747505978327
 20
12.94407834699244
 30
0.0
  0
POINT
  5
33A
330
244
100
AcDbEntity
  8
Defpoints
 62
     0
440
 16777216
100
AcDbPoint
 10
13.58774750597832
 20
12.94775319055226
 30
0.0
  0
POINT
  5
33B
330
244
100
AcDbEntity
  8
Defpoints
 62
     0
440
 16777216
100
AcDbPoint
 10
13.58774750597832
 20
13.24325356438022
 30
0.0
  0
ENDBLK
  5
246
330
244
100
AcDbEntity
  8
0
100
AcDbBlockEnd
  0
BLOCK
  5
33E
330
33D
100
AcDbEntity
  8
0
100
AcDbBlockBegin
  2
*D6
 70
     1
 10
0.0
 20
0.0
 30
0.0
  3
*D6
  1

  0
LINE
  5
42D
330
33D
100
AcDbEntity
  8
Dimension (ANSI)
440
 16777216
100
AcDbLine
 10
12.5338225300133
 20
13.86886969381301
 30
0.0
 11
12.5338225300133
 21
12.50009927338889
 31
0.0
  0
LINE
  5
42E
330
33D
100
AcDbEntity
  8
Dimension (ANSI)
440
 16777216
100
AcDbLine
 10
12.5338225300133
 20
10.76464747371005
 30
0.0
 11
12.5338225300133
 21
11.57717865663348
 31
0.0
  0
INSERT
  5
42F
330
33D
100
AcDbEntity
  8
Dimension (ANSI)
440
 16777216
100
AcDbBlockReference
  2
Filled-1
 10
12.5338225300133
 20
14.11775858376153
 30
0.0
 41
0.248888889948527
 42
0.248888889948527
 43
0.248888889948527
 50
90.0
  0
INSERT
  5
430
330
33D
100
AcDbEntity
  8
Dimension (ANSI)
440
 16777216
100
AcDbBlockReference
  2
Filled-1
 10
12.5338225300133
 20
10.51575858376152
 30
0.0
 41
0.248888889948527
 42
0.248888889948527
 43
0.248888889948527
 50
270.0
  0
MTEXT
  5
431
330
33D
100
AcDbEntity
  8
Dimension (ANSI)
440
 16777216
100
AcDbMText
 10
12.5338225300133
 20
12.03863896501119
 30
0.0
 40
0.2844444380866156
 41
0.0
 46
0.0
 71
     5
 72
     1
  1
\A1;(3.60){\POPENING}
  7
ROMANS
 73
     1
 44
1.0
  0
POINT
  5
432
330
33D
100
AcDbEntity
  8
Defpoints
 62
     0
440
 16777216
100
AcDbPoint
 10
12.71645660840754
 20
14.11775858376153
 30
0.0
  0
POINT
  5
433
330
33D
100
AcDbEntity
  8
Defpoints
 62
     0
440
 16777216
100
AcDbPoint
 10
12.71073850740668
 20
10.51575858376152
 30
0.0
  0
POINT
  5
434
330
33D
100
AcDbEntity
  8
Defpoints
 62
     0
440
 16777216
100
AcDbPoint
 10
12.5338225300133
 20
10.51575858376152
 30
0.0
  0
ENDBLK
  5
33F
330
33D
100
AcDbEntity
  8
0
100
AcDbBlockEnd
  0
BLOCK
  5
437
330
436
100
AcDbEntity
  8
0
100
AcDbBlockBegin
  2
*D7
 70
     1
 10
0.0
 20
0.0
 30
0.0
  3
*D7
  1

  0
LINE
  5
523
330
436
100
AcDbEntity
  8
Dimension (ANSI)
440
 16777216
100
AcDbLine
 10
11.80315587182374
 20
14.36664747371006
 30
0.0
 11
11.80315587182374
 21
14.75536969381303
 31
0.0
  0
LINE
  5
524
330
436
100
AcDbEntity
  8
Dimension (ANSI)
440
 16777216
100
AcDbLine
 10
11.80315587182374
 20
15.00425858376156
 30
0.0
 11
11.80315587182374
 21
15.46914426003142
 31
0.0
  0
LINE
  5
525
330
436
100
AcDbEntity
  8
Dimension (ANSI)
440
 16777216
100
AcDbLine
 10
11.80315587182374
 20
15.46914426003142
 30
0.0
 11
12.05204476177226
 21
15.46914426003142
 31
0.0
  0
INSERT
  5
526
330
436
100
AcDbEntity
  8
Dimension (ANSI)
440
 16777216
100
AcDbBlockReference
  2
Filled-1
 10
11.80315587182374
 20
14.11775858376153
 30
0.0
 41
0.248888889948527
 42
0.248888889948527
 43
0.248888889948527
 50
270.0
  0
INSERT
  5
527
330
436
100
AcDbEntity
  8
Dimension (ANSI)
440
 16777216
100
AcDbBlockReference
  2
Filled-1
 10
11.80315587182374
 20
15.00425858376156
 30
0.0
 41
0.248888889948527
 42
0.248888889948527
 43
0.248888889948527
 50
90.0
  0
MTEXT
  5
528
330
436
100
AcDbEntity
  8
Dimension (ANSI)
440
 16777216
100
AcDbMText
 10
12.10715587288337
 20
15.61136647907473
 30
0.0
 40
0.2844444380866156
 41
0.0
 46
0.0
 71
     1
 72
     1
  1
\A1;0.89
  7
ROMANS
 73
     1
 44
1.0
  0
POINT
  5
529
330
436
100
AcDbEntity
  8
Defpoints
 62
     0
440
 16777216
100
AcDbPoint
 10
12.85321163080845
 20
15.00425858376156
 30
0.0
  0
POINT
  5
52A
330
436
100
AcDbEntity
  8
Defpoints
 62
     0
440
 16777216
100
AcDbPoint
 10
12.82109120511846
 20
14.11775858376153
 30
0.0
  0
POINT
  5
52B
330
436
100
AcDbEntity
  8
Defpoints
 62
     0
440
 16777216
100
AcDbPoint
 10
11.80315587182374
 20
14.11775858376153
 30
0.0
  0
ENDBLK
  5
438
330
436
100
AcDbEntity
  8
0
100
AcDbBlockEnd
  0
BLOCK
  5
52E
330
52D
100
AcDbEntity
  8
0
100
AcDbBlockBegin
  2
*D8
 70
     1
 10
0.0
 20
0.0
 30
0.0
  3
*D8
  1

  0
LINE
  5
603
330
52D
100
AcDbEntity
  8
Dimension (ANSI)
440
 16777216
100
AcDbLine
 10
13.83663639592684
 20
13.24325356438022
 30
0.0
 11
14.22535861602979
 21
13.24325356438022
 31
0.0
  0
LINE
  5
604
330
52D
100
AcDbEntity
  8
Dimension (ANSI)
440
 16777216
100
AcDbLine
 10
14.47424750597831
 20
13.24325356438022
 30
0.0
 11
14.72313639592684
 21
13.24325356438022
 31
0.0
  0
INSERT
  5
605
330
52D
100
AcDbEntity
  8
Dimension (ANSI)
440
 16777216
100
AcDbBlockReference
  2
Filled-1
 10
13.58774750597831
 20
13.24325356438022
 30
0.0
 41
0.248888889948527
 42
0.248888889948527
 43
0.248888889948527
 50
180.0
  0
INSERT
  5
606
330
52D
100
AcDbEntity
  8
Dimension (ANSI)
440
 16777216
100
AcDbBlockReference
  2
Filled-1
 10
14.47424750597831
 20
13.24325356438022
 30
0.0
 41
0.248888889948527
 42
0.248888889948527
 43
0.248888889948527
  0
MTEXT
  5
607
330
52D
100
AcDbEntity
  8
Dimension (ANSI)
440
 16777216
100
AcDbMText
 10
14.77824750703795
 20
13.38547578342353
 30
0.0
 40
0.2844444380866156
 41
0.0
 46
0.0
 71
     1
 72
     1
  1
\A1;0.89
  7
ROMANS
 73
     1
 44
1.0
  0
POINT
  5
608
330
52D
100
AcDbEntity
  8
Defpoints
 62
     0
440
 16777216
100
AcDbPoint
 10
14.47424750597831
 20
13.52255560563856
 30
0.0
  0
POINT
  5
609
330
52D
100
AcDbEntity
  8
Defpoints
 62
     0
440
 16777216
100
AcDbPoint
 10
13.58774750597831
 20
13.48171437671958
 30
0.0
  0
POINT
  5
60A
330
52D
100
AcDbEntity
  8
Defpoints
 62
     0
440
 16777216
100
AcDbPoint
 10
13.58774750597831
 20
13.24325356438022
 30
0.0
  0
ENDBLK
  5
52F
330
52D
100
AcDbEntity
  8
0
100
AcDbBlockEnd
  0
BLOCK
  5
60D
330
60C
100
AcDbEntity
  8
0
100
AcDbBlockBegin
  2
*D9
 70
     1
 10
0.0
 20
0.0
 30
0.0
  3
*D9
  1

  0
LINE
  5
716
330
60C
100
AcDbEntity
  8
Dimension (ANSI)
440
 16777216
100
AcDbLine
 10
14.21124750597837
 20
9.629258583761579
 30
0.0
 11
15.00203450407645
 21
9.629258583761579
 31
0.0
  0
LINE
  5
717
330
60C
100
AcDbEntity
  8
Dimension (ANSI)
440
 16777216
100
AcDbLine
 10
14.57409472820059
 20
10.00425858376158
 30
0.0
 11
15.00203450407645
 21
10.00425858376158
 31
0.0
  0
LINE
  5
718
330
60C
100
AcDbEntity
  8
Dimension (ANSI)
440
 16777216
100
AcDbLine
 10
14.77981228185423
 20
9.380369693813053
 30
0.0
 11
14.77981228185423
 21
9.131480803864524
 31
0.0
  0
LINE
  5
719
330
60C
100
AcDbEntity
  8
Dimension (ANSI)
440
 16777216
100
AcDbLine
 10
14.77981228185423
 20
10.25314747371011
 30
0.0
 11
14.77981228185423
 21
10.96459367524133
 31
0.0
  0
LINE
  5
71A
330
60C
100
AcDbEntity
  8
Dimension (ANSI)
440
 16777216
100
AcDbLine
 10
14.77981228185423
 20
10.96459367524133
 30
0.0
 11
15.02870117180276
 21
10.96459367524133
 31
0.0
  0
INSERT
  5
71B
330
60C
100
AcDbEntity
  8
Dimension (ANSI)
440
 16777216
100
AcDbBlockReference
  2
Filled-1
 10
14.77981228185423
 20
9.629258583761579
 30
0.0
 41
0.248888889948527
 42
0.248888889948527
 43
0.248888889948527
 50
90.0
  0
INSERT
  5
71C
330
60C
100
AcDbEntity
  8
Dimension (ANSI)
440
 16777216
100
AcDbBlockReference
  2
Filled-1
 10
14.77981228185423
 20
10.00425858376158
 30
0.0
 41
0.248888889948527
 42
0.248888889948527
 43
0.248888889948527
 50
270.0
  0
MTEXT
  5
71D
330
60C
100
AcDbEntity
  8
Dimension (ANSI)
440
 16777216
100
AcDbMText
 10
15.5172514266649
 20
10.96459367524134
 30
0.0
 40
0.2844444380866156
 41
0.0
 46
0.0
 71
     5
 72
     1
  1
\A1;0.38{\PTYP.}
  7
ROMANS
 73
     1
 44
1.0
  0
POINT
  5
71E
330
60C
100
AcDbEntity
  8
Defpoints
 62
     0
440
 16777216
100
AcDbPoint
 10
14.09924750597837
 20
9.629258583761579
 30
0.0
  0
POINT
  5
71F
330
60C
100
AcDbEntity
  8
Defpoints
 62
     0
440
 16777216
100
AcDbPoint
 10
14.46209472820059
 20
10.00425858376158
 30
0.0
  0
POINT
  5
720
330
60C
100
AcDbEntity
  8
Defpoints
 62
     0
440
 16777216
100
AcDbPoint
 10
14.77981228185423
 20
10.00425858376158
 30
0.0
  0
ENDBLK
  5
60E
330
60C
100
AcDbEntity
  8
0
100
AcDbBlockEnd
  0
BLOCK
  5
723
330
722
100
AcDbEntity
  8
0
100
AcDbBlockBegin
  2
*D10
 70
     1
 10
0.0
 20
0.0
 30
0.0
  3
*D10
  1

  0
LINE
  5
801
330
722
100
AcDbEntity
  8
Dimension (ANSI)
440
 16777216
100
AcDbLine
 10
14.21124750597829
 20
15.00425858376157
 30
0.0
 11
16.78999783533382
 21
15.00425858376157
 31
0.0
  0
LINE
  5
802
330
722
100
AcDbEntity
  8
Dimension (ANSI)
440
 16777216
100
AcDbLine
 10
14.21124750597837
 20
9.629258583761579
 30
0.0
 11
16.78999783533382
 21
9.629258583761579
 31
0.0
  0
LINE
  5
803
330
722
100
AcDbEntity
  8
Dimension (ANSI)
440
 16777216
100
AcDbLine
 10
16.56777561311159
 20
14.75536969381305
 30
0.0
 11
16.56777561311159
 21
11.38909191391599
 31
0.0
  0
LINE
  5
804
330
722
100
AcDbEntity
  8
Dimension (ANSI)
440
 16777216
100
AcDbLine
 10
16.56777561311159
 20
9.878147473710106
 30
0.0
 11
16.56777561311159
 21
10.99442525360715
 31
0.0
  0
INSERT
  5
805
330
722
100
AcDbEntity
  8
Dimension (ANSI)
440
 16777216
100
AcDbBlockReference
  2
Filled-1
 10
16.56777561311159
 20
15.00425858376157
 30
0.0
 41
0.248888889948527
 42
0.248888889948527
 43
0.248888889948527
 50
90.0
  0
INSERT
  5
806
330
722
100
AcDbEntity
  8
Dimension (ANSI)
440
 16777216
100
AcDbBlockReference
  2
Filled-1
 10
16.56777561311159
 20
9.629258583761579
 30
0.0
 41
0.248888889948527
 42
0.248888889948527
 43
0.248888889948527
 50
270.0
  0
MTEXT
  5
807
330
722
100
AcDbEntity
  8
Dimension (ANSI)
440
 16777216
100
AcDbMText
 10
16.13433646936056
 20
11.33398080280488
 30
0.0
 40
0.2844444380866156
 41
0.0
 46
0.0
 71
     1
 72
     1
  1
\A1;5.38
  7
ROMANS
 73
     1
 44
1.0
  0
POINT
  5
808
330
722
100
AcDbEntity
  8
Defpoints
 62
     0
440
 16777216
100
AcDbPoint
 10
14.09924750597829
 20
15.00425858376157
 30
0.0
  0
POINT
  5
809
330
722
100
AcDbEntity
  8
Defpoints
 62
     0
440
 16777216
100
AcDbPoint
 10
14.09924750597837
 20
9.629258583761579
 30
0.0
  0
POINT
  5
80A
330
722
100
AcDbEntity
  8
Defpoints
 62
     0
440
 16777216
100
AcDbPoint
 10
16.56777561311159
 20
9.629258583761579
 30
0.0
  0
ENDBLK
  5
724
330
722
100
AcDbEntity
  8
0
100
AcDbBlockEnd
  0
BLOCK
  5
80D
330
80C
100
AcDbEntity
  8
0
100
AcDbBlockBegin
  2
*D11
 70
     1
 10
0.0
 20
0.0
 30
0.0
  3
*D11
  1

  0
LINE
  5
8F1
330
80C
100
AcDbEntity
  8
Dimension (ANSI)
440
 16777216
100
AcDbLine
 10
9.921972729679579
 20
14.45627247371006
 30
0.0
 11
9.921972729679579
 21
14.755369693813
 31
0.0
  0
LINE
  5
8F2
330
80C
100
AcDbEntity
  8
Dimension (ANSI)
440
 16777216
100
AcDbLine
 10
9.921972729679579
 20
15.00425858376153
 30
0.0
 11
9.921972729679579
 21
15.6424017035628
 31
0.0
  0
LINE
  5
8F3
330
80C
100
AcDbEntity
  8
Dimension (ANSI)
440
 16777216
100
AcDbLine
 10
9.921972729679579
 20
15.6424017035628
 30
0.0
 11
10.1708616196281
 21
15.6424017035628
 31
0.0
  0
INSERT
  5
8F4
330
80C
100
AcDbEntity
  8
Dimension (ANSI)
440
 16777216
100
AcDbBlockReference
  2
Filled-1
 10
9.921972729679579
 20
14.20738358376153
 30
0.0
 41
0.248888889948527
 42
0.248888889948527
 43
0.248888889948527
 50
270.0
  0
INSERT
  5
8F5
330
80C
100
AcDbEntity
  8
Dimension (ANSI)
440
 16777216
100
AcDbBlockReference
  2
Filled-1
 10
9.921972729679579
 20
15.00425858376153
 30
0.0
 41
0.248888889948527
 42
0.248888889948527
 43
0.248888889948527
 50
90.0
  0
MTEXT
  5
8F6
330
80C
100
AcDbEntity
  8
Dimension (ANSI)
440
 16777216
100
AcDbMText
 10
10.22597273073921
 20
15.78462392260611
 30
0.0
 40
0.2844444380866156
 41
0.0
 46
0.0
 71
     1
 72
     1
  1
\A1;0.80
  7
ROMANS
 73
     1
 44
1.0
  0
POINT
  5
8F7
330
80C
100
AcDbEntity
  8
Defpoints
 62
     0
440
 16777216
100
AcDbPoint
 10
10.65941187449025
 20
15.00425858376153
 30
0.0
  0
POINT
  5
8F8
330
80C
100
AcDbEntity
  8
Defpoints
 62
     0
440
 16777216
100
AcDbPoint
 10
10.70607206181275
 20
14.20738358376153
 30
0.0
  0
POINT
  5
8F9
330
80C
100
AcDbEntity
  8
Defpoints
 62
     0
440
 16777216
100
AcDbPoint
 10
9.921972729679579
 20
14.20738358376153
 30
0.0
  0
ENDBLK
  5
80E
330
80C
100
AcDbEntity
  8
0
100
AcDbBlockEnd
  0
BLOCK
  5
8FC
330
8FB
100
AcDbEntity
  8
0
100
AcDbBlockBegin
  2
*D12
 70
     1
 10
0.0
 20
0.0
 30
0.0
  3
*D12
  1

  0
LINE
  5
9D1
330
8FB
100
AcDbEntity
  8
Dimension (ANSI)
440
 16777216
100
AcDbLine
 10
9.647233616029799
 20
12.60853632831703
 30
0.0
 11
9.348136395926854
 21
12.60853632831703
 31
0.0
  0
LINE
  5
9D2
330
8FB
100
AcDbEntity
  8
Dimension (ANSI)
440
 16777216
100
AcDbLine
 10
9.099247505978327
 20
12.60853632831703
 30
0.0
 11
8.798427705584257
 21
12.60853632831703
 31
0.0
  0
INSERT
  5
9D3
330
8FB
100
AcDbEntity
  8
Dimension (ANSI)
440
 16777216
100
AcDbBlockReference
  2
Filled-1
 10
9.896122505978325
 20
12.60853632831703
 30
0.0
 41
0.248888889948527
 42
0.248888889948527
 43
0.248888889948527
  0
INSERT
  5
9D4
330
8FB
100
AcDbEntity
  8
Dimension (ANSI)
440
 16777216
100
AcDbBlockReference
  2
Filled-1
 10
9.099247505978327
 20
12.60853632831703
 30
0.0
 41
0.248888889948527
 42
0.248888889948527
 43
0.248888889948527
 50
180.0
  0
MTEXT
  5
9D5
330
8FB
100
AcDbEntity
  8
Dimension (ANSI)
440
 16777216
100
AcDbMText
 10
7.87643830697108
 20
12.75075854736034
 30
0.0
 40
0.2844444380866156
 41
0.0
 46
0.0
 71
     1
 72
     1
  1
\A1;0.80
  7
ROMANS
 73
     1
 44
1.0
  0
POINT
  5
9D6
330
8FB
100
AcDbEntity
  8
Defpoints
 62
     0
440
 16777216
100
AcDbPoint
 10
9.099247505978327
 20
13.08427402851735
 30
0.0
  0
POINT
  5
9D7
330
8FB
100
AcDbEntity
  8
Defpoints
 62
     0
440
 16777216
100
AcDbPoint
 10
9.896122505978325
 20
13.045130623639
 30
0.0
  0
POINT
  5
9D8
330
8FB
100
AcDbEntity
  8
Defpoints
 62
     0
440
 16777216
100
AcDbPoint
 10
9.896122505978325
 20
12.60853632831703
 30
0.0
  0
ENDBLK
  5
8FD
330
8FB
100
AcDbEntity
  8
0
100
AcDbBlockEnd
  0
BLOCK
  5
9DB
330
9DA
100
AcDbEntity
  8
0
100
AcDbBlockBegin
  2
*D13
 70
     1
 10
0.0
 20
0.0
 30
0.0
  3
*D13
  1

  0
LINE
  5
ACD
330
9DA
100
AcDbEntity
  8
Dimension (ANSI)
440
 16777216
100
AcDbLine
 10
9.09924750597837
 20
9.89225858376151
 30
0.0
 11
9.09924750597837
 21
8.638121996824253
 31
0.0
  0
LINE
  5
ACE
330
9DA
100
AcDbEntity
  8
Dimension (ANSI)
440
 16777216
100
AcDbLine
 10
9.474247505978373
 20
9.529411361539292
 30
0.0
 11
9.474247505978373
 21
8.638121996824253
 31
0.0
  0
LINE
  5
ACF
330
9DA
100
AcDbEntity
  8
Dimension (ANSI)
440
 16777216
100
AcDbLine
 10
8.850358616029843
 20
8.860344219046474
 30
0.0
 11
8.601469726081315
 21
8.860344219046474
 31
0.0
  0
LINE
  5
AD0
330
9DA
100
AcDbEntity
  8
Dimension (ANSI)
440
 16777216
100
AcDbLine
 10
9.7231363959269
 20
8.860344219046474
 30
0.0
 11
10.12869473304224
 21
8.860344219046474
 31
0.0
  0
INSERT
  5
AD1
330
9DA
100
AcDbEntity
  8
Dimension (ANSI)
440
 16777216
100
AcDbBlockReference
  2
Filled-1
 10
9.09924750597837
 20
8.860344219046474
 30
0.0
 41
0.248888889948527
 42
0.248888889948527
 43
0.248888889948527
  0
INSERT
  5
AD2
330
9DA
100
AcDbEntity
  8
Dimension (ANSI)
440
 16777216
100
AcDbBlockReference
  2
Filled-1
 10
9.474247505978373
 20
8.860344219046474
 30
0.0
 41
0.248888889948527
 42
0.248888889948527
 43
0.248888889948527
 50
180.0
  0
MTEXT
  5
AD3
330
9DA
100
AcDbEntity
  8
Dimension (ANSI)
440
 16777216
100
AcDbMText
 10
10.61724498790438
 20
8.860344219046474
 30
0.0
 40
0.2844444380866156
 41
0.0
 46
0.0
 71
     5
 72
     1
  1
\A1;0.38{\PTYP.}
  7
ROMANS
 73
     1
 44
1.0
  0
POINT
  5
AD4
330
9DA
100
AcDbEntity
  8
Defpoints
 62
     0
440
 16777216
100
AcDbPoint
 10
9.09924750597837
 20
10.00425858376151
 30
0.0
  0
POINT
  5
AD5
330
9DA
100
AcDbEntity
  8
Defpoints
 62
     0
440
 16777216
100
AcDbPoint
 10
9.474247505978373
 20
9.641411361539292
 30
0.0
  0
POINT
  5
AD6
330
9DA
100
AcDbEntity
  8
Defpoints
 62
     0
440
 16777216
100
AcDbPoint
 10
9.474247505978373
 20
8.860344219046474
 30
0.0
  0
ENDBLK
  5
9DC
330
9DA
100
AcDbEntity
  8
0
100
AcDbBlockEnd
  0
BLOCK
  5
AD9
330
AD8
100
AcDbEntity
  8
0
100
AcDbBlockBegin
  2
*D14
 70
     1
 10
0.0
 20
0.0
 30
0.0
  3
*D14
  1

  0
LINE
  5
B89
330
AD8
100
AcDbEntity
  8
Dimension (ANSI)
440
 16777216
100
AcDbLine
 10
8.108294783714526
 20
13.68863373109438
 30
0.0
 11
8.533622653310924
 21
13.68863373109438
 31
0.0
  0
LINE
  5
B8A
330
AD8
100
AcDbEntity
  8
Dimension (ANSI)
440
 16777216
100
AcDbLine
 10
8.533622653310924
 20
13.68863373109438
 30
0.0
 11
9.198819593029314
 21
14.35383067081259
 31
0.0
  0
MTEXT
  5
B8B
330
AD8
100
AcDbEntity
  8
Dimension (ANSI)
440
 16777216
100
AcDbMText
 10
7.396252470355754
 20
13.68863373109438
 30
0.0
 40
0.2844444380866156
 41
0.0
 46
0.0
 71
     5
 72
     1
  1
\A1;∅0.281{\PTYP.}
  7
ROMANS
 73
     1
 44
1.0
  0
INSERT
  5
B8C
330
AD8
100
AcDbEntity
  8
Dimension (ANSI)
440
 16777216
100
AcDbBlockReference
  2
Filled-1
 10
9.374810614873934
 20
14.52982169265716
 30
0.0
 41
0.248888889948527
 42
0.248888889948527
 43
0.248888889948527
 50
44.99999999999232
  0
LINE
  5
B8D
330
AD8
100
AcDbEntity
  8
Dimension (ANSI)
440
 16777216
100
AcDbLine
 10
9.154247505978309
 20
14.62925858376151
 30
0.0
 11
9.794247505978308
 21
14.62925858376151
 31
0.0
  0
LINE
  5
B8E
330
AD8
100
AcDbEntity
  8
Dimension (ANSI)
440
 16777216
100
AcDbLine
 10
9.474247505978306
 20
14.30925858376151
 30
0.0
 11
9.474247505978308
 21
14.94925858376151
 31
0.0
  0
POINT
  5
B8F
330
AD8
100
AcDbEntity
  8
Defpoints
 62
     0
440
 16777216
100
AcDbPoint
 10
9.374810614873934
 20
14.52982169265716
 30
0.0
  0
POINT
  5
B90
330
AD8
100
AcDbEntity
  8
Defpoints
 62
     0
440
 16777216
100
AcDbPoint
 10
9.573684397082685
 20
14.72869547486586
 30
0.0
  0
ENDBLK
  5
ADA
330
AD8
100
AcDbEntity
  8
0
100
AcDbBlockEnd
  0
BLOCK
  5
B93
330
B92
100
AcDbEntity
  8
0
100
AcDbBlockBegin
  2
*D15
 70
     1
 10
0.0
 20
0.0
 30
0.0
  3
*D15
  1

  0
LINE
  5
C2E
330
B92
100
AcDbEntity
  8
Dimension (ANSI)
440
 16777216
100
AcDbLine
 10
8.275009311374986
 20
15.3019797469574
 30
0.0
 11
8.635812996914577
 21
15.3019797469574
 31
0.0
  0
LINE
  5
C2F
330
B92
100
AcDbEntity
  8
Dimension (ANSI)
440
 16777216
100
AcDbLine
 10
8.635812996914577
 20
15.3019797469574
 30
0.0
 11
8.987631375987554
 21
15.01969691312228
 31
0.0
  0
MTEXT
  5
C30
330
B92
100
AcDbEntity
  8
Dimension (ANSI)
440
 16777216
100
AcDbMText
 10
7.651009324090644
 20
15.3019797469574
 30
0.0
 40
0.2844444380866156
 41
0.0
 46
0.0
 71
     5
 72
     1
  1
\A1;R0.38{\PTYP.}
  7
ROMANS
 73
     1
 44
1.0
  0
INSERT
  5
C31
330
B92
100
AcDbEntity
  8
Dimension (ANSI)
440
 16777216
100
AcDbBlockReference
  2
Filled-1
 10
9.181757846863543
 20
14.86393879023605
 30
0.0
 41
0.248888889948527
 42
0.248888889948527
 43
0.248888889948527
 50
321.2580506670601
  0
POINT
  5
C32
330
B92
100
AcDbEntity
  8
Defpoints
 62
     0
440
 16777216
100
AcDbPoint
 10
9.181757846863543
 20
14.86393879023605
 30
0.0
  0
POINT
  5
C33
330
B92
100
AcDbEntity
  8
Defpoints
 62
     0
440
 16777216
100
AcDbPoint
 10
9.474247505978308
 20
14.62925858376151
 30
0.0
  0
ENDBLK
  5
B94
330
B92
100
AcDbEntity
  8
0
100
AcDbBlockEnd
  0
BLOCK
  5
C36
330
C35
100
AcDbEntity
  8
0
100
AcDbBlockBegin
  2
*D16
 70
     1
 10
0.0
 20
0.0
 30
0.0
  3
*D16
  1

  0
LINE
  5
D1E
330
C35
100
AcDbEntity
  8
Dimension (ANSI)
440
 16777216
100
AcDbLine
 10
9.904997505979078
 20
35.8620217584722
 30
0.0
 11
7.152388523914812
 21
35.8620217584722
 31
0.0
  0
LINE
  5
D1F
330
C35
100
AcDbEntity
  8
Dimension (ANSI)
440
 16777216
100
AcDbLine
 10
9.36224750597907
 20
20.98702175847244
 30
0.0
 11
7.152388523914808
 21
20.98702175847244
 31
0.0
  0
LINE
  5
D20
330
C35
100
AcDbEntity
  8
Dimension (ANSI)
440
 16777216
100
AcDbLine
 10
7.374610746137034
 20
35.61313286852367
 30
0.0
 11
7.374610746137032
 21
28.69635244145896
 31
0.0
  0
LINE
  5
D21
330
C35
100
AcDbEntity
  8
Dimension (ANSI)
440
 16777216
100
AcDbLine
 10
7.37461074613703
 20
21.23591064842097
 30
0.0
 11
7.374610746137032
 21
28.15269107548571
 31
0.0
  0
INSERT
  5
D22
330
C35
100
AcDbEntity
  8
Dimension (ANSI)
440
 16777216
100
AcDbBlockReference
  2
Filled-1
 10
7.374610746137034
 20
35.8620217584722
 30
0.0
 41
0.248888889948527
 42
0.248888889948527
 43
0.248888889948527
 50
90.0
  0
INSERT
  5
D23
330
C35
100
AcDbEntity
  8
Dimension (ANSI)
440
 16777216
100
AcDbBlockReference
  2
Filled-1
 10
7.37461074613703
 20
20.98702175847244
 30
0.0
 41
0.248888889948527
 42
0.248888889948527
 43
0.248888889948527
 50
270.0
  0
MTEXT
  5
D24
330
C35
100
AcDbEntity
  8
Dimension (ANSI)
440
 16777216
100
AcDbMText
 10
6.62963721781494
 20
28.64124133034785
 30
0.0
 40
0.2844444380866156
 41
0.0
 46
0.0
 71
     1
 72
     1
  1
\A1;(14.88)
  7
ROMANS
 73
     1
 44
1.0
  0
POINT
  5
D25
330
C35
100
AcDbEntity
  8
Defpoints
 62
     0
440
 16777216
100
AcDbPoint
 10
10.01699750597908
 20
35.8620217584722
 30
0.0
  0
POINT
  5
D26
330
C35
100
AcDbEntity
  8
Defpoints
 62
     0
440
 16777216
100
AcDbPoint
 10
9.47424750597907
 20
20.98702175847244
 30
0.0
  0
POINT
  5
D27
330
C35
100
AcDbEntity
  8
Defpoints
 62
     0
440
 16777216
100
AcDbPoint
 10
7.37461074613703
 20
20.98702175847244
 30
0.0
  0
ENDBLK
  5
C37
330
C35
100
AcDbEntity
  8
0
100
AcDbBlockEnd
  0
BLOCK
  5
D2A
330
D29
100
AcDbEntity
  8
0
100
AcDbBlockBegin
  2
*D17
 70
     1
 10
0.0
 20
0.0
 30
0.0
  3
*D17
  1

  0
LINE
  5
E33
330
D29
100
AcDbEntity
  8
Dimension (ANSI)
440
 16777216
100
AcDbLine
 10
8.987247505979075
 20
20.86202175847238
 30
0.0
 11
8.488901732203165
 21
20.86202175847238
 31
0.0
  0
LINE
  5
E34
330
D29
100
AcDbEntity
  8
Dimension (ANSI)
440
 16777216
100
AcDbLine
 10
8.987247505979075
 20
20.98702175847238
 30
0.0
 11
8.488901732203165
 21
20.98702175847238
 31
0.0
  0
LINE
  5
E35
330
D29
100
AcDbEntity
  8
Dimension (ANSI)
440
 16777216
100
AcDbLine
 10
8.711123954425387
 20
21.23591064842091
 30
0.0
 11
8.711123954425387
 21
21.48479953836944
 31
0.0
  0
LINE
  5
E36
330
D29
100
AcDbEntity
  8
Dimension (ANSI)
440
 16777216
100
AcDbLine
 10
8.711123954425387
 20
20.61313286852385
 30
0.0
 11
8.711123954425385
 21
19.84041067756919
 31
0.0
  0
LINE
  5
E37
330
D29
100
AcDbEntity
  8
Dimension (ANSI)
440
 16777216
100
AcDbLine
 10
8.711123954425385
 20
19.84041067756919
 30
0.0
 11
8.462235064476859
 21
19.84041067756919
 31
0.0
  0
INSERT
  5
E38
330
D29
100
AcDbEntity
  8
Dimension (ANSI)
440
 16777216
100
AcDbBlockReference
  2
Filled-1
 10
8.711123954425387
 20
20.98702175847238
 30
0.0
 41
0.248888889948527
 42
0.248888889948527
 43
0.248888889948527
 50
270.0
  0
INSERT
  5
E39
330
D29
100
AcDbEntity
  8
Dimension (ANSI)
440
 16777216
100
AcDbBlockReference
  2
Filled-1
 10
8.711123954425387
 20
20.86202175847238
 30
0.0
 41
0.248888889948527
 42
0.248888889948527
 43
0.248888889948527
 50
90.0
  0
MTEXT
  5
E3A
330
D29
100
AcDbEntity
  8
Dimension (ANSI)
440
 16777216
100
AcDbMText
 10
7.49961074613702
 20
19.84041067756919
 30
0.0
 40
0.2844444380866156
 41
0.0
 46
0.0
 71
     5
 72
     1
  1
\A1; 10 GA.\P304 S.S.
  7
ROMANS
 73
     1
 44
1.0
  0
POINT
  5
E3B
330
D29
100
AcDbEntity
  8
Defpoints
 62
     0
440
 16777216
100
AcDbPoint
 10
9.099247505979075
 20
20.86202175847238
 30
0.0
  0
POINT
  5
E3C
330
D29
100
AcDbEntity
  8
Defpoints
 62
     0
440
 16777216
100
AcDbPoint
 10
9.099247505979075
 20
20.98702175847238
 30
0.0
  0
POINT
  5
E3D
330
D29
100
AcDbEntity
  8
Defpoints
 62
     0
440
 16777216
100
AcDbPoint
 10
8.711123954425387
 20
20.98702175847238
 30
0.0
  0
ENDBLK
  5
D2B
330
D29
100
AcDbEntity
  8
0
100
AcDbBlockEnd
  0
BLOCK
  5
E40
330
E3F
100
AcDbEntity
  8
0
100
AcDbBlockBegin
  2
*D18
 70
     1
 10
0.0
 20
0.0
 30
0.0
  3
*D18
  1

  0
LINE
  5
F32
330
E3F
100
AcDbEntity
  8
Dimension (ANSI)
440
 16777216
100
AcDbLine
 10
14.21124750597907
 20
20.86202175847244
 30
0.0
 11
16.56564741644474
 21
20.86202175847244
 31
0.0
  0
LINE
  5
F33
330
E3F
100
AcDbEntity
  8
Dimension (ANSI)
440
 16777216
100
AcDbLine
 10
13.69974750597907
 20
35.8620217584722
 30
0.0
 11
16.56564741644475
 21
35.86202175847219
 31
0.0
  0
LINE
  5
F34
330
E3F
100
AcDbEntity
  8
Dimension (ANSI)
440
 16777216
100
AcDbLine
 10
16.34342519422252
 20
21.11091064842097
 30
0.0
 11
16.34342519422252
 21
27.92765139657902
 31
0.0
  0
LINE
  5
F35
330
E3F
100
AcDbEntity
  8
Dimension (ANSI)
440
 16777216
100
AcDbLine
 10
16.34342519422252
 20
35.61313286852366
 30
0.0
 11
16.34342519422252
 21
28.79639212036556
 31
0.0
  0
INSERT
  5
F36
330
E3F
100
AcDbEntity
  8
Dimension (ANSI)
440
 16777216
100
AcDbBlockReference
  2
Filled-1
 10
16.34342519422252
 20
20.86202175847244
 30
0.0
 41
0.248888889948527
 42
0.248888889948527
 43
0.248888889948527
 50
270.0
  0
INSERT
  5
F37
330
E3F
100
AcDbEntity
  8
Dimension (ANSI)
440
 16777216
100
AcDbBlockReference
  2
Filled-1
 10
16.34342519422252
 20
35.86202175847219
 30
0.0
 41
0.248888889948527
 42
0.248888889948527
 43
0.248888889948527
 50
90.0
  0
MTEXT
  5
F38
330
E3F
100
AcDbEntity
  8
Dimension (ANSI)
440
 16777216
100
AcDbMText
 10
16.34342519422252
 20
28.36202175847229
 30
0.0
 40
0.2844444380866156
 41
0.0
 46
0.0
 71
     5
 72
     1
  1
\A1;15.00{\PLENGTH}
  7
ROMANS
 73
     1
 44
1.0
  0
POINT
  5
F39
330
E3F
100
AcDbEntity
  8
Defpoints
 62
     0
440
 16777216
100
AcDbPoint
 10
14.09924750597906
 20
20.86202175847244
 30
0.0
  0
POINT
  5
F3A
330
E3F
100
AcDbEntity
  8
Defpoints
 62
     0
440
 16777216
100
AcDbPoint
 10
13.58774750597907
 20
35.8620217584722
 30
0.0
  0
POINT
  5
F3B
330
E3F
100
AcDbEntity
  8
Defpoints
 62
     0
440
 16777216
100
AcDbPoint
 10
16.34342519422252
 20
35.86202175847219
 30
0.0
  0
ENDBLK
  5
E41
330
E3F
100
AcDbEntity
  8
0
100
AcDbBlockEnd
  0
BLOCK
  5
F3E
330
F3D
100
AcDbEntity
  8
0
100
AcDbBlockBegin
  2
*D19
 70
     1
 10
0.0
 20
0.0
 30
0.0
  3
*D19
  1

  0
LINE
  5
101C
330
F3D
100
AcDbEntity
  8
Dimension (ANSI)
440
 16777216
100
AcDbLine
 10
13.66174750597908
 20
35.97402175847218
 30
0.0
 11
13.66174750597908
 21
36.64466335206054
 31
0.0
  0
LINE
  5
101D
330
F3D
100
AcDbEntity
  8
Dimension (ANSI)
440
 16777216
100
AcDbLine
 10
9.911747505979077
 20
35.97402175847216
 30
0.0
 11
9.911747505979077
 21
36.64466335206054
 31
0.0
  0
LINE
  5
101E
330
F3D
100
AcDbEntity
  8
Dimension (ANSI)
440
 16777216
100
AcDbLine
 10
13.41285861603055
 20
36.42244112983831
 30
0.0
 11
12.27529776084122
 21
36.42244112983831
 31
0.0
  0
LINE
  5
101F
330
F3D
100
AcDbEntity
  8
Dimension (ANSI)
440
 16777216
100
AcDbLine
 10
10.1606363959276
 20
36.42244112983831
 30
0.0
 11
11.29819725111693
 21
36.42244112983831
 31
0.0
  0
INSERT
  5
1020
330
F3D
100
AcDbEntity
  8
Dimension (ANSI)
440
 16777216
100
AcDbBlockReference
  2
Filled-1
 10
13.66174750597908
 20
36.42244112983831
 30
0.0
 41
0.248888889948527
 42
0.248888889948527
 43
0.248888889948527
  0
INSERT
  5
1021
330
F3D
100
AcDbEntity
  8
Dimension (ANSI)
440
 16777216
100
AcDbBlockReference
  2
Filled-1
 10
9.911747505979077
 20
36.42244112983831
 30
0.0
 41
0.248888889948527
 42
0.248888889948527
 43
0.248888889948527
 50
180.0
  0
MTEXT
  5
1022
330
F3D
100
AcDbEntity
  8
Dimension (ANSI)
440
 16777216
100
AcDbMText
 10
11.35330836222804
 20
36.56466334888162
 30
0.0
 40
0.2844444380866156
 41
0.0
 46
0.0
 71
     1
 72
     1
  1
\A1;3.75
  7
ROMANS
 73
     1
 44
1.0
  0
POINT
  5
1023
330
F3D
100
AcDbEntity
  8
Defpoints
 62
     0
440
 16777216
100
AcDbPoint
 10
13.66174750597908
 20
35.86202175847218
 30
0.0
  0
POINT
  5
1024
330
F3D
100
AcDbEntity
  8
Defpoints
 62
     0
440
 16777216
100
AcDbPoint
 10
9.911747505979077
 20
35.86202175847216
 30
0.0
  0
POINT
  5
1025
330
F3D
100
AcDbEntity
  8
Defpoints
 62
     0
440
 16777216
100
AcDbPoint
 10
9.911747505979077
 20
36.42244112983831
 30
0.0
  0
ENDBLK
  5
F3F
330
F3D
100
AcDbEntity
  8
0
100
AcDbBlockEnd
  0
BLOCK
  5
1028
330
1027
100
AcDbEntity
  8
0
100
AcDbBlockBegin
  2
*D20
 70
     1
 10
0.0
 20
0.0
 30
0.0
  3
*D20
  1

  0
LINE
  5
1106
330
1027
100
AcDbEntity
  8
Dimension (ANSI)
440
 16777216
100
AcDbLine
 10
38.22300848827428
 20
10.44175858376152
 30
0.0
 11
40.05153935319617
 21
10.44175858376152
 31
0.0
  0
LINE
  5
1107
330
1027
100
AcDbEntity
  8
Dimension (ANSI)
440
 16777216
100
AcDbLine
 10
38.22300848827428
 20
14.19175858376154
 30
0.0
 11
40.05153935319617
 21
14.19175858376154
 31
0.0
  0
LINE
  5
1108
330
1027
100
AcDbEntity
  8
Dimension (ANSI)
440
 16777216
100
AcDbLine
 10
39.82931713097395
 20
10.69064747371005
 30
0.0
 11
39.82931713097395
 21
12.11942525360711
 31
0.0
  0
LINE
  5
1109
330
1027
100
AcDbEntity
  8
Dimension (ANSI)
440
 16777216
100
AcDbLine
 10
39.82931713097395
 20
13.94286969381301
 30
0.0
 11
39.82931713097395
 21
12.51409191391595
 31
0.0
  0
INSERT
  5
110A
330
1027
100
AcDbEntity
  8
Dimension (ANSI)
440
 16777216
100
AcDbBlockReference
  2
Filled-1
 10
39.82931713097395
 20
10.44175858376152
 30
0.0
 41
0.248888889948527
 42
0.248888889948527
 43
0.248888889948527
 50
270.0
  0
INSERT
  5
110B
330
1027
100
AcDbEntity
  8
Dimension (ANSI)
440
 16777216
100
AcDbBlockReference
  2
Filled-1
 10
39.82931713097395
 20
14.19175858376154
 30
0.0
 41
0.248888889948527
 42
0.248888889948527
 43
0.248888889948527
 50
90.0
  0
MTEXT
  5
110C
330
1027
100
AcDbEntity
  8
Dimension (ANSI)
440
 16777216
100
AcDbMText
 10
39.39587798722292
 20
12.45898080280484
 30
0.0
 40
0.2844444380866156
 41
0.0
 46
0.0
 71
     1
 72
     1
  1
\A1;3.75
  7
ROMANS
 73
     1
 44
1.0
  0
POINT
  5
110D
330
1027
100
AcDbEntity
  8
Defpoints
 62
     0
440
 16777216
100
AcDbPoint
 10
38.11100848827428
 20
10.44175858376152
 30
0.0
  0
POINT
  5
110E
330
1027
100
AcDbEntity
  8
Defpoints
 62
     0
440
 16777216
100
AcDbPoint
 10
38.11100848827428
 20
14.19175858376154
 30
0.0
  0
POINT
  5
110F
330
1027
100
AcDbEntity
  8
Defpoints
 62
     0
440
 16777216
100
AcDbPoint
 10
39.82931713097395
 20
14.19175858376154
 30
0.0
  0
ENDBLK
  5
1029
330
1027
100
AcDbEntity
  8
0
100
AcDbBlockEnd
  0
ENDSEC
  0
SECTION
  2
ENTITIES
  0
MTEXT
  5
115
102
{ACAD_XDICTIONARY
360
1115
102
}
330
6C
100
AcDbEntity
  8
Symbol (ANSI)
100
AcDbMText
 10
26.91511803362353
 20
35.92689133778088
 30
0.0
 40
0.2844444410068782
 41
29.82942037343508
 46
0.0
 71
     1
 72
     1
  3
{\fRomanS|b0|i0|c0|p2;\H1.9501x;PART#: SSJWS4\P(DATA SUBJECT TO CHANGE WITHOUT NOTICE)\H1.7093x; \H0.58502x;\P\H0.51271x; \H1.9426x; \H0.51479x;\PTHIS DRAWING IS PROPERTY OF hUBBELL INC. WEIGMANN\H1.3312x; \H0.75118x;\PALL INFORMATION IS PROPRIETARY 
  1
AND NOT TO BE DUPLICATED\H1.3272x; \H0.75349x;\P \H1.3271x; \H0.7535x;\P\H1.3271x; }
  7
Note Text (ANSI)
 73
     1
 44
0.7450015544891358
  0
LINE
  5
118
330
6C
100
AcDbEntity
  8
Visible (ANSI)
100
AcDbLine
 10
13.66174750597832
 20
12.22300858376152
 30
0.0
 11
13.58774750597832
 21
12.22300858376152
 31
0.0
  0
LINE
  5
119
330
6C
100
AcDbEntity
  8
Visible (ANSI)
100
AcDbLine
 10
13.58774750597832
 20
12.41050858376153
 30
0.0
 11
13.66174750597832
 21
12.41050858376153
 31
0.0
  0
LINE
  5
11A
330
6C
100
AcDbEntity
  8
Visible (ANSI)
100
AcDbLine
 10
13.58774750597832
 20
12.22300858376152
 30
0.0
 11
13.58774750597832
 21
12.41050858376153
 31
0.0
  0
LINE
  5
11B
330
6C
100
AcDbEntity
  8
Visible (ANSI)
100
AcDbLine
 10
13.66174750597832
 20
12.41050858376153
 30
0.0
 11
13.66174750597832
 21
12.37513358376156
 31
0.0
  0
LINE
  5
11C
330
6C
100
AcDbEntity
  8
Visible (ANSI)
100
AcDbLine
 10
13.66174750597832
 20
12.25838358376158
 30
0.0
 11
13.66174750597832
 21
12.22300858376152
 31
0.0
  0
LINE
  5
11D
330
6C
100
AcDbEntity
  8
Visible (ANSI)
100
AcDbLine
 10
13.66174750597832
 20
12.41050858376153
 30
0.0
 11
13.66174750597831
 21
14.11775858376153
 31
0.0
  0
LINE
  5
11E
330
6C
100
AcDbEntity
  8
Visible (ANSI)
100
AcDbLine
 10
13.5877475059783
 20
14.11775858376153
 30
0.0
 11
13.66174750597831
 21
14.11775858376153
 31
0.0
  0
LINE
  5
11F
330
6C
100
AcDbEntity
  8
Visible (ANSI)
100
AcDbLine
 10
13.5877475059783
 20
14.11775858376153
 30
0.0
 11
13.58774750597832
 21
12.41050858376153
 31
0.0
  0
LINE
  5
120
330
6C
100
AcDbEntity
  8
Visible (ANSI)
100
AcDbLine
 10
13.58774750597832
 20
12.22300858376152
 30
0.0
 11
13.58774750597834
 21
10.54700858376153
 31
0.0
  0
LINE
  5
121
330
6C
100
AcDbEntity
  8
Visible (ANSI)
100
AcDbLine
 10
13.66174750597834
 20
10.54700858376153
 30
0.0
 11
13.66174750597832
 21
12.22300858376152
 31
0.0
  0
LINE
  5
122
330
6C
100
AcDbEntity
  8
Visible (ANSI)
100
AcDbLine
 10
11.69299750597834
 20
10.44175858376152
 30
0.0
 11
11.69299750597834
 21
10.51575858376152
 31
0.0
  0
LINE
  5
123
330
6C
100
AcDbEntity
  8
Visible (ANSI)
100
AcDbLine
 10
11.88049750597834
 20
10.51575858376152
 30
0.0
 11
11.88049750597834
 21
10.44175858376152
 31
0.0
  0
LINE
  5
124
330
6C
100
AcDbEntity
  8
Visible (ANSI)
100
AcDbLine
 10
11.69299750597834
 20
10.51575858376152
 30
0.0
 11
11.88049750597834
 21
10.51575858376152
 31
0.0
  0
LINE
  5
125
330
6C
100
AcDbEntity
  8
Visible (ANSI)
100
AcDbLine
 10
11.88049750597834
 20
10.44175858376152
 30
0.0
 11
11.84512250597838
 21
10.44175858376152
 31
0.0
  0
LINE
  5
126
330
6C
100
AcDbEntity
  8
Visible (ANSI)
100
AcDbLine
 10
11.72837250597834
 20
10.44175858376152
 30
0.0
 11
11.69299750597834
 21
10.44175858376152
 31
0.0
  0
LINE
  5
127
330
6C
100
AcDbEntity
  8
Visible (ANSI)
100
AcDbLine
 10
11.88049750597834
 20
10.51575858376152
 30
0.0
 11
13.55649750597834
 21
10.51575858376152
 31
0.0
  0
LINE
  5
128
330
6C
100
AcDbEntity
  8
Visible (ANSI)
100
AcDbLine
 10
9.985747505978341
 20
10.51575858376152
 30
0.0
 11
11.69299750597834
 21
10.51575858376152
 31
0.0
  0
LINE
  5
129
330
6C
100
AcDbEntity
  8
Visible (ANSI)
100
AcDbLine
 10
11.88049750597834
 20
10.44175858376152
 30
0.0
 11
13.55649750597834
 21
10.44175858376152
 31
0.0
  0
LINE
  5
12A
330
6C
100
AcDbEntity
  8
Visible (ANSI)
100
AcDbLine
 10
9.985747505978341
 20
10.44175858376152
 30
0.0
 11
11.69299750597834
 21
10.44175858376152
 31
0.0
  0
LINE
  5
12B
330
6C
100
AcDbEntity
  8
Visible (ANSI)
100
AcDbLine
 10
9.985747505978341
 20
10.51575858376152
 30
0.0
 11
9.985747505978341
 21
10.44175858376152
 31
0.0
  0
ARC
  5
12C
330
6C
100
AcDbEntity
  8
Visible (ANSI)
100
AcDbCircle
 10
13.55649750597834
 20
10.54700858376152
 30
0.0
 40
0.1052499999999976
100
AcDbArc
 50
269.9999999999986
 51
0.0
  0
ARC
  5
12D
330
6C
100
AcDbEntity
  8
Visible (ANSI)
100
AcDbCircle
 10
13.55649750597834
 20
10.54700858376152
 30
0.0
 40
0.0312499999999996
100
AcDbArc
 50
270.0
 51
0.0
  0
LINE
  5
12E
330
6C
100
AcDbEntity
  8
Visible (ANSI)
100
AcDbLine
 10
9.911747505978333
 20
12.41050858376152
 30
0.0
 11
9.985747505978331
 21
12.41050858376152
 31
0.0
  0
LINE
  5
12F
330
6C
100
AcDbEntity
  8
Visible (ANSI)
100
AcDbLine
 10
9.985747505978334
 20
12.22300858376152
 30
0.0
 11
9.911747505978334
 21
12.22300858376152
 31
0.0
  0
LINE
  5
130
330
6C
100
AcDbEntity
  8
Visible (ANSI)
100
AcDbLine
 10
9.985747505978332
 20
12.41050858376152
 30
0.0
 11
9.985747505978336
 21
12.22300858376152
 31
0.0
  0
LINE
  5
131
330
6C
100
AcDbEntity
  8
Visible (ANSI)
100
AcDbLine
 10
9.911747505978334
 20
12.22300858376152
 30
0.0
 11
9.911747505978333
 21
12.41050858376152
 31
0.0
  0
LINE
  5
132
330
6C
100
AcDbEntity
  8
Visible (ANSI)
100
AcDbLine
 10
9.911747505978334
 20
12.22300858376152
 30
0.0
 11
9.911747505978359
 21
10.51575858376152
 31
0.0
  0
LINE
  5
133
330
6C
100
AcDbEntity
  8
Visible (ANSI)
100
AcDbLine
 10
9.985747505978361
 20
10.51575858376152
 30
0.0
 11
9.911747505978359
 21
10.51575858376152
 31
0.0
  0
LINE
  5
134
330
6C
100
AcDbEntity
  8
Visible (ANSI)
100
AcDbLine
 10
9.985747505978361
 20
10.51575858376152
 30
0.0
 11
9.985747505978334
 21
12.22300858376152
 31
0.0
  0
LINE
  5
135
330
6C
100
AcDbEntity
  8
Visible (ANSI)
100
AcDbLine
 10
9.985747505978331
 20
12.41050858376152
 30
0.0
 11
9.985747505978309
 21
14.08650858376152
 31
0.0
  0
LINE
  5
136
330
6C
100
AcDbEntity
  8
Visible (ANSI)
100
AcDbLine
 10
9.91174750597831
 20
14.08650858376152
 30
0.0
 11
9.911747505978333
 21
12.41050858376152
 31
0.0
  0
LINE
  5
137
330
6C
100
AcDbEntity
  8
Visible (ANSI)
100
AcDbLine
 10
11.88049750597831
 20
14.19175858376153
 30
0.0
 11
11.88049750597831
 21
14.11775858376153
 31
0.0
  0
LINE
  5
138
330
6C
100
AcDbEntity
  8
Visible (ANSI)
100
AcDbLine
 10
11.69299750597831
 20
14.11775858376153
 30
0.0
 11
11.69299750597831
 21
14.19175858376153
 31
0.0
  0
LINE
  5
139
330
6C
100
AcDbEntity
  8
Visible (ANSI)
100
AcDbLine
 10
11.88049750597831
 20
14.11775858376153
 30
0.0
 11
11.69299750597831
 21
14.11775858376153
 31
0.0
  0
LINE
  5
13A
330
6C
100
AcDbEntity
  8
Visible (ANSI)
100
AcDbLine
 10
11.69299750597831
 20
14.19175858376153
 30
0.0
 11
11.72837250597832
 21
14.19175858376153
 31
0.0
  0
LINE
  5
13B
330
6C
100
AcDbEntity
  8
Visible (ANSI)
100
AcDbLine
 10
11.84512250597829
 20
14.19175858376153
 30
0.0
 11
11.88049750597831
 21
14.19175858376153
 31
0.0
  0
LINE
  5
13C
330
6C
100
AcDbEntity
  8
Visible (ANSI)
100
AcDbLine
 10
11.69299750597831
 20
14.11775858376153
 30
0.0
 11
10.0169975059783
 21
14.11775858376152
 31
0.0
  0
LINE
  5
13D
330
6C
100
AcDbEntity
  8
Visible (ANSI)
100
AcDbLine
 10
13.58774750597831
 20
14.11775858376154
 30
0.0
 11
11.88049750597831
 21
14.11775858376153
 31
0.0
  0
LINE
  5
13E
330
6C
100
AcDbEntity
  8
Visible (ANSI)
100
AcDbLine
 10
11.69299750597831
 20
14.19175858376153
 30
0.0
 11
10.0169975059783
 21
14.19175858376152
 31
0.0
  0
LINE
  5
13F
330
6C
100
AcDbEntity
  8
Visible (ANSI)
100
AcDbLine
 10
13.5877475059783
 20
14.19175858376154
 30
0.0
 11
11.88049750597831
 21
14.19175858376153
 31
0.0
  0
LINE
  5
140
330
6C
100
AcDbEntity
  8
Visible (ANSI)
100
AcDbLine
 10
13.58774750597831
 20
14.11775858376154
 30
0.0
 11
13.5877475059783
 21
14.19175858376154
 31
0.0
  0
ARC
  5
141
330
6C
100
AcDbEntity
  8
Visible (ANSI)
100
AcDbCircle
 10
10.01699750597831
 20
14.08650858376152
 30
0.0
 40
0.1052499999999976
100
AcDbArc
 50
89.99999999999934
 51
180.0
  0
ARC
  5
142
330
6C
100
AcDbEntity
  8
Visible (ANSI)
100
AcDbCircle
 10
10.01699750597831
 20
14.08650858376152
 30
0.0
 40
0.0312499999999996
100
AcDbArc
 50
90.00000000000225
 51
180.0
  0
LINE
  5
143
330
6C
100
AcDbEntity
  8
Visible (ANSI)
100
AcDbLine
 10
13.60337250597833
 20
12.31675858376157
 30
0.0
 11
13.67737250597834
 21
12.24275858376157
 31
0.0
  0
LINE
  5
144
330
6C
100
AcDbEntity
  8
Visible (ANSI)
100
AcDbLine
 10
13.67737250597833
 20
12.39075858376157
 30
0.0
 11
13.60337250597833
 21
12.31675858376157
 31
0.0
  0
LINE
  5
145
330
6C
100
AcDbEntity
  8
Visible (ANSI)
100
AcDbLine
 10
11.86074750597836
 20
10.42613358376154
 30
0.0
 11
11.78674750597836
 21
10.50013358376154
 31
0.0
  0
LINE
  5
146
330
6C
100
AcDbEntity
  8
Visible (ANSI)
100
AcDbLine
 10
11.78674750597836
 20
10.50013358376154
 30
0.0
 11
11.71274750597836
 21
10.42613358376154
 31
0.0
  0
LINE
  5
147
330
6C
100
AcDbEntity
  8
Visible (ANSI)
100
AcDbLine
 10
11.71274750597831
 20
14.20738358376154
 30
0.0
 11
11.78674750597831
 21
14.13338358376154
 31
0.0
  0
LINE
  5
148
330
6C
100
AcDbEntity
  8
Visible (ANSI)
100
AcDbLine
 10
11.78674750597831
 20
14.13338358376154
 30
0.0
 11
11.86074750597831
 21
14.20738358376154
 31
0.0
  0
LINE
  5
149
330
6C
100
AcDbEntity
  8
Visible (ANSI)
100
AcDbLine
 10
13.67737250597834
 20
12.24275858376157
 30
0.0
 11
13.67737250597836
 21
10.55113358376157
 31
0.0
  0
LINE
  5
14A
330
6C
100
AcDbEntity
  8
Visible (ANSI)
100
AcDbLine
 10
13.67737250597831
 20
14.08238358376157
 30
0.0
 11
13.67737250597833
 21
12.39075858376157
 31
0.0
  0
LINE
  5
14B
330
6C
100
AcDbEntity
  8
Visible (ANSI)
100
AcDbLine
 10
11.71274750597836
 20
10.42613358376154
 30
0.0
 11
10.02112250597836
 21
10.42613358376152
 31
0.0
  0
LINE
  5
14C
330
6C
100
AcDbEntity
  8
Visible (ANSI)
100
AcDbLine
 10
13.55237250597836
 20
10.42613358376157
 30
0.0
 11
11.86074750597836
 21
10.42613358376154
 31
0.0
  0
LINE
  5
14D
330
6C
100
AcDbEntity
  8
Visible (ANSI)
100
AcDbLine
 10
10.02112250597831
 20
14.20738358376152
 30
0.0
 11
11.71274750597831
 21
14.20738358376154
 31
0.0
  0
LINE
  5
14E
330
6C
100
AcDbEntity
  8
Visible (ANSI)
100
AcDbLine
 10
11.86074750597831
 20
14.20738358376154
 30
0.0
 11
13.55237250597831
 21
14.20738358376157
 31
0.0
  0
ARC
  5
14F
330
6C
100
AcDbEntity
  8
Visible (ANSI)
100
AcDbCircle
 10
13.55237250597836
 20
10.55113358376157
 30
0.0
 40
0.1249999999999992
100
AcDbArc
 50
270.0000000000011
 51
0.0
  0
ARC
  5
150
330
6C
100
AcDbEntity
  8
Visible (ANSI)
100
AcDbCircle
 10
10.02112250597836
 20
10.55113358376152
 30
0.0
 40
0.1249999999999995
100
AcDbArc
 50
180.0
 51
270.0000000000011
  0
LINE
  5
151
330
6C
100
AcDbEntity
  8
Visible (ANSI)
100
AcDbLine
 10
9.896122505978363
 20
10.55113358376152
 30
0.0
 11
9.896122505978311
 21
14.08238358376152
 31
0.0
  0
ARC
  5
152
330
6C
100
AcDbEntity
  8
Visible (ANSI)
100
AcDbCircle
 10
10.02112250597831
 20
14.08238358376152
 30
0.0
 40
0.1249999999999988
100
AcDbArc
 50
90.00000000000058
 51
180.0
  0
ARC
  5
153
330
6C
100
AcDbEntity
  8
Visible (ANSI)
100
AcDbCircle
 10
13.55237250597831
 20
14.08238358376157
 30
0.0
 40
0.1249999999999995
100
AcDbArc
 50
0.0
 51
90.00000000000115
  0
ARC
  5
154
330
6C
100
AcDbEntity
  8
Visible (ANSI)
100
AcDbCircle
 10
14.09924750597837
 20
10.00425858376158
 30
0.0
 40
0.3750000000000004
100
AcDbArc
 50
270.0000000000007
 51
0.0
  0
LINE
  5
155
330
6C
100
AcDbEntity
  8
Visible (ANSI)
100
AcDbLine
 10
14.09924750597837
 20
9.629258583761579
 30
0.0
 11
9.474247505978375
 21
9.629258583761515
 31
0.0
  0
ARC
  5
156
330
6C
100
AcDbEntity
  8
Visible (ANSI)
100
AcDbCircle
 10
9.474247505978372
 20
10.00425858376151
 30
0.0
 40
0.3750000000000007
100
AcDbArc
 50
180.0
 51
270.0000000000007
  0
LINE
  5
157
330
6C
100
AcDbEntity
  8
Visible (ANSI)
100
AcDbLine
 10
9.09924750597837
 20
10.00425858376151
 30
0.0
 11
9.099247505978306
 21
14.62925858376151
 31
0.0
  0
ARC
  5
158
330
6C
100
AcDbEntity
  8
Visible (ANSI)
100
AcDbCircle
 10
9.474247505978306
 20
14.62925858376151
 30
0.0
 40
0.3750000000000004
100
AcDbArc
 50
90.00000000000094
 51
180.0
  0
LINE
  5
159
330
6C
100
AcDbEntity
  8
Visible (ANSI)
100
AcDbLine
 10
9.474247505978299
 20
15.00425858376151
 30
0.0
 11
14.0992475059783
 21
15.00425858376157
 31
0.0
  0
ARC
  5
15A
330
6C
100
AcDbEntity
  8
Visible (ANSI)
100
AcDbCircle
 10
14.0992475059783
 20
14.62925858376158
 30
0.0
 40
0.3750000000000004
100
AcDbArc
 50
0.0
 51
90.00000000000076
  0
LINE
  5
15B
330
6C
100
AcDbEntity
  8
Visible (ANSI)
100
AcDbLine
 10
14.4742475059783
 20
14.62925858376158
 30
0.0
 11
14.47424750597837
 21
10.00425858376158
 31
0.0
  0
CIRCLE
  5
15C
330
6C
100
AcDbEntity
  8
Visible (ANSI)
100
AcDbCircle
 10
9.47424750597837
 20
10.00425858376151
 30
0.0
 40
0.140625
  0
CIRCLE
  5
15D
330
6C
100
AcDbEntity
  8
Visible (ANSI)
100
AcDbCircle
 10
9.474247505978304
 20
14.62925858376151
 30
0.0
 40
0.140625
  0
CIRCLE
  5
15E
330
6C
100
AcDbEntity
  8
Visible (ANSI)
100
AcDbCircle
 10
14.09924750597837
 20
10.00425858376158
 30
0.0
 40
0.140625
  0
CIRCLE
  5
15F
330
6C
100
AcDbEntity
  8
Visible (ANSI)
100
AcDbCircle
 10
14.0992475059783
 20
14.62925858376158
 30
0.0
 40
0.140625
  0
ARC
  5
160
330
6C
100
AcDbEntity
  8
Visible (ANSI)
100
AcDbCircle
 10
13.53674750597833
 20
14.06675858376153
 30
0.0
 40
0.1250000000000002
100
AcDbArc
 50
24.07925970211608
 51
65.92074029789054
  0
ARC
  5
161
330
6C
100
AcDbEntity
  8
Visible (ANSI)
100
AcDbCircle
 10
10.03674750597833
 20
10.56675858376155
 30
0.0
 40
0.1249999999999999
100
AcDbArc
 50
204.0792597021265
 51
245.9207402978822
  0
MTEXT
  5
163
330
6C
100
AcDbEntity
  8
Symbol (ANSI)
100
AcDbMText
 10
10.11427649700251
 20
6.288589085788064
 30
0.0
 40
0.4266666719398265
 41
0.0
 46
0.0
 71
     7
 72
     1
  1
FRONT VIEW
  7
Text Style168
 73
     1
 44
1.0
  0
LINE
  5
165
330
6C
100
AcDbEntity
  8
Symbol (ANSI)
370
    30
100
AcDbLine
 10
10.07160972058158
 20
6.201578819566233
 30
0.0
 11
13.5018852913751
 21
6.201578819566233
 31
0.0
  0
LINE
  5
166
330
6C
100
AcDbEntity
  8
Visible (ANSI)
100
AcDbLine
 10
38.11100848827428
 20
10.44175858376152
 30
0.0
 11
34.11100848827429
 21
10.44175858376152
 31
0.0
  0
LINE
  5
167
330
6C
100
AcDbEntity
  8
Visible (ANSI)
100
AcDbLine
 10
33.77600848827429
 20
10.44175858376152
 30
0.0
 11
23.23600848827428
 21
10.44175858376152
 31
0.0
  0
LINE
  5
168
330
6C
100
AcDbEntity
  8
Visible (ANSI)
100
AcDbLine
 10
38.11100848827428
 20
10.44175858376152
 30
0.0
 11
38.11100848827432
 21
10.54700858376152
 31
0.0
  0
LINE
  5
169
330
6C
100
AcDbEntity
  8
Visible (ANSI)
100
AcDbLine
 10
38.11100848827432
 20
14.11775858376153
 30
0.0
 11
38.11100848827432
 21
10.54700858376153
 31
0.0
  0
LINE
  5
16A
330
6C
100
AcDbEntity
  8
Visible (ANSI)
100
AcDbLine
 10
23.23600848827431
 20
14.11775858376153
 30
0.0
 11
33.77600848827432
 21
14.11775858376153
 31
0.0
  0
LINE
  5
16B
330
6C
100
AcDbEntity
  8
Visible (ANSI)
100
AcDbLine
 10
34.11100848827433
 20
14.11775858376153
 30
0.0
 11
38.11100848827432
 21
14.11775858376153
 31
0.0
  0
LINE
  5
16C
330
6C
100
AcDbEntity
  8
Visible (ANSI)
100
AcDbLine
 10
38.11100848827429
 20
14.11775858376154
 30
0.0
 11
38.11100848827429
 21
14.19175858376154
 31
0.0
  0
LINE
  5
16D
330
6C
100
AcDbEntity
  8
Visible (ANSI)
100
AcDbLine
 10
38.11100848827429
 20
14.19175858376154
 30
0.0
 11
34.11100848827429
 21
14.19175858376154
 31
0.0
  0
LINE
  5
16E
330
6C
100
AcDbEntity
  8
Visible (ANSI)
100
AcDbLine
 10
33.77600848827429
 20
14.19175858376154
 30
0.0
 11
23.23600848827429
 21
14.19175858376154
 31
0.0
  0
LINE
  5
16F
330
6C
100
AcDbEntity
  8
Visible (ANSI)
100
AcDbLine
 10
23.11100848827444
 20
9.629258583761577
 30
0.0
 11
23.11100848827455
 21
10.00425858376158
 31
0.0
  0
LINE
  5
170
330
6C
100
AcDbEntity
  8
Visible (ANSI)
100
AcDbLine
 10
23.23600848827444
 20
9.629258583761579
 30
0.0
 11
23.11100848827444
 21
9.629258583761579
 31
0.0
  0
LINE
  5
171
330
6C
100
AcDbEntity
  8
Visible (ANSI)
100
AcDbLine
 10
23.23600848827455
 20
10.00425858376158
 30
0.0
 11
23.23600848827444
 21
9.629258583761577
 31
0.0
  0
LINE
  5
172
330
6C
100
AcDbEntity
  8
Visible (ANSI)
100
AcDbLine
 10
23.23600848827444
 20
15.00425858376157
 30
0.0
 11
23.11100848827444
 21
15.00425858376157
 31
0.0
  0
LINE
  5
173
330
6C
100
AcDbEntity
  8
Visible (ANSI)
100
AcDbLine
 10
23.11100848827455
 20
14.62925858376158
 30
0.0
 11
23.11100848827444
 21
15.00425858376157
 31
0.0
  0
LINE
  5
174
330
6C
100
AcDbEntity
  8
Visible (ANSI)
100
AcDbLine
 10
23.23600848827444
 20
15.00425858376157
 30
0.0
 11
23.23600848827455
 21
14.62925858376158
 31
0.0
  0
LINE
  5
175
330
6C
100
AcDbEntity
  8
Visible (ANSI)
100
AcDbLine
 10
23.11100848827455
 20
14.62925858376158
 30
0.0
 11
23.11100848827455
 21
10.00425858376158
 31
0.0
  0
LINE
  5
176
330
6C
100
AcDbEntity
  8
Visible (ANSI)
100
AcDbLine
 10
23.23600848827455
 20
10.00425858376158
 30
0.0
 11
23.23600848827455
 21
14.62925858376158
 31
0.0
  0
LINE
  5
177
330
6C
100
AcDbEntity
  8
Visible (ANSI)
100
AcDbLine
 10
33.90100848827445
 20
15.00455858376153
 30
0.0
 11
33.90100848827456
 21
14.62955858376153
 31
0.0
  0
LINE
  5
178
330
6C
100
AcDbEntity
  8
Visible (ANSI)
100
AcDbLine
 10
33.77600848827445
 20
15.00455858376153
 30
0.0
 11
33.90100848827445
 21
15.00455858376153
 31
0.0
  0
LINE
  5
179
330
6C
100
AcDbEntity
  8
Visible (ANSI)
100
AcDbLine
 10
33.77600848827456
 20
14.62955858376153
 30
0.0
 11
33.77600848827445
 21
15.00455858376153
 31
0.0
  0
LINE
  5
17A
330
6C
100
AcDbEntity
  8
Visible (ANSI)
100
AcDbLine
 10
33.77600848827445
 20
9.629558583761532
 30
0.0
 11
33.90100848827445
 21
9.629558583761532
 31
0.0
  0
LINE
  5
17B
330
6C
100
AcDbEntity
  8
Visible (ANSI)
100
AcDbLine
 10
33.90100848827456
 20
10.00455858376153
 30
0.0
 11
33.90100848827445
 21
9.62955858376153
 31
0.0
  0
LINE
  5
17C
330
6C
100
AcDbEntity
  8
Visible (ANSI)
100
AcDbLine
 10
33.77600848827445
 20
9.62955858376153
 30
0.0
 11
33.77600848827456
 21
10.00455858376153
 31
0.0
  0
LINE
  5
17D
330
6C
100
AcDbEntity
  8
Visible (ANSI)
100
AcDbLine
 10
33.90100848827457
 20
10.00455858376153
 30
0.0
 11
33.90100848827457
 21
14.62955858376153
 31
0.0
  0
LINE
  5
17E
330
6C
100
AcDbEntity
  8
Visible (ANSI)
100
AcDbLine
 10
33.77600848827456
 20
14.62955858376153
 30
0.0
 11
33.77600848827456
 21
10.00455858376153
 31
0.0
  0
LINE
  5
17F
330
6C
100
AcDbEntity
  8
Visible (ANSI)
100
AcDbLine
 10
34.11100848827444
 20
15.00455858376155
 30
0.0
 11
34.11100848827455
 21
14.62955858376155
 31
0.0
  0
LINE
  5
180
330
6C
100
AcDbEntity
  8
Visible (ANSI)
100
AcDbLine
 10
33.98600848827444
 20
15.00455858376155
 30
0.0
 11
34.11100848827445
 21
15.00455858376155
 31
0.0
  0
LINE
  5
181
330
6C
100
AcDbEntity
  8
Visible (ANSI)
100
AcDbLine
 10
33.98600848827455
 20
14.62955858376155
 30
0.0
 11
33.98600848827444
 21
15.00455858376155
 31
0.0
  0
LINE
  5
182
330
6C
100
AcDbEntity
  8
Visible (ANSI)
100
AcDbLine
 10
33.98600848827444
 20
9.628958583761551
 30
0.0
 11
34.11100848827445
 21
9.628958583761551
 31
0.0
  0
LINE
  5
183
330
6C
100
AcDbEntity
  8
Visible (ANSI)
100
AcDbLine
 10
34.11100848827455
 20
10.00395858376155
 30
0.0
 11
34.11100848827444
 21
9.62895858376155
 31
0.0
  0
LINE
  5
184
330
6C
100
AcDbEntity
  8
Visible (ANSI)
100
AcDbLine
 10
33.98600848827444
 20
9.62895858376155
 30
0.0
 11
33.98600848827455
 21
10.00395858376155
 31
0.0
  0
LINE
  5
185
330
6C
100
AcDbEntity
  8
Visible (ANSI)
100
AcDbLine
 10
34.11100848827456
 20
10.00395858376155
 30
0.0
 11
34.11100848827456
 21
14.62955858376155
 31
0.0
  0
LINE
  5
186
330
6C
100
AcDbEntity
  8
Visible (ANSI)
100
AcDbLine
 10
33.98600848827455
 20
14.62955858376155
 30
0.0
 11
33.98600848827455
 21
10.00395858376155
 31
0.0
  0
ARC
  5
187
330
6C
100
AcDbEntity
  8
Visible (ANSI)
100
AcDbCircle
 10
34.00600848827428
 20
14.29675858376153
 30
0.0
 40
0.1049999999999994
100
AcDbArc
 50
100.9805754276164
 51
180.0
  0
ARC
  5
188
330
6C
100
AcDbEntity
  8
Visible (ANSI)
100
AcDbCircle
 10
34.00600848827429
 20
10.33675858376155
 30
0.0
 40
0.1049999999999994
100
AcDbArc
 50
180.0
 51
259.0194245723836
  0
MTEXT
  5
189
330
6C
100
AcDbEntity
  8
Symbol (ANSI)
100
AcDbMText
 10
28.26361590787173
 20
6.696857598786736
 30
0.0
 40
0.4266666719398265
 41
0.0
 46
0.0
 71
     7
 72
     1
  1
RIGHT SIDE VIEW
  7
Text Style168
 73
     1
 44
1.0
  0
LINE
  5
18A
330
6C
100
AcDbEntity
  8
Symbol (ANSI)
370
    30
100
AcDbLine
 10
28.2209491314508
 20
6.609155814390419
 30
0.0
 11
33.00106784509671
 21
6.609155814390419
 31
0.0
  0
LINE
  5
18B
330
6C
100
AcDbEntity
  8
Visible (ANSI)
100
AcDbLine
 10
13.58774750597908
 20
35.86202175847218
 30
0.0
 11
13.66174750597908
 21
35.86202175847218
 31
0.0
  0
LINE
  5
18C
330
6C
100
AcDbEntity
  8
Visible (ANSI)
100
AcDbLine
 10
13.66174750597908
 20
20.98702175847217
 30
0.0
 11
13.66174750597908
 21
31.52702175847218
 31
0.0
  0
LINE
  5
18D
330
6C
100
AcDbEntity
  8
Visible (ANSI)
100
AcDbLine
 10
13.66174750597908
 20
31.86202175847218
 30
0.0
 11
13.66174750597908
 21
35.86202175847218
 31
0.0
  0
LINE
  5
18E
330
6C
100
AcDbEntity
  8
Visible (ANSI)
100
AcDbLine
 10
9.91174750597908
 20
20.98702175847217
 30
0.0
 11
9.911747505979077
 21
31.52702175847217
 31
0.0
  0
LINE
  5
18F
330
6C
100
AcDbEntity
  8
Visible (ANSI)
100
AcDbLine
 10
9.911747505979077
 20
31.86202175847217
 30
0.0
 11
9.911747505979075
 21
35.86202175847217
 31
0.0
  0
LINE
  5
190
330
6C
100
AcDbEntity
  8
Visible (ANSI)
100
AcDbLine
 10
10.01699750597907
 20
35.8620217584722
 30
0.0
 11
9.911747505979075
 21
35.86202175847217
 31
0.0
  0
LINE
  5
191
330
6C
100
AcDbEntity
  8
Visible (ANSI)
100
AcDbLine
 10
10.01699750597907
 20
35.8620217584722
 30
0.0
 11
13.58774750597907
 21
35.8620217584722
 31
0.0
  0
LINE
  5
192
330
6C
100
AcDbEntity
  8
Visible (ANSI)
100
AcDbLine
 10
13.58774750597907
 20
35.8620217584722
 30
0.0
 11
13.58774750597907
 21
31.86202175847221
 31
0.0
  0
LINE
  5
193
330
6C
100
AcDbEntity
  8
Visible (ANSI)
100
AcDbLine
 10
13.58774750597907
 20
31.52702175847221
 30
0.0
 11
13.58774750597907
 21
20.9870217584722
 31
0.0
  0
LINE
  5
194
330
6C
100
AcDbEntity
  8
Visible (ANSI)
100
AcDbLine
 10
9.099247505979073
 20
20.98702175847233
 30
0.0
 11
9.099247505979073
 21
20.86202175847233
 31
0.0
  0
LINE
  5
195
330
6C
100
AcDbEntity
  8
Visible (ANSI)
100
AcDbLine
 10
9.47424750597907
 20
20.86202175847244
 30
0.0
 11
9.099247505979075
 21
20.86202175847233
 31
0.0
  0
LINE
  5
196
330
6C
100
AcDbEntity
  8
Visible (ANSI)
100
AcDbLine
 10
9.099247505979075
 20
20.98702175847233
 30
0.0
 11
9.47424750597907
 21
20.98702175847244
 31
0.0
  0
LINE
  5
197
330
6C
100
AcDbEntity
  8
Visible (ANSI)
100
AcDbLine
 10
9.47424750597907
 20
20.86202175847244
 30
0.0
 11
14.09924750597907
 21
20.86202175847244
 31
0.0
  0
LINE
  5
198
330
6C
100
AcDbEntity
  8
Visible (ANSI)
100
AcDbLine
 10
14.09924750597907
 20
20.98702175847244
 30
0.0
 11
9.47424750597907
 21
20.98702175847244
 31
0.0
  0
LINE
  5
199
330
6C
100
AcDbEntity
  8
Visible (ANSI)
100
AcDbLine
 10
14.47424750597907
 20
20.86202175847233
 30
0.0
 11
14.09924750597907
 21
20.86202175847244
 31
0.0
  0
LINE
  5
19A
330
6C
100
AcDbEntity
  8
Visible (ANSI)
100
AcDbLine
 10
14.47424750597907
 20
20.98702175847233
 30
0.0
 11
14.47424750597907
 21
20.86202175847233
 31
0.0
  0
LINE
  5
19B
330
6C
100
AcDbEntity
  8
Visible (ANSI)
100
AcDbLine
 10
14.09924750597907
 20
20.98702175847244
 30
0.0
 11
14.47424750597907
 21
20.98702175847233
 31
0.0
  0
LINE
  5
19C
330
6C
100
AcDbEntity
  8
Visible (ANSI)
100
AcDbLine
 10
14.0995475059791
 20
31.65202175847245
 30
0.0
 11
14.4745475059791
 21
31.65202175847234
 31
0.0
  0
LINE
  5
19D
330
6C
100
AcDbEntity
  8
Visible (ANSI)
100
AcDbLine
 10
14.4745475059791
 20
31.52702175847234
 30
0.0
 11
14.0995475059791
 21
31.52702175847245
 31
0.0
  0
LINE
  5
19E
330
6C
100
AcDbEntity
  8
Visible (ANSI)
100
AcDbLine
 10
14.4745475059791
 20
31.52702175847234
 30
0.0
 11
14.4745475059791
 21
31.65202175847234
 31
0.0
  0
LINE
  5
19F
330
6C
100
AcDbEntity
  8
Visible (ANSI)
100
AcDbLine
 10
14.0995475059791
 20
31.65202175847245
 30
0.0
 11
9.474547505979105
 21
31.65202175847245
 31
0.0
  0
LINE
  5
1A0
330
6C
100
AcDbEntity
  8
Visible (ANSI)
100
AcDbLine
 10
9.474547505979105
 20
31.52702175847245
 30
0.0
 11
14.0995475059791
 21
31.52702175847245
 31
0.0
  0
LINE
  5
1A1
330
6C
100
AcDbEntity
  8
Visible (ANSI)
100
AcDbLine
 10
9.099547505979105
 20
31.65202175847234
 30
0.0
 11
9.474547505979106
 21
31.65202175847245
 31
0.0
  0
LINE
  5
1A2
330
6C
100
AcDbEntity
  8
Visible (ANSI)
100
AcDbLine
 10
9.099547505979105
 20
31.52702175847234
 30
0.0
 11
9.099547505979105
 21
31.65202175847234
 31
0.0
  0
LINE
  5
1A3
330
6C
100
AcDbEntity
  8
Visible (ANSI)
100
AcDbLine
 10
9.474547505979105
 20
31.52702175847245
 30
0.0
 11
9.099547505979105
 21
31.52702175847234
 31
0.0
  0
LINE
  5
1A4
330
6C
100
AcDbEntity
  8
Visible (ANSI)
100
AcDbLine
 10
14.09954750597907
 20
31.86202175847244
 30
0.0
 11
14.47454750597907
 21
31.86202175847233
 31
0.0
  0
LINE
  5
1A5
330
6C
100
AcDbEntity
  8
Visible (ANSI)
100
AcDbLine
 10
14.47454750597907
 20
31.73702175847233
 30
0.0
 11
14.09954750597907
 21
31.73702175847244
 31
0.0
  0
LINE
  5
1A6
330
6C
100
AcDbEntity
  8
Visible (ANSI)
100
AcDbLine
 10
14.47454750597907
 20
31.73702175847233
 30
0.0
 11
14.47454750597907
 21
31.86202175847233
 31
0.0
  0
LINE
  5
1A7
330
6C
100
AcDbEntity
  8
Visible (ANSI)
100
AcDbLine
 10
14.09954750597907
 20
31.86202175847244
 30
0.0
 11
9.47394750597907
 21
31.86202175847244
 31
0.0
  0
LINE
  5
1A8
330
6C
100
AcDbEntity
  8
Visible (ANSI)
100
AcDbLine
 10
9.473947505979072
 20
31.73702175847244
 30
0.0
 11
14.09954750597907
 21
31.73702175847244
 31
0.0
  0
LINE
  5
1A9
330
6C
100
AcDbEntity
  8
Visible (ANSI)
100
AcDbLine
 10
9.098947505979074
 20
31.86202175847233
 30
0.0
 11
9.47394750597907
 21
31.86202175847244
 31
0.0
  0
LINE
  5
1AA
330
6C
100
AcDbEntity
  8
Visible (ANSI)
100
AcDbLine
 10
9.098947505979074
 20
31.73702175847233
 30
0.0
 11
9.098947505979074
 21
31.86202175847233
 31
0.0
  0
LINE
  5
1AB
330
6C
100
AcDbEntity
  8
Visible (ANSI)
100
AcDbLine
 10
9.47394750597907
 20
31.73702175847244
 30
0.0
 11
9.098947505979074
 21
31.73702175847233
 31
0.0
  0
ARC
  5
1AC
330
6C
100
AcDbEntity
  8
Visible (ANSI)
100
AcDbCircle
 10
9.806747505979105
 20
31.75702175847217
 30
0.0
 40
0.1049999999999999
100
AcDbArc
 50
190.9805754276163
 51
270.0000000000007
  0
ARC
  5
1AD
330
6C
100
AcDbEntity
  8
Visible (ANSI)
100
AcDbCircle
 10
13.7667475059791
 20
31.75702175847217
 30
0.0
 40
0.105
100
AcDbArc
 50
269.9999999999986
 51
349.0194245723838
  0
MTEXT
  5
1AE
330
6C
100
AcDbEntity
  8
Symbol (ANSI)
100
AcDbMText
 10
10.44036621200287
 20
19.05254621897227
 30
0.0
 40
0.4266666719398265
 41
0.0
 46
0.0
 71
     7
 72
     1
  1
TOP VIEW
  7
Text Style168
 73
     1
 44
1.0
  0
LINE
  5
1AF
330
6C
100
AcDbEntity
  8
Symbol (ANSI)
370
    30
100
AcDbLine
 10
10.44070754621424
 20
18.96553595275044
 30
0.0
 11
13.13278746574395
 21
18.96553595275044
 31
0.0
  0
LINE
  5
1B0
330
6C
100
AcDbEntity
  8
Visible (ANSI)
100
AcDbLine
 10
43.43931918644837
 20
25.02875179286323
 30
0.0
 11
43.43931918644833
 21
22.11324662651556
 31
0.0
  0
LINE
  5
1B1
330
6C
100
AcDbEntity
  8
Visible (ANSI)
100
AcDbLine
 10
43.43931918644837
 20
25.02875179286323
 30
0.0
 11
43.38699328464055
 21
25.05896216635755
 31
0.0
  0
LINE
  5
1B2
330
6C
100
AcDbEntity
  8
Visible (ANSI)
100
AcDbLine
 10
43.38699328464055
 20
25.05896216635755
 30
0.0
 11
43.38699328464053
 21
22.14345700000988
 31
0.0
  0
LINE
  5
1B3
330
6C
100
AcDbEntity
  8
Visible (ANSI)
100
AcDbLine
 10
43.43931918644837
 20
25.08917253985189
 30
0.0
 11
43.38699328464055
 21
25.05896216635755
 31
0.0
  0
LINE
  5
1B4
330
6C
100
AcDbEntity
  8
Visible Narrow (ANSI)
100
AcDbLine
 10
43.43931918644833
 20
22.11324662651556
 30
0.0
 11
45.9642207253702
 21
23.5709992096894
 31
0.0
  0
LINE
  5
1B5
330
6C
100
AcDbEntity
  8
Visible Narrow (ANSI)
100
AcDbLine
 10
45.9863178122823
 20
23.53272593245842
 30
0.0
 11
43.46141627336042
 21
22.07497334928457
 31
0.0
  0
ELLIPSE
  5
1B6
330
6C
100
AcDbEntity
  8
Visible (ANSI)
100
AcDbEllipse
 10
43.46141627336042
 20
22.10048886743857
 30
0.0
 11
0.0526250000000063
 21
-0.0911491737483106
 31
0.0
210
0.0
220
0.0
230
1.0
 40
0.5773502691896259
 41
3.926990816987011
 42
5.497787143781899
  0
LINE
  5
1B7
330
6C
100
AcDbEntity
  8
Visible Narrow (ANSI)
100
AcDbLine
 10
43.38699328464053
 20
22.14345700000988
 30
0.0
 11
43.43931918644833
 21
22.11324662651556
 31
0.0
  0
LINE
  5
1B8
330
6C
100
AcDbEntity
  8
Visible Narrow (ANSI)
100
AcDbLine
 10
43.46141627336042
 20
22.07497334928457
 30
0.0
 11
43.46141627336042
 21
22.01455260229592
 31
0.0
  0
ELLIPSE
  5
1B9
330
6C
100
AcDbEntity
  8
Visible (ANSI)
100
AcDbEllipse
 10
43.46141627336042
 20
22.10048886743857
 30
0.0
 11
0.0156250000000021
 21
-0.0270632938682636
 31
0.0
210
0.0
220
0.0
230
1.0
 40
0.5773502691896259
 41
3.926990816986879
 42
5.49778714378174
  0
LINE
  5
1BA
330
6C
100
AcDbEntity
  8
Visible (ANSI)
100
AcDbLine
 10
43.46141627336042
 20
22.07497334928457
 30
0.0
 11
45.98631781228228
 21
20.61722076611073
 31
0.0
  0
LINE
  5
1BB
330
6C
100
AcDbEntity
  8
Visible (ANSI)
100
AcDbLine
 10
43.46141627336042
 20
22.01455260229592
 30
0.0
 11
45.98631781228228
 21
20.55680001912208
 31
0.0
  0
LINE
  5
1BC
330
6C
100
AcDbEntity
  8
Visible (ANSI)
100
AcDbLine
 10
45.98631781228228
 20
20.61722076611073
 30
0.0
 11
45.98631781228228
 21
20.55680001912208
 31
0.0
  0
LINE
  5
1BD
330
6C
100
AcDbEntity
  8
Visible (ANSI)
100
AcDbLine
 10
45.98631781228228
 20
20.55680001912208
 30
0.0
 11
46.03864371409009
 21
20.5870103926164
 31
0.0
  0
LINE
  5
1BE
330
6C
100
AcDbEntity
  8
Visible (ANSI)
100
AcDbLine
 10
56.55685708423999
 20
28.20676060997917
 30
0.0
 11
56.56790562769602
 21
28.21313948951767
 31
0.0
  0
LINE
  5
1BF
330
6C
100
AcDbEntity
  8
Visible (ANSI)
100
AcDbLine
 10
56.56790562769602
 20
28.06004638059372
 30
0.0
 11
56.55685708423998
 21
28.05366750105522
 31
0.0
  0
LINE
  5
1C0
330
6C
100
AcDbEntity
  8
Visible (ANSI)
100
AcDbLine
 10
56.55685708423999
 20
28.10469853736321
 30
0.0
 11
56.56790562769602
 21
28.09831965782471
 31
0.0
  0
LINE
  5
1C1
330
6C
100
AcDbEntity
  8
Visible (ANSI)
100
AcDbLine
 10
56.55685708423998
 20
28.05366750105522
 30
0.0
 11
56.55685708423999
 21
28.20676060997917
 31
0.0
  0
LINE
  5
1C2
330
6C
100
AcDbEntity
  8
Visible (ANSI)
100
AcDbLine
 10
45.98631781228227
 20
20.61722076611074
 30
0.0
 11
45.9863178122823
 21
23.5327259324584
 31
0.0
  0
LINE
  5
1C3
330
6C
100
AcDbEntity
  8
Visible (ANSI)
100
AcDbLine
 10
45.98631781228227
 20
20.61722076611074
 30
0.0
 11
46.03864371409007
 21
20.58701039261642
 31
0.0
  0
LINE
  5
1C4
330
6C
100
AcDbEntity
  8
Visible (ANSI)
100
AcDbLine
 10
46.03864371409007
 20
20.58701039261642
 30
0.0
 11
46.03864371409011
 21
23.50251555896407
 31
0.0
  0
LINE
  5
1C5
330
6C
100
AcDbEntity
  8
Visible (ANSI)
100
AcDbLine
 10
56.56657141984856
 20
26.665312287545
 30
0.0
 11
49.67826373821349
 21
22.68834599329201
 31
0.0
  0
LINE
  5
1C6
330
6C
100
AcDbEntity
  8
Visible (ANSI)
100
AcDbLine
 10
48.90877060399443
 20
22.24407892511108
 30
0.0
 11
46.03864371409007
 21
20.58701039261642
 31
0.0
  0
LINE
  5
1C7
330
6C
100
AcDbEntity
  8
Visible (ANSI)
100
AcDbLine
 10
55.16474060877898
 20
30.46488396660741
 30
0.0
 11
55.17578915223503
 21
30.47126284614592
 31
0.0
  0
LINE
  5
1C8
330
6C
100
AcDbEntity
  8
Visible (ANSI)
100
AcDbLine
 10
55.30837167370751
 20
30.39471629168394
 30
0.0
 11
55.29732313025147
 21
30.38833741214544
 31
0.0
  0
LINE
  5
1C9
330
6C
100
AcDbEntity
  8
Visible (ANSI)
100
AcDbLine
 10
55.29732313025147
 20
30.38833741214544
 30
0.0
 11
55.16474060877898
 21
30.46488396660741
 31
0.0
  0
LINE
  5
1CA
330
6C
100
AcDbEntity
  8
Visible (ANSI)
100
AcDbLine
 10
45.96422072537023
 20
23.57099920968939
 30
0.0
 11
43.43931918644837
 21
25.02875179286324
 31
0.0
  0
LINE
  5
1CB
330
6C
100
AcDbEntity
  8
Visible (ANSI)
100
AcDbLine
 10
45.96422072537023
 20
23.63141995667804
 30
0.0
 11
43.43931918644837
 21
25.08917253985189
 31
0.0
  0
LINE
  5
1CC
330
6C
100
AcDbEntity
  8
Visible (ANSI)
100
AcDbLine
 10
43.43931918644837
 20
25.02875179286324
 30
0.0
 11
43.43931918644837
 21
25.08917253985189
 31
0.0
  0
LINE
  5
1CD
330
6C
100
AcDbEntity
  8
Visible (ANSI)
100
AcDbLine
 10
43.43931918644837
 20
25.08917253985189
 30
0.0
 11
46.3094460763527
 21
26.74624107234655
 31
0.0
  0
LINE
  5
1CE
330
6C
100
AcDbEntity
  8
Visible (ANSI)
100
AcDbLine
 10
47.07936347464045
 20
27.19075308950176
 30
0.0
 11
53.96724689220688
 21
31.16747443478049
 31
0.0
  0
LINE
  5
1CF
330
6C
100
AcDbEntity
  8
Visible Narrow (ANSI)
100
AcDbLine
 10
56.56694385867027
 20
29.58103248154659
 30
0.0
 11
49.63424962553327
 21
25.57843959983559
 31
0.0
  0
LINE
  5
1D0
330
6C
100
AcDbEntity
  8
Visible Narrow (ANSI)
100
AcDbLine
 10
48.90546157414978
 20
25.15767362218715
 30
0.0
 11
46.03864371409011
 21
23.50251555896407
 31
0.0
  0
LINE
  5
1D1
330
6C
100
AcDbEntity
  8
Visible Narrow (ANSI)
100
AcDbLine
 10
45.96422072537023
 20
23.63141995667804
 30
0.0
 11
48.83103858542991
 21
25.28657801990112
 31
0.0
  0
LINE
  5
1D2
330
6C
100
AcDbEntity
  8
Visible Narrow (ANSI)
100
AcDbLine
 10
49.55991254570934
 20
25.70739359707376
 30
0.0
 11
56.49252086995038
 21
29.70993687926056
 31
0.0
  0
ELLIPSE
  5
1D3
330
6C
100
AcDbEntity
  8
Visible (ANSI)
100
AcDbEllipse
 10
45.96422072537023
 20
23.5454836915354
 30
0.0
 11
-0.0526250000000063
 21
0.0911491737483106
 31
0.0
210
0.0
220
0.0
230
1.0
 40
0.577350269189626
 41
3.926990816986945
 42
5.497787143781832
  0
LINE
  5
1D4
330
6C
100
AcDbEntity
  8
Visible Narrow (ANSI)
100
AcDbLine
 10
46.03864371409011
 20
23.50251555896407
 30
0.0
 11
45.9863178122823
 21
23.5327259324584
 31
0.0
  0
LINE
  5
1D5
330
6C
100
AcDbEntity
  8
Visible Narrow (ANSI)
100
AcDbLine
 10
45.96422072537023
 20
23.57099920968939
 30
0.0
 11
45.96422072537023
 21
23.63141995667804
 31
0.0
  0
ELLIPSE
  5
1D6
330
6C
100
AcDbEntity
  8
Visible (ANSI)
100
AcDbEllipse
 10
45.96422072537023
 20
23.5454836915354
 30
0.0
 11
-0.0156250000000021
 21
0.0270632938682636
 31
0.0
210
0.0
220
0.0
230
1.0
 40
0.577350269189626
 41
3.926990816987089
 42
5.497787143781964
  0
LINE
  5
1D7
330
6C
100
AcDbEntity
  8
Visible (ANSI)
100
AcDbLine
 10
55.28335777132302
 20
30.4091580749591
 30
0.0
 11
55.27230922786698
 21
30.4027791954206
 31
0.0
  0
LINE
  5
1D8
330
6C
100
AcDbEntity
  8
Visible (ANSI)
100
AcDbLine
 10
55.18975451116347
 20
30.45044218333224
 30
0.0
 11
55.17870596770742
 21
30.46957882194775
 31
0.0
  0
LINE
  5
1D9
330
6C
100
AcDbEntity
  8
Visible (ANSI)
100
AcDbLine
 10
55.28335777132302
 20
30.4091580749591
 30
0.0
 11
56.47951728004771
 21
29.71855506060315
 31
0.0
  0
LINE
  5
1DA
330
6C
100
AcDbEntity
  8
Visible (ANSI)
100
AcDbLine
 10
53.98254645898273
 20
31.1601818363037
 30
0.0
 11
55.17870596770742
 21
30.46957882194775
 31
0.0
  0
ELLIPSE
  5
1DB
330
6C
100
AcDbEntity
  8
Visible (ANSI)
100
AcDbEllipse
 10
56.47951728004768
 20
26.73323943658618
 30
0.0
 11
0.0625000000000002
 21
-0.1082531754730553
 31
0.0
210
0.0
220
0.0
230
1.0
 40
0.5773502691896258
 41
5.671758221632959
 42
7.068583470577041
  0
LINE
  5
1DC
330
6C
100
AcDbEntity
  8
Visible (ANSI)
100
AcDbLine
 10
56.56790562769604
 20
29.5654619516792
 30
0.0
 11
56.567905627696
 21
26.68220840027819
 31
0.0
  0
ELLIPSE
  5
1DD
330
6C
100
AcDbEntity
  8
Visible (ANSI)
100
AcDbEllipse
 10
56.47951728004771
 20
29.61649298798718
 30
0.0
 11
0.0624999999999929
 21
-0.1082531754730576
 31
0.0
210
0.0
220
0.0
230
1.0
 40
0.5773502691896259
 41
0.7853981633976766
 42
2.356194490192518
  0
ELLIPSE
  5
1DE
330
6C
100
AcDbEntity
  8
Visible (ANSI)
100
AcDbEllipse
 10
53.98254645898273
 20
31.05811976368774
 30
0.0
 11
-0.0625000000000001
 21
0.108253175473055
 31
0.0
210
0.0
220
0.0
230
1.0
 40
0.5773502691896257
 41
5.497787143782137
 42
6.894612392726743
  0
LINE
  5
1DF
330
6C
100
AcDbEntity
  8
Visible (ANSI)
100
AcDbLine
 10
56.86621630100907
 20
25.757270867196
 30
0.0
 11
55.93000692271811
 21
26.29779160377016
 31
0.0
  0
ELLIPSE
  5
1E0
330
6C
100
AcDbEntity
  8
Visible (ANSI)
100
AcDbEllipse
 10
56.95460464865739
 20
26.11448812135188
 30
0.0
 11
0.1874999999999992
 21
-0.324759526419164
 31
0.0
210
0.0
220
0.0
230
1.0
 40
0.5773502691896258
 41
0.0
 42
0.7853981633974412
  0
LINE
  5
1E1
330
6C
100
AcDbEntity
  8
Visible Narrow (ANSI)
100
AcDbLine
 10
57.13138134395403
 20
25.91036397611994
 30
0.0
 11
57.21976969160234
 21
25.96139501242793
 31
0.0
  0
ELLIPSE
  5
1E2
330
6C
100
AcDbEntity
  8
Visible (ANSI)
100
AcDbEllipse
 10
56.86621630100907
 20
26.06345708504389
 30
0.0
 11
0.1875000000000002
 21
-0.3247595264191651
 31
0.0
210
0.0
220
0.0
230
1.0
 40
0.5773502691896259
 41
5.497787143782137
 42
7.068583470577024
  0
LINE
  5
1E3
330
6C
100
AcDbEntity
  8
Visible (ANSI)
100
AcDbLine
 10
57.21976969160234
 20
25.96139501242793
 30
0.0
 11
57.21976969160238
 21
29.73769169921863
 31
0.0
  0
LINE
  5
1E4
330
6C
100
AcDbEntity
  8
Visible Narrow (ANSI)
100
AcDbLine
 10
57.13138134395407
 20
29.68666066291065
 30
0.0
 11
57.21976969160238
 21
29.73769169921863
 31
0.0
  0
LINE
  5
1E5
330
6C
100
AcDbEntity
  8
Visible (ANSI)
100
AcDbLine
 10
57.13138134395407
 20
29.68666066291065
 30
0.0
 11
57.13138134395403
 21
25.91036397611994
 31
0.0
  0
ELLIPSE
  5
1E6
330
6C
100
AcDbEntity
  8
Visible (ANSI)
100
AcDbEllipse
 10
56.95460464865743
 20
29.89078480814259
 30
0.0
 11
-0.1875000000000195
 21
0.3247595264191536
 31
0.0
210
0.0
220
0.0
230
1.0
 40
0.577350269189626
 41
3.926990816986993
 42
5.497787143781891
  0
LINE
  5
1E7
330
6C
100
AcDbEntity
  8
Visible Narrow (ANSI)
100
AcDbLine
 10
56.86621630100912
 20
30.1459399896825
 30
0.0
 11
56.95460464865743
 21
30.19697102599048
 31
0.0
  0
ELLIPSE
  5
1E8
330
6C
100
AcDbEntity
  8
Visible (ANSI)
100
AcDbEllipse
 10
56.86621630100912
 20
29.8397537718346
 30
0.0
 11
0.1874999999999808
 21
-0.3247595264191761
 31
0.0
210
0.0
220
0.0
230
1.0
 40
0.5773502691896259
 41
0.7853981633976926
 42
2.356194490192592
  0
LINE
  5
1E9
330
6C
100
AcDbEntity
  8
Visible (ANSI)
100
AcDbLine
 10
56.95460464865743
 20
30.19697102599048
 30
0.0
 11
53.68423578566965
 21
32.0851193693859
 31
0.0
  0
LINE
  5
1EA
330
6C
100
AcDbEntity
  8
Visible Narrow (ANSI)
100
AcDbLine
 10
53.59584743802134
 20
32.03408833307792
 30
0.0
 11
53.68423578566965
 21
32.0851193693859
 31
0.0
  0
LINE
  5
1EB
330
6C
100
AcDbEntity
  8
Visible (ANSI)
100
AcDbLine
 10
53.59584743802134
 20
32.03408833307792
 30
0.0
 11
56.86621630100912
 21
30.1459399896825
 31
0.0
  0
ELLIPSE
  5
1EC
330
6C
100
AcDbEntity
  8
Visible (ANSI)
100
AcDbEllipse
 10
53.68423578566965
 20
31.778933151538
 30
0.0
 11
-0.1874999999999994
 21
0.3247595264191637
 31
0.0
210
0.0
220
0.0
230
1.0
 40
0.5773502691896258
 41
5.497787143782137
 42
6.283185307179564
  0
ELLIPSE
  5
1ED
330
6C
100
AcDbEntity
  8
Visible (ANSI)
100
AcDbEllipse
 10
53.59584743802134
 20
31.72790211523002
 30
0.0
 11
-0.1875000000000001
 21
0.3247595264191649
 31
0.0
210
0.0
220
0.0
230
1.0
 40
0.5773502691896259
 41
5.497787143782137
 42
7.068583470577024
  0
LINE
  5
1EE
330
6C
100
AcDbEntity
  8
Visible (ANSI)
100
AcDbLine
 10
53.33068239507636
 20
30.79995375100562
 30
0.0
 11
53.33068239507638
 21
31.88099522415397
 31
0.0
  0
LINE
  5
1EF
330
6C
100
AcDbEntity
  8
Visible (ANSI)
100
AcDbLine
 10
57.05371630100907
 20
25.73869755862473
 30
0.0
 11
57.1421046486574
 21
25.78972859493271
 31
0.0
  0
LINE
  5
1F0
330
6C
100
AcDbEntity
  8
Visible (ANSI)
100
AcDbLine
 10
53.40834743802133
 20
32.05266164164918
 30
0.0
 11
53.49673578566965
 21
32.10369267795716
 31
0.0
  0
ELLIPSE
  5
1F1
330
6C
100
AcDbEntity
  8
Visible (ANSI)
100
AcDbEllipse
 10
56.86621630100907
 20
26.06345708504389
 30
0.0
 11
0.0703125
 21
-0.1217848224071867
 31
0.0
210
0.0
220
0.0
230
1.0
 40
0.5773502691896258
 41
0.0
 42
6.283185307179586
  0
ELLIPSE
  5
1F2
330
6C
100
AcDbEntity
  8
Visible (ANSI)
100
AcDbEllipse
 10
56.95460464865739
 20
26.11448812135188
 30
0.0
 11
0.0703125000000073
 21
-0.1217848224071825
 31
0.0
210
0.0
220
0.0
230
1.0
 40
0.5773502691896258
 41
3.821266472497704
 42
5.603511488270996
  0
ELLIPSE
  5
1F3
330
6C
100
AcDbEntity
  8
Visible (ANSI)
100
AcDbEllipse
 10
56.86621630100912
 20
29.8397537718346
 30
0.0
 11
0.0703125
 21
-0.1217848224071867
 31
0.0
210
0.0
220
0.0
230
1.0
 40
0.5773502691896258
 41
0.0
 42
6.283185307179586
  0
ELLIPSE
  5
1F4
330
6C
100
AcDbEntity
  8
Visible (ANSI)
100
AcDbEllipse
 10
56.95460464865743
 20
29.89078480814259
 30
0.0
 11
0.0703125000000072
 21
-0.1217848224071824
 31
0.0
210
0.0
220
0.0
230
1.0
 40
0.577350269189626
 41
3.821266472497706
 42
5.603511488270997
  0
ELLIPSE
  5
1F5
330
6C
100
AcDbEntity
  8
Visible (ANSI)
100
AcDbEllipse
 10
53.59584743802134
 20
31.72790211523002
 30
0.0
 11
0.0703125
 21
-0.1217848224071867
 31
0.0
210
0.0
220
0.0
230
1.0
 40
0.5773502691896258
 41
0.0
 42
6.283185307179586
  0
ELLIPSE
  5
1F6
330
6C
100
AcDbEntity
  8
Visible (ANSI)
100
AcDbEllipse
 10
53.68423578566965
 20
31.778933151538
 30
0.0
 11
0.0703125000000073
 21
-0.1217848224071826
 31
0.0
210
0.0
220
0.0
230
1.0
 40
0.5773502691896258
 41
3.821266472497661
 42
5.603511488271
  0
ELLIPSE
  5
1F7
330
6C
100
AcDbEntity
  8
Visible (ANSI)
100
AcDbEllipse
 10
46.05434148463243
 20
27.37430152089431
 30
0.0
 11
-0.1874999999999995
 21
0.3247595264191649
 31
0.0
210
0.0
220
0.0
230
0.9999999999999998
 40
0.5773502691896257
 41
5.49778714378214
 42
6.444157125781474
  0
LINE
  5
1F8
330
6C
100
AcDbEntity
  8
Visible Narrow (ANSI)
100
AcDbLine
 10
46.14272983228075
 20
27.7315187750502
 30
0.0
 11
46.05434148463243
 21
27.6804877387422
 31
0.0
  0
ELLIPSE
  5
1F9
330
6C
100
AcDbEntity
  8
Visible (ANSI)
100
AcDbEllipse
 10
46.14272983228075
 20
27.42533255720229
 30
0.0
 11
-0.1875000000000003
 21
0.324759526419166
 31
0.0
210
0.0
220
0.0
230
1.0
 40
0.5773502691896257
 41
5.497787143782139
 42
6.283185307179606
  0
LINE
  5
1FA
330
6C
100
AcDbEntity
  8
Visible (ANSI)
100
AcDbLine
 10
46.05434148463243
 20
27.6804877387422
 30
0.0
 11
49.3247103476202
 21
25.79233939534685
 31
0.0
  0
LINE
  5
1FB
330
6C
100
AcDbEntity
  8
Visible Narrow (ANSI)
100
AcDbLine
 10
49.41309869526851
 20
25.84337043165483
 30
0.0
 11
49.3247103476202
 21
25.79233939534685
 31
0.0
  0
LINE
  5
1FC
330
6C
100
AcDbEntity
  8
Visible (ANSI)
100
AcDbLine
 10
49.41309869526851
 20
25.84337043165483
 30
0.0
 11
46.14272983228075
 21
27.7315187750502
 31
0.0
  0
ELLIPSE
  5
1FD
330
6C
100
AcDbEntity
  8
Visible (ANSI)
100
AcDbEllipse
 10
49.3247103476202
 20
25.48615317749895
 30
0.0
 11
0.1874999999999804
 21
-0.3247595264191764
 31
0.0
210
0.0
220
0.0
230
1.0
 40
0.5773502691896255
 41
0.7853981633976935
 42
2.356194490192592
  0
LINE
  5
1FE
330
6C
100
AcDbEntity
  8
Visible Narrow (ANSI)
100
AcDbLine
 10
49.67826373821348
 20
25.38409110488298
 30
0.0
 11
49.58987539056516
 21
25.333060068575
 31
0.0
  0
ELLIPSE
  5
1FF
330
6C
100
AcDbEntity
  8
Visible (ANSI)
100
AcDbEllipse
 10
49.41309869526851
 20
25.53718421380693
 30
0.0
 11
-0.1875000000000192
 21
0.3247595264191539
 31
0.0
210
0.0
220
0.0
230
1.0
 40
0.5773502691896258
 41
3.926990816986993
 42
5.497787143781891
  0
LINE
  5
200
330
6C
100
AcDbEntity
  8
Visible (ANSI)
100
AcDbLine
 10
49.58987539056516
 20
25.333060068575
 30
0.0
 11
49.58987539056516
 21
21.55676338178427
 31
0.0
  0
LINE
  5
201
330
6C
100
AcDbEntity
  8
Visible Narrow (ANSI)
100
AcDbLine
 10
49.67826373821348
 20
21.60779441809225
 30
0.0
 11
49.58987539056516
 21
21.55676338178427
 31
0.0
  0
LINE
  5
202
330
6C
100
AcDbEntity
  8
Visible (ANSI)
100
AcDbLine
 10
49.67826373821348
 20
21.60779441809225
 30
0.0
 11
49.67826373821348
 21
25.38409110488298
 31
0.0
  0
ELLIPSE
  5
203
330
6C
100
AcDbEntity
  8
Visible (ANSI)
100
AcDbEllipse
 10
49.3247103476202
 20
21.70985649070821
 30
0.0
 11
0.1875000000000006
 21
-0.3247595264191665
 31
0.0
210
0.0
220
0.0
230
1.0
 40
0.5773502691896258
 41
6.129268149547534
 42
7.068583470577034
  0
ELLIPSE
  5
204
330
6C
100
AcDbEntity
  8
Visible (ANSI)
100
AcDbEllipse
 10
49.41309869526851
 20
21.7608875270162
 30
0.0
 11
0.187500000000003
 21
-0.3247595264191677
 31
0.0
210
0.0
220
0.0
230
1.0
 40
0.5773502691896257
 41
0.0
 42
0.7853981633974288
  0
LINE
  5
205
330
6C
100
AcDbEntity
  8
Visible (ANSI)
100
AcDbLine
 10
45.95522983228074
 20
27.75009208362146
 30
0.0
 11
45.86684148463242
 21
27.69906104731348
 31
0.0
  0
LINE
  5
206
330
6C
100
AcDbEntity
  8
Visible (ANSI)
100
AcDbLine
 10
49.60059869526852
 20
21.43612800059703
 30
0.0
 11
49.51221034762021
 21
21.38509696428905
 31
0.0
  0
ELLIPSE
  5
207
330
6C
100
AcDbEntity
  8
Visible (ANSI)
100
AcDbEllipse
 10
49.26460627121937
 20
25.45096217486094
 30
0.0
 11
0.0703125000000074
 21
-0.1217848224071828
 31
0.0
210
0.0
220
0.0
230
1.0
 40
0.5773502691896259
 41
3.821266472497706
 42
5.603511488271001
  0
ELLIPSE
  5
208
330
6C
100
AcDbEntity
  8
Visible (ANSI)
100
AcDbEllipse
 10
49.17621792357106
 20
25.39993113855296
 30
0.0
 11
-0.0703125
 21
0.1217848224071868
 31
0.0
210
0.0
220
0.0
230
1.0
 40
0.5773502691896257
 41
0.0
 42
6.283185307179586
  0
ELLIPSE
  5
209
330
6C
100
AcDbEntity
  8
Visible (ANSI)
100
AcDbEllipse
 10
49.26460627121935
 20
21.67466548807022
 30
0.0
 11
0.0703125000000074
 21
-0.1217848224071828
 31
0.0
210
0.0
220
0.0
230
1.0
 40
0.5773502691896259
 41
3.821266472497685
 42
5.603511488271001
  0
ELLIPSE
  5
20A
330
6C
100
AcDbEntity
  8
Visible (ANSI)
100
AcDbEllipse
 10
49.17621792357103
 20
21.62363445176224
 30
0.0
 11
-0.0703125
 21
0.1217848224071868
 31
0.0
210
0.0
220
0.0
230
1.0
 40
0.5773502691896257
 41
0.0
 42
6.283185307179586
  0
ELLIPSE
  5
20B
330
6C
100
AcDbEntity
  8
Visible (ANSI)
100
AcDbEllipse
 10
45.99423740823159
 20
27.33911051825634
 30
0.0
 11
0.0703125000000071
 21
-0.1217848224071822
 31
0.0
210
0.0
220
0.0
230
1.0
 40
0.5773502691896258
 41
3.821266472497704
 42
5.603511488271001
  0
ELLIPSE
  5
20C
330
6C
100
AcDbEntity
  8
Visible (ANSI)
100
AcDbEllipse
 10
45.90584906058327
 20
27.28807948194836
 30
0.0
 11
-0.0703125
 21
0.1217848224071868
 31
0.0
210
0.0
220
0.0
230
1.0
 40
0.5773502691896257
 41
0.0
 42
6.283185307179586
  0
ELLIPSE
  5
20D
330
6C
100
AcDbEntity
  8
Visible (ANSI)
100
AcDbEllipse
 10
46.3148573004911
 20
26.58014632766223
 30
0.0
 11
-0.171875
 21
0.2976962325509008
 31
0.0
210
0.0
220
0.0
230
1.0
 40
0.5773502691896258
 41
5.497787143782097
 42
7.068583470577022
  0
LINE
  5
20E
330
6C
100
AcDbEntity
  8
Visible Narrow (ANSI)
100
AcDbLine
 10
46.1104924383744
 20
26.74282691920016
 30
0.0
 11
46.07178934445822
 21
26.72048167750918
 31
0.0
  0
LINE
  5
20F
330
6C
100
AcDbEntity
  8
Visible (ANSI)
100
AcDbLine
 10
46.3148573004911
 20
26.86081702735613
 30
0.0
 11
48.76763394773194
 21
25.44470576980958
 31
0.0
  0
ELLIPSE
  5
210
330
6C
100
AcDbEntity
  8
Visible (ANSI)
100
AcDbEllipse
 10
48.76763394773194
 20
25.16403507011568
 30
0.0
 11
0.1718749999999822
 21
-0.2976962325509111
 31
0.0
210
0.0
220
0.0
230
1.0
 40
0.5773502691896258
 41
0.7853981633976792
 42
2.356194490192558
  0
LINE
  5
211
330
6C
100
AcDbEntity
  8
Visible (ANSI)
100
AcDbLine
 10
49.01070190376481
 20
25.02369972026872
 30
0.0
 11
49.01070190376479
 21
22.19147720517569
 31
0.0
  0
ELLIPSE
  5
212
330
6C
100
AcDbEntity
  8
Visible (ANSI)
100
AcDbEllipse
 10
48.76763394773192
 20
22.33181255502264
 30
0.0
 11
0.171875
 21
-0.2976962325509008
 31
0.0
210
0.0
220
0.0
230
1.0
 40
0.5773502691896258
 41
5.497787143782097
 42
7.068583470577013
  0
LINE
  5
213
330
6C
100
AcDbEntity
  8
Visible Narrow (ANSI)
100
AcDbLine
 10
48.80633704164812
 20
22.07348709701973
 30
0.0
 11
48.76763394773191
 21
22.05114185532874
 31
0.0
  0
LINE
  5
214
330
6C
100
AcDbEntity
  8
Visible (ANSI)
100
AcDbLine
 10
48.76763394773191
 20
22.05114185532874
 30
0.0
 11
48.67111387209995
 21
22.10686774697705
 31
0.0
  0
LINE
  5
215
330
6C
100
AcDbEntity
  8
Visible (ANSI)
100
AcDbLine
 10
46.07178934445822
 20
26.60902989421254
 30
0.0
 11
46.07178934445822
 21
26.72048167750918
 31
0.0
  0
ELLIPSE
  5
216
330
6C
100
AcDbEntity
  8
Visible (ANSI)
100
AcDbEllipse
 10
45.90584906058327
 20
27.28856937989692
 30
0.0
 11
-0.1875000000000002
 21
0.324759526419165
 31
0.0
210
0.0
220
0.0
230
1.0
 40
0.5773502691896255
 41
5.497787143782137
 42
7.068583470577024
  0
LINE
  5
217
330
6C
100
AcDbEntity
  8
Visible Narrow (ANSI)
100
AcDbLine
 10
45.99423740823159
 20
27.64578663405279
 30
0.0
 11
45.90584906058327
 21
27.59475559774481
 31
0.0
  0
ELLIPSE
  5
218
330
6C
100
AcDbEntity
  8
Visible (ANSI)
100
AcDbEllipse
 10
45.99423740823159
 20
27.3396004162049
 30
0.0
 11
-0.1874999999999993
 21
0.3247595264191635
 31
0.0
210
0.0
220
0.0
230
1.0
 40
0.5773502691896258
 41
5.497787143782137
 42
6.283185307179565
  0
LINE
  5
219
330
6C
100
AcDbEntity
  8
Visible (ANSI)
100
AcDbLine
 10
45.90584906058327
 20
27.59475559774481
 30
0.0
 11
49.17664218763977
 21
25.70636230537513
 31
0.0
  0
LINE
  5
21A
330
6C
100
AcDbEntity
  8
Visible Narrow (ANSI)
100
AcDbLine
 10
49.26503053528809
 20
25.75739334168311
 30
0.0
 11
49.17664218763977
 21
25.70636230537513
 31
0.0
  0
LINE
  5
21B
330
6C
100
AcDbEntity
  8
Visible (ANSI)
100
AcDbLine
 10
49.26503053528809
 20
25.75739334168311
 30
0.0
 11
45.99423740823159
 21
27.64578663405279
 31
0.0
  0
ELLIPSE
  5
21C
330
6C
100
AcDbEntity
  8
Visible (ANSI)
100
AcDbEllipse
 10
49.17664218763977
 20
25.40017608752723
 30
0.0
 11
0.187499999999981
 21
-0.3247595264191765
 31
0.0
210
0.0
220
0.0
230
0.9999999999999998
 40
0.5773502691896258
 41
0.7853981633976926
 42
2.356194490192592
  0
LINE
  5
21D
330
6C
100
AcDbEntity
  8
Visible Narrow (ANSI)
100
AcDbLine
 10
49.53019557823305
 20
25.29811401491127
 30
0.0
 11
49.44180723058472
 21
25.24708297860328
 31
0.0
  0
ELLIPSE
  5
21E
330
6C
100
AcDbEntity
  8
Visible (ANSI)
100
AcDbEllipse
 10
49.26503053528809
 20
25.45120712383522
 30
0.0
 11
-0.1875000000000198
 21
0.3247595264191541
 31
0.0
210
0.0
220
0.0
230
1.0
 40
0.5773502691896258
 41
3.926990816986995
 42
5.497787143781891
  0
LINE
  5
21F
330
6C
100
AcDbEntity
  8
Visible (ANSI)
100
AcDbLine
 10
49.44180723058472
 20
25.24708297860328
 30
0.0
 11
49.4418072305847
 21
21.47029639386401
 31
0.0
  0
LINE
  5
220
330
6C
100
AcDbEntity
  8
Visible Narrow (ANSI)
100
AcDbLine
 10
49.53019557823302
 20
21.52132743017199
 30
0.0
 11
49.4418072305847
 21
21.47029639386401
 31
0.0
  0
LINE
  5
221
330
6C
100
AcDbEntity
  8
Visible (ANSI)
100
AcDbLine
 10
49.53019557823302
 20
21.52132743017199
 30
0.0
 11
49.53019557823305
 21
25.29811401491127
 31
0.0
  0
ELLIPSE
  5
222
330
6C
100
AcDbEntity
  8
Visible (ANSI)
100
AcDbEllipse
 10
49.17664218763974
 20
21.62338950278796
 30
0.0
 11
0.1875
 21
-0.3247595264191645
 31
0.0
210
0.0
220
0.0
230
0.9999999999999998
 40
0.5773502691896257
 41
5.497787143782137
 42
7.068583470577032
  0
ELLIPSE
  5
223
330
6C
100
AcDbEntity
  8
Visible (ANSI)
100
AcDbEllipse
 10
49.26503053528806
 20
21.67442053909594
 30
0.0
 11
0.1875000000000014
 21
-0.3247595264191658
 31
0.0
210
0.0
220
0.0
230
1.0
 40
0.5773502691896259
 41
0.0000000000000173
 42
0.7853981633974431
  0
LINE
  5
224
330
6C
100
AcDbEntity
  8
Visible (ANSI)
100
AcDbLine
 10
49.17664218763974
 20
21.31720328494006
 30
0.0
 11
48.24000854528003
 21
21.85796897048851
 31
0.0
  0
LINE
  5
225
330
6C
100
AcDbEntity
  8
Visible (ANSI)
100
AcDbLine
 10
45.6406840176383
 20
26.36013111772399
 30
0.0
 11
45.64068401763832
 21
27.44166248882086
 31
0.0
  0
LINE
  5
226
330
6C
100
AcDbEntity
  8
Visible (ANSI)
100
AcDbLine
 10
45.80673740823159
 20
27.66435994262406
 30
0.0
 11
45.71834906058326
 21
27.61332890631608
 31
0.0
  0
LINE
  5
227
330
6C
100
AcDbEntity
  8
Visible (ANSI)
100
AcDbLine
 10
49.45253053528806
 20
21.34966101267678
 30
0.0
 11
49.36414218763975
 21
21.29862997636879
 31
0.0
  0
ELLIPSE
  5
228
330
6C
100
AcDbEntity
  8
Visible Narrow (ANSI)
100
AcDbEllipse
 10
49.01556326288545
 20
25.11938291334621
 30
0.0
 11
-0.1049999999999997
 21
-0.0000000000000004
 31
0.0
210
0.0
220
0.0
230
1.0
 40
0.5773502691896259
 41
0.0
 42
1.50726410004912
  0
ELLIPSE
  5
229
330
6C
100
AcDbEntity
  8
Visible Narrow (ANSI)
100
AcDbEllipse
 10
48.85292870321254
 20
25.40107423376627
 30
0.0
 11
-0.0524999999999988
 21
-0.0909326673973661
 31
0.0
210
0.0
220
0.0
230
1.0
 40
0.5773502691896264
 41
4.77592120713071
 42
6.283185307179599
  0
ELLIPSE
  5
22A
330
6C
100
AcDbEntity
  8
Visible Narrow (ANSI)
100
AcDbEllipse
 10
46.37805496905963
 20
26.8299432503898
 30
0.0
 11
-0.052499999999999
 21
-0.0909326673973659
 31
0.0
210
0.0
220
0.0
230
1.0
 40
0.577350269189626
 41
4.758704195355278
 42
6.283185307179612
  0
ELLIPSE
  5
22B
330
6C
100
AcDbEntity
  8
Visible Narrow (ANSI)
100
AcDbEllipse
 10
46.21542040938672
 20
26.73604614358311
 30
0.0
 11
-0.1049999999999989
 21
0.0000000000000011
 31
0.0
210
0.0
220
0.0
230
1.0
 40
0.5773502691896285
 41
0.0
 42
1.325572733704238
  0
ELLIPSE
  5
22C
330
6C
100
AcDbEntity
  8
Visible Narrow (ANSI)
100
AcDbEllipse
 10
48.85292870321254
 20
22.1677477732925
 30
0.0
 11
-0.0525
 21
-0.0909326673973659
 31
0.0
210
0.0
220
0.0
230
1.0
 40
0.5773502691896259
 41
4.957612573475544
 42
6.283185307179653
  0
ELLIPSE
  5
22D
330
6C
100
AcDbEntity
  8
Visible Narrow (ANSI)
100
AcDbEllipse
 10
49.01556326288545
 20
22.26164488009918
 30
0.0
 11
-0.1049999999999997
 21
-0.0000000000000005
 31
0.0
210
0.0
220
0.0
230
1.0
 40
0.5773502691896258
 41
0.0
 42
1.524481111824123
  0
SPLINE
  5
22E
330
6C
100
AcDbEntity
  8
Visible (ANSI)
100
AcDbSpline
210
0.0
220
0.0
230
1.0
 70
     8
 71
     3
 72
    20
 73
    16
 74
     0
 42
0.0000000001
 43
0.0000000001
 40
4.712388980384684
 40
4.712388980384684
 40
4.712388980384684
 40
4.712388980384684
 40
4.929239042760327
 40
4.929239042760327
 40
5.162614502709717
 40
5.162614502709717
 40
5.410525328331494
 40
5.410525328331494
 40
5.665966602219489
 40
5.665966602219489
 40
5.919916073912545
 40
5.919916073912545
 40
6.163161521291378
 40
6.163161521291378
 40
6.283185307179586
 40
6.283185307179586
 40
6.283185307179586
 40
6.283185307179586
 10
48.80042870321254
 20
25.31014156636891
 30
0.0
 10
48.80649216054502
 20
25.30664082764578
 30
0.0
 10
48.81347200358003
 20
25.30182303212591
 30
0.0
 10
48.82863763544445
 20
25.28920905885633
 30
0.0
 10
48.83687300259554
 20
25.28122178728561
 30
0.0
 10
48.85343673972466
 20
25.26241440211917
 30
0.0
 10
48.86173920403319
 20
25.25145305676543
 30
0.0
 10
48.87709087780426
 20
25.22771525165294
 30
0.0
 10
48.88409347817154
 20
25.21489574653247
 30
0.0
 10
48.89574266713085
 20
25.18921704156138
 30
0.0
 10
48.90039924866576
 20
25.17635958998055
 30
0.0
 10
48.90696053145463
 20
25.15264109229222
 30
0.0
 10
48.90896605336791
 20
25.14172169045838
 30
0.0
 10
48.91035931669784
 20
25.12757769047753
 30
0.0
 10
48.91056326288545
 20
25.12325814317416
 30
0.0
 10
48.91056326288545
 20
25.11938291334621
 30
0.0
  0
LINE
  5
22F
330
6C
100
AcDbEntity
  8
Visible (ANSI)
100
AcDbLine
 10
46.32555496905962
 20
26.73901058299243
 30
0.0
 11
48.80042870321254
 21
25.31014156636891
 31
0.0
  0
SPLINE
  5
230
330
6C
100
AcDbEntity
  8
Visible (ANSI)
100
AcDbSpline
210
0.0
220
0.0
230
1.0
 70
     8
 71
     3
 72
    12
 73
     8
 74
     0
 42
0.0000000001
 43
0.0000000001
 40
4.275516375558882
 40
4.275516375558882
 40
4.275516375558882
 40
4.275516375558882
 40
4.4373099315459
 40
4.4373099315459
 40
4.649374751283255
 40
4.649374751283255
 40
4.712388980384684
 40
4.712388980384684
 40
4.712388980384684
 40
4.712388980384684
 10
46.30524070914299
 20
26.74711040037732
 30
0.0
 10
46.30524070914299
 20
26.74711040037732
 30
0.0
 10
46.30627211538002
 20
26.74706088519935
 30
0.0
 10
46.31089802758553
 20
26.74589767845937
 30
0.0
 10
46.31516974829286
 20
26.74443653500973
 30
0.0
 10
46.32210916396725
 20
26.74093566056806
 30
0.0
 10
46.32379299543919
 20
26.74002785893649
 30
0.0
 10
46.32555496905962
 20
26.73901058299243
 30
0.0
  0
SPLINE
  5
231
330
6C
100
AcDbEntity
  8
Visible (ANSI)
100
AcDbSpline
210
0.0
220
0.0
230
1.0
 70
     8
 71
     3
 72
    10
 73
     6
 74
     0
 42
0.0000000001
 43
0.0000000001
 40
3.141592653589797
 40
3.141592653589797
 40
3.141592653589797
 40
3.141592653589797
 40
3.455751918948775
 40
3.455751918948775
 40
3.549545935892938
 40
3.549545935892938
 40
3.549545935892938
 40
3.549545935892938
 10
46.11042040938672
 20
26.73604614358311
 30
0.0
 10
46.11042040938672
 20
26.76523435430782
 30
0.0
 10
46.11428978016092
 20
26.79447378453086
 30
0.0
 10
46.12670112513218
 20
26.83141556414476
 30
0.0
 10
46.13007029188939
 20
26.83982710500183
 30
0.0
 10
46.13401416549983
 20
26.84808688049133
 30
0.0
  0
LINE
  5
232
330
6C
100
AcDbEntity
  8
Visible (ANSI)
100
AcDbLine
 10
46.11042040938672
 20
26.63133354994809
 30
0.0
 11
46.11042040938672
 21
26.73604614358311
 31
0.0
  0
LINE
  5
233
330
6C
100
AcDbEntity
  8
Visible (ANSI)
100
AcDbLine
 10
48.80042870321254
 20
22.07681510589513
 30
0.0
 11
48.70974493702846
 21
22.12917140271263
 31
0.0
  0
SPLINE
  5
234
330
6C
100
AcDbEntity
  8
Visible (ANSI)
100
AcDbSpline
210
0.0
220
0.0
230
1.0
 70
     8
 71
     3
 72
    12
 73
     8
 74
     0
 42
0.0000000001
 43
0.0000000001
 40
6.283185307179585
 40
6.283185307179585
 40
6.283185307179585
 40
6.283185307179585
 40
6.500035369555229
 40
6.500035369555229
 40
6.70926368147936
 40
6.70926368147936
 40
6.720057912005392
 40
6.720057912005392
 40
6.720057912005392
 40
6.720057912005392
 10
48.91056326288545
 20
22.26164488009918
 30
0.0
 10
48.91056326288545
 20
22.25464340265293
 30
0.0
 10
48.90987259559995
 20
22.24911240446628
 30
0.0
 10
48.9083307469143
 20
22.24192152876792
 30
0.0
 10
48.90750584912773
 20
22.24016946185808
 30
0.0
 10
48.90742286757763
 20
22.24000626218042
 30
0.0
 10
48.90742078054846
 20
22.24000230625986
 30
0.0
 10
48.90742078054846
 20
22.24000230625986
 30
0.0
  0
SPLINE
  5
235
330
6C
100
AcDbEntity
  8
Visible (ANSI)
100
AcDbSpline
210
0.0
220
0.0
230
1.0
 70
     8
 71
     3
 72
    10
 73
     6
 74
     0
 42
0.0000000001
 43
0.0000000001
 40
1.162843044491224
 40
1.162843044491224
 40
1.162843044491224
 40
1.162843044491224
 40
1.305288965130346
 40
1.305288965130346
 40
1.570796326794896
 40
1.570796326794896
 40
1.570796326794896
 40
1.570796326794896
 10
48.90925570569049
 20
22.04122752960566
 30
0.0
 10
48.89539730563633
 20
22.04231248548185
 30
0.0
 10
48.88190583051112
 20
22.04471696334576
 30
0.0
 10
48.84455299137499
 20
22.05455404282015
 30
0.0
 10
48.82179182907432
 20
22.06448109942811
 30
0.0
 10
48.80042870321254
 20
22.07681510589513
 30
0.0
  0
LINE
  5
236
330
6C
100
AcDbEntity
  8
Visible (ANSI)
100
AcDbLine
 10
48.91056326288545
 20
25.11938291334621
 30
0.0
 11
48.91056326288545
 21
22.26164488009918
 31
0.0
  0
MTEXT
  5
237
330
6C
100
AcDbEntity
  8
Symbol (ANSI)
100
AcDbMText
 10
49.87868014194435
 20
16.15671914885157
 30
0.0
 40
0.6399999870507214
 41
0.0
 46
0.0
 71
     7
 72
     1
  1
 
  7
Label Text (ANSI)
 73
     1
 44
1.0
  0
LINE
  5
238
330
6C
100
AcDbEntity
  8
Center Mark (ANSI)
  6
CHAIN
 48
0.1132835820317268
100
AcDbLine
 10
9.111400283756081
 20
14.6292585837615
 30
0.0
 11
9.837094728200527
 21
14.62925858376151
 31
0.0
  0
LINE
  5
239
330
6C
100
AcDbEntity
  8
Center Mark (ANSI)
  6
CHAIN
 48
0.1132835820317268
100
AcDbLine
 10
14.46209472820052
 20
14.62925858376158
 30
0.0
 11
13.73640028375608
 21
14.62925858376157
 31
0.0
  0
LINE
  5
23A
330
6C
100
AcDbEntity
  8
Centerline (ANSI)
  6
CHAIN
 48
0.4762240648269654
100
AcDbLine
 10
9.111400283756081
 20
14.6292585837615
 30
0.0
 11
14.46209472820052
 21
14.62925858376158
 31
0.0
  0
LINE
  5
23B
330
6C
100
AcDbEntity
  8
Center Mark (ANSI)
  6
CHAIN
 48
0.1132835820317268
100
AcDbLine
 10
14.09924750597837
 20
9.641411361539358
 30
0.0
 11
14.09924750597836
 21
10.3671058059838
 31
0.0
  0
LINE
  5
23C
330
6C
100
AcDbEntity
  8
Centerline (ANSI)
  6
CHAIN
 48
0.4762240648269654
100
AcDbLine
 10
14.09924750597829
 20
14.9921058059838
 30
0.0
 11
14.09924750597837
 21
9.641411361539358
 31
0.0
  0
LINE
  5
23D
330
6C
100
AcDbEntity
  8
Center Mark (ANSI)
  6
CHAIN
 48
0.1132835820317268
100
AcDbLine
 10
9.474247505978373
 20
9.641411361539292
 30
0.0
 11
9.474247505978363
 21
10.36710580598374
 31
0.0
  0
LINE
  5
23E
330
6C
100
AcDbEntity
  8
Centerline (ANSI)
  6
CHAIN
 48
0.4762240648269654
100
AcDbLine
 10
14.46209472820059
 20
10.00425858376158
 30
0.0
 11
9.111400283756147
 21
10.00425858376151
 31
0.0
  0
LINE
  5
23F
330
6C
100
AcDbEntity
  8
Center Mark (ANSI)
  6
CHAIN
 48
0.1132835820317268
100
AcDbLine
 10
9.111400283756147
 20
10.00425858376151
 30
0.0
 11
9.837094728200591
 21
10.00425858376152
 31
0.0
  0
LINE
  5
240
330
6C
100
AcDbEntity
  8
Centerline (ANSI)
  6
CHAIN
 48
0.4762240648269654
100
AcDbLine
 10
9.474247505978373
 20
9.641411361539292
 30
0.0
 11
9.474247505978299
 21
14.99210580598373
 31
0.0
  0
DIMENSION
  5
241
330
6C
100
AcDbEntity
  8
Dimension (ANSI)
100
AcDbDimension
280
     0
  2
*D5
 10
13.58774750597832
 20
13.24325356438022
 30
0.0
 11
11.35791682745771
 21
13.24325356438022
 31
0.0
 70
   160
  1
(<>){\POPENING}
 71
     5
 42
3.601999999999991
 73
     0
 74
     0
 75
     0
  3
Default (ANSI)
100
AcDbAlignedDimension
 13
9.985747505978327
 23
12.94407834699244
 33
0.0
 14
13.58774750597832
 24
12.94775319055226
 34
0.0
100
AcDbRotatedDimension
1001
ACAD
1000
DSTYLE
1002
{
1070
   289
1070
     1
1070
    73
1070
     0
1070
    74
1070
     0
1070
   271
1070
     2
1070
    76
1070
     1
1070
    75
1070
     1
1070
   147
1040
0.0155
1070
    72
1070
     0
1070
    71
1070
     0
1070
   272
1070
     2
1070
    48
1040
0.0
1070
    47
1040
0.0
1002
}
  0
DIMENSION
  5
33C
330
6C
100
AcDbEntity
  8
Dimension (ANSI)
100
AcDbDimension
280
     0
  2
*D6
 10
12.5338225300133
 20
10.51575858376152
 30
0.0
 11
12.5338225300133
 21
12.03863896501119
 31
0.0
 70
   160
  1
(<>){\POPENING}
 71
     5
 42
3.602000000000009
 73
     0
 74
     0
 75
     0
  3
Default (ANSI)
100
AcDbAlignedDimension
 13
12.71645660840754
 23
14.11775858376153
 33
0.0
 14
12.71073850740668
 24
10.51575858376152
 34
0.0
 50
90.0
100
AcDbRotatedDimension
1001
ACAD
1000
DSTYLE
1002
{
1070
   289
1070
     1
1070
   271
1070
     2
1070
    76
1070
     1
1070
    75
1070
     1
1070
   147
1040
0.0155
1070
    72
1070
     0
1070
    71
1070
     0
1070
   272
1070
     2
1070
    48
1040
0.0
1070
    47
1040
0.0
1002
}
  0
DIMENSION
  5
435
330
6C
100
AcDbEntity
  8
Dimension (ANSI)
100
AcDbDimension
280
     0
  2
*D7
 10
11.80315587182374
 20
14.11775858376153
 30
0.0
 11
12.5338225300133
 21
15.46914426003142
 31
0.0
 70
   160
  1
<>
 42
0.8865000000000247
 73
     0
 74
     0
 75
     0
  3
Default (ANSI)
100
AcDbAlignedDimension
 13
12.85321163080845
 23
15.00425858376156
 33
0.0
 14
12.82109120511846
 24
14.11775858376153
 34
0.0
 50
270.0
100
AcDbRotatedDimension
1001
ACAD
1000
DSTYLE
1002
{
1070
   289
1070
     2
1070
   271
1070
     2
1070
    76
1070
     1
1070
    75
1070
     1
1070
   272
1070
     2
1070
    48
1040
0.0
1070
    47
1040
0.0
1002
}
  0
DIMENSION
  5
52C
330
6C
100
AcDbEntity
  8
Dimension (ANSI)
100
AcDbDimension
280
     0
  2
*D8
 10
13.58774750597831
 20
13.24325356438022
 30
0.0
 11
15.20491416416787
 21
13.24325356438022
 31
0.0
 70
   160
  1
<>
 42
0.8864999999999998
 73
     0
 74
     0
 75
     0
  3
Default (ANSI)
100
AcDbAlignedDimension
 13
14.47424750597831
 23
13.52255560563856
 33
0.0
 14
13.58774750597831
 24
13.48171437671958
 34
0.0
 50
180.0
100
AcDbRotatedDimension
1001
ACAD
1000
DSTYLE
1002
{
1070
   289
1070
     2
1070
    73
1070
     0
1070
    74
1070
     0
1070
   271
1070
     2
1070
    76
1070
     1
1070
    75
1070
     1
1070
   272
1070
     2
1070
    48
1040
0.0
1070
    47
1040
0.0
1002
}
  0
DIMENSION
  5
60B
330
6C
100
AcDbEntity
  8
Dimension (ANSI)
100
AcDbDimension
280
     0
  2
*D9
 10
14.77981228185423
 20
10.00425858376158
 30
0.0
 11
15.5172514266649
 21
10.96459367524134
 31
0.0
 70
   160
  1
<>{\PTYP.}
 71
     5
 42
0.3750000000000053
 73
     0
 74
     0
 75
     0
  3
Default (ANSI)
100
AcDbAlignedDimension
 13
14.09924750597837
 23
9.629258583761579
 33
0.0
 14
14.46209472820059
 24
10.00425858376158
 34
0.0
 50
90.0
100
AcDbRotatedDimension
1001
ACAD
1000
DSTYLE
1002
{
1070
   289
1070
     1
1070
   271
1070
     2
1070
   272
1070
     2
1070
    48
1040
0.0
1070
    47
1040
0.0
1002
}
  0
DIMENSION
  5
721
330
6C
100
AcDbEntity
  8
Dimension (ANSI)
100
AcDbDimension
280
     0
  2
*D10
 10
16.56777561311159
 20
9.629258583761579
 30
0.0
 11
16.56777561311159
 21
11.19175858376157
 31
0.0
 70
   160
  1
<>
 42
5.374999999999996
 73
     0
 74
     0
 75
     0
  3
Default (ANSI)
100
AcDbAlignedDimension
 13
14.09924750597829
 23
15.00425858376157
 33
0.0
 14
14.09924750597837
 24
9.629258583761579
 34
0.0
 50
270.0
100
AcDbRotatedDimension
1001
ACAD
1000
DSTYLE
1002
{
1070
   289
1070
     1
1070
   271
1070
     2
1070
   272
1070
     2
1070
    48
1040
0.0
1070
    47
1040
0.0
1002
}
  0
DIMENSION
  5
80B
330
6C
100
AcDbEntity
  8
Dimension (ANSI)
100
AcDbDimension
280
     0
  2
*D11
 10
9.921972729679579
 20
14.20738358376153
 30
0.0
 11
10.65941187449025
 21
15.6424017035628
 31
0.0
 70
   160
  1
<>
 42
0.7968749999999983
 73
     0
 74
     0
 75
     0
  3
Default (ANSI)
100
AcDbAlignedDimension
 13
10.65941187449025
 23
15.00425858376153
 33
0.0
 14
10.70607206181275
 24
14.20738358376153
 34
0.0
 50
270.0
100
AcDbRotatedDimension
1001
ACAD
1000
DSTYLE
1002
{
1070
   289
1070
     2
1070
   271
1070
     2
1070
    76
1070
     1
1070
    75
1070
     1
1070
   272
1070
     2
1070
    48
1040
0.0
1070
    47
1040
0.0
1002
}
  0
DIMENSION
  5
8FA
330
6C
100
AcDbEntity
  8
Dimension (ANSI)
100
AcDbDimension
280
     0
  2
*D12
 10
9.896122505978325
 20
12.60853632831703
 30
0.0
 11
8.309877450722114
 21
12.60853632831703
 31
0.0
 70
   160
  1
<>
 42
0.7968749999999983
 73
     0
 74
     0
 75
     0
  3
Default (ANSI)
100
AcDbAlignedDimension
 13
9.099247505978327
 23
13.08427402851735
 33
0.0
 14
9.896122505978325
 24
13.045130623639
 34
0.0
100
AcDbRotatedDimension
1001
ACAD
1000
DSTYLE
1002
{
1070
   289
1070
     2
1070
    73
1070
     0
1070
    74
1070
     0
1070
   271
1070
     2
1070
    76
1070
     1
1070
    75
1070
     1
1070
   272
1070
     2
1070
    48
1040
0.0
1070
    47
1040
0.0
1002
}
  0
DIMENSION
  5
9D9
330
6C
100
AcDbEntity
  8
Dimension (ANSI)
100
AcDbDimension
280
     0
  2
*D13
 10
9.474247505978373
 20
8.860344219046474
 30
0.0
 11
10.61724498790438
 21
8.860344219046474
 31
0.0
 70
   160
  1
<>{\PTYP.}
 71
     5
 42
0.3750000000000035
 73
     0
 74
     0
 75
     0
  3
Default (ANSI)
100
AcDbAlignedDimension
 13
9.09924750597837
 23
10.00425858376151
 33
0.0
 14
9.474247505978373
 24
9.641411361539292
 34
0.0
100
AcDbRotatedDimension
1001
ACAD
1000
DSTYLE
1002
{
1070
   289
1070
     1
1070
    73
1070
     0
1070
    74
1070
     0
1070
   271
1070
     2
1070
   272
1070
     2
1070
    48
1040
0.0
1070
    47
1040
0.0
1002
}
  0
DIMENSION
  5
AD7
330
6C
100
AcDbEntity
  8
Dimension (ANSI)
100
AcDbDimension
280
     0
  2
*D14
 10
9.573684397082685
 20
14.72869547486586
 30
0.0
 11
7.396252470355754
 21
13.68863373109438
 31
0.0
 70
   163
  1
<>{\PTYP.}
 71
     5
 42
0.28125
 73
     0
 74
     0
 75
     0
  3
Default (ANSI)
100
AcDbDiametricDimension
 15
9.374810614873934
 25
14.52982169265716
 35
0.0
 40
0.0
1001
ACAD
1000
DSTYLE
1002
{
1070
   144
1040
0.9999999999999623
1070
   271
1070
     3
1070
   272
1070
     3
1070
    48
1040
0.0
1070
    47
1040
0.0
1002
}
1001
ACAD_DSTYLE_DIMRADIAL_EXTENSION
1070
   387
1070
     1
1070
   388
1040
0.0
1070
   390
1040
0.0
  0
DIMENSION
  5
B91
330
6C
100
AcDbEntity
  8
Dimension (ANSI)
100
AcDbDimension
280
     0
  2
*D15
 10
9.474247505978308
 20
14.62925858376151
 30
0.0
 11
7.651009324090644
 21
15.3019797469574
 31
0.0
 70
   164
  1
<>{\PTYP.}
 71
     5
 42
0.3750000000000035
 73
     0
 74
     0
 75
     0
  3
Default (ANSI)
100
AcDbRadialDimension
 15
9.181757846863543
 25
14.86393879023605
 35
0.0
 40
0.0
1001
ACAD
1000
DSTYLE
1002
{
1070
   271
1070
     2
1070
   141
1040
0.0
1070
   272
1070
     2
1070
    48
1040
0.0
1070
    47
1040
0.0
1002
}
1001
ACAD_DSTYLE_DIMRADIAL_EXTENSION
1070
   387
1070
     1
1070
   388
1040
0.0
1070
   390
1040
0.0
  0
DIMENSION
  5
C34
330
6C
100
AcDbEntity
  8
Dimension (ANSI)
100
AcDbDimension
280
     0
  2
*D16
 10
7.37461074613703
 20
20.98702175847244
 30
0.0
 11
7.374610746137028
 21
28.42452175847233
 31
0.0
 70
   160
  1
(<>)
 42
14.87499999999975
 73
     0
 74
     0
 75
     0
  3
Default (ANSI)
100
AcDbAlignedDimension
 13
10.01699750597908
 23
35.8620217584722
 33
0.0
 14
9.47424750597907
 24
20.98702175847244
 34
0.0
 50
270.0
100
AcDbRotatedDimension
1001
ACAD
1000
DSTYLE
1002
{
1070
   289
1070
     1
1070
   271
1070
     2
1070
   147
1040
0.0155
1070
    72
1070
     0
1070
    71
1070
     0
1070
   272
1070
     2
1070
    48
1040
0.0
1070
    47
1040
0.0
1002
}
  0
DIMENSION
  5
D28
330
6C
100
AcDbEntity
  8
Dimension (ANSI)
100
AcDbDimension
280
     0
  2
*D17
 10
8.711123954425387
 20
20.98702175847238
 30
0.0
 11
7.49961074613702
 21
19.84041067756919
 31
0.0
 70
   160
  1
 10 GA.\P304 S.S.
 71
     5
 42
0.1250000000000035
 73
     0
 74
     0
 75
     0
  3
Default (ANSI)
100
AcDbAlignedDimension
 13
9.099247505979075
 23
20.86202175847238
 33
0.0
 14
9.099247505979075
 24
20.98702175847238
 34
0.0
 50
90.0
100
AcDbRotatedDimension
1001
ACAD
1000
DSTYLE
1002
{
1070
   289
1070
     1
1070
   271
1070
     2
1070
   272
1070
     2
1070
    48
1040
0.0
1070
    47
1040
0.0
1002
}
  0
DIMENSION
  5
E3E
330
6C
100
AcDbEntity
  8
Dimension (ANSI)
100
AcDbDimension
280
     0
  2
*D18
 10
16.34342519422252
 20
35.86202175847219
 30
0.0
 11
16.34342519422252
 21
28.36202175847229
 31
0.0
 70
   160
  1
<>{\PLENGTH}
 71
     5
 42
14.99999999999975
 73
     0
 74
     0
 75
     0
  3
Default (ANSI)
100
AcDbAlignedDimension
 13
14.09924750597906
 23
20.86202175847244
 33
0.0
 14
13.58774750597907
 24
35.8620217584722
 34
0.0
 50
270.0
100
AcDbRotatedDimension
1001
ACAD
1000
DSTYLE
1002
{
1070
   289
1070
     1
1070
   271
1070
     2
1070
   272
1070
     2
1070
    48
1040
0.0
1070
    47
1040
0.0
1002
}
  0
DIMENSION
  5
F3C
330
6C
100
AcDbEntity
  8
Dimension (ANSI)
100
AcDbDimension
280
     0
  2
*D19
 10
9.911747505979077
 20
36.42244112983831
 30
0.0
 11
11.78674750597908
 21
36.42244112983831
 31
0.0
 70
   160
  1
<>
 42
3.750000000000003
 73
     0
 74
     0
 75
     0
  3
Default (ANSI)
100
AcDbAlignedDimension
 13
13.66174750597908
 23
35.86202175847218
 33
0.0
 14
9.911747505979077
 24
35.86202175847216
 34
0.0
100
AcDbRotatedDimension
1001
ACAD
1000
DSTYLE
1002
{
1070
   289
1070
     1
1070
    73
1070
     0
1070
    74
1070
     0
1070
   271
1070
     2
1070
   272
1070
     2
1070
    48
1040
0.0
1070
    47
1040
0.0
1002
}
  0
DIMENSION
  5
1026
330
6C
100
AcDbEntity
  8
Dimension (ANSI)
100
AcDbDimension
280
     0
  2
*D20
 10
39.82931713097395
 20
14.19175858376154
 30
0.0
 11
39.82931713097395
 21
12.31675858376153
 31
0.0
 70
   160
  1
<>
 42
3.750000000000014
 73
     0
 74
     0
 75
     0
  3
Default (ANSI)
100
AcDbAlignedDimension
 13
38.11100848827428
 23
10.44175858376152
 33
0.0
 14
38.11100848827428
 24
14.19175858376154
 34
0.0
 50
90.0
100
AcDbRotatedDimension
1001
ACAD
1000
DSTYLE
1002
{
1070
   289
1070
     1
1070
   271
1070
     2
1070
   272
1070
     2
1070
    48
1040
0.0
1070
    47
1040
0.0
1002
}
  0
ENDSEC
  0
SECTION
  2
OBJECTS
  0
DICTIONARY
  5
C
330
0
100
AcDbDictionary
281
     1
  3
ACAD_CIP_PREVIOUS_PRODUCT_INFO
350
1110
  3
ACAD_COLOR
350
63
  3
ACAD_GROUP
350
D
  3
ACAD_LAYOUT
350
62
  3
ACAD_MATERIAL
350
10
  3
ACAD_MLEADERSTYLE
350
66
  3
ACAD_MLINESTYLE
350
5F
  3
ACAD_PLOTSETTINGS
350
61
  3
ACAD_PLOTSTYLENAME
350
E
  3
ACAD_SCALELIST
350
42
  3
ACAD_TABLESTYLE
350
64
  3
ACAD_VISUALSTYLE
350
29
  3
ACDB_RECOMPOSE_DATA
350
1117
  3
AcDbVariableDictionary
350
76
  0
DICTIONARY
  5
1115
330
115
100
AcDbDictionary
280
     1
281
     1
  3
ACAD_MTEXT_2008_RT
360
1116
  0
XRECORD
  5
1110
102
{ACAD_REACTORS
330
C
102
}
330
C
100
AcDbXrecord
280
     1
300
INVNTOR
300
2012
300
85795PDSP_2012_0F
  0
DICTIONARY
  5
63
102
{ACAD_REACTORS
330
C
102
}
330
C
100
AcDbDictionary
281
     1
  0
DICTIONARY
  5
D
102
{ACAD_REACTORS
330
C
102
}
330
C
100
AcDbDictionary
281
     1
  0
DICTIONARY
  5
62
102
{ACAD_REACTORS
330
C
102
}
330
C
100
AcDbDictionary
281
     1
  3
Layout1
350
6B
  3
Layout2
350
73
  3
Model
350
6F
  0
DICTIONARY
  5
10
102
{ACAD_REACTORS
330
C
102
}
330
C
100
AcDbDictionary
281
     1
  3
ByBlock
350
19
  3
ByLayer
350
11
  3
Global
350
21
  0
DICTIONARY
  5
66
102
{ACAD_REACTORS
330
C
102
}
330
C
100
AcDbDictionary
281
     1
  3
Standard
350
67
  0
DICTIONARY
  5
5F
102
{ACAD_REACTORS
330
C
102
}
330
C
100
AcDbDictionary
281
     1
  3
Standard
350
60
  0
DICTIONARY
  5
61
102
{ACAD_REACTORS
330
C
102
}
330
C
100
AcDbDictionary
281
     1
  0
ACDBDICTIONARYWDFLT
  5
E
102
{ACAD_REACTORS
330
C
102
}
330
C
100
AcDbDictionary
281
     1
  3
Normal
350
F
100
AcDbDictionaryWithDefault
340
F
  0
DICTIONARY
  5
42
102
{ACAD_REACTORS
330
C
102
}
330
C
100
AcDbDictionary
281
     1
  3
A0
350
43
  3
A1
350
44
  3
A2
350
45
  3
A3
350
46
  3
A4
350
47
  3
A5
350
48
  3
A6
350
49
  3
A7
350
4A
  3
A8
350
4B
  3
A9
350
4C
  3
B0
350
4D
  3
B1
350
4E
  3
B2
350
4F
  3
B3
350
50
  3
B4
350
51
  3
B5
350
52
  3
B6
350
53
  0
DICTIONARY
  5
64
102
{ACAD_REACTORS
330
C
102
}
330
C
100
AcDbDictionary
281
     1
  3
Standard
350
65
  0
DICTIONARY
  5
29
102
{ACAD_REACTORS
330
C
102
}
330
C
100
AcDbDictionary
281
     1
  3
2dWireframe
350
2F
  3
Basic
350
2E
  3
Brighten
350
35
  3
ColorChange
350
39
  3
Conceptual
350
32
  3
Dim
350
34
  3
EdgeColorOff
350
41
  3
Facepattern
350
38
  3
Flat
350
2A
  3
FlatWithEdges
350
2B
  3
Gouraud
350
2C
  3
GouraudWithEdges
350
2D
  3
Hidden
350
31
  3
JitterOff
350
3F
  3
Linepattern
350
37
  3
OverhangOff
350
40
  3
Realistic
350
33
  3
Shaded
350
3E
  3
Shaded with edges
350
3D
  3
Shades of Gray
350
3A
  3
Sketchy
350
3B
  3
Thicken
350
36
  3
Wireframe
350
30
  3
X-Ray
350
3C
  0
XRECORD
  5
1117
102
{ACAD_REACTORS
330
C
102
}
330
C
100
AcDbXrecord
280
     1
 90
        1
330
65
330
115
330
435
330
52C
330
80B
330
8FA
  0
DICTIONARY
  5
76
102
{ACAD_REACTORS
330
C
102
}
330
C
100
AcDbDictionary
281
     1
  3
CANNOSCALE
350
79
  3
CMLEADERSTYLE
350
78
  3
CTABLESTYLE
350
77
  0
XRECORD
  5
1116
102
{ACAD_REACTORS
330
1115
102
}
330
1115
100
AcDbXrecord
280
     1
 40
3739049.0
  1
\pxsm0.94;{\fRomanS|b0|i0;\H0.5547;PART#: SSJWS4\P(DATA SUBJECT TO CHANGE WITHOUT NOTICE)\P\fRomanS|b0|i0;\H0.2844; \PTHIS DRAWING IS PROPERTY OF hUBBELL INC. WEIGMANN\PALL INFORMATION IS PROPRIETARY AND NOT TO BE DUPLICATED\P \P}
  0
LAYOUT
  5
6B
102
{ACAD_REACTORS
330
62
102
}
330
62
100
AcDbPlotSettings
  1

  2

  4

  6

 40
0.0
 41
0.0
 42
0.0
 43
0.0
 44
0.0
 45
0.0
 46
0.0
 47
0.0
 48
0.0
 49
0.0
140
0.0
141
0.0
142
1.0
143
1.0
 70
   688
 72
     0
 73
     0
 74
     5
  7

 75
    16
147
1.0
 76
     0
 77
     2
 78
   300
148
0.0
149
0.0
100
AcDbLayout
  1
Layout1
 70
     1
 71
     1
 10
0.0
 20
0.0
 11
12.0
 21
9.0
 12
0.0
 22
0.0
 32
0.0
 14
0.0
 24
0.0
 34
0.0
 15
0.0
 25
0.0
 35
0.0
146
0.0
 13
0.0
 23
0.0
 33
0.0
 16
1.0
 26
0.0
 36
0.0
 17
0.0
 27
1.0
 37
0.0
 76
     0
330
68
  0
LAYOUT
  5
73
102
{ACAD_REACTORS
330
62
102
}
330
62
100
AcDbPlotSettings
  1

  2

  4

  6

 40
0.0
 41
0.0
 42
0.0
 43
0.0
 44
0.0
 45
0.0
 46
0.0
 47
0.0
 48
0.0
 49
0.0
140
0.0
141
0.0
142
1.0
143
1.0
 70
   688
 72
     0
 73
     0
 74
     5
  7

 75
    16
147
1.0
 76
     0
 77
     2
 78
   300
148
0.0
149
0.0
100
AcDbLayout
  1
Layout2
 70
     1
 71
     2
 10
0.0
 20
0.0
 11
12.0
 21
9.0
 12
0.0
 22
0.0
 32
0.0
 14
0.0
 24
0.0
 34
0.0
 15
0.0
 25
0.0
 35
0.0
146
0.0
 13
0.0
 23
0.0
 33
0.0
 16
1.0
 26
0.0
 36
0.0
 17
0.0
 27
1.0
 37
0.0
 76
     0
330
70
  0
LAYOUT
  5
6F
102
{ACAD_REACTORS
330
62
102
}
330
62
100
AcDbPlotSettings
  1

  2

  4

  6

 40
0.0
 41
0.0
 42
0.0
 43
0.0
 44
0.0
 45
0.0
 46
0.0
 47
0.0
 48
0.0
 49
0.0
140
0.0
141
0.0
142
1.0
143
1.0
 70
  1712
 72
     0
 73
     0
 74
     0
  7

 75
     0
147
1.0
 76
     0
 77
     2
 78
   300
148
0.0
149
0.0
100
AcDbLayout
  1
Model
 70
     1
 71
     0
 10
0.0
 20
0.0
 11
12.0
 21
9.0
 12
0.0
 22
0.0
 32
0.0
 14
0.0
 24
0.0
 34
0.0
 15
0.0
 25
0.0
 35
0.0
146
0.0
 13
0.0
 23
0.0
 33
0.0
 16
1.0
 26
0.0
 36
0.0
 17
0.0
 27
1.0
 37
0.0
 76
     0
330
6C
  0
MATERIAL
  5
19
102
{ACAD_XDICTIONARY
360
1A
102
}
102
{ACAD_REACTORS
330
10
102
}
330
10
100
AcDbMaterial
  1
ByBlock
 72
     0
 43
0.0208333333333333
 43
0.0
 43
0.0
 43
0.0
 43
0.0
 43
0.0208333333333333
 43
0.0
 43
0.0
 43
0.0
 43
0.0
 43
1.0
 43
0.0
 43
0.0
 43
0.0
 43
0.0
 43
1.0
 77
     0
 47
0.0208333333333333
 47
0.0
 47
0.0
 47
0.0
 47
0.0
 47
0.0208333333333333
 47
0.0
 47
0.0
 47
0.0
 47
0.0
 47
1.0
 47
0.0
 47
0.0
 47
0.0
 47
0.0
 47
1.0
171
     0
 49
0.0208333333333333
 49
0.0
 49
0.0
 49
0.0
 49
0.0
 49
0.0208333333333333
 49
0.0
 49
0.0
 49
0.0
 49
0.0
 49
1.0
 49
0.0
 49
0.0
 49
0.0
 49
0.0
 49
1.0
175
     0
142
0.0208333333333333
142
0.0
142
0.0
142
0.0
142
0.0
142
0.0208333333333333
142
0.0
142
0.0
142
0.0
142
0.0
142
1.0
142
0.0
142
0.0
142
0.0
142
0.0
142
1.0
179
     0
144
0.0208333333333333
144
0.0
144
0.0
144
0.0
144
0.0
144
0.0208333333333333
144
0.0
144
0.0
144
0.0
144
0.0
144
1.0
144
0.0
144
0.0
144
0.0
144
0.0
144
1.0
147
0.0208333333333333
147
0.0
147
0.0
147
0.0
147
0.0
147
0.0208333333333333
147
0.0
147
0.0
147
0.0
147
0.0
147
1.0
147
0.0
147
0.0
147
0.0
147
0.0
147
1.0
  0
MATERIAL
  5
11
102
{ACAD_XDICTIONARY
360
12
102
}
102
{ACAD_REACTORS
330
10
102
}
330
10
100
AcDbMaterial
  1
ByLayer
 72
     0
 43
0.0208333333333333
 43
0.0
 43
0.0
 43
0.0
 43
0.0
 43
0.0208333333333333
 43
0.0
 43
0.0
 43
0.0
 43
0.0
 43
1.0
 43
0.0
 43
0.0
 43
0.0
 43
0.0
 43
1.0
 77
     0
 47
0.0208333333333333
 47
0.0
 47
0.0
 47
0.0
 47
0.0
 47
0.0208333333333333
 47
0.0
 47
0.0
 47
0.0
 47
0.0
 47
1.0
 47
0.0
 47
0.0
 47
0.0
 47
0.0
 47
1.0
171
     0
 49
0.0208333333333333
 49
0.0
 49
0.0
 49
0.0
 49
0.0
 49
0.0208333333333333
 49
0.0
 49
0.0
 49
0.0
 49
0.0
 49
1.0
 49
0.0
 49
0.0
 49
0.0
 49
0.0
 49
1.0
175
     0
142
0.0208333333333333
142
0.0
142
0.0
142
0.0
142
0.0
142
0.0208333333333333
142
0.0
142
0.0
142
0.0
142
0.0
142
1.0
142
0.0
142
0.0
142
0.0
142
0.0
142
1.0
179
     0
144
0.0208333333333333
144
0.0
144
0.0
144
0.0
144
0.0
144
0.0208333333333333
144
0.0
144
0.0
144
0.0
144
0.0
144
1.0
144
0.0
144
0.0
144
0.0
144
0.0
144
1.0
147
0.0208333333333333
147
0.0
147
0.0
147
0.0
147
0.0
147
0.0208333333333333
147
0.0
147
0.0
147
0.0
147
0.0
147
1.0
147
0.0
147
0.0
147
0.0
147
0.0
147
1.0
  0
MATERIAL
  5
21
102
{ACAD_XDICTIONARY
360
22
102
}
102
{ACAD_REACTORS
330
10
102
}
330
10
100
AcDbMaterial
  1
Global
 72
     0
 43
0.0208333333333333
 43
0.0
 43
0.0
 43
0.0
 43
0.0
 43
0.0208333333333333
 43
0.0
 43
0.0
 43
0.0
 43
0.0
 43
1.0
 43
0.0
 43
0.0
 43
0.0
 43
0.0
 43
1.0
 77
     0
 47
0.0208333333333333
 47
0.0
 47
0.0
 47
0.0
 47
0.0
 47
0.0208333333333333
 47
0.0
 47
0.0
 47
0.0
 47
0.0
 47
1.0
 47
0.0
 47
0.0
 47
0.0
 47
0.0
 47
1.0
171
     0
 49
0.0208333333333333
 49
0.0
 49
0.0
 49
0.0
 49
0.0
 49
0.0208333333333333
 49
0.0
 49
0.0
 49
0.0
 49
0.0
 49
1.0
 49
0.0
 49
0.0
 49
0.0
 49
0.0
 49
1.0
175
     0
142
0.0208333333333333
142
0.0
142
0.0
142
0.0
142
0.0
142
0.0208333333333333
142
0.0
142
0.0
142
0.0
142
0.0
142
1.0
142
0.0
142
0.0
142
0.0
142
0.0
142
1.0
179
     0
144
0.0208333333333333
144
0.0
144
0.0
144
0.0
144
0.0
144
0.0208333333333333
144
0.0
144
0.0
144
0.0
144
0.0
144
1.0
144
0.0
144
0.0
144
0.0
144
0.0
144
1.0
147
0.0208333333333333
147
0.0
147
0.0
147
0.0
147
0.0
147
0.0208333333333333
147
0.0
147
0.0
147
0.0
147
0.0
147
1.0
147
0.0
147
0.0
147
0.0
147
0.0
147
1.0
  0
MLEADERSTYLE
  5
67
102
{ACAD_XDICTIONARY
360
1113
102
}
102
{ACAD_REACTORS
330
66
102
}
330
66
100
AcDbMLeaderStyle
179
     2
170
     2
171
     1
172
     0
 90
        2
 40
0.0
 41
0.0
173
     1
 91
-1056964608
340
5B
 92
       -2
290
     1
 42
0.09
291
     1
 43
0.36
  3
Standard
 44
0.18
300

342
55
174
     1
178
     6
175
     1
176
     0
 93
-1056964608
 45
0.18
292
     0
297
     0
 46
0.18
 94
-1056964608
 47
1.0
 49
1.0
140
1.0
293
     1
141
0.0
294
     1
177
     0
142
1.0
295
     0
296
     0
143
0.125
271
     0
272
     9
273
     9
  0
MLINESTYLE
  5
60
102
{ACAD_REACTORS
330
5F
102
}
330
5F
100
AcDbMlineStyle
  2
STANDARD
 70
     0
  3

 62
   256
 51
90.0
 52
90.0
 71
     2
 49
0.5
 62
   256
  6
BYLAYER
 49
-0.5
 62
   256
  6
BYLAYER
  0
ACDBPLACEHOLDER
  5
F
102
{ACAD_REACTORS
330
E
102
}
330
E
  0
SCALE
  5
43
102
{ACAD_REACTORS
330
42
102
}
330
42
100
AcDbScale
 70
     0
300
1:1
140
1.0
141
1.0
290
     1
  0
SCALE
  5
44
102
{ACAD_REACTORS
330
42
102
}
330
42
100
AcDbScale
 70
     0
300
1/128" = 1'-0"
140
0.0078125
141
12.0
290
     0
  0
SCALE
  5
45
102
{ACAD_REACTORS
330
42
102
}
330
42
100
AcDbScale
 70
     0
300
1/64" = 1'-0"
140
0.015625
141
12.0
290
     0
  0
SCALE
  5
46
102
{ACAD_REACTORS
330
42
102
}
330
42
100
AcDbScale
 70
     0
300
1/32" = 1'-0"
140
0.03125
141
12.0
290
     0
  0
SCALE
  5
47
102
{ACAD_REACTORS
330
42
102
}
330
42
100
AcDbScale
 70
     0
300
1/16" = 1'-0"
140
0.0625
141
12.0
290
     0
  0
SCALE
  5
48
102
{ACAD_REACTORS
330
42
102
}
330
42
100
AcDbScale
 70
     0
300
3/32" = 1'-0"
140
0.09375
141
12.0
290
     0
  0
SCALE
  5
49
102
{ACAD_REACTORS
330
42
102
}
330
42
100
AcDbScale
 70
     0
300
1/8" = 1'-0"
140
0.125
141
12.0
290
     0
  0
SCALE
  5
4A
102
{ACAD_REACTORS
330
42
102
}
330
42
100
AcDbScale
 70
     0
300
3/16" = 1'-0"
140
0.1875
141
12.0
290
     0
  0
SCALE
  5
4B
102
{ACAD_REACTORS
330
42
102
}
330
42
100
AcDbScale
 70
     0
300
1/4" = 1'-0"
140
0.25
141
12.0
290
     0
  0
SCALE
  5
4C
102
{ACAD_REACTORS
330
42
102
}
330
42
100
AcDbScale
 70
     0
300
3/8" = 1'-0"
140
0.375
141
12.0
290
     0
  0
SCALE
  5
4D
102
{ACAD_REACTORS
330
42
102
}
330
42
100
AcDbScale
 70
     0
300
1/2" = 1'-0"
140
0.5
141
12.0
290
     0
  0
SCALE
  5
4E
102
{ACAD_REACTORS
330
42
102
}
330
42
100
AcDbScale
 70
     0
300
3/4" = 1'-0"
140
0.75
141
12.0
290
     0
  0
SCALE
  5
4F
102
{ACAD_REACTORS
330
42
102
}
330
42
100
AcDbScale
 70
     0
300
1" = 1'-0"
140
1.0
141
12.0
290
     0
  0
SCALE
  5
50
102
{ACAD_REACTORS
330
42
102
}
330
42
100
AcDbScale
 70
     0
300
1-1/2" = 1'-0"
140
1.5
141
12.0
290
     0
  0
SCALE
  5
51
102
{ACAD_REACTORS
330
42
102
}
330
42
100
AcDbScale
 70
     0
300
3" = 1'-0"
140
3.0
141
12.0
290
     0
  0
SCALE
  5
52
102
{ACAD_REACTORS
330
42
102
}
330
42
100
AcDbScale
 70
     0
300
6" = 1'-0"
140
6.0
141
12.0
290
     0
  0
SCALE
  5
53
102
{ACAD_REACTORS
330
42
102
}
330
42
100
AcDbScale
 70
     0
300
1'-0" = 1'-0"
140
12.0
141
12.0
290
     0
  0
TABLESTYLE
  5
65
102
{ACAD_XDICTIONARY
360
1111
102
}
102
{ACAD_REACTORS
330
64
102
}
330
64
100
AcDbTableStyle
280
     0
  3
Standard
 70
     0
 71
     0
 40
0.06
 41
0.06
280
     0
281
     0
  7
Standard
140
0.18
170
     2
 62
     0
 63
     7
283
     0
 90
      512
 91
        0
  1

274
    -2
284
     1
 64
     0
275
    -2
285
     1
 65
     0
276
    -2
286
     1
 66
     0
277
    -2
287
     1
 67
     0
278
    -2
288
     1
 68
     0
279
    -2
289
     1
 69
     0
  7
Standard
140
0.25
170
     5
 62
     0
 63
     7
283
     0
 90
      512
 91
        0
  1

274
    -2
284
     1
 64
     0
275
    -2
285
     1
 65
     0
276
    -2
286
     1
 66
     0
277
    -2
287
     1
 67
     0
278
    -2
288
     1
 68
     0
279
    -2
289
     1
 69
     0
  7
Standard
140
0.18
170
     5
 62
     0
 63
     7
283
     0
 90
      512
 91
        0
  1

274
    -2
284
     1
 64
     0
275
    -2
285
     1
 65
     0
276
    -2
286
     1
 66
     0
277
    -2
287
     1
 67
     0
278
    -2
288
     1
 68
     0
279
    -2
289
     1
 69
     0
  0
VISUALSTYLE
  5
2F
102
{ACAD_REACTORS
330
29
102
}
330
29
100
AcDbVisualStyle
  2
2dWireframe
 70
     4
177
     2
291
     0
 71
     0
176
     1
 72
     2
176
     1
 73
     0
176
     1
 90
        0
176
     1
 40
0.6
176
     1
 41
30.0
176
     1
 63
     7
421
 16777215
176
     1
 74
     1
176
     1
 91
        4
176
     1
 64
     7
176
     1
 65
   257
176
     1
 75
     1
176
     1
175
     1
176
     1
 42
1.0
176
     1
 92
        0
176
     1
 66
   257
176
     1
 43
1.0
176
     1
 76
     1
176
     1
 77
     6
176
     1
 78
     2
176
     1
 67
     7
176
     1
 79
     5
176
     1
170
     0
176
     1
171
     0
176
     1
290
     0
176
     1
 93
        1
176
     1
 44
0.0
176
     1
173
     0
176
     1
  0
VISUALSTYLE
  5
2E
102
{ACAD_REACTORS
330
29
102
}
330
29
100
AcDbVisualStyle
  2
Basic
 70
     7
177
     2
291
     1
 71
     1
176
     1
 72
     0
176
     1
 73
     1
176
     1
 90
        0
176
     1
 40
0.6
176
     1
 41
30.0
176
     1
 63
     7
421
 16777215
176
     1
 74
     0
176
     1
 91
        4
176
     1
 64
     7
176
     1
 65
   257
176
     1
 75
     1
176
     1
175
     1
176
     1
 42
1.0
176
     1
 92
        8
176
     1
 66
     7
176
     1
 43
1.0
176
     1
 76
     1
176
     1
 77
     6
176
     1
 78
     2
176
     1
 67
     7
176
     1
 79
     5
176
     1
170
     0
176
     1
171
     0
176
     1
290
     0
176
     1
 93
        1
176
     1
 44
0.0
176
     1
173
     0
176
     1
  0
VISUALSTYLE
  5
35
102
{ACAD_REACTORS
330
29
102
}
330
29
100
AcDbVisualStyle
  2
Brighten
 70
    12
177
     2
291
     1
 71
     2
176
     1
 72
     2
176
     1
 73
     0
176
     1
 90
        0
176
     1
 40
0.6
176
     1
 41
30.0
176
     1
 63
     7
421
 16777215
176
     1
 74
     1
176
     1
 91
        4
176
     1
 64
     7
176
     1
 65
   257
176
     1
 75
     1
176
     1
175
     1
176
     1
 42
1.0
176
     1
 92
        8
176
     1
 66
     7
176
     1
 43
1.0
176
     1
 76
     1
176
     1
 77
     6
176
     1
 78
     2
176
     1
 67
     7
176
     1
 79
     5
176
     1
170
     0
176
     1
171
     0
176
     1
290
     0
176
     1
 93
        1
176
     1
 44
50.0
176
     1
173
     0
176
     1
  0
VISUALSTYLE
  5
39
102
{ACAD_REACTORS
330
29
102
}
330
29
100
AcDbVisualStyle
  2
ColorChange
 70
    16
177
     2
291
     1
 71
     2
176
     1
 72
     2
176
     1
 73
     3
176
     1
 90
        0
176
     1
 40
0.6
176
     1
 41
30.0
176
     1
 63
     8
421
  8421504
176
     1
 74
     1
176
     1
 91
        4
176
     1
 64
     7
176
     1
 65
   257
176
     1
 75
     1
176
     1
175
     1
176
     1
 42
1.0
176
     1
 92
        8
176
     1
 66
     8
424
  8421504
176
     1
 43
1.0
176
     1
 76
     1
176
     1
 77
     6
176
     1
 78
     2
176
     1
 67
     7
176
     1
 79
     5
176
     1
170
     0
176
     1
171
     0
176
     1
290
     0
176
     1
 93
        1
176
     1
 44
0.0
176
     1
173
     0
176
     1
  0
VISUALSTYLE
  5
32
102
{ACAD_REACTORS
330
29
102
}
330
29
100
AcDbVisualStyle
  2
Conceptual
 70
     9
177
     2
291
     0
 71
     3
176
     1
 72
     2
176
     1
 73
     0
176
     1
 90
        0
176
     1
 40
0.6
176
     1
 41
30.0
176
     1
 63
     7
421
 16777215
176
     1
 74
     2
176
     1
 91
        2
176
     1
 64
     7
176
     1
 65
   257
176
     1
 75
     1
176
     1
175
     1
176
     1
 42
179.0
176
     1
 92
        8
176
     1
 66
     7
176
     1
 43
1.0
176
     1
 76
     1
176
     1
 77
     6
176
     1
 78
     2
176
     1
 67
     7
176
     1
 79
     3
176
     1
170
     0
176
     1
171
     0
176
     1
290
     0
176
     1
 93
        1
176
     1
 44
0.0
176
     1
173
     0
176
     1
  0
VISUALSTYLE
  5
34
102
{ACAD_REACTORS
330
29
102
}
330
29
100
AcDbVisualStyle
  2
Dim
 70
    11
177
     2
291
     1
 71
     2
176
     1
 72
     2
176
     1
 73
     0
176
     1
 90
        0
176
     1
 40
0.6
176
     1
 41
30.0
176
     1
 63
     7
421
 16777215
176
     1
 74
     1
176
     1
 91
        4
176
     1
 64
     7
176
     1
 65
   257
176
     1
 75
     1
176
     1
175
     1
176
     1
 42
1.0
176
     1
 92
        8
176
     1
 66
     7
176
     1
 43
1.0
176
     1
 76
     1
176
     1
 77
     6
176
     1
 78
     2
176
     1
 67
     7
176
     1
 79
     5
176
     1
170
     0
176
     1
171
     0
176
     1
290
     0
176
     1
 93
        1
176
     1
 44
-50.0
176
     1
173
     0
176
     1
  0
VISUALSTYLE
  5
41
102
{ACAD_REACTORS
330
29
102
}
330
29
100
AcDbVisualStyle
  2
EdgeColorOff
 70
    22
177
     2
291
     1
 71
     2
176
     0
 72
     2
176
     0
 73
     0
176
     0
 90
        0
176
     0
 40
0.6
176
     0
 41
30.0
176
     0
 63
     7
421
 16777215
176
     0
 74
     1
176
     0
 91
        4
176
     0
 64
     7
176
     0
 65
   257
176
     0
 75
     1
176
     0
175
     1
176
     0
 42
1.0
176
     0
 92
        8
176
     2
 66
     7
176
     0
 43
1.0
176
     0
 76
     1
176
     0
 77
     6
176
     0
 78
     2
176
     0
 67
     7
176
     0
 79
     5
176
     0
170
     0
176
     0
171
     0
176
     0
290
     0
176
     0
 93
        1
176
     0
 44
0.0
176
     0
173
     0
176
     0
  0
VISUALSTYLE
  5
38
102
{ACAD_REACTORS
330
29
102
}
330
29
100
AcDbVisualStyle
  2
Facepattern
 70
    15
177
     2
291
     1
 71
     2
176
     1
 72
     2
176
     1
 73
     0
176
     1
 90
        0
176
     1
 40
0.6
176
     1
 41
30.0
176
     1
 63
     7
421
 16777215
176
     1
 74
     1
176
     1
 91
        4
176
     1
 64
     7
176
     1
 65
   257
176
     1
 75
     1
176
     1
175
     1
176
     1
 42
1.0
176
     1
 92
        8
176
     1
 66
     7
176
     1
 43
1.0
176
     1
 76
     1
176
     1
 77
     6
176
     1
 78
     2
176
     1
 67
     7
176
     1
 79
     5
176
     1
170
     0
176
     1
171
     0
176
     1
290
     0
176
     1
 93
        1
176
     1
 44
0.0
176
     1
173
     0
176
     1
  0
VISUALSTYLE
  5
2A
102
{ACAD_REACTORS
330
29
102
}
330
29
100
AcDbVisualStyle
  2
Flat
 70
     0
177
     2
291
     1
 71
     2
176
     1
 72
     1
176
     1
 73
     1
176
     1
 90
        2
176
     1
 40
0.6
176
     1
 41
30.0
176
     1
 63
     7
421
 16777215
176
     1
 74
     0
176
     1
 91
        0
176
     1
 64
     7
176
     1
 65
   257
176
     1
 75
     1
176
     1
175
     1
176
     1
 42
1.0
176
     1
 92
        8
176
     1
 66
     7
176
     1
 43
1.0
176
     1
 76
     1
176
     1
 77
     6
176
     1
 78
     2
176
     1
 67
     7
176
     1
 79
     5
176
     1
170
     0
176
     1
171
     0
176
     1
290
     0
176
     1
 93
       13
176
     1
 44
0.0
176
     1
173
     0
176
     1
  0
VISUALSTYLE
  5
2B
102
{ACAD_REACTORS
330
29
102
}
330
29
100
AcDbVisualStyle
  2
FlatWithEdges
 70
     1
177
     2
291
     1
 71
     2
176
     1
 72
     1
176
     1
 73
     1
176
     1
 90
        2
176
     1
 40
0.6
176
     1
 41
30.0
176
     1
 63
     7
421
 16777215
176
     1
 74
     1
176
     1
 91
        0
176
     1
 64
     7
176
     1
 65
   257
176
     1
 75
     1
176
     1
175
     1
176
     1
 42
1.0
176
     1
 92
        0
176
     1
 66
   257
176
     1
 43
1.0
176
     1
 76
     1
176
     1
 77
     6
176
     1
 78
     2
176
     1
 67
     7
176
     1
 79
     5
176
     1
170
     0
176
     1
171
     0
176
     1
290
     0
176
     1
 93
       13
176
     1
 44
0.0
176
     1
173
     0
176
     1
  0
VISUALSTYLE
  5
2C
102
{ACAD_REACTORS
330
29
102
}
330
29
100
AcDbVisualStyle
  2
Gouraud
 70
     2
177
     2
291
     1
 71
     2
176
     1
 72
     2
176
     1
 73
     1
176
     1
 90
        2
176
     1
 40
0.6
176
     1
 41
30.0
176
     1
 63
     7
421
 16777215
176
     1
 74
     0
176
     1
 91
        0
176
     1
 64
     7
176
     1
 65
   257
176
     1
 75
     1
176
     1
175
     1
176
     1
 42
1.0
176
     1
 92
        0
176
     1
 66
     7
176
     1
 43
1.0
176
     1
 76
     1
176
     1
 77
     6
176
     1
 78
     2
176
     1
 67
     7
176
     1
 79
     5
176
     1
170
     0
176
     1
171
     0
176
     1
290
     0
176
     1
 93
       13
176
     1
 44
0.0
176
     1
173
     0
176
     1
  0
VISUALSTYLE
  5
2D
102
{ACAD_REACTORS
330
29
102
}
330
29
100
AcDbVisualStyle
  2
GouraudWithEdges
 70
     3
177
     2
291
     1
 71
     2
176
     1
 72
     2
176
     1
 73
     1
176
     1
 90
        2
176
     1
 40
0.6
176
     1
 41
30.0
176
     1
 63
     7
421
 16777215
176
     1
 74
     1
176
     1
 91
        0
176
     1
 64
     7
176
     1
 65
   257
176
     1
 75
     1
176
     1
175
     1
176
     1
 42
1.0
176
     1
 92
        0
176
     1
 66
   257
176
     1
 43
1.0
176
     1
 76
     1
176
     1
 77
     6
176
     1
 78
     2
176
     1
 67
     7
176
     1
 79
     5
176
     1
170
     0
176
     1
171
     0
176
     1
290
     0
176
     1
 93
       13
176
     1
 44
0.0
176
     1
173
     0
176
     1
  0
VISUALSTYLE
  5
31
102
{ACAD_REACTORS
330
29
102
}
330
29
100
AcDbVisualStyle
  2
Hidden
 70
     6
177
     2
291
     0
 71
     1
176
     1
 72
     2
176
     1
 73
     2
176
     1
 90
        0
176
     1
 40
0.6
176
     1
 41
30.0
176
     1
 63
     7
421
 16777215
176
     1
 74
     2
176
     1
 91
        2
176
     1
 64
     7
176
     1
 65
   257
176
     1
 75
     2
176
     1
175
     1
176
     1
 42
40.0
176
     1
 92
        0
176
     1
 66
   257
176
     1
 43
1.0
176
     1
 76
     1
176
     1
 77
     6
176
     1
 78
     2
176
     1
 67
     7
176
     1
 79
     3
176
     1
170
     0
176
     1
171
     0
176
     1
290
     0
176
     1
 93
        1
176
     1
 44
0.0
176
     1
173
     0
176
     1
  0
VISUALSTYLE
  5
3F
102
{ACAD_REACTORS
330
29
102
}
330
29
100
AcDbVisualStyle
  2
JitterOff
 70
    20
177
     2
291
     1
 71
     2
176
     0
 72
     2
176
     0
 73
     0
176
     0
 90
        0
176
     0
 40
0.6
176
     0
 41
30.0
176
     0
 63
     7
421
 16777215
176
     0
 74
     1
176
     0
 91
        4
176
     0
 64
     7
176
     0
 65
   257
176
     0
 75
     1
176
     0
175
     1
176
     0
 42
1.0
176
     0
 92
       10
176
     2
 66
     7
176
     0
 43
1.0
176
     0
 76
     1
176
     0
 77
     6
176
     0
 78
     2
176
     0
 67
     7
176
     0
 79
     5
176
     0
170
     0
176
     0
171
     0
176
     0
290
     0
176
     0
 93
        1
176
     0
 44
0.0
176
     0
173
     0
176
     0
  0
VISUALSTYLE
  5
37
102
{ACAD_REACTORS
330
29
102
}
330
29
100
AcDbVisualStyle
  2
Linepattern
 70
    14
177
     2
291
     1
 71
     2
176
     1
 72
     2
176
     1
 73
     0
176
     1
 90
        0
176
     1
 40
0.6
176
     1
 41
30.0
176
     1
 63
     7
421
 16777215
176
     1
 74
     1
176
     1
 91
        4
176
     1
 64
     7
176
     1
 65
   257
176
     1
 75
     7
176
     1
175
     7
176
     1
 42
1.0
176
     1
 92
        8
176
     1
 66
     7
176
     1
 43
1.0
176
     1
 76
     1
176
     1
 77
     6
176
     1
 78
     2
176
     1
 67
     7
176
     1
 79
     5
176
     1
170
     0
176
     1
171
     0
176
     1
290
     0
176
     1
 93
        1
176
     1
 44
0.0
176
     1
173
     0
176
     1
  0
VISUALSTYLE
  5
40
102
{ACAD_REACTORS
330
29
102
}
330
29
100
AcDbVisualStyle
  2
OverhangOff
 70
    21
177
     2
291
     1
 71
     2
176
     0
 72
     2
176
     0
 73
     0
176
     0
 90
        0
176
     0
 40
0.6
176
     0
 41
30.0
176
     0
 63
     7
421
 16777215
176
     0
 74
     1
176
     0
 91
        4
176
     0
 64
     7
176
     0
 65
   257
176
     0
 75
     1
176
     0
175
     1
176
     0
 42
1.0
176
     0
 92
        9
176
     2
 66
     7
176
     0
 43
1.0
176
     0
 76
     1
176
     0
 77
     6
176
     0
 78
     2
176
     0
 67
     7
176
     0
 79
     5
176
     0
170
     0
176
     0
171
     0
176
     0
290
     0
176
     0
 93
        1
176
     0
 44
0.0
176
     0
173
     0
176
     0
  0
VISUALSTYLE
  5
33
102
{ACAD_REACTORS
330
29
102
}
330
29
100
AcDbVisualStyle
  2
Realistic
 70
     8
177
     2
291
     0
 71
     2
176
     1
 72
     3
176
     1
 73
     0
176
     1
 90
        2
176
     1
 40
0.6
176
     1
 41
30.0
176
     1
 63
     7
421
 16777215
176
     1
 74
     0
176
     1
 91
        0
176
     1
 64
     7
176
     1
 65
   257
176
     1
 75
     1
176
     1
175
     1
176
     1
 42
1.0
176
     1
 92
        8
176
     1
 66
   257
176
     1
 43
1.0
176
     1
 76
     1
176
     1
 77
     6
176
     1
 78
     2
176
     1
 67
     7
176
     1
 79
     3
176
     1
170
     0
176
     1
171
     0
176
     1
290
     0
176
     1
 93
       13
176
     1
 44
0.0
176
     1
173
     0
176
     1
  0
VISUALSTYLE
  5
3E
102
{ACAD_REACTORS
330
29
102
}
330
29
100
AcDbVisualStyle
  2
Shaded
 70
    27
177
     2
291
     0
 71
     2
176
     1
 72
     2
176
     1
 73
     1
176
     1
 90
        2
176
     1
 40
0.6
176
     1
 41
30.0
176
     1
 63
     7
421
 16777215
176
     1
 74
     0
176
     1
 91
        4
176
     1
 64
     7
176
     1
 65
   257
176
     1
 75
     1
176
     1
175
     1
176
     1
 42
1.0
176
     1
 92
        8
176
     1
 66
   257
176
     1
 43
1.0
176
     1
 76
     1
176
     1
 77
     6
176
     1
 78
     2
176
     1
 67
     8
425
  7895160
176
     1
 79
     3
176
     1
170
     0
176
     1
171
     0
176
     1
290
     0
176
     1
 93
        5
176
     1
 44
0.0
176
     1
173
     0
176
     1
  0
VISUALSTYLE
  5
3D
102
{ACAD_REACTORS
330
29
102
}
330
29
100
AcDbVisualStyle
  2
Shaded with edges
 70
    26
177
     2
291
     0
 71
     2
176
     1
 72
     2
176
     1
 73
     1
176
     1
 90
        2
176
     1
 40
0.6
176
     1
 41
30.0
176
     1
 63
     7
421
 16777215
176
     1
 74
     1
176
     1
 91
       10
176
     1
 64
     7
176
     1
 65
   257
176
     1
 75
     2
176
     1
175
     1
176
     1
 42
1.0
176
     1
 92
        8
176
     1
 66
   257
176
     1
 43
1.0
176
     1
 76
     1
176
     1
 77
     6
176
     1
 78
     2
176
     1
 67
     7
176
     1
 79
     3
176
     1
170
     0
176
     1
171
     0
176
     1
290
     0
176
     1
 93
        5
176
     1
 44
0.0
176
     1
173
     0
176
     1
  0
VISUALSTYLE
  5
3A
102
{ACAD_REACTORS
330
29
102
}
330
29
100
AcDbVisualStyle
  2
Shades of Gray
 70
    23
177
     2
291
     0
 71
     2
176
     1
 72
     2
176
     1
 73
     3
176
     1
 90
        0
176
     1
 40
0.6
176
     1
 41
30.0
176
     1
 63
     7
421
 16777215
176
     1
 74
     2
176
     1
 91
        2
176
     1
 64
     7
176
     1
 65
     7
176
     1
 75
     1
176
     1
175
     1
176
     1
 42
40.0
176
     1
 92
        8
176
     1
 66
     7
176
     1
 43
1.0
176
     1
 76
     1
176
     1
 77
     6
176
     1
 78
     2
176
     1
 67
     7
176
     1
 79
     3
176
     1
170
     0
176
     1
171
     0
176
     1
290
     0
176
     1
 93
        1
176
     1
 44
0.0
176
     1
173
     0
176
     1
  0
VISUALSTYLE
  5
3B
102
{ACAD_REACTORS
330
29
102
}
330
29
100
AcDbVisualStyle
  2
Sketchy
 70
    24
177
     2
291
     0
 71
     1
176
     1
 72
     2
176
     1
 73
     2
176
     1
 90
        0
176
     1
 40
0.6
176
     1
 41
30.0
176
     1
 63
     7
421
 16777215
176
     1
 74
     2
176
     1
 91
        2
176
     1
 64
     7
176
     1
 65
     7
176
     1
 75
     1
176
     1
175
     1
176
     1
 42
40.0
176
     1
 92
       11
176
     1
 66
     7
176
     1
 43
1.0
176
     1
 76
     1
176
     1
 77
     6
176
     1
 78
     2
176
     1
 67
     7
176
     1
 79
     6
176
     1
170
     0
176
     1
171
     0
176
     1
290
     0
176
     1
 93
        1
176
     1
 44
0.0
176
     1
173
     0
176
     1
  0
VISUALSTYLE
  5
36
102
{ACAD_REACTORS
330
29
102
}
330
29
100
AcDbVisualStyle
  2
Thicken
 70
    13
177
     2
291
     1
 71
     2
176
     1
 72
     2
176
     1
 73
     0
176
     1
 90
        0
176
     1
 40
0.6
176
     1
 41
30.0
176
     1
 63
     7
421
 16777215
176
     1
 74
     1
176
     1
 91
        4
176
     1
 64
     7
176
     1
 65
   257
176
     1
 75
     1
176
     1
175
     1
176
     1
 42
1.0
176
     1
 92
       12
176
     1
 66
     7
176
     1
 43
1.0
176
     1
 76
     1
176
     1
 77
     6
176
     1
 78
     2
176
     1
 67
     7
176
     1
 79
     5
176
     1
170
     0
176
     1
171
     0
176
     1
290
     0
176
     1
 93
        1
176
     1
 44
0.0
176
     1
173
     0
176
     1
  0
VISUALSTYLE
  5
30
102
{ACAD_REACTORS
330
29
102
}
330
29
100
AcDbVisualStyle
  2
Wireframe
 70
     5
177
     2
291
     0
 71
     0
176
     1
 72
     2
176
     1
 73
     0
176
     1
 90
        0
176
     1
 40
0.6
176
     1
 41
30.0
176
     1
 63
     7
421
 16777215
176
     1
 74
     1
176
     1
 91
        4
176
     1
 64
     7
176
     1
 65
   257
176
     1
 75
     1
176
     1
175
     1
176
     1
 42
1.0
176
     1
 92
        0
176
     1
 66
   257
176
     1
 43
1.0
176
     1
 76
     1
176
     1
 77
     6
176
     1
 78
     2
176
     1
 67
     7
176
     1
 79
     3
176
     1
170
     0
176
     1
171
     0
176
     1
290
     0
176
     1
 93
        1
176
     1
 44
0.0
176
     1
173
     0
176
     1
  0
VISUALSTYLE
  5
3C
102
{ACAD_REACTORS
330
29
102
}
330
29
100
AcDbVisualStyle
  2
X-Ray
 70
    25
177
     2
291
     0
 71
     2
176
     1
 72
     2
176
     1
 73
     1
176
     1
 90
        1
176
     1
 40
0.5
176
     1
 41
30.0
176
     1
 63
     7
421
 16777215
176
     1
 74
     1
176
     1
 91
        0
176
     1
 64
     7
176
     1
 65
   257
176
     1
 75
     1
176
     1
175
     1
176
     1
 42
1.0
176
     1
 92
        8
176
     1
 66
     7
176
     1
 43
1.0
176
     1
 76
     1
176
     1
 77
     6
176
     1
 78
     2
176
     1
 67
     7
176
     1
 79
     3
176
     1
170
     0
176
     1
171
     0
176
     1
290
     0
176
     1
 93
       13
176
     1
 44
0.0
176
     1
173
     0
176
     1
  0
DICTIONARYVAR
  5
79
102
{ACAD_REACTORS
330
76
102
}
330
76
100
DictionaryVariables
280
     0
  1
1:1
  0
DICTIONARYVAR
  5
78
102
{ACAD_REACTORS
330
76
102
}
330
76
100
DictionaryVariables
280
     0
  1
STANDARD
  0
DICTIONARYVAR
  5
77
102
{ACAD_REACTORS
330
76
102
}
330
76
100
DictionaryVariables
280
     0
  1
STANDARD
  0
DICTIONARY
  5
1A
330
19
100
AcDbDictionary
280
     1
281
     1
  3
BUMPTILE
360
1C
  3
DIFFUSETILE
360
1B
  3
OPACITYTILE
360
1F
  3
REFLECTIONTILE
360
1E
  3
REFRACTIONTILE
360
20
  3
SPECULARTILE
360
1D
  0
DICTIONARY
  5
12
330
11
100
AcDbDictionary
280
     1
281
     1
  3
BUMPTILE
360
14
  3
DIFFUSETILE
360
13
  3
FBXASSET
360
DE
  3
OPACITYTILE
360
17
  3
REFLECTIONTILE
360
16
  3
REFRACTIONTILE
360
18
  3
SPECULARTILE
360
15
  0
DICTIONARY
  5
22
330
21
100
AcDbDictionary
280
     1
281
     1
  3
BUMPTILE
360
24
  3
DIFFUSETILE
360
23
  3
FBXASSET
360
BA
  3
OPACITYTILE
360
27
  3
REFLECTIONTILE
360
26
  3
REFRACTIONTILE
360
28
  3
SPECULARTILE
360
25
  0
DICTIONARY
  5
1113
330
67
100
AcDbDictionary
280
     1
281
     1
  3
ACAD_XREC_ROUNDTRIP
360
1114
  0
DICTIONARY
  5
1111
330
65
100
AcDbDictionary
280
     1
281
     1
  3
ACAD_ROUNDTRIP_2008_TABLESTYLE_CELLSTYLEMAP
360
1112
  0
XRECORD
  5
1C
102
{ACAD_REACTORS
330
1A
102
}
330
1A
100
AcDbXrecord
280
     1
270
     1
271
     1
  0
XRECORD
  5
1B
102
{ACAD_REACTORS
330
1A
102
}
330
1A
100
AcDbXrecord
280
     1
270
     1
271
     1
  0
XRECORD
  5
1F
102
{ACAD_REACTORS
330
1A
102
}
330
1A
100
AcDbXrecord
280
     1
270
     1
271
     1
  0
XRECORD
  5
1E
102
{ACAD_REACTORS
330
1A
102
}
330
1A
100
AcDbXrecord
280
     1
270
     1
271
     1
  0
XRECORD
  5
20
102
{ACAD_REACTORS
330
1A
102
}
330
1A
100
AcDbXrecord
280
     1
270
     1
271
     1
  0
XRECORD
  5
1D
102
{ACAD_REACTORS
330
1A
102
}
330
1A
100
AcDbXrecord
280
     1
270
     1
271
     1
  0
XRECORD
  5
14
102
{ACAD_REACTORS
330
12
102
}
330
12
100
AcDbXrecord
280
     1
270
     1
271
     1
  0
XRECORD
  5
13
102
{ACAD_REACTORS
330
12
102
}
330
12
100
AcDbXrecord
280
     1
270
     1
271
     1
  0
XRECORD
  5
DE
102
{ACAD_REACTORS
330
12
102
}
330
12
100
AcDbXrecord
280
     1
 70
     1
 90
1959938040
 71
     1
  1
73393457-1F5D-4AAA-A6CC-EB9929D66640
311
504B03040A00000800006B7022423DEE336E79000000790000001B0000006175746F6465736B2D64657369676E2D7061636B6167652E786D6C3C3F786D6C2076657273696F6E3D22312E302220656E636F64696E673D227574662D3822203F3E3C666F726D6174733E3C666F726D61743E687474703A2F2F736368656D612E
311
6175746F6465736B2E636F6D2F64657369676E2D7061636B6167652F323030393C2F666F726D61743E3C2F666F726D6174733E504B03041400060808006B702242D486FD9CA0000000F4000000130000005B436F6E74656E745F54797065735D2E786D6C7D8EC10E82300C865F65E91D8A1E8C310C0EEA1BF002731658846E
311
D98AC1B77784ABF1D8FE5FBFBF75BBCE937A534CCEB38643598122B6FEE978D0B0485F9C41B54DDD7D022595594E1A469170414C76A4D9A4D207E29CF43ECE46F218070CC6BECC4078ACAA135ACF422C856C0E68EA1BF5669944DDD7BCDE7B1F8E415D77AECB980613C2E4AC91FC167A2B244592486606FC29C8FD7F045B9A
311
EF7053A7E60B504B03041400060808006B702242F9688A58EA0000007C01000008000000636F72652E786D6C8D904D6EC3201085AF82668F0DD8CD8F85896A3B3D412F80803828315806AA1EBF3871A476D7D58CDEBC6F66F4F8E97BBAA32FB304EB5D0BB420808C535E5B37B690E2051F009D045FBC8FBF6C809C9C4C0BAB
311
0C828F8B4FF32629EFA27131ABCE6BB38932041301A97B6E5A08EA6A2659C814B323DC8A59AA9B1C4D415F5D8653B21A3D8F589DF7D98B350B883D65DDFB47DFE3B781505CEFF647DCF5C73326C361A8CE03ED8E35E3E50A0B1EEDF4BAAF1623A3D12018A115CE24619FB46E48D53086C9AE218497ABFD0F9466FD4F285917
311
2BB6BDFBC402089A1F790C042FD72C72790495EB9A9BF801504B03041400060808006B70224255019EA25F0000007C00000007000000636E782E786D6C4DCB3B0E80201045D1AD90E915ED2CF8AC45050C11660C8261F98AB1B07AC9C97D42D718D865D3E909258CFD00CCE24AC6E326A164D74DC0B4128928FF326038472B
311
A13128B1252AC747C6BAB984FC68F0B87FE8960A5C09FE86CFB69FBA01504B03041400060808006B7022424C02F14166010000020300000C0000006662782F636F72652E786D6C8D52ED8E8320107C15C27F05D1EB5790E65A7B4F702F40957AA60A06C1F4F16FFD68BC5E9AA6314132B3B33B3BCAF7B7A646BDB25D65748A
311
A39062A4746E8A4A9729F6EE126C30DA0B6E8D717FCA30D2B251291E602C78698D6F672837DA29ED00D5A6503328BB4E398CF21A2E29EEF21FD5C8507A0715DD356C657E95A50AA31068A813BC73160CA069C870627139DF389970C1BDAF8A99AD0A98565D2A65B15847ECF0F9753C061F198D8264B5DE0687E3F614D06C93
311
C5A72C3A6C13C6C92016DC55CDDD5D6E9574AAC082D1280E4049D97794EC68BC632CA0AB1DA59C0CE50F22DF166F8A7CA55DCC66BB93ACC322022323F16F5B88C8A14EF6E087084E8610E13526FC18340402213B79AEEF7B5C01EA55EE8C4D80298C5FA85ED65EC1548AC687938985CE6303D8EC691FF6A2CFEB1EF001A52E
311
C19A74703D7B374CE7D3D4398A56D9A07737A48D6D64BD989B2C2EE732E8A93C37B5B1EFA8C9BC2A99C324C3DF2B7E01504B03041400060808006B702242E5A08B807D0000009D0000000B0000006662782F636E782E786D6C4DCCD10AC2201886E15B91FFDCD6CFA619A8431ADEC7686E484EC334BAFCB6D841471F3C7CBC
311
B2FFAC81BC5D7EF91415E0E90CC4C57B9A7C5C14D4325301A4D732A754FE6E40E2B83A053B83964B4EF579D0E4E6B186B269F0F171E0656016D10CB46D91D3CE5E911AC119E55C18CB06EC6ED842A365F32B6DBB87F517504B03041400060808006B7022423E664DD02B01000015020000310000006662782F374435463131
311
41442D333331362D344639312D413836352D3636384146354431344331332F636F72652E786D6C8D51CB6EC32010FC158B537AC006631337C24451A37C417F8000495162B07854F9FC42ED48ED2D1716CDCECC8E76D9FE31DDAB6FED83717604B846A0D2563A65EC7504295EE000AA3D67DEB9F887062A2B263D820203CEAE
311
DEA57985A4B351DB9851EB945E4111828EA092F7FC1941905F7A12B5483133C2AD9E85BC89ABAE719DDB99C759883E07A89621E5057C7BEC4F181F8E90104C61777AC7F030D01E523A1C4EFD11771F98B0661172969251ABDCA81CC75C8CF6AF9A143167D14CCFF8D26B11B502BC45984084216A3F71B74364D7B610D11D42
311
AC29F47FA234AB1745C9D848DA35EE220B8063D62C0DCE944BE7FB338C7ECCCEC7AACCDB042DDF0047354204F75BDA52D62CDCBC816C4ABBD53444E7F38637B773A6E37E71A61D674D39522EBF17CCB51C94FF00504B03041400060808006B7022424F698A1F4D01000033030000300000006662782F37443546313141442D
311
333331362D344639312D413836352D3636384146354431344331332F636E782E786D6CD593CD6EC32010845F0571B78D1D2BAA224CA41EFA043DF44A6093D060B0F8A99AB7EF929034971C7AEC0559B3C3CCEA13E6DBEFD9922F08D17837D1BE659480535E1B7798684EFBE68592ADE0C1FBF460A3C4C919265A642AF821F8
311
BC5449C35E669B50B5C69DAA1820FA1C144494CB4D62BD921603C03519459877A035687237E2D71E02AE82E2EE4CD211C8DBEB07F1BB4F5029F2AEA408DE950EC1CB599B1E4C94282B639C68544798652B73F21AE2A9D532C9B66F6F5D4F76FA4D22E5C2AD3207434AF944CB4945DDA8458EBCC3A1E03105A4574DE9BC0015
311
7259AC513221E4EE62BC7A04CFC6A5F558BD06C10774F7EBD53862D8652678323354870A2013682A06D6AF1AD6376C78EFC70D5B6D86A161EB0D63BC2B76C177DEDB7A096320F88528EF12B84445CFBB327E86AFFA88360159FB70FE034804505BAF74EE19FF994F7779DF882BE05F207E00504B03041400060808006B7022
311
42C8AB1C5BA405000081100000340000006662782F37443546313141442D333331362D344639312D413836352D3636384146354431344331332F6F626A656374732E786D6CAD575B6FDB3614FE2B82F6B23DC8B26C278D074583633785D1A52D6AB4D88301839228850B750149A5CE7EFD3E4A942CB976EA0D7DD18597C373
311
BEF39D0BFD3FF619B79EA990ACC86F6D6F34B62D9A4745CCF2F4D6AE54E2DCD8D61F812F8A42F596D9564E327A6BEB613BF0535154A5198A69422AAE8E46EFEFFEB26444736A5B112752DEDA327AA41919914A1531954FA39828324A93FDC81B350B87625341CAC723A125113457D014E339A4588D52DEF0776CBB81EFEAF9
311
C0D74FB36A7A7E955BDB333C9FE552913CFAEEB02331536FB67A3BB99A3B57B3D9D4995D4F3CE7EEFE6EE5786FA6E3E5F572395FBC9DE360A90424194D044DECE01DB0112CF2DD662AF02B96ABE9C42C310E72057D66DA537630B13CDF6DD674D619234FA91F15794EA31A2BA051DB6744C7B4A4790C9F332AA1590FA1F1F0
311
D7D338F6A6A7FADF1CD91FBE0C81FE8E9EA056F7F6DDD7B408FF8609F21206094935031B2C8DA10D57C70784C3A2E0668E492B238A0A46B8C559288878B1032CD54B027F20463359E868D016D801BCD04C0FE98230FA31CF4F6999549C6B1ADB411D053BC40A55B2D68CFD43C541FB3E32D009BED26CB83106A99792DAC1BC
311
A1C8CD119B1A20AD8493142E87997AE7747264E852C7E97A6507EFEFC3FD46C7EEE9C34B519454284D1F50AB755CFBD628199DBC8B3CA737D847AA1C40F90CE43F20D40FAAC06F82ED67FB9939450992CBA410197C638D2D678CC7D8F2EAA7FEEE7DF96EB779E8BD7378C2D91AAA9F80E7D086BE2F7B7006FE33085F88A931
311
6D13118EB4F1C07200A44962F10243C8C349B8B78335B21CB23276111E783019EA3EE3D3778D18248AFAA4DE3B07964769F182040DD86A46428D86FC46C1839FBE4B67F5C166D93978AF7E0A5D17ABCDFB4D251212D10713D32B9AB09C2994B8036FFA0A0D301F58F4445FBE152286A1DFE3BDE9E39D99A324D0D6986BE0D3
311
36A7EB9FC3C9830322EC4B0B9D6EFC1F9C00237461EDC97F6032A29C939C16557BEEABF50365A3815807BB667257600E8505A469668E6210453A12ACD42076D5AA4B9AA333D67D597F0023EDE0EEE54FF2D2CF5EE121F746052FC42E7CD93569E924D45F87DC3618B85A0AE85E07491BFF06F45DCC92A49248822770FDBA5E
311
F67DA7D30252442BB5899619EC4770116148DBCA45B5160495B4C8770C75137177F280BE7C406A18500B3CA7B1A43CD931CEAB6C97308E6AB4CB4879068EFFAF7F5865E58E644595AB33B207AAA33A0C751FB0577E232A7AB4834DFD76EE907B631A9F2183AE2527B01AB8F6CD743A9FCEAEDE38DEFDD5CA992D160B6781B6
311
C9797B379F4FE6ABEBEBEBD941A3BA890AFCB6D4F4231A5E4269F32BC18CFBBEAC113F2609D8C1035172FBAE09CFF6FD653D422FECBBD8837AD96D5CC4CFE8FB68FC630187952705ADB392D38CE68AE8187AD01FFC33419F3150A6195F6724A51748F9F86E73640C462ED8F749C73BFD76B4D78C2E75409E14A21EAB2CCC09
311
E3471BD306C95199A706BFD627DDBB2934EDAFFE338E41672A0BCE62E4C1D84A699151856C784111121995A05EBFA78FCDDDE382DDCF4D87A848C869ABC9234193CC25C20224AF22351CB77E4153A7FBAA5B1BE576F48487C914B605CEDCDA68D2158BA81C8528D0BA15AA85834BFD4E1E9C2579CAD16B379BBAFF6E97C666
311
5092BB2597F44FC6AE26851B0390464AF40D6888E09D5A99C0AF7533F3D17F32BC55C7220A9F61A53A5B0E039D31F53108D1C628735B4013F3648EDE23505F37CB1BD56B06885C74CB7A95048D54471191D63705AD9F5169B1FAE4A243B1D61FAD9257297C79B924475090B9D2010E16811546664914A8BAFC7DFB4914B8C9
311
66D63D0305AC5FF737D7BF6D974596157933B45D98FBB0B579C4ED36DE2239507D2D91DBC9D89B6CEBEB80B9A1EC4222E988C4F20903F0AC601DD003F78397CD9D1175A899E8D6B9DA15470C5DAF2C53D866106AE8D2CFAD1A1C341E39B51043FA4AA923A6BFA07CF546E0D64BA182402F1FFC0B504B03041400060800006B
311
702242000000000000000000000000350000006662782F37443546313141442D333331362D344639312D413836352D3636384146354431344331332F76657274696365732E62696E504B03041400060808006B702242F270F1330600000004000000360000006662782F37443546313141442D333331362D344639312D4138
311
36352D3636384146354431344331332F747269616E676C65732E62696E636660600000504B03041400060800006B702242000000000000000000000000370000006662782F37443546313141442D333331362D344639312D413836352D3636384146354431344331332F617474726962757465732E62696E504B0304140006
311
0808006B702242D5987DFC8F00000041010000360000006662782F37443546313141442D333331362D344639312D413836352D3636384146354431344331332F6469726563746F72792E786D6C858F410EC2201045AF4266AF15DDB800BA74E7C21B903225242D6328188F2FA5C4183471359997F9FF81E89FF3C41E181647
311
5E02DF1F80A11FC8386F25A438EECEC07A250251FC3803E6F58C12560C4AD840E95E91C151A72936F496F35732D860FE635F62C8F2DA16B505C545B74125BAA2FA9E05D7CC053D063734D5C7665FD55B6B8D15D5E9BFEAFD8490FFA45E504B03041400060808006B702242EAC3A4C0FC000000A00100003B0000006662782F
311
37443546313141442D333331362D344639312D413836352D3636384146354431344331332F7265736F75726365732F636F72652E786D6C8D50596EC32010BD8A35FFD880D32C1626AAE3F404BD00C21317258688A5EAF10B892BB57FFD9919BD45F3F4C4F16BB9559FE88371B6075653A8D06A37193BF790E285ECA13A4AE1
311
9D8BBF645059B5600F05062966EFD27D85B4B3116DCCA87513AEA00A012354FA968F1E82FEC045D52AC5AC08D7FAAEF455CD58B33AD3592745883E07A89E4FCA04E931B8E43506D13C59295232D3AA3153FE692E063DC81DE3C3EBDB69202F236564B3DD1DC8703A9C091DF7637B1ED970D870D114B314D12C3F19B5471571
311
02C9296B497652FECE361D6D3BCE09DD76948AA6C8FF98D27DFAA729191B5BBEC67DDA024896833C08299AD2575E8F32F32EDDCA6F504B010214000A00000800006B7022423DEE336E79000000790000001B00000000000000000000000000000000006175746F6465736B2D64657369676E2D7061636B6167652E786D6C50
311
4B010214001400060808006B702242D486FD9CA0000000F40000001300000000000000000000000000B20000005B436F6E74656E745F54797065735D2E786D6C504B010214001400060808006B702242F9688A58EA0000007C010000080000000000000000000000000083010000636F72652E786D6C504B01021400140006
311
0808006B70224255019EA25F0000007C000000070000000000000000000000000093020000636E782E786D6C504B010214001400060808006B7022424C02F14166010000020300000C00000000000000000000000000170300006662782F636F72652E786D6C504B010214001400060808006B702242E5A08B807D0000009D
311
0000000B00000000000000000000000000A70400006662782F636E782E786D6C504B010214001400060808006B7022423E664DD02B0100001502000031000000000000000000000000004D0500006662782F37443546313141442D333331362D344639312D413836352D3636384146354431344331332F636F72652E786D6C
311
504B010214001400060808006B7022424F698A1F4D010000330300003000000000000000000000000000C70600006662782F37443546313141442D333331362D344639312D413836352D3636384146354431344331332F636E782E786D6C504B010214001400060808006B702242C8AB1C5BA4050000811000003400000000
311
000000000000000000620800006662782F37443546313141442D333331362D344639312D413836352D3636384146354431344331332F6F626A656374732E786D6C504B010214001400060800006B7022420000000000000000000000003500000000000000000000000000580E00006662782F37443546313141442D333331
311
362D344639312D413836352D3636384146354431344331332F76657274696365732E62696E504B010214001400060808006B702242F270F13306000000040000003600000000000000000000000000AB0E00006662782F37443546313141442D333331362D344639312D413836352D3636384146354431344331332F747269
311
616E676C65732E62696E504B010214001400060800006B7022420000000000000000000000003700000000000000000000000000050F00006662782F37443546313141442D333331362D344639312D413836352D3636384146354431344331332F617474726962757465732E62696E504B010214001400060808006B702242
311
D5987DFC8F0000004101000036000000000000000000000000005A0F00006662782F37443546313141442D333331362D344639312D413836352D3636384146354431344331332F6469726563746F72792E786D6C504B010214001400060808006B702242EAC3A4C0FC000000A00100003B000000000000000000000000003D
311
1000006662782F37443546313141442D333331362D344639312D413836352D3636384146354431344331332F7265736F75726365732F636F72652E786D6C504B0506000000000E000E0080040000921100000000
310
504B03040A00000800006B7022423DEE336E79000000790000001B0000006175746F6465736B2D64657369676E2D7061636B6167652E786D6C3C3F786D6C2076657273696F6E3D22312E302220656E636F64696E673D227574662D3822203F3E3C666F726D6174733E3C666F726D61743E687474703A2F2F736368656D612E
310
6175746F6465736B2E636F6D2F64657369676E2D7061636B6167652F323030393C2F666F726D61743E3C2F666F726D6174733E504B03041400060808006B702242D486FD9CA0000000F4000000130000005B436F6E74656E745F54797065735D2E786D6C7D8EC10E82300C865F65E91D8A1E8C310C0EEA1BF002731658846E
310
D98AC1B77784ABF1D8FE5FBFBF75BBCE937A534CCEB38643598122B6FEE978D0B0485F9C41B54DDD7D022595594E1A469170414C76A4D9A4D207E29CF43ECE46F218070CC6BECC4078ACAA135ACF422C856C0E68EA1BF5669944DDD7BCDE7B1F8E415D77AECB980613C2E4AC91FC167A2B244592486606FC29C8FD7F045B9A
310
EF7053A7E60B504B03041400060808006B702242605CDB57E90000007C01000008000000636F72652E786D6C8D904D6EC3201085AF82668FCD8F9D361626C2E9117A01848983128365A0EAF18B13476A775DCDE8CDFB66464F9CBEE73BFAB26B74C1F7402B02C87A1346E7A71E72BAE077402729D610D22F1B20AF67DBC326
310
8314D31AF2B24B26F8647D2AAA0FA3DD451DA34D80CCBD343D4473B5B3AE744EC5116FD5A2CD4D4FB6A2AFAEC039BB113D8FB8B1EC7317675790035107A214C3ED5929DCBCB1231E381DF0873A9E79C3DB616899A837588AE4E6D77DB35A9DEC089211CA31A198B04FDA7484778C6172E80811F566FF03E565FC27949D4F9C
310
EDEF3EB1089296471E0329EA2D8B521E4195BAE5267F00504B03041400060808006B70224255019EA25F0000007C00000007000000636E782E786D6C4DCB3B0E80201045D1AD90E915ED2CF8AC45050C11660C8261F98AB1B07AC9C97D42D718D865D3E909258CFD00CCE24AC6E326A164D74DC0B4128928FF326038472BA1
310
3128B1252AC747C6BAB984FC68F0B87FE8960A5C09FE86CFB69FBA01504B03041400060808006B7022424751926D64010000020300000C0000006662782F636F72652E786D6C8D52ED8E8320107C15C27F04D1F6AE0DD268EF11EE05A852CF54C120983EFEAD1F4DAF97A6694C90CCECECCE8E8AC3B56BD1A8DDD05893E138
310
62186953DAAA317586833F934F8C0E52386BFD9F328C8CEA748627184B513B1BFA152AADF1DA78408DADF40AAA61D01EA3B2854B8687F247772A52C143C570897A555E54ADA338021AEAA418BC03036819329D589E4F5741175C8A109A6A659B0AA635E7463B2C0B966F599E73B239E639493FF88E14495C90AF7C774CD264
310
53141B2EE82496C237DDCD5DE9B4F2BAC292B338212C268C7FC7E99E257BCE09DBEE1913742A7F1085BE7A53141AE313BEDA5D640396311899897FDB42441E0D6A043F540A3A8508AF39E1C7A0211008D9AB537BDBE302D0A84B6F5D0A4C65C39D1A551B344C65687E045D58E83C3780CD9EF6E12FFABCEE011F50991AAC29
310
0FD753F0D374B14C5DA3E8B523A3BF22635DA7DABBB9C5E2FDBC0F7A2A2F6D6BDD3B6ABAAE4AD730E9F4F7CA5F504B03041400060808006B70224244644A537D0000009D0000000B0000006662782F636E782E786D6C4DCCDD0A832018C6F15B91F7DCD2A6F0066AB4AFFB886521331D4E6397BF1A1DECE8811F0F7FD57D16
310
4F569BDE2E060DBC62406C78C4D1855943C91345209D5129C6FC77031286C56AD8198C9A532CAF83463B0DC5E74DBD0BCF03D9B9B9DF7A79A2C8AF920A719114256FA914A2E1D823B69C416D54FD2B6DBB87CD17504B03041400060808006B702242E10151BD2901000015020000310000006662782F30423246454135332D
310
383144352D343443352D383531392D3534343231384138383931302F636F72652E786D6C8D51CB6EC32010FC158B537AC0061B5B4E8489D2D717F4078821094A0C168F2A9FDFA576A4F6960B8B6667660796EFEFD3ADF8D63E186707444B820A6D47A78C3D0F28C513EE51B117DC3B17FFD05061E5A407946124F8D9BB34AF
310
D0E86CD436026A9DD22B2843D01115E30D2E030AE3454FB2942902235CCB598E5779D6252DA10D3CC143F410A05886E41309F25A7F7E1CDA06F7F4BDC58CBDB5B86FE916B78CD5B43FF4FD96125E2D42C153326A951B0571CCC968FFAC49160B1ECDF4883F7A2DA35648D4843698504CEA2FCA76A4D9D53526DD8EC0E44CFF
310
274AB37A52948C8D4DBDC65D640109CAABA521B872E9787B84D1F7D9F958E4799BA0C71778554948C3DAB6EB19AF162EFC0098766C350DD179F8E1CDF508F46675EE98E0555E1294DF0D42CD0B153F504B03041400060808006B70224229CE45085301000033030000300000006662782F30423246454135332D383144352D
310
343443352D383531392D3534343231384138383931302F636E782E786D6CBD93CD6EC32010845F0571F7BF65451126520F7D821E7AC5B04968305880ABE6EDBB2424CD25874A552FC89A1D66569F30DB7DCD867C820FDAD99136654D0958E994B68791AE715F6C28D971E69D8B0F364AAC9861A449A69C1DBC5B972C29D88B
310
D544548DB6A72C7A086EF51202CAE926314E0A8301608B15459827500A14B91BF16B0F1E5741713A937804F2FAF24EDCF401320656A514CEAAD4C1593A73D3838912694408230DF208B328C51A9D82702A9588A26CCA5BD7939D7E9248BA70AB5CBD26A97CA4E9A43C6F54224756E190B3103DD2CBA6785E8072B12C464B11
310
117275315E3D9CADDAC6A1CF5E8DE03DBABB76D86C30EC32E32CEA19B2437A101114E56DDD7445DD1475FBD6F4DBBADBB66D510FDBBA6655B273363967F2258C01EF16229D8D6023E50DABD2F819BEEC234A7B64EDFCF9172011406EBDD2B967FC259F66E8FAFE1FF95497F78DB83CFE05FC1B504B03041400060808006B70
310
2242D6C19B59630700009A1B0000340000006662782F30423246454135332D383144352D343443352D383531392D3534343231384138383931302F6F626A656374732E786D6CED59DD73A33610FF5718FAD23E189BD8C99D3B841B27BEDC78DAB43775EFA60F9E616490891A2118492471FFFAAE3EC0404C827BE9DB3DD880
310
9056BBBFFDD4127C78CAA8F380B92039BB747D6FE23A98C57942587AE99672377AEF3A1FC280E7B96C4C731D86327CE9AA61370C529E97851D4AF00E955476466FAEFE72448C19769D9822212E5D11DFE10C79A8947982C5BD972089BC74F7E4F99E99D8269B7254DC7588168863268153186740C5314CF9EDC7893B0E83B1
310
7A1F06EADFCE9A0E9A35EB9F35D652B7B9244C48C4E2672C75C84C07B134F567CB8F67E7F3D1F96C361DCD2ECEFCD1D5CDD572E4BF9B4EAE2FAEAFE78B8F73606F9BE7D4CA94E002B304F4B777433F18AB37B5E81681635CC7396338D64002545AAC2E4182056CD5806FD27EF495448DD75AC2C6F34CBDB72C3486A76D2A7D
310
B38601D1A20B82D8ED2A89AB6B53BE7CFB37082E861825175802B74272D0AE85878357B8E124189BD130D81E7441849321893941D4A164CB1107A5C05435250CCC024B46390707528E92406BCEBC6EDB1678E6EBAE738CCB5D49A9F20C37D48E1581FB61293467E41FCC0FDC3791019E40DA9230F9DE7229F70576C37930D6
310
8361A02ED333FBD200E9EC284A8546C4BCED087AAD5C7FB574C35F6EB64F6B150E8E6F5EF0BCC05C2AA3537AD47C8121DBAB42C96EEB0FD29C5A00C21850EDCA03287F00F2BF41F438B0027AE3E469F634B37325474CEC729E816E9C89339AC0DFC4F1F5BFBA6FDC05E37A715B7B7D78829B2AA8DE7F3B9E6D19345696FF06
310
9C61F000069FF3A97DB58E11057BBE250C005246E2D01C8620B4EFB64F6EB882C009811E56211AFA2032B0FB00B7C1D8923968A5722FEB750C10B57B4C87280960D316096CF4E8E913640F4EE2839A9A22F6C17BFE26E6BA58AE7F59977C87627C6B7D7A897784110959F338432DCC5B12DDE3FD63CE1310F439DEEB26DE99
310
DD4A00DA0A73057C5A81A01E0E3BB73688615D9AAB7013BCB20308A1727583FE2D1131A614319C97D5BE757453865A7BBCAD19DCF0CC403C3DEB9830C70F445515E03487192D4621EFC79C140A4437FC6424AB83A6D723DD97D56F6091F5FC9E592B06A19721FAA70E5A477068597685B405A216787B08E7714E731E6DF791
310
89742ED412C046DB5BBEB68842AC374A5254C083B4DF55212535D24609D9ED4A0171F5088B5F57D74D73987853FFDC69FE779C7106D1167C1771EB779D3D2292A114473B94F46DD7DCADA62D34C91ED21CEF28C8451E88DC4748469304A7A7407312F1F99B524F692E04615840BE3A0A7E138D890781C468B3625969B50334
310
11518625A2A720A0C8F480ABD38EAE7163281D5EE7B1B6DE9734D624FA3F590447504BE62C22508A420E799571DF3B8718D246D7A0DCC117ACADA2ADC5A0259410F13E7AC424BD93A7A06EC8F7E01EC391A494515EA018CC7A00D967BEA294DAE17D8BE27B953FA2B8A46F652002D35D44282DB3087E84C1C963886BD781E9
310
45141AC44DEC933883A20CC9920FD9E4E27CF26C1F533374436063A31DA110B6A30C153DA8B702A2AE479C1A7C4BBD47A9DB322B2294E5251B6428DEB4EB4D967C57AD8AEC407E55A908656345D8120C03C2649D55AB980DA6AE032BB8910E54FB48A0ACA0E614F64AE2F16B6FD2947B37E0D64FDF76830C0ABF1EED3523EA
310
AC82C1F2D82A0CC42392F19D1BAEF5757405F577829343AAAF6ACD66050888A9485E726255F46505E58DADD1DCF01649B1F964B26E75FDB2F2A0FB118C610DD42EF5C295023AC34C225599DCAA1BFA078210DCA261C6572AA79E42659124BA6A44F486F4A9B35546B436CD8857DC619667F0631BC2625A26788312711FDD4A
310
1AAD8962DD4AE965A4C2F845017FFFB4EEC003230344FAAC0A3CFCD8596B47AF55B9749488BC2BB32D430482604BB4D4E8C62B586A355269B9BEAA3305D45D606056C5B3EF278B663BE2FBC922B586F14D278BABFDAF68DFEC8B34D279ACECFAA463409D9F1495B73806E8B6434DB5CE2226995BF9AD33451014AB283FB81A
310
AB828621D8C7F17FCEDA7D59D06CD7E1FFB4ACED3FAB384ECA2AADC9AA4B75A4725D3573D8BBE9743E9D9DBF1BF937E7CBD16CB1588C16D0971D7DBC9ACFCFE6CB8B8B8BD98123EDA8615007339DBBE0D904B56A583D590CA02B2B724A1238CD274E8A21E64B38D30F689FF30C0B489ECD6677629BF203563F983EA7445B8A
310
2B4EEE103488A980B40E1895B16C8F3B3F406B52C241FBD285A691770F7FD62A5D0732CFA50BAD0249622CBC2DB49954434F138794AB73BF2506F82096AA946816D5CFF52A854D2BFCD75386A4012B57AB8701855B01DDAF568742F366798A4F12BC62C741126EB7A5846ACDC87218A885D1DB1CD46F64A384DDDBAD9FC075
310
5F16CBF7F49C1622833E19BC680486EA48229EEA7EB762CCB2B4587E1E439FCD59FDEE14B44C4197C3298D3806632E5541055604566169164882A95EFFBCF9CC73F8C49339BA2A727E7C7A7FF1D3E63ACFB29C99A1CD024E65097C2872D677F0D927D940F18055735D6CCE26FED94637B56D9F3DDA22813D5515C140554C28
310
413A260776F9AC4165DB9763A58ACEF4D5D2B141149A01C68E9EF578CD472E077C487D4E511EA3FDBC92F6C5BEF6584F059BE0D0910EFF05504B03041400060800006B702242000000000000000000000000350000006662782F30423246454135332D383144352D343443352D383531392D3534343231384138383931302F
310
76657274696365732E62696E504B03041400060808006B702242F270F1330600000004000000360000006662782F30423246454135332D383144352D343443352D383531392D3534343231384138383931302F747269616E676C65732E62696E636660600000504B03041400060800006B7022420000000000000000000000
310
00370000006662782F30423246454135332D383144352D343443352D383531392D3534343231384138383931302F617474726962757465732E62696E504B03041400060808006B702242D5987DFC8F00000041010000360000006662782F30423246454135332D383144352D343443352D383531392D353434323138413838
310
3931302F6469726563746F72792E786D6C858F410EC2201045AF4266AF15DDB800BA74E7C21B903225242D6328188F2FA5C4183471359997F9FF81E89FF3C41E1816475E02DF1F80A11FC8386F25A438EECEC07A250251FC3803E6F58C12560C4AD840E95E91C151A72936F496F35732D860FE635F62C8F2DA16B505C545B7
310
4125BAA2FA9E05D7CC053D063734D5C7665FD55B6B8D15D5E9BFEAFD8490FFA45E504B03041400060808006B70224208B68666FB000000A00100003B0000006662782F30423246454135332D383144352D343443352D383531392D3534343231384138383931302F7265736F75726365732F636F72652E786D6C8D504B6E83
310
3010BD0A9ABDC1369036C83882F408BD806526D44AB0913F558F5F13A8D4EEBA9919BD8FE6E989CBD7F2283ED107E36C0FACA450A0D56E3276EE21C51B7985E22285772EFE924161D5823D6C3048317B97D603D2CE46B431A3D64D78802A048C50E8473E7A08FA031755AA14B322DCCB55E9BB9AB16465A6B34E8A107D0E50
310
EC4FB609D26370C96B0CA2DA59295232D3A13153FE696E063DC8910E273A0C8CB4D76120CD0B3F93B16623791BCED7BAA9DB716CB9A836B314D12C3F19B547157102C929AB096584F277D674B4EE3827F4D4512AAA4DFEC794D6E99FA6646CACF91177B705902C07791252545B5F793DCBCC7BEB567E03504B010214000A00
310
000800006B7022423DEE336E79000000790000001B00000000000000000000000000000000006175746F6465736B2D64657369676E2D7061636B6167652E786D6C504B010214001400060808006B702242D486FD9CA0000000F40000001300000000000000000000000000B20000005B436F6E74656E745F54797065735D2E
310
786D6C504B010214001400060808006B702242605CDB57E90000007C010000080000000000000000000000000083010000636F72652E786D6C504B010214001400060808006B70224255019EA25F0000007C000000070000000000000000000000000092020000636E782E786D6C504B010214001400060808006B70224247
310
51926D64010000020300000C00000000000000000000000000160300006662782F636F72652E786D6C504B010214001400060808006B70224244644A537D0000009D0000000B00000000000000000000000000A40400006662782F636E782E786D6C504B010214001400060808006B702242E10151BD290100001502000031
310
000000000000000000000000004A0500006662782F30423246454135332D383144352D343443352D383531392D3534343231384138383931302F636F72652E786D6C504B010214001400060808006B70224229CE450853010000330300003000000000000000000000000000C20600006662782F30423246454135332D3831
310
44352D343443352D383531392D3534343231384138383931302F636E782E786D6C504B010214001400060808006B702242D6C19B59630700009A1B00003400000000000000000000000000630800006662782F30423246454135332D383144352D343443352D383531392D3534343231384138383931302F6F626A65637473
310
2E786D6C504B010214001400060800006B7022420000000000000000000000003500000000000000000000000000181000006662782F30423246454135332D383144352D343443352D383531392D3534343231384138383931302F76657274696365732E62696E504B010214001400060808006B702242F270F13306000000
310
0400000036000000000000000000000000006B1000006662782F30423246454135332D383144352D343443352D383531392D3534343231384138383931302F747269616E676C65732E62696E504B010214001400060800006B7022420000000000000000000000003700000000000000000000000000C51000006662782F30
310
423246454135332D383144352D343443352D383531392D3534343231384138383931302F617474726962757465732E62696E504B010214001400060808006B702242D5987DFC8F0000004101000036000000000000000000000000001A1100006662782F30423246454135332D383144352D343443352D383531392D353434
310
3231384138383931302F6469726563746F72792E786D6C504B010214001400060808006B70224208B68666FB000000A00100003B00000000000000000000000000FD1100006662782F30423246454135332D383144352D343443352D383531392D3534343231384138383931302F7265736F75726365732F636F72652E786D
310
6C504B0506000000000E000E0080040000511300000000
  0
XRECORD
  5
17
102
{ACAD_REACTORS
330
12
102
}
330
12
100
AcDbXrecord
280
     1
270
     1
271
     1
  0
XRECORD
  5
16
102
{ACAD_REACTORS
330
12
102
}
330
12
100
AcDbXrecord
280
     1
270
     1
271
     1
  0
XRECORD
  5
18
102
{ACAD_REACTORS
330
12
102
}
330
12
100
AcDbXrecord
280
     1
270
     1
271
     1
  0
XRECORD
  5
15
102
{ACAD_REACTORS
330
12
102
}
330
12
100
AcDbXrecord
280
     1
270
     1
271
     1
  0
XRECORD
  5
24
102
{ACAD_REACTORS
330
22
102
}
330
22
100
AcDbXrecord
280
     1
270
     1
271
     1
  0
XRECORD
  5
23
102
{ACAD_REACTORS
330
22
102
}
330
22
100
AcDbXrecord
280
     1
270
     1
271
     1
  0
XRECORD
  5
BA
102
{ACAD_REACTORS
330
22
102
}
330
22
100
AcDbXrecord
280
     1
 70
     1
 90
1959938040
 71
     1
  1
72ED96F1-6330-4112-821A-FF2DF71E9342
311
504B03040A00000800006B7022423DEE336E79000000790000001B0000006175746F6465736B2D64657369676E2D7061636B6167652E786D6C3C3F786D6C2076657273696F6E3D22312E302220656E636F64696E673D227574662D3822203F3E3C666F726D6174733E3C666F726D61743E687474703A2F2F736368656D612E
311
6175746F6465736B2E636F6D2F64657369676E2D7061636B6167652F323030393C2F666F726D61743E3C2F666F726D6174733E504B03041400060808006B702242D486FD9CA0000000F4000000130000005B436F6E74656E745F54797065735D2E786D6C7D8EC10E82300C865F65E91D8A1E8C310C0EEA1BF002731658846E
311
D98AC1B77784ABF1D8FE5FBFBF75BBCE937A534CCEB38643598122B6FEE978D0B0485F9C41B54DDD7D022595594E1A469170414C76A4D9A4D207E29CF43ECE46F218070CC6BECC4078ACAA135ACF422C856C0E68EA1BF5669944DDD7BCDE7B1F8E415D77AECB980613C2E4AC91FC167A2B244592486606FC29C8FD7F045B9A
311
EF7053A7E60B504B03041400060808006B702242358C3114E90000007C01000008000000636F72652E786D6C8D904D6EC3201085AF82668FCD8FD3C61626B2E4E404BD0002E2A2C46019A87AFCE2C491DA5D57337AF3BE99D113A7EFF98EBEEC1A5DF03DD08A00B25E07E3FCD4434E577C047492620D21FDB201F26AB63D6C
311
324831AD212FBBA4834FD6A7A2FA60EC2EAA186D02A4EFA5E921EA4F3BAB4AE5541CF1562D4ADFD4642BFAEA0A9CB333E879C499B2CF5D9D5D4132DEF0F13C70CC9BA6C50DBB703CD096E2F67869CFE3811FDE8751D41B2C4572F3EBBE5EAD4AD6149E508E09C5847DD0A623BC630C93B78E10516FF63F505ECC3FA1EC7CE2
311
6C7FF7894590B43CF21848516F5994F208AAD42D37F903504B03041400060808006B70224255019EA25F0000007C00000007000000636E782E786D6C4DCB3B0E80201045D1AD90E915ED2CF8AC45050C11660C8261F98AB1B07AC9C97D42D718D865D3E909258CFD00CCE24AC6E326A164D74DC0B4128928FF326038472BA1
311
3128B1252AC747C6BAB984FC68F0B87FE8960A5C09FE86CFB69FBA01504B03041400060808006B702242ED52E69465010000020300000C0000006662782F636F72652E786D6C8D52ED8E8320107C15C27F04C5DED506699AB47D827B01AAD433553008A68F7FEB47E3F5D234171324333BBBB3A3627F6F1B3468D7D7D6E438
311
8E1846DA14B6AC4D95E3E0AF648BD15E0A67ADFF55869151ADCEF10863292A6743B74085355E1B0FA8B1A55E40D5F7DA63543470C9715F7CEB56452A78A8E86F51A78A9BAA74144740439D14BD776000CD43C613CBEBE52EE88C4B11425D2E6C5DC2B4FA5A6B8765C2537E3C1D38E1699A913439737288B39864DB73763A6E
311
F8E6F3701474144BE1EBF6E1AE705A795D829EC59CB098B0E42B4E778CEF9284B08F1D63828EE54FA2D095FF1485DA789E2C7667598F650C4626E2CFB6109147BD1AC00F95828E21C26B4AF83968080442F6EAD23CF6B80134E8C25B970253DAB052836A8286A90C4D8FA0330B9DA706B0D9CB3EC99B3EEF7BC00754A6026B
311
CAC3F512FC385DCC5397283AEDC8E0EFC858D7AA6635375B5CCF75D04B79611BEBFEA3A6CBAA7409938E7FAFFC01504B03041400060808006B70224245193E617E0000009D0000000B0000006662782F636E782E786D6C4DCCD10A83201886E15B91FFDC65259B821A6EAEFB886521990EA76397BF1A1DECE883878F57749F
311
D5A3B74D2F178384FA4400D9F088A30BB3849227CC00754AA418F3DF0D5018562B616750624EB13C0F1AED34149F37F52E2C07D6FA766D4DCF70C3F505534E08668637B8D72DA567CEC8DD30A894A87EA56DF7B0FA02504B03041400060808006B702242686E8FE02C01000015020000310000006662782F31414342334446
311
382D323941372D343930302D384439322D4641333434363938304544382F636F72652E786D6C8D51CB6EC32010FC158B537AC05EC075ED0813A54DF305FD0117931425068B4795CF2FD48ED4DE7261D1ECCCEC6897EF6ED3B5F856CE6B6B7A444A408532D28EDA9C7B14C309B7A8D809EEAC0D7F68A830C3A47A946124F8D9
311
D938AF90B4262813126AECA85670F05E0554C86BFAF4C8CB2F350DE5104362F84B390FF2329C5549CAD44E3CC17D702940B10CC92F1264FFF6CA0EC716D36EFF82EB0E00B7878EE2E39ED575D3B5F07E6879B508058F518FAB5C8F298E3E69E51E35C962C1839EEEF1A553435023121408C34030D00F526F816D29C5D06C01
311
7895E9FF44711E1F14456D02A36BDC45E653565E2D0DC1471B3FAFF730EA365B178A3C6FE3957C42024A00466A4A19E1D5C24D1B48A64DBD9AFA605DDAF0E6F299E8E479716E6AC1AB7CA4547E2F986A3EA8F801504B03041400060808006B7022424F698A1F4D01000033030000300000006662782F31414342334446382D
311
323941372D343930302D384439322D4641333434363938304544382F636E782E786D6CD593CD6EC32010845F0571B78D1D2BAA224CA41EFA043DF44A6093D060B0F8A99AB7EF929034971C7AEC0559B3C3CCEA13E6DBEFD9922F08D17837D1BE659480535E1B7798684EFBE68592ADE0C1FBF460A3C4C919265A642AF821F8
311
BC5449C35E669B50B5C69DAA1820FA1C144494CB4D62BD921603C03519459877A035687237E2D71E02AE82E2EE4CD211C8DBEB07F1BB4F5029F2AEA408DE950EC1CB599B1E4C94282B639C68544798652B73F21AE2A9D532C9B66F6F5D4F76FA4D22E5C2AD3207434AF944CB4945DDA8458EBCC3A1E03105A4574DE9BC0015
311
7259AC513221E4EE62BC7A04CFC6A5F558BD06C10774F7EBD53862D8652678323354870A2013682A06D6AF1AD6376C78EFC70D5B6D86A161EB0D63BC2B76C177DEDB7A096320F88528EF12B84445CFBB327E86AFFA88360159FB70FE034804505BAF74EE19FF994F7779DF882BE05F207E00504B03041400060808006B7022
311
429807D6CEA405000080100000340000006662782F31414342334446382D323941372D343930302D384439322D4641333434363938304544382F6F626A656374732E786D6CAD57DB6EDB3810FD1541FBB2FBE08B6C374D168A8AC48E0BA3485BD468B10F060C4AA2146EA80B482A75F6EBF750A464C9B113EFA22F96450D87
311
3367CE5CE87FD865DC79A242B222BF76BDE1D875681E1531CBD36BB752C9E0D2753E04BE280AD511739D9C64F4DAD5CB6EE0A7A2A84ABB14D384545C1DAC2E6FFF72644473EA3A1127525EBB327AA01919924A1531958FC39828324C93DDD01B1AC1BEDA5490F2E140694904CD152CC57A0E2D8E31CAEBBF8EDD51E08FF4F7
311
C0D7BF566A7A5A6A54FBD33F9FE552913C7A71D8819AA9375BDC4DDE5D0DDECD66D3C1EC62E20D6E97B78B81F77E3A9E5FCCE75737775738582A014DD612411337F8086C048BFC91F914F815CBD57462456C8046823E311D293798389E3F3232AD77D6C963E647459ED3A8C60A68D4FE59D5312D691E23E68C4A58D64168DC
311
7FF5348E9DCF53FD6E8FEC2E9F874077474751637BF3EC5A5A847FC305790E8384A49A81064BEBA8E1EA788F705814DC7E63D2C988A28211EE70160A229EDD00A25A24F07B6A349385CE06ED811B200AE6739F2E48A3B7797ECCCAA4E25CD3D80DEA2CD82257A892B565EC1F2AF6D67791814D889566C3A575483D97D40DAE
311
0C452E0FD8648074124E52841C6EEA9DD3C981A3739DA7AB851B7C5A86BBB5CEDDE38797A228A9509A3EA05613B8E6A951B2367967454E6F700F4CD983F20DC87F46AAEF4D41DC04DBCD76337B8A122497492132C4C6193B83317EC68E57FFEAFF9D7FFEA8DDDC8FDE293C116C0DD52FC0B3EF4337961D3803FF09842FC4D4
311
BAB68E0847D9B8673900D22471788125D4E124DCB9C10A550E5519BB080F3CB80C739FF0D71F59352814F5499D670E2C0FCAE219051AB0D58C841986FCD6C07D9C5E94B3FA602B760ADE77BF84AE378BF5A775251212D17B9BD30B9AB09C29B4B83D6FBA06F530EF79F4489F7F162286A32FF15E77F1CEEC5112686BCC35F0
311
6953D3F5CBFEE4DE0111F6A5852E37FE1B27C009DD583BFAEF998C28E724A745D59CFB6AFF40DB3010EB64D74C6E1BCCBEB18034E6CB410EA2494782951AC4B65BB5457378C2BBEFABCF6024E4791112BE170AF7A5372A7821B6E1F3D654A5A348FFE853DB4230D25AC0F63A479AF4B7986F63962495440D3C02EB8FD5BC1B
311
3A5D1550211AAD265966701FB94584E56CA317CD5A1034D222DF32B44DA4DDD103BAFA81A82540ADF094C592F264CB38AFB26DC2389AD13623E50938FEBFFD6195955B921555AE4EE8EE998EE6D0B7BD475EF993A8E8C10DD6F573708BD21BD3781FE69EB06E2547B0EA85F6FDE46E7175B1F40617D3E97830F3BCC9E072E2
311
DD0C96CBC962F9DEBBBB9ACE264D9C8CF2C06F3A4D37A111257436BF12CC86EFFB0AE9636B801BDC1325371F4D7636CFEFAB2146617F843D6897EDC69BF809631F8DDF56B0973CAA6895959C66345744A7D0BDFEC3BF118C193D63CCFA2A23293D43CB978FEB0367B072C6BEAF3ADDE9CF83BD7675AE13F2A812F55065614E
311
183FD8981A2487659E5AFC9A98B44FD3679A57FD660383C154169CC52883B193D222A30AC5F08C1E24322A41BDEE481FDBABC719BB9FCC80A848C86963C903C18CCC25D202D4AA22D55F777EC34CA7C7AA6B17DD76F8881F5B295C079CB97631A32B1651390CD19FF524542B0797BA833CE67E92A71CA3B6D9D4BEB7BB3436
311
BD8EDC8A9C333E59BF4C05B70EA08C94181B300F213AB531815FDB66BF47FFC9F1C61C8728FC0D2BD5FAB25F689DA98F418A1AA7EC650133CCA33D7A87447DDD2D6F58CBF41039EB92F52A098CD6812222AD2F0ADA3E6BD2CDE2EB08038AB3FAE294BC4A11CBF3350D0405992B9DE06011586175964481AAF33F375F45818B
311
6CE62C1928E0FCBEBBBCF863332FB2ACC8CDD2E6C65E879DF5032EB7F106C581EA5B89DC4CC6DE6453DF06EC05651B12498724968F584064056B81EE851FBC345746F421F3A1951BE9501C3074B5706C639B41A9A54BB7B66A703077E4D4410EE91BA5CE98AE40F9EA8560548BC20481513EF817504B03041400060800006B
311
702242000000000000000000000000350000006662782F31414342334446382D323941372D343930302D384439322D4641333434363938304544382F76657274696365732E62696E504B03041400060808006B702242F270F1330600000004000000360000006662782F31414342334446382D323941372D343930302D3844
311
39322D4641333434363938304544382F747269616E676C65732E62696E636660600000504B03041400060800006B702242000000000000000000000000370000006662782F31414342334446382D323941372D343930302D384439322D4641333434363938304544382F617474726962757465732E62696E504B0304140006
311
0808006B702242D5987DFC8F00000041010000360000006662782F31414342334446382D323941372D343930302D384439322D4641333434363938304544382F6469726563746F72792E786D6C858F410EC2201045AF4266AF15DDB800BA74E7C21B903225242D6328188F2FA5C4183471359997F9FF81E89FF3C41E181647
311
5E02DF1F80A11FC8386F25A438EECEC07A250251FC3803E6F58C12560C4AD840E95E91C151A72936F496F35732D860FE635F62C8F2DA16B505C545B74125BAA2FA9E05D7CC053D063734D5C7665FD55B6B8D15D5E9BFEAFD8490FFA45E504B03041400060808006B70224226271F8CFB000000A00100003B0000006662782F
311
31414342334446382D323941372D343930302D384439322D4641333434363938304544382F7265736F75726365732F636F72652E786D6C8D50596AC33010BD8AD1BF6C2D4E1B1B59C1E0E404BD80902789482C192DA5C7AF14BBD0FEF56766780BF378E2F4B53CAB4FF0C1383B205A135481D56E36F636A014AFF888AA9314
311
DEB9F84B862AAB16185081911437EFD2BA43DAD9083666D4BA19765085001155FA998F01057D8745D52AC5AC088F7A55FAA16E50D33AD3592745883E07A8B6276522E921B8E43504D16CAC14299979D79839FF3457031E49C65B3E9D478679DB76B865178E47DA51DC1D2FDD793AF0C3FB3889A698A58866F9C9A83DA80873
311
F613CA31A198B00FDAF684F78C61F2D613229A22FF634AEBFC4F53323672B6C7DD6C01499A83BC08299AD2575EAF32F32EDDCA6F504B010214000A00000800006B7022423DEE336E79000000790000001B00000000000000000000000000000000006175746F6465736B2D64657369676E2D7061636B6167652E786D6C504B
311
010214001400060808006B702242D486FD9CA0000000F40000001300000000000000000000000000B20000005B436F6E74656E745F54797065735D2E786D6C504B010214001400060808006B702242358C3114E90000007C010000080000000000000000000000000083010000636F72652E786D6C504B0102140014000608
311
08006B70224255019EA25F0000007C000000070000000000000000000000000092020000636E782E786D6C504B010214001400060808006B702242ED52E69465010000020300000C00000000000000000000000000160300006662782F636F72652E786D6C504B010214001400060808006B70224245193E617E0000009D00
311
00000B00000000000000000000000000A50400006662782F636E782E786D6C504B010214001400060808006B702242686E8FE02C0100001502000031000000000000000000000000004C0500006662782F31414342334446382D323941372D343930302D384439322D4641333434363938304544382F636F72652E786D6C50
311
4B010214001400060808006B7022424F698A1F4D010000330300003000000000000000000000000000C70600006662782F31414342334446382D323941372D343930302D384439322D4641333434363938304544382F636E782E786D6C504B010214001400060808006B7022429807D6CEA405000080100000340000000000
311
0000000000000000620800006662782F31414342334446382D323941372D343930302D384439322D4641333434363938304544382F6F626A656374732E786D6C504B010214001400060800006B7022420000000000000000000000003500000000000000000000000000580E00006662782F31414342334446382D32394137
311
2D343930302D384439322D4641333434363938304544382F76657274696365732E62696E504B010214001400060808006B702242F270F13306000000040000003600000000000000000000000000AB0E00006662782F31414342334446382D323941372D343930302D384439322D4641333434363938304544382F74726961
311
6E676C65732E62696E504B010214001400060800006B7022420000000000000000000000003700000000000000000000000000050F00006662782F31414342334446382D323941372D343930302D384439322D4641333434363938304544382F617474726962757465732E62696E504B010214001400060808006B702242D5
311
987DFC8F0000004101000036000000000000000000000000005A0F00006662782F31414342334446382D323941372D343930302D384439322D4641333434363938304544382F6469726563746F72792E786D6C504B010214001400060808006B70224226271F8CFB000000A00100003B000000000000000000000000003D10
311
00006662782F31414342334446382D323941372D343930302D384439322D4641333434363938304544382F7265736F75726365732F636F72652E786D6C504B0506000000000E000E0080040000911100000000
310
504B03040A00000800006B7022423DEE336E79000000790000001B0000006175746F6465736B2D64657369676E2D7061636B6167652E786D6C3C3F786D6C2076657273696F6E3D22312E302220656E636F64696E673D227574662D3822203F3E3C666F726D6174733E3C666F726D61743E687474703A2F2F736368656D612E
310
6175746F6465736B2E636F6D2F64657369676E2D7061636B6167652F323030393C2F666F726D61743E3C2F666F726D6174733E504B03041400060808006B702242D486FD9CA0000000F4000000130000005B436F6E74656E745F54797065735D2E786D6C7D8EC10E82300C865F65E91D8A1E8C310C0EEA1BF002731658846E
310
D98AC1B77784ABF1D8FE5FBFBF75BBCE937A534CCEB38643598122B6FEE978D0B0485F9C41B54DDD7D022595594E1A469170414C76A4D9A4D207E29CF43ECE46F218070CC6BECC4078ACAA135ACF422C856C0E68EA1BF5669944DDD7BCDE7B1F8E415D77AECB980613C2E4AC91FC167A2B244592486606FC29C8FD7F045B9A
310
EF7053A7E60B504B03041400060808006B70224201391BA1ED0000007C01000008000000636F72652E786D6C7590516EC3201044AF82F61F1B8C13D71626AA93F604BD0002E2A0C46019A87AFCE2C491D28F7EED6898C7AE861F7EA61BFA364BB0DEF5400B02C838E5B575630F299EF11BA083E08BF7F12506C8C9C9F4B0DA
310
20F8B8F8346F96F22E1A17B3EBBC369B2943301190BA65D143501733C942A69813E15ACC525DE5680AFA54194EC96AF4586275FECF9EAD594034F4F8711C6A86DB5D5BE37A78DFE161A80926CD276BC9A919F6ECC4CB15163CDAE9B95F2D4646A3415484324C2826D517AD3BC2BA2AEB7D47082FD7F81F28CDFA3FA8C2E415
310
4AD645566DE73EB00082E643EE0F82976B1779DC8BCA73ED4DFC02504B03041400060808006B70224255019EA25F0000007C00000007000000636E782E786D6C4DCB3B0E80201045D1AD90E915ED2CF8AC45050C11660C8261F98AB1B07AC9C97D42D718D865D3E909258CFD00CCE24AC6E326A164D74DC0B4128928FF3260
310
38472BA13128B1252AC747C6BAB984FC68F0B87FE8960A5C09FE86CFB69FBA01504B03041400060808006B702242E613E99C6A010000020300000C0000006662782F636F72652E786D6C8D525B6E833010BC8AE57F63F348D244C65149DA13F4020E3814056C646C94E377794424551A5548C69AD9D99D1DE0FB6B53A35ED9
310
AE323AC561C030523A3745A5CB147B77266F18ED05B7C6B8BB328CB46C548A07180B5E5AE3DB19CA8D764A3B40B529D40CCAAE530EA3BC864B8ABBFC5B353290DE414577095A995F64A98230001AEA04EF9C0503681A329C589C4F574E275C70EFAB6266AB02A655E74A592C36E1E1E3902531D9AEB60949B2F715C9B28411
310
B6F98CB7ECB8C9D6F191D3412CB8AB9A9BBBDC2AE9548145C4C298B090B0E82B4C762CDE45705FEF18E374287F10F9B6F84B1411762FF295767134DB9D641D16211819895FDB42440E75B2073F54703A8408AF31E1C7A0211008D9C9537DDBE30250AF72676C024C61FC42F5B2F60AA632343E9C4E2C741E1BC0664FFB442F
310
FABCEE011F50EA12AC4907D79377C3743E4D9DA3689525BDBB226D6C23EBC5DC64713997414FE5B9A98DFD8F9ACEABD2394C3AFCBDE207504B03041400060808006B702242B11798487D0000009D0000000B0000006662782F636E782E786D6C4DCCD10A83201805E05791FFDE35B7C802355CCEF7886521990EA7638F3F1B
310
5DECE61CF8381CD67F3687DE26BE6CF01CC8E90CC8F84798AC5F38E434E316502F580C21FDCD00F971331C7606C19618F2F3A0C9CC6376A9A8B37E3D90A8465DE49DE2411389EBFA2671A7755B42D1E12A296968079560D5EFA9F47E2CBE504B03041400060808006B702242604714B0310100001502000031000000666278
310
2F31443644324145372D434631412D343442412D394646382D3946443743334137313637392F636F72652E786D6C8D51DB6EC2300CFD95284FEC216DD2762DA034A883F105FB8192041641932A9789CF9FBB16893D4CDA8B6DD9E71C1FD97C771F6EE84BFB609C6D31CB2846DA4AA78CBDB438C5335963B413DC3B179F6018
310
D97ED02D9EDA58F08B77695C5AD2D9A86D84AE754A2FCD3E041D319237285A1CE4A71EFAAC4F1110E19A8DBDBCF6179DB10CC680133C440F06D0BC648A58B0437D28BAF786EC8FAC2355F5D691CDF1B8867068F665D7B0BAD9F07C260A9E92510BDD28B063CE46FBFF8A4C64C1A3191EF6A5D77DD40A8B82B292504668F1C1
310
AA2D2DB705D4F596529E4FF05FA434AABF4805A1CFA4646C2C8BC5EE4C0BE095E7F34070E5D2E9F630A3EFA3F3114DFB5641CB172C684669D96CCA5756F07CC6C20540B4AE16D1109D870BAFAE2780976C56AE2BC1F3E949907E3E08797AA8F806504B03041400060808006B7022427913EC59560100003303000030000000
310
6662782F31443644324145372D434631412D343442412D394646382D3946443743334137313637392F636E782E786D6CAD93CD6EC32010845F0571F7BF65451126520F7D821E7AC5B04969305880ABE6EDBB2424CD258754BD20343BCCAC3ED96CF73D1BF2053E686747DA94352560A553DA1E46BAC67DB1A164C799772EDE
310
D928B162869126997276F06E5DB2A4602F56135135DA1EB3E821B8D54B0828A797C438290C06802D5614619E402950E466C4DB1E3CAE82E27422F103C8EBCB3B71D327C81858955238AB520767E9CC4D77264AA411218C34C80F984529D6E8148463A9441465535EBB1EECF49B44D2836BE5EA3549E5234D27E579A31239B2
310
0A879C85E8915E36C5D302948B65315A8A8890ABB3F1E2E16CD5360E7DF66A04EFD1DDB5C3668361E7196751CF901DD28388A0286FEBA62BEAA6A8DBB7A6DFD6DDB6C5FBB0AD6B56253B679373263FC218F06E21D2D9083652DEB02A8D1FE1CB3EA2B447D6CE9F9E00890072EB85CE2DE33FF93443D7F7CFF2698BFAAF7CAA
310
F3F78DB83CFE05FC07504B03041400060808006B70224205E786DA61070000991B0000340000006662782F31443644324145372D434631412D343442412D394646382D3946443743334137313637392F6F626A656374732E786D6CED595B73A33614FE2B0C7D691F8C8DED64930EA193C449C6B393DD9D7577A70F9E616490
310
891A211849E4D25FDFA30B18884970377DDB071B10D2D139DFB9EA10FCF19451E70173417276E6FADEC475308BF384B0F4CC2DE57674E23A7F8401CF73D998E63A0C65F8CC55C36E18A43C2F0B3B94E02D2AA9EC8C5E5FFCE5881833EC3A3145429CB922BEC319F25029F3048B7B2F411279E9F6C9F33D33B14D36E5A8B8EB
310
102D10C74C02A730CE808A6398F2DB8F13771C0663F53E0CD4BF9D351B346BDE3F6BACA56E7349989088C52F58EA90990D6269E6CF1757D3A3D3D1D17C3E1BCD8FA7FEE8E2FA6231F23FCC2697C79797A7E757A7C0DE26CFA99529C1056609E8EFD90DFD60ACDED4A25B04F6711DE78CE15803095069B1BA040916B05503BE
310
49FBD15712355E6B091BCF73F5DEB2D0189EB5A9F4CD1A06448B2E0862B7AB24AEAE4DF9F2CDDF20B81862945C6009DC0AC941BB161E0E5EE18693606C46C360B3D305114E8624E6045187920D471C940253D59430300B2C19E51C1C48394A02AD39F3BA6D5BE0996FBBCE3E2EB725A5CA33DC503B5604EE87A5D09C917F30
310
DF71DF44067802694BC2E489E5523E17D80D4F83B11E0C0375994DED4B03A4B3A528151A11F3B623E8A572FDE5C20D3F5E6F9E562A1CECDFBCE07981B95446A7F4A8F90243B6578592DDD61FA439B5008431A0DA953B50BE02F29F207AEC5801BD71F2347F9ADBB9922326B639CF4037CEC4194DE06FE2F8FA5FDD37EE8271
310
BDB8ADBD3E3CC14D1554273F8E675B068D95E5BF0167183C80C1E77C665FAD6244C19E6F09038094913834872108EDDBCD931B2E217042A0875588863E880CEC3EC06D30B664765AA9DCCB7A1D0344ED1EB3214A02D8B445021B3D7ABA81ECC149BC535353C43E788FDEC55CCF17AB8FAB926F518C6FAD4F2FF0963022216B
310
EE67A885794BA27BFCFC98F304047D89F7AA897766B71280B6C25C019F5620A887DDCEAD0D625897E62ADC046FEC0042A85CDDA07F4B448C29450CE765B56F1DDD94A1D61E6F6B06379C1A8867D38E0973FC405455014EB39BD16214F27ECC49A14074C31B23591D34BD1EE9BE2D3F8145D6F37B662D19845E86E89F3A68ED
310
C1A165D915D216885AE0CD2E9CC739CD79B4798E4CA473A1960036DADEF2BD451462BD5192A2021EA4FDAE0A29A991364AC8765B0A88AB7B58FCBEBC6C9AC3C49BF9474EF3BFE38C7388B6E0BB885BBFEBEC11910CA538DAA2A46FBBE66E356DA149F690E6784B412EF240E47384643449707A083407113F7D57EA29CD8520
310
0C0BC8577BC16FA231F12090186D562C2BAD76802622CAB044F4100414991E7075DAD1356E0CA5C3DB3CD6D6FB9AC69A44FF278BE0086AC99C45044A51C8216F32EE7B471043DAE81A943BF882B555B4B518B48412227E8E1E3149EFE421A81BF23DB8C77024296594172806B31E40F685AF28A57678DFA0F85EE58F282EE9
310
7B1988C0741B114ACB2C821F6170F218E2DA75607A1585067113FB24CEA02843B2E44336393E9ABCD8C7D40CDD10D8D8684B2884ED2843450FEAAD80A8EB11A706DF52EF51EAA6CC8A086579C906198A37EB7A9325DF55AB223B905F552A42D95811B604C380305967D52A6683A9EBC00A6EA403D57324505650730A7B23F1
310
F8B53769CABD1B70EBA7EFBB4106855F8FF69A11755EC160796C1506E211C9F8CE0D57FA3ABA80FA3BC1C92ED557B566B30204C454242F39B12AFAB684F2C6D6686E788BA458DF98AC5B5DBF2D3DE87E04635803B54BBD70A980CE3093485526B7EA867E4510825B34CCF852E5D443A89C2789AE1A11BD267DEA6C9511AD4D
310
33E2157798E519FCD89AB09896095EA344DC47B792462BA258B7527A19A9307E55C0CF37AB0E3C303240A42FAAC0C38F9DB576F452954B7B89C8BB32DB30442008B6444B8D6EBC82A556239596EBAB3A5340DD050666553CFF79B268B6237E9E2C526B183F76B2A0F906D15DB46964F35899F541A7803A3D292AEF710AD05D
310
879A6A9D444C2EB7E25B5F8A202656417E703156C50C43B08FE3FF9CB4FB92A0D9AEC3FF6149DB7F51701C94545A9355936A4FE1BA6CA6B00FD3ABC5E9F1B53F3A9ECD26A3B9EF4F472753FF7C747D3D5D5C7FF0AF4E67F33A131BE26150C7329DBAE0D9C4B46A583D590CA0292B724A1238CC274E8A21E44B38D20FE89EF3
310
0C0BC89DCD5E77627BF203563F9836A7441B8A2B4EEE10F487A980AC0E6294B16C8F3BBF406752C239FBCC859E91770F7FD62A5D0712CF990B9D0249622CBC0D7499543F4F13878CAB53BF2506710CB1546544B3A87EAE57296C5AD1BF9E32240B58B95A2D0CA8DB0A687EB51A149A37CB537C90E0153B0E9270BB2925146B
310
4696DD402D8CDE66A77E231B25ECDE6EFD04AEFBBA58BEA7E7B41019F4C5E0552330544712F154B7BB156396A5F3C59731B4D99CE567A7A0650ABA1C4E69C4311873A9EA29B022B00A4BB340124CF5F2F7F5179EC3179ECCD14591F3EBD3C9F16FEBCB3CCB726686D6E770284BE03B91B3BA83AF3EC91A6A07AC7AEB623D9D
310
F8D3B5EE69DB367BB441027BAA288281AA965082744C0EECF2457FCA762FC74A159DE9CB85638328F4028C1DBD68F19A6F5C0EF890FA9AA23C46FB7925EDAB6DEDB19E0A36C1A1211DFE0B504B03041400060800006B702242000000000000000000000000350000006662782F31443644324145372D434631412D34344241
310
2D394646382D3946443743334137313637392F76657274696365732E62696E504B03041400060808006B702242F270F1330600000004000000360000006662782F31443644324145372D434631412D343442412D394646382D3946443743334137313637392F747269616E676C65732E62696E636660600000504B03041400
310
060800006B702242000000000000000000000000370000006662782F31443644324145372D434631412D343442412D394646382D3946443743334137313637392F617474726962757465732E62696E504B03041400060808006B702242D5987DFC8F00000041010000360000006662782F31443644324145372D434631412D
310
343442412D394646382D3946443743334137313637392F6469726563746F72792E786D6C858F410EC2201045AF4266AF15DDB800BA74E7C21B903225242D6328188F2FA5C4183471359997F9FF81E89FF3C41E1816475E02DF1F80A11FC8386F25A438EECEC07A250251FC3803E6F58C12560C4AD840E95E91C151A72936F4
310
96F35732D860FE635F62C8F2DA16B505C545B74125BAA2FA9E05D7CC053D063734D5C7665FD55B6B8D15D5E9BFEAFD8490FFA45E504B03041400060808006B7022421292353900010000A00100003B0000006662782F31443644324145372D434631412D343442412D394646382D3946443743334137313637392F7265736F
310
75726365732F636F72652E786D6C75504B6E833010BD0A9ABDC106120A328E4AD29EA017B0CC845A0936F2A7EAF16B0295D2453733A3F7D13C3D7EFA9EEFD9173AAFADE981E5143234CA8EDA4C3DC470252F909D0477D68627196446CED8C30A83E093B371D921654D4013126AEC883B28BDC70099BAA7A307AF3E7196B98C
310
2129FC2D5FA4BAC9097396273AE904F7C1A500D9F6649D201C7A1B9D42CF8B8D153C463DEE1A3DA69FFAAAD18168D8F9ED3CD425690F6D4DEAE1F54086A1A68436EF554B2FCD70AC2EBC58CD82073DFF66540E65C011444959452823B4FC607547ABAE4CF7B1A39417ABFC8F292EE37FA692D06753D42654E51E77B379102C
310
05791082176B5F693DCA4C7BED56FC00504B010214000A00000800006B7022423DEE336E79000000790000001B00000000000000000000000000000000006175746F6465736B2D64657369676E2D7061636B6167652E786D6C504B010214001400060808006B702242D486FD9CA0000000F400000013000000000000000000
310
00000000B20000005B436F6E74656E745F54797065735D2E786D6C504B010214001400060808006B70224201391BA1ED0000007C010000080000000000000000000000000083010000636F72652E786D6C504B010214001400060808006B70224255019EA25F0000007C000000070000000000000000000000000096020000
310
636E782E786D6C504B010214001400060808006B702242E613E99C6A010000020300000C000000000000000000000000001A0300006662782F636F72652E786D6C504B010214001400060808006B702242B11798487D0000009D0000000B00000000000000000000000000AE0400006662782F636E782E786D6C504B010214
310
001400060808006B702242604714B031010000150200003100000000000000000000000000540500006662782F31443644324145372D434631412D343442412D394646382D3946443743334137313637392F636F72652E786D6C504B010214001400060808006B7022427913EC595601000033030000300000000000000000
310
0000000000D40600006662782F31443644324145372D434631412D343442412D394646382D3946443743334137313637392F636E782E786D6C504B010214001400060808006B70224205E786DA61070000991B00003400000000000000000000000000780800006662782F31443644324145372D434631412D343442412D39
310
4646382D3946443743334137313637392F6F626A656374732E786D6C504B010214001400060800006B70224200000000000000000000000035000000000000000000000000002B1000006662782F31443644324145372D434631412D343442412D394646382D3946443743334137313637392F76657274696365732E62696E
310
504B010214001400060808006B702242F270F133060000000400000036000000000000000000000000007E1000006662782F31443644324145372D434631412D343442412D394646382D3946443743334137313637392F747269616E676C65732E62696E504B010214001400060800006B7022420000000000000000000000
310
003700000000000000000000000000D81000006662782F31443644324145372D434631412D343442412D394646382D3946443743334137313637392F617474726962757465732E62696E504B010214001400060808006B702242D5987DFC8F0000004101000036000000000000000000000000002D1100006662782F314436
310
44324145372D434631412D343442412D394646382D3946443743334137313637392F6469726563746F72792E786D6C504B010214001400060808006B7022421292353900010000A00100003B00000000000000000000000000101200006662782F31443644324145372D434631412D343442412D394646382D394644374333
310
4137313637392F7265736F75726365732F636F72652E786D6C504B0506000000000E000E0080040000691300000000
  0
XRECORD
  5
27
102
{ACAD_REACTORS
330
22
102
}
330
22
100
AcDbXrecord
280
     1
270
     1
271
     1
  0
XRECORD
  5
26
102
{ACAD_REACTORS
330
22
102
}
330
22
100
AcDbXrecord
280
     1
270
     1
271
     1
  0
XRECORD
  5
28
102
{ACAD_REACTORS
330
22
102
}
330
22
100
AcDbXrecord
280
     1
270
     1
271
     1
  0
XRECORD
  5
25
102
{ACAD_REACTORS
330
22
102
}
330
22
100
AcDbXrecord
280
     1
270
     1
271
     1
  0
XRECORD
  5
1114
102
{ACAD_REACTORS
330
1113
102
}
330
1113
100
AcDbXrecord
280
     1
102
ACAD_ROUNDTRIP_2012_MLEADER_STYLE
298
     1
  0
CELLSTYLEMAP
  5
1112
102
{ACAD_REACTORS
330
1111
102
}
330
1111
100
AcDbCellStyleMap
 90
        3
300
CELLSTYLE
  1
TABLEFORMAT_BEGIN
 90
        5
170
     1
 91
        0
 92
    32768
 62
   257
 93
        1
300
CONTENTFORMAT
  1
CONTENTFORMAT_BEGIN
 90
        0
 91
        0
 92
      512
 93
        0
300

 40
0.0
140
1.0
 94
        5
 62
     0
340
55
144
0.25
309
CONTENTFORMAT_END
171
     0
 94
        0
309
TABLEFORMAT_END
  1
CELLSTYLE_BEGIN
 90
        1
 91
        1
300
_TITLE
309
CELLSTYLE_END
300
CELLSTYLE
  1
TABLEFORMAT_BEGIN
 90
        5
170
     1
 91
        0
 92
        0
 62
   257
 93
        1
300
CONTENTFORMAT
  1
CONTENTFORMAT_BEGIN
 90
        0
 91
        0
 92
      512
 93
        0
300

 40
0.0
140
1.0
 94
        5
 62
     0
340
55
144
0.18
309
CONTENTFORMAT_END
171
     0
 94
        0
309
TABLEFORMAT_END
  1
CELLSTYLE_BEGIN
 90
        2
 91
        1
300
_HEADER
309
CELLSTYLE_END
300
CELLSTYLE
  1
TABLEFORMAT_BEGIN
 90
        5
170
     1
 91
        0
 92
        0
 62
   257
 93
        1
300
CONTENTFORMAT
  1
CONTENTFORMAT_BEGIN
 90
        0
 91
        0
 92
      512
 93
        0
300

 40
0.0
140
1.0
 94
        2
 62
     0
340
55
144
0.18
309
CONTENTFORMAT_END
171
     0
 94
        0
309
TABLEFORMAT_END
  1
CELLSTYLE_BEGIN
 90
        3
 91
        2
300
_DATA
309
CELLSTYLE_END
  0
ENDSEC
  0
EOF
