  0
SECTION
  2
HEADER
  9
$ACADVER
  1
AC1024
  9
$ACADMAINTVER
 70
    63
  9
$DWGCODEPAGE
  3
ANSI_1252
  9
$AUTHOR
  1
KA
  9
$REVISIONNUMBER
  1
-
  9
$CUSTOMPROPERTYTAG
  1
Manager
  9
$CUSTOMPROPERTY
  1

  9
$CUSTOMPROPERTYTAG
  1
Company
  9
$CUSTOMPROPERTY
  1

  9
$CUSTOMPROPERTYTAG
  1
Category
  9
$CUSTOMPROPERTY
  1

  9
$CUSTOMPROPERTYTAG
  1
Part Number
  9
$CUSTOMPROPERTY
  1
SSWT4-S
  9
$CUSTOMPROPERTYTAG
  1
Description
  9
$CUSTOMPROPERTY
  1

  9
$CUSTOMPROPERTYTAG
  1
Project
  9
$CUSTOMPROPERTY
  1

  9
$CUSTOMPROPERTYTAG
  1
Designer
  9
$CUSTOMPROPERTY
  1
KA
  9
$CUSTOMPROPERTYTAG
  1
Engineer
  9
$CUSTOMPROPERTY
  1

  9
$CUSTOMPROPERTYTAG
  1
Authority
  9
$CUSTOMPROPERTY
  1

  9
$CUSTOMPROPERTYTAG
  1
Cost Center
  9
$CUSTOMPROPERTY
  1

  9
$CUSTOMPROPERTYTAG
  1
Vendor
  9
$CUSTOMPROPERTY
  1

  9
$CUSTOMPROPERTYTAG
  1
User Status
  9
$CUSTOMPROPERTY
  1

  9
$CUSTOMPROPERTYTAG
  1
Design Status
  9
$CUSTOMPROPERTY
  1
WorkInProgress
  9
$CUSTOMPROPERTYTAG
  1
Checked by
  9
$CUSTOMPROPERTY
  1
DN
  9
$CUSTOMPROPERTYTAG
  1
Date Checked
  9
$CUSTOMPROPERTY
  1
08/10/2012
  9
$CUSTOMPROPERTYTAG
  1
Engr Approved by
  9
$CUSTOMPROPERTY
  1

  9
$CUSTOMPROPERTYTAG
  1
Mfg Approved by
  9
$CUSTOMPROPERTY
  1

  9
$CUSTOMPROPERTYTAG
  1
DWG. NO
  9
$CUSTOMPROPERTY
  1

  9
$CUSTOMPROPERTYTAG
  1
NUMBER OF SHEETS
  9
$CUSTOMPROPERTY
  1
1
  9
$CUSTOMPROPERTYTAG
  1
DRAWING #
  9
$CUSTOMPROPERTY
  1

  9
$INSBASE
 10
0.0
 20
0.0
 30
0.0
  9
$EXTMIN
 10
0.0
 20
0.0
 30
0.0
  9
$EXTMAX
 10
54.40000000000001
 20
35.2
 30
0.0
  9
$LIMMIN
 10
0.0
 20
0.0
  9
$LIMMAX
 10
54.40000000000001
 20
35.2
  9
$ORTHOMODE
 70
     0
  9
$REGENMODE
 70
     1
  9
$FILLMODE
 70
     1
  9
$QTEXTMODE
 70
     0
  9
$MIRRTEXT
 70
     0
  9
$LTSCALE
 40
3.2
  9
$ATTMODE
 70
     1
  9
$TEXTSIZE
 40
0.2
  9
$TRACEWID
 40
0.05
  9
$TEXTSTYLE
  7
Standard
  9
$CLAYER
  8
0
  9
$CELTYPE
  6
ByLayer
  9
$CECOLOR
 62
   256
  9
$CELTSCALE
 40
1.0
  9
$DISPSILH
 70
     0
  9
$DIMSCALE
 40
1.0
  9
$DIMASZ
 40
0.0708661417322835
  9
$DIMEXO
 40
0.0625
  9
$DIMDLI
 40
0.38
  9
$DIMRND
 40
0.0
  9
$DIMDLE
 40
0.0
  9
$DIMEXE
 40
0.18
  9
$DIMTP
 40
0.0
  9
$DIMTM
 40
0.0
  9
$DIMTXT
 40
0.0708661417322835
  9
$DIMCEN
 40
0.09
  9
$DIMTSZ
 40
0.0
  9
$DIMTOL
 70
     0
  9
$DIMLIM
 70
     0
  9
$DIMTIH
 70
     1
  9
$DIMTOH
 70
     1
  9
$DIMSE1
 70
     0
  9
$DIMSE2
 70
     0
  9
$DIMTAD
 70
     0
  9
$DIMZIN
 70
     0
  9
$DIMBLK
  1

  9
$DIMASO
 70
     1
  9
$DIMSHO
 70
     1
  9
$DIMPOST
  1

  9
$DIMAPOST
  1

  9
$DIMALT
 70
     0
  9
$DIMALTD
 70
     2
  9
$DIMALTF
 40
25.4
  9
$DIMLFAC
 40
1.0
  9
$DIMTOFL
 70
     0
  9
$DIMTVP
 40
0.0
  9
$DIMTIX
 70
     0
  9
$DIMSOXD
 70
     0
  9
$DIMSAH
 70
     0
  9
$DIMBLK1
  1

  9
$DIMBLK2
  1

  9
$DIMSTYLE
  2
Standard
  9
$DIMCLRD
 70
     0
  9
$DIMCLRE
 70
     0
  9
$DIMCLRT
 70
     0
  9
$DIMTFAC
 40
1.0
  9
$DIMGAP
 40
0.09
  9
$DIMJUST
 70
     0
  9
$DIMSD1
 70
     0
  9
$DIMSD2
 70
     0
  9
$DIMTOLJ
 70
     1
  9
$DIMTZIN
 70
     0
  9
$DIMALTZ
 70
     0
  9
$DIMALTTZ
 70
     0
  9
$DIMUPT
 70
     0
  9
$DIMDEC
 70
     4
  9
$DIMTDEC
 70
     4
  9
$DIMALTU
 70
     2
  9
$DIMALTTD
 70
     2
  9
$DIMTXSTY
  7
Standard
  9
$DIMAUNIT
 70
     0
  9
$DIMADEC
 70
     0
  9
$DIMALTRND
 40
0.0
  9
$DIMAZIN
 70
     0
  9
$DIMDSEP
 70
    46
  9
$DIMATFIT
 70
     3
  9
$DIMFRAC
 70
     0
  9
$DIMLDRBLK
  1

  9
$DIMLUNIT
 70
     2
  9
$DIMLWD
 70
    -2
  9
$DIMLWE
 70
    -2
  9
$DIMTMOVE
 70
     0
  9
$DIMFXL
 40
1.0
  9
$DIMFXLON
 70
     0
  9
$DIMJOGANG
 40
0.7853981633974483
  9
$DIMTFILL
 70
     0
  9
$DIMTFILLCLR
 70
     0
  9
$DIMARCSYM
 70
     0
  9
$DIMLTYPE
  6

  9
$DIMLTEX1
  6

  9
$DIMLTEX2
  6

  9
$DIMTXTDIRECTION
 70
     0
  9
$LUNITS
 70
     2
  9
$LUPREC
 70
     4
  9
$SKETCHINC
 40
0.1
  9
$FILLETRAD
 40
0.0
  9
$AUNITS
 70
     0
  9
$AUPREC
 70
     0
  9
$MENU
  1
.
  9
$ELEVATION
 40
0.0
  9
$PELEVATION
 40
0.0
  9
$THICKNESS
 40
0.0
  9
$LIMCHECK
 70
     0
  9
$CHAMFERA
 40
0.0
  9
$CHAMFERB
 40
0.0
  9
$CHAMFERC
 40
0.0
  9
$CHAMFERD
 40
0.0
  9
$SKPOLY
 70
     0
  9
$TDCREATE
 40
2456295.419210324
  9
$TDUCREATE
 40
2456295.669210324
  9
$TDUPDATE
 40
2456295.419210336
  9
$TDUUPDATE
 40
2456295.669210336
  9
$TDINDWG
 40
0.0000310880
  9
$TDUSRTIMER
 40
0.0000310880
  9
$USRTIMER
 70
     1
  9
$ANGBASE
 50
0.0
  9
$ANGDIR
 70
     0
  9
$PDMODE
 70
     0
  9
$PDSIZE
 40
0.0
  9
$PLINEWID
 40
0.0
  9
$SPLFRAME
 70
     0
  9
$SPLINETYPE
 70
     6
  9
$SPLINESEGS
 70
     8
  9
$HANDSEED
  5
11A0
  9
$SURFTAB1
 70
     6
  9
$SURFTAB2
 70
     6
  9
$SURFTYPE
 70
     6
  9
$SURFU
 70
     6
  9
$SURFV
 70
     6
  9
$UCSBASE
  2

  9
$UCSNAME
  2

  9
$UCSORG
 10
0.0
 20
0.0
 30
0.0
  9
$UCSXDIR
 10
1.0
 20
0.0
 30
0.0
  9
$UCSYDIR
 10
0.0
 20
1.0
 30
0.0
  9
$UCSORTHOREF
  2

  9
$UCSORTHOVIEW
 70
     0
  9
$UCSORGTOP
 10
0.0
 20
0.0
 30
0.0
  9
$UCSORGBOTTOM
 10
0.0
 20
0.0
 30
0.0
  9
$UCSORGLEFT
 10
0.0
 20
0.0
 30
0.0
  9
$UCSORGRIGHT
 10
0.0
 20
0.0
 30
0.0
  9
$UCSORGFRONT
 10
0.0
 20
0.0
 30
0.0
  9
$UCSORGBACK
 10
0.0
 20
0.0
 30
0.0
  9
$PUCSBASE
  2

  9
$PUCSNAME
  2

  9
$PUCSORG
 10
0.0
 20
0.0
 30
0.0
  9
$PUCSXDIR
 10
1.0
 20
0.0
 30
0.0
  9
$PUCSYDIR
 10
0.0
 20
1.0
 30
0.0
  9
$PUCSORTHOREF
  2

  9
$PUCSORTHOVIEW
 70
     0
  9
$PUCSORGTOP
 10
0.0
 20
0.0
 30
0.0
  9
$PUCSORGBOTTOM
 10
0.0
 20
0.0
 30
0.0
  9
$PUCSORGLEFT
 10
0.0
 20
0.0
 30
0.0
  9
$PUCSORGRIGHT
 10
0.0
 20
0.0
 30
0.0
  9
$PUCSORGFRONT
 10
0.0
 20
0.0
 30
0.0
  9
$PUCSORGBACK
 10
0.0
 20
0.0
 30
0.0
  9
$USERI1
 70
     0
  9
$USERI2
 70
     0
  9
$USERI3
 70
     0
  9
$USERI4
 70
     0
  9
$USERI5
 70
     0
  9
$USERR1
 40
0.0
  9
$USERR2
 40
0.0
  9
$USERR3
 40
0.0
  9
$USERR4
 40
0.0
  9
$USERR5
 40
0.0
  9
$WORLDVIEW
 70
     1
  9
$SHADEDGE
 70
     3
  9
$SHADEDIF
 70
    70
  9
$TILEMODE
 70
     1
  9
$MAXACTVP
 70
    64
  9
$PINSBASE
 10
0.0
 20
0.0
 30
0.0
  9
$PLIMCHECK
 70
     0
  9
$PEXTMIN
 10
0.0
 20
0.0
 30
0.0
  9
$PEXTMAX
 10
54.40000000000001
 20
35.2
 30
0.0
  9
$PLIMMIN
 10
0.0
 20
0.0
  9
$PLIMMAX
 10
54.40000000000001
 20
35.2
  9
$UNITMODE
 70
     0
  9
$VISRETAIN
 70
     1
  9
$PLINEGEN
 70
     0
  9
$PSLTSCALE
 70
     1
  9
$TREEDEPTH
 70
  3020
  9
$CMLSTYLE
  2
Standard
  9
$CMLJUST
 70
     0
  9
$CMLSCALE
 40
1.0
  9
$PROXYGRAPHICS
 70
     1
  9
$MEASUREMENT
 70
     0
  9
$CELWEIGHT
370
    -1
  9
$ENDCAPS
280
     0
  9
$JOINSTYLE
280
     0
  9
$LWDISPLAY
290
     0
  9
$INSUNITS
 70
     1
  9
$HYPERLINKBASE
  1

  9
$STYLESHEET
  1

  9
$XEDIT
290
     1
  9
$CEPSNTYPE
380
     0
  9
$PSTYLEMODE
290
     1
  9
$FINGERPRINTGUID
  2
{B9DC76C8-CB8F-464B-A079-1C3BECEE513D}
  9
$VERSIONGUID
  2
{BDBC6C8B-54BA-40CF-85DA-4848601FB470}
  9
$EXTNAMES
290
     1
  9
$PSVPSCALE
 40
0.0
  9
$OLESTARTUP
290
     0
  9
$SORTENTS
280
   127
  9
$INDEXCTL
280
     0
  9
$HIDETEXT
280
     1
  9
$XCLIPFRAME
280
     2
  9
$HALOGAP
280
     0
  9
$OBSCOLOR
 70
   257
  9
$OBSLTYPE
280
     0
  9
$INTERSECTIONDISPLAY
280
     0
  9
$INTERSECTIONCOLOR
 70
   257
  9
$DIMASSOC
280
     1
  9
$PROJECTNAME
  1

  9
$CAMERADISPLAY
290
     0
  9
$LENSLENGTH
 40
50.0
  9
$CAMERAHEIGHT
 40
0.0
  9
$STEPSPERSEC
 40
2.0
  9
$STEPSIZE
 40
6.0
  9
$3DDWFPREC
 40
2.0
  9
$PSOLWIDTH
 40
0.25
  9
$PSOLHEIGHT
 40
4.0
  9
$LOFTANG1
 40
1.570796326794896
  9
$LOFTANG2
 40
1.570796326794896
  9
$LOFTMAG1
 40
0.0
  9
$LOFTMAG2
 40
0.0
  9
$LOFTPARAM
 70
     7
  9
$LOFTNORMALS
280
     1
  9
$LATITUDE
 40
37.795
  9
$LONGITUDE
 40
-122.394
  9
$NORTHDIRECTION
 40
0.0
  9
$TIMEZONE
 70
 -8000
  9
$LIGHTGLYPHDISPLAY
280
     1
  9
$TILEMODELIGHTSYNCH
280
     1
  9
$CMATERIAL
347
11
  9
$SOLIDHIST
280
     0
  9
$SHOWHIST
280
     1
  9
$DWFFRAME
280
     2
  9
$DGNFRAME
280
     0
  9
$REALWORLDSCALE
290
     1
  9
$INTERFERECOLOR
 62
     1
  9
$INTERFEREOBJVS
345
33
  9
$INTERFEREVPVS
346
30
  9
$CSHADOW
280
     0
  9
$SHADOWPLANELOCATION
 40
0.0
  0
ENDSEC
  0
SECTION
  2
CLASSES
  0
CLASS
  1
ACDBDICTIONARYWDFLT
  2
AcDbDictionaryWithDefault
  3
ObjectDBX Classes
 90
        0
 91
        1
280
     0
281
     0
  0
CLASS
  1
MATERIAL
  2
AcDbMaterial
  3
ObjectDBX Classes
 90
     1153
 91
        3
280
     0
281
     0
  0
CLASS
  1
VISUALSTYLE
  2
AcDbVisualStyle
  3
ObjectDBX Classes
 90
     4095
 91
       24
280
     0
281
     0
  0
CLASS
  1
SCALE
  2
AcDbScale
  3
ObjectDBX Classes
 90
     1153
 91
       17
280
     0
281
     0
  0
CLASS
  1
TABLESTYLE
  2
AcDbTableStyle
  3
ObjectDBX Classes
 90
     4095
 91
        1
280
     0
281
     0
  0
CLASS
  1
MLEADERSTYLE
  2
AcDbMLeaderStyle
  3
ACDB_MLEADERSTYLE_CLASS
 90
     4095
 91
        1
280
     0
281
     0
  0
CLASS
  1
DICTIONARYVAR
  2
AcDbDictionaryVar
  3
ObjectDBX Classes
 90
        0
 91
        3
280
     0
281
     0
  0
CLASS
  1
CELLSTYLEMAP
  2
AcDbCellStyleMap
  3
ObjectDBX Classes
 90
     1152
 91
        1
280
     0
281
     0
  0
ENDSEC
  0
SECTION
  2
TABLES
  0
TABLE
  2
VPORT
  5
8
330
0
100
AcDbSymbolTable
 70
     1
  0
VPORT
  5
57
330
8
100
AcDbSymbolTableRecord
100
AcDbViewportTableRecord
  2
*Active
 70
     0
 10
0.0
 20
0.0
 11
1.0
 21
1.0
 12
27.20000000000001
 22
17.6
 13
0.0
 23
0.0
 14
1.0
 24
1.0
 15
0.0
 25
0.0
 16
0.0
 26
0.0
 36
1.0
 17
0.0
 27
0.0
 37
0.0
 40
35.2
 41
1.545454545454545
 42
50.0
 43
0.0
 44
0.0
 50
0.0
 51
0.0
 71
     0
 72
   100
 73
     1
 74
     1
 75
     0
 76
     0
 77
     0
 78
     0
281
     0
 65
     1
110
0.0
120
0.0
130
0.0
111
1.0
121
0.0
131
0.0
112
0.0
122
1.0
132
0.0
 79
     0
146
0.0
 60
     3
 61
     5
292
     1
282
     1
141
0.0
142
0.0
 63
   250
421
  3355443
  0
ENDTAB
  0
TABLE
  2
LTYPE
  5
5
330
0
100
AcDbSymbolTable
 70
    59
  0
LTYPE
  5
5B
330
5
100
AcDbSymbolTableRecord
100
AcDbLinetypeTableRecord
  2
ByBlock
 70
     0
  3

 72
    65
 73
     0
 40
0.0
  0
LTYPE
  5
5C
330
5
100
AcDbSymbolTableRecord
100
AcDbLinetypeTableRecord
  2
ByLayer
 70
     0
  3

 72
    65
 73
     0
 40
0.0
  0
LTYPE
  5
5D
330
5
100
AcDbSymbolTableRecord
100
AcDbLinetypeTableRecord
  2
Continuous
 70
     0
  3
Solid line
 72
    65
 73
     0
 40
0.0
  0
LTYPE
  5
7C
330
5
100
AcDbSymbolTableRecord
100
AcDbLinetypeTableRecord
  2
BY_STANDARD
 70
     0
  3
By Standard ____________    ____    ____   _
 72
    65
 73
     6
 40
1.240299999999999
 49
0.6614
 74
     0
 49
-0.0827
 74
     0
 49
0.1654
 74
     0
 49
-0.0827
 74
     0
 49
0.1654
 74
     0
 49
-0.0827
 74
     0
  0
LTYPE
  5
7D
330
5
100
AcDbSymbolTableRecord
100
AcDbLinetypeTableRecord
  2
CHAIN
 70
     0
  3
Chain ____ _ ____ _ ____ _ ____ _ ____ _ ____
 72
    65
 73
     4
 40
0.7087
 49
0.4724000000000001
 74
     0
 49
-0.0591
 74
     0
 49
0.1181
 74
     0
 49
-0.0591
 74
     0
  0
LTYPE
  5
7E
330
5
100
AcDbSymbolTableRecord
100
AcDbLinetypeTableRecord
  2
DASH_DOT
 70
     0
  3
Dash dot __ . __ . __ . __ . __ . __ . __ . __
 72
    65
 73
     4
 40
0.37
 49
0.24
 74
     0
 49
-0.06
 74
     0
 49
0.01
 74
     0
 49
-0.06
 74
     0
  0
LTYPE
  5
7F
330
5
100
AcDbSymbolTableRecord
100
AcDbLinetypeTableRecord
  2
DOUBLE_DASH_DOT
 70
     0
  3
Double-Dash Dot __ __ . __ __ . __ __ . __ _
 72
    65
 73
     6
 40
0.4398
 49
0.24
 74
     0
 49
-0.06
 74
     0
 49
0.0098
 74
     0
 49
-0.06
 74
     0
 49
0.01
 74
     0
 49
-0.06
 74
     0
  0
LTYPE
  5
80
330
5
100
AcDbSymbolTableRecord
100
AcDbLinetypeTableRecord
  2
DASH_TRIPLE_DOT
 70
     0
  3
Dash Triple-Dot _ . . . _ . . . _ . . . _
 72
    65
 73
     8
 40
0.51
 49
0.24
 74
     0
 49
-0.06
 74
     0
 49
0.01
 74
     0
 49
-0.06
 74
     0
 49
0.01
 74
     0
 49
-0.06
 74
     0
 49
0.01
 74
     0
 49
-0.06
 74
     0
  0
LTYPE
  5
81
330
5
100
AcDbSymbolTableRecord
100
AcDbLinetypeTableRecord
  2
DASHED
 70
     0
  3
Dashed __ __ __ __ __ __ __ __ __ __ __ __ __ _
 72
    65
 73
     2
 40
0.2067
 49
0.1654
 74
     0
 49
-0.0413
 74
     0
  0
LTYPE
  5
82
330
5
100
AcDbSymbolTableRecord
100
AcDbLinetypeTableRecord
  2
DASH_DOUBLE_DOT
 70
     0
  3
Dash Double-Dot __ . . __ . . __ . . __ . .
 72
    65
 73
     6
 40
0.4398
 49
0.24
 74
     0
 49
-0.06
 74
     0
 49
0.0098
 74
     0
 49
-0.06
 74
     0
 49
0.01
 74
     0
 49
-0.06
 74
     0
  0
LTYPE
  5
83
330
5
100
AcDbSymbolTableRecord
100
AcDbLinetypeTableRecord
  2
DASHED_SPACE
 70
     0
  3
Dashed Space __ __ __ __ __ __ __ __ __ __ __ _
 72
    65
 73
     2
 40
0.2067
 49
0.1654
 74
     0
 49
-0.0413
 74
     0
  0
LTYPE
  5
84
330
5
100
AcDbSymbolTableRecord
100
AcDbLinetypeTableRecord
  2
DOTTED
 70
     0
  3
Dotted . . . . . . . . . . . . . . . . . . . . 
 72
    65
 73
     2
 40
0.0482
 49
0.0069
 74
     0
 49
-0.0413
 74
     0
  0
LTYPE
  5
85
330
5
100
AcDbSymbolTableRecord
100
AcDbLinetypeTableRecord
  2
DOUBLE_DASH_CHAIN
 70
     0
  3
Double-Dash Chain ______  __  __  ______  __  _
 72
    65
 73
     6
 40
1.240299999999999
 49
0.6614
 74
     0
 49
-0.0827
 74
     0
 49
0.1654
 74
     0
 49
-0.0827
 74
     0
 49
0.1654
 74
     0
 49
-0.0827
 74
     0
  0
LTYPE
  5
87
330
5
100
AcDbSymbolTableRecord
100
AcDbLinetypeTableRecord
  2
DOUBLE_DASH_DOUBLE_DOT
 70
     0
  3
Double-Dash Double-dot _ _ . . _ _ . . _
 72
    65
 73
     8
 40
0.7400000000000001
 49
0.24
 74
     0
 49
-0.06
 74
     0
 49
0.24
 74
     0
 49
-0.06
 74
     0
 49
0.01
 74
     0
 49
-0.06
 74
     0
 49
0.01
 74
     0
 49
-0.06
 74
     0
  0
LTYPE
  5
88
330
5
100
AcDbSymbolTableRecord
100
AcDbLinetypeTableRecord
  2
DOUBLE_DASH_TRIPLE_DOT
 70
     0
  3
Double Dash Triple Dot __ __ . . . __ __ . .
 72
    65
 73
    10
 40
0.8100000000000001
 49
0.24
 74
     0
 49
-0.06
 74
     0
 49
0.24
 74
     0
 49
-0.06
 74
     0
 49
0.01
 74
     0
 49
-0.06
 74
     0
 49
0.01
 74
     0
 49
-0.06
 74
     0
 49
0.01
 74
     0
 49
-0.06
 74
     0
  0
LTYPE
  5
89
330
5
100
AcDbSymbolTableRecord
100
AcDbLinetypeTableRecord
  2
LONG_DASH_DOTTED
 70
     0
  3
Long Dash Dotted ____ . ____ . ____ . ____ . _
 72
    65
 73
     4
 40
0.3543
 49
0.2362
 74
     0
 49
-0.0295
 74
     0
 49
0.0591
 74
     0
 49
-0.0295
 74
     0
  0
LTYPE
  5
8A
330
5
100
AcDbSymbolTableRecord
100
AcDbLinetypeTableRecord
  2
LONG_DASH_DOUBLE_DOT
 70
     0
  3
Long Dash Double Dot ________  .  .  ________  
 72
    65
 73
     6
 40
0.6799999999999999
 49
0.48
 74
     0
 49
-0.06
 74
     0
 49
0.01
 74
     0
 49
-0.06
 74
     0
 49
0.01
 74
     0
 49
-0.06
 74
     0
  0
LTYPE
  5
8B
330
5
100
AcDbSymbolTableRecord
100
AcDbLinetypeTableRecord
  2
LONG_DASH_TRIPLE_DOT
 70
     0
  3
Long Dash Triple Dot ____ ... ____ ... ____
 72
    65
 73
     8
 40
0.3689
 49
0.2362
 74
     0
 49
-0.0295
 74
     0
 49
0.0049
 74
     0
 49
-0.0295
 74
     0
 49
0.0049
 74
     0
 49
-0.0295
 74
     0
 49
0.0049
 74
     0
 49
-0.0295
 74
     0
  0
LTYPE
  5
8C
330
5
100
AcDbSymbolTableRecord
100
AcDbLinetypeTableRecord
  2
BORDER
 70
     0
  3
Border __ __ . __ __ . __ __ . __ __ . __ __ .
 72
    65
 73
     6
 40
1.75
 49
0.5
 74
     0
 49
-0.25
 74
     0
 49
0.5
 74
     0
 49
-0.25
 74
     0
 49
0.0
 74
     0
 49
-0.25
 74
     0
  0
LTYPE
  5
8D
330
5
100
AcDbSymbolTableRecord
100
AcDbLinetypeTableRecord
  2
BORDER2
 70
     0
  3
Border (.5x) __.__.__.__.__.__.__.__.__.__.__.
 72
    65
 73
     6
 40
0.875
 49
0.25
 74
     0
 49
-0.125
 74
     0
 49
0.25
 74
     0
 49
-0.125
 74
     0
 49
0.0
 74
     0
 49
-0.125
 74
     0
  0
LTYPE
  5
8E
330
5
100
AcDbSymbolTableRecord
100
AcDbLinetypeTableRecord
  2
BORDERX2
 70
     0
  3
Border (2x) ____  ____  .  ____  ____  .  ___
 72
    65
 73
     6
 40
3.5
 49
1.0
 74
     0
 49
-0.5
 74
     0
 49
1.0
 74
     0
 49
-0.5
 74
     0
 49
0.0
 74
     0
 49
-0.5
 74
     0
  0
LTYPE
  5
8F
330
5
100
AcDbSymbolTableRecord
100
AcDbLinetypeTableRecord
  2
CENTER
 70
     0
  3
Center ____ _ ____ _ ____ _ ____ _ ____ _ ____
 72
    65
 73
     4
 40
2.0
 49
1.25
 74
     0
 49
-0.25
 74
     0
 49
0.25
 74
     0
 49
-0.25
 74
     0
  0
LTYPE
  5
90
330
5
100
AcDbSymbolTableRecord
100
AcDbLinetypeTableRecord
  2
CENTER2
 70
     0
  3
Center (.5x) ___ _ ___ _ ___ _ ___ _ ___ _ ___
 72
    65
 73
     4
 40
1.125
 49
0.75
 74
     0
 49
-0.125
 74
     0
 49
0.125
 74
     0
 49
-0.125
 74
     0
  0
LTYPE
  5
91
330
5
100
AcDbSymbolTableRecord
100
AcDbLinetypeTableRecord
  2
CENTERX2
 70
     0
  3
Center (2x) ________  __  ________  __  _____
 72
    65
 73
     4
 40
4.0
 49
2.5
 74
     0
 49
-0.5
 74
     0
 49
0.5
 74
     0
 49
-0.5
 74
     0
  0
LTYPE
  5
92
330
5
100
AcDbSymbolTableRecord
100
AcDbLinetypeTableRecord
  2
DASHDOT2
 70
     0
  3
Dash dot (.5x) _._._._._._._._._._._._._._._.
 72
    65
 73
     4
 40
0.5
 49
0.25
 74
     0
 49
-0.125
 74
     0
 49
0.0
 74
     0
 49
-0.125
 74
     0
  0
LTYPE
  5
93
330
5
100
AcDbSymbolTableRecord
100
AcDbLinetypeTableRecord
  2
DASHDOTX2
 70
     0
  3
Dash dot (2x) ____  .  ____  .  ____  .  ___
 72
    65
 73
     4
 40
2.0
 49
1.0
 74
     0
 49
-0.5
 74
     0
 49
0.0
 74
     0
 49
-0.5
 74
     0
  0
LTYPE
  5
95
330
5
100
AcDbSymbolTableRecord
100
AcDbLinetypeTableRecord
  2
DASHED2
 70
     0
  3
Dashed (.5x) _ _ _ _ _ _ _ _ _ _ _ _ _ _ _ _ _
 72
    65
 73
     2
 40
0.375
 49
0.25
 74
     0
 49
-0.125
 74
     0
  0
LTYPE
  5
96
330
5
100
AcDbSymbolTableRecord
100
AcDbLinetypeTableRecord
  2
DASHEDX2
 70
     0
  3
Dashed (2x) ____  ____  ____  ____  ____  ___
 72
    65
 73
     2
 40
1.5
 49
1.0
 74
     0
 49
-0.5
 74
     0
  0
LTYPE
  5
97
330
5
100
AcDbSymbolTableRecord
100
AcDbLinetypeTableRecord
  2
DIVIDE
 70
     0
  3
Divide ____ . . ____ . . ____ . . ____ . . ____
 72
    65
 73
     6
 40
1.25
 49
0.5
 74
     0
 49
-0.25
 74
     0
 49
0.0
 74
     0
 49
-0.25
 74
     0
 49
0.0
 74
     0
 49
-0.25
 74
     0
  0
LTYPE
  5
98
330
5
100
AcDbSymbolTableRecord
100
AcDbLinetypeTableRecord
  2
DIVIDE2
 70
     0
  3
Divide (.5x) __..__..__..__..__..__..__..__.._
 72
    65
 73
     6
 40
0.625
 49
0.25
 74
     0
 49
-0.125
 74
     0
 49
0.0
 74
     0
 49
-0.125
 74
     0
 49
0.0
 74
     0
 49
-0.125
 74
     0
  0
LTYPE
  5
99
330
5
100
AcDbSymbolTableRecord
100
AcDbLinetypeTableRecord
  2
DIVIDEX2
 70
     0
  3
Divide (2x) ________  .  .  ________  .  .  _
 72
    65
 73
     6
 40
2.5
 49
1.0
 74
     0
 49
-0.5
 74
     0
 49
0.0
 74
     0
 49
-0.5
 74
     0
 49
0.0
 74
     0
 49
-0.5
 74
     0
  0
LTYPE
  5
9A
330
5
100
AcDbSymbolTableRecord
100
AcDbLinetypeTableRecord
  2
DOT
 70
     0
  3
Dot . . . . . . . . . . . . . . . . . . . . . .
 72
    65
 73
     2
 40
0.25
 49
0.0
 74
     0
 49
-0.25
 74
     0
  0
LTYPE
  5
9B
330
5
100
AcDbSymbolTableRecord
100
AcDbLinetypeTableRecord
  2
DOT2
 70
     0
  3
Dot (.5x) .....................................
 72
    65
 73
     2
 40
0.125
 49
0.0
 74
     0
 49
-0.125
 74
     0
  0
LTYPE
  5
9C
330
5
100
AcDbSymbolTableRecord
100
AcDbLinetypeTableRecord
  2
DOTX2
 70
     0
  3
Dot (2x) .  .  .  .  .  .  .  .  .  .  .  .  . 
 72
    65
 73
     2
 40
0.5
 49
0.0
 74
     0
 49
-0.5
 74
     0
  0
LTYPE
  5
9D
330
5
100
AcDbSymbolTableRecord
100
AcDbLinetypeTableRecord
  2
HIDDEN
 70
     0
  3
Hidden __ __ __ __ __ __ __ __ __ __ __ __ __ _
 72
    65
 73
     2
 40
0.375
 49
0.25
 74
     0
 49
-0.125
 74
     0
  0
LTYPE
  5
9E
330
5
100
AcDbSymbolTableRecord
100
AcDbLinetypeTableRecord
  2
HIDDEN2
 70
     0
  3
Hidden (.5x) _ _ _ _ _ _ _ _ _ _ _ _ _ _ _ _ _
 72
    65
 73
     2
 40
0.1875
 49
0.125
 74
     0
 49
-0.0625
 74
     0
  0
LTYPE
  5
9F
330
5
100
AcDbSymbolTableRecord
100
AcDbLinetypeTableRecord
  2
HIDDENX2
 70
     0
  3
Hidden (2x) ____ ____ ____ ____ ____ ____ ____
 72
    65
 73
     2
 40
0.75
 49
0.5
 74
     0
 49
-0.25
 74
     0
  0
LTYPE
  5
A0
330
5
100
AcDbSymbolTableRecord
100
AcDbLinetypeTableRecord
  2
PHANTOM
 70
     0
  3
Phantom ______  __  __  ______  __  __  ______
 72
    65
 73
     6
 40
2.5
 49
1.25
 74
     0
 49
-0.25
 74
     0
 49
0.25
 74
     0
 49
-0.25
 74
     0
 49
0.25
 74
     0
 49
-0.25
 74
     0
  0
LTYPE
  5
A1
330
5
100
AcDbSymbolTableRecord
100
AcDbLinetypeTableRecord
  2
PHANTOM2
 70
     0
  3
Phantom (.5x) ___ _ _ ___ _ _ ___ _ _ ___ _ _
 72
    65
 73
     6
 40
1.25
 49
0.625
 74
     0
 49
-0.125
 74
     0
 49
0.125
 74
     0
 49
-0.125
 74
     0
 49
0.125
 74
     0
 49
-0.125
 74
     0
  0
LTYPE
  5
A2
330
5
100
AcDbSymbolTableRecord
100
AcDbLinetypeTableRecord
  2
PHANTOMX2
 70
     0
  3
Phantom (2x) ____________    ____    ____   _
 72
    65
 73
     6
 40
5.0
 49
2.5
 74
     0
 49
-0.5
 74
     0
 49
0.5
 74
     0
 49
-0.5
 74
     0
 49
0.5
 74
     0
 49
-0.5
 74
     0
  0
LTYPE
  5
A3
330
5
100
AcDbSymbolTableRecord
100
AcDbLinetypeTableRecord
  2
ACAD_ISO02W100
 70
     0
  3
ISO dash __ __ __ __ __ __ __ __ __ __ __ __ __
 72
    65
 73
     2
 40
0.59
 49
0.47
 74
     0
 49
-0.12
 74
     0
  0
LTYPE
  5
A4
330
5
100
AcDbSymbolTableRecord
100
AcDbLinetypeTableRecord
  2
ACAD_ISO03W100
 70
     0
  3
ISO dash space __    __    __    __    __    __
 72
    65
 73
     2
 40
1.179999999999999
 49
0.47
 74
     0
 49
-0.71
 74
     0
  0
LTYPE
  5
A5
330
5
100
AcDbSymbolTableRecord
100
AcDbLinetypeTableRecord
  2
ACAD_ISO04W100
 70
     0
  3
ISO long-dash dot ____ . ____ . ____ . ____ . _
 72
    65
 73
     4
 40
1.179999999999999
 49
0.9399999999999998
 74
     0
 49
-0.12
 74
     0
 49
0.0
 74
     0
 49
-0.12
 74
     0
  0
LTYPE
  5
A6
330
5
100
AcDbSymbolTableRecord
100
AcDbLinetypeTableRecord
  2
ACAD_ISO05W100
 70
     0
  3
ISO long-dash double-dot ____ .. ____ .. ____ .
 72
    65
 73
     6
 40
1.299999999999999
 49
0.9399999999999998
 74
     0
 49
-0.12
 74
     0
 49
0.0
 74
     0
 49
-0.12
 74
     0
 49
0.0
 74
     0
 49
-0.12
 74
     0
  0
LTYPE
  5
A7
330
5
100
AcDbSymbolTableRecord
100
AcDbLinetypeTableRecord
  2
ACAD_ISO06W100
 70
     0
  3
ISO long-dash triple-dot ____ ... ____ ... ____
 72
    65
 73
     8
 40
1.419999999999999
 49
0.9399999999999998
 74
     0
 49
-0.12
 74
     0
 49
0.0
 74
     0
 49
-0.12
 74
     0
 49
0.0
 74
     0
 49
-0.12
 74
     0
 49
0.0
 74
     0
 49
-0.12
 74
     0
  0
LTYPE
  5
A8
330
5
100
AcDbSymbolTableRecord
100
AcDbLinetypeTableRecord
  2
ACAD_ISO07W100
 70
     0
  3
ISO dot . . . . . . . . . . . . . . . . . . . .
 72
    65
 73
     2
 40
0.12
 49
0.0
 74
     0
 49
-0.12
 74
     0
  0
LTYPE
  5
A9
330
5
100
AcDbSymbolTableRecord
100
AcDbLinetypeTableRecord
  2
ACAD_ISO08W100
 70
     0
  3
ISO long-dash short-dash ____ __ ____ __ ____ _
 72
    65
 73
     4
 40
0.95
 49
0.47
 74
     0
 49
-0.12
 74
     0
 49
0.24
 74
     0
 49
-0.12
 74
     0
  0
LTYPE
  5
AA
330
5
100
AcDbSymbolTableRecord
100
AcDbLinetypeTableRecord
  2
ACAD_ISO09W100
 70
     0
  3
ISO long-dash double-short-dash ____ __ __ ____
 72
    65
 73
     6
 40
1.31
 49
0.47
 74
     0
 49
-0.12
 74
     0
 49
0.24
 74
     0
 49
-0.12
 74
     0
 49
0.24
 74
     0
 49
-0.12
 74
     0
  0
LTYPE
  5
AB
330
5
100
AcDbSymbolTableRecord
100
AcDbLinetypeTableRecord
  2
ACAD_ISO10W100
 70
     0
  3
ISO dash dot __ . __ . __ . __ . __ . __ . __ .
 72
    65
 73
     4
 40
0.71
 49
0.47
 74
     0
 49
-0.12
 74
     0
 49
0.0
 74
     0
 49
-0.12
 74
     0
  0
LTYPE
  5
AC
330
5
100
AcDbSymbolTableRecord
100
AcDbLinetypeTableRecord
  2
ACAD_ISO11W100
 70
     0
  3
ISO double-dash dot __ __ . __ __ . __ __ . __ 
 72
    65
 73
     6
 40
1.299999999999999
 49
0.47
 74
     0
 49
-0.12
 74
     0
 49
0.47
 74
     0
 49
-0.12
 74
     0
 49
0.0
 74
     0
 49
-0.12
 74
     0
  0
LTYPE
  5
AD
330
5
100
AcDbSymbolTableRecord
100
AcDbLinetypeTableRecord
  2
ACAD_ISO12W100
 70
     0
  3
ISO dash double-dot __ . . __ . . __ . . __ . .
 72
    65
 73
     6
 40
0.8299999999999998
 49
0.47
 74
     0
 49
-0.12
 74
     0
 49
0.0
 74
     0
 49
-0.12
 74
     0
 49
0.0
 74
     0
 49
-0.12
 74
     0
  0
LTYPE
  5
AE
330
5
100
AcDbSymbolTableRecord
100
AcDbLinetypeTableRecord
  2
ACAD_ISO13W100
 70
     0
  3
ISO double-dash double-dot __ __ . . __ __ . . 
 72
    65
 73
     8
 40
1.419999999999999
 49
0.47
 74
     0
 49
-0.12
 74
     0
 49
0.47
 74
     0
 49
-0.12
 74
     0
 49
0.0
 74
     0
 49
-0.12
 74
     0
 49
0.0
 74
     0
 49
-0.12
 74
     0
  0
LTYPE
  5
AF
330
5
100
AcDbSymbolTableRecord
100
AcDbLinetypeTableRecord
  2
ACAD_ISO14W100
 70
     0
  3
ISO dash triple-dot __ . . . __ . . . __ . . . 
 72
    65
 73
     8
 40
0.95
 49
0.47
 74
     0
 49
-0.12
 74
     0
 49
0.0
 74
     0
 49
-0.12
 74
     0
 49
0.0
 74
     0
 49
-0.12
 74
     0
 49
0.0
 74
     0
 49
-0.12
 74
     0
  0
LTYPE
  5
B0
330
5
100
AcDbSymbolTableRecord
100
AcDbLinetypeTableRecord
  2
ACAD_ISO15W100
 70
     0
  3
ISO double-dash triple-dot __ __ . . . __ __ . 
 72
    65
 73
    10
 40
1.539999999999999
 49
0.47
 74
     0
 49
-0.12
 74
     0
 49
0.47
 74
     0
 49
-0.12
 74
     0
 49
0.0
 74
     0
 49
-0.12
 74
     0
 49
0.0
 74
     0
 49
-0.12
 74
     0
 49
0.0
 74
     0
 49
-0.12
 74
     0
  0
LTYPE
  5
B3
330
5
100
AcDbSymbolTableRecord
100
AcDbLinetypeTableRecord
  2
FENCELINE1
 70
     0
  3
Fenceline circle ----0-----0----0-----0----0---
 72
    65
 73
     4
 40
1.45
 49
0.25
 74
     0
 49
-0.1
 74
     4
 75
   133
340
B2
 46
0.1
 50
0.0
 44
-0.1
 45
0.0
 49
-0.1
 74
     0
 49
1.0
 74
     0
  0
LTYPE
  5
B4
330
5
100
AcDbSymbolTableRecord
100
AcDbLinetypeTableRecord
  2
FENCELINE2
 70
     0
  3
Fenceline square ----[]-----[]----[]-----[]----
 72
    65
 73
     4
 40
1.45
 49
0.25
 74
     0
 49
-0.1
 74
     4
 75
   132
340
B2
 46
0.1
 50
0.0
 44
-0.1
 45
0.0
 49
-0.1
 74
     0
 49
1.0
 74
     0
  0
LTYPE
  5
B5
330
5
100
AcDbSymbolTableRecord
100
AcDbLinetypeTableRecord
  2
TRACKS
 70
     0
  3
Tracks -|-|-|-|-|-|-|-|-|-|-|-|-|-|-|-|-|-|-|-|
 72
    65
 73
     2
 40
0.3
 49
0.15
 74
     4
 75
   130
340
B2
 46
0.25
 50
0.0
 44
0.0
 45
0.0
 49
0.15
 74
     0
  0
LTYPE
  5
B6
330
5
100
AcDbSymbolTableRecord
100
AcDbLinetypeTableRecord
  2
BATTING
 70
     0
  3
Batting SSSSSSSSSSSSSSSSSSSSSSSSSSSSSSSSSSSSSSS
 72
    65
 73
     4
 40
0.4001000000000001
 49
0.0001
 74
     0
 49
-0.1
 74
     4
 75
   134
340
B2
 46
0.1
 50
0.0
 44
-0.1
 45
0.0
 49
-0.2
 74
     4
 75
   134
340
B2
 46
0.1
 50
180.0
 44
0.1
 45
0.0
 49
-0.1
 74
     0
  0
LTYPE
  5
B7
330
5
100
AcDbSymbolTableRecord
100
AcDbLinetypeTableRecord
  2
HOT_WATER_SUPPLY
 70
     0
  3
Hot water supply ---- HW ---- HW ---- HW ----
 72
    65
 73
     3
 40
0.9
 49
0.5
 74
     0
 49
-0.2
 74
     2
 75
     0
340
55
 46
0.1
 50
0.0
 44
-0.1
 45
-0.05
  9
HW
 49
-0.2
 74
     0
  0
LTYPE
  5
B8
330
5
100
AcDbSymbolTableRecord
100
AcDbLinetypeTableRecord
  2
GAS_LINE
 70
     0
  3
Gas line ----GAS----GAS----GAS----GAS----GAS---
 72
    65
 73
     3
 40
0.95
 49
0.5
 74
     0
 49
-0.2
 74
     2
 75
     0
340
55
 46
0.1
 50
0.0
 44
-0.1
 45
-0.05
  9
GAS
 49
-0.25
 74
     0
  0
LTYPE
  5
B9
330
5
100
AcDbSymbolTableRecord
100
AcDbLinetypeTableRecord
  2
ZIGZAG
 70
     0
  3
Zig zag /\/\/\/\/\/\/\/\/\/\/\/\/\/\/\/\/\/\/\/
 72
    65
 73
     4
 40
0.8001000000000001
 49
0.0001
 74
     0
 49
-0.2
 74
     4
 75
   131
340
B2
 46
0.2
 50
0.0
 44
-0.2
 45
0.0
 49
-0.4
 74
     4
 75
   131
340
B2
 46
0.2
 50
180.0
 44
0.2
 45
0.0
 49
-0.2
 74
     0
  0
ENDTAB
  0
TABLE
  2
LAYER
  5
2
330
0
100
AcDbSymbolTable
 70
    27
  0
LAYER
  5
54
330
2
100
AcDbSymbolTableRecord
100
AcDbLayerTableRecord
  2
0
 70
     0
 62
     7
  6
Continuous
370
     0
390
F
347
21
  0
LAYER
  5
C1
330
2
100
AcDbSymbolTableRecord
100
AcDbLayerTableRecord
  2
Centerline (ANSI)
 70
     0
 62
     7
  6
Continuous
370
     5
390
F
347
21
  0
LAYER
  5
C3
330
2
100
AcDbSymbolTableRecord
100
AcDbLayerTableRecord
  2
Dimension (ANSI)
 70
     0
 62
     7
  6
Continuous
370
     5
390
F
347
21
  0
LAYER
  5
CC
330
2
100
AcDbSymbolTableRecord
100
AcDbLayerTableRecord
  2
Symbol (ANSI)
 70
     0
 62
     7
  6
Continuous
370
     5
390
F
347
21
  0
LAYER
  5
CF
330
2
100
AcDbSymbolTableRecord
100
AcDbLayerTableRecord
  2
Visible (ANSI)
 70
     0
 62
     7
  6
Continuous
370
     5
390
F
347
21
  0
LAYER
  5
D0
330
2
100
AcDbSymbolTableRecord
100
AcDbLayerTableRecord
  2
Visible Narrow (ANSI)
 70
     0
 62
     7
  6
Continuous
370
     5
390
F
347
21
  0
LAYER
  5
22E
330
2
100
AcDbSymbolTableRecord
100
AcDbLayerTableRecord
  2
Defpoints
 70
     0
 62
     7
  6
Continuous
290
     0
370
    -3
390
F
347
21
  0
ENDTAB
  0
TABLE
  2
STYLE
  5
3
330
0
100
AcDbSymbolTable
 70
    10
  0
STYLE
  5
55
330
3
100
AcDbSymbolTableRecord
100
AcDbTextStyleTableRecord
  2
Standard
 70
     0
 40
0.0
 41
1.0
 50
0.0
 71
     0
 42
0.2
  3
txt
  4

  0
STYLE
  5
5A
330
3
100
AcDbSymbolTableRecord
100
AcDbTextStyleTableRecord
  2
Annotative
 70
     0
 40
0.0
 41
1.0
 50
0.0
 71
     0
 42
0.2
  3
txt
  4

1001
AcadAnnotative
1000
AnnotativeData
1002
{
1070
     1
1070
     1
1002
}
  0
STYLE
  5
B2
330
3
100
AcDbSymbolTableRecord
100
AcDbTextStyleTableRecord
  2

 70
     1
 40
0.0
 41
1.0
 50
0.0
 71
     0
 42
0.2
  3
ltypeshp.shx
  4

  0
STYLE
  5
D4
330
3
100
AcDbSymbolTableRecord
100
AcDbTextStyleTableRecord
  2
ITALICC_120
 70
     0
 40
0.0
 41
1.0
 50
0.0
 71
     0
 42
0.2
  3
italicc.shx
  4

  0
STYLE
  5
D5
330
3
100
AcDbSymbolTableRecord
100
AcDbTextStyleTableRecord
  2
Label Text (ANSI)
 70
     0
 40
0.0
 41
1.0
 50
0.0
 71
     0
 42
0.2
  3
tahoma.ttf
  4

1001
ACAD
1000
Tahoma
1071
      256
  0
STYLE
  5
D6
330
3
100
AcDbSymbolTableRecord
100
AcDbTextStyleTableRecord
  2
Note Text (ANSI)
 70
     0
 40
0.0
 41
1.0
 50
0.0
 71
     0
 42
0.2
  3
RomanS.shx
  4

  0
STYLE
  5
D7
330
3
100
AcDbSymbolTableRecord
100
AcDbTextStyleTableRecord
  2
ROMANS
 70
     0
 40
0.0
 41
1.0
 50
0.0
 71
     0
 42
0.2
  3
romans.shx
  4

  0
STYLE
  5
D8
330
3
100
AcDbSymbolTableRecord
100
AcDbTextStyleTableRecord
  2
SANSSERIF_114
 70
     0
 40
0.0
 41
1.0
 50
0.0
 71
     0
 42
0.2
  3
tahoma.ttf
  4

1001
ACAD
1000
Tahoma
1071
      256
  0
STYLE
  5
D9
330
3
100
AcDbSymbolTableRecord
100
AcDbTextStyleTableRecord
  2
SANSSERIF_117
 70
     0
 40
0.0
 41
1.0
 50
0.0
 71
     0
 42
0.2
  3
tahoma.ttf
  4

1001
ACAD
1000
Tahoma
1071
      256
  0
STYLE
  5
145
330
3
100
AcDbSymbolTableRecord
100
AcDbTextStyleTableRecord
  2
Text Style168
 70
     0
 40
0.0
 41
1.0
 50
0.0
 71
     0
 42
0.2
  3
tahoma.ttf
  4

1001
ACAD
1000
Tahoma
1071
      256
  0
ENDTAB
  0
TABLE
  2
VIEW
  5
6
330
0
100
AcDbSymbolTable
 70
     0
  0
ENDTAB
  0
TABLE
  2
UCS
  5
7
330
0
100
AcDbSymbolTable
 70
     0
  0
ENDTAB
  0
TABLE
  2
APPID
  5
9
330
0
100
AcDbSymbolTable
 70
     2
  0
APPID
  5
56
330
9
100
AcDbSymbolTableRecord
100
AcDbRegAppTableRecord
  2
ACAD
 70
     0
  0
APPID
  5
5E
330
9
100
AcDbSymbolTableRecord
100
AcDbRegAppTableRecord
  2
AcadAnnotative
 70
     0
  0
ENDTAB
  0
TABLE
  2
DIMSTYLE
  5
A
330
0
100
AcDbSymbolTable
 70
    15
100
AcDbDimStyleTable
 71
     2
340
E2
340
58
  0
DIMSTYLE
105
58
330
A
100
AcDbSymbolTableRecord
100
AcDbDimStyleTableRecord
  2
Standard
 70
     0
340
55
  0
DIMSTYLE
105
59
330
A
100
AcDbSymbolTableRecord
100
AcDbDimStyleTableRecord
  2
Annotative
 70
     0
340
55
1001
AcadAnnotative
1000
AnnotativeData
1002
{
1070
     1
1070
     1
1002
}
  0
DIMSTYLE
105
DA
330
A
100
AcDbSymbolTableRecord
100
AcDbDimStyleTableRecord
  2
Architectural (ANSI)
 70
     0
 40
3.2
 41
0.0984251946210861
 43
0.2362204724409449
 44
0.125
 45
0.00000001
 46
0.3937007874015748
 78
     3
 79
     3
140
0.1000000014901161
146
1.200000047683715
147
0.031496062992126
171
     1
176
   256
177
   256
178
   256
272
     2
274
     1
276
     2
277
     4
284
    12
285
     4
286
    12
340
D6
371
    -1
372
    -1
  0
DIMSTYLE
105
DB
330
A
100
AcDbSymbolTableRecord
100
AcDbDimStyleTableRecord
  2
Architectural (ANSI)$7
 70
     0
 40
3.2
 41
0.0984251946210861
 43
0.2362204724409449
 44
0.125
 45
0.00000001
 46
0.3937007874015748
 78
     3
 79
     3
140
0.1000000014901161
146
1.200000047683715
147
0.031496062992126
171
     1
176
   256
177
   256
178
   256
272
     2
274
     1
276
     2
277
     4
284
    12
285
     4
286
    12
340
D6
371
    -1
372
    -1
  0
DIMSTYLE
105
DC
330
A
100
AcDbSymbolTableRecord
100
AcDbDimStyleTableRecord
  2
Default - Fraction (ANSI)
 70
     0
 40
3.2
 41
0.0984251946210861
 43
0.2362204724409449
 44
0.125
 45
0.00000001
 46
0.3937007874015748
 79
     3
140
0.1000000014901161
146
1.200000047683715
147
0.031496062992126
171
     1
176
   256
177
   256
178
   256
272
     2
274
     1
276
     2
277
     5
284
    12
285
     4
286
    12
340
D6
371
    -1
372
    -1
  0
DIMSTYLE
105
DD
330
A
100
AcDbSymbolTableRecord
100
AcDbDimStyleTableRecord
  2
Default - Fraction (ANSI)$7
 70
     0
 40
3.2
 41
0.0984251946210861
 43
0.2362204724409449
 44
0.125
 45
0.00000001
 46
0.3937007874015748
 79
     3
140
0.1000000014901161
146
1.200000047683715
147
0.031496062992126
171
     1
176
   256
177
   256
178
   256
272
     2
274
     1
276
     2
277
     5
284
    12
285
     4
286
    12
340
D6
371
    -1
372
    -1
  0
DIMSTYLE
105
DE
330
A
100
AcDbSymbolTableRecord
100
AcDbDimStyleTableRecord
  2
Default - mm (ANSI)
 70
     0
 40
3.2
 41
0.0984251946210861
 42
0.063
 43
0.2362204724409449
 44
0.125
 45
0.00000001
 46
0.3937007874015748
 73
     0
 78
     4
 79
     1
140
0.1000000014901161
143
1.0
144
25.4
146
1.200000047683715
147
0.031496062992126
171
     1
176
   256
177
   256
178
   256
179
     1
271
     2
272
     2
274
     1
284
     4
285
     4
340
D6
371
    -1
372
    -1
  0
DIMSTYLE
105
DF
330
A
100
AcDbSymbolTableRecord
100
AcDbDimStyleTableRecord
  2
Default - mm (ANSI)$7
 70
     0
 40
3.2
 41
0.0984251946210861
 42
0.063
 43
0.2362204724409449
 44
0.125
 45
0.00000001
 46
0.3937007874015748
 73
     0
 78
     4
 79
     1
140
0.1000000014901161
143
1.0
144
25.4
146
1.200000047683715
147
0.031496062992126
171
     1
176
   256
177
   256
178
   256
179
     1
271
     2
272
     2
274
     1
284
     4
285
     4
340
D6
371
    -1
372
    -1
  0
DIMSTYLE
105
E0
330
A
100
AcDbSymbolTableRecord
100
AcDbDimStyleTableRecord
  2
Default - mm [in] (ANSI)
 70
     0
  4
 in
 40
3.2
 41
0.0984251946210861
 42
0.063
 43
0.25
 44
0.125
 45
0.00000001
 46
0.3937007874015748
 73
     0
 78
     4
 79
     1
140
0.1000000014901161
143
0.03937
144
25.4
146
1.200000047683715
147
0.031496062992126
170
     1
171
     3
176
   256
177
   256
178
   256
179
     1
271
     2
272
     2
274
     3
284
     4
285
     4
286
     4
340
D6
371
    -1
372
    -1
  0
DIMSTYLE
105
E1
330
A
100
AcDbSymbolTableRecord
100
AcDbDimStyleTableRecord
  2
Default - mm [in] (ANSI)$7
 70
     0
  4
 in
 40
3.2
 41
0.0984251946210861
 42
0.063
 43
0.25
 44
0.125
 45
0.00000001
 46
0.3937007874015748
 73
     0
 78
     4
 79
     1
140
0.1000000014901161
143
0.03937
144
25.4
146
1.200000047683715
147
0.031496062992126
170
     1
171
     3
176
   256
177
   256
178
   256
179
     1
271
     2
272
     2
274
     3
284
     4
285
     4
286
     4
340
D6
371
    -1
372
    -1
  0
DIMSTYLE
105
E2
102
{ACAD_REACTORS
330
22C
330
42E
330
52C
330
637
330
72D
330
821
330
93D
330
A31
330
B28
330
C12
330
CFC
330
DE6
330
EDA
330
FC4
330
10AE
102
}
330
A
100
AcDbSymbolTableRecord
100
AcDbDimStyleTableRecord
  2
Default (ANSI)
 70
     0
 40
3.2
 41
0.0984251946210861
 43
0.2362204724409449
 44
0.125
 45
0.00000001
 46
0.3937007874015748
140
0.1000000014901161
147
0.031496062992126
176
   256
177
   256
178
   256
271
     2
272
     2
340
D7
371
    -1
372
    -1
  0
DIMSTYLE
105
E3
330
A
100
AcDbSymbolTableRecord
100
AcDbDimStyleTableRecord
  2
Default (ANSI)$7
 70
     0
 40
3.2
 41
0.0984251946210861
 43
0.2362204724409449
 44
0.125
 45
0.00000001
 46
0.3937007874015748
140
0.1000000014901161
147
0.031496062992126
176
   256
177
   256
178
   256
271
     2
272
     2
340
D7
371
    -1
372
    -1
  0
DIMSTYLE
105
E4
330
A
100
AcDbSymbolTableRecord
100
AcDbDimStyleTableRecord
  2
Alternate (ANSI)
 70
     0
 40
3.2
 41
0.0979999974370003
340
55
342
E5
  0
DIMSTYLE
105
F7
330
A
100
AcDbSymbolTableRecord
100
AcDbDimStyleTableRecord
  2
Datum (ANSI)
 70
     0
 40
3.2
 41
0.0979999974370003
340
55
342
E5
  0
DIMSTYLE
105
106
330
A
100
AcDbSymbolTableRecord
100
AcDbDimStyleTableRecord
  2
Large (ANSI)
 70
     0
 40
3.2
 41
0.1959999948740005
340
55
342
E5
  0
ENDTAB
  0
TABLE
  2
BLOCK_RECORD
  5
1
330
0
100
AcDbSymbolTable
 70
    19
  0
BLOCK_RECORD
  5
6C
330
1
100
AcDbSymbolTableRecord
100
AcDbBlockTableRecord
  2
*Model_Space
340
6F
 70
     0
280
     1
281
     0
  0
BLOCK_RECORD
  5
68
330
1
100
AcDbSymbolTableRecord
100
AcDbBlockTableRecord
  2
*Paper_Space
340
6B
 70
     0
280
     1
281
     0
  0
BLOCK_RECORD
  5
70
330
1
100
AcDbSymbolTableRecord
100
AcDbBlockTableRecord
  2
*Paper_Space0
340
73
 70
     0
280
     1
281
     0
  0
BLOCK_RECORD
  5
E5
330
1
100
AcDbSymbolTableRecord
100
AcDbBlockTableRecord
  2
_Closed
340
0
 70
     0
280
     1
281
     0
  0
BLOCK_RECORD
  5
EC
330
1
100
AcDbSymbolTableRecord
100
AcDbBlockTableRecord
  2
DatumFilled45
340
0
 70
     0
280
     1
281
     0
  0
BLOCK_RECORD
  5
F8
330
1
100
AcDbSymbolTableRecord
100
AcDbBlockTableRecord
  2
Filled-1
340
0
 70
     0
280
     1
281
     0
  0
BLOCK_RECORD
  5
22F
330
1
100
AcDbSymbolTableRecord
100
AcDbBlockTableRecord
  2
*D4
340
0
 70
     0
280
     1
281
     0
  0
BLOCK_RECORD
  5
42F
330
1
100
AcDbSymbolTableRecord
100
AcDbBlockTableRecord
  2
*D5
340
0
 70
     0
280
     1
281
     0
  0
BLOCK_RECORD
  5
52D
330
1
100
AcDbSymbolTableRecord
100
AcDbBlockTableRecord
  2
*D6
340
0
 70
     0
280
     1
281
     0
  0
BLOCK_RECORD
  5
638
330
1
100
AcDbSymbolTableRecord
100
AcDbBlockTableRecord
  2
*D7
340
0
 70
     0
280
     1
281
     0
  0
BLOCK_RECORD
  5
72E
330
1
100
AcDbSymbolTableRecord
100
AcDbBlockTableRecord
  2
*D8
340
0
 70
     0
280
     1
281
     0
  0
BLOCK_RECORD
  5
822
330
1
100
AcDbSymbolTableRecord
100
AcDbBlockTableRecord
  2
*D9
340
0
 70
     0
280
     1
281
     0
  0
BLOCK_RECORD
  5
93E
330
1
100
AcDbSymbolTableRecord
100
AcDbBlockTableRecord
  2
*D10
340
0
 70
     0
280
     1
281
     0
  0
BLOCK_RECORD
  5
A32
330
1
100
AcDbSymbolTableRecord
100
AcDbBlockTableRecord
  2
*D11
340
0
 70
     0
280
     1
281
     0
  0
BLOCK_RECORD
  5
B29
330
1
100
AcDbSymbolTableRecord
100
AcDbBlockTableRecord
  2
*D12
340
0
 70
     0
280
     1
281
     0
  0
BLOCK_RECORD
  5
C13
330
1
100
AcDbSymbolTableRecord
100
AcDbBlockTableRecord
  2
*D13
340
0
 70
     0
280
     1
281
     0
  0
BLOCK_RECORD
  5
CFD
330
1
100
AcDbSymbolTableRecord
100
AcDbBlockTableRecord
  2
*D14
340
0
 70
     0
280
     1
281
     0
  0
BLOCK_RECORD
  5
DE7
330
1
100
AcDbSymbolTableRecord
100
AcDbBlockTableRecord
  2
*D15
340
0
 70
     0
280
     1
281
     0
  0
BLOCK_RECORD
  5
EDB
330
1
100
AcDbSymbolTableRecord
100
AcDbBlockTableRecord
  2
*D16
340
0
 70
     0
280
     1
281
     0
  0
BLOCK_RECORD
  5
FC5
330
1
100
AcDbSymbolTableRecord
100
AcDbBlockTableRecord
  2
*D17
340
0
 70
     0
280
     1
281
     0
  0
BLOCK_RECORD
  5
10AF
330
1
100
AcDbSymbolTableRecord
100
AcDbBlockTableRecord
  2
*D18
340
0
 70
     0
280
     1
281
     0
  0
ENDTAB
  0
ENDSEC
  0
SECTION
  2
BLOCKS
  0
BLOCK
  5
6D
330
6C
100
AcDbEntity
  8
0
100
AcDbBlockBegin
  2
*Model_Space
 70
     0
 10
0.0
 20
0.0
 30
0.0
  3
*Model_Space
  1

  0
ENDBLK
  5
6E
330
6C
100
AcDbEntity
  8
0
100
AcDbBlockEnd
  0
BLOCK
  5
69
330
68
100
AcDbEntity
 67
     1
  8
0
100
AcDbBlockBegin
  2
*Paper_Space
 70
     0
 10
0.0
 20
0.0
 30
0.0
  3
*Paper_Space
  1

  0
ENDBLK
  5
6A
330
68
100
AcDbEntity
 67
     1
  8
0
100
AcDbBlockEnd
  0
BLOCK
  5
71
330
70
100
AcDbEntity
 67
     1
  8
0
100
AcDbBlockBegin
  2
*Paper_Space0
 70
     0
 10
0.0
 20
0.0
 30
0.0
  3
*Paper_Space0
  1

  0
ENDBLK
  5
72
330
70
100
AcDbEntity
 67
     1
  8
0
100
AcDbBlockEnd
  0
BLOCK
  5
EA
330
E5
100
AcDbEntity
  8
0
100
AcDbBlockBegin
  2
_Closed
 70
     0
 10
0.0
 20
0.0
 30
0.0
  3
_Closed
  1

  0
LINE
  5
E6
330
E5
100
AcDbEntity
  8
0
  6
ByBlock
 62
     0
370
    -2
100
AcDbLine
 10
-1.0
 20
0.1666666666666666
 30
0.0
 11
0.0
 21
0.0
 31
0.0
  0
LINE
  5
E7
330
E5
100
AcDbEntity
  8
0
  6
ByBlock
 62
     0
370
    -2
100
AcDbLine
 10
0.0
 20
0.0
 30
0.0
 11
-1.0
 21
-0.1666666666666666
 31
0.0
  0
LINE
  5
E8
330
E5
100
AcDbEntity
  8
0
  6
ByBlock
 62
     0
370
    -2
100
AcDbLine
 10
-1.0
 20
0.1666666666666666
 30
0.0
 11
-1.0
 21
-0.1666666666666666
 31
0.0
  0
LINE
  5
E9
330
E5
100
AcDbEntity
  8
0
  6
ByBlock
 62
     0
370
    -2
100
AcDbLine
 10
0.0
 20
0.0
 30
0.0
 11
-1.0
 21
0.0
 31
0.0
  0
ENDBLK
  5
EB
330
E5
100
AcDbEntity
  8
0
100
AcDbBlockEnd
  0
BLOCK
  5
ED
330
EC
100
AcDbEntity
  8
0
100
AcDbBlockBegin
  2
DatumFilled45
 70
     0
 10
0.0
 20
0.0
 30
0.0
  3
DatumFilled45
  1

  0
POLYLINE
  5
EF
330
EC
100
AcDbEntity
  8
0
 62
     0
100
AcDb2dPolyline
 66
     1
 10
0.0
 20
0.0
 30
0.0
 70
   128
  0
VERTEX
  5
F0
330
EF
100
AcDbEntity
  8
0
 62
     0
100
AcDbVertex
100
AcDb2dVertex
 10
0.0
 20
0.9999999999999998
 30
0.0
  0
VERTEX
  5
F1
330
EF
100
AcDbEntity
  8
0
 62
     0
100
AcDbVertex
100
AcDb2dVertex
 10
0.0
 20
-0.9999999999999998
 30
0.0
  0
VERTEX
  5
F3
330
EF
100
AcDbEntity
  8
0
 62
     0
100
AcDbVertex
100
AcDb2dVertex
 10
-0.9999999999999998
 20
0.0
 30
0.0
  0
VERTEX
  5
F4
330
EF
100
AcDbEntity
  8
0
 62
     0
100
AcDbVertex
100
AcDb2dVertex
 10
0.0
 20
0.9999999999999998
 30
0.0
  0
SEQEND
  5
F2
330
EF
100
AcDbEntity
  8
0
 62
     0
  0
SOLID
  5
F6
330
EC
100
AcDbEntity
  8
0
 62
     0
100
AcDbTrace
 10
0.0
 20
0.9999999999999998
 30
0.0
 11
0.0
 21
-0.9999999999999998
 31
0.0
 12
-0.9999999999999998
 22
0.0
 32
0.0
 13
0.0
 23
0.9999999999999998
 33
0.0
  0
ENDBLK
  5
EE
330
EC
100
AcDbEntity
  8
0
100
AcDbBlockEnd
  0
BLOCK
  5
F9
330
F8
100
AcDbEntity
  8
0
100
AcDbBlockBegin
  2
Filled-1
 70
     0
 10
0.0
 20
0.0
 30
0.0
  3
Filled-1
  1

  0
LINE
  5
FB
330
F8
100
AcDbEntity
  8
0
 62
     0
100
AcDbLine
 10
-0.9999999999999998
 20
0.0
 30
0.0
 11
0.0
 21
0.0
 31
0.0
  0
POLYLINE
  5
FC
330
F8
100
AcDbEntity
  8
0
 62
     0
100
AcDb2dPolyline
 66
     1
 10
0.0
 20
0.0
 30
0.0
 70
   128
  0
VERTEX
  5
FD
330
FC
100
AcDbEntity
  8
0
 62
     0
100
AcDbVertex
100
AcDb2dVertex
 10
-0.9999999999999998
 20
-0.0994897959183674
 30
0.0
  0
VERTEX
  5
FE
330
FC
100
AcDbEntity
  8
0
 62
     0
100
AcDbVertex
100
AcDb2dVertex
 10
0.0
 20
0.0
 30
0.0
  0
VERTEX
  5
100
330
FC
100
AcDbEntity
  8
0
 62
     0
100
AcDbVertex
100
AcDb2dVertex
 10
-0.9999999999999998
 20
0.0994897959183674
 30
0.0
  0
VERTEX
  5
101
330
FC
100
AcDbEntity
  8
0
 62
     0
100
AcDbVertex
100
AcDb2dVertex
 10
-0.9999999999999998
 20
-0.0994897959183674
 30
0.0
  0
SEQEND
  5
FF
330
FC
100
AcDbEntity
  8
0
 62
     0
  0
SOLID
  5
102
330
F8
100
AcDbEntity
  8
0
 62
     0
100
AcDbTrace
 10
-0.9999999999999998
 20
-0.0994897959183674
 30
0.0
 11
0.0
 21
0.0
 31
0.0
 12
-0.9999999999999998
 22
0.0994897959183674
 32
0.0
 13
-0.9999999999999998
 23
-0.0994897959183674
 33
0.0
  0
LINE
  5
103
330
F8
100
AcDbEntity
  8
0
 62
     0
100
AcDbLine
 10
-0.9999999999999998
 20
-0.0994897959183674
 30
0.0
 11
0.0
 21
0.0
 31
0.0
  0
LINE
  5
104
330
F8
100
AcDbEntity
  8
0
 62
     0
100
AcDbLine
 10
0.0
 20
0.0
 30
0.0
 11
-0.9999999999999998
 21
0.0994897959183674
 31
0.0
  0
LINE
  5
105
330
F8
100
AcDbEntity
  8
0
 62
     0
100
AcDbLine
 10
-0.9999999999999998
 20
0.0994897959183674
 30
0.0
 11
-0.9999999999999998
 21
-0.0994897959183674
 31
0.0
  0
ENDBLK
  5
FA
330
F8
100
AcDbEntity
  8
0
100
AcDbBlockEnd
  0
BLOCK
  5
230
330
22F
100
AcDbEntity
  8
0
100
AcDbBlockBegin
  2
*D4
 70
     1
 10
0.0
 20
0.0
 30
0.0
  3
*D4
  1

  0
LINE
  5
323
330
22F
100
AcDbEntity
  8
Dimension (ANSI)
440
 16777216
100
AcDbLine
 10
7.653321531892404
 20
10.7002056938366
 30
0.0
 11
5.73623669429904
 21
10.7002056938366
 31
0.0
  0
LINE
  5
324
330
22F
100
AcDbEntity
  8
Dimension (ANSI)
440
 16777216
100
AcDbLine
 10
7.659109702622837
 20
14.70020569383652
 30
0.0
 11
5.736236694299041
 21
14.70020569383652
 31
0.0
  0
LINE
  5
325
330
22F
100
AcDbEntity
  8
Dimension (ANSI)
440
 16777216
100
AcDbLine
 10
6.136236694299039
 20
11.01516631662407
 30
0.0
 11
6.136236694299039
 21
12.01911274865023
 31
0.0
  0
LINE
  5
326
330
22F
100
AcDbEntity
  8
Dimension (ANSI)
440
 16777216
100
AcDbLine
 10
6.13623669429904
 20
14.38524507104904
 30
0.0
 11
6.136236694299039
 21
13.24163994796559
 31
0.0
  0
SOLID
  5
327
330
22F
100
AcDbEntity
  8
Dimension (ANSI)
440
 16777216
100
AcDbTrace
 10
6.083743257167793
 20
11.01516631662407
 30
0.0
 11
6.188730131430285
 21
11.01516631662407
 31
0.0
 12
6.136236694299039
 22
10.7002056938366
 32
0.0
 13
6.136236694299039
 23
10.7002056938366
 33
0.0
  0
SOLID
  5
328
330
22F
100
AcDbEntity
  8
Dimension (ANSI)
440
 16777216
100
AcDbTrace
 10
6.083743257167794
 20
14.38524507104904
 30
0.0
 11
6.188730131430286
 21
14.38524507104904
 31
0.0
 12
6.13623669429904
 22
14.70020569383652
 32
0.0
 13
6.13623669429904
 23
14.70020569383652
 33
0.0
  0
MTEXT
  5
329
330
22F
100
AcDbEntity
  8
Dimension (ANSI)
440
 16777216
100
AcDbMText
 10
6.136236694299038
 20
12.63037634830791
 30
0.0
 40
0.3200000047683716
 41
0.0
 46
0.0
 71
     5
 72
     1
  1
\A1;4.00{\P(2 PL.)}
  7
ROMANS
 73
     1
 44
1.0
  0
POINT
  5
32A
330
22F
100
AcDbEntity
  8
Defpoints
 62
     0
440
 16777216
100
AcDbPoint
 10
7.853321531892405
 20
10.7002056938366
 30
0.0
  0
POINT
  5
32B
330
22F
100
AcDbEntity
  8
Defpoints
 62
     0
440
 16777216
100
AcDbPoint
 10
7.859109702622837
 20
14.70020569383652
 30
0.0
  0
POINT
  5
32C
330
22F
100
AcDbEntity
  8
Defpoints
 62
     0
440
 16777216
100
AcDbPoint
 10
6.13623669429904
 20
14.70020569383652
 30
0.0
  0
ENDBLK
  5
231
330
22F
100
AcDbEntity
  8
0
100
AcDbBlockEnd
  0
BLOCK
  5
430
330
42F
100
AcDbEntity
  8
0
100
AcDbBlockBegin
  2
*D5
 70
     1
 10
0.0
 20
0.0
 30
0.0
  3
*D5
  1

  0
LINE
  5
522
330
42F
100
AcDbEntity
  8
Dimension (ANSI)
440
 16777216
100
AcDbLine
 10
7.653321531896034
 20
26.39092716265577
 30
0.0
 11
6.041997876415005
 21
26.39092716265577
 31
0.0
  0
LINE
  5
523
330
42F
100
AcDbEntity
  8
Dimension (ANSI)
440
 16777216
100
AcDbLine
 10
7.653321531896033
 20
30.39092716265577
 30
0.0
 11
6.041997876415006
 21
30.39092716265577
 31
0.0
  0
LINE
  5
524
330
42F
100
AcDbEntity
  8
Dimension (ANSI)
440
 16777216
100
AcDbLine
 10
6.441997876415005
 20
26.70588778544324
 30
0.0
 11
6.441997876415005
 21
27.86347308805647
 31
0.0
  0
LINE
  5
525
330
42F
100
AcDbEntity
  8
Dimension (ANSI)
440
 16777216
100
AcDbLine
 10
6.441997876415006
 20
30.0759665398683
 30
0.0
 11
6.441997876415005
 21
28.91838123725507
 31
0.0
  0
SOLID
  5
526
330
42F
100
AcDbEntity
  8
Dimension (ANSI)
440
 16777216
100
AcDbTrace
 10
6.389504439283759
 20
26.70588778544324
 30
0.0
 11
6.494491313546251
 21
26.70588778544324
 31
0.0
 12
6.441997876415005
 22
26.39092716265577
 32
0.0
 13
6.441997876415005
 23
26.39092716265577
 33
0.0
  0
SOLID
  5
527
330
42F
100
AcDbEntity
  8
Dimension (ANSI)
440
 16777216
100
AcDbTrace
 10
6.38950443928376
 20
30.0759665398683
 30
0.0
 11
6.494491313546252
 21
30.0759665398683
 31
0.0
 12
6.441997876415006
 22
30.39092716265577
 32
0.0
 13
6.441997876415006
 23
30.39092716265577
 33
0.0
  0
MTEXT
  5
528
330
42F
100
AcDbEntity
  8
Dimension (ANSI)
440
 16777216
100
AcDbMText
 10
6.441997876415
 20
28.39092716265577
 30
0.0
 40
0.3200000047683716
 41
0.0
 46
0.0
 71
     5
 72
     1
  1
\A1;4.00{\PTYP.}
  7
ROMANS
 73
     1
 44
1.0
  0
POINT
  5
529
330
42F
100
AcDbEntity
  8
Defpoints
 62
     0
440
 16777216
100
AcDbPoint
 10
7.853321531896034
 20
26.39092716265577
 30
0.0
  0
POINT
  5
52A
330
42F
100
AcDbEntity
  8
Defpoints
 62
     0
440
 16777216
100
AcDbPoint
 10
7.853321531896034
 20
30.39092716265577
 30
0.0
  0
POINT
  5
52B
330
42F
100
AcDbEntity
  8
Defpoints
 62
     0
440
 16777216
100
AcDbPoint
 10
6.441997876415006
 20
30.39092716265577
 30
0.0
  0
ENDBLK
  5
431
330
42F
100
AcDbEntity
  8
0
100
AcDbBlockEnd
  0
BLOCK
  5
52E
330
52D
100
AcDbEntity
  8
0
100
AcDbBlockBegin
  2
*D6
 70
     1
 10
0.0
 20
0.0
 30
0.0
  3
*D6
  1

  0
LINE
  5
62A
330
52D
100
AcDbEntity
  8
Dimension (ANSI)
440
 16777216
100
AcDbLine
 10
7.915821531892405
 20
9.812705693836599
 30
0.0
 11
7.915821531892405
 21
8.142293484030398
 31
0.0
  0
LINE
  5
62B
330
52D
100
AcDbEntity
  8
Dimension (ANSI)
440
 16777216
100
AcDbLine
 10
7.790821531892405
 20
9.812705693836601
 30
0.0
 11
7.790821531892405
 21
8.142293484030398
 31
0.0
  0
LINE
  5
62C
330
52D
100
AcDbEntity
  8
Dimension (ANSI)
440
 16777216
100
AcDbLine
 10
8.23078215467988
 20
8.542293484030398
 30
0.0
 11
8.545742777467356
 21
8.542293484030398
 31
0.0
  0
LINE
  5
62D
330
52D
100
AcDbEntity
  8
Dimension (ANSI)
440
 16777216
100
AcDbLine
 10
7.475860909104929
 20
8.542293484030398
 30
0.0
 11
7.160900286317454
 21
8.542293484030398
 31
0.0
  0
SOLID
  5
62E
330
52D
100
AcDbEntity
  8
Dimension (ANSI)
440
 16777216
100
AcDbTrace
 10
8.23078215467988
 20
8.594786921161643
 30
0.0
 11
8.23078215467988
 21
8.489800046899153
 31
0.0
 12
7.915821531892405
 22
8.542293484030398
 32
0.0
 13
7.915821531892405
 23
8.542293484030398
 33
0.0
  0
SOLID
  5
62F
330
52D
100
AcDbEntity
  8
Dimension (ANSI)
440
 16777216
100
AcDbTrace
 10
7.475860909104929
 20
8.594786921161643
 30
0.0
 11
7.475860909104929
 21
8.489800046899153
 31
0.0
 12
7.790821531892405
 22
8.542293484030398
 32
0.0
 13
7.790821531892405
 23
8.542293484030398
 33
0.0
  0
MTEXT
  5
630
330
52D
100
AcDbEntity
  8
Dimension (ANSI)
440
 16777216
100
AcDbMText
 10
5.604874767819818
 20
8.542293484030398
 30
0.0
 40
0.3200000047683716
 41
0.0
 46
0.0
 71
     5
 72
     1
  1
\A1;{10 GA. 304\PS.S. (3 PL.)\P}(0.125)
  7
ROMANS
 73
     1
 44
1.0
  0
POINT
  5
631
330
52D
100
AcDbEntity
  8
Defpoints
 62
     0
440
 16777216
100
AcDbPoint
 10
7.915821531892405
 20
10.0127056938366
 30
0.0
  0
POINT
  5
632
330
52D
100
AcDbEntity
  8
Defpoints
 62
     0
440
 16777216
100
AcDbPoint
 10
7.790821531892405
 20
10.0127056938366
 30
0.0
  0
POINT
  5
633
330
52D
100
AcDbEntity
  8
Defpoints
 62
     0
440
 16777216
100
AcDbPoint
 10
7.790821531892405
 20
8.542293484030398
 30
0.0
  0
ENDBLK
  5
52F
330
52D
100
AcDbEntity
  8
0
100
AcDbBlockEnd
  0
BLOCK
  5
639
330
638
100
AcDbEntity
  8
0
100
AcDbBlockBegin
  2
*D7
 70
     1
 10
0.0
 20
0.0
 30
0.0
  3
*D7
  1

  0
LINE
  5
721
330
638
100
AcDbEntity
  8
Dimension (ANSI)
440
 16777216
100
AcDbLine
 10
33.55125389037448
 20
10.1877056938366
 30
0.0
 11
33.55125389037448
 21
7.625809716829756
 31
0.0
  0
LINE
  5
722
330
638
100
AcDbEntity
  8
Dimension (ANSI)
440
 16777216
100
AcDbLine
 10
28.17625389037449
 20
10.18770569383659
 30
0.0
 11
28.17625389037449
 21
7.625809716829756
 31
0.0
  0
LINE
  5
723
330
638
100
AcDbEntity
  8
Dimension (ANSI)
440
 16777216
100
AcDbLine
 10
33.236293267587
 20
8.025809716829757
 30
0.0
 11
31.65025558788151
 21
8.025809716829757
 31
0.0
  0
LINE
  5
724
330
638
100
AcDbEntity
  8
Dimension (ANSI)
440
 16777216
100
AcDbLine
 10
28.49121451316197
 20
8.025809716829757
 30
0.0
 11
30.07725219286746
 21
8.025809716829757
 31
0.0
  0
SOLID
  5
725
330
638
100
AcDbEntity
  8
Dimension (ANSI)
440
 16777216
100
AcDbTrace
 10
33.236293267587
 20
8.078303153961002
 30
0.0
 11
33.236293267587
 21
7.973316279698511
 31
0.0
 12
33.55125389037448
 22
8.025809716829757
 32
0.0
 13
33.55125389037448
 23
8.025809716829757
 33
0.0
  0
SOLID
  5
726
330
638
100
AcDbEntity
  8
Dimension (ANSI)
440
 16777216
100
AcDbTrace
 10
28.49121451316197
 20
8.078303153961002
 30
0.0
 11
28.49121451316197
 21
7.973316279698511
 31
0.0
 12
28.17625389037449
 22
8.025809716829757
 32
0.0
 13
28.17625389037449
 23
8.025809716829757
 33
0.0
  0
MTEXT
  5
727
330
638
100
AcDbEntity
  8
Dimension (ANSI)
440
 16777216
100
AcDbMText
 10
30.17803959444226
 20
8.269619244272325
 30
0.0
 40
0.3200000047683716
 41
0.0
 46
0.0
 71
     1
 72
     1
  1
\A1;(5.38)
  7
ROMANS
 73
     1
 44
1.0
  0
POINT
  5
728
330
638
100
AcDbEntity
  8
Defpoints
 62
     0
440
 16777216
100
AcDbPoint
 10
33.55125389037448
 20
10.3877056938366
 30
0.0
  0
POINT
  5
729
330
638
100
AcDbEntity
  8
Defpoints
 62
     0
440
 16777216
100
AcDbPoint
 10
28.17625389037449
 20
10.38770569383659
 30
0.0
  0
POINT
  5
72A
330
638
100
AcDbEntity
  8
Defpoints
 62
     0
440
 16777216
100
AcDbPoint
 10
28.17625389037449
 20
8.025809716829757
 30
0.0
  0
ENDBLK
  5
63A
330
638
100
AcDbEntity
  8
0
100
AcDbBlockEnd
  0
BLOCK
  5
72F
330
72E
100
AcDbEntity
  8
0
100
AcDbBlockBegin
  2
*D8
 70
     1
 10
0.0
 20
0.0
 30
0.0
  3
*D8
  1

  0
LINE
  5
817
330
72E
100
AcDbEntity
  8
Dimension (ANSI)
440
 16777216
100
AcDbLine
 10
33.55125389037448
 20
10.1877056938366
 30
0.0
 11
33.55125389037448
 21
8.674964245636324
 31
0.0
  0
LINE
  5
818
330
72E
100
AcDbEntity
  8
Dimension (ANSI)
440
 16777216
100
AcDbLine
 10
30.86375389037449
 20
9.787705693836594
 30
0.0
 11
30.86375389037449
 21
8.674964245636324
 31
0.0
  0
LINE
  5
819
330
72E
100
AcDbEntity
  8
Dimension (ANSI)
440
 16777216
100
AcDbLine
 10
33.236293267587
 20
9.074964245636325
 30
0.0
 11
32.93343643745244
 21
9.074964245636325
 31
0.0
  0
LINE
  5
81A
330
72E
100
AcDbEntity
  8
Dimension (ANSI)
440
 16777216
100
AcDbLine
 10
31.17871451316196
 20
9.074964245636325
 30
0.0
 11
31.36043304243839
 21
9.074964245636325
 31
0.0
  0
SOLID
  5
81B
330
72E
100
AcDbEntity
  8
Dimension (ANSI)
440
 16777216
100
AcDbTrace
 10
33.236293267587
 20
9.12745768276757
 30
0.0
 11
33.236293267587
 21
9.022470808505079
 31
0.0
 12
33.55125389037448
 22
9.074964245636325
 32
0.0
 13
33.55125389037448
 23
9.074964245636325
 33
0.0
  0
SOLID
  5
81C
330
72E
100
AcDbEntity
  8
Dimension (ANSI)
440
 16777216
100
AcDbTrace
 10
31.17871451316196
 20
9.12745768276757
 30
0.0
 11
31.17871451316196
 21
9.022470808505079
 31
0.0
 12
30.86375389037449
 22
9.074964245636325
 32
0.0
 13
30.86375389037449
 23
9.074964245636325
 33
0.0
  0
MTEXT
  5
81D
330
72E
100
AcDbEntity
  8
Dimension (ANSI)
440
 16777216
100
AcDbMText
 10
31.46122044401319
 20
9.318773773078893
 30
0.0
 40
0.3200000047683716
 41
0.0
 46
0.0
 71
     1
 72
     1
  1
\A1;(2.69)
  7
ROMANS
 73
     1
 44
1.0
  0
POINT
  5
81E
330
72E
100
AcDbEntity
  8
Defpoints
 62
     0
440
 16777216
100
AcDbPoint
 10
33.55125389037448
 20
10.3877056938366
 30
0.0
  0
POINT
  5
81F
330
72E
100
AcDbEntity
  8
Defpoints
 62
     0
440
 16777216
100
AcDbPoint
 10
30.86375389037449
 20
9.987705693836593
 30
0.0
  0
POINT
  5
820
330
72E
100
AcDbEntity
  8
Defpoints
 62
     0
440
 16777216
100
AcDbPoint
 10
30.86375389037449
 20
9.074964245636325
 30
0.0
  0
ENDBLK
  5
730
330
72E
100
AcDbEntity
  8
0
100
AcDbBlockEnd
  0
BLOCK
  5
823
330
822
100
AcDbEntity
  8
0
100
AcDbBlockBegin
  2
*D9
 70
     1
 10
0.0
 20
0.0
 30
0.0
  3
*D9
  1

  0
LINE
  5
932
330
822
100
AcDbEntity
  8
Dimension (ANSI)
440
 16777216
100
AcDbLine
 10
32.98975389037442
 20
14.62620569383655
 30
0.0
 11
34.07051254630218
 21
14.62620569383655
 31
0.0
  0
LINE
  5
933
330
822
100
AcDbEntity
  8
Dimension (ANSI)
440
 16777216
100
AcDbLine
 10
33.37625389037448
 20
15.38770569383659
 30
0.0
 11
34.07051254630218
 21
15.38770569383659
 31
0.0
  0
LINE
  5
934
330
822
100
AcDbEntity
  8
Dimension (ANSI)
440
 16777216
100
AcDbLine
 10
33.67051254630218
 20
14.31124507104908
 30
0.0
 11
33.67051254630218
 21
13.9962844482616
 31
0.0
  0
LINE
  5
935
330
822
100
AcDbEntity
  8
Dimension (ANSI)
440
 16777216
100
AcDbLine
 10
33.67051254630218
 20
15.70266631662407
 30
0.0
 11
33.67051254630219
 21
16.74285605178575
 31
0.0
  0
LINE
  5
936
330
822
100
AcDbEntity
  8
Dimension (ANSI)
440
 16777216
100
AcDbLine
 10
33.67051254630219
 20
16.74285605178575
 30
0.0
 11
33.98547316908966
 21
16.74285605178575
 31
0.0
  0
SOLID
  5
937
330
822
100
AcDbEntity
  8
Dimension (ANSI)
440
 16777216
100
AcDbTrace
 10
33.61801910917093
 20
14.31124507104908
 30
0.0
 11
33.72300598343342
 21
14.31124507104908
 31
0.0
 12
33.67051254630218
 22
14.62620569383655
 32
0.0
 13
33.67051254630218
 23
14.62620569383655
 33
0.0
  0
SOLID
  5
938
330
822
100
AcDbEntity
  8
Dimension (ANSI)
440
 16777216
100
AcDbTrace
 10
33.61801910917093
 20
15.70266631662407
 30
0.0
 11
33.72300598343342
 21
15.70266631662407
 31
0.0
 12
33.67051254630218
 22
15.38770569383659
 32
0.0
 13
33.67051254630218
 23
15.38770569383659
 33
0.0
  0
MTEXT
  5
939
330
822
100
AcDbEntity
  8
Dimension (ANSI)
440
 16777216
100
AcDbMText
 10
34.77197486659668
 20
16.74285605178575
 30
0.0
 40
0.3200000047683716
 41
0.0
 46
0.0
 71
     5
 72
     1
  1
\A1;(0.76){\PTYP.}
  7
ROMANS
 73
     1
 44
1.0
  0
POINT
  5
93A
330
822
100
AcDbEntity
  8
Defpoints
 62
     0
440
 16777216
100
AcDbPoint
 10
32.78975389037441
 20
14.62620569383655
 30
0.0
  0
POINT
  5
93B
330
822
100
AcDbEntity
  8
Defpoints
 62
     0
440
 16777216
100
AcDbPoint
 10
33.17625389037448
 20
15.38770569383659
 30
0.0
  0
POINT
  5
93C
330
822
100
AcDbEntity
  8
Defpoints
 62
     0
440
 16777216
100
AcDbPoint
 10
33.67051254630218
 20
15.38770569383659
 30
0.0
  0
ENDBLK
  5
824
330
822
100
AcDbEntity
  8
0
100
AcDbBlockEnd
  0
BLOCK
  5
93F
330
93E
100
AcDbEntity
  8
0
100
AcDbBlockBegin
  2
*D10
 70
     1
 10
0.0
 20
0.0
 30
0.0
  3
*D10
  1

  0
LINE
  5
A27
330
93E
100
AcDbEntity
  8
Dimension (ANSI)
440
 16777216
100
AcDbLine
 10
28.35125389037449
 20
15.38770569383659
 30
0.0
 11
25.23016327190812
 21
15.38770569383659
 31
0.0
  0
LINE
  5
A28
330
93E
100
AcDbEntity
  8
Dimension (ANSI)
440
 16777216
100
AcDbLine
 10
28.35125389037449
 20
10.01270569383659
 30
0.0
 11
25.23016327190812
 21
10.01270569383659
 31
0.0
  0
LINE
  5
A29
330
93E
100
AcDbEntity
  8
Dimension (ANSI)
440
 16777216
100
AcDbLine
 10
25.63016327190812
 20
15.07274507104912
 30
0.0
 11
25.63016327190812
 21
13.12998572775009
 31
0.0
  0
LINE
  5
A2A
330
93E
100
AcDbEntity
  8
Dimension (ANSI)
440
 16777216
100
AcDbLine
 10
25.63016327190812
 20
10.32766631662407
 30
0.0
 11
25.63016327190812
 21
12.44079186971535
 31
0.0
  0
SOLID
  5
A2B
330
93E
100
AcDbEntity
  8
Dimension (ANSI)
440
 16777216
100
AcDbTrace
 10
25.57766983477687
 20
15.07274507104912
 30
0.0
 11
25.68265670903937
 21
15.07274507104912
 31
0.0
 12
25.63016327190812
 22
15.38770569383659
 32
0.0
 13
25.63016327190812
 23
15.38770569383659
 33
0.0
  0
SOLID
  5
A2C
330
93E
100
AcDbEntity
  8
Dimension (ANSI)
440
 16777216
100
AcDbTrace
 10
25.57766983477687
 20
10.32766631662407
 30
0.0
 11
25.68265670903937
 21
10.32766631662407
 31
0.0
 12
25.63016327190812
 22
10.01270569383659
 32
0.0
 13
25.63016327190812
 23
10.01270569383659
 33
0.0
  0
MTEXT
  5
A2D
330
93E
100
AcDbEntity
  8
Dimension (ANSI)
440
 16777216
100
AcDbMText
 10
24.94444897597589
 20
13.02919832617529
 30
0.0
 40
0.3200000047683716
 41
0.0
 46
0.0
 71
     1
 72
     1
  1
\A1;(5.38)
  7
ROMANS
 73
     1
 44
1.0
  0
POINT
  5
A2E
330
93E
100
AcDbEntity
  8
Defpoints
 62
     0
440
 16777216
100
AcDbPoint
 10
28.5512538903745
 20
15.38770569383659
 30
0.0
  0
POINT
  5
A2F
330
93E
100
AcDbEntity
  8
Defpoints
 62
     0
440
 16777216
100
AcDbPoint
 10
28.5512538903745
 20
10.01270569383659
 30
0.0
  0
POINT
  5
A30
330
93E
100
AcDbEntity
  8
Defpoints
 62
     0
440
 16777216
100
AcDbPoint
 10
25.63016327190812
 20
10.01270569383659
 30
0.0
  0
ENDBLK
  5
940
330
93E
100
AcDbEntity
  8
0
100
AcDbBlockEnd
  0
BLOCK
  5
A33
330
A32
100
AcDbEntity
  8
0
100
AcDbBlockBegin
  2
*D11
 70
     1
 10
0.0
 20
0.0
 30
0.0
  3
*D11
  1

  0
LINE
  5
B1B
330
A32
100
AcDbEntity
  8
Dimension (ANSI)
440
 16777216
100
AcDbLine
 10
28.35125389037449
 20
15.38770569383659
 30
0.0
 11
26.73992229071178
 21
15.38770569383659
 31
0.0
  0
LINE
  5
B1C
330
A32
100
AcDbEntity
  8
Dimension (ANSI)
440
 16777216
100
AcDbLine
 10
27.9512538903745
 20
12.70020569383659
 30
0.0
 11
26.73992229071178
 21
12.70020569383659
 31
0.0
  0
LINE
  5
B1D
330
A32
100
AcDbEntity
  8
Dimension (ANSI)
440
 16777216
100
AcDbLine
 10
27.13992229071178
 20
15.07274507104912
 30
0.0
 11
27.13992229071178
 21
14.38855262285396
 31
0.0
  0
LINE
  5
B1E
330
A32
100
AcDbEntity
  8
Dimension (ANSI)
440
 16777216
100
AcDbLine
 10
27.13992229071178
 20
13.01516631662407
 30
0.0
 11
27.13992229071178
 21
13.69935876481922
 31
0.0
  0
SOLID
  5
B1F
330
A32
100
AcDbEntity
  8
Dimension (ANSI)
440
 16777216
100
AcDbTrace
 10
27.08742885358053
 20
15.07274507104912
 30
0.0
 11
27.19241572784302
 21
15.07274507104912
 31
0.0
 12
27.13992229071178
 22
15.38770569383659
 32
0.0
 13
27.13992229071178
 23
15.38770569383659
 33
0.0
  0
SOLID
  5
B20
330
A32
100
AcDbEntity
  8
Dimension (ANSI)
440
 16777216
100
AcDbTrace
 10
27.08742885358053
 20
13.01516631662407
 30
0.0
 11
27.19241572784302
 21
13.01516631662407
 31
0.0
 12
27.13992229071178
 22
12.70020569383659
 32
0.0
 13
27.13992229071178
 23
12.70020569383659
 33
0.0
  0
MTEXT
  5
B21
330
A32
100
AcDbEntity
  8
Dimension (ANSI)
440
 16777216
100
AcDbMText
 10
26.45420799477955
 20
14.28776522127916
 30
0.0
 40
0.3200000047683716
 41
0.0
 46
0.0
 71
     1
 72
     1
  1
\A1;(2.69)
  7
ROMANS
 73
     1
 44
1.0
  0
POINT
  5
B22
330
A32
100
AcDbEntity
  8
Defpoints
 62
     0
440
 16777216
100
AcDbPoint
 10
28.5512538903745
 20
15.38770569383659
 30
0.0
  0
POINT
  5
B23
330
A32
100
AcDbEntity
  8
Defpoints
 62
     0
440
 16777216
100
AcDbPoint
 10
28.15125389037449
 20
12.70020569383659
 30
0.0
  0
POINT
  5
B24
330
A32
100
AcDbEntity
  8
Defpoints
 62
     0
440
 16777216
100
AcDbPoint
 10
27.13992229071178
 20
12.70020569383659
 30
0.0
  0
ENDBLK
  5
A34
330
A32
100
AcDbEntity
  8
0
100
AcDbBlockEnd
  0
BLOCK
  5
B2A
330
B29
100
AcDbEntity
  8
0
100
AcDbBlockBegin
  2
*D12
 70
     1
 10
0.0
 20
0.0
 30
0.0
  3
*D12
  1

  0
LINE
  5
C08
330
B29
100
AcDbEntity
  8
Dimension (ANSI)
440
 16777216
100
AcDbLine
 10
7.653321531892404
 20
10.7002056938366
 30
0.0
 11
4.41786050536509
 21
10.7002056938366
 31
0.0
  0
LINE
  5
C09
330
B29
100
AcDbEntity
  8
Dimension (ANSI)
440
 16777216
100
AcDbLine
 10
9.903321531892371
 20
17.6887056938366
 30
0.0
 11
4.417860505365091
 21
17.6887056938366
 31
0.0
  0
LINE
  5
C0A
330
B29
100
AcDbEntity
  8
Dimension (ANSI)
440
 16777216
100
AcDbLine
 10
4.81786050536509
 20
11.01516631662407
 30
0.0
 11
4.817860505365091
 21
14.9394182898776
 31
0.0
  0
LINE
  5
C0B
330
B29
100
AcDbEntity
  8
Dimension (ANSI)
440
 16777216
100
AcDbLine
 10
4.817860505365091
 20
17.37374507104913
 30
0.0
 11
4.817860505365091
 21
15.46099309779558
 31
0.0
  0
SOLID
  5
C0C
330
B29
100
AcDbEntity
  8
Dimension (ANSI)
440
 16777216
100
AcDbTrace
 10
4.765367068233844
 20
11.01516631662407
 30
0.0
 11
4.870353942496336
 21
11.01516631662407
 31
0.0
 12
4.81786050536509
 22
10.7002056938366
 32
0.0
 13
4.81786050536509
 23
10.7002056938366
 33
0.0
  0
SOLID
  5
C0D
330
B29
100
AcDbEntity
  8
Dimension (ANSI)
440
 16777216
100
AcDbTrace
 10
4.765367068233845
 20
17.37374507104913
 30
0.0
 11
4.870353942496337
 21
17.37374507104913
 31
0.0
 12
4.817860505365091
 22
17.6887056938366
 32
0.0
 13
4.817860505365091
 23
17.6887056938366
 33
0.0
  0
MTEXT
  5
C0E
330
B29
100
AcDbEntity
  8
Dimension (ANSI)
440
 16777216
100
AcDbMText
 10
4.482622405131556
 20
15.36020569622078
 30
0.0
 40
0.3200000047683716
 41
0.0
 46
0.0
 71
     1
 72
     1
  1
\A1;7.0
  7
ROMANS
 73
     1
 44
1.0
  0
POINT
  5
C0F
330
B29
100
AcDbEntity
  8
Defpoints
 62
     0
440
 16777216
100
AcDbPoint
 10
7.853321531892405
 20
10.7002056938366
 30
0.0
  0
POINT
  5
C10
330
B29
100
AcDbEntity
  8
Defpoints
 62
     0
440
 16777216
100
AcDbPoint
 10
10.10332153189237
 20
17.6887056938366
 30
0.0
  0
POINT
  5
C11
330
B29
100
AcDbEntity
  8
Defpoints
 62
     0
440
 16777216
100
AcDbPoint
 10
4.817860505365091
 20
17.6887056938366
 30
0.0
  0
ENDBLK
  5
B2B
330
B29
100
AcDbEntity
  8
0
100
AcDbBlockEnd
  0
BLOCK
  5
C14
330
C13
100
AcDbEntity
  8
0
100
AcDbBlockBegin
  2
*D13
 70
     1
 10
0.0
 20
0.0
 30
0.0
  3
*D13
  1

  0
LINE
  5
CF2
330
C13
100
AcDbEntity
  8
Dimension (ANSI)
440
 16777216
100
AcDbLine
 10
10.79082153189237
 20
17.76370569383659
 30
0.0
 11
10.79082153189237
 21
19.7478326047862
 31
0.0
  0
LINE
  5
CF3
330
C13
100
AcDbEntity
  8
Dimension (ANSI)
440
 16777216
100
AcDbLine
 10
12.79082153189241
 20
18.5116000382661
 30
0.0
 11
12.79082153189241
 21
19.7478326047862
 31
0.0
  0
LINE
  5
CF4
330
C13
100
AcDbEntity
  8
Dimension (ANSI)
440
 16777216
100
AcDbLine
 10
10.47586090910489
 20
19.3478326047862
 30
0.0
 11
10.16090028631742
 21
19.3478326047862
 31
0.0
  0
LINE
  5
CF5
330
C13
100
AcDbEntity
  8
Dimension (ANSI)
440
 16777216
100
AcDbLine
 10
13.10578215467988
 20
19.3478326047862
 30
0.0
 11
13.42074277746736
 21
19.3478326047862
 31
0.0
  0
SOLID
  5
CF6
330
C13
100
AcDbEntity
  8
Dimension (ANSI)
440
 16777216
100
AcDbTrace
 10
10.47586090910489
 20
19.40032604191745
 30
0.0
 11
10.47586090910489
 21
19.29533916765496
 31
0.0
 12
10.79082153189237
 22
19.3478326047862
 32
0.0
 13
10.79082153189237
 23
19.3478326047862
 33
0.0
  0
SOLID
  5
CF7
330
C13
100
AcDbEntity
  8
Dimension (ANSI)
440
 16777216
100
AcDbTrace
 10
13.10578215467988
 20
19.40032604191745
 30
0.0
 11
13.10578215467988
 21
19.29533916765496
 31
0.0
 12
12.79082153189241
 22
19.3478326047862
 32
0.0
 13
12.79082153189241
 23
19.3478326047862
 33
0.0
  0
MTEXT
  5
CF8
330
C13
100
AcDbEntity
  8
Dimension (ANSI)
440
 16777216
100
AcDbMText
 10
11.30320247700725
 20
19.50783260717039
 30
0.0
 40
0.3200000047683716
 41
0.0
 46
0.0
 71
     1
 72
     1
  1
\A1;2.00
  7
ROMANS
 73
     1
 44
1.0
  0
POINT
  5
CF9
330
C13
100
AcDbEntity
  8
Defpoints
 62
     0
440
 16777216
100
AcDbPoint
 10
10.79082153189237
 20
17.56370569383659
 30
0.0
  0
POINT
  5
CFA
330
C13
100
AcDbEntity
  8
Defpoints
 62
     0
440
 16777216
100
AcDbPoint
 10
12.79082153189241
 20
18.3116000382661
 30
0.0
  0
POINT
  5
CFB
330
C13
100
AcDbEntity
  8
Defpoints
 62
     0
440
 16777216
100
AcDbPoint
 10
12.79082153189241
 20
19.3478326047862
 30
0.0
  0
ENDBLK
  5
C15
330
C13
100
AcDbEntity
  8
0
100
AcDbBlockEnd
  0
BLOCK
  5
CFE
330
CFD
100
AcDbEntity
  8
0
100
AcDbBlockBegin
  2
*D14
 70
     1
 10
0.0
 20
0.0
 30
0.0
  3
*D14
  1

  0
LINE
  5
DDC
330
CFD
100
AcDbEntity
  8
Dimension (ANSI)
440
 16777216
100
AcDbLine
 10
10.79082153189236
 20
17.83191752310607
 30
0.0
 11
10.79082153189236
 21
20.67495512577791
 31
0.0
  0
LINE
  5
DDD
330
CFD
100
AcDbEntity
  8
Dimension (ANSI)
440
 16777216
100
AcDbLine
 10
14.79082153189245
 20
17.83191752310611
 30
0.0
 11
14.79082153189245
 21
20.67495512577791
 31
0.0
  0
LINE
  5
DDE
330
CFD
100
AcDbEntity
  8
Dimension (ANSI)
440
 16777216
100
AcDbLine
 10
11.10578215467984
 20
20.27495512577791
 30
0.0
 11
12.09957277178437
 21
20.27495512577791
 31
0.0
  0
LINE
  5
DDF
330
CFD
100
AcDbEntity
  8
Dimension (ANSI)
440
 16777216
100
AcDbLine
 10
14.47586090910497
 20
20.27495512577791
 30
0.0
 11
13.27638568470425
 21
20.27495512577791
 31
0.0
  0
SOLID
  5
DE0
330
CFD
100
AcDbEntity
  8
Dimension (ANSI)
440
 16777216
100
AcDbTrace
 10
11.10578215467984
 20
20.32744856290916
 30
0.0
 11
11.10578215467984
 21
20.22246168864667
 31
0.0
 12
10.79082153189236
 22
20.27495512577791
 32
0.0
 13
10.79082153189236
 23
20.27495512577791
 33
0.0
  0
SOLID
  5
DE1
330
CFD
100
AcDbEntity
  8
Dimension (ANSI)
440
 16777216
100
AcDbTrace
 10
14.47586090910497
 20
20.32744856290916
 30
0.0
 11
14.47586090910497
 21
20.22246168864667
 31
0.0
 12
14.79082153189245
 22
20.27495512577791
 32
0.0
 13
14.79082153189245
 23
20.27495512577791
 33
0.0
  0
MTEXT
  5
DE2
330
CFD
100
AcDbEntity
  8
Dimension (ANSI)
440
 16777216
100
AcDbMText
 10
12.20036017335918
 20
20.4349551281621
 30
0.0
 40
0.3200000047683716
 41
0.0
 46
0.0
 71
     1
 72
     1
  1
\A1;4.00
  7
ROMANS
 73
     1
 44
1.0
  0
POINT
  5
DE3
330
CFD
100
AcDbEntity
  8
Defpoints
 62
     0
440
 16777216
100
AcDbPoint
 10
10.79082153189236
 20
17.63191752310607
 30
0.0
  0
POINT
  5
DE4
330
CFD
100
AcDbEntity
  8
Defpoints
 62
     0
440
 16777216
100
AcDbPoint
 10
14.79082153189245
 20
17.63191752310611
 30
0.0
  0
POINT
  5
DE5
330
CFD
100
AcDbEntity
  8
Defpoints
 62
     0
440
 16777216
100
AcDbPoint
 10
14.79082153189245
 20
20.27495512577791
 30
0.0
  0
ENDBLK
  5
CFF
330
CFD
100
AcDbEntity
  8
0
100
AcDbBlockEnd
  0
BLOCK
  5
DE8
330
DE7
100
AcDbEntity
  8
0
100
AcDbBlockBegin
  2
*D15
 70
     1
 10
0.0
 20
0.0
 30
0.0
  3
*D15
  1

  0
LINE
  5
ED0
330
DE7
100
AcDbEntity
  8
Dimension (ANSI)
440
 16777216
100
AcDbLine
 10
20.48375871108459
 20
12.70020569383659
 30
0.0
 11
21.62553631415418
 21
12.70020569383659
 31
0.0
  0
LINE
  5
ED1
330
DE7
100
AcDbEntity
  8
Dimension (ANSI)
440
 16777216
100
AcDbLine
 10
15.67832153189233
 20
17.6887056938366
 30
0.0
 11
21.62553631415419
 21
17.6887056938366
 31
0.0
  0
LINE
  5
ED2
330
DE7
100
AcDbEntity
  8
Dimension (ANSI)
440
 16777216
100
AcDbLine
 10
21.22553631415418
 20
13.01516631662406
 30
0.0
 11
21.22553631415418
 21
15.35560876481921
 31
0.0
  0
LINE
  5
ED3
330
DE7
100
AcDbEntity
  8
Dimension (ANSI)
440
 16777216
100
AcDbLine
 10
21.22553631415418
 20
17.37374507104912
 30
0.0
 11
21.22553631415418
 21
16.04480262285396
 31
0.0
  0
SOLID
  5
ED4
330
DE7
100
AcDbEntity
  8
Dimension (ANSI)
440
 16777216
100
AcDbTrace
 10
21.17304287702294
 20
13.01516631662406
 30
0.0
 11
21.27802975128543
 21
13.01516631662406
 31
0.0
 12
21.22553631415418
 22
12.70020569383659
 32
0.0
 13
21.22553631415418
 23
12.70020569383659
 33
0.0
  0
SOLID
  5
ED5
330
DE7
100
AcDbEntity
  8
Dimension (ANSI)
440
 16777216
100
AcDbTrace
 10
21.17304287702294
 20
17.37374507104912
 30
0.0
 11
21.27802975128543
 21
17.37374507104912
 31
0.0
 12
21.22553631415418
 22
17.6887056938366
 32
0.0
 13
21.22553631415418
 23
17.6887056938366
 33
0.0
  0
MTEXT
  5
ED6
330
DE7
100
AcDbEntity
  8
Dimension (ANSI)
440
 16777216
100
AcDbMText
 10
20.69220297287356
 20
15.94401522127916
 30
0.0
 40
0.3200000047683716
 41
0.0
 46
0.0
 71
     1
 72
     1
  1
\A1;(5.0)
  7
ROMANS
 73
     1
 44
1.0
  0
POINT
  5
ED7
330
DE7
100
AcDbEntity
  8
Defpoints
 62
     0
440
 16777216
100
AcDbPoint
 10
20.28375871108459
 20
12.70020569383659
 30
0.0
  0
POINT
  5
ED8
330
DE7
100
AcDbEntity
  8
Defpoints
 62
     0
440
 16777216
100
AcDbPoint
 10
15.47832153189233
 20
17.6887056938366
 30
0.0
  0
POINT
  5
ED9
330
DE7
100
AcDbEntity
  8
Defpoints
 62
     0
440
 16777216
100
AcDbPoint
 10
21.22553631415418
 20
17.6887056938366
 30
0.0
  0
ENDBLK
  5
DE9
330
DE7
100
AcDbEntity
  8
0
100
AcDbBlockEnd
  0
BLOCK
  5
EDC
330
EDB
100
AcDbEntity
  8
0
100
AcDbBlockBegin
  2
*D16
 70
     1
 10
0.0
 20
0.0
 30
0.0
  3
*D16
  1

  0
LINE
  5
FBA
330
EDB
100
AcDbEntity
  8
Dimension (ANSI)
440
 16777216
100
AcDbLine
 10
7.915821531892405
 20
9.812705693836599
 30
0.0
 11
7.915821531892405
 21
8.142293484030398
 31
0.0
  0
LINE
  5
FBB
330
EDB
100
AcDbEntity
  8
Dimension (ANSI)
440
 16777216
100
AcDbLine
 10
12.7908215318924
 20
9.787705693836594
 30
0.0
 11
12.7908215318924
 21
8.142293484030398
 31
0.0
  0
LINE
  5
FBC
330
EDB
100
AcDbEntity
  8
Dimension (ANSI)
440
 16777216
100
AcDbLine
 10
8.23078215467988
 20
8.542293484030398
 30
0.0
 11
9.764915075432464
 21
8.542293484030398
 31
0.0
  0
LINE
  5
FBD
330
EDB
100
AcDbEntity
  8
Dimension (ANSI)
440
 16777216
100
AcDbLine
 10
12.47586090910492
 20
8.542293484030398
 30
0.0
 11
10.94172798835234
 21
8.542293484030398
 31
0.0
  0
SOLID
  5
FBE
330
EDB
100
AcDbEntity
  8
Dimension (ANSI)
440
 16777216
100
AcDbTrace
 10
8.23078215467988
 20
8.594786921161643
 30
0.0
 11
8.23078215467988
 21
8.489800046899153
 31
0.0
 12
7.915821531892405
 22
8.542293484030398
 32
0.0
 13
7.915821531892405
 23
8.542293484030398
 33
0.0
  0
SOLID
  5
FBF
330
EDB
100
AcDbEntity
  8
Dimension (ANSI)
440
 16777216
100
AcDbTrace
 10
12.47586090910492
 20
8.594786921161643
 30
0.0
 11
12.47586090910492
 21
8.489800046899153
 31
0.0
 12
12.7908215318924
 22
8.542293484030398
 32
0.0
 13
12.7908215318924
 23
8.542293484030398
 33
0.0
  0
MTEXT
  5
FC0
330
EDB
100
AcDbEntity
  8
Dimension (ANSI)
440
 16777216
100
AcDbMText
 10
9.865702477007266
 20
8.702293486414584
 30
0.0
 40
0.3200000047683716
 41
0.0
 46
0.0
 71
     1
 72
     1
  1
\A1;4.88
  7
ROMANS
 73
     1
 44
1.0
  0
POINT
  5
FC1
330
EDB
100
AcDbEntity
  8
Defpoints
 62
     0
440
 16777216
100
AcDbPoint
 10
7.915821531892405
 20
10.0127056938366
 30
0.0
  0
POINT
  5
FC2
330
EDB
100
AcDbEntity
  8
Defpoints
 62
     0
440
 16777216
100
AcDbPoint
 10
12.7908215318924
 20
9.987705693836593
 30
0.0
  0
POINT
  5
FC3
330
EDB
100
AcDbEntity
  8
Defpoints
 62
     0
440
 16777216
100
AcDbPoint
 10
12.7908215318924
 20
8.542293484030398
 30
0.0
  0
ENDBLK
  5
EDD
330
EDB
100
AcDbEntity
  8
0
100
AcDbBlockEnd
  0
BLOCK
  5
FC6
330
FC5
100
AcDbEntity
  8
0
100
AcDbBlockBegin
  2
*D17
 70
     1
 10
0.0
 20
0.0
 30
0.0
  3
*D17
  1

  0
LINE
  5
10A4
330
FC5
100
AcDbEntity
  8
Dimension (ANSI)
440
 16777216
100
AcDbLine
 10
7.790821531892405
 20
9.812705693836599
 30
0.0
 11
7.790821531892405
 21
6.353048784800247
 31
0.0
  0
LINE
  5
10A5
330
FC5
100
AcDbEntity
  8
Dimension (ANSI)
440
 16777216
100
AcDbLine
 10
17.7908215318924
 20
10.18770569383659
 30
0.0
 11
17.7908215318924
 21
6.353048784800247
 31
0.0
  0
LINE
  5
10A6
330
FC5
100
AcDbEntity
  8
Dimension (ANSI)
440
 16777216
100
AcDbLine
 10
8.10578215467988
 20
6.753048784800247
 30
0.0
 11
12.2252722186302
 21
6.753048784800247
 31
0.0
  0
LINE
  5
10A7
330
FC5
100
AcDbEntity
  8
Dimension (ANSI)
440
 16777216
100
AcDbLine
 10
17.47586090910493
 20
6.753048784800247
 30
0.0
 11
13.3563708451546
 21
6.753048784800247
 31
0.0
  0
SOLID
  5
10A8
330
FC5
100
AcDbEntity
  8
Dimension (ANSI)
440
 16777216
100
AcDbTrace
 10
8.10578215467988
 20
6.805542221931493
 30
0.0
 11
8.10578215467988
 21
6.700555347669001
 31
0.0
 12
7.790821531892405
 22
6.753048784800247
 32
0.0
 13
7.790821531892405
 23
6.753048784800247
 33
0.0
  0
SOLID
  5
10A9
330
FC5
100
AcDbEntity
  8
Dimension (ANSI)
440
 16777216
100
AcDbTrace
 10
17.47586090910493
 20
6.805542221931493
 30
0.0
 11
17.47586090910493
 21
6.700555347669001
 31
0.0
 12
17.7908215318924
 22
6.753048784800247
 32
0.0
 13
17.7908215318924
 23
6.753048784800247
 33
0.0
  0
MTEXT
  5
10AA
330
FC5
100
AcDbEntity
  8
Dimension (ANSI)
440
 16777216
100
AcDbMText
 10
12.326059620205
 20
6.913048787184433
 30
0.0
 40
0.3200000047683716
 41
0.0
 46
0.0
 71
     1
 72
     1
  1
\A1;10.0
  7
ROMANS
 73
     1
 44
1.0
  0
POINT
  5
10AB
330
FC5
100
AcDbEntity
  8
Defpoints
 62
     0
440
 16777216
100
AcDbPoint
 10
7.790821531892405
 20
10.0127056938366
 30
0.0
  0
POINT
  5
10AC
330
FC5
100
AcDbEntity
  8
Defpoints
 62
     0
440
 16777216
100
AcDbPoint
 10
17.7908215318924
 20
10.38770569383659
 30
0.0
  0
POINT
  5
10AD
330
FC5
100
AcDbEntity
  8
Defpoints
 62
     0
440
 16777216
100
AcDbPoint
 10
17.7908215318924
 20
6.753048784800247
 30
0.0
  0
ENDBLK
  5
FC7
330
FC5
100
AcDbEntity
  8
0
100
AcDbBlockEnd
  0
BLOCK
  5
10B0
330
10AF
100
AcDbEntity
  8
0
100
AcDbBlockBegin
  2
*D18
 70
     1
 10
0.0
 20
0.0
 30
0.0
  3
*D18
  1

  0
LINE
  5
118E
330
10AF
100
AcDbEntity
  8
Dimension (ANSI)
440
 16777216
100
AcDbLine
 10
7.915821531892405
 20
9.812705693836599
 30
0.0
 11
7.915821531892405
 21
7.216844031105802
 31
0.0
  0
LINE
  5
118F
330
10AF
100
AcDbEntity
  8
Dimension (ANSI)
440
 16777216
100
AcDbLine
 10
17.6658215318924
 20
9.812705693836587
 30
0.0
 11
17.6658215318924
 21
7.216844031105802
 31
0.0
  0
LINE
  5
1190
330
10AF
100
AcDbEntity
  8
Dimension (ANSI)
440
 16777216
100
AcDbLine
 10
8.23078215467988
 20
7.616844031105802
 30
0.0
 11
12.20241507543246
 21
7.616844031105802
 31
0.0
  0
LINE
  5
1191
330
10AF
100
AcDbEntity
  8
Dimension (ANSI)
440
 16777216
100
AcDbLine
 10
17.35086090910493
 20
7.616844031105802
 30
0.0
 11
13.37922798835234
 21
7.616844031105802
 31
0.0
  0
SOLID
  5
1192
330
10AF
100
AcDbEntity
  8
Dimension (ANSI)
440
 16777216
100
AcDbTrace
 10
8.23078215467988
 20
7.669337468237048
 30
0.0
 11
8.23078215467988
 21
7.564350593974556
 31
0.0
 12
7.915821531892405
 22
7.616844031105802
 32
0.0
 13
7.915821531892405
 23
7.616844031105802
 33
0.0
  0
SOLID
  5
1193
330
10AF
100
AcDbEntity
  8
Dimension (ANSI)
440
 16777216
100
AcDbTrace
 10
17.35086090910493
 20
7.669337468237048
 30
0.0
 11
17.35086090910493
 21
7.564350593974556
 31
0.0
 12
17.6658215318924
 22
7.616844031105802
 32
0.0
 13
17.6658215318924
 23
7.616844031105802
 33
0.0
  0
MTEXT
  5
1194
330
10AF
100
AcDbEntity
  8
Dimension (ANSI)
440
 16777216
100
AcDbMText
 10
12.30320247700726
 20
7.776844033489988
 30
0.0
 40
0.3200000047683716
 41
0.0
 46
0.0
 71
     1
 72
     1
  1
\A1;9.75
  7
ROMANS
 73
     1
 44
1.0
  0
POINT
  5
1195
330
10AF
100
AcDbEntity
  8
Defpoints
 62
     0
440
 16777216
100
AcDbPoint
 10
7.915821531892405
 20
10.0127056938366
 30
0.0
  0
POINT
  5
1196
330
10AF
100
AcDbEntity
  8
Defpoints
 62
     0
440
 16777216
100
AcDbPoint
 10
17.6658215318924
 20
10.01270569383658
 30
0.0
  0
POINT
  5
1197
330
10AF
100
AcDbEntity
  8
Defpoints
 62
     0
440
 16777216
100
AcDbPoint
 10
17.6658215318924
 20
7.616844031105802
 30
0.0
  0
ENDBLK
  5
10B1
330
10AF
100
AcDbEntity
  8
0
100
AcDbBlockEnd
  0
ENDSEC
  0
SECTION
  2
ENTITIES
  0
LINE
  5
107
330
6C
100
AcDbEntity
  8
Visible (ANSI)
100
AcDbLine
 10
10.8648215318924
 20
17.18870569383659
 30
0.0
 11
10.8648215318924
 21
17.56370569383659
 31
0.0
  0
LINE
  5
108
330
6C
100
AcDbEntity
  8
Visible (ANSI)
100
AcDbLine
 10
8.290821531892405
 20
14.62620569383659
 30
0.0
 11
10.8648215318924
 21
17.18870569383659
 31
0.0
  0
LINE
  5
109
330
6C
100
AcDbEntity
  8
Visible (ANSI)
100
AcDbLine
 10
7.915821531892406
 20
14.6262056938366
 30
0.0
 11
8.290821531892405
 21
14.62620569383659
 31
0.0
  0
LINE
  5
10A
330
6C
100
AcDbEntity
  8
Visible (ANSI)
100
AcDbLine
 10
17.2908215318924
 20
14.62620569383659
 30
0.0
 11
17.6658215318924
 21
14.62620569383659
 31
0.0
  0
LINE
  5
10B
330
6C
100
AcDbEntity
  8
Visible (ANSI)
100
AcDbLine
 10
14.71682153189241
 20
17.18870569383659
 30
0.0
 11
17.2908215318924
 21
14.62620569383659
 31
0.0
  0
LINE
  5
10C
330
6C
100
AcDbEntity
  8
Visible (ANSI)
100
AcDbLine
 10
14.71682153189241
 20
17.5637056938366
 30
0.0
 11
14.71682153189241
 21
17.18870569383659
 31
0.0
  0
LINE
  5
10D
330
6C
100
AcDbEntity
  8
Visible Narrow (ANSI)
100
AcDbLine
 10
7.915821531892405
 20
10.8054556938366
 30
0.0
 11
17.6658215318924
 21
10.80545569383659
 31
0.0
  0
LINE
  5
10E
330
6C
100
AcDbEntity
  8
Visible (ANSI)
100
AcDbLine
 10
17.6658215318924
 20
10.70020569383659
 30
0.0
 11
7.915821531892405
 21
10.7002056938366
 31
0.0
  0
ARC
  5
10F
330
6C
100
AcDbEntity
  8
Visible (ANSI)
100
AcDbCircle
 10
14.82207153189244
 20
17.23801350054588
 30
0.0
 40
0.1052499999999988
100
AcDbArc
 50
180.0
 51
225.0
  0
LINE
  5
110
330
6C
100
AcDbEntity
  8
Visible Narrow (ANSI)
100
AcDbLine
 10
14.71682153189244
 20
17.23801350054588
 30
0.0
 11
14.79082153189245
 21
17.23801350054588
 31
0.0
  0
LINE
  5
111
330
6C
100
AcDbEntity
  8
Visible Narrow (ANSI)
100
AcDbLine
 10
14.79997444498036
 20
17.2159164136338
 30
0.0
 11
14.74764854317256
 21
17.163590511826
 31
0.0
  0
ARC
  5
112
330
6C
100
AcDbEntity
  8
Visible (ANSI)
100
AcDbCircle
 10
14.82207153189245
 20
17.23801350054588
 30
0.0
 40
0.0312499999999998
100
AcDbArc
 50
180.0
 51
225.0
  0
ARC
  5
113
330
6C
100
AcDbEntity
  8
Visible (ANSI)
100
AcDbCircle
 10
17.32862933860174
 20
14.73145569383655
 30
0.0
 40
0.1052500000000013
100
AcDbArc
 50
240.947825503557
 51
270.0000000000012
  0
LINE
  5
114
330
6C
100
AcDbEntity
  8
Visible Narrow (ANSI)
100
AcDbLine
 10
17.32862933860174
 20
14.70020569383655
 30
0.0
 11
17.32862933860174
 21
14.62620569383655
 31
0.0
  0
ARC
  5
115
330
6C
100
AcDbEntity
  8
Visible (ANSI)
100
AcDbCircle
 10
17.32862933860174
 20
14.73145569383655
 30
0.0
 40
0.03125
100
AcDbArc
 50
225.0000000000058
 51
270.0
  0
LINE
  5
116
330
6C
100
AcDbEntity
  8
Visible Narrow (ANSI)
100
AcDbLine
 10
17.25702493780498
 20
14.65985129303979
 30
0.0
 11
17.30653225168966
 21
14.70935860692448
 31
0.0
  0
LINE
  5
117
330
6C
100
AcDbEntity
  8
Visible (ANSI)
100
AcDbLine
 10
14.79082153189245
 20
17.5637056938366
 30
0.0
 11
14.79082153189245
 21
17.23801350054588
 31
0.0
  0
LINE
  5
118
330
6C
100
AcDbEntity
  8
Visible (ANSI)
100
AcDbLine
 10
17.6658215318924
 20
14.70020569383655
 30
0.0
 11
17.32862933860174
 21
14.70020569383655
 31
0.0
  0
LINE
  5
119
330
6C
100
AcDbEntity
  8
Visible (ANSI)
100
AcDbLine
 10
15.995277926658
 20
15.91596112834054
 30
0.0
 11
14.74764854317256
 21
17.163590511826
 31
0.0
  0
LINE
  5
11A
330
6C
100
AcDbEntity
  8
Visible (ANSI)
100
AcDbLine
 10
17.30653225168966
 20
14.70935860692448
 30
0.0
 11
14.79997444498036
 21
17.2159164136338
 31
0.0
  0
ARC
  5
11B
330
6C
100
AcDbEntity
  8
Visible (ANSI)
100
AcDbCircle
 10
8.25301372518307
 20
14.73145569383652
 30
0.0
 40
0.1052499999999986
100
AcDbArc
 50
270.0
 51
299.0521744964
  0
LINE
  5
11C
330
6C
100
AcDbEntity
  8
Visible Narrow (ANSI)
100
AcDbLine
 10
8.25301372518307
 20
14.62620569383652
 30
0.0
 11
8.253013725183068
 21
14.70020569383652
 31
0.0
  0
LINE
  5
11D
330
6C
100
AcDbEntity
  8
Visible Narrow (ANSI)
100
AcDbLine
 10
8.275110812095148
 20
14.70935860692444
 30
0.0
 11
8.324618125979812
 21
14.65985129303977
 31
0.0
  0
ARC
  5
11E
330
6C
100
AcDbEntity
  8
Visible (ANSI)
100
AcDbCircle
 10
8.253013725183068
 20
14.73145569383652
 30
0.0
 40
0.0312499999999999
100
AcDbArc
 50
270.0
 51
314.9999999999985
  0
ARC
  5
11F
330
6C
100
AcDbEntity
  8
Visible (ANSI)
100
AcDbCircle
 10
10.75957153189237
 20
17.23801350054584
 30
0.0
 40
0.1052500000000013
100
AcDbArc
 50
315.0000000000017
 51
0.0
  0
LINE
  5
120
330
6C
100
AcDbEntity
  8
Visible Narrow (ANSI)
100
AcDbLine
 10
10.79082153189237
 20
17.23801350054584
 30
0.0
 11
10.86482153189237
 21
17.23801350054584
 31
0.0
  0
ARC
  5
121
330
6C
100
AcDbEntity
  8
Visible (ANSI)
100
AcDbCircle
 10
10.75957153189237
 20
17.23801350054584
 30
0.0
 40
0.0312500000000001
100
AcDbArc
 50
315.0000000000029
 51
0.0
  0
LINE
  5
122
330
6C
100
AcDbEntity
  8
Visible Narrow (ANSI)
100
AcDbLine
 10
10.83399452061225
 20
17.16359051182596
 30
0.0
 11
10.78166861880445
 21
17.21591641363376
 31
0.0
  0
LINE
  5
123
330
6C
100
AcDbEntity
  8
Visible (ANSI)
100
AcDbLine
 10
7.915821531892403
 20
14.70020569383652
 30
0.0
 11
8.253013725183068
 21
14.70020569383652
 31
0.0
  0
LINE
  5
124
330
6C
100
AcDbEntity
  8
Visible (ANSI)
100
AcDbLine
 10
10.79082153189236
 20
17.5637056938366
 30
0.0
 11
10.79082153189237
 21
17.23801350054584
 31
0.0
  0
LINE
  5
125
330
6C
100
AcDbEntity
  8
Visible (ANSI)
100
AcDbLine
 10
10.83399452061225
 20
17.16359051182596
 30
0.0
 11
9.586365137135571
 21
15.91596112834926
 31
0.0
  0
LINE
  5
126
330
6C
100
AcDbEntity
  8
Visible (ANSI)
100
AcDbLine
 10
10.78166861880445
 20
17.21591641363376
 30
0.0
 11
8.275110812095148
 21
14.70935860692444
 31
0.0
  0
LINE
  5
127
330
6C
100
AcDbEntity
  8
Visible (ANSI)
100
AcDbLine
 10
10.47832153189237
 20
17.5637056938366
 30
0.0
 11
10.10332153189237
 21
17.5637056938366
 31
0.0
  0
LINE
  5
128
330
6C
100
AcDbEntity
  8
Visible Narrow (ANSI)
100
AcDbLine
 10
10.47832153189236
 20
17.6887056938366
 30
0.0
 11
10.47832153189236
 21
17.5637056938366
 31
0.0
  0
LINE
  5
129
330
6C
100
AcDbEntity
  8
Visible (ANSI)
100
AcDbLine
 10
10.10332153189237
 20
17.6887056938366
 30
0.0
 11
10.47832153189237
 21
17.6887056938366
 31
0.0
  0
LINE
  5
12A
330
6C
100
AcDbEntity
  8
Visible (ANSI)
100
AcDbLine
 10
10.10332153189237
 20
17.6887056938366
 30
0.0
 11
10.10332153189237
 21
17.5637056938366
 31
0.0
  0
LINE
  5
12B
330
6C
100
AcDbEntity
  8
Visible (ANSI)
100
AcDbLine
 10
10.47832153189236
 20
17.5637056938366
 30
0.0
 11
15.10332153189233
 21
17.5637056938366
 31
0.0
  0
LINE
  5
12C
330
6C
100
AcDbEntity
  8
Visible Narrow (ANSI)
100
AcDbLine
 10
15.10332153189233
 20
17.6887056938366
 30
0.0
 11
15.10332153189233
 21
17.5637056938366
 31
0.0
  0
LINE
  5
12D
330
6C
100
AcDbEntity
  8
Visible (ANSI)
100
AcDbLine
 10
15.10332153189233
 20
17.6887056938366
 30
0.0
 11
10.47832153189236
 21
17.6887056938366
 31
0.0
  0
LINE
  5
12E
330
6C
100
AcDbEntity
  8
Visible (ANSI)
100
AcDbLine
 10
15.47832153189233
 20
17.5637056938366
 30
0.0
 11
15.10332153189233
 21
17.5637056938366
 31
0.0
  0
LINE
  5
12F
330
6C
100
AcDbEntity
  8
Visible (ANSI)
100
AcDbLine
 10
15.47832153189233
 20
17.6887056938366
 30
0.0
 11
15.47832153189233
 21
17.5637056938366
 31
0.0
  0
LINE
  5
130
330
6C
100
AcDbEntity
  8
Visible (ANSI)
100
AcDbLine
 10
15.10332153189233
 20
17.6887056938366
 30
0.0
 11
15.47832153189233
 21
17.6887056938366
 31
0.0
  0
LINE
  5
131
330
6C
100
AcDbEntity
  8
Visible (ANSI)
100
AcDbLine
 10
17.7908215318924
 20
15.38770569383659
 30
0.0
 11
17.6658215318924
 21
15.38770569383659
 31
0.0
  0
LINE
  5
132
330
6C
100
AcDbEntity
  8
Visible (ANSI)
100
AcDbLine
 10
17.6658215318924
 20
15.01270569383659
 30
0.0
 11
17.6658215318924
 21
15.38770569383659
 31
0.0
  0
LINE
  5
133
330
6C
100
AcDbEntity
  8
Visible Narrow (ANSI)
100
AcDbLine
 10
17.7908215318924
 20
15.01270569383659
 30
0.0
 11
17.6658215318924
 21
15.01270569383659
 31
0.0
  0
LINE
  5
134
330
6C
100
AcDbEntity
  8
Visible (ANSI)
100
AcDbLine
 10
17.7908215318924
 20
15.38770569383659
 30
0.0
 11
17.7908215318924
 21
15.01270569383659
 31
0.0
  0
LINE
  5
135
330
6C
100
AcDbEntity
  8
Visible (ANSI)
100
AcDbLine
 10
17.6658215318924
 20
15.01270569383659
 30
0.0
 11
17.6658215318924
 21
10.38770569383659
 31
0.0
  0
LINE
  5
136
330
6C
100
AcDbEntity
  8
Visible Narrow (ANSI)
100
AcDbLine
 10
17.7908215318924
 20
10.38770569383659
 30
0.0
 11
17.6658215318924
 21
10.38770569383659
 31
0.0
  0
LINE
  5
137
330
6C
100
AcDbEntity
  8
Visible (ANSI)
100
AcDbLine
 10
17.7908215318924
 20
10.38770569383659
 30
0.0
 11
17.7908215318924
 21
15.01270569383659
 31
0.0
  0
LINE
  5
138
330
6C
100
AcDbEntity
  8
Visible (ANSI)
100
AcDbLine
 10
17.6658215318924
 20
10.01270569383659
 30
0.0
 11
17.6658215318924
 21
10.38770569383659
 31
0.0
  0
LINE
  5
139
330
6C
100
AcDbEntity
  8
Visible (ANSI)
100
AcDbLine
 10
17.7908215318924
 20
10.01270569383659
 30
0.0
 11
17.6658215318924
 21
10.01270569383659
 31
0.0
  0
LINE
  5
13A
330
6C
100
AcDbEntity
  8
Visible (ANSI)
100
AcDbLine
 10
17.7908215318924
 20
10.38770569383659
 30
0.0
 11
17.7908215318924
 21
10.01270569383659
 31
0.0
  0
LINE
  5
13B
330
6C
100
AcDbEntity
  8
Visible (ANSI)
100
AcDbLine
 10
7.915821531892407
 20
15.38770569383657
 30
0.0
 11
7.790821531892406
 21
15.38770569383657
 31
0.0
  0
LINE
  5
13C
330
6C
100
AcDbEntity
  8
Visible (ANSI)
100
AcDbLine
 10
7.790821531892406
 20
15.01270569383658
 30
0.0
 11
7.790821531892406
 21
15.38770569383658
 31
0.0
  0
LINE
  5
13D
330
6C
100
AcDbEntity
  8
Visible Narrow (ANSI)
100
AcDbLine
 10
7.915821531892407
 20
15.01270569383658
 30
0.0
 11
7.790821531892406
 21
15.01270569383658
 31
0.0
  0
LINE
  5
13E
330
6C
100
AcDbEntity
  8
Visible (ANSI)
100
AcDbLine
 10
7.915821531892407
 20
15.38770569383657
 30
0.0
 11
7.915821531892407
 21
15.01270569383657
 31
0.0
  0
LINE
  5
13F
330
6C
100
AcDbEntity
  8
Visible (ANSI)
100
AcDbLine
 10
7.790821531892406
 20
15.01270569383658
 30
0.0
 11
7.790821531892405
 21
10.3877056938366
 31
0.0
  0
LINE
  5
140
330
6C
100
AcDbEntity
  8
Visible Narrow (ANSI)
100
AcDbLine
 10
7.915821531892405
 20
10.3877056938366
 30
0.0
 11
7.790821531892405
 21
10.3877056938366
 31
0.0
  0
LINE
  5
141
330
6C
100
AcDbEntity
  8
Visible (ANSI)
100
AcDbLine
 10
7.915821531892405
 20
10.3877056938366
 30
0.0
 11
7.915821531892407
 21
15.01270569383658
 31
0.0
  0
LINE
  5
142
330
6C
100
AcDbEntity
  8
Visible (ANSI)
100
AcDbLine
 10
7.790821531892405
 20
10.0127056938366
 30
0.0
 11
7.790821531892405
 21
10.3877056938366
 31
0.0
  0
LINE
  5
143
330
6C
100
AcDbEntity
  8
Visible (ANSI)
100
AcDbLine
 10
7.915821531892405
 20
10.0127056938366
 30
0.0
 11
7.790821531892405
 21
10.0127056938366
 31
0.0
  0
LINE
  5
144
330
6C
100
AcDbEntity
  8
Visible (ANSI)
100
AcDbLine
 10
7.915821531892405
 20
10.3877056938366
 30
0.0
 11
7.915821531892405
 21
10.0127056938366
 31
0.0
  0
MTEXT
  5
146
330
6C
100
AcDbEntity
  8
Symbol (ANSI)
100
AcDbMText
 10
11.30046741086302
 20
4.575489251172874
 30
0.0
 40
0.3840000047458438
 41
0.0
 46
0.0
 71
     7
 72
     1
  1
FRONT VIEW
  7
Text Style168
 73
     1
 44
1.0
  0
LINE
  5
148
330
6C
100
AcDbEntity
  8
Symbol (ANSI)
370
    30
100
AcDbLine
 10
11.26206731208418
 20
4.497180011573226
 30
0.0
 11
14.34931532579835
 21
4.497180011573226
 31
0.0
  0
LINE
  5
149
330
6C
100
AcDbEntity
  8
Visible (ANSI)
100
AcDbLine
 10
12.69707153189603
 20
26.39092716265666
 30
0.0
 11
12.69707153189603
 21
26.46492716265666
 31
0.0
  0
LINE
  5
14A
330
6C
100
AcDbEntity
  8
Visible (ANSI)
100
AcDbLine
 10
12.69707153189603
 20
26.46492716265664
 30
0.0
 11
12.88457153189603
 21
26.46492716265664
 31
0.0
  0
LINE
  5
14B
330
6C
100
AcDbEntity
  8
Visible (ANSI)
100
AcDbLine
 10
12.88457153189603
 20
26.39092716265664
 30
0.0
 11
12.84919653189598
 21
26.39092716265664
 31
0.0
  0
LINE
  5
14C
330
6C
100
AcDbEntity
  8
Visible (ANSI)
100
AcDbLine
 10
12.73244653189597
 20
26.39092716265664
 30
0.0
 11
12.69707153189603
 21
26.39092716265664
 31
0.0
  0
LINE
  5
14D
330
6C
100
AcDbEntity
  8
Visible (ANSI)
100
AcDbLine
 10
12.88457153189603
 20
26.46492716265666
 30
0.0
 11
12.88457153189603
 21
26.39092716265666
 31
0.0
  0
LINE
  5
14E
330
6C
100
AcDbEntity
  8
Visible (ANSI)
100
AcDbLine
 10
12.69707153189603
 20
26.46492716265666
 30
0.0
 11
10.86482153189603
 21
26.46492716265666
 31
0.0
  0
LINE
  5
14F
330
6C
100
AcDbEntity
  8
Visible (ANSI)
100
AcDbLine
 10
10.86482153189603
 20
26.46492716265666
 30
0.0
 11
10.86482153189603
 21
26.39092716265666
 31
0.0
  0
LINE
  5
150
330
6C
100
AcDbEntity
  8
Visible (ANSI)
100
AcDbLine
 10
10.86482153189603
 20
26.39092716265666
 30
0.0
 11
12.69707153189603
 21
26.39092716265666
 31
0.0
  0
LINE
  5
151
330
6C
100
AcDbEntity
  8
Visible (ANSI)
100
AcDbLine
 10
12.88457153189603
 20
26.39092716265666
 30
0.0
 11
14.71682153189603
 21
26.39092716265666
 31
0.0
  0
LINE
  5
152
330
6C
100
AcDbEntity
  8
Visible (ANSI)
100
AcDbLine
 10
14.71682153189603
 20
26.46492716265666
 30
0.0
 11
14.71682153189603
 21
26.39092716265666
 31
0.0
  0
LINE
  5
153
330
6C
100
AcDbEntity
  8
Visible (ANSI)
100
AcDbLine
 10
14.71682153189603
 20
26.46492716265666
 30
0.0
 11
12.88457153189603
 21
26.46492716265666
 31
0.0
  0
LINE
  5
154
330
6C
100
AcDbEntity
  8
Visible (ANSI)
100
AcDbLine
 10
8.290821531896035
 20
26.39092716265577
 30
0.0
 11
10.10332153189597
 21
26.39092716265631
 31
0.0
  0
LINE
  5
155
330
6C
100
AcDbEntity
  8
Visible (ANSI)
100
AcDbLine
 10
10.83968116711149
 20
26.39092716265652
 30
0.0
 11
10.86482153189603
 21
26.39092716265653
 31
0.0
  0
LINE
  5
156
330
6C
100
AcDbEntity
  8
Visible (ANSI)
100
AcDbLine
 10
7.915821531896035
 20
26.39092716265577
 30
0.0
 11
8.290821531896035
 21
26.39092716265577
 31
0.0
  0
LINE
  5
157
330
6C
100
AcDbEntity
  8
Visible (ANSI)
100
AcDbLine
 10
17.29082153189603
 20
26.39092716265577
 30
0.0
 11
17.66582153189603
 21
26.39092716265577
 31
0.0
  0
LINE
  5
158
330
6C
100
AcDbEntity
  8
Visible (ANSI)
100
AcDbLine
 10
14.71682153189603
 20
26.39092716265653
 30
0.0
 11
14.74196189668046
 21
26.39092716265652
 31
0.0
  0
LINE
  5
159
330
6C
100
AcDbEntity
  8
Visible (ANSI)
100
AcDbLine
 10
15.47832153189598
 20
26.39092716265631
 30
0.0
 11
17.29082153189603
 21
26.39092716265577
 31
0.0
  0
LINE
  5
15A
330
6C
100
AcDbEntity
  8
Visible (ANSI)
100
AcDbLine
 10
17.29082153189603
 20
26.46492716265577
 30
0.0
 11
17.29082153189603
 21
26.39092716265577
 31
0.0
  0
LINE
  5
15B
330
6C
100
AcDbEntity
  8
Visible (ANSI)
100
AcDbLine
 10
8.290821531896035
 20
26.46492716265577
 30
0.0
 11
8.290821531896035
 21
26.39092716265577
 31
0.0
  0
LINE
  5
15C
330
6C
100
AcDbEntity
  8
Visible Narrow (ANSI)
100
AcDbLine
 10
10.86482153189599
 20
26.49617716265463
 30
0.0
 11
14.71682153189608
 21
26.49617716265463
 31
0.0
  0
LINE
  5
15D
330
6C
100
AcDbEntity
  8
Visible (ANSI)
100
AcDbLine
 10
12.69707153189603
 20
30.31692716265666
 30
0.0
 11
12.69707153189603
 21
30.39092716265666
 31
0.0
  0
LINE
  5
15E
330
6C
100
AcDbEntity
  8
Visible (ANSI)
100
AcDbLine
 10
12.69707153189603
 20
30.39092716265664
 30
0.0
 11
12.73244653189598
 21
30.39092716265664
 31
0.0
  0
LINE
  5
15F
330
6C
100
AcDbEntity
  8
Visible (ANSI)
100
AcDbLine
 10
12.84919653189597
 20
30.39092716265664
 30
0.0
 11
12.88457153189603
 21
30.39092716265664
 31
0.0
  0
LINE
  5
160
330
6C
100
AcDbEntity
  8
Visible (ANSI)
100
AcDbLine
 10
12.88457153189603
 20
30.31692716265665
 30
0.0
 11
12.69707153189603
 21
30.31692716265665
 31
0.0
  0
LINE
  5
161
330
6C
100
AcDbEntity
  8
Visible (ANSI)
100
AcDbLine
 10
12.88457153189603
 20
30.39092716265666
 30
0.0
 11
12.88457153189603
 21
30.31692716265666
 31
0.0
  0
LINE
  5
162
330
6C
100
AcDbEntity
  8
Visible (ANSI)
100
AcDbLine
 10
12.88457153189603
 20
30.31692716265666
 30
0.0
 11
14.71682153189603
 21
30.31692716265666
 31
0.0
  0
LINE
  5
163
330
6C
100
AcDbEntity
  8
Visible (ANSI)
100
AcDbLine
 10
14.71682153189603
 20
30.39092716265666
 30
0.0
 11
14.71682153189603
 21
30.31692716265666
 31
0.0
  0
LINE
  5
164
330
6C
100
AcDbEntity
  8
Visible (ANSI)
100
AcDbLine
 10
14.71682153189603
 20
30.39092716265666
 30
0.0
 11
12.88457153189603
 21
30.39092716265666
 31
0.0
  0
LINE
  5
165
330
6C
100
AcDbEntity
  8
Visible (ANSI)
100
AcDbLine
 10
10.86482153189603
 20
30.31692716265666
 30
0.0
 11
12.69707153189603
 21
30.31692716265666
 31
0.0
  0
LINE
  5
166
330
6C
100
AcDbEntity
  8
Visible (ANSI)
100
AcDbLine
 10
17.29082153189603
 20
30.39092716265578
 30
0.0
 11
17.29082153189603
 21
30.31692716265578
 31
0.0
  0
LINE
  5
167
330
6C
100
AcDbEntity
  8
Visible (ANSI)
100
AcDbLine
 10
17.29082153189603
 20
30.39092716265578
 30
0.0
 11
15.47832153189597
 21
30.39092716265631
 31
0.0
  0
LINE
  5
168
330
6C
100
AcDbEntity
  8
Visible (ANSI)
100
AcDbLine
 10
14.74196189668046
 20
30.39092716265653
 30
0.0
 11
14.71682153189603
 21
30.39092716265653
 31
0.0
  0
LINE
  5
169
330
6C
100
AcDbEntity
  8
Visible (ANSI)
100
AcDbLine
 10
17.66582153189603
 20
30.39092716265578
 30
0.0
 11
17.29082153189603
 21
30.39092716265578
 31
0.0
  0
LINE
  5
16A
330
6C
100
AcDbEntity
  8
Visible (ANSI)
100
AcDbLine
 10
8.290821531896032
 20
30.39092716265577
 30
0.0
 11
8.290821531896032
 21
30.31692716265577
 31
0.0
  0
LINE
  5
16B
330
6C
100
AcDbEntity
  8
Visible (ANSI)
100
AcDbLine
 10
8.290821531896032
 20
30.39092716265577
 30
0.0
 11
7.915821531896035
 21
30.39092716265577
 31
0.0
  0
LINE
  5
16C
330
6C
100
AcDbEntity
  8
Visible (ANSI)
100
AcDbLine
 10
10.86482153189603
 20
30.39092716265653
 30
0.0
 11
10.83968116711148
 21
30.39092716265652
 31
0.0
  0
LINE
  5
16D
330
6C
100
AcDbEntity
  8
Visible (ANSI)
100
AcDbLine
 10
10.10332153189597
 20
30.39092716265631
 30
0.0
 11
8.290821531896032
 21
30.39092716265577
 31
0.0
  0
LINE
  5
16E
330
6C
100
AcDbEntity
  8
Visible (ANSI)
100
AcDbLine
 10
10.86482153189603
 20
30.39092716265666
 30
0.0
 11
10.86482153189603
 21
30.31692716265666
 31
0.0
  0
LINE
  5
16F
330
6C
100
AcDbEntity
  8
Visible (ANSI)
100
AcDbLine
 10
12.69707153189603
 20
30.39092716265666
 30
0.0
 11
10.86482153189603
 21
30.39092716265666
 31
0.0
  0
LINE
  5
170
330
6C
100
AcDbEntity
  8
Visible (ANSI)
100
AcDbLine
 10
14.79082153189608
 20
26.46492716265666
 30
0.0
 11
14.71682153189608
 21
26.46492716265666
 31
0.0
  0
LINE
  5
171
330
6C
100
AcDbEntity
  8
Visible (ANSI)
100
AcDbLine
 10
14.79082153189608
 20
30.31692716265666
 30
0.0
 11
14.79082153189608
 21
26.46492716265666
 31
0.0
  0
LINE
  5
172
330
6C
100
AcDbEntity
  8
Visible (ANSI)
100
AcDbLine
 10
14.79082153189608
 20
30.31692716265666
 30
0.0
 11
14.71682153189608
 21
30.31692716265666
 31
0.0
  0
LINE
  5
173
330
6C
100
AcDbEntity
  8
Visible (ANSI)
100
AcDbLine
 10
14.71682153189608
 20
30.31692716265666
 30
0.0
 11
14.71682153189608
 21
26.46492716265666
 31
0.0
  0
LINE
  5
174
330
6C
100
AcDbEntity
  8
Visible (ANSI)
100
AcDbLine
 10
17.66582153189603
 20
30.31692716265579
 30
0.0
 11
17.32862933860537
 21
30.31692716265579
 31
0.0
  0
LINE
  5
175
330
6C
100
AcDbEntity
  8
Visible (ANSI)
100
AcDbLine
 10
17.66582153189603
 20
26.46492716265579
 30
0.0
 11
17.32862933860537
 21
26.46492716265579
 31
0.0
  0
LINE
  5
176
330
6C
100
AcDbEntity
  8
Visible (ANSI)
100
AcDbLine
 10
14.79082153189608
 20
30.31692716265654
 30
0.0
 11
14.799974444984
 21
30.31692716265654
 31
0.0
  0
LINE
  5
177
330
6C
100
AcDbEntity
  8
Visible (ANSI)
100
AcDbLine
 10
14.79082153189608
 20
26.46492716265655
 30
0.0
 11
14.799974444984
 21
26.46492716265654
 31
0.0
  0
LINE
  5
178
330
6C
100
AcDbEntity
  8
Visible Narrow (ANSI)
100
AcDbLine
 10
14.799974444984
 20
30.31692716265654
 30
0.0
 11
14.799974444984
 21
26.46492716265654
 31
0.0
  0
LINE
  5
179
330
6C
100
AcDbEntity
  8
Visible Narrow (ANSI)
100
AcDbLine
 10
17.32862933860537
 20
30.31692716265579
 30
0.0
 11
17.32862933860537
 21
26.46492716265579
 31
0.0
  0
LINE
  5
17A
330
6C
100
AcDbEntity
  8
Visible (ANSI)
100
AcDbLine
 10
17.32862933860537
 20
26.46492716265579
 30
0.0
 11
17.30653225169328
 21
26.4649271626558
 31
0.0
  0
LINE
  5
17B
330
6C
100
AcDbEntity
  8
Visible (ANSI)
100
AcDbLine
 10
17.32862933860537
 20
30.31692716265579
 30
0.0
 11
17.30653225169329
 21
30.3169271626558
 31
0.0
  0
LINE
  5
17C
330
6C
100
AcDbEntity
  8
Visible Narrow (ANSI)
100
AcDbLine
 10
17.30653225169328
 20
26.46492716265579
 30
0.0
 11
17.30653225169329
 21
30.3169271626558
 31
0.0
  0
LINE
  5
17D
330
6C
100
AcDbEntity
  8
Visible (ANSI)
100
AcDbLine
 10
14.799974444984
 20
30.31692716265654
 30
0.0
 11
14.80133652053139
 21
30.31692716265654
 31
0.0
  0
LINE
  5
17E
330
6C
100
AcDbEntity
  8
Visible (ANSI)
100
AcDbLine
 10
15.47832153189598
 20
30.31692716265633
 30
0.0
 11
17.30653225169329
 21
30.3169271626558
 31
0.0
  0
LINE
  5
17F
330
6C
100
AcDbEntity
  8
Visible (ANSI)
100
AcDbLine
 10
17.30653225169328
 20
26.46492716265579
 30
0.0
 11
15.47832153189598
 21
26.46492716265633
 31
0.0
  0
LINE
  5
180
330
6C
100
AcDbEntity
  8
Visible (ANSI)
100
AcDbLine
 10
14.80133652053139
 20
26.46492716265653
 30
0.0
 11
14.799974444984
 21
26.46492716265654
 31
0.0
  0
LINE
  5
181
330
6C
100
AcDbEntity
  8
Visible (ANSI)
100
AcDbLine
 10
7.915821531896034
 20
26.4649271626558
 30
0.0
 11
8.253013725186699
 21
26.4649271626558
 31
0.0
  0
LINE
  5
182
330
6C
100
AcDbEntity
  8
Visible (ANSI)
100
AcDbLine
 10
7.91582153189604
 20
30.3169271626558
 30
0.0
 11
8.253013725186699
 21
30.3169271626558
 31
0.0
  0
LINE
  5
183
330
6C
100
AcDbEntity
  8
Visible (ANSI)
100
AcDbLine
 10
10.79082153189599
 20
30.31692716265668
 30
0.0
 11
10.86482153189599
 21
30.31692716265668
 31
0.0
  0
LINE
  5
184
330
6C
100
AcDbEntity
  8
Visible (ANSI)
100
AcDbLine
 10
10.79082153189599
 20
26.46492716265668
 30
0.0
 11
10.79082153189599
 21
28.33255216265668
 31
0.0
  0
LINE
  5
185
330
6C
100
AcDbEntity
  8
Visible (ANSI)
100
AcDbLine
 10
10.79082153189599
 20
28.44930216265665
 30
0.0
 11
10.79082153189599
 21
30.31692716265668
 31
0.0
  0
LINE
  5
186
330
6C
100
AcDbEntity
  8
Visible (ANSI)
100
AcDbLine
 10
10.79082153189599
 20
26.46492716265668
 30
0.0
 11
10.86482153189599
 21
26.46492716265668
 31
0.0
  0
LINE
  5
187
330
6C
100
AcDbEntity
  8
Visible (ANSI)
100
AcDbLine
 10
10.86482153189599
 20
26.46492716265668
 30
0.0
 11
10.86482153189599
 21
30.31692716265668
 31
0.0
  0
LINE
  5
188
330
6C
100
AcDbEntity
  8
Visible Narrow (ANSI)
100
AcDbLine
 10
8.253013725186699
 20
26.4649271626558
 30
0.0
 11
8.253013725186699
 21
30.3169271626558
 31
0.0
  0
LINE
  5
189
330
6C
100
AcDbEntity
  8
Visible (ANSI)
100
AcDbLine
 10
8.253013725186699
 20
30.3169271626558
 30
0.0
 11
8.275110812098777
 21
30.31692716265581
 31
0.0
  0
LINE
  5
18A
330
6C
100
AcDbEntity
  8
Visible (ANSI)
100
AcDbLine
 10
8.253013725186699
 20
26.4649271626558
 30
0.0
 11
8.275110812098777
 21
26.46492716265581
 31
0.0
  0
LINE
  5
18B
330
6C
100
AcDbEntity
  8
Visible Narrow (ANSI)
100
AcDbLine
 10
8.275110812098777
 20
30.3169271626558
 30
0.0
 11
8.275110812098777
 21
26.4649271626558
 31
0.0
  0
LINE
  5
18C
330
6C
100
AcDbEntity
  8
Visible (ANSI)
100
AcDbLine
 10
10.790821531896
 20
26.46492716265657
 30
0.0
 11
10.78166861880808
 21
26.46492716265656
 31
0.0
  0
LINE
  5
18D
330
6C
100
AcDbEntity
  8
Visible (ANSI)
100
AcDbLine
 10
10.790821531896
 20
30.31692716265656
 30
0.0
 11
10.78166861880808
 21
30.31692716265656
 31
0.0
  0
LINE
  5
18E
330
6C
100
AcDbEntity
  8
Visible Narrow (ANSI)
100
AcDbLine
 10
10.78166861880808
 20
26.46492716265656
 30
0.0
 11
10.78166861880808
 21
28.32339924956864
 31
0.0
  0
LINE
  5
18F
330
6C
100
AcDbEntity
  8
Visible Narrow (ANSI)
100
AcDbLine
 10
10.78166861880808
 20
28.45845507574444
 30
0.0
 11
10.78166861880808
 21
30.31692716265656
 31
0.0
  0
LINE
  5
190
330
6C
100
AcDbEntity
  8
Visible (ANSI)
100
AcDbLine
 10
8.275110812098777
 20
30.3169271626558
 30
0.0
 11
10.10332153189598
 21
30.31692716265635
 31
0.0
  0
LINE
  5
191
330
6C
100
AcDbEntity
  8
Visible (ANSI)
100
AcDbLine
 10
10.78030654326057
 20
30.31692716265656
 30
0.0
 11
10.78166861880808
 21
30.31692716265656
 31
0.0
  0
LINE
  5
192
330
6C
100
AcDbEntity
  8
Visible (ANSI)
100
AcDbLine
 10
10.78166861880808
 20
26.46492716265656
 30
0.0
 11
10.78030654326056
 21
26.46492716265655
 31
0.0
  0
LINE
  5
193
330
6C
100
AcDbEntity
  8
Visible (ANSI)
100
AcDbLine
 10
10.10332153189597
 20
26.46492716265635
 30
0.0
 11
8.275110812098777
 21
26.4649271626558
 31
0.0
  0
LINE
  5
194
330
6C
100
AcDbEntity
  8
Visible (ANSI)
100
AcDbLine
 10
10.84919653189599
 20
28.39092716265668
 30
0.0
 11
10.77519653189599
 21
28.31692716265668
 31
0.0
  0
LINE
  5
195
330
6C
100
AcDbEntity
  8
Visible (ANSI)
100
AcDbLine
 10
10.77519653189599
 20
28.46492716265668
 30
0.0
 11
10.84919653189599
 21
28.39092716265668
 31
0.0
  0
LINE
  5
196
330
6C
100
AcDbEntity
  8
Visible (ANSI)
100
AcDbLine
 10
12.71682153189598
 20
26.37530216265668
 30
0.0
 11
12.79082153189598
 21
26.44930216265669
 31
0.0
  0
LINE
  5
197
330
6C
100
AcDbEntity
  8
Visible (ANSI)
100
AcDbLine
 10
12.79082153189598
 20
26.44930216265669
 30
0.0
 11
12.86482153189598
 21
26.37530216265668
 31
0.0
  0
LINE
  5
198
330
6C
100
AcDbEntity
  8
Visible (ANSI)
100
AcDbLine
 10
12.86482153189597
 20
30.40655216265668
 30
0.0
 11
12.79082153189597
 21
30.33255216265668
 31
0.0
  0
LINE
  5
199
330
6C
100
AcDbEntity
  8
Visible (ANSI)
100
AcDbLine
 10
12.79082153189597
 20
30.33255216265668
 30
0.0
 11
12.71682153189597
 21
30.40655216265668
 31
0.0
  0
LINE
  5
19A
330
6C
100
AcDbEntity
  8
Visible (ANSI)
100
AcDbLine
 10
10.77519653189599
 20
26.50030216265669
 30
0.0
 11
10.77519653189599
 21
28.31692716265668
 31
0.0
  0
LINE
  5
19B
330
6C
100
AcDbEntity
  8
Visible (ANSI)
100
AcDbLine
 10
10.77519653189599
 20
28.46492716265668
 30
0.0
 11
10.77519653189599
 21
30.28155216265668
 31
0.0
  0
LINE
  5
19C
330
6C
100
AcDbEntity
  8
Visible (ANSI)
100
AcDbLine
 10
14.68144653189596
 20
26.37530216265668
 30
0.0
 11
12.86482153189598
 21
26.37530216265668
 31
0.0
  0
LINE
  5
19D
330
6C
100
AcDbEntity
  8
Visible (ANSI)
100
AcDbLine
 10
12.71682153189598
 20
26.37530216265668
 30
0.0
 11
10.90019653189599
 21
26.37530216265668
 31
0.0
  0
LINE
  5
19E
330
6C
100
AcDbEntity
  8
Visible (ANSI)
100
AcDbLine
 10
12.86482153189597
 20
30.40655216265668
 30
0.0
 11
14.68144653189596
 21
30.40655216265668
 31
0.0
  0
LINE
  5
19F
330
6C
100
AcDbEntity
  8
Visible (ANSI)
100
AcDbLine
 10
10.90019653189599
 20
30.40655216265668
 30
0.0
 11
12.71682153189597
 21
30.40655216265668
 31
0.0
  0
ARC
  5
1A0
330
6C
100
AcDbEntity
  8
Visible (ANSI)
100
AcDbCircle
 10
10.90019653189599
 20
26.50030216265669
 30
0.0
 40
0.1249999999999996
100
AcDbArc
 50
180.0
 51
270.0
  0
ARC
  5
1A1
330
6C
100
AcDbEntity
  8
Visible (ANSI)
100
AcDbCircle
 10
14.68144653189596
 20
26.50030216265669
 30
0.0
 40
0.1249999999999996
100
AcDbArc
 50
270.0
 51
0.0
  0
LINE
  5
1A2
330
6C
100
AcDbEntity
  8
Visible (ANSI)
100
AcDbLine
 10
14.80644653189596
 20
30.28155216265668
 30
0.0
 11
14.80644653189596
 21
26.50030216265669
 31
0.0
  0
ARC
  5
1A3
330
6C
100
AcDbEntity
  8
Visible (ANSI)
100
AcDbCircle
 10
14.68144653189596
 20
30.28155216265668
 30
0.0
 40
0.1249999999999985
100
AcDbArc
 50
0.0
 51
90.0
  0
ARC
  5
1A4
330
6C
100
AcDbEntity
  8
Visible (ANSI)
100
AcDbCircle
 10
10.90019653189599
 20
30.28155216265668
 30
0.0
 40
0.1249999999999992
100
AcDbArc
 50
89.99999999999898
 51
180.0
  0
ARC
  5
1A5
330
6C
100
AcDbEntity
  8
Visible (ANSI)
100
AcDbCircle
 10
10.478321531896
 20
26.07842716265669
 30
0.0
 40
0.3750000000000005
100
AcDbArc
 50
180.0
 51
270.0
  0
LINE
  5
1A6
330
6C
100
AcDbEntity
  8
Visible (ANSI)
100
AcDbLine
 10
15.10332153189596
 20
25.70342716265669
 30
0.0
 11
10.47832153189599
 21
25.70342716265669
 31
0.0
  0
ARC
  5
1A7
330
6C
100
AcDbEntity
  8
Visible (ANSI)
100
AcDbCircle
 10
15.10332153189596
 20
26.07842716265669
 30
0.0
 40
0.3749999999999997
100
AcDbArc
 50
270.0
 51
0.0
  0
LINE
  5
1A8
330
6C
100
AcDbEntity
  8
Visible (ANSI)
100
AcDbLine
 10
15.47832153189595
 20
30.70342716265667
 30
0.0
 11
15.47832153189596
 21
26.07842716265669
 31
0.0
  0
ARC
  5
1A9
330
6C
100
AcDbEntity
  8
Visible (ANSI)
100
AcDbCircle
 10
15.10332153189596
 20
30.70342716265667
 30
0.0
 40
0.3749999999999995
100
AcDbArc
 50
0.0
 51
90.0
  0
LINE
  5
1AA
330
6C
100
AcDbEntity
  8
Visible (ANSI)
100
AcDbLine
 10
10.47832153189599
 20
31.07842716265667
 30
0.0
 11
15.10332153189596
 21
31.07842716265667
 31
0.0
  0
ARC
  5
1AB
330
6C
100
AcDbEntity
  8
Visible (ANSI)
100
AcDbCircle
 10
10.47832153189599
 20
30.70342716265667
 30
0.0
 40
0.3749999999999995
100
AcDbArc
 50
89.99999999999966
 51
180.0
  0
LINE
  5
1AC
330
6C
100
AcDbEntity
  8
Visible (ANSI)
100
AcDbLine
 10
10.103321531896
 20
26.07842716265669
 30
0.0
 11
10.10332153189599
 21
30.70342716265667
 31
0.0
  0
CIRCLE
  5
1AD
330
6C
100
AcDbEntity
  8
Visible (ANSI)
100
AcDbCircle
 10
15.10332153189596
 20
26.07842716265669
 30
0.0
 40
0.1406249999999997
  0
CIRCLE
  5
1AE
330
6C
100
AcDbEntity
  8
Visible (ANSI)
100
AcDbCircle
 10
15.10332153189596
 20
30.70342716265667
 30
0.0
 40
0.1406249999999997
  0
CIRCLE
  5
1AF
330
6C
100
AcDbEntity
  8
Visible (ANSI)
100
AcDbCircle
 10
10.47832153189599
 20
26.07842716265669
 30
0.0
 40
0.1406249999999997
  0
CIRCLE
  5
1B0
330
6C
100
AcDbEntity
  8
Visible (ANSI)
100
AcDbCircle
 10
10.47832153189599
 20
30.70342716265667
 30
0.0
 40
0.1406249999999997
  0
LINE
  5
1B1
330
6C
100
AcDbEntity
  8
Visible (ANSI)
100
AcDbLine
 10
17.79082153189603
 20
31.07842716265591
 30
0.0
 11
17.66582153189603
 21
31.07842716265591
 31
0.0
  0
LINE
  5
1B2
330
6C
100
AcDbEntity
  8
Visible (ANSI)
100
AcDbLine
 10
17.66582153189603
 20
30.70342716265602
 30
0.0
 11
17.66582153189603
 21
31.07842716265591
 31
0.0
  0
LINE
  5
1B3
330
6C
100
AcDbEntity
  8
Visible Narrow (ANSI)
100
AcDbLine
 10
17.79082153189603
 20
30.70342716265602
 30
0.0
 11
17.66582153189603
 21
30.70342716265602
 31
0.0
  0
LINE
  5
1B4
330
6C
100
AcDbEntity
  8
Visible (ANSI)
100
AcDbLine
 10
17.79082153189603
 20
31.07842716265591
 30
0.0
 11
17.79082153189603
 21
30.70342716265602
 31
0.0
  0
LINE
  5
1B5
330
6C
100
AcDbEntity
  8
Visible (ANSI)
100
AcDbLine
 10
17.66582153189603
 20
30.70342716265602
 30
0.0
 11
17.66582153189603
 21
26.07842716265603
 31
0.0
  0
LINE
  5
1B6
330
6C
100
AcDbEntity
  8
Visible Narrow (ANSI)
100
AcDbLine
 10
17.79082153189603
 20
26.07842716265604
 30
0.0
 11
17.66582153189603
 21
26.07842716265603
 31
0.0
  0
LINE
  5
1B7
330
6C
100
AcDbEntity
  8
Visible (ANSI)
100
AcDbLine
 10
17.79082153189603
 20
26.07842716265604
 30
0.0
 11
17.79082153189603
 21
30.70342716265602
 31
0.0
  0
LINE
  5
1B8
330
6C
100
AcDbEntity
  8
Visible (ANSI)
100
AcDbLine
 10
17.66582153189603
 20
25.70342716265593
 30
0.0
 11
17.66582153189603
 21
26.07842716265604
 31
0.0
  0
LINE
  5
1B9
330
6C
100
AcDbEntity
  8
Visible (ANSI)
100
AcDbLine
 10
17.79082153189603
 20
25.70342716265593
 30
0.0
 11
17.66582153189603
 21
25.70342716265593
 31
0.0
  0
LINE
  5
1BA
330
6C
100
AcDbEntity
  8
Visible (ANSI)
100
AcDbLine
 10
17.79082153189603
 20
26.07842716265604
 30
0.0
 11
17.79082153189603
 21
25.70342716265593
 31
0.0
  0
LINE
  5
1BB
330
6C
100
AcDbEntity
  8
Visible (ANSI)
100
AcDbLine
 10
7.915821531896037
 20
31.07842716265588
 30
0.0
 11
7.790821531896036
 21
31.07842716265588
 31
0.0
  0
LINE
  5
1BC
330
6C
100
AcDbEntity
  8
Visible (ANSI)
100
AcDbLine
 10
7.790821531896036
 20
30.703427162656
 30
0.0
 11
7.790821531896036
 21
31.07842716265588
 31
0.0
  0
LINE
  5
1BD
330
6C
100
AcDbEntity
  8
Visible Narrow (ANSI)
100
AcDbLine
 10
7.915821531896037
 20
30.703427162656
 30
0.0
 11
7.790821531896036
 21
30.703427162656
 31
0.0
  0
LINE
  5
1BE
330
6C
100
AcDbEntity
  8
Visible (ANSI)
100
AcDbLine
 10
7.915821531896037
 20
31.07842716265588
 30
0.0
 11
7.915821531896037
 21
30.703427162656
 31
0.0
  0
LINE
  5
1BF
330
6C
100
AcDbEntity
  8
Visible (ANSI)
100
AcDbLine
 10
7.790821531896036
 20
30.703427162656
 30
0.0
 11
7.790821531896036
 21
26.078427162656
 31
0.0
  0
LINE
  5
1C0
330
6C
100
AcDbEntity
  8
Visible Narrow (ANSI)
100
AcDbLine
 10
7.915821531896037
 20
26.078427162656
 30
0.0
 11
7.790821531896036
 21
26.078427162656
 31
0.0
  0
LINE
  5
1C1
330
6C
100
AcDbEntity
  8
Visible (ANSI)
100
AcDbLine
 10
7.915821531896037
 20
26.078427162656
 30
0.0
 11
7.915821531896037
 21
30.703427162656
 31
0.0
  0
LINE
  5
1C2
330
6C
100
AcDbEntity
  8
Visible (ANSI)
100
AcDbLine
 10
7.790821531896036
 20
25.70342716265589
 30
0.0
 11
7.790821531896036
 21
26.078427162656
 31
0.0
  0
LINE
  5
1C3
330
6C
100
AcDbEntity
  8
Visible (ANSI)
100
AcDbLine
 10
7.915821531896037
 20
25.70342716265589
 30
0.0
 11
7.790821531896036
 21
25.70342716265589
 31
0.0
  0
LINE
  5
1C4
330
6C
100
AcDbEntity
  8
Visible (ANSI)
100
AcDbLine
 10
7.915821531896037
 20
26.078427162656
 30
0.0
 11
7.915821531896037
 21
25.70342716265589
 31
0.0
  0
MTEXT
  5
1C5
330
6C
100
AcDbEntity
  8
Symbol (ANSI)
100
AcDbMText
 10
11.40282990734488
 20
23.52797566030551
 30
0.0
 40
0.3840000047458438
 41
0.0
 46
0.0
 71
     7
 72
     1
  1
TOP VIEW
  7
Text Style168
 73
     1
 44
1.0
  0
LINE
  5
1C6
330
6C
100
AcDbEntity
  8
Symbol (ANSI)
370
    30
100
AcDbLine
 10
11.40313710813511
 20
23.44966642070586
 30
0.0
 11
13.82600903571185
 21
23.44966642070586
 31
0.0
  0
LINE
  5
1C7
330
6C
100
AcDbEntity
  8
Visible (ANSI)
100
AcDbLine
 10
28.86375389037443
 20
12.7939556938366
 30
0.0
 11
28.93775389037443
 21
12.7939556938366
 31
0.0
  0
LINE
  5
1C8
330
6C
100
AcDbEntity
  8
Visible (ANSI)
100
AcDbLine
 10
28.93775389037443
 20
12.60645569383659
 30
0.0
 11
28.86375389037443
 21
12.60645569383659
 31
0.0
  0
LINE
  5
1C9
330
6C
100
AcDbEntity
  8
Visible (ANSI)
100
AcDbLine
 10
28.93775389037441
 20
12.7939556938366
 30
0.0
 11
28.93775389037441
 21
12.60645569383659
 31
0.0
  0
LINE
  5
1CA
330
6C
100
AcDbEntity
  8
Visible (ANSI)
100
AcDbLine
 10
28.86375389037441
 20
12.60645569383659
 30
0.0
 11
28.86375389037441
 21
12.64183069383656
 31
0.0
  0
LINE
  5
1CB
330
6C
100
AcDbEntity
  8
Visible (ANSI)
100
AcDbLine
 10
28.86375389037441
 20
12.75858069383663
 30
0.0
 11
28.86375389037441
 21
12.7939556938366
 31
0.0
  0
LINE
  5
1CC
330
6C
100
AcDbEntity
  8
Visible (ANSI)
100
AcDbLine
 10
28.86375389037443
 20
12.60645569383659
 30
0.0
 11
28.86375389037443
 21
10.8054556938366
 31
0.0
  0
LINE
  5
1CD
330
6C
100
AcDbEntity
  8
Visible (ANSI)
100
AcDbLine
 10
28.86375389037443
 20
14.6262056938366
 30
0.0
 11
28.86375389037443
 21
12.7939556938366
 31
0.0
  0
LINE
  5
1CE
330
6C
100
AcDbEntity
  8
Visible (ANSI)
100
AcDbLine
 10
28.86375389037354
 20
17.18870569383659
 30
0.0
 11
28.86375389037408
 21
15.38770569383659
 31
0.0
  0
LINE
  5
1CF
330
6C
100
AcDbEntity
  8
Visible (ANSI)
100
AcDbLine
 10
28.86375389037429
 20
14.65134605862102
 30
0.0
 11
28.8637538903743
 21
14.6262056938366
 31
0.0
  0
LINE
  5
1D0
330
6C
100
AcDbEntity
  8
Visible (ANSI)
100
AcDbLine
 10
28.86375389037354
 20
17.5637056938366
 30
0.0
 11
28.86375389037354
 21
17.18870569383659
 31
0.0
  0
LINE
  5
1D1
330
6C
100
AcDbEntity
  8
Visible (ANSI)
100
AcDbLine
 10
28.93775389037443
 20
10.8054556938366
 30
0.0
 11
28.93775389037443
 21
12.60645569383659
 31
0.0
  0
LINE
  5
1D2
330
6C
100
AcDbEntity
  8
Visible (ANSI)
100
AcDbLine
 10
28.93775389037443
 20
12.7939556938366
 30
0.0
 11
28.93775389037443
 21
14.6262056938366
 31
0.0
  0
LINE
  5
1D3
330
6C
100
AcDbEntity
  8
Visible (ANSI)
100
AcDbLine
 10
28.93775389037443
 20
14.6262056938366
 30
0.0
 11
28.86375389037443
 21
14.6262056938366
 31
0.0
  0
LINE
  5
1D4
330
6C
100
AcDbEntity
  8
Visible (ANSI)
100
AcDbLine
 10
28.93775389037354
 20
17.18870569383659
 30
0.0
 11
28.86375389037354
 21
17.18870569383659
 31
0.0
  0
LINE
  5
1D5
330
6C
100
AcDbEntity
  8
Visible Narrow (ANSI)
100
AcDbLine
 10
28.86375389037443
 20
10.8054556938366
 30
0.0
 11
28.93775389037443
 21
10.8054556938366
 31
0.0
  0
LINE
  5
1D6
330
6C
100
AcDbEntity
  8
Visible Narrow (ANSI)
100
AcDbLine
 10
28.96900389037443
 20
10.7742056938366
 30
0.0
 11
28.96900389037443
 21
10.7002056938366
 31
0.0
  0
ARC
  5
1D7
330
6C
100
AcDbEntity
  8
Visible (ANSI)
100
AcDbCircle
 10
28.96900389037443
 20
10.8054556938366
 30
0.0
 40
0.10525
100
AcDbArc
 50
180.0
 51
270.0
  0
ARC
  5
1D8
330
6C
100
AcDbEntity
  8
Visible (ANSI)
100
AcDbCircle
 10
28.96900389037443
 20
10.8054556938366
 30
0.0
 40
0.03125
100
AcDbArc
 50
180.0
 51
270.0
  0
LINE
  5
1D9
330
6C
100
AcDbEntity
  8
Visible (ANSI)
100
AcDbLine
 10
30.77000389037443
 20
10.7002056938366
 30
0.0
 11
30.77000389037443
 21
10.7742056938366
 31
0.0
  0
LINE
  5
1DA
330
6C
100
AcDbEntity
  8
Visible (ANSI)
100
AcDbLine
 10
30.77000389037441
 20
10.7742056938366
 30
0.0
 11
30.95750389037441
 21
10.7742056938366
 31
0.0
  0
LINE
  5
1DB
330
6C
100
AcDbEntity
  8
Visible (ANSI)
100
AcDbLine
 10
30.95750389037441
 20
10.7002056938366
 30
0.0
 11
30.92212889037444
 21
10.7002056938366
 31
0.0
  0
LINE
  5
1DC
330
6C
100
AcDbEntity
  8
Visible (ANSI)
100
AcDbLine
 10
30.80537889037445
 20
10.7002056938366
 30
0.0
 11
30.77000389037441
 21
10.7002056938366
 31
0.0
  0
LINE
  5
1DD
330
6C
100
AcDbEntity
  8
Visible (ANSI)
100
AcDbLine
 10
30.95750389037443
 20
10.7742056938366
 30
0.0
 11
30.95750389037443
 21
10.7002056938366
 31
0.0
  0
LINE
  5
1DE
330
6C
100
AcDbEntity
  8
Visible (ANSI)
100
AcDbLine
 10
30.77000389037443
 20
10.7742056938366
 30
0.0
 11
28.96900389037443
 21
10.7742056938366
 31
0.0
  0
LINE
  5
1DF
330
6C
100
AcDbEntity
  8
Visible (ANSI)
100
AcDbLine
 10
32.78975389037443
 20
10.7742056938366
 30
0.0
 11
30.95750389037443
 21
10.7742056938366
 31
0.0
  0
LINE
  5
1E0
330
6C
100
AcDbEntity
  8
Visible (ANSI)
100
AcDbLine
 10
28.96900389037443
 20
10.7002056938366
 30
0.0
 11
30.77000389037443
 21
10.7002056938366
 31
0.0
  0
LINE
  5
1E1
330
6C
100
AcDbEntity
  8
Visible (ANSI)
100
AcDbLine
 10
30.95750389037443
 20
10.7002056938366
 30
0.0
 11
32.78975389037443
 21
10.7002056938366
 31
0.0
  0
LINE
  5
1E2
330
6C
100
AcDbEntity
  8
Visible (ANSI)
100
AcDbLine
 10
32.78975389037443
 20
10.7742056938366
 30
0.0
 11
32.78975389037443
 21
10.7002056938366
 31
0.0
  0
LINE
  5
1E3
330
6C
100
AcDbEntity
  8
Visible (ANSI)
100
AcDbLine
 10
32.78975389037444
 20
12.7939556938366
 30
0.0
 11
32.86375389037444
 21
12.7939556938366
 31
0.0
  0
LINE
  5
1E4
330
6C
100
AcDbEntity
  8
Visible (ANSI)
100
AcDbLine
 10
32.86375389037442
 20
12.7939556938366
 30
0.0
 11
32.86375389037442
 21
12.75858069383656
 31
0.0
  0
LINE
  5
1E5
330
6C
100
AcDbEntity
  8
Visible (ANSI)
100
AcDbLine
 10
32.86375389037442
 20
12.64183069383662
 30
0.0
 11
32.86375389037442
 21
12.6064556938366
 31
0.0
  0
LINE
  5
1E6
330
6C
100
AcDbEntity
  8
Visible (ANSI)
100
AcDbLine
 10
32.78975389037442
 20
12.6064556938366
 30
0.0
 11
32.78975389037442
 21
12.7939556938366
 31
0.0
  0
LINE
  5
1E7
330
6C
100
AcDbEntity
  8
Visible (ANSI)
100
AcDbLine
 10
32.86375389037444
 20
12.6064556938366
 30
0.0
 11
32.78975389037444
 21
12.6064556938366
 31
0.0
  0
LINE
  5
1E8
330
6C
100
AcDbEntity
  8
Visible (ANSI)
100
AcDbLine
 10
32.78975389037444
 20
12.6064556938366
 30
0.0
 11
32.78975389037444
 21
10.7742056938366
 31
0.0
  0
LINE
  5
1E9
330
6C
100
AcDbEntity
  8
Visible (ANSI)
100
AcDbLine
 10
32.78975389037444
 20
14.6262056938366
 30
0.0
 11
32.78975389037444
 21
12.7939556938366
 31
0.0
  0
LINE
  5
1EA
330
6C
100
AcDbEntity
  8
Visible (ANSI)
100
AcDbLine
 10
32.86375389037444
 20
12.7939556938366
 30
0.0
 11
32.86375389037444
 21
14.6262056938366
 31
0.0
  0
LINE
  5
1EB
330
6C
100
AcDbEntity
  8
Visible (ANSI)
100
AcDbLine
 10
32.86375389037444
 20
14.6262056938366
 30
0.0
 11
32.78975389037444
 21
14.6262056938366
 31
0.0
  0
LINE
  5
1EC
330
6C
100
AcDbEntity
  8
Visible (ANSI)
100
AcDbLine
 10
32.86375389037444
 20
10.7742056938366
 30
0.0
 11
32.78975389037444
 21
10.7742056938366
 31
0.0
  0
LINE
  5
1ED
330
6C
100
AcDbEntity
  8
Visible (ANSI)
100
AcDbLine
 10
32.86375389037444
 20
10.7742056938366
 30
0.0
 11
32.86375389037444
 21
12.6064556938366
 31
0.0
  0
LINE
  5
1EE
330
6C
100
AcDbEntity
  8
Visible (ANSI)
100
AcDbLine
 10
32.86375389037354
 20
17.18870569383659
 30
0.0
 11
32.78975389037354
 21
17.18870569383659
 31
0.0
  0
LINE
  5
1EF
330
6C
100
AcDbEntity
  8
Visible (ANSI)
100
AcDbLine
 10
32.86375389037354
 20
17.18870569383659
 30
0.0
 11
32.86375389037354
 21
17.5637056938366
 31
0.0
  0
LINE
  5
1F0
330
6C
100
AcDbEntity
  8
Visible (ANSI)
100
AcDbLine
 10
32.86375389037431
 20
14.62620569383659
 30
0.0
 11
32.8637538903743
 21
14.65134605862113
 31
0.0
  0
LINE
  5
1F1
330
6C
100
AcDbEntity
  8
Visible (ANSI)
100
AcDbLine
 10
32.86375389037408
 20
15.38770569383659
 30
0.0
 11
32.86375389037354
 21
17.18870569383659
 31
0.0
  0
LINE
  5
1F2
330
6C
100
AcDbEntity
  8
Visible (ANSI)
100
AcDbLine
 10
28.93775389037356
 20
17.5637056938366
 30
0.0
 11
28.93775389037356
 21
17.23801350054588
 31
0.0
  0
LINE
  5
1F3
330
6C
100
AcDbEntity
  8
Visible (ANSI)
100
AcDbLine
 10
32.78975389037356
 20
17.5637056938366
 30
0.0
 11
32.78975389037356
 21
17.23801350054588
 31
0.0
  0
LINE
  5
1F4
330
6C
100
AcDbEntity
  8
Visible (ANSI)
100
AcDbLine
 10
32.78975389037443
 20
14.70020569383655
 30
0.0
 11
32.78975389037443
 21
14.62620569383656
 31
0.0
  0
LINE
  5
1F5
330
6C
100
AcDbEntity
  8
Visible (ANSI)
100
AcDbLine
 10
28.93775389037444
 20
14.70020569383655
 30
0.0
 11
32.78975389037443
 21
14.70020569383655
 31
0.0
  0
LINE
  5
1F6
330
6C
100
AcDbEntity
  8
Visible (ANSI)
100
AcDbLine
 10
28.93775389037444
 20
14.70020569383655
 30
0.0
 11
28.93775389037444
 21
14.62620569383656
 31
0.0
  0
LINE
  5
1F7
330
6C
100
AcDbEntity
  8
Visible (ANSI)
100
AcDbLine
 10
28.93775389037444
 20
14.62620569383656
 30
0.0
 11
32.78975389037443
 21
14.62620569383656
 31
0.0
  0
LINE
  5
1F8
330
6C
100
AcDbEntity
  8
Visible Narrow (ANSI)
100
AcDbLine
 10
28.93775389037356
 20
17.23801350054588
 30
0.0
 11
32.78975389037356
 21
17.23801350054588
 31
0.0
  0
LINE
  5
1F9
330
6C
100
AcDbEntity
  8
Visible (ANSI)
100
AcDbLine
 10
32.78975389037356
 20
17.23801350054588
 30
0.0
 11
32.78975389037357
 21
17.2159164136338
 31
0.0
  0
LINE
  5
1FA
330
6C
100
AcDbEntity
  8
Visible (ANSI)
100
AcDbLine
 10
28.93775389037357
 20
17.23801350054588
 30
0.0
 11
28.93775389037357
 21
17.2159164136338
 31
0.0
  0
LINE
  5
1FB
330
6C
100
AcDbEntity
  8
Visible Narrow (ANSI)
100
AcDbLine
 10
32.78975389037356
 20
17.2159164136338
 30
0.0
 11
28.93775389037357
 21
17.2159164136338
 31
0.0
  0
LINE
  5
1FC
330
6C
100
AcDbEntity
  8
Visible (ANSI)
100
AcDbLine
 10
28.93775389037432
 20
14.70020569383656
 30
0.0
 11
28.93775389037431
 21
14.70935860692448
 31
0.0
  0
LINE
  5
1FD
330
6C
100
AcDbEntity
  8
Visible (ANSI)
100
AcDbLine
 10
32.78975389037432
 20
14.70020569383655
 30
0.0
 11
32.78975389037431
 21
14.70935860692448
 31
0.0
  0
LINE
  5
1FE
330
6C
100
AcDbEntity
  8
Visible Narrow (ANSI)
100
AcDbLine
 10
28.93775389037431
 20
14.70935860692448
 30
0.0
 11
32.78975389037431
 21
14.70935860692448
 31
0.0
  0
LINE
  5
1FF
330
6C
100
AcDbEntity
  8
Visible (ANSI)
100
AcDbLine
 10
32.78975389037356
 20
17.2159164136338
 30
0.0
 11
32.7897538903741
 21
15.38770569383659
 31
0.0
  0
LINE
  5
200
330
6C
100
AcDbEntity
  8
Visible (ANSI)
100
AcDbLine
 10
32.78975389037431
 20
14.71072068247202
 30
0.0
 11
32.78975389037431
 21
14.70935860692448
 31
0.0
  0
LINE
  5
201
330
6C
100
AcDbEntity
  8
Visible (ANSI)
100
AcDbLine
 10
28.93775389037431
 20
14.70935860692448
 30
0.0
 11
28.93775389037431
 21
14.710720682472
 31
0.0
  0
LINE
  5
202
330
6C
100
AcDbEntity
  8
Visible (ANSI)
100
AcDbLine
 10
28.93775389037411
 20
15.38770569383659
 30
0.0
 11
28.93775389037357
 21
17.2159164136338
 31
0.0
  0
LINE
  5
203
330
6C
100
AcDbEntity
  8
Visible (ANSI)
100
AcDbLine
 10
28.17625389037367
 20
17.6887056938366
 30
0.0
 11
28.17625389037367
 21
17.5637056938366
 31
0.0
  0
LINE
  5
204
330
6C
100
AcDbEntity
  8
Visible (ANSI)
100
AcDbLine
 10
28.55125389037377
 20
17.5637056938366
 30
0.0
 11
28.17625389037367
 21
17.5637056938366
 31
0.0
  0
LINE
  5
205
330
6C
100
AcDbEntity
  8
Visible Narrow (ANSI)
100
AcDbLine
 10
28.55125389037377
 20
17.6887056938366
 30
0.0
 11
28.55125389037377
 21
17.5637056938366
 31
0.0
  0
LINE
  5
206
330
6C
100
AcDbEntity
  8
Visible (ANSI)
100
AcDbLine
 10
28.17625389037367
 20
17.6887056938366
 30
0.0
 11
28.55125389037377
 21
17.6887056938366
 31
0.0
  0
LINE
  5
207
330
6C
100
AcDbEntity
  8
Visible (ANSI)
100
AcDbLine
 10
28.55125389037377
 20
17.5637056938366
 30
0.0
 11
33.17625389037377
 21
17.5637056938366
 31
0.0
  0
LINE
  5
208
330
6C
100
AcDbEntity
  8
Visible Narrow (ANSI)
100
AcDbLine
 10
33.17625389037377
 20
17.6887056938366
 30
0.0
 11
33.17625389037377
 21
17.5637056938366
 31
0.0
  0
LINE
  5
209
330
6C
100
AcDbEntity
  8
Visible (ANSI)
100
AcDbLine
 10
33.17625389037377
 20
17.6887056938366
 30
0.0
 11
28.55125389037377
 21
17.6887056938366
 31
0.0
  0
LINE
  5
20A
330
6C
100
AcDbEntity
  8
Visible (ANSI)
100
AcDbLine
 10
33.55125389037365
 20
17.5637056938366
 30
0.0
 11
33.17625389037377
 21
17.5637056938366
 31
0.0
  0
LINE
  5
20B
330
6C
100
AcDbEntity
  8
Visible (ANSI)
100
AcDbLine
 10
33.55125389037365
 20
17.6887056938366
 30
0.0
 11
33.55125389037365
 21
17.5637056938366
 31
0.0
  0
LINE
  5
20C
330
6C
100
AcDbEntity
  8
Visible (ANSI)
100
AcDbLine
 10
33.17625389037377
 20
17.6887056938366
 30
0.0
 11
33.55125389037365
 21
17.6887056938366
 31
0.0
  0
LINE
  5
20D
330
6C
100
AcDbEntity
  8
Visible (ANSI)
100
AcDbLine
 10
30.86375389037449
 20
10.75858069383659
 30
0.0
 11
30.93775389037448
 21
10.68458069383659
 31
0.0
  0
LINE
  5
20E
330
6C
100
AcDbEntity
  8
Visible (ANSI)
100
AcDbLine
 10
30.78975389037449
 20
10.68458069383659
 30
0.0
 11
30.86375389037449
 21
10.75858069383659
 31
0.0
  0
LINE
  5
20F
330
6C
100
AcDbEntity
  8
Visible (ANSI)
100
AcDbLine
 10
32.87937889037448
 20
12.62620569383659
 30
0.0
 11
32.80537889037449
 21
12.70020569383659
 31
0.0
  0
LINE
  5
210
330
6C
100
AcDbEntity
  8
Visible (ANSI)
100
AcDbLine
 10
32.80537889037449
 20
12.70020569383659
 30
0.0
 11
32.87937889037448
 21
12.77420569383659
 31
0.0
  0
LINE
  5
211
330
6C
100
AcDbEntity
  8
Visible (ANSI)
100
AcDbLine
 10
28.84812889037449
 20
12.77420569383659
 30
0.0
 11
28.92212889037449
 21
12.70020569383659
 31
0.0
  0
LINE
  5
212
330
6C
100
AcDbEntity
  8
Visible (ANSI)
100
AcDbLine
 10
28.92212889037449
 20
12.70020569383659
 30
0.0
 11
28.84812889037449
 21
12.62620569383659
 31
0.0
  0
LINE
  5
213
330
6C
100
AcDbEntity
  8
Visible (ANSI)
100
AcDbLine
 10
32.75437889037448
 20
10.68458069383659
 30
0.0
 11
30.93775389037448
 21
10.68458069383659
 31
0.0
  0
LINE
  5
214
330
6C
100
AcDbEntity
  8
Visible (ANSI)
100
AcDbLine
 10
30.78975389037449
 20
10.68458069383659
 30
0.0
 11
28.97312889037449
 21
10.68458069383659
 31
0.0
  0
LINE
  5
215
330
6C
100
AcDbEntity
  8
Visible (ANSI)
100
AcDbLine
 10
32.87937889037448
 20
14.5908306938366
 30
0.0
 11
32.87937889037448
 21
12.77420569383659
 31
0.0
  0
LINE
  5
216
330
6C
100
AcDbEntity
  8
Visible (ANSI)
100
AcDbLine
 10
32.87937889037448
 20
12.62620569383659
 30
0.0
 11
32.87937889037448
 21
10.80958069383659
 31
0.0
  0
LINE
  5
217
330
6C
100
AcDbEntity
  8
Visible (ANSI)
100
AcDbLine
 10
28.84812889037449
 20
12.77420569383659
 30
0.0
 11
28.84812889037449
 21
14.59083069383659
 31
0.0
  0
LINE
  5
218
330
6C
100
AcDbEntity
  8
Visible (ANSI)
100
AcDbLine
 10
28.84812889037449
 20
10.80958069383659
 30
0.0
 11
28.84812889037449
 21
12.62620569383659
 31
0.0
  0
ARC
  5
219
330
6C
100
AcDbEntity
  8
Visible (ANSI)
100
AcDbCircle
 10
32.75437889037448
 20
10.80958069383659
 30
0.0
 40
0.125
100
AcDbArc
 50
270.0
 51
0.0
  0
ARC
  5
21A
330
6C
100
AcDbEntity
  8
Visible (ANSI)
100
AcDbCircle
 10
32.75437889037448
 20
14.59083069383659
 30
0.0
 40
0.125
100
AcDbArc
 50
0.0
 51
90.0
  0
LINE
  5
21B
330
6C
100
AcDbEntity
  8
Visible (ANSI)
100
AcDbLine
 10
28.97312889037449
 20
14.71583069383659
 30
0.0
 11
32.75437889037448
 21
14.7158306938366
 31
0.0
  0
ARC
  5
21C
330
6C
100
AcDbEntity
  8
Visible (ANSI)
100
AcDbCircle
 10
28.97312889037449
 20
14.59083069383659
 30
0.0
 40
0.1249999999999989
100
AcDbArc
 50
89.99999999999795
 51
180.0
  0
ARC
  5
21D
330
6C
100
AcDbEntity
  8
Visible (ANSI)
100
AcDbCircle
 10
28.97312889037449
 20
10.80958069383659
 30
0.0
 40
0.1249999999999996
100
AcDbArc
 50
180.0
 51
270.0
  0
ARC
  5
21E
330
6C
100
AcDbEntity
  8
Visible (ANSI)
100
AcDbCircle
 10
33.17625389037448
 20
10.38770569383659
 30
0.0
 40
0.3750000000000018
100
AcDbArc
 50
270.0000000000007
 51
0.0
  0
LINE
  5
21F
330
6C
100
AcDbEntity
  8
Visible (ANSI)
100
AcDbLine
 10
33.55125389037448
 20
15.0127056938366
 30
0.0
 11
33.55125389037448
 21
10.38770569383659
 31
0.0
  0
ARC
  5
220
330
6C
100
AcDbEntity
  8
Visible (ANSI)
100
AcDbCircle
 10
33.17625389037448
 20
15.01270569383659
 30
0.0
 40
0.375000000000001
100
AcDbArc
 50
0.0
 51
90.0
  0
LINE
  5
221
330
6C
100
AcDbEntity
  8
Visible (ANSI)
100
AcDbLine
 10
28.5512538903745
 20
15.38770569383659
 30
0.0
 11
33.17625389037448
 21
15.38770569383659
 31
0.0
  0
ARC
  5
222
330
6C
100
AcDbEntity
  8
Visible (ANSI)
100
AcDbCircle
 10
28.5512538903745
 20
15.01270569383659
 30
0.0
 40
0.3750000000000007
100
AcDbArc
 50
90.0
 51
180.0
  0
LINE
  5
223
330
6C
100
AcDbEntity
  8
Visible (ANSI)
100
AcDbLine
 10
28.17625389037449
 20
10.38770569383659
 30
0.0
 11
28.17625389037449
 21
15.01270569383659
 31
0.0
  0
ARC
  5
224
330
6C
100
AcDbEntity
  8
Visible (ANSI)
100
AcDbCircle
 10
28.5512538903745
 20
10.38770569383659
 30
0.0
 40
0.3750000000000007
100
AcDbArc
 50
180.0
 51
270.0
  0
LINE
  5
225
330
6C
100
AcDbEntity
  8
Visible (ANSI)
100
AcDbLine
 10
33.17625389037448
 20
10.01270569383659
 30
0.0
 11
28.5512538903745
 21
10.01270569383659
 31
0.0
  0
CIRCLE
  5
226
330
6C
100
AcDbEntity
  8
Visible (ANSI)
100
AcDbCircle
 10
33.17625389037448
 20
15.01270569383659
 30
0.0
 40
0.1406250000000001
  0
CIRCLE
  5
227
330
6C
100
AcDbEntity
  8
Visible (ANSI)
100
AcDbCircle
 10
28.5512538903745
 20
15.01270569383659
 30
0.0
 40
0.1406250000000001
  0
CIRCLE
  5
228
330
6C
100
AcDbEntity
  8
Visible (ANSI)
100
AcDbCircle
 10
33.17625389037448
 20
10.38770569383659
 30
0.0
 40
0.1406250000000001
  0
CIRCLE
  5
229
330
6C
100
AcDbEntity
  8
Visible (ANSI)
100
AcDbCircle
 10
28.5512538903745
 20
10.38770569383659
 30
0.0
 40
0.1406250000000001
  0
MTEXT
  5
22A
330
6C
100
AcDbEntity
  8
Symbol (ANSI)
100
AcDbMText
 10
29.74677394536219
 20
6.046306711881034
 30
0.0
 40
0.3840000047458438
 41
0.0
 46
0.0
 71
     7
 72
     1
  1
SIDE VIEW
  7
Text Style168
 73
     1
 44
1.0
  0
LINE
  5
22B
330
6C
100
AcDbEntity
  8
Symbol (ANSI)
370
    30
100
AcDbLine
 10
29.72711309478743
 20
5.96675274015397
 30
0.0
 11
32.32206932008501
 21
5.96675274015397
 31
0.0
  0
DIMENSION
  5
22C
330
6C
100
AcDbEntity
  8
Dimension (ANSI)
100
AcDbDimension
280
     0
  2
*D4
 10
6.13623669429904
 20
14.70020569383652
 30
0.0
 11
6.136236694299038
 21
12.63037634830791
 31
0.0
 70
   160
  1
<>{\P(2 PL.)}
 71
     5
 42
3.999999999999921
 73
     0
 74
     0
 75
     0
  3
Default (ANSI)
100
AcDbAlignedDimension
 13
7.853321531892405
 23
10.7002056938366
 33
0.0
 14
7.859109702622837
 24
14.70020569383652
 34
0.0
 50
90.0
100
AcDbRotatedDimension
1001
ACAD
1000
DSTYLE
1002
{
1070
   289
1070
     1
1070
   271
1070
     2
1070
   272
1070
     2
1070
    48
1040
0.0
1070
    47
1040
0.0
1002
}
  0
LINE
  5
32D
330
6C
100
AcDbEntity
  8
Visible (ANSI)
100
AcDbLine
 10
45.05727177768186
 20
19.23623079811875
 30
0.0
 11
45.03826275489293
 21
19.22528422992145
 31
0.0
  0
LINE
  5
32E
330
6C
100
AcDbEntity
  8
Visible (ANSI)
100
AcDbLine
 10
41.48046051339685
 20
17.28512235721111
 30
0.0
 11
41.49150905685288
 21
17.27875992418312
 31
0.0
  0
LINE
  5
32F
330
6C
100
AcDbEntity
  8
Visible (ANSI)
100
AcDbLine
 10
41.49150905685288
 20
17.12546983827514
 30
0.0
 11
41.48046051339685
 21
17.13183227130314
 31
0.0
  0
LINE
  5
330
330
6C
100
AcDbEntity
  8
Visible (ANSI)
100
AcDbLine
 10
41.49150905685288
 20
17.27875992418312
 30
0.0
 11
41.49150905685288
 21
17.12546983827514
 31
0.0
  0
LINE
  5
331
330
6C
100
AcDbEntity
  8
Visible (ANSI)
100
AcDbLine
 10
48.46313997761505
 20
13.30223928168047
 30
0.0
 11
48.4823202490547
 21
13.31328446541707
 31
0.0
  0
LINE
  5
332
330
6C
100
AcDbEntity
  8
Visible (ANSI)
100
AcDbLine
 10
44.91329821545178
 20
19.31913965856145
 30
0.0
 11
43.62909285638012
 21
20.05866434105069
 31
0.0
  0
LINE
  5
333
330
6C
100
AcDbEntity
  8
Visible (ANSI)
100
AcDbLine
 10
43.62909285638012
 20
20.05866434105069
 30
0.0
 11
43.61008383359119
 21
20.04771777285339
 31
0.0
  0
LINE
  5
334
330
6C
100
AcDbEntity
  8
Visible (ANSI)
100
AcDbLine
 10
46.33825206367929
 20
18.49856331169583
 30
0.0
 11
45.05727177768186
 21
19.23623079811875
 31
0.0
  0
LINE
  5
335
330
6C
100
AcDbEntity
  8
Visible (ANSI)
100
AcDbLine
 10
41.75667409979786
 20
18.62401225100375
 30
0.0
 11
43.3566892965319
 21
19.54427535097101
 31
0.0
  0
LINE
  5
336
330
6C
100
AcDbEntity
  8
Visible (ANSI)
100
AcDbLine
 10
41.48591963466071
 20
18.77992937784695
 30
0.0
 11
41.75667409979786
 21
18.62401225100375
 31
0.0
  0
LINE
  5
337
330
6C
100
AcDbEntity
  8
Visible (ANSI)
100
AcDbLine
 10
48.16143263948197
 20
14.93575710394215
 30
0.0
 11
48.20343587446661
 21
14.91156904959703
 31
0.0
  0
LINE
  5
338
330
6C
100
AcDbEntity
  8
Visible (ANSI)
100
AcDbLine
 10
46.4113520219544
 20
17.91098170362556
 30
0.0
 11
48.00849993860008
 21
15.15289511352501
 31
0.0
  0
LINE
  5
339
330
6C
100
AcDbEntity
  8
Visible (ANSI)
100
AcDbLine
 10
46.3005422757033
 20
18.19945317462321
 30
0.0
 11
46.3005422757033
 21
18.1513151548996
 31
0.0
  0
LINE
  5
33A
330
6C
100
AcDbEntity
  8
Visible (ANSI)
100
AcDbLine
 10
48.4823202490547
 20
11.68759200766767
 30
0.0
 11
48.4823202490547
 21
13.14741743676199
 31
0.0
  0
LINE
  5
33B
330
6C
100
AcDbEntity
  8
Visible (ANSI)
100
AcDbLine
 10
48.4823202490547
 20
13.31328446541707
 30
0.0
 11
48.4823202490547
 21
14.79498149808596
 31
0.0
  0
LINE
  5
33C
330
6C
100
AcDbEntity
  8
Visible (ANSI)
100
AcDbLine
 10
46.35286817751111
 20
18.14550030836301
 30
0.0
 11
46.35286817751111
 21
18.20526802115981
 31
0.0
  0
LINE
  5
33D
330
6C
100
AcDbEntity
  8
Visible (ANSI)
100
AcDbLine
 10
48.04867940107853
 20
15.20400306836211
 30
0.0
 11
46.47575242528133
 21
17.9202629425664
 31
0.0
  0
LINE
  5
33E
330
6C
100
AcDbEntity
  8
Visible (ANSI)
100
AcDbLine
 10
48.23474819369633
 20
14.95380244982486
 30
0.0
 11
48.18224385649038
 21
14.98403768675738
 31
0.0
  0
LINE
  5
33F
330
6C
100
AcDbEntity
  8
Visible (ANSI)
100
AcDbLine
 10
41.80900000160567
 20
18.65414473382439
 30
0.0
 11
41.75667409979786
 21
18.62401225100375
 31
0.0
  0
LINE
  5
340
330
6C
100
AcDbEntity
  8
Visible (ANSI)
100
AcDbLine
 10
41.80900000160567
 20
18.65414473382439
 30
0.0
 11
41.50627641588854
 21
18.82847165282377
 31
0.0
  0
LINE
  5
341
330
6C
100
AcDbEntity
  8
Visible (ANSI)
100
AcDbLine
 10
43.35665735028596
 20
19.54429374759054
 30
0.0
 11
41.80900000160567
 21
18.65414473382439
 31
0.0
  0
LINE
  5
342
330
6C
100
AcDbEntity
  8
Visible Narrow (ANSI)
100
AcDbLine
 10
41.48046051339685
 20
15.65942989946172
 30
0.0
 11
47.89966426135708
 21
11.96285631019114
 31
0.0
  0
LINE
  5
343
330
6C
100
AcDbEntity
  8
Visible Narrow (ANSI)
100
AcDbLine
 10
48.46313997761505
 20
11.67654682393107
 30
0.0
 11
48.4823202490547
 21
11.68759200766767
 31
0.0
  0
LINE
  5
344
330
6C
100
AcDbEntity
  8
Visible Narrow (ANSI)
100
AcDbLine
 10
48.4823204143066
 20
11.68749329696612
 30
0.0
 11
48.50441733596678
 21
11.67476852607236
 31
0.0
  0
LINE
  5
345
330
6C
100
AcDbEntity
  8
Visible Narrow (ANSI)
100
AcDbLine
 10
48.50441733596678
 20
11.67476852607236
 30
0.0
 11
48.50441733596678
 21
11.61427003883401
 31
0.0
  0
ELLIPSE
  5
346
330
6C
100
AcDbEntity
  8
Visible (ANSI)
100
AcDbEllipse
 10
48.50441733596678
 20
11.70031687372368
 30
0.0
 11
-0.0525231402692351
 21
-0.091207906654293
 31
0.0
210
0.0
220
0.0
230
0.9999999999999998
 40
0.5780931159156388
 41
0.2426787614685022
 42
0.7834644549742952
  0
ELLIPSE
  5
347
330
6C
100
AcDbEntity
  8
Visible (ANSI)
100
AcDbEllipse
 10
48.50441733596678
 20
11.70031687372368
 30
0.0
 11
-0.0155947566120057
 21
-0.0270807323795407
 31
0.0
210
0.0
220
0.0
230
1.0
 40
0.578093115915639
 41
5.495853435359126
 42
7.066649762154001
  0
LINE
  5
348
330
6C
100
AcDbEntity
  8
Visible (ANSI)
100
AcDbLine
 10
41.48469985878247
 20
15.62124934901935
 30
0.0
 11
47.89966426135708
 21
11.9271170363936
 31
0.0
  0
LINE
  5
349
330
6C
100
AcDbEntity
  8
Visible (ANSI)
100
AcDbLine
 10
49.77791664888356
 20
12.40812800661246
 30
0.0
 11
49.73372247505939
 21
12.43357773872447
 31
0.0
  0
LINE
  5
34A
330
6C
100
AcDbEntity
  8
Visible (ANSI)
100
AcDbLine
 10
49.77791664888356
 20
12.34762951937411
 30
0.0
 11
49.77791664888356
 21
12.40812800661246
 31
0.0
  0
LINE
  5
34B
330
6C
100
AcDbEntity
  8
Visible (ANSI)
100
AcDbLine
 10
49.73372247505939
 20
12.43357773872447
 30
0.0
 11
49.86630499653185
 21
12.50992693506055
 31
0.0
  0
LINE
  5
34C
330
6C
100
AcDbEntity
  8
Visible (ANSI)
100
AcDbLine
 10
49.86630499653185
 20
12.4494284478222
 30
0.0
 11
49.8414510403872
 21
12.43511600636052
 31
0.0
  0
LINE
  5
34D
330
6C
100
AcDbEntity
  8
Visible (ANSI)
100
AcDbLine
 10
49.86630499653185
 20
12.4494284478222
 30
0.0
 11
49.86630499653185
 21
12.50992693506055
 31
0.0
  0
LINE
  5
34E
330
6C
100
AcDbEntity
  8
Visible (ANSI)
100
AcDbLine
 10
49.86630499653185
 20
12.50992693506055
 30
0.0
 11
49.91049917035602
 21
12.48447720294853
 31
0.0
  0
LINE
  5
34F
330
6C
100
AcDbEntity
  8
Visible (ANSI)
100
AcDbLine
 10
49.91049917035602
 20
12.42397871571018
 30
0.0
 11
49.86630499653185
 21
12.4494284478222
 31
0.0
  0
LINE
  5
350
330
6C
100
AcDbEntity
  8
Visible (ANSI)
100
AcDbLine
 10
49.91049917035602
 20
12.48447720294853
 30
0.0
 11
49.91049917035602
 21
12.42397871571018
 31
0.0
  0
LINE
  5
351
330
6C
100
AcDbEntity
  8
Visible (ANSI)
100
AcDbLine
 10
49.77791664888356
 20
12.40812800661246
 30
0.0
 11
48.50441733596678
 21
11.67476852607236
 31
0.0
  0
LINE
  5
352
330
6C
100
AcDbEntity
  8
Visible (ANSI)
100
AcDbLine
 10
51.20609557018488
 20
13.23056154954465
 30
0.0
 11
49.91049917035602
 21
12.48447720294853
 31
0.0
  0
LINE
  5
353
330
6C
100
AcDbEntity
  8
Visible (ANSI)
100
AcDbLine
 10
51.20609557018488
 20
13.23056154954465
 30
0.0
 11
48.4839177462023
 21
14.79815950164728
 31
0.0
  0
LINE
  5
354
330
6C
100
AcDbEntity
  8
Visible (ANSI)
100
AcDbLine
 10
48.50441733596678
 20
11.61427003883401
 30
0.0
 11
49.77791664888356
 21
12.34762951937411
 31
0.0
  0
LINE
  5
355
330
6C
100
AcDbEntity
  8
Visible (ANSI)
100
AcDbLine
 10
49.91049917035602
 20
12.42397871571018
 30
0.0
 11
51.20609557018488
 21
13.1700630623063
 31
0.0
  0
LINE
  5
356
330
6C
100
AcDbEntity
  8
Visible (ANSI)
100
AcDbLine
 10
51.20609557018488
 20
13.23056154954465
 30
0.0
 11
51.20609557018488
 21
13.1700630623063
 31
0.0
  0
LINE
  5
357
330
6C
100
AcDbEntity
  8
Visible (ANSI)
100
AcDbLine
 10
47.70079047914733
 20
20.91123036680373
 30
0.0
 11
47.70079047914733
 21
20.86013367150108
 31
0.0
  0
LINE
  5
358
330
6C
100
AcDbEntity
  8
Visible (ANSI)
100
AcDbLine
 10
47.64846457733953
 20
20.8810978839831
 30
0.0
 11
47.70079047914733
 21
20.91123036680373
 31
0.0
  0
LINE
  5
359
330
6C
100
AcDbEntity
  8
Visible (ANSI)
100
AcDbLine
 10
47.64846457733953
 20
20.83000118868044
 30
0.0
 11
47.64846457733953
 21
20.8810978839831
 31
0.0
  0
LINE
  5
35A
330
6C
100
AcDbEntity
  8
Visible (ANSI)
100
AcDbLine
 10
47.64846457733953
 20
20.83000118868044
 30
0.0
 11
47.70079047914733
 21
20.86013367150108
 31
0.0
  0
LINE
  5
35B
330
6C
100
AcDbEntity
  8
Visible (ANSI)
100
AcDbLine
 10
47.70079047914733
 20
20.86013367150108
 30
0.0
 11
47.72580438153179
 21
20.84572912312569
 31
0.0
  0
LINE
  5
35C
330
6C
100
AcDbEntity
  8
Visible (ANSI)
100
AcDbLine
 10
47.78104709881202
 20
20.75365199234439
 30
0.0
 11
47.64846457733953
 21
20.83000118868044
 31
0.0
  0
LINE
  5
35D
330
6C
100
AcDbEntity
  8
Visible (ANSI)
100
AcDbLine
 10
47.78104709881202
 20
20.80474868764705
 30
0.0
 11
47.78104709881202
 21
20.75365199234439
 31
0.0
  0
LINE
  5
35E
330
6C
100
AcDbEntity
  8
Visible (ANSI)
100
AcDbLine
 10
47.83337300061982
 20
20.83488117046769
 30
0.0
 11
47.78104709881202
 21
20.80474868764705
 31
0.0
  0
LINE
  5
35F
330
6C
100
AcDbEntity
  8
Visible (ANSI)
100
AcDbLine
 10
51.20609557018488
 20
14.88180235494537
 30
0.0
 11
51.25842147199268
 21
14.911934837766
 31
0.0
  0
LINE
  5
360
330
6C
100
AcDbEntity
  8
Visible (ANSI)
100
AcDbLine
 10
51.16190139636071
 20
14.90725208705739
 30
0.0
 11
51.20609557018488
 21
14.88180235494537
 31
0.0
  0
LINE
  5
361
330
6C
100
AcDbEntity
  8
Visible (ANSI)
100
AcDbLine
 10
51.21422729816852
 20
14.81301521351137
 30
0.0
 11
51.21422729816852
 21
14.78409448397004
 31
0.0
  0
LINE
  5
362
330
6C
100
AcDbEntity
  8
Visible (ANSI)
100
AcDbLine
 10
51.16190139636071
 20
14.7539620011494
 30
0.0
 11
51.16190139636071
 21
14.90725208705739
 31
0.0
  0
LINE
  5
363
330
6C
100
AcDbEntity
  8
Visible (ANSI)
100
AcDbLine
 10
51.16190139636071
 20
14.7539620011494
 30
0.0
 11
51.21422729816852
 21
14.78409448397004
 31
0.0
  0
LINE
  5
364
330
6C
100
AcDbEntity
  8
Visible (ANSI)
100
AcDbLine
 10
51.21422729816852
 20
14.78409448397004
 30
0.0
 11
51.25842147199268
 21
14.75864475185803
 31
0.0
  0
LINE
  5
365
330
6C
100
AcDbEntity
  8
Visible (ANSI)
100
AcDbLine
 10
51.20609557018488
 20
14.72851226903739
 30
0.0
 11
51.16190139636071
 21
14.7539620011494
 31
0.0
  0
LINE
  5
366
330
6C
100
AcDbEntity
  8
Visible (ANSI)
100
AcDbLine
 10
51.25842147199268
 20
14.75864475185803
 30
0.0
 11
51.20609557018488
 21
14.72851226903739
 31
0.0
  0
LINE
  5
367
330
6C
100
AcDbEntity
  8
Visible (ANSI)
100
AcDbLine
 10
47.78104709881202
 20
20.80474868764705
 30
0.0
 11
49.07258897514296
 21
20.06099918584958
 31
0.0
  0
LINE
  5
368
330
6C
100
AcDbEntity
  8
Visible (ANSI)
100
AcDbLine
 10
49.12896940044907
 20
20.08879682387179
 30
0.0
 11
49.08069802213962
 21
20.0609991858496
 31
0.0
  0
LINE
  5
369
330
6C
100
AcDbEntity
  8
Visible (ANSI)
100
AcDbLine
 10
49.12896940044907
 20
20.08879682387179
 30
0.0
 11
47.83337300061982
 21
20.83488117046769
 31
0.0
  0
LINE
  5
36A
330
6C
100
AcDbEntity
  8
Visible (ANSI)
100
AcDbLine
 10
51.20609557018488
 20
13.23056154954465
 30
0.0
 11
48.4839177462023
 21
14.79815950164729
 31
0.0
  0
LINE
  5
36B
330
6C
100
AcDbEntity
  8
Visible (ANSI)
100
AcDbLine
 10
51.20609557018488
 20
14.72851226903739
 30
0.0
 11
51.20609557018488
 21
13.23056154954465
 31
0.0
  0
LINE
  5
36C
330
6C
100
AcDbEntity
  8
Visible (ANSI)
100
AcDbLine
 10
51.20609557018488
 20
16.37975307443811
 30
0.0
 11
51.20609557018488
 21
14.88180235494537
 31
0.0
  0
LINE
  5
36D
330
6C
100
AcDbEntity
  8
Visible (ANSI)
100
AcDbLine
 10
51.20200271541072
 20
16.38210999275024
 30
0.0
 11
51.20609557018488
 21
16.37975307443811
 31
0.0
  0
LINE
  5
36E
330
6C
100
AcDbEntity
  8
Visible (ANSI)
100
AcDbLine
 10
46.35286817751029
 20
21.62718223057899
 30
0.0
 11
47.64846457733953
 21
20.8810978839831
 31
0.0
  0
LINE
  5
36F
330
6C
100
AcDbEntity
  8
Visible (ANSI)
100
AcDbLine
 10
46.35286817751029
 20
21.26950536346039
 30
0.0
 11
46.35286817751029
 21
21.62718223057899
 31
0.0
  0
LINE
  5
370
330
6C
100
AcDbEntity
  8
Visible (ANSI)
100
AcDbLine
 10
45.44886299132603
 20
20.7495586675024
 30
0.0
 11
46.35286817751029
 21
21.26950536346039
 31
0.0
  0
LINE
  5
371
330
6C
100
AcDbEntity
  8
Visible (ANSI)
100
AcDbLine
 10
44.22341610596669
 20
19.71641634360875
 30
0.0
 11
44.22341610596669
 21
20.0398979426591
 31
0.0
  0
LINE
  5
372
330
6C
100
AcDbEntity
  8
Visible (ANSI)
100
AcDbLine
 10
51.25842147199268
 20
14.911934837766
 30
0.0
 11
51.25842147199268
 21
16.40988555725875
 31
0.0
  0
LINE
  5
373
330
6C
100
AcDbEntity
  8
Visible (ANSI)
100
AcDbLine
 10
51.25842147199268
 20
16.40988555725875
 30
0.0
 11
51.20609557018488
 21
16.37975307443811
 31
0.0
  0
LINE
  5
374
330
6C
100
AcDbEntity
  8
Visible (ANSI)
100
AcDbLine
 10
51.25842147199268
 20
13.26069403236529
 30
0.0
 11
51.20609557018488
 21
13.23056154954465
 31
0.0
  0
LINE
  5
375
330
6C
100
AcDbEntity
  8
Visible (ANSI)
100
AcDbLine
 10
51.25842147199268
 20
13.26069403236529
 30
0.0
 11
51.25842147199268
 21
14.75864475185803
 31
0.0
  0
LINE
  5
376
330
6C
100
AcDbEntity
  8
Visible (ANSI)
100
AcDbLine
 10
49.12896940044907
 20
20.06844032587821
 30
0.0
 11
49.12896940044907
 21
20.08879682387179
 31
0.0
  0
LINE
  5
377
330
6C
100
AcDbEntity
  8
Visible (ANSI)
100
AcDbLine
 10
50.81132860374715
 20
16.82588349744404
 30
0.0
 11
49.26514558404685
 21
19.49595970518369
 31
0.0
  0
LINE
  5
378
330
6C
100
AcDbEntity
  8
Visible (ANSI)
100
AcDbLine
 10
51.25842147199268
 20
16.40988555725875
 30
0.0
 11
51.24028412020893
 21
16.4203301635083
 31
0.0
  0
LINE
  5
379
330
6C
100
AcDbEntity
  8
Visible (ANSI)
100
AcDbLine
 10
46.35286817751029
 20
21.26954213424996
 30
0.0
 11
45.45598144830041
 21
20.75368968270641
 31
0.0
  0
LINE
  5
37A
330
6C
100
AcDbEntity
  8
Visible (ANSI)
100
AcDbLine
 10
46.40519407931808
 20
21.65731471339963
 30
0.0
 11
46.35286817751029
 21
21.62718223057899
 31
0.0
  0
LINE
  5
37B
330
6C
100
AcDbEntity
  8
Visible (ANSI)
100
AcDbLine
 10
47.70079047914733
 20
20.91123036680373
 30
0.0
 11
46.40519407931808
 21
21.65731471339963
 31
0.0
  0
ELLIPSE
  5
37C
330
6C
100
AcDbEntity
  8
Visible (ANSI)
100
AcDbEllipse
 10
46.42729116623103
 20
18.12992369113506
 30
0.0
 11
0.0525231402692617
 21
-0.0912079066542725
 31
0.0
210
0.0
220
0.0
230
1.0
 40
0.5780931159158103
 41
3.928924525409916
 42
4.228035157440329
  0
LINE
  5
37D
330
6C
100
AcDbEntity
  8
Visible Narrow (ANSI)
100
AcDbLine
 10
46.35286817751113
 20
18.17278104001169
 30
0.0
 11
46.39407049338275
 21
18.14905420430934
 31
0.0
  0
LINE
  5
37E
330
6C
100
AcDbEntity
  8
Visible Narrow (ANSI)
100
AcDbLine
 10
46.44200689149629
 20
18.16384764582957
 30
0.0
 11
46.46163251125194
 21
18.17514928860496
 31
0.0
  0
ELLIPSE
  5
37F
330
6C
100
AcDbEntity
  8
Visible (ANSI)
100
AcDbEllipse
 10
48.19969518879151
 20
15.06003496774365
 30
0.0
 11
0.0525231402692635
 21
-0.0912079066542882
 31
0.0
210
0.0
220
0.0
230
1.0
 40
0.5780931159158102
 41
5.275834356549687
 42
5.499720852205022
  0
LINE
  5
380
330
6C
100
AcDbEntity
  8
Visible Narrow (ANSI)
100
AcDbLine
 10
48.19969518879151
 20
15.01045729034582
 30
0.0
 11
48.19969518879151
 21
14.97398813285396
 31
0.0
  0
LINE
  5
381
330
6C
100
AcDbEntity
  8
Visible (ANSI)
100
AcDbLine
 10
46.40519407931894
 20
18.19945317462322
 30
0.0
 11
46.40519407931894
 21
18.15131515489959
 31
0.0
  0
LINE
  5
382
330
6C
100
AcDbEntity
  8
Visible (ANSI)
100
AcDbLine
 10
46.35286817751113
 20
18.20526802115981
 30
0.0
 11
46.35286817751113
 21
18.17278104001169
 31
0.0
  0
LINE
  5
383
330
6C
100
AcDbEntity
  8
Visible (ANSI)
100
AcDbLine
 10
49.09970704492854
 20
20.05005261765232
 30
0.0
 11
49.07664349864131
 21
20.06333403064803
 31
0.0
  0
LINE
  5
384
330
6C
100
AcDbEntity
  8
Visible (ANSI)
100
AcDbLine
 10
49.07664349864131
 20
20.06333403064803
 30
0.0
 11
46.35865164594173
 21
18.49814661908777
 31
0.0
  0
LINE
  5
385
330
6C
100
AcDbEntity
  8
Visible (ANSI)
100
AcDbLine
 10
51.20200271541072
 20
16.39976935296594
 30
0.0
 11
51.20200271541072
 21
16.3821099927502
 31
0.0
  0
LINE
  5
386
330
6C
100
AcDbEntity
  8
Visible (ANSI)
100
AcDbLine
 10
48.25604429846301
 20
15.00203732594789
 30
0.0
 11
48.21327326221499
 21
15.02666752763456
 31
0.0
  0
LINE
  5
387
330
6C
100
AcDbEntity
  8
Visible (ANSI)
100
AcDbLine
 10
48.19969518879151
 20
14.97398813285396
 30
0.0
 11
48.23474819369632
 21
14.95380244982484
 31
0.0
  0
LINE
  5
388
330
6C
100
AcDbEntity
  8
Visible (ANSI)
100
AcDbLine
 10
48.5018618043964
 20
14.827202254833
 30
0.0
 11
51.20200271541072
 21
16.3821099927502
 31
0.0
  0
LINE
  5
389
330
6C
100
AcDbEntity
  8
Visible (ANSI)
100
AcDbLine
 10
49.2516097820382
 20
19.48816495521479
 30
0.0
 11
50.79433213968694
 21
16.81609588473958
 31
0.0
  0
LINE
  5
38A
330
6C
100
AcDbEntity
  8
Visible (ANSI)
100
AcDbLine
 10
47.25687336370108
 20
16.57135896000547
 30
0.0
 11
46.47783907562702
 21
17.92068368825726
 31
0.0
  0
LINE
  5
38B
330
6C
100
AcDbEntity
  8
Visible (ANSI)
100
AcDbLine
 10
48.07789827356681
 20
15.23486224323726
 30
0.0
 11
46.52111085218773
 21
17.93129267827152
 31
0.0
  0
LINE
  5
38C
330
6C
100
AcDbEntity
  8
Visible Narrow (ANSI)
100
AcDbLine
 10
43.94254866982978
 20
19.87815714313388
 30
0.0
 11
44.55866616622989
 21
20.23295561261776
 31
0.0
  0
ELLIPSE
  5
38D
330
6C
100
AcDbEntity
  8
Visible (ANSI)
100
AcDbEllipse
 10
41.78226584509971
 20
18.75558674555394
 30
0.0
 11
0.0525231402692574
 21
-0.0912079066542784
 31
0.0
210
0.0
220
0.0
230
0.9999999999999998
 40
0.578093115915813
 41
5.49972085220503
 42
6.006776952031127
  0
LINE
  5
38E
330
6C
100
AcDbEntity
  8
Visible Narrow (ANSI)
100
AcDbLine
 10
41.78226584509971
 20
18.66953991066426
 30
0.0
 11
41.78226584509971
 21
18.73003839790261
 31
0.0
  0
LINE
  5
38F
330
6C
100
AcDbEntity
  8
Visible Narrow (ANSI)
100
AcDbLine
 10
41.78226584509971
 20
18.73003839790261
 30
0.0
 11
43.27645022733642
 21
19.59048195784338
 31
0.0
  0
LINE
  5
390
330
6C
100
AcDbEntity
  8
Visible Narrow (ANSI)
100
AcDbLine
 10
41.79789084509972
 20
18.72852349660368
 30
0.0
 11
41.8328978024659
 21
18.66788976846339
 31
0.0
  0
ELLIPSE
  5
391
330
6C
100
AcDbEntity
  8
Visible (ANSI)
100
AcDbEllipse
 10
41.78226584509971
 20
18.75558674555394
 30
0.0
 11
0.0155947566120124
 21
-0.0270807323795366
 31
0.0
210
0.0
220
0.0
230
0.9999999999999998
 40
0.578093115915813
 41
5.49972085220503
 42
6.285119015602194
  0
LINE
  5
392
330
6C
100
AcDbEntity
  8
Visible Narrow (ANSI)
100
AcDbLine
 10
43.90464982688895
 20
19.89998163529517
 30
0.0
 11
46.35286817751028
 21
21.30981681906785
 31
0.0
  0
LINE
  5
393
330
6C
100
AcDbEntity
  8
Visible Narrow (ANSI)
100
AcDbLine
 10
46.33107018879039
 20
21.26152514548001
 30
0.0
 11
43.9356807555515
 21
19.8821121119324
 31
0.0
  0
ELLIPSE
  5
394
330
6C
100
AcDbEntity
  8
Visible (ANSI)
100
AcDbEllipse
 10
46.27844518879038
 20
21.35267416794448
 30
0.0
 11
0.0525231402692587
 21
-0.0912079066542807
 31
0.0
210
0.0
220
0.0
230
1.0
 40
0.578093115915813
 41
0.0019337084228859
 42
0.7873318718203759
  0
LINE
  5
395
330
6C
100
AcDbEntity
  8
Visible (ANSI)
100
AcDbLine
 10
43.94254886698823
 20
19.87815702959789
 30
0.0
 11
44.55856430649915
 21
20.23289672842796
 31
0.0
  0
LINE
  5
396
330
6C
100
AcDbEntity
  8
Visible (ANSI)
100
AcDbLine
 10
41.53823556368637
 20
18.87056609084918
 30
0.0
 11
41.78226584509971
 21
18.73003839790261
 31
0.0
  0
LINE
  5
397
330
6C
100
AcDbEntity
  8
Visible (ANSI)
100
AcDbLine
 10
41.50627641588853
 20
18.82847165282373
 30
0.0
 11
41.78226584509971
 21
18.66953991066426
 31
0.0
  0
LINE
  5
398
330
6C
100
AcDbEntity
  8
Visible (ANSI)
100
AcDbLine
 10
46.30054227570247
 20
21.66198440299651
 30
0.0
 11
46.35286817751028
 21
21.63185192017587
 31
0.0
  0
LINE
  5
399
330
6C
100
AcDbEntity
  8
Visible (ANSI)
100
AcDbLine
 10
46.35286817751028
 20
21.63185192017587
 30
0.0
 11
46.35286817751028
 21
21.30981681906785
 31
0.0
  0
LINE
  5
39A
330
6C
100
AcDbEntity
  8
Visible (ANSI)
100
AcDbLine
 10
43.57676695457229
 20
20.0934665134682
 30
0.0
 11
43.57676695457229
 21
20.06844032587772
 31
0.0
  0
LINE
  5
39B
330
6C
100
AcDbEntity
  8
Visible (ANSI)
100
AcDbLine
 10
43.57676695457229
 20
20.0934665134682
 30
0.0
 11
44.89737725678561
 21
20.85395540843972
 31
0.0
  0
LINE
  5
39C
330
6C
100
AcDbEntity
  8
Visible (ANSI)
100
AcDbLine
 10
44.97993197348912
 20
20.90149550802498
 30
0.0
 11
46.30054227570247
 21
21.66198440299651
 31
0.0
  0
LINE
  5
39D
330
6C
100
AcDbEntity
  8
Visible (ANSI)
100
AcDbLine
 10
43.6290928563801
 20
20.0586643410507
 30
0.0
 11
43.6290928563801
 21
20.06333403064758
 31
0.0
  0
LINE
  5
39E
330
6C
100
AcDbEntity
  8
Visible (ANSI)
100
AcDbLine
 10
43.57676695457229
 20
20.0934665134682
 30
0.0
 11
43.6290928563801
 21
20.06333403064758
 31
0.0
  0
LINE
  5
39F
330
6C
100
AcDbEntity
  8
Visible (ANSI)
100
AcDbLine
 10
43.6290928563801
 20
20.06333403064758
 30
0.0
 11
46.35286817751028
 21
21.63185192017588
 31
0.0
  0
LINE
  5
3A0
330
6C
100
AcDbEntity
  8
Visible (ANSI)
100
AcDbLine
 10
44.55866616622989
 20
20.23295561261776
 30
0.0
 11
46.33107018879039
 21
21.26152514548001
 31
0.0
  0
LINE
  5
3A1
330
6C
100
AcDbEntity
  8
Visible (ANSI)
100
AcDbLine
 10
43.35383565202604
 20
19.54591865555016
 30
0.0
 11
42.72508767019612
 21
19.18104077797426
 31
0.0
  0
LINE
  5
3A2
330
6C
100
AcDbEntity
  8
Visible (ANSI)
100
AcDbLine
 10
43.27983565202603
 20
19.58853242142307
 30
0.0
 11
41.79789084509972
 21
18.72852349660368
 31
0.0
  0
LINE
  5
3A3
330
6C
100
AcDbEntity
  8
Visible (ANSI)
100
AcDbLine
 10
44.97993197348914
 20
20.90038241414553
 30
0.0
 11
44.87528016987353
 21
20.90038241414552
 31
0.0
  0
LINE
  5
3A4
330
6C
100
AcDbEntity
  8
Visible (ANSI)
100
AcDbLine
 10
44.87528016987353
 20
20.84123054238369
 30
0.0
 11
44.87528016987353
 21
20.90038241414552
 31
0.0
  0
LINE
  5
3A5
330
6C
100
AcDbEntity
  8
Visible (ANSI)
100
AcDbLine
 10
44.97993197348914
 20
20.85395540843972
 30
0.0
 11
44.97993197348914
 21
20.90038241414553
 31
0.0
  0
LINE
  5
3A6
330
6C
100
AcDbEntity
  8
Visible (ANSI)
100
AcDbLine
 10
44.97993197348912
 20
20.9606473797868
 30
0.0
 11
44.97993197348914
 21
20.90038241414553
 31
0.0
  0
LINE
  5
3A7
330
6C
100
AcDbEntity
  8
Visible (ANSI)
100
AcDbLine
 10
44.87528016987393
 20
19.31913965856145
 30
0.0
 11
44.97993197348954
 21
19.31913965856146
 31
0.0
  0
LINE
  5
3A8
330
6C
100
AcDbEntity
  8
Visible (ANSI)
100
AcDbLine
 10
44.97993197348954
 20
19.31913965856146
 30
0.0
 11
44.97993197348956
 21
19.25887469292019
 31
0.0
  0
LINE
  5
3A9
330
6C
100
AcDbEntity
  8
Visible (ANSI)
100
AcDbLine
 10
47.83045618514739
 20
20.90038241414578
 30
0.0
 11
47.72580438153179
 21
20.90038241414577
 31
0.0
  0
LINE
  5
3AA
330
6C
100
AcDbEntity
  8
Visible (ANSI)
100
AcDbLine
 10
47.72580438153179
 20
20.79818902354045
 30
0.0
 11
47.72580438153179
 21
20.90038241414577
 31
0.0
  0
LINE
  5
3AB
330
6C
100
AcDbEntity
  8
Visible (ANSI)
100
AcDbLine
 10
47.78104709881204
 20
20.79818902354046
 30
0.0
 11
47.72580438153179
 21
20.79818902354045
 31
0.0
  0
LINE
  5
3AC
330
6C
100
AcDbEntity
  8
Visible (ANSI)
100
AcDbLine
 10
47.83045618514739
 20
20.90038241414578
 30
0.0
 11
47.83045618514739
 21
20.83320148814827
 31
0.0
  0
LINE
  5
3AD
330
6C
100
AcDbEntity
  8
Visible (ANSI)
100
AcDbLine
 10
47.72580438153179
 20
20.90038241414577
 30
0.0
 11
47.72580438153176
 21
20.96064737978704
 31
0.0
  0
LINE
  5
3AE
330
6C
100
AcDbEntity
  8
Visible (ANSI)
100
AcDbLine
 10
43.59073231350071
 20
20.16066050057741
 30
0.0
 11
44.87528016987353
 21
20.90038241414552
 31
0.0
  0
LINE
  5
3AF
330
6C
100
AcDbEntity
  8
Visible Narrow (ANSI)
100
AcDbLine
 10
43.59073231350071
 20
20.16066050057741
 30
0.0
 11
43.59073231350071
 21
20.10150862881558
 31
0.0
  0
LINE
  5
3B0
330
6C
100
AcDbEntity
  8
Visible Narrow (ANSI)
100
AcDbLine
 10
46.26447982986195
 20
21.7003692933549
 30
0.0
 11
46.26447982986195
 21
21.64121742159307
 31
0.0
  0
LINE
  5
3B1
330
6C
100
AcDbEntity
  8
Visible (ANSI)
100
AcDbLine
 10
44.97993197348912
 20
20.9606473797868
 30
0.0
 11
46.26447982986195
 21
21.7003692933549
 31
0.0
  0
LINE
  5
3B2
330
6C
100
AcDbEntity
  8
Visible (ANSI)
100
AcDbLine
 10
46.26447982986275
 20
18.51915277935231
 30
0.0
 11
44.97993197348956
 21
19.25887469292019
 31
0.0
  0
LINE
  5
3B3
330
6C
100
AcDbEntity
  8
Visible (ANSI)
100
AcDbLine
 10
44.87528016987393
 20
19.31913965856145
 30
0.0
 11
43.59073231350074
 21
20.05886157212933
 31
0.0
  0
LINE
  5
3B4
330
6C
100
AcDbEntity
  8
Visible Narrow (ANSI)
100
AcDbLine
 10
49.11500404152058
 20
20.1606605005779
 30
0.0
 11
49.11500404152058
 21
20.09683893921923
 31
0.0
  0
LINE
  5
3B5
330
6C
100
AcDbEntity
  8
Visible (ANSI)
100
AcDbLine
 10
47.83045618514739
 20
20.90038241414578
 30
0.0
 11
49.11500404152058
 21
20.1606605005779
 31
0.0
  0
LINE
  5
3B6
330
6C
100
AcDbEntity
  8
Visible (ANSI)
100
AcDbLine
 10
46.44125652515858
 20
21.70036929335492
 30
0.0
 11
47.72580438153176
 21
20.96064737978704
 31
0.0
  0
LINE
  5
3B7
330
6C
100
AcDbEntity
  8
Visible Narrow (ANSI)
100
AcDbLine
 10
46.44125652515858
 20
21.70036929335492
 30
0.0
 11
46.44125652515858
 21
21.63654773199625
 31
0.0
  0
LINE
  5
3B8
330
6C
100
AcDbEntity
  8
Visible (ANSI)
100
AcDbLine
 10
47.72580438153176
 20
20.85845398918172
 30
0.0
 11
47.70079047914733
 21
20.87285853755709
 31
0.0
  0
ELLIPSE
  5
3B9
330
6C
100
AcDbEntity
  8
Visible (ANSI)
100
AcDbEllipse
 10
43.67912066114904
 20
20.10976103635338
 30
0.0
 11
-0.1249999999999992
 21
-0.0000000000000005
 31
0.0
210
0.0
220
0.0
230
1.0
 40
0.5758617009853126
 41
5.497787143782224
 42
7.068583470577149
  0
ELLIPSE
  5
3BA
330
6C
100
AcDbEntity
  8
Visible (ANSI)
100
AcDbEllipse
 10
46.35286817751105
 20
18.57005224357636
 30
0.0
 11
-0.1249999999999992
 21
0.0000000000000069
 31
0.0
210
0.0
220
0.0
230
1.0
 40
0.5758617009853126
 41
0.7853981633978524
 42
2.356194490192743
  0
LINE
  5
3BB
330
6C
100
AcDbEntity
  8
Visible (ANSI)
100
AcDbLine
 10
49.11500404152061
 20
20.05886157212982
 30
0.0
 11
46.44125652515938
 21
18.51915277935232
 31
0.0
  0
ELLIPSE
  5
3BC
330
6C
100
AcDbEntity
  8
Visible (ANSI)
100
AcDbEllipse
 10
49.02661569387229
 20
20.10976103635385
 30
0.0
 11
0.1249999999999981
 21
0.0000000000000005
 31
0.0
210
0.0
220
0.0
230
1.0
 40
0.5758617009853126
 41
5.497787143782319
 42
7.068583470577221
  0
ELLIPSE
  5
3BD
330
6C
100
AcDbEntity
  8
Visible (ANSI)
100
AcDbEllipse
 10
46.35286817751027
 20
21.64946982913087
 30
0.0
 11
0.1249999999999988
 21
-0.0000000000000069
 31
0.0
210
0.0
220
0.0
230
1.0
 40
0.5758617009853128
 41
0.7853981633978302
 42
2.35619449019272
  0
ELLIPSE
  5
3BE
330
6C
100
AcDbEntity
  8
Visible (ANSI)
100
AcDbEllipse
 10
43.0824993145229
 20
20.00756764574801
 30
0.0
 11
-0.3750000000000011
 21
-0.0000000000000015
 31
0.0
210
0.0
220
0.0
230
1.0
 40
0.5758617009853127
 41
0.0000000000000037
 42
0.7853981633975949
  0
LINE
  5
3BF
330
6C
100
AcDbEntity
  8
Visible Narrow (ANSI)
100
AcDbLine
 10
42.81733427157798
 20
19.95706264368118
 30
0.0
 11
42.81733427157798
 21
19.85486925307586
 31
0.0
  0
ELLIPSE
  5
3C0
330
6C
100
AcDbEntity
  8
Visible (ANSI)
100
AcDbEllipse
 10
43.0824993145229
 20
20.10976103635333
 30
0.0
 11
-0.3749999999999994
 21
-0.0000000000000016
 31
0.0
210
0.0
220
0.0
230
1.0
 40
0.5758617009853127
 41
5.49778714378228
 42
7.068583470577173
  0
LINE
  5
3C1
330
6C
100
AcDbEntity
  8
Visible (ANSI)
100
AcDbLine
 10
42.81733427157798
 20
19.85486925307586
 30
0.0
 11
46.08770313456623
 21
17.97158907678661
 31
0.0
  0
LINE
  5
3C2
330
6C
100
AcDbEntity
  8
Visible Narrow (ANSI)
100
AcDbLine
 10
46.08770313456623
 20
18.07378246739193
 30
0.0
 11
46.08770313456623
 21
17.97158907678661
 31
0.0
  0
LINE
  5
3C3
330
6C
100
AcDbEntity
  8
Visible (ANSI)
100
AcDbLine
 10
46.08770313456623
 20
18.07378246739193
 30
0.0
 11
42.81733427157798
 21
19.95706264368118
 31
0.0
  0
ELLIPSE
  5
3C4
330
6C
100
AcDbEntity
  8
Visible (ANSI)
100
AcDbEllipse
 10
46.35286817751114
 20
18.12428746945876
 30
0.0
 11
0.3749999999999977
 21
0.0000000000000238
 31
0.0
210
0.0
220
0.0
230
1.0
 40
0.5758617009853126
 41
3.926990816987144
 42
5.497787143782034
  0
LINE
  5
3C5
330
6C
100
AcDbEntity
  8
Visible Narrow (ANSI)
100
AcDbLine
 10
46.61803322045613
 20
18.07378246739197
 30
0.0
 11
46.61803322045613
 21
17.97158907678666
 31
0.0
  0
ELLIPSE
  5
3C6
330
6C
100
AcDbEntity
  8
Visible (ANSI)
100
AcDbEllipse
 10
46.35286817751114
 20
18.22648086006408
 30
0.0
 11
-0.3749999999999987
 21
0.0000000000000208
 31
0.0
210
0.0
220
0.0
230
1.0
 40
0.5758617009853124
 41
0.7853981633978311
 42
2.356194490192738
  0
LINE
  5
3C7
330
6C
100
AcDbEntity
  8
Visible (ANSI)
100
AcDbLine
 10
46.61803322045613
 20
17.97158907678666
 30
0.0
 11
49.88840208344342
 21
19.85486925307648
 31
0.0
  0
LINE
  5
3C8
330
6C
100
AcDbEntity
  8
Visible Narrow (ANSI)
100
AcDbLine
 10
49.88840208344342
 20
19.9570626436818
 30
0.0
 11
49.88840208344342
 21
19.85486925307648
 31
0.0
  0
LINE
  5
3C9
330
6C
100
AcDbEntity
  8
Visible (ANSI)
100
AcDbLine
 10
49.88840208344342
 20
19.9570626436818
 30
0.0
 11
46.61803322045613
 21
18.07378246739197
 31
0.0
  0
ELLIPSE
  5
3CA
330
6C
100
AcDbEntity
  8
Visible (ANSI)
100
AcDbEllipse
 10
49.62323704049842
 20
20.00756764574858
 30
0.0
 11
0.3750000000000008
 21
0.0000000000000016
 31
0.0
210
0.0
220
0.0
230
1.0
 40
0.5758617009853126
 41
5.497787143782295
 42
6.283185307179589
  0
ELLIPSE
  5
3CB
330
6C
100
AcDbEntity
  8
Visible (ANSI)
100
AcDbEllipse
 10
49.62323704049843
 20
20.1097610363539
 30
0.0
 11
0.3749999999999984
 21
0.0000000000000016
 31
0.0
210
0.0
220
0.0
230
1.0
 40
0.5758617009853127
 41
5.497787143782288
 42
7.068583470577181
  0
LINE
  5
3CC
330
6C
100
AcDbEntity
  8
Visible (ANSI)
100
AcDbLine
 10
46.6180332204551
 20
22.14573960531529
 30
0.0
 11
49.88840208344335
 21
20.26245942902605
 31
0.0
  0
ELLIPSE
  5
3CD
330
6C
100
AcDbEntity
  8
Visible (ANSI)
100
AcDbEllipse
 10
46.35286817751018
 20
21.99304121264315
 30
0.0
 11
0.3749999999999983
 21
-0.0000000000000208
 31
0.0
210
0.0
220
0.0
230
1.0
 40
0.5758617009853127
 41
0.7853981633978453
 42
2.356194490192752
  0
LINE
  5
3CE
330
6C
100
AcDbEntity
  8
Visible (ANSI)
100
AcDbLine
 10
42.81733427157791
 20
20.26245942902543
 30
0.0
 11
46.0877031345652
 21
22.14573960531525
 31
0.0
  0
LINE
  5
3CF
330
6C
100
AcDbEntity
  8
Visible (ANSI)
100
AcDbLine
 10
42.7074993145229
 20
20.10976103635333
 30
0.0
 11
42.7074993145229
 21
20.00756764574801
 31
0.0
  0
LINE
  5
3D0
330
6C
100
AcDbEntity
  8
Visible (ANSI)
100
AcDbLine
 10
49.99823704049842
 20
20.1097610363539
 30
0.0
 11
49.99823704049842
 21
20.00756764574858
 31
0.0
  0
ELLIPSE
  5
3D1
330
6C
100
AcDbEntity
  8
Visible (ANSI)
100
AcDbEllipse
 10
46.35286817751114
 20
18.22648086006407
 30
0.0
 11
-0.1406249999999992
 21
0.0000000000000078
 31
0.0
210
0.0
220
0.0
230
1.0
 40
0.5758617009853124
 41
0.0
 42
6.283185307179586
  0
ELLIPSE
  5
3D2
330
6C
100
AcDbEntity
  8
Visible (ANSI)
100
AcDbEllipse
 10
46.35286817751114
 20
18.12428746945876
 30
0.0
 11
-0.140624999999999
 21
-0.000000000000009
 31
0.0
210
0.0
220
0.0
230
1.0
 40
0.5758617009853126
 41
3.824401853699326
 42
5.600376107069451
  0
ELLIPSE
  5
3D3
330
6C
100
AcDbEntity
  8
Visible (ANSI)
100
AcDbEllipse
 10
49.62323704049843
 20
20.1097610363539
 30
0.0
 11
-0.1406249999999992
 21
0.0000000000000078
 31
0.0
210
0.0
220
0.0
230
1.0
 40
0.5758617009853124
 41
0.0
 42
6.283185307179586
  0
ELLIPSE
  5
3D4
330
6C
100
AcDbEntity
  8
Visible (ANSI)
100
AcDbEllipse
 10
49.62323704049843
 20
20.00756764574858
 30
0.0
 11
-0.1406249999999988
 21
-0.000000000000009
 31
0.0
210
0.0
220
0.0
230
1.0
 40
0.5758617009853127
 41
3.824401853699326
 42
5.600376107069451
  0
ELLIPSE
  5
3D5
330
6C
100
AcDbEntity
  8
Visible (ANSI)
100
AcDbEllipse
 10
43.0824993145229
 20
20.10976103635333
 30
0.0
 11
-0.1406249999999992
 21
0.0000000000000078
 31
0.0
210
0.0
220
0.0
230
1.0
 40
0.5758617009853124
 41
0.0
 42
6.283185307179586
  0
ELLIPSE
  5
3D6
330
6C
100
AcDbEntity
  8
Visible (ANSI)
100
AcDbEllipse
 10
43.0824993145229
 20
20.00756764574801
 30
0.0
 11
-0.1406249999999992
 21
-0.0000000000000089
 31
0.0
210
0.0
220
0.0
230
1.0
 40
0.5758617009853127
 41
3.824401853699326
 42
5.600376107069452
  0
ELLIPSE
  5
3D7
330
6C
100
AcDbEntity
  8
Visible (ANSI)
100
AcDbEllipse
 10
46.35286817751018
 20
21.99304121264315
 30
0.0
 11
-0.1406249999999992
 21
0.0000000000000078
 31
0.0
210
0.0
220
0.0
230
1.0
 40
0.5758617009853124
 41
0.0
 42
6.283185307179586
  0
ELLIPSE
  5
3D8
330
6C
100
AcDbEntity
  8
Visible (ANSI)
100
AcDbEllipse
 10
46.35286817751018
 20
21.89084782203783
 30
0.0
 11
-0.1406249999999995
 21
-0.000000000000009
 31
0.0
210
0.0
220
0.0
230
1.0
 40
0.5758617009853126
 41
3.824401853699347
 42
5.600376107069451
  0
LINE
  5
3D9
330
6C
100
AcDbEntity
  8
Visible (ANSI)
100
AcDbLine
 10
49.88840208344398
 20
12.40807869884282
 30
0.0
 11
49.94072798525177
 21
12.37771269442511
 31
0.0
  0
LINE
  5
3DA
330
6C
100
AcDbEntity
  8
Visible (ANSI)
100
AcDbLine
 10
49.80001373579565
 20
12.45897816306686
 30
0.0
 11
49.88840208344398
 21
12.40807869884282
 31
0.0
  0
LINE
  5
3DB
330
6C
100
AcDbEntity
  8
Visible (ANSI)
100
AcDbLine
 10
49.83607618163619
 20
12.31744772878384
 30
0.0
 11
49.88840208344398
 21
12.40807869884282
 31
0.0
  0
LINE
  5
3DC
330
6C
100
AcDbEntity
  8
Visible (ANSI)
100
AcDbLine
 10
49.77246715356415
 20
12.41126616225661
 30
0.0
 11
49.80001373579565
 21
12.45897816306686
 31
0.0
  0
LINE
  5
3DD
330
6C
100
AcDbEntity
  8
Visible (ANSI)
100
AcDbLine
 10
49.83607618163619
 20
12.31744772878384
 30
0.0
 11
49.77791664888356
 21
12.35093957624326
 31
0.0
  0
LINE
  5
3DE
330
6C
100
AcDbEntity
  8
Visible (ANSI)
100
AcDbLine
 10
51.3136641892729
 20
14.75570400848966
 30
0.0
 11
51.2613382874651
 21
14.78607001290738
 31
0.0
  0
LINE
  5
3DF
330
6C
100
AcDbEntity
  8
Visible (ANSI)
100
AcDbLine
 10
51.17294993981676
 20
14.83696947713141
 30
0.0
 11
51.2613382874651
 21
14.78607001290738
 31
0.0
  0
LINE
  5
3E0
330
6C
100
AcDbEntity
  8
Visible (ANSI)
100
AcDbLine
 10
51.22527584162457
 20
14.8066034727137
 30
0.0
 11
51.17294993981676
 21
14.83696947713141
 31
0.0
  0
LINE
  5
3E1
330
6C
100
AcDbEntity
  8
Visible (ANSI)
100
AcDbLine
 10
51.3136641892729
 20
14.75570400848966
 30
0.0
 11
51.22527584162457
 21
14.8066034727137
 31
0.0
  0
LINE
  5
3E2
330
6C
100
AcDbEntity
  8
Visible (ANSI)
100
AcDbLine
 10
51.2613382874651
 20
14.78607001290738
 30
0.0
 11
51.3136641892729
 21
14.87670098296636
 31
0.0
  0
LINE
  5
3E3
330
6C
100
AcDbEntity
  8
Visible (ANSI)
100
AcDbLine
 10
51.25545054194667
 20
14.9102239929362
 30
0.0
 11
51.3136641892729
 21
14.87670098296636
 31
0.0
  0
LINE
  5
3E4
330
6C
100
AcDbEntity
  8
Visible (ANSI)
100
AcDbLine
 10
51.17294993981676
 20
14.83696947713141
 30
0.0
 11
51.20064607486546
 21
14.88494051058952
 31
0.0
  0
LINE
  5
3E5
330
6C
100
AcDbEntity
  8
Visible (ANSI)
100
AcDbLine
 10
48.46313997761506
 20
13.23519326174077
 30
0.0
 11
48.51546587942286
 21
13.20482725732306
 31
0.0
  0
LINE
  5
3E6
330
6C
100
AcDbEntity
  8
Visible (ANSI)
100
AcDbLine
 10
48.51546587942286
 20
13.20482725732306
 30
0.0
 11
48.46313997761506
 21
13.11419628726408
 31
0.0
  0
LINE
  5
3E7
330
6C
100
AcDbEntity
  8
Visible (ANSI)
100
AcDbLine
 10
51.2252758416246
 20
13.11743460799322
 30
0.0
 11
49.94072798525177
 21
12.37771269442511
 31
0.0
  0
LINE
  5
3E8
330
6C
100
AcDbEntity
  8
Visible Narrow (ANSI)
100
AcDbLine
 10
51.2252758416246
 20
13.11743460799322
 30
0.0
 11
51.16999031218171
 21
13.14927142701807
 31
0.0
  0
LINE
  5
3E9
330
6C
100
AcDbEntity
  8
Visible (ANSI)
100
AcDbLine
 10
49.85254239600593
 20
12.42872891944769
 30
0.0
 11
49.87739635215058
 21
12.44304136090937
 31
0.0
  0
LINE
  5
3EA
330
6C
100
AcDbEntity
  8
Visible Narrow (ANSI)
100
AcDbLine
 10
48.55152832526336
 20
11.57772581521573
 30
0.0
 11
48.49573232695995
 21
11.6098565937069
 31
0.0
  0
LINE
  5
3EB
330
6C
100
AcDbEntity
  8
Visible (ANSI)
100
AcDbLine
 10
49.83607618163619
 20
12.31744772878384
 30
0.0
 11
48.55152832526336
 21
11.57772581521573
 31
0.0
  0
LINE
  5
3EC
330
6C
100
AcDbEntity
  8
Visible (ANSI)
100
AcDbLine
 10
51.3136641892729
 20
16.36187752863344
 30
0.0
 11
51.3136641892729
 21
14.87670098296636
 31
0.0
  0
LINE
  5
3ED
330
6C
100
AcDbEntity
  8
Visible Narrow (ANSI)
100
AcDbLine
 10
51.3136641892729
 20
16.36187752863344
 30
0.0
 11
51.25842147199268
 21
16.39368969377347
 31
0.0
  0
LINE
  5
3EE
330
6C
100
AcDbEntity
  8
Visible (ANSI)
100
AcDbLine
 10
51.22527584162457
 20
14.77773205094203
 30
0.0
 11
51.22527584162457
 21
14.8066034727137
 31
0.0
  0
LINE
  5
3EF
330
6C
100
AcDbEntity
  8
Visible Narrow (ANSI)
100
AcDbLine
 10
51.3136641892729
 20
13.27052746282258
 30
0.0
 11
51.25842147199268
 21
13.30233962796262
 31
0.0
  0
LINE
  5
3F0
330
6C
100
AcDbEntity
  8
Visible (ANSI)
100
AcDbLine
 10
51.3136641892729
 20
14.75570400848966
 30
0.0
 11
51.3136641892729
 21
13.27052746282258
 31
0.0
  0
LINE
  5
3F1
330
6C
100
AcDbEntity
  8
Visible (ANSI)
100
AcDbLine
 10
48.46313997761506
 20
13.23519326174077
 30
0.0
 11
48.46313997761506
 21
14.72036980740785
 31
0.0
  0
LINE
  5
3F2
330
6C
100
AcDbEntity
  8
Visible (ANSI)
100
AcDbLine
 10
48.46313997761506
 20
11.629019741597
 30
0.0
 11
48.46313997761506
 21
13.11419628726408
 31
0.0
  0
ELLIPSE
  5
3F3
330
6C
100
AcDbEntity
  8
Visible (ANSI)
100
AcDbEllipse
 10
51.2252758416246
 20
13.21962799859854
 30
0.0
 11
-0.0623790264480288
 21
-0.1083229295181592
 31
0.0
210
0.0
220
0.0
230
1.0
 40
0.5780931159156385
 41
0.7834644549745847
 42
2.354260781769495
  0
ELLIPSE
  5
3F4
330
6C
100
AcDbEntity
  8
Visible (ANSI)
100
AcDbEllipse
 10
51.2252758416246
 20
16.31097806440939
 30
0.0
 11
0.0623790264480224
 21
0.1083229295181629
 31
0.0
210
0.0
220
0.0
230
0.9999999999999998
 40
0.5780931159156385
 41
5.495853435359073
 42
7.066649762153998
  0
LINE
  5
3F5
330
6C
100
AcDbEntity
  8
Visible (ANSI)
100
AcDbLine
 10
48.55152832526336
 20
14.87346266223722
 30
0.0
 11
51.2252758416246
 21
16.41317145501471
 31
0.0
  0
ELLIPSE
  5
3F6
330
6C
100
AcDbEntity
  8
Visible (ANSI)
100
AcDbEllipse
 10
48.55152832526336
 20
14.7712692716319
 30
0.0
 11
0.0623790264480283
 21
0.1083229295181582
 31
0.0
210
0.0
220
0.0
230
1.0
 40
0.5780931159156385
 41
0.7834644549745838
 42
2.354260781769516
  0
ELLIPSE
  5
3F7
330
6C
100
AcDbEntity
  8
Visible (ANSI)
100
AcDbEllipse
 10
48.55152832526336
 20
11.67991920582105
 30
0.0
 11
-0.0623790264480222
 21
-0.1083229295181626
 31
0.0
210
0.0
220
0.0
230
1.0
 40
0.5780931159156384
 41
5.495853435359122
 42
7.066649762153997
  0
ELLIPSE
  5
3F8
330
6C
100
AcDbEntity
  8
Visible (ANSI)
100
AcDbEllipse
 10
51.52358651493763
 20
13.04651099706175
 30
0.0
 11
-0.1871370793440874
 21
-0.324968788554479
 31
0.0
210
0.0
220
0.0
230
1.0
 40
0.5780931159156385
 41
0.7834644549746522
 42
2.354260781769548
  0
LINE
  5
3F9
330
6C
100
AcDbEntity
  8
Visible (ANSI)
100
AcDbLine
 10
51.78875155788254
 20
16.98036484213065
 30
0.0
 11
51.78875155788254
 21
13.19920938973391
 31
0.0
  0
ELLIPSE
  5
3FA
330
6C
100
AcDbEntity
  8
Visible (ANSI)
100
AcDbEllipse
 10
51.43519816728929
 20
16.87856591368254
 30
0.0
 11
0.187137079344068
 21
0.3249687885544908
 31
0.0
210
0.0
220
0.0
230
0.9999999999999998
 40
0.5780931159156385
 41
0.0000000000000062
 42
0.7834644549744101
  0
LINE
  5
3FB
330
6C
100
AcDbEntity
  8
Visible Narrow (ANSI)
100
AcDbLine
 10
51.52358651493763
 20
17.13424662127446
 30
0.0
 11
51.43519816728929
 21
17.18514608549849
 31
0.0
  0
ELLIPSE
  5
3FC
330
6C
100
AcDbEntity
  8
Visible (ANSI)
100
AcDbEllipse
 10
51.52358651493763
 20
16.8276664494585
 30
0.0
 11
0.1871370793440675
 21
0.3249687885544896
 31
0.0
210
0.0
220
0.0
230
0.9999999999999998
 40
0.5780931159156384
 41
5.495853435359103
 42
7.066649762153997
  0
LINE
  5
3FD
330
6C
100
AcDbEntity
  8
Visible (ANSI)
100
AcDbLine
 10
51.43519816728929
 20
17.18514608549849
 30
0.0
 11
48.16482930430201
 21
15.30186590920867
 31
0.0
  0
LINE
  5
3FE
330
6C
100
AcDbEntity
  8
Visible Narrow (ANSI)
100
AcDbLine
 10
48.25321765195034
 20
15.25096644498464
 30
0.0
 11
48.16482930430201
 21
15.30186590920867
 31
0.0
  0
LINE
  5
3FF
330
6C
100
AcDbEntity
  8
Visible (ANSI)
100
AcDbLine
 10
48.25321765195034
 20
15.25096644498464
 30
0.0
 11
51.52358651493763
 21
17.13424662127446
 31
0.0
  0
ELLIPSE
  5
400
330
6C
100
AcDbEntity
  8
Visible (ANSI)
100
AcDbEllipse
 10
48.16482930430201
 20
14.99528573739272
 30
0.0
 11
-0.187137079344048
 21
-0.3249687885545005
 31
0.0
210
0.0
220
0.0
230
1.0
 40
0.5780931159156384
 41
3.925057108563965
 42
5.495853435358869
  0
LINE
  5
401
330
6C
100
AcDbEntity
  8
Visible Narrow (ANSI)
100
AcDbLine
 10
47.98805260900542
 20
14.79168788049654
 30
0.0
 11
47.89966426135709
 21
14.84258734472057
 31
0.0
  0
ELLIPSE
  5
402
330
6C
100
AcDbEntity
  8
Visible (ANSI)
100
AcDbEllipse
 10
48.25321765195034
 20
14.94438627316868
 30
0.0
 11
0.1871370793440869
 21
0.3249687885544781
 31
0.0
210
0.0
220
0.0
230
1.0
 40
0.5780931159156384
 41
0.7834644549746522
 42
2.354260781769541
  0
LINE
  5
403
330
6C
100
AcDbEntity
  8
Visible (ANSI)
100
AcDbLine
 10
47.89966426135709
 20
14.84258734472057
 30
0.0
 11
47.89966426135709
 21
11.06143189232382
 31
0.0
  0
LINE
  5
404
330
6C
100
AcDbEntity
  8
Visible Narrow (ANSI)
100
AcDbLine
 10
47.98805260900542
 20
11.01053242809979
 30
0.0
 11
47.89966426135709
 21
11.06143189232382
 31
0.0
  0
LINE
  5
405
330
6C
100
AcDbEntity
  8
Visible (ANSI)
100
AcDbLine
 10
47.98805260900542
 20
11.01053242809979
 30
0.0
 11
47.98805260900542
 21
14.79168788049654
 31
0.0
  0
ELLIPSE
  5
406
330
6C
100
AcDbEntity
  8
Visible (ANSI)
100
AcDbEllipse
 10
48.16482930430201
 20
11.21413028499597
 30
0.0
 11
-0.187137079344068
 21
-0.3249687885544902
 31
0.0
210
0.0
220
0.0
230
1.0
 40
0.5780931159156385
 41
5.495853435359103
 42
6.283185307179596
  0
ELLIPSE
  5
407
330
6C
100
AcDbEntity
  8
Visible (ANSI)
100
AcDbEllipse
 10
48.25321765195034
 20
11.16323082077194
 30
0.0
 11
-0.1871370793440674
 21
-0.3249687885544894
 31
0.0
210
0.0
220
0.0
230
1.0
 40
0.5780931159156384
 41
5.495853435359103
 42
7.066649762153997
  0
LINE
  5
408
330
6C
100
AcDbEntity
  8
Visible (ANSI)
100
AcDbLine
 10
51.52358651493763
 20
12.73993082524581
 30
0.0
 11
48.25321765195034
 21
10.85665064895598
 31
0.0
  0
LINE
  5
409
330
6C
100
AcDbEntity
  8
Visible (ANSI)
100
AcDbLine
 10
51.71072359428169
 20
17.15263523801299
 30
0.0
 11
51.62233524663337
 21
17.20353470223703
 31
0.0
  0
LINE
  5
40A
330
6C
100
AcDbEntity
  8
Visible (ANSI)
100
AcDbLine
 10
48.06608057260627
 20
10.83826203221745
 30
0.0
 11
47.97769222495793
 21
10.88916149644148
 31
0.0
  0
ELLIPSE
  5
40B
330
6C
100
AcDbEntity
  8
Visible (ANSI)
100
AcDbEllipse
 10
51.52358651493763
 20
16.8276664494585
 30
0.0
 11
0.0701764047540253
 21
0.1218632957079334
 31
0.0
210
0.0
220
0.0
230
1.0
 40
0.5780931159156385
 41
0.0
 42
6.283185307179586
  0
ELLIPSE
  5
40C
330
6C
100
AcDbEntity
  8
Visible (ANSI)
100
AcDbEllipse
 10
51.43519816728929
 20
16.87856591368254
 30
0.0
 11
0.0701764047540179
 21
0.1218632957079376
 31
0.0
210
0.0
220
0.0
230
0.9999999999999998
 40
0.5780931159156387
 41
3.819709301184824
 42
5.605068659584052
  0
ELLIPSE
  5
40D
330
6C
100
AcDbEntity
  8
Visible (ANSI)
100
AcDbEllipse
 10
48.25321765195034
 20
14.94438627316868
 30
0.0
 11
0.0701764047540253
 21
0.1218632957079334
 31
0.0
210
0.0
220
0.0
230
1.0
 40
0.5780931159156385
 41
0.0
 42
6.283185307179586
  0
ELLIPSE
  5
40E
330
6C
100
AcDbEntity
  8
Visible (ANSI)
100
AcDbEllipse
 10
48.16482930430201
 20
14.99528573739272
 30
0.0
 11
0.0701764047540178
 21
0.1218632957079373
 31
0.0
210
0.0
220
0.0
230
0.9999999999999998
 40
0.5780931159156385
 41
3.819709301184824
 42
5.605068659583999
  0
ELLIPSE
  5
40F
330
6C
100
AcDbEntity
  8
Visible (ANSI)
100
AcDbEllipse
 10
51.52358651493763
 20
13.04651099706175
 30
0.0
 11
0.0701764047540253
 21
0.1218632957079334
 31
0.0
210
0.0
220
0.0
230
1.0
 40
0.5780931159156385
 41
0.0
 42
6.283185307179586
  0
ELLIPSE
  5
410
330
6C
100
AcDbEntity
  8
Visible (ANSI)
100
AcDbEllipse
 10
51.43519816728929
 20
13.09741046128579
 30
0.0
 11
0.0701764047540179
 21
0.1218632957079376
 31
0.0
210
0.0
220
0.0
230
0.9999999999999998
 40
0.5780931159156387
 41
3.819709301184824
 42
5.605068659583998
  0
ELLIPSE
  5
411
330
6C
100
AcDbEntity
  8
Visible (ANSI)
100
AcDbEllipse
 10
48.25321765195034
 20
11.16323082077194
 30
0.0
 11
0.0701764047540253
 21
0.1218632957079334
 31
0.0
210
0.0
220
0.0
230
1.0
 40
0.5780931159156385
 41
0.0
 42
6.283185307179586
  0
ELLIPSE
  5
412
330
6C
100
AcDbEntity
  8
Visible (ANSI)
100
AcDbEllipse
 10
48.16482930430201
 20
11.21413028499597
 30
0.0
 11
0.0701764047540182
 21
0.1218632957079379
 31
0.0
210
0.0
220
0.0
230
0.9999999999999998
 40
0.5780931159156385
 41
3.819709301184825
 42
5.605068659583999
  0
LINE
  5
413
330
6C
100
AcDbEntity
  8
Visible (ANSI)
100
AcDbLine
 10
41.48046051339685
 20
17.25625093543946
 30
0.0
 11
41.49150905685288
 21
17.2498391946418
 31
0.0
  0
LINE
  5
414
330
6C
100
AcDbEntity
  8
Visible (ANSI)
100
AcDbLine
 10
41.49150905685288
 20
17.15439056781643
 30
0.0
 11
41.48046051339686
 21
17.13525396096276
 31
0.0
  0
LINE
  5
415
330
6C
100
AcDbEntity
  8
Visible (ANSI)
100
AcDbLine
 10
41.48046051339685
 20
17.25625093543946
 30
0.0
 11
41.48046051339686
 21
18.74142748110653
 31
0.0
  0
LINE
  5
416
330
6C
100
AcDbEntity
  8
Visible (ANSI)
100
AcDbLine
 10
41.48046051339685
 20
15.65007741529569
 30
0.0
 11
41.48046051339686
 21
17.13525396096276
 31
0.0
  0
LINE
  5
417
330
6C
100
AcDbEntity
  8
Visible (ANSI)
100
AcDbLine
 10
41.56884886104515
 20
18.8945203359359
 30
0.0
 11
43.02692798527862
 21
19.73417226058841
 31
0.0
  0
ELLIPSE
  5
418
330
6C
100
AcDbEntity
  8
Visible (ANSI)
100
AcDbEllipse
 10
41.56884886104515
 20
18.79232694533058
 30
0.0
 11
0.0623790264480289
 21
0.1083229295181577
 31
0.0
210
0.0
220
0.0
230
0.9999999999999996
 40
0.5780931159156381
 41
0.7834644549745926
 42
2.354260781769523
  0
ELLIPSE
  5
419
330
6C
100
AcDbEntity
  8
Visible (ANSI)
100
AcDbEllipse
 10
41.56884886104515
 20
15.70097687951974
 30
0.0
 11
-0.0623790264480234
 21
-0.1083229295181631
 31
0.0
210
0.0
220
0.0
230
1.0
 40
0.578093115915638
 41
5.495853435359144
 42
6.759547398134015
  0
ELLIPSE
  5
41A
330
6C
100
AcDbEntity
  8
Visible (ANSI)
100
AcDbEllipse
 10
44.45251870307109
 20
20.89962358738124
 30
0.0
 11
-0.1871370793440379
 21
-0.3249687885544783
 31
0.0
210
0.0
220
0.0
230
0.9999999999999998
 40
0.5780931159156381
 41
3.8078269030627
 42
3.925057108563938
  0
LINE
  5
41B
330
6C
100
AcDbEntity
  8
Visible Narrow (ANSI)
100
AcDbLine
 10
44.45434574072915
 20
21.20515163818363
 30
0.0
 11
44.45251870307109
 21
21.20620375919717
 31
0.0
  0
LINE
  5
41C
330
6C
100
AcDbEntity
  8
Visible (ANSI)
100
AcDbLine
 10
44.45251870307109
 20
21.20620375919717
 30
0.0
 11
41.1821498400838
 21
19.32292358290735
 31
0.0
  0
LINE
  5
41D
330
6C
100
AcDbEntity
  8
Visible Narrow (ANSI)
100
AcDbLine
 10
41.27053818773212
 20
19.27202411868331
 30
0.0
 11
41.1821498400838
 21
19.32292358290735
 31
0.0
  0
LINE
  5
41E
330
6C
100
AcDbEntity
  8
Visible (ANSI)
100
AcDbLine
 10
41.27053818773212
 20
19.27202411868331
 30
0.0
 11
42.70749931452288
 21
20.09951499740705
 31
0.0
  0
ELLIPSE
  5
41F
330
6C
100
AcDbEntity
  8
Visible (ANSI)
100
AcDbEllipse
 10
41.1821498400838
 20
19.01634341109139
 30
0.0
 11
-0.1871370793440497
 21
-0.3249687885544988
 31
0.0
210
0.0
220
0.0
230
0.9999999999999998
 40
0.5780931159156379
 41
3.925057108563972
 42
5.495853435358865
  0
LINE
  5
420
330
6C
100
AcDbEntity
  8
Visible Narrow (ANSI)
100
AcDbLine
 10
41.00537314478721
 20
18.81274555419521
 30
0.0
 11
40.91698479713889
 21
18.86364501841925
 31
0.0
  0
ELLIPSE
  5
421
330
6C
100
AcDbEntity
  8
Visible (ANSI)
100
AcDbEllipse
 10
41.27053818773212
 20
18.96544394686736
 30
0.0
 11
0.1871370793440887
 21
0.3249687885544764
 31
0.0
210
0.0
220
0.0
230
0.9999999999999998
 40
0.578093115915638
 41
0.7834644549746601
 42
2.354260781769555
  0
LINE
  5
422
330
6C
100
AcDbEntity
  8
Visible (ANSI)
100
AcDbLine
 10
40.91698479713889
 20
18.86364501841925
 30
0.0
 11
40.91698479713887
 21
15.08248956602251
 31
0.0
  0
LINE
  5
423
330
6C
100
AcDbEntity
  8
Visible Narrow (ANSI)
100
AcDbLine
 10
41.00537314478721
 20
15.03159010179848
 30
0.0
 11
40.91698479713887
 21
15.08248956602251
 31
0.0
  0
LINE
  5
424
330
6C
100
AcDbEntity
  8
Visible (ANSI)
100
AcDbLine
 10
41.00537314478721
 20
15.03159010179848
 30
0.0
 11
41.00537314478721
 21
18.81274555419521
 31
0.0
  0
ELLIPSE
  5
425
330
6C
100
AcDbEntity
  8
Visible (ANSI)
100
AcDbEllipse
 10
41.18214984008379
 20
15.23518795869466
 30
0.0
 11
-0.1871370793440698
 21
-0.3249687885544886
 31
0.0
210
0.0
220
0.0
230
0.9999999999999998
 40
0.578093115915638
 41
5.495853435359117
 42
6.283185307179602
  0
ELLIPSE
  5
426
330
6C
100
AcDbEntity
  8
Visible (ANSI)
100
AcDbEllipse
 10
41.27053818773212
 20
15.18428849447063
 30
0.0
 11
-0.1871370793440692
 21
-0.3249687885544877
 31
0.0
210
0.0
220
0.0
230
0.9999999999999998
 40
0.578093115915638
 41
5.49585343535911
 42
7.066649762154005
  0
LINE
  5
427
330
6C
100
AcDbEntity
  8
Visible (ANSI)
100
AcDbLine
 10
42.02320894970354
 20
15.31114258792559
 30
0.0
 11
41.27053818773212
 21
14.87770832265468
 31
0.0
  0
LINE
  5
428
330
6C
100
AcDbEntity
  8
Visible (ANSI)
100
AcDbLine
 10
41.08340110838805
 20
14.85931970591614
 30
0.0
 11
40.99501276073972
 21
14.91021917014017
 31
0.0
  0
ELLIPSE
  5
429
330
6C
100
AcDbEntity
  8
Visible (ANSI)
100
AcDbEllipse
 10
41.27053818773212
 20
18.96544394686736
 30
0.0
 11
0.0701764047540259
 21
0.1218632957079328
 31
0.0
210
0.0
220
0.0
230
1.0
 40
0.5780931159156379
 41
0.0
 42
6.283185307179586
  0
ELLIPSE
  5
42A
330
6C
100
AcDbEntity
  8
Visible (ANSI)
100
AcDbEllipse
 10
41.1821498400838
 20
19.01634341109139
 30
0.0
 11
0.0701764047540186
 21
0.121863295707937
 31
0.0
210
0.0
220
0.0
230
0.9999999999999996
 40
0.5780931159156379
 41
3.819709301184833
 42
5.605068659584006
  0
ELLIPSE
  5
42B
330
6C
100
AcDbEntity
  8
Visible (ANSI)
100
AcDbEllipse
 10
41.27053818773212
 20
15.18428849447063
 30
0.0
 11
0.0701764047540259
 21
0.1218632957079328
 31
0.0
210
0.0
220
0.0
230
1.0
 40
0.5780931159156379
 41
0.0
 42
6.283185307179586
  0
ELLIPSE
  5
42C
330
6C
100
AcDbEntity
  8
Visible (ANSI)
100
AcDbEllipse
 10
41.18214984008379
 20
15.23518795869466
 30
0.0
 11
0.0701764047540187
 21
0.1218632957079371
 31
0.0
210
0.0
220
0.0
230
0.9999999999999998
 40
0.578093115915638
 41
3.819709301184833
 42
5.605068659584006
  0
MTEXT
  5
42D
330
6C
100
AcDbEntity
  8
Symbol (ANSI)
100
AcDbMText
 10
46.22917288282264
 20
9.104330220694047
 30
0.0
 40
0.5759999883456493
 41
0.0
 46
0.0
 71
     7
 72
     1
  1
 
  7
Label Text (ANSI)
 73
     1
 44
1.0
  0
DIMENSION
  5
42E
330
6C
100
AcDbEntity
  8
Dimension (ANSI)
100
AcDbDimension
280
     0
  2
*D5
 10
6.441997876415006
 20
30.39092716265577
 30
0.0
 11
6.441997876415
 21
28.39092716265577
 31
0.0
 70
   160
  1
<>{\PTYP.}
 71
     5
 42
4.000000000000003
 73
     0
 74
     0
 75
     0
  3
Default (ANSI)
100
AcDbAlignedDimension
 13
7.853321531896034
 23
26.39092716265577
 33
0.0
 14
7.853321531896034
 24
30.39092716265577
 34
0.0
 50
270.0
100
AcDbRotatedDimension
1001
ACAD
1000
DSTYLE
1002
{
1070
   289
1070
     1
1070
   271
1070
     2
1070
   272
1070
     2
1070
    48
1040
0.0
1070
    47
1040
0.0
1002
}
  0
DIMENSION
  5
52C
330
6C
100
AcDbEntity
  8
Dimension (ANSI)
100
AcDbDimension
280
     0
  2
*D6
 10
7.790821531892405
 20
8.542293484030398
 30
0.0
 11
5.604874767819818
 21
8.542293484030398
 31
0.0
 70
   160
  1
{10 GA. 304\PS.S. (3 PL.)\P}(<>)
 71
     5
 42
0.1249999999999991
 73
     0
 74
     0
 75
     0
  3
Default (ANSI)
100
AcDbAlignedDimension
 13
7.915821531892405
 23
10.0127056938366
 33
0.0
 14
7.790821531892405
 24
10.0127056938366
 34
0.0
 50
180.0
100
AcDbRotatedDimension
1001
ACAD
1000
DSTYLE
1002
{
1070
   289
1070
     1
1070
    73
1070
     0
1070
    74
1070
     0
1070
   271
1070
     3
1070
   147
1040
0.031496062992126
1070
    72
1070
     0
1070
    71
1070
     0
1070
   272
1070
     2
1070
    48
1040
0.0
1070
    47
1040
0.0
1002
}
  0
MTEXT
  5
634
102
{ACAD_REACTORS
330
636
102
}
330
6C
100
AcDbEntity
  8
Symbol (ANSI)
100
AcDbMText
 10
16.40820740151037
 20
24.09100497088055
 30
0.0
 40
0.3200000102125753
 41
5.537636223740467
 46
0.0
 71
     4
 72
     1
  1
{\fRomanS|b0|i0;\H0.3200;FOR DETAIL LAYOUT\POF SSJW RING, SEE\PFLAT PATTERN LAYOUT}
  7
ROMANS
 73
     2
 44
1.093904256820678
  0
LEADER
  5
636
330
6C
100
AcDbEntity
  8
Symbol (ANSI)
100
AcDbLeader
  3
Default (ANSI)$7
 73
     0
 74
     0
 75
     1
 40
1.593497924797423
 41
5.402785670403391
 76
     3
 10
14.53428571415825
 20
25.70342716265669
 30
0.0
 10
15.99245937714809
 20
24.09100497088055
 30
0.0
 10
16.30741999993556
 20
24.09100497088055
 30
0.0
340
634
1001
ACAD
1000
DSTYLE
1002
{
1070
    77
1070
     0
1002
}
  0
DIMENSION
  5
637
330
6C
100
AcDbEntity
  8
Dimension (ANSI)
100
AcDbDimension
280
     0
  2
*D7
 10
28.17625389037449
 20
8.025809716829757
 30
0.0
 11
30.86375389037448
 21
8.025809716829757
 31
0.0
 70
   160
  1
(<>)
 42
5.374999999999982
 73
     0
 74
     0
 75
     0
  3
Default (ANSI)
100
AcDbAlignedDimension
 13
33.55125389037448
 23
10.3877056938366
 33
0.0
 14
28.17625389037449
 24
10.38770569383659
 34
0.0
100
AcDbRotatedDimension
1001
ACAD
1000
DSTYLE
1002
{
1070
   289
1070
     1
1070
    73
1070
     0
1070
    74
1070
     0
1070
   271
1070
     2
1070
   147
1040
0.031496062992126
1070
    72
1070
     0
1070
    71
1070
     0
1070
   272
1070
     2
1070
    48
1040
0.0
1070
    47
1040
0.0
1002
}
  0
LINE
  5
72B
330
6C
100
AcDbEntity
  8
Centerline (ANSI)
  6
CHAIN
 48
0.9524481296539306
100
AcDbLine
 10
30.86375389037449
 20
15.41270569383659
 30
0.0
 11
30.86375389037449
 21
9.987705693836593
 31
0.0
  0
LINE
  5
72C
330
6C
100
AcDbEntity
  8
Centerline (ANSI)
  6
CHAIN
 48
0.9524481296539306
100
AcDbLine
 10
28.15125389037449
 20
12.70020569383659
 30
0.0
 11
33.57625389037448
 21
12.7002056938366
 31
0.0
  0
DIMENSION
  5
72D
330
6C
100
AcDbEntity
  8
Dimension (ANSI)
100
AcDbDimension
280
     0
  2
*D8
 10
30.86375389037449
 20
9.074964245636325
 30
0.0
 11
32.14693473994542
 21
9.074964245636325
 31
0.0
 70
   160
  1
(<>)
 42
2.687499999999989
 73
     0
 74
     0
 75
     0
  3
Default (ANSI)
100
AcDbAlignedDimension
 13
33.55125389037448
 23
10.3877056938366
 33
0.0
 14
30.86375389037449
 24
9.987705693836593
 34
0.0
100
AcDbRotatedDimension
1001
ACAD
1000
DSTYLE
1002
{
1070
   289
1070
     1
1070
    73
1070
     0
1070
    74
1070
     0
1070
   271
1070
     2
1070
   147
1040
0.031496062992126
1070
    72
1070
     0
1070
    71
1070
     0
1070
   272
1070
     2
1070
    48
1040
0.0
1070
    47
1040
0.0
1002
}
  0
DIMENSION
  5
821
330
6C
100
AcDbEntity
  8
Dimension (ANSI)
100
AcDbDimension
280
     0
  2
*D9
 10
33.67051254630218
 20
15.38770569383659
 30
0.0
 11
34.77197486659668
 21
16.74285605178575
 31
0.0
 70
   160
  1
(<>){\PTYP.}
 71
     5
 42
0.7615000000000407
 73
     0
 74
     0
 75
     0
  3
Default (ANSI)
100
AcDbAlignedDimension
 13
32.78975389037441
 23
14.62620569383655
 33
0.0
 14
33.17625389037448
 24
15.38770569383659
 34
0.0
 50
90.0
100
AcDbRotatedDimension
1001
ACAD
1000
DSTYLE
1002
{
1070
   289
1070
     1
1070
   271
1070
     2
1070
   147
1040
0.031496062992126
1070
    72
1070
     0
1070
    71
1070
     0
1070
   272
1070
     2
1070
    48
1040
0.0
1070
    47
1040
0.0
1002
}
  0
DIMENSION
  5
93D
330
6C
100
AcDbEntity
  8
Dimension (ANSI)
100
AcDbDimension
280
     0
  2
*D10
 10
25.63016327190812
 20
10.01270569383659
 30
0.0
 11
25.63016327190811
 21
12.78538879873273
 31
0.0
 70
   160
  1
(<>)
 42
5.375000000000001
 73
     0
 74
     0
 75
     0
  3
Default (ANSI)
100
AcDbAlignedDimension
 13
28.5512538903745
 23
15.38770569383659
 33
0.0
 14
28.5512538903745
 24
10.01270569383659
 34
0.0
 50
90.0
100
AcDbRotatedDimension
1001
ACAD
1000
DSTYLE
1002
{
1070
   289
1070
     1
1070
   271
1070
     2
1070
   147
1040
0.031496062992126
1070
    72
1070
     0
1070
    71
1070
     0
1070
   272
1070
     2
1070
    48
1040
0.0
1070
    47
1040
0.0
1002
}
  0
DIMENSION
  5
A31
330
6C
100
AcDbEntity
  8
Dimension (ANSI)
100
AcDbDimension
280
     0
  2
*D11
 10
27.13992229071178
 20
12.70020569383659
 30
0.0
 11
27.13992229071177
 21
14.04395569383659
 31
0.0
 70
   160
  1
(<>)
 42
2.687500000000001
 73
     0
 74
     0
 75
     0
  3
Default (ANSI)
100
AcDbAlignedDimension
 13
28.5512538903745
 23
15.38770569383659
 33
0.0
 14
28.15125389037449
 24
12.70020569383659
 34
0.0
 50
90.0
100
AcDbRotatedDimension
1001
ACAD
1000
DSTYLE
1002
{
1070
   289
1070
     1
1070
   271
1070
     2
1070
   147
1040
0.031496062992126
1070
    72
1070
     0
1070
    71
1070
     0
1070
   272
1070
     2
1070
    48
1040
0.0
1070
    47
1040
0.0
1002
}
  0
MTEXT
  5
B25
102
{ACAD_XDICTIONARY
360
119D
102
}
330
6C
100
AcDbEntity
  8
Symbol (ANSI)
100
AcDbMText
 10
23.69236181190109
 20
29.70320674343453
 30
0.0
 40
0.3200000102125753
 41
23.47993475599085
 46
0.0
 71
     4
 72
     1
  3
{\fRomanS|b0|i0|c0|p2;\H1.95x;PART#: SSJWT4\P(DATA SUBJECT TO CHANGE WITHOUT NOTICE)\H1.8838x; \H0.53084x;\P\H0.51282x; \H2.4865x; \H0.40217x;\PTHIS DRAWING IS PROPERTY OF hUBBELL INC. WEIGMANN\H1.7129x; \H0.58382x;\PALL INFORMATION IS PROPRIETARY AN
  1
D NOT TO BE DUPLICATED\H1.6009x; \H0.62466x;\P\H1.5846x; \H0.63106x;\P\H1.5823x; }
  7
Note Text (ANSI)
 73
     1
 44
0.6414121389389038
  0
LINE
  5
B26
330
6C
100
AcDbEntity
  8
Centerline (ANSI)
  6
CHAIN
 48
0.9524481296539306
100
AcDbLine
 10
12.79082153189241
 20
18.3116000382661
 30
0.0
 11
12.7908215318924
 21
9.987705693836593
 31
0.0
  0
LINE
  5
B27
330
6C
100
AcDbEntity
  8
Centerline (ANSI)
  6
CHAIN
 48
0.9524481296539306
100
AcDbLine
 10
20.28375871108459
 20
12.70020569383659
 30
0.0
 11
7.390821531892407
 21
12.70020569383659
 31
0.0
  0
DIMENSION
  5
B28
330
6C
100
AcDbEntity
  8
Dimension (ANSI)
100
AcDbDimension
280
     0
  2
*D12
 10
4.817860505365091
 20
17.6887056938366
 30
0.0
 11
4.817860505365088
 21
15.2002056938366
 31
0.0
 70
   160
  1
<>
 42
6.988500000000001
 73
     0
 74
     0
 75
     0
  3
Default (ANSI)
100
AcDbAlignedDimension
 13
7.853321531892405
 23
10.7002056938366
 33
0.0
 14
10.10332153189237
 24
17.6887056938366
 34
0.0
 50
90.0
100
AcDbRotatedDimension
1001
ACAD
1000
DSTYLE
1002
{
1070
   289
1070
     1
1070
   271
1070
     1
1070
   272
1070
     1
1070
    48
1040
0.0
1070
    47
1040
0.0
1002
}
  0
DIMENSION
  5
C12
330
6C
100
AcDbEntity
  8
Dimension (ANSI)
100
AcDbDimension
280
     0
  2
*D13
 10
12.79082153189241
 20
19.3478326047862
 30
0.0
 11
11.79082153189239
 21
19.3478326047862
 31
0.0
 70
   160
  1
<>
 42
2.000000000000039
 73
     0
 74
     0
 75
     0
  3
Default (ANSI)
100
AcDbAlignedDimension
 13
10.79082153189237
 23
17.56370569383659
 33
0.0
 14
12.79082153189241
 24
18.3116000382661
 34
0.0
 50
180.0
100
AcDbRotatedDimension
1001
ACAD
1000
DSTYLE
1002
{
1070
   147
1040
1.797693134862314E+99
1070
    73
1070
     0
1070
    74
1070
     0
1070
   271
1070
     2
1070
   272
1070
     2
1070
    48
1040
0.0
1070
    47
1040
0.0
1002
}
  0
DIMENSION
  5
CFC
330
6C
100
AcDbEntity
  8
Dimension (ANSI)
100
AcDbDimension
280
     0
  2
*D14
 10
14.79082153189245
 20
20.27495512577791
 30
0.0
 11
12.68797922824431
 21
20.27495512577791
 31
0.0
 70
   160
  1
<>
 42
4.000000000000081
 73
     0
 74
     0
 75
     0
  3
Default (ANSI)
100
AcDbAlignedDimension
 13
10.79082153189236
 23
17.63191752310607
 33
0.0
 14
14.79082153189245
 24
17.63191752310611
 34
0.0
 50
180.0
100
AcDbRotatedDimension
1001
ACAD
1000
DSTYLE
1002
{
1070
   289
1070
     1
1070
    73
1070
     0
1070
    74
1070
     0
1070
   271
1070
     2
1070
   272
1070
     2
1070
    48
1040
0.0
1070
    47
1040
0.0
1002
}
  0
DIMENSION
  5
DE6
330
6C
100
AcDbEntity
  8
Dimension (ANSI)
100
AcDbDimension
280
     0
  2
*D15
 10
21.22553631415418
 20
17.6887056938366
 30
0.0
 11
21.22553631415418
 21
15.70020569383659
 31
0.0
 70
   160
  1
(<>)
 42
4.988500000000009
 73
     0
 74
     0
 75
     0
  3
Default (ANSI)
100
AcDbAlignedDimension
 13
20.28375871108459
 23
12.70020569383659
 33
0.0
 14
15.47832153189233
 24
17.6887056938366
 34
0.0
 50
90.0
100
AcDbRotatedDimension
1001
ACAD
1000
DSTYLE
1002
{
1070
   289
1070
     1
1070
   271
1070
     1
1070
   147
1040
0.031496062992126
1070
    72
1070
     0
1070
    71
1070
     0
1070
   272
1070
     1
1070
    48
1040
0.0
1070
    47
1040
0.0
1002
}
  0
DIMENSION
  5
EDA
330
6C
100
AcDbEntity
  8
Dimension (ANSI)
100
AcDbDimension
280
     0
  2
*D16
 10
12.7908215318924
 20
8.542293484030398
 30
0.0
 11
10.3533215318924
 21
8.542293484030398
 31
0.0
 70
   160
  1
<>
 42
4.874999999999998
 73
     0
 74
     0
 75
     0
  3
Default (ANSI)
100
AcDbAlignedDimension
 13
7.915821531892405
 23
10.0127056938366
 33
0.0
 14
12.7908215318924
 24
9.987705693836593
 34
0.0
100
AcDbRotatedDimension
1001
ACAD
1000
DSTYLE
1002
{
1070
   289
1070
     1
1070
    73
1070
     0
1070
    74
1070
     0
1070
   271
1070
     2
1070
   272
1070
     2
1070
    48
1040
0.0
1070
    47
1040
0.0
1002
}
  0
DIMENSION
  5
FC4
330
6C
100
AcDbEntity
  8
Dimension (ANSI)
100
AcDbDimension
280
     0
  2
*D17
 10
17.7908215318924
 20
6.753048784800247
 30
0.0
 11
12.7908215318924
 21
6.753048784800247
 31
0.0
 70
   160
  1
<>
 42
10.0
 73
     0
 74
     0
 75
     0
  3
Default (ANSI)
100
AcDbAlignedDimension
 13
7.790821531892405
 23
10.0127056938366
 33
0.0
 14
17.7908215318924
 24
10.38770569383659
 34
0.0
 50
180.0
100
AcDbRotatedDimension
1001
ACAD
1000
DSTYLE
1002
{
1070
   289
1070
     1
1070
    73
1070
     0
1070
    74
1070
     0
1070
   271
1070
     1
1070
   272
1070
     1
1070
    48
1040
0.0
1070
    47
1040
0.0
1002
}
  0
DIMENSION
  5
10AE
330
6C
100
AcDbEntity
  8
Dimension (ANSI)
100
AcDbDimension
280
     0
  2
*D18
 10
17.6658215318924
 20
7.616844031105802
 30
0.0
 11
12.7908215318924
 21
7.616844031105802
 31
0.0
 70
   160
  1
<>
 42
9.749999999999996
 73
     0
 74
     0
 75
     0
  3
Default (ANSI)
100
AcDbAlignedDimension
 13
7.915821531892405
 23
10.0127056938366
 33
0.0
 14
17.6658215318924
 24
10.01270569383658
 34
0.0
 50
180.0
100
AcDbRotatedDimension
1001
ACAD
1000
DSTYLE
1002
{
1070
   289
1070
     1
1070
    73
1070
     0
1070
    74
1070
     0
1070
   271
1070
     2
1070
   272
1070
     2
1070
    48
1040
0.0
1070
    47
1040
0.0
1002
}
  0
ENDSEC
  0
SECTION
  2
OBJECTS
  0
DICTIONARY
  5
C
330
0
100
AcDbDictionary
281
     1
  3
ACAD_CIP_PREVIOUS_PRODUCT_INFO
350
1198
  3
ACAD_COLOR
350
63
  3
ACAD_GROUP
350
D
  3
ACAD_LAYOUT
350
62
  3
ACAD_MATERIAL
350
10
  3
ACAD_MLEADERSTYLE
350
66
  3
ACAD_MLINESTYLE
350
5F
  3
ACAD_PLOTSETTINGS
350
61
  3
ACAD_PLOTSTYLENAME
350
E
  3
ACAD_SCALELIST
350
42
  3
ACAD_TABLESTYLE
350
64
  3
ACAD_VISUALSTYLE
350
29
  3
ACDB_RECOMPOSE_DATA
350
119F
  3
AcDbVariableDictionary
350
76
  0
DICTIONARY
  5
119D
330
B25
100
AcDbDictionary
280
     1
281
     1
  3
ACAD_MTEXT_2008_RT
360
119E
  0
XRECORD
  5
1198
102
{ACAD_REACTORS
330
C
102
}
330
C
100
AcDbXrecord
280
     1
300
INVNTOR
300
2012
300
85795PDSP_2012_0F
  0
DICTIONARY
  5
63
102
{ACAD_REACTORS
330
C
102
}
330
C
100
AcDbDictionary
281
     1
  0
DICTIONARY
  5
D
102
{ACAD_REACTORS
330
C
102
}
330
C
100
AcDbDictionary
281
     1
  0
DICTIONARY
  5
62
102
{ACAD_REACTORS
330
C
102
}
330
C
100
AcDbDictionary
281
     1
  3
Layout1
350
6B
  3
Layout2
350
73
  3
Model
350
6F
  0
DICTIONARY
  5
10
102
{ACAD_REACTORS
330
C
102
}
330
C
100
AcDbDictionary
281
     1
  3
ByBlock
350
19
  3
ByLayer
350
11
  3
Global
350
21
  0
DICTIONARY
  5
66
102
{ACAD_REACTORS
330
C
102
}
330
C
100
AcDbDictionary
281
     1
  3
Standard
350
67
  0
DICTIONARY
  5
5F
102
{ACAD_REACTORS
330
C
102
}
330
C
100
AcDbDictionary
281
     1
  3
Standard
350
60
  0
DICTIONARY
  5
61
102
{ACAD_REACTORS
330
C
102
}
330
C
100
AcDbDictionary
281
     1
  0
ACDBDICTIONARYWDFLT
  5
E
102
{ACAD_REACTORS
330
C
102
}
330
C
100
AcDbDictionary
281
     1
  3
Normal
350
F
100
AcDbDictionaryWithDefault
340
F
  0
DICTIONARY
  5
42
102
{ACAD_REACTORS
330
C
102
}
330
C
100
AcDbDictionary
281
     1
  3
A0
350
43
  3
A1
350
44
  3
A2
350
45
  3
A3
350
46
  3
A4
350
47
  3
A5
350
48
  3
A6
350
49
  3
A7
350
4A
  3
A8
350
4B
  3
A9
350
4C
  3
B0
350
4D
  3
B1
350
4E
  3
B2
350
4F
  3
B3
350
50
  3
B4
350
51
  3
B5
350
52
  3
B6
350
53
  0
DICTIONARY
  5
64
102
{ACAD_REACTORS
330
C
102
}
330
C
100
AcDbDictionary
281
     1
  3
Standard
350
65
  0
DICTIONARY
  5
29
102
{ACAD_REACTORS
330
C
102
}
330
C
100
AcDbDictionary
281
     1
  3
2dWireframe
350
2F
  3
Basic
350
2E
  3
Brighten
350
35
  3
ColorChange
350
39
  3
Conceptual
350
32
  3
Dim
350
34
  3
EdgeColorOff
350
41
  3
Facepattern
350
38
  3
Flat
350
2A
  3
FlatWithEdges
350
2B
  3
Gouraud
350
2C
  3
GouraudWithEdges
350
2D
  3
Hidden
350
31
  3
JitterOff
350
3F
  3
Linepattern
350
37
  3
OverhangOff
350
40
  3
Realistic
350
33
  3
Shaded
350
3E
  3
Shaded with edges
350
3D
  3
Shades of Gray
350
3A
  3
Sketchy
350
3B
  3
Thicken
350
36
  3
Wireframe
350
30
  3
X-Ray
350
3C
  0
XRECORD
  5
119F
102
{ACAD_REACTORS
330
C
102
}
330
C
100
AcDbXrecord
280
     1
 90
        1
330
65
330
B25
  0
DICTIONARY
  5
76
102
{ACAD_REACTORS
330
C
102
}
330
C
100
AcDbDictionary
281
     1
  3
CANNOSCALE
350
79
  3
CMLEADERSTYLE
350
78
  3
CTABLESTYLE
350
77
  0
XRECORD
  5
119E
102
{ACAD_REACTORS
330
119D
102
}
330
119D
100
AcDbXrecord
280
     1
 40
3705039.0
  1
\pxsm0.94;{\fRomanS|b0|i0;\H0.6240;PART#: SSJWT4\P(DATA SUBJECT TO CHANGE WITHOUT NOTICE)\P\fRomanS|b0|i0;\H0.3200; \PTHIS DRAWING IS PROPERTY OF hUBBELL INC. WEIGMANN\PALL INFORMATION IS PROPRIETARY AND NOT TO BE DUPLICATED\P\P}
  0
LAYOUT
  5
6B
102
{ACAD_REACTORS
330
62
102
}
330
62
100
AcDbPlotSettings
  1

  2

  4

  6

 40
0.0
 41
0.0
 42
0.0
 43
0.0
 44
0.0
 45
0.0
 46
0.0
 47
0.0
 48
0.0
 49
0.0
140
0.0
141
0.0
142
1.0
143
1.0
 70
   688
 72
     0
 73
     0
 74
     5
  7

 75
    16
147
1.0
 76
     0
 77
     2
 78
   300
148
0.0
149
0.0
100
AcDbLayout
  1
Layout1
 70
     1
 71
     1
 10
0.0
 20
0.0
 11
12.0
 21
9.0
 12
0.0
 22
0.0
 32
0.0
 14
0.0
 24
0.0
 34
0.0
 15
0.0
 25
0.0
 35
0.0
146
0.0
 13
0.0
 23
0.0
 33
0.0
 16
1.0
 26
0.0
 36
0.0
 17
0.0
 27
1.0
 37
0.0
 76
     0
330
68
  0
LAYOUT
  5
73
102
{ACAD_REACTORS
330
62
102
}
330
62
100
AcDbPlotSettings
  1

  2

  4

  6

 40
0.0
 41
0.0
 42
0.0
 43
0.0
 44
0.0
 45
0.0
 46
0.0
 47
0.0
 48
0.0
 49
0.0
140
0.0
141
0.0
142
1.0
143
1.0
 70
   688
 72
     0
 73
     0
 74
     5
  7

 75
    16
147
1.0
 76
     0
 77
     2
 78
   300
148
0.0
149
0.0
100
AcDbLayout
  1
Layout2
 70
     1
 71
     2
 10
0.0
 20
0.0
 11
12.0
 21
9.0
 12
0.0
 22
0.0
 32
0.0
 14
0.0
 24
0.0
 34
0.0
 15
0.0
 25
0.0
 35
0.0
146
0.0
 13
0.0
 23
0.0
 33
0.0
 16
1.0
 26
0.0
 36
0.0
 17
0.0
 27
1.0
 37
0.0
 76
     0
330
70
  0
LAYOUT
  5
6F
102
{ACAD_REACTORS
330
62
102
}
330
62
100
AcDbPlotSettings
  1

  2

  4

  6

 40
0.0
 41
0.0
 42
0.0
 43
0.0
 44
0.0
 45
0.0
 46
0.0
 47
0.0
 48
0.0
 49
0.0
140
0.0
141
0.0
142
1.0
143
1.0
 70
  1712
 72
     0
 73
     0
 74
     0
  7

 75
     0
147
1.0
 76
     0
 77
     2
 78
   300
148
0.0
149
0.0
100
AcDbLayout
  1
Model
 70
     1
 71
     0
 10
0.0
 20
0.0
 11
12.0
 21
9.0
 12
0.0
 22
0.0
 32
0.0
 14
0.0
 24
0.0
 34
0.0
 15
0.0
 25
0.0
 35
0.0
146
0.0
 13
0.0
 23
0.0
 33
0.0
 16
1.0
 26
0.0
 36
0.0
 17
0.0
 27
1.0
 37
0.0
 76
     0
330
6C
  0
MATERIAL
  5
19
102
{ACAD_XDICTIONARY
360
1A
102
}
102
{ACAD_REACTORS
330
10
102
}
330
10
100
AcDbMaterial
  1
ByBlock
 72
     0
 43
0.0208333333333333
 43
0.0
 43
0.0
 43
0.0
 43
0.0
 43
0.0208333333333333
 43
0.0
 43
0.0
 43
0.0
 43
0.0
 43
1.0
 43
0.0
 43
0.0
 43
0.0
 43
0.0
 43
1.0
 77
     0
 47
0.0208333333333333
 47
0.0
 47
0.0
 47
0.0
 47
0.0
 47
0.0208333333333333
 47
0.0
 47
0.0
 47
0.0
 47
0.0
 47
1.0
 47
0.0
 47
0.0
 47
0.0
 47
0.0
 47
1.0
171
     0
 49
0.0208333333333333
 49
0.0
 49
0.0
 49
0.0
 49
0.0
 49
0.0208333333333333
 49
0.0
 49
0.0
 49
0.0
 49
0.0
 49
1.0
 49
0.0
 49
0.0
 49
0.0
 49
0.0
 49
1.0
175
     0
142
0.0208333333333333
142
0.0
142
0.0
142
0.0
142
0.0
142
0.0208333333333333
142
0.0
142
0.0
142
0.0
142
0.0
142
1.0
142
0.0
142
0.0
142
0.0
142
0.0
142
1.0
179
     0
144
0.0208333333333333
144
0.0
144
0.0
144
0.0
144
0.0
144
0.0208333333333333
144
0.0
144
0.0
144
0.0
144
0.0
144
1.0
144
0.0
144
0.0
144
0.0
144
0.0
144
1.0
147
0.0208333333333333
147
0.0
147
0.0
147
0.0
147
0.0
147
0.0208333333333333
147
0.0
147
0.0
147
0.0
147
0.0
147
1.0
147
0.0
147
0.0
147
0.0
147
0.0
147
1.0
  0
MATERIAL
  5
11
102
{ACAD_XDICTIONARY
360
12
102
}
102
{ACAD_REACTORS
330
10
102
}
330
10
100
AcDbMaterial
  1
ByLayer
 72
     0
 43
0.0208333333333333
 43
0.0
 43
0.0
 43
0.0
 43
0.0
 43
0.0208333333333333
 43
0.0
 43
0.0
 43
0.0
 43
0.0
 43
1.0
 43
0.0
 43
0.0
 43
0.0
 43
0.0
 43
1.0
 77
     0
 47
0.0208333333333333
 47
0.0
 47
0.0
 47
0.0
 47
0.0
 47
0.0208333333333333
 47
0.0
 47
0.0
 47
0.0
 47
0.0
 47
1.0
 47
0.0
 47
0.0
 47
0.0
 47
0.0
 47
1.0
171
     0
 49
0.0208333333333333
 49
0.0
 49
0.0
 49
0.0
 49
0.0
 49
0.0208333333333333
 49
0.0
 49
0.0
 49
0.0
 49
0.0
 49
1.0
 49
0.0
 49
0.0
 49
0.0
 49
0.0
 49
1.0
175
     0
142
0.0208333333333333
142
0.0
142
0.0
142
0.0
142
0.0
142
0.0208333333333333
142
0.0
142
0.0
142
0.0
142
0.0
142
1.0
142
0.0
142
0.0
142
0.0
142
0.0
142
1.0
179
     0
144
0.0208333333333333
144
0.0
144
0.0
144
0.0
144
0.0
144
0.0208333333333333
144
0.0
144
0.0
144
0.0
144
0.0
144
1.0
144
0.0
144
0.0
144
0.0
144
0.0
144
1.0
147
0.0208333333333333
147
0.0
147
0.0
147
0.0
147
0.0
147
0.0208333333333333
147
0.0
147
0.0
147
0.0
147
0.0
147
1.0
147
0.0
147
0.0
147
0.0
147
0.0
147
1.0
  0
MATERIAL
  5
21
102
{ACAD_XDICTIONARY
360
22
102
}
102
{ACAD_REACTORS
330
10
102
}
330
10
100
AcDbMaterial
  1
Global
 72
     0
 43
0.0208333333333333
 43
0.0
 43
0.0
 43
0.0
 43
0.0
 43
0.0208333333333333
 43
0.0
 43
0.0
 43
0.0
 43
0.0
 43
1.0
 43
0.0
 43
0.0
 43
0.0
 43
0.0
 43
1.0
 77
     0
 47
0.0208333333333333
 47
0.0
 47
0.0
 47
0.0
 47
0.0
 47
0.0208333333333333
 47
0.0
 47
0.0
 47
0.0
 47
0.0
 47
1.0
 47
0.0
 47
0.0
 47
0.0
 47
0.0
 47
1.0
171
     0
 49
0.0208333333333333
 49
0.0
 49
0.0
 49
0.0
 49
0.0
 49
0.0208333333333333
 49
0.0
 49
0.0
 49
0.0
 49
0.0
 49
1.0
 49
0.0
 49
0.0
 49
0.0
 49
0.0
 49
1.0
175
     0
142
0.0208333333333333
142
0.0
142
0.0
142
0.0
142
0.0
142
0.0208333333333333
142
0.0
142
0.0
142
0.0
142
0.0
142
1.0
142
0.0
142
0.0
142
0.0
142
0.0
142
1.0
179
     0
144
0.0208333333333333
144
0.0
144
0.0
144
0.0
144
0.0
144
0.0208333333333333
144
0.0
144
0.0
144
0.0
144
0.0
144
1.0
144
0.0
144
0.0
144
0.0
144
0.0
144
1.0
147
0.0208333333333333
147
0.0
147
0.0
147
0.0
147
0.0
147
0.0208333333333333
147
0.0
147
0.0
147
0.0
147
0.0
147
1.0
147
0.0
147
0.0
147
0.0
147
0.0
147
1.0
  0
MLEADERSTYLE
  5
67
102
{ACAD_XDICTIONARY
360
119B
102
}
102
{ACAD_REACTORS
330
66
102
}
330
66
100
AcDbMLeaderStyle
179
     2
170
     2
171
     1
172
     0
 90
        2
 40
0.0
 41
0.0
173
     1
 91
-1056964608
340
5B
 92
       -2
290
     1
 42
0.09
291
     1
 43
0.36
  3
Standard
 44
0.18
300

342
55
174
     1
178
     6
175
     1
176
     0
 93
-1056964608
 45
0.18
292
     0
297
     0
 46
0.18
 94
-1056964608
 47
1.0
 49
1.0
140
1.0
293
     1
141
0.0
294
     1
177
     0
142
1.0
295
     0
296
     0
143
0.125
271
     0
272
     9
273
     9
  0
MLINESTYLE
  5
60
102
{ACAD_REACTORS
330
5F
102
}
330
5F
100
AcDbMlineStyle
  2
STANDARD
 70
     0
  3

 62
   256
 51
90.0
 52
90.0
 71
     2
 49
0.5
 62
   256
  6
BYLAYER
 49
-0.5
 62
   256
  6
BYLAYER
  0
ACDBPLACEHOLDER
  5
F
102
{ACAD_REACTORS
330
E
102
}
330
E
  0
SCALE
  5
43
102
{ACAD_REACTORS
330
42
102
}
330
42
100
AcDbScale
 70
     0
300
1:1
140
1.0
141
1.0
290
     1
  0
SCALE
  5
44
102
{ACAD_REACTORS
330
42
102
}
330
42
100
AcDbScale
 70
     0
300
1/128" = 1'-0"
140
0.0078125
141
12.0
290
     0
  0
SCALE
  5
45
102
{ACAD_REACTORS
330
42
102
}
330
42
100
AcDbScale
 70
     0
300
1/64" = 1'-0"
140
0.015625
141
12.0
290
     0
  0
SCALE
  5
46
102
{ACAD_REACTORS
330
42
102
}
330
42
100
AcDbScale
 70
     0
300
1/32" = 1'-0"
140
0.03125
141
12.0
290
     0
  0
SCALE
  5
47
102
{ACAD_REACTORS
330
42
102
}
330
42
100
AcDbScale
 70
     0
300
1/16" = 1'-0"
140
0.0625
141
12.0
290
     0
  0
SCALE
  5
48
102
{ACAD_REACTORS
330
42
102
}
330
42
100
AcDbScale
 70
     0
300
3/32" = 1'-0"
140
0.09375
141
12.0
290
     0
  0
SCALE
  5
49
102
{ACAD_REACTORS
330
42
102
}
330
42
100
AcDbScale
 70
     0
300
1/8" = 1'-0"
140
0.125
141
12.0
290
     0
  0
SCALE
  5
4A
102
{ACAD_REACTORS
330
42
102
}
330
42
100
AcDbScale
 70
     0
300
3/16" = 1'-0"
140
0.1875
141
12.0
290
     0
  0
SCALE
  5
4B
102
{ACAD_REACTORS
330
42
102
}
330
42
100
AcDbScale
 70
     0
300
1/4" = 1'-0"
140
0.25
141
12.0
290
     0
  0
SCALE
  5
4C
102
{ACAD_REACTORS
330
42
102
}
330
42
100
AcDbScale
 70
     0
300
3/8" = 1'-0"
140
0.375
141
12.0
290
     0
  0
SCALE
  5
4D
102
{ACAD_REACTORS
330
42
102
}
330
42
100
AcDbScale
 70
     0
300
1/2" = 1'-0"
140
0.5
141
12.0
290
     0
  0
SCALE
  5
4E
102
{ACAD_REACTORS
330
42
102
}
330
42
100
AcDbScale
 70
     0
300
3/4" = 1'-0"
140
0.75
141
12.0
290
     0
  0
SCALE
  5
4F
102
{ACAD_REACTORS
330
42
102
}
330
42
100
AcDbScale
 70
     0
300
1" = 1'-0"
140
1.0
141
12.0
290
     0
  0
SCALE
  5
50
102
{ACAD_REACTORS
330
42
102
}
330
42
100
AcDbScale
 70
     0
300
1-1/2" = 1'-0"
140
1.5
141
12.0
290
     0
  0
SCALE
  5
51
102
{ACAD_REACTORS
330
42
102
}
330
42
100
AcDbScale
 70
     0
300
3" = 1'-0"
140
3.0
141
12.0
290
     0
  0
SCALE
  5
52
102
{ACAD_REACTORS
330
42
102
}
330
42
100
AcDbScale
 70
     0
300
6" = 1'-0"
140
6.0
141
12.0
290
     0
  0
SCALE
  5
53
102
{ACAD_REACTORS
330
42
102
}
330
42
100
AcDbScale
 70
     0
300
1'-0" = 1'-0"
140
12.0
141
12.0
290
     0
  0
TABLESTYLE
  5
65
102
{ACAD_XDICTIONARY
360
1199
102
}
102
{ACAD_REACTORS
330
64
102
}
330
64
100
AcDbTableStyle
280
     0
  3
Standard
 70
     0
 71
     0
 40
0.06
 41
0.06
280
     0
281
     0
  7
Standard
140
0.18
170
     2
 62
     0
 63
     7
283
     0
 90
      512
 91
        0
  1

274
    -2
284
     1
 64
     0
275
    -2
285
     1
 65
     0
276
    -2
286
     1
 66
     0
277
    -2
287
     1
 67
     0
278
    -2
288
     1
 68
     0
279
    -2
289
     1
 69
     0
  7
Standard
140
0.25
170
     5
 62
     0
 63
     7
283
     0
 90
      512
 91
        0
  1

274
    -2
284
     1
 64
     0
275
    -2
285
     1
 65
     0
276
    -2
286
     1
 66
     0
277
    -2
287
     1
 67
     0
278
    -2
288
     1
 68
     0
279
    -2
289
     1
 69
     0
  7
Standard
140
0.18
170
     5
 62
     0
 63
     7
283
     0
 90
      512
 91
        0
  1

274
    -2
284
     1
 64
     0
275
    -2
285
     1
 65
     0
276
    -2
286
     1
 66
     0
277
    -2
287
     1
 67
     0
278
    -2
288
     1
 68
     0
279
    -2
289
     1
 69
     0
  0
VISUALSTYLE
  5
2F
102
{ACAD_REACTORS
330
29
102
}
330
29
100
AcDbVisualStyle
  2
2dWireframe
 70
     4
177
     2
291
     0
 71
     0
176
     1
 72
     2
176
     1
 73
     0
176
     1
 90
        0
176
     1
 40
0.6
176
     1
 41
30.0
176
     1
 63
     7
421
 16777215
176
     1
 74
     1
176
     1
 91
        4
176
     1
 64
     7
176
     1
 65
   257
176
     1
 75
     1
176
     1
175
     1
176
     1
 42
1.0
176
     1
 92
        0
176
     1
 66
   257
176
     1
 43
1.0
176
     1
 76
     1
176
     1
 77
     6
176
     1
 78
     2
176
     1
 67
     7
176
     1
 79
     5
176
     1
170
     0
176
     1
171
     0
176
     1
290
     0
176
     1
 93
        1
176
     1
 44
0.0
176
     1
173
     0
176
     1
  0
VISUALSTYLE
  5
2E
102
{ACAD_REACTORS
330
29
102
}
330
29
100
AcDbVisualStyle
  2
Basic
 70
     7
177
     2
291
     1
 71
     1
176
     1
 72
     0
176
     1
 73
     1
176
     1
 90
        0
176
     1
 40
0.6
176
     1
 41
30.0
176
     1
 63
     7
421
 16777215
176
     1
 74
     0
176
     1
 91
        4
176
     1
 64
     7
176
     1
 65
   257
176
     1
 75
     1
176
     1
175
     1
176
     1
 42
1.0
176
     1
 92
        8
176
     1
 66
     7
176
     1
 43
1.0
176
     1
 76
     1
176
     1
 77
     6
176
     1
 78
     2
176
     1
 67
     7
176
     1
 79
     5
176
     1
170
     0
176
     1
171
     0
176
     1
290
     0
176
     1
 93
        1
176
     1
 44
0.0
176
     1
173
     0
176
     1
  0
VISUALSTYLE
  5
35
102
{ACAD_REACTORS
330
29
102
}
330
29
100
AcDbVisualStyle
  2
Brighten
 70
    12
177
     2
291
     1
 71
     2
176
     1
 72
     2
176
     1
 73
     0
176
     1
 90
        0
176
     1
 40
0.6
176
     1
 41
30.0
176
     1
 63
     7
421
 16777215
176
     1
 74
     1
176
     1
 91
        4
176
     1
 64
     7
176
     1
 65
   257
176
     1
 75
     1
176
     1
175
     1
176
     1
 42
1.0
176
     1
 92
        8
176
     1
 66
     7
176
     1
 43
1.0
176
     1
 76
     1
176
     1
 77
     6
176
     1
 78
     2
176
     1
 67
     7
176
     1
 79
     5
176
     1
170
     0
176
     1
171
     0
176
     1
290
     0
176
     1
 93
        1
176
     1
 44
50.0
176
     1
173
     0
176
     1
  0
VISUALSTYLE
  5
39
102
{ACAD_REACTORS
330
29
102
}
330
29
100
AcDbVisualStyle
  2
ColorChange
 70
    16
177
     2
291
     1
 71
     2
176
     1
 72
     2
176
     1
 73
     3
176
     1
 90
        0
176
     1
 40
0.6
176
     1
 41
30.0
176
     1
 63
     8
421
  8421504
176
     1
 74
     1
176
     1
 91
        4
176
     1
 64
     7
176
     1
 65
   257
176
     1
 75
     1
176
     1
175
     1
176
     1
 42
1.0
176
     1
 92
        8
176
     1
 66
     8
424
  8421504
176
     1
 43
1.0
176
     1
 76
     1
176
     1
 77
     6
176
     1
 78
     2
176
     1
 67
     7
176
     1
 79
     5
176
     1
170
     0
176
     1
171
     0
176
     1
290
     0
176
     1
 93
        1
176
     1
 44
0.0
176
     1
173
     0
176
     1
  0
VISUALSTYLE
  5
32
102
{ACAD_REACTORS
330
29
102
}
330
29
100
AcDbVisualStyle
  2
Conceptual
 70
     9
177
     2
291
     0
 71
     3
176
     1
 72
     2
176
     1
 73
     0
176
     1
 90
        0
176
     1
 40
0.6
176
     1
 41
30.0
176
     1
 63
     7
421
 16777215
176
     1
 74
     2
176
     1
 91
        2
176
     1
 64
     7
176
     1
 65
   257
176
     1
 75
     1
176
     1
175
     1
176
     1
 42
179.0
176
     1
 92
        8
176
     1
 66
     7
176
     1
 43
1.0
176
     1
 76
     1
176
     1
 77
     6
176
     1
 78
     2
176
     1
 67
     7
176
     1
 79
     3
176
     1
170
     0
176
     1
171
     0
176
     1
290
     0
176
     1
 93
        1
176
     1
 44
0.0
176
     1
173
     0
176
     1
  0
VISUALSTYLE
  5
34
102
{ACAD_REACTORS
330
29
102
}
330
29
100
AcDbVisualStyle
  2
Dim
 70
    11
177
     2
291
     1
 71
     2
176
     1
 72
     2
176
     1
 73
     0
176
     1
 90
        0
176
     1
 40
0.6
176
     1
 41
30.0
176
     1
 63
     7
421
 16777215
176
     1
 74
     1
176
     1
 91
        4
176
     1
 64
     7
176
     1
 65
   257
176
     1
 75
     1
176
     1
175
     1
176
     1
 42
1.0
176
     1
 92
        8
176
     1
 66
     7
176
     1
 43
1.0
176
     1
 76
     1
176
     1
 77
     6
176
     1
 78
     2
176
     1
 67
     7
176
     1
 79
     5
176
     1
170
     0
176
     1
171
     0
176
     1
290
     0
176
     1
 93
        1
176
     1
 44
-50.0
176
     1
173
     0
176
     1
  0
VISUALSTYLE
  5
41
102
{ACAD_REACTORS
330
29
102
}
330
29
100
AcDbVisualStyle
  2
EdgeColorOff
 70
    22
177
     2
291
     1
 71
     2
176
     0
 72
     2
176
     0
 73
     0
176
     0
 90
        0
176
     0
 40
0.6
176
     0
 41
30.0
176
     0
 63
     7
421
 16777215
176
     0
 74
     1
176
     0
 91
        4
176
     0
 64
     7
176
     0
 65
   257
176
     0
 75
     1
176
     0
175
     1
176
     0
 42
1.0
176
     0
 92
        8
176
     2
 66
     7
176
     0
 43
1.0
176
     0
 76
     1
176
     0
 77
     6
176
     0
 78
     2
176
     0
 67
     7
176
     0
 79
     5
176
     0
170
     0
176
     0
171
     0
176
     0
290
     0
176
     0
 93
        1
176
     0
 44
0.0
176
     0
173
     0
176
     0
  0
VISUALSTYLE
  5
38
102
{ACAD_REACTORS
330
29
102
}
330
29
100
AcDbVisualStyle
  2
Facepattern
 70
    15
177
     2
291
     1
 71
     2
176
     1
 72
     2
176
     1
 73
     0
176
     1
 90
        0
176
     1
 40
0.6
176
     1
 41
30.0
176
     1
 63
     7
421
 16777215
176
     1
 74
     1
176
     1
 91
        4
176
     1
 64
     7
176
     1
 65
   257
176
     1
 75
     1
176
     1
175
     1
176
     1
 42
1.0
176
     1
 92
        8
176
     1
 66
     7
176
     1
 43
1.0
176
     1
 76
     1
176
     1
 77
     6
176
     1
 78
     2
176
     1
 67
     7
176
     1
 79
     5
176
     1
170
     0
176
     1
171
     0
176
     1
290
     0
176
     1
 93
        1
176
     1
 44
0.0
176
     1
173
     0
176
     1
  0
VISUALSTYLE
  5
2A
102
{ACAD_REACTORS
330
29
102
}
330
29
100
AcDbVisualStyle
  2
Flat
 70
     0
177
     2
291
     1
 71
     2
176
     1
 72
     1
176
     1
 73
     1
176
     1
 90
        2
176
     1
 40
0.6
176
     1
 41
30.0
176
     1
 63
     7
421
 16777215
176
     1
 74
     0
176
     1
 91
        0
176
     1
 64
     7
176
     1
 65
   257
176
     1
 75
     1
176
     1
175
     1
176
     1
 42
1.0
176
     1
 92
        8
176
     1
 66
     7
176
     1
 43
1.0
176
     1
 76
     1
176
     1
 77
     6
176
     1
 78
     2
176
     1
 67
     7
176
     1
 79
     5
176
     1
170
     0
176
     1
171
     0
176
     1
290
     0
176
     1
 93
       13
176
     1
 44
0.0
176
     1
173
     0
176
     1
  0
VISUALSTYLE
  5
2B
102
{ACAD_REACTORS
330
29
102
}
330
29
100
AcDbVisualStyle
  2
FlatWithEdges
 70
     1
177
     2
291
     1
 71
     2
176
     1
 72
     1
176
     1
 73
     1
176
     1
 90
        2
176
     1
 40
0.6
176
     1
 41
30.0
176
     1
 63
     7
421
 16777215
176
     1
 74
     1
176
     1
 91
        0
176
     1
 64
     7
176
     1
 65
   257
176
     1
 75
     1
176
     1
175
     1
176
     1
 42
1.0
176
     1
 92
        0
176
     1
 66
   257
176
     1
 43
1.0
176
     1
 76
     1
176
     1
 77
     6
176
     1
 78
     2
176
     1
 67
     7
176
     1
 79
     5
176
     1
170
     0
176
     1
171
     0
176
     1
290
     0
176
     1
 93
       13
176
     1
 44
0.0
176
     1
173
     0
176
     1
  0
VISUALSTYLE
  5
2C
102
{ACAD_REACTORS
330
29
102
}
330
29
100
AcDbVisualStyle
  2
Gouraud
 70
     2
177
     2
291
     1
 71
     2
176
     1
 72
     2
176
     1
 73
     1
176
     1
 90
        2
176
     1
 40
0.6
176
     1
 41
30.0
176
     1
 63
     7
421
 16777215
176
     1
 74
     0
176
     1
 91
        0
176
     1
 64
     7
176
     1
 65
   257
176
     1
 75
     1
176
     1
175
     1
176
     1
 42
1.0
176
     1
 92
        0
176
     1
 66
     7
176
     1
 43
1.0
176
     1
 76
     1
176
     1
 77
     6
176
     1
 78
     2
176
     1
 67
     7
176
     1
 79
     5
176
     1
170
     0
176
     1
171
     0
176
     1
290
     0
176
     1
 93
       13
176
     1
 44
0.0
176
     1
173
     0
176
     1
  0
VISUALSTYLE
  5
2D
102
{ACAD_REACTORS
330
29
102
}
330
29
100
AcDbVisualStyle
  2
GouraudWithEdges
 70
     3
177
     2
291
     1
 71
     2
176
     1
 72
     2
176
     1
 73
     1
176
     1
 90
        2
176
     1
 40
0.6
176
     1
 41
30.0
176
     1
 63
     7
421
 16777215
176
     1
 74
     1
176
     1
 91
        0
176
     1
 64
     7
176
     1
 65
   257
176
     1
 75
     1
176
     1
175
     1
176
     1
 42
1.0
176
     1
 92
        0
176
     1
 66
   257
176
     1
 43
1.0
176
     1
 76
     1
176
     1
 77
     6
176
     1
 78
     2
176
     1
 67
     7
176
     1
 79
     5
176
     1
170
     0
176
     1
171
     0
176
     1
290
     0
176
     1
 93
       13
176
     1
 44
0.0
176
     1
173
     0
176
     1
  0
VISUALSTYLE
  5
31
102
{ACAD_REACTORS
330
29
102
}
330
29
100
AcDbVisualStyle
  2
Hidden
 70
     6
177
     2
291
     0
 71
     1
176
     1
 72
     2
176
     1
 73
     2
176
     1
 90
        0
176
     1
 40
0.6
176
     1
 41
30.0
176
     1
 63
     7
421
 16777215
176
     1
 74
     2
176
     1
 91
        2
176
     1
 64
     7
176
     1
 65
   257
176
     1
 75
     2
176
     1
175
     1
176
     1
 42
40.0
176
     1
 92
        0
176
     1
 66
   257
176
     1
 43
1.0
176
     1
 76
     1
176
     1
 77
     6
176
     1
 78
     2
176
     1
 67
     7
176
     1
 79
     3
176
     1
170
     0
176
     1
171
     0
176
     1
290
     0
176
     1
 93
        1
176
     1
 44
0.0
176
     1
173
     0
176
     1
  0
VISUALSTYLE
  5
3F
102
{ACAD_REACTORS
330
29
102
}
330
29
100
AcDbVisualStyle
  2
JitterOff
 70
    20
177
     2
291
     1
 71
     2
176
     0
 72
     2
176
     0
 73
     0
176
     0
 90
        0
176
     0
 40
0.6
176
     0
 41
30.0
176
     0
 63
     7
421
 16777215
176
     0
 74
     1
176
     0
 91
        4
176
     0
 64
     7
176
     0
 65
   257
176
     0
 75
     1
176
     0
175
     1
176
     0
 42
1.0
176
     0
 92
       10
176
     2
 66
     7
176
     0
 43
1.0
176
     0
 76
     1
176
     0
 77
     6
176
     0
 78
     2
176
     0
 67
     7
176
     0
 79
     5
176
     0
170
     0
176
     0
171
     0
176
     0
290
     0
176
     0
 93
        1
176
     0
 44
0.0
176
     0
173
     0
176
     0
  0
VISUALSTYLE
  5
37
102
{ACAD_REACTORS
330
29
102
}
330
29
100
AcDbVisualStyle
  2
Linepattern
 70
    14
177
     2
291
     1
 71
     2
176
     1
 72
     2
176
     1
 73
     0
176
     1
 90
        0
176
     1
 40
0.6
176
     1
 41
30.0
176
     1
 63
     7
421
 16777215
176
     1
 74
     1
176
     1
 91
        4
176
     1
 64
     7
176
     1
 65
   257
176
     1
 75
     7
176
     1
175
     7
176
     1
 42
1.0
176
     1
 92
        8
176
     1
 66
     7
176
     1
 43
1.0
176
     1
 76
     1
176
     1
 77
     6
176
     1
 78
     2
176
     1
 67
     7
176
     1
 79
     5
176
     1
170
     0
176
     1
171
     0
176
     1
290
     0
176
     1
 93
        1
176
     1
 44
0.0
176
     1
173
     0
176
     1
  0
VISUALSTYLE
  5
40
102
{ACAD_REACTORS
330
29
102
}
330
29
100
AcDbVisualStyle
  2
OverhangOff
 70
    21
177
     2
291
     1
 71
     2
176
     0
 72
     2
176
     0
 73
     0
176
     0
 90
        0
176
     0
 40
0.6
176
     0
 41
30.0
176
     0
 63
     7
421
 16777215
176
     0
 74
     1
176
     0
 91
        4
176
     0
 64
     7
176
     0
 65
   257
176
     0
 75
     1
176
     0
175
     1
176
     0
 42
1.0
176
     0
 92
        9
176
     2
 66
     7
176
     0
 43
1.0
176
     0
 76
     1
176
     0
 77
     6
176
     0
 78
     2
176
     0
 67
     7
176
     0
 79
     5
176
     0
170
     0
176
     0
171
     0
176
     0
290
     0
176
     0
 93
        1
176
     0
 44
0.0
176
     0
173
     0
176
     0
  0
VISUALSTYLE
  5
33
102
{ACAD_REACTORS
330
29
102
}
330
29
100
AcDbVisualStyle
  2
Realistic
 70
     8
177
     2
291
     0
 71
     2
176
     1
 72
     3
176
     1
 73
     0
176
     1
 90
        2
176
     1
 40
0.6
176
     1
 41
30.0
176
     1
 63
     7
421
 16777215
176
     1
 74
     0
176
     1
 91
        0
176
     1
 64
     7
176
     1
 65
   257
176
     1
 75
     1
176
     1
175
     1
176
     1
 42
1.0
176
     1
 92
        8
176
     1
 66
   257
176
     1
 43
1.0
176
     1
 76
     1
176
     1
 77
     6
176
     1
 78
     2
176
     1
 67
     7
176
     1
 79
     3
176
     1
170
     0
176
     1
171
     0
176
     1
290
     0
176
     1
 93
       13
176
     1
 44
0.0
176
     1
173
     0
176
     1
  0
VISUALSTYLE
  5
3E
102
{ACAD_REACTORS
330
29
102
}
330
29
100
AcDbVisualStyle
  2
Shaded
 70
    27
177
     2
291
     0
 71
     2
176
     1
 72
     2
176
     1
 73
     1
176
     1
 90
        2
176
     1
 40
0.6
176
     1
 41
30.0
176
     1
 63
     7
421
 16777215
176
     1
 74
     0
176
     1
 91
        4
176
     1
 64
     7
176
     1
 65
   257
176
     1
 75
     1
176
     1
175
     1
176
     1
 42
1.0
176
     1
 92
        8
176
     1
 66
   257
176
     1
 43
1.0
176
     1
 76
     1
176
     1
 77
     6
176
     1
 78
     2
176
     1
 67
     8
425
  7895160
176
     1
 79
     3
176
     1
170
     0
176
     1
171
     0
176
     1
290
     0
176
     1
 93
        5
176
     1
 44
0.0
176
     1
173
     0
176
     1
  0
VISUALSTYLE
  5
3D
102
{ACAD_REACTORS
330
29
102
}
330
29
100
AcDbVisualStyle
  2
Shaded with edges
 70
    26
177
     2
291
     0
 71
     2
176
     1
 72
     2
176
     1
 73
     1
176
     1
 90
        2
176
     1
 40
0.6
176
     1
 41
30.0
176
     1
 63
     7
421
 16777215
176
     1
 74
     1
176
     1
 91
       10
176
     1
 64
     7
176
     1
 65
   257
176
     1
 75
     2
176
     1
175
     1
176
     1
 42
1.0
176
     1
 92
        8
176
     1
 66
   257
176
     1
 43
1.0
176
     1
 76
     1
176
     1
 77
     6
176
     1
 78
     2
176
     1
 67
     7
176
     1
 79
     3
176
     1
170
     0
176
     1
171
     0
176
     1
290
     0
176
     1
 93
        5
176
     1
 44
0.0
176
     1
173
     0
176
     1
  0
VISUALSTYLE
  5
3A
102
{ACAD_REACTORS
330
29
102
}
330
29
100
AcDbVisualStyle
  2
Shades of Gray
 70
    23
177
     2
291
     0
 71
     2
176
     1
 72
     2
176
     1
 73
     3
176
     1
 90
        0
176
     1
 40
0.6
176
     1
 41
30.0
176
     1
 63
     7
421
 16777215
176
     1
 74
     2
176
     1
 91
        2
176
     1
 64
     7
176
     1
 65
     7
176
     1
 75
     1
176
     1
175
     1
176
     1
 42
40.0
176
     1
 92
        8
176
     1
 66
     7
176
     1
 43
1.0
176
     1
 76
     1
176
     1
 77
     6
176
     1
 78
     2
176
     1
 67
     7
176
     1
 79
     3
176
     1
170
     0
176
     1
171
     0
176
     1
290
     0
176
     1
 93
        1
176
     1
 44
0.0
176
     1
173
     0
176
     1
  0
VISUALSTYLE
  5
3B
102
{ACAD_REACTORS
330
29
102
}
330
29
100
AcDbVisualStyle
  2
Sketchy
 70
    24
177
     2
291
     0
 71
     1
176
     1
 72
     2
176
     1
 73
     2
176
     1
 90
        0
176
     1
 40
0.6
176
     1
 41
30.0
176
     1
 63
     7
421
 16777215
176
     1
 74
     2
176
     1
 91
        2
176
     1
 64
     7
176
     1
 65
     7
176
     1
 75
     1
176
     1
175
     1
176
     1
 42
40.0
176
     1
 92
       11
176
     1
 66
     7
176
     1
 43
1.0
176
     1
 76
     1
176
     1
 77
     6
176
     1
 78
     2
176
     1
 67
     7
176
     1
 79
     6
176
     1
170
     0
176
     1
171
     0
176
     1
290
     0
176
     1
 93
        1
176
     1
 44
0.0
176
     1
173
     0
176
     1
  0
VISUALSTYLE
  5
36
102
{ACAD_REACTORS
330
29
102
}
330
29
100
AcDbVisualStyle
  2
Thicken
 70
    13
177
     2
291
     1
 71
     2
176
     1
 72
     2
176
     1
 73
     0
176
     1
 90
        0
176
     1
 40
0.6
176
     1
 41
30.0
176
     1
 63
     7
421
 16777215
176
     1
 74
     1
176
     1
 91
        4
176
     1
 64
     7
176
     1
 65
   257
176
     1
 75
     1
176
     1
175
     1
176
     1
 42
1.0
176
     1
 92
       12
176
     1
 66
     7
176
     1
 43
1.0
176
     1
 76
     1
176
     1
 77
     6
176
     1
 78
     2
176
     1
 67
     7
176
     1
 79
     5
176
     1
170
     0
176
     1
171
     0
176
     1
290
     0
176
     1
 93
        1
176
     1
 44
0.0
176
     1
173
     0
176
     1
  0
VISUALSTYLE
  5
30
102
{ACAD_REACTORS
330
29
102
}
330
29
100
AcDbVisualStyle
  2
Wireframe
 70
     5
177
     2
291
     0
 71
     0
176
     1
 72
     2
176
     1
 73
     0
176
     1
 90
        0
176
     1
 40
0.6
176
     1
 41
30.0
176
     1
 63
     7
421
 16777215
176
     1
 74
     1
176
     1
 91
        4
176
     1
 64
     7
176
     1
 65
   257
176
     1
 75
     1
176
     1
175
     1
176
     1
 42
1.0
176
     1
 92
        0
176
     1
 66
   257
176
     1
 43
1.0
176
     1
 76
     1
176
     1
 77
     6
176
     1
 78
     2
176
     1
 67
     7
176
     1
 79
     3
176
     1
170
     0
176
     1
171
     0
176
     1
290
     0
176
     1
 93
        1
176
     1
 44
0.0
176
     1
173
     0
176
     1
  0
VISUALSTYLE
  5
3C
102
{ACAD_REACTORS
330
29
102
}
330
29
100
AcDbVisualStyle
  2
X-Ray
 70
    25
177
     2
291
     0
 71
     2
176
     1
 72
     2
176
     1
 73
     1
176
     1
 90
        1
176
     1
 40
0.5
176
     1
 41
30.0
176
     1
 63
     7
421
 16777215
176
     1
 74
     1
176
     1
 91
        0
176
     1
 64
     7
176
     1
 65
   257
176
     1
 75
     1
176
     1
175
     1
176
     1
 42
1.0
176
     1
 92
        8
176
     1
 66
     7
176
     1
 43
1.0
176
     1
 76
     1
176
     1
 77
     6
176
     1
 78
     2
176
     1
 67
     7
176
     1
 79
     3
176
     1
170
     0
176
     1
171
     0
176
     1
290
     0
176
     1
 93
       13
176
     1
 44
0.0
176
     1
173
     0
176
     1
  0
DICTIONARYVAR
  5
79
102
{ACAD_REACTORS
330
76
102
}
330
76
100
DictionaryVariables
280
     0
  1
1:1
  0
DICTIONARYVAR
  5
78
102
{ACAD_REACTORS
330
76
102
}
330
76
100
DictionaryVariables
280
     0
  1
STANDARD
  0
DICTIONARYVAR
  5
77
102
{ACAD_REACTORS
330
76
102
}
330
76
100
DictionaryVariables
280
     0
  1
STANDARD
  0
DICTIONARY
  5
1A
330
19
100
AcDbDictionary
280
     1
281
     1
  3
BUMPTILE
360
1C
  3
DIFFUSETILE
360
1B
  3
OPACITYTILE
360
1F
  3
REFLECTIONTILE
360
1E
  3
REFRACTIONTILE
360
20
  3
SPECULARTILE
360
1D
  0
DICTIONARY
  5
12
330
11
100
AcDbDictionary
280
     1
281
     1
  3
BUMPTILE
360
14
  3
DIFFUSETILE
360
13
  3
FBXASSET
360
F5
  3
OPACITYTILE
360
17
  3
REFLECTIONTILE
360
16
  3
REFRACTIONTILE
360
18
  3
SPECULARTILE
360
15
  0
DICTIONARY
  5
22
330
21
100
AcDbDictionary
280
     1
281
     1
  3
BUMPTILE
360
24
  3
DIFFUSETILE
360
23
  3
FBXASSET
360
BA
  3
OPACITYTILE
360
27
  3
REFLECTIONTILE
360
26
  3
REFRACTIONTILE
360
28
  3
SPECULARTILE
360
25
  0
DICTIONARY
  5
119B
330
67
100
AcDbDictionary
280
     1
281
     1
  3
ACAD_XREC_ROUNDTRIP
360
119C
  0
DICTIONARY
  5
1199
330
65
100
AcDbDictionary
280
     1
281
     1
  3
ACAD_ROUNDTRIP_2008_TABLESTYLE_CELLSTYLEMAP
360
119A
  0
XRECORD
  5
1C
102
{ACAD_REACTORS
330
1A
102
}
330
1A
100
AcDbXrecord
280
     1
270
     1
271
     1
  0
XRECORD
  5
1B
102
{ACAD_REACTORS
330
1A
102
}
330
1A
100
AcDbXrecord
280
     1
270
     1
271
     1
  0
XRECORD
  5
1F
102
{ACAD_REACTORS
330
1A
102
}
330
1A
100
AcDbXrecord
280
     1
270
     1
271
     1
  0
XRECORD
  5
1E
102
{ACAD_REACTORS
330
1A
102
}
330
1A
100
AcDbXrecord
280
     1
270
     1
271
     1
  0
XRECORD
  5
20
102
{ACAD_REACTORS
330
1A
102
}
330
1A
100
AcDbXrecord
280
     1
270
     1
271
     1
  0
XRECORD
  5
1D
102
{ACAD_REACTORS
330
1A
102
}
330
1A
100
AcDbXrecord
280
     1
270
     1
271
     1
  0
XRECORD
  5
14
102
{ACAD_REACTORS
330
12
102
}
330
12
100
AcDbXrecord
280
     1
270
     1
271
     1
  0
XRECORD
  5
13
102
{ACAD_REACTORS
330
12
102
}
330
12
100
AcDbXrecord
280
     1
270
     1
271
     1
  0
XRECORD
  5
F5
102
{ACAD_REACTORS
330
12
102
}
330
12
100
AcDbXrecord
280
     1
 70
     1
 90
1959938040
 71
     1
  1
C96DED13-F291-4BCF-9C8A-F9A240C02AA0
311
504B03040A0000080000745022423DEE336E79000000790000001B0000006175746F6465736B2D64657369676E2D7061636B6167652E786D6C3C3F786D6C2076657273696F6E3D22312E302220656E636F64696E673D227574662D3822203F3E3C666F726D6174733E3C666F726D61743E687474703A2F2F736368656D612E
311
6175746F6465736B2E636F6D2F64657369676E2D7061636B6167652F323030393C2F666F726D61743E3C2F666F726D6174733E504B030414000608080074502242D486FD9CA0000000F4000000130000005B436F6E74656E745F54797065735D2E786D6C7D8EC10E82300C865F65E91D8A1E8C310C0EEA1BF002731658846E
311
D98AC1B77784ABF1D8FE5FBFBF75BBCE937A534CCEB38643598122B6FEE978D0B0485F9C41B54DDD7D022595594E1A469170414C76A4D9A4D207E29CF43ECE46F218070CC6BECC4078ACAA135ACF422C856C0E68EA1BF5669944DDD7BCDE7B1F8E415D77AECB980613C2E4AC91FC167A2B244592486606FC29C8FD7F045B9A
311
EF7053A7E60B504B030414000608080074502242DE7399B9EA0000007C01000008000000636F72652E786D6C8D905B6EC3201045B782E61F9B87ED2416266A1C7905DD00C2C44189C1325075F9C57948ED5FBF6674E79E99D115C7EFF98EBECC1AAC771DD08200324EFBD1BAA983142F780FE828C5EA7DFC6503E4D46C3AD8
311
6490625A7D5A5E92F62E1A17B3EAFC685EA20AC14440FA9E9B0E82BE9A59152AC5EC08B76251FAA62653D07797E194EC889E47EC98F7D98B352BC83D699A7E6027CCD9B9C6555F7FE0C389577818FAF38E53460EF54E941B2C45B4F3FBBE5E8D8A6604C908E598504CD827252DE16D4530695A4244B9D9FF406919FF0925EB
311
2267AF779F580049F3238F8114E596452E8FA072DD72933F504B03041400060808007450224255019EA25F0000007C00000007000000636E782E786D6C4DCB3B0E80201045D1AD90E915ED2CF8AC45050C11660C8261F98AB1B07AC9C97D42D718D865D3E909258CFD00CCE24AC6E326A164D74DC0B4128928FF326038472B
311
A13128B1252AC747C6BAB984FC68F0B87FE8960A5C09FE86CFB69FBA01504B0304140006080800745022425F8859C565010000020300000C0000006662782F636F72652E786D6C8D52ED8E8320107C15C27F043FFA19A4B9B6E913DC0B50A51EA98241307DFC5B3F9A5E2F4DD3982099D9D99D1DE5BB5B53A35EB94E5B93E3
311
3862182953D8529B2AC7C15FC81AA39DE0CE5AFFA70C23231B95E301C68257CE8676860A6BBC321E50634B3583B2EB94C7A8A8E192E3AEF8518D8C64F050D15DA356165759A9288E80863AC13BEFC0009A860C271697F38DD309173C045DCEAC2E619ABE68E5B058B3E5F2704AF6244D8E0B921D165F64B34F33723A1D8EAB
311
344ED866B1E274100BEE757377573825BD2AB148589C121613967CC76CCBD26DC6085B6E19E374287F1285B6FC5014B4F16932DB9D641D16311819897FDB42441E75B2073F54703A8408AF31E1E7A0211008D9CB737DDFE30A50AF0A6F5D064C69C383EA651D144C65687C389D58E83C3680CD5EF649DEF479DF033EA03415
311
58931EAEE7E087E97C9A3A47D12A477A7F43C6BA46D60F7393C5C7F918F4525ED8DABA4FD4745E95CE61D2E1EF15BF504B030414000608080074502242ACCCE47D7D0000009D0000000B0000006662782F636E782E786D6C4DCCD10A83201886E15B91FFDC65A499A0462BBC8F5816B2D2703A76F9ABD1C18E3E78F87865FB
311
D956F4B6F1E5825750DE0820EB1F61727E5190D38C1B40AD963184F47703E4C7CD2A3819B45C62C8FB45939DC7BCA64357E79F17928E998E138E493D184C695F61C1873B6EAA925146445F1B018596C5AF74EC19D65F504B0304140006080800745022420DBC1EC02B01000015020000310000006662782F30413546413730
311
372D303644462D343443332D393744422D3833313534353039433646392F636F72652E786D6C8D51CB6EC23010FC95C8277A70B2262F821C230AE20BFA0321316041ECC88F8ACFEFBA09527BE3625BB333B3E35DBE7B8E8FE45B5AA78C6E094B812452F76650FADA92E02F7443929DE0D618FF874612DD8DB2251126825FAD
311
09D302F5467BA93DA2DA0C72013BE7A42749FFC0474B5C7F93639776C123C3DDD3A9EBEFDD55A62CC532F20477DE6280646E124F22605F9EF635D414AAE38916C521A74D7DFCA49B9C954509CDA13A353C9B858287A08645AE068CA32E4ADA774DA25870AFC657FCDECACECB818835B09C02A3B0FE62B0857C5B00E6D902F0
311
2CD2FF89C234BC290A4AFB7CBDC49D658E08C6B3B920F860C2F9F10A239F93B13E89FD564EF61FF8AB1420AF9BBADEE004662E4E004DAB623175DE589CF0EA7E463A2B67E7AA103C8B4BC2EB778378C7858A1F504B0304140006080800745022423759E69E4C01000033030000300000006662782F30413546413730372D30
311
3644462D343443332D393744422D3833313534353039433646392F636E782E786D6CD593CD6EC32010845F0571B78D132BAA224CA41EFA043DF48A6193D060B0F8A99AB7EF929034971C7AEC0559B3C3CCEA13E6BBEFD9922F08D17837D2BE659480535E1B7718694EFBE685929DE0C1FBF460A3C4C919465A642AF821F8BC
311
5449C35E669B50B5C69DAA1820FA1C144494CB4D62BD921603C03519459827D01A34B91BF16B0F015741713A937404F2F6FA41FCF4092A45DE9514C1BBD22178396BD383891265658C238DEA08B36C654E5E433CB55A26D9F6EDADEBC94EBF49A45CB855E66048291F6939A9A81BB5C8917738143CA680F4AA299D17A0422E
311
8B354A2684DC5D8C578FE0D9B8B419AAD720F880EE7EB31E060CBBCC044F6686EA500164024DC58AF5EB86F50D5BBDF76CCBD6DB81356CB3658C77C52EF8E4BDAD973006825F88F22E814B54F4BC2BE367F8AA8F681390B50FE73F804400B5F54AE79EF19FF97497F78DB802FE05E207504B030414000608080074502242D4
311
C6723FA405000081100000340000006662782F30413546413730372D303644462D343443332D393744422D3833313534353039433646392F6F626A656374732E786D6CAD575B6FDB3614FE2B82F6B23DD8B26C378B07458563D785D1A52D6AB4D88301839228850B75014925CE7EFD3E4A942C3976E20D7DD18597C373BEF3
311
9D0BBDF7FB945B8F5448966737B63B1CD916CDC23C62597263972A1E5CDBD67BDF1379AE3ACB6C2B2329BDB1F5B0ED7B89C8CBC20C453426255747A3ABDBBF2C19D28CDA56C8899437B60CEF694A86A4547944E5C330228A0C93783F7487F5C2BED84490E2FE48684104CD1434C578062956AD94DBFF1DD98EEF397ADEF7F4
311
D3AC9A9C5FE554F6F4CF679954240B5F1C762466E24E971FC6EF668377D3E96430BD1ABB83DBD5ED72E0FE3E192DAE168BD9FCC30C074B2520C96822686CFB1F818D60A1E7D453BE57B24C4DC66689719023E823D39EB2FDB1E57A4EBDA6B5CE18794AFD30CF321A5658018DCA3E233AA205CD22F89C5109CD3A088DFABFAE
311
C6B1333DD1FFE6C8EEF065087477740435BA37EFAEA679F0374C9097304848AA195863690CADB93A3A201CE43937734C5A29515430C22DCE0241C4B3ED63A95EE27B3D319AC9424783B6C0F6E1857ABA4F1784D1DB3C3FA5655C72AE696CFB5514EC102B54C94A33F60F1507EDBBC84027F84AB3E1DA18A49E0B6AFBB39A22
311
D7476CAA81B4624E12B81C66EA9D93F191A10B1DA7EBA5ED7F5A05FB8D8EDDD38717222FA8509A3EA056E3B8E6AD51323AB917794E6FB08F543980F20DC87F46A81F5481DF04DB4FF753738A122493712E52F8C61A5983111E23CBAD9EFABBF3E539EDE6BEF7CEE109676BA87E029E7D1BBABEECC0E97B8F207C2E26C6B44D
311
4838D2C61DCB00902689C5730C210FC7C1DEF6D7C872C8CAD845B8EFC264A8FB884FCF31629028AA933AEF0C581EA5C50B123460AB1809356AF21B050F7E7A91CEAA83CDB273F0BEFB29749D2F379F36A5884948EF4C4C2F69CC32A650E20EBCE92AD4C3BC67D1037D7ECA4504435FE2BDE9E29D9AA324D0D6986BE09326A7
311
EB9FC3C9BD0342EC4B729D6EBC374E8011BAB076E4DF311952CE4946F3B239F7D5FA81B25143AC835D33B92D3087C202D2D433473188221D0A566810DB6AD526CDE119EBBEAF3F8391B67FFBFC2779EE66AFE0907BC39CE762173CEFEAB47412EA1F7D6E1B0C1C2D0574AF82A4897F03FA2E62715C4A24C113B8FE582FBABE
311
D3690129A2915A47CB14F623B88830A46DE4A25A0B824A9A673B86BA89B83B7940573E20350CA8049ED358521EEF18E765BA8B194735DAA5A43803C7FFD73F28D36247D2BCCCD419D93DD5511DFABAF7D82B9F880AEF6D7F53BD07B7C8BD118DCE9041D7921358F55CBB985D2D3F2CDDC960359EB983E9ED6235982DAEE783
311
D56C3E9E8E16A3F17C7ED0A86AA27CAF2935DD88869750DABC5230E3BEEF6BC48F4902B67F4794DC7EACC3B3797F5F0FD10B7B0EF6A05EB61BE7D123FA3E1ABD2DE0B0F2A4A0755A709AD24C111D4377FA837F23E8337ACAD4E3EB9424F402295F3E6E8E8CC1C805FBBEEA78A74F477BCDE84207E44921EABE4C838C307EB4
311
31A9911C165962F06B7CD2BEEB42D3FCEA3FE31874A632E72C421E8CAC84E62955C886171421915209EA757BFAC8DC3D2ED8FD5877888A049C369ADC1334C95C222C40F23254FD71EB173475BAAFBAB1516E870F78984C615BE0CC8D8D265DB190CA618002AD5BA14A38B8D4EDE4C15992251CBD76BDA9FD6F77696C7A25B9
311
5D7249FF64ECAA53B8310069A440DF808608DEA994F1BD4A37331FFE27C31B752CA2F01994AAB5E530D01A531D8310AD8D32B70534310FE6E83D02F575B3DC61B5A687C845B7AC5749504B1D282292EAA6A0F5332ACD975F1D7428D6FA8B55F032812F2F97341014642E75808345608591591005AA2EFED87E15396EB2A9B5
311
62A080F5EBFEFAEAB7ED224FD33CAB87B673731FB636F7B8DD465B2407AAAF25723B1EB9E36D751D3037945D40241D92483E60009E15AC05BAE77EF0B2BE33A20ED513ED3A47BBE288A1EBA5650ADB14420D5DBAB9558383C623A31662485F2975C4741714AFDE089C6A295410E8E5FD7F01504B0304140006080000745022
311
42000000000000000000000000350000006662782F30413546413730372D303644462D343443332D393744422D3833313534353039433646392F76657274696365732E62696E504B030414000608080074502242F270F1330600000004000000360000006662782F30413546413730372D303644462D343443332D39374442
311
2D3833313534353039433646392F747269616E676C65732E62696E636660600000504B030414000608000074502242000000000000000000000000370000006662782F30413546413730372D303644462D343443332D393744422D3833313534353039433646392F617474726962757465732E62696E504B03041400060808
311
0074502242D5987DFC8F00000041010000360000006662782F30413546413730372D303644462D343443332D393744422D3833313534353039433646392F6469726563746F72792E786D6C858F410EC2201045AF4266AF15DDB800BA74E7C21B903225242D6328188F2FA5C4183471359997F9FF81E89FF3C41E1816475E02
311
DF1F80A11FC8386F25A438EECEC07A250251FC3803E6F58C12560C4AD840E95E91C151A72936F496F35732D860FE635F62C8F2DA16B505C545B74125BAA2FA9E05D7CC053D063734D5C7665FD55B6B8D15D5E9BFEAFD8490FFA45E504B030414000608080074502242B699C488FC000000A00100003B0000006662782F3041
311
3546413730372D303644462D343443332D393744422D3833313534353039433646392F7265736F75726365732F636F72652E786D6C8D50596E833010BD0A9A7F83CD96041947291127E8052C33A156828DBC543D7E4D42A5F6AF3F33A3B7689E1E3F7F2D8FEC139DD7D6F4C0720A191A65276DE61E62B891236467C19DB5E1
311
970C322317EC618341F0D9D9B8EE90B226A009093576C21D94DE63804C3DD2D183571FB8C85CC69014FE9EAF52DDE58C39CB139D7482FBE05280ECF5649B201C7A1B9D42CF8B172B788C7ADA357A4A3FF54DA30371A46D3B8CE58554E5B521F5D05CC8E9ADAAC9380ED743C54A7A6A0EBCD8CC8207BDFC64540E65C0094449
311
59452823B47C67B4A355575342DB8E525E6CF23FA6B84EFF34456D4255EE715F360F82A5204F42F062EB2BAD6799696FDD8A6F504B010214000A0000080000745022423DEE336E79000000790000001B00000000000000000000000000000000006175746F6465736B2D64657369676E2D7061636B6167652E786D6C504B01
311
02140014000608080074502242D486FD9CA0000000F40000001300000000000000000000000000B20000005B436F6E74656E745F54797065735D2E786D6C504B0102140014000608080074502242DE7399B9EA0000007C010000080000000000000000000000000083010000636F72652E786D6C504B010214001400060808
311
007450224255019EA25F0000007C000000070000000000000000000000000093020000636E782E786D6C504B01021400140006080800745022425F8859C565010000020300000C00000000000000000000000000170300006662782F636F72652E786D6C504B0102140014000608080074502242ACCCE47D7D0000009D0000
311
000B00000000000000000000000000A60400006662782F636E782E786D6C504B01021400140006080800745022420DBC1EC02B0100001502000031000000000000000000000000004C0500006662782F30413546413730372D303644462D343443332D393744422D3833313534353039433646392F636F72652E786D6C504B
311
01021400140006080800745022423759E69E4C010000330300003000000000000000000000000000C60600006662782F30413546413730372D303644462D343443332D393744422D3833313534353039433646392F636E782E786D6C504B0102140014000608080074502242D4C6723FA40500008110000034000000000000
311
00000000000000600800006662782F30413546413730372D303644462D343443332D393744422D3833313534353039433646392F6F626A656374732E786D6C504B01021400140006080000745022420000000000000000000000003500000000000000000000000000560E00006662782F30413546413730372D303644462D
311
343443332D393744422D3833313534353039433646392F76657274696365732E62696E504B0102140014000608080074502242F270F13306000000040000003600000000000000000000000000A90E00006662782F30413546413730372D303644462D343443332D393744422D3833313534353039433646392F747269616E
311
676C65732E62696E504B01021400140006080000745022420000000000000000000000003700000000000000000000000000030F00006662782F30413546413730372D303644462D343443332D393744422D3833313534353039433646392F617474726962757465732E62696E504B0102140014000608080074502242D598
311
7DFC8F000000410100003600000000000000000000000000580F00006662782F30413546413730372D303644462D343443332D393744422D3833313534353039433646392F6469726563746F72792E786D6C504B0102140014000608080074502242B699C488FC000000A00100003B000000000000000000000000003B1000
311
006662782F30413546413730372D303644462D343443332D393744422D3833313534353039433646392F7265736F75726365732F636F72652E786D6C504B0506000000000E000E0080040000901100000000
310
504B03040A0000080000745022423DEE336E79000000790000001B0000006175746F6465736B2D64657369676E2D7061636B6167652E786D6C3C3F786D6C2076657273696F6E3D22312E302220656E636F64696E673D227574662D3822203F3E3C666F726D6174733E3C666F726D61743E687474703A2F2F736368656D612E
310
6175746F6465736B2E636F6D2F64657369676E2D7061636B6167652F323030393C2F666F726D61743E3C2F666F726D6174733E504B030414000608080074502242D486FD9CA0000000F4000000130000005B436F6E74656E745F54797065735D2E786D6C7D8EC10E82300C865F65E91D8A1E8C310C0EEA1BF002731658846E
310
D98AC1B77784ABF1D8FE5FBFBF75BBCE937A534CCEB38643598122B6FEE978D0B0485F9C41B54DDD7D022595594E1A469170414C76A4D9A4D207E29CF43ECE46F218070CC6BECC4078ACAA135ACF422C856C0E68EA1BF5669944DDD7BCDE7B1F8E415D77AECB980613C2E4AC91FC167A2B244592486606FC29C8FD7F045B9A
310
EF7053A7E60B504B0304140006080800745022424B1964FAE90000007C01000008000000636F72652E786D6C8D90D16EC3200C457F05F99DC4902A4D2242B545D917EC0710A12D6A035180699F3FD2A6D2F6B6275BD7F7D8D615A7EFF94EBECC1AAC773DB0028118A7FD64DDA58714CFB401729262F53EFEB201716A363D6C
310
324871597D5A76497B178D8B59757E32BBA842301188BEE7A687A0AF6656854A313BC2AD5894BEA98B29D8ABCB704A7622CF2376CAFBECD99A15647B6C46368CEFB469DA811E5835D21671A0C8DF3EEA23E3BC1EB82837588A68E7D77DBD1A15CD049223AB28B2ECFF64D861D51D9062DD218A72B3FF81D232FD134AD6C58A
310
EFEF3EB10092E5471E0329CA2D8B5C1E41E5BAE5267F00504B03041400060808007450224255019EA25F0000007C00000007000000636E782E786D6C4DCB3B0E80201045D1AD90E915ED2CF8AC45050C11660C8261F98AB1B07AC9C97D42D718D865D3E909258CFD00CCE24AC6E326A164D74DC0B4128928FF326038472BA1
310
3128B1252AC747C6BAB984FC68F0B87FE8960A5C09FE86CFB69FBA01504B0304140006080800745022426837B93B64010000020300000C0000006662782F636F72652E786D6C8D52ED8E8320107C15C27F05B4696D833477A6F704F70254A947AA60104C1FFFD68FC6EBA5691A1324333BBBB3A3FC786B1B3428D76B6B72CC
310
628A9132A5ADB4A9731CFC25CA303A0AEEACF57FCA3032B255391E612C78ED6CE816A8B4C62BE30135B6520B28FB5E798CCA062E39EECB1FD5CA58060F15FD35EE647995B58A590C34D409DE7B0706D03C643CB1B89C6F9CCCB8E021E86A617505D3F4452B87C57E979D5871FA8CB26C5F441B969EA23DA54544938FAFED8E
310
25C9B6483819C5827BDDDEDD954E49AF2A2C12CAD28832A8FF66F440D3C38646747BA09493B1FC4114BAEA4D51D0C6A7C9627796F55830303211FFB685883CEAE5007E88E0640C115E53C28F41432010B297E7E6BEC715A04195DEBA0D30950D2B35C82628984AD1F47032B3D0796A009B3DED93BCE8F3BA077C40696AB026
310
3D5CCFC18FD3F93C7589A2532E1AFC0D19EB5AD9ACE6668BEBB90E7A2A2F6D63DD3B6AB2AC4A9630C9F8F78A5F504B030414000608080074502242FBD20D427D0000009D0000000B0000006662782F636E782E786D6C4DCCD10A83201886E15B91FFDC7268B1811A5AEE3E6259C84C87D3D8E5AF46073BFAE0E1E3E5DD67F5
310
68B3E9ED621070A908201B1E7172611150F28CAF803AC9538CF9EF06288CAB15703048BEA4585E274D761E8BCFBB7A179E271AA38C6E698359C3346666E8B1EE6F0A3345553BDC293194402D79FD2BED7B84E517504B030414000608080074502242CF5B70F62B01000015020000310000006662782F45454145423633352D
310
343534422D344544432D424339412D3441334136444633304533302F636F72652E786D6C8D51CB6E833010FC15CBA7F46058B0831A641C91847E417F8080935A0936F2A3CAE7D72E446A6FB978ADD999D9D12EDF3FA63BFA96D629A31B5C648091D4831995BE3638F80B79C7682FB835C6FFA161A4FB493638C158F0AB3561
310
5EA1C1682FB58FA836A35CC1DE39E9311AEEF1D360377CC9A9CFFAE023C3DDB2B91F6EFD55664516DB9127B8F3360640CB90F462D1756D77A8E896B02D3B10D69D8EE470DCB584B5B4AD4E1F143A0A3C5F848287A0C655AEC618475D94B4AF9A24B1E05E4DCFF88395BD9723162514944041A0FC2CA0065A332050D5102727
310
FA3F5198C7174541694FCB35EE227358143C5F1A828F269CEFCF30F2311BEB519AB7717278C30232000645C9B63B9E2FDCB881685AB1D5D47963E38637B773A4D3D5B96282E7E948B1FC5E30D67450F103504B03041400060808007450224251FE29895401000033030000300000006662782F45454145423633352D343534
310
422D344544432D424339412D3441334136444633304533302F636E782E786D6CBD93C16EC32010447F0571B78D63CB8A224CA41EFA053DF44A6093D060B00057CDDF7749489A4B0E95AA5E90353BCCAC9E30DF7E4D967C4288C6BB91B635A3049CF2DAB8C34897B4AFD6946C050FDEA7071B254E4E30D22C53C10FC12F7391
310
34ECE56213AAD6B853110344BF040511E57C9358AFA4C50070D582224C3BD01A34B91BF16B0F015741717726E908E4F5E59DF8DD07A814799353046F7287E0F92C4D0F264A9495318E34AA234CB2964BF21AE2A9D632C9BAAD6F5D4F76FA4922F9C2AD720986E4F291E6938AB2518D1C798343C1630A48AF98D279062AE43C
310
5BA36442C8CDC578F508BE189786BE780D820FE8EE56C37A8D619799E0C94C501C2A804CA0A958B1B6AB585BB1D55BCB36ACDBF4AC62C38631DE64BBE03BEF6DB9843110FC4C9477095CA2A2E54D1E3FC3577C449B80AC7D38FF02240228AD573AF78CBFE4D30E5DDFFF239FE6F2BE1157C0BF407C03504B03041400060808
310
0074502242ACEC87FC640700009A1B0000340000006662782F45454145423633352D343534422D344544432D424339412D3441334136444633304533302F6F626A656374732E786D6CED59DD73AB3616FF5718F6A57D3036B693C63B848E63DFDCF1B469EFD4BD9D7DF00C23834CB4118291446EDCBF7E8F3EC0404C82B7E9
310
5B1F6C404847E7FCCEA70EC18F2F19759E31172467B7AEEF4D5C07B3384F084B6FDD521E4637AEF36318F03C978D69AEC350866F5D35EC8641CAF3B2B043093EA092CACEE8FDDD7F1C1163865D27A648885B57C48F38431E2A659E60F1E42548222F3DBC78BE6726B6C9A61C158F1DA205E29849E014C61950710C537EFB71
310
E28EC360ACDE8781FAB7B3668366CDFB678DB5D46D2E091312B1F8154B1D32B3412CCDFCF9FAD3F46A31BA9ACF67A3F9F5D41FDDDDDFAD47FE0FB3C9EA7AB55A2C3F2D80BD7D9E532B53820BCC12D0DFD10DFD60ACDED4A25B04CE711DE78CE15803095069B1BA040916B05503BE49FBD15712355E6B091BCF73F5DEB2D018
310
9EB5A9F4CD1A06448B2E0862B7AB24AEAE4DF9F2FD7F417031C428B9C012B8159283762D3C1CBCC20D27C1D88C86C1FEA40B229C0C49CC09A20E257B8E382805A6AA296160165832CA3938907294045A73E675DBB6C033DF779D735C1E4A4A9567B8A176AC08DC0F4BA139237F627EE2BE890CF004D29684C91BCBA53C16D8
310
0D17C1580F8681BACCA6F6A501D23950940A8D8879DB1174A55C7FB376C39FEEF72F5B150ECE6F5EF0BCC05C2AA3537AD47C8121DBAB42C96EEB0FD29C5A00C21850EDCA1328BF01F2BF40F438B1027AE3E465FE32B77325474C1C729E816E9C89339AC0DFC4F1F5BFBA6FDC05E37A715B7B7D78829B2AA86EFE3A9E6D1934
310
5696FF069C61F00C069FF3997DB58D11057B7E200C005246E2D01C8620B41FF62F6EB881C009811E56211AFA2032B0FB0CB7C1D8923969A5722FEB750C10B57BCC86280960D316096CF4E8E933640F4EE2939A9A22F6C17BF521E6BA5C6F7FDA96FC8062FC607D7A8D0F84110959F33C432DCC5B123DE1E3B79C2720E86BBC
310
B74DBC33BB9500B415E60AF8B402413D9C766E6D10C3BA3457E1267867071042E5EA06FD0722624C2962382FAB7DEBE8A60CB5F6785B33B8E1D4403C9B764C98E367A2AA0A709AD38C16A390F7634E0A05A21B7E3692D541D3EB91EEEBE617B0C87A7ECFAC0D83D0CB10FD5D07AD3338B42CBB42DA02510BBC3F85F338A739
310
8FF6C7C8443A176A0960A3ED2D7FB48842AC374A5254C083B4DF55212535D24609391C4A0171F50C8B7F6C564D73987833FFCA69FE779C710ED1167C1771EB779D3D2292A114470794F46DD7DCADA62D34C91ED21C1F28C8459E893C4648469304A797407311F1C587524F692E04615840BE3A0B7E138D890781C468B36259
310
69B5033411518625A29720A0C8F480ABD38EAE7163281DDEE7B1B6DEB734D624FA37590447504BE62C22508A420E799771DFBB8218D246D7A0DCC117ACADA2ADC5A0259410F131FA8649FA282F41DD90EFC13D86234929A3BC403198F500B2AF7C4529B5C3FB1EC54F2A7F4471493FCA4004A68788505A6611FC088393C710
310
D7AE03D39B2834889BD8277106451992251FB2C9F5D5E4D53EA666E886C0C6460742216C47192A7A506F05445D8F3835F8967A8F52F765564428CB4B36C850BC59D79B2CF9AE5A15D981FCAA5211CAC68AB025180684C93AAB56311B4C5D075670231DA88E91405941CD29EC9DC4E3D7DEA429F76EC0AD9F7EEC0619147E3D
310
DA6B46D4790583E5B15518886F48C68F6EB8D5D7D11DD4DF094E4EA9BEAA359B152020A62279C98955D1D70D9437B64673C30724C5EEB3C9BAD5F5EBC683EE4730863550BBD40B370AE80C33895465F2A06EE86F0842708B8619DFA89C7A09956592E8AA11D17BD2A7CE5619D1DA34235EF188599EC18FED088B6999E01D4A
310
C453F42069B4258A752BA597910AE33705FCF5F3B6030F8C0C10E98B2AF0F0B7CE5A3BBA52E5D25922F2B1CCF60C1108822DD152A31BAF60A9D548A5E5FAAACE14507781815915CFFF395934DB11FF9C2C526B187FE9647177FC191D9B7D91463A8F955D5F740CA8F393A2F211C700DD76A8A9D659C424732BBF75A6088262
310
15E507576355D03004FB38FEBFB3765F1634DB75F8BF2C6BFBAF2A8E8BB24A6BB2EA529DA95C37CD1CB65A5CAF3FADFDD9E87EBAF047F3BBD5FD68B1BA598EEE17CBE97CB29A4C97CB1347DA51C3A00E663A77C1B3096AD5B07AB218405756E49424709A4F9C1443CC9770A61FD03EE71916903C9BCDEEC436E507AC7E367D
310
4E89F614579C3C2268105301691D302A63D91E77FE05AD490907ED5B179A46DE13FC59AB741DC83CB72EB40A2489B1F0F6D066520D3D4D1C52AECEFD9618E08358AA52A259543FD7AB1436ADF05F4F199206AC5CAD1E06146E0574BF5A1D0ACD9BE529BE48F08A1D0749B8DD9712AA3523CB69A016466F7352BF918D12F664
310
B77E01D77D5B2CDFD3735A880CFA64F0A61118AA238978AAFBDD8A31CBD272FD650C7D3667F3AB53D032055D0EA734E2188CB954051558115885A5592009A6BAFAF7EE0BCFE1134FE6E8AAC8F9EEE5E6FAFBDD2ACFB29C99A1DD124E65097C2872B68FF0D927D941F18055735DECA6137FBAD34D6DDB678FF648604F554530
310
5015134A908EC9815DBE6A50D9F6E558A9A2337DB3766C10856680B1A3573D5EF391CB011F529F5394C7683FAFA47DB3AF3DD653C1263874A4C3FF01504B030414000608000074502242000000000000000000000000350000006662782F45454145423633352D343534422D344544432D424339412D344133413644463330
310
4533302F76657274696365732E62696E504B030414000608080074502242F270F1330600000004000000360000006662782F45454145423633352D343534422D344544432D424339412D3441334136444633304533302F747269616E676C65732E62696E636660600000504B03041400060800007450224200000000000000
310
0000000000370000006662782F45454145423633352D343534422D344544432D424339412D3441334136444633304533302F617474726962757465732E62696E504B030414000608080074502242D5987DFC8F00000041010000360000006662782F45454145423633352D343534422D344544432D424339412D3441334136
310
444633304533302F6469726563746F72792E786D6C858F410EC2201045AF4266AF15DDB800BA74E7C21B903225242D6328188F2FA5C4183471359997F9FF81E89FF3C41E1816475E02DF1F80A11FC8386F25A438EECEC07A250251FC3803E6F58C12560C4AD840E95E91C151A72936F496F35732D860FE635F62C8F2DA16B5
310
05C545B74125BAA2FA9E05D7CC053D063734D5C7665FD55B6B8D15D5E9BFEAFD8490FFA45E504B03041400060808007450224223F339CBFC000000A00100003B0000006662782F45454145423633352D343534422D344544432D424339412D3441334136444633304533302F7265736F75726365732F636F72652E786D6C8D
310
905D6E83301084AF82F6DD60434420328E22444FD00B586643AD041BF9A7EAF16B072AB56F7DF15A33DF6847CBAF5FEBB3F844E7B53503B092428146D9599B658018EEA483E22AB8B336FCC2A03072C501B20C822FCEC6ED909435014D48AAB1331EA2F41E0314EA993E0378F581AB2C650C89F08F7293EA21172C5999ECC4
310
09EE834B058A7D497E4138F4363A859E57BB2B788C7A3E183DA79DFAAED181E8CFDDC4C6E946BAAE1FC9893513E9291D09AD6F6FED99D5753BD6BCCA61C1835E7F3A2A8732E00CA2A6AC219425FE9DD10B6D2E274A687BA1945719FF138ADBFCCF50D42634F551778F79102C1579198257F95E69BC8E9966BEADF806504B01
310
0214000A0000080000745022423DEE336E79000000790000001B00000000000000000000000000000000006175746F6465736B2D64657369676E2D7061636B6167652E786D6C504B0102140014000608080074502242D486FD9CA0000000F40000001300000000000000000000000000B20000005B436F6E74656E745F5479
310
7065735D2E786D6C504B01021400140006080800745022424B1964FAE90000007C010000080000000000000000000000000083010000636F72652E786D6C504B010214001400060808007450224255019EA25F0000007C000000070000000000000000000000000092020000636E782E786D6C504B01021400140006080800
310
745022426837B93B64010000020300000C00000000000000000000000000160300006662782F636F72652E786D6C504B0102140014000608080074502242FBD20D427D0000009D0000000B00000000000000000000000000A40400006662782F636E782E786D6C504B0102140014000608080074502242CF5B70F62B010000
310
1502000031000000000000000000000000004A0500006662782F45454145423633352D343534422D344544432D424339412D3441334136444633304533302F636F72652E786D6C504B010214001400060808007450224251FE298954010000330300003000000000000000000000000000C40600006662782F454541454236
310
33352D343534422D344544432D424339412D3441334136444633304533302F636E782E786D6C504B0102140014000608080074502242ACEC87FC640700009A1B00003400000000000000000000000000660800006662782F45454145423633352D343534422D344544432D424339412D3441334136444633304533302F6F62
310
6A656374732E786D6C504B010214001400060800007450224200000000000000000000000035000000000000000000000000001C1000006662782F45454145423633352D343534422D344544432D424339412D3441334136444633304533302F76657274696365732E62696E504B0102140014000608080074502242F270F1
310
33060000000400000036000000000000000000000000006F1000006662782F45454145423633352D343534422D344544432D424339412D3441334136444633304533302F747269616E676C65732E62696E504B01021400140006080000745022420000000000000000000000003700000000000000000000000000C9100000
310
6662782F45454145423633352D343534422D344544432D424339412D3441334136444633304533302F617474726962757465732E62696E504B0102140014000608080074502242D5987DFC8F0000004101000036000000000000000000000000001E1100006662782F45454145423633352D343534422D344544432D424339
310
412D3441334136444633304533302F6469726563746F72792E786D6C504B010214001400060808007450224223F339CBFC000000A00100003B00000000000000000000000000011200006662782F45454145423633352D343534422D344544432D424339412D3441334136444633304533302F7265736F75726365732F636F
310
72652E786D6C504B0506000000000E000E0080040000561300000000
  0
XRECORD
  5
17
102
{ACAD_REACTORS
330
12
102
}
330
12
100
AcDbXrecord
280
     1
270
     1
271
     1
  0
XRECORD
  5
16
102
{ACAD_REACTORS
330
12
102
}
330
12
100
AcDbXrecord
280
     1
270
     1
271
     1
  0
XRECORD
  5
18
102
{ACAD_REACTORS
330
12
102
}
330
12
100
AcDbXrecord
280
     1
270
     1
271
     1
  0
XRECORD
  5
15
102
{ACAD_REACTORS
330
12
102
}
330
12
100
AcDbXrecord
280
     1
270
     1
271
     1
  0
XRECORD
  5
24
102
{ACAD_REACTORS
330
22
102
}
330
22
100
AcDbXrecord
280
     1
270
     1
271
     1
  0
XRECORD
  5
23
102
{ACAD_REACTORS
330
22
102
}
330
22
100
AcDbXrecord
280
     1
270
     1
271
     1
  0
XRECORD
  5
BA
102
{ACAD_REACTORS
330
22
102
}
330
22
100
AcDbXrecord
280
     1
 70
     1
 90
1959938040
 71
     1
  1
E26992B3-2A57-4F0E-A5C7-F8904E7BFE99
311
504B03040A0000080000745022423DEE336E79000000790000001B0000006175746F6465736B2D64657369676E2D7061636B6167652E786D6C3C3F786D6C2076657273696F6E3D22312E302220656E636F64696E673D227574662D3822203F3E3C666F726D6174733E3C666F726D61743E687474703A2F2F736368656D612E
311
6175746F6465736B2E636F6D2F64657369676E2D7061636B6167652F323030393C2F666F726D61743E3C2F666F726D6174733E504B030414000608080074502242D486FD9CA0000000F4000000130000005B436F6E74656E745F54797065735D2E786D6C7D8EC10E82300C865F65E91D8A1E8C310C0EEA1BF002731658846E
311
D98AC1B77784ABF1D8FE5FBFBF75BBCE937A534CCEB38643598122B6FEE978D0B0485F9C41B54DDD7D022595594E1A469170414C76A4D9A4D207E29CF43ECE46F218070CC6BECC4078ACAA135ACF422C856C0E68EA1BF5669944DDD7BCDE7B1F8E415D77AECB980613C2E4AC91FC167A2B244592486606FC29C8FD7F045B9A
311
EF7053A7E60B504B0304140006080800745022427DD87F50EA0000007C01000008000000636F72652E786D6C8D90416EC3201045AF82668F0DC6751C0B13B56E7D825E0001715062B00C543D7E71E248EDAEAB19FDF96F66F4F9E97BBEA12FB306EB5D0FB420808C535E5B37F590E219B7804E82AFDEC75F36404ECEA6874D
311
06C1A7D5A765979477D1B89855E7B5D94519828980D42D373D047531B32C648AD911AEC522D5554EA6A0CF2EC329598D1E47ACCEFBECD99A15C4C886A63ABEBEE1F7E3A1C67533D6B8AD588B477A607418C697FAA3E1E5060B1EEDFCBCAF5623A3D1202A4219261493EA93928EB0AE2698341D21BCDCEC7FA0B4E87F42C9BA
311
C8AAFDDD071640D0FCC87D2078B96591CB3DA85CB7DCC40F504B03041400060808007450224255019EA25F0000007C00000007000000636E782E786D6C4DCB3B0E80201045D1AD90E915ED2CF8AC45050C11660C8261F98AB1B07AC9C97D42D718D865D3E909258CFD00CCE24AC6E326A164D74DC0B4128928FF326038472B
311
A13128B1252AC747C6BAB984FC68F0B87FE8960A5C09FE86CFB69FBA01504B03041400060808007450224244A9A19366010000020300000C0000006662782F636F72652E786D6C8D525B6E833010BC8AE57F63F32879C8386AD372825EC00187A2808D8C8D72FC2E8F88A68AA208C958333BBBB303FC706D1B3428DBD74667
311
380C18464A17A6AC759561EFCE648BD141706B8CFB53869196ADCAF00863C12B6B7CB74085D14E6907A836A55A40D9F7CA61543470C9705FFCA85606D23BA8E82F41278B8BAC54100640439DE0BDB36000CD43C6138BF3E9CAE98C0BEE7D5D2E6C5DC2B4FA5C2B8B451E1FD368F7FE413E779B8424699E906D146F491E6EE2
311
F078CCDF92AF94D3512CB8ABDB9BBBC22AE9548945C4C298B090B0E83B647B16EF134658BA678CD3B1FC4EE4BBF24591AFB58BA3C5EE2CEBB108C1C844FCDB162272A89703F8A182D33144784D09DF070D8140C84E9E9ADB1E17800655386313604AE3576A908D573095A1E9E17466A1F3D400367BD8277AD2E7790FF88052
311
57604D3AB89EBC1BA7F379EA1245A72C19DC1569635BD9ACE6668BEBB90E7A282F4C63EC2B6ABAAC4A9730E9F8F78A5F504B0304140006080800745022428433B8AC7D0000009D0000000B0000006662782F636E782E786D6C4DCCD10AC2201886E15B91FFDCA64B64823AACEC3E467343723A4CA3CB6F8B1D74F4C1C3C72B
311
FBCF12D0DBE5974F51013D11402E3ED2E8E3ACA0960977807A2D734AE5EF06280E8B53B0336839E754D78346370D35944D838FCF039911674E788BA9E1023373BD60614987D9CD08766FADE58442A365F32B6DBB87F517504B0304140006080800745022421587CACE2B01000014020000310000006662782F344139333630
311
36322D314136392D344143422D394530382D3444413934463245453630312F636F72652E786D6C8D51CB6EC32010FC158B537AC05E6C6AC5112672DBF40BFA03C4900425068B4795CF2FD48ED4DE7261D1ECCCECC0B2FD7DBA15DFCA796D4D8F4809A85066B4529B738F6238E12D2AF69C396BC31F1A2A8C98548F328C383B
311
3B1BE7151AAD09CA84841A2BD50A0AEF5540C5784B971EF9F1A226518A1812C35FCB598C5771562529533BF138F3C1A500C532249F88D3A16B5A686B4C86B6C374787FC3DD01B6987E0C1DFDAC0F871608AB162167316AB9CAB54C71F4492BF7AC49167316F4F4883F3A25829288D7401A0C0443FD456007CD8E02867607C0
311
AA4CFF278AB37C5214B5094DBDC65D641EF1F49AA5C199B4F1787B8451F7D9BA50E4791BAFC617C4A1046868B7859A550B357D40F26CE9EAE98375E98337D7636293575665E3967256E51DA5F2BBC054F33EF90F504B0304140006080800745022423759E69E4C01000033030000300000006662782F34413933363036322D
311
314136392D344143422D394530382D3444413934463245453630312F636E782E786D6CD593CD6EC32010845F0571B78D132BAA224CA41EFA043DF48A6193D060B0F8A99AB7EF929034971C7AEC0559B3C3CCEA13E6BBEFD9922F08D17837D2BE659480535E1B7718694EFBE685929DE0C1FBF460A3C4C919465A642AF821F8
311
BC5449C35E669B50B5C69DAA1820FA1C144494CB4D62BD921603C03519459827D01A34B91BF16B0F015741713A937404F2F6FA41FCF4092A45DE9514C1BBD22178396BD383891265658C238DEA08B36C654E5E433CB55A26D9F6EDADEBC94EBF49A45CB855E66048291F6939A9A81BB5C8917738143CA680F4AA299D17A042
311
2E8B354A2684DC5D8C578FE0D9B8B419AAD720F880EE7EB31E060CBBCC044F6686EA500164024DC58AF5EB86F50D5BBDF76CCBD6DB81356CB3658C77C52EF8E4BDAD973006825F88F22E814B54F4BC2BE367F8AA8F681390B50FE73F804400B5F54AE79EF19FF97497F78DB802FE05E207504B030414000608080074502242
311
6F348169A405000080100000340000006662782F34413933363036322D314136392D344143422D394530382D3444413934463245453630312F6F626A656374732E786D6CAD575B8F9B3814FE2B887DD97DC83D73C98AA1CA24932AAAA6AD1AB5DA87489101C378C76064CC34B3BF7E3F6343204DA6D9555F4230C7C7E77CE7
311
3B177BEFF629775EA82C98C8EEDC517FE83A340B45C4B2E4CE2D55DCBB759D77BE2785502D31D7C9484AEF5CBDECFA5E224599DBA588C6A4E4EA687575FF97538434A3AE13725214776E113ED194F449A944448BE77E4414E927F1BE3FEA1BC1AEDA4492FCE948694E24CD142CC57A062D8E316AD47D1DBA03DF1BE8EFBEA7
311
7FADD4E4BCD4A0F2A77B3ECB0A45B2F087C38ED44C46D3E5C3F86AD6BB9A4E27BDE9F578D4BB5FDD2F7BA39BC97071BD58CCE60F331C5C28094DD6124963D77F0F6C240BBD81F9E47B25CBD4646C456C800692BE301D29D71F3B236F60641AEFAC93A7CC0F4596D1B0C20A6854FE59D511CD691621E68C16B0AC85D0B0FB3A
311
D238B63E4FF4BB3DB2BD7C1902ED1D2D45B5EDF5B36DA908FE860BC5250C9205D50C34585A470D578707840321B8FDC60A27258A4A46B8C35920897C757D886A11DFEBA8D14C963A1BB407AE8F2898CF5DBA208D7ECEF35356C625E79AC6AE5F65C10EB942555159C6FEA1F2607D1B19D884586936DC5A87D46B4E5D7F6628
311
727BC42603A413739220E47053EF9C8C8F1C5DE83C5D2F5DFFC32AD86F74EE9E3E3C9722A75269FA805A75E0EAA746C9DA34BA28727A837B64CA01942F40FE2352FD600AE226D97EBA9FDA53942459110B992236CED0E90DF1337446D5AFFEDFFAE70D9ACDDDE89DC313C1D650FD023CBB3EB463D982D3F75E40782127D6B5
311
4D4838CAC623CB00902689C305965087E360EFFA6B54395465EC22DC1FC16598FB82BFDEC0AA41A1A84E6A3D33607954162F28D080AD6224CC30E4B7061EE2F44339AB0EB662E7E0BDFA25749D2F371F36A58C49481F6D4E2F69CC32A6D0E20EBC691BD4C1BCE3D1337DFD2E6404477FC47BD3C63BB54715405B63AE814FEA
311
9AAE5F0E27770E08B12F11BADC783F39014EE8C6DAD2FFC88A90724E322ACAFADC37FB07DA86815827BB6672D3600E8D05A4315F8E72104D3A942CD72036DDAA299AFD33DE7D5D7F042321CF4540F841283894DE50702177C1EBCE54A593487FEB52DB4230D05AC0F62A47EAF4B798EF2216C765811A7802D66FEB453B74BA
311
2AA042D45A4DB24CE13E728B48CBD95A2F9AB52468A422DB31B44DA4DDC903DAFA81A82540A5F09CC505E5F18E715EA6BB987134A35D4AF23370FC7FFB8332CD77241565A6CEE8EE988EE6D0B5BD43DEE23B51E193EB6FAA67EF1EA537A2D121CC1D61DD4A4E60D509EDC3F87A361BDF4F7AE3F9D54D6FBA1A3EF4E6578B9B
311
DEEA76369C3EDCDCAF1E66B33A4E46B9EFD59DA69DD088123A9B574A66C3F7758DF4B135C0F51F892AB6EF4D76D6CFAFEB3E46616F803D6897CDC679F482B18F463F5770903CA9689DE69CA6345344A7D0A3FEC3BF108C191D63CCFA3A2509BD40CBA7F79B2367B072C1BECF3ADDE9F7A3BD7675A113F2A412F554A6414618
311
3FDA981824FB799658FCEA98344FD367EA57FD660383C1B4109C4528839193509152856278410F92292D40BDF6481FD9ABC705BB5FCC80A848C0696DC913C18CCC0BA405A85586AABBEEFC86994E8F55772EBA6DFF193FB652B80E3873E76246572CA4453F407FD69350A51C5C6A0FF298FB4996708CDA6653F3DEECD2D874
311
3A722372C9F864FD3215DC3A803292636CC03C84E854C6F85E659BFD1EFE27C76B731CA2F0372855E3CB61A171A63A06296A9CB29705CC30CFF6E83D12F56DB746FD4AA683C84597AC374960B4F61491497551D0F65993E6CBCF030C28CEFA9393F332412C2FD7D49314642E758283456085D5991305AA2EFEDC7E960217D9
311
D4593150C0F97D7F7BFDC77621D2546466693BB7D76167F384CB6DB44571A0FA56526CC7C3D1785BDD06EC0565179082F649543C63019195AC01BA137EF0D25C19D187CC87466EA04371C4D0F5D2B18D6D0AA5962EEDDAAAC1C1DC91510739A46F943A63DA02F99B178241250A13244679FF5F504B03041400060800007450
311
2242000000000000000000000000350000006662782F34413933363036322D314136392D344143422D394530382D3444413934463245453630312F76657274696365732E62696E504B030414000608080074502242F270F1330600000004000000360000006662782F34413933363036322D314136392D344143422D394530
311
382D3444413934463245453630312F747269616E676C65732E62696E636660600000504B030414000608000074502242000000000000000000000000370000006662782F34413933363036322D314136392D344143422D394530382D3444413934463245453630312F617474726962757465732E62696E504B030414000608
311
080074502242D5987DFC8F00000041010000360000006662782F34413933363036322D314136392D344143422D394530382D3444413934463245453630312F6469726563746F72792E786D6C858F410EC2201045AF4266AF15DDB800BA74E7C21B903225242D6328188F2FA5C4183471359997F9FF81E89FF3C41E1816475E
311
02DF1F80A11FC8386F25A438EECEC07A250251FC3803E6F58C12560C4AD840E95E91C151A72936F496F35732D860FE635F62C8F2DA16B505C545B74125BAA2FA9E05D7CC053D063734D5C7665FD55B6B8D15D5E9BFEAFD8490FFA45E504B03041400060808007450224215322261FC000000A00100003B0000006662782F34
311
413933363036322D314136392D344143422D394530382D3444413934463245453630312F7265736F75726365732F636F72652E786D6C8D504B6E833010BD0A9ABDC1064A08328E225A4ED00B586642AD041BF953F5F835814AEDAE9B99D1FB689E1EBF7C2D8FEC139DD7D6F4C0720A191A65276DE61E62B89116B28BE0CEDA
311
F04B0699910BF6B0C120F8EC6C5C0F485913D084841A3BE1014AEF3140A61EE9E8C1AB0F5C642E63480A7FCF57A9EE72C69CE5894E3AC17D702940B63FD9260887DE46A7D0F36267058F514F87464FE9A7BE697420C66A68CAF3F54A5ECFA79AD4CD5893B6AC5A32B253C586617CA9DF1A5E6C66C1835E7E322A8732E004A2
311
A4AC2294115ABE33DAD1AAAB29A14D47292F36F91F535CA77F9AA236A12A8FB8BBCD836029C89310BCD8FA4AEB5966DA5BB7E21B504B010214000A0000080000745022423DEE336E79000000790000001B00000000000000000000000000000000006175746F6465736B2D64657369676E2D7061636B6167652E786D6C504B
311
0102140014000608080074502242D486FD9CA0000000F40000001300000000000000000000000000B20000005B436F6E74656E745F54797065735D2E786D6C504B01021400140006080800745022427DD87F50EA0000007C010000080000000000000000000000000083010000636F72652E786D6C504B0102140014000608
311
08007450224255019EA25F0000007C000000070000000000000000000000000093020000636E782E786D6C504B010214001400060808007450224244A9A19366010000020300000C00000000000000000000000000170300006662782F636F72652E786D6C504B01021400140006080800745022428433B8AC7D0000009D00
311
00000B00000000000000000000000000A70400006662782F636E782E786D6C504B01021400140006080800745022421587CACE2B0100001402000031000000000000000000000000004D0500006662782F34413933363036322D314136392D344143422D394530382D3444413934463245453630312F636F72652E786D6C50
311
4B01021400140006080800745022423759E69E4C010000330300003000000000000000000000000000C70600006662782F34413933363036322D314136392D344143422D394530382D3444413934463245453630312F636E782E786D6C504B01021400140006080800745022426F348169A405000080100000340000000000
311
0000000000000000610800006662782F34413933363036322D314136392D344143422D394530382D3444413934463245453630312F6F626A656374732E786D6C504B01021400140006080000745022420000000000000000000000003500000000000000000000000000570E00006662782F34413933363036322D31413639
311
2D344143422D394530382D3444413934463245453630312F76657274696365732E62696E504B0102140014000608080074502242F270F13306000000040000003600000000000000000000000000AA0E00006662782F34413933363036322D314136392D344143422D394530382D3444413934463245453630312F74726961
311
6E676C65732E62696E504B01021400140006080000745022420000000000000000000000003700000000000000000000000000040F00006662782F34413933363036322D314136392D344143422D394530382D3444413934463245453630312F617474726962757465732E62696E504B0102140014000608080074502242D5
311
987DFC8F000000410100003600000000000000000000000000590F00006662782F34413933363036322D314136392D344143422D394530382D3444413934463245453630312F6469726563746F72792E786D6C504B010214001400060808007450224215322261FC000000A00100003B000000000000000000000000003C10
311
00006662782F34413933363036322D314136392D344143422D394530382D3444413934463245453630312F7265736F75726365732F636F72652E786D6C504B0506000000000E000E0080040000911100000000
310
504B03040A0000080000745022423DEE336E79000000790000001B0000006175746F6465736B2D64657369676E2D7061636B6167652E786D6C3C3F786D6C2076657273696F6E3D22312E302220656E636F64696E673D227574662D3822203F3E3C666F726D6174733E3C666F726D61743E687474703A2F2F736368656D612E
310
6175746F6465736B2E636F6D2F64657369676E2D7061636B6167652F323030393C2F666F726D61743E3C2F666F726D6174733E504B030414000608080074502242D486FD9CA0000000F4000000130000005B436F6E74656E745F54797065735D2E786D6C7D8EC10E82300C865F65E91D8A1E8C310C0EEA1BF002731658846E
310
D98AC1B77784ABF1D8FE5FBFBF75BBCE937A534CCEB38643598122B6FEE978D0B0485F9C41B54DDD7D022595594E1A469170414C76A4D9A4D207E29CF43ECE46F218070CC6BECC4078ACAA135ACF422C856C0E68EA1BF5669944DDD7BCDE7B1F8E415D77AECB980613C2E4AC91FC167A2B244592486606FC29C8FD7F045B9A
310
EF7053A7E60B504B0304140006080800745022425E296528E90000007C01000008000000636F72652E786D6C8D904D6EC3201085AF82668F0D26AD7F8489AC543E412F80803828315806A21CBF3871A476D7D58CDEBC6F66F4F8F131DFD0DDACC17AD7032D0820E394D7D64D3DA478C60DA0A3E0ABF7F1970D9093B3E96193
310
41F069F569D925E55D342E66D5796D76518660222075CB4D0F415DCC2C0B996276846BB14875959329E8BBCB704A56A3D711ABF33E7BB6660531B28FA6A9C71AB7CD30E043CB4EB8A98716D7B41D46C6BE083DB5BCDC60C1A39DDFF7D56A64341A444528C38462527D53D211D61D08269F1D21BCDCEC7FA0B4E87F42C9BAC8
310
AAFDDD171640D0FCC8732078B96591CB33A85CB7DCC40F504B03041400060808007450224255019EA25F0000007C00000007000000636E782E786D6C4DCB3B0E80201045D1AD90E915ED2CF8AC45050C11660C8261F98AB1B07AC9C97D42D718D865D3E909258CFD00CCE24AC6E326A164D74DC0B4128928FF326038472BA1
310
3128B1252AC747C6BAB984FC68F0B87FE8960A5C09FE86CFB69FBA01504B030414000608080074502242C4C654A065010000020300000C0000006662782F636F72652E786D6C8D52ED8E8320107C15C27F04B5776A8334A6973EC1BD0055EA992A1804D3C7BFF5A3F17A699AC604C9CCCEEEEC283FDCBA168DCA0E8DD1390E
310
038691D2A5A91A5DE7D8BB0B49313A086E8D717FCA30D2B253399E602C786D8DEF57A834DA29ED00D5A6522B288741398CCA162E391ECA1FD5C9407A0715C335E8657995B50AC20068A8137C70160CA065C874627139DF385D70C1BD6FAA956D2A98D65C1A65B138C51F699A9C1292A5454176597C246952642409B3E214C7
310
5F2C3C669C4E62C15DD3DDDD955649A72A2C2216C684858445DF21DBB378BF63847DEE19E3742A7F10F9BE7A53E41BEDE268B5BBC8062C42303213FFB685881C1AE4087EA8E0740A115E73C28F41432010B293E7F6BEC715A05195CED81D3095F11B35CAD62B98CAD0FC70BAB0D0796E009B3DED13BDE8F3BA077C40A96BB0
310
261D5CCFDE4DD3F932758DA257968CEE86B4B19D6C37738BC5EDDC063D9597A635F61D355D57A56B9874FA7BC52F504B0304140006080800745022427EBDF1DD7D0000009D0000000B0000006662782F636E782E786D6C4DCCD10A83201886E15B91FFDCB554D0408DE5EA3E6259C84CC3E9D8E5AF46073BFAE0E1E395ED67
310
F5E86DD3CBC5A0A0BE5C01D9F088930B8B8292672C00B55AA618F3DF0D501857ABE060D07249B16C274D761E8BCFBB7A179E2712D3353DA10C0B33F4983582E0DBC03BCC4DCD291546DC39834ACBEA57DAF708EB2F504B0304140006080800745022424F12B3112B01000015020000310000006662782F3243423945323334
310
2D384346452D343938322D414637422D3743313733333843384437342F636F72652E786D6C8D51CB6E833010FC15CBA7F4603018F19271D4D0E40BFA03C438A99560233FAA7C7E9742A4F6968BD79A9D991DEDF2FD63BAA36FE5BCB6A6C35942315246DA519B6B8763B8901AA3BDE0CEDAF08786911926D5E105C6825F9D8D
310
F306496B823201506347B58183F72A6024EFF0E9B0975F6A1A92210660F85B320FF2365C559225D0069EE03E380880D621CB8B45DE1F9A63CE0A52F7A723299A3A27EFA7EA40AA3EAB18ABFBFAA32A78BA0A058F518F9B5C8F10475FB472AF9A2C62C1839E9EF1A553435023E869C608CD08CD3F33DA52D61694D0B2A594A7
310
0BFD9F28CEE38BA2A84D60F9167795792C329EAE0DC1471BCFF76718F598AD0B6899B7F34ABE6141134A59D39425AB78BA726103605A169BA90FD6C18677B733D0D9E65C1682A7CB91A0FC5E10EA7250F103504B03041400060808007450224251FE29895401000033030000300000006662782F32434239453233342D3843
310
46452D343938322D414637422D3743313733333843384437342F636E782E786D6CBD93C16EC32010447F0571B78D63CB8A224CA41EFA053DF44A6093D060B00057CDDF7749489A4B0E95AA5E90353BCCAC9E30DF7E4D967C4288C6BB91B635A3049CF2DAB8C34897B4AFD6946C050FDEA7071B254E4E30D22C53C10FC12F73
310
9134ECE56213AAD6B853110344BF040511E57C9358AFA4C50070D582224C3BD01A34B91BF16B0F015741717726E908E4F5E59DF8DD07A814799353046F7287E0F92C4D0F264A9495318E34AA234CB2964BF21AE2A9D632C9BAAD6F5D4F76FA4922F9C2AD720986E4F291E6938AB2518D1C798343C1630A48AF98D279062AE4
310
3C5BA36442C8CDC578F508BE189786BE780D820FE8EE56C37A8D619799E0C94C501C2A804CA0A958B1B6AB585BB1D55BCB36ACDBF4AC62C38631DE64BBE03BEF6DB9843110FC4C9477095CA2A2E54D1E3FC3577C449B80AC7D38FF02240228AD573AF78CBFE4D30E5DDFFF239FE6F2BE1157C0BF407C03504B030414000608
310
0800745022425BD53D5163070000991B0000340000006662782F32434239453233342D384346452D343938322D414637422D3743313733333843384437342F6F626A656374732E786D6CED59DD739B3810FF5718EEE5EEC1D8D84E1ADF106E1227E9783A693BF5B5730F9E616490892E4230924893FBEB6FF5010662127CCD
310
BDF5C10684B4DAFDEDA796E08FC78C3A0F980B92B373D7F726AE83599C2784A5E76E2977A333D7F9230C789ECBC634D76128C3E7AE1A76C320E57959D8A104EF50496567F4E6F22F47C49861D7892912E2DC15F11DCE90874A992758DC7B0992C84B778F9EEF99896DB22947C55D87688138661238857106541CC394DF7E9C
310
B8E33018ABF761A0FEEDACD9A059F3FE59632D759B4BC284442C7EC65287CC6C104B337F7E753D3D598C4EE6F3D9687E3AF5479737975723FFDD6CB23C5D2E1717D70B606F9BE7D4CA94E002B304F4F7E4867E30566F6AD12D0287B88E73C670AC8104A8B4585D82040BD8AA01DFA4FDE82B891AAFB5848DE7B97A6F59680C
310
CFDA54FA660D03A2451704B1DB551257D7A67CF9F66F105C0C314A2EB0046E85E4A05D0B0F07AF70C3493036A361B0DDEB82082743127382A843C996230E4A81A96A4A189805968C720E0EA41C2581D69C79DDB62DF0CCD75DE71097BB9252E5196EA81D2B02F7C35268CEC83F98EFB96F22033C81B42561F2CC72299F0AEC
310
868B60AC07C3405D6653FBD200E9EC284A8546C4BCED08BA54AEBFBA72C30F37DBC7B50A0787372F785E602E95D1293D6ABEC090ED55A164B7F507694E2D00610CA876E51E942F80FC47881E7B56406F9C3CCE1FE776AEE488895DCE33D08D33714613F89B38BEFE57F78DBB605C2F6E6BAF0F4F705305D5D98FE3D9964163
310
65F96FC019060F60F0399FD957EB1851B0E75BC2002065240ECD610842FB6EFBE8862B089C10E86115A2A10F2203BB0F701B8C2D99BD562AF7B25EC70051BBC76C889200366D91C0468F9EDE43F6E024DEABA929621FBC276F62AE1757EB0FEB92EF508C6FAD4F5FE11D614442D63CCC500BF39644F7F8E97BCE1310F439DE
310
EB26DE99DD4A00DA0A73057C5A81A01EF63BB73688615D9AAB7013BCB20308A1727583FE2D1131A614319C97D5BE757453865A7BBCAD19DC706A209E4D3B26CCF10351550538CD7E468B51C8FB31278502D10DDF1BC9EAA0E9F548F775F5112CB29EDF336BC520F43244FFD441EB000E2DCBAE90B640D4026FF7E13CCE69CE
310
A3ED5364229D0BB504B0D1F6966F2DA210EB8D921415F020ED775548498DB4514276BB52405C3DC0E2B7D5B2690E136FE69F38CDFF8E33CE21DA82EF226EFDAEB347443294E2688792BEED9ABBD5B48526D9439AE31D05B9C803914F1192D124C1E931D01C457CF1A6D4539A0B41181690AF0E82DF4463E2412031DAAC5856
310
5AED004D44946189E8310828323DE0EAB4A36BDC184A87D779ACADF7258D3589FE4F16C111D492398B0894A290435E65DCF74E2086B4D1352877F0056BAB686B3168092544FC147DC724BD93C7A06EC8F7E01EC391A494515EA018CC7A00D967BEA294DAE17D8BE27B953FA2B8A46F652002D35D44282DB3087E84C1C96388
310
6BD781E945141AC44DEC933883A20CC9920FD9E4F464F26C1F533374436063A31DA110B6A30C153DA8B702A2AE479C1A7C4BBD47A9DB322B2294E5251B6428DEACEB4D967C57AD8AEC407E55A908656345D8120C03C2649D55AB980DA6AE032BB8910E544F91405941CD29EC95C4E3D7DEA429F76EC0AD9FBEED0619147E3D
310
DA6B46D4790583E5B1551888EF48C6776EB8D6D7D125D4DF094EF6A9BEAA359B152020A62279C98955D1D7159437B64673C35B24C5E6BDC9BAD5F5EBCA83EE4730863550BBD40B570AE80C3389546572AB6EE8170421B845C38CAF544E3D86CA4592E8AA11D11BD2A7CE5619D1DA34235E7187599EC18F6D088B6999E00D4A
310
C47D742B69B4268A752BA597910AE31705FCF47EDD8107460688F4591578F87B67AD1D5DAA72E920117957665B860804C19668A9D18D57B0D46AA4D2727D55670AA8BBC0C0AC8AE73F4F16CD76C4CF93456A0DE3C74E1634DF22BA8F368D6C1E2BB33EEA1450A72745E52D4E01BAEB5053AD9388C9E5567CEB4B11C4C42AC8
310
0F2EC6AA986108F671FC9F93765F1234DB75F83F2E69FBCF0A8EA3924A6BB26A521D285C57CD14763D3D5D2CA697B3D1F4E2E4DD687E33B91E5D9C2CDF8D6ECE1693F9F5BBCB9BEBC5A24653FB6918D4B14CA72E783631AD1A564F160368CA8A9C92040EF389936208F9128EF403BAE73CC3027267B3D79DD89EFC80D50FA6
310
CD29D196E28A933B04FD612A20AB0346652CDBE3CE2FD0999470CE3E77A167E4DDC39FB54AD781C473EE42A74092180B6F0B5D26D5CFD3C421E3EAD46F89013E88A52A239A45F573BD4A61D38AFEF5942159C0CAD56A6140DD5640F3ABD5A0D0BC599EE2A304AFD8719084DB6D29A15833B2EC076A61F4367BF51BD92861F7
310
76EB4770DD97C5F23D3DA785C8A02F062F1A81A13A9288A7BADDAD18B32C5D5C7D1E439BCD597D720A5AA6A0CBE194461C833197AA9E022B02ABB0340B24C15497BF6F3EF31CBEF0648E2E8A9C5F1FCF4E7FDB2CF32CCB9919DA5CC0A12C81EF44CEFA0EBEFA241BA81DB0EAAD8BCD74E24F37BAA76DDBECD11609ECA9A208
310
06AA5A4209D23139B0CB67FD29DBBD1C2B5574A6AFAE1C1B44A11760ECE8598BD77CE372C087D4D714E531DACF2B695F6C6B8FF554B0090E0DE9F05F504B030414000608000074502242000000000000000000000000350000006662782F32434239453233342D384346452D343938322D414637422D374331373333384338
310
4437342F76657274696365732E62696E504B030414000608080074502242F270F1330600000004000000360000006662782F32434239453233342D384346452D343938322D414637422D3743313733333843384437342F747269616E676C65732E62696E636660600000504B03041400060800007450224200000000000000
310
0000000000370000006662782F32434239453233342D384346452D343938322D414637422D3743313733333843384437342F617474726962757465732E62696E504B030414000608080074502242D5987DFC8F00000041010000360000006662782F32434239453233342D384346452D343938322D414637422D3743313733
310
333843384437342F6469726563746F72792E786D6C858F410EC2201045AF4266AF15DDB800BA74E7C21B903225242D6328188F2FA5C4183471359997F9FF81E89FF3C41E1816475E02DF1F80A11FC8386F25A438EECEC07A250251FC3803E6F58C12560C4AD840E95E91C151A72936F496F35732D860FE635F62C8F2DA16B5
310
05C545B74125BAA2FA9E05D7CC053D063734D5C7665FD55B6B8D15D5E9BFEAFD8490FFA45E504B0304140006080800745022424D824BB0FC000000A00100003B0000006662782F32434239453233342D384346452D343938322D414637422D3743313733333843384437342F7265736F75726365732F636F72652E786D6C8D
310
504B6E833010BD0A9ABDC1C66902C83842A938412F6099496225D8C89FAAC7AF09546A77DDCC8CDE47F3F4C4F96B7E169FE88371B607565228D06A37197BEB21C52B69A0384BE19D8BBF64505835630F2B0C52DCBC4BCB0E696723DA9851EB26DC4115024628F4331F3D047DC759952AC5AC088F7251FAA16E58B232D35927
310
45883E0728B627EB04E931B8E43506516DAC14299969D79829FF3457831EE4C8DF9AE6341E49DB0C0339B4FC429AD3D092136B8791F377CA2EADA856B314D1CC3F19B5471571025953C6096584D61F8C769477074AE8B1A35454ABFC8F292DD33F4DC9D8C8EB3DEE660B20590EF222A4A8D6BEF27A9599F7DAADFC06504B01
310
0214000A0000080000745022423DEE336E79000000790000001B00000000000000000000000000000000006175746F6465736B2D64657369676E2D7061636B6167652E786D6C504B0102140014000608080074502242D486FD9CA0000000F40000001300000000000000000000000000B20000005B436F6E74656E745F5479
310
7065735D2E786D6C504B01021400140006080800745022425E296528E90000007C010000080000000000000000000000000083010000636F72652E786D6C504B010214001400060808007450224255019EA25F0000007C000000070000000000000000000000000092020000636E782E786D6C504B01021400140006080800
310
74502242C4C654A065010000020300000C00000000000000000000000000160300006662782F636F72652E786D6C504B01021400140006080800745022427EBDF1DD7D0000009D0000000B00000000000000000000000000A50400006662782F636E782E786D6C504B01021400140006080800745022424F12B3112B010000
310
1502000031000000000000000000000000004B0500006662782F32434239453233342D384346452D343938322D414637422D3743313733333843384437342F636F72652E786D6C504B010214001400060808007450224251FE298954010000330300003000000000000000000000000000C50600006662782F324342394532
310
33342D384346452D343938322D414637422D3743313733333843384437342F636E782E786D6C504B01021400140006080800745022425BD53D5163070000991B00003400000000000000000000000000670800006662782F32434239453233342D384346452D343938322D414637422D3743313733333843384437342F6F62
310
6A656374732E786D6C504B010214001400060800007450224200000000000000000000000035000000000000000000000000001C1000006662782F32434239453233342D384346452D343938322D414637422D3743313733333843384437342F76657274696365732E62696E504B0102140014000608080074502242F270F1
310
33060000000400000036000000000000000000000000006F1000006662782F32434239453233342D384346452D343938322D414637422D3743313733333843384437342F747269616E676C65732E62696E504B01021400140006080000745022420000000000000000000000003700000000000000000000000000C9100000
310
6662782F32434239453233342D384346452D343938322D414637422D3743313733333843384437342F617474726962757465732E62696E504B0102140014000608080074502242D5987DFC8F0000004101000036000000000000000000000000001E1100006662782F32434239453233342D384346452D343938322D414637
310
422D3743313733333843384437342F6469726563746F72792E786D6C504B01021400140006080800745022424D824BB0FC000000A00100003B00000000000000000000000000011200006662782F32434239453233342D384346452D343938322D414637422D3743313733333843384437342F7265736F75726365732F636F
310
72652E786D6C504B0506000000000E000E0080040000561300000000
  0
XRECORD
  5
27
102
{ACAD_REACTORS
330
22
102
}
330
22
100
AcDbXrecord
280
     1
270
     1
271
     1
  0
XRECORD
  5
26
102
{ACAD_REACTORS
330
22
102
}
330
22
100
AcDbXrecord
280
     1
270
     1
271
     1
  0
XRECORD
  5
28
102
{ACAD_REACTORS
330
22
102
}
330
22
100
AcDbXrecord
280
     1
270
     1
271
     1
  0
XRECORD
  5
25
102
{ACAD_REACTORS
330
22
102
}
330
22
100
AcDbXrecord
280
     1
270
     1
271
     1
  0
XRECORD
  5
119C
102
{ACAD_REACTORS
330
119B
102
}
330
119B
100
AcDbXrecord
280
     1
102
ACAD_ROUNDTRIP_2012_MLEADER_STYLE
298
     1
  0
CELLSTYLEMAP
  5
119A
102
{ACAD_REACTORS
330
1199
102
}
330
1199
100
AcDbCellStyleMap
 90
        3
300
CELLSTYLE
  1
TABLEFORMAT_BEGIN
 90
        5
170
     1
 91
        0
 92
    32768
 62
   257
 93
        1
300
CONTENTFORMAT
  1
CONTENTFORMAT_BEGIN
 90
        0
 91
        0
 92
      512
 93
        0
300

 40
0.0
140
1.0
 94
        5
 62
     0
340
55
144
0.25
309
CONTENTFORMAT_END
171
     0
 94
        0
309
TABLEFORMAT_END
  1
CELLSTYLE_BEGIN
 90
        1
 91
        1
300
_TITLE
309
CELLSTYLE_END
300
CELLSTYLE
  1
TABLEFORMAT_BEGIN
 90
        5
170
     1
 91
        0
 92
        0
 62
   257
 93
        1
300
CONTENTFORMAT
  1
CONTENTFORMAT_BEGIN
 90
        0
 91
        0
 92
      512
 93
        0
300

 40
0.0
140
1.0
 94
        5
 62
     0
340
55
144
0.18
309
CONTENTFORMAT_END
171
     0
 94
        0
309
TABLEFORMAT_END
  1
CELLSTYLE_BEGIN
 90
        2
 91
        1
300
_HEADER
309
CELLSTYLE_END
300
CELLSTYLE
  1
TABLEFORMAT_BEGIN
 90
        5
170
     1
 91
        0
 92
        0
 62
   257
 93
        1
300
CONTENTFORMAT
  1
CONTENTFORMAT_BEGIN
 90
        0
 91
        0
 92
      512
 93
        0
300

 40
0.0
140
1.0
 94
        2
 62
     0
340
55
144
0.18
309
CONTENTFORMAT_END
171
     0
 94
        0
309
TABLEFORMAT_END
  1
CELLSTYLE_BEGIN
 90
        3
 91
        2
300
_DATA
309
CELLSTYLE_END
  0
ENDSEC
  0
EOF
