  0
SECTION
  2
HEADER
  9
$ACADVER
  1
AC1024
  9
$ACADMAINTVER
 70
    63
  9
$DWGCODEPAGE
  3
ANSI_1252
  9
$AUTHOR
  1
KA
  9
$REVISIONNUMBER
  1
-
  9
$CUSTOMPROPERTYTAG
  1
Manager
  9
$CUSTOMPROPERTY
  1

  9
$CUSTOMPROPERTYTAG
  1
Company
  9
$CUSTOMPROPERTY
  1

  9
$CUSTOMPROPERTYTAG
  1
Category
  9
$CUSTOMPROPERTY
  1

  9
$CUSTOMPROPERTYTAG
  1
Part Number
  9
$CUSTOMPROPERTY
  1
SSWT6-S
  9
$CUSTOMPROPERTYTAG
  1
Description
  9
$CUSTOMPROPERTY
  1

  9
$CUSTOMPROPERTYTAG
  1
Project
  9
$CUSTOMPROPERTY
  1

  9
$CUSTOMPROPERTYTAG
  1
Designer
  9
$CUSTOMPROPERTY
  1
KA
  9
$CUSTOMPROPERTYTAG
  1
Engineer
  9
$CUSTOMPROPERTY
  1

  9
$CUSTOMPROPERTYTAG
  1
Authority
  9
$CUSTOMPROPERTY
  1

  9
$CUSTOMPROPERTYTAG
  1
Cost Center
  9
$CUSTOMPROPERTY
  1

  9
$CUSTOMPROPERTYTAG
  1
Vendor
  9
$CUSTOMPROPERTY
  1

  9
$CUSTOMPROPERTYTAG
  1
User Status
  9
$CUSTOMPROPERTY
  1

  9
$CUSTOMPROPERTYTAG
  1
Design Status
  9
$CUSTOMPROPERTY
  1
WorkInProgress
  9
$CUSTOMPROPERTYTAG
  1
Checked by
  9
$CUSTOMPROPERTY
  1
DN
  9
$CUSTOMPROPERTYTAG
  1
Date Checked
  9
$CUSTOMPROPERTY
  1
08/10/2012
  9
$CUSTOMPROPERTYTAG
  1
Engr Approved by
  9
$CUSTOMPROPERTY
  1

  9
$CUSTOMPROPERTYTAG
  1
Mfg Approved by
  9
$CUSTOMPROPERTY
  1

  9
$CUSTOMPROPERTYTAG
  1
DWG. NO
  9
$CUSTOMPROPERTY
  1

  9
$CUSTOMPROPERTYTAG
  1
NUMBER OF SHEETS
  9
$CUSTOMPROPERTY
  1
1
  9
$CUSTOMPROPERTYTAG
  1
DRAWING #
  9
$CUSTOMPROPERTY
  1

  9
$INSBASE
 10
0.0
 20
0.0
 30
0.0
  9
$EXTMIN
 10
0.0
 20
0.0
 30
0.0
  9
$EXTMAX
 10
54.40000000000001
 20
35.2
 30
0.0
  9
$LIMMIN
 10
0.0
 20
0.0
  9
$LIMMAX
 10
54.40000000000001
 20
35.2
  9
$ORTHOMODE
 70
     0
  9
$REGENMODE
 70
     1
  9
$FILLMODE
 70
     1
  9
$QTEXTMODE
 70
     0
  9
$MIRRTEXT
 70
     0
  9
$LTSCALE
 40
3.2
  9
$ATTMODE
 70
     1
  9
$TEXTSIZE
 40
0.2
  9
$TRACEWID
 40
0.05
  9
$TEXTSTYLE
  7
Standard
  9
$CLAYER
  8
0
  9
$CELTYPE
  6
ByLayer
  9
$CECOLOR
 62
   256
  9
$CELTSCALE
 40
1.0
  9
$DISPSILH
 70
     0
  9
$DIMSCALE
 40
1.0
  9
$DIMASZ
 40
0.0708661417322835
  9
$DIMEXO
 40
0.0625
  9
$DIMDLI
 40
0.38
  9
$DIMRND
 40
0.0
  9
$DIMDLE
 40
0.0
  9
$DIMEXE
 40
0.18
  9
$DIMTP
 40
0.0
  9
$DIMTM
 40
0.0
  9
$DIMTXT
 40
0.0708661417322835
  9
$DIMCEN
 40
0.09
  9
$DIMTSZ
 40
0.0
  9
$DIMTOL
 70
     0
  9
$DIMLIM
 70
     0
  9
$DIMTIH
 70
     1
  9
$DIMTOH
 70
     1
  9
$DIMSE1
 70
     0
  9
$DIMSE2
 70
     0
  9
$DIMTAD
 70
     0
  9
$DIMZIN
 70
     0
  9
$DIMBLK
  1

  9
$DIMASO
 70
     1
  9
$DIMSHO
 70
     1
  9
$DIMPOST
  1

  9
$DIMAPOST
  1

  9
$DIMALT
 70
     0
  9
$DIMALTD
 70
     2
  9
$DIMALTF
 40
25.4
  9
$DIMLFAC
 40
1.0
  9
$DIMTOFL
 70
     0
  9
$DIMTVP
 40
0.0
  9
$DIMTIX
 70
     0
  9
$DIMSOXD
 70
     0
  9
$DIMSAH
 70
     0
  9
$DIMBLK1
  1

  9
$DIMBLK2
  1

  9
$DIMSTYLE
  2
Standard
  9
$DIMCLRD
 70
     0
  9
$DIMCLRE
 70
     0
  9
$DIMCLRT
 70
     0
  9
$DIMTFAC
 40
1.0
  9
$DIMGAP
 40
0.09
  9
$DIMJUST
 70
     0
  9
$DIMSD1
 70
     0
  9
$DIMSD2
 70
     0
  9
$DIMTOLJ
 70
     1
  9
$DIMTZIN
 70
     0
  9
$DIMALTZ
 70
     0
  9
$DIMALTTZ
 70
     0
  9
$DIMUPT
 70
     0
  9
$DIMDEC
 70
     4
  9
$DIMTDEC
 70
     4
  9
$DIMALTU
 70
     2
  9
$DIMALTTD
 70
     2
  9
$DIMTXSTY
  7
Standard
  9
$DIMAUNIT
 70
     0
  9
$DIMADEC
 70
     0
  9
$DIMALTRND
 40
0.0
  9
$DIMAZIN
 70
     0
  9
$DIMDSEP
 70
    46
  9
$DIMATFIT
 70
     3
  9
$DIMFRAC
 70
     0
  9
$DIMLDRBLK
  1

  9
$DIMLUNIT
 70
     2
  9
$DIMLWD
 70
    -2
  9
$DIMLWE
 70
    -2
  9
$DIMTMOVE
 70
     0
  9
$DIMFXL
 40
1.0
  9
$DIMFXLON
 70
     0
  9
$DIMJOGANG
 40
0.7853981633974483
  9
$DIMTFILL
 70
     0
  9
$DIMTFILLCLR
 70
     0
  9
$DIMARCSYM
 70
     0
  9
$DIMLTYPE
  6

  9
$DIMLTEX1
  6

  9
$DIMLTEX2
  6

  9
$DIMTXTDIRECTION
 70
     0
  9
$LUNITS
 70
     2
  9
$LUPREC
 70
     4
  9
$SKETCHINC
 40
0.1
  9
$FILLETRAD
 40
0.0
  9
$AUNITS
 70
     0
  9
$AUPREC
 70
     0
  9
$MENU
  1
.
  9
$ELEVATION
 40
0.0
  9
$PELEVATION
 40
0.0
  9
$THICKNESS
 40
0.0
  9
$LIMCHECK
 70
     0
  9
$CHAMFERA
 40
0.0
  9
$CHAMFERB
 40
0.0
  9
$CHAMFERC
 40
0.0
  9
$CHAMFERD
 40
0.0
  9
$SKPOLY
 70
     0
  9
$TDCREATE
 40
2456295.416641169
  9
$TDUCREATE
 40
2456295.666641169
  9
$TDUPDATE
 40
2456295.416641181
  9
$TDUUPDATE
 40
2456295.666641180
  9
$TDINDWG
 40
0.0000274769
  9
$TDUSRTIMER
 40
0.0000274769
  9
$USRTIMER
 70
     1
  9
$ANGBASE
 50
0.0
  9
$ANGDIR
 70
     0
  9
$PDMODE
 70
     0
  9
$PDSIZE
 40
0.0
  9
$PLINEWID
 40
0.0
  9
$SPLFRAME
 70
     0
  9
$SPLINETYPE
 70
     6
  9
$SPLINESEGS
 70
     8
  9
$HANDSEED
  5
11B2
  9
$SURFTAB1
 70
     6
  9
$SURFTAB2
 70
     6
  9
$SURFTYPE
 70
     6
  9
$SURFU
 70
     6
  9
$SURFV
 70
     6
  9
$UCSBASE
  2

  9
$UCSNAME
  2

  9
$UCSORG
 10
0.0
 20
0.0
 30
0.0
  9
$UCSXDIR
 10
1.0
 20
0.0
 30
0.0
  9
$UCSYDIR
 10
0.0
 20
1.0
 30
0.0
  9
$UCSORTHOREF
  2

  9
$UCSORTHOVIEW
 70
     0
  9
$UCSORGTOP
 10
0.0
 20
0.0
 30
0.0
  9
$UCSORGBOTTOM
 10
0.0
 20
0.0
 30
0.0
  9
$UCSORGLEFT
 10
0.0
 20
0.0
 30
0.0
  9
$UCSORGRIGHT
 10
0.0
 20
0.0
 30
0.0
  9
$UCSORGFRONT
 10
0.0
 20
0.0
 30
0.0
  9
$UCSORGBACK
 10
0.0
 20
0.0
 30
0.0
  9
$PUCSBASE
  2

  9
$PUCSNAME
  2

  9
$PUCSORG
 10
0.0
 20
0.0
 30
0.0
  9
$PUCSXDIR
 10
1.0
 20
0.0
 30
0.0
  9
$PUCSYDIR
 10
0.0
 20
1.0
 30
0.0
  9
$PUCSORTHOREF
  2

  9
$PUCSORTHOVIEW
 70
     0
  9
$PUCSORGTOP
 10
0.0
 20
0.0
 30
0.0
  9
$PUCSORGBOTTOM
 10
0.0
 20
0.0
 30
0.0
  9
$PUCSORGLEFT
 10
0.0
 20
0.0
 30
0.0
  9
$PUCSORGRIGHT
 10
0.0
 20
0.0
 30
0.0
  9
$PUCSORGFRONT
 10
0.0
 20
0.0
 30
0.0
  9
$PUCSORGBACK
 10
0.0
 20
0.0
 30
0.0
  9
$USERI1
 70
     0
  9
$USERI2
 70
     0
  9
$USERI3
 70
     0
  9
$USERI4
 70
     0
  9
$USERI5
 70
     0
  9
$USERR1
 40
0.0
  9
$USERR2
 40
0.0
  9
$USERR3
 40
0.0
  9
$USERR4
 40
0.0
  9
$USERR5
 40
0.0
  9
$WORLDVIEW
 70
     1
  9
$SHADEDGE
 70
     3
  9
$SHADEDIF
 70
    70
  9
$TILEMODE
 70
     1
  9
$MAXACTVP
 70
    64
  9
$PINSBASE
 10
0.0
 20
0.0
 30
0.0
  9
$PLIMCHECK
 70
     0
  9
$PEXTMIN
 10
0.0
 20
0.0
 30
0.0
  9
$PEXTMAX
 10
54.40000000000001
 20
35.2
 30
0.0
  9
$PLIMMIN
 10
0.0
 20
0.0
  9
$PLIMMAX
 10
54.40000000000001
 20
35.2
  9
$UNITMODE
 70
     0
  9
$VISRETAIN
 70
     1
  9
$PLINEGEN
 70
     0
  9
$PSLTSCALE
 70
     1
  9
$TREEDEPTH
 70
  3020
  9
$CMLSTYLE
  2
Standard
  9
$CMLJUST
 70
     0
  9
$CMLSCALE
 40
1.0
  9
$PROXYGRAPHICS
 70
     1
  9
$MEASUREMENT
 70
     0
  9
$CELWEIGHT
370
    -1
  9
$ENDCAPS
280
     0
  9
$JOINSTYLE
280
     0
  9
$LWDISPLAY
290
     0
  9
$INSUNITS
 70
     1
  9
$HYPERLINKBASE
  1

  9
$STYLESHEET
  1

  9
$XEDIT
290
     1
  9
$CEPSNTYPE
380
     0
  9
$PSTYLEMODE
290
     1
  9
$FINGERPRINTGUID
  2
{1710A022-3E7D-4BE6-85FD-5ACE1A33D2E4}
  9
$VERSIONGUID
  2
{9219CB0A-3823-4401-8FAE-77C7B548B79C}
  9
$EXTNAMES
290
     1
  9
$PSVPSCALE
 40
0.0
  9
$OLESTARTUP
290
     0
  9
$SORTENTS
280
   127
  9
$INDEXCTL
280
     0
  9
$HIDETEXT
280
     1
  9
$XCLIPFRAME
280
     2
  9
$HALOGAP
280
     0
  9
$OBSCOLOR
 70
   257
  9
$OBSLTYPE
280
     0
  9
$INTERSECTIONDISPLAY
280
     0
  9
$INTERSECTIONCOLOR
 70
   257
  9
$DIMASSOC
280
     1
  9
$PROJECTNAME
  1

  9
$CAMERADISPLAY
290
     0
  9
$LENSLENGTH
 40
50.0
  9
$CAMERAHEIGHT
 40
0.0
  9
$STEPSPERSEC
 40
2.0
  9
$STEPSIZE
 40
6.0
  9
$3DDWFPREC
 40
2.0
  9
$PSOLWIDTH
 40
0.25
  9
$PSOLHEIGHT
 40
4.0
  9
$LOFTANG1
 40
1.570796326794896
  9
$LOFTANG2
 40
1.570796326794896
  9
$LOFTMAG1
 40
0.0
  9
$LOFTMAG2
 40
0.0
  9
$LOFTPARAM
 70
     7
  9
$LOFTNORMALS
280
     1
  9
$LATITUDE
 40
37.795
  9
$LONGITUDE
 40
-122.394
  9
$NORTHDIRECTION
 40
0.0
  9
$TIMEZONE
 70
 -8000
  9
$LIGHTGLYPHDISPLAY
280
     1
  9
$TILEMODELIGHTSYNCH
280
     1
  9
$CMATERIAL
347
11
  9
$SOLIDHIST
280
     0
  9
$SHOWHIST
280
     1
  9
$DWFFRAME
280
     2
  9
$DGNFRAME
280
     0
  9
$REALWORLDSCALE
290
     1
  9
$INTERFERECOLOR
 62
     1
  9
$INTERFEREOBJVS
345
33
  9
$INTERFEREVPVS
346
30
  9
$CSHADOW
280
     0
  9
$SHADOWPLANELOCATION
 40
0.0
  0
ENDSEC
  0
SECTION
  2
CLASSES
  0
CLASS
  1
ACDBDICTIONARYWDFLT
  2
AcDbDictionaryWithDefault
  3
ObjectDBX Classes
 90
        0
 91
        1
280
     0
281
     0
  0
CLASS
  1
MATERIAL
  2
AcDbMaterial
  3
ObjectDBX Classes
 90
     1153
 91
        3
280
     0
281
     0
  0
CLASS
  1
VISUALSTYLE
  2
AcDbVisualStyle
  3
ObjectDBX Classes
 90
     4095
 91
       24
280
     0
281
     0
  0
CLASS
  1
SCALE
  2
AcDbScale
  3
ObjectDBX Classes
 90
     1153
 91
       17
280
     0
281
     0
  0
CLASS
  1
TABLESTYLE
  2
AcDbTableStyle
  3
ObjectDBX Classes
 90
     4095
 91
        1
280
     0
281
     0
  0
CLASS
  1
MLEADERSTYLE
  2
AcDbMLeaderStyle
  3
ACDB_MLEADERSTYLE_CLASS
 90
     4095
 91
        1
280
     0
281
     0
  0
CLASS
  1
DICTIONARYVAR
  2
AcDbDictionaryVar
  3
ObjectDBX Classes
 90
        0
 91
        3
280
     0
281
     0
  0
CLASS
  1
CELLSTYLEMAP
  2
AcDbCellStyleMap
  3
ObjectDBX Classes
 90
     1152
 91
        1
280
     0
281
     0
  0
ENDSEC
  0
SECTION
  2
TABLES
  0
TABLE
  2
VPORT
  5
8
330
0
100
AcDbSymbolTable
 70
     1
  0
VPORT
  5
57
330
8
100
AcDbSymbolTableRecord
100
AcDbViewportTableRecord
  2
*Active
 70
     0
 10
0.0
 20
0.0
 11
1.0
 21
1.0
 12
27.20000000000001
 22
17.6
 13
0.0
 23
0.0
 14
1.0
 24
1.0
 15
0.0
 25
0.0
 16
0.0
 26
0.0
 36
1.0
 17
0.0
 27
0.0
 37
0.0
 40
35.2
 41
1.545454545454545
 42
50.0
 43
0.0
 44
0.0
 50
0.0
 51
0.0
 71
     0
 72
   100
 73
     1
 74
     1
 75
     0
 76
     0
 77
     0
 78
     0
281
     0
 65
     1
110
0.0
120
0.0
130
0.0
111
1.0
121
0.0
131
0.0
112
0.0
122
1.0
132
0.0
 79
     0
146
0.0
 60
     3
 61
     5
292
     1
282
     1
141
0.0
142
0.0
 63
   250
421
  3355443
  0
ENDTAB
  0
TABLE
  2
LTYPE
  5
5
330
0
100
AcDbSymbolTable
 70
    59
  0
LTYPE
  5
5B
330
5
100
AcDbSymbolTableRecord
100
AcDbLinetypeTableRecord
  2
ByBlock
 70
     0
  3

 72
    65
 73
     0
 40
0.0
  0
LTYPE
  5
5C
330
5
100
AcDbSymbolTableRecord
100
AcDbLinetypeTableRecord
  2
ByLayer
 70
     0
  3

 72
    65
 73
     0
 40
0.0
  0
LTYPE
  5
5D
330
5
100
AcDbSymbolTableRecord
100
AcDbLinetypeTableRecord
  2
Continuous
 70
     0
  3
Solid line
 72
    65
 73
     0
 40
0.0
  0
LTYPE
  5
7C
330
5
100
AcDbSymbolTableRecord
100
AcDbLinetypeTableRecord
  2
BY_STANDARD
 70
     0
  3
By Standard ____________    ____    ____   _
 72
    65
 73
     6
 40
1.240299999999999
 49
0.6614
 74
     0
 49
-0.0827
 74
     0
 49
0.1654
 74
     0
 49
-0.0827
 74
     0
 49
0.1654
 74
     0
 49
-0.0827
 74
     0
  0
LTYPE
  5
7D
330
5
100
AcDbSymbolTableRecord
100
AcDbLinetypeTableRecord
  2
CHAIN
 70
     0
  3
Chain ____ _ ____ _ ____ _ ____ _ ____ _ ____
 72
    65
 73
     4
 40
0.7087
 49
0.4724000000000001
 74
     0
 49
-0.0591
 74
     0
 49
0.1181
 74
     0
 49
-0.0591
 74
     0
  0
LTYPE
  5
7E
330
5
100
AcDbSymbolTableRecord
100
AcDbLinetypeTableRecord
  2
DASH_DOT
 70
     0
  3
Dash dot __ . __ . __ . __ . __ . __ . __ . __
 72
    65
 73
     4
 40
0.37
 49
0.24
 74
     0
 49
-0.06
 74
     0
 49
0.01
 74
     0
 49
-0.06
 74
     0
  0
LTYPE
  5
7F
330
5
100
AcDbSymbolTableRecord
100
AcDbLinetypeTableRecord
  2
DOUBLE_DASH_DOT
 70
     0
  3
Double-Dash Dot __ __ . __ __ . __ __ . __ _
 72
    65
 73
     6
 40
0.4398
 49
0.24
 74
     0
 49
-0.06
 74
     0
 49
0.0098
 74
     0
 49
-0.06
 74
     0
 49
0.01
 74
     0
 49
-0.06
 74
     0
  0
LTYPE
  5
80
330
5
100
AcDbSymbolTableRecord
100
AcDbLinetypeTableRecord
  2
DASH_TRIPLE_DOT
 70
     0
  3
Dash Triple-Dot _ . . . _ . . . _ . . . _
 72
    65
 73
     8
 40
0.51
 49
0.24
 74
     0
 49
-0.06
 74
     0
 49
0.01
 74
     0
 49
-0.06
 74
     0
 49
0.01
 74
     0
 49
-0.06
 74
     0
 49
0.01
 74
     0
 49
-0.06
 74
     0
  0
LTYPE
  5
81
330
5
100
AcDbSymbolTableRecord
100
AcDbLinetypeTableRecord
  2
DASHED
 70
     0
  3
Dashed __ __ __ __ __ __ __ __ __ __ __ __ __ _
 72
    65
 73
     2
 40
0.2067
 49
0.1654
 74
     0
 49
-0.0413
 74
     0
  0
LTYPE
  5
82
330
5
100
AcDbSymbolTableRecord
100
AcDbLinetypeTableRecord
  2
DASH_DOUBLE_DOT
 70
     0
  3
Dash Double-Dot __ . . __ . . __ . . __ . .
 72
    65
 73
     6
 40
0.4398
 49
0.24
 74
     0
 49
-0.06
 74
     0
 49
0.0098
 74
     0
 49
-0.06
 74
     0
 49
0.01
 74
     0
 49
-0.06
 74
     0
  0
LTYPE
  5
83
330
5
100
AcDbSymbolTableRecord
100
AcDbLinetypeTableRecord
  2
DASHED_SPACE
 70
     0
  3
Dashed Space __ __ __ __ __ __ __ __ __ __ __ _
 72
    65
 73
     2
 40
0.2067
 49
0.1654
 74
     0
 49
-0.0413
 74
     0
  0
LTYPE
  5
84
330
5
100
AcDbSymbolTableRecord
100
AcDbLinetypeTableRecord
  2
DOTTED
 70
     0
  3
Dotted . . . . . . . . . . . . . . . . . . . . 
 72
    65
 73
     2
 40
0.0482
 49
0.0069
 74
     0
 49
-0.0413
 74
     0
  0
LTYPE
  5
85
330
5
100
AcDbSymbolTableRecord
100
AcDbLinetypeTableRecord
  2
DOUBLE_DASH_CHAIN
 70
     0
  3
Double-Dash Chain ______  __  __  ______  __  _
 72
    65
 73
     6
 40
1.240299999999999
 49
0.6614
 74
     0
 49
-0.0827
 74
     0
 49
0.1654
 74
     0
 49
-0.0827
 74
     0
 49
0.1654
 74
     0
 49
-0.0827
 74
     0
  0
LTYPE
  5
87
330
5
100
AcDbSymbolTableRecord
100
AcDbLinetypeTableRecord
  2
DOUBLE_DASH_DOUBLE_DOT
 70
     0
  3
Double-Dash Double-dot _ _ . . _ _ . . _
 72
    65
 73
     8
 40
0.7400000000000001
 49
0.24
 74
     0
 49
-0.06
 74
     0
 49
0.24
 74
     0
 49
-0.06
 74
     0
 49
0.01
 74
     0
 49
-0.06
 74
     0
 49
0.01
 74
     0
 49
-0.06
 74
     0
  0
LTYPE
  5
88
330
5
100
AcDbSymbolTableRecord
100
AcDbLinetypeTableRecord
  2
DOUBLE_DASH_TRIPLE_DOT
 70
     0
  3
Double Dash Triple Dot __ __ . . . __ __ . .
 72
    65
 73
    10
 40
0.8100000000000001
 49
0.24
 74
     0
 49
-0.06
 74
     0
 49
0.24
 74
     0
 49
-0.06
 74
     0
 49
0.01
 74
     0
 49
-0.06
 74
     0
 49
0.01
 74
     0
 49
-0.06
 74
     0
 49
0.01
 74
     0
 49
-0.06
 74
     0
  0
LTYPE
  5
89
330
5
100
AcDbSymbolTableRecord
100
AcDbLinetypeTableRecord
  2
LONG_DASH_DOTTED
 70
     0
  3
Long Dash Dotted ____ . ____ . ____ . ____ . _
 72
    65
 73
     4
 40
0.3543
 49
0.2362
 74
     0
 49
-0.0295
 74
     0
 49
0.0591
 74
     0
 49
-0.0295
 74
     0
  0
LTYPE
  5
8A
330
5
100
AcDbSymbolTableRecord
100
AcDbLinetypeTableRecord
  2
LONG_DASH_DOUBLE_DOT
 70
     0
  3
Long Dash Double Dot ________  .  .  ________  
 72
    65
 73
     6
 40
0.6799999999999999
 49
0.48
 74
     0
 49
-0.06
 74
     0
 49
0.01
 74
     0
 49
-0.06
 74
     0
 49
0.01
 74
     0
 49
-0.06
 74
     0
  0
LTYPE
  5
8B
330
5
100
AcDbSymbolTableRecord
100
AcDbLinetypeTableRecord
  2
LONG_DASH_TRIPLE_DOT
 70
     0
  3
Long Dash Triple Dot ____ ... ____ ... ____
 72
    65
 73
     8
 40
0.3689
 49
0.2362
 74
     0
 49
-0.0295
 74
     0
 49
0.0049
 74
     0
 49
-0.0295
 74
     0
 49
0.0049
 74
     0
 49
-0.0295
 74
     0
 49
0.0049
 74
     0
 49
-0.0295
 74
     0
  0
LTYPE
  5
8C
330
5
100
AcDbSymbolTableRecord
100
AcDbLinetypeTableRecord
  2
BORDER
 70
     0
  3
Border __ __ . __ __ . __ __ . __ __ . __ __ .
 72
    65
 73
     6
 40
1.75
 49
0.5
 74
     0
 49
-0.25
 74
     0
 49
0.5
 74
     0
 49
-0.25
 74
     0
 49
0.0
 74
     0
 49
-0.25
 74
     0
  0
LTYPE
  5
8D
330
5
100
AcDbSymbolTableRecord
100
AcDbLinetypeTableRecord
  2
BORDER2
 70
     0
  3
Border (.5x) __.__.__.__.__.__.__.__.__.__.__.
 72
    65
 73
     6
 40
0.875
 49
0.25
 74
     0
 49
-0.125
 74
     0
 49
0.25
 74
     0
 49
-0.125
 74
     0
 49
0.0
 74
     0
 49
-0.125
 74
     0
  0
LTYPE
  5
8E
330
5
100
AcDbSymbolTableRecord
100
AcDbLinetypeTableRecord
  2
BORDERX2
 70
     0
  3
Border (2x) ____  ____  .  ____  ____  .  ___
 72
    65
 73
     6
 40
3.5
 49
1.0
 74
     0
 49
-0.5
 74
     0
 49
1.0
 74
     0
 49
-0.5
 74
     0
 49
0.0
 74
     0
 49
-0.5
 74
     0
  0
LTYPE
  5
8F
330
5
100
AcDbSymbolTableRecord
100
AcDbLinetypeTableRecord
  2
CENTER
 70
     0
  3
Center ____ _ ____ _ ____ _ ____ _ ____ _ ____
 72
    65
 73
     4
 40
2.0
 49
1.25
 74
     0
 49
-0.25
 74
     0
 49
0.25
 74
     0
 49
-0.25
 74
     0
  0
LTYPE
  5
90
330
5
100
AcDbSymbolTableRecord
100
AcDbLinetypeTableRecord
  2
CENTER2
 70
     0
  3
Center (.5x) ___ _ ___ _ ___ _ ___ _ ___ _ ___
 72
    65
 73
     4
 40
1.125
 49
0.75
 74
     0
 49
-0.125
 74
     0
 49
0.125
 74
     0
 49
-0.125
 74
     0
  0
LTYPE
  5
91
330
5
100
AcDbSymbolTableRecord
100
AcDbLinetypeTableRecord
  2
CENTERX2
 70
     0
  3
Center (2x) ________  __  ________  __  _____
 72
    65
 73
     4
 40
4.0
 49
2.5
 74
     0
 49
-0.5
 74
     0
 49
0.5
 74
     0
 49
-0.5
 74
     0
  0
LTYPE
  5
92
330
5
100
AcDbSymbolTableRecord
100
AcDbLinetypeTableRecord
  2
DASHDOT2
 70
     0
  3
Dash dot (.5x) _._._._._._._._._._._._._._._.
 72
    65
 73
     4
 40
0.5
 49
0.25
 74
     0
 49
-0.125
 74
     0
 49
0.0
 74
     0
 49
-0.125
 74
     0
  0
LTYPE
  5
93
330
5
100
AcDbSymbolTableRecord
100
AcDbLinetypeTableRecord
  2
DASHDOTX2
 70
     0
  3
Dash dot (2x) ____  .  ____  .  ____  .  ___
 72
    65
 73
     4
 40
2.0
 49
1.0
 74
     0
 49
-0.5
 74
     0
 49
0.0
 74
     0
 49
-0.5
 74
     0
  0
LTYPE
  5
95
330
5
100
AcDbSymbolTableRecord
100
AcDbLinetypeTableRecord
  2
DASHED2
 70
     0
  3
Dashed (.5x) _ _ _ _ _ _ _ _ _ _ _ _ _ _ _ _ _
 72
    65
 73
     2
 40
0.375
 49
0.25
 74
     0
 49
-0.125
 74
     0
  0
LTYPE
  5
96
330
5
100
AcDbSymbolTableRecord
100
AcDbLinetypeTableRecord
  2
DASHEDX2
 70
     0
  3
Dashed (2x) ____  ____  ____  ____  ____  ___
 72
    65
 73
     2
 40
1.5
 49
1.0
 74
     0
 49
-0.5
 74
     0
  0
LTYPE
  5
97
330
5
100
AcDbSymbolTableRecord
100
AcDbLinetypeTableRecord
  2
DIVIDE
 70
     0
  3
Divide ____ . . ____ . . ____ . . ____ . . ____
 72
    65
 73
     6
 40
1.25
 49
0.5
 74
     0
 49
-0.25
 74
     0
 49
0.0
 74
     0
 49
-0.25
 74
     0
 49
0.0
 74
     0
 49
-0.25
 74
     0
  0
LTYPE
  5
98
330
5
100
AcDbSymbolTableRecord
100
AcDbLinetypeTableRecord
  2
DIVIDE2
 70
     0
  3
Divide (.5x) __..__..__..__..__..__..__..__.._
 72
    65
 73
     6
 40
0.625
 49
0.25
 74
     0
 49
-0.125
 74
     0
 49
0.0
 74
     0
 49
-0.125
 74
     0
 49
0.0
 74
     0
 49
-0.125
 74
     0
  0
LTYPE
  5
99
330
5
100
AcDbSymbolTableRecord
100
AcDbLinetypeTableRecord
  2
DIVIDEX2
 70
     0
  3
Divide (2x) ________  .  .  ________  .  .  _
 72
    65
 73
     6
 40
2.5
 49
1.0
 74
     0
 49
-0.5
 74
     0
 49
0.0
 74
     0
 49
-0.5
 74
     0
 49
0.0
 74
     0
 49
-0.5
 74
     0
  0
LTYPE
  5
9A
330
5
100
AcDbSymbolTableRecord
100
AcDbLinetypeTableRecord
  2
DOT
 70
     0
  3
Dot . . . . . . . . . . . . . . . . . . . . . .
 72
    65
 73
     2
 40
0.25
 49
0.0
 74
     0
 49
-0.25
 74
     0
  0
LTYPE
  5
9B
330
5
100
AcDbSymbolTableRecord
100
AcDbLinetypeTableRecord
  2
DOT2
 70
     0
  3
Dot (.5x) .....................................
 72
    65
 73
     2
 40
0.125
 49
0.0
 74
     0
 49
-0.125
 74
     0
  0
LTYPE
  5
9C
330
5
100
AcDbSymbolTableRecord
100
AcDbLinetypeTableRecord
  2
DOTX2
 70
     0
  3
Dot (2x) .  .  .  .  .  .  .  .  .  .  .  .  . 
 72
    65
 73
     2
 40
0.5
 49
0.0
 74
     0
 49
-0.5
 74
     0
  0
LTYPE
  5
9D
330
5
100
AcDbSymbolTableRecord
100
AcDbLinetypeTableRecord
  2
HIDDEN
 70
     0
  3
Hidden __ __ __ __ __ __ __ __ __ __ __ __ __ _
 72
    65
 73
     2
 40
0.375
 49
0.25
 74
     0
 49
-0.125
 74
     0
  0
LTYPE
  5
9E
330
5
100
AcDbSymbolTableRecord
100
AcDbLinetypeTableRecord
  2
HIDDEN2
 70
     0
  3
Hidden (.5x) _ _ _ _ _ _ _ _ _ _ _ _ _ _ _ _ _
 72
    65
 73
     2
 40
0.1875
 49
0.125
 74
     0
 49
-0.0625
 74
     0
  0
LTYPE
  5
9F
330
5
100
AcDbSymbolTableRecord
100
AcDbLinetypeTableRecord
  2
HIDDENX2
 70
     0
  3
Hidden (2x) ____ ____ ____ ____ ____ ____ ____
 72
    65
 73
     2
 40
0.75
 49
0.5
 74
     0
 49
-0.25
 74
     0
  0
LTYPE
  5
A0
330
5
100
AcDbSymbolTableRecord
100
AcDbLinetypeTableRecord
  2
PHANTOM
 70
     0
  3
Phantom ______  __  __  ______  __  __  ______
 72
    65
 73
     6
 40
2.5
 49
1.25
 74
     0
 49
-0.25
 74
     0
 49
0.25
 74
     0
 49
-0.25
 74
     0
 49
0.25
 74
     0
 49
-0.25
 74
     0
  0
LTYPE
  5
A1
330
5
100
AcDbSymbolTableRecord
100
AcDbLinetypeTableRecord
  2
PHANTOM2
 70
     0
  3
Phantom (.5x) ___ _ _ ___ _ _ ___ _ _ ___ _ _
 72
    65
 73
     6
 40
1.25
 49
0.625
 74
     0
 49
-0.125
 74
     0
 49
0.125
 74
     0
 49
-0.125
 74
     0
 49
0.125
 74
     0
 49
-0.125
 74
     0
  0
LTYPE
  5
A2
330
5
100
AcDbSymbolTableRecord
100
AcDbLinetypeTableRecord
  2
PHANTOMX2
 70
     0
  3
Phantom (2x) ____________    ____    ____   _
 72
    65
 73
     6
 40
5.0
 49
2.5
 74
     0
 49
-0.5
 74
     0
 49
0.5
 74
     0
 49
-0.5
 74
     0
 49
0.5
 74
     0
 49
-0.5
 74
     0
  0
LTYPE
  5
A3
330
5
100
AcDbSymbolTableRecord
100
AcDbLinetypeTableRecord
  2
ACAD_ISO02W100
 70
     0
  3
ISO dash __ __ __ __ __ __ __ __ __ __ __ __ __
 72
    65
 73
     2
 40
0.59
 49
0.47
 74
     0
 49
-0.12
 74
     0
  0
LTYPE
  5
A4
330
5
100
AcDbSymbolTableRecord
100
AcDbLinetypeTableRecord
  2
ACAD_ISO03W100
 70
     0
  3
ISO dash space __    __    __    __    __    __
 72
    65
 73
     2
 40
1.179999999999999
 49
0.47
 74
     0
 49
-0.71
 74
     0
  0
LTYPE
  5
A5
330
5
100
AcDbSymbolTableRecord
100
AcDbLinetypeTableRecord
  2
ACAD_ISO04W100
 70
     0
  3
ISO long-dash dot ____ . ____ . ____ . ____ . _
 72
    65
 73
     4
 40
1.179999999999999
 49
0.9399999999999998
 74
     0
 49
-0.12
 74
     0
 49
0.0
 74
     0
 49
-0.12
 74
     0
  0
LTYPE
  5
A6
330
5
100
AcDbSymbolTableRecord
100
AcDbLinetypeTableRecord
  2
ACAD_ISO05W100
 70
     0
  3
ISO long-dash double-dot ____ .. ____ .. ____ .
 72
    65
 73
     6
 40
1.299999999999999
 49
0.9399999999999998
 74
     0
 49
-0.12
 74
     0
 49
0.0
 74
     0
 49
-0.12
 74
     0
 49
0.0
 74
     0
 49
-0.12
 74
     0
  0
LTYPE
  5
A7
330
5
100
AcDbSymbolTableRecord
100
AcDbLinetypeTableRecord
  2
ACAD_ISO06W100
 70
     0
  3
ISO long-dash triple-dot ____ ... ____ ... ____
 72
    65
 73
     8
 40
1.419999999999999
 49
0.9399999999999998
 74
     0
 49
-0.12
 74
     0
 49
0.0
 74
     0
 49
-0.12
 74
     0
 49
0.0
 74
     0
 49
-0.12
 74
     0
 49
0.0
 74
     0
 49
-0.12
 74
     0
  0
LTYPE
  5
A8
330
5
100
AcDbSymbolTableRecord
100
AcDbLinetypeTableRecord
  2
ACAD_ISO07W100
 70
     0
  3
ISO dot . . . . . . . . . . . . . . . . . . . .
 72
    65
 73
     2
 40
0.12
 49
0.0
 74
     0
 49
-0.12
 74
     0
  0
LTYPE
  5
A9
330
5
100
AcDbSymbolTableRecord
100
AcDbLinetypeTableRecord
  2
ACAD_ISO08W100
 70
     0
  3
ISO long-dash short-dash ____ __ ____ __ ____ _
 72
    65
 73
     4
 40
0.95
 49
0.47
 74
     0
 49
-0.12
 74
     0
 49
0.24
 74
     0
 49
-0.12
 74
     0
  0
LTYPE
  5
AA
330
5
100
AcDbSymbolTableRecord
100
AcDbLinetypeTableRecord
  2
ACAD_ISO09W100
 70
     0
  3
ISO long-dash double-short-dash ____ __ __ ____
 72
    65
 73
     6
 40
1.31
 49
0.47
 74
     0
 49
-0.12
 74
     0
 49
0.24
 74
     0
 49
-0.12
 74
     0
 49
0.24
 74
     0
 49
-0.12
 74
     0
  0
LTYPE
  5
AB
330
5
100
AcDbSymbolTableRecord
100
AcDbLinetypeTableRecord
  2
ACAD_ISO10W100
 70
     0
  3
ISO dash dot __ . __ . __ . __ . __ . __ . __ .
 72
    65
 73
     4
 40
0.71
 49
0.47
 74
     0
 49
-0.12
 74
     0
 49
0.0
 74
     0
 49
-0.12
 74
     0
  0
LTYPE
  5
AC
330
5
100
AcDbSymbolTableRecord
100
AcDbLinetypeTableRecord
  2
ACAD_ISO11W100
 70
     0
  3
ISO double-dash dot __ __ . __ __ . __ __ . __ 
 72
    65
 73
     6
 40
1.299999999999999
 49
0.47
 74
     0
 49
-0.12
 74
     0
 49
0.47
 74
     0
 49
-0.12
 74
     0
 49
0.0
 74
     0
 49
-0.12
 74
     0
  0
LTYPE
  5
AD
330
5
100
AcDbSymbolTableRecord
100
AcDbLinetypeTableRecord
  2
ACAD_ISO12W100
 70
     0
  3
ISO dash double-dot __ . . __ . . __ . . __ . .
 72
    65
 73
     6
 40
0.8299999999999998
 49
0.47
 74
     0
 49
-0.12
 74
     0
 49
0.0
 74
     0
 49
-0.12
 74
     0
 49
0.0
 74
     0
 49
-0.12
 74
     0
  0
LTYPE
  5
AE
330
5
100
AcDbSymbolTableRecord
100
AcDbLinetypeTableRecord
  2
ACAD_ISO13W100
 70
     0
  3
ISO double-dash double-dot __ __ . . __ __ . . 
 72
    65
 73
     8
 40
1.419999999999999
 49
0.47
 74
     0
 49
-0.12
 74
     0
 49
0.47
 74
     0
 49
-0.12
 74
     0
 49
0.0
 74
     0
 49
-0.12
 74
     0
 49
0.0
 74
     0
 49
-0.12
 74
     0
  0
LTYPE
  5
AF
330
5
100
AcDbSymbolTableRecord
100
AcDbLinetypeTableRecord
  2
ACAD_ISO14W100
 70
     0
  3
ISO dash triple-dot __ . . . __ . . . __ . . . 
 72
    65
 73
     8
 40
0.95
 49
0.47
 74
     0
 49
-0.12
 74
     0
 49
0.0
 74
     0
 49
-0.12
 74
     0
 49
0.0
 74
     0
 49
-0.12
 74
     0
 49
0.0
 74
     0
 49
-0.12
 74
     0
  0
LTYPE
  5
B0
330
5
100
AcDbSymbolTableRecord
100
AcDbLinetypeTableRecord
  2
ACAD_ISO15W100
 70
     0
  3
ISO double-dash triple-dot __ __ . . . __ __ . 
 72
    65
 73
    10
 40
1.539999999999999
 49
0.47
 74
     0
 49
-0.12
 74
     0
 49
0.47
 74
     0
 49
-0.12
 74
     0
 49
0.0
 74
     0
 49
-0.12
 74
     0
 49
0.0
 74
     0
 49
-0.12
 74
     0
 49
0.0
 74
     0
 49
-0.12
 74
     0
  0
LTYPE
  5
B3
330
5
100
AcDbSymbolTableRecord
100
AcDbLinetypeTableRecord
  2
FENCELINE1
 70
     0
  3
Fenceline circle ----0-----0----0-----0----0---
 72
    65
 73
     4
 40
1.45
 49
0.25
 74
     0
 49
-0.1
 74
     4
 75
   133
340
B2
 46
0.1
 50
0.0
 44
-0.1
 45
0.0
 49
-0.1
 74
     0
 49
1.0
 74
     0
  0
LTYPE
  5
B4
330
5
100
AcDbSymbolTableRecord
100
AcDbLinetypeTableRecord
  2
FENCELINE2
 70
     0
  3
Fenceline square ----[]-----[]----[]-----[]----
 72
    65
 73
     4
 40
1.45
 49
0.25
 74
     0
 49
-0.1
 74
     4
 75
   132
340
B2
 46
0.1
 50
0.0
 44
-0.1
 45
0.0
 49
-0.1
 74
     0
 49
1.0
 74
     0
  0
LTYPE
  5
B5
330
5
100
AcDbSymbolTableRecord
100
AcDbLinetypeTableRecord
  2
TRACKS
 70
     0
  3
Tracks -|-|-|-|-|-|-|-|-|-|-|-|-|-|-|-|-|-|-|-|
 72
    65
 73
     2
 40
0.3
 49
0.15
 74
     4
 75
   130
340
B2
 46
0.25
 50
0.0
 44
0.0
 45
0.0
 49
0.15
 74
     0
  0
LTYPE
  5
B6
330
5
100
AcDbSymbolTableRecord
100
AcDbLinetypeTableRecord
  2
BATTING
 70
     0
  3
Batting SSSSSSSSSSSSSSSSSSSSSSSSSSSSSSSSSSSSSSS
 72
    65
 73
     4
 40
0.4001000000000001
 49
0.0001
 74
     0
 49
-0.1
 74
     4
 75
   134
340
B2
 46
0.1
 50
0.0
 44
-0.1
 45
0.0
 49
-0.2
 74
     4
 75
   134
340
B2
 46
0.1
 50
180.0
 44
0.1
 45
0.0
 49
-0.1
 74
     0
  0
LTYPE
  5
B7
330
5
100
AcDbSymbolTableRecord
100
AcDbLinetypeTableRecord
  2
HOT_WATER_SUPPLY
 70
     0
  3
Hot water supply ---- HW ---- HW ---- HW ----
 72
    65
 73
     3
 40
0.9
 49
0.5
 74
     0
 49
-0.2
 74
     2
 75
     0
340
55
 46
0.1
 50
0.0
 44
-0.1
 45
-0.05
  9
HW
 49
-0.2
 74
     0
  0
LTYPE
  5
B8
330
5
100
AcDbSymbolTableRecord
100
AcDbLinetypeTableRecord
  2
GAS_LINE
 70
     0
  3
Gas line ----GAS----GAS----GAS----GAS----GAS---
 72
    65
 73
     3
 40
0.95
 49
0.5
 74
     0
 49
-0.2
 74
     2
 75
     0
340
55
 46
0.1
 50
0.0
 44
-0.1
 45
-0.05
  9
GAS
 49
-0.25
 74
     0
  0
LTYPE
  5
B9
330
5
100
AcDbSymbolTableRecord
100
AcDbLinetypeTableRecord
  2
ZIGZAG
 70
     0
  3
Zig zag /\/\/\/\/\/\/\/\/\/\/\/\/\/\/\/\/\/\/\/
 72
    65
 73
     4
 40
0.8001000000000001
 49
0.0001
 74
     0
 49
-0.2
 74
     4
 75
   131
340
B2
 46
0.2
 50
0.0
 44
-0.2
 45
0.0
 49
-0.4
 74
     4
 75
   131
340
B2
 46
0.2
 50
180.0
 44
0.2
 45
0.0
 49
-0.2
 74
     0
  0
ENDTAB
  0
TABLE
  2
LAYER
  5
2
330
0
100
AcDbSymbolTable
 70
    27
  0
LAYER
  5
54
330
2
100
AcDbSymbolTableRecord
100
AcDbLayerTableRecord
  2
0
 70
     0
 62
     7
  6
Continuous
370
     0
390
F
347
21
  0
LAYER
  5
C1
330
2
100
AcDbSymbolTableRecord
100
AcDbLayerTableRecord
  2
Centerline (ANSI)
 70
     0
 62
     7
  6
Continuous
370
     5
390
F
347
21
  0
LAYER
  5
C3
330
2
100
AcDbSymbolTableRecord
100
AcDbLayerTableRecord
  2
Dimension (ANSI)
 70
     0
 62
     7
  6
Continuous
370
     5
390
F
347
21
  0
LAYER
  5
CC
330
2
100
AcDbSymbolTableRecord
100
AcDbLayerTableRecord
  2
Symbol (ANSI)
 70
     0
 62
     7
  6
Continuous
370
     5
390
F
347
21
  0
LAYER
  5
CF
330
2
100
AcDbSymbolTableRecord
100
AcDbLayerTableRecord
  2
Visible (ANSI)
 70
     0
 62
     7
  6
Continuous
370
     5
390
F
347
21
  0
LAYER
  5
D0
330
2
100
AcDbSymbolTableRecord
100
AcDbLayerTableRecord
  2
Visible Narrow (ANSI)
 70
     0
 62
     7
  6
Continuous
370
     5
390
F
347
21
  0
LAYER
  5
234
330
2
100
AcDbSymbolTableRecord
100
AcDbLayerTableRecord
  2
Defpoints
 70
     0
 62
     7
  6
Continuous
290
     0
370
    -3
390
F
347
21
  0
ENDTAB
  0
TABLE
  2
STYLE
  5
3
330
0
100
AcDbSymbolTable
 70
    10
  0
STYLE
  5
55
330
3
100
AcDbSymbolTableRecord
100
AcDbTextStyleTableRecord
  2
Standard
 70
     0
 40
0.0
 41
1.0
 50
0.0
 71
     0
 42
0.2
  3
txt
  4

  0
STYLE
  5
5A
330
3
100
AcDbSymbolTableRecord
100
AcDbTextStyleTableRecord
  2
Annotative
 70
     0
 40
0.0
 41
1.0
 50
0.0
 71
     0
 42
0.2
  3
txt
  4

1001
AcadAnnotative
1000
AnnotativeData
1002
{
1070
     1
1070
     1
1002
}
  0
STYLE
  5
B2
330
3
100
AcDbSymbolTableRecord
100
AcDbTextStyleTableRecord
  2

 70
     1
 40
0.0
 41
1.0
 50
0.0
 71
     0
 42
0.2
  3
ltypeshp.shx
  4

  0
STYLE
  5
D4
330
3
100
AcDbSymbolTableRecord
100
AcDbTextStyleTableRecord
  2
ITALICC_120
 70
     0
 40
0.0
 41
1.0
 50
0.0
 71
     0
 42
0.2
  3
italicc.shx
  4

  0
STYLE
  5
D5
330
3
100
AcDbSymbolTableRecord
100
AcDbTextStyleTableRecord
  2
Label Text (ANSI)
 70
     0
 40
0.0
 41
1.0
 50
0.0
 71
     0
 42
0.2
  3
tahoma.ttf
  4

1001
ACAD
1000
Tahoma
1071
      256
  0
STYLE
  5
D6
330
3
100
AcDbSymbolTableRecord
100
AcDbTextStyleTableRecord
  2
Note Text (ANSI)
 70
     0
 40
0.0
 41
1.0
 50
0.0
 71
     0
 42
0.2
  3
RomanS.shx
  4

  0
STYLE
  5
D7
330
3
100
AcDbSymbolTableRecord
100
AcDbTextStyleTableRecord
  2
ROMANS
 70
     0
 40
0.0
 41
1.0
 50
0.0
 71
     0
 42
0.2
  3
romans.shx
  4

  0
STYLE
  5
D8
330
3
100
AcDbSymbolTableRecord
100
AcDbTextStyleTableRecord
  2
SANSSERIF_114
 70
     0
 40
0.0
 41
1.0
 50
0.0
 71
     0
 42
0.2
  3
tahoma.ttf
  4

1001
ACAD
1000
Tahoma
1071
      256
  0
STYLE
  5
D9
330
3
100
AcDbSymbolTableRecord
100
AcDbTextStyleTableRecord
  2
SANSSERIF_117
 70
     0
 40
0.0
 41
1.0
 50
0.0
 71
     0
 42
0.2
  3
tahoma.ttf
  4

1001
ACAD
1000
Tahoma
1071
      256
  0
STYLE
  5
143
330
3
100
AcDbSymbolTableRecord
100
AcDbTextStyleTableRecord
  2
Text Style168
 70
     0
 40
0.0
 41
1.0
 50
0.0
 71
     0
 42
0.2
  3
tahoma.ttf
  4

1001
ACAD
1000
Tahoma
1071
      256
  0
ENDTAB
  0
TABLE
  2
VIEW
  5
6
330
0
100
AcDbSymbolTable
 70
     0
  0
ENDTAB
  0
TABLE
  2
UCS
  5
7
330
0
100
AcDbSymbolTable
 70
     0
  0
ENDTAB
  0
TABLE
  2
APPID
  5
9
330
0
100
AcDbSymbolTable
 70
     2
  0
APPID
  5
56
330
9
100
AcDbSymbolTableRecord
100
AcDbRegAppTableRecord
  2
ACAD
 70
     0
  0
APPID
  5
5E
330
9
100
AcDbSymbolTableRecord
100
AcDbRegAppTableRecord
  2
AcadAnnotative
 70
     0
  0
ENDTAB
  0
TABLE
  2
DIMSTYLE
  5
A
330
0
100
AcDbSymbolTable
 70
    15
100
AcDbDimStyleTable
 71
     2
340
E2
340
58
  0
DIMSTYLE
105
58
330
A
100
AcDbSymbolTableRecord
100
AcDbDimStyleTableRecord
  2
Standard
 70
     0
340
55
  0
DIMSTYLE
105
59
330
A
100
AcDbSymbolTableRecord
100
AcDbDimStyleTableRecord
  2
Annotative
 70
     0
340
55
1001
AcadAnnotative
1000
AnnotativeData
1002
{
1070
     1
1070
     1
1002
}
  0
DIMSTYLE
105
DA
330
A
100
AcDbSymbolTableRecord
100
AcDbDimStyleTableRecord
  2
Architectural (ANSI)
 70
     0
 40
3.2
 41
0.0984251946210861
 43
0.2362204724409449
 44
0.125
 45
0.00000001
 46
0.3937007874015748
 78
     3
 79
     3
140
0.1000000014901161
146
1.200000047683715
147
0.031496062992126
171
     1
176
   256
177
   256
178
   256
272
     2
274
     1
276
     2
277
     4
284
    12
285
     4
286
    12
340
D6
371
    -1
372
    -1
  0
DIMSTYLE
105
DB
330
A
100
AcDbSymbolTableRecord
100
AcDbDimStyleTableRecord
  2
Architectural (ANSI)$7
 70
     0
 40
3.2
 41
0.0984251946210861
 43
0.2362204724409449
 44
0.125
 45
0.00000001
 46
0.3937007874015748
 78
     3
 79
     3
140
0.1000000014901161
146
1.200000047683715
147
0.031496062992126
171
     1
176
   256
177
   256
178
   256
272
     2
274
     1
276
     2
277
     4
284
    12
285
     4
286
    12
340
D6
371
    -1
372
    -1
  0
DIMSTYLE
105
DC
330
A
100
AcDbSymbolTableRecord
100
AcDbDimStyleTableRecord
  2
Default - Fraction (ANSI)
 70
     0
 40
3.2
 41
0.0984251946210861
 43
0.2362204724409449
 44
0.125
 45
0.00000001
 46
0.3937007874015748
 79
     3
140
0.1000000014901161
146
1.200000047683715
147
0.031496062992126
171
     1
176
   256
177
   256
178
   256
272
     2
274
     1
276
     2
277
     5
284
    12
285
     4
286
    12
340
D6
371
    -1
372
    -1
  0
DIMSTYLE
105
DD
330
A
100
AcDbSymbolTableRecord
100
AcDbDimStyleTableRecord
  2
Default - Fraction (ANSI)$7
 70
     0
 40
3.2
 41
0.0984251946210861
 43
0.2362204724409449
 44
0.125
 45
0.00000001
 46
0.3937007874015748
 79
     3
140
0.1000000014901161
146
1.200000047683715
147
0.031496062992126
171
     1
176
   256
177
   256
178
   256
272
     2
274
     1
276
     2
277
     5
284
    12
285
     4
286
    12
340
D6
371
    -1
372
    -1
  0
DIMSTYLE
105
DE
330
A
100
AcDbSymbolTableRecord
100
AcDbDimStyleTableRecord
  2
Default - mm (ANSI)
 70
     0
 40
3.2
 41
0.0984251946210861
 42
0.063
 43
0.2362204724409449
 44
0.125
 45
0.00000001
 46
0.3937007874015748
 73
     0
 78
     4
 79
     1
140
0.1000000014901161
143
1.0
144
25.4
146
1.200000047683715
147
0.031496062992126
171
     1
176
   256
177
   256
178
   256
179
     1
271
     2
272
     2
274
     1
284
     4
285
     4
340
D6
371
    -1
372
    -1
  0
DIMSTYLE
105
DF
330
A
100
AcDbSymbolTableRecord
100
AcDbDimStyleTableRecord
  2
Default - mm (ANSI)$7
 70
     0
 40
3.2
 41
0.0984251946210861
 42
0.063
 43
0.2362204724409449
 44
0.125
 45
0.00000001
 46
0.3937007874015748
 73
     0
 78
     4
 79
     1
140
0.1000000014901161
143
1.0
144
25.4
146
1.200000047683715
147
0.031496062992126
171
     1
176
   256
177
   256
178
   256
179
     1
271
     2
272
     2
274
     1
284
     4
285
     4
340
D6
371
    -1
372
    -1
  0
DIMSTYLE
105
E0
330
A
100
AcDbSymbolTableRecord
100
AcDbDimStyleTableRecord
  2
Default - mm [in] (ANSI)
 70
     0
  4
 in
 40
3.2
 41
0.0984251946210861
 42
0.063
 43
0.25
 44
0.125
 45
0.00000001
 46
0.3937007874015748
 73
     0
 78
     4
 79
     1
140
0.1000000014901161
143
0.03937
144
25.4
146
1.200000047683715
147
0.031496062992126
170
     1
171
     3
176
   256
177
   256
178
   256
179
     1
271
     2
272
     2
274
     3
284
     4
285
     4
286
     4
340
D6
371
    -1
372
    -1
  0
DIMSTYLE
105
E1
330
A
100
AcDbSymbolTableRecord
100
AcDbDimStyleTableRecord
  2
Default - mm [in] (ANSI)$7
 70
     0
  4
 in
 40
3.2
 41
0.0984251946210861
 42
0.063
 43
0.25
 44
0.125
 45
0.00000001
 46
0.3937007874015748
 73
     0
 78
     4
 79
     1
140
0.1000000014901161
143
0.03937
144
25.4
146
1.200000047683715
147
0.031496062992126
170
     1
171
     3
176
   256
177
   256
178
   256
179
     1
271
     2
272
     2
274
     3
284
     4
285
     4
286
     4
340
D6
371
    -1
372
    -1
  0
DIMSTYLE
105
E2
102
{ACAD_REACTORS
330
232
330
442
330
540
330
648
330
73E
330
832
330
94E
330
A42
330
B3A
330
C24
330
D0E
330
DF8
330
EEC
330
FD6
330
10C0
102
}
330
A
100
AcDbSymbolTableRecord
100
AcDbDimStyleTableRecord
  2
Default (ANSI)
 70
     0
 40
3.2
 41
0.0984251946210861
 43
0.2362204724409449
 44
0.125
 45
0.00000001
 46
0.3937007874015748
140
0.1000000014901161
147
0.031496062992126
176
   256
177
   256
178
   256
271
     2
272
     2
340
D7
371
    -1
372
    -1
  0
DIMSTYLE
105
E3
330
A
100
AcDbSymbolTableRecord
100
AcDbDimStyleTableRecord
  2
Default (ANSI)$7
 70
     0
 40
3.2
 41
0.0984251946210861
 43
0.2362204724409449
 44
0.125
 45
0.00000001
 46
0.3937007874015748
140
0.1000000014901161
147
0.031496062992126
176
   256
177
   256
178
   256
271
     2
272
     2
340
D7
371
    -1
372
    -1
  0
DIMSTYLE
105
E4
330
A
100
AcDbSymbolTableRecord
100
AcDbDimStyleTableRecord
  2
Alternate (ANSI)
 70
     0
 40
3.2
 41
0.0979999974370003
340
55
342
E5
  0
DIMSTYLE
105
F7
330
A
100
AcDbSymbolTableRecord
100
AcDbDimStyleTableRecord
  2
Datum (ANSI)
 70
     0
 40
3.2
 41
0.0979999974370003
340
55
342
E5
  0
DIMSTYLE
105
106
330
A
100
AcDbSymbolTableRecord
100
AcDbDimStyleTableRecord
  2
Large (ANSI)
 70
     0
 40
3.2
 41
0.1959999948740005
340
55
342
E5
  0
ENDTAB
  0
TABLE
  2
BLOCK_RECORD
  5
1
330
0
100
AcDbSymbolTable
 70
    19
  0
BLOCK_RECORD
  5
6C
330
1
100
AcDbSymbolTableRecord
100
AcDbBlockTableRecord
  2
*Model_Space
340
6F
 70
     0
280
     1
281
     0
  0
BLOCK_RECORD
  5
68
330
1
100
AcDbSymbolTableRecord
100
AcDbBlockTableRecord
  2
*Paper_Space
340
6B
 70
     0
280
     1
281
     0
  0
BLOCK_RECORD
  5
70
330
1
100
AcDbSymbolTableRecord
100
AcDbBlockTableRecord
  2
*Paper_Space0
340
73
 70
     0
280
     1
281
     0
  0
BLOCK_RECORD
  5
E5
330
1
100
AcDbSymbolTableRecord
100
AcDbBlockTableRecord
  2
_Closed
340
0
 70
     0
280
     1
281
     0
  0
BLOCK_RECORD
  5
EC
330
1
100
AcDbSymbolTableRecord
100
AcDbBlockTableRecord
  2
DatumFilled45
340
0
 70
     0
280
     1
281
     0
  0
BLOCK_RECORD
  5
F8
330
1
100
AcDbSymbolTableRecord
100
AcDbBlockTableRecord
  2
Filled-1
340
0
 70
     0
280
     1
281
     0
  0
BLOCK_RECORD
  5
235
330
1
100
AcDbSymbolTableRecord
100
AcDbBlockTableRecord
  2
*D4
340
0
 70
     0
280
     1
281
     0
  0
BLOCK_RECORD
  5
443
330
1
100
AcDbSymbolTableRecord
100
AcDbBlockTableRecord
  2
*D5
340
0
 70
     0
280
     1
281
     0
  0
BLOCK_RECORD
  5
541
330
1
100
AcDbSymbolTableRecord
100
AcDbBlockTableRecord
  2
*D6
340
0
 70
     0
280
     1
281
     0
  0
BLOCK_RECORD
  5
649
330
1
100
AcDbSymbolTableRecord
100
AcDbBlockTableRecord
  2
*D7
340
0
 70
     0
280
     1
281
     0
  0
BLOCK_RECORD
  5
73F
330
1
100
AcDbSymbolTableRecord
100
AcDbBlockTableRecord
  2
*D8
340
0
 70
     0
280
     1
281
     0
  0
BLOCK_RECORD
  5
833
330
1
100
AcDbSymbolTableRecord
100
AcDbBlockTableRecord
  2
*D9
340
0
 70
     0
280
     1
281
     0
  0
BLOCK_RECORD
  5
94F
330
1
100
AcDbSymbolTableRecord
100
AcDbBlockTableRecord
  2
*D10
340
0
 70
     0
280
     1
281
     0
  0
BLOCK_RECORD
  5
A43
330
1
100
AcDbSymbolTableRecord
100
AcDbBlockTableRecord
  2
*D11
340
0
 70
     0
280
     1
281
     0
  0
BLOCK_RECORD
  5
B3B
330
1
100
AcDbSymbolTableRecord
100
AcDbBlockTableRecord
  2
*D12
340
0
 70
     0
280
     1
281
     0
  0
BLOCK_RECORD
  5
C25
330
1
100
AcDbSymbolTableRecord
100
AcDbBlockTableRecord
  2
*D13
340
0
 70
     0
280
     1
281
     0
  0
BLOCK_RECORD
  5
D0F
330
1
100
AcDbSymbolTableRecord
100
AcDbBlockTableRecord
  2
*D14
340
0
 70
     0
280
     1
281
     0
  0
BLOCK_RECORD
  5
DF9
330
1
100
AcDbSymbolTableRecord
100
AcDbBlockTableRecord
  2
*D15
340
0
 70
     0
280
     1
281
     0
  0
BLOCK_RECORD
  5
EED
330
1
100
AcDbSymbolTableRecord
100
AcDbBlockTableRecord
  2
*D16
340
0
 70
     0
280
     1
281
     0
  0
BLOCK_RECORD
  5
FD7
330
1
100
AcDbSymbolTableRecord
100
AcDbBlockTableRecord
  2
*D17
340
0
 70
     0
280
     1
281
     0
  0
BLOCK_RECORD
  5
10C1
330
1
100
AcDbSymbolTableRecord
100
AcDbBlockTableRecord
  2
*D18
340
0
 70
     0
280
     1
281
     0
  0
ENDTAB
  0
ENDSEC
  0
SECTION
  2
BLOCKS
  0
BLOCK
  5
6D
330
6C
100
AcDbEntity
  8
0
100
AcDbBlockBegin
  2
*Model_Space
 70
     0
 10
0.0
 20
0.0
 30
0.0
  3
*Model_Space
  1

  0
ENDBLK
  5
6E
330
6C
100
AcDbEntity
  8
0
100
AcDbBlockEnd
  0
BLOCK
  5
69
330
68
100
AcDbEntity
 67
     1
  8
0
100
AcDbBlockBegin
  2
*Paper_Space
 70
     0
 10
0.0
 20
0.0
 30
0.0
  3
*Paper_Space
  1

  0
ENDBLK
  5
6A
330
68
100
AcDbEntity
 67
     1
  8
0
100
AcDbBlockEnd
  0
BLOCK
  5
71
330
70
100
AcDbEntity
 67
     1
  8
0
100
AcDbBlockBegin
  2
*Paper_Space0
 70
     0
 10
0.0
 20
0.0
 30
0.0
  3
*Paper_Space0
  1

  0
ENDBLK
  5
72
330
70
100
AcDbEntity
 67
     1
  8
0
100
AcDbBlockEnd
  0
BLOCK
  5
EA
330
E5
100
AcDbEntity
  8
0
100
AcDbBlockBegin
  2
_Closed
 70
     0
 10
0.0
 20
0.0
 30
0.0
  3
_Closed
  1

  0
LINE
  5
E6
330
E5
100
AcDbEntity
  8
0
  6
ByBlock
 62
     0
370
    -2
100
AcDbLine
 10
-1.0
 20
0.1666666666666666
 30
0.0
 11
0.0
 21
0.0
 31
0.0
  0
LINE
  5
E7
330
E5
100
AcDbEntity
  8
0
  6
ByBlock
 62
     0
370
    -2
100
AcDbLine
 10
0.0
 20
0.0
 30
0.0
 11
-1.0
 21
-0.1666666666666666
 31
0.0
  0
LINE
  5
E8
330
E5
100
AcDbEntity
  8
0
  6
ByBlock
 62
     0
370
    -2
100
AcDbLine
 10
-1.0
 20
0.1666666666666666
 30
0.0
 11
-1.0
 21
-0.1666666666666666
 31
0.0
  0
LINE
  5
E9
330
E5
100
AcDbEntity
  8
0
  6
ByBlock
 62
     0
370
    -2
100
AcDbLine
 10
0.0
 20
0.0
 30
0.0
 11
-1.0
 21
0.0
 31
0.0
  0
ENDBLK
  5
EB
330
E5
100
AcDbEntity
  8
0
100
AcDbBlockEnd
  0
BLOCK
  5
ED
330
EC
100
AcDbEntity
  8
0
100
AcDbBlockBegin
  2
DatumFilled45
 70
     0
 10
0.0
 20
0.0
 30
0.0
  3
DatumFilled45
  1

  0
POLYLINE
  5
EF
330
EC
100
AcDbEntity
  8
0
 62
     0
100
AcDb2dPolyline
 66
     1
 10
0.0
 20
0.0
 30
0.0
 70
   128
  0
VERTEX
  5
F0
330
EF
100
AcDbEntity
  8
0
 62
     0
100
AcDbVertex
100
AcDb2dVertex
 10
0.0
 20
0.9999999999999998
 30
0.0
  0
VERTEX
  5
F1
330
EF
100
AcDbEntity
  8
0
 62
     0
100
AcDbVertex
100
AcDb2dVertex
 10
0.0
 20
-0.9999999999999998
 30
0.0
  0
VERTEX
  5
F3
330
EF
100
AcDbEntity
  8
0
 62
     0
100
AcDbVertex
100
AcDb2dVertex
 10
-0.9999999999999998
 20
0.0
 30
0.0
  0
VERTEX
  5
F4
330
EF
100
AcDbEntity
  8
0
 62
     0
100
AcDbVertex
100
AcDb2dVertex
 10
0.0
 20
0.9999999999999998
 30
0.0
  0
SEQEND
  5
F2
330
EF
100
AcDbEntity
  8
0
 62
     0
  0
SOLID
  5
F6
330
EC
100
AcDbEntity
  8
0
 62
     0
100
AcDbTrace
 10
0.0
 20
0.9999999999999998
 30
0.0
 11
0.0
 21
-0.9999999999999998
 31
0.0
 12
-0.9999999999999998
 22
0.0
 32
0.0
 13
0.0
 23
0.9999999999999998
 33
0.0
  0
ENDBLK
  5
EE
330
EC
100
AcDbEntity
  8
0
100
AcDbBlockEnd
  0
BLOCK
  5
F9
330
F8
100
AcDbEntity
  8
0
100
AcDbBlockBegin
  2
Filled-1
 70
     0
 10
0.0
 20
0.0
 30
0.0
  3
Filled-1
  1

  0
LINE
  5
FB
330
F8
100
AcDbEntity
  8
0
 62
     0
100
AcDbLine
 10
-0.9999999999999998
 20
0.0
 30
0.0
 11
0.0
 21
0.0
 31
0.0
  0
POLYLINE
  5
FC
330
F8
100
AcDbEntity
  8
0
 62
     0
100
AcDb2dPolyline
 66
     1
 10
0.0
 20
0.0
 30
0.0
 70
   128
  0
VERTEX
  5
FD
330
FC
100
AcDbEntity
  8
0
 62
     0
100
AcDbVertex
100
AcDb2dVertex
 10
-0.9999999999999998
 20
-0.0994897959183674
 30
0.0
  0
VERTEX
  5
FE
330
FC
100
AcDbEntity
  8
0
 62
     0
100
AcDbVertex
100
AcDb2dVertex
 10
0.0
 20
0.0
 30
0.0
  0
VERTEX
  5
100
330
FC
100
AcDbEntity
  8
0
 62
     0
100
AcDbVertex
100
AcDb2dVertex
 10
-0.9999999999999998
 20
0.0994897959183674
 30
0.0
  0
VERTEX
  5
101
330
FC
100
AcDbEntity
  8
0
 62
     0
100
AcDbVertex
100
AcDb2dVertex
 10
-0.9999999999999998
 20
-0.0994897959183674
 30
0.0
  0
SEQEND
  5
FF
330
FC
100
AcDbEntity
  8
0
 62
     0
  0
SOLID
  5
102
330
F8
100
AcDbEntity
  8
0
 62
     0
100
AcDbTrace
 10
-0.9999999999999998
 20
-0.0994897959183674
 30
0.0
 11
0.0
 21
0.0
 31
0.0
 12
-0.9999999999999998
 22
0.0994897959183674
 32
0.0
 13
-0.9999999999999998
 23
-0.0994897959183674
 33
0.0
  0
LINE
  5
103
330
F8
100
AcDbEntity
  8
0
 62
     0
100
AcDbLine
 10
-0.9999999999999998
 20
-0.0994897959183674
 30
0.0
 11
0.0
 21
0.0
 31
0.0
  0
LINE
  5
104
330
F8
100
AcDbEntity
  8
0
 62
     0
100
AcDbLine
 10
0.0
 20
0.0
 30
0.0
 11
-0.9999999999999998
 21
0.0994897959183674
 31
0.0
  0
LINE
  5
105
330
F8
100
AcDbEntity
  8
0
 62
     0
100
AcDbLine
 10
-0.9999999999999998
 20
0.0994897959183674
 30
0.0
 11
-0.9999999999999998
 21
-0.0994897959183674
 31
0.0
  0
ENDBLK
  5
FA
330
F8
100
AcDbEntity
  8
0
100
AcDbBlockEnd
  0
BLOCK
  5
236
330
235
100
AcDbEntity
  8
0
100
AcDbBlockBegin
  2
*D4
 70
     1
 10
0.0
 20
0.0
 30
0.0
  3
*D4
  1

  0
LINE
  5
329
330
235
100
AcDbEntity
  8
Dimension (ANSI)
440
 16777216
100
AcDbLine
 10
6.653321531892403
 20
9.756955693836605
 30
0.0
 11
4.871846707453789
 21
9.756955693836605
 31
0.0
  0
LINE
  5
32A
330
235
100
AcDbEntity
  8
Dimension (ANSI)
440
 16777216
100
AcDbLine
 10
6.659109702622875
 20
15.75695569383643
 30
0.0
 11
4.871846707453791
 21
15.75695569383643
 31
0.0
  0
LINE
  5
32B
330
235
100
AcDbEntity
  8
Dimension (ANSI)
440
 16777216
100
AcDbLine
 10
5.271846707453789
 20
10.07191631662408
 30
0.0
 11
5.271846707453789
 21
12.14569209417883
 31
0.0
  0
LINE
  5
32C
330
235
100
AcDbEntity
  8
Dimension (ANSI)
440
 16777216
100
AcDbLine
 10
5.27184670745379
 20
15.44199507104895
 30
0.0
 11
5.271846707453789
 21
13.36821929349419
 31
0.0
  0
SOLID
  5
32D
330
235
100
AcDbEntity
  8
Dimension (ANSI)
440
 16777216
100
AcDbTrace
 10
5.219353270322543
 20
10.07191631662408
 30
0.0
 11
5.324340144585035
 21
10.07191631662408
 31
0.0
 12
5.271846707453788
 22
9.756955693836605
 32
0.0
 13
5.271846707453788
 23
9.756955693836605
 33
0.0
  0
SOLID
  5
32E
330
235
100
AcDbEntity
  8
Dimension (ANSI)
440
 16777216
100
AcDbTrace
 10
5.219353270322544
 20
15.44199507104895
 30
0.0
 11
5.324340144585036
 21
15.44199507104895
 31
0.0
 12
5.27184670745379
 22
15.75695569383643
 32
0.0
 13
5.27184670745379
 23
15.75695569383643
 33
0.0
  0
MTEXT
  5
32F
330
235
100
AcDbEntity
  8
Dimension (ANSI)
440
 16777216
100
AcDbMText
 10
5.271846707453788
 20
12.75695569383652
 30
0.0
 40
0.3200000047683716
 41
0.0
 46
0.0
 71
     5
 72
     1
  1
\A1;6.00{\P(2 PL.)}
  7
ROMANS
 73
     1
 44
1.0
  0
POINT
  5
330
330
235
100
AcDbEntity
  8
Defpoints
 62
     0
440
 16777216
100
AcDbPoint
 10
6.853321531892404
 20
9.756955693836605
 30
0.0
  0
POINT
  5
331
330
235
100
AcDbEntity
  8
Defpoints
 62
     0
440
 16777216
100
AcDbPoint
 10
6.859109702622875
 20
15.75695569383643
 30
0.0
  0
POINT
  5
332
330
235
100
AcDbEntity
  8
Defpoints
 62
     0
440
 16777216
100
AcDbPoint
 10
5.27184670745379
 20
15.75695569383643
 30
0.0
  0
ENDBLK
  5
237
330
235
100
AcDbEntity
  8
0
100
AcDbBlockEnd
  0
BLOCK
  5
444
330
443
100
AcDbEntity
  8
0
100
AcDbBlockBegin
  2
*D5
 70
     1
 10
0.0
 20
0.0
 30
0.0
  3
*D5
  1

  0
LINE
  5
536
330
443
100
AcDbEntity
  8
Dimension (ANSI)
440
 16777216
100
AcDbLine
 10
6.653321531896033
 20
25.39092716265608
 30
0.0
 11
5.193479012210998
 21
25.39092716265608
 31
0.0
  0
LINE
  5
537
330
443
100
AcDbEntity
  8
Dimension (ANSI)
440
 16777216
100
AcDbLine
 10
6.653321531896034
 20
31.39092716265608
 30
0.0
 11
5.193479012211
 21
31.39092716265608
 31
0.0
  0
LINE
  5
538
330
443
100
AcDbEntity
  8
Dimension (ANSI)
440
 16777216
100
AcDbLine
 10
5.593479012210997
 20
25.70588778544355
 30
0.0
 11
5.593479012210998
 21
27.86347308805678
 31
0.0
  0
LINE
  5
539
330
443
100
AcDbEntity
  8
Dimension (ANSI)
440
 16777216
100
AcDbLine
 10
5.593479012210999
 20
31.0759665398686
 30
0.0
 11
5.593479012210998
 21
28.91838123725538
 31
0.0
  0
SOLID
  5
53A
330
443
100
AcDbEntity
  8
Dimension (ANSI)
440
 16777216
100
AcDbTrace
 10
5.540985575079751
 20
25.70588778544355
 30
0.0
 11
5.645972449342243
 21
25.70588778544355
 31
0.0
 12
5.593479012210997
 22
25.39092716265608
 32
0.0
 13
5.593479012210997
 23
25.39092716265608
 33
0.0
  0
SOLID
  5
53B
330
443
100
AcDbEntity
  8
Dimension (ANSI)
440
 16777216
100
AcDbTrace
 10
5.540985575079753
 20
31.0759665398686
 30
0.0
 11
5.645972449342245
 21
31.0759665398686
 31
0.0
 12
5.593479012210999
 22
31.39092716265608
 32
0.0
 13
5.593479012210999
 23
31.39092716265608
 33
0.0
  0
MTEXT
  5
53C
330
443
100
AcDbEntity
  8
Dimension (ANSI)
440
 16777216
100
AcDbMText
 10
5.593479012210994
 20
28.39092716265608
 30
0.0
 40
0.3200000047683716
 41
0.0
 46
0.0
 71
     5
 72
     1
  1
\A1;6.00{\PTYP.}
  7
ROMANS
 73
     1
 44
1.0
  0
POINT
  5
53D
330
443
100
AcDbEntity
  8
Defpoints
 62
     0
440
 16777216
100
AcDbPoint
 10
6.853321531896033
 20
25.39092716265608
 30
0.0
  0
POINT
  5
53E
330
443
100
AcDbEntity
  8
Defpoints
 62
     0
440
 16777216
100
AcDbPoint
 10
6.853321531896034
 20
31.39092716265608
 30
0.0
  0
POINT
  5
53F
330
443
100
AcDbEntity
  8
Defpoints
 62
     0
440
 16777216
100
AcDbPoint
 10
5.593479012210999
 20
31.39092716265608
 30
0.0
  0
ENDBLK
  5
445
330
443
100
AcDbEntity
  8
0
100
AcDbBlockEnd
  0
BLOCK
  5
542
330
541
100
AcDbEntity
  8
0
100
AcDbBlockBegin
  2
*D6
 70
     1
 10
0.0
 20
0.0
 30
0.0
  3
*D6
  1

  0
LINE
  5
63E
330
541
100
AcDbEntity
  8
Dimension (ANSI)
440
 16777216
100
AcDbLine
 10
6.915821531892404
 20
8.744455693836608
 30
0.0
 11
6.915821531892404
 21
7.074043484030406
 31
0.0
  0
LINE
  5
63F
330
541
100
AcDbEntity
  8
Dimension (ANSI)
440
 16777216
100
AcDbLine
 10
6.790821531892403
 20
8.744455693836608
 30
0.0
 11
6.790821531892403
 21
7.074043484030406
 31
0.0
  0
LINE
  5
640
330
541
100
AcDbEntity
  8
Dimension (ANSI)
440
 16777216
100
AcDbLine
 10
7.23078215467988
 20
7.474043484030406
 30
0.0
 11
7.545742777467355
 21
7.474043484030406
 31
0.0
  0
LINE
  5
641
330
541
100
AcDbEntity
  8
Dimension (ANSI)
440
 16777216
100
AcDbLine
 10
6.475860909104927
 20
7.474043484030406
 30
0.0
 11
6.160900286317453
 21
7.474043484030406
 31
0.0
  0
SOLID
  5
642
330
541
100
AcDbEntity
  8
Dimension (ANSI)
440
 16777216
100
AcDbTrace
 10
7.23078215467988
 20
7.526536921161652
 30
0.0
 11
7.23078215467988
 21
7.42155004689916
 31
0.0
 12
6.915821531892404
 22
7.474043484030406
 32
0.0
 13
6.915821531892404
 23
7.474043484030406
 33
0.0
  0
SOLID
  5
643
330
541
100
AcDbEntity
  8
Dimension (ANSI)
440
 16777216
100
AcDbTrace
 10
6.475860909104927
 20
7.526536921161652
 30
0.0
 11
6.475860909104927
 21
7.42155004689916
 31
0.0
 12
6.790821531892403
 22
7.474043484030406
 32
0.0
 13
6.790821531892403
 23
7.474043484030406
 33
0.0
  0
MTEXT
  5
644
330
541
100
AcDbEntity
  8
Dimension (ANSI)
440
 16777216
100
AcDbMText
 10
4.604874767819817
 20
7.474043484030406
 30
0.0
 40
0.3200000047683716
 41
0.0
 46
0.0
 71
     5
 72
     1
  1
\A1;{10 GA. 304\PS.S. (3 PL.)\P}(0.125)
  7
ROMANS
 73
     1
 44
1.0
  0
POINT
  5
645
330
541
100
AcDbEntity
  8
Defpoints
 62
     0
440
 16777216
100
AcDbPoint
 10
6.915821531892404
 20
8.944455693836607
 30
0.0
  0
POINT
  5
646
330
541
100
AcDbEntity
  8
Defpoints
 62
     0
440
 16777216
100
AcDbPoint
 10
6.790821531892403
 20
8.944455693836607
 30
0.0
  0
POINT
  5
647
330
541
100
AcDbEntity
  8
Defpoints
 62
     0
440
 16777216
100
AcDbPoint
 10
6.790821531892403
 20
7.474043484030406
 30
0.0
  0
ENDBLK
  5
543
330
541
100
AcDbEntity
  8
0
100
AcDbBlockEnd
  0
BLOCK
  5
64A
330
649
100
AcDbEntity
  8
0
100
AcDbBlockBegin
  2
*D7
 70
     1
 10
0.0
 20
0.0
 30
0.0
  3
*D7
  1

  0
LINE
  5
732
330
649
100
AcDbEntity
  8
Dimension (ANSI)
440
 16777216
100
AcDbLine
 10
36.41459052976202
 20
9.119455693836593
 30
0.0
 11
36.41459052976202
 21
6.972825675591348
 31
0.0
  0
LINE
  5
733
330
649
100
AcDbEntity
  8
Dimension (ANSI)
440
 16777216
100
AcDbLine
 10
28.78959052976205
 20
9.119455693836593
 30
0.0
 11
28.78959052976205
 21
6.972825675591348
 31
0.0
  0
LINE
  5
734
330
649
100
AcDbEntity
  8
Dimension (ANSI)
440
 16777216
100
AcDbLine
 10
36.09962990697455
 20
7.372825675591348
 30
0.0
 11
33.38859222726906
 21
7.372825675591348
 31
0.0
  0
LINE
  5
735
330
649
100
AcDbEntity
  8
Dimension (ANSI)
440
 16777216
100
AcDbLine
 10
29.10455115254952
 20
7.372825675591348
 30
0.0
 11
31.81558883225501
 21
7.372825675591348
 31
0.0
  0
SOLID
  5
736
330
649
100
AcDbEntity
  8
Dimension (ANSI)
440
 16777216
100
AcDbTrace
 10
36.09962990697455
 20
7.425319112722594
 30
0.0
 11
36.09962990697455
 21
7.320332238460102
 31
0.0
 12
36.41459052976202
 22
7.372825675591348
 32
0.0
 13
36.41459052976202
 23
7.372825675591348
 33
0.0
  0
SOLID
  5
737
330
649
100
AcDbEntity
  8
Dimension (ANSI)
440
 16777216
100
AcDbTrace
 10
29.10455115254952
 20
7.425319112722594
 30
0.0
 11
29.10455115254952
 21
7.320332238460102
 31
0.0
 12
28.78959052976205
 22
7.372825675591348
 32
0.0
 13
28.78959052976205
 23
7.372825675591348
 33
0.0
  0
MTEXT
  5
738
330
649
100
AcDbEntity
  8
Dimension (ANSI)
440
 16777216
100
AcDbMText
 10
31.91637623382981
 20
7.616635203033917
 30
0.0
 40
0.3200000047683716
 41
0.0
 46
0.0
 71
     1
 72
     1
  1
\A1;(7.63)
  7
ROMANS
 73
     1
 44
1.0
  0
POINT
  5
739
330
649
100
AcDbEntity
  8
Defpoints
 62
     0
440
 16777216
100
AcDbPoint
 10
36.41459052976202
 20
9.319455693836593
 30
0.0
  0
POINT
  5
73A
330
649
100
AcDbEntity
  8
Defpoints
 62
     0
440
 16777216
100
AcDbPoint
 10
28.78959052976205
 20
9.319455693836593
 30
0.0
  0
POINT
  5
73B
330
649
100
AcDbEntity
  8
Defpoints
 62
     0
440
 16777216
100
AcDbPoint
 10
28.78959052976205
 20
7.372825675591348
 30
0.0
  0
ENDBLK
  5
64B
330
649
100
AcDbEntity
  8
0
100
AcDbBlockEnd
  0
BLOCK
  5
740
330
73F
100
AcDbEntity
  8
0
100
AcDbBlockBegin
  2
*D8
 70
     1
 10
0.0
 20
0.0
 30
0.0
  3
*D8
  1

  0
LINE
  5
828
330
73F
100
AcDbEntity
  8
Dimension (ANSI)
440
 16777216
100
AcDbLine
 10
36.41459052976202
 20
9.119455693836593
 30
0.0
 11
36.41459052976202
 21
7.974488626912767
 31
0.0
  0
LINE
  5
829
330
73F
100
AcDbEntity
  8
Dimension (ANSI)
440
 16777216
100
AcDbLine
 10
32.60209052976204
 20
8.719455693836595
 30
0.0
 11
32.60209052976204
 21
7.974488626912767
 31
0.0
  0
LINE
  5
82A
330
73F
100
AcDbEntity
  8
Dimension (ANSI)
440
 16777216
100
AcDbLine
 10
36.09962990697455
 20
8.374488626912768
 30
0.0
 11
35.29484222726906
 21
8.374488626912768
 31
0.0
  0
LINE
  5
82B
330
73F
100
AcDbEntity
  8
Dimension (ANSI)
440
 16777216
100
AcDbLine
 10
32.91705115254951
 20
8.374488626912768
 30
0.0
 11
33.721838832255
 21
8.374488626912768
 31
0.0
  0
SOLID
  5
82C
330
73F
100
AcDbEntity
  8
Dimension (ANSI)
440
 16777216
100
AcDbTrace
 10
36.09962990697455
 20
8.426982064044013
 30
0.0
 11
36.09962990697455
 21
8.321995189781523
 31
0.0
 12
36.41459052976202
 22
8.374488626912768
 32
0.0
 13
36.41459052976202
 23
8.374488626912768
 33
0.0
  0
SOLID
  5
82D
330
73F
100
AcDbEntity
  8
Dimension (ANSI)
440
 16777216
100
AcDbTrace
 10
32.91705115254951
 20
8.426982064044013
 30
0.0
 11
32.91705115254951
 21
8.321995189781523
 31
0.0
 12
32.60209052976204
 22
8.374488626912768
 32
0.0
 13
32.60209052976204
 23
8.374488626912768
 33
0.0
  0
MTEXT
  5
82E
330
73F
100
AcDbEntity
  8
Dimension (ANSI)
440
 16777216
100
AcDbMText
 10
33.82262623382981
 20
8.618298154355336
 30
0.0
 40
0.3200000047683716
 41
0.0
 46
0.0
 71
     1
 72
     1
  1
\A1;(3.81)
  7
ROMANS
 73
     1
 44
1.0
  0
POINT
  5
82F
330
73F
100
AcDbEntity
  8
Defpoints
 62
     0
440
 16777216
100
AcDbPoint
 10
36.41459052976202
 20
9.319455693836593
 30
0.0
  0
POINT
  5
830
330
73F
100
AcDbEntity
  8
Defpoints
 62
     0
440
 16777216
100
AcDbPoint
 10
32.60209052976204
 20
8.919455693836594
 30
0.0
  0
POINT
  5
831
330
73F
100
AcDbEntity
  8
Defpoints
 62
     0
440
 16777216
100
AcDbPoint
 10
32.60209052976204
 20
8.374488626912768
 30
0.0
  0
ENDBLK
  5
741
330
73F
100
AcDbEntity
  8
0
100
AcDbBlockEnd
  0
BLOCK
  5
834
330
833
100
AcDbEntity
  8
0
100
AcDbBlockBegin
  2
*D9
 70
     1
 10
0.0
 20
0.0
 30
0.0
  3
*D9
  1

  0
LINE
  5
943
330
833
100
AcDbEntity
  8
Dimension (ANSI)
440
 16777216
100
AcDbLine
 10
35.72809052976195
 20
15.68295569383642
 30
0.0
 11
36.80884918568971
 21
15.68295569383642
 31
0.0
  0
LINE
  5
944
330
833
100
AcDbEntity
  8
Dimension (ANSI)
440
 16777216
100
AcDbLine
 10
36.23959052976203
 20
16.56945569383659
 30
0.0
 11
36.80884918568972
 21
16.56945569383659
 31
0.0
  0
LINE
  5
945
330
833
100
AcDbEntity
  8
Dimension (ANSI)
440
 16777216
100
AcDbLine
 10
36.40884918568971
 20
15.36799507104895
 30
0.0
 11
36.40884918568971
 21
15.05303444826147
 31
0.0
  0
LINE
  5
946
330
833
100
AcDbEntity
  8
Dimension (ANSI)
440
 16777216
100
AcDbLine
 10
36.40884918568972
 20
16.88441631662406
 30
0.0
 11
36.40884918568972
 21
17.92460605178575
 31
0.0
  0
LINE
  5
947
330
833
100
AcDbEntity
  8
Dimension (ANSI)
440
 16777216
100
AcDbLine
 10
36.40884918568972
 20
17.92460605178575
 30
0.0
 11
36.72380980847719
 21
17.92460605178575
 31
0.0
  0
SOLID
  5
948
330
833
100
AcDbEntity
  8
Dimension (ANSI)
440
 16777216
100
AcDbTrace
 10
36.35635574855847
 20
15.36799507104895
 30
0.0
 11
36.46134262282096
 21
15.36799507104895
 31
0.0
 12
36.40884918568971
 22
15.68295569383642
 32
0.0
 13
36.40884918568971
 23
15.68295569383642
 33
0.0
  0
SOLID
  5
949
330
833
100
AcDbEntity
  8
Dimension (ANSI)
440
 16777216
100
AcDbTrace
 10
36.35635574855847
 20
16.88441631662406
 30
0.0
 11
36.46134262282096
 21
16.88441631662406
 31
0.0
 12
36.40884918568972
 22
16.56945569383659
 32
0.0
 13
36.40884918568972
 23
16.56945569383659
 33
0.0
  0
MTEXT
  5
94A
330
833
100
AcDbEntity
  8
Dimension (ANSI)
440
 16777216
100
AcDbMText
 10
37.51031150598421
 20
17.92460605178575
 30
0.0
 40
0.3200000047683716
 41
0.0
 46
0.0
 71
     5
 72
     1
  1
\A1;(0.89){\PTYP.}
  7
ROMANS
 73
     1
 44
1.0
  0
POINT
  5
94B
330
833
100
AcDbEntity
  8
Defpoints
 62
     0
440
 16777216
100
AcDbPoint
 10
35.52809052976195
 20
15.68295569383642
 30
0.0
  0
POINT
  5
94C
330
833
100
AcDbEntity
  8
Defpoints
 62
     0
440
 16777216
100
AcDbPoint
 10
36.03959052976203
 20
16.56945569383659
 30
0.0
  0
POINT
  5
94D
330
833
100
AcDbEntity
  8
Defpoints
 62
     0
440
 16777216
100
AcDbPoint
 10
36.40884918568972
 20
16.56945569383659
 30
0.0
  0
ENDBLK
  5
835
330
833
100
AcDbEntity
  8
0
100
AcDbBlockEnd
  0
BLOCK
  5
950
330
94F
100
AcDbEntity
  8
0
100
AcDbBlockBegin
  2
*D10
 70
     1
 10
0.0
 20
0.0
 30
0.0
  3
*D10
  1

  0
LINE
  5
A38
330
94F
100
AcDbEntity
  8
Dimension (ANSI)
440
 16777216
100
AcDbLine
 10
28.96459052976205
 20
16.56945569383659
 30
0.0
 11
25.99293698645497
 21
16.56945569383659
 31
0.0
  0
LINE
  5
A39
330
94F
100
AcDbEntity
  8
Dimension (ANSI)
440
 16777216
100
AcDbLine
 10
28.96459052976204
 20
8.944455693836591
 30
0.0
 11
25.99293698645497
 21
8.944455693836593
 31
0.0
  0
LINE
  5
A3A
330
94F
100
AcDbEntity
  8
Dimension (ANSI)
440
 16777216
100
AcDbLine
 10
26.39293698645497
 20
16.25449507104911
 30
0.0
 11
26.39293698645497
 21
13.10155262285396
 31
0.0
  0
LINE
  5
A3B
330
94F
100
AcDbEntity
  8
Dimension (ANSI)
440
 16777216
100
AcDbLine
 10
26.39293698645497
 20
9.259416316624069
 30
0.0
 11
26.39293698645497
 21
12.41235876481922
 31
0.0
  0
SOLID
  5
A3C
330
94F
100
AcDbEntity
  8
Dimension (ANSI)
440
 16777216
100
AcDbTrace
 10
26.34044354932372
 20
16.25449507104911
 30
0.0
 11
26.44543042358622
 21
16.25449507104911
 31
0.0
 12
26.39293698645497
 22
16.56945569383659
 32
0.0
 13
26.39293698645497
 23
16.56945569383659
 33
0.0
  0
SOLID
  5
A3D
330
94F
100
AcDbEntity
  8
Dimension (ANSI)
440
 16777216
100
AcDbTrace
 10
26.34044354932372
 20
9.259416316624069
 30
0.0
 11
26.44543042358622
 21
9.259416316624069
 31
0.0
 12
26.39293698645497
 22
8.944455693836593
 32
0.0
 13
26.39293698645497
 23
8.944455693836593
 33
0.0
  0
MTEXT
  5
A3E
330
94F
100
AcDbEntity
  8
Dimension (ANSI)
440
 16777216
100
AcDbMText
 10
25.70722269052274
 20
13.00076522127916
 30
0.0
 40
0.3200000047683716
 41
0.0
 46
0.0
 71
     1
 72
     1
  1
\A1;(7.63)
  7
ROMANS
 73
     1
 44
1.0
  0
POINT
  5
A3F
330
94F
100
AcDbEntity
  8
Defpoints
 62
     0
440
 16777216
100
AcDbPoint
 10
29.16459052976205
 20
16.56945569383659
 30
0.0
  0
POINT
  5
A40
330
94F
100
AcDbEntity
  8
Defpoints
 62
     0
440
 16777216
100
AcDbPoint
 10
29.16459052976204
 20
8.944455693836591
 30
0.0
  0
POINT
  5
A41
330
94F
100
AcDbEntity
  8
Defpoints
 62
     0
440
 16777216
100
AcDbPoint
 10
26.39293698645497
 20
8.944455693836593
 30
0.0
  0
ENDBLK
  5
951
330
94F
100
AcDbEntity
  8
0
100
AcDbBlockEnd
  0
BLOCK
  5
A44
330
A43
100
AcDbEntity
  8
0
100
AcDbBlockBegin
  2
*D11
 70
     1
 10
0.0
 20
0.0
 30
0.0
  3
*D11
  1

  0
LINE
  5
B2C
330
A43
100
AcDbEntity
  8
Dimension (ANSI)
440
 16777216
100
AcDbLine
 10
28.96459052976205
 20
16.56945569383659
 30
0.0
 11
27.47078315614531
 21
16.56945569383659
 31
0.0
  0
LINE
  5
B2D
330
A43
100
AcDbEntity
  8
Dimension (ANSI)
440
 16777216
100
AcDbLine
 10
28.56459052976205
 20
12.75695569383659
 30
0.0
 11
27.47078315614531
 21
12.75695569383659
 31
0.0
  0
LINE
  5
B2E
330
A43
100
AcDbEntity
  8
Dimension (ANSI)
440
 16777216
100
AcDbLine
 10
27.87078315614531
 20
16.25449507104911
 30
0.0
 11
27.87078315614531
 21
15.00780262285396
 31
0.0
  0
LINE
  5
B2F
330
A43
100
AcDbEntity
  8
Dimension (ANSI)
440
 16777216
100
AcDbLine
 10
27.87078315614531
 20
13.07191631662407
 30
0.0
 11
27.87078315614531
 21
14.31860876481922
 31
0.0
  0
SOLID
  5
B30
330
A43
100
AcDbEntity
  8
Dimension (ANSI)
440
 16777216
100
AcDbTrace
 10
27.81828971901406
 20
16.25449507104911
 30
0.0
 11
27.92327659327656
 21
16.25449507104911
 31
0.0
 12
27.87078315614531
 22
16.56945569383659
 32
0.0
 13
27.87078315614531
 23
16.56945569383659
 33
0.0
  0
SOLID
  5
B31
330
A43
100
AcDbEntity
  8
Dimension (ANSI)
440
 16777216
100
AcDbTrace
 10
27.81828971901406
 20
13.07191631662407
 30
0.0
 11
27.92327659327656
 21
13.07191631662407
 31
0.0
 12
27.87078315614531
 22
12.75695569383659
 32
0.0
 13
27.87078315614531
 23
12.75695569383659
 33
0.0
  0
MTEXT
  5
B32
330
A43
100
AcDbEntity
  8
Dimension (ANSI)
440
 16777216
100
AcDbMText
 10
27.18506886021308
 20
14.90701522127916
 30
0.0
 40
0.3200000047683716
 41
0.0
 46
0.0
 71
     1
 72
     1
  1
\A1;(3.81)
  7
ROMANS
 73
     1
 44
1.0
  0
POINT
  5
B33
330
A43
100
AcDbEntity
  8
Defpoints
 62
     0
440
 16777216
100
AcDbPoint
 10
29.16459052976205
 20
16.56945569383659
 30
0.0
  0
POINT
  5
B34
330
A43
100
AcDbEntity
  8
Defpoints
 62
     0
440
 16777216
100
AcDbPoint
 10
28.76459052976205
 20
12.75695569383659
 30
0.0
  0
POINT
  5
B35
330
A43
100
AcDbEntity
  8
Defpoints
 62
     0
440
 16777216
100
AcDbPoint
 10
27.87078315614531
 20
12.75695569383659
 30
0.0
  0
ENDBLK
  5
A45
330
A43
100
AcDbEntity
  8
0
100
AcDbBlockEnd
  0
BLOCK
  5
B3C
330
B3B
100
AcDbEntity
  8
0
100
AcDbBlockBegin
  2
*D12
 70
     1
 10
0.0
 20
0.0
 30
0.0
  3
*D12
  1

  0
LINE
  5
C1A
330
B3B
100
AcDbEntity
  8
Dimension (ANSI)
440
 16777216
100
AcDbLine
 10
6.653321531892403
 20
9.756955693836605
 30
0.0
 11
3.417860505365089
 21
9.756955693836607
 31
0.0
  0
LINE
  5
C1B
330
B3B
100
AcDbEntity
  8
Dimension (ANSI)
440
 16777216
100
AcDbLine
 10
8.778321531892421
 20
18.7569556938366
 30
0.0
 11
3.417860505365089
 21
18.7569556938366
 31
0.0
  0
LINE
  5
C1C
330
B3B
100
AcDbEntity
  8
Dimension (ANSI)
440
 16777216
100
AcDbLine
 10
3.817860505365088
 20
10.07191631662408
 30
0.0
 11
3.817860505365089
 21
13.99616828987761
 31
0.0
  0
LINE
  5
C1D
330
B3B
100
AcDbEntity
  8
Dimension (ANSI)
440
 16777216
100
AcDbLine
 10
3.81786050536509
 20
18.44199507104913
 30
0.0
 11
3.817860505365089
 21
14.51774309779559
 31
0.0
  0
SOLID
  5
C1E
330
B3B
100
AcDbEntity
  8
Dimension (ANSI)
440
 16777216
100
AcDbTrace
 10
3.765367068233842
 20
10.07191631662408
 30
0.0
 11
3.870353942496334
 21
10.07191631662408
 31
0.0
 12
3.817860505365088
 22
9.756955693836607
 32
0.0
 13
3.817860505365088
 23
9.756955693836607
 33
0.0
  0
SOLID
  5
C1F
330
B3B
100
AcDbEntity
  8
Dimension (ANSI)
440
 16777216
100
AcDbTrace
 10
3.765367068233844
 20
18.44199507104913
 30
0.0
 11
3.870353942496336
 21
18.44199507104913
 31
0.0
 12
3.81786050536509
 22
18.7569556938366
 32
0.0
 13
3.81786050536509
 23
18.7569556938366
 33
0.0
  0
MTEXT
  5
C20
330
B3B
100
AcDbEntity
  8
Dimension (ANSI)
440
 16777216
100
AcDbMText
 10
3.482622405131555
 20
14.41695569622079
 30
0.0
 40
0.3200000047683716
 41
0.0
 46
0.0
 71
     1
 72
     1
  1
\A1;9.0
  7
ROMANS
 73
     1
 44
1.0
  0
POINT
  5
C21
330
B3B
100
AcDbEntity
  8
Defpoints
 62
     0
440
 16777216
100
AcDbPoint
 10
6.853321531892404
 20
9.756955693836605
 30
0.0
  0
POINT
  5
C22
330
B3B
100
AcDbEntity
  8
Defpoints
 62
     0
440
 16777216
100
AcDbPoint
 10
8.97832153189242
 20
18.7569556938366
 30
0.0
  0
POINT
  5
C23
330
B3B
100
AcDbEntity
  8
Defpoints
 62
     0
440
 16777216
100
AcDbPoint
 10
3.81786050536509
 20
18.7569556938366
 30
0.0
  0
ENDBLK
  5
B3D
330
B3B
100
AcDbEntity
  8
0
100
AcDbBlockEnd
  0
BLOCK
  5
C26
330
C25
100
AcDbEntity
  8
0
100
AcDbBlockBegin
  2
*D13
 70
     1
 10
0.0
 20
0.0
 30
0.0
  3
*D13
  1

  0
LINE
  5
D04
330
C25
100
AcDbEntity
  8
Dimension (ANSI)
440
 16777216
100
AcDbLine
 10
9.790821531892408
 20
18.83195569383659
 30
0.0
 11
9.790821531892408
 21
20.80458260478612
 31
0.0
  0
LINE
  5
D05
330
C25
100
AcDbEntity
  8
Dimension (ANSI)
440
 16777216
100
AcDbLine
 10
12.7908215318924
 20
19.6933500382661
 30
0.0
 11
12.7908215318924
 21
20.80458260478612
 31
0.0
  0
LINE
  5
D06
330
C25
100
AcDbEntity
  8
Dimension (ANSI)
440
 16777216
100
AcDbLine
 10
10.10578215467988
 20
20.40458260478612
 30
0.0
 11
10.70241507543246
 21
20.40458260478612
 31
0.0
  0
LINE
  5
D07
330
C25
100
AcDbEntity
  8
Dimension (ANSI)
440
 16777216
100
AcDbLine
 10
12.47586090910492
 20
20.40458260478612
 30
0.0
 11
11.87922798835234
 21
20.40458260478612
 31
0.0
  0
SOLID
  5
D08
330
C25
100
AcDbEntity
  8
Dimension (ANSI)
440
 16777216
100
AcDbTrace
 10
10.10578215467988
 20
20.45707604191736
 30
0.0
 11
10.10578215467988
 21
20.35208916765487
 31
0.0
 12
9.790821531892408
 22
20.40458260478612
 32
0.0
 13
9.790821531892408
 23
20.40458260478612
 33
0.0
  0
SOLID
  5
D09
330
C25
100
AcDbEntity
  8
Dimension (ANSI)
440
 16777216
100
AcDbTrace
 10
12.47586090910492
 20
20.45707604191736
 30
0.0
 11
12.47586090910492
 21
20.35208916765487
 31
0.0
 12
12.7908215318924
 22
20.40458260478612
 32
0.0
 13
12.7908215318924
 23
20.40458260478612
 33
0.0
  0
MTEXT
  5
D0A
330
C25
100
AcDbEntity
  8
Dimension (ANSI)
440
 16777216
100
AcDbMText
 10
10.80320247700727
 20
20.56458260717031
 30
0.0
 40
0.3200000047683716
 41
0.0
 46
0.0
 71
     1
 72
     1
  1
\A1;3.00
  7
ROMANS
 73
     1
 44
1.0
  0
POINT
  5
D0B
330
C25
100
AcDbEntity
  8
Defpoints
 62
     0
440
 16777216
100
AcDbPoint
 10
9.790821531892408
 20
18.63195569383659
 30
0.0
  0
POINT
  5
D0C
330
C25
100
AcDbEntity
  8
Defpoints
 62
     0
440
 16777216
100
AcDbPoint
 10
12.7908215318924
 20
19.4933500382661
 30
0.0
  0
POINT
  5
D0D
330
C25
100
AcDbEntity
  8
Defpoints
 62
     0
440
 16777216
100
AcDbPoint
 10
12.7908215318924
 20
20.40458260478612
 30
0.0
  0
ENDBLK
  5
C27
330
C25
100
AcDbEntity
  8
0
100
AcDbBlockEnd
  0
BLOCK
  5
D10
330
D0F
100
AcDbEntity
  8
0
100
AcDbBlockBegin
  2
*D14
 70
     1
 10
0.0
 20
0.0
 30
0.0
  3
*D14
  1

  0
LINE
  5
DEE
330
D0F
100
AcDbEntity
  8
Dimension (ANSI)
440
 16777216
100
AcDbLine
 10
9.790821531892408
 20
18.88866752310599
 30
0.0
 11
9.790821531892408
 21
21.73170512577782
 31
0.0
  0
LINE
  5
DEF
330
D0F
100
AcDbEntity
  8
Dimension (ANSI)
440
 16777216
100
AcDbLine
 10
15.7908215318924
 20
18.88866752310599
 30
0.0
 11
15.7908215318924
 21
21.73170512577782
 31
0.0
  0
LINE
  5
DF0
330
D0F
100
AcDbEntity
  8
Dimension (ANSI)
440
 16777216
100
AcDbLine
 10
10.10578215467988
 20
21.33170512577782
 30
0.0
 11
12.21003412316505
 21
21.33170512577782
 31
0.0
  0
LINE
  5
DF1
330
D0F
100
AcDbEntity
  8
Dimension (ANSI)
440
 16777216
100
AcDbLine
 10
15.47586090910492
 20
21.33170512577782
 30
0.0
 11
13.37160894061977
 21
21.33170512577782
 31
0.0
  0
SOLID
  5
DF2
330
D0F
100
AcDbEntity
  8
Dimension (ANSI)
440
 16777216
100
AcDbTrace
 10
10.10578215467988
 20
21.38419856290907
 30
0.0
 11
10.10578215467988
 21
21.27921168864657
 31
0.0
 12
9.790821531892408
 22
21.33170512577782
 32
0.0
 13
9.790821531892408
 23
21.33170512577782
 33
0.0
  0
SOLID
  5
DF3
330
D0F
100
AcDbEntity
  8
Dimension (ANSI)
440
 16777216
100
AcDbTrace
 10
15.47586090910492
 20
21.38419856290907
 30
0.0
 11
15.47586090910492
 21
21.27921168864657
 31
0.0
 12
15.7908215318924
 22
21.33170512577782
 32
0.0
 13
15.7908215318924
 23
21.33170512577782
 33
0.0
  0
MTEXT
  5
DF4
330
D0F
100
AcDbEntity
  8
Dimension (ANSI)
440
 16777216
100
AcDbMText
 10
12.31082152473985
 20
21.49170512816201
 30
0.0
 40
0.3200000047683716
 41
0.0
 46
0.0
 71
     1
 72
     1
  1
\A1;6.00
  7
ROMANS
 73
     1
 44
1.0
  0
POINT
  5
DF5
330
D0F
100
AcDbEntity
  8
Defpoints
 62
     0
440
 16777216
100
AcDbPoint
 10
9.790821531892408
 20
18.68866752310599
 30
0.0
  0
POINT
  5
DF6
330
D0F
100
AcDbEntity
  8
Defpoints
 62
     0
440
 16777216
100
AcDbPoint
 10
15.7908215318924
 20
18.68866752310599
 30
0.0
  0
POINT
  5
DF7
330
D0F
100
AcDbEntity
  8
Defpoints
 62
     0
440
 16777216
100
AcDbPoint
 10
15.7908215318924
 20
21.33170512577782
 30
0.0
  0
ENDBLK
  5
D11
330
D0F
100
AcDbEntity
  8
0
100
AcDbBlockEnd
  0
BLOCK
  5
DFA
330
DF9
100
AcDbEntity
  8
0
100
AcDbBlockBegin
  2
*D15
 70
     1
 10
0.0
 20
0.0
 30
0.0
  3
*D15
  1

  0
LINE
  5
EE2
330
DF9
100
AcDbEntity
  8
Dimension (ANSI)
440
 16777216
100
AcDbLine
 10
19.48375871108458
 20
12.75695569383659
 30
0.0
 11
20.62553631415418
 21
12.75695569383659
 31
0.0
  0
LINE
  5
EE3
330
DF9
100
AcDbEntity
  8
Dimension (ANSI)
440
 16777216
100
AcDbLine
 10
16.80332153189236
 20
18.7569556938366
 30
0.0
 11
20.62553631415418
 21
18.7569556938366
 31
0.0
  0
LINE
  5
EE4
330
DF9
100
AcDbEntity
  8
Dimension (ANSI)
440
 16777216
100
AcDbLine
 10
20.22553631415418
 20
13.07191631662406
 30
0.0
 11
20.22553631415418
 21
15.41235876481922
 31
0.0
  0
LINE
  5
EE5
330
DF9
100
AcDbEntity
  8
Dimension (ANSI)
440
 16777216
100
AcDbLine
 10
20.22553631415418
 20
18.44199507104912
 30
0.0
 11
20.22553631415418
 21
16.10155262285396
 31
0.0
  0
SOLID
  5
EE6
330
DF9
100
AcDbEntity
  8
Dimension (ANSI)
440
 16777216
100
AcDbTrace
 10
20.17304287702293
 20
13.07191631662406
 30
0.0
 11
20.27802975128543
 21
13.07191631662406
 31
0.0
 12
20.22553631415418
 22
12.75695569383659
 32
0.0
 13
20.22553631415418
 23
12.75695569383659
 33
0.0
  0
SOLID
  5
EE7
330
DF9
100
AcDbEntity
  8
Dimension (ANSI)
440
 16777216
100
AcDbTrace
 10
20.17304287702293
 20
18.44199507104912
 30
0.0
 11
20.27802975128543
 21
18.44199507104912
 31
0.0
 12
20.22553631415418
 22
18.7569556938366
 32
0.0
 13
20.22553631415418
 23
18.7569556938366
 33
0.0
  0
MTEXT
  5
EE8
330
DF9
100
AcDbEntity
  8
Dimension (ANSI)
440
 16777216
100
AcDbMText
 10
19.69220297287355
 20
16.00076522127916
 30
0.0
 40
0.3200000047683716
 41
0.0
 46
0.0
 71
     1
 72
     1
  1
\A1;(6.0)
  7
ROMANS
 73
     1
 44
1.0
  0
POINT
  5
EE9
330
DF9
100
AcDbEntity
  8
Defpoints
 62
     0
440
 16777216
100
AcDbPoint
 10
19.28375871108458
 20
12.75695569383659
 30
0.0
  0
POINT
  5
EEA
330
DF9
100
AcDbEntity
  8
Defpoints
 62
     0
440
 16777216
100
AcDbPoint
 10
16.60332153189236
 20
18.7569556938366
 30
0.0
  0
POINT
  5
EEB
330
DF9
100
AcDbEntity
  8
Defpoints
 62
     0
440
 16777216
100
AcDbPoint
 10
20.22553631415418
 20
18.7569556938366
 30
0.0
  0
ENDBLK
  5
DFB
330
DF9
100
AcDbEntity
  8
0
100
AcDbBlockEnd
  0
BLOCK
  5
EEE
330
EED
100
AcDbEntity
  8
0
100
AcDbBlockBegin
  2
*D16
 70
     1
 10
0.0
 20
0.0
 30
0.0
  3
*D16
  1

  0
LINE
  5
FCC
330
EED
100
AcDbEntity
  8
Dimension (ANSI)
440
 16777216
100
AcDbLine
 10
6.915821531892404
 20
8.744455693836608
 30
0.0
 11
6.915821531892404
 21
7.074043484030406
 31
0.0
  0
LINE
  5
FCD
330
EED
100
AcDbEntity
  8
Dimension (ANSI)
440
 16777216
100
AcDbLine
 10
12.7908215318924
 20
8.7194556938366
 30
0.0
 11
12.7908215318924
 21
7.074043484030406
 31
0.0
  0
LINE
  5
FCE
330
EED
100
AcDbEntity
  8
Dimension (ANSI)
440
 16777216
100
AcDbLine
 10
7.23078215467988
 20
7.474043484030406
 30
0.0
 11
9.264915075432462
 21
7.474043484030406
 31
0.0
  0
LINE
  5
FCF
330
EED
100
AcDbEntity
  8
Dimension (ANSI)
440
 16777216
100
AcDbLine
 10
12.47586090910492
 20
7.474043484030406
 30
0.0
 11
10.44172798835234
 21
7.474043484030406
 31
0.0
  0
SOLID
  5
FD0
330
EED
100
AcDbEntity
  8
Dimension (ANSI)
440
 16777216
100
AcDbTrace
 10
7.23078215467988
 20
7.526536921161652
 30
0.0
 11
7.23078215467988
 21
7.42155004689916
 31
0.0
 12
6.915821531892404
 22
7.474043484030406
 32
0.0
 13
6.915821531892404
 23
7.474043484030406
 33
0.0
  0
SOLID
  5
FD1
330
EED
100
AcDbEntity
  8
Dimension (ANSI)
440
 16777216
100
AcDbTrace
 10
12.47586090910492
 20
7.526536921161652
 30
0.0
 11
12.47586090910492
 21
7.42155004689916
 31
0.0
 12
12.7908215318924
 22
7.474043484030406
 32
0.0
 13
12.7908215318924
 23
7.474043484030406
 33
0.0
  0
MTEXT
  5
FD2
330
EED
100
AcDbEntity
  8
Dimension (ANSI)
440
 16777216
100
AcDbMText
 10
9.365702477007264
 20
7.634043486414592
 30
0.0
 40
0.3200000047683716
 41
0.0
 46
0.0
 71
     1
 72
     1
  1
\A1;5.88
  7
ROMANS
 73
     1
 44
1.0
  0
POINT
  5
FD3
330
EED
100
AcDbEntity
  8
Defpoints
 62
     0
440
 16777216
100
AcDbPoint
 10
6.915821531892404
 20
8.944455693836607
 30
0.0
  0
POINT
  5
FD4
330
EED
100
AcDbEntity
  8
Defpoints
 62
     0
440
 16777216
100
AcDbPoint
 10
12.7908215318924
 20
8.919455693836599
 30
0.0
  0
POINT
  5
FD5
330
EED
100
AcDbEntity
  8
Defpoints
 62
     0
440
 16777216
100
AcDbPoint
 10
12.7908215318924
 20
7.474043484030406
 30
0.0
  0
ENDBLK
  5
EEF
330
EED
100
AcDbEntity
  8
0
100
AcDbBlockEnd
  0
BLOCK
  5
FD8
330
FD7
100
AcDbEntity
  8
0
100
AcDbBlockBegin
  2
*D17
 70
     1
 10
0.0
 20
0.0
 30
0.0
  3
*D17
  1

  0
LINE
  5
10B6
330
FD7
100
AcDbEntity
  8
Dimension (ANSI)
440
 16777216
100
AcDbLine
 10
6.790821531892403
 20
8.744455693836604
 30
0.0
 11
6.790821531892403
 21
5.411962434560894
 31
0.0
  0
LINE
  5
10B7
330
FD7
100
AcDbEntity
  8
Dimension (ANSI)
440
 16777216
100
AcDbLine
 10
18.7908215318924
 20
9.11945569383659
 30
0.0
 11
18.7908215318924
 21
5.411962434560894
 31
0.0
  0
LINE
  5
10B8
330
FD7
100
AcDbEntity
  8
Dimension (ANSI)
440
 16777216
100
AcDbLine
 10
7.105782154679879
 20
5.811962434560894
 30
0.0
 11
12.2252722186302
 21
5.811962434560894
 31
0.0
  0
LINE
  5
10B9
330
FD7
100
AcDbEntity
  8
Dimension (ANSI)
440
 16777216
100
AcDbLine
 10
18.47586090910493
 20
5.811962434560894
 30
0.0
 11
13.3563708451546
 21
5.811962434560894
 31
0.0
  0
SOLID
  5
10BA
330
FD7
100
AcDbEntity
  8
Dimension (ANSI)
440
 16777216
100
AcDbTrace
 10
7.105782154679879
 20
5.86445587169214
 30
0.0
 11
7.105782154679879
 21
5.759468997429648
 31
0.0
 12
6.790821531892403
 22
5.811962434560894
 32
0.0
 13
6.790821531892403
 23
5.811962434560894
 33
0.0
  0
SOLID
  5
10BB
330
FD7
100
AcDbEntity
  8
Dimension (ANSI)
440
 16777216
100
AcDbTrace
 10
18.47586090910493
 20
5.86445587169214
 30
0.0
 11
18.47586090910493
 21
5.759468997429648
 31
0.0
 12
18.7908215318924
 22
5.811962434560894
 32
0.0
 13
18.7908215318924
 23
5.811962434560894
 33
0.0
  0
MTEXT
  5
10BC
330
FD7
100
AcDbEntity
  8
Dimension (ANSI)
440
 16777216
100
AcDbMText
 10
12.326059620205
 20
5.971962436945079
 30
0.0
 40
0.3200000047683716
 41
0.0
 46
0.0
 71
     1
 72
     1
  1
\A1;12.0
  7
ROMANS
 73
     1
 44
1.0
  0
POINT
  5
10BD
330
FD7
100
AcDbEntity
  8
Defpoints
 62
     0
440
 16777216
100
AcDbPoint
 10
6.790821531892403
 20
8.944455693836603
 30
0.0
  0
POINT
  5
10BE
330
FD7
100
AcDbEntity
  8
Defpoints
 62
     0
440
 16777216
100
AcDbPoint
 10
18.7908215318924
 20
9.319455693836589
 30
0.0
  0
POINT
  5
10BF
330
FD7
100
AcDbEntity
  8
Defpoints
 62
     0
440
 16777216
100
AcDbPoint
 10
18.7908215318924
 20
5.811962434560894
 30
0.0
  0
ENDBLK
  5
FD9
330
FD7
100
AcDbEntity
  8
0
100
AcDbBlockEnd
  0
BLOCK
  5
10C2
330
10C1
100
AcDbEntity
  8
0
100
AcDbBlockBegin
  2
*D18
 70
     1
 10
0.0
 20
0.0
 30
0.0
  3
*D18
  1

  0
LINE
  5
11A0
330
10C1
100
AcDbEntity
  8
Dimension (ANSI)
440
 16777216
100
AcDbLine
 10
6.915821531892404
 20
8.744455693836608
 30
0.0
 11
6.915821531892404
 21
6.242103655489497
 31
0.0
  0
LINE
  5
11A1
330
10C1
100
AcDbEntity
  8
Dimension (ANSI)
440
 16777216
100
AcDbLine
 10
18.6658215318924
 20
8.744455693836588
 30
0.0
 11
18.6658215318924
 21
6.242103655489497
 31
0.0
  0
LINE
  5
11A2
330
10C1
100
AcDbEntity
  8
Dimension (ANSI)
440
 16777216
100
AcDbLine
 10
7.23078215467988
 20
6.642103655489497
 30
0.0
 11
12.0728912639786
 21
6.642103655489497
 31
0.0
  0
LINE
  5
11A3
330
10C1
100
AcDbEntity
  8
Dimension (ANSI)
440
 16777216
100
AcDbLine
 10
18.35086090910493
 20
6.642103655489497
 30
0.0
 11
13.50875179980621
 21
6.642103655489497
 31
0.0
  0
SOLID
  5
11A4
330
10C1
100
AcDbEntity
  8
Dimension (ANSI)
440
 16777216
100
AcDbTrace
 10
7.23078215467988
 20
6.694597092620743
 30
0.0
 11
7.23078215467988
 21
6.589610218358251
 31
0.0
 12
6.915821531892404
 22
6.642103655489497
 32
0.0
 13
6.915821531892404
 23
6.642103655489497
 33
0.0
  0
SOLID
  5
11A5
330
10C1
100
AcDbEntity
  8
Dimension (ANSI)
440
 16777216
100
AcDbTrace
 10
18.35086090910493
 20
6.694597092620743
 30
0.0
 11
18.35086090910493
 21
6.589610218358251
 31
0.0
 12
18.6658215318924
 22
6.642103655489497
 32
0.0
 13
18.6658215318924
 23
6.642103655489497
 33
0.0
  0
MTEXT
  5
11A6
330
10C1
100
AcDbEntity
  8
Dimension (ANSI)
440
 16777216
100
AcDbMText
 10
12.1736786655534
 20
6.802103657873683
 30
0.0
 40
0.3200000047683716
 41
0.0
 46
0.0
 71
     1
 72
     1
  1
\A1;11.75
  7
ROMANS
 73
     1
 44
1.0
  0
POINT
  5
11A7
330
10C1
100
AcDbEntity
  8
Defpoints
 62
     0
440
 16777216
100
AcDbPoint
 10
6.915821531892404
 20
8.944455693836607
 30
0.0
  0
POINT
  5
11A8
330
10C1
100
AcDbEntity
  8
Defpoints
 62
     0
440
 16777216
100
AcDbPoint
 10
18.6658215318924
 20
8.944455693836587
 30
0.0
  0
POINT
  5
11A9
330
10C1
100
AcDbEntity
  8
Defpoints
 62
     0
440
 16777216
100
AcDbPoint
 10
18.6658215318924
 20
6.642103655489497
 30
0.0
  0
ENDBLK
  5
10C3
330
10C1
100
AcDbEntity
  8
0
100
AcDbBlockEnd
  0
ENDSEC
  0
SECTION
  2
ENTITIES
  0
LINE
  5
107
330
6C
100
AcDbEntity
  8
Visible (ANSI)
100
AcDbLine
 10
9.864821531892404
 20
18.2569556938366
 30
0.0
 11
9.864821531892404
 21
18.6319556938366
 31
0.0
  0
LINE
  5
108
330
6C
100
AcDbEntity
  8
Visible (ANSI)
100
AcDbLine
 10
7.290821531892404
 20
15.6829556938366
 30
0.0
 11
9.864821531892404
 21
18.2569556938366
 31
0.0
  0
LINE
  5
109
330
6C
100
AcDbEntity
  8
Visible (ANSI)
100
AcDbLine
 10
6.915821531892405
 20
15.6829556938366
 30
0.0
 11
7.290821531892404
 21
15.6829556938366
 31
0.0
  0
LINE
  5
10A
330
6C
100
AcDbEntity
  8
Visible (ANSI)
100
AcDbLine
 10
18.29082153189241
 20
15.68295569383659
 30
0.0
 11
18.6658215318924
 21
15.6829556938366
 31
0.0
  0
LINE
  5
10B
330
6C
100
AcDbEntity
  8
Visible (ANSI)
100
AcDbLine
 10
15.7168215318924
 20
18.2569556938366
 30
0.0
 11
18.29082153189241
 21
15.68295569383659
 31
0.0
  0
LINE
  5
10C
330
6C
100
AcDbEntity
  8
Visible (ANSI)
100
AcDbLine
 10
15.7168215318924
 20
18.6319556938366
 30
0.0
 11
15.7168215318924
 21
18.2569556938366
 31
0.0
  0
LINE
  5
10D
330
6C
100
AcDbEntity
  8
Visible Narrow (ANSI)
100
AcDbLine
 10
6.915821531892402
 20
9.862205693836605
 30
0.0
 11
18.6658215318924
 21
9.862205693836603
 31
0.0
  0
LINE
  5
10E
330
6C
100
AcDbEntity
  8
Visible (ANSI)
100
AcDbLine
 10
18.6658215318924
 20
9.756955693836603
 30
0.0
 11
6.915821531892402
 21
9.756955693836605
 31
0.0
  0
ARC
  5
10F
330
6C
100
AcDbEntity
  8
Visible (ANSI)
100
AcDbCircle
 10
15.8220715318924
 20
18.29476350054575
 30
0.0
 40
0.1052500000000012
100
AcDbArc
 50
180.0
 51
208.9691240054214
  0
LINE
  5
110
330
6C
100
AcDbEntity
  8
Visible Narrow (ANSI)
100
AcDbLine
 10
15.7168215318924
 20
18.29476350054575
 30
0.0
 11
15.7908215318924
 21
18.29476350054575
 31
0.0
  0
LINE
  5
111
330
6C
100
AcDbEntity
  8
Visible Narrow (ANSI)
100
AcDbLine
 10
15.79997444498032
 20
18.27266641363368
 30
0.0
 11
15.75054262853782
 21
18.22323459719118
 31
0.0
  0
ARC
  5
112
330
6C
100
AcDbEntity
  8
Visible (ANSI)
100
AcDbCircle
 10
15.8220715318924
 20
18.29476350054575
 30
0.0
 40
0.0312499999999999
100
AcDbArc
 50
180.0
 51
225.0
  0
ARC
  5
113
330
6C
100
AcDbEntity
  8
Visible (ANSI)
100
AcDbCircle
 10
18.32862933860169
 20
15.78820569383642
 30
0.0
 40
0.1052500000000019
100
AcDbArc
 50
241.0308759946168
 51
269.9999999999988
  0
LINE
  5
114
330
6C
100
AcDbEntity
  8
Visible Narrow (ANSI)
100
AcDbLine
 10
18.32862933860169
 20
15.75695569383643
 30
0.0
 11
18.32862933860169
 21
15.68295569383642
 31
0.0
  0
ARC
  5
115
330
6C
100
AcDbEntity
  8
Visible (ANSI)
100
AcDbCircle
 10
18.32862933860169
 20
15.78820569383642
 30
0.0
 40
0.0312499999999994
100
AcDbArc
 50
225.0
 51
270.0
  0
LINE
  5
116
330
6C
100
AcDbEntity
  8
Visible Narrow (ANSI)
100
AcDbLine
 10
18.25710043524713
 20
15.71667679048187
 30
0.0
 11
18.30653225168961
 21
15.76610860692435
 31
0.0
  0
LINE
  5
117
330
6C
100
AcDbEntity
  8
Visible (ANSI)
100
AcDbLine
 10
15.7908215318924
 20
18.6319556938366
 30
0.0
 11
15.7908215318924
 21
18.29476350054575
 31
0.0
  0
LINE
  5
118
330
6C
100
AcDbEntity
  8
Visible (ANSI)
100
AcDbLine
 10
18.6658215318924
 20
15.75695569383642
 30
0.0
 11
18.32862933860169
 21
15.75695569383643
 31
0.0
  0
LINE
  5
119
330
6C
100
AcDbEntity
  8
Visible (ANSI)
100
AcDbLine
 10
18.30653225168961
 20
15.76610860692435
 30
0.0
 11
15.79997444498032
 21
18.27266641363368
 31
0.0
  0
ARC
  5
11A
330
6C
100
AcDbEntity
  8
Visible (ANSI)
100
AcDbCircle
 10
7.253013725183107
 20
15.78820569383642
 30
0.0
 40
0.1052499999999979
100
AcDbArc
 50
270.0
 51
298.9691240053958
  0
LINE
  5
11B
330
6C
100
AcDbEntity
  8
Visible Narrow (ANSI)
100
AcDbLine
 10
7.253013725183107
 20
15.68295569383643
 30
0.0
 11
7.253013725183107
 21
15.75695569383643
 31
0.0
  0
LINE
  5
11C
330
6C
100
AcDbEntity
  8
Visible Narrow (ANSI)
100
AcDbLine
 10
7.275110812095186
 20
15.76610860692435
 30
0.0
 11
7.324542628537671
 21
15.71667679048186
 31
0.0
  0
ARC
  5
11D
330
6C
100
AcDbEntity
  8
Visible (ANSI)
100
AcDbCircle
 10
7.253013725183107
 20
15.78820569383643
 30
0.0
 40
0.03125
100
AcDbArc
 50
270.0
 51
315.0
  0
ARC
  5
11E
330
6C
100
AcDbEntity
  8
Visible (ANSI)
100
AcDbCircle
 10
9.759571531892408
 20
18.29476350054575
 30
0.0
 40
0.1052500000000013
100
AcDbArc
 50
331.030875994583
 51
0.0
  0
LINE
  5
11F
330
6C
100
AcDbEntity
  8
Visible Narrow (ANSI)
100
AcDbLine
 10
9.790821531892406
 20
18.29476350054575
 30
0.0
 11
9.864821531892408
 21
18.29476350054575
 31
0.0
  0
ARC
  5
120
330
6C
100
AcDbEntity
  8
Visible (ANSI)
100
AcDbCircle
 10
9.759571531892408
 20
18.29476350054575
 30
0.0
 40
0.0312499999999995
100
AcDbArc
 50
315.0
 51
0.0
  0
LINE
  5
121
330
6C
100
AcDbEntity
  8
Visible Narrow (ANSI)
100
AcDbLine
 10
9.83110043524698
 20
18.22323459719117
 30
0.0
 11
9.781668618804486
 21
18.27266641363367
 31
0.0
  0
LINE
  5
122
330
6C
100
AcDbEntity
  8
Visible (ANSI)
100
AcDbLine
 10
6.915821531892397
 20
15.75695569383642
 30
0.0
 11
7.253013725183107
 21
15.75695569383643
 31
0.0
  0
LINE
  5
123
330
6C
100
AcDbEntity
  8
Visible (ANSI)
100
AcDbLine
 10
9.79082153189241
 20
18.63195569383659
 30
0.0
 11
9.790821531892408
 21
18.29476350054575
 31
0.0
  0
LINE
  5
124
330
6C
100
AcDbEntity
  8
Visible (ANSI)
100
AcDbLine
 10
9.781668618804486
 20
18.27266641363367
 30
0.0
 11
7.275110812095184
 21
15.76610860692435
 31
0.0
  0
LINE
  5
125
330
6C
100
AcDbEntity
  8
Visible (ANSI)
100
AcDbLine
 10
9.353321531892417
 20
18.6319556938366
 30
0.0
 11
8.978321531892417
 21
18.6319556938366
 31
0.0
  0
LINE
  5
126
330
6C
100
AcDbEntity
  8
Visible Narrow (ANSI)
100
AcDbLine
 10
9.353321531892415
 20
18.7569556938366
 30
0.0
 11
9.353321531892415
 21
18.6319556938366
 31
0.0
  0
LINE
  5
127
330
6C
100
AcDbEntity
  8
Visible (ANSI)
100
AcDbLine
 10
8.978321531892417
 20
18.7569556938366
 30
0.0
 11
9.353321531892417
 21
18.7569556938366
 31
0.0
  0
LINE
  5
128
330
6C
100
AcDbEntity
  8
Visible (ANSI)
100
AcDbLine
 10
8.97832153189242
 20
18.7569556938366
 30
0.0
 11
8.97832153189242
 21
18.6319556938366
 31
0.0
  0
LINE
  5
129
330
6C
100
AcDbEntity
  8
Visible (ANSI)
100
AcDbLine
 10
9.353321531892415
 20
18.6319556938366
 30
0.0
 11
16.22832153189236
 21
18.6319556938366
 31
0.0
  0
LINE
  5
12A
330
6C
100
AcDbEntity
  8
Visible Narrow (ANSI)
100
AcDbLine
 10
16.22832153189236
 20
18.7569556938366
 30
0.0
 11
16.22832153189236
 21
18.6319556938366
 31
0.0
  0
LINE
  5
12B
330
6C
100
AcDbEntity
  8
Visible (ANSI)
100
AcDbLine
 10
16.22832153189236
 20
18.7569556938366
 30
0.0
 11
9.353321531892417
 21
18.7569556938366
 31
0.0
  0
LINE
  5
12C
330
6C
100
AcDbEntity
  8
Visible (ANSI)
100
AcDbLine
 10
16.60332153189236
 20
18.6319556938366
 30
0.0
 11
16.22832153189236
 21
18.6319556938366
 31
0.0
  0
LINE
  5
12D
330
6C
100
AcDbEntity
  8
Visible (ANSI)
100
AcDbLine
 10
16.60332153189236
 20
18.7569556938366
 30
0.0
 11
16.60332153189236
 21
18.6319556938366
 31
0.0
  0
LINE
  5
12E
330
6C
100
AcDbEntity
  8
Visible (ANSI)
100
AcDbLine
 10
16.22832153189236
 20
18.7569556938366
 30
0.0
 11
16.60332153189236
 21
18.7569556938366
 31
0.0
  0
LINE
  5
12F
330
6C
100
AcDbEntity
  8
Visible (ANSI)
100
AcDbLine
 10
18.7908215318924
 20
16.56945569383659
 30
0.0
 11
18.6658215318924
 21
16.56945569383659
 31
0.0
  0
LINE
  5
130
330
6C
100
AcDbEntity
  8
Visible (ANSI)
100
AcDbLine
 10
18.6658215318924
 20
16.19445569383659
 30
0.0
 11
18.6658215318924
 21
16.56945569383659
 31
0.0
  0
LINE
  5
131
330
6C
100
AcDbEntity
  8
Visible Narrow (ANSI)
100
AcDbLine
 10
18.7908215318924
 20
16.19445569383659
 30
0.0
 11
18.6658215318924
 21
16.19445569383659
 31
0.0
  0
LINE
  5
132
330
6C
100
AcDbEntity
  8
Visible (ANSI)
100
AcDbLine
 10
18.7908215318924
 20
16.56945569383659
 30
0.0
 11
18.7908215318924
 21
16.19445569383659
 31
0.0
  0
LINE
  5
133
330
6C
100
AcDbEntity
  8
Visible (ANSI)
100
AcDbLine
 10
18.6658215318924
 20
16.19445569383659
 30
0.0
 11
18.6658215318924
 21
9.319455693836591
 31
0.0
  0
LINE
  5
134
330
6C
100
AcDbEntity
  8
Visible Narrow (ANSI)
100
AcDbLine
 10
18.7908215318924
 20
9.319455693836591
 30
0.0
 11
18.6658215318924
 21
9.319455693836591
 31
0.0
  0
LINE
  5
135
330
6C
100
AcDbEntity
  8
Visible (ANSI)
100
AcDbLine
 10
18.7908215318924
 20
9.319455693836591
 30
0.0
 11
18.7908215318924
 21
16.19445569383659
 31
0.0
  0
LINE
  5
136
330
6C
100
AcDbEntity
  8
Visible (ANSI)
100
AcDbLine
 10
18.6658215318924
 20
8.944455693836589
 30
0.0
 11
18.6658215318924
 21
9.319455693836591
 31
0.0
  0
LINE
  5
137
330
6C
100
AcDbEntity
  8
Visible (ANSI)
100
AcDbLine
 10
18.7908215318924
 20
8.944455693836589
 30
0.0
 11
18.6658215318924
 21
8.944455693836589
 31
0.0
  0
LINE
  5
138
330
6C
100
AcDbEntity
  8
Visible (ANSI)
100
AcDbLine
 10
18.7908215318924
 20
9.319455693836591
 30
0.0
 11
18.7908215318924
 21
8.944455693836589
 31
0.0
  0
LINE
  5
139
330
6C
100
AcDbEntity
  8
Visible (ANSI)
100
AcDbLine
 10
6.915821531892405
 20
16.56945569383657
 30
0.0
 11
6.790821531892406
 21
16.56945569383657
 31
0.0
  0
LINE
  5
13A
330
6C
100
AcDbEntity
  8
Visible (ANSI)
100
AcDbLine
 10
6.790821531892406
 20
16.19445569383658
 30
0.0
 11
6.790821531892406
 21
16.56945569383657
 31
0.0
  0
LINE
  5
13B
330
6C
100
AcDbEntity
  8
Visible Narrow (ANSI)
100
AcDbLine
 10
6.915821531892405
 20
16.19445569383658
 30
0.0
 11
6.790821531892406
 21
16.19445569383658
 31
0.0
  0
LINE
  5
13C
330
6C
100
AcDbEntity
  8
Visible (ANSI)
100
AcDbLine
 10
6.915821531892405
 20
16.56945569383657
 30
0.0
 11
6.915821531892405
 21
16.19445569383658
 31
0.0
  0
LINE
  5
13D
330
6C
100
AcDbEntity
  8
Visible (ANSI)
100
AcDbLine
 10
6.790821531892406
 20
16.19445569383658
 30
0.0
 11
6.790821531892403
 21
9.319455693836607
 31
0.0
  0
LINE
  5
13E
330
6C
100
AcDbEntity
  8
Visible Narrow (ANSI)
100
AcDbLine
 10
6.915821531892404
 20
9.319455693836607
 30
0.0
 11
6.790821531892403
 21
9.319455693836607
 31
0.0
  0
LINE
  5
13F
330
6C
100
AcDbEntity
  8
Visible (ANSI)
100
AcDbLine
 10
6.915821531892404
 20
9.319455693836607
 30
0.0
 11
6.915821531892405
 21
16.19445569383658
 31
0.0
  0
LINE
  5
140
330
6C
100
AcDbEntity
  8
Visible (ANSI)
100
AcDbLine
 10
6.790821531892403
 20
8.944455693836607
 30
0.0
 11
6.790821531892403
 21
9.319455693836607
 31
0.0
  0
LINE
  5
141
330
6C
100
AcDbEntity
  8
Visible (ANSI)
100
AcDbLine
 10
6.915821531892404
 20
8.944455693836607
 30
0.0
 11
6.790821531892403
 21
8.944455693836607
 31
0.0
  0
LINE
  5
142
330
6C
100
AcDbEntity
  8
Visible (ANSI)
100
AcDbLine
 10
6.915821531892404
 20
9.319455693836607
 30
0.0
 11
6.915821531892404
 21
8.944455693836607
 31
0.0
  0
MTEXT
  5
144
330
6C
100
AcDbEntity
  8
Symbol (ANSI)
100
AcDbMText
 10
11.30046741086302
 20
4.575489251172874
 30
0.0
 40
0.3840000047458438
 41
0.0
 46
0.0
 71
     7
 72
     1
  1
FRONT VIEW
  7
Text Style168
 73
     1
 44
1.0
  0
LINE
  5
146
330
6C
100
AcDbEntity
  8
Symbol (ANSI)
370
    30
100
AcDbLine
 10
11.26206731208418
 20
4.497180011573226
 30
0.0
 11
14.34931532579835
 21
4.497180011573226
 31
0.0
  0
LINE
  5
147
330
6C
100
AcDbEntity
  8
Visible (ANSI)
100
AcDbLine
 10
12.69707153189603
 20
25.39092716265697
 30
0.0
 11
12.69707153189603
 21
25.46492716265697
 31
0.0
  0
LINE
  5
148
330
6C
100
AcDbEntity
  8
Visible (ANSI)
100
AcDbLine
 10
12.69707153189603
 20
25.46492716265695
 30
0.0
 11
12.88457153189603
 21
25.46492716265695
 31
0.0
  0
LINE
  5
149
330
6C
100
AcDbEntity
  8
Visible (ANSI)
100
AcDbLine
 10
12.88457153189603
 20
25.39092716265695
 30
0.0
 11
12.84919653189602
 21
25.39092716265695
 31
0.0
  0
LINE
  5
14A
330
6C
100
AcDbEntity
  8
Visible (ANSI)
100
AcDbLine
 10
12.73244653189601
 20
25.39092716265695
 30
0.0
 11
12.69707153189603
 21
25.39092716265695
 31
0.0
  0
LINE
  5
14B
330
6C
100
AcDbEntity
  8
Visible (ANSI)
100
AcDbLine
 10
12.88457153189603
 20
25.46492716265697
 30
0.0
 11
12.88457153189603
 21
25.39092716265697
 31
0.0
  0
LINE
  5
14C
330
6C
100
AcDbEntity
  8
Visible (ANSI)
100
AcDbLine
 10
12.69707153189603
 20
25.46492716265697
 30
0.0
 11
9.864821531896035
 21
25.46492716265697
 31
0.0
  0
LINE
  5
14D
330
6C
100
AcDbEntity
  8
Visible (ANSI)
100
AcDbLine
 10
9.864821531896035
 20
25.46492716265697
 30
0.0
 11
9.864821531896035
 21
25.39092716265697
 31
0.0
  0
LINE
  5
14E
330
6C
100
AcDbEntity
  8
Visible (ANSI)
100
AcDbLine
 10
9.864821531896035
 20
25.39092716265697
 30
0.0
 11
12.69707153189603
 21
25.39092716265697
 31
0.0
  0
LINE
  5
14F
330
6C
100
AcDbEntity
  8
Visible (ANSI)
100
AcDbLine
 10
12.88457153189603
 20
25.39092716265697
 30
0.0
 11
15.71682153189603
 21
25.39092716265697
 31
0.0
  0
LINE
  5
150
330
6C
100
AcDbEntity
  8
Visible (ANSI)
100
AcDbLine
 10
15.71682153189603
 20
25.46492716265697
 30
0.0
 11
15.71682153189603
 21
25.39092716265697
 31
0.0
  0
LINE
  5
151
330
6C
100
AcDbEntity
  8
Visible (ANSI)
100
AcDbLine
 10
15.71682153189603
 20
25.46492716265697
 30
0.0
 11
12.88457153189603
 21
25.46492716265697
 31
0.0
  0
LINE
  5
152
330
6C
100
AcDbEntity
  8
Visible (ANSI)
100
AcDbLine
 10
7.290821531896034
 20
25.39092716265608
 30
0.0
 11
8.978321531896016
 21
25.39092716265658
 31
0.0
  0
LINE
  5
153
330
6C
100
AcDbEntity
  8
Visible (ANSI)
100
AcDbLine
 10
9.839681167111532
 20
25.39092716265683
 30
0.0
 11
9.864821531896035
 21
25.39092716265684
 31
0.0
  0
LINE
  5
154
330
6C
100
AcDbEntity
  8
Visible (ANSI)
100
AcDbLine
 10
6.915821531896035
 20
25.39092716265608
 30
0.0
 11
7.290821531896034
 21
25.39092716265608
 31
0.0
  0
LINE
  5
155
330
6C
100
AcDbEntity
  8
Visible (ANSI)
100
AcDbLine
 10
18.29082153189603
 20
25.39092716265608
 30
0.0
 11
18.66582153189603
 21
25.39092716265608
 31
0.0
  0
LINE
  5
156
330
6C
100
AcDbEntity
  8
Visible (ANSI)
100
AcDbLine
 10
15.71682153189603
 20
25.39092716265684
 30
0.0
 11
15.7419618966805
 21
25.39092716265683
 31
0.0
  0
LINE
  5
157
330
6C
100
AcDbEntity
  8
Visible (ANSI)
100
AcDbLine
 10
16.60332153189601
 20
25.39092716265658
 30
0.0
 11
18.29082153189603
 21
25.39092716265608
 31
0.0
  0
LINE
  5
158
330
6C
100
AcDbEntity
  8
Visible (ANSI)
100
AcDbLine
 10
18.29082153189603
 20
25.46492716265608
 30
0.0
 11
18.29082153189603
 21
25.39092716265608
 31
0.0
  0
LINE
  5
159
330
6C
100
AcDbEntity
  8
Visible (ANSI)
100
AcDbLine
 10
7.290821531896034
 20
25.46492716265608
 30
0.0
 11
7.290821531896034
 21
25.39092716265608
 31
0.0
  0
LINE
  5
15A
330
6C
100
AcDbEntity
  8
Visible Narrow (ANSI)
100
AcDbLine
 10
9.864821531896042
 20
25.49617716265434
 30
0.0
 11
15.71682153189603
 21
25.49617716265434
 31
0.0
  0
LINE
  5
15B
330
6C
100
AcDbEntity
  8
Visible (ANSI)
100
AcDbLine
 10
12.69707153189603
 20
31.31692716265698
 30
0.0
 11
12.69707153189603
 21
31.39092716265697
 31
0.0
  0
LINE
  5
15C
330
6C
100
AcDbEntity
  8
Visible (ANSI)
100
AcDbLine
 10
12.69707153189603
 20
31.39092716265695
 30
0.0
 11
12.73244653189602
 21
31.39092716265695
 31
0.0
  0
LINE
  5
15D
330
6C
100
AcDbEntity
  8
Visible (ANSI)
100
AcDbLine
 10
12.84919653189601
 20
31.39092716265695
 30
0.0
 11
12.88457153189603
 21
31.39092716265695
 31
0.0
  0
LINE
  5
15E
330
6C
100
AcDbEntity
  8
Visible (ANSI)
100
AcDbLine
 10
12.88457153189603
 20
31.31692716265696
 30
0.0
 11
12.69707153189603
 21
31.31692716265696
 31
0.0
  0
LINE
  5
15F
330
6C
100
AcDbEntity
  8
Visible (ANSI)
100
AcDbLine
 10
12.88457153189603
 20
31.39092716265697
 30
0.0
 11
12.88457153189603
 21
31.31692716265698
 31
0.0
  0
LINE
  5
160
330
6C
100
AcDbEntity
  8
Visible (ANSI)
100
AcDbLine
 10
12.88457153189603
 20
31.31692716265698
 30
0.0
 11
15.71682153189603
 21
31.31692716265698
 31
0.0
  0
LINE
  5
161
330
6C
100
AcDbEntity
  8
Visible (ANSI)
100
AcDbLine
 10
15.71682153189603
 20
31.39092716265697
 30
0.0
 11
15.71682153189603
 21
31.31692716265698
 31
0.0
  0
LINE
  5
162
330
6C
100
AcDbEntity
  8
Visible (ANSI)
100
AcDbLine
 10
15.71682153189603
 20
31.39092716265697
 30
0.0
 11
12.88457153189603
 21
31.39092716265697
 31
0.0
  0
LINE
  5
163
330
6C
100
AcDbEntity
  8
Visible (ANSI)
100
AcDbLine
 10
9.864821531896033
 20
31.31692716265698
 30
0.0
 11
12.69707153189603
 21
31.31692716265698
 31
0.0
  0
LINE
  5
164
330
6C
100
AcDbEntity
  8
Visible (ANSI)
100
AcDbLine
 10
18.29082153189603
 20
31.39092716265608
 30
0.0
 11
18.29082153189603
 21
31.31692716265608
 31
0.0
  0
LINE
  5
165
330
6C
100
AcDbEntity
  8
Visible (ANSI)
100
AcDbLine
 10
18.29082153189603
 20
31.39092716265608
 30
0.0
 11
16.60332153189601
 21
31.39092716265658
 31
0.0
  0
LINE
  5
166
330
6C
100
AcDbEntity
  8
Visible (ANSI)
100
AcDbLine
 10
15.7419618966805
 20
31.39092716265684
 30
0.0
 11
15.71682153189603
 21
31.39092716265685
 31
0.0
  0
LINE
  5
167
330
6C
100
AcDbEntity
  8
Visible (ANSI)
100
AcDbLine
 10
18.66582153189603
 20
31.39092716265608
 30
0.0
 11
18.29082153189603
 21
31.39092716265608
 31
0.0
  0
LINE
  5
168
330
6C
100
AcDbEntity
  8
Visible (ANSI)
100
AcDbLine
 10
7.290821531896034
 20
31.39092716265608
 30
0.0
 11
7.290821531896034
 21
31.31692716265608
 31
0.0
  0
LINE
  5
169
330
6C
100
AcDbEntity
  8
Visible (ANSI)
100
AcDbLine
 10
7.290821531896034
 20
31.39092716265608
 30
0.0
 11
6.915821531896035
 21
31.39092716265608
 31
0.0
  0
LINE
  5
16A
330
6C
100
AcDbEntity
  8
Visible (ANSI)
100
AcDbLine
 10
9.864821531896033
 20
31.39092716265685
 30
0.0
 11
9.839681167111521
 21
31.39092716265683
 31
0.0
  0
LINE
  5
16B
330
6C
100
AcDbEntity
  8
Visible (ANSI)
100
AcDbLine
 10
8.978321531896016
 20
31.39092716265658
 30
0.0
 11
7.290821531896034
 21
31.39092716265608
 31
0.0
  0
LINE
  5
16C
330
6C
100
AcDbEntity
  8
Visible (ANSI)
100
AcDbLine
 10
9.864821531896033
 20
31.39092716265697
 30
0.0
 11
9.864821531896033
 21
31.31692716265698
 31
0.0
  0
LINE
  5
16D
330
6C
100
AcDbEntity
  8
Visible (ANSI)
100
AcDbLine
 10
12.69707153189603
 20
31.39092716265697
 30
0.0
 11
9.864821531896033
 21
31.39092716265697
 31
0.0
  0
LINE
  5
16E
330
6C
100
AcDbEntity
  8
Visible (ANSI)
100
AcDbLine
 10
15.79082153189603
 20
25.46492716265697
 30
0.0
 11
15.71682153189603
 21
25.46492716265697
 31
0.0
  0
LINE
  5
16F
330
6C
100
AcDbEntity
  8
Visible (ANSI)
100
AcDbLine
 10
15.79082153189603
 20
31.31692716265697
 30
0.0
 11
15.79082153189603
 21
25.46492716265697
 31
0.0
  0
LINE
  5
170
330
6C
100
AcDbEntity
  8
Visible (ANSI)
100
AcDbLine
 10
15.79082153189603
 20
31.31692716265697
 30
0.0
 11
15.71682153189603
 21
31.31692716265697
 31
0.0
  0
LINE
  5
171
330
6C
100
AcDbEntity
  8
Visible (ANSI)
100
AcDbLine
 10
15.71682153189603
 20
31.31692716265697
 30
0.0
 11
15.71682153189603
 21
25.46492716265697
 31
0.0
  0
LINE
  5
172
330
6C
100
AcDbEntity
  8
Visible (ANSI)
100
AcDbLine
 10
18.66582153189603
 20
31.3169271626561
 30
0.0
 11
18.32862933860532
 21
31.3169271626561
 31
0.0
  0
LINE
  5
173
330
6C
100
AcDbEntity
  8
Visible (ANSI)
100
AcDbLine
 10
18.66582153189603
 20
25.4649271626561
 30
0.0
 11
18.32862933860532
 21
25.4649271626561
 31
0.0
  0
LINE
  5
174
330
6C
100
AcDbEntity
  8
Visible (ANSI)
100
AcDbLine
 10
15.79082153189603
 20
31.31692716265685
 30
0.0
 11
15.79997444498395
 21
31.31692716265684
 31
0.0
  0
LINE
  5
175
330
6C
100
AcDbEntity
  8
Visible (ANSI)
100
AcDbLine
 10
15.79082153189603
 20
25.46492716265685
 30
0.0
 11
15.79997444498395
 21
25.46492716265684
 31
0.0
  0
LINE
  5
176
330
6C
100
AcDbEntity
  8
Visible Narrow (ANSI)
100
AcDbLine
 10
15.79997444498395
 20
31.31692716265684
 30
0.0
 11
15.79997444498395
 21
25.46492716265684
 31
0.0
  0
LINE
  5
177
330
6C
100
AcDbEntity
  8
Visible Narrow (ANSI)
100
AcDbLine
 10
18.32862933860532
 20
31.3169271626561
 30
0.0
 11
18.32862933860532
 21
25.4649271626561
 31
0.0
  0
LINE
  5
178
330
6C
100
AcDbEntity
  8
Visible (ANSI)
100
AcDbLine
 10
18.32862933860532
 20
25.4649271626561
 30
0.0
 11
18.30653225169324
 21
25.4649271626561
 31
0.0
  0
LINE
  5
179
330
6C
100
AcDbEntity
  8
Visible (ANSI)
100
AcDbLine
 10
18.32862933860532
 20
31.3169271626561
 30
0.0
 11
18.30653225169324
 21
31.3169271626561
 31
0.0
  0
LINE
  5
17A
330
6C
100
AcDbEntity
  8
Visible Narrow (ANSI)
100
AcDbLine
 10
18.30653225169324
 20
25.4649271626561
 30
0.0
 11
18.30653225169324
 21
31.3169271626561
 31
0.0
  0
LINE
  5
17B
330
6C
100
AcDbEntity
  8
Visible (ANSI)
100
AcDbLine
 10
15.79997444498395
 20
31.31692716265684
 30
0.0
 11
15.80133652053143
 21
31.31692716265684
 31
0.0
  0
LINE
  5
17C
330
6C
100
AcDbEntity
  8
Visible (ANSI)
100
AcDbLine
 10
16.60332153189601
 20
31.3169271626566
 30
0.0
 11
18.30653225169325
 21
31.3169271626561
 31
0.0
  0
LINE
  5
17D
330
6C
100
AcDbEntity
  8
Visible (ANSI)
100
AcDbLine
 10
18.30653225169324
 20
25.4649271626561
 30
0.0
 11
16.60332153189601
 21
25.46492716265661
 31
0.0
  0
LINE
  5
17E
330
6C
100
AcDbEntity
  8
Visible (ANSI)
100
AcDbLine
 10
15.80133652053143
 20
25.46492716265684
 30
0.0
 11
15.79997444498395
 21
25.46492716265684
 31
0.0
  0
LINE
  5
17F
330
6C
100
AcDbEntity
  8
Visible (ANSI)
100
AcDbLine
 10
6.915821531896027
 20
25.46492716265611
 30
0.0
 11
7.253013725186736
 21
25.46492716265611
 31
0.0
  0
LINE
  5
180
330
6C
100
AcDbEntity
  8
Visible (ANSI)
100
AcDbLine
 10
6.915821531896039
 20
31.31692716265611
 30
0.0
 11
7.253013725186737
 21
31.31692716265611
 31
0.0
  0
LINE
  5
181
330
6C
100
AcDbEntity
  8
Visible (ANSI)
100
AcDbLine
 10
9.790821531896037
 20
31.31692716265699
 30
0.0
 11
9.864821531896037
 21
31.31692716265699
 31
0.0
  0
LINE
  5
182
330
6C
100
AcDbEntity
  8
Visible (ANSI)
100
AcDbLine
 10
9.790821531896037
 20
25.46492716265699
 30
0.0
 11
9.790821531896037
 21
28.332552162657
 31
0.0
  0
LINE
  5
183
330
6C
100
AcDbEntity
  8
Visible (ANSI)
100
AcDbLine
 10
9.790821531896037
 20
28.44930216265695
 30
0.0
 11
9.790821531896037
 21
31.31692716265699
 31
0.0
  0
LINE
  5
184
330
6C
100
AcDbEntity
  8
Visible (ANSI)
100
AcDbLine
 10
9.790821531896037
 20
25.46492716265699
 30
0.0
 11
9.864821531896037
 21
25.46492716265699
 31
0.0
  0
LINE
  5
185
330
6C
100
AcDbEntity
  8
Visible (ANSI)
100
AcDbLine
 10
9.864821531896039
 20
25.46492716265699
 30
0.0
 11
9.864821531896039
 21
31.31692716265699
 31
0.0
  0
LINE
  5
186
330
6C
100
AcDbEntity
  8
Visible Narrow (ANSI)
100
AcDbLine
 10
7.253013725186736
 20
25.46492716265611
 30
0.0
 11
7.253013725186737
 21
31.31692716265611
 31
0.0
  0
LINE
  5
187
330
6C
100
AcDbEntity
  8
Visible (ANSI)
100
AcDbLine
 10
7.253013725186737
 20
31.31692716265611
 30
0.0
 11
7.275110812098816
 21
31.31692716265611
 31
0.0
  0
LINE
  5
188
330
6C
100
AcDbEntity
  8
Visible (ANSI)
100
AcDbLine
 10
7.253013725186737
 20
25.46492716265611
 30
0.0
 11
7.275110812098817
 21
25.46492716265612
 31
0.0
  0
LINE
  5
189
330
6C
100
AcDbEntity
  8
Visible Narrow (ANSI)
100
AcDbLine
 10
7.275110812098816
 20
31.31692716265611
 30
0.0
 11
7.275110812098814
 21
25.46492716265612
 31
0.0
  0
LINE
  5
18A
330
6C
100
AcDbEntity
  8
Visible (ANSI)
100
AcDbLine
 10
9.790821531896037
 20
25.46492716265687
 30
0.0
 11
9.781668618808117
 21
25.46492716265687
 31
0.0
  0
LINE
  5
18B
330
6C
100
AcDbEntity
  8
Visible (ANSI)
100
AcDbLine
 10
9.790821531896037
 20
31.31692716265687
 30
0.0
 11
9.781668618808117
 21
31.31692716265687
 31
0.0
  0
LINE
  5
18C
330
6C
100
AcDbEntity
  8
Visible Narrow (ANSI)
100
AcDbLine
 10
9.781668618808115
 20
25.46492716265687
 30
0.0
 11
9.781668618808117
 21
28.32339924956895
 31
0.0
  0
LINE
  5
18D
330
6C
100
AcDbEntity
  8
Visible Narrow (ANSI)
100
AcDbLine
 10
9.781668618808117
 20
28.45845507574475
 30
0.0
 11
9.781668618808117
 21
31.31692716265686
 31
0.0
  0
LINE
  5
18E
330
6C
100
AcDbEntity
  8
Visible (ANSI)
100
AcDbLine
 10
7.275110812098816
 20
31.31692716265611
 30
0.0
 11
8.978321531896023
 21
31.31692716265662
 31
0.0
  0
LINE
  5
18F
330
6C
100
AcDbEntity
  8
Visible (ANSI)
100
AcDbLine
 10
9.780306543260612
 20
31.31692716265686
 30
0.0
 11
9.781668618808117
 21
31.31692716265686
 31
0.0
  0
LINE
  5
190
330
6C
100
AcDbEntity
  8
Visible (ANSI)
100
AcDbLine
 10
9.781668618808115
 20
25.46492716265687
 30
0.0
 11
9.780306543260589
 21
25.46492716265687
 31
0.0
  0
LINE
  5
191
330
6C
100
AcDbEntity
  8
Visible (ANSI)
100
AcDbLine
 10
8.978321531896009
 20
25.46492716265662
 30
0.0
 11
7.275110812098814
 21
25.46492716265612
 31
0.0
  0
LINE
  5
192
330
6C
100
AcDbEntity
  8
Visible (ANSI)
100
AcDbLine
 10
9.849196531896039
 20
28.390927162657
 30
0.0
 11
9.775196531896039
 21
28.31692716265699
 31
0.0
  0
LINE
  5
193
330
6C
100
AcDbEntity
  8
Visible (ANSI)
100
AcDbLine
 10
9.775196531896039
 20
28.46492716265699
 30
0.0
 11
9.849196531896039
 21
28.390927162657
 31
0.0
  0
LINE
  5
194
330
6C
100
AcDbEntity
  8
Visible (ANSI)
100
AcDbLine
 10
12.71682153189602
 20
25.37530216265701
 30
0.0
 11
12.79082153189602
 21
25.449302162657
 31
0.0
  0
LINE
  5
195
330
6C
100
AcDbEntity
  8
Visible (ANSI)
100
AcDbLine
 10
12.79082153189602
 20
25.449302162657
 30
0.0
 11
12.86482153189602
 21
25.37530216265701
 31
0.0
  0
LINE
  5
196
330
6C
100
AcDbEntity
  8
Visible (ANSI)
100
AcDbLine
 10
12.86482153189601
 20
31.40655216265699
 30
0.0
 11
12.79082153189601
 21
31.33255216265699
 31
0.0
  0
LINE
  5
197
330
6C
100
AcDbEntity
  8
Visible (ANSI)
100
AcDbLine
 10
12.79082153189601
 20
31.33255216265699
 30
0.0
 11
12.71682153189601
 21
31.40655216265699
 31
0.0
  0
LINE
  5
198
330
6C
100
AcDbEntity
  8
Visible (ANSI)
100
AcDbLine
 10
9.775196531896041
 20
25.500302162657
 30
0.0
 11
9.775196531896039
 21
28.31692716265699
 31
0.0
  0
LINE
  5
199
330
6C
100
AcDbEntity
  8
Visible (ANSI)
100
AcDbLine
 10
9.775196531896039
 20
28.46492716265699
 30
0.0
 11
9.775196531896037
 21
31.28155216265699
 31
0.0
  0
LINE
  5
19A
330
6C
100
AcDbEntity
  8
Visible (ANSI)
100
AcDbLine
 10
15.68144653189599
 20
25.37530216265701
 30
0.0
 11
12.86482153189602
 21
25.37530216265701
 31
0.0
  0
LINE
  5
19B
330
6C
100
AcDbEntity
  8
Visible (ANSI)
100
AcDbLine
 10
12.71682153189602
 20
25.37530216265701
 30
0.0
 11
9.900196531896039
 21
25.375302162657
 31
0.0
  0
LINE
  5
19C
330
6C
100
AcDbEntity
  8
Visible (ANSI)
100
AcDbLine
 10
12.86482153189601
 20
31.40655216265699
 30
0.0
 11
15.68144653189599
 21
31.40655216265698
 31
0.0
  0
LINE
  5
19D
330
6C
100
AcDbEntity
  8
Visible (ANSI)
100
AcDbLine
 10
9.900196531896035
 20
31.40655216265698
 30
0.0
 11
12.71682153189601
 21
31.40655216265699
 31
0.0
  0
ARC
  5
19E
330
6C
100
AcDbEntity
  8
Visible (ANSI)
100
AcDbCircle
 10
9.900196531896039
 20
25.500302162657
 30
0.0
 40
0.1249999999999985
100
AcDbArc
 50
180.0
 51
270.0000000000005
  0
ARC
  5
19F
330
6C
100
AcDbEntity
  8
Visible (ANSI)
100
AcDbCircle
 10
15.68144653189599
 20
25.500302162657
 30
0.0
 40
0.1249999999999992
100
AcDbArc
 50
269.999999999999
 51
0.0
  0
LINE
  5
1A0
330
6C
100
AcDbEntity
  8
Visible (ANSI)
100
AcDbLine
 10
15.80644653189599
 20
31.28155216265699
 30
0.0
 11
15.80644653189599
 21
25.500302162657
 31
0.0
  0
ARC
  5
1A1
330
6C
100
AcDbEntity
  8
Visible (ANSI)
100
AcDbCircle
 10
15.68144653189599
 20
31.28155216265699
 30
0.0
 40
0.1249999999999992
100
AcDbArc
 50
0.0
 51
90.0
  0
ARC
  5
1A2
330
6C
100
AcDbEntity
  8
Visible (ANSI)
100
AcDbCircle
 10
9.900196531896034
 20
31.28155216265699
 30
0.0
 40
0.1249999999999989
100
AcDbArc
 50
89.99999999999948
 51
180.0
  0
ARC
  5
1A3
330
6C
100
AcDbEntity
  8
Visible (ANSI)
100
AcDbCircle
 10
9.353321531896046
 20
24.953427162657
 30
0.0
 40
0.3750000000000005
100
AcDbArc
 50
180.0
 51
270.0000000000002
  0
LINE
  5
1A4
330
6C
100
AcDbEntity
  8
Visible (ANSI)
100
AcDbLine
 10
16.22832153189599
 20
24.578427162657
 30
0.0
 11
9.353321531896046
 21
24.578427162657
 31
0.0
  0
ARC
  5
1A5
330
6C
100
AcDbEntity
  8
Visible (ANSI)
100
AcDbCircle
 10
16.22832153189599
 20
24.953427162657
 30
0.0
 40
0.3749999999999991
100
AcDbArc
 50
269.9999999999997
 51
0.0
  0
LINE
  5
1A6
330
6C
100
AcDbEntity
  8
Visible (ANSI)
100
AcDbLine
 10
16.60332153189598
 20
31.82842716265699
 30
0.0
 11
16.60332153189599
 21
24.953427162657
 31
0.0
  0
ARC
  5
1A7
330
6C
100
AcDbEntity
  8
Visible (ANSI)
100
AcDbCircle
 10
16.22832153189598
 20
31.82842716265699
 30
0.0
 40
0.3749999999999992
100
AcDbArc
 50
0.0
 51
90.0
  0
LINE
  5
1A8
330
6C
100
AcDbEntity
  8
Visible (ANSI)
100
AcDbLine
 10
9.353321531896039
 20
32.20342716265699
 30
0.0
 11
16.22832153189598
 21
32.20342716265699
 31
0.0
  0
ARC
  5
1A9
330
6C
100
AcDbEntity
  8
Visible (ANSI)
100
AcDbCircle
 10
9.353321531896039
 20
31.82842716265699
 30
0.0
 40
0.3750000000000005
100
AcDbArc
 50
90.00000000000017
 51
180.0
  0
LINE
  5
1AA
330
6C
100
AcDbEntity
  8
Visible (ANSI)
100
AcDbLine
 10
8.97832153189605
 20
24.953427162657
 30
0.0
 11
8.978321531896041
 21
31.82842716265699
 31
0.0
  0
CIRCLE
  5
1AB
330
6C
100
AcDbEntity
  8
Visible (ANSI)
100
AcDbCircle
 10
12.79082153189601
 20
31.82842716265699
 30
0.0
 40
0.1406249999999998
  0
CIRCLE
  5
1AC
330
6C
100
AcDbEntity
  8
Visible (ANSI)
100
AcDbCircle
 10
9.353321531896041
 20
28.390927162657
 30
0.0
 40
0.1406249999999995
  0
CIRCLE
  5
1AD
330
6C
100
AcDbEntity
  8
Visible (ANSI)
100
AcDbCircle
 10
12.79082153189602
 20
24.953427162657
 30
0.0
 40
0.1406249999999998
  0
CIRCLE
  5
1AE
330
6C
100
AcDbEntity
  8
Visible (ANSI)
100
AcDbCircle
 10
16.22832153189599
 20
28.39092716265699
 30
0.0
 40
0.1406249999999995
  0
CIRCLE
  5
1AF
330
6C
100
AcDbEntity
  8
Visible (ANSI)
100
AcDbCircle
 10
16.10332153189599
 20
25.078427162657
 30
0.0
 40
0.1406249999999997
  0
CIRCLE
  5
1B0
330
6C
100
AcDbEntity
  8
Visible (ANSI)
100
AcDbCircle
 10
16.10332153189598
 20
31.70342716265698
 30
0.0
 40
0.1406249999999997
  0
CIRCLE
  5
1B1
330
6C
100
AcDbEntity
  8
Visible (ANSI)
100
AcDbCircle
 10
9.478321531896041
 20
25.078427162657
 30
0.0
 40
0.1406249999999997
  0
CIRCLE
  5
1B2
330
6C
100
AcDbEntity
  8
Visible (ANSI)
100
AcDbCircle
 10
9.478321531896037
 20
31.70342716265698
 30
0.0
 40
0.1406249999999997
  0
LINE
  5
1B3
330
6C
100
AcDbEntity
  8
Visible (ANSI)
100
AcDbLine
 10
18.79082153189603
 20
32.20342716265626
 30
0.0
 11
18.66582153189603
 21
32.20342716265626
 31
0.0
  0
LINE
  5
1B4
330
6C
100
AcDbEntity
  8
Visible (ANSI)
100
AcDbLine
 10
18.66582153189603
 20
31.82842716265638
 30
0.0
 11
18.66582153189603
 21
32.20342716265626
 31
0.0
  0
LINE
  5
1B5
330
6C
100
AcDbEntity
  8
Visible Narrow (ANSI)
100
AcDbLine
 10
18.79082153189603
 20
31.82842716265637
 30
0.0
 11
18.66582153189603
 21
31.82842716265637
 31
0.0
  0
LINE
  5
1B6
330
6C
100
AcDbEntity
  8
Visible (ANSI)
100
AcDbLine
 10
18.79082153189603
 20
32.20342716265626
 30
0.0
 11
18.79082153189603
 21
31.82842716265638
 31
0.0
  0
LINE
  5
1B7
330
6C
100
AcDbEntity
  8
Visible (ANSI)
100
AcDbLine
 10
18.66582153189603
 20
31.82842716265637
 30
0.0
 11
18.66582153189603
 21
24.9534271626564
 31
0.0
  0
LINE
  5
1B8
330
6C
100
AcDbEntity
  8
Visible Narrow (ANSI)
100
AcDbLine
 10
18.79082153189603
 20
24.9534271626564
 30
0.0
 11
18.66582153189603
 21
24.9534271626564
 31
0.0
  0
LINE
  5
1B9
330
6C
100
AcDbEntity
  8
Visible (ANSI)
100
AcDbLine
 10
18.79082153189603
 20
24.9534271626564
 30
0.0
 11
18.79082153189603
 21
31.82842716265638
 31
0.0
  0
LINE
  5
1BA
330
6C
100
AcDbEntity
  8
Visible (ANSI)
100
AcDbLine
 10
18.66582153189603
 20
24.57842716265629
 30
0.0
 11
18.66582153189603
 21
24.9534271626564
 31
0.0
  0
LINE
  5
1BB
330
6C
100
AcDbEntity
  8
Visible (ANSI)
100
AcDbLine
 10
18.79082153189603
 20
24.57842716265629
 30
0.0
 11
18.66582153189603
 21
24.57842716265629
 31
0.0
  0
LINE
  5
1BC
330
6C
100
AcDbEntity
  8
Visible (ANSI)
100
AcDbLine
 10
18.79082153189603
 20
24.9534271626564
 30
0.0
 11
18.79082153189603
 21
24.57842716265629
 31
0.0
  0
LINE
  5
1BD
330
6C
100
AcDbEntity
  8
Visible (ANSI)
100
AcDbLine
 10
6.915821531896035
 20
32.20342716265623
 30
0.0
 11
6.790821531896036
 21
32.20342716265623
 31
0.0
  0
LINE
  5
1BE
330
6C
100
AcDbEntity
  8
Visible (ANSI)
100
AcDbLine
 10
6.790821531896036
 20
31.82842716265634
 30
0.0
 11
6.790821531896036
 21
32.20342716265623
 31
0.0
  0
LINE
  5
1BF
330
6C
100
AcDbEntity
  8
Visible Narrow (ANSI)
100
AcDbLine
 10
6.915821531896035
 20
31.82842716265634
 30
0.0
 11
6.790821531896036
 21
31.82842716265634
 31
0.0
  0
LINE
  5
1C0
330
6C
100
AcDbEntity
  8
Visible (ANSI)
100
AcDbLine
 10
6.915821531896035
 20
32.20342716265623
 30
0.0
 11
6.915821531896035
 21
31.82842716265634
 31
0.0
  0
LINE
  5
1C1
330
6C
100
AcDbEntity
  8
Visible (ANSI)
100
AcDbLine
 10
6.790821531896036
 20
31.82842716265634
 30
0.0
 11
6.790821531896036
 21
24.95342716265635
 31
0.0
  0
LINE
  5
1C2
330
6C
100
AcDbEntity
  8
Visible Narrow (ANSI)
100
AcDbLine
 10
6.915821531896035
 20
24.95342716265635
 30
0.0
 11
6.790821531896036
 21
24.95342716265635
 31
0.0
  0
LINE
  5
1C3
330
6C
100
AcDbEntity
  8
Visible (ANSI)
100
AcDbLine
 10
6.915821531896035
 20
24.95342716265635
 30
0.0
 11
6.915821531896035
 21
31.82842716265634
 31
0.0
  0
LINE
  5
1C4
330
6C
100
AcDbEntity
  8
Visible (ANSI)
100
AcDbLine
 10
6.790821531896036
 20
24.57842716265624
 30
0.0
 11
6.790821531896036
 21
24.95342716265636
 31
0.0
  0
LINE
  5
1C5
330
6C
100
AcDbEntity
  8
Visible (ANSI)
100
AcDbLine
 10
6.915821531896035
 20
24.57842716265624
 30
0.0
 11
6.790821531896036
 21
24.57842716265624
 31
0.0
  0
LINE
  5
1C6
330
6C
100
AcDbEntity
  8
Visible (ANSI)
100
AcDbLine
 10
6.915821531896035
 20
24.95342716265636
 30
0.0
 11
6.915821531896035
 21
24.57842716265624
 31
0.0
  0
MTEXT
  5
1C7
330
6C
100
AcDbEntity
  8
Symbol (ANSI)
100
AcDbMText
 10
11.40282990734488
 20
23.52797566030551
 30
0.0
 40
0.3840000047458438
 41
0.0
 46
0.0
 71
     7
 72
     1
  1
TOP VIEW
  7
Text Style168
 73
     1
 44
1.0
  0
LINE
  5
1C8
330
6C
100
AcDbEntity
  8
Symbol (ANSI)
370
    30
100
AcDbLine
 10
11.40313710813511
 20
23.44966642070586
 30
0.0
 11
13.82600903571185
 21
23.44966642070586
 31
0.0
  0
LINE
  5
1C9
330
6C
100
AcDbEntity
  8
Visible (ANSI)
100
AcDbLine
 10
29.60209052976198
 20
12.8507056938366
 30
0.0
 11
29.67609052976197
 21
12.8507056938366
 31
0.0
  0
LINE
  5
1CA
330
6C
100
AcDbEntity
  8
Visible (ANSI)
100
AcDbLine
 10
29.67609052976197
 20
12.66320569383661
 30
0.0
 11
29.60209052976198
 21
12.66320569383661
 31
0.0
  0
LINE
  5
1CB
330
6C
100
AcDbEntity
  8
Visible (ANSI)
100
AcDbLine
 10
29.67609052976195
 20
12.8507056938366
 30
0.0
 11
29.67609052976195
 21
12.66320569383661
 31
0.0
  0
LINE
  5
1CC
330
6C
100
AcDbEntity
  8
Visible (ANSI)
100
AcDbLine
 10
29.60209052976196
 20
12.66320569383661
 30
0.0
 11
29.60209052976196
 21
12.69858069383655
 31
0.0
  0
LINE
  5
1CD
330
6C
100
AcDbEntity
  8
Visible (ANSI)
100
AcDbLine
 10
29.60209052976196
 20
12.81533069383663
 30
0.0
 11
29.60209052976196
 21
12.8507056938366
 31
0.0
  0
LINE
  5
1CE
330
6C
100
AcDbEntity
  8
Visible (ANSI)
100
AcDbLine
 10
29.60209052976198
 20
12.66320569383661
 30
0.0
 11
29.60209052976198
 21
9.862205693836605
 31
0.0
  0
LINE
  5
1CF
330
6C
100
AcDbEntity
  8
Visible (ANSI)
100
AcDbLine
 10
29.60209052976198
 20
15.6829556938366
 30
0.0
 11
29.60209052976198
 21
12.8507056938366
 31
0.0
  0
LINE
  5
1D0
330
6C
100
AcDbEntity
  8
Visible (ANSI)
100
AcDbLine
 10
29.60209052976108
 20
18.2569556938366
 30
0.0
 11
29.60209052976158
 21
16.5694556938366
 31
0.0
  0
LINE
  5
1D1
330
6C
100
AcDbEntity
  8
Visible (ANSI)
100
AcDbLine
 10
29.60209052976184
 20
15.708096058621
 30
0.0
 11
29.60209052976185
 21
15.6829556938366
 31
0.0
  0
LINE
  5
1D2
330
6C
100
AcDbEntity
  8
Visible (ANSI)
100
AcDbLine
 10
29.60209052976108
 20
18.6319556938366
 30
0.0
 11
29.60209052976108
 21
18.2569556938366
 31
0.0
  0
LINE
  5
1D3
330
6C
100
AcDbEntity
  8
Visible (ANSI)
100
AcDbLine
 10
29.67609052976197
 20
9.862205693836605
 30
0.0
 11
29.67609052976197
 21
12.66320569383661
 31
0.0
  0
LINE
  5
1D4
330
6C
100
AcDbEntity
  8
Visible (ANSI)
100
AcDbLine
 10
29.67609052976197
 20
12.8507056938366
 30
0.0
 11
29.67609052976197
 21
15.6829556938366
 31
0.0
  0
LINE
  5
1D5
330
6C
100
AcDbEntity
  8
Visible (ANSI)
100
AcDbLine
 10
29.67609052976197
 20
15.6829556938366
 30
0.0
 11
29.60209052976198
 21
15.6829556938366
 31
0.0
  0
LINE
  5
1D6
330
6C
100
AcDbEntity
  8
Visible (ANSI)
100
AcDbLine
 10
29.67609052976108
 20
18.2569556938366
 30
0.0
 11
29.60209052976108
 21
18.2569556938366
 31
0.0
  0
LINE
  5
1D7
330
6C
100
AcDbEntity
  8
Visible Narrow (ANSI)
100
AcDbLine
 10
29.60209052976198
 20
9.862205693836605
 30
0.0
 11
29.67609052976197
 21
9.862205693836605
 31
0.0
  0
LINE
  5
1D8
330
6C
100
AcDbEntity
  8
Visible Narrow (ANSI)
100
AcDbLine
 10
29.70734052976198
 20
9.830955693836605
 30
0.0
 11
29.70734052976198
 21
9.756955693836605
 31
0.0
  0
ARC
  5
1D9
330
6C
100
AcDbEntity
  8
Visible (ANSI)
100
AcDbCircle
 10
29.70734052976198
 20
9.862205693836605
 30
0.0
 40
0.1052499999999999
100
AcDbArc
 50
180.0
 51
270.0
  0
ARC
  5
1DA
330
6C
100
AcDbEntity
  8
Visible (ANSI)
100
AcDbCircle
 10
29.70734052976198
 20
9.862205693836605
 30
0.0
 40
0.03125
100
AcDbArc
 50
180.0
 51
270.0
  0
LINE
  5
1DB
330
6C
100
AcDbEntity
  8
Visible (ANSI)
100
AcDbLine
 10
32.50834052976197
 20
9.756955693836605
 30
0.0
 11
32.50834052976197
 21
9.830955693836605
 31
0.0
  0
LINE
  5
1DC
330
6C
100
AcDbEntity
  8
Visible (ANSI)
100
AcDbLine
 10
32.50834052976196
 20
9.830955693836605
 30
0.0
 11
32.69584052976195
 21
9.830955693836605
 31
0.0
  0
LINE
  5
1DD
330
6C
100
AcDbEntity
  8
Visible (ANSI)
100
AcDbLine
 10
32.69584052976195
 20
9.756955693836605
 30
0.0
 11
32.66046552976199
 21
9.756955693836605
 31
0.0
  0
LINE
  5
1DE
330
6C
100
AcDbEntity
  8
Visible (ANSI)
100
AcDbLine
 10
32.54371552976201
 20
9.756955693836605
 30
0.0
 11
32.50834052976196
 21
9.756955693836605
 31
0.0
  0
LINE
  5
1DF
330
6C
100
AcDbEntity
  8
Visible (ANSI)
100
AcDbLine
 10
32.69584052976198
 20
9.830955693836605
 30
0.0
 11
32.69584052976198
 21
9.756955693836605
 31
0.0
  0
LINE
  5
1E0
330
6C
100
AcDbEntity
  8
Visible (ANSI)
100
AcDbLine
 10
32.50834052976197
 20
9.830955693836605
 30
0.0
 11
29.70734052976198
 21
9.830955693836605
 31
0.0
  0
LINE
  5
1E1
330
6C
100
AcDbEntity
  8
Visible (ANSI)
100
AcDbLine
 10
35.52809052976197
 20
9.830955693836605
 30
0.0
 11
32.69584052976198
 21
9.830955693836605
 31
0.0
  0
LINE
  5
1E2
330
6C
100
AcDbEntity
  8
Visible (ANSI)
100
AcDbLine
 10
29.70734052976198
 20
9.756955693836605
 30
0.0
 11
32.50834052976197
 21
9.756955693836605
 31
0.0
  0
LINE
  5
1E3
330
6C
100
AcDbEntity
  8
Visible (ANSI)
100
AcDbLine
 10
32.69584052976198
 20
9.756955693836605
 30
0.0
 11
35.52809052976197
 21
9.756955693836605
 31
0.0
  0
LINE
  5
1E4
330
6C
100
AcDbEntity
  8
Visible (ANSI)
100
AcDbLine
 10
35.52809052976197
 20
9.830955693836605
 30
0.0
 11
35.52809052976197
 21
9.756955693836605
 31
0.0
  0
LINE
  5
1E5
330
6C
100
AcDbEntity
  8
Visible (ANSI)
100
AcDbLine
 10
35.52809052976197
 20
12.8507056938366
 30
0.0
 11
35.60209052976198
 21
12.8507056938366
 31
0.0
  0
LINE
  5
1E6
330
6C
100
AcDbEntity
  8
Visible (ANSI)
100
AcDbLine
 10
35.60209052976196
 20
12.8507056938366
 30
0.0
 11
35.60209052976196
 21
12.81533069383655
 31
0.0
  0
LINE
  5
1E7
330
6C
100
AcDbEntity
  8
Visible (ANSI)
100
AcDbLine
 10
35.60209052976196
 20
12.69858069383663
 30
0.0
 11
35.60209052976196
 21
12.6632056938366
 31
0.0
  0
LINE
  5
1E8
330
6C
100
AcDbEntity
  8
Visible (ANSI)
100
AcDbLine
 10
35.52809052976196
 20
12.6632056938366
 30
0.0
 11
35.52809052976196
 21
12.8507056938366
 31
0.0
  0
LINE
  5
1E9
330
6C
100
AcDbEntity
  8
Visible (ANSI)
100
AcDbLine
 10
35.60209052976198
 20
12.6632056938366
 30
0.0
 11
35.52809052976197
 21
12.6632056938366
 31
0.0
  0
LINE
  5
1EA
330
6C
100
AcDbEntity
  8
Visible (ANSI)
100
AcDbLine
 10
35.52809052976197
 20
12.6632056938366
 30
0.0
 11
35.52809052976197
 21
9.830955693836605
 31
0.0
  0
LINE
  5
1EB
330
6C
100
AcDbEntity
  8
Visible (ANSI)
100
AcDbLine
 10
35.52809052976197
 20
15.6829556938366
 30
0.0
 11
35.52809052976197
 21
12.8507056938366
 31
0.0
  0
LINE
  5
1EC
330
6C
100
AcDbEntity
  8
Visible (ANSI)
100
AcDbLine
 10
35.60209052976198
 20
12.8507056938366
 30
0.0
 11
35.60209052976198
 21
15.6829556938366
 31
0.0
  0
LINE
  5
1ED
330
6C
100
AcDbEntity
  8
Visible (ANSI)
100
AcDbLine
 10
35.60209052976198
 20
15.6829556938366
 30
0.0
 11
35.52809052976197
 21
15.6829556938366
 31
0.0
  0
LINE
  5
1EE
330
6C
100
AcDbEntity
  8
Visible (ANSI)
100
AcDbLine
 10
35.60209052976198
 20
9.830955693836605
 30
0.0
 11
35.52809052976197
 21
9.830955693836605
 31
0.0
  0
LINE
  5
1EF
330
6C
100
AcDbEntity
  8
Visible (ANSI)
100
AcDbLine
 10
35.60209052976198
 20
9.830955693836605
 30
0.0
 11
35.60209052976198
 21
12.6632056938366
 31
0.0
  0
LINE
  5
1F0
330
6C
100
AcDbEntity
  8
Visible (ANSI)
100
AcDbLine
 10
35.60209052976109
 20
18.25695569383659
 30
0.0
 11
35.52809052976108
 21
18.25695569383659
 31
0.0
  0
LINE
  5
1F1
330
6C
100
AcDbEntity
  8
Visible (ANSI)
100
AcDbLine
 10
35.60209052976109
 20
18.25695569383659
 30
0.0
 11
35.60209052976109
 21
18.63195569383659
 31
0.0
  0
LINE
  5
1F2
330
6C
100
AcDbEntity
  8
Visible (ANSI)
100
AcDbLine
 10
35.60209052976185
 20
15.68295569383659
 30
0.0
 11
35.60209052976184
 21
15.70809605862114
 31
0.0
  0
LINE
  5
1F3
330
6C
100
AcDbEntity
  8
Visible (ANSI)
100
AcDbLine
 10
35.60209052976158
 20
16.56945569383658
 30
0.0
 11
35.60209052976109
 21
18.25695569383659
 31
0.0
  0
LINE
  5
1F4
330
6C
100
AcDbEntity
  8
Visible (ANSI)
100
AcDbLine
 10
29.6760905297611
 20
18.6319556938366
 30
0.0
 11
29.6760905297611
 21
18.29476350054575
 31
0.0
  0
LINE
  5
1F5
330
6C
100
AcDbEntity
  8
Visible (ANSI)
100
AcDbLine
 10
35.5280905297611
 20
18.6319556938366
 30
0.0
 11
35.5280905297611
 21
18.29476350054576
 31
0.0
  0
LINE
  5
1F6
330
6C
100
AcDbEntity
  8
Visible (ANSI)
100
AcDbLine
 10
35.52809052976197
 20
15.75695569383643
 30
0.0
 11
35.52809052976197
 21
15.68295569383643
 31
0.0
  0
LINE
  5
1F7
330
6C
100
AcDbEntity
  8
Visible (ANSI)
100
AcDbLine
 10
29.67609052976197
 20
15.75695569383642
 30
0.0
 11
35.52809052976197
 21
15.75695569383643
 31
0.0
  0
LINE
  5
1F8
330
6C
100
AcDbEntity
  8
Visible (ANSI)
100
AcDbLine
 10
29.67609052976197
 20
15.75695569383642
 30
0.0
 11
29.67609052976197
 21
15.68295569383642
 31
0.0
  0
LINE
  5
1F9
330
6C
100
AcDbEntity
  8
Visible (ANSI)
100
AcDbLine
 10
29.67609052976197
 20
15.68295569383642
 30
0.0
 11
35.52809052976197
 21
15.68295569383643
 31
0.0
  0
LINE
  5
1FA
330
6C
100
AcDbEntity
  8
Visible Narrow (ANSI)
100
AcDbLine
 10
29.6760905297611
 20
18.29476350054576
 30
0.0
 11
35.5280905297611
 21
18.29476350054576
 31
0.0
  0
LINE
  5
1FB
330
6C
100
AcDbEntity
  8
Visible (ANSI)
100
AcDbLine
 10
35.5280905297611
 20
18.29476350054575
 30
0.0
 11
35.52809052976111
 21
18.27266641363368
 31
0.0
  0
LINE
  5
1FC
330
6C
100
AcDbEntity
  8
Visible (ANSI)
100
AcDbLine
 10
29.6760905297611
 20
18.29476350054575
 30
0.0
 11
29.6760905297611
 21
18.27266641363368
 31
0.0
  0
LINE
  5
1FD
330
6C
100
AcDbEntity
  8
Visible Narrow (ANSI)
100
AcDbLine
 10
35.5280905297611
 20
18.27266641363368
 30
0.0
 11
29.6760905297611
 21
18.27266641363368
 31
0.0
  0
LINE
  5
1FE
330
6C
100
AcDbEntity
  8
Visible (ANSI)
100
AcDbLine
 10
29.67609052976185
 20
15.75695569383643
 30
0.0
 11
29.67609052976185
 21
15.76610860692435
 31
0.0
  0
LINE
  5
1FF
330
6C
100
AcDbEntity
  8
Visible (ANSI)
100
AcDbLine
 10
35.52809052976185
 20
15.75695569383643
 30
0.0
 11
35.52809052976185
 21
15.76610860692435
 31
0.0
  0
LINE
  5
200
330
6C
100
AcDbEntity
  8
Visible Narrow (ANSI)
100
AcDbLine
 10
29.67609052976185
 20
15.76610860692435
 30
0.0
 11
35.52809052976185
 21
15.76610860692435
 31
0.0
  0
LINE
  5
201
330
6C
100
AcDbEntity
  8
Visible (ANSI)
100
AcDbLine
 10
35.5280905297611
 20
18.27266641363368
 30
0.0
 11
35.52809052976161
 21
16.56945569383658
 31
0.0
  0
LINE
  5
202
330
6C
100
AcDbEntity
  8
Visible (ANSI)
100
AcDbLine
 10
35.52809052976184
 20
15.76747068247202
 30
0.0
 11
35.52809052976185
 21
15.76610860692435
 31
0.0
  0
LINE
  5
203
330
6C
100
AcDbEntity
  8
Visible (ANSI)
100
AcDbLine
 10
29.67609052976185
 20
15.76610860692435
 30
0.0
 11
29.67609052976185
 21
15.76747068247199
 31
0.0
  0
LINE
  5
204
330
6C
100
AcDbEntity
  8
Visible (ANSI)
100
AcDbLine
 10
29.67609052976161
 20
16.56945569383659
 30
0.0
 11
29.6760905297611
 21
18.27266641363368
 31
0.0
  0
LINE
  5
205
330
6C
100
AcDbEntity
  8
Visible (ANSI)
100
AcDbLine
 10
28.78959052976125
 20
18.7569556938366
 30
0.0
 11
28.78959052976125
 21
18.6319556938366
 31
0.0
  0
LINE
  5
206
330
6C
100
AcDbEntity
  8
Visible (ANSI)
100
AcDbLine
 10
29.16459052976136
 20
18.6319556938366
 30
0.0
 11
28.78959052976125
 21
18.6319556938366
 31
0.0
  0
LINE
  5
207
330
6C
100
AcDbEntity
  8
Visible Narrow (ANSI)
100
AcDbLine
 10
29.16459052976136
 20
18.7569556938366
 30
0.0
 11
29.16459052976136
 21
18.6319556938366
 31
0.0
  0
LINE
  5
208
330
6C
100
AcDbEntity
  8
Visible (ANSI)
100
AcDbLine
 10
28.78959052976125
 20
18.7569556938366
 30
0.0
 11
29.16459052976136
 21
18.7569556938366
 31
0.0
  0
LINE
  5
209
330
6C
100
AcDbEntity
  8
Visible (ANSI)
100
AcDbLine
 10
29.16459052976136
 20
18.6319556938366
 30
0.0
 11
36.03959052976133
 21
18.6319556938366
 31
0.0
  0
LINE
  5
20A
330
6C
100
AcDbEntity
  8
Visible Narrow (ANSI)
100
AcDbLine
 10
36.03959052976134
 20
18.7569556938366
 30
0.0
 11
36.03959052976134
 21
18.6319556938366
 31
0.0
  0
LINE
  5
20B
330
6C
100
AcDbEntity
  8
Visible (ANSI)
100
AcDbLine
 10
36.03959052976134
 20
18.7569556938366
 30
0.0
 11
29.16459052976136
 21
18.7569556938366
 31
0.0
  0
LINE
  5
20C
330
6C
100
AcDbEntity
  8
Visible (ANSI)
100
AcDbLine
 10
36.41459052976123
 20
18.6319556938366
 30
0.0
 11
36.03959052976134
 21
18.6319556938366
 31
0.0
  0
LINE
  5
20D
330
6C
100
AcDbEntity
  8
Visible (ANSI)
100
AcDbLine
 10
36.41459052976123
 20
18.7569556938366
 30
0.0
 11
36.41459052976123
 21
18.6319556938366
 31
0.0
  0
LINE
  5
20E
330
6C
100
AcDbEntity
  8
Visible (ANSI)
100
AcDbLine
 10
36.03959052976134
 20
18.7569556938366
 30
0.0
 11
36.41459052976123
 21
18.7569556938366
 31
0.0
  0
LINE
  5
20F
330
6C
100
AcDbEntity
  8
Visible (ANSI)
100
AcDbLine
 10
32.60209052976203
 20
9.815330693836592
 30
0.0
 11
32.67609052976204
 21
9.741330693836593
 31
0.0
  0
LINE
  5
210
330
6C
100
AcDbEntity
  8
Visible (ANSI)
100
AcDbLine
 10
32.52809052976203
 20
9.741330693836593
 30
0.0
 11
32.60209052976203
 21
9.815330693836592
 31
0.0
  0
LINE
  5
211
330
6C
100
AcDbEntity
  8
Visible (ANSI)
100
AcDbLine
 10
35.61771552976202
 20
12.68295569383659
 30
0.0
 11
35.54371552976203
 21
12.75695569383659
 31
0.0
  0
LINE
  5
212
330
6C
100
AcDbEntity
  8
Visible (ANSI)
100
AcDbLine
 10
35.54371552976203
 20
12.75695569383659
 30
0.0
 11
35.61771552976202
 21
12.83095569383659
 31
0.0
  0
LINE
  5
213
330
6C
100
AcDbEntity
  8
Visible (ANSI)
100
AcDbLine
 10
29.58646552976204
 20
12.83095569383659
 30
0.0
 11
29.66046552976204
 21
12.75695569383659
 31
0.0
  0
LINE
  5
214
330
6C
100
AcDbEntity
  8
Visible (ANSI)
100
AcDbLine
 10
29.66046552976204
 20
12.75695569383659
 30
0.0
 11
29.58646552976204
 21
12.68295569383659
 31
0.0
  0
LINE
  5
215
330
6C
100
AcDbEntity
  8
Visible (ANSI)
100
AcDbLine
 10
35.49271552976203
 20
9.741330693836591
 30
0.0
 11
32.67609052976204
 21
9.741330693836593
 31
0.0
  0
LINE
  5
216
330
6C
100
AcDbEntity
  8
Visible (ANSI)
100
AcDbLine
 10
32.52809052976203
 20
9.741330693836593
 30
0.0
 11
29.71146552976204
 21
9.741330693836593
 31
0.0
  0
LINE
  5
217
330
6C
100
AcDbEntity
  8
Visible (ANSI)
100
AcDbLine
 10
35.61771552976203
 20
15.64758069383659
 30
0.0
 11
35.61771552976202
 21
12.83095569383659
 31
0.0
  0
LINE
  5
218
330
6C
100
AcDbEntity
  8
Visible (ANSI)
100
AcDbLine
 10
35.61771552976202
 20
12.68295569383659
 30
0.0
 11
35.61771552976202
 21
9.866330693836593
 31
0.0
  0
LINE
  5
219
330
6C
100
AcDbEntity
  8
Visible (ANSI)
100
AcDbLine
 10
29.58646552976204
 20
12.83095569383659
 30
0.0
 11
29.58646552976205
 21
15.64758069383659
 31
0.0
  0
LINE
  5
21A
330
6C
100
AcDbEntity
  8
Visible (ANSI)
100
AcDbLine
 10
29.58646552976204
 20
9.866330693836591
 30
0.0
 11
29.58646552976204
 21
12.68295569383659
 31
0.0
  0
ARC
  5
21B
330
6C
100
AcDbEntity
  8
Visible (ANSI)
100
AcDbCircle
 10
35.49271552976203
 20
9.866330693836591
 30
0.0
 40
0.1249999999999989
100
AcDbArc
 50
270.0
 51
0.0
  0
ARC
  5
21C
330
6C
100
AcDbEntity
  8
Visible (ANSI)
100
AcDbCircle
 10
35.49271552976203
 20
15.64758069383659
 30
0.0
 40
0.1249999999999996
100
AcDbArc
 50
0.0
 51
90.0
  0
LINE
  5
21D
330
6C
100
AcDbEntity
  8
Visible (ANSI)
100
AcDbLine
 10
29.71146552976204
 20
15.77258069383659
 30
0.0
 11
35.49271552976203
 21
15.77258069383659
 31
0.0
  0
ARC
  5
21E
330
6C
100
AcDbEntity
  8
Visible (ANSI)
100
AcDbCircle
 10
29.71146552976204
 20
15.64758069383659
 30
0.0
 40
0.1249999999999996
100
AcDbArc
 50
90.0
 51
180.0
  0
ARC
  5
21F
330
6C
100
AcDbEntity
  8
Visible (ANSI)
100
AcDbCircle
 10
29.71146552976204
 20
9.866330693836591
 30
0.0
 40
0.1249999999999993
100
AcDbArc
 50
180.0
 51
270.0
  0
ARC
  5
220
330
6C
100
AcDbEntity
  8
Visible (ANSI)
100
AcDbCircle
 10
36.03959052976203
 20
9.319455693836593
 30
0.0
 40
0.3750000000000018
100
AcDbArc
 50
270.0
 51
0.0
  0
LINE
  5
221
330
6C
100
AcDbEntity
  8
Visible (ANSI)
100
AcDbLine
 10
36.41459052976202
 20
16.19445569383659
 30
0.0
 11
36.41459052976202
 21
9.319455693836593
 31
0.0
  0
ARC
  5
222
330
6C
100
AcDbEntity
  8
Visible (ANSI)
100
AcDbCircle
 10
36.03959052976203
 20
16.19445569383659
 30
0.0
 40
0.3750000000000003
100
AcDbArc
 50
0.0
 51
90.0
  0
LINE
  5
223
330
6C
100
AcDbEntity
  8
Visible (ANSI)
100
AcDbLine
 10
29.16459052976205
 20
16.56945569383659
 30
0.0
 11
36.03959052976203
 21
16.56945569383659
 31
0.0
  0
ARC
  5
224
330
6C
100
AcDbEntity
  8
Visible (ANSI)
100
AcDbCircle
 10
29.16459052976205
 20
16.19445569383659
 30
0.0
 40
0.3750000000000003
100
AcDbArc
 50
90.0
 51
180.0
  0
LINE
  5
225
330
6C
100
AcDbEntity
  8
Visible (ANSI)
100
AcDbLine
 10
28.78959052976205
 20
9.319455693836593
 30
0.0
 11
28.78959052976205
 21
16.19445569383659
 31
0.0
  0
ARC
  5
226
330
6C
100
AcDbEntity
  8
Visible (ANSI)
100
AcDbCircle
 10
29.16459052976204
 20
9.319455693836593
 30
0.0
 40
0.3750000000000018
100
AcDbArc
 50
180.0
 51
270.0
  0
LINE
  5
227
330
6C
100
AcDbEntity
  8
Visible (ANSI)
100
AcDbLine
 10
36.03959052976203
 20
8.944455693836593
 30
0.0
 11
29.16459052976204
 21
8.944455693836593
 31
0.0
  0
CIRCLE
  5
228
330
6C
100
AcDbEntity
  8
Visible (ANSI)
100
AcDbCircle
 10
29.16459052976204
 20
12.75695569383659
 30
0.0
 40
0.1406250000000002
  0
CIRCLE
  5
229
330
6C
100
AcDbEntity
  8
Visible (ANSI)
100
AcDbCircle
 10
32.60209052976203
 20
9.319455693836591
 30
0.0
 40
0.140625
  0
CIRCLE
  5
22A
330
6C
100
AcDbEntity
  8
Visible (ANSI)
100
AcDbCircle
 10
36.03959052976203
 20
12.75695569383659
 30
0.0
 40
0.1406250000000002
  0
CIRCLE
  5
22B
330
6C
100
AcDbEntity
  8
Visible (ANSI)
100
AcDbCircle
 10
32.60209052976204
 20
16.19445569383659
 30
0.0
 40
0.140625
  0
CIRCLE
  5
22C
330
6C
100
AcDbEntity
  8
Visible (ANSI)
100
AcDbCircle
 10
35.91459052976202
 20
16.06945569383659
 30
0.0
 40
0.1406250000000001
  0
CIRCLE
  5
22D
330
6C
100
AcDbEntity
  8
Visible (ANSI)
100
AcDbCircle
 10
29.28959052976205
 20
16.06945569383659
 30
0.0
 40
0.1406250000000001
  0
CIRCLE
  5
22E
330
6C
100
AcDbEntity
  8
Visible (ANSI)
100
AcDbCircle
 10
35.91459052976202
 20
9.444455693836589
 30
0.0
 40
0.1406250000000001
  0
CIRCLE
  5
22F
330
6C
100
AcDbEntity
  8
Visible (ANSI)
100
AcDbCircle
 10
29.28959052976205
 20
9.444455693836591
 30
0.0
 40
0.1406250000000001
  0
MTEXT
  5
230
330
6C
100
AcDbEntity
  8
Symbol (ANSI)
100
AcDbMText
 10
31.48511058474944
 20
6.046306711881034
 30
0.0
 40
0.3840000047458438
 41
0.0
 46
0.0
 71
     7
 72
     1
  1
SIDE VIEW
  7
Text Style168
 73
     1
 44
1.0
  0
LINE
  5
231
330
6C
100
AcDbEntity
  8
Symbol (ANSI)
370
    30
100
AcDbLine
 10
31.46544973417467
 20
5.96675274015397
 30
0.0
 11
34.06040595947226
 21
5.96675274015397
 31
0.0
  0
DIMENSION
  5
232
330
6C
100
AcDbEntity
  8
Dimension (ANSI)
100
AcDbDimension
280
     0
  2
*D4
 10
5.27184670745379
 20
15.75695569383643
 30
0.0
 11
5.271846707453788
 21
12.75695569383652
 31
0.0
 70
   160
  1
<>{\P(2 PL.)}
 71
     5
 42
5.999999999999822
 73
     0
 74
     0
 75
     0
  3
Default (ANSI)
100
AcDbAlignedDimension
 13
6.853321531892404
 23
9.756955693836605
 33
0.0
 14
6.859109702622875
 24
15.75695569383643
 34
0.0
 50
90.0
100
AcDbRotatedDimension
1001
ACAD
1000
DSTYLE
1002
{
1070
   289
1070
     1
1070
   271
1070
     2
1070
   272
1070
     2
1070
    48
1040
0.0
1070
    47
1040
0.0
1002
}
  0
LINE
  5
333
330
6C
100
AcDbEntity
  8
Visible (ANSI)
100
AcDbLine
 10
44.51966597569575
 20
19.55371121454703
 30
0.0
 11
44.50065695290681
 21
19.54276464634972
 31
0.0
  0
LINE
  5
334
330
6C
100
AcDbEntity
  8
Visible (ANSI)
100
AcDbLine
 10
40.23574793022408
 20
17.18284957065344
 30
0.0
 11
40.24679647368012
 21
17.17648713762543
 31
0.0
  0
LINE
  5
335
330
6C
100
AcDbEntity
  8
Visible (ANSI)
100
AcDbLine
 10
40.24679647368012
 20
17.02319705171746
 30
0.0
 11
40.23574793022408
 21
17.02955948474546
 31
0.0
  0
LINE
  5
336
330
6C
100
AcDbEntity
  8
Visible (ANSI)
100
AcDbLine
 10
40.24679647368012
 20
17.17648713762543
 30
0.0
 11
40.24679647368012
 21
17.02319705171746
 31
0.0
  0
LINE
  5
337
330
6C
100
AcDbEntity
  8
Visible (ANSI)
100
AcDbLine
 10
48.63264095681561
 20
12.38557506753824
 30
0.0
 11
48.65182122825525
 21
12.39662025127484
 31
0.0
  0
LINE
  5
338
330
6C
100
AcDbEntity
  8
Visible (ANSI)
100
AcDbLine
 10
44.37569241346571
 20
19.63662007498971
 30
0.0
 11
42.38438027320736
 21
20.78334047127125
 31
0.0
  0
LINE
  5
339
330
6C
100
AcDbEntity
  8
Visible (ANSI)
100
AcDbLine
 10
42.38438027320736
 20
20.78334047127125
 30
0.0
 11
42.36537125041842
 21
20.77239390307394
 31
0.0
  0
LINE
  5
33A
330
6C
100
AcDbEntity
  8
Visible (ANSI)
100
AcDbLine
 10
46.50775304287988
 20
18.40884801433181
 30
0.0
 11
44.51966597569575
 21
19.55371121454703
 31
0.0
  0
LINE
  5
33B
330
6C
100
AcDbEntity
  8
Visible (ANSI)
100
AcDbLine
 10
40.51196151662511
 20
19.33928658928861
 30
0.0
 11
42.02491279392719
 21
20.21728932948201
 31
0.0
  0
LINE
  5
33C
330
6C
100
AcDbEntity
  8
Visible (ANSI)
100
AcDbLine
 10
40.24120705148797
 20
19.49520371613182
 30
0.0
 11
40.51196151662511
 21
19.33928658928861
 31
0.0
  0
LINE
  5
33D
330
6C
100
AcDbEntity
  8
Visible (ANSI)
100
AcDbLine
 10
48.33093361868254
 20
14.83664001464246
 30
0.0
 11
48.37293685366716
 21
14.81245196029733
 31
0.0
  0
LINE
  5
33E
330
6C
100
AcDbEntity
  8
Visible (ANSI)
100
AcDbLine
 10
46.63505918921361
 20
17.72680629631662
 30
0.0
 11
48.12345326080598
 21
15.14883642139884
 31
0.0
  0
LINE
  5
33F
330
6C
100
AcDbEntity
  8
Visible (ANSI)
100
AcDbLine
 10
46.47004325490385
 20
18.10973787725919
 30
0.0
 11
46.47004325490385
 21
18.06159985753559
 31
0.0
  0
LINE
  5
340
330
6C
100
AcDbEntity
  8
Visible (ANSI)
100
AcDbLine
 10
48.65182122825525
 20
9.953380668682912
 30
0.0
 11
48.65182122825525
 21
12.23075322261975
 31
0.0
  0
LINE
  5
341
330
6C
100
AcDbEntity
  8
Visible (ANSI)
100
AcDbLine
 10
48.65182122825525
 20
12.39662025127484
 30
0.0
 11
48.65182122825525
 21
14.69586440878626
 31
0.0
  0
LINE
  5
342
330
6C
100
AcDbEntity
  8
Visible (ANSI)
100
AcDbLine
 10
46.52236915671165
 20
18.05578501099899
 30
0.0
 11
46.52236915671165
 21
18.1155527237958
 31
0.0
  0
LINE
  5
343
330
6C
100
AcDbEntity
  8
Visible (ANSI)
100
AcDbLine
 10
48.16681006043947
 20
15.1945038190997
 30
0.0
 11
46.69631957284139
 21
17.74146382837017
 31
0.0
  0
LINE
  5
344
330
6C
100
AcDbEntity
  8
Visible (ANSI)
100
AcDbLine
 10
48.40424917289689
 20
14.85468536052517
 30
0.0
 11
48.35174483569093
 21
14.88492059745769
 31
0.0
  0
LINE
  5
345
330
6C
100
AcDbEntity
  8
Visible (ANSI)
100
AcDbLine
 10
40.56408544266928
 20
19.36953538221605
 30
0.0
 11
40.26156383271579
 21
19.54374599110863
 31
0.0
  0
LINE
  5
346
330
6C
100
AcDbEntity
  8
Visible Narrow (ANSI)
100
AcDbLine
 10
40.23574793022408
 20
14.73960998806151
 30
0.0
 11
47.98077689290932
 21
10.2795444354304
 31
0.0
  0
LINE
  5
347
330
6C
100
AcDbEntity
  8
Visible Narrow (ANSI)
100
AcDbLine
 10
48.63264095681561
 20
9.942335484946317
 30
0.0
 11
48.65182122825525
 21
9.953380668682912
 31
0.0
  0
LINE
  5
348
330
6C
100
AcDbEntity
  8
Visible Narrow (ANSI)
100
AcDbLine
 10
48.65182139350714
 20
9.953281957981362
 30
0.0
 11
48.67391831516733
 21
9.940557187087595
 31
0.0
  0
LINE
  5
349
330
6C
100
AcDbEntity
  8
Visible Narrow (ANSI)
100
AcDbLine
 10
48.67391831516733
 20
9.940557187087595
 30
0.0
 11
48.67391831516733
 21
9.880058699849247
 31
0.0
  0
ELLIPSE
  5
34A
330
6C
100
AcDbEntity
  8
Visible (ANSI)
100
AcDbEllipse
 10
48.67391831516733
 20
9.966105534738925
 30
0.0
 11
-0.0525231402692352
 21
-0.0912079066542932
 31
0.0
210
0.0
220
0.0
230
1.0
 40
0.578093115915639
 41
0.2426787614686434
 42
0.7834644549742952
  0
ELLIPSE
  5
34B
330
6C
100
AcDbEntity
  8
Visible (ANSI)
100
AcDbEllipse
 10
48.67391831516733
 20
9.966105534738925
 30
0.0
 11
-0.0155947566120057
 21
-0.0270807323795407
 31
0.0
210
0.0
220
0.0
230
0.9999999999999998
 40
0.578093115915639
 41
5.495853435359171
 42
7.066649762154001
  0
LINE
  5
34C
330
6C
100
AcDbEntity
  8
Visible (ANSI)
100
AcDbLine
 10
40.23998727560971
 20
14.70142943761914
 30
0.0
 11
47.98077689290933
 21
10.24380516163285
 31
0.0
  0
LINE
  5
34D
330
6C
100
AcDbEntity
  8
Visible (ANSI)
100
AcDbLine
 10
50.65452440927055
 20
11.08111238142009
 30
0.0
 11
50.61033023544638
 21
11.10656211353211
 31
0.0
  0
LINE
  5
34E
330
6C
100
AcDbEntity
  8
Visible (ANSI)
100
AcDbLine
 10
50.65452440927055
 20
11.02061389418174
 30
0.0
 11
50.65452440927055
 21
11.08111238142009
 31
0.0
  0
LINE
  5
34F
330
6C
100
AcDbEntity
  8
Visible (ANSI)
100
AcDbLine
 10
50.61033023544638
 20
11.10656211353211
 30
0.0
 11
50.74291275691884
 21
11.18291130986818
 31
0.0
  0
LINE
  5
350
330
6C
100
AcDbEntity
  8
Visible (ANSI)
100
AcDbLine
 10
50.74291275691884
 20
11.12241282262983
 30
0.0
 11
50.71805880077419
 21
11.10810038116816
 31
0.0
  0
LINE
  5
351
330
6C
100
AcDbEntity
  8
Visible (ANSI)
100
AcDbLine
 10
50.74291275691884
 20
11.12241282262983
 30
0.0
 11
50.74291275691884
 21
11.18291130986818
 31
0.0
  0
LINE
  5
352
330
6C
100
AcDbEntity
  8
Visible (ANSI)
100
AcDbLine
 10
50.74291275691884
 20
11.18291130986818
 30
0.0
 11
50.78710693074301
 21
11.15746157775616
 31
0.0
  0
LINE
  5
353
330
6C
100
AcDbEntity
  8
Visible (ANSI)
100
AcDbLine
 10
50.78710693074301
 20
11.09696309051781
 30
0.0
 11
50.74291275691884
 21
11.12241282262983
 31
0.0
  0
LINE
  5
354
330
6C
100
AcDbEntity
  8
Visible (ANSI)
100
AcDbLine
 10
50.78710693074301
 20
11.15746157775616
 30
0.0
 11
50.78710693074301
 21
11.09696309051781
 31
0.0
  0
LINE
  5
355
330
6C
100
AcDbEntity
  8
Visible (ANSI)
100
AcDbLine
 10
50.65452440927055
 20
11.08111238142009
 30
0.0
 11
48.67391831516733
 21
9.940557187087595
 31
0.0
  0
LINE
  5
356
330
6C
100
AcDbEntity
  8
Visible (ANSI)
100
AcDbLine
 10
52.7898101117583
 20
12.31074163814467
 30
0.0
 11
50.78710693074301
 21
11.15746157775616
 31
0.0
  0
LINE
  5
357
330
6C
100
AcDbEntity
  8
Visible (ANSI)
100
AcDbLine
 10
52.7898101117583
 20
12.31074163814467
 30
0.0
 11
48.65182122825525
 21
14.69365095525635
 31
0.0
  0
LINE
  5
358
330
6C
100
AcDbEntity
  8
Visible (ANSI)
100
AcDbLine
 10
48.67391831516733
 20
9.880058699849247
 30
0.0
 11
50.65452440927055
 21
11.02061389418174
 31
0.0
  0
LINE
  5
359
330
6C
100
AcDbEntity
  8
Visible (ANSI)
100
AcDbLine
 10
50.78710693074301
 20
11.09696309051781
 30
0.0
 11
52.7898101117583
 21
12.25024315090633
 31
0.0
  0
LINE
  5
35A
330
6C
100
AcDbEntity
  8
Visible (ANSI)
100
AcDbLine
 10
52.7898101117583
 20
12.31074163814467
 30
0.0
 11
52.7898101117583
 21
12.25024315090633
 31
0.0
  0
LINE
  5
35B
330
6C
100
AcDbEntity
  8
Visible (ANSI)
100
AcDbLine
 10
48.57739823953411
 20
22.0431022108168
 30
0.0
 11
48.57739823953411
 21
21.99200551551415
 31
0.0
  0
LINE
  5
35C
330
6C
100
AcDbEntity
  8
Visible (ANSI)
100
AcDbLine
 10
48.52507233772632
 20
22.01296972799617
 30
0.0
 11
48.57739823953411
 21
22.0431022108168
 31
0.0
  0
LINE
  5
35D
330
6C
100
AcDbEntity
  8
Visible (ANSI)
100
AcDbLine
 10
48.52507233772632
 20
21.96187303269351
 30
0.0
 11
48.52507233772632
 21
22.01296972799617
 31
0.0
  0
LINE
  5
35E
330
6C
100
AcDbEntity
  8
Visible (ANSI)
100
AcDbLine
 10
48.52507233772632
 20
21.96187303269351
 30
0.0
 11
48.57739823953411
 21
21.99200551551415
 31
0.0
  0
LINE
  5
35F
330
6C
100
AcDbEntity
  8
Visible (ANSI)
100
AcDbLine
 10
48.57739823953411
 20
21.99200551551415
 30
0.0
 11
48.6024121419186
 21
21.97760096713874
 31
0.0
  0
LINE
  5
360
330
6C
100
AcDbEntity
  8
Visible (ANSI)
100
AcDbLine
 10
48.65765485919882
 20
21.88552383635745
 30
0.0
 11
48.52507233772632
 21
21.96187303269351
 31
0.0
  0
LINE
  5
361
330
6C
100
AcDbEntity
  8
Visible (ANSI)
100
AcDbLine
 10
48.65765485919882
 20
21.93662053166011
 30
0.0
 11
48.65765485919882
 21
21.88552383635745
 31
0.0
  0
LINE
  5
362
330
6C
100
AcDbEntity
  8
Visible (ANSI)
100
AcDbLine
 10
48.70998076100661
 20
21.96675301448076
 30
0.0
 11
48.65765485919882
 21
21.93662053166011
 31
0.0
  0
LINE
  5
363
330
6C
100
AcDbEntity
  8
Visible (ANSI)
100
AcDbLine
 10
52.78981011175832
 20
14.77952956838793
 30
0.0
 11
52.84213601356611
 21
14.80966205120857
 31
0.0
  0
LINE
  5
364
330
6C
100
AcDbEntity
  8
Visible (ANSI)
100
AcDbLine
 10
52.74561593793415
 20
14.80497930049995
 30
0.0
 11
52.78981011175832
 21
14.77952956838793
 31
0.0
  0
LINE
  5
365
330
6C
100
AcDbEntity
  8
Visible (ANSI)
100
AcDbLine
 10
52.79794183974194
 20
14.71074242695394
 30
0.0
 11
52.79794183974194
 21
14.68182169741261
 31
0.0
  0
LINE
  5
366
330
6C
100
AcDbEntity
  8
Visible (ANSI)
100
AcDbLine
 10
52.74561593793415
 20
14.65168921459197
 30
0.0
 11
52.74561593793415
 21
14.80497930049995
 31
0.0
  0
LINE
  5
367
330
6C
100
AcDbEntity
  8
Visible (ANSI)
100
AcDbLine
 10
52.74561593793415
 20
14.65168921459197
 30
0.0
 11
52.79794183974194
 21
14.68182169741261
 31
0.0
  0
LINE
  5
368
330
6C
100
AcDbEntity
  8
Visible (ANSI)
100
AcDbLine
 10
52.79794183974194
 20
14.68182169741261
 30
0.0
 11
52.84213601356611
 21
14.65637196530059
 31
0.0
  0
LINE
  5
369
330
6C
100
AcDbEntity
  8
Visible (ANSI)
100
AcDbLine
 10
52.78981011175832
 20
14.62623948247995
 30
0.0
 11
52.74561593793415
 21
14.65168921459197
 31
0.0
  0
LINE
  5
36A
330
6C
100
AcDbEntity
  8
Visible (ANSI)
100
AcDbLine
 10
52.84213601356611
 20
14.65637196530059
 30
0.0
 11
52.78981011175832
 21
14.62623948247995
 31
0.0
  0
LINE
  5
36B
330
6C
100
AcDbEntity
  8
Visible (ANSI)
100
AcDbLine
 10
48.65765485919882
 20
21.93662053166011
 30
0.0
 11
50.66035804021471
 21
20.78334047127195
 31
0.0
  0
LINE
  5
36C
330
6C
100
AcDbEntity
  8
Visible (ANSI)
100
AcDbLine
 10
50.71268394202252
 20
20.81347295409259
 30
0.0
 11
50.66035804021471
 21
20.78334047127195
 31
0.0
  0
LINE
  5
36D
330
6C
100
AcDbEntity
  8
Visible (ANSI)
100
AcDbLine
 10
50.71268394202252
 20
20.81347295409259
 30
0.0
 11
48.70998076100661
 21
21.96675301448076
 31
0.0
  0
LINE
  5
36E
330
6C
100
AcDbEntity
  8
Visible (ANSI)
100
AcDbLine
 10
52.78981011175832
 20
12.31074163814467
 30
0.0
 11
48.65182122825525
 21
14.69365095525635
 31
0.0
  0
LINE
  5
36F
330
6C
100
AcDbEntity
  8
Visible (ANSI)
100
AcDbLine
 10
52.78981011175832
 20
14.62623948247995
 30
0.0
 11
52.78981011175832
 21
12.31074163814467
 31
0.0
  0
LINE
  5
370
330
6C
100
AcDbEntity
  8
Visible (ANSI)
100
AcDbLine
 10
52.78981011175832
 20
17.09502741272321
 30
0.0
 11
52.78981011175832
 21
14.77952956838793
 31
0.0
  0
LINE
  5
371
330
6C
100
AcDbEntity
  8
Visible (ANSI)
100
AcDbLine
 10
52.78571725698412
 20
17.09738433103536
 30
0.0
 11
52.78981011175832
 21
17.09502741272321
 31
0.0
  0
LINE
  5
372
330
6C
100
AcDbEntity
  8
Visible (ANSI)
100
AcDbLine
 10
50.66035804021471
 20
20.78334047127195
 30
0.0
 11
50.66035804021471
 21
20.77860836893304
 31
0.0
  0
LINE
  5
373
330
6C
100
AcDbEntity
  8
Visible (ANSI)
100
AcDbLine
 10
46.52236915671042
 20
23.16624978838433
 30
0.0
 11
48.52507233772632
 21
22.01296972799617
 31
0.0
  0
LINE
  5
374
330
6C
100
AcDbEntity
  8
Visible (ANSI)
100
AcDbLine
 10
46.52236915671042
 20
22.80857292126572
 30
0.0
 11
46.52236915671042
 21
23.16624978838433
 31
0.0
  0
LINE
  5
375
330
6C
100
AcDbEntity
  8
Visible (ANSI)
100
AcDbLine
 10
46.51305741473604
 20
22.80316908897308
 30
0.0
 11
46.52236915671042
 21
22.80857292126572
 31
0.0
  0
LINE
  5
376
330
6C
100
AcDbEntity
  8
Visible (ANSI)
100
AcDbLine
 10
44.39291708516682
 20
19.63662007498971
 30
0.0
 11
44.39291708516682
 21
21.56956370852864
 31
0.0
  0
LINE
  5
377
330
6C
100
AcDbEntity
  8
Visible (ANSI)
100
AcDbLine
 10
52.84213601356611
 20
14.80966205120857
 30
0.0
 11
52.84213601356611
 21
17.12515989554385
 31
0.0
  0
LINE
  5
378
330
6C
100
AcDbEntity
  8
Visible (ANSI)
100
AcDbLine
 10
52.84213601356611
 20
17.12515989554385
 30
0.0
 11
52.78981011175832
 21
17.09502741272321
 31
0.0
  0
LINE
  5
379
330
6C
100
AcDbEntity
  8
Visible (ANSI)
100
AcDbLine
 10
52.84213601356611
 20
12.34087412096531
 30
0.0
 11
52.78981011175832
 21
12.31074163814467
 31
0.0
  0
LINE
  5
37A
330
6C
100
AcDbEntity
  8
Visible (ANSI)
100
AcDbLine
 10
52.84213601356611
 20
12.34087412096531
 30
0.0
 11
52.84213601356611
 21
14.65637196530059
 31
0.0
  0
LINE
  5
37B
330
6C
100
AcDbEntity
  8
Visible (ANSI)
100
AcDbLine
 10
50.71268394202252
 20
20.79311645609896
 30
0.0
 11
50.71268394202252
 21
20.81347295409259
 31
0.0
  0
LINE
  5
37C
330
6C
100
AcDbEntity
  8
Visible (ANSI)
100
AcDbLine
 10
52.35107178777639
 20
17.61802980558442
 30
0.0
 11
50.89266405157891
 21
20.14406191026873
 31
0.0
  0
LINE
  5
37D
330
6C
100
AcDbEntity
  8
Visible (ANSI)
100
AcDbLine
 10
52.84213601356611
 20
17.12515989554385
 30
0.0
 11
52.82399866178237
 21
17.1356045017934
 31
0.0
  0
LINE
  5
37E
330
6C
100
AcDbEntity
  8
Visible (ANSI)
100
AcDbLine
 10
46.57469505851822
 20
23.19638227120497
 30
0.0
 11
46.52236915671042
 21
23.16624978838433
 31
0.0
  0
LINE
  5
37F
330
6C
100
AcDbEntity
  8
Visible (ANSI)
100
AcDbLine
 10
48.57739823953411
 20
22.0431022108168
 30
0.0
 11
46.57469505851822
 21
23.19638227120497
 31
0.0
  0
ELLIPSE
  5
380
330
6C
100
AcDbEntity
  8
Visible (ANSI)
100
AcDbEllipse
 10
46.59679214543153
 20
18.03080660183528
 30
0.0
 11
0.0525231402692624
 21
-0.0912079066542738
 31
0.0
210
0.0
220
0.0
230
0.9999999999999998
 40
0.5780931159158103
 41
3.928924525409918
 42
4.128120360696938
  0
LINE
  5
381
330
6C
100
AcDbEntity
  8
Visible Narrow (ANSI)
100
AcDbLine
 10
46.52236915671164
 20
18.07366395071192
 30
0.0
 11
46.55056147644596
 21
18.05742907351501
 31
0.0
  0
LINE
  5
382
330
6C
100
AcDbEntity
  8
Visible Narrow (ANSI)
100
AcDbLine
 10
48.87411748032692
 20
19.3676807749975
 30
0.0
 11
48.95366351113455
 21
19.41348828760503
 31
0.0
  0
LINE
  5
383
330
6C
100
AcDbEntity
  8
Visible Narrow (ANSI)
100
AcDbLine
 10
48.99237060083615
 20
19.4102587542922
 30
0.0
 11
48.90328956147987
 21
19.35896039544293
 31
0.0
  0
ELLIPSE
  5
384
330
6C
100
AcDbEntity
  8
Visible (ANSI)
100
AcDbEllipse
 10
48.36919616799202
 20
14.9609178784439
 30
0.0
 11
0.0525231402692814
 21
-0.0912079066543193
 31
0.0
210
0.0
220
0.0
230
0.9999999999999998
 40
0.5780931159158104
 41
5.275834356549645
 42
5.499720852204902
  0
LINE
  5
385
330
6C
100
AcDbEntity
  8
Visible Narrow (ANSI)
100
AcDbLine
 10
50.74536351297884
 20
16.30371329990281
 30
0.0
 11
50.6669012120948
 21
16.25852986585249
 31
0.0
  0
LINE
  5
386
330
6C
100
AcDbEntity
  8
Visible Narrow (ANSI)
100
AcDbLine
 10
48.36919616799202
 20
14.91134020104609
 30
0.0
 11
48.36919616799202
 21
14.87487104355419
 31
0.0
  0
LINE
  5
387
330
6C
100
AcDbEntity
  8
Visible Narrow (ANSI)
100
AcDbLine
 10
50.67321791406537
 20
16.28764602852864
 30
0.0
 11
50.7626823530754
 21
16.33916517255467
 31
0.0
  0
LINE
  5
388
330
6C
100
AcDbEntity
  8
Visible (ANSI)
100
AcDbLine
 10
46.57469505851945
 20
18.10973787725923
 30
0.0
 11
46.57469505851945
 21
18.06159985753557
 31
0.0
  0
LINE
  5
389
330
6C
100
AcDbEntity
  8
Visible (ANSI)
100
AcDbLine
 10
46.52236915671164
 20
18.1155527237958
 30
0.0
 11
46.52236915671164
 21
18.07366395071192
 31
0.0
  0
LINE
  5
38A
330
6C
100
AcDbEntity
  8
Visible (ANSI)
100
AcDbLine
 10
50.67525834876651
 20
20.7700278519052
 30
0.0
 11
50.66035804021471
 21
20.77860836893305
 31
0.0
  0
LINE
  5
38B
330
6C
100
AcDbEntity
  8
Visible (ANSI)
100
AcDbLine
 10
50.66035804021471
 20
20.77860836893305
 30
0.0
 11
46.54674499661335
 21
18.4097361644487
 31
0.0
  0
LINE
  5
38C
330
6C
100
AcDbEntity
  8
Visible (ANSI)
100
AcDbLine
 10
52.78571725698412
 20
17.11504369125102
 30
0.0
 11
52.78571725698412
 21
17.09738433103522
 31
0.0
  0
LINE
  5
38D
330
6C
100
AcDbEntity
  8
Visible (ANSI)
100
AcDbLine
 10
48.42554527766352
 20
14.90292023664811
 30
0.0
 11
48.38277424141548
 21
14.92755043833481
 31
0.0
  0
LINE
  5
38E
330
6C
100
AcDbEntity
  8
Visible (ANSI)
100
AcDbLine
 10
48.36919616799202
 20
14.87487104355419
 30
0.0
 11
48.40424917289682
 21
14.85468536052507
 31
0.0
  0
LINE
  5
38F
330
6C
100
AcDbEntity
  8
Visible (ANSI)
100
AcDbLine
 10
48.67136278359685
 20
14.7280851655332
 30
0.0
 11
52.78571725698412
 21
17.09738433103522
 31
0.0
  0
LINE
  5
390
330
6C
100
AcDbEntity
  8
Visible (ANSI)
100
AcDbLine
 10
50.87535931248599
 20
20.13409677377958
 30
0.0
 11
52.33376704868346
 21
17.60806466909525
 31
0.0
  0
LINE
  5
391
330
6C
100
AcDbEntity
  8
Visible (ANSI)
100
AcDbLine
 10
48.19797012662894
 20
15.2213587696864
 30
0.0
 11
46.73518692841269
 21
17.75496938431547
 31
0.0
  0
LINE
  5
392
330
6C
100
AcDbEntity
  8
Visible Narrow (ANSI)
100
AcDbLine
 10
42.70599932439251
 20
20.59813237738653
 30
0.0
 11
44.72816714543005
 21
21.76262137848732
 31
0.0
  0
ELLIPSE
  5
393
330
6C
100
AcDbEntity
  8
Visible (ANSI)
100
AcDbEllipse
 10
40.53755326192699
 20
19.4708610838387
 30
0.0
 11
0.0525231402692578
 21
-0.0912079066542792
 31
0.0
210
0.0
220
0.0
230
1.0
 40
0.578093115915813
 41
5.49972085220503
 42
5.998460429786356
  0
LINE
  5
394
330
6C
100
AcDbEntity
  8
Visible Narrow (ANSI)
100
AcDbLine
 10
40.53755326192699
 20
19.38481424894903
 30
0.0
 11
40.53755326192699
 21
19.44531273618738
 31
0.0
  0
LINE
  5
395
330
6C
100
AcDbEntity
  8
Visible Narrow (ANSI)
100
AcDbLine
 10
40.53755326192699
 20
19.44531273618738
 30
0.0
 11
41.95151253425083
 21
20.25955772787198
 31
0.0
  0
LINE
  5
396
330
6C
100
AcDbEntity
  8
Visible Narrow (ANSI)
100
AcDbLine
 10
40.55317826192698
 20
19.44379783488844
 30
0.0
 11
40.58803084665803
 21
19.38343148755174
 31
0.0
  0
ELLIPSE
  5
397
330
6C
100
AcDbEntity
  8
Visible (ANSI)
100
AcDbEllipse
 10
40.53755326192699
 20
19.4708610838387
 30
0.0
 11
0.0155947566120125
 21
-0.0270807323795367
 31
0.0
210
0.0
220
0.0
230
1.0
 40
0.5780931159158129
 41
5.49972085220503
 42
6.285119015602195
  0
LINE
  5
398
330
6C
100
AcDbEntity
  8
Visible Narrow (ANSI)
100
AcDbLine
 10
42.66810048145167
 20
20.61995686954782
 30
0.0
 11
46.52236915671044
 21
22.83948258493741
 31
0.0
  0
LINE
  5
399
330
6C
100
AcDbEntity
  8
Visible Narrow (ANSI)
100
AcDbLine
 10
46.50057116799055
 20
22.79119091134957
 30
0.0
 11
42.69913141011422
 21
20.60208734618505
 31
0.0
  0
ELLIPSE
  5
39A
330
6C
100
AcDbEntity
  8
Visible (ANSI)
100
AcDbEllipse
 10
46.44794616799053
 20
22.88233993381404
 30
0.0
 11
0.052523140269258
 21
-0.0912079066542797
 31
0.0
210
0.0
220
0.0
230
0.9999999999999998
 40
0.5780931159158129
 41
0.0019337084229223
 42
0.7873318718203244
  0
LINE
  5
39B
330
6C
100
AcDbEntity
  8
Visible (ANSI)
100
AcDbLine
 10
42.70599952155095
 20
20.59813226385054
 30
0.0
 11
44.72806528569931
 21
21.76256249429752
 31
0.0
  0
LINE
  5
39C
330
6C
100
AcDbEntity
  8
Visible (ANSI)
100
AcDbLine
 10
40.29352298051356
 20
19.58584042913399
 30
0.0
 11
40.53755326192699
 21
19.44531273618738
 31
0.0
  0
LINE
  5
39D
330
6C
100
AcDbEntity
  8
Visible (ANSI)
100
AcDbLine
 10
40.26156383271573
 20
19.54374599110854
 30
0.0
 11
40.53755326192699
 21
19.38481424894903
 31
0.0
  0
LINE
  5
39E
330
6C
100
AcDbEntity
  8
Visible (ANSI)
100
AcDbLine
 10
46.47004325490263
 20
23.19165016886607
 30
0.0
 11
46.52236915671044
 21
23.16151768604543
 31
0.0
  0
LINE
  5
39F
330
6C
100
AcDbEntity
  8
Visible (ANSI)
100
AcDbLine
 10
46.52236915671044
 20
23.16151768604543
 30
0.0
 11
46.52236915671044
 21
22.83948258493741
 31
0.0
  0
LINE
  5
3A0
330
6C
100
AcDbEntity
  8
Visible (ANSI)
100
AcDbLine
 10
42.33205437139957
 20
20.80874085175297
 30
0.0
 11
42.33205437139957
 21
20.79311645609825
 31
0.0
  0
LINE
  5
3A1
330
6C
100
AcDbEntity
  8
Visible (ANSI)
100
AcDbLine
 10
42.33205437139957
 20
20.80874085175297
 30
0.0
 11
44.35977145479934
 21
21.97642546051689
 31
0.0
  0
LINE
  5
3A2
330
6C
100
AcDbEntity
  8
Visible (ANSI)
100
AcDbLine
 10
44.44232617150284
 20
22.02396556010214
 30
0.0
 11
46.47004325490263
 21
23.19165016886607
 31
0.0
  0
LINE
  5
3A3
330
6C
100
AcDbEntity
  8
Visible (ANSI)
100
AcDbLine
 10
42.33205437139957
 20
20.80874085175297
 30
0.0
 11
42.38027155897024
 21
20.7809744201018
 31
0.0
  0
LINE
  5
3A4
330
6C
100
AcDbEntity
  8
Visible (ANSI)
100
AcDbLine
 10
42.38848898744449
 20
20.78097442010179
 30
0.0
 11
46.52236915671044
 21
23.16151768604543
 31
0.0
  0
LINE
  5
3A5
330
6C
100
AcDbEntity
  8
Visible (ANSI)
100
AcDbLine
 10
44.72816714543005
 20
21.76262137848732
 30
0.0
 11
46.50057116799055
 21
22.79119091134957
 31
0.0
  0
LINE
  5
3A6
330
6C
100
AcDbEntity
  8
Visible (ANSI)
100
AcDbLine
 10
41.95520762446511
 20
20.2574298669359
 30
0.0
 11
40.55317826192698
 21
19.44379783488844
 31
0.0
  0
LINE
  5
3A7
330
6C
100
AcDbEntity
  8
Visible (ANSI)
100
AcDbLine
 10
44.44232617150285
 20
22.03225425815845
 30
0.0
 11
44.33767436788723
 21
22.03225425815845
 31
0.0
  0
LINE
  5
3A8
330
6C
100
AcDbEntity
  8
Visible (ANSI)
100
AcDbLine
 10
44.33767436788723
 20
21.96370059446085
 30
0.0
 11
44.33767436788723
 21
22.03225425815845
 31
0.0
  0
LINE
  5
3A9
330
6C
100
AcDbEntity
  8
Visible (ANSI)
100
AcDbLine
 10
44.44232617150285
 20
21.97642546051688
 30
0.0
 11
44.44232617150285
 21
22.03225425815845
 31
0.0
  0
LINE
  5
3AA
330
6C
100
AcDbEntity
  8
Visible (ANSI)
100
AcDbLine
 10
44.44232617150283
 20
22.09251922379972
 30
0.0
 11
44.44232617150285
 21
22.03225425815845
 31
0.0
  0
LINE
  5
3AB
330
6C
100
AcDbEntity
  8
Visible (ANSI)
100
AcDbLine
 10
44.33767436788785
 20
19.63662007498971
 30
0.0
 11
44.44232617150346
 21
19.63662007498971
 31
0.0
  0
LINE
  5
3AC
330
6C
100
AcDbEntity
  8
Visible (ANSI)
100
AcDbLine
 10
44.44232617150346
 20
19.63662007498971
 30
0.0
 11
44.44232617150347
 21
19.57635510934845
 31
0.0
  0
LINE
  5
3AD
330
6C
100
AcDbEntity
  8
Visible (ANSI)
100
AcDbLine
 10
48.70706394553419
 20
22.03225425815883
 30
0.0
 11
48.60241214191858
 21
22.03225425815881
 31
0.0
  0
LINE
  5
3AE
330
6C
100
AcDbEntity
  8
Visible (ANSI)
100
AcDbLine
 10
48.60241214191858
 20
21.9300608675535
 30
0.0
 11
48.60241214191858
 21
22.03225425815881
 31
0.0
  0
LINE
  5
3AF
330
6C
100
AcDbEntity
  8
Visible (ANSI)
100
AcDbLine
 10
48.6576548591988
 20
21.9300608675535
 30
0.0
 11
48.60241214191858
 21
21.9300608675535
 31
0.0
  0
LINE
  5
3B0
330
6C
100
AcDbEntity
  8
Visible (ANSI)
100
AcDbLine
 10
48.70706394553419
 20
22.03225425815883
 30
0.0
 11
48.70706394553419
 21
21.96507333216135
 31
0.0
  0
LINE
  5
3B1
330
6C
100
AcDbEntity
  8
Visible (ANSI)
100
AcDbLine
 10
48.60241214191858
 20
22.03225425815881
 30
0.0
 11
48.60241214191856
 21
22.09251922380008
 31
0.0
  0
LINE
  5
3B2
330
6C
100
AcDbEntity
  8
Visible (ANSI)
100
AcDbLine
 10
42.34601973032798
 20
20.88533663079795
 30
0.0
 11
44.33767436788723
 21
22.03225425815845
 31
0.0
  0
LINE
  5
3B3
330
6C
100
AcDbEntity
  8
Visible Narrow (ANSI)
100
AcDbLine
 10
42.34601973032798
 20
20.88533663079795
 30
0.0
 11
42.34601973032798
 21
20.81678296710034
 31
0.0
  0
LINE
  5
3B4
330
6C
100
AcDbEntity
  8
Visible Narrow (ANSI)
100
AcDbLine
 10
46.43398080906209
 20
23.23943685116022
 30
0.0
 11
46.43398080906209
 21
23.17088318746262
 31
0.0
  0
LINE
  5
3B5
330
6C
100
AcDbEntity
  8
Visible (ANSI)
100
AcDbLine
 10
44.44232617150283
 20
22.09251922379972
 30
0.0
 11
46.43398080906209
 21
23.23943685116022
 31
0.0
  0
LINE
  5
3B6
330
6C
100
AcDbEntity
  8
Visible (ANSI)
100
AcDbLine
 10
46.4339808090633
 20
18.42943748198829
 30
0.0
 11
44.44232617150347
 21
19.57635510934845
 31
0.0
  0
LINE
  5
3B7
330
6C
100
AcDbEntity
  8
Visible (ANSI)
100
AcDbLine
 10
44.33767436788785
 20
19.63662007498971
 30
0.0
 11
42.346019730328
 21
20.78353770234986
 31
0.0
  0
LINE
  5
3B8
330
6C
100
AcDbEntity
  8
Visible Narrow (ANSI)
100
AcDbLine
 10
50.69871858309403
 20
20.88533663079867
 30
0.0
 11
50.69871858309403
 21
20.82151506944
 31
0.0
  0
LINE
  5
3B9
330
6C
100
AcDbEntity
  8
Visible (ANSI)
100
AcDbLine
 10
48.70706394553419
 20
22.03225425815883
 30
0.0
 11
50.69871858309403
 21
20.88533663079867
 31
0.0
  0
LINE
  5
3BA
330
6C
100
AcDbEntity
  8
Visible (ANSI)
100
AcDbLine
 10
46.61075750435872
 20
23.23943685116023
 30
0.0
 11
48.60241214191856
 21
22.09251922380008
 31
0.0
  0
LINE
  5
3BB
330
6C
100
AcDbEntity
  8
Visible Narrow (ANSI)
100
AcDbLine
 10
46.61075750435872
 20
23.23943685116023
 30
0.0
 11
46.61075750435872
 21
23.17561528980156
 31
0.0
  0
LINE
  5
3BC
330
6C
100
AcDbEntity
  8
Visible (ANSI)
100
AcDbLine
 10
48.60241214191856
 20
21.99032583319477
 30
0.0
 11
48.5773982395341
 21
22.00473038157015
 31
0.0
  0
ELLIPSE
  5
3BD
330
6C
100
AcDbEntity
  8
Visible (ANSI)
100
AcDbEllipse
 10
42.43440807797631
 20
20.83443716657391
 30
0.0
 11
-0.1249999999999981
 21
-0.0000000000000005
 31
0.0
210
0.0
220
0.0
230
1.0
 40
0.5758617009853123
 41
5.497787143782247
 42
7.068583470577199
  0
ELLIPSE
  5
3BE
330
6C
100
AcDbEntity
  8
Visible (ANSI)
100
AcDbEllipse
 10
46.52236915671162
 20
18.48033694621235
 30
0.0
 11
-0.1249999999999989
 21
0.0000000000000069
 31
0.0
210
0.0
220
0.0
230
1.0
 40
0.5758617009853123
 41
0.7853981633978524
 42
2.356194490192793
  0
LINE
  5
3BF
330
6C
100
AcDbEntity
  8
Visible (ANSI)
100
AcDbLine
 10
50.69871858309405
 20
20.78353770235059
 30
0.0
 11
46.61075750435995
 21
18.42943748198831
 31
0.0
  0
ELLIPSE
  5
3C0
330
6C
100
AcDbEntity
  8
Visible (ANSI)
100
AcDbEllipse
 10
50.61033023544572
 20
20.83443716657463
 30
0.0
 11
0.1249999999999989
 21
0.0000000000000005
 31
0.0
210
0.0
220
0.0
230
1.0
 40
0.5758617009853124
 41
5.497787143782246
 42
7.068583470577149
  0
ELLIPSE
  5
3C1
330
6C
100
AcDbEntity
  8
Visible (ANSI)
100
AcDbEllipse
 10
46.52236915671042
 20
23.18853738693618
 30
0.0
 11
0.1249999999999985
 21
-0.0000000000000069
 31
0.0
210
0.0
220
0.0
230
1.0
 40
0.5758617009853124
 41
0.7853981633978311
 42
2.35619449019272
  0
ELLIPSE
  5
3C2
330
6C
100
AcDbEntity
  8
Visible (ANSI)
100
AcDbEllipse
 10
41.66101003605352
 20
20.73224377596853
 30
0.0
 11
-0.3749999999999935
 21
0.0000000000000006
 31
0.0
210
0.0
220
0.0
230
1.0
 40
0.5758617009853124
 41
0.0000000000000435
 42
0.7853981633976451
  0
LINE
  5
3C3
330
6C
100
AcDbEntity
  8
Visible Narrow (ANSI)
100
AcDbLine
 10
41.39584499310862
 20
20.6817387739017
 30
0.0
 11
41.39584499310862
 21
20.57954538329638
 31
0.0
  0
ELLIPSE
  5
3C4
330
6C
100
AcDbEntity
  8
Visible (ANSI)
100
AcDbEllipse
 10
41.66101003605353
 20
20.83443716657384
 30
0.0
 11
-0.3749999999999994
 21
-0.0000000000000016
 31
0.0
210
0.0
220
0.0
230
1.0
 40
0.5758617009853124
 41
5.497787143782279
 42
7.068583470577181
  0
LINE
  5
3C5
330
6C
100
AcDbEntity
  8
Visible (ANSI)
100
AcDbLine
 10
41.39584499310862
 20
20.57954538329638
 30
0.0
 11
46.25720411376682
 21
17.78007485097452
 31
0.0
  0
LINE
  5
3C6
330
6C
100
AcDbEntity
  8
Visible Narrow (ANSI)
100
AcDbLine
 10
46.25720411376682
 20
17.88226824157983
 30
0.0
 11
46.25720411376682
 21
17.78007485097452
 31
0.0
  0
LINE
  5
3C7
330
6C
100
AcDbEntity
  8
Visible (ANSI)
100
AcDbLine
 10
46.25720411376682
 20
17.88226824157983
 30
0.0
 11
41.39584499310862
 21
20.68173877390169
 31
0.0
  0
ELLIPSE
  5
3C8
330
6C
100
AcDbEntity
  8
Visible (ANSI)
100
AcDbEllipse
 10
46.52236915671173
 20
17.93277324364667
 30
0.0
 11
0.374999999999998
 21
0.0000000000000239
 31
0.0
210
0.0
220
0.0
230
1.0
 40
0.5758617009853124
 41
3.926990816987144
 42
5.497787143782034
  0
LINE
  5
3C9
330
6C
100
AcDbEntity
  8
Visible Narrow (ANSI)
100
AcDbLine
 10
46.78753419965672
 20
17.88226824157988
 30
0.0
 11
46.78753419965672
 21
17.78007485097456
 31
0.0
  0
ELLIPSE
  5
3CA
330
6C
100
AcDbEntity
  8
Visible (ANSI)
100
AcDbEllipse
 10
46.52236915671173
 20
18.03496663425198
 30
0.0
 11
-0.374999999999998
 21
0.0000000000000207
 31
0.0
210
0.0
220
0.0
230
1.0
 40
0.5758617009853124
 41
0.7853981633978302
 42
2.356194490192738
  0
LINE
  5
3CB
330
6C
100
AcDbEntity
  8
Visible (ANSI)
100
AcDbLine
 10
46.78753419965672
 20
17.78007485097456
 30
0.0
 11
51.6488933203135
 21
20.57954538329727
 31
0.0
  0
LINE
  5
3CC
330
6C
100
AcDbEntity
  8
Visible Narrow (ANSI)
100
AcDbLine
 10
51.6488933203135
 20
20.68173877390259
 30
0.0
 11
51.6488933203135
 21
20.57954538329727
 31
0.0
  0
LINE
  5
3CD
330
6C
100
AcDbEntity
  8
Visible (ANSI)
100
AcDbLine
 10
51.6488933203135
 20
20.68173877390259
 30
0.0
 11
46.78753419965672
 21
17.88226824157988
 31
0.0
  0
ELLIPSE
  5
3CE
330
6C
100
AcDbEntity
  8
Visible (ANSI)
100
AcDbEllipse
 10
51.38372827736851
 20
20.73224377596937
 30
0.0
 11
0.375
 21
0.0000000000000016
 31
0.0
210
0.0
220
0.0
230
1.0
 40
0.5758617009853124
 41
5.49778714378228
 42
6.283185307179557
  0
ELLIPSE
  5
3CF
330
6C
100
AcDbEntity
  8
Visible (ANSI)
100
AcDbEllipse
 10
51.38372827736851
 20
20.83443716657469
 30
0.0
 11
0.374999999999998
 21
0.0000000000000016
 31
0.0
210
0.0
220
0.0
230
1.0
 40
0.5758617009853124
 41
5.497787143782279
 42
7.068583470577181
  0
LINE
  5
3D0
330
6C
100
AcDbEntity
  8
Visible (ANSI)
100
AcDbLine
 10
46.78753419965522
 20
23.7866060915687
 30
0.0
 11
51.64889332031342
 21
20.98713555924684
 31
0.0
  0
ELLIPSE
  5
3D1
330
6C
100
AcDbEntity
  8
Visible (ANSI)
100
AcDbEllipse
 10
46.5223691567103
 20
23.63390769889655
 30
0.0
 11
0.3749999999999994
 21
-0.0000000000000208
 31
0.0
210
0.0
220
0.0
230
1.0
 40
0.5758617009853124
 41
0.7853981633978462
 42
2.356194490192738
  0
LINE
  5
3D2
330
6C
100
AcDbEntity
  8
Visible (ANSI)
100
AcDbLine
 10
41.39584499310854
 20
20.98713555924595
 30
0.0
 11
46.25720411376531
 21
23.78660609156865
 31
0.0
  0
LINE
  5
3D3
330
6C
100
AcDbEntity
  8
Visible (ANSI)
100
AcDbLine
 10
41.28601003605353
 20
20.83443716657384
 30
0.0
 11
41.28601003605353
 21
20.73224377596853
 31
0.0
  0
LINE
  5
3D4
330
6C
100
AcDbEntity
  8
Visible (ANSI)
100
AcDbLine
 10
51.75872827736849
 20
20.83443716657469
 30
0.0
 11
51.75872827736849
 21
20.73224377596937
 31
0.0
  0
ELLIPSE
  5
3D5
330
6C
100
AcDbEntity
  8
Visible (ANSI)
100
AcDbEllipse
 10
48.9530487170394
 20
22.23417243273562
 30
0.0
 11
-0.1406249999999994
 21
0.0000000000000078
 31
0.0
210
0.0
220
0.0
230
1.0
 40
0.5758617009853122
 41
0.0
 42
6.283185307179586
  0
ELLIPSE
  5
3D6
330
6C
100
AcDbEntity
  8
Visible (ANSI)
100
AcDbEllipse
 10
48.9530487170394
 20
22.1319790421303
 30
0.0
 11
-0.1406249999999986
 21
-0.000000000000009
 31
0.0
210
0.0
220
0.0
230
1.0
 40
0.5758617009853124
 41
3.824401853699347
 42
5.600376107069534
  0
ELLIPSE
  5
3D7
330
6C
100
AcDbEntity
  8
Visible (ANSI)
100
AcDbEllipse
 10
44.09168959638192
 20
22.23417243273519
 30
0.0
 11
-0.1406249999999991
 21
0.0000000000000078
 31
0.0
210
0.0
220
0.0
230
1.0
 40
0.5758617009853124
 41
0.0
 42
6.283185307179586
  0
ELLIPSE
  5
3D8
330
6C
100
AcDbEntity
  8
Visible (ANSI)
100
AcDbEllipse
 10
44.09168959638192
 20
22.13197904212988
 30
0.0
 11
-0.1406249999999993
 21
-0.000000000000009
 31
0.0
210
0.0
220
0.0
230
1.0
 40
0.5758617009853123
 41
3.824401853699349
 42
5.600376107069452
  0
ELLIPSE
  5
3D9
330
6C
100
AcDbEntity
  8
Visible (ANSI)
100
AcDbEllipse
 10
44.09168959638264
 20
19.43470190041291
 30
0.0
 11
-0.1406249999999994
 21
0.0000000000000078
 31
0.0
210
0.0
220
0.0
230
1.0
 40
0.5758617009853122
 41
0.0
 42
6.283185307179586
  0
ELLIPSE
  5
3DA
330
6C
100
AcDbEntity
  8
Visible (ANSI)
100
AcDbEllipse
 10
44.09168959638264
 20
19.33250850980759
 30
0.0
 11
-0.1406249999999992
 21
-0.000000000000009
 31
0.0
210
0.0
220
0.0
230
1.0
 40
0.5758617009853124
 41
3.824401853699326
 42
5.600376107069451
  0
ELLIPSE
  5
3DB
330
6C
100
AcDbEntity
  8
Visible (ANSI)
100
AcDbEllipse
 10
48.95304871704012
 20
19.43470190041334
 30
0.0
 11
-0.1406249999999991
 21
0.0000000000000078
 31
0.0
210
0.0
220
0.0
230
1.0
 40
0.5758617009853124
 41
0.0
 42
6.283185307179586
  0
ELLIPSE
  5
3DC
330
6C
100
AcDbEntity
  8
Visible (ANSI)
100
AcDbEllipse
 10
48.95304871704012
 20
19.33250850980802
 30
0.0
 11
-0.1406249999999991
 21
-0.000000000000009
 31
0.0
210
0.0
220
0.0
230
1.0
 40
0.5758617009853123
 41
3.824401853699326
 42
5.60037610706945
  0
ELLIPSE
  5
3DD
330
6C
100
AcDbEntity
  8
Visible (ANSI)
100
AcDbEllipse
 10
46.5223691567117
 20
18.13676556270007
 30
0.0
 11
-0.1406249999999992
 21
0.0000000000000078
 31
0.0
210
0.0
220
0.0
230
1.0
 40
0.5758617009853124
 41
0.0
 42
6.283185307179586
  0
ELLIPSE
  5
3DE
330
6C
100
AcDbEntity
  8
Visible (ANSI)
100
AcDbEllipse
 10
46.5223691567117
 20
18.03457217209475
 30
0.0
 11
-0.1406249999999991
 21
-0.000000000000009
 31
0.0
210
0.0
220
0.0
230
1.0
 40
0.5758617009853126
 41
3.824401853699326
 42
5.600376107069451
  0
ELLIPSE
  5
3DF
330
6C
100
AcDbEntity
  8
Visible (ANSI)
100
AcDbEllipse
 10
51.20695158207187
 20
20.83443716657467
 30
0.0
 11
-0.1406249999999992
 21
0.0000000000000078
 31
0.0
210
0.0
220
0.0
230
1.0
 40
0.5758617009853124
 41
0.0
 42
6.283185307179586
  0
ELLIPSE
  5
3E0
330
6C
100
AcDbEntity
  8
Visible (ANSI)
100
AcDbEllipse
 10
51.20695158207187
 20
20.73224377596936
 30
0.0
 11
-0.1406249999999991
 21
-0.000000000000009
 31
0.0
210
0.0
220
0.0
230
1.0
 40
0.5758617009853126
 41
3.824401853699347
 42
5.600376107069451
  0
ELLIPSE
  5
3E1
330
6C
100
AcDbEntity
  8
Visible (ANSI)
100
AcDbEllipse
 10
41.83778673135017
 20
20.83443716657386
 30
0.0
 11
-0.1406249999999992
 21
0.0000000000000078
 31
0.0
210
0.0
220
0.0
230
1.0
 40
0.5758617009853124
 41
0.0
 42
6.283185307179586
  0
ELLIPSE
  5
3E2
330
6C
100
AcDbEntity
  8
Visible (ANSI)
100
AcDbEllipse
 10
41.83778673135017
 20
20.73224377596854
 30
0.0
 11
-0.1406249999999991
 21
-0.000000000000009
 31
0.0
210
0.0
220
0.0
230
1.0
 40
0.5758617009853126
 41
3.824401853699347
 42
5.600376107069451
  0
ELLIPSE
  5
3E3
330
6C
100
AcDbEntity
  8
Visible (ANSI)
100
AcDbEllipse
 10
46.52236915671032
 20
23.53210877044846
 30
0.0
 11
-0.1406249999999992
 21
0.0000000000000078
 31
0.0
210
0.0
220
0.0
230
1.0
 40
0.5758617009853124
 41
0.0
 42
6.283185307179586
  0
ELLIPSE
  5
3E4
330
6C
100
AcDbEntity
  8
Visible (ANSI)
100
AcDbEllipse
 10
46.52236915671032
 20
23.42991537984315
 30
0.0
 11
-0.1406249999999979
 21
-0.000000000000009
 31
0.0
210
0.0
220
0.0
230
1.0
 40
0.5758617009853124
 41
3.824401853699347
 42
5.600376107069494
  0
LINE
  5
3E5
330
6C
100
AcDbEntity
  8
Visible (ANSI)
100
AcDbLine
 10
50.76500984383097
 20
11.08106307365045
 30
0.0
 11
50.81733574563877
 21
11.05069706923274
 31
0.0
  0
LINE
  5
3E6
330
6C
100
AcDbEntity
  8
Visible (ANSI)
100
AcDbLine
 10
50.67662149618263
 20
11.13196253787449
 30
0.0
 11
50.76500984383097
 21
11.08106307365045
 31
0.0
  0
LINE
  5
3E7
330
6C
100
AcDbEntity
  8
Visible (ANSI)
100
AcDbLine
 10
50.71268394202317
 20
10.99043210359147
 30
0.0
 11
50.76500984383097
 21
11.08106307365045
 31
0.0
  0
LINE
  5
3E8
330
6C
100
AcDbEntity
  8
Visible (ANSI)
100
AcDbLine
 10
50.64907491395113
 20
11.08425053706423
 30
0.0
 11
50.67662149618263
 21
11.13196253787449
 31
0.0
  0
LINE
  5
3E9
330
6C
100
AcDbEntity
  8
Visible (ANSI)
100
AcDbLine
 10
50.71268394202317
 20
10.99043210359147
 30
0.0
 11
50.65452440927054
 21
11.0239239510509
 31
0.0
  0
LINE
  5
3EA
330
6C
100
AcDbEntity
  8
Visible (ANSI)
100
AcDbLine
 10
52.89737873084632
 20
14.65343122193223
 30
0.0
 11
52.84505282903854
 21
14.68379722634994
 31
0.0
  0
LINE
  5
3EB
330
6C
100
AcDbEntity
  8
Visible (ANSI)
100
AcDbLine
 10
52.75666448139021
 20
14.73469669057397
 30
0.0
 11
52.84505282903854
 21
14.68379722634994
 31
0.0
  0
LINE
  5
3EC
330
6C
100
AcDbEntity
  8
Visible (ANSI)
100
AcDbLine
 10
52.808990383198
 20
14.70433068615626
 30
0.0
 11
52.75666448139021
 21
14.73469669057397
 31
0.0
  0
LINE
  5
3ED
330
6C
100
AcDbEntity
  8
Visible (ANSI)
100
AcDbLine
 10
52.89737873084632
 20
14.65343122193223
 30
0.0
 11
52.808990383198
 21
14.70433068615626
 31
0.0
  0
LINE
  5
3EE
330
6C
100
AcDbEntity
  8
Visible (ANSI)
100
AcDbLine
 10
52.84505282903854
 20
14.68379722634994
 30
0.0
 11
52.89737873084632
 21
14.77442819640892
 31
0.0
  0
LINE
  5
3EF
330
6C
100
AcDbEntity
  8
Visible (ANSI)
100
AcDbLine
 10
52.83916508352008
 20
14.80795120637876
 30
0.0
 11
52.89737873084632
 21
14.77442819640892
 31
0.0
  0
LINE
  5
3F0
330
6C
100
AcDbEntity
  8
Visible (ANSI)
100
AcDbLine
 10
52.75666448139021
 20
14.73469669057397
 30
0.0
 11
52.78436061643889
 21
14.78266772403208
 31
0.0
  0
LINE
  5
3F1
330
6C
100
AcDbEntity
  8
Visible (ANSI)
100
AcDbLine
 10
48.63264095681561
 20
12.31852904759855
 30
0.0
 11
48.68496685862341
 21
12.28816304318084
 31
0.0
  0
LINE
  5
3F2
330
6C
100
AcDbEntity
  8
Visible (ANSI)
100
AcDbLine
 10
48.68496685862341
 20
12.28816304318084
 30
0.0
 11
48.63264095681561
 21
12.19753207312186
 31
0.0
  0
LINE
  5
3F3
330
6C
100
AcDbEntity
  8
Visible (ANSI)
100
AcDbLine
 10
52.80899038319803
 20
12.19761469659324
 30
0.0
 11
50.81733574563877
 21
11.05069706923274
 31
0.0
  0
LINE
  5
3F4
330
6C
100
AcDbEntity
  8
Visible Narrow (ANSI)
100
AcDbLine
 10
52.80899038319803
 20
12.19761469659324
 30
0.0
 11
52.75370485375512
 21
12.22945151561809
 31
0.0
  0
LINE
  5
3F5
330
6C
100
AcDbEntity
  8
Visible (ANSI)
100
AcDbLine
 10
50.72915015639292
 20
11.10171329425532
 30
0.0
 11
50.75400411253757
 21
11.116025735717
 31
0.0
  0
LINE
  5
3F6
330
6C
100
AcDbEntity
  8
Visible Narrow (ANSI)
100
AcDbLine
 10
48.72102930446391
 20
9.843514476230971
 30
0.0
 11
48.66523330616048
 21
9.875645254722149
 31
0.0
  0
LINE
  5
3F7
330
6C
100
AcDbEntity
  8
Visible (ANSI)
100
AcDbLine
 10
50.71268394202317
 20
10.99043210359147
 30
0.0
 11
48.72102930446391
 21
9.843514476230971
 31
0.0
  0
LINE
  5
3F8
330
6C
100
AcDbEntity
  8
Visible (ANSI)
100
AcDbLine
 10
52.89737873084632
 20
17.07715186691854
 30
0.0
 11
52.89737873084632
 21
14.77442819640892
 31
0.0
  0
LINE
  5
3F9
330
6C
100
AcDbEntity
  8
Visible Narrow (ANSI)
100
AcDbLine
 10
52.89737873084632
 20
17.07715186691854
 30
0.0
 11
52.84213601356611
 21
17.10896403205858
 31
0.0
  0
LINE
  5
3FA
330
6C
100
AcDbEntity
  8
Visible (ANSI)
100
AcDbLine
 10
52.808990383198
 20
14.67545926438459
 30
0.0
 11
52.808990383198
 21
14.70433068615626
 31
0.0
  0
LINE
  5
3FB
330
6C
100
AcDbEntity
  8
Visible Narrow (ANSI)
100
AcDbLine
 10
52.89737873084632
 20
12.35070755142261
 30
0.0
 11
52.8421360135661
 21
12.38251971656264
 31
0.0
  0
LINE
  5
3FC
330
6C
100
AcDbEntity
  8
Visible (ANSI)
100
AcDbLine
 10
52.89737873084632
 20
14.65343122193223
 30
0.0
 11
52.89737873084632
 21
12.35070755142261
 31
0.0
  0
LINE
  5
3FD
330
6C
100
AcDbEntity
  8
Visible (ANSI)
100
AcDbLine
 10
48.63264095681561
 20
12.31852904759855
 30
0.0
 11
48.63264095681561
 21
14.62125271810817
 31
0.0
  0
LINE
  5
3FE
330
6C
100
AcDbEntity
  8
Visible (ANSI)
100
AcDbLine
 10
48.63264095681561
 20
9.894808402612238
 30
0.0
 11
48.63264095681561
 21
12.19753207312186
 31
0.0
  0
ELLIPSE
  5
3FF
330
6C
100
AcDbEntity
  8
Visible (ANSI)
100
AcDbEllipse
 10
52.80899038319803
 20
12.29980808719856
 30
0.0
 11
-0.0623790264480283
 21
-0.1083229295181582
 31
0.0
210
0.0
220
0.0
230
1.0
 40
0.5780931159156387
 41
0.7834644549745847
 42
2.354260781769516
  0
ELLIPSE
  5
400
330
6C
100
AcDbEntity
  8
Visible (ANSI)
100
AcDbEllipse
 10
52.80899038319803
 20
17.0262524026945
 30
0.0
 11
0.0623790264480222
 21
0.1083229295181626
 31
0.0
210
0.0
220
0.0
230
0.9999999999999998
 40
0.5780931159156387
 41
5.495853435359122
 42
7.066649762153997
  0
LINE
  5
401
330
6C
100
AcDbEntity
  8
Visible (ANSI)
100
AcDbLine
 10
48.72102930446391
 20
14.77434557293754
 30
0.0
 11
52.80899038319803
 21
17.12844579329981
 31
0.0
  0
ELLIPSE
  5
402
330
6C
100
AcDbEntity
  8
Visible (ANSI)
100
AcDbEllipse
 10
48.72102930446391
 20
14.67215218233222
 30
0.0
 11
0.0623790264480287
 21
0.1083229295181588
 31
0.0
210
0.0
220
0.0
230
0.9999999999999998
 40
0.5780931159156387
 41
0.7834644549745847
 42
2.354260781769539
  0
ELLIPSE
  5
403
330
6C
100
AcDbEntity
  8
Visible (ANSI)
100
AcDbEllipse
 10
48.72102930446391
 20
9.945707866836286
 30
0.0
 11
-0.062379026448022
 21
-0.1083229295181623
 31
0.0
210
0.0
220
0.0
230
0.9999999999999998
 40
0.5780931159156387
 41
5.495853435359111
 42
7.066649762153997
  0
ELLIPSE
  5
404
330
6C
100
AcDbEntity
  8
Visible (ANSI)
100
AcDbEllipse
 10
53.19568940415935
 20
12.07539715928051
 30
0.0
 11
-0.1871370793440874
 21
-0.3249687885544789
 31
0.0
210
0.0
220
0.0
230
0.9999999999999998
 40
0.5780931159156387
 41
0.7834644549746522
 42
2.354260781769548
  0
LINE
  5
405
330
6C
100
AcDbEntity
  8
Visible (ANSI)
100
AcDbLine
 10
53.46085444710428
 20
17.84873203524512
 30
0.0
 11
53.46085444710428
 21
12.22809555195266
 31
0.0
  0
ELLIPSE
  5
406
330
6C
100
AcDbEntity
  8
Visible (ANSI)
100
AcDbEllipse
 10
53.10730105651103
 20
17.74693310679701
 30
0.0
 11
0.187137079344068
 21
0.3249687885544878
 31
0.0
210
0.0
220
0.0
230
0.9999999999999998
 40
0.5780931159156388
 41
0.0000000000000206
 42
0.7834644549744544
  0
LINE
  5
407
330
6C
100
AcDbEntity
  8
Visible Narrow (ANSI)
100
AcDbLine
 10
53.19568940415935
 20
18.00261381438892
 30
0.0
 11
53.10730105651103
 21
18.05351327861296
 31
0.0
  0
ELLIPSE
  5
408
330
6C
100
AcDbEntity
  8
Visible (ANSI)
100
AcDbEllipse
 10
53.19568940415937
 20
17.69603364257297
 30
0.0
 11
0.1871370793440672
 21
0.3249687885544889
 31
0.0
210
0.0
220
0.0
230
0.9999999999999998
 40
0.5780931159156387
 41
5.495853435359096
 42
7.066649762153998
  0
LINE
  5
409
330
6C
100
AcDbEntity
  8
Visible (ANSI)
100
AcDbLine
 10
53.10730105651103
 20
18.05351327861296
 30
0.0
 11
48.24594193585426
 21
15.25404274629026
 31
0.0
  0
LINE
  5
40A
330
6C
100
AcDbEntity
  8
Visible Narrow (ANSI)
100
AcDbLine
 10
48.33433028350259
 20
15.20314328206622
 30
0.0
 11
48.24594193585426
 21
15.25404274629026
 31
0.0
  0
LINE
  5
40B
330
6C
100
AcDbEntity
  8
Visible (ANSI)
100
AcDbLine
 10
48.33433028350259
 20
15.20314328206622
 30
0.0
 11
53.19568940415937
 21
18.00261381438893
 31
0.0
  0
ELLIPSE
  5
40C
330
6C
100
AcDbEntity
  8
Visible (ANSI)
100
AcDbEllipse
 10
48.24594193585426
 20
14.9474625744743
 30
0.0
 11
-0.1871370793440479
 21
-0.3249687885545001
 31
0.0
210
0.0
220
0.0
230
0.9999999999999998
 40
0.5780931159156387
 41
3.925057108563965
 42
5.495853435358867
  0
LINE
  5
40D
330
6C
100
AcDbEntity
  8
Visible Narrow (ANSI)
100
AcDbLine
 10
48.06916524055767
 20
14.74386471757812
 30
0.0
 11
47.98077689290933
 21
14.79476418180215
 31
0.0
  0
ELLIPSE
  5
40E
330
6C
100
AcDbEntity
  8
Visible (ANSI)
100
AcDbEllipse
 10
48.33433028350259
 20
14.89656311025027
 30
0.0
 11
0.1871370793440868
 21
0.3249687885544778
 31
0.0
210
0.0
220
0.0
230
0.9999999999999998
 40
0.5780931159156385
 41
0.7834644549746522
 42
2.354260781769541
  0
LINE
  5
40F
330
6C
100
AcDbEntity
  8
Visible (ANSI)
100
AcDbLine
 10
47.98077689290933
 20
14.79476418180215
 30
0.0
 11
47.98077689290933
 21
9.174127698509696
 31
0.0
  0
LINE
  5
410
330
6C
100
AcDbEntity
  8
Visible Narrow (ANSI)
100
AcDbLine
 10
48.06916524055766
 20
9.123228234285662
 30
0.0
 11
47.98077689290933
 21
9.174127698509696
 31
0.0
  0
LINE
  5
411
330
6C
100
AcDbEntity
  8
Visible (ANSI)
100
AcDbLine
 10
48.06916524055766
 20
9.123228234285662
 30
0.0
 11
48.06916524055767
 21
14.74386471757812
 31
0.0
  0
ELLIPSE
  5
412
330
6C
100
AcDbEntity
  8
Visible (ANSI)
100
AcDbEllipse
 10
48.24594193585424
 20
9.326826091181841
 30
0.0
 11
-0.1871370793440663
 21
-0.3249687885544871
 31
0.0
210
0.0
220
0.0
230
0.9999999999999998
 40
0.5780931159156389
 41
5.495853435359106
 42
6.283185307179586
  0
ELLIPSE
  5
413
330
6C
100
AcDbEntity
  8
Visible (ANSI)
100
AcDbEllipse
 10
48.33433028350258
 20
9.27592662695781
 30
0.0
 11
-0.187137079344068
 21
-0.3249687885544901
 31
0.0
210
0.0
220
0.0
230
1.0
 40
0.5780931159156387
 41
5.495853435359103
 42
7.066649762153998
  0
LINE
  5
414
330
6C
100
AcDbEntity
  8
Visible (ANSI)
100
AcDbLine
 10
53.19568940415935
 20
11.76881698746456
 30
0.0
 11
48.33433028350258
 21
8.969346455141856
 31
0.0
  0
LINE
  5
415
330
6C
100
AcDbEntity
  8
Visible (ANSI)
100
AcDbLine
 10
53.38282648350343
 20
18.02100243112746
 30
0.0
 11
53.29443813585509
 21
18.07190189535149
 31
0.0
  0
LINE
  5
416
330
6C
100
AcDbEntity
  8
Visible (ANSI)
100
AcDbLine
 10
48.14719320415851
 20
8.95095783840332
 30
0.0
 11
48.05880485651019
 21
9.001857302627353
 31
0.0
  0
ELLIPSE
  5
417
330
6C
100
AcDbEntity
  8
Visible (ANSI)
100
AcDbEllipse
 10
48.33433028350258
 20
12.08624486860404
 30
0.0
 11
0.0701764047540253
 21
0.1218632957079334
 31
0.0
210
0.0
220
0.0
230
1.0
 40
0.5780931159156387
 41
0.0
 42
6.283185307179586
  0
ELLIPSE
  5
418
330
6C
100
AcDbEntity
  8
Visible (ANSI)
100
AcDbEllipse
 10
48.24594193585426
 20
12.13714433282807
 30
0.0
 11
0.070176404754018
 21
0.1218632957079377
 31
0.0
210
0.0
220
0.0
230
0.9999999999999998
 40
0.5780931159156387
 41
3.819709301184824
 42
5.605068659583999
  0
ELLIPSE
  5
419
330
6C
100
AcDbEntity
  8
Visible (ANSI)
100
AcDbEllipse
 10
50.76500984383097
 20
10.67566189311916
 30
0.0
 11
0.0701764047540252
 21
0.1218632957079333
 31
0.0
210
0.0
220
0.0
230
0.9999999999999998
 40
0.5780931159156384
 41
0.0
 42
6.283185307179586
  0
ELLIPSE
  5
41A
330
6C
100
AcDbEntity
  8
Visible (ANSI)
100
AcDbEllipse
 10
50.67662149618263
 20
10.72656135734319
 30
0.0
 11
0.070176404754018
 21
0.1218632957079375
 31
0.0
210
0.0
220
0.0
230
0.9999999999999998
 40
0.5780931159156387
 41
3.819709301184825
 42
5.605068659584
  0
ELLIPSE
  5
41B
330
6C
100
AcDbEntity
  8
Visible (ANSI)
100
AcDbEllipse
 10
53.19568940415935
 20
14.88571540092674
 30
0.0
 11
0.0701764047540253
 21
0.1218632957079334
 31
0.0
210
0.0
220
0.0
230
1.0
 40
0.5780931159156387
 41
0.0
 42
6.283185307179586
  0
ELLIPSE
  5
41C
330
6C
100
AcDbEntity
  8
Visible (ANSI)
100
AcDbEllipse
 10
53.10730105651103
 20
14.93661486515077
 30
0.0
 11
0.0701764047540183
 21
0.1218632957079379
 31
0.0
210
0.0
220
0.0
230
1.0
 40
0.5780931159156388
 41
3.819709301184825
 42
5.605068659584
  0
ELLIPSE
  5
41D
330
6C
100
AcDbEntity
  8
Visible (ANSI)
100
AcDbEllipse
 10
50.76500984383097
 20
16.29629837641162
 30
0.0
 11
0.0701764047540252
 21
0.1218632957079333
 31
0.0
210
0.0
220
0.0
230
0.9999999999999998
 40
0.5780931159156384
 41
0.0
 42
6.283185307179586
  0
ELLIPSE
  5
41E
330
6C
100
AcDbEntity
  8
Visible (ANSI)
100
AcDbEllipse
 10
50.67662149618264
 20
16.34719784063566
 30
0.0
 11
0.070176404754018
 21
0.1218632957079375
 31
0.0
210
0.0
220
0.0
230
0.9999999999999998
 40
0.5780931159156388
 41
3.819709301184825
 42
5.605068659583999
  0
ELLIPSE
  5
41F
330
6C
100
AcDbEntity
  8
Visible (ANSI)
100
AcDbEllipse
 10
53.10730105651106
 20
17.54294078774361
 30
0.0
 11
0.0701764047540252
 21
0.1218632957079333
 31
0.0
210
0.0
220
0.0
230
0.9999999999999998
 40
0.5780931159156387
 41
0.0
 42
6.283185307179586
  0
ELLIPSE
  5
420
330
6C
100
AcDbEntity
  8
Visible (ANSI)
100
AcDbEllipse
 10
53.01891270886272
 20
17.59384025196764
 30
0.0
 11
0.0701764047540183
 21
0.1218632957079381
 31
0.0
210
0.0
220
0.0
230
0.9999999999999998
 40
0.5780931159156387
 41
3.819709301184825
 42
5.605068659583999
  0
ELLIPSE
  5
421
330
6C
100
AcDbEntity
  8
Visible (ANSI)
100
AcDbEllipse
 10
48.42271863115088
 20
14.845269183869
 30
0.0
 11
0.0701764047540252
 21
0.1218632957079333
 31
0.0
210
0.0
220
0.0
230
0.9999999999999998
 40
0.5780931159156387
 41
0.0
 42
6.283185307179586
  0
ELLIPSE
  5
422
330
6C
100
AcDbEntity
  8
Visible (ANSI)
100
AcDbEllipse
 10
48.33433028350256
 20
14.89616864809304
 30
0.0
 11
0.070176404754018
 21
0.1218632957079376
 31
0.0
210
0.0
220
0.0
230
0.9999999999999998
 40
0.5780931159156385
 41
3.819709301184825
 42
5.605068659583999
  0
ELLIPSE
  5
423
330
6C
100
AcDbEntity
  8
Visible (ANSI)
100
AcDbEllipse
 10
53.10730105651106
 20
12.12669108566178
 30
0.0
 11
0.0701764047540252
 21
0.1218632957079333
 31
0.0
210
0.0
220
0.0
230
0.9999999999999998
 40
0.5780931159156387
 41
0.0
 42
6.283185307179586
  0
ELLIPSE
  5
424
330
6C
100
AcDbEntity
  8
Visible (ANSI)
100
AcDbEllipse
 10
53.01891270886272
 20
12.17759054988581
 30
0.0
 11
0.0701764047540183
 21
0.1218632957079381
 31
0.0
210
0.0
220
0.0
230
0.9999999999999998
 40
0.5780931159156387
 41
3.819709301184825
 42
5.605068659583999
  0
ELLIPSE
  5
425
330
6C
100
AcDbEntity
  8
Visible (ANSI)
100
AcDbEllipse
 10
48.42271863115088
 20
9.429019481787175
 30
0.0
 11
0.0701764047540252
 21
0.1218632957079333
 31
0.0
210
0.0
220
0.0
230
0.9999999999999998
 40
0.5780931159156387
 41
0.0
 42
6.283185307179586
  0
ELLIPSE
  5
426
330
6C
100
AcDbEntity
  8
Visible (ANSI)
100
AcDbEllipse
 10
48.33433028350255
 20
9.479918946011208
 30
0.0
 11
0.070176404754018
 21
0.1218632957079376
 31
0.0
210
0.0
220
0.0
230
0.9999999999999998
 40
0.5780931159156385
 41
3.819709301184824
 42
5.605068659583999
  0
LINE
  5
427
330
6C
100
AcDbEntity
  8
Visible (ANSI)
100
AcDbLine
 10
40.23574793022408
 20
17.15397814888178
 30
0.0
 11
40.24679647368013
 21
17.14756640808412
 31
0.0
  0
LINE
  5
428
330
6C
100
AcDbEntity
  8
Visible (ANSI)
100
AcDbLine
 10
40.24679647368013
 20
17.05211778125875
 30
0.0
 11
40.23574793022408
 21
17.03298117440509
 31
0.0
  0
LINE
  5
429
330
6C
100
AcDbEntity
  8
Visible (ANSI)
100
AcDbLine
 10
40.23574793022408
 20
17.15397814888178
 30
0.0
 11
40.23574793022409
 21
19.45670181939139
 31
0.0
  0
LINE
  5
42A
330
6C
100
AcDbEntity
  8
Visible (ANSI)
100
AcDbLine
 10
40.23574793022408
 20
14.73025750389548
 30
0.0
 11
40.23574793022408
 21
17.03298117440509
 31
0.0
  0
LINE
  5
42B
330
6C
100
AcDbEntity
  8
Visible (ANSI)
100
AcDbLine
 10
40.32413627787239
 20
19.60979467422076
 30
0.0
 11
41.70199029219293
 21
20.40324803061706
 31
0.0
  0
ELLIPSE
  5
42C
330
6C
100
AcDbEntity
  8
Visible (ANSI)
100
AcDbEllipse
 10
40.32413627787239
 20
19.50760128361544
 30
0.0
 11
0.0623790264480293
 21
0.1083229295181583
 31
0.0
210
0.0
220
0.0
230
0.9999999999999998
 40
0.5780931159156383
 41
0.783464454974693
 42
2.354260781769571
  0
ELLIPSE
  5
42D
330
6C
100
AcDbEntity
  8
Visible (ANSI)
100
AcDbEllipse
 10
40.32413627787239
 20
14.78115696811953
 30
0.0
 11
-0.0623790264480229
 21
-0.1083229295181623
 31
0.0
210
0.0
220
0.0
230
0.9999999999999998
 40
0.5780931159156381
 41
5.495853435359104
 42
6.759547398134007
  0
LINE
  5
42E
330
6C
100
AcDbEntity
  8
Visible (ANSI)
100
AcDbLine
 10
41.34577875978976
 20
20.95140124521372
 30
0.0
 11
39.84904890926273
 21
20.08949184757347
 31
0.0
  0
LINE
  5
42F
330
6C
100
AcDbEntity
  8
Visible Narrow (ANSI)
100
AcDbLine
 10
39.93743725691107
 20
20.03859238334944
 30
0.0
 11
39.84904890926273
 21
20.08949184757347
 31
0.0
  0
LINE
  5
430
330
6C
100
AcDbEntity
  8
Visible (ANSI)
100
AcDbLine
 10
39.93743725691107
 20
20.03859238334944
 30
0.0
 11
41.28601003605351
 21
20.81518379784913
 31
0.0
  0
ELLIPSE
  5
431
330
6C
100
AcDbEntity
  8
Visible (ANSI)
100
AcDbEllipse
 10
39.84904890926273
 20
19.78291167575752
 30
0.0
 11
-0.1871370793440496
 21
-0.3249687885544985
 31
0.0
210
0.0
220
0.0
230
0.9999999999999998
 40
0.5780931159156381
 41
3.925057108563972
 42
5.495853435358866
  0
LINE
  5
432
330
6C
100
AcDbEntity
  8
Visible Narrow (ANSI)
100
AcDbLine
 10
39.67227221396615
 20
19.57931381886133
 30
0.0
 11
39.58388386631782
 21
19.63021328308537
 31
0.0
  0
ELLIPSE
  5
433
330
6C
100
AcDbEntity
  8
Visible (ANSI)
100
AcDbEllipse
 10
39.93743725691107
 20
19.73201221153348
 30
0.0
 11
0.1871370793440885
 21
0.3249687885544761
 31
0.0
210
0.0
220
0.0
230
0.9999999999999998
 40
0.5780931159156381
 41
0.7834644549746761
 42
2.354260781769554
  0
LINE
  5
434
330
6C
100
AcDbEntity
  8
Visible (ANSI)
100
AcDbLine
 10
39.58388386631782
 20
19.63021328308537
 30
0.0
 11
39.58388386631781
 21
14.00957679979294
 31
0.0
  0
LINE
  5
435
330
6C
100
AcDbEntity
  8
Visible Narrow (ANSI)
100
AcDbLine
 10
39.67227221396614
 20
13.9586773355689
 30
0.0
 11
39.58388386631781
 21
14.00957679979294
 31
0.0
  0
LINE
  5
436
330
6C
100
AcDbEntity
  8
Visible (ANSI)
100
AcDbLine
 10
39.67227221396614
 20
13.9586773355689
 30
0.0
 11
39.67227221396615
 21
19.57931381886133
 31
0.0
  0
ELLIPSE
  5
437
330
6C
100
AcDbEntity
  8
Visible (ANSI)
100
AcDbEllipse
 10
39.84904890926272
 20
14.16227519246508
 30
0.0
 11
-0.1871370793440659
 21
-0.3249687885544819
 31
0.0
210
0.0
220
0.0
230
1.0
 40
0.5780931159156381
 41
5.495853435359097
 42
6.283185307179587
  0
ELLIPSE
  5
438
330
6C
100
AcDbEntity
  8
Visible (ANSI)
100
AcDbEllipse
 10
39.93743725691106
 20
14.11137572824105
 30
0.0
 11
-0.1871370793440696
 21
-0.3249687885544885
 31
0.0
210
0.0
220
0.0
230
0.9999999999999998
 40
0.5780931159156382
 41
5.49585343535911
 42
7.066649762154005
  0
LINE
  5
439
330
6C
100
AcDbEntity
  8
Visible (ANSI)
100
AcDbLine
 10
40.86722721148059
 20
14.34022598122273
 30
0.0
 11
39.93743725691106
 21
13.8047955564251
 31
0.0
  0
LINE
  5
43A
330
6C
100
AcDbEntity
  8
Visible (ANSI)
100
AcDbLine
 10
39.75030017756699
 20
13.78640693968656
 30
0.0
 11
39.66191182991866
 21
13.8373064039106
 31
0.0
  0
ELLIPSE
  5
43B
330
6C
100
AcDbEntity
  8
Visible (ANSI)
100
AcDbEllipse
 10
39.93743725691106
 20
16.92169396988727
 30
0.0
 11
0.070176404754026
 21
0.1218632957079329
 31
0.0
210
0.0
220
0.0
230
0.9999999999999998
 40
0.5780931159156381
 41
0.0
 42
6.283185307179586
  0
ELLIPSE
  5
43C
330
6C
100
AcDbEntity
  8
Visible (ANSI)
100
AcDbEllipse
 10
39.84904890926273
 20
16.9725934341113
 30
0.0
 11
0.0701764047540187
 21
0.121863295707937
 31
0.0
210
0.0
220
0.0
230
0.9999999999999998
 40
0.5780931159156381
 41
3.819709301184786
 42
5.605068659583949
  0
ELLIPSE
  5
43D
330
6C
100
AcDbEntity
  8
Visible (ANSI)
100
AcDbEllipse
 10
40.02582560455937
 20
19.68071828515222
 30
0.0
 11
0.0701764047540259
 21
0.1218632957079328
 31
0.0
210
0.0
220
0.0
230
0.9999999999999998
 40
0.5780931159156381
 41
0.0
 42
6.283185307179586
  0
ELLIPSE
  5
43E
330
6C
100
AcDbEntity
  8
Visible (ANSI)
100
AcDbEllipse
 10
39.93743725691104
 20
19.73161774937625
 30
0.0
 11
0.0701764047540187
 21
0.121863295707937
 31
0.0
210
0.0
220
0.0
230
0.9999999999999998
 40
0.5780931159156381
 41
3.819709301184786
 42
5.605068659583987
  0
ELLIPSE
  5
43F
330
6C
100
AcDbEntity
  8
Visible (ANSI)
100
AcDbEllipse
 10
40.02582560455937
 20
14.26446858307041
 30
0.0
 11
0.0701764047540259
 21
0.1218632957079328
 31
0.0
210
0.0
220
0.0
230
0.9999999999999998
 40
0.5780931159156381
 41
0.0
 42
6.283185307179586
  0
ELLIPSE
  5
440
330
6C
100
AcDbEntity
  8
Visible (ANSI)
100
AcDbEllipse
 10
39.93743725691103
 20
14.31536804729445
 30
0.0
 11
0.0701764047540187
 21
0.121863295707937
 31
0.0
210
0.0
220
0.0
230
0.9999999999999998
 40
0.5780931159156381
 41
3.819709301184786
 42
5.605068659583987
  0
MTEXT
  5
441
330
6C
100
AcDbEntity
  8
Symbol (ANSI)
100
AcDbMText
 10
46.39867386202298
 20
8.955661634801675
 30
0.0
 40
0.5759999883456493
 41
0.0
 46
0.0
 71
     7
 72
     1
  1
 
  7
Label Text (ANSI)
 73
     1
 44
1.0
  0
DIMENSION
  5
442
330
6C
100
AcDbEntity
  8
Dimension (ANSI)
100
AcDbDimension
280
     0
  2
*D5
 10
5.593479012210999
 20
31.39092716265608
 30
0.0
 11
5.593479012210994
 21
28.39092716265608
 31
0.0
 70
   160
  1
<>{\PTYP.}
 71
     5
 42
5.999999999999996
 73
     0
 74
     0
 75
     0
  3
Default (ANSI)
100
AcDbAlignedDimension
 13
6.853321531896033
 23
25.39092716265608
 33
0.0
 14
6.853321531896034
 24
31.39092716265608
 34
0.0
 50
270.0
100
AcDbRotatedDimension
1001
ACAD
1000
DSTYLE
1002
{
1070
   289
1070
     1
1070
   271
1070
     2
1070
   272
1070
     2
1070
    48
1040
0.0
1070
    47
1040
0.0
1002
}
  0
DIMENSION
  5
540
330
6C
100
AcDbEntity
  8
Dimension (ANSI)
100
AcDbDimension
280
     0
  2
*D6
 10
6.790821531892403
 20
7.474043484030406
 30
0.0
 11
4.604874767819817
 21
7.474043484030406
 31
0.0
 70
   160
  1
{10 GA. 304\PS.S. (3 PL.)\P}(<>)
 71
     5
 42
0.1250000000000009
 73
     0
 74
     0
 75
     0
  3
Default (ANSI)
100
AcDbAlignedDimension
 13
6.915821531892404
 23
8.944455693836607
 33
0.0
 14
6.790821531892403
 24
8.944455693836607
 34
0.0
 50
180.0
100
AcDbRotatedDimension
1001
ACAD
1000
DSTYLE
1002
{
1070
   289
1070
     1
1070
    73
1070
     0
1070
    74
1070
     0
1070
   271
1070
     3
1070
   147
1040
0.031496062992126
1070
    72
1070
     0
1070
    71
1070
     0
1070
   272
1070
     2
1070
    48
1040
0.0
1070
    47
1040
0.0
1002
}
  0
DIMENSION
  5
648
330
6C
100
AcDbEntity
  8
Dimension (ANSI)
100
AcDbDimension
280
     0
  2
*D7
 10
28.78959052976205
 20
7.372825675591348
 30
0.0
 11
32.60209052976204
 21
7.372825675591348
 31
0.0
 70
   160
  1
(<>)
 42
7.624999999999975
 73
     0
 74
     0
 75
     0
  3
Default (ANSI)
100
AcDbAlignedDimension
 13
36.41459052976202
 23
9.319455693836593
 33
0.0
 14
28.78959052976205
 24
9.319455693836593
 34
0.0
100
AcDbRotatedDimension
1001
ACAD
1000
DSTYLE
1002
{
1070
   289
1070
     1
1070
    73
1070
     0
1070
    74
1070
     0
1070
   271
1070
     2
1070
   147
1040
0.031496062992126
1070
    72
1070
     0
1070
    71
1070
     0
1070
   272
1070
     2
1070
    48
1040
0.0
1070
    47
1040
0.0
1002
}
  0
LINE
  5
73C
330
6C
100
AcDbEntity
  8
Centerline (ANSI)
  6
CHAIN
 48
0.9524481296539306
100
AcDbLine
 10
32.60209052976204
 20
16.59445569383659
 30
0.0
 11
32.60209052976203
 21
8.919455693836594
 31
0.0
  0
LINE
  5
73D
330
6C
100
AcDbEntity
  8
Centerline (ANSI)
  6
CHAIN
 48
0.9524481296539306
100
AcDbLine
 10
28.76459052976205
 20
12.75695569383659
 30
0.0
 11
36.43959052976202
 21
12.75695569383659
 31
0.0
  0
DIMENSION
  5
73E
330
6C
100
AcDbEntity
  8
Dimension (ANSI)
100
AcDbDimension
280
     0
  2
*D8
 10
32.60209052976204
 20
8.374488626912768
 30
0.0
 11
34.50834052976203
 21
8.374488626912768
 31
0.0
 70
   160
  1
(<>)
 42
3.812499999999985
 73
     0
 74
     0
 75
     0
  3
Default (ANSI)
100
AcDbAlignedDimension
 13
36.41459052976202
 23
9.319455693836593
 33
0.0
 14
32.60209052976204
 24
8.919455693836594
 34
0.0
100
AcDbRotatedDimension
1001
ACAD
1000
DSTYLE
1002
{
1070
   289
1070
     1
1070
    73
1070
     0
1070
    74
1070
     0
1070
   271
1070
     2
1070
   147
1040
0.031496062992126
1070
    72
1070
     0
1070
    71
1070
     0
1070
   272
1070
     2
1070
    48
1040
0.0
1070
    47
1040
0.0
1002
}
  0
DIMENSION
  5
832
330
6C
100
AcDbEntity
  8
Dimension (ANSI)
100
AcDbDimension
280
     0
  2
*D9
 10
36.40884918568972
 20
16.56945569383659
 30
0.0
 11
37.51031150598421
 21
17.92460605178575
 31
0.0
 70
   160
  1
(<>){\PTYP.}
 71
     5
 42
0.886500000000165
 73
     0
 74
     0
 75
     0
  3
Default (ANSI)
100
AcDbAlignedDimension
 13
35.52809052976195
 23
15.68295569383642
 33
0.0
 14
36.03959052976203
 24
16.56945569383659
 34
0.0
 50
90.0
100
AcDbRotatedDimension
1001
ACAD
1000
DSTYLE
1002
{
1070
   289
1070
     1
1070
   271
1070
     2
1070
   147
1040
0.031496062992126
1070
    72
1070
     0
1070
    71
1070
     0
1070
   272
1070
     2
1070
    48
1040
0.0
1070
    47
1040
0.0
1002
}
  0
DIMENSION
  5
94E
330
6C
100
AcDbEntity
  8
Dimension (ANSI)
100
AcDbDimension
280
     0
  2
*D10
 10
26.39293698645497
 20
8.944455693836593
 30
0.0
 11
26.39293698645496
 21
12.75695569383659
 31
0.0
 70
   160
  1
(<>)
 42
7.625
 73
     0
 74
     0
 75
     0
  3
Default (ANSI)
100
AcDbAlignedDimension
 13
29.16459052976205
 23
16.56945569383659
 33
0.0
 14
29.16459052976204
 24
8.944455693836591
 34
0.0
 50
90.0
100
AcDbRotatedDimension
1001
ACAD
1000
DSTYLE
1002
{
1070
   289
1070
     1
1070
   271
1070
     2
1070
   147
1040
0.031496062992126
1070
    72
1070
     0
1070
    71
1070
     0
1070
   272
1070
     2
1070
    48
1040
0.0
1070
    47
1040
0.0
1002
}
  0
DIMENSION
  5
A42
330
6C
100
AcDbEntity
  8
Dimension (ANSI)
100
AcDbDimension
280
     0
  2
*D11
 10
27.87078315614531
 20
12.75695569383659
 30
0.0
 11
27.87078315614531
 21
14.66320569383659
 31
0.0
 70
   160
  1
(<>)
 42
3.8125
 73
     0
 74
     0
 75
     0
  3
Default (ANSI)
100
AcDbAlignedDimension
 13
29.16459052976205
 23
16.56945569383659
 33
0.0
 14
28.76459052976205
 24
12.75695569383659
 34
0.0
 50
90.0
100
AcDbRotatedDimension
1001
ACAD
1000
DSTYLE
1002
{
1070
   289
1070
     1
1070
   271
1070
     2
1070
   147
1040
0.031496062992126
1070
    72
1070
     0
1070
    71
1070
     0
1070
   272
1070
     2
1070
    48
1040
0.0
1070
    47
1040
0.0
1002
}
  0
MTEXT
  5
B36
102
{ACAD_XDICTIONARY
360
11AF
102
}
330
6C
100
AcDbEntity
  8
Symbol (ANSI)
100
AcDbMText
 10
20.4497763169755
 20
29.70320674343453
 30
0.0
 40
0.3200000102125753
 41
23.47993475599085
 46
0.0
 71
     4
 72
     1
  3
{\fRomanS|b0|i0|c0|p2;\H1.95x;PART#: SSJWT6\P(DATA SUBJECT TO CHANGE WITHOUT NOTICE)\H1.8838x; \H0.53084x;\P\H0.51282x; \H2.4865x; \H0.40217x;\PTHIS DRAWING IS PROPERTY OF hUBBELL INC. WEIGMANN\H1.7129x; \H0.58382x;\PALL INFORMATION IS PROPRIETARY AN
  1
D NOT TO BE DUPLICATED\H1.6009x; \H0.62466x;\P\H1.5846x; \H0.63106x;\P\H1.5823x; }
  7
Note Text (ANSI)
 73
     1
 44
0.6414121389389038
  0
LINE
  5
B38
330
6C
100
AcDbEntity
  8
Centerline (ANSI)
  6
CHAIN
 48
0.9524481296539306
100
AcDbLine
 10
12.7908215318924
 20
19.4933500382661
 30
0.0
 11
12.7908215318924
 21
8.919455693836599
 31
0.0
  0
LINE
  5
B39
330
6C
100
AcDbEntity
  8
Centerline (ANSI)
  6
CHAIN
 48
0.9524481296539306
100
AcDbLine
 10
19.28375871108458
 20
12.75695569383659
 30
0.0
 11
6.390821531892405
 21
12.75695569383659
 31
0.0
  0
DIMENSION
  5
B3A
330
6C
100
AcDbEntity
  8
Dimension (ANSI)
100
AcDbDimension
280
     0
  2
*D12
 10
3.81786050536509
 20
18.7569556938366
 30
0.0
 11
3.817860505365087
 21
14.2569556938366
 31
0.0
 70
   160
  1
<>
 42
8.999999999999994
 73
     0
 74
     0
 75
     0
  3
Default (ANSI)
100
AcDbAlignedDimension
 13
6.853321531892404
 23
9.756955693836605
 33
0.0
 14
8.97832153189242
 24
18.7569556938366
 34
0.0
 50
90.0
100
AcDbRotatedDimension
1001
ACAD
1000
DSTYLE
1002
{
1070
   289
1070
     1
1070
   271
1070
     1
1070
   272
1070
     1
1070
    48
1040
0.0
1070
    47
1040
0.0
1002
}
  0
DIMENSION
  5
C24
330
6C
100
AcDbEntity
  8
Dimension (ANSI)
100
AcDbDimension
280
     0
  2
*D13
 10
12.7908215318924
 20
20.40458260478612
 30
0.0
 11
11.2908215318924
 21
20.40458260478612
 31
0.0
 70
   160
  1
<>
 42
2.999999999999994
 73
     0
 74
     0
 75
     0
  3
Default (ANSI)
100
AcDbAlignedDimension
 13
9.790821531892408
 23
18.63195569383659
 33
0.0
 14
12.7908215318924
 24
19.4933500382661
 34
0.0
 50
180.0
100
AcDbRotatedDimension
1001
ACAD
1000
DSTYLE
1002
{
1070
   289
1070
     1
1070
    73
1070
     0
1070
    74
1070
     0
1070
   271
1070
     2
1070
   272
1070
     2
1070
    48
1040
0.0
1070
    47
1040
0.0
1002
}
  0
DIMENSION
  5
D0E
330
6C
100
AcDbEntity
  8
Dimension (ANSI)
100
AcDbDimension
280
     0
  2
*D14
 10
15.7908215318924
 20
21.33170512577782
 30
0.0
 11
12.79082153189241
 21
21.33170512577782
 31
0.0
 70
   160
  1
<>
 42
5.999999999999992
 73
     0
 74
     0
 75
     0
  3
Default (ANSI)
100
AcDbAlignedDimension
 13
9.790821531892408
 23
18.68866752310599
 33
0.0
 14
15.7908215318924
 24
18.68866752310599
 34
0.0
 50
180.0
100
AcDbRotatedDimension
1001
ACAD
1000
DSTYLE
1002
{
1070
   289
1070
     1
1070
    73
1070
     0
1070
    74
1070
     0
1070
   271
1070
     2
1070
   272
1070
     2
1070
    48
1040
0.0
1070
    47
1040
0.0
1002
}
  0
DIMENSION
  5
DF8
330
6C
100
AcDbEntity
  8
Dimension (ANSI)
100
AcDbDimension
280
     0
  2
*D15
 10
20.22553631415418
 20
18.7569556938366
 30
0.0
 11
20.22553631415417
 21
15.75695569383659
 31
0.0
 70
   160
  1
(<>)
 42
6.000000000000007
 73
     0
 74
     0
 75
     0
  3
Default (ANSI)
100
AcDbAlignedDimension
 13
19.28375871108458
 23
12.75695569383659
 33
0.0
 14
16.60332153189236
 24
18.7569556938366
 34
0.0
 50
90.0
100
AcDbRotatedDimension
1001
ACAD
1000
DSTYLE
1002
{
1070
   289
1070
     1
1070
   271
1070
     1
1070
   147
1040
0.031496062992126
1070
    72
1070
     0
1070
    71
1070
     0
1070
   272
1070
     1
1070
    48
1040
0.0
1070
    47
1040
0.0
1002
}
  0
DIMENSION
  5
EEC
330
6C
100
AcDbEntity
  8
Dimension (ANSI)
100
AcDbDimension
280
     0
  2
*D16
 10
12.7908215318924
 20
7.474043484030406
 30
0.0
 11
9.853321531892403
 21
7.474043484030406
 31
0.0
 70
   160
  1
<>
 42
5.874999999999999
 73
     0
 74
     0
 75
     0
  3
Default (ANSI)
100
AcDbAlignedDimension
 13
6.915821531892404
 23
8.944455693836607
 33
0.0
 14
12.7908215318924
 24
8.919455693836599
 34
0.0
100
AcDbRotatedDimension
1001
ACAD
1000
DSTYLE
1002
{
1070
   289
1070
     1
1070
    73
1070
     0
1070
    74
1070
     0
1070
   271
1070
     2
1070
   272
1070
     2
1070
    48
1040
0.0
1070
    47
1040
0.0
1002
}
  0
DIMENSION
  5
FD6
330
6C
100
AcDbEntity
  8
Dimension (ANSI)
100
AcDbDimension
280
     0
  2
*D17
 10
18.7908215318924
 20
5.811962434560894
 30
0.0
 11
12.7908215318924
 21
5.811962434560894
 31
0.0
 70
   160
  1
<>
 42
12.0
 73
     0
 74
     0
 75
     0
  3
Default (ANSI)
100
AcDbAlignedDimension
 13
6.790821531892403
 23
8.944455693836603
 33
0.0
 14
18.7908215318924
 24
9.319455693836589
 34
0.0
 50
180.0
100
AcDbRotatedDimension
1001
ACAD
1000
DSTYLE
1002
{
1070
   289
1070
     1
1070
    73
1070
     0
1070
    74
1070
     0
1070
   271
1070
     1
1070
   272
1070
     1
1070
    48
1040
0.0
1070
    47
1040
0.0
1002
}
  0
DIMENSION
  5
10C0
330
6C
100
AcDbEntity
  8
Dimension (ANSI)
100
AcDbDimension
280
     0
  2
*D18
 10
18.6658215318924
 20
6.642103655489497
 30
0.0
 11
12.7908215318924
 21
6.642103655489497
 31
0.0
 70
   160
  1
<>
 42
11.75
 73
     0
 74
     0
 75
     0
  3
Default (ANSI)
100
AcDbAlignedDimension
 13
6.915821531892404
 23
8.944455693836607
 33
0.0
 14
18.6658215318924
 24
8.944455693836587
 34
0.0
100
AcDbRotatedDimension
1001
ACAD
1000
DSTYLE
1002
{
1070
   289
1070
     1
1070
    73
1070
     0
1070
    74
1070
     0
1070
   271
1070
     2
1070
   272
1070
     2
1070
    48
1040
0.0
1070
    47
1040
0.0
1002
}
  0
ENDSEC
  0
SECTION
  2
OBJECTS
  0
DICTIONARY
  5
C
330
0
100
AcDbDictionary
281
     1
  3
ACAD_CIP_PREVIOUS_PRODUCT_INFO
350
11AA
  3
ACAD_COLOR
350
63
  3
ACAD_GROUP
350
D
  3
ACAD_LAYOUT
350
62
  3
ACAD_MATERIAL
350
10
  3
ACAD_MLEADERSTYLE
350
66
  3
ACAD_MLINESTYLE
350
5F
  3
ACAD_PLOTSETTINGS
350
61
  3
ACAD_PLOTSTYLENAME
350
E
  3
ACAD_SCALELIST
350
42
  3
ACAD_TABLESTYLE
350
64
  3
ACAD_VISUALSTYLE
350
29
  3
ACDB_RECOMPOSE_DATA
350
11B1
  3
AcDbVariableDictionary
350
76
  0
DICTIONARY
  5
11AF
330
B36
100
AcDbDictionary
280
     1
281
     1
  3
ACAD_MTEXT_2008_RT
360
11B0
  0
XRECORD
  5
11AA
102
{ACAD_REACTORS
330
C
102
}
330
C
100
AcDbXrecord
280
     1
300
INVNTOR
300
2012
300
85795PDSP_2012_0F
  0
DICTIONARY
  5
63
102
{ACAD_REACTORS
330
C
102
}
330
C
100
AcDbDictionary
281
     1
  0
DICTIONARY
  5
D
102
{ACAD_REACTORS
330
C
102
}
330
C
100
AcDbDictionary
281
     1
  0
DICTIONARY
  5
62
102
{ACAD_REACTORS
330
C
102
}
330
C
100
AcDbDictionary
281
     1
  3
Layout1
350
6B
  3
Layout2
350
73
  3
Model
350
6F
  0
DICTIONARY
  5
10
102
{ACAD_REACTORS
330
C
102
}
330
C
100
AcDbDictionary
281
     1
  3
ByBlock
350
19
  3
ByLayer
350
11
  3
Global
350
21
  0
DICTIONARY
  5
66
102
{ACAD_REACTORS
330
C
102
}
330
C
100
AcDbDictionary
281
     1
  3
Standard
350
67
  0
DICTIONARY
  5
5F
102
{ACAD_REACTORS
330
C
102
}
330
C
100
AcDbDictionary
281
     1
  3
Standard
350
60
  0
DICTIONARY
  5
61
102
{ACAD_REACTORS
330
C
102
}
330
C
100
AcDbDictionary
281
     1
  0
ACDBDICTIONARYWDFLT
  5
E
102
{ACAD_REACTORS
330
C
102
}
330
C
100
AcDbDictionary
281
     1
  3
Normal
350
F
100
AcDbDictionaryWithDefault
340
F
  0
DICTIONARY
  5
42
102
{ACAD_REACTORS
330
C
102
}
330
C
100
AcDbDictionary
281
     1
  3
A0
350
43
  3
A1
350
44
  3
A2
350
45
  3
A3
350
46
  3
A4
350
47
  3
A5
350
48
  3
A6
350
49
  3
A7
350
4A
  3
A8
350
4B
  3
A9
350
4C
  3
B0
350
4D
  3
B1
350
4E
  3
B2
350
4F
  3
B3
350
50
  3
B4
350
51
  3
B5
350
52
  3
B6
350
53
  0
DICTIONARY
  5
64
102
{ACAD_REACTORS
330
C
102
}
330
C
100
AcDbDictionary
281
     1
  3
Standard
350
65
  0
DICTIONARY
  5
29
102
{ACAD_REACTORS
330
C
102
}
330
C
100
AcDbDictionary
281
     1
  3
2dWireframe
350
2F
  3
Basic
350
2E
  3
Brighten
350
35
  3
ColorChange
350
39
  3
Conceptual
350
32
  3
Dim
350
34
  3
EdgeColorOff
350
41
  3
Facepattern
350
38
  3
Flat
350
2A
  3
FlatWithEdges
350
2B
  3
Gouraud
350
2C
  3
GouraudWithEdges
350
2D
  3
Hidden
350
31
  3
JitterOff
350
3F
  3
Linepattern
350
37
  3
OverhangOff
350
40
  3
Realistic
350
33
  3
Shaded
350
3E
  3
Shaded with edges
350
3D
  3
Shades of Gray
350
3A
  3
Sketchy
350
3B
  3
Thicken
350
36
  3
Wireframe
350
30
  3
X-Ray
350
3C
  0
XRECORD
  5
11B1
102
{ACAD_REACTORS
330
C
102
}
330
C
100
AcDbXrecord
280
     1
 90
        1
330
65
330
B36
  0
DICTIONARY
  5
76
102
{ACAD_REACTORS
330
C
102
}
330
C
100
AcDbDictionary
281
     1
  3
CANNOSCALE
350
79
  3
CMLEADERSTYLE
350
78
  3
CTABLESTYLE
350
77
  0
XRECORD
  5
11B0
102
{ACAD_REACTORS
330
11AF
102
}
330
11AF
100
AcDbXrecord
280
     1
 40
3705125.0
  1
\pxsm0.94;{\fRomanS|b0|i0;\H0.6240;PART#: SSJWT6\P(DATA SUBJECT TO CHANGE WITHOUT NOTICE)\P\fRomanS|b0|i0;\H0.3200; \PTHIS DRAWING IS PROPERTY OF hUBBELL INC. WEIGMANN\PALL INFORMATION IS PROPRIETARY AND NOT TO BE DUPLICATED\P\P}
  0
LAYOUT
  5
6B
102
{ACAD_REACTORS
330
62
102
}
330
62
100
AcDbPlotSettings
  1

  2

  4

  6

 40
0.0
 41
0.0
 42
0.0
 43
0.0
 44
0.0
 45
0.0
 46
0.0
 47
0.0
 48
0.0
 49
0.0
140
0.0
141
0.0
142
1.0
143
1.0
 70
   688
 72
     0
 73
     0
 74
     5
  7

 75
    16
147
1.0
 76
     0
 77
     2
 78
   300
148
0.0
149
0.0
100
AcDbLayout
  1
Layout1
 70
     1
 71
     1
 10
0.0
 20
0.0
 11
12.0
 21
9.0
 12
0.0
 22
0.0
 32
0.0
 14
0.0
 24
0.0
 34
0.0
 15
0.0
 25
0.0
 35
0.0
146
0.0
 13
0.0
 23
0.0
 33
0.0
 16
1.0
 26
0.0
 36
0.0
 17
0.0
 27
1.0
 37
0.0
 76
     0
330
68
  0
LAYOUT
  5
73
102
{ACAD_REACTORS
330
62
102
}
330
62
100
AcDbPlotSettings
  1

  2

  4

  6

 40
0.0
 41
0.0
 42
0.0
 43
0.0
 44
0.0
 45
0.0
 46
0.0
 47
0.0
 48
0.0
 49
0.0
140
0.0
141
0.0
142
1.0
143
1.0
 70
   688
 72
     0
 73
     0
 74
     5
  7

 75
    16
147
1.0
 76
     0
 77
     2
 78
   300
148
0.0
149
0.0
100
AcDbLayout
  1
Layout2
 70
     1
 71
     2
 10
0.0
 20
0.0
 11
12.0
 21
9.0
 12
0.0
 22
0.0
 32
0.0
 14
0.0
 24
0.0
 34
0.0
 15
0.0
 25
0.0
 35
0.0
146
0.0
 13
0.0
 23
0.0
 33
0.0
 16
1.0
 26
0.0
 36
0.0
 17
0.0
 27
1.0
 37
0.0
 76
     0
330
70
  0
LAYOUT
  5
6F
102
{ACAD_REACTORS
330
62
102
}
330
62
100
AcDbPlotSettings
  1

  2

  4

  6

 40
0.0
 41
0.0
 42
0.0
 43
0.0
 44
0.0
 45
0.0
 46
0.0
 47
0.0
 48
0.0
 49
0.0
140
0.0
141
0.0
142
1.0
143
1.0
 70
  1712
 72
     0
 73
     0
 74
     0
  7

 75
     0
147
1.0
 76
     0
 77
     2
 78
   300
148
0.0
149
0.0
100
AcDbLayout
  1
Model
 70
     1
 71
     0
 10
0.0
 20
0.0
 11
12.0
 21
9.0
 12
0.0
 22
0.0
 32
0.0
 14
0.0
 24
0.0
 34
0.0
 15
0.0
 25
0.0
 35
0.0
146
0.0
 13
0.0
 23
0.0
 33
0.0
 16
1.0
 26
0.0
 36
0.0
 17
0.0
 27
1.0
 37
0.0
 76
     0
330
6C
  0
MATERIAL
  5
19
102
{ACAD_XDICTIONARY
360
1A
102
}
102
{ACAD_REACTORS
330
10
102
}
330
10
100
AcDbMaterial
  1
ByBlock
 72
     0
 43
0.0208333333333333
 43
0.0
 43
0.0
 43
0.0
 43
0.0
 43
0.0208333333333333
 43
0.0
 43
0.0
 43
0.0
 43
0.0
 43
1.0
 43
0.0
 43
0.0
 43
0.0
 43
0.0
 43
1.0
 77
     0
 47
0.0208333333333333
 47
0.0
 47
0.0
 47
0.0
 47
0.0
 47
0.0208333333333333
 47
0.0
 47
0.0
 47
0.0
 47
0.0
 47
1.0
 47
0.0
 47
0.0
 47
0.0
 47
0.0
 47
1.0
171
     0
 49
0.0208333333333333
 49
0.0
 49
0.0
 49
0.0
 49
0.0
 49
0.0208333333333333
 49
0.0
 49
0.0
 49
0.0
 49
0.0
 49
1.0
 49
0.0
 49
0.0
 49
0.0
 49
0.0
 49
1.0
175
     0
142
0.0208333333333333
142
0.0
142
0.0
142
0.0
142
0.0
142
0.0208333333333333
142
0.0
142
0.0
142
0.0
142
0.0
142
1.0
142
0.0
142
0.0
142
0.0
142
0.0
142
1.0
179
     0
144
0.0208333333333333
144
0.0
144
0.0
144
0.0
144
0.0
144
0.0208333333333333
144
0.0
144
0.0
144
0.0
144
0.0
144
1.0
144
0.0
144
0.0
144
0.0
144
0.0
144
1.0
147
0.0208333333333333
147
0.0
147
0.0
147
0.0
147
0.0
147
0.0208333333333333
147
0.0
147
0.0
147
0.0
147
0.0
147
1.0
147
0.0
147
0.0
147
0.0
147
0.0
147
1.0
  0
MATERIAL
  5
11
102
{ACAD_XDICTIONARY
360
12
102
}
102
{ACAD_REACTORS
330
10
102
}
330
10
100
AcDbMaterial
  1
ByLayer
 72
     0
 43
0.0208333333333333
 43
0.0
 43
0.0
 43
0.0
 43
0.0
 43
0.0208333333333333
 43
0.0
 43
0.0
 43
0.0
 43
0.0
 43
1.0
 43
0.0
 43
0.0
 43
0.0
 43
0.0
 43
1.0
 77
     0
 47
0.0208333333333333
 47
0.0
 47
0.0
 47
0.0
 47
0.0
 47
0.0208333333333333
 47
0.0
 47
0.0
 47
0.0
 47
0.0
 47
1.0
 47
0.0
 47
0.0
 47
0.0
 47
0.0
 47
1.0
171
     0
 49
0.0208333333333333
 49
0.0
 49
0.0
 49
0.0
 49
0.0
 49
0.0208333333333333
 49
0.0
 49
0.0
 49
0.0
 49
0.0
 49
1.0
 49
0.0
 49
0.0
 49
0.0
 49
0.0
 49
1.0
175
     0
142
0.0208333333333333
142
0.0
142
0.0
142
0.0
142
0.0
142
0.0208333333333333
142
0.0
142
0.0
142
0.0
142
0.0
142
1.0
142
0.0
142
0.0
142
0.0
142
0.0
142
1.0
179
     0
144
0.0208333333333333
144
0.0
144
0.0
144
0.0
144
0.0
144
0.0208333333333333
144
0.0
144
0.0
144
0.0
144
0.0
144
1.0
144
0.0
144
0.0
144
0.0
144
0.0
144
1.0
147
0.0208333333333333
147
0.0
147
0.0
147
0.0
147
0.0
147
0.0208333333333333
147
0.0
147
0.0
147
0.0
147
0.0
147
1.0
147
0.0
147
0.0
147
0.0
147
0.0
147
1.0
  0
MATERIAL
  5
21
102
{ACAD_XDICTIONARY
360
22
102
}
102
{ACAD_REACTORS
330
10
102
}
330
10
100
AcDbMaterial
  1
Global
 72
     0
 43
0.0208333333333333
 43
0.0
 43
0.0
 43
0.0
 43
0.0
 43
0.0208333333333333
 43
0.0
 43
0.0
 43
0.0
 43
0.0
 43
1.0
 43
0.0
 43
0.0
 43
0.0
 43
0.0
 43
1.0
 77
     0
 47
0.0208333333333333
 47
0.0
 47
0.0
 47
0.0
 47
0.0
 47
0.0208333333333333
 47
0.0
 47
0.0
 47
0.0
 47
0.0
 47
1.0
 47
0.0
 47
0.0
 47
0.0
 47
0.0
 47
1.0
171
     0
 49
0.0208333333333333
 49
0.0
 49
0.0
 49
0.0
 49
0.0
 49
0.0208333333333333
 49
0.0
 49
0.0
 49
0.0
 49
0.0
 49
1.0
 49
0.0
 49
0.0
 49
0.0
 49
0.0
 49
1.0
175
     0
142
0.0208333333333333
142
0.0
142
0.0
142
0.0
142
0.0
142
0.0208333333333333
142
0.0
142
0.0
142
0.0
142
0.0
142
1.0
142
0.0
142
0.0
142
0.0
142
0.0
142
1.0
179
     0
144
0.0208333333333333
144
0.0
144
0.0
144
0.0
144
0.0
144
0.0208333333333333
144
0.0
144
0.0
144
0.0
144
0.0
144
1.0
144
0.0
144
0.0
144
0.0
144
0.0
144
1.0
147
0.0208333333333333
147
0.0
147
0.0
147
0.0
147
0.0
147
0.0208333333333333
147
0.0
147
0.0
147
0.0
147
0.0
147
1.0
147
0.0
147
0.0
147
0.0
147
0.0
147
1.0
  0
MLEADERSTYLE
  5
67
102
{ACAD_XDICTIONARY
360
11AD
102
}
102
{ACAD_REACTORS
330
66
102
}
330
66
100
AcDbMLeaderStyle
179
     2
170
     2
171
     1
172
     0
 90
        2
 40
0.0
 41
0.0
173
     1
 91
-1056964608
340
5B
 92
       -2
290
     1
 42
0.09
291
     1
 43
0.36
  3
Standard
 44
0.18
300

342
55
174
     1
178
     6
175
     1
176
     0
 93
-1056964608
 45
0.18
292
     0
297
     0
 46
0.18
 94
-1056964608
 47
1.0
 49
1.0
140
1.0
293
     1
141
0.0
294
     1
177
     0
142
1.0
295
     0
296
     0
143
0.125
271
     0
272
     9
273
     9
  0
MLINESTYLE
  5
60
102
{ACAD_REACTORS
330
5F
102
}
330
5F
100
AcDbMlineStyle
  2
STANDARD
 70
     0
  3

 62
   256
 51
90.0
 52
90.0
 71
     2
 49
0.5
 62
   256
  6
BYLAYER
 49
-0.5
 62
   256
  6
BYLAYER
  0
ACDBPLACEHOLDER
  5
F
102
{ACAD_REACTORS
330
E
102
}
330
E
  0
SCALE
  5
43
102
{ACAD_REACTORS
330
42
102
}
330
42
100
AcDbScale
 70
     0
300
1:1
140
1.0
141
1.0
290
     1
  0
SCALE
  5
44
102
{ACAD_REACTORS
330
42
102
}
330
42
100
AcDbScale
 70
     0
300
1/128" = 1'-0"
140
0.0078125
141
12.0
290
     0
  0
SCALE
  5
45
102
{ACAD_REACTORS
330
42
102
}
330
42
100
AcDbScale
 70
     0
300
1/64" = 1'-0"
140
0.015625
141
12.0
290
     0
  0
SCALE
  5
46
102
{ACAD_REACTORS
330
42
102
}
330
42
100
AcDbScale
 70
     0
300
1/32" = 1'-0"
140
0.03125
141
12.0
290
     0
  0
SCALE
  5
47
102
{ACAD_REACTORS
330
42
102
}
330
42
100
AcDbScale
 70
     0
300
1/16" = 1'-0"
140
0.0625
141
12.0
290
     0
  0
SCALE
  5
48
102
{ACAD_REACTORS
330
42
102
}
330
42
100
AcDbScale
 70
     0
300
3/32" = 1'-0"
140
0.09375
141
12.0
290
     0
  0
SCALE
  5
49
102
{ACAD_REACTORS
330
42
102
}
330
42
100
AcDbScale
 70
     0
300
1/8" = 1'-0"
140
0.125
141
12.0
290
     0
  0
SCALE
  5
4A
102
{ACAD_REACTORS
330
42
102
}
330
42
100
AcDbScale
 70
     0
300
3/16" = 1'-0"
140
0.1875
141
12.0
290
     0
  0
SCALE
  5
4B
102
{ACAD_REACTORS
330
42
102
}
330
42
100
AcDbScale
 70
     0
300
1/4" = 1'-0"
140
0.25
141
12.0
290
     0
  0
SCALE
  5
4C
102
{ACAD_REACTORS
330
42
102
}
330
42
100
AcDbScale
 70
     0
300
3/8" = 1'-0"
140
0.375
141
12.0
290
     0
  0
SCALE
  5
4D
102
{ACAD_REACTORS
330
42
102
}
330
42
100
AcDbScale
 70
     0
300
1/2" = 1'-0"
140
0.5
141
12.0
290
     0
  0
SCALE
  5
4E
102
{ACAD_REACTORS
330
42
102
}
330
42
100
AcDbScale
 70
     0
300
3/4" = 1'-0"
140
0.75
141
12.0
290
     0
  0
SCALE
  5
4F
102
{ACAD_REACTORS
330
42
102
}
330
42
100
AcDbScale
 70
     0
300
1" = 1'-0"
140
1.0
141
12.0
290
     0
  0
SCALE
  5
50
102
{ACAD_REACTORS
330
42
102
}
330
42
100
AcDbScale
 70
     0
300
1-1/2" = 1'-0"
140
1.5
141
12.0
290
     0
  0
SCALE
  5
51
102
{ACAD_REACTORS
330
42
102
}
330
42
100
AcDbScale
 70
     0
300
3" = 1'-0"
140
3.0
141
12.0
290
     0
  0
SCALE
  5
52
102
{ACAD_REACTORS
330
42
102
}
330
42
100
AcDbScale
 70
     0
300
6" = 1'-0"
140
6.0
141
12.0
290
     0
  0
SCALE
  5
53
102
{ACAD_REACTORS
330
42
102
}
330
42
100
AcDbScale
 70
     0
300
1'-0" = 1'-0"
140
12.0
141
12.0
290
     0
  0
TABLESTYLE
  5
65
102
{ACAD_XDICTIONARY
360
11AB
102
}
102
{ACAD_REACTORS
330
64
102
}
330
64
100
AcDbTableStyle
280
     0
  3
Standard
 70
     0
 71
     0
 40
0.06
 41
0.06
280
     0
281
     0
  7
Standard
140
0.18
170
     2
 62
     0
 63
     7
283
     0
 90
      512
 91
        0
  1

274
    -2
284
     1
 64
     0
275
    -2
285
     1
 65
     0
276
    -2
286
     1
 66
     0
277
    -2
287
     1
 67
     0
278
    -2
288
     1
 68
     0
279
    -2
289
     1
 69
     0
  7
Standard
140
0.25
170
     5
 62
     0
 63
     7
283
     0
 90
      512
 91
        0
  1

274
    -2
284
     1
 64
     0
275
    -2
285
     1
 65
     0
276
    -2
286
     1
 66
     0
277
    -2
287
     1
 67
     0
278
    -2
288
     1
 68
     0
279
    -2
289
     1
 69
     0
  7
Standard
140
0.18
170
     5
 62
     0
 63
     7
283
     0
 90
      512
 91
        0
  1

274
    -2
284
     1
 64
     0
275
    -2
285
     1
 65
     0
276
    -2
286
     1
 66
     0
277
    -2
287
     1
 67
     0
278
    -2
288
     1
 68
     0
279
    -2
289
     1
 69
     0
  0
VISUALSTYLE
  5
2F
102
{ACAD_REACTORS
330
29
102
}
330
29
100
AcDbVisualStyle
  2
2dWireframe
 70
     4
177
     2
291
     0
 71
     0
176
     1
 72
     2
176
     1
 73
     0
176
     1
 90
        0
176
     1
 40
0.6
176
     1
 41
30.0
176
     1
 63
     7
421
 16777215
176
     1
 74
     1
176
     1
 91
        4
176
     1
 64
     7
176
     1
 65
   257
176
     1
 75
     1
176
     1
175
     1
176
     1
 42
1.0
176
     1
 92
        0
176
     1
 66
   257
176
     1
 43
1.0
176
     1
 76
     1
176
     1
 77
     6
176
     1
 78
     2
176
     1
 67
     7
176
     1
 79
     5
176
     1
170
     0
176
     1
171
     0
176
     1
290
     0
176
     1
 93
        1
176
     1
 44
0.0
176
     1
173
     0
176
     1
  0
VISUALSTYLE
  5
2E
102
{ACAD_REACTORS
330
29
102
}
330
29
100
AcDbVisualStyle
  2
Basic
 70
     7
177
     2
291
     1
 71
     1
176
     1
 72
     0
176
     1
 73
     1
176
     1
 90
        0
176
     1
 40
0.6
176
     1
 41
30.0
176
     1
 63
     7
421
 16777215
176
     1
 74
     0
176
     1
 91
        4
176
     1
 64
     7
176
     1
 65
   257
176
     1
 75
     1
176
     1
175
     1
176
     1
 42
1.0
176
     1
 92
        8
176
     1
 66
     7
176
     1
 43
1.0
176
     1
 76
     1
176
     1
 77
     6
176
     1
 78
     2
176
     1
 67
     7
176
     1
 79
     5
176
     1
170
     0
176
     1
171
     0
176
     1
290
     0
176
     1
 93
        1
176
     1
 44
0.0
176
     1
173
     0
176
     1
  0
VISUALSTYLE
  5
35
102
{ACAD_REACTORS
330
29
102
}
330
29
100
AcDbVisualStyle
  2
Brighten
 70
    12
177
     2
291
     1
 71
     2
176
     1
 72
     2
176
     1
 73
     0
176
     1
 90
        0
176
     1
 40
0.6
176
     1
 41
30.0
176
     1
 63
     7
421
 16777215
176
     1
 74
     1
176
     1
 91
        4
176
     1
 64
     7
176
     1
 65
   257
176
     1
 75
     1
176
     1
175
     1
176
     1
 42
1.0
176
     1
 92
        8
176
     1
 66
     7
176
     1
 43
1.0
176
     1
 76
     1
176
     1
 77
     6
176
     1
 78
     2
176
     1
 67
     7
176
     1
 79
     5
176
     1
170
     0
176
     1
171
     0
176
     1
290
     0
176
     1
 93
        1
176
     1
 44
50.0
176
     1
173
     0
176
     1
  0
VISUALSTYLE
  5
39
102
{ACAD_REACTORS
330
29
102
}
330
29
100
AcDbVisualStyle
  2
ColorChange
 70
    16
177
     2
291
     1
 71
     2
176
     1
 72
     2
176
     1
 73
     3
176
     1
 90
        0
176
     1
 40
0.6
176
     1
 41
30.0
176
     1
 63
     8
421
  8421504
176
     1
 74
     1
176
     1
 91
        4
176
     1
 64
     7
176
     1
 65
   257
176
     1
 75
     1
176
     1
175
     1
176
     1
 42
1.0
176
     1
 92
        8
176
     1
 66
     8
424
  8421504
176
     1
 43
1.0
176
     1
 76
     1
176
     1
 77
     6
176
     1
 78
     2
176
     1
 67
     7
176
     1
 79
     5
176
     1
170
     0
176
     1
171
     0
176
     1
290
     0
176
     1
 93
        1
176
     1
 44
0.0
176
     1
173
     0
176
     1
  0
VISUALSTYLE
  5
32
102
{ACAD_REACTORS
330
29
102
}
330
29
100
AcDbVisualStyle
  2
Conceptual
 70
     9
177
     2
291
     0
 71
     3
176
     1
 72
     2
176
     1
 73
     0
176
     1
 90
        0
176
     1
 40
0.6
176
     1
 41
30.0
176
     1
 63
     7
421
 16777215
176
     1
 74
     2
176
     1
 91
        2
176
     1
 64
     7
176
     1
 65
   257
176
     1
 75
     1
176
     1
175
     1
176
     1
 42
179.0
176
     1
 92
        8
176
     1
 66
     7
176
     1
 43
1.0
176
     1
 76
     1
176
     1
 77
     6
176
     1
 78
     2
176
     1
 67
     7
176
     1
 79
     3
176
     1
170
     0
176
     1
171
     0
176
     1
290
     0
176
     1
 93
        1
176
     1
 44
0.0
176
     1
173
     0
176
     1
  0
VISUALSTYLE
  5
34
102
{ACAD_REACTORS
330
29
102
}
330
29
100
AcDbVisualStyle
  2
Dim
 70
    11
177
     2
291
     1
 71
     2
176
     1
 72
     2
176
     1
 73
     0
176
     1
 90
        0
176
     1
 40
0.6
176
     1
 41
30.0
176
     1
 63
     7
421
 16777215
176
     1
 74
     1
176
     1
 91
        4
176
     1
 64
     7
176
     1
 65
   257
176
     1
 75
     1
176
     1
175
     1
176
     1
 42
1.0
176
     1
 92
        8
176
     1
 66
     7
176
     1
 43
1.0
176
     1
 76
     1
176
     1
 77
     6
176
     1
 78
     2
176
     1
 67
     7
176
     1
 79
     5
176
     1
170
     0
176
     1
171
     0
176
     1
290
     0
176
     1
 93
        1
176
     1
 44
-50.0
176
     1
173
     0
176
     1
  0
VISUALSTYLE
  5
41
102
{ACAD_REACTORS
330
29
102
}
330
29
100
AcDbVisualStyle
  2
EdgeColorOff
 70
    22
177
     2
291
     1
 71
     2
176
     0
 72
     2
176
     0
 73
     0
176
     0
 90
        0
176
     0
 40
0.6
176
     0
 41
30.0
176
     0
 63
     7
421
 16777215
176
     0
 74
     1
176
     0
 91
        4
176
     0
 64
     7
176
     0
 65
   257
176
     0
 75
     1
176
     0
175
     1
176
     0
 42
1.0
176
     0
 92
        8
176
     2
 66
     7
176
     0
 43
1.0
176
     0
 76
     1
176
     0
 77
     6
176
     0
 78
     2
176
     0
 67
     7
176
     0
 79
     5
176
     0
170
     0
176
     0
171
     0
176
     0
290
     0
176
     0
 93
        1
176
     0
 44
0.0
176
     0
173
     0
176
     0
  0
VISUALSTYLE
  5
38
102
{ACAD_REACTORS
330
29
102
}
330
29
100
AcDbVisualStyle
  2
Facepattern
 70
    15
177
     2
291
     1
 71
     2
176
     1
 72
     2
176
     1
 73
     0
176
     1
 90
        0
176
     1
 40
0.6
176
     1
 41
30.0
176
     1
 63
     7
421
 16777215
176
     1
 74
     1
176
     1
 91
        4
176
     1
 64
     7
176
     1
 65
   257
176
     1
 75
     1
176
     1
175
     1
176
     1
 42
1.0
176
     1
 92
        8
176
     1
 66
     7
176
     1
 43
1.0
176
     1
 76
     1
176
     1
 77
     6
176
     1
 78
     2
176
     1
 67
     7
176
     1
 79
     5
176
     1
170
     0
176
     1
171
     0
176
     1
290
     0
176
     1
 93
        1
176
     1
 44
0.0
176
     1
173
     0
176
     1
  0
VISUALSTYLE
  5
2A
102
{ACAD_REACTORS
330
29
102
}
330
29
100
AcDbVisualStyle
  2
Flat
 70
     0
177
     2
291
     1
 71
     2
176
     1
 72
     1
176
     1
 73
     1
176
     1
 90
        2
176
     1
 40
0.6
176
     1
 41
30.0
176
     1
 63
     7
421
 16777215
176
     1
 74
     0
176
     1
 91
        0
176
     1
 64
     7
176
     1
 65
   257
176
     1
 75
     1
176
     1
175
     1
176
     1
 42
1.0
176
     1
 92
        8
176
     1
 66
     7
176
     1
 43
1.0
176
     1
 76
     1
176
     1
 77
     6
176
     1
 78
     2
176
     1
 67
     7
176
     1
 79
     5
176
     1
170
     0
176
     1
171
     0
176
     1
290
     0
176
     1
 93
       13
176
     1
 44
0.0
176
     1
173
     0
176
     1
  0
VISUALSTYLE
  5
2B
102
{ACAD_REACTORS
330
29
102
}
330
29
100
AcDbVisualStyle
  2
FlatWithEdges
 70
     1
177
     2
291
     1
 71
     2
176
     1
 72
     1
176
     1
 73
     1
176
     1
 90
        2
176
     1
 40
0.6
176
     1
 41
30.0
176
     1
 63
     7
421
 16777215
176
     1
 74
     1
176
     1
 91
        0
176
     1
 64
     7
176
     1
 65
   257
176
     1
 75
     1
176
     1
175
     1
176
     1
 42
1.0
176
     1
 92
        0
176
     1
 66
   257
176
     1
 43
1.0
176
     1
 76
     1
176
     1
 77
     6
176
     1
 78
     2
176
     1
 67
     7
176
     1
 79
     5
176
     1
170
     0
176
     1
171
     0
176
     1
290
     0
176
     1
 93
       13
176
     1
 44
0.0
176
     1
173
     0
176
     1
  0
VISUALSTYLE
  5
2C
102
{ACAD_REACTORS
330
29
102
}
330
29
100
AcDbVisualStyle
  2
Gouraud
 70
     2
177
     2
291
     1
 71
     2
176
     1
 72
     2
176
     1
 73
     1
176
     1
 90
        2
176
     1
 40
0.6
176
     1
 41
30.0
176
     1
 63
     7
421
 16777215
176
     1
 74
     0
176
     1
 91
        0
176
     1
 64
     7
176
     1
 65
   257
176
     1
 75
     1
176
     1
175
     1
176
     1
 42
1.0
176
     1
 92
        0
176
     1
 66
     7
176
     1
 43
1.0
176
     1
 76
     1
176
     1
 77
     6
176
     1
 78
     2
176
     1
 67
     7
176
     1
 79
     5
176
     1
170
     0
176
     1
171
     0
176
     1
290
     0
176
     1
 93
       13
176
     1
 44
0.0
176
     1
173
     0
176
     1
  0
VISUALSTYLE
  5
2D
102
{ACAD_REACTORS
330
29
102
}
330
29
100
AcDbVisualStyle
  2
GouraudWithEdges
 70
     3
177
     2
291
     1
 71
     2
176
     1
 72
     2
176
     1
 73
     1
176
     1
 90
        2
176
     1
 40
0.6
176
     1
 41
30.0
176
     1
 63
     7
421
 16777215
176
     1
 74
     1
176
     1
 91
        0
176
     1
 64
     7
176
     1
 65
   257
176
     1
 75
     1
176
     1
175
     1
176
     1
 42
1.0
176
     1
 92
        0
176
     1
 66
   257
176
     1
 43
1.0
176
     1
 76
     1
176
     1
 77
     6
176
     1
 78
     2
176
     1
 67
     7
176
     1
 79
     5
176
     1
170
     0
176
     1
171
     0
176
     1
290
     0
176
     1
 93
       13
176
     1
 44
0.0
176
     1
173
     0
176
     1
  0
VISUALSTYLE
  5
31
102
{ACAD_REACTORS
330
29
102
}
330
29
100
AcDbVisualStyle
  2
Hidden
 70
     6
177
     2
291
     0
 71
     1
176
     1
 72
     2
176
     1
 73
     2
176
     1
 90
        0
176
     1
 40
0.6
176
     1
 41
30.0
176
     1
 63
     7
421
 16777215
176
     1
 74
     2
176
     1
 91
        2
176
     1
 64
     7
176
     1
 65
   257
176
     1
 75
     2
176
     1
175
     1
176
     1
 42
40.0
176
     1
 92
        0
176
     1
 66
   257
176
     1
 43
1.0
176
     1
 76
     1
176
     1
 77
     6
176
     1
 78
     2
176
     1
 67
     7
176
     1
 79
     3
176
     1
170
     0
176
     1
171
     0
176
     1
290
     0
176
     1
 93
        1
176
     1
 44
0.0
176
     1
173
     0
176
     1
  0
VISUALSTYLE
  5
3F
102
{ACAD_REACTORS
330
29
102
}
330
29
100
AcDbVisualStyle
  2
JitterOff
 70
    20
177
     2
291
     1
 71
     2
176
     0
 72
     2
176
     0
 73
     0
176
     0
 90
        0
176
     0
 40
0.6
176
     0
 41
30.0
176
     0
 63
     7
421
 16777215
176
     0
 74
     1
176
     0
 91
        4
176
     0
 64
     7
176
     0
 65
   257
176
     0
 75
     1
176
     0
175
     1
176
     0
 42
1.0
176
     0
 92
       10
176
     2
 66
     7
176
     0
 43
1.0
176
     0
 76
     1
176
     0
 77
     6
176
     0
 78
     2
176
     0
 67
     7
176
     0
 79
     5
176
     0
170
     0
176
     0
171
     0
176
     0
290
     0
176
     0
 93
        1
176
     0
 44
0.0
176
     0
173
     0
176
     0
  0
VISUALSTYLE
  5
37
102
{ACAD_REACTORS
330
29
102
}
330
29
100
AcDbVisualStyle
  2
Linepattern
 70
    14
177
     2
291
     1
 71
     2
176
     1
 72
     2
176
     1
 73
     0
176
     1
 90
        0
176
     1
 40
0.6
176
     1
 41
30.0
176
     1
 63
     7
421
 16777215
176
     1
 74
     1
176
     1
 91
        4
176
     1
 64
     7
176
     1
 65
   257
176
     1
 75
     7
176
     1
175
     7
176
     1
 42
1.0
176
     1
 92
        8
176
     1
 66
     7
176
     1
 43
1.0
176
     1
 76
     1
176
     1
 77
     6
176
     1
 78
     2
176
     1
 67
     7
176
     1
 79
     5
176
     1
170
     0
176
     1
171
     0
176
     1
290
     0
176
     1
 93
        1
176
     1
 44
0.0
176
     1
173
     0
176
     1
  0
VISUALSTYLE
  5
40
102
{ACAD_REACTORS
330
29
102
}
330
29
100
AcDbVisualStyle
  2
OverhangOff
 70
    21
177
     2
291
     1
 71
     2
176
     0
 72
     2
176
     0
 73
     0
176
     0
 90
        0
176
     0
 40
0.6
176
     0
 41
30.0
176
     0
 63
     7
421
 16777215
176
     0
 74
     1
176
     0
 91
        4
176
     0
 64
     7
176
     0
 65
   257
176
     0
 75
     1
176
     0
175
     1
176
     0
 42
1.0
176
     0
 92
        9
176
     2
 66
     7
176
     0
 43
1.0
176
     0
 76
     1
176
     0
 77
     6
176
     0
 78
     2
176
     0
 67
     7
176
     0
 79
     5
176
     0
170
     0
176
     0
171
     0
176
     0
290
     0
176
     0
 93
        1
176
     0
 44
0.0
176
     0
173
     0
176
     0
  0
VISUALSTYLE
  5
33
102
{ACAD_REACTORS
330
29
102
}
330
29
100
AcDbVisualStyle
  2
Realistic
 70
     8
177
     2
291
     0
 71
     2
176
     1
 72
     3
176
     1
 73
     0
176
     1
 90
        2
176
     1
 40
0.6
176
     1
 41
30.0
176
     1
 63
     7
421
 16777215
176
     1
 74
     0
176
     1
 91
        0
176
     1
 64
     7
176
     1
 65
   257
176
     1
 75
     1
176
     1
175
     1
176
     1
 42
1.0
176
     1
 92
        8
176
     1
 66
   257
176
     1
 43
1.0
176
     1
 76
     1
176
     1
 77
     6
176
     1
 78
     2
176
     1
 67
     7
176
     1
 79
     3
176
     1
170
     0
176
     1
171
     0
176
     1
290
     0
176
     1
 93
       13
176
     1
 44
0.0
176
     1
173
     0
176
     1
  0
VISUALSTYLE
  5
3E
102
{ACAD_REACTORS
330
29
102
}
330
29
100
AcDbVisualStyle
  2
Shaded
 70
    27
177
     2
291
     0
 71
     2
176
     1
 72
     2
176
     1
 73
     1
176
     1
 90
        2
176
     1
 40
0.6
176
     1
 41
30.0
176
     1
 63
     7
421
 16777215
176
     1
 74
     0
176
     1
 91
        4
176
     1
 64
     7
176
     1
 65
   257
176
     1
 75
     1
176
     1
175
     1
176
     1
 42
1.0
176
     1
 92
        8
176
     1
 66
   257
176
     1
 43
1.0
176
     1
 76
     1
176
     1
 77
     6
176
     1
 78
     2
176
     1
 67
     8
425
  7895160
176
     1
 79
     3
176
     1
170
     0
176
     1
171
     0
176
     1
290
     0
176
     1
 93
        5
176
     1
 44
0.0
176
     1
173
     0
176
     1
  0
VISUALSTYLE
  5
3D
102
{ACAD_REACTORS
330
29
102
}
330
29
100
AcDbVisualStyle
  2
Shaded with edges
 70
    26
177
     2
291
     0
 71
     2
176
     1
 72
     2
176
     1
 73
     1
176
     1
 90
        2
176
     1
 40
0.6
176
     1
 41
30.0
176
     1
 63
     7
421
 16777215
176
     1
 74
     1
176
     1
 91
       10
176
     1
 64
     7
176
     1
 65
   257
176
     1
 75
     2
176
     1
175
     1
176
     1
 42
1.0
176
     1
 92
        8
176
     1
 66
   257
176
     1
 43
1.0
176
     1
 76
     1
176
     1
 77
     6
176
     1
 78
     2
176
     1
 67
     7
176
     1
 79
     3
176
     1
170
     0
176
     1
171
     0
176
     1
290
     0
176
     1
 93
        5
176
     1
 44
0.0
176
     1
173
     0
176
     1
  0
VISUALSTYLE
  5
3A
102
{ACAD_REACTORS
330
29
102
}
330
29
100
AcDbVisualStyle
  2
Shades of Gray
 70
    23
177
     2
291
     0
 71
     2
176
     1
 72
     2
176
     1
 73
     3
176
     1
 90
        0
176
     1
 40
0.6
176
     1
 41
30.0
176
     1
 63
     7
421
 16777215
176
     1
 74
     2
176
     1
 91
        2
176
     1
 64
     7
176
     1
 65
     7
176
     1
 75
     1
176
     1
175
     1
176
     1
 42
40.0
176
     1
 92
        8
176
     1
 66
     7
176
     1
 43
1.0
176
     1
 76
     1
176
     1
 77
     6
176
     1
 78
     2
176
     1
 67
     7
176
     1
 79
     3
176
     1
170
     0
176
     1
171
     0
176
     1
290
     0
176
     1
 93
        1
176
     1
 44
0.0
176
     1
173
     0
176
     1
  0
VISUALSTYLE
  5
3B
102
{ACAD_REACTORS
330
29
102
}
330
29
100
AcDbVisualStyle
  2
Sketchy
 70
    24
177
     2
291
     0
 71
     1
176
     1
 72
     2
176
     1
 73
     2
176
     1
 90
        0
176
     1
 40
0.6
176
     1
 41
30.0
176
     1
 63
     7
421
 16777215
176
     1
 74
     2
176
     1
 91
        2
176
     1
 64
     7
176
     1
 65
     7
176
     1
 75
     1
176
     1
175
     1
176
     1
 42
40.0
176
     1
 92
       11
176
     1
 66
     7
176
     1
 43
1.0
176
     1
 76
     1
176
     1
 77
     6
176
     1
 78
     2
176
     1
 67
     7
176
     1
 79
     6
176
     1
170
     0
176
     1
171
     0
176
     1
290
     0
176
     1
 93
        1
176
     1
 44
0.0
176
     1
173
     0
176
     1
  0
VISUALSTYLE
  5
36
102
{ACAD_REACTORS
330
29
102
}
330
29
100
AcDbVisualStyle
  2
Thicken
 70
    13
177
     2
291
     1
 71
     2
176
     1
 72
     2
176
     1
 73
     0
176
     1
 90
        0
176
     1
 40
0.6
176
     1
 41
30.0
176
     1
 63
     7
421
 16777215
176
     1
 74
     1
176
     1
 91
        4
176
     1
 64
     7
176
     1
 65
   257
176
     1
 75
     1
176
     1
175
     1
176
     1
 42
1.0
176
     1
 92
       12
176
     1
 66
     7
176
     1
 43
1.0
176
     1
 76
     1
176
     1
 77
     6
176
     1
 78
     2
176
     1
 67
     7
176
     1
 79
     5
176
     1
170
     0
176
     1
171
     0
176
     1
290
     0
176
     1
 93
        1
176
     1
 44
0.0
176
     1
173
     0
176
     1
  0
VISUALSTYLE
  5
30
102
{ACAD_REACTORS
330
29
102
}
330
29
100
AcDbVisualStyle
  2
Wireframe
 70
     5
177
     2
291
     0
 71
     0
176
     1
 72
     2
176
     1
 73
     0
176
     1
 90
        0
176
     1
 40
0.6
176
     1
 41
30.0
176
     1
 63
     7
421
 16777215
176
     1
 74
     1
176
     1
 91
        4
176
     1
 64
     7
176
     1
 65
   257
176
     1
 75
     1
176
     1
175
     1
176
     1
 42
1.0
176
     1
 92
        0
176
     1
 66
   257
176
     1
 43
1.0
176
     1
 76
     1
176
     1
 77
     6
176
     1
 78
     2
176
     1
 67
     7
176
     1
 79
     3
176
     1
170
     0
176
     1
171
     0
176
     1
290
     0
176
     1
 93
        1
176
     1
 44
0.0
176
     1
173
     0
176
     1
  0
VISUALSTYLE
  5
3C
102
{ACAD_REACTORS
330
29
102
}
330
29
100
AcDbVisualStyle
  2
X-Ray
 70
    25
177
     2
291
     0
 71
     2
176
     1
 72
     2
176
     1
 73
     1
176
     1
 90
        1
176
     1
 40
0.5
176
     1
 41
30.0
176
     1
 63
     7
421
 16777215
176
     1
 74
     1
176
     1
 91
        0
176
     1
 64
     7
176
     1
 65
   257
176
     1
 75
     1
176
     1
175
     1
176
     1
 42
1.0
176
     1
 92
        8
176
     1
 66
     7
176
     1
 43
1.0
176
     1
 76
     1
176
     1
 77
     6
176
     1
 78
     2
176
     1
 67
     7
176
     1
 79
     3
176
     1
170
     0
176
     1
171
     0
176
     1
290
     0
176
     1
 93
       13
176
     1
 44
0.0
176
     1
173
     0
176
     1
  0
DICTIONARYVAR
  5
79
102
{ACAD_REACTORS
330
76
102
}
330
76
100
DictionaryVariables
280
     0
  1
1:1
  0
DICTIONARYVAR
  5
78
102
{ACAD_REACTORS
330
76
102
}
330
76
100
DictionaryVariables
280
     0
  1
STANDARD
  0
DICTIONARYVAR
  5
77
102
{ACAD_REACTORS
330
76
102
}
330
76
100
DictionaryVariables
280
     0
  1
STANDARD
  0
DICTIONARY
  5
1A
330
19
100
AcDbDictionary
280
     1
281
     1
  3
BUMPTILE
360
1C
  3
DIFFUSETILE
360
1B
  3
OPACITYTILE
360
1F
  3
REFLECTIONTILE
360
1E
  3
REFRACTIONTILE
360
20
  3
SPECULARTILE
360
1D
  0
DICTIONARY
  5
12
330
11
100
AcDbDictionary
280
     1
281
     1
  3
BUMPTILE
360
14
  3
DIFFUSETILE
360
13
  3
FBXASSET
360
F5
  3
OPACITYTILE
360
17
  3
REFLECTIONTILE
360
16
  3
REFRACTIONTILE
360
18
  3
SPECULARTILE
360
15
  0
DICTIONARY
  5
22
330
21
100
AcDbDictionary
280
     1
281
     1
  3
BUMPTILE
360
24
  3
DIFFUSETILE
360
23
  3
FBXASSET
360
BA
  3
OPACITYTILE
360
27
  3
REFLECTIONTILE
360
26
  3
REFRACTIONTILE
360
28
  3
SPECULARTILE
360
25
  0
DICTIONARY
  5
11AD
330
67
100
AcDbDictionary
280
     1
281
     1
  3
ACAD_XREC_ROUNDTRIP
360
11AE
  0
DICTIONARY
  5
11AB
330
65
100
AcDbDictionary
280
     1
281
     1
  3
ACAD_ROUNDTRIP_2008_TABLESTYLE_CELLSTYLEMAP
360
11AC
  0
XRECORD
  5
1C
102
{ACAD_REACTORS
330
1A
102
}
330
1A
100
AcDbXrecord
280
     1
270
     1
271
     1
  0
XRECORD
  5
1B
102
{ACAD_REACTORS
330
1A
102
}
330
1A
100
AcDbXrecord
280
     1
270
     1
271
     1
  0
XRECORD
  5
1F
102
{ACAD_REACTORS
330
1A
102
}
330
1A
100
AcDbXrecord
280
     1
270
     1
271
     1
  0
XRECORD
  5
1E
102
{ACAD_REACTORS
330
1A
102
}
330
1A
100
AcDbXrecord
280
     1
270
     1
271
     1
  0
XRECORD
  5
20
102
{ACAD_REACTORS
330
1A
102
}
330
1A
100
AcDbXrecord
280
     1
270
     1
271
     1
  0
XRECORD
  5
1D
102
{ACAD_REACTORS
330
1A
102
}
330
1A
100
AcDbXrecord
280
     1
270
     1
271
     1
  0
XRECORD
  5
14
102
{ACAD_REACTORS
330
12
102
}
330
12
100
AcDbXrecord
280
     1
270
     1
271
     1
  0
XRECORD
  5
13
102
{ACAD_REACTORS
330
12
102
}
330
12
100
AcDbXrecord
280
     1
270
     1
271
     1
  0
XRECORD
  5
F5
102
{ACAD_REACTORS
330
12
102
}
330
12
100
AcDbXrecord
280
     1
 70
     1
 90
1959938040
 71
     1
  1
3BB6D451-CE77-47DC-AF1F-28490B0B1059
311
504B03040A00000800007D4F22423DEE336E79000000790000001B0000006175746F6465736B2D64657369676E2D7061636B6167652E786D6C3C3F786D6C2076657273696F6E3D22312E302220656E636F64696E673D227574662D3822203F3E3C666F726D6174733E3C666F726D61743E687474703A2F2F736368656D612E
311
6175746F6465736B2E636F6D2F64657369676E2D7061636B6167652F323030393C2F666F726D61743E3C2F666F726D6174733E504B03041400060808007D4F2242D486FD9CA0000000F4000000130000005B436F6E74656E745F54797065735D2E786D6C7D8EC10E82300C865F65E91D8A1E8C310C0EEA1BF002731658846E
311
D98AC1B77784ABF1D8FE5FBFBF75BBCE937A534CCEB38643598122B6FEE978D0B0485F9C41B54DDD7D022595594E1A469170414C76A4D9A4D207E29CF43ECE46F218070CC6BECC4078ACAA135ACF422C856C0E68EA1BF5669944DDD7BCDE7B1F8E415D77AECB980613C2E4AC91FC167A2B244592486606FC29C8FD7F045B9A
311
EF7053A7E60B504B03041400060808007D4F224292F40B82E80000007C01000008000000636F72652E786D6C8D90DD8AC32010855F45E6DE446DCD4F31160AE913EC0B88DAACB4D11075D9C75FD3A6B07BB720CC703CDFCC70C4F97B7EA02FBB4617FC00B42280ACD7C1383F0D90D30D7780CE52AC21A45F36405ECD76804D
311
0629A635E4659774F0C9FA54541F8CDD4515A34D80F4A3340344FD696755A99C8A23DEAB45E9BB9A6C45DF5D81737606BD963853E6B99BB32BC8BE3D8ED791137C1939C7C72BA3B8A7B4C73DBB342DE7A46DBB46D41B2C4572F37BBF5EAD4AD68064841E30A198B00FD29F78791D26CD8910516FF63F505ECC3FA1EC7C3AB0
311
FDDC171641D272C8F3438A7ACBA2946750A56EB9C91F504B03041400060808007D4F224255019EA25F0000007C00000007000000636E782E786D6C4DCB3B0E80201045D1AD90E915ED2CF8AC45050C11660C8261F98AB1B07AC9C97D42D718D865D3E909258CFD00CCE24AC6E326A164D74DC0B4128928FF326038472BA131
311
28B1252AC747C6BAB984FC68F0B87FE8960A5C09FE86CFB69FBA01504B03041400060808007D4F22428C94894664010000020300000C0000006662782F636F72652E786D6C8D52ED8E8230107C95A6FF4B0B8A88293531D127B817A850B946684969898F7FCB87E1BC1873814033B3B33B3BC08F8FB6418372BDB6A6C071C4
311
3052A6B49536758183BF913D4647C19DB5FE57194646B6AAC0238C05AF9D0DDD0295D678653CA0C6566A0165DF2B8F51D9C0A1C07DF9AD5A19C9E0A1A2BF479D2CEFB256511C010D7582F7DE8101340F199F58DCAE0F4E675CF01074B5B0BA8269FAA695C322CFB6E7CB3965E4744E53B2BD2431C9E338277972DA6569CAB2
311
6CBFE374140BEE75FB74573A25BDAAB04858BC212C262CF962F921857B4FD8EEC018A763F98B2874D53F45411BBF4916BBB3ACC722062313F1675B88C8A35E0EE0870A4EC710E13525FC1A340402217B796D9E7BDC011A54E9ADDB0253D9B052836C8282A90C4D17A7330B9DA706B0D9DB3EC9873E9F7BC00794A6066BD2C3
311
F11AFC389DCF5397283AE5C8E01FC858D7CA6635375B5C9FEBA0B7F2D236D6FD474D9755E912261DFF5EF103504B03041400060808007D4F22427EE817A27E0000009D0000000B0000006662782F636E782E786D6C4DCCDF0A83201C86E15B91DFB9CB98FD11D448DBEE239685643A9C8E5DFE6A74B0A30F1E3E5EDE7D3687
311
DE26BE6CF002CA0B0164FC234CD62F02729A710BA8933C8690FE6E80FCB819010783E44B0CF979D264E631BBB4ABB37E3D9156B424C38D605DDF19A6BAD5985525C38DBAF64CA97E68540D85E4C5AFB4EF11965F504B03041400060808007D4F2242FCDD0E882C01000015020000310000006662782F34353431304445302D
311
433646392D344338432D393531392D3742334139424241443742362F636F72652E786D6C8D515B6EC32010BC8AC557FA810D7EC58E30519CB427E80508901425068B4795E3176A476AFF222116CDCECC8E58B27F4CF7EC5B5AA78C1E00CE11C8A4E646287D1D40F017D8816C4F8935C6FFA1814CB3490E20C18092AB35615E
311
216EB497DA47541B21579039273DC8F83D3E06E0F8979C58CE828F0C77CB67C66FEC2A739CC776E451E2BC8D01B26548BA01AD9B1AA3D33B82C7F6A387F5B13BC2BEC13DDC8ED5A11FC7C3693BB6A458849484A0C42A5722C6511725EDAB26494C8957D3333EB7927929002D11AE20C210959FA8DF35F17410B53B844891E8
311
FF4461162F8A82D2BE2AD7B88BCC018A49B1342811269CEFCF30F2311BEBB3346FE3247F0314E50855DBA6AF50498A851B7F209AB6F56AEABCB1F18737B773A4E366716E6B4A8AB4A4587E37186B5A28FD01504B03041400060808007D4F2242090A821D4D01000033030000300000006662782F34353431304445302D4336
311
46392D344338432D393531392D3742334139424241443742362F636E782E786D6CD593CD6EC32010845F0571B78D93344A2B4CA41EFA043DF48A6193D060B0F8A99AB7EF929034971C7AAC64216B7698597DB2F9F67BB2E40B4234DE0DB46F1925E094D7C6ED079AD3AED950B2153C789FEE6C943839C1408B4C05DF079FE7
311
2A69D8C96C13AAD6B8631503449F83828872B949AC57D26200B826A308D3085A83263723BEED20E02A288E27920E40DE5E3F881F3F41A5C8BB922278573A042F676DBA3351A2AC8C71A0511D6092ADCCC96B88C756CB24DBBEBD763DD8E93789940BD7CA1C0C29E5032D271575A31639F20E8782C714905E35A5D30C54C879
311
B646C98490BBB3F1E2113C1B97D6ABEA35083EA0BB5F2F572B0C3BCF044F6682EA500164024DC582F5CB86F50D5BBCB3E797277C360D5BBF30C6BB62177CF4DED64B1803C1CF447997C0252A7ADE95F1237CD547B409C8DA87D31F402280DA7AA173CBF8CF7CBAF3F78DB802FE05E207504B03041400060808007D4F2242B8
311
0846E7A405000081100000340000006662782F34353431304445302D433646392D344338432D393531392D3742334139424241443742362F6F626A656374732E786D6CAD57D98EDB3614FD15417D691F6C59B6672B340AC67626309249821809FA60C0A0254AC30EB580A4269E7E7D0F454A961C7BE21679D1C2E5F2DE73CF
311
5D18BCD965DC79A642B222BF75FDE1C875681E1531CBD35BB752C9E0DA75DE8481280AD559E63A39C9E8ADAB87DD30484551957628A609A9B83A18BD9FFDE5C888E6D475224EA4BC7565F448333224952A622A9F863151649826BBA13F340BFB625341CAC703A125113457D014E339A4384629BFFF3B72BD30F0F47C18E8A7
311
5D3539BDCAABEDE99FCF72A9481EFD70D88198893F5DBC1D5FDC0C2EA6D3C9607A39F607B3FBD962E05F4D46F3CBF9FCE6EEED0D0E964A4092D544D0C40DDF011BC1A2C033536150B15C4DC67689759027E833D39E72C3B1E3079E59D35A678D3CA67E54E4398D6AAC80466D9F151DD392E6317CCEA884661D8446FD5F5FE3
311
D8999EE87F7B6477F83C04BA3B3A821ADD9B7757D362FB374C90E7304848AA1968B0B4861AAE8EF6086F8B82DB39269D8C282A18E10E675B41C48B1B62A95E12063D319AC9424783B6C00DE10533DDA70BC2E8E73C3FA6655271AE69EC8675146C102B54C95A33F60F157BEDBBC84027F84AB3E1DA1AA45E4AEA86378622D7
311
076C32403A0927295C0E33F5CEC9F8C0D0B98ED3E5C20DDFDF6F772B1DBBC70F2F455152A1347D40ADC671CD5BA36475F2CFF29CDEE01EA8B207E50B90FF8850DFAB02BF09B69BEEA6F61425482E934264F08D337206233C468E5F3FF577E72BF0DACD7DEF9DC213CED650FD023CFB36747DD981330C9E41F8424CAC69AB88
311
70A48D079603204D12871718421E4EB63B375C22CB212B6317E1A10F93A1EE333E03CF8A41A2A84FEABC7360799016CF48D080AD6624D430E4B70AEEFDF4433AAB0FB6CB4EC17BF14BE87AB758BD5F552221117DB031BDA009CB994289DBF3A6AB500FF39E454FF4E57B216218FA23DEAB2EDE993D4A026D8DB9063E6D72BA
311
FED99FDC3B20C2BEB4D0E926F8C909304217D68EFC072623CA39C9695135E7BE5A3F50360CC43AD83593DB02B32F2C208D9939884114E948B05283D856AB36690E4F58F775F9118C74C3D9CB07F2D2CD5EDB7DEE8D0A5E88CDF66563D2D251A8BFF5B96D31F0B414D0BD0E9226FE2DE89B9825492591048FE0FA6D39EFFA4E
311
A705A48846AA899629EC4770116149DBC845B5160495B4C8370C75137177F480AE7C406A19500B3CA5B1A43CD930CEAB6C93308E6AB4C94879028EFFAFFFB6CACA0DC98A2A572764F7544775E8EBDE63AFFC4E54F4E886ABFA3D9821F7C6343E41065D4B8E60D573ED6436BB5C4C2FFCC1FCEDD5D5607AB5980FEEEEFDFBC1
311
F87A7A339A8D66FEE8E2A6F193D1240C9A52D38D687809A52DA804B3EEFBBA44FCD824E0860F44C9F53B139ECDFBEB72885E38F0B007F5B2DD78173FA3EFA3F1CF05EC571E15B4CC4A4E339A2BA263E8417FF02F047D464F1933BECC484ACF90F2E9DDEAC0188C9CB1EFB38E77FAFD60AF1D9DEB803C2A443D56D936278C1F
311
6C4C0D92C3324F2D7E8D4FDAB72934CDAFFEB38E41672A0BCE62E4C1D849699151856C784611121995A05EB7A78FEDDDE38CDDCFA6435464CB69A3C9234193CC25C202D4AA22D51F777E4353A7FBAA5B17E576F88487CD14AE03CEDCBA68D2158BA81C6E51A0752B540B0797BA9D3C1A7F92A71CBDB6D9D4FEB7BB3436BD92
311
DC2E39A77FB27699146E0D401A29D137A02182776A65C2A0D6CDCE47FFC9F0461D87287C6E2BD5DAB21F688DA98F41881AA3EC6D014DCC933D7A87407DDD2C7F58AFE92172D62DEB551218A90345445ADF14B47E56A5BBC5670F1D8AB3FCE494BC4AE1CBF3250D0405992B1DE06011586165964481AAF33FD79F45819B6CE6
311
DC3350C0F97D777DF9C77A5E6459919BA1F59DBD0F3BAB47DC6EE3359203D5D712B91E8FFCF1BABE0ED81BCA664B241D92583E61009E15AC05BAE77EF0D2DC195187CC44BBCED3AE3860E872E1D8C23685504B976E6ED5E0A0F1C8A98318D2574A1D31DD05E5AB3702AF5E0A15047AF9F05F504B03041400060800007D4F22
311
42000000000000000000000000350000006662782F34353431304445302D433646392D344338432D393531392D3742334139424241443742362F76657274696365732E62696E504B03041400060808007D4F2242F270F1330600000004000000360000006662782F34353431304445302D433646392D344338432D39353139
311
2D3742334139424241443742362F747269616E676C65732E62696E636660600000504B03041400060800007D4F2242000000000000000000000000370000006662782F34353431304445302D433646392D344338432D393531392D3742334139424241443742362F617474726962757465732E62696E504B03041400060808
311
007D4F2242D5987DFC8F00000041010000360000006662782F34353431304445302D433646392D344338432D393531392D3742334139424241443742362F6469726563746F72792E786D6C858F410EC2201045AF4266AF15DDB800BA74E7C21B903225242D6328188F2FA5C4183471359997F9FF81E89FF3C41E1816475E02
311
DF1F80A11FC8386F25A438EECEC07A250251FC3803E6F58C12560C4AD840E95E91C151A72936F496F35732D860FE635F62C8F2DA16B505C545B74125BAA2FA9E05D7CC053D063734D5C7665FD55B6B8D15D5E9BFEAFD8490FFA45E504B03041400060808007D4F22421619D525FA000000A00100003B0000006662782F3435
311
3431304445302D433646392D344338432D393531392D3742334139424241443742362F7265736F75726365732F636F72652E786D6C8D50596AC33010BD8A997FD992E335C80A04EC13F402429EA422B164B4841EBF72EC42FB57109AE12DCCE3F1CBD7F2CC5EE8BCB666009653C8D0283B6B731F20861BE920BB08EEAC0DBF
311
649019B9E0001B0C82DF9D8DEB01296B029A905063673C40E93D06C8D4332D0378F5898BCC650C49E11FF92AD543DE316779A2934E701F5C0A90ED47B61F84436FA353E879B1B382C7A8E743A3E77453DF343A107D5B8DD3584DE43AD635A9A692919EB19EF4E5B569EB9AB66DD7F062330B1EF4F293513994016710256527
311
4219A1E507EDCF757A1DA1CD99525E6CF23FA6B8CEFF34456DC2A93CE2EE360F82A5206F42F062EB2B8D7799696EDD8A6F504B010214000A00000800007D4F22423DEE336E79000000790000001B00000000000000000000000000000000006175746F6465736B2D64657369676E2D7061636B6167652E786D6C504B010214
311
001400060808007D4F2242D486FD9CA0000000F40000001300000000000000000000000000B20000005B436F6E74656E745F54797065735D2E786D6C504B010214001400060808007D4F224292F40B82E80000007C010000080000000000000000000000000083010000636F72652E786D6C504B010214001400060808007D
311
4F224255019EA25F0000007C000000070000000000000000000000000091020000636E782E786D6C504B010214001400060808007D4F22428C94894664010000020300000C00000000000000000000000000150300006662782F636F72652E786D6C504B010214001400060808007D4F22427EE817A27E0000009D0000000B
311
00000000000000000000000000A30400006662782F636E782E786D6C504B010214001400060808007D4F2242FCDD0E882C0100001502000031000000000000000000000000004A0500006662782F34353431304445302D433646392D344338432D393531392D3742334139424241443742362F636F72652E786D6C504B0102
311
14001400060808007D4F2242090A821D4D010000330300003000000000000000000000000000C50600006662782F34353431304445302D433646392D344338432D393531392D3742334139424241443742362F636E782E786D6C504B010214001400060808007D4F2242B80846E7A405000081100000340000000000000000
311
0000000000600800006662782F34353431304445302D433646392D344338432D393531392D3742334139424241443742362F6F626A656374732E786D6C504B010214001400060800007D4F22420000000000000000000000003500000000000000000000000000560E00006662782F34353431304445302D433646392D3443
311
38432D393531392D3742334139424241443742362F76657274696365732E62696E504B010214001400060808007D4F2242F270F13306000000040000003600000000000000000000000000A90E00006662782F34353431304445302D433646392D344338432D393531392D3742334139424241443742362F747269616E676C
311
65732E62696E504B010214001400060800007D4F22420000000000000000000000003700000000000000000000000000030F00006662782F34353431304445302D433646392D344338432D393531392D3742334139424241443742362F617474726962757465732E62696E504B010214001400060808007D4F2242D5987DFC
311
8F000000410100003600000000000000000000000000580F00006662782F34353431304445302D433646392D344338432D393531392D3742334139424241443742362F6469726563746F72792E786D6C504B010214001400060808007D4F22421619D525FA000000A00100003B000000000000000000000000003B10000066
311
62782F34353431304445302D433646392D344338432D393531392D3742334139424241443742362F7265736F75726365732F636F72652E786D6C504B0506000000000E000E00800400008E1100000000
310
504B03040A00000800007D4F22423DEE336E79000000790000001B0000006175746F6465736B2D64657369676E2D7061636B6167652E786D6C3C3F786D6C2076657273696F6E3D22312E302220656E636F64696E673D227574662D3822203F3E3C666F726D6174733E3C666F726D61743E687474703A2F2F736368656D612E
310
6175746F6465736B2E636F6D2F64657369676E2D7061636B6167652F323030393C2F666F726D61743E3C2F666F726D6174733E504B03041400060808007D4F2242D486FD9CA0000000F4000000130000005B436F6E74656E745F54797065735D2E786D6C7D8EC10E82300C865F65E91D8A1E8C310C0EEA1BF002731658846E
310
D98AC1B77784ABF1D8FE5FBFBF75BBCE937A534CCEB38643598122B6FEE978D0B0485F9C41B54DDD7D022595594E1A469170414C76A4D9A4D207E29CF43ECE46F218070CC6BECC4078ACAA135ACF422C856C0E68EA1BF5669944DDD7BCDE7B1F8E415D77AECB980613C2E4AC91FC167A2B244592486606FC29C8FD7F045B9A
310
EF7053A7E60B504B03041400060808007D4F22421AD419A6E80000007C01000008000000636F72652E786D6C8D50D16AC3300CFC15A377277692AD49715CB2917DC17EC0D86A6ADAD821B6C73E7F4E9BC2F63610489CEEA4E3C4E97BBE912F5C83F5AE075E3020E8B437D64D3DA478A62D909314ABF7F1170D885333F6B0C1
310
20C5B4FAB4EC90F62EA28B1975DEE00EAA103002D1B73CF410F4056755A81433235C8B45E9AB9AB0E0CF298B53B2863C9E5893EFD9B3C51524EF6A36565D4DF9C047DA1C584B87B17EA3E37B73E0CDF0D171DE8872134B11EDFCFCAF5754110DC88AF19A324E59F5C9BAE34BAE96B2D72363A2DCE87F446931FF1425EB625D
310
ED761FB290BD6623F78514E596456EF7A072DF72933F504B03041400060808007D4F224255019EA25F0000007C00000007000000636E782E786D6C4DCB3B0E80201045D1AD90E915ED2CF8AC45050C11660C8261F98AB1B07AC9C97D42D718D865D3E909258CFD00CCE24AC6E326A164D74DC0B4128928FF326038472BA131
310
28B1252AC747C6BAB984FC68F0B87FE8960A5C09FE86CFB69FBA01504B03041400060808007D4F22424C25FAAB64010000020300000C0000006662782F636F72652E786D6C8D525B6E833010BC8AE57F631B68F390719456F404BD80030E45011B191BE5F85D1E114D15451108AC999DDDD90171B8B60D1AB4EB6B6B32CC23
310
869136852D6B536538F833D9627490C259EBFF94616454AB333CC2588ACAD9D02D50618DD7C6036A6CA91750F5BDF618150D1C32DC173FBA55910A1E2AFA4BD4A9E2A22A1DF10868A893A2F70E0CA079C8F8C4F27CBA0A3AE3528450970B5B9730AD3ED7DA61C97709CBE35D42F891E724DDB02D39E6C907C93FD30D4F8F5F
310
3BCE534147B114BE6E6FEE0AA795D7259631E309619CB0F89BEDF66F706F097BDF3326E8587E270A5DF9A228D4C627F1627796F5E0158C4CC4BF6D21228F7A35801F2A051D4384D794F07DD0100884ECD5A9B9ED710168D085B72E05A6B461A506D5040D53199A2E4167163A4F0D60B3877DE2277D9EF7800FA84C05D69487
310
E329F871BA98A72E5174DA91C15F91B1AE55CD6A6EB6B83ED7410FE5856DAC7B454D9755E912261DFF5EF90B504B03041400060808007D4F2242944FE0487E0000009D0000000B0000006662782F636E782E786D6C4DCCD10E82201886E15B61FF390909851BE0CAE83E5CA263223482D6E5A7CD838EBEEDD9B757B69FC5A3
310
B74D2F1783027A20806C78C4C1854941C92316805A2D538CF9EF0628F48B55B0316839A5589E3B0D76EC8BCFAB7A17E61DC9919E0D39194C19EB30E377831B716D704D2F9CDF48676AC1A1D2B2FA95D6DDC2FA0B504B03041400060808007D4F2242D3FE69F62B01000015020000310000006662782F30323137453036452D
310
313434432D343546452D393842392D3331413535443043453338352F636F72652E786D6C8D515B6EC32010BC0AE22BFDC0061BBB4E8489DAD43D412F406C92A0C460F1A872FCAE6B476AFF222116EDCECC0EBB627F1F6FE85BFB609C6D31CB2846DAF66E30F6DCE2144FA4C1682F85772EFE816164D5A85B3CA7B11467EFD2
310
B4A67A67A3B611B2D60D7A4DAA1074C4A8BFC1A3C5A1BFE851652A4540846B36A9FEAACE3A631994012745881E0CA0A5C97C63490BF6DAD1BA238CF303E1D56747B6CDFB9694ECADAA3EE8A12B9B4AE40B518A94CCB0D2CD0076CCC968FFACC84C96229AF161BFF75A453D6059505612CA082DBEE87657C16908AD77948A7C
310
86FF23A5697892948C8D65B1DA5D68014B26F2A520C5E0D2F1F630A3EF93F311CDFD3641F72FF0AB8C525E7356512EF2050B1300D19AAFA2213A0F13DE5C8F002F57E59A4B91CF4B82F0BB4188F342E50F504B03041400060808007D4F22426FAD4D0A5401000033030000300000006662782F30323137453036452D313434
310
432D343546452D393842392D3331413535443043453338352F636E782E786D6CBD93CD6EC23010845FC5F23D7F40238A1C23F5D027E8A157C75EC0C5B123FF54E5EDBB0643B970A854558AAC68763CB3FA94B0EDD764C827F8A09D1D6857B79480954E69BB1F688ABB6A4DC99633EF5CBCB35162C50403CD32E56CEF5D9A8B
310
A460279289A81A6D8F45F4105CF21202CAF926314E0A830160AB84224C2328058ADC8CF8B6038FABA0389E483C00797D79276EFC0019036B720A674DEEE02C9FA5E9CE44893422848106798049D42245A7201C6B25A2A8BBFADAF560A79F24922F5C2B93D724970F349F94978D6AE4C81A1C7216A2477AC5144F33502EE6D9
310
682922426ECEC68B87B3A46DEC57C5AB11BC47F772D1AFD718769E7116F504C5213D88088AF245DB2DABB6ABDAC55BFBBC79C2675DB5FDA66D5993ED9C8DCE99720963C0BB99486723D84879C79A3C7E84AFF888D21E593B7FFA054804505A2F746E197FC9A7EB97ABD53FF269CEDF37E2F2F817F06F504B03041400060808
310
007D4F2242E8CAC436640700009A1B0000340000006662782F30323137453036452D313434432D343546452D393842392D3331413535443043453338352F6F626A656374732E786D6CED59DD73A33610FF5718FAD23E189BD8C9251DC24D6C5F6E3CD75C6FEA5EA70F9E616490891A211849E4E2FEF55D7D80819804B7E9DB
310
3DD8809056BBBFFDD412BC7FCAA8F388B92039BB767D6FE23A98C57942587AED967237BA749DF761C0F35C36A6B90E4319BE76D5B01B0629CFCBC20E2578874A2A3BA3B7F33F1D1163865D27A648886B57C4F738431E2A659E60F1E02548222FDD3D79BE6726B6C9A61C15F71DA205E29849E014C61950710C537EFB71E28E
310
C360ACDE8781FAB7B3A68366CDFA678DB5D46D2E091312B1F8194B1D32D3412C4DFDD9F2C3D9F9D5E87C369B8E661767FE687E3B5F8EFC77D3C9E262B1B8BAF97005EC6DF39C5A99125C609680FEF66EE80763F5A616DD22708CEB38670CC71A48804A8BD52548B080AD1AF04DDA8FBE92A8F15A4BD8789EA9F79685C6F0B4
310
4DA56FD630205A744110BB5D2571756DCA976FFF02C1C510A3E4024BE056480EDAB5F070F00A379C0463331A06DB832E887032243127883A946C39E2A01498AAA684815960C928E7E040CA511268CD99D76DDB02CF7CDD758E71B92B29559EE186DAB122703F2C85E68CFC8DF981FB2632C013485B12262F2D97725F6037BC
310
0AC67A300CD4657A665F1A209D1D45A9D08898B71D4117CAF5574B37FC74BB7D5AAB70707CF382E705E652199DD2A3E60B0CD95E154A765B7F90E6D40210C6806A571E40F90D90FF0CD1E3C00AE88D93A7D9D3CCCE951C31B1CB7906BA7126CE68027F13C7D7FFEABE71178CEBC56DEDF5E1096EAAA0BAFCEF78B665D05859
310
FE1B7086C123187CCEA7F6D53A4614ECF98E300048198943731882D0BEDB3EB9E10A0227047A588568E883C8C0EE23DC06634BE6A095CABDACD73140D4EE311DA224804D5B24B0D1A3A78F903D38890F6A6A8AD807EFF99B98EBCD72FD695DF21D8AF19DF5E925DE11462464CDE30CB5306F49F480F7DF729E80A0CFF15E37
310
F1CEEC5602D056982BE0D30A04F570D8B9B5410CEBD25C859BE0951D400895AB1BF4EF888831A588E1BCACF6ADA39B32D4DAE36DCDE0866706E2E959C784397E24AAAA00A739CC68310A793FE6A45020BAE14723591D34BD1EE9BEAE3E8345D6F37B66AD18845E86E8EF3A681DC1A165D915D216885AE0ED219CC739CD79B4
310
DD4726D2B9504B001B6D6FF9A3451462BD5192A2021EA4FDAE0A29A991364AC86E570A88AB4758FC63B5689AC3C49BFAE74EF3BFE38C3388B6E0BB885BBFEBEC11910CA538DAA1A46FBBE66E356DA149F690E67847412EF248E43E42329A24383D059A93885FBD29F594E642108605E4ABA3E037D1987810488C362B969556
310
3B4013116558227A0A028A4C0FB83AEDE81A3786D2E1751E6BEB7D49634DA2FF93457004B564CE2202A528E4905719F7BD7388216D740DCA1D7CC1DA2ADA5A0C5A420911EFA36F98A4F7F214D40DF91EDC6338929432CA0B1483590F20FBCC5794523BBC6F51FCA0F2471497F4AD0C4460BA8B08A56516C18F3038790C71ED
310
3A30BD884283B8897D126750942159F2219B5C9C4F9EED636A866E086C6CB42314C27694A1A207F55640D4F58853836FA9F728755B664584B2BC64830CC59B76BDC992EFAA55911DC8AF2A15A16CAC085B82614098ACB36A15B3C1D475600537D2816A1F099415D49CC25E493C7EED4D9A72EF06DCFAE9DB6E9041E1D7A3BD
310
66449D5530581E5B8581F886647CEF866B7D1DCDA1FE4E707248F555ADD9AC00013115C94B4EAC8ABEAEA0BCB1359A1BDE2129361F4DD6ADAE5F571E743F8231AC81DAA55EB85240679849A42A933B75437F4310825B34CCF84AE5D453A8DC2489AE1A11BD257DEA6C9511AD4D33E215F798E519FCD886B0989609DEA0443C
310
447792466BA258B7527A19A9307E51C05F3FAE3BF0C0C80091BEA8020F7FEBACB5A30B552E1D2522EFCB6CCB108120D8122D35BAF10A965A8D545AAEAFEA4C017517189855F1ECFBC9A2D98EF87EB248AD61FCA793C57CFF0BDA37FB228D741E2BBB3EE91850E72745E52D8E01BAED5053ADB38849E6567EEB4C1104C52ACA
310
0FAEC6AAA06108F671FCAFB3765F1634DB75F83F2D6BFBCF2A8E93B24A6BB2EA521DA95C57CD1C369DCF2F96B3737FB4F8F0EEDD68F66EB918DDDCFAB7A3B3CBD9D5643E99FB93F3AB1A4DEDA8615007339DBBE0D904B56A583D590CA02B2B724A1238CD274E8A21E64B38D30F689FF30C0B489ECD6677629BF203563F9A3E
310
A7445B8A2B4EEE113488A980B40E1895B16C8F3B3F406B52C241FBDA85A691F7007FD62A5D0732CFB50BAD0249622CBC2DB49954434F138794AB73BF2506F82096AA946816D5CFF52A854D2BFCD75386A4012B57AB8701855B01DDAF568742F366798A4F12BC62C741126EB7A5846ACDC87218A885D1DB1CD46F64A3843DD8
310
AD9FC0755F16CBF7F49C1622833E19BC680486EA48229EEA7EB762CCB274B3FC32863E9BB3FAD5296899822E87531A710CC65CAA820AAC08ACC2D22C9004535DFCBCF9C273F8C49339BA2A727E7CBABCF869B3C8B32C6766687303A7B2043E1439EB7BF8EC936CA078C0AAB92E366713FF6CA39BDAB6CF1E6D91C09EAA8A60
310
A02A2694201D9303BB7CD6A0B2EDCBB1524567FA6AE9D8200ACD006347CF7ABCE62397033EA43EA7288FD17E5E49FB625F7BACA7824D70E84887FF00504B03041400060800007D4F2242000000000000000000000000350000006662782F30323137453036452D313434432D343546452D393842392D333141353544304345
310
3338352F76657274696365732E62696E504B03041400060808007D4F2242F270F1330600000004000000360000006662782F30323137453036452D313434432D343546452D393842392D3331413535443043453338352F747269616E676C65732E62696E636660600000504B03041400060800007D4F224200000000000000
310
0000000000370000006662782F30323137453036452D313434432D343546452D393842392D3331413535443043453338352F617474726962757465732E62696E504B03041400060808007D4F2242D5987DFC8F00000041010000360000006662782F30323137453036452D313434432D343546452D393842392D3331413535
310
443043453338352F6469726563746F72792E786D6C858F410EC2201045AF4266AF15DDB800BA74E7C21B903225242D6328188F2FA5C4183471359997F9FF81E89FF3C41E1816475E02DF1F80A11FC8386F25A438EECEC07A250251FC3803E6F58C12560C4AD840E95E91C151A72936F496F35732D860FE635F62C8F2DA16B5
310
05C545B74125BAA2FA9E05D7CC053D063734D5C7665FD55B6B8D15D5E9BFEAFD8490FFA45E504B03041400060808007D4F2242097F373EFA000000A00100003B0000006662782F30323137453036452D313434432D343546452D393842392D3331413535443043453338352F7265736F75726365732F636F72652E786D6C8D
310
505B6AC42014DD8AF86FA249DA4906E390967405DD80E89D5466A2C147E9F2AB9314DABF82782FE7C13D1C7EF95AEFE8137C30CE8E98551423B0CA69639711A778253D4617C1BD73F1970C232B57187181B1E08B77693B20E56C041B336A9D8603942140C448DDF332E2A03E6095954C312BC2ADDAA4BAC9052A56653AEB04
310
0FD1E700683F527E2C3C0497BC82C0EB9D153C25A30F8DD1F9A6B91AF058B0A1A5733334844D6C26DD89F6649ADB1732BF7627D64D6F03631DAF8B59F068D69F8CCA838CA0B168286B09658436EF74383FE5D713FA7CA694D745FEC79436FD4F533236B6CD1177B7859C3507791082D7A5AF3C1E65E659BA15DF504B010214
310
000A00000800007D4F22423DEE336E79000000790000001B00000000000000000000000000000000006175746F6465736B2D64657369676E2D7061636B6167652E786D6C504B010214001400060808007D4F2242D486FD9CA0000000F40000001300000000000000000000000000B20000005B436F6E74656E745F54797065
310
735D2E786D6C504B010214001400060808007D4F22421AD419A6E80000007C010000080000000000000000000000000083010000636F72652E786D6C504B010214001400060808007D4F224255019EA25F0000007C000000070000000000000000000000000091020000636E782E786D6C504B010214001400060808007D4F
310
22424C25FAAB64010000020300000C00000000000000000000000000150300006662782F636F72652E786D6C504B010214001400060808007D4F2242944FE0487E0000009D0000000B00000000000000000000000000A30400006662782F636E782E786D6C504B010214001400060808007D4F2242D3FE69F62B0100001502
310
000031000000000000000000000000004A0500006662782F30323137453036452D313434432D343546452D393842392D3331413535443043453338352F636F72652E786D6C504B010214001400060808007D4F22426FAD4D0A54010000330300003000000000000000000000000000C40600006662782F3032313745303645
310
2D313434432D343546452D393842392D3331413535443043453338352F636E782E786D6C504B010214001400060808007D4F2242E8CAC436640700009A1B00003400000000000000000000000000660800006662782F30323137453036452D313434432D343546452D393842392D3331413535443043453338352F6F626A65
310
6374732E786D6C504B010214001400060800007D4F224200000000000000000000000035000000000000000000000000001C1000006662782F30323137453036452D313434432D343546452D393842392D3331413535443043453338352F76657274696365732E62696E504B010214001400060808007D4F2242F270F13306
310
0000000400000036000000000000000000000000006F1000006662782F30323137453036452D313434432D343546452D393842392D3331413535443043453338352F747269616E676C65732E62696E504B010214001400060800007D4F22420000000000000000000000003700000000000000000000000000C91000006662
310
782F30323137453036452D313434432D343546452D393842392D3331413535443043453338352F617474726962757465732E62696E504B010214001400060808007D4F2242D5987DFC8F0000004101000036000000000000000000000000001E1100006662782F30323137453036452D313434432D343546452D393842392D
310
3331413535443043453338352F6469726563746F72792E786D6C504B010214001400060808007D4F2242097F373EFA000000A00100003B00000000000000000000000000011200006662782F30323137453036452D313434432D343546452D393842392D3331413535443043453338352F7265736F75726365732F636F7265
310
2E786D6C504B0506000000000E000E0080040000541300000000
  0
XRECORD
  5
17
102
{ACAD_REACTORS
330
12
102
}
330
12
100
AcDbXrecord
280
     1
270
     1
271
     1
  0
XRECORD
  5
16
102
{ACAD_REACTORS
330
12
102
}
330
12
100
AcDbXrecord
280
     1
270
     1
271
     1
  0
XRECORD
  5
18
102
{ACAD_REACTORS
330
12
102
}
330
12
100
AcDbXrecord
280
     1
270
     1
271
     1
  0
XRECORD
  5
15
102
{ACAD_REACTORS
330
12
102
}
330
12
100
AcDbXrecord
280
     1
270
     1
271
     1
  0
XRECORD
  5
24
102
{ACAD_REACTORS
330
22
102
}
330
22
100
AcDbXrecord
280
     1
270
     1
271
     1
  0
XRECORD
  5
23
102
{ACAD_REACTORS
330
22
102
}
330
22
100
AcDbXrecord
280
     1
270
     1
271
     1
  0
XRECORD
  5
BA
102
{ACAD_REACTORS
330
22
102
}
330
22
100
AcDbXrecord
280
     1
 70
     1
 90
1959938040
 71
     1
  1
D10B5C47-C738-4FF9-AC37-89D96969CFD4
311
504B03040A00000800007D4F22423DEE336E79000000790000001B0000006175746F6465736B2D64657369676E2D7061636B6167652E786D6C3C3F786D6C2076657273696F6E3D22312E302220656E636F64696E673D227574662D3822203F3E3C666F726D6174733E3C666F726D61743E687474703A2F2F736368656D612E
311
6175746F6465736B2E636F6D2F64657369676E2D7061636B6167652F323030393C2F666F726D61743E3C2F666F726D6174733E504B03041400060808007D4F2242D486FD9CA0000000F4000000130000005B436F6E74656E745F54797065735D2E786D6C7D8EC10E82300C865F65E91D8A1E8C310C0EEA1BF002731658846E
311
D98AC1B77784ABF1D8FE5FBFBF75BBCE937A534CCEB38643598122B6FEE978D0B0485F9C41B54DDD7D022595594E1A469170414C76A4D9A4D207E29CF43ECE46F218070CC6BECC4078ACAA135ACF422C856C0E68EA1BF5669944DDD7BCDE7B1F8E415D77AECB980613C2E4AC91FC167A2B244592486606FC29C8FD7F045B9A
311
EF7053A7E60B504B03041400060808007D4F2242418D1C67E90000007C01000008000000636F72652E786D6C8D90516EC3201044AF82F61F1B1C923811264AEDF604BD0002E2A0C46019A87AFC42E248ED5F25A45D0DF37657C34FDFD31D7D992558EF3AA01501649CF2DABAB183142FB80574127CF13EFEB2017272321D14
311
19041F179FE65552DE45E362569DD766156508260252F7DC7410D4D54CB292296647B855B35437399A8ABEBA0CA764357A2EB13ACFB3176B16106C606FEC4C29DEED09C36CBF1DF0A1652D3EF7F4BDDF0D7DDB7C505E1758F068A7D77EB518198D06D110BAC18462D27C92C3719B5F8BC9EE4808AF8BFD0F9466FD4F285917
311
37CD7AEE130B20CA218F0FC1EB92452E8FA0722DB9891F504B03041400060808007D4F224255019EA25F0000007C00000007000000636E782E786D6C4DCB3B0E80201045D1AD90E915ED2CF8AC45050C11660C8261F98AB1B07AC9C97D42D718D865D3E909258CFD00CCE24AC6E326A164D74DC0B4128928FF326038472BA1
311
3128B1252AC747C6BAB984FC68F0B87FE8960A5C09FE86CFB69FBA01504B03041400060808007D4F2242B5C392E465010000020300000C0000006662782F636F72652E786D6C8D52ED8E8230107C95A6FF4B0BA2A229359EDE3DC1BD4085CA35424B4A4B7CFC5B3E8CE7C5180381666667777680EFAE4D8D7AE53A6D4D8EE3
311
8861A44C614B6DAA1C077F2619463BC19DB5FE4F194646362AC7038C05AF9C0DED0C15D678653CA0C6966A0665D7298F5151C321C75DF1A31A19C9E0A1A2BB44AD2C2EB252511C010D758277DE8101340D199E589C4F574E275CF0107439B3BA8469FAAC95C3223DA61FE93E8EC96ACD5292AE9747B2C9D28CEC0FF1E76175
311
3C64C957CCE92016DCEBE6E6AE704A7A556291B07841584C58F2CD36DB25DC1961AB2D639C0EE50FA2D0966F8A82367E91CC76275987C5606424FE6D0B1179D4C91EFC50C1E91022BCC6841F83864020642F4FF56D8F0B40BD2ABC752930A50D77AA9775503095A1F1E27462A1F3D800367BDA2779D1E7750FF880D254604D
311
7A389E821FA6F369EA1C45AB1CE9FD1519EB1A59DFCD4D16EFCFFBA0A7F2C2D6D6BDA3A6F3AA740E930E7FAFF805504B03041400060808007D4F22426B86D2C67E0000009D0000000B0000006662782F636E782E786D6C4DCCD10E82201886E15B61FF39A9A9541BE0FCC3EEC3253A164243705D7EDA3CE8E8DB9E7D7B79F3
311
992D5975588C77028A530E44BBA71F8C9B04A438D22B9046F2E07DFCBB0171FDAC05EC0C924FC1A7F741831EFB64E3A6D6B8D78197A266EA5177B46D4B462BA6727A534AD1AEC48A313CE31D1132C9B35F69DB3D2CBF504B03041400060808007D4F22423428C9A32C01000015020000310000006662782F37313536444635
311
452D414133362D343644302D394444442D4533423436364232424342422F636F72652E786D6C8D515B6EC32010BC0AE22BFDC0063F681261A2B84E4FD00BB8405294182C1E558E5FA81DA9FD8B8458343B333B62D9E13EDDC0B7725E5BD3415260089411566A73E9600C67B485E0C099B336FCA14160C6497530C390B38BB3
311
715E21614D502624D458A95670F45E0508C42D3D3AE8C5979AC6628C2131FCB59847711D2FAA20456A271E673EB814002C43F20DF92B69E9F0DE9ED0F15853D4D001A3DD300CE854F70DA57DD5BFF53D2B172167316AB9CAB54C71F4592BF7AC49167316F4F4882F9C1A8392905798D4081384AB0FBCDBB7E96C11A67B8C59
311
99E9FF4471964F8AA236A1AED6B88BCC434E58B9343893367EDE1E61D47DB62E803C6FE39578811C1718D794D43BBC65E5C24D3F904C69B39AFA605DFAE1CDF533D149BB38D386B3322F2995DF0DA69A17CA7F00504B03041400060808007D4F2242090A821D4D01000033030000300000006662782F37313536444635452D
311
414133362D343644302D394444442D4533423436364232424342422F636E782E786D6CD593CD6EC32010845F0571B78D93344A2B4CA41EFA043DF48A6193D060B0F8A99AB7EF929034971C7AAC64216B7698597DB2F9F67BB2E40B4234DE0DB46F1925E094D7C6ED079AD3AED950B2153C789FEE6C943839C1408B4C05DF07
311
9FE72A69D8C96C13AAD6B8631503449F83828872B949AC57D26200B826A308D3085A83263723BEED20E02A288E27920E40DE5E3F881F3F41A5C8BB922278573A042F676DBA3351A2AC8C71A0511D6092ADCCC96B88C756CB24DBBEBD763DD8E93789940BD7CA1C0C29E5032D271575A31639F20E8782C714905E35A5D30C54
311
C879B646C98490BBB3F1E2113C1B97D6ABEA35083EA0BB5F2F572B0C3BCF044F6682EA500164024DC582F5CB86F50D5BBCB3E797277C360D5BBF30C6BB62177CF4DED64B1803C1CF447997C0252A7ADE95F1237CD547B409C8DA87D31F402280DA7AA173CBF8CF7CBAF3F78DB802FE05E207504B03041400060808007D4F22
311
429A0153C4A405000080100000340000006662782F37313536444635452D414133362D343644302D394444442D4533423436364232424342422F6F626A656374732E786D6CAD57DB6EDB3810FD1541FBB2FBE08B6CE7E285A222B19BC228D216355AEC8301839228851BEA02924A9CFDFA3D14295972EDD4BB28024416351C
311
CE9C3973A1FF6E9771E7990AC98AFCC6F58663D7A17954C42C4F6FDC4A25836BD77917F8A2285447CC757292D11B572FBB819F8AA22AED524C13527175B07A7FF79723239A53D7893891F2C695D123CDC89054AA88A97C1AC64491619AEC86DED008F6D5A682948F074A4B2268AE6029D67368718C515EFF75EC8E027FA4BF
311
07BEFE6FA5A6A7A546B53FFDF3592E15C9A31F0E3B5033F566CBF7938BF9E062369B0E6697136F70777FB71C7857D3F1E272B198DFBE9FE360A90434594B044DDCE003B0112CF247E653E0572C57D38915B1011A09FACC74A4DC60E278FEC8C8B4DE59278F991F15794EA31A2BA051FB6755C7B4A4798C98332A615907A171
311
FFD5D338763E4FF5BB3DB2BB7C1E02DD1D1D458DEDCDB36B6911FE0D17E4390C12926A061A2CADA386ABE33DC2615170FB8D4927238A0A46B8C3592888787503886A91C0EFA9D14C163A1BB4076E802898CF7DBA208D7ECEF363562615E79AC66E5067C116B94295AC2D63FF50B1B7BE8B0C6C42AC341BAEAD43EAB5A46E30
311
3714B93E609301D24938491172B8A9774E27078E2E749EAE966EF0F13EDCAD75EE1E3FBC14454985D2F401B59AC0354F8D92B5C93B2B727A837B60CA1E94AF40FE13527D6F0AE226D86EB69BD9539420B94C0A912136CED8198CF16FEC78F57FFDBBF3CB1FB59BFBD13B852782ADA1FA0578F67DE8C6B20367E03F83F08598
311
5AD7D611E1281B0F2C07409A240E2FB0843A9C843B3758A1CAA12A6317E181079761EE337EFA23AB0685A23EA9F3CC81E541593CA34003B69A9130C390DF1AB88FD30FE5AC3ED88A9D82F7E297D0F576B9FEB8AE444222FA60737A491396338516B7E74DD7A01EE63D8F9EE8EB4B216238FA23DEEB2EDE993D4A026D8DB906
311
3E6D6ABA7ED99FDC3B20C2BEB4D0E5C6FFC909704237D68EFE072623CA39C9695135E7BED93FD0360CC43AD93593DB06B36F2C208DF972908368D29160A506B1ED566DD11C9EF0EEDBEA131809795E8484EF85C27DE98D0A5E886DF8BA3555E928D2DFFBD4B6108CB416B0BDCE9126FD2DE6DB9825492551038FC0FA7DB5E8
311
864E5705548846AB499619DC476E116139DBE845B316048DB4C8B70C6D136977F480AE7E206A09502B3C65B1A43CD932CEAB6C9B308E66B4CD4879028EFF6F7F5865E596644595AB13BA7BA6A339F46DEF9157BE10153DBAC1BA7E0EEE507A631AEFC3DC13D6ADE40856BDD02EBDF1DDC5627635585C4DAF07B3FBFBF9E076
311
31BD1A5CCF97F34BFC2DEE97B3264E4679E0379DA69BD088123A9B5F0966C3F76D85F4B135C00D1E88929B0F263B9BE7B7D510A3B03FC21EB4CB76E36DFC8CB18FC63F57B0973CAA6895959C66345744A7D083FEC1BF128C193D63CCFA2A23293D43CBE70FEB0367B072C6BE2F3ADDE9CBC15EBBBAD0097954897AACB23027
311
8C1F6C4C0D92C3324F2D7E4D4CDAA7E933CDAB7EB381C1602A0BCE6294C1D849699151856278460F121995A05E77A48FEDD5E38CDDCF66405424E4B4B1E4916046E61269016A5591EAAF3BBF61A6D363D58D8B6E3B7CC23F5B295C079CB97131A32B1651390CD19FF524542B0797BA833CE67E92A71CA3B6D9D4BEB7BB3436
311
BD8EDC8A9C333E59BF4C05B70EA08C94181B300F213AB531815FDB66BF47FFC9F1C61C8728FC0C2BD5FAB25F689DA98F418A1AA7EC650133CC933D7A87447DDB2D6F58CBF41039EB92F526098CD6812222AD2F0ADA3E6BD2EDF2CB08038AB3FAEC94BC4A11CBF3350D0405992B9DE06011586175964481AA8B3F375F44818B
311
6CE6DC3350C0F97D777DF9C766516459919BA5CDADBD0E3BEB475C6EE30D8A03D5B712B9998CBDC9A6BE0DD80BCA3624920E492C9FB080C80AD602DD0B3F7869AE8CE843E6432B37D2A13860E86AE9D8C6864ADBC8776BAB060773474E1DE490BE51EA8CE90A946F5E0846B5284C1018E5837F01504B03041400060800007D
311
4F2242000000000000000000000000350000006662782F37313536444635452D414133362D343644302D394444442D4533423436364232424342422F76657274696365732E62696E504B03041400060808007D4F2242F270F1330600000004000000360000006662782F37313536444635452D414133362D343644302D3944
311
44442D4533423436364232424342422F747269616E676C65732E62696E636660600000504B03041400060800007D4F2242000000000000000000000000370000006662782F37313536444635452D414133362D343644302D394444442D4533423436364232424342422F617474726962757465732E62696E504B0304140006
311
0808007D4F2242D5987DFC8F00000041010000360000006662782F37313536444635452D414133362D343644302D394444442D4533423436364232424342422F6469726563746F72792E786D6C858F410EC2201045AF4266AF15DDB800BA74E7C21B903225242D6328188F2FA5C4183471359997F9FF81E89FF3C41E181647
311
5E02DF1F80A11FC8386F25A438EECEC07A250251FC3803E6F58C12560C4AD840E95E91C151A72936F496F35732D860FE635F62C8F2DA16B505C545B74125BAA2FA9E05D7CC053D063734D5C7665FD55B6B8D15D5E9BFEAFD8490FFA45E504B03041400060808007D4F2242522632FFFC000000A00100003B0000006662782F
311
37313536444635452D414133362D343644302D394444442D4533423436364232424342422F7265736F75726365732F636F72652E786D6C8D505B6E833010BC0ADA7F834D484222E32885F604BD806536D44AB0911F558F5F3B50A9FDAB647957F3D08E865FBEE647F189CE6B6B3A602585028DB2A336530731DC480BC54570
311
676DF82583C2C8193BC830083E391B970D52D6043421A1C68EB881D27B0C50A8475A3AF0EA036759CA1892C2DFCB45AABB9CB06465A2934E701F5C0A50AC47F20FC2A1B7D129F4BC5A59C163D4E3A6D163BAA96F1A1D8866685E9A2BA3E470A40D698EFB819CDAA625D79EBDF687A16FEB37C6AB6C163CE8F927A37228038E
311
206ACA76843242EB777A3AEFD36B093D9C29E55596FF31C565FCA7296A1376F51677B5791039C89310BCCA7DA5F12C33CDDCADF806504B010214000A00000800007D4F22423DEE336E79000000790000001B00000000000000000000000000000000006175746F6465736B2D64657369676E2D7061636B6167652E786D6C50
311
4B010214001400060808007D4F2242D486FD9CA0000000F40000001300000000000000000000000000B20000005B436F6E74656E745F54797065735D2E786D6C504B010214001400060808007D4F2242418D1C67E90000007C010000080000000000000000000000000083010000636F72652E786D6C504B01021400140006
311
0808007D4F224255019EA25F0000007C000000070000000000000000000000000092020000636E782E786D6C504B010214001400060808007D4F2242B5C392E465010000020300000C00000000000000000000000000160300006662782F636F72652E786D6C504B010214001400060808007D4F22426B86D2C67E0000009D
311
0000000B00000000000000000000000000A50400006662782F636E782E786D6C504B010214001400060808007D4F22423428C9A32C0100001502000031000000000000000000000000004C0500006662782F37313536444635452D414133362D343644302D394444442D4533423436364232424342422F636F72652E786D6C
311
504B010214001400060808007D4F2242090A821D4D010000330300003000000000000000000000000000C70600006662782F37313536444635452D414133362D343644302D394444442D4533423436364232424342422F636E782E786D6C504B010214001400060808007D4F22429A0153C4A4050000801000003400000000
311
000000000000000000620800006662782F37313536444635452D414133362D343644302D394444442D4533423436364232424342422F6F626A656374732E786D6C504B010214001400060800007D4F22420000000000000000000000003500000000000000000000000000580E00006662782F37313536444635452D414133
311
362D343644302D394444442D4533423436364232424342422F76657274696365732E62696E504B010214001400060808007D4F2242F270F13306000000040000003600000000000000000000000000AB0E00006662782F37313536444635452D414133362D343644302D394444442D4533423436364232424342422F747269
311
616E676C65732E62696E504B010214001400060800007D4F22420000000000000000000000003700000000000000000000000000050F00006662782F37313536444635452D414133362D343644302D394444442D4533423436364232424342422F617474726962757465732E62696E504B010214001400060808007D4F2242
311
D5987DFC8F0000004101000036000000000000000000000000005A0F00006662782F37313536444635452D414133362D343644302D394444442D4533423436364232424342422F6469726563746F72792E786D6C504B010214001400060808007D4F2242522632FFFC000000A00100003B000000000000000000000000003D
311
1000006662782F37313536444635452D414133362D343644302D394444442D4533423436364232424342422F7265736F75726365732F636F72652E786D6C504B0506000000000E000E0080040000921100000000
310
504B03040A00000800007D4F22423DEE336E79000000790000001B0000006175746F6465736B2D64657369676E2D7061636B6167652E786D6C3C3F786D6C2076657273696F6E3D22312E302220656E636F64696E673D227574662D3822203F3E3C666F726D6174733E3C666F726D61743E687474703A2F2F736368656D612E
310
6175746F6465736B2E636F6D2F64657369676E2D7061636B6167652F323030393C2F666F726D61743E3C2F666F726D6174733E504B03041400060808007D4F2242D486FD9CA0000000F4000000130000005B436F6E74656E745F54797065735D2E786D6C7D8EC10E82300C865F65E91D8A1E8C310C0EEA1BF002731658846E
310
D98AC1B77784ABF1D8FE5FBFBF75BBCE937A534CCEB38643598122B6FEE978D0B0485F9C41B54DDD7D022595594E1A469170414C76A4D9A4D207E29CF43ECE46F218070CC6BECC4078ACAA135ACF422C856C0E68EA1BF5669944DDD7BCDE7B1F8E415D77AECB980613C2E4AC91FC167A2B244592486606FC29C8FD7F045B9A
310
EF7053A7E60B504B03041400060808007D4F224259ABE3C6E90000007C01000008000000636F72652E786D6C8D905D6EC3201084AF82F61D1BFF2711267293DCA01740B0715062B00C543D7E71E248ED5B25A45D0DF3EDAE861FBFA707F9C2C51B677B28320604AD72DAD8B18718AE7407E428F8E25CF8650362E5843DAC32
310
083E2E2ECE9BA49C0D684352ADD3B889D27B0C40D423353D7875C349663286E4F0F76C96EA2E47CC8A7797E0188D26AF2546A779E66A7001D154FBBAFAE8065A0F35A3F57977A643773AD1B6EA2E5D7B69D9D0743C5F61C18399DEFBD58232A00651B2A2A2ACA0ACFC64FB4393DE8EB2F6C018CF57FB1F28CEFA9F50343654
310
E576EE0BF3208A74C8F343F07CCD22956750A9AEB9891F504B03041400060808007D4F224255019EA25F0000007C00000007000000636E782E786D6C4DCB3B0E80201045D1AD90E915ED2CF8AC45050C11660C8261F98AB1B07AC9C97D42D718D865D3E909258CFD00CCE24AC6E326A164D74DC0B4128928FF326038472BA1
310
3128B1252AC747C6BAB984FC68F0B87FE8960A5C09FE86CFB69FBA01504B03041400060808007D4F22420BF3B70065010000020300000C0000006662782F636F72652E786D6C8D52ED8E8230107C95A6FF4B8B20A8A9359CFA06F70215AAD708AD292DF1F16FF9309C17630C049A999DDDD901BEBB3735EA946BB5355B1C47
310
0C23654A5B6973D9E2E0CF6485D14E7067ADFF538691918DDAE21EC6825F9C0DB7092AADF1CA78408DADD404CAB6551EA3B286C316B7E58F6A642483878AF61ADD6479951715C511D0502778EB1D1840E390FE89C5F974E774C4050F415713AB2B98A6CF5A392C96C93A4DBEF282A445CA487A581D4891EFF7244BF2639E1D
310
33562C734E7BB1E05E370F77A553D2AB0A8B058B13C262C216DF6CBD59C2BD222CDB30C6695FFE240AB7EA4351D0C6278BC9EE286BB188C1C840FCDB1622F2A8951DF8A182D33E44780D093F070D8140C85E9EEAC71E57803A557AEB52602A1B66AA9375503095A1E1E27464A1F3D000367BD967F1A6CFFB1EF001A5B98035
310
E9E1780ABE9FCEC7A9531437E548E7EFC858D7C87A36375A9C9FF3A097F2D2D6D67DA2A6D3AA740A93F67FAFF805504B03041400060808007D4F2242381D6B267D0000009D0000000B0000006662782F636E782E786D6C4DCCD10A83201886E15B91FFDCA53923410DCC751FB12C64A5C3E9D8E5AF46073BFAE0E1E395DD67
310
5BD1DBA5978F4101BD10402EDCE3E4C3A2A0E419B7803A2D538CF9EF06288C9B53703068B9A4589E274D6E1ECB9A775D7D789CC81B7B637CE0D8726EF0B535041B412D26CDD03351D39ED5022A2DAB5F69DF23ACBF504B03041400060808007D4F2242AF8794EC2901000015020000310000006662782F3536444533354635
310
2D443535422D343842302D423931442D3036464333393231433332392F636F72652E786D6C8D515B6EC32010BC0AE2ABFDC006BF14479848499A13F40204931425068B4795E377A91DA9FD8B8458343B333B62F9EE31DDD1B7F6C1383B6056508CB4556E34F63AE0142F6483D14E70EF5CFC43C3C8CA490F38C358F0AB7769
310
5E21E56CD436026ADDA8575086A02346EA0E8F0107F5A52759C81481116EC52CD54D5E75C10A68034FF0103D0440CB907C63D176C78FBA3DB5E4D8B67BD26CF694EC7B7624B43B1DEABE6287BAEA79B908054FC98CABDC8C10C75C8CF6AF9A64B1E0D14CCFF8CA6B19F5884545594D2823B4FAA4FDB685B381005B4A7999E9
310
FF44691E5F142563635DAD711759C082F17269083EBA74BE3FC3E8C7EC7C4479DE5BD0EA1D0B5A50DAF4B48774BC5CB8F00360DA35AB6988CEC30FBFDDCE40AF57E7AE11BCCC4B82F2BB41A879A1E207504B03041400060808007D4F22426FAD4D0A5401000033030000300000006662782F35364445333546352D44353542
310
2D343842302D423931442D3036464333393231433332392F636E782E786D6CBD93CD6EC23010845FC5F23D7F40238A1C23F5D027E8A157C75EC0C5B123FF54E5EDBB0643B970A854558AAC68763CB3FA94B0EDD764C827F8A09D1D6857B79480954E69BB1F688ABB6A4DC99633EF5CBCB35162C50403CD32E56CEF5D9A8BA4
310
60279289A81A6D8F45F4105CF21202CAF926314E0A830160AB84224C2328058ADC8CF8B6038FABA0389E483C00797D79276EFC0019036B720A674DEEE02C9FA5E9CE44893422848106798049D42245A7201C6B25A2A8BBFADAF560A79F24922F5C2B93D724970F349F94978D6AE4C81A1C7216A2477AC5144F33502EE6D968
310
2922426ECEC68B87B3A46DEC57C5AB11BC47F772D1AFD718769E7116F504C5213D88088AF245DB2DABB6ABDAC55BFBBC79C2675DB5FDA66D5993ED9C8DCE99720963C0BB99486723D84879C79A3C7E84AFF888D21E593B7FFA054804505A2F746E197FC9A7EB97ABD53FF269CEDF37E2F2F817F06F504B0304140006080800
310
7D4F224221E666E860070000991B0000340000006662782F35364445333546352D443535422D343842302D423931442D3036464333393231433332392F6F626A656374732E786D6CED595B6FA33814FE2B887DD97D08094D7A5B51466DB2ADA2516746939DD13E44420E38D45B63906D7AD95FBFC71708D0D0929DEEDBA86A
310
00631F9FF39DAB0FC187A78C3A0F980B92B30BD7F726AE83599C2784A5176E29B7A333D7F910063CCF65639AEB3094E10B570DBB6190F2BC2CEC5082B7A8A4B2337A7DF5972362CCB0EBC4140971E18AF80E67C843A5CC132CEEBD0449E4A5DB27CFF7CCC436D994A3E2AE43B4401C33099CC238032A8E61CA6F3F4EDC7118
310
8CD5FB3050BF76D674D0AC59FFACB196BACD2561422216BF60A943663A88A5A93F5BFC71747C3E3A9ECDA6A3D9C9913FBABABE5A8CFCD3E9647E329F9F5FFE710EEC6DF29C5A99125C609680FE9EDDD00FC6EA4D2DBA45601FD771CE188E3590009516AB4B9060015B35E09BB41F7D2551E3B596B0F13C53EF2D0B8DE1699B
310
4ADFAC6140B4E8822076BB4AE2EADA942FDFFC0D828B2146C90596C0AD901CB46BE1E1E0156E3809C666340C363B5D10E16448624E107528D970C4412930554D0903B3C09251CEC18194A324D09A33AFDBB6059EF9B6EBECE3725B52AA3CC30DB56345E07E580ACD19F907F31DF74D64802790B6244C9E592EE57381DDF03C
310
18EBC1305097E9917D698074B614A5422362DE76049D2BD75F2EDCF0E3F5E669A5C2C1FECD0B9E17984B65744A8F9A2F30647B5528D96DFD419A530B401803AA5DB903E52B20FF09A2C78E15D01B274FB3A7999D2B3962629BF30C74E34C9CD1047E268EAF7FD57DE32E18D78BDBDAEBC313DC544175F6E378B665D05859FE
310
1B7086C103187CCEA7F6D52A4614ECF996300048198943731882D0BEDD3CB9E1120227047A588568E883C8C0EE03DC06634B66A795CABDACD73140D4EE311DA224804D5B24B0D1A3A71BC81E9CC43B353545EC83F7F85DCCF572B1FAB82AF916C5F8D6FAF4026F092312B2E67E865A98B724BAC7CF8F394F40D09778AF9A78
310
67762B01682BCC15F06905827AD8EDDCDA20867569AEC24DF0C60E2084CAD50DFAB744C49852C4705E56FBD6D14D196AEDF1B66670C32303F1F4A863C21C3F10555580D3EC66B41885BC1F73522810DDF0C64856074DAF47BA6FCB4F6091F5FC9E594B06A19721FAA70E5A7B7068597685B405A21678B30BE7714E731E6D9E
310
2313E95CA825808DB6B77C6F1185586F94A4A8800769BFAB424A6AA48D12B2DD9602E2EA1E16BF2FE74D73987853FFD869FE769C7106D1167C1771EB779D3D2292A114475B94F46DD7DCADA62D34C91ED21C6F29C8451E887C8E908C26094E0F81E620E2E7EF4A3DA5B910846101F96A2FF84D34261E0412A3CD8A65A5D50E
310
D044441996881E828022D303AE4E3BBAC68DA174789BC7DA7A5FD35893E8FF64111C412D99B38840290A39E44DC67DEF1862481B5D8372075FB0B68AB61683965042C4CFD12326E99D3C047543BE07F7188E24A58CF202C560D603C8BEF015A5D40EEF1B14DFABFC11C5257D2F0311986E2342699945F04F189C3C86B8761D
310
985E45A141DCC43E893328CA902CF9904D4E8E272FF631354337043636DA120A613BCA50D1837A2B20EA7AC4A9C1B7D47B94BA29B32242595EB24186E24DBBDE64C977D5AAC80EE457958A503656842DC130204CD659B58AD960EA3AB0821BE940F51C099415D49CC2DE483C7EED4D9A72EF06DCFAE9FB6E9041E1D7A3BD66
310
449D5530581E5B8581784432BE73C395BE8EAEA0FE4E70B24BF555ADD9AC00013115C94B4EAC8ABE2DA1BCB1359A1BDE2229D63726EB56D76F4B0FBA1FC118D640ED522F5C2AA033CC245295C9ADBAA15F1184E0160D33BE5439F5102A9749A2AB4644AF499F3A5B65446BD38C78C51D667906FF6C4D584CCB04AF5122EEA3
310
5B49A31551AC5B29BD8C5418BF2AE0E79B55071E181920D21755E0E1C7CE5A3B3A57E5D25E22F2AECC360C1108822DD152A31BAF60A9D548A5E5FAAACE14507781815915CF7E9E2C9AED889F278BD41AC68F9D2C68BE4174176D1AD93C56667DD029A04E4F8ACA7B9C0274D7A1A65A271193CBADF8D69722888955901F5C8C
310
5531C310ECE3F83F27EDBE2468B6EBF07F58D2F65F141C072595D664D5A4DA53B82E9B296CE14FAE8EE7B3D3D1FC747A369A5D5F9F8F2EE7D3D3D1D9F9E2FC04FEE6D78B598DA6F6D330A863994E5DF06C625A35AC9E2C06D094153925091CE61327C510F2251CE90774CF798605E4CE66AF3BB13DF901AB1F4C9B53A20DC5
310
15277708FAC3544056078CCA58B6C79D5FA03329E19C7DE142CFC8BB871F6B95AE0389E7C2854E81243116DE06BA4CAA9FA78943C6D5A9DF12037C104B5546348BEAE77A95C2A615FDEB2943B28095ABD5C280BAAD80E657AB41A179B33CC507095EB1E32009B79B5242B16664D90DD4C2E86D76EA37B251C2EEEDD64FE0BA
310
AF8BE57B7A4E0B91415F0C5E3502437524114F75BB5B316659BA5C7C19439BCD597E760A5AA6A0CBE194461C833197AA9E022B02ABB0340B24C154E7BFAFBFF01CBEF0648E2E8A9C5F9FCE4E7E5BCFF32CCB99195A5FC2A12C81EF44CEEA0EBEFA246BA81DB0EAAD8BF5D1C43F5AEB9EB66DB3471B24B0A78A2218A86A0925
310
48C7E4C02E5FF4A76CF772AC54D199BE5C383688422FC0D8D18B16AFF9C6E5800FA9AF29CA63B49F57D2BEDAD61EEBA960131C1AD2E1BF504B03041400060800007D4F2242000000000000000000000000350000006662782F35364445333546352D443535422D343842302D423931442D3036464333393231433332392F76
310
657274696365732E62696E504B03041400060808007D4F2242F270F1330600000004000000360000006662782F35364445333546352D443535422D343842302D423931442D3036464333393231433332392F747269616E676C65732E62696E636660600000504B03041400060800007D4F2242000000000000000000000000
310
370000006662782F35364445333546352D443535422D343842302D423931442D3036464333393231433332392F617474726962757465732E62696E504B03041400060808007D4F2242D5987DFC8F00000041010000360000006662782F35364445333546352D443535422D343842302D423931442D30364643333932314333
310
32392F6469726563746F72792E786D6C858F410EC2201045AF4266AF15DDB800BA74E7C21B903225242D6328188F2FA5C4183471359997F9FF81E89FF3C41E1816475E02DF1F80A11FC8386F25A438EECEC07A250251FC3803E6F58C12560C4AD840E95E91C151A72936F496F35732D860FE635F62C8F2DA16B505C545B741
310
25BAA2FA9E05D7CC053D063734D5C7665FD55B6B8D15D5E9BFEAFD8490FFA45E504B03041400060808007D4F2242E4628007FB000000A00100003B0000006662782F35364445333546352D443535422D343842302D423931442D3036464333393231433332392F7265736F75726365732F636F72652E786D6C8D50596AC330
310
10BD8A997FD9F26E0759C14D72835E40C8135724968C96D2E3578E5D68FF0A4233BC85793C76FE5A9EC9275AA78C1E204F2924A8A599949E0708FE4E3A48CE9C5963FC2F19245A2C38C0060367B335613D2069B447ED23AACD8407289C430F897CC66500273F7011A9083E2ADC235D857C8819D33C8D74D471E6BC8D0192FD
310
C8F603B7E84CB0121DCB7696B310D47468D4146FAABB420BBC2EFBAA7C6B7B528D1525D5B5BB92B1BD5C4853B6B7B6B93574AC5B966D66CEBC5A7E324A8BC2E304BCA07949684E68F14EFB531D5F476873A294659BFC8F29ACD33F4D41695F1647DCDDE680E731C88BE02CDBFA8AE355669C5BB7FC1B504B010214000A0000
310
0800007D4F22423DEE336E79000000790000001B00000000000000000000000000000000006175746F6465736B2D64657369676E2D7061636B6167652E786D6C504B010214001400060808007D4F2242D486FD9CA0000000F40000001300000000000000000000000000B20000005B436F6E74656E745F54797065735D2E78
310
6D6C504B010214001400060808007D4F224259ABE3C6E90000007C010000080000000000000000000000000083010000636F72652E786D6C504B010214001400060808007D4F224255019EA25F0000007C000000070000000000000000000000000092020000636E782E786D6C504B010214001400060808007D4F22420BF3
310
B70065010000020300000C00000000000000000000000000160300006662782F636F72652E786D6C504B010214001400060808007D4F2242381D6B267D0000009D0000000B00000000000000000000000000A50400006662782F636E782E786D6C504B010214001400060808007D4F2242AF8794EC29010000150200003100
310
0000000000000000000000004B0500006662782F35364445333546352D443535422D343842302D423931442D3036464333393231433332392F636F72652E786D6C504B010214001400060808007D4F22426FAD4D0A54010000330300003000000000000000000000000000C30600006662782F35364445333546352D443535
310
422D343842302D423931442D3036464333393231433332392F636E782E786D6C504B010214001400060808007D4F224221E666E860070000991B00003400000000000000000000000000650800006662782F35364445333546352D443535422D343842302D423931442D3036464333393231433332392F6F626A656374732E
310
786D6C504B010214001400060800007D4F22420000000000000000000000003500000000000000000000000000171000006662782F35364445333546352D443535422D343842302D423931442D3036464333393231433332392F76657274696365732E62696E504B010214001400060808007D4F2242F270F1330600000004
310
00000036000000000000000000000000006A1000006662782F35364445333546352D443535422D343842302D423931442D3036464333393231433332392F747269616E676C65732E62696E504B010214001400060800007D4F22420000000000000000000000003700000000000000000000000000C41000006662782F3536
310
4445333546352D443535422D343842302D423931442D3036464333393231433332392F617474726962757465732E62696E504B010214001400060808007D4F2242D5987DFC8F000000410100003600000000000000000000000000191100006662782F35364445333546352D443535422D343842302D423931442D30364643
310
33393231433332392F6469726563746F72792E786D6C504B010214001400060808007D4F2242E4628007FB000000A00100003B00000000000000000000000000FC1100006662782F35364445333546352D443535422D343842302D423931442D3036464333393231433332392F7265736F75726365732F636F72652E786D6C
310
504B0506000000000E000E0080040000501300000000
  0
XRECORD
  5
27
102
{ACAD_REACTORS
330
22
102
}
330
22
100
AcDbXrecord
280
     1
270
     1
271
     1
  0
XRECORD
  5
26
102
{ACAD_REACTORS
330
22
102
}
330
22
100
AcDbXrecord
280
     1
270
     1
271
     1
  0
XRECORD
  5
28
102
{ACAD_REACTORS
330
22
102
}
330
22
100
AcDbXrecord
280
     1
270
     1
271
     1
  0
XRECORD
  5
25
102
{ACAD_REACTORS
330
22
102
}
330
22
100
AcDbXrecord
280
     1
270
     1
271
     1
  0
XRECORD
  5
11AE
102
{ACAD_REACTORS
330
11AD
102
}
330
11AD
100
AcDbXrecord
280
     1
102
ACAD_ROUNDTRIP_2012_MLEADER_STYLE
298
     1
  0
CELLSTYLEMAP
  5
11AC
102
{ACAD_REACTORS
330
11AB
102
}
330
11AB
100
AcDbCellStyleMap
 90
        3
300
CELLSTYLE
  1
TABLEFORMAT_BEGIN
 90
        5
170
     1
 91
        0
 92
    32768
 62
   257
 93
        1
300
CONTENTFORMAT
  1
CONTENTFORMAT_BEGIN
 90
        0
 91
        0
 92
      512
 93
        0
300

 40
0.0
140
1.0
 94
        5
 62
     0
340
55
144
0.25
309
CONTENTFORMAT_END
171
     0
 94
        0
309
TABLEFORMAT_END
  1
CELLSTYLE_BEGIN
 90
        1
 91
        1
300
_TITLE
309
CELLSTYLE_END
300
CELLSTYLE
  1
TABLEFORMAT_BEGIN
 90
        5
170
     1
 91
        0
 92
        0
 62
   257
 93
        1
300
CONTENTFORMAT
  1
CONTENTFORMAT_BEGIN
 90
        0
 91
        0
 92
      512
 93
        0
300

 40
0.0
140
1.0
 94
        5
 62
     0
340
55
144
0.18
309
CONTENTFORMAT_END
171
     0
 94
        0
309
TABLEFORMAT_END
  1
CELLSTYLE_BEGIN
 90
        2
 91
        1
300
_HEADER
309
CELLSTYLE_END
300
CELLSTYLE
  1
TABLEFORMAT_BEGIN
 90
        5
170
     1
 91
        0
 92
        0
 62
   257
 93
        1
300
CONTENTFORMAT
  1
CONTENTFORMAT_BEGIN
 90
        0
 91
        0
 92
      512
 93
        0
300

 40
0.0
140
1.0
 94
        2
 62
     0
340
55
144
0.18
309
CONTENTFORMAT_END
171
     0
 94
        0
309
TABLEFORMAT_END
  1
CELLSTYLE_BEGIN
 90
        3
 91
        2
300
_DATA
309
CELLSTYLE_END
  0
ENDSEC
  0
EOF
