  0
SECTION
  2
HEADER
  9
$ACADVER
  1
AC1024
  9
$ACADMAINTVER
 70
    63
  9
$DWGCODEPAGE
  3
ANSI_1252
  9
$AUTHOR
  1
VR
  9
$REVISIONNUMBER
  1
-
  9
$CUSTOMPROPERTYTAG
  1
Manager
  9
$CUSTOMPROPERTY
  1

  9
$CUSTOMPROPERTYTAG
  1
Company
  9
$CUSTOMPROPERTY
  1

  9
$CUSTOMPROPERTYTAG
  1
Category
  9
$CUSTOMPROPERTY
  1

  9
$CUSTOMPROPERTYTAG
  1
Part Number
  9
$CUSTOMPROPERTY
  1
HWDWA60P36F1
  9
$CUSTOMPROPERTYTAG
  1
Description
  9
$CUSTOMPROPERTY
  1
N1P PANEL MASTER VIEW
  9
$CUSTOMPROPERTYTAG
  1
Project
  9
$CUSTOMPROPERTY
  1

  9
$CUSTOMPROPERTYTAG
  1
Designer
  9
$CUSTOMPROPERTY
  1
VR
  9
$CUSTOMPROPERTYTAG
  1
Engineer
  9
$CUSTOMPROPERTY
  1

  9
$CUSTOMPROPERTYTAG
  1
Authority
  9
$CUSTOMPROPERTY
  1

  9
$CUSTOMPROPERTYTAG
  1
Cost Center
  9
$CUSTOMPROPERTY
  1

  9
$CUSTOMPROPERTYTAG
  1
Vendor
  9
$CUSTOMPROPERTY
  1

  9
$CUSTOMPROPERTYTAG
  1
User Status
  9
$CUSTOMPROPERTY
  1

  9
$CUSTOMPROPERTYTAG
  1
Design Status
  9
$CUSTOMPROPERTY
  1
WorkInProgress
  9
$CUSTOMPROPERTYTAG
  1
Checked by
  9
$CUSTOMPROPERTY
  1
NJ
  9
$CUSTOMPROPERTYTAG
  1
Engr Approved by
  9
$CUSTOMPROPERTY
  1

  9
$CUSTOMPROPERTYTAG
  1
Date Eng Approved
  9
$CUSTOMPROPERTY
  1
06/10/2013
  9
$CUSTOMPROPERTYTAG
  1
Mfg Approved by
  9
$CUSTOMPROPERTY
  1

  9
$CUSTOMPROPERTYTAG
  1
DWG. NO
  9
$CUSTOMPROPERTY
  1

  9
$CUSTOMPROPERTYTAG
  1
NUMBER OF SHEETS
  9
$CUSTOMPROPERTY
  1
1
  9
$CUSTOMPROPERTYTAG
  1
DRAWING #
  9
$CUSTOMPROPERTY
  1
1
  9
$INSBASE
 10
0.0
 20
0.0
 30
0.0
  9
$EXTMIN
 10
0.0
 20
0.0
 30
0.0
  9
$EXTMAX
 10
170.0
 20
110.0
 30
0.0
  9
$LIMMIN
 10
0.0
 20
0.0
  9
$LIMMAX
 10
170.0
 20
110.0
  9
$ORTHOMODE
 70
     0
  9
$REGENMODE
 70
     1
  9
$FILLMODE
 70
     1
  9
$QTEXTMODE
 70
     0
  9
$MIRRTEXT
 70
     0
  9
$LTSCALE
 40
10.0
  9
$ATTMODE
 70
     1
  9
$TEXTSIZE
 40
0.2
  9
$TRACEWID
 40
0.05
  9
$TEXTSTYLE
  7
Standard
  9
$CLAYER
  8
0
  9
$CELTYPE
  6
ByLayer
  9
$CECOLOR
 62
   256
  9
$CELTSCALE
 40
1.0
  9
$DISPSILH
 70
     0
  9
$DIMSCALE
 40
1.0
  9
$DIMASZ
 40
0.0708661417322835
  9
$DIMEXO
 40
0.0625
  9
$DIMDLI
 40
0.38
  9
$DIMRND
 40
0.0
  9
$DIMDLE
 40
0.0
  9
$DIMEXE
 40
0.18
  9
$DIMTP
 40
0.0
  9
$DIMTM
 40
0.0
  9
$DIMTXT
 40
0.0708661417322835
  9
$DIMCEN
 40
0.09
  9
$DIMTSZ
 40
0.0
  9
$DIMTOL
 70
     0
  9
$DIMLIM
 70
     0
  9
$DIMTIH
 70
     1
  9
$DIMTOH
 70
     1
  9
$DIMSE1
 70
     0
  9
$DIMSE2
 70
     0
  9
$DIMTAD
 70
     0
  9
$DIMZIN
 70
     0
  9
$DIMBLK
  1

  9
$DIMASO
 70
     1
  9
$DIMSHO
 70
     1
  9
$DIMPOST
  1

  9
$DIMAPOST
  1

  9
$DIMALT
 70
     0
  9
$DIMALTD
 70
     2
  9
$DIMALTF
 40
25.4
  9
$DIMLFAC
 40
1.0
  9
$DIMTOFL
 70
     0
  9
$DIMTVP
 40
0.0
  9
$DIMTIX
 70
     0
  9
$DIMSOXD
 70
     0
  9
$DIMSAH
 70
     0
  9
$DIMBLK1
  1

  9
$DIMBLK2
  1

  9
$DIMSTYLE
  2
STANDARD
  9
$DIMCLRD
 70
     0
  9
$DIMCLRE
 70
     0
  9
$DIMCLRT
 70
     0
  9
$DIMTFAC
 40
1.0
  9
$DIMGAP
 40
0.09
  9
$DIMJUST
 70
     0
  9
$DIMSD1
 70
     0
  9
$DIMSD2
 70
     0
  9
$DIMTOLJ
 70
     1
  9
$DIMTZIN
 70
     0
  9
$DIMALTZ
 70
     0
  9
$DIMALTTZ
 70
     0
  9
$DIMUPT
 70
     0
  9
$DIMDEC
 70
     4
  9
$DIMTDEC
 70
     4
  9
$DIMALTU
 70
     2
  9
$DIMALTTD
 70
     2
  9
$DIMTXSTY
  7
Standard
  9
$DIMAUNIT
 70
     0
  9
$DIMADEC
 70
     0
  9
$DIMALTRND
 40
0.0
  9
$DIMAZIN
 70
     0
  9
$DIMDSEP
 70
    46
  9
$DIMATFIT
 70
     3
  9
$DIMFRAC
 70
     0
  9
$DIMLDRBLK
  1

  9
$DIMLUNIT
 70
     2
  9
$DIMLWD
 70
    -2
  9
$DIMLWE
 70
    -2
  9
$DIMTMOVE
 70
     0
  9
$DIMFXL
 40
1.0
  9
$DIMFXLON
 70
     0
  9
$DIMJOGANG
 40
0.7853981633974483
  9
$DIMTFILL
 70
     0
  9
$DIMTFILLCLR
 70
     0
  9
$DIMARCSYM
 70
     0
  9
$DIMLTYPE
  6

  9
$DIMLTEX1
  6

  9
$DIMLTEX2
  6

  9
$DIMTXTDIRECTION
 70
     0
  9
$LUNITS
 70
     2
  9
$LUPREC
 70
     4
  9
$SKETCHINC
 40
0.1
  9
$FILLETRAD
 40
0.0
  9
$AUNITS
 70
     0
  9
$AUPREC
 70
     0
  9
$MENU
  1
.
  9
$ELEVATION
 40
0.0
  9
$PELEVATION
 40
0.0
  9
$THICKNESS
 40
0.0
  9
$LIMCHECK
 70
     0
  9
$CHAMFERA
 40
0.0
  9
$CHAMFERB
 40
0.0
  9
$CHAMFERC
 40
0.0
  9
$CHAMFERD
 40
0.0
  9
$SKPOLY
 70
     0
  9
$TDCREATE
 40
2456461.721850128
  9
$TDUCREATE
 40
2456461.492683461
  9
$TDUPDATE
 40
2456461.721850139
  9
$TDUUPDATE
 40
2456461.492683472
  9
$TDINDWG
 40
0.0000453819
  9
$TDUSRTIMER
 40
0.0000453819
  9
$USRTIMER
 70
     1
  9
$ANGBASE
 50
0.0
  9
$ANGDIR
 70
     0
  9
$PDMODE
 70
     0
  9
$PDSIZE
 40
0.0
  9
$PLINEWID
 40
0.0
  9
$SPLFRAME
 70
     0
  9
$SPLINETYPE
 70
     6
  9
$SPLINESEGS
 70
     8
  9
$HANDSEED
  5
E77
  9
$SURFTAB1
 70
     6
  9
$SURFTAB2
 70
     6
  9
$SURFTYPE
 70
     6
  9
$SURFU
 70
     6
  9
$SURFV
 70
     6
  9
$UCSBASE
  2

  9
$UCSNAME
  2

  9
$UCSORG
 10
0.0
 20
0.0
 30
0.0
  9
$UCSXDIR
 10
1.0
 20
0.0
 30
0.0
  9
$UCSYDIR
 10
0.0
 20
1.0
 30
0.0
  9
$UCSORTHOREF
  2

  9
$UCSORTHOVIEW
 70
     0
  9
$UCSORGTOP
 10
0.0
 20
0.0
 30
0.0
  9
$UCSORGBOTTOM
 10
0.0
 20
0.0
 30
0.0
  9
$UCSORGLEFT
 10
0.0
 20
0.0
 30
0.0
  9
$UCSORGRIGHT
 10
0.0
 20
0.0
 30
0.0
  9
$UCSORGFRONT
 10
0.0
 20
0.0
 30
0.0
  9
$UCSORGBACK
 10
0.0
 20
0.0
 30
0.0
  9
$PUCSBASE
  2

  9
$PUCSNAME
  2

  9
$PUCSORG
 10
0.0
 20
0.0
 30
0.0
  9
$PUCSXDIR
 10
1.0
 20
0.0
 30
0.0
  9
$PUCSYDIR
 10
0.0
 20
1.0
 30
0.0
  9
$PUCSORTHOREF
  2

  9
$PUCSORTHOVIEW
 70
     0
  9
$PUCSORGTOP
 10
0.0
 20
0.0
 30
0.0
  9
$PUCSORGBOTTOM
 10
0.0
 20
0.0
 30
0.0
  9
$PUCSORGLEFT
 10
0.0
 20
0.0
 30
0.0
  9
$PUCSORGRIGHT
 10
0.0
 20
0.0
 30
0.0
  9
$PUCSORGFRONT
 10
0.0
 20
0.0
 30
0.0
  9
$PUCSORGBACK
 10
0.0
 20
0.0
 30
0.0
  9
$USERI1
 70
     0
  9
$USERI2
 70
     0
  9
$USERI3
 70
     0
  9
$USERI4
 70
     0
  9
$USERI5
 70
     0
  9
$USERR1
 40
0.0
  9
$USERR2
 40
0.0
  9
$USERR3
 40
0.0
  9
$USERR4
 40
0.0
  9
$USERR5
 40
0.0
  9
$WORLDVIEW
 70
     1
  9
$SHADEDGE
 70
     3
  9
$SHADEDIF
 70
    70
  9
$TILEMODE
 70
     1
  9
$MAXACTVP
 70
    64
  9
$PINSBASE
 10
0.0
 20
0.0
 30
0.0
  9
$PLIMCHECK
 70
     0
  9
$PEXTMIN
 10
0.0
 20
0.0
 30
0.0
  9
$PEXTMAX
 10
170.0
 20
110.0
 30
0.0
  9
$PLIMMIN
 10
0.0
 20
0.0
  9
$PLIMMAX
 10
170.0
 20
110.0
  9
$UNITMODE
 70
     0
  9
$VISRETAIN
 70
     1
  9
$PLINEGEN
 70
     0
  9
$PSLTSCALE
 70
     1
  9
$TREEDEPTH
 70
  3020
  9
$CMLSTYLE
  2
Standard
  9
$CMLJUST
 70
     0
  9
$CMLSCALE
 40
1.0
  9
$PROXYGRAPHICS
 70
     1
  9
$MEASUREMENT
 70
     0
  9
$CELWEIGHT
370
    -1
  9
$ENDCAPS
280
     0
  9
$JOINSTYLE
280
     0
  9
$LWDISPLAY
290
     0
  9
$INSUNITS
 70
     1
  9
$HYPERLINKBASE
  1

  9
$STYLESHEET
  1

  9
$XEDIT
290
     1
  9
$CEPSNTYPE
380
     0
  9
$PSTYLEMODE
290
     1
  9
$FINGERPRINTGUID
  2
{EC0BDFF4-2C27-46D1-AA19-D9DE3263CACB}
  9
$VERSIONGUID
  2
{B0146E06-069B-4242-903E-1AC79E2BE302}
  9
$EXTNAMES
290
     1
  9
$PSVPSCALE
 40
0.0
  9
$OLESTARTUP
290
     0
  9
$SORTENTS
280
   127
  9
$INDEXCTL
280
     0
  9
$HIDETEXT
280
     1
  9
$XCLIPFRAME
280
     2
  9
$HALOGAP
280
     0
  9
$OBSCOLOR
 70
   257
  9
$OBSLTYPE
280
     0
  9
$INTERSECTIONDISPLAY
280
     0
  9
$INTERSECTIONCOLOR
 70
   257
  9
$DIMASSOC
280
     1
  9
$PROJECTNAME
  1

  9
$CAMERADISPLAY
290
     0
  9
$LENSLENGTH
 40
50.0
  9
$CAMERAHEIGHT
 40
0.0
  9
$STEPSPERSEC
 40
2.0
  9
$STEPSIZE
 40
6.0
  9
$3DDWFPREC
 40
2.0
  9
$PSOLWIDTH
 40
0.25
  9
$PSOLHEIGHT
 40
4.0
  9
$LOFTANG1
 40
1.570796326794896
  9
$LOFTANG2
 40
1.570796326794896
  9
$LOFTMAG1
 40
0.0
  9
$LOFTMAG2
 40
0.0
  9
$LOFTPARAM
 70
     7
  9
$LOFTNORMALS
280
     1
  9
$LATITUDE
 40
37.795
  9
$LONGITUDE
 40
-122.394
  9
$NORTHDIRECTION
 40
0.0
  9
$TIMEZONE
 70
 -8000
  9
$LIGHTGLYPHDISPLAY
280
     1
  9
$TILEMODELIGHTSYNCH
280
     1
  9
$CMATERIAL
347
11
  9
$SOLIDHIST
280
     0
  9
$SHOWHIST
280
     1
  9
$DWFFRAME
280
     2
  9
$DGNFRAME
280
     0
  9
$REALWORLDSCALE
290
     1
  9
$INTERFERECOLOR
 62
     1
  9
$INTERFEREOBJVS
345
33
  9
$INTERFEREVPVS
346
30
  9
$CSHADOW
280
     0
  9
$SHADOWPLANELOCATION
 40
0.0
  0
ENDSEC
  0
SECTION
  2
CLASSES
  0
CLASS
  1
ACDBDICTIONARYWDFLT
  2
AcDbDictionaryWithDefault
  3
ObjectDBX Classes
 90
        0
 91
        1
280
     0
281
     0
  0
CLASS
  1
MATERIAL
  2
AcDbMaterial
  3
ObjectDBX Classes
 90
     1153
 91
        3
280
     0
281
     0
  0
CLASS
  1
VISUALSTYLE
  2
AcDbVisualStyle
  3
ObjectDBX Classes
 90
     4095
 91
       24
280
     0
281
     0
  0
CLASS
  1
SCALE
  2
AcDbScale
  3
ObjectDBX Classes
 90
     1153
 91
       17
280
     0
281
     0
  0
CLASS
  1
TABLESTYLE
  2
AcDbTableStyle
  3
ObjectDBX Classes
 90
     4095
 91
        1
280
     0
281
     0
  0
CLASS
  1
MLEADERSTYLE
  2
AcDbMLeaderStyle
  3
ACDB_MLEADERSTYLE_CLASS
 90
     4095
 91
        1
280
     0
281
     0
  0
CLASS
  1
DICTIONARYVAR
  2
AcDbDictionaryVar
  3
ObjectDBX Classes
 90
        0
 91
        3
280
     0
281
     0
  0
CLASS
  1
CELLSTYLEMAP
  2
AcDbCellStyleMap
  3
ObjectDBX Classes
 90
     1152
 91
        1
280
     0
281
     0
  0
ENDSEC
  0
SECTION
  2
TABLES
  0
TABLE
  2
VPORT
  5
8
330
0
100
AcDbSymbolTable
 70
     1
  0
VPORT
  5
57
330
8
100
AcDbSymbolTableRecord
100
AcDbViewportTableRecord
  2
*Active
 70
     0
 10
0.0
 20
0.0
 11
1.0
 21
1.0
 12
85.0
 22
55.0
 13
0.0
 23
0.0
 14
1.0
 24
1.0
 15
0.0
 25
0.0
 16
0.0
 26
0.0
 36
1.0
 17
0.0
 27
0.0
 37
0.0
 40
110.0
 41
1.545454545454545
 42
50.0
 43
0.0
 44
0.0
 50
0.0
 51
0.0
 71
     0
 72
   100
 73
     1
 74
     1
 75
     0
 76
     0
 77
     0
 78
     0
281
     0
 65
     1
110
0.0
120
0.0
130
0.0
111
1.0
121
0.0
131
0.0
112
0.0
122
1.0
132
0.0
 79
     0
146
0.0
 60
     3
 61
     5
292
     1
282
     1
141
0.0
142
0.0
 63
   250
421
  3355443
  0
ENDTAB
  0
TABLE
  2
LTYPE
  5
5
330
0
100
AcDbSymbolTable
 70
    59
  0
LTYPE
  5
5B
330
5
100
AcDbSymbolTableRecord
100
AcDbLinetypeTableRecord
  2
ByBlock
 70
     0
  3

 72
    65
 73
     0
 40
0.0
  0
LTYPE
  5
5C
330
5
100
AcDbSymbolTableRecord
100
AcDbLinetypeTableRecord
  2
ByLayer
 70
     0
  3

 72
    65
 73
     0
 40
0.0
  0
LTYPE
  5
5D
330
5
100
AcDbSymbolTableRecord
100
AcDbLinetypeTableRecord
  2
Continuous
 70
     0
  3
Solid line
 72
    65
 73
     0
 40
0.0
  0
LTYPE
  5
7C
330
5
100
AcDbSymbolTableRecord
100
AcDbLinetypeTableRecord
  2
BY_STANDARD
 70
     0
  3
By Standard ____________    ____    ____   _
 72
    65
 73
     6
 40
1.240299999999999
 49
0.6614
 74
     0
 49
-0.0827
 74
     0
 49
0.1654
 74
     0
 49
-0.0827
 74
     0
 49
0.1654
 74
     0
 49
-0.0827
 74
     0
  0
LTYPE
  5
7D
330
5
100
AcDbSymbolTableRecord
100
AcDbLinetypeTableRecord
  2
CHAIN
 70
     0
  3
Chain ____ _ ____ _ ____ _ ____ _ ____ _ ____
 72
    65
 73
     4
 40
0.7087
 49
0.4724000000000001
 74
     0
 49
-0.0591
 74
     0
 49
0.1181
 74
     0
 49
-0.0591
 74
     0
  0
LTYPE
  5
7E
330
5
100
AcDbSymbolTableRecord
100
AcDbLinetypeTableRecord
  2
DASH_DOT
 70
     0
  3
Dash dot __ . __ . __ . __ . __ . __ . __ . __
 72
    65
 73
     4
 40
0.37
 49
0.24
 74
     0
 49
-0.06
 74
     0
 49
0.01
 74
     0
 49
-0.06
 74
     0
  0
LTYPE
  5
7F
330
5
100
AcDbSymbolTableRecord
100
AcDbLinetypeTableRecord
  2
DOUBLE_DASH_DOT
 70
     0
  3
Double-Dash Dot __ __ . __ __ . __ __ . __ _
 72
    65
 73
     6
 40
0.4398
 49
0.24
 74
     0
 49
-0.06
 74
     0
 49
0.0098
 74
     0
 49
-0.06
 74
     0
 49
0.01
 74
     0
 49
-0.06
 74
     0
  0
LTYPE
  5
80
330
5
100
AcDbSymbolTableRecord
100
AcDbLinetypeTableRecord
  2
DASH_TRIPLE_DOT
 70
     0
  3
Dash Triple-Dot _ . . . _ . . . _ . . . _
 72
    65
 73
     8
 40
0.51
 49
0.24
 74
     0
 49
-0.06
 74
     0
 49
0.01
 74
     0
 49
-0.06
 74
     0
 49
0.01
 74
     0
 49
-0.06
 74
     0
 49
0.01
 74
     0
 49
-0.06
 74
     0
  0
LTYPE
  5
81
330
5
100
AcDbSymbolTableRecord
100
AcDbLinetypeTableRecord
  2
DASHED
 70
     0
  3
Dashed __ __ __ __ __ __ __ __ __ __ __ __ __ _
 72
    65
 73
     2
 40
0.2067
 49
0.1654
 74
     0
 49
-0.0413
 74
     0
  0
LTYPE
  5
82
330
5
100
AcDbSymbolTableRecord
100
AcDbLinetypeTableRecord
  2
DASH_DOUBLE_DOT
 70
     0
  3
Dash Double-Dot __ . . __ . . __ . . __ . .
 72
    65
 73
     6
 40
0.4398
 49
0.24
 74
     0
 49
-0.06
 74
     0
 49
0.0098
 74
     0
 49
-0.06
 74
     0
 49
0.01
 74
     0
 49
-0.06
 74
     0
  0
LTYPE
  5
83
330
5
100
AcDbSymbolTableRecord
100
AcDbLinetypeTableRecord
  2
DASHED_SPACE
 70
     0
  3
Dashed Space __ __ __ __ __ __ __ __ __ __ __ _
 72
    65
 73
     2
 40
0.2067
 49
0.1654
 74
     0
 49
-0.0413
 74
     0
  0
LTYPE
  5
84
330
5
100
AcDbSymbolTableRecord
100
AcDbLinetypeTableRecord
  2
DOTTED
 70
     0
  3
Dotted . . . . . . . . . . . . . . . . . . . . 
 72
    65
 73
     2
 40
0.0482
 49
0.0069
 74
     0
 49
-0.0413
 74
     0
  0
LTYPE
  5
85
330
5
100
AcDbSymbolTableRecord
100
AcDbLinetypeTableRecord
  2
DOUBLE_DASH_CHAIN
 70
     0
  3
Double-Dash Chain ______  __  __  ______  __  _
 72
    65
 73
     6
 40
1.240299999999999
 49
0.6614
 74
     0
 49
-0.0827
 74
     0
 49
0.1654
 74
     0
 49
-0.0827
 74
     0
 49
0.1654
 74
     0
 49
-0.0827
 74
     0
  0
LTYPE
  5
87
330
5
100
AcDbSymbolTableRecord
100
AcDbLinetypeTableRecord
  2
DOUBLE_DASH_DOUBLE_DOT
 70
     0
  3
Double-Dash Double-dot _ _ . . _ _ . . _
 72
    65
 73
     8
 40
0.7400000000000001
 49
0.24
 74
     0
 49
-0.06
 74
     0
 49
0.24
 74
     0
 49
-0.06
 74
     0
 49
0.01
 74
     0
 49
-0.06
 74
     0
 49
0.01
 74
     0
 49
-0.06
 74
     0
  0
LTYPE
  5
88
330
5
100
AcDbSymbolTableRecord
100
AcDbLinetypeTableRecord
  2
DOUBLE_DASH_TRIPLE_DOT
 70
     0
  3
Double Dash Triple Dot __ __ . . . __ __ . .
 72
    65
 73
    10
 40
0.8100000000000001
 49
0.24
 74
     0
 49
-0.06
 74
     0
 49
0.24
 74
     0
 49
-0.06
 74
     0
 49
0.01
 74
     0
 49
-0.06
 74
     0
 49
0.01
 74
     0
 49
-0.06
 74
     0
 49
0.01
 74
     0
 49
-0.06
 74
     0
  0
LTYPE
  5
89
330
5
100
AcDbSymbolTableRecord
100
AcDbLinetypeTableRecord
  2
LONG_DASH_DOTTED
 70
     0
  3
Long Dash Dotted ____ . ____ . ____ . ____ . _
 72
    65
 73
     4
 40
0.3543
 49
0.2362
 74
     0
 49
-0.0295
 74
     0
 49
0.0591
 74
     0
 49
-0.0295
 74
     0
  0
LTYPE
  5
8A
330
5
100
AcDbSymbolTableRecord
100
AcDbLinetypeTableRecord
  2
LONG_DASH_DOUBLE_DOT
 70
     0
  3
Long Dash Double Dot ________  .  .  ________  
 72
    65
 73
     6
 40
0.6799999999999999
 49
0.48
 74
     0
 49
-0.06
 74
     0
 49
0.01
 74
     0
 49
-0.06
 74
     0
 49
0.01
 74
     0
 49
-0.06
 74
     0
  0
LTYPE
  5
8B
330
5
100
AcDbSymbolTableRecord
100
AcDbLinetypeTableRecord
  2
LONG_DASH_TRIPLE_DOT
 70
     0
  3
Long Dash Triple Dot ____ ... ____ ... ____
 72
    65
 73
     8
 40
0.3689
 49
0.2362
 74
     0
 49
-0.0295
 74
     0
 49
0.0049
 74
     0
 49
-0.0295
 74
     0
 49
0.0049
 74
     0
 49
-0.0295
 74
     0
 49
0.0049
 74
     0
 49
-0.0295
 74
     0
  0
LTYPE
  5
8C
330
5
100
AcDbSymbolTableRecord
100
AcDbLinetypeTableRecord
  2
BORDER
 70
     0
  3
Border __ __ . __ __ . __ __ . __ __ . __ __ .
 72
    65
 73
     6
 40
1.75
 49
0.5
 74
     0
 49
-0.25
 74
     0
 49
0.5
 74
     0
 49
-0.25
 74
     0
 49
0.0
 74
     0
 49
-0.25
 74
     0
  0
LTYPE
  5
8D
330
5
100
AcDbSymbolTableRecord
100
AcDbLinetypeTableRecord
  2
BORDER2
 70
     0
  3
Border (.5x) __.__.__.__.__.__.__.__.__.__.__.
 72
    65
 73
     6
 40
0.875
 49
0.25
 74
     0
 49
-0.125
 74
     0
 49
0.25
 74
     0
 49
-0.125
 74
     0
 49
0.0
 74
     0
 49
-0.125
 74
     0
  0
LTYPE
  5
8E
330
5
100
AcDbSymbolTableRecord
100
AcDbLinetypeTableRecord
  2
BORDERX2
 70
     0
  3
Border (2x) ____  ____  .  ____  ____  .  ___
 72
    65
 73
     6
 40
3.5
 49
1.0
 74
     0
 49
-0.5
 74
     0
 49
1.0
 74
     0
 49
-0.5
 74
     0
 49
0.0
 74
     0
 49
-0.5
 74
     0
  0
LTYPE
  5
8F
330
5
100
AcDbSymbolTableRecord
100
AcDbLinetypeTableRecord
  2
CENTER
 70
     0
  3
Center ____ _ ____ _ ____ _ ____ _ ____ _ ____
 72
    65
 73
     4
 40
2.0
 49
1.25
 74
     0
 49
-0.25
 74
     0
 49
0.25
 74
     0
 49
-0.25
 74
     0
  0
LTYPE
  5
90
330
5
100
AcDbSymbolTableRecord
100
AcDbLinetypeTableRecord
  2
CENTER2
 70
     0
  3
Center (.5x) ___ _ ___ _ ___ _ ___ _ ___ _ ___
 72
    65
 73
     4
 40
1.125
 49
0.75
 74
     0
 49
-0.125
 74
     0
 49
0.125
 74
     0
 49
-0.125
 74
     0
  0
LTYPE
  5
91
330
5
100
AcDbSymbolTableRecord
100
AcDbLinetypeTableRecord
  2
CENTERX2
 70
     0
  3
Center (2x) ________  __  ________  __  _____
 72
    65
 73
     4
 40
4.0
 49
2.5
 74
     0
 49
-0.5
 74
     0
 49
0.5
 74
     0
 49
-0.5
 74
     0
  0
LTYPE
  5
92
330
5
100
AcDbSymbolTableRecord
100
AcDbLinetypeTableRecord
  2
DASHDOT2
 70
     0
  3
Dash dot (.5x) _._._._._._._._._._._._._._._.
 72
    65
 73
     4
 40
0.5
 49
0.25
 74
     0
 49
-0.125
 74
     0
 49
0.0
 74
     0
 49
-0.125
 74
     0
  0
LTYPE
  5
93
330
5
100
AcDbSymbolTableRecord
100
AcDbLinetypeTableRecord
  2
DASHDOTX2
 70
     0
  3
Dash dot (2x) ____  .  ____  .  ____  .  ___
 72
    65
 73
     4
 40
2.0
 49
1.0
 74
     0
 49
-0.5
 74
     0
 49
0.0
 74
     0
 49
-0.5
 74
     0
  0
LTYPE
  5
95
330
5
100
AcDbSymbolTableRecord
100
AcDbLinetypeTableRecord
  2
DASHED2
 70
     0
  3
Dashed (.5x) _ _ _ _ _ _ _ _ _ _ _ _ _ _ _ _ _
 72
    65
 73
     2
 40
0.375
 49
0.25
 74
     0
 49
-0.125
 74
     0
  0
LTYPE
  5
96
330
5
100
AcDbSymbolTableRecord
100
AcDbLinetypeTableRecord
  2
DASHEDX2
 70
     0
  3
Dashed (2x) ____  ____  ____  ____  ____  ___
 72
    65
 73
     2
 40
1.5
 49
1.0
 74
     0
 49
-0.5
 74
     0
  0
LTYPE
  5
97
330
5
100
AcDbSymbolTableRecord
100
AcDbLinetypeTableRecord
  2
DIVIDE
 70
     0
  3
Divide ____ . . ____ . . ____ . . ____ . . ____
 72
    65
 73
     6
 40
1.25
 49
0.5
 74
     0
 49
-0.25
 74
     0
 49
0.0
 74
     0
 49
-0.25
 74
     0
 49
0.0
 74
     0
 49
-0.25
 74
     0
  0
LTYPE
  5
98
330
5
100
AcDbSymbolTableRecord
100
AcDbLinetypeTableRecord
  2
DIVIDE2
 70
     0
  3
Divide (.5x) __..__..__..__..__..__..__..__.._
 72
    65
 73
     6
 40
0.625
 49
0.25
 74
     0
 49
-0.125
 74
     0
 49
0.0
 74
     0
 49
-0.125
 74
     0
 49
0.0
 74
     0
 49
-0.125
 74
     0
  0
LTYPE
  5
99
330
5
100
AcDbSymbolTableRecord
100
AcDbLinetypeTableRecord
  2
DIVIDEX2
 70
     0
  3
Divide (2x) ________  .  .  ________  .  .  _
 72
    65
 73
     6
 40
2.5
 49
1.0
 74
     0
 49
-0.5
 74
     0
 49
0.0
 74
     0
 49
-0.5
 74
     0
 49
0.0
 74
     0
 49
-0.5
 74
     0
  0
LTYPE
  5
9A
330
5
100
AcDbSymbolTableRecord
100
AcDbLinetypeTableRecord
  2
DOT
 70
     0
  3
Dot . . . . . . . . . . . . . . . . . . . . . .
 72
    65
 73
     2
 40
0.25
 49
0.0
 74
     0
 49
-0.25
 74
     0
  0
LTYPE
  5
9B
330
5
100
AcDbSymbolTableRecord
100
AcDbLinetypeTableRecord
  2
DOT2
 70
     0
  3
Dot (.5x) .....................................
 72
    65
 73
     2
 40
0.125
 49
0.0
 74
     0
 49
-0.125
 74
     0
  0
LTYPE
  5
9C
330
5
100
AcDbSymbolTableRecord
100
AcDbLinetypeTableRecord
  2
DOTX2
 70
     0
  3
Dot (2x) .  .  .  .  .  .  .  .  .  .  .  .  . 
 72
    65
 73
     2
 40
0.5
 49
0.0
 74
     0
 49
-0.5
 74
     0
  0
LTYPE
  5
9D
330
5
100
AcDbSymbolTableRecord
100
AcDbLinetypeTableRecord
  2
HIDDEN
 70
     0
  3
Hidden __ __ __ __ __ __ __ __ __ __ __ __ __ _
 72
    65
 73
     2
 40
0.375
 49
0.25
 74
     0
 49
-0.125
 74
     0
  0
LTYPE
  5
9E
330
5
100
AcDbSymbolTableRecord
100
AcDbLinetypeTableRecord
  2
HIDDEN2
 70
     0
  3
Hidden (.5x) _ _ _ _ _ _ _ _ _ _ _ _ _ _ _ _ _
 72
    65
 73
     2
 40
0.1875
 49
0.125
 74
     0
 49
-0.0625
 74
     0
  0
LTYPE
  5
9F
330
5
100
AcDbSymbolTableRecord
100
AcDbLinetypeTableRecord
  2
HIDDENX2
 70
     0
  3
Hidden (2x) ____ ____ ____ ____ ____ ____ ____
 72
    65
 73
     2
 40
0.75
 49
0.5
 74
     0
 49
-0.25
 74
     0
  0
LTYPE
  5
A0
330
5
100
AcDbSymbolTableRecord
100
AcDbLinetypeTableRecord
  2
PHANTOM
 70
     0
  3
Phantom ______  __  __  ______  __  __  ______
 72
    65
 73
     6
 40
2.5
 49
1.25
 74
     0
 49
-0.25
 74
     0
 49
0.25
 74
     0
 49
-0.25
 74
     0
 49
0.25
 74
     0
 49
-0.25
 74
     0
  0
LTYPE
  5
A1
330
5
100
AcDbSymbolTableRecord
100
AcDbLinetypeTableRecord
  2
PHANTOM2
 70
     0
  3
Phantom (.5x) ___ _ _ ___ _ _ ___ _ _ ___ _ _
 72
    65
 73
     6
 40
1.25
 49
0.625
 74
     0
 49
-0.125
 74
     0
 49
0.125
 74
     0
 49
-0.125
 74
     0
 49
0.125
 74
     0
 49
-0.125
 74
     0
  0
LTYPE
  5
A2
330
5
100
AcDbSymbolTableRecord
100
AcDbLinetypeTableRecord
  2
PHANTOMX2
 70
     0
  3
Phantom (2x) ____________    ____    ____   _
 72
    65
 73
     6
 40
5.0
 49
2.5
 74
     0
 49
-0.5
 74
     0
 49
0.5
 74
     0
 49
-0.5
 74
     0
 49
0.5
 74
     0
 49
-0.5
 74
     0
  0
LTYPE
  5
A3
330
5
100
AcDbSymbolTableRecord
100
AcDbLinetypeTableRecord
  2
ACAD_ISO02W100
 70
     0
  3
ISO dash __ __ __ __ __ __ __ __ __ __ __ __ __
 72
    65
 73
     2
 40
0.59
 49
0.47
 74
     0
 49
-0.12
 74
     0
  0
LTYPE
  5
A4
330
5
100
AcDbSymbolTableRecord
100
AcDbLinetypeTableRecord
  2
ACAD_ISO03W100
 70
     0
  3
ISO dash space __    __    __    __    __    __
 72
    65
 73
     2
 40
1.179999999999999
 49
0.47
 74
     0
 49
-0.71
 74
     0
  0
LTYPE
  5
A5
330
5
100
AcDbSymbolTableRecord
100
AcDbLinetypeTableRecord
  2
ACAD_ISO04W100
 70
     0
  3
ISO long-dash dot ____ . ____ . ____ . ____ . _
 72
    65
 73
     4
 40
1.179999999999999
 49
0.9399999999999998
 74
     0
 49
-0.12
 74
     0
 49
0.0
 74
     0
 49
-0.12
 74
     0
  0
LTYPE
  5
A6
330
5
100
AcDbSymbolTableRecord
100
AcDbLinetypeTableRecord
  2
ACAD_ISO05W100
 70
     0
  3
ISO long-dash double-dot ____ .. ____ .. ____ .
 72
    65
 73
     6
 40
1.299999999999999
 49
0.9399999999999998
 74
     0
 49
-0.12
 74
     0
 49
0.0
 74
     0
 49
-0.12
 74
     0
 49
0.0
 74
     0
 49
-0.12
 74
     0
  0
LTYPE
  5
A7
330
5
100
AcDbSymbolTableRecord
100
AcDbLinetypeTableRecord
  2
ACAD_ISO06W100
 70
     0
  3
ISO long-dash triple-dot ____ ... ____ ... ____
 72
    65
 73
     8
 40
1.419999999999999
 49
0.9399999999999998
 74
     0
 49
-0.12
 74
     0
 49
0.0
 74
     0
 49
-0.12
 74
     0
 49
0.0
 74
     0
 49
-0.12
 74
     0
 49
0.0
 74
     0
 49
-0.12
 74
     0
  0
LTYPE
  5
A8
330
5
100
AcDbSymbolTableRecord
100
AcDbLinetypeTableRecord
  2
ACAD_ISO07W100
 70
     0
  3
ISO dot . . . . . . . . . . . . . . . . . . . .
 72
    65
 73
     2
 40
0.12
 49
0.0
 74
     0
 49
-0.12
 74
     0
  0
LTYPE
  5
A9
330
5
100
AcDbSymbolTableRecord
100
AcDbLinetypeTableRecord
  2
ACAD_ISO08W100
 70
     0
  3
ISO long-dash short-dash ____ __ ____ __ ____ _
 72
    65
 73
     4
 40
0.95
 49
0.47
 74
     0
 49
-0.12
 74
     0
 49
0.24
 74
     0
 49
-0.12
 74
     0
  0
LTYPE
  5
AA
330
5
100
AcDbSymbolTableRecord
100
AcDbLinetypeTableRecord
  2
ACAD_ISO09W100
 70
     0
  3
ISO long-dash double-short-dash ____ __ __ ____
 72
    65
 73
     6
 40
1.31
 49
0.47
 74
     0
 49
-0.12
 74
     0
 49
0.24
 74
     0
 49
-0.12
 74
     0
 49
0.24
 74
     0
 49
-0.12
 74
     0
  0
LTYPE
  5
AB
330
5
100
AcDbSymbolTableRecord
100
AcDbLinetypeTableRecord
  2
ACAD_ISO10W100
 70
     0
  3
ISO dash dot __ . __ . __ . __ . __ . __ . __ .
 72
    65
 73
     4
 40
0.71
 49
0.47
 74
     0
 49
-0.12
 74
     0
 49
0.0
 74
     0
 49
-0.12
 74
     0
  0
LTYPE
  5
AC
330
5
100
AcDbSymbolTableRecord
100
AcDbLinetypeTableRecord
  2
ACAD_ISO11W100
 70
     0
  3
ISO double-dash dot __ __ . __ __ . __ __ . __ 
 72
    65
 73
     6
 40
1.299999999999999
 49
0.47
 74
     0
 49
-0.12
 74
     0
 49
0.47
 74
     0
 49
-0.12
 74
     0
 49
0.0
 74
     0
 49
-0.12
 74
     0
  0
LTYPE
  5
AD
330
5
100
AcDbSymbolTableRecord
100
AcDbLinetypeTableRecord
  2
ACAD_ISO12W100
 70
     0
  3
ISO dash double-dot __ . . __ . . __ . . __ . .
 72
    65
 73
     6
 40
0.8299999999999998
 49
0.47
 74
     0
 49
-0.12
 74
     0
 49
0.0
 74
     0
 49
-0.12
 74
     0
 49
0.0
 74
     0
 49
-0.12
 74
     0
  0
LTYPE
  5
AE
330
5
100
AcDbSymbolTableRecord
100
AcDbLinetypeTableRecord
  2
ACAD_ISO13W100
 70
     0
  3
ISO double-dash double-dot __ __ . . __ __ . . 
 72
    65
 73
     8
 40
1.419999999999999
 49
0.47
 74
     0
 49
-0.12
 74
     0
 49
0.47
 74
     0
 49
-0.12
 74
     0
 49
0.0
 74
     0
 49
-0.12
 74
     0
 49
0.0
 74
     0
 49
-0.12
 74
     0
  0
LTYPE
  5
AF
330
5
100
AcDbSymbolTableRecord
100
AcDbLinetypeTableRecord
  2
ACAD_ISO14W100
 70
     0
  3
ISO dash triple-dot __ . . . __ . . . __ . . . 
 72
    65
 73
     8
 40
0.95
 49
0.47
 74
     0
 49
-0.12
 74
     0
 49
0.0
 74
     0
 49
-0.12
 74
     0
 49
0.0
 74
     0
 49
-0.12
 74
     0
 49
0.0
 74
     0
 49
-0.12
 74
     0
  0
LTYPE
  5
B0
330
5
100
AcDbSymbolTableRecord
100
AcDbLinetypeTableRecord
  2
ACAD_ISO15W100
 70
     0
  3
ISO double-dash triple-dot __ __ . . . __ __ . 
 72
    65
 73
    10
 40
1.539999999999999
 49
0.47
 74
     0
 49
-0.12
 74
     0
 49
0.47
 74
     0
 49
-0.12
 74
     0
 49
0.0
 74
     0
 49
-0.12
 74
     0
 49
0.0
 74
     0
 49
-0.12
 74
     0
 49
0.0
 74
     0
 49
-0.12
 74
     0
  0
LTYPE
  5
B3
330
5
100
AcDbSymbolTableRecord
100
AcDbLinetypeTableRecord
  2
FENCELINE1
 70
     0
  3
Fenceline circle ----0-----0----0-----0----0---
 72
    65
 73
     4
 40
1.45
 49
0.25
 74
     0
 49
-0.1
 74
     4
 75
   133
340
B2
 46
0.1
 50
0.0
 44
-0.1
 45
0.0
 49
-0.1
 74
     0
 49
1.0
 74
     0
  0
LTYPE
  5
B4
330
5
100
AcDbSymbolTableRecord
100
AcDbLinetypeTableRecord
  2
FENCELINE2
 70
     0
  3
Fenceline square ----[]-----[]----[]-----[]----
 72
    65
 73
     4
 40
1.45
 49
0.25
 74
     0
 49
-0.1
 74
     4
 75
   132
340
B2
 46
0.1
 50
0.0
 44
-0.1
 45
0.0
 49
-0.1
 74
     0
 49
1.0
 74
     0
  0
LTYPE
  5
B5
330
5
100
AcDbSymbolTableRecord
100
AcDbLinetypeTableRecord
  2
TRACKS
 70
     0
  3
Tracks -|-|-|-|-|-|-|-|-|-|-|-|-|-|-|-|-|-|-|-|
 72
    65
 73
     2
 40
0.3
 49
0.15
 74
     4
 75
   130
340
B2
 46
0.25
 50
0.0
 44
0.0
 45
0.0
 49
0.15
 74
     0
  0
LTYPE
  5
B6
330
5
100
AcDbSymbolTableRecord
100
AcDbLinetypeTableRecord
  2
BATTING
 70
     0
  3
Batting SSSSSSSSSSSSSSSSSSSSSSSSSSSSSSSSSSSSSSS
 72
    65
 73
     4
 40
0.4001000000000001
 49
0.0001
 74
     0
 49
-0.1
 74
     4
 75
   134
340
B2
 46
0.1
 50
0.0
 44
-0.1
 45
0.0
 49
-0.2
 74
     4
 75
   134
340
B2
 46
0.1
 50
180.0
 44
0.1
 45
0.0
 49
-0.1
 74
     0
  0
LTYPE
  5
B7
330
5
100
AcDbSymbolTableRecord
100
AcDbLinetypeTableRecord
  2
HOT_WATER_SUPPLY
 70
     0
  3
Hot water supply ---- HW ---- HW ---- HW ----
 72
    65
 73
     3
 40
0.9
 49
0.5
 74
     0
 49
-0.2
 74
     2
 75
     0
340
55
 46
0.1
 50
0.0
 44
-0.1
 45
-0.05
  9
HW
 49
-0.2
 74
     0
  0
LTYPE
  5
B8
330
5
100
AcDbSymbolTableRecord
100
AcDbLinetypeTableRecord
  2
GAS_LINE
 70
     0
  3
Gas line ----GAS----GAS----GAS----GAS----GAS---
 72
    65
 73
     3
 40
0.95
 49
0.5
 74
     0
 49
-0.2
 74
     2
 75
     0
340
55
 46
0.1
 50
0.0
 44
-0.1
 45
-0.05
  9
GAS
 49
-0.25
 74
     0
  0
LTYPE
  5
B9
330
5
100
AcDbSymbolTableRecord
100
AcDbLinetypeTableRecord
  2
ZIGZAG
 70
     0
  3
Zig zag /\/\/\/\/\/\/\/\/\/\/\/\/\/\/\/\/\/\/\/
 72
    65
 73
     4
 40
0.8001000000000001
 49
0.0001
 74
     0
 49
-0.2
 74
     4
 75
   131
340
B2
 46
0.2
 50
0.0
 44
-0.2
 45
0.0
 49
-0.4
 74
     4
 75
   131
340
B2
 46
0.2
 50
180.0
 44
0.2
 45
0.0
 49
-0.2
 74
     0
  0
ENDTAB
  0
TABLE
  2
LAYER
  5
2
330
0
100
AcDbSymbolTable
 70
    27
  0
LAYER
  5
54
330
2
100
AcDbSymbolTableRecord
100
AcDbLayerTableRecord
  2
0
 70
     0
 62
     7
  6
Continuous
370
    18
390
F
347
21
  0
LAYER
  5
C0
330
2
100
AcDbSymbolTableRecord
100
AcDbLayerTableRecord
  2
Center Mark (ANSI)
 70
     0
 62
     7
  6
Continuous
370
    15
390
F
347
21
  0
LAYER
  5
C1
330
2
100
AcDbSymbolTableRecord
100
AcDbLayerTableRecord
  2
Centerline (ANSI)
 70
     0
 62
     7
  6
Continuous
370
    15
390
F
347
21
  0
LAYER
  5
C3
330
2
100
AcDbSymbolTableRecord
100
AcDbLayerTableRecord
  2
Dimension (ANSI)
 70
     0
 62
     7
  6
Continuous
370
    13
390
F
347
21
  0
LAYER
  5
C5
330
2
100
AcDbSymbolTableRecord
100
AcDbLayerTableRecord
  2
Hidden (ANSI)
 70
     0
 62
     7
  6
DASHED
370
    15
390
F
347
21
  0
LAYER
  5
CC
330
2
100
AcDbSymbolTableRecord
100
AcDbLayerTableRecord
  2
Symbol (ANSI)
 70
     0
 62
     7
  6
Continuous
370
    18
390
F
347
21
  0
LAYER
  5
CF
330
2
100
AcDbSymbolTableRecord
100
AcDbLayerTableRecord
  2
Visible (ANSI)
 70
     0
 62
     7
  6
Continuous
370
    13
390
F
347
21
  0
LAYER
  5
D0
330
2
100
AcDbSymbolTableRecord
100
AcDbLayerTableRecord
  2
Visible Narrow (ANSI)
 70
     0
 62
     7
  6
Continuous
370
    18
390
F
347
21
  0
LAYER
  5
53E
330
2
100
AcDbSymbolTableRecord
100
AcDbLayerTableRecord
  2
Defpoints
 70
     0
 62
     7
  6
Continuous
290
     0
370
    -3
390
F
347
21
  0
ENDTAB
  0
TABLE
  2
STYLE
  5
3
330
0
100
AcDbSymbolTable
 70
    18
  0
STYLE
  5
55
330
3
100
AcDbSymbolTableRecord
100
AcDbTextStyleTableRecord
  2
Standard
 70
     0
 40
0.0
 41
1.0
 50
0.0
 71
     0
 42
0.2
  3
txt
  4

  0
STYLE
  5
5A
330
3
100
AcDbSymbolTableRecord
100
AcDbTextStyleTableRecord
  2
Annotative
 70
     0
 40
0.0
 41
1.0
 50
0.0
 71
     0
 42
0.2
  3
txt
  4

1001
AcadAnnotative
1000
AnnotativeData
1002
{
1070
     1
1070
     1
1002
}
  0
STYLE
  5
B2
330
3
100
AcDbSymbolTableRecord
100
AcDbTextStyleTableRecord
  2

 70
     1
 40
0.0
 41
1.0
 50
0.0
 71
     0
 42
0.2
  3
ltypeshp.shx
  4

  0
STYLE
  5
D4
330
3
100
AcDbSymbolTableRecord
100
AcDbTextStyleTableRecord
  2
ITALICC_120
 70
     0
 40
0.0
 41
1.0
 50
0.0
 71
     0
 42
0.2
  3
italicc.shx
  4

  0
STYLE
  5
D5
330
3
100
AcDbSymbolTableRecord
100
AcDbTextStyleTableRecord
  2
Label Text (ANSI)
 70
     0
 40
0.0
 41
1.0
 50
0.0
 71
     0
 42
0.2
  3
tahoma.ttf
  4

1001
ACAD
1000
Tahoma
1071
      256
  0
STYLE
  5
D6
330
3
100
AcDbSymbolTableRecord
100
AcDbTextStyleTableRecord
  2
Note Text (ANSI)
 70
     0
 40
0.0
 41
1.0
 50
0.0
 71
     0
 42
0.2
  3
tahoma.ttf
  4

1001
ACAD
1000
Tahoma
1071
      256
  0
STYLE
  5
D7
330
3
100
AcDbSymbolTableRecord
100
AcDbTextStyleTableRecord
  2
ROMANS
 70
     0
 40
0.0
 41
1.0
 50
0.0
 71
     0
 42
0.2
  3
romans.shx
  4

  0
STYLE
  5
D8
330
3
100
AcDbSymbolTableRecord
100
AcDbTextStyleTableRecord
  2
SANSSERIF_114
 70
     0
 40
0.0
 41
1.0
 50
0.0
 71
     0
 42
0.2
  3
tahoma.ttf
  4

1001
ACAD
1000
Tahoma
1071
      256
  0
STYLE
  5
D9
330
3
100
AcDbSymbolTableRecord
100
AcDbTextStyleTableRecord
  2
SANSSERIF_117
 70
     0
 40
0.0
 41
1.0
 50
0.0
 71
     0
 42
0.2
  3
tahoma.ttf
  4

1001
ACAD
1000
Tahoma
1071
      256
  0
STYLE
  5
DA
330
3
100
AcDbSymbolTableRecord
100
AcDbTextStyleTableRecord
  2
STANDARDAM_ANSI
 70
     0
 40
0.0
 41
1.0
 50
0.0
 71
     0
 42
0.2
  3
txt.shx
  4

  0
STYLE
  5
DB
330
3
100
AcDbSymbolTableRecord
100
AcDbTextStyleTableRecord
  2
StandardAM_ANSI$0
 70
     0
 40
0.0
 41
1.0
 50
0.0
 71
     0
 42
0.2
  3
txt.shx
  4

  0
STYLE
  5
DC
330
3
100
AcDbSymbolTableRecord
100
AcDbTextStyleTableRecord
  2
STANDARDAM_ANSI$3
 70
     0
 40
0.0
 41
1.0
 50
0.0
 71
     0
 42
0.2
  3
txt.shx
  4

  0
STYLE
  5
DD
330
3
100
AcDbSymbolTableRecord
100
AcDbTextStyleTableRecord
  2
STANDARDAM_ANSI$4
 70
     0
 40
0.0
 41
1.0
 50
0.0
 71
     0
 42
0.2
  3
txt.shx
  4

  0
STYLE
  5
DE
330
3
100
AcDbSymbolTableRecord
100
AcDbTextStyleTableRecord
  2
STANDARDAM_ANSI$7
 70
     0
 40
0.0
 41
1.0
 50
0.0
 71
     0
 42
0.2
  3
txt.shx
  4

  0
STYLE
  5
DF
330
3
100
AcDbSymbolTableRecord
100
AcDbTextStyleTableRecord
  2
STANDARDAM_ANSI$SF
 70
     0
 40
0.0
 41
1.0
 50
0.0
 71
     0
 42
0.2
  3
txt.shx
  4

  0
STYLE
  5
E0
330
3
100
AcDbSymbolTableRecord
100
AcDbTextStyleTableRecord
  2
STANDARDAM_ANSI$SH
 70
     0
 40
0.0
 41
1.0
 50
0.0
 71
     0
 42
0.2
  3
txt.shx
  4

  0
STYLE
  5
E1
330
3
100
AcDbSymbolTableRecord
100
AcDbTextStyleTableRecord
  2
STANDARDSTANDARD
 70
     0
 40
0.0
 41
1.0
 50
0.0
 71
     0
 42
0.2
  3
txt.shx
  4

  0
STYLE
  5
2E1
330
3
100
AcDbSymbolTableRecord
100
AcDbTextStyleTableRecord
  2
Text Style153
 70
     0
 40
0.0
 41
1.0
 50
0.0
 71
     0
 42
0.2
  3
tahoma.ttf
  4

1001
ACAD
1000
Tahoma
1071
      256
  0
ENDTAB
  0
TABLE
  2
VIEW
  5
6
330
0
100
AcDbSymbolTable
 70
     0
  0
ENDTAB
  0
TABLE
  2
UCS
  5
7
330
0
100
AcDbSymbolTable
 70
     0
  0
ENDTAB
  0
TABLE
  2
APPID
  5
9
330
0
100
AcDbSymbolTable
 70
     3
  0
APPID
  5
56
330
9
100
AcDbSymbolTableRecord
100
AcDbRegAppTableRecord
  2
ACAD
 70
     0
  0
APPID
  5
5E
330
9
100
AcDbSymbolTableRecord
100
AcDbRegAppTableRecord
  2
AcadAnnotative
 70
     0
  0
APPID
  5
C54
330
9
100
AcDbSymbolTableRecord
100
AcDbRegAppTableRecord
  2
ACAD_DSTYLE_DIMRADIAL_EXTENSION
 70
     0
  0
ENDTAB
  0
TABLE
  2
DIMSTYLE
  5
A
330
0
100
AcDbSymbolTable
 70
    27
100
AcDbDimStyleTable
 71
     2
340
F6
340
58
  0
DIMSTYLE
105
58
330
A
100
AcDbSymbolTableRecord
100
AcDbDimStyleTableRecord
  2
STANDARD
 70
     0
 41
0.1800000071525573
 42
0.0625
140
0.1800000071525574
144
1.0
147
0.0900000035762787
176
   256
177
   256
178
   256
274
     3
340
55
371
    -1
372
    -1
  0
DIMSTYLE
105
59
330
A
100
AcDbSymbolTableRecord
100
AcDbDimStyleTableRecord
  2
Annotative
 70
     0
340
55
1001
AcadAnnotative
1000
AnnotativeData
1002
{
1070
     1
1070
     1
1002
}
  0
DIMSTYLE
105
E2
330
A
100
AcDbSymbolTableRecord
100
AcDbDimStyleTableRecord
  2
AM_ANSI
 70
     0
  4
 mm
 40
10.0
 41
0.119999997317791
 42
0.05
 43
0.5
 44
0.1
 45
0.00000001
 78
     4
 79
     2
140
0.1200000047683716
146
0.7099999189376831
147
0.0599999986588955
176
   256
177
   256
178
     2
284
     4
340
DA
371
    -1
372
    -1
  0
DIMSTYLE
105
E3
330
A
100
AcDbSymbolTableRecord
100
AcDbDimStyleTableRecord
  2
AM_ANSI$7
 70
     0
  4
 mm
 40
10.0
 41
0.119999997317791
 42
0.05
 43
0.5
 44
0.1
 45
0.00000001
 78
     4
 79
     2
140
0.1200000047683716
146
0.7099999189376831
147
0.0599999986588955
176
   256
177
   256
178
     2
284
     4
340
DA
371
    -1
372
    -1
  0
DIMSTYLE
105
E4
330
A
100
AcDbSymbolTableRecord
100
AcDbDimStyleTableRecord
  2
AM_ANSI$0
 70
     0
  4
 mm
 40
10.0
 41
0.119999997317791
 42
0.05
 43
0.5
 44
0.1
 45
0.00000001
 78
     4
 79
     2
140
0.1200000047683716
146
0.7099999189376831
147
0.0599999986588955
176
   256
177
   256
178
     2
284
     4
340
DB
371
    -1
372
    -1
  0
DIMSTYLE
105
E5
330
A
100
AcDbSymbolTableRecord
100
AcDbDimStyleTableRecord
  2
AM_ANSI$0$7
 70
     0
  4
 mm
 40
10.0
 41
0.119999997317791
 42
0.05
 43
0.5
 44
0.1
 45
0.00000001
 78
     4
 79
     2
140
0.1200000047683716
146
0.7099999189376831
147
0.0599999986588955
176
   256
177
   256
178
     2
284
     4
340
DB
371
    -1
372
    -1
  0
DIMSTYLE
105
E6
330
A
100
AcDbSymbolTableRecord
100
AcDbDimStyleTableRecord
  2
AM_ANSI$3
 70
     0
  4
 mm
 40
10.0
 41
0.119999997317791
 42
0.05
 43
0.5
 44
0.1
 45
0.00000001
 78
     4
 79
     2
140
0.1200000047683716
146
0.7099999189376831
147
0.0599999986588955
176
   256
177
   256
178
     2
284
     4
340
DC
371
    -1
372
    -1
  0
DIMSTYLE
105
E7
330
A
100
AcDbSymbolTableRecord
100
AcDbDimStyleTableRecord
  2
AM_ANSI$3$7
 70
     0
  4
 mm
 40
10.0
 41
0.119999997317791
 42
0.05
 43
0.5
 44
0.1
 45
0.00000001
 78
     4
 79
     2
140
0.1200000047683716
146
0.7099999189376831
147
0.0599999986588955
176
   256
177
   256
178
     2
284
     4
340
DC
371
    -1
372
    -1
  0
DIMSTYLE
105
E8
330
A
100
AcDbSymbolTableRecord
100
AcDbDimStyleTableRecord
  2
AM_ANSI$4
 70
     0
  4
 mm
 40
10.0
 41
0.119999997317791
 42
0.05
 43
0.5
 44
0.1
 45
0.00000001
 78
     4
 79
     2
140
0.1200000047683716
146
0.7099999189376831
147
0.0599999986588955
176
   256
177
   256
178
     2
284
     4
340
DD
371
    -1
372
    -1
  0
DIMSTYLE
105
E9
330
A
100
AcDbSymbolTableRecord
100
AcDbDimStyleTableRecord
  2
AM_ANSI$4$7
 70
     0
  4
 mm
 40
10.0
 41
0.119999997317791
 42
0.05
 43
0.5
 44
0.1
 45
0.00000001
 78
     4
 79
     2
140
0.1200000047683716
146
0.7099999189376831
147
0.0599999986588955
176
   256
177
   256
178
     2
284
     4
340
DD
371
    -1
372
    -1
  0
DIMSTYLE
105
EA
330
A
100
AcDbSymbolTableRecord
100
AcDbDimStyleTableRecord
  2
AM_ANSI$SF
 70
     0
  4
 mm
 40
10.0
 41
0.119999997317791
 42
0.05
 43
0.5
 44
0.1
 45
0.00000001
 75
     1
 76
     1
 78
     4
 79
     2
140
0.1200000047683716
146
0.7099999189376831
147
0.0599999986588955
176
   256
177
   256
178
     2
284
     4
340
DF
371
    -1
372
    -1
  0
DIMSTYLE
105
EB
330
A
100
AcDbSymbolTableRecord
100
AcDbDimStyleTableRecord
  2
AM_ANSI$SF$7
 70
     0
  4
 mm
 40
10.0
 41
0.119999997317791
 42
0.05
 43
0.5
 44
0.1
 45
0.00000001
 75
     1
 76
     1
 78
     4
 79
     2
140
0.1200000047683716
146
0.7099999189376831
147
0.0599999986588955
176
   256
177
   256
178
     2
284
     4
340
DF
371
    -1
372
    -1
  0
DIMSTYLE
105
EC
330
A
100
AcDbSymbolTableRecord
100
AcDbDimStyleTableRecord
  2
AM_ANSI$SH
 70
     0
  4
 mm
 40
10.0
 41
0.119999997317791
 42
0.05
 43
0.5
 44
0.1
 45
0.00000001
 75
     1
 76
     1
 78
     4
 79
     2
140
0.1200000047683716
146
0.7099999189376831
147
0.0599999986588955
176
   256
177
   256
178
     2
284
     4
340
E0
371
    -1
372
    -1
  0
DIMSTYLE
105
ED
330
A
100
AcDbSymbolTableRecord
100
AcDbDimStyleTableRecord
  2
AM_ANSI$SH$7
 70
     0
  4
 mm
 40
10.0
 41
0.119999997317791
 42
0.05
 43
0.5
 44
0.1
 45
0.00000001
 75
     1
 76
     1
 78
     4
 79
     2
140
0.1200000047683716
146
0.7099999189376831
147
0.0599999986588955
176
   256
177
   256
178
     2
284
     4
340
E0
371
    -1
372
    -1
  0
DIMSTYLE
105
EE
330
A
100
AcDbSymbolTableRecord
100
AcDbDimStyleTableRecord
  2
Architectural (ANSI)
 70
     0
 40
10.0
 41
0.0984251946210861
 43
0.2362204724409449
 44
0.125
 45
0.00000001
 46
0.3937007874015748
 78
     3
 79
     3
140
0.1200000047683716
147
0.031496062992126
171
     1
176
   256
177
   256
178
   256
272
     2
274
     1
276
     2
277
     4
284
    12
285
     4
286
    12
340
D6
371
    -1
372
    -1
  0
DIMSTYLE
105
EF
330
A
100
AcDbSymbolTableRecord
100
AcDbDimStyleTableRecord
  2
Architectural (ANSI)$7
 70
     0
 40
10.0
 41
0.0984251946210861
 43
0.2362204724409449
 44
0.125
 45
0.00000001
 46
0.3937007874015748
 78
     3
 79
     3
140
0.1200000047683716
147
0.031496062992126
171
     1
176
   256
177
   256
178
   256
272
     2
274
     1
276
     2
277
     4
284
    12
285
     4
286
    12
340
D6
371
    -1
372
    -1
  0
DIMSTYLE
105
F0
330
A
100
AcDbSymbolTableRecord
100
AcDbDimStyleTableRecord
  2
Default - Fraction (ANSI)
 70
     0
 40
10.0
 41
0.0984251946210861
 43
0.2362204724409449
 44
0.125
 45
0.00000001
 46
0.3937007874015748
 79
     3
140
0.1200000047683716
147
0.031496062992126
171
     1
176
   256
177
   256
178
   256
272
     2
274
     1
276
     2
277
     5
284
    12
285
     4
286
    12
340
D6
371
    -1
372
    -1
  0
DIMSTYLE
105
F1
330
A
100
AcDbSymbolTableRecord
100
AcDbDimStyleTableRecord
  2
Default - Fraction (ANSI)$7
 70
     0
 40
10.0
 41
0.0984251946210861
 43
0.2362204724409449
 44
0.125
 45
0.00000001
 46
0.3937007874015748
 79
     3
140
0.1200000047683716
147
0.031496062992126
171
     1
176
   256
177
   256
178
   256
272
     2
274
     1
276
     2
277
     5
284
    12
285
     4
286
    12
340
D6
371
    -1
372
    -1
  0
DIMSTYLE
105
F2
330
A
100
AcDbSymbolTableRecord
100
AcDbDimStyleTableRecord
  2
Default - mm (ANSI)
 70
     0
 40
10.0
 41
0.0984251946210861
 42
0.063
 43
0.2362204724409449
 44
0.125
 45
0.00000001
 46
0.3937007874015748
 73
     0
 78
     4
 79
     1
140
0.1200000047683716
143
1.0
144
25.4
147
0.031496062992126
171
     1
176
   256
177
   256
178
   256
179
     1
271
     2
272
     2
274
     1
284
     4
285
     4
340
D6
371
    -1
372
    -1
  0
DIMSTYLE
105
F3
330
A
100
AcDbSymbolTableRecord
100
AcDbDimStyleTableRecord
  2
Default - mm (ANSI)$7
 70
     0
 40
10.0
 41
0.0984251946210861
 42
0.063
 43
0.2362204724409449
 44
0.125
 45
0.00000001
 46
0.3937007874015748
 73
     0
 78
     4
 79
     1
140
0.1200000047683716
143
1.0
144
25.4
147
0.031496062992126
171
     1
176
   256
177
   256
178
   256
179
     1
271
     2
272
     2
274
     1
284
     4
285
     4
340
D6
371
    -1
372
    -1
  0
DIMSTYLE
105
F4
330
A
100
AcDbSymbolTableRecord
100
AcDbDimStyleTableRecord
  2
Default - mm [in] (ANSI)
 70
     0
  4
 in
 40
10.0
 41
0.0984251946210861
 42
0.063
 43
0.25
 44
0.125
 45
0.00000001
 46
0.3937007874015748
 73
     0
 78
     4
 79
     1
140
0.1200000047683716
143
0.03937
144
25.4
147
0.031496062992126
170
     1
171
     3
176
   256
177
   256
178
   256
179
     1
271
     2
272
     2
274
     3
284
     4
285
     4
286
     4
340
D6
371
    -1
372
    -1
  0
DIMSTYLE
105
F5
330
A
100
AcDbSymbolTableRecord
100
AcDbDimStyleTableRecord
  2
Default - mm [in] (ANSI)$7
 70
     0
  4
 in
 40
10.0
 41
0.0984251946210861
 42
0.063
 43
0.25
 44
0.125
 45
0.00000001
 46
0.3937007874015748
 73
     0
 78
     4
 79
     1
140
0.1200000047683716
143
0.03937
144
25.4
147
0.031496062992126
170
     1
171
     3
176
   256
177
   256
178
   256
179
     1
271
     2
272
     2
274
     3
284
     4
285
     4
286
     4
340
D6
371
    -1
372
    -1
  0
DIMSTYLE
105
F6
102
{ACAD_REACTORS
330
53C
330
628
330
712
330
7FC
330
8FC
330
9E6
330
AD0
330
BBA
330
C75
330
D7E
102
}
330
A
100
AcDbSymbolTableRecord
100
AcDbDimStyleTableRecord
  2
Default (ANSI)
 70
     0
 40
10.0
 41
0.0984251946210861
 43
0.2362204724409449
 44
0.125
 45
0.00000001
 46
0.3937007874015748
 79
     1
140
0.1200000047683716
147
0.031496062992126
171
     1
176
   256
177
   256
178
   256
271
     2
272
     2
274
     1
284
     4
285
     4
340
D6
371
    -1
372
    -1
  0
DIMSTYLE
105
F7
330
A
100
AcDbSymbolTableRecord
100
AcDbDimStyleTableRecord
  2
Default (ANSI)$7
 70
     0
 40
10.0
 41
0.0984251946210861
 43
0.2362204724409449
 44
0.125
 45
0.00000001
 46
0.3937007874015748
 79
     1
140
0.1200000047683716
147
0.031496062992126
171
     1
176
   256
177
   256
178
   256
271
     2
272
     2
274
     1
284
     4
285
     4
340
D6
371
    -1
372
    -1
  0
DIMSTYLE
105
F8
330
A
100
AcDbSymbolTableRecord
100
AcDbDimStyleTableRecord
  2
Alternate (ANSI)
 70
     0
 40
10.0
 41
0.0979999974370003
340
55
342
F9
  0
DIMSTYLE
105
10B
330
A
100
AcDbSymbolTableRecord
100
AcDbDimStyleTableRecord
  2
Datum (ANSI)
 70
     0
 40
10.0
 41
0.0979999974370003
340
55
342
F9
  0
DIMSTYLE
105
11A
330
A
100
AcDbSymbolTableRecord
100
AcDbDimStyleTableRecord
  2
Large (ANSI)
 70
     0
 40
10.0
 41
0.1959999948740005
340
55
342
F9
  0
ENDTAB
  0
TABLE
  2
BLOCK_RECORD
  5
1
330
0
100
AcDbSymbolTable
 70
    14
  0
BLOCK_RECORD
  5
6C
330
1
100
AcDbSymbolTableRecord
100
AcDbBlockTableRecord
  2
*Model_Space
340
6F
 70
     0
280
     1
281
     0
  0
BLOCK_RECORD
  5
68
330
1
100
AcDbSymbolTableRecord
100
AcDbBlockTableRecord
  2
*Paper_Space
340
6B
 70
     0
280
     1
281
     0
  0
BLOCK_RECORD
  5
70
330
1
100
AcDbSymbolTableRecord
100
AcDbBlockTableRecord
  2
*Paper_Space0
340
73
 70
     0
280
     1
281
     0
  0
BLOCK_RECORD
  5
F9
330
1
100
AcDbSymbolTableRecord
100
AcDbBlockTableRecord
  2
_Closed
340
0
 70
     0
280
     1
281
     0
  0
BLOCK_RECORD
  5
100
330
1
100
AcDbSymbolTableRecord
100
AcDbBlockTableRecord
  2
DatumFilled45
340
0
 70
     0
280
     1
281
     0
  0
BLOCK_RECORD
  5
10C
330
1
100
AcDbSymbolTableRecord
100
AcDbBlockTableRecord
  2
Filled-1
340
0
 70
     0
280
     1
281
     0
  0
BLOCK_RECORD
  5
53F
330
1
100
AcDbSymbolTableRecord
100
AcDbBlockTableRecord
  2
*D4
340
0
 70
     0
280
     1
281
     0
  0
BLOCK_RECORD
  5
629
330
1
100
AcDbSymbolTableRecord
100
AcDbBlockTableRecord
  2
*D5
340
0
 70
     0
280
     1
281
     0
  0
BLOCK_RECORD
  5
713
330
1
100
AcDbSymbolTableRecord
100
AcDbBlockTableRecord
  2
*D6
340
0
 70
     0
280
     1
281
     0
  0
BLOCK_RECORD
  5
7FD
330
1
100
AcDbSymbolTableRecord
100
AcDbBlockTableRecord
  2
*D7
340
0
 70
     0
280
     1
281
     0
  0
BLOCK_RECORD
  5
8FD
330
1
100
AcDbSymbolTableRecord
100
AcDbBlockTableRecord
  2
*D8
340
0
 70
     0
280
     1
281
     0
  0
BLOCK_RECORD
  5
9E7
330
1
100
AcDbSymbolTableRecord
100
AcDbBlockTableRecord
  2
*D9
340
0
 70
     0
280
     1
281
     0
  0
BLOCK_RECORD
  5
AD1
330
1
100
AcDbSymbolTableRecord
100
AcDbBlockTableRecord
  2
*D10
340
0
 70
     0
280
     1
281
     0
  0
BLOCK_RECORD
  5
BBB
330
1
100
AcDbSymbolTableRecord
100
AcDbBlockTableRecord
  2
*D11
340
0
 70
     0
280
     1
281
     0
  0
BLOCK_RECORD
  5
C76
330
1
100
AcDbSymbolTableRecord
100
AcDbBlockTableRecord
  2
*D12
340
0
 70
     0
280
     1
281
     0
  0
BLOCK_RECORD
  5
D7F
330
1
100
AcDbSymbolTableRecord
100
AcDbBlockTableRecord
  2
*D13
340
0
 70
     0
280
     1
281
     0
  0
ENDTAB
  0
ENDSEC
  0
SECTION
  2
BLOCKS
  0
BLOCK
  5
6D
330
6C
100
AcDbEntity
  8
0
100
AcDbBlockBegin
  2
*Model_Space
 70
     0
 10
0.0
 20
0.0
 30
0.0
  3
*Model_Space
  1

  0
ENDBLK
  5
6E
330
6C
100
AcDbEntity
  8
0
100
AcDbBlockEnd
  0
BLOCK
  5
69
330
68
100
AcDbEntity
 67
     1
  8
0
100
AcDbBlockBegin
  2
*Paper_Space
 70
     0
 10
0.0
 20
0.0
 30
0.0
  3
*Paper_Space
  1

  0
ENDBLK
  5
6A
330
68
100
AcDbEntity
 67
     1
  8
0
100
AcDbBlockEnd
  0
BLOCK
  5
71
330
70
100
AcDbEntity
 67
     1
  8
0
100
AcDbBlockBegin
  2
*Paper_Space0
 70
     0
 10
0.0
 20
0.0
 30
0.0
  3
*Paper_Space0
  1

  0
ENDBLK
  5
72
330
70
100
AcDbEntity
 67
     1
  8
0
100
AcDbBlockEnd
  0
BLOCK
  5
FE
330
F9
100
AcDbEntity
  8
0
100
AcDbBlockBegin
  2
_Closed
 70
     0
 10
0.0
 20
0.0
 30
0.0
  3
_Closed
  1

  0
LINE
  5
FA
330
F9
100
AcDbEntity
  8
0
  6
ByBlock
 62
     0
370
    -2
100
AcDbLine
 10
-1.0
 20
0.1666666666666666
 30
0.0
 11
0.0
 21
0.0
 31
0.0
  0
LINE
  5
FB
330
F9
100
AcDbEntity
  8
0
  6
ByBlock
 62
     0
370
    -2
100
AcDbLine
 10
0.0
 20
0.0
 30
0.0
 11
-1.0
 21
-0.1666666666666666
 31
0.0
  0
LINE
  5
FC
330
F9
100
AcDbEntity
  8
0
  6
ByBlock
 62
     0
370
    -2
100
AcDbLine
 10
-1.0
 20
0.1666666666666666
 30
0.0
 11
-1.0
 21
-0.1666666666666666
 31
0.0
  0
LINE
  5
FD
330
F9
100
AcDbEntity
  8
0
  6
ByBlock
 62
     0
370
    -2
100
AcDbLine
 10
0.0
 20
0.0
 30
0.0
 11
-1.0
 21
0.0
 31
0.0
  0
ENDBLK
  5
FF
330
F9
100
AcDbEntity
  8
0
100
AcDbBlockEnd
  0
BLOCK
  5
101
330
100
100
AcDbEntity
  8
0
100
AcDbBlockBegin
  2
DatumFilled45
 70
     0
 10
0.0
 20
0.0
 30
0.0
  3
DatumFilled45
  1

  0
POLYLINE
  5
103
330
100
100
AcDbEntity
  8
0
 62
     0
100
AcDb2dPolyline
 66
     1
 10
0.0
 20
0.0
 30
0.0
 70
   128
  0
VERTEX
  5
104
330
103
100
AcDbEntity
  8
0
 62
     0
100
AcDbVertex
100
AcDb2dVertex
 10
0.0
 20
0.9999999999999998
 30
0.0
  0
VERTEX
  5
105
330
103
100
AcDbEntity
  8
0
 62
     0
100
AcDbVertex
100
AcDb2dVertex
 10
0.0
 20
-0.9999999999999998
 30
0.0
  0
VERTEX
  5
107
330
103
100
AcDbEntity
  8
0
 62
     0
100
AcDbVertex
100
AcDb2dVertex
 10
-0.9999999999999998
 20
0.0
 30
0.0
  0
VERTEX
  5
108
330
103
100
AcDbEntity
  8
0
 62
     0
100
AcDbVertex
100
AcDb2dVertex
 10
0.0
 20
0.9999999999999998
 30
0.0
  0
SEQEND
  5
106
330
103
100
AcDbEntity
  8
0
 62
     0
  0
SOLID
  5
10A
330
100
100
AcDbEntity
  8
0
 62
     0
100
AcDbTrace
 10
0.0
 20
0.9999999999999998
 30
0.0
 11
0.0
 21
-0.9999999999999998
 31
0.0
 12
-0.9999999999999998
 22
0.0
 32
0.0
 13
0.0
 23
0.9999999999999998
 33
0.0
  0
ENDBLK
  5
102
330
100
100
AcDbEntity
  8
0
100
AcDbBlockEnd
  0
BLOCK
  5
10D
330
10C
100
AcDbEntity
  8
0
100
AcDbBlockBegin
  2
Filled-1
 70
     0
 10
0.0
 20
0.0
 30
0.0
  3
Filled-1
  1

  0
LINE
  5
10F
330
10C
100
AcDbEntity
  8
0
 62
     0
100
AcDbLine
 10
-0.9999999999999998
 20
0.0
 30
0.0
 11
0.0
 21
0.0
 31
0.0
  0
POLYLINE
  5
110
330
10C
100
AcDbEntity
  8
0
 62
     0
100
AcDb2dPolyline
 66
     1
 10
0.0
 20
0.0
 30
0.0
 70
   128
  0
VERTEX
  5
111
330
110
100
AcDbEntity
  8
0
 62
     0
100
AcDbVertex
100
AcDb2dVertex
 10
-0.9999999999999998
 20
-0.0994897959183674
 30
0.0
  0
VERTEX
  5
112
330
110
100
AcDbEntity
  8
0
 62
     0
100
AcDbVertex
100
AcDb2dVertex
 10
0.0
 20
0.0
 30
0.0
  0
VERTEX
  5
114
330
110
100
AcDbEntity
  8
0
 62
     0
100
AcDbVertex
100
AcDb2dVertex
 10
-0.9999999999999998
 20
0.0994897959183674
 30
0.0
  0
VERTEX
  5
115
330
110
100
AcDbEntity
  8
0
 62
     0
100
AcDbVertex
100
AcDb2dVertex
 10
-0.9999999999999998
 20
-0.0994897959183674
 30
0.0
  0
SEQEND
  5
113
330
110
100
AcDbEntity
  8
0
 62
     0
  0
SOLID
  5
116
330
10C
100
AcDbEntity
  8
0
 62
     0
100
AcDbTrace
 10
-0.9999999999999998
 20
-0.0994897959183674
 30
0.0
 11
0.0
 21
0.0
 31
0.0
 12
-0.9999999999999998
 22
0.0994897959183674
 32
0.0
 13
-0.9999999999999998
 23
-0.0994897959183674
 33
0.0
  0
LINE
  5
117
330
10C
100
AcDbEntity
  8
0
 62
     0
100
AcDbLine
 10
-0.9999999999999998
 20
-0.0994897959183674
 30
0.0
 11
0.0
 21
0.0
 31
0.0
  0
LINE
  5
118
330
10C
100
AcDbEntity
  8
0
 62
     0
100
AcDbLine
 10
0.0
 20
0.0
 30
0.0
 11
-0.9999999999999998
 21
0.0994897959183674
 31
0.0
  0
LINE
  5
119
330
10C
100
AcDbEntity
  8
0
 62
     0
100
AcDbLine
 10
-0.9999999999999998
 20
0.0994897959183674
 30
0.0
 11
-0.9999999999999998
 21
-0.0994897959183674
 31
0.0
  0
ENDBLK
  5
10E
330
10C
100
AcDbEntity
  8
0
100
AcDbBlockEnd
  0
BLOCK
  5
540
330
53F
100
AcDbEntity
  8
0
100
AcDbBlockBegin
  2
*D4
 70
     1
 10
0.0
 20
0.0
 30
0.0
  3
*D4
  1

  0
LINE
  5
61E
330
53F
100
AcDbEntity
  8
Dimension (ANSI)
440
 16777216
100
AcDbLine
 10
27.97089649176192
 20
78.69825021783412
 30
0.0
 11
27.97089649176192
 21
87.98466754066875
 31
0.0
  0
LINE
  5
61F
330
53F
100
AcDbEntity
  8
Dimension (ANSI)
440
 16777216
100
AcDbLine
 10
59.97089649176192
 20
78.69825021783412
 30
0.0
 11
59.97089649176192
 21
87.98466754066875
 31
0.0
  0
LINE
  5
620
330
53F
100
AcDbEntity
  8
Dimension (ANSI)
440
 16777216
100
AcDbLine
 10
28.95514843797278
 20
86.73466754066875
 30
0.0
 11
41.67662081948392
 21
86.73466754066875
 31
0.0
  0
LINE
  5
621
330
53F
100
AcDbEntity
  8
Dimension (ANSI)
440
 16777216
100
AcDbLine
 10
58.98664454555106
 20
86.73466754066875
 30
0.0
 11
46.26517216403992
 21
86.73466754066875
 31
0.0
  0
SOLID
  5
622
330
53F
100
AcDbEntity
  8
Dimension (ANSI)
440
 16777216
100
AcDbTrace
 10
28.95514843797278
 20
86.89870953170389
 30
0.0
 11
28.95514843797278
 21
86.5706255496336
 31
0.0
 12
27.97089649176192
 22
86.73466754066875
 32
0.0
 13
27.97089649176192
 23
86.73466754066875
 33
0.0
  0
SOLID
  5
623
330
53F
100
AcDbEntity
  8
Dimension (ANSI)
440
 16777216
100
AcDbTrace
 10
58.98664454555106
 20
86.89870953170389
 30
0.0
 11
58.98664454555106
 21
86.5706255496336
 31
0.0
 12
59.97089649176192
 22
86.73466754066875
 32
0.0
 13
59.97089649176192
 23
86.73466754066875
 33
0.0
  0
MTEXT
  5
624
330
53F
100
AcDbEntity
  8
Dimension (ANSI)
440
 16777216
100
AcDbMText
 10
41.99158144940517
 20
87.3596507716735
 30
0.0
 40
1.200000047683715
 41
0.0
 46
0.0
 71
     1
 72
     1
  1
\A1;32.00
  7
Note Text (ANSI)
 73
     1
 44
1.0
  0
POINT
  5
625
330
53F
100
AcDbEntity
  8
Defpoints
 62
     0
440
 16777216
100
AcDbPoint
 10
27.97089649176192
 20
78.07325021783412
 30
0.0
  0
POINT
  5
626
330
53F
100
AcDbEntity
  8
Defpoints
 62
     0
440
 16777216
100
AcDbPoint
 10
59.97089649176192
 20
78.07325021783412
 30
0.0
  0
POINT
  5
627
330
53F
100
AcDbEntity
  8
Defpoints
 62
     0
440
 16777216
100
AcDbPoint
 10
59.97089649176192
 20
86.73466754066875
 30
0.0
  0
ENDBLK
  5
541
330
53F
100
AcDbEntity
  8
0
100
AcDbBlockEnd
  0
BLOCK
  5
62A
330
629
100
AcDbEntity
  8
0
100
AcDbBlockBegin
  2
*D5
 70
     1
 10
0.0
 20
0.0
 30
0.0
  3
*D5
  1

  0
LINE
  5
708
330
629
100
AcDbEntity
  8
Dimension (ANSI)
440
 16777216
100
AcDbLine
 10
27.97089649176192
 20
78.69825021783412
 30
0.0
 11
27.97089649176192
 21
84.07679935258611
 31
0.0
  0
LINE
  5
709
330
629
100
AcDbEntity
  8
Dimension (ANSI)
440
 16777216
100
AcDbLine
 10
28.84589649176192
 20
79.51479147857035
 30
0.0
 11
28.84589649176192
 21
84.07679935258611
 31
0.0
  0
LINE
  5
70A
330
629
100
AcDbEntity
  8
Dimension (ANSI)
440
 16777216
100
AcDbLine
 10
29.83014843797278
 20
82.82679935258611
 30
0.0
 11
30.81440038418364
 21
82.82679935258611
 31
0.0
  0
LINE
  5
70B
330
629
100
AcDbEntity
  8
Dimension (ANSI)
440
 16777216
100
AcDbLine
 10
26.98664454555106
 20
82.82679935258611
 30
0.0
 11
25.49383020265054
 21
82.82679935258611
 31
0.0
  0
SOLID
  5
70C
330
629
100
AcDbEntity
  8
Dimension (ANSI)
440
 16777216
100
AcDbTrace
 10
29.83014843797278
 20
82.99084134362127
 30
0.0
 11
29.83014843797278
 21
82.66275736155098
 31
0.0
 12
28.84589649176192
 22
82.82679935258611
 32
0.0
 13
28.84589649176192
 23
82.82679935258611
 33
0.0
  0
SOLID
  5
70D
330
629
100
AcDbEntity
  8
Dimension (ANSI)
440
 16777216
100
AcDbTrace
 10
26.98664454555106
 20
82.99084134362127
 30
0.0
 11
26.98664454555106
 21
82.66275736155098
 31
0.0
 12
27.97089649176192
 22
82.82679935258611
 32
0.0
 13
27.97089649176192
 23
82.82679935258611
 33
0.0
  0
MTEXT
  5
70E
330
629
100
AcDbEntity
  8
Dimension (ANSI)
440
 16777216
100
AcDbMText
 10
22.10271097473428
 20
83.45420031369148
 30
0.0
 40
1.200000047683715
 41
0.0
 46
0.0
 71
     1
 72
     1
  1
\A1;0.88
  7
Note Text (ANSI)
 73
     1
 44
1.0
  0
POINT
  5
70F
330
629
100
AcDbEntity
  8
Defpoints
 62
     0
440
 16777216
100
AcDbPoint
 10
27.97089649176192
 20
78.07325021783412
 30
0.0
  0
POINT
  5
710
330
629
100
AcDbEntity
  8
Defpoints
 62
     0
440
 16777216
100
AcDbPoint
 10
28.84589649176192
 20
78.88979147857035
 30
0.0
  0
POINT
  5
711
330
629
100
AcDbEntity
  8
Defpoints
 62
     0
440
 16777216
100
AcDbPoint
 10
28.84589649176192
 20
82.82679935258611
 30
0.0
  0
ENDBLK
  5
62B
330
629
100
AcDbEntity
  8
0
100
AcDbBlockEnd
  0
BLOCK
  5
714
330
713
100
AcDbEntity
  8
0
100
AcDbBlockBegin
  2
*D6
 70
     1
 10
0.0
 20
0.0
 30
0.0
  3
*D6
  1

  0
LINE
  5
7F2
330
713
100
AcDbEntity
  8
Dimension (ANSI)
440
 16777216
100
AcDbLine
 10
28.84589649176192
 20
79.51479147857035
 30
0.0
 11
28.84589649176192
 21
84.07679935258611
 31
0.0
  0
LINE
  5
7F3
330
713
100
AcDbEntity
  8
Dimension (ANSI)
440
 16777216
100
AcDbLine
 10
59.09589649176192
 20
79.51479147857035
 30
0.0
 11
59.09589649176192
 21
84.07679935258611
 31
0.0
  0
LINE
  5
7F4
330
713
100
AcDbEntity
  8
Dimension (ANSI)
440
 16777216
100
AcDbLine
 10
29.83014843797278
 20
82.82679935258611
 30
0.0
 11
41.6862917398863
 21
82.82679935258611
 31
0.0
  0
LINE
  5
7F5
330
713
100
AcDbEntity
  8
Dimension (ANSI)
440
 16777216
100
AcDbLine
 10
58.11164454555106
 20
82.82679935258611
 30
0.0
 11
46.25550124363753
 21
82.82679935258611
 31
0.0
  0
SOLID
  5
7F6
330
713
100
AcDbEntity
  8
Dimension (ANSI)
440
 16777216
100
AcDbTrace
 10
29.83014843797278
 20
82.99084134362125
 30
0.0
 11
29.83014843797278
 21
82.66275736155096
 31
0.0
 12
28.84589649176192
 22
82.82679935258611
 32
0.0
 13
28.84589649176192
 23
82.82679935258611
 33
0.0
  0
SOLID
  5
7F7
330
713
100
AcDbEntity
  8
Dimension (ANSI)
440
 16777216
100
AcDbTrace
 10
58.11164454555106
 20
82.99084134362125
 30
0.0
 11
58.11164454555106
 21
82.66275736155096
 31
0.0
 12
59.09589649176192
 22
82.82679935258611
 32
0.0
 13
59.09589649176192
 23
82.82679935258611
 33
0.0
  0
MTEXT
  5
7F8
330
713
100
AcDbEntity
  8
Dimension (ANSI)
440
 16777216
100
AcDbMText
 10
42.00125236980756
 20
83.45178258359085
 30
0.0
 40
1.200000047683715
 41
0.0
 46
0.0
 71
     1
 72
     1
  1
\A1;30.25
  7
Note Text (ANSI)
 73
     1
 44
1.0
  0
POINT
  5
7F9
330
713
100
AcDbEntity
  8
Defpoints
 62
     0
440
 16777216
100
AcDbPoint
 10
28.84589649176192
 20
78.88979147857035
 30
0.0
  0
POINT
  5
7FA
330
713
100
AcDbEntity
  8
Defpoints
 62
     0
440
 16777216
100
AcDbPoint
 10
59.09589649176192
 20
78.88979147857035
 30
0.0
  0
POINT
  5
7FB
330
713
100
AcDbEntity
  8
Defpoints
 62
     0
440
 16777216
100
AcDbPoint
 10
59.09589649176192
 20
82.82679935258611
 30
0.0
  0
ENDBLK
  5
715
330
713
100
AcDbEntity
  8
0
100
AcDbBlockEnd
  0
BLOCK
  5
7FE
330
7FD
100
AcDbEntity
  8
0
100
AcDbBlockBegin
  2
*D7
 70
     1
 10
0.0
 20
0.0
 30
0.0
  3
*D7
  1

  0
LINE
  5
8F1
330
7FD
100
AcDbEntity
  8
Dimension (ANSI)
440
 16777216
100
AcDbLine
 10
27.50593775249818
 20
30.23329147857036
 30
0.0
 11
24.96468049287579
 21
30.23329147857036
 31
0.0
  0
LINE
  5
8F2
330
7FD
100
AcDbEntity
  8
Dimension (ANSI)
440
 16777216
100
AcDbLine
 10
26.6893964917619
 20
31.10829147857036
 30
0.0
 11
24.96468049287579
 21
31.10829147857036
 31
0.0
  0
LINE
  5
8F3
330
7FD
100
AcDbEntity
  8
Dimension (ANSI)
440
 16777216
100
AcDbLine
 10
26.21468049287579
 20
32.09254342478122
 30
0.0
 11
26.21468049287579
 21
33.07679537099208
 31
0.0
  0
LINE
  5
8F4
330
7FD
100
AcDbEntity
  8
Dimension (ANSI)
440
 16777216
100
AcDbLine
 10
26.21468049287579
 20
29.2490395323595
 30
0.0
 11
26.21468049287579
 21
27.36331481974895
 31
0.0
  0
LINE
  5
8F5
330
7FD
100
AcDbEntity
  8
Dimension (ANSI)
440
 16777216
100
AcDbLine
 10
26.21468049287579
 20
27.36331481974895
 30
0.0
 11
25.23042854666493
 21
27.36331481974895
 31
0.0
  0
SOLID
  5
8F6
330
7FD
100
AcDbEntity
  8
Dimension (ANSI)
440
 16777216
100
AcDbTrace
 10
26.05063850184065
 20
32.09254342478122
 30
0.0
 11
26.37872248391094
 21
32.09254342478122
 31
0.0
 12
26.21468049287579
 22
31.10829147857036
 32
0.0
 13
26.21468049287579
 23
31.10829147857036
 33
0.0
  0
SOLID
  5
8F7
330
7FD
100
AcDbEntity
  8
Dimension (ANSI)
440
 16777216
100
AcDbTrace
 10
26.05063850184065
 20
29.2490395323595
 30
0.0
 11
26.37872248391094
 21
29.2490395323595
 31
0.0
 12
26.21468049287579
 22
30.23329147857036
 32
0.0
 13
26.21468049287579
 23
30.23329147857036
 33
0.0
  0
MTEXT
  5
8F8
330
7FD
100
AcDbEntity
  8
Dimension (ANSI)
440
 16777216
100
AcDbMText
 10
21.83930931874867
 20
27.9907157808543
 30
0.0
 40
1.200000047683715
 41
0.0
 46
0.0
 71
     1
 72
     1
  1
\A1;0.88
  7
Note Text (ANSI)
 73
     1
 44
1.0
  0
POINT
  5
8F9
330
7FD
100
AcDbEntity
  8
Defpoints
 62
     0
440
 16777216
100
AcDbPoint
 10
28.13093775249818
 20
30.23329147857036
 30
0.0
  0
POINT
  5
8FA
330
7FD
100
AcDbEntity
  8
Defpoints
 62
     0
440
 16777216
100
AcDbPoint
 10
27.3143964917619
 20
31.10829147857036
 30
0.0
  0
POINT
  5
8FB
330
7FD
100
AcDbEntity
  8
Defpoints
 62
     0
440
 16777216
100
AcDbPoint
 10
26.21468049287579
 20
31.10829147857036
 30
0.0
  0
ENDBLK
  5
7FF
330
7FD
100
AcDbEntity
  8
0
100
AcDbBlockEnd
  0
BLOCK
  5
8FE
330
8FD
100
AcDbEntity
  8
0
100
AcDbBlockBegin
  2
*D8
 70
     1
 10
0.0
 20
0.0
 30
0.0
  3
*D8
  1

  0
LINE
  5
9DC
330
8FD
100
AcDbEntity
  8
Dimension (ANSI)
440
 16777216
100
AcDbLine
 10
26.6893964917619
 20
31.10829147857036
 30
0.0
 11
22.12738861774616
 21
31.10829147857037
 31
0.0
  0
LINE
  5
9DD
330
8FD
100
AcDbEntity
  8
Dimension (ANSI)
440
 16777216
100
AcDbLine
 10
26.68939649176193
 20
54.23329147857035
 30
0.0
 11
22.12738861774617
 21
54.23329147857035
 31
0.0
  0
LINE
  5
9DE
330
8FD
100
AcDbEntity
  8
Dimension (ANSI)
440
 16777216
100
AcDbLine
 10
23.37738861774616
 20
32.09254342478122
 30
0.0
 11
23.37738861774617
 21
41.73084761764434
 31
0.0
  0
LINE
  5
9DF
330
8FD
100
AcDbEntity
  8
Dimension (ANSI)
440
 16777216
100
AcDbLine
 10
23.37738861774617
 20
53.24903953235949
 30
0.0
 11
23.37738861774617
 21
43.61073533949636
 31
0.0
  0
SOLID
  5
9E0
330
8FD
100
AcDbEntity
  8
Dimension (ANSI)
440
 16777216
100
AcDbTrace
 10
23.21334662671102
 20
32.09254342478122
 30
0.0
 11
23.54143060878131
 21
32.09254342478122
 31
0.0
 12
23.37738861774616
 22
31.10829147857037
 32
0.0
 13
23.37738861774616
 23
31.10829147857037
 33
0.0
  0
SOLID
  5
9E1
330
8FD
100
AcDbEntity
  8
Dimension (ANSI)
440
 16777216
100
AcDbTrace
 10
23.21334662671102
 20
53.24903953235949
 30
0.0
 11
23.54143060878131
 21
53.24903953235949
 31
0.0
 12
23.37738861774617
 22
54.23329147857035
 32
0.0
 13
23.37738861774617
 23
54.23329147857035
 33
0.0
  0
MTEXT
  5
9E2
330
8FD
100
AcDbEntity
  8
Dimension (ANSI)
440
 16777216
100
AcDbMText
 10
21.4162065511439
 20
43.29577470957511
 30
0.0
 40
1.200000047683715
 41
0.0
 46
0.0
 71
     1
 72
     1
  1
\A1;23.13
  7
Note Text (ANSI)
 73
     1
 44
1.0
  0
POINT
  5
9E3
330
8FD
100
AcDbEntity
  8
Defpoints
 62
     0
440
 16777216
100
AcDbPoint
 10
27.3143964917619
 20
31.10829147857036
 30
0.0
  0
POINT
  5
9E4
330
8FD
100
AcDbEntity
  8
Defpoints
 62
     0
440
 16777216
100
AcDbPoint
 10
27.31439649176193
 20
54.23329147857035
 30
0.0
  0
POINT
  5
9E5
330
8FD
100
AcDbEntity
  8
Defpoints
 62
     0
440
 16777216
100
AcDbPoint
 10
23.37738861774617
 20
54.23329147857035
 30
0.0
  0
ENDBLK
  5
8FF
330
8FD
100
AcDbEntity
  8
0
100
AcDbBlockEnd
  0
BLOCK
  5
9E8
330
9E7
100
AcDbEntity
  8
0
100
AcDbBlockBegin
  2
*D9
 70
     1
 10
0.0
 20
0.0
 30
0.0
  3
*D9
  1

  0
LINE
  5
AC6
330
9E7
100
AcDbEntity
  8
Dimension (ANSI)
440
 16777216
100
AcDbLine
 10
26.6893964917619
 20
31.10829147857036
 30
0.0
 11
15.04077444451782
 21
31.10829147857037
 31
0.0
  0
LINE
  5
AC7
330
9E7
100
AcDbEntity
  8
Dimension (ANSI)
440
 16777216
100
AcDbLine
 10
26.68939649176192
 20
77.35829147857036
 30
0.0
 11
15.04077444451783
 21
77.35829147857036
 31
0.0
  0
LINE
  5
AC8
330
9E7
100
AcDbEntity
  8
Dimension (ANSI)
440
 16777216
100
AcDbLine
 10
16.29077444451782
 20
32.09254342478122
 30
0.0
 11
16.29077444451783
 21
53.29334761764434
 31
0.0
  0
LINE
  5
AC9
330
9E7
100
AcDbEntity
  8
Dimension (ANSI)
440
 16777216
100
AcDbLine
 10
16.29077444451783
 20
76.3740395323595
 30
0.0
 11
16.29077444451783
 21
55.17323533949635
 31
0.0
  0
SOLID
  5
ACA
330
9E7
100
AcDbEntity
  8
Dimension (ANSI)
440
 16777216
100
AcDbTrace
 10
16.12673245348268
 20
32.09254342478122
 30
0.0
 11
16.45481643555297
 21
32.09254342478122
 31
0.0
 12
16.29077444451782
 22
31.10829147857037
 32
0.0
 13
16.29077444451782
 23
31.10829147857037
 33
0.0
  0
SOLID
  5
ACB
330
9E7
100
AcDbEntity
  8
Dimension (ANSI)
440
 16777216
100
AcDbTrace
 10
16.12673245348269
 20
76.3740395323595
 30
0.0
 11
16.45481643555298
 21
76.3740395323595
 31
0.0
 12
16.29077444451783
 22
77.35829147857036
 32
0.0
 13
16.29077444451783
 23
77.35829147857036
 33
0.0
  0
MTEXT
  5
ACC
330
9E7
100
AcDbEntity
  8
Dimension (ANSI)
440
 16777216
100
AcDbMText
 10
14.29816188660778
 20
54.8582747095751
 30
0.0
 40
1.200000047683715
 41
0.0
 46
0.0
 71
     1
 72
     1
  1
\A1;46.25
  7
Note Text (ANSI)
 73
     1
 44
1.0
  0
POINT
  5
ACD
330
9E7
100
AcDbEntity
  8
Defpoints
 62
     0
440
 16777216
100
AcDbPoint
 10
27.3143964917619
 20
31.10829147857036
 30
0.0
  0
POINT
  5
ACE
330
9E7
100
AcDbEntity
  8
Defpoints
 62
     0
440
 16777216
100
AcDbPoint
 10
27.31439649176192
 20
77.35829147857036
 30
0.0
  0
POINT
  5
ACF
330
9E7
100
AcDbEntity
  8
Defpoints
 62
     0
440
 16777216
100
AcDbPoint
 10
16.29077444451783
 20
77.35829147857036
 30
0.0
  0
ENDBLK
  5
9E9
330
9E7
100
AcDbEntity
  8
0
100
AcDbBlockEnd
  0
BLOCK
  5
AD2
330
AD1
100
AcDbEntity
  8
0
100
AcDbBlockBegin
  2
*D10
 70
     1
 10
0.0
 20
0.0
 30
0.0
  3
*D10
  1

  0
LINE
  5
BB0
330
AD1
100
AcDbEntity
  8
Dimension (ANSI)
440
 16777216
100
AcDbLine
 10
27.50593775249818
 20
30.23329147857036
 30
0.0
 11
8.770701532025732
 21
30.23329147857036
 31
0.0
  0
LINE
  5
BB1
330
AD1
100
AcDbEntity
  8
Dimension (ANSI)
440
 16777216
100
AcDbLine
 10
27.50593775249817
 20
78.23329147857034
 30
0.0
 11
8.770701532025739
 21
78.23329147857034
 31
0.0
  0
LINE
  5
BB2
330
AD1
100
AcDbEntity
  8
Dimension (ANSI)
440
 16777216
100
AcDbLine
 10
10.02070153202573
 20
31.21754342478122
 30
0.0
 11
10.02070153202573
 21
53.29092988754377
 31
0.0
  0
LINE
  5
BB3
330
AD1
100
AcDbEntity
  8
Dimension (ANSI)
440
 16777216
100
AcDbLine
 10
10.02070153202574
 20
77.24903953235948
 30
0.0
 11
10.02070153202573
 21
55.17565306959697
 31
0.0
  0
SOLID
  5
BB4
330
AD1
100
AcDbEntity
  8
Dimension (ANSI)
440
 16777216
100
AcDbTrace
 10
9.856659540990587
 20
31.21754342478122
 30
0.0
 11
10.18474352306087
 21
31.21754342478122
 31
0.0
 12
10.02070153202573
 22
30.23329147857036
 32
0.0
 13
10.02070153202573
 23
30.23329147857036
 33
0.0
  0
SOLID
  5
BB5
330
AD1
100
AcDbEntity
  8
Dimension (ANSI)
440
 16777216
100
AcDbTrace
 10
9.856659540990598
 20
77.24903953235948
 30
0.0
 11
10.18474352306088
 21
77.24903953235948
 31
0.0
 12
10.02070153202574
 22
78.23329147857034
 32
0.0
 13
10.02070153202574
 23
78.23329147857034
 33
0.0
  0
MTEXT
  5
BB6
330
AD1
100
AcDbEntity
  8
Dimension (ANSI)
440
 16777216
100
AcDbMText
 10
8.018418053713292
 20
54.86069243967572
 30
0.0
 40
1.200000047683715
 41
0.0
 46
0.0
 71
     1
 72
     1
  1
\A1;48.00
  7
Note Text (ANSI)
 73
     1
 44
1.0
  0
POINT
  5
BB7
330
AD1
100
AcDbEntity
  8
Defpoints
 62
     0
440
 16777216
100
AcDbPoint
 10
28.13093775249818
 20
30.23329147857036
 30
0.0
  0
POINT
  5
BB8
330
AD1
100
AcDbEntity
  8
Defpoints
 62
     0
440
 16777216
100
AcDbPoint
 10
28.13093775249816
 20
78.23329147857034
 30
0.0
  0
POINT
  5
BB9
330
AD1
100
AcDbEntity
  8
Defpoints
 62
     0
440
 16777216
100
AcDbPoint
 10
10.02070153202574
 20
78.23329147857034
 30
0.0
  0
ENDBLK
  5
AD3
330
AD1
100
AcDbEntity
  8
0
100
AcDbBlockEnd
  0
BLOCK
  5
BBC
330
BBB
100
AcDbEntity
  8
0
100
AcDbBlockBegin
  2
*D11
 70
     1
 10
0.0
 20
0.0
 30
0.0
  3
*D11
  1

  0
LINE
  5
C6D
330
BBB
100
AcDbEntity
  8
Dimension (ANSI)
440
 16777216
100
AcDbLine
 10
62.68314535329544
 20
28.1209711084221
 30
0.0
 11
61.40187012917088
 21
28.1209711084221
 31
0.0
  0
LINE
  5
C6E
330
BBB
100
AcDbEntity
  8
Dimension (ANSI)
440
 16777216
100
AcDbLine
 10
61.40187012917088
 20
28.1209711084221
 30
0.0
 11
59.86933107912801
 21
30.10632993818948
 31
0.0
  0
MTEXT
  5
C6F
330
BBB
100
AcDbEntity
  8
Dimension (ANSI)
440
 16777216
100
AcDbMText
 10
62.9981059832167
 20
28.1209711084221
 30
0.0
 40
1.200000047683715
 41
0.0
 46
0.0
 71
     4
 72
     1
  1
\A1;∅0.563{\P(6 PL.)}
  7
Note Text (ANSI)
 73
     1
 44
1.0
  0
SOLID
  5
C70
330
BBB
100
AcDbEntity
  8
Dimension (ANSI)
440
 16777216
100
AcDbTrace
 10
59.99918572127711
 20
30.20656738994833
 30
0.0
 11
59.73947643697893
 21
30.00609248643063
 31
0.0
 12
59.26790636857492
 22
30.88545779108398
 32
0.0
 13
59.26790636857492
 23
30.88545779108398
 33
0.0
  0
LINE
  5
C71
330
BBB
100
AcDbEntity
  8
Dimension (ANSI)
440
 16777216
100
AcDbLine
 10
58.19589649176191
 20
31.10829147857034
 30
0.0
 11
59.9958964917619
 21
31.10829147857035
 31
0.0
  0
LINE
  5
C72
330
BBB
100
AcDbEntity
  8
Dimension (ANSI)
440
 16777216
100
AcDbLine
 10
59.09589649176191
 20
30.20829147857036
 30
0.0
 11
59.09589649176191
 21
32.00829147857035
 31
0.0
  0
POINT
  5
C73
330
BBB
100
AcDbEntity
  8
Defpoints
 62
     0
440
 16777216
100
AcDbPoint
 10
59.26790636857492
 20
30.88545779108398
 30
0.0
  0
POINT
  5
C74
330
BBB
100
AcDbEntity
  8
Defpoints
 62
     0
440
 16777216
100
AcDbPoint
 10
58.92388661494891
 20
31.33112516605672
 30
0.0
  0
ENDBLK
  5
BBD
330
BBB
100
AcDbEntity
  8
0
100
AcDbBlockEnd
  0
BLOCK
  5
C77
330
C76
100
AcDbEntity
  8
0
100
AcDbBlockBegin
  2
*D12
 70
     1
 10
0.0
 20
0.0
 30
0.0
  3
*D12
  1

  0
LINE
  5
D75
330
C76
100
AcDbEntity
  8
Dimension (ANSI)
440
 16777216
100
AcDbLine
 10
53.12666678571105
 20
97.09991383385606
 30
0.0
 11
53.12666678571105
 21
96.1156618876452
 31
0.0
  0
LINE
  5
D76
330
C76
100
AcDbEntity
  8
Dimension (ANSI)
440
 16777216
100
AcDbLine
 10
53.12666678571105
 20
99.94341772627784
 30
0.0
 11
53.12666678571105
 21
103.1791424555729
 31
0.0
  0
LINE
  5
D77
330
C76
100
AcDbEntity
  8
Dimension (ANSI)
440
 16777216
100
AcDbLine
 10
53.12666678571105
 20
103.1791424555729
 30
0.0
 11
54.11091873192191
 21
103.1791424555729
 31
0.0
  0
SOLID
  5
D78
330
C76
100
AcDbEntity
  8
Dimension (ANSI)
440
 16777216
100
AcDbTrace
 10
52.9626247946759
 20
97.09991383385606
 30
0.0
 11
53.29070877674618
 21
97.09991383385606
 31
0.0
 12
53.12666678571105
 22
98.08416578006692
 32
0.0
 13
53.12666678571105
 23
98.08416578006692
 33
0.0
  0
SOLID
  5
D79
330
C76
100
AcDbEntity
  8
Dimension (ANSI)
440
 16777216
100
AcDbTrace
 10
52.9626247946759
 20
99.94341772627784
 30
0.0
 11
53.29070877674618
 21
99.94341772627784
 31
0.0
 12
53.12666678571105
 22
98.95916578006698
 32
0.0
 13
53.12666678571105
 23
98.95916578006698
 33
0.0
  0
MTEXT
  5
D7A
330
C76
100
AcDbEntity
  8
Dimension (ANSI)
440
 16777216
100
AcDbMText
 10
56.01110439780232
 20
103.179142455573
 30
0.0
 40
1.200000047683715
 41
0.0
 46
0.0
 71
     5
 72
     1
  1
\A1;0.88{\PTYP.}
  7
Note Text (ANSI)
 73
     1
 44
1.0
  0
POINT
  5
D7B
330
C76
100
AcDbEntity
  8
Defpoints
 62
     0
440
 16777216
100
AcDbPoint
 10
56.01110439780232
 20
98.95916578006698
 30
0.0
  0
POINT
  5
D7C
330
C76
100
AcDbEntity
  8
Defpoints
 62
     0
440
 16777216
100
AcDbPoint
 10
55.99492084722498
 20
98.08416578006692
 30
0.0
  0
POINT
  5
D7D
330
C76
100
AcDbEntity
  8
Defpoints
 62
     0
440
 16777216
100
AcDbPoint
 10
53.12666678571105
 20
98.08416578006692
 30
0.0
  0
ENDBLK
  5
C78
330
C76
100
AcDbEntity
  8
0
100
AcDbBlockEnd
  0
BLOCK
  5
D80
330
D7F
100
AcDbEntity
  8
0
100
AcDbBlockBegin
  2
*D13
 70
     1
 10
0.0
 20
0.0
 30
0.0
  3
*D13
  1

  0
LINE
  5
E65
330
D7F
100
AcDbEntity
  8
Dimension (ANSI)
440
 16777216
100
AcDbLine
 10
83.08640730566622
 20
75.82456652241994
 30
0.0
 11
82.10215535945536
 21
75.82456652241994
 31
0.0
  0
LINE
  5
E66
330
D7F
100
AcDbEntity
  8
Dimension (ANSI)
440
 16777216
100
AcDbLine
 10
85.92991119808798
 20
75.82456652241994
 30
0.0
 11
87.46820542200778
 21
75.82456652241994
 31
0.0
  0
SOLID
  5
E67
330
D7F
100
AcDbEntity
  8
Dimension (ANSI)
440
 16777216
100
AcDbTrace
 10
83.08640730566622
 20
75.98860851345509
 30
0.0
 11
83.08640730566622
 21
75.66052453138479
 31
0.0
 12
84.07065925187708
 22
75.82456652241994
 32
0.0
 13
84.07065925187708
 23
75.82456652241994
 33
0.0
  0
SOLID
  5
E68
330
D7F
100
AcDbEntity
  8
Dimension (ANSI)
440
 16777216
100
AcDbTrace
 10
85.92991119808798
 20
75.98860851345509
 30
0.0
 11
85.92991119808798
 21
75.66052453138479
 31
0.0
 12
84.94565925187712
 22
75.82456652241994
 32
0.0
 13
84.94565925187712
 23
75.82456652241994
 33
0.0
  0
MTEXT
  5
E69
330
D7F
100
AcDbEntity
  8
Dimension (ANSI)
440
 16777216
100
AcDbMText
 10
87.78316605192904
 20
75.82456652241994
 30
0.0
 40
1.200000047683715
 41
0.0
 46
0.0
 71
     4
 72
     1
  1
\A1;0.88{\PTYP.}
  7
Note Text (ANSI)
 73
     1
 44
1.0
  0
POINT
  5
E6A
330
D7F
100
AcDbEntity
  8
Defpoints
 62
     0
440
 16777216
100
AcDbPoint
 10
84.94565925187712
 20
75.82456652241994
 30
0.0
  0
POINT
  5
E6B
330
D7F
100
AcDbEntity
  8
Defpoints
 62
     0
440
 16777216
100
AcDbPoint
 10
84.07065925187708
 20
75.82456652241991
 30
0.0
  0
POINT
  5
E6C
330
D7F
100
AcDbEntity
  8
Defpoints
 62
     0
440
 16777216
100
AcDbPoint
 10
84.07065925187708
 20
75.82456652241994
 30
0.0
  0
ENDBLK
  5
D81
330
D7F
100
AcDbEntity
  8
0
100
AcDbBlockEnd
  0
ENDSEC
  0
SECTION
  2
ENTITIES
  0
CIRCLE
  5
11B
330
6C
100
AcDbEntity
  8
Visible (ANSI)
100
AcDbCircle
 10
59.09589649176194
 20
54.23329147857037
 30
0.0
 40
0.2814999999999999
  0
CIRCLE
  5
11C
330
6C
100
AcDbEntity
  8
Visible (ANSI)
100
AcDbCircle
 10
28.84589649176192
 20
54.23329147857035
 30
0.0
 40
0.2814999999999999
  0
CIRCLE
  5
11D
330
6C
100
AcDbEntity
  8
Visible (ANSI)
100
AcDbCircle
 10
59.09589649176192
 20
77.35829147857036
 30
0.0
 40
0.2814999999999999
  0
CIRCLE
  5
11E
330
6C
100
AcDbEntity
  8
Visible (ANSI)
100
AcDbCircle
 10
28.84589649176192
 20
77.35829147857036
 30
0.0
 40
0.2814999999999999
  0
CIRCLE
  5
11F
330
6C
100
AcDbEntity
  8
Visible (ANSI)
100
AcDbCircle
 10
28.84589649176191
 20
31.10829147857036
 30
0.0
 40
0.2814999999999999
  0
CIRCLE
  5
120
330
6C
100
AcDbEntity
  8
Visible (ANSI)
100
AcDbCircle
 10
59.09589649176192
 20
31.10829147857036
 30
0.0
 40
0.2814999999999999
  0
LINE
  5
121
330
6C
100
AcDbEntity
  8
Visible (ANSI)
100
AcDbLine
 10
59.97089649176192
 20
78.07325021783412
 30
0.0
 11
59.97089649176192
 21
30.3933327393066
 31
0.0
  0
LINE
  5
122
330
6C
100
AcDbEntity
  8
Visible (ANSI)
100
AcDbLine
 10
28.13093775249816
 20
78.23329147857034
 30
0.0
 11
59.81085523102568
 21
78.23329147857037
 31
0.0
  0
LINE
  5
123
330
6C
100
AcDbEntity
  8
Visible (ANSI)
100
AcDbLine
 10
27.97089649176193
 20
30.3933327393066
 30
0.0
 11
27.97089649176192
 21
78.07325021783412
 31
0.0
  0
LINE
  5
124
330
6C
100
AcDbEntity
  8
Visible (ANSI)
100
AcDbLine
 10
59.8108552310257
 20
30.23329147857036
 30
0.0
 11
28.13093775249818
 21
30.23329147857036
 31
0.0
  0
LINE
  5
125
330
6C
100
AcDbEntity
  8
Hidden (ANSI)
100
AcDbLine
 10
59.87714649176193
 20
30.3933327393066
 30
0.0
 11
59.87714649176192
 21
78.07325021783412
 31
0.0
  0
LINE
  5
126
330
6C
100
AcDbEntity
  8
Hidden (ANSI)
100
AcDbLine
 10
59.81085523102568
 20
78.13954147857036
 30
0.0
 11
28.13093775249816
 21
78.13954147857035
 31
0.0
  0
LINE
  5
127
330
6C
100
AcDbEntity
  8
Hidden (ANSI)
100
AcDbLine
 10
28.06464649176192
 20
78.07325021783412
 30
0.0
 11
28.06464649176194
 21
30.3933327393066
 31
0.0
  0
LINE
  5
128
330
6C
100
AcDbEntity
  8
Hidden (ANSI)
100
AcDbLine
 10
28.13093775249818
 20
30.32704147857036
 30
0.0
 11
59.8108552310257
 21
30.32704147857036
 31
0.0
  0
POLYLINE
  5
129
330
6C
100
AcDbEntity
  8
Visible (ANSI)
100
AcDb2dPolyline
 66
     1
 10
0.0
 20
0.0
 30
0.0
 70
   128
  0
VERTEX
  5
12A
330
129
100
AcDbEntity
  8
Visible (ANSI)
100
AcDbVertex
100
AcDb2dVertex
 10
59.84589709250165
 20
78.1082918390142
 30
0.0
  0
VERTEX
  5
12B
330
129
100
AcDbEntity
  8
Visible (ANSI)
100
AcDbVertex
100
AcDb2dVertex
 10
59.85407316018436
 20
78.1068320414779
 30
0.0
  0
VERTEX
  5
12D
330
129
100
AcDbEntity
  8
Visible (ANSI)
100
AcDbVertex
100
AcDb2dVertex
 10
59.86221318348345
 20
78.1053722439416
 30
0.0
  0
VERTEX
  5
12E
330
129
100
AcDbEntity
  8
Visible (ANSI)
100
AcDbVertex
100
AcDb2dVertex
 10
59.87028412171395
 20
78.10391244640531
 30
0.0
  0
VERTEX
  5
12F
330
129
100
AcDbEntity
  8
Visible (ANSI)
100
AcDbVertex
100
AcDb2dVertex
 10
59.87824993049224
 20
78.102452648869
 30
0.0
  0
VERTEX
  5
130
330
129
100
AcDbEntity
  8
Visible (ANSI)
100
AcDbVertex
100
AcDb2dVertex
 10
59.88607756913336
 20
78.1009898476341
 30
0.0
  0
VERTEX
  5
131
330
129
100
AcDbEntity
  8
Visible (ANSI)
100
AcDbVertex
100
AcDb2dVertex
 10
59.89373099325368
 20
78.0995300500978
 30
0.0
  0
VERTEX
  5
132
330
129
100
AcDbEntity
  8
Visible (ANSI)
100
AcDbVertex
100
AcDb2dVertex
 10
59.90118316956551
 20
78.0980702525615
 30
0.0
  0
VERTEX
  5
133
330
129
100
AcDbEntity
  8
Visible (ANSI)
100
AcDbVertex
100
AcDb2dVertex
 10
59.90839504998659
 20
78.0966104550252
 30
0.0
  0
VERTEX
  5
134
330
129
100
AcDbEntity
  8
Visible (ANSI)
100
AcDbVertex
100
AcDb2dVertex
 10
59.91534260492784
 20
78.09515065748891
 30
0.0
  0
VERTEX
  5
135
330
129
100
AcDbEntity
  8
Visible (ANSI)
100
AcDbVertex
100
AcDb2dVertex
 10
59.92199279370429
 20
78.09369085995261
 30
0.0
  0
VERTEX
  5
136
330
129
100
AcDbEntity
  8
Visible (ANSI)
100
AcDbVertex
100
AcDb2dVertex
 10
59.9283155793296
 20
78.09223106241631
 30
0.0
  0
VERTEX
  5
137
330
129
100
AcDbEntity
  8
Visible (ANSI)
100
AcDbVertex
100
AcDb2dVertex
 10
59.93428392851605
 20
78.09077126488002
 30
0.0
  0
VERTEX
  5
138
330
129
100
AcDbEntity
  8
Visible (ANSI)
100
AcDbVertex
100
AcDb2dVertex
 10
59.93987681537321
 20
78.08931146734373
 30
0.0
  0
VERTEX
  5
139
330
129
100
AcDbEntity
  8
Visible (ANSI)
100
AcDbVertex
100
AcDb2dVertex
 10
59.94506420291473
 20
78.08785166980745
 30
0.0
  0
VERTEX
  5
13A
330
129
100
AcDbEntity
  8
Visible (ANSI)
100
AcDbVertex
100
AcDb2dVertex
 10
59.94983107264745
 20
78.08639187227115
 30
0.0
  0
VERTEX
  5
13B
330
129
100
AcDbEntity
  8
Visible (ANSI)
100
AcDbVertex
100
AcDb2dVertex
 10
59.95415039128364
 20
78.08493207473485
 30
0.0
  0
VERTEX
  5
13C
330
129
100
AcDbEntity
  8
Visible (ANSI)
100
AcDbVertex
100
AcDb2dVertex
 10
59.95800413663151
 20
78.08346927349991
 30
0.0
  0
VERTEX
  5
13D
330
129
100
AcDbEntity
  8
Visible (ANSI)
100
AcDbVertex
100
AcDb2dVertex
 10
59.96138029389653
 20
78.08200947596363
 30
0.0
  0
VERTEX
  5
13E
330
129
100
AcDbEntity
  8
Visible (ANSI)
100
AcDbVertex
100
AcDb2dVertex
 10
59.96426384458551
 20
78.08054967842733
 30
0.0
  0
VERTEX
  5
13F
330
129
100
AcDbEntity
  8
Visible (ANSI)
100
AcDbVertex
100
AcDb2dVertex
 10
59.96663676650665
 20
78.07908988089103
 30
0.0
  0
VERTEX
  5
140
330
129
100
AcDbEntity
  8
Visible (ANSI)
100
AcDbVertex
100
AcDb2dVertex
 10
59.9684960559613
 20
78.07763008335474
 30
0.0
  0
VERTEX
  5
141
330
129
100
AcDbEntity
  8
Visible (ANSI)
100
AcDbVertex
100
AcDb2dVertex
 10
59.96982669445632
 20
78.07617028581844
 30
0.0
  0
VERTEX
  5
142
330
129
100
AcDbEntity
  8
Visible (ANSI)
100
AcDbVertex
100
AcDb2dVertex
 10
59.97062868199169
 20
78.07471048828216
 30
0.0
  0
VERTEX
  5
143
330
129
100
AcDbEntity
  8
Visible (ANSI)
100
AcDbVertex
100
AcDb2dVertex
 10
59.97089601117014
 20
78.07325069074586
 30
0.0
  0
SEQEND
  5
12C
330
129
100
AcDbEntity
  8
Visible (ANSI)
  0
POLYLINE
  5
144
330
6C
100
AcDbEntity
  8
Visible (ANSI)
100
AcDb2dPolyline
 66
     1
 10
0.0
 20
0.0
 30
0.0
 70
   128
  0
VERTEX
  5
145
330
144
100
AcDbEntity
  8
Visible (ANSI)
100
AcDbVertex
100
AcDb2dVertex
 10
59.97089601117014
 20
30.39333274229336
 30
0.0
  0
VERTEX
  5
146
330
144
100
AcDbEntity
  8
Visible (ANSI)
100
AcDbVertex
100
AcDb2dVertex
 10
59.97062868199169
 20
30.39187268662671
 30
0.0
  0
VERTEX
  5
148
330
144
100
AcDbEntity
  8
Visible (ANSI)
100
AcDbVertex
100
AcDb2dVertex
 10
59.96982669445632
 20
30.39041263096006
 30
0.0
  0
VERTEX
  5
149
330
144
100
AcDbEntity
  8
Visible (ANSI)
100
AcDbVertex
100
AcDb2dVertex
 10
59.9684960559613
 20
30.38895258702662
 30
0.0
  0
VERTEX
  5
14A
330
144
100
AcDbEntity
  8
Visible (ANSI)
100
AcDbVertex
100
AcDb2dVertex
 10
59.96663676650665
 20
30.38749253135997
 30
0.0
  0
VERTEX
  5
14B
330
144
100
AcDbEntity
  8
Visible (ANSI)
100
AcDbVertex
100
AcDb2dVertex
 10
59.96426384458551
 20
30.38603247569333
 30
0.0
  0
VERTEX
  5
14C
330
144
100
AcDbEntity
  8
Visible (ANSI)
100
AcDbVertex
100
AcDb2dVertex
 10
59.96138029389653
 20
30.38457242002668
 30
0.0
  0
VERTEX
  5
14D
330
144
100
AcDbEntity
  8
Visible (ANSI)
100
AcDbVertex
100
AcDb2dVertex
 10
59.95800413663151
 20
30.38311237609323
 30
0.0
  0
VERTEX
  5
14E
330
144
100
AcDbEntity
  8
Visible (ANSI)
100
AcDbVertex
100
AcDb2dVertex
 10
59.95415039128364
 20
30.38165232042659
 30
0.0
  0
VERTEX
  5
14F
330
144
100
AcDbEntity
  8
Visible (ANSI)
100
AcDbVertex
100
AcDb2dVertex
 10
59.94983107264745
 20
30.38019226475994
 30
0.0
  0
VERTEX
  5
150
330
144
100
AcDbEntity
  8
Visible (ANSI)
100
AcDbVertex
100
AcDb2dVertex
 10
59.94506420291473
 20
30.3787322090933
 30
0.0
  0
VERTEX
  5
151
330
144
100
AcDbEntity
  8
Visible (ANSI)
100
AcDbVertex
100
AcDb2dVertex
 10
59.93987681537321
 20
30.37727216515985
 30
0.0
  0
VERTEX
  5
152
330
144
100
AcDbEntity
  8
Visible (ANSI)
100
AcDbVertex
100
AcDb2dVertex
 10
59.93428392851605
 20
30.3758121094932
 30
0.0
  0
VERTEX
  5
153
330
144
100
AcDbEntity
  8
Visible (ANSI)
100
AcDbVertex
100
AcDb2dVertex
 10
59.9283155793296
 20
30.37435205382656
 30
0.0
  0
VERTEX
  5
154
330
144
100
AcDbEntity
  8
Visible (ANSI)
100
AcDbVertex
100
AcDb2dVertex
 10
59.92199279370429
 20
30.37289199815991
 30
0.0
  0
VERTEX
  5
155
330
144
100
AcDbEntity
  8
Visible (ANSI)
100
AcDbVertex
100
AcDb2dVertex
 10
59.91534260492784
 20
30.37143195422646
 30
0.0
  0
VERTEX
  5
156
330
144
100
AcDbEntity
  8
Visible (ANSI)
100
AcDbVertex
100
AcDb2dVertex
 10
59.90839504998659
 20
30.36997189855982
 30
0.0
  0
VERTEX
  5
157
330
144
100
AcDbEntity
  8
Visible (ANSI)
100
AcDbVertex
100
AcDb2dVertex
 10
59.90118316956551
 20
30.36851184289317
 30
0.0
  0
VERTEX
  5
158
330
144
100
AcDbEntity
  8
Visible (ANSI)
100
AcDbVertex
100
AcDb2dVertex
 10
59.89373099325368
 20
30.36705179895973
 30
0.0
  0
VERTEX
  5
159
330
144
100
AcDbEntity
  8
Visible (ANSI)
100
AcDbVertex
100
AcDb2dVertex
 10
59.88607756913336
 20
30.36559174329308
 30
0.0
  0
VERTEX
  5
15A
330
144
100
AcDbEntity
  8
Visible (ANSI)
100
AcDbVertex
100
AcDb2dVertex
 10
59.87824993049224
 20
30.36413168762643
 30
0.0
  0
VERTEX
  5
15B
330
144
100
AcDbEntity
  8
Visible (ANSI)
100
AcDbVertex
100
AcDb2dVertex
 10
59.87028412171395
 20
30.36267163195979
 30
0.0
  0
VERTEX
  5
15C
330
144
100
AcDbEntity
  8
Visible (ANSI)
100
AcDbVertex
100
AcDb2dVertex
 10
59.86221318348345
 20
30.36121158802634
 30
0.0
  0
VERTEX
  5
15D
330
144
100
AcDbEntity
  8
Visible (ANSI)
100
AcDbVertex
100
AcDb2dVertex
 10
59.85407316018436
 20
30.35975153235969
 30
0.0
  0
VERTEX
  5
15E
330
144
100
AcDbEntity
  8
Visible (ANSI)
100
AcDbVertex
100
AcDb2dVertex
 10
59.84589709250165
 20
30.35829147669305
 30
0.0
  0
SEQEND
  5
147
330
144
100
AcDbEntity
  8
Visible (ANSI)
  0
POLYLINE
  5
15F
330
6C
100
AcDbEntity
  8
Visible (ANSI)
100
AcDb2dPolyline
 66
     1
 10
0.0
 20
0.0
 30
0.0
 70
   128
  0
VERTEX
  5
160
330
15F
100
AcDbEntity
  8
Visible (ANSI)
100
AcDbVertex
100
AcDb2dVertex
 10
28.09589648988462
 20
78.1082918390142
 30
0.0
  0
VERTEX
  5
161
330
15F
100
AcDbEntity
  8
Visible (ANSI)
100
AcDbVertex
100
AcDb2dVertex
 10
28.09735654555127
 20
78.1164679066969
 30
0.0
  0
VERTEX
  5
163
330
15F
100
AcDbEntity
  8
Visible (ANSI)
100
AcDbVertex
100
AcDb2dVertex
 10
28.09881660121791
 20
78.12460792999599
 30
0.0
  0
VERTEX
  5
164
330
15F
100
AcDbEntity
  8
Visible (ANSI)
100
AcDbVertex
100
AcDb2dVertex
 10
28.10027664515136
 20
78.13267886822649
 30
0.0
  0
VERTEX
  5
165
330
15F
100
AcDbEntity
  8
Visible (ANSI)
100
AcDbVertex
100
AcDb2dVertex
 10
28.10173670081801
 20
78.14064467700477
 30
0.0
  0
VERTEX
  5
166
330
15F
100
AcDbEntity
  8
Visible (ANSI)
100
AcDbVertex
100
AcDb2dVertex
 10
28.10319675648465
 20
78.14847231564589
 30
0.0
  0
VERTEX
  5
167
330
15F
100
AcDbEntity
  8
Visible (ANSI)
100
AcDbVertex
100
AcDb2dVertex
 10
28.1046568121513
 20
78.15612573976622
 30
0.0
  0
VERTEX
  5
168
330
15F
100
AcDbEntity
  8
Visible (ANSI)
100
AcDbVertex
100
AcDb2dVertex
 10
28.10611685608474
 20
78.16357791607804
 30
0.0
  0
VERTEX
  5
169
330
15F
100
AcDbEntity
  8
Visible (ANSI)
100
AcDbVertex
100
AcDb2dVertex
 10
28.10757691175139
 20
78.17079280019775
 30
0.0
  0
VERTEX
  5
16A
330
15F
100
AcDbEntity
  8
Visible (ANSI)
100
AcDbVertex
100
AcDb2dVertex
 10
28.10903696741803
 20
78.17773735144038
 30
0.0
  0
VERTEX
  5
16B
330
15F
100
AcDbEntity
  8
Visible (ANSI)
100
AcDbVertex
100
AcDb2dVertex
 10
28.11049701135149
 20
78.18438754021683
 30
0.0
  0
VERTEX
  5
16C
330
15F
100
AcDbEntity
  8
Visible (ANSI)
100
AcDbVertex
100
AcDb2dVertex
 10
28.11195706701813
 20
78.19071032584213
 30
0.0
  0
VERTEX
  5
16D
330
15F
100
AcDbEntity
  8
Visible (ANSI)
100
AcDbVertex
100
AcDb2dVertex
 10
28.11341712268477
 20
78.19667867502857
 30
0.0
  0
VERTEX
  5
16E
330
15F
100
AcDbEntity
  8
Visible (ANSI)
100
AcDbVertex
100
AcDb2dVertex
 10
28.11487717835142
 20
78.20227156188575
 30
0.0
  0
VERTEX
  5
16F
330
15F
100
AcDbEntity
  8
Visible (ANSI)
100
AcDbVertex
100
AcDb2dVertex
 10
28.11633722228487
 20
78.2074619531259
 30
0.0
  0
VERTEX
  5
170
330
15F
100
AcDbEntity
  8
Visible (ANSI)
100
AcDbVertex
100
AcDb2dVertex
 10
28.11779727795152
 20
78.21222581915998
 30
0.0
  0
VERTEX
  5
171
330
15F
100
AcDbEntity
  8
Visible (ANSI)
100
AcDbVertex
100
AcDb2dVertex
 10
28.11925733361816
 20
78.21654513779619
 30
0.0
  0
VERTEX
  5
172
330
15F
100
AcDbEntity
  8
Visible (ANSI)
100
AcDbVertex
100
AcDb2dVertex
 10
28.1207173892848
 20
78.22040188684269
 30
0.0
  0
VERTEX
  5
173
330
15F
100
AcDbEntity
  8
Visible (ANSI)
100
AcDbVertex
100
AcDb2dVertex
 10
28.12217743321826
 20
78.22377504040907
 30
0.0
  0
VERTEX
  5
174
330
15F
100
AcDbEntity
  8
Visible (ANSI)
100
AcDbVertex
100
AcDb2dVertex
 10
28.1236374888849
 20
78.22665859109803
 30
0.0
  0
VERTEX
  5
175
330
15F
100
AcDbEntity
  8
Visible (ANSI)
100
AcDbVertex
100
AcDb2dVertex
 10
28.12509754455155
 20
78.22903151301918
 30
0.0
  0
VERTEX
  5
176
330
15F
100
AcDbEntity
  8
Visible (ANSI)
100
AcDbVertex
100
AcDb2dVertex
 10
28.12655760021819
 20
78.23089080247384
 30
0.0
  0
VERTEX
  5
177
330
15F
100
AcDbEntity
  8
Visible (ANSI)
100
AcDbVertex
100
AcDb2dVertex
 10
28.12801764415164
 20
78.23222144096885
 30
0.0
  0
VERTEX
  5
178
330
15F
100
AcDbEntity
  8
Visible (ANSI)
100
AcDbVertex
100
AcDb2dVertex
 10
28.12947769981829
 20
78.23302342850422
 30
0.0
  0
VERTEX
  5
179
330
15F
100
AcDbEntity
  8
Visible (ANSI)
100
AcDbVertex
100
AcDb2dVertex
 10
28.13093775548493
 20
78.2332907576827
 30
0.0
  0
SEQEND
  5
162
330
15F
100
AcDbEntity
  8
Visible (ANSI)
  0
POLYLINE
  5
17A
330
6C
100
AcDbEntity
  8
Visible (ANSI)
100
AcDb2dPolyline
 66
     1
 10
0.0
 20
0.0
 30
0.0
 70
   128
  0
VERTEX
  5
17B
330
17A
100
AcDbEntity
  8
Visible (ANSI)
100
AcDbVertex
100
AcDb2dVertex
 10
59.81085594423332
 20
78.2332907576827
 30
0.0
  0
VERTEX
  5
17C
330
17A
100
AcDbEntity
  8
Visible (ANSI)
100
AcDbVertex
100
AcDb2dVertex
 10
59.81231574176962
 20
78.23302342850422
 30
0.0
  0
VERTEX
  5
17E
330
17A
100
AcDbEntity
  8
Visible (ANSI)
100
AcDbVertex
100
AcDb2dVertex
 10
59.81377553930592
 20
78.23222144096885
 30
0.0
  0
VERTEX
  5
17F
330
17A
100
AcDbEntity
  8
Visible (ANSI)
100
AcDbVertex
100
AcDb2dVertex
 10
59.81523533684221
 20
78.23089080247384
 30
0.0
  0
VERTEX
  5
180
330
17A
100
AcDbEntity
  8
Visible (ANSI)
100
AcDbVertex
100
AcDb2dVertex
 10
59.8166951343785
 20
78.22903151301918
 30
0.0
  0
VERTEX
  5
181
330
17A
100
AcDbEntity
  8
Visible (ANSI)
100
AcDbVertex
100
AcDb2dVertex
 10
59.81815493191479
 20
78.22665859109803
 30
0.0
  0
VERTEX
  5
182
330
17A
100
AcDbEntity
  8
Visible (ANSI)
100
AcDbVertex
100
AcDb2dVertex
 10
59.81961472945108
 20
78.22377504040907
 30
0.0
  0
VERTEX
  5
183
330
17A
100
AcDbEntity
  8
Visible (ANSI)
100
AcDbVertex
100
AcDb2dVertex
 10
59.82107452698739
 20
78.22040188684269
 30
0.0
  0
VERTEX
  5
184
330
17A
100
AcDbEntity
  8
Visible (ANSI)
100
AcDbVertex
100
AcDb2dVertex
 10
59.82253432452368
 20
78.21654513779619
 30
0.0
  0
VERTEX
  5
185
330
17A
100
AcDbEntity
  8
Visible (ANSI)
100
AcDbVertex
100
AcDb2dVertex
 10
59.82399712575861
 20
78.21222581915998
 30
0.0
  0
VERTEX
  5
186
330
17A
100
AcDbEntity
  8
Visible (ANSI)
100
AcDbVertex
100
AcDb2dVertex
 10
59.8254569232949
 20
78.2074619531259
 30
0.0
  0
VERTEX
  5
187
330
17A
100
AcDbEntity
  8
Visible (ANSI)
100
AcDbVertex
100
AcDb2dVertex
 10
59.8269167208312
 20
78.20227156188575
 30
0.0
  0
VERTEX
  5
188
330
17A
100
AcDbEntity
  8
Visible (ANSI)
100
AcDbVertex
100
AcDb2dVertex
 10
59.82837651836749
 20
78.19667867502857
 30
0.0
  0
VERTEX
  5
189
330
17A
100
AcDbEntity
  8
Visible (ANSI)
100
AcDbVertex
100
AcDb2dVertex
 10
59.82983631590379
 20
78.19071032584213
 30
0.0
  0
VERTEX
  5
18A
330
17A
100
AcDbEntity
  8
Visible (ANSI)
100
AcDbVertex
100
AcDb2dVertex
 10
59.83129611344008
 20
78.18438754021683
 30
0.0
  0
VERTEX
  5
18B
330
17A
100
AcDbEntity
  8
Visible (ANSI)
100
AcDbVertex
100
AcDb2dVertex
 10
59.83275591097637
 20
78.17773735144038
 30
0.0
  0
VERTEX
  5
18C
330
17A
100
AcDbEntity
  8
Visible (ANSI)
100
AcDbVertex
100
AcDb2dVertex
 10
59.83421570851267
 20
78.17079280019775
 30
0.0
  0
VERTEX
  5
18D
330
17A
100
AcDbEntity
  8
Visible (ANSI)
100
AcDbVertex
100
AcDb2dVertex
 10
59.83567550604896
 20
78.16357791607804
 30
0.0
  0
VERTEX
  5
18E
330
17A
100
AcDbEntity
  8
Visible (ANSI)
100
AcDbVertex
100
AcDb2dVertex
 10
59.83713530358525
 20
78.15612573976622
 30
0.0
  0
VERTEX
  5
18F
330
17A
100
AcDbEntity
  8
Visible (ANSI)
100
AcDbVertex
100
AcDb2dVertex
 10
59.83859510112155
 20
78.14847231564589
 30
0.0
  0
VERTEX
  5
190
330
17A
100
AcDbEntity
  8
Visible (ANSI)
100
AcDbVertex
100
AcDb2dVertex
 10
59.84005489865785
 20
78.14064467700477
 30
0.0
  0
VERTEX
  5
191
330
17A
100
AcDbEntity
  8
Visible (ANSI)
100
AcDbVertex
100
AcDb2dVertex
 10
59.84151769989278
 20
78.13267886822649
 30
0.0
  0
VERTEX
  5
192
330
17A
100
AcDbEntity
  8
Visible (ANSI)
100
AcDbVertex
100
AcDb2dVertex
 10
59.84297749742907
 20
78.12460792999599
 30
0.0
  0
VERTEX
  5
193
330
17A
100
AcDbEntity
  8
Visible (ANSI)
100
AcDbVertex
100
AcDb2dVertex
 10
59.84443729496536
 20
78.1164679066969
 30
0.0
  0
VERTEX
  5
194
330
17A
100
AcDbEntity
  8
Visible (ANSI)
100
AcDbVertex
100
AcDb2dVertex
 10
59.84589709250165
 20
78.1082918390142
 30
0.0
  0
SEQEND
  5
17D
330
17A
100
AcDbEntity
  8
Visible (ANSI)
  0
POLYLINE
  5
195
330
6C
100
AcDbEntity
  8
Visible (ANSI)
100
AcDb2dPolyline
 66
     1
 10
0.0
 20
0.0
 30
0.0
 70
   128
  0
VERTEX
  5
196
330
195
100
AcDbEntity
  8
Visible (ANSI)
100
AcDbVertex
100
AcDb2dVertex
 10
28.09589648988462
 20
30.35829147669305
 30
0.0
  0
VERTEX
  5
197
330
195
100
AcDbEntity
  8
Visible (ANSI)
100
AcDbVertex
100
AcDb2dVertex
 10
28.0877211027274
 20
30.35975153235969
 30
0.0
  0
VERTEX
  5
199
330
195
100
AcDbEntity
  8
Visible (ANSI)
100
AcDbVertex
100
AcDb2dVertex
 10
28.07958071569917
 20
30.36121158802634
 30
0.0
  0
VERTEX
  5
19A
330
195
100
AcDbEntity
  8
Visible (ANSI)
100
AcDbVertex
100
AcDb2dVertex
 10
28.07151019986379
 20
30.36267163195979
 30
0.0
  0
VERTEX
  5
19B
330
195
100
AcDbEntity
  8
Visible (ANSI)
100
AcDbVertex
100
AcDb2dVertex
 10
28.06354410948875
 20
30.36413168762643
 30
0.0
  0
VERTEX
  5
19C
330
195
100
AcDbEntity
  8
Visible (ANSI)
100
AcDbVertex
100
AcDb2dVertex
 10
28.05571655884661
 20
30.36559174329308
 30
0.0
  0
VERTEX
  5
19D
330
195
100
AcDbEntity
  8
Visible (ANSI)
100
AcDbVertex
100
AcDb2dVertex
 10
28.04806106381688
 20
30.36705179895973
 30
0.0
  0
VERTEX
  5
19E
330
195
100
AcDbEntity
  8
Visible (ANSI)
100
AcDbVertex
100
AcDb2dVertex
 10
28.04061040695417
 20
30.36851184289317
 30
0.0
  0
VERTEX
  5
19F
330
195
100
AcDbEntity
  8
Visible (ANSI)
100
AcDbVertex
100
AcDb2dVertex
 10
28.03339649082328
 20
30.36997189855982
 30
0.0
  0
VERTEX
  5
1A0
330
195
100
AcDbEntity
  8
Visible (ANSI)
100
AcDbVertex
100
AcDb2dVertex
 10
28.02645021480059
 20
30.37143195422646
 30
0.0
  0
VERTEX
  5
1A1
330
195
100
AcDbEntity
  8
Visible (ANSI)
100
AcDbVertex
100
AcDb2dVertex
 10
28.01980131374259
 20
30.37289199815991
 30
0.0
  0
VERTEX
  5
1A2
330
195
100
AcDbEntity
  8
Visible (ANSI)
100
AcDbVertex
100
AcDb2dVertex
 10
28.01347826412034
 20
30.37435205382656
 30
0.0
  0
VERTEX
  5
1A3
330
195
100
AcDbEntity
  8
Visible (ANSI)
100
AcDbVertex
100
AcDb2dVertex
 10
28.00750814322101
 20
30.3758121094932
 30
0.0
  0
VERTEX
  5
1A4
330
195
100
AcDbEntity
  8
Visible (ANSI)
100
AcDbVertex
100
AcDb2dVertex
 10
28.00191651474932
 20
30.37727216515985
 30
0.0
  0
VERTEX
  5
1A5
330
195
100
AcDbEntity
  8
Visible (ANSI)
100
AcDbVertex
100
AcDb2dVertex
 10
27.99672732322863
 20
30.3787322090933
 30
0.0
  0
VERTEX
  5
1A6
330
195
100
AcDbEntity
  8
Visible (ANSI)
100
AcDbVertex
100
AcDb2dVertex
 10
27.99196278986892
 20
30.38019226475994
 30
0.0
  0
VERTEX
  5
1A7
330
195
100
AcDbEntity
  8
Visible (ANSI)
100
AcDbVertex
100
AcDb2dVertex
 10
27.98764331576786
 20
30.38165232042659
 30
0.0
  0
VERTEX
  5
1A8
330
195
100
AcDbEntity
  8
Visible (ANSI)
100
AcDbVertex
100
AcDb2dVertex
 10
27.9837873997784
 20
30.38311237609323
 30
0.0
  0
VERTEX
  5
1A9
330
195
100
AcDbEntity
  8
Visible (ANSI)
100
AcDbVertex
100
AcDb2dVertex
 10
27.98041155050983
 20
30.38457242002668
 30
0.0
  0
VERTEX
  5
1AA
330
195
100
AcDbEntity
  8
Visible (ANSI)
100
AcDbVertex
100
AcDb2dVertex
 10
27.97753022546181
 20
30.38603247569333
 30
0.0
  0
VERTEX
  5
1AB
330
195
100
AcDbEntity
  8
Visible (ANSI)
100
AcDbVertex
100
AcDb2dVertex
 10
27.97515576355846
 20
30.38749253135997
 30
0.0
  0
VERTEX
  5
1AC
330
195
100
AcDbEntity
  8
Visible (ANSI)
100
AcDbVertex
100
AcDb2dVertex
 10
27.97329833179901
 20
30.38895258702662
 30
0.0
  0
VERTEX
  5
1AD
330
195
100
AcDbEntity
  8
Visible (ANSI)
100
AcDbVertex
100
AcDb2dVertex
 10
27.97196588409989
 20
30.39041263096006
 30
0.0
  0
VERTEX
  5
1AE
330
195
100
AcDbEntity
  8
Visible (ANSI)
100
AcDbVertex
100
AcDb2dVertex
 10
27.97116412634728
 20
30.39187268662671
 30
0.0
  0
VERTEX
  5
1AF
330
195
100
AcDbEntity
  8
Visible (ANSI)
100
AcDbVertex
100
AcDb2dVertex
 10
27.97089649176193
 20
30.39333274229336
 30
0.0
  0
SEQEND
  5
198
330
195
100
AcDbEntity
  8
Visible (ANSI)
  0
POLYLINE
  5
1B0
330
6C
100
AcDbEntity
  8
Visible (ANSI)
100
AcDb2dPolyline
 66
     1
 10
0.0
 20
0.0
 30
0.0
 70
   128
  0
VERTEX
  5
1B1
330
1B0
100
AcDbEntity
  8
Visible (ANSI)
100
AcDbVertex
100
AcDb2dVertex
 10
27.97089649176192
 20
78.07325069074586
 30
0.0
  0
VERTEX
  5
1B2
330
1B0
100
AcDbEntity
  8
Visible (ANSI)
100
AcDbVertex
100
AcDb2dVertex
 10
27.97116412634728
 20
78.07471048828216
 30
0.0
  0
VERTEX
  5
1B4
330
1B0
100
AcDbEntity
  8
Visible (ANSI)
100
AcDbVertex
100
AcDb2dVertex
 10
27.97196588409989
 20
78.07617028581844
 30
0.0
  0
VERTEX
  5
1B5
330
1B0
100
AcDbEntity
  8
Visible (ANSI)
100
AcDbVertex
100
AcDb2dVertex
 10
27.97329833179901
 20
78.07763008335474
 30
0.0
  0
VERTEX
  5
1B6
330
1B0
100
AcDbEntity
  8
Visible (ANSI)
100
AcDbVertex
100
AcDb2dVertex
 10
27.97515576355846
 20
78.07908988089103
 30
0.0
  0
VERTEX
  5
1B7
330
1B0
100
AcDbEntity
  8
Visible (ANSI)
100
AcDbVertex
100
AcDb2dVertex
 10
27.97753022546181
 20
78.08054967842733
 30
0.0
  0
VERTEX
  5
1B8
330
1B0
100
AcDbEntity
  8
Visible (ANSI)
100
AcDbVertex
100
AcDb2dVertex
 10
27.98041155050983
 20
78.08200947596363
 30
0.0
  0
VERTEX
  5
1B9
330
1B0
100
AcDbEntity
  8
Visible (ANSI)
100
AcDbVertex
100
AcDb2dVertex
 10
27.9837873997784
 20
78.08346927349991
 30
0.0
  0
VERTEX
  5
1BA
330
1B0
100
AcDbEntity
  8
Visible (ANSI)
100
AcDbVertex
100
AcDb2dVertex
 10
27.98764331576786
 20
78.08493207473485
 30
0.0
  0
VERTEX
  5
1BB
330
1B0
100
AcDbEntity
  8
Visible (ANSI)
100
AcDbVertex
100
AcDb2dVertex
 10
27.99196278986892
 20
78.08639187227115
 30
0.0
  0
VERTEX
  5
1BC
330
1B0
100
AcDbEntity
  8
Visible (ANSI)
100
AcDbVertex
100
AcDb2dVertex
 10
27.99672732322863
 20
78.08785166980745
 30
0.0
  0
VERTEX
  5
1BD
330
1B0
100
AcDbEntity
  8
Visible (ANSI)
100
AcDbVertex
100
AcDb2dVertex
 10
28.00191651474932
 20
78.08931146734373
 30
0.0
  0
VERTEX
  5
1BE
330
1B0
100
AcDbEntity
  8
Visible (ANSI)
100
AcDbVertex
100
AcDb2dVertex
 10
28.00750814322101
 20
78.09077126488002
 30
0.0
  0
VERTEX
  5
1BF
330
1B0
100
AcDbEntity
  8
Visible (ANSI)
100
AcDbVertex
100
AcDb2dVertex
 10
28.01347826412034
 20
78.09223106241631
 30
0.0
  0
VERTEX
  5
1C0
330
1B0
100
AcDbEntity
  8
Visible (ANSI)
100
AcDbVertex
100
AcDb2dVertex
 10
28.01980131374259
 20
78.09369085995261
 30
0.0
  0
VERTEX
  5
1C1
330
1B0
100
AcDbEntity
  8
Visible (ANSI)
100
AcDbVertex
100
AcDb2dVertex
 10
28.02645021480059
 20
78.09515065748891
 30
0.0
  0
VERTEX
  5
1C2
330
1B0
100
AcDbEntity
  8
Visible (ANSI)
100
AcDbVertex
100
AcDb2dVertex
 10
28.03339649082328
 20
78.0966104550252
 30
0.0
  0
VERTEX
  5
1C3
330
1B0
100
AcDbEntity
  8
Visible (ANSI)
100
AcDbVertex
100
AcDb2dVertex
 10
28.04061040695417
 20
78.0980702525615
 30
0.0
  0
VERTEX
  5
1C4
330
1B0
100
AcDbEntity
  8
Visible (ANSI)
100
AcDbVertex
100
AcDb2dVertex
 10
28.04806106381688
 20
78.0995300500978
 30
0.0
  0
VERTEX
  5
1C5
330
1B0
100
AcDbEntity
  8
Visible (ANSI)
100
AcDbVertex
100
AcDb2dVertex
 10
28.05571655884661
 20
78.1009898476341
 30
0.0
  0
VERTEX
  5
1C6
330
1B0
100
AcDbEntity
  8
Visible (ANSI)
100
AcDbVertex
100
AcDb2dVertex
 10
28.06354410948875
 20
78.102452648869
 30
0.0
  0
VERTEX
  5
1C7
330
1B0
100
AcDbEntity
  8
Visible (ANSI)
100
AcDbVertex
100
AcDb2dVertex
 10
28.07151019986379
 20
78.10391244640531
 30
0.0
  0
VERTEX
  5
1C8
330
1B0
100
AcDbEntity
  8
Visible (ANSI)
100
AcDbVertex
100
AcDb2dVertex
 10
28.07958071569917
 20
78.1053722439416
 30
0.0
  0
VERTEX
  5
1C9
330
1B0
100
AcDbEntity
  8
Visible (ANSI)
100
AcDbVertex
100
AcDb2dVertex
 10
28.0877211027274
 20
78.1068320414779
 30
0.0
  0
VERTEX
  5
1CA
330
1B0
100
AcDbEntity
  8
Visible (ANSI)
100
AcDbVertex
100
AcDb2dVertex
 10
28.09589648988462
 20
78.1082918390142
 30
0.0
  0
SEQEND
  5
1B3
330
1B0
100
AcDbEntity
  8
Visible (ANSI)
  0
POLYLINE
  5
1CB
330
6C
100
AcDbEntity
  8
Visible (ANSI)
100
AcDb2dPolyline
 66
     1
 10
0.0
 20
0.0
 30
0.0
 70
   128
  0
VERTEX
  5
1CC
330
1CB
100
AcDbEntity
  8
Visible (ANSI)
100
AcDbVertex
100
AcDb2dVertex
 10
59.84589709250165
 20
30.35829147669305
 30
0.0
  0
VERTEX
  5
1CD
330
1CB
100
AcDbEntity
  8
Visible (ANSI)
100
AcDbVertex
100
AcDb2dVertex
 10
59.84443729496536
 20
30.35011608953582
 30
0.0
  0
VERTEX
  5
1CF
330
1CB
100
AcDbEntity
  8
Visible (ANSI)
100
AcDbVertex
100
AcDb2dVertex
 10
59.84297749742907
 20
30.34197570250759
 30
0.0
  0
VERTEX
  5
1D0
330
1CB
100
AcDbEntity
  8
Visible (ANSI)
100
AcDbVertex
100
AcDb2dVertex
 10
59.84151769989278
 20
30.33390518667222
 30
0.0
  0
VERTEX
  5
1D1
330
1CB
100
AcDbEntity
  8
Visible (ANSI)
100
AcDbVertex
100
AcDb2dVertex
 10
59.84005489865785
 20
30.32593909629718
 30
0.0
  0
VERTEX
  5
1D2
330
1CB
100
AcDbEntity
  8
Visible (ANSI)
100
AcDbVertex
100
AcDb2dVertex
 10
59.83859510112155
 20
30.31811154565504
 30
0.0
  0
VERTEX
  5
1D3
330
1CB
100
AcDbEntity
  8
Visible (ANSI)
100
AcDbVertex
100
AcDb2dVertex
 10
59.83713530358525
 20
30.3104560506253
 30
0.0
  0
VERTEX
  5
1D4
330
1CB
100
AcDbEntity
  8
Visible (ANSI)
100
AcDbVertex
100
AcDb2dVertex
 10
59.83567550604896
 20
30.3030053937626
 30
0.0
  0
VERTEX
  5
1D5
330
1CB
100
AcDbEntity
  8
Visible (ANSI)
100
AcDbVertex
100
AcDb2dVertex
 10
59.83421570851267
 20
30.29579147763171
 30
0.0
  0
VERTEX
  5
1D6
330
1CB
100
AcDbEntity
  8
Visible (ANSI)
100
AcDbVertex
100
AcDb2dVertex
 10
59.83275591097637
 20
30.28884520160901
 30
0.0
  0
VERTEX
  5
1D7
330
1CB
100
AcDbEntity
  8
Visible (ANSI)
100
AcDbVertex
100
AcDb2dVertex
 10
59.83129611344008
 20
30.28219630055102
 30
0.0
  0
VERTEX
  5
1D8
330
1CB
100
AcDbEntity
  8
Visible (ANSI)
100
AcDbVertex
100
AcDb2dVertex
 10
59.82983631590379
 20
30.27587325092876
 30
0.0
  0
VERTEX
  5
1D9
330
1CB
100
AcDbEntity
  8
Visible (ANSI)
100
AcDbVertex
100
AcDb2dVertex
 10
59.82837651836749
 20
30.26990313002944
 30
0.0
  0
VERTEX
  5
1DA
330
1CB
100
AcDbEntity
  8
Visible (ANSI)
100
AcDbVertex
100
AcDb2dVertex
 10
59.8269167208312
 20
30.26431150155774
 30
0.0
  0
VERTEX
  5
1DB
330
1CB
100
AcDbEntity
  8
Visible (ANSI)
100
AcDbVertex
100
AcDb2dVertex
 10
59.8254569232949
 20
30.25912231003706
 30
0.0
  0
VERTEX
  5
1DC
330
1CB
100
AcDbEntity
  8
Visible (ANSI)
100
AcDbVertex
100
AcDb2dVertex
 10
59.82399712575861
 20
30.25435777667735
 30
0.0
  0
VERTEX
  5
1DD
330
1CB
100
AcDbEntity
  8
Visible (ANSI)
100
AcDbVertex
100
AcDb2dVertex
 10
59.82253432452368
 20
30.25003830257628
 30
0.0
  0
VERTEX
  5
1DE
330
1CB
100
AcDbEntity
  8
Visible (ANSI)
100
AcDbVertex
100
AcDb2dVertex
 10
59.82107452698739
 20
30.24618238658682
 30
0.0
  0
VERTEX
  5
1DF
330
1CB
100
AcDbEntity
  8
Visible (ANSI)
100
AcDbVertex
100
AcDb2dVertex
 10
59.81961472945108
 20
30.24280653731826
 30
0.0
  0
VERTEX
  5
1E0
330
1CB
100
AcDbEntity
  8
Visible (ANSI)
100
AcDbVertex
100
AcDb2dVertex
 10
59.81815493191479
 20
30.23992521227023
 30
0.0
  0
VERTEX
  5
1E1
330
1CB
100
AcDbEntity
  8
Visible (ANSI)
100
AcDbVertex
100
AcDb2dVertex
 10
59.8166951343785
 20
30.23755075036689
 30
0.0
  0
VERTEX
  5
1E2
330
1CB
100
AcDbEntity
  8
Visible (ANSI)
100
AcDbVertex
100
AcDb2dVertex
 10
59.81523533684221
 20
30.23569331860743
 30
0.0
  0
VERTEX
  5
1E3
330
1CB
100
AcDbEntity
  8
Visible (ANSI)
100
AcDbVertex
100
AcDb2dVertex
 10
59.81377553930592
 20
30.23436087090831
 30
0.0
  0
VERTEX
  5
1E4
330
1CB
100
AcDbEntity
  8
Visible (ANSI)
100
AcDbVertex
100
AcDb2dVertex
 10
59.81231574176962
 20
30.23355911315571
 30
0.0
  0
VERTEX
  5
1E5
330
1CB
100
AcDbEntity
  8
Visible (ANSI)
100
AcDbVertex
100
AcDb2dVertex
 10
59.81085594423332
 20
30.23329147857036
 30
0.0
  0
SEQEND
  5
1CE
330
1CB
100
AcDbEntity
  8
Visible (ANSI)
  0
POLYLINE
  5
1E6
330
6C
100
AcDbEntity
  8
Visible (ANSI)
100
AcDb2dPolyline
 66
     1
 10
0.0
 20
0.0
 30
0.0
 70
   128
  0
VERTEX
  5
1E7
330
1E6
100
AcDbEntity
  8
Visible (ANSI)
100
AcDbVertex
100
AcDb2dVertex
 10
28.13093775548493
 20
30.23329147857036
 30
0.0
  0
VERTEX
  5
1E8
330
1E6
100
AcDbEntity
  8
Visible (ANSI)
100
AcDbVertex
100
AcDb2dVertex
 10
28.12947769981829
 20
30.23355911315571
 30
0.0
  0
VERTEX
  5
1EA
330
1E6
100
AcDbEntity
  8
Visible (ANSI)
100
AcDbVertex
100
AcDb2dVertex
 10
28.12801764415164
 20
30.23436087090831
 30
0.0
  0
VERTEX
  5
1EB
330
1E6
100
AcDbEntity
  8
Visible (ANSI)
100
AcDbVertex
100
AcDb2dVertex
 10
28.12655760021819
 20
30.23569331860743
 30
0.0
  0
VERTEX
  5
1EC
330
1E6
100
AcDbEntity
  8
Visible (ANSI)
100
AcDbVertex
100
AcDb2dVertex
 10
28.12509754455155
 20
30.23755075036689
 30
0.0
  0
VERTEX
  5
1ED
330
1E6
100
AcDbEntity
  8
Visible (ANSI)
100
AcDbVertex
100
AcDb2dVertex
 10
28.1236374888849
 20
30.23992521227023
 30
0.0
  0
VERTEX
  5
1EE
330
1E6
100
AcDbEntity
  8
Visible (ANSI)
100
AcDbVertex
100
AcDb2dVertex
 10
28.12217743321826
 20
30.24280653731826
 30
0.0
  0
VERTEX
  5
1EF
330
1E6
100
AcDbEntity
  8
Visible (ANSI)
100
AcDbVertex
100
AcDb2dVertex
 10
28.1207173892848
 20
30.24618238658682
 30
0.0
  0
VERTEX
  5
1F0
330
1E6
100
AcDbEntity
  8
Visible (ANSI)
100
AcDbVertex
100
AcDb2dVertex
 10
28.11925733361816
 20
30.25003830257628
 30
0.0
  0
VERTEX
  5
1F1
330
1E6
100
AcDbEntity
  8
Visible (ANSI)
100
AcDbVertex
100
AcDb2dVertex
 10
28.11779727795152
 20
30.25435777667735
 30
0.0
  0
VERTEX
  5
1F2
330
1E6
100
AcDbEntity
  8
Visible (ANSI)
100
AcDbVertex
100
AcDb2dVertex
 10
28.11633722228487
 20
30.25912231003706
 30
0.0
  0
VERTEX
  5
1F3
330
1E6
100
AcDbEntity
  8
Visible (ANSI)
100
AcDbVertex
100
AcDb2dVertex
 10
28.11487717835142
 20
30.26431150155774
 30
0.0
  0
VERTEX
  5
1F4
330
1E6
100
AcDbEntity
  8
Visible (ANSI)
100
AcDbVertex
100
AcDb2dVertex
 10
28.11341712268477
 20
30.26990313002944
 30
0.0
  0
VERTEX
  5
1F5
330
1E6
100
AcDbEntity
  8
Visible (ANSI)
100
AcDbVertex
100
AcDb2dVertex
 10
28.11195706701813
 20
30.27587325092876
 30
0.0
  0
VERTEX
  5
1F6
330
1E6
100
AcDbEntity
  8
Visible (ANSI)
100
AcDbVertex
100
AcDb2dVertex
 10
28.11049701135149
 20
30.28219630055102
 30
0.0
  0
VERTEX
  5
1F7
330
1E6
100
AcDbEntity
  8
Visible (ANSI)
100
AcDbVertex
100
AcDb2dVertex
 10
28.10903696741803
 20
30.28884520160901
 30
0.0
  0
VERTEX
  5
1F8
330
1E6
100
AcDbEntity
  8
Visible (ANSI)
100
AcDbVertex
100
AcDb2dVertex
 10
28.10757691175139
 20
30.29579147763171
 30
0.0
  0
VERTEX
  5
1F9
330
1E6
100
AcDbEntity
  8
Visible (ANSI)
100
AcDbVertex
100
AcDb2dVertex
 10
28.10611685608474
 20
30.3030053937626
 30
0.0
  0
VERTEX
  5
1FA
330
1E6
100
AcDbEntity
  8
Visible (ANSI)
100
AcDbVertex
100
AcDb2dVertex
 10
28.1046568121513
 20
30.3104560506253
 30
0.0
  0
VERTEX
  5
1FB
330
1E6
100
AcDbEntity
  8
Visible (ANSI)
100
AcDbVertex
100
AcDb2dVertex
 10
28.10319675648465
 20
30.31811154565504
 30
0.0
  0
VERTEX
  5
1FC
330
1E6
100
AcDbEntity
  8
Visible (ANSI)
100
AcDbVertex
100
AcDb2dVertex
 10
28.10173670081801
 20
30.32593909629718
 30
0.0
  0
VERTEX
  5
1FD
330
1E6
100
AcDbEntity
  8
Visible (ANSI)
100
AcDbVertex
100
AcDb2dVertex
 10
28.10027664515136
 20
30.33390518667222
 30
0.0
  0
VERTEX
  5
1FE
330
1E6
100
AcDbEntity
  8
Visible (ANSI)
100
AcDbVertex
100
AcDb2dVertex
 10
28.09881660121791
 20
30.34197570250759
 30
0.0
  0
VERTEX
  5
1FF
330
1E6
100
AcDbEntity
  8
Visible (ANSI)
100
AcDbVertex
100
AcDb2dVertex
 10
28.09735654555127
 20
30.35011608953582
 30
0.0
  0
VERTEX
  5
200
330
1E6
100
AcDbEntity
  8
Visible (ANSI)
100
AcDbVertex
100
AcDb2dVertex
 10
28.09589648988462
 20
30.35829147669305
 30
0.0
  0
SEQEND
  5
1E9
330
1E6
100
AcDbEntity
  8
Visible (ANSI)
  0
LINE
  5
201
330
6C
100
AcDbEntity
  8
Hidden (ANSI)
100
AcDbLine
 10
59.87714649176193
 20
30.3933327393066
 30
0.0
 11
59.97089649176192
 21
30.3933327393066
 31
0.0
  0
POLYLINE
  5
202
330
6C
100
AcDbEntity
  8
Hidden (ANSI)
100
AcDb2dPolyline
 66
     1
 10
0.0
 20
0.0
 30
0.0
 70
   128
  0
VERTEX
  5
203
330
202
100
AcDbEntity
  8
Hidden (ANSI)
100
AcDbVertex
100
AcDb2dVertex
 10
59.84589709250165
 20
30.35829147669305
 30
0.0
  0
VERTEX
  5
204
330
202
100
AcDbEntity
  8
Hidden (ANSI)
100
AcDbVertex
100
AcDb2dVertex
 10
59.84793960757301
 20
30.35975153235969
 30
0.0
  0
VERTEX
  5
206
330
202
100
AcDbEntity
  8
Hidden (ANSI)
100
AcDbVertex
100
AcDb2dVertex
 10
59.8499761152471
 20
30.36121158802634
 30
0.0
  0
VERTEX
  5
207
330
202
100
AcDbEntity
  8
Hidden (ANSI)
100
AcDbVertex
100
AcDb2dVertex
 10
59.85199159703075
 20
30.36267163195979
 30
0.0
  0
VERTEX
  5
208
330
202
100
AcDbEntity
  8
Hidden (ANSI)
100
AcDbVertex
100
AcDb2dVertex
 10
59.85398605292396
 20
30.36413168762643
 30
0.0
  0
VERTEX
  5
209
330
202
100
AcDbEntity
  8
Hidden (ANSI)
100
AcDbVertex
100
AcDb2dVertex
 10
59.85594146073492
 20
30.36559174329308
 30
0.0
  0
VERTEX
  5
20A
330
202
100
AcDbEntity
  8
Hidden (ANSI)
100
AcDbVertex
100
AcDb2dVertex
 10
59.85785481676501
 20
30.36705179895973
 30
0.0
  0
VERTEX
  5
20B
330
202
100
AcDbEntity
  8
Hidden (ANSI)
100
AcDbVertex
100
AcDb2dVertex
 10
59.8597171099183
 20
30.36851184289317
 30
0.0
  0
VERTEX
  5
20C
330
202
100
AcDbEntity
  8
Hidden (ANSI)
100
AcDbVertex
100
AcDb2dVertex
 10
59.86152233279755
 20
30.36997189855982
 30
0.0
  0
VERTEX
  5
20D
330
202
100
AcDbEntity
  8
Hidden (ANSI)
100
AcDbVertex
100
AcDb2dVertex
 10
59.8632584706082
 20
30.37143195422646
 30
0.0
  0
VERTEX
  5
20E
330
202
100
AcDbEntity
  8
Hidden (ANSI)
100
AcDbVertex
100
AcDb2dVertex
 10
59.864919515953
 20
30.37289199815991
 30
0.0
  0
VERTEX
  5
20F
330
202
100
AcDbEntity
  8
Hidden (ANSI)
100
AcDbVertex
100
AcDb2dVertex
 10
59.8665024651333
 20
30.37435205382656
 30
0.0
  0
VERTEX
  5
210
330
202
100
AcDbEntity
  8
Hidden (ANSI)
100
AcDbVertex
100
AcDb2dVertex
 10
59.86799229965594
 20
30.3758121094932
 30
0.0
  0
VERTEX
  5
211
330
202
100
AcDbEntity
  8
Hidden (ANSI)
100
AcDbVertex
100
AcDb2dVertex
 10
59.86939202321955
 20
30.37727216515985
 30
0.0
  0
VERTEX
  5
212
330
202
100
AcDbEntity
  8
Hidden (ANSI)
100
AcDbVertex
100
AcDb2dVertex
 10
59.87068962102959
 20
30.3787322090933
 30
0.0
  0
VERTEX
  5
213
330
202
100
AcDbEntity
  8
Hidden (ANSI)
100
AcDbVertex
100
AcDb2dVertex
 10
59.87187908568879
 20
30.38019226475994
 30
0.0
  0
VERTEX
  5
214
330
202
100
AcDbEntity
  8
Hidden (ANSI)
100
AcDbVertex
100
AcDb2dVertex
 10
59.87296041719716
 20
30.38165232042659
 30
0.0
  0
VERTEX
  5
215
330
202
100
AcDbEntity
  8
Hidden (ANSI)
100
AcDbVertex
100
AcDb2dVertex
 10
59.87392460445878
 20
30.38311237609323
 30
0.0
  0
VERTEX
  5
216
330
202
100
AcDbEntity
  8
Hidden (ANSI)
100
AcDbVertex
100
AcDb2dVertex
 10
59.87476864377503
 20
30.38457242002668
 30
0.0
  0
VERTEX
  5
217
330
202
100
AcDbEntity
  8
Hidden (ANSI)
100
AcDbVertex
100
AcDb2dVertex
 10
59.87548953144727
 20
30.38603247569333
 30
0.0
  0
VERTEX
  5
218
330
202
100
AcDbEntity
  8
Hidden (ANSI)
100
AcDbVertex
100
AcDb2dVertex
 10
59.87608126007824
 20
30.38749253135997
 30
0.0
  0
VERTEX
  5
219
330
202
100
AcDbEntity
  8
Hidden (ANSI)
100
AcDbVertex
100
AcDb2dVertex
 10
59.87654683336657
 20
30.38895258702662
 30
0.0
  0
VERTEX
  5
21A
330
202
100
AcDbEntity
  8
Hidden (ANSI)
100
AcDbVertex
100
AcDb2dVertex
 10
59.87688024391498
 20
30.39041263096006
 30
0.0
  0
VERTEX
  5
21B
330
202
100
AcDbEntity
  8
Hidden (ANSI)
100
AcDbVertex
100
AcDb2dVertex
 10
59.87707848802485
 20
30.39187268662671
 30
0.0
  0
VERTEX
  5
21C
330
202
100
AcDbEntity
  8
Hidden (ANSI)
100
AcDbVertex
100
AcDb2dVertex
 10
59.87714757309344
 20
30.39333274229336
 30
0.0
  0
SEQEND
  5
205
330
202
100
AcDbEntity
  8
Hidden (ANSI)
  0
LINE
  5
21D
330
6C
100
AcDbEntity
  8
Hidden (ANSI)
100
AcDbLine
 10
59.87714649176192
 20
78.07325021783412
 30
0.0
 11
59.97089649176192
 21
78.07325021783412
 31
0.0
  0
POLYLINE
  5
21E
330
6C
100
AcDbEntity
  8
Hidden (ANSI)
100
AcDb2dPolyline
 66
     1
 10
0.0
 20
0.0
 30
0.0
 70
   128
  0
VERTEX
  5
21F
330
21E
100
AcDbEntity
  8
Hidden (ANSI)
100
AcDbVertex
100
AcDb2dVertex
 10
59.84589709250165
 20
78.1082918390142
 30
0.0
  0
VERTEX
  5
220
330
21E
100
AcDbEntity
  8
Hidden (ANSI)
100
AcDbVertex
100
AcDb2dVertex
 10
59.84793960757301
 20
78.1068320414779
 30
0.0
  0
VERTEX
  5
222
330
21E
100
AcDbEntity
  8
Hidden (ANSI)
100
AcDbVertex
100
AcDb2dVertex
 10
59.8499761152471
 20
78.1053722439416
 30
0.0
  0
VERTEX
  5
223
330
21E
100
AcDbEntity
  8
Hidden (ANSI)
100
AcDbVertex
100
AcDb2dVertex
 10
59.85199159703075
 20
78.10391244640531
 30
0.0
  0
VERTEX
  5
224
330
21E
100
AcDbEntity
  8
Hidden (ANSI)
100
AcDbVertex
100
AcDb2dVertex
 10
59.85398605292396
 20
78.102452648869
 30
0.0
  0
VERTEX
  5
225
330
21E
100
AcDbEntity
  8
Hidden (ANSI)
100
AcDbVertex
100
AcDb2dVertex
 10
59.85594146073492
 20
78.1009898476341
 30
0.0
  0
VERTEX
  5
226
330
21E
100
AcDbEntity
  8
Hidden (ANSI)
100
AcDbVertex
100
AcDb2dVertex
 10
59.85785481676501
 20
78.0995300500978
 30
0.0
  0
VERTEX
  5
227
330
21E
100
AcDbEntity
  8
Hidden (ANSI)
100
AcDbVertex
100
AcDb2dVertex
 10
59.8597171099183
 20
78.0980702525615
 30
0.0
  0
VERTEX
  5
228
330
21E
100
AcDbEntity
  8
Hidden (ANSI)
100
AcDbVertex
100
AcDb2dVertex
 10
59.86152233279755
 20
78.0966104550252
 30
0.0
  0
VERTEX
  5
229
330
21E
100
AcDbEntity
  8
Hidden (ANSI)
100
AcDbVertex
100
AcDb2dVertex
 10
59.8632584706082
 20
78.09515065748891
 30
0.0
  0
VERTEX
  5
22A
330
21E
100
AcDbEntity
  8
Hidden (ANSI)
100
AcDbVertex
100
AcDb2dVertex
 10
59.864919515953
 20
78.09369085995261
 30
0.0
  0
VERTEX
  5
22B
330
21E
100
AcDbEntity
  8
Hidden (ANSI)
100
AcDbVertex
100
AcDb2dVertex
 10
59.8665024651333
 20
78.09223106241631
 30
0.0
  0
VERTEX
  5
22C
330
21E
100
AcDbEntity
  8
Hidden (ANSI)
100
AcDbVertex
100
AcDb2dVertex
 10
59.86799229965594
 20
78.09077126488002
 30
0.0
  0
VERTEX
  5
22D
330
21E
100
AcDbEntity
  8
Hidden (ANSI)
100
AcDbVertex
100
AcDb2dVertex
 10
59.86939202321955
 20
78.08931146734373
 30
0.0
  0
VERTEX
  5
22E
330
21E
100
AcDbEntity
  8
Hidden (ANSI)
100
AcDbVertex
100
AcDb2dVertex
 10
59.87068962102959
 20
78.08785166980745
 30
0.0
  0
VERTEX
  5
22F
330
21E
100
AcDbEntity
  8
Hidden (ANSI)
100
AcDbVertex
100
AcDb2dVertex
 10
59.87187908568879
 20
78.08639187227115
 30
0.0
  0
VERTEX
  5
230
330
21E
100
AcDbEntity
  8
Hidden (ANSI)
100
AcDbVertex
100
AcDb2dVertex
 10
59.87296041719716
 20
78.08493207473485
 30
0.0
  0
VERTEX
  5
231
330
21E
100
AcDbEntity
  8
Hidden (ANSI)
100
AcDbVertex
100
AcDb2dVertex
 10
59.87392460445878
 20
78.08346927349991
 30
0.0
  0
VERTEX
  5
232
330
21E
100
AcDbEntity
  8
Hidden (ANSI)
100
AcDbVertex
100
AcDb2dVertex
 10
59.87476864377503
 20
78.08200947596363
 30
0.0
  0
VERTEX
  5
233
330
21E
100
AcDbEntity
  8
Hidden (ANSI)
100
AcDbVertex
100
AcDb2dVertex
 10
59.87548953144727
 20
78.08054967842733
 30
0.0
  0
VERTEX
  5
234
330
21E
100
AcDbEntity
  8
Hidden (ANSI)
100
AcDbVertex
100
AcDb2dVertex
 10
59.87608126007824
 20
78.07908988089103
 30
0.0
  0
VERTEX
  5
235
330
21E
100
AcDbEntity
  8
Hidden (ANSI)
100
AcDbVertex
100
AcDb2dVertex
 10
59.87654683336657
 20
78.07763008335474
 30
0.0
  0
VERTEX
  5
236
330
21E
100
AcDbEntity
  8
Hidden (ANSI)
100
AcDbVertex
100
AcDb2dVertex
 10
59.87688024391498
 20
78.07617028581844
 30
0.0
  0
VERTEX
  5
237
330
21E
100
AcDbEntity
  8
Hidden (ANSI)
100
AcDbVertex
100
AcDb2dVertex
 10
59.87707848802485
 20
78.07471048828216
 30
0.0
  0
VERTEX
  5
238
330
21E
100
AcDbEntity
  8
Hidden (ANSI)
100
AcDbVertex
100
AcDb2dVertex
 10
59.87714757309344
 20
78.07325069074586
 30
0.0
  0
SEQEND
  5
221
330
21E
100
AcDbEntity
  8
Hidden (ANSI)
  0
LINE
  5
239
330
6C
100
AcDbEntity
  8
Hidden (ANSI)
100
AcDbLine
 10
59.81085523102568
 20
78.13954147857036
 30
0.0
 11
59.81085523102568
 21
78.23329147857037
 31
0.0
  0
POLYLINE
  5
23A
330
6C
100
AcDbEntity
  8
Hidden (ANSI)
100
AcDb2dPolyline
 66
     1
 10
0.0
 20
0.0
 30
0.0
 70
   128
  0
VERTEX
  5
23B
330
23A
100
AcDbEntity
  8
Hidden (ANSI)
100
AcDbVertex
100
AcDb2dVertex
 10
59.84589709250165
 20
78.1082918390142
 30
0.0
  0
VERTEX
  5
23C
330
23A
100
AcDbEntity
  8
Hidden (ANSI)
100
AcDbVertex
100
AcDb2dVertex
 10
59.84443729496536
 20
78.11033435408555
 30
0.0
  0
VERTEX
  5
23E
330
23A
100
AcDbEntity
  8
Hidden (ANSI)
100
AcDbVertex
100
AcDb2dVertex
 10
59.84297749742907
 20
78.11237086175964
 30
0.0
  0
VERTEX
  5
23F
330
23A
100
AcDbEntity
  8
Hidden (ANSI)
100
AcDbVertex
100
AcDb2dVertex
 10
59.84151769989278
 20
78.11438934724193
 30
0.0
  0
VERTEX
  5
240
330
23A
100
AcDbEntity
  8
Hidden (ANSI)
100
AcDbVertex
100
AcDb2dVertex
 10
59.84005489865785
 20
78.1163807994365
 30
0.0
  0
VERTEX
  5
241
330
23A
100
AcDbEntity
  8
Hidden (ANSI)
100
AcDbVertex
100
AcDb2dVertex
 10
59.83859510112155
 20
78.11833620724747
 30
0.0
  0
VERTEX
  5
242
330
23A
100
AcDbEntity
  8
Hidden (ANSI)
100
AcDbVertex
100
AcDb2dVertex
 10
59.83713530358525
 20
78.12024956327753
 30
0.0
  0
VERTEX
  5
243
330
23A
100
AcDbEntity
  8
Hidden (ANSI)
100
AcDbVertex
100
AcDb2dVertex
 10
59.83567550604896
 20
78.12211185643083
 30
0.0
  0
VERTEX
  5
244
330
23A
100
AcDbEntity
  8
Hidden (ANSI)
100
AcDbVertex
100
AcDb2dVertex
 10
59.83421570851267
 20
78.12391707931007
 30
0.0
  0
VERTEX
  5
245
330
23A
100
AcDbEntity
  8
Hidden (ANSI)
100
AcDbVertex
100
AcDb2dVertex
 10
59.83275591097637
 20
78.12565321712074
 30
0.0
  0
VERTEX
  5
246
330
23A
100
AcDbEntity
  8
Hidden (ANSI)
100
AcDbVertex
100
AcDb2dVertex
 10
59.83129611344008
 20
78.12731426246553
 30
0.0
  0
VERTEX
  5
247
330
23A
100
AcDbEntity
  8
Hidden (ANSI)
100
AcDbVertex
100
AcDb2dVertex
 10
59.82983631590379
 20
78.12889721164585
 30
0.0
  0
VERTEX
  5
248
330
23A
100
AcDbEntity
  8
Hidden (ANSI)
100
AcDbVertex
100
AcDb2dVertex
 10
59.82837651836749
 20
78.1303900498671
 30
0.0
  0
VERTEX
  5
249
330
23A
100
AcDbEntity
  8
Hidden (ANSI)
100
AcDbVertex
100
AcDb2dVertex
 10
59.8269167208312
 20
78.13178676973207
 30
0.0
  0
VERTEX
  5
24A
330
23A
100
AcDbEntity
  8
Hidden (ANSI)
100
AcDbVertex
100
AcDb2dVertex
 10
59.8254569232949
 20
78.13308436754212
 30
0.0
  0
VERTEX
  5
24B
330
23A
100
AcDbEntity
  8
Hidden (ANSI)
100
AcDbVertex
100
AcDb2dVertex
 10
59.82399712575861
 20
78.13427383220133
 30
0.0
  0
VERTEX
  5
24C
330
23A
100
AcDbEntity
  8
Hidden (ANSI)
100
AcDbVertex
100
AcDb2dVertex
 10
59.82253432452368
 20
78.13535516370968
 30
0.0
  0
VERTEX
  5
24D
330
23A
100
AcDbEntity
  8
Hidden (ANSI)
100
AcDbVertex
100
AcDb2dVertex
 10
59.82107452698739
 20
78.13631935097131
 30
0.0
  0
VERTEX
  5
24E
330
23A
100
AcDbEntity
  8
Hidden (ANSI)
100
AcDbVertex
100
AcDb2dVertex
 10
59.81961472945108
 20
78.13716339028757
 30
0.0
  0
VERTEX
  5
24F
330
23A
100
AcDbEntity
  8
Hidden (ANSI)
100
AcDbVertex
100
AcDb2dVertex
 10
59.81815493191479
 20
78.13788427795981
 30
0.0
  0
VERTEX
  5
250
330
23A
100
AcDbEntity
  8
Hidden (ANSI)
100
AcDbVertex
100
AcDb2dVertex
 10
59.8166951343785
 20
78.13847600659078
 30
0.0
  0
VERTEX
  5
251
330
23A
100
AcDbEntity
  8
Hidden (ANSI)
100
AcDbVertex
100
AcDb2dVertex
 10
59.81523533684221
 20
78.1389415798791
 30
0.0
  0
VERTEX
  5
252
330
23A
100
AcDbEntity
  8
Hidden (ANSI)
100
AcDbVertex
100
AcDb2dVertex
 10
59.81377553930592
 20
78.13927499042752
 30
0.0
  0
VERTEX
  5
253
330
23A
100
AcDbEntity
  8
Hidden (ANSI)
100
AcDbVertex
100
AcDb2dVertex
 10
59.81231574176962
 20
78.13947323453738
 30
0.0
  0
VERTEX
  5
254
330
23A
100
AcDbEntity
  8
Hidden (ANSI)
100
AcDbVertex
100
AcDb2dVertex
 10
59.81085594423332
 20
78.13954231960598
 30
0.0
  0
SEQEND
  5
23D
330
23A
100
AcDbEntity
  8
Hidden (ANSI)
  0
LINE
  5
255
330
6C
100
AcDbEntity
  8
Hidden (ANSI)
100
AcDbLine
 10
28.13093775249816
 20
78.13954147857035
 30
0.0
 11
28.13093775249816
 21
78.23329147857034
 31
0.0
  0
POLYLINE
  5
256
330
6C
100
AcDbEntity
  8
Hidden (ANSI)
100
AcDb2dPolyline
 66
     1
 10
0.0
 20
0.0
 30
0.0
 70
   128
  0
VERTEX
  5
257
330
256
100
AcDbEntity
  8
Hidden (ANSI)
100
AcDbVertex
100
AcDb2dVertex
 10
28.09589648988462
 20
78.1082918390142
 30
0.0
  0
VERTEX
  5
258
330
256
100
AcDbEntity
  8
Hidden (ANSI)
100
AcDbVertex
100
AcDb2dVertex
 10
28.09735654555127
 20
78.11033435408555
 30
0.0
  0
VERTEX
  5
25A
330
256
100
AcDbEntity
  8
Hidden (ANSI)
100
AcDbVertex
100
AcDb2dVertex
 10
28.09881660121791
 20
78.11237086175964
 30
0.0
  0
VERTEX
  5
25B
330
256
100
AcDbEntity
  8
Hidden (ANSI)
100
AcDbVertex
100
AcDb2dVertex
 10
28.10027664515136
 20
78.11438934724193
 30
0.0
  0
VERTEX
  5
25C
330
256
100
AcDbEntity
  8
Hidden (ANSI)
100
AcDbVertex
100
AcDb2dVertex
 10
28.10173670081801
 20
78.1163807994365
 30
0.0
  0
VERTEX
  5
25D
330
256
100
AcDbEntity
  8
Hidden (ANSI)
100
AcDbVertex
100
AcDb2dVertex
 10
28.10319675648465
 20
78.11833620724747
 30
0.0
  0
VERTEX
  5
25E
330
256
100
AcDbEntity
  8
Hidden (ANSI)
100
AcDbVertex
100
AcDb2dVertex
 10
28.1046568121513
 20
78.12024956327753
 30
0.0
  0
VERTEX
  5
25F
330
256
100
AcDbEntity
  8
Hidden (ANSI)
100
AcDbVertex
100
AcDb2dVertex
 10
28.10611685608474
 20
78.12211185643083
 30
0.0
  0
VERTEX
  5
260
330
256
100
AcDbEntity
  8
Hidden (ANSI)
100
AcDbVertex
100
AcDb2dVertex
 10
28.10757691175139
 20
78.12391707931007
 30
0.0
  0
VERTEX
  5
261
330
256
100
AcDbEntity
  8
Hidden (ANSI)
100
AcDbVertex
100
AcDb2dVertex
 10
28.10903696741803
 20
78.12565321712074
 30
0.0
  0
VERTEX
  5
262
330
256
100
AcDbEntity
  8
Hidden (ANSI)
100
AcDbVertex
100
AcDb2dVertex
 10
28.11049701135149
 20
78.12731426246553
 30
0.0
  0
VERTEX
  5
263
330
256
100
AcDbEntity
  8
Hidden (ANSI)
100
AcDbVertex
100
AcDb2dVertex
 10
28.11195706701813
 20
78.12889721164585
 30
0.0
  0
VERTEX
  5
264
330
256
100
AcDbEntity
  8
Hidden (ANSI)
100
AcDbVertex
100
AcDb2dVertex
 10
28.11341712268477
 20
78.1303900498671
 30
0.0
  0
VERTEX
  5
265
330
256
100
AcDbEntity
  8
Hidden (ANSI)
100
AcDbVertex
100
AcDb2dVertex
 10
28.11487717835142
 20
78.13178676973207
 30
0.0
  0
VERTEX
  5
266
330
256
100
AcDbEntity
  8
Hidden (ANSI)
100
AcDbVertex
100
AcDb2dVertex
 10
28.11633722228487
 20
78.13308436754212
 30
0.0
  0
VERTEX
  5
267
330
256
100
AcDbEntity
  8
Hidden (ANSI)
100
AcDbVertex
100
AcDb2dVertex
 10
28.11779727795152
 20
78.13427383220133
 30
0.0
  0
VERTEX
  5
268
330
256
100
AcDbEntity
  8
Hidden (ANSI)
100
AcDbVertex
100
AcDb2dVertex
 10
28.11925733361816
 20
78.13535516370968
 30
0.0
  0
VERTEX
  5
269
330
256
100
AcDbEntity
  8
Hidden (ANSI)
100
AcDbVertex
100
AcDb2dVertex
 10
28.1207173892848
 20
78.13631935097131
 30
0.0
  0
VERTEX
  5
26A
330
256
100
AcDbEntity
  8
Hidden (ANSI)
100
AcDbVertex
100
AcDb2dVertex
 10
28.12217743321826
 20
78.13716339028757
 30
0.0
  0
VERTEX
  5
26B
330
256
100
AcDbEntity
  8
Hidden (ANSI)
100
AcDbVertex
100
AcDb2dVertex
 10
28.1236374888849
 20
78.13788427795981
 30
0.0
  0
VERTEX
  5
26C
330
256
100
AcDbEntity
  8
Hidden (ANSI)
100
AcDbVertex
100
AcDb2dVertex
 10
28.12509754455155
 20
78.13847600659078
 30
0.0
  0
VERTEX
  5
26D
330
256
100
AcDbEntity
  8
Hidden (ANSI)
100
AcDbVertex
100
AcDb2dVertex
 10
28.12655760021819
 20
78.1389415798791
 30
0.0
  0
VERTEX
  5
26E
330
256
100
AcDbEntity
  8
Hidden (ANSI)
100
AcDbVertex
100
AcDb2dVertex
 10
28.12801764415164
 20
78.13927499042752
 30
0.0
  0
VERTEX
  5
26F
330
256
100
AcDbEntity
  8
Hidden (ANSI)
100
AcDbVertex
100
AcDb2dVertex
 10
28.12947769981829
 20
78.13947323453738
 30
0.0
  0
VERTEX
  5
270
330
256
100
AcDbEntity
  8
Hidden (ANSI)
100
AcDbVertex
100
AcDb2dVertex
 10
28.13093775548493
 20
78.13954231960598
 30
0.0
  0
SEQEND
  5
259
330
256
100
AcDbEntity
  8
Hidden (ANSI)
  0
LINE
  5
271
330
6C
100
AcDbEntity
  8
Hidden (ANSI)
100
AcDbLine
 10
28.06464649176192
 20
78.07325021783412
 30
0.0
 11
27.97089649176192
 21
78.07325021783412
 31
0.0
  0
POLYLINE
  5
272
330
6C
100
AcDbEntity
  8
Hidden (ANSI)
100
AcDb2dPolyline
 66
     1
 10
0.0
 20
0.0
 30
0.0
 70
   128
  0
VERTEX
  5
273
330
272
100
AcDbEntity
  8
Hidden (ANSI)
100
AcDbVertex
100
AcDb2dVertex
 10
28.09589648988462
 20
78.1082918390142
 30
0.0
  0
VERTEX
  5
274
330
272
100
AcDbEntity
  8
Hidden (ANSI)
100
AcDbVertex
100
AcDb2dVertex
 10
28.09385264896191
 20
78.1068320414779
 30
0.0
  0
VERTEX
  5
276
330
272
100
AcDbEntity
  8
Hidden (ANSI)
100
AcDbVertex
100
AcDb2dVertex
 10
28.09181754927156
 20
78.1053722439416
 30
0.0
  0
VERTEX
  5
277
330
272
100
AcDbEntity
  8
Hidden (ANSI)
100
AcDbVertex
100
AcDb2dVertex
 10
28.08979992031271
 20
78.10391244640531
 30
0.0
  0
VERTEX
  5
278
330
272
100
AcDbEntity
  8
Hidden (ANSI)
100
AcDbVertex
100
AcDb2dVertex
 10
28.08780839771895
 20
78.102452648869
 30
0.0
  0
VERTEX
  5
279
330
272
100
AcDbEntity
  8
Hidden (ANSI)
100
AcDbVertex
100
AcDb2dVertex
 10
28.08585151152507
 20
78.1009898476341
 30
0.0
  0
VERTEX
  5
27A
330
272
100
AcDbEntity
  8
Hidden (ANSI)
100
AcDbVertex
100
AcDb2dVertex
 10
28.08393763923429
 20
78.0995300500978
 30
0.0
  0
VERTEX
  5
27B
330
272
100
AcDbEntity
  8
Hidden (ANSI)
100
AcDbVertex
100
AcDb2dVertex
 10
28.08207497061866
 20
78.0980702525615
 30
0.0
  0
VERTEX
  5
27C
330
272
100
AcDbEntity
  8
Hidden (ANSI)
100
AcDbVertex
100
AcDb2dVertex
 10
28.08027149598589
 20
78.0966104550252
 30
0.0
  0
VERTEX
  5
27D
330
272
100
AcDbEntity
  8
Hidden (ANSI)
100
AcDbVertex
100
AcDb2dVertex
 10
28.07853492404691
 20
78.09515065748891
 30
0.0
  0
VERTEX
  5
27E
330
272
100
AcDbEntity
  8
Hidden (ANSI)
100
AcDbVertex
100
AcDb2dVertex
 10
28.07687269364914
 20
78.09369085995261
 30
0.0
  0
VERTEX
  5
27F
330
272
100
AcDbEntity
  8
Hidden (ANSI)
100
AcDbVertex
100
AcDb2dVertex
 10
28.07529193857682
 20
78.09223106241631
 30
0.0
  0
VERTEX
  5
280
330
272
100
AcDbEntity
  8
Hidden (ANSI)
100
AcDbVertex
100
AcDb2dVertex
 10
28.07379940541869
 20
78.09077126488002
 30
0.0
  0
VERTEX
  5
281
330
272
100
AcDbEntity
  8
Hidden (ANSI)
100
AcDbVertex
100
AcDb2dVertex
 10
28.07240150050074
 20
78.08931146734373
 30
0.0
  0
VERTEX
  5
282
330
272
100
AcDbEntity
  8
Hidden (ANSI)
100
AcDbVertex
100
AcDb2dVertex
 10
28.07110419602065
 20
78.08785166980745
 30
0.0
  0
VERTEX
  5
283
330
272
100
AcDbEntity
  8
Hidden (ANSI)
100
AcDbVertex
100
AcDb2dVertex
 10
28.06991306524736
 20
78.08639187227115
 30
0.0
  0
VERTEX
  5
284
330
272
100
AcDbEntity
  8
Hidden (ANSI)
100
AcDbVertex
100
AcDb2dVertex
 10
28.06883320038872
 20
78.08493207473485
 30
0.0
  0
VERTEX
  5
285
330
272
100
AcDbEntity
  8
Hidden (ANSI)
100
AcDbVertex
100
AcDb2dVertex
 10
28.06786921845806
 20
78.08346927349991
 30
0.0
  0
VERTEX
  5
286
330
272
100
AcDbEntity
  8
Hidden (ANSI)
100
AcDbVertex
100
AcDb2dVertex
 10
28.06702525540758
 20
78.08200947596363
 30
0.0
  0
VERTEX
  5
287
330
272
100
AcDbEntity
  8
Hidden (ANSI)
100
AcDbVertex
100
AcDb2dVertex
 10
28.06630492506224
 20
78.08054967842733
 30
0.0
  0
VERTEX
  5
288
330
272
100
AcDbEntity
  8
Hidden (ANSI)
100
AcDbVertex
100
AcDb2dVertex
 10
28.06571130738643
 20
78.07908988089103
 30
0.0
  0
VERTEX
  5
289
330
272
100
AcDbEntity
  8
Hidden (ANSI)
100
AcDbVertex
100
AcDb2dVertex
 10
28.06524695435067
 20
78.07763008335474
 30
0.0
  0
VERTEX
  5
28A
330
272
100
AcDbEntity
  8
Hidden (ANSI)
100
AcDbVertex
100
AcDb2dVertex
 10
28.0649138371322
 20
78.07617028581844
 30
0.0
  0
VERTEX
  5
28B
330
272
100
AcDbEntity
  8
Hidden (ANSI)
100
AcDbVertex
100
AcDb2dVertex
 10
28.06471339891435
 20
78.07471048828216
 30
0.0
  0
VERTEX
  5
28C
330
272
100
AcDbEntity
  8
Hidden (ANSI)
100
AcDbVertex
100
AcDb2dVertex
 10
28.06464649035395
 20
78.07325069074586
 30
0.0
  0
SEQEND
  5
275
330
272
100
AcDbEntity
  8
Hidden (ANSI)
  0
LINE
  5
28D
330
6C
100
AcDbEntity
  8
Hidden (ANSI)
100
AcDbLine
 10
28.06464649176194
 20
30.3933327393066
 30
0.0
 11
27.97089649176193
 21
30.3933327393066
 31
0.0
  0
POLYLINE
  5
28E
330
6C
100
AcDbEntity
  8
Hidden (ANSI)
100
AcDb2dPolyline
 66
     1
 10
0.0
 20
0.0
 30
0.0
 70
   128
  0
VERTEX
  5
28F
330
28E
100
AcDbEntity
  8
Hidden (ANSI)
100
AcDbVertex
100
AcDb2dVertex
 10
28.09589648988462
 20
30.35829147669305
 30
0.0
  0
VERTEX
  5
290
330
28E
100
AcDbEntity
  8
Hidden (ANSI)
100
AcDbVertex
100
AcDb2dVertex
 10
28.09385264896191
 20
30.35975153235969
 30
0.0
  0
VERTEX
  5
292
330
28E
100
AcDbEntity
  8
Hidden (ANSI)
100
AcDbVertex
100
AcDb2dVertex
 10
28.09181754927156
 20
30.36121158802634
 30
0.0
  0
VERTEX
  5
293
330
28E
100
AcDbEntity
  8
Hidden (ANSI)
100
AcDbVertex
100
AcDb2dVertex
 10
28.08979992031271
 20
30.36267163195979
 30
0.0
  0
VERTEX
  5
294
330
28E
100
AcDbEntity
  8
Hidden (ANSI)
100
AcDbVertex
100
AcDb2dVertex
 10
28.08780839771895
 20
30.36413168762643
 30
0.0
  0
VERTEX
  5
295
330
28E
100
AcDbEntity
  8
Hidden (ANSI)
100
AcDbVertex
100
AcDb2dVertex
 10
28.08585151152507
 20
30.36559174329308
 30
0.0
  0
VERTEX
  5
296
330
28E
100
AcDbEntity
  8
Hidden (ANSI)
100
AcDbVertex
100
AcDb2dVertex
 10
28.08393763923429
 20
30.36705179895973
 30
0.0
  0
VERTEX
  5
297
330
28E
100
AcDbEntity
  8
Hidden (ANSI)
100
AcDbVertex
100
AcDb2dVertex
 10
28.08207497061866
 20
30.36851184289317
 30
0.0
  0
VERTEX
  5
298
330
28E
100
AcDbEntity
  8
Hidden (ANSI)
100
AcDbVertex
100
AcDb2dVertex
 10
28.08027149598589
 20
30.36997189855982
 30
0.0
  0
VERTEX
  5
299
330
28E
100
AcDbEntity
  8
Hidden (ANSI)
100
AcDbVertex
100
AcDb2dVertex
 10
28.07853492404691
 20
30.37143195422646
 30
0.0
  0
VERTEX
  5
29A
330
28E
100
AcDbEntity
  8
Hidden (ANSI)
100
AcDbVertex
100
AcDb2dVertex
 10
28.07687269364914
 20
30.37289199815991
 30
0.0
  0
VERTEX
  5
29B
330
28E
100
AcDbEntity
  8
Hidden (ANSI)
100
AcDbVertex
100
AcDb2dVertex
 10
28.07529193857682
 20
30.37435205382656
 30
0.0
  0
VERTEX
  5
29C
330
28E
100
AcDbEntity
  8
Hidden (ANSI)
100
AcDbVertex
100
AcDb2dVertex
 10
28.07379940541869
 20
30.3758121094932
 30
0.0
  0
VERTEX
  5
29D
330
28E
100
AcDbEntity
  8
Hidden (ANSI)
100
AcDbVertex
100
AcDb2dVertex
 10
28.07240150050074
 20
30.37727216515985
 30
0.0
  0
VERTEX
  5
29E
330
28E
100
AcDbEntity
  8
Hidden (ANSI)
100
AcDbVertex
100
AcDb2dVertex
 10
28.07110419602065
 20
30.3787322090933
 30
0.0
  0
VERTEX
  5
29F
330
28E
100
AcDbEntity
  8
Hidden (ANSI)
100
AcDbVertex
100
AcDb2dVertex
 10
28.06991306524736
 20
30.38019226475994
 30
0.0
  0
VERTEX
  5
2A0
330
28E
100
AcDbEntity
  8
Hidden (ANSI)
100
AcDbVertex
100
AcDb2dVertex
 10
28.06883320038872
 20
30.38165232042659
 30
0.0
  0
VERTEX
  5
2A1
330
28E
100
AcDbEntity
  8
Hidden (ANSI)
100
AcDbVertex
100
AcDb2dVertex
 10
28.06786921845806
 20
30.38311237609323
 30
0.0
  0
VERTEX
  5
2A2
330
28E
100
AcDbEntity
  8
Hidden (ANSI)
100
AcDbVertex
100
AcDb2dVertex
 10
28.06702525540758
 20
30.38457242002668
 30
0.0
  0
VERTEX
  5
2A3
330
28E
100
AcDbEntity
  8
Hidden (ANSI)
100
AcDbVertex
100
AcDb2dVertex
 10
28.06630492506224
 20
30.38603247569333
 30
0.0
  0
VERTEX
  5
2A4
330
28E
100
AcDbEntity
  8
Hidden (ANSI)
100
AcDbVertex
100
AcDb2dVertex
 10
28.06571130738643
 20
30.38749253135997
 30
0.0
  0
VERTEX
  5
2A5
330
28E
100
AcDbEntity
  8
Hidden (ANSI)
100
AcDbVertex
100
AcDb2dVertex
 10
28.06524695435067
 20
30.38895258702662
 30
0.0
  0
VERTEX
  5
2A6
330
28E
100
AcDbEntity
  8
Hidden (ANSI)
100
AcDbVertex
100
AcDb2dVertex
 10
28.0649138371322
 20
30.39041263096006
 30
0.0
  0
VERTEX
  5
2A7
330
28E
100
AcDbEntity
  8
Hidden (ANSI)
100
AcDbVertex
100
AcDb2dVertex
 10
28.06471339891435
 20
30.39187268662671
 30
0.0
  0
VERTEX
  5
2A8
330
28E
100
AcDbEntity
  8
Hidden (ANSI)
100
AcDbVertex
100
AcDb2dVertex
 10
28.06464649035395
 20
30.39333274229336
 30
0.0
  0
SEQEND
  5
291
330
28E
100
AcDbEntity
  8
Hidden (ANSI)
  0
LINE
  5
2A9
330
6C
100
AcDbEntity
  8
Hidden (ANSI)
100
AcDbLine
 10
28.13093775249818
 20
30.32704147857036
 30
0.0
 11
28.13093775249818
 21
30.23329147857036
 31
0.0
  0
POLYLINE
  5
2AA
330
6C
100
AcDbEntity
  8
Hidden (ANSI)
100
AcDb2dPolyline
 66
     1
 10
0.0
 20
0.0
 30
0.0
 70
   128
  0
VERTEX
  5
2AB
330
2AA
100
AcDbEntity
  8
Hidden (ANSI)
100
AcDbVertex
100
AcDb2dVertex
 10
28.09589648988462
 20
30.35829147669305
 30
0.0
  0
VERTEX
  5
2AC
330
2AA
100
AcDbEntity
  8
Hidden (ANSI)
100
AcDbVertex
100
AcDb2dVertex
 10
28.09735654555127
 20
30.35624763577034
 30
0.0
  0
VERTEX
  5
2AE
330
2AA
100
AcDbEntity
  8
Hidden (ANSI)
100
AcDbVertex
100
AcDb2dVertex
 10
28.09881660121791
 20
30.35421253607998
 30
0.0
  0
VERTEX
  5
2AF
330
2AA
100
AcDbEntity
  8
Hidden (ANSI)
100
AcDbVertex
100
AcDb2dVertex
 10
28.10027664515136
 20
30.35219490712114
 30
0.0
  0
VERTEX
  5
2B0
330
2AA
100
AcDbEntity
  8
Hidden (ANSI)
100
AcDbVertex
100
AcDb2dVertex
 10
28.10173670081801
 20
30.35020338452738
 30
0.0
  0
VERTEX
  5
2B1
330
2AA
100
AcDbEntity
  8
Hidden (ANSI)
100
AcDbVertex
100
AcDb2dVertex
 10
28.10319675648465
 20
30.3482464983335
 30
0.0
  0
VERTEX
  5
2B2
330
2AA
100
AcDbEntity
  8
Hidden (ANSI)
100
AcDbVertex
100
AcDb2dVertex
 10
28.1046568121513
 20
30.34633262604271
 30
0.0
  0
VERTEX
  5
2B3
330
2AA
100
AcDbEntity
  8
Hidden (ANSI)
100
AcDbVertex
100
AcDb2dVertex
 10
28.10611685608474
 20
30.34446995742709
 30
0.0
  0
VERTEX
  5
2B4
330
2AA
100
AcDbEntity
  8
Hidden (ANSI)
100
AcDbVertex
100
AcDb2dVertex
 10
28.10757691175139
 20
30.34266648279431
 30
0.0
  0
VERTEX
  5
2B5
330
2AA
100
AcDbEntity
  8
Hidden (ANSI)
100
AcDbVertex
100
AcDb2dVertex
 10
28.10903696741803
 20
30.34092991085534
 30
0.0
  0
VERTEX
  5
2B6
330
2AA
100
AcDbEntity
  8
Hidden (ANSI)
100
AcDbVertex
100
AcDb2dVertex
 10
28.11049701135149
 20
30.33926768045756
 30
0.0
  0
VERTEX
  5
2B7
330
2AA
100
AcDbEntity
  8
Hidden (ANSI)
100
AcDbVertex
100
AcDb2dVertex
 10
28.11195706701813
 20
30.33768692538524
 30
0.0
  0
VERTEX
  5
2B8
330
2AA
100
AcDbEntity
  8
Hidden (ANSI)
100
AcDbVertex
100
AcDb2dVertex
 10
28.11341712268477
 20
30.33619439222712
 30
0.0
  0
VERTEX
  5
2B9
330
2AA
100
AcDbEntity
  8
Hidden (ANSI)
100
AcDbVertex
100
AcDb2dVertex
 10
28.11487717835142
 20
30.33479648730917
 30
0.0
  0
VERTEX
  5
2BA
330
2AA
100
AcDbEntity
  8
Hidden (ANSI)
100
AcDbVertex
100
AcDb2dVertex
 10
28.11633722228487
 20
30.33349918282908
 30
0.0
  0
VERTEX
  5
2BB
330
2AA
100
AcDbEntity
  8
Hidden (ANSI)
100
AcDbVertex
100
AcDb2dVertex
 10
28.11779727795152
 20
30.33230805205579
 30
0.0
  0
VERTEX
  5
2BC
330
2AA
100
AcDbEntity
  8
Hidden (ANSI)
100
AcDbVertex
100
AcDb2dVertex
 10
28.11925733361816
 20
30.33122818719715
 30
0.0
  0
VERTEX
  5
2BD
330
2AA
100
AcDbEntity
  8
Hidden (ANSI)
100
AcDbVertex
100
AcDb2dVertex
 10
28.1207173892848
 20
30.33026420526648
 30
0.0
  0
VERTEX
  5
2BE
330
2AA
100
AcDbEntity
  8
Hidden (ANSI)
100
AcDbVertex
100
AcDb2dVertex
 10
28.12217743321826
 20
30.32942024221601
 30
0.0
  0
VERTEX
  5
2BF
330
2AA
100
AcDbEntity
  8
Hidden (ANSI)
100
AcDbVertex
100
AcDb2dVertex
 10
28.1236374888849
 20
30.32869991187066
 30
0.0
  0
VERTEX
  5
2C0
330
2AA
100
AcDbEntity
  8
Hidden (ANSI)
100
AcDbVertex
100
AcDb2dVertex
 10
28.12509754455155
 20
30.32810629419485
 30
0.0
  0
VERTEX
  5
2C1
330
2AA
100
AcDbEntity
  8
Hidden (ANSI)
100
AcDbVertex
100
AcDb2dVertex
 10
28.12655760021819
 20
30.3276419411591
 30
0.0
  0
VERTEX
  5
2C2
330
2AA
100
AcDbEntity
  8
Hidden (ANSI)
100
AcDbVertex
100
AcDb2dVertex
 10
28.12801764415164
 20
30.32730882394063
 30
0.0
  0
VERTEX
  5
2C3
330
2AA
100
AcDbEntity
  8
Hidden (ANSI)
100
AcDbVertex
100
AcDb2dVertex
 10
28.12947769981829
 20
30.32710838572278
 30
0.0
  0
VERTEX
  5
2C4
330
2AA
100
AcDbEntity
  8
Hidden (ANSI)
100
AcDbVertex
100
AcDb2dVertex
 10
28.13093775548493
 20
30.32704147716238
 30
0.0
  0
SEQEND
  5
2AD
330
2AA
100
AcDbEntity
  8
Hidden (ANSI)
  0
LINE
  5
2C5
330
6C
100
AcDbEntity
  8
Hidden (ANSI)
100
AcDbLine
 10
59.8108552310257
 20
30.32704147857036
 30
0.0
 11
59.8108552310257
 21
30.23329147857036
 31
0.0
  0
POLYLINE
  5
2C6
330
6C
100
AcDbEntity
  8
Hidden (ANSI)
100
AcDb2dPolyline
 66
     1
 10
0.0
 20
0.0
 30
0.0
 70
   128
  0
VERTEX
  5
2C7
330
2C6
100
AcDbEntity
  8
Hidden (ANSI)
100
AcDbVertex
100
AcDb2dVertex
 10
59.84589709250165
 20
30.35829147669305
 30
0.0
  0
VERTEX
  5
2C8
330
2C6
100
AcDbEntity
  8
Hidden (ANSI)
100
AcDbVertex
100
AcDb2dVertex
 10
59.84443729496536
 20
30.35624763577034
 30
0.0
  0
VERTEX
  5
2CA
330
2C6
100
AcDbEntity
  8
Hidden (ANSI)
100
AcDbVertex
100
AcDb2dVertex
 10
59.84297749742907
 20
30.35421253607998
 30
0.0
  0
VERTEX
  5
2CB
330
2C6
100
AcDbEntity
  8
Hidden (ANSI)
100
AcDbVertex
100
AcDb2dVertex
 10
59.84151769989278
 20
30.35219490712114
 30
0.0
  0
VERTEX
  5
2CC
330
2C6
100
AcDbEntity
  8
Hidden (ANSI)
100
AcDbVertex
100
AcDb2dVertex
 10
59.84005489865785
 20
30.35020338452738
 30
0.0
  0
VERTEX
  5
2CD
330
2C6
100
AcDbEntity
  8
Hidden (ANSI)
100
AcDbVertex
100
AcDb2dVertex
 10
59.83859510112155
 20
30.3482464983335
 30
0.0
  0
VERTEX
  5
2CE
330
2C6
100
AcDbEntity
  8
Hidden (ANSI)
100
AcDbVertex
100
AcDb2dVertex
 10
59.83713530358525
 20
30.34633262604271
 30
0.0
  0
VERTEX
  5
2CF
330
2C6
100
AcDbEntity
  8
Hidden (ANSI)
100
AcDbVertex
100
AcDb2dVertex
 10
59.83567550604896
 20
30.34446995742709
 30
0.0
  0
VERTEX
  5
2D0
330
2C6
100
AcDbEntity
  8
Hidden (ANSI)
100
AcDbVertex
100
AcDb2dVertex
 10
59.83421570851267
 20
30.34266648279431
 30
0.0
  0
VERTEX
  5
2D1
330
2C6
100
AcDbEntity
  8
Hidden (ANSI)
100
AcDbVertex
100
AcDb2dVertex
 10
59.83275591097637
 20
30.34092991085534
 30
0.0
  0
VERTEX
  5
2D2
330
2C6
100
AcDbEntity
  8
Hidden (ANSI)
100
AcDbVertex
100
AcDb2dVertex
 10
59.83129611344008
 20
30.33926768045756
 30
0.0
  0
VERTEX
  5
2D3
330
2C6
100
AcDbEntity
  8
Hidden (ANSI)
100
AcDbVertex
100
AcDb2dVertex
 10
59.82983631590379
 20
30.33768692538524
 30
0.0
  0
VERTEX
  5
2D4
330
2C6
100
AcDbEntity
  8
Hidden (ANSI)
100
AcDbVertex
100
AcDb2dVertex
 10
59.82837651836749
 20
30.33619439222712
 30
0.0
  0
VERTEX
  5
2D5
330
2C6
100
AcDbEntity
  8
Hidden (ANSI)
100
AcDbVertex
100
AcDb2dVertex
 10
59.8269167208312
 20
30.33479648730917
 30
0.0
  0
VERTEX
  5
2D6
330
2C6
100
AcDbEntity
  8
Hidden (ANSI)
100
AcDbVertex
100
AcDb2dVertex
 10
59.8254569232949
 20
30.33349918282908
 30
0.0
  0
VERTEX
  5
2D7
330
2C6
100
AcDbEntity
  8
Hidden (ANSI)
100
AcDbVertex
100
AcDb2dVertex
 10
59.82399712575861
 20
30.33230805205579
 30
0.0
  0
VERTEX
  5
2D8
330
2C6
100
AcDbEntity
  8
Hidden (ANSI)
100
AcDbVertex
100
AcDb2dVertex
 10
59.82253432452368
 20
30.33122818719715
 30
0.0
  0
VERTEX
  5
2D9
330
2C6
100
AcDbEntity
  8
Hidden (ANSI)
100
AcDbVertex
100
AcDb2dVertex
 10
59.82107452698739
 20
30.33026420526648
 30
0.0
  0
VERTEX
  5
2DA
330
2C6
100
AcDbEntity
  8
Hidden (ANSI)
100
AcDbVertex
100
AcDb2dVertex
 10
59.81961472945108
 20
30.32942024221601
 30
0.0
  0
VERTEX
  5
2DB
330
2C6
100
AcDbEntity
  8
Hidden (ANSI)
100
AcDbVertex
100
AcDb2dVertex
 10
59.81815493191479
 20
30.32869991187066
 30
0.0
  0
VERTEX
  5
2DC
330
2C6
100
AcDbEntity
  8
Hidden (ANSI)
100
AcDbVertex
100
AcDb2dVertex
 10
59.8166951343785
 20
30.32810629419485
 30
0.0
  0
VERTEX
  5
2DD
330
2C6
100
AcDbEntity
  8
Hidden (ANSI)
100
AcDbVertex
100
AcDb2dVertex
 10
59.81523533684221
 20
30.3276419411591
 30
0.0
  0
VERTEX
  5
2DE
330
2C6
100
AcDbEntity
  8
Hidden (ANSI)
100
AcDbVertex
100
AcDb2dVertex
 10
59.81377553930592
 20
30.32730882394063
 30
0.0
  0
VERTEX
  5
2DF
330
2C6
100
AcDbEntity
  8
Hidden (ANSI)
100
AcDbVertex
100
AcDb2dVertex
 10
59.81231574176962
 20
30.32710838572278
 30
0.0
  0
VERTEX
  5
2E0
330
2C6
100
AcDbEntity
  8
Hidden (ANSI)
100
AcDbVertex
100
AcDb2dVertex
 10
59.81085594423332
 20
30.32704147716238
 30
0.0
  0
SEQEND
  5
2C9
330
2C6
100
AcDbEntity
  8
Hidden (ANSI)
  0
MTEXT
  5
2E2
330
6C
100
AcDbEntity
  8
Symbol (ANSI)
100
AcDbMText
 10
39.26707177901741
 20
23.11412375245819
 30
0.0
 40
1.200000014830761
 41
0.0
 46
0.0
 71
     7
 72
     1
  1
FRONT VIEW
  7
Text Style153
 73
     1
 44
1.0
  0
LINE
  5
2E4
330
6C
100
AcDbEntity
  8
Symbol (ANSI)
370
    30
100
AcDbLine
 10
39.14707147033354
 20
22.86940737870928
 30
0.0
 11
48.79472151319031
 21
22.86940737870928
 31
0.0
  0
POLYLINE
  5
2E5
330
6C
100
AcDbEntity
  8
Visible (ANSI)
100
AcDb2dPolyline
 66
     1
 10
0.0
 20
0.0
 30
0.0
 70
   128
  0
VERTEX
  5
2E6
330
2E5
100
AcDbEntity
  8
Visible (ANSI)
100
AcDbVertex
100
AcDb2dVertex
 10
84.07065925328508
 20
78.1082918390142
 30
0.0
  0
VERTEX
  5
2E7
330
2E5
100
AcDbEntity
  8
Visible (ANSI)
100
AcDbVertex
100
AcDb2dVertex
 10
84.07092688752667
 20
78.1068320414779
 30
0.0
  0
VERTEX
  5
2E9
330
2E5
100
AcDbEntity
  8
Visible (ANSI)
100
AcDbVertex
100
AcDb2dVertex
 10
84.07172864626469
 20
78.1053722439416
 30
0.0
  0
VERTEX
  5
2EA
330
2E5
100
AcDbEntity
  8
Visible (ANSI)
100
AcDbVertex
100
AcDb2dVertex
 10
84.07306109167217
 20
78.10391244640531
 30
0.0
  0
VERTEX
  5
2EB
330
2E5
100
AcDbEntity
  8
Visible (ANSI)
100
AcDbVertex
100
AcDb2dVertex
 10
84.07491852141498
 20
78.102452648869
 30
0.0
  0
VERTEX
  5
2EC
330
2E5
100
AcDbEntity
  8
Visible (ANSI)
100
AcDbVertex
100
AcDb2dVertex
 10
84.07729298625163
 20
78.1009898476341
 30
0.0
  0
VERTEX
  5
2ED
330
2E5
100
AcDbEntity
  8
Visible (ANSI)
100
AcDbVertex
100
AcDb2dVertex
 10
84.08017430763303
 20
78.0995300500978
 30
0.0
  0
VERTEX
  5
2EE
330
2E5
100
AcDbEntity
  8
Visible (ANSI)
100
AcDbVertex
100
AcDb2dVertex
 10
84.0835501598349
 20
78.0980702525615
 30
0.0
  0
VERTEX
  5
2EF
330
2E5
100
AcDbEntity
  8
Visible (ANSI)
100
AcDbVertex
100
AcDb2dVertex
 10
84.08740607582435
 20
78.0966104550252
 30
0.0
  0
VERTEX
  5
2F0
330
2E5
100
AcDbEntity
  8
Visible (ANSI)
100
AcDbVertex
100
AcDb2dVertex
 10
84.09172555285874
 20
78.09515065748891
 30
0.0
  0
VERTEX
  5
2F1
330
2E5
100
AcDbEntity
  8
Visible (ANSI)
100
AcDbVertex
100
AcDb2dVertex
 10
84.09649008181849
 20
78.09369085995261
 30
0.0
  0
VERTEX
  5
2F2
330
2E5
100
AcDbEntity
  8
Visible (ANSI)
100
AcDbVertex
100
AcDb2dVertex
 10
84.10167927627247
 20
78.09223106241631
 30
0.0
  0
VERTEX
  5
2F3
330
2E5
100
AcDbEntity
  8
Visible (ANSI)
100
AcDbVertex
100
AcDb2dVertex
 10
84.10727090181087
 20
78.09077126488002
 30
0.0
  0
VERTEX
  5
2F4
330
2E5
100
AcDbEntity
  8
Visible (ANSI)
100
AcDbVertex
100
AcDb2dVertex
 10
84.1132410227102
 20
78.08931146734373
 30
0.0
  0
VERTEX
  5
2F5
330
2E5
100
AcDbEntity
  8
Visible (ANSI)
100
AcDbVertex
100
AcDb2dVertex
 10
84.11956407233246
 20
78.08785166980745
 30
0.0
  0
VERTEX
  5
2F6
330
2E5
100
AcDbEntity
  8
Visible (ANSI)
100
AcDbVertex
100
AcDb2dVertex
 10
84.12621297339045
 20
78.08639187227115
 30
0.0
  0
VERTEX
  5
2F7
330
2E5
100
AcDbEntity
  8
Visible (ANSI)
100
AcDbVertex
100
AcDb2dVertex
 10
84.13315925234645
 20
78.08493207473485
 30
0.0
  0
VERTEX
  5
2F8
330
2E5
100
AcDbEntity
  8
Visible (ANSI)
100
AcDbVertex
100
AcDb2dVertex
 10
84.14037316554404
 20
78.08346927349991
 30
0.0
  0
VERTEX
  5
2F9
330
2E5
100
AcDbEntity
  8
Visible (ANSI)
100
AcDbVertex
100
AcDb2dVertex
 10
84.14782382240675
 20
78.08200947596363
 30
0.0
  0
VERTEX
  5
2FA
330
2E5
100
AcDbEntity
  8
Visible (ANSI)
100
AcDbVertex
100
AcDb2dVertex
 10
84.15547931890314
 20
78.08054967842733
 30
0.0
  0
VERTEX
  5
2FB
330
2E5
100
AcDbEntity
  8
Visible (ANSI)
100
AcDbVertex
100
AcDb2dVertex
 10
84.16330687119526
 20
78.07908988089103
 30
0.0
  0
VERTEX
  5
2FC
330
2E5
100
AcDbEntity
  8
Visible (ANSI)
100
AcDbVertex
100
AcDb2dVertex
 10
84.17127296138696
 20
78.07763008335474
 30
0.0
  0
VERTEX
  5
2FD
330
2E5
100
AcDbEntity
  8
Visible (ANSI)
100
AcDbVertex
100
AcDb2dVertex
 10
84.17934347722235
 20
78.07617028581844
 30
0.0
  0
VERTEX
  5
2FE
330
2E5
100
AcDbEntity
  8
Visible (ANSI)
100
AcDbVertex
100
AcDb2dVertex
 10
84.18748386131726
 20
78.07471048828216
 30
0.0
  0
VERTEX
  5
2FF
330
2E5
100
AcDbEntity
  8
Visible (ANSI)
100
AcDbVertex
100
AcDb2dVertex
 10
84.19565925140778
 20
78.07325069074586
 30
0.0
  0
SEQEND
  5
2E8
330
2E5
100
AcDbEntity
  8
Visible (ANSI)
  0
POLYLINE
  5
300
330
6C
100
AcDbEntity
  8
Visible (ANSI)
100
AcDb2dPolyline
 66
     1
 10
0.0
 20
0.0
 30
0.0
 70
   128
  0
VERTEX
  5
301
330
300
100
AcDbEntity
  8
Visible (ANSI)
100
AcDbVertex
100
AcDb2dVertex
 10
84.19565925140778
 20
30.39333274229336
 30
0.0
  0
VERTEX
  5
302
330
300
100
AcDbEntity
  8
Visible (ANSI)
100
AcDbVertex
100
AcDb2dVertex
 10
84.18748386131726
 20
30.39187268662671
 30
0.0
  0
VERTEX
  5
304
330
300
100
AcDbEntity
  8
Visible (ANSI)
100
AcDbVertex
100
AcDb2dVertex
 10
84.17934347722235
 20
30.39041263096006
 30
0.0
  0
VERTEX
  5
305
330
300
100
AcDbEntity
  8
Visible (ANSI)
100
AcDbVertex
100
AcDb2dVertex
 10
84.17127296138696
 20
30.38895258702662
 30
0.0
  0
VERTEX
  5
306
330
300
100
AcDbEntity
  8
Visible (ANSI)
100
AcDbVertex
100
AcDb2dVertex
 10
84.16330687119526
 20
30.38749253135997
 30
0.0
  0
VERTEX
  5
307
330
300
100
AcDbEntity
  8
Visible (ANSI)
100
AcDbVertex
100
AcDb2dVertex
 10
84.15547931890314
 20
30.38603247569333
 30
0.0
  0
VERTEX
  5
308
330
300
100
AcDbEntity
  8
Visible (ANSI)
100
AcDbVertex
100
AcDb2dVertex
 10
84.14782382240675
 20
30.38457242002668
 30
0.0
  0
VERTEX
  5
309
330
300
100
AcDbEntity
  8
Visible (ANSI)
100
AcDbVertex
100
AcDb2dVertex
 10
84.14037316554404
 20
30.38311237609323
 30
0.0
  0
VERTEX
  5
30A
330
300
100
AcDbEntity
  8
Visible (ANSI)
100
AcDbVertex
100
AcDb2dVertex
 10
84.13315925234645
 20
30.38165232042659
 30
0.0
  0
VERTEX
  5
30B
330
300
100
AcDbEntity
  8
Visible (ANSI)
100
AcDbVertex
100
AcDb2dVertex
 10
84.12621297339045
 20
30.38019226475994
 30
0.0
  0
VERTEX
  5
30C
330
300
100
AcDbEntity
  8
Visible (ANSI)
100
AcDbVertex
100
AcDb2dVertex
 10
84.11956407233246
 20
30.3787322090933
 30
0.0
  0
VERTEX
  5
30D
330
300
100
AcDbEntity
  8
Visible (ANSI)
100
AcDbVertex
100
AcDb2dVertex
 10
84.1132410227102
 20
30.37727216515985
 30
0.0
  0
VERTEX
  5
30E
330
300
100
AcDbEntity
  8
Visible (ANSI)
100
AcDbVertex
100
AcDb2dVertex
 10
84.10727090181087
 20
30.3758121094932
 30
0.0
  0
VERTEX
  5
30F
330
300
100
AcDbEntity
  8
Visible (ANSI)
100
AcDbVertex
100
AcDb2dVertex
 10
84.10167927627247
 20
30.37435205382656
 30
0.0
  0
VERTEX
  5
310
330
300
100
AcDbEntity
  8
Visible (ANSI)
100
AcDbVertex
100
AcDb2dVertex
 10
84.09649008181849
 20
30.37289199815991
 30
0.0
  0
VERTEX
  5
311
330
300
100
AcDbEntity
  8
Visible (ANSI)
100
AcDbVertex
100
AcDb2dVertex
 10
84.09172555285874
 20
30.37143195422646
 30
0.0
  0
VERTEX
  5
312
330
300
100
AcDbEntity
  8
Visible (ANSI)
100
AcDbVertex
100
AcDb2dVertex
 10
84.08740607582435
 20
30.36997189855982
 30
0.0
  0
VERTEX
  5
313
330
300
100
AcDbEntity
  8
Visible (ANSI)
100
AcDbVertex
100
AcDb2dVertex
 10
84.0835501598349
 20
30.36851184289317
 30
0.0
  0
VERTEX
  5
314
330
300
100
AcDbEntity
  8
Visible (ANSI)
100
AcDbVertex
100
AcDb2dVertex
 10
84.08017430763303
 20
30.36705179895973
 30
0.0
  0
VERTEX
  5
315
330
300
100
AcDbEntity
  8
Visible (ANSI)
100
AcDbVertex
100
AcDb2dVertex
 10
84.07729298625163
 20
30.36559174329308
 30
0.0
  0
VERTEX
  5
316
330
300
100
AcDbEntity
  8
Visible (ANSI)
100
AcDbVertex
100
AcDb2dVertex
 10
84.07491852141498
 20
30.36413168762643
 30
0.0
  0
VERTEX
  5
317
330
300
100
AcDbEntity
  8
Visible (ANSI)
100
AcDbVertex
100
AcDb2dVertex
 10
84.07306109167217
 20
30.36267163195979
 30
0.0
  0
VERTEX
  5
318
330
300
100
AcDbEntity
  8
Visible (ANSI)
100
AcDbVertex
100
AcDb2dVertex
 10
84.07172864626469
 20
30.36121158802634
 30
0.0
  0
VERTEX
  5
319
330
300
100
AcDbEntity
  8
Visible (ANSI)
100
AcDbVertex
100
AcDb2dVertex
 10
84.07092688752667
 20
30.35975153235969
 30
0.0
  0
VERTEX
  5
31A
330
300
100
AcDbEntity
  8
Visible (ANSI)
100
AcDbVertex
100
AcDb2dVertex
 10
84.07065925328508
 20
30.35829147669305
 30
0.0
  0
SEQEND
  5
303
330
300
100
AcDbEntity
  8
Visible (ANSI)
  0
LINE
  5
31B
330
6C
100
AcDbEntity
  8
Visible (ANSI)
100
AcDbLine
 10
84.94565925187712
 20
30.3933327393066
 30
0.0
 11
84.19565925187713
 21
30.3933327393066
 31
0.0
  0
LINE
  5
31C
330
6C
100
AcDbEntity
  8
Visible (ANSI)
100
AcDbLine
 10
84.16440925187709
 20
30.35829147857036
 30
0.0
 11
84.07065925187708
 21
30.35829147857036
 31
0.0
  0
POLYLINE
  5
31D
330
6C
100
AcDbEntity
  8
Visible (ANSI)
100
AcDb2dPolyline
 66
     1
 10
0.0
 20
0.0
 30
0.0
 70
   128
  0
VERTEX
  5
31E
330
31D
100
AcDbEntity
  8
Visible (ANSI)
100
AcDbVertex
100
AcDb2dVertex
 10
84.16440925187709
 20
30.35829147669305
 30
0.0
  0
VERTEX
  5
31F
330
31D
100
AcDbEntity
  8
Visible (ANSI)
100
AcDbVertex
100
AcDb2dVertex
 10
84.16447616052343
 20
30.35975153235969
 30
0.0
  0
VERTEX
  5
321
330
31D
100
AcDbEntity
  8
Visible (ANSI)
100
AcDbVertex
100
AcDb2dVertex
 10
84.16467659996156
 20
30.36121158802634
 30
0.0
  0
VERTEX
  5
322
330
31D
100
AcDbEntity
  8
Visible (ANSI)
100
AcDbVertex
100
AcDb2dVertex
 10
84.16500971188636
 20
30.36267163195979
 30
0.0
  0
VERTEX
  5
323
330
31D
100
AcDbEntity
  8
Visible (ANSI)
100
AcDbVertex
100
AcDb2dVertex
 10
84.16547406982621
 20
30.36413168762643
 30
0.0
  0
VERTEX
  5
324
330
31D
100
AcDbEntity
  8
Visible (ANSI)
100
AcDbVertex
100
AcDb2dVertex
 10
84.16606768530206
 20
30.36559174329308
 30
0.0
  0
VERTEX
  5
325
330
31D
100
AcDbEntity
  8
Visible (ANSI)
100
AcDbVertex
100
AcDb2dVertex
 10
84.16678801656406
 20
30.36705179895973
 30
0.0
  0
VERTEX
  5
326
330
31D
100
AcDbEntity
  8
Visible (ANSI)
100
AcDbVertex
100
AcDb2dVertex
 10
84.16763197888121
 20
30.36851184289317
 30
0.0
  0
VERTEX
  5
327
330
31D
100
AcDbEntity
  8
Visible (ANSI)
100
AcDbVertex
100
AcDb2dVertex
 10
84.16859595787858
 20
30.36997189855982
 30
0.0
  0
VERTEX
  5
328
330
31D
100
AcDbEntity
  8
Visible (ANSI)
100
AcDbVertex
100
AcDb2dVertex
 10
84.16967582640385
 20
30.37143195422646
 30
0.0
  0
VERTEX
  5
329
330
31D
100
AcDbEntity
  8
Visible (ANSI)
100
AcDbVertex
100
AcDb2dVertex
 10
84.17086695974376
 20
30.37289199815991
 30
0.0
  0
VERTEX
  5
32A
330
31D
100
AcDbEntity
  8
Visible (ANSI)
100
AcDbVertex
100
AcDb2dVertex
 10
84.17216425762395
 20
30.37435205382656
 30
0.0
  0
VERTEX
  5
32B
330
31D
100
AcDbEntity
  8
Visible (ANSI)
100
AcDbVertex
100
AcDb2dVertex
 10
84.17356216474187
 20
30.3758121094932
 30
0.0
  0
VERTEX
  5
32C
330
31D
100
AcDbEntity
  8
Visible (ANSI)
100
AcDbVertex
100
AcDb2dVertex
 10
84.17505469496669
 20
30.37727216515985
 30
0.0
  0
VERTEX
  5
32D
330
31D
100
AcDbEntity
  8
Visible (ANSI)
100
AcDbVertex
100
AcDb2dVertex
 10
84.17663545737227
 20
30.3787322090933
 30
0.0
  0
VERTEX
  5
32E
330
31D
100
AcDbEntity
  8
Visible (ANSI)
100
AcDbVertex
100
AcDb2dVertex
 10
84.17829768263676
 20
30.38019226475994
 30
0.0
  0
VERTEX
  5
32F
330
31D
100
AcDbEntity
  8
Visible (ANSI)
100
AcDbVertex
100
AcDb2dVertex
 10
84.18003425164242
 20
30.38165232042659
 30
0.0
  0
VERTEX
  5
330
330
31D
100
AcDbEntity
  8
Visible (ANSI)
100
AcDbVertex
100
AcDb2dVertex
 10
84.18183773067514
 20
30.38311237609323
 30
0.0
  0
VERTEX
  5
331
330
31D
100
AcDbEntity
  8
Visible (ANSI)
100
AcDbVertex
100
AcDb2dVertex
 10
84.18370039489083
 20
30.38457242002668
 30
0.0
  0
VERTEX
  5
332
330
31D
100
AcDbEntity
  8
Visible (ANSI)
100
AcDbVertex
100
AcDb2dVertex
 10
84.18561426864826
 20
30.38603247569333
 30
0.0
  0
VERTEX
  5
333
330
31D
100
AcDbEntity
  8
Visible (ANSI)
100
AcDbVertex
100
AcDb2dVertex
 10
84.1875711563088
 20
30.38749253135997
 30
0.0
  0
VERTEX
  5
334
330
31D
100
AcDbEntity
  8
Visible (ANSI)
100
AcDbVertex
100
AcDb2dVertex
 10
84.18956267890257
 20
30.38895258702662
 30
0.0
  0
VERTEX
  5
335
330
31D
100
AcDbEntity
  8
Visible (ANSI)
100
AcDbVertex
100
AcDb2dVertex
 10
84.19158030786141
 20
30.39041263096006
 30
0.0
  0
VERTEX
  5
336
330
31D
100
AcDbEntity
  8
Visible (ANSI)
100
AcDbVertex
100
AcDb2dVertex
 10
84.19361540461846
 20
30.39187268662671
 30
0.0
  0
VERTEX
  5
337
330
31D
100
AcDbEntity
  8
Visible (ANSI)
100
AcDbVertex
100
AcDb2dVertex
 10
84.19565925140776
 20
30.39333274229336
 30
0.0
  0
SEQEND
  5
320
330
31D
100
AcDbEntity
  8
Visible (ANSI)
  0
POLYLINE
  5
338
330
6C
100
AcDbEntity
  8
Visible (ANSI)
100
AcDb2dPolyline
 66
     1
 10
0.0
 20
0.0
 30
0.0
 70
   128
  0
VERTEX
  5
339
330
338
100
AcDbEntity
  8
Visible (ANSI)
100
AcDbVertex
100
AcDb2dVertex
 10
84.16440925187709
 20
78.1082918390142
 30
0.0
  0
VERTEX
  5
33A
330
338
100
AcDbEntity
  8
Visible (ANSI)
100
AcDbVertex
100
AcDb2dVertex
 10
84.16447616052343
 20
78.1068320414779
 30
0.0
  0
VERTEX
  5
33C
330
338
100
AcDbEntity
  8
Visible (ANSI)
100
AcDbVertex
100
AcDb2dVertex
 10
84.16467659996156
 20
78.1053722439416
 30
0.0
  0
VERTEX
  5
33D
330
338
100
AcDbEntity
  8
Visible (ANSI)
100
AcDbVertex
100
AcDb2dVertex
 10
84.16500971188636
 20
78.10391244640531
 30
0.0
  0
VERTEX
  5
33E
330
338
100
AcDbEntity
  8
Visible (ANSI)
100
AcDbVertex
100
AcDb2dVertex
 10
84.16547406982621
 20
78.102452648869
 30
0.0
  0
VERTEX
  5
33F
330
338
100
AcDbEntity
  8
Visible (ANSI)
100
AcDbVertex
100
AcDb2dVertex
 10
84.16606768530206
 20
78.1009898476341
 30
0.0
  0
VERTEX
  5
340
330
338
100
AcDbEntity
  8
Visible (ANSI)
100
AcDbVertex
100
AcDb2dVertex
 10
84.16678801656406
 20
78.0995300500978
 30
0.0
  0
VERTEX
  5
341
330
338
100
AcDbEntity
  8
Visible (ANSI)
100
AcDbVertex
100
AcDb2dVertex
 10
84.16763197888121
 20
78.0980702525615
 30
0.0
  0
VERTEX
  5
342
330
338
100
AcDbEntity
  8
Visible (ANSI)
100
AcDbVertex
100
AcDb2dVertex
 10
84.16859595787858
 20
78.0966104550252
 30
0.0
  0
VERTEX
  5
343
330
338
100
AcDbEntity
  8
Visible (ANSI)
100
AcDbVertex
100
AcDb2dVertex
 10
84.16967582640385
 20
78.09515065748891
 30
0.0
  0
VERTEX
  5
344
330
338
100
AcDbEntity
  8
Visible (ANSI)
100
AcDbVertex
100
AcDb2dVertex
 10
84.17086695974376
 20
78.09369085995261
 30
0.0
  0
VERTEX
  5
345
330
338
100
AcDbEntity
  8
Visible (ANSI)
100
AcDbVertex
100
AcDb2dVertex
 10
84.17216425762395
 20
78.09223106241631
 30
0.0
  0
VERTEX
  5
346
330
338
100
AcDbEntity
  8
Visible (ANSI)
100
AcDbVertex
100
AcDb2dVertex
 10
84.17356216474187
 20
78.09077126488002
 30
0.0
  0
VERTEX
  5
347
330
338
100
AcDbEntity
  8
Visible (ANSI)
100
AcDbVertex
100
AcDb2dVertex
 10
84.17505469496669
 20
78.08931146734373
 30
0.0
  0
VERTEX
  5
348
330
338
100
AcDbEntity
  8
Visible (ANSI)
100
AcDbVertex
100
AcDb2dVertex
 10
84.17663545737227
 20
78.08785166980745
 30
0.0
  0
VERTEX
  5
349
330
338
100
AcDbEntity
  8
Visible (ANSI)
100
AcDbVertex
100
AcDb2dVertex
 10
84.17829768263676
 20
78.08639187227115
 30
0.0
  0
VERTEX
  5
34A
330
338
100
AcDbEntity
  8
Visible (ANSI)
100
AcDbVertex
100
AcDb2dVertex
 10
84.18003425164242
 20
78.08493207473485
 30
0.0
  0
VERTEX
  5
34B
330
338
100
AcDbEntity
  8
Visible (ANSI)
100
AcDbVertex
100
AcDb2dVertex
 10
84.18183773067514
 20
78.08346927349991
 30
0.0
  0
VERTEX
  5
34C
330
338
100
AcDbEntity
  8
Visible (ANSI)
100
AcDbVertex
100
AcDb2dVertex
 10
84.18370039489083
 20
78.08200947596363
 30
0.0
  0
VERTEX
  5
34D
330
338
100
AcDbEntity
  8
Visible (ANSI)
100
AcDbVertex
100
AcDb2dVertex
 10
84.18561426864826
 20
78.08054967842733
 30
0.0
  0
VERTEX
  5
34E
330
338
100
AcDbEntity
  8
Visible (ANSI)
100
AcDbVertex
100
AcDb2dVertex
 10
84.1875711563088
 20
78.07908988089103
 30
0.0
  0
VERTEX
  5
34F
330
338
100
AcDbEntity
  8
Visible (ANSI)
100
AcDbVertex
100
AcDb2dVertex
 10
84.18956267890257
 20
78.07763008335474
 30
0.0
  0
VERTEX
  5
350
330
338
100
AcDbEntity
  8
Visible (ANSI)
100
AcDbVertex
100
AcDb2dVertex
 10
84.19158030786141
 20
78.07617028581844
 30
0.0
  0
VERTEX
  5
351
330
338
100
AcDbEntity
  8
Visible (ANSI)
100
AcDbVertex
100
AcDb2dVertex
 10
84.19361540461846
 20
78.07471048828216
 30
0.0
  0
VERTEX
  5
352
330
338
100
AcDbEntity
  8
Visible (ANSI)
100
AcDbVertex
100
AcDb2dVertex
 10
84.19565925140776
 20
78.07325069074586
 30
0.0
  0
SEQEND
  5
33B
330
338
100
AcDbEntity
  8
Visible (ANSI)
  0
LINE
  5
353
330
6C
100
AcDbEntity
  8
Visible (ANSI)
100
AcDbLine
 10
84.16440925187709
 20
78.10829147857036
 30
0.0
 11
84.07065925187708
 21
78.10829147857036
 31
0.0
  0
LINE
  5
354
330
6C
100
AcDbEntity
  8
Visible (ANSI)
100
AcDbLine
 10
84.19565925187713
 20
78.07325021783412
 30
0.0
 11
84.94565925187712
 21
78.07325021783412
 31
0.0
  0
POLYLINE
  5
355
330
6C
100
AcDbEntity
  8
Visible (ANSI)
100
AcDb2dPolyline
 66
     1
 10
0.0
 20
0.0
 30
0.0
 70
   128
  0
VERTEX
  5
356
330
355
100
AcDbEntity
  8
Visible (ANSI)
100
AcDbVertex
100
AcDb2dVertex
 10
84.19565925140775
 20
78.2332907576827
 30
0.0
  0
VERTEX
  5
357
330
355
100
AcDbEntity
  8
Visible (ANSI)
100
AcDbVertex
100
AcDb2dVertex
 10
84.18748386131722
 20
78.23302342850422
 30
0.0
  0
VERTEX
  5
359
330
355
100
AcDbEntity
  8
Visible (ANSI)
100
AcDbVertex
100
AcDb2dVertex
 10
84.1793434772223
 20
78.23222144096885
 30
0.0
  0
VERTEX
  5
35A
330
355
100
AcDbEntity
  8
Visible (ANSI)
100
AcDbVertex
100
AcDb2dVertex
 10
84.17127296138692
 20
78.23089080247384
 30
0.0
  0
VERTEX
  5
35B
330
355
100
AcDbEntity
  8
Visible (ANSI)
100
AcDbVertex
100
AcDb2dVertex
 10
84.16330687119522
 20
78.22903151301918
 30
0.0
  0
VERTEX
  5
35C
330
355
100
AcDbEntity
  8
Visible (ANSI)
100
AcDbVertex
100
AcDb2dVertex
 10
84.15547931890309
 20
78.22665859109803
 30
0.0
  0
VERTEX
  5
35D
330
355
100
AcDbEntity
  8
Visible (ANSI)
100
AcDbVertex
100
AcDb2dVertex
 10
84.14782382240671
 20
78.22377504040907
 30
0.0
  0
VERTEX
  5
35E
330
355
100
AcDbEntity
  8
Visible (ANSI)
100
AcDbVertex
100
AcDb2dVertex
 10
84.140373165544
 20
78.22040188684269
 30
0.0
  0
VERTEX
  5
35F
330
355
100
AcDbEntity
  8
Visible (ANSI)
100
AcDbVertex
100
AcDb2dVertex
 10
84.13315925234639
 20
78.21654513779619
 30
0.0
  0
VERTEX
  5
360
330
355
100
AcDbEntity
  8
Visible (ANSI)
100
AcDbVertex
100
AcDb2dVertex
 10
84.12621297339041
 20
78.21222581915998
 30
0.0
  0
VERTEX
  5
361
330
355
100
AcDbEntity
  8
Visible (ANSI)
100
AcDbVertex
100
AcDb2dVertex
 10
84.11956407233242
 20
78.2074619531259
 30
0.0
  0
VERTEX
  5
362
330
355
100
AcDbEntity
  8
Visible (ANSI)
100
AcDbVertex
100
AcDb2dVertex
 10
84.11324102271017
 20
78.20227156188575
 30
0.0
  0
VERTEX
  5
363
330
355
100
AcDbEntity
  8
Visible (ANSI)
100
AcDbVertex
100
AcDb2dVertex
 10
84.10727090181083
 20
78.19667867502857
 30
0.0
  0
VERTEX
  5
364
330
355
100
AcDbEntity
  8
Visible (ANSI)
100
AcDbVertex
100
AcDb2dVertex
 10
84.10167927627245
 20
78.19071032584213
 30
0.0
  0
VERTEX
  5
365
330
355
100
AcDbEntity
  8
Visible (ANSI)
100
AcDbVertex
100
AcDb2dVertex
 10
84.09649008181846
 20
78.18438754021683
 30
0.0
  0
VERTEX
  5
366
330
355
100
AcDbEntity
  8
Visible (ANSI)
100
AcDbVertex
100
AcDb2dVertex
 10
84.0917255528587
 20
78.17773735144038
 30
0.0
  0
VERTEX
  5
367
330
355
100
AcDbEntity
  8
Visible (ANSI)
100
AcDbVertex
100
AcDb2dVertex
 10
84.08740607582435
 20
78.17079280019775
 30
0.0
  0
VERTEX
  5
368
330
355
100
AcDbEntity
  8
Visible (ANSI)
100
AcDbVertex
100
AcDb2dVertex
 10
84.08355015983486
 20
78.16357791607804
 30
0.0
  0
VERTEX
  5
369
330
355
100
AcDbEntity
  8
Visible (ANSI)
100
AcDbVertex
100
AcDb2dVertex
 10
84.08017430763301
 20
78.15612573976622
 30
0.0
  0
VERTEX
  5
36A
330
355
100
AcDbEntity
  8
Visible (ANSI)
100
AcDbVertex
100
AcDb2dVertex
 10
84.07729298625161
 20
78.14847231564589
 30
0.0
  0
VERTEX
  5
36B
330
355
100
AcDbEntity
  8
Visible (ANSI)
100
AcDbVertex
100
AcDb2dVertex
 10
84.07491852141497
 20
78.14064467700477
 30
0.0
  0
VERTEX
  5
36C
330
355
100
AcDbEntity
  8
Visible (ANSI)
100
AcDbVertex
100
AcDb2dVertex
 10
84.07306109167217
 20
78.13267886822649
 30
0.0
  0
VERTEX
  5
36D
330
355
100
AcDbEntity
  8
Visible (ANSI)
100
AcDbVertex
100
AcDb2dVertex
 10
84.07172864626469
 20
78.12460792999599
 30
0.0
  0
VERTEX
  5
36E
330
355
100
AcDbEntity
  8
Visible (ANSI)
100
AcDbVertex
100
AcDb2dVertex
 10
84.07092688752667
 20
78.1164679066969
 30
0.0
  0
VERTEX
  5
36F
330
355
100
AcDbEntity
  8
Visible (ANSI)
100
AcDbVertex
100
AcDb2dVertex
 10
84.07065925328508
 20
78.1082918390142
 30
0.0
  0
SEQEND
  5
358
330
355
100
AcDbEntity
  8
Visible (ANSI)
  0
LINE
  5
370
330
6C
100
AcDbEntity
  8
Visible (ANSI)
100
AcDbLine
 10
84.19565925187709
 20
78.13954147857036
 30
0.0
 11
84.94565925187709
 21
78.13954147857032
 31
0.0
  0
LINE
  5
371
330
6C
100
AcDbEntity
  8
Visible (ANSI)
100
AcDbLine
 10
84.94565925187711
 20
78.2332914785703
 30
0.0
 11
84.19565925187709
 21
78.23329147857037
 31
0.0
  0
LINE
  5
372
330
6C
100
AcDbEntity
  8
Visible (ANSI)
100
AcDbLine
 10
84.19565925187709
 20
78.13954147857036
 30
0.0
 11
84.19565925187709
 21
78.23329147857037
 31
0.0
  0
LINE
  5
373
330
6C
100
AcDbEntity
  8
Visible (ANSI)
100
AcDbLine
 10
84.94565925187709
 20
78.13954147857032
 30
0.0
 11
84.94565925187711
 21
78.2332914785703
 31
0.0
  0
POLYLINE
  5
374
330
6C
100
AcDbEntity
  8
Visible (ANSI)
100
AcDb2dPolyline
 66
     1
 10
0.0
 20
0.0
 30
0.0
 70
   128
  0
VERTEX
  5
375
330
374
100
AcDbEntity
  8
Visible (ANSI)
100
AcDbVertex
100
AcDb2dVertex
 10
84.16440925187709
 20
78.1082918390142
 30
0.0
  0
VERTEX
  5
376
330
374
100
AcDbEntity
  8
Visible (ANSI)
100
AcDbVertex
100
AcDb2dVertex
 10
84.16447616052343
 20
78.11033435408555
 30
0.0
  0
VERTEX
  5
378
330
374
100
AcDbEntity
  8
Visible (ANSI)
100
AcDbVertex
100
AcDb2dVertex
 10
84.16467659996156
 20
78.11237086175964
 30
0.0
  0
VERTEX
  5
379
330
374
100
AcDbEntity
  8
Visible (ANSI)
100
AcDbVertex
100
AcDb2dVertex
 10
84.16500971188636
 20
78.11438934724193
 30
0.0
  0
VERTEX
  5
37A
330
374
100
AcDbEntity
  8
Visible (ANSI)
100
AcDbVertex
100
AcDb2dVertex
 10
84.16547406982621
 20
78.1163807994365
 30
0.0
  0
VERTEX
  5
37B
330
374
100
AcDbEntity
  8
Visible (ANSI)
100
AcDbVertex
100
AcDb2dVertex
 10
84.16606768530206
 20
78.11833620724747
 30
0.0
  0
VERTEX
  5
37C
330
374
100
AcDbEntity
  8
Visible (ANSI)
100
AcDbVertex
100
AcDb2dVertex
 10
84.16678801656406
 20
78.12024956327753
 30
0.0
  0
VERTEX
  5
37D
330
374
100
AcDbEntity
  8
Visible (ANSI)
100
AcDbVertex
100
AcDb2dVertex
 10
84.16763197888121
 20
78.12211185643083
 30
0.0
  0
VERTEX
  5
37E
330
374
100
AcDbEntity
  8
Visible (ANSI)
100
AcDbVertex
100
AcDb2dVertex
 10
84.16859595787856
 20
78.12391707931007
 30
0.0
  0
VERTEX
  5
37F
330
374
100
AcDbEntity
  8
Visible (ANSI)
100
AcDbVertex
100
AcDb2dVertex
 10
84.16967582640383
 20
78.12565321712074
 30
0.0
  0
VERTEX
  5
380
330
374
100
AcDbEntity
  8
Visible (ANSI)
100
AcDbVertex
100
AcDb2dVertex
 10
84.17086695974374
 20
78.12731426246553
 30
0.0
  0
VERTEX
  5
381
330
374
100
AcDbEntity
  8
Visible (ANSI)
100
AcDbVertex
100
AcDb2dVertex
 10
84.17216425762394
 20
78.12889721164585
 30
0.0
  0
VERTEX
  5
382
330
374
100
AcDbEntity
  8
Visible (ANSI)
100
AcDbVertex
100
AcDb2dVertex
 10
84.17356216474185
 20
78.1303900498671
 30
0.0
  0
VERTEX
  5
383
330
374
100
AcDbEntity
  8
Visible (ANSI)
100
AcDbVertex
100
AcDb2dVertex
 10
84.17505469496669
 20
78.13178676973207
 30
0.0
  0
VERTEX
  5
384
330
374
100
AcDbEntity
  8
Visible (ANSI)
100
AcDbVertex
100
AcDb2dVertex
 10
84.17663545737225
 20
78.13308436754212
 30
0.0
  0
VERTEX
  5
385
330
374
100
AcDbEntity
  8
Visible (ANSI)
100
AcDbVertex
100
AcDb2dVertex
 10
84.17829768263674
 20
78.13427383220133
 30
0.0
  0
VERTEX
  5
386
330
374
100
AcDbEntity
  8
Visible (ANSI)
100
AcDbVertex
100
AcDb2dVertex
 10
84.18003425164242
 20
78.13535516370968
 30
0.0
  0
VERTEX
  5
387
330
374
100
AcDbEntity
  8
Visible (ANSI)
100
AcDbVertex
100
AcDb2dVertex
 10
84.18183773067513
 20
78.13631935097131
 30
0.0
  0
VERTEX
  5
388
330
374
100
AcDbEntity
  8
Visible (ANSI)
100
AcDbVertex
100
AcDb2dVertex
 10
84.18370039489081
 20
78.13716339028757
 30
0.0
  0
VERTEX
  5
389
330
374
100
AcDbEntity
  8
Visible (ANSI)
100
AcDbVertex
100
AcDb2dVertex
 10
84.18561426864824
 20
78.13788427795981
 30
0.0
  0
VERTEX
  5
38A
330
374
100
AcDbEntity
  8
Visible (ANSI)
100
AcDbVertex
100
AcDb2dVertex
 10
84.1875711563088
 20
78.13847600659078
 30
0.0
  0
VERTEX
  5
38B
330
374
100
AcDbEntity
  8
Visible (ANSI)
100
AcDbVertex
100
AcDb2dVertex
 10
84.18956267890255
 20
78.1389415798791
 30
0.0
  0
VERTEX
  5
38C
330
374
100
AcDbEntity
  8
Visible (ANSI)
100
AcDbVertex
100
AcDb2dVertex
 10
84.19158030786139
 20
78.13927499042752
 30
0.0
  0
VERTEX
  5
38D
330
374
100
AcDbEntity
  8
Visible (ANSI)
100
AcDbVertex
100
AcDb2dVertex
 10
84.19361540461844
 20
78.13947323453738
 30
0.0
  0
VERTEX
  5
38E
330
374
100
AcDbEntity
  8
Visible (ANSI)
100
AcDbVertex
100
AcDb2dVertex
 10
84.19565925140775
 20
78.13954231960598
 30
0.0
  0
SEQEND
  5
377
330
374
100
AcDbEntity
  8
Visible (ANSI)
  0
POLYLINE
  5
38F
330
6C
100
AcDbEntity
  8
Visible (ANSI)
100
AcDb2dPolyline
 66
     1
 10
0.0
 20
0.0
 30
0.0
 70
   128
  0
VERTEX
  5
390
330
38F
100
AcDbEntity
  8
Visible (ANSI)
100
AcDbVertex
100
AcDb2dVertex
 10
84.07065925328508
 20
30.35829147669305
 30
0.0
  0
VERTEX
  5
391
330
38F
100
AcDbEntity
  8
Visible (ANSI)
100
AcDbVertex
100
AcDb2dVertex
 10
84.07092688752667
 20
30.35011608953582
 30
0.0
  0
VERTEX
  5
393
330
38F
100
AcDbEntity
  8
Visible (ANSI)
100
AcDbVertex
100
AcDb2dVertex
 10
84.07172864626469
 20
30.34197570250759
 30
0.0
  0
VERTEX
  5
394
330
38F
100
AcDbEntity
  8
Visible (ANSI)
100
AcDbVertex
100
AcDb2dVertex
 10
84.07306109167217
 20
30.33390518667222
 30
0.0
  0
VERTEX
  5
395
330
38F
100
AcDbEntity
  8
Visible (ANSI)
100
AcDbVertex
100
AcDb2dVertex
 10
84.07491852141497
 20
30.32593909629718
 30
0.0
  0
VERTEX
  5
396
330
38F
100
AcDbEntity
  8
Visible (ANSI)
100
AcDbVertex
100
AcDb2dVertex
 10
84.07729298625161
 20
30.31811154565504
 30
0.0
  0
VERTEX
  5
397
330
38F
100
AcDbEntity
  8
Visible (ANSI)
100
AcDbVertex
100
AcDb2dVertex
 10
84.08017430763301
 20
30.3104560506253
 30
0.0
  0
VERTEX
  5
398
330
38F
100
AcDbEntity
  8
Visible (ANSI)
100
AcDbVertex
100
AcDb2dVertex
 10
84.08355015983486
 20
30.3030053937626
 30
0.0
  0
VERTEX
  5
399
330
38F
100
AcDbEntity
  8
Visible (ANSI)
100
AcDbVertex
100
AcDb2dVertex
 10
84.08740607582435
 20
30.29579147763171
 30
0.0
  0
VERTEX
  5
39A
330
38F
100
AcDbEntity
  8
Visible (ANSI)
100
AcDbVertex
100
AcDb2dVertex
 10
84.0917255528587
 20
30.28884520160901
 30
0.0
  0
VERTEX
  5
39B
330
38F
100
AcDbEntity
  8
Visible (ANSI)
100
AcDbVertex
100
AcDb2dVertex
 10
84.09649008181846
 20
30.28219630055102
 30
0.0
  0
VERTEX
  5
39C
330
38F
100
AcDbEntity
  8
Visible (ANSI)
100
AcDbVertex
100
AcDb2dVertex
 10
84.10167927627245
 20
30.27587325092876
 30
0.0
  0
VERTEX
  5
39D
330
38F
100
AcDbEntity
  8
Visible (ANSI)
100
AcDbVertex
100
AcDb2dVertex
 10
84.10727090181083
 20
30.26990313002944
 30
0.0
  0
VERTEX
  5
39E
330
38F
100
AcDbEntity
  8
Visible (ANSI)
100
AcDbVertex
100
AcDb2dVertex
 10
84.11324102271017
 20
30.26431150155774
 30
0.0
  0
VERTEX
  5
39F
330
38F
100
AcDbEntity
  8
Visible (ANSI)
100
AcDbVertex
100
AcDb2dVertex
 10
84.11956407233242
 20
30.25912231003706
 30
0.0
  0
VERTEX
  5
3A0
330
38F
100
AcDbEntity
  8
Visible (ANSI)
100
AcDbVertex
100
AcDb2dVertex
 10
84.12621297339041
 20
30.25435777667735
 30
0.0
  0
VERTEX
  5
3A1
330
38F
100
AcDbEntity
  8
Visible (ANSI)
100
AcDbVertex
100
AcDb2dVertex
 10
84.13315925234639
 20
30.25003830257628
 30
0.0
  0
VERTEX
  5
3A2
330
38F
100
AcDbEntity
  8
Visible (ANSI)
100
AcDbVertex
100
AcDb2dVertex
 10
84.140373165544
 20
30.24618238658682
 30
0.0
  0
VERTEX
  5
3A3
330
38F
100
AcDbEntity
  8
Visible (ANSI)
100
AcDbVertex
100
AcDb2dVertex
 10
84.14782382240671
 20
30.24280653731826
 30
0.0
  0
VERTEX
  5
3A4
330
38F
100
AcDbEntity
  8
Visible (ANSI)
100
AcDbVertex
100
AcDb2dVertex
 10
84.15547931890309
 20
30.23992521227023
 30
0.0
  0
VERTEX
  5
3A5
330
38F
100
AcDbEntity
  8
Visible (ANSI)
100
AcDbVertex
100
AcDb2dVertex
 10
84.16330687119522
 20
30.23755075036689
 30
0.0
  0
VERTEX
  5
3A6
330
38F
100
AcDbEntity
  8
Visible (ANSI)
100
AcDbVertex
100
AcDb2dVertex
 10
84.17127296138692
 20
30.23569331860743
 30
0.0
  0
VERTEX
  5
3A7
330
38F
100
AcDbEntity
  8
Visible (ANSI)
100
AcDbVertex
100
AcDb2dVertex
 10
84.1793434772223
 20
30.23436087090831
 30
0.0
  0
VERTEX
  5
3A8
330
38F
100
AcDbEntity
  8
Visible (ANSI)
100
AcDbVertex
100
AcDb2dVertex
 10
84.18748386131722
 20
30.23355911315571
 30
0.0
  0
VERTEX
  5
3A9
330
38F
100
AcDbEntity
  8
Visible (ANSI)
100
AcDbVertex
100
AcDb2dVertex
 10
84.19565925140775
 20
30.23329147857036
 30
0.0
  0
SEQEND
  5
392
330
38F
100
AcDbEntity
  8
Visible (ANSI)
  0
LINE
  5
3AA
330
6C
100
AcDbEntity
  8
Visible (ANSI)
100
AcDbLine
 10
84.19565925187708
 20
30.32704147857036
 30
0.0
 11
84.94565925187707
 21
30.32704147857036
 31
0.0
  0
LINE
  5
3AB
330
6C
100
AcDbEntity
  8
Visible (ANSI)
100
AcDbLine
 10
84.19565925187708
 20
30.32704147857036
 30
0.0
 11
84.19565925187708
 21
30.23329147857036
 31
0.0
  0
POLYLINE
  5
3AC
330
6C
100
AcDbEntity
  8
Visible (ANSI)
100
AcDb2dPolyline
 66
     1
 10
0.0
 20
0.0
 30
0.0
 70
   128
  0
VERTEX
  5
3AD
330
3AC
100
AcDbEntity
  8
Visible (ANSI)
100
AcDbVertex
100
AcDb2dVertex
 10
84.16440925187709
 20
30.35829147669305
 30
0.0
  0
VERTEX
  5
3AE
330
3AC
100
AcDbEntity
  8
Visible (ANSI)
100
AcDbVertex
100
AcDb2dVertex
 10
84.16447616052343
 20
30.35624763577034
 30
0.0
  0
VERTEX
  5
3B0
330
3AC
100
AcDbEntity
  8
Visible (ANSI)
100
AcDbVertex
100
AcDb2dVertex
 10
84.16467659996156
 20
30.35421253607998
 30
0.0
  0
VERTEX
  5
3B1
330
3AC
100
AcDbEntity
  8
Visible (ANSI)
100
AcDbVertex
100
AcDb2dVertex
 10
84.16500971188636
 20
30.35219490712114
 30
0.0
  0
VERTEX
  5
3B2
330
3AC
100
AcDbEntity
  8
Visible (ANSI)
100
AcDbVertex
100
AcDb2dVertex
 10
84.16547406982621
 20
30.35020338452738
 30
0.0
  0
VERTEX
  5
3B3
330
3AC
100
AcDbEntity
  8
Visible (ANSI)
100
AcDbVertex
100
AcDb2dVertex
 10
84.16606768530206
 20
30.3482464983335
 30
0.0
  0
VERTEX
  5
3B4
330
3AC
100
AcDbEntity
  8
Visible (ANSI)
100
AcDbVertex
100
AcDb2dVertex
 10
84.16678801656406
 20
30.34633262604271
 30
0.0
  0
VERTEX
  5
3B5
330
3AC
100
AcDbEntity
  8
Visible (ANSI)
100
AcDbVertex
100
AcDb2dVertex
 10
84.16763197888121
 20
30.34446995742709
 30
0.0
  0
VERTEX
  5
3B6
330
3AC
100
AcDbEntity
  8
Visible (ANSI)
100
AcDbVertex
100
AcDb2dVertex
 10
84.16859595787856
 20
30.34266648279431
 30
0.0
  0
VERTEX
  5
3B7
330
3AC
100
AcDbEntity
  8
Visible (ANSI)
100
AcDbVertex
100
AcDb2dVertex
 10
84.16967582640383
 20
30.34092991085534
 30
0.0
  0
VERTEX
  5
3B8
330
3AC
100
AcDbEntity
  8
Visible (ANSI)
100
AcDbVertex
100
AcDb2dVertex
 10
84.17086695974374
 20
30.33926768045756
 30
0.0
  0
VERTEX
  5
3B9
330
3AC
100
AcDbEntity
  8
Visible (ANSI)
100
AcDbVertex
100
AcDb2dVertex
 10
84.17216425762394
 20
30.33768692538524
 30
0.0
  0
VERTEX
  5
3BA
330
3AC
100
AcDbEntity
  8
Visible (ANSI)
100
AcDbVertex
100
AcDb2dVertex
 10
84.17356216474185
 20
30.33619439222712
 30
0.0
  0
VERTEX
  5
3BB
330
3AC
100
AcDbEntity
  8
Visible (ANSI)
100
AcDbVertex
100
AcDb2dVertex
 10
84.17505469496669
 20
30.33479648730917
 30
0.0
  0
VERTEX
  5
3BC
330
3AC
100
AcDbEntity
  8
Visible (ANSI)
100
AcDbVertex
100
AcDb2dVertex
 10
84.17663545737225
 20
30.33349918282908
 30
0.0
  0
VERTEX
  5
3BD
330
3AC
100
AcDbEntity
  8
Visible (ANSI)
100
AcDbVertex
100
AcDb2dVertex
 10
84.17829768263674
 20
30.33230805205579
 30
0.0
  0
VERTEX
  5
3BE
330
3AC
100
AcDbEntity
  8
Visible (ANSI)
100
AcDbVertex
100
AcDb2dVertex
 10
84.18003425164242
 20
30.33122818719715
 30
0.0
  0
VERTEX
  5
3BF
330
3AC
100
AcDbEntity
  8
Visible (ANSI)
100
AcDbVertex
100
AcDb2dVertex
 10
84.18183773067513
 20
30.33026420526648
 30
0.0
  0
VERTEX
  5
3C0
330
3AC
100
AcDbEntity
  8
Visible (ANSI)
100
AcDbVertex
100
AcDb2dVertex
 10
84.18370039489081
 20
30.32942024221601
 30
0.0
  0
VERTEX
  5
3C1
330
3AC
100
AcDbEntity
  8
Visible (ANSI)
100
AcDbVertex
100
AcDb2dVertex
 10
84.18561426864824
 20
30.32869991187066
 30
0.0
  0
VERTEX
  5
3C2
330
3AC
100
AcDbEntity
  8
Visible (ANSI)
100
AcDbVertex
100
AcDb2dVertex
 10
84.1875711563088
 20
30.32810629419485
 30
0.0
  0
VERTEX
  5
3C3
330
3AC
100
AcDbEntity
  8
Visible (ANSI)
100
AcDbVertex
100
AcDb2dVertex
 10
84.18956267890255
 20
30.3276419411591
 30
0.0
  0
VERTEX
  5
3C4
330
3AC
100
AcDbEntity
  8
Visible (ANSI)
100
AcDbVertex
100
AcDb2dVertex
 10
84.19158030786139
 20
30.32730882394063
 30
0.0
  0
VERTEX
  5
3C5
330
3AC
100
AcDbEntity
  8
Visible (ANSI)
100
AcDbVertex
100
AcDb2dVertex
 10
84.19361540461844
 20
30.32710838572278
 30
0.0
  0
VERTEX
  5
3C6
330
3AC
100
AcDbEntity
  8
Visible (ANSI)
100
AcDbVertex
100
AcDb2dVertex
 10
84.19565925140775
 20
30.32704147716238
 30
0.0
  0
SEQEND
  5
3AF
330
3AC
100
AcDbEntity
  8
Visible (ANSI)
  0
LINE
  5
3C7
330
6C
100
AcDbEntity
  8
Visible (ANSI)
100
AcDbLine
 10
84.19565925187708
 20
30.23329147857036
 30
0.0
 11
84.94565925187707
 21
30.23329147857036
 31
0.0
  0
LINE
  5
3C8
330
6C
100
AcDbEntity
  8
Visible (ANSI)
100
AcDbLine
 10
84.94565925187707
 20
30.32704147857036
 30
0.0
 11
84.94565925187707
 21
30.23329147857036
 31
0.0
  0
LINE
  5
3C9
330
6C
100
AcDbEntity
  8
Visible (ANSI)
100
AcDbLine
 10
84.07065925187708
 20
30.35829147857036
 30
0.0
 11
84.07065925187708
 21
78.10829147857036
 31
0.0
  0
LINE
  5
3CA
330
6C
100
AcDbEntity
  8
Hidden (ANSI)
100
AcDbLine
 10
84.16440925187709
 20
78.10829147857036
 30
0.0
 11
84.16440925187709
 21
30.35829147857036
 31
0.0
  0
LINE
  5
3CB
330
6C
100
AcDbEntity
  8
Visible (ANSI)
100
AcDbLine
 10
84.94565925187712
 20
78.07325021783412
 30
0.0
 11
84.94565925187712
 21
30.3933327393066
 31
0.0
  0
LINE
  5
3CC
330
6C
100
AcDbEntity
  8
Hidden (ANSI)
100
AcDbLine
 10
84.16440925187686
 20
53.95179147857036
 30
0.0
 11
84.07065925187685
 21
53.95179147857036
 31
0.0
  0
LINE
  5
3CD
330
6C
100
AcDbEntity
  8
Hidden (ANSI)
100
AcDbLine
 10
84.16440925187686
 20
54.51479147857035
 30
0.0
 11
84.07065925187685
 21
54.51479147857035
 31
0.0
  0
LINE
  5
3CE
330
6C
100
AcDbEntity
  8
Hidden (ANSI)
100
AcDbLine
 10
84.16440925187686
 20
77.07679147857035
 30
0.0
 11
84.07065925187685
 21
77.07679147857035
 31
0.0
  0
LINE
  5
3CF
330
6C
100
AcDbEntity
  8
Hidden (ANSI)
100
AcDbLine
 10
84.16440925187686
 20
77.63979147857035
 30
0.0
 11
84.07065925187685
 21
77.63979147857035
 31
0.0
  0
LINE
  5
3D0
330
6C
100
AcDbEntity
  8
Hidden (ANSI)
100
AcDbLine
 10
84.16440925187686
 20
30.82679147857036
 30
0.0
 11
84.07065925187685
 21
30.82679147857036
 31
0.0
  0
LINE
  5
3D1
330
6C
100
AcDbEntity
  8
Hidden (ANSI)
100
AcDbLine
 10
84.16440925187686
 20
31.38979147857036
 30
0.0
 11
84.07065925187685
 21
31.38979147857036
 31
0.0
  0
MTEXT
  5
3D2
330
6C
100
AcDbEntity
  8
Symbol (ANSI)
100
AcDbMText
 10
80.51498030789389
 20
23.12190333008784
 30
0.0
 40
1.200000014830761
 41
0.0
 46
0.0
 71
     7
 72
     1
  1
SIDE VIEW
  7
Text Style153
 73
     1
 44
1.0
  0
LINE
  5
3D3
330
6C
100
AcDbEntity
  8
Symbol (ANSI)
370
    30
100
AcDbLine
 10
80.45354014984775
 20
22.87329716844077
 30
0.0
 11
88.56277835390269
 21
22.87329716844077
 31
0.0
  0
ELLIPSE
  5
3D4
330
6C
100
AcDbEntity
  8
Visible (ANSI)
100
AcDbEllipse
 10
142.3304168699343
 20
46.31209510273694
 30
0.0
 11
-0.1755969594512628
 21
0.304929046593583
 31
0.0
210
0.0
220
0.0
230
0.9999999999999998
 40
0.5780931159158092
 41
0.0
 42
6.283185307179586
  0
ELLIPSE
  5
3D5
330
6C
100
AcDbEntity
  8
Visible (ANSI)
100
AcDbEllipse
 10
142.4132809458546
 20
46.35981335044699
 30
0.0
 11
-0.1755969594512609
 21
0.3049290465935797
 31
0.0
210
0.0
220
0.0
230
1.0
 40
0.5780931159158092
 41
0.2372585647784021
 42
2.904334088811359
  0
ELLIPSE
  5
3D6
330
6C
100
AcDbEntity
  8
Visible (ANSI)
100
AcDbEllipse
 10
115.592941706314
 20
61.70918303050746
 30
0.0
 11
-0.1755969594512628
 21
0.304929046593583
 31
0.0
210
0.0
220
0.0
230
0.9999999999999998
 40
0.5780931159158092
 41
0.0
 42
6.283185307179586
  0
ELLIPSE
  5
3D7
330
6C
100
AcDbEntity
  8
Visible (ANSI)
100
AcDbEllipse
 10
115.6758057822343
 20
61.7569012782175
 30
0.0
 11
-0.1755969594512627
 21
0.3049290465935829
 31
0.0
210
0.0
220
0.0
230
0.9999999999999998
 40
0.578093115915809
 41
0.2372585647784559
 42
2.904334088811409
  0
ELLIPSE
  5
3D8
330
6C
100
AcDbEntity
  8
Visible (ANSI)
100
AcDbEllipse
 10
142.3304168699343
 20
69.94431668021653
 30
0.0
 11
-0.1755969594512628
 21
0.304929046593583
 31
0.0
210
0.0
220
0.0
230
0.9999999999999998
 40
0.5780931159158092
 41
0.0
 42
6.283185307179586
  0
ELLIPSE
  5
3D9
330
6C
100
AcDbEntity
  8
Visible (ANSI)
100
AcDbEllipse
 10
142.4132809458546
 20
69.99203492792656
 30
0.0
 11
-0.1755969594512638
 21
0.3049290465935849
 31
0.0
210
0.0
220
0.0
230
1.0
 40
0.5780931159158089
 41
0.2372585647783817
 42
2.904334088811346
  0
ELLIPSE
  5
3DA
330
6C
100
AcDbEntity
  8
Visible (ANSI)
100
AcDbEllipse
 10
115.592941706314
 20
85.34140460798703
 30
0.0
 11
-0.1755969594512628
 21
0.304929046593583
 31
0.0
210
0.0
220
0.0
230
0.9999999999999998
 40
0.5780931159158092
 41
0.0
 42
6.283185307179586
  0
ELLIPSE
  5
3DB
330
6C
100
AcDbEntity
  8
Visible (ANSI)
100
AcDbEllipse
 10
115.6758057822343
 20
85.38912285569708
 30
0.0
 11
-0.1755969594512623
 21
0.3049290465935823
 31
0.0
210
0.0
220
0.0
230
1.0
 40
0.5780931159158093
 41
0.2372585647783811
 42
2.904334088811346
  0
ELLIPSE
  5
3DC
330
6C
100
AcDbEntity
  8
Visible (ANSI)
100
AcDbEllipse
 10
115.5929417063139
 20
38.07696145302788
 30
0.0
 11
-0.1755969594512628
 21
0.304929046593583
 31
0.0
210
0.0
220
0.0
230
0.9999999999999998
 40
0.5780931159158092
 41
0.0
 42
6.283185307179586
  0
ELLIPSE
  5
3DD
330
6C
100
AcDbEntity
  8
Visible (ANSI)
100
AcDbEllipse
 10
115.6758057822342
 20
38.12467970073793
 30
0.0
 11
-0.1755969594512626
 21
0.3049290465935829
 31
0.0
210
0.0
220
0.0
230
1.0
 40
0.5780931159158092
 41
0.2372585647784558
 42
2.904334088811347
  0
ELLIPSE
  5
3DE
330
6C
100
AcDbEntity
  8
Visible (ANSI)
100
AcDbEllipse
 10
142.3304168699342
 20
22.67987352525737
 30
0.0
 11
-0.1755969594512628
 21
0.304929046593583
 31
0.0
210
0.0
220
0.0
230
0.9999999999999998
 40
0.5780931159158092
 41
0.0
 42
6.283185307179586
  0
ELLIPSE
  5
3DF
330
6C
100
AcDbEntity
  8
Visible (ANSI)
100
AcDbEllipse
 10
142.4132809458545
 20
22.72759177296742
 30
0.0
 11
-0.1755969594512634
 21
0.3049290465935841
 31
0.0
210
0.0
220
0.0
230
1.0
 40
0.578093115915809
 41
0.2372585647783714
 42
2.904334088811346
  0
LINE
  5
3E0
330
6C
100
AcDbEntity
  8
Visible Narrow (ANSI)
100
AcDbLine
 10
143.2143003464176
 20
70.29321127561896
 30
0.0
 11
143.2143003464175
 21
21.56748696649447
 31
0.0
  0
LINE
  5
3E1
330
6C
100
AcDbEntity
  8
Visible Narrow (ANSI)
100
AcDbLine
 10
142.9933294772967
 20
21.53167711403723
 30
0.0
 11
142.9933294772968
 21
70.32902112807616
 31
0.0
  0
LINE
  5
3E2
330
6C
100
AcDbEntity
  8
Visible Narrow (ANSI)
100
AcDbLine
 10
115.0714869248719
 20
86.66313127377179
 30
0.0
 11
143.0728425204973
 21
70.53822301058497
 31
0.0
  0
LINE
  5
3E3
330
6C
100
AcDbEntity
  8
Visible Narrow (ANSI)
100
AcDbLine
 10
142.9933294772968
 20
70.32902112807616
 30
0.0
 11
114.9300290989516
 21
86.48960101920717
 31
0.0
  0
LINE
  5
3E4
330
6C
100
AcDbEntity
  8
Visible Narrow (ANSI)
100
AcDbLine
 10
114.9300290989516
 20
86.48960101920717
 30
0.0
 11
114.9300290989515
 21
37.69225700516825
 31
0.0
  0
LINE
  5
3E5
330
6C
100
AcDbEntity
  8
Visible Narrow (ANSI)
100
AcDbLine
 10
114.9300290989515
 20
37.69225700516825
 30
0.0
 11
142.9933294772967
 21
21.53167711403723
 31
0.0
  0
LINE
  5
3E6
330
6C
100
AcDbEntity
  8
Visible (ANSI)
100
AcDbLine
 10
114.8842645335119
 20
86.53532042325863
 30
0.0
 11
114.8842645335118
 21
37.77378626167693
 31
0.0
  0
LINE
  5
3E7
330
6C
100
AcDbEntity
  8
Visible (ANSI)
100
AcDbLine
 10
114.978065074292
 20
37.61153781001736
 30
0.0
 11
143.0103168049569
 21
21.46883764595285
 31
0.0
  0
POLYLINE
  5
3E8
330
6C
100
AcDbEntity
  8
Visible (ANSI)
100
AcDb2dPolyline
 66
     1
 10
0.0
 20
0.0
 30
0.0
 70
   128
  0
VERTEX
  5
3E9
330
3E8
100
AcDbEntity
  8
Visible (ANSI)
100
AcDbVertex
100
AcDb2dVertex
 10
142.9933300095252
 20
70.32902119136927
 30
0.0
  0
VERTEX
  5
3EA
330
3E8
100
AcDbEntity
  8
Visible (ANSI)
100
AcDbVertex
100
AcDb2dVertex
 10
143.0007932581365
 20
70.32350402452093
 30
0.0
  0
VERTEX
  5
3EC
330
3E8
100
AcDbEntity
  8
Visible (ANSI)
100
AcDbVertex
100
AcDb2dVertex
 10
143.0086967515294
 20
70.31827707057768
 30
0.0
  0
VERTEX
  5
3ED
330
3E8
100
AcDbEntity
  8
Visible (ANSI)
100
AcDbVertex
100
AcDb2dVertex
 10
143.01700824695
 20
70.31335539723568
 30
0.0
  0
VERTEX
  5
3EE
330
3E8
100
AcDbEntity
  8
Visible (ANSI)
100
AcDbVertex
100
AcDb2dVertex
 10
143.0256908451644
 20
70.30875444843552
 30
0.0
  0
VERTEX
  5
3EF
330
3E8
100
AcDbEntity
  8
Visible (ANSI)
100
AcDbVertex
100
AcDb2dVertex
 10
143.0347083158538
 20
70.30448392600606
 30
0.0
  0
VERTEX
  5
3F0
330
3E8
100
AcDbEntity
  8
Visible (ANSI)
100
AcDbVertex
100
AcDb2dVertex
 10
143.0440198033317
 20
70.30056313468143
 30
0.0
  0
VERTEX
  5
3F1
330
3E8
100
AcDbEntity
  8
Visible (ANSI)
100
AcDbVertex
100
AcDb2dVertex
 10
143.0535905188178
 20
70.29699649095109
 30
0.0
  0
VERTEX
  5
3F2
330
3E8
100
AcDbEntity
  8
Visible (ANSI)
100
AcDbVertex
100
AcDb2dVertex
 10
143.0633731611862
 20
70.29379650643754
 30
0.0
  0
VERTEX
  5
3F3
330
3E8
100
AcDbEntity
  8
Visible (ANSI)
100
AcDbVertex
100
AcDb2dVertex
 10
143.0733319045784
 20
70.29096701226524
 30
0.0
  0
VERTEX
  5
3F4
330
3E8
100
AcDbEntity
  8
Visible (ANSI)
100
AcDbVertex
100
AcDb2dVertex
 10
143.0834211849742
 20
70.28851540492315
 30
0.0
  0
VERTEX
  5
3F5
330
3E8
100
AcDbEntity
  8
Visible (ANSI)
100
AcDbVertex
100
AcDb2dVertex
 10
143.0935964339479
 20
70.28644659649214
 30
0.0
  0
VERTEX
  5
3F6
330
3E8
100
AcDbEntity
  8
Visible (ANSI)
100
AcDbVertex
100
AcDb2dVertex
 10
143.1038141045957
 20
70.28476302957535
 30
0.0
  0
VERTEX
  5
3F7
330
3E8
100
AcDbEntity
  8
Visible (ANSI)
100
AcDbVertex
100
AcDb2dVertex
 10
143.1140344560901
 20
70.28346322308339
 30
0.0
  0
VERTEX
  5
3F8
330
3E8
100
AcDbEntity
  8
Visible (ANSI)
100
AcDbVertex
100
AcDb2dVertex
 10
143.1242083413063
 20
70.28254945239955
 30
0.0
  0
VERTEX
  5
3F9
330
3E8
100
AcDbEntity
  8
Visible (ANSI)
100
AcDbVertex
100
AcDb2dVertex
 10
143.1342985524795
 20
70.28201557966234
 30
0.0
  0
VERTEX
  5
3FA
330
3E8
100
AcDbEntity
  8
Visible (ANSI)
100
AcDbVertex
100
AcDb2dVertex
 10
143.144256028044
 20
70.28186087179218
 30
0.0
  0
VERTEX
  5
3FB
330
3E8
100
AcDbEntity
  8
Visible (ANSI)
100
AcDbVertex
100
AcDb2dVertex
 10
143.1540385485557
 20
70.28207629304493
 30
0.0
  0
VERTEX
  5
3FC
330
3E8
100
AcDbEntity
  8
Visible (ANSI)
100
AcDbVertex
100
AcDb2dVertex
 10
143.1636081906661
 20
70.28265837491166
 30
0.0
  0
VERTEX
  5
3FD
330
3E8
100
AcDbEntity
  8
Visible (ANSI)
100
AcDbVertex
100
AcDb2dVertex
 10
143.1729234803311
 20
70.28359545316238
 30
0.0
  0
VERTEX
  5
3FE
330
3E8
100
AcDbEntity
  8
Visible (ANSI)
100
AcDbVertex
100
AcDb2dVertex
 10
143.1819395109405
 20
70.28488001419829
 30
0.0
  0
VERTEX
  5
3FF
330
3E8
100
AcDbEntity
  8
Visible (ANSI)
100
AcDbVertex
100
AcDb2dVertex
 10
143.1906240016601
 20
70.28649652645637
 30
0.0
  0
VERTEX
  5
400
330
3E8
100
AcDbEntity
  8
Visible (ANSI)
100
AcDbVertex
100
AcDb2dVertex
 10
143.1989335266326
 20
70.28843527131368
 30
0.0
  0
VERTEX
  5
401
330
3E8
100
AcDbEntity
  8
Visible (ANSI)
100
AcDbVertex
100
AcDb2dVertex
 10
143.2068375411572
 20
70.2906786592468
 30
0.0
  0
VERTEX
  5
402
330
3E8
100
AcDbEntity
  8
Visible (ANSI)
100
AcDbVertex
100
AcDb2dVertex
 10
143.2142999212156
 20
70.29321200328324
 30
0.0
  0
SEQEND
  5
3EB
330
3E8
100
AcDbEntity
  8
Visible (ANSI)
  0
POLYLINE
  5
403
330
6C
100
AcDbEntity
  8
Visible (ANSI)
100
AcDb2dPolyline
 66
     1
 10
0.0
 20
0.0
 30
0.0
 70
   128
  0
VERTEX
  5
404
330
403
100
AcDbEntity
  8
Visible (ANSI)
100
AcDbVertex
100
AcDb2dVertex
 10
143.2142999212155
 20
21.56748721392649
 30
0.0
  0
VERTEX
  5
405
330
403
100
AcDbEntity
  8
Visible (ANSI)
100
AcDbVertex
100
AcDb2dVertex
 10
143.2068375411571
 20
21.56196997290126
 30
0.0
  0
VERTEX
  5
407
330
403
100
AcDbEntity
  8
Visible (ANSI)
100
AcDbVertex
100
AcDb2dVertex
 10
143.1989335266325
 20
21.55674268797934
 30
0.0
  0
VERTEX
  5
408
330
403
100
AcDbEntity
  8
Visible (ANSI)
100
AcDbVertex
100
AcDb2dVertex
 10
143.19062400166
 20
21.55182005812382
 30
0.0
  0
VERTEX
  5
409
330
403
100
AcDbEntity
  8
Visible (ANSI)
100
AcDbVertex
100
AcDb2dVertex
 10
143.1819395109404
 20
21.54721964887697
 30
0.0
  0
VERTEX
  5
40A
330
403
100
AcDbEntity
  8
Visible (ANSI)
100
AcDbVertex
100
AcDb2dVertex
 10
143.172923480331
 20
21.54295119085226
 30
0.0
  0
VERTEX
  5
40B
330
403
100
AcDbEntity
  8
Visible (ANSI)
100
AcDbVertex
100
AcDb2dVertex
 10
143.163608190666
 20
21.53903021561276
 30
0.0
  0
VERTEX
  5
40C
330
403
100
AcDbEntity
  8
Visible (ANSI)
100
AcDbVertex
100
AcDb2dVertex
 10
143.1540385485555
 20
21.5354642487478
 30
0.0
  0
VERTEX
  5
40D
330
403
100
AcDbEntity
  8
Visible (ANSI)
100
AcDbVertex
100
AcDb2dVertex
 10
143.1442560280438
 20
21.5322618609248
 30
0.0
  0
VERTEX
  5
40E
330
403
100
AcDbEntity
  8
Visible (ANSI)
100
AcDbVertex
100
AcDb2dVertex
 10
143.1342985524794
 20
21.52943267180617
 30
0.0
  0
VERTEX
  5
40F
330
403
100
AcDbEntity
  8
Visible (ANSI)
100
AcDbVertex
100
AcDb2dVertex
 10
143.1242083413062
 20
21.5269826475546
 30
0.0
  0
VERTEX
  5
410
330
403
100
AcDbEntity
  8
Visible (ANSI)
100
AcDbVertex
100
AcDb2dVertex
 10
143.11403445609
 20
21.52491253324019
 30
0.0
  0
VERTEX
  5
411
330
403
100
AcDbEntity
  8
Visible (ANSI)
100
AcDbVertex
100
AcDb2dVertex
 10
143.1038141045956
 20
21.52322844274339
 30
0.0
  0
VERTEX
  5
412
330
403
100
AcDbEntity
  8
Visible (ANSI)
100
AcDbVertex
100
AcDb2dVertex
 10
143.0935964339478
 20
21.52192811267139
 30
0.0
  0
VERTEX
  5
413
330
403
100
AcDbEntity
  8
Visible (ANSI)
100
AcDbVertex
100
AcDb2dVertex
 10
143.0834211849741
 20
21.52101302411361
 30
0.0
  0
VERTEX
  5
414
330
403
100
AcDbEntity
  8
Visible (ANSI)
100
AcDbVertex
100
AcDb2dVertex
 10
143.0733319045783
 20
21.52048074645748
 30
0.0
  0
VERTEX
  5
415
330
403
100
AcDbEntity
  8
Visible (ANSI)
100
AcDbVertex
100
AcDb2dVertex
 10
143.063373161186
 20
21.520326343641
 30
0.0
  0
VERTEX
  5
416
330
403
100
AcDbEntity
  8
Visible (ANSI)
100
AcDbVertex
100
AcDb2dVertex
 10
143.0535905188177
 20
21.52054243116577
 30
0.0
  0
VERTEX
  5
417
330
403
100
AcDbEntity
  8
Visible (ANSI)
100
AcDbVertex
100
AcDb2dVertex
 10
143.0440198033315
 20
21.52112518989786
 30
0.0
  0
VERTEX
  5
418
330
403
100
AcDbEntity
  8
Visible (ANSI)
100
AcDbVertex
100
AcDb2dVertex
 10
143.0347083158537
 20
21.52206208423372
 30
0.0
  0
VERTEX
  5
419
330
403
100
AcDbEntity
  8
Visible (ANSI)
100
AcDbVertex
100
AcDb2dVertex
 10
143.0256908451642
 20
21.52334564009294
 30
0.0
  0
VERTEX
  5
41A
330
403
100
AcDbEntity
  8
Visible (ANSI)
100
AcDbVertex
100
AcDb2dVertex
 10
143.0170082469499
 20
21.5249626919043
 30
0.0
  0
VERTEX
  5
41B
330
403
100
AcDbEntity
  8
Visible (ANSI)
100
AcDbVertex
100
AcDb2dVertex
 10
143.0086967515293
 20
21.52690048024807
 30
0.0
  0
VERTEX
  5
41C
330
403
100
AcDbEntity
  8
Visible (ANSI)
100
AcDbVertex
100
AcDb2dVertex
 10
143.0007932581363
 20
21.52914353720253
 30
0.0
  0
VERTEX
  5
41D
330
403
100
AcDbEntity
  8
Visible (ANSI)
100
AcDbVertex
100
AcDb2dVertex
 10
142.9933300095251
 20
21.5316768070621
 30
0.0
  0
SEQEND
  5
406
330
403
100
AcDbEntity
  8
Visible (ANSI)
  0
LINE
  5
41E
330
6C
100
AcDbEntity
  8
Visible (ANSI)
100
AcDbLine
 10
143.1314362704973
 20
70.34092952332899
 30
0.0
 11
143.7943488778596
 21
70.72267550500936
 31
0.0
  0
LINE
  5
41F
330
6C
100
AcDbEntity
  8
Visible (ANSI)
100
AcDbLine
 10
143.8772129537798
 20
21.94923294817483
 30
0.0
 11
143.2143003464175
 21
21.56748696649447
 31
0.0
  0
LINE
  5
420
330
6C
100
AcDbEntity
  8
Visible (ANSI)
100
AcDbLine
 10
143.1314362704973
 20
70.34092952332899
 30
0.0
 11
143.2143003464176
 21
70.29321127561896
 31
0.0
  0
POLYLINE
  5
421
330
6C
100
AcDbEntity
  8
Visible (ANSI)
100
AcDb2dPolyline
 66
     1
 10
0.0
 20
0.0
 30
0.0
 70
   128
  0
VERTEX
  5
422
330
421
100
AcDbEntity
  8
Visible (ANSI)
100
AcDbVertex
100
AcDb2dVertex
 10
143.076194084201
 20
70.37673943836266
 30
0.0
  0
VERTEX
  5
423
330
421
100
AcDbEntity
  8
Visible (ANSI)
100
AcDbVertex
100
AcDb2dVertex
 10
143.07805856897
 20
70.37424204867884
 30
0.0
  0
VERTEX
  5
425
330
421
100
AcDbEntity
  8
Visible (ANSI)
100
AcDbVertex
100
AcDb2dVertex
 10
143.0800357695603
 20
70.37181568318565
 30
0.0
  0
VERTEX
  5
426
330
421
100
AcDbEntity
  8
Visible (ANSI)
100
AcDbVertex
100
AcDb2dVertex
 10
143.0821116527321
 20
70.3694675493429
 30
0.0
  0
VERTEX
  5
427
330
421
100
AcDbEntity
  8
Visible (ANSI)
100
AcDbVertex
100
AcDb2dVertex
 10
143.0842849576509
 20
70.36719692108423
 30
0.0
  0
VERTEX
  5
428
330
421
100
AcDbEntity
  8
Visible (ANSI)
100
AcDbVertex
100
AcDb2dVertex
 10
143.0865379972153
 20
70.36500888990201
 30
0.0
  0
VERTEX
  5
429
330
421
100
AcDbEntity
  8
Visible (ANSI)
100
AcDbVertex
100
AcDb2dVertex
 10
143.088865869895
 20
70.3629098300887
 30
0.0
  0
VERTEX
  5
42A
330
421
100
AcDbEntity
  8
Visible (ANSI)
100
AcDbVertex
100
AcDb2dVertex
 10
143.0912578843885
 20
70.36089968855076
 30
0.0
  0
VERTEX
  5
42B
330
421
100
AcDbEntity
  8
Visible (ANSI)
100
AcDbVertex
100
AcDb2dVertex
 10
143.0937055361703
 20
70.35897968332374
 30
0.0
  0
VERTEX
  5
42C
330
421
100
AcDbEntity
  8
Visible (ANSI)
100
AcDbVertex
100
AcDb2dVertex
 10
143.0961945576402
 20
70.35715382917532
 30
0.0
  0
VERTEX
  5
42D
330
421
100
AcDbEntity
  8
Visible (ANSI)
100
AcDbVertex
100
AcDb2dVertex
 10
143.0987155512516
 20
70.3554228298842
 30
0.0
  0
VERTEX
  5
42E
330
421
100
AcDbEntity
  8
Visible (ANSI)
100
AcDbVertex
100
AcDb2dVertex
 10
143.1012613540366
 20
70.35378561830457
 30
0.0
  0
VERTEX
  5
42F
330
421
100
AcDbEntity
  8
Visible (ANSI)
100
AcDbVertex
100
AcDb2dVertex
 10
143.103813781157
 20
70.35224701114977
 30
0.0
  0
VERTEX
  5
430
330
421
100
AcDbEntity
  8
Visible (ANSI)
100
AcDbVertex
100
AcDb2dVertex
 10
143.1063701964904
 20
70.3508024326448
 30
0.0
  0
VERTEX
  5
431
330
421
100
AcDbEntity
  8
Visible (ANSI)
100
AcDbVertex
100
AcDb2dVertex
 10
143.1089143315243
 20
70.34945474530847
 30
0.0
  0
VERTEX
  5
432
330
421
100
AcDbEntity
  8
Visible (ANSI)
100
AcDbVertex
100
AcDb2dVertex
 10
143.111434893128
 20
70.34820356132532
 30
0.0
  0
VERTEX
  5
433
330
421
100
AcDbEntity
  8
Visible (ANSI)
100
AcDbVertex
100
AcDb2dVertex
 10
143.1139255888307
 20
70.34704525710253
 30
0.0
  0
VERTEX
  5
434
330
421
100
AcDbEntity
  8
Visible (ANSI)
100
AcDbVertex
100
AcDb2dVertex
 10
143.1163718833367
 20
70.3459775659375
 30
0.0
  0
VERTEX
  5
435
330
421
100
AcDbEntity
  8
Visible (ANSI)
100
AcDbVertex
100
AcDb2dVertex
 10
143.1187642938643
 20
70.34500422395545
 30
0.0
  0
VERTEX
  5
436
330
421
100
AcDbEntity
  8
Visible (ANSI)
100
AcDbVertex
100
AcDb2dVertex
 10
143.1210931159565
 20
70.34411963088277
 30
0.0
  0
VERTEX
  5
437
330
421
100
AcDbEntity
  8
Visible (ANSI)
100
AcDbVertex
100
AcDb2dVertex
 10
143.1233457957844
 20
70.34332267291631
 30
0.0
  0
VERTEX
  5
438
330
421
100
AcDbEntity
  8
Visible (ANSI)
100
AcDbVertex
100
AcDb2dVertex
 10
143.1255175822347
 20
70.3426075563388
 30
0.0
  0
VERTEX
  5
439
330
421
100
AcDbEntity
  8
Visible (ANSI)
100
AcDbVertex
100
AcDb2dVertex
 10
143.1275956272078
 20
70.34197299788776
 30
0.0
  0
VERTEX
  5
43A
330
421
100
AcDbEntity
  8
Visible (ANSI)
100
AcDbVertex
100
AcDb2dVertex
 10
143.1295696402974
 20
70.34141612944544
 30
0.0
  0
VERTEX
  5
43B
330
421
100
AcDbEntity
  8
Visible (ANSI)
100
AcDbVertex
100
AcDb2dVertex
 10
143.1314372258535
 20
70.34092945598269
 30
0.0
  0
SEQEND
  5
424
330
421
100
AcDbEntity
  8
Visible (ANSI)
  0
LINE
  5
43C
330
6C
100
AcDbEntity
  8
Visible (ANSI)
100
AcDbLine
 10
143.0761935532171
 20
70.3767393757862
 30
0.0
 11
142.9933294772968
 21
70.32902112807616
 31
0.0
  0
LINE
  5
43D
330
6C
100
AcDbEntity
  8
Visible (ANSI)
100
AcDbLine
 10
143.2143003464176
 20
70.29321127561896
 30
0.0
 11
143.8772129537799
 21
70.67495725729933
 31
0.0
  0
LINE
  5
43E
330
6C
100
AcDbEntity
  8
Visible (ANSI)
100
AcDbLine
 10
143.7943488778596
 20
70.72267550500936
 30
0.0
 11
143.8772129537799
 21
70.67495725729933
 31
0.0
  0
POLYLINE
  5
43F
330
6C
100
AcDbEntity
  8
Visible (ANSI)
100
AcDb2dPolyline
 66
     1
 10
0.0
 20
0.0
 30
0.0
 70
   128
  0
VERTEX
  5
440
330
43F
100
AcDbEntity
  8
Visible (ANSI)
100
AcDbVertex
100
AcDb2dVertex
 10
114.9300290985367
 20
86.48960138922914
 30
0.0
  0
VERTEX
  5
441
330
43F
100
AcDbEntity
  8
Visible (ANSI)
100
AcDbVertex
100
AcDb2dVertex
 10
114.9315561750991
 20
86.49734985389564
 30
0.0
  0
VERTEX
  5
443
330
43F
100
AcDbEntity
  8
Visible (ANSI)
100
AcDbVertex
100
AcDb2dVertex
 10
114.9335553554783
 20
86.50533335009136
 30
0.0
  0
VERTEX
  5
444
330
43F
100
AcDbEntity
  8
Visible (ANSI)
100
AcDbVertex
100
AcDb2dVertex
 10
114.936023590665
 20
86.5135163685567
 30
0.0
  0
VERTEX
  5
445
330
43F
100
AcDbEntity
  8
Visible (ANSI)
100
AcDbVertex
100
AcDb2dVertex
 10
114.9389558612019
 20
86.52185915991211
 30
0.0
  0
VERTEX
  5
446
330
43F
100
AcDbEntity
  8
Visible (ANSI)
100
AcDbVertex
100
AcDb2dVertex
 10
114.942345130515
 20
86.53032391861215
 30
0.0
  0
VERTEX
  5
447
330
43F
100
AcDbEntity
  8
Visible (ANSI)
100
AcDbVertex
100
AcDb2dVertex
 10
114.9461824019529
 20
86.53886862885212
 30
0.0
  0
VERTEX
  5
448
330
43F
100
AcDbEntity
  8
Visible (ANSI)
100
AcDbVertex
100
AcDb2dVertex
 10
114.9504567706409
 20
86.54745939664325
 30
0.0
  0
VERTEX
  5
449
330
43F
100
AcDbEntity
  8
Visible (ANSI)
100
AcDbVertex
100
AcDb2dVertex
 10
114.9551554701492
 20
86.55605201142128
 30
0.0
  0
VERTEX
  5
44A
330
43F
100
AcDbEntity
  8
Visible (ANSI)
100
AcDbVertex
100
AcDb2dVertex
 10
114.9602639036054
 20
86.56460431395451
 30
0.0
  0
VERTEX
  5
44B
330
43F
100
AcDbEntity
  8
Visible (ANSI)
100
AcDbVertex
100
AcDb2dVertex
 10
114.9657657007339
 20
86.57308233252058
 30
0.0
  0
VERTEX
  5
44C
330
43F
100
AcDbEntity
  8
Visible (ANSI)
100
AcDbVertex
100
AcDb2dVertex
 10
114.9716428630465
 20
86.58144191319472
 30
0.0
  0
VERTEX
  5
44D
330
43F
100
AcDbEntity
  8
Visible (ANSI)
100
AcDbVertex
100
AcDb2dVertex
 10
114.977875727545
 20
86.58964411852029
 30
0.0
  0
VERTEX
  5
44E
330
43F
100
AcDbEntity
  8
Visible (ANSI)
100
AcDbVertex
100
AcDb2dVertex
 10
114.9844431378391
 20
86.59765527827191
 30
0.0
  0
VERTEX
  5
44F
330
43F
100
AcDbEntity
  8
Visible (ANSI)
100
AcDbVertex
100
AcDb2dVertex
 10
114.9913224856289
 20
86.60543475890669
 30
0.0
  0
VERTEX
  5
450
330
43F
100
AcDbEntity
  8
Visible (ANSI)
100
AcDbVertex
100
AcDb2dVertex
 10
114.9984898584893
 20
86.61294420963445
 30
0.0
  0
VERTEX
  5
451
330
43F
100
AcDbEntity
  8
Visible (ANSI)
100
AcDbVertex
100
AcDb2dVertex
 10
115.0059200787601
 20
86.62015072606022
 30
0.0
  0
VERTEX
  5
452
330
43F
100
AcDbEntity
  8
Visible (ANSI)
100
AcDbVertex
100
AcDb2dVertex
 10
115.0135868565147
 20
86.62702075133346
 30
0.0
  0
VERTEX
  5
453
330
43F
100
AcDbEntity
  8
Visible (ANSI)
100
AcDbVertex
100
AcDb2dVertex
 10
115.0214628777123
 20
86.63351708121799
 30
0.0
  0
VERTEX
  5
454
330
43F
100
AcDbEntity
  8
Visible (ANSI)
100
AcDbVertex
100
AcDb2dVertex
 10
115.0295199636482
 20
86.63961732562553
 30
0.0
  0
VERTEX
  5
455
330
43F
100
AcDbEntity
  8
Visible (ANSI)
100
AcDbVertex
100
AcDb2dVertex
 10
115.037729126859
 20
86.64528331666002
 30
0.0
  0
VERTEX
  5
456
330
43F
100
AcDbEntity
  8
Visible (ANSI)
100
AcDbVertex
100
AcDb2dVertex
 10
115.0460607414301
 20
86.65049492431039
 30
0.0
  0
VERTEX
  5
457
330
43F
100
AcDbEntity
  8
Visible (ANSI)
100
AcDbVertex
100
AcDb2dVertex
 10
115.0544846457314
 20
86.6552194436859
 30
0.0
  0
VERTEX
  5
458
330
43F
100
AcDbEntity
  8
Visible (ANSI)
100
AcDbVertex
100
AcDb2dVertex
 10
115.0629703158037
 20
86.65943927331895
 30
0.0
  0
VERTEX
  5
459
330
43F
100
AcDbEntity
  8
Visible (ANSI)
100
AcDbVertex
100
AcDb2dVertex
 10
115.071486927097
 20
86.66313053531309
 30
0.0
  0
SEQEND
  5
442
330
43F
100
AcDbEntity
  8
Visible (ANSI)
  0
POLYLINE
  5
45A
330
6C
100
AcDbEntity
  8
Visible (ANSI)
100
AcDb2dPolyline
 66
     1
 10
0.0
 20
0.0
 30
0.0
 70
   128
  0
VERTEX
  5
45B
330
45A
100
AcDbEntity
  8
Visible (ANSI)
100
AcDbVertex
100
AcDb2dVertex
 10
143.0728431504749
 20
70.53822191062764
 30
0.0
  0
VERTEX
  5
45C
330
45A
100
AcDbEntity
  8
Visible (ANSI)
100
AcDbVertex
100
AcDb2dVertex
 10
143.0669073491814
 20
70.53304445899705
 30
0.0
  0
VERTEX
  5
45E
330
45A
100
AcDbEntity
  8
Visible (ANSI)
100
AcDbVertex
100
AcDb2dVertex
 10
143.061002489109
 20
70.5273384397276
 30
0.0
  0
VERTEX
  5
45F
330
45A
100
AcDbEntity
  8
Visible (ANSI)
100
AcDbVertex
100
AcDb2dVertex
 10
143.0551593844368
 20
70.52112773668778
 30
0.0
  0
VERTEX
  5
460
330
45A
100
AcDbEntity
  8
Visible (ANSI)
100
AcDbVertex
100
AcDb2dVertex
 10
143.0494085798655
 20
70.51442993940098
 30
0.0
  0
VERTEX
  5
461
330
45A
100
AcDbEntity
  8
Visible (ANSI)
100
AcDbVertex
100
AcDb2dVertex
 10
143.0437802266546
 20
70.50727775873008
 30
0.0
  0
VERTEX
  5
462
330
45A
100
AcDbEntity
  8
Visible (ANSI)
100
AcDbVertex
100
AcDb2dVertex
 10
143.0383039507185
 20
70.49969132468612
 30
0.0
  0
VERTEX
  5
463
330
45A
100
AcDbEntity
  8
Visible (ANSI)
100
AcDbVertex
100
AcDb2dVertex
 10
143.0330087291499
 20
70.4917088111373
 30
0.0
  0
VERTEX
  5
464
330
45A
100
AcDbEntity
  8
Visible (ANSI)
100
AcDbVertex
100
AcDb2dVertex
 10
143.0279227613951
 20
70.48335259622764
 30
0.0
  0
VERTEX
  5
465
330
45A
100
AcDbEntity
  8
Visible (ANSI)
100
AcDbVertex
100
AcDb2dVertex
 10
143.0230760060438
 20
70.47465836129891
 30
0.0
  0
VERTEX
  5
466
330
45A
100
AcDbEntity
  8
Visible (ANSI)
100
AcDbVertex
100
AcDb2dVertex
 10
143.0184894431832
 20
70.46566272093476
 30
0.0
  0
VERTEX
  5
467
330
45A
100
AcDbEntity
  8
Visible (ANSI)
100
AcDbVertex
100
AcDb2dVertex
 10
143.0141908950225
 20
70.45639705663569
 30
0.0
  0
VERTEX
  5
468
330
45A
100
AcDbEntity
  8
Visible (ANSI)
100
AcDbVertex
100
AcDb2dVertex
 10
143.0102042947283
 20
70.4468997072476
 30
0.0
  0
VERTEX
  5
469
330
45A
100
AcDbEntity
  8
Visible (ANSI)
100
AcDbVertex
100
AcDb2dVertex
 10
143.0065522402296
 20
70.43721131228564
 30
0.0
  0
VERTEX
  5
46A
330
45A
100
AcDbEntity
  8
Visible (ANSI)
100
AcDbVertex
100
AcDb2dVertex
 10
143.0032558879168
 20
70.42736554197507
 30
0.0
  0
VERTEX
  5
46B
330
45A
100
AcDbEntity
  8
Visible (ANSI)
100
AcDbVertex
100
AcDb2dVertex
 10
143.0003348904174
 20
70.41740133974471
 30
0.0
  0
VERTEX
  5
46C
330
45A
100
AcDbEntity
  8
Visible (ANSI)
100
AcDbVertex
100
AcDb2dVertex
 10
142.997807266961
 20
70.40736284757506
 30
0.0
  0
VERTEX
  5
46D
330
45A
100
AcDbEntity
  8
Visible (ANSI)
100
AcDbVertex
100
AcDb2dVertex
 10
142.9956893774525
 20
70.39728404316058
 30
0.0
  0
VERTEX
  5
46E
330
45A
100
AcDbEntity
  8
Visible (ANSI)
100
AcDbVertex
100
AcDb2dVertex
 10
142.9939958083936
 20
70.38720709170516
 30
0.0
  0
VERTEX
  5
46F
330
45A
100
AcDbEntity
  8
Visible (ANSI)
100
AcDbVertex
100
AcDb2dVertex
 10
142.9927393469555
 20
70.37717619182878
 30
0.0
  0
VERTEX
  5
470
330
45A
100
AcDbEntity
  8
Visible (ANSI)
100
AcDbVertex
100
AcDb2dVertex
 10
142.9919308876422
 20
70.36722524349231
 30
0.0
  0
VERTEX
  5
471
330
45A
100
AcDbEntity
  8
Visible (ANSI)
100
AcDbVertex
100
AcDb2dVertex
 10
142.9915820820247
 20
70.35739473363396
 30
0.0
  0
VERTEX
  5
472
330
45A
100
AcDbEntity
  8
Visible (ANSI)
100
AcDbVertex
100
AcDb2dVertex
 10
142.9916946464671
 20
70.34772553150434
 30
0.0
  0
VERTEX
  5
473
330
45A
100
AcDbEntity
  8
Visible (ANSI)
100
AcDbVertex
100
AcDb2dVertex
 10
142.9922762760878
 20
70.33825584567219
 30
0.0
  0
VERTEX
  5
474
330
45A
100
AcDbEntity
  8
Visible (ANSI)
100
AcDbVertex
100
AcDb2dVertex
 10
142.9933300095252
 20
70.32902119136927
 30
0.0
  0
SEQEND
  5
45D
330
45A
100
AcDbEntity
  8
Visible (ANSI)
  0
LINE
  5
475
330
6C
100
AcDbEntity
  8
Visible (ANSI)
100
AcDbLine
 10
143.0728425204973
 20
70.44241670689247
 30
0.0
 11
143.7357551278596
 21
70.82416268857279
 31
0.0
  0
LINE
  5
476
330
6C
100
AcDbEntity
  8
Visible (ANSI)
100
AcDbLine
 10
143.7357551278596
 20
70.91996899226528
 30
0.0
 11
143.0728425204973
 21
70.53822301058497
 31
0.0
  0
LINE
  5
477
330
6C
100
AcDbEntity
  8
Visible (ANSI)
100
AcDbLine
 10
143.0728425204973
 20
70.44241670689247
 30
0.0
 11
143.0728425204973
 21
70.53822301058497
 31
0.0
  0
LINE
  5
478
330
6C
100
AcDbEntity
  8
Visible (ANSI)
100
AcDbLine
 10
143.7357551278596
 20
70.82416268857279
 30
0.0
 11
143.7357551278596
 21
70.91996899226528
 31
0.0
  0
POLYLINE
  5
479
330
6C
100
AcDbEntity
  8
Visible (ANSI)
100
AcDb2dPolyline
 66
     1
 10
0.0
 20
0.0
 30
0.0
 70
   128
  0
VERTEX
  5
47A
330
479
100
AcDbEntity
  8
Visible (ANSI)
100
AcDbVertex
100
AcDb2dVertex
 10
143.076194084201
 20
70.37673943836266
 30
0.0
  0
VERTEX
  5
47B
330
479
100
AcDbEntity
  8
Visible (ANSI)
100
AcDbVertex
100
AcDb2dVertex
 10
143.0749629327266
 20
70.37960383903494
 30
0.0
  0
VERTEX
  5
47D
330
479
100
AcDbEntity
  8
Visible (ANSI)
100
AcDbVertex
100
AcDb2dVertex
 10
143.0738498069127
 20
70.38253006700188
 30
0.0
  0
VERTEX
  5
47E
330
479
100
AcDbEntity
  8
Visible (ANSI)
100
AcDbVertex
100
AcDb2dVertex
 10
143.0728539481175
 20
70.38550540706481
 30
0.0
  0
VERTEX
  5
47F
330
479
100
AcDbEntity
  8
Visible (ANSI)
100
AcDbVertex
100
AcDb2dVertex
 10
143.0719714405868
 20
70.38852145327942
 30
0.0
  0
VERTEX
  5
480
330
479
100
AcDbEntity
  8
Visible (ANSI)
100
AcDbVertex
100
AcDb2dVertex
 10
143.0712058365759
 20
70.39156492704309
 30
0.0
  0
VERTEX
  5
481
330
479
100
AcDbEntity
  8
Visible (ANSI)
100
AcDbVertex
100
AcDb2dVertex
 10
143.0705522345546
 20
70.39462992432231
 30
0.0
  0
VERTEX
  5
482
330
479
100
AcDbEntity
  8
Visible (ANSI)
100
AcDbVertex
100
AcDb2dVertex
 10
143.0700079079802
 20
70.39770566626109
 30
0.0
  0
VERTEX
  5
483
330
479
100
AcDbEntity
  8
Visible (ANSI)
100
AcDbVertex
100
AcDb2dVertex
 10
143.0695696621663
 20
70.400784173999
 30
0.0
  0
VERTEX
  5
484
330
479
100
AcDbEntity
  8
Visible (ANSI)
100
AcDbVertex
100
AcDb2dVertex
 10
143.0692338491912
 20
70.4038510685117
 30
0.0
  0
VERTEX
  5
485
330
479
100
AcDbEntity
  8
Visible (ANSI)
100
AcDbVertex
100
AcDb2dVertex
 10
143.0689963813473
 20
70.40689785668199
 30
0.0
  0
VERTEX
  5
486
330
479
100
AcDbEntity
  8
Visible (ANSI)
100
AcDbVertex
100
AcDb2dVertex
 10
143.0688527505863
 20
70.40991887291602
 30
0.0
  0
VERTEX
  5
487
330
479
100
AcDbEntity
  8
Visible (ANSI)
100
AcDbVertex
100
AcDb2dVertex
 10
143.0687980466682
 20
70.41289901126869
 30
0.0
  0
VERTEX
  5
488
330
479
100
AcDbEntity
  8
Visible (ANSI)
100
AcDbVertex
100
AcDb2dVertex
 10
143.0688269785507
 20
70.41582908566851
 30
0.0
  0
VERTEX
  5
489
330
479
100
AcDbEntity
  8
Visible (ANSI)
100
AcDbVertex
100
AcDb2dVertex
 10
143.0689338973999
 20
70.41870277358684
 30
0.0
  0
VERTEX
  5
48A
330
479
100
AcDbEntity
  8
Visible (ANSI)
100
AcDbVertex
100
AcDb2dVertex
 10
143.069112819924
 20
70.42150742073068
 30
0.0
  0
VERTEX
  5
48B
330
479
100
AcDbEntity
  8
Visible (ANSI)
100
AcDbVertex
100
AcDb2dVertex
 10
143.069354798733
 20
70.42424093237376
 30
0.0
  0
VERTEX
  5
48C
330
479
100
AcDbEntity
  8
Visible (ANSI)
100
AcDbVertex
100
AcDb2dVertex
 10
143.0696585731289
 20
70.42688725831799
 30
0.0
  0
VERTEX
  5
48D
330
479
100
AcDbEntity
  8
Visible (ANSI)
100
AcDbVertex
100
AcDb2dVertex
 10
143.07001466033
 20
70.42944092594412
 30
0.0
  0
VERTEX
  5
48E
330
479
100
AcDbEntity
  8
Visible (ANSI)
100
AcDbVertex
100
AcDb2dVertex
 10
143.0704160107989
 20
70.43189480611203
 30
0.0
  0
VERTEX
  5
48F
330
479
100
AcDbEntity
  8
Visible (ANSI)
100
AcDbVertex
100
AcDb2dVertex
 10
143.0708553805461
 20
70.4342385881226
 30
0.0
  0
VERTEX
  5
490
330
479
100
AcDbEntity
  8
Visible (ANSI)
100
AcDbVertex
100
AcDb2dVertex
 10
143.0713253635384
 20
70.43647107670654
 30
0.0
  0
VERTEX
  5
491
330
479
100
AcDbEntity
  8
Visible (ANSI)
100
AcDbVertex
100
AcDb2dVertex
 10
143.0718184215155
 20
70.43858179170541
 30
0.0
  0
VERTEX
  5
492
330
479
100
AcDbEntity
  8
Visible (ANSI)
100
AcDbVertex
100
AcDb2dVertex
 10
143.0723269189907
 20
70.44056326655347
 30
0.0
  0
VERTEX
  5
493
330
479
100
AcDbEntity
  8
Visible (ANSI)
100
AcDbVertex
100
AcDb2dVertex
 10
143.0728431504749
 20
70.44241720311751
 30
0.0
  0
SEQEND
  5
47C
330
479
100
AcDbEntity
  8
Visible (ANSI)
  0
LINE
  5
494
330
6C
100
AcDbEntity
  8
Visible (ANSI)
100
AcDbLine
 10
115.0714869248719
 20
86.66313127377179
 30
0.0
 11
115.7343995322341
 21
87.04487725545209
 31
0.0
  0
POLYLINE
  5
495
330
6C
100
AcDbEntity
  8
Visible (ANSI)
100
AcDb2dPolyline
 66
     1
 10
0.0
 20
0.0
 30
0.0
 70
   128
  0
VERTEX
  5
496
330
495
100
AcDbEntity
  8
Visible (ANSI)
100
AcDbVertex
100
AcDb2dVertex
 10
114.9300290985366
 20
37.69225700492197
 30
0.0
  0
VERTEX
  5
497
330
495
100
AcDbEntity
  8
Visible (ANSI)
100
AcDbVertex
100
AcDb2dVertex
 10
114.9264732693169
 20
37.69511884109402
 30
0.0
  0
VERTEX
  5
499
330
495
100
AcDbEntity
  8
Visible (ANSI)
100
AcDbVertex
100
AcDb2dVertex
 10
114.9230395663984
 20
37.69804653796877
 30
0.0
  0
VERTEX
  5
49A
330
495
100
AcDbEntity
  8
Visible (ANSI)
100
AcDbVertex
100
AcDb2dVertex
 10
114.9197316454809
 20
37.70103776939971
 30
0.0
  0
VERTEX
  5
49B
330
495
100
AcDbEntity
  8
Visible (ANSI)
100
AcDbVertex
100
AcDb2dVertex
 10
114.9165530741126
 20
37.70409012264437
 30
0.0
  0
VERTEX
  5
49C
330
495
100
AcDbEntity
  8
Visible (ANSI)
100
AcDbVertex
100
AcDb2dVertex
 10
114.9135072383531
 20
37.70720111623449
 30
0.0
  0
VERTEX
  5
49D
330
495
100
AcDbEntity
  8
Visible (ANSI)
100
AcDbVertex
100
AcDb2dVertex
 10
114.910597404998
 20
37.7103682479381
 30
0.0
  0
VERTEX
  5
49E
330
495
100
AcDbEntity
  8
Visible (ANSI)
100
AcDbVertex
100
AcDb2dVertex
 10
114.9078266956519
 20
37.71358890788604
 30
0.0
  0
VERTEX
  5
49F
330
495
100
AcDbEntity
  8
Visible (ANSI)
100
AcDbVertex
100
AcDb2dVertex
 10
114.9051980608017
 20
37.7168604474365
 30
0.0
  0
VERTEX
  5
4A0
330
495
100
AcDbEntity
  8
Visible (ANSI)
100
AcDbVertex
100
AcDb2dVertex
 10
114.9027143368556
 20
37.72018016419849
 30
0.0
  0
VERTEX
  5
4A1
330
495
100
AcDbEntity
  8
Visible (ANSI)
100
AcDbVertex
100
AcDb2dVertex
 10
114.9003781683624
 20
37.72354529904573
 30
0.0
  0
VERTEX
  5
4A2
330
495
100
AcDbEntity
  8
Visible (ANSI)
100
AcDbVertex
100
AcDb2dVertex
 10
114.8981920598654
 20
37.72695304806091
 30
0.0
  0
VERTEX
  5
4A3
330
495
100
AcDbEntity
  8
Visible (ANSI)
100
AcDbVertex
100
AcDb2dVertex
 10
114.8961583551608
 20
37.73040056253574
 30
0.0
  0
VERTEX
  5
4A4
330
495
100
AcDbEntity
  8
Visible (ANSI)
100
AcDbVertex
100
AcDb2dVertex
 10
114.8942792321123
 20
37.7338849399664
 30
0.0
  0
VERTEX
  5
4A5
330
495
100
AcDbEntity
  8
Visible (ANSI)
100
AcDbVertex
100
AcDb2dVertex
 10
114.8925567026512
 20
37.73740326604368
 30
0.0
  0
VERTEX
  5
4A6
330
495
100
AcDbEntity
  8
Visible (ANSI)
100
AcDbVertex
100
AcDb2dVertex
 10
114.8909926075908
 20
37.7409525636121
 30
0.0
  0
VERTEX
  5
4A7
330
495
100
AcDbEntity
  8
Visible (ANSI)
100
AcDbVertex
100
AcDb2dVertex
 10
114.8895886218121
 20
37.74452983167392
 30
0.0
  0
VERTEX
  5
4A8
330
495
100
AcDbEntity
  8
Visible (ANSI)
100
AcDbVertex
100
AcDb2dVertex
 10
114.888346259449
 20
37.74813203638463
 30
0.0
  0
VERTEX
  5
4A9
330
495
100
AcDbEntity
  8
Visible (ANSI)
100
AcDbVertex
100
AcDb2dVertex
 10
114.8872668375903
 20
37.75175612001123
 30
0.0
  0
VERTEX
  5
4AA
330
495
100
AcDbEntity
  8
Visible (ANSI)
100
AcDbVertex
100
AcDb2dVertex
 10
114.8863515125781
 20
37.75539899794608
 30
0.0
  0
VERTEX
  5
4AB
330
495
100
AcDbEntity
  8
Visible (ANSI)
100
AcDbVertex
100
AcDb2dVertex
 10
114.8856012722291
 20
37.75905756313978
 30
0.0
  0
VERTEX
  5
4AC
330
495
100
AcDbEntity
  8
Visible (ANSI)
100
AcDbVertex
100
AcDb2dVertex
 10
114.8850169228715
 20
37.76272871763993
 30
0.0
  0
VERTEX
  5
4AD
330
495
100
AcDbEntity
  8
Visible (ANSI)
100
AcDbVertex
100
AcDb2dVertex
 10
114.8845990763812
 20
37.76640931408522
 30
0.0
  0
VERTEX
  5
4AE
330
495
100
AcDbEntity
  8
Visible (ANSI)
100
AcDbVertex
100
AcDb2dVertex
 10
114.8843481890725
 20
37.77009621113273
 30
0.0
  0
VERTEX
  5
4AF
330
495
100
AcDbEntity
  8
Visible (ANSI)
100
AcDbVertex
100
AcDb2dVertex
 10
114.8842645305857
 20
37.77378626146743
 30
0.0
  0
SEQEND
  5
498
330
495
100
AcDbEntity
  8
Visible (ANSI)
  0
POLYLINE
  5
4B0
330
6C
100
AcDbEntity
  8
Visible (ANSI)
100
AcDb2dPolyline
 66
     1
 10
0.0
 20
0.0
 30
0.0
 70
   128
  0
VERTEX
  5
4B1
330
4B0
100
AcDbEntity
  8
Visible (ANSI)
100
AcDbVertex
100
AcDb2dVertex
 10
114.9300290985367
 20
86.58104031035572
 30
0.0
  0
VERTEX
  5
4B2
330
4B0
100
AcDbEntity
  8
Visible (ANSI)
100
AcDbVertex
100
AcDb2dVertex
 10
114.9230395641096
 20
86.5782346726297
 30
0.0
  0
VERTEX
  5
4B4
330
4B0
100
AcDbEntity
  8
Visible (ANSI)
100
AcDbVertex
100
AcDb2dVertex
 10
114.9165530735456
 20
86.57517498693747
 30
0.0
  0
VERTEX
  5
4B5
330
4B0
100
AcDbEntity
  8
Visible (ANSI)
100
AcDbVertex
100
AcDb2dVertex
 10
114.9105974064565
 20
86.57188074547553
 30
0.0
  0
VERTEX
  5
4B6
330
4B0
100
AcDbEntity
  8
Visible (ANSI)
100
AcDbVertex
100
AcDb2dVertex
 10
114.9051980642047
 20
86.56837244203279
 30
0.0
  0
VERTEX
  5
4B7
330
4B0
100
AcDbEntity
  8
Visible (ANSI)
100
AcDbVertex
100
AcDb2dVertex
 10
114.9003781677143
 20
86.56467148806553
 30
0.0
  0
VERTEX
  5
4B8
330
4B0
100
AcDbEntity
  8
Visible (ANSI)
100
AcDbVertex
100
AcDb2dVertex
 10
114.8961583564573
 20
86.5608001189515
 30
0.0
  0
VERTEX
  5
4B9
330
4B0
100
AcDbEntity
  8
Visible (ANSI)
100
AcDbVertex
100
AcDb2dVertex
 10
114.8925567013549
 20
86.55678130193482
 30
0.0
  0
VERTEX
  5
4BA
330
4B0
100
AcDbEntity
  8
Visible (ANSI)
100
AcDbVertex
100
AcDb2dVertex
 10
114.8895886231086
 20
86.55264170436787
 30
0.0
  0
VERTEX
  5
4BB
330
4B0
100
AcDbEntity
  8
Visible (ANSI)
100
AcDbVertex
100
AcDb2dVertex
 10
114.8872668337014
 20
86.54839931301934
 30
0.0
  0
VERTEX
  5
4BC
330
4B0
100
AcDbEntity
  8
Visible (ANSI)
100
AcDbVertex
100
AcDb2dVertex
 10
114.8856012722293
 20
86.54408175264947
 30
0.0
  0
VERTEX
  5
4BD
330
4B0
100
AcDbEntity
  8
Visible (ANSI)
100
AcDbVertex
100
AcDb2dVertex
 10
114.8845990737886
 20
86.53971390018586
 30
0.0
  0
VERTEX
  5
4BE
330
4B0
100
AcDbEntity
  8
Visible (ANSI)
100
AcDbVertex
100
AcDb2dVertex
 10
114.8842645305858
 20
86.5353208482994
 30
0.0
  0
VERTEX
  5
4BF
330
4B0
100
AcDbEntity
  8
Visible (ANSI)
100
AcDbVertex
100
AcDb2dVertex
 10
114.8845990763813
 20
86.53092779790595
 30
0.0
  0
VERTEX
  5
4C0
330
4B0
100
AcDbEntity
  8
Visible (ANSI)
100
AcDbVertex
100
AcDb2dVertex
 10
114.8856012722293
 20
86.52655994394931
 30
0.0
  0
VERTEX
  5
4C1
330
4B0
100
AcDbEntity
  8
Visible (ANSI)
100
AcDbVertex
100
AcDb2dVertex
 10
114.8872668375904
 20
86.52224238581899
 30
0.0
  0
VERTEX
  5
4C2
330
4B0
100
AcDbEntity
  8
Visible (ANSI)
100
AcDbVertex
100
AcDb2dVertex
 10
114.8895886218123
 20
86.51799999447046
 30
0.0
  0
VERTEX
  5
4C3
330
4B0
100
AcDbEntity
  8
Visible (ANSI)
100
AcDbVertex
100
AcDb2dVertex
 10
114.8925567026513
 20
86.51385732582902
 30
0.0
  0
VERTEX
  5
4C4
330
4B0
100
AcDbEntity
  8
Visible (ANSI)
100
AcDbVertex
100
AcDb2dVertex
 10
114.8961583551609
 20
86.50983850731929
 30
0.0
  0
VERTEX
  5
4C5
330
4B0
100
AcDbEntity
  8
Visible (ANSI)
100
AcDbVertex
100
AcDb2dVertex
 10
114.9003781683625
 20
86.50596714081805
 30
0.0
  0
VERTEX
  5
4C6
330
4B0
100
AcDbEntity
  8
Visible (ANSI)
100
AcDbVertex
100
AcDb2dVertex
 10
114.9051980608019
 20
86.50226925577909
 30
0.0
  0
VERTEX
  5
4C7
330
4B0
100
AcDbEntity
  8
Visible (ANSI)
100
AcDbVertex
100
AcDb2dVertex
 10
114.9105974049981
 20
86.49876095326948
 30
0.0
  0
VERTEX
  5
4C8
330
4B0
100
AcDbEntity
  8
Visible (ANSI)
100
AcDbVertex
100
AcDb2dVertex
 10
114.9165530741127
 20
86.49546671297398
 30
0.0
  0
VERTEX
  5
4C9
330
4B0
100
AcDbEntity
  8
Visible (ANSI)
100
AcDbVertex
100
AcDb2dVertex
 10
114.9230395663985
 20
86.49240702528715
 30
0.0
  0
VERTEX
  5
4CA
330
4B0
100
AcDbEntity
  8
Visible (ANSI)
100
AcDbVertex
100
AcDb2dVertex
 10
114.9300290985367
 20
86.48960138922914
 30
0.0
  0
SEQEND
  5
4B3
330
4B0
100
AcDbEntity
  8
Visible (ANSI)
  0
LINE
  5
4CB
330
6C
100
AcDbEntity
  8
Visible (ANSI)
100
AcDbLine
 10
115.4738140725033
 20
38.07302396260545
 30
0.0
 11
115.675805782234
 21
38.18934325215591
 31
0.0
  0
LINE
  5
4CC
330
6C
100
AcDbEntity
  8
Visible (ANSI)
100
AcDbLine
 10
115.0222886301839
 20
86.63416855789765
 30
0.0
 11
114.9300290989515
 21
86.58103982731006
 31
0.0
  0
LINE
  5
4CD
330
6C
100
AcDbEntity
  8
Visible (ANSI)
100
AcDbLine
 10
114.9598176444371
 20
86.56388574483685
 30
0.0
 11
114.9300290989515
 21
86.58103982731006
 31
0.0
  0
POLYLINE
  5
4CE
330
6C
100
AcDbEntity
  8
Visible (ANSI)
100
AcDb2dPolyline
 66
     1
 10
0.0
 20
0.0
 30
0.0
 70
   128
  0
VERTEX
  5
4CF
330
4CE
100
AcDbEntity
  8
Visible (ANSI)
100
AcDbVertex
100
AcDb2dVertex
 10
142.9933300095251
 20
21.5316768070621
 30
0.0
  0
VERTEX
  5
4D0
330
4CE
100
AcDbEntity
  8
Visible (ANSI)
100
AcDbVertex
100
AcDb2dVertex
 10
142.9922762760877
 20
21.52420135525079
 30
0.0
  0
VERTEX
  5
4D2
330
4CE
100
AcDbEntity
  8
Visible (ANSI)
100
AcDbVertex
100
AcDb2dVertex
 10
142.991694646467
 20
21.51703353776501
 30
0.0
  0
VERTEX
  5
4D3
330
4CE
100
AcDbEntity
  8
Visible (ANSI)
100
AcDbVertex
100
AcDb2dVertex
 10
142.9915820820246
 20
21.51020724069171
 30
0.0
  0
VERTEX
  5
4D4
330
4CE
100
AcDbEntity
  8
Visible (ANSI)
100
AcDbVertex
100
AcDb2dVertex
 10
142.9919308876421
 20
21.50375640261744
 30
0.0
  0
VERTEX
  5
4D5
330
4CE
100
AcDbEntity
  8
Visible (ANSI)
100
AcDbVertex
100
AcDb2dVertex
 10
142.9927393469553
 20
21.49770878221967
 30
0.0
  0
VERTEX
  5
4D6
330
4CE
100
AcDbEntity
  8
Visible (ANSI)
100
AcDbVertex
100
AcDb2dVertex
 10
142.9939958083934
 20
21.49209497855159
 30
0.0
  0
VERTEX
  5
4D7
330
4CE
100
AcDbEntity
  8
Visible (ANSI)
100
AcDbVertex
100
AcDb2dVertex
 10
142.9956893774524
 20
21.4869422194897
 30
0.0
  0
VERTEX
  5
4D8
330
4CE
100
AcDbEntity
  8
Visible (ANSI)
100
AcDbVertex
100
AcDb2dVertex
 10
142.9978072669608
 20
21.48227574370441
 30
0.0
  0
VERTEX
  5
4D9
330
4CE
100
AcDbEntity
  8
Visible (ANSI)
100
AcDbVertex
100
AcDb2dVertex
 10
143.0003348904172
 20
21.47811872850851
 30
0.0
  0
VERTEX
  5
4DA
330
4CE
100
AcDbEntity
  8
Visible (ANSI)
100
AcDbVertex
100
AcDb2dVertex
 10
143.0032558879166
 20
21.47449213991741
 30
0.0
  0
VERTEX
  5
4DB
330
4CE
100
AcDbEntity
  8
Visible (ANSI)
100
AcDbVertex
100
AcDb2dVertex
 10
143.0065522402294
 20
21.47141470241811
 30
0.0
  0
VERTEX
  5
4DC
330
4CE
100
AcDbEntity
  8
Visible (ANSI)
100
AcDbVertex
100
AcDb2dVertex
 10
143.0102042947281
 20
21.46890277001305
 30
0.0
  0
VERTEX
  5
4DD
330
4CE
100
AcDbEntity
  8
Visible (ANSI)
100
AcDbVertex
100
AcDb2dVertex
 10
143.0141908950223
 20
21.46697028396378
 30
0.0
  0
VERTEX
  5
4DE
330
4CE
100
AcDbEntity
  8
Visible (ANSI)
100
AcDbVertex
100
AcDb2dVertex
 10
143.0184894431831
 20
21.46562870070887
 30
0.0
  0
VERTEX
  5
4DF
330
4CE
100
AcDbEntity
  8
Visible (ANSI)
100
AcDbVertex
100
AcDb2dVertex
 10
143.0230760060437
 20
21.4648869466621
 30
0.0
  0
VERTEX
  5
4E0
330
4CE
100
AcDbEntity
  8
Visible (ANSI)
100
AcDbVertex
100
AcDb2dVertex
 10
143.027922761395
 20
21.46475290638525
 30
0.0
  0
VERTEX
  5
4E1
330
4CE
100
AcDbEntity
  8
Visible (ANSI)
100
AcDbVertex
100
AcDb2dVertex
 10
143.0330087291498
 20
21.46522728738862
 30
0.0
  0
VERTEX
  5
4E2
330
4CE
100
AcDbEntity
  8
Visible (ANSI)
100
AcDbVertex
100
AcDb2dVertex
 10
143.0383039507183
 20
21.46631276610837
 30
0.0
  0
VERTEX
  5
4E3
330
4CE
100
AcDbEntity
  8
Visible (ANSI)
100
AcDbVertex
100
AcDb2dVertex
 10
143.0437802266544
 20
21.46800787817252
 30
0.0
  0
VERTEX
  5
4E4
330
4CE
100
AcDbEntity
  8
Visible (ANSI)
100
AcDbVertex
100
AcDb2dVertex
 10
143.0494085798654
 20
21.47030854634813
 30
0.0
  0
VERTEX
  5
4E5
330
4CE
100
AcDbEntity
  8
Visible (ANSI)
100
AcDbVertex
100
AcDb2dVertex
 10
143.0551593844367
 20
21.47320810020687
 30
0.0
  0
VERTEX
  5
4E6
330
4CE
100
AcDbEntity
  8
Visible (ANSI)
100
AcDbVertex
100
AcDb2dVertex
 10
143.0610024891089
 20
21.47669730517016
 30
0.0
  0
VERTEX
  5
4E7
330
4CE
100
AcDbEntity
  8
Visible (ANSI)
100
AcDbVertex
100
AcDb2dVertex
 10
143.0669073491813
 20
21.48076440275315
 30
0.0
  0
VERTEX
  5
4E8
330
4CE
100
AcDbEntity
  8
Visible (ANSI)
100
AcDbVertex
100
AcDb2dVertex
 10
143.0728431504748
 20
21.48539515677499
 30
0.0
  0
SEQEND
  5
4D1
330
4CE
100
AcDbEntity
  8
Visible (ANSI)
  0
POLYLINE
  5
4E9
330
6C
100
AcDbEntity
  8
Visible (ANSI)
100
AcDb2dPolyline
 66
     1
 10
0.0
 20
0.0
 30
0.0
 70
   128
  0
VERTEX
  5
4EA
330
4E9
100
AcDbEntity
  8
Visible (ANSI)
100
AcDbVertex
100
AcDb2dVertex
 10
114.9780650720545
 20
37.61153781488685
 30
0.0
  0
VERTEX
  5
4EB
330
4E9
100
AcDbEntity
  8
Visible (ANSI)
100
AcDbVertex
100
AcDb2dVertex
 10
114.9748927594517
 20
37.61346164038925
 30
0.0
  0
VERTEX
  5
4ED
330
4E9
100
AcDbEntity
  8
Visible (ANSI)
100
AcDbVertex
100
AcDb2dVertex
 10
114.971807068786
 20
37.61552950396233
 30
0.0
  0
VERTEX
  5
4EE
330
4E9
100
AcDbEntity
  8
Visible (ANSI)
100
AcDbVertex
100
AcDb2dVertex
 10
114.9688106342354
 20
37.61773958615707
 30
0.0
  0
VERTEX
  5
4EF
330
4E9
100
AcDbEntity
  8
Visible (ANSI)
100
AcDbVertex
100
AcDb2dVertex
 10
114.9659059758993
 20
37.62008990290888
 30
0.0
  0
VERTEX
  5
4F0
330
4E9
100
AcDbEntity
  8
Visible (ANSI)
100
AcDbVertex
100
AcDb2dVertex
 10
114.9630955257256
 20
37.62257833245855
 30
0.0
  0
VERTEX
  5
4F1
330
4E9
100
AcDbEntity
  8
Visible (ANSI)
100
AcDbVertex
100
AcDb2dVertex
 10
114.9603816119544
 20
37.62520259140579
 30
0.0
  0
VERTEX
  5
4F2
330
4E9
100
AcDbEntity
  8
Visible (ANSI)
100
AcDbVertex
100
AcDb2dVertex
 10
114.9577664591177
 20
37.62796025869042
 30
0.0
  0
VERTEX
  5
4F3
330
4E9
100
AcDbEntity
  8
Visible (ANSI)
100
AcDbVertex
100
AcDb2dVertex
 10
114.9552521828547
 20
37.63084876361326
 30
0.0
  0
VERTEX
  5
4F4
330
4E9
100
AcDbEntity
  8
Visible (ANSI)
100
AcDbVertex
100
AcDb2dVertex
 10
114.9528408002821
 20
37.63386541279189
 30
0.0
  0
VERTEX
  5
4F5
330
4E9
100
AcDbEntity
  8
Visible (ANSI)
100
AcDbVertex
100
AcDb2dVertex
 10
114.9505341988817
 20
37.63700734226773
 30
0.0
  0
VERTEX
  5
4F6
330
4E9
100
AcDbEntity
  8
Visible (ANSI)
100
AcDbVertex
100
AcDb2dVertex
 10
114.9483341727984
 20
37.64027158637079
 30
0.0
  0
VERTEX
  5
4F7
330
4E9
100
AcDbEntity
  8
Visible (ANSI)
100
AcDbVertex
100
AcDb2dVertex
 10
114.9462423917277
 20
37.64365502383161
 30
0.0
  0
VERTEX
  5
4F8
330
4E9
100
AcDbEntity
  8
Visible (ANSI)
100
AcDbVertex
100
AcDb2dVertex
 10
114.9442604112866
 20
37.64715441972502
 30
0.0
  0
VERTEX
  5
4F9
330
4E9
100
AcDbEntity
  8
Visible (ANSI)
100
AcDbVertex
100
AcDb2dVertex
 10
114.9423896678281
 20
37.65076641049355
 30
0.0
  0
VERTEX
  5
4FA
330
4E9
100
AcDbEntity
  8
Visible (ANSI)
100
AcDbVertex
100
AcDb2dVertex
 10
114.9406314732557
 20
37.65448750096132
 30
0.0
  0
VERTEX
  5
4FB
330
4E9
100
AcDbEntity
  8
Visible (ANSI)
100
AcDbVertex
100
AcDb2dVertex
 10
114.93898703058
 20
37.65831410326869
 30
0.0
  0
VERTEX
  5
4FC
330
4E9
100
AcDbEntity
  8
Visible (ANSI)
100
AcDbVertex
100
AcDb2dVertex
 10
114.9374574131766
 20
37.66224248296099
 30
0.0
  0
VERTEX
  5
4FD
330
4E9
100
AcDbEntity
  8
Visible (ANSI)
100
AcDbVertex
100
AcDb2dVertex
 10
114.9360435544157
 20
37.66626883090874
 30
0.0
  0
VERTEX
  5
4FE
330
4E9
100
AcDbEntity
  8
Visible (ANSI)
100
AcDbVertex
100
AcDb2dVertex
 10
114.9347463047012
 20
37.67038920641037
 30
0.0
  0
VERTEX
  5
4FF
330
4E9
100
AcDbEntity
  8
Visible (ANSI)
100
AcDbVertex
100
AcDb2dVertex
 10
114.93356635369
 20
37.67459956406677
 30
0.0
  0
VERTEX
  5
500
330
4E9
100
AcDbEntity
  8
Visible (ANSI)
100
AcDbVertex
100
AcDb2dVertex
 10
114.9325042769603
 20
37.67889579882698
 30
0.0
  0
VERTEX
  5
501
330
4E9
100
AcDbEntity
  8
Visible (ANSI)
100
AcDbVertex
100
AcDb2dVertex
 10
114.9315605152703
 20
37.68327366804947
 30
0.0
  0
VERTEX
  5
502
330
4E9
100
AcDbEntity
  8
Visible (ANSI)
100
AcDbVertex
100
AcDb2dVertex
 10
114.9307353901141
 20
37.68772886041317
 30
0.0
  0
VERTEX
  5
503
330
4E9
100
AcDbEntity
  8
Visible (ANSI)
100
AcDbVertex
100
AcDb2dVertex
 10
114.9300290985366
 20
37.69225700492197
 30
0.0
  0
SEQEND
  5
4EC
330
4E9
100
AcDbEntity
  8
Visible (ANSI)
  0
LINE
  5
504
330
6C
100
AcDbEntity
  8
Visible (ANSI)
100
AcDbLine
 10
115.532727010023
 20
37.97172058690998
 30
0.0
 11
115.734399532234
 21
38.08785606859244
 31
0.0
  0
LINE
  5
505
330
6C
100
AcDbEntity
  8
Visible (ANSI)
100
AcDbLine
 10
143.0728425204972
 20
21.52046435369857
 30
0.0
 11
143.0728425204972
 21
21.48539552003273
 31
0.0
  0
LINE
  5
506
330
6C
100
AcDbEntity
  8
Visible (ANSI)
100
AcDbLine
 10
143.0728425204972
 20
21.48539552003273
 30
0.0
 11
143.1723415762436
 21
21.54269321552133
 31
0.0
  0
LINE
  5
507
330
6C
100
AcDbEntity
  8
Visible (ANSI)
100
AcDbLine
 10
143.2109087201244
 20
21.56490255659867
 30
0.0
 11
143.7357551278594
 21
21.8671415017131
 31
0.0
  0
LINE
  5
508
330
6C
100
AcDbEntity
  8
Visible (ANSI)
100
AcDbLine
 10
143.7357551278594
 20
21.86777280392265
 30
0.0
 11
143.7357551278594
 21
21.8671415017131
 31
0.0
  0
LINE
  5
509
330
6C
100
AcDbEntity
  8
Visible (ANSI)
100
AcDbLine
 10
143.8772129537799
 20
70.67495725729933
 30
0.0
 11
143.8772129537798
 21
21.94923294817483
 31
0.0
  0
LINE
  5
50A
330
6C
100
AcDbEntity
  8
Visible (ANSI)
100
AcDbLine
 10
115.7343995322341
 20
87.04487725545209
 30
0.0
 11
143.7357551278596
 21
70.91996899226528
 31
0.0
  0
LINE
  5
50B
330
6C
100
AcDbEntity
  8
Visible (ANSI)
100
AcDbLine
 10
115.675805782234
 20
38.18934325215591
 30
0.0
 11
115.675805782234
 21
38.30049531951218
 31
0.0
  0
LINE
  5
50C
330
6C
100
AcDbEntity
  8
Visible (ANSI)
100
AcDbLine
 10
115.6758057822341
 20
61.46922688366364
 30
0.0
 11
115.6758057822341
 21
61.93271689699175
 31
0.0
  0
LINE
  5
50D
330
6C
100
AcDbEntity
  8
Visible (ANSI)
100
AcDbLine
 10
115.6758057822341
 20
85.1014484611432
 30
0.0
 11
115.6758057822341
 21
85.5649384744713
 31
0.0
  0
LINE
  5
50E
330
6C
100
AcDbEntity
  8
Visible (ANSI)
100
AcDbLine
 10
142.5660593668675
 20
22.63653079596555
 30
0.0
 11
142.164482024463
 21
22.86778380743971
 31
0.0
  0
LINE
  5
50F
330
6C
100
AcDbEntity
  8
Visible (ANSI)
100
AcDbLine
 10
115.8285842032472
 20
38.03361872373606
 30
0.0
 11
115.734399532234
 21
38.08785606859244
 31
0.0
  0
SPLINE
  5
510
330
6C
100
AcDbEntity
  8
Visible (ANSI)
100
AcDbSpline
210
0.0
220
0.0
230
1.0
 70
     8
 71
     3
 72
    11
 73
     7
 74
     0
 42
0.0000000001
 43
0.0000000001
 40
0.0
 40
0.0
 40
0.0
 40
0.0
 40
1.048975082050058
 40
1.048975082050058
 40
1.048975082050058
 40
1.57079632679489
 40
1.57079632679489
 40
1.57079632679489
 40
1.57079632679489
 10
59.84589649177507
 20
98.08416578006692
 30
0.0
 10
59.88960378686049
 20
98.08416578006692
 30
0.0
 10
59.9324742612316
 20
98.10896788847424
 30
0.0
 10
59.95426059184877
 20
98.14685830206295
 30
0.0
 10
59.96509838042509
 20
98.16570719859164
 30
0.0
 10
59.97089649177507
 20
98.18742322820256
 30
0.0
 10
59.97089649177507
 20
98.20916578006691
 30
0.0
  0
LINE
  5
511
330
6C
100
AcDbEntity
  8
Visible (ANSI)
100
AcDbLine
 10
59.87714649177506
 20
98.2091657800669
 30
0.0
 11
59.87714649177507
 21
98.95916578006691
 31
0.0
  0
LINE
  5
512
330
6C
100
AcDbEntity
  8
Visible (ANSI)
100
AcDbLine
 10
59.87714649177506
 20
98.2091657800669
 30
0.0
 11
59.97089649177507
 21
98.2091657800669
 31
0.0
  0
SPLINE
  5
513
330
6C
100
AcDbEntity
  8
Visible (ANSI)
100
AcDbSpline
210
0.0
220
0.0
230
1.0
 70
     8
 71
     3
 72
    11
 73
     7
 74
     0
 42
0.0000000001
 43
0.0000000001
 40
0.0
 40
0.0
 40
0.0
 40
0.0
 40
1.483474787626228
 40
1.483474787626228
 40
1.483474787626228
 40
1.57079632679489
 40
1.57079632679489
 40
1.57079632679489
 40
1.57079632679489
 10
59.84589649177507
 20
98.17791578006691
 30
0.0
 10
59.86134935414617
 20
98.17791578006691
 30
0.0
 10
59.87567977248827
 20
98.1910464631532
 30
0.0
 10
59.87702742603573
 20
98.20644044851688
 30
0.0
 10
59.87710675275097
 20
98.20734658221534
 30
0.0
 10
59.87714649177506
 20
98.20825618070056
 30
0.0
 10
59.87714649177506
 20
98.2091657800669
 30
0.0
  0
LINE
  5
514
330
6C
100
AcDbEntity
  8
Visible (ANSI)
100
AcDbLine
 10
59.84589649177506
 20
98.17791578006691
 30
0.0
 11
59.84589649177506
 21
98.08416578006692
 31
0.0
  0
LINE
  5
515
330
6C
100
AcDbEntity
  8
Visible (ANSI)
100
AcDbLine
 10
59.97089649177507
 20
98.2091657800669
 30
0.0
 11
59.97089649177507
 21
98.95916578006691
 31
0.0
  0
LINE
  5
516
330
6C
100
AcDbEntity
  8
Visible (ANSI)
100
AcDbLine
 10
59.87714649177507
 20
98.95916578006691
 30
0.0
 11
59.97089649177507
 21
98.95916578006691
 31
0.0
  0
SPLINE
  5
517
330
6C
100
AcDbEntity
  8
Visible (ANSI)
100
AcDbSpline
210
0.0
220
0.0
230
1.0
 70
     8
 71
     3
 72
    11
 73
     7
 74
     0
 42
0.0000000001
 43
0.0000000001
 40
0.0
 40
0.0
 40
0.0
 40
0.0
 40
1.048975082050324
 40
1.048975082050324
 40
1.048975082050324
 40
1.57079632679489
 40
1.57079632679489
 40
1.57079632679489
 40
1.57079632679489
 10
28.09589649177506
 20
98.08416578006692
 30
0.0
 10
28.10369665630073
 20
98.08416578006694
 30
0.0
 10
28.11149682082639
 20
98.10896788847429
 30
0.0
 10
28.11929698535206
 20
98.146858302063
 30
0.0
 10
28.12317724107181
 20
98.16570719859171
 30
0.0
 10
28.12705749679155
 20
98.18742322820259
 30
0.0
 10
28.1309377525113
 20
98.20916578006695
 30
0.0
  0
SPLINE
  5
518
330
6C
100
AcDbEntity
  8
Visible (ANSI)
100
AcDbSpline
210
0.0
220
0.0
230
1.0
 70
     8
 71
     3
 72
    11
 73
     7
 74
     0
 42
0.0000000001
 43
0.0000000001
 40
0.0
 40
0.0
 40
0.0
 40
0.0
 40
1.04897508205034
 40
1.04897508205034
 40
1.04897508205034
 40
1.570796326795121
 40
1.570796326795121
 40
1.570796326795121
 40
1.570796326795121
 10
59.81085523103883
 20
98.20916578006697
 30
0.0
 10
59.81865539556449
 20
98.16545848498154
 30
0.0
 10
59.82645556009015
 20
98.12258801061041
 30
0.0
 10
59.83425572461582
 20
98.10080167999322
 30
0.0
 10
59.83813598033556
 20
98.0899638914169
 30
0.0
 10
59.84201623605531
 20
98.08416578006692
 30
0.0
 10
59.84589649177506
 20
98.08416578006692
 30
0.0
  0
LINE
  5
519
330
6C
100
AcDbEntity
  8
Visible (ANSI)
100
AcDbLine
 10
59.81085523103883
 20
98.95916578006698
 30
0.0
 11
59.81085523103883
 21
98.20916578006697
 31
0.0
  0
SPLINE
  5
51A
330
6C
100
AcDbEntity
  8
Visible (ANSI)
100
AcDbSpline
210
0.0
220
0.0
230
1.0
 70
     8
 71
     3
 72
    11
 73
     7
 74
     0
 42
0.0000000001
 43
0.0000000001
 40
0.0
 40
0.0
 40
0.0
 40
0.0
 40
1.483474787626232
 40
1.483474787626232
 40
1.483474787626232
 40
1.570796326795121
 40
1.570796326795121
 40
1.570796326795121
 40
1.570796326795121
 10
59.84589649177506
 20
98.17791578006691
 30
0.0
 10
59.83486539331412
 20
98.17791578006692
 30
0.0
 10
59.8238342948532
 20
98.19104646315324
 30
0.0
 10
59.81280319639227
 20
98.2064404485169
 30
0.0
 10
59.81215387460778
 20
98.20734658221535
 30
0.0
 10
59.8115045528233
 20
98.2082561807006
 30
0.0
 10
59.81085523103883
 20
98.20916578006693
 30
0.0
  0
SPLINE
  5
51B
330
6C
100
AcDbEntity
  8
Visible (ANSI)
100
AcDbSpline
210
0.0
220
0.0
230
1.0
 70
     8
 71
     3
 72
    11
 73
     7
 74
     0
 42
0.0000000001
 43
0.0000000001
 40
0.0
 40
0.0
 40
0.0
 40
0.0
 40
1.483474787626229
 40
1.483474787626229
 40
1.483474787626229
 40
1.57079632679489
 40
1.57079632679489
 40
1.57079632679489
 40
1.57079632679489
 10
28.09589649177506
 20
98.17791578006691
 30
0.0
 10
28.106927590236
 20
98.17791578006692
 30
0.0
 10
28.11795868869693
 20
98.19104646315324
 30
0.0
 10
28.12898978715786
 20
98.2064404485169
 30
0.0
 10
28.12963910894234
 20
98.20734658221535
 30
0.0
 10
28.13028843072682
 20
98.2082561807006
 30
0.0
 10
28.1309377525113
 20
98.20916578006693
 30
0.0
  0
LINE
  5
51C
330
6C
100
AcDbEntity
  8
Visible (ANSI)
100
AcDbLine
 10
28.09589649177506
 20
98.17791578006691
 30
0.0
 11
28.09589649177506
 21
98.08416578006692
 31
0.0
  0
LINE
  5
51D
330
6C
100
AcDbEntity
  8
Visible (ANSI)
100
AcDbLine
 10
28.1309377525113
 20
98.20916578006695
 30
0.0
 11
28.1309377525113
 21
98.95916578006696
 31
0.0
  0
SPLINE
  5
51E
330
6C
100
AcDbEntity
  8
Visible (ANSI)
100
AcDbSpline
210
0.0
220
0.0
230
1.0
 70
     8
 71
     3
 72
    11
 73
     7
 74
     0
 42
0.0000000001
 43
0.0000000001
 40
0.0
 40
0.0
 40
0.0
 40
0.0
 40
1.048975082050298
 40
1.048975082050298
 40
1.048975082050298
 40
1.570796326794879
 40
1.570796326794879
 40
1.570796326794879
 40
1.570796326794879
 10
27.97089649177506
 20
98.2091657800669
 30
0.0
 10
27.97089649177506
 20
98.16545848498147
 30
0.0
 10
27.9956986001824
 20
98.12258801061036
 30
0.0
 10
28.03358901377112
 20
98.10080167999318
 30
0.0
 10
28.05243791029982
 20
98.0899638914169
 30
0.0
 10
28.0741539399107
 20
98.08416578006692
 30
0.0
 10
28.09589649177506
 20
98.08416578006692
 30
0.0
  0
LINE
  5
51F
330
6C
100
AcDbEntity
  8
Visible (ANSI)
100
AcDbLine
 10
28.06464649177506
 20
98.2091657800669
 30
0.0
 11
28.06464649177506
 21
98.95916578006691
 31
0.0
  0
LINE
  5
520
330
6C
100
AcDbEntity
  8
Visible (ANSI)
100
AcDbLine
 10
27.97089649177506
 20
98.95916578006691
 30
0.0
 11
27.97089649177506
 21
98.2091657800669
 31
0.0
  0
LINE
  5
521
330
6C
100
AcDbEntity
  8
Visible (ANSI)
100
AcDbLine
 10
28.06464649177506
 20
98.2091657800669
 30
0.0
 11
27.97089649177506
 21
98.2091657800669
 31
0.0
  0
LINE
  5
522
330
6C
100
AcDbEntity
  8
Visible (ANSI)
100
AcDbLine
 10
28.06464649177506
 20
98.95916578006691
 30
0.0
 11
27.97089649177506
 21
98.95916578006691
 31
0.0
  0
SPLINE
  5
523
330
6C
100
AcDbEntity
  8
Visible (ANSI)
100
AcDbSpline
210
0.0
220
0.0
230
1.0
 70
     8
 71
     3
 72
    11
 73
     7
 74
     0
 42
0.0000000001
 43
0.0000000001
 40
0.0
 40
0.0
 40
0.0
 40
0.0
 40
1.483474787626963
 40
1.483474787626963
 40
1.483474787626963
 40
1.570796326794879
 40
1.570796326794879
 40
1.570796326794879
 40
1.570796326794879
 10
28.09589649177506
 20
98.17791578006691
 30
0.0
 10
28.08044362940395
 20
98.17791578006691
 30
0.0
 10
28.06611321106185
 20
98.19104646315324
 30
0.0
 10
28.06476555751439
 20
98.2064404485169
 30
0.0
 10
28.06468623079915
 20
98.20734658221535
 30
0.0
 10
28.06464649177506
 20
98.20825618070058
 30
0.0
 10
28.06464649177506
 20
98.2091657800669
 30
0.0
  0
LINE
  5
524
330
6C
100
AcDbEntity
  8
Visible (ANSI)
100
AcDbLine
 10
59.84589649177506
 20
98.08416578006692
 30
0.0
 11
28.09589649177506
 21
98.08416578006692
 31
0.0
  0
LINE
  5
525
330
6C
100
AcDbEntity
  8
Hidden (ANSI)
100
AcDbLine
 10
28.09589649177506
 20
98.17791578006691
 30
0.0
 11
59.84589649177505
 21
98.17791578006691
 31
0.0
  0
LINE
  5
526
330
6C
100
AcDbEntity
  8
Visible (ANSI)
100
AcDbLine
 10
28.1309377525113
 20
98.95916578006696
 30
0.0
 11
59.81085523103883
 21
98.95916578006698
 31
0.0
  0
LINE
  5
527
330
6C
100
AcDbEntity
  8
Hidden (ANSI)
100
AcDbLine
 10
59.37739649177506
 20
98.17791578006669
 30
0.0
 11
59.37739649177506
 21
98.08416578006671
 31
0.0
  0
LINE
  5
528
330
6C
100
AcDbEntity
  8
Hidden (ANSI)
100
AcDbLine
 10
58.81439649177505
 20
98.17791578006669
 30
0.0
 11
58.81439649177505
 21
98.08416578006671
 31
0.0
  0
LINE
  5
529
330
6C
100
AcDbEntity
  8
Hidden (ANSI)
100
AcDbLine
 10
29.12739649177506
 20
98.17791578006669
 30
0.0
 11
29.12739649177506
 21
98.08416578006671
 31
0.0
  0
LINE
  5
52A
330
6C
100
AcDbEntity
  8
Hidden (ANSI)
100
AcDbLine
 10
28.56439649177506
 20
98.17791578006669
 30
0.0
 11
28.56439649177506
 21
98.08416578006671
 31
0.0
  0
MTEXT
  5
52B
330
6C
100
AcDbEntity
  8
Symbol (ANSI)
100
AcDbMText
 10
40.06166927336376
 20
92.53079699830433
 30
0.0
 40
1.200000014830761
 41
0.0
 46
0.0
 71
     7
 72
     1
  1
TOP VIEW
  7
Text Style153
 73
     1
 44
1.0
  0
LINE
  5
52C
330
6C
100
AcDbEntity
  8
Symbol (ANSI)
370
    30
100
AcDbLine
 10
40.06262927583322
 20
92.28608062455542
 30
0.0
 11
47.63410404951054
 21
92.28608062455542
 31
0.0
  0
LINE
  5
52D
330
6C
100
AcDbEntity
  8
Center Mark (ANSI)
  6
Continuous
100
AcDbLine
 10
28.84589649176192
 20
78.88979147857035
 30
0.0
 11
28.84589649176192
 21
75.82679147857035
 31
0.0
  0
LINE
  5
52E
330
6C
100
AcDbEntity
  8
Center Mark (ANSI)
  6
Continuous
100
AcDbLine
 10
59.09589649176192
 20
78.88979147857035
 30
0.0
 11
59.09589649176192
 21
75.82679147857035
 31
0.0
  0
LINE
  5
52F
330
6C
100
AcDbEntity
  8
Centerline (ANSI)
  6
Continuous
100
AcDbLine
 10
27.31439649176192
 20
77.35829147857036
 30
0.0
 11
60.62739649176193
 21
77.35829147857036
 31
0.0
  0
LINE
  5
530
330
6C
100
AcDbEntity
  8
Center Mark (ANSI)
  6
Continuous
100
AcDbLine
 10
60.62739649176192
 20
77.35829147857036
 30
0.0
 11
57.56439649176192
 21
77.35829147857036
 31
0.0
  0
LINE
  5
531
330
6C
100
AcDbEntity
  8
Center Mark (ANSI)
  6
Continuous
100
AcDbLine
 10
60.62739649176192
 20
31.10829147857036
 30
0.0
 11
57.56439649176192
 21
31.10829147857036
 31
0.0
  0
LINE
  5
532
330
6C
100
AcDbEntity
  8
Centerline (ANSI)
  6
Continuous
100
AcDbLine
 10
59.09589649176192
 20
78.88979147857035
 30
0.0
 11
59.09589649176192
 21
29.57679147857036
 31
0.0
  0
LINE
  5
533
330
6C
100
AcDbEntity
  8
Center Mark (ANSI)
  6
Continuous
100
AcDbLine
 10
59.09589649176192
 20
29.57679147857036
 30
0.0
 11
59.09589649176192
 21
32.63979147857036
 31
0.0
  0
LINE
  5
534
330
6C
100
AcDbEntity
  8
Center Mark (ANSI)
  6
Continuous
100
AcDbLine
 10
28.84589649176191
 20
29.57679147857036
 30
0.0
 11
28.84589649176191
 21
32.63979147857037
 31
0.0
  0
LINE
  5
535
330
6C
100
AcDbEntity
  8
Centerline (ANSI)
  6
Continuous
100
AcDbLine
 10
60.62739649176192
 20
31.10829147857036
 30
0.0
 11
27.3143964917619
 21
31.10829147857036
 31
0.0
  0
LINE
  5
536
330
6C
100
AcDbEntity
  8
Center Mark (ANSI)
  6
Continuous
100
AcDbLine
 10
27.3143964917619
 20
31.10829147857036
 30
0.0
 11
30.37739649176191
 21
31.10829147857036
 31
0.0
  0
LINE
  5
537
330
6C
100
AcDbEntity
  8
Center Mark (ANSI)
  6
Continuous
100
AcDbLine
 10
27.31439649176192
 20
77.35829147857036
 30
0.0
 11
30.37739649176192
 21
77.35829147857036
 31
0.0
  0
LINE
  5
538
330
6C
100
AcDbEntity
  8
Centerline (ANSI)
  6
Continuous
100
AcDbLine
 10
28.84589649176191
 20
29.57679147857036
 30
0.0
 11
28.84589649176192
 21
78.88979147857035
 31
0.0
  0
LINE
  5
539
330
6C
100
AcDbEntity
  8
Center Mark (ANSI)
  6
Continuous
100
AcDbLine
 10
28.84589649176193
 20
55.76479147857035
 30
0.0
 11
28.84589649176193
 21
52.70179147857035
 31
0.0
  0
LINE
  5
53A
330
6C
100
AcDbEntity
  8
Center Mark (ANSI)
  6
Continuous
100
AcDbLine
 10
59.09589649176194
 20
55.76479147857036
 30
0.0
 11
59.09589649176194
 21
52.70179147857036
 31
0.0
  0
LINE
  5
53B
330
6C
100
AcDbEntity
  8
Centerline (ANSI)
  6
Continuous
100
AcDbLine
 10
27.31439649176193
 20
54.23329147857035
 30
0.0
 11
60.62739649176194
 21
54.23329147857036
 31
0.0
  0
DIMENSION
  5
53C
330
6C
100
AcDbEntity
  8
Dimension (ANSI)
100
AcDbDimension
280
     0
  2
*D4
 10
59.97089649176192
 20
86.73466754066875
 30
0.0
 11
43.97089649176192
 21
86.73466754066875
 31
0.0
 70
   160
  1
<>
 42
32.0
 73
     0
 74
     0
 75
     0
  3
Default (ANSI)
100
AcDbAlignedDimension
 13
27.97089649176192
 23
78.07325021783412
 33
0.0
 14
59.97089649176192
 24
78.07325021783412
 34
0.0
100
AcDbRotatedDimension
1001
ACAD
1000
DSTYLE
1002
{
1070
   289
1070
     1
1070
    73
1070
     0
1070
    74
1070
     0
1070
   271
1070
     2
1070
   272
1070
     2
1070
    48
1040
0.0
1070
    47
1040
0.0
1002
}
  0
DIMENSION
  5
628
330
6C
100
AcDbEntity
  8
Dimension (ANSI)
100
AcDbDimension
280
     0
  2
*D5
 10
28.84589649176192
 20
82.82679935258611
 30
0.0
 11
23.64079027373179
 21
82.82679935258611
 31
0.0
 70
   160
  1
<>
 42
0.8749999999999964
 73
     0
 74
     0
 75
     0
  3
Default (ANSI)
100
AcDbAlignedDimension
 13
27.97089649176192
 23
78.07325021783412
 33
0.0
 14
28.84589649176192
 24
78.88979147857035
 34
0.0
100
AcDbRotatedDimension
1001
ACAD
1000
DSTYLE
1002
{
1070
   289
1070
     1
1070
    73
1070
     0
1070
    74
1070
     0
1070
   271
1070
     2
1070
   272
1070
     2
1070
    48
1040
0.0
1070
    47
1040
0.0
1002
}
  0
DIMENSION
  5
712
330
6C
100
AcDbEntity
  8
Dimension (ANSI)
100
AcDbDimension
280
     0
  2
*D6
 10
59.09589649176192
 20
82.82679935258611
 30
0.0
 11
43.97089649176192
 21
82.82679935258611
 31
0.0
 70
   160
  1
<>
 42
30.25
 73
     0
 74
     0
 75
     0
  3
Default (ANSI)
100
AcDbAlignedDimension
 13
28.84589649176192
 23
78.88979147857035
 33
0.0
 14
59.09589649176192
 24
78.88979147857035
 34
0.0
 50
180.0
100
AcDbRotatedDimension
1001
ACAD
1000
DSTYLE
1002
{
1070
   289
1070
     1
1070
    73
1070
     0
1070
    74
1070
     0
1070
   271
1070
     2
1070
   272
1070
     2
1070
    48
1040
0.0
1070
    47
1040
0.0
1002
}
  0
DIMENSION
  5
7FC
330
6C
100
AcDbEntity
  8
Dimension (ANSI)
100
AcDbDimension
280
     0
  2
*D7
 10
26.21468049287579
 20
31.10829147857036
 30
0.0
 11
23.37738861774617
 21
27.36331481974896
 31
0.0
 70
   160
  1
<>
 42
0.8750000000000035
 73
     0
 74
     0
 75
     0
  3
Default (ANSI)
100
AcDbAlignedDimension
 13
28.13093775249818
 23
30.23329147857036
 33
0.0
 14
27.3143964917619
 24
31.10829147857036
 34
0.0
 50
90.0
100
AcDbRotatedDimension
1001
ACAD
1000
DSTYLE
1002
{
1070
   289
1070
     1
1070
   271
1070
     2
1070
   272
1070
     2
1070
    48
1040
0.0
1070
    47
1040
0.0
1002
}
  0
DIMENSION
  5
8FC
330
6C
100
AcDbEntity
  8
Dimension (ANSI)
100
AcDbDimension
280
     0
  2
*D8
 10
23.37738861774617
 20
54.23329147857035
 30
0.0
 11
23.37738861774616
 21
42.67079147857036
 31
0.0
 70
   160
  1
<>
 42
23.125
 73
     0
 74
     0
 75
     0
  3
Default (ANSI)
100
AcDbAlignedDimension
 13
27.3143964917619
 23
31.10829147857036
 33
0.0
 14
27.31439649176193
 24
54.23329147857035
 34
0.0
 50
90.0
100
AcDbRotatedDimension
1001
ACAD
1000
DSTYLE
1002
{
1070
   289
1070
     1
1070
   271
1070
     2
1070
   272
1070
     2
1070
    48
1040
0.0
1070
    47
1040
0.0
1002
}
  0
DIMENSION
  5
9E6
330
6C
100
AcDbEntity
  8
Dimension (ANSI)
100
AcDbDimension
280
     0
  2
*D9
 10
16.29077444451783
 20
77.35829147857036
 30
0.0
 11
16.29077444451782
 21
54.23329147857035
 31
0.0
 70
   160
  1
<>
 42
46.25
 73
     0
 74
     0
 75
     0
  3
Default (ANSI)
100
AcDbAlignedDimension
 13
27.3143964917619
 23
31.10829147857036
 33
0.0
 14
27.31439649176192
 24
77.35829147857036
 34
0.0
 50
90.0
100
AcDbRotatedDimension
1001
ACAD
1000
DSTYLE
1002
{
1070
   289
1070
     1
1070
   271
1070
     2
1070
   272
1070
     2
1070
    48
1040
0.0
1070
    47
1040
0.0
1002
}
  0
DIMENSION
  5
AD0
330
6C
100
AcDbEntity
  8
Dimension (ANSI)
100
AcDbDimension
280
     0
  2
*D10
 10
10.02070153202574
 20
78.23329147857034
 30
0.0
 11
10.02070153202573
 21
54.23329147857037
 31
0.0
 70
   160
  1
<>
 42
47.99999999999997
 73
     0
 74
     0
 75
     0
  3
Default (ANSI)
100
AcDbAlignedDimension
 13
28.13093775249818
 23
30.23329147857036
 33
0.0
 14
28.13093775249816
 24
78.23329147857034
 34
0.0
 50
90.0
100
AcDbRotatedDimension
1001
ACAD
1000
DSTYLE
1002
{
1070
   289
1070
     1
1070
   271
1070
     2
1070
   272
1070
     2
1070
    48
1040
0.0
1070
    47
1040
0.0
1002
}
  0
DIMENSION
  5
BBA
330
6C
100
AcDbEntity
  8
Dimension (ANSI)
100
AcDbDimension
280
     0
  2
*D11
 10
58.92388661494891
 20
31.33112516605672
 30
0.0
 11
65.62121836034011
 21
28.1209711084221
 31
0.0
 70
   163
  1
<>{\P(6 PL.)}
 71
     4
 42
0.5629999999999964
 73
     0
 74
     0
 75
     0
  3
Default (ANSI)
100
AcDbDiametricDimension
 15
59.26790636857492
 25
30.88545779108398
 35
0.0
 40
0.0
1001
ACAD
1000
DSTYLE
1002
{
1070
   144
1040
1.000000000000001
1070
   271
1070
     3
1070
   272
1070
     3
1070
    48
1040
0.0
1070
    47
1040
0.0
1002
}
1001
ACAD_DSTYLE_DIMRADIAL_EXTENSION
1070
   387
1070
     1
1070
   388
1040
0.0
1070
   390
1040
0.0
  0
DIMENSION
  5
C75
330
6C
100
AcDbEntity
  8
Dimension (ANSI)
100
AcDbDimension
280
     0
  2
*D12
 10
53.12666678571105
 20
98.08416578006692
 30
0.0
 11
56.01110439780232
 21
103.179142455573
 31
0.0
 70
   160
  1
<>{\PTYP.}
 71
     5
 42
0.8750000000000568
 73
     0
 74
     0
 75
     0
  3
Default (ANSI)
100
AcDbAlignedDimension
 13
56.01110439780232
 23
98.95916578006698
 33
0.0
 14
55.99492084722498
 24
98.08416578006692
 34
0.0
 50
270.0
100
AcDbRotatedDimension
1001
ACAD
1000
DSTYLE
1002
{
1070
   289
1070
     1
1070
   271
1070
     2
1070
    76
1070
     1
1070
    75
1070
     1
1070
   272
1070
     2
1070
    48
1040
0.0
1070
    47
1040
0.0
1002
}
  0
DIMENSION
  5
D7E
330
6C
100
AcDbEntity
  8
Dimension (ANSI)
100
AcDbDimension
280
     0
  2
*D13
 10
84.07065925187708
 20
75.82456652241994
 30
0.0
 11
89.36839108788822
 21
75.82456652241994
 31
0.0
 70
   160
  1
<>{\PTYP.}
 71
     4
 42
0.8750000000000426
 73
     0
 74
     0
 75
     0
  3
Default (ANSI)
100
AcDbAlignedDimension
 13
84.94565925187712
 23
75.82456652241994
 33
0.0
 14
84.07065925187708
 24
75.82456652241991
 34
0.0
 50
180.0
100
AcDbRotatedDimension
1001
ACAD
1000
DSTYLE
1002
{
1070
   289
1070
     1
1070
    73
1070
     0
1070
    74
1070
     0
1070
   271
1070
     2
1070
    76
1070
     1
1070
    75
1070
     1
1070
   272
1070
     2
1070
    48
1040
0.0
1070
    47
1040
0.0
1002
}
  0
MTEXT
  5
E6D
102
{ACAD_XDICTIONARY
360
E74
102
}
330
6C
100
AcDbEntity
  8
Symbol (ANSI)
100
AcDbMText
 10
93.58030252877892
 20
9.020200700110573
 30
0.0
 40
1.000000031914297
 41
73.83387107548756
 46
0.0
 71
     4
 72
     1
  3
{\fRomanS|b0|i0|c0|p2;\H2x;PART#: WA60P36F1\P(DATA SUBJECT TO CHANGE WITHOUT NOTICE)\H1.6157x; \H0.61894x;\P \H1.352x; \H0.73963x;\P\H0.6x;THIS DRAWING IS PROPERTY OF HUBBELL INC. WIEGMANN\H1.5633x; \H0.63966x;\PALL INFORMATION IS PROPRIETARY AND NOT
  1
 TO BE DUPLICATED\H1.234x; \H0.81039x;\P\H1.2571x; }
  7
Note Text (ANSI)
 73
     1
 44
0.8026435375213623
  0
ENDSEC
  0
SECTION
  2
OBJECTS
  0
DICTIONARY
  5
C
330
0
100
AcDbDictionary
281
     1
  3
ACAD_CIP_PREVIOUS_PRODUCT_INFO
350
E6F
  3
ACAD_COLOR
350
63
  3
ACAD_GROUP
350
D
  3
ACAD_LAYOUT
350
62
  3
ACAD_MATERIAL
350
10
  3
ACAD_MLEADERSTYLE
350
66
  3
ACAD_MLINESTYLE
350
5F
  3
ACAD_PLOTSETTINGS
350
61
  3
ACAD_PLOTSTYLENAME
350
E
  3
ACAD_SCALELIST
350
42
  3
ACAD_TABLESTYLE
350
64
  3
ACAD_VISUALSTYLE
350
29
  3
ACDB_RECOMPOSE_DATA
350
E76
  3
AcDbVariableDictionary
350
76
  0
DICTIONARY
  5
E74
330
E6D
100
AcDbDictionary
280
     1
281
     1
  3
ACAD_MTEXT_2008_RT
360
E75
  0
XRECORD
  5
E6F
102
{ACAD_REACTORS
330
C
102
}
330
C
100
AcDbXrecord
280
     1
300
INVNTOR
300
2012
300
PDSP_F_S
  0
DICTIONARY
  5
63
102
{ACAD_REACTORS
330
C
102
}
330
C
100
AcDbDictionary
281
     1
  0
DICTIONARY
  5
D
102
{ACAD_REACTORS
330
C
102
}
330
C
100
AcDbDictionary
281
     1
  0
DICTIONARY
  5
62
102
{ACAD_REACTORS
330
C
102
}
330
C
100
AcDbDictionary
281
     1
  3
Layout1
350
6B
  3
Layout2
350
73
  3
Model
350
6F
  0
DICTIONARY
  5
10
102
{ACAD_REACTORS
330
C
102
}
330
C
100
AcDbDictionary
281
     1
  3
ByBlock
350
19
  3
ByLayer
350
11
  3
Global
350
21
  0
DICTIONARY
  5
66
102
{ACAD_REACTORS
330
C
102
}
330
C
100
AcDbDictionary
281
     1
  3
Standard
350
67
  0
DICTIONARY
  5
5F
102
{ACAD_REACTORS
330
C
102
}
330
C
100
AcDbDictionary
281
     1
  3
Standard
350
60
  0
DICTIONARY
  5
61
102
{ACAD_REACTORS
330
C
102
}
330
C
100
AcDbDictionary
281
     1
  0
ACDBDICTIONARYWDFLT
  5
E
102
{ACAD_REACTORS
330
C
102
}
330
C
100
AcDbDictionary
281
     1
  3
Normal
350
F
100
AcDbDictionaryWithDefault
340
F
  0
DICTIONARY
  5
42
102
{ACAD_REACTORS
330
C
102
}
330
C
100
AcDbDictionary
281
     1
  3
A0
350
43
  3
A1
350
44
  3
A2
350
45
  3
A3
350
46
  3
A4
350
47
  3
A5
350
48
  3
A6
350
49
  3
A7
350
4A
  3
A8
350
4B
  3
A9
350
4C
  3
B0
350
4D
  3
B1
350
4E
  3
B2
350
4F
  3
B3
350
50
  3
B4
350
51
  3
B5
350
52
  3
B6
350
53
  0
DICTIONARY
  5
64
102
{ACAD_REACTORS
330
C
102
}
330
C
100
AcDbDictionary
281
     1
  3
Standard
350
65
  0
DICTIONARY
  5
29
102
{ACAD_REACTORS
330
C
102
}
330
C
100
AcDbDictionary
281
     1
  3
2dWireframe
350
2F
  3
Basic
350
2E
  3
Brighten
350
35
  3
ColorChange
350
39
  3
Conceptual
350
32
  3
Dim
350
34
  3
EdgeColorOff
350
41
  3
Facepattern
350
38
  3
Flat
350
2A
  3
FlatWithEdges
350
2B
  3
Gouraud
350
2C
  3
GouraudWithEdges
350
2D
  3
Hidden
350
31
  3
JitterOff
350
3F
  3
Linepattern
350
37
  3
OverhangOff
350
40
  3
Realistic
350
33
  3
Shaded
350
3E
  3
Shaded with edges
350
3D
  3
Shades of Gray
350
3A
  3
Sketchy
350
3B
  3
Thicken
350
36
  3
Wireframe
350
30
  3
X-Ray
350
3C
  0
XRECORD
  5
E76
102
{ACAD_REACTORS
330
C
102
}
330
C
100
AcDbXrecord
280
     1
 90
        1
330
65
330
E6D
  0
DICTIONARY
  5
76
102
{ACAD_REACTORS
330
C
102
}
330
C
100
AcDbDictionary
281
     1
  3
CANNOSCALE
350
79
  3
CMLEADERSTYLE
350
78
  3
CTABLESTYLE
350
77
  0
XRECORD
  5
E75
102
{ACAD_REACTORS
330
E74
102
}
330
E74
100
AcDbXrecord
280
     1
 40
3088501.0
  1
\pxsm0.94;{\fRomanS|b0|i0;\H2.0000;PART#: WA60P36F1\P(DATA SUBJECT TO CHANGE WITHOUT NOTICE)\P \P\fRomanS|b0|i0;\H1.2000;THIS DRAWING IS PROPERTY OF HUBBELL INC. WIEGMANN\PALL INFORMATION IS PROPRIETARY AND NOT TO BE DUPLICATED\P}
  0
LAYOUT
  5
6B
102
{ACAD_REACTORS
330
62
102
}
330
62
100
AcDbPlotSettings
  1

  2

  4

  6

 40
0.0
 41
0.0
 42
0.0
 43
0.0
 44
0.0
 45
0.0
 46
0.0
 47
0.0
 48
0.0
 49
0.0
140
0.0
141
0.0
142
1.0
143
1.0
 70
   688
 72
     0
 73
     0
 74
     5
  7

 75
    16
147
1.0
 76
     0
 77
     2
 78
   300
148
0.0
149
0.0
100
AcDbLayout
  1
Layout1
 70
     1
 71
     1
 10
0.0
 20
0.0
 11
12.0
 21
9.0
 12
0.0
 22
0.0
 32
0.0
 14
0.0
 24
0.0
 34
0.0
 15
0.0
 25
0.0
 35
0.0
146
0.0
 13
0.0
 23
0.0
 33
0.0
 16
1.0
 26
0.0
 36
0.0
 17
0.0
 27
1.0
 37
0.0
 76
     0
330
68
  0
LAYOUT
  5
73
102
{ACAD_REACTORS
330
62
102
}
330
62
100
AcDbPlotSettings
  1

  2

  4

  6

 40
0.0
 41
0.0
 42
0.0
 43
0.0
 44
0.0
 45
0.0
 46
0.0
 47
0.0
 48
0.0
 49
0.0
140
0.0
141
0.0
142
1.0
143
1.0
 70
   688
 72
     0
 73
     0
 74
     5
  7

 75
    16
147
1.0
 76
     0
 77
     2
 78
   300
148
0.0
149
0.0
100
AcDbLayout
  1
Layout2
 70
     1
 71
     2
 10
0.0
 20
0.0
 11
12.0
 21
9.0
 12
0.0
 22
0.0
 32
0.0
 14
0.0
 24
0.0
 34
0.0
 15
0.0
 25
0.0
 35
0.0
146
0.0
 13
0.0
 23
0.0
 33
0.0
 16
1.0
 26
0.0
 36
0.0
 17
0.0
 27
1.0
 37
0.0
 76
     0
330
70
  0
LAYOUT
  5
6F
102
{ACAD_REACTORS
330
62
102
}
330
62
100
AcDbPlotSettings
  1

  2

  4

  6

 40
0.0
 41
0.0
 42
0.0
 43
0.0
 44
0.0
 45
0.0
 46
0.0
 47
0.0
 48
0.0
 49
0.0
140
0.0
141
0.0
142
1.0
143
1.0
 70
  1712
 72
     0
 73
     0
 74
     0
  7

 75
     0
147
1.0
 76
     0
 77
     2
 78
   300
148
0.0
149
0.0
100
AcDbLayout
  1
Model
 70
     1
 71
     0
 10
0.0
 20
0.0
 11
12.0
 21
9.0
 12
0.0
 22
0.0
 32
0.0
 14
0.0
 24
0.0
 34
0.0
 15
0.0
 25
0.0
 35
0.0
146
0.0
 13
0.0
 23
0.0
 33
0.0
 16
1.0
 26
0.0
 36
0.0
 17
0.0
 27
1.0
 37
0.0
 76
     0
330
6C
  0
MATERIAL
  5
19
102
{ACAD_XDICTIONARY
360
1A
102
}
102
{ACAD_REACTORS
330
10
102
}
330
10
100
AcDbMaterial
  1
ByBlock
 72
     0
 43
0.0208333333333333
 43
0.0
 43
0.0
 43
0.0
 43
0.0
 43
0.0208333333333333
 43
0.0
 43
0.0
 43
0.0
 43
0.0
 43
1.0
 43
0.0
 43
0.0
 43
0.0
 43
0.0
 43
1.0
 77
     0
 47
0.0208333333333333
 47
0.0
 47
0.0
 47
0.0
 47
0.0
 47
0.0208333333333333
 47
0.0
 47
0.0
 47
0.0
 47
0.0
 47
1.0
 47
0.0
 47
0.0
 47
0.0
 47
0.0
 47
1.0
171
     0
 49
0.0208333333333333
 49
0.0
 49
0.0
 49
0.0
 49
0.0
 49
0.0208333333333333
 49
0.0
 49
0.0
 49
0.0
 49
0.0
 49
1.0
 49
0.0
 49
0.0
 49
0.0
 49
0.0
 49
1.0
175
     0
142
0.0208333333333333
142
0.0
142
0.0
142
0.0
142
0.0
142
0.0208333333333333
142
0.0
142
0.0
142
0.0
142
0.0
142
1.0
142
0.0
142
0.0
142
0.0
142
0.0
142
1.0
179
     0
144
0.0208333333333333
144
0.0
144
0.0
144
0.0
144
0.0
144
0.0208333333333333
144
0.0
144
0.0
144
0.0
144
0.0
144
1.0
144
0.0
144
0.0
144
0.0
144
0.0
144
1.0
147
0.0208333333333333
147
0.0
147
0.0
147
0.0
147
0.0
147
0.0208333333333333
147
0.0
147
0.0
147
0.0
147
0.0
147
1.0
147
0.0
147
0.0
147
0.0
147
0.0
147
1.0
  0
MATERIAL
  5
11
102
{ACAD_XDICTIONARY
360
12
102
}
102
{ACAD_REACTORS
330
10
102
}
330
10
100
AcDbMaterial
  1
ByLayer
 72
     0
 43
0.0208333333333333
 43
0.0
 43
0.0
 43
0.0
 43
0.0
 43
0.0208333333333333
 43
0.0
 43
0.0
 43
0.0
 43
0.0
 43
1.0
 43
0.0
 43
0.0
 43
0.0
 43
0.0
 43
1.0
 77
     0
 47
0.0208333333333333
 47
0.0
 47
0.0
 47
0.0
 47
0.0
 47
0.0208333333333333
 47
0.0
 47
0.0
 47
0.0
 47
0.0
 47
1.0
 47
0.0
 47
0.0
 47
0.0
 47
0.0
 47
1.0
171
     0
 49
0.0208333333333333
 49
0.0
 49
0.0
 49
0.0
 49
0.0
 49
0.0208333333333333
 49
0.0
 49
0.0
 49
0.0
 49
0.0
 49
1.0
 49
0.0
 49
0.0
 49
0.0
 49
0.0
 49
1.0
175
     0
142
0.0208333333333333
142
0.0
142
0.0
142
0.0
142
0.0
142
0.0208333333333333
142
0.0
142
0.0
142
0.0
142
0.0
142
1.0
142
0.0
142
0.0
142
0.0
142
0.0
142
1.0
179
     0
144
0.0208333333333333
144
0.0
144
0.0
144
0.0
144
0.0
144
0.0208333333333333
144
0.0
144
0.0
144
0.0
144
0.0
144
1.0
144
0.0
144
0.0
144
0.0
144
0.0
144
1.0
147
0.0208333333333333
147
0.0
147
0.0
147
0.0
147
0.0
147
0.0208333333333333
147
0.0
147
0.0
147
0.0
147
0.0
147
1.0
147
0.0
147
0.0
147
0.0
147
0.0
147
1.0
  0
MATERIAL
  5
21
102
{ACAD_XDICTIONARY
360
22
102
}
102
{ACAD_REACTORS
330
10
102
}
330
10
100
AcDbMaterial
  1
Global
 72
     0
 43
0.0208333333333333
 43
0.0
 43
0.0
 43
0.0
 43
0.0
 43
0.0208333333333333
 43
0.0
 43
0.0
 43
0.0
 43
0.0
 43
1.0
 43
0.0
 43
0.0
 43
0.0
 43
0.0
 43
1.0
 77
     0
 47
0.0208333333333333
 47
0.0
 47
0.0
 47
0.0
 47
0.0
 47
0.0208333333333333
 47
0.0
 47
0.0
 47
0.0
 47
0.0
 47
1.0
 47
0.0
 47
0.0
 47
0.0
 47
0.0
 47
1.0
171
     0
 49
0.0208333333333333
 49
0.0
 49
0.0
 49
0.0
 49
0.0
 49
0.0208333333333333
 49
0.0
 49
0.0
 49
0.0
 49
0.0
 49
1.0
 49
0.0
 49
0.0
 49
0.0
 49
0.0
 49
1.0
175
     0
142
0.0208333333333333
142
0.0
142
0.0
142
0.0
142
0.0
142
0.0208333333333333
142
0.0
142
0.0
142
0.0
142
0.0
142
1.0
142
0.0
142
0.0
142
0.0
142
0.0
142
1.0
179
     0
144
0.0208333333333333
144
0.0
144
0.0
144
0.0
144
0.0
144
0.0208333333333333
144
0.0
144
0.0
144
0.0
144
0.0
144
1.0
144
0.0
144
0.0
144
0.0
144
0.0
144
1.0
147
0.0208333333333333
147
0.0
147
0.0
147
0.0
147
0.0
147
0.0208333333333333
147
0.0
147
0.0
147
0.0
147
0.0
147
1.0
147
0.0
147
0.0
147
0.0
147
0.0
147
1.0
  0
MLEADERSTYLE
  5
67
102
{ACAD_XDICTIONARY
360
E72
102
}
102
{ACAD_REACTORS
330
66
102
}
330
66
100
AcDbMLeaderStyle
179
     2
170
     2
171
     1
172
     0
 90
        2
 40
0.0
 41
0.0
173
     1
 91
-1056964608
340
5B
 92
       -2
290
     1
 42
0.09
291
     1
 43
0.36
  3
Standard
 44
0.18
300

342
55
174
     1
178
     6
175
     1
176
     0
 93
-1056964608
 45
0.18
292
     0
297
     0
 46
0.18
 94
-1056964608
 47
1.0
 49
1.0
140
1.0
293
     1
141
0.0
294
     1
177
     0
142
1.0
295
     0
296
     0
143
0.125
271
     0
272
     9
273
     9
  0
MLINESTYLE
  5
60
102
{ACAD_REACTORS
330
5F
102
}
330
5F
100
AcDbMlineStyle
  2
STANDARD
 70
     0
  3

 62
   256
 51
90.0
 52
90.0
 71
     2
 49
0.5
 62
   256
  6
BYLAYER
 49
-0.5
 62
   256
  6
BYLAYER
  0
ACDBPLACEHOLDER
  5
F
102
{ACAD_REACTORS
330
E
102
}
330
E
  0
SCALE
  5
43
102
{ACAD_REACTORS
330
42
102
}
330
42
100
AcDbScale
 70
     0
300
1:1
140
1.0
141
1.0
290
     1
  0
SCALE
  5
44
102
{ACAD_REACTORS
330
42
102
}
330
42
100
AcDbScale
 70
     0
300
1/128" = 1'-0"
140
0.0078125
141
12.0
290
     0
  0
SCALE
  5
45
102
{ACAD_REACTORS
330
42
102
}
330
42
100
AcDbScale
 70
     0
300
1/64" = 1'-0"
140
0.015625
141
12.0
290
     0
  0
SCALE
  5
46
102
{ACAD_REACTORS
330
42
102
}
330
42
100
AcDbScale
 70
     0
300
1/32" = 1'-0"
140
0.03125
141
12.0
290
     0
  0
SCALE
  5
47
102
{ACAD_REACTORS
330
42
102
}
330
42
100
AcDbScale
 70
     0
300
1/16" = 1'-0"
140
0.0625
141
12.0
290
     0
  0
SCALE
  5
48
102
{ACAD_REACTORS
330
42
102
}
330
42
100
AcDbScale
 70
     0
300
3/32" = 1'-0"
140
0.09375
141
12.0
290
     0
  0
SCALE
  5
49
102
{ACAD_REACTORS
330
42
102
}
330
42
100
AcDbScale
 70
     0
300
1/8" = 1'-0"
140
0.125
141
12.0
290
     0
  0
SCALE
  5
4A
102
{ACAD_REACTORS
330
42
102
}
330
42
100
AcDbScale
 70
     0
300
3/16" = 1'-0"
140
0.1875
141
12.0
290
     0
  0
SCALE
  5
4B
102
{ACAD_REACTORS
330
42
102
}
330
42
100
AcDbScale
 70
     0
300
1/4" = 1'-0"
140
0.25
141
12.0
290
     0
  0
SCALE
  5
4C
102
{ACAD_REACTORS
330
42
102
}
330
42
100
AcDbScale
 70
     0
300
3/8" = 1'-0"
140
0.375
141
12.0
290
     0
  0
SCALE
  5
4D
102
{ACAD_REACTORS
330
42
102
}
330
42
100
AcDbScale
 70
     0
300
1/2" = 1'-0"
140
0.5
141
12.0
290
     0
  0
SCALE
  5
4E
102
{ACAD_REACTORS
330
42
102
}
330
42
100
AcDbScale
 70
     0
300
3/4" = 1'-0"
140
0.75
141
12.0
290
     0
  0
SCALE
  5
4F
102
{ACAD_REACTORS
330
42
102
}
330
42
100
AcDbScale
 70
     0
300
1" = 1'-0"
140
1.0
141
12.0
290
     0
  0
SCALE
  5
50
102
{ACAD_REACTORS
330
42
102
}
330
42
100
AcDbScale
 70
     0
300
1-1/2" = 1'-0"
140
1.5
141
12.0
290
     0
  0
SCALE
  5
51
102
{ACAD_REACTORS
330
42
102
}
330
42
100
AcDbScale
 70
     0
300
3" = 1'-0"
140
3.0
141
12.0
290
     0
  0
SCALE
  5
52
102
{ACAD_REACTORS
330
42
102
}
330
42
100
AcDbScale
 70
     0
300
6" = 1'-0"
140
6.0
141
12.0
290
     0
  0
SCALE
  5
53
102
{ACAD_REACTORS
330
42
102
}
330
42
100
AcDbScale
 70
     0
300
1'-0" = 1'-0"
140
12.0
141
12.0
290
     0
  0
TABLESTYLE
  5
65
102
{ACAD_XDICTIONARY
360
E70
102
}
102
{ACAD_REACTORS
330
64
102
}
330
64
100
AcDbTableStyle
280
     0
  3
Standard
 70
     0
 71
     0
 40
0.06
 41
0.06
280
     0
281
     0
  7
Standard
140
0.18
170
     2
 62
     0
 63
     7
283
     0
 90
      512
 91
        0
  1

274
    -2
284
     1
 64
     0
275
    -2
285
     1
 65
     0
276
    -2
286
     1
 66
     0
277
    -2
287
     1
 67
     0
278
    -2
288
     1
 68
     0
279
    -2
289
     1
 69
     0
  7
Standard
140
0.25
170
     5
 62
     0
 63
     7
283
     0
 90
      512
 91
        0
  1

274
    -2
284
     1
 64
     0
275
    -2
285
     1
 65
     0
276
    -2
286
     1
 66
     0
277
    -2
287
     1
 67
     0
278
    -2
288
     1
 68
     0
279
    -2
289
     1
 69
     0
  7
Standard
140
0.18
170
     5
 62
     0
 63
     7
283
     0
 90
      512
 91
        0
  1

274
    -2
284
     1
 64
     0
275
    -2
285
     1
 65
     0
276
    -2
286
     1
 66
     0
277
    -2
287
     1
 67
     0
278
    -2
288
     1
 68
     0
279
    -2
289
     1
 69
     0
  0
VISUALSTYLE
  5
2F
102
{ACAD_REACTORS
330
29
102
}
330
29
100
AcDbVisualStyle
  2
2dWireframe
 70
     4
177
     2
291
     0
 71
     0
176
     1
 72
     2
176
     1
 73
     0
176
     1
 90
        0
176
     1
 40
0.6
176
     1
 41
30.0
176
     1
 63
     7
421
 16777215
176
     1
 74
     1
176
     1
 91
        4
176
     1
 64
     7
176
     1
 65
   257
176
     1
 75
     1
176
     1
175
     1
176
     1
 42
1.0
176
     1
 92
        0
176
     1
 66
   257
176
     1
 43
1.0
176
     1
 76
     1
176
     1
 77
     6
176
     1
 78
     2
176
     1
 67
     7
176
     1
 79
     5
176
     1
170
     0
176
     1
171
     0
176
     1
290
     0
176
     1
 93
        1
176
     1
 44
0.0
176
     1
173
     0
176
     1
  0
VISUALSTYLE
  5
2E
102
{ACAD_REACTORS
330
29
102
}
330
29
100
AcDbVisualStyle
  2
Basic
 70
     7
177
     2
291
     1
 71
     1
176
     1
 72
     0
176
     1
 73
     1
176
     1
 90
        0
176
     1
 40
0.6
176
     1
 41
30.0
176
     1
 63
     7
421
 16777215
176
     1
 74
     0
176
     1
 91
        4
176
     1
 64
     7
176
     1
 65
   257
176
     1
 75
     1
176
     1
175
     1
176
     1
 42
1.0
176
     1
 92
        8
176
     1
 66
     7
176
     1
 43
1.0
176
     1
 76
     1
176
     1
 77
     6
176
     1
 78
     2
176
     1
 67
     7
176
     1
 79
     5
176
     1
170
     0
176
     1
171
     0
176
     1
290
     0
176
     1
 93
        1
176
     1
 44
0.0
176
     1
173
     0
176
     1
  0
VISUALSTYLE
  5
35
102
{ACAD_REACTORS
330
29
102
}
330
29
100
AcDbVisualStyle
  2
Brighten
 70
    12
177
     2
291
     1
 71
     2
176
     1
 72
     2
176
     1
 73
     0
176
     1
 90
        0
176
     1
 40
0.6
176
     1
 41
30.0
176
     1
 63
     7
421
 16777215
176
     1
 74
     1
176
     1
 91
        4
176
     1
 64
     7
176
     1
 65
   257
176
     1
 75
     1
176
     1
175
     1
176
     1
 42
1.0
176
     1
 92
        8
176
     1
 66
     7
176
     1
 43
1.0
176
     1
 76
     1
176
     1
 77
     6
176
     1
 78
     2
176
     1
 67
     7
176
     1
 79
     5
176
     1
170
     0
176
     1
171
     0
176
     1
290
     0
176
     1
 93
        1
176
     1
 44
50.0
176
     1
173
     0
176
     1
  0
VISUALSTYLE
  5
39
102
{ACAD_REACTORS
330
29
102
}
330
29
100
AcDbVisualStyle
  2
ColorChange
 70
    16
177
     2
291
     1
 71
     2
176
     1
 72
     2
176
     1
 73
     3
176
     1
 90
        0
176
     1
 40
0.6
176
     1
 41
30.0
176
     1
 63
     8
421
  8421504
176
     1
 74
     1
176
     1
 91
        4
176
     1
 64
     7
176
     1
 65
   257
176
     1
 75
     1
176
     1
175
     1
176
     1
 42
1.0
176
     1
 92
        8
176
     1
 66
     8
424
  8421504
176
     1
 43
1.0
176
     1
 76
     1
176
     1
 77
     6
176
     1
 78
     2
176
     1
 67
     7
176
     1
 79
     5
176
     1
170
     0
176
     1
171
     0
176
     1
290
     0
176
     1
 93
        1
176
     1
 44
0.0
176
     1
173
     0
176
     1
  0
VISUALSTYLE
  5
32
102
{ACAD_REACTORS
330
29
102
}
330
29
100
AcDbVisualStyle
  2
Conceptual
 70
     9
177
     2
291
     0
 71
     3
176
     1
 72
     2
176
     1
 73
     0
176
     1
 90
        0
176
     1
 40
0.6
176
     1
 41
30.0
176
     1
 63
     7
421
 16777215
176
     1
 74
     2
176
     1
 91
        2
176
     1
 64
     7
176
     1
 65
   257
176
     1
 75
     1
176
     1
175
     1
176
     1
 42
179.0
176
     1
 92
        8
176
     1
 66
     7
176
     1
 43
1.0
176
     1
 76
     1
176
     1
 77
     6
176
     1
 78
     2
176
     1
 67
     7
176
     1
 79
     3
176
     1
170
     0
176
     1
171
     0
176
     1
290
     0
176
     1
 93
        1
176
     1
 44
0.0
176
     1
173
     0
176
     1
  0
VISUALSTYLE
  5
34
102
{ACAD_REACTORS
330
29
102
}
330
29
100
AcDbVisualStyle
  2
Dim
 70
    11
177
     2
291
     1
 71
     2
176
     1
 72
     2
176
     1
 73
     0
176
     1
 90
        0
176
     1
 40
0.6
176
     1
 41
30.0
176
     1
 63
     7
421
 16777215
176
     1
 74
     1
176
     1
 91
        4
176
     1
 64
     7
176
     1
 65
   257
176
     1
 75
     1
176
     1
175
     1
176
     1
 42
1.0
176
     1
 92
        8
176
     1
 66
     7
176
     1
 43
1.0
176
     1
 76
     1
176
     1
 77
     6
176
     1
 78
     2
176
     1
 67
     7
176
     1
 79
     5
176
     1
170
     0
176
     1
171
     0
176
     1
290
     0
176
     1
 93
        1
176
     1
 44
-50.0
176
     1
173
     0
176
     1
  0
VISUALSTYLE
  5
41
102
{ACAD_REACTORS
330
29
102
}
330
29
100
AcDbVisualStyle
  2
EdgeColorOff
 70
    22
177
     2
291
     1
 71
     2
176
     0
 72
     2
176
     0
 73
     0
176
     0
 90
        0
176
     0
 40
0.6
176
     0
 41
30.0
176
     0
 63
     7
421
 16777215
176
     0
 74
     1
176
     0
 91
        4
176
     0
 64
     7
176
     0
 65
   257
176
     0
 75
     1
176
     0
175
     1
176
     0
 42
1.0
176
     0
 92
        8
176
     2
 66
     7
176
     0
 43
1.0
176
     0
 76
     1
176
     0
 77
     6
176
     0
 78
     2
176
     0
 67
     7
176
     0
 79
     5
176
     0
170
     0
176
     0
171
     0
176
     0
290
     0
176
     0
 93
        1
176
     0
 44
0.0
176
     0
173
     0
176
     0
  0
VISUALSTYLE
  5
38
102
{ACAD_REACTORS
330
29
102
}
330
29
100
AcDbVisualStyle
  2
Facepattern
 70
    15
177
     2
291
     1
 71
     2
176
     1
 72
     2
176
     1
 73
     0
176
     1
 90
        0
176
     1
 40
0.6
176
     1
 41
30.0
176
     1
 63
     7
421
 16777215
176
     1
 74
     1
176
     1
 91
        4
176
     1
 64
     7
176
     1
 65
   257
176
     1
 75
     1
176
     1
175
     1
176
     1
 42
1.0
176
     1
 92
        8
176
     1
 66
     7
176
     1
 43
1.0
176
     1
 76
     1
176
     1
 77
     6
176
     1
 78
     2
176
     1
 67
     7
176
     1
 79
     5
176
     1
170
     0
176
     1
171
     0
176
     1
290
     0
176
     1
 93
        1
176
     1
 44
0.0
176
     1
173
     0
176
     1
  0
VISUALSTYLE
  5
2A
102
{ACAD_REACTORS
330
29
102
}
330
29
100
AcDbVisualStyle
  2
Flat
 70
     0
177
     2
291
     1
 71
     2
176
     1
 72
     1
176
     1
 73
     1
176
     1
 90
        2
176
     1
 40
0.6
176
     1
 41
30.0
176
     1
 63
     7
421
 16777215
176
     1
 74
     0
176
     1
 91
        0
176
     1
 64
     7
176
     1
 65
   257
176
     1
 75
     1
176
     1
175
     1
176
     1
 42
1.0
176
     1
 92
        8
176
     1
 66
     7
176
     1
 43
1.0
176
     1
 76
     1
176
     1
 77
     6
176
     1
 78
     2
176
     1
 67
     7
176
     1
 79
     5
176
     1
170
     0
176
     1
171
     0
176
     1
290
     0
176
     1
 93
       13
176
     1
 44
0.0
176
     1
173
     0
176
     1
  0
VISUALSTYLE
  5
2B
102
{ACAD_REACTORS
330
29
102
}
330
29
100
AcDbVisualStyle
  2
FlatWithEdges
 70
     1
177
     2
291
     1
 71
     2
176
     1
 72
     1
176
     1
 73
     1
176
     1
 90
        2
176
     1
 40
0.6
176
     1
 41
30.0
176
     1
 63
     7
421
 16777215
176
     1
 74
     1
176
     1
 91
        0
176
     1
 64
     7
176
     1
 65
   257
176
     1
 75
     1
176
     1
175
     1
176
     1
 42
1.0
176
     1
 92
        0
176
     1
 66
   257
176
     1
 43
1.0
176
     1
 76
     1
176
     1
 77
     6
176
     1
 78
     2
176
     1
 67
     7
176
     1
 79
     5
176
     1
170
     0
176
     1
171
     0
176
     1
290
     0
176
     1
 93
       13
176
     1
 44
0.0
176
     1
173
     0
176
     1
  0
VISUALSTYLE
  5
2C
102
{ACAD_REACTORS
330
29
102
}
330
29
100
AcDbVisualStyle
  2
Gouraud
 70
     2
177
     2
291
     1
 71
     2
176
     1
 72
     2
176
     1
 73
     1
176
     1
 90
        2
176
     1
 40
0.6
176
     1
 41
30.0
176
     1
 63
     7
421
 16777215
176
     1
 74
     0
176
     1
 91
        0
176
     1
 64
     7
176
     1
 65
   257
176
     1
 75
     1
176
     1
175
     1
176
     1
 42
1.0
176
     1
 92
        0
176
     1
 66
     7
176
     1
 43
1.0
176
     1
 76
     1
176
     1
 77
     6
176
     1
 78
     2
176
     1
 67
     7
176
     1
 79
     5
176
     1
170
     0
176
     1
171
     0
176
     1
290
     0
176
     1
 93
       13
176
     1
 44
0.0
176
     1
173
     0
176
     1
  0
VISUALSTYLE
  5
2D
102
{ACAD_REACTORS
330
29
102
}
330
29
100
AcDbVisualStyle
  2
GouraudWithEdges
 70
     3
177
     2
291
     1
 71
     2
176
     1
 72
     2
176
     1
 73
     1
176
     1
 90
        2
176
     1
 40
0.6
176
     1
 41
30.0
176
     1
 63
     7
421
 16777215
176
     1
 74
     1
176
     1
 91
        0
176
     1
 64
     7
176
     1
 65
   257
176
     1
 75
     1
176
     1
175
     1
176
     1
 42
1.0
176
     1
 92
        0
176
     1
 66
   257
176
     1
 43
1.0
176
     1
 76
     1
176
     1
 77
     6
176
     1
 78
     2
176
     1
 67
     7
176
     1
 79
     5
176
     1
170
     0
176
     1
171
     0
176
     1
290
     0
176
     1
 93
       13
176
     1
 44
0.0
176
     1
173
     0
176
     1
  0
VISUALSTYLE
  5
31
102
{ACAD_REACTORS
330
29
102
}
330
29
100
AcDbVisualStyle
  2
Hidden
 70
     6
177
     2
291
     0
 71
     1
176
     1
 72
     2
176
     1
 73
     2
176
     1
 90
        0
176
     1
 40
0.6
176
     1
 41
30.0
176
     1
 63
     7
421
 16777215
176
     1
 74
     2
176
     1
 91
        2
176
     1
 64
     7
176
     1
 65
   257
176
     1
 75
     2
176
     1
175
     1
176
     1
 42
40.0
176
     1
 92
        0
176
     1
 66
   257
176
     1
 43
1.0
176
     1
 76
     1
176
     1
 77
     6
176
     1
 78
     2
176
     1
 67
     7
176
     1
 79
     3
176
     1
170
     0
176
     1
171
     0
176
     1
290
     0
176
     1
 93
        1
176
     1
 44
0.0
176
     1
173
     0
176
     1
  0
VISUALSTYLE
  5
3F
102
{ACAD_REACTORS
330
29
102
}
330
29
100
AcDbVisualStyle
  2
JitterOff
 70
    20
177
     2
291
     1
 71
     2
176
     0
 72
     2
176
     0
 73
     0
176
     0
 90
        0
176
     0
 40
0.6
176
     0
 41
30.0
176
     0
 63
     7
421
 16777215
176
     0
 74
     1
176
     0
 91
        4
176
     0
 64
     7
176
     0
 65
   257
176
     0
 75
     1
176
     0
175
     1
176
     0
 42
1.0
176
     0
 92
       10
176
     2
 66
     7
176
     0
 43
1.0
176
     0
 76
     1
176
     0
 77
     6
176
     0
 78
     2
176
     0
 67
     7
176
     0
 79
     5
176
     0
170
     0
176
     0
171
     0
176
     0
290
     0
176
     0
 93
        1
176
     0
 44
0.0
176
     0
173
     0
176
     0
  0
VISUALSTYLE
  5
37
102
{ACAD_REACTORS
330
29
102
}
330
29
100
AcDbVisualStyle
  2
Linepattern
 70
    14
177
     2
291
     1
 71
     2
176
     1
 72
     2
176
     1
 73
     0
176
     1
 90
        0
176
     1
 40
0.6
176
     1
 41
30.0
176
     1
 63
     7
421
 16777215
176
     1
 74
     1
176
     1
 91
        4
176
     1
 64
     7
176
     1
 65
   257
176
     1
 75
     7
176
     1
175
     7
176
     1
 42
1.0
176
     1
 92
        8
176
     1
 66
     7
176
     1
 43
1.0
176
     1
 76
     1
176
     1
 77
     6
176
     1
 78
     2
176
     1
 67
     7
176
     1
 79
     5
176
     1
170
     0
176
     1
171
     0
176
     1
290
     0
176
     1
 93
        1
176
     1
 44
0.0
176
     1
173
     0
176
     1
  0
VISUALSTYLE
  5
40
102
{ACAD_REACTORS
330
29
102
}
330
29
100
AcDbVisualStyle
  2
OverhangOff
 70
    21
177
     2
291
     1
 71
     2
176
     0
 72
     2
176
     0
 73
     0
176
     0
 90
        0
176
     0
 40
0.6
176
     0
 41
30.0
176
     0
 63
     7
421
 16777215
176
     0
 74
     1
176
     0
 91
        4
176
     0
 64
     7
176
     0
 65
   257
176
     0
 75
     1
176
     0
175
     1
176
     0
 42
1.0
176
     0
 92
        9
176
     2
 66
     7
176
     0
 43
1.0
176
     0
 76
     1
176
     0
 77
     6
176
     0
 78
     2
176
     0
 67
     7
176
     0
 79
     5
176
     0
170
     0
176
     0
171
     0
176
     0
290
     0
176
     0
 93
        1
176
     0
 44
0.0
176
     0
173
     0
176
     0
  0
VISUALSTYLE
  5
33
102
{ACAD_REACTORS
330
29
102
}
330
29
100
AcDbVisualStyle
  2
Realistic
 70
     8
177
     2
291
     0
 71
     2
176
     1
 72
     3
176
     1
 73
     0
176
     1
 90
        2
176
     1
 40
0.6
176
     1
 41
30.0
176
     1
 63
     7
421
 16777215
176
     1
 74
     0
176
     1
 91
        0
176
     1
 64
     7
176
     1
 65
   257
176
     1
 75
     1
176
     1
175
     1
176
     1
 42
1.0
176
     1
 92
        8
176
     1
 66
   257
176
     1
 43
1.0
176
     1
 76
     1
176
     1
 77
     6
176
     1
 78
     2
176
     1
 67
     7
176
     1
 79
     3
176
     1
170
     0
176
     1
171
     0
176
     1
290
     0
176
     1
 93
       13
176
     1
 44
0.0
176
     1
173
     0
176
     1
  0
VISUALSTYLE
  5
3E
102
{ACAD_REACTORS
330
29
102
}
330
29
100
AcDbVisualStyle
  2
Shaded
 70
    27
177
     2
291
     0
 71
     2
176
     1
 72
     2
176
     1
 73
     1
176
     1
 90
        2
176
     1
 40
0.6
176
     1
 41
30.0
176
     1
 63
     7
421
 16777215
176
     1
 74
     0
176
     1
 91
        4
176
     1
 64
     7
176
     1
 65
   257
176
     1
 75
     1
176
     1
175
     1
176
     1
 42
1.0
176
     1
 92
        8
176
     1
 66
   257
176
     1
 43
1.0
176
     1
 76
     1
176
     1
 77
     6
176
     1
 78
     2
176
     1
 67
     8
425
  7895160
176
     1
 79
     3
176
     1
170
     0
176
     1
171
     0
176
     1
290
     0
176
     1
 93
        5
176
     1
 44
0.0
176
     1
173
     0
176
     1
  0
VISUALSTYLE
  5
3D
102
{ACAD_REACTORS
330
29
102
}
330
29
100
AcDbVisualStyle
  2
Shaded with edges
 70
    26
177
     2
291
     0
 71
     2
176
     1
 72
     2
176
     1
 73
     1
176
     1
 90
        2
176
     1
 40
0.6
176
     1
 41
30.0
176
     1
 63
     7
421
 16777215
176
     1
 74
     1
176
     1
 91
       10
176
     1
 64
     7
176
     1
 65
   257
176
     1
 75
     2
176
     1
175
     1
176
     1
 42
1.0
176
     1
 92
        8
176
     1
 66
   257
176
     1
 43
1.0
176
     1
 76
     1
176
     1
 77
     6
176
     1
 78
     2
176
     1
 67
     7
176
     1
 79
     3
176
     1
170
     0
176
     1
171
     0
176
     1
290
     0
176
     1
 93
        5
176
     1
 44
0.0
176
     1
173
     0
176
     1
  0
VISUALSTYLE
  5
3A
102
{ACAD_REACTORS
330
29
102
}
330
29
100
AcDbVisualStyle
  2
Shades of Gray
 70
    23
177
     2
291
     0
 71
     2
176
     1
 72
     2
176
     1
 73
     3
176
     1
 90
        0
176
     1
 40
0.6
176
     1
 41
30.0
176
     1
 63
     7
421
 16777215
176
     1
 74
     2
176
     1
 91
        2
176
     1
 64
     7
176
     1
 65
     7
176
     1
 75
     1
176
     1
175
     1
176
     1
 42
40.0
176
     1
 92
        8
176
     1
 66
     7
176
     1
 43
1.0
176
     1
 76
     1
176
     1
 77
     6
176
     1
 78
     2
176
     1
 67
     7
176
     1
 79
     3
176
     1
170
     0
176
     1
171
     0
176
     1
290
     0
176
     1
 93
        1
176
     1
 44
0.0
176
     1
173
     0
176
     1
  0
VISUALSTYLE
  5
3B
102
{ACAD_REACTORS
330
29
102
}
330
29
100
AcDbVisualStyle
  2
Sketchy
 70
    24
177
     2
291
     0
 71
     1
176
     1
 72
     2
176
     1
 73
     2
176
     1
 90
        0
176
     1
 40
0.6
176
     1
 41
30.0
176
     1
 63
     7
421
 16777215
176
     1
 74
     2
176
     1
 91
        2
176
     1
 64
     7
176
     1
 65
     7
176
     1
 75
     1
176
     1
175
     1
176
     1
 42
40.0
176
     1
 92
       11
176
     1
 66
     7
176
     1
 43
1.0
176
     1
 76
     1
176
     1
 77
     6
176
     1
 78
     2
176
     1
 67
     7
176
     1
 79
     6
176
     1
170
     0
176
     1
171
     0
176
     1
290
     0
176
     1
 93
        1
176
     1
 44
0.0
176
     1
173
     0
176
     1
  0
VISUALSTYLE
  5
36
102
{ACAD_REACTORS
330
29
102
}
330
29
100
AcDbVisualStyle
  2
Thicken
 70
    13
177
     2
291
     1
 71
     2
176
     1
 72
     2
176
     1
 73
     0
176
     1
 90
        0
176
     1
 40
0.6
176
     1
 41
30.0
176
     1
 63
     7
421
 16777215
176
     1
 74
     1
176
     1
 91
        4
176
     1
 64
     7
176
     1
 65
   257
176
     1
 75
     1
176
     1
175
     1
176
     1
 42
1.0
176
     1
 92
       12
176
     1
 66
     7
176
     1
 43
1.0
176
     1
 76
     1
176
     1
 77
     6
176
     1
 78
     2
176
     1
 67
     7
176
     1
 79
     5
176
     1
170
     0
176
     1
171
     0
176
     1
290
     0
176
     1
 93
        1
176
     1
 44
0.0
176
     1
173
     0
176
     1
  0
VISUALSTYLE
  5
30
102
{ACAD_REACTORS
330
29
102
}
330
29
100
AcDbVisualStyle
  2
Wireframe
 70
     5
177
     2
291
     0
 71
     0
176
     1
 72
     2
176
     1
 73
     0
176
     1
 90
        0
176
     1
 40
0.6
176
     1
 41
30.0
176
     1
 63
     7
421
 16777215
176
     1
 74
     1
176
     1
 91
        4
176
     1
 64
     7
176
     1
 65
   257
176
     1
 75
     1
176
     1
175
     1
176
     1
 42
1.0
176
     1
 92
        0
176
     1
 66
   257
176
     1
 43
1.0
176
     1
 76
     1
176
     1
 77
     6
176
     1
 78
     2
176
     1
 67
     7
176
     1
 79
     3
176
     1
170
     0
176
     1
171
     0
176
     1
290
     0
176
     1
 93
        1
176
     1
 44
0.0
176
     1
173
     0
176
     1
  0
VISUALSTYLE
  5
3C
102
{ACAD_REACTORS
330
29
102
}
330
29
100
AcDbVisualStyle
  2
X-Ray
 70
    25
177
     2
291
     0
 71
     2
176
     1
 72
     2
176
     1
 73
     1
176
     1
 90
        1
176
     1
 40
0.5
176
     1
 41
30.0
176
     1
 63
     7
421
 16777215
176
     1
 74
     1
176
     1
 91
        0
176
     1
 64
     7
176
     1
 65
   257
176
     1
 75
     1
176
     1
175
     1
176
     1
 42
1.0
176
     1
 92
        8
176
     1
 66
     7
176
     1
 43
1.0
176
     1
 76
     1
176
     1
 77
     6
176
     1
 78
     2
176
     1
 67
     7
176
     1
 79
     3
176
     1
170
     0
176
     1
171
     0
176
     1
290
     0
176
     1
 93
       13
176
     1
 44
0.0
176
     1
173
     0
176
     1
  0
DICTIONARYVAR
  5
79
102
{ACAD_REACTORS
330
76
102
}
330
76
100
DictionaryVariables
280
     0
  1
1:1
  0
DICTIONARYVAR
  5
78
102
{ACAD_REACTORS
330
76
102
}
330
76
100
DictionaryVariables
280
     0
  1
STANDARD
  0
DICTIONARYVAR
  5
77
102
{ACAD_REACTORS
330
76
102
}
330
76
100
DictionaryVariables
280
     0
  1
STANDARD
  0
DICTIONARY
  5
1A
330
19
100
AcDbDictionary
280
     1
281
     1
  3
BUMPTILE
360
1C
  3
DIFFUSETILE
360
1B
  3
OPACITYTILE
360
1F
  3
REFLECTIONTILE
360
1E
  3
REFRACTIONTILE
360
20
  3
SPECULARTILE
360
1D
  0
DICTIONARY
  5
12
330
11
100
AcDbDictionary
280
     1
281
     1
  3
BUMPTILE
360
14
  3
DIFFUSETILE
360
13
  3
FBXASSET
360
109
  3
OPACITYTILE
360
17
  3
REFLECTIONTILE
360
16
  3
REFRACTIONTILE
360
18
  3
SPECULARTILE
360
15
  0
DICTIONARY
  5
22
330
21
100
AcDbDictionary
280
     1
281
     1
  3
BUMPTILE
360
24
  3
DIFFUSETILE
360
23
  3
FBXASSET
360
BA
  3
OPACITYTILE
360
27
  3
REFLECTIONTILE
360
26
  3
REFRACTIONTILE
360
28
  3
SPECULARTILE
360
25
  0
DICTIONARY
  5
E72
330
67
100
AcDbDictionary
280
     1
281
     1
  3
ACAD_XREC_ROUNDTRIP
360
E73
  0
DICTIONARY
  5
E70
330
65
100
AcDbDictionary
280
     1
281
     1
  3
ACAD_ROUNDTRIP_2008_TABLESTYLE_CELLSTYLEMAP
360
E71
  0
XRECORD
  5
1C
102
{ACAD_REACTORS
330
1A
102
}
330
1A
100
AcDbXrecord
280
     1
270
     1
271
     1
  0
XRECORD
  5
1B
102
{ACAD_REACTORS
330
1A
102
}
330
1A
100
AcDbXrecord
280
     1
270
     1
271
     1
  0
XRECORD
  5
1F
102
{ACAD_REACTORS
330
1A
102
}
330
1A
100
AcDbXrecord
280
     1
270
     1
271
     1
  0
XRECORD
  5
1E
102
{ACAD_REACTORS
330
1A
102
}
330
1A
100
AcDbXrecord
280
     1
270
     1
271
     1
  0
XRECORD
  5
20
102
{ACAD_REACTORS
330
1A
102
}
330
1A
100
AcDbXrecord
280
     1
270
     1
271
     1
  0
XRECORD
  5
1D
102
{ACAD_REACTORS
330
1A
102
}
330
1A
100
AcDbXrecord
280
     1
270
     1
271
     1
  0
XRECORD
  5
14
102
{ACAD_REACTORS
330
12
102
}
330
12
100
AcDbXrecord
280
     1
270
     1
271
     1
  0
XRECORD
  5
13
102
{ACAD_REACTORS
330
12
102
}
330
12
100
AcDbXrecord
280
     1
270
     1
271
     1
  0
XRECORD
  5
109
102
{ACAD_REACTORS
330
12
102
}
330
12
100
AcDbXrecord
280
     1
 70
     1
 90
1959938040
 71
     1
  1
8055DC19-481E-41CA-AA2B-17CE2E88850D
311
504B03040A00000800006F8AD1423DEE336E79000000790000001B0000006175746F6465736B2D64657369676E2D7061636B6167652E786D6C3C3F786D6C2076657273696F6E3D22312E302220656E636F64696E673D227574662D3822203F3E3C666F726D6174733E3C666F726D61743E687474703A2F2F736368656D612E
311
6175746F6465736B2E636F6D2F64657369676E2D7061636B6167652F323030393C2F666F726D61743E3C2F666F726D6174733E504B03041400060808006F8AD142D486FD9CA0000000F4000000130000005B436F6E74656E745F54797065735D2E786D6C7D8EC10E82300C865F65E91D8A1E8C310C0EEA1BF002731658846E
311
D98AC1B77784ABF1D8FE5FBFBF75BBCE937A534CCEB38643598122B6FEE978D0B0485F9C41B54DDD7D022595594E1A469170414C76A4D9A4D207E29CF43ECE46F218070CC6BECC4078ACAA135ACF422C856C0E68EA1BF5669944DDD7BCDE7B1F8E415D77AECB980613C2E4AC91FC167A2B244592486606FC29C8FD7F045B9A
311
EF7053A7E60B504B03041400060808006F8AD142E1845D05EB0000007C01000008000000636F72652E786D6C8D90416EC3201045AF82D856D860E2C65898C8B59B13F4020813172506CB40D5E31712476A775DCDE8CF7F33A3CF4FDFCB0D7CE9CD1B673B480A0C81B6CA4DC6CE1D8CE1821A084E826FCE855F3608AC5C7407
311
B30C059F3717D75D52CE066D4352AD9BF42E4AEF758040DD52D341AF3EF5220B194372F86BB14A7595B32EC8B34B708C66028F23664AFBCCC5E80D8AB167C31B1B2A54E37E44077AE851335086C6A1AEABF37BC3D899F032C38207B33CEFAB4DCBA027282A4C28C2AF881C3FC8B125ACA5E405D72DC5BCCCF63F505CA77F42
311
D1D840ABFDDD07E6A1C88FDC078297398B54EE41A59A73133F504B03041400060808006F8AD14255019EA25F0000007C00000007000000636E782E786D6C4DCB3B0E80201045D1AD90E915ED2CF8AC45050C11660C8261F98AB1B07AC9C97D42D718D865D3E909258CFD00CCE24AC6E326A164D74DC0B4128928FF32603847
311
2BA13128B1252AC747C6BAB984FC68F0B87FE8960A5C09FE86CFB69FBA01504B03041400060808006F8AD1429469DC3C68010000020300000C0000006662782F636F72652E786D6C8D525B6E833010BC8AE5DFCA98476842641CA5A439412FE0804351C0467EA01CBFCB234A5345518564AC999DDDD901B6BB762D1AA4B18D
311
56398E821023A94A5D35AACEB17767B2C168C799D1DAFD2AC348894EE678843167B5D1BE5FA0522B27950354E94A2EA0B0563A8CCA162E39B6E5B7EC4420BC830A7B097A515E442D8328001AEA38B3CE8001340F194FCCCFA72BA333CE99F74DB5B04D05D39A73230DE6877D567C64454CD2707F20AB64B5279B22C9C8A148
311
D3F8F8B9C9B263C4E828E6CC35DDCD5D69A470B2C23C0EA38484EF245A7F45EB6D946D93E82D4CB749C8E858FE20F27DF54F916F944BE2C5EE2CB3988F4626E2CFB6109143560CE0877246C710E13525FC18340402213B716A6F7B5C001A64E9B4590153697FA706D17A095343343D8CCE2C749E1AC0664FFBC42FFABCEE01
311
1F50A81AAC0907D79377E374364F5DA2E8A52183BB22A54D27DABBB9D9E2FDBC0F7A2A2F75ABCD7FD47459952E61D2F1EFE53F504B03041400060808006F8AD14297B762BB7D0000009D0000000B0000006662782F636E782E786D6C4DCCD10A83201886E15B91FFDC95B8D4400D9AEE3E6259C44CC3E9D8E5AF46073BFAE0
311
E1E395DD67F5E8EDD26B894101B9D4805C78C47109B38292272C00755AA618F3DF0D501856A7E060D0724EB16C278D6E1A8ACFBBFA253C4F6C7BC25B6E196684DEF09572817B6309AE696388B086B2E60E9596D5AFB4EF11D65F504B03041400060808006F8AD142B4B76FF52B01000014020000310000006662782F394231
311
37393745362D363133432D343337382D424445312D3033354431384544333635462F636F72652E786D6C8D515B6EC32010BC0AE22B55850D217E24C2444A939EA017A0405294182C1E558E5FA81DA9FDCB0F8B66676647BB6C7F1F6FE05BFB609C1D20A93004DA4AA78CBD0C30C533EA21D873E69D8B7F68105831EA011618
311
7276F12E4D0B249D8DDAC68C5AA7F4028A10748440DEF26780417EE9515422C5CC08D76A12F22A2EBA22556E671E6721FA1C00CC43CA0BF9F640BA6D776A514BE81BDAD0AE4787E389204C9B23E94F47DA36EFAC9E859CA564D422372AC73167A3FDB32645CC5934E323BEF45A44AD205F6342116E11E93E48B723DB1D25AF
311
B8D951CCEA42FF274A937A52948C8D74BDC49D650172C2EAB9C19972E9F3F608A3EF93F3119479ABA0E50BE4B8CAB170DF743DAB676A5E40F66C378B6788CEE705AFAE9F994D9AD9B8DD7056971BE5F27BC05CCB3DF90F504B03041400060808006F8AD1425D4942814F01000033030000300000006662782F394231373937
311
45362D363133432D343337382D424445312D3033354431384544333635462F636E782E786D6CD593CD6EC32010845F0571ADFC439D266D8489D4439FA0875E316C121A1B2C7EAAE6EDBB2424CD25871E7B41D6EC30B3FA84F9E67B1AC917F8609CED29AB5B4AC02AA78DDDF534C56DF54CC94670EF5CBCB15162E5043DCD32
311
157CE75D9A8BA4612BD318511D8D3D14D14370C92B0828E79B64744A8E1800B64A28C23480D6A0C9D5885F5BF0B80A8AC391C43D90B7D70FE2864F5031F026A708DEE40EC1F3599A6E4C94A85186D0D3A0F630C95AA6E8348443AD659435AB2F5D7776FA4D22F9C2A532794372794FF34945D9A8468EBCC1A1E0217AA4574C
311
F1380315729E47A36444C8CDC978F6089E8C8DCB45F11A04EFD1CD96DD628161A799E0D14C501CCA838CA0A9786C5957B5CB8AADDED96ACD5ED61D7B689FD65DCB9B6C177C706E2C973006BC9B897236828D5430DEE4F13D7CC547B4F1C8DAF9E31F402280D27AA673CDF8CF7C9AD3FB465C1EFF02F103504B030414000608
311
08006F8AD14218B7BA68A405000081100000340000006662782F39423137393745362D363133432D343337382D424445312D3033354431384544333635462F6F626A656374732E786D6CAD575B6FDB3614FE2B82F6B23DD8B26CA773064585632785D1A52D6AB4D88301839628850B750149A5CE7EFD3E8A942CB976EA0D7D
311
D18597C373BEF39D0B83B7FB8C3BCF544856E437AE3F1CB90ECDA32266797AE3562A19CC5CE76D1888A2509D65AE93938CDEB87AD80D835414556987629A908AABA3D1FBDBBF1C19D19CBA4EC4899437AE8C1E694686A452454CE5D330268A0CD3643FF48766615F6C2A48F97824B42482E60A9A623C8714C728E5F77F47AE
311
17069E9E0F03FDB4AB26E75779B53DFDF3592E15C9A3EF0E3B1233F1A7CBBBF1D5F5E06A3A9D0CA66FC6FEE0F6FE7639F07F9F8C166F168BEBF9DD350E964A4092D544D0C40DDF011BC1A2C033536150B15C4DC67689759027E833D39E72C3B1E3079E59D35A678D3CA57E54E4398D6AAC80466D9F151DD392E6317CCEA884
311
661D8446FD5F5FE3D8999EE87F7B6477F83204BA3B3A821ADD9B7757D362F7374C9097304848AA1968B0B4861AAE8E0E08EF8A82DB39269D8C282A18E10E673B41C48B1B62A95E12063D319AC9424783B6C00DE10533DDA70BC2E8C73C3FA5655271AE69EC8675146C112B54C95A33F60F1507EDBBC84027F84AB361660D52
311
2F2575C36B4391D9119B0C904EC2490A97C34CBD73323E3274A1E374B574C3F7F7BBFD5AC7EEE9C34B519454284D1F50AB715CF3D628599DFC8B3CA737B847AA1C40F90CE43F20D40FAAC06F82EDA7FBA93D450992CBA410197CE38C9CC1088F91E3D74FFDDDF90ABC7673DF7BE7F084B335543F01CFBE0D5D5F76E00C8367
311
10BE10136BDA3A221C69E381E5004893C4E10586908793DDDE0D57C872C8CAD84578E8C364A8FB8CCFC0B3629028EA933AEF1C581EA5C50B123460AB1909350CF9AD82073F7D97CEEA83EDB273F05EFD14BACE97EBF7EB4A2424A20F36A69734613953287107DE7415EA61DEB3E889BE7C2B440C43BFC77BDDC53BB34749A0
311
AD31D7C0A74D4ED73F87937B0744D897163ADD043F380146E8C2DA91FFC064443927392DAAE6DC57EB07CA86815807BB66725B600E8505A43133473188221D09566A10DB6AD526CDE119EBBEAC3E80916E78FBF22779E966AFDD21F746052FC476F7B23569E924D45FFBDCB618785A0AE85E074913FF16F46DCC92A4924882
311
2770FDBA5A747DA7D302524423D544CB14F623B888B0A46DE4A25A0B824A5AE45B86BA89B83B7940573E20B50CA8059ED358529E6C19E755B64D184735DA66A43C03C7FFD77F5765E596644595AB33B27BAAA33AF475EFB1577E232A7A74C375FD1EDC22F7C6343E43065D4B4E60D573ED6C7475B55CF8D783E9CCBF1B4CFD
311
C57C309F8F6FD13F2DEEC677B3D9EC6AB46CFC64340983A6D474231A5E42690B2AC1ACFBBEAC103F3609B8E1035172F3CE8467F3FEB21AA2170E3CEC41BD6C37CEE367F47D34FEB180C3CA93825659C969467345740C3DE80FFE99A0CFE82963C6571949E905523EBE5B1F1983910BF67DD2F14EBF1DEDB5A30B1D902785A8
311
C72ADBE584F1A38DA9417258E6A9C5AFF149FB3685A6F9D57FD631E84C65C1598C3C183B292D32AA900D2F284222A312D4EBF6F4B1BD7B5CB0FBD974888AEC386D3479246892B94458805A55A4FAE3CE2F68EA745F75E3A2DC0E9FF0B099C275C0991B174DBA621195C31D0AB46E856AE1E052B79347E34FF294A3D7369BDA
311
FF7697C6A65792DB2597F44FD62E93C2AD01482325FA063444F04EAD4C18D4BAD9F9E83F19DEA8E31085CF5DA55A5B0E03AD31F53108516394BD2DA08979B247EF11A8AF9BE50FEB353D442EBA65BD4A022375A08848EB9B82D6CFAA345F7EF2D0A138AB8F4EC9AB14BEBC5CD2405090B9D2010E16811556664914A8BAF863
311
F34914B8C966CE3D03059C5FF7B337BF6D16459615B919DACCED7DD8593FE2761B6F901CA8BE96C8CD78E48F37F575C0DE50B63B22E990C4F20903F0AC602DD03DF78397E6CE883A6426DA759E76C51143574BC716B629845ABA7473AB06078D474E1DC490BE52EA88E92E285FBD1178F552A820D0CB87FF02504B03041400
311
060800006F8AD142000000000000000000000000350000006662782F39423137393745362D363133432D343337382D424445312D3033354431384544333635462F76657274696365732E62696E504B03041400060808006F8AD142F270F1330600000004000000360000006662782F39423137393745362D363133432D3433
311
37382D424445312D3033354431384544333635462F747269616E676C65732E62696E636660600000504B03041400060800006F8AD142000000000000000000000000370000006662782F39423137393745362D363133432D343337382D424445312D3033354431384544333635462F617474726962757465732E62696E504B
311
03041400060808006F8AD142D5987DFC8F00000041010000360000006662782F39423137393745362D363133432D343337382D424445312D3033354431384544333635462F6469726563746F72792E786D6C858F410EC2201045AF4266AF15DDB800BA74E7C21B903225242D6328188F2FA5C4183471359997F9FF81E89FF3
311
C41E1816475E02DF1F80A11FC8386F25A438EECEC07A250251FC3803E6F58C12560C4AD840E95E91C151A72936F496F35732D860FE635F62C8F2DA16B505C545B74125BAA2FA9E05D7CC053D063734D5C7665FD55B6B8D15D5E9BFEAFD8490FFA45E504B03041400060808006F8AD142896E0034FE000000A00100003B0000
311
006662782F39423137393745362D363133432D343337382D424445312D3033354431384544333635462F7265736F75726365732F636F72652E786D6C8D504B6E833010BD0A9A6D65C0213471641C51684ED00B586642AC043BF2A7EAF16B27546A77DDCC8CDE47F3F4F8F16BB9159FE8BCB6A6035AD650A05176D266EE2086
311
33D9437114DC591B7EC9A03072C10E320C82CFCEC6FB0A296B029A905063275C41E93D0628D42D1D1D7875C145963286A4F0D7F22ED555CE58D232D14927B80F2E05289E4FF204E1D0DBE8147A5E3D59C163D4D3AAD153FAA9CF1A1D88B167C31B1B2869EB7E24DB66DB93FDD030320E6DBB39BDEF193B515E65B3E0412F3F
311
199543197002B1A96943EA5742771F7477A0ECD0D097BA3D3435AFB2FC8F29DEA77F9AA236A1D9AC719F360F220779108257B9AFB41E65A69DBB15DF504B010214000A00000800006F8AD1423DEE336E79000000790000001B00000000000000000000000000000000006175746F6465736B2D64657369676E2D7061636B61
311
67652E786D6C504B010214001400060808006F8AD142D486FD9CA0000000F40000001300000000000000000000000000B20000005B436F6E74656E745F54797065735D2E786D6C504B010214001400060808006F8AD142E1845D05EB0000007C010000080000000000000000000000000083010000636F72652E786D6C504B
311
010214001400060808006F8AD14255019EA25F0000007C000000070000000000000000000000000094020000636E782E786D6C504B010214001400060808006F8AD1429469DC3C68010000020300000C00000000000000000000000000180300006662782F636F72652E786D6C504B010214001400060808006F8AD14297B7
311
62BB7D0000009D0000000B00000000000000000000000000AA0400006662782F636E782E786D6C504B010214001400060808006F8AD142B4B76FF52B010000140200003100000000000000000000000000500500006662782F39423137393745362D363133432D343337382D424445312D3033354431384544333635462F63
311
6F72652E786D6C504B010214001400060808006F8AD1425D4942814F010000330300003000000000000000000000000000CA0600006662782F39423137393745362D363133432D343337382D424445312D3033354431384544333635462F636E782E786D6C504B010214001400060808006F8AD14218B7BA68A40500008110
311
00003400000000000000000000000000670800006662782F39423137393745362D363133432D343337382D424445312D3033354431384544333635462F6F626A656374732E786D6C504B010214001400060800006F8AD14200000000000000000000000035000000000000000000000000005D0E00006662782F3942313739
311
3745362D363133432D343337382D424445312D3033354431384544333635462F76657274696365732E62696E504B010214001400060808006F8AD142F270F13306000000040000003600000000000000000000000000B00E00006662782F39423137393745362D363133432D343337382D424445312D303335443138454433
311
3635462F747269616E676C65732E62696E504B010214001400060800006F8AD14200000000000000000000000037000000000000000000000000000A0F00006662782F39423137393745362D363133432D343337382D424445312D3033354431384544333635462F617474726962757465732E62696E504B01021400140006
311
0808006F8AD142D5987DFC8F0000004101000036000000000000000000000000005F0F00006662782F39423137393745362D363133432D343337382D424445312D3033354431384544333635462F6469726563746F72792E786D6C504B010214001400060808006F8AD142896E0034FE000000A00100003B00000000000000
311
000000000000421000006662782F39423137393745362D363133432D343337382D424445312D3033354431384544333635462F7265736F75726365732F636F72652E786D6C504B0506000000000E000E0080040000991100000000
310
504B03040A00000800006F8AD1423DEE336E79000000790000001B0000006175746F6465736B2D64657369676E2D7061636B6167652E786D6C3C3F786D6C2076657273696F6E3D22312E302220656E636F64696E673D227574662D3822203F3E3C666F726D6174733E3C666F726D61743E687474703A2F2F736368656D612E
310
6175746F6465736B2E636F6D2F64657369676E2D7061636B6167652F323030393C2F666F726D61743E3C2F666F726D6174733E504B03041400060808006F8AD142D486FD9CA0000000F4000000130000005B436F6E74656E745F54797065735D2E786D6C7D8EC10E82300C865F65E91D8A1E8C310C0EEA1BF002731658846E
310
D98AC1B77784ABF1D8FE5FBFBF75BBCE937A534CCEB38643598122B6FEE978D0B0485F9C41B54DDD7D022595594E1A469170414C76A4D9A4D207E29CF43ECE46F218070CC6BECC4078ACAA135ACF422C856C0E68EA1BF5669944DDD7BCDE7B1F8E415D77AECB980613C2E4AC91FC167A2B244592486606FC29C8FD7F045B9A
310
EF7053A7E60B504B03041400060808006F8AD142106959C7EA0000007C01000008000000636F72652E786D6C8D90416EC3201045AF82665B61834D6CD7C24489E21BF40208888B128365A0EAF18B13476A775DCDE8CF7F33A3CF8FDFF31D7D993558EF06A00501649CF2DABA698014AFB80374147CF53EFEB201727236036C
310
32083EAD3E2DBBA4BC8BC6C5AC3AAFCD2ECA104C04A4EEB91920A84F33CB42A6981DE1562C52DDE4640AFAEA329C92D5E879C4EABCCF5EAD59415C4676EA48C330695985595D31DC1DBA115F48434EE79130761E79B9C182473BBFEEABD5C86834888AD01A9306D3F683B63D7DEF6BFA460E7D4D78B9D9FF4069D1FF849275
310
B1AEF6779F580041F3238F81E0E596452E8FA072DD72133F504B03041400060808006F8AD14255019EA25F0000007C00000007000000636E782E786D6C4DCB3B0E80201045D1AD90E915ED2CF8AC45050C11660C8261F98AB1B07AC9C97D42D718D865D3E909258CFD00CCE24AC6E326A164D74DC0B4128928FF326038472B
310
A13128B1252AC747C6BAB984FC68F0B87FE8960A5C09FE86CFB69FBA01504B03041400060808006F8AD1421E66152067010000020300000C0000006662782F636F72652E786D6C8D52ED8E8320107C15C2DF0B821F6DBD0669DAD437B817A04A3D53058360FAF8B77E345E2F4D73314132B3B33B3BCA0FF7B64183B27D6D74
310
86C38061A47461CA5A5719F6EE4A528C0E825B63DCAF328CB46C558647180B5E59E3BB052A8C764A3B40B529D502CABE570EA3A2814B86FBE25BB53290DE41457F0B3A59DC64A58230001AEA04EF9D0503681E329E585C2F774E675C70EFEB7261EB12A6D5D75A592CCE79724CD936216C97442489A384A49B342767B665C7
310
53CE92E494733A8A057775FB705758259D2AB188581813B625E1EE2BDCEDC3CF7D1C7EB0CD3E669C8EE54F22DF95FF14F95ABB385AECCEB21E8B108C4CC49F6D2122877A39801F2A381D4384D794F073D0100884ECE4A579EC7103685085333601A6347EA506D9780553199A1E4E67163A4F0D60B3977DA2377DDEF7800F28
310
7505D6A483EBC5BB713A9FA72E5174CA92C1DD9136B695CD6A6EB6B89EEBA097F2C234C6FE474D9755E912261DFF5EF103504B03041400060808006F8AD1421A0E58527E0000009D0000000B0000006662782F636E782E786D6C4DCCD10A83201886E15B91FFDC556E99076618EA7DC4B290990EA76397BF1A1DECE883878F
310
970F9FCDA3B74D2F17430FCDA50664C33DCE2EAC3D94BC600668103CC598FF6E80C2B4D91E0E06C1D714CBF3A4D92E53F17957EFC2E3C49A51D949AD30D5B4C637435A3C92A6C3FADA52259951868C50095EFD4AFB1E61F105504B03041400060808006F8AD142811AB1452B01000014020000310000006662782F30383641
310
374145442D364536302D344632352D423231372D4533353644413846444632422F636F72652E786D6C8D515B6EC32010BC0AE22B55856DFC4C234C9428C9097A0182498A1283C5A3CAF1BBD48ED4FEE58745B333B303CBB68FF18EBE95F3DA9A1ED3ACC0481969076DAE3D8EE142D6186D3973D6863F348C8C18558F138C39
310
BB3A1BA70592D6046502A0C60E6A0185F72A6024EF70E9B1975F6A1499880118FE964D42DEC45565348336F038F3C14100340F4927E6C5BADD75BBE381B4C7B620F5A96CC8BEA41D39564D7BD8AD4F8753B967F92CE42C463D2C723D401C7DD1CABD6A92C49C053D3EE34BA7445003E665412B52B484769FB4DBD08F4D45DF
310
8B6653152C4FF47FA2380D2F8AA236A12A97B8B3CC634E593E37381B6C3CDF9F61D463B22EA0346FE5957C83576510ABA969D3B07CA6C20780675B2F9E3E58071FBCBA9D815D2DC66DCD599E7604E5778150D33EF90F504B03041400060808006F8AD1423BEE8D965701000033030000300000006662782F30383641374145
310
442D364536302D344632352D423231372D4533353644413846444632422F636E782E786D6CBD93CD6EC32010845F0571ADFC439C3A698489D4439FA0875E316C121A1B2CC055F3F65D1292E6D243A5AA1764CD0E33AB4F986F3FC7817C800FC6D98EB2B2A604AC72DAD87D47E7B82BD6946C05F7CEC53B1B25568ED0D12453
310
C1F7DECD539634ECE43C445407638F59F410DCEC150494D34D323825070C005BCC28C2D883D6A0C9CD885F3BF0B80A8AFD89C4039097E737E2FA775031F02AA5085EA50EC1D3999BEE4C94A84186D0D1A00E30CA52CED16908C752CB284B565EBB7ED8E93B89A40BD7CAD91B92CA3B9A4E2AF2462572E4150E050FD123BD6C
310
8AA709A890D33418252342AECEC68B47F0D9D8D82EB3D720788FEE66D1AED718769E091ECD08D9A13CC8089A8A45CD9AA26E0BB67A65AB0D7BDA34ECA17EDC3435AF925DF0DEB9215FC218F06E22CAD9083652C17895C63FE1CB3EA28D47D6CE9F7E011201E4D60B9D5BC65FF2616DB35CFE239FEAFCBE1197C7BF407C0150
310
4B03041400060808006F8AD1420A773F66650700009A1B0000340000006662782F30383641374145442D364536302D344632352D423231372D4533353644413846444632422F6F626A656374732E786D6CED59DD73A3B616FF5718EE4BEF83B1F1C75EA743E8247676C7D3A6DD597777FAE019460699E846084612D9F8FEF5
310
3DFA000331096E73DFFA6003423A3AE7773E75087E7ACEA8F384B92039BB767D6FE23A98C57942587AED96F2305ABACE4F61C0F35C36A6B90E4319BE76D5B01B0629CFCBC20E25F8804A2A3BA31F6FFF70448C19769D982221AE5D113FE00C79A8947982C5A3972089BCF4F0ECF99E99D8269B72543C748816886326815318
310
6740C5314CF9EDC7893B0E83B17A1F06EADFCE9A0D9A35EF9F35D652B7B9244C48C4E2172C75C8CC06B134F3E7EBBBE9E26AB498CF67A3F987A93FBAFD78BB1EF9FF994D561F56ABAB9BBB2B606F9FE7D4CA94E002B304F47774433F18AB37B5E81681735CC7396338D64002545AAC2E4182056CD5806FD27EF495448DD75A
310
C2C6F35CBDB72C3486676D2A7DB38601D1A20B82D8ED2A89AB6B53BE7CFF5F105C0C314A2EB0046E85E4A05D0B0F07AF70C3493036A361B03FE982082743127382A843C99E230E4A81A96A4A189805968C720E0EA41C2581D69C79DDB62DF0CCB75DE71C97879252E5196EA81D2B02F7C35268CEC8FF303F71DF4406780269
310
4BC2E4D272298F0576C3AB60AC07C3405D6653FBD200E91C284A8546C4BCED08BA52AEBF59BBE1CF1FF7CF5B150ECE6F5EF0BCC05C2AA3537AD47C8121DBAB42C96EEB0FD29C5A00C21850EDCA13285F00F95F217A9C5801BD71F23C7F9EDBB99223260E39CF4037CEC4194DE06FE2F8FA5FDD37EE8271BDB8ADBD3E3CC14D
310
1554CBBF8F675B068D95E5BF0167183C81C1E77C665F6D6344C19EEF09038094913834872108ED87FDB31B6E207042A0875588863E880CEC3EC16D30B6644E5AA9DCCB7A1D0344ED1EB3214A02D8B445021B3D7AFA04D98393F8A4A6A6887DF02EDEC55C6FD6DB9FB7253FA018DF5B9F5EE303614442D63CCF500BF396448F
310
F8F83DE70908FA12EF6D13EFCC6E25006D85B9023EAD40500FA79D5B1BC4B02ECD55B809DED8018450B9BA41FF9E8818538A18CECB6ADF3ABA2943AD3DDED60C6E383510CFA61D13E6F889A8AA029CE634A3C528E4FD98934281E8869F8C6475D0F47AA4FBBAF9152CB29EDF336BC320F432447FD741EB0C0E2DCBAE90B640
310
D402EF4FE13CCE69CEA3FD313291CE855A02D8687BCBB7165188F546498A0A7890F6BB2AA4A446DA282187432920AE9E61F1DB66D534878937F3174EF3BFE38C7388B6E0BB885BBFEBEC11910CA5383AA0A46FBBE66E356DA149F690E6F840412EF244E43142329A2438BD049A8B885FBD2BF594E642108605E4ABB3E037D1
310
987810488C362B9695563B4013116558227A09028A4C0FB83AEDE81A3786D2E16D1E6BEB7D4D634DA2FF278BE0086AC99C45044A51C8216F32EE7B0B88216D740DCA1D7CC1DA2ADA5A0C5A4209111FA3EF98A40FF212D40DF91EDC6338929432CA0B1483590F20FBC25794523BBCEF51FCA8F2471497F4BD0C44607A8808A5
310
6516C18F3038790C71ED3A30BD8A4283B8897D126750942159F2219B7C584C5EEC636A866E086C6C742014C27694A1A207F55640D4F58853836FA9F728755F664584B2BC64830CC59B75BDC992EFAA55911DC8AF2A15A16CAC085B82614098ACB36A15B3C1D475600537D281EA18099415D49CC2DE483C7EED4D9A72EF06DC
310
FAE9FB6E9041E1D7A3BD66449D5730581E5B8581F88E64FCE0865B7D1DDD42FD9DE0E494EAAB5AB3590102622A92979C58157DDD4079636B3437BC4752EC3E99AC5B5DBF6E3CE87E04635803B54BBD70A380CE3093485526F7EA867E4110825B34CCF846E5D44BA8DC2489AE1A11FD48FAD4D92A235A9B66C42B1E30CB33F8
310
B11D61312D13BC4389788CEE258DB644B16EA5F4325261FCAA80BF7DDA76E0819101227D56051EFEDE596B4757AA5C3A4B443E94D99E210241B0255A6A74E3152CB51AA9B45C5FD59902EA2E3030ABE2F93F278B663BE29F93456A0DE36F9D2C6E8FBFA063B32FD248E7B1B2EB8B8E01757E5254DEE318A0DB0E35D53A8B98
310
646EE5B7CE144150ACA2FCE06AAC0A1A86601FC77F396BF76541B35D87FFCBB2B6FFA2E2B828ABB426AB2ED599CA75D3CC61CBC962B15EF957A3F9D2BF1BCDFDD5CDE8E6667A0B0DDAD5DDF46EB95C2E26EB1A4DEDA8615007339DBBE0D904B56A583D590CA02B2B724A1238CD274E8A21E64B38D30F689FF30C0B489ECD66
310
77629BF203563F993EA7447B8A2B4E1E103488A980B40E1895B16C8F3BFF82D6A48483F6B50B4D23EF11FEAC55BA0E649E6B175A0592C458787B6833A9869E260E2957E77E4B0CF0412C5529D12CAA9FEB550A9B56F8AFA70C490356AE560F030AB702BA5FAD0E85E6CDF2145F2478C58E8324DCEE4B09D59A91E534500BA3
310
B739A9DFC846097BB45B3F83EBBE2E96EFE9392D44067D3278D5080CD591443CD5FD6EC59865E966FD790C7D3667F39B53D032055D0EA734E2188CB954051558115885A5592009A6BAFA71F799E7F08927737455E4FCF0BCFCF0EFDD2ACFB29C99A1DD0D9CCA12F850E46C1FE0B34FB283E201ABE6BAD84D27FE74A79BDAB6
310
CF1EED91C09EAA8A60A02A2694201D9303BB7CD1A0B2EDCBB1524567FA66EDD8200ACD0063472F7ABCE62397033EA43EA7288FD17E5E49FB6A5F7BACA7824D70E848877F02504B03041400060800006F8AD142000000000000000000000000350000006662782F30383641374145442D364536302D344632352D423231372D
310
4533353644413846444632422F76657274696365732E62696E504B03041400060808006F8AD142F270F1330600000004000000360000006662782F30383641374145442D364536302D344632352D423231372D4533353644413846444632422F747269616E676C65732E62696E636660600000504B03041400060800006F8A
310
D142000000000000000000000000370000006662782F30383641374145442D364536302D344632352D423231372D4533353644413846444632422F617474726962757465732E62696E504B03041400060808006F8AD142D5987DFC8F00000041010000360000006662782F30383641374145442D364536302D344632352D42
310
3231372D4533353644413846444632422F6469726563746F72792E786D6C858F410EC2201045AF4266AF15DDB800BA74E7C21B903225242D6328188F2FA5C4183471359997F9FF81E89FF3C41E1816475E02DF1F80A11FC8386F25A438EECEC07A250251FC3803E6F58C12560C4AD840E95E91C151A72936F496F35732D860
310
FE635F62C8F2DA16B505C545B74125BAA2FA9E05D7CC053D063734D5C7665FD55B6B8D15D5E9BFEAFD8490FFA45E504B03041400060808006F8AD142CF07937FFC000000A00100003B0000006662782F30383641374145442D364536302D344632352D423231372D4533353644413846444632422F7265736F75726365732F
310
636F72652E786D6C8D504B6E833010BD0A9A6D65B081108A8CA344E106BD806526C44AB0913F558F5F13A8D4EEBA9919BD8FE6E9F1D3D7FCCC3ED1796D4D0F2CA790A15176D466EA21861B69213B09EEAC0DBF64901939630F2B0C824FCEC665879435014D48A8B123EEA0F41E0364EA998E1EBCBAE32C73194352F847BE48
310
F59013E62C4F74D209EE834B01B2EDC93A4138F4363A859E171B2B788C7ADC357A4C3FF54DA303711DEA734B9B8AD0635D92BA2A6BD21EDA815C6943CF9781D6F565E0C56A163CE8F927A37228038E204ACA92B721ECF8C18E1D7BEF2AF6460F5D4579B1CAFF98E232FED314B50955B9C7DD6C1E044B415E84E0C5DA575AAF
310
32D35EBB15DF504B010214000A00000800006F8AD1423DEE336E79000000790000001B00000000000000000000000000000000006175746F6465736B2D64657369676E2D7061636B6167652E786D6C504B010214001400060808006F8AD142D486FD9CA0000000F40000001300000000000000000000000000B20000005B43
310
6F6E74656E745F54797065735D2E786D6C504B010214001400060808006F8AD142106959C7EA0000007C010000080000000000000000000000000083010000636F72652E786D6C504B010214001400060808006F8AD14255019EA25F0000007C000000070000000000000000000000000093020000636E782E786D6C504B01
310
0214001400060808006F8AD1421E66152067010000020300000C00000000000000000000000000170300006662782F636F72652E786D6C504B010214001400060808006F8AD1421A0E58527E0000009D0000000B00000000000000000000000000A80400006662782F636E782E786D6C504B010214001400060808006F8AD1
310
42811AB1452B0100001402000031000000000000000000000000004F0500006662782F30383641374145442D364536302D344632352D423231372D4533353644413846444632422F636F72652E786D6C504B010214001400060808006F8AD1423BEE8D9657010000330300003000000000000000000000000000C906000066
310
62782F30383641374145442D364536302D344632352D423231372D4533353644413846444632422F636E782E786D6C504B010214001400060808006F8AD1420A773F66650700009A1B000034000000000000000000000000006E0800006662782F30383641374145442D364536302D344632352D423231372D453335364441
310
3846444632422F6F626A656374732E786D6C504B010214001400060800006F8AD1420000000000000000000000003500000000000000000000000000251000006662782F30383641374145442D364536302D344632352D423231372D4533353644413846444632422F76657274696365732E62696E504B0102140014000608
310
08006F8AD142F270F13306000000040000003600000000000000000000000000781000006662782F30383641374145442D364536302D344632352D423231372D4533353644413846444632422F747269616E676C65732E62696E504B010214001400060800006F8AD142000000000000000000000000370000000000000000
310
0000000000D21000006662782F30383641374145442D364536302D344632352D423231372D4533353644413846444632422F617474726962757465732E62696E504B010214001400060808006F8AD142D5987DFC8F000000410100003600000000000000000000000000271100006662782F30383641374145442D36453630
310
2D344632352D423231372D4533353644413846444632422F6469726563746F72792E786D6C504B010214001400060808006F8AD142CF07937FFC000000A00100003B000000000000000000000000000A1200006662782F30383641374145442D364536302D344632352D423231372D4533353644413846444632422F726573
310
6F75726365732F636F72652E786D6C504B0506000000000E000E00800400005F1300000000
  0
XRECORD
  5
17
102
{ACAD_REACTORS
330
12
102
}
330
12
100
AcDbXrecord
280
     1
270
     1
271
     1
  0
XRECORD
  5
16
102
{ACAD_REACTORS
330
12
102
}
330
12
100
AcDbXrecord
280
     1
270
     1
271
     1
  0
XRECORD
  5
18
102
{ACAD_REACTORS
330
12
102
}
330
12
100
AcDbXrecord
280
     1
270
     1
271
     1
  0
XRECORD
  5
15
102
{ACAD_REACTORS
330
12
102
}
330
12
100
AcDbXrecord
280
     1
270
     1
271
     1
  0
XRECORD
  5
24
102
{ACAD_REACTORS
330
22
102
}
330
22
100
AcDbXrecord
280
     1
270
     1
271
     1
  0
XRECORD
  5
23
102
{ACAD_REACTORS
330
22
102
}
330
22
100
AcDbXrecord
280
     1
270
     1
271
     1
  0
XRECORD
  5
BA
102
{ACAD_REACTORS
330
22
102
}
330
22
100
AcDbXrecord
280
     1
 70
     1
 90
1959938040
 71
     1
  1
76D5272F-1EBC-4CD4-9C56-B7E51C7DAC9F
311
504B03040A00000800006E8AD1423DEE336E79000000790000001B0000006175746F6465736B2D64657369676E2D7061636B6167652E786D6C3C3F786D6C2076657273696F6E3D22312E302220656E636F64696E673D227574662D3822203F3E3C666F726D6174733E3C666F726D61743E687474703A2F2F736368656D612E
311
6175746F6465736B2E636F6D2F64657369676E2D7061636B6167652F323030393C2F666F726D61743E3C2F666F726D6174733E504B03041400060808006E8AD142D486FD9CA0000000F4000000130000005B436F6E74656E745F54797065735D2E786D6C7D8EC10E82300C865F65E91D8A1E8C310C0EEA1BF002731658846E
311
D98AC1B77784ABF1D8FE5FBFBF75BBCE937A534CCEB38643598122B6FEE978D0B0485F9C41B54DDD7D022595594E1A469170414C76A4D9A4D207E29CF43ECE46F218070CC6BECC4078ACAA135ACF422C856C0E68EA1BF5669944DDD7BCDE7B1F8E415D77AECB980613C2E4AC91FC167A2B244592486606FC29C8FD7F045B9A
311
EF7053A7E60B504B03041400060808006E8AD142F3D54D81EC0000007C01000008000000636F72652E786D6C8D905B6EC3201045B782E6B7C2063FE2873051DABA2BE8061010072506CB40D5E517278ED4FEF56B4677EE99195D76FC9E6FE84BAFDE383B00CD08206DA553C64E03C470C62DA02367AB73E1970D9015B31E60
311
9381B3697571D925E96CD03624D53AA5775178AF0320794BCD005E5EF42C32114372F86BB608791593CEE8B34B708C46A1C711A3D23E73367A05DED2EAD4D4638D3FAAB1C1D56BFB864FA425782C9AAEACEAEEBDAB0E2CDF60CE82999FF7E5AA45D00A78416889C901D3E693363DEDFAA27D21755F12966FF63F505CD43FA1
311
686C288BFDDD07E681D3F4C87DC059BE6591CA3DA854B7DCF80F504B03041400060808006E8AD14255019EA25F0000007C00000007000000636E782E786D6C4DCB3B0E80201045D1AD90E915ED2CF8AC45050C11660C8261F98AB1B07AC9C97D42D718D865D3E909258CFD00CCE24AC6E326A164D74DC0B4128928FF326038
311
472BA13128B1252AC747C6BAB984FC68F0B87FE8960A5C09FE86CFB69FBA01504B03041400060808006E8AD142570FC56769010000020300000C0000006662782F636F72652E786D6C8D525B6E833010BC8AE5DF0A8C7904888CA3B44D4FD00B38E05014B091B1518EDFE511A5A9A2284232D6CCCEEEEC00DB5DBA168DD20C
311
8D5605A67E809154A5AE1A5517D8D9939761B4E3CC686DFF9461A444270B3CC198B3DA68D7AF50A99595CA02AA742557500C83B418952D5C0A3C943FB213BE70162A86B3DF8BF22C6AE9531F68A8E36CB0060CA065C874627E3A5E185970CE9C6BAA956D2A98D69C1A6930CF68BC4F9343E27DC587D48BDFB30F6F1F648177
311
08D33C8A93FC338F378C4C62CE6CD35DDD95460A2B2BCCC380465EB0F168FA4DD32DCDB761F61624DB2860642ABF13B9BE7A51E41A65A370B5BBC806CC291899897FDB4244160D62043F8433328508AF39E1FBA0211008D98A637BDDE30CD0284BAB4D0C4CA5DD8D1A45EB244C0DD0FC30B2B0D0796E009B3DEC133EE9F3BC
311
077C40A16AB0262C5C8FCE4ED3D932758DA297C61BED05296D3AD1DECC2D166FE76DD04379A95B6D5E51937555B28649A6BF97FF02504B03041400060808006E8AD14295A3B1AD7D0000009D0000000B0000006662782F636E782E786D6C4DCCDF0A83201C86E15B91DFB9FD99121DA8A14BEF239685CC74388D5DFE6A74B0
311
A30F1E3E5E367C368F769BDE2E060E6DD500B2E1116717560E252FB80734089662CC7F374061DA2C879341B035C5F2BA68B6CB547C3ED4BBF0BC908E44514934365AF7988ECD0D2BA308A646536D5AD9DD3B09B560F5AF74EC19165F504B03041400060808006E8AD1422011D81F2D01000014020000310000006662782F34
311
443342344133452D464545382D344430322D424642332D3446453445463141364336412F636F72652E786D6C8D515B6EC32010BC0AE22B55850DC6719C0813258D7D825EC00192A2C460F1A872FCE2DA91DABFFCB068766676B4CBF68FE10EBE95F3DA9A06920C43A08CB0529B6B0363B8A01A823D67CEDAF0870681E907D5
311
C009869C5D9D8DE302096B823221A1C64AB580BDF72A4020EEE9D3402FBED4D0677D0C89E16FD9D88B5B7F5519C9523BF138F3C1A500601E32BD9097277A2C0FB4455DDBD6A83CE1021DBB234565D7966D470ED5477560F92CE42C462D17B996298EBE68E55E3599C49C053D3CE30BA7FAA024E4052614E10A91CD27D9ECC8
311
7657D4EF78BDA398E513FD9F288EF24551D426D062893BCB3CE484E573833369E3F9FE0CA31EA375014CF3565E8937C8718609217453172C9FA96901C9B32A174F1FAC4B0B5EDDCE894DD6B3715572964F374AE5F780A94EF7E43F504B03041400060808006E8AD142554C72BD4F01000033030000300000006662782F3444
311
3342344133452D464545382D344430322D424642332D3446453445463141364336412F636E782E786D6CD593CD6E022114855F85B06DE607B56A0D8349177D822EBA65E0AA540626C034F5ED7B51B46E5C74D90D999C7B38E7E60BC3B7DF83255F10A2F1AEA3AC6E2901A7BC366EDFD129EDAA35255BC183F7E9CE46899303
311
7434CB54F07DF0D358240D3B39D984AA35EE58C400D14F41414439DF24D62B6931005C35A108430F5A832637237EED20E02A28F627920E40DE5E3F88EF3F41A5C89B9C2278933B04CF6769BA3351A2AC8CB1A3511D6090B59C92D7108FB59649D6ACBE763DD8E93789E40BD7CA291892CB3B9A4F2ACA463572E40D0E058F29
311
20BD624AA711A890E3688D9209213767E3C523F8645C5A2E8AD720F8806EB69C2F1618769E099ECC00C5A102C8049A8A59CBE655BBACD8EA9DAD36EC65335B3FB5CF9B79CB9B6C17BCF7DE964B1803C18F447997C0252A186FF2F811BEE223DA0464EDC3E90F20114069BDD0B965FC673ECDF97D23AE807F81F801504B0304
311
1400060808006E8AD142330D242BA505000080100000340000006662782F34443342344133452D464545382D344430322D424642332D3446453445463141364336412F6F626A656374732E786D6CAD57DB6EDB3810FD1541FBB2FBE08B6CE7B650542476521845DAA2468A7D30605012A570435D4052A9B35FBF8722254B8E
311
9D7A177DB12C6A389C3973E642FFC336E3CE0B159215F9B5EB0DC7AE43F3A888599E5EBB954A0697AEF321F04551A88E98EBE424A3D7AE5E76033F154555DAA59826A4E26A6FF5FEF62F474634A7AE137122E5B52BA3279A9121A9541153F93C8C8922C334D90EBDA111ECAB4D05299FF6949644D05CC152ACE7D0E218A3BC
311
FEEBD81D05FE487F0F7CFD6BA5A6C7A546B53FFDF3592E15C9A33787EDA9997AB3C5DDE4EC6A70369B4D07B3F38937B8BDBF5D0CBC8BE9787E3E9F5FDDDC5DE160A90434594B044DDCE023B0112CF247E653E0572C57D38915B1011A09FAC274A4DC60E278FEC8C8B4DE59270F991F15794EA31A2BA051FB6755C7B4A4798C
311
98332A615907A171FFD5D338763E4FF5BB3DB2BB7C1A02DD1D1D458DEDCDB36B6911FE0D17E4290C12926A061A2CADA386ABE31DC2615170FB8D4927238A0A46B8C3592888787503886A91C0EFA9D14C163A1BB4076E802898CF7DBA208D7ECEF343562615E79AC66E5067C106B94295AC2D63FF50B1B3BE8B0C6C42AC341B
311
2EAD43EAB5A46E70652872B9C72603A493709222E47053EF9C4EF61C9DEB3C5D2EDCE0D37DB85DE9DC3D7C78298A920AA5E9036A35816B9E1A256B937752E4F40677CF941D28DF80FC67A4FACE14C44DB0ED6C3BB3A7284172991422436C9CB13318E367EC78F5AFFEDFF9E78FDACDFDE81DC313C1D650FD023CFB3E7463D9
311
8133F05F40F8424CAD6BAB8870948D079603204D12871758421D4EC2AD1B2C51E55095B18BF0C083CB30F7057FFD91558342519FD479E6C072AF2C9E50A0015BCD489861C86F0DDCC5E94D39AB0FB662C7E03DFB2574BD59AC3EAD2A9190883ED89C5ED084E54CA1C5ED78D335A88779CFA367FAFAA310311C7D8BF7AA8B77
311
668F92405B63AE814F9B9AAE5F7627F70E88B02F2D74B9F17F72029CD08DB5A3FF81C988724E725A54CDB9EFF60FB40D03B14E76CDE4B6C1EC1A0B4863BEECE5209A742458A9416CBB555B348747BC7B5C7E062321CF8B90F09D50B82BBD51C10BB1095F37A62A1D44FA7B9FDA168291D602B6D739D2A4BFC57C13B324A924
311
6AE00158BF2FE7DDD0E9AA800AD16835C93283FBC82D222C671BBD68D682A09116F986A16D22ED0E1ED0D50F442D016A85C72C9694271BC679956D12C6D18C3619298FC0F1FFED0FABACDC90ACA872754477CF743487BEED3DF2CA1F44454F6EB0AA9F835B94DE98C6BB30F784752B3980552FB417E78BB3C9C5E47EE0DDDD
311
CE07B3F96236B89A9F9D0F6E2FEECEBCF9C5E2667E75DFC4C9280FFCA6D374131A514267F32BC16CF81E97481F5B03DCE08128B9FE68B2B3793E2E871885FD11F6A05DB61B6FE2178C7D34FEB9829DE44145CBACE434A3B9223A851EF41FFE8D60CCE81963D6971949E9095ABE7C5CED39839513F67DD5E94E7FECEDB5AB73
311
9D900795A8A72A0B73C2F8DEC6D420392CF3D4E2D7C4A47D9A3ED3BCEA371B180CA6B2E02C46198C9D94161955288627F420915109EA7547FAD85E3D4ED8FD62064445424E1B4B9E0866642E9116A05615A9FEBAF31B663A3D565DBBE8B6C367FCD84AE13AE0CCB58B195DB188CA6188FEAC27A15A39B8D41DE431F7933CE5
311
18B5CDA6F6BDDDA5B1E975E456E494F1C9FA652AB8750065A4C4D8807908D1A98D09FCDA36FB3DFA4F8E37E63844E16F58A9D697DD42EB4C7D0C52D438652F0B98619EEDD15B24EAFB6E79C35AA687C84997AC774960B40E1411697D51D0F659936E165F4718509CE517A7E4558A589EAE692028C85CE904078BC00AABB324
311
0A549DFFB9FE2A0A5C6433E79E8102CEEFDBCBF33FD6F322CB8ADC2CAD6FEC75D8593DE1721BAF511CA8BE95C8F564EC4DD6F56DC05E50362191744862F98C054456B016E85EF8C14B7365441F321F5AB9910EC51E43970BC736B619945ABA746BAB060773474E1DE490BE51EA8CE90A94EF5E0846B5284C1018E5837F0150
311
4B03041400060800006E8AD142000000000000000000000000350000006662782F34443342344133452D464545382D344430322D424642332D3446453445463141364336412F76657274696365732E62696E504B03041400060808006E8AD142F270F1330600000004000000360000006662782F34443342344133452D4645
311
45382D344430322D424642332D3446453445463141364336412F747269616E676C65732E62696E636660600000504B03041400060800006E8AD142000000000000000000000000370000006662782F34443342344133452D464545382D344430322D424642332D3446453445463141364336412F617474726962757465732E
311
62696E504B03041400060808006E8AD142D5987DFC8F00000041010000360000006662782F34443342344133452D464545382D344430322D424642332D3446453445463141364336412F6469726563746F72792E786D6C858F410EC2201045AF4266AF15DDB800BA74E7C21B903225242D6328188F2FA5C4183471359997F9
311
FF81E89FF3C41E1816475E02DF1F80A11FC8386F25A438EECEC07A250251FC3803E6F58C12560C4AD840E95E91C151A72936F496F35732D860FE635F62C8F2DA16B505C545B74125BAA2FA9E05D7CC053D063734D5C7665FD55B6B8D15D5E9BFEAFD8490FFA45E504B03041400060808006E8AD142E07E6319FF000000A001
311
00003B0000006662782F34443342344133452D464545382D344430322D424642332D3446453445463141364336412F7265736F75726365732F636F72652E786D6C8D50594EC33010BD4A34BFC8899DB8CD22C7558172022E6039D360B5B12B2F88E3E3B441823F7E66466FD13C3D71F85AAEC527FA609C1D8195140AB4DA4D
311
C6CE23A478261D140729BC73F1970C0AAB161C6185418AD9BB74DB20ED6C441B336ADD841BA842C00885BEE66384A03F7051A54A312BC2A5BC297D513396ACCC74D64911A2CF018AC7937582F4185CF21A83A81EAC14299969D39829FF3467831E64C7F8B1DD9D3879E3A796F0E7EE851C6947C9A96EFB86EFFAD79EEF45B5
311
9AA58866F9C9A83DAA8813C89AB286D03D61ED3B6B07D60F75F74477434345B5CAFF98D26DFAA729191B9B7A8BFBB005902C07B91352546B5F79DDCBCC7BED567E03504B010214000A00000800006E8AD1423DEE336E79000000790000001B00000000000000000000000000000000006175746F6465736B2D64657369676E
311
2D7061636B6167652E786D6C504B010214001400060808006E8AD142D486FD9CA0000000F40000001300000000000000000000000000B20000005B436F6E74656E745F54797065735D2E786D6C504B010214001400060808006E8AD142F3D54D81EC0000007C010000080000000000000000000000000083010000636F7265
311
2E786D6C504B010214001400060808006E8AD14255019EA25F0000007C000000070000000000000000000000000095020000636E782E786D6C504B010214001400060808006E8AD142570FC56769010000020300000C00000000000000000000000000190300006662782F636F72652E786D6C504B01021400140006080800
311
6E8AD14295A3B1AD7D0000009D0000000B00000000000000000000000000AC0400006662782F636E782E786D6C504B010214001400060808006E8AD1422011D81F2D010000140200003100000000000000000000000000520500006662782F34443342344133452D464545382D344430322D424642332D3446453445463141
311
364336412F636F72652E786D6C504B010214001400060808006E8AD142554C72BD4F010000330300003000000000000000000000000000CE0600006662782F34443342344133452D464545382D344430322D424642332D3446453445463141364336412F636E782E786D6C504B010214001400060808006E8AD142330D242B
311
A50500008010000034000000000000000000000000006B0800006662782F34443342344133452D464545382D344430322D424642332D3446453445463141364336412F6F626A656374732E786D6C504B010214001400060800006E8AD1420000000000000000000000003500000000000000000000000000620E0000666278
311
2F34443342344133452D464545382D344430322D424642332D3446453445463141364336412F76657274696365732E62696E504B010214001400060808006E8AD142F270F13306000000040000003600000000000000000000000000B50E00006662782F34443342344133452D464545382D344430322D424642332D344645
311
3445463141364336412F747269616E676C65732E62696E504B010214001400060800006E8AD14200000000000000000000000037000000000000000000000000000F0F00006662782F34443342344133452D464545382D344430322D424642332D3446453445463141364336412F617474726962757465732E62696E504B01
311
0214001400060808006E8AD142D5987DFC8F000000410100003600000000000000000000000000640F00006662782F34443342344133452D464545382D344430322D424642332D3446453445463141364336412F6469726563746F72792E786D6C504B010214001400060808006E8AD142E07E6319FF000000A00100003B00
311
000000000000000000000000471000006662782F34443342344133452D464545382D344430322D424642332D3446453445463141364336412F7265736F75726365732F636F72652E786D6C504B0506000000000E000E00800400009F1100000000
310
504B03040A00000800006E8AD1423DEE336E79000000790000001B0000006175746F6465736B2D64657369676E2D7061636B6167652E786D6C3C3F786D6C2076657273696F6E3D22312E302220656E636F64696E673D227574662D3822203F3E3C666F726D6174733E3C666F726D61743E687474703A2F2F736368656D612E
310
6175746F6465736B2E636F6D2F64657369676E2D7061636B6167652F323030393C2F666F726D61743E3C2F666F726D6174733E504B03041400060808006E8AD142D486FD9CA0000000F4000000130000005B436F6E74656E745F54797065735D2E786D6C7D8EC10E82300C865F65E91D8A1E8C310C0EEA1BF002731658846E
310
D98AC1B77784ABF1D8FE5FBFBF75BBCE937A534CCEB38643598122B6FEE978D0B0485F9C41B54DDD7D022595594E1A469170414C76A4D9A4D207E29CF43ECE46F218070CC6BECC4078ACAA135ACF422C856C0E68EA1BF5669944DDD7BCDE7B1F8E415D77AECB980613C2E4AC91FC167A2B244592486606FC29C8FD7F045B9A
310
EF7053A7E60B504B03041400060808006E8AD1423F908904EC0000007C01000008000000636F72652E786D6C8D90416E83301045AF62CDB632D8100241C6510BF404BD80653BD44AB011B6AB1EBF262152BBEB6A467FFE9B197D76FE9E6FE84BAFDE38DB01CD08206DA553C64E1DC470C10DA03367AB73E1970D9015B3EE60
310
9381B3697571D925E96CD03624D53AA5775178AF0320794B4D075E7EEA59642286E4F0D76C11F22A269DD16797E0188D428F2346A57DE662F40ABC7EA703298F051EFB91E0C3D054F854D723EE87B17F3DF445F5467B966F3067C1CCCFFB72D5226805BC20B4C4E48869FD41EB969EDAA27921555B12966FF63F505CD43FA1
310
686C288BFDDD07E681D3F4C87DC059BE6591CA3DA854B7DCF80F504B03041400060808006E8AD14255019EA25F0000007C00000007000000636E782E786D6C4DCB3B0E80201045D1AD90E915ED2CF8AC45050C11660C8261F98AB1B07AC9C97D42D718D865D3E909258CFD00CCE24AC6E326A164D74DC0B4128928FF326038
310
472BA13128B1252AC747C6BAB984FC68F0B87FE8960A5C09FE86CFB69FBA01504B03041400060808006E8AD142C5833EF969010000020300000C0000006662782F636F72652E786D6C8D52ED8E8230107C95A67F2FD01654D4949A3BE49EE05EA042E588D092D2121FFF960FE37931E642529A999DDDD9017EB8B60D1A94ED
310
6BA353CC428A91D285296B5DA5D8BB73B0C5E820B835C6FD2AC348CB56A57884B1E09535BE5BA0C268A7B403549B522DA0EC7BE5302A1AB8A4B82FBE552B43E91D54F497B093C545562A6421D0502778EF2C1840F390F1C4E27CBA7232E3827B5F970B5B9730AD3ED7CA62917CB2238D37519067390D56C7ED3AD825491E64
310
C73C7B5F65D1FA83659C8C62C15DDDDEDC155649A74A2C22CAE2806E02967CB164CF76FB68FB46D7FB987232963F887C57FE53E46BEDE268B13BCB7A2C181899883FDB42440EF572003F4470328608AF29E1C7A0211008D9C95373DBE302D0A00A67EC0A98D2F83B35C8C62B984AD1F47032B3D0796A009B3DED13BDE8F3BA
310
077C40A92BB0261D5C4FDE8DD3F93C7589A2533618DC1569635BD9DCCDCD16EFE77DD05379611A63FFA326CBAA6409938C7FAFF801504B03041400060808006E8AD1420DEA66F17E0000009D0000000B0000006662782F636E782E786D6C4DCCDF0E82201C86E15B61BF73928AF8B3014ECC0B71898E89D0485A979F360F3A
310
FAB667DF5E557F9680DE2EBF7C8A1ACE2702C8C5471A7C9C349475C402506D544E69FDBB018AFDE234EC0C464D3995E741831BFB12D64D838FF3818DA4FC4A6E1477D2124C797BC7C25A8129BB30C9DA8609DE416554F52B6DBB87CD17504B03041400060808006E8AD1426E3809132C01000014020000310000006662782F
310
41393437333035342D453942302D343743442D384242382D3436323639364341363837452F636F72652E786D6C8D515B6EC32010BC8AC557AA0A1B6CC73611264AD2DCA0177080B82831583CAA1CBF503B52FB971F16CDCECC8E76E9FE31DDB36F699D32BA07384720939A1BA1F4D883E0AFB003D99E516B8CFF4303991E26
310
D983040346476BC2BC42DC682FB58FA83642AEE0E09CF420E3F7F8E981E35F721AF221F8C870B77C1EF86D18658EF3D88E3C469DB73140B60C492F600752B715DAD6F04C8E08D6EDE90376C76307EBA66C48733A345D7BA6C5226434042556B912318EBA2A695F35496246BD9A9EF1B995839702B012E10AA206E2F613B73B
310
4C7665F78EB6BB0AD122D1FF89C22C5E1405A57D55AE711799030CD36269302A4CB8DC9F61E46336D66769DEC649FE0618CA11C684A02DA1C5428D0B889E4DBD7A3A6F6C5CF0E67689EC6A356E6A468B74A3587E0F186BBA27FB01504B03041400060808006E8AD14233EBBDAA5701000033030000300000006662782F4139
310
3437333035342D453942302D343743442D384242382D3436323639364341363837452F636E782E786D6CBD93CD6EC32010845F0571ADFC439C3A698489D4439FA0875E316C121A1B2CC055F3F65D1292E6D243A5AA1764CD0E33AB4F986F3FC7817C800FC6D98EB2B2A604AC72DAD87D47E7B82BD6946C05F7CEC53B1B2556
310
8ED0D12453C1F7DECD539634ECE43C445407638F59F410DCEC150494D34D323825070C005BCC28C2D883D6A0C9CD885F3BF0B80A8AFD89C4039097E737E2FA775031F02AA5085EA50EC1D3999BEE4C94A84186D0D1A00E30CA52CED16908C752CB284B565EBB7ED8E93B89A40BD7CAD91B92CA3B9A4E2AF2462572E4150E05
310
0FD123BD6C8AA709A890D33418252342AECEC68B47F0D9D8D82EB3D720788FEE66D1AED718769E091ECD08D9A13CC8089A8A45CD9AA26E0BB67A65AB0D7BDA2CD60FF5E3A6A97995EC82F7CE0DF912C680771351CE46B0910AC6AB34FE095FF6116D3CB276FEF40B900820B75EE8DC32FE920F6B9BE5F21FF954E7F78DB83C
310
FE05E20B504B03041400060808006E8AD1421F2580BE62070000991B0000340000006662782F41393437333035342D453942302D343743442D384242382D3436323639364341363837452F6F626A656374732E786D6CED595B73A33614FE2B0C7D691F8C8D2FC9A643E824F666C7B3937667DDDDE98367181964A246084612
310
D9A4BFBE4717301093E06EFAB60F3620A4A373BE73D521F8ED31A3CE03E682E4ECD2F5BD89EB6016E70961E9A55BCAFDE89DEBFC16063CCF65639AEB3094E14B570DBB6190F2BC2CEC5082F7A8A4B2337A73FD972362CCB0EBC4140971E98AF80E67C843A5CC132CEEBD0449E4A5FB47CFF7CCC436D994A3E2AE43B4401C33
310
099CC238032A8E61CA6F3F4EDC71188CD5FB3050FF76D66CD0AC79FFACB196BACD25614222163F63A943663688A5993F5FBD9F2E2E468BF97C369A9F4DFDD1F5CDF56AE49FCF26CBB3E5F2E2EAFD05B0B7CB736A654A70815902FA7B72433F18AB37B5E81681635CC7396338D64002545AAC2E4182056CD5806FD27EF49544
310
8DD75AC2C6F35CBDB72C3486676D2A7DB38601D1A20B82D8ED2A89AB6B53BE7CF737082E861825175802B74272D0AE85878357B8E124189BD130D81D7441849321893941D4A164C71107A5C05435250CCC024B46390707528E92406BCEBC6EDB1678E6EBAE738CCB7D49A9F20C37D48E1581FB61293467E41FCC0FDC379101
310
9E40DA9230F9CE72299F0AEC8617C1580F8681BACCA6F6A501D2D953940A8D8879DB1174A95C7FBD72C38F37BBC78D0A07C7372F785E602E95D1293D6ABEC090ED55A164B7F507694E2D00610CA876E50194CF80FCEF103D0EAC80DE38799C3FCEED5CC91113FB9C67A01B67E28C26F037717CFDAFEE1B77C1B85EDCD65E1F
310
9EE0A60AAA77DF8F675B068D95E5BF0167183C80C1E77C665F6D6244C19E6F09038094913834872108EDFBDDA31BAE217042A0875588863E880CEC3EC06D30B6640E5AA9DCCB7A1D0344ED1EB3214A02D8B445021B3D7AFA00D98393F8A0A6A6887DF02EDEC45CAF569B8F9B92EF518C6FAD4FAFF09E3022216B1E67A88579
310
4BA27BFCF42DE70908FA1CEF4D13EFCC6E25006D85B9023EAD40500F879D5B1BC4B02ECD55B8095ED9018450B9BA41FF968818538A18CECB6ADF3ABA2943AD3DDED60C6E383510CFA61D13E6F881A8AA029CE630A3C528E4FD98934281E8861F8C6475D0F47AA4FBB2FE1D2CB29EDF336BCD20F43244FFD441EB080E2DCBAE
310
90B640D402EF0EE13CCE69CEA3DD5364229D0BB504B0D1F696AF2DA210EB8D921415F020ED775548498DB45142F6FB52405C3DC2E2D7F5B2690E136FE62F9CE67FC719E7106DC17711B77ED7D92322194A71B44749DF76CDDD6ADA4293EC21CDF19E825CE481C8A708C96892E0F414684E227EF1A6D4539A0B41181690AF8E
310
82DF4463E2412031DAAC58565AED004D44946189E8290828323DE0EAB4A36BDC184A87D779ACADF7258D3589FE4F16C111D492398B0894A290435E65DCF7161043DAE81A943BF882B555B4B518B48412227E8ABE6192DEC9535037E47B708FE14852CA282F500C663D80EC335F514AEDF0BE43F1BDCA1F515CD2B7321081E9
310
3E22949659043FC2E0E431C4B5EBC0F4220A0DE226F6499C41518664C9876C72B6983CDBC7D40CDD10D8D8684F2884ED2843450FEAAD80A8EB11A706DF52EF51EAAECC8A086579C906198A37EB7A9325DF55AB223B905F552A42D95811B604C380305967D52A6683A9EBC00A6EA403D55324505650730A7B25F1F8B53769CA
310
BD1B70EBA76FBB4106855F8FF69A11755EC160796C1506E21B92F19D1B6EF475740DF577829343AAAF6ACD66050888A9485E726255F4650DE58DADD1DCF01649B1FD60B26E75FDB2F6A0FB118C610DD42EF5C2B5023AC34C225599DCAA1BFA1941086ED130E36B95534FA1729524BA6A44F486F4A9B35546B436CD8857DC61
310
9667F0635BC2625A26788B12711FDD4A1A6D8862DD4AE965A4C2F84501FFF8B0E9C003230344FAA40A3CFCADB3D68E2E55B9749488BC2BB31D430482604BB4D4E8C62B586A355269B9BEAA3305D45D606056C5F31F278B663BE2C7C922B586F17D270B9AEF103D449B46368F95599F740AA8D393A2F216A700DD75A8A9D649
310
C4E4722BBEF5A508626215E407176355CC3004FB38FECF49BB2F099AED3AFC9F96B4FD6705C74949A5355935A98E14AEEB660A3B3F5B2DA6E7D39B91FFFE7A399A2F57F3D1C5727136BA3E7FBFF097E7ABABE5C54D8DA6F6D330A863994E5DF06C625A35AC9E2C06D094153925091CE61327C510F2251CE90774CF798605E4
310
CE66AF3BB13DF901AB1F4C9B53A21DC515277708FAC3544056078CCA58B6C79D9FA03329E19C7DE942CFC8BB873F6B95AE0389E7D2854E81243116DE0EBA4CAA9FA78943C6D5A9DF12037C104B5546348BEAE77A95C2A615FDEB2943B28095ABD5C280BAAD80E657AB41A179B33CC527095EB1E32009B7BB5242B16664390C
310
D4C2E86D0EEA37B251C2EEEDD68FE0BA2F8BE57B7A4E0B91415F0C5E3402437524114F75BB5B316659BA5A7D1A439BCD59FFE114B44C4197C3298D3806632E553D055604566169164882A92E7FDD7EE2397CE1C91C5D14393F3FBE3BFB65BBCCB32C6766687B0587B204BE13399B3BF8EA936CA176C0AAB72EB6D3893FDDEA
310
9EB66DB3473B24B0A78A2218A86A092548C7E4C02E9FF5A76CF772AC54D199BE5E393688422FC0D8D1B316AFF9C6E5800FA9AF29CA63B49F57D2BED8D61EEBA960131C1AD2E1BF504B03041400060800006E8AD142000000000000000000000000350000006662782F41393437333035342D453942302D343743442D384242
310
382D3436323639364341363837452F76657274696365732E62696E504B03041400060808006E8AD142F270F1330600000004000000360000006662782F41393437333035342D453942302D343743442D384242382D3436323639364341363837452F747269616E676C65732E62696E636660600000504B0304140006080000
310
6E8AD142000000000000000000000000370000006662782F41393437333035342D453942302D343743442D384242382D3436323639364341363837452F617474726962757465732E62696E504B03041400060808006E8AD142D5987DFC8F00000041010000360000006662782F41393437333035342D453942302D34374344
310
2D384242382D3436323639364341363837452F6469726563746F72792E786D6C858F410EC2201045AF4266AF15DDB800BA74E7C21B903225242D6328188F2FA5C4183471359997F9FF81E89FF3C41E1816475E02DF1F80A11FC8386F25A438EECEC07A250251FC3803E6F58C12560C4AD840E95E91C151A72936F496F35732
310
D860FE635F62C8F2DA16B505C545B74125BAA2FA9E05D7CC053D063734D5C7665FD55B6B8D15D5E9BFEAFD8490FFA45E504B03041400060808006E8AD142577AD435FF000000A00100003B0000006662782F41393437333035342D453942302D343743442D384242382D3436323639364341363837452F7265736F75726365
310
732F636F72652E786D6C8D504B6E833010BD0A9A6D65B0210949641CB5404FD00B586692580976E44FD5E3D70E546A77DDCC8CDE47F3F4F8E96BBE179FE8BCB6A603565228D0283B6973E9208633D9437112DC591B7EC9A03072C60E320C825F9C8D8F1552D6043421A1C64EB882D27B0C50A87B3A3AF0EA8AB32C650C49E1
310
6FE543AA9BBC60C9CA44279DE03EB814A0589EE409C2A1B7D129F4BC5A58C163D4D3AAD153FAA9CF1A1D88F69D0DB4D93132F623259B61BF2587B61D493F8CFDEBA6AFB76FACE755360B1EF4FC9351399401271035650DA13BC2DA0FD61ED9E158EF5FE8F6D8505E65F91F537C4CFF34456D4253AF71179B07C15290272178
310
95FB4AEB5966DAB95BF10D504B010214000A00000800006E8AD1423DEE336E79000000790000001B00000000000000000000000000000000006175746F6465736B2D64657369676E2D7061636B6167652E786D6C504B010214001400060808006E8AD142D486FD9CA0000000F40000001300000000000000000000000000B2
310
0000005B436F6E74656E745F54797065735D2E786D6C504B010214001400060808006E8AD1423F908904EC0000007C010000080000000000000000000000000083010000636F72652E786D6C504B010214001400060808006E8AD14255019EA25F0000007C000000070000000000000000000000000095020000636E782E78
310
6D6C504B010214001400060808006E8AD142C5833EF969010000020300000C00000000000000000000000000190300006662782F636F72652E786D6C504B010214001400060808006E8AD1420DEA66F17E0000009D0000000B00000000000000000000000000AC0400006662782F636E782E786D6C504B0102140014000608
310
08006E8AD1426E3809132C010000140200003100000000000000000000000000530500006662782F41393437333035342D453942302D343743442D384242382D3436323639364341363837452F636F72652E786D6C504B010214001400060808006E8AD14233EBBDAA57010000330300003000000000000000000000000000
310
CE0600006662782F41393437333035342D453942302D343743442D384242382D3436323639364341363837452F636E782E786D6C504B010214001400060808006E8AD1421F2580BE62070000991B00003400000000000000000000000000730800006662782F41393437333035342D453942302D343743442D384242382D34
310
36323639364341363837452F6F626A656374732E786D6C504B010214001400060800006E8AD1420000000000000000000000003500000000000000000000000000271000006662782F41393437333035342D453942302D343743442D384242382D3436323639364341363837452F76657274696365732E62696E504B010214
310
001400060808006E8AD142F270F133060000000400000036000000000000000000000000007A1000006662782F41393437333035342D453942302D343743442D384242382D3436323639364341363837452F747269616E676C65732E62696E504B010214001400060800006E8AD14200000000000000000000000037000000
310
00000000000000000000D41000006662782F41393437333035342D453942302D343743442D384242382D3436323639364341363837452F617474726962757465732E62696E504B010214001400060808006E8AD142D5987DFC8F000000410100003600000000000000000000000000291100006662782F4139343733303534
310
2D453942302D343743442D384242382D3436323639364341363837452F6469726563746F72792E786D6C504B010214001400060808006E8AD142577AD435FF000000A00100003B000000000000000000000000000C1200006662782F41393437333035342D453942302D343743442D384242382D3436323639364341363837
310
452F7265736F75726365732F636F72652E786D6C504B0506000000000E000E0080040000641300000000
  0
XRECORD
  5
27
102
{ACAD_REACTORS
330
22
102
}
330
22
100
AcDbXrecord
280
     1
270
     1
271
     1
  0
XRECORD
  5
26
102
{ACAD_REACTORS
330
22
102
}
330
22
100
AcDbXrecord
280
     1
270
     1
271
     1
  0
XRECORD
  5
28
102
{ACAD_REACTORS
330
22
102
}
330
22
100
AcDbXrecord
280
     1
270
     1
271
     1
  0
XRECORD
  5
25
102
{ACAD_REACTORS
330
22
102
}
330
22
100
AcDbXrecord
280
     1
270
     1
271
     1
  0
XRECORD
  5
E73
102
{ACAD_REACTORS
330
E72
102
}
330
E72
100
AcDbXrecord
280
     1
102
ACAD_ROUNDTRIP_2012_MLEADER_STYLE
298
     1
  0
CELLSTYLEMAP
  5
E71
102
{ACAD_REACTORS
330
E70
102
}
330
E70
100
AcDbCellStyleMap
 90
        3
300
CELLSTYLE
  1
TABLEFORMAT_BEGIN
 90
        5
170
     1
 91
        0
 92
    32768
 62
   257
 93
        1
300
CONTENTFORMAT
  1
CONTENTFORMAT_BEGIN
 90
        0
 91
        0
 92
      512
 93
        0
300

 40
0.0
140
1.0
 94
        5
 62
     0
340
55
144
0.25
309
CONTENTFORMAT_END
171
     0
 94
        0
309
TABLEFORMAT_END
  1
CELLSTYLE_BEGIN
 90
        1
 91
        1
300
_TITLE
309
CELLSTYLE_END
300
CELLSTYLE
  1
TABLEFORMAT_BEGIN
 90
        5
170
     1
 91
        0
 92
        0
 62
   257
 93
        1
300
CONTENTFORMAT
  1
CONTENTFORMAT_BEGIN
 90
        0
 91
        0
 92
      512
 93
        0
300

 40
0.0
140
1.0
 94
        5
 62
     0
340
55
144
0.18
309
CONTENTFORMAT_END
171
     0
 94
        0
309
TABLEFORMAT_END
  1
CELLSTYLE_BEGIN
 90
        2
 91
        1
300
_HEADER
309
CELLSTYLE_END
300
CELLSTYLE
  1
TABLEFORMAT_BEGIN
 90
        5
170
     1
 91
        0
 92
        0
 62
   257
 93
        1
300
CONTENTFORMAT
  1
CONTENTFORMAT_BEGIN
 90
        0
 91
        0
 92
      512
 93
        0
300

 40
0.0
140
1.0
 94
        2
 62
     0
340
55
144
0.18
309
CONTENTFORMAT_END
171
     0
 94
        0
309
TABLEFORMAT_END
  1
CELLSTYLE_BEGIN
 90
        3
 91
        2
300
_DATA
309
CELLSTYLE_END
  0
ENDSEC
  0
EOF
