  0
SECTION
  2
HEADER
  9
$ACADVER
  1
AC1024
  9
$ACADMAINTVER
 70
    63
  9
$DWGCODEPAGE
  3
ANSI_1252
  9
$AUTHOR
  1
PR
  9
$REVISIONNUMBER
  1
-
  9
$CUSTOMPROPERTYTAG
  1
Manager
  9
$CUSTOMPROPERTY
  1

  9
$CUSTOMPROPERTYTAG
  1
Company
  9
$CUSTOMPROPERTY
  1

  9
$CUSTOMPROPERTYTAG
  1
Category
  9
$CUSTOMPROPERTY
  1

  9
$CUSTOMPROPERTYTAG
  1
Part Number
  9
$CUSTOMPROPERTY
  1
HWDWA60P36F2
  9
$CUSTOMPROPERTYTAG
  1
Description
  9
$CUSTOMPROPERTY
  1
N1P PANEL MASTER VIEW
  9
$CUSTOMPROPERTYTAG
  1
Project
  9
$CUSTOMPROPERTY
  1

  9
$CUSTOMPROPERTYTAG
  1
Designer
  9
$CUSTOMPROPERTY
  1
PR
  9
$CUSTOMPROPERTYTAG
  1
Engineer
  9
$CUSTOMPROPERTY
  1

  9
$CUSTOMPROPERTYTAG
  1
Authority
  9
$CUSTOMPROPERTY
  1

  9
$CUSTOMPROPERTYTAG
  1
Cost Center
  9
$CUSTOMPROPERTY
  1

  9
$CUSTOMPROPERTYTAG
  1
Vendor
  9
$CUSTOMPROPERTY
  1

  9
$CUSTOMPROPERTYTAG
  1
User Status
  9
$CUSTOMPROPERTY
  1

  9
$CUSTOMPROPERTYTAG
  1
Design Status
  9
$CUSTOMPROPERTY
  1
WorkInProgress
  9
$CUSTOMPROPERTYTAG
  1
Checked by
  9
$CUSTOMPROPERTY
  1
NJ
  9
$CUSTOMPROPERTYTAG
  1
Engr Approved by
  9
$CUSTOMPROPERTY
  1

  9
$CUSTOMPROPERTYTAG
  1
Date Eng Approved
  9
$CUSTOMPROPERTY
  1
06/19/2013
  9
$CUSTOMPROPERTYTAG
  1
Mfg Approved by
  9
$CUSTOMPROPERTY
  1

  9
$CUSTOMPROPERTYTAG
  1
DWG. NO
  9
$CUSTOMPROPERTY
  1

  9
$CUSTOMPROPERTYTAG
  1
NUMBER OF SHEETS
  9
$CUSTOMPROPERTY
  1
1
  9
$CUSTOMPROPERTYTAG
  1
DRAWING #
  9
$CUSTOMPROPERTY
  1
1
  9
$INSBASE
 10
0.0
 20
0.0
 30
0.0
  9
$EXTMIN
 10
0.0
 20
0.0
 30
0.0
  9
$EXTMAX
 10
170.0
 20
110.0
 30
0.0
  9
$LIMMIN
 10
0.0
 20
0.0
  9
$LIMMAX
 10
170.0
 20
110.0
  9
$ORTHOMODE
 70
     0
  9
$REGENMODE
 70
     1
  9
$FILLMODE
 70
     1
  9
$QTEXTMODE
 70
     0
  9
$MIRRTEXT
 70
     0
  9
$LTSCALE
 40
10.0
  9
$ATTMODE
 70
     1
  9
$TEXTSIZE
 40
0.2
  9
$TRACEWID
 40
0.05
  9
$TEXTSTYLE
  7
Standard
  9
$CLAYER
  8
0
  9
$CELTYPE
  6
ByLayer
  9
$CECOLOR
 62
   256
  9
$CELTSCALE
 40
1.0
  9
$DISPSILH
 70
     0
  9
$DIMSCALE
 40
1.0
  9
$DIMASZ
 40
0.0708661417322835
  9
$DIMEXO
 40
0.0625
  9
$DIMDLI
 40
0.38
  9
$DIMRND
 40
0.0
  9
$DIMDLE
 40
0.0
  9
$DIMEXE
 40
0.18
  9
$DIMTP
 40
0.0
  9
$DIMTM
 40
0.0
  9
$DIMTXT
 40
0.0708661417322835
  9
$DIMCEN
 40
0.09
  9
$DIMTSZ
 40
0.0
  9
$DIMTOL
 70
     0
  9
$DIMLIM
 70
     0
  9
$DIMTIH
 70
     1
  9
$DIMTOH
 70
     1
  9
$DIMSE1
 70
     0
  9
$DIMSE2
 70
     0
  9
$DIMTAD
 70
     0
  9
$DIMZIN
 70
     0
  9
$DIMBLK
  1

  9
$DIMASO
 70
     1
  9
$DIMSHO
 70
     1
  9
$DIMPOST
  1

  9
$DIMAPOST
  1

  9
$DIMALT
 70
     0
  9
$DIMALTD
 70
     2
  9
$DIMALTF
 40
25.4
  9
$DIMLFAC
 40
1.0
  9
$DIMTOFL
 70
     0
  9
$DIMTVP
 40
0.0
  9
$DIMTIX
 70
     0
  9
$DIMSOXD
 70
     0
  9
$DIMSAH
 70
     0
  9
$DIMBLK1
  1

  9
$DIMBLK2
  1

  9
$DIMSTYLE
  2
STANDARD
  9
$DIMCLRD
 70
     0
  9
$DIMCLRE
 70
     0
  9
$DIMCLRT
 70
     0
  9
$DIMTFAC
 40
1.0
  9
$DIMGAP
 40
0.09
  9
$DIMJUST
 70
     0
  9
$DIMSD1
 70
     0
  9
$DIMSD2
 70
     0
  9
$DIMTOLJ
 70
     1
  9
$DIMTZIN
 70
     0
  9
$DIMALTZ
 70
     0
  9
$DIMALTTZ
 70
     0
  9
$DIMUPT
 70
     0
  9
$DIMDEC
 70
     4
  9
$DIMTDEC
 70
     4
  9
$DIMALTU
 70
     2
  9
$DIMALTTD
 70
     2
  9
$DIMTXSTY
  7
Standard
  9
$DIMAUNIT
 70
     0
  9
$DIMADEC
 70
     0
  9
$DIMALTRND
 40
0.0
  9
$DIMAZIN
 70
     0
  9
$DIMDSEP
 70
    46
  9
$DIMATFIT
 70
     3
  9
$DIMFRAC
 70
     0
  9
$DIMLDRBLK
  1

  9
$DIMLUNIT
 70
     2
  9
$DIMLWD
 70
    -2
  9
$DIMLWE
 70
    -2
  9
$DIMTMOVE
 70
     0
  9
$DIMFXL
 40
1.0
  9
$DIMFXLON
 70
     0
  9
$DIMJOGANG
 40
0.7853981633974483
  9
$DIMTFILL
 70
     0
  9
$DIMTFILLCLR
 70
     0
  9
$DIMARCSYM
 70
     0
  9
$DIMLTYPE
  6

  9
$DIMLTEX1
  6

  9
$DIMLTEX2
  6

  9
$DIMTXTDIRECTION
 70
     0
  9
$LUNITS
 70
     2
  9
$LUPREC
 70
     4
  9
$SKETCHINC
 40
0.1
  9
$FILLETRAD
 40
0.0
  9
$AUNITS
 70
     0
  9
$AUPREC
 70
     0
  9
$MENU
  1
.
  9
$ELEVATION
 40
0.0
  9
$PELEVATION
 40
0.0
  9
$THICKNESS
 40
0.0
  9
$LIMCHECK
 70
     0
  9
$CHAMFERA
 40
0.0
  9
$CHAMFERB
 40
0.0
  9
$CHAMFERC
 40
0.0
  9
$CHAMFERD
 40
0.0
  9
$SKPOLY
 70
     0
  9
$TDCREATE
 40
2456465.791543774
  9
$TDUCREATE
 40
2456465.562377107
  9
$TDUPDATE
 40
2456465.791543784
  9
$TDUUPDATE
 40
2456465.562377118
  9
$TDINDWG
 40
0.0000463542
  9
$TDUSRTIMER
 40
0.0000463542
  9
$USRTIMER
 70
     1
  9
$ANGBASE
 50
0.0
  9
$ANGDIR
 70
     0
  9
$PDMODE
 70
     0
  9
$PDSIZE
 40
0.0
  9
$PLINEWID
 40
0.0
  9
$SPLFRAME
 70
     0
  9
$SPLINETYPE
 70
     6
  9
$SPLINESEGS
 70
     8
  9
$HANDSEED
  5
D93
  9
$SURFTAB1
 70
     6
  9
$SURFTAB2
 70
     6
  9
$SURFTYPE
 70
     6
  9
$SURFU
 70
     6
  9
$SURFV
 70
     6
  9
$UCSBASE
  2

  9
$UCSNAME
  2

  9
$UCSORG
 10
0.0
 20
0.0
 30
0.0
  9
$UCSXDIR
 10
1.0
 20
0.0
 30
0.0
  9
$UCSYDIR
 10
0.0
 20
1.0
 30
0.0
  9
$UCSORTHOREF
  2

  9
$UCSORTHOVIEW
 70
     0
  9
$UCSORGTOP
 10
0.0
 20
0.0
 30
0.0
  9
$UCSORGBOTTOM
 10
0.0
 20
0.0
 30
0.0
  9
$UCSORGLEFT
 10
0.0
 20
0.0
 30
0.0
  9
$UCSORGRIGHT
 10
0.0
 20
0.0
 30
0.0
  9
$UCSORGFRONT
 10
0.0
 20
0.0
 30
0.0
  9
$UCSORGBACK
 10
0.0
 20
0.0
 30
0.0
  9
$PUCSBASE
  2

  9
$PUCSNAME
  2

  9
$PUCSORG
 10
0.0
 20
0.0
 30
0.0
  9
$PUCSXDIR
 10
1.0
 20
0.0
 30
0.0
  9
$PUCSYDIR
 10
0.0
 20
1.0
 30
0.0
  9
$PUCSORTHOREF
  2

  9
$PUCSORTHOVIEW
 70
     0
  9
$PUCSORGTOP
 10
0.0
 20
0.0
 30
0.0
  9
$PUCSORGBOTTOM
 10
0.0
 20
0.0
 30
0.0
  9
$PUCSORGLEFT
 10
0.0
 20
0.0
 30
0.0
  9
$PUCSORGRIGHT
 10
0.0
 20
0.0
 30
0.0
  9
$PUCSORGFRONT
 10
0.0
 20
0.0
 30
0.0
  9
$PUCSORGBACK
 10
0.0
 20
0.0
 30
0.0
  9
$USERI1
 70
     0
  9
$USERI2
 70
     0
  9
$USERI3
 70
     0
  9
$USERI4
 70
     0
  9
$USERI5
 70
     0
  9
$USERR1
 40
0.0
  9
$USERR2
 40
0.0
  9
$USERR3
 40
0.0
  9
$USERR4
 40
0.0
  9
$USERR5
 40
0.0
  9
$WORLDVIEW
 70
     1
  9
$SHADEDGE
 70
     3
  9
$SHADEDIF
 70
    70
  9
$TILEMODE
 70
     1
  9
$MAXACTVP
 70
    64
  9
$PINSBASE
 10
0.0
 20
0.0
 30
0.0
  9
$PLIMCHECK
 70
     0
  9
$PEXTMIN
 10
0.0
 20
0.0
 30
0.0
  9
$PEXTMAX
 10
170.0
 20
110.0
 30
0.0
  9
$PLIMMIN
 10
0.0
 20
0.0
  9
$PLIMMAX
 10
170.0
 20
110.0
  9
$UNITMODE
 70
     0
  9
$VISRETAIN
 70
     1
  9
$PLINEGEN
 70
     0
  9
$PSLTSCALE
 70
     1
  9
$TREEDEPTH
 70
  3020
  9
$CMLSTYLE
  2
Standard
  9
$CMLJUST
 70
     0
  9
$CMLSCALE
 40
1.0
  9
$PROXYGRAPHICS
 70
     1
  9
$MEASUREMENT
 70
     0
  9
$CELWEIGHT
370
    -1
  9
$ENDCAPS
280
     0
  9
$JOINSTYLE
280
     0
  9
$LWDISPLAY
290
     0
  9
$INSUNITS
 70
     1
  9
$HYPERLINKBASE
  1

  9
$STYLESHEET
  1

  9
$XEDIT
290
     1
  9
$CEPSNTYPE
380
     0
  9
$PSTYLEMODE
290
     1
  9
$FINGERPRINTGUID
  2
{9C2CADAD-24DB-470B-B42D-5AE20363E460}
  9
$VERSIONGUID
  2
{699446DC-24D6-415A-BB97-7B70A22D4A45}
  9
$EXTNAMES
290
     1
  9
$PSVPSCALE
 40
0.0
  9
$OLESTARTUP
290
     0
  9
$SORTENTS
280
   127
  9
$INDEXCTL
280
     0
  9
$HIDETEXT
280
     1
  9
$XCLIPFRAME
280
     2
  9
$HALOGAP
280
     0
  9
$OBSCOLOR
 70
   257
  9
$OBSLTYPE
280
     0
  9
$INTERSECTIONDISPLAY
280
     0
  9
$INTERSECTIONCOLOR
 70
   257
  9
$DIMASSOC
280
     1
  9
$PROJECTNAME
  1

  9
$CAMERADISPLAY
290
     0
  9
$LENSLENGTH
 40
50.0
  9
$CAMERAHEIGHT
 40
0.0
  9
$STEPSPERSEC
 40
2.0
  9
$STEPSIZE
 40
6.0
  9
$3DDWFPREC
 40
2.0
  9
$PSOLWIDTH
 40
0.25
  9
$PSOLHEIGHT
 40
4.0
  9
$LOFTANG1
 40
1.570796326794896
  9
$LOFTANG2
 40
1.570796326794896
  9
$LOFTMAG1
 40
0.0
  9
$LOFTMAG2
 40
0.0
  9
$LOFTPARAM
 70
     7
  9
$LOFTNORMALS
280
     1
  9
$LATITUDE
 40
37.795
  9
$LONGITUDE
 40
-122.394
  9
$NORTHDIRECTION
 40
0.0
  9
$TIMEZONE
 70
 -8000
  9
$LIGHTGLYPHDISPLAY
280
     1
  9
$TILEMODELIGHTSYNCH
280
     1
  9
$CMATERIAL
347
11
  9
$SOLIDHIST
280
     0
  9
$SHOWHIST
280
     1
  9
$DWFFRAME
280
     2
  9
$DGNFRAME
280
     0
  9
$REALWORLDSCALE
290
     1
  9
$INTERFERECOLOR
 62
     1
  9
$INTERFEREOBJVS
345
33
  9
$INTERFEREVPVS
346
30
  9
$CSHADOW
280
     0
  9
$SHADOWPLANELOCATION
 40
0.0
  0
ENDSEC
  0
SECTION
  2
CLASSES
  0
CLASS
  1
ACDBDICTIONARYWDFLT
  2
AcDbDictionaryWithDefault
  3
ObjectDBX Classes
 90
        0
 91
        1
280
     0
281
     0
  0
CLASS
  1
MATERIAL
  2
AcDbMaterial
  3
ObjectDBX Classes
 90
     1153
 91
        3
280
     0
281
     0
  0
CLASS
  1
VISUALSTYLE
  2
AcDbVisualStyle
  3
ObjectDBX Classes
 90
     4095
 91
       24
280
     0
281
     0
  0
CLASS
  1
SCALE
  2
AcDbScale
  3
ObjectDBX Classes
 90
     1153
 91
       17
280
     0
281
     0
  0
CLASS
  1
TABLESTYLE
  2
AcDbTableStyle
  3
ObjectDBX Classes
 90
     4095
 91
        1
280
     0
281
     0
  0
CLASS
  1
MLEADERSTYLE
  2
AcDbMLeaderStyle
  3
ACDB_MLEADERSTYLE_CLASS
 90
     4095
 91
        1
280
     0
281
     0
  0
CLASS
  1
DICTIONARYVAR
  2
AcDbDictionaryVar
  3
ObjectDBX Classes
 90
        0
 91
        3
280
     0
281
     0
  0
CLASS
  1
CELLSTYLEMAP
  2
AcDbCellStyleMap
  3
ObjectDBX Classes
 90
     1152
 91
        1
280
     0
281
     0
  0
ENDSEC
  0
SECTION
  2
TABLES
  0
TABLE
  2
VPORT
  5
8
330
0
100
AcDbSymbolTable
 70
     1
  0
VPORT
  5
57
330
8
100
AcDbSymbolTableRecord
100
AcDbViewportTableRecord
  2
*Active
 70
     0
 10
0.0
 20
0.0
 11
1.0
 21
1.0
 12
85.0
 22
55.0
 13
0.0
 23
0.0
 14
1.0
 24
1.0
 15
0.0
 25
0.0
 16
0.0
 26
0.0
 36
1.0
 17
0.0
 27
0.0
 37
0.0
 40
110.0
 41
1.545454545454545
 42
50.0
 43
0.0
 44
0.0
 50
0.0
 51
0.0
 71
     0
 72
   100
 73
     1
 74
     1
 75
     0
 76
     0
 77
     0
 78
     0
281
     0
 65
     1
110
0.0
120
0.0
130
0.0
111
1.0
121
0.0
131
0.0
112
0.0
122
1.0
132
0.0
 79
     0
146
0.0
 60
     3
 61
     5
292
     1
282
     1
141
0.0
142
0.0
 63
   250
421
  3355443
  0
ENDTAB
  0
TABLE
  2
LTYPE
  5
5
330
0
100
AcDbSymbolTable
 70
    59
  0
LTYPE
  5
5B
330
5
100
AcDbSymbolTableRecord
100
AcDbLinetypeTableRecord
  2
ByBlock
 70
     0
  3

 72
    65
 73
     0
 40
0.0
  0
LTYPE
  5
5C
330
5
100
AcDbSymbolTableRecord
100
AcDbLinetypeTableRecord
  2
ByLayer
 70
     0
  3

 72
    65
 73
     0
 40
0.0
  0
LTYPE
  5
5D
330
5
100
AcDbSymbolTableRecord
100
AcDbLinetypeTableRecord
  2
Continuous
 70
     0
  3
Solid line
 72
    65
 73
     0
 40
0.0
  0
LTYPE
  5
7C
330
5
100
AcDbSymbolTableRecord
100
AcDbLinetypeTableRecord
  2
BY_STANDARD
 70
     0
  3
By Standard ____________    ____    ____   _
 72
    65
 73
     6
 40
1.240299999999999
 49
0.6614
 74
     0
 49
-0.0827
 74
     0
 49
0.1654
 74
     0
 49
-0.0827
 74
     0
 49
0.1654
 74
     0
 49
-0.0827
 74
     0
  0
LTYPE
  5
7D
330
5
100
AcDbSymbolTableRecord
100
AcDbLinetypeTableRecord
  2
CHAIN
 70
     0
  3
Chain ____ _ ____ _ ____ _ ____ _ ____ _ ____
 72
    65
 73
     4
 40
0.7087
 49
0.4724000000000001
 74
     0
 49
-0.0591
 74
     0
 49
0.1181
 74
     0
 49
-0.0591
 74
     0
  0
LTYPE
  5
7E
330
5
100
AcDbSymbolTableRecord
100
AcDbLinetypeTableRecord
  2
DASH_DOT
 70
     0
  3
Dash dot __ . __ . __ . __ . __ . __ . __ . __
 72
    65
 73
     4
 40
0.37
 49
0.24
 74
     0
 49
-0.06
 74
     0
 49
0.01
 74
     0
 49
-0.06
 74
     0
  0
LTYPE
  5
7F
330
5
100
AcDbSymbolTableRecord
100
AcDbLinetypeTableRecord
  2
DOUBLE_DASH_DOT
 70
     0
  3
Double-Dash Dot __ __ . __ __ . __ __ . __ _
 72
    65
 73
     6
 40
0.4398
 49
0.24
 74
     0
 49
-0.06
 74
     0
 49
0.0098
 74
     0
 49
-0.06
 74
     0
 49
0.01
 74
     0
 49
-0.06
 74
     0
  0
LTYPE
  5
80
330
5
100
AcDbSymbolTableRecord
100
AcDbLinetypeTableRecord
  2
DASH_TRIPLE_DOT
 70
     0
  3
Dash Triple-Dot _ . . . _ . . . _ . . . _
 72
    65
 73
     8
 40
0.51
 49
0.24
 74
     0
 49
-0.06
 74
     0
 49
0.01
 74
     0
 49
-0.06
 74
     0
 49
0.01
 74
     0
 49
-0.06
 74
     0
 49
0.01
 74
     0
 49
-0.06
 74
     0
  0
LTYPE
  5
81
330
5
100
AcDbSymbolTableRecord
100
AcDbLinetypeTableRecord
  2
DASHED
 70
     0
  3
Dashed __ __ __ __ __ __ __ __ __ __ __ __ __ _
 72
    65
 73
     2
 40
0.2067
 49
0.1654
 74
     0
 49
-0.0413
 74
     0
  0
LTYPE
  5
82
330
5
100
AcDbSymbolTableRecord
100
AcDbLinetypeTableRecord
  2
DASH_DOUBLE_DOT
 70
     0
  3
Dash Double-Dot __ . . __ . . __ . . __ . .
 72
    65
 73
     6
 40
0.4398
 49
0.24
 74
     0
 49
-0.06
 74
     0
 49
0.0098
 74
     0
 49
-0.06
 74
     0
 49
0.01
 74
     0
 49
-0.06
 74
     0
  0
LTYPE
  5
83
330
5
100
AcDbSymbolTableRecord
100
AcDbLinetypeTableRecord
  2
DASHED_SPACE
 70
     0
  3
Dashed Space __ __ __ __ __ __ __ __ __ __ __ _
 72
    65
 73
     2
 40
0.2067
 49
0.1654
 74
     0
 49
-0.0413
 74
     0
  0
LTYPE
  5
84
330
5
100
AcDbSymbolTableRecord
100
AcDbLinetypeTableRecord
  2
DOTTED
 70
     0
  3
Dotted . . . . . . . . . . . . . . . . . . . . 
 72
    65
 73
     2
 40
0.0482
 49
0.0069
 74
     0
 49
-0.0413
 74
     0
  0
LTYPE
  5
85
330
5
100
AcDbSymbolTableRecord
100
AcDbLinetypeTableRecord
  2
DOUBLE_DASH_CHAIN
 70
     0
  3
Double-Dash Chain ______  __  __  ______  __  _
 72
    65
 73
     6
 40
1.240299999999999
 49
0.6614
 74
     0
 49
-0.0827
 74
     0
 49
0.1654
 74
     0
 49
-0.0827
 74
     0
 49
0.1654
 74
     0
 49
-0.0827
 74
     0
  0
LTYPE
  5
87
330
5
100
AcDbSymbolTableRecord
100
AcDbLinetypeTableRecord
  2
DOUBLE_DASH_DOUBLE_DOT
 70
     0
  3
Double-Dash Double-dot _ _ . . _ _ . . _
 72
    65
 73
     8
 40
0.7400000000000001
 49
0.24
 74
     0
 49
-0.06
 74
     0
 49
0.24
 74
     0
 49
-0.06
 74
     0
 49
0.01
 74
     0
 49
-0.06
 74
     0
 49
0.01
 74
     0
 49
-0.06
 74
     0
  0
LTYPE
  5
88
330
5
100
AcDbSymbolTableRecord
100
AcDbLinetypeTableRecord
  2
DOUBLE_DASH_TRIPLE_DOT
 70
     0
  3
Double Dash Triple Dot __ __ . . . __ __ . .
 72
    65
 73
    10
 40
0.8100000000000001
 49
0.24
 74
     0
 49
-0.06
 74
     0
 49
0.24
 74
     0
 49
-0.06
 74
     0
 49
0.01
 74
     0
 49
-0.06
 74
     0
 49
0.01
 74
     0
 49
-0.06
 74
     0
 49
0.01
 74
     0
 49
-0.06
 74
     0
  0
LTYPE
  5
89
330
5
100
AcDbSymbolTableRecord
100
AcDbLinetypeTableRecord
  2
LONG_DASH_DOTTED
 70
     0
  3
Long Dash Dotted ____ . ____ . ____ . ____ . _
 72
    65
 73
     4
 40
0.3543
 49
0.2362
 74
     0
 49
-0.0295
 74
     0
 49
0.0591
 74
     0
 49
-0.0295
 74
     0
  0
LTYPE
  5
8A
330
5
100
AcDbSymbolTableRecord
100
AcDbLinetypeTableRecord
  2
LONG_DASH_DOUBLE_DOT
 70
     0
  3
Long Dash Double Dot ________  .  .  ________  
 72
    65
 73
     6
 40
0.6799999999999999
 49
0.48
 74
     0
 49
-0.06
 74
     0
 49
0.01
 74
     0
 49
-0.06
 74
     0
 49
0.01
 74
     0
 49
-0.06
 74
     0
  0
LTYPE
  5
8B
330
5
100
AcDbSymbolTableRecord
100
AcDbLinetypeTableRecord
  2
LONG_DASH_TRIPLE_DOT
 70
     0
  3
Long Dash Triple Dot ____ ... ____ ... ____
 72
    65
 73
     8
 40
0.3689
 49
0.2362
 74
     0
 49
-0.0295
 74
     0
 49
0.0049
 74
     0
 49
-0.0295
 74
     0
 49
0.0049
 74
     0
 49
-0.0295
 74
     0
 49
0.0049
 74
     0
 49
-0.0295
 74
     0
  0
LTYPE
  5
8C
330
5
100
AcDbSymbolTableRecord
100
AcDbLinetypeTableRecord
  2
BORDER
 70
     0
  3
Border __ __ . __ __ . __ __ . __ __ . __ __ .
 72
    65
 73
     6
 40
1.75
 49
0.5
 74
     0
 49
-0.25
 74
     0
 49
0.5
 74
     0
 49
-0.25
 74
     0
 49
0.0
 74
     0
 49
-0.25
 74
     0
  0
LTYPE
  5
8D
330
5
100
AcDbSymbolTableRecord
100
AcDbLinetypeTableRecord
  2
BORDER2
 70
     0
  3
Border (.5x) __.__.__.__.__.__.__.__.__.__.__.
 72
    65
 73
     6
 40
0.875
 49
0.25
 74
     0
 49
-0.125
 74
     0
 49
0.25
 74
     0
 49
-0.125
 74
     0
 49
0.0
 74
     0
 49
-0.125
 74
     0
  0
LTYPE
  5
8E
330
5
100
AcDbSymbolTableRecord
100
AcDbLinetypeTableRecord
  2
BORDERX2
 70
     0
  3
Border (2x) ____  ____  .  ____  ____  .  ___
 72
    65
 73
     6
 40
3.5
 49
1.0
 74
     0
 49
-0.5
 74
     0
 49
1.0
 74
     0
 49
-0.5
 74
     0
 49
0.0
 74
     0
 49
-0.5
 74
     0
  0
LTYPE
  5
8F
330
5
100
AcDbSymbolTableRecord
100
AcDbLinetypeTableRecord
  2
CENTER
 70
     0
  3
Center ____ _ ____ _ ____ _ ____ _ ____ _ ____
 72
    65
 73
     4
 40
2.0
 49
1.25
 74
     0
 49
-0.25
 74
     0
 49
0.25
 74
     0
 49
-0.25
 74
     0
  0
LTYPE
  5
90
330
5
100
AcDbSymbolTableRecord
100
AcDbLinetypeTableRecord
  2
CENTER2
 70
     0
  3
Center (.5x) ___ _ ___ _ ___ _ ___ _ ___ _ ___
 72
    65
 73
     4
 40
1.125
 49
0.75
 74
     0
 49
-0.125
 74
     0
 49
0.125
 74
     0
 49
-0.125
 74
     0
  0
LTYPE
  5
91
330
5
100
AcDbSymbolTableRecord
100
AcDbLinetypeTableRecord
  2
CENTERX2
 70
     0
  3
Center (2x) ________  __  ________  __  _____
 72
    65
 73
     4
 40
4.0
 49
2.5
 74
     0
 49
-0.5
 74
     0
 49
0.5
 74
     0
 49
-0.5
 74
     0
  0
LTYPE
  5
92
330
5
100
AcDbSymbolTableRecord
100
AcDbLinetypeTableRecord
  2
DASHDOT2
 70
     0
  3
Dash dot (.5x) _._._._._._._._._._._._._._._.
 72
    65
 73
     4
 40
0.5
 49
0.25
 74
     0
 49
-0.125
 74
     0
 49
0.0
 74
     0
 49
-0.125
 74
     0
  0
LTYPE
  5
93
330
5
100
AcDbSymbolTableRecord
100
AcDbLinetypeTableRecord
  2
DASHDOTX2
 70
     0
  3
Dash dot (2x) ____  .  ____  .  ____  .  ___
 72
    65
 73
     4
 40
2.0
 49
1.0
 74
     0
 49
-0.5
 74
     0
 49
0.0
 74
     0
 49
-0.5
 74
     0
  0
LTYPE
  5
95
330
5
100
AcDbSymbolTableRecord
100
AcDbLinetypeTableRecord
  2
DASHED2
 70
     0
  3
Dashed (.5x) _ _ _ _ _ _ _ _ _ _ _ _ _ _ _ _ _
 72
    65
 73
     2
 40
0.375
 49
0.25
 74
     0
 49
-0.125
 74
     0
  0
LTYPE
  5
96
330
5
100
AcDbSymbolTableRecord
100
AcDbLinetypeTableRecord
  2
DASHEDX2
 70
     0
  3
Dashed (2x) ____  ____  ____  ____  ____  ___
 72
    65
 73
     2
 40
1.5
 49
1.0
 74
     0
 49
-0.5
 74
     0
  0
LTYPE
  5
97
330
5
100
AcDbSymbolTableRecord
100
AcDbLinetypeTableRecord
  2
DIVIDE
 70
     0
  3
Divide ____ . . ____ . . ____ . . ____ . . ____
 72
    65
 73
     6
 40
1.25
 49
0.5
 74
     0
 49
-0.25
 74
     0
 49
0.0
 74
     0
 49
-0.25
 74
     0
 49
0.0
 74
     0
 49
-0.25
 74
     0
  0
LTYPE
  5
98
330
5
100
AcDbSymbolTableRecord
100
AcDbLinetypeTableRecord
  2
DIVIDE2
 70
     0
  3
Divide (.5x) __..__..__..__..__..__..__..__.._
 72
    65
 73
     6
 40
0.625
 49
0.25
 74
     0
 49
-0.125
 74
     0
 49
0.0
 74
     0
 49
-0.125
 74
     0
 49
0.0
 74
     0
 49
-0.125
 74
     0
  0
LTYPE
  5
99
330
5
100
AcDbSymbolTableRecord
100
AcDbLinetypeTableRecord
  2
DIVIDEX2
 70
     0
  3
Divide (2x) ________  .  .  ________  .  .  _
 72
    65
 73
     6
 40
2.5
 49
1.0
 74
     0
 49
-0.5
 74
     0
 49
0.0
 74
     0
 49
-0.5
 74
     0
 49
0.0
 74
     0
 49
-0.5
 74
     0
  0
LTYPE
  5
9A
330
5
100
AcDbSymbolTableRecord
100
AcDbLinetypeTableRecord
  2
DOT
 70
     0
  3
Dot . . . . . . . . . . . . . . . . . . . . . .
 72
    65
 73
     2
 40
0.25
 49
0.0
 74
     0
 49
-0.25
 74
     0
  0
LTYPE
  5
9B
330
5
100
AcDbSymbolTableRecord
100
AcDbLinetypeTableRecord
  2
DOT2
 70
     0
  3
Dot (.5x) .....................................
 72
    65
 73
     2
 40
0.125
 49
0.0
 74
     0
 49
-0.125
 74
     0
  0
LTYPE
  5
9C
330
5
100
AcDbSymbolTableRecord
100
AcDbLinetypeTableRecord
  2
DOTX2
 70
     0
  3
Dot (2x) .  .  .  .  .  .  .  .  .  .  .  .  . 
 72
    65
 73
     2
 40
0.5
 49
0.0
 74
     0
 49
-0.5
 74
     0
  0
LTYPE
  5
9D
330
5
100
AcDbSymbolTableRecord
100
AcDbLinetypeTableRecord
  2
HIDDEN
 70
     0
  3
Hidden __ __ __ __ __ __ __ __ __ __ __ __ __ _
 72
    65
 73
     2
 40
0.375
 49
0.25
 74
     0
 49
-0.125
 74
     0
  0
LTYPE
  5
9E
330
5
100
AcDbSymbolTableRecord
100
AcDbLinetypeTableRecord
  2
HIDDEN2
 70
     0
  3
Hidden (.5x) _ _ _ _ _ _ _ _ _ _ _ _ _ _ _ _ _
 72
    65
 73
     2
 40
0.1875
 49
0.125
 74
     0
 49
-0.0625
 74
     0
  0
LTYPE
  5
9F
330
5
100
AcDbSymbolTableRecord
100
AcDbLinetypeTableRecord
  2
HIDDENX2
 70
     0
  3
Hidden (2x) ____ ____ ____ ____ ____ ____ ____
 72
    65
 73
     2
 40
0.75
 49
0.5
 74
     0
 49
-0.25
 74
     0
  0
LTYPE
  5
A0
330
5
100
AcDbSymbolTableRecord
100
AcDbLinetypeTableRecord
  2
PHANTOM
 70
     0
  3
Phantom ______  __  __  ______  __  __  ______
 72
    65
 73
     6
 40
2.5
 49
1.25
 74
     0
 49
-0.25
 74
     0
 49
0.25
 74
     0
 49
-0.25
 74
     0
 49
0.25
 74
     0
 49
-0.25
 74
     0
  0
LTYPE
  5
A1
330
5
100
AcDbSymbolTableRecord
100
AcDbLinetypeTableRecord
  2
PHANTOM2
 70
     0
  3
Phantom (.5x) ___ _ _ ___ _ _ ___ _ _ ___ _ _
 72
    65
 73
     6
 40
1.25
 49
0.625
 74
     0
 49
-0.125
 74
     0
 49
0.125
 74
     0
 49
-0.125
 74
     0
 49
0.125
 74
     0
 49
-0.125
 74
     0
  0
LTYPE
  5
A2
330
5
100
AcDbSymbolTableRecord
100
AcDbLinetypeTableRecord
  2
PHANTOMX2
 70
     0
  3
Phantom (2x) ____________    ____    ____   _
 72
    65
 73
     6
 40
5.0
 49
2.5
 74
     0
 49
-0.5
 74
     0
 49
0.5
 74
     0
 49
-0.5
 74
     0
 49
0.5
 74
     0
 49
-0.5
 74
     0
  0
LTYPE
  5
A3
330
5
100
AcDbSymbolTableRecord
100
AcDbLinetypeTableRecord
  2
ACAD_ISO02W100
 70
     0
  3
ISO dash __ __ __ __ __ __ __ __ __ __ __ __ __
 72
    65
 73
     2
 40
0.59
 49
0.47
 74
     0
 49
-0.12
 74
     0
  0
LTYPE
  5
A4
330
5
100
AcDbSymbolTableRecord
100
AcDbLinetypeTableRecord
  2
ACAD_ISO03W100
 70
     0
  3
ISO dash space __    __    __    __    __    __
 72
    65
 73
     2
 40
1.179999999999999
 49
0.47
 74
     0
 49
-0.71
 74
     0
  0
LTYPE
  5
A5
330
5
100
AcDbSymbolTableRecord
100
AcDbLinetypeTableRecord
  2
ACAD_ISO04W100
 70
     0
  3
ISO long-dash dot ____ . ____ . ____ . ____ . _
 72
    65
 73
     4
 40
1.179999999999999
 49
0.9399999999999998
 74
     0
 49
-0.12
 74
     0
 49
0.0
 74
     0
 49
-0.12
 74
     0
  0
LTYPE
  5
A6
330
5
100
AcDbSymbolTableRecord
100
AcDbLinetypeTableRecord
  2
ACAD_ISO05W100
 70
     0
  3
ISO long-dash double-dot ____ .. ____ .. ____ .
 72
    65
 73
     6
 40
1.299999999999999
 49
0.9399999999999998
 74
     0
 49
-0.12
 74
     0
 49
0.0
 74
     0
 49
-0.12
 74
     0
 49
0.0
 74
     0
 49
-0.12
 74
     0
  0
LTYPE
  5
A7
330
5
100
AcDbSymbolTableRecord
100
AcDbLinetypeTableRecord
  2
ACAD_ISO06W100
 70
     0
  3
ISO long-dash triple-dot ____ ... ____ ... ____
 72
    65
 73
     8
 40
1.419999999999999
 49
0.9399999999999998
 74
     0
 49
-0.12
 74
     0
 49
0.0
 74
     0
 49
-0.12
 74
     0
 49
0.0
 74
     0
 49
-0.12
 74
     0
 49
0.0
 74
     0
 49
-0.12
 74
     0
  0
LTYPE
  5
A8
330
5
100
AcDbSymbolTableRecord
100
AcDbLinetypeTableRecord
  2
ACAD_ISO07W100
 70
     0
  3
ISO dot . . . . . . . . . . . . . . . . . . . .
 72
    65
 73
     2
 40
0.12
 49
0.0
 74
     0
 49
-0.12
 74
     0
  0
LTYPE
  5
A9
330
5
100
AcDbSymbolTableRecord
100
AcDbLinetypeTableRecord
  2
ACAD_ISO08W100
 70
     0
  3
ISO long-dash short-dash ____ __ ____ __ ____ _
 72
    65
 73
     4
 40
0.95
 49
0.47
 74
     0
 49
-0.12
 74
     0
 49
0.24
 74
     0
 49
-0.12
 74
     0
  0
LTYPE
  5
AA
330
5
100
AcDbSymbolTableRecord
100
AcDbLinetypeTableRecord
  2
ACAD_ISO09W100
 70
     0
  3
ISO long-dash double-short-dash ____ __ __ ____
 72
    65
 73
     6
 40
1.31
 49
0.47
 74
     0
 49
-0.12
 74
     0
 49
0.24
 74
     0
 49
-0.12
 74
     0
 49
0.24
 74
     0
 49
-0.12
 74
     0
  0
LTYPE
  5
AB
330
5
100
AcDbSymbolTableRecord
100
AcDbLinetypeTableRecord
  2
ACAD_ISO10W100
 70
     0
  3
ISO dash dot __ . __ . __ . __ . __ . __ . __ .
 72
    65
 73
     4
 40
0.71
 49
0.47
 74
     0
 49
-0.12
 74
     0
 49
0.0
 74
     0
 49
-0.12
 74
     0
  0
LTYPE
  5
AC
330
5
100
AcDbSymbolTableRecord
100
AcDbLinetypeTableRecord
  2
ACAD_ISO11W100
 70
     0
  3
ISO double-dash dot __ __ . __ __ . __ __ . __ 
 72
    65
 73
     6
 40
1.299999999999999
 49
0.47
 74
     0
 49
-0.12
 74
     0
 49
0.47
 74
     0
 49
-0.12
 74
     0
 49
0.0
 74
     0
 49
-0.12
 74
     0
  0
LTYPE
  5
AD
330
5
100
AcDbSymbolTableRecord
100
AcDbLinetypeTableRecord
  2
ACAD_ISO12W100
 70
     0
  3
ISO dash double-dot __ . . __ . . __ . . __ . .
 72
    65
 73
     6
 40
0.8299999999999998
 49
0.47
 74
     0
 49
-0.12
 74
     0
 49
0.0
 74
     0
 49
-0.12
 74
     0
 49
0.0
 74
     0
 49
-0.12
 74
     0
  0
LTYPE
  5
AE
330
5
100
AcDbSymbolTableRecord
100
AcDbLinetypeTableRecord
  2
ACAD_ISO13W100
 70
     0
  3
ISO double-dash double-dot __ __ . . __ __ . . 
 72
    65
 73
     8
 40
1.419999999999999
 49
0.47
 74
     0
 49
-0.12
 74
     0
 49
0.47
 74
     0
 49
-0.12
 74
     0
 49
0.0
 74
     0
 49
-0.12
 74
     0
 49
0.0
 74
     0
 49
-0.12
 74
     0
  0
LTYPE
  5
AF
330
5
100
AcDbSymbolTableRecord
100
AcDbLinetypeTableRecord
  2
ACAD_ISO14W100
 70
     0
  3
ISO dash triple-dot __ . . . __ . . . __ . . . 
 72
    65
 73
     8
 40
0.95
 49
0.47
 74
     0
 49
-0.12
 74
     0
 49
0.0
 74
     0
 49
-0.12
 74
     0
 49
0.0
 74
     0
 49
-0.12
 74
     0
 49
0.0
 74
     0
 49
-0.12
 74
     0
  0
LTYPE
  5
B0
330
5
100
AcDbSymbolTableRecord
100
AcDbLinetypeTableRecord
  2
ACAD_ISO15W100
 70
     0
  3
ISO double-dash triple-dot __ __ . . . __ __ . 
 72
    65
 73
    10
 40
1.539999999999999
 49
0.47
 74
     0
 49
-0.12
 74
     0
 49
0.47
 74
     0
 49
-0.12
 74
     0
 49
0.0
 74
     0
 49
-0.12
 74
     0
 49
0.0
 74
     0
 49
-0.12
 74
     0
 49
0.0
 74
     0
 49
-0.12
 74
     0
  0
LTYPE
  5
B3
330
5
100
AcDbSymbolTableRecord
100
AcDbLinetypeTableRecord
  2
FENCELINE1
 70
     0
  3
Fenceline circle ----0-----0----0-----0----0---
 72
    65
 73
     4
 40
1.45
 49
0.25
 74
     0
 49
-0.1
 74
     4
 75
   133
340
B2
 46
0.1
 50
0.0
 44
-0.1
 45
0.0
 49
-0.1
 74
     0
 49
1.0
 74
     0
  0
LTYPE
  5
B4
330
5
100
AcDbSymbolTableRecord
100
AcDbLinetypeTableRecord
  2
FENCELINE2
 70
     0
  3
Fenceline square ----[]-----[]----[]-----[]----
 72
    65
 73
     4
 40
1.45
 49
0.25
 74
     0
 49
-0.1
 74
     4
 75
   132
340
B2
 46
0.1
 50
0.0
 44
-0.1
 45
0.0
 49
-0.1
 74
     0
 49
1.0
 74
     0
  0
LTYPE
  5
B5
330
5
100
AcDbSymbolTableRecord
100
AcDbLinetypeTableRecord
  2
TRACKS
 70
     0
  3
Tracks -|-|-|-|-|-|-|-|-|-|-|-|-|-|-|-|-|-|-|-|
 72
    65
 73
     2
 40
0.3
 49
0.15
 74
     4
 75
   130
340
B2
 46
0.25
 50
0.0
 44
0.0
 45
0.0
 49
0.15
 74
     0
  0
LTYPE
  5
B6
330
5
100
AcDbSymbolTableRecord
100
AcDbLinetypeTableRecord
  2
BATTING
 70
     0
  3
Batting SSSSSSSSSSSSSSSSSSSSSSSSSSSSSSSSSSSSSSS
 72
    65
 73
     4
 40
0.4001000000000001
 49
0.0001
 74
     0
 49
-0.1
 74
     4
 75
   134
340
B2
 46
0.1
 50
0.0
 44
-0.1
 45
0.0
 49
-0.2
 74
     4
 75
   134
340
B2
 46
0.1
 50
180.0
 44
0.1
 45
0.0
 49
-0.1
 74
     0
  0
LTYPE
  5
B7
330
5
100
AcDbSymbolTableRecord
100
AcDbLinetypeTableRecord
  2
HOT_WATER_SUPPLY
 70
     0
  3
Hot water supply ---- HW ---- HW ---- HW ----
 72
    65
 73
     3
 40
0.9
 49
0.5
 74
     0
 49
-0.2
 74
     2
 75
     0
340
55
 46
0.1
 50
0.0
 44
-0.1
 45
-0.05
  9
HW
 49
-0.2
 74
     0
  0
LTYPE
  5
B8
330
5
100
AcDbSymbolTableRecord
100
AcDbLinetypeTableRecord
  2
GAS_LINE
 70
     0
  3
Gas line ----GAS----GAS----GAS----GAS----GAS---
 72
    65
 73
     3
 40
0.95
 49
0.5
 74
     0
 49
-0.2
 74
     2
 75
     0
340
55
 46
0.1
 50
0.0
 44
-0.1
 45
-0.05
  9
GAS
 49
-0.25
 74
     0
  0
LTYPE
  5
B9
330
5
100
AcDbSymbolTableRecord
100
AcDbLinetypeTableRecord
  2
ZIGZAG
 70
     0
  3
Zig zag /\/\/\/\/\/\/\/\/\/\/\/\/\/\/\/\/\/\/\/
 72
    65
 73
     4
 40
0.8001000000000001
 49
0.0001
 74
     0
 49
-0.2
 74
     4
 75
   131
340
B2
 46
0.2
 50
0.0
 44
-0.2
 45
0.0
 49
-0.4
 74
     4
 75
   131
340
B2
 46
0.2
 50
180.0
 44
0.2
 45
0.0
 49
-0.2
 74
     0
  0
ENDTAB
  0
TABLE
  2
LAYER
  5
2
330
0
100
AcDbSymbolTable
 70
    27
  0
LAYER
  5
54
330
2
100
AcDbSymbolTableRecord
100
AcDbLayerTableRecord
  2
0
 70
     0
 62
     7
  6
Continuous
370
    18
390
F
347
21
  0
LAYER
  5
C0
330
2
100
AcDbSymbolTableRecord
100
AcDbLayerTableRecord
  2
Center Mark (ANSI)
 70
     0
 62
     7
  6
Continuous
370
    15
390
F
347
21
  0
LAYER
  5
C1
330
2
100
AcDbSymbolTableRecord
100
AcDbLayerTableRecord
  2
Centerline (ANSI)
 70
     0
 62
     7
  6
Continuous
370
    15
390
F
347
21
  0
LAYER
  5
C3
330
2
100
AcDbSymbolTableRecord
100
AcDbLayerTableRecord
  2
Dimension (ANSI)
 70
     0
 62
     7
  6
Continuous
370
    13
390
F
347
21
  0
LAYER
  5
C5
330
2
100
AcDbSymbolTableRecord
100
AcDbLayerTableRecord
  2
Hidden (ANSI)
 70
     0
 62
     7
  6
DASHED
370
    15
390
F
347
21
  0
LAYER
  5
CC
330
2
100
AcDbSymbolTableRecord
100
AcDbLayerTableRecord
  2
Symbol (ANSI)
 70
     0
 62
     7
  6
Continuous
370
    18
390
F
347
21
  0
LAYER
  5
CF
330
2
100
AcDbSymbolTableRecord
100
AcDbLayerTableRecord
  2
Visible (ANSI)
 70
     0
 62
     7
  6
Continuous
370
    13
390
F
347
21
  0
LAYER
  5
D0
330
2
100
AcDbSymbolTableRecord
100
AcDbLayerTableRecord
  2
Visible Narrow (ANSI)
 70
     0
 62
     7
  6
Continuous
370
    18
390
F
347
21
  0
LAYER
  5
545
330
2
100
AcDbSymbolTableRecord
100
AcDbLayerTableRecord
  2
Defpoints
 70
     0
 62
     7
  6
Continuous
290
     0
370
    -3
390
F
347
21
  0
ENDTAB
  0
TABLE
  2
STYLE
  5
3
330
0
100
AcDbSymbolTable
 70
    18
  0
STYLE
  5
55
330
3
100
AcDbSymbolTableRecord
100
AcDbTextStyleTableRecord
  2
Standard
 70
     0
 40
0.0
 41
1.0
 50
0.0
 71
     0
 42
0.2
  3
txt
  4

  0
STYLE
  5
5A
330
3
100
AcDbSymbolTableRecord
100
AcDbTextStyleTableRecord
  2
Annotative
 70
     0
 40
0.0
 41
1.0
 50
0.0
 71
     0
 42
0.2
  3
txt
  4

1001
AcadAnnotative
1000
AnnotativeData
1002
{
1070
     1
1070
     1
1002
}
  0
STYLE
  5
B2
330
3
100
AcDbSymbolTableRecord
100
AcDbTextStyleTableRecord
  2

 70
     1
 40
0.0
 41
1.0
 50
0.0
 71
     0
 42
0.2
  3
ltypeshp.shx
  4

  0
STYLE
  5
D4
330
3
100
AcDbSymbolTableRecord
100
AcDbTextStyleTableRecord
  2
ITALICC_120
 70
     0
 40
0.0
 41
1.0
 50
0.0
 71
     0
 42
0.2
  3
italicc.shx
  4

  0
STYLE
  5
D5
330
3
100
AcDbSymbolTableRecord
100
AcDbTextStyleTableRecord
  2
Label Text (ANSI)
 70
     0
 40
0.0
 41
1.0
 50
0.0
 71
     0
 42
0.2
  3
tahoma.ttf
  4

1001
ACAD
1000
Tahoma
1071
      256
  0
STYLE
  5
D6
330
3
100
AcDbSymbolTableRecord
100
AcDbTextStyleTableRecord
  2
Note Text (ANSI)
 70
     0
 40
0.0
 41
1.0
 50
0.0
 71
     0
 42
0.2
  3
tahoma.ttf
  4

1001
ACAD
1000
Tahoma
1071
      256
  0
STYLE
  5
D7
330
3
100
AcDbSymbolTableRecord
100
AcDbTextStyleTableRecord
  2
ROMANS
 70
     0
 40
0.0
 41
1.0
 50
0.0
 71
     0
 42
0.2
  3
romans.shx
  4

  0
STYLE
  5
D8
330
3
100
AcDbSymbolTableRecord
100
AcDbTextStyleTableRecord
  2
SANSSERIF_114
 70
     0
 40
0.0
 41
1.0
 50
0.0
 71
     0
 42
0.2
  3
tahoma.ttf
  4

1001
ACAD
1000
Tahoma
1071
      256
  0
STYLE
  5
D9
330
3
100
AcDbSymbolTableRecord
100
AcDbTextStyleTableRecord
  2
SANSSERIF_117
 70
     0
 40
0.0
 41
1.0
 50
0.0
 71
     0
 42
0.2
  3
tahoma.ttf
  4

1001
ACAD
1000
Tahoma
1071
      256
  0
STYLE
  5
DA
330
3
100
AcDbSymbolTableRecord
100
AcDbTextStyleTableRecord
  2
STANDARDAM_ANSI
 70
     0
 40
0.0
 41
1.0
 50
0.0
 71
     0
 42
0.2
  3
txt.shx
  4

  0
STYLE
  5
DB
330
3
100
AcDbSymbolTableRecord
100
AcDbTextStyleTableRecord
  2
StandardAM_ANSI$0
 70
     0
 40
0.0
 41
1.0
 50
0.0
 71
     0
 42
0.2
  3
txt.shx
  4

  0
STYLE
  5
DC
330
3
100
AcDbSymbolTableRecord
100
AcDbTextStyleTableRecord
  2
STANDARDAM_ANSI$3
 70
     0
 40
0.0
 41
1.0
 50
0.0
 71
     0
 42
0.2
  3
txt.shx
  4

  0
STYLE
  5
DD
330
3
100
AcDbSymbolTableRecord
100
AcDbTextStyleTableRecord
  2
STANDARDAM_ANSI$4
 70
     0
 40
0.0
 41
1.0
 50
0.0
 71
     0
 42
0.2
  3
txt.shx
  4

  0
STYLE
  5
DE
330
3
100
AcDbSymbolTableRecord
100
AcDbTextStyleTableRecord
  2
STANDARDAM_ANSI$7
 70
     0
 40
0.0
 41
1.0
 50
0.0
 71
     0
 42
0.2
  3
txt.shx
  4

  0
STYLE
  5
DF
330
3
100
AcDbSymbolTableRecord
100
AcDbTextStyleTableRecord
  2
STANDARDAM_ANSI$SF
 70
     0
 40
0.0
 41
1.0
 50
0.0
 71
     0
 42
0.2
  3
txt.shx
  4

  0
STYLE
  5
E0
330
3
100
AcDbSymbolTableRecord
100
AcDbTextStyleTableRecord
  2
STANDARDAM_ANSI$SH
 70
     0
 40
0.0
 41
1.0
 50
0.0
 71
     0
 42
0.2
  3
txt.shx
  4

  0
STYLE
  5
E1
330
3
100
AcDbSymbolTableRecord
100
AcDbTextStyleTableRecord
  2
STANDARDSTANDARD
 70
     0
 40
0.0
 41
1.0
 50
0.0
 71
     0
 42
0.2
  3
txt.shx
  4

  0
STYLE
  5
2DF
330
3
100
AcDbSymbolTableRecord
100
AcDbTextStyleTableRecord
  2
Text Style153
 70
     0
 40
0.0
 41
1.0
 50
0.0
 71
     0
 42
0.2
  3
tahoma.ttf
  4

1001
ACAD
1000
Tahoma
1071
      256
  0
ENDTAB
  0
TABLE
  2
VIEW
  5
6
330
0
100
AcDbSymbolTable
 70
     0
  0
ENDTAB
  0
TABLE
  2
UCS
  5
7
330
0
100
AcDbSymbolTable
 70
     0
  0
ENDTAB
  0
TABLE
  2
APPID
  5
9
330
0
100
AcDbSymbolTable
 70
     3
  0
APPID
  5
56
330
9
100
AcDbSymbolTableRecord
100
AcDbRegAppTableRecord
  2
ACAD
 70
     0
  0
APPID
  5
5E
330
9
100
AcDbSymbolTableRecord
100
AcDbRegAppTableRecord
  2
AcadAnnotative
 70
     0
  0
APPID
  5
B70
330
9
100
AcDbSymbolTableRecord
100
AcDbRegAppTableRecord
  2
ACAD_DSTYLE_DIMRADIAL_EXTENSION
 70
     0
  0
ENDTAB
  0
TABLE
  2
DIMSTYLE
  5
A
330
0
100
AcDbSymbolTable
 70
    27
100
AcDbDimStyleTable
 71
     2
340
F6
340
58
  0
DIMSTYLE
105
58
330
A
100
AcDbSymbolTableRecord
100
AcDbDimStyleTableRecord
  2
STANDARD
 70
     0
 41
0.1800000071525573
 42
0.0625
140
0.1800000071525574
144
1.0
147
0.0900000035762787
176
   256
177
   256
178
   256
274
     3
340
55
371
    -1
372
    -1
  0
DIMSTYLE
105
59
330
A
100
AcDbSymbolTableRecord
100
AcDbDimStyleTableRecord
  2
Annotative
 70
     0
340
55
1001
AcadAnnotative
1000
AnnotativeData
1002
{
1070
     1
1070
     1
1002
}
  0
DIMSTYLE
105
E2
330
A
100
AcDbSymbolTableRecord
100
AcDbDimStyleTableRecord
  2
AM_ANSI
 70
     0
  4
 mm
 40
10.0
 41
0.119999997317791
 42
0.05
 43
0.5
 44
0.1
 45
0.00000001
 78
     4
 79
     2
140
0.1200000047683716
146
0.7099999189376831
147
0.0599999986588955
176
   256
177
   256
178
     2
284
     4
340
DA
371
    -1
372
    -1
  0
DIMSTYLE
105
E3
330
A
100
AcDbSymbolTableRecord
100
AcDbDimStyleTableRecord
  2
AM_ANSI$7
 70
     0
  4
 mm
 40
10.0
 41
0.119999997317791
 42
0.05
 43
0.5
 44
0.1
 45
0.00000001
 78
     4
 79
     2
140
0.1200000047683716
146
0.7099999189376831
147
0.0599999986588955
176
   256
177
   256
178
     2
284
     4
340
DA
371
    -1
372
    -1
  0
DIMSTYLE
105
E4
330
A
100
AcDbSymbolTableRecord
100
AcDbDimStyleTableRecord
  2
AM_ANSI$0
 70
     0
  4
 mm
 40
10.0
 41
0.119999997317791
 42
0.05
 43
0.5
 44
0.1
 45
0.00000001
 78
     4
 79
     2
140
0.1200000047683716
146
0.7099999189376831
147
0.0599999986588955
176
   256
177
   256
178
     2
284
     4
340
DB
371
    -1
372
    -1
  0
DIMSTYLE
105
E5
330
A
100
AcDbSymbolTableRecord
100
AcDbDimStyleTableRecord
  2
AM_ANSI$0$7
 70
     0
  4
 mm
 40
10.0
 41
0.119999997317791
 42
0.05
 43
0.5
 44
0.1
 45
0.00000001
 78
     4
 79
     2
140
0.1200000047683716
146
0.7099999189376831
147
0.0599999986588955
176
   256
177
   256
178
     2
284
     4
340
DB
371
    -1
372
    -1
  0
DIMSTYLE
105
E6
330
A
100
AcDbSymbolTableRecord
100
AcDbDimStyleTableRecord
  2
AM_ANSI$3
 70
     0
  4
 mm
 40
10.0
 41
0.119999997317791
 42
0.05
 43
0.5
 44
0.1
 45
0.00000001
 78
     4
 79
     2
140
0.1200000047683716
146
0.7099999189376831
147
0.0599999986588955
176
   256
177
   256
178
     2
284
     4
340
DC
371
    -1
372
    -1
  0
DIMSTYLE
105
E7
330
A
100
AcDbSymbolTableRecord
100
AcDbDimStyleTableRecord
  2
AM_ANSI$3$7
 70
     0
  4
 mm
 40
10.0
 41
0.119999997317791
 42
0.05
 43
0.5
 44
0.1
 45
0.00000001
 78
     4
 79
     2
140
0.1200000047683716
146
0.7099999189376831
147
0.0599999986588955
176
   256
177
   256
178
     2
284
     4
340
DC
371
    -1
372
    -1
  0
DIMSTYLE
105
E8
330
A
100
AcDbSymbolTableRecord
100
AcDbDimStyleTableRecord
  2
AM_ANSI$4
 70
     0
  4
 mm
 40
10.0
 41
0.119999997317791
 42
0.05
 43
0.5
 44
0.1
 45
0.00000001
 78
     4
 79
     2
140
0.1200000047683716
146
0.7099999189376831
147
0.0599999986588955
176
   256
177
   256
178
     2
284
     4
340
DD
371
    -1
372
    -1
  0
DIMSTYLE
105
E9
330
A
100
AcDbSymbolTableRecord
100
AcDbDimStyleTableRecord
  2
AM_ANSI$4$7
 70
     0
  4
 mm
 40
10.0
 41
0.119999997317791
 42
0.05
 43
0.5
 44
0.1
 45
0.00000001
 78
     4
 79
     2
140
0.1200000047683716
146
0.7099999189376831
147
0.0599999986588955
176
   256
177
   256
178
     2
284
     4
340
DD
371
    -1
372
    -1
  0
DIMSTYLE
105
EA
330
A
100
AcDbSymbolTableRecord
100
AcDbDimStyleTableRecord
  2
AM_ANSI$SF
 70
     0
  4
 mm
 40
10.0
 41
0.119999997317791
 42
0.05
 43
0.5
 44
0.1
 45
0.00000001
 75
     1
 76
     1
 78
     4
 79
     2
140
0.1200000047683716
146
0.7099999189376831
147
0.0599999986588955
176
   256
177
   256
178
     2
284
     4
340
DF
371
    -1
372
    -1
  0
DIMSTYLE
105
EB
330
A
100
AcDbSymbolTableRecord
100
AcDbDimStyleTableRecord
  2
AM_ANSI$SF$7
 70
     0
  4
 mm
 40
10.0
 41
0.119999997317791
 42
0.05
 43
0.5
 44
0.1
 45
0.00000001
 75
     1
 76
     1
 78
     4
 79
     2
140
0.1200000047683716
146
0.7099999189376831
147
0.0599999986588955
176
   256
177
   256
178
     2
284
     4
340
DF
371
    -1
372
    -1
  0
DIMSTYLE
105
EC
330
A
100
AcDbSymbolTableRecord
100
AcDbDimStyleTableRecord
  2
AM_ANSI$SH
 70
     0
  4
 mm
 40
10.0
 41
0.119999997317791
 42
0.05
 43
0.5
 44
0.1
 45
0.00000001
 75
     1
 76
     1
 78
     4
 79
     2
140
0.1200000047683716
146
0.7099999189376831
147
0.0599999986588955
176
   256
177
   256
178
     2
284
     4
340
E0
371
    -1
372
    -1
  0
DIMSTYLE
105
ED
330
A
100
AcDbSymbolTableRecord
100
AcDbDimStyleTableRecord
  2
AM_ANSI$SH$7
 70
     0
  4
 mm
 40
10.0
 41
0.119999997317791
 42
0.05
 43
0.5
 44
0.1
 45
0.00000001
 75
     1
 76
     1
 78
     4
 79
     2
140
0.1200000047683716
146
0.7099999189376831
147
0.0599999986588955
176
   256
177
   256
178
     2
284
     4
340
E0
371
    -1
372
    -1
  0
DIMSTYLE
105
EE
330
A
100
AcDbSymbolTableRecord
100
AcDbDimStyleTableRecord
  2
Architectural (ANSI)
 70
     0
 40
10.0
 41
0.0984251946210861
 43
0.2362204724409449
 44
0.125
 45
0.00000001
 46
0.3937007874015748
 78
     3
 79
     3
140
0.1200000047683716
147
0.031496062992126
171
     1
176
   256
177
   256
178
   256
272
     2
274
     1
276
     2
277
     4
284
    12
285
     4
286
    12
340
D6
371
    -1
372
    -1
  0
DIMSTYLE
105
EF
330
A
100
AcDbSymbolTableRecord
100
AcDbDimStyleTableRecord
  2
Architectural (ANSI)$7
 70
     0
 40
10.0
 41
0.0984251946210861
 43
0.2362204724409449
 44
0.125
 45
0.00000001
 46
0.3937007874015748
 78
     3
 79
     3
140
0.1200000047683716
147
0.031496062992126
171
     1
176
   256
177
   256
178
   256
272
     2
274
     1
276
     2
277
     4
284
    12
285
     4
286
    12
340
D6
371
    -1
372
    -1
  0
DIMSTYLE
105
F0
330
A
100
AcDbSymbolTableRecord
100
AcDbDimStyleTableRecord
  2
Default - Fraction (ANSI)
 70
     0
 40
10.0
 41
0.0984251946210861
 43
0.2362204724409449
 44
0.125
 45
0.00000001
 46
0.3937007874015748
 79
     3
140
0.1200000047683716
147
0.031496062992126
171
     1
176
   256
177
   256
178
   256
272
     2
274
     1
276
     2
277
     5
284
    12
285
     4
286
    12
340
D6
371
    -1
372
    -1
  0
DIMSTYLE
105
F1
330
A
100
AcDbSymbolTableRecord
100
AcDbDimStyleTableRecord
  2
Default - Fraction (ANSI)$7
 70
     0
 40
10.0
 41
0.0984251946210861
 43
0.2362204724409449
 44
0.125
 45
0.00000001
 46
0.3937007874015748
 79
     3
140
0.1200000047683716
147
0.031496062992126
171
     1
176
   256
177
   256
178
   256
272
     2
274
     1
276
     2
277
     5
284
    12
285
     4
286
    12
340
D6
371
    -1
372
    -1
  0
DIMSTYLE
105
F2
330
A
100
AcDbSymbolTableRecord
100
AcDbDimStyleTableRecord
  2
Default - mm (ANSI)
 70
     0
 40
10.0
 41
0.0984251946210861
 42
0.063
 43
0.2362204724409449
 44
0.125
 45
0.00000001
 46
0.3937007874015748
 73
     0
 78
     4
 79
     1
140
0.1200000047683716
143
1.0
144
25.4
147
0.031496062992126
171
     1
176
   256
177
   256
178
   256
179
     1
271
     2
272
     2
274
     1
284
     4
285
     4
340
D6
371
    -1
372
    -1
  0
DIMSTYLE
105
F3
330
A
100
AcDbSymbolTableRecord
100
AcDbDimStyleTableRecord
  2
Default - mm (ANSI)$7
 70
     0
 40
10.0
 41
0.0984251946210861
 42
0.063
 43
0.2362204724409449
 44
0.125
 45
0.00000001
 46
0.3937007874015748
 73
     0
 78
     4
 79
     1
140
0.1200000047683716
143
1.0
144
25.4
147
0.031496062992126
171
     1
176
   256
177
   256
178
   256
179
     1
271
     2
272
     2
274
     1
284
     4
285
     4
340
D6
371
    -1
372
    -1
  0
DIMSTYLE
105
F4
330
A
100
AcDbSymbolTableRecord
100
AcDbDimStyleTableRecord
  2
Default - mm [in] (ANSI)
 70
     0
  4
 in
 40
10.0
 41
0.0984251946210861
 42
0.063
 43
0.25
 44
0.125
 45
0.00000001
 46
0.3937007874015748
 73
     0
 78
     4
 79
     1
140
0.1200000047683716
143
0.03937
144
25.4
147
0.031496062992126
170
     1
171
     3
176
   256
177
   256
178
   256
179
     1
271
     2
272
     2
274
     3
284
     4
285
     4
286
     4
340
D6
371
    -1
372
    -1
  0
DIMSTYLE
105
F5
330
A
100
AcDbSymbolTableRecord
100
AcDbDimStyleTableRecord
  2
Default - mm [in] (ANSI)$7
 70
     0
  4
 in
 40
10.0
 41
0.0984251946210861
 42
0.063
 43
0.25
 44
0.125
 45
0.00000001
 46
0.3937007874015748
 73
     0
 78
     4
 79
     1
140
0.1200000047683716
143
0.03937
144
25.4
147
0.031496062992126
170
     1
171
     3
176
   256
177
   256
178
   256
179
     1
271
     2
272
     2
274
     3
284
     4
285
     4
286
     4
340
D6
371
    -1
372
    -1
  0
DIMSTYLE
105
F6
102
{ACAD_REACTORS
330
543
330
62F
330
719
330
803
330
903
330
9ED
330
AD7
330
B91
330
C9A
102
}
330
A
100
AcDbSymbolTableRecord
100
AcDbDimStyleTableRecord
  2
Default (ANSI)
 70
     0
 40
10.0
 41
0.0984251946210861
 43
0.2362204724409449
 44
0.125
 45
0.00000001
 46
0.3937007874015748
 79
     1
140
0.1200000047683716
147
0.031496062992126
171
     1
176
   256
177
   256
178
   256
271
     2
272
     2
274
     1
284
     4
285
     4
340
D6
371
    -1
372
    -1
  0
DIMSTYLE
105
F7
330
A
100
AcDbSymbolTableRecord
100
AcDbDimStyleTableRecord
  2
Default (ANSI)$7
 70
     0
 40
10.0
 41
0.0984251946210861
 43
0.2362204724409449
 44
0.125
 45
0.00000001
 46
0.3937007874015748
 79
     1
140
0.1200000047683716
147
0.031496062992126
171
     1
176
   256
177
   256
178
   256
271
     2
272
     2
274
     1
284
     4
285
     4
340
D6
371
    -1
372
    -1
  0
DIMSTYLE
105
F8
330
A
100
AcDbSymbolTableRecord
100
AcDbDimStyleTableRecord
  2
Alternate (ANSI)
 70
     0
 40
10.0
 41
0.0979999974370003
340
55
342
F9
  0
DIMSTYLE
105
10B
330
A
100
AcDbSymbolTableRecord
100
AcDbDimStyleTableRecord
  2
Datum (ANSI)
 70
     0
 40
10.0
 41
0.0979999974370003
340
55
342
F9
  0
DIMSTYLE
105
11A
330
A
100
AcDbSymbolTableRecord
100
AcDbDimStyleTableRecord
  2
Large (ANSI)
 70
     0
 40
10.0
 41
0.1959999948740005
340
55
342
F9
  0
ENDTAB
  0
TABLE
  2
BLOCK_RECORD
  5
1
330
0
100
AcDbSymbolTable
 70
    13
  0
BLOCK_RECORD
  5
6C
330
1
100
AcDbSymbolTableRecord
100
AcDbBlockTableRecord
  2
*Model_Space
340
6F
 70
     0
280
     1
281
     0
  0
BLOCK_RECORD
  5
68
330
1
100
AcDbSymbolTableRecord
100
AcDbBlockTableRecord
  2
*Paper_Space
340
6B
 70
     0
280
     1
281
     0
  0
BLOCK_RECORD
  5
70
330
1
100
AcDbSymbolTableRecord
100
AcDbBlockTableRecord
  2
*Paper_Space0
340
73
 70
     0
280
     1
281
     0
  0
BLOCK_RECORD
  5
F9
330
1
100
AcDbSymbolTableRecord
100
AcDbBlockTableRecord
  2
_Closed
340
0
 70
     0
280
     1
281
     0
  0
BLOCK_RECORD
  5
100
330
1
100
AcDbSymbolTableRecord
100
AcDbBlockTableRecord
  2
DatumFilled45
340
0
 70
     0
280
     1
281
     0
  0
BLOCK_RECORD
  5
10C
330
1
100
AcDbSymbolTableRecord
100
AcDbBlockTableRecord
  2
Filled-1
340
0
 70
     0
280
     1
281
     0
  0
BLOCK_RECORD
  5
546
330
1
100
AcDbSymbolTableRecord
100
AcDbBlockTableRecord
  2
*D4
340
0
 70
     0
280
     1
281
     0
  0
BLOCK_RECORD
  5
630
330
1
100
AcDbSymbolTableRecord
100
AcDbBlockTableRecord
  2
*D5
340
0
 70
     0
280
     1
281
     0
  0
BLOCK_RECORD
  5
71A
330
1
100
AcDbSymbolTableRecord
100
AcDbBlockTableRecord
  2
*D6
340
0
 70
     0
280
     1
281
     0
  0
BLOCK_RECORD
  5
804
330
1
100
AcDbSymbolTableRecord
100
AcDbBlockTableRecord
  2
*D7
340
0
 70
     0
280
     1
281
     0
  0
BLOCK_RECORD
  5
904
330
1
100
AcDbSymbolTableRecord
100
AcDbBlockTableRecord
  2
*D8
340
0
 70
     0
280
     1
281
     0
  0
BLOCK_RECORD
  5
9EE
330
1
100
AcDbSymbolTableRecord
100
AcDbBlockTableRecord
  2
*D9
340
0
 70
     0
280
     1
281
     0
  0
BLOCK_RECORD
  5
AD8
330
1
100
AcDbSymbolTableRecord
100
AcDbBlockTableRecord
  2
*D10
340
0
 70
     0
280
     1
281
     0
  0
BLOCK_RECORD
  5
B92
330
1
100
AcDbSymbolTableRecord
100
AcDbBlockTableRecord
  2
*D11
340
0
 70
     0
280
     1
281
     0
  0
BLOCK_RECORD
  5
C9B
330
1
100
AcDbSymbolTableRecord
100
AcDbBlockTableRecord
  2
*D12
340
0
 70
     0
280
     1
281
     0
  0
ENDTAB
  0
ENDSEC
  0
SECTION
  2
BLOCKS
  0
BLOCK
  5
6D
330
6C
100
AcDbEntity
  8
0
100
AcDbBlockBegin
  2
*Model_Space
 70
     0
 10
0.0
 20
0.0
 30
0.0
  3
*Model_Space
  1

  0
ENDBLK
  5
6E
330
6C
100
AcDbEntity
  8
0
100
AcDbBlockEnd
  0
BLOCK
  5
69
330
68
100
AcDbEntity
 67
     1
  8
0
100
AcDbBlockBegin
  2
*Paper_Space
 70
     0
 10
0.0
 20
0.0
 30
0.0
  3
*Paper_Space
  1

  0
ENDBLK
  5
6A
330
68
100
AcDbEntity
 67
     1
  8
0
100
AcDbBlockEnd
  0
BLOCK
  5
71
330
70
100
AcDbEntity
 67
     1
  8
0
100
AcDbBlockBegin
  2
*Paper_Space0
 70
     0
 10
0.0
 20
0.0
 30
0.0
  3
*Paper_Space0
  1

  0
ENDBLK
  5
72
330
70
100
AcDbEntity
 67
     1
  8
0
100
AcDbBlockEnd
  0
BLOCK
  5
FE
330
F9
100
AcDbEntity
  8
0
100
AcDbBlockBegin
  2
_Closed
 70
     0
 10
0.0
 20
0.0
 30
0.0
  3
_Closed
  1

  0
LINE
  5
FA
330
F9
100
AcDbEntity
  8
0
  6
ByBlock
 62
     0
370
    -2
100
AcDbLine
 10
-1.0
 20
0.1666666666666666
 30
0.0
 11
0.0
 21
0.0
 31
0.0
  0
LINE
  5
FB
330
F9
100
AcDbEntity
  8
0
  6
ByBlock
 62
     0
370
    -2
100
AcDbLine
 10
0.0
 20
0.0
 30
0.0
 11
-1.0
 21
-0.1666666666666666
 31
0.0
  0
LINE
  5
FC
330
F9
100
AcDbEntity
  8
0
  6
ByBlock
 62
     0
370
    -2
100
AcDbLine
 10
-1.0
 20
0.1666666666666666
 30
0.0
 11
-1.0
 21
-0.1666666666666666
 31
0.0
  0
LINE
  5
FD
330
F9
100
AcDbEntity
  8
0
  6
ByBlock
 62
     0
370
    -2
100
AcDbLine
 10
0.0
 20
0.0
 30
0.0
 11
-1.0
 21
0.0
 31
0.0
  0
ENDBLK
  5
FF
330
F9
100
AcDbEntity
  8
0
100
AcDbBlockEnd
  0
BLOCK
  5
101
330
100
100
AcDbEntity
  8
0
100
AcDbBlockBegin
  2
DatumFilled45
 70
     0
 10
0.0
 20
0.0
 30
0.0
  3
DatumFilled45
  1

  0
POLYLINE
  5
103
330
100
100
AcDbEntity
  8
0
 62
     0
100
AcDb2dPolyline
 66
     1
 10
0.0
 20
0.0
 30
0.0
 70
   128
  0
VERTEX
  5
104
330
103
100
AcDbEntity
  8
0
 62
     0
100
AcDbVertex
100
AcDb2dVertex
 10
0.0
 20
0.9999999999999998
 30
0.0
  0
VERTEX
  5
105
330
103
100
AcDbEntity
  8
0
 62
     0
100
AcDbVertex
100
AcDb2dVertex
 10
0.0
 20
-0.9999999999999998
 30
0.0
  0
VERTEX
  5
107
330
103
100
AcDbEntity
  8
0
 62
     0
100
AcDbVertex
100
AcDb2dVertex
 10
-0.9999999999999998
 20
0.0
 30
0.0
  0
VERTEX
  5
108
330
103
100
AcDbEntity
  8
0
 62
     0
100
AcDbVertex
100
AcDb2dVertex
 10
0.0
 20
0.9999999999999998
 30
0.0
  0
SEQEND
  5
106
330
103
100
AcDbEntity
  8
0
 62
     0
  0
SOLID
  5
10A
330
100
100
AcDbEntity
  8
0
 62
     0
100
AcDbTrace
 10
0.0
 20
0.9999999999999998
 30
0.0
 11
0.0
 21
-0.9999999999999998
 31
0.0
 12
-0.9999999999999998
 22
0.0
 32
0.0
 13
0.0
 23
0.9999999999999998
 33
0.0
  0
ENDBLK
  5
102
330
100
100
AcDbEntity
  8
0
100
AcDbBlockEnd
  0
BLOCK
  5
10D
330
10C
100
AcDbEntity
  8
0
100
AcDbBlockBegin
  2
Filled-1
 70
     0
 10
0.0
 20
0.0
 30
0.0
  3
Filled-1
  1

  0
LINE
  5
10F
330
10C
100
AcDbEntity
  8
0
 62
     0
100
AcDbLine
 10
-0.9999999999999998
 20
0.0
 30
0.0
 11
0.0
 21
0.0
 31
0.0
  0
POLYLINE
  5
110
330
10C
100
AcDbEntity
  8
0
 62
     0
100
AcDb2dPolyline
 66
     1
 10
0.0
 20
0.0
 30
0.0
 70
   128
  0
VERTEX
  5
111
330
110
100
AcDbEntity
  8
0
 62
     0
100
AcDbVertex
100
AcDb2dVertex
 10
-0.9999999999999998
 20
-0.0994897959183674
 30
0.0
  0
VERTEX
  5
112
330
110
100
AcDbEntity
  8
0
 62
     0
100
AcDbVertex
100
AcDb2dVertex
 10
0.0
 20
0.0
 30
0.0
  0
VERTEX
  5
114
330
110
100
AcDbEntity
  8
0
 62
     0
100
AcDbVertex
100
AcDb2dVertex
 10
-0.9999999999999998
 20
0.0994897959183674
 30
0.0
  0
VERTEX
  5
115
330
110
100
AcDbEntity
  8
0
 62
     0
100
AcDbVertex
100
AcDb2dVertex
 10
-0.9999999999999998
 20
-0.0994897959183674
 30
0.0
  0
SEQEND
  5
113
330
110
100
AcDbEntity
  8
0
 62
     0
  0
SOLID
  5
116
330
10C
100
AcDbEntity
  8
0
 62
     0
100
AcDbTrace
 10
-0.9999999999999998
 20
-0.0994897959183674
 30
0.0
 11
0.0
 21
0.0
 31
0.0
 12
-0.9999999999999998
 22
0.0994897959183674
 32
0.0
 13
-0.9999999999999998
 23
-0.0994897959183674
 33
0.0
  0
LINE
  5
117
330
10C
100
AcDbEntity
  8
0
 62
     0
100
AcDbLine
 10
-0.9999999999999998
 20
-0.0994897959183674
 30
0.0
 11
0.0
 21
0.0
 31
0.0
  0
LINE
  5
118
330
10C
100
AcDbEntity
  8
0
 62
     0
100
AcDbLine
 10
0.0
 20
0.0
 30
0.0
 11
-0.9999999999999998
 21
0.0994897959183674
 31
0.0
  0
LINE
  5
119
330
10C
100
AcDbEntity
  8
0
 62
     0
100
AcDbLine
 10
-0.9999999999999998
 20
0.0994897959183674
 30
0.0
 11
-0.9999999999999998
 21
-0.0994897959183674
 31
0.0
  0
ENDBLK
  5
10E
330
10C
100
AcDbEntity
  8
0
100
AcDbBlockEnd
  0
BLOCK
  5
547
330
546
100
AcDbEntity
  8
0
100
AcDbBlockBegin
  2
*D4
 70
     1
 10
0.0
 20
0.0
 30
0.0
  3
*D4
  1

  0
LINE
  5
625
330
546
100
AcDbEntity
  8
Dimension (ANSI)
440
 16777216
100
AcDbLine
 10
26.13226030152917
 20
64.31900823378609
 30
0.0
 11
26.13226030152917
 21
73.60542555662076
 31
0.0
  0
LINE
  5
626
330
546
100
AcDbEntity
  8
Dimension (ANSI)
440
 16777216
100
AcDbLine
 10
58.13226030152918
 20
64.31900823378609
 30
0.0
 11
58.13226030152918
 21
73.60542555662076
 31
0.0
  0
LINE
  5
627
330
546
100
AcDbEntity
  8
Dimension (ANSI)
440
 16777216
100
AcDbLine
 10
27.11651224774004
 20
72.35542555662076
 30
0.0
 11
39.83798462925117
 21
72.35542555662076
 31
0.0
  0
LINE
  5
628
330
546
100
AcDbEntity
  8
Dimension (ANSI)
440
 16777216
100
AcDbLine
 10
57.14800835531832
 20
72.35542555662076
 30
0.0
 11
44.42653597380718
 21
72.35542555662076
 31
0.0
  0
SOLID
  5
629
330
546
100
AcDbEntity
  8
Dimension (ANSI)
440
 16777216
100
AcDbTrace
 10
27.11651224774004
 20
72.5194675476559
 30
0.0
 11
27.11651224774004
 21
72.19138356558561
 31
0.0
 12
26.13226030152917
 22
72.35542555662076
 32
0.0
 13
26.13226030152917
 23
72.35542555662076
 33
0.0
  0
SOLID
  5
62A
330
546
100
AcDbEntity
  8
Dimension (ANSI)
440
 16777216
100
AcDbTrace
 10
57.14800835531832
 20
72.5194675476559
 30
0.0
 11
57.14800835531832
 21
72.19138356558561
 31
0.0
 12
58.13226030152918
 22
72.35542555662076
 32
0.0
 13
58.13226030152918
 23
72.35542555662076
 33
0.0
  0
MTEXT
  5
62B
330
546
100
AcDbEntity
  8
Dimension (ANSI)
440
 16777216
100
AcDbMText
 10
40.15294525917243
 20
72.98040878762551
 30
0.0
 40
1.200000047683715
 41
0.0
 46
0.0
 71
     1
 72
     1
  1
\A1;32.00
  7
Note Text (ANSI)
 73
     1
 44
1.0
  0
POINT
  5
62C
330
546
100
AcDbEntity
  8
Defpoints
 62
     0
440
 16777216
100
AcDbPoint
 10
26.13226030152917
 20
63.6940082337861
 30
0.0
  0
POINT
  5
62D
330
546
100
AcDbEntity
  8
Defpoints
 62
     0
440
 16777216
100
AcDbPoint
 10
58.13226030152918
 20
63.6940082337861
 30
0.0
  0
POINT
  5
62E
330
546
100
AcDbEntity
  8
Defpoints
 62
     0
440
 16777216
100
AcDbPoint
 10
58.13226030152918
 20
72.35542555662076
 30
0.0
  0
ENDBLK
  5
548
330
546
100
AcDbEntity
  8
0
100
AcDbBlockEnd
  0
BLOCK
  5
631
330
630
100
AcDbEntity
  8
0
100
AcDbBlockBegin
  2
*D5
 70
     1
 10
0.0
 20
0.0
 30
0.0
  3
*D5
  1

  0
LINE
  5
70F
330
630
100
AcDbEntity
  8
Dimension (ANSI)
440
 16777216
100
AcDbLine
 10
26.13226030152917
 20
64.31900823378609
 30
0.0
 11
26.13226030152917
 21
69.6975573685381
 31
0.0
  0
LINE
  5
710
330
630
100
AcDbEntity
  8
Dimension (ANSI)
440
 16777216
100
AcDbLine
 10
27.00726030152918
 20
65.13554949452232
 30
0.0
 11
27.00726030152918
 21
69.6975573685381
 31
0.0
  0
LINE
  5
711
330
630
100
AcDbEntity
  8
Dimension (ANSI)
440
 16777216
100
AcDbLine
 10
27.99151224774004
 20
68.4475573685381
 30
0.0
 11
28.9757641939509
 21
68.4475573685381
 31
0.0
  0
LINE
  5
712
330
630
100
AcDbEntity
  8
Dimension (ANSI)
440
 16777216
100
AcDbLine
 10
25.14800835531831
 20
68.4475573685381
 30
0.0
 11
23.6551940124178
 21
68.4475573685381
 31
0.0
  0
SOLID
  5
713
330
630
100
AcDbEntity
  8
Dimension (ANSI)
440
 16777216
100
AcDbTrace
 10
27.99151224774004
 20
68.61159935957324
 30
0.0
 11
27.99151224774004
 21
68.28351537750295
 31
0.0
 12
27.00726030152918
 22
68.4475573685381
 32
0.0
 13
27.00726030152918
 23
68.4475573685381
 33
0.0
  0
SOLID
  5
714
330
630
100
AcDbEntity
  8
Dimension (ANSI)
440
 16777216
100
AcDbTrace
 10
25.14800835531831
 20
68.61159935957324
 30
0.0
 11
25.14800835531831
 21
68.28351537750295
 31
0.0
 12
26.13226030152917
 22
68.4475573685381
 32
0.0
 13
26.13226030152917
 23
68.4475573685381
 33
0.0
  0
MTEXT
  5
715
330
630
100
AcDbEntity
  8
Dimension (ANSI)
440
 16777216
100
AcDbMText
 10
20.26407478450154
 20
69.07495832964345
 30
0.0
 40
1.200000047683715
 41
0.0
 46
0.0
 71
     1
 72
     1
  1
\A1;0.88
  7
Note Text (ANSI)
 73
     1
 44
1.0
  0
POINT
  5
716
330
630
100
AcDbEntity
  8
Defpoints
 62
     0
440
 16777216
100
AcDbPoint
 10
26.13226030152917
 20
63.6940082337861
 30
0.0
  0
POINT
  5
717
330
630
100
AcDbEntity
  8
Defpoints
 62
     0
440
 16777216
100
AcDbPoint
 10
27.00726030152918
 20
64.51054949452232
 30
0.0
  0
POINT
  5
718
330
630
100
AcDbEntity
  8
Defpoints
 62
     0
440
 16777216
100
AcDbPoint
 10
27.00726030152918
 20
68.4475573685381
 30
0.0
  0
ENDBLK
  5
632
330
630
100
AcDbEntity
  8
0
100
AcDbBlockEnd
  0
BLOCK
  5
71B
330
71A
100
AcDbEntity
  8
0
100
AcDbBlockBegin
  2
*D6
 70
     1
 10
0.0
 20
0.0
 30
0.0
  3
*D6
  1

  0
LINE
  5
7F9
330
71A
100
AcDbEntity
  8
Dimension (ANSI)
440
 16777216
100
AcDbLine
 10
27.00726030152918
 20
65.13554949452232
 30
0.0
 11
27.00726030152918
 21
69.69755736853807
 31
0.0
  0
LINE
  5
7FA
330
71A
100
AcDbEntity
  8
Dimension (ANSI)
440
 16777216
100
AcDbLine
 10
57.25726030152919
 20
65.13554949452232
 30
0.0
 11
57.25726030152919
 21
69.69755736853807
 31
0.0
  0
LINE
  5
7FB
330
71A
100
AcDbEntity
  8
Dimension (ANSI)
440
 16777216
100
AcDbLine
 10
27.99151224774004
 20
68.44755736853807
 30
0.0
 11
39.84765554965357
 21
68.44755736853807
 31
0.0
  0
LINE
  5
7FC
330
71A
100
AcDbEntity
  8
Dimension (ANSI)
440
 16777216
100
AcDbLine
 10
56.27300835531833
 20
68.44755736853807
 30
0.0
 11
44.41686505340479
 21
68.44755736853807
 31
0.0
  0
SOLID
  5
7FD
330
71A
100
AcDbEntity
  8
Dimension (ANSI)
440
 16777216
100
AcDbTrace
 10
27.99151224774004
 20
68.61159935957322
 30
0.0
 11
27.99151224774004
 21
68.28351537750292
 31
0.0
 12
27.00726030152918
 22
68.44755736853807
 32
0.0
 13
27.00726030152918
 23
68.44755736853807
 33
0.0
  0
SOLID
  5
7FE
330
71A
100
AcDbEntity
  8
Dimension (ANSI)
440
 16777216
100
AcDbTrace
 10
56.27300835531833
 20
68.61159935957322
 30
0.0
 11
56.27300835531833
 21
68.28351537750292
 31
0.0
 12
57.25726030152919
 22
68.44755736853807
 32
0.0
 13
57.25726030152919
 23
68.44755736853807
 33
0.0
  0
MTEXT
  5
7FF
330
71A
100
AcDbEntity
  8
Dimension (ANSI)
440
 16777216
100
AcDbMText
 10
40.16261617957482
 20
69.07254059954282
 30
0.0
 40
1.200000047683715
 41
0.0
 46
0.0
 71
     1
 72
     1
  1
\A1;30.25
  7
Note Text (ANSI)
 73
     1
 44
1.0
  0
POINT
  5
800
330
71A
100
AcDbEntity
  8
Defpoints
 62
     0
440
 16777216
100
AcDbPoint
 10
27.00726030152918
 20
64.51054949452232
 30
0.0
  0
POINT
  5
801
330
71A
100
AcDbEntity
  8
Defpoints
 62
     0
440
 16777216
100
AcDbPoint
 10
57.25726030152919
 20
64.51054949452232
 30
0.0
  0
POINT
  5
802
330
71A
100
AcDbEntity
  8
Defpoints
 62
     0
440
 16777216
100
AcDbPoint
 10
57.25726030152919
 20
68.44755736853807
 30
0.0
  0
ENDBLK
  5
71C
330
71A
100
AcDbEntity
  8
0
100
AcDbBlockEnd
  0
BLOCK
  5
805
330
804
100
AcDbEntity
  8
0
100
AcDbBlockBegin
  2
*D7
 70
     1
 10
0.0
 20
0.0
 30
0.0
  3
*D7
  1

  0
LINE
  5
8F8
330
804
100
AcDbEntity
  8
Dimension (ANSI)
440
 16777216
100
AcDbLine
 10
25.66730156226542
 20
38.97404949452234
 30
0.0
 11
23.12604430264304
 21
38.97404949452234
 31
0.0
  0
LINE
  5
8F9
330
804
100
AcDbEntity
  8
Dimension (ANSI)
440
 16777216
100
AcDbLine
 10
24.85076030152916
 20
39.84904949452234
 30
0.0
 11
23.12604430264304
 21
39.84904949452234
 31
0.0
  0
LINE
  5
8FA
330
804
100
AcDbEntity
  8
Dimension (ANSI)
440
 16777216
100
AcDbLine
 10
24.37604430264304
 20
40.8333014407332
 30
0.0
 11
24.37604430264304
 21
41.81755338694406
 31
0.0
  0
LINE
  5
8FB
330
804
100
AcDbEntity
  8
Dimension (ANSI)
440
 16777216
100
AcDbLine
 10
24.37604430264304
 20
37.98979754831147
 30
0.0
 11
24.37604430264304
 21
36.10407283570094
 31
0.0
  0
LINE
  5
8FC
330
804
100
AcDbEntity
  8
Dimension (ANSI)
440
 16777216
100
AcDbLine
 10
24.37604430264304
 20
36.10407283570094
 30
0.0
 11
23.39179235643217
 21
36.10407283570094
 31
0.0
  0
SOLID
  5
8FD
330
804
100
AcDbEntity
  8
Dimension (ANSI)
440
 16777216
100
AcDbTrace
 10
24.21200231160789
 20
40.8333014407332
 30
0.0
 11
24.54008629367818
 21
40.8333014407332
 31
0.0
 12
24.37604430264304
 22
39.84904949452234
 32
0.0
 13
24.37604430264304
 23
39.84904949452234
 33
0.0
  0
SOLID
  5
8FE
330
804
100
AcDbEntity
  8
Dimension (ANSI)
440
 16777216
100
AcDbTrace
 10
24.21200231160789
 20
37.98979754831147
 30
0.0
 11
24.54008629367818
 21
37.98979754831147
 31
0.0
 12
24.37604430264304
 22
38.97404949452234
 32
0.0
 13
24.37604430264304
 23
38.97404949452234
 33
0.0
  0
MTEXT
  5
8FF
330
804
100
AcDbEntity
  8
Dimension (ANSI)
440
 16777216
100
AcDbMText
 10
20.00067312851591
 20
36.73147379680629
 30
0.0
 40
1.200000047683715
 41
0.0
 46
0.0
 71
     1
 72
     1
  1
\A1;0.88
  7
Note Text (ANSI)
 73
     1
 44
1.0
  0
POINT
  5
900
330
804
100
AcDbEntity
  8
Defpoints
 62
     0
440
 16777216
100
AcDbPoint
 10
26.29230156226542
 20
38.97404949452234
 30
0.0
  0
POINT
  5
901
330
804
100
AcDbEntity
  8
Defpoints
 62
     0
440
 16777216
100
AcDbPoint
 10
25.47576030152916
 20
39.84904949452234
 30
0.0
  0
POINT
  5
902
330
804
100
AcDbEntity
  8
Defpoints
 62
     0
440
 16777216
100
AcDbPoint
 10
24.37604430264304
 20
39.84904949452234
 30
0.0
  0
ENDBLK
  5
806
330
804
100
AcDbEntity
  8
0
100
AcDbBlockEnd
  0
BLOCK
  5
905
330
904
100
AcDbEntity
  8
0
100
AcDbBlockBegin
  2
*D8
 70
     1
 10
0.0
 20
0.0
 30
0.0
  3
*D8
  1

  0
LINE
  5
9E3
330
904
100
AcDbEntity
  8
Dimension (ANSI)
440
 16777216
100
AcDbLine
 10
24.85076030152916
 20
39.84904949452234
 30
0.0
 11
20.28875242751343
 21
39.84904949452234
 31
0.0
  0
LINE
  5
9E4
330
904
100
AcDbEntity
  8
Dimension (ANSI)
440
 16777216
100
AcDbLine
 10
24.85076030152918
 20
62.97904949452234
 30
0.0
 11
20.28875242751344
 21
62.97904949452234
 31
0.0
  0
LINE
  5
9E5
330
904
100
AcDbEntity
  8
Dimension (ANSI)
440
 16777216
100
AcDbLine
 10
21.53875242751343
 20
40.8333014407332
 30
0.0
 11
21.53875242751343
 21
50.47410563359632
 31
0.0
  0
LINE
  5
9E6
330
904
100
AcDbEntity
  8
Dimension (ANSI)
440
 16777216
100
AcDbLine
 10
21.53875242751344
 20
61.99479754831147
 30
0.0
 11
21.53875242751343
 21
52.35399335544833
 31
0.0
  0
SOLID
  5
9E7
330
904
100
AcDbEntity
  8
Dimension (ANSI)
440
 16777216
100
AcDbTrace
 10
21.37471043647829
 20
40.8333014407332
 30
0.0
 11
21.70279441854858
 21
40.8333014407332
 31
0.0
 12
21.53875242751343
 22
39.84904949452234
 32
0.0
 13
21.53875242751343
 23
39.84904949452234
 33
0.0
  0
SOLID
  5
9E8
330
904
100
AcDbEntity
  8
Dimension (ANSI)
440
 16777216
100
AcDbTrace
 10
21.37471043647829
 20
61.99479754831147
 30
0.0
 11
21.70279441854858
 21
61.99479754831147
 31
0.0
 12
21.53875242751344
 22
62.97904949452234
 32
0.0
 13
21.53875242751344
 23
62.97904949452234
 33
0.0
  0
MTEXT
  5
9E9
330
904
100
AcDbEntity
  8
Dimension (ANSI)
440
 16777216
100
AcDbMText
 10
19.57757036091116
 20
52.03903272552707
 30
0.0
 40
1.200000047683715
 41
0.0
 46
0.0
 71
     1
 72
     1
  1
\A1;23.13
  7
Note Text (ANSI)
 73
     1
 44
1.0
  0
POINT
  5
9EA
330
904
100
AcDbEntity
  8
Defpoints
 62
     0
440
 16777216
100
AcDbPoint
 10
25.47576030152916
 20
39.84904949452234
 30
0.0
  0
POINT
  5
9EB
330
904
100
AcDbEntity
  8
Defpoints
 62
     0
440
 16777216
100
AcDbPoint
 10
25.47576030152918
 20
62.97904949452234
 30
0.0
  0
POINT
  5
9EC
330
904
100
AcDbEntity
  8
Defpoints
 62
     0
440
 16777216
100
AcDbPoint
 10
21.53875242751344
 20
62.97904949452234
 30
0.0
  0
ENDBLK
  5
906
330
904
100
AcDbEntity
  8
0
100
AcDbBlockEnd
  0
BLOCK
  5
9EF
330
9EE
100
AcDbEntity
  8
0
100
AcDbBlockBegin
  2
*D9
 70
     1
 10
0.0
 20
0.0
 30
0.0
  3
*D9
  1

  0
LINE
  5
ACD
330
9EE
100
AcDbEntity
  8
Dimension (ANSI)
440
 16777216
100
AcDbLine
 10
25.66730156226542
 20
38.97404949452234
 30
0.0
 11
14.01867951502133
 21
38.97404949452234
 31
0.0
  0
LINE
  5
ACE
330
9EE
100
AcDbEntity
  8
Dimension (ANSI)
440
 16777216
100
AcDbLine
 10
25.66730156226542
 20
63.85404949452233
 30
0.0
 11
14.01867951502134
 21
63.85404949452234
 31
0.0
  0
LINE
  5
ACF
330
9EE
100
AcDbEntity
  8
Dimension (ANSI)
440
 16777216
100
AcDbLine
 10
15.26867951502133
 20
39.9583014407332
 30
0.0
 11
15.26867951502133
 21
50.47168790349572
 31
0.0
  0
LINE
  5
AD0
330
9EE
100
AcDbEntity
  8
Dimension (ANSI)
440
 16777216
100
AcDbLine
 10
15.26867951502134
 20
62.86979754831148
 30
0.0
 11
15.26867951502134
 21
52.35641108554893
 31
0.0
  0
SOLID
  5
AD1
330
9EE
100
AcDbEntity
  8
Dimension (ANSI)
440
 16777216
100
AcDbTrace
 10
15.10463752398619
 20
39.9583014407332
 30
0.0
 11
15.43272150605648
 21
39.9583014407332
 31
0.0
 12
15.26867951502133
 22
38.97404949452234
 32
0.0
 13
15.26867951502133
 23
38.97404949452234
 33
0.0
  0
SOLID
  5
AD2
330
9EE
100
AcDbEntity
  8
Dimension (ANSI)
440
 16777216
100
AcDbTrace
 10
15.10463752398619
 20
62.86979754831148
 30
0.0
 11
15.43272150605648
 21
62.86979754831148
 31
0.0
 12
15.26867951502134
 22
63.85404949452234
 32
0.0
 13
15.26867951502134
 23
63.85404949452234
 33
0.0
  0
MTEXT
  5
AD3
330
9EE
100
AcDbEntity
  8
Dimension (ANSI)
440
 16777216
100
AcDbMText
 10
13.29057333771488
 20
52.04145045562767
 30
0.0
 40
1.200000047683715
 41
0.0
 46
0.0
 71
     1
 72
     1
  1
\A1;24.88
  7
Note Text (ANSI)
 73
     1
 44
1.0
  0
POINT
  5
AD4
330
9EE
100
AcDbEntity
  8
Defpoints
 62
     0
440
 16777216
100
AcDbPoint
 10
26.29230156226542
 20
38.97404949452234
 30
0.0
  0
POINT
  5
AD5
330
9EE
100
AcDbEntity
  8
Defpoints
 62
     0
440
 16777216
100
AcDbPoint
 10
26.29230156226542
 20
63.85404949452233
 30
0.0
  0
POINT
  5
AD6
330
9EE
100
AcDbEntity
  8
Defpoints
 62
     0
440
 16777216
100
AcDbPoint
 10
15.26867951502134
 20
63.85404949452234
 30
0.0
  0
ENDBLK
  5
9F0
330
9EE
100
AcDbEntity
  8
0
100
AcDbBlockEnd
  0
BLOCK
  5
AD9
330
AD8
100
AcDbEntity
  8
0
100
AcDbBlockBegin
  2
*D10
 70
     1
 10
0.0
 20
0.0
 30
0.0
  3
*D10
  1

  0
LINE
  5
B89
330
AD8
100
AcDbEntity
  8
Dimension (ANSI)
440
 16777216
100
AcDbLine
 10
60.90523058856831
 20
36.8617291243741
 30
0.0
 11
59.56323393893822
 21
36.8617291243741
 31
0.0
  0
LINE
  5
B8A
330
AD8
100
AcDbEntity
  8
Dimension (ANSI)
440
 16777216
100
AcDbLine
 10
59.56323393893822
 20
36.8617291243741
 30
0.0
 11
58.0306948888953
 21
38.84708795414148
 31
0.0
  0
MTEXT
  5
B8B
330
AD8
100
AcDbEntity
  8
Dimension (ANSI)
440
 16777216
100
AcDbMText
 10
61.22019121848958
 20
36.8617291243741
 30
0.0
 40
1.200000047683715
 41
0.0
 46
0.0
 71
     4
 72
     1
  1
\A1;∅0.563{\P(4 PL.)}
  7
Note Text (ANSI)
 73
     1
 44
1.0
  0
SOLID
  5
B8C
330
AD8
100
AcDbEntity
  8
Dimension (ANSI)
440
 16777216
100
AcDbTrace
 10
58.16054953104439
 20
38.94732540590033
 30
0.0
 11
57.90084024674621
 21
38.74685050238262
 31
0.0
 12
57.42927017834219
 22
39.62621580703597
 32
0.0
 13
57.42927017834219
 23
39.62621580703597
 33
0.0
  0
LINE
  5
B8D
330
AD8
100
AcDbEntity
  8
Dimension (ANSI)
440
 16777216
100
AcDbLine
 10
56.3572603015292
 20
39.84904949452232
 30
0.0
 11
58.15726030152919
 21
39.84904949452234
 31
0.0
  0
LINE
  5
B8E
330
AD8
100
AcDbEntity
  8
Dimension (ANSI)
440
 16777216
100
AcDbLine
 10
57.25726030152918
 20
38.94904949452233
 30
0.0
 11
57.25726030152919
 21
40.74904949452232
 31
0.0
  0
POINT
  5
B8F
330
AD8
100
AcDbEntity
  8
Defpoints
 62
     0
440
 16777216
100
AcDbPoint
 10
57.42927017834219
 20
39.62621580703597
 30
0.0
  0
POINT
  5
B90
330
AD8
100
AcDbEntity
  8
Defpoints
 62
     0
440
 16777216
100
AcDbPoint
 10
57.08525042471618
 20
40.07188318200868
 30
0.0
  0
ENDBLK
  5
ADA
330
AD8
100
AcDbEntity
  8
0
100
AcDbBlockEnd
  0
BLOCK
  5
B93
330
B92
100
AcDbEntity
  8
0
100
AcDbBlockBegin
  2
*D11
 70
     1
 10
0.0
 20
0.0
 30
0.0
  3
*D11
  1

  0
LINE
  5
C91
330
B92
100
AcDbEntity
  8
Dimension (ANSI)
440
 16777216
100
AcDbLine
 10
51.28803059547709
 20
89.62278516860196
 30
0.0
 11
51.28803059547709
 21
88.6385332223911
 31
0.0
  0
LINE
  5
C92
330
B92
100
AcDbEntity
  8
Dimension (ANSI)
440
 16777216
100
AcDbLine
 10
51.28803059547709
 20
92.46628906102372
 30
0.0
 11
51.28803059547709
 21
95.70201379031884
 31
0.0
  0
LINE
  5
C93
330
B92
100
AcDbEntity
  8
Dimension (ANSI)
440
 16777216
100
AcDbLine
 10
51.28803059547709
 20
95.70201379031884
 30
0.0
 11
52.27228254168795
 21
95.70201379031884
 31
0.0
  0
SOLID
  5
C94
330
B92
100
AcDbEntity
  8
Dimension (ANSI)
440
 16777216
100
AcDbTrace
 10
51.12398860444194
 20
89.62278516860196
 30
0.0
 11
51.45207258651223
 21
89.62278516860196
 31
0.0
 12
51.28803059547709
 22
90.60703711481282
 32
0.0
 13
51.28803059547709
 23
90.60703711481282
 33
0.0
  0
SOLID
  5
C95
330
B92
100
AcDbEntity
  8
Dimension (ANSI)
440
 16777216
100
AcDbTrace
 10
51.12398860444194
 20
92.46628906102372
 30
0.0
 11
51.45207258651223
 21
92.46628906102372
 31
0.0
 12
51.28803059547709
 22
91.48203711481286
 32
0.0
 13
51.28803059547709
 23
91.48203711481286
 33
0.0
  0
MTEXT
  5
C96
330
B92
100
AcDbEntity
  8
Dimension (ANSI)
440
 16777216
100
AcDbMText
 10
54.17246820756837
 20
95.70201379031885
 30
0.0
 40
1.200000047683715
 41
0.0
 46
0.0
 71
     5
 72
     1
  1
\A1;0.88{\PTYP.}
  7
Note Text (ANSI)
 73
     1
 44
1.0
  0
POINT
  5
C97
330
B92
100
AcDbEntity
  8
Defpoints
 62
     0
440
 16777216
100
AcDbPoint
 10
54.17246820756837
 20
91.48203711481286
 30
0.0
  0
POINT
  5
C98
330
B92
100
AcDbEntity
  8
Defpoints
 62
     0
440
 16777216
100
AcDbPoint
 10
54.16813826210366
 20
90.60703711481282
 30
0.0
  0
POINT
  5
C99
330
B92
100
AcDbEntity
  8
Defpoints
 62
     0
440
 16777216
100
AcDbPoint
 10
51.28803059547709
 20
90.60703711481282
 30
0.0
  0
ENDBLK
  5
B94
330
B92
100
AcDbEntity
  8
0
100
AcDbBlockEnd
  0
BLOCK
  5
C9C
330
C9B
100
AcDbEntity
  8
0
100
AcDbBlockBegin
  2
*D12
 70
     1
 10
0.0
 20
0.0
 30
0.0
  3
*D12
  1

  0
LINE
  5
D81
330
C9B
100
AcDbEntity
  8
Dimension (ANSI)
440
 16777216
100
AcDbLine
 10
83.08639925145019
 20
62.53571164026631
 30
0.0
 11
82.10214730523933
 21
62.53571164026631
 31
0.0
  0
LINE
  5
D82
330
C9B
100
AcDbEntity
  8
Dimension (ANSI)
440
 16777216
100
AcDbLine
 10
85.92990314387192
 20
62.53571164026631
 30
0.0
 11
87.46819736779171
 21
62.53571164026631
 31
0.0
  0
SOLID
  5
D83
330
C9B
100
AcDbEntity
  8
Dimension (ANSI)
440
 16777216
100
AcDbTrace
 10
83.08639925145019
 20
62.69975363130146
 30
0.0
 11
83.08639925145019
 21
62.37166964923117
 31
0.0
 12
84.07065119766105
 22
62.53571164026631
 32
0.0
 13
84.07065119766105
 23
62.53571164026631
 33
0.0
  0
SOLID
  5
D84
330
C9B
100
AcDbEntity
  8
Dimension (ANSI)
440
 16777216
100
AcDbTrace
 10
85.92990314387192
 20
62.69975363130146
 30
0.0
 11
85.92990314387192
 21
62.37166964923117
 31
0.0
 12
84.94565119766106
 22
62.53571164026631
 32
0.0
 13
84.94565119766106
 23
62.53571164026631
 33
0.0
  0
MTEXT
  5
D85
330
C9B
100
AcDbEntity
  8
Dimension (ANSI)
440
 16777216
100
AcDbMText
 10
87.78315799771297
 20
62.53571164026631
 30
0.0
 40
1.200000047683715
 41
0.0
 46
0.0
 71
     4
 72
     1
  1
\A1;0.88{\PTYP.}
  7
Note Text (ANSI)
 73
     1
 44
1.0
  0
POINT
  5
D86
330
C9B
100
AcDbEntity
  8
Defpoints
 62
     0
440
 16777216
100
AcDbPoint
 10
84.94565119766106
 20
62.53571164026631
 30
0.0
  0
POINT
  5
D87
330
C9B
100
AcDbEntity
  8
Defpoints
 62
     0
440
 16777216
100
AcDbPoint
 10
84.07065119766105
 20
62.56523088172413
 30
0.0
  0
POINT
  5
D88
330
C9B
100
AcDbEntity
  8
Defpoints
 62
     0
440
 16777216
100
AcDbPoint
 10
84.07065119766105
 20
62.53571164026631
 30
0.0
  0
ENDBLK
  5
C9D
330
C9B
100
AcDbEntity
  8
0
100
AcDbBlockEnd
  0
ENDSEC
  0
SECTION
  2
ENTITIES
  0
CIRCLE
  5
11B
330
6C
100
AcDbEntity
  8
Visible (ANSI)
100
AcDbCircle
 10
57.25726030152919
 20
62.97904949452233
 30
0.0
 40
0.2814999999999999
  0
CIRCLE
  5
11C
330
6C
100
AcDbEntity
  8
Visible (ANSI)
100
AcDbCircle
 10
27.00726030152918
 20
62.97904949452233
 30
0.0
 40
0.2814999999999999
  0
CIRCLE
  5
11D
330
6C
100
AcDbEntity
  8
Visible (ANSI)
100
AcDbCircle
 10
27.00726030152916
 20
39.84904949452234
 30
0.0
 40
0.2814999999999999
  0
CIRCLE
  5
11E
330
6C
100
AcDbEntity
  8
Visible (ANSI)
100
AcDbCircle
 10
57.25726030152919
 20
39.84904949452234
 30
0.0
 40
0.2814999999999999
  0
LINE
  5
11F
330
6C
100
AcDbEntity
  8
Visible (ANSI)
100
AcDbLine
 10
58.13226030152918
 20
63.6940082337861
 30
0.0
 11
58.1322603015292
 21
39.13409075525858
 31
0.0
  0
LINE
  5
120
330
6C
100
AcDbEntity
  8
Visible (ANSI)
100
AcDbLine
 10
26.29230156226542
 20
63.85404949452232
 30
0.0
 11
57.97221904079293
 21
63.85404949452233
 31
0.0
  0
LINE
  5
121
330
6C
100
AcDbEntity
  8
Visible (ANSI)
100
AcDbLine
 10
26.13226030152918
 20
39.13409075525858
 30
0.0
 11
26.13226030152917
 21
63.6940082337861
 31
0.0
  0
LINE
  5
122
330
6C
100
AcDbEntity
  8
Visible (ANSI)
100
AcDbLine
 10
57.97221904079294
 20
38.97404949452234
 30
0.0
 11
26.29230156226542
 21
38.97404949452234
 31
0.0
  0
LINE
  5
123
330
6C
100
AcDbEntity
  8
Hidden (ANSI)
 48
1.080174088478088
100
AcDbLine
 10
58.0385103015292
 20
39.13409075525858
 30
0.0
 11
58.03851030152918
 21
63.6940082337861
 31
0.0
  0
LINE
  5
124
330
6C
100
AcDbEntity
  8
Hidden (ANSI)
 48
1.094751477241516
100
AcDbLine
 10
57.97221904079293
 20
63.76029949452235
 30
0.0
 11
26.29230156226542
 21
63.76029949452233
 31
0.0
  0
LINE
  5
125
330
6C
100
AcDbEntity
  8
Hidden (ANSI)
 48
1.080174088478088
100
AcDbLine
 10
26.22601030152918
 20
63.6940082337861
 30
0.0
 11
26.22601030152918
 21
39.13409075525858
 31
0.0
  0
LINE
  5
126
330
6C
100
AcDbEntity
  8
Hidden (ANSI)
 48
1.094751477241516
100
AcDbLine
 10
26.29230156226542
 20
39.06779949452234
 30
0.0
 11
57.97221904079294
 21
39.06779949452234
 31
0.0
  0
POLYLINE
  5
127
330
6C
100
AcDbEntity
  8
Visible (ANSI)
100
AcDb2dPolyline
 66
     1
 10
0.0
 20
0.0
 30
0.0
 70
   128
  0
VERTEX
  5
128
330
127
100
AcDbEntity
  8
Visible (ANSI)
100
AcDbVertex
100
AcDb2dVertex
 10
58.02291017215386
 20
63.74469908159788
 30
0.0
  0
VERTEX
  5
129
330
127
100
AcDbEntity
  8
Visible (ANSI)
100
AcDbVertex
100
AcDb2dVertex
 10
58.03006197860225
 20
63.74258748145792
 30
0.0
  0
VERTEX
  5
12B
330
127
100
AcDbEntity
  8
Visible (ANSI)
100
AcDbVertex
100
AcDb2dVertex
 10
58.03718374806431
 20
63.74047588131798
 30
0.0
  0
VERTEX
  5
12C
330
127
100
AcDbEntity
  8
Visible (ANSI)
100
AcDbVertex
100
AcDb2dVertex
 10
58.04424243985502
 20
63.73836277932871
 30
0.0
  0
VERTEX
  5
12D
330
127
100
AcDbEntity
  8
Visible (ANSI)
100
AcDbVertex
100
AcDb2dVertex
 10
58.05121102068672
 20
63.73625117918876
 30
0.0
  0
VERTEX
  5
12E
330
127
100
AcDbEntity
  8
Visible (ANSI)
100
AcDbVertex
100
AcDb2dVertex
 10
58.05805945357303
 20
63.7341380771995
 30
0.0
  0
VERTEX
  5
12F
330
127
100
AcDbEntity
  8
Visible (ANSI)
100
AcDbVertex
100
AcDb2dVertex
 10
58.06475770152764
 20
63.73202647705955
 30
0.0
  0
VERTEX
  5
130
330
127
100
AcDbEntity
  8
Visible (ANSI)
100
AcDbVertex
100
AcDb2dVertex
 10
58.07127572756418
 20
63.7299148769196
 30
0.0
  0
VERTEX
  5
131
330
127
100
AcDbEntity
  8
Visible (ANSI)
100
AcDbVertex
100
AcDb2dVertex
 10
58.07758649839495
 20
63.72780177493034
 30
0.0
  0
VERTEX
  5
132
330
127
100
AcDbEntity
  8
Visible (ANSI)
100
AcDbVertex
100
AcDb2dVertex
 10
58.08366298073224
 20
63.72569017479039
 30
0.0
  0
VERTEX
  5
133
330
127
100
AcDbEntity
  8
Visible (ANSI)
100
AcDbVertex
100
AcDb2dVertex
 10
58.08947814128835
 20
63.72357857465044
 30
0.0
  0
VERTEX
  5
134
330
127
100
AcDbEntity
  8
Visible (ANSI)
100
AcDbVertex
100
AcDb2dVertex
 10
58.09501095417282
 20
63.72146547266118
 30
0.0
  0
VERTEX
  5
135
330
127
100
AcDbEntity
  8
Visible (ANSI)
100
AcDbVertex
100
AcDb2dVertex
 10
58.10023138239932
 20
63.71935387252122
 30
0.0
  0
VERTEX
  5
136
330
127
100
AcDbEntity
  8
Visible (ANSI)
100
AcDbVertex
100
AcDb2dVertex
 10
58.10512440747467
 20
63.71724227238128
 30
0.0
  0
VERTEX
  5
137
330
127
100
AcDbEntity
  8
Visible (ANSI)
100
AcDbVertex
100
AcDb2dVertex
 10
58.10966299611118
 20
63.71512917039201
 30
0.0
  0
VERTEX
  5
138
330
127
100
AcDbEntity
  8
Visible (ANSI)
100
AcDbVertex
100
AcDb2dVertex
 10
58.11383212981565
 20
63.71301757025207
 30
0.0
  0
VERTEX
  5
139
330
127
100
AcDbEntity
  8
Visible (ANSI)
100
AcDbVertex
100
AcDb2dVertex
 10
58.11761078269768
 20
63.7109059701121
 30
0.0
  0
VERTEX
  5
13A
330
127
100
AcDbEntity
  8
Visible (ANSI)
100
AcDbVertex
100
AcDb2dVertex
 10
58.12098393626405
 20
63.70879286812286
 30
0.0
  0
VERTEX
  5
13B
330
127
100
AcDbEntity
  8
Visible (ANSI)
100
AcDbVertex
100
AcDb2dVertex
 10
58.12393657202162
 20
63.7066812679829
 30
0.0
  0
VERTEX
  5
13C
330
127
100
AcDbEntity
  8
Visible (ANSI)
100
AcDbVertex
100
AcDb2dVertex
 10
58.12645667517584
 20
63.70456816599364
 30
0.0
  0
VERTEX
  5
13D
330
127
100
AcDbEntity
  8
Visible (ANSI)
100
AcDbVertex
100
AcDb2dVertex
 10
58.12853523463079
 20
63.70245656585368
 30
0.0
  0
VERTEX
  5
13E
330
127
100
AcDbEntity
  8
Visible (ANSI)
100
AcDbVertex
100
AcDb2dVertex
 10
58.13016023559199
 20
63.70034496571374
 30
0.0
  0
VERTEX
  5
13F
330
127
100
AcDbEntity
  8
Visible (ANSI)
100
AcDbVertex
100
AcDb2dVertex
 10
58.13132567066212
 20
63.69823186372448
 30
0.0
  0
VERTEX
  5
140
330
127
100
AcDbEntity
  8
Visible (ANSI)
100
AcDbVertex
100
AcDb2dVertex
 10
58.13202553244392
 20
63.69612026358452
 30
0.0
  0
VERTEX
  5
141
330
127
100
AcDbEntity
  8
Visible (ANSI)
100
AcDbVertex
100
AcDb2dVertex
 10
58.13225982093739
 20
63.69400866344458
 30
0.0
  0
SEQEND
  5
12A
330
127
100
AcDbEntity
  8
Visible (ANSI)
  0
POLYLINE
  5
142
330
6C
100
AcDbEntity
  8
Visible (ANSI)
100
AcDb2dPolyline
 66
     1
 10
0.0
 20
0.0
 30
0.0
 70
   128
  0
VERTEX
  5
143
330
142
100
AcDbEntity
  8
Visible (ANSI)
100
AcDbVertex
100
AcDb2dVertex
 10
58.13225982093739
 20
39.13409075824534
 30
0.0
  0
VERTEX
  5
144
330
142
100
AcDbEntity
  8
Visible (ANSI)
100
AcDbVertex
100
AcDb2dVertex
 10
58.13202553244392
 20
39.13197861837828
 30
0.0
  0
VERTEX
  5
146
330
142
100
AcDbEntity
  8
Visible (ANSI)
100
AcDbVertex
100
AcDb2dVertex
 10
58.13132567066212
 20
39.12986647851124
 30
0.0
  0
VERTEX
  5
147
330
142
100
AcDbEntity
  8
Visible (ANSI)
100
AcDbVertex
100
AcDb2dVertex
 10
58.13016023559199
 20
39.12775435037739
 30
0.0
  0
VERTEX
  5
148
330
142
100
AcDbEntity
  8
Visible (ANSI)
100
AcDbVertex
100
AcDb2dVertex
 10
58.12853523463079
 20
39.12564221051035
 30
0.0
  0
VERTEX
  5
149
330
142
100
AcDbEntity
  8
Visible (ANSI)
100
AcDbVertex
100
AcDb2dVertex
 10
58.12645667517584
 20
39.1235300706433
 30
0.0
  0
VERTEX
  5
14A
330
142
100
AcDbEntity
  8
Visible (ANSI)
100
AcDbVertex
100
AcDb2dVertex
 10
58.12393657202162
 20
39.12141794250945
 30
0.0
  0
VERTEX
  5
14B
330
142
100
AcDbEntity
  8
Visible (ANSI)
100
AcDbVertex
100
AcDb2dVertex
 10
58.12098393626405
 20
39.1193058026424
 30
0.0
  0
VERTEX
  5
14C
330
142
100
AcDbEntity
  8
Visible (ANSI)
100
AcDbVertex
100
AcDb2dVertex
 10
58.11761078269768
 20
39.11719366277536
 30
0.0
  0
VERTEX
  5
14D
330
142
100
AcDbEntity
  8
Visible (ANSI)
100
AcDbVertex
100
AcDb2dVertex
 10
58.11383212981565
 20
39.11508153464151
 30
0.0
  0
VERTEX
  5
14E
330
142
100
AcDbEntity
  8
Visible (ANSI)
100
AcDbVertex
100
AcDb2dVertex
 10
58.10966299611118
 20
39.11296939477447
 30
0.0
  0
VERTEX
  5
14F
330
142
100
AcDbEntity
  8
Visible (ANSI)
100
AcDbVertex
100
AcDb2dVertex
 10
58.10512440747467
 20
39.11085725490742
 30
0.0
  0
VERTEX
  5
150
330
142
100
AcDbEntity
  8
Visible (ANSI)
100
AcDbVertex
100
AcDb2dVertex
 10
58.10023138239932
 20
39.10874512677356
 30
0.0
  0
VERTEX
  5
151
330
142
100
AcDbEntity
  8
Visible (ANSI)
100
AcDbVertex
100
AcDb2dVertex
 10
58.09501095417282
 20
39.10663298690652
 30
0.0
  0
VERTEX
  5
152
330
142
100
AcDbEntity
  8
Visible (ANSI)
100
AcDbVertex
100
AcDb2dVertex
 10
58.08947814128835
 20
39.10452085877267
 30
0.0
  0
VERTEX
  5
153
330
142
100
AcDbEntity
  8
Visible (ANSI)
100
AcDbVertex
100
AcDb2dVertex
 10
58.08366298073224
 20
39.10240871890562
 30
0.0
  0
VERTEX
  5
154
330
142
100
AcDbEntity
  8
Visible (ANSI)
100
AcDbVertex
100
AcDb2dVertex
 10
58.07758649839495
 20
39.10029657903858
 30
0.0
  0
VERTEX
  5
155
330
142
100
AcDbEntity
  8
Visible (ANSI)
100
AcDbVertex
100
AcDb2dVertex
 10
58.07127572756418
 20
39.09818445090473
 30
0.0
  0
VERTEX
  5
156
330
142
100
AcDbEntity
  8
Visible (ANSI)
100
AcDbVertex
100
AcDb2dVertex
 10
58.06475770152764
 20
39.09607231103768
 30
0.0
  0
VERTEX
  5
157
330
142
100
AcDbEntity
  8
Visible (ANSI)
100
AcDbVertex
100
AcDb2dVertex
 10
58.05805945357303
 20
39.09396017117064
 30
0.0
  0
VERTEX
  5
158
330
142
100
AcDbEntity
  8
Visible (ANSI)
100
AcDbVertex
100
AcDb2dVertex
 10
58.05121102068672
 20
39.09184804303679
 30
0.0
  0
VERTEX
  5
159
330
142
100
AcDbEntity
  8
Visible (ANSI)
100
AcDbVertex
100
AcDb2dVertex
 10
58.04424243985502
 20
39.08973590316974
 30
0.0
  0
VERTEX
  5
15A
330
142
100
AcDbEntity
  8
Visible (ANSI)
100
AcDbVertex
100
AcDb2dVertex
 10
58.03718374806431
 20
39.08762376330269
 30
0.0
  0
VERTEX
  5
15B
330
142
100
AcDbEntity
  8
Visible (ANSI)
100
AcDbVertex
100
AcDb2dVertex
 10
58.03006197860225
 20
39.08551163516884
 30
0.0
  0
VERTEX
  5
15C
330
142
100
AcDbEntity
  8
Visible (ANSI)
100
AcDbVertex
100
AcDb2dVertex
 10
58.02291017215386
 20
39.0833994953018
 30
0.0
  0
SEQEND
  5
145
330
142
100
AcDbEntity
  8
Visible (ANSI)
  0
POLYLINE
  5
15D
330
6C
100
AcDbEntity
  8
Visible (ANSI)
100
AcDb2dPolyline
 66
     1
 10
0.0
 20
0.0
 30
0.0
 70
   128
  0
VERTEX
  5
15E
330
15D
100
AcDbEntity
  8
Visible (ANSI)
100
AcDbVertex
100
AcDb2dVertex
 10
26.24161030230864
 20
63.74469908159788
 30
0.0
  0
VERTEX
  5
15F
330
15D
100
AcDbEntity
  8
Visible (ANSI)
100
AcDbVertex
100
AcDb2dVertex
 10
26.24372244217569
 20
63.75185088804627
 30
0.0
  0
VERTEX
  5
161
330
15D
100
AcDbEntity
  8
Visible (ANSI)
100
AcDbVertex
100
AcDb2dVertex
 10
26.24583457030954
 20
63.7589726575083
 30
0.0
  0
VERTEX
  5
162
330
15D
100
AcDbEntity
  8
Visible (ANSI)
100
AcDbVertex
100
AcDb2dVertex
 10
26.24794671017658
 20
63.76603285114835
 30
0.0
  0
VERTEX
  5
163
330
15D
100
AcDbEntity
  8
Visible (ANSI)
100
AcDbVertex
100
AcDb2dVertex
 10
26.25005885004363
 20
63.77300143198005
 30
0.0
  0
VERTEX
  5
164
330
15D
100
AcDbEntity
  8
Visible (ANSI)
100
AcDbVertex
100
AcDb2dVertex
 10
26.25217097817748
 20
63.77984836301703
 30
0.0
  0
VERTEX
  5
165
330
15D
100
AcDbEntity
  8
Visible (ANSI)
100
AcDbVertex
100
AcDb2dVertex
 10
26.25428311804453
 20
63.78654661097164
 30
0.0
  0
VERTEX
  5
166
330
15D
100
AcDbEntity
  8
Visible (ANSI)
100
AcDbVertex
100
AcDb2dVertex
 10
26.25639525791157
 20
63.79306313515886
 30
0.0
  0
VERTEX
  5
167
330
15D
100
AcDbEntity
  8
Visible (ANSI)
100
AcDbVertex
100
AcDb2dVertex
 10
26.25850738604543
 20
63.79937390598964
 30
0.0
  0
VERTEX
  5
168
330
15D
100
AcDbEntity
  8
Visible (ANSI)
100
AcDbVertex
100
AcDb2dVertex
 10
26.26061952591247
 20
63.80545038832693
 30
0.0
  0
VERTEX
  5
169
330
15D
100
AcDbEntity
  8
Visible (ANSI)
100
AcDbVertex
100
AcDb2dVertex
 10
26.26273166577951
 20
63.81126705073235
 30
0.0
  0
VERTEX
  5
16A
330
15D
100
AcDbEntity
  8
Visible (ANSI)
100
AcDbVertex
100
AcDb2dVertex
 10
26.26484379391337
 20
63.81679836176751
 30
0.0
  0
VERTEX
  5
16B
330
15D
100
AcDbEntity
  8
Visible (ANSI)
100
AcDbVertex
100
AcDb2dVertex
 10
26.26695593378042
 20
63.82202179369264
 30
0.0
  0
VERTEX
  5
16C
330
15D
100
AcDbEntity
  8
Visible (ANSI)
100
AcDbVertex
100
AcDb2dVertex
 10
26.26906806191426
 20
63.82691331691868
 30
0.0
  0
VERTEX
  5
16D
330
15D
100
AcDbEntity
  8
Visible (ANSI)
100
AcDbVertex
100
AcDb2dVertex
 10
26.27118020178131
 20
63.8314534074045
 30
0.0
  0
VERTEX
  5
16E
330
15D
100
AcDbEntity
  8
Visible (ANSI)
100
AcDbVertex
100
AcDb2dVertex
 10
26.27329234164835
 20
63.83562103925966
 30
0.0
  0
VERTEX
  5
16F
330
15D
100
AcDbEntity
  8
Visible (ANSI)
100
AcDbVertex
100
AcDb2dVertex
 10
26.2754044697822
 20
63.83939969214168
 30
0.0
  0
VERTEX
  5
170
330
15D
100
AcDbEntity
  8
Visible (ANSI)
100
AcDbVertex
100
AcDb2dVertex
 10
26.27751660964925
 20
63.84277284570806
 30
0.0
  0
VERTEX
  5
171
330
15D
100
AcDbEntity
  8
Visible (ANSI)
100
AcDbVertex
100
AcDb2dVertex
 10
26.27962874951629
 20
63.84572548146561
 30
0.0
  0
VERTEX
  5
172
330
15D
100
AcDbEntity
  8
Visible (ANSI)
100
AcDbVertex
100
AcDb2dVertex
 10
26.28174087765014
 20
63.84824558461983
 30
0.0
  0
VERTEX
  5
173
330
15D
100
AcDbEntity
  8
Visible (ANSI)
100
AcDbVertex
100
AcDb2dVertex
 10
26.28385301751719
 20
63.85032414407481
 30
0.0
  0
VERTEX
  5
174
330
15D
100
AcDbEntity
  8
Visible (ANSI)
100
AcDbVertex
100
AcDb2dVertex
 10
26.28596515738424
 20
63.85194764318667
 30
0.0
  0
VERTEX
  5
175
330
15D
100
AcDbEntity
  8
Visible (ANSI)
100
AcDbVertex
100
AcDb2dVertex
 10
26.28807728551809
 20
63.85311458010612
 30
0.0
  0
VERTEX
  5
176
330
15D
100
AcDbEntity
  8
Visible (ANSI)
100
AcDbVertex
100
AcDb2dVertex
 10
26.29018942538513
 20
63.85381594373725
 30
0.0
  0
VERTEX
  5
177
330
15D
100
AcDbEntity
  8
Visible (ANSI)
100
AcDbVertex
100
AcDb2dVertex
 10
26.29230156525218
 20
63.85405023223071
 30
0.0
  0
SEQEND
  5
160
330
15D
100
AcDbEntity
  8
Visible (ANSI)
  0
POLYLINE
  5
178
330
6C
100
AcDbEntity
  8
Visible (ANSI)
100
AcDb2dPolyline
 66
     1
 10
0.0
 20
0.0
 30
0.0
 70
   128
  0
VERTEX
  5
179
330
178
100
AcDbEntity
  8
Visible (ANSI)
100
AcDbVertex
100
AcDb2dVertex
 10
57.97221975400058
 20
63.85405023223071
 30
0.0
  0
VERTEX
  5
17A
330
178
100
AcDbEntity
  8
Visible (ANSI)
100
AcDbVertex
100
AcDb2dVertex
 10
57.97433135414053
 20
63.85381594373725
 30
0.0
  0
VERTEX
  5
17C
330
178
100
AcDbEntity
  8
Visible (ANSI)
100
AcDbVertex
100
AcDb2dVertex
 10
57.97644295428046
 20
63.85311458010612
 30
0.0
  0
VERTEX
  5
17D
330
178
100
AcDbEntity
  8
Visible (ANSI)
100
AcDbVertex
100
AcDb2dVertex
 10
57.97855455442042
 20
63.85194764318667
 30
0.0
  0
VERTEX
  5
17E
330
178
100
AcDbEntity
  8
Visible (ANSI)
100
AcDbVertex
100
AcDb2dVertex
 10
57.98066615456036
 20
63.85032414407481
 30
0.0
  0
VERTEX
  5
17F
330
178
100
AcDbEntity
  8
Visible (ANSI)
100
AcDbVertex
100
AcDb2dVertex
 10
57.98278075839895
 20
63.84824558461983
 30
0.0
  0
VERTEX
  5
180
330
178
100
AcDbEntity
  8
Visible (ANSI)
100
AcDbVertex
100
AcDb2dVertex
 10
57.9848923585389
 20
63.84572548146561
 30
0.0
  0
VERTEX
  5
181
330
178
100
AcDbEntity
  8
Visible (ANSI)
100
AcDbVertex
100
AcDb2dVertex
 10
57.98700395867885
 20
63.84277284570806
 30
0.0
  0
VERTEX
  5
182
330
178
100
AcDbEntity
  8
Visible (ANSI)
100
AcDbVertex
100
AcDb2dVertex
 10
57.9891155588188
 20
63.83939969214168
 30
0.0
  0
VERTEX
  5
183
330
178
100
AcDbEntity
  8
Visible (ANSI)
100
AcDbVertex
100
AcDb2dVertex
 10
57.99122715895874
 20
63.83562103925966
 30
0.0
  0
VERTEX
  5
184
330
178
100
AcDbEntity
  8
Visible (ANSI)
100
AcDbVertex
100
AcDb2dVertex
 10
57.99334176279732
 20
63.8314534074045
 30
0.0
  0
VERTEX
  5
185
330
178
100
AcDbEntity
  8
Visible (ANSI)
100
AcDbVertex
100
AcDb2dVertex
 10
57.99545336293729
 20
63.82691331691868
 30
0.0
  0
VERTEX
  5
186
330
178
100
AcDbEntity
  8
Visible (ANSI)
100
AcDbVertex
100
AcDb2dVertex
 10
57.99756496307722
 20
63.82202179369264
 30
0.0
  0
VERTEX
  5
187
330
178
100
AcDbEntity
  8
Visible (ANSI)
100
AcDbVertex
100
AcDb2dVertex
 10
57.99967656321716
 20
63.81679836176751
 30
0.0
  0
VERTEX
  5
188
330
178
100
AcDbEntity
  8
Visible (ANSI)
100
AcDbVertex
100
AcDb2dVertex
 10
58.00178816335712
 20
63.81126705073235
 30
0.0
  0
VERTEX
  5
189
330
178
100
AcDbEntity
  8
Visible (ANSI)
100
AcDbVertex
100
AcDb2dVertex
 10
58.00389976349706
 20
63.80545038832693
 30
0.0
  0
VERTEX
  5
18A
330
178
100
AcDbEntity
  8
Visible (ANSI)
100
AcDbVertex
100
AcDb2dVertex
 10
58.00601436733565
 20
63.79937390598964
 30
0.0
  0
VERTEX
  5
18B
330
178
100
AcDbEntity
  8
Visible (ANSI)
100
AcDbVertex
100
AcDb2dVertex
 10
58.0081259674756
 20
63.79306313515886
 30
0.0
  0
VERTEX
  5
18C
330
178
100
AcDbEntity
  8
Visible (ANSI)
100
AcDbVertex
100
AcDb2dVertex
 10
58.01023756761555
 20
63.78654661097164
 30
0.0
  0
VERTEX
  5
18D
330
178
100
AcDbEntity
  8
Visible (ANSI)
100
AcDbVertex
100
AcDb2dVertex
 10
58.0123491677555
 20
63.77984836301703
 30
0.0
  0
VERTEX
  5
18E
330
178
100
AcDbEntity
  8
Visible (ANSI)
100
AcDbVertex
100
AcDb2dVertex
 10
58.01446076789544
 20
63.77300143198005
 30
0.0
  0
VERTEX
  5
18F
330
178
100
AcDbEntity
  8
Visible (ANSI)
100
AcDbVertex
100
AcDb2dVertex
 10
58.01657537173402
 20
63.76603285114835
 30
0.0
  0
VERTEX
  5
190
330
178
100
AcDbEntity
  8
Visible (ANSI)
100
AcDbVertex
100
AcDb2dVertex
 10
58.01868697187398
 20
63.7589726575083
 30
0.0
  0
VERTEX
  5
191
330
178
100
AcDbEntity
  8
Visible (ANSI)
100
AcDbVertex
100
AcDb2dVertex
 10
58.02079857201392
 20
63.75185088804627
 30
0.0
  0
VERTEX
  5
192
330
178
100
AcDbEntity
  8
Visible (ANSI)
100
AcDbVertex
100
AcDb2dVertex
 10
58.02291017215386
 20
63.74469908159788
 30
0.0
  0
SEQEND
  5
17B
330
178
100
AcDbEntity
  8
Visible (ANSI)
  0
POLYLINE
  5
193
330
6C
100
AcDbEntity
  8
Visible (ANSI)
100
AcDb2dPolyline
 66
     1
 10
0.0
 20
0.0
 30
0.0
 70
   128
  0
VERTEX
  5
194
330
193
100
AcDbEntity
  8
Visible (ANSI)
100
AcDbVertex
100
AcDb2dVertex
 10
26.24161030230864
 20
39.0833994953018
 30
0.0
  0
VERTEX
  5
195
330
193
100
AcDbEntity
  8
Visible (ANSI)
100
AcDbVertex
100
AcDb2dVertex
 10
26.23445847239386
 20
39.08551163516884
 30
0.0
  0
VERTEX
  5
197
330
193
100
AcDbEntity
  8
Visible (ANSI)
100
AcDbVertex
100
AcDb2dVertex
 10
26.22733726025871
 20
39.08762376330269
 30
0.0
  0
VERTEX
  5
198
330
193
100
AcDbEntity
  8
Visible (ANSI)
100
AcDbVertex
100
AcDb2dVertex
 10
26.22027717221745
 20
39.08973590316974
 30
0.0
  0
VERTEX
  5
199
330
193
100
AcDbEntity
  8
Visible (ANSI)
100
AcDbVertex
100
AcDb2dVertex
 10
26.21330843885419
 20
39.09184804303679
 30
0.0
  0
VERTEX
  5
19A
330
193
100
AcDbEntity
  8
Visible (ANSI)
100
AcDbVertex
100
AcDb2dVertex
 10
26.2064608976909
 20
39.09396017117064
 30
0.0
  0
VERTEX
  5
19B
330
193
100
AcDbEntity
  8
Visible (ANSI)
100
AcDbVertex
100
AcDb2dVertex
 10
26.19976386998887
 20
39.09607231103768
 30
0.0
  0
VERTEX
  5
19C
330
193
100
AcDbEntity
  8
Visible (ANSI)
100
AcDbVertex
100
AcDb2dVertex
 10
26.19324603168349
 20
39.09818445090473
 30
0.0
  0
VERTEX
  5
19D
330
193
100
AcDbEntity
  8
Visible (ANSI)
100
AcDbVertex
100
AcDb2dVertex
 10
26.18693530191891
 20
39.10029657903858
 30
0.0
  0
VERTEX
  5
19E
330
193
100
AcDbEntity
  8
Visible (ANSI)
100
AcDbVertex
100
AcDb2dVertex
 10
26.18085869638305
 20
39.10240871890562
 30
0.0
  0
VERTEX
  5
19F
330
193
100
AcDbEntity
  8
Visible (ANSI)
100
AcDbVertex
100
AcDb2dVertex
 10
26.17504223930859
 20
39.10452085877267
 30
0.0
  0
VERTEX
  5
1A0
330
193
100
AcDbEntity
  8
Visible (ANSI)
100
AcDbVertex
100
AcDb2dVertex
 10
26.16951083734115
 20
39.10663298690652
 30
0.0
  0
VERTEX
  5
1A1
330
193
100
AcDbEntity
  8
Visible (ANSI)
100
AcDbVertex
100
AcDb2dVertex
 10
26.16428817394047
 20
39.10874512677356
 30
0.0
  0
VERTEX
  5
1A2
330
193
100
AcDbEntity
  8
Visible (ANSI)
100
AcDbVertex
100
AcDb2dVertex
 10
26.15939661844813
 20
39.11085725490742
 30
0.0
  0
VERTEX
  5
1A3
330
193
100
AcDbEntity
  8
Visible (ANSI)
100
AcDbVertex
100
AcDb2dVertex
 10
26.15485711315555
 20
39.11296939477447
 30
0.0
  0
VERTEX
  5
1A4
330
193
100
AcDbEntity
  8
Visible (ANSI)
100
AcDbVertex
100
AcDb2dVertex
 10
26.15068909997146
 20
39.11508153464151
 30
0.0
  0
VERTEX
  5
1A5
330
193
100
AcDbEntity
  8
Visible (ANSI)
100
AcDbVertex
100
AcDb2dVertex
 10
26.14691042362306
 20
39.11719366277536
 30
0.0
  0
VERTEX
  5
1A6
330
193
100
AcDbEntity
  8
Visible (ANSI)
100
AcDbVertex
100
AcDb2dVertex
 10
26.14353726712338
 20
39.1193058026424
 30
0.0
  0
VERTEX
  5
1A7
330
193
100
AcDbEntity
  8
Visible (ANSI)
100
AcDbVertex
100
AcDb2dVertex
 10
26.14058407477224
 20
39.12141794250945
 30
0.0
  0
VERTEX
  5
1A8
330
193
100
AcDbEntity
  8
Visible (ANSI)
100
AcDbVertex
100
AcDb2dVertex
 10
26.13806349202357
 20
39.1235300706433
 30
0.0
  0
VERTEX
  5
1A9
330
193
100
AcDbEntity
  8
Visible (ANSI)
100
AcDbVertex
100
AcDb2dVertex
 10
26.13598631231932
 20
39.12564221051035
 30
0.0
  0
VERTEX
  5
1AA
330
193
100
AcDbEntity
  8
Visible (ANSI)
100
AcDbVertex
100
AcDb2dVertex
 10
26.13436143107342
 20
39.12775435037739
 30
0.0
  0
VERTEX
  5
1AB
330
193
100
AcDbEntity
  8
Visible (ANSI)
100
AcDbVertex
100
AcDb2dVertex
 10
26.13319580598048
 20
39.12986647851124
 30
0.0
  0
VERTEX
  5
1AC
330
193
100
AcDbEntity
  8
Visible (ANSI)
100
AcDbVertex
100
AcDb2dVertex
 10
26.1324944282787
 20
39.13197861837828
 30
0.0
  0
VERTEX
  5
1AD
330
193
100
AcDbEntity
  8
Visible (ANSI)
100
AcDbVertex
100
AcDb2dVertex
 10
26.13226030152918
 20
39.13409075824534
 30
0.0
  0
SEQEND
  5
196
330
193
100
AcDbEntity
  8
Visible (ANSI)
  0
POLYLINE
  5
1AE
330
6C
100
AcDbEntity
  8
Visible (ANSI)
100
AcDb2dPolyline
 66
     1
 10
0.0
 20
0.0
 30
0.0
 70
   128
  0
VERTEX
  5
1AF
330
1AE
100
AcDbEntity
  8
Visible (ANSI)
100
AcDbVertex
100
AcDb2dVertex
 10
26.13226030152917
 20
63.69400866344458
 30
0.0
  0
VERTEX
  5
1B0
330
1AE
100
AcDbEntity
  8
Visible (ANSI)
100
AcDbVertex
100
AcDb2dVertex
 10
26.1324944282787
 20
63.69612026358452
 30
0.0
  0
VERTEX
  5
1B2
330
1AE
100
AcDbEntity
  8
Visible (ANSI)
100
AcDbVertex
100
AcDb2dVertex
 10
26.13319580598048
 20
63.69823186372448
 30
0.0
  0
VERTEX
  5
1B3
330
1AE
100
AcDbEntity
  8
Visible (ANSI)
100
AcDbVertex
100
AcDb2dVertex
 10
26.13436143107342
 20
63.70034496571374
 30
0.0
  0
VERTEX
  5
1B4
330
1AE
100
AcDbEntity
  8
Visible (ANSI)
100
AcDbVertex
100
AcDb2dVertex
 10
26.13598631231932
 20
63.70245656585368
 30
0.0
  0
VERTEX
  5
1B5
330
1AE
100
AcDbEntity
  8
Visible (ANSI)
100
AcDbVertex
100
AcDb2dVertex
 10
26.13806349202357
 20
63.70456816599364
 30
0.0
  0
VERTEX
  5
1B6
330
1AE
100
AcDbEntity
  8
Visible (ANSI)
100
AcDbVertex
100
AcDb2dVertex
 10
26.14058407477224
 20
63.7066812679829
 30
0.0
  0
VERTEX
  5
1B7
330
1AE
100
AcDbEntity
  8
Visible (ANSI)
100
AcDbVertex
100
AcDb2dVertex
 10
26.14353726712338
 20
63.70879286812286
 30
0.0
  0
VERTEX
  5
1B8
330
1AE
100
AcDbEntity
  8
Visible (ANSI)
100
AcDbVertex
100
AcDb2dVertex
 10
26.14691042362306
 20
63.7109059701121
 30
0.0
  0
VERTEX
  5
1B9
330
1AE
100
AcDbEntity
  8
Visible (ANSI)
100
AcDbVertex
100
AcDb2dVertex
 10
26.15068909997146
 20
63.71301757025207
 30
0.0
  0
VERTEX
  5
1BA
330
1AE
100
AcDbEntity
  8
Visible (ANSI)
100
AcDbVertex
100
AcDb2dVertex
 10
26.15485711315555
 20
63.71512917039201
 30
0.0
  0
VERTEX
  5
1BB
330
1AE
100
AcDbEntity
  8
Visible (ANSI)
100
AcDbVertex
100
AcDb2dVertex
 10
26.15939661844813
 20
63.71724227238128
 30
0.0
  0
VERTEX
  5
1BC
330
1AE
100
AcDbEntity
  8
Visible (ANSI)
100
AcDbVertex
100
AcDb2dVertex
 10
26.16428817394047
 20
63.71935387252122
 30
0.0
  0
VERTEX
  5
1BD
330
1AE
100
AcDbEntity
  8
Visible (ANSI)
100
AcDbVertex
100
AcDb2dVertex
 10
26.16951083734115
 20
63.72146547266118
 30
0.0
  0
VERTEX
  5
1BE
330
1AE
100
AcDbEntity
  8
Visible (ANSI)
100
AcDbVertex
100
AcDb2dVertex
 10
26.17504223930859
 20
63.72357857465044
 30
0.0
  0
VERTEX
  5
1BF
330
1AE
100
AcDbEntity
  8
Visible (ANSI)
100
AcDbVertex
100
AcDb2dVertex
 10
26.18085869638305
 20
63.72569017479039
 30
0.0
  0
VERTEX
  5
1C0
330
1AE
100
AcDbEntity
  8
Visible (ANSI)
100
AcDbVertex
100
AcDb2dVertex
 10
26.18693530191891
 20
63.72780177493034
 30
0.0
  0
VERTEX
  5
1C1
330
1AE
100
AcDbEntity
  8
Visible (ANSI)
100
AcDbVertex
100
AcDb2dVertex
 10
26.19324603168349
 20
63.7299148769196
 30
0.0
  0
VERTEX
  5
1C2
330
1AE
100
AcDbEntity
  8
Visible (ANSI)
100
AcDbVertex
100
AcDb2dVertex
 10
26.19976386998887
 20
63.73202647705955
 30
0.0
  0
VERTEX
  5
1C3
330
1AE
100
AcDbEntity
  8
Visible (ANSI)
100
AcDbVertex
100
AcDb2dVertex
 10
26.2064608976909
 20
63.7341380771995
 30
0.0
  0
VERTEX
  5
1C4
330
1AE
100
AcDbEntity
  8
Visible (ANSI)
100
AcDbVertex
100
AcDb2dVertex
 10
26.21330843885419
 20
63.73625117918876
 30
0.0
  0
VERTEX
  5
1C5
330
1AE
100
AcDbEntity
  8
Visible (ANSI)
100
AcDbVertex
100
AcDb2dVertex
 10
26.22027717221745
 20
63.73836277932871
 30
0.0
  0
VERTEX
  5
1C6
330
1AE
100
AcDbEntity
  8
Visible (ANSI)
100
AcDbVertex
100
AcDb2dVertex
 10
26.22733726025871
 20
63.74047588131798
 30
0.0
  0
VERTEX
  5
1C7
330
1AE
100
AcDbEntity
  8
Visible (ANSI)
100
AcDbVertex
100
AcDb2dVertex
 10
26.23445847239386
 20
63.74258748145792
 30
0.0
  0
VERTEX
  5
1C8
330
1AE
100
AcDbEntity
  8
Visible (ANSI)
100
AcDbVertex
100
AcDb2dVertex
 10
26.24161030230864
 20
63.74469908159788
 30
0.0
  0
SEQEND
  5
1B1
330
1AE
100
AcDbEntity
  8
Visible (ANSI)
  0
POLYLINE
  5
1C9
330
6C
100
AcDbEntity
  8
Visible (ANSI)
100
AcDb2dPolyline
 66
     1
 10
0.0
 20
0.0
 30
0.0
 70
   128
  0
VERTEX
  5
1CA
330
1C9
100
AcDbEntity
  8
Visible (ANSI)
100
AcDbVertex
100
AcDb2dVertex
 10
58.02291017215386
 20
39.0833994953018
 30
0.0
  0
VERTEX
  5
1CB
330
1C9
100
AcDbEntity
  8
Visible (ANSI)
100
AcDbVertex
100
AcDb2dVertex
 10
58.02079857201392
 20
39.07624766538701
 30
0.0
  0
VERTEX
  5
1CD
330
1C9
100
AcDbEntity
  8
Visible (ANSI)
100
AcDbVertex
100
AcDb2dVertex
 10
58.01868697187398
 20
39.06912645325187
 30
0.0
  0
VERTEX
  5
1CE
330
1C9
100
AcDbEntity
  8
Visible (ANSI)
100
AcDbVertex
100
AcDb2dVertex
 10
58.01657537173402
 20
39.06206636521061
 30
0.0
  0
VERTEX
  5
1CF
330
1C9
100
AcDbEntity
  8
Visible (ANSI)
100
AcDbVertex
100
AcDb2dVertex
 10
58.01446076789544
 20
39.05509763184734
 30
0.0
  0
VERTEX
  5
1D0
330
1C9
100
AcDbEntity
  8
Visible (ANSI)
100
AcDbVertex
100
AcDb2dVertex
 10
58.0123491677555
 20
39.04825009068405
 30
0.0
  0
VERTEX
  5
1D1
330
1C9
100
AcDbEntity
  8
Visible (ANSI)
100
AcDbVertex
100
AcDb2dVertex
 10
58.01023756761555
 20
39.04155306298202
 30
0.0
  0
VERTEX
  5
1D2
330
1C9
100
AcDbEntity
  8
Visible (ANSI)
100
AcDbVertex
100
AcDb2dVertex
 10
58.0081259674756
 20
39.03503522467665
 30
0.0
  0
VERTEX
  5
1D3
330
1C9
100
AcDbEntity
  8
Visible (ANSI)
100
AcDbVertex
100
AcDb2dVertex
 10
58.00601436733565
 20
39.02872449491207
 30
0.0
  0
VERTEX
  5
1D4
330
1C9
100
AcDbEntity
  8
Visible (ANSI)
100
AcDbVertex
100
AcDb2dVertex
 10
58.00389976349706
 20
39.0226478893762
 30
0.0
  0
VERTEX
  5
1D5
330
1C9
100
AcDbEntity
  8
Visible (ANSI)
100
AcDbVertex
100
AcDb2dVertex
 10
58.00178816335712
 20
39.01683143230174
 30
0.0
  0
VERTEX
  5
1D6
330
1C9
100
AcDbEntity
  8
Visible (ANSI)
100
AcDbVertex
100
AcDb2dVertex
 10
57.99967656321716
 20
39.0113000303343
 30
0.0
  0
VERTEX
  5
1D7
330
1C9
100
AcDbEntity
  8
Visible (ANSI)
100
AcDbVertex
100
AcDb2dVertex
 10
57.99756496307722
 20
39.00607736693363
 30
0.0
  0
VERTEX
  5
1D8
330
1C9
100
AcDbEntity
  8
Visible (ANSI)
100
AcDbVertex
100
AcDb2dVertex
 10
57.99545336293729
 20
39.00118581144129
 30
0.0
  0
VERTEX
  5
1D9
330
1C9
100
AcDbEntity
  8
Visible (ANSI)
100
AcDbVertex
100
AcDb2dVertex
 10
57.99334176279732
 20
38.99664630614871
 30
0.0
  0
VERTEX
  5
1DA
330
1C9
100
AcDbEntity
  8
Visible (ANSI)
100
AcDbVertex
100
AcDb2dVertex
 10
57.99122715895874
 20
38.99247829296462
 30
0.0
  0
VERTEX
  5
1DB
330
1C9
100
AcDbEntity
  8
Visible (ANSI)
100
AcDbVertex
100
AcDb2dVertex
 10
57.9891155588188
 20
38.98869961661621
 30
0.0
  0
VERTEX
  5
1DC
330
1C9
100
AcDbEntity
  8
Visible (ANSI)
100
AcDbVertex
100
AcDb2dVertex
 10
57.98700395867885
 20
38.98532646011654
 30
0.0
  0
VERTEX
  5
1DD
330
1C9
100
AcDbEntity
  8
Visible (ANSI)
100
AcDbVertex
100
AcDb2dVertex
 10
57.9848923585389
 20
38.9823732677654
 30
0.0
  0
VERTEX
  5
1DE
330
1C9
100
AcDbEntity
  8
Visible (ANSI)
100
AcDbVertex
100
AcDb2dVertex
 10
57.98278075839895
 20
38.97985268501672
 30
0.0
  0
VERTEX
  5
1DF
330
1C9
100
AcDbEntity
  8
Visible (ANSI)
100
AcDbVertex
100
AcDb2dVertex
 10
57.98066615456036
 20
38.97777550531247
 30
0.0
  0
VERTEX
  5
1E0
330
1C9
100
AcDbEntity
  8
Visible (ANSI)
100
AcDbVertex
100
AcDb2dVertex
 10
57.97855455442042
 20
38.97615062406658
 30
0.0
  0
VERTEX
  5
1E1
330
1C9
100
AcDbEntity
  8
Visible (ANSI)
100
AcDbVertex
100
AcDb2dVertex
 10
57.97644295428046
 20
38.97498499897364
 30
0.0
  0
VERTEX
  5
1E2
330
1C9
100
AcDbEntity
  8
Visible (ANSI)
100
AcDbVertex
100
AcDb2dVertex
 10
57.97433135414053
 20
38.97428362127185
 30
0.0
  0
VERTEX
  5
1E3
330
1C9
100
AcDbEntity
  8
Visible (ANSI)
100
AcDbVertex
100
AcDb2dVertex
 10
57.97221975400058
 20
38.97404949452234
 30
0.0
  0
SEQEND
  5
1CC
330
1C9
100
AcDbEntity
  8
Visible (ANSI)
  0
POLYLINE
  5
1E4
330
6C
100
AcDbEntity
  8
Visible (ANSI)
100
AcDb2dPolyline
 66
     1
 10
0.0
 20
0.0
 30
0.0
 70
   128
  0
VERTEX
  5
1E5
330
1E4
100
AcDbEntity
  8
Visible (ANSI)
100
AcDbVertex
100
AcDb2dVertex
 10
26.29230156525218
 20
38.97404949452234
 30
0.0
  0
VERTEX
  5
1E6
330
1E4
100
AcDbEntity
  8
Visible (ANSI)
100
AcDbVertex
100
AcDb2dVertex
 10
26.29018942538513
 20
38.97428362127185
 30
0.0
  0
VERTEX
  5
1E8
330
1E4
100
AcDbEntity
  8
Visible (ANSI)
100
AcDbVertex
100
AcDb2dVertex
 10
26.28807728551809
 20
38.97498499897364
 30
0.0
  0
VERTEX
  5
1E9
330
1E4
100
AcDbEntity
  8
Visible (ANSI)
100
AcDbVertex
100
AcDb2dVertex
 10
26.28596515738424
 20
38.97615062406658
 30
0.0
  0
VERTEX
  5
1EA
330
1E4
100
AcDbEntity
  8
Visible (ANSI)
100
AcDbVertex
100
AcDb2dVertex
 10
26.28385301751719
 20
38.97777550531247
 30
0.0
  0
VERTEX
  5
1EB
330
1E4
100
AcDbEntity
  8
Visible (ANSI)
100
AcDbVertex
100
AcDb2dVertex
 10
26.28174087765014
 20
38.97985268501672
 30
0.0
  0
VERTEX
  5
1EC
330
1E4
100
AcDbEntity
  8
Visible (ANSI)
100
AcDbVertex
100
AcDb2dVertex
 10
26.27962874951629
 20
38.9823732677654
 30
0.0
  0
VERTEX
  5
1ED
330
1E4
100
AcDbEntity
  8
Visible (ANSI)
100
AcDbVertex
100
AcDb2dVertex
 10
26.27751660964925
 20
38.98532646011654
 30
0.0
  0
VERTEX
  5
1EE
330
1E4
100
AcDbEntity
  8
Visible (ANSI)
100
AcDbVertex
100
AcDb2dVertex
 10
26.2754044697822
 20
38.98869961661621
 30
0.0
  0
VERTEX
  5
1EF
330
1E4
100
AcDbEntity
  8
Visible (ANSI)
100
AcDbVertex
100
AcDb2dVertex
 10
26.27329234164835
 20
38.99247829296462
 30
0.0
  0
VERTEX
  5
1F0
330
1E4
100
AcDbEntity
  8
Visible (ANSI)
100
AcDbVertex
100
AcDb2dVertex
 10
26.27118020178131
 20
38.99664630614871
 30
0.0
  0
VERTEX
  5
1F1
330
1E4
100
AcDbEntity
  8
Visible (ANSI)
100
AcDbVertex
100
AcDb2dVertex
 10
26.26906806191426
 20
39.00118581144129
 30
0.0
  0
VERTEX
  5
1F2
330
1E4
100
AcDbEntity
  8
Visible (ANSI)
100
AcDbVertex
100
AcDb2dVertex
 10
26.26695593378042
 20
39.00607736693363
 30
0.0
  0
VERTEX
  5
1F3
330
1E4
100
AcDbEntity
  8
Visible (ANSI)
100
AcDbVertex
100
AcDb2dVertex
 10
26.26484379391337
 20
39.0113000303343
 30
0.0
  0
VERTEX
  5
1F4
330
1E4
100
AcDbEntity
  8
Visible (ANSI)
100
AcDbVertex
100
AcDb2dVertex
 10
26.26273166577951
 20
39.01683143230174
 30
0.0
  0
VERTEX
  5
1F5
330
1E4
100
AcDbEntity
  8
Visible (ANSI)
100
AcDbVertex
100
AcDb2dVertex
 10
26.26061952591247
 20
39.0226478893762
 30
0.0
  0
VERTEX
  5
1F6
330
1E4
100
AcDbEntity
  8
Visible (ANSI)
100
AcDbVertex
100
AcDb2dVertex
 10
26.25850738604543
 20
39.02872449491207
 30
0.0
  0
VERTEX
  5
1F7
330
1E4
100
AcDbEntity
  8
Visible (ANSI)
100
AcDbVertex
100
AcDb2dVertex
 10
26.25639525791157
 20
39.03503522467665
 30
0.0
  0
VERTEX
  5
1F8
330
1E4
100
AcDbEntity
  8
Visible (ANSI)
100
AcDbVertex
100
AcDb2dVertex
 10
26.25428311804453
 20
39.04155306298202
 30
0.0
  0
VERTEX
  5
1F9
330
1E4
100
AcDbEntity
  8
Visible (ANSI)
100
AcDbVertex
100
AcDb2dVertex
 10
26.25217097817748
 20
39.04825009068405
 30
0.0
  0
VERTEX
  5
1FA
330
1E4
100
AcDbEntity
  8
Visible (ANSI)
100
AcDbVertex
100
AcDb2dVertex
 10
26.25005885004363
 20
39.05509763184734
 30
0.0
  0
VERTEX
  5
1FB
330
1E4
100
AcDbEntity
  8
Visible (ANSI)
100
AcDbVertex
100
AcDb2dVertex
 10
26.24794671017658
 20
39.06206636521061
 30
0.0
  0
VERTEX
  5
1FC
330
1E4
100
AcDbEntity
  8
Visible (ANSI)
100
AcDbVertex
100
AcDb2dVertex
 10
26.24583457030954
 20
39.06912645325187
 30
0.0
  0
VERTEX
  5
1FD
330
1E4
100
AcDbEntity
  8
Visible (ANSI)
100
AcDbVertex
100
AcDb2dVertex
 10
26.24372244217569
 20
39.07624766538701
 30
0.0
  0
VERTEX
  5
1FE
330
1E4
100
AcDbEntity
  8
Visible (ANSI)
100
AcDbVertex
100
AcDb2dVertex
 10
26.24161030230864
 20
39.0833994953018
 30
0.0
  0
SEQEND
  5
1E7
330
1E4
100
AcDbEntity
  8
Visible (ANSI)
  0
LINE
  5
1FF
330
6C
100
AcDbEntity
  8
Hidden (ANSI)
 48
0.0177565310150385
100
AcDbLine
 10
58.0385103015292
 20
39.13409075525858
 30
0.0
 11
58.1322603015292
 21
39.13409075525858
 31
0.0
  0
POLYLINE
  5
200
330
6C
100
AcDbEntity
  8
Hidden (ANSI)
 48
0.0106237288564444
100
AcDb2dPolyline
 66
     1
 10
0.0
 20
0.0
 30
0.0
 70
   128
  0
VERTEX
  5
201
330
200
100
AcDbEntity
  8
Hidden (ANSI)
 48
0.0106237288564444
100
AcDbVertex
100
AcDb2dVertex
 10
58.02291017215386
 20
39.0833994953018
 30
0.0
  0
VERTEX
  5
202
330
200
100
AcDbEntity
  8
Hidden (ANSI)
 48
0.0106237288564444
100
AcDbVertex
100
AcDb2dVertex
 10
58.02393142968955
 20
39.08551163516884
 30
0.0
  0
VERTEX
  5
204
330
200
100
AcDbEntity
  8
Hidden (ANSI)
 48
0.0106237288564444
100
AcDbVertex
100
AcDb2dVertex
 10
58.02494667982796
 20
39.08762376330269
 30
0.0
  0
VERTEX
  5
205
330
200
100
AcDbEntity
  8
Hidden (ANSI)
 48
0.0106237288564444
100
AcDbVertex
100
AcDb2dVertex
 10
58.02595291887048
 20
39.08973590316974
 30
0.0
  0
VERTEX
  5
206
330
200
100
AcDbEntity
  8
Hidden (ANSI)
 48
0.0106237288564444
100
AcDbVertex
100
AcDb2dVertex
 10
58.02694714311844
 20
39.09184804303679
 30
0.0
  0
VERTEX
  5
207
330
200
100
AcDbEntity
  8
Hidden (ANSI)
 48
0.0106237288564444
100
AcDbVertex
100
AcDb2dVertex
 10
58.02792334517461
 20
39.09396017117064
 30
0.0
  0
VERTEX
  5
208
330
200
100
AcDbEntity
  8
Hidden (ANSI)
 48
0.0106237288564444
100
AcDbVertex
100
AcDb2dVertex
 10
58.02888152503896
 20
39.09607231103768
 30
0.0
  0
VERTEX
  5
209
330
200
100
AcDbEntity
  8
Hidden (ANSI)
 48
0.0106237288564444
100
AcDbVertex
100
AcDb2dVertex
 10
58.02980966791697
 20
39.09818445090473
 30
0.0
  0
VERTEX
  5
20A
330
200
100
AcDbEntity
  8
Hidden (ANSI)
 48
0.0106237288564444
100
AcDbVertex
100
AcDb2dVertex
 10
58.03071077750728
 20
39.10029657903858
 30
0.0
  0
VERTEX
  5
20B
330
200
100
AcDbEntity
  8
Hidden (ANSI)
 48
0.0106237288564444
100
AcDbVertex
100
AcDb2dVertex
 10
58.03157584271397
 20
39.10240871890562
 30
0.0
  0
VERTEX
  5
20C
330
200
100
AcDbEntity
  8
Hidden (ANSI)
 48
0.0106237288564444
100
AcDbVertex
100
AcDb2dVertex
 10
58.03240786723569
 20
39.10452085877267
 30
0.0
  0
VERTEX
  5
20D
330
200
100
AcDbEntity
  8
Hidden (ANSI)
 48
0.0106237288564444
100
AcDbVertex
100
AcDb2dVertex
 10
58.03319483627789
 20
39.10663298690652
 30
0.0
  0
VERTEX
  5
20E
330
200
100
AcDbEntity
  8
Hidden (ANSI)
 48
0.0106237288564444
100
AcDbVertex
100
AcDb2dVertex
 10
58.0339397535392
 20
39.10874512677356
 30
0.0
  0
VERTEX
  5
20F
330
200
100
AcDbEntity
  8
Hidden (ANSI)
 48
0.0106237288564444
100
AcDbVertex
100
AcDb2dVertex
 10
58.034639615321
 20
39.11085725490742
 30
0.0
  0
VERTEX
  5
210
330
200
100
AcDbEntity
  8
Hidden (ANSI)
 48
0.0106237288564444
100
AcDbVertex
100
AcDb2dVertex
 10
58.03528541052739
 20
39.11296939477447
 30
0.0
  0
VERTEX
  5
211
330
200
100
AcDbEntity
  8
Hidden (ANSI)
 48
0.0106237288564444
100
AcDbVertex
100
AcDb2dVertex
 10
58.03588014285701
 20
39.11508153464151
 30
0.0
  0
VERTEX
  5
212
330
200
100
AcDbEntity
  8
Hidden (ANSI)
 48
0.0106237288564444
100
AcDbVertex
100
AcDb2dVertex
 10
58.03642080861118
 20
39.11719366277536
 30
0.0
  0
VERTEX
  5
213
330
200
100
AcDbEntity
  8
Hidden (ANSI)
 48
0.0106237288564444
100
AcDbVertex
100
AcDb2dVertex
 10
58.03690140039268
 20
39.1193058026424
 30
0.0
  0
VERTEX
  5
214
330
200
100
AcDbEntity
  8
Hidden (ANSI)
 48
0.0106237288564444
100
AcDbVertex
100
AcDb2dVertex
 10
58.03732191820149
 20
39.12141794250945
 30
0.0
  0
VERTEX
  5
215
330
200
100
AcDbEntity
  8
Hidden (ANSI)
 48
0.0106237288564444
100
AcDbVertex
100
AcDb2dVertex
 10
58.03768236203761
 20
39.1235300706433
 30
0.0
  0
VERTEX
  5
216
330
200
100
AcDbEntity
  8
Hidden (ANSI)
 48
0.0106237288564444
100
AcDbVertex
100
AcDb2dVertex
 10
58.03797972820241
 20
39.12564221051035
 30
0.0
  0
VERTEX
  5
217
330
200
100
AcDbEntity
  8
Hidden (ANSI)
 48
0.0106237288564444
100
AcDbVertex
100
AcDb2dVertex
 10
58.03821101299726
 20
39.12775435037739
 30
0.0
  0
VERTEX
  5
218
330
200
100
AcDbEntity
  8
Hidden (ANSI)
 48
0.0106237288564444
100
AcDbVertex
100
AcDb2dVertex
 10
58.03837621642215
 20
39.12986647851124
 30
0.0
  0
VERTEX
  5
219
330
200
100
AcDbEntity
  8
Hidden (ANSI)
 48
0.0106237288564444
100
AcDbVertex
100
AcDb2dVertex
 10
58.03847834217571
 20
39.13197861837828
 30
0.0
  0
VERTEX
  5
21A
330
200
100
AcDbEntity
  8
Hidden (ANSI)
 48
0.0106237288564444
100
AcDbVertex
100
AcDb2dVertex
 10
58.03851138286069
 20
39.13409075824534
 30
0.0
  0
SEQEND
  5
203
330
200
100
AcDbEntity
  8
Hidden (ANSI)
 48
0.0106237288564444
  0
LINE
  5
21B
330
6C
100
AcDbEntity
  8
Hidden (ANSI)
 48
0.0177565310150385
100
AcDbLine
 10
58.03851030152918
 20
63.6940082337861
 30
0.0
 11
58.13226030152918
 21
63.6940082337861
 31
0.0
  0
POLYLINE
  5
21C
330
6C
100
AcDbEntity
  8
Hidden (ANSI)
 48
0.0106235845014453
100
AcDb2dPolyline
 66
     1
 10
0.0
 20
0.0
 30
0.0
 70
   128
  0
VERTEX
  5
21D
330
21C
100
AcDbEntity
  8
Hidden (ANSI)
 48
0.0106235845014453
100
AcDbVertex
100
AcDb2dVertex
 10
58.02291017215386
 20
63.74469908159788
 30
0.0
  0
VERTEX
  5
21E
330
21C
100
AcDbEntity
  8
Hidden (ANSI)
 48
0.0106235845014453
100
AcDbVertex
100
AcDb2dVertex
 10
58.02393142968955
 20
63.74258748145792
 30
0.0
  0
VERTEX
  5
220
330
21C
100
AcDbEntity
  8
Hidden (ANSI)
 48
0.0106235845014453
100
AcDbVertex
100
AcDb2dVertex
 10
58.02494667982796
 20
63.74047588131798
 30
0.0
  0
VERTEX
  5
221
330
21C
100
AcDbEntity
  8
Hidden (ANSI)
 48
0.0106235845014453
100
AcDbVertex
100
AcDb2dVertex
 10
58.02595291887048
 20
63.73836277932871
 30
0.0
  0
VERTEX
  5
222
330
21C
100
AcDbEntity
  8
Hidden (ANSI)
 48
0.0106235845014453
100
AcDbVertex
100
AcDb2dVertex
 10
58.02694714311844
 20
63.73625117918876
 30
0.0
  0
VERTEX
  5
223
330
21C
100
AcDbEntity
  8
Hidden (ANSI)
 48
0.0106235845014453
100
AcDbVertex
100
AcDb2dVertex
 10
58.02792334517461
 20
63.7341380771995
 30
0.0
  0
VERTEX
  5
224
330
21C
100
AcDbEntity
  8
Hidden (ANSI)
 48
0.0106235845014453
100
AcDbVertex
100
AcDb2dVertex
 10
58.02888152503896
 20
63.73202647705955
 30
0.0
  0
VERTEX
  5
225
330
21C
100
AcDbEntity
  8
Hidden (ANSI)
 48
0.0106235845014453
100
AcDbVertex
100
AcDb2dVertex
 10
58.02980966791697
 20
63.7299148769196
 30
0.0
  0
VERTEX
  5
226
330
21C
100
AcDbEntity
  8
Hidden (ANSI)
 48
0.0106235845014453
100
AcDbVertex
100
AcDb2dVertex
 10
58.03071077750728
 20
63.72780177493034
 30
0.0
  0
VERTEX
  5
227
330
21C
100
AcDbEntity
  8
Hidden (ANSI)
 48
0.0106235845014453
100
AcDbVertex
100
AcDb2dVertex
 10
58.03157584271397
 20
63.72569017479039
 30
0.0
  0
VERTEX
  5
228
330
21C
100
AcDbEntity
  8
Hidden (ANSI)
 48
0.0106235845014453
100
AcDbVertex
100
AcDb2dVertex
 10
58.03240786723569
 20
63.72357857465044
 30
0.0
  0
VERTEX
  5
229
330
21C
100
AcDbEntity
  8
Hidden (ANSI)
 48
0.0106235845014453
100
AcDbVertex
100
AcDb2dVertex
 10
58.03319483627789
 20
63.72146547266118
 30
0.0
  0
VERTEX
  5
22A
330
21C
100
AcDbEntity
  8
Hidden (ANSI)
 48
0.0106235845014453
100
AcDbVertex
100
AcDb2dVertex
 10
58.0339397535392
 20
63.71935387252122
 30
0.0
  0
VERTEX
  5
22B
330
21C
100
AcDbEntity
  8
Hidden (ANSI)
 48
0.0106235845014453
100
AcDbVertex
100
AcDb2dVertex
 10
58.034639615321
 20
63.71724227238128
 30
0.0
  0
VERTEX
  5
22C
330
21C
100
AcDbEntity
  8
Hidden (ANSI)
 48
0.0106235845014453
100
AcDbVertex
100
AcDb2dVertex
 10
58.03528541052739
 20
63.71512917039201
 30
0.0
  0
VERTEX
  5
22D
330
21C
100
AcDbEntity
  8
Hidden (ANSI)
 48
0.0106235845014453
100
AcDbVertex
100
AcDb2dVertex
 10
58.03588014285701
 20
63.71301757025207
 30
0.0
  0
VERTEX
  5
22E
330
21C
100
AcDbEntity
  8
Hidden (ANSI)
 48
0.0106235845014453
100
AcDbVertex
100
AcDb2dVertex
 10
58.03642080861118
 20
63.7109059701121
 30
0.0
  0
VERTEX
  5
22F
330
21C
100
AcDbEntity
  8
Hidden (ANSI)
 48
0.0106235845014453
100
AcDbVertex
100
AcDb2dVertex
 10
58.03690140039268
 20
63.70879286812286
 30
0.0
  0
VERTEX
  5
230
330
21C
100
AcDbEntity
  8
Hidden (ANSI)
 48
0.0106235845014453
100
AcDbVertex
100
AcDb2dVertex
 10
58.03732191820149
 20
63.7066812679829
 30
0.0
  0
VERTEX
  5
231
330
21C
100
AcDbEntity
  8
Hidden (ANSI)
 48
0.0106235845014453
100
AcDbVertex
100
AcDb2dVertex
 10
58.03768236203761
 20
63.70456816599364
 30
0.0
  0
VERTEX
  5
232
330
21C
100
AcDbEntity
  8
Hidden (ANSI)
 48
0.0106235845014453
100
AcDbVertex
100
AcDb2dVertex
 10
58.03797972820241
 20
63.70245656585368
 30
0.0
  0
VERTEX
  5
233
330
21C
100
AcDbEntity
  8
Hidden (ANSI)
 48
0.0106235845014453
100
AcDbVertex
100
AcDb2dVertex
 10
58.03821101299726
 20
63.70034496571374
 30
0.0
  0
VERTEX
  5
234
330
21C
100
AcDbEntity
  8
Hidden (ANSI)
 48
0.0106235845014453
100
AcDbVertex
100
AcDb2dVertex
 10
58.03837621642215
 20
63.69823186372448
 30
0.0
  0
VERTEX
  5
235
330
21C
100
AcDbEntity
  8
Hidden (ANSI)
 48
0.0106235845014453
100
AcDbVertex
100
AcDb2dVertex
 10
58.03847834217571
 20
63.69612026358452
 30
0.0
  0
VERTEX
  5
236
330
21C
100
AcDbEntity
  8
Hidden (ANSI)
 48
0.0106235845014453
100
AcDbVertex
100
AcDb2dVertex
 10
58.03851138286069
 20
63.69400866344458
 30
0.0
  0
SEQEND
  5
21F
330
21C
100
AcDbEntity
  8
Hidden (ANSI)
 48
0.0106235845014453
  0
LINE
  5
237
330
6C
100
AcDbEntity
  8
Hidden (ANSI)
 48
0.0177565310150385
100
AcDbLine
 10
57.97221904079293
 20
63.76029949452235
 30
0.0
 11
57.97221904079293
 21
63.85404949452233
 31
0.0
  0
POLYLINE
  5
238
330
6C
100
AcDbEntity
  8
Hidden (ANSI)
 48
0.010623618029058
100
AcDb2dPolyline
 66
     1
 10
0.0
 20
0.0
 30
0.0
 70
   128
  0
VERTEX
  5
239
330
238
100
AcDbEntity
  8
Hidden (ANSI)
 48
0.010623618029058
100
AcDbVertex
100
AcDb2dVertex
 10
58.02291017215386
 20
63.74469908159788
 30
0.0
  0
VERTEX
  5
23A
330
238
100
AcDbEntity
  8
Hidden (ANSI)
 48
0.010623618029058
100
AcDbVertex
100
AcDb2dVertex
 10
58.02079857201392
 20
63.74572033913356
 30
0.0
  0
VERTEX
  5
23C
330
238
100
AcDbEntity
  8
Hidden (ANSI)
 48
0.010623618029058
100
AcDbVertex
100
AcDb2dVertex
 10
58.01868697187398
 20
63.74673558927196
 30
0.0
  0
VERTEX
  5
23D
330
238
100
AcDbEntity
  8
Hidden (ANSI)
 48
0.010623618029058
100
AcDbVertex
100
AcDb2dVertex
 10
58.01657537173402
 20
63.74774333016379
 30
0.0
  0
VERTEX
  5
23E
330
238
100
AcDbEntity
  8
Hidden (ANSI)
 48
0.010623618029058
100
AcDbVertex
100
AcDb2dVertex
 10
58.01446076789544
 20
63.74873755441175
 30
0.0
  0
VERTEX
  5
23F
330
238
100
AcDbEntity
  8
Hidden (ANSI)
 48
0.010623618029058
100
AcDbVertex
100
AcDb2dVertex
 10
58.0123491677555
 20
63.74971375646792
 30
0.0
  0
VERTEX
  5
240
330
238
100
AcDbEntity
  8
Hidden (ANSI)
 48
0.010623618029058
100
AcDbVertex
100
AcDb2dVertex
 10
58.01023756761555
 20
63.75066893263365
 30
0.0
  0
VERTEX
  5
241
330
238
100
AcDbEntity
  8
Hidden (ANSI)
 48
0.010623618029058
100
AcDbVertex
100
AcDb2dVertex
 10
58.0081259674756
 20
63.75159857736097
 30
0.0
  0
VERTEX
  5
242
330
238
100
AcDbEntity
  8
Hidden (ANSI)
 48
0.010623618029058
100
AcDbVertex
100
AcDb2dVertex
 10
58.00601436733565
 20
63.75249968695128
 30
0.0
  0
VERTEX
  5
243
330
238
100
AcDbEntity
  8
Hidden (ANSI)
 48
0.010623618029058
100
AcDbVertex
100
AcDb2dVertex
 10
58.00389976349706
 20
63.75336625400729
 30
0.0
  0
VERTEX
  5
244
330
238
100
AcDbEntity
  8
Hidden (ANSI)
 48
0.010623618029058
100
AcDbVertex
100
AcDb2dVertex
 10
58.00178816335712
 20
63.75419677667968
 30
0.0
  0
VERTEX
  5
245
330
238
100
AcDbEntity
  8
Hidden (ANSI)
 48
0.010623618029058
100
AcDbVertex
100
AcDb2dVertex
 10
57.99967656321716
 20
63.7549852475712
 30
0.0
  0
VERTEX
  5
246
330
238
100
AcDbEntity
  8
Hidden (ANSI)
 48
0.010623618029058
100
AcDbVertex
100
AcDb2dVertex
 10
57.99756496307722
 20
63.75573016483253
 30
0.0
  0
VERTEX
  5
247
330
238
100
AcDbEntity
  8
Hidden (ANSI)
 48
0.010623618029058
100
AcDbVertex
100
AcDb2dVertex
 10
57.99545336293729
 20
63.75642852476502
 30
0.0
  0
VERTEX
  5
248
330
238
100
AcDbEntity
  8
Hidden (ANSI)
 48
0.010623618029058
100
AcDbVertex
100
AcDb2dVertex
 10
57.99334176279732
 20
63.75707582182071
 30
0.0
  0
VERTEX
  5
249
330
238
100
AcDbEntity
  8
Hidden (ANSI)
 48
0.010623618029058
100
AcDbVertex
100
AcDb2dVertex
 10
57.99122715895874
 20
63.75767055415032
 30
0.0
  0
VERTEX
  5
24A
330
238
100
AcDbEntity
  8
Hidden (ANSI)
 48
0.010623618029058
100
AcDbVertex
100
AcDb2dVertex
 10
57.9891155588188
 20
63.75820971805518
 30
0.0
  0
VERTEX
  5
24B
330
238
100
AcDbEntity
  8
Hidden (ANSI)
 48
0.010623618029058
100
AcDbVertex
100
AcDb2dVertex
 10
57.98700395867885
 20
63.75869030983668
 30
0.0
  0
VERTEX
  5
24C
330
238
100
AcDbEntity
  8
Hidden (ANSI)
 48
0.010623618029058
100
AcDbVertex
100
AcDb2dVertex
 10
57.9848923585389
 20
63.75911232949481
 30
0.0
  0
VERTEX
  5
24D
330
238
100
AcDbEntity
  8
Hidden (ANSI)
 48
0.010623618029058
100
AcDbVertex
100
AcDb2dVertex
 10
57.98278075839895
 20
63.75947127148161
 30
0.0
  0
VERTEX
  5
24E
330
238
100
AcDbEntity
  8
Hidden (ANSI)
 48
0.010623618029058
100
AcDbVertex
100
AcDb2dVertex
 10
57.98066615456036
 20
63.75976863764641
 30
0.0
  0
VERTEX
  5
24F
330
238
100
AcDbEntity
  8
Hidden (ANSI)
 48
0.010623618029058
100
AcDbVertex
100
AcDb2dVertex
 10
57.97855455442042
 20
63.75999992244126
 30
0.0
  0
VERTEX
  5
250
330
238
100
AcDbEntity
  8
Hidden (ANSI)
 48
0.010623618029058
100
AcDbVertex
100
AcDb2dVertex
 10
57.97644295428046
 20
63.76016662771545
 30
0.0
  0
VERTEX
  5
251
330
238
100
AcDbEntity
  8
Hidden (ANSI)
 48
0.010623618029058
100
AcDbVertex
100
AcDb2dVertex
 10
57.97433135414053
 20
63.76026574977039
 30
0.0
  0
VERTEX
  5
252
330
238
100
AcDbEntity
  8
Hidden (ANSI)
 48
0.010623618029058
100
AcDbVertex
100
AcDb2dVertex
 10
57.97221975400058
 20
63.76029879045538
 30
0.0
  0
SEQEND
  5
23B
330
238
100
AcDbEntity
  8
Hidden (ANSI)
 48
0.010623618029058
  0
LINE
  5
253
330
6C
100
AcDbEntity
  8
Hidden (ANSI)
 48
0.0177565310150385
100
AcDbLine
 10
26.29230156226542
 20
63.76029949452233
 30
0.0
 11
26.29230156226542
 21
63.85404949452232
 31
0.0
  0
POLYLINE
  5
254
330
6C
100
AcDbEntity
  8
Hidden (ANSI)
 48
0.0106237633153796
100
AcDb2dPolyline
 66
     1
 10
0.0
 20
0.0
 30
0.0
 70
   128
  0
VERTEX
  5
255
330
254
100
AcDbEntity
  8
Hidden (ANSI)
 48
0.0106237633153796
100
AcDbVertex
100
AcDb2dVertex
 10
26.24161030230864
 20
63.74469908159788
 30
0.0
  0
VERTEX
  5
256
330
254
100
AcDbEntity
  8
Hidden (ANSI)
 48
0.0106237633153796
100
AcDbVertex
100
AcDb2dVertex
 10
26.24372244217569
 20
63.74572033913356
 30
0.0
  0
VERTEX
  5
258
330
254
100
AcDbEntity
  8
Hidden (ANSI)
 48
0.0106237633153796
100
AcDbVertex
100
AcDb2dVertex
 10
26.24583457030954
 20
63.74673558927196
 30
0.0
  0
VERTEX
  5
259
330
254
100
AcDbEntity
  8
Hidden (ANSI)
 48
0.0106237633153796
100
AcDbVertex
100
AcDb2dVertex
 10
26.24794671017658
 20
63.74774333016379
 30
0.0
  0
VERTEX
  5
25A
330
254
100
AcDbEntity
  8
Hidden (ANSI)
 48
0.0106237633153796
100
AcDbVertex
100
AcDb2dVertex
 10
26.25005885004363
 20
63.74873755441175
 30
0.0
  0
VERTEX
  5
25B
330
254
100
AcDbEntity
  8
Hidden (ANSI)
 48
0.0106237633153796
100
AcDbVertex
100
AcDb2dVertex
 10
26.25217097817748
 20
63.74971375646792
 30
0.0
  0
VERTEX
  5
25C
330
254
100
AcDbEntity
  8
Hidden (ANSI)
 48
0.0106237633153796
100
AcDbVertex
100
AcDb2dVertex
 10
26.25428311804453
 20
63.75066893263365
 30
0.0
  0
VERTEX
  5
25D
330
254
100
AcDbEntity
  8
Hidden (ANSI)
 48
0.0106237633153796
100
AcDbVertex
100
AcDb2dVertex
 10
26.25639525791157
 20
63.75159857736097
 30
0.0
  0
VERTEX
  5
25E
330
254
100
AcDbEntity
  8
Hidden (ANSI)
 48
0.0106237633153796
100
AcDbVertex
100
AcDb2dVertex
 10
26.25850738604543
 20
63.75249968695128
 30
0.0
  0
VERTEX
  5
25F
330
254
100
AcDbEntity
  8
Hidden (ANSI)
 48
0.0106237633153796
100
AcDbVertex
100
AcDb2dVertex
 10
26.26061952591247
 20
63.75336625400729
 30
0.0
  0
VERTEX
  5
260
330
254
100
AcDbEntity
  8
Hidden (ANSI)
 48
0.0106237633153796
100
AcDbVertex
100
AcDb2dVertex
 10
26.26273166577951
 20
63.75419677667968
 30
0.0
  0
VERTEX
  5
261
330
254
100
AcDbEntity
  8
Hidden (ANSI)
 48
0.0106237633153796
100
AcDbVertex
100
AcDb2dVertex
 10
26.26484379391337
 20
63.7549852475712
 30
0.0
  0
VERTEX
  5
262
330
254
100
AcDbEntity
  8
Hidden (ANSI)
 48
0.0106237633153796
100
AcDbVertex
100
AcDb2dVertex
 10
26.26695593378042
 20
63.75573016483253
 30
0.0
  0
VERTEX
  5
263
330
254
100
AcDbEntity
  8
Hidden (ANSI)
 48
0.0106237633153796
100
AcDbVertex
100
AcDb2dVertex
 10
26.26906806191426
 20
63.75642852476502
 30
0.0
  0
VERTEX
  5
264
330
254
100
AcDbEntity
  8
Hidden (ANSI)
 48
0.0106237633153796
100
AcDbVertex
100
AcDb2dVertex
 10
26.27118020178131
 20
63.75707582182071
 30
0.0
  0
VERTEX
  5
265
330
254
100
AcDbEntity
  8
Hidden (ANSI)
 48
0.0106237633153796
100
AcDbVertex
100
AcDb2dVertex
 10
26.27329234164835
 20
63.75767055415032
 30
0.0
  0
VERTEX
  5
266
330
254
100
AcDbEntity
  8
Hidden (ANSI)
 48
0.0106237633153796
100
AcDbVertex
100
AcDb2dVertex
 10
26.2754044697822
 20
63.75820971805518
 30
0.0
  0
VERTEX
  5
267
330
254
100
AcDbEntity
  8
Hidden (ANSI)
 48
0.0106237633153796
100
AcDbVertex
100
AcDb2dVertex
 10
26.27751660964925
 20
63.75869030983668
 30
0.0
  0
VERTEX
  5
268
330
254
100
AcDbEntity
  8
Hidden (ANSI)
 48
0.0106237633153796
100
AcDbVertex
100
AcDb2dVertex
 10
26.27962874951629
 20
63.75911232949481
 30
0.0
  0
VERTEX
  5
269
330
254
100
AcDbEntity
  8
Hidden (ANSI)
 48
0.0106237633153796
100
AcDbVertex
100
AcDb2dVertex
 10
26.28174087765014
 20
63.75947127148161
 30
0.0
  0
VERTEX
  5
26A
330
254
100
AcDbEntity
  8
Hidden (ANSI)
 48
0.0106237633153796
100
AcDbVertex
100
AcDb2dVertex
 10
26.28385301751719
 20
63.75976863764641
 30
0.0
  0
VERTEX
  5
26B
330
254
100
AcDbEntity
  8
Hidden (ANSI)
 48
0.0106237633153796
100
AcDbVertex
100
AcDb2dVertex
 10
26.28596515738424
 20
63.75999992244126
 30
0.0
  0
VERTEX
  5
26C
330
254
100
AcDbEntity
  8
Hidden (ANSI)
 48
0.0106237633153796
100
AcDbVertex
100
AcDb2dVertex
 10
26.28807728551809
 20
63.76016662771545
 30
0.0
  0
VERTEX
  5
26D
330
254
100
AcDbEntity
  8
Hidden (ANSI)
 48
0.0106237633153796
100
AcDbVertex
100
AcDb2dVertex
 10
26.29018942538513
 20
63.76026574977039
 30
0.0
  0
VERTEX
  5
26E
330
254
100
AcDbEntity
  8
Hidden (ANSI)
 48
0.0106237633153796
100
AcDbVertex
100
AcDb2dVertex
 10
26.29230156525218
 20
63.76029879045538
 30
0.0
  0
SEQEND
  5
257
330
254
100
AcDbEntity
  8
Hidden (ANSI)
 48
0.0106237633153796
  0
LINE
  5
26F
330
6C
100
AcDbEntity
  8
Hidden (ANSI)
 48
0.0177565310150385
100
AcDbLine
 10
26.22601030152918
 20
63.6940082337861
 30
0.0
 11
26.13226030152917
 21
63.6940082337861
 31
0.0
  0
POLYLINE
  5
270
330
6C
100
AcDbEntity
  8
Hidden (ANSI)
 48
0.0106235789135099
100
AcDb2dPolyline
 66
     1
 10
0.0
 20
0.0
 30
0.0
 70
   128
  0
VERTEX
  5
271
330
270
100
AcDbEntity
  8
Hidden (ANSI)
 48
0.0106235789135099
100
AcDbVertex
100
AcDb2dVertex
 10
26.24161030230864
 20
63.74469908159788
 30
0.0
  0
VERTEX
  5
272
330
270
100
AcDbEntity
  8
Hidden (ANSI)
 48
0.0106235789135099
100
AcDbVertex
100
AcDb2dVertex
 10
26.24059000689518
 20
63.74258748145792
 30
0.0
  0
VERTEX
  5
274
330
270
100
AcDbEntity
  8
Hidden (ANSI)
 48
0.0106235789135099
100
AcDbVertex
100
AcDb2dVertex
 10
26.2395740879645
 20
63.74047588131798
 30
0.0
  0
VERTEX
  5
275
330
270
100
AcDbEntity
  8
Hidden (ANSI)
 48
0.0106235789135099
100
AcDbVertex
100
AcDb2dVertex
 10
26.23856688679977
 20
63.73836277932871
 30
0.0
  0
VERTEX
  5
276
330
270
100
AcDbEntity
  8
Hidden (ANSI)
 48
0.0106235789135099
100
AcDbVertex
100
AcDb2dVertex
 10
26.23757272121779
 20
63.73625117918876
 30
0.0
  0
VERTEX
  5
277
330
270
100
AcDbEntity
  8
Hidden (ANSI)
 48
0.0106235789135099
100
AcDbVertex
100
AcDb2dVertex
 10
26.23659585036935
 20
63.7341380771995
 30
0.0
  0
VERTEX
  5
278
330
270
100
AcDbEntity
  8
Hidden (ANSI)
 48
0.0106235789135099
100
AcDbVertex
100
AcDb2dVertex
 10
26.23564043953968
 20
63.73202647705955
 30
0.0
  0
VERTEX
  5
279
330
270
100
AcDbEntity
  8
Hidden (ANSI)
 48
0.0106235789135099
100
AcDbVertex
100
AcDb2dVertex
 10
26.23471059534798
 20
63.7299148769196
 30
0.0
  0
VERTEX
  5
27A
330
270
100
AcDbEntity
  8
Hidden (ANSI)
 48
0.0106235789135099
100
AcDbVertex
100
AcDb2dVertex
 10
26.23381030708152
 20
63.72780177493034
 30
0.0
  0
VERTEX
  5
27B
330
270
100
AcDbEntity
  8
Hidden (ANSI)
 48
0.0106235789135099
100
AcDbVertex
100
AcDb2dVertex
 10
26.23294341149597
 20
63.72569017479039
 30
0.0
  0
VERTEX
  5
27C
330
270
100
AcDbEntity
  8
Hidden (ANSI)
 48
0.0106235789135099
100
AcDbVertex
100
AcDb2dVertex
 10
26.23211362801503
 20
63.72357857465044
 30
0.0
  0
VERTEX
  5
27D
330
270
100
AcDbEntity
  8
Hidden (ANSI)
 48
0.0106235789135099
100
AcDbVertex
100
AcDb2dVertex
 10
26.23132451179764
 20
63.72146547266118
 30
0.0
  0
VERTEX
  5
27E
330
270
100
AcDbEntity
  8
Hidden (ANSI)
 48
0.0106235789135099
100
AcDbVertex
100
AcDb2dVertex
 10
26.23057943613815
 20
63.71935387252122
 30
0.0
  0
VERTEX
  5
27F
330
270
100
AcDbEntity
  8
Hidden (ANSI)
 48
0.0106235789135099
100
AcDbVertex
100
AcDb2dVertex
 10
26.22988159833297
 20
63.71724227238128
 30
0.0
  0
VERTEX
  5
280
330
270
100
AcDbEntity
  8
Hidden (ANSI)
 48
0.0106235789135099
100
AcDbVertex
100
AcDb2dVertex
 10
26.22923399034752
 20
63.71512917039201
 30
0.0
  0
VERTEX
  5
281
330
270
100
AcDbEntity
  8
Hidden (ANSI)
 48
0.0106235789135099
100
AcDbVertex
100
AcDb2dVertex
 10
26.2286393753499
 20
63.71301757025207
 30
0.0
  0
VERTEX
  5
282
330
270
100
AcDbEntity
  8
Hidden (ANSI)
 48
0.0106235789135099
100
AcDbVertex
100
AcDb2dVertex
 10
26.22810030531061
 20
63.7109059701121
 30
0.0
  0
VERTEX
  5
283
330
270
100
AcDbEntity
  8
Hidden (ANSI)
 48
0.0106235789135099
100
AcDbVertex
100
AcDb2dVertex
 10
26.22761908580304
 20
63.70879286812286
 30
0.0
  0
VERTEX
  5
284
330
270
100
AcDbEntity
  8
Hidden (ANSI)
 48
0.0106235789135099
100
AcDbVertex
100
AcDb2dVertex
 10
26.22719778186997
 20
63.7066812679829
 30
0.0
  0
VERTEX
  5
285
330
270
100
AcDbEntity
  8
Hidden (ANSI)
 48
0.0106235789135099
100
AcDbVertex
100
AcDb2dVertex
 10
26.22683818869069
 20
63.70456816599364
 30
0.0
  0
VERTEX
  5
286
330
270
100
AcDbEntity
  8
Hidden (ANSI)
 48
0.0106235789135099
100
AcDbVertex
100
AcDb2dVertex
 10
26.2265418609139
 20
63.70245656585368
 30
0.0
  0
VERTEX
  5
287
330
270
100
AcDbEntity
  8
Hidden (ANSI)
 48
0.0106235789135099
100
AcDbVertex
100
AcDb2dVertex
 10
26.22631005399175
 20
63.70034496571374
 30
0.0
  0
VERTEX
  5
288
330
270
100
AcDbEntity
  8
Hidden (ANSI)
 48
0.0106235789135099
100
AcDbVertex
100
AcDb2dVertex
 10
26.22614375937946
 20
63.69823186372448
 30
0.0
  0
VERTEX
  5
289
330
270
100
AcDbEntity
  8
Hidden (ANSI)
 48
0.0106235789135099
100
AcDbVertex
100
AcDb2dVertex
 10
26.22604370453531
 20
63.69612026358452
 30
0.0
  0
VERTEX
  5
28A
330
270
100
AcDbEntity
  8
Hidden (ANSI)
 48
0.0106235789135099
100
AcDbVertex
100
AcDb2dVertex
 10
26.2260103001212
 20
63.69400866344458
 30
0.0
  0
SEQEND
  5
273
330
270
100
AcDbEntity
  8
Hidden (ANSI)
 48
0.0106235789135099
  0
LINE
  5
28B
330
6C
100
AcDbEntity
  8
Hidden (ANSI)
 48
0.0177565310150385
100
AcDbLine
 10
26.22601030152918
 20
39.13409075525858
 30
0.0
 11
26.13226030152918
 21
39.13409075525858
 31
0.0
  0
POLYLINE
  5
28C
330
6C
100
AcDbEntity
  8
Hidden (ANSI)
 48
0.0106237232685089
100
AcDb2dPolyline
 66
     1
 10
0.0
 20
0.0
 30
0.0
 70
   128
  0
VERTEX
  5
28D
330
28C
100
AcDbEntity
  8
Hidden (ANSI)
 48
0.0106237232685089
100
AcDbVertex
100
AcDb2dVertex
 10
26.24161030230864
 20
39.0833994953018
 30
0.0
  0
VERTEX
  5
28E
330
28C
100
AcDbEntity
  8
Hidden (ANSI)
 48
0.0106237232685089
100
AcDbVertex
100
AcDb2dVertex
 10
26.24059000689518
 20
39.08551163516884
 30
0.0
  0
VERTEX
  5
290
330
28C
100
AcDbEntity
  8
Hidden (ANSI)
 48
0.0106237232685089
100
AcDbVertex
100
AcDb2dVertex
 10
26.2395740879645
 20
39.08762376330269
 30
0.0
  0
VERTEX
  5
291
330
28C
100
AcDbEntity
  8
Hidden (ANSI)
 48
0.0106237232685089
100
AcDbVertex
100
AcDb2dVertex
 10
26.23856688679977
 20
39.08973590316974
 30
0.0
  0
VERTEX
  5
292
330
28C
100
AcDbEntity
  8
Hidden (ANSI)
 48
0.0106237232685089
100
AcDbVertex
100
AcDb2dVertex
 10
26.23757272121779
 20
39.09184804303679
 30
0.0
  0
VERTEX
  5
293
330
28C
100
AcDbEntity
  8
Hidden (ANSI)
 48
0.0106237232685089
100
AcDbVertex
100
AcDb2dVertex
 10
26.23659585036935
 20
39.09396017117064
 30
0.0
  0
VERTEX
  5
294
330
28C
100
AcDbEntity
  8
Hidden (ANSI)
 48
0.0106237232685089
100
AcDbVertex
100
AcDb2dVertex
 10
26.23564043953968
 20
39.09607231103768
 30
0.0
  0
VERTEX
  5
295
330
28C
100
AcDbEntity
  8
Hidden (ANSI)
 48
0.0106237232685089
100
AcDbVertex
100
AcDb2dVertex
 10
26.23471059534798
 20
39.09818445090473
 30
0.0
  0
VERTEX
  5
296
330
28C
100
AcDbEntity
  8
Hidden (ANSI)
 48
0.0106237232685089
100
AcDbVertex
100
AcDb2dVertex
 10
26.23381030708152
 20
39.10029657903858
 30
0.0
  0
VERTEX
  5
297
330
28C
100
AcDbEntity
  8
Hidden (ANSI)
 48
0.0106237232685089
100
AcDbVertex
100
AcDb2dVertex
 10
26.23294341149597
 20
39.10240871890562
 30
0.0
  0
VERTEX
  5
298
330
28C
100
AcDbEntity
  8
Hidden (ANSI)
 48
0.0106237232685089
100
AcDbVertex
100
AcDb2dVertex
 10
26.23211362801503
 20
39.10452085877267
 30
0.0
  0
VERTEX
  5
299
330
28C
100
AcDbEntity
  8
Hidden (ANSI)
 48
0.0106237232685089
100
AcDbVertex
100
AcDb2dVertex
 10
26.23132451179764
 20
39.10663298690652
 30
0.0
  0
VERTEX
  5
29A
330
28C
100
AcDbEntity
  8
Hidden (ANSI)
 48
0.0106237232685089
100
AcDbVertex
100
AcDb2dVertex
 10
26.23057943613815
 20
39.10874512677356
 30
0.0
  0
VERTEX
  5
29B
330
28C
100
AcDbEntity
  8
Hidden (ANSI)
 48
0.0106237232685089
100
AcDbVertex
100
AcDb2dVertex
 10
26.22988159833297
 20
39.11085725490742
 30
0.0
  0
VERTEX
  5
29C
330
28C
100
AcDbEntity
  8
Hidden (ANSI)
 48
0.0106237232685089
100
AcDbVertex
100
AcDb2dVertex
 10
26.22923399034752
 20
39.11296939477447
 30
0.0
  0
VERTEX
  5
29D
330
28C
100
AcDbEntity
  8
Hidden (ANSI)
 48
0.0106237232685089
100
AcDbVertex
100
AcDb2dVertex
 10
26.2286393753499
 20
39.11508153464151
 30
0.0
  0
VERTEX
  5
29E
330
28C
100
AcDbEntity
  8
Hidden (ANSI)
 48
0.0106237232685089
100
AcDbVertex
100
AcDb2dVertex
 10
26.22810030531061
 20
39.11719366277536
 30
0.0
  0
VERTEX
  5
29F
330
28C
100
AcDbEntity
  8
Hidden (ANSI)
 48
0.0106237232685089
100
AcDbVertex
100
AcDb2dVertex
 10
26.22761908580304
 20
39.1193058026424
 30
0.0
  0
VERTEX
  5
2A0
330
28C
100
AcDbEntity
  8
Hidden (ANSI)
 48
0.0106237232685089
100
AcDbVertex
100
AcDb2dVertex
 10
26.22719778186997
 20
39.12141794250945
 30
0.0
  0
VERTEX
  5
2A1
330
28C
100
AcDbEntity
  8
Hidden (ANSI)
 48
0.0106237232685089
100
AcDbVertex
100
AcDb2dVertex
 10
26.22683818869069
 20
39.1235300706433
 30
0.0
  0
VERTEX
  5
2A2
330
28C
100
AcDbEntity
  8
Hidden (ANSI)
 48
0.0106237232685089
100
AcDbVertex
100
AcDb2dVertex
 10
26.2265418609139
 20
39.12564221051035
 30
0.0
  0
VERTEX
  5
2A3
330
28C
100
AcDbEntity
  8
Hidden (ANSI)
 48
0.0106237232685089
100
AcDbVertex
100
AcDb2dVertex
 10
26.22631005399175
 20
39.12775435037739
 30
0.0
  0
VERTEX
  5
2A4
330
28C
100
AcDbEntity
  8
Hidden (ANSI)
 48
0.0106237232685089
100
AcDbVertex
100
AcDb2dVertex
 10
26.22614375937946
 20
39.12986647851124
 30
0.0
  0
VERTEX
  5
2A5
330
28C
100
AcDbEntity
  8
Hidden (ANSI)
 48
0.0106237232685089
100
AcDbVertex
100
AcDb2dVertex
 10
26.22604370453531
 20
39.13197861837828
 30
0.0
  0
VERTEX
  5
2A6
330
28C
100
AcDbEntity
  8
Hidden (ANSI)
 48
0.0106237232685089
100
AcDbVertex
100
AcDb2dVertex
 10
26.2260103001212
 20
39.13409075824534
 30
0.0
  0
SEQEND
  5
28F
330
28C
100
AcDbEntity
  8
Hidden (ANSI)
 48
0.0106237232685089
  0
LINE
  5
2A7
330
6C
100
AcDbEntity
  8
Hidden (ANSI)
 48
0.0177565310150385
100
AcDbLine
 10
26.29230156226542
 20
39.06779949452234
 30
0.0
 11
26.29230156226542
 21
38.97404949452234
 31
0.0
  0
POLYLINE
  5
2A8
330
6C
100
AcDbEntity
  8
Hidden (ANSI)
 48
0.0106237232685089
100
AcDb2dPolyline
 66
     1
 10
0.0
 20
0.0
 30
0.0
 70
   128
  0
VERTEX
  5
2A9
330
2A8
100
AcDbEntity
  8
Hidden (ANSI)
 48
0.0106237232685089
100
AcDbVertex
100
AcDb2dVertex
 10
26.24161030230864
 20
39.0833994953018
 30
0.0
  0
VERTEX
  5
2AA
330
2A8
100
AcDbEntity
  8
Hidden (ANSI)
 48
0.0106237232685089
100
AcDbVertex
100
AcDb2dVertex
 10
26.24372244217569
 20
39.08237919988834
 30
0.0
  0
VERTEX
  5
2AC
330
2A8
100
AcDbEntity
  8
Hidden (ANSI)
 48
0.0106237232685089
100
AcDbVertex
100
AcDb2dVertex
 10
26.24583457030954
 20
39.08136328095766
 30
0.0
  0
VERTEX
  5
2AD
330
2A8
100
AcDbEntity
  8
Hidden (ANSI)
 48
0.0106237232685089
100
AcDbVertex
100
AcDb2dVertex
 10
26.24794671017658
 20
39.08035607979293
 30
0.0
  0
VERTEX
  5
2AE
330
2A8
100
AcDbEntity
  8
Hidden (ANSI)
 48
0.0106237232685089
100
AcDbVertex
100
AcDb2dVertex
 10
26.25005885004363
 20
39.07936191421094
 30
0.0
  0
VERTEX
  5
2AF
330
2A8
100
AcDbEntity
  8
Hidden (ANSI)
 48
0.0106237232685089
100
AcDbVertex
100
AcDb2dVertex
 10
26.25217097817748
 20
39.0783850433625
 30
0.0
  0
VERTEX
  5
2B0
330
2A8
100
AcDbEntity
  8
Hidden (ANSI)
 48
0.0106237232685089
100
AcDbVertex
100
AcDb2dVertex
 10
26.25428311804453
 20
39.07742963253283
 30
0.0
  0
VERTEX
  5
2B1
330
2A8
100
AcDbEntity
  8
Hidden (ANSI)
 48
0.0106237232685089
100
AcDbVertex
100
AcDb2dVertex
 10
26.25639525791157
 20
39.07649978834113
 30
0.0
  0
VERTEX
  5
2B2
330
2A8
100
AcDbEntity
  8
Hidden (ANSI)
 48
0.0106237232685089
100
AcDbVertex
100
AcDb2dVertex
 10
26.25850738604543
 20
39.07559950007467
 30
0.0
  0
VERTEX
  5
2B3
330
2A8
100
AcDbEntity
  8
Hidden (ANSI)
 48
0.0106237232685089
100
AcDbVertex
100
AcDb2dVertex
 10
26.26061952591247
 20
39.07473260448913
 30
0.0
  0
VERTEX
  5
2B4
330
2A8
100
AcDbEntity
  8
Hidden (ANSI)
 48
0.0106237232685089
100
AcDbVertex
100
AcDb2dVertex
 10
26.26273166577951
 20
39.07390282100819
 30
0.0
  0
VERTEX
  5
2B5
330
2A8
100
AcDbEntity
  8
Hidden (ANSI)
 48
0.0106237232685089
100
AcDbVertex
100
AcDb2dVertex
 10
26.26484379391337
 20
39.07311370479079
 30
0.0
  0
VERTEX
  5
2B6
330
2A8
100
AcDbEntity
  8
Hidden (ANSI)
 48
0.0106237232685089
100
AcDbVertex
100
AcDb2dVertex
 10
26.26695593378042
 20
39.0723686291313
 30
0.0
  0
VERTEX
  5
2B7
330
2A8
100
AcDbEntity
  8
Hidden (ANSI)
 48
0.0106237232685089
100
AcDbVertex
100
AcDb2dVertex
 10
26.26906806191426
 20
39.07167079132612
 30
0.0
  0
VERTEX
  5
2B8
330
2A8
100
AcDbEntity
  8
Hidden (ANSI)
 48
0.0106237232685089
100
AcDbVertex
100
AcDb2dVertex
 10
26.27118020178131
 20
39.07102318334068
 30
0.0
  0
VERTEX
  5
2B9
330
2A8
100
AcDbEntity
  8
Hidden (ANSI)
 48
0.0106237232685089
100
AcDbVertex
100
AcDb2dVertex
 10
26.27329234164835
 20
39.07042856834305
 30
0.0
  0
VERTEX
  5
2BA
330
2A8
100
AcDbEntity
  8
Hidden (ANSI)
 48
0.0106237232685089
100
AcDbVertex
100
AcDb2dVertex
 10
26.2754044697822
 20
39.06988949830377
 30
0.0
  0
VERTEX
  5
2BB
330
2A8
100
AcDbEntity
  8
Hidden (ANSI)
 48
0.0106237232685089
100
AcDbVertex
100
AcDb2dVertex
 10
26.27751660964925
 20
39.06940827879619
 30
0.0
  0
VERTEX
  5
2BC
330
2A8
100
AcDbEntity
  8
Hidden (ANSI)
 48
0.0106237232685089
100
AcDbVertex
100
AcDb2dVertex
 10
26.27962874951629
 20
39.06898697486313
 30
0.0
  0
VERTEX
  5
2BD
330
2A8
100
AcDbEntity
  8
Hidden (ANSI)
 48
0.0106237232685089
100
AcDbVertex
100
AcDb2dVertex
 10
26.28174087765014
 20
39.06862738168385
 30
0.0
  0
VERTEX
  5
2BE
330
2A8
100
AcDbEntity
  8
Hidden (ANSI)
 48
0.0106237232685089
100
AcDbVertex
100
AcDb2dVertex
 10
26.28385301751719
 20
39.06833105390705
 30
0.0
  0
VERTEX
  5
2BF
330
2A8
100
AcDbEntity
  8
Hidden (ANSI)
 48
0.0106237232685089
100
AcDbVertex
100
AcDb2dVertex
 10
26.28596515738424
 20
39.0680992469849
 30
0.0
  0
VERTEX
  5
2C0
330
2A8
100
AcDbEntity
  8
Hidden (ANSI)
 48
0.0106237232685089
100
AcDbVertex
100
AcDb2dVertex
 10
26.28807728551809
 20
39.06793295237262
 30
0.0
  0
VERTEX
  5
2C1
330
2A8
100
AcDbEntity
  8
Hidden (ANSI)
 48
0.0106237232685089
100
AcDbVertex
100
AcDb2dVertex
 10
26.29018942538513
 20
39.06783289752847
 30
0.0
  0
VERTEX
  5
2C2
330
2A8
100
AcDbEntity
  8
Hidden (ANSI)
 48
0.0106237232685089
100
AcDbVertex
100
AcDb2dVertex
 10
26.29230156525218
 20
39.06779949311435
 30
0.0
  0
SEQEND
  5
2AB
330
2A8
100
AcDbEntity
  8
Hidden (ANSI)
 48
0.0106237232685089
  0
LINE
  5
2C3
330
6C
100
AcDbEntity
  8
Hidden (ANSI)
 48
0.0177565310150385
100
AcDbLine
 10
57.97221904079294
 20
39.06779949452234
 30
0.0
 11
57.97221904079294
 21
38.97404949452234
 31
0.0
  0
POLYLINE
  5
2C4
330
6C
100
AcDbEntity
  8
Hidden (ANSI)
 48
0.0106235789135099
100
AcDb2dPolyline
 66
     1
 10
0.0
 20
0.0
 30
0.0
 70
   128
  0
VERTEX
  5
2C5
330
2C4
100
AcDbEntity
  8
Hidden (ANSI)
 48
0.0106235789135099
100
AcDbVertex
100
AcDb2dVertex
 10
58.02291017215386
 20
39.0833994953018
 30
0.0
  0
VERTEX
  5
2C6
330
2C4
100
AcDbEntity
  8
Hidden (ANSI)
 48
0.0106235789135099
100
AcDbVertex
100
AcDb2dVertex
 10
58.02079857201392
 20
39.08237919988834
 30
0.0
  0
VERTEX
  5
2C8
330
2C4
100
AcDbEntity
  8
Hidden (ANSI)
 48
0.0106235789135099
100
AcDbVertex
100
AcDb2dVertex
 10
58.01868697187398
 20
39.08136328095766
 30
0.0
  0
VERTEX
  5
2C9
330
2C4
100
AcDbEntity
  8
Hidden (ANSI)
 48
0.0106235789135099
100
AcDbVertex
100
AcDb2dVertex
 10
58.01657537173402
 20
39.08035607979293
 30
0.0
  0
VERTEX
  5
2CA
330
2C4
100
AcDbEntity
  8
Hidden (ANSI)
 48
0.0106235789135099
100
AcDbVertex
100
AcDb2dVertex
 10
58.01446076789544
 20
39.07936191421094
 30
0.0
  0
VERTEX
  5
2CB
330
2C4
100
AcDbEntity
  8
Hidden (ANSI)
 48
0.0106235789135099
100
AcDbVertex
100
AcDb2dVertex
 10
58.0123491677555
 20
39.0783850433625
 30
0.0
  0
VERTEX
  5
2CC
330
2C4
100
AcDbEntity
  8
Hidden (ANSI)
 48
0.0106235789135099
100
AcDbVertex
100
AcDb2dVertex
 10
58.01023756761555
 20
39.07742963253283
 30
0.0
  0
VERTEX
  5
2CD
330
2C4
100
AcDbEntity
  8
Hidden (ANSI)
 48
0.0106235789135099
100
AcDbVertex
100
AcDb2dVertex
 10
58.0081259674756
 20
39.07649978834113
 30
0.0
  0
VERTEX
  5
2CE
330
2C4
100
AcDbEntity
  8
Hidden (ANSI)
 48
0.0106235789135099
100
AcDbVertex
100
AcDb2dVertex
 10
58.00601436733565
 20
39.07559950007467
 30
0.0
  0
VERTEX
  5
2CF
330
2C4
100
AcDbEntity
  8
Hidden (ANSI)
 48
0.0106235789135099
100
AcDbVertex
100
AcDb2dVertex
 10
58.00389976349706
 20
39.07473260448913
 30
0.0
  0
VERTEX
  5
2D0
330
2C4
100
AcDbEntity
  8
Hidden (ANSI)
 48
0.0106235789135099
100
AcDbVertex
100
AcDb2dVertex
 10
58.00178816335712
 20
39.07390282100819
 30
0.0
  0
VERTEX
  5
2D1
330
2C4
100
AcDbEntity
  8
Hidden (ANSI)
 48
0.0106235789135099
100
AcDbVertex
100
AcDb2dVertex
 10
57.99967656321716
 20
39.07311370479079
 30
0.0
  0
VERTEX
  5
2D2
330
2C4
100
AcDbEntity
  8
Hidden (ANSI)
 48
0.0106235789135099
100
AcDbVertex
100
AcDb2dVertex
 10
57.99756496307722
 20
39.0723686291313
 30
0.0
  0
VERTEX
  5
2D3
330
2C4
100
AcDbEntity
  8
Hidden (ANSI)
 48
0.0106235789135099
100
AcDbVertex
100
AcDb2dVertex
 10
57.99545336293729
 20
39.07167079132612
 30
0.0
  0
VERTEX
  5
2D4
330
2C4
100
AcDbEntity
  8
Hidden (ANSI)
 48
0.0106235789135099
100
AcDbVertex
100
AcDb2dVertex
 10
57.99334176279732
 20
39.07102318334068
 30
0.0
  0
VERTEX
  5
2D5
330
2C4
100
AcDbEntity
  8
Hidden (ANSI)
 48
0.0106235789135099
100
AcDbVertex
100
AcDb2dVertex
 10
57.99122715895874
 20
39.07042856834305
 30
0.0
  0
VERTEX
  5
2D6
330
2C4
100
AcDbEntity
  8
Hidden (ANSI)
 48
0.0106235789135099
100
AcDbVertex
100
AcDb2dVertex
 10
57.9891155588188
 20
39.06988949830377
 30
0.0
  0
VERTEX
  5
2D7
330
2C4
100
AcDbEntity
  8
Hidden (ANSI)
 48
0.0106235789135099
100
AcDbVertex
100
AcDb2dVertex
 10
57.98700395867885
 20
39.06940827879619
 30
0.0
  0
VERTEX
  5
2D8
330
2C4
100
AcDbEntity
  8
Hidden (ANSI)
 48
0.0106235789135099
100
AcDbVertex
100
AcDb2dVertex
 10
57.9848923585389
 20
39.06898697486313
 30
0.0
  0
VERTEX
  5
2D9
330
2C4
100
AcDbEntity
  8
Hidden (ANSI)
 48
0.0106235789135099
100
AcDbVertex
100
AcDb2dVertex
 10
57.98278075839895
 20
39.06862738168385
 30
0.0
  0
VERTEX
  5
2DA
330
2C4
100
AcDbEntity
  8
Hidden (ANSI)
 48
0.0106235789135099
100
AcDbVertex
100
AcDb2dVertex
 10
57.98066615456036
 20
39.06833105390705
 30
0.0
  0
VERTEX
  5
2DB
330
2C4
100
AcDbEntity
  8
Hidden (ANSI)
 48
0.0106235789135099
100
AcDbVertex
100
AcDb2dVertex
 10
57.97855455442042
 20
39.0680992469849
 30
0.0
  0
VERTEX
  5
2DC
330
2C4
100
AcDbEntity
  8
Hidden (ANSI)
 48
0.0106235789135099
100
AcDbVertex
100
AcDb2dVertex
 10
57.97644295428046
 20
39.06793295237262
 30
0.0
  0
VERTEX
  5
2DD
330
2C4
100
AcDbEntity
  8
Hidden (ANSI)
 48
0.0106235789135099
100
AcDbVertex
100
AcDb2dVertex
 10
57.97433135414053
 20
39.06783289752847
 30
0.0
  0
VERTEX
  5
2DE
330
2C4
100
AcDbEntity
  8
Hidden (ANSI)
 48
0.0106235789135099
100
AcDbVertex
100
AcDb2dVertex
 10
57.97221975400058
 20
39.06779949311435
 30
0.0
  0
SEQEND
  5
2C7
330
2C4
100
AcDbEntity
  8
Hidden (ANSI)
 48
0.0106235789135099
  0
MTEXT
  5
2E0
330
6C
100
AcDbEntity
  8
Symbol (ANSI)
100
AcDbMText
 10
37.67358708141376
 20
30.9589722772465
 30
0.0
 40
1.200000014830761
 41
0.0
 46
0.0
 71
     7
 72
     1
  1
FRONT VIEW
  7
Text Style153
 73
     1
 44
1.0
  0
LINE
  5
2E2
330
6C
100
AcDbEntity
  8
Symbol (ANSI)
370
    30
100
AcDbLine
 10
37.55358677272989
 20
30.7142559034976
 30
0.0
 11
47.20123681558666
 21
30.7142559034976
 31
0.0
  0
POLYLINE
  5
2E3
330
6C
100
AcDbEntity
  8
Visible (ANSI)
100
AcDb2dPolyline
 66
     1
 10
0.0
 20
0.0
 30
0.0
 70
   128
  0
VERTEX
  5
2E4
330
2E3
100
AcDbEntity
  8
Visible (ANSI)
100
AcDbVertex
100
AcDb2dVertex
 10
84.07065119906903
 20
63.74469908159786
 30
0.0
  0
VERTEX
  5
2E5
330
2E3
100
AcDbEntity
  8
Visible (ANSI)
100
AcDbVertex
100
AcDb2dVertex
 10
84.07088532329776
 20
63.74258748145792
 30
0.0
  0
VERTEX
  5
2E7
330
2E3
100
AcDbEntity
  8
Visible (ANSI)
100
AcDbVertex
100
AcDb2dVertex
 10
84.07158670452867
 20
63.74047588131796
 30
0.0
  0
VERTEX
  5
2E8
330
2E3
100
AcDbEntity
  8
Visible (ANSI)
100
AcDbVertex
100
AcDb2dVertex
 10
84.07275232732997
 20
63.7383627793287
 30
0.0
  0
VERTEX
  5
2E9
330
2E3
100
AcDbEntity
  8
Visible (ANSI)
100
AcDbVertex
100
AcDb2dVertex
 10
84.07437721095917
 20
63.73625117918876
 30
0.0
  0
VERTEX
  5
2EA
330
2E3
100
AcDbEntity
  8
Visible (ANSI)
100
AcDbVertex
100
AcDb2dVertex
 10
84.0764543858968
 20
63.73413807719948
 30
0.0
  0
VERTEX
  5
2EB
330
2E3
100
AcDbEntity
  8
Visible (ANSI)
100
AcDbVertex
100
AcDb2dVertex
 10
84.07897497011214
 20
63.73202647705954
 30
0.0
  0
VERTEX
  5
2EC
330
2E3
100
AcDbEntity
  8
Visible (ANSI)
100
AcDbVertex
100
AcDb2dVertex
 10
84.0819281631966
 20
63.72991487691958
 30
0.0
  0
VERTEX
  5
2ED
330
2E3
100
AcDbEntity
  8
Visible (ANSI)
100
AcDbVertex
100
AcDb2dVertex
 10
84.08530132262958
 20
63.72780177493034
 30
0.0
  0
VERTEX
  5
2EE
330
2E3
100
AcDbEntity
  8
Visible (ANSI)
100
AcDbVertex
100
AcDb2dVertex
 10
84.08907999311137
 20
63.72569017479037
 30
0.0
  0
VERTEX
  5
2EF
330
2E3
100
AcDbEntity
  8
Visible (ANSI)
100
AcDbVertex
100
AcDb2dVertex
 10
84.09324801216207
 20
63.72357857465043
 30
0.0
  0
VERTEX
  5
2F0
330
2E3
100
AcDbEntity
  8
Visible (ANSI)
100
AcDbVertex
100
AcDb2dVertex
 10
84.09778751598802
 20
63.72146547266116
 30
0.0
  0
VERTEX
  5
2F1
330
2E3
100
AcDbEntity
  8
Visible (ANSI)
100
AcDbVertex
100
AcDb2dVertex
 10
84.10267906854704
 20
63.71935387252122
 30
0.0
  0
VERTEX
  5
2F2
330
2E3
100
AcDbEntity
  8
Visible (ANSI)
100
AcDbVertex
100
AcDb2dVertex
 10
84.10790173194772
 20
63.71724227238126
 30
0.0
  0
VERTEX
  5
2F3
330
2E3
100
AcDbEntity
  8
Visible (ANSI)
100
AcDbVertex
100
AcDb2dVertex
 10
84.11343313684847
 20
63.715129170392
 30
0.0
  0
VERTEX
  5
2F4
330
2E3
100
AcDbEntity
  8
Visible (ANSI)
100
AcDbVertex
100
AcDb2dVertex
 10
84.11924959392292
 20
63.71301757025205
 30
0.0
  0
VERTEX
  5
2F5
330
2E3
100
AcDbEntity
  8
Visible (ANSI)
100
AcDbVertex
100
AcDb2dVertex
 10
84.1253261965255
 20
63.7109059701121
 30
0.0
  0
VERTEX
  5
2F6
330
2E3
100
AcDbEntity
  8
Visible (ANSI)
100
AcDbVertex
100
AcDb2dVertex
 10
84.13163692922337
 20
63.70879286812284
 30
0.0
  0
VERTEX
  5
2F7
330
2E3
100
AcDbEntity
  8
Visible (ANSI)
100
AcDbVertex
100
AcDb2dVertex
 10
84.13815476459545
 20
63.70668126798289
 30
0.0
  0
VERTEX
  5
2F8
330
2E3
100
AcDbEntity
  8
Visible (ANSI)
100
AcDbVertex
100
AcDb2dVertex
 10
84.14485179229748
 20
63.70456816599364
 30
0.0
  0
VERTEX
  5
2F9
330
2E3
100
AcDbEntity
  8
Visible (ANSI)
100
AcDbVertex
100
AcDb2dVertex
 10
84.15169933492741
 20
63.70245656585368
 30
0.0
  0
VERTEX
  5
2FA
330
2E3
100
AcDbEntity
  8
Visible (ANSI)
100
AcDbVertex
100
AcDb2dVertex
 10
84.15866807085732
 20
63.70034496571373
 30
0.0
  0
VERTEX
  5
2FB
330
2E3
100
AcDbEntity
  8
Visible (ANSI)
100
AcDbVertex
100
AcDb2dVertex
 10
84.16572815853191
 20
63.69823186372446
 30
0.0
  0
VERTEX
  5
2FC
330
2E3
100
AcDbEntity
  8
Visible (ANSI)
100
AcDbVertex
100
AcDb2dVertex
 10
84.17284936553379
 20
63.69612026358452
 30
0.0
  0
VERTEX
  5
2FD
330
2E3
100
AcDbEntity
  8
Visible (ANSI)
100
AcDbVertex
100
AcDb2dVertex
 10
84.18000119838188
 20
63.69400866344456
 30
0.0
  0
SEQEND
  5
2E6
330
2E3
100
AcDbEntity
  8
Visible (ANSI)
  0
POLYLINE
  5
2FE
330
6C
100
AcDbEntity
  8
Visible (ANSI)
100
AcDb2dPolyline
 66
     1
 10
0.0
 20
0.0
 30
0.0
 70
   128
  0
VERTEX
  5
2FF
330
2FE
100
AcDbEntity
  8
Visible (ANSI)
100
AcDbVertex
100
AcDb2dVertex
 10
84.18000119838188
 20
39.13409075824532
 30
0.0
  0
VERTEX
  5
300
330
2FE
100
AcDbEntity
  8
Visible (ANSI)
100
AcDbVertex
100
AcDb2dVertex
 10
84.17284936553379
 20
39.13197861837827
 30
0.0
  0
VERTEX
  5
302
330
2FE
100
AcDbEntity
  8
Visible (ANSI)
100
AcDbVertex
100
AcDb2dVertex
 10
84.16572815853191
 20
39.12986647851123
 30
0.0
  0
VERTEX
  5
303
330
2FE
100
AcDbEntity
  8
Visible (ANSI)
100
AcDbVertex
100
AcDb2dVertex
 10
84.15866807085732
 20
39.12775435037738
 30
0.0
  0
VERTEX
  5
304
330
2FE
100
AcDbEntity
  8
Visible (ANSI)
100
AcDbVertex
100
AcDb2dVertex
 10
84.15169933492741
 20
39.12564221051034
 30
0.0
  0
VERTEX
  5
305
330
2FE
100
AcDbEntity
  8
Visible (ANSI)
100
AcDbVertex
100
AcDb2dVertex
 10
84.14485179229748
 20
39.12353007064329
 30
0.0
  0
VERTEX
  5
306
330
2FE
100
AcDbEntity
  8
Visible (ANSI)
100
AcDbVertex
100
AcDb2dVertex
 10
84.13815476459545
 20
39.12141794250944
 30
0.0
  0
VERTEX
  5
307
330
2FE
100
AcDbEntity
  8
Visible (ANSI)
100
AcDbVertex
100
AcDb2dVertex
 10
84.13163692922337
 20
39.11930580264239
 30
0.0
  0
VERTEX
  5
308
330
2FE
100
AcDbEntity
  8
Visible (ANSI)
100
AcDbVertex
100
AcDb2dVertex
 10
84.1253261965255
 20
39.11719366277534
 30
0.0
  0
VERTEX
  5
309
330
2FE
100
AcDbEntity
  8
Visible (ANSI)
100
AcDbVertex
100
AcDb2dVertex
 10
84.11924959392292
 20
39.1150815346415
 30
0.0
  0
VERTEX
  5
30A
330
2FE
100
AcDbEntity
  8
Visible (ANSI)
100
AcDbVertex
100
AcDb2dVertex
 10
84.11343313684847
 20
39.11296939477445
 30
0.0
  0
VERTEX
  5
30B
330
2FE
100
AcDbEntity
  8
Visible (ANSI)
100
AcDbVertex
100
AcDb2dVertex
 10
84.10790173194772
 20
39.1108572549074
 30
0.0
  0
VERTEX
  5
30C
330
2FE
100
AcDbEntity
  8
Visible (ANSI)
100
AcDbVertex
100
AcDb2dVertex
 10
84.10267906854704
 20
39.10874512677355
 30
0.0
  0
VERTEX
  5
30D
330
2FE
100
AcDbEntity
  8
Visible (ANSI)
100
AcDbVertex
100
AcDb2dVertex
 10
84.09778751598802
 20
39.1066329869065
 30
0.0
  0
VERTEX
  5
30E
330
2FE
100
AcDbEntity
  8
Visible (ANSI)
100
AcDbVertex
100
AcDb2dVertex
 10
84.09324801216207
 20
39.10452085877265
 30
0.0
  0
VERTEX
  5
30F
330
2FE
100
AcDbEntity
  8
Visible (ANSI)
100
AcDbVertex
100
AcDb2dVertex
 10
84.08907999311137
 20
39.10240871890561
 30
0.0
  0
VERTEX
  5
310
330
2FE
100
AcDbEntity
  8
Visible (ANSI)
100
AcDbVertex
100
AcDb2dVertex
 10
84.08530132262958
 20
39.10029657903857
 30
0.0
  0
VERTEX
  5
311
330
2FE
100
AcDbEntity
  8
Visible (ANSI)
100
AcDbVertex
100
AcDb2dVertex
 10
84.0819281631966
 20
39.09818445090472
 30
0.0
  0
VERTEX
  5
312
330
2FE
100
AcDbEntity
  8
Visible (ANSI)
100
AcDbVertex
100
AcDb2dVertex
 10
84.07897497011214
 20
39.09607231103766
 30
0.0
  0
VERTEX
  5
313
330
2FE
100
AcDbEntity
  8
Visible (ANSI)
100
AcDbVertex
100
AcDb2dVertex
 10
84.0764543858968
 20
39.09396017117062
 30
0.0
  0
VERTEX
  5
314
330
2FE
100
AcDbEntity
  8
Visible (ANSI)
100
AcDbVertex
100
AcDb2dVertex
 10
84.07437721095917
 20
39.09184804303677
 30
0.0
  0
VERTEX
  5
315
330
2FE
100
AcDbEntity
  8
Visible (ANSI)
100
AcDbVertex
100
AcDb2dVertex
 10
84.07275232732997
 20
39.08973590316973
 30
0.0
  0
VERTEX
  5
316
330
2FE
100
AcDbEntity
  8
Visible (ANSI)
100
AcDbVertex
100
AcDb2dVertex
 10
84.07158670452867
 20
39.08762376330268
 30
0.0
  0
VERTEX
  5
317
330
2FE
100
AcDbEntity
  8
Visible (ANSI)
100
AcDbVertex
100
AcDb2dVertex
 10
84.07088532329776
 20
39.08551163516883
 30
0.0
  0
VERTEX
  5
318
330
2FE
100
AcDbEntity
  8
Visible (ANSI)
100
AcDbVertex
100
AcDb2dVertex
 10
84.07065119906903
 20
39.08339949530179
 30
0.0
  0
SEQEND
  5
301
330
2FE
100
AcDbEntity
  8
Visible (ANSI)
  0
LINE
  5
319
330
6C
100
AcDbEntity
  8
Visible (ANSI)
100
AcDbLine
 10
84.94565119766107
 20
39.13409075525856
 30
0.0
 11
84.18000119766107
 21
39.13409075525856
 31
0.0
  0
LINE
  5
31A
330
6C
100
AcDbEntity
  8
Visible (ANSI)
100
AcDbLine
 10
84.14773013879011
 20
39.08339949452231
 30
0.0
 11
84.07065119766105
 21
39.08339949452233
 31
0.0
  0
LINE
  5
31B
330
6C
100
AcDbEntity
  8
Visible (ANSI)
100
AcDbLine
 10
84.16440119766106
 20
39.08339949452233
 30
0.0
 11
84.14773013879011
 21
39.08339949452231
 31
0.0
  0
POLYLINE
  5
31C
330
6C
100
AcDbEntity
  8
Visible (ANSI)
100
AcDb2dPolyline
 66
     1
 10
0.0
 20
0.0
 30
0.0
 70
   128
  0
VERTEX
  5
31D
330
31C
100
AcDbEntity
  8
Visible (ANSI)
100
AcDbVertex
100
AcDb2dVertex
 10
84.16440119766106
 20
39.08339949530179
 30
0.0
  0
VERTEX
  5
31E
330
31C
100
AcDbEntity
  8
Visible (ANSI)
100
AcDbVertex
100
AcDb2dVertex
 10
84.16443459845723
 20
39.08551163516883
 30
0.0
  0
VERTEX
  5
320
330
31C
100
AcDbEntity
  8
Visible (ANSI)
100
AcDbVertex
100
AcDb2dVertex
 10
84.16453465782451
 20
39.08762376330268
 30
0.0
  0
VERTEX
  5
321
330
31C
100
AcDbEntity
  8
Visible (ANSI)
100
AcDbVertex
100
AcDb2dVertex
 10
84.16470094729207
 20
39.08973590316973
 30
0.0
  0
VERTEX
  5
322
330
31C
100
AcDbEntity
  8
Visible (ANSI)
100
AcDbVertex
100
AcDb2dVertex
 10
84.16493275478712
 20
39.09184804303677
 30
0.0
  0
VERTEX
  5
323
330
31C
100
AcDbEntity
  8
Visible (ANSI)
100
AcDbVertex
100
AcDb2dVertex
 10
84.16522908760553
 20
39.09396017117062
 30
0.0
  0
VERTEX
  5
324
330
31C
100
AcDbEntity
  8
Visible (ANSI)
100
AcDbVertex
100
AcDb2dVertex
 10
84.16558867693487
 20
39.09607231103766
 30
0.0
  0
VERTEX
  5
325
330
31C
100
AcDbEntity
  8
Visible (ANSI)
100
AcDbVertex
100
AcDb2dVertex
 10
84.16600998297623
 20
39.09818445090472
 30
0.0
  0
VERTEX
  5
326
330
31C
100
AcDbEntity
  8
Visible (ANSI)
100
AcDbVertex
100
AcDb2dVertex
 10
84.16649120138382
 20
39.10029657903857
 30
0.0
  0
VERTEX
  5
327
330
31C
100
AcDbEntity
  8
Visible (ANSI)
100
AcDbVertex
100
AcDb2dVertex
 10
84.16703027178977
 20
39.10240871890561
 30
0.0
  0
VERTEX
  5
328
330
31C
100
AcDbEntity
  8
Visible (ANSI)
100
AcDbVertex
100
AcDb2dVertex
 10
84.16762488568741
 20
39.10452085877265
 30
0.0
  0
VERTEX
  5
329
330
31C
100
AcDbEntity
  8
Visible (ANSI)
100
AcDbVertex
100
AcDb2dVertex
 10
84.16827249660615
 20
39.1066329869065
 30
0.0
  0
VERTEX
  5
32A
330
31C
100
AcDbEntity
  8
Visible (ANSI)
100
AcDbVertex
100
AcDb2dVertex
 10
84.16897033184469
 20
39.10874512677355
 30
0.0
  0
VERTEX
  5
32B
330
31C
100
AcDbEntity
  8
Visible (ANSI)
100
AcDbVertex
100
AcDb2dVertex
 10
84.16971540310424
 20
39.1108572549074
 30
0.0
  0
VERTEX
  5
32C
330
31C
100
AcDbEntity
  8
Visible (ANSI)
100
AcDbVertex
100
AcDb2dVertex
 10
84.17050451932164
 20
39.11296939477445
 30
0.0
  0
VERTEX
  5
32D
330
31C
100
AcDbEntity
  8
Visible (ANSI)
100
AcDbVertex
100
AcDb2dVertex
 10
84.17133430170258
 20
39.1150815346415
 30
0.0
  0
VERTEX
  5
32E
330
31C
100
AcDbEntity
  8
Visible (ANSI)
100
AcDbVertex
100
AcDb2dVertex
 10
84.17220119802145
 20
39.11719366277534
 30
0.0
  0
VERTEX
  5
32F
330
31C
100
AcDbEntity
  8
Visible (ANSI)
100
AcDbVertex
100
AcDb2dVertex
 10
84.17310149435449
 20
39.11930580264239
 30
0.0
  0
VERTEX
  5
330
330
31C
100
AcDbEntity
  8
Visible (ANSI)
100
AcDbVertex
100
AcDb2dVertex
 10
84.1740313363462
 20
39.12141794250944
 30
0.0
  0
VERTEX
  5
331
330
31C
100
AcDbEntity
  8
Visible (ANSI)
100
AcDbVertex
100
AcDb2dVertex
 10
84.17498674204262
 20
39.12353007064329
 30
0.0
  0
VERTEX
  5
332
330
31C
100
AcDbEntity
  8
Visible (ANSI)
100
AcDbVertex
100
AcDb2dVertex
 10
84.17596362022429
 20
39.12564221051034
 30
0.0
  0
VERTEX
  5
333
330
31C
100
AcDbEntity
  8
Visible (ANSI)
100
AcDbVertex
100
AcDb2dVertex
 10
84.17695778873957
 20
39.12775435037738
 30
0.0
  0
VERTEX
  5
334
330
31C
100
AcDbEntity
  8
Visible (ANSI)
100
AcDbVertex
100
AcDb2dVertex
 10
84.17796498843765
 20
39.12986647851123
 30
0.0
  0
VERTEX
  5
335
330
31C
100
AcDbEntity
  8
Visible (ANSI)
100
AcDbVertex
100
AcDb2dVertex
 10
84.17898090883499
 20
39.13197861837827
 30
0.0
  0
VERTEX
  5
336
330
31C
100
AcDbEntity
  8
Visible (ANSI)
100
AcDbVertex
100
AcDb2dVertex
 10
84.18000119838184
 20
39.13409075824532
 30
0.0
  0
SEQEND
  5
31F
330
31C
100
AcDbEntity
  8
Visible (ANSI)
  0
POLYLINE
  5
337
330
6C
100
AcDbEntity
  8
Visible (ANSI)
100
AcDb2dPolyline
 66
     1
 10
0.0
 20
0.0
 30
0.0
 70
   128
  0
VERTEX
  5
338
330
337
100
AcDbEntity
  8
Visible (ANSI)
100
AcDbVertex
100
AcDb2dVertex
 10
84.16440119766106
 20
63.74469908159786
 30
0.0
  0
VERTEX
  5
339
330
337
100
AcDbEntity
  8
Visible (ANSI)
100
AcDbVertex
100
AcDb2dVertex
 10
84.16443459845723
 20
63.74258748145792
 30
0.0
  0
VERTEX
  5
33B
330
337
100
AcDbEntity
  8
Visible (ANSI)
100
AcDbVertex
100
AcDb2dVertex
 10
84.16453465782451
 20
63.74047588131796
 30
0.0
  0
VERTEX
  5
33C
330
337
100
AcDbEntity
  8
Visible (ANSI)
100
AcDbVertex
100
AcDb2dVertex
 10
84.16470094729207
 20
63.7383627793287
 30
0.0
  0
VERTEX
  5
33D
330
337
100
AcDbEntity
  8
Visible (ANSI)
100
AcDbVertex
100
AcDb2dVertex
 10
84.16493275478712
 20
63.73625117918876
 30
0.0
  0
VERTEX
  5
33E
330
337
100
AcDbEntity
  8
Visible (ANSI)
100
AcDbVertex
100
AcDb2dVertex
 10
84.16522908760553
 20
63.73413807719948
 30
0.0
  0
VERTEX
  5
33F
330
337
100
AcDbEntity
  8
Visible (ANSI)
100
AcDbVertex
100
AcDb2dVertex
 10
84.16558867693487
 20
63.73202647705954
 30
0.0
  0
VERTEX
  5
340
330
337
100
AcDbEntity
  8
Visible (ANSI)
100
AcDbVertex
100
AcDb2dVertex
 10
84.16600998297623
 20
63.72991487691958
 30
0.0
  0
VERTEX
  5
341
330
337
100
AcDbEntity
  8
Visible (ANSI)
100
AcDbVertex
100
AcDb2dVertex
 10
84.16649120138382
 20
63.72780177493034
 30
0.0
  0
VERTEX
  5
342
330
337
100
AcDbEntity
  8
Visible (ANSI)
100
AcDbVertex
100
AcDb2dVertex
 10
84.16703027178977
 20
63.72569017479037
 30
0.0
  0
VERTEX
  5
343
330
337
100
AcDbEntity
  8
Visible (ANSI)
100
AcDbVertex
100
AcDb2dVertex
 10
84.16762488568741
 20
63.72357857465043
 30
0.0
  0
VERTEX
  5
344
330
337
100
AcDbEntity
  8
Visible (ANSI)
100
AcDbVertex
100
AcDb2dVertex
 10
84.16827249660615
 20
63.72146547266116
 30
0.0
  0
VERTEX
  5
345
330
337
100
AcDbEntity
  8
Visible (ANSI)
100
AcDbVertex
100
AcDb2dVertex
 10
84.16897033184469
 20
63.71935387252122
 30
0.0
  0
VERTEX
  5
346
330
337
100
AcDbEntity
  8
Visible (ANSI)
100
AcDbVertex
100
AcDb2dVertex
 10
84.16971540310424
 20
63.71724227238126
 30
0.0
  0
VERTEX
  5
347
330
337
100
AcDbEntity
  8
Visible (ANSI)
100
AcDbVertex
100
AcDb2dVertex
 10
84.17050451932164
 20
63.715129170392
 30
0.0
  0
VERTEX
  5
348
330
337
100
AcDbEntity
  8
Visible (ANSI)
100
AcDbVertex
100
AcDb2dVertex
 10
84.17133430170258
 20
63.71301757025205
 30
0.0
  0
VERTEX
  5
349
330
337
100
AcDbEntity
  8
Visible (ANSI)
100
AcDbVertex
100
AcDb2dVertex
 10
84.17220119802145
 20
63.7109059701121
 30
0.0
  0
VERTEX
  5
34A
330
337
100
AcDbEntity
  8
Visible (ANSI)
100
AcDbVertex
100
AcDb2dVertex
 10
84.17310149435449
 20
63.70879286812284
 30
0.0
  0
VERTEX
  5
34B
330
337
100
AcDbEntity
  8
Visible (ANSI)
100
AcDbVertex
100
AcDb2dVertex
 10
84.1740313363462
 20
63.70668126798289
 30
0.0
  0
VERTEX
  5
34C
330
337
100
AcDbEntity
  8
Visible (ANSI)
100
AcDbVertex
100
AcDb2dVertex
 10
84.17498674204262
 20
63.70456816599364
 30
0.0
  0
VERTEX
  5
34D
330
337
100
AcDbEntity
  8
Visible (ANSI)
100
AcDbVertex
100
AcDb2dVertex
 10
84.17596362022429
 20
63.70245656585368
 30
0.0
  0
VERTEX
  5
34E
330
337
100
AcDbEntity
  8
Visible (ANSI)
100
AcDbVertex
100
AcDb2dVertex
 10
84.17695778873957
 20
63.70034496571373
 30
0.0
  0
VERTEX
  5
34F
330
337
100
AcDbEntity
  8
Visible (ANSI)
100
AcDbVertex
100
AcDb2dVertex
 10
84.17796498843765
 20
63.69823186372446
 30
0.0
  0
VERTEX
  5
350
330
337
100
AcDbEntity
  8
Visible (ANSI)
100
AcDbVertex
100
AcDb2dVertex
 10
84.17898090883499
 20
63.69612026358452
 30
0.0
  0
VERTEX
  5
351
330
337
100
AcDbEntity
  8
Visible (ANSI)
100
AcDbVertex
100
AcDb2dVertex
 10
84.18000119838184
 20
63.69400866344456
 30
0.0
  0
SEQEND
  5
33A
330
337
100
AcDbEntity
  8
Visible (ANSI)
  0
LINE
  5
352
330
6C
100
AcDbEntity
  8
Visible (ANSI)
100
AcDbLine
 10
84.16440119766106
 20
63.74469949452232
 30
0.0
 11
84.14773013879011
 21
63.74469949452233
 31
0.0
  0
LINE
  5
353
330
6C
100
AcDbEntity
  8
Visible (ANSI)
100
AcDbLine
 10
84.14773013879011
 20
63.74469949452233
 30
0.0
 11
84.07065119766105
 21
63.74469949452232
 31
0.0
  0
LINE
  5
354
330
6C
100
AcDbEntity
  8
Visible (ANSI)
100
AcDbLine
 10
84.18000119766105
 20
63.69400823378608
 30
0.0
 11
84.94565119766106
 21
63.6940082337861
 31
0.0
  0
POLYLINE
  5
355
330
6C
100
AcDbEntity
  8
Visible (ANSI)
100
AcDb2dPolyline
 66
     1
 10
0.0
 20
0.0
 30
0.0
 70
   128
  0
VERTEX
  5
356
330
355
100
AcDbEntity
  8
Visible (ANSI)
100
AcDbVertex
100
AcDb2dVertex
 10
84.18000119838183
 20
63.85405023223071
 30
0.0
  0
VERTEX
  5
357
330
355
100
AcDbEntity
  8
Visible (ANSI)
100
AcDbVertex
100
AcDb2dVertex
 10
84.17284936553375
 20
63.85381594373723
 30
0.0
  0
VERTEX
  5
359
330
355
100
AcDbEntity
  8
Visible (ANSI)
100
AcDbVertex
100
AcDb2dVertex
 10
84.16572815853188
 20
63.85311458010611
 30
0.0
  0
VERTEX
  5
35A
330
355
100
AcDbEntity
  8
Visible (ANSI)
100
AcDbVertex
100
AcDb2dVertex
 10
84.15866807085727
 20
63.85194764318665
 30
0.0
  0
VERTEX
  5
35B
330
355
100
AcDbEntity
  8
Visible (ANSI)
100
AcDbVertex
100
AcDb2dVertex
 10
84.15169933492737
 20
63.85032414407479
 30
0.0
  0
VERTEX
  5
35C
330
355
100
AcDbEntity
  8
Visible (ANSI)
100
AcDbVertex
100
AcDb2dVertex
 10
84.14485179229743
 20
63.84824558461982
 30
0.0
  0
VERTEX
  5
35D
330
355
100
AcDbEntity
  8
Visible (ANSI)
100
AcDbVertex
100
AcDb2dVertex
 10
84.13815476459541
 20
63.8457254814656
 30
0.0
  0
VERTEX
  5
35E
330
355
100
AcDbEntity
  8
Visible (ANSI)
100
AcDbVertex
100
AcDb2dVertex
 10
84.13163692922333
 20
63.84277284570804
 30
0.0
  0
VERTEX
  5
35F
330
355
100
AcDbEntity
  8
Visible (ANSI)
100
AcDbVertex
100
AcDb2dVertex
 10
84.12532619652544
 20
63.83939969214166
 30
0.0
  0
VERTEX
  5
360
330
355
100
AcDbEntity
  8
Visible (ANSI)
100
AcDbVertex
100
AcDb2dVertex
 10
84.11924959392289
 20
63.83562103925965
 30
0.0
  0
VERTEX
  5
361
330
355
100
AcDbEntity
  8
Visible (ANSI)
100
AcDbVertex
100
AcDb2dVertex
 10
84.11343313684843
 20
63.83145340740449
 30
0.0
  0
VERTEX
  5
362
330
355
100
AcDbEntity
  8
Visible (ANSI)
100
AcDbVertex
100
AcDb2dVertex
 10
84.10790173194769
 20
63.82691331691867
 30
0.0
  0
VERTEX
  5
363
330
355
100
AcDbEntity
  8
Visible (ANSI)
100
AcDbVertex
100
AcDb2dVertex
 10
84.102679068547
 20
63.82202179369262
 30
0.0
  0
VERTEX
  5
364
330
355
100
AcDbEntity
  8
Visible (ANSI)
100
AcDbVertex
100
AcDb2dVertex
 10
84.09778751598798
 20
63.8167983617675
 30
0.0
  0
VERTEX
  5
365
330
355
100
AcDbEntity
  8
Visible (ANSI)
100
AcDbVertex
100
AcDb2dVertex
 10
84.09324801216206
 20
63.81126705073235
 30
0.0
  0
VERTEX
  5
366
330
355
100
AcDbEntity
  8
Visible (ANSI)
100
AcDbVertex
100
AcDb2dVertex
 10
84.08907999311136
 20
63.80545038832691
 30
0.0
  0
VERTEX
  5
367
330
355
100
AcDbEntity
  8
Visible (ANSI)
100
AcDbVertex
100
AcDb2dVertex
 10
84.08530132262956
 20
63.79937390598962
 30
0.0
  0
VERTEX
  5
368
330
355
100
AcDbEntity
  8
Visible (ANSI)
100
AcDbVertex
100
AcDb2dVertex
 10
84.08192816319658
 20
63.79306313515885
 30
0.0
  0
VERTEX
  5
369
330
355
100
AcDbEntity
  8
Visible (ANSI)
100
AcDbVertex
100
AcDb2dVertex
 10
84.07897497011211
 20
63.78654661097164
 30
0.0
  0
VERTEX
  5
36A
330
355
100
AcDbEntity
  8
Visible (ANSI)
100
AcDbVertex
100
AcDb2dVertex
 10
84.0764543858968
 20
63.77984836301703
 30
0.0
  0
VERTEX
  5
36B
330
355
100
AcDbEntity
  8
Visible (ANSI)
100
AcDbVertex
100
AcDb2dVertex
 10
84.07437721095915
 20
63.77300143198003
 30
0.0
  0
VERTEX
  5
36C
330
355
100
AcDbEntity
  8
Visible (ANSI)
100
AcDbVertex
100
AcDb2dVertex
 10
84.07275232732997
 20
63.76603285114834
 30
0.0
  0
VERTEX
  5
36D
330
355
100
AcDbEntity
  8
Visible (ANSI)
100
AcDbVertex
100
AcDb2dVertex
 10
84.07158670452865
 20
63.7589726575083
 30
0.0
  0
VERTEX
  5
36E
330
355
100
AcDbEntity
  8
Visible (ANSI)
100
AcDbVertex
100
AcDb2dVertex
 10
84.07088532329774
 20
63.75185088804625
 30
0.0
  0
VERTEX
  5
36F
330
355
100
AcDbEntity
  8
Visible (ANSI)
100
AcDbVertex
100
AcDb2dVertex
 10
84.07065119906903
 20
63.74469908159786
 30
0.0
  0
SEQEND
  5
358
330
355
100
AcDbEntity
  8
Visible (ANSI)
  0
LINE
  5
370
330
6C
100
AcDbEntity
  8
Visible (ANSI)
100
AcDbLine
 10
84.18000119766103
 20
63.76029949452233
 30
0.0
 11
84.94565119766106
 21
63.76029949452228
 31
0.0
  0
LINE
  5
371
330
6C
100
AcDbEntity
  8
Visible (ANSI)
100
AcDbLine
 10
84.94565119766106
 20
63.85404949452228
 30
0.0
 11
84.18000119766103
 21
63.85404949452232
 31
0.0
  0
LINE
  5
372
330
6C
100
AcDbEntity
  8
Visible (ANSI)
100
AcDbLine
 10
84.18000119766103
 20
63.76029949452233
 30
0.0
 11
84.18000119766103
 21
63.85404949452232
 31
0.0
  0
LINE
  5
373
330
6C
100
AcDbEntity
  8
Visible (ANSI)
100
AcDbLine
 10
84.94565119766106
 20
63.76029949452228
 30
0.0
 11
84.94565119766106
 21
63.85404949452228
 31
0.0
  0
POLYLINE
  5
374
330
6C
100
AcDbEntity
  8
Visible (ANSI)
100
AcDb2dPolyline
 66
     1
 10
0.0
 20
0.0
 30
0.0
 70
   128
  0
VERTEX
  5
375
330
374
100
AcDbEntity
  8
Visible (ANSI)
100
AcDbVertex
100
AcDb2dVertex
 10
84.16440119766106
 20
63.74469908159786
 30
0.0
  0
VERTEX
  5
376
330
374
100
AcDbEntity
  8
Visible (ANSI)
100
AcDbVertex
100
AcDb2dVertex
 10
84.16443459845723
 20
63.74572033913354
 30
0.0
  0
VERTEX
  5
378
330
374
100
AcDbEntity
  8
Visible (ANSI)
100
AcDbVertex
100
AcDb2dVertex
 10
84.16453465782451
 20
63.74673558927195
 30
0.0
  0
VERTEX
  5
379
330
374
100
AcDbEntity
  8
Visible (ANSI)
100
AcDbVertex
100
AcDb2dVertex
 10
84.16470094729206
 20
63.74774333016378
 30
0.0
  0
VERTEX
  5
37A
330
374
100
AcDbEntity
  8
Visible (ANSI)
100
AcDbVertex
100
AcDb2dVertex
 10
84.16493275478712
 20
63.74873755441175
 30
0.0
  0
VERTEX
  5
37B
330
374
100
AcDbEntity
  8
Visible (ANSI)
100
AcDbVertex
100
AcDb2dVertex
 10
84.16522908760553
 20
63.74971375646792
 30
0.0
  0
VERTEX
  5
37C
330
374
100
AcDbEntity
  8
Visible (ANSI)
100
AcDbVertex
100
AcDb2dVertex
 10
84.16558867693487
 20
63.75066893263364
 30
0.0
  0
VERTEX
  5
37D
330
374
100
AcDbEntity
  8
Visible (ANSI)
100
AcDbVertex
100
AcDb2dVertex
 10
84.16600998297623
 20
63.75159857736097
 30
0.0
  0
VERTEX
  5
37E
330
374
100
AcDbEntity
  8
Visible (ANSI)
100
AcDbVertex
100
AcDb2dVertex
 10
84.16649120138382
 20
63.75249968695128
 30
0.0
  0
VERTEX
  5
37F
330
374
100
AcDbEntity
  8
Visible (ANSI)
100
AcDbVertex
100
AcDb2dVertex
 10
84.16703027178975
 20
63.75336625400727
 30
0.0
  0
VERTEX
  5
380
330
374
100
AcDbEntity
  8
Visible (ANSI)
100
AcDbVertex
100
AcDb2dVertex
 10
84.16762488568739
 20
63.75419677667968
 30
0.0
  0
VERTEX
  5
381
330
374
100
AcDbEntity
  8
Visible (ANSI)
100
AcDbVertex
100
AcDb2dVertex
 10
84.16827249660613
 20
63.7549852475712
 30
0.0
  0
VERTEX
  5
382
330
374
100
AcDbEntity
  8
Visible (ANSI)
100
AcDbVertex
100
AcDb2dVertex
 10
84.16897033184469
 20
63.75573016483251
 30
0.0
  0
VERTEX
  5
383
330
374
100
AcDbEntity
  8
Visible (ANSI)
100
AcDbVertex
100
AcDb2dVertex
 10
84.16971540310422
 20
63.756428524765
 30
0.0
  0
VERTEX
  5
384
330
374
100
AcDbEntity
  8
Visible (ANSI)
100
AcDbVertex
100
AcDb2dVertex
 10
84.17050451932162
 20
63.75707582182069
 30
0.0
  0
VERTEX
  5
385
330
374
100
AcDbEntity
  8
Visible (ANSI)
100
AcDbVertex
100
AcDb2dVertex
 10
84.17133430170256
 20
63.75767055415031
 30
0.0
  0
VERTEX
  5
386
330
374
100
AcDbEntity
  8
Visible (ANSI)
100
AcDbVertex
100
AcDb2dVertex
 10
84.17220119802143
 20
63.75820971805516
 30
0.0
  0
VERTEX
  5
387
330
374
100
AcDbEntity
  8
Visible (ANSI)
100
AcDbVertex
100
AcDb2dVertex
 10
84.17310149435447
 20
63.75869030983666
 30
0.0
  0
VERTEX
  5
388
330
374
100
AcDbEntity
  8
Visible (ANSI)
100
AcDbVertex
100
AcDb2dVertex
 10
84.1740313363462
 20
63.7591123294948
 30
0.0
  0
VERTEX
  5
389
330
374
100
AcDbEntity
  8
Visible (ANSI)
100
AcDbVertex
100
AcDb2dVertex
 10
84.1749867420426
 20
63.75947127148159
 30
0.0
  0
VERTEX
  5
38A
330
374
100
AcDbEntity
  8
Visible (ANSI)
100
AcDbVertex
100
AcDb2dVertex
 10
84.17596362022427
 20
63.75976863764641
 30
0.0
  0
VERTEX
  5
38B
330
374
100
AcDbEntity
  8
Visible (ANSI)
100
AcDbVertex
100
AcDb2dVertex
 10
84.17695778873955
 20
63.75999992244125
 30
0.0
  0
VERTEX
  5
38C
330
374
100
AcDbEntity
  8
Visible (ANSI)
100
AcDbVertex
100
AcDb2dVertex
 10
84.17796498843763
 20
63.76016662771545
 30
0.0
  0
VERTEX
  5
38D
330
374
100
AcDbEntity
  8
Visible (ANSI)
100
AcDbVertex
100
AcDb2dVertex
 10
84.17898090883497
 20
63.76026574977038
 30
0.0
  0
VERTEX
  5
38E
330
374
100
AcDbEntity
  8
Visible (ANSI)
100
AcDbVertex
100
AcDb2dVertex
 10
84.18000119838183
 20
63.76029879045536
 30
0.0
  0
SEQEND
  5
377
330
374
100
AcDbEntity
  8
Visible (ANSI)
  0
POLYLINE
  5
38F
330
6C
100
AcDbEntity
  8
Visible (ANSI)
100
AcDb2dPolyline
 66
     1
 10
0.0
 20
0.0
 30
0.0
 70
   128
  0
VERTEX
  5
390
330
38F
100
AcDbEntity
  8
Visible (ANSI)
100
AcDbVertex
100
AcDb2dVertex
 10
84.07065119906903
 20
39.08339949530179
 30
0.0
  0
VERTEX
  5
391
330
38F
100
AcDbEntity
  8
Visible (ANSI)
100
AcDbVertex
100
AcDb2dVertex
 10
84.07088532329774
 20
39.07624766538699
 30
0.0
  0
VERTEX
  5
393
330
38F
100
AcDbEntity
  8
Visible (ANSI)
100
AcDbVertex
100
AcDb2dVertex
 10
84.07158670452865
 20
39.06912645325185
 30
0.0
  0
VERTEX
  5
394
330
38F
100
AcDbEntity
  8
Visible (ANSI)
100
AcDbVertex
100
AcDb2dVertex
 10
84.07275232732997
 20
39.06206636521059
 30
0.0
  0
VERTEX
  5
395
330
38F
100
AcDbEntity
  8
Visible (ANSI)
100
AcDbVertex
100
AcDb2dVertex
 10
84.07437721095915
 20
39.05509763184733
 30
0.0
  0
VERTEX
  5
396
330
38F
100
AcDbEntity
  8
Visible (ANSI)
100
AcDbVertex
100
AcDb2dVertex
 10
84.0764543858968
 20
39.04825009068403
 30
0.0
  0
VERTEX
  5
397
330
38F
100
AcDbEntity
  8
Visible (ANSI)
100
AcDbVertex
100
AcDb2dVertex
 10
84.07897497011211
 20
39.041553062982
 30
0.0
  0
VERTEX
  5
398
330
38F
100
AcDbEntity
  8
Visible (ANSI)
100
AcDbVertex
100
AcDb2dVertex
 10
84.08192816319658
 20
39.03503522467664
 30
0.0
  0
VERTEX
  5
399
330
38F
100
AcDbEntity
  8
Visible (ANSI)
100
AcDbVertex
100
AcDb2dVertex
 10
84.08530132262956
 20
39.02872449491205
 30
0.0
  0
VERTEX
  5
39A
330
38F
100
AcDbEntity
  8
Visible (ANSI)
100
AcDbVertex
100
AcDb2dVertex
 10
84.08907999311136
 20
39.02264788937618
 30
0.0
  0
VERTEX
  5
39B
330
38F
100
AcDbEntity
  8
Visible (ANSI)
100
AcDbVertex
100
AcDb2dVertex
 10
84.09324801216206
 20
39.01683143230173
 30
0.0
  0
VERTEX
  5
39C
330
38F
100
AcDbEntity
  8
Visible (ANSI)
100
AcDbVertex
100
AcDb2dVertex
 10
84.09778751598798
 20
39.01130003033428
 30
0.0
  0
VERTEX
  5
39D
330
38F
100
AcDbEntity
  8
Visible (ANSI)
100
AcDbVertex
100
AcDb2dVertex
 10
84.102679068547
 20
39.00607736693361
 30
0.0
  0
VERTEX
  5
39E
330
38F
100
AcDbEntity
  8
Visible (ANSI)
100
AcDbVertex
100
AcDb2dVertex
 10
84.10790173194769
 20
39.00118581144127
 30
0.0
  0
VERTEX
  5
39F
330
38F
100
AcDbEntity
  8
Visible (ANSI)
100
AcDbVertex
100
AcDb2dVertex
 10
84.11343313684843
 20
38.99664630614869
 30
0.0
  0
VERTEX
  5
3A0
330
38F
100
AcDbEntity
  8
Visible (ANSI)
100
AcDbVertex
100
AcDb2dVertex
 10
84.11924959392289
 20
38.99247829296461
 30
0.0
  0
VERTEX
  5
3A1
330
38F
100
AcDbEntity
  8
Visible (ANSI)
100
AcDbVertex
100
AcDb2dVertex
 10
84.12532619652544
 20
38.9886996166162
 30
0.0
  0
VERTEX
  5
3A2
330
38F
100
AcDbEntity
  8
Visible (ANSI)
100
AcDbVertex
100
AcDb2dVertex
 10
84.13163692922333
 20
38.98532646011652
 30
0.0
  0
VERTEX
  5
3A3
330
38F
100
AcDbEntity
  8
Visible (ANSI)
100
AcDbVertex
100
AcDb2dVertex
 10
84.13815476459541
 20
38.98237326776539
 30
0.0
  0
VERTEX
  5
3A4
330
38F
100
AcDbEntity
  8
Visible (ANSI)
100
AcDbVertex
100
AcDb2dVertex
 10
84.14485179229743
 20
38.9798526850167
 30
0.0
  0
VERTEX
  5
3A5
330
38F
100
AcDbEntity
  8
Visible (ANSI)
100
AcDbVertex
100
AcDb2dVertex
 10
84.15169933492737
 20
38.97777550531247
 30
0.0
  0
VERTEX
  5
3A6
330
38F
100
AcDbEntity
  8
Visible (ANSI)
100
AcDbVertex
100
AcDb2dVertex
 10
84.15866807085727
 20
38.97615062406656
 30
0.0
  0
VERTEX
  5
3A7
330
38F
100
AcDbEntity
  8
Visible (ANSI)
100
AcDbVertex
100
AcDb2dVertex
 10
84.16572815853188
 20
38.97498499897363
 30
0.0
  0
VERTEX
  5
3A8
330
38F
100
AcDbEntity
  8
Visible (ANSI)
100
AcDbVertex
100
AcDb2dVertex
 10
84.17284936553375
 20
38.97428362127184
 30
0.0
  0
VERTEX
  5
3A9
330
38F
100
AcDbEntity
  8
Visible (ANSI)
100
AcDbVertex
100
AcDb2dVertex
 10
84.18000119838183
 20
38.97404949452233
 30
0.0
  0
SEQEND
  5
392
330
38F
100
AcDbEntity
  8
Visible (ANSI)
  0
LINE
  5
3AA
330
6C
100
AcDbEntity
  8
Visible (ANSI)
100
AcDbLine
 10
84.18000119766103
 20
39.06779949452232
 30
0.0
 11
84.94565119766104
 21
39.06779949452232
 31
0.0
  0
LINE
  5
3AB
330
6C
100
AcDbEntity
  8
Visible (ANSI)
100
AcDbLine
 10
84.18000119766103
 20
39.06779949452232
 30
0.0
 11
84.18000119766103
 21
38.97404949452233
 31
0.0
  0
POLYLINE
  5
3AC
330
6C
100
AcDbEntity
  8
Visible (ANSI)
100
AcDb2dPolyline
 66
     1
 10
0.0
 20
0.0
 30
0.0
 70
   128
  0
VERTEX
  5
3AD
330
3AC
100
AcDbEntity
  8
Visible (ANSI)
100
AcDbVertex
100
AcDb2dVertex
 10
84.16440119766106
 20
39.08339949530179
 30
0.0
  0
VERTEX
  5
3AE
330
3AC
100
AcDbEntity
  8
Visible (ANSI)
100
AcDbVertex
100
AcDb2dVertex
 10
84.16443459845723
 20
39.08237919988832
 30
0.0
  0
VERTEX
  5
3B0
330
3AC
100
AcDbEntity
  8
Visible (ANSI)
100
AcDbVertex
100
AcDb2dVertex
 10
84.16453465782451
 20
39.08136328095764
 30
0.0
  0
VERTEX
  5
3B1
330
3AC
100
AcDbEntity
  8
Visible (ANSI)
100
AcDbVertex
100
AcDb2dVertex
 10
84.16470094729206
 20
39.08035607979292
 30
0.0
  0
VERTEX
  5
3B2
330
3AC
100
AcDbEntity
  8
Visible (ANSI)
100
AcDbVertex
100
AcDb2dVertex
 10
84.16493275478712
 20
39.07936191421093
 30
0.0
  0
VERTEX
  5
3B3
330
3AC
100
AcDbEntity
  8
Visible (ANSI)
100
AcDbVertex
100
AcDb2dVertex
 10
84.16522908760553
 20
39.07838504336249
 30
0.0
  0
VERTEX
  5
3B4
330
3AC
100
AcDbEntity
  8
Visible (ANSI)
100
AcDbVertex
100
AcDb2dVertex
 10
84.16558867693487
 20
39.07742963253281
 30
0.0
  0
VERTEX
  5
3B5
330
3AC
100
AcDbEntity
  8
Visible (ANSI)
100
AcDbVertex
100
AcDb2dVertex
 10
84.16600998297623
 20
39.07649978834112
 30
0.0
  0
VERTEX
  5
3B6
330
3AC
100
AcDbEntity
  8
Visible (ANSI)
100
AcDbVertex
100
AcDb2dVertex
 10
84.16649120138382
 20
39.07559950007466
 30
0.0
  0
VERTEX
  5
3B7
330
3AC
100
AcDbEntity
  8
Visible (ANSI)
100
AcDbVertex
100
AcDb2dVertex
 10
84.16703027178975
 20
39.07473260448912
 30
0.0
  0
VERTEX
  5
3B8
330
3AC
100
AcDbEntity
  8
Visible (ANSI)
100
AcDbVertex
100
AcDb2dVertex
 10
84.16762488568739
 20
39.07390282100818
 30
0.0
  0
VERTEX
  5
3B9
330
3AC
100
AcDbEntity
  8
Visible (ANSI)
100
AcDbVertex
100
AcDb2dVertex
 10
84.16827249660613
 20
39.07311370479078
 30
0.0
  0
VERTEX
  5
3BA
330
3AC
100
AcDbEntity
  8
Visible (ANSI)
100
AcDbVertex
100
AcDb2dVertex
 10
84.16897033184469
 20
39.07236862913129
 30
0.0
  0
VERTEX
  5
3BB
330
3AC
100
AcDbEntity
  8
Visible (ANSI)
100
AcDbVertex
100
AcDb2dVertex
 10
84.16971540310422
 20
39.07167079132611
 30
0.0
  0
VERTEX
  5
3BC
330
3AC
100
AcDbEntity
  8
Visible (ANSI)
100
AcDbVertex
100
AcDb2dVertex
 10
84.17050451932162
 20
39.07102318334067
 30
0.0
  0
VERTEX
  5
3BD
330
3AC
100
AcDbEntity
  8
Visible (ANSI)
100
AcDbVertex
100
AcDb2dVertex
 10
84.17133430170256
 20
39.07042856834304
 30
0.0
  0
VERTEX
  5
3BE
330
3AC
100
AcDbEntity
  8
Visible (ANSI)
100
AcDbVertex
100
AcDb2dVertex
 10
84.17220119802143
 20
39.06988949830375
 30
0.0
  0
VERTEX
  5
3BF
330
3AC
100
AcDbEntity
  8
Visible (ANSI)
100
AcDbVertex
100
AcDb2dVertex
 10
84.17310149435447
 20
39.06940827879618
 30
0.0
  0
VERTEX
  5
3C0
330
3AC
100
AcDbEntity
  8
Visible (ANSI)
100
AcDbVertex
100
AcDb2dVertex
 10
84.1740313363462
 20
39.06898697486312
 30
0.0
  0
VERTEX
  5
3C1
330
3AC
100
AcDbEntity
  8
Visible (ANSI)
100
AcDbVertex
100
AcDb2dVertex
 10
84.1749867420426
 20
39.06862738168383
 30
0.0
  0
VERTEX
  5
3C2
330
3AC
100
AcDbEntity
  8
Visible (ANSI)
100
AcDbVertex
100
AcDb2dVertex
 10
84.17596362022427
 20
39.06833105390704
 30
0.0
  0
VERTEX
  5
3C3
330
3AC
100
AcDbEntity
  8
Visible (ANSI)
100
AcDbVertex
100
AcDb2dVertex
 10
84.17695778873955
 20
39.06809924698489
 30
0.0
  0
VERTEX
  5
3C4
330
3AC
100
AcDbEntity
  8
Visible (ANSI)
100
AcDbVertex
100
AcDb2dVertex
 10
84.17796498843763
 20
39.06793295237261
 30
0.0
  0
VERTEX
  5
3C5
330
3AC
100
AcDbEntity
  8
Visible (ANSI)
100
AcDbVertex
100
AcDb2dVertex
 10
84.17898090883497
 20
39.06783289752846
 30
0.0
  0
VERTEX
  5
3C6
330
3AC
100
AcDbEntity
  8
Visible (ANSI)
100
AcDbVertex
100
AcDb2dVertex
 10
84.18000119838183
 20
39.06779949311434
 30
0.0
  0
SEQEND
  5
3AF
330
3AC
100
AcDbEntity
  8
Visible (ANSI)
  0
LINE
  5
3C7
330
6C
100
AcDbEntity
  8
Visible (ANSI)
100
AcDbLine
 10
84.18000119766103
 20
38.97404949452233
 30
0.0
 11
84.94565119766104
 21
38.97404949452233
 31
0.0
  0
LINE
  5
3C8
330
6C
100
AcDbEntity
  8
Visible (ANSI)
100
AcDbLine
 10
84.94565119766104
 20
39.06779949452232
 30
0.0
 11
84.94565119766104
 21
38.97404949452233
 31
0.0
  0
LINE
  5
3C9
330
6C
100
AcDbEntity
  8
Visible (ANSI)
100
AcDbLine
 10
84.07065119766105
 20
39.08339949452233
 30
0.0
 11
84.07065119766105
 21
63.74469949452232
 31
0.0
  0
LINE
  5
3CA
330
6C
100
AcDbEntity
  8
Hidden (ANSI)
 48
1.084632992744445
100
AcDbLine
 10
84.16440119766106
 20
63.74469949452232
 30
0.0
 11
84.16440119766106
 21
39.08339949452233
 31
0.0
  0
LINE
  5
3CB
330
6C
100
AcDbEntity
  8
Visible (ANSI)
100
AcDbLine
 10
84.94565119766106
 20
63.6940082337861
 30
0.0
 11
84.94565119766107
 21
39.13409075525856
 31
0.0
  0
LINE
  5
3CC
330
6C
100
AcDbEntity
  8
Hidden (ANSI)
 48
0.0177565310150385
100
AcDbLine
 10
84.16440119766082
 20
62.69754949452232
 30
0.0
 11
84.07065119766082
 21
62.69754949452232
 31
0.0
  0
LINE
  5
3CD
330
6C
100
AcDbEntity
  8
Hidden (ANSI)
 48
0.0177565310150385
100
AcDbLine
 10
84.16440119766082
 20
63.26054949452231
 30
0.0
 11
84.07065119766082
 21
63.26054949452231
 31
0.0
  0
LINE
  5
3CE
330
6C
100
AcDbEntity
  8
Hidden (ANSI)
 48
0.0177565310150385
100
AcDbLine
 10
84.16440119766082
 20
39.56754949452232
 30
0.0
 11
84.07065119766082
 21
39.56754949452232
 31
0.0
  0
LINE
  5
3CF
330
6C
100
AcDbEntity
  8
Hidden (ANSI)
 48
0.0177565310150385
100
AcDbLine
 10
84.16440119766082
 20
40.13054949452232
 30
0.0
 11
84.07065119766082
 21
40.13054949452232
 31
0.0
  0
MTEXT
  5
3D0
330
6C
100
AcDbEntity
  8
Symbol (ANSI)
100
AcDbMText
 10
80.76013180052298
 20
30.96675185487614
 30
0.0
 40
1.200000014830761
 41
0.0
 46
0.0
 71
     7
 72
     1
  1
SIDE VIEW
  7
Text Style153
 73
     1
 44
1.0
  0
LINE
  5
3D1
330
6C
100
AcDbEntity
  8
Symbol (ANSI)
370
    30
100
AcDbLine
 10
80.69869164247682
 20
30.71814569322907
 30
0.0
 11
88.80792984653178
 21
30.71814569322907
 31
0.0
  0
ELLIPSE
  5
3D2
330
6C
100
AcDbEntity
  8
Visible (ANSI)
100
AcDbEllipse
 10
142.3304097509458
 20
55.31151464264105
 30
0.0
 11
-0.1755969594512626
 21
0.3049290465935833
 31
0.0
210
0.0
220
0.0
230
1.0
 40
0.5780931159158092
 41
0.0
 42
6.283185307179586
  0
ELLIPSE
  5
3D3
330
6C
100
AcDbEntity
  8
Visible (ANSI)
100
AcDbEllipse
 10
142.4132738268661
 20
55.35923289035109
 30
0.0
 11
-0.1755969594512637
 21
0.304929046593585
 31
0.0
210
0.0
220
0.0
230
1.0
 40
0.578093115915809
 41
0.2372585647783616
 42
2.904334088811347
  0
ELLIPSE
  5
3D4
330
6C
100
AcDbEntity
  8
Visible (ANSI)
100
AcDbEllipse
 10
115.5929345873255
 20
70.70860257041157
 30
0.0
 11
-0.1755969594512626
 21
0.3049290465935833
 31
0.0
210
0.0
220
0.0
230
1.0
 40
0.5780931159158092
 41
0.0
 42
6.283185307179586
  0
ELLIPSE
  5
3D5
330
6C
100
AcDbEntity
  8
Visible (ANSI)
100
AcDbEllipse
 10
115.6757986632458
 20
70.75632081812162
 30
0.0
 11
-0.1755969594512626
 21
0.3049290465935831
 31
0.0
210
0.0
220
0.0
230
1.0
 40
0.5780931159158092
 41
0.237258564778382
 42
2.904334088811347
  0
ELLIPSE
  5
3D6
330
6C
100
AcDbEntity
  8
Visible (ANSI)
100
AcDbEllipse
 10
115.5929345873254
 20
47.07127132340171
 30
0.0
 11
-0.1755969594512626
 21
0.3049290465935833
 31
0.0
210
0.0
220
0.0
230
1.0
 40
0.5780931159158092
 41
0.0
 42
6.283185307179586
  0
ELLIPSE
  5
3D7
330
6C
100
AcDbEntity
  8
Visible (ANSI)
100
AcDbEllipse
 10
115.6757986632457
 20
47.11898957111176
 30
0.0
 11
-0.1755969594512626
 21
0.3049290465935831
 31
0.0
210
0.0
220
0.0
230
1.0
 40
0.5780931159158092
 41
0.2372585647784561
 42
2.904334088811347
  0
ELLIPSE
  5
3D8
330
6C
100
AcDbEntity
  8
Visible (ANSI)
100
AcDbEllipse
 10
142.3304097509458
 20
31.6741833956312
 30
0.0
 11
-0.1755969594512626
 21
0.3049290465935833
 31
0.0
210
0.0
220
0.0
230
1.0
 40
0.5780931159158092
 41
0.0
 42
6.283185307179586
  0
ELLIPSE
  5
3D9
330
6C
100
AcDbEntity
  8
Visible (ANSI)
100
AcDbEllipse
 10
142.413273826866
 20
31.72190164334124
 30
0.0
 11
-0.1755969594512633
 21
0.3049290465935843
 31
0.0
210
0.0
220
0.0
230
1.0
 40
0.5780931159158092
 41
0.237258564778382
 42
2.904334088811353
  0
LINE
  5
3DA
330
6C
100
AcDbEntity
  8
Visible Narrow (ANSI)
100
AcDbLine
 10
143.2004604510221
 20
55.6524434718924
 30
0.0
 11
143.2004604510221
 21
30.55383107071721
 31
0.0
  0
LINE
  5
3DB
330
6C
100
AcDbEntity
  8
Visible Narrow (ANSI)
100
AcDbLine
 10
143.0071551347152
 20
30.50202795263027
 30
0.0
 11
143.0071551347152
 21
55.70424658997935
 31
0.0
  0
LINE
  5
3DC
330
6C
100
AcDbEntity
  8
Visible Narrow (ANSI)
100
AcDbLine
 10
115.0576470294764
 20
72.02236347004526
 30
0.0
 11
143.0590026251018
 21
55.89745520685841
 31
0.0
  0
LINE
  5
3DD
330
6C
100
AcDbEntity
  8
Visible Narrow (ANSI)
100
AcDbLine
 10
143.0071551347152
 20
55.70424658997935
 30
0.0
 11
114.9161892035561
 21
71.8807580134125
 31
0.0
  0
LINE
  5
3DE
330
6C
100
AcDbEntity
  8
Visible Narrow (ANSI)
100
AcDbLine
 10
114.9161892035561
 20
71.8807580134125
 30
0.0
 11
114.916189203556
 21
46.67853937606341
 31
0.0
  0
LINE
  5
3DF
330
6C
100
AcDbEntity
  8
Visible Narrow (ANSI)
100
AcDbLine
 10
114.916189203556
 20
46.67853937606341
 30
0.0
 11
143.0071551347152
 21
30.50202795263027
 31
0.0
  0
LINE
  5
3E0
330
6C
100
AcDbEntity
  8
Visible (ANSI)
100
AcDbLine
 10
114.8761543617095
 20
71.91051501849803
 30
0.0
 11
114.8761543617094
 21
46.76009949923589
 31
0.0
  0
LINE
  5
3E1
330
6C
100
AcDbEntity
  8
Visible (ANSI)
100
AcDbLine
 10
114.967088136992
 20
46.60281426400252
 30
0.0
 11
143.0131385867442
 21
30.45216794609293
 31
0.0
  0
POLYLINE
  5
3E2
330
6C
100
AcDbEntity
  8
Visible (ANSI)
100
AcDb2dPolyline
 66
     1
 10
0.0
 20
0.0
 30
0.0
 70
   128
  0
VERTEX
  5
3E3
330
3E2
100
AcDbEntity
  8
Visible (ANSI)
100
AcDbVertex
100
AcDb2dVertex
 10
143.0071550216071
 20
55.70424623456584
 30
0.0
  0
VERTEX
  5
3E4
330
3E2
100
AcDbEntity
  8
Visible (ANSI)
100
AcDbVertex
100
AcDb2dVertex
 10
143.013683323691
 20
55.69856725560025
 30
0.0
  0
VERTEX
  5
3E6
330
3E2
100
AcDbEntity
  8
Visible (ANSI)
100
AcDbVertex
100
AcDb2dVertex
 10
143.0205980773225
 20
55.69314139661047
 30
0.0
  0
VERTEX
  5
3E7
330
3E2
100
AcDbEntity
  8
Visible (ANSI)
100
AcDbVertex
100
AcDb2dVertex
 10
143.0278674130958
 20
55.68798240549871
 30
0.0
  0
VERTEX
  5
3E8
330
3E2
100
AcDbEntity
  8
Visible (ANSI)
100
AcDbVertex
100
AcDb2dVertex
 10
143.0354630343386
 20
55.68310457647386
 30
0.0
  0
VERTEX
  5
3E9
330
3E2
100
AcDbEntity
  8
Visible (ANSI)
100
AcDbVertex
100
AcDb2dVertex
 10
143.0433522316117
 20
55.67851658117145
 30
0.0
  0
VERTEX
  5
3EA
330
3E2
100
AcDbEntity
  8
Visible (ANSI)
100
AcDbVertex
100
AcDb2dVertex
 10
143.0515006050392
 20
55.67423225693204
 30
0.0
  0
VERTEX
  5
3EB
330
3E2
100
AcDbEntity
  8
Visible (ANSI)
100
AcDbVertex
100
AcDb2dVertex
 10
143.0598720591224
 20
55.67025986027991
 30
0.0
  0
VERTEX
  5
3EC
330
3E2
100
AcDbEntity
  8
Visible (ANSI)
100
AcDbVertex
100
AcDb2dVertex
 10
143.0684315250699
 20
55.66660518124767
 30
0.0
  0
VERTEX
  5
3ED
330
3E2
100
AcDbEntity
  8
Visible (ANSI)
100
AcDbVertex
100
AcDb2dVertex
 10
143.077142331805
 20
55.66327769154531
 30
0.0
  0
VERTEX
  5
3EE
330
3E2
100
AcDbEntity
  8
Visible (ANSI)
100
AcDbVertex
100
AcDb2dVertex
 10
143.0859662993022
 20
55.660281389565
 30
0.0
  0
VERTEX
  5
3EF
330
3E2
100
AcDbEntity
  8
Visible (ANSI)
100
AcDbVertex
100
AcDb2dVertex
 10
143.0948690536124
 20
55.65761635000634
 30
0.0
  0
VERTEX
  5
3F0
330
3E2
100
AcDbEntity
  8
Visible (ANSI)
100
AcDbVertex
100
AcDb2dVertex
 10
143.1038068663433
 20
55.6552910382746
 30
0.0
  0
VERTEX
  5
3F1
330
3E2
100
AcDbEntity
  8
Visible (ANSI)
100
AcDbVertex
100
AcDb2dVertex
 10
143.1127479562405
 20
55.65330090663703
 30
0.0
  0
VERTEX
  5
3F2
330
3E2
100
AcDbEntity
  8
Visible (ANSI)
100
AcDbVertex
100
AcDb2dVertex
 10
143.1216486571363
 20
55.65164679422648
 30
0.0
  0
VERTEX
  5
3F3
330
3E2
100
AcDbEntity
  8
Visible (ANSI)
100
AcDbVertex
100
AcDb2dVertex
 10
143.1304747558288
 20
55.65032735721679
 30
0.0
  0
VERTEX
  5
3F4
330
3E2
100
AcDbEntity
  8
Visible (ANSI)
100
AcDbVertex
100
AcDb2dVertex
 10
143.1391856533081
 20
55.64933908553364
 30
0.0
  0
VERTEX
  5
3F5
330
3E2
100
AcDbEntity
  8
Visible (ANSI)
100
AcDbVertex
100
AcDb2dVertex
 10
143.1477450803652
 20
55.64867484700297
 30
0.0
  0
VERTEX
  5
3F6
330
3E2
100
AcDbEntity
  8
Visible (ANSI)
100
AcDbVertex
100
AcDb2dVertex
 10
143.1561158733112
 20
55.64833159872623
 30
0.0
  0
VERTEX
  5
3F7
330
3E2
100
AcDbEntity
  8
Visible (ANSI)
100
AcDbVertex
100
AcDb2dVertex
 10
143.1642627429756
 20
55.64829818037233
 30
0.0
  0
VERTEX
  5
3F8
330
3E2
100
AcDbEntity
  8
Visible (ANSI)
100
AcDbVertex
100
AcDb2dVertex
 10
143.1721523771179
 20
55.64856765147829
 30
0.0
  0
VERTEX
  5
3F9
330
3E2
100
AcDbEntity
  8
Visible (ANSI)
100
AcDbVertex
100
AcDb2dVertex
 10
143.1797482391572
 20
55.64912966816788
 30
0.0
  0
VERTEX
  5
3FA
330
3E2
100
AcDbEntity
  8
Visible (ANSI)
100
AcDbVertex
100
AcDb2dVertex
 10
143.1870186427967
 20
55.64997056419164
 30
0.0
  0
VERTEX
  5
3FB
330
3E2
100
AcDbEntity
  8
Visible (ANSI)
100
AcDbVertex
100
AcDb2dVertex
 10
143.193931556263
 20
55.6510810787256
 30
0.0
  0
VERTEX
  5
3FC
330
3E2
100
AcDbEntity
  8
Visible (ANSI)
100
AcDbVertex
100
AcDb2dVertex
 10
143.2004600268721
 20
55.65244415596051
 30
0.0
  0
SEQEND
  5
3E5
330
3E2
100
AcDbEntity
  8
Visible (ANSI)
  0
POLYLINE
  5
3FD
330
6C
100
AcDbEntity
  8
Visible (ANSI)
100
AcDb2dPolyline
 66
     1
 10
0.0
 20
0.0
 30
0.0
 70
   128
  0
VERTEX
  5
3FE
330
3FD
100
AcDbEntity
  8
Visible (ANSI)
100
AcDbVertex
100
AcDb2dVertex
 10
143.200460026872
 20
30.55383131875502
 30
0.0
  0
VERTEX
  5
3FF
330
3FD
100
AcDbEntity
  8
Visible (ANSI)
100
AcDbVertex
100
AcDb2dVertex
 10
143.1939315562629
 20
30.54815185839661
 30
0.0
  0
VERTEX
  5
401
330
3FD
100
AcDbEntity
  8
Visible (ANSI)
100
AcDbVertex
100
AcDb2dVertex
 10
143.1870186427966
 20
30.54272496073915
 30
0.0
  0
VERTEX
  5
402
330
3FD
100
AcDbEntity
  8
Visible (ANSI)
100
AcDbVertex
100
AcDb2dVertex
 10
143.1797482391571
 20
30.53756615879169
 30
0.0
  0
VERTEX
  5
403
330
3FD
100
AcDbEntity
  8
Visible (ANSI)
100
AcDbVertex
100
AcDb2dVertex
 10
143.1721523771178
 20
30.5326877589786
 30
0.0
  0
VERTEX
  5
404
330
3FD
100
AcDbEntity
  8
Visible (ANSI)
100
AcDbVertex
100
AcDb2dVertex
 10
143.1642627429756
 20
30.52810190474915
 30
0.0
  0
VERTEX
  5
405
330
3FD
100
AcDbEntity
  8
Visible (ANSI)
100
AcDbVertex
100
AcDb2dVertex
 10
143.1561158733111
 20
30.52381741717936
 30
0.0
  0
VERTEX
  5
406
330
3FD
100
AcDbEntity
  8
Visible (ANSI)
100
AcDbVertex
100
AcDb2dVertex
 10
143.1477450803651
 20
30.51984428233259
 30
0.0
  0
VERTEX
  5
407
330
3FD
100
AcDbEntity
  8
Visible (ANSI)
100
AcDbVertex
100
AcDb2dVertex
 10
143.139185653308
 20
30.51619060294904
 30
0.0
  0
VERTEX
  5
408
330
3FD
100
AcDbEntity
  8
Visible (ANSI)
100
AcDbVertex
100
AcDb2dVertex
 10
143.1304747558287
 20
30.51286250349923
 30
0.0
  0
VERTEX
  5
409
330
3FD
100
AcDbEntity
  8
Visible (ANSI)
100
AcDbVertex
100
AcDb2dVertex
 10
143.1216486571363
 20
30.50986555738541
 30
0.0
  0
VERTEX
  5
40A
330
3FD
100
AcDbEntity
  8
Visible (ANSI)
100
AcDbVertex
100
AcDb2dVertex
 10
143.1127479562404
 20
30.50720175188172
 30
0.0
  0
VERTEX
  5
40B
330
3FD
100
AcDbEntity
  8
Visible (ANSI)
100
AcDbVertex
100
AcDb2dVertex
 10
143.1038068663432
 20
30.50487551238635
 30
0.0
  0
VERTEX
  5
40C
330
3FD
100
AcDbEntity
  8
Visible (ANSI)
100
AcDbVertex
100
AcDb2dVertex
 10
143.0948690536123
 20
30.50288444099459
 30
0.0
  0
VERTEX
  5
40D
330
3FD
100
AcDbEntity
  8
Visible (ANSI)
100
AcDbVertex
100
AcDb2dVertex
 10
143.0859662993021
 20
30.50123157462956
 30
0.0
  0
VERTEX
  5
40E
330
3FD
100
AcDbEntity
  8
Visible (ANSI)
100
AcDbVertex
100
AcDb2dVertex
 10
143.0771423318049
 20
30.49991149348637
 30
0.0
  0
VERTEX
  5
40F
330
3FD
100
AcDbEntity
  8
Visible (ANSI)
100
AcDbVertex
100
AcDb2dVertex
 10
143.0684315250699
 20
30.49892260006523
 30
0.0
  0
VERTEX
  5
410
330
3FD
100
AcDbEntity
  8
Visible (ANSI)
100
AcDbVertex
100
AcDb2dVertex
 10
143.0598720591223
 20
30.49825937317378
 30
0.0
  0
VERTEX
  5
411
330
3FD
100
AcDbEntity
  8
Visible (ANSI)
100
AcDbVertex
100
AcDb2dVertex
 10
143.0515006050391
 20
30.4979153867024
 30
0.0
  0
VERTEX
  5
412
330
3FD
100
AcDbEntity
  8
Visible (ANSI)
100
AcDbVertex
100
AcDb2dVertex
 10
143.0433522316116
 20
30.49788332781832
 30
0.0
  0
VERTEX
  5
413
330
3FD
100
AcDbEntity
  8
Visible (ANSI)
100
AcDbVertex
100
AcDb2dVertex
 10
143.0354630343385
 20
30.49815341719703
 30
0.0
  0
VERTEX
  5
414
330
3FD
100
AcDbEntity
  8
Visible (ANSI)
100
AcDbVertex
100
AcDb2dVertex
 10
143.0278674130958
 20
30.49871486309839
 30
0.0
  0
VERTEX
  5
415
330
3FD
100
AcDbEntity
  8
Visible (ANSI)
100
AcDbVertex
100
AcDb2dVertex
 10
143.0205980773225
 20
30.4995559362959
 30
0.0
  0
VERTEX
  5
416
330
3FD
100
AcDbEntity
  8
Visible (ANSI)
100
AcDbVertex
100
AcDb2dVertex
 10
143.0136833236909
 20
30.50066542415274
 30
0.0
  0
VERTEX
  5
417
330
3FD
100
AcDbEntity
  8
Visible (ANSI)
100
AcDbVertex
100
AcDb2dVertex
 10
143.007155021607
 20
30.50202801999482
 30
0.0
  0
SEQEND
  5
400
330
3FD
100
AcDbEntity
  8
Visible (ANSI)
  0
LINE
  5
418
330
6C
100
AcDbEntity
  8
Visible (ANSI)
100
AcDbLine
 10
143.1194130978139
 20
55.70120790063366
 30
0.0
 11
143.7943417588711
 21
56.08987346743386
 31
0.0
  0
LINE
  5
419
330
6C
100
AcDbEntity
  8
Visible (ANSI)
100
AcDbLine
 10
143.8772058347914
 20
30.94354281854862
 30
0.0
 11
143.2004604510221
 21
30.55383107071721
 31
0.0
  0
LINE
  5
41A
330
6C
100
AcDbEntity
  8
Visible (ANSI)
100
AcDbLine
 10
143.1324421760791
 20
55.69161259139918
 30
0.0
 11
143.2004604510221
 21
55.6524434718924
 31
0.0
  0
POLYLINE
  5
41B
330
6C
100
AcDbEntity
  8
Visible (ANSI)
100
AcDb2dPolyline
 66
     1
 10
0.0
 20
0.0
 30
0.0
 70
   128
  0
VERTEX
  5
41C
330
41B
100
AcDbEntity
  8
Visible (ANSI)
100
AcDbVertex
100
AcDb2dVertex
 10
143.0900190962828
 20
55.75196448155923
 30
0.0
  0
VERTEX
  5
41D
330
41B
100
AcDbEntity
  8
Visible (ANSI)
100
AcDbVertex
100
AcDb2dVertex
 10
143.0906849093693
 20
55.75004247541556
 30
0.0
  0
VERTEX
  5
41F
330
41B
100
AcDbEntity
  8
Visible (ANSI)
100
AcDbVertex
100
AcDb2dVertex
 10
143.0913814038173
 20
55.74813813749303
 30
0.0
  0
VERTEX
  5
420
330
41B
100
AcDbEntity
  8
Visible (ANSI)
100
AcDbVertex
100
AcDb2dVertex
 10
143.0921031672359
 20
55.74625446646887
 30
0.0
  0
VERTEX
  5
421
330
41B
100
AcDbEntity
  8
Visible (ANSI)
100
AcDbVertex
100
AcDb2dVertex
 10
143.0928526838685
 20
55.74438830040006
 30
0.0
  0
VERTEX
  5
422
330
41B
100
AcDbEntity
  8
Visible (ANSI)
100
AcDbVertex
100
AcDb2dVertex
 10
143.0936244054646
 20
55.74254562930907
 30
0.0
  0
VERTEX
  5
423
330
41B
100
AcDbEntity
  8
Visible (ANSI)
100
AcDbVertex
100
AcDb2dVertex
 10
143.0944206812993
 20
55.74072321352978
 30
0.0
  0
VERTEX
  5
424
330
41B
100
AcDbEntity
  8
Visible (ANSI)
100
AcDbVertex
100
AcDb2dVertex
 10
143.095238484361
 20
55.73892083286432
 30
0.0
  0
VERTEX
  5
425
330
41B
100
AcDbEntity
  8
Visible (ANSI)
100
AcDbVertex
100
AcDb2dVertex
 10
143.0960747218075
 20
55.73714283357794
 30
0.0
  0
VERTEX
  5
426
330
41B
100
AcDbEntity
  8
Visible (ANSI)
100
AcDbVertex
100
AcDb2dVertex
 10
143.0969288911423
 20
55.73538739151135
 30
0.0
  0
VERTEX
  5
427
330
41B
100
AcDbEntity
  8
Visible (ANSI)
100
AcDbVertex
100
AcDb2dVertex
 10
143.0977951164274
 20
55.73365723840293
 30
0.0
  0
VERTEX
  5
428
330
41B
100
AcDbEntity
  8
Visible (ANSI)
100
AcDbVertex
100
AcDb2dVertex
 10
143.0986780787736
 20
55.73194741966829
 30
0.0
  0
VERTEX
  5
429
330
41B
100
AcDbEntity
  8
Visible (ANSI)
100
AcDbVertex
100
AcDb2dVertex
 10
143.0995717792518
 20
55.73026366580156
 30
0.0
  0
VERTEX
  5
42A
330
41B
100
AcDbEntity
  8
Visible (ANSI)
100
AcDbVertex
100
AcDb2dVertex
 10
143.1004754685733
 20
55.72860401052524
 30
0.0
  0
VERTEX
  5
42B
330
41B
100
AcDbEntity
  8
Visible (ANSI)
100
AcDbVertex
100
AcDb2dVertex
 10
143.1013856856524
 20
55.7269695184657
 30
0.0
  0
VERTEX
  5
42C
330
41B
100
AcDbEntity
  8
Visible (ANSI)
100
AcDbVertex
100
AcDb2dVertex
 10
143.10230156777
 20
55.72535815802523
 30
0.0
  0
VERTEX
  5
42D
330
41B
100
AcDbEntity
  8
Visible (ANSI)
100
AcDbVertex
100
AcDb2dVertex
 10
143.1032195431645
 20
55.72377399967777
 30
0.0
  0
VERTEX
  5
42E
330
41B
100
AcDbEntity
  8
Visible (ANSI)
100
AcDbVertex
100
AcDb2dVertex
 10
143.1041386441128
 20
55.72221495135775
 30
0.0
  0
VERTEX
  5
42F
330
41B
100
AcDbEntity
  8
Visible (ANSI)
100
AcDbVertex
100
AcDb2dVertex
 10
143.1050605062811
 20
55.7206788972498
 30
0.0
  0
VERTEX
  5
430
330
41B
100
AcDbEntity
  8
Visible (ANSI)
100
AcDbVertex
100
AcDb2dVertex
 10
143.1059760996372
 20
55.71916827571247
 30
0.0
  0
VERTEX
  5
431
330
41B
100
AcDbEntity
  8
Visible (ANSI)
100
AcDbVertex
100
AcDb2dVertex
 10
143.1068896227265
 20
55.71768245864267
 30
0.0
  0
VERTEX
  5
432
330
41B
100
AcDbEntity
  8
Visible (ANSI)
100
AcDbVertex
100
AcDb2dVertex
 10
143.1077946119604
 20
55.71622230458266
 30
0.0
  0
VERTEX
  5
433
330
41B
100
AcDbEntity
  8
Visible (ANSI)
100
AcDbVertex
100
AcDb2dVertex
 10
143.108689873403
 20
55.71478712599043
 30
0.0
  0
VERTEX
  5
434
330
41B
100
AcDbEntity
  8
Visible (ANSI)
100
AcDbVertex
100
AcDb2dVertex
 10
143.1095741755242
 20
55.71337467888424
 30
0.0
  0
VERTEX
  5
435
330
41B
100
AcDbEntity
  8
Visible (ANSI)
100
AcDbVertex
100
AcDb2dVertex
 10
143.1104462530889
 20
55.71198730424512
 30
0.0
  0
SEQEND
  5
41E
330
41B
100
AcDbEntity
  8
Visible (ANSI)
  0
LINE
  5
436
330
6C
100
AcDbEntity
  8
Visible (ANSI)
100
AcDbLine
 10
143.0900192106355
 20
55.7519648376894
 30
0.0
 11
143.075283937164
 21
55.74347935804362
 31
0.0
  0
LINE
  5
437
330
6C
100
AcDbEntity
  8
Visible (ANSI)
100
AcDbLine
 10
143.075283937164
 20
55.74347935804362
 30
0.0
 11
143.0071551347152
 21
55.70424658997935
 31
0.0
  0
LINE
  5
438
330
6C
100
AcDbEntity
  8
Visible (ANSI)
100
AcDbLine
 10
143.2004604510221
 20
55.6524434718924
 30
0.0
 11
143.8772058347914
 21
56.04215521972381
 31
0.0
  0
LINE
  5
439
330
6C
100
AcDbEntity
  8
Visible (ANSI)
100
AcDbLine
 10
143.7943417588711
 20
56.08987346743386
 30
0.0
 11
143.8772058347914
 21
56.04215521972381
 31
0.0
  0
POLYLINE
  5
43A
330
6C
100
AcDbEntity
  8
Visible (ANSI)
100
AcDb2dPolyline
 66
     1
 10
0.0
 20
0.0
 30
0.0
 70
   128
  0
VERTEX
  5
43B
330
43A
100
AcDbEntity
  8
Visible (ANSI)
100
AcDbVertex
100
AcDb2dVertex
 10
114.9161892054895
 20
71.88075759175091
 30
0.0
  0
VERTEX
  5
43C
330
43A
100
AcDbEntity
  8
Visible (ANSI)
100
AcDbVertex
100
AcDb2dVertex
 10
114.9182630295552
 20
71.88711036535209
 30
0.0
  0
VERTEX
  5
43E
330
43A
100
AcDbEntity
  8
Visible (ANSI)
100
AcDbVertex
100
AcDb2dVertex
 10
114.9207498439937
 20
71.89367028042129
 30
0.0
  0
VERTEX
  5
43F
330
43A
100
AcDbEntity
  8
Visible (ANSI)
100
AcDbVertex
100
AcDb2dVertex
 10
114.9236470042561
 20
71.90040355957011
 30
0.0
  0
VERTEX
  5
440
330
43A
100
AcDbEntity
  8
Visible (ANSI)
100
AcDbVertex
100
AcDb2dVertex
 10
114.9269500975756
 20
71.90727697778462
 30
0.0
  0
VERTEX
  5
441
330
43A
100
AcDbEntity
  8
Visible (ANSI)
100
AcDbVertex
100
AcDb2dVertex
 10
114.9306529533385
 20
71.91425629777413
 30
0.0
  0
VERTEX
  5
442
330
43A
100
AcDbEntity
  8
Visible (ANSI)
100
AcDbVertex
100
AcDb2dVertex
 10
114.934747741606
 20
71.92130936045503
 30
0.0
  0
VERTEX
  5
443
330
43A
100
AcDbEntity
  8
Visible (ANSI)
100
AcDbVertex
100
AcDb2dVertex
 10
114.9392249057047
 20
71.92839690905306
 30
0.0
  0
VERTEX
  5
444
330
43A
100
AcDbEntity
  8
Visible (ANSI)
100
AcDbVertex
100
AcDb2dVertex
 10
114.9440732607488
 20
71.93548795791331
 30
0.0
  0
VERTEX
  5
445
330
43A
100
AcDbEntity
  8
Visible (ANSI)
100
AcDbVertex
100
AcDb2dVertex
 10
114.9492800506793
 20
71.94254597639737
 30
0.0
  0
VERTEX
  5
446
330
43A
100
AcDbEntity
  8
Visible (ANSI)
100
AcDbVertex
100
AcDb2dVertex
 10
114.9548309793763
 20
71.9495366524191
 30
0.0
  0
VERTEX
  5
447
330
43A
100
AcDbEntity
  8
Visible (ANSI)
100
AcDbVertex
100
AcDb2dVertex
 10
114.9607102469572
 20
71.95642480793281
 30
0.0
  0
VERTEX
  5
448
330
43A
100
AcDbEntity
  8
Visible (ANSI)
100
AcDbVertex
100
AcDb2dVertex
 10
114.966900694967
 20
71.96317751629187
 30
0.0
  0
VERTEX
  5
449
330
43A
100
AcDbEntity
  8
Visible (ANSI)
100
AcDbVertex
100
AcDb2dVertex
 10
114.9733837960078
 20
71.96975957551413
 30
0.0
  0
VERTEX
  5
44A
330
43A
100
AcDbEntity
  8
Visible (ANSI)
100
AcDbVertex
100
AcDb2dVertex
 10
114.9801397989298
 20
71.9761396355007
 30
0.0
  0
VERTEX
  5
44B
330
43A
100
AcDbEntity
  8
Visible (ANSI)
100
AcDbVertex
100
AcDb2dVertex
 10
114.9871477547581
 20
71.98228415741316
 30
0.0
  0
VERTEX
  5
44C
330
43A
100
AcDbEntity
  8
Visible (ANSI)
100
AcDbVertex
100
AcDb2dVertex
 10
114.9943856385494
 20
71.98816358717637
 30
0.0
  0
VERTEX
  5
44D
330
43A
100
AcDbEntity
  8
Visible (ANSI)
100
AcDbVertex
100
AcDb2dVertex
 10
115.0018304764341
 20
71.99374778843203
 30
0.0
  0
VERTEX
  5
44E
330
43A
100
AcDbEntity
  8
Visible (ANSI)
100
AcDbVertex
100
AcDb2dVertex
 10
115.0094583689504
 20
71.99900766243231
 30
0.0
  0
VERTEX
  5
44F
330
43A
100
AcDbEntity
  8
Visible (ANSI)
100
AcDbVertex
100
AcDb2dVertex
 10
115.0172446362355
 20
72.00391673060777
 30
0.0
  0
VERTEX
  5
450
330
43A
100
AcDbEntity
  8
Visible (ANSI)
100
AcDbVertex
100
AcDb2dVertex
 10
115.0251639515491
 20
72.00845117562571
 30
0.0
  0
VERTEX
  5
451
330
43A
100
AcDbEntity
  8
Visible (ANSI)
100
AcDbVertex
100
AcDb2dVertex
 10
115.033190387618
 20
72.0125822657901
 30
0.0
  0
VERTEX
  5
452
330
43A
100
AcDbEntity
  8
Visible (ANSI)
100
AcDbVertex
100
AcDb2dVertex
 10
115.0412975576138
 20
72.01629328309057
 30
0.0
  0
VERTEX
  5
453
330
43A
100
AcDbEntity
  8
Visible (ANSI)
100
AcDbVertex
100
AcDb2dVertex
 10
115.0494587603439
 20
72.01955961869995
 30
0.0
  0
VERTEX
  5
454
330
43A
100
AcDbEntity
  8
Visible (ANSI)
100
AcDbVertex
100
AcDb2dVertex
 10
115.0576470327534
 20
72.02236422278111
 30
0.0
  0
SEQEND
  5
43D
330
43A
100
AcDbEntity
  8
Visible (ANSI)
  0
POLYLINE
  5
455
330
6C
100
AcDbEntity
  8
Visible (ANSI)
100
AcDb2dPolyline
 66
     1
 10
0.0
 20
0.0
 30
0.0
 70
   128
  0
VERTEX
  5
456
330
455
100
AcDbEntity
  8
Visible (ANSI)
100
AcDbVertex
100
AcDb2dVertex
 10
143.0590032561314
 20
55.89745559809563
 30
0.0
  0
VERTEX
  5
457
330
455
100
AcDbEntity
  8
Visible (ANSI)
100
AcDbVertex
100
AcDb2dVertex
 10
143.054548277723
 20
55.89250113298069
 30
0.0
  0
VERTEX
  5
459
330
455
100
AcDbEntity
  8
Visible (ANSI)
100
AcDbVertex
100
AcDb2dVertex
 10
143.0501203689941
 20
55.88708493633755
 30
0.0
  0
VERTEX
  5
45A
330
455
100
AcDbEntity
  8
Visible (ANSI)
100
AcDbVertex
100
AcDb2dVertex
 10
143.0457464826286
 20
55.88122406397544
 30
0.0
  0
VERTEX
  5
45B
330
455
100
AcDbEntity
  8
Visible (ANSI)
100
AcDbVertex
100
AcDb2dVertex
 10
143.0414533405608
 20
55.87494311277728
 30
0.0
  0
VERTEX
  5
45C
330
455
100
AcDbEntity
  8
Visible (ANSI)
100
AcDbVertex
100
AcDb2dVertex
 10
143.037269974168
 20
55.86825727785904
 30
0.0
  0
VERTEX
  5
45D
330
455
100
AcDbEntity
  8
Visible (ANSI)
100
AcDbVertex
100
AcDb2dVertex
 10
143.0332169905133
 20
55.86119835462194
 30
0.0
  0
VERTEX
  5
45E
330
455
100
AcDbEntity
  8
Visible (ANSI)
100
AcDbVertex
100
AcDb2dVertex
 10
143.029322391998
 20
55.85378861958787
 30
0.0
  0
VERTEX
  5
45F
330
455
100
AcDbEntity
  8
Visible (ANSI)
100
AcDbVertex
100
AcDb2dVertex
 10
143.0256108481145
 20
55.84605455729844
 30
0.0
  0
VERTEX
  5
460
330
455
100
AcDbEntity
  8
Visible (ANSI)
100
AcDbVertex
100
AcDb2dVertex
 10
143.0221062479536
 20
55.83802527247359
 30
0.0
  0
VERTEX
  5
461
330
455
100
AcDbEntity
  8
Visible (ANSI)
100
AcDbVertex
100
AcDb2dVertex
 10
143.0188342410461
 20
55.82972936066084
 30
0.0
  0
VERTEX
  5
462
330
455
100
AcDbEntity
  8
Visible (ANSI)
100
AcDbVertex
100
AcDb2dVertex
 10
143.0158115321252
 20
55.82119943964051
 30
0.0
  0
VERTEX
  5
463
330
455
100
AcDbEntity
  8
Visible (ANSI)
100
AcDbVertex
100
AcDb2dVertex
 10
143.0130617147147
 20
55.81246752535661
 30
0.0
  0
VERTEX
  5
464
330
455
100
AcDbEntity
  8
Visible (ANSI)
100
AcDbVertex
100
AcDb2dVertex
 10
143.0106045607061
 20
55.80356495596378
 30
0.0
  0
VERTEX
  5
465
330
455
100
AcDbEntity
  8
Visible (ANSI)
100
AcDbVertex
100
AcDb2dVertex
 10
143.0084585767556
 20
55.7945269453884
 30
0.0
  0
VERTEX
  5
466
330
455
100
AcDbEntity
  8
Visible (ANSI)
100
AcDbVertex
100
AcDb2dVertex
 10
143.0066409420597
 20
55.7853864083329
 30
0.0
  0
VERTEX
  5
467
330
455
100
AcDbEntity
  8
Visible (ANSI)
100
AcDbVertex
100
AcDb2dVertex
 10
143.00517010105
 20
55.77617699994856
 30
0.0
  0
VERTEX
  5
468
330
455
100
AcDbEntity
  8
Visible (ANSI)
100
AcDbVertex
100
AcDb2dVertex
 10
143.0040550296362
 20
55.76693609602667
 30
0.0
  0
VERTEX
  5
469
330
455
100
AcDbEntity
  8
Visible (ANSI)
100
AcDbVertex
100
AcDb2dVertex
 10
143.0033111595387
 20
55.75769868639485
 30
0.0
  0
VERTEX
  5
46A
330
455
100
AcDbEntity
  8
Visible (ANSI)
100
AcDbVertex
100
AcDb2dVertex
 10
143.0029496652723
 20
55.74849576268018
 30
0.0
  0
VERTEX
  5
46B
330
455
100
AcDbEntity
  8
Visible (ANSI)
100
AcDbVertex
100
AcDb2dVertex
 10
143.0029800931398
 20
55.73936658762903
 30
0.0
  0
VERTEX
  5
46C
330
455
100
AcDbEntity
  8
Visible (ANSI)
100
AcDbVertex
100
AcDb2dVertex
 10
143.0034129487409
 20
55.73034177951422
 30
0.0
  0
VERTEX
  5
46D
330
455
100
AcDbEntity
  8
Visible (ANSI)
100
AcDbVertex
100
AcDb2dVertex
 10
143.0042490824797
 20
55.72145863933164
 30
0.0
  0
VERTEX
  5
46E
330
455
100
AcDbEntity
  8
Visible (ANSI)
100
AcDbVertex
100
AcDb2dVertex
 10
143.0054955516716
 20
55.71274886920079
 30
0.0
  0
VERTEX
  5
46F
330
455
100
AcDbEntity
  8
Visible (ANSI)
100
AcDbVertex
100
AcDb2dVertex
 10
143.0071550216071
 20
55.70424623456584
 30
0.0
  0
SEQEND
  5
458
330
455
100
AcDbEntity
  8
Visible (ANSI)
  0
LINE
  5
470
330
6C
100
AcDbEntity
  8
Visible (ANSI)
100
AcDbLine
 10
143.0608067288236
 20
55.80268781740391
 30
0.0
 11
143.7357480088711
 21
56.19136065099733
 31
0.0
  0
LINE
  5
471
330
6C
100
AcDbEntity
  8
Visible (ANSI)
100
AcDbLine
 10
143.7357480088711
 20
56.2871669546898
 30
0.0
 11
143.0590026251018
 21
55.89745520685841
 31
0.0
  0
LINE
  5
472
330
6C
100
AcDbEntity
  8
Visible (ANSI)
100
AcDbLine
 10
143.0590026251018
 20
55.81868562347594
 30
0.0
 11
143.0590026251018
 21
55.89745520685841
 31
0.0
  0
LINE
  5
473
330
6C
100
AcDbEntity
  8
Visible (ANSI)
100
AcDbLine
 10
143.7357480088711
 20
56.19136065099733
 30
0.0
 11
143.7357480088711
 21
56.2871669546898
 31
0.0
  0
POLYLINE
  5
474
330
6C
100
AcDbEntity
  8
Visible (ANSI)
100
AcDb2dPolyline
 66
     1
 10
0.0
 20
0.0
 30
0.0
 70
   128
  0
VERTEX
  5
475
330
474
100
AcDbEntity
  8
Visible (ANSI)
100
AcDbVertex
100
AcDb2dVertex
 10
143.0900190962828
 20
55.75196448155923
 30
0.0
  0
VERTEX
  5
476
330
474
100
AcDbEntity
  8
Visible (ANSI)
100
AcDbVertex
100
AcDb2dVertex
 10
143.0886884145182
 20
55.75350051099981
 30
0.0
  0
VERTEX
  5
478
330
474
100
AcDbEntity
  8
Visible (ANSI)
100
AcDbVertex
100
AcDb2dVertex
 10
143.087388423458
 20
55.75505421404169
 30
0.0
  0
VERTEX
  5
479
330
474
100
AcDbEntity
  8
Visible (ANSI)
100
AcDbVertex
100
AcDb2dVertex
 10
143.0861163655573
 20
55.75662092129037
 30
0.0
  0
VERTEX
  5
47A
330
474
100
AcDbEntity
  8
Visible (ANSI)
100
AcDbVertex
100
AcDb2dVertex
 10
143.0848773798956
 20
55.75820054626039
 30
0.0
  0
VERTEX
  5
47B
330
474
100
AcDbEntity
  8
Visible (ANSI)
100
AcDbVertex
100
AcDb2dVertex
 10
143.08366857298
 20
55.75978987606073
 30
0.0
  0
VERTEX
  5
47C
330
474
100
AcDbEntity
  8
Visible (ANSI)
100
AcDbVertex
100
AcDb2dVertex
 10
143.0824896389939
 20
55.76138873458337
 30
0.0
  0
VERTEX
  5
47D
330
474
100
AcDbEntity
  8
Visible (ANSI)
100
AcDbVertex
100
AcDb2dVertex
 10
143.0813402055412
 20
55.76299537258895
 30
0.0
  0
VERTEX
  5
47E
330
474
100
AcDbEntity
  8
Visible (ANSI)
100
AcDbVertex
100
AcDb2dVertex
 10
143.0802171797395
 20
55.76460799715646
 30
0.0
  0
VERTEX
  5
47F
330
474
100
AcDbEntity
  8
Visible (ANSI)
100
AcDbVertex
100
AcDb2dVertex
 10
143.0791253683641
 20
55.76622172606692
 30
0.0
  0
VERTEX
  5
480
330
474
100
AcDbEntity
  8
Visible (ANSI)
100
AcDbVertex
100
AcDb2dVertex
 10
143.0780615500727
 20
55.76783776200564
 30
0.0
  0
VERTEX
  5
481
330
474
100
AcDbEntity
  8
Visible (ANSI)
100
AcDbVertex
100
AcDb2dVertex
 10
143.0770250961366
 20
55.76945267333049
 30
0.0
  0
VERTEX
  5
482
330
474
100
AcDbEntity
  8
Visible (ANSI)
100
AcDbVertex
100
AcDb2dVertex
 10
143.0760153164939
 20
55.7710660626612
 30
0.0
  0
VERTEX
  5
483
330
474
100
AcDbEntity
  8
Visible (ANSI)
100
AcDbVertex
100
AcDb2dVertex
 10
143.0750288069363
 20
55.77267595779606
 30
0.0
  0
VERTEX
  5
484
330
474
100
AcDbEntity
  8
Visible (ANSI)
100
AcDbVertex
100
AcDb2dVertex
 10
143.0740700703267
 20
55.77427883629534
 30
0.0
  0
VERTEX
  5
485
330
474
100
AcDbEntity
  8
Visible (ANSI)
100
AcDbVertex
100
AcDb2dVertex
 10
143.073135588864
 20
55.7758741953345
 30
0.0
  0
VERTEX
  5
486
330
474
100
AcDbEntity
  8
Visible (ANSI)
100
AcDbVertex
100
AcDb2dVertex
 10
143.0722244448964
 20
55.77745997168218
 30
0.0
  0
VERTEX
  5
487
330
474
100
AcDbEntity
  8
Visible (ANSI)
100
AcDbVertex
100
AcDb2dVertex
 10
143.0713356700524
 20
55.77903407289958
 30
0.0
  0
VERTEX
  5
488
330
474
100
AcDbEntity
  8
Visible (ANSI)
100
AcDbVertex
100
AcDb2dVertex
 10
143.0704655901591
 20
55.78059590611357
 30
0.0
  0
VERTEX
  5
489
330
474
100
AcDbEntity
  8
Visible (ANSI)
100
AcDbVertex
100
AcDb2dVertex
 10
143.069618448486
 20
55.78214179939442
 30
0.0
  0
VERTEX
  5
48A
330
474
100
AcDbEntity
  8
Visible (ANSI)
100
AcDbVertex
100
AcDb2dVertex
 10
143.0687904784953
 20
55.78367110667967
 30
0.0
  0
VERTEX
  5
48B
330
474
100
AcDbEntity
  8
Visible (ANSI)
100
AcDbVertex
100
AcDb2dVertex
 10
143.0679805257897
 20
55.78518162840534
 30
0.0
  0
VERTEX
  5
48C
330
474
100
AcDbEntity
  8
Visible (ANSI)
100
AcDbVertex
100
AcDb2dVertex
 10
143.0671873957852
 20
55.78667267665615
 30
0.0
  0
VERTEX
  5
48D
330
474
100
AcDbEntity
  8
Visible (ANSI)
100
AcDbVertex
100
AcDb2dVertex
 10
143.0664072013837
 20
55.78814353594361
 30
0.0
  0
VERTEX
  5
48E
330
474
100
AcDbEntity
  8
Visible (ANSI)
100
AcDbVertex
100
AcDb2dVertex
 10
143.065643985893
 20
55.78958888439699
 30
0.0
  0
SEQEND
  5
477
330
474
100
AcDbEntity
  8
Visible (ANSI)
  0
LINE
  5
48F
330
6C
100
AcDbEntity
  8
Visible (ANSI)
100
AcDbLine
 10
115.0576470294764
 20
72.02236347004526
 30
0.0
 11
115.7343924132456
 21
72.41207521787663
 31
0.0
  0
POLYLINE
  5
490
330
6C
100
AcDbEntity
  8
Visible (ANSI)
100
AcDb2dPolyline
 66
     1
 10
0.0
 20
0.0
 30
0.0
 70
   128
  0
VERTEX
  5
491
330
490
100
AcDbEntity
  8
Visible (ANSI)
100
AcDbVertex
100
AcDb2dVertex
 10
114.9161892054895
 20
46.67853937717988
 30
0.0
  0
VERTEX
  5
492
330
490
100
AcDbEntity
  8
Visible (ANSI)
100
AcDbVertex
100
AcDb2dVertex
 10
114.9130785730987
 20
46.68146950681722
 30
0.0
  0
VERTEX
  5
494
330
490
100
AcDbEntity
  8
Visible (ANSI)
100
AcDbVertex
100
AcDb2dVertex
 10
114.9100747597384
 20
46.68445725561122
 30
0.0
  0
VERTEX
  5
495
330
490
100
AcDbEntity
  8
Visible (ANSI)
100
AcDbVertex
100
AcDb2dVertex
 10
114.9071810010917
 20
46.68750056910122
 30
0.0
  0
VERTEX
  5
496
330
490
100
AcDbEntity
  8
Visible (ANSI)
100
AcDbVertex
100
AcDb2dVertex
 10
114.9044003772803
 20
46.69059736907688
 30
0.0
  0
VERTEX
  5
497
330
490
100
AcDbEntity
  8
Visible (ANSI)
100
AcDbVertex
100
AcDb2dVertex
 10
114.9017358802741
 20
46.69374547267664
 30
0.0
  0
VERTEX
  5
498
330
490
100
AcDbEntity
  8
Visible (ANSI)
100
AcDbVertex
100
AcDb2dVertex
 10
114.899190356852
 20
46.69694267916882
 30
0.0
  0
VERTEX
  5
499
330
490
100
AcDbEntity
  8
Visible (ANSI)
100
AcDbVertex
100
AcDb2dVertex
 10
114.8967665397146
 20
46.70018671018399
 30
0.0
  0
VERTEX
  5
49A
330
490
100
AcDbEntity
  8
Visible (ANSI)
100
AcDbVertex
100
AcDb2dVertex
 10
114.8944670163712
 20
46.70347525151991
 30
0.0
  0
VERTEX
  5
49B
330
490
100
AcDbEntity
  8
Visible (ANSI)
100
AcDbVertex
100
AcDb2dVertex
 10
114.8922942498822
 20
46.70680592323459
 30
0.0
  0
VERTEX
  5
49C
330
490
100
AcDbEntity
  8
Visible (ANSI)
100
AcDbVertex
100
AcDb2dVertex
 10
114.8902505684876
 20
46.71017633955271
 30
0.0
  0
VERTEX
  5
49D
330
490
100
AcDbEntity
  8
Visible (ANSI)
100
AcDbVertex
100
AcDb2dVertex
 10
114.8883381604218
 20
46.71358403990846
 30
0.0
  0
VERTEX
  5
49E
330
490
100
AcDbEntity
  8
Visible (ANSI)
100
AcDbVertex
100
AcDb2dVertex
 10
114.8865590790993
 20
46.71702652197736
 30
0.0
  0
VERTEX
  5
49F
330
490
100
AcDbEntity
  8
Visible (ANSI)
100
AcDbVertex
100
AcDb2dVertex
 10
114.8849152171872
 20
46.72050126253243
 30
0.0
  0
VERTEX
  5
4A0
330
490
100
AcDbEntity
  8
Visible (ANSI)
100
AcDbVertex
100
AcDb2dVertex
 10
114.883408348089
 20
46.72400569355573
 30
0.0
  0
VERTEX
  5
4A1
330
490
100
AcDbEntity
  8
Visible (ANSI)
100
AcDbVertex
100
AcDb2dVertex
 10
114.8820400792754
 20
46.72753720517806
 30
0.0
  0
VERTEX
  5
4A2
330
490
100
AcDbEntity
  8
Visible (ANSI)
100
AcDbVertex
100
AcDb2dVertex
 10
114.8808118782119
 20
46.73109319662724
 30
0.0
  0
VERTEX
  5
4A3
330
490
100
AcDbEntity
  8
Visible (ANSI)
100
AcDbVertex
100
AcDb2dVertex
 10
114.8797250516165
 20
46.73467100428491
 30
0.0
  0
VERTEX
  5
4A4
330
490
100
AcDbEntity
  8
Visible (ANSI)
100
AcDbVertex
100
AcDb2dVertex
 10
114.8787807713875
 20
46.73826794666251
 30
0.0
  0
VERTEX
  5
4A5
330
490
100
AcDbEntity
  8
Visible (ANSI)
100
AcDbVertex
100
AcDb2dVertex
 10
114.8779800512686
 20
46.74188133779241
 30
0.0
  0
VERTEX
  5
4A6
330
490
100
AcDbEntity
  8
Visible (ANSI)
100
AcDbVertex
100
AcDb2dVertex
 10
114.8773237442563
 20
46.74550845886025
 30
0.0
  0
VERTEX
  5
4A7
330
490
100
AcDbEntity
  8
Visible (ANSI)
100
AcDbVertex
100
AcDb2dVertex
 10
114.8768125477857
 20
46.74914656711681
 30
0.0
  0
VERTEX
  5
4A8
330
490
100
AcDbEntity
  8
Visible (ANSI)
100
AcDbVertex
100
AcDb2dVertex
 10
114.8764470218787
 20
46.75279295130549
 30
0.0
  0
VERTEX
  5
4A9
330
490
100
AcDbEntity
  8
Visible (ANSI)
100
AcDbVertex
100
AcDb2dVertex
 10
114.8762275476616
 20
46.7564448477746
 30
0.0
  0
VERTEX
  5
4AA
330
490
100
AcDbEntity
  8
Visible (ANSI)
100
AcDbVertex
100
AcDb2dVertex
 10
114.8761543584769
 20
46.7600995003839
 30
0.0
  0
SEQEND
  5
493
330
490
100
AcDbEntity
  8
Visible (ANSI)
  0
POLYLINE
  5
4AB
330
6C
100
AcDbEntity
  8
Visible (ANSI)
100
AcDb2dPolyline
 66
     1
 10
0.0
 20
0.0
 30
0.0
 70
   128
  0
VERTEX
  5
4AC
330
4AB
100
AcDbEntity
  8
Visible (ANSI)
100
AcDbVertex
100
AcDb2dVertex
 10
114.9161892041931
 20
71.94027246303298
 30
0.0
  0
VERTEX
  5
4AD
330
4AB
100
AcDbEntity
  8
Visible (ANSI)
100
AcDbVertex
100
AcDb2dVertex
 10
114.9100747580775
 20
71.93867096494904
 30
0.0
  0
VERTEX
  5
4AF
330
4AB
100
AcDbEntity
  8
Visible (ANSI)
100
AcDbVertex
100
AcDb2dVertex
 10
114.9044003770373
 20
71.93684722702545
 30
0.0
  0
VERTEX
  5
4B0
330
4AB
100
AcDbEntity
  8
Visible (ANSI)
100
AcDbVertex
100
AcDb2dVertex
 10
114.8991903589586
 20
71.93481983386795
 30
0.0
  0
VERTEX
  5
4B1
330
4AB
100
AcDbEntity
  8
Visible (ANSI)
100
AcDbVertex
100
AcDb2dVertex
 10
114.8944670141027
 20
71.93260364454703
 30
0.0
  0
VERTEX
  5
4B2
330
4AB
100
AcDbEntity
  8
Visible (ANSI)
100
AcDbVertex
100
AcDb2dVertex
 10
114.8902505691358
 20
71.93021892447449
 30
0.0
  0
VERTEX
  5
4B3
330
4AB
100
AcDbEntity
  8
Visible (ANSI)
100
AcDbVertex
100
AcDb2dVertex
 10
114.8865590784511
 20
71.92768666071059
 30
0.0
  0
VERTEX
  5
4B4
330
4AB
100
AcDbEntity
  8
Visible (ANSI)
100
AcDbVertex
100
AcDb2dVertex
 10
114.8834083493854
 20
71.92502387412202
 30
0.0
  0
VERTEX
  5
4B5
330
4AB
100
AcDbEntity
  8
Visible (ANSI)
100
AcDbVertex
100
AcDb2dVertex
 10
114.8808118743229
 20
71.92225427697419
 30
0.0
  0
VERTEX
  5
4B6
330
4AB
100
AcDbEntity
  8
Visible (ANSI)
100
AcDbVertex
100
AcDb2dVertex
 10
114.8787807752766
 20
71.91939590856939
 30
0.0
  0
VERTEX
  5
4B7
330
4AB
100
AcDbEntity
  8
Visible (ANSI)
100
AcDbVertex
100
AcDb2dVertex
 10
114.87732374296
 20
71.91647178248122
 30
0.0
  0
VERTEX
  5
4B8
330
4AB
100
AcDbEntity
  8
Visible (ANSI)
100
AcDbVertex
100
AcDb2dVertex
 10
114.876447019286
 20
71.91350519372012
 30
0.0
  0
VERTEX
  5
4B9
330
4AB
100
AcDbEntity
  8
Visible (ANSI)
100
AcDbVertex
100
AcDb2dVertex
 10
114.8761543584769
 20
71.91051502627217
 30
0.0
  0
VERTEX
  5
4BA
330
4AB
100
AcDbEntity
  8
Visible (ANSI)
100
AcDbVertex
100
AcDb2dVertex
 10
114.8764470218787
 20
71.90752486031725
 30
0.0
  0
VERTEX
  5
4BB
330
4AB
100
AcDbEntity
  8
Visible (ANSI)
100
AcDbVertex
100
AcDb2dVertex
 10
114.8773237442564
 20
71.9045582737957
 30
0.0
  0
VERTEX
  5
4BC
330
4AB
100
AcDbEntity
  8
Visible (ANSI)
100
AcDbVertex
100
AcDb2dVertex
 10
114.8787807713876
 20
71.90163414472145
 30
0.0
  0
VERTEX
  5
4BD
330
4AB
100
AcDbEntity
  8
Visible (ANSI)
100
AcDbVertex
100
AcDb2dVertex
 10
114.8808118782119
 20
71.8987757778097
 30
0.0
  0
VERTEX
  5
4BE
330
4AB
100
AcDbEntity
  8
Visible (ANSI)
100
AcDbVertex
100
AcDb2dVertex
 10
114.883408348089
 20
71.89600618066188
 30
0.0
  0
VERTEX
  5
4BF
330
4AB
100
AcDbEntity
  8
Visible (ANSI)
100
AcDbVertex
100
AcDb2dVertex
 10
114.8865590790993
 20
71.893343392207
 30
0.0
  0
VERTEX
  5
4C0
330
4AB
100
AcDbEntity
  8
Visible (ANSI)
100
AcDbVertex
100
AcDb2dVertex
 10
114.8902505684877
 20
71.89080959290585
 30
0.0
  0
VERTEX
  5
4C1
330
4AB
100
AcDbEntity
  8
Visible (ANSI)
100
AcDbVertex
100
AcDb2dVertex
 10
114.8944670163713
 20
71.88842641079675
 30
0.0
  0
VERTEX
  5
4C2
330
4AB
100
AcDbEntity
  8
Visible (ANSI)
100
AcDbVertex
100
AcDb2dVertex
 10
114.8991903568521
 20
71.88621022156915
 30
0.0
  0
VERTEX
  5
4C3
330
4AB
100
AcDbEntity
  8
Visible (ANSI)
100
AcDbVertex
100
AcDb2dVertex
 10
114.9044003772804
 20
71.88418282939145
 30
0.0
  0
VERTEX
  5
4C4
330
4AB
100
AcDbEntity
  8
Visible (ANSI)
100
AcDbVertex
100
AcDb2dVertex
 10
114.9100747597384
 20
71.88235908705874
 30
0.0
  0
VERTEX
  5
4C5
330
4AB
100
AcDbEntity
  8
Visible (ANSI)
100
AcDbVertex
100
AcDb2dVertex
 10
114.9161892054895
 20
71.88075759175091
 30
0.0
  0
SEQEND
  5
4AE
330
4AB
100
AcDbEntity
  8
Visible (ANSI)
  0
LINE
  5
4C6
330
6C
100
AcDbEntity
  8
Visible (ANSI)
100
AcDbLine
 10
115.4738069535149
 20
47.06733383297927
 30
0.0
 11
115.6757986632456
 21
47.18365312252974
 31
0.0
  0
LINE
  5
4C7
330
6C
100
AcDbEntity
  8
Visible (ANSI)
100
AcDbLine
 10
114.98314062249
 20
71.97882678157424
 30
0.0
 11
114.9161892035561
 21
71.94027202358353
 31
0.0
  0
LINE
  5
4C8
330
6C
100
AcDbEntity
  8
Visible (ANSI)
100
AcDbLine
 10
114.9385643377091
 20
71.92738704077038
 30
0.0
 11
114.9161892035561
 21
71.94027202358353
 31
0.0
  0
POLYLINE
  5
4C9
330
6C
100
AcDbEntity
  8
Visible (ANSI)
100
AcDb2dPolyline
 66
     1
 10
0.0
 20
0.0
 30
0.0
 70
   128
  0
VERTEX
  5
4CA
330
4C9
100
AcDbEntity
  8
Visible (ANSI)
100
AcDbVertex
100
AcDb2dVertex
 10
143.007155021607
 20
30.50202801999482
 30
0.0
  0
VERTEX
  5
4CB
330
4C9
100
AcDbEntity
  8
Visible (ANSI)
100
AcDbVertex
100
AcDb2dVertex
 10
143.0054955516715
 20
30.49591328365039
 30
0.0
  0
VERTEX
  5
4CD
330
4C9
100
AcDbEntity
  8
Visible (ANSI)
100
AcDbVertex
100
AcDb2dVertex
 10
143.0042490824797
 20
30.49006766796378
 30
0.0
  0
VERTEX
  5
4CE
330
4C9
100
AcDbEntity
  8
Visible (ANSI)
100
AcDbVertex
100
AcDb2dVertex
 10
143.0034129487409
 20
30.48452081353322
 30
0.0
  0
VERTEX
  5
4CF
330
4C9
100
AcDbEntity
  8
Visible (ANSI)
100
AcDbVertex
100
AcDb2dVertex
 10
143.0029800931397
 20
30.47930260771288
 30
0.0
  0
VERTEX
  5
4D0
330
4C9
100
AcDbEntity
  8
Visible (ANSI)
100
AcDbVertex
100
AcDb2dVertex
 10
143.0029496652722
 20
30.47443693729706
 30
0.0
  0
VERTEX
  5
4D1
330
4C9
100
AcDbEntity
  8
Visible (ANSI)
100
AcDbVertex
100
AcDb2dVertex
 10
143.0033111595386
 20
30.46995077463729
 30
0.0
  0
VERTEX
  5
4D2
330
4C9
100
AcDbEntity
  8
Visible (ANSI)
100
AcDbVertex
100
AcDb2dVertex
 10
143.0040550296361
 20
30.46586792729413
 30
0.0
  0
VERTEX
  5
4D3
330
4C9
100
AcDbEntity
  8
Visible (ANSI)
100
AcDbVertex
100
AcDb2dVertex
 10
143.0051701010499
 20
30.46221049181236
 30
0.0
  0
VERTEX
  5
4D4
330
4C9
100
AcDbEntity
  8
Visible (ANSI)
100
AcDbVertex
100
AcDb2dVertex
 10
143.0066409420596
 20
30.45900024763588
 30
0.0
  0
VERTEX
  5
4D5
330
4C9
100
AcDbEntity
  8
Visible (ANSI)
100
AcDbVertex
100
AcDb2dVertex
 10
143.0084585767555
 20
30.45625250546173
 30
0.0
  0
VERTEX
  5
4D6
330
4C9
100
AcDbEntity
  8
Visible (ANSI)
100
AcDbVertex
100
AcDb2dVertex
 10
143.010604560706
 20
30.45398515452682
 30
0.0
  0
VERTEX
  5
4D7
330
4C9
100
AcDbEntity
  8
Visible (ANSI)
100
AcDbVertex
100
AcDb2dVertex
 10
143.0130617147147
 20
30.45221250492033
 30
0.0
  0
VERTEX
  5
4D8
330
4C9
100
AcDbEntity
  8
Visible (ANSI)
100
AcDbVertex
100
AcDb2dVertex
 10
143.0158115321251
 20
30.45094675935633
 30
0.0
  0
VERTEX
  5
4D9
330
4C9
100
AcDbEntity
  8
Visible (ANSI)
100
AcDbVertex
100
AcDb2dVertex
 10
143.018834241046
 20
30.45019793359746
 30
0.0
  0
VERTEX
  5
4DA
330
4C9
100
AcDbEntity
  8
Visible (ANSI)
100
AcDbVertex
100
AcDb2dVertex
 10
143.0221062479535
 20
30.44997536711579
 30
0.0
  0
VERTEX
  5
4DB
330
4C9
100
AcDbEntity
  8
Visible (ANSI)
100
AcDbVertex
100
AcDb2dVertex
 10
143.0256108481145
 20
30.45028156096087
 30
0.0
  0
VERTEX
  5
4DC
330
4C9
100
AcDbEntity
  8
Visible (ANSI)
100
AcDbVertex
100
AcDb2dVertex
 10
143.029322391998
 20
30.45112134025304
 30
0.0
  0
VERTEX
  5
4DD
330
4C9
100
AcDbEntity
  8
Visible (ANSI)
100
AcDbVertex
100
AcDb2dVertex
 10
143.0332169905132
 20
30.4524957092995
 30
0.0
  0
VERTEX
  5
4DE
330
4C9
100
AcDbEntity
  8
Visible (ANSI)
100
AcDbVertex
100
AcDb2dVertex
 10
143.0372699741679
 20
30.45440338470267
 30
0.0
  0
VERTEX
  5
4DF
330
4C9
100
AcDbEntity
  8
Visible (ANSI)
100
AcDbVertex
100
AcDb2dVertex
 10
143.0414533405608
 20
30.45684232886939
 30
0.0
  0
VERTEX
  5
4E0
330
4C9
100
AcDbEntity
  8
Visible (ANSI)
100
AcDbVertex
100
AcDb2dVertex
 10
143.0457464826285
 20
30.4598036500402
 30
0.0
  0
VERTEX
  5
4E1
330
4C9
100
AcDbEntity
  8
Visible (ANSI)
100
AcDbVertex
100
AcDb2dVertex
 10
143.050120368994
 20
30.46328079819389
 30
0.0
  0
VERTEX
  5
4E2
330
4C9
100
AcDbEntity
  8
Visible (ANSI)
100
AcDbVertex
100
AcDb2dVertex
 10
143.0545482777229
 20
30.4672634859075
 30
0.0
  0
VERTEX
  5
4E3
330
4C9
100
AcDbEntity
  8
Visible (ANSI)
100
AcDbVertex
100
AcDb2dVertex
 10
143.0590032561313
 20
30.47173926160352
 30
0.0
  0
SEQEND
  5
4CC
330
4C9
100
AcDbEntity
  8
Visible (ANSI)
  0
POLYLINE
  5
4E4
330
6C
100
AcDbEntity
  8
Visible (ANSI)
100
AcDb2dPolyline
 66
     1
 10
0.0
 20
0.0
 30
0.0
 70
   128
  0
VERTEX
  5
4E5
330
4E4
100
AcDbEntity
  8
Visible (ANSI)
100
AcDbVertex
100
AcDb2dVertex
 10
114.967088131253
 20
46.60281426488013
 30
0.0
  0
VERTEX
  5
4E6
330
4E4
100
AcDbEntity
  8
Visible (ANSI)
100
AcDbVertex
100
AcDb2dVertex
 10
114.9639431197277
 20
46.604710226093
 30
0.0
  0
VERTEX
  5
4E8
330
4E4
100
AcDbEntity
  8
Visible (ANSI)
100
AcDbVertex
100
AcDb2dVertex
 10
114.9608738771185
 20
46.60673219477322
 30
0.0
  0
VERTEX
  5
4E9
330
4E4
100
AcDbEntity
  8
Visible (ANSI)
100
AcDbVertex
100
AcDb2dVertex
 10
114.9578827212948
 20
46.60887857109772
 30
0.0
  0
VERTEX
  5
4EA
330
4E4
100
AcDbEntity
  8
Visible (ANSI)
100
AcDbVertex
100
AcDb2dVertex
 10
114.9549718560471
 20
46.61114762646071
 30
0.0
  0
VERTEX
  5
4EB
330
4E4
100
AcDbEntity
  8
Visible (ANSI)
100
AcDbVertex
100
AcDb2dVertex
 10
114.9521433866437
 20
46.61353750357778
 30
0.0
  0
VERTEX
  5
4EC
330
4E4
100
AcDbEntity
  8
Visible (ANSI)
100
AcDbVertex
100
AcDb2dVertex
 10
114.9493993820553
 20
46.61604620149776
 30
0.0
  0
VERTEX
  5
4ED
330
4E4
100
AcDbEntity
  8
Visible (ANSI)
100
AcDbVertex
100
AcDb2dVertex
 10
114.9467417608759
 20
46.61867160850728
 30
0.0
  0
VERTEX
  5
4EE
330
4E4
100
AcDbEntity
  8
Visible (ANSI)
100
AcDbVertex
100
AcDb2dVertex
 10
114.9441724002169
 20
46.62141147228166
 30
0.0
  0
VERTEX
  5
4EF
330
4E4
100
AcDbEntity
  8
Visible (ANSI)
100
AcDbVertex
100
AcDb2dVertex
 10
114.9416930371836
 20
46.62426343870381
 30
0.0
  0
VERTEX
  5
4F0
330
4E4
100
AcDbEntity
  8
Visible (ANSI)
100
AcDbVertex
100
AcDb2dVertex
 10
114.9393053518424
 20
46.6272249980919
 30
0.0
  0
VERTEX
  5
4F1
330
4E4
100
AcDbEntity
  8
Visible (ANSI)
100
AcDbVertex
100
AcDb2dVertex
 10
114.937010894625
 20
46.63029354798765
 30
0.0
  0
VERTEX
  5
4F2
330
4E4
100
AcDbEntity
  8
Visible (ANSI)
100
AcDbVertex
100
AcDb2dVertex
 10
114.9348111226258
 20
46.63346638422146
 30
0.0
  0
VERTEX
  5
4F3
330
4E4
100
AcDbEntity
  8
Visible (ANSI)
100
AcDbVertex
100
AcDb2dVertex
 10
114.9327074099731
 20
46.63674065306572
 30
0.0
  0
VERTEX
  5
4F4
330
4E4
100
AcDbEntity
  8
Visible (ANSI)
100
AcDbVertex
100
AcDb2dVertex
 10
114.9307009959752
 20
46.64011342296998
 30
0.0
  0
VERTEX
  5
4F5
330
4E4
100
AcDbEntity
  8
Visible (ANSI)
100
AcDbVertex
100
AcDb2dVertex
 10
114.9287930577154
 20
46.64358163081169
 30
0.0
  0
VERTEX
  5
4F6
330
4E4
100
AcDbEntity
  8
Visible (ANSI)
100
AcDbVertex
100
AcDb2dVertex
 10
114.9269846167156
 20
46.64714214168695
 30
0.0
  0
VERTEX
  5
4F7
330
4E4
100
AcDbEntity
  8
Visible (ANSI)
100
AcDbVertex
100
AcDb2dVertex
 10
114.925276632273
 20
46.65079168911979
 30
0.0
  0
VERTEX
  5
4F8
330
4E4
100
AcDbEntity
  8
Visible (ANSI)
100
AcDbVertex
100
AcDb2dVertex
 10
114.9236699236791
 20
46.65452692587154
 30
0.0
  0
VERTEX
  5
4F9
330
4E4
100
AcDbEntity
  8
Visible (ANSI)
100
AcDbVertex
100
AcDb2dVertex
 10
114.9221652065176
 20
46.6583444269964
 30
0.0
  0
VERTEX
  5
4FA
330
4E4
100
AcDbEntity
  8
Visible (ANSI)
100
AcDbVertex
100
AcDb2dVertex
 10
114.9207631134062
 20
46.66224065396225
 30
0.0
  0
VERTEX
  5
4FB
330
4E4
100
AcDbEntity
  8
Visible (ANSI)
100
AcDbVertex
100
AcDb2dVertex
 10
114.9194641214007
 20
46.66621199645568
 30
0.0
  0
VERTEX
  5
4FC
330
4E4
100
AcDbEntity
  8
Visible (ANSI)
100
AcDbVertex
100
AcDb2dVertex
 10
114.9182686453324
 20
46.67025474856282
 30
0.0
  0
VERTEX
  5
4FD
330
4E4
100
AcDbEntity
  8
Visible (ANSI)
100
AcDbVertex
100
AcDb2dVertex
 10
114.9171769444706
 20
46.67436516256487
 30
0.0
  0
VERTEX
  5
4FE
330
4E4
100
AcDbEntity
  8
Visible (ANSI)
100
AcDbVertex
100
AcDb2dVertex
 10
114.9161892054895
 20
46.67853937717988
 30
0.0
  0
SEQEND
  5
4E7
330
4E4
100
AcDbEntity
  8
Visible (ANSI)
  0
LINE
  5
4FF
330
6C
100
AcDbEntity
  8
Visible (ANSI)
100
AcDbLine
 10
115.5327198910346
 20
46.96603045728382
 30
0.0
 11
115.7343924132456
 21
47.08216593896626
 31
0.0
  0
LINE
  5
500
330
6C
100
AcDbEntity
  8
Visible (ANSI)
100
AcDbLine
 10
143.0590026251018
 20
30.49821006802198
 30
0.0
 11
143.0590026251018
 21
30.4717396242555
 31
0.0
  0
LINE
  5
501
330
6C
100
AcDbEntity
  8
Visible (ANSI)
100
AcDbLine
 10
143.0590026251018
 20
30.4717396242555
 30
0.0
 11
143.1303140355443
 21
30.51280513437264
 31
0.0
  0
LINE
  5
502
330
6C
100
AcDbEntity
  8
Visible (ANSI)
100
AcDbLine
 10
143.1985274602906
 20
30.55208663317704
 30
0.0
 11
143.735748008871
 21
30.86145137208694
 31
0.0
  0
LINE
  5
503
330
6C
100
AcDbEntity
  8
Visible (ANSI)
100
AcDbLine
 10
143.735748008871
 20
30.86208267429642
 30
0.0
 11
143.735748008871
 21
30.86145137208694
 31
0.0
  0
POLYLINE
  5
504
330
6C
100
AcDbEntity
  8
Visible (ANSI)
100
AcDb2dPolyline
 66
     1
 10
0.0
 20
0.0
 30
0.0
 70
   128
  0
VERTEX
  5
505
330
504
100
AcDbEntity
  8
Visible (ANSI)
100
AcDbVertex
100
AcDb2dVertex
 10
143.1104462530889
 20
55.71198730424512
 30
0.0
  0
VERTEX
  5
506
330
504
100
AcDbEntity
  8
Visible (ANSI)
100
AcDbVertex
100
AcDb2dVertex
 10
143.114962060009
 20
55.70587458841648
 30
0.0
  0
VERTEX
  5
508
330
504
100
AcDbEntity
  8
Visible (ANSI)
100
AcDbVertex
100
AcDb2dVertex
 10
143.1203010099699
 20
55.70038878763917
 30
0.0
  0
VERTEX
  5
509
330
504
100
AcDbEntity
  8
Visible (ANSI)
100
AcDbVertex
100
AcDb2dVertex
 10
143.1262330110208
 20
55.69561140653721
 30
0.0
  0
VERTEX
  5
50A
330
504
100
AcDbEntity
  8
Visible (ANSI)
100
AcDbVertex
100
AcDb2dVertex
 10
143.1324409869446
 20
55.69161371599254
 30
0.0
  0
SEQEND
  5
507
330
504
100
AcDbEntity
  8
Visible (ANSI)
  0
POLYLINE
  5
50B
330
6C
100
AcDbEntity
  8
Visible (ANSI)
100
AcDb2dPolyline
 66
     1
 10
0.0
 20
0.0
 30
0.0
 70
   128
  0
VERTEX
  5
50C
330
50B
100
AcDbEntity
  8
Visible (ANSI)
100
AcDbVertex
100
AcDb2dVertex
 10
143.0590032561314
 20
55.81868553299774
 30
0.0
  0
VERTEX
  5
50D
330
50B
100
AcDbEntity
  8
Visible (ANSI)
100
AcDbVertex
100
AcDb2dVertex
 10
143.0593684073939
 20
55.81133401631959
 30
0.0
  0
VERTEX
  5
50F
330
50B
100
AcDbEntity
  8
Visible (ANSI)
100
AcDbVertex
100
AcDb2dVertex
 10
143.0605410483018
 20
55.80385814235836
 30
0.0
  0
VERTEX
  5
510
330
50B
100
AcDbEntity
  8
Visible (ANSI)
100
AcDbVertex
100
AcDb2dVertex
 10
143.0626216256896
 20
55.7965122196621
 30
0.0
  0
VERTEX
  5
511
330
50B
100
AcDbEntity
  8
Visible (ANSI)
100
AcDbVertex
100
AcDb2dVertex
 10
143.065643985893
 20
55.78958888439699
 30
0.0
  0
SEQEND
  5
50E
330
50B
100
AcDbEntity
  8
Visible (ANSI)
  0
LINE
  5
512
330
6C
100
AcDbEntity
  8
Visible (ANSI)
100
AcDbLine
 10
143.8772058347914
 20
56.04215521972381
 30
0.0
 11
143.8772058347914
 21
30.94354281854862
 31
0.0
  0
LINE
  5
513
330
6C
100
AcDbEntity
  8
Visible (ANSI)
100
AcDbLine
 10
115.7343924132456
 20
72.41207521787663
 30
0.0
 11
143.7357480088711
 21
56.2871669546898
 31
0.0
  0
LINE
  5
514
330
6C
100
AcDbEntity
  8
Visible (ANSI)
100
AcDbLine
 10
115.6757986632456
 20
47.18365312252974
 30
0.0
 11
115.6757986632456
 21
47.29480518988601
 31
0.0
  0
LINE
  5
515
330
6C
100
AcDbEntity
  8
Visible (ANSI)
100
AcDbLine
 10
115.6757986632456
 20
70.46864642356776
 30
0.0
 11
115.6757986632456
 21
70.93213643689586
 31
0.0
  0
LINE
  5
516
330
6C
100
AcDbEntity
  8
Visible (ANSI)
100
AcDbLine
 10
142.5660522478791
 20
31.63084066633937
 30
0.0
 11
142.1644749054745
 21
31.86209367781354
 31
0.0
  0
LINE
  5
517
330
6C
100
AcDbEntity
  8
Visible (ANSI)
100
AcDbLine
 10
115.8285770842587
 20
47.0279285941099
 30
0.0
 11
115.7343924132456
 21
47.08216593896626
 31
0.0
  0
SPLINE
  5
518
330
6C
100
AcDbEntity
  8
Visible (ANSI)
100
AcDbSpline
210
0.0
220
0.0
230
1.0
 70
     8
 71
     3
 72
    11
 73
     7
 74
     0
 42
0.0000000001
 43
0.0000000001
 40
0.0
 40
0.0
 40
0.0
 40
0.0
 40
1.084645898258806
 40
1.084645898258806
 40
1.084645898258806
 40
1.57079632679447
 40
1.57079632679447
 40
1.57079632679447
 40
1.57079632679447
 10
58.02291030154111
 20
90.60703711481282
 30
0.0
 10
58.06244564453265
 20
90.60703711481282
 30
0.0
 10
58.10111886201362
 20
90.63034127287798
 30
0.0
 10
58.11959079450915
 20
90.66529597292444
 30
0.0
 10
58.12787012135029
 20
90.68096306062026
 30
0.0
 10
58.13226030154112
 20
90.69866693169265
 30
0.0
 10
58.13226030154112
 20
90.71638711481275
 30
0.0
  0
LINE
  5
519
330
6C
100
AcDbEntity
  8
Visible (ANSI)
100
AcDbLine
 10
58.03851030154111
 20
90.71638711481279
 30
0.0
 11
58.03851030154117
 21
91.48203711481277
 31
0.0
  0
LINE
  5
51A
330
6C
100
AcDbEntity
  8
Visible (ANSI)
100
AcDbLine
 10
58.03851030154111
 20
90.71638711481279
 30
0.0
 11
58.13226030154112
 21
90.71638711481277
 31
0.0
  0
SPLINE
  5
51B
330
6C
100
AcDbEntity
  8
Visible (ANSI)
100
AcDbSpline
210
0.0
220
0.0
230
1.0
 70
     8
 71
     3
 72
     8
 73
     4
 74
     0
 42
0.0000000001
 43
0.0000000001
 40
0.0
 40
0.0
 40
0.0
 40
0.0
 40
1.57079632679447
 40
1.57079632679447
 40
1.57079632679447
 40
1.57079632679447
 10
58.02291030154111
 20
90.70078711481283
 30
0.0
 10
58.03107844244045
 20
90.70078711481281
 30
0.0
 10
58.03851030154111
 20
90.70821897391347
 30
0.0
 10
58.03851030154112
 20
90.71638711481281
 30
0.0
  0
LINE
  5
51C
330
6C
100
AcDbEntity
  8
Visible (ANSI)
100
AcDbLine
 10
58.02291030154111
 20
90.70078711481283
 30
0.0
 11
58.02291030154111
 21
90.68411605594191
 31
0.0
  0
LINE
  5
51D
330
6C
100
AcDbEntity
  8
Visible (ANSI)
100
AcDbLine
 10
58.02291030154111
 20
90.68411605594191
 30
0.0
 11
58.02291030154111
 21
90.60703711481282
 31
0.0
  0
LINE
  5
51E
330
6C
100
AcDbEntity
  8
Visible (ANSI)
100
AcDbLine
 10
58.13226030154112
 20
90.71638711481277
 30
0.0
 11
58.13226030154115
 21
91.48203711481277
 31
0.0
  0
LINE
  5
51F
330
6C
100
AcDbEntity
  8
Visible (ANSI)
100
AcDbLine
 10
58.03851030154117
 20
91.48203711481277
 30
0.0
 11
58.13226030154115
 21
91.48203711481277
 31
0.0
  0
SPLINE
  5
520
330
6C
100
AcDbEntity
  8
Visible (ANSI)
100
AcDbSpline
210
0.0
220
0.0
230
1.0
 70
     8
 71
     3
 72
    11
 73
     7
 74
     0
 42
0.0000000001
 43
0.0000000001
 40
0.0
 40
0.0
 40
0.0
 40
0.0
 40
1.084645898258823
 40
1.084645898258823
 40
1.084645898258823
 40
1.5707963267949
 40
1.5707963267949
 40
1.5707963267949
 40
1.5707963267949
 10
26.24161030154111
 20
90.60703711481282
 30
0.0
 10
26.25327785875338
 20
90.60703711481284
 30
0.0
 10
26.26494541596566
 20
90.63034127287799
 30
0.0
 10
26.27661297317793
 20
90.66529597292449
 30
0.0
 10
26.28184250287774
 20
90.68096306062033
 30
0.0
 10
26.28707203257754
 20
90.69866693169272
 30
0.0
 10
26.29230156227734
 20
90.71638711481284
 30
0.0
  0
SPLINE
  5
521
330
6C
100
AcDbEntity
  8
Visible (ANSI)
100
AcDbSpline
210
0.0
220
0.0
230
1.0
 70
     8
 71
     3
 72
    11
 73
     7
 74
     0
 42
0.0000000001
 43
0.0000000001
 40
0.0
 40
0.0
 40
0.0
 40
0.0
 40
1.084645898258983
 40
1.084645898258983
 40
1.084645898258983
 40
1.570796326795084
 40
1.570796326795084
 40
1.570796326795084
 40
1.570796326795084
 10
57.97221904080487
 20
90.71638711481286
 30
0.0
 10
57.98388659801713
 20
90.67685177182132
 30
0.0
 10
57.99555415522941
 20
90.63817855434033
 30
0.0
 10
58.00722171244167
 20
90.61970662184478
 30
0.0
 10
58.01245124214148
 20
90.61142729500366
 30
0.0
 10
58.01768077184129
 20
90.60703711481282
 30
0.0
 10
58.02291030154109
 20
90.60703711481282
 30
0.0
  0
LINE
  5
522
330
6C
100
AcDbEntity
  8
Visible (ANSI)
100
AcDbLine
 10
57.97221904080487
 20
91.48203711481286
 30
0.0
 11
57.97221904080487
 21
90.71638711481286
 31
0.0
  0
SPLINE
  5
523
330
6C
100
AcDbEntity
  8
Visible (ANSI)
100
AcDbSpline
210
0.0
220
0.0
230
1.0
 70
     8
 71
     3
 72
     8
 73
     4
 74
     0
 42
0.0000000001
 43
0.0000000001
 40
0.0
 40
0.0
 40
0.0
 40
0.0
 40
1.570796326795084
 40
1.570796326795084
 40
1.570796326795084
 40
1.570796326795084
 10
58.02291030154109
 20
90.70078711481283
 30
0.0
 10
58.00601321462902
 20
90.70078711481283
 30
0.0
 10
57.98911612771694
 20
90.70821897391351
 30
0.0
 10
57.97221904080487
 20
90.71638711481282
 30
0.0
  0
SPLINE
  5
524
330
6C
100
AcDbEntity
  8
Visible (ANSI)
100
AcDbSpline
210
0.0
220
0.0
230
1.0
 70
     8
 71
     3
 72
     8
 73
     4
 74
     0
 42
0.0000000001
 43
0.0000000001
 40
0.0
 40
0.0
 40
0.0
 40
0.0
 40
1.5707963267949
 40
1.5707963267949
 40
1.5707963267949
 40
1.5707963267949
 10
26.24161030154111
 20
90.70078711481283
 30
0.0
 10
26.25850738845319
 20
90.70078711481283
 30
0.0
 10
26.27540447536527
 20
90.70821897391349
 30
0.0
 10
26.29230156227734
 20
90.71638711481282
 30
0.0
  0
LINE
  5
525
330
6C
100
AcDbEntity
  8
Visible (ANSI)
100
AcDbLine
 10
26.24161030154111
 20
90.70078711481283
 30
0.0
 11
26.24161030154111
 21
90.68411605594191
 31
0.0
  0
LINE
  5
526
330
6C
100
AcDbEntity
  8
Visible (ANSI)
100
AcDbLine
 10
26.24161030154111
 20
90.68411605594191
 30
0.0
 11
26.24161030154111
 21
90.60703711481282
 31
0.0
  0
LINE
  5
527
330
6C
100
AcDbEntity
  8
Visible (ANSI)
100
AcDbLine
 10
26.29230156227734
 20
90.71638711481286
 30
0.0
 11
26.29230156227735
 21
91.48203711481285
 31
0.0
  0
SPLINE
  5
528
330
6C
100
AcDbEntity
  8
Visible (ANSI)
100
AcDbSpline
210
0.0
220
0.0
230
1.0
 70
     8
 71
     3
 72
    11
 73
     7
 74
     0
 42
0.0000000001
 43
0.0000000001
 40
0.0
 40
0.0
 40
0.0
 40
0.0
 40
1.084645898258924
 40
1.084645898258924
 40
1.084645898258924
 40
1.570796326794914
 40
1.570796326794914
 40
1.570796326794914
 40
1.570796326794914
 10
26.13226030154111
 20
90.71638711481281
 30
0.0
 10
26.13226030154111
 20
90.67685177182127
 30
0.0
 10
26.15556445960627
 20
90.63817855434029
 30
0.0
 10
26.19051915965274
 20
90.61970662184478
 30
0.0
 10
26.20618624734858
 20
90.61142729500366
 30
0.0
 10
26.22389011842097
 20
90.60703711481282
 30
0.0
 10
26.24161030154111
 20
90.60703711481282
 30
0.0
  0
LINE
  5
529
330
6C
100
AcDbEntity
  8
Visible (ANSI)
100
AcDbLine
 10
26.22601030154111
 20
90.71638711481281
 30
0.0
 11
26.22601030154111
 21
91.48203711481281
 31
0.0
  0
LINE
  5
52A
330
6C
100
AcDbEntity
  8
Visible (ANSI)
100
AcDbLine
 10
26.13226030154111
 20
91.48203711481281
 30
0.0
 11
26.13226030154111
 21
90.71638711481281
 31
0.0
  0
LINE
  5
52B
330
6C
100
AcDbEntity
  8
Visible (ANSI)
100
AcDbLine
 10
26.22601030154111
 20
90.71638711481281
 30
0.0
 11
26.13226030154111
 21
90.71638711481281
 31
0.0
  0
LINE
  5
52C
330
6C
100
AcDbEntity
  8
Visible (ANSI)
100
AcDbLine
 10
26.22601030154111
 20
91.48203711481281
 30
0.0
 11
26.13226030154111
 21
91.48203711481281
 31
0.0
  0
SPLINE
  5
52D
330
6C
100
AcDbEntity
  8
Visible (ANSI)
100
AcDbSpline
210
0.0
220
0.0
230
1.0
 70
     8
 71
     3
 72
     8
 73
     4
 74
     0
 42
0.0000000001
 43
0.0000000001
 40
0.0
 40
0.0
 40
0.0
 40
0.0
 40
1.570796326794914
 40
1.570796326794914
 40
1.570796326794914
 40
1.570796326794914
 10
26.24161030154111
 20
90.70078711481283
 30
0.0
 10
26.23344216064178
 20
90.70078711481281
 30
0.0
 10
26.22601030154111
 20
90.70821897391347
 30
0.0
 10
26.22601030154111
 20
90.71638711481281
 30
0.0
  0
LINE
  5
52E
330
6C
100
AcDbEntity
  8
Visible (ANSI)
100
AcDbLine
 10
58.02291030154111
 20
90.60703711481282
 30
0.0
 11
26.24161030154111
 21
90.60703711481282
 31
0.0
  0
LINE
  5
52F
330
6C
100
AcDbEntity
  8
Hidden (ANSI)
 48
1.098254919052124
100
AcDbLine
 10
26.24161030154111
 20
90.70078711481283
 30
0.0
 11
58.02291030154111
 21
90.70078711481283
 31
0.0
  0
LINE
  5
530
330
6C
100
AcDbEntity
  8
Visible (ANSI)
100
AcDbLine
 10
26.29230156227735
 20
91.48203711481285
 30
0.0
 11
57.97221904080487
 21
91.48203711481286
 31
0.0
  0
LINE
  5
531
330
6C
100
AcDbEntity
  8
Hidden (ANSI)
 48
0.0177565310150385
100
AcDbLine
 10
57.53876030154112
 20
90.7007871148126
 30
0.0
 11
57.53876030154112
 21
90.60703711481261
 31
0.0
  0
LINE
  5
532
330
6C
100
AcDbEntity
  8
Hidden (ANSI)
 48
0.0177565310150385
100
AcDbLine
 10
56.97576030154111
 20
90.7007871148126
 30
0.0
 11
56.97576030154111
 21
90.60703711481261
 31
0.0
  0
LINE
  5
533
330
6C
100
AcDbEntity
  8
Hidden (ANSI)
 48
0.0177565310150385
100
AcDbLine
 10
27.28876030154111
 20
90.7007871148126
 30
0.0
 11
27.28876030154111
 21
90.60703711481261
 31
0.0
  0
LINE
  5
534
330
6C
100
AcDbEntity
  8
Hidden (ANSI)
 48
0.0177565310150385
100
AcDbLine
 10
26.72576030154111
 20
90.7007871148126
 30
0.0
 11
26.72576030154111
 21
90.60703711481261
 31
0.0
  0
MTEXT
  5
535
330
6C
100
AcDbEntity
  8
Symbol (ANSI)
100
AcDbMText
 10
38.22303308312982
 20
85.0536763872696
 30
0.0
 40
1.200000014830761
 41
0.0
 46
0.0
 71
     7
 72
     1
  1
TOP VIEW
  7
Text Style153
 73
     1
 44
1.0
  0
LINE
  5
536
330
6C
100
AcDbEntity
  8
Symbol (ANSI)
370
    30
100
AcDbLine
 10
38.22399308559928
 20
84.8089600135207
 30
0.0
 11
45.7954678592766
 21
84.8089600135207
 31
0.0
  0
LINE
  5
537
330
6C
100
AcDbEntity
  8
Center Mark (ANSI)
  6
CHAIN
 48
0.170057401061058
100
AcDbLine
 10
27.00726030152918
 20
64.51054949452232
 30
0.0
 11
27.00726030152918
 21
61.44754949452233
 31
0.0
  0
LINE
  5
538
330
6C
100
AcDbEntity
  8
Center Mark (ANSI)
  6
CHAIN
 48
0.170057401061058
100
AcDbLine
 10
57.25726030152919
 20
64.51054949452232
 30
0.0
 11
57.25726030152919
 21
61.44754949452233
 31
0.0
  0
LINE
  5
539
330
6C
100
AcDbEntity
  8
Centerline (ANSI)
  6
CHAIN
 48
0.9524481296539306
100
AcDbLine
 10
25.47576030152918
 20
62.97904949452234
 30
0.0
 11
58.78876030152919
 21
62.97904949452234
 31
0.0
  0
LINE
  5
53A
330
6C
100
AcDbEntity
  8
Center Mark (ANSI)
  6
CHAIN
 48
0.170057401061058
100
AcDbLine
 10
58.78876030152919
 20
62.97904949452234
 30
0.0
 11
55.72576030152919
 21
62.97904949452234
 31
0.0
  0
LINE
  5
53B
330
6C
100
AcDbEntity
  8
Center Mark (ANSI)
  6
CHAIN
 48
0.170057401061058
100
AcDbLine
 10
58.78876030152919
 20
39.84904949452234
 30
0.0
 11
55.72576030152919
 21
39.84904949452234
 31
0.0
  0
LINE
  5
53C
330
6C
100
AcDbEntity
  8
Centerline (ANSI)
  6
CHAIN
 48
0.9524481296539306
100
AcDbLine
 10
57.25726030152919
 20
64.51054949452232
 30
0.0
 11
57.25726030152919
 21
38.31754949452234
 31
0.0
  0
LINE
  5
53D
330
6C
100
AcDbEntity
  8
Center Mark (ANSI)
  6
CHAIN
 48
0.170057401061058
100
AcDbLine
 10
57.25726030152919
 20
38.31754949452234
 30
0.0
 11
57.25726030152919
 21
41.38054949452234
 31
0.0
  0
LINE
  5
53E
330
6C
100
AcDbEntity
  8
Center Mark (ANSI)
  6
CHAIN
 48
0.170057401061058
100
AcDbLine
 10
27.00726030152916
 20
38.31754949452234
 30
0.0
 11
27.00726030152916
 21
41.38054949452234
 31
0.0
  0
LINE
  5
53F
330
6C
100
AcDbEntity
  8
Centerline (ANSI)
  6
CHAIN
 48
0.9524481296539306
100
AcDbLine
 10
58.78876030152919
 20
39.84904949452234
 30
0.0
 11
25.47576030152916
 21
39.84904949452234
 31
0.0
  0
LINE
  5
540
330
6C
100
AcDbEntity
  8
Center Mark (ANSI)
  6
CHAIN
 48
0.170057401061058
100
AcDbLine
 10
25.47576030152916
 20
39.84904949452234
 30
0.0
 11
28.53876030152916
 21
39.84904949452234
 31
0.0
  0
LINE
  5
541
330
6C
100
AcDbEntity
  8
Center Mark (ANSI)
  6
CHAIN
 48
0.170057401061058
100
AcDbLine
 10
25.47576030152918
 20
62.97904949452234
 30
0.0
 11
28.53876030152918
 21
62.97904949452234
 31
0.0
  0
LINE
  5
542
330
6C
100
AcDbEntity
  8
Centerline (ANSI)
  6
CHAIN
 48
0.9524481296539306
100
AcDbLine
 10
27.00726030152916
 20
38.31754949452234
 30
0.0
 11
27.00726030152918
 21
64.51054949452232
 31
0.0
  0
DIMENSION
  5
543
330
6C
100
AcDbEntity
  8
Dimension (ANSI)
100
AcDbDimension
280
     0
  2
*D4
 10
58.13226030152918
 20
72.35542555662076
 30
0.0
 11
42.13226030152918
 21
72.35542555662076
 31
0.0
 70
   160
  1
<>
 42
32.00000000000001
 73
     0
 74
     0
 75
     0
  3
Default (ANSI)
100
AcDbAlignedDimension
 13
26.13226030152917
 23
63.6940082337861
 33
0.0
 14
58.13226030152918
 24
63.6940082337861
 34
0.0
100
AcDbRotatedDimension
1001
ACAD
1000
DSTYLE
1002
{
1070
   289
1070
     1
1070
    73
1070
     0
1070
    74
1070
     0
1070
   271
1070
     2
1070
   272
1070
     2
1070
    48
1040
0.0
1070
    47
1040
0.0
1002
}
  0
DIMENSION
  5
62F
330
6C
100
AcDbEntity
  8
Dimension (ANSI)
100
AcDbDimension
280
     0
  2
*D5
 10
27.00726030152918
 20
68.4475573685381
 30
0.0
 11
21.80215408349905
 21
68.4475573685381
 31
0.0
 70
   160
  1
<>
 42
0.875
 73
     0
 74
     0
 75
     0
  3
Default (ANSI)
100
AcDbAlignedDimension
 13
26.13226030152917
 23
63.6940082337861
 33
0.0
 14
27.00726030152918
 24
64.51054949452232
 34
0.0
100
AcDbRotatedDimension
1001
ACAD
1000
DSTYLE
1002
{
1070
   289
1070
     1
1070
    73
1070
     0
1070
    74
1070
     0
1070
   271
1070
     2
1070
   272
1070
     2
1070
    48
1040
0.0
1070
    47
1040
0.0
1002
}
  0
DIMENSION
  5
719
330
6C
100
AcDbEntity
  8
Dimension (ANSI)
100
AcDbDimension
280
     0
  2
*D6
 10
57.25726030152919
 20
68.44755736853807
 30
0.0
 11
42.13226030152918
 21
68.44755736853807
 31
0.0
 70
   160
  1
<>
 42
30.25000000000001
 73
     0
 74
     0
 75
     0
  3
Default (ANSI)
100
AcDbAlignedDimension
 13
27.00726030152918
 23
64.51054949452232
 33
0.0
 14
57.25726030152919
 24
64.51054949452232
 34
0.0
 50
180.0
100
AcDbRotatedDimension
1001
ACAD
1000
DSTYLE
1002
{
1070
   289
1070
     1
1070
    73
1070
     0
1070
    74
1070
     0
1070
   271
1070
     2
1070
   272
1070
     2
1070
    48
1040
0.0
1070
    47
1040
0.0
1002
}
  0
DIMENSION
  5
803
330
6C
100
AcDbEntity
  8
Dimension (ANSI)
100
AcDbDimension
280
     0
  2
*D7
 10
24.37604430264304
 20
39.84904949452234
 30
0.0
 11
21.53875242751341
 21
36.10407283570095
 31
0.0
 70
   160
  1
<>
 42
0.8750000000000071
 73
     0
 74
     0
 75
     0
  3
Default (ANSI)
100
AcDbAlignedDimension
 13
26.29230156226542
 23
38.97404949452234
 33
0.0
 14
25.47576030152916
 24
39.84904949452234
 34
0.0
 50
90.0
100
AcDbRotatedDimension
1001
ACAD
1000
DSTYLE
1002
{
1070
   289
1070
     1
1070
   271
1070
     2
1070
   272
1070
     2
1070
    48
1040
0.0
1070
    47
1040
0.0
1002
}
  0
DIMENSION
  5
903
330
6C
100
AcDbEntity
  8
Dimension (ANSI)
100
AcDbDimension
280
     0
  2
*D8
 10
21.53875242751344
 20
62.97904949452234
 30
0.0
 11
21.53875242751343
 21
51.41404949452233
 31
0.0
 70
   160
  1
<>
 42
23.13
 73
     0
 74
     0
 75
     0
  3
Default (ANSI)
100
AcDbAlignedDimension
 13
25.47576030152916
 23
39.84904949452234
 33
0.0
 14
25.47576030152918
 24
62.97904949452234
 34
0.0
 50
90.0
100
AcDbRotatedDimension
1001
ACAD
1000
DSTYLE
1002
{
1070
   289
1070
     1
1070
   271
1070
     2
1070
   272
1070
     2
1070
    48
1040
0.0
1070
    47
1040
0.0
1002
}
  0
DIMENSION
  5
9ED
330
6C
100
AcDbEntity
  8
Dimension (ANSI)
100
AcDbDimension
280
     0
  2
*D9
 10
15.26867951502134
 20
63.85404949452234
 30
0.0
 11
15.26867951502133
 21
51.41404949452232
 31
0.0
 70
   160
  1
<>
 42
24.88
 73
     0
 74
     0
 75
     0
  3
Default (ANSI)
100
AcDbAlignedDimension
 13
26.29230156226542
 23
38.97404949452234
 33
0.0
 14
26.29230156226542
 24
63.85404949452233
 34
0.0
 50
90.0
100
AcDbRotatedDimension
1001
ACAD
1000
DSTYLE
1002
{
1070
   289
1070
     1
1070
   271
1070
     2
1070
   272
1070
     2
1070
    48
1040
0.0
1070
    47
1040
0.0
1002
}
  0
DIMENSION
  5
AD7
330
6C
100
AcDbEntity
  8
Dimension (ANSI)
100
AcDbDimension
280
     0
  2
*D10
 10
57.08525042471618
 20
40.07188318200868
 30
0.0
 11
63.78258217010737
 21
36.8617291243741
 31
0.0
 70
   163
  1
<>{\P(4 PL.)}
 71
     4
 42
0.5629999999999999
 73
     0
 74
     0
 75
     0
  3
Default (ANSI)
100
AcDbDiametricDimension
 15
57.42927017834219
 25
39.62621580703597
 35
0.0
 40
0.0
1001
ACAD
1000
DSTYLE
1002
{
1070
   144
1040
1.000000000000046
1070
   271
1070
     3
1070
   272
1070
     3
1070
    48
1040
0.0
1070
    47
1040
0.0
1002
}
1001
ACAD_DSTYLE_DIMRADIAL_EXTENSION
1070
   387
1070
     1
1070
   388
1040
0.0
1070
   390
1040
0.0
  0
DIMENSION
  5
B91
330
6C
100
AcDbEntity
  8
Dimension (ANSI)
100
AcDbDimension
280
     0
  2
*D11
 10
51.28803059547709
 20
90.60703711481282
 30
0.0
 11
54.17246820756837
 21
95.70201379031885
 31
0.0
 70
   160
  1
<>{\PTYP.}
 71
     5
 42
0.8750000000000426
 73
     0
 74
     0
 75
     0
  3
Default (ANSI)
100
AcDbAlignedDimension
 13
54.17246820756837
 23
91.48203711481286
 33
0.0
 14
54.16813826210366
 24
90.60703711481282
 34
0.0
 50
270.0
100
AcDbRotatedDimension
1001
ACAD
1000
DSTYLE
1002
{
1070
   289
1070
     1
1070
   271
1070
     2
1070
    76
1070
     1
1070
    75
1070
     1
1070
   272
1070
     2
1070
    48
1040
0.0
1070
    47
1040
0.0
1002
}
  0
DIMENSION
  5
C9A
330
6C
100
AcDbEntity
  8
Dimension (ANSI)
100
AcDbDimension
280
     0
  2
*D12
 10
84.07065119766105
 20
62.53571164026631
 30
0.0
 11
89.36838303367215
 21
62.53571164026631
 31
0.0
 70
   160
  1
<>{\PTYP.}
 71
     4
 42
0.8750000000000142
 73
     0
 74
     0
 75
     0
  3
Default (ANSI)
100
AcDbAlignedDimension
 13
84.94565119766106
 23
62.53571164026631
 33
0.0
 14
84.07065119766105
 24
62.56523088172413
 34
0.0
 50
180.0
100
AcDbRotatedDimension
1001
ACAD
1000
DSTYLE
1002
{
1070
   289
1070
     1
1070
    73
1070
     0
1070
    74
1070
     0
1070
   271
1070
     2
1070
    76
1070
     1
1070
    75
1070
     1
1070
   272
1070
     2
1070
    48
1040
0.0
1070
    47
1040
0.0
1002
}
  0
MTEXT
  5
D89
102
{ACAD_XDICTIONARY
360
D90
102
}
330
6C
100
AcDbEntity
  8
Symbol (ANSI)
100
AcDbMText
 10
88.61598532713642
 20
12.32973998373474
 30
0.0
 40
1.000000031914297
 41
73.83387107548755
 46
0.0
 71
     4
 72
     1
  3
{\fRomanS|b0|i0|c0|p2;\H2x;PART#: WA60P36F2G\P(DATA SUBJECT TO CHANGE WITHOUT NOTICE)\H1.6157x; \H0.61894x;\P \H1.352x; \H0.73963x;\P\H0.6x;THIS DRAWING IS PROPERTY OF HUBBELL INC. WIEGMANN\H1.5633x; \H0.63966x;\PALL INFORMATION IS PROPRIETARY AND NO
  1
T TO BE DUPLICATED\H1.234x; \H0.81039x;\P\H1.2571x; }
  7
Note Text (ANSI)
 73
     1
 44
0.8026435375213623
  0
ENDSEC
  0
SECTION
  2
OBJECTS
  0
DICTIONARY
  5
C
330
0
100
AcDbDictionary
281
     1
  3
ACAD_CIP_PREVIOUS_PRODUCT_INFO
350
D8B
  3
ACAD_COLOR
350
63
  3
ACAD_GROUP
350
D
  3
ACAD_LAYOUT
350
62
  3
ACAD_MATERIAL
350
10
  3
ACAD_MLEADERSTYLE
350
66
  3
ACAD_MLINESTYLE
350
5F
  3
ACAD_PLOTSETTINGS
350
61
  3
ACAD_PLOTSTYLENAME
350
E
  3
ACAD_SCALELIST
350
42
  3
ACAD_TABLESTYLE
350
64
  3
ACAD_VISUALSTYLE
350
29
  3
ACDB_RECOMPOSE_DATA
350
D92
  3
AcDbVariableDictionary
350
76
  0
DICTIONARY
  5
D90
330
D89
100
AcDbDictionary
280
     1
281
     1
  3
ACAD_MTEXT_2008_RT
360
D91
  0
XRECORD
  5
D8B
102
{ACAD_REACTORS
330
C
102
}
330
C
100
AcDbXrecord
280
     1
300
INVNTOR
300
2012
300
PDSP_F_S
  0
DICTIONARY
  5
63
102
{ACAD_REACTORS
330
C
102
}
330
C
100
AcDbDictionary
281
     1
  0
DICTIONARY
  5
D
102
{ACAD_REACTORS
330
C
102
}
330
C
100
AcDbDictionary
281
     1
  0
DICTIONARY
  5
62
102
{ACAD_REACTORS
330
C
102
}
330
C
100
AcDbDictionary
281
     1
  3
Layout1
350
6B
  3
Layout2
350
73
  3
Model
350
6F
  0
DICTIONARY
  5
10
102
{ACAD_REACTORS
330
C
102
}
330
C
100
AcDbDictionary
281
     1
  3
ByBlock
350
19
  3
ByLayer
350
11
  3
Global
350
21
  0
DICTIONARY
  5
66
102
{ACAD_REACTORS
330
C
102
}
330
C
100
AcDbDictionary
281
     1
  3
Standard
350
67
  0
DICTIONARY
  5
5F
102
{ACAD_REACTORS
330
C
102
}
330
C
100
AcDbDictionary
281
     1
  3
Standard
350
60
  0
DICTIONARY
  5
61
102
{ACAD_REACTORS
330
C
102
}
330
C
100
AcDbDictionary
281
     1
  0
ACDBDICTIONARYWDFLT
  5
E
102
{ACAD_REACTORS
330
C
102
}
330
C
100
AcDbDictionary
281
     1
  3
Normal
350
F
100
AcDbDictionaryWithDefault
340
F
  0
DICTIONARY
  5
42
102
{ACAD_REACTORS
330
C
102
}
330
C
100
AcDbDictionary
281
     1
  3
A0
350
43
  3
A1
350
44
  3
A2
350
45
  3
A3
350
46
  3
A4
350
47
  3
A5
350
48
  3
A6
350
49
  3
A7
350
4A
  3
A8
350
4B
  3
A9
350
4C
  3
B0
350
4D
  3
B1
350
4E
  3
B2
350
4F
  3
B3
350
50
  3
B4
350
51
  3
B5
350
52
  3
B6
350
53
  0
DICTIONARY
  5
64
102
{ACAD_REACTORS
330
C
102
}
330
C
100
AcDbDictionary
281
     1
  3
Standard
350
65
  0
DICTIONARY
  5
29
102
{ACAD_REACTORS
330
C
102
}
330
C
100
AcDbDictionary
281
     1
  3
2dWireframe
350
2F
  3
Basic
350
2E
  3
Brighten
350
35
  3
ColorChange
350
39
  3
Conceptual
350
32
  3
Dim
350
34
  3
EdgeColorOff
350
41
  3
Facepattern
350
38
  3
Flat
350
2A
  3
FlatWithEdges
350
2B
  3
Gouraud
350
2C
  3
GouraudWithEdges
350
2D
  3
Hidden
350
31
  3
JitterOff
350
3F
  3
Linepattern
350
37
  3
OverhangOff
350
40
  3
Realistic
350
33
  3
Shaded
350
3E
  3
Shaded with edges
350
3D
  3
Shades of Gray
350
3A
  3
Sketchy
350
3B
  3
Thicken
350
36
  3
Wireframe
350
30
  3
X-Ray
350
3C
  0
XRECORD
  5
D92
102
{ACAD_REACTORS
330
C
102
}
330
C
100
AcDbXrecord
280
     1
 90
        1
330
65
330
D89
  0
DICTIONARY
  5
76
102
{ACAD_REACTORS
330
C
102
}
330
C
100
AcDbDictionary
281
     1
  3
CANNOSCALE
350
79
  3
CMLEADERSTYLE
350
78
  3
CTABLESTYLE
350
77
  0
XRECORD
  5
D91
102
{ACAD_REACTORS
330
D90
102
}
330
D90
100
AcDbXrecord
280
     1
 40
3109124.0
  1
\pxsm0.94;{\fRomanS|b0|i0;\H2.0000;PART#: WA60P36F2G\P(DATA SUBJECT TO CHANGE WITHOUT NOTICE)\P \P\fRomanS|b0|i0;\H1.2000;THIS DRAWING IS PROPERTY OF HUBBELL INC. WIEGMANN\PALL INFORMATION IS PROPRIETARY AND NOT TO BE DUPLICATED\P}
  0
LAYOUT
  5
6B
102
{ACAD_REACTORS
330
62
102
}
330
62
100
AcDbPlotSettings
  1

  2

  4

  6

 40
0.0
 41
0.0
 42
0.0
 43
0.0
 44
0.0
 45
0.0
 46
0.0
 47
0.0
 48
0.0
 49
0.0
140
0.0
141
0.0
142
1.0
143
1.0
 70
   688
 72
     0
 73
     0
 74
     5
  7

 75
    16
147
1.0
 76
     0
 77
     2
 78
   300
148
0.0
149
0.0
100
AcDbLayout
  1
Layout1
 70
     1
 71
     1
 10
0.0
 20
0.0
 11
12.0
 21
9.0
 12
0.0
 22
0.0
 32
0.0
 14
0.0
 24
0.0
 34
0.0
 15
0.0
 25
0.0
 35
0.0
146
0.0
 13
0.0
 23
0.0
 33
0.0
 16
1.0
 26
0.0
 36
0.0
 17
0.0
 27
1.0
 37
0.0
 76
     0
330
68
  0
LAYOUT
  5
73
102
{ACAD_REACTORS
330
62
102
}
330
62
100
AcDbPlotSettings
  1

  2

  4

  6

 40
0.0
 41
0.0
 42
0.0
 43
0.0
 44
0.0
 45
0.0
 46
0.0
 47
0.0
 48
0.0
 49
0.0
140
0.0
141
0.0
142
1.0
143
1.0
 70
   688
 72
     0
 73
     0
 74
     5
  7

 75
    16
147
1.0
 76
     0
 77
     2
 78
   300
148
0.0
149
0.0
100
AcDbLayout
  1
Layout2
 70
     1
 71
     2
 10
0.0
 20
0.0
 11
12.0
 21
9.0
 12
0.0
 22
0.0
 32
0.0
 14
0.0
 24
0.0
 34
0.0
 15
0.0
 25
0.0
 35
0.0
146
0.0
 13
0.0
 23
0.0
 33
0.0
 16
1.0
 26
0.0
 36
0.0
 17
0.0
 27
1.0
 37
0.0
 76
     0
330
70
  0
LAYOUT
  5
6F
102
{ACAD_REACTORS
330
62
102
}
330
62
100
AcDbPlotSettings
  1

  2

  4

  6

 40
0.0
 41
0.0
 42
0.0
 43
0.0
 44
0.0
 45
0.0
 46
0.0
 47
0.0
 48
0.0
 49
0.0
140
0.0
141
0.0
142
1.0
143
1.0
 70
  1712
 72
     0
 73
     0
 74
     0
  7

 75
     0
147
1.0
 76
     0
 77
     2
 78
   300
148
0.0
149
0.0
100
AcDbLayout
  1
Model
 70
     1
 71
     0
 10
0.0
 20
0.0
 11
12.0
 21
9.0
 12
0.0
 22
0.0
 32
0.0
 14
0.0
 24
0.0
 34
0.0
 15
0.0
 25
0.0
 35
0.0
146
0.0
 13
0.0
 23
0.0
 33
0.0
 16
1.0
 26
0.0
 36
0.0
 17
0.0
 27
1.0
 37
0.0
 76
     0
330
6C
  0
MATERIAL
  5
19
102
{ACAD_XDICTIONARY
360
1A
102
}
102
{ACAD_REACTORS
330
10
102
}
330
10
100
AcDbMaterial
  1
ByBlock
 72
     0
 43
0.0208333333333333
 43
0.0
 43
0.0
 43
0.0
 43
0.0
 43
0.0208333333333333
 43
0.0
 43
0.0
 43
0.0
 43
0.0
 43
1.0
 43
0.0
 43
0.0
 43
0.0
 43
0.0
 43
1.0
 77
     0
 47
0.0208333333333333
 47
0.0
 47
0.0
 47
0.0
 47
0.0
 47
0.0208333333333333
 47
0.0
 47
0.0
 47
0.0
 47
0.0
 47
1.0
 47
0.0
 47
0.0
 47
0.0
 47
0.0
 47
1.0
171
     0
 49
0.0208333333333333
 49
0.0
 49
0.0
 49
0.0
 49
0.0
 49
0.0208333333333333
 49
0.0
 49
0.0
 49
0.0
 49
0.0
 49
1.0
 49
0.0
 49
0.0
 49
0.0
 49
0.0
 49
1.0
175
     0
142
0.0208333333333333
142
0.0
142
0.0
142
0.0
142
0.0
142
0.0208333333333333
142
0.0
142
0.0
142
0.0
142
0.0
142
1.0
142
0.0
142
0.0
142
0.0
142
0.0
142
1.0
179
     0
144
0.0208333333333333
144
0.0
144
0.0
144
0.0
144
0.0
144
0.0208333333333333
144
0.0
144
0.0
144
0.0
144
0.0
144
1.0
144
0.0
144
0.0
144
0.0
144
0.0
144
1.0
147
0.0208333333333333
147
0.0
147
0.0
147
0.0
147
0.0
147
0.0208333333333333
147
0.0
147
0.0
147
0.0
147
0.0
147
1.0
147
0.0
147
0.0
147
0.0
147
0.0
147
1.0
  0
MATERIAL
  5
11
102
{ACAD_XDICTIONARY
360
12
102
}
102
{ACAD_REACTORS
330
10
102
}
330
10
100
AcDbMaterial
  1
ByLayer
 72
     0
 43
0.0208333333333333
 43
0.0
 43
0.0
 43
0.0
 43
0.0
 43
0.0208333333333333
 43
0.0
 43
0.0
 43
0.0
 43
0.0
 43
1.0
 43
0.0
 43
0.0
 43
0.0
 43
0.0
 43
1.0
 77
     0
 47
0.0208333333333333
 47
0.0
 47
0.0
 47
0.0
 47
0.0
 47
0.0208333333333333
 47
0.0
 47
0.0
 47
0.0
 47
0.0
 47
1.0
 47
0.0
 47
0.0
 47
0.0
 47
0.0
 47
1.0
171
     0
 49
0.0208333333333333
 49
0.0
 49
0.0
 49
0.0
 49
0.0
 49
0.0208333333333333
 49
0.0
 49
0.0
 49
0.0
 49
0.0
 49
1.0
 49
0.0
 49
0.0
 49
0.0
 49
0.0
 49
1.0
175
     0
142
0.0208333333333333
142
0.0
142
0.0
142
0.0
142
0.0
142
0.0208333333333333
142
0.0
142
0.0
142
0.0
142
0.0
142
1.0
142
0.0
142
0.0
142
0.0
142
0.0
142
1.0
179
     0
144
0.0208333333333333
144
0.0
144
0.0
144
0.0
144
0.0
144
0.0208333333333333
144
0.0
144
0.0
144
0.0
144
0.0
144
1.0
144
0.0
144
0.0
144
0.0
144
0.0
144
1.0
147
0.0208333333333333
147
0.0
147
0.0
147
0.0
147
0.0
147
0.0208333333333333
147
0.0
147
0.0
147
0.0
147
0.0
147
1.0
147
0.0
147
0.0
147
0.0
147
0.0
147
1.0
  0
MATERIAL
  5
21
102
{ACAD_XDICTIONARY
360
22
102
}
102
{ACAD_REACTORS
330
10
102
}
330
10
100
AcDbMaterial
  1
Global
 72
     0
 43
0.0208333333333333
 43
0.0
 43
0.0
 43
0.0
 43
0.0
 43
0.0208333333333333
 43
0.0
 43
0.0
 43
0.0
 43
0.0
 43
1.0
 43
0.0
 43
0.0
 43
0.0
 43
0.0
 43
1.0
 77
     0
 47
0.0208333333333333
 47
0.0
 47
0.0
 47
0.0
 47
0.0
 47
0.0208333333333333
 47
0.0
 47
0.0
 47
0.0
 47
0.0
 47
1.0
 47
0.0
 47
0.0
 47
0.0
 47
0.0
 47
1.0
171
     0
 49
0.0208333333333333
 49
0.0
 49
0.0
 49
0.0
 49
0.0
 49
0.0208333333333333
 49
0.0
 49
0.0
 49
0.0
 49
0.0
 49
1.0
 49
0.0
 49
0.0
 49
0.0
 49
0.0
 49
1.0
175
     0
142
0.0208333333333333
142
0.0
142
0.0
142
0.0
142
0.0
142
0.0208333333333333
142
0.0
142
0.0
142
0.0
142
0.0
142
1.0
142
0.0
142
0.0
142
0.0
142
0.0
142
1.0
179
     0
144
0.0208333333333333
144
0.0
144
0.0
144
0.0
144
0.0
144
0.0208333333333333
144
0.0
144
0.0
144
0.0
144
0.0
144
1.0
144
0.0
144
0.0
144
0.0
144
0.0
144
1.0
147
0.0208333333333333
147
0.0
147
0.0
147
0.0
147
0.0
147
0.0208333333333333
147
0.0
147
0.0
147
0.0
147
0.0
147
1.0
147
0.0
147
0.0
147
0.0
147
0.0
147
1.0
  0
MLEADERSTYLE
  5
67
102
{ACAD_XDICTIONARY
360
D8E
102
}
102
{ACAD_REACTORS
330
66
102
}
330
66
100
AcDbMLeaderStyle
179
     2
170
     2
171
     1
172
     0
 90
        2
 40
0.0
 41
0.0
173
     1
 91
-1056964608
340
5B
 92
       -2
290
     1
 42
0.09
291
     1
 43
0.36
  3
Standard
 44
0.18
300

342
55
174
     1
178
     6
175
     1
176
     0
 93
-1056964608
 45
0.18
292
     0
297
     0
 46
0.18
 94
-1056964608
 47
1.0
 49
1.0
140
1.0
293
     1
141
0.0
294
     1
177
     0
142
1.0
295
     0
296
     0
143
0.125
271
     0
272
     9
273
     9
  0
MLINESTYLE
  5
60
102
{ACAD_REACTORS
330
5F
102
}
330
5F
100
AcDbMlineStyle
  2
STANDARD
 70
     0
  3

 62
   256
 51
90.0
 52
90.0
 71
     2
 49
0.5
 62
   256
  6
BYLAYER
 49
-0.5
 62
   256
  6
BYLAYER
  0
ACDBPLACEHOLDER
  5
F
102
{ACAD_REACTORS
330
E
102
}
330
E
  0
SCALE
  5
43
102
{ACAD_REACTORS
330
42
102
}
330
42
100
AcDbScale
 70
     0
300
1:1
140
1.0
141
1.0
290
     1
  0
SCALE
  5
44
102
{ACAD_REACTORS
330
42
102
}
330
42
100
AcDbScale
 70
     0
300
1/128" = 1'-0"
140
0.0078125
141
12.0
290
     0
  0
SCALE
  5
45
102
{ACAD_REACTORS
330
42
102
}
330
42
100
AcDbScale
 70
     0
300
1/64" = 1'-0"
140
0.015625
141
12.0
290
     0
  0
SCALE
  5
46
102
{ACAD_REACTORS
330
42
102
}
330
42
100
AcDbScale
 70
     0
300
1/32" = 1'-0"
140
0.03125
141
12.0
290
     0
  0
SCALE
  5
47
102
{ACAD_REACTORS
330
42
102
}
330
42
100
AcDbScale
 70
     0
300
1/16" = 1'-0"
140
0.0625
141
12.0
290
     0
  0
SCALE
  5
48
102
{ACAD_REACTORS
330
42
102
}
330
42
100
AcDbScale
 70
     0
300
3/32" = 1'-0"
140
0.09375
141
12.0
290
     0
  0
SCALE
  5
49
102
{ACAD_REACTORS
330
42
102
}
330
42
100
AcDbScale
 70
     0
300
1/8" = 1'-0"
140
0.125
141
12.0
290
     0
  0
SCALE
  5
4A
102
{ACAD_REACTORS
330
42
102
}
330
42
100
AcDbScale
 70
     0
300
3/16" = 1'-0"
140
0.1875
141
12.0
290
     0
  0
SCALE
  5
4B
102
{ACAD_REACTORS
330
42
102
}
330
42
100
AcDbScale
 70
     0
300
1/4" = 1'-0"
140
0.25
141
12.0
290
     0
  0
SCALE
  5
4C
102
{ACAD_REACTORS
330
42
102
}
330
42
100
AcDbScale
 70
     0
300
3/8" = 1'-0"
140
0.375
141
12.0
290
     0
  0
SCALE
  5
4D
102
{ACAD_REACTORS
330
42
102
}
330
42
100
AcDbScale
 70
     0
300
1/2" = 1'-0"
140
0.5
141
12.0
290
     0
  0
SCALE
  5
4E
102
{ACAD_REACTORS
330
42
102
}
330
42
100
AcDbScale
 70
     0
300
3/4" = 1'-0"
140
0.75
141
12.0
290
     0
  0
SCALE
  5
4F
102
{ACAD_REACTORS
330
42
102
}
330
42
100
AcDbScale
 70
     0
300
1" = 1'-0"
140
1.0
141
12.0
290
     0
  0
SCALE
  5
50
102
{ACAD_REACTORS
330
42
102
}
330
42
100
AcDbScale
 70
     0
300
1-1/2" = 1'-0"
140
1.5
141
12.0
290
     0
  0
SCALE
  5
51
102
{ACAD_REACTORS
330
42
102
}
330
42
100
AcDbScale
 70
     0
300
3" = 1'-0"
140
3.0
141
12.0
290
     0
  0
SCALE
  5
52
102
{ACAD_REACTORS
330
42
102
}
330
42
100
AcDbScale
 70
     0
300
6" = 1'-0"
140
6.0
141
12.0
290
     0
  0
SCALE
  5
53
102
{ACAD_REACTORS
330
42
102
}
330
42
100
AcDbScale
 70
     0
300
1'-0" = 1'-0"
140
12.0
141
12.0
290
     0
  0
TABLESTYLE
  5
65
102
{ACAD_XDICTIONARY
360
D8C
102
}
102
{ACAD_REACTORS
330
64
102
}
330
64
100
AcDbTableStyle
280
     0
  3
Standard
 70
     0
 71
     0
 40
0.06
 41
0.06
280
     0
281
     0
  7
Standard
140
0.18
170
     2
 62
     0
 63
     7
283
     0
 90
      512
 91
        0
  1

274
    -2
284
     1
 64
     0
275
    -2
285
     1
 65
     0
276
    -2
286
     1
 66
     0
277
    -2
287
     1
 67
     0
278
    -2
288
     1
 68
     0
279
    -2
289
     1
 69
     0
  7
Standard
140
0.25
170
     5
 62
     0
 63
     7
283
     0
 90
      512
 91
        0
  1

274
    -2
284
     1
 64
     0
275
    -2
285
     1
 65
     0
276
    -2
286
     1
 66
     0
277
    -2
287
     1
 67
     0
278
    -2
288
     1
 68
     0
279
    -2
289
     1
 69
     0
  7
Standard
140
0.18
170
     5
 62
     0
 63
     7
283
     0
 90
      512
 91
        0
  1

274
    -2
284
     1
 64
     0
275
    -2
285
     1
 65
     0
276
    -2
286
     1
 66
     0
277
    -2
287
     1
 67
     0
278
    -2
288
     1
 68
     0
279
    -2
289
     1
 69
     0
  0
VISUALSTYLE
  5
2F
102
{ACAD_REACTORS
330
29
102
}
330
29
100
AcDbVisualStyle
  2
2dWireframe
 70
     4
177
     2
291
     0
 71
     0
176
     1
 72
     2
176
     1
 73
     0
176
     1
 90
        0
176
     1
 40
0.6
176
     1
 41
30.0
176
     1
 63
     7
421
 16777215
176
     1
 74
     1
176
     1
 91
        4
176
     1
 64
     7
176
     1
 65
   257
176
     1
 75
     1
176
     1
175
     1
176
     1
 42
1.0
176
     1
 92
        0
176
     1
 66
   257
176
     1
 43
1.0
176
     1
 76
     1
176
     1
 77
     6
176
     1
 78
     2
176
     1
 67
     7
176
     1
 79
     5
176
     1
170
     0
176
     1
171
     0
176
     1
290
     0
176
     1
 93
        1
176
     1
 44
0.0
176
     1
173
     0
176
     1
  0
VISUALSTYLE
  5
2E
102
{ACAD_REACTORS
330
29
102
}
330
29
100
AcDbVisualStyle
  2
Basic
 70
     7
177
     2
291
     1
 71
     1
176
     1
 72
     0
176
     1
 73
     1
176
     1
 90
        0
176
     1
 40
0.6
176
     1
 41
30.0
176
     1
 63
     7
421
 16777215
176
     1
 74
     0
176
     1
 91
        4
176
     1
 64
     7
176
     1
 65
   257
176
     1
 75
     1
176
     1
175
     1
176
     1
 42
1.0
176
     1
 92
        8
176
     1
 66
     7
176
     1
 43
1.0
176
     1
 76
     1
176
     1
 77
     6
176
     1
 78
     2
176
     1
 67
     7
176
     1
 79
     5
176
     1
170
     0
176
     1
171
     0
176
     1
290
     0
176
     1
 93
        1
176
     1
 44
0.0
176
     1
173
     0
176
     1
  0
VISUALSTYLE
  5
35
102
{ACAD_REACTORS
330
29
102
}
330
29
100
AcDbVisualStyle
  2
Brighten
 70
    12
177
     2
291
     1
 71
     2
176
     1
 72
     2
176
     1
 73
     0
176
     1
 90
        0
176
     1
 40
0.6
176
     1
 41
30.0
176
     1
 63
     7
421
 16777215
176
     1
 74
     1
176
     1
 91
        4
176
     1
 64
     7
176
     1
 65
   257
176
     1
 75
     1
176
     1
175
     1
176
     1
 42
1.0
176
     1
 92
        8
176
     1
 66
     7
176
     1
 43
1.0
176
     1
 76
     1
176
     1
 77
     6
176
     1
 78
     2
176
     1
 67
     7
176
     1
 79
     5
176
     1
170
     0
176
     1
171
     0
176
     1
290
     0
176
     1
 93
        1
176
     1
 44
50.0
176
     1
173
     0
176
     1
  0
VISUALSTYLE
  5
39
102
{ACAD_REACTORS
330
29
102
}
330
29
100
AcDbVisualStyle
  2
ColorChange
 70
    16
177
     2
291
     1
 71
     2
176
     1
 72
     2
176
     1
 73
     3
176
     1
 90
        0
176
     1
 40
0.6
176
     1
 41
30.0
176
     1
 63
     8
421
  8421504
176
     1
 74
     1
176
     1
 91
        4
176
     1
 64
     7
176
     1
 65
   257
176
     1
 75
     1
176
     1
175
     1
176
     1
 42
1.0
176
     1
 92
        8
176
     1
 66
     8
424
  8421504
176
     1
 43
1.0
176
     1
 76
     1
176
     1
 77
     6
176
     1
 78
     2
176
     1
 67
     7
176
     1
 79
     5
176
     1
170
     0
176
     1
171
     0
176
     1
290
     0
176
     1
 93
        1
176
     1
 44
0.0
176
     1
173
     0
176
     1
  0
VISUALSTYLE
  5
32
102
{ACAD_REACTORS
330
29
102
}
330
29
100
AcDbVisualStyle
  2
Conceptual
 70
     9
177
     2
291
     0
 71
     3
176
     1
 72
     2
176
     1
 73
     0
176
     1
 90
        0
176
     1
 40
0.6
176
     1
 41
30.0
176
     1
 63
     7
421
 16777215
176
     1
 74
     2
176
     1
 91
        2
176
     1
 64
     7
176
     1
 65
   257
176
     1
 75
     1
176
     1
175
     1
176
     1
 42
179.0
176
     1
 92
        8
176
     1
 66
     7
176
     1
 43
1.0
176
     1
 76
     1
176
     1
 77
     6
176
     1
 78
     2
176
     1
 67
     7
176
     1
 79
     3
176
     1
170
     0
176
     1
171
     0
176
     1
290
     0
176
     1
 93
        1
176
     1
 44
0.0
176
     1
173
     0
176
     1
  0
VISUALSTYLE
  5
34
102
{ACAD_REACTORS
330
29
102
}
330
29
100
AcDbVisualStyle
  2
Dim
 70
    11
177
     2
291
     1
 71
     2
176
     1
 72
     2
176
     1
 73
     0
176
     1
 90
        0
176
     1
 40
0.6
176
     1
 41
30.0
176
     1
 63
     7
421
 16777215
176
     1
 74
     1
176
     1
 91
        4
176
     1
 64
     7
176
     1
 65
   257
176
     1
 75
     1
176
     1
175
     1
176
     1
 42
1.0
176
     1
 92
        8
176
     1
 66
     7
176
     1
 43
1.0
176
     1
 76
     1
176
     1
 77
     6
176
     1
 78
     2
176
     1
 67
     7
176
     1
 79
     5
176
     1
170
     0
176
     1
171
     0
176
     1
290
     0
176
     1
 93
        1
176
     1
 44
-50.0
176
     1
173
     0
176
     1
  0
VISUALSTYLE
  5
41
102
{ACAD_REACTORS
330
29
102
}
330
29
100
AcDbVisualStyle
  2
EdgeColorOff
 70
    22
177
     2
291
     1
 71
     2
176
     0
 72
     2
176
     0
 73
     0
176
     0
 90
        0
176
     0
 40
0.6
176
     0
 41
30.0
176
     0
 63
     7
421
 16777215
176
     0
 74
     1
176
     0
 91
        4
176
     0
 64
     7
176
     0
 65
   257
176
     0
 75
     1
176
     0
175
     1
176
     0
 42
1.0
176
     0
 92
        8
176
     2
 66
     7
176
     0
 43
1.0
176
     0
 76
     1
176
     0
 77
     6
176
     0
 78
     2
176
     0
 67
     7
176
     0
 79
     5
176
     0
170
     0
176
     0
171
     0
176
     0
290
     0
176
     0
 93
        1
176
     0
 44
0.0
176
     0
173
     0
176
     0
  0
VISUALSTYLE
  5
38
102
{ACAD_REACTORS
330
29
102
}
330
29
100
AcDbVisualStyle
  2
Facepattern
 70
    15
177
     2
291
     1
 71
     2
176
     1
 72
     2
176
     1
 73
     0
176
     1
 90
        0
176
     1
 40
0.6
176
     1
 41
30.0
176
     1
 63
     7
421
 16777215
176
     1
 74
     1
176
     1
 91
        4
176
     1
 64
     7
176
     1
 65
   257
176
     1
 75
     1
176
     1
175
     1
176
     1
 42
1.0
176
     1
 92
        8
176
     1
 66
     7
176
     1
 43
1.0
176
     1
 76
     1
176
     1
 77
     6
176
     1
 78
     2
176
     1
 67
     7
176
     1
 79
     5
176
     1
170
     0
176
     1
171
     0
176
     1
290
     0
176
     1
 93
        1
176
     1
 44
0.0
176
     1
173
     0
176
     1
  0
VISUALSTYLE
  5
2A
102
{ACAD_REACTORS
330
29
102
}
330
29
100
AcDbVisualStyle
  2
Flat
 70
     0
177
     2
291
     1
 71
     2
176
     1
 72
     1
176
     1
 73
     1
176
     1
 90
        2
176
     1
 40
0.6
176
     1
 41
30.0
176
     1
 63
     7
421
 16777215
176
     1
 74
     0
176
     1
 91
        0
176
     1
 64
     7
176
     1
 65
   257
176
     1
 75
     1
176
     1
175
     1
176
     1
 42
1.0
176
     1
 92
        8
176
     1
 66
     7
176
     1
 43
1.0
176
     1
 76
     1
176
     1
 77
     6
176
     1
 78
     2
176
     1
 67
     7
176
     1
 79
     5
176
     1
170
     0
176
     1
171
     0
176
     1
290
     0
176
     1
 93
       13
176
     1
 44
0.0
176
     1
173
     0
176
     1
  0
VISUALSTYLE
  5
2B
102
{ACAD_REACTORS
330
29
102
}
330
29
100
AcDbVisualStyle
  2
FlatWithEdges
 70
     1
177
     2
291
     1
 71
     2
176
     1
 72
     1
176
     1
 73
     1
176
     1
 90
        2
176
     1
 40
0.6
176
     1
 41
30.0
176
     1
 63
     7
421
 16777215
176
     1
 74
     1
176
     1
 91
        0
176
     1
 64
     7
176
     1
 65
   257
176
     1
 75
     1
176
     1
175
     1
176
     1
 42
1.0
176
     1
 92
        0
176
     1
 66
   257
176
     1
 43
1.0
176
     1
 76
     1
176
     1
 77
     6
176
     1
 78
     2
176
     1
 67
     7
176
     1
 79
     5
176
     1
170
     0
176
     1
171
     0
176
     1
290
     0
176
     1
 93
       13
176
     1
 44
0.0
176
     1
173
     0
176
     1
  0
VISUALSTYLE
  5
2C
102
{ACAD_REACTORS
330
29
102
}
330
29
100
AcDbVisualStyle
  2
Gouraud
 70
     2
177
     2
291
     1
 71
     2
176
     1
 72
     2
176
     1
 73
     1
176
     1
 90
        2
176
     1
 40
0.6
176
     1
 41
30.0
176
     1
 63
     7
421
 16777215
176
     1
 74
     0
176
     1
 91
        0
176
     1
 64
     7
176
     1
 65
   257
176
     1
 75
     1
176
     1
175
     1
176
     1
 42
1.0
176
     1
 92
        0
176
     1
 66
     7
176
     1
 43
1.0
176
     1
 76
     1
176
     1
 77
     6
176
     1
 78
     2
176
     1
 67
     7
176
     1
 79
     5
176
     1
170
     0
176
     1
171
     0
176
     1
290
     0
176
     1
 93
       13
176
     1
 44
0.0
176
     1
173
     0
176
     1
  0
VISUALSTYLE
  5
2D
102
{ACAD_REACTORS
330
29
102
}
330
29
100
AcDbVisualStyle
  2
GouraudWithEdges
 70
     3
177
     2
291
     1
 71
     2
176
     1
 72
     2
176
     1
 73
     1
176
     1
 90
        2
176
     1
 40
0.6
176
     1
 41
30.0
176
     1
 63
     7
421
 16777215
176
     1
 74
     1
176
     1
 91
        0
176
     1
 64
     7
176
     1
 65
   257
176
     1
 75
     1
176
     1
175
     1
176
     1
 42
1.0
176
     1
 92
        0
176
     1
 66
   257
176
     1
 43
1.0
176
     1
 76
     1
176
     1
 77
     6
176
     1
 78
     2
176
     1
 67
     7
176
     1
 79
     5
176
     1
170
     0
176
     1
171
     0
176
     1
290
     0
176
     1
 93
       13
176
     1
 44
0.0
176
     1
173
     0
176
     1
  0
VISUALSTYLE
  5
31
102
{ACAD_REACTORS
330
29
102
}
330
29
100
AcDbVisualStyle
  2
Hidden
 70
     6
177
     2
291
     0
 71
     1
176
     1
 72
     2
176
     1
 73
     2
176
     1
 90
        0
176
     1
 40
0.6
176
     1
 41
30.0
176
     1
 63
     7
421
 16777215
176
     1
 74
     2
176
     1
 91
        2
176
     1
 64
     7
176
     1
 65
   257
176
     1
 75
     2
176
     1
175
     1
176
     1
 42
40.0
176
     1
 92
        0
176
     1
 66
   257
176
     1
 43
1.0
176
     1
 76
     1
176
     1
 77
     6
176
     1
 78
     2
176
     1
 67
     7
176
     1
 79
     3
176
     1
170
     0
176
     1
171
     0
176
     1
290
     0
176
     1
 93
        1
176
     1
 44
0.0
176
     1
173
     0
176
     1
  0
VISUALSTYLE
  5
3F
102
{ACAD_REACTORS
330
29
102
}
330
29
100
AcDbVisualStyle
  2
JitterOff
 70
    20
177
     2
291
     1
 71
     2
176
     0
 72
     2
176
     0
 73
     0
176
     0
 90
        0
176
     0
 40
0.6
176
     0
 41
30.0
176
     0
 63
     7
421
 16777215
176
     0
 74
     1
176
     0
 91
        4
176
     0
 64
     7
176
     0
 65
   257
176
     0
 75
     1
176
     0
175
     1
176
     0
 42
1.0
176
     0
 92
       10
176
     2
 66
     7
176
     0
 43
1.0
176
     0
 76
     1
176
     0
 77
     6
176
     0
 78
     2
176
     0
 67
     7
176
     0
 79
     5
176
     0
170
     0
176
     0
171
     0
176
     0
290
     0
176
     0
 93
        1
176
     0
 44
0.0
176
     0
173
     0
176
     0
  0
VISUALSTYLE
  5
37
102
{ACAD_REACTORS
330
29
102
}
330
29
100
AcDbVisualStyle
  2
Linepattern
 70
    14
177
     2
291
     1
 71
     2
176
     1
 72
     2
176
     1
 73
     0
176
     1
 90
        0
176
     1
 40
0.6
176
     1
 41
30.0
176
     1
 63
     7
421
 16777215
176
     1
 74
     1
176
     1
 91
        4
176
     1
 64
     7
176
     1
 65
   257
176
     1
 75
     7
176
     1
175
     7
176
     1
 42
1.0
176
     1
 92
        8
176
     1
 66
     7
176
     1
 43
1.0
176
     1
 76
     1
176
     1
 77
     6
176
     1
 78
     2
176
     1
 67
     7
176
     1
 79
     5
176
     1
170
     0
176
     1
171
     0
176
     1
290
     0
176
     1
 93
        1
176
     1
 44
0.0
176
     1
173
     0
176
     1
  0
VISUALSTYLE
  5
40
102
{ACAD_REACTORS
330
29
102
}
330
29
100
AcDbVisualStyle
  2
OverhangOff
 70
    21
177
     2
291
     1
 71
     2
176
     0
 72
     2
176
     0
 73
     0
176
     0
 90
        0
176
     0
 40
0.6
176
     0
 41
30.0
176
     0
 63
     7
421
 16777215
176
     0
 74
     1
176
     0
 91
        4
176
     0
 64
     7
176
     0
 65
   257
176
     0
 75
     1
176
     0
175
     1
176
     0
 42
1.0
176
     0
 92
        9
176
     2
 66
     7
176
     0
 43
1.0
176
     0
 76
     1
176
     0
 77
     6
176
     0
 78
     2
176
     0
 67
     7
176
     0
 79
     5
176
     0
170
     0
176
     0
171
     0
176
     0
290
     0
176
     0
 93
        1
176
     0
 44
0.0
176
     0
173
     0
176
     0
  0
VISUALSTYLE
  5
33
102
{ACAD_REACTORS
330
29
102
}
330
29
100
AcDbVisualStyle
  2
Realistic
 70
     8
177
     2
291
     0
 71
     2
176
     1
 72
     3
176
     1
 73
     0
176
     1
 90
        2
176
     1
 40
0.6
176
     1
 41
30.0
176
     1
 63
     7
421
 16777215
176
     1
 74
     0
176
     1
 91
        0
176
     1
 64
     7
176
     1
 65
   257
176
     1
 75
     1
176
     1
175
     1
176
     1
 42
1.0
176
     1
 92
        8
176
     1
 66
   257
176
     1
 43
1.0
176
     1
 76
     1
176
     1
 77
     6
176
     1
 78
     2
176
     1
 67
     7
176
     1
 79
     3
176
     1
170
     0
176
     1
171
     0
176
     1
290
     0
176
     1
 93
       13
176
     1
 44
0.0
176
     1
173
     0
176
     1
  0
VISUALSTYLE
  5
3E
102
{ACAD_REACTORS
330
29
102
}
330
29
100
AcDbVisualStyle
  2
Shaded
 70
    27
177
     2
291
     0
 71
     2
176
     1
 72
     2
176
     1
 73
     1
176
     1
 90
        2
176
     1
 40
0.6
176
     1
 41
30.0
176
     1
 63
     7
421
 16777215
176
     1
 74
     0
176
     1
 91
        4
176
     1
 64
     7
176
     1
 65
   257
176
     1
 75
     1
176
     1
175
     1
176
     1
 42
1.0
176
     1
 92
        8
176
     1
 66
   257
176
     1
 43
1.0
176
     1
 76
     1
176
     1
 77
     6
176
     1
 78
     2
176
     1
 67
     8
425
  7895160
176
     1
 79
     3
176
     1
170
     0
176
     1
171
     0
176
     1
290
     0
176
     1
 93
        5
176
     1
 44
0.0
176
     1
173
     0
176
     1
  0
VISUALSTYLE
  5
3D
102
{ACAD_REACTORS
330
29
102
}
330
29
100
AcDbVisualStyle
  2
Shaded with edges
 70
    26
177
     2
291
     0
 71
     2
176
     1
 72
     2
176
     1
 73
     1
176
     1
 90
        2
176
     1
 40
0.6
176
     1
 41
30.0
176
     1
 63
     7
421
 16777215
176
     1
 74
     1
176
     1
 91
       10
176
     1
 64
     7
176
     1
 65
   257
176
     1
 75
     2
176
     1
175
     1
176
     1
 42
1.0
176
     1
 92
        8
176
     1
 66
   257
176
     1
 43
1.0
176
     1
 76
     1
176
     1
 77
     6
176
     1
 78
     2
176
     1
 67
     7
176
     1
 79
     3
176
     1
170
     0
176
     1
171
     0
176
     1
290
     0
176
     1
 93
        5
176
     1
 44
0.0
176
     1
173
     0
176
     1
  0
VISUALSTYLE
  5
3A
102
{ACAD_REACTORS
330
29
102
}
330
29
100
AcDbVisualStyle
  2
Shades of Gray
 70
    23
177
     2
291
     0
 71
     2
176
     1
 72
     2
176
     1
 73
     3
176
     1
 90
        0
176
     1
 40
0.6
176
     1
 41
30.0
176
     1
 63
     7
421
 16777215
176
     1
 74
     2
176
     1
 91
        2
176
     1
 64
     7
176
     1
 65
     7
176
     1
 75
     1
176
     1
175
     1
176
     1
 42
40.0
176
     1
 92
        8
176
     1
 66
     7
176
     1
 43
1.0
176
     1
 76
     1
176
     1
 77
     6
176
     1
 78
     2
176
     1
 67
     7
176
     1
 79
     3
176
     1
170
     0
176
     1
171
     0
176
     1
290
     0
176
     1
 93
        1
176
     1
 44
0.0
176
     1
173
     0
176
     1
  0
VISUALSTYLE
  5
3B
102
{ACAD_REACTORS
330
29
102
}
330
29
100
AcDbVisualStyle
  2
Sketchy
 70
    24
177
     2
291
     0
 71
     1
176
     1
 72
     2
176
     1
 73
     2
176
     1
 90
        0
176
     1
 40
0.6
176
     1
 41
30.0
176
     1
 63
     7
421
 16777215
176
     1
 74
     2
176
     1
 91
        2
176
     1
 64
     7
176
     1
 65
     7
176
     1
 75
     1
176
     1
175
     1
176
     1
 42
40.0
176
     1
 92
       11
176
     1
 66
     7
176
     1
 43
1.0
176
     1
 76
     1
176
     1
 77
     6
176
     1
 78
     2
176
     1
 67
     7
176
     1
 79
     6
176
     1
170
     0
176
     1
171
     0
176
     1
290
     0
176
     1
 93
        1
176
     1
 44
0.0
176
     1
173
     0
176
     1
  0
VISUALSTYLE
  5
36
102
{ACAD_REACTORS
330
29
102
}
330
29
100
AcDbVisualStyle
  2
Thicken
 70
    13
177
     2
291
     1
 71
     2
176
     1
 72
     2
176
     1
 73
     0
176
     1
 90
        0
176
     1
 40
0.6
176
     1
 41
30.0
176
     1
 63
     7
421
 16777215
176
     1
 74
     1
176
     1
 91
        4
176
     1
 64
     7
176
     1
 65
   257
176
     1
 75
     1
176
     1
175
     1
176
     1
 42
1.0
176
     1
 92
       12
176
     1
 66
     7
176
     1
 43
1.0
176
     1
 76
     1
176
     1
 77
     6
176
     1
 78
     2
176
     1
 67
     7
176
     1
 79
     5
176
     1
170
     0
176
     1
171
     0
176
     1
290
     0
176
     1
 93
        1
176
     1
 44
0.0
176
     1
173
     0
176
     1
  0
VISUALSTYLE
  5
30
102
{ACAD_REACTORS
330
29
102
}
330
29
100
AcDbVisualStyle
  2
Wireframe
 70
     5
177
     2
291
     0
 71
     0
176
     1
 72
     2
176
     1
 73
     0
176
     1
 90
        0
176
     1
 40
0.6
176
     1
 41
30.0
176
     1
 63
     7
421
 16777215
176
     1
 74
     1
176
     1
 91
        4
176
     1
 64
     7
176
     1
 65
   257
176
     1
 75
     1
176
     1
175
     1
176
     1
 42
1.0
176
     1
 92
        0
176
     1
 66
   257
176
     1
 43
1.0
176
     1
 76
     1
176
     1
 77
     6
176
     1
 78
     2
176
     1
 67
     7
176
     1
 79
     3
176
     1
170
     0
176
     1
171
     0
176
     1
290
     0
176
     1
 93
        1
176
     1
 44
0.0
176
     1
173
     0
176
     1
  0
VISUALSTYLE
  5
3C
102
{ACAD_REACTORS
330
29
102
}
330
29
100
AcDbVisualStyle
  2
X-Ray
 70
    25
177
     2
291
     0
 71
     2
176
     1
 72
     2
176
     1
 73
     1
176
     1
 90
        1
176
     1
 40
0.5
176
     1
 41
30.0
176
     1
 63
     7
421
 16777215
176
     1
 74
     1
176
     1
 91
        0
176
     1
 64
     7
176
     1
 65
   257
176
     1
 75
     1
176
     1
175
     1
176
     1
 42
1.0
176
     1
 92
        8
176
     1
 66
     7
176
     1
 43
1.0
176
     1
 76
     1
176
     1
 77
     6
176
     1
 78
     2
176
     1
 67
     7
176
     1
 79
     3
176
     1
170
     0
176
     1
171
     0
176
     1
290
     0
176
     1
 93
       13
176
     1
 44
0.0
176
     1
173
     0
176
     1
  0
DICTIONARYVAR
  5
79
102
{ACAD_REACTORS
330
76
102
}
330
76
100
DictionaryVariables
280
     0
  1
1:1
  0
DICTIONARYVAR
  5
78
102
{ACAD_REACTORS
330
76
102
}
330
76
100
DictionaryVariables
280
     0
  1
STANDARD
  0
DICTIONARYVAR
  5
77
102
{ACAD_REACTORS
330
76
102
}
330
76
100
DictionaryVariables
280
     0
  1
STANDARD
  0
DICTIONARY
  5
1A
330
19
100
AcDbDictionary
280
     1
281
     1
  3
BUMPTILE
360
1C
  3
DIFFUSETILE
360
1B
  3
OPACITYTILE
360
1F
  3
REFLECTIONTILE
360
1E
  3
REFRACTIONTILE
360
20
  3
SPECULARTILE
360
1D
  0
DICTIONARY
  5
12
330
11
100
AcDbDictionary
280
     1
281
     1
  3
BUMPTILE
360
14
  3
DIFFUSETILE
360
13
  3
FBXASSET
360
109
  3
OPACITYTILE
360
17
  3
REFLECTIONTILE
360
16
  3
REFRACTIONTILE
360
18
  3
SPECULARTILE
360
15
  0
DICTIONARY
  5
22
330
21
100
AcDbDictionary
280
     1
281
     1
  3
BUMPTILE
360
24
  3
DIFFUSETILE
360
23
  3
FBXASSET
360
BA
  3
OPACITYTILE
360
27
  3
REFLECTIONTILE
360
26
  3
REFRACTIONTILE
360
28
  3
SPECULARTILE
360
25
  0
DICTIONARY
  5
D8E
330
67
100
AcDbDictionary
280
     1
281
     1
  3
ACAD_XREC_ROUNDTRIP
360
D8F
  0
DICTIONARY
  5
D8C
330
65
100
AcDbDictionary
280
     1
281
     1
  3
ACAD_ROUNDTRIP_2008_TABLESTYLE_CELLSTYLEMAP
360
D8D
  0
XRECORD
  5
1C
102
{ACAD_REACTORS
330
1A
102
}
330
1A
100
AcDbXrecord
280
     1
270
     1
271
     1
  0
XRECORD
  5
1B
102
{ACAD_REACTORS
330
1A
102
}
330
1A
100
AcDbXrecord
280
     1
270
     1
271
     1
  0
XRECORD
  5
1F
102
{ACAD_REACTORS
330
1A
102
}
330
1A
100
AcDbXrecord
280
     1
270
     1
271
     1
  0
XRECORD
  5
1E
102
{ACAD_REACTORS
330
1A
102
}
330
1A
100
AcDbXrecord
280
     1
270
     1
271
     1
  0
XRECORD
  5
20
102
{ACAD_REACTORS
330
1A
102
}
330
1A
100
AcDbXrecord
280
     1
270
     1
271
     1
  0
XRECORD
  5
1D
102
{ACAD_REACTORS
330
1A
102
}
330
1A
100
AcDbXrecord
280
     1
270
     1
271
     1
  0
XRECORD
  5
14
102
{ACAD_REACTORS
330
12
102
}
330
12
100
AcDbXrecord
280
     1
270
     1
271
     1
  0
XRECORD
  5
13
102
{ACAD_REACTORS
330
12
102
}
330
12
100
AcDbXrecord
280
     1
270
     1
271
     1
  0
XRECORD
  5
109
102
{ACAD_REACTORS
330
12
102
}
330
12
100
AcDbXrecord
280
     1
 70
     1
 90
1959938040
 71
     1
  1
F1598ED4-3EA4-4A48-AF99-D1F8D9C9810B
311
504B03040A00000800007A97D5423DEE336E79000000790000001B0000006175746F6465736B2D64657369676E2D7061636B6167652E786D6C3C3F786D6C2076657273696F6E3D22312E302220656E636F64696E673D227574662D3822203F3E3C666F726D6174733E3C666F726D61743E687474703A2F2F736368656D612E
311
6175746F6465736B2E636F6D2F64657369676E2D7061636B6167652F323030393C2F666F726D61743E3C2F666F726D6174733E504B03041400060808007A97D542D486FD9CA0000000F4000000130000005B436F6E74656E745F54797065735D2E786D6C7D8EC10E82300C865F65E91D8A1E8C310C0EEA1BF002731658846E
311
D98AC1B77784ABF1D8FE5FBFBF75BBCE937A534CCEB38643598122B6FEE978D0B0485F9C41B54DDD7D022595594E1A469170414C76A4D9A4D207E29CF43ECE46F218070CC6BECC4078ACAA135ACF422C856C0E68EA1BF5669944DDD7BCDE7B1F8E415D77AECB980613C2E4AC91FC167A2B244592486606FC29C8FD7F045B9A
311
EF7053A7E60B504B03041400060808007A97D542CA710E89EB0000007C01000008000000636F72652E786D6C8D90416EC3201045AF82665B61831DC7C1C2446E454FD00B204C5C94182C03558F5F9C3852BBEB6A467FFE9B197D7EFE9E6FE8CBACC17AD7032D0820E3B41FAD9B7A48F1824F80CE82AFDEC75F36404ECDA687
311
4D06C1A7D5A76597B477D1B89855E747B38B2A041301E95B6E7A08FAD3CCAA50296647B8168BD2573599823EBB0CA76447F43862C7BCCF5EAC5941D4AFEF43DB4882891C283EBCB116B356323C1CE5D030420E4C4A5E6EB0E0D1CECFFB7A352A9A114445688DC91157F4839EBA86754DF5429AAE26BCDCEC7FA0B48CFF8492
311
75B1AEF6771F580041F323F781E0E596452EF7A072DD72133F504B03041400060808007A97D54255019EA25F0000007C00000007000000636E782E786D6C4DCB3B0E80201045D1AD90E915ED2CF8AC45050C11660C8261F98AB1B07AC9C97D42D718D865D3E909258CFD00CCE24AC6E326A164D74DC0B4128928FF32603847
311
2BA13128B1252AC747C6BAB984FC68F0B87FE8960A5C09FE86CFB69FBA01504B03041400060808007A97D5421E99DB4368010000020300000C0000006662782F636F72652E786D6C8D525B6E833010BC8AE5DFCAD840484A641CD18A9EA01770C0A128602363A31CBFCB234A5345518464AC999DDDD9017EB8742D1A951D1A
311
A3331C060C23A54B5335BACEB07727F28ED141706B8CFB538691969DCAF00463C16B6B7CBF42A5D14E6907A836955A41390CCA6154B670C9F050FEA84E06D23BA818CE412FCBB3AC55100640439DE083B360002D43A6138BD3F1C2E9820BEE7D53AD6C53C1B4E6D4288B45FCF195EF92821156E421D97CA63B92EE8A94E4DB
311
224F52C6366951703A8905774D7775575A259DAAB088581813B62551F81DBEEF93749F446F2CD9C78CD3A9FC4EE4FBEA45916FB48BA3D5EE221BB008C1C84CFCDB162272689023F8A182D3294478CD09DF070D8140C84E1EDBEB1E678046553A6337C054C6DFA851B65EC15486E687D38585CE7303D8EC619FE8499FE73DE0
311
034A5D8335E9E07AF46E9ACE97A96B14BDB2647417A48DED647B33B758BC9DB7410FE5A5698D7D454DD755E91A269DFE5EF10B504B03041400060808007A97D542231DB1ED7D0000009D0000000B0000006662782F636E782E786D6C4DCCD10AC2201886E15B91FFDCA6CBA60375587821A3B921390DD3E8F2DB62071D7DF0
311
F0F1CAE1B306F476F9E55354404F04908BF734F9B828A865C602D0A0654EA9FCDD00C571750A76062D979CEAF3A0C9CD630D65D3E0E3E3C00B377D27A8C1DCDA0EB3FE66B0108CE02B3D734E096BADE0D068D9FC4ADBEE61FD05504B03041400060808007A97D5421896894F2A01000014020000310000006662782F353741
311
39363831412D374545362D343943412D383834302D4231333737313034324538372F636F72652E786D6C8D515B6EC32010BC0AE22B55850DF8990813A5556ED00B10431294182C1E558E5FA81DA9FDCB0F8B66676647BB6CFF98EEE05B39AFAD1920293004CA8C566A7319600C67D443B0E7CC591BFED02030625203CC30E4
311
ECE26C9C5768B4262813126AAC542B28BC570182F19E3E03F4E3554DA210312486BF15B3186FE2A20A52A476E271E6834B01C03224BF9037DD61DBF6E480BAE3B145F5F6F380FABEC6E883545D47704D8F7DC7CA45C8598C5AAE722D531C7DD6CABD6A92C59C053D3DE38F4E89A024E414930AE11651F245FA5DB3DD35F41D
311
37BB0AB332D3FF89E22C5F14456D4245D7B88BCC434E58B9343893369EEECF30EA315B17409EB7F16A7C831C1798508A719316B050D30292675BAF9E3E589716BCB99D129B348B715B7356E61BA5F27BC054F33DF90F504B03041400060808007A97D54239AEFD0C4E01000033030000300000006662782F35374139363831
311
412D374545362D343943412D383834302D4231333737313034324538372F636E782E786D6CD593BB6E032110457F05D146FBF24B8EC5622945BE20455A16C636360B2B1E51FCF7196CECB87191320D5ADDB9DC3B3A62D9F67B34E40B7CD0CEF6B4AB5B4AC04AA7B4DDF734C55DB5A664CB99772E3ED828B162849E669972B6
311
F72E4D4552B013C944548DB6A7227A082E790901E57C93182785C100B0554211C601940245EE46FCDA81C755501CCE241E80BCBF7D12371C41C6C09A9CC259933B38CB67697A3051228D08A1A7411E6014B548D12908A75A8928EAAEBE753DD9E93789E40BB7CAE435C9E53DCD27E565A31A39B206879C85E8915E31C5F304
311
948B69325A8A88909B8BF1EAE12C691B578BE2D508DEA3BB5BCD170B0CBBCC388B7A84E2901E440445F9ACEDE655BBAA66DD47B7DE2C5F37CBD94BBBDCCC5BD6643B678373A65CC218F06E22D2D9083652DEB1268F9FE12B3EA2B447D6CE9FFF00120194D62B9D7BC67FE6D35CDE37E2F2F817F01F504B0304140006080800
311
7A97D54222D57C25A405000081100000340000006662782F35374139363831412D374545362D343943412D383834302D4231333737313034324538372F6F626A656374732E786D6CAD57D98EDB3614FD15417D691FBCC8F6A476A151E0B1C781914E12C448D00703062D511A76A8052435F1F4EB7B2852B2E4D813B7C88B16
311
2E97F79E7BEE42FFED21E5CE331592E5D9ADEBF587AE43B3308F5896DCBAA58A7B53D7791BF822CF556B99EB6424A5B7AE1E76033F117959D8A188C6A4E4EA647475F79723439A51D7093991F2D695E1234D499F942A8FA87CEA4744917E121FFA5EDF2CEC8A4D04291E4F841644D04C41538C6790E218A5BCEEEFD01D04FE
311
40CF07BE7EDA55E3CBAB06953DDDF3592615C9C2EF0E3B1133F626CBFBD1CDAC7733998C7B933723AF77B7BA5BF6BCDFC7C3C59BC56236BF9FE160A90424594D048DDDE01DB0112CF407662AF04B96A9F1C82EB10E1A08FACCB4A7DC60E478FEC0AC69ACB3469E533FCCB38C86155640A3B2CF8A8E6841B3083E675442B316
311
42C3EEAFA7716C4D8FF5BF3DB23D7C1D02ED1D2D41B5EEF5BBAD69BEFF1B26C86B182424D50C34585A430D57874784F779CEED1C934E4A14158C7087B3BD20E2C50DB0542F09FC8E18CD64A1A3415BE006F08299EED20561F4639E9FD3322E39D73476832A0A768815AA64A519FB878AA3F66D64A0137CA5D930B506A99782
311
BAC1CC50647AC22603A4137392C0E53053EF1C8F4E0C5DE8385D2FDDE0FD6A7FD8E8D83D7F7821F2820AA5E9036AD58EABDF1A25AB937795E7F406F7449523289F81FC0784FA5115F84DB0C3E430B1A728413219E722856F9CA1D31BE23174BCEAA9BF5B5FFEA0D9DCF5DE253CE16C0DD54FC0B36B43DB972D3803FF1984CF
311
C5D89AB6090947DA78601900D22471788E21E4E1787F708335B21CB23276111E783019EA3EE3D31F58314814D549AD77062C4FD2E215091AB0558C841A86FC56C1A39FBE4B67D5C176D925786F7E0A5DE7CBCDFB4D296212D2071BD34B1AB38C2994B8236FDA0A7530EF58F4445FBEE52282A1DFE3BD69E39DDAA324D0D698
311
6BE0933AA7EB9FE3C99D0342EC4B729D6EFC1F9C002374616DC97F6032A49C938CE6657DEEABF50365C340AC835D33B92930C7C202D29899931844910E052B34884DB56A9266FF82755FD61FC04837B87BF993BCB4B3D7FE987BC39CE762B77FD999B47416EAAF5D6E5B0C065A0AE85E05491DFF16F45DC4E2B89448826770
311
FDBA5EB47DA7D30252442DD544CB04F623B888B0A4ADE5A25A0B824A9A673B86BA89B83B7B405B3E20B50CA8045ED258521EEF18E765BA8B194735DAA5A4B800C7FFD77F5FA6C58EA47999A90BB23BAAA33A7475EFB0577E232A7C74834DF5EEDD21F74634BA40065D4BCE60D571EDCABB994DEF9793DEF87E3EE94DE69369
311
6FBE9ACD7A4B6F355DCE16B3A937BCABFD643409FCBAD4B4231A5E4269F34BC1ACFBBEAC113F3609B8C1035172FBCE8467FDFEB2EEA317F607D8837AD96C9C47CFE8FB68F46301C7956705ADD382D394668AE8187AD01FFC33419FD151C68CAF5392D02BA47C7CB73931062357ECFBA4E39D7E3BD96B47173A20CF0A518F65
311
BACF08E3271B138364BFC8128B5FED93E66D0A4DFDABFFAC63D099CA9CB308793072129AA754211B5E5184444A25A8D7EEE9237BF7B862F7B3E91015D9735A6BF248D0247389B000B5CA5075C79D5FD0D4E9BEEAD645B9ED3FE1613385EB8033B72E9A74C5422AFB7B1468DD0A55C2C1A576278FC69F640947AF6D3635FFCD
311
2E8D4DA724374BAEE99FAC5D26855B0390460AF40D6888E09D4A99C0AF74B3F3E17F32BC56C7210A9FFB5235B61C071A63AA6310A2C6287B5B4013F3648F3E20505F37CBEB576B3A885C75CB7A9504466A4F1191543705AD9F5569BEFC344087E2AC3F3A052F13F8F27A493D4141E652073858045658990551A0EAE28FED27
311
91E3269B3A2B060A38BF1EA66F7EDB2EF234CD3333B49DDBFBB0B379C4ED36DA2239507D2D91DBD1D01B6DABEB80BDA1ECF644D23E89E41306E059C11AA03BEE072FCD9D1175C84C34EB06DA15270C5D2F1D5BD826106AE9D2CEAD1A1C341E19751043FA4AA923A6BDA078F54630A8964205815E3EF817504B030414000608
311
00007A97D542000000000000000000000000350000006662782F35374139363831412D374545362D343943412D383834302D4231333737313034324538372F76657274696365732E62696E504B03041400060808007A97D542F270F1330600000004000000360000006662782F35374139363831412D374545362D34394341
311
2D383834302D4231333737313034324538372F747269616E676C65732E62696E636660600000504B03041400060800007A97D542000000000000000000000000370000006662782F35374139363831412D374545362D343943412D383834302D4231333737313034324538372F617474726962757465732E62696E504B0304
311
1400060808007A97D542D5987DFC8F00000041010000360000006662782F35374139363831412D374545362D343943412D383834302D4231333737313034324538372F6469726563746F72792E786D6C858F410EC2201045AF4266AF15DDB800BA74E7C21B903225242D6328188F2FA5C4183471359997F9FF81E89FF3C41E
311
1816475E02DF1F80A11FC8386F25A438EECEC07A250251FC3803E6F58C12560C4AD840E95E91C151A72936F496F35732D860FE635F62C8F2DA16B505C545B74125BAA2FA9E05D7CC053D063734D5C7665FD55B6B8D15D5E9BFEAFD8490FFA45E504B03041400060808007A97D5424E9CD02EFF000000A00100003B00000066
311
62782F35374139363831412D374545362D343943412D383834302D4231333737313034324538372F7265736F75726365732F636F72652E786D6C8D504B6E833010BD0A9A6D65B02184101947B42527E8052C332156828DFCA97AFC9A844AEDAE9B99D1FB689E1E3F7DCDF7EC139DD7D674C0720A191A65476DA60E62B89003
311
6427C19DB5E1970C322367EC608541F0C9D9B86C90B226A009093576C40D94DE63804CDDD3D18157579C652E63480A7FCB17A96E72C29CE5894E3AC17D702940F67CB24E100EBD8D4EA1E7C593153C463D6E1A3DA69FFAA2D181A85ECF7D53BF9F091D7A46766F6D43DA666849BF1FFABAA574D70E032F56B3E041CF3F1995
311
4319700451525611BA2725FB608763DD1EEBF285D6C78AF26295FF31C565FCA7296A13AA728BFBB479102C05791082176B5F693DCA4C7BED567C03504B010214000A00000800007A97D5423DEE336E79000000790000001B00000000000000000000000000000000006175746F6465736B2D64657369676E2D7061636B6167
311
652E786D6C504B010214001400060808007A97D542D486FD9CA0000000F40000001300000000000000000000000000B20000005B436F6E74656E745F54797065735D2E786D6C504B010214001400060808007A97D542CA710E89EB0000007C010000080000000000000000000000000083010000636F72652E786D6C504B01
311
0214001400060808007A97D54255019EA25F0000007C000000070000000000000000000000000094020000636E782E786D6C504B010214001400060808007A97D5421E99DB4368010000020300000C00000000000000000000000000180300006662782F636F72652E786D6C504B010214001400060808007A97D542231DB1
311
ED7D0000009D0000000B00000000000000000000000000AA0400006662782F636E782E786D6C504B010214001400060808007A97D5421896894F2A010000140200003100000000000000000000000000500500006662782F35374139363831412D374545362D343943412D383834302D4231333737313034324538372F636F
311
72652E786D6C504B010214001400060808007A97D54239AEFD0C4E010000330300003000000000000000000000000000C90600006662782F35374139363831412D374545362D343943412D383834302D4231333737313034324538372F636E782E786D6C504B010214001400060808007A97D54222D57C25A4050000811000
311
003400000000000000000000000000650800006662782F35374139363831412D374545362D343943412D383834302D4231333737313034324538372F6F626A656374732E786D6C504B010214001400060800007A97D54200000000000000000000000035000000000000000000000000005B0E00006662782F353741393638
311
31412D374545362D343943412D383834302D4231333737313034324538372F76657274696365732E62696E504B010214001400060808007A97D542F270F13306000000040000003600000000000000000000000000AE0E00006662782F35374139363831412D374545362D343943412D383834302D42313337373130343245
311
38372F747269616E676C65732E62696E504B010214001400060800007A97D5420000000000000000000000003700000000000000000000000000080F00006662782F35374139363831412D374545362D343943412D383834302D4231333737313034324538372F617474726962757465732E62696E504B0102140014000608
311
08007A97D542D5987DFC8F0000004101000036000000000000000000000000005D0F00006662782F35374139363831412D374545362D343943412D383834302D4231333737313034324538372F6469726563746F72792E786D6C504B010214001400060808007A97D5424E9CD02EFF000000A00100003B0000000000000000
311
0000000000401000006662782F35374139363831412D374545362D343943412D383834302D4231333737313034324538372F7265736F75726365732F636F72652E786D6C504B0506000000000E000E0080040000981100000000
310
504B03040A00000800007A97D5423DEE336E79000000790000001B0000006175746F6465736B2D64657369676E2D7061636B6167652E786D6C3C3F786D6C2076657273696F6E3D22312E302220656E636F64696E673D227574662D3822203F3E3C666F726D6174733E3C666F726D61743E687474703A2F2F736368656D612E
310
6175746F6465736B2E636F6D2F64657369676E2D7061636B6167652F323030393C2F666F726D61743E3C2F666F726D6174733E504B03041400060808007A97D542D486FD9CA0000000F4000000130000005B436F6E74656E745F54797065735D2E786D6C7D8EC10E82300C865F65E91D8A1E8C310C0EEA1BF002731658846E
310
D98AC1B77784ABF1D8FE5FBFBF75BBCE937A534CCEB38643598122B6FEE978D0B0485F9C41B54DDD7D022595594E1A469170414C76A4D9A4D207E29CF43ECE46F218070CC6BECC4078ACAA135ACF422C856C0E68EA1BF5669944DDD7BCDE7B1F8E415D77AECB980613C2E4AC91FC167A2B244592486606FC29C8FD7F045B9A
310
EF7053A7E60B504B03041400060808007A97D542D824FFAFED0000007C01000008000000636F72652E786D6C8D904D6EC3201085AF82665B61838DEB1F61A2A4A94FD00B204C5C94182C03558F5F9C3852BBEB6A466FDE37337AFCF03DDFD0975EBD71B6079A1140DA2A371A3BF510C30537800E82AFCE855F364056CEBA87
310
4D06C1A7D5C5659794B341DB9054EB46BD8BD27B1D00A95B6A7AF0EA53CF3293312487BF668B545739E98C3EBB04C76846F43862C6B4CF5C8C5E4154EC742CEB76C003A515668C35B86987333ED6E7F68DD427F6CE069E6FB0E0C1CCCFFB6AD532E81144416889C92B2EE8076DBAAAEDAAE285545D4978BED9FF407119FF09
310
45634359ECEF3E300F82A647EE03C1F32D8B54EE41A5BAE5267E00504B03041400060808007A97D54255019EA25F0000007C00000007000000636E782E786D6C4DCB3B0E80201045D1AD90E915ED2CF8AC45050C11660C8261F98AB1B07AC9C97D42D718D865D3E909258CFD00CCE24AC6E326A164D74DC0B4128928FF3260
310
38472BA13128B1252AC747C6BAB984FC68F0B87FE8960A5C09FE86CFB69FBA01504B03041400060808007A97D542D5A9323D69010000020300000C0000006662782F636F72652E786D6C8D525B6E833010BC8AE5DF0A8C793410194749D39CA01770C0A128602363A31CBFCB23A2A9A2A84232D6CCCEEEEC00DBDDDA060DD2
310
F4B55639A67E809154852E6B55E5D8D98B9762B4E3CC686D7F9561A4442B733CC298B3CA68D72D50A19595CA02AA74291750F4BDB418150D5C72DC17DFB215BE70162AFAABDF89E22A2AE9531F68A8E3ACB7060CA079C878627E39DF189971CE9CABCB85AD4B98565F6A69304FE2C33EDA6427EF4469E2C5719C7A69763A7A
310
FBCD31FB083687F8333E31328A39B3757B77571829AC2C310F031A79C1BB17D22F9A6E936C9B846F41B28D0246C6F20791EBCA7F8A5CAD6C142E7667598F39052313F1675B88C8A25E0CE0877046C610E13525FC18340402215B716EEE7B5C011A6461B5898129B55BA941344EC2D4004D0F23330B9DA706B0D9D33EE18B3E
310
AF7BC00714AA026BC2C2F5ECEC389DCD5397283A69BCC1DE90D2A615CD6A6EB6B89EEBA0A7F24237DAFC474D9655C9122619FF5EFE03504B03041400060808007A97D542243D354C7E0000009D0000000B0000006662782F636E782E786D6C4DCCD10E82201886E15B61FF3909A6041BE0D2F23E5CA263223482D6E5A7CD83
310
8EBEEDD9B757369FD5A1B7892F1BBC027A22808C7F84D1FA59414E13E6801A2D6308E9EF06C80FAB51B0336839C7909F078D661AB24B9B3AEB970349D7554CB033A675D9E28A953DBEDE7B8285B8517E2182B6358742CBE257DA760FEB2F504B03041400060808007A97D542EE88DCA62B0100001402000031000000666278
310
2F30434334363936332D313532422D343632462D414546302D3939443138373039314235382F636F72652E786D6C8D515B6EC32010BC0AE2AB55850D7E503BC2444DDA9CA0177080A42831583CAA1CBF503B52FB971F16CDCECC0E2CDBDEA62BF856CE6B6B06480A0C8132C24A6DCE038CE1843A08B69C396BC31F1A04669C
310
D400330C393B3B1BE71512D6046542428D956A0547EF5580405CD365805E7CA9692CC61812C35F8A791497F1AC0A52A476E271E6834B01C032249F90E3FDBEA13DAD1169AB1D6A6875406F1F078CFAFE9D74AFB827BBB663E522E42C462D57B996298E3E69E51E35C962CE829EEEF18553635012F20A931A618A2AF249BA4D
310
DB6FDAEA05B79B1AB332D3FF89E22C1F14456D425DAD711799879CB0726970266D3C5EEF61D46DB62E803CEFC92BF19C5E556042BA9E62CACA859A3E2079D266F5F4C1BAF4C14F976362D7AB316D382BF38E52F95D60AA799FFC07504B03041400060808007A97D5425F09321B5601000033030000300000006662782F3043
310
4334363936332D313532422D343632462D414546302D3939443138373039314235382F636E782E786D6CBD93CD6EC32010845F0571ADFC9F586E8489D4439FA0875E316C121A1B2CC055F3F65D1292E69243A5AA1764CD0E33AB4F986DBFA6917C82F3DA9A9E5679490918699536FB9E2E619775946C3973D6863B1B25464C
310
D0D32853CEF6CE2E739214ECC4320654476D8E4974E0EDE2247894E34D325A29460C00932D28C2348052A0C8CD885F3B70B80A8AC389840390D7977762870F90C1B322A67056C40ECEE2999AEE4C94C85178DF532F0F30895C2CC12AF0C75C8920F22ABF763DD8E92789C40BD7CAC56912CB7B1A4FCAD346397264050E39F3
310
C121BD640AA7192817F33C6A2902422ECEC68B87B3459BD0AE9257237887EEA66EBB0EC3CE33CE829E2039A4031140515E975593956D56576F55B7593F6FD6F553B9DE34252BA29DB3C1DA315DC218707626D29A0026505EB1228E1FE14B3EA2B443D6D69D7E011201A4D60B9D5BC65FF2A9DA66B5FA473EC5F97D232E877F
310
01FF06504B03041400060808007A97D542B325450D640700009A1B0000340000006662782F30434334363936332D313532422D343632462D414546302D3939443138373039314235382F6F626A656374732E786D6CED59DD73A33610FF5718FAD23E189BD8B9C61DC24D625F6E3CD7DCDD9C7B377DF00C23834CD408C14822
310
17F7AFEFEA030CC424B897BEF5C10684B4DAFDEDA796E0ED63469D07CC05C9D9A5EB7B13D7C12CCE13C2D24BB794BBD185EBBC0D039EE7B231CD7518CAF0A5AB86DD3048795E167628C13B5452D919BDB9FED3113166D875628A84B874457C8733E4A152E60916F75E8224F2D2DDA3E77B66629B6CCA5171D7215A208E9904
310
4E619C0115C730E5B71F27EE380CC6EA7D18A87F3B6B3A68D6AC7FD6584BDDE6923021118B9FB0D421331DC4D2D49F2DDF9D9DCF47E7B3D974347B73E68FAE6FAE9723FFD7E964F166B1985FBD9B037BDB3CA756A604179825A0BFBD1BFAC158BDA945B7081CE33ACE19C3B10612A0D2627509122C60AB067C93F6A3AF246A
310
BCD612369E67EABD65A1313C6D53E99B350C88165D10C46E57495C5D9BF2E5DBBF407031C428B9C012B8159283762D3C1CBCC20D27C1D88C86C1F6A00B229C0C49CC09A20E255B8E382805A6AA296160165832CA3938907294045A73E675DBB6C0335F769D635CEE4A4A9567B8A176AC08DC0F4BA139237F637EE0BE890CF0
310
04D29684C90BCBA5DC17D80DE7C1580F8681BA4CCFEC4B03A4B3A328151A11F3B623E842B9FE6AE9861F6EB68F6B150E8E6F5EF0BCC05C2AA3537AD47C8121DBAB42C96EEB0FD29C5A00C21850EDCA03285F00F98F103D0EAC80DE38799C3DCEEC5CC91113BB9C67A01B67E28C26F037717CFDAFEE1B77C1B85EDCD65E1F9E
310
E0A60AAA8B1FC7B32D83C6CAF2DF80330C1EC0E0733EB5AFD631A260CFB7840140CA481C9AC31084F6DDF6D10D57103821D0C32A44431F4406761FE036185B3207AD54EE65BD8E01A2768FE91025016CDA22818D1E3DBD87ECC1497C505353C43E78CF5FC55CAF96EB0FEB92EF508C6FAD4F2FF18E3022216B1E67A885794B
310
A27BBCFF9EF304047D8AF7BA897766B71280B6C25C019F5620A887C3CEAD0D625897E62ADC042FEC0042A85CDDA07F4B448C29450CE765B56F1DDD94A1D61E6F6B06373C33104FCF3A26CCF10351550538CD61468B51C8FB31278502D10DDF1BC9EAA0E9F548F775F5112CB29EDF336BC520F43244FFD041EB080E2DCBAE90
310
B640D4026F0FE13CCE69CEA3ED3E3291CE855A02D8687BCBB7165188F546498A0A7890F6BB2AA4A446DA2821BB5D2920AE1E61F1DB6AD134878937F5CF9DE67FC71967106DC17711B77ED7D92322194A71B44349DF76CDDD6ADA4293EC21CDF18E825CE481C87D84643449707A0A3427119FBF2AF594E642108605E4ABA3E0
310
37D1987810488C362B9695563B4013116558227A0A028A4C0FB83AEDE81A3786D2E1651E6BEB7D4E634DA2FF91457004B564CE2202A528E4901719F7BD7388216D740DCA1D7CC1DA2ADA5A0C5A420911EFA3EF98A477F214D40DF91EDC6338929432CA0B1483590F20FBC45794523BBC6F517CAFF2471497F4B50C4460BA8B
310
08A56516C18F3038790C71ED3A303D8B4283B8897D126750942159F2219BBC399F3CD9C7D40CDD10D8D868472884ED2843450FEAAD80A8EB11A706DF52EF51EAB6CC8A086579C906198A37ED7A9325DF55AB223B905F552A42D95811B604C380305967D52A6683A9EBC00A6EA403D53E12282BA83985BD9078FCDA9B34E5DE
310
0DB8F5D3D7DD2083C2AF477BCD883AAB60B03CB60A03F11DC9F8CE0DD7FA3ABA86FA3BC1C921D557B566B30204C454242F39B12AFABA82F2C6D6686E788BA4D8BC3759B7BA7E5D79D0FD08C6B0066A977AE14A019D612691AA4C6ED50DFD822004B76898F195CAA9A750B94A125D35227A43FAD4D92A235A9B66C42BEE30CB
310
33F8B10D61312D13BC4189B88F6E258DD644B16EA5F4325261FCAC809FDEAF3BF0C0C800913EAB020F7FEFACB5A30B552E1D2522EFCA6CCB108120D8122D35BAF10A965A8D545AAEAFEA4C017517189855F1ECFF9345B31DF1FFC922B586F143278BEBFDEF68DFEC8B34D279ACECFAA463409D9F1495D73806E8B6434DB5CE
310
2226995BF9AD33451014AB283FB81AAB828621D8C7F1BFCEDA7D59D06CD7E1FFB4ACED3FA9384ECA2AADC9AA4B75A4725D3573D88D7F3EBF78B79C8DA6EFAE66A3D9D5EC627475339F8F96FECDC572BE985FF893EB1A4DEDA8615007339DBBE0D904B56A583D590CA02B2B724A1238CD274E8A21E64B38D30F689FF30C0B48
310
9ECD6677629BF203563F983EA7445B8A2B4EEE103488A980B40E1895B16C8F3B3F416B52C241FBD285A691770F7FD62A5D0732CFA50BAD0249622CBC2DB49954434F138794AB73BF2506F82096AA946816D5CFF52A854D2BFCD75386A4012B57AB8701855B01DDAF568742F366798A4F12BC62C741126EB7A5846ACDC87218
310
A885D1DB1CD46F64A384DDDBAD1FC1759F17CBF7F49C1622833E193C6B0486EA48229EEA7EB762CCB274B5FC3C863E9BB3FAE414B44C4197C3298D3806632E5541055604566169164882A92E7EDB7CE6397CE2C91C5D15393F3F5EBCF965B3C8B32C6766687305A7B2043E1439EB3BF8EC936CA078C0AAB92E366713FF6CA3
310
9BDAB6CF1E6D91C09EAA8A60A02A2694201D9303BB7CD2A0B2EDCBB1524567FA6AE9D8200ACD0063474F7ABCE62397033EA43EA7288FD17E5E49FB6C5F7BACA7824D70E84887FF00504B03041400060800007A97D542000000000000000000000000350000006662782F30434334363936332D313532422D343632462D4145
310
46302D3939443138373039314235382F76657274696365732E62696E504B03041400060808007A97D542F270F1330600000004000000360000006662782F30434334363936332D313532422D343632462D414546302D3939443138373039314235382F747269616E676C65732E62696E636660600000504B03041400060800
310
007A97D542000000000000000000000000370000006662782F30434334363936332D313532422D343632462D414546302D3939443138373039314235382F617474726962757465732E62696E504B03041400060808007A97D542D5987DFC8F00000041010000360000006662782F30434334363936332D313532422D343632
310
462D414546302D3939443138373039314235382F6469726563746F72792E786D6C858F410EC2201045AF4266AF15DDB800BA74E7C21B903225242D6328188F2FA5C4183471359997F9FF81E89FF3C41E1816475E02DF1F80A11FC8386F25A438EECEC07A250251FC3803E6F58C12560C4AD840E95E91C151A72936F496F357
310
32D860FE635F62C8F2DA16B505C545B74125BAA2FA9E05D7CC053D063734D5C7665FD55B6B8D15D5E9BFEAFD8490FFA45E504B03041400060808007A97D542B0CEA29EFF000000A00100003B0000006662782F30434334363936332D313532422D343632462D414546302D3939443138373039314235382F7265736F757263
310
65732F636F72652E786D6C8D50596E833010BD0A9ADFCA80591A40C651D28413F4029699502BC1465EAA1EBF2650A9FDEBCFCCE82D9AA7C78E5FF323F944EB94D13DD0348704B534A3D2530FC1DF4803C991336B8CFF2583448B197B5861E06CB2262C3B248DF6A87D44B51971078573E821918F78F4E0E407CE2215C14785
310
BBA78B907731614AD348471D67CEDB1820D99EAC13B845678295E858B6B19C85A0C65DA3C6F853DD145AE075753E9587F64A064A6B525555439A76B890D3E1D2BEE5877375AD0696AD66CEBC9A7F324A8BC2E308BCC86949F25752D077DA7475DBD5C54B5E7765CEB255FEC71496F19FA6A0B42F8B3DEE6673C0690CF22438
310
CBD6BEE27A9619F7DA2DFF06504B010214000A00000800007A97D5423DEE336E79000000790000001B00000000000000000000000000000000006175746F6465736B2D64657369676E2D7061636B6167652E786D6C504B010214001400060808007A97D542D486FD9CA0000000F40000001300000000000000000000000000
310
B20000005B436F6E74656E745F54797065735D2E786D6C504B010214001400060808007A97D542D824FFAFED0000007C010000080000000000000000000000000083010000636F72652E786D6C504B010214001400060808007A97D54255019EA25F0000007C000000070000000000000000000000000096020000636E782E
310
786D6C504B010214001400060808007A97D542D5A9323D69010000020300000C000000000000000000000000001A0300006662782F636F72652E786D6C504B010214001400060808007A97D542243D354C7E0000009D0000000B00000000000000000000000000AD0400006662782F636E782E786D6C504B01021400140006
310
0808007A97D542EE88DCA62B010000140200003100000000000000000000000000540500006662782F30434334363936332D313532422D343632462D414546302D3939443138373039314235382F636F72652E786D6C504B010214001400060808007A97D5425F09321B560100003303000030000000000000000000000000
310
00CE0600006662782F30434334363936332D313532422D343632462D414546302D3939443138373039314235382F636E782E786D6C504B010214001400060808007A97D542B325450D640700009A1B00003400000000000000000000000000720800006662782F30434334363936332D313532422D343632462D414546302D
310
3939443138373039314235382F6F626A656374732E786D6C504B010214001400060800007A97D5420000000000000000000000003500000000000000000000000000281000006662782F30434334363936332D313532422D343632462D414546302D3939443138373039314235382F76657274696365732E62696E504B0102
310
14001400060808007A97D542F270F133060000000400000036000000000000000000000000007B1000006662782F30434334363936332D313532422D343632462D414546302D3939443138373039314235382F747269616E676C65732E62696E504B010214001400060800007A97D542000000000000000000000000370000
310
0000000000000000000000D51000006662782F30434334363936332D313532422D343632462D414546302D3939443138373039314235382F617474726962757465732E62696E504B010214001400060808007A97D542D5987DFC8F0000004101000036000000000000000000000000002A1100006662782F30434334363936
310
332D313532422D343632462D414546302D3939443138373039314235382F6469726563746F72792E786D6C504B010214001400060808007A97D542B0CEA29EFF000000A00100003B000000000000000000000000000D1200006662782F30434334363936332D313532422D343632462D414546302D39394431383730393142
310
35382F7265736F75726365732F636F72652E786D6C504B0506000000000E000E0080040000651300000000
  0
XRECORD
  5
17
102
{ACAD_REACTORS
330
12
102
}
330
12
100
AcDbXrecord
280
     1
270
     1
271
     1
  0
XRECORD
  5
16
102
{ACAD_REACTORS
330
12
102
}
330
12
100
AcDbXrecord
280
     1
270
     1
271
     1
  0
XRECORD
  5
18
102
{ACAD_REACTORS
330
12
102
}
330
12
100
AcDbXrecord
280
     1
270
     1
271
     1
  0
XRECORD
  5
15
102
{ACAD_REACTORS
330
12
102
}
330
12
100
AcDbXrecord
280
     1
270
     1
271
     1
  0
XRECORD
  5
24
102
{ACAD_REACTORS
330
22
102
}
330
22
100
AcDbXrecord
280
     1
270
     1
271
     1
  0
XRECORD
  5
23
102
{ACAD_REACTORS
330
22
102
}
330
22
100
AcDbXrecord
280
     1
270
     1
271
     1
  0
XRECORD
  5
BA
102
{ACAD_REACTORS
330
22
102
}
330
22
100
AcDbXrecord
280
     1
 70
     1
 90
1959938040
 71
     1
  1
098AD3FD-89AE-4810-B5C3-68C454A7D5CF
311
504B03040A00000800007997D5423DEE336E79000000790000001B0000006175746F6465736B2D64657369676E2D7061636B6167652E786D6C3C3F786D6C2076657273696F6E3D22312E302220656E636F64696E673D227574662D3822203F3E3C666F726D6174733E3C666F726D61743E687474703A2F2F736368656D612E
311
6175746F6465736B2E636F6D2F64657369676E2D7061636B6167652F323030393C2F666F726D61743E3C2F666F726D6174733E504B03041400060808007997D542D486FD9CA0000000F4000000130000005B436F6E74656E745F54797065735D2E786D6C7D8EC10E82300C865F65E91D8A1E8C310C0EEA1BF002731658846E
311
D98AC1B77784ABF1D8FE5FBFBF75BBCE937A534CCEB38643598122B6FEE978D0B0485F9C41B54DDD7D022595594E1A469170414C76A4D9A4D207E29CF43ECE46F218070CC6BECC4078ACAA135ACF422C856C0E68EA1BF5669944DDD7BCDE7B1F8E415D77AECB980613C2E4AC91FC167A2B244592486606FC29C8FD7F045B9A
311
EF7053A7E60B504B03041400060808007997D542E21C61DAEB0000007C01000008000000636F72652E786D6C8D90516EC3201044AF82F6B7C2016C278E858912A73D412F80803828315806AA1EBF3871A4F6AF5FBB1AE6B1A3E187EFF18EBECC1CAC771DD08200324E796DDDD0418A17DC003A083E7B1F7FD90039399A0E16
311
19041F669FA65552DE45E362569DD766156508260252F7BC7410D4D58CB290296647B815935437399882BEB60CA764357A1EB13AFF672FD6CC20287B3FEE2AC230617D8FAB6D5DE1D38E9D71D57FB0D3714FFBA639F3CD020B1EEDF8BAAF6623A3D12018A125265BCCE8276DDA7ADFD6E48DD46D49F866B1FF81D2A4FF0925
311
EB62C9D6B84F2CE4AC39C8E341F0CDD2451E8FA2F25C7A133F504B03041400060808007997D54255019EA25F0000007C00000007000000636E782E786D6C4DCB3B0E80201045D1AD90E915ED2CF8AC45050C11660C8261F98AB1B07AC9C97D42D718D865D3E909258CFD00CCE24AC6E326A164D74DC0B4128928FF32603847
311
2BA13128B1252AC747C6BAB984FC68F0B87FE8960A5C09FE86CFB69FBA01504B03041400060808007997D5421284E34567010000020300000C0000006662782F636F72652E786D6C8D52D18E823010FC95A6AF1768A9A8684A8DE2DD17DC0F54A81C115A525AE2E7DF2218CE8B3186A434333BBBB3037C776D6AD42BDB5546
311
A7380A29464AE7A6A8749962EFCE4182D14E706B8CFB538691968D4AF10063C14B6B7C3B41B9D14E6907A836859A40D975CA6194D770497197FFA84686D23BA8E82E612BF38B2C55188540439DE09DB360008D4386138BF3E9CAC9880BEE7D554C6C55C0B4EA5C298B45C43EF7EB98B280B22C0BE2D5320E0E6B760CE2EC8B
311
1DF69B284B92232783587057357777B955D2A9020B46A3454057018BBEA364BBDC6C97F4832EB70BCAC950FE20F26DF1A6C857DA2DD864779475E0158CDC887FDB42440E75B2073F4470328408AF5BC28F41432010B293A7FABEC705A05EE5CED81898C2F899EA65ED154CA5E8F67032B2D0F9D600367BDA87BDE8F3BA077C
311
40A94BB0261D5C4FDE0DD3F938758AA25536E8DD1569631B59CFE6468BF3390F7A2ACF4D6DEC3B6A32AD4AA630C9F0F78A5F504B03041400060808007997D542F293FFFE7E0000009D0000000B0000006662782F636E782E786D6C4DCCD10A83201886E15B91FFDC6599B403334CDD7DC4B290990EA76397BF1A1DECE88387
311
8F970F9FCDA3B74D2F17430FF58500B2E11E6717D61E4A5EF015D020788A31FFDD008569B33D1C0C82AF2996E749B35DA6E2F3AEDE85C78944D68D214C61A63B8D5BAA341EA51A316B0CED6EBA35844AA804AF7EA57D8FB0F802504B03041400060808007997D5428B0165D42C01000014020000310000006662782F304131
311
32453035432D354437442D343343442D424143422D3532453337464434453033412F636F72652E786D6C8D515B6EC32010BC8AC557AA0A1B6C9397305112A727E80508901425068B4795E3176A476AFFF2C3A2D999D981A5BBC7702FBE95F3DA9A0EE01281421961A536D70EC470816B50EC1875D6863F3450183EA80E6418
311
307A75368E3324AC09CA84841A2BD50C72EF550085B8A74B07BCF852032F790C89E16FE5C8C58D5F5589CBD44E3C467D702940310DC92760688FEB13224748FA550FDBE6D8C3C3FE7880A43E35AB8FBE3DA1664FAB49C8688C5ACE722D531C7DD1CABD6A92C58C063D3CE30BA7785012B01AE106A225ACF1275E6FC9664BD0
311
3B22DB06D12AD3FF89E2285F14456D4253CF712799070CD36A6A302A6D3CDF9F61D463B42E1479DEC22BF1965E55225CA3D506B5B49AA8E90392E7B29D3D7DB02E7DF0E2764E6C4C26E365CB68957794CAEF0253CDFB643F504B03041400060808007997D5423B84F5EF4E01000033030000300000006662782F3041313245
311
3035432D354437442D343343442D424143422D3532453337464434453033412F636E782E786D6CD593BB6E032110457F05D146FBF24B8EC5622945BE20455A16C636360B2B1E51FCF7196CECB87191320D5ADDB9DC3B3A62D9F67B34E40B7CD0CEF6B4AB5B4AC04AA7B4DDF734C55DB5A664CB99772E3ED828B162849E6699
311
72B6F72E4D4552B013C944548DB6A7227A082E790901E57C93182785C100B0554211C601940245EE46FCDA81C755501CCE241E80BCBF7D12371C41C6C09A9CC259933B38CB67697A3051228D08A1A7411E6014B548D12908A75A8928EAAEBE753DD9E93789E40BB7CAE435C9E53DCD27E565A31A39B206879C85E8915E31C5
311
F304948B69325A8A88909B8BF1EAE12C691B578BE2D508DEA3BB5BCD170B0CBBCC388B7A84E2901E440445F9ACEDE655BBAA66DD47B7DE2C5F37CBF6A55D6EE62D6BB29DB3C139532E610C783711E96C041B29EF5893C7CFF0151F51DA236BE7CF7F0089004AEB95CE3DE33FF3692EEF1B7179FC0BF80F504B030414000608
311
08007997D542D84238D8A405000080100000340000006662782F30413132453035432D354437442D343343442D424143422D3532453337464434453033412F6F626A656374732E786D6CAD575D8F9B3814FD2B887DD97DC80749669A59315499A45345D5B455A356FB1029326018EF188C6C33CDECAFDF633004D2649A5DF5
311
2504737D7DEFB9E77ED87FBBCFB8F34CA56222BF75BDE1D875681E8998E5E9AD5BEA6430779DB7812F85D01D31D7C949466F5DB3EC067E2A4559D8A59826A4E4FA68F5FEEE2F474534A7AE1371A2D4ADABA2479A912129B588A97A1AC64493619AEC87DEB016ECAB4D25291E8F941644D25CC352ACE7D0E2D44679FDD7B13B
311
0AFC91F91EF8E6D74A4DCF4B8D2A7FFAE7B35C6992473F1C76A466EACD56EF26573783ABD96C3A985D4FBCC1DDFDDD6AE0BD998E97D7CBE5CDE2DD0D0E565A4293B544D2C40DDE031BC9227F547F0AFC92E57A3AB122364023499F9989941B4C1CCF1FD532AD77D6C953E64722CF69546105342AFFACEA9816348F11734615
311
2CEB2034EEBF7A06C7CEE7A979B74776972F43A0BBA3A3A8B1BD79762D15E1DF70415DC220A9A861608DA575B4E6EAF880702804B7DF987232A2A964843B9C8592C8173780A81109FC9E1AC36469B2C178E0068842FDB94F17A4D1CF797ECACAA4E4DCD0D80DAA2CD82157A8569565EC1F2A0FD67791814D889561C3DC3AA4
311
5F0AEA06373545E6476CAA8174124E52841C6E9A9DD3C991A34B93A7EB951B7CB80FF71B93BBA70F2FA428A8D4863EA05613B8E66950B236791745CE6C708F4C3980F205C87F44AA1F4C41DC24DBCFF6337B8A96245789901962E38C9DC1183F63C7AB7ECDFFCE3F7FD46EEE47EF1C9E08B681EA17E0D9F7A11BCB0E9C81FF
311
0CC20B39B5AE6D22C251361E580E800C491C2EB0843A9C847B3758A3CAA12A6317E181079761EE33FEFA23AB0685A23AA9F3CC81E55159BCA04003B68A9130A326BF35F010A71FCA5975B0153B07EFD52FA1EB62B5F9B029654222FA60737A451396338D1677E04DD7A01EE63D8F9EE8CB77216338FA23DE9B2EDE993D4A01
311
6D83B9013E6D6ABA79399CDC3B20C2BE549872E3FFE40438611A6B47FF035311E59CE45494CDB9AFF60FB48D1A6293EC86C96D8339341690A6FE72948368D291648501B1ED566DD11C9EF1EEEBFA231809792E42C20F42E1A1F446820BB90B5F7675553A89F4B73EB52D0423A3056CAF72A4497F8BF92E6649522AD4C013B0
311
7E5B2FBBA133550115A2D15A27CB0CEE23B788B49C6DF4A2594B82462AF21D43DB44DA9D3CA0AB1F885A02540ACF59AC284F768CF332DB258CA319ED32529C81E3FFDB1F9659B1239928737D4677CF743487BEED3DF2AAEF44478F6EB0A99E833B94DE98C68730F7844D2B3981552FB4E39BF96235BD5F0DE6189406B3B937
311
1EDC5D2DA783EBF97276355BBC595D2DEF9B38D5CA03BFE934DD844694D0D9FC52321BBEAF6BA48FAD016EF040B4DABEAFB3B3797E5D0F310AFB23EC41BB6C372EE2678C7D34FEB98283E44945EBACE034A3B92626851ECC1FFE8560CCE81953AFAF3392D20BB47C7ABF3972062B17ECFB6CD29D7E3FDA6B579726214F2AD1
311
8F6516E684F1A38D698DE4B0C8538B5F1393F659F799E6D5BCD9C060305582B318653076522A32AA510C2FE84132A30AD4EB8EF4B1BD7A5CB0FBB91E103509396D2C79249891B9425A805A65A4FBEBCE6F98E9CC5875EBA2DB0E9FF0632B85EB8033B72E6674CD22AA8621FAB399842AE5E0527790C7DC4FF29463D4AE37B5
311
EFED2E834DAF23B722978C4FD6AFBA825B0750460A8C0D9887109DCA98C0AF6CB3DFA3FFE478638E4334FE86A56E7D392CB4CE54C720456BA7EC650133CC933D7A8F447DDD2D6F58C9F410B9E892F52A096AAD034D645A5D148C7DD6A4C5EAF308038AB3FEE414BC4C11CBCB350D2405994B93E06011586175164483AACB3F
311
B79FA5C0453673EE1928E0FCBE9F5FFFB15D8A2C1379BDB45DD8EBB0B379C4E536DEA23850732B51DBC9D89B6CABDB80BDA0EC42A2E890C4EA090B88AC642DD0BDF08397F595117DA8FED0CA8D4C288E18BA5E39B6B1CDA0D4D2A55B5B0D38983B72EA2087CC8DD2644C57A078F54230AA446182C4281FFC0B504B03041400
311
060800007997D542000000000000000000000000350000006662782F30413132453035432D354437442D343343442D424143422D3532453337464434453033412F76657274696365732E62696E504B03041400060808007997D542F270F1330600000004000000360000006662782F30413132453035432D354437442D3433
311
43442D424143422D3532453337464434453033412F747269616E676C65732E62696E636660600000504B03041400060800007997D542000000000000000000000000370000006662782F30413132453035432D354437442D343343442D424143422D3532453337464434453033412F617474726962757465732E62696E504B
311
03041400060808007997D542D5987DFC8F00000041010000360000006662782F30413132453035432D354437442D343343442D424143422D3532453337464434453033412F6469726563746F72792E786D6C858F410EC2201045AF4266AF15DDB800BA74E7C21B903225242D6328188F2FA5C4183471359997F9FF81E89FF3
311
C41E1816475E02DF1F80A11FC8386F25A438EECEC07A250251FC3803E6F58C12560C4AD840E95E91C151A72936F496F35732D860FE635F62C8F2DA16B505C545B74125BAA2FA9E05D7CC053D063734D5C7665FD55B6B8D15D5E9BFEAFD8490FFA45E504B03041400060808007997D5428AF63CEBFE000000A00100003B0000
311
006662782F30413132453035432D354437442D343343442D424143422D3532453337464434453033412F7265736F75726365732F636F72652E786D6C8D504B6EC32010BD8AC5B6C2066C278E858912A73D412F80F0C44589C1E253F5F885C495DA5D3733A3F7D13C3D7EFC5AEEC52738AFAD19102D092AC0283B69330F2886
311
2BEE507114DC591B7EC95061E40203CA30127C7636AE1BA4AC096042428D9D6003A5F71050A1EEE91890571FB0C852C69014FE56AE52DDE40C252D139D7482FBE05280E2F9244F241C781B9D02CFAB272B788C7ADA347A4A3FF555834382B2D7D3BE211413368EB8D9B50D3EEFD90537E31B3B9F0E74ECBA0BAFB259F0A097
311
9F8CCA810C3021C108AD31D96146DF69D7B787BE252FA4ED6BC2AB2CFF638AEBF44F53D426D46C8BFBB4F994350579108257B9AFB41E65A69DBB15DF504B010214000A00000800007997D5423DEE336E79000000790000001B00000000000000000000000000000000006175746F6465736B2D64657369676E2D7061636B61
311
67652E786D6C504B010214001400060808007997D542D486FD9CA0000000F40000001300000000000000000000000000B20000005B436F6E74656E745F54797065735D2E786D6C504B010214001400060808007997D542E21C61DAEB0000007C010000080000000000000000000000000083010000636F72652E786D6C504B
311
010214001400060808007997D54255019EA25F0000007C000000070000000000000000000000000094020000636E782E786D6C504B010214001400060808007997D5421284E34567010000020300000C00000000000000000000000000180300006662782F636F72652E786D6C504B010214001400060808007997D542F293
311
FFFE7E0000009D0000000B00000000000000000000000000A90400006662782F636E782E786D6C504B010214001400060808007997D5428B0165D42C010000140200003100000000000000000000000000500500006662782F30413132453035432D354437442D343343442D424143422D3532453337464434453033412F63
311
6F72652E786D6C504B010214001400060808007997D5423B84F5EF4E010000330300003000000000000000000000000000CB0600006662782F30413132453035432D354437442D343343442D424143422D3532453337464434453033412F636E782E786D6C504B010214001400060808007997D542D84238D8A40500008010
311
00003400000000000000000000000000670800006662782F30413132453035432D354437442D343343442D424143422D3532453337464434453033412F6F626A656374732E786D6C504B010214001400060800007997D54200000000000000000000000035000000000000000000000000005D0E00006662782F3041313245
311
3035432D354437442D343343442D424143422D3532453337464434453033412F76657274696365732E62696E504B010214001400060808007997D542F270F13306000000040000003600000000000000000000000000B00E00006662782F30413132453035432D354437442D343343442D424143422D353245333746443445
311
3033412F747269616E676C65732E62696E504B010214001400060800007997D54200000000000000000000000037000000000000000000000000000A0F00006662782F30413132453035432D354437442D343343442D424143422D3532453337464434453033412F617474726962757465732E62696E504B01021400140006
311
0808007997D542D5987DFC8F0000004101000036000000000000000000000000005F0F00006662782F30413132453035432D354437442D343343442D424143422D3532453337464434453033412F6469726563746F72792E786D6C504B010214001400060808007997D5428AF63CEBFE000000A00100003B00000000000000
311
000000000000421000006662782F30413132453035432D354437442D343343442D424143422D3532453337464434453033412F7265736F75726365732F636F72652E786D6C504B0506000000000E000E0080040000991100000000
310
504B03040A00000800007997D5423DEE336E79000000790000001B0000006175746F6465736B2D64657369676E2D7061636B6167652E786D6C3C3F786D6C2076657273696F6E3D22312E302220656E636F64696E673D227574662D3822203F3E3C666F726D6174733E3C666F726D61743E687474703A2F2F736368656D612E
310
6175746F6465736B2E636F6D2F64657369676E2D7061636B6167652F323030393C2F666F726D61743E3C2F666F726D6174733E504B03041400060808007997D542D486FD9CA0000000F4000000130000005B436F6E74656E745F54797065735D2E786D6C7D8EC10E82300C865F65E91D8A1E8C310C0EEA1BF002731658846E
310
D98AC1B77784ABF1D8FE5FBFBF75BBCE937A534CCEB38643598122B6FEE978D0B0485F9C41B54DDD7D022595594E1A469170414C76A4D9A4D207E29CF43ECE46F218070CC6BECC4078ACAA135ACF422C856C0E68EA1BF5669944DDD7BCDE7B1F8E415D77AECB980613C2E4AC91FC167A2B244592486606FC29C8FD7F045B9A
310
EF7053A7E60B504B03041400060808007997D542A6DD5455EB0000007C01000008000000636F72652E786D6C8D905D6EC3201084AF8278ADB0C184D8B13051232727E80510101725068B9FAAC72F4E1CA97DEBD3AE86F9D8D1F0E3F77C075F2644EBDD00498521304E796DDD34C09CAEA883E02878F03EFDB241E0E46C06B8
310
CA50F029F8BC6C92F22E19978AEABC369B2863340902752FCB00A3FA34B3AC644EC5116FD522D54D4EA622AFADC0395B0D9E47AC2EFFD9AB35010A327698EE2F233A75A716ED0863E8D0BEB788323CEE2869C9F972E6F50A0B9EECFCBAAF8291C968281A4C28C27BD4900FD2F5ECD033FC86594F31AF57FB1F282FFA9F50B6
310
2ED1668BFBC462C95A823C1E04AFD72ECA781455E6DA9BF801504B03041400060808007997D54255019EA25F0000007C00000007000000636E782E786D6C4DCB3B0E80201045D1AD90E915ED2CF8AC45050C11660C8261F98AB1B07AC9C97D42D718D865D3E909258CFD00CCE24AC6E326A164D74DC0B4128928FF32603847
310
2BA13128B1252AC747C6BAB984FC68F0B87FE8960A5C09FE86CFB69FBA01504B03041400060808007997D542CF36DE1B67010000020300000C0000006662782F636F72652E786D6C8D52ED8E8230107C95A67F2FD01644D1949A33EA13DC0B54A81C115A525AE2E3DFF261382FC65C484A33B3B33B3BC0F7F7A646BDB25D65
310
7486594831523A3745A5CB0C7B770D528CF6825B63DCAF328CB46C548607180B5E5AE3DB19CA8D764A3B40B529D40CCAAE530EA3BC864B86BBFC5B353294DE4145770B5B99DF64A94216020D758277CE8201340D194E2CAE973B27132EB8F75531B35501D3AA6BA52C16EC98D2787D3E0687F4B009562C4982EDE67313C409
310
3DAE62B661A7F38993412CB8AB9A87BBDC2AE954814544591CD07510B12F96EE92ED2EA11F34D9C59493A1FC49E4DBE29F225F691747B3DD49D681573032127FB685881CEA640F7E88E06408115E63C2CF41432010B29397FAB1C70DA05EE5CED8153085F10BD5CBDA2B984AD1F87032B1D0796C009BBDEC13BDE9F3BE077C
310
40A94BB0261D5C2FDE0DD3F934758EA25536E8DD1D69631B592FE6268BCBB90C7A29CF4D6DEC7FD4645E95CC6192E1EF153F504B03041400060808007997D542DB650AFA7C0000009D0000000B0000006662782F636E782E786D6C4DCCD10A83201886E15B91FFDC9566CB400D242F249685CC74381DBBFC5574B0A30F1E3E
310
5E317C378F3E36BD5D0C12C8AD0664C323CE2EAC124A5E300734289162CC7F374061DAAC8483418935C5F2BA68B6CB547CDED5BBF0BCB0E7A4E928D7D8E89A61C64683B56E2926E64EFB8EB5ACA11A2A25AAB3B4EF11563F504B03041400060808007997D542D739D7CB2B01000014020000310000006662782F3938313337
310
3238422D454230342D343444452D424235322D3145363239373435343332422F636F72652E786D6C8D515B6EC32010BC0AE2AB55850D183F12612259CD0D7A0162931425068B4795E31762476AFFF2C3A2D999D9D12E3FDCE71BF851CE6B6B7A480A0C8132A39DB4B9F4308633EA203808EEAC0D7F68101839AB1E66180A7E
310
71362E1B345A139409093576521B28BD570182F1963E3DF4E3B79A652163480C7F2D16395EE54515A448EDC413DC0797028075487EA1D875A46A6937A0E3801962ECF38886A1A6881C1BBA6B59CD2A3AF0D23F8482C7A8A74DAEA714479FB572AF9A64B1E041CFCFF8A35332A8090A8A4985708328F922DDBEDEED6BFC81EB
310
7D857999E9FF4471995E14456D4245B7B8ABCC434178B936049F6C3CDD9E61D47DB12E803CEFCDABF11D0A5C6042DBAEAD1B5EAED4B480E4D9B0CDD307EBD282DFAEA7C4AE36E386095EE61BA5F23860AAF99EE217504B03041400060808007997D5425D233AF85601000033030000300000006662782F3938313337323842
310
2D454230342D343444452D424235322D3145363239373435343332422F636E782E786D6CBD93CD6EC23010845FC5F2B5CA1F019422C7483DF4097AE8D5B1177049ECC83F5579FBAEC1502E1C2A55BD58D1EC7866F5C961DBAF69249FE0BCB6A6A74D595302465AA5CDBEA731EC8A8E922D67CEDA7067A3C488097A9A64CAD9
310
DED9386749C14EC431A03A6A73CCA2036FA393E0514E37C968A51831004C1151846900A540919B11BF76E07015148713090720AF2FEFC40E1F208367554AE1AC4A1D9CA53337DD992891A3F0BEA75E1E6012A588C12AF0C7528920CAA6BC763DD8E92789A40BD7CAE83449E53D4D27E579A31239B20A879CF9E0905E3685D3
310
0C948B791EB51401215767E3C5C359D426AC97D9AB11BC4377BB58771D869D679C053D417648072280A27C51376D51AF8B45F3D6749BD5F366553FD5AB4D5BB32AD9391BAC1DF3258C01676722AD096002E50DABD2F811BEEC234A3B646DDDE9172011406EBDD0B965FC259F66DD2E97FFC8A73ABF6FC4E5F02FE0DF504B03
310
041400060808007997D542E109668A61070000991B0000340000006662782F39383133373238422D454230342D343444452D424235322D3145363239373435343332422F6F626A656374732E786D6CED595B739B3814FE2B0CFBB2FB606C623B4D76089DC4DE743C9DB49D7ADBD907CF3032C8441B211849E4B2BF7E8F2E60
310
2026C1DBEC5B1F6C404847E77CE7AA43F0FE31A3CE3DE682E4ECC2F5BD89EB6016E70961E9855BCADDE8CC75DE8701CF73D998E63A0C65F8C255C36E18A43C2F0B3B94E01D2AA9EC8C5E5FFDE5881833EC3A3145425CB822BEC519F25029F3048B3B2F411279E9EED1F33D33B14D36E5A8B8ED102D10C74C02A730CE808A63
310
98F2DB8F13771C0663F53E0CD4BF9D351D346BD63F6BACA56E7349989088C5CF58EA90990E6269EACF967F9CCCCF47F3D96C3A9A9D9EF8A3ABEBABE5C87F379D2C4E178BF3CB3FCE81BD6D9E532B53820BCC12D0DF931BFAC158BDA945B7081CE23ACE19C3B10612A0D2627509122C60AB067C93F6A3AF246ABCD612369E67
310
EABD65A1313C6D53E99B350C88165D10C46E57495C5D9BF2E5DBBF417031C428B9C012B8159283762D3C1CBCC20D27C1D88C86C176AF0B229C0C49CC09A20E255B8E382805A6AA296160165832CA3938907294045A73E675DBB6C0335F779D435CEE4A4A9567B8A176AC08DC0F4BA13923FF60BEE7BE890CF004D29684C933
310
CBA57C2AB01B9E07633D1806EA323DB12F0D90CE8EA2546844CCDB8EA00BE5FAABA51B7EBCDE3EAE553838BC79C1F30273A98C4EE951F305866CAF0A25BBAD3F48736A01086340B52BF7A07C05E43F41F4D8B3027AE3E471F638B37325474CEC729E816E9C89339AC0DFC4F1F5BFBA6FDC05E37A715B7B7D78829B2AA8CE7E
310
1CCFB60C1A2BCB7F03CE30B80783CFF9D4BE5AC788823DDF100600292371680E4310DA77DB47375C41E084400FAB100D7D1019D8BD87DB606CC9ECB552B997F53A0688DA3DA6439404B0698B04367AF4F401B20727F15E4D4D11FBE09DBF89B95E2ED71FD725DFA118DF589F5EE21D614442D63CCC500BF3964477F8E921E7
310
0908FA1CEF7513EFCC6E25006D85B9023EAD40500FFB9D5B1BC4B02ECD55B8095ED9018450B9BA41FF868818538A18CECB6ADF3ABA2943AD3DDED60C6E7862209E9E744C98E37BA2AA0A709AFD8C16A390F7634E0A05A21B7E3092D541D3EB91EEDBEA1358643DBF67D68A41E86588FEA983D6011C5A965D216D81A805DEEE
310
C3799CD39C47DBA7C8443A176A0960A3ED2DDF5B4421D61B25292AE041DAEFAA90921A69A384EC76A580B87A80C5EFAB45D31C26DED49F3BCDFF8E33CE20DA82EF226EFDAEB347443294E2688792BEED9ABBD5B48526D9439AE31D05B9C83D914F1192D124C1E931D01C45FCFC4DA9A7341782302C205F1D04BF89C6C48340
310
62B459B1ACB4DA019A8828C312D1631050647AC0D56947D7B831940EAFF3585BEF4B1A6B12FD9F2C8223A82573161128452187BCCAB8EFCD2186B4D1352877F0056BAB686B3168092544FC143D6092DECA635037E47B708FE14852CA282F500C663D80EC335F514AEDF0BE45F19DCA1F515CD2B7321081E92E22949659043F
310
C2E0E431C4B5EBC0F4220A0DE226F6499C41518664C9876C723A9F3CDBC7D40CDD10D8D868472884ED2843450FEAAD80A8EB11A706DF52EF51EAB6CC8A086579C906198A37ED7A9325DF55AB223B905F552A42D95811B604C380305967D52A6683A9EBC00A6EA403D55324505650730A7B25F1F8B53769CABD1B70EBA76FBB
310
4106855F8FF69A117556C160796C1506E201C9F8D60DD7FA3ABA82FA3BC1C93ED557B566B30204C454242F39B12AFAB682F2C6D6686E7883A4D87C3059B7BA7E5B79D0FD08C6B0066A977AE14A019D612691AA4C6ED40DFD8A2004B76898F195CAA9C750B94C125D35227A4DFAD4D92A235A9B66C42B6E31CB33F8B10D6131
310
2D13BC4189B88B6E248DD644B16EA5F4325261FCA2809F3FAC3BF0C0C80091BEA8020F3F74D6DAD1852A970E1291B765B6658840106C89961ADD78054BAD462A2DD75775A680BA0B0CCCAA78F6F364D16C47FC3C59A4D6307EEC6441F32DA2FB68D3C8E6B132EBA34E01757A5254DEE214A0BB0E35D53A89985C6EC5B7BE14
310
414CAC82FCE062AC8A1986601FC7FF3969F72541B35D87FFE392B6FFACE0382AA9B426AB26D581C275D54C6193F3B3CBE5F47A393A834EEC6876E64F4657F3C574747AB698CD6797EF96F3C5758DA6F6D330A863994E5DF06C625A35AC9E2C06D094153925091CE61327C510F2251CE90774CF798605E4CE66AF3BB13DF901
310
ABEF4D9B53A22DC51527B708FAC3544056078CCA58B6C79D5FA03329E19C7DE142CFC8BB833F6B95AE0389E7C2854E81243116DE16BA4CAA9FA78943C6D5A9DF12037C104B5546348BEAE77A95C2A615FDEB2943B28095ABD5C280BAAD80E657AB41A179B33CC547095EB1E32009B7DB5242B16664D90FD4C2E86DF6EA37B2
310
51C2EEECD68FE0BA2F8BE57B7A4E0B91415F0C5E3402437524114F75BB5B316659BA5C7E19439BCD597D760A5AA6A0CBE194461C833197AA9E022B02ABB0340B24C15417BF6FBEF01CBEF0648E2E8A9C5F1FCF4E7FDB2CF22CCB9919DA5CC2A12C81EF44CEFA16BEFA241BA81DB0EAAD8BCDC9C43FD9E89EB66DB3475B24B0
310
A78A2218A86A092548C7E4C02E9FF5A76CF772AC54D199BE5A3A3688422FC0D8D1B316AFF9C6E5800FA9AF29CA63B49F57D2BED8D61EEBA960131C1AD2E1BF504B03041400060800007997D542000000000000000000000000350000006662782F39383133373238422D454230342D343444452D424235322D314536323937
310
3435343332422F76657274696365732E62696E504B03041400060808007997D542F270F1330600000004000000360000006662782F39383133373238422D454230342D343444452D424235322D3145363239373435343332422F747269616E676C65732E62696E636660600000504B03041400060800007997D54200000000
310
0000000000000000370000006662782F39383133373238422D454230342D343444452D424235322D3145363239373435343332422F617474726962757465732E62696E504B03041400060808007997D542D5987DFC8F00000041010000360000006662782F39383133373238422D454230342D343444452D424235322D3145
310
363239373435343332422F6469726563746F72792E786D6C858F410EC2201045AF4266AF15DDB800BA74E7C21B903225242D6328188F2FA5C4183471359997F9FF81E89FF3C41E1816475E02DF1F80A11FC8386F25A438EECEC07A250251FC3803E6F58C12560C4AD840E95E91C151A72936F496F35732D860FE635F62C8F2
310
DA16B505C545B74125BAA2FA9E05D7CC053D063734D5C7665FD55B6B8D15D5E9BFEAFD8490FFA45E504B03041400060808007997D54279B39EEDFE000000A00100003B0000006662782F39383133373238422D454230342D343444452D424235322D3145363239373435343332422F7265736F75726365732F636F72652E78
310
6D6C8D504B6EC32010BD8AC5B6C2061362C7C2444D939CA0174078E2A2C460F1A97AFCE2D895DA5D3733A3F7D13C3D71FC9A1EC527F8609CED112D092AC06A37183BF628C51B6E517194C23B177FC95061D5043D5A6024C5E85D9A37483B1BC1C68C5A37C006AA1020A2423FF2D1A3A03F6052A54A312BC2BD9C95BEAB114A
310
5A663AEBA408D1E700C5FA6499487A082E790D41542B2B454A66D83466C83FCDCD8047929E5BC2F6D7377C6A4F0DDE51CEF1A1796D30E3E4BC63B4A197EB45548B598A68A69F8CDA838A30205913CA30D9E39ABED3B6E3878E9317C23B4644B5C8FF98D23CFCD3948C8DACDEE2AEB690B3E6204F428A6AE92BAF6799792FDD
310
CA6F504B010214000A00000800007997D5423DEE336E79000000790000001B00000000000000000000000000000000006175746F6465736B2D64657369676E2D7061636B6167652E786D6C504B010214001400060808007997D542D486FD9CA0000000F40000001300000000000000000000000000B20000005B436F6E7465
310
6E745F54797065735D2E786D6C504B010214001400060808007997D542A6DD5455EB0000007C010000080000000000000000000000000083010000636F72652E786D6C504B010214001400060808007997D54255019EA25F0000007C000000070000000000000000000000000094020000636E782E786D6C504B0102140014
310
00060808007997D542CF36DE1B67010000020300000C00000000000000000000000000180300006662782F636F72652E786D6C504B010214001400060808007997D542DB650AFA7C0000009D0000000B00000000000000000000000000A90400006662782F636E782E786D6C504B010214001400060808007997D542D739D7
310
CB2B0100001402000031000000000000000000000000004E0500006662782F39383133373238422D454230342D343444452D424235322D3145363239373435343332422F636F72652E786D6C504B010214001400060808007997D5425D233AF856010000330300003000000000000000000000000000C80600006662782F39
310
383133373238422D454230342D343444452D424235322D3145363239373435343332422F636E782E786D6C504B010214001400060808007997D542E109668A61070000991B000034000000000000000000000000006C0800006662782F39383133373238422D454230342D343444452D424235322D31453632393734353433
310
32422F6F626A656374732E786D6C504B010214001400060800007997D54200000000000000000000000035000000000000000000000000001F1000006662782F39383133373238422D454230342D343444452D424235322D3145363239373435343332422F76657274696365732E62696E504B010214001400060808007997
310
D542F270F13306000000040000003600000000000000000000000000721000006662782F39383133373238422D454230342D343444452D424235322D3145363239373435343332422F747269616E676C65732E62696E504B010214001400060800007997D54200000000000000000000000037000000000000000000000000
310
00CC1000006662782F39383133373238422D454230342D343444452D424235322D3145363239373435343332422F617474726962757465732E62696E504B010214001400060808007997D542D5987DFC8F000000410100003600000000000000000000000000211100006662782F39383133373238422D454230342D343444
310
452D424235322D3145363239373435343332422F6469726563746F72792E786D6C504B010214001400060808007997D54279B39EEDFE000000A00100003B00000000000000000000000000041200006662782F39383133373238422D454230342D343444452D424235322D3145363239373435343332422F7265736F757263
310
65732F636F72652E786D6C504B0506000000000E000E00800400005B1300000000
  0
XRECORD
  5
27
102
{ACAD_REACTORS
330
22
102
}
330
22
100
AcDbXrecord
280
     1
270
     1
271
     1
  0
XRECORD
  5
26
102
{ACAD_REACTORS
330
22
102
}
330
22
100
AcDbXrecord
280
     1
270
     1
271
     1
  0
XRECORD
  5
28
102
{ACAD_REACTORS
330
22
102
}
330
22
100
AcDbXrecord
280
     1
270
     1
271
     1
  0
XRECORD
  5
25
102
{ACAD_REACTORS
330
22
102
}
330
22
100
AcDbXrecord
280
     1
270
     1
271
     1
  0
XRECORD
  5
D8F
102
{ACAD_REACTORS
330
D8E
102
}
330
D8E
100
AcDbXrecord
280
     1
102
ACAD_ROUNDTRIP_2012_MLEADER_STYLE
298
     1
  0
CELLSTYLEMAP
  5
D8D
102
{ACAD_REACTORS
330
D8C
102
}
330
D8C
100
AcDbCellStyleMap
 90
        3
300
CELLSTYLE
  1
TABLEFORMAT_BEGIN
 90
        5
170
     1
 91
        0
 92
    32768
 62
   257
 93
        1
300
CONTENTFORMAT
  1
CONTENTFORMAT_BEGIN
 90
        0
 91
        0
 92
      512
 93
        0
300

 40
0.0
140
1.0
 94
        5
 62
     0
340
55
144
0.25
309
CONTENTFORMAT_END
171
     0
 94
        0
309
TABLEFORMAT_END
  1
CELLSTYLE_BEGIN
 90
        1
 91
        1
300
_TITLE
309
CELLSTYLE_END
300
CELLSTYLE
  1
TABLEFORMAT_BEGIN
 90
        5
170
     1
 91
        0
 92
        0
 62
   257
 93
        1
300
CONTENTFORMAT
  1
CONTENTFORMAT_BEGIN
 90
        0
 91
        0
 92
      512
 93
        0
300

 40
0.0
140
1.0
 94
        5
 62
     0
340
55
144
0.18
309
CONTENTFORMAT_END
171
     0
 94
        0
309
TABLEFORMAT_END
  1
CELLSTYLE_BEGIN
 90
        2
 91
        1
300
_HEADER
309
CELLSTYLE_END
300
CELLSTYLE
  1
TABLEFORMAT_BEGIN
 90
        5
170
     1
 91
        0
 92
        0
 62
   257
 93
        1
300
CONTENTFORMAT
  1
CONTENTFORMAT_BEGIN
 90
        0
 91
        0
 92
      512
 93
        0
300

 40
0.0
140
1.0
 94
        2
 62
     0
340
55
144
0.18
309
CONTENTFORMAT_END
171
     0
 94
        0
309
TABLEFORMAT_END
  1
CELLSTYLE_BEGIN
 90
        3
 91
        2
300
_DATA
309
CELLSTYLE_END
  0
ENDSEC
  0
EOF
