  0
SECTION
  2
HEADER
  9
$ACADVER
  1
AC1024
  9
$ACADMAINTVER
 70
    63
  9
$DWGCODEPAGE
  3
ANSI_1252
  9
$AUTHOR
  1
MS
  9
$REVISIONNUMBER
  1
-
  9
$CUSTOMPROPERTYTAG
  1
Manager
  9
$CUSTOMPROPERTY
  1

  9
$CUSTOMPROPERTYTAG
  1
Company
  9
$CUSTOMPROPERTY
  1

  9
$CUSTOMPROPERTYTAG
  1
Category
  9
$CUSTOMPROPERTY
  1

  9
$CUSTOMPROPERTYTAG
  1
Part Number
  9
$CUSTOMPROPERTY
  1
WA60P48F1-S
  9
$CUSTOMPROPERTYTAG
  1
Description
  9
$CUSTOMPROPERTY
  1
N1P PANEL MASTER VIEW
  9
$CUSTOMPROPERTYTAG
  1
Project
  9
$CUSTOMPROPERTY
  1

  9
$CUSTOMPROPERTYTAG
  1
Designer
  9
$CUSTOMPROPERTY
  1
MS
  9
$CUSTOMPROPERTYTAG
  1
Engineer
  9
$CUSTOMPROPERTY
  1

  9
$CUSTOMPROPERTYTAG
  1
Authority
  9
$CUSTOMPROPERTY
  1

  9
$CUSTOMPROPERTYTAG
  1
Cost Center
  9
$CUSTOMPROPERTY
  1

  9
$CUSTOMPROPERTYTAG
  1
Vendor
  9
$CUSTOMPROPERTY
  1

  9
$CUSTOMPROPERTYTAG
  1
User Status
  9
$CUSTOMPROPERTY
  1

  9
$CUSTOMPROPERTYTAG
  1
Design Status
  9
$CUSTOMPROPERTY
  1
WorkInProgress
  9
$CUSTOMPROPERTYTAG
  1
Checked by
  9
$CUSTOMPROPERTY
  1
NJ
  9
$CUSTOMPROPERTYTAG
  1
Engr Approved by
  9
$CUSTOMPROPERTY
  1

  9
$CUSTOMPROPERTYTAG
  1
Date Eng Approved
  9
$CUSTOMPROPERTY
  1
06/13/2013
  9
$CUSTOMPROPERTYTAG
  1
Mfg Approved by
  9
$CUSTOMPROPERTY
  1

  9
$CUSTOMPROPERTYTAG
  1
DWG. NO
  9
$CUSTOMPROPERTY
  1

  9
$CUSTOMPROPERTYTAG
  1
NUMBER OF SHEETS
  9
$CUSTOMPROPERTY
  1
1
  9
$CUSTOMPROPERTYTAG
  1
DRAWING #
  9
$CUSTOMPROPERTY
  1
1
  9
$INSBASE
 10
0.0
 20
0.0
 30
0.0
  9
$EXTMIN
 10
0.0
 20
0.0
 30
0.0
  9
$EXTMAX
 10
170.0
 20
110.0
 30
0.0
  9
$LIMMIN
 10
0.0
 20
0.0
  9
$LIMMAX
 10
170.0
 20
110.0
  9
$ORTHOMODE
 70
     0
  9
$REGENMODE
 70
     1
  9
$FILLMODE
 70
     1
  9
$QTEXTMODE
 70
     0
  9
$MIRRTEXT
 70
     0
  9
$LTSCALE
 40
10.0
  9
$ATTMODE
 70
     1
  9
$TEXTSIZE
 40
0.2
  9
$TRACEWID
 40
0.05
  9
$TEXTSTYLE
  7
Standard
  9
$CLAYER
  8
0
  9
$CELTYPE
  6
ByLayer
  9
$CECOLOR
 62
   256
  9
$CELTSCALE
 40
1.0
  9
$DISPSILH
 70
     0
  9
$DIMSCALE
 40
1.0
  9
$DIMASZ
 40
0.0708661417322835
  9
$DIMEXO
 40
0.0625
  9
$DIMDLI
 40
0.38
  9
$DIMRND
 40
0.0
  9
$DIMDLE
 40
0.0
  9
$DIMEXE
 40
0.18
  9
$DIMTP
 40
0.0
  9
$DIMTM
 40
0.0
  9
$DIMTXT
 40
0.0708661417322835
  9
$DIMCEN
 40
0.09
  9
$DIMTSZ
 40
0.0
  9
$DIMTOL
 70
     0
  9
$DIMLIM
 70
     0
  9
$DIMTIH
 70
     1
  9
$DIMTOH
 70
     1
  9
$DIMSE1
 70
     0
  9
$DIMSE2
 70
     0
  9
$DIMTAD
 70
     0
  9
$DIMZIN
 70
     0
  9
$DIMBLK
  1

  9
$DIMASO
 70
     1
  9
$DIMSHO
 70
     1
  9
$DIMPOST
  1

  9
$DIMAPOST
  1

  9
$DIMALT
 70
     0
  9
$DIMALTD
 70
     2
  9
$DIMALTF
 40
25.4
  9
$DIMLFAC
 40
1.0
  9
$DIMTOFL
 70
     0
  9
$DIMTVP
 40
0.0
  9
$DIMTIX
 70
     0
  9
$DIMSOXD
 70
     0
  9
$DIMSAH
 70
     0
  9
$DIMBLK1
  1

  9
$DIMBLK2
  1

  9
$DIMSTYLE
  2
STANDARD
  9
$DIMCLRD
 70
     0
  9
$DIMCLRE
 70
     0
  9
$DIMCLRT
 70
     0
  9
$DIMTFAC
 40
1.0
  9
$DIMGAP
 40
0.09
  9
$DIMJUST
 70
     0
  9
$DIMSD1
 70
     0
  9
$DIMSD2
 70
     0
  9
$DIMTOLJ
 70
     1
  9
$DIMTZIN
 70
     0
  9
$DIMALTZ
 70
     0
  9
$DIMALTTZ
 70
     0
  9
$DIMUPT
 70
     0
  9
$DIMDEC
 70
     4
  9
$DIMTDEC
 70
     4
  9
$DIMALTU
 70
     2
  9
$DIMALTTD
 70
     2
  9
$DIMTXSTY
  7
Standard
  9
$DIMAUNIT
 70
     0
  9
$DIMADEC
 70
     0
  9
$DIMALTRND
 40
0.0
  9
$DIMAZIN
 70
     0
  9
$DIMDSEP
 70
    46
  9
$DIMATFIT
 70
     3
  9
$DIMFRAC
 70
     0
  9
$DIMLDRBLK
  1

  9
$DIMLUNIT
 70
     2
  9
$DIMLWD
 70
    -2
  9
$DIMLWE
 70
    -2
  9
$DIMTMOVE
 70
     0
  9
$DIMFXL
 40
1.0
  9
$DIMFXLON
 70
     0
  9
$DIMJOGANG
 40
0.7853981633974483
  9
$DIMTFILL
 70
     0
  9
$DIMTFILLCLR
 70
     0
  9
$DIMARCSYM
 70
     0
  9
$DIMLTYPE
  6

  9
$DIMLTEX1
  6

  9
$DIMLTEX2
  6

  9
$DIMTXTDIRECTION
 70
     0
  9
$LUNITS
 70
     2
  9
$LUPREC
 70
     4
  9
$SKETCHINC
 40
0.1
  9
$FILLETRAD
 40
0.0
  9
$AUNITS
 70
     0
  9
$AUPREC
 70
     0
  9
$MENU
  1
.
  9
$ELEVATION
 40
0.0
  9
$PELEVATION
 40
0.0
  9
$THICKNESS
 40
0.0
  9
$LIMCHECK
 70
     0
  9
$CHAMFERA
 40
0.0
  9
$CHAMFERB
 40
0.0
  9
$CHAMFERC
 40
0.0
  9
$CHAMFERD
 40
0.0
  9
$SKPOLY
 70
     0
  9
$TDCREATE
 40
2456458.401788218
  9
$TDUCREATE
 40
2456458.172621551
  9
$TDUPDATE
 40
2456458.401790799
  9
$TDUUPDATE
 40
2456458.172624132
  9
$TDINDWG
 40
0.0001061690
  9
$TDUSRTIMER
 40
0.0001061690
  9
$USRTIMER
 70
     1
  9
$ANGBASE
 50
0.0
  9
$ANGDIR
 70
     0
  9
$PDMODE
 70
     0
  9
$PDSIZE
 40
0.0
  9
$PLINEWID
 40
0.0
  9
$SPLFRAME
 70
     0
  9
$SPLINETYPE
 70
     6
  9
$SPLINESEGS
 70
     8
  9
$HANDSEED
  5
F74
  9
$SURFTAB1
 70
     6
  9
$SURFTAB2
 70
     6
  9
$SURFTYPE
 70
     6
  9
$SURFU
 70
     6
  9
$SURFV
 70
     6
  9
$UCSBASE
  2

  9
$UCSNAME
  2

  9
$UCSORG
 10
0.0
 20
0.0
 30
0.0
  9
$UCSXDIR
 10
1.0
 20
0.0
 30
0.0
  9
$UCSYDIR
 10
0.0
 20
1.0
 30
0.0
  9
$UCSORTHOREF
  2

  9
$UCSORTHOVIEW
 70
     0
  9
$UCSORGTOP
 10
0.0
 20
0.0
 30
0.0
  9
$UCSORGBOTTOM
 10
0.0
 20
0.0
 30
0.0
  9
$UCSORGLEFT
 10
0.0
 20
0.0
 30
0.0
  9
$UCSORGRIGHT
 10
0.0
 20
0.0
 30
0.0
  9
$UCSORGFRONT
 10
0.0
 20
0.0
 30
0.0
  9
$UCSORGBACK
 10
0.0
 20
0.0
 30
0.0
  9
$PUCSBASE
  2

  9
$PUCSNAME
  2

  9
$PUCSORG
 10
0.0
 20
0.0
 30
0.0
  9
$PUCSXDIR
 10
1.0
 20
0.0
 30
0.0
  9
$PUCSYDIR
 10
0.0
 20
1.0
 30
0.0
  9
$PUCSORTHOREF
  2

  9
$PUCSORTHOVIEW
 70
     0
  9
$PUCSORGTOP
 10
0.0
 20
0.0
 30
0.0
  9
$PUCSORGBOTTOM
 10
0.0
 20
0.0
 30
0.0
  9
$PUCSORGLEFT
 10
0.0
 20
0.0
 30
0.0
  9
$PUCSORGRIGHT
 10
0.0
 20
0.0
 30
0.0
  9
$PUCSORGFRONT
 10
0.0
 20
0.0
 30
0.0
  9
$PUCSORGBACK
 10
0.0
 20
0.0
 30
0.0
  9
$USERI1
 70
     0
  9
$USERI2
 70
     0
  9
$USERI3
 70
     0
  9
$USERI4
 70
     0
  9
$USERI5
 70
     0
  9
$USERR1
 40
0.0
  9
$USERR2
 40
0.0
  9
$USERR3
 40
0.0
  9
$USERR4
 40
0.0
  9
$USERR5
 40
0.0
  9
$WORLDVIEW
 70
     1
  9
$SHADEDGE
 70
     3
  9
$SHADEDIF
 70
    70
  9
$TILEMODE
 70
     1
  9
$MAXACTVP
 70
    64
  9
$PINSBASE
 10
0.0
 20
0.0
 30
0.0
  9
$PLIMCHECK
 70
     0
  9
$PEXTMIN
 10
0.0
 20
0.0
 30
0.0
  9
$PEXTMAX
 10
170.0
 20
110.0
 30
0.0
  9
$PLIMMIN
 10
0.0
 20
0.0
  9
$PLIMMAX
 10
170.0
 20
110.0
  9
$UNITMODE
 70
     0
  9
$VISRETAIN
 70
     1
  9
$PLINEGEN
 70
     0
  9
$PSLTSCALE
 70
     1
  9
$TREEDEPTH
 70
  3020
  9
$CMLSTYLE
  2
Standard
  9
$CMLJUST
 70
     0
  9
$CMLSCALE
 40
1.0
  9
$PROXYGRAPHICS
 70
     1
  9
$MEASUREMENT
 70
     0
  9
$CELWEIGHT
370
    -1
  9
$ENDCAPS
280
     0
  9
$JOINSTYLE
280
     0
  9
$LWDISPLAY
290
     0
  9
$INSUNITS
 70
     1
  9
$HYPERLINKBASE
  1

  9
$STYLESHEET
  1

  9
$XEDIT
290
     1
  9
$CEPSNTYPE
380
     0
  9
$PSTYLEMODE
290
     1
  9
$FINGERPRINTGUID
  2
{784659B5-0C7C-4807-A8A9-31BE42EF2F1C}
  9
$VERSIONGUID
  2
{1B797B6A-F173-4711-ABA3-484383D0638D}
  9
$EXTNAMES
290
     1
  9
$PSVPSCALE
 40
0.0
  9
$OLESTARTUP
290
     0
  9
$SORTENTS
280
   127
  9
$INDEXCTL
280
     0
  9
$HIDETEXT
280
     1
  9
$XCLIPFRAME
280
     2
  9
$HALOGAP
280
     0
  9
$OBSCOLOR
 70
   257
  9
$OBSLTYPE
280
     0
  9
$INTERSECTIONDISPLAY
280
     0
  9
$INTERSECTIONCOLOR
 70
   257
  9
$DIMASSOC
280
     1
  9
$PROJECTNAME
  1

  9
$CAMERADISPLAY
290
     0
  9
$LENSLENGTH
 40
50.0
  9
$CAMERAHEIGHT
 40
0.0
  9
$STEPSPERSEC
 40
2.0
  9
$STEPSIZE
 40
6.0
  9
$3DDWFPREC
 40
2.0
  9
$PSOLWIDTH
 40
0.25
  9
$PSOLHEIGHT
 40
4.0
  9
$LOFTANG1
 40
1.570796326794896
  9
$LOFTANG2
 40
1.570796326794896
  9
$LOFTMAG1
 40
0.0
  9
$LOFTMAG2
 40
0.0
  9
$LOFTPARAM
 70
     7
  9
$LOFTNORMALS
280
     1
  9
$LATITUDE
 40
37.795
  9
$LONGITUDE
 40
-122.394
  9
$NORTHDIRECTION
 40
0.0
  9
$TIMEZONE
 70
 -8000
  9
$LIGHTGLYPHDISPLAY
280
     1
  9
$TILEMODELIGHTSYNCH
280
     1
  9
$CMATERIAL
347
11
  9
$SOLIDHIST
280
     0
  9
$SHOWHIST
280
     1
  9
$DWFFRAME
280
     2
  9
$DGNFRAME
280
     0
  9
$REALWORLDSCALE
290
     1
  9
$INTERFERECOLOR
 62
     1
  9
$INTERFEREOBJVS
345
33
  9
$INTERFEREVPVS
346
30
  9
$CSHADOW
280
     0
  9
$SHADOWPLANELOCATION
 40
0.0
  0
ENDSEC
  0
SECTION
  2
CLASSES
  0
CLASS
  1
ACDBDICTIONARYWDFLT
  2
AcDbDictionaryWithDefault
  3
ObjectDBX Classes
 90
        0
 91
        1
280
     0
281
     0
  0
CLASS
  1
MATERIAL
  2
AcDbMaterial
  3
ObjectDBX Classes
 90
     1153
 91
        3
280
     0
281
     0
  0
CLASS
  1
VISUALSTYLE
  2
AcDbVisualStyle
  3
ObjectDBX Classes
 90
     4095
 91
       24
280
     0
281
     0
  0
CLASS
  1
SCALE
  2
AcDbScale
  3
ObjectDBX Classes
 90
     1153
 91
       17
280
     0
281
     0
  0
CLASS
  1
TABLESTYLE
  2
AcDbTableStyle
  3
ObjectDBX Classes
 90
     4095
 91
        1
280
     0
281
     0
  0
CLASS
  1
MLEADERSTYLE
  2
AcDbMLeaderStyle
  3
ACDB_MLEADERSTYLE_CLASS
 90
     4095
 91
        1
280
     0
281
     0
  0
CLASS
  1
DICTIONARYVAR
  2
AcDbDictionaryVar
  3
ObjectDBX Classes
 90
        0
 91
        3
280
     0
281
     0
  0
CLASS
  1
CELLSTYLEMAP
  2
AcDbCellStyleMap
  3
ObjectDBX Classes
 90
     1152
 91
        1
280
     0
281
     0
  0
ENDSEC
  0
SECTION
  2
TABLES
  0
TABLE
  2
VPORT
  5
8
330
0
100
AcDbSymbolTable
 70
     1
  0
VPORT
  5
57
330
8
100
AcDbSymbolTableRecord
100
AcDbViewportTableRecord
  2
*Active
 70
     0
 10
0.0
 20
0.0
 11
1.0
 21
1.0
 12
85.0
 22
55.0
 13
0.0
 23
0.0
 14
1.0
 24
1.0
 15
0.0
 25
0.0
 16
0.0
 26
0.0
 36
1.0
 17
0.0
 27
0.0
 37
0.0
 40
110.0
 41
1.545454545454545
 42
50.0
 43
0.0
 44
0.0
 50
0.0
 51
0.0
 71
     0
 72
   100
 73
     1
 74
     1
 75
     0
 76
     0
 77
     0
 78
     0
281
     0
 65
     1
110
0.0
120
0.0
130
0.0
111
1.0
121
0.0
131
0.0
112
0.0
122
1.0
132
0.0
 79
     0
146
0.0
 60
     3
 61
     5
292
     1
282
     1
141
0.0
142
0.0
 63
   250
421
  3355443
  0
ENDTAB
  0
TABLE
  2
LTYPE
  5
5
330
0
100
AcDbSymbolTable
 70
    59
  0
LTYPE
  5
5B
330
5
100
AcDbSymbolTableRecord
100
AcDbLinetypeTableRecord
  2
ByBlock
 70
     0
  3

 72
    65
 73
     0
 40
0.0
  0
LTYPE
  5
5C
330
5
100
AcDbSymbolTableRecord
100
AcDbLinetypeTableRecord
  2
ByLayer
 70
     0
  3

 72
    65
 73
     0
 40
0.0
  0
LTYPE
  5
5D
330
5
100
AcDbSymbolTableRecord
100
AcDbLinetypeTableRecord
  2
Continuous
 70
     0
  3
Solid line
 72
    65
 73
     0
 40
0.0
  0
LTYPE
  5
7C
330
5
100
AcDbSymbolTableRecord
100
AcDbLinetypeTableRecord
  2
BY_STANDARD
 70
     0
  3
By Standard ____________    ____    ____   _
 72
    65
 73
     6
 40
1.240299999999999
 49
0.6614
 74
     0
 49
-0.0827
 74
     0
 49
0.1654
 74
     0
 49
-0.0827
 74
     0
 49
0.1654
 74
     0
 49
-0.0827
 74
     0
  0
LTYPE
  5
7D
330
5
100
AcDbSymbolTableRecord
100
AcDbLinetypeTableRecord
  2
CHAIN
 70
     0
  3
Chain ____ _ ____ _ ____ _ ____ _ ____ _ ____
 72
    65
 73
     4
 40
0.7087
 49
0.4724000000000001
 74
     0
 49
-0.0591
 74
     0
 49
0.1181
 74
     0
 49
-0.0591
 74
     0
  0
LTYPE
  5
7E
330
5
100
AcDbSymbolTableRecord
100
AcDbLinetypeTableRecord
  2
DASH_DOT
 70
     0
  3
Dash dot __ . __ . __ . __ . __ . __ . __ . __
 72
    65
 73
     4
 40
0.37
 49
0.24
 74
     0
 49
-0.06
 74
     0
 49
0.01
 74
     0
 49
-0.06
 74
     0
  0
LTYPE
  5
7F
330
5
100
AcDbSymbolTableRecord
100
AcDbLinetypeTableRecord
  2
DOUBLE_DASH_DOT
 70
     0
  3
Double-Dash Dot __ __ . __ __ . __ __ . __ _
 72
    65
 73
     6
 40
0.4398
 49
0.24
 74
     0
 49
-0.06
 74
     0
 49
0.0098
 74
     0
 49
-0.06
 74
     0
 49
0.01
 74
     0
 49
-0.06
 74
     0
  0
LTYPE
  5
80
330
5
100
AcDbSymbolTableRecord
100
AcDbLinetypeTableRecord
  2
DASH_TRIPLE_DOT
 70
     0
  3
Dash Triple-Dot _ . . . _ . . . _ . . . _
 72
    65
 73
     8
 40
0.51
 49
0.24
 74
     0
 49
-0.06
 74
     0
 49
0.01
 74
     0
 49
-0.06
 74
     0
 49
0.01
 74
     0
 49
-0.06
 74
     0
 49
0.01
 74
     0
 49
-0.06
 74
     0
  0
LTYPE
  5
81
330
5
100
AcDbSymbolTableRecord
100
AcDbLinetypeTableRecord
  2
DASHED
 70
     0
  3
Dashed __ __ __ __ __ __ __ __ __ __ __ __ __ _
 72
    65
 73
     2
 40
0.2067
 49
0.1654
 74
     0
 49
-0.0413
 74
     0
  0
LTYPE
  5
82
330
5
100
AcDbSymbolTableRecord
100
AcDbLinetypeTableRecord
  2
DASH_DOUBLE_DOT
 70
     0
  3
Dash Double-Dot __ . . __ . . __ . . __ . .
 72
    65
 73
     6
 40
0.4398
 49
0.24
 74
     0
 49
-0.06
 74
     0
 49
0.0098
 74
     0
 49
-0.06
 74
     0
 49
0.01
 74
     0
 49
-0.06
 74
     0
  0
LTYPE
  5
83
330
5
100
AcDbSymbolTableRecord
100
AcDbLinetypeTableRecord
  2
DASHED_SPACE
 70
     0
  3
Dashed Space __ __ __ __ __ __ __ __ __ __ __ _
 72
    65
 73
     2
 40
0.2067
 49
0.1654
 74
     0
 49
-0.0413
 74
     0
  0
LTYPE
  5
84
330
5
100
AcDbSymbolTableRecord
100
AcDbLinetypeTableRecord
  2
DOTTED
 70
     0
  3
Dotted . . . . . . . . . . . . . . . . . . . . 
 72
    65
 73
     2
 40
0.0482
 49
0.0069
 74
     0
 49
-0.0413
 74
     0
  0
LTYPE
  5
85
330
5
100
AcDbSymbolTableRecord
100
AcDbLinetypeTableRecord
  2
DOUBLE_DASH_CHAIN
 70
     0
  3
Double-Dash Chain ______  __  __  ______  __  _
 72
    65
 73
     6
 40
1.240299999999999
 49
0.6614
 74
     0
 49
-0.0827
 74
     0
 49
0.1654
 74
     0
 49
-0.0827
 74
     0
 49
0.1654
 74
     0
 49
-0.0827
 74
     0
  0
LTYPE
  5
87
330
5
100
AcDbSymbolTableRecord
100
AcDbLinetypeTableRecord
  2
DOUBLE_DASH_DOUBLE_DOT
 70
     0
  3
Double-Dash Double-dot _ _ . . _ _ . . _
 72
    65
 73
     8
 40
0.7400000000000001
 49
0.24
 74
     0
 49
-0.06
 74
     0
 49
0.24
 74
     0
 49
-0.06
 74
     0
 49
0.01
 74
     0
 49
-0.06
 74
     0
 49
0.01
 74
     0
 49
-0.06
 74
     0
  0
LTYPE
  5
88
330
5
100
AcDbSymbolTableRecord
100
AcDbLinetypeTableRecord
  2
DOUBLE_DASH_TRIPLE_DOT
 70
     0
  3
Double Dash Triple Dot __ __ . . . __ __ . .
 72
    65
 73
    10
 40
0.8100000000000001
 49
0.24
 74
     0
 49
-0.06
 74
     0
 49
0.24
 74
     0
 49
-0.06
 74
     0
 49
0.01
 74
     0
 49
-0.06
 74
     0
 49
0.01
 74
     0
 49
-0.06
 74
     0
 49
0.01
 74
     0
 49
-0.06
 74
     0
  0
LTYPE
  5
89
330
5
100
AcDbSymbolTableRecord
100
AcDbLinetypeTableRecord
  2
LONG_DASH_DOTTED
 70
     0
  3
Long Dash Dotted ____ . ____ . ____ . ____ . _
 72
    65
 73
     4
 40
0.3543
 49
0.2362
 74
     0
 49
-0.0295
 74
     0
 49
0.0591
 74
     0
 49
-0.0295
 74
     0
  0
LTYPE
  5
8A
330
5
100
AcDbSymbolTableRecord
100
AcDbLinetypeTableRecord
  2
LONG_DASH_DOUBLE_DOT
 70
     0
  3
Long Dash Double Dot ________  .  .  ________  
 72
    65
 73
     6
 40
0.6799999999999999
 49
0.48
 74
     0
 49
-0.06
 74
     0
 49
0.01
 74
     0
 49
-0.06
 74
     0
 49
0.01
 74
     0
 49
-0.06
 74
     0
  0
LTYPE
  5
8B
330
5
100
AcDbSymbolTableRecord
100
AcDbLinetypeTableRecord
  2
LONG_DASH_TRIPLE_DOT
 70
     0
  3
Long Dash Triple Dot ____ ... ____ ... ____
 72
    65
 73
     8
 40
0.3689
 49
0.2362
 74
     0
 49
-0.0295
 74
     0
 49
0.0049
 74
     0
 49
-0.0295
 74
     0
 49
0.0049
 74
     0
 49
-0.0295
 74
     0
 49
0.0049
 74
     0
 49
-0.0295
 74
     0
  0
LTYPE
  5
8C
330
5
100
AcDbSymbolTableRecord
100
AcDbLinetypeTableRecord
  2
BORDER
 70
     0
  3
Border __ __ . __ __ . __ __ . __ __ . __ __ .
 72
    65
 73
     6
 40
1.75
 49
0.5
 74
     0
 49
-0.25
 74
     0
 49
0.5
 74
     0
 49
-0.25
 74
     0
 49
0.0
 74
     0
 49
-0.25
 74
     0
  0
LTYPE
  5
8D
330
5
100
AcDbSymbolTableRecord
100
AcDbLinetypeTableRecord
  2
BORDER2
 70
     0
  3
Border (.5x) __.__.__.__.__.__.__.__.__.__.__.
 72
    65
 73
     6
 40
0.875
 49
0.25
 74
     0
 49
-0.125
 74
     0
 49
0.25
 74
     0
 49
-0.125
 74
     0
 49
0.0
 74
     0
 49
-0.125
 74
     0
  0
LTYPE
  5
8E
330
5
100
AcDbSymbolTableRecord
100
AcDbLinetypeTableRecord
  2
BORDERX2
 70
     0
  3
Border (2x) ____  ____  .  ____  ____  .  ___
 72
    65
 73
     6
 40
3.5
 49
1.0
 74
     0
 49
-0.5
 74
     0
 49
1.0
 74
     0
 49
-0.5
 74
     0
 49
0.0
 74
     0
 49
-0.5
 74
     0
  0
LTYPE
  5
8F
330
5
100
AcDbSymbolTableRecord
100
AcDbLinetypeTableRecord
  2
CENTER
 70
     0
  3
Center ____ _ ____ _ ____ _ ____ _ ____ _ ____
 72
    65
 73
     4
 40
2.0
 49
1.25
 74
     0
 49
-0.25
 74
     0
 49
0.25
 74
     0
 49
-0.25
 74
     0
  0
LTYPE
  5
90
330
5
100
AcDbSymbolTableRecord
100
AcDbLinetypeTableRecord
  2
CENTER2
 70
     0
  3
Center (.5x) ___ _ ___ _ ___ _ ___ _ ___ _ ___
 72
    65
 73
     4
 40
1.125
 49
0.75
 74
     0
 49
-0.125
 74
     0
 49
0.125
 74
     0
 49
-0.125
 74
     0
  0
LTYPE
  5
91
330
5
100
AcDbSymbolTableRecord
100
AcDbLinetypeTableRecord
  2
CENTERX2
 70
     0
  3
Center (2x) ________  __  ________  __  _____
 72
    65
 73
     4
 40
4.0
 49
2.5
 74
     0
 49
-0.5
 74
     0
 49
0.5
 74
     0
 49
-0.5
 74
     0
  0
LTYPE
  5
92
330
5
100
AcDbSymbolTableRecord
100
AcDbLinetypeTableRecord
  2
DASHDOT2
 70
     0
  3
Dash dot (.5x) _._._._._._._._._._._._._._._.
 72
    65
 73
     4
 40
0.5
 49
0.25
 74
     0
 49
-0.125
 74
     0
 49
0.0
 74
     0
 49
-0.125
 74
     0
  0
LTYPE
  5
93
330
5
100
AcDbSymbolTableRecord
100
AcDbLinetypeTableRecord
  2
DASHDOTX2
 70
     0
  3
Dash dot (2x) ____  .  ____  .  ____  .  ___
 72
    65
 73
     4
 40
2.0
 49
1.0
 74
     0
 49
-0.5
 74
     0
 49
0.0
 74
     0
 49
-0.5
 74
     0
  0
LTYPE
  5
95
330
5
100
AcDbSymbolTableRecord
100
AcDbLinetypeTableRecord
  2
DASHED2
 70
     0
  3
Dashed (.5x) _ _ _ _ _ _ _ _ _ _ _ _ _ _ _ _ _
 72
    65
 73
     2
 40
0.375
 49
0.25
 74
     0
 49
-0.125
 74
     0
  0
LTYPE
  5
96
330
5
100
AcDbSymbolTableRecord
100
AcDbLinetypeTableRecord
  2
DASHEDX2
 70
     0
  3
Dashed (2x) ____  ____  ____  ____  ____  ___
 72
    65
 73
     2
 40
1.5
 49
1.0
 74
     0
 49
-0.5
 74
     0
  0
LTYPE
  5
97
330
5
100
AcDbSymbolTableRecord
100
AcDbLinetypeTableRecord
  2
DIVIDE
 70
     0
  3
Divide ____ . . ____ . . ____ . . ____ . . ____
 72
    65
 73
     6
 40
1.25
 49
0.5
 74
     0
 49
-0.25
 74
     0
 49
0.0
 74
     0
 49
-0.25
 74
     0
 49
0.0
 74
     0
 49
-0.25
 74
     0
  0
LTYPE
  5
98
330
5
100
AcDbSymbolTableRecord
100
AcDbLinetypeTableRecord
  2
DIVIDE2
 70
     0
  3
Divide (.5x) __..__..__..__..__..__..__..__.._
 72
    65
 73
     6
 40
0.625
 49
0.25
 74
     0
 49
-0.125
 74
     0
 49
0.0
 74
     0
 49
-0.125
 74
     0
 49
0.0
 74
     0
 49
-0.125
 74
     0
  0
LTYPE
  5
99
330
5
100
AcDbSymbolTableRecord
100
AcDbLinetypeTableRecord
  2
DIVIDEX2
 70
     0
  3
Divide (2x) ________  .  .  ________  .  .  _
 72
    65
 73
     6
 40
2.5
 49
1.0
 74
     0
 49
-0.5
 74
     0
 49
0.0
 74
     0
 49
-0.5
 74
     0
 49
0.0
 74
     0
 49
-0.5
 74
     0
  0
LTYPE
  5
9A
330
5
100
AcDbSymbolTableRecord
100
AcDbLinetypeTableRecord
  2
DOT
 70
     0
  3
Dot . . . . . . . . . . . . . . . . . . . . . .
 72
    65
 73
     2
 40
0.25
 49
0.0
 74
     0
 49
-0.25
 74
     0
  0
LTYPE
  5
9B
330
5
100
AcDbSymbolTableRecord
100
AcDbLinetypeTableRecord
  2
DOT2
 70
     0
  3
Dot (.5x) .....................................
 72
    65
 73
     2
 40
0.125
 49
0.0
 74
     0
 49
-0.125
 74
     0
  0
LTYPE
  5
9C
330
5
100
AcDbSymbolTableRecord
100
AcDbLinetypeTableRecord
  2
DOTX2
 70
     0
  3
Dot (2x) .  .  .  .  .  .  .  .  .  .  .  .  . 
 72
    65
 73
     2
 40
0.5
 49
0.0
 74
     0
 49
-0.5
 74
     0
  0
LTYPE
  5
9D
330
5
100
AcDbSymbolTableRecord
100
AcDbLinetypeTableRecord
  2
HIDDEN
 70
     0
  3
Hidden __ __ __ __ __ __ __ __ __ __ __ __ __ _
 72
    65
 73
     2
 40
0.375
 49
0.25
 74
     0
 49
-0.125
 74
     0
  0
LTYPE
  5
9E
330
5
100
AcDbSymbolTableRecord
100
AcDbLinetypeTableRecord
  2
HIDDEN2
 70
     0
  3
Hidden (.5x) _ _ _ _ _ _ _ _ _ _ _ _ _ _ _ _ _
 72
    65
 73
     2
 40
0.1875
 49
0.125
 74
     0
 49
-0.0625
 74
     0
  0
LTYPE
  5
9F
330
5
100
AcDbSymbolTableRecord
100
AcDbLinetypeTableRecord
  2
HIDDENX2
 70
     0
  3
Hidden (2x) ____ ____ ____ ____ ____ ____ ____
 72
    65
 73
     2
 40
0.75
 49
0.5
 74
     0
 49
-0.25
 74
     0
  0
LTYPE
  5
A0
330
5
100
AcDbSymbolTableRecord
100
AcDbLinetypeTableRecord
  2
PHANTOM
 70
     0
  3
Phantom ______  __  __  ______  __  __  ______
 72
    65
 73
     6
 40
2.5
 49
1.25
 74
     0
 49
-0.25
 74
     0
 49
0.25
 74
     0
 49
-0.25
 74
     0
 49
0.25
 74
     0
 49
-0.25
 74
     0
  0
LTYPE
  5
A1
330
5
100
AcDbSymbolTableRecord
100
AcDbLinetypeTableRecord
  2
PHANTOM2
 70
     0
  3
Phantom (.5x) ___ _ _ ___ _ _ ___ _ _ ___ _ _
 72
    65
 73
     6
 40
1.25
 49
0.625
 74
     0
 49
-0.125
 74
     0
 49
0.125
 74
     0
 49
-0.125
 74
     0
 49
0.125
 74
     0
 49
-0.125
 74
     0
  0
LTYPE
  5
A2
330
5
100
AcDbSymbolTableRecord
100
AcDbLinetypeTableRecord
  2
PHANTOMX2
 70
     0
  3
Phantom (2x) ____________    ____    ____   _
 72
    65
 73
     6
 40
5.0
 49
2.5
 74
     0
 49
-0.5
 74
     0
 49
0.5
 74
     0
 49
-0.5
 74
     0
 49
0.5
 74
     0
 49
-0.5
 74
     0
  0
LTYPE
  5
A3
330
5
100
AcDbSymbolTableRecord
100
AcDbLinetypeTableRecord
  2
ACAD_ISO02W100
 70
     0
  3
ISO dash __ __ __ __ __ __ __ __ __ __ __ __ __
 72
    65
 73
     2
 40
0.59
 49
0.47
 74
     0
 49
-0.12
 74
     0
  0
LTYPE
  5
A4
330
5
100
AcDbSymbolTableRecord
100
AcDbLinetypeTableRecord
  2
ACAD_ISO03W100
 70
     0
  3
ISO dash space __    __    __    __    __    __
 72
    65
 73
     2
 40
1.179999999999999
 49
0.47
 74
     0
 49
-0.71
 74
     0
  0
LTYPE
  5
A5
330
5
100
AcDbSymbolTableRecord
100
AcDbLinetypeTableRecord
  2
ACAD_ISO04W100
 70
     0
  3
ISO long-dash dot ____ . ____ . ____ . ____ . _
 72
    65
 73
     4
 40
1.179999999999999
 49
0.9399999999999998
 74
     0
 49
-0.12
 74
     0
 49
0.0
 74
     0
 49
-0.12
 74
     0
  0
LTYPE
  5
A6
330
5
100
AcDbSymbolTableRecord
100
AcDbLinetypeTableRecord
  2
ACAD_ISO05W100
 70
     0
  3
ISO long-dash double-dot ____ .. ____ .. ____ .
 72
    65
 73
     6
 40
1.299999999999999
 49
0.9399999999999998
 74
     0
 49
-0.12
 74
     0
 49
0.0
 74
     0
 49
-0.12
 74
     0
 49
0.0
 74
     0
 49
-0.12
 74
     0
  0
LTYPE
  5
A7
330
5
100
AcDbSymbolTableRecord
100
AcDbLinetypeTableRecord
  2
ACAD_ISO06W100
 70
     0
  3
ISO long-dash triple-dot ____ ... ____ ... ____
 72
    65
 73
     8
 40
1.419999999999999
 49
0.9399999999999998
 74
     0
 49
-0.12
 74
     0
 49
0.0
 74
     0
 49
-0.12
 74
     0
 49
0.0
 74
     0
 49
-0.12
 74
     0
 49
0.0
 74
     0
 49
-0.12
 74
     0
  0
LTYPE
  5
A8
330
5
100
AcDbSymbolTableRecord
100
AcDbLinetypeTableRecord
  2
ACAD_ISO07W100
 70
     0
  3
ISO dot . . . . . . . . . . . . . . . . . . . .
 72
    65
 73
     2
 40
0.12
 49
0.0
 74
     0
 49
-0.12
 74
     0
  0
LTYPE
  5
A9
330
5
100
AcDbSymbolTableRecord
100
AcDbLinetypeTableRecord
  2
ACAD_ISO08W100
 70
     0
  3
ISO long-dash short-dash ____ __ ____ __ ____ _
 72
    65
 73
     4
 40
0.95
 49
0.47
 74
     0
 49
-0.12
 74
     0
 49
0.24
 74
     0
 49
-0.12
 74
     0
  0
LTYPE
  5
AA
330
5
100
AcDbSymbolTableRecord
100
AcDbLinetypeTableRecord
  2
ACAD_ISO09W100
 70
     0
  3
ISO long-dash double-short-dash ____ __ __ ____
 72
    65
 73
     6
 40
1.31
 49
0.47
 74
     0
 49
-0.12
 74
     0
 49
0.24
 74
     0
 49
-0.12
 74
     0
 49
0.24
 74
     0
 49
-0.12
 74
     0
  0
LTYPE
  5
AB
330
5
100
AcDbSymbolTableRecord
100
AcDbLinetypeTableRecord
  2
ACAD_ISO10W100
 70
     0
  3
ISO dash dot __ . __ . __ . __ . __ . __ . __ .
 72
    65
 73
     4
 40
0.71
 49
0.47
 74
     0
 49
-0.12
 74
     0
 49
0.0
 74
     0
 49
-0.12
 74
     0
  0
LTYPE
  5
AC
330
5
100
AcDbSymbolTableRecord
100
AcDbLinetypeTableRecord
  2
ACAD_ISO11W100
 70
     0
  3
ISO double-dash dot __ __ . __ __ . __ __ . __ 
 72
    65
 73
     6
 40
1.299999999999999
 49
0.47
 74
     0
 49
-0.12
 74
     0
 49
0.47
 74
     0
 49
-0.12
 74
     0
 49
0.0
 74
     0
 49
-0.12
 74
     0
  0
LTYPE
  5
AD
330
5
100
AcDbSymbolTableRecord
100
AcDbLinetypeTableRecord
  2
ACAD_ISO12W100
 70
     0
  3
ISO dash double-dot __ . . __ . . __ . . __ . .
 72
    65
 73
     6
 40
0.8299999999999998
 49
0.47
 74
     0
 49
-0.12
 74
     0
 49
0.0
 74
     0
 49
-0.12
 74
     0
 49
0.0
 74
     0
 49
-0.12
 74
     0
  0
LTYPE
  5
AE
330
5
100
AcDbSymbolTableRecord
100
AcDbLinetypeTableRecord
  2
ACAD_ISO13W100
 70
     0
  3
ISO double-dash double-dot __ __ . . __ __ . . 
 72
    65
 73
     8
 40
1.419999999999999
 49
0.47
 74
     0
 49
-0.12
 74
     0
 49
0.47
 74
     0
 49
-0.12
 74
     0
 49
0.0
 74
     0
 49
-0.12
 74
     0
 49
0.0
 74
     0
 49
-0.12
 74
     0
  0
LTYPE
  5
AF
330
5
100
AcDbSymbolTableRecord
100
AcDbLinetypeTableRecord
  2
ACAD_ISO14W100
 70
     0
  3
ISO dash triple-dot __ . . . __ . . . __ . . . 
 72
    65
 73
     8
 40
0.95
 49
0.47
 74
     0
 49
-0.12
 74
     0
 49
0.0
 74
     0
 49
-0.12
 74
     0
 49
0.0
 74
     0
 49
-0.12
 74
     0
 49
0.0
 74
     0
 49
-0.12
 74
     0
  0
LTYPE
  5
B0
330
5
100
AcDbSymbolTableRecord
100
AcDbLinetypeTableRecord
  2
ACAD_ISO15W100
 70
     0
  3
ISO double-dash triple-dot __ __ . . . __ __ . 
 72
    65
 73
    10
 40
1.539999999999999
 49
0.47
 74
     0
 49
-0.12
 74
     0
 49
0.47
 74
     0
 49
-0.12
 74
     0
 49
0.0
 74
     0
 49
-0.12
 74
     0
 49
0.0
 74
     0
 49
-0.12
 74
     0
 49
0.0
 74
     0
 49
-0.12
 74
     0
  0
LTYPE
  5
B3
330
5
100
AcDbSymbolTableRecord
100
AcDbLinetypeTableRecord
  2
FENCELINE1
 70
     0
  3
Fenceline circle ----0-----0----0-----0----0---
 72
    65
 73
     4
 40
1.45
 49
0.25
 74
     0
 49
-0.1
 74
     4
 75
   133
340
B2
 46
0.1
 50
0.0
 44
-0.1
 45
0.0
 49
-0.1
 74
     0
 49
1.0
 74
     0
  0
LTYPE
  5
B4
330
5
100
AcDbSymbolTableRecord
100
AcDbLinetypeTableRecord
  2
FENCELINE2
 70
     0
  3
Fenceline square ----[]-----[]----[]-----[]----
 72
    65
 73
     4
 40
1.45
 49
0.25
 74
     0
 49
-0.1
 74
     4
 75
   132
340
B2
 46
0.1
 50
0.0
 44
-0.1
 45
0.0
 49
-0.1
 74
     0
 49
1.0
 74
     0
  0
LTYPE
  5
B5
330
5
100
AcDbSymbolTableRecord
100
AcDbLinetypeTableRecord
  2
TRACKS
 70
     0
  3
Tracks -|-|-|-|-|-|-|-|-|-|-|-|-|-|-|-|-|-|-|-|
 72
    65
 73
     2
 40
0.3
 49
0.15
 74
     4
 75
   130
340
B2
 46
0.25
 50
0.0
 44
0.0
 45
0.0
 49
0.15
 74
     0
  0
LTYPE
  5
B6
330
5
100
AcDbSymbolTableRecord
100
AcDbLinetypeTableRecord
  2
BATTING
 70
     0
  3
Batting SSSSSSSSSSSSSSSSSSSSSSSSSSSSSSSSSSSSSSS
 72
    65
 73
     4
 40
0.4001000000000001
 49
0.0001
 74
     0
 49
-0.1
 74
     4
 75
   134
340
B2
 46
0.1
 50
0.0
 44
-0.1
 45
0.0
 49
-0.2
 74
     4
 75
   134
340
B2
 46
0.1
 50
180.0
 44
0.1
 45
0.0
 49
-0.1
 74
     0
  0
LTYPE
  5
B7
330
5
100
AcDbSymbolTableRecord
100
AcDbLinetypeTableRecord
  2
HOT_WATER_SUPPLY
 70
     0
  3
Hot water supply ---- HW ---- HW ---- HW ----
 72
    65
 73
     3
 40
0.9
 49
0.5
 74
     0
 49
-0.2
 74
     2
 75
     0
340
55
 46
0.1
 50
0.0
 44
-0.1
 45
-0.05
  9
HW
 49
-0.2
 74
     0
  0
LTYPE
  5
B8
330
5
100
AcDbSymbolTableRecord
100
AcDbLinetypeTableRecord
  2
GAS_LINE
 70
     0
  3
Gas line ----GAS----GAS----GAS----GAS----GAS---
 72
    65
 73
     3
 40
0.95
 49
0.5
 74
     0
 49
-0.2
 74
     2
 75
     0
340
55
 46
0.1
 50
0.0
 44
-0.1
 45
-0.05
  9
GAS
 49
-0.25
 74
     0
  0
LTYPE
  5
B9
330
5
100
AcDbSymbolTableRecord
100
AcDbLinetypeTableRecord
  2
ZIGZAG
 70
     0
  3
Zig zag /\/\/\/\/\/\/\/\/\/\/\/\/\/\/\/\/\/\/\/
 72
    65
 73
     4
 40
0.8001000000000001
 49
0.0001
 74
     0
 49
-0.2
 74
     4
 75
   131
340
B2
 46
0.2
 50
0.0
 44
-0.2
 45
0.0
 49
-0.4
 74
     4
 75
   131
340
B2
 46
0.2
 50
180.0
 44
0.2
 45
0.0
 49
-0.2
 74
     0
  0
ENDTAB
  0
TABLE
  2
LAYER
  5
2
330
0
100
AcDbSymbolTable
 70
    27
  0
LAYER
  5
54
330
2
100
AcDbSymbolTableRecord
100
AcDbLayerTableRecord
  2
0
 70
     0
 62
     7
  6
Continuous
370
    18
390
F
347
21
  0
LAYER
  5
C0
330
2
100
AcDbSymbolTableRecord
100
AcDbLayerTableRecord
  2
Center Mark (ANSI)
 70
     0
 62
     7
  6
Continuous
370
    15
390
F
347
21
  0
LAYER
  5
C1
330
2
100
AcDbSymbolTableRecord
100
AcDbLayerTableRecord
  2
Centerline (ANSI)
 70
     0
 62
     7
  6
Continuous
370
    15
390
F
347
21
  0
LAYER
  5
C3
330
2
100
AcDbSymbolTableRecord
100
AcDbLayerTableRecord
  2
Dimension (ANSI)
 70
     0
 62
     7
  6
Continuous
370
    13
390
F
347
21
  0
LAYER
  5
C5
330
2
100
AcDbSymbolTableRecord
100
AcDbLayerTableRecord
  2
Hidden (ANSI)
 70
     0
 62
     7
  6
DASHED
370
    15
390
F
347
21
  0
LAYER
  5
CC
330
2
100
AcDbSymbolTableRecord
100
AcDbLayerTableRecord
  2
Symbol (ANSI)
 70
     0
 62
     7
  6
Continuous
370
    18
390
F
347
21
  0
LAYER
  5
CF
330
2
100
AcDbSymbolTableRecord
100
AcDbLayerTableRecord
  2
Visible (ANSI)
 70
     0
 62
     7
  6
Continuous
370
    13
390
F
347
21
  0
LAYER
  5
D0
330
2
100
AcDbSymbolTableRecord
100
AcDbLayerTableRecord
  2
Visible Narrow (ANSI)
 70
     0
 62
     7
  6
Continuous
370
    18
390
F
347
21
  0
LAYER
  5
54E
330
2
100
AcDbSymbolTableRecord
100
AcDbLayerTableRecord
  2
Defpoints
 70
     0
 62
     7
  6
Continuous
290
     0
370
    -3
390
F
347
21
  0
ENDTAB
  0
TABLE
  2
STYLE
  5
3
330
0
100
AcDbSymbolTable
 70
    18
  0
STYLE
  5
55
330
3
100
AcDbSymbolTableRecord
100
AcDbTextStyleTableRecord
  2
Standard
 70
     0
 40
0.0
 41
1.0
 50
0.0
 71
     0
 42
0.2
  3
txt
  4

  0
STYLE
  5
5A
330
3
100
AcDbSymbolTableRecord
100
AcDbTextStyleTableRecord
  2
Annotative
 70
     0
 40
0.0
 41
1.0
 50
0.0
 71
     0
 42
0.2
  3
txt
  4

1001
AcadAnnotative
1000
AnnotativeData
1002
{
1070
     1
1070
     1
1002
}
  0
STYLE
  5
B2
330
3
100
AcDbSymbolTableRecord
100
AcDbTextStyleTableRecord
  2

 70
     1
 40
0.0
 41
1.0
 50
0.0
 71
     0
 42
0.2
  3
ltypeshp.shx
  4

  0
STYLE
  5
D4
330
3
100
AcDbSymbolTableRecord
100
AcDbTextStyleTableRecord
  2
ITALICC_120
 70
     0
 40
0.0
 41
1.0
 50
0.0
 71
     0
 42
0.2
  3
italicc.shx
  4

  0
STYLE
  5
D5
330
3
100
AcDbSymbolTableRecord
100
AcDbTextStyleTableRecord
  2
Label Text (ANSI)
 70
     0
 40
0.0
 41
1.0
 50
0.0
 71
     0
 42
0.2
  3
tahoma.ttf
  4

1001
ACAD
1000
Tahoma
1071
      256
  0
STYLE
  5
D6
330
3
100
AcDbSymbolTableRecord
100
AcDbTextStyleTableRecord
  2
Note Text (ANSI)
 70
     0
 40
0.0
 41
1.0
 50
0.0
 71
     0
 42
0.2
  3
tahoma.ttf
  4

1001
ACAD
1000
Tahoma
1071
      256
  0
STYLE
  5
D7
330
3
100
AcDbSymbolTableRecord
100
AcDbTextStyleTableRecord
  2
ROMANS
 70
     0
 40
0.0
 41
1.0
 50
0.0
 71
     0
 42
0.2
  3
romans.shx
  4

  0
STYLE
  5
D8
330
3
100
AcDbSymbolTableRecord
100
AcDbTextStyleTableRecord
  2
SANSSERIF_114
 70
     0
 40
0.0
 41
1.0
 50
0.0
 71
     0
 42
0.2
  3
tahoma.ttf
  4

1001
ACAD
1000
Tahoma
1071
      256
  0
STYLE
  5
D9
330
3
100
AcDbSymbolTableRecord
100
AcDbTextStyleTableRecord
  2
SANSSERIF_117
 70
     0
 40
0.0
 41
1.0
 50
0.0
 71
     0
 42
0.2
  3
tahoma.ttf
  4

1001
ACAD
1000
Tahoma
1071
      256
  0
STYLE
  5
DA
330
3
100
AcDbSymbolTableRecord
100
AcDbTextStyleTableRecord
  2
STANDARDAM_ANSI
 70
     0
 40
0.0
 41
1.0
 50
0.0
 71
     0
 42
0.2
  3
txt.shx
  4

  0
STYLE
  5
DB
330
3
100
AcDbSymbolTableRecord
100
AcDbTextStyleTableRecord
  2
StandardAM_ANSI$0
 70
     0
 40
0.0
 41
1.0
 50
0.0
 71
     0
 42
0.2
  3
txt.shx
  4

  0
STYLE
  5
DC
330
3
100
AcDbSymbolTableRecord
100
AcDbTextStyleTableRecord
  2
STANDARDAM_ANSI$3
 70
     0
 40
0.0
 41
1.0
 50
0.0
 71
     0
 42
0.2
  3
txt.shx
  4

  0
STYLE
  5
DD
330
3
100
AcDbSymbolTableRecord
100
AcDbTextStyleTableRecord
  2
STANDARDAM_ANSI$4
 70
     0
 40
0.0
 41
1.0
 50
0.0
 71
     0
 42
0.2
  3
txt.shx
  4

  0
STYLE
  5
DE
330
3
100
AcDbSymbolTableRecord
100
AcDbTextStyleTableRecord
  2
STANDARDAM_ANSI$7
 70
     0
 40
0.0
 41
1.0
 50
0.0
 71
     0
 42
0.2
  3
txt.shx
  4

  0
STYLE
  5
DF
330
3
100
AcDbSymbolTableRecord
100
AcDbTextStyleTableRecord
  2
STANDARDAM_ANSI$SF
 70
     0
 40
0.0
 41
1.0
 50
0.0
 71
     0
 42
0.2
  3
txt.shx
  4

  0
STYLE
  5
E0
330
3
100
AcDbSymbolTableRecord
100
AcDbTextStyleTableRecord
  2
STANDARDAM_ANSI$SH
 70
     0
 40
0.0
 41
1.0
 50
0.0
 71
     0
 42
0.2
  3
txt.shx
  4

  0
STYLE
  5
E1
330
3
100
AcDbSymbolTableRecord
100
AcDbTextStyleTableRecord
  2
STANDARDSTANDARD
 70
     0
 40
0.0
 41
1.0
 50
0.0
 71
     0
 42
0.2
  3
txt.shx
  4

  0
STYLE
  5
2E3
330
3
100
AcDbSymbolTableRecord
100
AcDbTextStyleTableRecord
  2
Text Style153
 70
     0
 40
0.0
 41
1.0
 50
0.0
 71
     0
 42
0.2
  3
tahoma.ttf
  4

1001
ACAD
1000
Tahoma
1071
      256
  0
ENDTAB
  0
TABLE
  2
VIEW
  5
6
330
0
100
AcDbSymbolTable
 70
     0
  0
ENDTAB
  0
TABLE
  2
UCS
  5
7
330
0
100
AcDbSymbolTable
 70
     0
  0
ENDTAB
  0
TABLE
  2
APPID
  5
9
330
0
100
AcDbSymbolTable
 70
     3
  0
APPID
  5
56
330
9
100
AcDbSymbolTableRecord
100
AcDbRegAppTableRecord
  2
ACAD
 70
     0
  0
APPID
  5
5E
330
9
100
AcDbSymbolTableRecord
100
AcDbRegAppTableRecord
  2
AcadAnnotative
 70
     0
  0
APPID
  5
C64
330
9
100
AcDbSymbolTableRecord
100
AcDbRegAppTableRecord
  2
ACAD_DSTYLE_DIMRADIAL_EXTENSION
 70
     0
  0
ENDTAB
  0
TABLE
  2
DIMSTYLE
  5
A
330
0
100
AcDbSymbolTable
 70
    27
100
AcDbDimStyleTable
 71
     2
340
F6
340
58
  0
DIMSTYLE
105
58
330
A
100
AcDbSymbolTableRecord
100
AcDbDimStyleTableRecord
  2
STANDARD
 70
     0
 41
0.1800000071525573
 42
0.0625
140
0.1800000071525574
144
1.0
147
0.0900000035762787
176
   256
177
   256
178
   256
274
     3
340
55
371
    -1
372
    -1
  0
DIMSTYLE
105
59
330
A
100
AcDbSymbolTableRecord
100
AcDbDimStyleTableRecord
  2
Annotative
 70
     0
340
55
1001
AcadAnnotative
1000
AnnotativeData
1002
{
1070
     1
1070
     1
1002
}
  0
DIMSTYLE
105
E2
330
A
100
AcDbSymbolTableRecord
100
AcDbDimStyleTableRecord
  2
AM_ANSI
 70
     0
  4
 mm
 40
10.0
 41
0.119999997317791
 42
0.05
 43
0.5
 44
0.1
 45
0.00000001
 78
     4
 79
     2
140
0.1200000047683716
146
0.7099999189376831
147
0.0599999986588955
176
   256
177
   256
178
     2
284
     4
340
DA
371
    -1
372
    -1
  0
DIMSTYLE
105
E3
330
A
100
AcDbSymbolTableRecord
100
AcDbDimStyleTableRecord
  2
AM_ANSI$7
 70
     0
  4
 mm
 40
10.0
 41
0.119999997317791
 42
0.05
 43
0.5
 44
0.1
 45
0.00000001
 78
     4
 79
     2
140
0.1200000047683716
146
0.7099999189376831
147
0.0599999986588955
176
   256
177
   256
178
     2
284
     4
340
DA
371
    -1
372
    -1
  0
DIMSTYLE
105
E4
330
A
100
AcDbSymbolTableRecord
100
AcDbDimStyleTableRecord
  2
AM_ANSI$0
 70
     0
  4
 mm
 40
10.0
 41
0.119999997317791
 42
0.05
 43
0.5
 44
0.1
 45
0.00000001
 78
     4
 79
     2
140
0.1200000047683716
146
0.7099999189376831
147
0.0599999986588955
176
   256
177
   256
178
     2
284
     4
340
DB
371
    -1
372
    -1
  0
DIMSTYLE
105
E5
330
A
100
AcDbSymbolTableRecord
100
AcDbDimStyleTableRecord
  2
AM_ANSI$0$7
 70
     0
  4
 mm
 40
10.0
 41
0.119999997317791
 42
0.05
 43
0.5
 44
0.1
 45
0.00000001
 78
     4
 79
     2
140
0.1200000047683716
146
0.7099999189376831
147
0.0599999986588955
176
   256
177
   256
178
     2
284
     4
340
DB
371
    -1
372
    -1
  0
DIMSTYLE
105
E6
330
A
100
AcDbSymbolTableRecord
100
AcDbDimStyleTableRecord
  2
AM_ANSI$3
 70
     0
  4
 mm
 40
10.0
 41
0.119999997317791
 42
0.05
 43
0.5
 44
0.1
 45
0.00000001
 78
     4
 79
     2
140
0.1200000047683716
146
0.7099999189376831
147
0.0599999986588955
176
   256
177
   256
178
     2
284
     4
340
DC
371
    -1
372
    -1
  0
DIMSTYLE
105
E7
330
A
100
AcDbSymbolTableRecord
100
AcDbDimStyleTableRecord
  2
AM_ANSI$3$7
 70
     0
  4
 mm
 40
10.0
 41
0.119999997317791
 42
0.05
 43
0.5
 44
0.1
 45
0.00000001
 78
     4
 79
     2
140
0.1200000047683716
146
0.7099999189376831
147
0.0599999986588955
176
   256
177
   256
178
     2
284
     4
340
DC
371
    -1
372
    -1
  0
DIMSTYLE
105
E8
330
A
100
AcDbSymbolTableRecord
100
AcDbDimStyleTableRecord
  2
AM_ANSI$4
 70
     0
  4
 mm
 40
10.0
 41
0.119999997317791
 42
0.05
 43
0.5
 44
0.1
 45
0.00000001
 78
     4
 79
     2
140
0.1200000047683716
146
0.7099999189376831
147
0.0599999986588955
176
   256
177
   256
178
     2
284
     4
340
DD
371
    -1
372
    -1
  0
DIMSTYLE
105
E9
330
A
100
AcDbSymbolTableRecord
100
AcDbDimStyleTableRecord
  2
AM_ANSI$4$7
 70
     0
  4
 mm
 40
10.0
 41
0.119999997317791
 42
0.05
 43
0.5
 44
0.1
 45
0.00000001
 78
     4
 79
     2
140
0.1200000047683716
146
0.7099999189376831
147
0.0599999986588955
176
   256
177
   256
178
     2
284
     4
340
DD
371
    -1
372
    -1
  0
DIMSTYLE
105
EA
330
A
100
AcDbSymbolTableRecord
100
AcDbDimStyleTableRecord
  2
AM_ANSI$SF
 70
     0
  4
 mm
 40
10.0
 41
0.119999997317791
 42
0.05
 43
0.5
 44
0.1
 45
0.00000001
 75
     1
 76
     1
 78
     4
 79
     2
140
0.1200000047683716
146
0.7099999189376831
147
0.0599999986588955
176
   256
177
   256
178
     2
284
     4
340
DF
371
    -1
372
    -1
  0
DIMSTYLE
105
EB
330
A
100
AcDbSymbolTableRecord
100
AcDbDimStyleTableRecord
  2
AM_ANSI$SF$7
 70
     0
  4
 mm
 40
10.0
 41
0.119999997317791
 42
0.05
 43
0.5
 44
0.1
 45
0.00000001
 75
     1
 76
     1
 78
     4
 79
     2
140
0.1200000047683716
146
0.7099999189376831
147
0.0599999986588955
176
   256
177
   256
178
     2
284
     4
340
DF
371
    -1
372
    -1
  0
DIMSTYLE
105
EC
330
A
100
AcDbSymbolTableRecord
100
AcDbDimStyleTableRecord
  2
AM_ANSI$SH
 70
     0
  4
 mm
 40
10.0
 41
0.119999997317791
 42
0.05
 43
0.5
 44
0.1
 45
0.00000001
 75
     1
 76
     1
 78
     4
 79
     2
140
0.1200000047683716
146
0.7099999189376831
147
0.0599999986588955
176
   256
177
   256
178
     2
284
     4
340
E0
371
    -1
372
    -1
  0
DIMSTYLE
105
ED
330
A
100
AcDbSymbolTableRecord
100
AcDbDimStyleTableRecord
  2
AM_ANSI$SH$7
 70
     0
  4
 mm
 40
10.0
 41
0.119999997317791
 42
0.05
 43
0.5
 44
0.1
 45
0.00000001
 75
     1
 76
     1
 78
     4
 79
     2
140
0.1200000047683716
146
0.7099999189376831
147
0.0599999986588955
176
   256
177
   256
178
     2
284
     4
340
E0
371
    -1
372
    -1
  0
DIMSTYLE
105
EE
330
A
100
AcDbSymbolTableRecord
100
AcDbDimStyleTableRecord
  2
Architectural (ANSI)
 70
     0
 40
10.0
 41
0.0984251946210861
 43
0.2362204724409449
 44
0.125
 45
0.00000001
 46
0.3937007874015748
 78
     3
 79
     3
140
0.1200000047683716
147
0.031496062992126
171
     1
176
   256
177
   256
178
   256
272
     2
274
     1
276
     2
277
     4
284
    12
285
     4
286
    12
340
D6
371
    -1
372
    -1
  0
DIMSTYLE
105
EF
330
A
100
AcDbSymbolTableRecord
100
AcDbDimStyleTableRecord
  2
Architectural (ANSI)$7
 70
     0
 40
10.0
 41
0.0984251946210861
 43
0.2362204724409449
 44
0.125
 45
0.00000001
 46
0.3937007874015748
 78
     3
 79
     3
140
0.1200000047683716
147
0.031496062992126
171
     1
176
   256
177
   256
178
   256
272
     2
274
     1
276
     2
277
     4
284
    12
285
     4
286
    12
340
D6
371
    -1
372
    -1
  0
DIMSTYLE
105
F0
330
A
100
AcDbSymbolTableRecord
100
AcDbDimStyleTableRecord
  2
Default - Fraction (ANSI)
 70
     0
 40
10.0
 41
0.0984251946210861
 43
0.2362204724409449
 44
0.125
 45
0.00000001
 46
0.3937007874015748
 79
     3
140
0.1200000047683716
147
0.031496062992126
171
     1
176
   256
177
   256
178
   256
272
     2
274
     1
276
     2
277
     5
284
    12
285
     4
286
    12
340
D6
371
    -1
372
    -1
  0
DIMSTYLE
105
F1
330
A
100
AcDbSymbolTableRecord
100
AcDbDimStyleTableRecord
  2
Default - Fraction (ANSI)$7
 70
     0
 40
10.0
 41
0.0984251946210861
 43
0.2362204724409449
 44
0.125
 45
0.00000001
 46
0.3937007874015748
 79
     3
140
0.1200000047683716
147
0.031496062992126
171
     1
176
   256
177
   256
178
   256
272
     2
274
     1
276
     2
277
     5
284
    12
285
     4
286
    12
340
D6
371
    -1
372
    -1
  0
DIMSTYLE
105
F2
330
A
100
AcDbSymbolTableRecord
100
AcDbDimStyleTableRecord
  2
Default - mm (ANSI)
 70
     0
 40
10.0
 41
0.0984251946210861
 42
0.063
 43
0.2362204724409449
 44
0.125
 45
0.00000001
 46
0.3937007874015748
 73
     0
 78
     4
 79
     1
140
0.1200000047683716
143
1.0
144
25.4
147
0.031496062992126
171
     1
176
   256
177
   256
178
   256
179
     1
271
     2
272
     2
274
     1
284
     4
285
     4
340
D6
371
    -1
372
    -1
  0
DIMSTYLE
105
F3
330
A
100
AcDbSymbolTableRecord
100
AcDbDimStyleTableRecord
  2
Default - mm (ANSI)$7
 70
     0
 40
10.0
 41
0.0984251946210861
 42
0.063
 43
0.2362204724409449
 44
0.125
 45
0.00000001
 46
0.3937007874015748
 73
     0
 78
     4
 79
     1
140
0.1200000047683716
143
1.0
144
25.4
147
0.031496062992126
171
     1
176
   256
177
   256
178
   256
179
     1
271
     2
272
     2
274
     1
284
     4
285
     4
340
D6
371
    -1
372
    -1
  0
DIMSTYLE
105
F4
330
A
100
AcDbSymbolTableRecord
100
AcDbDimStyleTableRecord
  2
Default - mm [in] (ANSI)
 70
     0
  4
 in
 40
10.0
 41
0.0984251946210861
 42
0.063
 43
0.25
 44
0.125
 45
0.00000001
 46
0.3937007874015748
 73
     0
 78
     4
 79
     1
140
0.1200000047683716
143
0.03937
144
25.4
147
0.031496062992126
170
     1
171
     3
176
   256
177
   256
178
   256
179
     1
271
     2
272
     2
274
     3
284
     4
285
     4
286
     4
340
D6
371
    -1
372
    -1
  0
DIMSTYLE
105
F5
330
A
100
AcDbSymbolTableRecord
100
AcDbDimStyleTableRecord
  2
Default - mm [in] (ANSI)$7
 70
     0
  4
 in
 40
10.0
 41
0.0984251946210861
 42
0.063
 43
0.25
 44
0.125
 45
0.00000001
 46
0.3937007874015748
 73
     0
 78
     4
 79
     1
140
0.1200000047683716
143
0.03937
144
25.4
147
0.031496062992126
170
     1
171
     3
176
   256
177
   256
178
   256
179
     1
271
     2
272
     2
274
     3
284
     4
285
     4
286
     4
340
D6
371
    -1
372
    -1
  0
DIMSTYLE
105
F6
102
{ACAD_REACTORS
330
54C
330
638
330
722
330
80C
330
90C
330
9F6
330
AE0
330
BCA
330
C85
330
D8E
330
E80
102
}
330
A
100
AcDbSymbolTableRecord
100
AcDbDimStyleTableRecord
  2
Default (ANSI)
 70
     0
 40
10.0
 41
0.0984251946210861
 43
0.2362204724409449
 44
0.125
 45
0.00000001
 46
0.3937007874015748
 79
     1
140
0.1200000047683716
147
0.031496062992126
171
     1
176
   256
177
   256
178
   256
271
     2
272
     2
274
     1
284
     4
285
     4
340
D6
371
    -1
372
    -1
  0
DIMSTYLE
105
F7
330
A
100
AcDbSymbolTableRecord
100
AcDbDimStyleTableRecord
  2
Default (ANSI)$7
 70
     0
 40
10.0
 41
0.0984251946210861
 43
0.2362204724409449
 44
0.125
 45
0.00000001
 46
0.3937007874015748
 79
     1
140
0.1200000047683716
147
0.031496062992126
171
     1
176
   256
177
   256
178
   256
271
     2
272
     2
274
     1
284
     4
285
     4
340
D6
371
    -1
372
    -1
  0
DIMSTYLE
105
F8
330
A
100
AcDbSymbolTableRecord
100
AcDbDimStyleTableRecord
  2
Alternate (ANSI)
 70
     0
 40
10.0
 41
0.0979999974370003
340
55
342
F9
  0
DIMSTYLE
105
10B
330
A
100
AcDbSymbolTableRecord
100
AcDbDimStyleTableRecord
  2
Datum (ANSI)
 70
     0
 40
10.0
 41
0.0979999974370003
340
55
342
F9
  0
DIMSTYLE
105
11A
330
A
100
AcDbSymbolTableRecord
100
AcDbDimStyleTableRecord
  2
Large (ANSI)
 70
     0
 40
10.0
 41
0.1959999948740005
340
55
342
F9
  0
ENDTAB
  0
TABLE
  2
BLOCK_RECORD
  5
1
330
0
100
AcDbSymbolTable
 70
    15
  0
BLOCK_RECORD
  5
6C
330
1
100
AcDbSymbolTableRecord
100
AcDbBlockTableRecord
  2
*Model_Space
340
6F
 70
     0
280
     1
281
     0
  0
BLOCK_RECORD
  5
68
330
1
100
AcDbSymbolTableRecord
100
AcDbBlockTableRecord
  2
*Paper_Space
340
6B
 70
     0
280
     1
281
     0
  0
BLOCK_RECORD
  5
70
330
1
100
AcDbSymbolTableRecord
100
AcDbBlockTableRecord
  2
*Paper_Space0
340
73
 70
     0
280
     1
281
     0
  0
BLOCK_RECORD
  5
F9
330
1
100
AcDbSymbolTableRecord
100
AcDbBlockTableRecord
  2
_Closed
340
0
 70
     0
280
     1
281
     0
  0
BLOCK_RECORD
  5
100
330
1
100
AcDbSymbolTableRecord
100
AcDbBlockTableRecord
  2
DatumFilled45
340
0
 70
     0
280
     1
281
     0
  0
BLOCK_RECORD
  5
10C
330
1
100
AcDbSymbolTableRecord
100
AcDbBlockTableRecord
  2
Filled-1
340
0
 70
     0
280
     1
281
     0
  0
BLOCK_RECORD
  5
54F
330
1
100
AcDbSymbolTableRecord
100
AcDbBlockTableRecord
  2
*D4
340
0
 70
     0
280
     1
281
     0
  0
BLOCK_RECORD
  5
639
330
1
100
AcDbSymbolTableRecord
100
AcDbBlockTableRecord
  2
*D5
340
0
 70
     0
280
     1
281
     0
  0
BLOCK_RECORD
  5
723
330
1
100
AcDbSymbolTableRecord
100
AcDbBlockTableRecord
  2
*D6
340
0
 70
     0
280
     1
281
     0
  0
BLOCK_RECORD
  5
80D
330
1
100
AcDbSymbolTableRecord
100
AcDbBlockTableRecord
  2
*D7
340
0
 70
     0
280
     1
281
     0
  0
BLOCK_RECORD
  5
90D
330
1
100
AcDbSymbolTableRecord
100
AcDbBlockTableRecord
  2
*D8
340
0
 70
     0
280
     1
281
     0
  0
BLOCK_RECORD
  5
9F7
330
1
100
AcDbSymbolTableRecord
100
AcDbBlockTableRecord
  2
*D9
340
0
 70
     0
280
     1
281
     0
  0
BLOCK_RECORD
  5
AE1
330
1
100
AcDbSymbolTableRecord
100
AcDbBlockTableRecord
  2
*D10
340
0
 70
     0
280
     1
281
     0
  0
BLOCK_RECORD
  5
BCB
330
1
100
AcDbSymbolTableRecord
100
AcDbBlockTableRecord
  2
*D11
340
0
 70
     0
280
     1
281
     0
  0
BLOCK_RECORD
  5
C86
330
1
100
AcDbSymbolTableRecord
100
AcDbBlockTableRecord
  2
*D12
340
0
 70
     0
280
     1
281
     0
  0
BLOCK_RECORD
  5
D8F
330
1
100
AcDbSymbolTableRecord
100
AcDbBlockTableRecord
  2
*D13
340
0
 70
     0
280
     1
281
     0
  0
BLOCK_RECORD
  5
E81
330
1
100
AcDbSymbolTableRecord
100
AcDbBlockTableRecord
  2
*D14
340
0
 70
     0
280
     1
281
     0
  0
ENDTAB
  0
ENDSEC
  0
SECTION
  2
BLOCKS
  0
BLOCK
  5
6D
330
6C
100
AcDbEntity
  8
0
100
AcDbBlockBegin
  2
*Model_Space
 70
     0
 10
0.0
 20
0.0
 30
0.0
  3
*Model_Space
  1

  0
ENDBLK
  5
6E
330
6C
100
AcDbEntity
  8
0
100
AcDbBlockEnd
  0
BLOCK
  5
69
330
68
100
AcDbEntity
 67
     1
  8
0
100
AcDbBlockBegin
  2
*Paper_Space
 70
     0
 10
0.0
 20
0.0
 30
0.0
  3
*Paper_Space
  1

  0
ENDBLK
  5
6A
330
68
100
AcDbEntity
 67
     1
  8
0
100
AcDbBlockEnd
  0
BLOCK
  5
71
330
70
100
AcDbEntity
 67
     1
  8
0
100
AcDbBlockBegin
  2
*Paper_Space0
 70
     0
 10
0.0
 20
0.0
 30
0.0
  3
*Paper_Space0
  1

  0
ENDBLK
  5
72
330
70
100
AcDbEntity
 67
     1
  8
0
100
AcDbBlockEnd
  0
BLOCK
  5
FE
330
F9
100
AcDbEntity
  8
0
100
AcDbBlockBegin
  2
_Closed
 70
     0
 10
0.0
 20
0.0
 30
0.0
  3
_Closed
  1

  0
LINE
  5
FA
330
F9
100
AcDbEntity
  8
0
  6
ByBlock
 62
     0
370
    -2
100
AcDbLine
 10
-1.0
 20
0.1666666666666666
 30
0.0
 11
0.0
 21
0.0
 31
0.0
  0
LINE
  5
FB
330
F9
100
AcDbEntity
  8
0
  6
ByBlock
 62
     0
370
    -2
100
AcDbLine
 10
0.0
 20
0.0
 30
0.0
 11
-1.0
 21
-0.1666666666666666
 31
0.0
  0
LINE
  5
FC
330
F9
100
AcDbEntity
  8
0
  6
ByBlock
 62
     0
370
    -2
100
AcDbLine
 10
-1.0
 20
0.1666666666666666
 30
0.0
 11
-1.0
 21
-0.1666666666666666
 31
0.0
  0
LINE
  5
FD
330
F9
100
AcDbEntity
  8
0
  6
ByBlock
 62
     0
370
    -2
100
AcDbLine
 10
0.0
 20
0.0
 30
0.0
 11
-1.0
 21
0.0
 31
0.0
  0
ENDBLK
  5
FF
330
F9
100
AcDbEntity
  8
0
100
AcDbBlockEnd
  0
BLOCK
  5
101
330
100
100
AcDbEntity
  8
0
100
AcDbBlockBegin
  2
DatumFilled45
 70
     0
 10
0.0
 20
0.0
 30
0.0
  3
DatumFilled45
  1

  0
POLYLINE
  5
103
330
100
100
AcDbEntity
  8
0
 62
     0
100
AcDb2dPolyline
 66
     1
 10
0.0
 20
0.0
 30
0.0
 70
   128
  0
VERTEX
  5
104
330
103
100
AcDbEntity
  8
0
 62
     0
100
AcDbVertex
100
AcDb2dVertex
 10
0.0
 20
0.9999999999999998
 30
0.0
  0
VERTEX
  5
105
330
103
100
AcDbEntity
  8
0
 62
     0
100
AcDbVertex
100
AcDb2dVertex
 10
0.0
 20
-0.9999999999999998
 30
0.0
  0
VERTEX
  5
107
330
103
100
AcDbEntity
  8
0
 62
     0
100
AcDbVertex
100
AcDb2dVertex
 10
-0.9999999999999998
 20
0.0
 30
0.0
  0
VERTEX
  5
108
330
103
100
AcDbEntity
  8
0
 62
     0
100
AcDbVertex
100
AcDb2dVertex
 10
0.0
 20
0.9999999999999998
 30
0.0
  0
SEQEND
  5
106
330
103
100
AcDbEntity
  8
0
 62
     0
  0
SOLID
  5
10A
330
100
100
AcDbEntity
  8
0
 62
     0
100
AcDbTrace
 10
0.0
 20
0.9999999999999998
 30
0.0
 11
0.0
 21
-0.9999999999999998
 31
0.0
 12
-0.9999999999999998
 22
0.0
 32
0.0
 13
0.0
 23
0.9999999999999998
 33
0.0
  0
ENDBLK
  5
102
330
100
100
AcDbEntity
  8
0
100
AcDbBlockEnd
  0
BLOCK
  5
10D
330
10C
100
AcDbEntity
  8
0
100
AcDbBlockBegin
  2
Filled-1
 70
     0
 10
0.0
 20
0.0
 30
0.0
  3
Filled-1
  1

  0
LINE
  5
10F
330
10C
100
AcDbEntity
  8
0
 62
     0
100
AcDbLine
 10
-0.9999999999999998
 20
0.0
 30
0.0
 11
0.0
 21
0.0
 31
0.0
  0
POLYLINE
  5
110
330
10C
100
AcDbEntity
  8
0
 62
     0
100
AcDb2dPolyline
 66
     1
 10
0.0
 20
0.0
 30
0.0
 70
   128
  0
VERTEX
  5
111
330
110
100
AcDbEntity
  8
0
 62
     0
100
AcDbVertex
100
AcDb2dVertex
 10
-0.9999999999999998
 20
-0.0994897959183674
 30
0.0
  0
VERTEX
  5
112
330
110
100
AcDbEntity
  8
0
 62
     0
100
AcDbVertex
100
AcDb2dVertex
 10
0.0
 20
0.0
 30
0.0
  0
VERTEX
  5
114
330
110
100
AcDbEntity
  8
0
 62
     0
100
AcDbVertex
100
AcDb2dVertex
 10
-0.9999999999999998
 20
0.0994897959183674
 30
0.0
  0
VERTEX
  5
115
330
110
100
AcDbEntity
  8
0
 62
     0
100
AcDbVertex
100
AcDb2dVertex
 10
-0.9999999999999998
 20
-0.0994897959183674
 30
0.0
  0
SEQEND
  5
113
330
110
100
AcDbEntity
  8
0
 62
     0
  0
SOLID
  5
116
330
10C
100
AcDbEntity
  8
0
 62
     0
100
AcDbTrace
 10
-0.9999999999999998
 20
-0.0994897959183674
 30
0.0
 11
0.0
 21
0.0
 31
0.0
 12
-0.9999999999999998
 22
0.0994897959183674
 32
0.0
 13
-0.9999999999999998
 23
-0.0994897959183674
 33
0.0
  0
LINE
  5
117
330
10C
100
AcDbEntity
  8
0
 62
     0
100
AcDbLine
 10
-0.9999999999999998
 20
-0.0994897959183674
 30
0.0
 11
0.0
 21
0.0
 31
0.0
  0
LINE
  5
118
330
10C
100
AcDbEntity
  8
0
 62
     0
100
AcDbLine
 10
0.0
 20
0.0
 30
0.0
 11
-0.9999999999999998
 21
0.0994897959183674
 31
0.0
  0
LINE
  5
119
330
10C
100
AcDbEntity
  8
0
 62
     0
100
AcDbLine
 10
-0.9999999999999998
 20
0.0994897959183674
 30
0.0
 11
-0.9999999999999998
 21
-0.0994897959183674
 31
0.0
  0
ENDBLK
  5
10E
330
10C
100
AcDbEntity
  8
0
100
AcDbBlockEnd
  0
BLOCK
  5
550
330
54F
100
AcDbEntity
  8
0
100
AcDbBlockBegin
  2
*D4
 70
     1
 10
0.0
 20
0.0
 30
0.0
  3
*D4
  1

  0
LINE
  5
62E
330
54F
100
AcDbEntity
  8
Dimension (ANSI)
440
 16777216
100
AcDbLine
 10
28.07568275715034
 20
79.38292908417873
 30
0.0
 11
28.07568275715034
 21
91.03791486683029
 31
0.0
  0
LINE
  5
62F
330
54F
100
AcDbEntity
  8
Dimension (ANSI)
440
 16777216
100
AcDbLine
 10
72.07568275715034
 20
79.38292908417874
 30
0.0
 11
72.07568275715034
 21
91.03791486683029
 31
0.0
  0
LINE
  5
630
330
54F
100
AcDbEntity
  8
Dimension (ANSI)
440
 16777216
100
AcDbLine
 10
29.0599347033612
 20
89.78791486683029
 30
0.0
 11
47.75843864891665
 21
89.78791486683029
 31
0.0
  0
LINE
  5
631
330
54F
100
AcDbEntity
  8
Dimension (ANSI)
440
 16777216
100
AcDbLine
 10
71.09143081093948
 20
89.78791486683029
 30
0.0
 11
52.39292686538405
 21
89.78791486683029
 31
0.0
  0
SOLID
  5
632
330
54F
100
AcDbEntity
  8
Dimension (ANSI)
440
 16777216
100
AcDbTrace
 10
29.0599347033612
 20
89.95195685786544
 30
0.0
 11
29.0599347033612
 21
89.62387287579515
 31
0.0
 12
28.07568275715034
 22
89.78791486683029
 32
0.0
 13
28.07568275715034
 23
89.78791486683029
 33
0.0
  0
SOLID
  5
633
330
54F
100
AcDbEntity
  8
Dimension (ANSI)
440
 16777216
100
AcDbTrace
 10
71.09143081093948
 20
89.95195685786544
 30
0.0
 11
71.09143081093948
 21
89.62387287579515
 31
0.0
 12
72.07568275715034
 22
89.78791486683029
 32
0.0
 13
72.07568275715034
 23
89.78791486683029
 33
0.0
  0
MTEXT
  5
634
330
54F
100
AcDbEntity
  8
Dimension (ANSI)
440
 16777216
100
AcDbMText
 10
48.07339927883791
 20
90.41249514281828
 30
0.0
 40
1.200000047683715
 41
0.0
 46
0.0
 71
     1
 72
     1
  1
\A1;44.00
  7
Note Text (ANSI)
 73
     1
 44
1.0
  0
POINT
  5
635
330
54F
100
AcDbEntity
  8
Defpoints
 62
     0
440
 16777216
100
AcDbPoint
 10
28.07568275715034
 20
78.75792908417873
 30
0.0
  0
POINT
  5
636
330
54F
100
AcDbEntity
  8
Defpoints
 62
     0
440
 16777216
100
AcDbPoint
 10
72.07568275715034
 20
78.75792908417874
 30
0.0
  0
POINT
  5
637
330
54F
100
AcDbEntity
  8
Defpoints
 62
     0
440
 16777216
100
AcDbPoint
 10
72.07568275715034
 20
89.78791486683029
 30
0.0
  0
ENDBLK
  5
551
330
54F
100
AcDbEntity
  8
0
100
AcDbBlockEnd
  0
BLOCK
  5
63A
330
639
100
AcDbEntity
  8
0
100
AcDbBlockBegin
  2
*D5
 70
     1
 10
0.0
 20
0.0
 30
0.0
  3
*D5
  1

  0
LINE
  5
718
330
639
100
AcDbEntity
  8
Dimension (ANSI)
440
 16777216
100
AcDbLine
 10
28.07568275715034
 20
79.38292908417873
 30
0.0
 11
28.07568275715034
 21
84.76147821893073
 31
0.0
  0
LINE
  5
719
330
639
100
AcDbEntity
  8
Dimension (ANSI)
440
 16777216
100
AcDbLine
 10
28.95068275715034
 20
80.25281743182706
 30
0.0
 11
28.95068275715034
 21
84.76147821893073
 31
0.0
  0
LINE
  5
71A
330
639
100
AcDbEntity
  8
Dimension (ANSI)
440
 16777216
100
AcDbLine
 10
29.9349347033612
 20
83.51147821893073
 30
0.0
 11
30.91918664957206
 21
83.51147821893073
 31
0.0
  0
LINE
  5
71B
330
639
100
AcDbEntity
  8
Dimension (ANSI)
440
 16777216
100
AcDbLine
 10
27.09143081093948
 20
83.51147821893073
 30
0.0
 11
25.59861646803897
 21
83.51147821893073
 31
0.0
  0
SOLID
  5
71C
330
639
100
AcDbEntity
  8
Dimension (ANSI)
440
 16777216
100
AcDbTrace
 10
29.9349347033612
 20
83.67552020996589
 30
0.0
 11
29.9349347033612
 21
83.34743622789558
 31
0.0
 12
28.95068275715034
 22
83.51147821893073
 32
0.0
 13
28.95068275715034
 23
83.51147821893073
 33
0.0
  0
SOLID
  5
71D
330
639
100
AcDbEntity
  8
Dimension (ANSI)
440
 16777216
100
AcDbTrace
 10
27.09143081093948
 20
83.67552020996589
 30
0.0
 11
27.09143081093948
 21
83.34743622789558
 31
0.0
 12
28.07568275715034
 22
83.51147821893073
 32
0.0
 13
28.07568275715034
 23
83.51147821893073
 33
0.0
  0
MTEXT
  5
71E
330
639
100
AcDbEntity
  8
Dimension (ANSI)
440
 16777216
100
AcDbMText
 10
22.20749724012271
 20
84.13887918003608
 30
0.0
 40
1.200000047683715
 41
0.0
 46
0.0
 71
     1
 72
     1
  1
\A1;0.88
  7
Note Text (ANSI)
 73
     1
 44
1.0
  0
POINT
  5
71F
330
639
100
AcDbEntity
  8
Defpoints
 62
     0
440
 16777216
100
AcDbPoint
 10
28.07568275715034
 20
78.75792908417873
 30
0.0
  0
POINT
  5
720
330
639
100
AcDbEntity
  8
Defpoints
 62
     0
440
 16777216
100
AcDbPoint
 10
28.95068275715034
 20
79.62781743182706
 30
0.0
  0
POINT
  5
721
330
639
100
AcDbEntity
  8
Defpoints
 62
     0
440
 16777216
100
AcDbPoint
 10
28.95068275715034
 20
83.51147821893073
 30
0.0
  0
ENDBLK
  5
63B
330
639
100
AcDbEntity
  8
0
100
AcDbBlockEnd
  0
BLOCK
  5
724
330
723
100
AcDbEntity
  8
0
100
AcDbBlockBegin
  2
*D6
 70
     1
 10
0.0
 20
0.0
 30
0.0
  3
*D6
  1

  0
LINE
  5
802
330
723
100
AcDbEntity
  8
Dimension (ANSI)
440
 16777216
100
AcDbLine
 10
28.95068275715034
 20
80.25281743182706
 30
0.0
 11
28.95068275715034
 21
84.76147821893073
 31
0.0
  0
LINE
  5
803
330
723
100
AcDbEntity
  8
Dimension (ANSI)
440
 16777216
100
AcDbLine
 10
50.07568275715034
 20
80.25281743182706
 30
0.0
 11
50.07568275715034
 21
84.76147821893073
 31
0.0
  0
LINE
  5
804
330
723
100
AcDbEntity
  8
Dimension (ANSI)
440
 16777216
100
AcDbLine
 10
29.9349347033612
 20
83.51147821893073
 30
0.0
 11
37.23704006062682
 21
83.51147821893073
 31
0.0
  0
LINE
  5
805
330
723
100
AcDbEntity
  8
Dimension (ANSI)
440
 16777216
100
AcDbLine
 10
49.09143081093948
 20
83.51147821893073
 30
0.0
 11
41.78932545367385
 21
83.51147821893073
 31
0.0
  0
SOLID
  5
806
330
723
100
AcDbEntity
  8
Dimension (ANSI)
440
 16777216
100
AcDbTrace
 10
29.9349347033612
 20
83.67552020996589
 30
0.0
 11
29.9349347033612
 21
83.34743622789558
 31
0.0
 12
28.95068275715034
 22
83.51147821893073
 32
0.0
 13
28.95068275715034
 23
83.51147821893073
 33
0.0
  0
SOLID
  5
807
330
723
100
AcDbEntity
  8
Dimension (ANSI)
440
 16777216
100
AcDbTrace
 10
49.09143081093948
 20
83.67552020996589
 30
0.0
 11
49.09143081093948
 21
83.34743622789558
 31
0.0
 12
50.07568275715034
 22
83.51147821893073
 32
0.0
 13
50.07568275715034
 23
83.51147821893073
 33
0.0
  0
MTEXT
  5
808
330
723
100
AcDbEntity
  8
Dimension (ANSI)
440
 16777216
100
AcDbMText
 10
37.55200069054808
 20
84.13646144993547
 30
0.0
 40
1.200000047683715
 41
0.0
 46
0.0
 71
     1
 72
     1
  1
\A1;21.13
  7
Note Text (ANSI)
 73
     1
 44
1.0
  0
POINT
  5
809
330
723
100
AcDbEntity
  8
Defpoints
 62
     0
440
 16777216
100
AcDbPoint
 10
28.95068275715034
 20
79.62781743182706
 30
0.0
  0
POINT
  5
80A
330
723
100
AcDbEntity
  8
Defpoints
 62
     0
440
 16777216
100
AcDbPoint
 10
50.07568275715034
 20
79.62781743182706
 30
0.0
  0
POINT
  5
80B
330
723
100
AcDbEntity
  8
Defpoints
 62
     0
440
 16777216
100
AcDbPoint
 10
50.07568275715034
 20
83.51147821893073
 30
0.0
  0
ENDBLK
  5
725
330
723
100
AcDbEntity
  8
0
100
AcDbBlockEnd
  0
BLOCK
  5
80E
330
80D
100
AcDbEntity
  8
0
100
AcDbBlockBegin
  2
*D7
 70
     1
 10
0.0
 20
0.0
 30
0.0
  3
*D7
  1

  0
LINE
  5
901
330
80D
100
AcDbEntity
  8
Dimension (ANSI)
440
 16777216
100
AcDbLine
 10
27.66407110479868
 20
30.97131743182705
 30
0.0
 11
25.12281384517629
 21
30.97131743182705
 31
0.0
  0
LINE
  5
902
330
80D
100
AcDbEntity
  8
Dimension (ANSI)
440
 16777216
100
AcDbLine
 10
26.79418275715033
 20
31.84631743182705
 30
0.0
 11
25.12281384517629
 21
31.84631743182705
 31
0.0
  0
LINE
  5
903
330
80D
100
AcDbEntity
  8
Dimension (ANSI)
440
 16777216
100
AcDbLine
 10
26.37281384517629
 20
32.83056937803791
 30
0.0
 11
26.37281384517629
 21
33.81482132424877
 31
0.0
  0
LINE
  5
904
330
80D
100
AcDbEntity
  8
Dimension (ANSI)
440
 16777216
100
AcDbLine
 10
26.37281384517629
 20
29.98706548561619
 30
0.0
 11
26.37281384517629
 21
28.10134077300565
 31
0.0
  0
LINE
  5
905
330
80D
100
AcDbEntity
  8
Dimension (ANSI)
440
 16777216
100
AcDbLine
 10
26.37281384517629
 20
28.10134077300565
 30
0.0
 11
25.38856189896543
 21
28.10134077300565
 31
0.0
  0
SOLID
  5
906
330
80D
100
AcDbEntity
  8
Dimension (ANSI)
440
 16777216
100
AcDbTrace
 10
26.20877185414114
 20
32.83056937803791
 30
0.0
 11
26.53685583621144
 21
32.83056937803791
 31
0.0
 12
26.37281384517629
 22
31.84631743182705
 32
0.0
 13
26.37281384517629
 23
31.84631743182705
 33
0.0
  0
SOLID
  5
907
330
80D
100
AcDbEntity
  8
Dimension (ANSI)
440
 16777216
100
AcDbTrace
 10
26.20877185414114
 20
29.98706548561619
 30
0.0
 11
26.53685583621144
 21
29.98706548561619
 31
0.0
 12
26.37281384517629
 22
30.97131743182705
 32
0.0
 13
26.37281384517629
 23
30.97131743182705
 33
0.0
  0
MTEXT
  5
908
330
80D
100
AcDbEntity
  8
Dimension (ANSI)
440
 16777216
100
AcDbMText
 10
21.99744267104916
 20
28.728741734111
 30
0.0
 40
1.200000047683715
 41
0.0
 46
0.0
 71
     1
 72
     1
  1
\A1;0.88
  7
Note Text (ANSI)
 73
     1
 44
1.0
  0
POINT
  5
909
330
80D
100
AcDbEntity
  8
Defpoints
 62
     0
440
 16777216
100
AcDbPoint
 10
28.28907110479868
 20
30.97131743182705
 30
0.0
  0
POINT
  5
90A
330
80D
100
AcDbEntity
  8
Defpoints
 62
     0
440
 16777216
100
AcDbPoint
 10
27.41918275715033
 20
31.84631743182705
 30
0.0
  0
POINT
  5
90B
330
80D
100
AcDbEntity
  8
Defpoints
 62
     0
440
 16777216
100
AcDbPoint
 10
26.37281384517629
 20
31.84631743182705
 30
0.0
  0
ENDBLK
  5
80F
330
80D
100
AcDbEntity
  8
0
100
AcDbBlockEnd
  0
BLOCK
  5
90E
330
90D
100
AcDbEntity
  8
0
100
AcDbBlockBegin
  2
*D8
 70
     1
 10
0.0
 20
0.0
 30
0.0
  3
*D8
  1

  0
LINE
  5
9EC
330
90D
100
AcDbEntity
  8
Dimension (ANSI)
440
 16777216
100
AcDbLine
 10
26.79418275715033
 20
31.84631743182705
 30
0.0
 11
22.23217488313459
 21
31.84631743182705
 31
0.0
  0
LINE
  5
9ED
330
90D
100
AcDbEntity
  8
Dimension (ANSI)
440
 16777216
100
AcDbLine
 10
26.79418275715035
 20
54.97131743182706
 30
0.0
 11
22.23217488313459
 21
54.97131743182706
 31
0.0
  0
LINE
  5
9EE
330
90D
100
AcDbEntity
  8
Dimension (ANSI)
440
 16777216
100
AcDbLine
 10
23.48217488313459
 20
32.83056937803791
 30
0.0
 11
23.48217488313459
 21
42.46887357090103
 31
0.0
  0
LINE
  5
9EF
330
90D
100
AcDbEntity
  8
Dimension (ANSI)
440
 16777216
100
AcDbLine
 10
23.48217488313459
 20
53.98706548561619
 30
0.0
 11
23.48217488313459
 21
44.34876129275305
 31
0.0
  0
SOLID
  5
9F0
330
90D
100
AcDbEntity
  8
Dimension (ANSI)
440
 16777216
100
AcDbTrace
 10
23.31813289209944
 20
32.83056937803791
 30
0.0
 11
23.64621687416973
 21
32.83056937803791
 31
0.0
 12
23.48217488313459
 22
31.84631743182705
 32
0.0
 13
23.48217488313459
 23
31.84631743182705
 33
0.0
  0
SOLID
  5
9F1
330
90D
100
AcDbEntity
  8
Dimension (ANSI)
440
 16777216
100
AcDbTrace
 10
23.31813289209945
 20
53.98706548561619
 30
0.0
 11
23.64621687416974
 21
53.98706548561619
 31
0.0
 12
23.48217488313459
 22
54.97131743182706
 32
0.0
 13
23.48217488313459
 23
54.97131743182706
 33
0.0
  0
MTEXT
  5
9F2
330
90D
100
AcDbEntity
  8
Dimension (ANSI)
440
 16777216
100
AcDbMText
 10
21.52099281653232
 20
44.03380066283179
 30
0.0
 40
1.200000047683715
 41
0.0
 46
0.0
 71
     1
 72
     1
  1
\A1;23.13
  7
Note Text (ANSI)
 73
     1
 44
1.0
  0
POINT
  5
9F3
330
90D
100
AcDbEntity
  8
Defpoints
 62
     0
440
 16777216
100
AcDbPoint
 10
27.41918275715033
 20
31.84631743182705
 30
0.0
  0
POINT
  5
9F4
330
90D
100
AcDbEntity
  8
Defpoints
 62
     0
440
 16777216
100
AcDbPoint
 10
27.41918275715035
 20
54.97131743182706
 30
0.0
  0
POINT
  5
9F5
330
90D
100
AcDbEntity
  8
Defpoints
 62
     0
440
 16777216
100
AcDbPoint
 10
23.48217488313459
 20
54.97131743182706
 30
0.0
  0
ENDBLK
  5
90F
330
90D
100
AcDbEntity
  8
0
100
AcDbBlockEnd
  0
BLOCK
  5
9F8
330
9F7
100
AcDbEntity
  8
0
100
AcDbBlockBegin
  2
*D9
 70
     1
 10
0.0
 20
0.0
 30
0.0
  3
*D9
  1

  0
LINE
  5
AD6
330
9F7
100
AcDbEntity
  8
Dimension (ANSI)
440
 16777216
100
AcDbLine
 10
26.79418275715033
 20
31.84631743182705
 30
0.0
 11
15.14556070990625
 21
31.84631743182705
 31
0.0
  0
LINE
  5
AD7
330
9F7
100
AcDbEntity
  8
Dimension (ANSI)
440
 16777216
100
AcDbLine
 10
26.79418275715034
 20
78.09631743182705
 30
0.0
 11
15.14556070990626
 21
78.09631743182705
 31
0.0
  0
LINE
  5
AD8
330
9F7
100
AcDbEntity
  8
Dimension (ANSI)
440
 16777216
100
AcDbLine
 10
16.39556070990625
 20
32.83056937803791
 30
0.0
 11
16.39556070990625
 21
54.03137357090103
 31
0.0
  0
LINE
  5
AD9
330
9F7
100
AcDbEntity
  8
Dimension (ANSI)
440
 16777216
100
AcDbLine
 10
16.39556070990626
 20
77.11206548561619
 30
0.0
 11
16.39556070990625
 21
55.91126129275305
 31
0.0
  0
SOLID
  5
ADA
330
9F7
100
AcDbEntity
  8
Dimension (ANSI)
440
 16777216
100
AcDbTrace
 10
16.2315187188711
 20
32.83056937803791
 30
0.0
 11
16.55960270094139
 21
32.83056937803791
 31
0.0
 12
16.39556070990625
 22
31.84631743182705
 32
0.0
 13
16.39556070990625
 23
31.84631743182705
 33
0.0
  0
SOLID
  5
ADB
330
9F7
100
AcDbEntity
  8
Dimension (ANSI)
440
 16777216
100
AcDbTrace
 10
16.23151871887111
 20
77.11206548561619
 30
0.0
 11
16.5596027009414
 21
77.11206548561619
 31
0.0
 12
16.39556070990626
 22
78.09631743182705
 32
0.0
 13
16.39556070990626
 23
78.09631743182705
 33
0.0
  0
MTEXT
  5
ADC
330
9F7
100
AcDbEntity
  8
Dimension (ANSI)
440
 16777216
100
AcDbMText
 10
14.4029481519962
 20
55.5963006628318
 30
0.0
 40
1.200000047683715
 41
0.0
 46
0.0
 71
     1
 72
     1
  1
\A1;46.25
  7
Note Text (ANSI)
 73
     1
 44
1.0
  0
POINT
  5
ADD
330
9F7
100
AcDbEntity
  8
Defpoints
 62
     0
440
 16777216
100
AcDbPoint
 10
27.41918275715033
 20
31.84631743182705
 30
0.0
  0
POINT
  5
ADE
330
9F7
100
AcDbEntity
  8
Defpoints
 62
     0
440
 16777216
100
AcDbPoint
 10
27.41918275715034
 20
78.09631743182705
 30
0.0
  0
POINT
  5
ADF
330
9F7
100
AcDbEntity
  8
Defpoints
 62
     0
440
 16777216
100
AcDbPoint
 10
16.39556070990626
 20
78.09631743182705
 30
0.0
  0
ENDBLK
  5
9F9
330
9F7
100
AcDbEntity
  8
0
100
AcDbBlockEnd
  0
BLOCK
  5
AE2
330
AE1
100
AcDbEntity
  8
0
100
AcDbBlockBegin
  2
*D10
 70
     1
 10
0.0
 20
0.0
 30
0.0
  3
*D10
  1

  0
LINE
  5
BC0
330
AE1
100
AcDbEntity
  8
Dimension (ANSI)
440
 16777216
100
AcDbLine
 10
27.66407110479868
 20
30.97131743182705
 30
0.0
 11
8.928834884326231
 21
30.97131743182706
 31
0.0
  0
LINE
  5
BC1
330
AE1
100
AcDbEntity
  8
Dimension (ANSI)
440
 16777216
100
AcDbLine
 10
27.66407110479867
 20
78.97131743182703
 30
0.0
 11
8.928834884326242
 21
78.97131743182703
 31
0.0
  0
LINE
  5
BC2
330
AE1
100
AcDbEntity
  8
Dimension (ANSI)
440
 16777216
100
AcDbLine
 10
10.17883488432623
 20
31.95556937803792
 30
0.0
 11
10.17883488432623
 21
54.02895584080046
 31
0.0
  0
LINE
  5
BC3
330
AE1
100
AcDbEntity
  8
Dimension (ANSI)
440
 16777216
100
AcDbLine
 10
10.17883488432624
 20
77.98706548561617
 30
0.0
 11
10.17883488432623
 21
55.91367902285367
 31
0.0
  0
SOLID
  5
BC4
330
AE1
100
AcDbEntity
  8
Dimension (ANSI)
440
 16777216
100
AcDbTrace
 10
10.01479289329108
 20
31.95556937803792
 30
0.0
 11
10.34287687536137
 21
31.95556937803792
 31
0.0
 12
10.17883488432623
 22
30.97131743182706
 32
0.0
 13
10.17883488432623
 23
30.97131743182706
 33
0.0
  0
SOLID
  5
BC5
330
AE1
100
AcDbEntity
  8
Dimension (ANSI)
440
 16777216
100
AcDbTrace
 10
10.0147928932911
 20
77.98706548561617
 30
0.0
 11
10.34287687536138
 21
77.98706548561617
 31
0.0
 12
10.17883488432624
 22
78.97131743182703
 32
0.0
 13
10.17883488432624
 23
78.97131743182703
 33
0.0
  0
MTEXT
  5
BC6
330
AE1
100
AcDbEntity
  8
Dimension (ANSI)
440
 16777216
100
AcDbMText
 10
8.176551406013791
 20
55.59871839293241
 30
0.0
 40
1.200000047683715
 41
0.0
 46
0.0
 71
     1
 72
     1
  1
\A1;48.00
  7
Note Text (ANSI)
 73
     1
 44
1.0
  0
POINT
  5
BC7
330
AE1
100
AcDbEntity
  8
Defpoints
 62
     0
440
 16777216
100
AcDbPoint
 10
28.28907110479868
 20
30.97131743182705
 30
0.0
  0
POINT
  5
BC8
330
AE1
100
AcDbEntity
  8
Defpoints
 62
     0
440
 16777216
100
AcDbPoint
 10
28.28907110479867
 20
78.97131743182703
 30
0.0
  0
POINT
  5
BC9
330
AE1
100
AcDbEntity
  8
Defpoints
 62
     0
440
 16777216
100
AcDbPoint
 10
10.17883488432624
 20
78.97131743182703
 30
0.0
  0
ENDBLK
  5
AE3
330
AE1
100
AcDbEntity
  8
0
100
AcDbBlockEnd
  0
BLOCK
  5
BCC
330
BCB
100
AcDbEntity
  8
0
100
AcDbBlockBegin
  2
*D11
 70
     1
 10
0.0
 20
0.0
 30
0.0
  3
*D11
  1

  0
LINE
  5
C7D
330
BCB
100
AcDbEntity
  8
Dimension (ANSI)
440
 16777216
100
AcDbLine
 10
74.78793161868387
 20
28.85899706167881
 30
0.0
 11
73.50665639455931
 21
28.85899706167881
 31
0.0
  0
LINE
  5
C7E
330
BCB
100
AcDbEntity
  8
Dimension (ANSI)
440
 16777216
100
AcDbLine
 10
73.50665639455931
 20
28.85899706167881
 30
0.0
 11
71.97411734451645
 21
30.84435589144619
 31
0.0
  0
MTEXT
  5
C7F
330
BCB
100
AcDbEntity
  8
Dimension (ANSI)
440
 16777216
100
AcDbMText
 10
75.10289224860513
 20
28.8589970616788
 30
0.0
 40
1.200000047683715
 41
0.0
 46
0.0
 71
     4
 72
     1
  1
\A1;∅0.563{\P(8 PL.)}
  7
Note Text (ANSI)
 73
     1
 44
1.0
  0
SOLID
  5
C80
330
BCB
100
AcDbEntity
  8
Dimension (ANSI)
440
 16777216
100
AcDbTrace
 10
72.10397198666554
 20
30.94459334320504
 30
0.0
 11
71.84426270236738
 21
30.74411843968734
 31
0.0
 12
71.37269263396337
 22
31.6234837443407
 32
0.0
 13
71.37269263396337
 23
31.6234837443407
 33
0.0
  0
LINE
  5
C81
330
BCB
100
AcDbEntity
  8
Dimension (ANSI)
440
 16777216
100
AcDbLine
 10
70.30068275715038
 20
31.84631743182708
 30
0.0
 11
72.10068275715038
 21
31.84631743182706
 31
0.0
  0
LINE
  5
C82
330
BCB
100
AcDbEntity
  8
Dimension (ANSI)
440
 16777216
100
AcDbLine
 10
71.20068275715038
 20
30.94631743182707
 30
0.0
 11
71.20068275715038
 21
32.74631743182708
 31
0.0
  0
POINT
  5
C83
330
BCB
100
AcDbEntity
  8
Defpoints
 62
     0
440
 16777216
100
AcDbPoint
 10
71.37269263396337
 20
31.6234837443407
 30
0.0
  0
POINT
  5
C84
330
BCB
100
AcDbEntity
  8
Defpoints
 62
     0
440
 16777216
100
AcDbPoint
 10
71.02867288033735
 20
32.06915111931343
 30
0.0
  0
ENDBLK
  5
BCD
330
BCB
100
AcDbEntity
  8
0
100
AcDbBlockEnd
  0
BLOCK
  5
C87
330
C86
100
AcDbEntity
  8
0
100
AcDbBlockBegin
  2
*D12
 70
     1
 10
0.0
 20
0.0
 30
0.0
  3
*D12
  1

  0
LINE
  5
D85
330
C86
100
AcDbEntity
  8
Dimension (ANSI)
440
 16777216
100
AcDbLine
 10
63.7515997634192
 20
98.93856600219365
 30
0.0
 11
63.7515997634192
 21
97.95431405598279
 31
0.0
  0
LINE
  5
D86
330
C86
100
AcDbEntity
  8
Dimension (ANSI)
440
 16777216
100
AcDbLine
 10
63.7515997634192
 20
101.7820698946154
 30
0.0
 11
63.7515997634192
 21
105.0177946239105
 31
0.0
  0
LINE
  5
D87
330
C86
100
AcDbEntity
  8
Dimension (ANSI)
440
 16777216
100
AcDbLine
 10
63.7515997634192
 20
105.0177946239105
 30
0.0
 11
64.73585170963007
 21
105.0177946239105
 31
0.0
  0
SOLID
  5
D88
330
C86
100
AcDbEntity
  8
Dimension (ANSI)
440
 16777216
100
AcDbTrace
 10
63.58755777238406
 20
98.93856600219365
 30
0.0
 11
63.91564175445434
 21
98.93856600219365
 31
0.0
 12
63.7515997634192
 22
99.92281794840451
 32
0.0
 13
63.7515997634192
 23
99.92281794840451
 33
0.0
  0
SOLID
  5
D89
330
C86
100
AcDbEntity
  8
Dimension (ANSI)
440
 16777216
100
AcDbTrace
 10
63.58755777238406
 20
101.7820698946154
 30
0.0
 11
63.91564175445434
 21
101.7820698946154
 31
0.0
 12
63.7515997634192
 22
100.7978179484045
 32
0.0
 13
63.7515997634192
 23
100.7978179484045
 33
0.0
  0
MTEXT
  5
D8A
330
C86
100
AcDbEntity
  8
Dimension (ANSI)
440
 16777216
100
AcDbMText
 10
66.63603737551047
 20
105.0177946239106
 30
0.0
 40
1.200000047683715
 41
0.0
 46
0.0
 71
     5
 72
     1
  1
\A1;0.88{\PTYP.}
  7
Note Text (ANSI)
 73
     1
 44
1.0
  0
POINT
  5
D8B
330
C86
100
AcDbEntity
  8
Defpoints
 62
     0
440
 16777216
100
AcDbPoint
 10
66.63603737551047
 20
100.7978179484045
 30
0.0
  0
POINT
  5
D8C
330
C86
100
AcDbEntity
  8
Defpoints
 62
     0
440
 16777216
100
AcDbPoint
 10
66.62055091554844
 20
99.92281794840451
 30
0.0
  0
POINT
  5
D8D
330
C86
100
AcDbEntity
  8
Defpoints
 62
     0
440
 16777216
100
AcDbPoint
 10
63.7515997634192
 20
99.92281794840451
 30
0.0
  0
ENDBLK
  5
C88
330
C86
100
AcDbEntity
  8
0
100
AcDbBlockEnd
  0
BLOCK
  5
D90
330
D8F
100
AcDbEntity
  8
0
100
AcDbBlockBegin
  2
*D13
 70
     1
 10
0.0
 20
0.0
 30
0.0
  3
*D13
  1

  0
LINE
  5
E75
330
D8F
100
AcDbEntity
  8
Dimension (ANSI)
440
 16777216
100
AcDbLine
 10
92.566757012801
 20
76.51427730705974
 30
0.0
 11
91.58250506659014
 21
76.51427730705974
 31
0.0
  0
LINE
  5
E76
330
D8F
100
AcDbEntity
  8
Dimension (ANSI)
440
 16777216
100
AcDbLine
 10
95.41026090522276
 20
76.51427730705974
 30
0.0
 11
96.94855512914255
 21
76.51427730705974
 31
0.0
  0
SOLID
  5
E77
330
D8F
100
AcDbEntity
  8
Dimension (ANSI)
440
 16777216
100
AcDbTrace
 10
92.566757012801
 20
76.67831929809489
 30
0.0
 11
92.566757012801
 21
76.3502353160246
 31
0.0
 12
93.55100895901186
 22
76.51427730705974
 32
0.0
 13
93.55100895901186
 23
76.51427730705974
 33
0.0
  0
SOLID
  5
E78
330
D8F
100
AcDbEntity
  8
Dimension (ANSI)
440
 16777216
100
AcDbTrace
 10
95.41026090522276
 20
76.67831929809489
 30
0.0
 11
95.41026090522276
 21
76.3502353160246
 31
0.0
 12
94.4260089590119
 22
76.51427730705974
 32
0.0
 13
94.4260089590119
 23
76.51427730705974
 33
0.0
  0
MTEXT
  5
E79
330
D8F
100
AcDbEntity
  8
Dimension (ANSI)
440
 16777216
100
AcDbMText
 10
97.26351575906381
 20
76.51427730705974
 30
0.0
 40
1.200000047683715
 41
0.0
 46
0.0
 71
     4
 72
     1
  1
\A1;0.88{\PTYP.}
  7
Note Text (ANSI)
 73
     1
 44
1.0
  0
POINT
  5
E7A
330
D8F
100
AcDbEntity
  8
Defpoints
 62
     0
440
 16777216
100
AcDbPoint
 10
94.4260089590119
 20
76.51427730705974
 30
0.0
  0
POINT
  5
E7B
330
D8F
100
AcDbEntity
  8
Defpoints
 62
     0
440
 16777216
100
AcDbPoint
 10
93.55100895901186
 20
76.53433164446737
 30
0.0
  0
POINT
  5
E7C
330
D8F
100
AcDbEntity
  8
Defpoints
 62
     0
440
 16777216
100
AcDbPoint
 10
93.55100895901186
 20
76.51427730705974
 30
0.0
  0
ENDBLK
  5
D91
330
D8F
100
AcDbEntity
  8
0
100
AcDbBlockEnd
  0
BLOCK
  5
E82
330
E81
100
AcDbEntity
  8
0
100
AcDbBlockBegin
  2
*D14
 70
     1
 10
0.0
 20
0.0
 30
0.0
  3
*D14
  1

  0
LINE
  5
F60
330
E81
100
AcDbEntity
  8
Dimension (ANSI)
440
 16777216
100
AcDbLine
 10
28.95068275715034
 20
80.25281743182706
 30
0.0
 11
28.95068275715034
 21
88.1105411006404
 31
0.0
  0
LINE
  5
F61
330
E81
100
AcDbEntity
  8
Dimension (ANSI)
440
 16777216
100
AcDbLine
 10
71.20068275715034
 20
80.25281743182706
 30
0.0
 11
71.20068275715034
 21
88.1105411006404
 31
0.0
  0
LINE
  5
F62
330
E81
100
AcDbEntity
  8
Dimension (ANSI)
440
 16777216
100
AcDbLine
 10
29.9349347033612
 20
86.8605411006404
 30
0.0
 11
47.76810956931903
 21
86.8605411006404
 31
0.0
  0
LINE
  5
F63
330
E81
100
AcDbEntity
  8
Dimension (ANSI)
440
 16777216
100
AcDbLine
 10
70.21643081093948
 20
86.8605411006404
 30
0.0
 11
52.38325594498164
 21
86.8605411006404
 31
0.0
  0
SOLID
  5
F64
330
E81
100
AcDbEntity
  8
Dimension (ANSI)
440
 16777216
100
AcDbTrace
 10
29.9349347033612
 20
87.02458309167553
 30
0.0
 11
29.9349347033612
 21
86.69649910960524
 31
0.0
 12
28.95068275715034
 22
86.8605411006404
 32
0.0
 13
28.95068275715034
 23
86.8605411006404
 33
0.0
  0
SOLID
  5
F65
330
E81
100
AcDbEntity
  8
Dimension (ANSI)
440
 16777216
100
AcDbTrace
 10
70.21643081093948
 20
87.02458309167553
 30
0.0
 11
70.21643081093948
 21
86.69649910960524
 31
0.0
 12
71.20068275715034
 22
86.8605411006404
 32
0.0
 13
71.20068275715034
 23
86.8605411006404
 33
0.0
  0
MTEXT
  5
F66
330
E81
100
AcDbEntity
  8
Dimension (ANSI)
440
 16777216
100
AcDbMText
 10
48.08307019924029
 20
87.48552433164514
 30
0.0
 40
1.200000047683715
 41
0.0
 46
0.0
 71
     1
 72
     1
  1
\A1;42.25
  7
Note Text (ANSI)
 73
     1
 44
1.0
  0
POINT
  5
F67
330
E81
100
AcDbEntity
  8
Defpoints
 62
     0
440
 16777216
100
AcDbPoint
 10
28.95068275715034
 20
79.62781743182706
 30
0.0
  0
POINT
  5
F68
330
E81
100
AcDbEntity
  8
Defpoints
 62
     0
440
 16777216
100
AcDbPoint
 10
71.20068275715034
 20
79.62781743182706
 30
0.0
  0
POINT
  5
F69
330
E81
100
AcDbEntity
  8
Defpoints
 62
     0
440
 16777216
100
AcDbPoint
 10
71.20068275715034
 20
86.8605411006404
 30
0.0
  0
ENDBLK
  5
E83
330
E81
100
AcDbEntity
  8
0
100
AcDbBlockEnd
  0
ENDSEC
  0
SECTION
  2
ENTITIES
  0
CIRCLE
  5
11B
330
6C
100
AcDbEntity
  8
Visible (ANSI)
100
AcDbCircle
 10
50.07568275715038
 20
31.84631743182703
 30
0.0
 40
0.2814999999999999
  0
CIRCLE
  5
11C
330
6C
100
AcDbEntity
  8
Visible (ANSI)
100
AcDbCircle
 10
50.07568275715034
 20
78.09631743182703
 30
0.0
 40
0.2814999999999999
  0
CIRCLE
  5
11D
330
6C
100
AcDbEntity
  8
Visible (ANSI)
100
AcDbCircle
 10
71.20068275715036
 20
54.97131743182706
 30
0.0
 40
0.2814999999999999
  0
CIRCLE
  5
11E
330
6C
100
AcDbEntity
  8
Visible (ANSI)
100
AcDbCircle
 10
28.95068275715035
 20
54.97131743182706
 30
0.0
 40
0.2814999999999999
  0
CIRCLE
  5
11F
330
6C
100
AcDbEntity
  8
Visible (ANSI)
100
AcDbCircle
 10
71.20068275715034
 20
78.09631743182703
 30
0.0
 40
0.2814999999999999
  0
CIRCLE
  5
120
330
6C
100
AcDbEntity
  8
Visible (ANSI)
100
AcDbCircle
 10
28.95068275715034
 20
78.09631743182703
 30
0.0
 40
0.2814999999999999
  0
CIRCLE
  5
121
330
6C
100
AcDbEntity
  8
Visible (ANSI)
100
AcDbCircle
 10
28.95068275715033
 20
31.84631743182705
 30
0.0
 40
0.2814999999999999
  0
CIRCLE
  5
122
330
6C
100
AcDbEntity
  8
Visible (ANSI)
100
AcDbCircle
 10
71.20068275715034
 20
31.84631743182705
 30
0.0
 40
0.2814999999999999
  0
LINE
  5
123
330
6C
100
AcDbEntity
  8
Visible (ANSI)
100
AcDbLine
 10
72.07568275715034
 20
78.75792908417874
 30
0.0
 11
72.07568275715034
 21
31.18470577947536
 31
0.0
  0
LINE
  5
124
330
6C
100
AcDbEntity
  8
Visible (ANSI)
100
AcDbLine
 10
28.28907110479867
 20
78.97131743182704
 30
0.0
 11
71.86229440950203
 21
78.97131743182706
 31
0.0
  0
LINE
  5
125
330
6C
100
AcDbEntity
  8
Visible (ANSI)
100
AcDbLine
 10
28.07568275715036
 20
31.18470577947537
 30
0.0
 11
28.07568275715034
 21
78.75792908417873
 31
0.0
  0
LINE
  5
126
330
6C
100
AcDbEntity
  8
Visible (ANSI)
100
AcDbLine
 10
71.86229440950203
 20
30.97131743182705
 30
0.0
 11
28.28907110479868
 21
30.97131743182705
 31
0.0
  0
LINE
  5
127
330
6C
100
AcDbEntity
  8
Hidden (ANSI)
100
AcDbLine
 10
71.95068275715036
 20
31.18470577947537
 30
0.0
 11
71.95068275715034
 21
78.75792908417874
 31
0.0
  0
LINE
  5
128
330
6C
100
AcDbEntity
  8
Hidden (ANSI)
100
AcDbLine
 10
71.86229440950203
 20
78.84631743182706
 30
0.0
 11
28.28907110479866
 21
78.84631743182705
 31
0.0
  0
LINE
  5
129
330
6C
100
AcDbEntity
  8
Hidden (ANSI)
100
AcDbLine
 10
28.20068275715034
 20
78.75792908417873
 30
0.0
 11
28.20068275715035
 21
31.18470577947536
 31
0.0
  0
LINE
  5
12A
330
6C
100
AcDbEntity
  8
Hidden (ANSI)
100
AcDbLine
 10
28.28907110479868
 20
31.09631743182705
 30
0.0
 11
71.86229440950203
 21
31.09631743182705
 31
0.0
  0
POLYLINE
  5
12B
330
6C
100
AcDbEntity
  8
Visible (ANSI)
100
AcDb2dPolyline
 66
     1
 10
0.0
 20
0.0
 30
0.0
 70
   128
  0
VERTEX
  5
12C
330
12B
100
AcDbEntity
  8
Visible (ANSI)
100
AcDbVertex
100
AcDb2dVertex
 10
71.9194341989257
 20
78.8150673116791
 30
0.0
  0
VERTEX
  5
12D
330
12B
100
AcDbEntity
  8
Visible (ANSI)
100
AcDbVertex
100
AcDb2dVertex
 10
71.92965278167974
 20
78.81268537866207
 30
0.0
  0
VERTEX
  5
12F
330
12B
100
AcDbEntity
  8
Visible (ANSI)
100
AcDbVertex
100
AcDb2dVertex
 10
71.9398263089543
 20
78.81030644934366
 30
0.0
  0
VERTEX
  5
130
330
12B
100
AcDbEntity
  8
Visible (ANSI)
100
AcDbVertex
100
AcDb2dVertex
 10
71.94991573266708
 20
78.80792451632662
 30
0.0
  0
VERTEX
  5
131
330
12B
100
AcDbEntity
  8
Visible (ANSI)
100
AcDbVertex
100
AcDb2dVertex
 10
71.95987299363995
 20
78.80554558700821
 30
0.0
  0
VERTEX
  5
132
330
12B
100
AcDbEntity
  8
Visible (ANSI)
100
AcDbVertex
100
AcDb2dVertex
 10
71.96965904379067
 20
78.80316365399117
 30
0.0
  0
VERTEX
  5
133
330
12B
100
AcDbEntity
  8
Visible (ANSI)
100
AcDbVertex
100
AcDb2dVertex
 10
71.97922582394108
 20
78.80078172097412
 30
0.0
  0
VERTEX
  5
134
330
12B
100
AcDbEntity
  8
Visible (ANSI)
100
AcDbVertex
100
AcDb2dVertex
 10
71.98854029340619
 20
78.79840279165573
 30
0.0
  0
VERTEX
  5
135
330
12B
100
AcDbEntity
  8
Visible (ANSI)
100
AcDbVertex
100
AcDb2dVertex
 10
71.99755739670651
 20
78.79602085863869
 30
0.0
  0
VERTEX
  5
136
330
12B
100
AcDbEntity
  8
Visible (ANSI)
100
AcDbVertex
100
AcDb2dVertex
 10
72.00624108945842
 20
78.79364192932029
 30
0.0
  0
VERTEX
  5
137
330
12B
100
AcDbEntity
  8
Visible (ANSI)
100
AcDbVertex
100
AcDb2dVertex
 10
72.01455232357966
 20
78.79125999630324
 30
0.0
  0
VERTEX
  5
138
330
12B
100
AcDbEntity
  8
Visible (ANSI)
100
AcDbVertex
100
AcDb2dVertex
 10
72.02245505468664
 20
78.7888780632862
 30
0.0
  0
VERTEX
  5
139
330
12B
100
AcDbEntity
  8
Visible (ANSI)
100
AcDbVertex
100
AcDb2dVertex
 10
72.029919245793
 20
78.78649913396779
 30
0.0
  0
VERTEX
  5
13A
330
12B
100
AcDbEntity
  8
Visible (ANSI)
100
AcDbVertex
100
AcDb2dVertex
 10
72.03690885251514
 20
78.78411720095076
 30
0.0
  0
VERTEX
  5
13B
330
12B
100
AcDbEntity
  8
Visible (ANSI)
100
AcDbVertex
100
AcDb2dVertex
 10
72.0433938378667
 20
78.78173526793372
 30
0.0
  0
VERTEX
  5
13C
330
12B
100
AcDbEntity
  8
Visible (ANSI)
100
AcDbVertex
100
AcDb2dVertex
 10
72.04935017225861
 20
78.77935633861532
 30
0.0
  0
VERTEX
  5
13D
330
12B
100
AcDbEntity
  8
Visible (ANSI)
100
AcDbVertex
100
AcDb2dVertex
 10
72.05474781870454
 20
78.77697440559828
 30
0.0
  0
VERTEX
  5
13E
330
12B
100
AcDbEntity
  8
Visible (ANSI)
100
AcDbVertex
100
AcDb2dVertex
 10
72.05956875501268
 20
78.77459547627987
 30
0.0
  0
VERTEX
  5
13F
330
12B
100
AcDbEntity
  8
Visible (ANSI)
100
AcDbVertex
100
AcDb2dVertex
 10
72.06378895159393
 20
78.77221354326284
 30
0.0
  0
VERTEX
  5
140
330
12B
100
AcDbEntity
  8
Visible (ANSI)
100
AcDbVertex
100
AcDb2dVertex
 10
72.06739038625652
 20
78.76983161024579
 30
0.0
  0
VERTEX
  5
141
330
12B
100
AcDbEntity
  8
Visible (ANSI)
100
AcDbVertex
100
AcDb2dVertex
 10
72.07035804050727
 20
78.76745268092739
 30
0.0
  0
VERTEX
  5
142
330
12B
100
AcDbEntity
  8
Visible (ANSI)
100
AcDbVertex
100
AcDb2dVertex
 10
72.07267989955162
 20
78.76507074791034
 30
0.0
  0
VERTEX
  5
143
330
12B
100
AcDbEntity
  8
Visible (ANSI)
100
AcDbVertex
100
AcDb2dVertex
 10
72.07434695229368
 20
78.76269181859195
 30
0.0
  0
VERTEX
  5
144
330
12B
100
AcDbEntity
  8
Visible (ANSI)
100
AcDbVertex
100
AcDb2dVertex
 10
72.07534718393891
 20
78.7603098855749
 30
0.0
  0
VERTEX
  5
145
330
12B
100
AcDbEntity
  8
Visible (ANSI)
100
AcDbVertex
100
AcDb2dVertex
 10
72.07568359818598
 20
78.75792795255787
 30
0.0
  0
SEQEND
  5
12E
330
12B
100
AcDbEntity
  8
Visible (ANSI)
  0
POLYLINE
  5
146
330
6C
100
AcDbEntity
  8
Visible (ANSI)
100
AcDb2dPolyline
 66
     1
 10
0.0
 20
0.0
 30
0.0
 70
   128
  0
VERTEX
  5
147
330
146
100
AcDbEntity
  8
Visible (ANSI)
100
AcDbVertex
100
AcDb2dVertex
 10
72.07568359818598
 20
31.18470576781345
 30
0.0
  0
VERTEX
  5
148
330
146
100
AcDbEntity
  8
Visible (ANSI)
100
AcDbVertex
100
AcDb2dVertex
 10
72.07534718393891
 20
31.18232500811619
 30
0.0
  0
VERTEX
  5
14A
330
146
100
AcDbEntity
  8
Visible (ANSI)
100
AcDbVertex
100
AcDb2dVertex
 10
72.07434695229368
 20
31.17994424841893
 30
0.0
  0
VERTEX
  5
14B
330
146
100
AcDbEntity
  8
Visible (ANSI)
100
AcDbVertex
100
AcDb2dVertex
 10
72.07267989955162
 20
31.17756348872167
 30
0.0
  0
VERTEX
  5
14C
330
146
100
AcDbEntity
  8
Visible (ANSI)
100
AcDbVertex
100
AcDb2dVertex
 10
72.07035804050727
 20
31.17518272902441
 30
0.0
  0
VERTEX
  5
14D
330
146
100
AcDbEntity
  8
Visible (ANSI)
100
AcDbVertex
100
AcDb2dVertex
 10
72.06739038625652
 20
31.17280194586075
 30
0.0
  0
VERTEX
  5
14E
330
146
100
AcDbEntity
  8
Visible (ANSI)
100
AcDbVertex
100
AcDb2dVertex
 10
72.06378895159393
 20
31.17042118616349
 30
0.0
  0
VERTEX
  5
14F
330
146
100
AcDbEntity
  8
Visible (ANSI)
100
AcDbVertex
100
AcDb2dVertex
 10
72.05956875501268
 20
31.16804042646623
 30
0.0
  0
VERTEX
  5
150
330
146
100
AcDbEntity
  8
Visible (ANSI)
100
AcDbVertex
100
AcDb2dVertex
 10
72.05474781870454
 20
31.16565966676897
 30
0.0
  0
VERTEX
  5
151
330
146
100
AcDbEntity
  8
Visible (ANSI)
100
AcDbVertex
100
AcDb2dVertex
 10
72.04935017225861
 20
31.16327889533851
 30
0.0
  0
VERTEX
  5
152
330
146
100
AcDbEntity
  8
Visible (ANSI)
100
AcDbVertex
100
AcDb2dVertex
 10
72.0433938378667
 20
31.16089813564125
 30
0.0
  0
VERTEX
  5
153
330
146
100
AcDbEntity
  8
Visible (ANSI)
100
AcDbVertex
100
AcDb2dVertex
 10
72.03690885251514
 20
31.15851737594399
 30
0.0
  0
VERTEX
  5
154
330
146
100
AcDbEntity
  8
Visible (ANSI)
100
AcDbVertex
100
AcDb2dVertex
 10
72.029919245793
 20
31.15613660451353
 30
0.0
  0
VERTEX
  5
155
330
146
100
AcDbEntity
  8
Visible (ANSI)
100
AcDbVertex
100
AcDb2dVertex
 10
72.02245505468664
 20
31.15375584481627
 30
0.0
  0
VERTEX
  5
156
330
146
100
AcDbEntity
  8
Visible (ANSI)
100
AcDbVertex
100
AcDb2dVertex
 10
72.01455232357966
 20
31.15137507338581
 30
0.0
  0
VERTEX
  5
157
330
146
100
AcDbEntity
  8
Visible (ANSI)
100
AcDbVertex
100
AcDb2dVertex
 10
72.00624108945842
 20
31.14899431368855
 30
0.0
  0
VERTEX
  5
158
330
146
100
AcDbEntity
  8
Visible (ANSI)
100
AcDbVertex
100
AcDb2dVertex
 10
71.99755739670651
 20
31.14661354225809
 30
0.0
  0
VERTEX
  5
159
330
146
100
AcDbEntity
  8
Visible (ANSI)
100
AcDbVertex
100
AcDb2dVertex
 10
71.98854029340619
 20
31.14423278256083
 30
0.0
  0
VERTEX
  5
15A
330
146
100
AcDbEntity
  8
Visible (ANSI)
100
AcDbVertex
100
AcDb2dVertex
 10
71.97922582394108
 20
31.14185202286357
 30
0.0
  0
VERTEX
  5
15B
330
146
100
AcDbEntity
  8
Visible (ANSI)
100
AcDbVertex
100
AcDb2dVertex
 10
71.96965904379067
 20
31.13947125143311
 30
0.0
  0
VERTEX
  5
15C
330
146
100
AcDbEntity
  8
Visible (ANSI)
100
AcDbVertex
100
AcDb2dVertex
 10
71.95987299363995
 20
31.13709049173585
 30
0.0
  0
VERTEX
  5
15D
330
146
100
AcDbEntity
  8
Visible (ANSI)
100
AcDbVertex
100
AcDb2dVertex
 10
71.94991573266708
 20
31.13470972030539
 30
0.0
  0
VERTEX
  5
15E
330
146
100
AcDbEntity
  8
Visible (ANSI)
100
AcDbVertex
100
AcDb2dVertex
 10
71.9398263089543
 20
31.13232896060813
 30
0.0
  0
VERTEX
  5
15F
330
146
100
AcDbEntity
  8
Visible (ANSI)
100
AcDbVertex
100
AcDb2dVertex
 10
71.92965278167974
 20
31.12994820091087
 30
0.0
  0
VERTEX
  5
160
330
146
100
AcDbEntity
  8
Visible (ANSI)
100
AcDbVertex
100
AcDb2dVertex
 10
71.9194341989257
 20
31.12756742948041
 30
0.0
  0
SEQEND
  5
149
330
146
100
AcDbEntity
  8
Visible (ANSI)
  0
POLYLINE
  5
161
330
6C
100
AcDbEntity
  8
Visible (ANSI)
100
AcDb2dPolyline
 66
     1
 10
0.0
 20
0.0
 30
0.0
 70
   128
  0
VERTEX
  5
162
330
161
100
AcDbEntity
  8
Visible (ANSI)
100
AcDbVertex
100
AcDb2dVertex
 10
28.23193275480371
 20
78.8150673116791
 30
0.0
  0
VERTEX
  5
163
330
161
100
AcDbEntity
  8
Visible (ANSI)
100
AcDbVertex
100
AcDb2dVertex
 10
28.23431352623417
 20
78.82528589443317
 30
0.0
  0
VERTEX
  5
165
330
161
100
AcDbEntity
  8
Visible (ANSI)
100
AcDbVertex
100
AcDb2dVertex
 10
28.23669428593143
 20
78.83546242540633
 30
0.0
  0
VERTEX
  5
166
330
161
100
AcDbEntity
  8
Visible (ANSI)
100
AcDbVertex
100
AcDb2dVertex
 10
28.23907504562869
 20
78.84554884542049
 30
0.0
  0
VERTEX
  5
167
330
161
100
AcDbEntity
  8
Visible (ANSI)
100
AcDbVertex
100
AcDb2dVertex
 10
28.24145581705915
 20
78.85550911009199
 30
0.0
  0
VERTEX
  5
168
330
161
100
AcDbEntity
  8
Visible (ANSI)
100
AcDbVertex
100
AcDb2dVertex
 10
28.24383657675641
 20
78.86529215654407
 30
0.0
  0
VERTEX
  5
169
330
161
100
AcDbEntity
  8
Visible (ANSI)
100
AcDbVertex
100
AcDb2dVertex
 10
28.24621734818687
 20
78.87486194039311
 30
0.0
  0
VERTEX
  5
16A
330
161
100
AcDbEntity
  8
Visible (ANSI)
100
AcDbVertex
100
AcDb2dVertex
 10
28.24859810788413
 20
78.88417640985824
 30
0.0
  0
VERTEX
  5
16B
330
161
100
AcDbEntity
  8
Visible (ANSI)
100
AcDbVertex
100
AcDb2dVertex
 10
28.25097886758139
 20
78.89319351315855
 30
0.0
  0
VERTEX
  5
16C
330
161
100
AcDbEntity
  8
Visible (ANSI)
100
AcDbVertex
100
AcDb2dVertex
 10
28.25335963901185
 20
78.90187420221183
 30
0.0
  0
VERTEX
  5
16D
330
161
100
AcDbEntity
  8
Visible (ANSI)
100
AcDbVertex
100
AcDb2dVertex
 10
28.25574039870911
 20
78.91018543633308
 30
0.0
  0
VERTEX
  5
16E
330
161
100
AcDbEntity
  8
Visible (ANSI)
100
AcDbVertex
100
AcDb2dVertex
 10
28.25812117013957
 20
78.91809117113869
 30
0.0
  0
VERTEX
  5
16F
330
161
100
AcDbEntity
  8
Visible (ANSI)
100
AcDbVertex
100
AcDb2dVertex
 10
28.26050192983683
 20
78.92555235854641
 30
0.0
  0
VERTEX
  5
170
330
161
100
AcDbEntity
  8
Visible (ANSI)
100
AcDbVertex
100
AcDb2dVertex
 10
28.26288270126729
 20
78.93254196526854
 30
0.0
  0
VERTEX
  5
171
330
161
100
AcDbEntity
  8
Visible (ANSI)
100
AcDbVertex
100
AcDb2dVertex
 10
28.26526346096455
 20
78.93902995431874
 30
0.0
  0
VERTEX
  5
172
330
161
100
AcDbEntity
  8
Visible (ANSI)
100
AcDbVertex
100
AcDb2dVertex
 10
28.26764422066181
 20
78.94498328501203
 30
0.0
  0
VERTEX
  5
173
330
161
100
AcDbEntity
  8
Visible (ANSI)
100
AcDbVertex
100
AcDb2dVertex
 10
28.27002499209227
 20
78.95038393515658
 30
0.0
  0
VERTEX
  5
174
330
161
100
AcDbEntity
  8
Visible (ANSI)
100
AcDbVertex
100
AcDb2dVertex
 10
28.27240575178953
 20
78.95520487146471
 30
0.0
  0
VERTEX
  5
175
330
161
100
AcDbEntity
  8
Visible (ANSI)
100
AcDbVertex
100
AcDb2dVertex
 10
28.27478651148679
 20
78.95942506804598
 30
0.0
  0
VERTEX
  5
176
330
161
100
AcDbEntity
  8
Visible (ANSI)
100
AcDbVertex
100
AcDb2dVertex
 10
28.27716727118406
 20
78.96302650270856
 30
0.0
  0
VERTEX
  5
177
330
161
100
AcDbEntity
  8
Visible (ANSI)
100
AcDbVertex
100
AcDb2dVertex
 10
28.27954805434771
 20
78.96599415695931
 30
0.0
  0
VERTEX
  5
178
330
161
100
AcDbEntity
  8
Visible (ANSI)
100
AcDbVertex
100
AcDb2dVertex
 10
28.28192881404497
 20
78.96831601600365
 30
0.0
  0
VERTEX
  5
179
330
161
100
AcDbEntity
  8
Visible (ANSI)
100
AcDbVertex
100
AcDb2dVertex
 10
28.28430957374223
 20
78.96998006504708
 30
0.0
  0
VERTEX
  5
17A
330
161
100
AcDbEntity
  8
Visible (ANSI)
100
AcDbVertex
100
AcDb2dVertex
 10
28.28669033343949
 20
78.97098330039097
 30
0.0
  0
VERTEX
  5
17B
330
161
100
AcDbEntity
  8
Visible (ANSI)
100
AcDbVertex
100
AcDb2dVertex
 10
28.28907109313675
 20
78.97131671093937
 30
0.0
  0
SEQEND
  5
164
330
161
100
AcDbEntity
  8
Visible (ANSI)
  0
POLYLINE
  5
17C
330
6C
100
AcDbEntity
  8
Visible (ANSI)
100
AcDb2dPolyline
 66
     1
 10
0.0
 20
0.0
 30
0.0
 70
   128
  0
VERTEX
  5
17D
330
17C
100
AcDbEntity
  8
Visible (ANSI)
100
AcDbVertex
100
AcDb2dVertex
 10
71.86229483980445
 20
78.97131671093937
 30
0.0
  0
VERTEX
  5
17E
330
17C
100
AcDbEntity
  8
Visible (ANSI)
100
AcDbVertex
100
AcDb2dVertex
 10
71.86467376912286
 20
78.97098330039097
 30
0.0
  0
VERTEX
  5
180
330
17C
100
AcDbEntity
  8
Visible (ANSI)
100
AcDbVertex
100
AcDb2dVertex
 10
71.86705570213989
 20
78.96998006504708
 30
0.0
  0
VERTEX
  5
181
330
17C
100
AcDbEntity
  8
Visible (ANSI)
100
AcDbVertex
100
AcDb2dVertex
 10
71.86943763515694
 20
78.96831601600365
 30
0.0
  0
VERTEX
  5
182
330
17C
100
AcDbEntity
  8
Visible (ANSI)
100
AcDbVertex
100
AcDb2dVertex
 10
71.87181656447534
 20
78.96599415695931
 30
0.0
  0
VERTEX
  5
183
330
17C
100
AcDbEntity
  8
Visible (ANSI)
100
AcDbVertex
100
AcDb2dVertex
 10
71.87419849749239
 20
78.96302650270856
 30
0.0
  0
VERTEX
  5
184
330
17C
100
AcDbEntity
  8
Visible (ANSI)
100
AcDbVertex
100
AcDb2dVertex
 10
71.87658043050942
 20
78.95942506804598
 30
0.0
  0
VERTEX
  5
185
330
17C
100
AcDbEntity
  8
Visible (ANSI)
100
AcDbVertex
100
AcDb2dVertex
 10
71.87895935982783
 20
78.95520487146471
 30
0.0
  0
VERTEX
  5
186
330
17C
100
AcDbEntity
  8
Visible (ANSI)
100
AcDbVertex
100
AcDb2dVertex
 10
71.88134129284486
 20
78.95038393515658
 30
0.0
  0
VERTEX
  5
187
330
17C
100
AcDbEntity
  8
Visible (ANSI)
100
AcDbVertex
100
AcDb2dVertex
 10
71.88372022216327
 20
78.94498328501203
 30
0.0
  0
VERTEX
  5
188
330
17C
100
AcDbEntity
  8
Visible (ANSI)
100
AcDbVertex
100
AcDb2dVertex
 10
71.88610215518031
 20
78.93902995431874
 30
0.0
  0
VERTEX
  5
189
330
17C
100
AcDbEntity
  8
Visible (ANSI)
100
AcDbVertex
100
AcDb2dVertex
 10
71.88848408819736
 20
78.93254196526854
 30
0.0
  0
VERTEX
  5
18A
330
17C
100
AcDbEntity
  8
Visible (ANSI)
100
AcDbVertex
100
AcDb2dVertex
 10
71.89086301751576
 20
78.92555235854641
 30
0.0
  0
VERTEX
  5
18B
330
17C
100
AcDbEntity
  8
Visible (ANSI)
100
AcDbVertex
100
AcDb2dVertex
 10
71.89324495053281
 20
78.91809117113869
 30
0.0
  0
VERTEX
  5
18C
330
17C
100
AcDbEntity
  8
Visible (ANSI)
100
AcDbVertex
100
AcDb2dVertex
 10
71.8956238798512
 20
78.91018543633308
 30
0.0
  0
VERTEX
  5
18D
330
17C
100
AcDbEntity
  8
Visible (ANSI)
100
AcDbVertex
100
AcDb2dVertex
 10
71.89800581286824
 20
78.90187420221183
 30
0.0
  0
VERTEX
  5
18E
330
17C
100
AcDbEntity
  8
Visible (ANSI)
100
AcDbVertex
100
AcDb2dVertex
 10
71.90038774588528
 20
78.89319351315855
 30
0.0
  0
VERTEX
  5
18F
330
17C
100
AcDbEntity
  8
Visible (ANSI)
100
AcDbVertex
100
AcDb2dVertex
 10
71.90276667520369
 20
78.88417640985824
 30
0.0
  0
VERTEX
  5
190
330
17C
100
AcDbEntity
  8
Visible (ANSI)
100
AcDbVertex
100
AcDb2dVertex
 10
71.90514860822073
 20
78.87486194039311
 30
0.0
  0
VERTEX
  5
191
330
17C
100
AcDbEntity
  8
Visible (ANSI)
100
AcDbVertex
100
AcDb2dVertex
 10
71.90752753753914
 20
78.86529215654407
 30
0.0
  0
VERTEX
  5
192
330
17C
100
AcDbEntity
  8
Visible (ANSI)
100
AcDbVertex
100
AcDb2dVertex
 10
71.90990947055617
 20
78.85550911009199
 30
0.0
  0
VERTEX
  5
193
330
17C
100
AcDbEntity
  8
Visible (ANSI)
100
AcDbVertex
100
AcDb2dVertex
 10
71.91229140357321
 20
78.84554884542049
 30
0.0
  0
VERTEX
  5
194
330
17C
100
AcDbEntity
  8
Visible (ANSI)
100
AcDbVertex
100
AcDb2dVertex
 10
71.91467033289161
 20
78.83546242540633
 30
0.0
  0
VERTEX
  5
195
330
17C
100
AcDbEntity
  8
Visible (ANSI)
100
AcDbVertex
100
AcDb2dVertex
 10
71.91705226590865
 20
78.82528589443317
 30
0.0
  0
VERTEX
  5
196
330
17C
100
AcDbEntity
  8
Visible (ANSI)
100
AcDbVertex
100
AcDb2dVertex
 10
71.9194341989257
 20
78.8150673116791
 30
0.0
  0
SEQEND
  5
17F
330
17C
100
AcDbEntity
  8
Visible (ANSI)
  0
POLYLINE
  5
197
330
6C
100
AcDbEntity
  8
Visible (ANSI)
100
AcDb2dPolyline
 66
     1
 10
0.0
 20
0.0
 30
0.0
 70
   128
  0
VERTEX
  5
198
330
197
100
AcDbEntity
  8
Visible (ANSI)
100
AcDbVertex
100
AcDb2dVertex
 10
28.23193275480371
 20
31.12756742948041
 30
0.0
  0
VERTEX
  5
199
330
197
100
AcDbEntity
  8
Visible (ANSI)
100
AcDbVertex
100
AcDb2dVertex
 10
28.22171351499058
 20
31.12994820091087
 30
0.0
  0
VERTEX
  5
19B
330
197
100
AcDbEntity
  8
Visible (ANSI)
100
AcDbVertex
100
AcDb2dVertex
 10
28.2115380400052
 20
31.13232896060813
 30
0.0
  0
VERTEX
  5
19C
330
197
100
AcDbEntity
  8
Visible (ANSI)
100
AcDbVertex
100
AcDb2dVertex
 10
28.20144989521097
 20
31.13470972030539
 30
0.0
  0
VERTEX
  5
19D
330
197
100
AcDbEntity
  8
Visible (ANSI)
100
AcDbVertex
100
AcDb2dVertex
 10
28.19149228224217
 20
31.13709049173585
 30
0.0
  0
VERTEX
  5
19E
330
197
100
AcDbEntity
  8
Visible (ANSI)
100
AcDbVertex
100
AcDb2dVertex
 10
28.18170783953956
 20
31.13947125143311
 30
0.0
  0
VERTEX
  5
19F
330
197
100
AcDbEntity
  8
Visible (ANSI)
100
AcDbVertex
100
AcDb2dVertex
 10
28.17213847221904
 20
31.14185202286357
 30
0.0
  0
VERTEX
  5
1A0
330
197
100
AcDbEntity
  8
Visible (ANSI)
100
AcDbVertex
100
AcDb2dVertex
 10
28.1628251467407
 20
31.14423278256083
 30
0.0
  0
VERTEX
  5
1A1
330
197
100
AcDbEntity
  8
Visible (ANSI)
100
AcDbVertex
100
AcDb2dVertex
 10
28.15380775597704
 20
31.14661354225809
 30
0.0
  0
VERTEX
  5
1A2
330
197
100
AcDbEntity
  8
Visible (ANSI)
100
AcDbVertex
100
AcDb2dVertex
 10
28.14512490801537
 20
31.14899431368855
 30
0.0
  0
VERTEX
  5
1A3
330
197
100
AcDbEntity
  8
Visible (ANSI)
100
AcDbVertex
100
AcDb2dVertex
 10
28.1368137853595
 20
31.15137507338581
 30
0.0
  0
VERTEX
  5
1A4
330
197
100
AcDbEntity
  8
Visible (ANSI)
100
AcDbVertex
100
AcDb2dVertex
 10
28.12890997479833
 20
31.15375584481627
 30
0.0
  0
VERTEX
  5
1A5
330
197
100
AcDbEntity
  8
Visible (ANSI)
100
AcDbVertex
100
AcDb2dVertex
 10
28.12144732367418
 20
31.15613660451353
 30
0.0
  0
VERTEX
  5
1A6
330
197
100
AcDbEntity
  8
Visible (ANSI)
100
AcDbVertex
100
AcDb2dVertex
 10
28.11445778735123
 20
31.15851737594399
 30
0.0
  0
VERTEX
  5
1A7
330
197
100
AcDbEntity
  8
Visible (ANSI)
100
AcDbVertex
100
AcDb2dVertex
 10
28.10797129721705
 20
31.16089813564125
 30
0.0
  0
VERTEX
  5
1A8
330
197
100
AcDbEntity
  8
Visible (ANSI)
100
AcDbVertex
100
AcDb2dVertex
 10
28.1020156316174
 20
31.16327889533851
 30
0.0
  0
VERTEX
  5
1A9
330
197
100
AcDbEntity
  8
Visible (ANSI)
100
AcDbVertex
100
AcDb2dVertex
 10
28.09661628825775
 20
31.16565966676897
 30
0.0
  0
VERTEX
  5
1AA
330
197
100
AcDbEntity
  8
Visible (ANSI)
100
AcDbVertex
100
AcDb2dVertex
 10
28.09179639180427
 20
31.16804042646623
 30
0.0
  0
VERTEX
  5
1AB
330
197
100
AcDbEntity
  8
Visible (ANSI)
100
AcDbVertex
100
AcDb2dVertex
 10
28.08757658021856
 20
31.17042118616349
 30
0.0
  0
VERTEX
  5
1AC
330
197
100
AcDbEntity
  8
Visible (ANSI)
100
AcDbVertex
100
AcDb2dVertex
 10
28.08397492409186
 20
31.17280194586075
 30
0.0
  0
VERTEX
  5
1AD
330
197
100
AcDbEntity
  8
Visible (ANSI)
100
AcDbVertex
100
AcDb2dVertex
 10
28.08100684671268
 20
31.17518272902441
 30
0.0
  0
VERTEX
  5
1AE
330
197
100
AcDbEntity
  8
Visible (ANSI)
100
AcDbVertex
100
AcDb2dVertex
 10
28.07868505715086
 20
31.17756348872167
 30
0.0
  0
VERTEX
  5
1AF
330
197
100
AcDbEntity
  8
Visible (ANSI)
100
AcDbVertex
100
AcDb2dVertex
 10
28.07701949754988
 20
31.17994424841893
 30
0.0
  0
VERTEX
  5
1B0
330
197
100
AcDbEntity
  8
Visible (ANSI)
100
AcDbVertex
100
AcDb2dVertex
 10
28.07601730038776
 20
31.18232500811619
 30
0.0
  0
VERTEX
  5
1B1
330
197
100
AcDbEntity
  8
Visible (ANSI)
100
AcDbVertex
100
AcDb2dVertex
 10
28.07568275715036
 20
31.18470576781345
 30
0.0
  0
SEQEND
  5
19A
330
197
100
AcDbEntity
  8
Visible (ANSI)
  0
POLYLINE
  5
1B2
330
6C
100
AcDbEntity
  8
Visible (ANSI)
100
AcDb2dPolyline
 66
     1
 10
0.0
 20
0.0
 30
0.0
 70
   128
  0
VERTEX
  5
1B3
330
1B2
100
AcDbEntity
  8
Visible (ANSI)
100
AcDbVertex
100
AcDb2dVertex
 10
28.07568275715034
 20
78.75792795255787
 30
0.0
  0
VERTEX
  5
1B4
330
1B2
100
AcDbEntity
  8
Visible (ANSI)
100
AcDbVertex
100
AcDb2dVertex
 10
28.07601730038776
 20
78.7603098855749
 30
0.0
  0
VERTEX
  5
1B6
330
1B2
100
AcDbEntity
  8
Visible (ANSI)
100
AcDbVertex
100
AcDb2dVertex
 10
28.07701949754988
 20
78.76269181859195
 30
0.0
  0
VERTEX
  5
1B7
330
1B2
100
AcDbEntity
  8
Visible (ANSI)
100
AcDbVertex
100
AcDb2dVertex
 10
28.07868505715086
 20
78.76507074791034
 30
0.0
  0
VERTEX
  5
1B8
330
1B2
100
AcDbEntity
  8
Visible (ANSI)
100
AcDbVertex
100
AcDb2dVertex
 10
28.08100684671268
 20
78.76745268092739
 30
0.0
  0
VERTEX
  5
1B9
330
1B2
100
AcDbEntity
  8
Visible (ANSI)
100
AcDbVertex
100
AcDb2dVertex
 10
28.08397492409186
 20
78.76983161024579
 30
0.0
  0
VERTEX
  5
1BA
330
1B2
100
AcDbEntity
  8
Visible (ANSI)
100
AcDbVertex
100
AcDb2dVertex
 10
28.08757658021856
 20
78.77221354326284
 30
0.0
  0
VERTEX
  5
1BB
330
1B2
100
AcDbEntity
  8
Visible (ANSI)
100
AcDbVertex
100
AcDb2dVertex
 10
28.09179639180427
 20
78.77459547627987
 30
0.0
  0
VERTEX
  5
1BC
330
1B2
100
AcDbEntity
  8
Visible (ANSI)
100
AcDbVertex
100
AcDb2dVertex
 10
28.09661628825775
 20
78.77697440559828
 30
0.0
  0
VERTEX
  5
1BD
330
1B2
100
AcDbEntity
  8
Visible (ANSI)
100
AcDbVertex
100
AcDb2dVertex
 10
28.1020156316174
 20
78.77935633861532
 30
0.0
  0
VERTEX
  5
1BE
330
1B2
100
AcDbEntity
  8
Visible (ANSI)
100
AcDbVertex
100
AcDb2dVertex
 10
28.10797129721705
 20
78.78173526793372
 30
0.0
  0
VERTEX
  5
1BF
330
1B2
100
AcDbEntity
  8
Visible (ANSI)
100
AcDbVertex
100
AcDb2dVertex
 10
28.11445778735123
 20
78.78411720095076
 30
0.0
  0
VERTEX
  5
1C0
330
1B2
100
AcDbEntity
  8
Visible (ANSI)
100
AcDbVertex
100
AcDb2dVertex
 10
28.12144732367418
 20
78.78649913396779
 30
0.0
  0
VERTEX
  5
1C1
330
1B2
100
AcDbEntity
  8
Visible (ANSI)
100
AcDbVertex
100
AcDb2dVertex
 10
28.12890997479833
 20
78.7888780632862
 30
0.0
  0
VERTEX
  5
1C2
330
1B2
100
AcDbEntity
  8
Visible (ANSI)
100
AcDbVertex
100
AcDb2dVertex
 10
28.1368137853595
 20
78.79125999630324
 30
0.0
  0
VERTEX
  5
1C3
330
1B2
100
AcDbEntity
  8
Visible (ANSI)
100
AcDbVertex
100
AcDb2dVertex
 10
28.14512490801537
 20
78.79364192932029
 30
0.0
  0
VERTEX
  5
1C4
330
1B2
100
AcDbEntity
  8
Visible (ANSI)
100
AcDbVertex
100
AcDb2dVertex
 10
28.15380775597704
 20
78.79602085863869
 30
0.0
  0
VERTEX
  5
1C5
330
1B2
100
AcDbEntity
  8
Visible (ANSI)
100
AcDbVertex
100
AcDb2dVertex
 10
28.1628251467407
 20
78.79840279165573
 30
0.0
  0
VERTEX
  5
1C6
330
1B2
100
AcDbEntity
  8
Visible (ANSI)
100
AcDbVertex
100
AcDb2dVertex
 10
28.17213847221904
 20
78.80078172097412
 30
0.0
  0
VERTEX
  5
1C7
330
1B2
100
AcDbEntity
  8
Visible (ANSI)
100
AcDbVertex
100
AcDb2dVertex
 10
28.18170783953956
 20
78.80316365399117
 30
0.0
  0
VERTEX
  5
1C8
330
1B2
100
AcDbEntity
  8
Visible (ANSI)
100
AcDbVertex
100
AcDb2dVertex
 10
28.19149228224217
 20
78.80554558700821
 30
0.0
  0
VERTEX
  5
1C9
330
1B2
100
AcDbEntity
  8
Visible (ANSI)
100
AcDbVertex
100
AcDb2dVertex
 10
28.20144989521097
 20
78.80792451632662
 30
0.0
  0
VERTEX
  5
1CA
330
1B2
100
AcDbEntity
  8
Visible (ANSI)
100
AcDbVertex
100
AcDb2dVertex
 10
28.2115380400052
 20
78.81030644934366
 30
0.0
  0
VERTEX
  5
1CB
330
1B2
100
AcDbEntity
  8
Visible (ANSI)
100
AcDbVertex
100
AcDb2dVertex
 10
28.22171351499058
 20
78.81268537866207
 30
0.0
  0
VERTEX
  5
1CC
330
1B2
100
AcDbEntity
  8
Visible (ANSI)
100
AcDbVertex
100
AcDb2dVertex
 10
28.23193275480371
 20
78.8150673116791
 30
0.0
  0
SEQEND
  5
1B5
330
1B2
100
AcDbEntity
  8
Visible (ANSI)
  0
POLYLINE
  5
1CD
330
6C
100
AcDbEntity
  8
Visible (ANSI)
100
AcDb2dPolyline
 66
     1
 10
0.0
 20
0.0
 30
0.0
 70
   128
  0
VERTEX
  5
1CE
330
1CD
100
AcDbEntity
  8
Visible (ANSI)
100
AcDbVertex
100
AcDb2dVertex
 10
71.9194341989257
 20
31.12756742948041
 30
0.0
  0
VERTEX
  5
1CF
330
1CD
100
AcDbEntity
  8
Visible (ANSI)
100
AcDbVertex
100
AcDb2dVertex
 10
71.91705226590865
 20
31.11734818966727
 30
0.0
  0
VERTEX
  5
1D1
330
1CD
100
AcDbEntity
  8
Visible (ANSI)
100
AcDbVertex
100
AcDb2dVertex
 10
71.91467033289161
 20
31.10717271468189
 30
0.0
  0
VERTEX
  5
1D2
330
1CD
100
AcDbEntity
  8
Visible (ANSI)
100
AcDbVertex
100
AcDb2dVertex
 10
71.91229140357321
 20
31.09708456988767
 30
0.0
  0
VERTEX
  5
1D3
330
1CD
100
AcDbEntity
  8
Visible (ANSI)
100
AcDbVertex
100
AcDb2dVertex
 10
71.90990947055617
 20
31.08712695691887
 30
0.0
  0
VERTEX
  5
1D4
330
1CD
100
AcDbEntity
  8
Visible (ANSI)
100
AcDbVertex
100
AcDb2dVertex
 10
71.90752753753914
 20
31.07734251421625
 30
0.0
  0
VERTEX
  5
1D5
330
1CD
100
AcDbEntity
  8
Visible (ANSI)
100
AcDbVertex
100
AcDb2dVertex
 10
71.90514860822073
 20
31.06777314689573
 30
0.0
  0
VERTEX
  5
1D6
330
1CD
100
AcDbEntity
  8
Visible (ANSI)
100
AcDbVertex
100
AcDb2dVertex
 10
71.90276667520369
 20
31.05845982141739
 30
0.0
  0
VERTEX
  5
1D7
330
1CD
100
AcDbEntity
  8
Visible (ANSI)
100
AcDbVertex
100
AcDb2dVertex
 10
71.90038774588528
 20
31.04944243065373
 30
0.0
  0
VERTEX
  5
1D8
330
1CD
100
AcDbEntity
  8
Visible (ANSI)
100
AcDbVertex
100
AcDb2dVertex
 10
71.89800581286824
 20
31.04075958269206
 30
0.0
  0
VERTEX
  5
1D9
330
1CD
100
AcDbEntity
  8
Visible (ANSI)
100
AcDbVertex
100
AcDb2dVertex
 10
71.8956238798512
 20
31.03244846003619
 30
0.0
  0
VERTEX
  5
1DA
330
1CD
100
AcDbEntity
  8
Visible (ANSI)
100
AcDbVertex
100
AcDb2dVertex
 10
71.89324495053281
 20
31.02454464947502
 30
0.0
  0
VERTEX
  5
1DB
330
1CD
100
AcDbEntity
  8
Visible (ANSI)
100
AcDbVertex
100
AcDb2dVertex
 10
71.89086301751576
 20
31.01708199835087
 30
0.0
  0
VERTEX
  5
1DC
330
1CD
100
AcDbEntity
  8
Visible (ANSI)
100
AcDbVertex
100
AcDb2dVertex
 10
71.88848408819736
 20
31.01009246202793
 30
0.0
  0
VERTEX
  5
1DD
330
1CD
100
AcDbEntity
  8
Visible (ANSI)
100
AcDbVertex
100
AcDb2dVertex
 10
71.88610215518031
 20
31.00360597189375
 30
0.0
  0
VERTEX
  5
1DE
330
1CD
100
AcDbEntity
  8
Visible (ANSI)
100
AcDbVertex
100
AcDb2dVertex
 10
71.88372022216327
 20
30.9976503062941
 30
0.0
  0
VERTEX
  5
1DF
330
1CD
100
AcDbEntity
  8
Visible (ANSI)
100
AcDbVertex
100
AcDb2dVertex
 10
71.88134129284486
 20
30.99225096293445
 30
0.0
  0
VERTEX
  5
1E0
330
1CD
100
AcDbEntity
  8
Visible (ANSI)
100
AcDbVertex
100
AcDb2dVertex
 10
71.87895935982783
 20
30.98743106648097
 30
0.0
  0
VERTEX
  5
1E1
330
1CD
100
AcDbEntity
  8
Visible (ANSI)
100
AcDbVertex
100
AcDb2dVertex
 10
71.87658043050942
 20
30.98321125489526
 30
0.0
  0
VERTEX
  5
1E2
330
1CD
100
AcDbEntity
  8
Visible (ANSI)
100
AcDbVertex
100
AcDb2dVertex
 10
71.87419849749239
 20
30.97960959876856
 30
0.0
  0
VERTEX
  5
1E3
330
1CD
100
AcDbEntity
  8
Visible (ANSI)
100
AcDbVertex
100
AcDb2dVertex
 10
71.87181656447534
 20
30.97664152138938
 30
0.0
  0
VERTEX
  5
1E4
330
1CD
100
AcDbEntity
  8
Visible (ANSI)
100
AcDbVertex
100
AcDb2dVertex
 10
71.86943763515694
 20
30.97431973182756
 30
0.0
  0
VERTEX
  5
1E5
330
1CD
100
AcDbEntity
  8
Visible (ANSI)
100
AcDbVertex
100
AcDb2dVertex
 10
71.86705570213989
 20
30.97265417222657
 30
0.0
  0
VERTEX
  5
1E6
330
1CD
100
AcDbEntity
  8
Visible (ANSI)
100
AcDbVertex
100
AcDb2dVertex
 10
71.86467376912286
 20
30.97165197506446
 30
0.0
  0
VERTEX
  5
1E7
330
1CD
100
AcDbEntity
  8
Visible (ANSI)
100
AcDbVertex
100
AcDb2dVertex
 10
71.86229483980445
 20
30.97131743182705
 30
0.0
  0
SEQEND
  5
1D0
330
1CD
100
AcDbEntity
  8
Visible (ANSI)
  0
POLYLINE
  5
1E8
330
6C
100
AcDbEntity
  8
Visible (ANSI)
100
AcDb2dPolyline
 66
     1
 10
0.0
 20
0.0
 30
0.0
 70
   128
  0
VERTEX
  5
1E9
330
1E8
100
AcDbEntity
  8
Visible (ANSI)
100
AcDbVertex
100
AcDb2dVertex
 10
28.28907109313675
 20
30.97131743182705
 30
0.0
  0
VERTEX
  5
1EA
330
1E8
100
AcDbEntity
  8
Visible (ANSI)
100
AcDbVertex
100
AcDb2dVertex
 10
28.28669033343949
 20
30.97165197506446
 30
0.0
  0
VERTEX
  5
1EC
330
1E8
100
AcDbEntity
  8
Visible (ANSI)
100
AcDbVertex
100
AcDb2dVertex
 10
28.28430957374223
 20
30.97265417222657
 30
0.0
  0
VERTEX
  5
1ED
330
1E8
100
AcDbEntity
  8
Visible (ANSI)
100
AcDbVertex
100
AcDb2dVertex
 10
28.28192881404497
 20
30.97431973182756
 30
0.0
  0
VERTEX
  5
1EE
330
1E8
100
AcDbEntity
  8
Visible (ANSI)
100
AcDbVertex
100
AcDb2dVertex
 10
28.27954805434771
 20
30.97664152138938
 30
0.0
  0
VERTEX
  5
1EF
330
1E8
100
AcDbEntity
  8
Visible (ANSI)
100
AcDbVertex
100
AcDb2dVertex
 10
28.27716727118406
 20
30.97960959876856
 30
0.0
  0
VERTEX
  5
1F0
330
1E8
100
AcDbEntity
  8
Visible (ANSI)
100
AcDbVertex
100
AcDb2dVertex
 10
28.27478651148679
 20
30.98321125489526
 30
0.0
  0
VERTEX
  5
1F1
330
1E8
100
AcDbEntity
  8
Visible (ANSI)
100
AcDbVertex
100
AcDb2dVertex
 10
28.27240575178953
 20
30.98743106648097
 30
0.0
  0
VERTEX
  5
1F2
330
1E8
100
AcDbEntity
  8
Visible (ANSI)
100
AcDbVertex
100
AcDb2dVertex
 10
28.27002499209227
 20
30.99225096293445
 30
0.0
  0
VERTEX
  5
1F3
330
1E8
100
AcDbEntity
  8
Visible (ANSI)
100
AcDbVertex
100
AcDb2dVertex
 10
28.26764422066181
 20
30.9976503062941
 30
0.0
  0
VERTEX
  5
1F4
330
1E8
100
AcDbEntity
  8
Visible (ANSI)
100
AcDbVertex
100
AcDb2dVertex
 10
28.26526346096455
 20
31.00360597189375
 30
0.0
  0
VERTEX
  5
1F5
330
1E8
100
AcDbEntity
  8
Visible (ANSI)
100
AcDbVertex
100
AcDb2dVertex
 10
28.26288270126729
 20
31.01009246202793
 30
0.0
  0
VERTEX
  5
1F6
330
1E8
100
AcDbEntity
  8
Visible (ANSI)
100
AcDbVertex
100
AcDb2dVertex
 10
28.26050192983683
 20
31.01708199835087
 30
0.0
  0
VERTEX
  5
1F7
330
1E8
100
AcDbEntity
  8
Visible (ANSI)
100
AcDbVertex
100
AcDb2dVertex
 10
28.25812117013957
 20
31.02454464947502
 30
0.0
  0
VERTEX
  5
1F8
330
1E8
100
AcDbEntity
  8
Visible (ANSI)
100
AcDbVertex
100
AcDb2dVertex
 10
28.25574039870911
 20
31.03244846003619
 30
0.0
  0
VERTEX
  5
1F9
330
1E8
100
AcDbEntity
  8
Visible (ANSI)
100
AcDbVertex
100
AcDb2dVertex
 10
28.25335963901185
 20
31.04075958269206
 30
0.0
  0
VERTEX
  5
1FA
330
1E8
100
AcDbEntity
  8
Visible (ANSI)
100
AcDbVertex
100
AcDb2dVertex
 10
28.25097886758139
 20
31.04944243065373
 30
0.0
  0
VERTEX
  5
1FB
330
1E8
100
AcDbEntity
  8
Visible (ANSI)
100
AcDbVertex
100
AcDb2dVertex
 10
28.24859810788413
 20
31.05845982141739
 30
0.0
  0
VERTEX
  5
1FC
330
1E8
100
AcDbEntity
  8
Visible (ANSI)
100
AcDbVertex
100
AcDb2dVertex
 10
28.24621734818687
 20
31.06777314689573
 30
0.0
  0
VERTEX
  5
1FD
330
1E8
100
AcDbEntity
  8
Visible (ANSI)
100
AcDbVertex
100
AcDb2dVertex
 10
28.24383657675641
 20
31.07734251421625
 30
0.0
  0
VERTEX
  5
1FE
330
1E8
100
AcDbEntity
  8
Visible (ANSI)
100
AcDbVertex
100
AcDb2dVertex
 10
28.24145581705915
 20
31.08712695691887
 30
0.0
  0
VERTEX
  5
1FF
330
1E8
100
AcDbEntity
  8
Visible (ANSI)
100
AcDbVertex
100
AcDb2dVertex
 10
28.23907504562869
 20
31.09708456988767
 30
0.0
  0
VERTEX
  5
200
330
1E8
100
AcDbEntity
  8
Visible (ANSI)
100
AcDbVertex
100
AcDb2dVertex
 10
28.23669428593143
 20
31.10717271468189
 30
0.0
  0
VERTEX
  5
201
330
1E8
100
AcDbEntity
  8
Visible (ANSI)
100
AcDbVertex
100
AcDb2dVertex
 10
28.23431352623417
 20
31.11734818966727
 30
0.0
  0
VERTEX
  5
202
330
1E8
100
AcDbEntity
  8
Visible (ANSI)
100
AcDbVertex
100
AcDb2dVertex
 10
28.23193275480371
 20
31.12756742948041
 30
0.0
  0
SEQEND
  5
1EB
330
1E8
100
AcDbEntity
  8
Visible (ANSI)
  0
LINE
  5
203
330
6C
100
AcDbEntity
  8
Hidden (ANSI)
100
AcDbLine
 10
71.95068275715036
 20
31.18470577947537
 30
0.0
 11
72.07568275715034
 21
31.18470577947537
 31
0.0
  0
POLYLINE
  5
204
330
6C
100
AcDbEntity
  8
Hidden (ANSI)
100
AcDb2dPolyline
 66
     1
 10
0.0
 20
0.0
 30
0.0
 70
   128
  0
VERTEX
  5
205
330
204
100
AcDbEntity
  8
Hidden (ANSI)
100
AcDbVertex
100
AcDb2dVertex
 10
71.9194341989257
 20
31.12756742948041
 30
0.0
  0
VERTEX
  5
206
330
204
100
AcDbEntity
  8
Hidden (ANSI)
100
AcDbVertex
100
AcDb2dVertex
 10
71.92147671399705
 20
31.12994820091087
 30
0.0
  0
VERTEX
  5
208
330
204
100
AcDbEntity
  8
Hidden (ANSI)
100
AcDbVertex
100
AcDb2dVertex
 10
71.9235102179725
 20
31.13232896060813
 30
0.0
  0
VERTEX
  5
209
330
204
100
AcDbEntity
  8
Hidden (ANSI)
100
AcDbVertex
100
AcDb2dVertex
 10
71.92552870345479
 20
31.13470972030539
 30
0.0
  0
VERTEX
  5
20A
330
204
100
AcDbEntity
  8
Hidden (ANSI)
100
AcDbVertex
100
AcDb2dVertex
 10
71.92752015564936
 20
31.13709049173585
 30
0.0
  0
VERTEX
  5
20B
330
204
100
AcDbEntity
  8
Hidden (ANSI)
100
AcDbVertex
100
AcDb2dVertex
 10
71.92947856715896
 20
31.13947125143311
 30
0.0
  0
VERTEX
  5
20C
330
204
100
AcDbEntity
  8
Hidden (ANSI)
100
AcDbVertex
100
AcDb2dVertex
 10
71.93139192318906
 20
31.14185202286357
 30
0.0
  0
VERTEX
  5
20D
330
204
100
AcDbEntity
  8
Hidden (ANSI)
100
AcDbVertex
100
AcDb2dVertex
 10
71.93325421634234
 20
31.14423278256083
 30
0.0
  0
VERTEX
  5
20E
330
204
100
AcDbEntity
  8
Hidden (ANSI)
100
AcDbVertex
100
AcDb2dVertex
 10
71.93505643552295
 20
31.14661354225809
 30
0.0
  0
VERTEX
  5
20F
330
204
100
AcDbEntity
  8
Hidden (ANSI)
100
AcDbVertex
100
AcDb2dVertex
 10
71.93679557703224
 20
31.14899431368855
 30
0.0
  0
VERTEX
  5
210
330
204
100
AcDbEntity
  8
Hidden (ANSI)
100
AcDbVertex
100
AcDb2dVertex
 10
71.93845662237703
 20
31.15137507338581
 30
0.0
  0
VERTEX
  5
211
330
204
100
AcDbEntity
  8
Hidden (ANSI)
100
AcDbVertex
100
AcDb2dVertex
 10
71.9400365678587
 20
31.15375584481627
 30
0.0
  0
VERTEX
  5
212
330
204
100
AcDbEntity
  8
Hidden (ANSI)
100
AcDbVertex
100
AcDb2dVertex
 10
71.94152940607998
 20
31.15613660451353
 30
0.0
  0
VERTEX
  5
213
330
204
100
AcDbEntity
  8
Hidden (ANSI)
100
AcDbVertex
100
AcDb2dVertex
 10
71.94292912964357
 20
31.15851737594399
 30
0.0
  0
VERTEX
  5
214
330
204
100
AcDbEntity
  8
Hidden (ANSI)
100
AcDbVertex
100
AcDb2dVertex
 10
71.94422372375498
 20
31.16089813564125
 30
0.0
  0
VERTEX
  5
215
330
204
100
AcDbEntity
  8
Hidden (ANSI)
100
AcDbVertex
100
AcDb2dVertex
 10
71.94541619211283
 20
31.16327889533851
 30
0.0
  0
VERTEX
  5
216
330
204
100
AcDbEntity
  8
Hidden (ANSI)
100
AcDbVertex
100
AcDb2dVertex
 10
71.94649752362119
 20
31.16565966676897
 30
0.0
  0
VERTEX
  5
217
330
204
100
AcDbEntity
  8
Hidden (ANSI)
100
AcDbVertex
100
AcDb2dVertex
 10
71.94745870718418
 20
31.16804042646623
 30
0.0
  0
VERTEX
  5
218
330
204
100
AcDbEntity
  8
Hidden (ANSI)
100
AcDbVertex
100
AcDb2dVertex
 10
71.94830274650044
 20
31.17042118616349
 30
0.0
  0
VERTEX
  5
219
330
204
100
AcDbEntity
  8
Hidden (ANSI)
100
AcDbVertex
100
AcDb2dVertex
 10
71.94902363417269
 20
31.17280194586075
 30
0.0
  0
VERTEX
  5
21A
330
204
100
AcDbEntity
  8
Hidden (ANSI)
100
AcDbVertex
100
AcDb2dVertex
 10
71.94961836650228
 20
31.17518272902441
 30
0.0
  0
VERTEX
  5
21B
330
204
100
AcDbEntity
  8
Hidden (ANSI)
100
AcDbVertex
100
AcDb2dVertex
 10
71.95008093609196
 20
31.17756348872167
 30
0.0
  0
VERTEX
  5
21C
330
204
100
AcDbEntity
  8
Hidden (ANSI)
100
AcDbVertex
100
AcDb2dVertex
 10
71.95041434664038
 20
31.17994424841893
 30
0.0
  0
VERTEX
  5
21D
330
204
100
AcDbEntity
  8
Hidden (ANSI)
100
AcDbVertex
100
AcDb2dVertex
 10
71.95061559444889
 20
31.18232500811619
 30
0.0
  0
VERTEX
  5
21E
330
204
100
AcDbEntity
  8
Hidden (ANSI)
100
AcDbVertex
100
AcDb2dVertex
 10
71.95068167581884
 20
31.18470576781345
 30
0.0
  0
SEQEND
  5
207
330
204
100
AcDbEntity
  8
Hidden (ANSI)
  0
LINE
  5
21F
330
6C
100
AcDbEntity
  8
Hidden (ANSI)
100
AcDbLine
 10
71.95068275715034
 20
78.75792908417874
 30
0.0
 11
72.07568275715034
 21
78.75792908417874
 31
0.0
  0
POLYLINE
  5
220
330
6C
100
AcDbEntity
  8
Hidden (ANSI)
100
AcDb2dPolyline
 66
     1
 10
0.0
 20
0.0
 30
0.0
 70
   128
  0
VERTEX
  5
221
330
220
100
AcDbEntity
  8
Hidden (ANSI)
100
AcDbVertex
100
AcDb2dVertex
 10
71.9194341989257
 20
78.8150673116791
 30
0.0
  0
VERTEX
  5
222
330
220
100
AcDbEntity
  8
Hidden (ANSI)
100
AcDbVertex
100
AcDb2dVertex
 10
71.92147671399705
 20
78.81268537866207
 30
0.0
  0
VERTEX
  5
224
330
220
100
AcDbEntity
  8
Hidden (ANSI)
100
AcDbVertex
100
AcDb2dVertex
 10
71.9235102179725
 20
78.81030644934366
 30
0.0
  0
VERTEX
  5
225
330
220
100
AcDbEntity
  8
Hidden (ANSI)
100
AcDbVertex
100
AcDb2dVertex
 10
71.92552870345479
 20
78.80792451632662
 30
0.0
  0
VERTEX
  5
226
330
220
100
AcDbEntity
  8
Hidden (ANSI)
100
AcDbVertex
100
AcDb2dVertex
 10
71.92752015564936
 20
78.80554558700821
 30
0.0
  0
VERTEX
  5
227
330
220
100
AcDbEntity
  8
Hidden (ANSI)
100
AcDbVertex
100
AcDb2dVertex
 10
71.92947856715896
 20
78.80316365399117
 30
0.0
  0
VERTEX
  5
228
330
220
100
AcDbEntity
  8
Hidden (ANSI)
100
AcDbVertex
100
AcDb2dVertex
 10
71.93139192318906
 20
78.80078172097412
 30
0.0
  0
VERTEX
  5
229
330
220
100
AcDbEntity
  8
Hidden (ANSI)
100
AcDbVertex
100
AcDb2dVertex
 10
71.93325421634234
 20
78.79840279165573
 30
0.0
  0
VERTEX
  5
22A
330
220
100
AcDbEntity
  8
Hidden (ANSI)
100
AcDbVertex
100
AcDb2dVertex
 10
71.93505643552295
 20
78.79602085863869
 30
0.0
  0
VERTEX
  5
22B
330
220
100
AcDbEntity
  8
Hidden (ANSI)
100
AcDbVertex
100
AcDb2dVertex
 10
71.93679557703224
 20
78.79364192932029
 30
0.0
  0
VERTEX
  5
22C
330
220
100
AcDbEntity
  8
Hidden (ANSI)
100
AcDbVertex
100
AcDb2dVertex
 10
71.93845662237703
 20
78.79125999630324
 30
0.0
  0
VERTEX
  5
22D
330
220
100
AcDbEntity
  8
Hidden (ANSI)
100
AcDbVertex
100
AcDb2dVertex
 10
71.9400365678587
 20
78.7888780632862
 30
0.0
  0
VERTEX
  5
22E
330
220
100
AcDbEntity
  8
Hidden (ANSI)
100
AcDbVertex
100
AcDb2dVertex
 10
71.94152940607998
 20
78.78649913396779
 30
0.0
  0
VERTEX
  5
22F
330
220
100
AcDbEntity
  8
Hidden (ANSI)
100
AcDbVertex
100
AcDb2dVertex
 10
71.94292912964357
 20
78.78411720095076
 30
0.0
  0
VERTEX
  5
230
330
220
100
AcDbEntity
  8
Hidden (ANSI)
100
AcDbVertex
100
AcDb2dVertex
 10
71.94422372375498
 20
78.78173526793372
 30
0.0
  0
VERTEX
  5
231
330
220
100
AcDbEntity
  8
Hidden (ANSI)
100
AcDbVertex
100
AcDb2dVertex
 10
71.94541619211283
 20
78.77935633861532
 30
0.0
  0
VERTEX
  5
232
330
220
100
AcDbEntity
  8
Hidden (ANSI)
100
AcDbVertex
100
AcDb2dVertex
 10
71.94649752362119
 20
78.77697440559828
 30
0.0
  0
VERTEX
  5
233
330
220
100
AcDbEntity
  8
Hidden (ANSI)
100
AcDbVertex
100
AcDb2dVertex
 10
71.94745870718418
 20
78.77459547627987
 30
0.0
  0
VERTEX
  5
234
330
220
100
AcDbEntity
  8
Hidden (ANSI)
100
AcDbVertex
100
AcDb2dVertex
 10
71.94830274650044
 20
78.77221354326284
 30
0.0
  0
VERTEX
  5
235
330
220
100
AcDbEntity
  8
Hidden (ANSI)
100
AcDbVertex
100
AcDb2dVertex
 10
71.94902363417269
 20
78.76983161024579
 30
0.0
  0
VERTEX
  5
236
330
220
100
AcDbEntity
  8
Hidden (ANSI)
100
AcDbVertex
100
AcDb2dVertex
 10
71.94961836650228
 20
78.76745268092739
 30
0.0
  0
VERTEX
  5
237
330
220
100
AcDbEntity
  8
Hidden (ANSI)
100
AcDbVertex
100
AcDb2dVertex
 10
71.95008093609196
 20
78.76507074791034
 30
0.0
  0
VERTEX
  5
238
330
220
100
AcDbEntity
  8
Hidden (ANSI)
100
AcDbVertex
100
AcDb2dVertex
 10
71.95041434664038
 20
78.76269181859195
 30
0.0
  0
VERTEX
  5
239
330
220
100
AcDbEntity
  8
Hidden (ANSI)
100
AcDbVertex
100
AcDb2dVertex
 10
71.95061559444889
 20
78.7603098855749
 30
0.0
  0
VERTEX
  5
23A
330
220
100
AcDbEntity
  8
Hidden (ANSI)
100
AcDbVertex
100
AcDb2dVertex
 10
71.95068167581884
 20
78.75792795255787
 30
0.0
  0
SEQEND
  5
223
330
220
100
AcDbEntity
  8
Hidden (ANSI)
  0
LINE
  5
23B
330
6C
100
AcDbEntity
  8
Hidden (ANSI)
100
AcDbLine
 10
71.86229440950203
 20
78.84631743182706
 30
0.0
 11
71.86229440950203
 21
78.97131743182706
 31
0.0
  0
POLYLINE
  5
23C
330
6C
100
AcDbEntity
  8
Hidden (ANSI)
100
AcDb2dPolyline
 66
     1
 10
0.0
 20
0.0
 30
0.0
 70
   128
  0
VERTEX
  5
23D
330
23C
100
AcDbEntity
  8
Hidden (ANSI)
100
AcDbVertex
100
AcDb2dVertex
 10
71.9194341989257
 20
78.8150673116791
 30
0.0
  0
VERTEX
  5
23E
330
23C
100
AcDbEntity
  8
Hidden (ANSI)
100
AcDbVertex
100
AcDb2dVertex
 10
71.91705226590865
 20
78.81710982675045
 30
0.0
  0
VERTEX
  5
240
330
23C
100
AcDbEntity
  8
Hidden (ANSI)
100
AcDbVertex
100
AcDb2dVertex
 10
71.91467033289161
 20
78.81914633442455
 30
0.0
  0
VERTEX
  5
241
330
23C
100
AcDbEntity
  8
Hidden (ANSI)
100
AcDbVertex
100
AcDb2dVertex
 10
71.91229140357321
 20
78.82116481990682
 30
0.0
  0
VERTEX
  5
242
330
23C
100
AcDbEntity
  8
Hidden (ANSI)
100
AcDbVertex
100
AcDb2dVertex
 10
71.90990947055617
 20
78.82315627210141
 30
0.0
  0
VERTEX
  5
243
330
23C
100
AcDbEntity
  8
Hidden (ANSI)
100
AcDbVertex
100
AcDb2dVertex
 10
71.90752753753914
 20
78.82511167991236
 30
0.0
  0
VERTEX
  5
244
330
23C
100
AcDbEntity
  8
Hidden (ANSI)
100
AcDbVertex
100
AcDb2dVertex
 10
71.90514860822073
 20
78.82702503594245
 30
0.0
  0
VERTEX
  5
245
330
23C
100
AcDbEntity
  8
Hidden (ANSI)
100
AcDbVertex
100
AcDb2dVertex
 10
71.90276667520369
 20
78.82889033279439
 30
0.0
  0
VERTEX
  5
246
330
23C
100
AcDbEntity
  8
Hidden (ANSI)
100
AcDbVertex
100
AcDb2dVertex
 10
71.90038774588528
 20
78.83069255197499
 30
0.0
  0
VERTEX
  5
247
330
23C
100
AcDbEntity
  8
Hidden (ANSI)
100
AcDbVertex
100
AcDb2dVertex
 10
71.89800581286824
 20
78.83242868978564
 30
0.0
  0
VERTEX
  5
248
330
23C
100
AcDbEntity
  8
Hidden (ANSI)
100
AcDbVertex
100
AcDb2dVertex
 10
71.8956238798512
 20
78.83408973513045
 30
0.0
  0
VERTEX
  5
249
330
23C
100
AcDbEntity
  8
Hidden (ANSI)
100
AcDbVertex
100
AcDb2dVertex
 10
71.89324495053281
 20
78.83567268431074
 30
0.0
  0
VERTEX
  5
24A
330
23C
100
AcDbEntity
  8
Hidden (ANSI)
100
AcDbVertex
100
AcDb2dVertex
 10
71.89086301751576
 20
78.83716552253202
 30
0.0
  0
VERTEX
  5
24B
330
23C
100
AcDbEntity
  8
Hidden (ANSI)
100
AcDbVertex
100
AcDb2dVertex
 10
71.88848408819736
 20
78.83856224239699
 30
0.0
  0
VERTEX
  5
24C
330
23C
100
AcDbEntity
  8
Hidden (ANSI)
100
AcDbVertex
100
AcDb2dVertex
 10
71.88610215518031
 20
78.83985984020703
 30
0.0
  0
VERTEX
  5
24D
330
23C
100
AcDbEntity
  8
Hidden (ANSI)
100
AcDbVertex
100
AcDb2dVertex
 10
71.88372022216327
 20
78.84105230856487
 30
0.0
  0
VERTEX
  5
24E
330
23C
100
AcDbEntity
  8
Hidden (ANSI)
100
AcDbVertex
100
AcDb2dVertex
 10
71.88134129284486
 20
78.84213063637459
 30
0.0
  0
VERTEX
  5
24F
330
23C
100
AcDbEntity
  8
Hidden (ANSI)
100
AcDbVertex
100
AcDb2dVertex
 10
71.87895935982783
 20
78.84309482363622
 30
0.0
  0
VERTEX
  5
250
330
23C
100
AcDbEntity
  8
Hidden (ANSI)
100
AcDbVertex
100
AcDb2dVertex
 10
71.87658043050942
 20
78.84393886295248
 30
0.0
  0
VERTEX
  5
251
330
23C
100
AcDbEntity
  8
Hidden (ANSI)
100
AcDbVertex
100
AcDb2dVertex
 10
71.87419849749239
 20
78.84465975062473
 30
0.0
  0
VERTEX
  5
252
330
23C
100
AcDbEntity
  8
Hidden (ANSI)
100
AcDbVertex
100
AcDb2dVertex
 10
71.87181656447534
 20
78.84525147925568
 30
0.0
  0
VERTEX
  5
253
330
23C
100
AcDbEntity
  8
Hidden (ANSI)
100
AcDbVertex
100
AcDb2dVertex
 10
71.86943763515694
 20
78.845717052544
 30
0.0
  0
VERTEX
  5
254
330
23C
100
AcDbEntity
  8
Hidden (ANSI)
100
AcDbVertex
100
AcDb2dVertex
 10
71.86705570213989
 20
78.84605046309243
 30
0.0
  0
VERTEX
  5
255
330
23C
100
AcDbEntity
  8
Hidden (ANSI)
100
AcDbVertex
100
AcDb2dVertex
 10
71.86467376912286
 20
78.84625171090092
 30
0.0
  0
VERTEX
  5
256
330
23C
100
AcDbEntity
  8
Hidden (ANSI)
100
AcDbVertex
100
AcDb2dVertex
 10
71.86229483980445
 20
78.84631779227088
 30
0.0
  0
SEQEND
  5
23F
330
23C
100
AcDbEntity
  8
Hidden (ANSI)
  0
LINE
  5
257
330
6C
100
AcDbEntity
  8
Hidden (ANSI)
100
AcDbLine
 10
28.28907110479867
 20
78.84631743182705
 30
0.0
 11
28.28907110479867
 21
78.97131743182704
 31
0.0
  0
POLYLINE
  5
258
330
6C
100
AcDbEntity
  8
Hidden (ANSI)
100
AcDb2dPolyline
 66
     1
 10
0.0
 20
0.0
 30
0.0
 70
   128
  0
VERTEX
  5
259
330
258
100
AcDbEntity
  8
Hidden (ANSI)
100
AcDbVertex
100
AcDb2dVertex
 10
28.23193275480371
 20
78.8150673116791
 30
0.0
  0
VERTEX
  5
25A
330
258
100
AcDbEntity
  8
Hidden (ANSI)
100
AcDbVertex
100
AcDb2dVertex
 10
28.23431352623417
 20
78.81710982675045
 30
0.0
  0
VERTEX
  5
25C
330
258
100
AcDbEntity
  8
Hidden (ANSI)
100
AcDbVertex
100
AcDb2dVertex
 10
28.23669428593143
 20
78.81914633442455
 30
0.0
  0
VERTEX
  5
25D
330
258
100
AcDbEntity
  8
Hidden (ANSI)
100
AcDbVertex
100
AcDb2dVertex
 10
28.23907504562869
 20
78.82116481990682
 30
0.0
  0
VERTEX
  5
25E
330
258
100
AcDbEntity
  8
Hidden (ANSI)
100
AcDbVertex
100
AcDb2dVertex
 10
28.24145581705915
 20
78.82315627210141
 30
0.0
  0
VERTEX
  5
25F
330
258
100
AcDbEntity
  8
Hidden (ANSI)
100
AcDbVertex
100
AcDb2dVertex
 10
28.24383657675641
 20
78.82511167991236
 30
0.0
  0
VERTEX
  5
260
330
258
100
AcDbEntity
  8
Hidden (ANSI)
100
AcDbVertex
100
AcDb2dVertex
 10
28.24621734818687
 20
78.82702503594245
 30
0.0
  0
VERTEX
  5
261
330
258
100
AcDbEntity
  8
Hidden (ANSI)
100
AcDbVertex
100
AcDb2dVertex
 10
28.24859810788413
 20
78.82889033279439
 30
0.0
  0
VERTEX
  5
262
330
258
100
AcDbEntity
  8
Hidden (ANSI)
100
AcDbVertex
100
AcDb2dVertex
 10
28.25097886758139
 20
78.83069255197499
 30
0.0
  0
VERTEX
  5
263
330
258
100
AcDbEntity
  8
Hidden (ANSI)
100
AcDbVertex
100
AcDb2dVertex
 10
28.25335963901185
 20
78.83242868978564
 30
0.0
  0
VERTEX
  5
264
330
258
100
AcDbEntity
  8
Hidden (ANSI)
100
AcDbVertex
100
AcDb2dVertex
 10
28.25574039870911
 20
78.83408973513045
 30
0.0
  0
VERTEX
  5
265
330
258
100
AcDbEntity
  8
Hidden (ANSI)
100
AcDbVertex
100
AcDb2dVertex
 10
28.25812117013957
 20
78.83567268431074
 30
0.0
  0
VERTEX
  5
266
330
258
100
AcDbEntity
  8
Hidden (ANSI)
100
AcDbVertex
100
AcDb2dVertex
 10
28.26050192983683
 20
78.83716552253202
 30
0.0
  0
VERTEX
  5
267
330
258
100
AcDbEntity
  8
Hidden (ANSI)
100
AcDbVertex
100
AcDb2dVertex
 10
28.26288270126729
 20
78.83856224239699
 30
0.0
  0
VERTEX
  5
268
330
258
100
AcDbEntity
  8
Hidden (ANSI)
100
AcDbVertex
100
AcDb2dVertex
 10
28.26526346096455
 20
78.83985984020703
 30
0.0
  0
VERTEX
  5
269
330
258
100
AcDbEntity
  8
Hidden (ANSI)
100
AcDbVertex
100
AcDb2dVertex
 10
28.26764422066181
 20
78.84105230856487
 30
0.0
  0
VERTEX
  5
26A
330
258
100
AcDbEntity
  8
Hidden (ANSI)
100
AcDbVertex
100
AcDb2dVertex
 10
28.27002499209227
 20
78.84213063637459
 30
0.0
  0
VERTEX
  5
26B
330
258
100
AcDbEntity
  8
Hidden (ANSI)
100
AcDbVertex
100
AcDb2dVertex
 10
28.27240575178953
 20
78.84309482363622
 30
0.0
  0
VERTEX
  5
26C
330
258
100
AcDbEntity
  8
Hidden (ANSI)
100
AcDbVertex
100
AcDb2dVertex
 10
28.27478651148679
 20
78.84393886295248
 30
0.0
  0
VERTEX
  5
26D
330
258
100
AcDbEntity
  8
Hidden (ANSI)
100
AcDbVertex
100
AcDb2dVertex
 10
28.27716727118406
 20
78.84465975062473
 30
0.0
  0
VERTEX
  5
26E
330
258
100
AcDbEntity
  8
Hidden (ANSI)
100
AcDbVertex
100
AcDb2dVertex
 10
28.27954805434771
 20
78.84525147925568
 30
0.0
  0
VERTEX
  5
26F
330
258
100
AcDbEntity
  8
Hidden (ANSI)
100
AcDbVertex
100
AcDb2dVertex
 10
28.28192881404497
 20
78.845717052544
 30
0.0
  0
VERTEX
  5
270
330
258
100
AcDbEntity
  8
Hidden (ANSI)
100
AcDbVertex
100
AcDb2dVertex
 10
28.28430957374223
 20
78.84605046309243
 30
0.0
  0
VERTEX
  5
271
330
258
100
AcDbEntity
  8
Hidden (ANSI)
100
AcDbVertex
100
AcDb2dVertex
 10
28.28669033343949
 20
78.84625171090092
 30
0.0
  0
VERTEX
  5
272
330
258
100
AcDbEntity
  8
Hidden (ANSI)
100
AcDbVertex
100
AcDb2dVertex
 10
28.28907109313675
 20
78.84631779227088
 30
0.0
  0
SEQEND
  5
25B
330
258
100
AcDbEntity
  8
Hidden (ANSI)
  0
LINE
  5
273
330
6C
100
AcDbEntity
  8
Hidden (ANSI)
100
AcDbLine
 10
28.20068275715034
 20
78.75792908417873
 30
0.0
 11
28.07568275715034
 21
78.75792908417873
 31
0.0
  0
POLYLINE
  5
274
330
6C
100
AcDbEntity
  8
Hidden (ANSI)
100
AcDb2dPolyline
 66
     1
 10
0.0
 20
0.0
 30
0.0
 70
   128
  0
VERTEX
  5
275
330
274
100
AcDbEntity
  8
Hidden (ANSI)
100
AcDbVertex
100
AcDb2dVertex
 10
28.23193275480371
 20
78.8150673116791
 30
0.0
  0
VERTEX
  5
276
330
274
100
AcDbEntity
  8
Hidden (ANSI)
100
AcDbVertex
100
AcDb2dVertex
 10
28.229888913881
 20
78.81268537866207
 30
0.0
  0
VERTEX
  5
278
330
274
100
AcDbEntity
  8
Hidden (ANSI)
100
AcDbVertex
100
AcDb2dVertex
 10
28.22785381419065
 20
78.81030644934366
 30
0.0
  0
VERTEX
  5
279
330
274
100
AcDbEntity
  8
Hidden (ANSI)
100
AcDbVertex
100
AcDb2dVertex
 10
28.22583618523181
 20
78.80792451632662
 30
0.0
  0
VERTEX
  5
27A
330
274
100
AcDbEntity
  8
Hidden (ANSI)
100
AcDbVertex
100
AcDb2dVertex
 10
28.22384466263804
 20
78.80554558700821
 30
0.0
  0
VERTEX
  5
27B
330
274
100
AcDbEntity
  8
Hidden (ANSI)
100
AcDbVertex
100
AcDb2dVertex
 10
28.22188777644416
 20
78.80316365399117
 30
0.0
  0
VERTEX
  5
27C
330
274
100
AcDbEntity
  8
Hidden (ANSI)
100
AcDbVertex
100
AcDb2dVertex
 10
28.21997390415338
 20
78.80078172097412
 30
0.0
  0
VERTEX
  5
27D
330
274
100
AcDbEntity
  8
Hidden (ANSI)
100
AcDbVertex
100
AcDb2dVertex
 10
28.21811123553775
 20
78.79840279165573
 30
0.0
  0
VERTEX
  5
27E
330
274
100
AcDbEntity
  8
Hidden (ANSI)
100
AcDbVertex
100
AcDb2dVertex
 10
28.21630776090497
 20
78.79602085863869
 30
0.0
  0
VERTEX
  5
27F
330
274
100
AcDbEntity
  8
Hidden (ANSI)
100
AcDbVertex
100
AcDb2dVertex
 10
28.21457118896601
 20
78.79364192932029
 30
0.0
  0
VERTEX
  5
280
330
274
100
AcDbEntity
  8
Hidden (ANSI)
100
AcDbVertex
100
AcDb2dVertex
 10
28.21290895856823
 20
78.79125999630324
 30
0.0
  0
VERTEX
  5
281
330
274
100
AcDbEntity
  8
Hidden (ANSI)
100
AcDbVertex
100
AcDb2dVertex
 10
28.21132820349591
 20
78.7888780632862
 30
0.0
  0
VERTEX
  5
282
330
274
100
AcDbEntity
  8
Hidden (ANSI)
100
AcDbVertex
100
AcDb2dVertex
 10
28.20983567033779
 20
78.78649913396779
 30
0.0
  0
VERTEX
  5
283
330
274
100
AcDbEntity
  8
Hidden (ANSI)
100
AcDbVertex
100
AcDb2dVertex
 10
28.20843776541984
 20
78.78411720095076
 30
0.0
  0
VERTEX
  5
284
330
274
100
AcDbEntity
  8
Hidden (ANSI)
100
AcDbVertex
100
AcDb2dVertex
 10
28.20714046093974
 20
78.78173526793372
 30
0.0
  0
VERTEX
  5
285
330
274
100
AcDbEntity
  8
Hidden (ANSI)
100
AcDbVertex
100
AcDb2dVertex
 10
28.20594933016645
 20
78.77935633861532
 30
0.0
  0
VERTEX
  5
286
330
274
100
AcDbEntity
  8
Hidden (ANSI)
100
AcDbVertex
100
AcDb2dVertex
 10
28.20486946530781
 20
78.77697440559828
 30
0.0
  0
VERTEX
  5
287
330
274
100
AcDbEntity
  8
Hidden (ANSI)
100
AcDbVertex
100
AcDb2dVertex
 10
28.20390548924375
 20
78.77459547627987
 30
0.0
  0
VERTEX
  5
288
330
274
100
AcDbEntity
  8
Hidden (ANSI)
100
AcDbVertex
100
AcDb2dVertex
 10
28.20306152032668
 20
78.77221354326284
 30
0.0
  0
VERTEX
  5
289
330
274
100
AcDbEntity
  8
Hidden (ANSI)
100
AcDbVertex
100
AcDb2dVertex
 10
28.20234119584793
 20
78.76983161024579
 30
0.0
  0
VERTEX
  5
28A
330
274
100
AcDbEntity
  8
Hidden (ANSI)
100
AcDbVertex
100
AcDb2dVertex
 10
28.20174757817212
 20
78.76745268092739
 30
0.0
  0
VERTEX
  5
28B
330
274
100
AcDbEntity
  8
Hidden (ANSI)
100
AcDbVertex
100
AcDb2dVertex
 10
28.20128321340316
 20
78.76507074791034
 30
0.0
  0
VERTEX
  5
28C
330
274
100
AcDbEntity
  8
Hidden (ANSI)
100
AcDbVertex
100
AcDb2dVertex
 10
28.20095010791789
 20
78.76269181859195
 30
0.0
  0
VERTEX
  5
28D
330
274
100
AcDbEntity
  8
Hidden (ANSI)
100
AcDbVertex
100
AcDb2dVertex
 10
28.20074966970004
 20
78.7603098855749
 30
0.0
  0
VERTEX
  5
28E
330
274
100
AcDbEntity
  8
Hidden (ANSI)
100
AcDbVertex
100
AcDb2dVertex
 10
28.20068275527304
 20
78.75792795255787
 30
0.0
  0
SEQEND
  5
277
330
274
100
AcDbEntity
  8
Hidden (ANSI)
  0
LINE
  5
28F
330
6C
100
AcDbEntity
  8
Hidden (ANSI)
100
AcDbLine
 10
28.20068275715035
 20
31.18470577947537
 30
0.0
 11
28.07568275715036
 21
31.18470577947537
 31
0.0
  0
POLYLINE
  5
290
330
6C
100
AcDbEntity
  8
Hidden (ANSI)
100
AcDb2dPolyline
 66
     1
 10
0.0
 20
0.0
 30
0.0
 70
   128
  0
VERTEX
  5
291
330
290
100
AcDbEntity
  8
Hidden (ANSI)
100
AcDbVertex
100
AcDb2dVertex
 10
28.23193275480371
 20
31.12756742948041
 30
0.0
  0
VERTEX
  5
292
330
290
100
AcDbEntity
  8
Hidden (ANSI)
100
AcDbVertex
100
AcDb2dVertex
 10
28.229888913881
 20
31.12994820091087
 30
0.0
  0
VERTEX
  5
294
330
290
100
AcDbEntity
  8
Hidden (ANSI)
100
AcDbVertex
100
AcDb2dVertex
 10
28.22785381419065
 20
31.13232896060813
 30
0.0
  0
VERTEX
  5
295
330
290
100
AcDbEntity
  8
Hidden (ANSI)
100
AcDbVertex
100
AcDb2dVertex
 10
28.22583618523181
 20
31.13470972030539
 30
0.0
  0
VERTEX
  5
296
330
290
100
AcDbEntity
  8
Hidden (ANSI)
100
AcDbVertex
100
AcDb2dVertex
 10
28.22384466263804
 20
31.13709049173585
 30
0.0
  0
VERTEX
  5
297
330
290
100
AcDbEntity
  8
Hidden (ANSI)
100
AcDbVertex
100
AcDb2dVertex
 10
28.22188777644416
 20
31.13947125143311
 30
0.0
  0
VERTEX
  5
298
330
290
100
AcDbEntity
  8
Hidden (ANSI)
100
AcDbVertex
100
AcDb2dVertex
 10
28.21997390415338
 20
31.14185202286357
 30
0.0
  0
VERTEX
  5
299
330
290
100
AcDbEntity
  8
Hidden (ANSI)
100
AcDbVertex
100
AcDb2dVertex
 10
28.21811123553775
 20
31.14423278256083
 30
0.0
  0
VERTEX
  5
29A
330
290
100
AcDbEntity
  8
Hidden (ANSI)
100
AcDbVertex
100
AcDb2dVertex
 10
28.21630776090497
 20
31.14661354225809
 30
0.0
  0
VERTEX
  5
29B
330
290
100
AcDbEntity
  8
Hidden (ANSI)
100
AcDbVertex
100
AcDb2dVertex
 10
28.21457118896601
 20
31.14899431368855
 30
0.0
  0
VERTEX
  5
29C
330
290
100
AcDbEntity
  8
Hidden (ANSI)
100
AcDbVertex
100
AcDb2dVertex
 10
28.21290895856823
 20
31.15137507338581
 30
0.0
  0
VERTEX
  5
29D
330
290
100
AcDbEntity
  8
Hidden (ANSI)
100
AcDbVertex
100
AcDb2dVertex
 10
28.21132820349591
 20
31.15375584481627
 30
0.0
  0
VERTEX
  5
29E
330
290
100
AcDbEntity
  8
Hidden (ANSI)
100
AcDbVertex
100
AcDb2dVertex
 10
28.20983567033779
 20
31.15613660451353
 30
0.0
  0
VERTEX
  5
29F
330
290
100
AcDbEntity
  8
Hidden (ANSI)
100
AcDbVertex
100
AcDb2dVertex
 10
28.20843776541984
 20
31.15851737594399
 30
0.0
  0
VERTEX
  5
2A0
330
290
100
AcDbEntity
  8
Hidden (ANSI)
100
AcDbVertex
100
AcDb2dVertex
 10
28.20714046093974
 20
31.16089813564125
 30
0.0
  0
VERTEX
  5
2A1
330
290
100
AcDbEntity
  8
Hidden (ANSI)
100
AcDbVertex
100
AcDb2dVertex
 10
28.20594933016645
 20
31.16327889533851
 30
0.0
  0
VERTEX
  5
2A2
330
290
100
AcDbEntity
  8
Hidden (ANSI)
100
AcDbVertex
100
AcDb2dVertex
 10
28.20486946530781
 20
31.16565966676897
 30
0.0
  0
VERTEX
  5
2A3
330
290
100
AcDbEntity
  8
Hidden (ANSI)
100
AcDbVertex
100
AcDb2dVertex
 10
28.20390548924375
 20
31.16804042646623
 30
0.0
  0
VERTEX
  5
2A4
330
290
100
AcDbEntity
  8
Hidden (ANSI)
100
AcDbVertex
100
AcDb2dVertex
 10
28.20306152032668
 20
31.17042118616349
 30
0.0
  0
VERTEX
  5
2A5
330
290
100
AcDbEntity
  8
Hidden (ANSI)
100
AcDbVertex
100
AcDb2dVertex
 10
28.20234119584793
 20
31.17280194586075
 30
0.0
  0
VERTEX
  5
2A6
330
290
100
AcDbEntity
  8
Hidden (ANSI)
100
AcDbVertex
100
AcDb2dVertex
 10
28.20174757817212
 20
31.17518272902441
 30
0.0
  0
VERTEX
  5
2A7
330
290
100
AcDbEntity
  8
Hidden (ANSI)
100
AcDbVertex
100
AcDb2dVertex
 10
28.20128321340316
 20
31.17756348872167
 30
0.0
  0
VERTEX
  5
2A8
330
290
100
AcDbEntity
  8
Hidden (ANSI)
100
AcDbVertex
100
AcDb2dVertex
 10
28.20095010791789
 20
31.17994424841893
 30
0.0
  0
VERTEX
  5
2A9
330
290
100
AcDbEntity
  8
Hidden (ANSI)
100
AcDbVertex
100
AcDb2dVertex
 10
28.20074966970004
 20
31.18232500811619
 30
0.0
  0
VERTEX
  5
2AA
330
290
100
AcDbEntity
  8
Hidden (ANSI)
100
AcDbVertex
100
AcDb2dVertex
 10
28.20068275527304
 20
31.18470576781345
 30
0.0
  0
SEQEND
  5
293
330
290
100
AcDbEntity
  8
Hidden (ANSI)
  0
LINE
  5
2AB
330
6C
100
AcDbEntity
  8
Hidden (ANSI)
100
AcDbLine
 10
28.28907110479868
 20
31.09631743182705
 30
0.0
 11
28.28907110479868
 21
30.97131743182705
 31
0.0
  0
POLYLINE
  5
2AC
330
6C
100
AcDbEntity
  8
Hidden (ANSI)
100
AcDb2dPolyline
 66
     1
 10
0.0
 20
0.0
 30
0.0
 70
   128
  0
VERTEX
  5
2AD
330
2AC
100
AcDbEntity
  8
Hidden (ANSI)
100
AcDbVertex
100
AcDb2dVertex
 10
28.23193275480371
 20
31.12756742948041
 30
0.0
  0
VERTEX
  5
2AE
330
2AC
100
AcDbEntity
  8
Hidden (ANSI)
100
AcDbVertex
100
AcDb2dVertex
 10
28.23431352623417
 20
31.1255235885577
 30
0.0
  0
VERTEX
  5
2B0
330
2AC
100
AcDbEntity
  8
Hidden (ANSI)
100
AcDbVertex
100
AcDb2dVertex
 10
28.23669428593143
 20
31.12348848886735
 30
0.0
  0
VERTEX
  5
2B1
330
2AC
100
AcDbEntity
  8
Hidden (ANSI)
100
AcDbVertex
100
AcDb2dVertex
 10
28.23907504562869
 20
31.1214708599085
 30
0.0
  0
VERTEX
  5
2B2
330
2AC
100
AcDbEntity
  8
Hidden (ANSI)
100
AcDbVertex
100
AcDb2dVertex
 10
28.24145581705915
 20
31.11947933731474
 30
0.0
  0
VERTEX
  5
2B3
330
2AC
100
AcDbEntity
  8
Hidden (ANSI)
100
AcDbVertex
100
AcDb2dVertex
 10
28.24383657675641
 20
31.11752245112086
 30
0.0
  0
VERTEX
  5
2B4
330
2AC
100
AcDbEntity
  8
Hidden (ANSI)
100
AcDbVertex
100
AcDb2dVertex
 10
28.24621734818687
 20
31.11560857883008
 30
0.0
  0
VERTEX
  5
2B5
330
2AC
100
AcDbEntity
  8
Hidden (ANSI)
100
AcDbVertex
100
AcDb2dVertex
 10
28.24859810788413
 20
31.11374591021445
 30
0.0
  0
VERTEX
  5
2B6
330
2AC
100
AcDbEntity
  8
Hidden (ANSI)
100
AcDbVertex
100
AcDb2dVertex
 10
28.25097886758139
 20
31.11194243558167
 30
0.0
  0
VERTEX
  5
2B7
330
2AC
100
AcDbEntity
  8
Hidden (ANSI)
100
AcDbVertex
100
AcDb2dVertex
 10
28.25335963901185
 20
31.1102058636427
 30
0.0
  0
VERTEX
  5
2B8
330
2AC
100
AcDbEntity
  8
Hidden (ANSI)
100
AcDbVertex
100
AcDb2dVertex
 10
28.25574039870911
 20
31.10854363324493
 30
0.0
  0
VERTEX
  5
2B9
330
2AC
100
AcDbEntity
  8
Hidden (ANSI)
100
AcDbVertex
100
AcDb2dVertex
 10
28.25812117013957
 20
31.10696287817261
 30
0.0
  0
VERTEX
  5
2BA
330
2AC
100
AcDbEntity
  8
Hidden (ANSI)
100
AcDbVertex
100
AcDb2dVertex
 10
28.26050192983683
 20
31.10547034501448
 30
0.0
  0
VERTEX
  5
2BB
330
2AC
100
AcDbEntity
  8
Hidden (ANSI)
100
AcDbVertex
100
AcDb2dVertex
 10
28.26288270126729
 20
31.10407244009654
 30
0.0
  0
VERTEX
  5
2BC
330
2AC
100
AcDbEntity
  8
Hidden (ANSI)
100
AcDbVertex
100
AcDb2dVertex
 10
28.26526346096455
 20
31.10277513561644
 30
0.0
  0
VERTEX
  5
2BD
330
2AC
100
AcDbEntity
  8
Hidden (ANSI)
100
AcDbVertex
100
AcDb2dVertex
 10
28.26764422066181
 20
31.10158400484315
 30
0.0
  0
VERTEX
  5
2BE
330
2AC
100
AcDbEntity
  8
Hidden (ANSI)
100
AcDbVertex
100
AcDb2dVertex
 10
28.27002499209227
 20
31.10050413998451
 30
0.0
  0
VERTEX
  5
2BF
330
2AC
100
AcDbEntity
  8
Hidden (ANSI)
100
AcDbVertex
100
AcDb2dVertex
 10
28.27240575178953
 20
31.09954016392044
 30
0.0
  0
VERTEX
  5
2C0
330
2AC
100
AcDbEntity
  8
Hidden (ANSI)
100
AcDbVertex
100
AcDb2dVertex
 10
28.27478651148679
 20
31.09869619500337
 30
0.0
  0
VERTEX
  5
2C1
330
2AC
100
AcDbEntity
  8
Hidden (ANSI)
100
AcDbVertex
100
AcDb2dVertex
 10
28.27716727118406
 20
31.09797587052463
 30
0.0
  0
VERTEX
  5
2C2
330
2AC
100
AcDbEntity
  8
Hidden (ANSI)
100
AcDbVertex
100
AcDb2dVertex
 10
28.27954805434771
 20
31.09738225284881
 30
0.0
  0
VERTEX
  5
2C3
330
2AC
100
AcDbEntity
  8
Hidden (ANSI)
100
AcDbVertex
100
AcDb2dVertex
 10
28.28192881404497
 20
31.09691788807986
 30
0.0
  0
VERTEX
  5
2C4
330
2AC
100
AcDbEntity
  8
Hidden (ANSI)
100
AcDbVertex
100
AcDb2dVertex
 10
28.28430957374223
 20
31.09658478259459
 30
0.0
  0
VERTEX
  5
2C5
330
2AC
100
AcDbEntity
  8
Hidden (ANSI)
100
AcDbVertex
100
AcDb2dVertex
 10
28.28669033343949
 20
31.09638434437674
 30
0.0
  0
VERTEX
  5
2C6
330
2AC
100
AcDbEntity
  8
Hidden (ANSI)
100
AcDbVertex
100
AcDb2dVertex
 10
28.28907109313675
 20
31.09631742994974
 30
0.0
  0
SEQEND
  5
2AF
330
2AC
100
AcDbEntity
  8
Hidden (ANSI)
  0
LINE
  5
2C7
330
6C
100
AcDbEntity
  8
Hidden (ANSI)
100
AcDbLine
 10
71.86229440950203
 20
31.09631743182705
 30
0.0
 11
71.86229440950203
 21
30.97131743182705
 31
0.0
  0
POLYLINE
  5
2C8
330
6C
100
AcDbEntity
  8
Hidden (ANSI)
100
AcDb2dPolyline
 66
     1
 10
0.0
 20
0.0
 30
0.0
 70
   128
  0
VERTEX
  5
2C9
330
2C8
100
AcDbEntity
  8
Hidden (ANSI)
100
AcDbVertex
100
AcDb2dVertex
 10
71.9194341989257
 20
31.12756742948041
 30
0.0
  0
VERTEX
  5
2CA
330
2C8
100
AcDbEntity
  8
Hidden (ANSI)
100
AcDbVertex
100
AcDb2dVertex
 10
71.91705226590865
 20
31.1255235885577
 30
0.0
  0
VERTEX
  5
2CC
330
2C8
100
AcDbEntity
  8
Hidden (ANSI)
100
AcDbVertex
100
AcDb2dVertex
 10
71.91467033289161
 20
31.12348848886735
 30
0.0
  0
VERTEX
  5
2CD
330
2C8
100
AcDbEntity
  8
Hidden (ANSI)
100
AcDbVertex
100
AcDb2dVertex
 10
71.91229140357321
 20
31.1214708599085
 30
0.0
  0
VERTEX
  5
2CE
330
2C8
100
AcDbEntity
  8
Hidden (ANSI)
100
AcDbVertex
100
AcDb2dVertex
 10
71.90990947055617
 20
31.11947933731474
 30
0.0
  0
VERTEX
  5
2CF
330
2C8
100
AcDbEntity
  8
Hidden (ANSI)
100
AcDbVertex
100
AcDb2dVertex
 10
71.90752753753914
 20
31.11752245112086
 30
0.0
  0
VERTEX
  5
2D0
330
2C8
100
AcDbEntity
  8
Hidden (ANSI)
100
AcDbVertex
100
AcDb2dVertex
 10
71.90514860822073
 20
31.11560857883008
 30
0.0
  0
VERTEX
  5
2D1
330
2C8
100
AcDbEntity
  8
Hidden (ANSI)
100
AcDbVertex
100
AcDb2dVertex
 10
71.90276667520369
 20
31.11374591021445
 30
0.0
  0
VERTEX
  5
2D2
330
2C8
100
AcDbEntity
  8
Hidden (ANSI)
100
AcDbVertex
100
AcDb2dVertex
 10
71.90038774588528
 20
31.11194243558167
 30
0.0
  0
VERTEX
  5
2D3
330
2C8
100
AcDbEntity
  8
Hidden (ANSI)
100
AcDbVertex
100
AcDb2dVertex
 10
71.89800581286824
 20
31.1102058636427
 30
0.0
  0
VERTEX
  5
2D4
330
2C8
100
AcDbEntity
  8
Hidden (ANSI)
100
AcDbVertex
100
AcDb2dVertex
 10
71.8956238798512
 20
31.10854363324493
 30
0.0
  0
VERTEX
  5
2D5
330
2C8
100
AcDbEntity
  8
Hidden (ANSI)
100
AcDbVertex
100
AcDb2dVertex
 10
71.89324495053281
 20
31.10696287817261
 30
0.0
  0
VERTEX
  5
2D6
330
2C8
100
AcDbEntity
  8
Hidden (ANSI)
100
AcDbVertex
100
AcDb2dVertex
 10
71.89086301751576
 20
31.10547034501448
 30
0.0
  0
VERTEX
  5
2D7
330
2C8
100
AcDbEntity
  8
Hidden (ANSI)
100
AcDbVertex
100
AcDb2dVertex
 10
71.88848408819736
 20
31.10407244009654
 30
0.0
  0
VERTEX
  5
2D8
330
2C8
100
AcDbEntity
  8
Hidden (ANSI)
100
AcDbVertex
100
AcDb2dVertex
 10
71.88610215518031
 20
31.10277513561644
 30
0.0
  0
VERTEX
  5
2D9
330
2C8
100
AcDbEntity
  8
Hidden (ANSI)
100
AcDbVertex
100
AcDb2dVertex
 10
71.88372022216327
 20
31.10158400484315
 30
0.0
  0
VERTEX
  5
2DA
330
2C8
100
AcDbEntity
  8
Hidden (ANSI)
100
AcDbVertex
100
AcDb2dVertex
 10
71.88134129284486
 20
31.10050413998451
 30
0.0
  0
VERTEX
  5
2DB
330
2C8
100
AcDbEntity
  8
Hidden (ANSI)
100
AcDbVertex
100
AcDb2dVertex
 10
71.87895935982783
 20
31.09954016392044
 30
0.0
  0
VERTEX
  5
2DC
330
2C8
100
AcDbEntity
  8
Hidden (ANSI)
100
AcDbVertex
100
AcDb2dVertex
 10
71.87658043050942
 20
31.09869619500337
 30
0.0
  0
VERTEX
  5
2DD
330
2C8
100
AcDbEntity
  8
Hidden (ANSI)
100
AcDbVertex
100
AcDb2dVertex
 10
71.87419849749239
 20
31.09797587052463
 30
0.0
  0
VERTEX
  5
2DE
330
2C8
100
AcDbEntity
  8
Hidden (ANSI)
100
AcDbVertex
100
AcDb2dVertex
 10
71.87181656447534
 20
31.09738225284881
 30
0.0
  0
VERTEX
  5
2DF
330
2C8
100
AcDbEntity
  8
Hidden (ANSI)
100
AcDbVertex
100
AcDb2dVertex
 10
71.86943763515694
 20
31.09691788807986
 30
0.0
  0
VERTEX
  5
2E0
330
2C8
100
AcDbEntity
  8
Hidden (ANSI)
100
AcDbVertex
100
AcDb2dVertex
 10
71.86705570213989
 20
31.09658478259459
 30
0.0
  0
VERTEX
  5
2E1
330
2C8
100
AcDbEntity
  8
Hidden (ANSI)
100
AcDbVertex
100
AcDb2dVertex
 10
71.86467376912286
 20
31.09638434437674
 30
0.0
  0
VERTEX
  5
2E2
330
2C8
100
AcDbEntity
  8
Hidden (ANSI)
100
AcDbVertex
100
AcDb2dVertex
 10
71.86229483980445
 20
31.09631742994974
 30
0.0
  0
SEQEND
  5
2CB
330
2C8
100
AcDbEntity
  8
Hidden (ANSI)
  0
MTEXT
  5
2E4
330
6C
100
AcDbEntity
  8
Symbol (ANSI)
100
AcDbMText
 10
45.37185804440582
 20
23.85214970571488
 30
0.0
 40
1.200000014830761
 41
0.0
 46
0.0
 71
     7
 72
     1
  1
FRONT VIEW
  7
Text Style153
 73
     1
 44
1.0
  0
LINE
  5
2E6
330
6C
100
AcDbEntity
  8
Symbol (ANSI)
370
    30
100
AcDbLine
 10
45.25185773572196
 20
23.60743333196598
 30
0.0
 11
54.89950777857873
 21
23.60743333196598
 31
0.0
  0
POLYLINE
  5
2E7
330
6C
100
AcDbEntity
  8
Visible (ANSI)
100
AcDb2dPolyline
 66
     1
 10
0.0
 20
0.0
 30
0.0
 70
   128
  0
VERTEX
  5
2E8
330
2E7
100
AcDbEntity
  8
Visible (ANSI)
100
AcDbVertex
100
AcDb2dVertex
 10
93.55100896088918
 20
78.8150673116791
 30
0.0
  0
VERTEX
  5
2E9
330
2E7
100
AcDbEntity
  8
Visible (ANSI)
100
AcDbVertex
100
AcDb2dVertex
 10
93.55134349782456
 20
78.81268537866207
 30
0.0
  0
VERTEX
  5
2EB
330
2E7
100
AcDbEntity
  8
Visible (ANSI)
100
AcDbVertex
100
AcDb2dVertex
 10
93.55234570064704
 20
78.81030644934366
 30
0.0
  0
VERTEX
  5
2EC
330
2E7
100
AcDbEntity
  8
Visible (ANSI)
100
AcDbVertex
100
AcDb2dVertex
 10
93.55401126327299
 20
78.80792451632662
 30
0.0
  0
VERTEX
  5
2ED
330
2E7
100
AcDbEntity
  8
Visible (ANSI)
100
AcDbVertex
100
AcDb2dVertex
 10
93.55633305191815
 20
78.80554558700821
 30
0.0
  0
VERTEX
  5
2EE
330
2E7
100
AcDbEntity
  8
Visible (ANSI)
100
AcDbVertex
100
AcDb2dVertex
 10
93.55930112856402
 20
78.80316365399117
 30
0.0
  0
VERTEX
  5
2EF
330
2E7
100
AcDbEntity
  8
Visible (ANSI)
100
AcDbVertex
100
AcDb2dVertex
 10
93.56290278615736
 20
78.80078172097412
 30
0.0
  0
VERTEX
  5
2F0
330
2E7
100
AcDbEntity
  8
Visible (ANSI)
100
AcDbVertex
100
AcDb2dVertex
 10
93.56712259554312
 20
78.79840279165573
 30
0.0
  0
VERTEX
  5
2F1
330
2E7
100
AcDbEntity
  8
Visible (ANSI)
100
AcDbVertex
100
AcDb2dVertex
 10
93.57194248759665
 20
78.79602085863869
 30
0.0
  0
VERTEX
  5
2F2
330
2E7
100
AcDbEntity
  8
Visible (ANSI)
100
AcDbVertex
100
AcDb2dVertex
 10
93.57734183535624
 20
78.79364192932029
 30
0.0
  0
VERTEX
  5
2F3
330
2E7
100
AcDbEntity
  8
Visible (ANSI)
100
AcDbVertex
100
AcDb2dVertex
 10
93.5832975009559
 20
78.79125999630324
 30
0.0
  0
VERTEX
  5
2F4
330
2E7
100
AcDbEntity
  8
Visible (ANSI)
100
AcDbVertex
100
AcDb2dVertex
 10
93.58978398815677
 20
78.7888780632862
 30
0.0
  0
VERTEX
  5
2F5
330
2E7
100
AcDbEntity
  8
Visible (ANSI)
100
AcDbVertex
100
AcDb2dVertex
 10
93.59677352447972
 20
78.78649913396779
 30
0.0
  0
VERTEX
  5
2F6
330
2E7
100
AcDbEntity
  8
Visible (ANSI)
100
AcDbVertex
100
AcDb2dVertex
 10
93.60423617267057
 20
78.78411720095076
 30
0.0
  0
VERTEX
  5
2F7
330
2E7
100
AcDbEntity
  8
Visible (ANSI)
100
AcDbVertex
100
AcDb2dVertex
 10
93.61213998323176
 20
78.78173526793372
 30
0.0
  0
VERTEX
  5
2F8
330
2E7
100
AcDbEntity
  8
Visible (ANSI)
100
AcDbVertex
100
AcDb2dVertex
 10
93.62045111175422
 20
78.77935633861532
 30
0.0
  0
VERTEX
  5
2F9
330
2E7
100
AcDbEntity
  8
Visible (ANSI)
100
AcDbVertex
100
AcDb2dVertex
 10
93.62913395971588
 20
78.77697440559828
 30
0.0
  0
VERTEX
  5
2FA
330
2E7
100
AcDbEntity
  8
Visible (ANSI)
100
AcDbVertex
100
AcDb2dVertex
 10
93.63815135047955
 20
78.77459547627987
 30
0.0
  0
VERTEX
  5
2FB
330
2E7
100
AcDbEntity
  8
Visible (ANSI)
100
AcDbVertex
100
AcDb2dVertex
 10
93.64746467302458
 20
78.77221354326284
 30
0.0
  0
VERTEX
  5
2FC
330
2E7
100
AcDbEntity
  8
Visible (ANSI)
100
AcDbVertex
100
AcDb2dVertex
 10
93.65703404327842
 20
78.76983161024579
 30
0.0
  0
VERTEX
  5
2FD
330
2E7
100
AcDbEntity
  8
Visible (ANSI)
100
AcDbVertex
100
AcDb2dVertex
 10
93.66681848304773
 20
78.76745268092739
 30
0.0
  0
VERTEX
  5
2FE
330
2E7
100
AcDbEntity
  8
Visible (ANSI)
100
AcDbVertex
100
AcDb2dVertex
 10
93.67677609619986
 20
78.76507074791034
 30
0.0
  0
VERTEX
  5
2FF
330
2E7
100
AcDbEntity
  8
Visible (ANSI)
100
AcDbVertex
100
AcDb2dVertex
 10
93.68686424154409
 20
78.76269181859195
 30
0.0
  0
VERTEX
  5
300
330
2E7
100
AcDbEntity
  8
Visible (ANSI)
100
AcDbVertex
100
AcDb2dVertex
 10
93.69703972019609
 20
78.7603098855749
 30
0.0
  0
VERTEX
  5
301
330
2E7
100
AcDbEntity
  8
Visible (ANSI)
100
AcDbVertex
100
AcDb2dVertex
 10
93.70725895854258
 20
78.75792795255787
 30
0.0
  0
SEQEND
  5
2EA
330
2E7
100
AcDbEntity
  8
Visible (ANSI)
  0
POLYLINE
  5
302
330
6C
100
AcDbEntity
  8
Visible (ANSI)
100
AcDb2dPolyline
 66
     1
 10
0.0
 20
0.0
 30
0.0
 70
   128
  0
VERTEX
  5
303
330
302
100
AcDbEntity
  8
Visible (ANSI)
100
AcDbVertex
100
AcDb2dVertex
 10
93.70725895854258
 20
31.18470576781345
 30
0.0
  0
VERTEX
  5
304
330
302
100
AcDbEntity
  8
Visible (ANSI)
100
AcDbVertex
100
AcDb2dVertex
 10
93.69703972019609
 20
31.18232500811619
 30
0.0
  0
VERTEX
  5
306
330
302
100
AcDbEntity
  8
Visible (ANSI)
100
AcDbVertex
100
AcDb2dVertex
 10
93.68686424154409
 20
31.17994424841893
 30
0.0
  0
VERTEX
  5
307
330
302
100
AcDbEntity
  8
Visible (ANSI)
100
AcDbVertex
100
AcDb2dVertex
 10
93.67677609619986
 20
31.17756348872167
 30
0.0
  0
VERTEX
  5
308
330
302
100
AcDbEntity
  8
Visible (ANSI)
100
AcDbVertex
100
AcDb2dVertex
 10
93.66681848304773
 20
31.17518272902441
 30
0.0
  0
VERTEX
  5
309
330
302
100
AcDbEntity
  8
Visible (ANSI)
100
AcDbVertex
100
AcDb2dVertex
 10
93.65703404327842
 20
31.17280194586075
 30
0.0
  0
VERTEX
  5
30A
330
302
100
AcDbEntity
  8
Visible (ANSI)
100
AcDbVertex
100
AcDb2dVertex
 10
93.64746467302458
 20
31.17042118616349
 30
0.0
  0
VERTEX
  5
30B
330
302
100
AcDbEntity
  8
Visible (ANSI)
100
AcDbVertex
100
AcDb2dVertex
 10
93.63815135047955
 20
31.16804042646623
 30
0.0
  0
VERTEX
  5
30C
330
302
100
AcDbEntity
  8
Visible (ANSI)
100
AcDbVertex
100
AcDb2dVertex
 10
93.62913395971588
 20
31.16565966676897
 30
0.0
  0
VERTEX
  5
30D
330
302
100
AcDbEntity
  8
Visible (ANSI)
100
AcDbVertex
100
AcDb2dVertex
 10
93.62045111175422
 20
31.16327889533851
 30
0.0
  0
VERTEX
  5
30E
330
302
100
AcDbEntity
  8
Visible (ANSI)
100
AcDbVertex
100
AcDb2dVertex
 10
93.61213998323176
 20
31.16089813564125
 30
0.0
  0
VERTEX
  5
30F
330
302
100
AcDbEntity
  8
Visible (ANSI)
100
AcDbVertex
100
AcDb2dVertex
 10
93.60423617267057
 20
31.15851737594399
 30
0.0
  0
VERTEX
  5
310
330
302
100
AcDbEntity
  8
Visible (ANSI)
100
AcDbVertex
100
AcDb2dVertex
 10
93.59677352447972
 20
31.15613660451353
 30
0.0
  0
VERTEX
  5
311
330
302
100
AcDbEntity
  8
Visible (ANSI)
100
AcDbVertex
100
AcDb2dVertex
 10
93.58978398815677
 20
31.15375584481627
 30
0.0
  0
VERTEX
  5
312
330
302
100
AcDbEntity
  8
Visible (ANSI)
100
AcDbVertex
100
AcDb2dVertex
 10
93.5832975009559
 20
31.15137507338581
 30
0.0
  0
VERTEX
  5
313
330
302
100
AcDbEntity
  8
Visible (ANSI)
100
AcDbVertex
100
AcDb2dVertex
 10
93.57734183535624
 20
31.14899431368855
 30
0.0
  0
VERTEX
  5
314
330
302
100
AcDbEntity
  8
Visible (ANSI)
100
AcDbVertex
100
AcDb2dVertex
 10
93.57194248759665
 20
31.14661354225809
 30
0.0
  0
VERTEX
  5
315
330
302
100
AcDbEntity
  8
Visible (ANSI)
100
AcDbVertex
100
AcDb2dVertex
 10
93.56712259554312
 20
31.14423278256083
 30
0.0
  0
VERTEX
  5
316
330
302
100
AcDbEntity
  8
Visible (ANSI)
100
AcDbVertex
100
AcDb2dVertex
 10
93.56290278615736
 20
31.14185202286357
 30
0.0
  0
VERTEX
  5
317
330
302
100
AcDbEntity
  8
Visible (ANSI)
100
AcDbVertex
100
AcDb2dVertex
 10
93.55930112856402
 20
31.13947125143311
 30
0.0
  0
VERTEX
  5
318
330
302
100
AcDbEntity
  8
Visible (ANSI)
100
AcDbVertex
100
AcDb2dVertex
 10
93.55633305191815
 20
31.13709049173585
 30
0.0
  0
VERTEX
  5
319
330
302
100
AcDbEntity
  8
Visible (ANSI)
100
AcDbVertex
100
AcDb2dVertex
 10
93.55401126327299
 20
31.13470972030539
 30
0.0
  0
VERTEX
  5
31A
330
302
100
AcDbEntity
  8
Visible (ANSI)
100
AcDbVertex
100
AcDb2dVertex
 10
93.55234570064704
 20
31.13232896060813
 30
0.0
  0
VERTEX
  5
31B
330
302
100
AcDbEntity
  8
Visible (ANSI)
100
AcDbVertex
100
AcDb2dVertex
 10
93.55134349782456
 20
31.12994820091087
 30
0.0
  0
VERTEX
  5
31C
330
302
100
AcDbEntity
  8
Visible (ANSI)
100
AcDbVertex
100
AcDb2dVertex
 10
93.55100896088918
 20
31.12756742948041
 30
0.0
  0
SEQEND
  5
305
330
302
100
AcDbEntity
  8
Visible (ANSI)
  0
LINE
  5
31D
330
6C
100
AcDbEntity
  8
Visible (ANSI)
100
AcDbLine
 10
94.4260089590119
 20
31.18470577947537
 30
0.0
 11
93.70725895901189
 21
31.18470577947537
 31
0.0
  0
LINE
  5
31E
330
6C
100
AcDbEntity
  8
Visible (ANSI)
100
AcDbLine
 10
93.67088355713852
 20
31.12756743182705
 30
0.0
 11
93.55100895901186
 21
31.12756743182705
 31
0.0
  0
LINE
  5
31F
330
6C
100
AcDbEntity
  8
Visible (ANSI)
100
AcDbLine
 10
93.67600895901185
 20
31.12756743182705
 30
0.0
 11
93.67088355713852
 21
31.12756743182705
 31
0.0
  0
POLYLINE
  5
320
330
6C
100
AcDbEntity
  8
Visible (ANSI)
100
AcDb2dPolyline
 66
     1
 10
0.0
 20
0.0
 30
0.0
 70
   128
  0
VERTEX
  5
321
330
320
100
AcDbEntity
  8
Visible (ANSI)
100
AcDbVertex
100
AcDb2dVertex
 10
93.67600895901185
 20
31.12756742948041
 30
0.0
  0
VERTEX
  5
322
330
320
100
AcDbEntity
  8
Visible (ANSI)
100
AcDbVertex
100
AcDb2dVertex
 10
93.67607586765819
 20
31.12994820091087
 30
0.0
  0
VERTEX
  5
324
330
320
100
AcDbEntity
  8
Visible (ANSI)
100
AcDbVertex
100
AcDb2dVertex
 10
93.67627630709634
 20
31.13232896060813
 30
0.0
  0
VERTEX
  5
325
330
320
100
AcDbEntity
  8
Visible (ANSI)
100
AcDbVertex
100
AcDb2dVertex
 10
93.67660941902114
 20
31.13470972030539
 30
0.0
  0
VERTEX
  5
326
330
320
100
AcDbEntity
  8
Visible (ANSI)
100
AcDbVertex
100
AcDb2dVertex
 10
93.67707377696097
 20
31.13709049173585
 30
0.0
  0
VERTEX
  5
327
330
320
100
AcDbEntity
  8
Visible (ANSI)
100
AcDbVertex
100
AcDb2dVertex
 10
93.67766739243682
 20
31.13947125143311
 30
0.0
  0
VERTEX
  5
328
330
320
100
AcDbEntity
  8
Visible (ANSI)
100
AcDbVertex
100
AcDb2dVertex
 10
93.67838772369884
 20
31.14185202286357
 30
0.0
  0
VERTEX
  5
329
330
320
100
AcDbEntity
  8
Visible (ANSI)
100
AcDbVertex
100
AcDb2dVertex
 10
93.67923168601597
 20
31.14423278256083
 30
0.0
  0
VERTEX
  5
32A
330
320
100
AcDbEntity
  8
Visible (ANSI)
100
AcDbVertex
100
AcDb2dVertex
 10
93.68019566501335
 20
31.14661354225809
 30
0.0
  0
VERTEX
  5
32B
330
320
100
AcDbEntity
  8
Visible (ANSI)
100
AcDbVertex
100
AcDb2dVertex
 10
93.68127553353861
 20
31.14899431368855
 30
0.0
  0
VERTEX
  5
32C
330
320
100
AcDbEntity
  8
Visible (ANSI)
100
AcDbVertex
100
AcDb2dVertex
 10
93.68246666687854
 20
31.15137507338581
 30
0.0
  0
VERTEX
  5
32D
330
320
100
AcDbEntity
  8
Visible (ANSI)
100
AcDbVertex
100
AcDb2dVertex
 10
93.68376396475872
 20
31.15375584481627
 30
0.0
  0
VERTEX
  5
32E
330
320
100
AcDbEntity
  8
Visible (ANSI)
100
AcDbVertex
100
AcDb2dVertex
 10
93.68516187187664
 20
31.15613660451353
 30
0.0
  0
VERTEX
  5
32F
330
320
100
AcDbEntity
  8
Visible (ANSI)
100
AcDbVertex
100
AcDb2dVertex
 10
93.68665440210145
 20
31.15851737594399
 30
0.0
  0
VERTEX
  5
330
330
320
100
AcDbEntity
  8
Visible (ANSI)
100
AcDbVertex
100
AcDb2dVertex
 10
93.68823516450701
 20
31.16089813564125
 30
0.0
  0
VERTEX
  5
331
330
320
100
AcDbEntity
  8
Visible (ANSI)
100
AcDbVertex
100
AcDb2dVertex
 10
93.68989738977154
 20
31.16327889533851
 30
0.0
  0
VERTEX
  5
332
330
320
100
AcDbEntity
  8
Visible (ANSI)
100
AcDbVertex
100
AcDb2dVertex
 10
93.6916339587772
 20
31.16565966676897
 30
0.0
  0
VERTEX
  5
333
330
320
100
AcDbEntity
  8
Visible (ANSI)
100
AcDbVertex
100
AcDb2dVertex
 10
93.69343743780992
 20
31.16804042646623
 30
0.0
  0
VERTEX
  5
334
330
320
100
AcDbEntity
  8
Visible (ANSI)
100
AcDbVertex
100
AcDb2dVertex
 10
93.69530010202559
 20
31.17042118616349
 30
0.0
  0
VERTEX
  5
335
330
320
100
AcDbEntity
  8
Visible (ANSI)
100
AcDbVertex
100
AcDb2dVertex
 10
93.69721397578304
 20
31.17280194586075
 30
0.0
  0
VERTEX
  5
336
330
320
100
AcDbEntity
  8
Visible (ANSI)
100
AcDbVertex
100
AcDb2dVertex
 10
93.69917086344356
 20
31.17518272902441
 30
0.0
  0
VERTEX
  5
337
330
320
100
AcDbEntity
  8
Visible (ANSI)
100
AcDbVertex
100
AcDb2dVertex
 10
93.70116238603733
 20
31.17756348872167
 30
0.0
  0
VERTEX
  5
338
330
320
100
AcDbEntity
  8
Visible (ANSI)
100
AcDbVertex
100
AcDb2dVertex
 10
93.70318001499617
 20
31.17994424841893
 30
0.0
  0
VERTEX
  5
339
330
320
100
AcDbEntity
  8
Visible (ANSI)
100
AcDbVertex
100
AcDb2dVertex
 10
93.70521511175322
 20
31.18232500811619
 30
0.0
  0
VERTEX
  5
33A
330
320
100
AcDbEntity
  8
Visible (ANSI)
100
AcDbVertex
100
AcDb2dVertex
 10
93.70725895854254
 20
31.18470576781345
 30
0.0
  0
SEQEND
  5
323
330
320
100
AcDbEntity
  8
Visible (ANSI)
  0
POLYLINE
  5
33B
330
6C
100
AcDbEntity
  8
Visible (ANSI)
100
AcDb2dPolyline
 66
     1
 10
0.0
 20
0.0
 30
0.0
 70
   128
  0
VERTEX
  5
33C
330
33B
100
AcDbEntity
  8
Visible (ANSI)
100
AcDbVertex
100
AcDb2dVertex
 10
93.67600895901185
 20
78.8150673116791
 30
0.0
  0
VERTEX
  5
33D
330
33B
100
AcDbEntity
  8
Visible (ANSI)
100
AcDbVertex
100
AcDb2dVertex
 10
93.67607586765819
 20
78.81268537866207
 30
0.0
  0
VERTEX
  5
33F
330
33B
100
AcDbEntity
  8
Visible (ANSI)
100
AcDbVertex
100
AcDb2dVertex
 10
93.67627630709634
 20
78.81030644934366
 30
0.0
  0
VERTEX
  5
340
330
33B
100
AcDbEntity
  8
Visible (ANSI)
100
AcDbVertex
100
AcDb2dVertex
 10
93.67660941902114
 20
78.80792451632662
 30
0.0
  0
VERTEX
  5
341
330
33B
100
AcDbEntity
  8
Visible (ANSI)
100
AcDbVertex
100
AcDb2dVertex
 10
93.67707377696097
 20
78.80554558700821
 30
0.0
  0
VERTEX
  5
342
330
33B
100
AcDbEntity
  8
Visible (ANSI)
100
AcDbVertex
100
AcDb2dVertex
 10
93.67766739243682
 20
78.80316365399117
 30
0.0
  0
VERTEX
  5
343
330
33B
100
AcDbEntity
  8
Visible (ANSI)
100
AcDbVertex
100
AcDb2dVertex
 10
93.67838772369884
 20
78.80078172097412
 30
0.0
  0
VERTEX
  5
344
330
33B
100
AcDbEntity
  8
Visible (ANSI)
100
AcDbVertex
100
AcDb2dVertex
 10
93.67923168601597
 20
78.79840279165573
 30
0.0
  0
VERTEX
  5
345
330
33B
100
AcDbEntity
  8
Visible (ANSI)
100
AcDbVertex
100
AcDb2dVertex
 10
93.68019566501335
 20
78.79602085863869
 30
0.0
  0
VERTEX
  5
346
330
33B
100
AcDbEntity
  8
Visible (ANSI)
100
AcDbVertex
100
AcDb2dVertex
 10
93.68127553353861
 20
78.79364192932029
 30
0.0
  0
VERTEX
  5
347
330
33B
100
AcDbEntity
  8
Visible (ANSI)
100
AcDbVertex
100
AcDb2dVertex
 10
93.68246666687854
 20
78.79125999630324
 30
0.0
  0
VERTEX
  5
348
330
33B
100
AcDbEntity
  8
Visible (ANSI)
100
AcDbVertex
100
AcDb2dVertex
 10
93.68376396475872
 20
78.7888780632862
 30
0.0
  0
VERTEX
  5
349
330
33B
100
AcDbEntity
  8
Visible (ANSI)
100
AcDbVertex
100
AcDb2dVertex
 10
93.68516187187664
 20
78.78649913396779
 30
0.0
  0
VERTEX
  5
34A
330
33B
100
AcDbEntity
  8
Visible (ANSI)
100
AcDbVertex
100
AcDb2dVertex
 10
93.68665440210145
 20
78.78411720095076
 30
0.0
  0
VERTEX
  5
34B
330
33B
100
AcDbEntity
  8
Visible (ANSI)
100
AcDbVertex
100
AcDb2dVertex
 10
93.68823516450701
 20
78.78173526793372
 30
0.0
  0
VERTEX
  5
34C
330
33B
100
AcDbEntity
  8
Visible (ANSI)
100
AcDbVertex
100
AcDb2dVertex
 10
93.68989738977154
 20
78.77935633861532
 30
0.0
  0
VERTEX
  5
34D
330
33B
100
AcDbEntity
  8
Visible (ANSI)
100
AcDbVertex
100
AcDb2dVertex
 10
93.6916339587772
 20
78.77697440559828
 30
0.0
  0
VERTEX
  5
34E
330
33B
100
AcDbEntity
  8
Visible (ANSI)
100
AcDbVertex
100
AcDb2dVertex
 10
93.69343743780992
 20
78.77459547627987
 30
0.0
  0
VERTEX
  5
34F
330
33B
100
AcDbEntity
  8
Visible (ANSI)
100
AcDbVertex
100
AcDb2dVertex
 10
93.69530010202559
 20
78.77221354326284
 30
0.0
  0
VERTEX
  5
350
330
33B
100
AcDbEntity
  8
Visible (ANSI)
100
AcDbVertex
100
AcDb2dVertex
 10
93.69721397578304
 20
78.76983161024579
 30
0.0
  0
VERTEX
  5
351
330
33B
100
AcDbEntity
  8
Visible (ANSI)
100
AcDbVertex
100
AcDb2dVertex
 10
93.69917086344356
 20
78.76745268092739
 30
0.0
  0
VERTEX
  5
352
330
33B
100
AcDbEntity
  8
Visible (ANSI)
100
AcDbVertex
100
AcDb2dVertex
 10
93.70116238603733
 20
78.76507074791034
 30
0.0
  0
VERTEX
  5
353
330
33B
100
AcDbEntity
  8
Visible (ANSI)
100
AcDbVertex
100
AcDb2dVertex
 10
93.70318001499617
 20
78.76269181859195
 30
0.0
  0
VERTEX
  5
354
330
33B
100
AcDbEntity
  8
Visible (ANSI)
100
AcDbVertex
100
AcDb2dVertex
 10
93.70521511175322
 20
78.7603098855749
 30
0.0
  0
VERTEX
  5
355
330
33B
100
AcDbEntity
  8
Visible (ANSI)
100
AcDbVertex
100
AcDb2dVertex
 10
93.70725895854254
 20
78.75792795255787
 30
0.0
  0
SEQEND
  5
33E
330
33B
100
AcDbEntity
  8
Visible (ANSI)
  0
LINE
  5
356
330
6C
100
AcDbEntity
  8
Visible (ANSI)
100
AcDbLine
 10
93.67600895901185
 20
78.81506743182704
 30
0.0
 11
93.67088355713852
 21
78.81506743182704
 31
0.0
  0
LINE
  5
357
330
6C
100
AcDbEntity
  8
Visible (ANSI)
100
AcDbLine
 10
93.67088355713852
 20
78.81506743182704
 30
0.0
 11
93.55100895901186
 21
78.81506743182704
 31
0.0
  0
LINE
  5
358
330
6C
100
AcDbEntity
  8
Visible (ANSI)
100
AcDbLine
 10
93.70725895901189
 20
78.75792908417874
 30
0.0
 11
94.4260089590119
 21
78.75792908417874
 31
0.0
  0
POLYLINE
  5
359
330
6C
100
AcDbEntity
  8
Visible (ANSI)
100
AcDb2dPolyline
 66
     1
 10
0.0
 20
0.0
 30
0.0
 70
   128
  0
VERTEX
  5
35A
330
359
100
AcDbEntity
  8
Visible (ANSI)
100
AcDbVertex
100
AcDb2dVertex
 10
93.70725895854251
 20
78.97131671093937
 30
0.0
  0
VERTEX
  5
35B
330
359
100
AcDbEntity
  8
Visible (ANSI)
100
AcDbVertex
100
AcDb2dVertex
 10
93.69703972019603
 20
78.97098330039097
 30
0.0
  0
VERTEX
  5
35D
330
359
100
AcDbEntity
  8
Visible (ANSI)
100
AcDbVertex
100
AcDb2dVertex
 10
93.68686424154402
 20
78.96998006504708
 30
0.0
  0
VERTEX
  5
35E
330
359
100
AcDbEntity
  8
Visible (ANSI)
100
AcDbVertex
100
AcDb2dVertex
 10
93.67677609619981
 20
78.96831601600365
 30
0.0
  0
VERTEX
  5
35F
330
359
100
AcDbEntity
  8
Visible (ANSI)
100
AcDbVertex
100
AcDb2dVertex
 10
93.66681848304766
 20
78.96599415695931
 30
0.0
  0
VERTEX
  5
360
330
359
100
AcDbEntity
  8
Visible (ANSI)
100
AcDbVertex
100
AcDb2dVertex
 10
93.65703404327836
 20
78.96302650270856
 30
0.0
  0
VERTEX
  5
361
330
359
100
AcDbEntity
  8
Visible (ANSI)
100
AcDbVertex
100
AcDb2dVertex
 10
93.64746467302452
 20
78.95942506804598
 30
0.0
  0
VERTEX
  5
362
330
359
100
AcDbEntity
  8
Visible (ANSI)
100
AcDbVertex
100
AcDb2dVertex
 10
93.6381513504795
 20
78.95520487146471
 30
0.0
  0
VERTEX
  5
363
330
359
100
AcDbEntity
  8
Visible (ANSI)
100
AcDbVertex
100
AcDb2dVertex
 10
93.62913395971585
 20
78.95038393515658
 30
0.0
  0
VERTEX
  5
364
330
359
100
AcDbEntity
  8
Visible (ANSI)
100
AcDbVertex
100
AcDb2dVertex
 10
93.62045111175417
 20
78.94498328501203
 30
0.0
  0
VERTEX
  5
365
330
359
100
AcDbEntity
  8
Visible (ANSI)
100
AcDbVertex
100
AcDb2dVertex
 10
93.61213998323171
 20
78.93902995431874
 30
0.0
  0
VERTEX
  5
366
330
359
100
AcDbEntity
  8
Visible (ANSI)
100
AcDbVertex
100
AcDb2dVertex
 10
93.60423617267054
 20
78.93254196526854
 30
0.0
  0
VERTEX
  5
367
330
359
100
AcDbEntity
  8
Visible (ANSI)
100
AcDbVertex
100
AcDb2dVertex
 10
93.59677352447969
 20
78.92555235854641
 30
0.0
  0
VERTEX
  5
368
330
359
100
AcDbEntity
  8
Visible (ANSI)
100
AcDbVertex
100
AcDb2dVertex
 10
93.58978398815672
 20
78.91809117113869
 30
0.0
  0
VERTEX
  5
369
330
359
100
AcDbEntity
  8
Visible (ANSI)
100
AcDbVertex
100
AcDb2dVertex
 10
93.58329750095586
 20
78.91018543633308
 30
0.0
  0
VERTEX
  5
36A
330
359
100
AcDbEntity
  8
Visible (ANSI)
100
AcDbVertex
100
AcDb2dVertex
 10
93.57734183535621
 20
78.90187420221183
 30
0.0
  0
VERTEX
  5
36B
330
359
100
AcDbEntity
  8
Visible (ANSI)
100
AcDbVertex
100
AcDb2dVertex
 10
93.57194248759659
 20
78.89319351315855
 30
0.0
  0
VERTEX
  5
36C
330
359
100
AcDbEntity
  8
Visible (ANSI)
100
AcDbVertex
100
AcDb2dVertex
 10
93.56712259554308
 20
78.88417640985824
 30
0.0
  0
VERTEX
  5
36D
330
359
100
AcDbEntity
  8
Visible (ANSI)
100
AcDbVertex
100
AcDb2dVertex
 10
93.56290278615734
 20
78.87486194039311
 30
0.0
  0
VERTEX
  5
36E
330
359
100
AcDbEntity
  8
Visible (ANSI)
100
AcDbVertex
100
AcDb2dVertex
 10
93.559301128564
 20
78.86529215654407
 30
0.0
  0
VERTEX
  5
36F
330
359
100
AcDbEntity
  8
Visible (ANSI)
100
AcDbVertex
100
AcDb2dVertex
 10
93.55633305191814
 20
78.85550911009199
 30
0.0
  0
VERTEX
  5
370
330
359
100
AcDbEntity
  8
Visible (ANSI)
100
AcDbVertex
100
AcDb2dVertex
 10
93.55401126327299
 20
78.84554884542049
 30
0.0
  0
VERTEX
  5
371
330
359
100
AcDbEntity
  8
Visible (ANSI)
100
AcDbVertex
100
AcDb2dVertex
 10
93.55234570064704
 20
78.83546242540633
 30
0.0
  0
VERTEX
  5
372
330
359
100
AcDbEntity
  8
Visible (ANSI)
100
AcDbVertex
100
AcDb2dVertex
 10
93.55134349782456
 20
78.82528589443317
 30
0.0
  0
VERTEX
  5
373
330
359
100
AcDbEntity
  8
Visible (ANSI)
100
AcDbVertex
100
AcDb2dVertex
 10
93.55100896088918
 20
78.8150673116791
 30
0.0
  0
SEQEND
  5
35C
330
359
100
AcDbEntity
  8
Visible (ANSI)
  0
LINE
  5
374
330
6C
100
AcDbEntity
  8
Visible (ANSI)
100
AcDbLine
 10
93.70725895901184
 20
78.84631743182706
 30
0.0
 11
94.42600895901184
 21
78.84631743182703
 31
0.0
  0
LINE
  5
375
330
6C
100
AcDbEntity
  8
Visible (ANSI)
100
AcDbLine
 10
94.42600895901184
 20
78.97131743182701
 30
0.0
 11
93.70725895901184
 21
78.97131743182706
 31
0.0
  0
LINE
  5
376
330
6C
100
AcDbEntity
  8
Visible (ANSI)
100
AcDbLine
 10
93.70725895901184
 20
78.84631743182706
 30
0.0
 11
93.70725895901184
 21
78.97131743182706
 31
0.0
  0
LINE
  5
377
330
6C
100
AcDbEntity
  8
Visible (ANSI)
100
AcDbLine
 10
94.42600895901184
 20
78.84631743182703
 30
0.0
 11
94.42600895901184
 21
78.97131743182701
 31
0.0
  0
POLYLINE
  5
378
330
6C
100
AcDbEntity
  8
Visible (ANSI)
100
AcDb2dPolyline
 66
     1
 10
0.0
 20
0.0
 30
0.0
 70
   128
  0
VERTEX
  5
379
330
378
100
AcDbEntity
  8
Visible (ANSI)
100
AcDbVertex
100
AcDb2dVertex
 10
93.67600895901185
 20
78.8150673116791
 30
0.0
  0
VERTEX
  5
37A
330
378
100
AcDbEntity
  8
Visible (ANSI)
100
AcDbVertex
100
AcDb2dVertex
 10
93.67607586765819
 20
78.81710982675045
 30
0.0
  0
VERTEX
  5
37C
330
378
100
AcDbEntity
  8
Visible (ANSI)
100
AcDbVertex
100
AcDb2dVertex
 10
93.67627630709634
 20
78.81914633442455
 30
0.0
  0
VERTEX
  5
37D
330
378
100
AcDbEntity
  8
Visible (ANSI)
100
AcDbVertex
100
AcDb2dVertex
 10
93.67660941902114
 20
78.82116481990682
 30
0.0
  0
VERTEX
  5
37E
330
378
100
AcDbEntity
  8
Visible (ANSI)
100
AcDbVertex
100
AcDb2dVertex
 10
93.67707377696097
 20
78.82315627210141
 30
0.0
  0
VERTEX
  5
37F
330
378
100
AcDbEntity
  8
Visible (ANSI)
100
AcDbVertex
100
AcDb2dVertex
 10
93.67766739243682
 20
78.82511167991236
 30
0.0
  0
VERTEX
  5
380
330
378
100
AcDbEntity
  8
Visible (ANSI)
100
AcDbVertex
100
AcDb2dVertex
 10
93.67838772369884
 20
78.82702503594245
 30
0.0
  0
VERTEX
  5
381
330
378
100
AcDbEntity
  8
Visible (ANSI)
100
AcDbVertex
100
AcDb2dVertex
 10
93.67923168601597
 20
78.82889033279439
 30
0.0
  0
VERTEX
  5
382
330
378
100
AcDbEntity
  8
Visible (ANSI)
100
AcDbVertex
100
AcDb2dVertex
 10
93.68019566501333
 20
78.83069255197499
 30
0.0
  0
VERTEX
  5
383
330
378
100
AcDbEntity
  8
Visible (ANSI)
100
AcDbVertex
100
AcDb2dVertex
 10
93.68127553353859
 20
78.83242868978564
 30
0.0
  0
VERTEX
  5
384
330
378
100
AcDbEntity
  8
Visible (ANSI)
100
AcDbVertex
100
AcDb2dVertex
 10
93.68246666687852
 20
78.83408973513045
 30
0.0
  0
VERTEX
  5
385
330
378
100
AcDbEntity
  8
Visible (ANSI)
100
AcDbVertex
100
AcDb2dVertex
 10
93.6837639647587
 20
78.83567268431074
 30
0.0
  0
VERTEX
  5
386
330
378
100
AcDbEntity
  8
Visible (ANSI)
100
AcDbVertex
100
AcDb2dVertex
 10
93.68516187187662
 20
78.83716552253202
 30
0.0
  0
VERTEX
  5
387
330
378
100
AcDbEntity
  8
Visible (ANSI)
100
AcDbVertex
100
AcDb2dVertex
 10
93.68665440210143
 20
78.83856224239699
 30
0.0
  0
VERTEX
  5
388
330
378
100
AcDbEntity
  8
Visible (ANSI)
100
AcDbVertex
100
AcDb2dVertex
 10
93.68823516450701
 20
78.83985984020703
 30
0.0
  0
VERTEX
  5
389
330
378
100
AcDbEntity
  8
Visible (ANSI)
100
AcDbVertex
100
AcDb2dVertex
 10
93.68989738977152
 20
78.84105230856487
 30
0.0
  0
VERTEX
  5
38A
330
378
100
AcDbEntity
  8
Visible (ANSI)
100
AcDbVertex
100
AcDb2dVertex
 10
93.69163395877718
 20
78.84213063637459
 30
0.0
  0
VERTEX
  5
38B
330
378
100
AcDbEntity
  8
Visible (ANSI)
100
AcDbVertex
100
AcDb2dVertex
 10
93.69343743780991
 20
78.84309482363622
 30
0.0
  0
VERTEX
  5
38C
330
378
100
AcDbEntity
  8
Visible (ANSI)
100
AcDbVertex
100
AcDb2dVertex
 10
93.69530010202558
 20
78.84393886295248
 30
0.0
  0
VERTEX
  5
38D
330
378
100
AcDbEntity
  8
Visible (ANSI)
100
AcDbVertex
100
AcDb2dVertex
 10
93.69721397578301
 20
78.84465975062473
 30
0.0
  0
VERTEX
  5
38E
330
378
100
AcDbEntity
  8
Visible (ANSI)
100
AcDbVertex
100
AcDb2dVertex
 10
93.69917086344354
 20
78.84525147925568
 30
0.0
  0
VERTEX
  5
38F
330
378
100
AcDbEntity
  8
Visible (ANSI)
100
AcDbVertex
100
AcDb2dVertex
 10
93.70116238603729
 20
78.845717052544
 30
0.0
  0
VERTEX
  5
390
330
378
100
AcDbEntity
  8
Visible (ANSI)
100
AcDbVertex
100
AcDb2dVertex
 10
93.70318001499615
 20
78.84605046309243
 30
0.0
  0
VERTEX
  5
391
330
378
100
AcDbEntity
  8
Visible (ANSI)
100
AcDbVertex
100
AcDb2dVertex
 10
93.7052151117532
 20
78.84625171090092
 30
0.0
  0
VERTEX
  5
392
330
378
100
AcDbEntity
  8
Visible (ANSI)
100
AcDbVertex
100
AcDb2dVertex
 10
93.70725895854251
 20
78.84631779227088
 30
0.0
  0
SEQEND
  5
37B
330
378
100
AcDbEntity
  8
Visible (ANSI)
  0
POLYLINE
  5
393
330
6C
100
AcDbEntity
  8
Visible (ANSI)
100
AcDb2dPolyline
 66
     1
 10
0.0
 20
0.0
 30
0.0
 70
   128
  0
VERTEX
  5
394
330
393
100
AcDbEntity
  8
Visible (ANSI)
100
AcDbVertex
100
AcDb2dVertex
 10
93.55100896088918
 20
31.12756742948041
 30
0.0
  0
VERTEX
  5
395
330
393
100
AcDbEntity
  8
Visible (ANSI)
100
AcDbVertex
100
AcDb2dVertex
 10
93.55134349782456
 20
31.11734818966727
 30
0.0
  0
VERTEX
  5
397
330
393
100
AcDbEntity
  8
Visible (ANSI)
100
AcDbVertex
100
AcDb2dVertex
 10
93.55234570064704
 20
31.10717271468189
 30
0.0
  0
VERTEX
  5
398
330
393
100
AcDbEntity
  8
Visible (ANSI)
100
AcDbVertex
100
AcDb2dVertex
 10
93.55401126327299
 20
31.09708456988767
 30
0.0
  0
VERTEX
  5
399
330
393
100
AcDbEntity
  8
Visible (ANSI)
100
AcDbVertex
100
AcDb2dVertex
 10
93.55633305191814
 20
31.08712695691887
 30
0.0
  0
VERTEX
  5
39A
330
393
100
AcDbEntity
  8
Visible (ANSI)
100
AcDbVertex
100
AcDb2dVertex
 10
93.559301128564
 20
31.07734251421625
 30
0.0
  0
VERTEX
  5
39B
330
393
100
AcDbEntity
  8
Visible (ANSI)
100
AcDbVertex
100
AcDb2dVertex
 10
93.56290278615734
 20
31.06777314689573
 30
0.0
  0
VERTEX
  5
39C
330
393
100
AcDbEntity
  8
Visible (ANSI)
100
AcDbVertex
100
AcDb2dVertex
 10
93.56712259554308
 20
31.05845982141739
 30
0.0
  0
VERTEX
  5
39D
330
393
100
AcDbEntity
  8
Visible (ANSI)
100
AcDbVertex
100
AcDb2dVertex
 10
93.57194248759659
 20
31.04944243065373
 30
0.0
  0
VERTEX
  5
39E
330
393
100
AcDbEntity
  8
Visible (ANSI)
100
AcDbVertex
100
AcDb2dVertex
 10
93.57734183535621
 20
31.04075958269206
 30
0.0
  0
VERTEX
  5
39F
330
393
100
AcDbEntity
  8
Visible (ANSI)
100
AcDbVertex
100
AcDb2dVertex
 10
93.58329750095586
 20
31.03244846003619
 30
0.0
  0
VERTEX
  5
3A0
330
393
100
AcDbEntity
  8
Visible (ANSI)
100
AcDbVertex
100
AcDb2dVertex
 10
93.58978398815672
 20
31.02454464947502
 30
0.0
  0
VERTEX
  5
3A1
330
393
100
AcDbEntity
  8
Visible (ANSI)
100
AcDbVertex
100
AcDb2dVertex
 10
93.59677352447969
 20
31.01708199835087
 30
0.0
  0
VERTEX
  5
3A2
330
393
100
AcDbEntity
  8
Visible (ANSI)
100
AcDbVertex
100
AcDb2dVertex
 10
93.60423617267054
 20
31.01009246202793
 30
0.0
  0
VERTEX
  5
3A3
330
393
100
AcDbEntity
  8
Visible (ANSI)
100
AcDbVertex
100
AcDb2dVertex
 10
93.61213998323171
 20
31.00360597189375
 30
0.0
  0
VERTEX
  5
3A4
330
393
100
AcDbEntity
  8
Visible (ANSI)
100
AcDbVertex
100
AcDb2dVertex
 10
93.62045111175417
 20
30.9976503062941
 30
0.0
  0
VERTEX
  5
3A5
330
393
100
AcDbEntity
  8
Visible (ANSI)
100
AcDbVertex
100
AcDb2dVertex
 10
93.62913395971585
 20
30.99225096293445
 30
0.0
  0
VERTEX
  5
3A6
330
393
100
AcDbEntity
  8
Visible (ANSI)
100
AcDbVertex
100
AcDb2dVertex
 10
93.6381513504795
 20
30.98743106648097
 30
0.0
  0
VERTEX
  5
3A7
330
393
100
AcDbEntity
  8
Visible (ANSI)
100
AcDbVertex
100
AcDb2dVertex
 10
93.64746467302452
 20
30.98321125489526
 30
0.0
  0
VERTEX
  5
3A8
330
393
100
AcDbEntity
  8
Visible (ANSI)
100
AcDbVertex
100
AcDb2dVertex
 10
93.65703404327836
 20
30.97960959876856
 30
0.0
  0
VERTEX
  5
3A9
330
393
100
AcDbEntity
  8
Visible (ANSI)
100
AcDbVertex
100
AcDb2dVertex
 10
93.66681848304766
 20
30.97664152138938
 30
0.0
  0
VERTEX
  5
3AA
330
393
100
AcDbEntity
  8
Visible (ANSI)
100
AcDbVertex
100
AcDb2dVertex
 10
93.67677609619981
 20
30.97431973182756
 30
0.0
  0
VERTEX
  5
3AB
330
393
100
AcDbEntity
  8
Visible (ANSI)
100
AcDbVertex
100
AcDb2dVertex
 10
93.68686424154402
 20
30.97265417222657
 30
0.0
  0
VERTEX
  5
3AC
330
393
100
AcDbEntity
  8
Visible (ANSI)
100
AcDbVertex
100
AcDb2dVertex
 10
93.69703972019603
 20
30.97165197506446
 30
0.0
  0
VERTEX
  5
3AD
330
393
100
AcDbEntity
  8
Visible (ANSI)
100
AcDbVertex
100
AcDb2dVertex
 10
93.70725895854251
 20
30.97131743182705
 30
0.0
  0
SEQEND
  5
396
330
393
100
AcDbEntity
  8
Visible (ANSI)
  0
LINE
  5
3AE
330
6C
100
AcDbEntity
  8
Visible (ANSI)
100
AcDbLine
 10
93.70725895901184
 20
31.09631743182705
 30
0.0
 11
94.42600895901184
 21
31.09631743182705
 31
0.0
  0
LINE
  5
3AF
330
6C
100
AcDbEntity
  8
Visible (ANSI)
100
AcDbLine
 10
93.70725895901184
 20
31.09631743182705
 30
0.0
 11
93.70725895901184
 21
30.97131743182705
 31
0.0
  0
POLYLINE
  5
3B0
330
6C
100
AcDbEntity
  8
Visible (ANSI)
100
AcDb2dPolyline
 66
     1
 10
0.0
 20
0.0
 30
0.0
 70
   128
  0
VERTEX
  5
3B1
330
3B0
100
AcDbEntity
  8
Visible (ANSI)
100
AcDbVertex
100
AcDb2dVertex
 10
93.67600895901185
 20
31.12756742948041
 30
0.0
  0
VERTEX
  5
3B2
330
3B0
100
AcDbEntity
  8
Visible (ANSI)
100
AcDbVertex
100
AcDb2dVertex
 10
93.67607586765819
 20
31.1255235885577
 30
0.0
  0
VERTEX
  5
3B4
330
3B0
100
AcDbEntity
  8
Visible (ANSI)
100
AcDbVertex
100
AcDb2dVertex
 10
93.67627630709634
 20
31.12348848886735
 30
0.0
  0
VERTEX
  5
3B5
330
3B0
100
AcDbEntity
  8
Visible (ANSI)
100
AcDbVertex
100
AcDb2dVertex
 10
93.67660941902114
 20
31.1214708599085
 30
0.0
  0
VERTEX
  5
3B6
330
3B0
100
AcDbEntity
  8
Visible (ANSI)
100
AcDbVertex
100
AcDb2dVertex
 10
93.67707377696097
 20
31.11947933731474
 30
0.0
  0
VERTEX
  5
3B7
330
3B0
100
AcDbEntity
  8
Visible (ANSI)
100
AcDbVertex
100
AcDb2dVertex
 10
93.67766739243682
 20
31.11752245112086
 30
0.0
  0
VERTEX
  5
3B8
330
3B0
100
AcDbEntity
  8
Visible (ANSI)
100
AcDbVertex
100
AcDb2dVertex
 10
93.67838772369884
 20
31.11560857883008
 30
0.0
  0
VERTEX
  5
3B9
330
3B0
100
AcDbEntity
  8
Visible (ANSI)
100
AcDbVertex
100
AcDb2dVertex
 10
93.67923168601597
 20
31.11374591021445
 30
0.0
  0
VERTEX
  5
3BA
330
3B0
100
AcDbEntity
  8
Visible (ANSI)
100
AcDbVertex
100
AcDb2dVertex
 10
93.68019566501333
 20
31.11194243558167
 30
0.0
  0
VERTEX
  5
3BB
330
3B0
100
AcDbEntity
  8
Visible (ANSI)
100
AcDbVertex
100
AcDb2dVertex
 10
93.68127553353859
 20
31.1102058636427
 30
0.0
  0
VERTEX
  5
3BC
330
3B0
100
AcDbEntity
  8
Visible (ANSI)
100
AcDbVertex
100
AcDb2dVertex
 10
93.68246666687852
 20
31.10854363324493
 30
0.0
  0
VERTEX
  5
3BD
330
3B0
100
AcDbEntity
  8
Visible (ANSI)
100
AcDbVertex
100
AcDb2dVertex
 10
93.6837639647587
 20
31.10696287817261
 30
0.0
  0
VERTEX
  5
3BE
330
3B0
100
AcDbEntity
  8
Visible (ANSI)
100
AcDbVertex
100
AcDb2dVertex
 10
93.68516187187662
 20
31.10547034501448
 30
0.0
  0
VERTEX
  5
3BF
330
3B0
100
AcDbEntity
  8
Visible (ANSI)
100
AcDbVertex
100
AcDb2dVertex
 10
93.68665440210143
 20
31.10407244009654
 30
0.0
  0
VERTEX
  5
3C0
330
3B0
100
AcDbEntity
  8
Visible (ANSI)
100
AcDbVertex
100
AcDb2dVertex
 10
93.68823516450701
 20
31.10277513561644
 30
0.0
  0
VERTEX
  5
3C1
330
3B0
100
AcDbEntity
  8
Visible (ANSI)
100
AcDbVertex
100
AcDb2dVertex
 10
93.68989738977152
 20
31.10158400484315
 30
0.0
  0
VERTEX
  5
3C2
330
3B0
100
AcDbEntity
  8
Visible (ANSI)
100
AcDbVertex
100
AcDb2dVertex
 10
93.69163395877718
 20
31.10050413998451
 30
0.0
  0
VERTEX
  5
3C3
330
3B0
100
AcDbEntity
  8
Visible (ANSI)
100
AcDbVertex
100
AcDb2dVertex
 10
93.69343743780991
 20
31.09954016392044
 30
0.0
  0
VERTEX
  5
3C4
330
3B0
100
AcDbEntity
  8
Visible (ANSI)
100
AcDbVertex
100
AcDb2dVertex
 10
93.69530010202558
 20
31.09869619500337
 30
0.0
  0
VERTEX
  5
3C5
330
3B0
100
AcDbEntity
  8
Visible (ANSI)
100
AcDbVertex
100
AcDb2dVertex
 10
93.69721397578301
 20
31.09797587052463
 30
0.0
  0
VERTEX
  5
3C6
330
3B0
100
AcDbEntity
  8
Visible (ANSI)
100
AcDbVertex
100
AcDb2dVertex
 10
93.69917086344354
 20
31.09738225284881
 30
0.0
  0
VERTEX
  5
3C7
330
3B0
100
AcDbEntity
  8
Visible (ANSI)
100
AcDbVertex
100
AcDb2dVertex
 10
93.70116238603729
 20
31.09691788807986
 30
0.0
  0
VERTEX
  5
3C8
330
3B0
100
AcDbEntity
  8
Visible (ANSI)
100
AcDbVertex
100
AcDb2dVertex
 10
93.70318001499615
 20
31.09658478259459
 30
0.0
  0
VERTEX
  5
3C9
330
3B0
100
AcDbEntity
  8
Visible (ANSI)
100
AcDbVertex
100
AcDb2dVertex
 10
93.7052151117532
 20
31.09638434437674
 30
0.0
  0
VERTEX
  5
3CA
330
3B0
100
AcDbEntity
  8
Visible (ANSI)
100
AcDbVertex
100
AcDb2dVertex
 10
93.70725895854251
 20
31.09631742994974
 30
0.0
  0
SEQEND
  5
3B3
330
3B0
100
AcDbEntity
  8
Visible (ANSI)
  0
LINE
  5
3CB
330
6C
100
AcDbEntity
  8
Visible (ANSI)
100
AcDbLine
 10
93.70725895901184
 20
30.97131743182705
 30
0.0
 11
94.42600895901184
 21
30.97131743182705
 31
0.0
  0
LINE
  5
3CC
330
6C
100
AcDbEntity
  8
Visible (ANSI)
100
AcDbLine
 10
94.42600895901184
 20
31.09631743182705
 30
0.0
 11
94.42600895901184
 21
30.97131743182705
 31
0.0
  0
LINE
  5
3CD
330
6C
100
AcDbEntity
  8
Visible (ANSI)
100
AcDbLine
 10
93.55100895901186
 20
31.12756743182705
 30
0.0
 11
93.55100895901186
 21
78.81506743182704
 31
0.0
  0
LINE
  5
3CE
330
6C
100
AcDbEntity
  8
Hidden (ANSI)
100
AcDbLine
 10
93.67600895901185
 20
78.81506743182704
 30
0.0
 11
93.67600895901185
 21
31.12756743182705
 31
0.0
  0
LINE
  5
3CF
330
6C
100
AcDbEntity
  8
Visible (ANSI)
100
AcDbLine
 10
94.4260089590119
 20
78.75792908417874
 30
0.0
 11
94.4260089590119
 21
31.18470577947536
 31
0.0
  0
LINE
  5
3D0
330
6C
100
AcDbEntity
  8
Hidden (ANSI)
100
AcDbLine
 10
93.67600895901164
 20
54.68981743182705
 30
0.0
 11
93.55100895901165
 21
54.68981743182705
 31
0.0
  0
LINE
  5
3D1
330
6C
100
AcDbEntity
  8
Hidden (ANSI)
100
AcDbLine
 10
93.67600895901164
 20
55.25281743182706
 30
0.0
 11
93.55100895901165
 21
55.25281743182706
 31
0.0
  0
LINE
  5
3D2
330
6C
100
AcDbEntity
  8
Hidden (ANSI)
100
AcDbLine
 10
93.67600895901164
 20
77.81481743182705
 30
0.0
 11
93.55100895901165
 21
77.81481743182705
 31
0.0
  0
LINE
  5
3D3
330
6C
100
AcDbEntity
  8
Hidden (ANSI)
100
AcDbLine
 10
93.67600895901164
 20
78.37781743182704
 30
0.0
 11
93.55100895901165
 21
78.37781743182704
 31
0.0
  0
LINE
  5
3D4
330
6C
100
AcDbEntity
  8
Hidden (ANSI)
100
AcDbLine
 10
93.67600895901164
 20
31.56481743182704
 30
0.0
 11
93.55100895901165
 21
31.56481743182704
 31
0.0
  0
LINE
  5
3D5
330
6C
100
AcDbEntity
  8
Hidden (ANSI)
100
AcDbLine
 10
93.67600895901164
 20
32.12781743182705
 30
0.0
 11
93.55100895901165
 21
32.12781743182705
 31
0.0
  0
MTEXT
  5
3D6
330
6C
100
AcDbEntity
  8
Symbol (ANSI)
100
AcDbMText
 10
89.99531393232713
 20
23.85992928334454
 30
0.0
 40
1.200000014830761
 41
0.0
 46
0.0
 71
     7
 72
     1
  1
SIDE VIEW
  7
Text Style153
 73
     1
 44
1.0
  0
LINE
  5
3D7
330
6C
100
AcDbEntity
  8
Symbol (ANSI)
370
    30
100
AcDbLine
 10
89.93387377428097
 20
23.61132312169746
 30
0.0
 11
98.04311197833591
 21
23.61132312169746
 31
0.0
  0
ELLIPSE
  5
3D8
330
6C
100
AcDbEntity
  8
Visible (ANSI)
100
AcDbEllipse
 10
129.0390190923164
 20
35.88106235606323
 30
0.0
 11
-0.1404775675610101
 21
0.2439432372748666
 31
0.0
210
0.0
220
0.0
230
1.0
 40
0.5780931159158093
 41
0.0
 42
6.283185307179586
  0
ELLIPSE
  5
3D9
330
6C
100
AcDbEntity
  8
Visible (ANSI)
100
AcDbEllipse
 10
129.1274074399647
 20
35.93196182028727
 30
0.0
 11
-0.1404775675610102
 21
0.2439432372748667
 31
0.0
210
0.0
220
0.0
230
1.0
 40
0.5780931159158093
 41
0.3187556839588472
 42
2.822836969630992
  0
ELLIPSE
  5
3DA
330
6C
100
AcDbEntity
  8
Visible (ANSI)
100
AcDbEllipse
 10
129.0390190923164
 20
73.6926168800306
 30
0.0
 11
-0.1404775675610101
 21
0.2439432372748666
 31
0.0
210
0.0
220
0.0
230
1.0
 40
0.5780931159158093
 41
0.0
 42
6.283185307179586
  0
ELLIPSE
  5
3DB
330
6C
100
AcDbEntity
  8
Visible (ANSI)
100
AcDbEllipse
 10
129.1274074399648
 20
73.74351634425465
 30
0.0
 11
-0.1404775675610089
 21
0.2439432372748644
 31
0.0
210
0.0
220
0.0
230
1.0
 40
0.578093115915809
 41
0.3187556839588472
 42
2.822836969630978
  0
ELLIPSE
  5
3DC
330
6C
100
AcDbEntity
  8
Visible (ANSI)
100
AcDbEllipse
 10
143.9766498448844
 20
46.18483016418506
 30
0.0
 11
-0.1404775675610101
 21
0.2439432372748666
 31
0.0
210
0.0
220
0.0
230
1.0
 40
0.5780931159158093
 41
0.0
 42
6.283185307179586
  0
ELLIPSE
  5
3DD
330
6C
100
AcDbEntity
  8
Visible (ANSI)
100
AcDbEllipse
 10
144.0650381925328
 20
46.23572962840911
 30
0.0
 11
-0.1404775675610101
 21
0.2439432372748665
 31
0.0
210
0.0
220
0.0
230
1.0
 40
0.578093115915809
 41
0.3187556839588472
 42
2.822836969630835
  0
ELLIPSE
  5
3DE
330
6C
100
AcDbEntity
  8
Visible (ANSI)
100
AcDbEllipse
 10
114.1013883397484
 20
63.3888490719088
 30
0.0
 11
-0.1404775675610101
 21
0.2439432372748666
 31
0.0
210
0.0
220
0.0
230
1.0
 40
0.5780931159158093
 41
0.0
 42
6.283185307179586
  0
ELLIPSE
  5
3DF
330
6C
100
AcDbEntity
  8
Visible (ANSI)
100
AcDbEllipse
 10
114.1897766873967
 20
63.43974853613284
 30
0.0
 11
-0.1404775675610101
 21
0.2439432372748666
 31
0.0
210
0.0
220
0.0
230
1.0
 40
0.5780931159158092
 41
0.3187556839589727
 42
2.822836969630899
  0
ELLIPSE
  5
3E0
330
6C
100
AcDbEntity
  8
Visible (ANSI)
100
AcDbEllipse
 10
143.9766498448845
 20
65.09060742616871
 30
0.0
 11
-0.1404775675610101
 21
0.2439432372748666
 31
0.0
210
0.0
220
0.0
230
1.0
 40
0.5780931159158093
 41
0.0
 42
6.283185307179586
  0
ELLIPSE
  5
3E1
330
6C
100
AcDbEntity
  8
Visible (ANSI)
100
AcDbEllipse
 10
144.0650381925328
 20
65.14150689039277
 30
0.0
 11
-0.1404775675610076
 21
0.2439432372748622
 31
0.0
210
0.0
220
0.0
230
1.0
 40
0.5780931159158092
 41
0.3187556839588472
 42
2.822836969630978
  0
ELLIPSE
  5
3E2
330
6C
100
AcDbEntity
  8
Visible (ANSI)
100
AcDbEllipse
 10
114.1013883397484
 20
82.29462633389246
 30
0.0
 11
-0.1404775675610101
 21
0.2439432372748666
 31
0.0
210
0.0
220
0.0
230
1.0
 40
0.5780931159158093
 41
0.0
 42
6.283185307179586
  0
ELLIPSE
  5
3E3
330
6C
100
AcDbEntity
  8
Visible (ANSI)
100
AcDbEllipse
 10
114.1897766873967
 20
82.34552579811653
 30
0.0
 11
-0.1404775675610101
 21
0.2439432372748666
 31
0.0
210
0.0
220
0.0
230
1.0
 40
0.5780931159158092
 41
0.3187556839589727
 42
2.822836969630899
  0
ELLIPSE
  5
3E4
330
6C
100
AcDbEntity
  8
Visible (ANSI)
100
AcDbEllipse
 10
114.1013883397483
 20
44.48307180992514
 30
0.0
 11
-0.1404775675610101
 21
0.2439432372748666
 31
0.0
210
0.0
220
0.0
230
1.0
 40
0.5780931159158093
 41
0.0
 42
6.283185307179586
  0
ELLIPSE
  5
3E5
330
6C
100
AcDbEntity
  8
Visible (ANSI)
100
AcDbEllipse
 10
114.1897766873966
 20
44.53397127414918
 30
0.0
 11
-0.14047756756101
 21
0.2439432372748664
 31
0.0
210
0.0
220
0.0
230
1.0
 40
0.5780931159158092
 41
0.3187556839589733
 42
2.822836969630913
  0
ELLIPSE
  5
3E6
330
6C
100
AcDbEntity
  8
Visible (ANSI)
100
AcDbEllipse
 10
143.9766498448844
 20
27.27905290220138
 30
0.0
 11
-0.1404775675610101
 21
0.2439432372748666
 31
0.0
210
0.0
220
0.0
230
1.0
 40
0.5780931159158093
 41
0.0
 42
6.283185307179586
  0
ELLIPSE
  5
3E7
330
6C
100
AcDbEntity
  8
Visible (ANSI)
100
AcDbEllipse
 10
144.0650381925327
 20
27.32995236642543
 30
0.0
 11
-0.1404775675610102
 21
0.2439432372748667
 31
0.0
210
0.0
220
0.0
230
1.0
 40
0.5780931159158093
 41
0.3187556839588606
 42
2.822836969630985
  0
LINE
  5
3E8
330
6C
100
AcDbEntity
  8
Visible Narrow (ANSI)
100
AcDbLine
 10
144.7058537129832
 20
65.33883421102299
 30
0.0
 11
144.7058537129831
 21
26.44548227877076
 31
0.0
  0
LINE
  5
3E9
330
6C
100
AcDbEntity
  8
Visible Narrow (ANSI)
100
AcDbLine
 10
144.4848828438623
 20
26.39876898693261
 30
0.0
 11
144.4848828438624
 21
65.3855475028611
 31
0.0
  0
LINE
  5
3EA
330
6C
100
AcDbEntity
  8
Visible Narrow (ANSI)
100
AcDbLine
 10
113.7440436884188
 20
83.34300982744238
 30
0.0
 11
144.5549653653348
 21
65.6001800616534
 31
0.0
  0
LINE
  5
3EB
330
6C
100
AcDbEntity
  8
Visible Narrow (ANSI)
100
AcDbLine
 10
144.4848828438624
 20
65.3855475028611
 30
0.0
 11
113.5931553407705
 21
83.17491024916124
 31
0.0
  0
LINE
  5
3EC
330
6C
100
AcDbEntity
  8
Visible Narrow (ANSI)
100
AcDbLine
 10
113.5931553407705
 20
83.17491024916124
 30
0.0
 11
113.5931553407704
 21
44.18813173323274
 31
0.0
  0
LINE
  5
3ED
330
6C
100
AcDbEntity
  8
Visible Narrow (ANSI)
100
AcDbLine
 10
113.5931553407704
 20
44.18813173323274
 30
0.0
 11
144.4848828438623
 21
26.39876898693261
 31
0.0
  0
LINE
  5
3EE
330
6C
100
AcDbEntity
  8
Visible (ANSI)
100
AcDbLine
 10
113.5473907753309
 20
83.21517793352223
 30
0.0
 11
113.5473907753308
 21
44.27511270943187
 31
0.0
  0
LINE
  5
3EF
330
6C
100
AcDbEntity
  8
Visible (ANSI)
100
AcDbLine
 10
113.6459181862963
 20
44.10469051457658
 30
0.0
 11
144.4971433013371
 21
26.33865154235349
 31
0.0
  0
POLYLINE
  5
3F0
330
6C
100
AcDbEntity
  8
Visible (ANSI)
100
AcDb2dPolyline
 66
     1
 10
0.0
 20
0.0
 30
0.0
 70
   128
  0
VERTEX
  5
3F1
330
3F0
100
AcDbEntity
  8
Visible (ANSI)
100
AcDbVertex
100
AcDb2dVertex
 10
144.484883864679
 20
65.3855468183142
 30
0.0
  0
VERTEX
  5
3F2
330
3F0
100
AcDbEntity
  8
Visible (ANSI)
100
AcDbVertex
100
AcDb2dVertex
 10
144.4923460471741
 20
65.37957473473224
 30
0.0
  0
VERTEX
  5
3F4
330
3F0
100
AcDbEntity
  8
Visible (ANSI)
100
AcDbVertex
100
AcDb2dVertex
 10
144.5002484817104
 20
65.37389532390111
 30
0.0
  0
VERTEX
  5
3F5
330
3F0
100
AcDbEntity
  8
Visible (ANSI)
100
AcDbVertex
100
AcDb2dVertex
 10
144.5085605122633
 20
65.3685178212833
 30
0.0
  0
VERTEX
  5
3F6
330
3F0
100
AcDbEntity
  8
Visible (ANSI)
100
AcDbVertex
100
AcDb2dVertex
 10
144.5172431115147
 20
65.36346380285422
 30
0.0
  0
VERTEX
  5
3F7
330
3F0
100
AcDbEntity
  8
Visible (ANSI)
100
AcDbVertex
100
AcDb2dVertex
 10
144.5262616410607
 20
65.35874021077664
 30
0.0
  0
VERTEX
  5
3F8
330
3F0
100
AcDbEntity
  8
Visible (ANSI)
100
AcDbVertex
100
AcDb2dVertex
 10
144.5355731326869
 20
65.35436389594952
 30
0.0
  0
VERTEX
  5
3F9
330
3F0
100
AcDbEntity
  8
Visible (ANSI)
100
AcDbVertex
100
AcDb2dVertex
 10
144.5451433130408
 20
65.3503444853775
 30
0.0
  0
VERTEX
  5
3FA
330
3F0
100
AcDbEntity
  8
Visible (ANSI)
100
AcDbVertex
100
AcDb2dVertex
 10
144.5549275462867
 20
65.34668805645828
 30
0.0
  0
VERTEX
  5
3FB
330
3F0
100
AcDbEntity
  8
Visible (ANSI)
100
AcDbVertex
100
AcDb2dVertex
 10
144.5648857597322
 20
65.34340579843034
 30
0.0
  0
VERTEX
  5
3FC
330
3F0
100
AcDbEntity
  8
Visible (ANSI)
100
AcDbVertex
100
AcDb2dVertex
 10
144.5749739812713
 20
65.34049927853515
 30
0.0
  0
VERTEX
  5
3FD
330
3F0
100
AcDbEntity
  8
Visible (ANSI)
100
AcDbVertex
100
AcDb2dVertex
 10
144.5851486951128
 20
65.33797524759726
 30
0.0
  0
VERTEX
  5
3FE
330
3F0
100
AcDbEntity
  8
Visible (ANSI)
100
AcDbVertex
100
AcDb2dVertex
 10
144.5953690237915
 20
65.33583708337946
 30
0.0
  0
VERTEX
  5
3FF
330
3F0
100
AcDbEntity
  8
Visible (ANSI)
100
AcDbVertex
100
AcDb2dVertex
 10
144.6055883112439
 20
65.33408236134831
 30
0.0
  0
VERTEX
  5
400
330
3F0
100
AcDbEntity
  8
Visible (ANSI)
100
AcDbVertex
100
AcDb2dVertex
 10
144.6157627264069
 20
65.33271275840263
 30
0.0
  0
VERTEX
  5
401
330
3F0
100
AcDbEntity
  8
Visible (ANSI)
100
AcDbVertex
100
AcDb2dVertex
 10
144.625851346184
 20
65.331726733655
 30
0.0
  0
VERTEX
  5
402
330
3F0
100
AcDbEntity
  8
Visible (ANSI)
100
AcDbVertex
100
AcDb2dVertex
 10
144.635807759262
 20
65.33111711114151
 30
0.0
  0
VERTEX
  5
403
330
3F0
100
AcDbEntity
  8
Visible (ANSI)
100
AcDbVertex
100
AcDb2dVertex
 10
144.6455929341748
 20
65.33088100258445
 30
0.0
  0
VERTEX
  5
404
330
3F0
100
AcDbEntity
  8
Visible (ANSI)
100
AcDbVertex
100
AcDb2dVertex
 10
144.6551625773223
 20
65.33100755915706
 30
0.0
  0
VERTEX
  5
405
330
3F0
100
AcDbEntity
  8
Visible (ANSI)
100
AcDbVertex
100
AcDb2dVertex
 10
144.6644757427924
 20
65.33149033446036
 30
0.0
  0
VERTEX
  5
406
330
3F0
100
AcDbEntity
  8
Visible (ANSI)
100
AcDbVertex
100
AcDb2dVertex
 10
144.6734928349483
 20
65.33232121348088
 30
0.0
  0
VERTEX
  5
407
330
3F0
100
AcDbEntity
  8
Visible (ANSI)
100
AcDbVertex
100
AcDb2dVertex
 10
144.6821757330078
 20
65.33348311733549
 30
0.0
  0
VERTEX
  5
408
330
3F0
100
AcDbEntity
  8
Visible (ANSI)
100
AcDbVertex
100
AcDb2dVertex
 10
144.6904879132888
 20
65.33496726332408
 30
0.0
  0
VERTEX
  5
409
330
3F0
100
AcDbEntity
  8
Visible (ANSI)
100
AcDbVertex
100
AcDb2dVertex
 10
144.6983903338246
 20
65.33675604208858
 30
0.0
  0
VERTEX
  5
40A
330
3F0
100
AcDbEntity
  8
Visible (ANSI)
100
AcDbVertex
100
AcDb2dVertex
 10
144.7058543073533
 20
65.33883294321238
 30
0.0
  0
SEQEND
  5
3F3
330
3F0
100
AcDbEntity
  8
Visible (ANSI)
  0
POLYLINE
  5
40B
330
6C
100
AcDbEntity
  8
Visible (ANSI)
100
AcDb2dPolyline
 66
     1
 10
0.0
 20
0.0
 30
0.0
 70
   128
  0
VERTEX
  5
40C
330
40B
100
AcDbEntity
  8
Visible (ANSI)
100
AcDbVertex
100
AcDb2dVertex
 10
144.7058543073532
 20
26.44548192657939
 30
0.0
  0
VERTEX
  5
40D
330
40B
100
AcDbEntity
  8
Visible (ANSI)
100
AcDbVertex
100
AcDb2dVertex
 10
144.6983903338245
 20
26.4395112997205
 30
0.0
  0
VERTEX
  5
40F
330
40B
100
AcDbEntity
  8
Visible (ANSI)
100
AcDbVertex
100
AcDb2dVertex
 10
144.6904879132887
 20
26.43382879522092
 30
0.0
  0
VERTEX
  5
410
330
40B
100
AcDbEntity
  8
Visible (ANSI)
100
AcDbVertex
100
AcDb2dVertex
 10
144.6821757330077
 20
26.42845337916244
 30
0.0
  0
VERTEX
  5
411
330
40B
100
AcDbEntity
  8
Visible (ANSI)
100
AcDbVertex
100
AcDb2dVertex
 10
144.6734928349482
 20
26.42339774957273
 30
0.0
  0
VERTEX
  5
412
330
40B
100
AcDbEntity
  8
Visible (ANSI)
100
AcDbVertex
100
AcDb2dVertex
 10
144.6644757427923
 20
26.41867558129741
 30
0.0
  0
VERTEX
  5
413
330
40B
100
AcDbEntity
  8
Visible (ANSI)
100
AcDbVertex
100
AcDb2dVertex
 10
144.6551625773222
 20
26.41429908025904
 30
0.0
  0
VERTEX
  5
414
330
40B
100
AcDbEntity
  8
Visible (ANSI)
100
AcDbVertex
100
AcDb2dVertex
 10
144.6455929341747
 20
26.41027879795134
 30
0.0
  0
VERTEX
  5
415
330
40B
100
AcDbEntity
  8
Visible (ANSI)
100
AcDbVertex
100
AcDb2dVertex
 10
144.6358077592619
 20
26.40662363643849
 30
0.0
  0
VERTEX
  5
416
330
40B
100
AcDbEntity
  8
Visible (ANSI)
100
AcDbVertex
100
AcDb2dVertex
 10
144.6258513461839
 20
26.40333952362446
 30
0.0
  0
VERTEX
  5
417
330
40B
100
AcDbEntity
  8
Visible (ANSI)
100
AcDbVertex
100
AcDb2dVertex
 10
144.6157627264068
 20
26.4004342783022
 30
0.0
  0
VERTEX
  5
418
330
40B
100
AcDbEntity
  8
Visible (ANSI)
100
AcDbVertex
100
AcDb2dVertex
 10
144.6055883112438
 20
26.39791015551278
 30
0.0
  0
VERTEX
  5
419
330
40B
100
AcDbEntity
  8
Visible (ANSI)
100
AcDbVertex
100
AcDb2dVertex
 10
144.5953690237914
 20
26.39577114221639
 30
0.0
  0
VERTEX
  5
41A
330
40B
100
AcDbEntity
  8
Visible (ANSI)
100
AcDbVertex
100
AcDb2dVertex
 10
144.5851486951126
 20
26.3940180363643
 30
0.0
  0
VERTEX
  5
41B
330
40B
100
AcDbEntity
  8
Visible (ANSI)
100
AcDbVertex
100
AcDb2dVertex
 10
144.5749739812712
 20
26.39264833197466
 30
0.0
  0
VERTEX
  5
41C
330
40B
100
AcDbEntity
  8
Visible (ANSI)
100
AcDbVertex
100
AcDb2dVertex
 10
144.564885759732
 20
26.39166112613477
 30
0.0
  0
VERTEX
  5
41D
330
40B
100
AcDbEntity
  8
Visible (ANSI)
100
AcDbVertex
100
AcDb2dVertex
 10
144.5549275462866
 20
26.39105210450037
 30
0.0
  0
VERTEX
  5
41E
330
40B
100
AcDbEntity
  8
Visible (ANSI)
100
AcDbVertex
100
AcDb2dVertex
 10
144.5451433130407
 20
26.3908148076845
 30
0.0
  0
VERTEX
  5
41F
330
40B
100
AcDbEntity
  8
Visible (ANSI)
100
AcDbVertex
100
AcDb2dVertex
 10
144.5355731326868
 20
26.39094294818662
 30
0.0
  0
VERTEX
  5
420
330
40B
100
AcDbEntity
  8
Visible (ANSI)
100
AcDbVertex
100
AcDb2dVertex
 10
144.5262616410605
 20
26.39142552768622
 30
0.0
  0
VERTEX
  5
421
330
40B
100
AcDbEntity
  8
Visible (ANSI)
100
AcDbVertex
100
AcDb2dVertex
 10
144.5172431115146
 20
26.39225539402871
 30
0.0
  0
VERTEX
  5
422
330
40B
100
AcDbEntity
  8
Visible (ANSI)
100
AcDbVertex
100
AcDb2dVertex
 10
144.5085605122631
 20
26.39341813279545
 30
0.0
  0
VERTEX
  5
423
330
40B
100
AcDbEntity
  8
Visible (ANSI)
100
AcDbVertex
100
AcDb2dVertex
 10
144.5002484817103
 20
26.39490190967816
 30
0.0
  0
VERTEX
  5
424
330
40B
100
AcDbEntity
  8
Visible (ANSI)
100
AcDbVertex
100
AcDb2dVertex
 10
144.492346047174
 20
26.39669005043941
 30
0.0
  0
VERTEX
  5
425
330
40B
100
AcDbEntity
  8
Visible (ANSI)
100
AcDbVertex
100
AcDb2dVertex
 10
144.4848838646789
 20
26.39876839869382
 30
0.0
  0
SEQEND
  5
40E
330
40B
100
AcDbEntity
  8
Visible (ANSI)
  0
LINE
  5
426
330
6C
100
AcDbEntity
  8
Visible (ANSI)
100
AcDbLine
 10
144.61759722631
 20
65.38980960893249
 30
0.0
 11
145.1256983643126
 21
65.68240559453531
 31
0.0
  0
LINE
  5
427
330
6C
100
AcDbEntity
  8
Visible (ANSI)
100
AcDbLine
 10
145.2140867119608
 20
26.73815419805905
 30
0.0
 11
144.7058537129831
 21
26.44548227877076
 31
0.0
  0
LINE
  5
428
330
6C
100
AcDbEntity
  8
Visible (ANSI)
100
AcDbLine
 10
144.6211892395716
 20
65.38758923869476
 30
0.0
 11
144.7058537129832
 21
65.33883421102299
 31
0.0
  0
POLYLINE
  5
429
330
6C
100
AcDbEntity
  8
Visible (ANSI)
100
AcDb2dPolyline
 66
     1
 10
0.0
 20
0.0
 30
0.0
 70
   128
  0
VERTEX
  5
42A
330
429
100
AcDbEntity
  8
Visible (ANSI)
100
AcDbVertex
100
AcDb2dVertex
 10
144.5732722109998
 20
65.43644628177379
 30
0.0
  0
VERTEX
  5
42B
330
429
100
AcDbEntity
  8
Visible (ANSI)
100
AcDbVertex
100
AcDb2dVertex
 10
144.5746306802166
 20
65.43393158880951
 30
0.0
  0
VERTEX
  5
42D
330
429
100
AcDbEntity
  8
Visible (ANSI)
100
AcDbVertex
100
AcDb2dVertex
 10
144.576065894572
 20
65.43146353661775
 30
0.0
  0
VERTEX
  5
42E
330
429
100
AcDbEntity
  8
Visible (ANSI)
100
AcDbVertex
100
AcDb2dVertex
 10
144.5775689350701
 20
65.42904431817078
 30
0.0
  0
VERTEX
  5
42F
330
429
100
AcDbEntity
  8
Visible (ANSI)
100
AcDbVertex
100
AcDb2dVertex
 10
144.5791369740083
 20
65.42667966261982
 30
0.0
  0
VERTEX
  5
430
330
429
100
AcDbEntity
  8
Visible (ANSI)
100
AcDbVertex
100
AcDb2dVertex
 10
144.5807605339525
 20
65.42437144135395
 30
0.0
  0
VERTEX
  5
431
330
429
100
AcDbEntity
  8
Visible (ANSI)
100
AcDbVertex
100
AcDb2dVertex
 10
144.5824383586123
 20
65.42211893092375
 30
0.0
  0
VERTEX
  5
432
330
429
100
AcDbEntity
  8
Visible (ANSI)
100
AcDbVertex
100
AcDb2dVertex
 10
144.5841625502501
 20
65.41992246621859
 30
0.0
  0
VERTEX
  5
433
330
429
100
AcDbEntity
  8
Visible (ANSI)
100
AcDbVertex
100
AcDb2dVertex
 10
144.5859249461549
 20
65.41778959653554
 30
0.0
  0
VERTEX
  5
434
330
429
100
AcDbEntity
  8
Visible (ANSI)
100
AcDbVertex
100
AcDb2dVertex
 10
144.5877234975792
 20
65.41571668641411
 30
0.0
  0
VERTEX
  5
435
330
429
100
AcDbEntity
  8
Visible (ANSI)
100
AcDbVertex
100
AcDb2dVertex
 10
144.5895474091895
 20
65.41370730398094
 30
0.0
  0
VERTEX
  5
436
330
429
100
AcDbEntity
  8
Visible (ANSI)
100
AcDbVertex
100
AcDb2dVertex
 10
144.5913941388485
 20
65.41175752965127
 30
0.0
  0
VERTEX
  5
437
330
429
100
AcDbEntity
  8
Visible (ANSI)
100
AcDbVertex
100
AcDb2dVertex
 10
144.5932524155928
 20
65.40987556898503
 30
0.0
  0
VERTEX
  5
438
330
429
100
AcDbEntity
  8
Visible (ANSI)
100
AcDbVertex
100
AcDb2dVertex
 10
144.5951213633508
 20
65.40805601563455
 30
0.0
  0
VERTEX
  5
439
330
429
100
AcDbEntity
  8
Visible (ANSI)
100
AcDbVertex
100
AcDb2dVertex
 10
144.596989275068
 20
65.40629945703591
 30
0.0
  0
VERTEX
  5
43A
330
429
100
AcDbEntity
  8
Visible (ANSI)
100
AcDbVertex
100
AcDb2dVertex
 10
144.598850613785
 20
65.40461006218315
 30
0.0
  0
VERTEX
  5
43B
330
429
100
AcDbEntity
  8
Visible (ANSI)
100
AcDbVertex
100
AcDb2dVertex
 10
144.6007017761745
 20
65.40298330039284
 30
0.0
  0
VERTEX
  5
43C
330
429
100
AcDbEntity
  8
Visible (ANSI)
100
AcDbVertex
100
AcDb2dVertex
 10
144.6025326118358
 20
65.40142066499729
 30
0.0
  0
VERTEX
  5
43D
330
429
100
AcDbEntity
  8
Visible (ANSI)
100
AcDbVertex
100
AcDb2dVertex
 10
144.6043370559371
 20
65.39991865401328
 30
0.0
  0
VERTEX
  5
43E
330
429
100
AcDbEntity
  8
Visible (ANSI)
100
AcDbVertex
100
AcDb2dVertex
 10
144.6061110172058
 20
65.39847982276398
 30
0.0
  0
VERTEX
  5
43F
330
429
100
AcDbEntity
  8
Visible (ANSI)
100
AcDbVertex
100
AcDb2dVertex
 10
144.607846024789
 20
65.39710172991739
 30
0.0
  0
VERTEX
  5
440
330
429
100
AcDbEntity
  8
Visible (ANSI)
100
AcDbVertex
100
AcDb2dVertex
 10
144.6095356114685
 20
65.39578309743662
 30
0.0
  0
VERTEX
  5
441
330
429
100
AcDbEntity
  8
Visible (ANSI)
100
AcDbVertex
100
AcDb2dVertex
 10
144.6111753302541
 20
65.39451890880508
 30
0.0
  0
VERTEX
  5
442
330
429
100
AcDbEntity
  8
Visible (ANSI)
100
AcDbVertex
100
AcDb2dVertex
 10
144.6127585251794
 20
65.39331268862344
 30
0.0
  0
VERTEX
  5
443
330
429
100
AcDbEntity
  8
Visible (ANSI)
100
AcDbVertex
100
AcDb2dVertex
 10
144.614278462497
 20
65.3921605497058
 30
0.0
  0
SEQEND
  5
42C
330
429
100
AcDbEntity
  8
Visible (ANSI)
  0
LINE
  5
444
330
6C
100
AcDbEntity
  8
Visible (ANSI)
100
AcDbLine
 10
144.5732711915107
 20
65.43644696708515
 30
0.0
 11
144.5696469850898
 21
65.43435992541088
 31
0.0
  0
LINE
  5
445
330
6C
100
AcDbEntity
  8
Visible (ANSI)
100
AcDbLine
 10
144.5696469850898
 20
65.43435992541088
 30
0.0
 11
144.4848828438624
 21
65.3855475028611
 31
0.0
  0
LINE
  5
446
330
6C
100
AcDbEntity
  8
Visible (ANSI)
100
AcDbLine
 10
144.7058537129832
 20
65.33883421102299
 30
0.0
 11
145.2140867119609
 21
65.63150613031128
 31
0.0
  0
LINE
  5
447
330
6C
100
AcDbEntity
  8
Visible (ANSI)
100
AcDbLine
 10
145.1256983643126
 20
65.68240559453531
 30
0.0
 11
145.2140867119609
 21
65.63150613031128
 31
0.0
  0
POLYLINE
  5
448
330
6C
100
AcDbEntity
  8
Visible (ANSI)
100
AcDb2dPolyline
 66
     1
 10
0.0
 20
0.0
 30
0.0
 70
   128
  0
VERTEX
  5
449
330
448
100
AcDbEntity
  8
Visible (ANSI)
100
AcDbVertex
100
AcDb2dVertex
 10
113.5931553404387
 20
83.1749101526546
 30
0.0
  0
VERTEX
  5
44A
330
448
100
AcDbEntity
  8
Visible (ANSI)
100
AcDbVertex
100
AcDb2dVertex
 10
113.5950753533972
 20
83.18243110768936
 30
0.0
  0
VERTEX
  5
44C
330
448
100
AcDbEntity
  8
Visible (ANSI)
100
AcDbVertex
100
AcDb2dVertex
 10
113.5974674691354
 20
83.19018955887671
 30
0.0
  0
VERTEX
  5
44D
330
448
100
AcDbEntity
  8
Visible (ANSI)
100
AcDbVertex
100
AcDb2dVertex
 10
113.600328651089
 20
83.19814445737726
 30
0.0
  0
VERTEX
  5
44E
330
448
100
AcDbEntity
  8
Visible (ANSI)
100
AcDbVertex
100
AcDb2dVertex
 10
113.6036538632074
 20
83.2062634255848
 30
0.0
  0
VERTEX
  5
44F
330
448
100
AcDbEntity
  8
Visible (ANSI)
100
AcDbVertex
100
AcDb2dVertex
 10
113.6074360616571
 20
83.214500680028
 30
0.0
  0
VERTEX
  5
450
330
448
100
AcDbEntity
  8
Visible (ANSI)
100
AcDbVertex
100
AcDb2dVertex
 10
113.6116662777878
 20
83.22282156891169
 30
0.0
  0
VERTEX
  5
451
330
448
100
AcDbEntity
  8
Visible (ANSI)
100
AcDbVertex
100
AcDb2dVertex
 10
113.616333584946
 20
83.23118543979292
 30
0.0
  0
VERTEX
  5
452
330
448
100
AcDbEntity
  8
Visible (ANSI)
100
AcDbVertex
100
AcDb2dVertex
 10
113.621425214628
 20
83.23955055091136
 30
0.0
  0
VERTEX
  5
453
330
448
100
AcDbEntity
  8
Visible (ANSI)
100
AcDbVertex
100
AcDb2dVertex
 10
113.6269265896657
 20
83.24787657463151
 30
0.0
  0
VERTEX
  5
454
330
448
100
AcDbEntity
  8
Visible (ANSI)
100
AcDbVertex
100
AcDb2dVertex
 10
113.632821332524
 20
83.25612708655187
 30
0.0
  0
VERTEX
  5
455
330
448
100
AcDbEntity
  8
Visible (ANSI)
100
AcDbVertex
100
AcDb2dVertex
 10
113.6390914312328
 20
83.26426222717575
 30
0.0
  0
VERTEX
  5
456
330
448
100
AcDbEntity
  8
Visible (ANSI)
100
AcDbVertex
100
AcDb2dVertex
 10
113.6457172310904
 20
83.27223877357665
 30
0.0
  0
VERTEX
  5
457
330
448
100
AcDbEntity
  8
Visible (ANSI)
100
AcDbVertex
100
AcDb2dVertex
 10
113.6526775798547
 20
83.28002242489096
 30
0.0
  0
VERTEX
  5
458
330
448
100
AcDbEntity
  8
Visible (ANSI)
100
AcDbVertex
100
AcDb2dVertex
 10
113.659949869226
 20
83.28757562432379
 30
0.0
  0
VERTEX
  5
459
330
448
100
AcDbEntity
  8
Visible (ANSI)
100
AcDbVertex
100
AcDb2dVertex
 10
113.6675101758899
 20
83.29485757348216
 30
0.0
  0
VERTEX
  5
45A
330
448
100
AcDbEntity
  8
Visible (ANSI)
100
AcDbVertex
100
AcDb2dVertex
 10
113.6753333361865
 20
83.30183903803163
 30
0.0
  0
VERTEX
  5
45B
330
448
100
AcDbEntity
  8
Visible (ANSI)
100
AcDbVertex
100
AcDb2dVertex
 10
113.6833930456704
 20
83.30848278837365
 30
0.0
  0
VERTEX
  5
45C
330
448
100
AcDbEntity
  8
Visible (ANSI)
100
AcDbVertex
100
AcDb2dVertex
 10
113.6916620105237
 20
83.31475590783213
 30
0.0
  0
VERTEX
  5
45D
330
448
100
AcDbEntity
  8
Visible (ANSI)
100
AcDbVertex
100
AcDb2dVertex
 10
113.7001120284482
 20
83.32062742179259
 30
0.0
  0
VERTEX
  5
45E
330
448
100
AcDbEntity
  8
Visible (ANSI)
100
AcDbVertex
100
AcDb2dVertex
 10
113.7087141400787
 20
83.32606835622904
 30
0.0
  0
VERTEX
  5
45F
330
448
100
AcDbEntity
  8
Visible (ANSI)
100
AcDbVertex
100
AcDb2dVertex
 10
113.7174386871893
 20
83.33105184766591
 30
0.0
  0
VERTEX
  5
460
330
448
100
AcDbEntity
  8
Visible (ANSI)
100
AcDbVertex
100
AcDb2dVertex
 10
113.7262555344981
 20
83.33555070057693
 30
0.0
  0
VERTEX
  5
461
330
448
100
AcDbEntity
  8
Visible (ANSI)
100
AcDbVertex
100
AcDb2dVertex
 10
113.7351341357811
 20
83.33954486889643
 30
0.0
  0
VERTEX
  5
462
330
448
100
AcDbEntity
  8
Visible (ANSI)
100
AcDbVertex
100
AcDb2dVertex
 10
113.7440436798407
 20
83.34300924264033
 30
0.0
  0
SEQEND
  5
44B
330
448
100
AcDbEntity
  8
Visible (ANSI)
  0
POLYLINE
  5
463
330
6C
100
AcDbEntity
  8
Visible (ANSI)
100
AcDb2dPolyline
 66
     1
 10
0.0
 20
0.0
 30
0.0
 70
   128
  0
VERTEX
  5
464
330
463
100
AcDbEntity
  8
Visible (ANSI)
100
AcDbVertex
100
AcDb2dVertex
 10
144.5549656692727
 20
65.60017929688533
 30
0.0
  0
VERTEX
  5
465
330
463
100
AcDbEntity
  8
Visible (ANSI)
100
AcDbVertex
100
AcDb2dVertex
 10
144.5494217335924
 20
65.59477679817529
 30
0.0
  0
VERTEX
  5
467
330
463
100
AcDbEntity
  8
Visible (ANSI)
100
AcDbVertex
100
AcDb2dVertex
 10
144.5439108646244
 20
65.58884328179641
 30
0.0
  0
VERTEX
  5
468
330
463
100
AcDbEntity
  8
Visible (ANSI)
100
AcDbVertex
100
AcDb2dVertex
 10
144.5384617496306
 20
65.58240508082599
 30
0.0
  0
VERTEX
  5
469
330
463
100
AcDbEntity
  8
Visible (ANSI)
100
AcDbVertex
100
AcDb2dVertex
 10
144.5331028108993
 20
65.57548346442297
 30
0.0
  0
VERTEX
  5
46A
330
463
100
AcDbEntity
  8
Visible (ANSI)
100
AcDbVertex
100
AcDb2dVertex
 10
144.527868448177
 20
65.56810317237176
 30
0.0
  0
VERTEX
  5
46B
330
463
100
AcDbEntity
  8
Visible (ANSI)
100
AcDbVertex
100
AcDb2dVertex
 10
144.5227861625675
 20
65.56029231035193
 30
0.0
  0
VERTEX
  5
46C
330
463
100
AcDbEntity
  8
Visible (ANSI)
100
AcDbVertex
100
AcDb2dVertex
 10
144.5178828060936
 20
65.55208106592727
 30
0.0
  0
VERTEX
  5
46D
330
463
100
AcDbEntity
  8
Visible (ANSI)
100
AcDbVertex
100
AcDb2dVertex
 10
144.5131908289246
 20
65.54349796752588
 30
0.0
  0
VERTEX
  5
46E
330
463
100
AcDbEntity
  8
Visible (ANSI)
100
AcDbVertex
100
AcDb2dVertex
 10
144.508733285304
 20
65.53457837323254
 30
0.0
  0
VERTEX
  5
46F
330
463
100
AcDbEntity
  8
Visible (ANSI)
100
AcDbVertex
100
AcDb2dVertex
 10
144.5045407109551
 20
65.5253570760148
 30
0.0
  0
VERTEX
  5
470
330
463
100
AcDbEntity
  8
Visible (ANSI)
100
AcDbVertex
100
AcDb2dVertex
 10
144.5006361538987
 20
65.51586452852259
 30
0.0
  0
VERTEX
  5
471
330
463
100
AcDbEntity
  8
Visible (ANSI)
100
AcDbVertex
100
AcDb2dVertex
 10
144.4970414218104
 20
65.5061427474644
 30
0.0
  0
VERTEX
  5
472
330
463
100
AcDbEntity
  8
Visible (ANSI)
100
AcDbVertex
100
AcDb2dVertex
 10
144.4937833542677
 20
65.49622685300412
 30
0.0
  0
VERTEX
  5
473
330
463
100
AcDbEntity
  8
Visible (ANSI)
100
AcDbVertex
100
AcDb2dVertex
 10
144.4908788722349
 20
65.48615358263639
 30
0.0
  0
VERTEX
  5
474
330
463
100
AcDbEntity
  8
Visible (ANSI)
100
AcDbVertex
100
AcDb2dVertex
 10
144.4883518616916
 20
65.47596372265663
 30
0.0
  0
VERTEX
  5
475
330
463
100
AcDbEntity
  8
Visible (ANSI)
100
AcDbVertex
100
AcDb2dVertex
 10
144.4862182272655
 20
65.46569834609941
 30
0.0
  0
VERTEX
  5
476
330
463
100
AcDbEntity
  8
Visible (ANSI)
100
AcDbVertex
100
AcDb2dVertex
 10
144.4844922059629
 20
65.45539511001483
 30
0.0
  0
VERTEX
  5
477
330
463
100
AcDbEntity
  8
Visible (ANSI)
100
AcDbVertex
100
AcDb2dVertex
 10
144.4831926311196
 20
65.44509189107421
 30
0.0
  0
VERTEX
  5
478
330
463
100
AcDbEntity
  8
Visible (ANSI)
100
AcDbVertex
100
AcDb2dVertex
 10
144.4823280316648
 20
65.43483287244661
 30
0.0
  0
VERTEX
  5
479
330
463
100
AcDbEntity
  8
Visible (ANSI)
100
AcDbVertex
100
AcDb2dVertex
 10
144.4819135655302
 20
65.42465626994406
 30
0.0
  0
VERTEX
  5
47A
330
463
100
AcDbEntity
  8
Visible (ANSI)
100
AcDbVertex
100
AcDb2dVertex
 10
144.4819560940234
 20
65.41459794889949
 30
0.0
  0
VERTEX
  5
47B
330
463
100
AcDbEntity
  8
Visible (ANSI)
100
AcDbVertex
100
AcDb2dVertex
 10
144.4824605204491
 20
65.40470492543275
 30
0.0
  0
VERTEX
  5
47C
330
463
100
AcDbEntity
  8
Visible (ANSI)
100
AcDbVertex
100
AcDb2dVertex
 10
144.4834361370259
 20
65.39500712618601
 30
0.0
  0
VERTEX
  5
47D
330
463
100
AcDbEntity
  8
Visible (ANSI)
100
AcDbVertex
100
AcDb2dVertex
 10
144.484883864679
 20
65.3855468183142
 30
0.0
  0
SEQEND
  5
466
330
463
100
AcDbEntity
  8
Visible (ANSI)
  0
LINE
  5
47E
330
6C
100
AcDbEntity
  8
Visible (ANSI)
100
AcDbLine
 10
144.5550912513718
 20
65.49805916399543
 30
0.0
 11
145.0631983643126
 21
65.79065859033633
 31
0.0
  0
LINE
  5
47F
330
6C
100
AcDbEntity
  8
Visible (ANSI)
100
AcDbLine
 10
145.0631983643126
 20
65.89285198094166
 30
0.0
 11
144.5549653653348
 21
65.6001800616534
 31
0.0
  0
LINE
  5
480
330
6C
100
AcDbEntity
  8
Visible (ANSI)
100
AcDbLine
 10
144.5549653653348
 20
65.50217692861328
 30
0.0
 11
144.5549653653348
 21
65.6001800616534
 31
0.0
  0
LINE
  5
481
330
6C
100
AcDbEntity
  8
Visible (ANSI)
100
AcDbLine
 10
145.0631983643126
 20
65.79065859033633
 30
0.0
 11
145.0631983643126
 21
65.89285198094166
 31
0.0
  0
POLYLINE
  5
482
330
6C
100
AcDbEntity
  8
Visible (ANSI)
100
AcDb2dPolyline
 66
     1
 10
0.0
 20
0.0
 30
0.0
 70
   128
  0
VERTEX
  5
483
330
482
100
AcDbEntity
  8
Visible (ANSI)
100
AcDbVertex
100
AcDb2dVertex
 10
144.5732722109998
 20
65.43644628177379
 30
0.0
  0
VERTEX
  5
484
330
482
100
AcDbEntity
  8
Visible (ANSI)
100
AcDbVertex
100
AcDb2dVertex
 10
144.5717698761806
 20
65.43888695543812
 30
0.0
  0
VERTEX
  5
486
330
482
100
AcDbEntity
  8
Visible (ANSI)
100
AcDbVertex
100
AcDb2dVertex
 10
144.5703466840786
 20
65.44136829303177
 30
0.0
  0
VERTEX
  5
487
330
482
100
AcDbEntity
  8
Visible (ANSI)
100
AcDbVertex
100
AcDb2dVertex
 10
144.569004332443
 20
65.44388145904159
 30
0.0
  0
VERTEX
  5
488
330
482
100
AcDbEntity
  8
Visible (ANSI)
100
AcDbVertex
100
AcDb2dVertex
 10
144.5677378647257
 20
65.44642358022386
 30
0.0
  0
VERTEX
  5
489
330
482
100
AcDbEntity
  8
Visible (ANSI)
100
AcDbVertex
100
AcDb2dVertex
 10
144.5665505402846
 20
65.44898918547989
 30
0.0
  0
VERTEX
  5
48A
330
482
100
AcDbEntity
  8
Visible (ANSI)
100
AcDbVertex
100
AcDb2dVertex
 10
144.5654368463697
 20
65.45157262560538
 30
0.0
  0
VERTEX
  5
48B
330
482
100
AcDbEntity
  8
Visible (ANSI)
100
AcDbVertex
100
AcDb2dVertex
 10
144.5643994942269
 20
65.45416320253465
 30
0.0
  0
VERTEX
  5
48C
330
482
100
AcDbEntity
  8
Visible (ANSI)
100
AcDbVertex
100
AcDb2dVertex
 10
144.5634324328951
 20
65.4567623241238
 30
0.0
  0
VERTEX
  5
48D
330
482
100
AcDbEntity
  8
Visible (ANSI)
100
AcDbVertex
100
AcDb2dVertex
 10
144.562537847368
 20
65.45935653359342
 30
0.0
  0
VERTEX
  5
48E
330
482
100
AcDbEntity
  8
Visible (ANSI)
100
AcDbVertex
100
AcDb2dVertex
 10
144.5617091746274
 20
65.46194448826032
 30
0.0
  0
VERTEX
  5
48F
330
482
100
AcDbEntity
  8
Visible (ANSI)
100
AcDbVertex
100
AcDb2dVertex
 10
144.5609481032955
 20
65.46451735683411
 30
0.0
  0
VERTEX
  5
490
330
482
100
AcDbEntity
  8
Visible (ANSI)
100
AcDbVertex
100
AcDb2dVertex
 10
144.5602475908349
 20
65.46707106482983
 30
0.0
  0
VERTEX
  5
491
330
482
100
AcDbEntity
  8
Visible (ANSI)
100
AcDbVertex
100
AcDb2dVertex
 10
144.5596088664425
 20
65.4695965163916
 30
0.0
  0
VERTEX
  5
492
330
482
100
AcDbEntity
  8
Visible (ANSI)
100
AcDbVertex
100
AcDb2dVertex
 10
144.5590244486377
 20
65.47209183992899
 30
0.0
  0
VERTEX
  5
493
330
482
100
AcDbEntity
  8
Visible (ANSI)
100
AcDbVertex
100
AcDb2dVertex
 10
144.5584951494526
 20
65.47455015502212
 30
0.0
  0
VERTEX
  5
494
330
482
100
AcDbEntity
  8
Visible (ANSI)
100
AcDbVertex
100
AcDb2dVertex
 10
144.5580130959099
 20
65.47696445330214
 30
0.0
  0
VERTEX
  5
495
330
482
100
AcDbEntity
  8
Visible (ANSI)
100
AcDbVertex
100
AcDb2dVertex
 10
144.5575787313602
 20
65.479330097705
 30
0.0
  0
VERTEX
  5
496
330
482
100
AcDbEntity
  8
Visible (ANSI)
100
AcDbVertex
100
AcDb2dVertex
 10
144.5571838431833
 20
65.4816423399396
 30
0.0
  0
VERTEX
  5
497
330
482
100
AcDbEntity
  8
Visible (ANSI)
100
AcDbVertex
100
AcDb2dVertex
 10
144.5568285620511
 20
65.48389390721681
 30
0.0
  0
VERTEX
  5
498
330
482
100
AcDbEntity
  8
Visible (ANSI)
100
AcDbVertex
100
AcDb2dVertex
 10
144.5565043901465
 20
65.48608234267703
 30
0.0
  0
VERTEX
  5
499
330
482
100
AcDbEntity
  8
Visible (ANSI)
100
AcDbVertex
100
AcDb2dVertex
 10
144.5562112061315
 20
65.48820022840828
 30
0.0
  0
VERTEX
  5
49A
330
482
100
AcDbEntity
  8
Visible (ANSI)
100
AcDbVertex
100
AcDb2dVertex
 10
144.5559402892176
 20
65.49024743481523
 30
0.0
  0
VERTEX
  5
49B
330
482
100
AcDbEntity
  8
Visible (ANSI)
100
AcDbVertex
100
AcDb2dVertex
 10
144.55569132517
 20
65.49221643290414
 30
0.0
  0
VERTEX
  5
49C
330
482
100
AcDbEntity
  8
Visible (ANSI)
100
AcDbVertex
100
AcDb2dVertex
 10
144.5554554376385
 20
65.49410454783252
 30
0.0
  0
SEQEND
  5
485
330
482
100
AcDbEntity
  8
Visible (ANSI)
  0
LINE
  5
49D
330
6C
100
AcDbEntity
  8
Visible (ANSI)
100
AcDbLine
 10
113.7440436884188
 20
83.34300982744238
 30
0.0
 11
114.2522766873966
 21
83.63568174673062
 31
0.0
  0
POLYLINE
  5
49E
330
6C
100
AcDbEntity
  8
Visible (ANSI)
100
AcDb2dPolyline
 66
     1
 10
0.0
 20
0.0
 30
0.0
 70
   128
  0
VERTEX
  5
49F
330
49E
100
AcDbEntity
  8
Visible (ANSI)
100
AcDbVertex
100
AcDb2dVertex
 10
113.5931553404386
 20
44.18813173303423
 30
0.0
  0
VERTEX
  5
4A0
330
49E
100
AcDbEntity
  8
Visible (ANSI)
100
AcDbVertex
100
AcDb2dVertex
 10
113.5895995153672
 20
44.19122071824491
 30
0.0
  0
VERTEX
  5
4A2
330
49E
100
AcDbEntity
  8
Visible (ANSI)
100
AcDbVertex
100
AcDb2dVertex
 10
113.5861658000037
 20
44.19437557852844
 30
0.0
  0
VERTEX
  5
4A3
330
49E
100
AcDbEntity
  8
Visible (ANSI)
100
AcDbVertex
100
AcDb2dVertex
 10
113.5828578863458
 20
44.19759395840079
 30
0.0
  0
VERTEX
  5
4A4
330
49E
100
AcDbEntity
  8
Visible (ANSI)
100
AcDbVertex
100
AcDb2dVertex
 10
113.5796793170516
 20
44.20087346426738
 30
0.0
  0
VERTEX
  5
4A5
330
49E
100
AcDbEntity
  8
Visible (ANSI)
100
AcDbVertex
100
AcDb2dVertex
 10
113.5766334771438
 20
44.20421162127552
 30
0.0
  0
VERTEX
  5
4A6
330
49E
100
AcDbEntity
  8
Visible (ANSI)
100
AcDbVertex
100
AcDb2dVertex
 10
113.5737236520853
 20
44.20760590679548
 30
0.0
  0
VERTEX
  5
4A7
330
49E
100
AcDbEntity
  8
Visible (ANSI)
100
AcDbVertex
100
AcDb2dVertex
 10
113.5709529365168
 20
44.21105372656891
 30
0.0
  0
VERTEX
  5
4A8
330
49E
100
AcDbEntity
  8
Visible (ANSI)
100
AcDbVertex
100
AcDb2dVertex
 10
113.5683243089261
 20
44.21455241933849
 30
0.0
  0
VERTEX
  5
4A9
330
49E
100
AcDbEntity
  8
Visible (ANSI)
100
AcDbVertex
100
AcDb2dVertex
 10
113.5658405818688
 20
44.21809928573633
 30
0.0
  0
VERTEX
  5
4AA
330
49E
100
AcDbEntity
  8
Visible (ANSI)
100
AcDbVertex
100
AcDb2dVertex
 10
113.5635044102644
 20
44.22169157380269
 30
0.0
  0
VERTEX
  5
4AB
330
49E
100
AcDbEntity
  8
Visible (ANSI)
100
AcDbVertex
100
AcDb2dVertex
 10
113.5613182996932
 20
44.22532647424535
 30
0.0
  0
VERTEX
  5
4AC
330
49E
100
AcDbEntity
  8
Visible (ANSI)
100
AcDbVertex
100
AcDb2dVertex
 10
113.5592846022481
 20
44.22900115153175
 30
0.0
  0
VERTEX
  5
4AD
330
49E
100
AcDbEntity
  8
Visible (ANSI)
100
AcDbVertex
100
AcDb2dVertex
 10
113.5574054750513
 20
44.23271269118602
 30
0.0
  0
VERTEX
  5
4AE
330
49E
100
AcDbEntity
  8
Visible (ANSI)
100
AcDbVertex
100
AcDb2dVertex
 10
113.5556829424789
 20
44.23645816928799
 30
0.0
  0
VERTEX
  5
4AF
330
49E
100
AcDbEntity
  8
Visible (ANSI)
100
AcDbVertex
100
AcDb2dVertex
 10
113.5541188463815
 20
44.24023461410341
 30
0.0
  0
VERTEX
  5
4B0
330
49E
100
AcDbEntity
  8
Visible (ANSI)
100
AcDbVertex
100
AcDb2dVertex
 10
113.552714862677
 20
44.24403903478713
 30
0.0
  0
VERTEX
  5
4B1
330
49E
100
AcDbEntity
  8
Visible (ANSI)
100
AcDbVertex
100
AcDb2dVertex
 10
113.5514725013509
 20
44.24786840230942
 30
0.0
  0
VERTEX
  5
4B2
330
49E
100
AcDbEntity
  8
Visible (ANSI)
100
AcDbVertex
100
AcDb2dVertex
 10
113.5503930774181
 20
44.2517196373635
 30
0.0
  0
VERTEX
  5
4B3
330
49E
100
AcDbEntity
  8
Visible (ANSI)
100
AcDbVertex
100
AcDb2dVertex
 10
113.5494777524059
 20
44.25558966792026
 30
0.0
  0
VERTEX
  5
4B4
330
49E
100
AcDbEntity
  8
Visible (ANSI)
100
AcDbVertex
100
AcDb2dVertex
 10
113.5487275177608
 20
44.25947539563616
 30
0.0
  0
VERTEX
  5
4B5
330
49E
100
AcDbEntity
  8
Visible (ANSI)
100
AcDbVertex
100
AcDb2dVertex
 10
113.5481431616622
 20
44.26337370066797
 30
0.0
  0
VERTEX
  5
4B6
330
49E
100
AcDbEntity
  8
Visible (ANSI)
100
AcDbVertex
100
AcDb2dVertex
 10
113.5477253188016
 20
44.26728145604295
 30
0.0
  0
VERTEX
  5
4B7
330
49E
100
AcDbEntity
  8
Visible (ANSI)
100
AcDbVertex
100
AcDb2dVertex
 10
113.5474744330486
 20
44.27119550601098
 30
0.0
  0
VERTEX
  5
4B8
330
49E
100
AcDbEntity
  8
Visible (ANSI)
100
AcDbVertex
100
AcDb2dVertex
 10
113.5473907761174
 20
44.27511270807175
 30
0.0
  0
SEQEND
  5
4A1
330
49E
100
AcDbEntity
  8
Visible (ANSI)
  0
POLYLINE
  5
4B9
330
6C
100
AcDbEntity
  8
Visible (ANSI)
100
AcDb2dPolyline
 66
     1
 10
0.0
 20
0.0
 30
0.0
 70
   128
  0
VERTEX
  5
4BA
330
4B9
100
AcDbEntity
  8
Visible (ANSI)
100
AcDbVertex
100
AcDb2dVertex
 10
113.5931553404386
 20
83.25544469253872
 30
0.0
  0
VERTEX
  5
4BB
330
4B9
100
AcDbEntity
  8
Visible (ANSI)
100
AcDbVertex
100
AcDb2dVertex
 10
113.586165805497
 20
83.25309458040308
 30
0.0
  0
VERTEX
  5
4BD
330
4B9
100
AcDbEntity
  8
Visible (ANSI)
100
AcDbVertex
100
AcDb2dVertex
 10
113.5796793159498
 20
83.25049042121106
 30
0.0
  0
VERTEX
  5
4BE
330
4B9
100
AcDbEntity
  8
Visible (ANSI)
100
AcDbVertex
100
AcDb2dVertex
 10
113.5737236484557
 20
83.24764924976067
 30
0.0
  0
VERTEX
  5
4BF
330
4B9
100
AcDbEntity
  8
Visible (ANSI)
100
AcDbVertex
100
AcDb2dVertex
 10
113.568324305815
 20
83.24459647209726
 30
0.0
  0
VERTEX
  5
4C0
330
4B9
100
AcDbEntity
  8
Visible (ANSI)
100
AcDbVertex
100
AcDb2dVertex
 10
113.5635044097459
 20
83.24134858859881
 30
0.0
  0
VERTEX
  5
4C1
330
4B9
100
AcDbEntity
  8
Visible (ANSI)
100
AcDbVertex
100
AcDb2dVertex
 10
113.5592845986184
 20
83.23793274560006
 30
0.0
  0
VERTEX
  5
4C2
330
4B9
100
AcDbEntity
  8
Visible (ANSI)
100
AcDbVertex
100
AcDb2dVertex
 10
113.5556829424791
 20
83.23436945387749
 30
0.0
  0
VERTEX
  5
4C3
330
4B9
100
AcDbEntity
  8
Visible (ANSI)
100
AcDbVertex
100
AcDb2dVertex
 10
113.5527148657883
 20
83.23067985665662
 30
0.0
  0
VERTEX
  5
4C4
330
4B9
100
AcDbEntity
  8
Visible (ANSI)
100
AcDbVertex
100
AcDb2dVertex
 10
113.5503930774182
 20
83.22689299119941
 30
0.0
  0
VERTEX
  5
4C5
330
4B9
100
AcDbEntity
  8
Visible (ANSI)
100
AcDbVertex
100
AcDb2dVertex
 10
113.5487275136126
 20
83.22302850060781
 30
0.0
  0
VERTEX
  5
4C6
330
4B9
100
AcDbEntity
  8
Visible (ANSI)
100
AcDbVertex
100
AcDb2dVertex
 10
113.5477253167276
 20
83.21911617433412
 30
0.0
  0
VERTEX
  5
4C7
330
4B9
100
AcDbEntity
  8
Visible (ANSI)
100
AcDbVertex
100
AcDb2dVertex
 10
113.5473907761175
 20
83.21517864923482
 30
0.0
  0
VERTEX
  5
4C8
330
4B9
100
AcDbEntity
  8
Visible (ANSI)
100
AcDbVertex
100
AcDb2dVertex
 10
113.5477253188017
 20
83.21123866727591
 30
0.0
  0
VERTEX
  5
4C9
330
4B9
100
AcDbEntity
  8
Visible (ANSI)
100
AcDbVertex
100
AcDb2dVertex
 10
113.5487275177609
 20
83.20732634219664
 30
0.0
  0
VERTEX
  5
4CA
330
4B9
100
AcDbEntity
  8
Visible (ANSI)
100
AcDbVertex
100
AcDb2dVertex
 10
113.5503930774182
 20
83.20346430965908
 30
0.0
  0
VERTEX
  5
4CB
330
4B9
100
AcDbEntity
  8
Visible (ANSI)
100
AcDbVertex
100
AcDb2dVertex
 10
113.5527148626771
 20
83.19967498674506
 30
0.0
  0
VERTEX
  5
4CC
330
4B9
100
AcDbEntity
  8
Visible (ANSI)
100
AcDbVertex
100
AcDb2dVertex
 10
113.5556829424791
 20
83.19598784698101
 30
0.0
  0
VERTEX
  5
4CD
330
4B9
100
AcDbEntity
  8
Visible (ANSI)
100
AcDbVertex
100
AcDb2dVertex
 10
113.5592846022482
 20
83.19242209929463
 30
0.0
  0
VERTEX
  5
4CE
330
4B9
100
AcDbEntity
  8
Visible (ANSI)
100
AcDbVertex
100
AcDb2dVertex
 10
113.5635044102645
 20
83.18900625689311
 30
0.0
  0
VERTEX
  5
4CF
330
4B9
100
AcDbEntity
  8
Visible (ANSI)
100
AcDbVertex
100
AcDb2dVertex
 10
113.5683243089262
 20
83.18576082816402
 30
0.0
  0
VERTEX
  5
4D0
330
4B9
100
AcDbEntity
  8
Visible (ANSI)
100
AcDbVertex
100
AcDb2dVertex
 10
113.5737236520854
 20
83.18270559528334
 30
0.0
  0
VERTEX
  5
4D1
330
4B9
100
AcDbEntity
  8
Visible (ANSI)
100
AcDbVertex
100
AcDb2dVertex
 10
113.5796793170517
 20
83.17986687849034
 30
0.0
  0
VERTEX
  5
4D2
330
4B9
100
AcDbEntity
  8
Visible (ANSI)
100
AcDbVertex
100
AcDb2dVertex
 10
113.5861658000038
 20
83.17726026282128
 30
0.0
  0
VERTEX
  5
4D3
330
4B9
100
AcDbEntity
  8
Visible (ANSI)
100
AcDbVertex
100
AcDb2dVertex
 10
113.5931553404387
 20
83.1749101526546
 30
0.0
  0
SEQEND
  5
4BC
330
4B9
100
AcDbEntity
  8
Visible (ANSI)
  0
LINE
  5
4D4
330
6C
100
AcDbEntity
  8
Visible (ANSI)
100
AcDbLine
 10
114.0218316759458
 20
44.50715304072921
 30
0.0
 11
114.1897766873965
 21
44.60386614069523
 31
0.0
  0
LINE
  5
4D5
330
6C
100
AcDbEntity
  8
Visible (ANSI)
100
AcDbLine
 10
113.6788110588243
 20
83.30477146538079
 30
0.0
 11
113.5931553407705
 21
83.25544561788321
 31
0.0
  0
LINE
  5
4D6
330
6C
100
AcDbEntity
  8
Visible (ANSI)
100
AcDbLine
 10
113.6212471700932
 20
83.2392686092656
 30
0.0
 11
113.5931553407705
 21
83.25544561788321
 31
0.0
  0
POLYLINE
  5
4D7
330
6C
100
AcDbEntity
  8
Visible (ANSI)
100
AcDb2dPolyline
 66
     1
 10
0.0
 20
0.0
 30
0.0
 70
   128
  0
VERTEX
  5
4D8
330
4D7
100
AcDbEntity
  8
Visible (ANSI)
100
AcDbVertex
100
AcDb2dVertex
 10
144.4848838646789
 20
26.39876839869382
 30
0.0
  0
VERTEX
  5
4D9
330
4D7
100
AcDbEntity
  8
Visible (ANSI)
100
AcDbVertex
100
AcDb2dVertex
 10
144.4834361370258
 20
26.39151982348779
 30
0.0
  0
VERTEX
  5
4DB
330
4D7
100
AcDbEntity
  8
Visible (ANSI)
100
AcDbVertex
100
AcDb2dVertex
 10
144.482460520449
 20
26.38457889877832
 30
0.0
  0
VERTEX
  5
4DC
330
4D7
100
AcDbEntity
  8
Visible (ANSI)
100
AcDbVertex
100
AcDb2dVertex
 10
144.4819560940232
 20
26.37797826479101
 30
0.0
  0
VERTEX
  5
4DD
330
4D7
100
AcDbEntity
  8
Visible (ANSI)
100
AcDbVertex
100
AcDb2dVertex
 10
144.4819135655301
 20
26.3717527822378
 30
0.0
  0
VERTEX
  5
4DE
330
4D7
100
AcDbEntity
  8
Visible (ANSI)
100
AcDbVertex
100
AcDb2dVertex
 10
144.4823280316647
 20
26.36593204024157
 30
0.0
  0
VERTEX
  5
4DF
330
4D7
100
AcDbEntity
  8
Visible (ANSI)
100
AcDbVertex
100
AcDb2dVertex
 10
144.4831926311195
 20
26.36054390085854
 30
0.0
  0
VERTEX
  5
4E0
330
4D7
100
AcDbEntity
  8
Visible (ANSI)
100
AcDbVertex
100
AcDb2dVertex
 10
144.4844922059628
 20
26.35561801960097
 30
0.0
  0
VERTEX
  5
4E1
330
4D7
100
AcDbEntity
  8
Visible (ANSI)
100
AcDbVertex
100
AcDb2dVertex
 10
144.4862182272654
 20
26.35117720691557
 30
0.0
  0
VERTEX
  5
4E2
330
4D7
100
AcDbEntity
  8
Visible (ANSI)
100
AcDbVertex
100
AcDb2dVertex
 10
144.4883518616915
 20
26.34724707370913
 30
0.0
  0
VERTEX
  5
4E3
330
4D7
100
AcDbEntity
  8
Visible (ANSI)
100
AcDbVertex
100
AcDb2dVertex
 10
144.4908788722349
 20
26.34384737369764
 30
0.0
  0
VERTEX
  5
4E4
330
4D7
100
AcDbEntity
  8
Visible (ANSI)
100
AcDbVertex
100
AcDb2dVertex
 10
144.4937833542676
 20
26.34099559570569
 30
0.0
  0
VERTEX
  5
4E5
330
4D7
100
AcDbEntity
  8
Visible (ANSI)
100
AcDbVertex
100
AcDb2dVertex
 10
144.4970414218103
 20
26.33871054888262
 30
0.0
  0
VERTEX
  5
4E6
330
4D7
100
AcDbEntity
  8
Visible (ANSI)
100
AcDbVertex
100
AcDb2dVertex
 10
144.5006361538986
 20
26.33700372173654
 30
0.0
  0
VERTEX
  5
4E7
330
4D7
100
AcDbEntity
  8
Visible (ANSI)
100
AcDbVertex
100
AcDb2dVertex
 10
144.5045407109549
 20
26.33588902107524
 30
0.0
  0
VERTEX
  5
4E8
330
4D7
100
AcDbEntity
  8
Visible (ANSI)
100
AcDbVertex
100
AcDb2dVertex
 10
144.5087332853038
 20
26.33537415261393
 30
0.0
  0
VERTEX
  5
4E9
330
4D7
100
AcDbEntity
  8
Visible (ANSI)
100
AcDbVertex
100
AcDb2dVertex
 10
144.5131908289245
 20
26.33546424326957
 30
0.0
  0
VERTEX
  5
4EA
330
4D7
100
AcDbEntity
  8
Visible (ANSI)
100
AcDbVertex
100
AcDb2dVertex
 10
144.5178828060934
 20
26.33616550656563
 30
0.0
  0
VERTEX
  5
4EB
330
4D7
100
AcDbEntity
  8
Visible (ANSI)
100
AcDbVertex
100
AcDb2dVertex
 10
144.5227861625674
 20
26.33747664657973
 30
0.0
  0
VERTEX
  5
4EC
330
4D7
100
AcDbEntity
  8
Visible (ANSI)
100
AcDbVertex
100
AcDb2dVertex
 10
144.5278684481769
 20
26.33939864243481
 30
0.0
  0
VERTEX
  5
4ED
330
4D7
100
AcDbEntity
  8
Visible (ANSI)
100
AcDbVertex
100
AcDb2dVertex
 10
144.5331028108992
 20
26.34192619415815
 30
0.0
  0
VERTEX
  5
4EE
330
4D7
100
AcDbEntity
  8
Visible (ANSI)
100
AcDbVertex
100
AcDb2dVertex
 10
144.5384617496305
 20
26.34505140899442
 30
0.0
  0
VERTEX
  5
4EF
330
4D7
100
AcDbEntity
  8
Visible (ANSI)
100
AcDbVertex
100
AcDb2dVertex
 10
144.5439108646243
 20
26.34876749799074
 30
0.0
  0
VERTEX
  5
4F0
330
4D7
100
AcDbEntity
  8
Visible (ANSI)
100
AcDbVertex
100
AcDb2dVertex
 10
144.5494217335923
 20
26.35306147879028
 30
0.0
  0
VERTEX
  5
4F1
330
4D7
100
AcDbEntity
  8
Visible (ANSI)
100
AcDbVertex
100
AcDb2dVertex
 10
144.5549656692726
 20
26.35791789380319
 30
0.0
  0
SEQEND
  5
4DA
330
4D7
100
AcDbEntity
  8
Visible (ANSI)
  0
POLYLINE
  5
4F2
330
6C
100
AcDbEntity
  8
Visible (ANSI)
100
AcDb2dPolyline
 66
     1
 10
0.0
 20
0.0
 30
0.0
 70
   128
  0
VERTEX
  5
4F3
330
4F2
100
AcDbEntity
  8
Visible (ANSI)
100
AcDbVertex
100
AcDb2dVertex
 10
113.6459181877618
 20
44.10469051501573
 30
0.0
  0
VERTEX
  5
4F4
330
4F2
100
AcDbEntity
  8
Visible (ANSI)
100
AcDbVertex
100
AcDb2dVertex
 10
113.6425489205714
 20
44.10672775972613
 30
0.0
  0
VERTEX
  5
4F6
330
4F2
100
AcDbEntity
  8
Visible (ANSI)
100
AcDbVertex
100
AcDb2dVertex
 10
113.6392662784293
 20
44.1089090430998
 30
0.0
  0
VERTEX
  5
4F7
330
4F2
100
AcDbEntity
  8
Visible (ANSI)
100
AcDbVertex
100
AcDb2dVertex
 10
113.6360728913652
 20
44.11123254150028
 30
0.0
  0
VERTEX
  5
4F8
330
4F2
100
AcDbEntity
  8
Visible (ANSI)
100
AcDbVertex
100
AcDb2dVertex
 10
113.6329712774045
 20
44.11369627566383
 30
0.0
  0
VERTEX
  5
4F9
330
4F2
100
AcDbEntity
  8
Visible (ANSI)
100
AcDbVertex
100
AcDb2dVertex
 10
113.6299638757544
 20
44.11629812501408
 30
0.0
  0
VERTEX
  5
4FA
330
4F2
100
AcDbEntity
  8
Visible (ANSI)
100
AcDbVertex
100
AcDb2dVertex
 10
113.6270530053213
 20
44.11903579897728
 30
0.0
  0
VERTEX
  5
4FB
330
4F2
100
AcDbEntity
  8
Visible (ANSI)
100
AcDbVertex
100
AcDb2dVertex
 10
113.624240897897
 20
44.12190688487036
 30
0.0
  0
VERTEX
  5
4FC
330
4F2
100
AcDbEntity
  8
Visible (ANSI)
100
AcDbVertex
100
AcDb2dVertex
 10
113.6215296691206
 20
44.12490881199423
 30
0.0
  0
VERTEX
  5
4FD
330
4F2
100
AcDbEntity
  8
Visible (ANSI)
100
AcDbVertex
100
AcDb2dVertex
 10
113.6189213350715
 20
44.1280388755777
 30
0.0
  0
VERTEX
  5
4FE
330
4F2
100
AcDbEntity
  8
Visible (ANSI)
100
AcDbVertex
100
AcDb2dVertex
 10
113.6164177790835
 20
44.13129422246296
 30
0.0
  0
VERTEX
  5
4FF
330
4F2
100
AcDbEntity
  8
Visible (ANSI)
100
AcDbVertex
100
AcDb2dVertex
 10
113.6140208015238
 20
44.13467188456803
 30
0.0
  0
VERTEX
  5
500
330
4F2
100
AcDbEntity
  8
Visible (ANSI)
100
AcDbVertex
100
AcDb2dVertex
 10
113.6117320700138
 20
44.13816874542429
 30
0.0
  0
VERTEX
  5
501
330
4F2
100
AcDbEntity
  8
Visible (ANSI)
100
AcDbVertex
100
AcDb2dVertex
 10
113.6095531360221
 20
44.14178155932434
 30
0.0
  0
VERTEX
  5
502
330
4F2
100
AcDbEntity
  8
Visible (ANSI)
100
AcDbVertex
100
AcDb2dVertex
 10
113.6074854348647
 20
44.14550696091443
 30
0.0
  0
VERTEX
  5
503
330
4F2
100
AcDbEntity
  8
Visible (ANSI)
100
AcDbVertex
100
AcDb2dVertex
 10
113.6055302857047
 20
44.1493414747869
 30
0.0
  0
VERTEX
  5
504
330
4F2
100
AcDbEntity
  8
Visible (ANSI)
100
AcDbVertex
100
AcDb2dVertex
 10
113.6036888915527
 20
44.15328148670289
 30
0.0
  0
VERTEX
  5
505
330
4F2
100
AcDbEntity
  8
Visible (ANSI)
100
AcDbVertex
100
AcDb2dVertex
 10
113.6019623143762
 20
44.15732329161004
 30
0.0
  0
VERTEX
  5
506
330
4F2
100
AcDbEntity
  8
Visible (ANSI)
100
AcDbVertex
100
AcDb2dVertex
 10
113.6003515165839
 20
44.16146305038398
 30
0.0
  0
VERTEX
  5
507
330
4F2
100
AcDbEntity
  8
Visible (ANSI)
100
AcDbVertex
100
AcDb2dVertex
 10
113.5988573112447
 20
44.16569683790159
 30
0.0
  0
VERTEX
  5
508
330
4F2
100
AcDbEntity
  8
Visible (ANSI)
100
AcDbVertex
100
AcDb2dVertex
 10
113.5974804118683
 20
44.17002062374503
 30
0.0
  0
VERTEX
  5
509
330
4F2
100
AcDbEntity
  8
Visible (ANSI)
100
AcDbVertex
100
AcDb2dVertex
 10
113.5962213743285
 20
44.17443026753516
 30
0.0
  0
VERTEX
  5
50A
330
4F2
100
AcDbEntity
  8
Visible (ANSI)
100
AcDbVertex
100
AcDb2dVertex
 10
113.5950806632362
 20
44.17892155715313
 30
0.0
  0
VERTEX
  5
50B
330
4F2
100
AcDbEntity
  8
Visible (ANSI)
100
AcDbVertex
100
AcDb2dVertex
 10
113.5940585855666
 20
44.18349018011125
 30
0.0
  0
VERTEX
  5
50C
330
4F2
100
AcDbEntity
  8
Visible (ANSI)
100
AcDbVertex
100
AcDb2dVertex
 10
113.5931553404386
 20
44.18813173303423
 30
0.0
  0
SEQEND
  5
4F5
330
4F2
100
AcDbEntity
  8
Visible (ANSI)
  0
LINE
  5
50D
330
6C
100
AcDbEntity
  8
Visible (ANSI)
100
AcDbLine
 10
114.0846509563643
 20
44.39908390629303
 30
0.0
 11
114.2522766873965
 21
44.4956131448942
 31
0.0
  0
LINE
  5
50E
330
6C
100
AcDbEntity
  8
Visible (ANSI)
100
AcDbLine
 10
144.5549653653347
 20
26.39105357107681
 30
0.0
 11
144.5549653653347
 21
26.35791806921159
 31
0.0
  0
LINE
  5
50F
330
6C
100
AcDbEntity
  8
Visible (ANSI)
100
AcDbLine
 10
144.5549653653347
 20
26.35791806921159
 30
0.0
 11
144.6465617198905
 21
26.41066490175018
 31
0.0
  0
LINE
  5
510
330
6C
100
AcDbEntity
  8
Visible (ANSI)
100
AcDbLine
 10
144.7031861398126
 20
26.44327273652382
 30
0.0
 11
145.0631983643125
 21
26.65058998849988
 31
0.0
  0
LINE
  5
511
330
6C
100
AcDbEntity
  8
Visible (ANSI)
100
AcDbLine
 10
145.0631983643125
 20
26.65126337752338
 30
0.0
 11
145.0631983643125
 21
26.65058998849988
 31
0.0
  0
LINE
  5
512
330
6C
100
AcDbEntity
  8
Visible (ANSI)
100
AcDbLine
 10
144.614278462497
 20
65.3921605497058
 30
0.0
 11
144.6211899835566
 21
65.38758788472673
 31
0.0
  0
LINE
  5
513
330
6C
100
AcDbEntity
  8
Visible (ANSI)
100
AcDbLine
 10
144.5549656692727
 20
65.50217615512067
 30
0.0
 11
144.5554554376385
 21
65.49410454783252
 31
0.0
  0
LINE
  5
514
330
6C
100
AcDbEntity
  8
Visible (ANSI)
100
AcDbLine
 10
145.2140867119609
 20
65.63150613031128
 30
0.0
 11
145.2140867119608
 21
26.73815419805904
 31
0.0
  0
LINE
  5
515
330
6C
100
AcDbEntity
  8
Visible (ANSI)
100
AcDbLine
 10
114.2522766873966
 20
83.63568174673062
 30
0.0
 11
145.0631983643126
 21
65.89285198094166
 31
0.0
  0
LINE
  5
516
330
6C
100
AcDbEntity
  8
Visible (ANSI)
100
AcDbLine
 10
114.1897766873965
 20
44.60386614069523
 30
0.0
 11
114.1897766873965
 21
44.63837784411746
 31
0.0
  0
LINE
  5
517
330
6C
100
AcDbEntity
  8
Visible (ANSI)
100
AcDbLine
 10
114.1897766873965
 20
63.20960902048976
 30
0.0
 11
114.1897766873965
 21
63.54415510610114
 31
0.0
  0
LINE
  5
518
330
6C
100
AcDbEntity
  8
Visible (ANSI)
100
AcDbLine
 10
114.1897766873966
 20
82.11538628247344
 30
0.0
 11
114.1897766873966
 21
82.44993236808481
 31
0.0
  0
LINE
  5
519
330
6C
100
AcDbEntity
  8
Visible (ANSI)
100
AcDbLine
 10
144.1561633659275
 20
27.27511009612823
 30
0.0
 11
143.8659981599274
 21
27.44220512522217
 31
0.0
  0
LINE
  5
51A
330
6C
100
AcDbEntity
  8
Visible (ANSI)
100
AcDbLine
 10
129.2185326133595
 20
35.87711954999009
 30
0.0
 11
128.9283674073594
 21
36.04421457908402
 31
0.0
  0
LINE
  5
51B
330
6C
100
AcDbEntity
  8
Visible (ANSI)
100
AcDbLine
 10
114.2809018607914
 20
44.47912900385197
 30
0.0
 11
114.2522766873965
 21
44.4956131448942
 31
0.0
  0
SPLINE
  5
51C
330
6C
100
AcDbEntity
  8
Visible (ANSI)
100
AcDbSpline
210
0.0
220
0.0
230
1.0
 70
     8
 71
     3
 72
    11
 73
     7
 74
     0
 42
0.0000000001
 43
0.0000000001
 40
0.0
 40
0.0
 40
0.0
 40
0.0
 40
0.9920593819024132
 40
0.9920593819024132
 40
0.9920593819024132
 40
1.570796326794898
 40
1.570796326794898
 40
1.570796326794898
 40
1.570796326794898
 10
71.91943275716361
 20
99.92281794840451
 30
0.0
 10
71.97110251663769
 20
99.92281794840451
 30
0.0
 10
72.02197644234179
 20
99.95034879996815
 30
0.0
 10
72.05023809575044
 20
99.99360435441747
 30
0.0
 10
72.06672507551164
 20
100.0188383150939
 30
0.0
 10
72.07568275716361
 20
100.0489253991913
 30
0.0
 10
72.07568275716361
 20
100.0790679484045
 30
0.0
  0
LINE
  5
51D
330
6C
100
AcDbEntity
  8
Visible (ANSI)
100
AcDbLine
 10
71.9506827571636
 20
100.0790679484045
 30
0.0
 11
71.9506827571636
 21
100.7978179484045
 31
0.0
  0
LINE
  5
51E
330
6C
100
AcDbEntity
  8
Visible (ANSI)
100
AcDbLine
 10
71.9506827571636
 20
100.0790679484045
 30
0.0
 11
72.07568275716361
 21
100.0790679484045
 31
0.0
  0
SPLINE
  5
51F
330
6C
100
AcDbEntity
  8
Visible (ANSI)
100
AcDbSpline
210
0.0
220
0.0
230
1.0
 70
     8
 71
     3
 72
    11
 73
     7
 74
     0
 42
0.0000000001
 43
0.0000000001
 40
0.0
 40
0.0
 40
0.0
 40
0.0
 40
1.483474787626232
 40
1.483474787626232
 40
1.483474787626232
 40
1.570796326794898
 40
1.570796326794898
 40
1.570796326794898
 40
1.570796326794898
 10
71.91943275716361
 20
100.0478179484045
 30
0.0
 10
71.93488561953471
 20
100.0478179484045
 30
0.0
 10
71.9492160378768
 20
100.0609486314908
 30
0.0
 10
71.95056369142427
 20
100.0763426168544
 30
0.0
 10
71.9506430181395
 20
100.0772487505529
 30
0.0
 10
71.9506827571636
 20
100.0781583490381
 30
0.0
 10
71.9506827571636
 20
100.0790679484045
 30
0.0
  0
LINE
  5
520
330
6C
100
AcDbEntity
  8
Visible (ANSI)
100
AcDbLine
 10
71.91943275716361
 20
100.0478179484045
 30
0.0
 11
71.91943275716361
 21
100.0426925465312
 31
0.0
  0
LINE
  5
521
330
6C
100
AcDbEntity
  8
Visible (ANSI)
100
AcDbLine
 10
71.91943275716361
 20
100.0426925465312
 30
0.0
 11
71.91943275716361
 21
99.92281794840451
 31
0.0
  0
LINE
  5
522
330
6C
100
AcDbEntity
  8
Visible (ANSI)
100
AcDbLine
 10
72.07568275716361
 20
100.0790679484045
 30
0.0
 11
72.07568275716361
 21
100.7978179484045
 31
0.0
  0
LINE
  5
523
330
6C
100
AcDbEntity
  8
Visible (ANSI)
100
AcDbLine
 10
71.9506827571636
 20
100.7978179484045
 30
0.0
 11
72.07568275716361
 21
100.7978179484045
 31
0.0
  0
SPLINE
  5
524
330
6C
100
AcDbEntity
  8
Visible (ANSI)
100
AcDbSpline
210
0.0
220
0.0
230
1.0
 70
     8
 71
     3
 72
    11
 73
     7
 74
     0
 42
0.0000000001
 43
0.0000000001
 40
0.0
 40
0.0
 40
0.0
 40
0.0
 40
0.9920593819024123
 40
0.9920593819024123
 40
0.9920593819024123
 40
1.570796326794898
 40
1.570796326794898
 40
1.570796326794898
 40
1.570796326794898
 10
28.2319327571636
 20
99.92281794840451
 30
0.0
 10
28.24396161006323
 20
99.92281794840453
 30
0.0
 10
28.25599046296287
 20
99.95034879996817
 30
0.0
 10
28.26801931586251
 20
99.99360435441753
 30
0.0
 10
28.27503657884565
 20
100.018838315094
 30
0.0
 10
28.28205384182879
 20
100.0489253991914
 30
0.0
 10
28.28907110481193
 20
100.0790679484045
 30
0.0
  0
SPLINE
  5
525
330
6C
100
AcDbEntity
  8
Visible (ANSI)
100
AcDbSpline
210
0.0
220
0.0
230
1.0
 70
     8
 71
     3
 72
    11
 73
     7
 74
     0
 42
0.0000000001
 43
0.0000000001
 40
0.0
 40
0.0
 40
0.0
 40
0.0
 40
0.992059381902615
 40
0.992059381902615
 40
0.992059381902615
 40
1.570796326795028
 40
1.570796326795028
 40
1.570796326795028
 40
1.570796326795028
 10
71.86229440951528
 20
100.0790679484045
 30
0.0
 10
71.87432326241491
 20
100.0273981889304
 30
0.0
 10
71.88635211531456
 20
99.97652426322636
 30
0.0
 10
71.8983809682142
 20
99.94826260981769
 30
0.0
 10
71.90539823119734
 20
99.93177563005648
 30
0.0
 10
71.91241549418046
 20
99.92281794840451
 30
0.0
 10
71.91943275716361
 20
99.92281794840451
 30
0.0
  0
LINE
  5
526
330
6C
100
AcDbEntity
  8
Visible (ANSI)
100
AcDbLine
 10
71.86229440951528
 20
100.7978179484046
 30
0.0
 11
71.86229440951528
 21
100.0790679484045
 31
0.0
  0
SPLINE
  5
527
330
6C
100
AcDbEntity
  8
Visible (ANSI)
100
AcDbSpline
210
0.0
220
0.0
230
1.0
 70
     8
 71
     3
 72
    11
 73
     7
 74
     0
 42
0.0000000001
 43
0.0000000001
 40
0.0
 40
0.0
 40
0.0
 40
0.0
 40
1.483474787626232
 40
1.483474787626232
 40
1.483474787626232
 40
1.570796326795028
 40
1.570796326795028
 40
1.570796326795028
 40
1.570796326795028
 10
71.91943275716361
 20
100.0478179484045
 30
0.0
 10
71.90144542664064
 20
100.0478179484045
 30
0.0
 10
71.88345809611771
 20
100.0609486314908
 30
0.0
 10
71.86547076559475
 20
100.0763426168544
 30
0.0
 10
71.86441198023492
 20
100.0772487505529
 30
0.0
 10
71.8633531948751
 20
100.0781583490382
 30
0.0
 10
71.86229440951528
 20
100.0790679484045
 30
0.0
  0
SPLINE
  5
528
330
6C
100
AcDbEntity
  8
Visible (ANSI)
100
AcDbSpline
210
0.0
220
0.0
230
1.0
 70
     8
 71
     3
 72
    11
 73
     7
 74
     0
 42
0.0000000001
 43
0.0000000001
 40
0.0
 40
0.0
 40
0.0
 40
0.0
 40
1.483474787626231
 40
1.483474787626231
 40
1.483474787626231
 40
1.570796326794898
 40
1.570796326794898
 40
1.570796326794898
 40
1.570796326794898
 10
28.2319327571636
 20
100.0478179484045
 30
0.0
 10
28.24992008768655
 20
100.0478179484045
 30
0.0
 10
28.26790741820951
 20
100.0609486314908
 30
0.0
 10
28.28589474873247
 20
100.0763426168544
 30
0.0
 10
28.28695353409229
 20
100.0772487505529
 30
0.0
 10
28.2880123194521
 20
100.0781583490382
 30
0.0
 10
28.28907110481193
 20
100.0790679484045
 30
0.0
  0
LINE
  5
529
330
6C
100
AcDbEntity
  8
Visible (ANSI)
100
AcDbLine
 10
28.2319327571636
 20
100.0478179484045
 30
0.0
 11
28.2319327571636
 21
100.0426925465312
 31
0.0
  0
LINE
  5
52A
330
6C
100
AcDbEntity
  8
Visible (ANSI)
100
AcDbLine
 10
28.2319327571636
 20
100.0426925465312
 30
0.0
 11
28.2319327571636
 21
99.92281794840451
 31
0.0
  0
LINE
  5
52B
330
6C
100
AcDbEntity
  8
Visible (ANSI)
100
AcDbLine
 10
28.28907110481193
 20
100.0790679484045
 30
0.0
 11
28.28907110481192
 21
100.7978179484045
 31
0.0
  0
SPLINE
  5
52C
330
6C
100
AcDbEntity
  8
Visible (ANSI)
100
AcDbSpline
210
0.0
220
0.0
230
1.0
 70
     8
 71
     3
 72
    11
 73
     7
 74
     0
 42
0.0000000001
 43
0.0000000001
 40
0.0
 40
0.0
 40
0.0
 40
0.0
 40
0.992059381902488
 40
0.992059381902488
 40
0.992059381902488
 40
1.570796326794891
 40
1.570796326794891
 40
1.570796326794891
 40
1.570796326794891
 10
28.0756827571636
 20
100.0790679484045
 30
0.0
 10
28.0756827571636
 20
100.0273981889304
 30
0.0
 10
28.10321360872723
 20
99.97652426322632
 30
0.0
 10
28.14646916317657
 20
99.94826260981767
 30
0.0
 10
28.17170312385302
 20
99.93177563005648
 30
0.0
 10
28.20179020795045
 20
99.92281794840451
 30
0.0
 10
28.2319327571636
 20
99.92281794840451
 30
0.0
  0
LINE
  5
52D
330
6C
100
AcDbEntity
  8
Visible (ANSI)
100
AcDbLine
 10
28.2006827571636
 20
100.0790679484045
 30
0.0
 11
28.2006827571636
 21
100.7978179484045
 31
0.0
  0
LINE
  5
52E
330
6C
100
AcDbEntity
  8
Visible (ANSI)
100
AcDbLine
 10
28.0756827571636
 20
100.7978179484045
 30
0.0
 11
28.0756827571636
 21
100.0790679484045
 31
0.0
  0
LINE
  5
52F
330
6C
100
AcDbEntity
  8
Visible (ANSI)
100
AcDbLine
 10
28.2006827571636
 20
100.0790679484045
 30
0.0
 11
28.0756827571636
 21
100.0790679484045
 31
0.0
  0
LINE
  5
530
330
6C
100
AcDbEntity
  8
Visible (ANSI)
100
AcDbLine
 10
28.2006827571636
 20
100.7978179484045
 30
0.0
 11
28.0756827571636
 21
100.7978179484045
 31
0.0
  0
SPLINE
  5
531
330
6C
100
AcDbEntity
  8
Visible (ANSI)
100
AcDbSpline
210
0.0
220
0.0
230
1.0
 70
     8
 71
     3
 72
    11
 73
     7
 74
     0
 42
0.0000000001
 43
0.0000000001
 40
0.0
 40
0.0
 40
0.0
 40
0.0
 40
1.483474787626958
 40
1.483474787626958
 40
1.483474787626958
 40
1.570796326794891
 40
1.570796326794891
 40
1.570796326794891
 40
1.570796326794891
 10
28.2319327571636
 20
100.0478179484045
 30
0.0
 10
28.21647989479249
 20
100.0478179484045
 30
0.0
 10
28.20214947645038
 20
100.0609486314908
 30
0.0
 10
28.20080182290293
 20
100.0763426168544
 30
0.0
 10
28.2007224961877
 20
100.0772487505529
 30
0.0
 10
28.2006827571636
 20
100.0781583490381
 30
0.0
 10
28.2006827571636
 20
100.0790679484045
 30
0.0
  0
LINE
  5
532
330
6C
100
AcDbEntity
  8
Visible (ANSI)
100
AcDbLine
 10
71.91943275716361
 20
99.92281794840451
 30
0.0
 11
28.2319327571636
 21
99.92281794840451
 31
0.0
  0
LINE
  5
533
330
6C
100
AcDbEntity
  8
Hidden (ANSI)
100
AcDbLine
 10
28.2319327571636
 20
100.0478179484045
 30
0.0
 11
71.91943275716361
 21
100.0478179484045
 31
0.0
  0
LINE
  5
534
330
6C
100
AcDbEntity
  8
Visible (ANSI)
100
AcDbLine
 10
28.28907110481192
 20
100.7978179484045
 30
0.0
 11
71.86229440951528
 21
100.7978179484046
 31
0.0
  0
LINE
  5
535
330
6C
100
AcDbEntity
  8
Hidden (ANSI)
100
AcDbLine
 10
50.3571827571636
 20
100.0478179484043
 30
0.0
 11
50.3571827571636
 21
99.92281794840431
 31
0.0
  0
LINE
  5
536
330
6C
100
AcDbEntity
  8
Hidden (ANSI)
100
AcDbLine
 10
49.7941827571636
 20
100.0478179484043
 30
0.0
 11
49.7941827571636
 21
99.92281794840431
 31
0.0
  0
LINE
  5
537
330
6C
100
AcDbEntity
  8
Hidden (ANSI)
100
AcDbLine
 10
71.48218275716361
 20
100.0478179484043
 30
0.0
 11
71.48218275716361
 21
99.92281794840431
 31
0.0
  0
LINE
  5
538
330
6C
100
AcDbEntity
  8
Hidden (ANSI)
100
AcDbLine
 10
70.91918275716361
 20
100.0478179484043
 30
0.0
 11
70.91918275716361
 21
99.92281794840431
 31
0.0
  0
LINE
  5
539
330
6C
100
AcDbEntity
  8
Hidden (ANSI)
100
AcDbLine
 10
29.2321827571636
 20
100.0478179484043
 30
0.0
 11
29.2321827571636
 21
99.92281794840431
 31
0.0
  0
LINE
  5
53A
330
6C
100
AcDbEntity
  8
Hidden (ANSI)
100
AcDbLine
 10
28.6691827571636
 20
100.0478179484043
 30
0.0
 11
28.6691827571636
 21
99.92281794840431
 31
0.0
  0
MTEXT
  5
53B
330
6C
100
AcDbEntity
  8
Symbol (ANSI)
100
AcDbMText
 10
46.16645553875229
 20
94.36943308394218
 30
0.0
 40
1.200000014830761
 41
0.0
 46
0.0
 71
     7
 72
     1
  1
TOP VIEW
  7
Text Style153
 73
     1
 44
1.0
  0
LINE
  5
53C
330
6C
100
AcDbEntity
  8
Symbol (ANSI)
370
    30
100
AcDbLine
 10
46.16741554122176
 20
94.12471671019325
 30
0.0
 11
53.73889031489908
 21
94.12471671019325
 31
0.0
  0
LINE
  5
53D
330
6C
100
AcDbEntity
  8
Center Mark (ANSI)
  6
Continuous
100
AcDbLine
 10
28.95068275715034
 20
79.62781743182706
 30
0.0
 11
28.95068275715034
 21
76.56481743182705
 31
0.0
  0
LINE
  5
53E
330
6C
100
AcDbEntity
  8
Center Mark (ANSI)
  6
Continuous
100
AcDbLine
 10
71.20068275715034
 20
79.62781743182706
 30
0.0
 11
71.20068275715034
 21
76.56481743182705
 31
0.0
  0
LINE
  5
53F
330
6C
100
AcDbEntity
  8
Centerline (ANSI)
  6
Continuous
100
AcDbLine
 10
27.41918275715034
 20
78.09631743182705
 30
0.0
 11
72.73218275715034
 21
78.09631743182705
 31
0.0
  0
LINE
  5
540
330
6C
100
AcDbEntity
  8
Center Mark (ANSI)
  6
Continuous
100
AcDbLine
 10
72.73218275715034
 20
78.09631743182705
 30
0.0
 11
69.66918275715034
 21
78.09631743182705
 31
0.0
  0
LINE
  5
541
330
6C
100
AcDbEntity
  8
Center Mark (ANSI)
  6
Continuous
100
AcDbLine
 10
72.73218275715034
 20
31.84631743182705
 30
0.0
 11
69.66918275715034
 21
31.84631743182705
 31
0.0
  0
LINE
  5
542
330
6C
100
AcDbEntity
  8
Centerline (ANSI)
  6
Continuous
100
AcDbLine
 10
71.20068275715034
 20
79.62781743182706
 30
0.0
 11
71.20068275715034
 21
30.31481743182705
 31
0.0
  0
LINE
  5
543
330
6C
100
AcDbEntity
  8
Center Mark (ANSI)
  6
Continuous
100
AcDbLine
 10
71.20068275715034
 20
30.31481743182705
 30
0.0
 11
71.20068275715034
 21
33.37781743182705
 31
0.0
  0
LINE
  5
544
330
6C
100
AcDbEntity
  8
Center Mark (ANSI)
  6
Continuous
100
AcDbLine
 10
28.95068275715033
 20
30.31481743182705
 30
0.0
 11
28.95068275715033
 21
33.37781743182705
 31
0.0
  0
LINE
  5
545
330
6C
100
AcDbEntity
  8
Centerline (ANSI)
  6
Continuous
100
AcDbLine
 10
72.73218275715034
 20
31.84631743182705
 30
0.0
 11
27.41918275715033
 21
31.84631743182705
 31
0.0
  0
LINE
  5
546
330
6C
100
AcDbEntity
  8
Center Mark (ANSI)
  6
Continuous
100
AcDbLine
 10
27.41918275715033
 20
31.84631743182705
 30
0.0
 11
30.48218275715033
 21
31.84631743182705
 31
0.0
  0
LINE
  5
547
330
6C
100
AcDbEntity
  8
Center Mark (ANSI)
  6
Continuous
100
AcDbLine
 10
27.41918275715034
 20
78.09631743182705
 30
0.0
 11
30.48218275715034
 21
78.09631743182705
 31
0.0
  0
LINE
  5
548
330
6C
100
AcDbEntity
  8
Centerline (ANSI)
  6
Continuous
100
AcDbLine
 10
28.95068275715033
 20
30.31481743182705
 30
0.0
 11
28.95068275715034
 21
79.62781743182706
 31
0.0
  0
LINE
  5
549
330
6C
100
AcDbEntity
  8
Center Mark (ANSI)
  6
Continuous
100
AcDbLine
 10
28.95068275715035
 20
56.50281743182706
 30
0.0
 11
28.95068275715035
 21
53.43981743182705
 31
0.0
  0
LINE
  5
54A
330
6C
100
AcDbEntity
  8
Center Mark (ANSI)
  6
Continuous
100
AcDbLine
 10
71.20068275715036
 20
56.50281743182707
 30
0.0
 11
71.20068275715036
 21
53.43981743182706
 31
0.0
  0
LINE
  5
54B
330
6C
100
AcDbEntity
  8
Centerline (ANSI)
  6
Continuous
100
AcDbLine
 10
27.41918275715035
 20
54.97131743182706
 30
0.0
 11
72.73218275715035
 21
54.97131743182706
 31
0.0
  0
DIMENSION
  5
54C
330
6C
100
AcDbEntity
  8
Dimension (ANSI)
100
AcDbDimension
280
     0
  2
*D4
 10
72.07568275715034
 20
89.78791486683029
 30
0.0
 11
50.07568275715035
 21
89.78791486683029
 31
0.0
 70
   160
  1
<>
 42
44.00000000000001
 73
     0
 74
     0
 75
     0
  3
Default (ANSI)
100
AcDbAlignedDimension
 13
28.07568275715034
 23
78.75792908417873
 33
0.0
 14
72.07568275715034
 24
78.75792908417874
 34
0.0
100
AcDbRotatedDimension
1001
ACAD
1000
DSTYLE
1002
{
1070
   289
1070
     1
1070
    73
1070
     0
1070
    74
1070
     0
1070
   271
1070
     2
1070
   272
1070
     2
1070
    48
1040
0.0
1070
    47
1040
0.0
1002
}
  0
DIMENSION
  5
638
330
6C
100
AcDbEntity
  8
Dimension (ANSI)
100
AcDbDimension
280
     0
  2
*D5
 10
28.95068275715034
 20
83.51147821893073
 30
0.0
 11
23.74557653912021
 21
83.51147821893073
 31
0.0
 70
   160
  1
<>
 42
0.875
 73
     0
 74
     0
 75
     0
  3
Default (ANSI)
100
AcDbAlignedDimension
 13
28.07568275715034
 23
78.75792908417873
 33
0.0
 14
28.95068275715034
 24
79.62781743182706
 34
0.0
100
AcDbRotatedDimension
1001
ACAD
1000
DSTYLE
1002
{
1070
   289
1070
     1
1070
    73
1070
     0
1070
    74
1070
     0
1070
   271
1070
     2
1070
   272
1070
     2
1070
    48
1040
0.0
1070
    47
1040
0.0
1002
}
  0
DIMENSION
  5
722
330
6C
100
AcDbEntity
  8
Dimension (ANSI)
100
AcDbDimension
280
     0
  2
*D6
 10
50.07568275715034
 20
83.51147821893073
 30
0.0
 11
39.51318275715034
 21
83.51147821893073
 31
0.0
 70
   160
  1
<>
 42
21.12500000000001
 73
     0
 74
     0
 75
     0
  3
Default (ANSI)
100
AcDbAlignedDimension
 13
28.95068275715034
 23
79.62781743182706
 33
0.0
 14
50.07568275715034
 24
79.62781743182706
 34
0.0
 50
180.0
100
AcDbRotatedDimension
1001
ACAD
1000
DSTYLE
1002
{
1070
   289
1070
     1
1070
    73
1070
     0
1070
    74
1070
     0
1070
   271
1070
     2
1070
   272
1070
     2
1070
    48
1040
0.0
1070
    47
1040
0.0
1002
}
  0
DIMENSION
  5
80C
330
6C
100
AcDbEntity
  8
Dimension (ANSI)
100
AcDbDimension
280
     0
  2
*D7
 10
26.37281384517629
 20
31.84631743182705
 30
0.0
 11
23.53552197004666
 21
28.10134077300565
 31
0.0
 70
   160
  1
<>
 42
0.8749999999999964
 73
     0
 74
     0
 75
     0
  3
Default (ANSI)
100
AcDbAlignedDimension
 13
28.28907110479868
 23
30.97131743182705
 33
0.0
 14
27.41918275715033
 24
31.84631743182705
 34
0.0
 50
90.0
100
AcDbRotatedDimension
1001
ACAD
1000
DSTYLE
1002
{
1070
   289
1070
     1
1070
   271
1070
     2
1070
   272
1070
     2
1070
    48
1040
0.0
1070
    47
1040
0.0
1002
}
  0
DIMENSION
  5
90C
330
6C
100
AcDbEntity
  8
Dimension (ANSI)
100
AcDbDimension
280
     0
  2
*D8
 10
23.48217488313459
 20
54.97131743182706
 30
0.0
 11
23.48217488313459
 21
43.40881743182705
 31
0.0
 70
   160
  1
<>
 42
23.12500000000001
 73
     0
 74
     0
 75
     0
  3
Default (ANSI)
100
AcDbAlignedDimension
 13
27.41918275715033
 23
31.84631743182705
 33
0.0
 14
27.41918275715035
 24
54.97131743182706
 34
0.0
 50
90.0
100
AcDbRotatedDimension
1001
ACAD
1000
DSTYLE
1002
{
1070
   289
1070
     1
1070
   271
1070
     2
1070
   272
1070
     2
1070
    48
1040
0.0
1070
    47
1040
0.0
1002
}
  0
DIMENSION
  5
9F6
330
6C
100
AcDbEntity
  8
Dimension (ANSI)
100
AcDbDimension
280
     0
  2
*D9
 10
16.39556070990626
 20
78.09631743182705
 30
0.0
 11
16.39556070990624
 21
54.97131743182705
 31
0.0
 70
   160
  1
<>
 42
46.24999999999999
 73
     0
 74
     0
 75
     0
  3
Default (ANSI)
100
AcDbAlignedDimension
 13
27.41918275715033
 23
31.84631743182705
 33
0.0
 14
27.41918275715034
 24
78.09631743182705
 34
0.0
 50
90.0
100
AcDbRotatedDimension
1001
ACAD
1000
DSTYLE
1002
{
1070
   289
1070
     1
1070
   271
1070
     2
1070
   272
1070
     2
1070
    48
1040
0.0
1070
    47
1040
0.0
1002
}
  0
DIMENSION
  5
AE0
330
6C
100
AcDbEntity
  8
Dimension (ANSI)
100
AcDbDimension
280
     0
  2
*D10
 10
10.17883488432624
 20
78.97131743182703
 30
0.0
 11
10.17883488432622
 21
54.97131743182706
 31
0.0
 70
   160
  1
<>
 42
47.99999999999997
 73
     0
 74
     0
 75
     0
  3
Default (ANSI)
100
AcDbAlignedDimension
 13
28.28907110479868
 23
30.97131743182705
 33
0.0
 14
28.28907110479867
 24
78.97131743182703
 34
0.0
 50
90.0
100
AcDbRotatedDimension
1001
ACAD
1000
DSTYLE
1002
{
1070
   289
1070
     1
1070
   271
1070
     2
1070
   272
1070
     2
1070
    48
1040
0.0
1070
    47
1040
0.0
1002
}
  0
DIMENSION
  5
BCA
330
6C
100
AcDbEntity
  8
Dimension (ANSI)
100
AcDbDimension
280
     0
  2
*D11
 10
71.02867288033735
 20
32.06915111931343
 30
0.0
 11
77.72600462572853
 21
28.8589970616788
 31
0.0
 70
   163
  1
<>{\P(8 PL.)}
 71
     4
 42
0.5629999999999999
 73
     0
 74
     0
 75
     0
  3
Default (ANSI)
100
AcDbDiametricDimension
 15
71.37269263396337
 25
31.6234837443407
 35
0.0
 40
0.0
1001
ACAD
1000
DSTYLE
1002
{
1070
   144
1040
1.000000000000008
1070
   271
1070
     3
1070
   272
1070
     3
1070
    48
1040
0.0
1070
    47
1040
0.0
1002
}
1001
ACAD_DSTYLE_DIMRADIAL_EXTENSION
1070
   387
1070
     1
1070
   388
1040
0.0
1070
   390
1040
0.0
  0
DIMENSION
  5
C85
330
6C
100
AcDbEntity
  8
Dimension (ANSI)
100
AcDbDimension
280
     0
  2
*D12
 10
63.7515997634192
 20
99.92281794840451
 30
0.0
 11
66.63603737551047
 21
105.0177946239106
 31
0.0
 70
   160
  1
<>{\PTYP.}
 71
     5
 42
0.8750000000000568
 73
     0
 74
     0
 75
     0
  3
Default (ANSI)
100
AcDbAlignedDimension
 13
66.63603737551047
 23
100.7978179484045
 33
0.0
 14
66.62055091554844
 24
99.92281794840451
 34
0.0
 50
270.0
100
AcDbRotatedDimension
1001
ACAD
1000
DSTYLE
1002
{
1070
   289
1070
     1
1070
   271
1070
     2
1070
    76
1070
     1
1070
    75
1070
     1
1070
   272
1070
     2
1070
    48
1040
0.0
1070
    47
1040
0.0
1002
}
  0
DIMENSION
  5
D8E
330
6C
100
AcDbEntity
  8
Dimension (ANSI)
100
AcDbDimension
280
     0
  2
*D13
 10
93.55100895901186
 20
76.51427730705974
 30
0.0
 11
98.84874079502298
 21
76.51427730705974
 31
0.0
 70
   160
  1
<>{\PTYP.}
 71
     4
 42
0.8750000000000426
 73
     0
 74
     0
 75
     0
  3
Default (ANSI)
100
AcDbAlignedDimension
 13
94.4260089590119
 23
76.51427730705974
 33
0.0
 14
93.55100895901186
 24
76.53433164446737
 34
0.0
 50
180.0
100
AcDbRotatedDimension
1001
ACAD
1000
DSTYLE
1002
{
1070
   289
1070
     1
1070
    73
1070
     0
1070
    74
1070
     0
1070
   271
1070
     2
1070
    76
1070
     1
1070
    75
1070
     1
1070
   272
1070
     2
1070
    48
1040
0.0
1070
    47
1040
0.0
1002
}
  0
LINE
  5
E7D
330
6C
100
AcDbEntity
  8
Center Mark (ANSI)
  6
Continuous
100
AcDbLine
 10
51.60718275715034
 20
78.09631743182705
 30
0.0
 11
48.54418275715034
 21
78.09631743182705
 31
0.0
  0
LINE
  5
E7E
330
6C
100
AcDbEntity
  8
Center Mark (ANSI)
  6
Continuous
100
AcDbLine
 10
51.60718275715038
 20
31.84631743182703
 30
0.0
 11
48.54418275715038
 21
31.84631743182703
 31
0.0
  0
LINE
  5
E7F
330
6C
100
AcDbEntity
  8
Centerline (ANSI)
  6
Continuous
100
AcDbLine
 10
50.07568275715034
 20
79.62781743182706
 30
0.0
 11
50.07568275715038
 21
30.31481743182702
 31
0.0
  0
DIMENSION
  5
E80
330
6C
100
AcDbEntity
  8
Dimension (ANSI)
100
AcDbDimension
280
     0
  2
*D14
 10
71.20068275715034
 20
86.8605411006404
 30
0.0
 11
50.07568275715033
 21
86.8605411006404
 31
0.0
 70
   160
  1
<>
 42
42.25
 73
     0
 74
     0
 75
     0
  3
Default (ANSI)
100
AcDbAlignedDimension
 13
28.95068275715034
 23
79.62781743182706
 33
0.0
 14
71.20068275715034
 24
79.62781743182706
 34
0.0
 50
180.0
100
AcDbRotatedDimension
1001
ACAD
1000
DSTYLE
1002
{
1070
   289
1070
     1
1070
    73
1070
     0
1070
    74
1070
     0
1070
   271
1070
     2
1070
   272
1070
     2
1070
    48
1040
0.0
1070
    47
1040
0.0
1002
}
  0
MTEXT
  5
F6A
102
{ACAD_XDICTIONARY
360
F71
102
}
330
6C
100
AcDbEntity
  8
Symbol (ANSI)
100
AcDbMText
 10
93.45772678694979
 20
10.00080661245162
 30
0.0
 40
1.000000031914297
 41
73.83387107548755
 46
0.0
 71
     4
 72
     1
  3
{\fRomanS|b0|i0|c0|p2;\H2x;PART#: WA60P48F1\P(DATA SUBJECT TO CHANGE WITHOUT NOTICE)\H1.6157x; \H0.61894x;\P \H1.352x; \H0.73963x;\P\H0.6x;THIS DRAWING IS PROPERTY OF HUBBELL INC. WIEGMANN\H1.5633x; \H0.63966x;\PALL INFORMATION IS PROPRIETARY AND NOT
  1
 TO BE DUPLICATED\H1.234x; \H0.81039x;\P\H1.2571x; }
  7
Note Text (ANSI)
 73
     1
 44
0.8026435375213623
  0
ENDSEC
  0
SECTION
  2
OBJECTS
  0
DICTIONARY
  5
C
330
0
100
AcDbDictionary
281
     1
  3
ACAD_CIP_PREVIOUS_PRODUCT_INFO
350
F6C
  3
ACAD_COLOR
350
63
  3
ACAD_GROUP
350
D
  3
ACAD_LAYOUT
350
62
  3
ACAD_MATERIAL
350
10
  3
ACAD_MLEADERSTYLE
350
66
  3
ACAD_MLINESTYLE
350
5F
  3
ACAD_PLOTSETTINGS
350
61
  3
ACAD_PLOTSTYLENAME
350
E
  3
ACAD_SCALELIST
350
42
  3
ACAD_TABLESTYLE
350
64
  3
ACAD_VISUALSTYLE
350
29
  3
ACDB_RECOMPOSE_DATA
350
F73
  3
AcDbVariableDictionary
350
76
  0
DICTIONARY
  5
F71
330
F6A
100
AcDbDictionary
280
     1
281
     1
  3
ACAD_MTEXT_2008_RT
360
F72
  0
XRECORD
  5
F6C
102
{ACAD_REACTORS
330
C
102
}
330
C
100
AcDbXrecord
280
     1
300
INVNTOR
300
2012
300
PDSP_F_S
  0
DICTIONARY
  5
63
102
{ACAD_REACTORS
330
C
102
}
330
C
100
AcDbDictionary
281
     1
  0
DICTIONARY
  5
D
102
{ACAD_REACTORS
330
C
102
}
330
C
100
AcDbDictionary
281
     1
  0
DICTIONARY
  5
62
102
{ACAD_REACTORS
330
C
102
}
330
C
100
AcDbDictionary
281
     1
  3
Layout1
350
6B
  3
Layout2
350
73
  3
Model
350
6F
  0
DICTIONARY
  5
10
102
{ACAD_REACTORS
330
C
102
}
330
C
100
AcDbDictionary
281
     1
  3
ByBlock
350
19
  3
ByLayer
350
11
  3
Global
350
21
  0
DICTIONARY
  5
66
102
{ACAD_REACTORS
330
C
102
}
330
C
100
AcDbDictionary
281
     1
  3
Standard
350
67
  0
DICTIONARY
  5
5F
102
{ACAD_REACTORS
330
C
102
}
330
C
100
AcDbDictionary
281
     1
  3
Standard
350
60
  0
DICTIONARY
  5
61
102
{ACAD_REACTORS
330
C
102
}
330
C
100
AcDbDictionary
281
     1
  0
ACDBDICTIONARYWDFLT
  5
E
102
{ACAD_REACTORS
330
C
102
}
330
C
100
AcDbDictionary
281
     1
  3
Normal
350
F
100
AcDbDictionaryWithDefault
340
F
  0
DICTIONARY
  5
42
102
{ACAD_REACTORS
330
C
102
}
330
C
100
AcDbDictionary
281
     1
  3
A0
350
43
  3
A1
350
44
  3
A2
350
45
  3
A3
350
46
  3
A4
350
47
  3
A5
350
48
  3
A6
350
49
  3
A7
350
4A
  3
A8
350
4B
  3
A9
350
4C
  3
B0
350
4D
  3
B1
350
4E
  3
B2
350
4F
  3
B3
350
50
  3
B4
350
51
  3
B5
350
52
  3
B6
350
53
  0
DICTIONARY
  5
64
102
{ACAD_REACTORS
330
C
102
}
330
C
100
AcDbDictionary
281
     1
  3
Standard
350
65
  0
DICTIONARY
  5
29
102
{ACAD_REACTORS
330
C
102
}
330
C
100
AcDbDictionary
281
     1
  3
2dWireframe
350
2F
  3
Basic
350
2E
  3
Brighten
350
35
  3
ColorChange
350
39
  3
Conceptual
350
32
  3
Dim
350
34
  3
EdgeColorOff
350
41
  3
Facepattern
350
38
  3
Flat
350
2A
  3
FlatWithEdges
350
2B
  3
Gouraud
350
2C
  3
GouraudWithEdges
350
2D
  3
Hidden
350
31
  3
JitterOff
350
3F
  3
Linepattern
350
37
  3
OverhangOff
350
40
  3
Realistic
350
33
  3
Shaded
350
3E
  3
Shaded with edges
350
3D
  3
Shades of Gray
350
3A
  3
Sketchy
350
3B
  3
Thicken
350
36
  3
Wireframe
350
30
  3
X-Ray
350
3C
  0
XRECORD
  5
F73
102
{ACAD_REACTORS
330
C
102
}
330
C
100
AcDbXrecord
280
     1
 90
        1
330
65
330
F6A
  0
DICTIONARY
  5
76
102
{ACAD_REACTORS
330
C
102
}
330
C
100
AcDbDictionary
281
     1
  3
CANNOSCALE
350
79
  3
CMLEADERSTYLE
350
78
  3
CTABLESTYLE
350
77
  0
XRECORD
  5
F72
102
{ACAD_REACTORS
330
F71
102
}
330
F71
100
AcDbXrecord
280
     1
 40
3088623.0
  1
\pxsm0.94;{\fRomanS|b0|i0;\H2.0000;PART#: WA60P48F1\P(DATA SUBJECT TO CHANGE WITHOUT NOTICE)\P \P\fRomanS|b0|i0;\H1.2000;THIS DRAWING IS PROPERTY OF HUBBELL INC. WIEGMANN\PALL INFORMATION IS PROPRIETARY AND NOT TO BE DUPLICATED\P}
  0
LAYOUT
  5
6B
102
{ACAD_REACTORS
330
62
102
}
330
62
100
AcDbPlotSettings
  1

  2

  4

  6

 40
0.0
 41
0.0
 42
0.0
 43
0.0
 44
0.0
 45
0.0
 46
0.0
 47
0.0
 48
0.0
 49
0.0
140
0.0
141
0.0
142
1.0
143
1.0
 70
   688
 72
     0
 73
     0
 74
     5
  7

 75
    16
147
1.0
 76
     0
 77
     2
 78
   300
148
0.0
149
0.0
100
AcDbLayout
  1
Layout1
 70
     1
 71
     1
 10
0.0
 20
0.0
 11
12.0
 21
9.0
 12
0.0
 22
0.0
 32
0.0
 14
0.0
 24
0.0
 34
0.0
 15
0.0
 25
0.0
 35
0.0
146
0.0
 13
0.0
 23
0.0
 33
0.0
 16
1.0
 26
0.0
 36
0.0
 17
0.0
 27
1.0
 37
0.0
 76
     0
330
68
  0
LAYOUT
  5
73
102
{ACAD_REACTORS
330
62
102
}
330
62
100
AcDbPlotSettings
  1

  2

  4

  6

 40
0.0
 41
0.0
 42
0.0
 43
0.0
 44
0.0
 45
0.0
 46
0.0
 47
0.0
 48
0.0
 49
0.0
140
0.0
141
0.0
142
1.0
143
1.0
 70
   688
 72
     0
 73
     0
 74
     5
  7

 75
    16
147
1.0
 76
     0
 77
     2
 78
   300
148
0.0
149
0.0
100
AcDbLayout
  1
Layout2
 70
     1
 71
     2
 10
0.0
 20
0.0
 11
12.0
 21
9.0
 12
0.0
 22
0.0
 32
0.0
 14
0.0
 24
0.0
 34
0.0
 15
0.0
 25
0.0
 35
0.0
146
0.0
 13
0.0
 23
0.0
 33
0.0
 16
1.0
 26
0.0
 36
0.0
 17
0.0
 27
1.0
 37
0.0
 76
     0
330
70
  0
LAYOUT
  5
6F
102
{ACAD_REACTORS
330
62
102
}
330
62
100
AcDbPlotSettings
  1

  2

  4

  6

 40
0.0
 41
0.0
 42
0.0
 43
0.0
 44
0.0
 45
0.0
 46
0.0
 47
0.0
 48
0.0
 49
0.0
140
0.0
141
0.0
142
1.0
143
1.0
 70
  1712
 72
     0
 73
     0
 74
     0
  7

 75
     0
147
1.0
 76
     0
 77
     2
 78
   300
148
0.0
149
0.0
100
AcDbLayout
  1
Model
 70
     1
 71
     0
 10
0.0
 20
0.0
 11
12.0
 21
9.0
 12
0.0
 22
0.0
 32
0.0
 14
0.0
 24
0.0
 34
0.0
 15
0.0
 25
0.0
 35
0.0
146
0.0
 13
0.0
 23
0.0
 33
0.0
 16
1.0
 26
0.0
 36
0.0
 17
0.0
 27
1.0
 37
0.0
 76
     0
330
6C
  0
MATERIAL
  5
19
102
{ACAD_XDICTIONARY
360
1A
102
}
102
{ACAD_REACTORS
330
10
102
}
330
10
100
AcDbMaterial
  1
ByBlock
 72
     0
 43
0.0208333333333333
 43
0.0
 43
0.0
 43
0.0
 43
0.0
 43
0.0208333333333333
 43
0.0
 43
0.0
 43
0.0
 43
0.0
 43
1.0
 43
0.0
 43
0.0
 43
0.0
 43
0.0
 43
1.0
 77
     0
 47
0.0208333333333333
 47
0.0
 47
0.0
 47
0.0
 47
0.0
 47
0.0208333333333333
 47
0.0
 47
0.0
 47
0.0
 47
0.0
 47
1.0
 47
0.0
 47
0.0
 47
0.0
 47
0.0
 47
1.0
171
     0
 49
0.0208333333333333
 49
0.0
 49
0.0
 49
0.0
 49
0.0
 49
0.0208333333333333
 49
0.0
 49
0.0
 49
0.0
 49
0.0
 49
1.0
 49
0.0
 49
0.0
 49
0.0
 49
0.0
 49
1.0
175
     0
142
0.0208333333333333
142
0.0
142
0.0
142
0.0
142
0.0
142
0.0208333333333333
142
0.0
142
0.0
142
0.0
142
0.0
142
1.0
142
0.0
142
0.0
142
0.0
142
0.0
142
1.0
179
     0
144
0.0208333333333333
144
0.0
144
0.0
144
0.0
144
0.0
144
0.0208333333333333
144
0.0
144
0.0
144
0.0
144
0.0
144
1.0
144
0.0
144
0.0
144
0.0
144
0.0
144
1.0
147
0.0208333333333333
147
0.0
147
0.0
147
0.0
147
0.0
147
0.0208333333333333
147
0.0
147
0.0
147
0.0
147
0.0
147
1.0
147
0.0
147
0.0
147
0.0
147
0.0
147
1.0
  0
MATERIAL
  5
11
102
{ACAD_XDICTIONARY
360
12
102
}
102
{ACAD_REACTORS
330
10
102
}
330
10
100
AcDbMaterial
  1
ByLayer
 72
     0
 43
0.0208333333333333
 43
0.0
 43
0.0
 43
0.0
 43
0.0
 43
0.0208333333333333
 43
0.0
 43
0.0
 43
0.0
 43
0.0
 43
1.0
 43
0.0
 43
0.0
 43
0.0
 43
0.0
 43
1.0
 77
     0
 47
0.0208333333333333
 47
0.0
 47
0.0
 47
0.0
 47
0.0
 47
0.0208333333333333
 47
0.0
 47
0.0
 47
0.0
 47
0.0
 47
1.0
 47
0.0
 47
0.0
 47
0.0
 47
0.0
 47
1.0
171
     0
 49
0.0208333333333333
 49
0.0
 49
0.0
 49
0.0
 49
0.0
 49
0.0208333333333333
 49
0.0
 49
0.0
 49
0.0
 49
0.0
 49
1.0
 49
0.0
 49
0.0
 49
0.0
 49
0.0
 49
1.0
175
     0
142
0.0208333333333333
142
0.0
142
0.0
142
0.0
142
0.0
142
0.0208333333333333
142
0.0
142
0.0
142
0.0
142
0.0
142
1.0
142
0.0
142
0.0
142
0.0
142
0.0
142
1.0
179
     0
144
0.0208333333333333
144
0.0
144
0.0
144
0.0
144
0.0
144
0.0208333333333333
144
0.0
144
0.0
144
0.0
144
0.0
144
1.0
144
0.0
144
0.0
144
0.0
144
0.0
144
1.0
147
0.0208333333333333
147
0.0
147
0.0
147
0.0
147
0.0
147
0.0208333333333333
147
0.0
147
0.0
147
0.0
147
0.0
147
1.0
147
0.0
147
0.0
147
0.0
147
0.0
147
1.0
  0
MATERIAL
  5
21
102
{ACAD_XDICTIONARY
360
22
102
}
102
{ACAD_REACTORS
330
10
102
}
330
10
100
AcDbMaterial
  1
Global
 72
     0
 43
0.0208333333333333
 43
0.0
 43
0.0
 43
0.0
 43
0.0
 43
0.0208333333333333
 43
0.0
 43
0.0
 43
0.0
 43
0.0
 43
1.0
 43
0.0
 43
0.0
 43
0.0
 43
0.0
 43
1.0
 77
     0
 47
0.0208333333333333
 47
0.0
 47
0.0
 47
0.0
 47
0.0
 47
0.0208333333333333
 47
0.0
 47
0.0
 47
0.0
 47
0.0
 47
1.0
 47
0.0
 47
0.0
 47
0.0
 47
0.0
 47
1.0
171
     0
 49
0.0208333333333333
 49
0.0
 49
0.0
 49
0.0
 49
0.0
 49
0.0208333333333333
 49
0.0
 49
0.0
 49
0.0
 49
0.0
 49
1.0
 49
0.0
 49
0.0
 49
0.0
 49
0.0
 49
1.0
175
     0
142
0.0208333333333333
142
0.0
142
0.0
142
0.0
142
0.0
142
0.0208333333333333
142
0.0
142
0.0
142
0.0
142
0.0
142
1.0
142
0.0
142
0.0
142
0.0
142
0.0
142
1.0
179
     0
144
0.0208333333333333
144
0.0
144
0.0
144
0.0
144
0.0
144
0.0208333333333333
144
0.0
144
0.0
144
0.0
144
0.0
144
1.0
144
0.0
144
0.0
144
0.0
144
0.0
144
1.0
147
0.0208333333333333
147
0.0
147
0.0
147
0.0
147
0.0
147
0.0208333333333333
147
0.0
147
0.0
147
0.0
147
0.0
147
1.0
147
0.0
147
0.0
147
0.0
147
0.0
147
1.0
  0
MLEADERSTYLE
  5
67
102
{ACAD_XDICTIONARY
360
F6F
102
}
102
{ACAD_REACTORS
330
66
102
}
330
66
100
AcDbMLeaderStyle
179
     2
170
     2
171
     1
172
     0
 90
        2
 40
0.0
 41
0.0
173
     1
 91
-1056964608
340
5B
 92
       -2
290
     1
 42
0.09
291
     1
 43
0.36
  3
Standard
 44
0.18
300

342
55
174
     1
178
     6
175
     1
176
     0
 93
-1056964608
 45
0.18
292
     0
297
     0
 46
0.18
 94
-1056964608
 47
1.0
 49
1.0
140
1.0
293
     1
141
0.0
294
     1
177
     0
142
1.0
295
     0
296
     0
143
0.125
271
     0
272
     9
273
     9
  0
MLINESTYLE
  5
60
102
{ACAD_REACTORS
330
5F
102
}
330
5F
100
AcDbMlineStyle
  2
STANDARD
 70
     0
  3

 62
   256
 51
90.0
 52
90.0
 71
     2
 49
0.5
 62
   256
  6
BYLAYER
 49
-0.5
 62
   256
  6
BYLAYER
  0
ACDBPLACEHOLDER
  5
F
102
{ACAD_REACTORS
330
E
102
}
330
E
  0
SCALE
  5
43
102
{ACAD_REACTORS
330
42
102
}
330
42
100
AcDbScale
 70
     0
300
1:1
140
1.0
141
1.0
290
     1
  0
SCALE
  5
44
102
{ACAD_REACTORS
330
42
102
}
330
42
100
AcDbScale
 70
     0
300
1/128" = 1'-0"
140
0.0078125
141
12.0
290
     0
  0
SCALE
  5
45
102
{ACAD_REACTORS
330
42
102
}
330
42
100
AcDbScale
 70
     0
300
1/64" = 1'-0"
140
0.015625
141
12.0
290
     0
  0
SCALE
  5
46
102
{ACAD_REACTORS
330
42
102
}
330
42
100
AcDbScale
 70
     0
300
1/32" = 1'-0"
140
0.03125
141
12.0
290
     0
  0
SCALE
  5
47
102
{ACAD_REACTORS
330
42
102
}
330
42
100
AcDbScale
 70
     0
300
1/16" = 1'-0"
140
0.0625
141
12.0
290
     0
  0
SCALE
  5
48
102
{ACAD_REACTORS
330
42
102
}
330
42
100
AcDbScale
 70
     0
300
3/32" = 1'-0"
140
0.09375
141
12.0
290
     0
  0
SCALE
  5
49
102
{ACAD_REACTORS
330
42
102
}
330
42
100
AcDbScale
 70
     0
300
1/8" = 1'-0"
140
0.125
141
12.0
290
     0
  0
SCALE
  5
4A
102
{ACAD_REACTORS
330
42
102
}
330
42
100
AcDbScale
 70
     0
300
3/16" = 1'-0"
140
0.1875
141
12.0
290
     0
  0
SCALE
  5
4B
102
{ACAD_REACTORS
330
42
102
}
330
42
100
AcDbScale
 70
     0
300
1/4" = 1'-0"
140
0.25
141
12.0
290
     0
  0
SCALE
  5
4C
102
{ACAD_REACTORS
330
42
102
}
330
42
100
AcDbScale
 70
     0
300
3/8" = 1'-0"
140
0.375
141
12.0
290
     0
  0
SCALE
  5
4D
102
{ACAD_REACTORS
330
42
102
}
330
42
100
AcDbScale
 70
     0
300
1/2" = 1'-0"
140
0.5
141
12.0
290
     0
  0
SCALE
  5
4E
102
{ACAD_REACTORS
330
42
102
}
330
42
100
AcDbScale
 70
     0
300
3/4" = 1'-0"
140
0.75
141
12.0
290
     0
  0
SCALE
  5
4F
102
{ACAD_REACTORS
330
42
102
}
330
42
100
AcDbScale
 70
     0
300
1" = 1'-0"
140
1.0
141
12.0
290
     0
  0
SCALE
  5
50
102
{ACAD_REACTORS
330
42
102
}
330
42
100
AcDbScale
 70
     0
300
1-1/2" = 1'-0"
140
1.5
141
12.0
290
     0
  0
SCALE
  5
51
102
{ACAD_REACTORS
330
42
102
}
330
42
100
AcDbScale
 70
     0
300
3" = 1'-0"
140
3.0
141
12.0
290
     0
  0
SCALE
  5
52
102
{ACAD_REACTORS
330
42
102
}
330
42
100
AcDbScale
 70
     0
300
6" = 1'-0"
140
6.0
141
12.0
290
     0
  0
SCALE
  5
53
102
{ACAD_REACTORS
330
42
102
}
330
42
100
AcDbScale
 70
     0
300
1'-0" = 1'-0"
140
12.0
141
12.0
290
     0
  0
TABLESTYLE
  5
65
102
{ACAD_XDICTIONARY
360
F6D
102
}
102
{ACAD_REACTORS
330
64
102
}
330
64
100
AcDbTableStyle
280
     0
  3
Standard
 70
     0
 71
     0
 40
0.06
 41
0.06
280
     0
281
     0
  7
Standard
140
0.18
170
     2
 62
     0
 63
     7
283
     0
 90
      512
 91
        0
  1

274
    -2
284
     1
 64
     0
275
    -2
285
     1
 65
     0
276
    -2
286
     1
 66
     0
277
    -2
287
     1
 67
     0
278
    -2
288
     1
 68
     0
279
    -2
289
     1
 69
     0
  7
Standard
140
0.25
170
     5
 62
     0
 63
     7
283
     0
 90
      512
 91
        0
  1

274
    -2
284
     1
 64
     0
275
    -2
285
     1
 65
     0
276
    -2
286
     1
 66
     0
277
    -2
287
     1
 67
     0
278
    -2
288
     1
 68
     0
279
    -2
289
     1
 69
     0
  7
Standard
140
0.18
170
     5
 62
     0
 63
     7
283
     0
 90
      512
 91
        0
  1

274
    -2
284
     1
 64
     0
275
    -2
285
     1
 65
     0
276
    -2
286
     1
 66
     0
277
    -2
287
     1
 67
     0
278
    -2
288
     1
 68
     0
279
    -2
289
     1
 69
     0
  0
VISUALSTYLE
  5
2F
102
{ACAD_REACTORS
330
29
102
}
330
29
100
AcDbVisualStyle
  2
2dWireframe
 70
     4
177
     2
291
     0
 71
     0
176
     1
 72
     2
176
     1
 73
     0
176
     1
 90
        0
176
     1
 40
0.6
176
     1
 41
30.0
176
     1
 63
     7
421
 16777215
176
     1
 74
     1
176
     1
 91
        4
176
     1
 64
     7
176
     1
 65
   257
176
     1
 75
     1
176
     1
175
     1
176
     1
 42
1.0
176
     1
 92
        0
176
     1
 66
   257
176
     1
 43
1.0
176
     1
 76
     1
176
     1
 77
     6
176
     1
 78
     2
176
     1
 67
     7
176
     1
 79
     5
176
     1
170
     0
176
     1
171
     0
176
     1
290
     0
176
     1
 93
        1
176
     1
 44
0.0
176
     1
173
     0
176
     1
  0
VISUALSTYLE
  5
2E
102
{ACAD_REACTORS
330
29
102
}
330
29
100
AcDbVisualStyle
  2
Basic
 70
     7
177
     2
291
     1
 71
     1
176
     1
 72
     0
176
     1
 73
     1
176
     1
 90
        0
176
     1
 40
0.6
176
     1
 41
30.0
176
     1
 63
     7
421
 16777215
176
     1
 74
     0
176
     1
 91
        4
176
     1
 64
     7
176
     1
 65
   257
176
     1
 75
     1
176
     1
175
     1
176
     1
 42
1.0
176
     1
 92
        8
176
     1
 66
     7
176
     1
 43
1.0
176
     1
 76
     1
176
     1
 77
     6
176
     1
 78
     2
176
     1
 67
     7
176
     1
 79
     5
176
     1
170
     0
176
     1
171
     0
176
     1
290
     0
176
     1
 93
        1
176
     1
 44
0.0
176
     1
173
     0
176
     1
  0
VISUALSTYLE
  5
35
102
{ACAD_REACTORS
330
29
102
}
330
29
100
AcDbVisualStyle
  2
Brighten
 70
    12
177
     2
291
     1
 71
     2
176
     1
 72
     2
176
     1
 73
     0
176
     1
 90
        0
176
     1
 40
0.6
176
     1
 41
30.0
176
     1
 63
     7
421
 16777215
176
     1
 74
     1
176
     1
 91
        4
176
     1
 64
     7
176
     1
 65
   257
176
     1
 75
     1
176
     1
175
     1
176
     1
 42
1.0
176
     1
 92
        8
176
     1
 66
     7
176
     1
 43
1.0
176
     1
 76
     1
176
     1
 77
     6
176
     1
 78
     2
176
     1
 67
     7
176
     1
 79
     5
176
     1
170
     0
176
     1
171
     0
176
     1
290
     0
176
     1
 93
        1
176
     1
 44
50.0
176
     1
173
     0
176
     1
  0
VISUALSTYLE
  5
39
102
{ACAD_REACTORS
330
29
102
}
330
29
100
AcDbVisualStyle
  2
ColorChange
 70
    16
177
     2
291
     1
 71
     2
176
     1
 72
     2
176
     1
 73
     3
176
     1
 90
        0
176
     1
 40
0.6
176
     1
 41
30.0
176
     1
 63
     8
421
  8421504
176
     1
 74
     1
176
     1
 91
        4
176
     1
 64
     7
176
     1
 65
   257
176
     1
 75
     1
176
     1
175
     1
176
     1
 42
1.0
176
     1
 92
        8
176
     1
 66
     8
424
  8421504
176
     1
 43
1.0
176
     1
 76
     1
176
     1
 77
     6
176
     1
 78
     2
176
     1
 67
     7
176
     1
 79
     5
176
     1
170
     0
176
     1
171
     0
176
     1
290
     0
176
     1
 93
        1
176
     1
 44
0.0
176
     1
173
     0
176
     1
  0
VISUALSTYLE
  5
32
102
{ACAD_REACTORS
330
29
102
}
330
29
100
AcDbVisualStyle
  2
Conceptual
 70
     9
177
     2
291
     0
 71
     3
176
     1
 72
     2
176
     1
 73
     0
176
     1
 90
        0
176
     1
 40
0.6
176
     1
 41
30.0
176
     1
 63
     7
421
 16777215
176
     1
 74
     2
176
     1
 91
        2
176
     1
 64
     7
176
     1
 65
   257
176
     1
 75
     1
176
     1
175
     1
176
     1
 42
179.0
176
     1
 92
        8
176
     1
 66
     7
176
     1
 43
1.0
176
     1
 76
     1
176
     1
 77
     6
176
     1
 78
     2
176
     1
 67
     7
176
     1
 79
     3
176
     1
170
     0
176
     1
171
     0
176
     1
290
     0
176
     1
 93
        1
176
     1
 44
0.0
176
     1
173
     0
176
     1
  0
VISUALSTYLE
  5
34
102
{ACAD_REACTORS
330
29
102
}
330
29
100
AcDbVisualStyle
  2
Dim
 70
    11
177
     2
291
     1
 71
     2
176
     1
 72
     2
176
     1
 73
     0
176
     1
 90
        0
176
     1
 40
0.6
176
     1
 41
30.0
176
     1
 63
     7
421
 16777215
176
     1
 74
     1
176
     1
 91
        4
176
     1
 64
     7
176
     1
 65
   257
176
     1
 75
     1
176
     1
175
     1
176
     1
 42
1.0
176
     1
 92
        8
176
     1
 66
     7
176
     1
 43
1.0
176
     1
 76
     1
176
     1
 77
     6
176
     1
 78
     2
176
     1
 67
     7
176
     1
 79
     5
176
     1
170
     0
176
     1
171
     0
176
     1
290
     0
176
     1
 93
        1
176
     1
 44
-50.0
176
     1
173
     0
176
     1
  0
VISUALSTYLE
  5
41
102
{ACAD_REACTORS
330
29
102
}
330
29
100
AcDbVisualStyle
  2
EdgeColorOff
 70
    22
177
     2
291
     1
 71
     2
176
     0
 72
     2
176
     0
 73
     0
176
     0
 90
        0
176
     0
 40
0.6
176
     0
 41
30.0
176
     0
 63
     7
421
 16777215
176
     0
 74
     1
176
     0
 91
        4
176
     0
 64
     7
176
     0
 65
   257
176
     0
 75
     1
176
     0
175
     1
176
     0
 42
1.0
176
     0
 92
        8
176
     2
 66
     7
176
     0
 43
1.0
176
     0
 76
     1
176
     0
 77
     6
176
     0
 78
     2
176
     0
 67
     7
176
     0
 79
     5
176
     0
170
     0
176
     0
171
     0
176
     0
290
     0
176
     0
 93
        1
176
     0
 44
0.0
176
     0
173
     0
176
     0
  0
VISUALSTYLE
  5
38
102
{ACAD_REACTORS
330
29
102
}
330
29
100
AcDbVisualStyle
  2
Facepattern
 70
    15
177
     2
291
     1
 71
     2
176
     1
 72
     2
176
     1
 73
     0
176
     1
 90
        0
176
     1
 40
0.6
176
     1
 41
30.0
176
     1
 63
     7
421
 16777215
176
     1
 74
     1
176
     1
 91
        4
176
     1
 64
     7
176
     1
 65
   257
176
     1
 75
     1
176
     1
175
     1
176
     1
 42
1.0
176
     1
 92
        8
176
     1
 66
     7
176
     1
 43
1.0
176
     1
 76
     1
176
     1
 77
     6
176
     1
 78
     2
176
     1
 67
     7
176
     1
 79
     5
176
     1
170
     0
176
     1
171
     0
176
     1
290
     0
176
     1
 93
        1
176
     1
 44
0.0
176
     1
173
     0
176
     1
  0
VISUALSTYLE
  5
2A
102
{ACAD_REACTORS
330
29
102
}
330
29
100
AcDbVisualStyle
  2
Flat
 70
     0
177
     2
291
     1
 71
     2
176
     1
 72
     1
176
     1
 73
     1
176
     1
 90
        2
176
     1
 40
0.6
176
     1
 41
30.0
176
     1
 63
     7
421
 16777215
176
     1
 74
     0
176
     1
 91
        0
176
     1
 64
     7
176
     1
 65
   257
176
     1
 75
     1
176
     1
175
     1
176
     1
 42
1.0
176
     1
 92
        8
176
     1
 66
     7
176
     1
 43
1.0
176
     1
 76
     1
176
     1
 77
     6
176
     1
 78
     2
176
     1
 67
     7
176
     1
 79
     5
176
     1
170
     0
176
     1
171
     0
176
     1
290
     0
176
     1
 93
       13
176
     1
 44
0.0
176
     1
173
     0
176
     1
  0
VISUALSTYLE
  5
2B
102
{ACAD_REACTORS
330
29
102
}
330
29
100
AcDbVisualStyle
  2
FlatWithEdges
 70
     1
177
     2
291
     1
 71
     2
176
     1
 72
     1
176
     1
 73
     1
176
     1
 90
        2
176
     1
 40
0.6
176
     1
 41
30.0
176
     1
 63
     7
421
 16777215
176
     1
 74
     1
176
     1
 91
        0
176
     1
 64
     7
176
     1
 65
   257
176
     1
 75
     1
176
     1
175
     1
176
     1
 42
1.0
176
     1
 92
        0
176
     1
 66
   257
176
     1
 43
1.0
176
     1
 76
     1
176
     1
 77
     6
176
     1
 78
     2
176
     1
 67
     7
176
     1
 79
     5
176
     1
170
     0
176
     1
171
     0
176
     1
290
     0
176
     1
 93
       13
176
     1
 44
0.0
176
     1
173
     0
176
     1
  0
VISUALSTYLE
  5
2C
102
{ACAD_REACTORS
330
29
102
}
330
29
100
AcDbVisualStyle
  2
Gouraud
 70
     2
177
     2
291
     1
 71
     2
176
     1
 72
     2
176
     1
 73
     1
176
     1
 90
        2
176
     1
 40
0.6
176
     1
 41
30.0
176
     1
 63
     7
421
 16777215
176
     1
 74
     0
176
     1
 91
        0
176
     1
 64
     7
176
     1
 65
   257
176
     1
 75
     1
176
     1
175
     1
176
     1
 42
1.0
176
     1
 92
        0
176
     1
 66
     7
176
     1
 43
1.0
176
     1
 76
     1
176
     1
 77
     6
176
     1
 78
     2
176
     1
 67
     7
176
     1
 79
     5
176
     1
170
     0
176
     1
171
     0
176
     1
290
     0
176
     1
 93
       13
176
     1
 44
0.0
176
     1
173
     0
176
     1
  0
VISUALSTYLE
  5
2D
102
{ACAD_REACTORS
330
29
102
}
330
29
100
AcDbVisualStyle
  2
GouraudWithEdges
 70
     3
177
     2
291
     1
 71
     2
176
     1
 72
     2
176
     1
 73
     1
176
     1
 90
        2
176
     1
 40
0.6
176
     1
 41
30.0
176
     1
 63
     7
421
 16777215
176
     1
 74
     1
176
     1
 91
        0
176
     1
 64
     7
176
     1
 65
   257
176
     1
 75
     1
176
     1
175
     1
176
     1
 42
1.0
176
     1
 92
        0
176
     1
 66
   257
176
     1
 43
1.0
176
     1
 76
     1
176
     1
 77
     6
176
     1
 78
     2
176
     1
 67
     7
176
     1
 79
     5
176
     1
170
     0
176
     1
171
     0
176
     1
290
     0
176
     1
 93
       13
176
     1
 44
0.0
176
     1
173
     0
176
     1
  0
VISUALSTYLE
  5
31
102
{ACAD_REACTORS
330
29
102
}
330
29
100
AcDbVisualStyle
  2
Hidden
 70
     6
177
     2
291
     0
 71
     1
176
     1
 72
     2
176
     1
 73
     2
176
     1
 90
        0
176
     1
 40
0.6
176
     1
 41
30.0
176
     1
 63
     7
421
 16777215
176
     1
 74
     2
176
     1
 91
        2
176
     1
 64
     7
176
     1
 65
   257
176
     1
 75
     2
176
     1
175
     1
176
     1
 42
40.0
176
     1
 92
        0
176
     1
 66
   257
176
     1
 43
1.0
176
     1
 76
     1
176
     1
 77
     6
176
     1
 78
     2
176
     1
 67
     7
176
     1
 79
     3
176
     1
170
     0
176
     1
171
     0
176
     1
290
     0
176
     1
 93
        1
176
     1
 44
0.0
176
     1
173
     0
176
     1
  0
VISUALSTYLE
  5
3F
102
{ACAD_REACTORS
330
29
102
}
330
29
100
AcDbVisualStyle
  2
JitterOff
 70
    20
177
     2
291
     1
 71
     2
176
     0
 72
     2
176
     0
 73
     0
176
     0
 90
        0
176
     0
 40
0.6
176
     0
 41
30.0
176
     0
 63
     7
421
 16777215
176
     0
 74
     1
176
     0
 91
        4
176
     0
 64
     7
176
     0
 65
   257
176
     0
 75
     1
176
     0
175
     1
176
     0
 42
1.0
176
     0
 92
       10
176
     2
 66
     7
176
     0
 43
1.0
176
     0
 76
     1
176
     0
 77
     6
176
     0
 78
     2
176
     0
 67
     7
176
     0
 79
     5
176
     0
170
     0
176
     0
171
     0
176
     0
290
     0
176
     0
 93
        1
176
     0
 44
0.0
176
     0
173
     0
176
     0
  0
VISUALSTYLE
  5
37
102
{ACAD_REACTORS
330
29
102
}
330
29
100
AcDbVisualStyle
  2
Linepattern
 70
    14
177
     2
291
     1
 71
     2
176
     1
 72
     2
176
     1
 73
     0
176
     1
 90
        0
176
     1
 40
0.6
176
     1
 41
30.0
176
     1
 63
     7
421
 16777215
176
     1
 74
     1
176
     1
 91
        4
176
     1
 64
     7
176
     1
 65
   257
176
     1
 75
     7
176
     1
175
     7
176
     1
 42
1.0
176
     1
 92
        8
176
     1
 66
     7
176
     1
 43
1.0
176
     1
 76
     1
176
     1
 77
     6
176
     1
 78
     2
176
     1
 67
     7
176
     1
 79
     5
176
     1
170
     0
176
     1
171
     0
176
     1
290
     0
176
     1
 93
        1
176
     1
 44
0.0
176
     1
173
     0
176
     1
  0
VISUALSTYLE
  5
40
102
{ACAD_REACTORS
330
29
102
}
330
29
100
AcDbVisualStyle
  2
OverhangOff
 70
    21
177
     2
291
     1
 71
     2
176
     0
 72
     2
176
     0
 73
     0
176
     0
 90
        0
176
     0
 40
0.6
176
     0
 41
30.0
176
     0
 63
     7
421
 16777215
176
     0
 74
     1
176
     0
 91
        4
176
     0
 64
     7
176
     0
 65
   257
176
     0
 75
     1
176
     0
175
     1
176
     0
 42
1.0
176
     0
 92
        9
176
     2
 66
     7
176
     0
 43
1.0
176
     0
 76
     1
176
     0
 77
     6
176
     0
 78
     2
176
     0
 67
     7
176
     0
 79
     5
176
     0
170
     0
176
     0
171
     0
176
     0
290
     0
176
     0
 93
        1
176
     0
 44
0.0
176
     0
173
     0
176
     0
  0
VISUALSTYLE
  5
33
102
{ACAD_REACTORS
330
29
102
}
330
29
100
AcDbVisualStyle
  2
Realistic
 70
     8
177
     2
291
     0
 71
     2
176
     1
 72
     3
176
     1
 73
     0
176
     1
 90
        2
176
     1
 40
0.6
176
     1
 41
30.0
176
     1
 63
     7
421
 16777215
176
     1
 74
     0
176
     1
 91
        0
176
     1
 64
     7
176
     1
 65
   257
176
     1
 75
     1
176
     1
175
     1
176
     1
 42
1.0
176
     1
 92
        8
176
     1
 66
   257
176
     1
 43
1.0
176
     1
 76
     1
176
     1
 77
     6
176
     1
 78
     2
176
     1
 67
     7
176
     1
 79
     3
176
     1
170
     0
176
     1
171
     0
176
     1
290
     0
176
     1
 93
       13
176
     1
 44
0.0
176
     1
173
     0
176
     1
  0
VISUALSTYLE
  5
3E
102
{ACAD_REACTORS
330
29
102
}
330
29
100
AcDbVisualStyle
  2
Shaded
 70
    27
177
     2
291
     0
 71
     2
176
     1
 72
     2
176
     1
 73
     1
176
     1
 90
        2
176
     1
 40
0.6
176
     1
 41
30.0
176
     1
 63
     7
421
 16777215
176
     1
 74
     0
176
     1
 91
        4
176
     1
 64
     7
176
     1
 65
   257
176
     1
 75
     1
176
     1
175
     1
176
     1
 42
1.0
176
     1
 92
        8
176
     1
 66
   257
176
     1
 43
1.0
176
     1
 76
     1
176
     1
 77
     6
176
     1
 78
     2
176
     1
 67
     8
425
  7895160
176
     1
 79
     3
176
     1
170
     0
176
     1
171
     0
176
     1
290
     0
176
     1
 93
        5
176
     1
 44
0.0
176
     1
173
     0
176
     1
  0
VISUALSTYLE
  5
3D
102
{ACAD_REACTORS
330
29
102
}
330
29
100
AcDbVisualStyle
  2
Shaded with edges
 70
    26
177
     2
291
     0
 71
     2
176
     1
 72
     2
176
     1
 73
     1
176
     1
 90
        2
176
     1
 40
0.6
176
     1
 41
30.0
176
     1
 63
     7
421
 16777215
176
     1
 74
     1
176
     1
 91
       10
176
     1
 64
     7
176
     1
 65
   257
176
     1
 75
     2
176
     1
175
     1
176
     1
 42
1.0
176
     1
 92
        8
176
     1
 66
   257
176
     1
 43
1.0
176
     1
 76
     1
176
     1
 77
     6
176
     1
 78
     2
176
     1
 67
     7
176
     1
 79
     3
176
     1
170
     0
176
     1
171
     0
176
     1
290
     0
176
     1
 93
        5
176
     1
 44
0.0
176
     1
173
     0
176
     1
  0
VISUALSTYLE
  5
3A
102
{ACAD_REACTORS
330
29
102
}
330
29
100
AcDbVisualStyle
  2
Shades of Gray
 70
    23
177
     2
291
     0
 71
     2
176
     1
 72
     2
176
     1
 73
     3
176
     1
 90
        0
176
     1
 40
0.6
176
     1
 41
30.0
176
     1
 63
     7
421
 16777215
176
     1
 74
     2
176
     1
 91
        2
176
     1
 64
     7
176
     1
 65
     7
176
     1
 75
     1
176
     1
175
     1
176
     1
 42
40.0
176
     1
 92
        8
176
     1
 66
     7
176
     1
 43
1.0
176
     1
 76
     1
176
     1
 77
     6
176
     1
 78
     2
176
     1
 67
     7
176
     1
 79
     3
176
     1
170
     0
176
     1
171
     0
176
     1
290
     0
176
     1
 93
        1
176
     1
 44
0.0
176
     1
173
     0
176
     1
  0
VISUALSTYLE
  5
3B
102
{ACAD_REACTORS
330
29
102
}
330
29
100
AcDbVisualStyle
  2
Sketchy
 70
    24
177
     2
291
     0
 71
     1
176
     1
 72
     2
176
     1
 73
     2
176
     1
 90
        0
176
     1
 40
0.6
176
     1
 41
30.0
176
     1
 63
     7
421
 16777215
176
     1
 74
     2
176
     1
 91
        2
176
     1
 64
     7
176
     1
 65
     7
176
     1
 75
     1
176
     1
175
     1
176
     1
 42
40.0
176
     1
 92
       11
176
     1
 66
     7
176
     1
 43
1.0
176
     1
 76
     1
176
     1
 77
     6
176
     1
 78
     2
176
     1
 67
     7
176
     1
 79
     6
176
     1
170
     0
176
     1
171
     0
176
     1
290
     0
176
     1
 93
        1
176
     1
 44
0.0
176
     1
173
     0
176
     1
  0
VISUALSTYLE
  5
36
102
{ACAD_REACTORS
330
29
102
}
330
29
100
AcDbVisualStyle
  2
Thicken
 70
    13
177
     2
291
     1
 71
     2
176
     1
 72
     2
176
     1
 73
     0
176
     1
 90
        0
176
     1
 40
0.6
176
     1
 41
30.0
176
     1
 63
     7
421
 16777215
176
     1
 74
     1
176
     1
 91
        4
176
     1
 64
     7
176
     1
 65
   257
176
     1
 75
     1
176
     1
175
     1
176
     1
 42
1.0
176
     1
 92
       12
176
     1
 66
     7
176
     1
 43
1.0
176
     1
 76
     1
176
     1
 77
     6
176
     1
 78
     2
176
     1
 67
     7
176
     1
 79
     5
176
     1
170
     0
176
     1
171
     0
176
     1
290
     0
176
     1
 93
        1
176
     1
 44
0.0
176
     1
173
     0
176
     1
  0
VISUALSTYLE
  5
30
102
{ACAD_REACTORS
330
29
102
}
330
29
100
AcDbVisualStyle
  2
Wireframe
 70
     5
177
     2
291
     0
 71
     0
176
     1
 72
     2
176
     1
 73
     0
176
     1
 90
        0
176
     1
 40
0.6
176
     1
 41
30.0
176
     1
 63
     7
421
 16777215
176
     1
 74
     1
176
     1
 91
        4
176
     1
 64
     7
176
     1
 65
   257
176
     1
 75
     1
176
     1
175
     1
176
     1
 42
1.0
176
     1
 92
        0
176
     1
 66
   257
176
     1
 43
1.0
176
     1
 76
     1
176
     1
 77
     6
176
     1
 78
     2
176
     1
 67
     7
176
     1
 79
     3
176
     1
170
     0
176
     1
171
     0
176
     1
290
     0
176
     1
 93
        1
176
     1
 44
0.0
176
     1
173
     0
176
     1
  0
VISUALSTYLE
  5
3C
102
{ACAD_REACTORS
330
29
102
}
330
29
100
AcDbVisualStyle
  2
X-Ray
 70
    25
177
     2
291
     0
 71
     2
176
     1
 72
     2
176
     1
 73
     1
176
     1
 90
        1
176
     1
 40
0.5
176
     1
 41
30.0
176
     1
 63
     7
421
 16777215
176
     1
 74
     1
176
     1
 91
        0
176
     1
 64
     7
176
     1
 65
   257
176
     1
 75
     1
176
     1
175
     1
176
     1
 42
1.0
176
     1
 92
        8
176
     1
 66
     7
176
     1
 43
1.0
176
     1
 76
     1
176
     1
 77
     6
176
     1
 78
     2
176
     1
 67
     7
176
     1
 79
     3
176
     1
170
     0
176
     1
171
     0
176
     1
290
     0
176
     1
 93
       13
176
     1
 44
0.0
176
     1
173
     0
176
     1
  0
DICTIONARYVAR
  5
79
102
{ACAD_REACTORS
330
76
102
}
330
76
100
DictionaryVariables
280
     0
  1
1:1
  0
DICTIONARYVAR
  5
78
102
{ACAD_REACTORS
330
76
102
}
330
76
100
DictionaryVariables
280
     0
  1
STANDARD
  0
DICTIONARYVAR
  5
77
102
{ACAD_REACTORS
330
76
102
}
330
76
100
DictionaryVariables
280
     0
  1
STANDARD
  0
DICTIONARY
  5
1A
330
19
100
AcDbDictionary
280
     1
281
     1
  3
BUMPTILE
360
1C
  3
DIFFUSETILE
360
1B
  3
OPACITYTILE
360
1F
  3
REFLECTIONTILE
360
1E
  3
REFRACTIONTILE
360
20
  3
SPECULARTILE
360
1D
  0
DICTIONARY
  5
12
330
11
100
AcDbDictionary
280
     1
281
     1
  3
BUMPTILE
360
14
  3
DIFFUSETILE
360
13
  3
FBXASSET
360
109
  3
OPACITYTILE
360
17
  3
REFLECTIONTILE
360
16
  3
REFRACTIONTILE
360
18
  3
SPECULARTILE
360
15
  0
DICTIONARY
  5
22
330
21
100
AcDbDictionary
280
     1
281
     1
  3
BUMPTILE
360
24
  3
DIFFUSETILE
360
23
  3
FBXASSET
360
BA
  3
OPACITYTILE
360
27
  3
REFLECTIONTILE
360
26
  3
REFRACTIONTILE
360
28
  3
SPECULARTILE
360
25
  0
DICTIONARY
  5
F6F
330
67
100
AcDbDictionary
280
     1
281
     1
  3
ACAD_XREC_ROUNDTRIP
360
F70
  0
DICTIONARY
  5
F6D
330
65
100
AcDbDictionary
280
     1
281
     1
  3
ACAD_ROUNDTRIP_2008_TABLESTYLE_CELLSTYLEMAP
360
F6E
  0
XRECORD
  5
1C
102
{ACAD_REACTORS
330
1A
102
}
330
1A
100
AcDbXrecord
280
     1
270
     1
271
     1
  0
XRECORD
  5
1B
102
{ACAD_REACTORS
330
1A
102
}
330
1A
100
AcDbXrecord
280
     1
270
     1
271
     1
  0
XRECORD
  5
1F
102
{ACAD_REACTORS
330
1A
102
}
330
1A
100
AcDbXrecord
280
     1
270
     1
271
     1
  0
XRECORD
  5
1E
102
{ACAD_REACTORS
330
1A
102
}
330
1A
100
AcDbXrecord
280
     1
270
     1
271
     1
  0
XRECORD
  5
20
102
{ACAD_REACTORS
330
1A
102
}
330
1A
100
AcDbXrecord
280
     1
270
     1
271
     1
  0
XRECORD
  5
1D
102
{ACAD_REACTORS
330
1A
102
}
330
1A
100
AcDbXrecord
280
     1
270
     1
271
     1
  0
XRECORD
  5
14
102
{ACAD_REACTORS
330
12
102
}
330
12
100
AcDbXrecord
280
     1
270
     1
271
     1
  0
XRECORD
  5
13
102
{ACAD_REACTORS
330
12
102
}
330
12
100
AcDbXrecord
280
     1
270
     1
271
     1
  0
XRECORD
  5
109
102
{ACAD_REACTORS
330
12
102
}
330
12
100
AcDbXrecord
280
     1
 70
     1
 90
1959938040
 71
     1
  1
D455A586-DF04-4B5E-9E78-0312050344C8
311
504B03040A0000080000D54CCE423DEE336E79000000790000001B0000006175746F6465736B2D64657369676E2D7061636B6167652E786D6C3C3F786D6C2076657273696F6E3D22312E302220656E636F64696E673D227574662D3822203F3E3C666F726D6174733E3C666F726D61743E687474703A2F2F736368656D612E
311
6175746F6465736B2E636F6D2F64657369676E2D7061636B6167652F323030393C2F666F726D61743E3C2F666F726D6174733E504B0304140006080800D54CCE42D486FD9CA0000000F4000000130000005B436F6E74656E745F54797065735D2E786D6C7D8EC10E82300C865F65E91D8A1E8C310C0EEA1BF002731658846E
311
D98AC1B77784ABF1D8FE5FBFBF75BBCE937A534CCEB38643598122B6FEE978D0B0485F9C41B54DDD7D022595594E1A469170414C76A4D9A4D207E29CF43ECE46F218070CC6BECC4078ACAA135ACF422C856C0E68EA1BF5669944DDD7BCDE7B1F8E415D77AECB980613C2E4AC91FC167A2B244592486606FC29C8FD7F045B9A
311
EF7053A7E60B504B0304140006080800D54CCE427E7C2C45EC0000007C01000008000000636F72652E786D6C8D904D6EC3201085AF82665B6183715C6C61A2FE3827E80510262E4A0C9681AAC72F4E1CA9DD7535A337EF9B193D71FC9EAFE8CBACC17AD7032D0820E3B41FAD9B7A48F18C39A0A314ABF7F1970D9053B3E961
311
93418A69F569D925ED5D342E66D5F9D1ECA20AC14440FA9A9B1E82FE34B32A548AD9112EC5A2F4454DA6A08F2EC329D911DD8FD831EFB3676B56902D6FE881371C3F3376C2753BB498F39661560DF4FDE58D0EAFD549941B2C45B4F3E3BE5E8D8A66045911CA306930AD3F48DB31DED5D51339748C8872B3FF81D232FE134A
311
D64556EDEFDEB10092E6476E0329CA2D8B5C6E41E5BAE5267F00504B0304140006080800D54CCE4255019EA25F0000007C00000007000000636E782E786D6C4DCB3B0E80201045D1AD90E915ED2CF8AC45050C11660C8261F98AB1B07AC9C97D42D718D865D3E909258CFD00CCE24AC6E326A164D74DC0B4128928FF326038
311
472BA13128B1252AC747C6BAB984FC68F0B87FE8960A5C09FE86CFB69FBA01504B0304140006080800D54CCE4202256B8768010000020300000C0000006662782F636F72652E786D6C8D525B6E833010BC8AE5DFCA985752888CA33E9213F4028E71280AD8C8D828C7EFF28868AA28AA908C35B3B33B3BC0F6D7B64183B27D
311
6D7481A320C4486969CA5A5705F6EE4C328CF69C5963DCAF328CB46855814718735659E3BB0592463BA51DA0DA946A0145DF2B87916CE052E05E7EAB5604C23BA8E82F4127E445542A8802A0A18EB3DE593080E621E389F9F9746574C639F3BE2E17B62E615A7DAE95C53CCFB6D126DB66E435498E24CD0F39C9B23C21497C
311
883EDF3EA2C37B7C64741473E6EAF6E64E5A259C2A318FC32821E19644E95798EF926C97C62FE16697848C8EE57722DF95FF14F95ABB245EECCEB21EF3088C4CC49F6D2122877A31801FCA191D4384D794F07DD0100884ECC4A9B9ED71016850D2199B02531ABF528368BC82A9219A1E4667163A4F0D60B3877DE2277D9EF7
311
800F287405D68483EBC9BB713A9BA72E5174CA92C15D9136B615CD6A6EB6B89EEBA08772691A63FFA3A6CBAA7409938E7F2FFF01504B0304140006080800D54CCE423755C0107E0000009D0000000B0000006662782F636E782E786D6C4DCCDF0A83201C86E15B91DFB96B897F0AD468CBDD472C0B99E9703A76F9ABD1C18E
311
3E78F87865F7593D7ADBF4723128A84F674036DCE3E4C2A2A0E41937803A2D538CF9EF06288CAB55B03368B9A4589E074D761E8BCF9B7A171E071ACE869A341C13CA0CA6A21FF085D1165F8D30E246496B780F9596D5AFB4ED1ED65F504B0304140006080800D54CCE42C1FEAD352D01000014020000310000006662782F45
311
363544313238362D323435452D343741442D423534392D4345374537463432394536412F636F72652E786D6C8D515B6EC32010BC0AE22B55651B6C4C1EC24469E39EA0172098A42831583CAA1CBF503B52FB971F16CDCECC8E76D9FE3EDEC0B7725E5BD3415C2208949176D0E6D2C118CEC506823D67CEDAF087068111A3EA
311
608621671767E3B440D29AA04C48A8B1835A40E1BD0A10C85BFA74D0CB2F358A52C49018FE5A4E425EC54595B84CEDC4E3CC0797028079487E21EF697BC4F586163569FB82AC0FC7E2AD25DBE2BD5FF7EB0F526F7B7A60D52CE42C463D2C723DA438FAAC957BD6248B390B7A7CC4974E89A006C86B849B02D102934FB4DD35
311
9B1DA95F51BB6B10AB32FD9F284EC393A2A84D68EA25EE2CF3906356CD0DCE061B4FB74718759FAC0B20CF5B79255F204725C238EDA2A1AC9AA96901C99392C5D307EBD28257D75362E37636A684B32ADF2895DF03A69AEFC97F00504B0304140006080800D54CCE42CDBA1BCB4E01000033030000300000006662782F4536
311
3544313238362D323435452D343741442D423534392D4345374537463432394536412F636E782E786D6CD593CD6E022114855F85B06DE6CF991A6B184CBAE81374D12DC255A90C4CF869EADBF7A268DDB8E8B21B3239F770CECD17866DBE2743BEC007EDEC48BBBAA504AC744ADBFD4853DC552B4A369C79E7E29D8D122B26
311
18699629677BEFD25C24053B914C44D5687B2CA287E092971050CE37897152180C005B251461DA8252A0C8CD885F3BF0B80A8ADB138907206FAF1FC46D3F41C6C09A9CC259933B38CB6769BA3351228D0861A4411E6012B548D12908C75A8928EAAEBE763DD8E93789E40BD7CAE435C9E523CD27E565A31A39B206879C85E8
311
915E31C5D30C948B79365A8A88909BB3F1E2E12C691B9743F16A04EFD1DD2DFB61C0B0F38CB3A827280EE9414450942FDAAEAFDA65D50DEFEDCBBA5FAD87C553FBBCEE5BD6643B675BE74CB98431E0DD4CA4B3116CA4BC634D1E3FC2577C44698FAC9D3FFD01240228AD173AB78CFFCCA739BF6FC4E5F12FE03F504B030414
311
0006080800D54CCE4247AC2E65A405000081100000340000006662782F45363544313238362D323435452D343741442D423534392D4345374537463432394536412F6F626A656374732E786D6CAD57D96EDB3814FD1541F332F3E0455E5267A0A848ECA430DAB4458D14F360C0A0254AE1845A4052A9335F3F8722254B8E9D
311
7A067DD1C2E5F2DE73CF5DE8BFDFA5DC79A642B23CBB72BDFED0756816E611CB922BB754716FE63AEF035FE4B96A2D739D8CA4F4CAD5C36EE027222F0B3B14D198945C1D8CDEDDFCE5C89066D475424EA4BC7265F84853D227A5CA232A9FFA1151A49FC4BBBED7370BBB6213418AC703A105113453D014E319A4384629AFFB
311
3B7407813FD0F381AF9F76D5F8F4AA41654FF77C964945B2F0D5610762C6DE64713B9A5EF6A693C9B837B91879BD9BBB9B45CF7B371ECE2FE6F3CBEBDB4B1C2C958024AB89A0B11B7C00368285FEC04C057EC932351ED925D64103419F99F6941B8C1CCF1F98358D75D6C863EA877996D1B0C20A6854F659D1112D6816C1E7
311
8C4A68D64268D8FDF5348EADE9B1FEB747B687CF43A0BDA325A8D6BD7EB735CDB77FC304790E8384A49A81064B6BA8E1EA708FF036CFB99D63D24989A28211EE70B61544BCB80196EA2581DF11A3992C7434680BDC005E30D35DBA208C7ECEF3635AC625E79AC66E5045C106B14295AC3463FF50B1D7BE8D0C7482AF341B66
311
D620F5525037B83414991DB0C900E9C49C247039CCD43BC7A30343E73A4E970B37F878B7DDAD74EC1E3FBC10794185D2F401B56AC7D56F8D92D5C93BCB737A837BA0CA1E946F40FE33427DAF0AFC26D86EB29BD8539420998C7391C237CED0E90DF1183A5EF5D4DFAD2F7FD06CEE7AEF149E70B686EA17E0D9B5A1EDCB169C
311
81FF0CC2E7626C4D5B8584236DDCB30C006992383CC710F270BCDDB9C112590E5919BB080F3C980C759FF1E90FAC18248AEAA4D63B03960769F18C040DD82A46420D437EABE0DE4FAFD25975B05D760ADEE92FA1EBF562F571558A9884F4DEC6F482C62C630A256ECF9BB6421DCC3B163DD1971FB98860E86BBC576DBC537B
311
9404DA1A730D7C52E774FDB33FB97340887D49AED38DFF931360842EAC2DF9F74C86947392D1BCACCF7DB37EA06C188875B06B263705665F58401A3373108328D2A1608506B1A9564DD2EC9FB0EE61F9198C74839B974FE4A59DBDB6FBDC1BE63C179BEDCBC6A4A5A3507FEF72DB6230D05240F72A48EAF8B7A06F2216C7A5
311
44123C82EBF7E5BCED3B9D1690226AA9265A26B01FC14584256D2D17D55A1054D23CDB30D44DC4DDD103DAF201A9654025F094C692F278C3382FD34DCC38AAD12625C50938FEBFFEDB322D3624CDCB4C9D90DD511DD5A1AB7B87BDF20751E1A31BACAA77EF06B937A2D10932E85A7204AB8E6B1793E9F47A3ABBE82DEE8693
311
DEE4667ADBBBBC7D37EB0DC7DE68381D8E2793F9ACF693D124F0EB52D38E687809A5CD2F05B3EE7B58227E6C1270837BA2E4FA8309CFFAFDB0ECA317F607D8837AD96CBC8E9ED1F7D1E8E702F62B8F0A5AA605A729CD14D13174AF3FF837823EA3A38C195FA624A16748F9F26175600C46CED8F755C73BFD71B0D78ECE7540
311
1E15A21ECB749B11C60F362606C97E912516BFDA27CDDB149AFA57FF59C7A03395396711F260E424344FA942363CA30889944A50AFDDD347F6EE71C6EE67D3212AB2E5B4D6E491A049E61261016A95A1EA8E3BBFA1A9D37DD5958B72DB7FC2C3660AD70167AE5C34E98A8554F6B728D0BA15AA84834BED4E1E8D3FC9128E5E
311
DB6C6AFE9B5D1A9B4E496E969CD33F59BB4C0AB706208D14E81BD010C13B9532815FE966E7C3FF6478AD8E43143EB7A56A6CD90F34C654C720448D51F6B68026E6C91EBD43A0BE6D96D7AFD6741039EB96F526098CD49E2222A96E0A5A3FABD2F5E2EB001D8AB3FCE214BC4CE0CBF325F50405994B1DE06011586165164481
311
AAF33FD75F458E9B6CEADC3150C0F97D37BBF8633DCFD334CFCCD0FADADE879DD5236EB7D11AC981EA6B895C8F86DE685D5D07EC0D65B32592F649249F3000CF0AD600DD713F7869EE8CA84366A25937D0AE3860E872E1D8C23681504B97766ED5E0A0F1C8A88318D2574A1D31ED05C59B378241B5142A08F4F2C1BF504B03
311
04140006080000D54CCE42000000000000000000000000350000006662782F45363544313238362D323435452D343741442D423534392D4345374537463432394536412F76657274696365732E62696E504B0304140006080800D54CCE42F270F1330600000004000000360000006662782F45363544313238362D32343545
311
2D343741442D423534392D4345374537463432394536412F747269616E676C65732E62696E636660600000504B0304140006080000D54CCE42000000000000000000000000370000006662782F45363544313238362D323435452D343741442D423534392D4345374537463432394536412F617474726962757465732E6269
311
6E504B0304140006080800D54CCE42D5987DFC8F00000041010000360000006662782F45363544313238362D323435452D343741442D423534392D4345374537463432394536412F6469726563746F72792E786D6C858F410EC2201045AF4266AF15DDB800BA74E7C21B903225242D6328188F2FA5C4183471359997F9FF81
311
E89FF3C41E1816475E02DF1F80A11FC8386F25A438EECEC07A250251FC3803E6F58C12560C4AD840E95E91C151A72936F496F35732D860FE635F62C8F2DA16B505C545B74125BAA2FA9E05D7CC053D063734D5C7665FD55B6B8D15D5E9BFEAFD8490FFA45E504B0304140006080800D54CCE428E1DB835FE000000A0010000
311
3B0000006662782F45363544313238362D323435452D343741442D423534392D4345374537463432394536412F7265736F75726365732F636F72652E786D6C8D50596E833010BD0A9ADFCA8031490019475DC8097A01CB4CA89560232F558F5F13A8D4FEF56766F416CDD3E3E7AFF99E7DA2F3DA9A1E685E428646D9519BA9
311
8718AEA481EC2CB8B336FC924166E48C3DAC30083E391B971D52D6043421A1C68EB883D27B0C90A97B3A7AF0EA036799CB1892C2DFF245AA9B9C30A779A2934E701F5C0A906D4FD609C2A1B7D129F4BCD858C163D4E3AED163FAA9AF1A1D88B639D243733C9113631752B7434B9AA6658455037D7B7EA5C34B75E1C56A163C
311
E8F927A37228038E20AA9232521E09ADDFCBB6634D57574FE5A163252F56F91F535CC67F9AA23681557BDCCDE641D014E441085EAC7DA5F52833EDB55BF10D504B010214000A0000080000D54CCE423DEE336E79000000790000001B00000000000000000000000000000000006175746F6465736B2D64657369676E2D7061
311
636B6167652E786D6C504B01021400140006080800D54CCE42D486FD9CA0000000F40000001300000000000000000000000000B20000005B436F6E74656E745F54797065735D2E786D6C504B01021400140006080800D54CCE427E7C2C45EC0000007C010000080000000000000000000000000083010000636F72652E786D
311
6C504B01021400140006080800D54CCE4255019EA25F0000007C000000070000000000000000000000000095020000636E782E786D6C504B01021400140006080800D54CCE4202256B8768010000020300000C00000000000000000000000000190300006662782F636F72652E786D6C504B01021400140006080800D54CCE
311
423755C0107E0000009D0000000B00000000000000000000000000AB0400006662782F636E782E786D6C504B01021400140006080800D54CCE42C1FEAD352D010000140200003100000000000000000000000000520500006662782F45363544313238362D323435452D343741442D423534392D4345374537463432394536
311
412F636F72652E786D6C504B01021400140006080800D54CCE42CDBA1BCB4E010000330300003000000000000000000000000000CE0600006662782F45363544313238362D323435452D343741442D423534392D4345374537463432394536412F636E782E786D6C504B01021400140006080800D54CCE4247AC2E65A40500
311
008110000034000000000000000000000000006A0800006662782F45363544313238362D323435452D343741442D423534392D4345374537463432394536412F6F626A656374732E786D6C504B01021400140006080000D54CCE420000000000000000000000003500000000000000000000000000600E00006662782F4536
311
3544313238362D323435452D343741442D423534392D4345374537463432394536412F76657274696365732E62696E504B01021400140006080800D54CCE42F270F13306000000040000003600000000000000000000000000B30E00006662782F45363544313238362D323435452D343741442D423534392D434537453746
311
3432394536412F747269616E676C65732E62696E504B01021400140006080000D54CCE4200000000000000000000000037000000000000000000000000000D0F00006662782F45363544313238362D323435452D343741442D423534392D4345374537463432394536412F617474726962757465732E62696E504B01021400
311
140006080800D54CCE42D5987DFC8F000000410100003600000000000000000000000000620F00006662782F45363544313238362D323435452D343741442D423534392D4345374537463432394536412F6469726563746F72792E786D6C504B01021400140006080800D54CCE428E1DB835FE000000A00100003B00000000
311
000000000000000000451000006662782F45363544313238362D323435452D343741442D423534392D4345374537463432394536412F7265736F75726365732F636F72652E786D6C504B0506000000000E000E00800400009C1100000000
310
504B03040A0000080000D54CCE423DEE336E79000000790000001B0000006175746F6465736B2D64657369676E2D7061636B6167652E786D6C3C3F786D6C2076657273696F6E3D22312E302220656E636F64696E673D227574662D3822203F3E3C666F726D6174733E3C666F726D61743E687474703A2F2F736368656D612E
310
6175746F6465736B2E636F6D2F64657369676E2D7061636B6167652F323030393C2F666F726D61743E3C2F666F726D6174733E504B0304140006080800D54CCE42D486FD9CA0000000F4000000130000005B436F6E74656E745F54797065735D2E786D6C7D8EC10E82300C865F65E91D8A1E8C310C0EEA1BF002731658846E
310
D98AC1B77784ABF1D8FE5FBFBF75BBCE937A534CCEB38643598122B6FEE978D0B0485F9C41B54DDD7D022595594E1A469170414C76A4D9A4D207E29CF43ECE46F218070CC6BECC4078ACAA135ACF422C856C0E68EA1BF5669944DDD7BCDE7B1F8E415D77AECB980613C2E4AC91FC167A2B244592486606FC29C8FD7F045B9A
310
EF7053A7E60B504B0304140006080800D54CCE42381AB277EA0000007C01000008000000636F72652E786D6C8D90518E83201445B742F89DA02068AC411A6BBB83D90001EA90563002932E7FB0B5C9CCDF7CBD97CB3DBC9BCB8F8FF90EBECD1AAC773D240586C038E5B575530F53BCA21682A3E0ABF7F1970D022767D3C34D
310
86824FAB4FCB2E29EFA27131ABCE6BB38B3204132150F7BCF430A82F33CB42A6981DE1562C52DDE4640AF2DE329C92D5E075C4EAFC9FBD5AB3424128C6B43D0F889EAA01B1F3A541C350370893CB58B39A8DE381F17283058F767EDF57AB91D168282A4C28C20D22EC131F3ADA76ACFAC07547312F37FB1F282DFA9F50B22E
310
D26A8FFBC242CE9A833C1F042FB72EF2781695E7D69BF801504B0304140006080800D54CCE4255019EA25F0000007C00000007000000636E782E786D6C4DCB3B0E80201045D1AD90E915ED2CF8AC45050C11660C8261F98AB1B07AC9C97D42D718D865D3E909258CFD00CCE24AC6E326A164D74DC0B4128928FF326038472B
310
A13128B1252AC747C6BAB984FC68F0B87FE8960A5C09FE86CFB69FBA01504B0304140006080800D54CCE42C6504EB767010000020300000C0000006662782F636F72652E786D6C8D52ED8E8320107C15C2DF0B825F4DAF411AAFED1BDC0B50A59EA98241307DFC5B3F1AAF97A6694C90CCECECCE8EF2FDAD6DD0A06C5F1B9D
310
E1306018295D98B2D65586BDBB902D467BC1AD31EE4F19465AB62AC3238C05AFACF1DD0215463BA51DA0DA946A0165DF2B8751D1C025C37DF1A35A1948EFA0A2BF069D2CAEB2524118000D7582F7CE8201340F194F2C2EE71BA7332EB8F775B9B07509D3EA4BAD2C1661CC58BC3DE624FE8A72921C4F1B92E7E986B0F07448
310
9334391C3E134E47B1E0AE6EEFEE0AABA4532516110B63C236244CBED9E72EDEEE92E883A5BB98713A963F887C57BE29F2B57671B4D89D653D78052313F16F5B88C8A15E0EE0870A4EC710E13525FC18340402213B796EEE7B5C011A54E18C4D80298D5FA941365EC15486A687D39985CE5303D8EC699FE8459FD73DE0034A
310
5D8135E9E07AF66E9CCEE7A94B149DB2647037A48D6D65B39A9B2DAEE73AE8A9BC308DB1EFA8E9B22A5DC2A4E3DF2B7E01504B0304140006080800D54CCE4277BA684E7D0000009D0000000B0000006662782F636E782E786D6C4DCCD10AC2201886E15B91FFDC66E9D4813A0CF23E467343DA344CA3CB6F8B1D74F4C1C3C7
310
ABFACFBAA0B7CFAF90A286F38900F2F19EC610670DB54C5802EA8DCA2995BF1BA038AC5EC3CE60D49C537D1E34FA69A84BD97409F171A0609C734A096E0513985D3A87AF444A7C739DA58ECAD63A0B8D51CDAFB4ED1E365F504B0304140006080800D54CCE42FA2CCB132B01000014020000310000006662782F3734363636
310
3333302D353734372D343239462D423038382D4546394133463338354146412F636F72652E786D6C8D515B6EC32010BC8AC557AA0A1B8C4D9C0813A5527D825E8000495062B07854397E71ED48ED5F7E58343B333BDA6587C7782FBEB50FC6D91EE01281425BE994B1971EA478861D280E9C79E7E21F1A28AC18750F661870
310
76F12E4D2B249D8DDAC68C5AA7F40A8A10740485BCE74F0F82BCEA519422C5CC08B77212F2262EBAC4656E671E6721FA1CA05886CC2FE0DB86524A0882EDB6D9C2A6DE0DF003751DFC1C76473290AE3D0E47562D42CE52326A951B95E398B3D1FE559359CC5934E333BEF45A44AD00AF11261051889B2FB4DB936EDFD4EFA8
310
DD13C4AA99FE4F9426F5A228191B49BDC65D640170CCAAA5C19972E9747F86D18FC9F958CCF33641CB37C0518930EEEA1653562DD4BC80EC499BD53344E7F38237B7536693D598369C55F38D72F93D60AEF33DF90F504B0304140006080800D54CCE42AB1DD4DC5601000033030000300000006662782F3734363636333330
310
2D353734372D343239462D423038382D4546394133463338354146412F636E782E786D6CBD93CD6EC32010845F0571ADFC17BB561A6122F5D027E8A1570C9B86068305B86ADEBE4B42D25C72A854F582ACD96166F509B3EDD764C827F8A09D1D6853D69480954E69FB3ED025EE8A35255BCEBC73F1C6468915130C34C994B3
310
77EF96394B0A7662311155A3ED218B1E825BBC848072BA498C93C26000D8624111A611940245AE46FCDA81C755501C8F24EE81BC3CBF11377E808C81552985B32A757096CEDC7463A2441A11C24083DCC3244AB144A7201C4A25A2289BF2D27567A79F24922E5C2A17AF492A1F683A29CF1B95C8915538E42C448FF4B2291E
310
67A05CCCB3D15244845C9D8C670F678BB6B1EFB25723788FEE76D5AFD718769A7116F504D9213D88088AF255DDB445DD174DF75A3F6DDAF5A65B3DD48F9BB66655B273363A67F2258C01EF66229D8D6023E50DABD2F81EBEEC234A7B64EDFCF1172011406E3DD3B966FC259FA66FBBEE1FF954A7F78DB83CFE05FC1B504B03
310
04140006080800D54CCE42A205B947650700009A1B0000340000006662782F37343636363333302D353734372D343239462D423038382D4546394133463338354146412F6F626A656374732E786D6CED59DD73AB3616FF5718FAD23E18436CA7C90EA193D837773CDDB477EADECE3E78869141266A846024911BEF5FBF471F
310
602026C1DBF4AD0F3620A4A3737EE75387F0A7979C3ACF980B52B01B37F07CD7C12C2952C2B21BB792FBC995EBFC1485BC28646B9AEB3094E31B570DBB5198F1A22AED508AF7A8A2B2377A7FF71F47249861D7492812E2C615C923CE91872A59A4583C792992C8CBF62F5EE099895DB21947E5638F68893866123885710654
310
1CC354D07DF4DD69144ED5FB2854FF76D66CD4ACF9F0ACA996BACB2561422296BC62A94766368AA559305F7DBA585C4F16F3F96C32BFBC082677F777AB49F0E3CC5F5E2E97D7B79FAE81BD5D51502B538A4BCC52D0DFC18D8270AADE34A25B044E719D148CE14403095069B1FA040916B0550B3EBFFB1828895AAFB584ADE7
310
B97A6F59680DCFBA5486668D03A2431704B1DBD512D7D7B67CC5EE4F105C8C314A2EB0046E85E4A05D0B0F07AF70233F9C9AD128DC1D7541849323893941D4A164C71107A5C05435250ACD024B46390707528E92406BCEBCEEDA1678E6FBAE738ACB7D45A9F20C37D28E1583FB61293467E4BF981FB96F23033C81B41561F2
310
CA72290F2576A3EB70AA07A3505D6617F6A501D2D95394098D8879DB1374A95C7FBD72A39FEF772F1B150E4E6F5EF2A2C45C2AA3537AD47C8121DBAB42C96E1B8CD29C5A00C21850EDCA2328BF01F2BF40F438B2027AE3E465FE32B77325474CEC0B9E836E1CDF99F8F0E73B81FE57F7ADBB70DA2CEE6A6F084F705305D5D5
310
5FC7B32B83C6CAF2DF82330A9FC1E00B3EB3AF3609A260CF0F840140CA481C5AC01084F6FDEEC58DD6103821D0C32A44A3004406769FE1369C5A3247ADD4EE65BD8E01A2768FD91825016CDA22818D013D7D86ECC1497254535BC42178171F62AEB7ABCDCF9B8AEF51821FAC4FAFF09E3022216B9E66A8837947A2277CF856
310
F014047D8DF7A68D776EB71280B6C25C019FD520A887E3CE9D0D125897152ADC84EFEC0042A85CDDA2FF40448229450C1755BD6F13DD94A1361E6F6B0637BA3010CF2E7A26CCF13351550538CD71468751C8FB0927A502D18D3E1BC99AA0E90D48F775FD0B5864337F60D69A41E86588FEAE83D6091C3A965D236D816804DE
310
1DC37952D082C7BB436C229D0BB504B0D1F5963F3A4421D61B25292AE041DAEFEA90921969E394ECF79580B87A82C53FD6CBB639F8DE2C5838EDFF9E33CE21DA82EF226EFDAEB7474C7294E1788FD2A1EDDABB35B4852639409AE33D05B9C833918718C9D84F71760E346711BFFE50EA192D84200C0BC85727C16FA3E17B10
310
488C366B9695567B401311E758227A0E028ACC00B83AEDE81A3781D2E17D1E1BEB7D4B636DA27F93457004B564C16202A528E49077190FBC05C4902EBA06E51EBE606D356D2D06ADA084480EF1374CB247790EEA86FC00EE091C492A1917254AC0AC47907DE52B4AA93DDE77287952F9234E2AFA51062230DDC784D22A8FE1
310
47189C3CC6B8761398DE44A145DCC43E897328CA90ACF8984D2E17FEAB7D4CCDD00F81AD8DF68442D88E73540EA0DE0988BA1E711AF02DF501A5EEAABC8C515E546C94A178B3BE3759F27DB52AB223F955A522948D35614B300A09934D56AD633698BA0EACE0463A501D6281F2929A53D83B892768BC49531EDC805B3FFDD8
310
0D7228FC06B4D78EA8F31A06CB63A73010DF904C1EDD68A3AF933BA8BF539C1E537D5D6BB62B40404C45F28A13ABA2AF6B286F6C8DE6460F488AED679375EBEBD7B507DD8F700A6BA0766916AE15D0396612A9CAE441DDD0DF1084E00E0D33BE5639F51C2AB769AAAB4644EFC9903A3B654467D39C78E52366450E3FB6252C
310
A1558AB728154FF183A4F18628D6AD945E4E6A8CDF14F0D7CF9B1E3C303242A42FAAC0C3DF7A6BEDE852954B2789C8C72ADF314420087644CB8C6EBC92655623B5969BAB3A5340DD050666553CFFE764D16E47FC73B2C8AC61FCA593C5DDE1DFE8D0EE8BB4D279A2ECFAAC6340939F14958F3806E8B64343B5C92226995BF9
310
AD33C51014EB283FBA1AAB83862138C4F1FF9DB587B2A0D9AEC7FF79593B7855719C95553A935597EA44E5BA6EE7B0D57CB1B85D5C5D4E56F7FE7C32BF5B7C9A5C7FFAF16AE2CF820B7FE1CFE6F3E55583A676D4286C8299CE5DF06C825A3DAC9E2C06D095150525299CE65327C310F3259CE947B4CF798E0524CF76B33BB5
310
4DF911AB9F4D9F53A21DC535278F081AC454405A078CAA4476C79DEFA03529E1A07DE342D3C87B823F6B95AE0399E7C6855681240916DE0EDA4CAAA1A78943CAD5B9DF12037C10CB544A348B9AE76695C2A613FE9B2963D28095ABD3C380C2AD84EE57A743A179B33C2567095EB3E32009B7BB4A42B56664390E34C2E86D8E
310
EA37B251C29EECD62FE0BA6F8B15787A4E0791519F0CDE340243752211CF74BF5B316659BA5D7D99429FCD59FFEA94B4CA4097E3294D380663AE5441055604566169964882A92EFFB5FDC20BF8C4933BBA2A72BE7FB9BAFC61BB2CF2BC6066687B0BA7B2143E14399B47F8EC936EA178C0AAB92EB6177E70B1D54D6DDB678F
310
7748604F5545305017134A909EC9815DBE6A50D9F6E554A9A2377DBD726C10856680B1A3573D5EF391CB011F529F5394C7683FAFA57DB3AF3DD553C1263874A4A3FF01504B0304140006080000D54CCE42000000000000000000000000350000006662782F37343636363333302D353734372D343239462D423038382D4546
310
394133463338354146412F76657274696365732E62696E504B0304140006080800D54CCE42F270F1330600000004000000360000006662782F37343636363333302D353734372D343239462D423038382D4546394133463338354146412F747269616E676C65732E62696E636660600000504B0304140006080000D54CCE42
310
000000000000000000000000370000006662782F37343636363333302D353734372D343239462D423038382D4546394133463338354146412F617474726962757465732E62696E504B0304140006080800D54CCE42D5987DFC8F00000041010000360000006662782F37343636363333302D353734372D343239462D423038
310
382D4546394133463338354146412F6469726563746F72792E786D6C858F410EC2201045AF4266AF15DDB800BA74E7C21B903225242D6328188F2FA5C4183471359997F9FF81E89FF3C41E1816475E02DF1F80A11FC8386F25A438EECEC07A250251FC3803E6F58C12560C4AD840E95E91C151A72936F496F35732D860FE63
310
5F62C8F2DA16B505C545B74125BAA2FA9E05D7CC053D063734D5C7665FD55B6B8D15D5E9BFEAFD8490FFA45E504B0304140006080800D54CCE4285D3D1B6FD000000A00100003B0000006662782F37343636363333302D353734372D343239462D423038382D4546394133463338354146412F7265736F75726365732F636F
310
72652E786D6C8D504B6E833010BD0AF2B632180C8820E38892DCA017B0CC84580936F2A7EAF16B072AB5BB6E6646EFA3797AECFCB53EB34FB04E193DA0322728032DCDACF432A0E06FB843D999336B8CFF254399162B0C28C188B3C59AB01D9034DA83F611D566860314CE8147997CC663404EDE6115B9083E2ADC23DF847C
310
8805F2328F74D471E6BC8D01B2FD499A885B702658098E153BCB59086A3E346A8E3FD54D8145BCA484D0EE72C2F4BD1A717DB9B6781C9B1693F23A3575534FD3A966453273E6D5FA93515A101E66C42B52524C5A5CD61FE4D4D3AEAFAB37D2F494B022C9FF98C236FFD31494F6B43AE2EE3617B3C6202F82B322F515D7ABCC
310
B853B7FC1B504B010214000A0000080000D54CCE423DEE336E79000000790000001B00000000000000000000000000000000006175746F6465736B2D64657369676E2D7061636B6167652E786D6C504B01021400140006080800D54CCE42D486FD9CA0000000F40000001300000000000000000000000000B20000005B436F
310
6E74656E745F54797065735D2E786D6C504B01021400140006080800D54CCE42381AB277EA0000007C010000080000000000000000000000000083010000636F72652E786D6C504B01021400140006080800D54CCE4255019EA25F0000007C000000070000000000000000000000000093020000636E782E786D6C504B0102
310
1400140006080800D54CCE42C6504EB767010000020300000C00000000000000000000000000170300006662782F636F72652E786D6C504B01021400140006080800D54CCE4277BA684E7D0000009D0000000B00000000000000000000000000A80400006662782F636E782E786D6C504B01021400140006080800D54CCE42
310
FA2CCB132B0100001402000031000000000000000000000000004E0500006662782F37343636363333302D353734372D343239462D423038382D4546394133463338354146412F636F72652E786D6C504B01021400140006080800D54CCE42AB1DD4DC56010000330300003000000000000000000000000000C80600006662
310
782F37343636363333302D353734372D343239462D423038382D4546394133463338354146412F636E782E786D6C504B01021400140006080800D54CCE42A205B947650700009A1B000034000000000000000000000000006C0800006662782F37343636363333302D353734372D343239462D423038382D45463941334633
310
38354146412F6F626A656374732E786D6C504B01021400140006080000D54CCE420000000000000000000000003500000000000000000000000000231000006662782F37343636363333302D353734372D343239462D423038382D4546394133463338354146412F76657274696365732E62696E504B010214001400060808
310
00D54CCE42F270F13306000000040000003600000000000000000000000000761000006662782F37343636363333302D353734372D343239462D423038382D4546394133463338354146412F747269616E676C65732E62696E504B01021400140006080000D54CCE4200000000000000000000000037000000000000000000
310
00000000D01000006662782F37343636363333302D353734372D343239462D423038382D4546394133463338354146412F617474726962757465732E62696E504B01021400140006080800D54CCE42D5987DFC8F000000410100003600000000000000000000000000251100006662782F37343636363333302D353734372D
310
343239462D423038382D4546394133463338354146412F6469726563746F72792E786D6C504B01021400140006080800D54CCE4285D3D1B6FD000000A00100003B00000000000000000000000000081200006662782F37343636363333302D353734372D343239462D423038382D4546394133463338354146412F7265736F
310
75726365732F636F72652E786D6C504B0506000000000E000E00800400005E1300000000
  0
XRECORD
  5
17
102
{ACAD_REACTORS
330
12
102
}
330
12
100
AcDbXrecord
280
     1
270
     1
271
     1
  0
XRECORD
  5
16
102
{ACAD_REACTORS
330
12
102
}
330
12
100
AcDbXrecord
280
     1
270
     1
271
     1
  0
XRECORD
  5
18
102
{ACAD_REACTORS
330
12
102
}
330
12
100
AcDbXrecord
280
     1
270
     1
271
     1
  0
XRECORD
  5
15
102
{ACAD_REACTORS
330
12
102
}
330
12
100
AcDbXrecord
280
     1
270
     1
271
     1
  0
XRECORD
  5
24
102
{ACAD_REACTORS
330
22
102
}
330
22
100
AcDbXrecord
280
     1
270
     1
271
     1
  0
XRECORD
  5
23
102
{ACAD_REACTORS
330
22
102
}
330
22
100
AcDbXrecord
280
     1
270
     1
271
     1
  0
XRECORD
  5
BA
102
{ACAD_REACTORS
330
22
102
}
330
22
100
AcDbXrecord
280
     1
 70
     1
 90
1959938040
 71
     1
  1
710E7F7B-5CC5-4718-ABEF-83A3BE827063
311
504B03040A0000080000D24CCE423DEE336E79000000790000001B0000006175746F6465736B2D64657369676E2D7061636B6167652E786D6C3C3F786D6C2076657273696F6E3D22312E302220656E636F64696E673D227574662D3822203F3E3C666F726D6174733E3C666F726D61743E687474703A2F2F736368656D612E
311
6175746F6465736B2E636F6D2F64657369676E2D7061636B6167652F323030393C2F666F726D61743E3C2F666F726D6174733E504B0304140006080800D24CCE42D486FD9CA0000000F4000000130000005B436F6E74656E745F54797065735D2E786D6C7D8EC10E82300C865F65E91D8A1E8C310C0EEA1BF002731658846E
311
D98AC1B77784ABF1D8FE5FBFBF75BBCE937A534CCEB38643598122B6FEE978D0B0485F9C41B54DDD7D022595594E1A469170414C76A4D9A4D207E29CF43ECE46F218070CC6BECC4078ACAA135ACF422C856C0E68EA1BF5669944DDD7BCDE7B1F8E415D77AECB980613C2E4AC91FC167A2B244592486606FC29C8FD7F045B9A
311
EF7053A7E60B504B0304140006080800D24CCE4257EA2E8EEB0000007C01000008000000636F72652E786D6C8D90DD8E832010855FC5CCED0605B5FE0569D4A44FB02F40805AD20A4660B38FBFD8DA64F76EAF6672E67C339343CFDFCB23F9529BD3D6F440520C8932C24A6DE61E82BFA2069233A39BB5FE970D12C317D5C3
311
2E03A3F366C37A48C21AAF8C8FAAB1521D22774E7948C423363D3871530B4F79F0D1E1EEE9CAC59DCF2A25EF2EC2216899BC8E6819F7E9AB561BB0BAC104936144F974195139B5356A86B144438BCBA99AF25373A968B6C38C7ABDBCEF8B4D71AF24B01C9302E10A91F213B75DD17445FD814F5D8169B6DBFF406195FF8482
311
36BEC88F775F980346E223CF01A3D99E452CCFA062DD73633F504B0304140006080800D24CCE4255019EA25F0000007C00000007000000636E782E786D6C4DCB3B0E80201045D1AD90E915ED2CF8AC45050C11660C8261F98AB1B07AC9C97D42D718D865D3E909258CFD00CCE24AC6E326A164D74DC0B4128928FF32603847
311
2BA13128B1252AC747C6BAB984FC68F0B87FE8960A5C09FE86CFB69FBA01504B0304140006080800D24CCE42985074B068010000020300000C0000006662782F636F72652E786D6C8D52ED8E8230107C95A67F2FA5E54345536A94C427B817A8503922B4A4B4C4C7BFE5C3785E8C3124A599D9D99D1DE0FB5BDBA041D9BE36
311
3AC361C03052BA3065ADAB0C7B772129467BC1AD31EE4F19465AB62AC3238C05AFACF1DD0215463BA51DA0DA946A0165DF2B8751D1C025C37DF1A35A1948EFA0A2BF069D2CAEB2524118000D7582F7CE8201340F194F2C2EE71BA7332EB8F775B9B07509D3EA4BAD2C169B94852C3C1C49949F8E24C9B71B921E8E09396C59
311
92AFF368959ED69C8E62C15DDDDEDD155649A74A2C2216C684AD49987CB3ED2E4E77F1E68BAD7631E3742C7F12F9AEFC50E46BEDE268B13BCB7A2C42303211FFB685881CEAE5007EA8E0740C115E53C2CF41432010B293E7E6BEC715A04115CED80498D2F80735C8C62B98CAD0F4703AB3D0796A009BBDEC13BDE9F3BE077C
311
40A92BB0261D5CCFDE8DD3F93C7589A253960CEE86B4B1AD6C1EE6668B8FF331E8A5BC308DB19FA8E9B22A5DC2A4E3DF2B7E01504B0304140006080800D24CCE4297730B747E0000009D0000000B0000006662782F636E782E786D6C4DCCD10A83201886E15B91FFDCA5FD1B3A50A351DE472C0B99E9703676F9ABD1C18E3E
311
78F87855F3590279BBFCF2296AE02706C4C57B1A7D9C35AC65A2124863544EA9FCDD80C461711A7606A3E69CD6E741A39B8635944D838F8F03ADE8B09588B416D8D2B314577AB3D853CB3B79613D63C86BA88CAA7EA56DF7B0F902504B0304140006080800D24CCE42F702F8292B01000014020000310000006662782F4637
311
4433413833332D323733412D343837392D424633452D4631443835304530303331322F636F72652E786D6C8D515B6EC32010BC0AE22B55850DC6B19D0813A54A72825EC00192A2C460F1A872FC42ED48ED5F7E58343B333BDA65BBC77807DFCA796D4D0F498121504658A9CDB587315C5007C18E33676DF84383C00CA3EA61
311
8621675767E3B440C29AA04C48A8B1522DE0E0BD0A10887BFAF4D08B2F350EC5104362F85B310DE2365C55418AD44E3CCE7C7029009887E417F2537BA0FB8E5254B5748FEAAEDDA08F133DA21339746B7CC498928A95B390B318B55CE45AA638FAA2957BD5248B390B7A7CC6174E0D4149C82B4C28C20D22F527DE6C69B7A5
311
ED3B5E6F296665A6FF13C549BE288ADA045A2D716799879CB0726E70266D3CDF9F61D463B22E803C6FE59578831C1798900E3784B272A6A60524CFA65E3C7DB02E2D78753B273659CFC64DCD59996F94CAEF0153CDF7E43F504B0304140006080800D24CCE4241F4CE384F01000033030000300000006662782F4637443341
311
3833332D323733412D343837392D424633452D4631443835304530303331322F636E782E786D6CD593BD6E032110845F05D146F797731CC7E2B094224F90222D076B9B9883133F51FCF6596CECB87191320D3ACD0E33AB4F1CDB7C4F867C810FDAD98176754B0958E994B6BB81A6B8AD56946C38F3CEC51B1B25564C30D02C
311
53CE76DEA5B9480AB6229988AAD1F650440FC1252F21A09C6F12E3A4301800B64A28C2348252A0C8D5885F5BF0B80A8AE391C43D90B7D70FE2C64F9031B026A770D6E40ECEF2599A6E4C944823421868907B98442D52740AC2A156228ABAAB2F5D7776FA4D22F9C2A532794D72F940F34979D9A8468EACC12167217AA4574C
311
F13803E5629E8D962222E4E6643C7B384BDAC6E5A2783582F7E8EE96FD628161A71967514F501CD28388A0287F6CBBBE6A9755B7786F5FD6FD6ADD3F3FB44FEBBE654DB673363A67CA258C01EF66229D8D6023E51D6BF2F81EBEE2234A7B64EDFCF10F201140693DD3B966FC673ECDE97D232E8F7F01FF01504B0304140006
311
080800D24CCE42B5854BD2A505000080100000340000006662782F46374433413833332D323733412D343837392D424633452D4631443835304530303331322F6F626A656374732E786D6CAD57DB6EDB3810FD1541FBB2FB60CBB29DC459282A7C490AA3485BD468B10F060C4AA2146EA80B282A75F6EBF750A464C9B553EF
311
A22F96450D873367CE5CE8BDDBA7DC7AA1A264797667BBC3916DD12CCC239625777625E3C1CCB6DEF99EC873D911B3AD8CA4F4CE56CBB6EF2522AF0AB314D198545C1EAD3E2CFEB2CA9066D4B6424ECAF2CE2EC3279A9221A9641ED1F2791811498649BC1FBA432DD8579B08523C1D292D88A09984A558CFA0C5D246B9FDD7
311
91EDF89EA3BEFB9EFA355293F3524EED4FFF7C96959264E10F871DA999B8D3D5FDF8EA7670359D4E06D3EBB13B583C2C5603F766325A5E2F97B7F3FB5B1C5C4A014DC6124163DB7F0F6C040B3D477FF2BD8A657232362226408EA02F4C45CAF6C796EB395AA6F5CE3879CAFC30CF321AD658018DDA3FA33AA205CD22C49CD1
311
129675101AF55F5D8563E7F344BD9B23BBCB9721D0DDD151D4D8DE3CBB96E6C1DF70A1BC8441A2A48A811A4BE3A8E6EAE8807090E7DC7C63A59512490523DCE22C1044BCDA3E449588EFF5D428260B950DCA03DB4714F4E73E5D90463FE7F9292BE38A734563DBAFB360875CA1B2AC2D63FF5071B0BE8B0C6C42AC141B66C6
311
21F95A50DBBFD514991DB1490369C59C240839DC543B27E32347972A4FD72BDBFFF010EC372A774F1F5E88BCA0422AFA805A4DE09AA742C9D8E45E1439B5C13E32E500CA1720FF11A97E300571136C3FDD4FCD295290AC8C73912236D6C81A8CF033B2DCFA57FDEFFCF39C76733F7AE7F044B01554BF00CFBE0FDD5876E0F4
311
BD17103E1713E3DA26241C65E39165004891C4E239965087E3606FFB6B54395465EC22DC77E132CC7DC15FCF316A5028EA933ACF0C581E95C50B0A3460AB19093334F98D818738FD50CEEA838DD83978AF7E095DE7ABCD874D256212D24793D32B1AB38C49B4B8036FBA06F530EF79F44C5FBFE72282A33FE2BDE9E29D9AA3
311
4AA0AD3057C0274D4D572F87937B0784D897E4AADC783F39014EA8C6DAD1FFC8CA90724E329A57CDB96FF60FB40D0DB14A76C5E4B6C11C1A0B48A3BF1CE5209A742858A1406CBB555B348767BCFBBAFE0846429EE701E107A1E0507AC39CE76217BCEE74553A89F4B73EB50D048ED202B6D739D2A4BFC17C17B138AE4AD4C0
311
13B07E5B2FBBA153550115A2D1AA93650AF7915B4418CE367AD1AC054123CDB31D43DB44DA9D3CA0AB1F881A02D40ACF595C521EEF18E755BA8B194733DAA5A43803C7FFB73FA8D26247D2BCCAE419DD3DD3D11CFAB6F7C85B7E27327CB2FD4DFD1C2C507A231A1DC2DC1356ADE40456BDD0DEB8A3FB9B879BC5E06AB9BC1A
311
4C6FDCD960BEB87F18CC26F3C9E27E36BE195D4F9A3869E5BED7749A6E42234AE86C5E259809DFD735D2C7D400DB7F24B2DCBED7D9D93CBFAE8718853D077BD02EDB8DF3E805631F8D7EAEE0207952D13A2D384D6926894AA147F5877F2118337AC6E8F5754A127A81964FEF3747CE60E5827D9F55BAD3EF477BCDEA5225E4
311
4925F2A94A838C307EB431D1480E8B2C31F83531699FBACF34AFEACD04068369997316A10C465642F3944A14C30B7A90486909EA7547FAC85C3D2ED8FDA2074449024E1B4B9E0866645E222D40AD2A94FD75EB37CC746AACBAB3D16D87CFF83195C2B6C0993B1B33BA64212D8701FAB39A846AE5E0527790C7DC4FB28463D4
311
D69BDAF77697C2A6D7915B914BC627E397AEE0C6019491026303E62144A736C6F76ADBCCF7F03F39DE98631189BF41255B5F0E0BAD33F5314851ED94B92C6086793647EF91A86FBBE50E6B991E22175DB2DE2481D63A904424F54541D9674C9AAF3E3B1850ACF527ABE05582585EAE692028C85CA904078BC00AA3B3201254
311
5DFEB9FD2C725C6453EB818102D6EFFBD9F51FDB659EA679A697B673731DB6364FB8DC465B1407AA6E25E5763C72C7DBFA36602E28BB80947448A2F2190B88AC602DD0BDF08397FACA883EA43FB4728E0AC51143D72BCB34B629941ABA746BAB02077347462DE490BA51AA8CE90A146F5E089C5A1426088CF2FEBF504B0304
311
140006080000D24CCE42000000000000000000000000350000006662782F46374433413833332D323733412D343837392D424633452D4631443835304530303331322F76657274696365732E62696E504B0304140006080800D24CCE42F270F1330600000004000000360000006662782F46374433413833332D323733412D
311
343837392D424633452D4631443835304530303331322F747269616E676C65732E62696E636660600000504B0304140006080000D24CCE42000000000000000000000000370000006662782F46374433413833332D323733412D343837392D424633452D4631443835304530303331322F617474726962757465732E62696E
311
504B0304140006080800D24CCE42D5987DFC8F00000041010000360000006662782F46374433413833332D323733412D343837392D424633452D4631443835304530303331322F6469726563746F72792E786D6C858F410EC2201045AF4266AF15DDB800BA74E7C21B903225242D6328188F2FA5C4183471359997F9FF81E8
311
9FF3C41E1816475E02DF1F80A11FC8386F25A438EECEC07A250251FC3803E6F58C12560C4AD840E95E91C151A72936F496F35732D860FE635F62C8F2DA16B505C545B74125BAA2FA9E05D7CC053D063734D5C7665FD55B6B8D15D5E9BFEAFD8490FFA45E504B0304140006080800D24CCE423F0073BFFE000000A00100003B
311
0000006662782F46374433413833332D323733412D343837392D424633452D4631443835304530303331322F7265736F75726365732F636F72652E786D6C8D504B6AC33010BD8A996D912DD94E620759C131E404BD809027AE482C057D4A8F5F2971A1DD753333BC0FF378FCF4B5DE8B4F745E5B33002B291468949DB55906
311
88E14A3A284E823B6BC32F191446AE38408641F0C5D9F8D820654D4013126AEC8C1B28BDC70085BAA76300AF3E7095A58C2129FCAD7C4875930B96AC4C74D209EE834B018AD7933C4138F4363A859E572F56F018F5BC69F49C7EEAAB4607E2D05146D938927ABA9C493BF507D28DE7968C3D6DA7FD54EFBACB9E57D92C78D0
311
EB4F46E550069C41D4943584EE096BDF697F6CBA637378A3BB63437995E57F4CF131FFD314B5094DBDC57DD93C0896823C09C1ABDC575ACF32D3CEDD8A6F504B010214000A0000080000D24CCE423DEE336E79000000790000001B00000000000000000000000000000000006175746F6465736B2D64657369676E2D706163
311
6B6167652E786D6C504B01021400140006080800D24CCE42D486FD9CA0000000F40000001300000000000000000000000000B20000005B436F6E74656E745F54797065735D2E786D6C504B01021400140006080800D24CCE4257EA2E8EEB0000007C010000080000000000000000000000000083010000636F72652E786D6C
311
504B01021400140006080800D24CCE4255019EA25F0000007C000000070000000000000000000000000094020000636E782E786D6C504B01021400140006080800D24CCE42985074B068010000020300000C00000000000000000000000000180300006662782F636F72652E786D6C504B01021400140006080800D24CCE42
311
97730B747E0000009D0000000B00000000000000000000000000AA0400006662782F636E782E786D6C504B01021400140006080800D24CCE42F702F8292B010000140200003100000000000000000000000000510500006662782F46374433413833332D323733412D343837392D424633452D463144383530453030333132
311
2F636F72652E786D6C504B01021400140006080800D24CCE4241F4CE384F010000330300003000000000000000000000000000CB0600006662782F46374433413833332D323733412D343837392D424633452D4631443835304530303331322F636E782E786D6C504B01021400140006080800D24CCE42B5854BD2A5050000
311
801000003400000000000000000000000000680800006662782F46374433413833332D323733412D343837392D424633452D4631443835304530303331322F6F626A656374732E786D6C504B01021400140006080000D24CCE4200000000000000000000000035000000000000000000000000005F0E00006662782F463744
311
33413833332D323733412D343837392D424633452D4631443835304530303331322F76657274696365732E62696E504B01021400140006080800D24CCE42F270F13306000000040000003600000000000000000000000000B20E00006662782F46374433413833332D323733412D343837392D424633452D46314438353045
311
30303331322F747269616E676C65732E62696E504B01021400140006080000D24CCE4200000000000000000000000037000000000000000000000000000C0F00006662782F46374433413833332D323733412D343837392D424633452D4631443835304530303331322F617474726962757465732E62696E504B0102140014
311
0006080800D24CCE42D5987DFC8F000000410100003600000000000000000000000000610F00006662782F46374433413833332D323733412D343837392D424633452D4631443835304530303331322F6469726563746F72792E786D6C504B01021400140006080800D24CCE423F0073BFFE000000A00100003B0000000000
311
0000000000000000441000006662782F46374433413833332D323733412D343837392D424633452D4631443835304530303331322F7265736F75726365732F636F72652E786D6C504B0506000000000E000E00800400009B1100000000
310
504B03040A0000080000D24CCE423DEE336E79000000790000001B0000006175746F6465736B2D64657369676E2D7061636B6167652E786D6C3C3F786D6C2076657273696F6E3D22312E302220656E636F64696E673D227574662D3822203F3E3C666F726D6174733E3C666F726D61743E687474703A2F2F736368656D612E
310
6175746F6465736B2E636F6D2F64657369676E2D7061636B6167652F323030393C2F666F726D61743E3C2F666F726D6174733E504B0304140006080800D24CCE42D486FD9CA0000000F4000000130000005B436F6E74656E745F54797065735D2E786D6C7D8EC10E82300C865F65E91D8A1E8C310C0EEA1BF002731658846E
310
D98AC1B77784ABF1D8FE5FBFBF75BBCE937A534CCEB38643598122B6FEE978D0B0485F9C41B54DDD7D022595594E1A469170414C76A4D9A4D207E29CF43ECE46F218070CC6BECC4078ACAA135ACF422C856C0E68EA1BF5669944DDD7BCDE7B1F8E415D77AECB980613C2E4AC91FC167A2B244592486606FC29C8FD7F045B9A
310
EF7053A7E60B504B0304140006080800D24CCE420A920955ED0000007C01000008000000636F72652E786D6C8D90416E83301045AF62CDB632B131B4808CA384C2097A01CB38D44AB011B6AB1EBF262152BBEB6A467FFE9B197D7EFC9E6FE84BAFDE38DB02CD08206D951B8D9D5A88E1822B4047C157E7C22F1B202B67DDC2
310
2683E0D3EAE2B24BCAD9A06D48AA75A3DE45E9BD0E80D42D352D78F5A96799C91892C35FB345AAAB9C74469F5D826334237A1C3163DA672E46AF208AEA9D75A4ECF0B93FD7B8A83B8A4F557FC2435FB3B21C86BC28737ED860C183999FF7D5AA65D023889C5086C92BA6C507A91B5635ECED85940D23FCB0D9FF407119FF09
310
456303CBF7771F980741D323F781E0872D8B54EE41A5BAE5267E00504B0304140006080800D24CCE4255019EA25F0000007C00000007000000636E782E786D6C4DCB3B0E80201045D1AD90E915ED2CF8AC45050C11660C8261F98AB1B07AC9C97D42D718D865D3E909258CFD00CCE24AC6E326A164D74DC0B4128928FF3260
310
38472BA13128B1252AC747C6BAB984FC68F0B87FE8960A5C09FE86CFB69FBA01504B0304140006080800D24CCE4230056DCE68010000020300000C0000006662782F636F72652E786D6C8D525B6E833010BC8AE5DF0ACCB385C8384AD2E404BD80030EB502363236CAF1BB3C229A2A8A2A2463CDECECCE0ED0EDAD6DD0204C
310
2FB52A70E807180955EA4AAABAC0CE5EBC0CA32DA3466BFBAB0C23C55B51E011C68CD646BB6E814AADAC501650A52BB180BCEF85C5A86CE052E0BEFC162DF7B9B350D15FFD8E97575E0B3FF481863A467B6BC0009A878C276697F38D921967D439592DACAC609ABC4861304BB2CFF810A4076F7FDCE75E921F426F971D77DE
310
E998C7697A3A45491A51328A19B5B2BDBB2B8DE05654984541187BC1BB17265F41BE89B34DFCF116A49B38A0642C7F10B9AEFAA7C84965E368B13BCB7ACC423032117FB685882CEAF9007E08A3640C115E53C28F41432010B2E5E7E6BEC715A04194569B04984ABB951A78E3044C0DD0F45032B3D0796A009B3DED13BDE8F3
310
BA077C40AE6AB0C62D5CCFCE8ED3E93C7589A213C61BEC0D296D5ADEACE6668BEBB90E7A2A2F75A3CD7FD46459952C6192F1EF653F504B0304140006080800D24CCE42C3C19F247E0000009D0000000B0000006662782F636E782E786D6C4DCCDF0A83201C86E15B91DFB9A5CBA5811AEDDF7DC4B2904C87E9D8E5AF46073B
310
FAE0E1E395ED6771E86DE26A8357400B02C8F86718AC9F14E4346201A8D5328690FE6E807CBF18053B8396530CF975D060C63EBBB4A9B37E3EF02ACE0F4698C0175E13CC3A46B0A035C355474FB786F2E65E7128B52C7FA56DF7B0FE02504B0304140006080800D24CCE42A45F5E522901000013020000310000006662782F
310
43383546343034382D423736302D344134302D383136342D3341313244393137394533372F636F72652E786D6C8D515B6EC32010BC0AE22B55850D81D84E8489D2D7097A0107488A1283C5A3CAF10BB523B57FF961D1ECCCECC0F2FD6DBC826FED8371B687A4C210682B9D32F6DCC3144FA883602FB8772EFEA141608751F7
310
B0C050F0B377695A20E96CD43666D43AA5177008414708E4355F7A18E4971E876A483133C2A59A067919CEBA22556E679EE021FA1C00CC43CA09C56BB7F9609875E8A56D3062078651471A86E881ACDFB6A4DDBED396D7B350F0948C5AE446E538E664B47FD4A488058F66BCC7975E0F512B28D69850841B44D827DEEE68B7
310
A3ED33DEEC28E675A1FF13A5493D284AC646BA5EE2CEB20005E1F5DC105CB974BCDEC3E8DBE47C0465DE2A68F90405AE08A674C31A5ECFCCFCFE6CD9B0C53244E7F3FFAE2EC74CA68B6FC304AFCB8A72F9DD5FAE659DE207504B0304140006080800D24CCE422753012F5701000033030000300000006662782F4338354634
310
3034382D423736302D344134302D383136342D3341313244393137394533372F636E782E786D6CBD93CD6EC32010845F0571ADFC17BBAE1B6122F5D027E8A1570C9B84C6060B70D5BC7D9784A4B9E450A9EA0559B3C3CCEA13669BAF69249FE0BCB6A6A7555E5202465AA5CDAEA74BD8661D251BCE9CB5E1C646891113F434
310
CA94B39DB3CB9C24055BB18C01D5519B43121D78BB38091EE578938C568A1103C0640B8A300DA014287235E2D7161CAE82E27024610FE4F5E59DD8E10364F0AC88299C15B183B378A6A61B13257214DEF7D4CB3D4C22174BB00AFC21572288BCCA2F5D7776FA4922F1C2A572719AC4F29EC693F2B4518E1C598143CE7C7048
310
2F99C27106CAC53C8F5A8A80908B93F1ECE16CD126B44DF26A04EFD05DAFDAAEC3B0D38CB3A027480EE940045094AFCAAACECA36AB9AB7F2795D77EBFAE9A17C5CD7252BA29DB3C1DA315DC218707626D29A0026505EB1228EEFE14B3EA2B443D6D61D7F011201A4D6339D6BC65FF2A9DABA69FE914F717ADF88CBE15FC0BF
310
01504B0304140006080800D24CCE42E444B27762070000991B0000340000006662782F43383546343034382D423736302D344134302D383136342D3341313244393137394533372F6F626A656374732E786D6CED595B73A33614FE2B0C7D691F8C4DECDC3A844EE2243B9E9DECEEACBB3B7DF00C23834CD408C1482271FAEB
310
7B7401033109EEA66FFB6003423A3AE73B571D823FB619751E3117246717AEEF4D5C07B3384F084B2FDC526E4667AEF34718F03C978D69AEC350862F5C35EC8641CAF3B2B04309DEA092CACEE8EDD55F8E8831C3AE135324C4852BE27B9C210F95324FB078F0122491976EB69EEF99896DB22947C57D876881386612388571
310
06541CC394DF7E9CB8E33018ABF761A0FEEDACE9A059B3FE59632D759B4BC284442C7EC15287CC74104B537F767D73747C3E3A9ECDA6A3D9C9913FBABABDBA1EF9A7D3C9FC643E3FBFBC3907F6D6794EAD4C092E304B407FCF6EE80763F5A616DD22B08FEB38670CC71A48804A8BD52548B080AD1AF04DDA8FBE92A8F15A4B
310
D8789EA9F79685C6F0B44DA56FD630205A744110BB5D2571756DCA97AFFF06C1C510A3E4024BE056480EDAB5F070F00A379C0463331A06EB9D2E887032243127883A94AC39E2A01498AAA684815960C928E7E040CA511268CD99D76DDB02CF7CDB75F671B92929559EE186DAB122703F2C85E68CFC83F98EFB2632C013485B
310
1226CF2C97F2B9C06E781E8CF56018A8CBF4C8BE34403A1B8A52A111316F3B82CE95EB2FAEDDF0E3ED7ABB54E160FFE605CF0BCCA5323AA547CD1718B2BD2A94ECB6FE20CDA905208C01D5AEDC81F21590FF04D163C70AE88D93ED6C3BB37325474C6C729E816E9C89339AC0DFC4F1F5BFBA6FDC05E37A715B7B7D78829B2A
310
A8CE7E1CCFB60C1A2BCB7F03CE30780483CFF9D4BE5AC688823DDF110600292371680E4310DA37EBAD1B2E207042A0875588863E880CEC3EC26D30B664765AA9DCCB7A1D0344ED1ED3214A02D8B445021B3D7AFA00D9839378A7A6A6887DF01EBF8BB95E5E2F3F2E4BBE4131BEB33E7D8D3784110959733F432DCC5B123DE0
310
E7A79C2720E84BBC974DBC33BB9500B415E60AF8B402413DEC766E6D10C3BA3457E1267863071042E5EA06FD3B22624C2962382FAB7DEBE8A60CB5F6785B33B8E19181787AD431618E1F89AA2AC06976335A8C42DE8F392914886EF8C14856074DAF47BA6F8B4F6091F5FC9E590B06A19721FAA70E5A7B7068597685B405A2
310
1678BD0BE7714E731EAD9F2313E95CA825808DB6B77C6F1185586F94A4A8800769BFAB424A6AA48D12B2D99402E2EA1E16BF2FE64D73987853FFD869FE779C7106D1167C1771EB779D3D2292A114471B94F46DD7DCADA62D34C91ED21C6F28C8451E897C8E908C26094E0F81E620E2E7EF4A3DA5B910846101F96A2FF84D34
310
261E0412A3CD8A65A5D50ED044441996881E828022D303AE4E3BBAC68DA174789BC7DA7A5FD35893E8FF64111C412D99B38840290A39E44DC67DEF1862481B5D8372075FB0B68AB61683965042C4CFD11326E9BD3C047543BE07F7188E24A58CF202C560D603C8BEF015A5D40EEF6B143FA8FC11C5257D2F0311986E224269
310
9945F0230C4E1E435CBB0E4CAFA2D0206E629FC419146548967CC82627C79317FB989AA11B021B1B6D0885B01D65A8E841BD1510753DE2D4E05BEA3D4A5D975911A12C2FD92043F1A65D6FB2E4BB6A556407F2AB4A45281B2BC29660181026EBAC5AC56C30751D58C18D74A07A8E04CA0A6A4E616F241EBFF6264DB977036E
310
FDF47D37C8A0F0EBD15E33A2CE2A182C8FADC2403C2119DFBBE1525F4757507F2738D9A5FAAAD66C568080988AE425275645DF1650DED81ACD0DEF9014AB0F26EB56D76F0B0FBA1FC118D640ED522F5C28A033CC245295C99DBAA15F1184E0160D33BE5039F5102A9749A2AB46446F499F3A5B65446BD38C78C53D6679063F
310
B6222CA665825728110FD19DA4D19228D6AD945E462A8C5F15F0F38765071E181920D21755E0E1A7CE5A3B3A57E5D25E22F2BECCD60C1108822DD152A31BAF60A9D548A5E5FAAACE14507781815915CF7E9E2C9AED889F278BD41AC68F9D2C68BE4674176D1AD93C56667DD029A04E4F8ACA7B9C0274D7A1A65A271193CBAD
310
F8D69722888955901F5C8C5531C310ECE3F83F27EDBE2468B6EBF07F58D2F65F141C072595D664D5A4DA53B82E9A29ECD49FDC9CDE9E5E8D8EE7F3E3D1ECD43F1B5D5EDDDC8ECEA697D3AB9BB3A3D3C9C9AE8AD07E1A06752CD3A90B9E4D4CAB86D593C5009AB222A72481C37CE2A41842BE8423FD80EE39CFB080DCD9EC75
310
27B6273F60F5A369734AB4A6B8E2E41E417F980AC8EA805119CBF6B8F30B7426259CB32F5CE819790FF067ADD27520F15CB8D0299024C6C25B439749F5F33471C8B83AF55B62800F62A9CA886651FD5CAF52D8B4A27F3D654816B072B55A1850B715D0FC6A3528346F96A7F820C12B761C24E1765D4A28D68C2CBB815A18BD
310
CD4EFD46364AD883DD7A0BAEFBBA58BEA7E7B41019F4C5E0552330544712F154B7BB156396A5CBEB2F6368B3398BCF4E41CB1474399CD2886330E652D553604560159666812498EAFCF7D5179EC3179ECCD14591F3EBF6ECE4B7D53CCFB29C99A1D5251CCA12F84EE42CEFE1AB4FB282DA01ABDEBA581D4DFCA395EE69DB36
310
7BB446027BAA288281AA965082744C0EECF2457FCA762FC74A159DE98B6BC70651E805183B7AD1E235DFB81CF021F53545798CF6F34ADA57DBDA633D156C8243433AFC17504B0304140006080000D24CCE42000000000000000000000000350000006662782F43383546343034382D423736302D344134302D383136342D33
310
41313244393137394533372F76657274696365732E62696E504B0304140006080800D24CCE42F270F1330600000004000000360000006662782F43383546343034382D423736302D344134302D383136342D3341313244393137394533372F747269616E676C65732E62696E636660600000504B0304140006080000D24CCE
310
42000000000000000000000000370000006662782F43383546343034382D423736302D344134302D383136342D3341313244393137394533372F617474726962757465732E62696E504B0304140006080800D24CCE42D5987DFC8F00000041010000360000006662782F43383546343034382D423736302D344134302D3831
310
36342D3341313244393137394533372F6469726563746F72792E786D6C858F410EC2201045AF4266AF15DDB800BA74E7C21B903225242D6328188F2FA5C4183471359997F9FF81E89FF3C41E1816475E02DF1F80A11FC8386F25A438EECEC07A250251FC3803E6F58C12560C4AD840E95E91C151A72936F496F35732D860FE
310
635F62C8F2DA16B505C545B74125BAA2FA9E05D7CC053D063734D5C7665FD55B6B8D15D5E9BFEAFD8490FFA45E504B0304140006080800D24CCE42193927CDFF000000A00100003B0000006662782F43383546343034382D423736302D344134302D383136342D3341313244393137394533372F7265736F75726365732F63
310
6F72652E786D6C8D504B6E833010BD0A9A6D6530185A888CA3909213F4029699102BC18EFCA97AFC9A844AEDAE9B99D1FB689E1EDF7F2DB7EC139DD7D6F450E6143234CA4EDACC3DC470262D647BC19DB5E1970C322317EC618541F0D9D978DF20654D4013126AEC841B28BDC70099BAA5A307AF2EB8C85CC69014FE9ADFA5
310
BACA19F3324F74D209EE834B01B2E793758270E86D740A3D2F9EACE031EA69D3E829FDD4678D0E44DDBEB3236D06328C4347EAEE5892433B1EC869EC58D39C4E55DD54BC58CD8207BDFC64540E65C00944454B46E82B29EB0FDAED58BB636F2FB4D931CA8B55FEC714EFD33F4D519BC0AA2DEED3E6419429C88310BC58FB4A
310
EB5166DA6BB7E21B504B010214000A0000080000D24CCE423DEE336E79000000790000001B00000000000000000000000000000000006175746F6465736B2D64657369676E2D7061636B6167652E786D6C504B01021400140006080800D24CCE42D486FD9CA0000000F40000001300000000000000000000000000B2000000
310
5B436F6E74656E745F54797065735D2E786D6C504B01021400140006080800D24CCE420A920955ED0000007C010000080000000000000000000000000083010000636F72652E786D6C504B01021400140006080800D24CCE4255019EA25F0000007C000000070000000000000000000000000096020000636E782E786D6C50
310
4B01021400140006080800D24CCE4230056DCE68010000020300000C000000000000000000000000001A0300006662782F636F72652E786D6C504B01021400140006080800D24CCE42C3C19F247E0000009D0000000B00000000000000000000000000AC0400006662782F636E782E786D6C504B01021400140006080800D2
310
4CCE42A45F5E5229010000130200003100000000000000000000000000530500006662782F43383546343034382D423736302D344134302D383136342D3341313244393137394533372F636F72652E786D6C504B01021400140006080800D24CCE422753012F57010000330300003000000000000000000000000000CB0600
310
006662782F43383546343034382D423736302D344134302D383136342D3341313244393137394533372F636E782E786D6C504B01021400140006080800D24CCE42E444B27762070000991B00003400000000000000000000000000700800006662782F43383546343034382D423736302D344134302D383136342D33413132
310
44393137394533372F6F626A656374732E786D6C504B01021400140006080000D24CCE420000000000000000000000003500000000000000000000000000241000006662782F43383546343034382D423736302D344134302D383136342D3341313244393137394533372F76657274696365732E62696E504B010214001400
310
06080800D24CCE42F270F13306000000040000003600000000000000000000000000771000006662782F43383546343034382D423736302D344134302D383136342D3341313244393137394533372F747269616E676C65732E62696E504B01021400140006080000D24CCE4200000000000000000000000037000000000000
310
00000000000000D11000006662782F43383546343034382D423736302D344134302D383136342D3341313244393137394533372F617474726962757465732E62696E504B01021400140006080800D24CCE42D5987DFC8F000000410100003600000000000000000000000000261100006662782F43383546343034382D4237
310
36302D344134302D383136342D3341313244393137394533372F6469726563746F72792E786D6C504B01021400140006080800D24CCE42193927CDFF000000A00100003B00000000000000000000000000091200006662782F43383546343034382D423736302D344134302D383136342D3341313244393137394533372F72
310
65736F75726365732F636F72652E786D6C504B0506000000000E000E0080040000611300000000
  0
XRECORD
  5
27
102
{ACAD_REACTORS
330
22
102
}
330
22
100
AcDbXrecord
280
     1
270
     1
271
     1
  0
XRECORD
  5
26
102
{ACAD_REACTORS
330
22
102
}
330
22
100
AcDbXrecord
280
     1
270
     1
271
     1
  0
XRECORD
  5
28
102
{ACAD_REACTORS
330
22
102
}
330
22
100
AcDbXrecord
280
     1
270
     1
271
     1
  0
XRECORD
  5
25
102
{ACAD_REACTORS
330
22
102
}
330
22
100
AcDbXrecord
280
     1
270
     1
271
     1
  0
XRECORD
  5
F70
102
{ACAD_REACTORS
330
F6F
102
}
330
F6F
100
AcDbXrecord
280
     1
102
ACAD_ROUNDTRIP_2012_MLEADER_STYLE
298
     1
  0
CELLSTYLEMAP
  5
F6E
102
{ACAD_REACTORS
330
F6D
102
}
330
F6D
100
AcDbCellStyleMap
 90
        3
300
CELLSTYLE
  1
TABLEFORMAT_BEGIN
 90
        5
170
     1
 91
        0
 92
    32768
 62
   257
 93
        1
300
CONTENTFORMAT
  1
CONTENTFORMAT_BEGIN
 90
        0
 91
        0
 92
      512
 93
        0
300

 40
0.0
140
1.0
 94
        5
 62
     0
340
55
144
0.25
309
CONTENTFORMAT_END
171
     0
 94
        0
309
TABLEFORMAT_END
  1
CELLSTYLE_BEGIN
 90
        1
 91
        1
300
_TITLE
309
CELLSTYLE_END
300
CELLSTYLE
  1
TABLEFORMAT_BEGIN
 90
        5
170
     1
 91
        0
 92
        0
 62
   257
 93
        1
300
CONTENTFORMAT
  1
CONTENTFORMAT_BEGIN
 90
        0
 91
        0
 92
      512
 93
        0
300

 40
0.0
140
1.0
 94
        5
 62
     0
340
55
144
0.18
309
CONTENTFORMAT_END
171
     0
 94
        0
309
TABLEFORMAT_END
  1
CELLSTYLE_BEGIN
 90
        2
 91
        1
300
_HEADER
309
CELLSTYLE_END
300
CELLSTYLE
  1
TABLEFORMAT_BEGIN
 90
        5
170
     1
 91
        0
 92
        0
 62
   257
 93
        1
300
CONTENTFORMAT
  1
CONTENTFORMAT_BEGIN
 90
        0
 91
        0
 92
      512
 93
        0
300

 40
0.0
140
1.0
 94
        2
 62
     0
340
55
144
0.18
309
CONTENTFORMAT_END
171
     0
 94
        0
309
TABLEFORMAT_END
  1
CELLSTYLE_BEGIN
 90
        3
 91
        2
300
_DATA
309
CELLSTYLE_END
  0
ENDSEC
  0
EOF
