  0
SECTION
  2
HEADER
  9
$ACADVER
  1
AC1024
  9
$ACADMAINTVER
 70
    63
  9
$DWGCODEPAGE
  3
ANSI_1252
  9
$AUTHOR
  1
PR
  9
$REVISIONNUMBER
  1
-
  9
$CUSTOMPROPERTYTAG
  1
Manager
  9
$CUSTOMPROPERTY
  1

  9
$CUSTOMPROPERTYTAG
  1
Company
  9
$CUSTOMPROPERTY
  1

  9
$CUSTOMPROPERTYTAG
  1
Category
  9
$CUSTOMPROPERTY
  1

  9
$CUSTOMPROPERTYTAG
  1
Part Number
  9
$CUSTOMPROPERTY
  1
HWDWA60P48F2
  9
$CUSTOMPROPERTYTAG
  1
Description
  9
$CUSTOMPROPERTY
  1
N1P PANEL MASTER VIEW
  9
$CUSTOMPROPERTYTAG
  1
Project
  9
$CUSTOMPROPERTY
  1

  9
$CUSTOMPROPERTYTAG
  1
Designer
  9
$CUSTOMPROPERTY
  1
PR
  9
$CUSTOMPROPERTYTAG
  1
Engineer
  9
$CUSTOMPROPERTY
  1

  9
$CUSTOMPROPERTYTAG
  1
Authority
  9
$CUSTOMPROPERTY
  1

  9
$CUSTOMPROPERTYTAG
  1
Cost Center
  9
$CUSTOMPROPERTY
  1

  9
$CUSTOMPROPERTYTAG
  1
Vendor
  9
$CUSTOMPROPERTY
  1

  9
$CUSTOMPROPERTYTAG
  1
User Status
  9
$CUSTOMPROPERTY
  1

  9
$CUSTOMPROPERTYTAG
  1
Design Status
  9
$CUSTOMPROPERTY
  1
WorkInProgress
  9
$CUSTOMPROPERTYTAG
  1
Checked by
  9
$CUSTOMPROPERTY
  1
NJ
  9
$CUSTOMPROPERTYTAG
  1
Engr Approved by
  9
$CUSTOMPROPERTY
  1

  9
$CUSTOMPROPERTYTAG
  1
Date Eng Approved
  9
$CUSTOMPROPERTY
  1
06/19/2013
  9
$CUSTOMPROPERTYTAG
  1
Mfg Approved by
  9
$CUSTOMPROPERTY
  1

  9
$CUSTOMPROPERTYTAG
  1
DWG. NO
  9
$CUSTOMPROPERTY
  1

  9
$CUSTOMPROPERTYTAG
  1
NUMBER OF SHEETS
  9
$CUSTOMPROPERTY
  1
1
  9
$CUSTOMPROPERTYTAG
  1
DRAWING #
  9
$CUSTOMPROPERTY
  1
1
  9
$INSBASE
 10
0.0
 20
0.0
 30
0.0
  9
$EXTMIN
 10
0.0
 20
0.0
 30
0.0
  9
$EXTMAX
 10
170.0
 20
110.0
 30
0.0
  9
$LIMMIN
 10
0.0
 20
0.0
  9
$LIMMAX
 10
170.0
 20
110.0
  9
$ORTHOMODE
 70
     0
  9
$REGENMODE
 70
     1
  9
$FILLMODE
 70
     1
  9
$QTEXTMODE
 70
     0
  9
$MIRRTEXT
 70
     0
  9
$LTSCALE
 40
10.0
  9
$ATTMODE
 70
     1
  9
$TEXTSIZE
 40
0.2
  9
$TRACEWID
 40
0.05
  9
$TEXTSTYLE
  7
Standard
  9
$CLAYER
  8
0
  9
$CELTYPE
  6
ByLayer
  9
$CECOLOR
 62
   256
  9
$CELTSCALE
 40
1.0
  9
$DISPSILH
 70
     0
  9
$DIMSCALE
 40
1.0
  9
$DIMASZ
 40
0.0708661417322835
  9
$DIMEXO
 40
0.0625
  9
$DIMDLI
 40
0.38
  9
$DIMRND
 40
0.0
  9
$DIMDLE
 40
0.0
  9
$DIMEXE
 40
0.18
  9
$DIMTP
 40
0.0
  9
$DIMTM
 40
0.0
  9
$DIMTXT
 40
0.0708661417322835
  9
$DIMCEN
 40
0.09
  9
$DIMTSZ
 40
0.0
  9
$DIMTOL
 70
     0
  9
$DIMLIM
 70
     0
  9
$DIMTIH
 70
     1
  9
$DIMTOH
 70
     1
  9
$DIMSE1
 70
     0
  9
$DIMSE2
 70
     0
  9
$DIMTAD
 70
     0
  9
$DIMZIN
 70
     0
  9
$DIMBLK
  1

  9
$DIMASO
 70
     1
  9
$DIMSHO
 70
     1
  9
$DIMPOST
  1

  9
$DIMAPOST
  1

  9
$DIMALT
 70
     0
  9
$DIMALTD
 70
     2
  9
$DIMALTF
 40
25.4
  9
$DIMLFAC
 40
1.0
  9
$DIMTOFL
 70
     0
  9
$DIMTVP
 40
0.0
  9
$DIMTIX
 70
     0
  9
$DIMSOXD
 70
     0
  9
$DIMSAH
 70
     0
  9
$DIMBLK1
  1

  9
$DIMBLK2
  1

  9
$DIMSTYLE
  2
STANDARD
  9
$DIMCLRD
 70
     0
  9
$DIMCLRE
 70
     0
  9
$DIMCLRT
 70
     0
  9
$DIMTFAC
 40
1.0
  9
$DIMGAP
 40
0.09
  9
$DIMJUST
 70
     0
  9
$DIMSD1
 70
     0
  9
$DIMSD2
 70
     0
  9
$DIMTOLJ
 70
     1
  9
$DIMTZIN
 70
     0
  9
$DIMALTZ
 70
     0
  9
$DIMALTTZ
 70
     0
  9
$DIMUPT
 70
     0
  9
$DIMDEC
 70
     4
  9
$DIMTDEC
 70
     4
  9
$DIMALTU
 70
     2
  9
$DIMALTTD
 70
     2
  9
$DIMTXSTY
  7
Standard
  9
$DIMAUNIT
 70
     0
  9
$DIMADEC
 70
     0
  9
$DIMALTRND
 40
0.0
  9
$DIMAZIN
 70
     0
  9
$DIMDSEP
 70
    46
  9
$DIMATFIT
 70
     3
  9
$DIMFRAC
 70
     0
  9
$DIMLDRBLK
  1

  9
$DIMLUNIT
 70
     2
  9
$DIMLWD
 70
    -2
  9
$DIMLWE
 70
    -2
  9
$DIMTMOVE
 70
     0
  9
$DIMFXL
 40
1.0
  9
$DIMFXLON
 70
     0
  9
$DIMJOGANG
 40
0.7853981633974483
  9
$DIMTFILL
 70
     0
  9
$DIMTFILLCLR
 70
     0
  9
$DIMARCSYM
 70
     0
  9
$DIMLTYPE
  6

  9
$DIMLTEX1
  6

  9
$DIMLTEX2
  6

  9
$DIMTXTDIRECTION
 70
     0
  9
$LUNITS
 70
     2
  9
$LUPREC
 70
     4
  9
$SKETCHINC
 40
0.1
  9
$FILLETRAD
 40
0.0
  9
$AUNITS
 70
     0
  9
$AUPREC
 70
     0
  9
$MENU
  1
.
  9
$ELEVATION
 40
0.0
  9
$PELEVATION
 40
0.0
  9
$THICKNESS
 40
0.0
  9
$LIMCHECK
 70
     0
  9
$CHAMFERA
 40
0.0
  9
$CHAMFERB
 40
0.0
  9
$CHAMFERC
 40
0.0
  9
$CHAMFERD
 40
0.0
  9
$SKPOLY
 70
     0
  9
$TDCREATE
 40
2456465.793826632
  9
$TDUCREATE
 40
2456465.564659965
  9
$TDUPDATE
 40
2456465.793826644
  9
$TDUUPDATE
 40
2456465.564659977
  9
$TDINDWG
 40
0.0000459144
  9
$TDUSRTIMER
 40
0.0000459144
  9
$USRTIMER
 70
     1
  9
$ANGBASE
 50
0.0
  9
$ANGDIR
 70
     0
  9
$PDMODE
 70
     0
  9
$PDSIZE
 40
0.0
  9
$PLINEWID
 40
0.0
  9
$SPLFRAME
 70
     0
  9
$SPLINETYPE
 70
     6
  9
$SPLINESEGS
 70
     8
  9
$HANDSEED
  5
E89
  9
$SURFTAB1
 70
     6
  9
$SURFTAB2
 70
     6
  9
$SURFTYPE
 70
     6
  9
$SURFU
 70
     6
  9
$SURFV
 70
     6
  9
$UCSBASE
  2

  9
$UCSNAME
  2

  9
$UCSORG
 10
0.0
 20
0.0
 30
0.0
  9
$UCSXDIR
 10
1.0
 20
0.0
 30
0.0
  9
$UCSYDIR
 10
0.0
 20
1.0
 30
0.0
  9
$UCSORTHOREF
  2

  9
$UCSORTHOVIEW
 70
     0
  9
$UCSORGTOP
 10
0.0
 20
0.0
 30
0.0
  9
$UCSORGBOTTOM
 10
0.0
 20
0.0
 30
0.0
  9
$UCSORGLEFT
 10
0.0
 20
0.0
 30
0.0
  9
$UCSORGRIGHT
 10
0.0
 20
0.0
 30
0.0
  9
$UCSORGFRONT
 10
0.0
 20
0.0
 30
0.0
  9
$UCSORGBACK
 10
0.0
 20
0.0
 30
0.0
  9
$PUCSBASE
  2

  9
$PUCSNAME
  2

  9
$PUCSORG
 10
0.0
 20
0.0
 30
0.0
  9
$PUCSXDIR
 10
1.0
 20
0.0
 30
0.0
  9
$PUCSYDIR
 10
0.0
 20
1.0
 30
0.0
  9
$PUCSORTHOREF
  2

  9
$PUCSORTHOVIEW
 70
     0
  9
$PUCSORGTOP
 10
0.0
 20
0.0
 30
0.0
  9
$PUCSORGBOTTOM
 10
0.0
 20
0.0
 30
0.0
  9
$PUCSORGLEFT
 10
0.0
 20
0.0
 30
0.0
  9
$PUCSORGRIGHT
 10
0.0
 20
0.0
 30
0.0
  9
$PUCSORGFRONT
 10
0.0
 20
0.0
 30
0.0
  9
$PUCSORGBACK
 10
0.0
 20
0.0
 30
0.0
  9
$USERI1
 70
     0
  9
$USERI2
 70
     0
  9
$USERI3
 70
     0
  9
$USERI4
 70
     0
  9
$USERI5
 70
     0
  9
$USERR1
 40
0.0
  9
$USERR2
 40
0.0
  9
$USERR3
 40
0.0
  9
$USERR4
 40
0.0
  9
$USERR5
 40
0.0
  9
$WORLDVIEW
 70
     1
  9
$SHADEDGE
 70
     3
  9
$SHADEDIF
 70
    70
  9
$TILEMODE
 70
     1
  9
$MAXACTVP
 70
    64
  9
$PINSBASE
 10
0.0
 20
0.0
 30
0.0
  9
$PLIMCHECK
 70
     0
  9
$PEXTMIN
 10
0.0
 20
0.0
 30
0.0
  9
$PEXTMAX
 10
170.0
 20
110.0
 30
0.0
  9
$PLIMMIN
 10
0.0
 20
0.0
  9
$PLIMMAX
 10
170.0
 20
110.0
  9
$UNITMODE
 70
     0
  9
$VISRETAIN
 70
     1
  9
$PLINEGEN
 70
     0
  9
$PSLTSCALE
 70
     1
  9
$TREEDEPTH
 70
  3020
  9
$CMLSTYLE
  2
Standard
  9
$CMLJUST
 70
     0
  9
$CMLSCALE
 40
1.0
  9
$PROXYGRAPHICS
 70
     1
  9
$MEASUREMENT
 70
     0
  9
$CELWEIGHT
370
    -1
  9
$ENDCAPS
280
     0
  9
$JOINSTYLE
280
     0
  9
$LWDISPLAY
290
     0
  9
$INSUNITS
 70
     1
  9
$HYPERLINKBASE
  1

  9
$STYLESHEET
  1

  9
$XEDIT
290
     1
  9
$CEPSNTYPE
380
     0
  9
$PSTYLEMODE
290
     1
  9
$FINGERPRINTGUID
  2
{8E0894A1-BA96-4C60-9911-E2168EEC3EEB}
  9
$VERSIONGUID
  2
{74E544C6-A188-489F-9A39-157EF4CBF99A}
  9
$EXTNAMES
290
     1
  9
$PSVPSCALE
 40
0.0
  9
$OLESTARTUP
290
     0
  9
$SORTENTS
280
   127
  9
$INDEXCTL
280
     0
  9
$HIDETEXT
280
     1
  9
$XCLIPFRAME
280
     2
  9
$HALOGAP
280
     0
  9
$OBSCOLOR
 70
   257
  9
$OBSLTYPE
280
     0
  9
$INTERSECTIONDISPLAY
280
     0
  9
$INTERSECTIONCOLOR
 70
   257
  9
$DIMASSOC
280
     1
  9
$PROJECTNAME
  1

  9
$CAMERADISPLAY
290
     0
  9
$LENSLENGTH
 40
50.0
  9
$CAMERAHEIGHT
 40
0.0
  9
$STEPSPERSEC
 40
2.0
  9
$STEPSIZE
 40
6.0
  9
$3DDWFPREC
 40
2.0
  9
$PSOLWIDTH
 40
0.25
  9
$PSOLHEIGHT
 40
4.0
  9
$LOFTANG1
 40
1.570796326794896
  9
$LOFTANG2
 40
1.570796326794896
  9
$LOFTMAG1
 40
0.0
  9
$LOFTMAG2
 40
0.0
  9
$LOFTPARAM
 70
     7
  9
$LOFTNORMALS
280
     1
  9
$LATITUDE
 40
37.795
  9
$LONGITUDE
 40
-122.394
  9
$NORTHDIRECTION
 40
0.0
  9
$TIMEZONE
 70
 -8000
  9
$LIGHTGLYPHDISPLAY
280
     1
  9
$TILEMODELIGHTSYNCH
280
     1
  9
$CMATERIAL
347
11
  9
$SOLIDHIST
280
     0
  9
$SHOWHIST
280
     1
  9
$DWFFRAME
280
     2
  9
$DGNFRAME
280
     0
  9
$REALWORLDSCALE
290
     1
  9
$INTERFERECOLOR
 62
     1
  9
$INTERFEREOBJVS
345
33
  9
$INTERFEREVPVS
346
30
  9
$CSHADOW
280
     0
  9
$SHADOWPLANELOCATION
 40
0.0
  0
ENDSEC
  0
SECTION
  2
CLASSES
  0
CLASS
  1
ACDBDICTIONARYWDFLT
  2
AcDbDictionaryWithDefault
  3
ObjectDBX Classes
 90
        0
 91
        1
280
     0
281
     0
  0
CLASS
  1
MATERIAL
  2
AcDbMaterial
  3
ObjectDBX Classes
 90
     1153
 91
        3
280
     0
281
     0
  0
CLASS
  1
VISUALSTYLE
  2
AcDbVisualStyle
  3
ObjectDBX Classes
 90
     4095
 91
       24
280
     0
281
     0
  0
CLASS
  1
SCALE
  2
AcDbScale
  3
ObjectDBX Classes
 90
     1153
 91
       17
280
     0
281
     0
  0
CLASS
  1
TABLESTYLE
  2
AcDbTableStyle
  3
ObjectDBX Classes
 90
     4095
 91
        1
280
     0
281
     0
  0
CLASS
  1
MLEADERSTYLE
  2
AcDbMLeaderStyle
  3
ACDB_MLEADERSTYLE_CLASS
 90
     4095
 91
        1
280
     0
281
     0
  0
CLASS
  1
DICTIONARYVAR
  2
AcDbDictionaryVar
  3
ObjectDBX Classes
 90
        0
 91
        3
280
     0
281
     0
  0
CLASS
  1
CELLSTYLEMAP
  2
AcDbCellStyleMap
  3
ObjectDBX Classes
 90
     1152
 91
        1
280
     0
281
     0
  0
ENDSEC
  0
SECTION
  2
TABLES
  0
TABLE
  2
VPORT
  5
8
330
0
100
AcDbSymbolTable
 70
     1
  0
VPORT
  5
57
330
8
100
AcDbSymbolTableRecord
100
AcDbViewportTableRecord
  2
*Active
 70
     0
 10
0.0
 20
0.0
 11
1.0
 21
1.0
 12
85.0
 22
55.0
 13
0.0
 23
0.0
 14
1.0
 24
1.0
 15
0.0
 25
0.0
 16
0.0
 26
0.0
 36
1.0
 17
0.0
 27
0.0
 37
0.0
 40
110.0
 41
1.545454545454545
 42
50.0
 43
0.0
 44
0.0
 50
0.0
 51
0.0
 71
     0
 72
   100
 73
     1
 74
     1
 75
     0
 76
     0
 77
     0
 78
     0
281
     0
 65
     1
110
0.0
120
0.0
130
0.0
111
1.0
121
0.0
131
0.0
112
0.0
122
1.0
132
0.0
 79
     0
146
0.0
 60
     3
 61
     5
292
     1
282
     1
141
0.0
142
0.0
 63
   250
421
  3355443
  0
ENDTAB
  0
TABLE
  2
LTYPE
  5
5
330
0
100
AcDbSymbolTable
 70
    59
  0
LTYPE
  5
5B
330
5
100
AcDbSymbolTableRecord
100
AcDbLinetypeTableRecord
  2
ByBlock
 70
     0
  3

 72
    65
 73
     0
 40
0.0
  0
LTYPE
  5
5C
330
5
100
AcDbSymbolTableRecord
100
AcDbLinetypeTableRecord
  2
ByLayer
 70
     0
  3

 72
    65
 73
     0
 40
0.0
  0
LTYPE
  5
5D
330
5
100
AcDbSymbolTableRecord
100
AcDbLinetypeTableRecord
  2
Continuous
 70
     0
  3
Solid line
 72
    65
 73
     0
 40
0.0
  0
LTYPE
  5
7C
330
5
100
AcDbSymbolTableRecord
100
AcDbLinetypeTableRecord
  2
BY_STANDARD
 70
     0
  3
By Standard ____________    ____    ____   _
 72
    65
 73
     6
 40
1.240299999999999
 49
0.6614
 74
     0
 49
-0.0827
 74
     0
 49
0.1654
 74
     0
 49
-0.0827
 74
     0
 49
0.1654
 74
     0
 49
-0.0827
 74
     0
  0
LTYPE
  5
7D
330
5
100
AcDbSymbolTableRecord
100
AcDbLinetypeTableRecord
  2
CHAIN
 70
     0
  3
Chain ____ _ ____ _ ____ _ ____ _ ____ _ ____
 72
    65
 73
     4
 40
0.7087
 49
0.4724000000000001
 74
     0
 49
-0.0591
 74
     0
 49
0.1181
 74
     0
 49
-0.0591
 74
     0
  0
LTYPE
  5
7E
330
5
100
AcDbSymbolTableRecord
100
AcDbLinetypeTableRecord
  2
DASH_DOT
 70
     0
  3
Dash dot __ . __ . __ . __ . __ . __ . __ . __
 72
    65
 73
     4
 40
0.37
 49
0.24
 74
     0
 49
-0.06
 74
     0
 49
0.01
 74
     0
 49
-0.06
 74
     0
  0
LTYPE
  5
7F
330
5
100
AcDbSymbolTableRecord
100
AcDbLinetypeTableRecord
  2
DOUBLE_DASH_DOT
 70
     0
  3
Double-Dash Dot __ __ . __ __ . __ __ . __ _
 72
    65
 73
     6
 40
0.4398
 49
0.24
 74
     0
 49
-0.06
 74
     0
 49
0.0098
 74
     0
 49
-0.06
 74
     0
 49
0.01
 74
     0
 49
-0.06
 74
     0
  0
LTYPE
  5
80
330
5
100
AcDbSymbolTableRecord
100
AcDbLinetypeTableRecord
  2
DASH_TRIPLE_DOT
 70
     0
  3
Dash Triple-Dot _ . . . _ . . . _ . . . _
 72
    65
 73
     8
 40
0.51
 49
0.24
 74
     0
 49
-0.06
 74
     0
 49
0.01
 74
     0
 49
-0.06
 74
     0
 49
0.01
 74
     0
 49
-0.06
 74
     0
 49
0.01
 74
     0
 49
-0.06
 74
     0
  0
LTYPE
  5
81
330
5
100
AcDbSymbolTableRecord
100
AcDbLinetypeTableRecord
  2
DASHED
 70
     0
  3
Dashed __ __ __ __ __ __ __ __ __ __ __ __ __ _
 72
    65
 73
     2
 40
0.2067
 49
0.1654
 74
     0
 49
-0.0413
 74
     0
  0
LTYPE
  5
82
330
5
100
AcDbSymbolTableRecord
100
AcDbLinetypeTableRecord
  2
DASH_DOUBLE_DOT
 70
     0
  3
Dash Double-Dot __ . . __ . . __ . . __ . .
 72
    65
 73
     6
 40
0.4398
 49
0.24
 74
     0
 49
-0.06
 74
     0
 49
0.0098
 74
     0
 49
-0.06
 74
     0
 49
0.01
 74
     0
 49
-0.06
 74
     0
  0
LTYPE
  5
83
330
5
100
AcDbSymbolTableRecord
100
AcDbLinetypeTableRecord
  2
DASHED_SPACE
 70
     0
  3
Dashed Space __ __ __ __ __ __ __ __ __ __ __ _
 72
    65
 73
     2
 40
0.2067
 49
0.1654
 74
     0
 49
-0.0413
 74
     0
  0
LTYPE
  5
84
330
5
100
AcDbSymbolTableRecord
100
AcDbLinetypeTableRecord
  2
DOTTED
 70
     0
  3
Dotted . . . . . . . . . . . . . . . . . . . . 
 72
    65
 73
     2
 40
0.0482
 49
0.0069
 74
     0
 49
-0.0413
 74
     0
  0
LTYPE
  5
85
330
5
100
AcDbSymbolTableRecord
100
AcDbLinetypeTableRecord
  2
DOUBLE_DASH_CHAIN
 70
     0
  3
Double-Dash Chain ______  __  __  ______  __  _
 72
    65
 73
     6
 40
1.240299999999999
 49
0.6614
 74
     0
 49
-0.0827
 74
     0
 49
0.1654
 74
     0
 49
-0.0827
 74
     0
 49
0.1654
 74
     0
 49
-0.0827
 74
     0
  0
LTYPE
  5
87
330
5
100
AcDbSymbolTableRecord
100
AcDbLinetypeTableRecord
  2
DOUBLE_DASH_DOUBLE_DOT
 70
     0
  3
Double-Dash Double-dot _ _ . . _ _ . . _
 72
    65
 73
     8
 40
0.7400000000000001
 49
0.24
 74
     0
 49
-0.06
 74
     0
 49
0.24
 74
     0
 49
-0.06
 74
     0
 49
0.01
 74
     0
 49
-0.06
 74
     0
 49
0.01
 74
     0
 49
-0.06
 74
     0
  0
LTYPE
  5
88
330
5
100
AcDbSymbolTableRecord
100
AcDbLinetypeTableRecord
  2
DOUBLE_DASH_TRIPLE_DOT
 70
     0
  3
Double Dash Triple Dot __ __ . . . __ __ . .
 72
    65
 73
    10
 40
0.8100000000000001
 49
0.24
 74
     0
 49
-0.06
 74
     0
 49
0.24
 74
     0
 49
-0.06
 74
     0
 49
0.01
 74
     0
 49
-0.06
 74
     0
 49
0.01
 74
     0
 49
-0.06
 74
     0
 49
0.01
 74
     0
 49
-0.06
 74
     0
  0
LTYPE
  5
89
330
5
100
AcDbSymbolTableRecord
100
AcDbLinetypeTableRecord
  2
LONG_DASH_DOTTED
 70
     0
  3
Long Dash Dotted ____ . ____ . ____ . ____ . _
 72
    65
 73
     4
 40
0.3543
 49
0.2362
 74
     0
 49
-0.0295
 74
     0
 49
0.0591
 74
     0
 49
-0.0295
 74
     0
  0
LTYPE
  5
8A
330
5
100
AcDbSymbolTableRecord
100
AcDbLinetypeTableRecord
  2
LONG_DASH_DOUBLE_DOT
 70
     0
  3
Long Dash Double Dot ________  .  .  ________  
 72
    65
 73
     6
 40
0.6799999999999999
 49
0.48
 74
     0
 49
-0.06
 74
     0
 49
0.01
 74
     0
 49
-0.06
 74
     0
 49
0.01
 74
     0
 49
-0.06
 74
     0
  0
LTYPE
  5
8B
330
5
100
AcDbSymbolTableRecord
100
AcDbLinetypeTableRecord
  2
LONG_DASH_TRIPLE_DOT
 70
     0
  3
Long Dash Triple Dot ____ ... ____ ... ____
 72
    65
 73
     8
 40
0.3689
 49
0.2362
 74
     0
 49
-0.0295
 74
     0
 49
0.0049
 74
     0
 49
-0.0295
 74
     0
 49
0.0049
 74
     0
 49
-0.0295
 74
     0
 49
0.0049
 74
     0
 49
-0.0295
 74
     0
  0
LTYPE
  5
8C
330
5
100
AcDbSymbolTableRecord
100
AcDbLinetypeTableRecord
  2
BORDER
 70
     0
  3
Border __ __ . __ __ . __ __ . __ __ . __ __ .
 72
    65
 73
     6
 40
1.75
 49
0.5
 74
     0
 49
-0.25
 74
     0
 49
0.5
 74
     0
 49
-0.25
 74
     0
 49
0.0
 74
     0
 49
-0.25
 74
     0
  0
LTYPE
  5
8D
330
5
100
AcDbSymbolTableRecord
100
AcDbLinetypeTableRecord
  2
BORDER2
 70
     0
  3
Border (.5x) __.__.__.__.__.__.__.__.__.__.__.
 72
    65
 73
     6
 40
0.875
 49
0.25
 74
     0
 49
-0.125
 74
     0
 49
0.25
 74
     0
 49
-0.125
 74
     0
 49
0.0
 74
     0
 49
-0.125
 74
     0
  0
LTYPE
  5
8E
330
5
100
AcDbSymbolTableRecord
100
AcDbLinetypeTableRecord
  2
BORDERX2
 70
     0
  3
Border (2x) ____  ____  .  ____  ____  .  ___
 72
    65
 73
     6
 40
3.5
 49
1.0
 74
     0
 49
-0.5
 74
     0
 49
1.0
 74
     0
 49
-0.5
 74
     0
 49
0.0
 74
     0
 49
-0.5
 74
     0
  0
LTYPE
  5
8F
330
5
100
AcDbSymbolTableRecord
100
AcDbLinetypeTableRecord
  2
CENTER
 70
     0
  3
Center ____ _ ____ _ ____ _ ____ _ ____ _ ____
 72
    65
 73
     4
 40
2.0
 49
1.25
 74
     0
 49
-0.25
 74
     0
 49
0.25
 74
     0
 49
-0.25
 74
     0
  0
LTYPE
  5
90
330
5
100
AcDbSymbolTableRecord
100
AcDbLinetypeTableRecord
  2
CENTER2
 70
     0
  3
Center (.5x) ___ _ ___ _ ___ _ ___ _ ___ _ ___
 72
    65
 73
     4
 40
1.125
 49
0.75
 74
     0
 49
-0.125
 74
     0
 49
0.125
 74
     0
 49
-0.125
 74
     0
  0
LTYPE
  5
91
330
5
100
AcDbSymbolTableRecord
100
AcDbLinetypeTableRecord
  2
CENTERX2
 70
     0
  3
Center (2x) ________  __  ________  __  _____
 72
    65
 73
     4
 40
4.0
 49
2.5
 74
     0
 49
-0.5
 74
     0
 49
0.5
 74
     0
 49
-0.5
 74
     0
  0
LTYPE
  5
92
330
5
100
AcDbSymbolTableRecord
100
AcDbLinetypeTableRecord
  2
DASHDOT2
 70
     0
  3
Dash dot (.5x) _._._._._._._._._._._._._._._.
 72
    65
 73
     4
 40
0.5
 49
0.25
 74
     0
 49
-0.125
 74
     0
 49
0.0
 74
     0
 49
-0.125
 74
     0
  0
LTYPE
  5
93
330
5
100
AcDbSymbolTableRecord
100
AcDbLinetypeTableRecord
  2
DASHDOTX2
 70
     0
  3
Dash dot (2x) ____  .  ____  .  ____  .  ___
 72
    65
 73
     4
 40
2.0
 49
1.0
 74
     0
 49
-0.5
 74
     0
 49
0.0
 74
     0
 49
-0.5
 74
     0
  0
LTYPE
  5
95
330
5
100
AcDbSymbolTableRecord
100
AcDbLinetypeTableRecord
  2
DASHED2
 70
     0
  3
Dashed (.5x) _ _ _ _ _ _ _ _ _ _ _ _ _ _ _ _ _
 72
    65
 73
     2
 40
0.375
 49
0.25
 74
     0
 49
-0.125
 74
     0
  0
LTYPE
  5
96
330
5
100
AcDbSymbolTableRecord
100
AcDbLinetypeTableRecord
  2
DASHEDX2
 70
     0
  3
Dashed (2x) ____  ____  ____  ____  ____  ___
 72
    65
 73
     2
 40
1.5
 49
1.0
 74
     0
 49
-0.5
 74
     0
  0
LTYPE
  5
97
330
5
100
AcDbSymbolTableRecord
100
AcDbLinetypeTableRecord
  2
DIVIDE
 70
     0
  3
Divide ____ . . ____ . . ____ . . ____ . . ____
 72
    65
 73
     6
 40
1.25
 49
0.5
 74
     0
 49
-0.25
 74
     0
 49
0.0
 74
     0
 49
-0.25
 74
     0
 49
0.0
 74
     0
 49
-0.25
 74
     0
  0
LTYPE
  5
98
330
5
100
AcDbSymbolTableRecord
100
AcDbLinetypeTableRecord
  2
DIVIDE2
 70
     0
  3
Divide (.5x) __..__..__..__..__..__..__..__.._
 72
    65
 73
     6
 40
0.625
 49
0.25
 74
     0
 49
-0.125
 74
     0
 49
0.0
 74
     0
 49
-0.125
 74
     0
 49
0.0
 74
     0
 49
-0.125
 74
     0
  0
LTYPE
  5
99
330
5
100
AcDbSymbolTableRecord
100
AcDbLinetypeTableRecord
  2
DIVIDEX2
 70
     0
  3
Divide (2x) ________  .  .  ________  .  .  _
 72
    65
 73
     6
 40
2.5
 49
1.0
 74
     0
 49
-0.5
 74
     0
 49
0.0
 74
     0
 49
-0.5
 74
     0
 49
0.0
 74
     0
 49
-0.5
 74
     0
  0
LTYPE
  5
9A
330
5
100
AcDbSymbolTableRecord
100
AcDbLinetypeTableRecord
  2
DOT
 70
     0
  3
Dot . . . . . . . . . . . . . . . . . . . . . .
 72
    65
 73
     2
 40
0.25
 49
0.0
 74
     0
 49
-0.25
 74
     0
  0
LTYPE
  5
9B
330
5
100
AcDbSymbolTableRecord
100
AcDbLinetypeTableRecord
  2
DOT2
 70
     0
  3
Dot (.5x) .....................................
 72
    65
 73
     2
 40
0.125
 49
0.0
 74
     0
 49
-0.125
 74
     0
  0
LTYPE
  5
9C
330
5
100
AcDbSymbolTableRecord
100
AcDbLinetypeTableRecord
  2
DOTX2
 70
     0
  3
Dot (2x) .  .  .  .  .  .  .  .  .  .  .  .  . 
 72
    65
 73
     2
 40
0.5
 49
0.0
 74
     0
 49
-0.5
 74
     0
  0
LTYPE
  5
9D
330
5
100
AcDbSymbolTableRecord
100
AcDbLinetypeTableRecord
  2
HIDDEN
 70
     0
  3
Hidden __ __ __ __ __ __ __ __ __ __ __ __ __ _
 72
    65
 73
     2
 40
0.375
 49
0.25
 74
     0
 49
-0.125
 74
     0
  0
LTYPE
  5
9E
330
5
100
AcDbSymbolTableRecord
100
AcDbLinetypeTableRecord
  2
HIDDEN2
 70
     0
  3
Hidden (.5x) _ _ _ _ _ _ _ _ _ _ _ _ _ _ _ _ _
 72
    65
 73
     2
 40
0.1875
 49
0.125
 74
     0
 49
-0.0625
 74
     0
  0
LTYPE
  5
9F
330
5
100
AcDbSymbolTableRecord
100
AcDbLinetypeTableRecord
  2
HIDDENX2
 70
     0
  3
Hidden (2x) ____ ____ ____ ____ ____ ____ ____
 72
    65
 73
     2
 40
0.75
 49
0.5
 74
     0
 49
-0.25
 74
     0
  0
LTYPE
  5
A0
330
5
100
AcDbSymbolTableRecord
100
AcDbLinetypeTableRecord
  2
PHANTOM
 70
     0
  3
Phantom ______  __  __  ______  __  __  ______
 72
    65
 73
     6
 40
2.5
 49
1.25
 74
     0
 49
-0.25
 74
     0
 49
0.25
 74
     0
 49
-0.25
 74
     0
 49
0.25
 74
     0
 49
-0.25
 74
     0
  0
LTYPE
  5
A1
330
5
100
AcDbSymbolTableRecord
100
AcDbLinetypeTableRecord
  2
PHANTOM2
 70
     0
  3
Phantom (.5x) ___ _ _ ___ _ _ ___ _ _ ___ _ _
 72
    65
 73
     6
 40
1.25
 49
0.625
 74
     0
 49
-0.125
 74
     0
 49
0.125
 74
     0
 49
-0.125
 74
     0
 49
0.125
 74
     0
 49
-0.125
 74
     0
  0
LTYPE
  5
A2
330
5
100
AcDbSymbolTableRecord
100
AcDbLinetypeTableRecord
  2
PHANTOMX2
 70
     0
  3
Phantom (2x) ____________    ____    ____   _
 72
    65
 73
     6
 40
5.0
 49
2.5
 74
     0
 49
-0.5
 74
     0
 49
0.5
 74
     0
 49
-0.5
 74
     0
 49
0.5
 74
     0
 49
-0.5
 74
     0
  0
LTYPE
  5
A3
330
5
100
AcDbSymbolTableRecord
100
AcDbLinetypeTableRecord
  2
ACAD_ISO02W100
 70
     0
  3
ISO dash __ __ __ __ __ __ __ __ __ __ __ __ __
 72
    65
 73
     2
 40
0.59
 49
0.47
 74
     0
 49
-0.12
 74
     0
  0
LTYPE
  5
A4
330
5
100
AcDbSymbolTableRecord
100
AcDbLinetypeTableRecord
  2
ACAD_ISO03W100
 70
     0
  3
ISO dash space __    __    __    __    __    __
 72
    65
 73
     2
 40
1.179999999999999
 49
0.47
 74
     0
 49
-0.71
 74
     0
  0
LTYPE
  5
A5
330
5
100
AcDbSymbolTableRecord
100
AcDbLinetypeTableRecord
  2
ACAD_ISO04W100
 70
     0
  3
ISO long-dash dot ____ . ____ . ____ . ____ . _
 72
    65
 73
     4
 40
1.179999999999999
 49
0.9399999999999998
 74
     0
 49
-0.12
 74
     0
 49
0.0
 74
     0
 49
-0.12
 74
     0
  0
LTYPE
  5
A6
330
5
100
AcDbSymbolTableRecord
100
AcDbLinetypeTableRecord
  2
ACAD_ISO05W100
 70
     0
  3
ISO long-dash double-dot ____ .. ____ .. ____ .
 72
    65
 73
     6
 40
1.299999999999999
 49
0.9399999999999998
 74
     0
 49
-0.12
 74
     0
 49
0.0
 74
     0
 49
-0.12
 74
     0
 49
0.0
 74
     0
 49
-0.12
 74
     0
  0
LTYPE
  5
A7
330
5
100
AcDbSymbolTableRecord
100
AcDbLinetypeTableRecord
  2
ACAD_ISO06W100
 70
     0
  3
ISO long-dash triple-dot ____ ... ____ ... ____
 72
    65
 73
     8
 40
1.419999999999999
 49
0.9399999999999998
 74
     0
 49
-0.12
 74
     0
 49
0.0
 74
     0
 49
-0.12
 74
     0
 49
0.0
 74
     0
 49
-0.12
 74
     0
 49
0.0
 74
     0
 49
-0.12
 74
     0
  0
LTYPE
  5
A8
330
5
100
AcDbSymbolTableRecord
100
AcDbLinetypeTableRecord
  2
ACAD_ISO07W100
 70
     0
  3
ISO dot . . . . . . . . . . . . . . . . . . . .
 72
    65
 73
     2
 40
0.12
 49
0.0
 74
     0
 49
-0.12
 74
     0
  0
LTYPE
  5
A9
330
5
100
AcDbSymbolTableRecord
100
AcDbLinetypeTableRecord
  2
ACAD_ISO08W100
 70
     0
  3
ISO long-dash short-dash ____ __ ____ __ ____ _
 72
    65
 73
     4
 40
0.95
 49
0.47
 74
     0
 49
-0.12
 74
     0
 49
0.24
 74
     0
 49
-0.12
 74
     0
  0
LTYPE
  5
AA
330
5
100
AcDbSymbolTableRecord
100
AcDbLinetypeTableRecord
  2
ACAD_ISO09W100
 70
     0
  3
ISO long-dash double-short-dash ____ __ __ ____
 72
    65
 73
     6
 40
1.31
 49
0.47
 74
     0
 49
-0.12
 74
     0
 49
0.24
 74
     0
 49
-0.12
 74
     0
 49
0.24
 74
     0
 49
-0.12
 74
     0
  0
LTYPE
  5
AB
330
5
100
AcDbSymbolTableRecord
100
AcDbLinetypeTableRecord
  2
ACAD_ISO10W100
 70
     0
  3
ISO dash dot __ . __ . __ . __ . __ . __ . __ .
 72
    65
 73
     4
 40
0.71
 49
0.47
 74
     0
 49
-0.12
 74
     0
 49
0.0
 74
     0
 49
-0.12
 74
     0
  0
LTYPE
  5
AC
330
5
100
AcDbSymbolTableRecord
100
AcDbLinetypeTableRecord
  2
ACAD_ISO11W100
 70
     0
  3
ISO double-dash dot __ __ . __ __ . __ __ . __ 
 72
    65
 73
     6
 40
1.299999999999999
 49
0.47
 74
     0
 49
-0.12
 74
     0
 49
0.47
 74
     0
 49
-0.12
 74
     0
 49
0.0
 74
     0
 49
-0.12
 74
     0
  0
LTYPE
  5
AD
330
5
100
AcDbSymbolTableRecord
100
AcDbLinetypeTableRecord
  2
ACAD_ISO12W100
 70
     0
  3
ISO dash double-dot __ . . __ . . __ . . __ . .
 72
    65
 73
     6
 40
0.8299999999999998
 49
0.47
 74
     0
 49
-0.12
 74
     0
 49
0.0
 74
     0
 49
-0.12
 74
     0
 49
0.0
 74
     0
 49
-0.12
 74
     0
  0
LTYPE
  5
AE
330
5
100
AcDbSymbolTableRecord
100
AcDbLinetypeTableRecord
  2
ACAD_ISO13W100
 70
     0
  3
ISO double-dash double-dot __ __ . . __ __ . . 
 72
    65
 73
     8
 40
1.419999999999999
 49
0.47
 74
     0
 49
-0.12
 74
     0
 49
0.47
 74
     0
 49
-0.12
 74
     0
 49
0.0
 74
     0
 49
-0.12
 74
     0
 49
0.0
 74
     0
 49
-0.12
 74
     0
  0
LTYPE
  5
AF
330
5
100
AcDbSymbolTableRecord
100
AcDbLinetypeTableRecord
  2
ACAD_ISO14W100
 70
     0
  3
ISO dash triple-dot __ . . . __ . . . __ . . . 
 72
    65
 73
     8
 40
0.95
 49
0.47
 74
     0
 49
-0.12
 74
     0
 49
0.0
 74
     0
 49
-0.12
 74
     0
 49
0.0
 74
     0
 49
-0.12
 74
     0
 49
0.0
 74
     0
 49
-0.12
 74
     0
  0
LTYPE
  5
B0
330
5
100
AcDbSymbolTableRecord
100
AcDbLinetypeTableRecord
  2
ACAD_ISO15W100
 70
     0
  3
ISO double-dash triple-dot __ __ . . . __ __ . 
 72
    65
 73
    10
 40
1.539999999999999
 49
0.47
 74
     0
 49
-0.12
 74
     0
 49
0.47
 74
     0
 49
-0.12
 74
     0
 49
0.0
 74
     0
 49
-0.12
 74
     0
 49
0.0
 74
     0
 49
-0.12
 74
     0
 49
0.0
 74
     0
 49
-0.12
 74
     0
  0
LTYPE
  5
B3
330
5
100
AcDbSymbolTableRecord
100
AcDbLinetypeTableRecord
  2
FENCELINE1
 70
     0
  3
Fenceline circle ----0-----0----0-----0----0---
 72
    65
 73
     4
 40
1.45
 49
0.25
 74
     0
 49
-0.1
 74
     4
 75
   133
340
B2
 46
0.1
 50
0.0
 44
-0.1
 45
0.0
 49
-0.1
 74
     0
 49
1.0
 74
     0
  0
LTYPE
  5
B4
330
5
100
AcDbSymbolTableRecord
100
AcDbLinetypeTableRecord
  2
FENCELINE2
 70
     0
  3
Fenceline square ----[]-----[]----[]-----[]----
 72
    65
 73
     4
 40
1.45
 49
0.25
 74
     0
 49
-0.1
 74
     4
 75
   132
340
B2
 46
0.1
 50
0.0
 44
-0.1
 45
0.0
 49
-0.1
 74
     0
 49
1.0
 74
     0
  0
LTYPE
  5
B5
330
5
100
AcDbSymbolTableRecord
100
AcDbLinetypeTableRecord
  2
TRACKS
 70
     0
  3
Tracks -|-|-|-|-|-|-|-|-|-|-|-|-|-|-|-|-|-|-|-|
 72
    65
 73
     2
 40
0.3
 49
0.15
 74
     4
 75
   130
340
B2
 46
0.25
 50
0.0
 44
0.0
 45
0.0
 49
0.15
 74
     0
  0
LTYPE
  5
B6
330
5
100
AcDbSymbolTableRecord
100
AcDbLinetypeTableRecord
  2
BATTING
 70
     0
  3
Batting SSSSSSSSSSSSSSSSSSSSSSSSSSSSSSSSSSSSSSS
 72
    65
 73
     4
 40
0.4001000000000001
 49
0.0001
 74
     0
 49
-0.1
 74
     4
 75
   134
340
B2
 46
0.1
 50
0.0
 44
-0.1
 45
0.0
 49
-0.2
 74
     4
 75
   134
340
B2
 46
0.1
 50
180.0
 44
0.1
 45
0.0
 49
-0.1
 74
     0
  0
LTYPE
  5
B7
330
5
100
AcDbSymbolTableRecord
100
AcDbLinetypeTableRecord
  2
HOT_WATER_SUPPLY
 70
     0
  3
Hot water supply ---- HW ---- HW ---- HW ----
 72
    65
 73
     3
 40
0.9
 49
0.5
 74
     0
 49
-0.2
 74
     2
 75
     0
340
55
 46
0.1
 50
0.0
 44
-0.1
 45
-0.05
  9
HW
 49
-0.2
 74
     0
  0
LTYPE
  5
B8
330
5
100
AcDbSymbolTableRecord
100
AcDbLinetypeTableRecord
  2
GAS_LINE
 70
     0
  3
Gas line ----GAS----GAS----GAS----GAS----GAS---
 72
    65
 73
     3
 40
0.95
 49
0.5
 74
     0
 49
-0.2
 74
     2
 75
     0
340
55
 46
0.1
 50
0.0
 44
-0.1
 45
-0.05
  9
GAS
 49
-0.25
 74
     0
  0
LTYPE
  5
B9
330
5
100
AcDbSymbolTableRecord
100
AcDbLinetypeTableRecord
  2
ZIGZAG
 70
     0
  3
Zig zag /\/\/\/\/\/\/\/\/\/\/\/\/\/\/\/\/\/\/\/
 72
    65
 73
     4
 40
0.8001000000000001
 49
0.0001
 74
     0
 49
-0.2
 74
     4
 75
   131
340
B2
 46
0.2
 50
0.0
 44
-0.2
 45
0.0
 49
-0.4
 74
     4
 75
   131
340
B2
 46
0.2
 50
180.0
 44
0.2
 45
0.0
 49
-0.2
 74
     0
  0
ENDTAB
  0
TABLE
  2
LAYER
  5
2
330
0
100
AcDbSymbolTable
 70
    27
  0
LAYER
  5
54
330
2
100
AcDbSymbolTableRecord
100
AcDbLayerTableRecord
  2
0
 70
     0
 62
     7
  6
Continuous
370
    18
390
F
347
21
  0
LAYER
  5
C0
330
2
100
AcDbSymbolTableRecord
100
AcDbLayerTableRecord
  2
Center Mark (ANSI)
 70
     0
 62
     7
  6
Continuous
370
    15
390
F
347
21
  0
LAYER
  5
C1
330
2
100
AcDbSymbolTableRecord
100
AcDbLayerTableRecord
  2
Centerline (ANSI)
 70
     0
 62
     7
  6
Continuous
370
    15
390
F
347
21
  0
LAYER
  5
C3
330
2
100
AcDbSymbolTableRecord
100
AcDbLayerTableRecord
  2
Dimension (ANSI)
 70
     0
 62
     7
  6
Continuous
370
    13
390
F
347
21
  0
LAYER
  5
C5
330
2
100
AcDbSymbolTableRecord
100
AcDbLayerTableRecord
  2
Hidden (ANSI)
 70
     0
 62
     7
  6
DASHED
370
    15
390
F
347
21
  0
LAYER
  5
CC
330
2
100
AcDbSymbolTableRecord
100
AcDbLayerTableRecord
  2
Symbol (ANSI)
 70
     0
 62
     7
  6
Continuous
370
    18
390
F
347
21
  0
LAYER
  5
CF
330
2
100
AcDbSymbolTableRecord
100
AcDbLayerTableRecord
  2
Visible (ANSI)
 70
     0
 62
     7
  6
Continuous
370
    13
390
F
347
21
  0
LAYER
  5
D0
330
2
100
AcDbSymbolTableRecord
100
AcDbLayerTableRecord
  2
Visible Narrow (ANSI)
 70
     0
 62
     7
  6
Continuous
370
    18
390
F
347
21
  0
LAYER
  5
54E
330
2
100
AcDbSymbolTableRecord
100
AcDbLayerTableRecord
  2
Defpoints
 70
     0
 62
     7
  6
Continuous
290
     0
370
    -3
390
F
347
21
  0
ENDTAB
  0
TABLE
  2
STYLE
  5
3
330
0
100
AcDbSymbolTable
 70
    18
  0
STYLE
  5
55
330
3
100
AcDbSymbolTableRecord
100
AcDbTextStyleTableRecord
  2
Standard
 70
     0
 40
0.0
 41
1.0
 50
0.0
 71
     0
 42
0.2
  3
txt
  4

  0
STYLE
  5
5A
330
3
100
AcDbSymbolTableRecord
100
AcDbTextStyleTableRecord
  2
Annotative
 70
     0
 40
0.0
 41
1.0
 50
0.0
 71
     0
 42
0.2
  3
txt
  4

1001
AcadAnnotative
1000
AnnotativeData
1002
{
1070
     1
1070
     1
1002
}
  0
STYLE
  5
B2
330
3
100
AcDbSymbolTableRecord
100
AcDbTextStyleTableRecord
  2

 70
     1
 40
0.0
 41
1.0
 50
0.0
 71
     0
 42
0.2
  3
ltypeshp.shx
  4

  0
STYLE
  5
D4
330
3
100
AcDbSymbolTableRecord
100
AcDbTextStyleTableRecord
  2
ITALICC_120
 70
     0
 40
0.0
 41
1.0
 50
0.0
 71
     0
 42
0.2
  3
italicc.shx
  4

  0
STYLE
  5
D5
330
3
100
AcDbSymbolTableRecord
100
AcDbTextStyleTableRecord
  2
Label Text (ANSI)
 70
     0
 40
0.0
 41
1.0
 50
0.0
 71
     0
 42
0.2
  3
tahoma.ttf
  4

1001
ACAD
1000
Tahoma
1071
      256
  0
STYLE
  5
D6
330
3
100
AcDbSymbolTableRecord
100
AcDbTextStyleTableRecord
  2
Note Text (ANSI)
 70
     0
 40
0.0
 41
1.0
 50
0.0
 71
     0
 42
0.2
  3
tahoma.ttf
  4

1001
ACAD
1000
Tahoma
1071
      256
  0
STYLE
  5
D7
330
3
100
AcDbSymbolTableRecord
100
AcDbTextStyleTableRecord
  2
ROMANS
 70
     0
 40
0.0
 41
1.0
 50
0.0
 71
     0
 42
0.2
  3
romans.shx
  4

  0
STYLE
  5
D8
330
3
100
AcDbSymbolTableRecord
100
AcDbTextStyleTableRecord
  2
SANSSERIF_114
 70
     0
 40
0.0
 41
1.0
 50
0.0
 71
     0
 42
0.2
  3
tahoma.ttf
  4

1001
ACAD
1000
Tahoma
1071
      256
  0
STYLE
  5
D9
330
3
100
AcDbSymbolTableRecord
100
AcDbTextStyleTableRecord
  2
SANSSERIF_117
 70
     0
 40
0.0
 41
1.0
 50
0.0
 71
     0
 42
0.2
  3
tahoma.ttf
  4

1001
ACAD
1000
Tahoma
1071
      256
  0
STYLE
  5
DA
330
3
100
AcDbSymbolTableRecord
100
AcDbTextStyleTableRecord
  2
STANDARDAM_ANSI
 70
     0
 40
0.0
 41
1.0
 50
0.0
 71
     0
 42
0.2
  3
txt.shx
  4

  0
STYLE
  5
DB
330
3
100
AcDbSymbolTableRecord
100
AcDbTextStyleTableRecord
  2
StandardAM_ANSI$0
 70
     0
 40
0.0
 41
1.0
 50
0.0
 71
     0
 42
0.2
  3
txt.shx
  4

  0
STYLE
  5
DC
330
3
100
AcDbSymbolTableRecord
100
AcDbTextStyleTableRecord
  2
STANDARDAM_ANSI$3
 70
     0
 40
0.0
 41
1.0
 50
0.0
 71
     0
 42
0.2
  3
txt.shx
  4

  0
STYLE
  5
DD
330
3
100
AcDbSymbolTableRecord
100
AcDbTextStyleTableRecord
  2
STANDARDAM_ANSI$4
 70
     0
 40
0.0
 41
1.0
 50
0.0
 71
     0
 42
0.2
  3
txt.shx
  4

  0
STYLE
  5
DE
330
3
100
AcDbSymbolTableRecord
100
AcDbTextStyleTableRecord
  2
STANDARDAM_ANSI$7
 70
     0
 40
0.0
 41
1.0
 50
0.0
 71
     0
 42
0.2
  3
txt.shx
  4

  0
STYLE
  5
DF
330
3
100
AcDbSymbolTableRecord
100
AcDbTextStyleTableRecord
  2
STANDARDAM_ANSI$SF
 70
     0
 40
0.0
 41
1.0
 50
0.0
 71
     0
 42
0.2
  3
txt.shx
  4

  0
STYLE
  5
E0
330
3
100
AcDbSymbolTableRecord
100
AcDbTextStyleTableRecord
  2
STANDARDAM_ANSI$SH
 70
     0
 40
0.0
 41
1.0
 50
0.0
 71
     0
 42
0.2
  3
txt.shx
  4

  0
STYLE
  5
E1
330
3
100
AcDbSymbolTableRecord
100
AcDbTextStyleTableRecord
  2
STANDARDSTANDARD
 70
     0
 40
0.0
 41
1.0
 50
0.0
 71
     0
 42
0.2
  3
txt.shx
  4

  0
STYLE
  5
2E1
330
3
100
AcDbSymbolTableRecord
100
AcDbTextStyleTableRecord
  2
Text Style153
 70
     0
 40
0.0
 41
1.0
 50
0.0
 71
     0
 42
0.2
  3
tahoma.ttf
  4

1001
ACAD
1000
Tahoma
1071
      256
  0
ENDTAB
  0
TABLE
  2
VIEW
  5
6
330
0
100
AcDbSymbolTable
 70
     0
  0
ENDTAB
  0
TABLE
  2
UCS
  5
7
330
0
100
AcDbSymbolTable
 70
     0
  0
ENDTAB
  0
TABLE
  2
APPID
  5
9
330
0
100
AcDbSymbolTable
 70
     3
  0
APPID
  5
56
330
9
100
AcDbSymbolTableRecord
100
AcDbRegAppTableRecord
  2
ACAD
 70
     0
  0
APPID
  5
5E
330
9
100
AcDbSymbolTableRecord
100
AcDbRegAppTableRecord
  2
AcadAnnotative
 70
     0
  0
APPID
  5
B79
330
9
100
AcDbSymbolTableRecord
100
AcDbRegAppTableRecord
  2
ACAD_DSTYLE_DIMRADIAL_EXTENSION
 70
     0
  0
ENDTAB
  0
TABLE
  2
DIMSTYLE
  5
A
330
0
100
AcDbSymbolTable
 70
    27
100
AcDbDimStyleTable
 71
     2
340
F6
340
58
  0
DIMSTYLE
105
58
330
A
100
AcDbSymbolTableRecord
100
AcDbDimStyleTableRecord
  2
STANDARD
 70
     0
 41
0.1800000071525573
 42
0.0625
140
0.1800000071525574
144
1.0
147
0.0900000035762787
176
   256
177
   256
178
   256
274
     3
340
55
371
    -1
372
    -1
  0
DIMSTYLE
105
59
330
A
100
AcDbSymbolTableRecord
100
AcDbDimStyleTableRecord
  2
Annotative
 70
     0
340
55
1001
AcadAnnotative
1000
AnnotativeData
1002
{
1070
     1
1070
     1
1002
}
  0
DIMSTYLE
105
E2
330
A
100
AcDbSymbolTableRecord
100
AcDbDimStyleTableRecord
  2
AM_ANSI
 70
     0
  4
 mm
 40
10.0
 41
0.119999997317791
 42
0.05
 43
0.5
 44
0.1
 45
0.00000001
 78
     4
 79
     2
140
0.1200000047683716
146
0.7099999189376831
147
0.0599999986588955
176
   256
177
   256
178
     2
284
     4
340
DA
371
    -1
372
    -1
  0
DIMSTYLE
105
E3
330
A
100
AcDbSymbolTableRecord
100
AcDbDimStyleTableRecord
  2
AM_ANSI$7
 70
     0
  4
 mm
 40
10.0
 41
0.119999997317791
 42
0.05
 43
0.5
 44
0.1
 45
0.00000001
 78
     4
 79
     2
140
0.1200000047683716
146
0.7099999189376831
147
0.0599999986588955
176
   256
177
   256
178
     2
284
     4
340
DA
371
    -1
372
    -1
  0
DIMSTYLE
105
E4
330
A
100
AcDbSymbolTableRecord
100
AcDbDimStyleTableRecord
  2
AM_ANSI$0
 70
     0
  4
 mm
 40
10.0
 41
0.119999997317791
 42
0.05
 43
0.5
 44
0.1
 45
0.00000001
 78
     4
 79
     2
140
0.1200000047683716
146
0.7099999189376831
147
0.0599999986588955
176
   256
177
   256
178
     2
284
     4
340
DB
371
    -1
372
    -1
  0
DIMSTYLE
105
E5
330
A
100
AcDbSymbolTableRecord
100
AcDbDimStyleTableRecord
  2
AM_ANSI$0$7
 70
     0
  4
 mm
 40
10.0
 41
0.119999997317791
 42
0.05
 43
0.5
 44
0.1
 45
0.00000001
 78
     4
 79
     2
140
0.1200000047683716
146
0.7099999189376831
147
0.0599999986588955
176
   256
177
   256
178
     2
284
     4
340
DB
371
    -1
372
    -1
  0
DIMSTYLE
105
E6
330
A
100
AcDbSymbolTableRecord
100
AcDbDimStyleTableRecord
  2
AM_ANSI$3
 70
     0
  4
 mm
 40
10.0
 41
0.119999997317791
 42
0.05
 43
0.5
 44
0.1
 45
0.00000001
 78
     4
 79
     2
140
0.1200000047683716
146
0.7099999189376831
147
0.0599999986588955
176
   256
177
   256
178
     2
284
     4
340
DC
371
    -1
372
    -1
  0
DIMSTYLE
105
E7
330
A
100
AcDbSymbolTableRecord
100
AcDbDimStyleTableRecord
  2
AM_ANSI$3$7
 70
     0
  4
 mm
 40
10.0
 41
0.119999997317791
 42
0.05
 43
0.5
 44
0.1
 45
0.00000001
 78
     4
 79
     2
140
0.1200000047683716
146
0.7099999189376831
147
0.0599999986588955
176
   256
177
   256
178
     2
284
     4
340
DC
371
    -1
372
    -1
  0
DIMSTYLE
105
E8
330
A
100
AcDbSymbolTableRecord
100
AcDbDimStyleTableRecord
  2
AM_ANSI$4
 70
     0
  4
 mm
 40
10.0
 41
0.119999997317791
 42
0.05
 43
0.5
 44
0.1
 45
0.00000001
 78
     4
 79
     2
140
0.1200000047683716
146
0.7099999189376831
147
0.0599999986588955
176
   256
177
   256
178
     2
284
     4
340
DD
371
    -1
372
    -1
  0
DIMSTYLE
105
E9
330
A
100
AcDbSymbolTableRecord
100
AcDbDimStyleTableRecord
  2
AM_ANSI$4$7
 70
     0
  4
 mm
 40
10.0
 41
0.119999997317791
 42
0.05
 43
0.5
 44
0.1
 45
0.00000001
 78
     4
 79
     2
140
0.1200000047683716
146
0.7099999189376831
147
0.0599999986588955
176
   256
177
   256
178
     2
284
     4
340
DD
371
    -1
372
    -1
  0
DIMSTYLE
105
EA
330
A
100
AcDbSymbolTableRecord
100
AcDbDimStyleTableRecord
  2
AM_ANSI$SF
 70
     0
  4
 mm
 40
10.0
 41
0.119999997317791
 42
0.05
 43
0.5
 44
0.1
 45
0.00000001
 75
     1
 76
     1
 78
     4
 79
     2
140
0.1200000047683716
146
0.7099999189376831
147
0.0599999986588955
176
   256
177
   256
178
     2
284
     4
340
DF
371
    -1
372
    -1
  0
DIMSTYLE
105
EB
330
A
100
AcDbSymbolTableRecord
100
AcDbDimStyleTableRecord
  2
AM_ANSI$SF$7
 70
     0
  4
 mm
 40
10.0
 41
0.119999997317791
 42
0.05
 43
0.5
 44
0.1
 45
0.00000001
 75
     1
 76
     1
 78
     4
 79
     2
140
0.1200000047683716
146
0.7099999189376831
147
0.0599999986588955
176
   256
177
   256
178
     2
284
     4
340
DF
371
    -1
372
    -1
  0
DIMSTYLE
105
EC
330
A
100
AcDbSymbolTableRecord
100
AcDbDimStyleTableRecord
  2
AM_ANSI$SH
 70
     0
  4
 mm
 40
10.0
 41
0.119999997317791
 42
0.05
 43
0.5
 44
0.1
 45
0.00000001
 75
     1
 76
     1
 78
     4
 79
     2
140
0.1200000047683716
146
0.7099999189376831
147
0.0599999986588955
176
   256
177
   256
178
     2
284
     4
340
E0
371
    -1
372
    -1
  0
DIMSTYLE
105
ED
330
A
100
AcDbSymbolTableRecord
100
AcDbDimStyleTableRecord
  2
AM_ANSI$SH$7
 70
     0
  4
 mm
 40
10.0
 41
0.119999997317791
 42
0.05
 43
0.5
 44
0.1
 45
0.00000001
 75
     1
 76
     1
 78
     4
 79
     2
140
0.1200000047683716
146
0.7099999189376831
147
0.0599999986588955
176
   256
177
   256
178
     2
284
     4
340
E0
371
    -1
372
    -1
  0
DIMSTYLE
105
EE
330
A
100
AcDbSymbolTableRecord
100
AcDbDimStyleTableRecord
  2
Architectural (ANSI)
 70
     0
 40
10.0
 41
0.0984251946210861
 43
0.2362204724409449
 44
0.125
 45
0.00000001
 46
0.3937007874015748
 78
     3
 79
     3
140
0.1200000047683716
147
0.031496062992126
171
     1
176
   256
177
   256
178
   256
272
     2
274
     1
276
     2
277
     4
284
    12
285
     4
286
    12
340
D6
371
    -1
372
    -1
  0
DIMSTYLE
105
EF
330
A
100
AcDbSymbolTableRecord
100
AcDbDimStyleTableRecord
  2
Architectural (ANSI)$7
 70
     0
 40
10.0
 41
0.0984251946210861
 43
0.2362204724409449
 44
0.125
 45
0.00000001
 46
0.3937007874015748
 78
     3
 79
     3
140
0.1200000047683716
147
0.031496062992126
171
     1
176
   256
177
   256
178
   256
272
     2
274
     1
276
     2
277
     4
284
    12
285
     4
286
    12
340
D6
371
    -1
372
    -1
  0
DIMSTYLE
105
F0
330
A
100
AcDbSymbolTableRecord
100
AcDbDimStyleTableRecord
  2
Default - Fraction (ANSI)
 70
     0
 40
10.0
 41
0.0984251946210861
 43
0.2362204724409449
 44
0.125
 45
0.00000001
 46
0.3937007874015748
 79
     3
140
0.1200000047683716
147
0.031496062992126
171
     1
176
   256
177
   256
178
   256
272
     2
274
     1
276
     2
277
     5
284
    12
285
     4
286
    12
340
D6
371
    -1
372
    -1
  0
DIMSTYLE
105
F1
330
A
100
AcDbSymbolTableRecord
100
AcDbDimStyleTableRecord
  2
Default - Fraction (ANSI)$7
 70
     0
 40
10.0
 41
0.0984251946210861
 43
0.2362204724409449
 44
0.125
 45
0.00000001
 46
0.3937007874015748
 79
     3
140
0.1200000047683716
147
0.031496062992126
171
     1
176
   256
177
   256
178
   256
272
     2
274
     1
276
     2
277
     5
284
    12
285
     4
286
    12
340
D6
371
    -1
372
    -1
  0
DIMSTYLE
105
F2
330
A
100
AcDbSymbolTableRecord
100
AcDbDimStyleTableRecord
  2
Default - mm (ANSI)
 70
     0
 40
10.0
 41
0.0984251946210861
 42
0.063
 43
0.2362204724409449
 44
0.125
 45
0.00000001
 46
0.3937007874015748
 73
     0
 78
     4
 79
     1
140
0.1200000047683716
143
1.0
144
25.4
147
0.031496062992126
171
     1
176
   256
177
   256
178
   256
179
     1
271
     2
272
     2
274
     1
284
     4
285
     4
340
D6
371
    -1
372
    -1
  0
DIMSTYLE
105
F3
330
A
100
AcDbSymbolTableRecord
100
AcDbDimStyleTableRecord
  2
Default - mm (ANSI)$7
 70
     0
 40
10.0
 41
0.0984251946210861
 42
0.063
 43
0.2362204724409449
 44
0.125
 45
0.00000001
 46
0.3937007874015748
 73
     0
 78
     4
 79
     1
140
0.1200000047683716
143
1.0
144
25.4
147
0.031496062992126
171
     1
176
   256
177
   256
178
   256
179
     1
271
     2
272
     2
274
     1
284
     4
285
     4
340
D6
371
    -1
372
    -1
  0
DIMSTYLE
105
F4
330
A
100
AcDbSymbolTableRecord
100
AcDbDimStyleTableRecord
  2
Default - mm [in] (ANSI)
 70
     0
  4
 in
 40
10.0
 41
0.0984251946210861
 42
0.063
 43
0.25
 44
0.125
 45
0.00000001
 46
0.3937007874015748
 73
     0
 78
     4
 79
     1
140
0.1200000047683716
143
0.03937
144
25.4
147
0.031496062992126
170
     1
171
     3
176
   256
177
   256
178
   256
179
     1
271
     2
272
     2
274
     3
284
     4
285
     4
286
     4
340
D6
371
    -1
372
    -1
  0
DIMSTYLE
105
F5
330
A
100
AcDbSymbolTableRecord
100
AcDbDimStyleTableRecord
  2
Default - mm [in] (ANSI)$7
 70
     0
  4
 in
 40
10.0
 41
0.0984251946210861
 42
0.063
 43
0.25
 44
0.125
 45
0.00000001
 46
0.3937007874015748
 73
     0
 78
     4
 79
     1
140
0.1200000047683716
143
0.03937
144
25.4
147
0.031496062992126
170
     1
171
     3
176
   256
177
   256
178
   256
179
     1
271
     2
272
     2
274
     3
284
     4
285
     4
286
     4
340
D6
371
    -1
372
    -1
  0
DIMSTYLE
105
F6
102
{ACAD_REACTORS
330
54C
330
638
330
722
330
80C
330
90C
330
9F6
330
AE0
330
B9A
330
CA3
330
D95
102
}
330
A
100
AcDbSymbolTableRecord
100
AcDbDimStyleTableRecord
  2
Default (ANSI)
 70
     0
 40
10.0
 41
0.0984251946210861
 43
0.2362204724409449
 44
0.125
 45
0.00000001
 46
0.3937007874015748
 79
     1
140
0.1200000047683716
147
0.031496062992126
171
     1
176
   256
177
   256
178
   256
271
     2
272
     2
274
     1
284
     4
285
     4
340
D6
371
    -1
372
    -1
  0
DIMSTYLE
105
F7
330
A
100
AcDbSymbolTableRecord
100
AcDbDimStyleTableRecord
  2
Default (ANSI)$7
 70
     0
 40
10.0
 41
0.0984251946210861
 43
0.2362204724409449
 44
0.125
 45
0.00000001
 46
0.3937007874015748
 79
     1
140
0.1200000047683716
147
0.031496062992126
171
     1
176
   256
177
   256
178
   256
271
     2
272
     2
274
     1
284
     4
285
     4
340
D6
371
    -1
372
    -1
  0
DIMSTYLE
105
F8
330
A
100
AcDbSymbolTableRecord
100
AcDbDimStyleTableRecord
  2
Alternate (ANSI)
 70
     0
 40
10.0
 41
0.0979999974370003
340
55
342
F9
  0
DIMSTYLE
105
10B
330
A
100
AcDbSymbolTableRecord
100
AcDbDimStyleTableRecord
  2
Datum (ANSI)
 70
     0
 40
10.0
 41
0.0979999974370003
340
55
342
F9
  0
DIMSTYLE
105
11A
330
A
100
AcDbSymbolTableRecord
100
AcDbDimStyleTableRecord
  2
Large (ANSI)
 70
     0
 40
10.0
 41
0.1959999948740005
340
55
342
F9
  0
ENDTAB
  0
TABLE
  2
BLOCK_RECORD
  5
1
330
0
100
AcDbSymbolTable
 70
    14
  0
BLOCK_RECORD
  5
6C
330
1
100
AcDbSymbolTableRecord
100
AcDbBlockTableRecord
  2
*Model_Space
340
6F
 70
     0
280
     1
281
     0
  0
BLOCK_RECORD
  5
68
330
1
100
AcDbSymbolTableRecord
100
AcDbBlockTableRecord
  2
*Paper_Space
340
6B
 70
     0
280
     1
281
     0
  0
BLOCK_RECORD
  5
70
330
1
100
AcDbSymbolTableRecord
100
AcDbBlockTableRecord
  2
*Paper_Space0
340
73
 70
     0
280
     1
281
     0
  0
BLOCK_RECORD
  5
F9
330
1
100
AcDbSymbolTableRecord
100
AcDbBlockTableRecord
  2
_Closed
340
0
 70
     0
280
     1
281
     0
  0
BLOCK_RECORD
  5
100
330
1
100
AcDbSymbolTableRecord
100
AcDbBlockTableRecord
  2
DatumFilled45
340
0
 70
     0
280
     1
281
     0
  0
BLOCK_RECORD
  5
10C
330
1
100
AcDbSymbolTableRecord
100
AcDbBlockTableRecord
  2
Filled-1
340
0
 70
     0
280
     1
281
     0
  0
BLOCK_RECORD
  5
54F
330
1
100
AcDbSymbolTableRecord
100
AcDbBlockTableRecord
  2
*D4
340
0
 70
     0
280
     1
281
     0
  0
BLOCK_RECORD
  5
639
330
1
100
AcDbSymbolTableRecord
100
AcDbBlockTableRecord
  2
*D5
340
0
 70
     0
280
     1
281
     0
  0
BLOCK_RECORD
  5
723
330
1
100
AcDbSymbolTableRecord
100
AcDbBlockTableRecord
  2
*D6
340
0
 70
     0
280
     1
281
     0
  0
BLOCK_RECORD
  5
80D
330
1
100
AcDbSymbolTableRecord
100
AcDbBlockTableRecord
  2
*D7
340
0
 70
     0
280
     1
281
     0
  0
BLOCK_RECORD
  5
90D
330
1
100
AcDbSymbolTableRecord
100
AcDbBlockTableRecord
  2
*D8
340
0
 70
     0
280
     1
281
     0
  0
BLOCK_RECORD
  5
9F7
330
1
100
AcDbSymbolTableRecord
100
AcDbBlockTableRecord
  2
*D9
340
0
 70
     0
280
     1
281
     0
  0
BLOCK_RECORD
  5
AE1
330
1
100
AcDbSymbolTableRecord
100
AcDbBlockTableRecord
  2
*D10
340
0
 70
     0
280
     1
281
     0
  0
BLOCK_RECORD
  5
B9B
330
1
100
AcDbSymbolTableRecord
100
AcDbBlockTableRecord
  2
*D11
340
0
 70
     0
280
     1
281
     0
  0
BLOCK_RECORD
  5
CA4
330
1
100
AcDbSymbolTableRecord
100
AcDbBlockTableRecord
  2
*D12
340
0
 70
     0
280
     1
281
     0
  0
BLOCK_RECORD
  5
D96
330
1
100
AcDbSymbolTableRecord
100
AcDbBlockTableRecord
  2
*D13
340
0
 70
     0
280
     1
281
     0
  0
ENDTAB
  0
ENDSEC
  0
SECTION
  2
BLOCKS
  0
BLOCK
  5
6D
330
6C
100
AcDbEntity
  8
0
100
AcDbBlockBegin
  2
*Model_Space
 70
     0
 10
0.0
 20
0.0
 30
0.0
  3
*Model_Space
  1

  0
ENDBLK
  5
6E
330
6C
100
AcDbEntity
  8
0
100
AcDbBlockEnd
  0
BLOCK
  5
69
330
68
100
AcDbEntity
 67
     1
  8
0
100
AcDbBlockBegin
  2
*Paper_Space
 70
     0
 10
0.0
 20
0.0
 30
0.0
  3
*Paper_Space
  1

  0
ENDBLK
  5
6A
330
68
100
AcDbEntity
 67
     1
  8
0
100
AcDbBlockEnd
  0
BLOCK
  5
71
330
70
100
AcDbEntity
 67
     1
  8
0
100
AcDbBlockBegin
  2
*Paper_Space0
 70
     0
 10
0.0
 20
0.0
 30
0.0
  3
*Paper_Space0
  1

  0
ENDBLK
  5
72
330
70
100
AcDbEntity
 67
     1
  8
0
100
AcDbBlockEnd
  0
BLOCK
  5
FE
330
F9
100
AcDbEntity
  8
0
100
AcDbBlockBegin
  2
_Closed
 70
     0
 10
0.0
 20
0.0
 30
0.0
  3
_Closed
  1

  0
LINE
  5
FA
330
F9
100
AcDbEntity
  8
0
  6
ByBlock
 62
     0
370
    -2
100
AcDbLine
 10
-1.0
 20
0.1666666666666666
 30
0.0
 11
0.0
 21
0.0
 31
0.0
  0
LINE
  5
FB
330
F9
100
AcDbEntity
  8
0
  6
ByBlock
 62
     0
370
    -2
100
AcDbLine
 10
0.0
 20
0.0
 30
0.0
 11
-1.0
 21
-0.1666666666666666
 31
0.0
  0
LINE
  5
FC
330
F9
100
AcDbEntity
  8
0
  6
ByBlock
 62
     0
370
    -2
100
AcDbLine
 10
-1.0
 20
0.1666666666666666
 30
0.0
 11
-1.0
 21
-0.1666666666666666
 31
0.0
  0
LINE
  5
FD
330
F9
100
AcDbEntity
  8
0
  6
ByBlock
 62
     0
370
    -2
100
AcDbLine
 10
0.0
 20
0.0
 30
0.0
 11
-1.0
 21
0.0
 31
0.0
  0
ENDBLK
  5
FF
330
F9
100
AcDbEntity
  8
0
100
AcDbBlockEnd
  0
BLOCK
  5
101
330
100
100
AcDbEntity
  8
0
100
AcDbBlockBegin
  2
DatumFilled45
 70
     0
 10
0.0
 20
0.0
 30
0.0
  3
DatumFilled45
  1

  0
POLYLINE
  5
103
330
100
100
AcDbEntity
  8
0
 62
     0
100
AcDb2dPolyline
 66
     1
 10
0.0
 20
0.0
 30
0.0
 70
   128
  0
VERTEX
  5
104
330
103
100
AcDbEntity
  8
0
 62
     0
100
AcDbVertex
100
AcDb2dVertex
 10
0.0
 20
0.9999999999999998
 30
0.0
  0
VERTEX
  5
105
330
103
100
AcDbEntity
  8
0
 62
     0
100
AcDbVertex
100
AcDb2dVertex
 10
0.0
 20
-0.9999999999999998
 30
0.0
  0
VERTEX
  5
107
330
103
100
AcDbEntity
  8
0
 62
     0
100
AcDbVertex
100
AcDb2dVertex
 10
-0.9999999999999998
 20
0.0
 30
0.0
  0
VERTEX
  5
108
330
103
100
AcDbEntity
  8
0
 62
     0
100
AcDbVertex
100
AcDb2dVertex
 10
0.0
 20
0.9999999999999998
 30
0.0
  0
SEQEND
  5
106
330
103
100
AcDbEntity
  8
0
 62
     0
  0
SOLID
  5
10A
330
100
100
AcDbEntity
  8
0
 62
     0
100
AcDbTrace
 10
0.0
 20
0.9999999999999998
 30
0.0
 11
0.0
 21
-0.9999999999999998
 31
0.0
 12
-0.9999999999999998
 22
0.0
 32
0.0
 13
0.0
 23
0.9999999999999998
 33
0.0
  0
ENDBLK
  5
102
330
100
100
AcDbEntity
  8
0
100
AcDbBlockEnd
  0
BLOCK
  5
10D
330
10C
100
AcDbEntity
  8
0
100
AcDbBlockBegin
  2
Filled-1
 70
     0
 10
0.0
 20
0.0
 30
0.0
  3
Filled-1
  1

  0
LINE
  5
10F
330
10C
100
AcDbEntity
  8
0
 62
     0
100
AcDbLine
 10
-0.9999999999999998
 20
0.0
 30
0.0
 11
0.0
 21
0.0
 31
0.0
  0
POLYLINE
  5
110
330
10C
100
AcDbEntity
  8
0
 62
     0
100
AcDb2dPolyline
 66
     1
 10
0.0
 20
0.0
 30
0.0
 70
   128
  0
VERTEX
  5
111
330
110
100
AcDbEntity
  8
0
 62
     0
100
AcDbVertex
100
AcDb2dVertex
 10
-0.9999999999999998
 20
-0.0994897959183674
 30
0.0
  0
VERTEX
  5
112
330
110
100
AcDbEntity
  8
0
 62
     0
100
AcDbVertex
100
AcDb2dVertex
 10
0.0
 20
0.0
 30
0.0
  0
VERTEX
  5
114
330
110
100
AcDbEntity
  8
0
 62
     0
100
AcDbVertex
100
AcDb2dVertex
 10
-0.9999999999999998
 20
0.0994897959183674
 30
0.0
  0
VERTEX
  5
115
330
110
100
AcDbEntity
  8
0
 62
     0
100
AcDbVertex
100
AcDb2dVertex
 10
-0.9999999999999998
 20
-0.0994897959183674
 30
0.0
  0
SEQEND
  5
113
330
110
100
AcDbEntity
  8
0
 62
     0
  0
SOLID
  5
116
330
10C
100
AcDbEntity
  8
0
 62
     0
100
AcDbTrace
 10
-0.9999999999999998
 20
-0.0994897959183674
 30
0.0
 11
0.0
 21
0.0
 31
0.0
 12
-0.9999999999999998
 22
0.0994897959183674
 32
0.0
 13
-0.9999999999999998
 23
-0.0994897959183674
 33
0.0
  0
LINE
  5
117
330
10C
100
AcDbEntity
  8
0
 62
     0
100
AcDbLine
 10
-0.9999999999999998
 20
-0.0994897959183674
 30
0.0
 11
0.0
 21
0.0
 31
0.0
  0
LINE
  5
118
330
10C
100
AcDbEntity
  8
0
 62
     0
100
AcDbLine
 10
0.0
 20
0.0
 30
0.0
 11
-0.9999999999999998
 21
0.0994897959183674
 31
0.0
  0
LINE
  5
119
330
10C
100
AcDbEntity
  8
0
 62
     0
100
AcDbLine
 10
-0.9999999999999998
 20
0.0994897959183674
 30
0.0
 11
-0.9999999999999998
 21
-0.0994897959183674
 31
0.0
  0
ENDBLK
  5
10E
330
10C
100
AcDbEntity
  8
0
100
AcDbBlockEnd
  0
BLOCK
  5
550
330
54F
100
AcDbEntity
  8
0
100
AcDbBlockBegin
  2
*D4
 70
     1
 10
0.0
 20
0.0
 30
0.0
  3
*D4
  1

  0
LINE
  5
62E
330
54F
100
AcDbEntity
  8
Dimension (ANSI)
440
 16777216
100
AcDbLine
 10
20.13226030152917
 20
64.26566114687402
 30
0.0
 11
20.13226030152917
 21
78.4210862563926
 31
0.0
  0
LINE
  5
62F
330
54F
100
AcDbEntity
  8
Dimension (ANSI)
440
 16777216
100
AcDbLine
 10
64.13226030152917
 20
64.26566114687402
 30
0.0
 11
64.13226030152917
 21
78.4210862563926
 31
0.0
  0
LINE
  5
630
330
54F
100
AcDbEntity
  8
Dimension (ANSI)
440
 16777216
100
AcDbLine
 10
21.11651224774004
 20
77.1710862563926
 30
0.0
 11
39.81501619329548
 21
77.1710862563926
 31
0.0
  0
LINE
  5
631
330
54F
100
AcDbEntity
  8
Dimension (ANSI)
440
 16777216
100
AcDbLine
 10
63.14800835531831
 20
77.1710862563926
 30
0.0
 11
44.44950440976286
 21
77.1710862563926
 31
0.0
  0
SOLID
  5
632
330
54F
100
AcDbEntity
  8
Dimension (ANSI)
440
 16777216
100
AcDbTrace
 10
21.11651224774004
 20
77.33512824742774
 30
0.0
 11
21.11651224774004
 21
77.00704426535745
 31
0.0
 12
20.13226030152917
 22
77.1710862563926
 32
0.0
 13
20.13226030152917
 23
77.1710862563926
 33
0.0
  0
SOLID
  5
633
330
54F
100
AcDbEntity
  8
Dimension (ANSI)
440
 16777216
100
AcDbTrace
 10
63.14800835531831
 20
77.33512824742774
 30
0.0
 11
63.14800835531831
 21
77.00704426535745
 31
0.0
 12
64.13226030152917
 22
77.1710862563926
 32
0.0
 13
64.13226030152917
 23
77.1710862563926
 33
0.0
  0
MTEXT
  5
634
330
54F
100
AcDbEntity
  8
Dimension (ANSI)
440
 16777216
100
AcDbMText
 10
40.12997682321674
 20
77.79566653238058
 30
0.0
 40
1.200000047683715
 41
0.0
 46
0.0
 71
     1
 72
     1
  1
\A1;44.00
  7
Note Text (ANSI)
 73
     1
 44
1.0
  0
POINT
  5
635
330
54F
100
AcDbEntity
  8
Defpoints
 62
     0
440
 16777216
100
AcDbPoint
 10
20.13226030152917
 20
63.64066114687402
 30
0.0
  0
POINT
  5
636
330
54F
100
AcDbEntity
  8
Defpoints
 62
     0
440
 16777216
100
AcDbPoint
 10
64.13226030152917
 20
63.64066114687402
 30
0.0
  0
POINT
  5
637
330
54F
100
AcDbEntity
  8
Defpoints
 62
     0
440
 16777216
100
AcDbPoint
 10
64.13226030152917
 20
77.1710862563926
 30
0.0
  0
ENDBLK
  5
551
330
54F
100
AcDbEntity
  8
0
100
AcDbBlockEnd
  0
BLOCK
  5
63A
330
639
100
AcDbEntity
  8
0
100
AcDbBlockBegin
  2
*D5
 70
     1
 10
0.0
 20
0.0
 30
0.0
  3
*D5
  1

  0
LINE
  5
718
330
639
100
AcDbEntity
  8
Dimension (ANSI)
440
 16777216
100
AcDbLine
 10
20.13226030152917
 20
64.26566114687402
 30
0.0
 11
20.13226030152917
 21
69.69755736853809
 31
0.0
  0
LINE
  5
719
330
639
100
AcDbEntity
  8
Dimension (ANSI)
440
 16777216
100
AcDbLine
 10
21.00726030152918
 20
65.13554949452232
 30
0.0
 11
21.00726030152918
 21
69.69755736853809
 31
0.0
  0
LINE
  5
71A
330
639
100
AcDbEntity
  8
Dimension (ANSI)
440
 16777216
100
AcDbLine
 10
21.99151224774004
 20
68.44755736853809
 30
0.0
 11
22.9757641939509
 21
68.44755736853809
 31
0.0
  0
LINE
  5
71B
330
639
100
AcDbEntity
  8
Dimension (ANSI)
440
 16777216
100
AcDbLine
 10
19.14800835531831
 20
68.44755736853809
 30
0.0
 11
18.16375640910745
 21
68.44755736853809
 31
0.0
  0
SOLID
  5
71C
330
639
100
AcDbEntity
  8
Dimension (ANSI)
440
 16777216
100
AcDbTrace
 10
21.99151224774004
 20
68.61159935957323
 30
0.0
 11
21.99151224774004
 21
68.28351537750293
 31
0.0
 12
21.00726030152918
 22
68.44755736853809
 32
0.0
 13
21.00726030152918
 23
68.44755736853809
 33
0.0
  0
SOLID
  5
71D
330
639
100
AcDbEntity
  8
Dimension (ANSI)
440
 16777216
100
AcDbTrace
 10
19.14800835531831
 20
68.61159935957323
 30
0.0
 11
19.14800835531831
 21
68.28351537750293
 31
0.0
 12
20.13226030152917
 22
68.44755736853809
 32
0.0
 13
20.13226030152917
 23
68.44755736853809
 33
0.0
  0
MTEXT
  5
71E
330
639
100
AcDbEntity
  8
Dimension (ANSI)
440
 16777216
100
AcDbMText
 10
14.7726371811912
 20
69.07495832964343
 30
0.0
 40
1.200000047683715
 41
0.0
 46
0.0
 71
     1
 72
     1
  1
\A1;0.88
  7
Note Text (ANSI)
 73
     1
 44
1.0
  0
POINT
  5
71F
330
639
100
AcDbEntity
  8
Defpoints
 62
     0
440
 16777216
100
AcDbPoint
 10
20.13226030152917
 20
63.64066114687402
 30
0.0
  0
POINT
  5
720
330
639
100
AcDbEntity
  8
Defpoints
 62
     0
440
 16777216
100
AcDbPoint
 10
21.00726030152918
 20
64.51054949452232
 30
0.0
  0
POINT
  5
721
330
639
100
AcDbEntity
  8
Defpoints
 62
     0
440
 16777216
100
AcDbPoint
 10
21.00726030152918
 20
68.44755736853809
 30
0.0
  0
ENDBLK
  5
63B
330
639
100
AcDbEntity
  8
0
100
AcDbBlockEnd
  0
BLOCK
  5
724
330
723
100
AcDbEntity
  8
0
100
AcDbBlockBegin
  2
*D6
 70
     1
 10
0.0
 20
0.0
 30
0.0
  3
*D6
  1

  0
LINE
  5
802
330
723
100
AcDbEntity
  8
Dimension (ANSI)
440
 16777216
100
AcDbLine
 10
21.00726030152918
 20
65.13554949452232
 30
0.0
 11
21.00726030152918
 21
74.42196681735698
 31
0.0
  0
LINE
  5
803
330
723
100
AcDbEntity
  8
Dimension (ANSI)
440
 16777216
100
AcDbLine
 10
63.25726030152917
 20
65.13554949452234
 30
0.0
 11
63.25726030152917
 21
74.42196681735698
 31
0.0
  0
LINE
  5
804
330
723
100
AcDbEntity
  8
Dimension (ANSI)
440
 16777216
100
AcDbLine
 10
21.99151224774004
 20
73.17196681735698
 30
0.0
 11
39.82468711369789
 21
73.17196681735698
 31
0.0
  0
LINE
  5
805
330
723
100
AcDbEntity
  8
Dimension (ANSI)
440
 16777216
100
AcDbLine
 10
62.2730083553183
 20
73.17196681735698
 30
0.0
 11
44.43983348936049
 21
73.17196681735698
 31
0.0
  0
SOLID
  5
806
330
723
100
AcDbEntity
  8
Dimension (ANSI)
440
 16777216
100
AcDbTrace
 10
21.99151224774004
 20
73.33600880839212
 30
0.0
 11
21.99151224774004
 21
73.00792482632182
 31
0.0
 12
21.00726030152918
 22
73.17196681735698
 32
0.0
 13
21.00726030152918
 23
73.17196681735698
 33
0.0
  0
SOLID
  5
807
330
723
100
AcDbEntity
  8
Dimension (ANSI)
440
 16777216
100
AcDbTrace
 10
62.2730083553183
 20
73.33600880839212
 30
0.0
 11
62.2730083553183
 21
73.00792482632182
 31
0.0
 12
63.25726030152917
 22
73.17196681735698
 32
0.0
 13
63.25726030152917
 23
73.17196681735698
 33
0.0
  0
MTEXT
  5
808
330
723
100
AcDbEntity
  8
Dimension (ANSI)
440
 16777216
100
AcDbMText
 10
40.13964774361914
 20
73.79695004836172
 30
0.0
 40
1.200000047683715
 41
0.0
 46
0.0
 71
     1
 72
     1
  1
\A1;42.25
  7
Note Text (ANSI)
 73
     1
 44
1.0
  0
POINT
  5
809
330
723
100
AcDbEntity
  8
Defpoints
 62
     0
440
 16777216
100
AcDbPoint
 10
21.00726030152918
 20
64.51054949452232
 30
0.0
  0
POINT
  5
80A
330
723
100
AcDbEntity
  8
Defpoints
 62
     0
440
 16777216
100
AcDbPoint
 10
63.25726030152917
 20
64.51054949452234
 30
0.0
  0
POINT
  5
80B
330
723
100
AcDbEntity
  8
Defpoints
 62
     0
440
 16777216
100
AcDbPoint
 10
63.25726030152917
 20
73.17196681735698
 30
0.0
  0
ENDBLK
  5
725
330
723
100
AcDbEntity
  8
0
100
AcDbBlockEnd
  0
BLOCK
  5
80E
330
80D
100
AcDbEntity
  8
0
100
AcDbBlockBegin
  2
*D7
 70
     1
 10
0.0
 20
0.0
 30
0.0
  3
*D7
  1

  0
LINE
  5
901
330
80D
100
AcDbEntity
  8
Dimension (ANSI)
440
 16777216
100
AcDbLine
 10
19.7206486491775
 20
38.97404949452234
 30
0.0
 11
17.12604430264305
 21
38.97404949452234
 31
0.0
  0
LINE
  5
902
330
80D
100
AcDbEntity
  8
Dimension (ANSI)
440
 16777216
100
AcDbLine
 10
18.85076030152916
 20
39.84904949452234
 30
0.0
 11
17.12604430264305
 21
39.84904949452234
 31
0.0
  0
LINE
  5
903
330
80D
100
AcDbEntity
  8
Dimension (ANSI)
440
 16777216
100
AcDbLine
 10
18.37604430264305
 20
40.8333014407332
 30
0.0
 11
18.37604430264305
 21
41.81755338694406
 31
0.0
  0
LINE
  5
904
330
80D
100
AcDbEntity
  8
Dimension (ANSI)
440
 16777216
100
AcDbLine
 10
18.37604430264305
 20
37.98979754831148
 30
0.0
 11
18.37604430264305
 21
36.10407283570094
 31
0.0
  0
LINE
  5
905
330
80D
100
AcDbEntity
  8
Dimension (ANSI)
440
 16777216
100
AcDbLine
 10
18.37604430264305
 20
36.10407283570094
 30
0.0
 11
17.39179235643219
 21
36.10407283570094
 31
0.0
  0
SOLID
  5
906
330
80D
100
AcDbEntity
  8
Dimension (ANSI)
440
 16777216
100
AcDbTrace
 10
18.21200231160791
 20
40.8333014407332
 30
0.0
 11
18.5400862936782
 21
40.8333014407332
 31
0.0
 12
18.37604430264305
 22
39.84904949452234
 32
0.0
 13
18.37604430264305
 23
39.84904949452234
 33
0.0
  0
SOLID
  5
907
330
80D
100
AcDbEntity
  8
Dimension (ANSI)
440
 16777216
100
AcDbTrace
 10
18.21200231160791
 20
37.98979754831148
 30
0.0
 11
18.5400862936782
 21
37.98979754831148
 31
0.0
 12
18.37604430264305
 22
38.97404949452234
 32
0.0
 13
18.37604430264305
 23
38.97404949452234
 33
0.0
  0
MTEXT
  5
908
330
80D
100
AcDbEntity
  8
Dimension (ANSI)
440
 16777216
100
AcDbMText
 10
14.00067312851593
 20
36.73147379680629
 30
0.0
 40
1.200000047683715
 41
0.0
 46
0.0
 71
     1
 72
     1
  1
\A1;0.88
  7
Note Text (ANSI)
 73
     1
 44
1.0
  0
POINT
  5
909
330
80D
100
AcDbEntity
  8
Defpoints
 62
     0
440
 16777216
100
AcDbPoint
 10
20.3456486491775
 20
38.97404949452234
 30
0.0
  0
POINT
  5
90A
330
80D
100
AcDbEntity
  8
Defpoints
 62
     0
440
 16777216
100
AcDbPoint
 10
19.47576030152916
 20
39.84904949452234
 30
0.0
  0
POINT
  5
90B
330
80D
100
AcDbEntity
  8
Defpoints
 62
     0
440
 16777216
100
AcDbPoint
 10
18.37604430264305
 20
39.84904949452234
 30
0.0
  0
ENDBLK
  5
80F
330
80D
100
AcDbEntity
  8
0
100
AcDbBlockEnd
  0
BLOCK
  5
90E
330
90D
100
AcDbEntity
  8
0
100
AcDbBlockBegin
  2
*D8
 70
     1
 10
0.0
 20
0.0
 30
0.0
  3
*D8
  1

  0
LINE
  5
9EC
330
90D
100
AcDbEntity
  8
Dimension (ANSI)
440
 16777216
100
AcDbLine
 10
18.85076030152916
 20
39.84904949452234
 30
0.0
 11
14.28875242751343
 21
39.84904949452235
 31
0.0
  0
LINE
  5
9ED
330
90D
100
AcDbEntity
  8
Dimension (ANSI)
440
 16777216
100
AcDbLine
 10
18.85076030152918
 20
62.97904949452234
 30
0.0
 11
14.28875242751344
 21
62.97904949452235
 31
0.0
  0
LINE
  5
9EE
330
90D
100
AcDbEntity
  8
Dimension (ANSI)
440
 16777216
100
AcDbLine
 10
15.53875242751343
 20
40.83330144073321
 30
0.0
 11
15.53875242751344
 21
50.47410563359632
 31
0.0
  0
LINE
  5
9EF
330
90D
100
AcDbEntity
  8
Dimension (ANSI)
440
 16777216
100
AcDbLine
 10
15.53875242751344
 20
61.99479754831148
 30
0.0
 11
15.53875242751344
 21
52.35399335544833
 31
0.0
  0
SOLID
  5
9F0
330
90D
100
AcDbEntity
  8
Dimension (ANSI)
440
 16777216
100
AcDbTrace
 10
15.37471043647829
 20
40.83330144073321
 30
0.0
 11
15.70279441854857
 21
40.83330144073321
 31
0.0
 12
15.53875242751343
 22
39.84904949452235
 32
0.0
 13
15.53875242751343
 23
39.84904949452235
 33
0.0
  0
SOLID
  5
9F1
330
90D
100
AcDbEntity
  8
Dimension (ANSI)
440
 16777216
100
AcDbTrace
 10
15.3747104364783
 20
61.99479754831148
 30
0.0
 11
15.70279441854858
 21
61.99479754831148
 31
0.0
 12
15.53875242751344
 22
62.97904949452235
 32
0.0
 13
15.53875242751344
 23
62.97904949452235
 33
0.0
  0
MTEXT
  5
9F2
330
90D
100
AcDbEntity
  8
Dimension (ANSI)
440
 16777216
100
AcDbMText
 10
13.57757036091117
 20
52.03903272552707
 30
0.0
 40
1.200000047683715
 41
0.0
 46
0.0
 71
     1
 72
     1
  1
\A1;23.13
  7
Note Text (ANSI)
 73
     1
 44
1.0
  0
POINT
  5
9F3
330
90D
100
AcDbEntity
  8
Defpoints
 62
     0
440
 16777216
100
AcDbPoint
 10
19.47576030152916
 20
39.84904949452234
 30
0.0
  0
POINT
  5
9F4
330
90D
100
AcDbEntity
  8
Defpoints
 62
     0
440
 16777216
100
AcDbPoint
 10
19.47576030152918
 20
62.97904949452234
 30
0.0
  0
POINT
  5
9F5
330
90D
100
AcDbEntity
  8
Defpoints
 62
     0
440
 16777216
100
AcDbPoint
 10
15.53875242751344
 20
62.97904949452235
 30
0.0
  0
ENDBLK
  5
90F
330
90D
100
AcDbEntity
  8
0
100
AcDbBlockEnd
  0
BLOCK
  5
9F8
330
9F7
100
AcDbEntity
  8
0
100
AcDbBlockBegin
  2
*D9
 70
     1
 10
0.0
 20
0.0
 30
0.0
  3
*D9
  1

  0
LINE
  5
AD6
330
9F7
100
AcDbEntity
  8
Dimension (ANSI)
440
 16777216
100
AcDbLine
 10
19.7206486491775
 20
38.97404949452234
 30
0.0
 11
8.072026601933412
 21
38.97404949452235
 31
0.0
  0
LINE
  5
AD7
330
9F7
100
AcDbEntity
  8
Dimension (ANSI)
440
 16777216
100
AcDbLine
 10
19.7206486491775
 20
63.85404949452233
 30
0.0
 11
8.072026601933417
 21
63.85404949452234
 31
0.0
  0
LINE
  5
AD8
330
9F7
100
AcDbEntity
  8
Dimension (ANSI)
440
 16777216
100
AcDbLine
 10
9.322026601933412
 20
39.95830144073321
 30
0.0
 11
9.322026601933414
 21
50.47168790349573
 31
0.0
  0
LINE
  5
AD9
330
9F7
100
AcDbEntity
  8
Dimension (ANSI)
440
 16777216
100
AcDbLine
 10
9.322026601933417
 20
62.86979754831148
 30
0.0
 11
9.322026601933416
 21
52.35641108554894
 31
0.0
  0
SOLID
  5
ADA
330
9F7
100
AcDbEntity
  8
Dimension (ANSI)
440
 16777216
100
AcDbTrace
 10
9.157984610898269
 20
39.95830144073321
 30
0.0
 11
9.486068592968555
 21
39.95830144073321
 31
0.0
 12
9.322026601933412
 22
38.97404949452235
 32
0.0
 13
9.322026601933412
 23
38.97404949452235
 33
0.0
  0
SOLID
  5
ADB
330
9F7
100
AcDbEntity
  8
Dimension (ANSI)
440
 16777216
100
AcDbTrace
 10
9.157984610898274
 20
62.86979754831148
 30
0.0
 11
9.48606859296856
 21
62.86979754831148
 31
0.0
 12
9.322026601933417
 22
63.85404949452234
 32
0.0
 13
9.322026601933417
 23
63.85404949452234
 33
0.0
  0
MTEXT
  5
ADC
330
9F7
100
AcDbEntity
  8
Dimension (ANSI)
440
 16777216
100
AcDbMText
 10
7.343920424626958
 20
52.04145045562768
 30
0.0
 40
1.200000047683715
 41
0.0
 46
0.0
 71
     1
 72
     1
  1
\A1;24.88
  7
Note Text (ANSI)
 73
     1
 44
1.0
  0
POINT
  5
ADD
330
9F7
100
AcDbEntity
  8
Defpoints
 62
     0
440
 16777216
100
AcDbPoint
 10
20.3456486491775
 20
38.97404949452234
 30
0.0
  0
POINT
  5
ADE
330
9F7
100
AcDbEntity
  8
Defpoints
 62
     0
440
 16777216
100
AcDbPoint
 10
20.34564864917751
 20
63.85404949452233
 30
0.0
  0
POINT
  5
ADF
330
9F7
100
AcDbEntity
  8
Defpoints
 62
     0
440
 16777216
100
AcDbPoint
 10
9.322026601933417
 20
63.85404949452234
 30
0.0
  0
ENDBLK
  5
9F9
330
9F7
100
AcDbEntity
  8
0
100
AcDbBlockEnd
  0
BLOCK
  5
AE2
330
AE1
100
AcDbEntity
  8
0
100
AcDbBlockBegin
  2
*D10
 70
     1
 10
0.0
 20
0.0
 30
0.0
  3
*D10
  1

  0
LINE
  5
B92
330
AE1
100
AcDbEntity
  8
Dimension (ANSI)
440
 16777216
100
AcDbLine
 10
66.9052305885683
 20
36.8617291243741
 30
0.0
 11
65.56323393893814
 21
36.8617291243741
 31
0.0
  0
LINE
  5
B93
330
AE1
100
AcDbEntity
  8
Dimension (ANSI)
440
 16777216
100
AcDbLine
 10
65.56323393893814
 20
36.8617291243741
 30
0.0
 11
64.03069488889527
 21
38.84708795414147
 31
0.0
  0
MTEXT
  5
B94
330
AE1
100
AcDbEntity
  8
Dimension (ANSI)
440
 16777216
100
AcDbMText
 10
67.22019121848958
 20
36.8617291243741
 30
0.0
 40
1.200000047683715
 41
0.0
 46
0.0
 71
     4
 72
     1
  1
\A1;∅0.563{\P(6 PL.)}
  7
Note Text (ANSI)
 73
     1
 44
1.0
  0
SOLID
  5
B95
330
AE1
100
AcDbEntity
  8
Dimension (ANSI)
440
 16777216
100
AcDbTrace
 10
64.16054953104435
 20
38.94732540590033
 30
0.0
 11
63.90084024674618
 21
38.74685050238263
 31
0.0
 12
63.42927017834217
 22
39.62621580703597
 32
0.0
 13
63.42927017834217
 23
39.62621580703597
 33
0.0
  0
LINE
  5
B96
330
AE1
100
AcDbEntity
  8
Dimension (ANSI)
440
 16777216
100
AcDbLine
 10
62.35726030152917
 20
39.84904949452234
 30
0.0
 11
64.15726030152916
 21
39.84904949452234
 31
0.0
  0
LINE
  5
B97
330
AE1
100
AcDbEntity
  8
Dimension (ANSI)
440
 16777216
100
AcDbLine
 10
63.25726030152917
 20
38.94904949452234
 30
0.0
 11
63.25726030152917
 21
40.74904949452234
 31
0.0
  0
POINT
  5
B98
330
AE1
100
AcDbEntity
  8
Defpoints
 62
     0
440
 16777216
100
AcDbPoint
 10
63.42927017834217
 20
39.62621580703597
 30
0.0
  0
POINT
  5
B99
330
AE1
100
AcDbEntity
  8
Defpoints
 62
     0
440
 16777216
100
AcDbPoint
 10
63.08525042471615
 20
40.0718831820087
 30
0.0
  0
ENDBLK
  5
AE3
330
AE1
100
AcDbEntity
  8
0
100
AcDbBlockEnd
  0
BLOCK
  5
B9C
330
B9B
100
AcDbEntity
  8
0
100
AcDbBlockBegin
  2
*D11
 70
     1
 10
0.0
 20
0.0
 30
0.0
  3
*D11
  1

  0
LINE
  5
C9A
330
B9B
100
AcDbEntity
  8
Dimension (ANSI)
440
 16777216
100
AcDbLine
 10
55.8081773077967
 20
89.62280125130172
 30
0.0
 11
55.8081773077967
 21
88.63854930509086
 31
0.0
  0
LINE
  5
C9B
330
B9B
100
AcDbEntity
  8
Dimension (ANSI)
440
 16777216
100
AcDbLine
 10
55.8081773077967
 20
92.46630514372348
 30
0.0
 11
55.8081773077967
 21
95.70202987301861
 31
0.0
  0
LINE
  5
C9C
330
B9B
100
AcDbEntity
  8
Dimension (ANSI)
440
 16777216
100
AcDbLine
 10
55.8081773077967
 20
95.70202987301861
 30
0.0
 11
56.79242925400756
 21
95.70202987301861
 31
0.0
  0
SOLID
  5
C9D
330
B9B
100
AcDbEntity
  8
Dimension (ANSI)
440
 16777216
100
AcDbTrace
 10
55.64413531676155
 20
89.62280125130172
 30
0.0
 11
55.97221929883184
 21
89.62280125130172
 31
0.0
 12
55.8081773077967
 22
90.60705319751258
 32
0.0
 13
55.8081773077967
 23
90.60705319751258
 33
0.0
  0
SOLID
  5
C9E
330
B9B
100
AcDbEntity
  8
Dimension (ANSI)
440
 16777216
100
AcDbTrace
 10
55.64413531676155
 20
92.46630514372348
 30
0.0
 11
55.97221929883184
 21
92.46630514372348
 31
0.0
 12
55.8081773077967
 22
91.48205319751262
 32
0.0
 13
55.8081773077967
 23
91.48205319751262
 33
0.0
  0
MTEXT
  5
C9F
330
B9B
100
AcDbEntity
  8
Dimension (ANSI)
440
 16777216
100
AcDbMText
 10
58.69261491988797
 20
95.70202987301863
 30
0.0
 40
1.200000047683715
 41
0.0
 46
0.0
 71
     5
 72
     1
  1
\A1;0.88{\PTYP.}
  7
Note Text (ANSI)
 73
     1
 44
1.0
  0
POINT
  5
CA0
330
B9B
100
AcDbEntity
  8
Defpoints
 62
     0
440
 16777216
100
AcDbPoint
 10
58.69261491988797
 20
91.48205319751262
 30
0.0
  0
POINT
  5
CA1
330
B9B
100
AcDbEntity
  8
Defpoints
 62
     0
440
 16777216
100
AcDbPoint
 10
58.68898206503857
 20
90.60705319751258
 30
0.0
  0
POINT
  5
CA2
330
B9B
100
AcDbEntity
  8
Defpoints
 62
     0
440
 16777216
100
AcDbPoint
 10
55.8081773077967
 20
90.60705319751258
 30
0.0
  0
ENDBLK
  5
B9D
330
B9B
100
AcDbEntity
  8
0
100
AcDbBlockEnd
  0
BLOCK
  5
CA5
330
CA4
100
AcDbEntity
  8
0
100
AcDbBlockBegin
  2
*D12
 70
     1
 10
0.0
 20
0.0
 30
0.0
  3
*D12
  1

  0
LINE
  5
D8A
330
CA4
100
AcDbEntity
  8
Dimension (ANSI)
440
 16777216
100
AcDbLine
 10
83.08641533415174
 20
62.48739647164943
 30
0.0
 11
82.10216338794088
 21
62.48739647164943
 31
0.0
  0
LINE
  5
D8B
330
CA4
100
AcDbEntity
  8
Dimension (ANSI)
440
 16777216
100
AcDbLine
 10
85.92991922657347
 20
62.48739647164943
 30
0.0
 11
87.46821345049326
 21
62.48739647164943
 31
0.0
  0
SOLID
  5
D8C
330
CA4
100
AcDbEntity
  8
Dimension (ANSI)
440
 16777216
100
AcDbTrace
 10
83.08641533415174
 20
62.65143846268458
 30
0.0
 11
83.08641533415174
 21
62.32335448061429
 31
0.0
 12
84.0706672803626
 22
62.48739647164943
 32
0.0
 13
84.0706672803626
 23
62.48739647164943
 33
0.0
  0
SOLID
  5
D8D
330
CA4
100
AcDbEntity
  8
Dimension (ANSI)
440
 16777216
100
AcDbTrace
 10
85.92991922657347
 20
62.65143846268458
 30
0.0
 11
85.92991922657347
 21
62.32335448061429
 31
0.0
 12
84.94566728036261
 22
62.48739647164943
 32
0.0
 13
84.94566728036261
 23
62.48739647164943
 33
0.0
  0
MTEXT
  5
D8E
330
CA4
100
AcDbEntity
  8
Dimension (ANSI)
440
 16777216
100
AcDbMText
 10
87.78317408041452
 20
62.48739647164943
 30
0.0
 40
1.200000047683715
 41
0.0
 46
0.0
 71
     4
 72
     1
  1
\A1;0.88{\PTYP.}
  7
Note Text (ANSI)
 73
     1
 44
1.0
  0
POINT
  5
D8F
330
CA4
100
AcDbEntity
  8
Defpoints
 62
     0
440
 16777216
100
AcDbPoint
 10
84.94566728036261
 20
62.48739647164943
 30
0.0
  0
POINT
  5
D90
330
CA4
100
AcDbEntity
  8
Defpoints
 62
     0
440
 16777216
100
AcDbPoint
 10
84.0706672803626
 20
62.53697005051492
 30
0.0
  0
POINT
  5
D91
330
CA4
100
AcDbEntity
  8
Defpoints
 62
     0
440
 16777216
100
AcDbPoint
 10
84.0706672803626
 20
62.48739647164943
 30
0.0
  0
ENDBLK
  5
CA6
330
CA4
100
AcDbEntity
  8
0
100
AcDbBlockEnd
  0
BLOCK
  5
D97
330
D96
100
AcDbEntity
  8
0
100
AcDbBlockBegin
  2
*D13
 70
     1
 10
0.0
 20
0.0
 30
0.0
  3
*D13
  1

  0
LINE
  5
E75
330
D96
100
AcDbEntity
  8
Dimension (ANSI)
440
 16777216
100
AcDbLine
 10
21.00726030152918
 20
65.13554949452232
 30
0.0
 11
21.00726030152918
 21
69.69755736853809
 31
0.0
  0
LINE
  5
E76
330
D96
100
AcDbEntity
  8
Dimension (ANSI)
440
 16777216
100
AcDbLine
 10
42.13226030152918
 20
65.13554949452232
 30
0.0
 11
42.13226030152918
 21
69.69755736853809
 31
0.0
  0
LINE
  5
E77
330
D96
100
AcDbEntity
  8
Dimension (ANSI)
440
 16777216
100
AcDbLine
 10
21.99151224774004
 20
68.44755736853809
 30
0.0
 11
29.29361760500566
 21
68.44755736853809
 31
0.0
  0
LINE
  5
E78
330
D96
100
AcDbEntity
  8
Dimension (ANSI)
440
 16777216
100
AcDbLine
 10
41.14800835531831
 20
68.44755736853809
 30
0.0
 11
33.8459029980527
 21
68.44755736853809
 31
0.0
  0
SOLID
  5
E79
330
D96
100
AcDbEntity
  8
Dimension (ANSI)
440
 16777216
100
AcDbTrace
 10
21.99151224774004
 20
68.61159935957323
 30
0.0
 11
21.99151224774004
 21
68.28351537750293
 31
0.0
 12
21.00726030152918
 22
68.44755736853809
 32
0.0
 13
21.00726030152918
 23
68.44755736853809
 33
0.0
  0
SOLID
  5
E7A
330
D96
100
AcDbEntity
  8
Dimension (ANSI)
440
 16777216
100
AcDbTrace
 10
41.14800835531831
 20
68.61159935957323
 30
0.0
 11
41.14800835531831
 21
68.28351537750293
 31
0.0
 12
42.13226030152918
 22
68.44755736853809
 32
0.0
 13
42.13226030152918
 23
68.44755736853809
 33
0.0
  0
MTEXT
  5
E7B
330
D96
100
AcDbEntity
  8
Dimension (ANSI)
440
 16777216
100
AcDbMText
 10
29.60857823492692
 20
69.07254059954283
 30
0.0
 40
1.200000047683715
 41
0.0
 46
0.0
 71
     1
 72
     1
  1
\A1;21.13
  7
Note Text (ANSI)
 73
     1
 44
1.0
  0
POINT
  5
E7C
330
D96
100
AcDbEntity
  8
Defpoints
 62
     0
440
 16777216
100
AcDbPoint
 10
21.00726030152918
 20
64.51054949452232
 30
0.0
  0
POINT
  5
E7D
330
D96
100
AcDbEntity
  8
Defpoints
 62
     0
440
 16777216
100
AcDbPoint
 10
42.13226030152918
 20
64.51054949452232
 30
0.0
  0
POINT
  5
E7E
330
D96
100
AcDbEntity
  8
Defpoints
 62
     0
440
 16777216
100
AcDbPoint
 10
42.13226030152918
 20
68.44755736853809
 30
0.0
  0
ENDBLK
  5
D98
330
D96
100
AcDbEntity
  8
0
100
AcDbBlockEnd
  0
ENDSEC
  0
SECTION
  2
ENTITIES
  0
CIRCLE
  5
11B
330
6C
100
AcDbEntity
  8
Visible (ANSI)
100
AcDbCircle
 10
42.13226030152919
 20
39.84904949452232
 30
0.0
 40
0.2814999999999999
  0
CIRCLE
  5
11C
330
6C
100
AcDbEntity
  8
Visible (ANSI)
100
AcDbCircle
 10
42.13226030152918
 20
62.97904949452235
 30
0.0
 40
0.2814999999999999
  0
CIRCLE
  5
11D
330
6C
100
AcDbEntity
  8
Visible (ANSI)
100
AcDbCircle
 10
63.25726030152917
 20
62.97904949452235
 30
0.0
 40
0.2814999999999999
  0
CIRCLE
  5
11E
330
6C
100
AcDbEntity
  8
Visible (ANSI)
100
AcDbCircle
 10
21.00726030152918
 20
62.97904949452235
 30
0.0
 40
0.2814999999999999
  0
CIRCLE
  5
11F
330
6C
100
AcDbEntity
  8
Visible (ANSI)
100
AcDbCircle
 10
21.00726030152916
 20
39.84904949452235
 30
0.0
 40
0.2814999999999999
  0
CIRCLE
  5
120
330
6C
100
AcDbEntity
  8
Visible (ANSI)
100
AcDbCircle
 10
63.25726030152917
 20
39.84904949452235
 30
0.0
 40
0.2814999999999999
  0
LINE
  5
121
330
6C
100
AcDbEntity
  8
Visible (ANSI)
100
AcDbLine
 10
64.13226030152917
 20
63.64066114687402
 30
0.0
 11
64.1322603015292
 21
39.18743784217067
 31
0.0
  0
LINE
  5
122
330
6C
100
AcDbEntity
  8
Visible (ANSI)
100
AcDbLine
 10
20.3456486491775
 20
63.85404949452235
 30
0.0
 11
63.91887195388086
 21
63.85404949452235
 31
0.0
  0
LINE
  5
123
330
6C
100
AcDbEntity
  8
Visible (ANSI)
100
AcDbLine
 10
20.13226030152919
 20
39.18743784217066
 30
0.0
 11
20.13226030152918
 21
63.64066114687402
 31
0.0
  0
LINE
  5
124
330
6C
100
AcDbEntity
  8
Visible (ANSI)
100
AcDbLine
 10
63.91887195388086
 20
38.97404949452234
 30
0.0
 11
20.3456486491775
 21
38.97404949452234
 31
0.0
  0
LINE
  5
125
330
6C
100
AcDbEntity
  8
Hidden (ANSI)
 48
1.075481534004211
100
AcDbLine
 10
64.0072603015292
 20
39.18743784217066
 30
0.0
 11
64.00726030152916
 21
63.64066114687402
 31
0.0
  0
LINE
  5
126
330
6C
100
AcDbEntity
  8
Hidden (ANSI)
 48
1.109495639801025
100
AcDbLine
 10
63.91887195388086
 20
63.72904949452234
 30
0.0
 11
20.3456486491775
 21
63.72904949452234
 31
0.0
  0
LINE
  5
127
330
6C
100
AcDbEntity
  8
Hidden (ANSI)
 48
1.075481534004211
100
AcDbLine
 10
20.25726030152918
 20
63.64066114687402
 30
0.0
 11
20.25726030152918
 21
39.18743784217066
 31
0.0
  0
LINE
  5
128
330
6C
100
AcDbEntity
  8
Hidden (ANSI)
 48
1.109495639801025
100
AcDbLine
 10
20.3456486491775
 20
39.09904949452235
 30
0.0
 11
63.91887195388086
 21
39.09904949452235
 31
0.0
  0
POLYLINE
  5
129
330
6C
100
AcDbEntity
  8
Visible (ANSI)
100
AcDb2dPolyline
 66
     1
 10
0.0
 20
0.0
 30
0.0
 70
   128
  0
VERTEX
  5
12A
330
129
100
AcDbEntity
  8
Visible (ANSI)
100
AcDbVertex
100
AcDb2dVertex
 10
63.9916610131895
 20
63.71345010285541
 30
0.0
  0
VERTEX
  5
12B
330
129
100
AcDbEntity
  8
Visible (ANSI)
100
AcDbVertex
100
AcDb2dVertex
 10
64.00085533470925
 20
63.71041636723472
 30
0.0
  0
VERTEX
  5
12D
330
129
100
AcDbEntity
  8
Visible (ANSI)
100
AcDbVertex
100
AcDb2dVertex
 10
64.01001361184538
 20
63.70738413346335
 30
0.0
  0
VERTEX
  5
12E
330
129
100
AcDbEntity
  8
Visible (ANSI)
100
AcDbVertex
100
AcDb2dVertex
 10
64.01909078911838
 20
63.70435039784265
 30
0.0
  0
VERTEX
  5
12F
330
129
100
AcDbEntity
  8
Visible (ANSI)
100
AcDbVertex
100
AcDb2dVertex
 10
64.02805082214465
 20
63.70131816407129
 30
0.0
  0
VERTEX
  5
130
330
129
100
AcDbEntity
  8
Visible (ANSI)
100
AcDbVertex
100
AcDb2dVertex
 10
64.03685466284193
 20
63.6982859302999
 30
0.0
  0
VERTEX
  5
131
330
129
100
AcDbEntity
  8
Visible (ANSI)
100
AcDbVertex
100
AcDb2dVertex
 10
64.04546626682661
 20
63.69525219467921
 30
0.0
  0
VERTEX
  5
132
330
129
100
AcDbEntity
  8
Visible (ANSI)
100
AcDbVertex
100
AcDb2dVertex
 10
64.05384658601644
 20
63.69221996090782
 30
0.0
  0
VERTEX
  5
133
330
129
100
AcDbEntity
  8
Visible (ANSI)
100
AcDbVertex
100
AcDb2dVertex
 10
64.06195957602783
 20
63.68918622528713
 30
0.0
  0
VERTEX
  5
134
330
129
100
AcDbEntity
  8
Visible (ANSI)
100
AcDbVertex
100
AcDb2dVertex
 10
64.06977219617577
 20
63.68615399151575
 30
0.0
  0
VERTEX
  5
135
330
129
100
AcDbEntity
  8
Visible (ANSI)
100
AcDbVertex
100
AcDb2dVertex
 10
64.07725140577531
 20
63.68312175774438
 30
0.0
  0
VERTEX
  5
136
330
129
100
AcDbEntity
  8
Visible (ANSI)
100
AcDbVertex
100
AcDb2dVertex
 10
64.08436416414144
 20
63.68008802212369
 30
0.0
  0
VERTEX
  5
137
330
129
100
AcDbEntity
  8
Visible (ANSI)
100
AcDbVertex
100
AcDb2dVertex
 10
64.09108043428786
 20
63.67705578835232
 30
0.0
  0
VERTEX
  5
138
330
129
100
AcDbEntity
  8
Visible (ANSI)
100
AcDbVertex
100
AcDb2dVertex
 10
64.09737017922818
 20
63.67402205273163
 30
0.0
  0
VERTEX
  5
139
330
129
100
AcDbEntity
  8
Visible (ANSI)
100
AcDbVertex
100
AcDb2dVertex
 10
64.10320636567473
 20
63.67098981896024
 30
0.0
  0
VERTEX
  5
13A
330
129
100
AcDbEntity
  8
Visible (ANSI)
100
AcDbVertex
100
AcDb2dVertex
 10
64.10856496403841
 20
63.66795608333955
 30
0.0
  0
VERTEX
  5
13B
330
129
100
AcDbEntity
  8
Visible (ANSI)
100
AcDbVertex
100
AcDb2dVertex
 10
64.11342494842878
 20
63.66492384956817
 30
0.0
  0
VERTEX
  5
13C
330
129
100
AcDbEntity
  8
Visible (ANSI)
100
AcDbVertex
100
AcDb2dVertex
 10
64.11775928555816
 20
63.66189161579679
 30
0.0
  0
VERTEX
  5
13D
330
129
100
AcDbEntity
  8
Visible (ANSI)
100
AcDbVertex
100
AcDb2dVertex
 10
64.12155896433062
 20
63.65885788017609
 30
0.0
  0
VERTEX
  5
13E
330
129
100
AcDbEntity
  8
Visible (ANSI)
100
AcDbVertex
100
AcDb2dVertex
 10
64.12479995515707
 20
63.65582564640472
 30
0.0
  0
VERTEX
  5
13F
330
129
100
AcDbEntity
  8
Visible (ANSI)
100
AcDbVertex
100
AcDb2dVertex
 10
64.12747024324301
 20
63.65279191078403
 30
0.0
  0
VERTEX
  5
140
330
129
100
AcDbEntity
  8
Visible (ANSI)
100
AcDbVertex
100
AcDb2dVertex
 10
64.12955781379388
 20
63.64975967701266
 30
0.0
  0
VERTEX
  5
141
330
129
100
AcDbEntity
  8
Visible (ANSI)
100
AcDbVertex
100
AcDb2dVertex
 10
64.13105665941242
 20
63.64672744324128
 30
0.0
  0
VERTEX
  5
142
330
129
100
AcDbEntity
  8
Visible (ANSI)
100
AcDbVertex
100
AcDb2dVertex
 10
64.13195776900272
 20
63.64369370762059
 30
0.0
  0
VERTEX
  5
143
330
129
100
AcDbEntity
  8
Visible (ANSI)
100
AcDbVertex
100
AcDb2dVertex
 10
64.1322611425648
 20
63.64066147384921
 30
0.0
  0
SEQEND
  5
12C
330
129
100
AcDbEntity
  8
Visible (ANSI)
  0
POLYLINE
  5
144
330
6C
100
AcDbEntity
  8
Visible (ANSI)
100
AcDb2dPolyline
 66
     1
 10
0.0
 20
0.0
 30
0.0
 70
   128
  0
VERTEX
  5
145
330
144
100
AcDbEntity
  8
Visible (ANSI)
100
AcDbVertex
100
AcDb2dVertex
 10
64.1322611425648
 20
39.18743783050875
 30
0.0
  0
VERTEX
  5
146
330
144
100
AcDbEntity
  8
Visible (ANSI)
100
AcDbVertex
100
AcDb2dVertex
 10
64.13195776900272
 20
39.18440498661108
 30
0.0
  0
VERTEX
  5
148
330
144
100
AcDbEntity
  8
Visible (ANSI)
100
AcDbVertex
100
AcDb2dVertex
 10
64.13105665941242
 20
39.18137214271342
 30
0.0
  0
VERTEX
  5
149
330
144
100
AcDbEntity
  8
Visible (ANSI)
100
AcDbVertex
100
AcDb2dVertex
 10
64.12955781379388
 20
39.17833929881576
 30
0.0
  0
VERTEX
  5
14A
330
144
100
AcDbEntity
  8
Visible (ANSI)
100
AcDbVertex
100
AcDb2dVertex
 10
64.12747024324301
 20
39.1753064549181
 30
0.0
  0
VERTEX
  5
14B
330
144
100
AcDbEntity
  8
Visible (ANSI)
100
AcDbVertex
100
AcDb2dVertex
 10
64.12479995515707
 20
39.17227361102044
 30
0.0
  0
VERTEX
  5
14C
330
144
100
AcDbEntity
  8
Visible (ANSI)
100
AcDbVertex
100
AcDb2dVertex
 10
64.12155896433062
 20
39.16924075538958
 30
0.0
  0
VERTEX
  5
14D
330
144
100
AcDbEntity
  8
Visible (ANSI)
100
AcDbVertex
100
AcDb2dVertex
 10
64.11775928555816
 20
39.16620791149191
 30
0.0
  0
VERTEX
  5
14E
330
144
100
AcDbEntity
  8
Visible (ANSI)
100
AcDbVertex
100
AcDb2dVertex
 10
64.11342494842878
 20
39.16317505586106
 30
0.0
  0
VERTEX
  5
14F
330
144
100
AcDbEntity
  8
Visible (ANSI)
100
AcDbVertex
100
AcDb2dVertex
 10
64.10856496403841
 20
39.1601422119634
 30
0.0
  0
VERTEX
  5
150
330
144
100
AcDbEntity
  8
Visible (ANSI)
100
AcDbVertex
100
AcDb2dVertex
 10
64.10320636567473
 20
39.15710936806572
 30
0.0
  0
VERTEX
  5
151
330
144
100
AcDbEntity
  8
Visible (ANSI)
100
AcDbVertex
100
AcDb2dVertex
 10
64.09737017922818
 20
39.15407651243487
 30
0.0
  0
VERTEX
  5
152
330
144
100
AcDbEntity
  8
Visible (ANSI)
100
AcDbVertex
100
AcDb2dVertex
 10
64.09108043428786
 20
39.15104366853721
 30
0.0
  0
VERTEX
  5
153
330
144
100
AcDbEntity
  8
Visible (ANSI)
100
AcDbVertex
100
AcDb2dVertex
 10
64.08436416414144
 20
39.14801082463955
 30
0.0
  0
VERTEX
  5
154
330
144
100
AcDbEntity
  8
Visible (ANSI)
100
AcDbVertex
100
AcDb2dVertex
 10
64.07725140577531
 20
39.14497796900869
 30
0.0
  0
VERTEX
  5
155
330
144
100
AcDbEntity
  8
Visible (ANSI)
100
AcDbVertex
100
AcDb2dVertex
 10
64.06977219617577
 20
39.14194512511102
 30
0.0
  0
VERTEX
  5
156
330
144
100
AcDbEntity
  8
Visible (ANSI)
100
AcDbVertex
100
AcDb2dVertex
 10
64.06195957602783
 20
39.13891228121336
 30
0.0
  0
VERTEX
  5
157
330
144
100
AcDbEntity
  8
Visible (ANSI)
100
AcDbVertex
100
AcDb2dVertex
 10
64.05384658601644
 20
39.13587942558251
 30
0.0
  0
VERTEX
  5
158
330
144
100
AcDbEntity
  8
Visible (ANSI)
100
AcDbVertex
100
AcDb2dVertex
 10
64.04546626682661
 20
39.13284658168484
 30
0.0
  0
VERTEX
  5
159
330
144
100
AcDbEntity
  8
Visible (ANSI)
100
AcDbVertex
100
AcDb2dVertex
 10
64.03685466284193
 20
39.12981373778718
 30
0.0
  0
VERTEX
  5
15A
330
144
100
AcDbEntity
  8
Visible (ANSI)
100
AcDbVertex
100
AcDb2dVertex
 10
64.02805082214465
 20
39.12678088215632
 30
0.0
  0
VERTEX
  5
15B
330
144
100
AcDbEntity
  8
Visible (ANSI)
100
AcDbVertex
100
AcDb2dVertex
 10
64.01909078911838
 20
39.12374803825866
 30
0.0
  0
VERTEX
  5
15C
330
144
100
AcDbEntity
  8
Visible (ANSI)
100
AcDbVertex
100
AcDb2dVertex
 10
64.01001361184538
 20
39.120715194361
 30
0.0
  0
VERTEX
  5
15D
330
144
100
AcDbEntity
  8
Visible (ANSI)
100
AcDbVertex
100
AcDb2dVertex
 10
64.00085533470925
 20
39.11768233873014
 30
0.0
  0
VERTEX
  5
15E
330
144
100
AcDbEntity
  8
Visible (ANSI)
100
AcDbVertex
100
AcDb2dVertex
 10
63.9916610131895
 20
39.11464949483248
 30
0.0
  0
SEQEND
  5
147
330
144
100
AcDbEntity
  8
Visible (ANSI)
  0
POLYLINE
  5
15F
330
6C
100
AcDbEntity
  8
Visible (ANSI)
100
AcDb2dPolyline
 66
     1
 10
0.0
 20
0.0
 30
0.0
 70
   128
  0
VERTEX
  5
160
330
15F
100
AcDbEntity
  8
Visible (ANSI)
100
AcDbVertex
100
AcDb2dVertex
 10
20.27286030183932
 20
63.71345010285541
 30
0.0
  0
VERTEX
  5
161
330
15F
100
AcDbEntity
  8
Visible (ANSI)
100
AcDbVertex
100
AcDb2dVertex
 10
20.27589314573698
 20
63.72264442437518
 30
0.0
  0
VERTEX
  5
163
330
15F
100
AcDbEntity
  8
Visible (ANSI)
100
AcDbVertex
100
AcDb2dVertex
 10
20.27892600136784
 20
63.73180119966198
 30
0.0
  0
VERTEX
  5
164
330
15F
100
AcDbEntity
  8
Visible (ANSI)
100
AcDbVertex
100
AcDb2dVertex
 10
20.2819588452655
 20
63.7408798787843
 30
0.0
  0
VERTEX
  5
165
330
15F
100
AcDbEntity
  8
Visible (ANSI)
100
AcDbVertex
100
AcDb2dVertex
 10
20.28499168916316
 20
63.74983991181057
 30
0.0
  0
VERTEX
  5
166
330
15F
100
AcDbEntity
  8
Visible (ANSI)
100
AcDbVertex
100
AcDb2dVertex
 10
20.28802454479402
 20
63.75864375250786
 30
0.0
  0
VERTEX
  5
167
330
15F
100
AcDbEntity
  8
Visible (ANSI)
100
AcDbVertex
100
AcDb2dVertex
 10
20.29105738869168
 20
63.76725535649254
 30
0.0
  0
VERTEX
  5
168
330
15F
100
AcDbEntity
  8
Visible (ANSI)
100
AcDbVertex
100
AcDb2dVertex
 10
20.29409023258935
 20
63.77563567568238
 30
0.0
  0
VERTEX
  5
169
330
15F
100
AcDbEntity
  8
Visible (ANSI)
100
AcDbVertex
100
AcDb2dVertex
 10
20.29712308822021
 20
63.78375016754307
 30
0.0
  0
VERTEX
  5
16A
330
15F
100
AcDbEntity
  8
Visible (ANSI)
100
AcDbVertex
100
AcDb2dVertex
 10
20.30015593211787
 20
63.79156278769102
 30
0.0
  0
VERTEX
  5
16B
330
15F
100
AcDbEntity
  8
Visible (ANSI)
100
AcDbVertex
100
AcDb2dVertex
 10
20.30318877601553
 20
63.79904199729055
 30
0.0
  0
VERTEX
  5
16C
330
15F
100
AcDbEntity
  8
Visible (ANSI)
100
AcDbVertex
100
AcDb2dVertex
 10
20.30622163164639
 20
63.80615325380738
 30
0.0
  0
VERTEX
  5
16D
330
15F
100
AcDbEntity
  8
Visible (ANSI)
100
AcDbVertex
100
AcDb2dVertex
 10
20.30925447554405
 20
63.81286802210447
 30
0.0
  0
VERTEX
  5
16E
330
15F
100
AcDbEntity
  8
Visible (ANSI)
100
AcDbVertex
100
AcDb2dVertex
 10
20.31228731944171
 20
63.81915776704478
 30
0.0
  0
VERTEX
  5
16F
330
15F
100
AcDbEntity
  8
Visible (ANSI)
100
AcDbVertex
100
AcDb2dVertex
 10
20.31532017507257
 20
63.82499545534066
 30
0.0
  0
VERTEX
  5
170
330
15F
100
AcDbEntity
  8
Visible (ANSI)
100
AcDbVertex
100
AcDb2dVertex
 10
20.31835301897023
 20
63.83035405370432
 30
0.0
  0
VERTEX
  5
171
330
15F
100
AcDbEntity
  8
Visible (ANSI)
100
AcDbVertex
100
AcDb2dVertex
 10
20.3213858628679
 20
63.8352125362454
 30
0.0
  0
VERTEX
  5
172
330
15F
100
AcDbEntity
  8
Visible (ANSI)
100
AcDbVertex
100
AcDb2dVertex
 10
20.32441871849876
 20
63.8395498770734
 30
0.0
  0
VERTEX
  5
173
330
15F
100
AcDbEntity
  8
Visible (ANSI)
100
AcDbVertex
100
AcDb2dVertex
 10
20.32745156239641
 20
63.84334655214722
 30
0.0
  0
VERTEX
  5
174
330
15F
100
AcDbEntity
  8
Visible (ANSI)
100
AcDbVertex
100
AcDb2dVertex
 10
20.33048441802728
 20
63.84658754297368
 30
0.0
  0
VERTEX
  5
175
330
15F
100
AcDbEntity
  8
Visible (ANSI)
100
AcDbVertex
100
AcDb2dVertex
 10
20.33351726192494
 20
63.84925933290894
 30
0.0
  0
VERTEX
  5
176
330
15F
100
AcDbEntity
  8
Visible (ANSI)
100
AcDbVertex
100
AcDb2dVertex
 10
20.3365501058226
 20
63.85134840530913
 30
0.0
  0
VERTEX
  5
177
330
15F
100
AcDbEntity
  8
Visible (ANSI)
100
AcDbVertex
100
AcDb2dVertex
 10
20.33958294972026
 20
63.85284725092768
 30
0.0
  0
VERTEX
  5
178
330
15F
100
AcDbEntity
  8
Visible (ANSI)
100
AcDbVertex
100
AcDb2dVertex
 10
20.34261579361793
 20
63.85374836051799
 30
0.0
  0
VERTEX
  5
179
330
15F
100
AcDbEntity
  8
Visible (ANSI)
100
AcDbVertex
100
AcDb2dVertex
 10
20.34564863751558
 20
63.85405023223073
 30
0.0
  0
SEQEND
  5
162
330
15F
100
AcDbEntity
  8
Visible (ANSI)
  0
POLYLINE
  5
17A
330
6C
100
AcDbEntity
  8
Visible (ANSI)
100
AcDb2dPolyline
 66
     1
 10
0.0
 20
0.0
 30
0.0
 70
   128
  0
VERTEX
  5
17B
330
17A
100
AcDbEntity
  8
Visible (ANSI)
100
AcDbVertex
100
AcDb2dVertex
 10
63.91887238418327
 20
63.85405023223073
 30
0.0
  0
VERTEX
  5
17C
330
17A
100
AcDbEntity
  8
Visible (ANSI)
100
AcDbVertex
100
AcDb2dVertex
 10
63.92190611980397
 20
63.85374836051799
 30
0.0
  0
VERTEX
  5
17E
330
17A
100
AcDbEntity
  8
Visible (ANSI)
100
AcDbVertex
100
AcDb2dVertex
 10
63.92493685172603
 20
63.85284725092768
 30
0.0
  0
VERTEX
  5
17F
330
17A
100
AcDbEntity
  8
Visible (ANSI)
100
AcDbVertex
100
AcDb2dVertex
 10
63.92797058734673
 20
63.85134840530913
 30
0.0
  0
VERTEX
  5
180
330
17A
100
AcDbEntity
  8
Visible (ANSI)
100
AcDbVertex
100
AcDb2dVertex
 10
63.93100432296742
 20
63.84925933290894
 30
0.0
  0
VERTEX
  5
181
330
17A
100
AcDbEntity
  8
Visible (ANSI)
100
AcDbVertex
100
AcDb2dVertex
 10
63.93403505488948
 20
63.84658754297368
 30
0.0
  0
VERTEX
  5
182
330
17A
100
AcDbEntity
  8
Visible (ANSI)
100
AcDbVertex
100
AcDb2dVertex
 10
63.93706879051018
 20
63.84334655214722
 30
0.0
  0
VERTEX
  5
183
330
17A
100
AcDbEntity
  8
Visible (ANSI)
100
AcDbVertex
100
AcDb2dVertex
 10
63.94010252613087
 20
63.8395498770734
 30
0.0
  0
VERTEX
  5
184
330
17A
100
AcDbEntity
  8
Visible (ANSI)
100
AcDbVertex
100
AcDb2dVertex
 10
63.94313325805293
 20
63.8352125362454
 30
0.0
  0
VERTEX
  5
185
330
17A
100
AcDbEntity
  8
Visible (ANSI)
100
AcDbVertex
100
AcDb2dVertex
 10
63.94616699367362
 20
63.83035405370432
 30
0.0
  0
VERTEX
  5
186
330
17A
100
AcDbEntity
  8
Visible (ANSI)
100
AcDbVertex
100
AcDb2dVertex
 10
63.94920072929432
 20
63.82499545534066
 30
0.0
  0
VERTEX
  5
187
330
17A
100
AcDbEntity
  8
Visible (ANSI)
100
AcDbVertex
100
AcDb2dVertex
 10
63.95223446491501
 20
63.81915776704478
 30
0.0
  0
VERTEX
  5
188
330
17A
100
AcDbEntity
  8
Visible (ANSI)
100
AcDbVertex
100
AcDb2dVertex
 10
63.95526519683707
 20
63.81286802210447
 30
0.0
  0
VERTEX
  5
189
330
17A
100
AcDbEntity
  8
Visible (ANSI)
100
AcDbVertex
100
AcDb2dVertex
 10
63.95829893245775
 20
63.80615325380738
 30
0.0
  0
VERTEX
  5
18A
330
17A
100
AcDbEntity
  8
Visible (ANSI)
100
AcDbVertex
100
AcDb2dVertex
 10
63.96133266807845
 20
63.79904199729055
 30
0.0
  0
VERTEX
  5
18B
330
17A
100
AcDbEntity
  8
Visible (ANSI)
100
AcDbVertex
100
AcDb2dVertex
 10
63.96436340000051
 20
63.79156278769102
 30
0.0
  0
VERTEX
  5
18C
330
17A
100
AcDbEntity
  8
Visible (ANSI)
100
AcDbVertex
100
AcDb2dVertex
 10
63.9673971356212
 20
63.78375016754307
 30
0.0
  0
VERTEX
  5
18D
330
17A
100
AcDbEntity
  8
Visible (ANSI)
100
AcDbVertex
100
AcDb2dVertex
 10
63.9704308712419
 20
63.77563567568238
 30
0.0
  0
VERTEX
  5
18E
330
17A
100
AcDbEntity
  8
Visible (ANSI)
100
AcDbVertex
100
AcDb2dVertex
 10
63.97346460686259
 20
63.76725535649254
 30
0.0
  0
VERTEX
  5
18F
330
17A
100
AcDbEntity
  8
Visible (ANSI)
100
AcDbVertex
100
AcDb2dVertex
 10
63.97649533878467
 20
63.75864375250786
 30
0.0
  0
VERTEX
  5
190
330
17A
100
AcDbEntity
  8
Visible (ANSI)
100
AcDbVertex
100
AcDb2dVertex
 10
63.97952907440536
 20
63.74983991181057
 30
0.0
  0
VERTEX
  5
191
330
17A
100
AcDbEntity
  8
Visible (ANSI)
100
AcDbVertex
100
AcDb2dVertex
 10
63.98256281002606
 20
63.7408798787843
 30
0.0
  0
VERTEX
  5
192
330
17A
100
AcDbEntity
  8
Visible (ANSI)
100
AcDbVertex
100
AcDb2dVertex
 10
63.9855935419481
 20
63.73180119966198
 30
0.0
  0
VERTEX
  5
193
330
17A
100
AcDbEntity
  8
Visible (ANSI)
100
AcDbVertex
100
AcDb2dVertex
 10
63.9886272775688
 20
63.72264442437518
 30
0.0
  0
VERTEX
  5
194
330
17A
100
AcDbEntity
  8
Visible (ANSI)
100
AcDbVertex
100
AcDb2dVertex
 10
63.9916610131895
 20
63.71345010285541
 30
0.0
  0
SEQEND
  5
17D
330
17A
100
AcDbEntity
  8
Visible (ANSI)
  0
POLYLINE
  5
195
330
6C
100
AcDbEntity
  8
Visible (ANSI)
100
AcDb2dPolyline
 66
     1
 10
0.0
 20
0.0
 30
0.0
 70
   128
  0
VERTEX
  5
196
330
195
100
AcDbEntity
  8
Visible (ANSI)
100
AcDbVertex
100
AcDb2dVertex
 10
20.27286030183932
 20
39.11464949483248
 30
0.0
  0
VERTEX
  5
197
330
195
100
AcDbEntity
  8
Visible (ANSI)
100
AcDbVertex
100
AcDb2dVertex
 10
20.26366461926863
 20
39.11768233873014
 30
0.0
  0
VERTEX
  5
199
330
195
100
AcDbEntity
  8
Visible (ANSI)
100
AcDbVertex
100
AcDb2dVertex
 10
20.25450831330972
 20
39.120715194361
 30
0.0
  0
VERTEX
  5
19A
330
195
100
AcDbEntity
  8
Visible (ANSI)
100
AcDbVertex
100
AcDb2dVertex
 10
20.24543060804282
 20
39.12374803825866
 30
0.0
  0
VERTEX
  5
19B
330
195
100
AcDbEntity
  8
Visible (ANSI)
100
AcDbVertex
100
AcDb2dVertex
 10
20.23647034035259
 20
39.12678088215632
 30
0.0
  0
VERTEX
  5
19C
330
195
100
AcDbEntity
  8
Visible (ANSI)
100
AcDbVertex
100
AcDb2dVertex
 10
20.22766591299542
 20
39.12981373778718
 30
0.0
  0
VERTEX
  5
19D
330
195
100
AcDbEntity
  8
Visible (ANSI)
100
AcDbVertex
100
AcDb2dVertex
 10
20.2190550130026
 20
39.13284658168484
 30
0.0
  0
VERTEX
  5
19E
330
195
100
AcDbEntity
  8
Visible (ANSI)
100
AcDbVertex
100
AcDb2dVertex
 10
20.2106745119482
 20
39.13587942558251
 30
0.0
  0
VERTEX
  5
19F
330
195
100
AcDbEntity
  8
Visible (ANSI)
100
AcDbVertex
100
AcDb2dVertex
 10
20.20256030168425
 20
39.13891228121336
 30
0.0
  0
VERTEX
  5
1A0
330
195
100
AcDbEntity
  8
Visible (ANSI)
100
AcDbVertex
100
AcDb2dVertex
 10
20.19474712420942
 20
39.14194512511102
 30
0.0
  0
VERTEX
  5
1A1
330
195
100
AcDbEntity
  8
Visible (ANSI)
100
AcDbVertex
100
AcDb2dVertex
 10
20.18726844260378
 20
39.14497796900869
 30
0.0
  0
VERTEX
  5
1A2
330
195
100
AcDbEntity
  8
Visible (ANSI)
100
AcDbVertex
100
AcDb2dVertex
 10
20.18015627969742
 20
39.14801082463955
 30
0.0
  0
VERTEX
  5
1A3
330
195
100
AcDbEntity
  8
Visible (ANSI)
100
AcDbVertex
100
AcDb2dVertex
 10
20.17344108900521
 20
39.15104366853721
 30
0.0
  0
VERTEX
  5
1A4
330
195
100
AcDbEntity
  8
Visible (ANSI)
100
AcDbVertex
100
AcDb2dVertex
 10
20.16715162566163
 20
39.15407651243487
 30
0.0
  0
VERTEX
  5
1A5
330
195
100
AcDbEntity
  8
Visible (ANSI)
100
AcDbVertex
100
AcDb2dVertex
 10
20.1613148232222
 20
39.15710936806572
 30
0.0
  0
VERTEX
  5
1A6
330
195
100
AcDbEntity
  8
Visible (ANSI)
100
AcDbVertex
100
AcDb2dVertex
 10
20.15595567339823
 20
39.1601422119634
 30
0.0
  0
VERTEX
  5
1A7
330
195
100
AcDbEntity
  8
Visible (ANSI)
100
AcDbVertex
100
AcDb2dVertex
 10
20.15109712925788
 20
39.16317505586106
 30
0.0
  0
VERTEX
  5
1A8
330
195
100
AcDbEntity
  8
Visible (ANSI)
100
AcDbVertex
100
AcDb2dVertex
 10
20.14675999376084
 20
39.16620791149191
 30
0.0
  0
VERTEX
  5
1A9
330
195
100
AcDbEntity
  8
Visible (ANSI)
100
AcDbVertex
100
AcDb2dVertex
 10
20.14296283909256
 20
39.16924075538958
 30
0.0
  0
VERTEX
  5
1AA
330
195
100
AcDbEntity
  8
Visible (ANSI)
100
AcDbVertex
100
AcDb2dVertex
 10
20.13972192526521
 20
39.17227361102044
 30
0.0
  0
VERTEX
  5
1AB
330
195
100
AcDbEntity
  8
Visible (ANSI)
100
AcDbVertex
100
AcDb2dVertex
 10
20.13705113045179
 20
39.1753064549181
 30
0.0
  0
VERTEX
  5
1AC
330
195
100
AcDbEntity
  8
Visible (ANSI)
100
AcDbVertex
100
AcDb2dVertex
 10
20.13496189103686
 20
39.17833929881576
 30
0.0
  0
VERTEX
  5
1AD
330
195
100
AcDbEntity
  8
Visible (ANSI)
100
AcDbVertex
100
AcDb2dVertex
 10
20.13346315404207
 20
39.18137214271342
 30
0.0
  0
VERTEX
  5
1AE
330
195
100
AcDbEntity
  8
Visible (ANSI)
100
AcDbVertex
100
AcDb2dVertex
 10
20.13256133693076
 20
39.18440498661108
 30
0.0
  0
VERTEX
  5
1AF
330
195
100
AcDbEntity
  8
Visible (ANSI)
100
AcDbVertex
100
AcDb2dVertex
 10
20.13226030152919
 20
39.18743783050875
 30
0.0
  0
SEQEND
  5
198
330
195
100
AcDbEntity
  8
Visible (ANSI)
  0
POLYLINE
  5
1B0
330
6C
100
AcDbEntity
  8
Visible (ANSI)
100
AcDb2dPolyline
 66
     1
 10
0.0
 20
0.0
 30
0.0
 70
   128
  0
VERTEX
  5
1B1
330
1B0
100
AcDbEntity
  8
Visible (ANSI)
100
AcDbVertex
100
AcDb2dVertex
 10
20.13226030152918
 20
63.64066147384921
 30
0.0
  0
VERTEX
  5
1B2
330
1B0
100
AcDbEntity
  8
Visible (ANSI)
100
AcDbVertex
100
AcDb2dVertex
 10
20.13256133693076
 20
63.64369370762059
 30
0.0
  0
VERTEX
  5
1B4
330
1B0
100
AcDbEntity
  8
Visible (ANSI)
100
AcDbVertex
100
AcDb2dVertex
 10
20.13346315404207
 20
63.64672744324128
 30
0.0
  0
VERTEX
  5
1B5
330
1B0
100
AcDbEntity
  8
Visible (ANSI)
100
AcDbVertex
100
AcDb2dVertex
 10
20.13496189103686
 20
63.64975967701266
 30
0.0
  0
VERTEX
  5
1B6
330
1B0
100
AcDbEntity
  8
Visible (ANSI)
100
AcDbVertex
100
AcDb2dVertex
 10
20.13705113045179
 20
63.65279191078403
 30
0.0
  0
VERTEX
  5
1B7
330
1B0
100
AcDbEntity
  8
Visible (ANSI)
100
AcDbVertex
100
AcDb2dVertex
 10
20.13972192526521
 20
63.65582564640472
 30
0.0
  0
VERTEX
  5
1B8
330
1B0
100
AcDbEntity
  8
Visible (ANSI)
100
AcDbVertex
100
AcDb2dVertex
 10
20.14296283909256
 20
63.65885788017609
 30
0.0
  0
VERTEX
  5
1B9
330
1B0
100
AcDbEntity
  8
Visible (ANSI)
100
AcDbVertex
100
AcDb2dVertex
 10
20.14675999376084
 20
63.66189161579679
 30
0.0
  0
VERTEX
  5
1BA
330
1B0
100
AcDbEntity
  8
Visible (ANSI)
100
AcDbVertex
100
AcDb2dVertex
 10
20.15109712925788
 20
63.66492384956817
 30
0.0
  0
VERTEX
  5
1BB
330
1B0
100
AcDbEntity
  8
Visible (ANSI)
100
AcDbVertex
100
AcDb2dVertex
 10
20.15595567339823
 20
63.66795608333955
 30
0.0
  0
VERTEX
  5
1BC
330
1B0
100
AcDbEntity
  8
Visible (ANSI)
100
AcDbVertex
100
AcDb2dVertex
 10
20.1613148232222
 20
63.67098981896024
 30
0.0
  0
VERTEX
  5
1BD
330
1B0
100
AcDbEntity
  8
Visible (ANSI)
100
AcDbVertex
100
AcDb2dVertex
 10
20.16715162566163
 20
63.67402205273163
 30
0.0
  0
VERTEX
  5
1BE
330
1B0
100
AcDbEntity
  8
Visible (ANSI)
100
AcDbVertex
100
AcDb2dVertex
 10
20.17344108900521
 20
63.67705578835232
 30
0.0
  0
VERTEX
  5
1BF
330
1B0
100
AcDbEntity
  8
Visible (ANSI)
100
AcDbVertex
100
AcDb2dVertex
 10
20.18015627969742
 20
63.68008802212369
 30
0.0
  0
VERTEX
  5
1C0
330
1B0
100
AcDbEntity
  8
Visible (ANSI)
100
AcDbVertex
100
AcDb2dVertex
 10
20.18726844260378
 20
63.68312175774438
 30
0.0
  0
VERTEX
  5
1C1
330
1B0
100
AcDbEntity
  8
Visible (ANSI)
100
AcDbVertex
100
AcDb2dVertex
 10
20.19474712420942
 20
63.68615399151575
 30
0.0
  0
VERTEX
  5
1C2
330
1B0
100
AcDbEntity
  8
Visible (ANSI)
100
AcDbVertex
100
AcDb2dVertex
 10
20.20256030168425
 20
63.68918622528713
 30
0.0
  0
VERTEX
  5
1C3
330
1B0
100
AcDbEntity
  8
Visible (ANSI)
100
AcDbVertex
100
AcDb2dVertex
 10
20.2106745119482
 20
63.69221996090782
 30
0.0
  0
VERTEX
  5
1C4
330
1B0
100
AcDbEntity
  8
Visible (ANSI)
100
AcDbVertex
100
AcDb2dVertex
 10
20.2190550130026
 20
63.69525219467921
 30
0.0
  0
VERTEX
  5
1C5
330
1B0
100
AcDbEntity
  8
Visible (ANSI)
100
AcDbVertex
100
AcDb2dVertex
 10
20.22766591299542
 20
63.6982859302999
 30
0.0
  0
VERTEX
  5
1C6
330
1B0
100
AcDbEntity
  8
Visible (ANSI)
100
AcDbVertex
100
AcDb2dVertex
 10
20.23647034035259
 20
63.70131816407129
 30
0.0
  0
VERTEX
  5
1C7
330
1B0
100
AcDbEntity
  8
Visible (ANSI)
100
AcDbVertex
100
AcDb2dVertex
 10
20.24543060804282
 20
63.70435039784265
 30
0.0
  0
VERTEX
  5
1C8
330
1B0
100
AcDbEntity
  8
Visible (ANSI)
100
AcDbVertex
100
AcDb2dVertex
 10
20.25450831330972
 20
63.70738413346335
 30
0.0
  0
VERTEX
  5
1C9
330
1B0
100
AcDbEntity
  8
Visible (ANSI)
100
AcDbVertex
100
AcDb2dVertex
 10
20.26366461926863
 20
63.71041636723472
 30
0.0
  0
VERTEX
  5
1CA
330
1B0
100
AcDbEntity
  8
Visible (ANSI)
100
AcDbVertex
100
AcDb2dVertex
 10
20.27286030183932
 20
63.71345010285541
 30
0.0
  0
SEQEND
  5
1B3
330
1B0
100
AcDbEntity
  8
Visible (ANSI)
  0
POLYLINE
  5
1CB
330
6C
100
AcDbEntity
  8
Visible (ANSI)
100
AcDb2dPolyline
 66
     1
 10
0.0
 20
0.0
 30
0.0
 70
   128
  0
VERTEX
  5
1CC
330
1CB
100
AcDbEntity
  8
Visible (ANSI)
100
AcDbVertex
100
AcDb2dVertex
 10
63.9916610131895
 20
39.11464949483248
 30
0.0
  0
VERTEX
  5
1CD
330
1CB
100
AcDbEntity
  8
Visible (ANSI)
100
AcDbVertex
100
AcDb2dVertex
 10
63.9886272775688
 20
39.10545381226178
 30
0.0
  0
VERTEX
  5
1CF
330
1CB
100
AcDbEntity
  8
Visible (ANSI)
100
AcDbVertex
100
AcDb2dVertex
 10
63.9855935419481
 20
39.09629750630288
 30
0.0
  0
VERTEX
  5
1D0
330
1CB
100
AcDbEntity
  8
Visible (ANSI)
100
AcDbVertex
100
AcDb2dVertex
 10
63.98256281002606
 20
39.08721980103597
 30
0.0
  0
VERTEX
  5
1D1
330
1CB
100
AcDbEntity
  8
Visible (ANSI)
100
AcDbVertex
100
AcDb2dVertex
 10
63.97952907440536
 20
39.07825953334575
 30
0.0
  0
VERTEX
  5
1D2
330
1CB
100
AcDbEntity
  8
Visible (ANSI)
100
AcDbVertex
100
AcDb2dVertex
 10
63.97649533878467
 20
39.06945510598858
 30
0.0
  0
VERTEX
  5
1D3
330
1CB
100
AcDbEntity
  8
Visible (ANSI)
100
AcDbVertex
100
AcDb2dVertex
 10
63.97346460686259
 20
39.06084420599576
 30
0.0
  0
VERTEX
  5
1D4
330
1CB
100
AcDbEntity
  8
Visible (ANSI)
100
AcDbVertex
100
AcDb2dVertex
 10
63.9704308712419
 20
39.05246370494136
 30
0.0
  0
VERTEX
  5
1D5
330
1CB
100
AcDbEntity
  8
Visible (ANSI)
100
AcDbVertex
100
AcDb2dVertex
 10
63.9673971356212
 20
39.04434949467741
 30
0.0
  0
VERTEX
  5
1D6
330
1CB
100
AcDbEntity
  8
Visible (ANSI)
100
AcDbVertex
100
AcDb2dVertex
 10
63.96436340000051
 20
39.03653631720257
 30
0.0
  0
VERTEX
  5
1D7
330
1CB
100
AcDbEntity
  8
Visible (ANSI)
100
AcDbVertex
100
AcDb2dVertex
 10
63.96133266807845
 20
39.02905763559694
 30
0.0
  0
VERTEX
  5
1D8
330
1CB
100
AcDbEntity
  8
Visible (ANSI)
100
AcDbVertex
100
AcDb2dVertex
 10
63.95829893245775
 20
39.02194547269058
 30
0.0
  0
VERTEX
  5
1D9
330
1CB
100
AcDbEntity
  8
Visible (ANSI)
100
AcDbVertex
100
AcDb2dVertex
 10
63.95526519683707
 20
39.01523028199838
 30
0.0
  0
VERTEX
  5
1DA
330
1CB
100
AcDbEntity
  8
Visible (ANSI)
100
AcDbVertex
100
AcDb2dVertex
 10
63.95223446491501
 20
39.00894081865479
 30
0.0
  0
VERTEX
  5
1DB
330
1CB
100
AcDbEntity
  8
Visible (ANSI)
100
AcDbVertex
100
AcDb2dVertex
 10
63.94920072929432
 20
39.00310401621536
 30
0.0
  0
VERTEX
  5
1DC
330
1CB
100
AcDbEntity
  8
Visible (ANSI)
100
AcDbVertex
100
AcDb2dVertex
 10
63.94616699367362
 20
38.99774486639138
 30
0.0
  0
VERTEX
  5
1DD
330
1CB
100
AcDbEntity
  8
Visible (ANSI)
100
AcDbVertex
100
AcDb2dVertex
 10
63.94313325805293
 20
38.99288632225104
 30
0.0
  0
VERTEX
  5
1DE
330
1CB
100
AcDbEntity
  8
Visible (ANSI)
100
AcDbVertex
100
AcDb2dVertex
 10
63.94010252613087
 20
38.988549186754
 30
0.0
  0
VERTEX
  5
1DF
330
1CB
100
AcDbEntity
  8
Visible (ANSI)
100
AcDbVertex
100
AcDb2dVertex
 10
63.93706879051018
 20
38.98475203208572
 30
0.0
  0
VERTEX
  5
1E0
330
1CB
100
AcDbEntity
  8
Visible (ANSI)
100
AcDbVertex
100
AcDb2dVertex
 10
63.93403505488948
 20
38.98151111825836
 30
0.0
  0
VERTEX
  5
1E1
330
1CB
100
AcDbEntity
  8
Visible (ANSI)
100
AcDbVertex
100
AcDb2dVertex
 10
63.93100432296742
 20
38.97884032344494
 30
0.0
  0
VERTEX
  5
1E2
330
1CB
100
AcDbEntity
  8
Visible (ANSI)
100
AcDbVertex
100
AcDb2dVertex
 10
63.92797058734673
 20
38.97675108403002
 30
0.0
  0
VERTEX
  5
1E3
330
1CB
100
AcDbEntity
  8
Visible (ANSI)
100
AcDbVertex
100
AcDb2dVertex
 10
63.92493685172603
 20
38.97525234703522
 30
0.0
  0
VERTEX
  5
1E4
330
1CB
100
AcDbEntity
  8
Visible (ANSI)
100
AcDbVertex
100
AcDb2dVertex
 10
63.92190611980397
 20
38.97435052992392
 30
0.0
  0
VERTEX
  5
1E5
330
1CB
100
AcDbEntity
  8
Visible (ANSI)
100
AcDbVertex
100
AcDb2dVertex
 10
63.91887238418327
 20
38.97404949452234
 30
0.0
  0
SEQEND
  5
1CE
330
1CB
100
AcDbEntity
  8
Visible (ANSI)
  0
POLYLINE
  5
1E6
330
6C
100
AcDbEntity
  8
Visible (ANSI)
100
AcDb2dPolyline
 66
     1
 10
0.0
 20
0.0
 30
0.0
 70
   128
  0
VERTEX
  5
1E7
330
1E6
100
AcDbEntity
  8
Visible (ANSI)
100
AcDbVertex
100
AcDb2dVertex
 10
20.34564863751558
 20
38.97404949452234
 30
0.0
  0
VERTEX
  5
1E8
330
1E6
100
AcDbEntity
  8
Visible (ANSI)
100
AcDbVertex
100
AcDb2dVertex
 10
20.34261579361793
 20
38.97435052992392
 30
0.0
  0
VERTEX
  5
1EA
330
1E6
100
AcDbEntity
  8
Visible (ANSI)
100
AcDbVertex
100
AcDb2dVertex
 10
20.33958294972026
 20
38.97525234703522
 30
0.0
  0
VERTEX
  5
1EB
330
1E6
100
AcDbEntity
  8
Visible (ANSI)
100
AcDbVertex
100
AcDb2dVertex
 10
20.3365501058226
 20
38.97675108403002
 30
0.0
  0
VERTEX
  5
1EC
330
1E6
100
AcDbEntity
  8
Visible (ANSI)
100
AcDbVertex
100
AcDb2dVertex
 10
20.33351726192494
 20
38.97884032344494
 30
0.0
  0
VERTEX
  5
1ED
330
1E6
100
AcDbEntity
  8
Visible (ANSI)
100
AcDbVertex
100
AcDb2dVertex
 10
20.33048441802728
 20
38.98151111825836
 30
0.0
  0
VERTEX
  5
1EE
330
1E6
100
AcDbEntity
  8
Visible (ANSI)
100
AcDbVertex
100
AcDb2dVertex
 10
20.32745156239641
 20
38.98475203208572
 30
0.0
  0
VERTEX
  5
1EF
330
1E6
100
AcDbEntity
  8
Visible (ANSI)
100
AcDbVertex
100
AcDb2dVertex
 10
20.32441871849876
 20
38.988549186754
 30
0.0
  0
VERTEX
  5
1F0
330
1E6
100
AcDbEntity
  8
Visible (ANSI)
100
AcDbVertex
100
AcDb2dVertex
 10
20.3213858628679
 20
38.99288632225104
 30
0.0
  0
VERTEX
  5
1F1
330
1E6
100
AcDbEntity
  8
Visible (ANSI)
100
AcDbVertex
100
AcDb2dVertex
 10
20.31835301897023
 20
38.99774486639138
 30
0.0
  0
VERTEX
  5
1F2
330
1E6
100
AcDbEntity
  8
Visible (ANSI)
100
AcDbVertex
100
AcDb2dVertex
 10
20.31532017507257
 20
39.00310401621536
 30
0.0
  0
VERTEX
  5
1F3
330
1E6
100
AcDbEntity
  8
Visible (ANSI)
100
AcDbVertex
100
AcDb2dVertex
 10
20.31228731944171
 20
39.00894081865479
 30
0.0
  0
VERTEX
  5
1F4
330
1E6
100
AcDbEntity
  8
Visible (ANSI)
100
AcDbVertex
100
AcDb2dVertex
 10
20.30925447554405
 20
39.01523028199838
 30
0.0
  0
VERTEX
  5
1F5
330
1E6
100
AcDbEntity
  8
Visible (ANSI)
100
AcDbVertex
100
AcDb2dVertex
 10
20.30622163164639
 20
39.02194547269058
 30
0.0
  0
VERTEX
  5
1F6
330
1E6
100
AcDbEntity
  8
Visible (ANSI)
100
AcDbVertex
100
AcDb2dVertex
 10
20.30318877601553
 20
39.02905763559694
 30
0.0
  0
VERTEX
  5
1F7
330
1E6
100
AcDbEntity
  8
Visible (ANSI)
100
AcDbVertex
100
AcDb2dVertex
 10
20.30015593211787
 20
39.03653631720257
 30
0.0
  0
VERTEX
  5
1F8
330
1E6
100
AcDbEntity
  8
Visible (ANSI)
100
AcDbVertex
100
AcDb2dVertex
 10
20.29712308822021
 20
39.04434949467741
 30
0.0
  0
VERTEX
  5
1F9
330
1E6
100
AcDbEntity
  8
Visible (ANSI)
100
AcDbVertex
100
AcDb2dVertex
 10
20.29409023258935
 20
39.05246370494136
 30
0.0
  0
VERTEX
  5
1FA
330
1E6
100
AcDbEntity
  8
Visible (ANSI)
100
AcDbVertex
100
AcDb2dVertex
 10
20.29105738869168
 20
39.06084420599576
 30
0.0
  0
VERTEX
  5
1FB
330
1E6
100
AcDbEntity
  8
Visible (ANSI)
100
AcDbVertex
100
AcDb2dVertex
 10
20.28802454479402
 20
39.06945510598858
 30
0.0
  0
VERTEX
  5
1FC
330
1E6
100
AcDbEntity
  8
Visible (ANSI)
100
AcDbVertex
100
AcDb2dVertex
 10
20.28499168916316
 20
39.07825953334575
 30
0.0
  0
VERTEX
  5
1FD
330
1E6
100
AcDbEntity
  8
Visible (ANSI)
100
AcDbVertex
100
AcDb2dVertex
 10
20.2819588452655
 20
39.08721980103597
 30
0.0
  0
VERTEX
  5
1FE
330
1E6
100
AcDbEntity
  8
Visible (ANSI)
100
AcDbVertex
100
AcDb2dVertex
 10
20.27892600136784
 20
39.09629750630288
 30
0.0
  0
VERTEX
  5
1FF
330
1E6
100
AcDbEntity
  8
Visible (ANSI)
100
AcDbVertex
100
AcDb2dVertex
 10
20.27589314573698
 20
39.10545381226178
 30
0.0
  0
VERTEX
  5
200
330
1E6
100
AcDbEntity
  8
Visible (ANSI)
100
AcDbVertex
100
AcDb2dVertex
 10
20.27286030183932
 20
39.11464949483248
 30
0.0
  0
SEQEND
  5
1E9
330
1E6
100
AcDbEntity
  8
Visible (ANSI)
  0
LINE
  5
201
330
6C
100
AcDbEntity
  8
Hidden (ANSI)
 48
0.0237087067216635
100
AcDbLine
 10
64.0072603015292
 20
39.18743784217066
 30
0.0
 11
64.1322603015292
 21
39.18743784217066
 31
0.0
  0
POLYLINE
  5
202
330
6C
100
AcDbEntity
  8
Hidden (ANSI)
 48
0.0145282233133912
100
AcDb2dPolyline
 66
     1
 10
0.0
 20
0.0
 30
0.0
 70
   128
  0
VERTEX
  5
203
330
202
100
AcDbEntity
  8
Hidden (ANSI)
 48
0.0145282233133912
100
AcDbVertex
100
AcDb2dVertex
 10
63.9916610131895
 20
39.11464949483248
 30
0.0
  0
VERTEX
  5
204
330
202
100
AcDbEntity
  8
Hidden (ANSI)
 48
0.0145282233133912
100
AcDbVertex
100
AcDb2dVertex
 10
63.99267926702654
 20
39.11768233873014
 30
0.0
  0
VERTEX
  5
206
330
202
100
AcDbEntity
  8
Hidden (ANSI)
 48
0.0145282233133912
100
AcDbVertex
100
AcDb2dVertex
 10
63.99369752086357
 20
39.120715194361
 30
0.0
  0
VERTEX
  5
207
330
202
100
AcDbEntity
  8
Hidden (ANSI)
 48
0.0145282233133912
100
AcDbVertex
100
AcDb2dVertex
 10
63.99470375990609
 20
39.12374803825866
 30
0.0
  0
VERTEX
  5
208
330
202
100
AcDbEntity
  8
Hidden (ANSI)
 48
0.0145282233133912
100
AcDbVertex
100
AcDb2dVertex
 10
63.99569798415406
 20
39.12678088215632
 30
0.0
  0
VERTEX
  5
209
330
202
100
AcDbEntity
  8
Hidden (ANSI)
 48
0.0145282233133912
100
AcDbVertex
100
AcDb2dVertex
 10
63.99667418621023
 20
39.12981373778718
 30
0.0
  0
VERTEX
  5
20A
330
202
100
AcDbEntity
  8
Hidden (ANSI)
 48
0.0145282233133912
100
AcDbVertex
100
AcDb2dVertex
 10
63.99762936237594
 20
39.13284658168484
 30
0.0
  0
VERTEX
  5
20B
330
202
100
AcDbEntity
  8
Hidden (ANSI)
 48
0.0145282233133912
100
AcDbVertex
100
AcDb2dVertex
 10
63.99856050895259
 20
39.13587942558251
 30
0.0
  0
VERTEX
  5
20C
330
202
100
AcDbEntity
  8
Hidden (ANSI)
 48
0.0145282233133912
100
AcDbVertex
100
AcDb2dVertex
 10
63.99946161854289
 20
39.13891228121336
 30
0.0
  0
VERTEX
  5
20D
330
202
100
AcDbEntity
  8
Hidden (ANSI)
 48
0.0145282233133912
100
AcDbVertex
100
AcDb2dVertex
 10
64.00032668374959
 20
39.14194512511102
 30
0.0
  0
VERTEX
  5
20E
330
202
100
AcDbEntity
  8
Hidden (ANSI)
 48
0.0145282233133912
100
AcDbVertex
100
AcDb2dVertex
 10
64.00115570457268
 20
39.14497796900869
 30
0.0
  0
VERTEX
  5
20F
330
202
100
AcDbEntity
  8
Hidden (ANSI)
 48
0.0145282233133912
100
AcDbVertex
100
AcDb2dVertex
 10
64.00194567731351
 20
39.14801082463955
 30
0.0
  0
VERTEX
  5
210
330
202
100
AcDbEntity
  8
Hidden (ANSI)
 48
0.0145282233133912
100
AcDbVertex
100
AcDb2dVertex
 10
64.00269059457483
 20
39.15104366853721
 30
0.0
  0
VERTEX
  5
211
330
202
100
AcDbEntity
  8
Hidden (ANSI)
 48
0.0145282233133912
100
AcDbVertex
100
AcDb2dVertex
 10
64.00339045635664
 20
39.15407651243487
 30
0.0
  0
VERTEX
  5
212
330
202
100
AcDbEntity
  8
Hidden (ANSI)
 48
0.0145282233133912
100
AcDbVertex
100
AcDb2dVertex
 10
64.00403625156302
 20
39.15710936806572
 30
0.0
  0
VERTEX
  5
213
330
202
100
AcDbEntity
  8
Hidden (ANSI)
 48
0.0145282233133912
100
AcDbVertex
100
AcDb2dVertex
 10
64.00463098389261
 20
39.1601422119634
 30
0.0
  0
VERTEX
  5
214
330
202
100
AcDbEntity
  8
Hidden (ANSI)
 48
0.0145282233133912
100
AcDbVertex
100
AcDb2dVertex
 10
64.00517164964679
 20
39.16317505586106
 30
0.0
  0
VERTEX
  5
215
330
202
100
AcDbEntity
  8
Hidden (ANSI)
 48
0.0145282233133912
100
AcDbVertex
100
AcDb2dVertex
 10
64.00565224142829
 20
39.16620791149191
 30
0.0
  0
VERTEX
  5
216
330
202
100
AcDbEntity
  8
Hidden (ANSI)
 48
0.0145282233133912
100
AcDbVertex
100
AcDb2dVertex
 10
64.0060727592371
 20
39.16924075538958
 30
0.0
  0
VERTEX
  5
217
330
202
100
AcDbEntity
  8
Hidden (ANSI)
 48
0.0145282233133912
100
AcDbVertex
100
AcDb2dVertex
 10
64.00643320307323
 20
39.17227361102044
 30
0.0
  0
VERTEX
  5
218
330
202
100
AcDbEntity
  8
Hidden (ANSI)
 48
0.0145282233133912
100
AcDbVertex
100
AcDb2dVertex
 10
64.00672756553941
 20
39.1753064549181
 30
0.0
  0
VERTEX
  5
219
330
202
100
AcDbEntity
  8
Hidden (ANSI)
 48
0.0145282233133912
100
AcDbVertex
100
AcDb2dVertex
 10
64.00696185403288
 20
39.17833929881576
 30
0.0
  0
VERTEX
  5
21A
330
202
100
AcDbEntity
  8
Hidden (ANSI)
 48
0.0145282233133912
100
AcDbVertex
100
AcDb2dVertex
 10
64.00712705745776
 20
39.18137214271342
 30
0.0
  0
VERTEX
  5
21B
330
202
100
AcDbEntity
  8
Hidden (ANSI)
 48
0.0145282233133912
100
AcDbVertex
100
AcDb2dVertex
 10
64.0072261795127
 20
39.18440498661108
 30
0.0
  0
VERTEX
  5
21C
330
202
100
AcDbEntity
  8
Hidden (ANSI)
 48
0.0145282233133912
100
AcDbVertex
100
AcDb2dVertex
 10
64.00725922019766
 20
39.18743783050875
 30
0.0
  0
SEQEND
  5
205
330
202
100
AcDbEntity
  8
Hidden (ANSI)
 48
0.0145282233133912
  0
LINE
  5
21D
330
6C
100
AcDbEntity
  8
Hidden (ANSI)
 48
0.0237087067216635
100
AcDbLine
 10
64.00726030152916
 20
63.64066114687402
 30
0.0
 11
64.13226030152917
 21
63.64066114687402
 31
0.0
  0
POLYLINE
  5
21E
330
6C
100
AcDbEntity
  8
Hidden (ANSI)
 48
0.0145282754674554
100
AcDb2dPolyline
 66
     1
 10
0.0
 20
0.0
 30
0.0
 70
   128
  0
VERTEX
  5
21F
330
21E
100
AcDbEntity
  8
Hidden (ANSI)
 48
0.0145282754674554
100
AcDbVertex
100
AcDb2dVertex
 10
63.9916610131895
 20
63.71345010285541
 30
0.0
  0
VERTEX
  5
220
330
21E
100
AcDbEntity
  8
Hidden (ANSI)
 48
0.0145282754674554
100
AcDbVertex
100
AcDb2dVertex
 10
63.99267926702654
 20
63.71041636723472
 30
0.0
  0
VERTEX
  5
222
330
21E
100
AcDbEntity
  8
Hidden (ANSI)
 48
0.0145282754674554
100
AcDbVertex
100
AcDb2dVertex
 10
63.99369752086357
 20
63.70738413346335
 30
0.0
  0
VERTEX
  5
223
330
21E
100
AcDbEntity
  8
Hidden (ANSI)
 48
0.0145282754674554
100
AcDbVertex
100
AcDb2dVertex
 10
63.99470375990609
 20
63.70435039784265
 30
0.0
  0
VERTEX
  5
224
330
21E
100
AcDbEntity
  8
Hidden (ANSI)
 48
0.0145282754674554
100
AcDbVertex
100
AcDb2dVertex
 10
63.99569798415406
 20
63.70131816407129
 30
0.0
  0
VERTEX
  5
225
330
21E
100
AcDbEntity
  8
Hidden (ANSI)
 48
0.0145282754674554
100
AcDbVertex
100
AcDb2dVertex
 10
63.99667418621023
 20
63.6982859302999
 30
0.0
  0
VERTEX
  5
226
330
21E
100
AcDbEntity
  8
Hidden (ANSI)
 48
0.0145282754674554
100
AcDbVertex
100
AcDb2dVertex
 10
63.99762936237594
 20
63.69525219467921
 30
0.0
  0
VERTEX
  5
227
330
21E
100
AcDbEntity
  8
Hidden (ANSI)
 48
0.0145282754674554
100
AcDbVertex
100
AcDb2dVertex
 10
63.99856050895259
 20
63.69221996090782
 30
0.0
  0
VERTEX
  5
228
330
21E
100
AcDbEntity
  8
Hidden (ANSI)
 48
0.0145282754674554
100
AcDbVertex
100
AcDb2dVertex
 10
63.99946161854289
 20
63.68918622528713
 30
0.0
  0
VERTEX
  5
229
330
21E
100
AcDbEntity
  8
Hidden (ANSI)
 48
0.0145282754674554
100
AcDbVertex
100
AcDb2dVertex
 10
64.00032668374959
 20
63.68615399151575
 30
0.0
  0
VERTEX
  5
22A
330
21E
100
AcDbEntity
  8
Hidden (ANSI)
 48
0.0145282754674554
100
AcDbVertex
100
AcDb2dVertex
 10
64.00115570457268
 20
63.68312175774438
 30
0.0
  0
VERTEX
  5
22B
330
21E
100
AcDbEntity
  8
Hidden (ANSI)
 48
0.0145282754674554
100
AcDbVertex
100
AcDb2dVertex
 10
64.00194567731351
 20
63.68008802212369
 30
0.0
  0
VERTEX
  5
22C
330
21E
100
AcDbEntity
  8
Hidden (ANSI)
 48
0.0145282754674554
100
AcDbVertex
100
AcDb2dVertex
 10
64.00269059457483
 20
63.67705578835232
 30
0.0
  0
VERTEX
  5
22D
330
21E
100
AcDbEntity
  8
Hidden (ANSI)
 48
0.0145282754674554
100
AcDbVertex
100
AcDb2dVertex
 10
64.00339045635664
 20
63.67402205273163
 30
0.0
  0
VERTEX
  5
22E
330
21E
100
AcDbEntity
  8
Hidden (ANSI)
 48
0.0145282754674554
100
AcDbVertex
100
AcDb2dVertex
 10
64.00403625156302
 20
63.67098981896024
 30
0.0
  0
VERTEX
  5
22F
330
21E
100
AcDbEntity
  8
Hidden (ANSI)
 48
0.0145282754674554
100
AcDbVertex
100
AcDb2dVertex
 10
64.00463098389261
 20
63.66795608333955
 30
0.0
  0
VERTEX
  5
230
330
21E
100
AcDbEntity
  8
Hidden (ANSI)
 48
0.0145282754674554
100
AcDbVertex
100
AcDb2dVertex
 10
64.00517164964679
 20
63.66492384956817
 30
0.0
  0
VERTEX
  5
231
330
21E
100
AcDbEntity
  8
Hidden (ANSI)
 48
0.0145282754674554
100
AcDbVertex
100
AcDb2dVertex
 10
64.00565224142829
 20
63.66189161579679
 30
0.0
  0
VERTEX
  5
232
330
21E
100
AcDbEntity
  8
Hidden (ANSI)
 48
0.0145282754674554
100
AcDbVertex
100
AcDb2dVertex
 10
64.0060727592371
 20
63.65885788017609
 30
0.0
  0
VERTEX
  5
233
330
21E
100
AcDbEntity
  8
Hidden (ANSI)
 48
0.0145282754674554
100
AcDbVertex
100
AcDb2dVertex
 10
64.00643320307323
 20
63.65582564640472
 30
0.0
  0
VERTEX
  5
234
330
21E
100
AcDbEntity
  8
Hidden (ANSI)
 48
0.0145282754674554
100
AcDbVertex
100
AcDb2dVertex
 10
64.00672756553941
 20
63.65279191078403
 30
0.0
  0
VERTEX
  5
235
330
21E
100
AcDbEntity
  8
Hidden (ANSI)
 48
0.0145282754674554
100
AcDbVertex
100
AcDb2dVertex
 10
64.00696185403288
 20
63.64975967701266
 30
0.0
  0
VERTEX
  5
236
330
21E
100
AcDbEntity
  8
Hidden (ANSI)
 48
0.0145282754674554
100
AcDbVertex
100
AcDb2dVertex
 10
64.00712705745776
 20
63.64672744324128
 30
0.0
  0
VERTEX
  5
237
330
21E
100
AcDbEntity
  8
Hidden (ANSI)
 48
0.0145282754674554
100
AcDbVertex
100
AcDb2dVertex
 10
64.0072261795127
 20
63.64369370762059
 30
0.0
  0
VERTEX
  5
238
330
21E
100
AcDbEntity
  8
Hidden (ANSI)
 48
0.0145282754674554
100
AcDbVertex
100
AcDb2dVertex
 10
64.00725922019766
 20
63.64066147384921
 30
0.0
  0
SEQEND
  5
221
330
21E
100
AcDbEntity
  8
Hidden (ANSI)
 48
0.0145282754674554
  0
LINE
  5
239
330
6C
100
AcDbEntity
  8
Hidden (ANSI)
 48
0.0237087067216635
100
AcDbLine
 10
63.91887195388086
 20
63.72904949452234
 30
0.0
 11
63.91887195388086
 21
63.85404949452235
 31
0.0
  0
POLYLINE
  5
23A
330
6C
100
AcDbEntity
  8
Hidden (ANSI)
 48
0.0145282773301006
100
AcDb2dPolyline
 66
     1
 10
0.0
 20
0.0
 30
0.0
 70
   128
  0
VERTEX
  5
23B
330
23A
100
AcDbEntity
  8
Hidden (ANSI)
 48
0.0145282773301006
100
AcDbVertex
100
AcDb2dVertex
 10
63.9916610131895
 20
63.71345010285541
 30
0.0
  0
VERTEX
  5
23C
330
23A
100
AcDbEntity
  8
Hidden (ANSI)
 48
0.0145282773301006
100
AcDbVertex
100
AcDb2dVertex
 10
63.9886272775688
 20
63.71446985854178
 30
0.0
  0
VERTEX
  5
23E
330
23A
100
AcDbEntity
  8
Hidden (ANSI)
 48
0.0145282773301006
100
AcDbVertex
100
AcDb2dVertex
 10
63.9855935419481
 20
63.71548510868018
 30
0.0
  0
VERTEX
  5
23F
330
23A
100
AcDbEntity
  8
Hidden (ANSI)
 48
0.0145282773301006
100
AcDbVertex
100
AcDb2dVertex
 10
63.98256281002606
 20
63.71649284957202
 30
0.0
  0
VERTEX
  5
240
330
23A
100
AcDbEntity
  8
Hidden (ANSI)
 48
0.0145282773301006
100
AcDbVertex
100
AcDb2dVertex
 10
63.97952907440536
 20
63.71748707381999
 30
0.0
  0
VERTEX
  5
241
330
23A
100
AcDbEntity
  8
Hidden (ANSI)
 48
0.0145282773301006
100
AcDbVertex
100
AcDb2dVertex
 10
63.97649533878467
 20
63.71846327587615
 30
0.0
  0
VERTEX
  5
242
330
23A
100
AcDbEntity
  8
Hidden (ANSI)
 48
0.0145282773301006
100
AcDbVertex
100
AcDb2dVertex
 10
63.97346460686259
 20
63.71941995389118
 30
0.0
  0
VERTEX
  5
243
330
23A
100
AcDbEntity
  8
Hidden (ANSI)
 48
0.0145282773301006
100
AcDbVertex
100
AcDb2dVertex
 10
63.9704308712419
 20
63.72034959861852
 30
0.0
  0
VERTEX
  5
244
330
23A
100
AcDbEntity
  8
Hidden (ANSI)
 48
0.0145282773301006
100
AcDbVertex
100
AcDb2dVertex
 10
63.9673971356212
 20
63.72124920635951
 30
0.0
  0
VERTEX
  5
245
330
23A
100
AcDbEntity
  8
Hidden (ANSI)
 48
0.0145282773301006
100
AcDbVertex
100
AcDb2dVertex
 10
63.96436340000051
 20
63.72211577341551
 30
0.0
  0
VERTEX
  5
246
330
23A
100
AcDbEntity
  8
Hidden (ANSI)
 48
0.0145282773301006
100
AcDbVertex
100
AcDb2dVertex
 10
63.96133266807845
 20
63.72294629608791
 30
0.0
  0
VERTEX
  5
247
330
23A
100
AcDbEntity
  8
Hidden (ANSI)
 48
0.0145282773301006
100
AcDbVertex
100
AcDb2dVertex
 10
63.95829893245775
 20
63.72373476697944
 30
0.0
  0
VERTEX
  5
248
330
23A
100
AcDbEntity
  8
Hidden (ANSI)
 48
0.0145282773301006
100
AcDbVertex
100
AcDb2dVertex
 10
63.95526519683707
 20
63.72447968424076
 30
0.0
  0
VERTEX
  5
249
330
23A
100
AcDbEntity
  8
Hidden (ANSI)
 48
0.0145282773301006
100
AcDbVertex
100
AcDb2dVertex
 10
63.95223446491501
 20
63.72517804417324
 30
0.0
  0
VERTEX
  5
24A
330
23A
100
AcDbEntity
  8
Hidden (ANSI)
 48
0.0145282773301006
100
AcDbVertex
100
AcDb2dVertex
 10
63.94920072929432
 20
63.72582534122893
 30
0.0
  0
VERTEX
  5
24B
330
23A
100
AcDbEntity
  8
Hidden (ANSI)
 48
0.0145282773301006
100
AcDbVertex
100
AcDb2dVertex
 10
63.94616699367362
 20
63.72642007355854
 30
0.0
  0
VERTEX
  5
24C
330
23A
100
AcDbEntity
  8
Hidden (ANSI)
 48
0.0145282773301006
100
AcDbVertex
100
AcDb2dVertex
 10
63.94313325805293
 20
63.7269592374634
 30
0.0
  0
VERTEX
  5
24D
330
23A
100
AcDbEntity
  8
Hidden (ANSI)
 48
0.0145282773301006
100
AcDbVertex
100
AcDb2dVertex
 10
63.94010252613087
 20
63.72744133109423
 30
0.0
  0
VERTEX
  5
24E
330
23A
100
AcDbEntity
  8
Hidden (ANSI)
 48
0.0145282773301006
100
AcDbVertex
100
AcDb2dVertex
 10
63.93706879051018
 20
63.72786184890303
 30
0.0
  0
VERTEX
  5
24F
330
23A
100
AcDbEntity
  8
Hidden (ANSI)
 48
0.0145282773301006
100
AcDbVertex
100
AcDb2dVertex
 10
63.93403505488948
 20
63.72822229273915
 30
0.0
  0
VERTEX
  5
250
330
23A
100
AcDbEntity
  8
Hidden (ANSI)
 48
0.0145282773301006
100
AcDbVertex
100
AcDb2dVertex
 10
63.93100432296742
 20
63.72851815705464
 30
0.0
  0
VERTEX
  5
251
330
23A
100
AcDbEntity
  8
Hidden (ANSI)
 48
0.0145282773301006
100
AcDbVertex
100
AcDb2dVertex
 10
63.92797058734673
 20
63.7287494418495
 30
0.0
  0
VERTEX
  5
252
330
23A
100
AcDbEntity
  8
Hidden (ANSI)
 48
0.0145282773301006
100
AcDbVertex
100
AcDb2dVertex
 10
63.92493685172603
 20
63.72891614712369
 30
0.0
  0
VERTEX
  5
253
330
23A
100
AcDbEntity
  8
Hidden (ANSI)
 48
0.0145282773301006
100
AcDbVertex
100
AcDb2dVertex
 10
63.92190611980397
 20
63.72901677102793
 30
0.0
  0
VERTEX
  5
254
330
23A
100
AcDbEntity
  8
Hidden (ANSI)
 48
0.0145282773301006
100
AcDbVertex
100
AcDb2dVertex
 10
63.91887238418327
 20
63.72904981171292
 30
0.0
  0
SEQEND
  5
23D
330
23A
100
AcDbEntity
  8
Hidden (ANSI)
 48
0.0145282773301006
  0
LINE
  5
255
330
6C
100
AcDbEntity
  8
Hidden (ANSI)
 48
0.0237087067216635
100
AcDbLine
 10
20.3456486491775
 20
63.72904949452234
 30
0.0
 11
20.3456486491775
 21
63.85404949452235
 31
0.0
  0
POLYLINE
  5
256
330
6C
100
AcDbEntity
  8
Hidden (ANSI)
 48
0.0145282233133912
100
AcDb2dPolyline
 66
     1
 10
0.0
 20
0.0
 30
0.0
 70
   128
  0
VERTEX
  5
257
330
256
100
AcDbEntity
  8
Hidden (ANSI)
 48
0.0145282233133912
100
AcDbVertex
100
AcDb2dVertex
 10
20.27286030183932
 20
63.71345010285541
 30
0.0
  0
VERTEX
  5
258
330
256
100
AcDbEntity
  8
Hidden (ANSI)
 48
0.0145282233133912
100
AcDbVertex
100
AcDb2dVertex
 10
20.27589314573698
 20
63.71446985854178
 30
0.0
  0
VERTEX
  5
25A
330
256
100
AcDbEntity
  8
Hidden (ANSI)
 48
0.0145282233133912
100
AcDbVertex
100
AcDb2dVertex
 10
20.27892600136784
 20
63.71548510868018
 30
0.0
  0
VERTEX
  5
25B
330
256
100
AcDbEntity
  8
Hidden (ANSI)
 48
0.0145282233133912
100
AcDbVertex
100
AcDb2dVertex
 10
20.2819588452655
 20
63.71649284957202
 30
0.0
  0
VERTEX
  5
25C
330
256
100
AcDbEntity
  8
Hidden (ANSI)
 48
0.0145282233133912
100
AcDbVertex
100
AcDb2dVertex
 10
20.28499168916316
 20
63.71748707381999
 30
0.0
  0
VERTEX
  5
25D
330
256
100
AcDbEntity
  8
Hidden (ANSI)
 48
0.0145282233133912
100
AcDbVertex
100
AcDb2dVertex
 10
20.28802454479402
 20
63.71846327587615
 30
0.0
  0
VERTEX
  5
25E
330
256
100
AcDbEntity
  8
Hidden (ANSI)
 48
0.0145282233133912
100
AcDbVertex
100
AcDb2dVertex
 10
20.29105738869168
 20
63.71941995389118
 30
0.0
  0
VERTEX
  5
25F
330
256
100
AcDbEntity
  8
Hidden (ANSI)
 48
0.0145282233133912
100
AcDbVertex
100
AcDb2dVertex
 10
20.29409023258935
 20
63.72034959861852
 30
0.0
  0
VERTEX
  5
260
330
256
100
AcDbEntity
  8
Hidden (ANSI)
 48
0.0145282233133912
100
AcDbVertex
100
AcDb2dVertex
 10
20.29712308822021
 20
63.72124920635951
 30
0.0
  0
VERTEX
  5
261
330
256
100
AcDbEntity
  8
Hidden (ANSI)
 48
0.0145282233133912
100
AcDbVertex
100
AcDb2dVertex
 10
20.30015593211787
 20
63.72211577341551
 30
0.0
  0
VERTEX
  5
262
330
256
100
AcDbEntity
  8
Hidden (ANSI)
 48
0.0145282233133912
100
AcDbVertex
100
AcDb2dVertex
 10
20.30318877601553
 20
63.72294629608791
 30
0.0
  0
VERTEX
  5
263
330
256
100
AcDbEntity
  8
Hidden (ANSI)
 48
0.0145282233133912
100
AcDbVertex
100
AcDb2dVertex
 10
20.30622163164639
 20
63.72373476697944
 30
0.0
  0
VERTEX
  5
264
330
256
100
AcDbEntity
  8
Hidden (ANSI)
 48
0.0145282233133912
100
AcDbVertex
100
AcDb2dVertex
 10
20.30925447554405
 20
63.72447968424076
 30
0.0
  0
VERTEX
  5
265
330
256
100
AcDbEntity
  8
Hidden (ANSI)
 48
0.0145282233133912
100
AcDbVertex
100
AcDb2dVertex
 10
20.31228731944171
 20
63.72517804417324
 30
0.0
  0
VERTEX
  5
266
330
256
100
AcDbEntity
  8
Hidden (ANSI)
 48
0.0145282233133912
100
AcDbVertex
100
AcDb2dVertex
 10
20.31532017507257
 20
63.72582534122893
 30
0.0
  0
VERTEX
  5
267
330
256
100
AcDbEntity
  8
Hidden (ANSI)
 48
0.0145282233133912
100
AcDbVertex
100
AcDb2dVertex
 10
20.31835301897023
 20
63.72642007355854
 30
0.0
  0
VERTEX
  5
268
330
256
100
AcDbEntity
  8
Hidden (ANSI)
 48
0.0145282233133912
100
AcDbVertex
100
AcDb2dVertex
 10
20.3213858628679
 20
63.7269592374634
 30
0.0
  0
VERTEX
  5
269
330
256
100
AcDbEntity
  8
Hidden (ANSI)
 48
0.0145282233133912
100
AcDbVertex
100
AcDb2dVertex
 10
20.32441871849876
 20
63.72744133109423
 30
0.0
  0
VERTEX
  5
26A
330
256
100
AcDbEntity
  8
Hidden (ANSI)
 48
0.0145282233133912
100
AcDbVertex
100
AcDb2dVertex
 10
20.32745156239641
 20
63.72786184890303
 30
0.0
  0
VERTEX
  5
26B
330
256
100
AcDbEntity
  8
Hidden (ANSI)
 48
0.0145282233133912
100
AcDbVertex
100
AcDb2dVertex
 10
20.33048441802728
 20
63.72822229273915
 30
0.0
  0
VERTEX
  5
26C
330
256
100
AcDbEntity
  8
Hidden (ANSI)
 48
0.0145282233133912
100
AcDbVertex
100
AcDb2dVertex
 10
20.33351726192494
 20
63.72851815705464
 30
0.0
  0
VERTEX
  5
26D
330
256
100
AcDbEntity
  8
Hidden (ANSI)
 48
0.0145282233133912
100
AcDbVertex
100
AcDb2dVertex
 10
20.3365501058226
 20
63.7287494418495
 30
0.0
  0
VERTEX
  5
26E
330
256
100
AcDbEntity
  8
Hidden (ANSI)
 48
0.0145282233133912
100
AcDbVertex
100
AcDb2dVertex
 10
20.33958294972026
 20
63.72891614712369
 30
0.0
  0
VERTEX
  5
26F
330
256
100
AcDbEntity
  8
Hidden (ANSI)
 48
0.0145282233133912
100
AcDbVertex
100
AcDb2dVertex
 10
20.34261579361793
 20
63.72901677102793
 30
0.0
  0
VERTEX
  5
270
330
256
100
AcDbEntity
  8
Hidden (ANSI)
 48
0.0145282233133912
100
AcDbVertex
100
AcDb2dVertex
 10
20.34564863751558
 20
63.72904981171292
 30
0.0
  0
SEQEND
  5
259
330
256
100
AcDbEntity
  8
Hidden (ANSI)
 48
0.0145282233133912
  0
LINE
  5
271
330
6C
100
AcDbEntity
  8
Hidden (ANSI)
 48
0.0237087067216635
100
AcDbLine
 10
20.25726030152918
 20
63.64066114687402
 30
0.0
 11
20.13226030152918
 21
63.64066114687402
 31
0.0
  0
POLYLINE
  5
272
330
6C
100
AcDbEntity
  8
Hidden (ANSI)
 48
0.014528313651681
100
AcDb2dPolyline
 66
     1
 10
0.0
 20
0.0
 30
0.0
 70
   128
  0
VERTEX
  5
273
330
272
100
AcDbEntity
  8
Hidden (ANSI)
 48
0.014528313651681
100
AcDbVertex
100
AcDb2dVertex
 10
20.27286030183932
 20
63.71345010285541
 30
0.0
  0
VERTEX
  5
274
330
272
100
AcDbEntity
  8
Hidden (ANSI)
 48
0.014528313651681
100
AcDbVertex
100
AcDb2dVertex
 10
20.27184001815905
 20
63.71041636723472
 30
0.0
  0
VERTEX
  5
276
330
272
100
AcDbEntity
  8
Hidden (ANSI)
 48
0.014528313651681
100
AcDbVertex
100
AcDb2dVertex
 10
20.27082408749517
 20
63.70738413346335
 30
0.0
  0
VERTEX
  5
277
330
272
100
AcDbEntity
  8
Hidden (ANSI)
 48
0.014528313651681
100
AcDbVertex
100
AcDb2dVertex
 10
20.26981689806365
 20
63.70435039784265
 30
0.0
  0
VERTEX
  5
278
330
272
100
AcDbEntity
  8
Hidden (ANSI)
 48
0.014528313651681
100
AcDbVertex
100
AcDb2dVertex
 10
20.26882272074846
 20
63.70131816407129
 30
0.0
  0
VERTEX
  5
279
330
272
100
AcDbEntity
  8
Hidden (ANSI)
 48
0.014528313651681
100
AcDbVertex
100
AcDb2dVertex
 10
20.26784584990003
 20
63.6982859302999
 30
0.0
  0
VERTEX
  5
27A
330
272
100
AcDbEntity
  8
Hidden (ANSI)
 48
0.014528313651681
100
AcDbVertex
100
AcDb2dVertex
 10
20.26689043907035
 20
63.69525219467921
 30
0.0
  0
VERTEX
  5
27B
330
272
100
AcDbEntity
  8
Hidden (ANSI)
 48
0.014528313651681
100
AcDbVertex
100
AcDb2dVertex
 10
20.26596059487866
 20
63.69221996090782
 30
0.0
  0
VERTEX
  5
27C
330
272
100
AcDbEntity
  8
Hidden (ANSI)
 48
0.014528313651681
100
AcDbVertex
100
AcDb2dVertex
 10
20.2650603066122
 20
63.68918622528713
 30
0.0
  0
VERTEX
  5
27D
330
272
100
AcDbEntity
  8
Hidden (ANSI)
 48
0.014528313651681
100
AcDbVertex
100
AcDb2dVertex
 10
20.26419341102664
 20
63.68615399151575
 30
0.0
  0
VERTEX
  5
27E
330
272
100
AcDbEntity
  8
Hidden (ANSI)
 48
0.014528313651681
100
AcDbVertex
100
AcDb2dVertex
 10
20.26336362754571
 20
63.68312175774438
 30
0.0
  0
VERTEX
  5
27F
330
272
100
AcDbEntity
  8
Hidden (ANSI)
 48
0.014528313651681
100
AcDbVertex
100
AcDb2dVertex
 10
20.26257451132831
 20
63.68008802212369
 30
0.0
  0
VERTEX
  5
280
330
272
100
AcDbEntity
  8
Hidden (ANSI)
 48
0.014528313651681
100
AcDbVertex
100
AcDb2dVertex
 10
20.26182944153542
 20
63.67705578835232
 30
0.0
  0
VERTEX
  5
281
330
272
100
AcDbEntity
  8
Hidden (ANSI)
 48
0.014528313651681
100
AcDbVertex
100
AcDb2dVertex
 10
20.26113159786364
 20
63.67402205273163
 30
0.0
  0
VERTEX
  5
282
330
272
100
AcDbEntity
  8
Hidden (ANSI)
 48
0.014528313651681
100
AcDbVertex
100
AcDb2dVertex
 10
20.2604839840116
 20
63.67098981896024
 30
0.0
  0
VERTEX
  5
283
330
272
100
AcDbEntity
  8
Hidden (ANSI)
 48
0.014528313651681
100
AcDbVertex
100
AcDb2dVertex
 10
20.25988938074717
 20
63.66795608333955
 30
0.0
  0
VERTEX
  5
284
330
272
100
AcDbEntity
  8
Hidden (ANSI)
 48
0.014528313651681
100
AcDbVertex
100
AcDb2dVertex
 10
20.25935031070789
 20
63.66492384956817
 30
0.0
  0
VERTEX
  5
285
330
272
100
AcDbEntity
  8
Hidden (ANSI)
 48
0.014528313651681
100
AcDbVertex
100
AcDb2dVertex
 10
20.25886908533371
 20
63.66189161579679
 30
0.0
  0
VERTEX
  5
286
330
272
100
AcDbEntity
  8
Hidden (ANSI)
 48
0.014528313651681
100
AcDbVertex
100
AcDb2dVertex
 10
20.25844778140065
 20
63.65885788017609
 30
0.0
  0
VERTEX
  5
287
330
272
100
AcDbEntity
  8
Hidden (ANSI)
 48
0.014528313651681
100
AcDbVertex
100
AcDb2dVertex
 10
20.25808819408796
 20
63.65582564640472
 30
0.0
  0
VERTEX
  5
288
330
272
100
AcDbEntity
  8
Hidden (ANSI)
 48
0.014528313651681
100
AcDbVertex
100
AcDb2dVertex
 10
20.25779186044457
 20
63.65279191078403
 30
0.0
  0
VERTEX
  5
289
330
272
100
AcDbEntity
  8
Hidden (ANSI)
 48
0.014528313651681
100
AcDbVertex
100
AcDb2dVertex
 10
20.25756004765582
 20
63.64975967701266
 30
0.0
  0
VERTEX
  5
28A
330
272
100
AcDbEntity
  8
Hidden (ANSI)
 48
0.014528313651681
100
AcDbVertex
100
AcDb2dVertex
 10
20.25739376477674
 20
63.64672744324128
 30
0.0
  0
VERTEX
  5
28B
330
272
100
AcDbEntity
  8
Hidden (ANSI)
 48
0.014528313651681
100
AcDbVertex
100
AcDb2dVertex
 10
20.25729370406598
 20
63.64369370762059
 30
0.0
  0
VERTEX
  5
28C
330
272
100
AcDbEntity
  8
Hidden (ANSI)
 48
0.014528313651681
100
AcDbVertex
100
AcDb2dVertex
 10
20.25726029965187
 20
63.64066147384921
 30
0.0
  0
SEQEND
  5
275
330
272
100
AcDbEntity
  8
Hidden (ANSI)
 48
0.014528313651681
  0
LINE
  5
28D
330
6C
100
AcDbEntity
  8
Hidden (ANSI)
 48
0.0237087067216635
100
AcDbLine
 10
20.25726030152918
 20
39.18743784217066
 30
0.0
 11
20.13226030152919
 21
39.18743784217066
 31
0.0
  0
POLYLINE
  5
28E
330
6C
100
AcDbEntity
  8
Hidden (ANSI)
 48
0.0145282614976168
100
AcDb2dPolyline
 66
     1
 10
0.0
 20
0.0
 30
0.0
 70
   128
  0
VERTEX
  5
28F
330
28E
100
AcDbEntity
  8
Hidden (ANSI)
 48
0.0145282614976168
100
AcDbVertex
100
AcDb2dVertex
 10
20.27286030183932
 20
39.11464949483248
 30
0.0
  0
VERTEX
  5
290
330
28E
100
AcDbEntity
  8
Hidden (ANSI)
 48
0.0145282614976168
100
AcDbVertex
100
AcDb2dVertex
 10
20.27184001815905
 20
39.11768233873014
 30
0.0
  0
VERTEX
  5
292
330
28E
100
AcDbEntity
  8
Hidden (ANSI)
 48
0.0145282614976168
100
AcDbVertex
100
AcDb2dVertex
 10
20.27082408749517
 20
39.120715194361
 30
0.0
  0
VERTEX
  5
293
330
28E
100
AcDbEntity
  8
Hidden (ANSI)
 48
0.0145282614976168
100
AcDbVertex
100
AcDb2dVertex
 10
20.26981689806365
 20
39.12374803825866
 30
0.0
  0
VERTEX
  5
294
330
28E
100
AcDbEntity
  8
Hidden (ANSI)
 48
0.0145282614976168
100
AcDbVertex
100
AcDb2dVertex
 10
20.26882272074846
 20
39.12678088215632
 30
0.0
  0
VERTEX
  5
295
330
28E
100
AcDbEntity
  8
Hidden (ANSI)
 48
0.0145282614976168
100
AcDbVertex
100
AcDb2dVertex
 10
20.26784584990003
 20
39.12981373778718
 30
0.0
  0
VERTEX
  5
296
330
28E
100
AcDbEntity
  8
Hidden (ANSI)
 48
0.0145282614976168
100
AcDbVertex
100
AcDb2dVertex
 10
20.26689043907035
 20
39.13284658168484
 30
0.0
  0
VERTEX
  5
297
330
28E
100
AcDbEntity
  8
Hidden (ANSI)
 48
0.0145282614976168
100
AcDbVertex
100
AcDb2dVertex
 10
20.26596059487866
 20
39.13587942558251
 30
0.0
  0
VERTEX
  5
298
330
28E
100
AcDbEntity
  8
Hidden (ANSI)
 48
0.0145282614976168
100
AcDbVertex
100
AcDb2dVertex
 10
20.2650603066122
 20
39.13891228121336
 30
0.0
  0
VERTEX
  5
299
330
28E
100
AcDbEntity
  8
Hidden (ANSI)
 48
0.0145282614976168
100
AcDbVertex
100
AcDb2dVertex
 10
20.26419341102664
 20
39.14194512511102
 30
0.0
  0
VERTEX
  5
29A
330
28E
100
AcDbEntity
  8
Hidden (ANSI)
 48
0.0145282614976168
100
AcDbVertex
100
AcDb2dVertex
 10
20.26336362754571
 20
39.14497796900869
 30
0.0
  0
VERTEX
  5
29B
330
28E
100
AcDbEntity
  8
Hidden (ANSI)
 48
0.0145282614976168
100
AcDbVertex
100
AcDb2dVertex
 10
20.26257451132831
 20
39.14801082463955
 30
0.0
  0
VERTEX
  5
29C
330
28E
100
AcDbEntity
  8
Hidden (ANSI)
 48
0.0145282614976168
100
AcDbVertex
100
AcDb2dVertex
 10
20.26182944153542
 20
39.15104366853721
 30
0.0
  0
VERTEX
  5
29D
330
28E
100
AcDbEntity
  8
Hidden (ANSI)
 48
0.0145282614976168
100
AcDbVertex
100
AcDb2dVertex
 10
20.26113159786364
 20
39.15407651243487
 30
0.0
  0
VERTEX
  5
29E
330
28E
100
AcDbEntity
  8
Hidden (ANSI)
 48
0.0145282614976168
100
AcDbVertex
100
AcDb2dVertex
 10
20.2604839840116
 20
39.15710936806572
 30
0.0
  0
VERTEX
  5
29F
330
28E
100
AcDbEntity
  8
Hidden (ANSI)
 48
0.0145282614976168
100
AcDbVertex
100
AcDb2dVertex
 10
20.25988938074717
 20
39.1601422119634
 30
0.0
  0
VERTEX
  5
2A0
330
28E
100
AcDbEntity
  8
Hidden (ANSI)
 48
0.0145282614976168
100
AcDbVertex
100
AcDb2dVertex
 10
20.25935031070789
 20
39.16317505586106
 30
0.0
  0
VERTEX
  5
2A1
330
28E
100
AcDbEntity
  8
Hidden (ANSI)
 48
0.0145282614976168
100
AcDbVertex
100
AcDb2dVertex
 10
20.25886908533371
 20
39.16620791149191
 30
0.0
  0
VERTEX
  5
2A2
330
28E
100
AcDbEntity
  8
Hidden (ANSI)
 48
0.0145282614976168
100
AcDbVertex
100
AcDb2dVertex
 10
20.25844778140065
 20
39.16924075538958
 30
0.0
  0
VERTEX
  5
2A3
330
28E
100
AcDbEntity
  8
Hidden (ANSI)
 48
0.0145282614976168
100
AcDbVertex
100
AcDb2dVertex
 10
20.25808819408796
 20
39.17227361102044
 30
0.0
  0
VERTEX
  5
2A4
330
28E
100
AcDbEntity
  8
Hidden (ANSI)
 48
0.0145282614976168
100
AcDbVertex
100
AcDb2dVertex
 10
20.25779186044457
 20
39.1753064549181
 30
0.0
  0
VERTEX
  5
2A5
330
28E
100
AcDbEntity
  8
Hidden (ANSI)
 48
0.0145282614976168
100
AcDbVertex
100
AcDb2dVertex
 10
20.25756004765582
 20
39.17833929881576
 30
0.0
  0
VERTEX
  5
2A6
330
28E
100
AcDbEntity
  8
Hidden (ANSI)
 48
0.0145282614976168
100
AcDbVertex
100
AcDb2dVertex
 10
20.25739376477674
 20
39.18137214271342
 30
0.0
  0
VERTEX
  5
2A7
330
28E
100
AcDbEntity
  8
Hidden (ANSI)
 48
0.0145282614976168
100
AcDbVertex
100
AcDb2dVertex
 10
20.25729370406598
 20
39.18440498661108
 30
0.0
  0
VERTEX
  5
2A8
330
28E
100
AcDbEntity
  8
Hidden (ANSI)
 48
0.0145282614976168
100
AcDbVertex
100
AcDb2dVertex
 10
20.25726029965187
 20
39.18743783050875
 30
0.0
  0
SEQEND
  5
291
330
28E
100
AcDbEntity
  8
Hidden (ANSI)
 48
0.0145282614976168
  0
LINE
  5
2A9
330
6C
100
AcDbEntity
  8
Hidden (ANSI)
 48
0.0237087067216635
100
AcDbLine
 10
20.3456486491775
 20
39.09904949452235
 30
0.0
 11
20.3456486491775
 21
38.97404949452234
 31
0.0
  0
POLYLINE
  5
2AA
330
6C
100
AcDbEntity
  8
Hidden (ANSI)
 48
0.0145282614976168
100
AcDb2dPolyline
 66
     1
 10
0.0
 20
0.0
 30
0.0
 70
   128
  0
VERTEX
  5
2AB
330
2AA
100
AcDbEntity
  8
Hidden (ANSI)
 48
0.0145282614976168
100
AcDbVertex
100
AcDb2dVertex
 10
20.27286030183932
 20
39.11464949483248
 30
0.0
  0
VERTEX
  5
2AC
330
2AA
100
AcDbEntity
  8
Hidden (ANSI)
 48
0.0145282614976168
100
AcDbVertex
100
AcDb2dVertex
 10
20.27589314573698
 20
39.11362921115222
 30
0.0
  0
VERTEX
  5
2AE
330
2AA
100
AcDbEntity
  8
Hidden (ANSI)
 48
0.0145282614976168
100
AcDbVertex
100
AcDb2dVertex
 10
20.27892600136784
 20
39.11261328048833
 30
0.0
  0
VERTEX
  5
2AF
330
2AA
100
AcDbEntity
  8
Hidden (ANSI)
 48
0.0145282614976168
100
AcDbVertex
100
AcDb2dVertex
 10
20.2819588452655
 20
39.1116060910568
 30
0.0
  0
VERTEX
  5
2B0
330
2AA
100
AcDbEntity
  8
Hidden (ANSI)
 48
0.0145282614976168
100
AcDbVertex
100
AcDb2dVertex
 10
20.28499168916316
 20
39.11061191374162
 30
0.0
  0
VERTEX
  5
2B1
330
2AA
100
AcDbEntity
  8
Hidden (ANSI)
 48
0.0145282614976168
100
AcDbVertex
100
AcDb2dVertex
 10
20.28802454479402
 20
39.10963504289319
 30
0.0
  0
VERTEX
  5
2B2
330
2AA
100
AcDbEntity
  8
Hidden (ANSI)
 48
0.0145282614976168
100
AcDbVertex
100
AcDb2dVertex
 10
20.29105738869168
 20
39.10867963206351
 30
0.0
  0
VERTEX
  5
2B3
330
2AA
100
AcDbEntity
  8
Hidden (ANSI)
 48
0.0145282614976168
100
AcDbVertex
100
AcDb2dVertex
 10
20.29409023258935
 20
39.10774978787181
 30
0.0
  0
VERTEX
  5
2B4
330
2AA
100
AcDbEntity
  8
Hidden (ANSI)
 48
0.0145282614976168
100
AcDbVertex
100
AcDb2dVertex
 10
20.29712308822021
 20
39.10684949960535
 30
0.0
  0
VERTEX
  5
2B5
330
2AA
100
AcDbEntity
  8
Hidden (ANSI)
 48
0.0145282614976168
100
AcDbVertex
100
AcDb2dVertex
 10
20.30015593211787
 20
39.1059826040198
 30
0.0
  0
VERTEX
  5
2B6
330
2AA
100
AcDbEntity
  8
Hidden (ANSI)
 48
0.0145282614976168
100
AcDbVertex
100
AcDb2dVertex
 10
20.30318877601553
 20
39.10515282053887
 30
0.0
  0
VERTEX
  5
2B7
330
2AA
100
AcDbEntity
  8
Hidden (ANSI)
 48
0.0145282614976168
100
AcDbVertex
100
AcDb2dVertex
 10
20.30622163164639
 20
39.10436370432147
 30
0.0
  0
VERTEX
  5
2B8
330
2AA
100
AcDbEntity
  8
Hidden (ANSI)
 48
0.0145282614976168
100
AcDbVertex
100
AcDb2dVertex
 10
20.30925447554405
 20
39.10361863452858
 30
0.0
  0
VERTEX
  5
2B9
330
2AA
100
AcDbEntity
  8
Hidden (ANSI)
 48
0.0145282614976168
100
AcDbVertex
100
AcDb2dVertex
 10
20.31228731944171
 20
39.1029207908568
 30
0.0
  0
VERTEX
  5
2BA
330
2AA
100
AcDbEntity
  8
Hidden (ANSI)
 48
0.0145282614976168
100
AcDbVertex
100
AcDb2dVertex
 10
20.31532017507257
 20
39.10227317700476
 30
0.0
  0
VERTEX
  5
2BB
330
2AA
100
AcDbEntity
  8
Hidden (ANSI)
 48
0.0145282614976168
100
AcDbVertex
100
AcDb2dVertex
 10
20.31835301897023
 20
39.10167857374033
 30
0.0
  0
VERTEX
  5
2BC
330
2AA
100
AcDbEntity
  8
Hidden (ANSI)
 48
0.0145282614976168
100
AcDbVertex
100
AcDb2dVertex
 10
20.3213858628679
 20
39.10113950370105
 30
0.0
  0
VERTEX
  5
2BD
330
2AA
100
AcDbEntity
  8
Hidden (ANSI)
 48
0.0145282614976168
100
AcDbVertex
100
AcDb2dVertex
 10
20.32441871849876
 20
39.10065827832688
 30
0.0
  0
VERTEX
  5
2BE
330
2AA
100
AcDbEntity
  8
Hidden (ANSI)
 48
0.0145282614976168
100
AcDbVertex
100
AcDb2dVertex
 10
20.32745156239641
 20
39.10023697439381
 30
0.0
  0
VERTEX
  5
2BF
330
2AA
100
AcDbEntity
  8
Hidden (ANSI)
 48
0.0145282614976168
100
AcDbVertex
100
AcDb2dVertex
 10
20.33048441802728
 20
39.09987738708112
 30
0.0
  0
VERTEX
  5
2C0
330
2AA
100
AcDbEntity
  8
Hidden (ANSI)
 48
0.0145282614976168
100
AcDbVertex
100
AcDb2dVertex
 10
20.33351726192494
 20
39.09958105343773
 30
0.0
  0
VERTEX
  5
2C1
330
2AA
100
AcDbEntity
  8
Hidden (ANSI)
 48
0.0145282614976168
100
AcDbVertex
100
AcDb2dVertex
 10
20.3365501058226
 20
39.09934924064899
 30
0.0
  0
VERTEX
  5
2C2
330
2AA
100
AcDbEntity
  8
Hidden (ANSI)
 48
0.0145282614976168
100
AcDbVertex
100
AcDb2dVertex
 10
20.33958294972026
 20
39.0991829577699
 30
0.0
  0
VERTEX
  5
2C3
330
2AA
100
AcDbEntity
  8
Hidden (ANSI)
 48
0.0145282614976168
100
AcDbVertex
100
AcDb2dVertex
 10
20.34261579361793
 20
39.09908289705914
 30
0.0
  0
VERTEX
  5
2C4
330
2AA
100
AcDbEntity
  8
Hidden (ANSI)
 48
0.0145282614976168
100
AcDbVertex
100
AcDb2dVertex
 10
20.34564863751558
 20
39.09904949264503
 30
0.0
  0
SEQEND
  5
2AD
330
2AA
100
AcDbEntity
  8
Hidden (ANSI)
 48
0.0145282614976168
  0
LINE
  5
2C5
330
6C
100
AcDbEntity
  8
Hidden (ANSI)
 48
0.0237087067216635
100
AcDbLine
 10
63.91887195388086
 20
39.09904949452235
 30
0.0
 11
63.91887195388086
 21
38.97404949452234
 31
0.0
  0
POLYLINE
  5
2C6
330
6C
100
AcDbEntity
  8
Hidden (ANSI)
 48
0.0145283145830035
100
AcDb2dPolyline
 66
     1
 10
0.0
 20
0.0
 30
0.0
 70
   128
  0
VERTEX
  5
2C7
330
2C6
100
AcDbEntity
  8
Hidden (ANSI)
 48
0.0145283145830035
100
AcDbVertex
100
AcDb2dVertex
 10
63.9916610131895
 20
39.11464949483248
 30
0.0
  0
VERTEX
  5
2C8
330
2C6
100
AcDbEntity
  8
Hidden (ANSI)
 48
0.0145283145830035
100
AcDbVertex
100
AcDb2dVertex
 10
63.9886272775688
 20
39.11362921115222
 30
0.0
  0
VERTEX
  5
2CA
330
2C6
100
AcDbEntity
  8
Hidden (ANSI)
 48
0.0145283145830035
100
AcDbVertex
100
AcDb2dVertex
 10
63.9855935419481
 20
39.11261328048833
 30
0.0
  0
VERTEX
  5
2CB
330
2C6
100
AcDbEntity
  8
Hidden (ANSI)
 48
0.0145283145830035
100
AcDbVertex
100
AcDb2dVertex
 10
63.98256281002606
 20
39.1116060910568
 30
0.0
  0
VERTEX
  5
2CC
330
2C6
100
AcDbEntity
  8
Hidden (ANSI)
 48
0.0145283145830035
100
AcDbVertex
100
AcDb2dVertex
 10
63.97952907440536
 20
39.11061191374162
 30
0.0
  0
VERTEX
  5
2CD
330
2C6
100
AcDbEntity
  8
Hidden (ANSI)
 48
0.0145283145830035
100
AcDbVertex
100
AcDb2dVertex
 10
63.97649533878467
 20
39.10963504289319
 30
0.0
  0
VERTEX
  5
2CE
330
2C6
100
AcDbEntity
  8
Hidden (ANSI)
 48
0.0145283145830035
100
AcDbVertex
100
AcDb2dVertex
 10
63.97346460686259
 20
39.10867963206351
 30
0.0
  0
VERTEX
  5
2CF
330
2C6
100
AcDbEntity
  8
Hidden (ANSI)
 48
0.0145283145830035
100
AcDbVertex
100
AcDb2dVertex
 10
63.9704308712419
 20
39.10774978787181
 30
0.0
  0
VERTEX
  5
2D0
330
2C6
100
AcDbEntity
  8
Hidden (ANSI)
 48
0.0145283145830035
100
AcDbVertex
100
AcDb2dVertex
 10
63.9673971356212
 20
39.10684949960535
 30
0.0
  0
VERTEX
  5
2D1
330
2C6
100
AcDbEntity
  8
Hidden (ANSI)
 48
0.0145283145830035
100
AcDbVertex
100
AcDb2dVertex
 10
63.96436340000051
 20
39.1059826040198
 30
0.0
  0
VERTEX
  5
2D2
330
2C6
100
AcDbEntity
  8
Hidden (ANSI)
 48
0.0145283145830035
100
AcDbVertex
100
AcDb2dVertex
 10
63.96133266807845
 20
39.10515282053887
 30
0.0
  0
VERTEX
  5
2D3
330
2C6
100
AcDbEntity
  8
Hidden (ANSI)
 48
0.0145283145830035
100
AcDbVertex
100
AcDb2dVertex
 10
63.95829893245775
 20
39.10436370432147
 30
0.0
  0
VERTEX
  5
2D4
330
2C6
100
AcDbEntity
  8
Hidden (ANSI)
 48
0.0145283145830035
100
AcDbVertex
100
AcDb2dVertex
 10
63.95526519683707
 20
39.10361863452858
 30
0.0
  0
VERTEX
  5
2D5
330
2C6
100
AcDbEntity
  8
Hidden (ANSI)
 48
0.0145283145830035
100
AcDbVertex
100
AcDb2dVertex
 10
63.95223446491501
 20
39.1029207908568
 30
0.0
  0
VERTEX
  5
2D6
330
2C6
100
AcDbEntity
  8
Hidden (ANSI)
 48
0.0145283145830035
100
AcDbVertex
100
AcDb2dVertex
 10
63.94920072929432
 20
39.10227317700476
 30
0.0
  0
VERTEX
  5
2D7
330
2C6
100
AcDbEntity
  8
Hidden (ANSI)
 48
0.0145283145830035
100
AcDbVertex
100
AcDb2dVertex
 10
63.94616699367362
 20
39.10167857374033
 30
0.0
  0
VERTEX
  5
2D8
330
2C6
100
AcDbEntity
  8
Hidden (ANSI)
 48
0.0145283145830035
100
AcDbVertex
100
AcDb2dVertex
 10
63.94313325805293
 20
39.10113950370105
 30
0.0
  0
VERTEX
  5
2D9
330
2C6
100
AcDbEntity
  8
Hidden (ANSI)
 48
0.0145283145830035
100
AcDbVertex
100
AcDb2dVertex
 10
63.94010252613087
 20
39.10065827832688
 30
0.0
  0
VERTEX
  5
2DA
330
2C6
100
AcDbEntity
  8
Hidden (ANSI)
 48
0.0145283145830035
100
AcDbVertex
100
AcDb2dVertex
 10
63.93706879051018
 20
39.10023697439381
 30
0.0
  0
VERTEX
  5
2DB
330
2C6
100
AcDbEntity
  8
Hidden (ANSI)
 48
0.0145283145830035
100
AcDbVertex
100
AcDb2dVertex
 10
63.93403505488948
 20
39.09987738708112
 30
0.0
  0
VERTEX
  5
2DC
330
2C6
100
AcDbEntity
  8
Hidden (ANSI)
 48
0.0145283145830035
100
AcDbVertex
100
AcDb2dVertex
 10
63.93100432296742
 20
39.09958105343773
 30
0.0
  0
VERTEX
  5
2DD
330
2C6
100
AcDbEntity
  8
Hidden (ANSI)
 48
0.0145283145830035
100
AcDbVertex
100
AcDb2dVertex
 10
63.92797058734673
 20
39.09934924064899
 30
0.0
  0
VERTEX
  5
2DE
330
2C6
100
AcDbEntity
  8
Hidden (ANSI)
 48
0.0145283145830035
100
AcDbVertex
100
AcDb2dVertex
 10
63.92493685172603
 20
39.0991829577699
 30
0.0
  0
VERTEX
  5
2DF
330
2C6
100
AcDbEntity
  8
Hidden (ANSI)
 48
0.0145283145830035
100
AcDbVertex
100
AcDb2dVertex
 10
63.92190611980397
 20
39.09908289705914
 30
0.0
  0
VERTEX
  5
2E0
330
2C6
100
AcDbEntity
  8
Hidden (ANSI)
 48
0.0145283145830035
100
AcDbVertex
100
AcDb2dVertex
 10
63.91887238418327
 20
39.09904949264503
 30
0.0
  0
SEQEND
  5
2C9
330
2C6
100
AcDbEntity
  8
Hidden (ANSI)
 48
0.0145283145830035
  0
MTEXT
  5
2E2
330
6C
100
AcDbEntity
  8
Symbol (ANSI)
100
AcDbMText
 10
37.67358708141376
 20
30.9589722772465
 30
0.0
 40
1.200000014830761
 41
0.0
 46
0.0
 71
     7
 72
     1
  1
FRONT VIEW
  7
Text Style153
 73
     1
 44
1.0
  0
LINE
  5
2E4
330
6C
100
AcDbEntity
  8
Symbol (ANSI)
370
    30
100
AcDbLine
 10
37.55358677272989
 20
30.7142559034976
 30
0.0
 11
47.20123681558666
 21
30.7142559034976
 31
0.0
  0
POLYLINE
  5
2E5
330
6C
100
AcDbEntity
  8
Visible (ANSI)
100
AcDb2dPolyline
 66
     1
 10
0.0
 20
0.0
 30
0.0
 70
   128
  0
VERTEX
  5
2E6
330
2E5
100
AcDbEntity
  8
Visible (ANSI)
100
AcDbVertex
100
AcDb2dVertex
 10
84.07066728223991
 20
63.71345010285541
 30
0.0
  0
VERTEX
  5
2E7
330
2E5
100
AcDbEntity
  8
Visible (ANSI)
100
AcDbVertex
100
AcDb2dVertex
 10
84.07096832089562
 20
63.71041636723472
 30
0.0
  0
VERTEX
  5
2E9
330
2E5
100
AcDbEntity
  8
Visible (ANSI)
100
AcDbVertex
100
AcDb2dVertex
 10
84.0718701344778
 20
63.70738413346334
 30
0.0
  0
VERTEX
  5
2EA
330
2E5
100
AcDbEntity
  8
Visible (ANSI)
100
AcDbVertex
100
AcDb2dVertex
 10
84.07336887449757
 20
63.70435039784264
 30
0.0
  0
VERTEX
  5
2EB
330
2E5
100
AcDbEntity
  8
Visible (ANSI)
100
AcDbVertex
100
AcDb2dVertex
 10
84.07545811116253
 20
63.70131816407126
 30
0.0
  0
VERTEX
  5
2EC
330
2E5
100
AcDbEntity
  8
Visible (ANSI)
100
AcDbVertex
100
AcDb2dVertex
 10
84.07812890377597
 20
63.69828593029989
 30
0.0
  0
VERTEX
  5
2ED
330
2E5
100
AcDbEntity
  8
Visible (ANSI)
100
AcDbVertex
100
AcDb2dVertex
 10
84.08136981247004
 20
63.6952521946792
 30
0.0
  0
VERTEX
  5
2EE
330
2E5
100
AcDbEntity
  8
Visible (ANSI)
100
AcDbVertex
100
AcDb2dVertex
 10
84.085166968605
 20
63.69221996090781
 30
0.0
  0
VERTEX
  5
2EF
330
2E5
100
AcDbEntity
  8
Visible (ANSI)
100
AcDbVertex
100
AcDb2dVertex
 10
84.08950410996862
 20
63.68918622528712
 30
0.0
  0
VERTEX
  5
2F0
330
2E5
100
AcDbEntity
  8
Visible (ANSI)
100
AcDbVertex
100
AcDb2dVertex
 10
84.09436265117568
 20
63.68615399151575
 30
0.0
  0
VERTEX
  5
2F1
330
2E5
100
AcDbEntity
  8
Visible (ANSI)
100
AcDbVertex
100
AcDb2dVertex
 10
84.09972180099964
 20
63.68312175774437
 30
0.0
  0
VERTEX
  5
2F2
330
2E5
100
AcDbEntity
  8
Visible (ANSI)
100
AcDbVertex
100
AcDb2dVertex
 10
84.1055586034391
 20
63.68008802212368
 30
0.0
  0
VERTEX
  5
2F3
330
2E5
100
AcDbEntity
  8
Visible (ANSI)
100
AcDbVertex
100
AcDb2dVertex
 10
84.11184806678267
 20
63.67705578835229
 30
0.0
  0
VERTEX
  5
2F4
330
2E5
100
AcDbEntity
  8
Visible (ANSI)
100
AcDbVertex
100
AcDb2dVertex
 10
84.11856325747487
 20
63.6740220527316
 30
0.0
  0
VERTEX
  5
2F5
330
2E5
100
AcDbEntity
  8
Visible (ANSI)
100
AcDbVertex
100
AcDb2dVertex
 10
84.12567542331455
 20
63.67098981896023
 30
0.0
  0
VERTEX
  5
2F6
330
2E5
100
AcDbEntity
  8
Visible (ANSI)
100
AcDbVertex
100
AcDb2dVertex
 10
84.13315410492018
 20
63.66795608333954
 30
0.0
  0
VERTEX
  5
2F7
330
2E5
100
AcDbEntity
  8
Visible (ANSI)
100
AcDbVertex
100
AcDb2dVertex
 10
84.14096728239503
 20
63.66492384956815
 30
0.0
  0
VERTEX
  5
2F8
330
2E5
100
AcDbEntity
  8
Visible (ANSI)
100
AcDbVertex
100
AcDb2dVertex
 10
84.14908148972568
 20
63.66189161579679
 30
0.0
  0
VERTEX
  5
2F9
330
2E5
100
AcDbEntity
  8
Visible (ANSI)
100
AcDbVertex
100
AcDb2dVertex
 10
84.15746199078007
 20
63.65885788017609
 30
0.0
  0
VERTEX
  5
2FA
330
2E5
100
AcDbEntity
  8
Visible (ANSI)
100
AcDbVertex
100
AcDb2dVertex
 10
84.16607289077289
 20
63.65582564640471
 30
0.0
  0
VERTEX
  5
2FB
330
2E5
100
AcDbEntity
  8
Visible (ANSI)
100
AcDbVertex
100
AcDb2dVertex
 10
84.17487732253
 20
63.65279191078402
 30
0.0
  0
VERTEX
  5
2FC
330
2E5
100
AcDbEntity
  8
Visible (ANSI)
100
AcDbVertex
100
AcDb2dVertex
 10
84.18383758142033
 20
63.64975967701263
 30
0.0
  0
VERTEX
  5
2FD
330
2E5
100
AcDbEntity
  8
Visible (ANSI)
100
AcDbVertex
100
AcDb2dVertex
 10
84.19291529768711
 20
63.64672744324127
 30
0.0
  0
VERTEX
  5
2FE
330
2E5
100
AcDbEntity
  8
Visible (ANSI)
100
AcDbVertex
100
AcDb2dVertex
 10
84.20207160071271
 20
63.64369370762057
 30
0.0
  0
VERTEX
  5
2FF
330
2E5
100
AcDbEntity
  8
Visible (ANSI)
100
AcDbVertex
100
AcDb2dVertex
 10
84.21126728108344
 20
63.64066147384919
 30
0.0
  0
SEQEND
  5
2E8
330
2E5
100
AcDbEntity
  8
Visible (ANSI)
  0
POLYLINE
  5
300
330
6C
100
AcDbEntity
  8
Visible (ANSI)
100
AcDb2dPolyline
 66
     1
 10
0.0
 20
0.0
 30
0.0
 70
   128
  0
VERTEX
  5
301
330
300
100
AcDbEntity
  8
Visible (ANSI)
100
AcDbVertex
100
AcDb2dVertex
 10
84.21126728108344
 20
39.18743783050874
 30
0.0
  0
VERTEX
  5
302
330
300
100
AcDbEntity
  8
Visible (ANSI)
100
AcDbVertex
100
AcDb2dVertex
 10
84.20207160071271
 20
39.18440498661107
 30
0.0
  0
VERTEX
  5
304
330
300
100
AcDbEntity
  8
Visible (ANSI)
100
AcDbVertex
100
AcDb2dVertex
 10
84.19291529768711
 20
39.18137214271341
 30
0.0
  0
VERTEX
  5
305
330
300
100
AcDbEntity
  8
Visible (ANSI)
100
AcDbVertex
100
AcDb2dVertex
 10
84.18383758142033
 20
39.17833929881574
 30
0.0
  0
VERTEX
  5
306
330
300
100
AcDbEntity
  8
Visible (ANSI)
100
AcDbVertex
100
AcDb2dVertex
 10
84.17487732253
 20
39.17530645491808
 30
0.0
  0
VERTEX
  5
307
330
300
100
AcDbEntity
  8
Visible (ANSI)
100
AcDbVertex
100
AcDb2dVertex
 10
84.16607289077289
 20
39.17227361102042
 30
0.0
  0
VERTEX
  5
308
330
300
100
AcDbEntity
  8
Visible (ANSI)
100
AcDbVertex
100
AcDb2dVertex
 10
84.15746199078007
 20
39.16924075538957
 30
0.0
  0
VERTEX
  5
309
330
300
100
AcDbEntity
  8
Visible (ANSI)
100
AcDbVertex
100
AcDb2dVertex
 10
84.14908148972568
 20
39.1662079114919
 30
0.0
  0
VERTEX
  5
30A
330
300
100
AcDbEntity
  8
Visible (ANSI)
100
AcDbVertex
100
AcDb2dVertex
 10
84.14096728239503
 20
39.16317505586104
 30
0.0
  0
VERTEX
  5
30B
330
300
100
AcDbEntity
  8
Visible (ANSI)
100
AcDbVertex
100
AcDb2dVertex
 10
84.13315410492018
 20
39.16014221196338
 30
0.0
  0
VERTEX
  5
30C
330
300
100
AcDbEntity
  8
Visible (ANSI)
100
AcDbVertex
100
AcDb2dVertex
 10
84.12567542331455
 20
39.15710936806571
 30
0.0
  0
VERTEX
  5
30D
330
300
100
AcDbEntity
  8
Visible (ANSI)
100
AcDbVertex
100
AcDb2dVertex
 10
84.11856325747487
 20
39.15407651243486
 30
0.0
  0
VERTEX
  5
30E
330
300
100
AcDbEntity
  8
Visible (ANSI)
100
AcDbVertex
100
AcDb2dVertex
 10
84.11184806678267
 20
39.15104366853719
 30
0.0
  0
VERTEX
  5
30F
330
300
100
AcDbEntity
  8
Visible (ANSI)
100
AcDbVertex
100
AcDb2dVertex
 10
84.1055586034391
 20
39.14801082463954
 30
0.0
  0
VERTEX
  5
310
330
300
100
AcDbEntity
  8
Visible (ANSI)
100
AcDbVertex
100
AcDb2dVertex
 10
84.09972180099964
 20
39.14497796900868
 30
0.0
  0
VERTEX
  5
311
330
300
100
AcDbEntity
  8
Visible (ANSI)
100
AcDbVertex
100
AcDb2dVertex
 10
84.09436265117568
 20
39.14194512511101
 30
0.0
  0
VERTEX
  5
312
330
300
100
AcDbEntity
  8
Visible (ANSI)
100
AcDbVertex
100
AcDb2dVertex
 10
84.08950410996862
 20
39.13891228121335
 30
0.0
  0
VERTEX
  5
313
330
300
100
AcDbEntity
  8
Visible (ANSI)
100
AcDbVertex
100
AcDb2dVertex
 10
84.085166968605
 20
39.1358794255825
 30
0.0
  0
VERTEX
  5
314
330
300
100
AcDbEntity
  8
Visible (ANSI)
100
AcDbVertex
100
AcDb2dVertex
 10
84.08136981247004
 20
39.13284658168482
 30
0.0
  0
VERTEX
  5
315
330
300
100
AcDbEntity
  8
Visible (ANSI)
100
AcDbVertex
100
AcDb2dVertex
 10
84.07812890377597
 20
39.12981373778717
 30
0.0
  0
VERTEX
  5
316
330
300
100
AcDbEntity
  8
Visible (ANSI)
100
AcDbVertex
100
AcDb2dVertex
 10
84.07545811116253
 20
39.1267808821563
 30
0.0
  0
VERTEX
  5
317
330
300
100
AcDbEntity
  8
Visible (ANSI)
100
AcDbVertex
100
AcDb2dVertex
 10
84.07336887449757
 20
39.12374803825865
 30
0.0
  0
VERTEX
  5
318
330
300
100
AcDbEntity
  8
Visible (ANSI)
100
AcDbVertex
100
AcDb2dVertex
 10
84.0718701344778
 20
39.12071519436099
 30
0.0
  0
VERTEX
  5
319
330
300
100
AcDbEntity
  8
Visible (ANSI)
100
AcDbVertex
100
AcDb2dVertex
 10
84.07096832089562
 20
39.11768233873012
 30
0.0
  0
VERTEX
  5
31A
330
300
100
AcDbEntity
  8
Visible (ANSI)
100
AcDbVertex
100
AcDb2dVertex
 10
84.07066728223991
 20
39.11464949483246
 30
0.0
  0
SEQEND
  5
303
330
300
100
AcDbEntity
  8
Visible (ANSI)
  0
LINE
  5
31B
330
6C
100
AcDbEntity
  8
Visible (ANSI)
100
AcDbLine
 10
84.94566728036264
 20
39.18743784217065
 30
0.0
 11
84.21126728036263
 21
39.18743784217065
 31
0.0
  0
LINE
  5
31C
330
6C
100
AcDbEntity
  8
Visible (ANSI)
100
AcDbLine
 10
84.1649287790517
 20
39.11464949452233
 30
0.0
 11
84.0706672803626
 21
39.11464949452233
 31
0.0
  0
LINE
  5
31D
330
6C
100
AcDbEntity
  8
Visible (ANSI)
100
AcDbLine
 10
84.1956672803626
 20
39.11464949452233
 30
0.0
 11
84.1649287790517
 21
39.11464949452233
 31
0.0
  0
POLYLINE
  5
31E
330
6C
100
AcDbEntity
  8
Visible (ANSI)
100
AcDb2dPolyline
 66
     1
 10
0.0
 20
0.0
 30
0.0
 70
   128
  0
VERTEX
  5
31F
330
31E
100
AcDbEntity
  8
Visible (ANSI)
100
AcDbVertex
100
AcDb2dVertex
 10
84.1956672803626
 20
39.11464949483246
 30
0.0
  0
VERTEX
  5
320
330
31E
100
AcDbEntity
  8
Visible (ANSI)
100
AcDbVertex
100
AcDb2dVertex
 10
84.19570068115879
 20
39.11768233873012
 30
0.0
  0
VERTEX
  5
322
330
31E
100
AcDbEntity
  8
Visible (ANSI)
100
AcDbVertex
100
AcDb2dVertex
 10
84.19580074052607
 20
39.12071519436099
 30
0.0
  0
VERTEX
  5
323
330
31E
100
AcDbEntity
  8
Visible (ANSI)
100
AcDbVertex
100
AcDb2dVertex
 10
84.19596702999362
 20
39.12374803825865
 30
0.0
  0
VERTEX
  5
324
330
31E
100
AcDbEntity
  8
Visible (ANSI)
100
AcDbVertex
100
AcDb2dVertex
 10
84.19619883748868
 20
39.1267808821563
 30
0.0
  0
VERTEX
  5
325
330
31E
100
AcDbEntity
  8
Visible (ANSI)
100
AcDbVertex
100
AcDb2dVertex
 10
84.19649517030707
 20
39.12981373778717
 30
0.0
  0
VERTEX
  5
326
330
31E
100
AcDbEntity
  8
Visible (ANSI)
100
AcDbVertex
100
AcDb2dVertex
 10
84.19685475963641
 20
39.13284658168482
 30
0.0
  0
VERTEX
  5
327
330
31E
100
AcDbEntity
  8
Visible (ANSI)
100
AcDbVertex
100
AcDb2dVertex
 10
84.19727606567777
 20
39.1358794255825
 30
0.0
  0
VERTEX
  5
328
330
31E
100
AcDbEntity
  8
Visible (ANSI)
100
AcDbVertex
100
AcDb2dVertex
 10
84.19775728408536
 20
39.13891228121335
 30
0.0
  0
VERTEX
  5
329
330
31E
100
AcDbEntity
  8
Visible (ANSI)
100
AcDbVertex
100
AcDb2dVertex
 10
84.19829635449131
 20
39.14194512511101
 30
0.0
  0
VERTEX
  5
32A
330
31E
100
AcDbEntity
  8
Visible (ANSI)
100
AcDbVertex
100
AcDb2dVertex
 10
84.19889096838895
 20
39.14497796900868
 30
0.0
  0
VERTEX
  5
32B
330
31E
100
AcDbEntity
  8
Visible (ANSI)
100
AcDbVertex
100
AcDb2dVertex
 10
84.19953857930769
 20
39.14801082463954
 30
0.0
  0
VERTEX
  5
32C
330
31E
100
AcDbEntity
  8
Visible (ANSI)
100
AcDbVertex
100
AcDb2dVertex
 10
84.20023641454625
 20
39.15104366853719
 30
0.0
  0
VERTEX
  5
32D
330
31E
100
AcDbEntity
  8
Visible (ANSI)
100
AcDbVertex
100
AcDb2dVertex
 10
84.20098148580578
 20
39.15407651243486
 30
0.0
  0
VERTEX
  5
32E
330
31E
100
AcDbEntity
  8
Visible (ANSI)
100
AcDbVertex
100
AcDb2dVertex
 10
84.20177060202318
 20
39.15710936806571
 30
0.0
  0
VERTEX
  5
32F
330
31E
100
AcDbEntity
  8
Visible (ANSI)
100
AcDbVertex
100
AcDb2dVertex
 10
84.20260038440412
 20
39.16014221196338
 30
0.0
  0
VERTEX
  5
330
330
31E
100
AcDbEntity
  8
Visible (ANSI)
100
AcDbVertex
100
AcDb2dVertex
 10
84.20346728072301
 20
39.16317505586104
 30
0.0
  0
VERTEX
  5
331
330
31E
100
AcDbEntity
  8
Visible (ANSI)
100
AcDbVertex
100
AcDb2dVertex
 10
84.20436757705603
 20
39.1662079114919
 30
0.0
  0
VERTEX
  5
332
330
31E
100
AcDbEntity
  8
Visible (ANSI)
100
AcDbVertex
100
AcDb2dVertex
 10
84.20529741904775
 20
39.16924075538957
 30
0.0
  0
VERTEX
  5
333
330
31E
100
AcDbEntity
  8
Visible (ANSI)
100
AcDbVertex
100
AcDb2dVertex
 10
84.20625282474416
 20
39.17227361102042
 30
0.0
  0
VERTEX
  5
334
330
31E
100
AcDbEntity
  8
Visible (ANSI)
100
AcDbVertex
100
AcDb2dVertex
 10
84.20722970292585
 20
39.17530645491808
 30
0.0
  0
VERTEX
  5
335
330
31E
100
AcDbEntity
  8
Visible (ANSI)
100
AcDbVertex
100
AcDb2dVertex
 10
84.20822387144111
 20
39.17833929881574
 30
0.0
  0
VERTEX
  5
336
330
31E
100
AcDbEntity
  8
Visible (ANSI)
100
AcDbVertex
100
AcDb2dVertex
 10
84.20923107113919
 20
39.18137214271341
 30
0.0
  0
VERTEX
  5
337
330
31E
100
AcDbEntity
  8
Visible (ANSI)
100
AcDbVertex
100
AcDb2dVertex
 10
84.21024699153653
 20
39.18440498661107
 30
0.0
  0
VERTEX
  5
338
330
31E
100
AcDbEntity
  8
Visible (ANSI)
100
AcDbVertex
100
AcDb2dVertex
 10
84.21126728108339
 20
39.18743783050874
 30
0.0
  0
SEQEND
  5
321
330
31E
100
AcDbEntity
  8
Visible (ANSI)
  0
POLYLINE
  5
339
330
6C
100
AcDbEntity
  8
Visible (ANSI)
100
AcDb2dPolyline
 66
     1
 10
0.0
 20
0.0
 30
0.0
 70
   128
  0
VERTEX
  5
33A
330
339
100
AcDbEntity
  8
Visible (ANSI)
100
AcDbVertex
100
AcDb2dVertex
 10
84.1956672803626
 20
63.71345010285541
 30
0.0
  0
VERTEX
  5
33B
330
339
100
AcDbEntity
  8
Visible (ANSI)
100
AcDbVertex
100
AcDb2dVertex
 10
84.19570068115879
 20
63.71041636723472
 30
0.0
  0
VERTEX
  5
33D
330
339
100
AcDbEntity
  8
Visible (ANSI)
100
AcDbVertex
100
AcDb2dVertex
 10
84.19580074052607
 20
63.70738413346334
 30
0.0
  0
VERTEX
  5
33E
330
339
100
AcDbEntity
  8
Visible (ANSI)
100
AcDbVertex
100
AcDb2dVertex
 10
84.19596702999362
 20
63.70435039784264
 30
0.0
  0
VERTEX
  5
33F
330
339
100
AcDbEntity
  8
Visible (ANSI)
100
AcDbVertex
100
AcDb2dVertex
 10
84.19619883748868
 20
63.70131816407126
 30
0.0
  0
VERTEX
  5
340
330
339
100
AcDbEntity
  8
Visible (ANSI)
100
AcDbVertex
100
AcDb2dVertex
 10
84.19649517030707
 20
63.69828593029989
 30
0.0
  0
VERTEX
  5
341
330
339
100
AcDbEntity
  8
Visible (ANSI)
100
AcDbVertex
100
AcDb2dVertex
 10
84.19685475963641
 20
63.6952521946792
 30
0.0
  0
VERTEX
  5
342
330
339
100
AcDbEntity
  8
Visible (ANSI)
100
AcDbVertex
100
AcDb2dVertex
 10
84.19727606567777
 20
63.69221996090781
 30
0.0
  0
VERTEX
  5
343
330
339
100
AcDbEntity
  8
Visible (ANSI)
100
AcDbVertex
100
AcDb2dVertex
 10
84.19775728408536
 20
63.68918622528712
 30
0.0
  0
VERTEX
  5
344
330
339
100
AcDbEntity
  8
Visible (ANSI)
100
AcDbVertex
100
AcDb2dVertex
 10
84.19829635449131
 20
63.68615399151575
 30
0.0
  0
VERTEX
  5
345
330
339
100
AcDbEntity
  8
Visible (ANSI)
100
AcDbVertex
100
AcDb2dVertex
 10
84.19889096838895
 20
63.68312175774437
 30
0.0
  0
VERTEX
  5
346
330
339
100
AcDbEntity
  8
Visible (ANSI)
100
AcDbVertex
100
AcDb2dVertex
 10
84.19953857930769
 20
63.68008802212368
 30
0.0
  0
VERTEX
  5
347
330
339
100
AcDbEntity
  8
Visible (ANSI)
100
AcDbVertex
100
AcDb2dVertex
 10
84.20023641454625
 20
63.67705578835229
 30
0.0
  0
VERTEX
  5
348
330
339
100
AcDbEntity
  8
Visible (ANSI)
100
AcDbVertex
100
AcDb2dVertex
 10
84.20098148580578
 20
63.6740220527316
 30
0.0
  0
VERTEX
  5
349
330
339
100
AcDbEntity
  8
Visible (ANSI)
100
AcDbVertex
100
AcDb2dVertex
 10
84.20177060202318
 20
63.67098981896023
 30
0.0
  0
VERTEX
  5
34A
330
339
100
AcDbEntity
  8
Visible (ANSI)
100
AcDbVertex
100
AcDb2dVertex
 10
84.20260038440412
 20
63.66795608333954
 30
0.0
  0
VERTEX
  5
34B
330
339
100
AcDbEntity
  8
Visible (ANSI)
100
AcDbVertex
100
AcDb2dVertex
 10
84.20346728072301
 20
63.66492384956815
 30
0.0
  0
VERTEX
  5
34C
330
339
100
AcDbEntity
  8
Visible (ANSI)
100
AcDbVertex
100
AcDb2dVertex
 10
84.20436757705603
 20
63.66189161579679
 30
0.0
  0
VERTEX
  5
34D
330
339
100
AcDbEntity
  8
Visible (ANSI)
100
AcDbVertex
100
AcDb2dVertex
 10
84.20529741904775
 20
63.65885788017609
 30
0.0
  0
VERTEX
  5
34E
330
339
100
AcDbEntity
  8
Visible (ANSI)
100
AcDbVertex
100
AcDb2dVertex
 10
84.20625282474416
 20
63.65582564640471
 30
0.0
  0
VERTEX
  5
34F
330
339
100
AcDbEntity
  8
Visible (ANSI)
100
AcDbVertex
100
AcDb2dVertex
 10
84.20722970292585
 20
63.65279191078402
 30
0.0
  0
VERTEX
  5
350
330
339
100
AcDbEntity
  8
Visible (ANSI)
100
AcDbVertex
100
AcDb2dVertex
 10
84.20822387144111
 20
63.64975967701263
 30
0.0
  0
VERTEX
  5
351
330
339
100
AcDbEntity
  8
Visible (ANSI)
100
AcDbVertex
100
AcDb2dVertex
 10
84.20923107113919
 20
63.64672744324127
 30
0.0
  0
VERTEX
  5
352
330
339
100
AcDbEntity
  8
Visible (ANSI)
100
AcDbVertex
100
AcDb2dVertex
 10
84.21024699153653
 20
63.64369370762057
 30
0.0
  0
VERTEX
  5
353
330
339
100
AcDbEntity
  8
Visible (ANSI)
100
AcDbVertex
100
AcDb2dVertex
 10
84.21126728108339
 20
63.64066147384919
 30
0.0
  0
SEQEND
  5
33C
330
339
100
AcDbEntity
  8
Visible (ANSI)
  0
LINE
  5
354
330
6C
100
AcDbEntity
  8
Visible (ANSI)
100
AcDbLine
 10
84.1956672803626
 20
63.71344949452232
 30
0.0
 11
84.1649287790517
 21
63.71344949452234
 31
0.0
  0
LINE
  5
355
330
6C
100
AcDbEntity
  8
Visible (ANSI)
100
AcDbLine
 10
84.1649287790517
 20
63.71344949452234
 30
0.0
 11
84.0706672803626
 21
63.71344949452232
 31
0.0
  0
LINE
  5
356
330
6C
100
AcDbEntity
  8
Visible (ANSI)
100
AcDbLine
 10
84.21126728036261
 20
63.64066114687401
 30
0.0
 11
84.94566728036261
 21
63.64066114687401
 31
0.0
  0
POLYLINE
  5
357
330
6C
100
AcDbEntity
  8
Visible (ANSI)
100
AcDb2dPolyline
 66
     1
 10
0.0
 20
0.0
 30
0.0
 70
   128
  0
VERTEX
  5
358
330
357
100
AcDbEntity
  8
Visible (ANSI)
100
AcDbVertex
100
AcDb2dVertex
 10
84.21126728108337
 20
63.85405023223071
 30
0.0
  0
VERTEX
  5
359
330
357
100
AcDbEntity
  8
Visible (ANSI)
100
AcDbVertex
100
AcDb2dVertex
 10
84.20207160071266
 20
63.85374836051795
 30
0.0
  0
VERTEX
  5
35B
330
357
100
AcDbEntity
  8
Visible (ANSI)
100
AcDbVertex
100
AcDb2dVertex
 10
84.19291529768704
 20
63.85284725092765
 30
0.0
  0
VERTEX
  5
35C
330
357
100
AcDbEntity
  8
Visible (ANSI)
100
AcDbVertex
100
AcDb2dVertex
 10
84.18383758142027
 20
63.85134840530911
 30
0.0
  0
VERTEX
  5
35D
330
357
100
AcDbEntity
  8
Visible (ANSI)
100
AcDbVertex
100
AcDb2dVertex
 10
84.17487732252995
 20
63.84925933290893
 30
0.0
  0
VERTEX
  5
35E
330
357
100
AcDbEntity
  8
Visible (ANSI)
100
AcDbVertex
100
AcDb2dVertex
 10
84.16607289077283
 20
63.84658754297366
 30
0.0
  0
VERTEX
  5
35F
330
357
100
AcDbEntity
  8
Visible (ANSI)
100
AcDbVertex
100
AcDb2dVertex
 10
84.15746199078002
 20
63.8433465521472
 30
0.0
  0
VERTEX
  5
360
330
357
100
AcDbEntity
  8
Visible (ANSI)
100
AcDbVertex
100
AcDb2dVertex
 10
84.14908148972562
 20
63.83954987707339
 30
0.0
  0
VERTEX
  5
361
330
357
100
AcDbEntity
  8
Visible (ANSI)
100
AcDbVertex
100
AcDb2dVertex
 10
84.14096728239497
 20
63.8352125362454
 30
0.0
  0
VERTEX
  5
362
330
357
100
AcDbEntity
  8
Visible (ANSI)
100
AcDbVertex
100
AcDb2dVertex
 10
84.13315410492012
 20
63.83035405370432
 30
0.0
  0
VERTEX
  5
363
330
357
100
AcDbEntity
  8
Visible (ANSI)
100
AcDbVertex
100
AcDb2dVertex
 10
84.1256754233145
 20
63.82499545534063
 30
0.0
  0
VERTEX
  5
364
330
357
100
AcDbEntity
  8
Visible (ANSI)
100
AcDbVertex
100
AcDb2dVertex
 10
84.11856325747484
 20
63.81915776704478
 30
0.0
  0
VERTEX
  5
365
330
357
100
AcDbEntity
  8
Visible (ANSI)
100
AcDbVertex
100
AcDb2dVertex
 10
84.11184806678262
 20
63.81286802210444
 30
0.0
  0
VERTEX
  5
366
330
357
100
AcDbEntity
  8
Visible (ANSI)
100
AcDbVertex
100
AcDb2dVertex
 10
84.10555860343905
 20
63.80615325380736
 30
0.0
  0
VERTEX
  5
367
330
357
100
AcDbEntity
  8
Visible (ANSI)
100
AcDbVertex
100
AcDb2dVertex
 10
84.09972180099961
 20
63.79904199729054
 30
0.0
  0
VERTEX
  5
368
330
357
100
AcDbEntity
  8
Visible (ANSI)
100
AcDbVertex
100
AcDb2dVertex
 10
84.09436265117564
 20
63.79156278769101
 30
0.0
  0
VERTEX
  5
369
330
357
100
AcDbEntity
  8
Visible (ANSI)
100
AcDbVertex
100
AcDb2dVertex
 10
84.08950410996858
 20
63.78375016754305
 30
0.0
  0
VERTEX
  5
36A
330
357
100
AcDbEntity
  8
Visible (ANSI)
100
AcDbVertex
100
AcDb2dVertex
 10
84.08516696860496
 20
63.77563567568236
 30
0.0
  0
VERTEX
  5
36B
330
357
100
AcDbEntity
  8
Visible (ANSI)
100
AcDbVertex
100
AcDb2dVertex
 10
84.08136981247002
 20
63.76725535649253
 30
0.0
  0
VERTEX
  5
36C
330
357
100
AcDbEntity
  8
Visible (ANSI)
100
AcDbVertex
100
AcDb2dVertex
 10
84.07812890377595
 20
63.75864375250784
 30
0.0
  0
VERTEX
  5
36D
330
357
100
AcDbEntity
  8
Visible (ANSI)
100
AcDbVertex
100
AcDb2dVertex
 10
84.07545811116252
 20
63.74983991181057
 30
0.0
  0
VERTEX
  5
36E
330
357
100
AcDbEntity
  8
Visible (ANSI)
100
AcDbVertex
100
AcDb2dVertex
 10
84.07336887449755
 20
63.74087987878429
 30
0.0
  0
VERTEX
  5
36F
330
357
100
AcDbEntity
  8
Visible (ANSI)
100
AcDbVertex
100
AcDb2dVertex
 10
84.0718701344778
 20
63.73180119966196
 30
0.0
  0
VERTEX
  5
370
330
357
100
AcDbEntity
  8
Visible (ANSI)
100
AcDbVertex
100
AcDb2dVertex
 10
84.07096832089562
 20
63.72264442437515
 30
0.0
  0
VERTEX
  5
371
330
357
100
AcDbEntity
  8
Visible (ANSI)
100
AcDbVertex
100
AcDb2dVertex
 10
84.07066728223991
 20
63.71345010285541
 30
0.0
  0
SEQEND
  5
35A
330
357
100
AcDbEntity
  8
Visible (ANSI)
  0
LINE
  5
372
330
6C
100
AcDbEntity
  8
Visible (ANSI)
100
AcDbLine
 10
84.21126728036258
 20
63.72904949452234
 30
0.0
 11
84.94566728036259
 21
63.7290494945223
 31
0.0
  0
LINE
  5
373
330
6C
100
AcDbEntity
  8
Visible (ANSI)
100
AcDbLine
 10
84.94566728036259
 20
63.8540494945223
 30
0.0
 11
84.21126728036259
 21
63.85404949452233
 31
0.0
  0
LINE
  5
374
330
6C
100
AcDbEntity
  8
Visible (ANSI)
100
AcDbLine
 10
84.21126728036258
 20
63.72904949452234
 30
0.0
 11
84.21126728036259
 21
63.85404949452233
 31
0.0
  0
LINE
  5
375
330
6C
100
AcDbEntity
  8
Visible (ANSI)
100
AcDbLine
 10
84.94566728036259
 20
63.7290494945223
 30
0.0
 11
84.94566728036259
 21
63.8540494945223
 31
0.0
  0
POLYLINE
  5
376
330
6C
100
AcDbEntity
  8
Visible (ANSI)
100
AcDb2dPolyline
 66
     1
 10
0.0
 20
0.0
 30
0.0
 70
   128
  0
VERTEX
  5
377
330
376
100
AcDbEntity
  8
Visible (ANSI)
100
AcDbVertex
100
AcDb2dVertex
 10
84.1956672803626
 20
63.71345010285541
 30
0.0
  0
VERTEX
  5
378
330
376
100
AcDbEntity
  8
Visible (ANSI)
100
AcDbVertex
100
AcDb2dVertex
 10
84.19570068115879
 20
63.71446985854177
 30
0.0
  0
VERTEX
  5
37A
330
376
100
AcDbEntity
  8
Visible (ANSI)
100
AcDbVertex
100
AcDb2dVertex
 10
84.19580074052607
 20
63.71548510868018
 30
0.0
  0
VERTEX
  5
37B
330
376
100
AcDbEntity
  8
Visible (ANSI)
100
AcDbVertex
100
AcDb2dVertex
 10
84.19596702999362
 20
63.716492849572
 30
0.0
  0
VERTEX
  5
37C
330
376
100
AcDbEntity
  8
Visible (ANSI)
100
AcDbVertex
100
AcDb2dVertex
 10
84.19619883748866
 20
63.71748707381997
 30
0.0
  0
VERTEX
  5
37D
330
376
100
AcDbEntity
  8
Visible (ANSI)
100
AcDbVertex
100
AcDb2dVertex
 10
84.19649517030707
 20
63.71846327587614
 30
0.0
  0
VERTEX
  5
37E
330
376
100
AcDbEntity
  8
Visible (ANSI)
100
AcDbVertex
100
AcDb2dVertex
 10
84.19685475963639
 20
63.71941995389118
 30
0.0
  0
VERTEX
  5
37F
330
376
100
AcDbEntity
  8
Visible (ANSI)
100
AcDbVertex
100
AcDb2dVertex
 10
84.19727606567777
 20
63.7203495986185
 30
0.0
  0
VERTEX
  5
380
330
376
100
AcDbEntity
  8
Visible (ANSI)
100
AcDbVertex
100
AcDb2dVertex
 10
84.19775728408536
 20
63.7212492063595
 30
0.0
  0
VERTEX
  5
381
330
376
100
AcDbEntity
  8
Visible (ANSI)
100
AcDbVertex
100
AcDb2dVertex
 10
84.19829635449131
 20
63.72211577341551
 30
0.0
  0
VERTEX
  5
382
330
376
100
AcDbEntity
  8
Visible (ANSI)
100
AcDbVertex
100
AcDb2dVertex
 10
84.19889096838893
 20
63.72294629608791
 30
0.0
  0
VERTEX
  5
383
330
376
100
AcDbEntity
  8
Visible (ANSI)
100
AcDbVertex
100
AcDb2dVertex
 10
84.19953857930769
 20
63.72373476697942
 30
0.0
  0
VERTEX
  5
384
330
376
100
AcDbEntity
  8
Visible (ANSI)
100
AcDbVertex
100
AcDb2dVertex
 10
84.20023641454623
 20
63.72447968424074
 30
0.0
  0
VERTEX
  5
385
330
376
100
AcDbEntity
  8
Visible (ANSI)
100
AcDbVertex
100
AcDb2dVertex
 10
84.20098148580576
 20
63.72517804417323
 30
0.0
  0
VERTEX
  5
386
330
376
100
AcDbEntity
  8
Visible (ANSI)
100
AcDbVertex
100
AcDb2dVertex
 10
84.20177060202318
 20
63.72582534122893
 30
0.0
  0
VERTEX
  5
387
330
376
100
AcDbEntity
  8
Visible (ANSI)
100
AcDbVertex
100
AcDb2dVertex
 10
84.2026003844041
 20
63.72642007355853
 30
0.0
  0
VERTEX
  5
388
330
376
100
AcDbEntity
  8
Visible (ANSI)
100
AcDbVertex
100
AcDb2dVertex
 10
84.20346728072299
 20
63.7269592374634
 30
0.0
  0
VERTEX
  5
389
330
376
100
AcDbEntity
  8
Visible (ANSI)
100
AcDbVertex
100
AcDb2dVertex
 10
84.20436757705601
 20
63.72744133109421
 30
0.0
  0
VERTEX
  5
38A
330
376
100
AcDbEntity
  8
Visible (ANSI)
100
AcDbVertex
100
AcDb2dVertex
 10
84.20529741904772
 20
63.72786184890301
 30
0.0
  0
VERTEX
  5
38B
330
376
100
AcDbEntity
  8
Visible (ANSI)
100
AcDbVertex
100
AcDb2dVertex
 10
84.20625282474414
 20
63.72822229273914
 30
0.0
  0
VERTEX
  5
38C
330
376
100
AcDbEntity
  8
Visible (ANSI)
100
AcDbVertex
100
AcDb2dVertex
 10
84.20722970292583
 20
63.72851815705462
 30
0.0
  0
VERTEX
  5
38D
330
376
100
AcDbEntity
  8
Visible (ANSI)
100
AcDbVertex
100
AcDb2dVertex
 10
84.20822387144111
 20
63.72874944184946
 30
0.0
  0
VERTEX
  5
38E
330
376
100
AcDbEntity
  8
Visible (ANSI)
100
AcDbVertex
100
AcDb2dVertex
 10
84.20923107113919
 20
63.72891614712368
 30
0.0
  0
VERTEX
  5
38F
330
376
100
AcDbEntity
  8
Visible (ANSI)
100
AcDbVertex
100
AcDb2dVertex
 10
84.21024699153651
 20
63.72901677102793
 30
0.0
  0
VERTEX
  5
390
330
376
100
AcDbEntity
  8
Visible (ANSI)
100
AcDbVertex
100
AcDb2dVertex
 10
84.21126728108337
 20
63.7290498117129
 30
0.0
  0
SEQEND
  5
379
330
376
100
AcDbEntity
  8
Visible (ANSI)
  0
POLYLINE
  5
391
330
6C
100
AcDbEntity
  8
Visible (ANSI)
100
AcDb2dPolyline
 66
     1
 10
0.0
 20
0.0
 30
0.0
 70
   128
  0
VERTEX
  5
392
330
391
100
AcDbEntity
  8
Visible (ANSI)
100
AcDbVertex
100
AcDb2dVertex
 10
84.07066728223991
 20
39.11464949483246
 30
0.0
  0
VERTEX
  5
393
330
391
100
AcDbEntity
  8
Visible (ANSI)
100
AcDbVertex
100
AcDb2dVertex
 10
84.07096832089562
 20
39.10545381226177
 30
0.0
  0
VERTEX
  5
395
330
391
100
AcDbEntity
  8
Visible (ANSI)
100
AcDbVertex
100
AcDb2dVertex
 10
84.0718701344778
 20
39.09629750630287
 30
0.0
  0
VERTEX
  5
396
330
391
100
AcDbEntity
  8
Visible (ANSI)
100
AcDbVertex
100
AcDb2dVertex
 10
84.07336887449755
 20
39.08721980103596
 30
0.0
  0
VERTEX
  5
397
330
391
100
AcDbEntity
  8
Visible (ANSI)
100
AcDbVertex
100
AcDb2dVertex
 10
84.07545811116252
 20
39.07825953334574
 30
0.0
  0
VERTEX
  5
398
330
391
100
AcDbEntity
  8
Visible (ANSI)
100
AcDbVertex
100
AcDb2dVertex
 10
84.07812890377595
 20
39.06945510598856
 30
0.0
  0
VERTEX
  5
399
330
391
100
AcDbEntity
  8
Visible (ANSI)
100
AcDbVertex
100
AcDb2dVertex
 10
84.08136981247002
 20
39.06084420599575
 30
0.0
  0
VERTEX
  5
39A
330
391
100
AcDbEntity
  8
Visible (ANSI)
100
AcDbVertex
100
AcDb2dVertex
 10
84.08516696860496
 20
39.05246370494135
 30
0.0
  0
VERTEX
  5
39B
330
391
100
AcDbEntity
  8
Visible (ANSI)
100
AcDbVertex
100
AcDb2dVertex
 10
84.08950410996858
 20
39.04434949467739
 30
0.0
  0
VERTEX
  5
39C
330
391
100
AcDbEntity
  8
Visible (ANSI)
100
AcDbVertex
100
AcDb2dVertex
 10
84.09436265117564
 20
39.03653631720255
 30
0.0
  0
VERTEX
  5
39D
330
391
100
AcDbEntity
  8
Visible (ANSI)
100
AcDbVertex
100
AcDb2dVertex
 10
84.09972180099961
 20
39.02905763559693
 30
0.0
  0
VERTEX
  5
39E
330
391
100
AcDbEntity
  8
Visible (ANSI)
100
AcDbVertex
100
AcDb2dVertex
 10
84.10555860343905
 20
39.02194547269057
 30
0.0
  0
VERTEX
  5
39F
330
391
100
AcDbEntity
  8
Visible (ANSI)
100
AcDbVertex
100
AcDb2dVertex
 10
84.11184806678262
 20
39.01523028199836
 30
0.0
  0
VERTEX
  5
3A0
330
391
100
AcDbEntity
  8
Visible (ANSI)
100
AcDbVertex
100
AcDb2dVertex
 10
84.11856325747484
 20
39.00894081865478
 30
0.0
  0
VERTEX
  5
3A1
330
391
100
AcDbEntity
  8
Visible (ANSI)
100
AcDbVertex
100
AcDb2dVertex
 10
84.1256754233145
 20
39.00310401621535
 30
0.0
  0
VERTEX
  5
3A2
330
391
100
AcDbEntity
  8
Visible (ANSI)
100
AcDbVertex
100
AcDb2dVertex
 10
84.13315410492012
 20
38.99774486639137
 30
0.0
  0
VERTEX
  5
3A3
330
391
100
AcDbEntity
  8
Visible (ANSI)
100
AcDbVertex
100
AcDb2dVertex
 10
84.14096728239497
 20
38.99288632225103
 30
0.0
  0
VERTEX
  5
3A4
330
391
100
AcDbEntity
  8
Visible (ANSI)
100
AcDbVertex
100
AcDb2dVertex
 10
84.14908148972562
 20
38.98854918675399
 30
0.0
  0
VERTEX
  5
3A5
330
391
100
AcDbEntity
  8
Visible (ANSI)
100
AcDbVertex
100
AcDb2dVertex
 10
84.15746199078002
 20
38.9847520320857
 30
0.0
  0
VERTEX
  5
3A6
330
391
100
AcDbEntity
  8
Visible (ANSI)
100
AcDbVertex
100
AcDb2dVertex
 10
84.16607289077283
 20
38.98151111825835
 30
0.0
  0
VERTEX
  5
3A7
330
391
100
AcDbEntity
  8
Visible (ANSI)
100
AcDbVertex
100
AcDb2dVertex
 10
84.17487732252995
 20
38.97884032344493
 30
0.0
  0
VERTEX
  5
3A8
330
391
100
AcDbEntity
  8
Visible (ANSI)
100
AcDbVertex
100
AcDb2dVertex
 10
84.18383758142027
 20
38.97675108403
 30
0.0
  0
VERTEX
  5
3A9
330
391
100
AcDbEntity
  8
Visible (ANSI)
100
AcDbVertex
100
AcDb2dVertex
 10
84.19291529768704
 20
38.97525234703521
 30
0.0
  0
VERTEX
  5
3AA
330
391
100
AcDbEntity
  8
Visible (ANSI)
100
AcDbVertex
100
AcDb2dVertex
 10
84.20207160071266
 20
38.97435052992391
 30
0.0
  0
VERTEX
  5
3AB
330
391
100
AcDbEntity
  8
Visible (ANSI)
100
AcDbVertex
100
AcDb2dVertex
 10
84.21126728108337
 20
38.97404949452234
 30
0.0
  0
SEQEND
  5
394
330
391
100
AcDbEntity
  8
Visible (ANSI)
  0
LINE
  5
3AC
330
6C
100
AcDbEntity
  8
Visible (ANSI)
100
AcDbLine
 10
84.21126728036258
 20
39.09904949452233
 30
0.0
 11
84.94566728036259
 21
39.09904949452233
 31
0.0
  0
LINE
  5
3AD
330
6C
100
AcDbEntity
  8
Visible (ANSI)
100
AcDbLine
 10
84.21126728036258
 20
39.09904949452233
 30
0.0
 11
84.21126728036258
 21
38.97404949452234
 31
0.0
  0
POLYLINE
  5
3AE
330
6C
100
AcDbEntity
  8
Visible (ANSI)
100
AcDb2dPolyline
 66
     1
 10
0.0
 20
0.0
 30
0.0
 70
   128
  0
VERTEX
  5
3AF
330
3AE
100
AcDbEntity
  8
Visible (ANSI)
100
AcDbVertex
100
AcDb2dVertex
 10
84.1956672803626
 20
39.11464949483246
 30
0.0
  0
VERTEX
  5
3B0
330
3AE
100
AcDbEntity
  8
Visible (ANSI)
100
AcDbVertex
100
AcDb2dVertex
 10
84.19570068115879
 20
39.1136292111522
 30
0.0
  0
VERTEX
  5
3B2
330
3AE
100
AcDbEntity
  8
Visible (ANSI)
100
AcDbVertex
100
AcDb2dVertex
 10
84.19580074052607
 20
39.11261328048832
 30
0.0
  0
VERTEX
  5
3B3
330
3AE
100
AcDbEntity
  8
Visible (ANSI)
100
AcDbVertex
100
AcDb2dVertex
 10
84.19596702999362
 20
39.11160609105678
 30
0.0
  0
VERTEX
  5
3B4
330
3AE
100
AcDbEntity
  8
Visible (ANSI)
100
AcDbVertex
100
AcDb2dVertex
 10
84.19619883748866
 20
39.11061191374161
 30
0.0
  0
VERTEX
  5
3B5
330
3AE
100
AcDbEntity
  8
Visible (ANSI)
100
AcDbVertex
100
AcDb2dVertex
 10
84.19649517030707
 20
39.10963504289318
 30
0.0
  0
VERTEX
  5
3B6
330
3AE
100
AcDbEntity
  8
Visible (ANSI)
100
AcDbVertex
100
AcDb2dVertex
 10
84.19685475963639
 20
39.10867963206349
 30
0.0
  0
VERTEX
  5
3B7
330
3AE
100
AcDbEntity
  8
Visible (ANSI)
100
AcDbVertex
100
AcDb2dVertex
 10
84.19727606567777
 20
39.10774978787181
 30
0.0
  0
VERTEX
  5
3B8
330
3AE
100
AcDbEntity
  8
Visible (ANSI)
100
AcDbVertex
100
AcDb2dVertex
 10
84.19775728408536
 20
39.10684949960534
 30
0.0
  0
VERTEX
  5
3B9
330
3AE
100
AcDbEntity
  8
Visible (ANSI)
100
AcDbVertex
100
AcDb2dVertex
 10
84.19829635449131
 20
39.10598260401979
 30
0.0
  0
VERTEX
  5
3BA
330
3AE
100
AcDbEntity
  8
Visible (ANSI)
100
AcDbVertex
100
AcDb2dVertex
 10
84.19889096838893
 20
39.10515282053886
 30
0.0
  0
VERTEX
  5
3BB
330
3AE
100
AcDbEntity
  8
Visible (ANSI)
100
AcDbVertex
100
AcDb2dVertex
 10
84.19953857930769
 20
39.10436370432146
 30
0.0
  0
VERTEX
  5
3BC
330
3AE
100
AcDbEntity
  8
Visible (ANSI)
100
AcDbVertex
100
AcDb2dVertex
 10
84.20023641454623
 20
39.10361863452857
 30
0.0
  0
VERTEX
  5
3BD
330
3AE
100
AcDbEntity
  8
Visible (ANSI)
100
AcDbVertex
100
AcDb2dVertex
 10
84.20098148580576
 20
39.10292079085678
 30
0.0
  0
VERTEX
  5
3BE
330
3AE
100
AcDbEntity
  8
Visible (ANSI)
100
AcDbVertex
100
AcDb2dVertex
 10
84.20177060202318
 20
39.10227317700475
 30
0.0
  0
VERTEX
  5
3BF
330
3AE
100
AcDbEntity
  8
Visible (ANSI)
100
AcDbVertex
100
AcDb2dVertex
 10
84.2026003844041
 20
39.10167857374032
 30
0.0
  0
VERTEX
  5
3C0
330
3AE
100
AcDbEntity
  8
Visible (ANSI)
100
AcDbVertex
100
AcDb2dVertex
 10
84.20346728072299
 20
39.10113950370103
 30
0.0
  0
VERTEX
  5
3C1
330
3AE
100
AcDbEntity
  8
Visible (ANSI)
100
AcDbVertex
100
AcDb2dVertex
 10
84.20436757705601
 20
39.10065827832686
 30
0.0
  0
VERTEX
  5
3C2
330
3AE
100
AcDbEntity
  8
Visible (ANSI)
100
AcDbVertex
100
AcDb2dVertex
 10
84.20529741904772
 20
39.1002369743938
 30
0.0
  0
VERTEX
  5
3C3
330
3AE
100
AcDbEntity
  8
Visible (ANSI)
100
AcDbVertex
100
AcDb2dVertex
 10
84.20625282474414
 20
39.09987738708111
 30
0.0
  0
VERTEX
  5
3C4
330
3AE
100
AcDbEntity
  8
Visible (ANSI)
100
AcDbVertex
100
AcDb2dVertex
 10
84.20722970292583
 20
39.09958105343772
 30
0.0
  0
VERTEX
  5
3C5
330
3AE
100
AcDbEntity
  8
Visible (ANSI)
100
AcDbVertex
100
AcDb2dVertex
 10
84.20822387144111
 20
39.09934924064897
 30
0.0
  0
VERTEX
  5
3C6
330
3AE
100
AcDbEntity
  8
Visible (ANSI)
100
AcDbVertex
100
AcDb2dVertex
 10
84.20923107113919
 20
39.09918295776988
 30
0.0
  0
VERTEX
  5
3C7
330
3AE
100
AcDbEntity
  8
Visible (ANSI)
100
AcDbVertex
100
AcDb2dVertex
 10
84.21024699153651
 20
39.09908289705913
 30
0.0
  0
VERTEX
  5
3C8
330
3AE
100
AcDbEntity
  8
Visible (ANSI)
100
AcDbVertex
100
AcDb2dVertex
 10
84.21126728108337
 20
39.09904949264502
 30
0.0
  0
SEQEND
  5
3B1
330
3AE
100
AcDbEntity
  8
Visible (ANSI)
  0
LINE
  5
3C9
330
6C
100
AcDbEntity
  8
Visible (ANSI)
100
AcDbLine
 10
84.21126728036258
 20
38.97404949452234
 30
0.0
 11
84.94566728036259
 21
38.97404949452234
 31
0.0
  0
LINE
  5
3CA
330
6C
100
AcDbEntity
  8
Visible (ANSI)
100
AcDbLine
 10
84.94566728036259
 20
39.09904949452233
 30
0.0
 11
84.94566728036259
 21
38.97404949452234
 31
0.0
  0
LINE
  5
3CB
330
6C
100
AcDbEntity
  8
Visible (ANSI)
100
AcDbLine
 10
84.0706672803626
 20
39.11464949452233
 30
0.0
 11
84.0706672803626
 21
63.71344949452232
 31
0.0
  0
LINE
  5
3CC
330
6C
100
AcDbEntity
  8
Hidden (ANSI)
 48
1.081884145736694
100
AcDbLine
 10
84.1956672803626
 20
63.71344949452232
 30
0.0
 11
84.1956672803626
 21
39.11464949452233
 31
0.0
  0
LINE
  5
3CD
330
6C
100
AcDbEntity
  8
Visible (ANSI)
100
AcDbLine
 10
84.94566728036261
 20
63.64066114687401
 30
0.0
 11
84.94566728036264
 21
39.18743784217065
 31
0.0
  0
LINE
  5
3CE
330
6C
100
AcDbEntity
  8
Hidden (ANSI)
 48
0.0237087067216635
100
AcDbLine
 10
84.19566728036238
 20
62.69754949452233
 30
0.0
 11
84.07066728036239
 21
62.69754949452233
 31
0.0
  0
LINE
  5
3CF
330
6C
100
AcDbEntity
  8
Hidden (ANSI)
 48
0.0237087067216635
100
AcDbLine
 10
84.19566728036238
 20
63.26054949452233
 30
0.0
 11
84.07066728036239
 21
63.26054949452233
 31
0.0
  0
LINE
  5
3D0
330
6C
100
AcDbEntity
  8
Hidden (ANSI)
 48
0.0237087067216635
100
AcDbLine
 10
84.19566728036238
 20
39.56754949452232
 30
0.0
 11
84.07066728036239
 21
39.56754949452232
 31
0.0
  0
LINE
  5
3D1
330
6C
100
AcDbEntity
  8
Hidden (ANSI)
 48
0.0237087067216635
100
AcDbLine
 10
84.19566728036238
 20
40.13054949452233
 30
0.0
 11
84.07066728036239
 21
40.13054949452233
 31
0.0
  0
MTEXT
  5
3D2
330
6C
100
AcDbEntity
  8
Symbol (ANSI)
100
AcDbMText
 10
80.76013180052298
 20
30.96675185487614
 30
0.0
 40
1.200000014830761
 41
0.0
 46
0.0
 71
     7
 72
     1
  1
SIDE VIEW
  7
Text Style153
 73
     1
 44
1.0
  0
LINE
  5
3D3
330
6C
100
AcDbEntity
  8
Symbol (ANSI)
370
    30
100
AcDbLine
 10
80.69869164247682
 20
30.71814569322907
 30
0.0
 11
88.80792984653178
 21
30.71814569322907
 31
0.0
  0
ELLIPSE
  5
3D4
330
6C
100
AcDbEntity
  8
Visible (ANSI)
100
AcDbEllipse
 10
128.9616863843682
 20
39.37273554552445
 30
0.0
 11
-0.1755969594512626
 21
0.3049290465935832
 31
0.0
210
0.0
220
0.0
230
1.0
 40
0.5780931159158092
 41
0.0
 42
6.283185307179586
  0
ELLIPSE
  5
3D5
330
6C
100
AcDbEntity
  8
Visible (ANSI)
100
AcDbEllipse
 10
129.0721718189286
 20
39.43635987580451
 30
0.0
 11
-0.1755969594512628
 21
0.3049290465935835
 31
0.0
210
0.0
220
0.0
230
1.0
 40
0.5780931159158093
 41
0.3187556839588321
 42
2.822836969630701
  0
ELLIPSE
  5
3D6
330
6C
100
AcDbEntity
  8
Visible (ANSI)
100
AcDbEllipse
 10
128.9616863843683
 20
63.01006679253431
 30
0.0
 11
-0.1755969594512626
 21
0.3049290465935832
 31
0.0
210
0.0
220
0.0
230
1.0
 40
0.5780931159158092
 41
0.0
 42
6.283185307179586
  0
ELLIPSE
  5
3D7
330
6C
100
AcDbEntity
  8
Visible (ANSI)
100
AcDbEllipse
 10
129.0721718189286
 20
63.07369112281438
 30
0.0
 11
-0.1755969594512625
 21
0.304929046593583
 31
0.0
210
0.0
220
0.0
230
1.0
 40
0.5780931159158092
 41
0.3187556839588543
 42
2.822836969630827
  0
ELLIPSE
  5
3D8
330
6C
100
AcDbEntity
  8
Visible (ANSI)
100
AcDbEllipse
 10
147.6337248250783
 20
52.25755497520699
 30
0.0
 11
-0.1755969594512626
 21
0.3049290465935832
 31
0.0
210
0.0
220
0.0
230
1.0
 40
0.5780931159158092
 41
0.0
 42
6.283185307179586
  0
ELLIPSE
  5
3D9
330
6C
100
AcDbEntity
  8
Visible (ANSI)
100
AcDbEllipse
 10
147.7442102596386
 20
52.32117930548706
 30
0.0
 11
-0.1755969594512625
 21
0.304929046593583
 31
0.0
210
0.0
220
0.0
230
1.0
 40
0.5780931159158092
 41
0.3187556839588543
 42
2.822836969630701
  0
ELLIPSE
  5
3DA
330
6C
100
AcDbEntity
  8
Visible (ANSI)
100
AcDbEllipse
 10
110.2896479436582
 20
73.76257860986166
 30
0.0
 11
-0.1755969594512626
 21
0.3049290465935832
 31
0.0
210
0.0
220
0.0
230
1.0
 40
0.5780931159158092
 41
0.0
 42
6.283185307179586
  0
ELLIPSE
  5
3DB
330
6C
100
AcDbEntity
  8
Visible (ANSI)
100
AcDbEllipse
 10
110.4001333782186
 20
73.82620294014171
 30
0.0
 11
-0.1755969594512626
 21
0.3049290465935832
 31
0.0
210
0.0
220
0.0
230
1.0
 40
0.5780931159158094
 41
0.3187556839589485
 42
2.8228369696309
  0
ELLIPSE
  5
3DC
330
6C
100
AcDbEntity
  8
Visible (ANSI)
100
AcDbEllipse
 10
110.2896479436582
 20
50.12524736285182
 30
0.0
 11
-0.1755969594512626
 21
0.3049290465935832
 31
0.0
210
0.0
220
0.0
230
1.0
 40
0.5780931159158092
 41
0.0
 42
6.283185307179586
  0
ELLIPSE
  5
3DD
330
6C
100
AcDbEntity
  8
Visible (ANSI)
100
AcDbEllipse
 10
110.4001333782185
 20
50.18887169313187
 30
0.0
 11
-0.1755969594512625
 21
0.3049290465935829
 31
0.0
210
0.0
220
0.0
230
1.0
 40
0.5780931159158092
 41
0.3187556839589263
 42
2.82283696963089
  0
ELLIPSE
  5
3DE
330
6C
100
AcDbEntity
  8
Visible (ANSI)
100
AcDbEllipse
 10
147.6337248250782
 20
28.62022372819714
 30
0.0
 11
-0.1755969594512626
 21
0.3049290465935832
 31
0.0
210
0.0
220
0.0
230
1.0
 40
0.5780931159158092
 41
0.0
 42
6.283185307179586
  0
ELLIPSE
  5
3DF
330
6C
100
AcDbEntity
  8
Visible (ANSI)
100
AcDbEllipse
 10
147.7442102596386
 20
28.6838480584772
 30
0.0
 11
-0.1755969594512628
 21
0.3049290465935835
 31
0.0
210
0.0
220
0.0
230
1.0
 40
0.5780931159158093
 41
0.3187556839588543
 42
2.822836969630826
  0
LINE
  5
3E0
330
6C
100
AcDbEntity
  8
Visible Narrow (ANSI)
100
AcDbLine
 10
148.5313968837947
 20
52.55987269012372
 30
0.0
 11
148.5313968837946
 21
27.57029468275779
 31
0.0
  0
LINE
  5
3E1
330
6C
100
AcDbEntity
  8
Visible Narrow (ANSI)
100
AcDbLine
 10
148.2828488502076
 20
27.49590980233037
 30
0.0
 11
148.2828488502077
 21
52.63425757055113
 31
0.0
  0
LINE
  5
3E2
330
6C
100
AcDbEntity
  8
Visible Narrow (ANSI)
100
AcDbLine
 10
109.8291343530893
 20
75.06509221064799
 30
0.0
 11
148.3427864492343
 21
52.88655500341175
 31
0.0
  0
LINE
  5
3E3
330
6C
100
AcDbEntity
  8
Visible Narrow (ANSI)
100
AcDbLine
 10
148.2828488502077
 20
52.63425757055113
 30
0.0
 11
109.6405239185289
 21
74.88689253572842
 31
0.0
  0
LINE
  5
3E4
330
6C
100
AcDbEntity
  8
Visible Narrow (ANSI)
100
AcDbLine
 10
109.6405239185289
 20
74.88689253572842
 30
0.0
 11
109.6405239185288
 21
49.74854476750767
 31
0.0
  0
LINE
  5
3E5
330
6C
100
AcDbEntity
  8
Visible Narrow (ANSI)
100
AcDbLine
 10
109.6405239185288
 20
49.74854476750767
 30
0.0
 11
148.2828488502076
 21
27.49590980233037
 31
0.0
  0
LINE
  5
3E6
330
6C
100
AcDbEntity
  8
Visible (ANSI)
100
AcDbLine
 10
109.5890479353224
 20
74.92126474221374
 30
0.0
 11
109.5890479353224
 21
49.85730185442038
 31
0.0
  0
LINE
  5
3E7
330
6C
100
AcDbEntity
  8
Visible (ANSI)
100
AcDbLine
 10
109.7093404335316
 20
49.64923732727746
 30
0.0
 11
148.28717054642
 21
27.43374245815353
 31
0.0
  0
POLYLINE
  5
3E8
330
6C
100
AcDbEntity
  8
Visible (ANSI)
100
AcDb2dPolyline
 66
     1
 10
0.0
 20
0.0
 30
0.0
 70
   128
  0
VERTEX
  5
3E9
330
3E8
100
AcDbEntity
  8
Visible (ANSI)
100
AcDbVertex
100
AcDb2dVertex
 10
148.2828494808917
 20
52.63425783095158
 30
0.0
  0
VERTEX
  5
3EA
330
3E8
100
AcDbEntity
  8
Visible (ANSI)
100
AcDbVertex
100
AcDb2dVertex
 10
148.2912422728541
 20
52.62663092032906
 30
0.0
  0
VERTEX
  5
3EC
330
3E8
100
AcDbEntity
  8
Visible (ANSI)
100
AcDbVertex
100
AcDb2dVertex
 10
148.3001342208119
 20
52.6193296821142
 30
0.0
  0
VERTEX
  5
3ED
330
3E8
100
AcDbEntity
  8
Visible (ANSI)
100
AcDbVertex
100
AcDb2dVertex
 10
148.3094820993557
 20
52.61237202086295
 30
0.0
  0
VERTEX
  5
3EE
330
3E8
100
AcDbEntity
  8
Visible (ANSI)
100
AcDbVertex
100
AcDb2dVertex
 10
148.3192483662629
 20
52.60577607982507
 30
0.0
  0
VERTEX
  5
3EF
330
3E8
100
AcDbEntity
  8
Visible (ANSI)
100
AcDbVertex
100
AcDb2dVertex
 10
148.329390605045
 20
52.59955564870774
 30
0.0
  0
VERTEX
  5
3F0
330
3E8
100
AcDbEntity
  8
Visible (ANSI)
100
AcDbVertex
100
AcDb2dVertex
 10
148.3398668451566
 20
52.59372171628694
 30
0.0
  0
VERTEX
  5
3F1
330
3E8
100
AcDbEntity
  8
Visible (ANSI)
100
AcDbVertex
100
AcDb2dVertex
 10
148.3506303143814
 20
52.58829016834543
 30
0.0
  0
VERTEX
  5
3F2
330
3E8
100
AcDbEntity
  8
Visible (ANSI)
100
AcDbVertex
100
AcDb2dVertex
 10
148.3616347797839
 20
52.58326800432103
 30
0.0
  0
VERTEX
  5
3F3
330
3E8
100
AcDbEntity
  8
Visible (ANSI)
100
AcDbVertex
100
AcDb2dVertex
 10
148.3728346099334
 20
52.57866565146531
 30
0.0
  0
VERTEX
  5
3F4
330
3E8
100
AcDbEntity
  8
Visible (ANSI)
100
AcDbVertex
100
AcDb2dVertex
 10
148.384182223693
 20
52.57448780989627
 30
0.0
  0
VERTEX
  5
3F5
330
3E8
100
AcDbEntity
  8
Visible (ANSI)
100
AcDbVertex
100
AcDb2dVertex
 10
148.3956281265167
 20
52.57073807787305
 30
0.0
  0
VERTEX
  5
3F6
330
3E8
100
AcDbEntity
  8
Visible (ANSI)
100
AcDbVertex
100
AcDb2dVertex
 10
148.407123679448
 20
52.5674220929951
 30
0.0
  0
VERTEX
  5
3F7
330
3E8
100
AcDbEntity
  8
Visible (ANSI)
100
AcDbVertex
100
AcDb2dVertex
 10
148.4186185271664
 20
52.56453836531058
 30
0.0
  0
VERTEX
  5
3F8
330
3E8
100
AcDbEntity
  8
Visible (ANSI)
100
AcDbVertex
100
AcDb2dVertex
 10
148.4300633617998
 20
52.56208908948323
 30
0.0
  0
VERTEX
  5
3F9
330
3E8
100
AcDbEntity
  8
Visible (ANSI)
100
AcDbVertex
100
AcDb2dVertex
 10
148.4414100214477
 20
52.56006792320171
 30
0.0
  0
VERTEX
  5
3FA
330
3E8
100
AcDbEntity
  8
Visible (ANSI)
100
AcDbVertex
100
AcDb2dVertex
 10
148.4526116198152
 20
52.55847234015714
 30
0.0
  0
VERTEX
  5
3FB
330
3E8
100
AcDbEntity
  8
Visible (ANSI)
100
AcDbVertex
100
AcDb2dVertex
 10
148.4636146825697
 20
52.55729753133592
 30
0.0
  0
VERTEX
  5
3FC
330
3E8
100
AcDbEntity
  8
Visible (ANSI)
100
AcDbVertex
100
AcDb2dVertex
 10
148.4743805422592
 20
52.5565288680417
 30
0.0
  0
VERTEX
  5
3FD
330
3E8
100
AcDbEntity
  8
Visible (ANSI)
100
AcDbVertex
100
AcDb2dVertex
 10
148.4848562327194
 20
52.55616338053464
 30
0.0
  0
VERTEX
  5
3FE
330
3E8
100
AcDbEntity
  8
Visible (ANSI)
100
AcDbVertex
100
AcDb2dVertex
 10
148.494998547986
 20
52.55618534950521
 30
0.0
  0
VERTEX
  5
3FF
330
3E8
100
AcDbEntity
  8
Visible (ANSI)
100
AcDbVertex
100
AcDb2dVertex
 10
148.5047635418801
 20
52.55658476854573
 30
0.0
  0
VERTEX
  5
400
330
3E8
100
AcDbEntity
  8
Visible (ANSI)
100
AcDbVertex
100
AcDb2dVertex
 10
148.5141119901685
 20
52.55734363059787
 30
0.0
  0
VERTEX
  5
401
330
3E8
100
AcDbEntity
  8
Visible (ANSI)
100
AcDbVertex
100
AcDb2dVertex
 10
148.5230015709959
 20
52.55844520253432
 30
0.0
  0
VERTEX
  5
402
330
3E8
100
AcDbEntity
  8
Visible (ANSI)
100
AcDbVertex
100
AcDb2dVertex
 10
148.5313976278093
 20
52.55987259655502
 30
0.0
  0
SEQEND
  5
3EB
330
3E8
100
AcDbEntity
  8
Visible (ANSI)
  0
POLYLINE
  5
403
330
6C
100
AcDbEntity
  8
Visible (ANSI)
100
AcDb2dPolyline
 66
     1
 10
0.0
 20
0.0
 30
0.0
 70
   128
  0
VERTEX
  5
404
330
403
100
AcDbEntity
  8
Visible (ANSI)
100
AcDbVertex
100
AcDb2dVertex
 10
148.5313976278092
 20
27.57029424312435
 30
0.0
  0
VERTEX
  5
405
330
403
100
AcDbEntity
  8
Visible (ANSI)
100
AcDbVertex
100
AcDb2dVertex
 10
148.5230015709958
 20
27.5626687405908
 30
0.0
  0
VERTEX
  5
407
330
403
100
AcDbEntity
  8
Visible (ANSI)
100
AcDbVertex
100
AcDb2dVertex
 10
148.5141119901684
 20
27.55536752535078
 30
0.0
  0
VERTEX
  5
408
330
403
100
AcDbEntity
  8
Visible (ANSI)
100
AcDbVertex
100
AcDb2dVertex
 10
148.50476354188
 20
27.54841055478581
 30
0.0
  0
VERTEX
  5
409
330
403
100
AcDbEntity
  8
Visible (ANSI)
100
AcDbVertex
100
AcDb2dVertex
 10
148.4949985479859
 20
27.54181302723245
 30
0.0
  0
VERTEX
  5
40A
330
403
100
AcDbEntity
  8
Visible (ANSI)
100
AcDbVertex
100
AcDb2dVertex
 10
148.4848562327194
 20
27.5355914149583
 30
0.0
  0
VERTEX
  5
40B
330
403
100
AcDbEntity
  8
Visible (ANSI)
100
AcDbVertex
100
AcDb2dVertex
 10
148.4743805422591
 20
27.52975878196197
 30
0.0
  0
VERTEX
  5
40C
330
403
100
AcDbEntity
  8
Visible (ANSI)
100
AcDbVertex
100
AcDb2dVertex
 10
148.4636146825696
 20
27.52432780195261
 30
0.0
  0
VERTEX
  5
40D
330
403
100
AcDbEntity
  8
Visible (ANSI)
100
AcDbVertex
100
AcDb2dVertex
 10
148.4526116198151
 20
27.51930449027045
 30
0.0
  0
VERTEX
  5
40E
330
403
100
AcDbEntity
  8
Visible (ANSI)
100
AcDbVertex
100
AcDb2dVertex
 10
148.4414100214476
 20
27.51470196480218
 30
0.0
  0
VERTEX
  5
40F
330
403
100
AcDbEntity
  8
Visible (ANSI)
100
AcDbVertex
100
AcDb2dVertex
 10
148.4300633617998
 20
27.51052348778013
 30
0.0
  0
VERTEX
  5
410
330
403
100
AcDbEntity
  8
Visible (ANSI)
100
AcDbVertex
100
AcDb2dVertex
 10
148.4186185271663
 20
27.50677464310409
 30
0.0
  0
VERTEX
  5
411
330
403
100
AcDbEntity
  8
Visible (ANSI)
100
AcDbVertex
100
AcDb2dVertex
 10
148.407123679448
 20
27.50345872748503
 30
0.0
  0
VERTEX
  5
412
330
403
100
AcDbEntity
  8
Visible (ANSI)
100
AcDbVertex
100
AcDb2dVertex
 10
148.3956281265166
 20
27.50057660385015
 30
0.0
  0
VERTEX
  5
413
330
403
100
AcDbEntity
  8
Visible (ANSI)
100
AcDbVertex
100
AcDb2dVertex
 10
148.3841822236929
 20
27.49812668057924
 30
0.0
  0
VERTEX
  5
414
330
403
100
AcDbEntity
  8
Visible (ANSI)
100
AcDbVertex
100
AcDb2dVertex
 10
148.3728346099333
 20
27.49610641363544
 30
0.0
  0
VERTEX
  5
415
330
403
100
AcDbEntity
  8
Visible (ANSI)
100
AcDbVertex
100
AcDb2dVertex
 10
148.3616347797838
 20
27.49451065797832
 30
0.0
  0
VERTEX
  5
416
330
403
100
AcDbEntity
  8
Visible (ANSI)
100
AcDbVertex
100
AcDb2dVertex
 10
148.3506303143813
 20
27.49333316670859
 30
0.0
  0
VERTEX
  5
417
330
403
100
AcDbEntity
  8
Visible (ANSI)
100
AcDbVertex
100
AcDb2dVertex
 10
148.3398668451565
 20
27.49256660613727
 30
0.0
  0
VERTEX
  5
418
330
403
100
AcDbEntity
  8
Visible (ANSI)
100
AcDbVertex
100
AcDb2dVertex
 10
148.3293906050449
 20
27.4922008952545
 30
0.0
  0
VERTEX
  5
419
330
403
100
AcDbEntity
  8
Visible (ANSI)
100
AcDbVertex
100
AcDb2dVertex
 10
148.3192483662629
 20
27.49222320586844
 30
0.0
  0
VERTEX
  5
41A
330
403
100
AcDbEntity
  8
Visible (ANSI)
100
AcDbVertex
100
AcDb2dVertex
 10
148.3094820993556
 20
27.49262103839348
 30
0.0
  0
VERTEX
  5
41B
330
403
100
AcDbEntity
  8
Visible (ANSI)
100
AcDbVertex
100
AcDb2dVertex
 10
148.3001342208119
 20
27.49337905634115
 30
0.0
  0
VERTEX
  5
41C
330
403
100
AcDbEntity
  8
Visible (ANSI)
100
AcDbVertex
100
AcDb2dVertex
 10
148.291242272854
 20
27.49448217405263
 30
0.0
  0
VERTEX
  5
41D
330
403
100
AcDbEntity
  8
Visible (ANSI)
100
AcDbVertex
100
AcDb2dVertex
 10
148.2828494808917
 20
27.49590944137156
 30
0.0
  0
SEQEND
  5
406
330
403
100
AcDbEntity
  8
Visible (ANSI)
  0
LINE
  5
41E
330
6C
100
AcDbEntity
  8
Visible (ANSI)
100
AcDbLine
 10
148.425167738101
 20
52.62594805415048
 30
0.0
 11
149.0700354743634
 21
52.99730268566518
 31
0.0
  0
LINE
  5
41F
330
6C
100
AcDbEntity
  8
Visible (ANSI)
100
AcDbLine
 10
149.1805209089239
 20
27.94410034801918
 30
0.0
 11
148.5313968837946
 21
27.57029468275779
 31
0.0
  0
LINE
  5
420
330
6C
100
AcDbEntity
  8
Visible (ANSI)
100
AcDbLine
 10
148.4482394107514
 20
52.60775989400009
 30
0.0
 11
148.5313968837947
 21
52.55987269012372
 31
0.0
  0
POLYLINE
  5
421
330
6C
100
AcDbEntity
  8
Visible (ANSI)
100
AcDb2dPolyline
 66
     1
 10
0.0
 20
0.0
 30
0.0
 70
   128
  0
VERTEX
  5
422
330
421
100
AcDbEntity
  8
Visible (ANSI)
100
AcDbVertex
100
AcDb2dVertex
 10
148.3933349137928
 20
52.6978821602761
 30
0.0
  0
VERTEX
  5
423
330
421
100
AcDbEntity
  8
Visible (ANSI)
100
AcDbVertex
100
AcDb2dVertex
 10
148.393934219639
 20
52.69552866436786
 30
0.0
  0
VERTEX
  5
425
330
421
100
AcDbEntity
  8
Visible (ANSI)
100
AcDbVertex
100
AcDb2dVertex
 10
148.3945612947238
 20
52.69318963675834
 30
0.0
  0
VERTEX
  5
426
330
421
100
AcDbEntity
  8
Visible (ANSI)
100
AcDbVertex
100
AcDb2dVertex
 10
148.3952081055858
 20
52.69086655490237
 30
0.0
  0
VERTEX
  5
427
330
421
100
AcDbEntity
  8
Visible (ANSI)
100
AcDbVertex
100
AcDb2dVertex
 10
148.3958798477211
 20
52.68855936480258
 30
0.0
  0
VERTEX
  5
428
330
421
100
AcDbEntity
  8
Visible (ANSI)
100
AcDbVertex
100
AcDb2dVertex
 10
148.3965683965556
 20
52.68626949144548
 30
0.0
  0
VERTEX
  5
429
330
421
100
AcDbEntity
  8
Visible (ANSI)
100
AcDbVertex
100
AcDb2dVertex
 10
148.3972788569232
 20
52.6839968286249
 30
0.0
  0
VERTEX
  5
42A
330
421
100
AcDbEntity
  8
Visible (ANSI)
100
AcDbVertex
100
AcDb2dVertex
 10
148.3980056693163
 20
52.68174122071787
 30
0.0
  0
VERTEX
  5
42B
330
421
100
AcDbEntity
  8
Visible (ANSI)
100
AcDbVertex
100
AcDb2dVertex
 10
148.3987511945255
 20
52.67950403906173
 30
0.0
  0
VERTEX
  5
42C
330
421
100
AcDbEntity
  8
Visible (ANSI)
100
AcDbVertex
100
AcDb2dVertex
 10
148.3995097848105
 20
52.6772850772237
 30
0.0
  0
VERTEX
  5
42D
330
421
100
AcDbEntity
  8
Visible (ANSI)
100
AcDbVertex
100
AcDb2dVertex
 10
148.4002837140458
 20
52.67508565648949
 30
0.0
  0
VERTEX
  5
42E
330
421
100
AcDbEntity
  8
Visible (ANSI)
100
AcDbVertex
100
AcDb2dVertex
 10
148.4010699037302
 20
52.67290399221971
 30
0.0
  0
VERTEX
  5
42F
330
421
100
AcDbEntity
  8
Visible (ANSI)
100
AcDbVertex
100
AcDb2dVertex
 10
148.4018652337985
 20
52.6707444150028
 30
0.0
  0
VERTEX
  5
430
330
421
100
AcDbEntity
  8
Visible (ANSI)
100
AcDbVertex
100
AcDb2dVertex
 10
148.4026718529465
 20
52.66860203487593
 30
0.0
  0
VERTEX
  5
431
330
421
100
AcDbEntity
  8
Visible (ANSI)
100
AcDbVertex
100
AcDb2dVertex
 10
148.4034865603304
 20
52.66648113591019
 30
0.0
  0
VERTEX
  5
432
330
421
100
AcDbEntity
  8
Visible (ANSI)
100
AcDbVertex
100
AcDb2dVertex
 10
148.4043061158918
 20
52.66437984043154
 30
0.0
  0
VERTEX
  5
433
330
421
100
AcDbEntity
  8
Visible (ANSI)
100
AcDbVertex
100
AcDb2dVertex
 10
148.4051325516552
 20
52.66229933045364
 30
0.0
  0
VERTEX
  5
434
330
421
100
AcDbEntity
  8
Visible (ANSI)
100
AcDbVertex
100
AcDb2dVertex
 10
148.4059625533464
 20
52.66023768556437
 30
0.0
  0
VERTEX
  5
435
330
421
100
AcDbEntity
  8
Visible (ANSI)
100
AcDbVertex
100
AcDb2dVertex
 10
148.406795425475
 20
52.65819757483892
 30
0.0
  0
VERTEX
  5
436
330
421
100
AcDbEntity
  8
Visible (ANSI)
100
AcDbVertex
100
AcDb2dVertex
 10
148.4076277839259
 20
52.65617703764659
 30
0.0
  0
VERTEX
  5
437
330
421
100
AcDbEntity
  8
Visible (ANSI)
100
AcDbVertex
100
AcDb2dVertex
 10
148.4084588661227
 20
52.65417870443032
 30
0.0
  0
VERTEX
  5
438
330
421
100
AcDbEntity
  8
Visible (ANSI)
100
AcDbVertex
100
AcDb2dVertex
 10
148.4092878780526
 20
52.65219904836708
 30
0.0
  0
VERTEX
  5
439
330
421
100
AcDbEntity
  8
Visible (ANSI)
100
AcDbVertex
100
AcDb2dVertex
 10
148.4101139958868
 20
52.65024066462686
 30
0.0
  0
VERTEX
  5
43A
330
421
100
AcDbEntity
  8
Visible (ANSI)
100
AcDbVertex
100
AcDb2dVertex
 10
148.4109337120332
 20
52.64830152147324
 30
0.0
  0
VERTEX
  5
43B
330
421
100
AcDbEntity
  8
Visible (ANSI)
100
AcDbVertex
100
AcDb2dVertex
 10
148.411746146596
 20
52.6463841817894
 30
0.0
  0
SEQEND
  5
424
330
421
100
AcDbEntity
  8
Visible (ANSI)
  0
LINE
  5
43C
330
6C
100
AcDbEntity
  8
Visible (ANSI)
100
AcDbLine
 10
148.393334284768
 20
52.69788190083119
 30
0.0
 11
148.3661650313675
 21
52.68223616835345
 31
0.0
  0
LINE
  5
43D
330
6C
100
AcDbEntity
  8
Visible (ANSI)
100
AcDbLine
 10
148.3661650313675
 20
52.68223616835345
 30
0.0
 11
148.2828488502077
 21
52.63425757055113
 31
0.0
  0
LINE
  5
43E
330
6C
100
AcDbEntity
  8
Visible (ANSI)
100
AcDbLine
 10
148.5313968837947
 20
52.55987269012372
 30
0.0
 11
149.1805209089239
 21
52.93367835538512
 31
0.0
  0
LINE
  5
43F
330
6C
100
AcDbEntity
  8
Visible (ANSI)
100
AcDbLine
 10
149.0700354743634
 20
52.99730268566518
 30
0.0
 11
149.1805209089239
 21
52.93367835538512
 31
0.0
  0
POLYLINE
  5
440
330
6C
100
AcDbEntity
  8
Visible (ANSI)
100
AcDb2dPolyline
 66
     1
 10
0.0
 20
0.0
 30
0.0
 70
   128
  0
VERTEX
  5
441
330
440
100
AcDbEntity
  8
Visible (ANSI)
100
AcDbVertex
100
AcDb2dVertex
 10
109.6405239204623
 20
74.8868931582023
 30
0.0
  0
VERTEX
  5
442
330
440
100
AcDbEntity
  8
Visible (ANSI)
100
AcDbVertex
100
AcDb2dVertex
 10
109.6434706841638
 20
74.89489867287469
 30
0.0
  0
VERTEX
  5
444
330
440
100
AcDbEntity
  8
Visible (ANSI)
100
AcDbVertex
100
AcDb2dVertex
 10
109.6469484732666
 20
74.90317160302521
 30
0.0
  0
VERTEX
  5
445
330
440
100
AcDbEntity
  8
Visible (ANSI)
100
AcDbVertex
100
AcDb2dVertex
 10
109.6509538654135
 20
74.911668562388
 30
0.0
  0
VERTEX
  5
446
330
440
100
AcDbEntity
  8
Visible (ANSI)
100
AcDbVertex
100
AcDb2dVertex
 10
109.6554811877881
 20
74.9203448329111
 30
0.0
  0
VERTEX
  5
447
330
440
100
AcDbEntity
  8
Visible (ANSI)
100
AcDbVertex
100
AcDb2dVertex
 10
109.6605225482269
 20
74.92915748808711
 30
0.0
  0
VERTEX
  5
448
330
440
100
AcDbEntity
  8
Visible (ANSI)
100
AcDbVertex
100
AcDb2dVertex
 10
109.6660678144782
 20
74.93806388205118
 30
0.0
  0
VERTEX
  5
449
330
440
100
AcDbEntity
  8
Visible (ANSI)
100
AcDbVertex
100
AcDb2dVertex
 10
109.6721047386514
 20
74.9470170452086
 30
0.0
  0
VERTEX
  5
44A
330
440
100
AcDbEntity
  8
Visible (ANSI)
100
AcDbVertex
100
AcDb2dVertex
 10
109.6786189572166
 20
74.95597339402137
 30
0.0
  0
VERTEX
  5
44B
330
440
100
AcDbEntity
  8
Visible (ANSI)
100
AcDbVertex
100
AcDb2dVertex
 10
109.6855940221172
 20
74.96488664559449
 30
0.0
  0
VERTEX
  5
44C
330
440
100
AcDbEntity
  8
Visible (ANSI)
100
AcDbVertex
100
AcDb2dVertex
 10
109.6930115667025
 20
74.97371398072743
 30
0.0
  0
VERTEX
  5
44D
330
440
100
AcDbEntity
  8
Visible (ANSI)
100
AcDbVertex
100
AcDb2dVertex
 10
109.7008513109129
 20
74.9824084087793
 30
0.0
  0
VERTEX
  5
44E
330
440
100
AcDbEntity
  8
Visible (ANSI)
100
AcDbVertex
100
AcDb2dVertex
 10
109.7090911442462
 20
74.9909280600232
 30
0.0
  0
VERTEX
  5
44F
330
440
100
AcDbEntity
  8
Visible (ANSI)
100
AcDbVertex
100
AcDb2dVertex
 10
109.7177072709483
 20
74.99923005842744
 30
0.0
  0
VERTEX
  5
450
330
440
100
AcDbEntity
  8
Visible (ANSI)
100
AcDbVertex
100
AcDb2dVertex
 10
109.7266742877947
 20
75.00727213707027
 30
0.0
  0
VERTEX
  5
451
330
440
100
AcDbEntity
  8
Visible (ANSI)
100
AcDbVertex
100
AcDb2dVertex
 10
109.7359652514997
 20
75.01501117800065
 30
0.0
  0
VERTEX
  5
452
330
440
100
AcDbEntity
  8
Visible (ANSI)
100
AcDbVertex
100
AcDb2dVertex
 10
109.7455518705764
 20
75.02240939022023
 30
0.0
  0
VERTEX
  5
453
330
440
100
AcDbEntity
  8
Visible (ANSI)
100
AcDbVertex
100
AcDb2dVertex
 10
109.7554045753394
 20
75.02942824666502
 30
0.0
  0
VERTEX
  5
454
330
440
100
AcDbEntity
  8
Visible (ANSI)
100
AcDbVertex
100
AcDb2dVertex
 10
109.7654926423539
 20
75.03603012649453
 30
0.0
  0
VERTEX
  5
455
330
440
100
AcDbEntity
  8
Visible (ANSI)
100
AcDbVertex
100
AcDb2dVertex
 10
109.7757843655539
 20
75.04218139960372
 30
0.0
  0
VERTEX
  5
456
330
440
100
AcDbEntity
  8
Visible (ANSI)
100
AcDbVertex
100
AcDb2dVertex
 10
109.7862471379118
 20
75.04784949962609
 30
0.0
  0
VERTEX
  5
457
330
440
100
AcDbEntity
  8
Visible (ANSI)
100
AcDbVertex
100
AcDb2dVertex
 10
109.7968476432978
 20
75.05300141601766
 30
0.0
  0
VERTEX
  5
458
330
440
100
AcDbEntity
  8
Visible (ANSI)
100
AcDbVertex
100
AcDb2dVertex
 10
109.8075519673181
 20
75.05760994482409
 30
0.0
  0
VERTEX
  5
459
330
440
100
AcDbEntity
  8
Visible (ANSI)
100
AcDbVertex
100
AcDb2dVertex
 10
109.818325752876
 20
75.0616476271556
 30
0.0
  0
VERTEX
  5
45A
330
440
100
AcDbEntity
  8
Visible (ANSI)
100
AcDbVertex
100
AcDb2dVertex
 10
109.8291343434186
 20
75.06509297083993
 30
0.0
  0
SEQEND
  5
443
330
440
100
AcDbEntity
  8
Visible (ANSI)
  0
POLYLINE
  5
45B
330
6C
100
AcDbEntity
  8
Visible (ANSI)
100
AcDb2dPolyline
 66
     1
 10
0.0
 20
0.0
 30
0.0
 70
   128
  0
VERTEX
  5
45C
330
45B
100
AcDbEntity
  8
Visible (ANSI)
100
AcDbVertex
100
AcDb2dVertex
 10
148.3427868302086
 20
52.8865555386462
 30
0.0
  0
VERTEX
  5
45D
330
45B
100
AcDbEntity
  8
Visible (ANSI)
100
AcDbVertex
100
AcDb2dVertex
 10
148.337340389061
 20
52.88002233849031
 30
0.0
  0
VERTEX
  5
45F
330
45B
100
AcDbEntity
  8
Visible (ANSI)
100
AcDbVertex
100
AcDb2dVertex
 10
148.3319260979786
 20
52.87289832855374
 30
0.0
  0
VERTEX
  5
460
330
45B
100
AcDbEntity
  8
Visible (ANSI)
100
AcDbVertex
100
AcDb2dVertex
 10
148.3265839233533
 20
52.86520194327573
 30
0.0
  0
VERTEX
  5
461
330
45B
100
AcDbEntity
  8
Visible (ANSI)
100
AcDbVertex
100
AcDb2dVertex
 10
148.3213455673623
 20
52.85696217041262
 30
0.0
  0
VERTEX
  5
462
330
45B
100
AcDbEntity
  8
Visible (ANSI)
100
AcDbVertex
100
AcDb2dVertex
 10
148.3162422894799
 20
52.84820774278518
 30
0.0
  0
VERTEX
  5
463
330
45B
100
AcDbEntity
  8
Visible (ANSI)
100
AcDbVertex
100
AcDb2dVertex
 10
148.3113127260458
 20
52.83896860723229
 30
0.0
  0
VERTEX
  5
464
330
45B
100
AcDbEntity
  8
Visible (ANSI)
100
AcDbVertex
100
AcDb2dVertex
 10
148.3065868084263
 20
52.82927887093119
 30
0.0
  0
VERTEX
  5
465
330
45B
100
AcDbEntity
  8
Visible (ANSI)
100
AcDbVertex
100
AcDb2dVertex
 10
148.3020936085095
 20
52.81917368090923
 30
0.0
  0
VERTEX
  5
466
330
45B
100
AcDbEntity
  8
Visible (ANSI)
100
AcDbVertex
100
AcDb2dVertex
 10
148.2978691388279
 20
52.80868761221808
 30
0.0
  0
VERTEX
  5
467
330
45B
100
AcDbEntity
  8
Visible (ANSI)
100
AcDbVertex
100
AcDb2dVertex
 10
148.2939403245179
 20
52.79786071481612
 30
0.0
  0
VERTEX
  5
468
330
45B
100
AcDbEntity
  8
Visible (ANSI)
100
AcDbVertex
100
AcDb2dVertex
 10
148.2903354674374
 20
52.7867307737296
 30
0.0
  0
VERTEX
  5
469
330
45B
100
AcDbEntity
  8
Visible (ANSI)
100
AcDbVertex
100
AcDb2dVertex
 10
148.2870788352107
 20
52.77534244772029
 30
0.0
  0
VERTEX
  5
46A
330
45B
100
AcDbEntity
  8
Visible (ANSI)
100
AcDbVertex
100
AcDb2dVertex
 10
148.2842011512724
 20
52.76373494000484
 30
0.0
  0
VERTEX
  5
46B
330
45B
100
AcDbEntity
  8
Visible (ANSI)
100
AcDbVertex
100
AcDb2dVertex
 10
148.2817235668279
 20
52.75195264950927
 30
0.0
  0
VERTEX
  5
46C
330
45B
100
AcDbEntity
  8
Visible (ANSI)
100
AcDbVertex
100
AcDb2dVertex
 10
148.279665516718
 20
52.74003898677126
 30
0.0
  0
VERTEX
  5
46D
330
45B
100
AcDbEntity
  8
Visible (ANSI)
100
AcDbVertex
100
AcDb2dVertex
 10
148.2780526012125
 20
52.72803787872657
 30
0.0
  0
VERTEX
  5
46E
330
45B
100
AcDbEntity
  8
Visible (ANSI)
100
AcDbVertex
100
AcDb2dVertex
 10
148.2769005424132
 20
52.71599366747008
 30
0.0
  0
VERTEX
  5
46F
330
45B
100
AcDbEntity
  8
Visible (ANSI)
100
AcDbVertex
100
AcDb2dVertex
 10
148.276225767635
 20
52.70395264784111
 30
0.0
  0
VERTEX
  5
470
330
45B
100
AcDbEntity
  8
Visible (ANSI)
100
AcDbVertex
100
AcDb2dVertex
 10
148.2760399958591
 20
52.69195992627199
 30
0.0
  0
VERTEX
  5
471
330
45B
100
AcDbEntity
  8
Visible (ANSI)
100
AcDbVertex
100
AcDb2dVertex
 10
148.2763607951861
 20
52.68005940865226
 30
0.0
  0
VERTEX
  5
472
330
45B
100
AcDbEntity
  8
Visible (ANSI)
100
AcDbVertex
100
AcDb2dVertex
 10
148.2771956222066
 20
52.66829528165761
 30
0.0
  0
VERTEX
  5
473
330
45B
100
AcDbEntity
  8
Visible (ANSI)
100
AcDbVertex
100
AcDb2dVertex
 10
148.2785497245352
 20
52.65671199468977
 30
0.0
  0
VERTEX
  5
474
330
45B
100
AcDbEntity
  8
Visible (ANSI)
100
AcDbVertex
100
AcDb2dVertex
 10
148.2804340951982
 20
52.64535120209552
 30
0.0
  0
VERTEX
  5
475
330
45B
100
AcDbEntity
  8
Visible (ANSI)
100
AcDbVertex
100
AcDb2dVertex
 10
148.2828494808917
 20
52.63425783095158
 30
0.0
  0
SEQEND
  5
45E
330
45B
100
AcDbEntity
  8
Visible (ANSI)
  0
LINE
  5
476
330
6C
100
AcDbEntity
  8
Visible (ANSI)
100
AcDbLine
 10
148.3470261261632
 20
52.76125473272299
 30
0.0
 11
148.9919104743634
 21
53.13261893041648
 31
0.0
  0
LINE
  5
477
330
6C
100
AcDbEntity
  8
Visible (ANSI)
100
AcDbLine
 10
148.9919104743634
 20
53.26036066867312
 30
0.0
 11
148.3427864492343
 21
52.88655500341175
 31
0.0
  0
LINE
  5
478
330
6C
100
AcDbEntity
  8
Visible (ANSI)
100
AcDbLine
 10
148.3427864492343
 20
52.79022598186596
 30
0.0
 11
148.3427864492343
 21
52.88655500341175
 31
0.0
  0
LINE
  5
479
330
6C
100
AcDbEntity
  8
Visible (ANSI)
100
AcDbLine
 10
148.9919104743634
 20
53.13261893041648
 30
0.0
 11
148.9919104743634
 21
53.26036066867312
 31
0.0
  0
POLYLINE
  5
47A
330
6C
100
AcDbEntity
  8
Visible (ANSI)
100
AcDb2dPolyline
 66
     1
 10
0.0
 20
0.0
 30
0.0
 70
   128
  0
VERTEX
  5
47B
330
47A
100
AcDbEntity
  8
Visible (ANSI)
100
AcDbVertex
100
AcDb2dVertex
 10
148.3933349137928
 20
52.6978821602761
 30
0.0
  0
VERTEX
  5
47C
330
47A
100
AcDbEntity
  8
Visible (ANSI)
100
AcDbVertex
100
AcDb2dVertex
 10
148.3915978777897
 20
52.69957682612858
 30
0.0
  0
VERTEX
  5
47E
330
47A
100
AcDbEntity
  8
Visible (ANSI)
100
AcDbVertex
100
AcDb2dVertex
 10
148.3898885858527
 20
52.70128287620245
 30
0.0
  0
VERTEX
  5
47F
330
47A
100
AcDbEntity
  8
Visible (ANSI)
100
AcDbVertex
100
AcDb2dVertex
 10
148.3882043145066
 20
52.70300179988559
 30
0.0
  0
VERTEX
  5
480
330
47A
100
AcDbEntity
  8
Visible (ANSI)
100
AcDbVertex
100
AcDb2dVertex
 10
148.3865422946862
 20
52.70473199073091
 30
0.0
  0
VERTEX
  5
481
330
47A
100
AcDbEntity
  8
Visible (ANSI)
100
AcDbVertex
100
AcDb2dVertex
 10
148.3849076767848
 20
52.70647029918673
 30
0.0
  0
VERTEX
  5
482
330
47A
100
AcDbEntity
  8
Visible (ANSI)
100
AcDbVertex
100
AcDb2dVertex
 10
148.3832949463328
 20
52.7082196651472
 30
0.0
  0
VERTEX
  5
483
330
47A
100
AcDbEntity
  8
Visible (ANSI)
100
AcDbVertex
100
AcDb2dVertex
 10
148.3817091639871
 20
52.70997228301258
 30
0.0
  0
VERTEX
  5
484
330
47A
100
AcDbEntity
  8
Visible (ANSI)
100
AcDbVertex
100
AcDb2dVertex
 10
148.380144726367
 20
52.7117325762672
 30
0.0
  0
VERTEX
  5
485
330
47A
100
AcDbEntity
  8
Visible (ANSI)
100
AcDbVertex
100
AcDb2dVertex
 10
148.3786066061396
 20
52.71349422343219
 30
0.0
  0
VERTEX
  5
486
330
47A
100
AcDbEntity
  8
Visible (ANSI)
100
AcDbVertex
100
AcDb2dVertex
 10
148.3770917680694
 20
52.7152585343647
 30
0.0
  0
VERTEX
  5
487
330
47A
100
AcDbEntity
  8
Visible (ANSI)
100
AcDbVertex
100
AcDb2dVertex
 10
148.3755971344657
 20
52.71702679447342
 30
0.0
  0
VERTEX
  5
488
330
47A
100
AcDbEntity
  8
Visible (ANSI)
100
AcDbVertex
100
AcDb2dVertex
 10
148.374127551075
 20
52.71879260919081
 30
0.0
  0
VERTEX
  5
489
330
47A
100
AcDbEntity
  8
Visible (ANSI)
100
AcDbVertex
100
AcDb2dVertex
 10
148.3726772025638
 20
52.72055874515498
 30
0.0
  0
VERTEX
  5
48A
330
47A
100
AcDbEntity
  8
Visible (ANSI)
100
AcDbVertex
100
AcDb2dVertex
 10
148.3712508541434
 20
52.72231876142105
 30
0.0
  0
VERTEX
  5
48B
330
47A
100
AcDbEntity
  8
Visible (ANSI)
100
AcDbVertex
100
AcDb2dVertex
 10
148.3698452667274
 20
52.72407538524711
 30
0.0
  0
VERTEX
  5
48C
330
47A
100
AcDbEntity
  8
Visible (ANSI)
100
AcDbVertex
100
AcDb2dVertex
 10
148.3684571637978
 20
52.72582825275409
 30
0.0
  0
VERTEX
  5
48D
330
47A
100
AcDbEntity
  8
Visible (ANSI)
100
AcDbVertex
100
AcDb2dVertex
 10
148.3670911969732
 20
52.72757239237431
 30
0.0
  0
VERTEX
  5
48E
330
47A
100
AcDbEntity
  8
Visible (ANSI)
100
AcDbVertex
100
AcDb2dVertex
 10
148.3657413628687
 20
52.72930892766353
 30
0.0
  0
VERTEX
  5
48F
330
47A
100
AcDbEntity
  8
Visible (ANSI)
100
AcDbVertex
100
AcDb2dVertex
 10
148.364412242452
 20
52.73103438115963
 30
0.0
  0
VERTEX
  5
490
330
47A
100
AcDbEntity
  8
Visible (ANSI)
100
AcDbVertex
100
AcDb2dVertex
 10
148.3630977655761
 20
52.73275137276351
 30
0.0
  0
VERTEX
  5
491
330
47A
100
AcDbEntity
  8
Visible (ANSI)
100
AcDbVertex
100
AcDb2dVertex
 10
148.3618024496879
 20
52.73445331885223
 30
0.0
  0
VERTEX
  5
492
330
47A
100
AcDbEntity
  8
Visible (ANSI)
100
AcDbVertex
100
AcDb2dVertex
 10
148.3605228170113
 20
52.73614127444073
 30
0.0
  0
VERTEX
  5
493
330
47A
100
AcDbEntity
  8
Visible (ANSI)
100
AcDbVertex
100
AcDb2dVertex
 10
148.3592553618986
 20
52.73781627849384
 30
0.0
  0
VERTEX
  5
494
330
47A
100
AcDbEntity
  8
Visible (ANSI)
100
AcDbVertex
100
AcDb2dVertex
 10
148.3580045155895
 20
52.73947476732675
 30
0.0
  0
SEQEND
  5
47D
330
47A
100
AcDbEntity
  8
Visible (ANSI)
  0
LINE
  5
495
330
6C
100
AcDbEntity
  8
Visible (ANSI)
100
AcDbLine
 10
109.8291343530893
 20
75.06509221064799
 30
0.0
 11
110.4782583782184
 21
75.43889787590938
 31
0.0
  0
POLYLINE
  5
496
330
6C
100
AcDbEntity
  8
Visible (ANSI)
100
AcDb2dPolyline
 66
     1
 10
0.0
 20
0.0
 30
0.0
 70
   128
  0
VERTEX
  5
497
330
496
100
AcDbEntity
  8
Visible (ANSI)
100
AcDbVertex
100
AcDb2dVertex
 10
109.6405239204623
 20
49.74854476862229
 30
0.0
  0
VERTEX
  5
498
330
496
100
AcDbEntity
  8
Visible (ANSI)
100
AcDbVertex
100
AcDb2dVertex
 10
109.6365243255812
 20
49.75247429957306
 30
0.0
  0
VERTEX
  5
49A
330
496
100
AcDbEntity
  8
Visible (ANSI)
100
AcDbVertex
100
AcDb2dVertex
 10
109.6326620916766
 20
49.75647791485616
 30
0.0
  0
VERTEX
  5
49B
330
496
100
AcDbEntity
  8
Visible (ANSI)
100
AcDbVertex
100
AcDb2dVertex
 10
109.6289413463188
 20
49.76055298673229
 30
0.0
  0
VERTEX
  5
49C
330
496
100
AcDbEntity
  8
Visible (ANSI)
100
AcDbVertex
100
AcDb2dVertex
 10
109.6253660822581
 20
49.76469682181492
 30
0.0
  0
VERTEX
  5
49D
330
496
100
AcDbEntity
  8
Visible (ANSI)
100
AcDbVertex
100
AcDb2dVertex
 10
109.6219401263119
 20
49.76890661908027
 30
0.0
  0
VERTEX
  5
49E
330
496
100
AcDbEntity
  8
Visible (ANSI)
100
AcDbVertex
100
AcDb2dVertex
 10
109.6186671601073
 20
49.77317954181057
 30
0.0
  0
VERTEX
  5
49F
330
496
100
AcDbEntity
  8
Visible (ANSI)
100
AcDbVertex
100
AcDb2dVertex
 10
109.6155506474845
 20
49.77751267560404
 30
0.0
  0
VERTEX
  5
4A0
330
496
100
AcDbEntity
  8
Visible (ANSI)
100
AcDbVertex
100
AcDb2dVertex
 10
109.6125939693176
 20
49.78190304633756
 30
0.0
  0
VERTEX
  5
4A1
330
496
100
AcDbEntity
  8
Visible (ANSI)
100
AcDbVertex
100
AcDb2dVertex
 10
109.6098002783239
 20
49.78634759627808
 30
0.0
  0
VERTEX
  5
4A2
330
496
100
AcDbEntity
  8
Visible (ANSI)
100
AcDbVertex
100
AcDb2dVertex
 10
109.6071725509169
 20
49.79084324982247
 30
0.0
  0
VERTEX
  5
4A3
330
496
100
AcDbEntity
  8
Visible (ANSI)
100
AcDbVertex
100
AcDb2dVertex
 10
109.6047136183195
 20
49.7953868237303
 30
0.0
  0
VERTEX
  5
4A4
330
496
100
AcDbEntity
  8
Visible (ANSI)
100
AcDbVertex
100
AcDb2dVertex
 10
109.6024261043391
 20
49.79997512295575
 30
0.0
  0
VERTEX
  5
4A5
330
496
100
AcDbEntity
  8
Visible (ANSI)
100
AcDbVertex
100
AcDb2dVertex
 10
109.6003124720357
 20
49.80460490164351
 30
0.0
  0
VERTEX
  5
4A6
330
496
100
AcDbEntity
  8
Visible (ANSI)
100
AcDbVertex
100
AcDb2dVertex
 10
109.5983749614977
 20
49.80927285123094
 30
0.0
  0
VERTEX
  5
4A7
330
496
100
AcDbEntity
  8
Visible (ANSI)
100
AcDbVertex
100
AcDb2dVertex
 10
109.5966156676227
 20
49.81397563926678
 30
0.0
  0
VERTEX
  5
4A8
330
496
100
AcDbEntity
  8
Visible (ANSI)
100
AcDbVertex
100
AcDb2dVertex
 10
109.5950364727072
 20
49.81870990049937
 30
0.0
  0
VERTEX
  5
4A9
330
496
100
AcDbEntity
  8
Visible (ANSI)
100
AcDbVertex
100
AcDb2dVertex
 10
109.5936390568174
 20
49.82347219488648
 30
0.0
  0
VERTEX
  5
4AA
330
496
100
AcDbEntity
  8
Visible (ANSI)
100
AcDbVertex
100
AcDb2dVertex
 10
109.5924249185311
 20
49.82825910342723
 30
0.0
  0
VERTEX
  5
4AB
330
496
100
AcDbEntity
  8
Visible (ANSI)
100
AcDbVertex
100
AcDb2dVertex
 10
109.5913953645664
 20
49.83306715033912
 30
0.0
  0
VERTEX
  5
4AC
330
496
100
AcDbEntity
  8
Visible (ANSI)
100
AcDbVertex
100
AcDb2dVertex
 10
109.5905514994114
 20
49.83789285685367
 30
0.0
  0
VERTEX
  5
4AD
330
496
100
AcDbEntity
  8
Visible (ANSI)
100
AcDbVertex
100
AcDb2dVertex
 10
109.5898942201385
 20
49.84273270239737
 30
0.0
  0
VERTEX
  5
4AE
330
496
100
AcDbEntity
  8
Visible (ANSI)
100
AcDbVertex
100
AcDb2dVertex
 10
109.5894242293681
 20
49.84758318883857
 30
0.0
  0
VERTEX
  5
4AF
330
496
100
AcDbEntity
  8
Visible (ANSI)
100
AcDbVertex
100
AcDb2dVertex
 10
109.5891420352684
 20
49.85244075072019
 30
0.0
  0
VERTEX
  5
4B0
330
496
100
AcDbEntity
  8
Visible (ANSI)
100
AcDbVertex
100
AcDb2dVertex
 10
109.5890479359992
 20
49.85730185407776
 30
0.0
  0
SEQEND
  5
499
330
496
100
AcDbEntity
  8
Visible (ANSI)
  0
POLYLINE
  5
4B1
330
6C
100
AcDbEntity
  8
Visible (ANSI)
100
AcDb2dPolyline
 66
     1
 10
0.0
 20
0.0
 30
0.0
 70
   128
  0
VERTEX
  5
4B2
330
4B1
100
AcDbEntity
  8
Visible (ANSI)
100
AcDbVertex
100
AcDb2dVertex
 10
109.6405239191659
 20
74.95563728321293
 30
0.0
  0
VERTEX
  5
4B3
330
4B1
100
AcDbEntity
  8
Visible (ANSI)
100
AcDbVertex
100
AcDb2dVertex
 10
109.6326620894485
 20
74.95390224826799
 30
0.0
  0
VERTEX
  5
4B5
330
4B1
100
AcDbEntity
  8
Visible (ANSI)
100
AcDbVertex
100
AcDb2dVertex
 10
109.625366085742
 20
74.95188299630008
 30
0.0
  0
VERTEX
  5
4B6
330
4B1
100
AcDbEntity
  8
Visible (ANSI)
100
AcDbVertex
100
AcDb2dVertex
 10
109.6186671511949
 20
74.94959838075809
 30
0.0
  0
VERTEX
  5
4B7
330
4B1
100
AcDbEntity
  8
Visible (ANSI)
100
AcDbVertex
100
AcDb2dVertex
 10
109.612593970614
 20
74.94707298782332
 30
0.0
  0
VERTEX
  5
4B8
330
4B1
100
AcDbEntity
  8
Visible (ANSI)
100
AcDbVertex
100
AcDb2dVertex
 10
109.6071725502687
 20
74.94433243627321
 30
0.0
  0
VERTEX
  5
4B9
330
4B1
100
AcDbEntity
  8
Visible (ANSI)
100
AcDbVertex
100
AcDb2dVertex
 10
109.6024261082282
 20
74.94139866903997
 30
0.0
  0
VERTEX
  5
4BA
330
4B1
100
AcDbEntity
  8
Visible (ANSI)
100
AcDbVertex
100
AcDb2dVertex
 10
109.5983749640905
 20
74.93830058481485
 30
0.0
  0
VERTEX
  5
4BB
330
4B1
100
AcDbEntity
  8
Visible (ANSI)
100
AcDbVertex
100
AcDb2dVertex
 10
109.5950364727072
 20
74.93506166052892
 30
0.0
  0
VERTEX
  5
4BC
330
4B1
100
AcDbEntity
  8
Visible (ANSI)
100
AcDbVertex
100
AcDb2dVertex
 10
109.5924249211238
 20
74.93171056462085
 30
0.0
  0
VERTEX
  5
4BD
330
4B1
100
AcDbEntity
  8
Visible (ANSI)
100
AcDbVertex
100
AcDb2dVertex
 10
109.5905515020041
 20
74.928276454498
 30
0.0
  0
VERTEX
  5
4BE
330
4B1
100
AcDbEntity
  8
Visible (ANSI)
100
AcDbVertex
100
AcDb2dVertex
 10
109.5894242293682
 20
74.92478424152345
 30
0.0
  0
VERTEX
  5
4BF
330
4B1
100
AcDbEntity
  8
Visible (ANSI)
100
AcDbVertex
100
AcDb2dVertex
 10
109.5890479359992
 20
74.92126521958784
 30
0.0
  0
VERTEX
  5
4C0
330
4B1
100
AcDbEntity
  8
Visible (ANSI)
100
AcDbVertex
100
AcDb2dVertex
 10
109.5894242293682
 20
74.91774466286146
 30
0.0
  0
VERTEX
  5
4C1
330
4B1
100
AcDbEntity
  8
Visible (ANSI)
100
AcDbVertex
100
AcDb2dVertex
 10
109.5905514994115
 20
74.91425398617069
 30
0.0
  0
VERTEX
  5
4C2
330
4B1
100
AcDbEntity
  8
Visible (ANSI)
100
AcDbVertex
100
AcDb2dVertex
 10
109.5924249185311
 20
74.91081834125708
 30
0.0
  0
VERTEX
  5
4C3
330
4B1
100
AcDbEntity
  8
Visible (ANSI)
100
AcDbVertex
100
AcDb2dVertex
 10
109.5950364727072
 20
74.90746724684207
 30
0.0
  0
VERTEX
  5
4C4
330
4B1
100
AcDbEntity
  8
Visible (ANSI)
100
AcDbVertex
100
AcDb2dVertex
 10
109.5983749614978
 20
74.90422985286777
 30
0.0
  0
VERTEX
  5
4C5
330
4B1
100
AcDbEntity
  8
Visible (ANSI)
100
AcDbVertex
100
AcDb2dVertex
 10
109.6024261043391
 20
74.90113023310541
 30
0.0
  0
VERTEX
  5
4C6
330
4B1
100
AcDbEntity
  8
Visible (ANSI)
100
AcDbVertex
100
AcDb2dVertex
 10
109.6071725509169
 20
74.89819800327571
 30
0.0
  0
VERTEX
  5
4C7
330
4B1
100
AcDbEntity
  8
Visible (ANSI)
100
AcDbVertex
100
AcDb2dVertex
 10
109.6125939693177
 20
74.89545592029418
 30
0.0
  0
VERTEX
  5
4C8
330
4B1
100
AcDbEntity
  8
Visible (ANSI)
100
AcDbVertex
100
AcDb2dVertex
 10
109.6186671601073
 20
74.89293052428005
 30
0.0
  0
VERTEX
  5
4C9
330
4B1
100
AcDbEntity
  8
Visible (ANSI)
100
AcDbVertex
100
AcDb2dVertex
 10
109.6253660822581
 20
74.89064744758796
 30
0.0
  0
VERTEX
  5
4CA
330
4B1
100
AcDbEntity
  8
Visible (ANSI)
100
AcDbVertex
100
AcDb2dVertex
 10
109.6326620916767
 20
74.88862666113259
 30
0.0
  0
VERTEX
  5
4CB
330
4B1
100
AcDbEntity
  8
Visible (ANSI)
100
AcDbVertex
100
AcDb2dVertex
 10
109.6405239204623
 20
74.8868931582023
 30
0.0
  0
SEQEND
  5
4B4
330
4B1
100
AcDbEntity
  8
Visible (ANSI)
  0
LINE
  5
4CC
330
6C
100
AcDbEntity
  8
Visible (ANSI)
100
AcDbLine
 10
110.190202113905
 20
50.1553489013569
 30
0.0
 11
110.4001333782184
 21
50.27624027631445
 31
0.0
  0
LINE
  5
4CD
330
6C
100
AcDbEntity
  8
Visible (ANSI)
100
AcDbLine
 10
109.7201837247788
 20
75.00150998022633
 30
0.0
 11
109.6405239185288
 21
74.95563694869904
 31
0.0
  0
LINE
  5
4CE
330
6C
100
AcDbEntity
  8
Visible (ANSI)
100
AcDbLine
 10
109.6674287749734
 20
74.94014347230214
 30
0.0
 11
109.6405239185288
 21
74.95563694869904
 31
0.0
  0
POLYLINE
  5
4CF
330
6C
100
AcDbEntity
  8
Visible (ANSI)
100
AcDb2dPolyline
 66
     1
 10
0.0
 20
0.0
 30
0.0
 70
   128
  0
VERTEX
  5
4D0
330
4CF
100
AcDbEntity
  8
Visible (ANSI)
100
AcDbVertex
100
AcDb2dVertex
 10
148.2828494808917
 20
27.49590944137156
 30
0.0
  0
VERTEX
  5
4D1
330
4CF
100
AcDbEntity
  8
Visible (ANSI)
100
AcDbVertex
100
AcDb2dVertex
 10
148.2804340951981
 20
27.48820944380304
 30
0.0
  0
VERTEX
  5
4D3
330
4CF
100
AcDbEntity
  8
Visible (ANSI)
100
AcDbVertex
100
AcDb2dVertex
 10
148.2785497245351
 20
27.48085547774798
 30
0.0
  0
VERTEX
  5
4D4
330
4CF
100
AcDbEntity
  8
Visible (ANSI)
100
AcDbVertex
100
AcDb2dVertex
 10
148.2771956222066
 20
27.47388413989713
 30
0.0
  0
VERTEX
  5
4D5
330
4CF
100
AcDbEntity
  8
Visible (ANSI)
100
AcDbVertex
100
AcDb2dVertex
 10
148.276360795186
 20
27.46733490398292
 30
0.0
  0
VERTEX
  5
4D6
330
4CF
100
AcDbEntity
  8
Visible (ANSI)
100
AcDbVertex
100
AcDb2dVertex
 10
148.276039995859
 20
27.46124093545093
 30
0.0
  0
VERTEX
  5
4D7
330
4CF
100
AcDbEntity
  8
Visible (ANSI)
100
AcDbVertex
100
AcDb2dVertex
 10
148.2762257676349
 20
27.45563339625831
 30
0.0
  0
VERTEX
  5
4D8
330
4CF
100
AcDbEntity
  8
Visible (ANSI)
100
AcDbVertex
100
AcDb2dVertex
 10
148.2769005424131
 20
27.45054596538644
 30
0.0
  0
VERTEX
  5
4D9
330
4CF
100
AcDbEntity
  8
Visible (ANSI)
100
AcDbVertex
100
AcDb2dVertex
 10
148.2780526012124
 20
27.4460055156905
 30
0.0
  0
VERTEX
  5
4DA
330
4CF
100
AcDbEntity
  8
Visible (ANSI)
100
AcDbVertex
100
AcDb2dVertex
 10
148.279665516718
 20
27.44203809133535
 30
0.0
  0
VERTEX
  5
4DB
330
4CF
100
AcDbEntity
  8
Visible (ANSI)
100
AcDbVertex
100
AcDb2dVertex
 10
148.2817235668278
 20
27.43866577788775
 30
0.0
  0
VERTEX
  5
4DC
330
4CF
100
AcDbEntity
  8
Visible (ANSI)
100
AcDbVertex
100
AcDb2dVertex
 10
148.2842011512724
 20
27.43591267381476
 30
0.0
  0
VERTEX
  5
4DD
330
4CF
100
AcDbEntity
  8
Visible (ANSI)
100
AcDbVertex
100
AcDb2dVertex
 10
148.2870788352106
 20
27.43379565108214
 30
0.0
  0
VERTEX
  5
4DE
330
4CF
100
AcDbEntity
  8
Visible (ANSI)
100
AcDbVertex
100
AcDb2dVertex
 10
148.2903354674373
 20
27.43232885763481
 30
0.0
  0
VERTEX
  5
4DF
330
4CF
100
AcDbEntity
  8
Visible (ANSI)
100
AcDbVertex
100
AcDb2dVertex
 10
148.2939403245178
 20
27.43152824080304
 30
0.0
  0
VERTEX
  5
4E0
330
4CF
100
AcDbEntity
  8
Visible (ANSI)
100
AcDbVertex
100
AcDb2dVertex
 10
148.2978691388278
 20
27.43140230793549
 30
0.0
  0
VERTEX
  5
4E1
330
4CF
100
AcDbEntity
  8
Visible (ANSI)
100
AcDbVertex
100
AcDb2dVertex
 10
148.3020936085095
 20
27.43195821759488
 30
0.0
  0
VERTEX
  5
4E2
330
4CF
100
AcDbEntity
  8
Visible (ANSI)
100
AcDbVertex
100
AcDb2dVertex
 10
148.3065868084262
 20
27.43319866614303
 30
0.0
  0
VERTEX
  5
4E3
330
4CF
100
AcDbEntity
  8
Visible (ANSI)
100
AcDbVertex
100
AcDb2dVertex
 10
148.3113127260457
 20
27.43512801035389
 30
0.0
  0
VERTEX
  5
4E4
330
4CF
100
AcDbEntity
  8
Visible (ANSI)
100
AcDbVertex
100
AcDb2dVertex
 10
148.3162422894799
 20
27.43774306776523
 30
0.0
  0
VERTEX
  5
4E5
330
4CF
100
AcDbEntity
  8
Visible (ANSI)
100
AcDbVertex
100
AcDb2dVertex
 10
148.3213455673622
 20
27.44103772689204
 30
0.0
  0
VERTEX
  5
4E6
330
4CF
100
AcDbEntity
  8
Visible (ANSI)
100
AcDbVertex
100
AcDb2dVertex
 10
148.3265839233532
 20
27.44500754124123
 30
0.0
  0
VERTEX
  5
4E7
330
4CF
100
AcDbEntity
  8
Visible (ANSI)
100
AcDbVertex
100
AcDb2dVertex
 10
148.3319260979785
 20
27.44964059521046
 30
0.0
  0
VERTEX
  5
4E8
330
4CF
100
AcDbEntity
  8
Visible (ANSI)
100
AcDbVertex
100
AcDb2dVertex
 10
148.337340389061
 20
27.45492213322052
 30
0.0
  0
VERTEX
  5
4E9
330
4CF
100
AcDbEntity
  8
Visible (ANSI)
100
AcDbVertex
100
AcDb2dVertex
 10
148.3427868302085
 20
27.46083920215409
 30
0.0
  0
SEQEND
  5
4D2
330
4CF
100
AcDbEntity
  8
Visible (ANSI)
  0
POLYLINE
  5
4EA
330
6C
100
AcDbEntity
  8
Visible (ANSI)
100
AcDb2dPolyline
 66
     1
 10
0.0
 20
0.0
 30
0.0
 70
   128
  0
VERTEX
  5
4EB
330
4EA
100
AcDbEntity
  8
Visible (ANSI)
100
AcDbVertex
100
AcDb2dVertex
 10
109.7093404370474
 20
49.64923732682058
 30
0.0
  0
VERTEX
  5
4EC
330
4EA
100
AcDbEntity
  8
Visible (ANSI)
100
AcDbVertex
100
AcDb2dVertex
 10
109.7051561541368
 20
49.65175601542142
 30
0.0
  0
VERTEX
  5
4EE
330
4EA
100
AcDbEntity
  8
Visible (ANSI)
100
AcDbVertex
100
AcDb2dVertex
 10
109.7010692943304
 20
49.65443672475721
 30
0.0
  0
VERTEX
  5
4EF
330
4EA
100
AcDbEntity
  8
Visible (ANSI)
100
AcDbVertex
100
AcDb2dVertex
 10
109.6970828392271
 20
49.65727739188757
 30
0.0
  0
VERTEX
  5
4F0
330
4EA
100
AcDbEntity
  8
Visible (ANSI)
100
AcDbVertex
100
AcDb2dVertex
 10
109.6931996044937
 20
49.66027580417532
 30
0.0
  0
VERTEX
  5
4F1
330
4EA
100
AcDbEntity
  8
Visible (ANSI)
100
AcDbVertex
100
AcDb2dVertex
 10
109.6894223435723
 20
49.66342955446077
 30
0.0
  0
VERTEX
  5
4F2
330
4EA
100
AcDbEntity
  8
Visible (ANSI)
100
AcDbVertex
100
AcDb2dVertex
 10
109.6857536698991
 20
49.66673608887357
 30
0.0
  0
VERTEX
  5
4F3
330
4EA
100
AcDbEntity
  8
Visible (ANSI)
100
AcDbVertex
100
AcDb2dVertex
 10
109.6821960672761
 20
49.67019268896248
 30
0.0
  0
VERTEX
  5
4F4
330
4EA
100
AcDbEntity
  8
Visible (ANSI)
100
AcDbVertex
100
AcDb2dVertex
 10
109.678751941724
 20
49.67379644773749
 30
0.0
  0
VERTEX
  5
4F5
330
4EA
100
AcDbEntity
  8
Visible (ANSI)
100
AcDbVertex
100
AcDb2dVertex
 10
109.6754235540729
 20
49.6775443444835
 30
0.0
  0
VERTEX
  5
4F6
330
4EA
100
AcDbEntity
  8
Visible (ANSI)
100
AcDbVertex
100
AcDb2dVertex
 10
109.6722130199617
 20
49.68143316696052
 30
0.0
  0
VERTEX
  5
4F7
330
4EA
100
AcDbEntity
  8
Visible (ANSI)
100
AcDbVertex
100
AcDb2dVertex
 10
109.6691223616926
 20
49.68545955339376
 30
0.0
  0
VERTEX
  5
4F8
330
4EA
100
AcDbEntity
  8
Visible (ANSI)
100
AcDbVertex
100
AcDb2dVertex
 10
109.6661534460058
 20
49.68962001626966
 30
0.0
  0
VERTEX
  5
4F9
330
4EA
100
AcDbEntity
  8
Visible (ANSI)
100
AcDbVertex
100
AcDb2dVertex
 10
109.6633080566754
 20
49.6939109125677
 30
0.0
  0
VERTEX
  5
4FA
330
4EA
100
AcDbEntity
  8
Visible (ANSI)
100
AcDbVertex
100
AcDb2dVertex
 10
109.66058777006
 20
49.6983284377189
 30
0.0
  0
VERTEX
  5
4FB
330
4EA
100
AcDbEntity
  8
Visible (ANSI)
100
AcDbVertex
100
AcDb2dVertex
 10
109.6579940795519
 20
49.70286869741029
 30
0.0
  0
VERTEX
  5
4FC
330
4EA
100
AcDbEntity
  8
Visible (ANSI)
100
AcDbVertex
100
AcDb2dVertex
 10
109.6555283437231
 20
49.70752762390552
 30
0.0
  0
VERTEX
  5
4FD
330
4EA
100
AcDbEntity
  8
Visible (ANSI)
100
AcDbVertex
100
AcDb2dVertex
 10
109.6531917655841
 20
49.71230104775686
 30
0.0
  0
VERTEX
  5
4FE
330
4EA
100
AcDbEntity
  8
Visible (ANSI)
100
AcDbVertex
100
AcDb2dVertex
 10
109.6509853925836
 20
49.71718464398649
 30
0.0
  0
VERTEX
  5
4FF
330
4EA
100
AcDbEntity
  8
Visible (ANSI)
100
AcDbVertex
100
AcDb2dVertex
 10
109.6489101788334
 20
49.72217401002515
 30
0.0
  0
VERTEX
  5
500
330
4EA
100
AcDbEntity
  8
Visible (ANSI)
100
AcDbVertex
100
AcDb2dVertex
 10
109.646966902142
 20
49.72726460562048
 30
0.0
  0
VERTEX
  5
501
330
4EA
100
AcDbEntity
  8
Visible (ANSI)
100
AcDbVertex
100
AcDb2dVertex
 10
109.6451562054977
 20
49.7324517651053
 30
0.0
  0
VERTEX
  5
502
330
4EA
100
AcDbEntity
  8
Visible (ANSI)
100
AcDbVertex
100
AcDb2dVertex
 10
109.6434785970686
 20
49.73773075702635
 30
0.0
  0
VERTEX
  5
503
330
4EA
100
AcDbEntity
  8
Visible (ANSI)
100
AcDbVertex
100
AcDb2dVertex
 10
109.6419344190906
 20
49.74309674238571
 30
0.0
  0
VERTEX
  5
504
330
4EA
100
AcDbEntity
  8
Visible (ANSI)
100
AcDbVertex
100
AcDb2dVertex
 10
109.6405239204623
 20
49.74854476862229
 30
0.0
  0
SEQEND
  5
4ED
330
4EA
100
AcDbEntity
  8
Visible (ANSI)
  0
LINE
  5
505
330
6C
100
AcDbEntity
  8
Visible (ANSI)
100
AcDbLine
 10
110.2687262144281
 20
50.0202624833117
 30
0.0
 11
110.4782583782184
 21
50.14092403156315
 31
0.0
  0
LINE
  5
506
330
6C
100
AcDbEntity
  8
Visible (ANSI)
100
AcDbLine
 10
148.3427864492342
 20
27.49273654152738
 30
0.0
 11
148.3427864492342
 21
27.46083942080884
 31
0.0
  0
LINE
  5
507
330
6C
100
AcDbEntity
  8
Visible (ANSI)
100
AcDbLine
 10
148.3427864492342
 20
27.46083942080884
 30
0.0
 11
148.427592484944
 21
27.50967596878649
 31
0.0
  0
LINE
  5
508
330
6C
100
AcDbEntity
  8
Visible (ANSI)
100
AcDbLine
 10
148.5291045119486
 20
27.56813285732785
 30
0.0
 11
148.9919104743633
 21
27.83464508607025
 31
0.0
  0
LINE
  5
509
330
6C
100
AcDbEntity
  8
Visible (ANSI)
100
AcDbLine
 10
148.9919104743633
 20
27.83548682234959
 30
0.0
 11
148.9919104743633
 21
27.83464508607025
 31
0.0
  0
POLYLINE
  5
50A
330
6C
100
AcDbEntity
  8
Visible (ANSI)
100
AcDb2dPolyline
 66
     1
 10
0.0
 20
0.0
 30
0.0
 70
   128
  0
VERTEX
  5
50B
330
50A
100
AcDbEntity
  8
Visible (ANSI)
100
AcDbVertex
100
AcDb2dVertex
 10
148.411746146596
 20
52.6463841817894
 30
0.0
  0
VERTEX
  5
50C
330
50A
100
AcDbEntity
  8
Visible (ANSI)
100
AcDbVertex
100
AcDb2dVertex
 10
148.4182180083043
 20
52.63464760850334
 30
0.0
  0
VERTEX
  5
50E
330
50A
100
AcDbEntity
  8
Visible (ANSI)
100
AcDbVertex
100
AcDb2dVertex
 10
148.4268992252605
 20
52.62412525690627
 30
0.0
  0
VERTEX
  5
50F
330
50A
100
AcDbEntity
  8
Visible (ANSI)
100
AcDbVertex
100
AcDb2dVertex
 10
148.437165497919
 20
52.61509204308438
 30
0.0
  0
VERTEX
  5
510
330
50A
100
AcDbEntity
  8
Visible (ANSI)
100
AcDbVertex
100
AcDb2dVertex
 10
148.4482402363725
 20
52.60775975343728
 30
0.0
  0
SEQEND
  5
50D
330
50A
100
AcDbEntity
  8
Visible (ANSI)
  0
POLYLINE
  5
511
330
6C
100
AcDbEntity
  8
Visible (ANSI)
100
AcDb2dPolyline
 66
     1
 10
0.0
 20
0.0
 30
0.0
 70
   128
  0
VERTEX
  5
512
330
511
100
AcDbEntity
  8
Visible (ANSI)
100
AcDbVertex
100
AcDb2dVertex
 10
148.3427868302086
 20
52.79022593270335
 30
0.0
  0
VERTEX
  5
513
330
511
100
AcDbEntity
  8
Visible (ANSI)
100
AcDbVertex
100
AcDb2dVertex
 10
148.3436175834572
 20
52.77699755917918
 30
0.0
  0
VERTEX
  5
515
330
511
100
AcDbEntity
  8
Visible (ANSI)
100
AcDbVertex
100
AcDb2dVertex
 10
148.3463131104844
 20
52.76364893471476
 30
0.0
  0
VERTEX
  5
516
330
511
100
AcDbEntity
  8
Visible (ANSI)
100
AcDbVertex
100
AcDb2dVertex
 10
148.3510890013261
 20
52.750896685974
 30
0.0
  0
VERTEX
  5
517
330
511
100
AcDbEntity
  8
Visible (ANSI)
100
AcDbVertex
100
AcDb2dVertex
 10
148.3580045155895
 20
52.73947476732675
 30
0.0
  0
SEQEND
  5
514
330
511
100
AcDbEntity
  8
Visible (ANSI)
  0
LINE
  5
518
330
6C
100
AcDbEntity
  8
Visible (ANSI)
100
AcDbLine
 10
149.1805209089239
 20
52.93367835538512
 30
0.0
 11
149.1805209089239
 21
27.94410034801918
 31
0.0
  0
LINE
  5
519
330
6C
100
AcDbEntity
  8
Visible (ANSI)
100
AcDbLine
 10
110.4782583782184
 20
75.43889787590938
 30
0.0
 11
148.9919104743634
 21
53.26036066867312
 31
0.0
  0
LINE
  5
51A
330
6C
100
AcDbEntity
  8
Visible (ANSI)
100
AcDbLine
 10
110.4001333782184
 20
50.27624027631445
 30
0.0
 11
110.4001333782184
 21
50.31937990559224
 31
0.0
  0
LINE
  5
51B
330
6C
100
AcDbEntity
  8
Visible (ANSI)
100
AcDbLine
 10
110.4001333782184
 20
73.53852854558787
 30
0.0
 11
110.4001333782184
 21
73.9567111526021
 31
0.0
  0
LINE
  5
51C
330
6C
100
AcDbEntity
  8
Visible (ANSI)
100
AcDbLine
 10
147.8581167263821
 20
28.6152952206057
 30
0.0
 11
147.495410218882
 21
28.82416400697313
 31
0.0
  0
LINE
  5
51D
330
6C
100
AcDbEntity
  8
Visible (ANSI)
100
AcDbLine
 10
129.1860782856721
 20
39.36780703793303
 30
0.0
 11
128.823371778172
 21
39.57667582430044
 31
0.0
  0
LINE
  5
51E
330
6C
100
AcDbEntity
  8
Visible (ANSI)
100
AcDbLine
 10
110.5140398449621
 20
50.12031885526036
 30
0.0
 11
110.4782583782184
 21
50.14092403156315
 31
0.0
  0
SPLINE
  5
51F
330
6C
100
AcDbEntity
  8
Visible (ANSI)
100
AcDbSpline
210
0.0
220
0.0
230
1.0
 70
     8
 71
     3
 72
    11
 73
     7
 74
     0
 42
0.0000000001
 43
0.0000000001
 40
0.0
 40
0.0
 40
0.0
 40
0.0
 40
1.018582815488579
 40
1.018582815488579
 40
1.018582815488579
 40
1.570796326794518
 40
1.570796326794518
 40
1.570796326794518
 40
1.570796326794518
 10
63.99166030154111
 20
90.60705319751258
 30
0.0
 10
64.03939788282702
 20
90.60705319751258
 30
0.0
 10
64.08632043810921
 20
90.63325610309171
 30
0.0
 10
64.11136228527137
 20
90.67389823096089
 30
0.0
 10
64.12493844828997
 20
90.69593191520954
 30
0.0
 10
64.13226030154111
 20
90.72177279094931
 30
0.0
 10
64.13226030154112
 20
90.7476531975125
 30
0.0
  0
LINE
  5
520
330
6C
100
AcDbEntity
  8
Visible (ANSI)
100
AcDbLine
 10
64.0072603015411
 20
90.74765319751254
 30
0.0
 11
64.00726030154115
 21
91.48205319751253
 31
0.0
  0
LINE
  5
521
330
6C
100
AcDbEntity
  8
Visible (ANSI)
100
AcDbLine
 10
64.0072603015411
 20
90.74765319751254
 30
0.0
 11
64.13226030154111
 21
90.74765319751254
 31
0.0
  0
SPLINE
  5
522
330
6C
100
AcDbEntity
  8
Visible (ANSI)
100
AcDbSpline
210
0.0
220
0.0
230
1.0
 70
     8
 71
     3
 72
     8
 73
     4
 74
     0
 42
0.0000000001
 43
0.0000000001
 40
0.0
 40
0.0
 40
0.0
 40
0.0
 40
1.570796326794518
 40
1.570796326794518
 40
1.570796326794518
 40
1.570796326794518
 10
63.99166030154111
 20
90.73205319751258
 30
0.0
 10
63.99982844244044
 20
90.73205319751258
 30
0.0
 10
64.0072603015411
 20
90.73948505661324
 30
0.0
 10
64.00726030154112
 20
90.74765319751255
 30
0.0
  0
LINE
  5
523
330
6C
100
AcDbEntity
  8
Visible (ANSI)
100
AcDbLine
 10
63.99166030154111
 20
90.73205319751258
 30
0.0
 11
63.99166030154111
 21
90.7013146962017
 31
0.0
  0
LINE
  5
524
330
6C
100
AcDbEntity
  8
Visible (ANSI)
100
AcDbLine
 10
63.99166030154111
 20
90.7013146962017
 30
0.0
 11
63.99166030154111
 21
90.60705319751258
 31
0.0
  0
LINE
  5
525
330
6C
100
AcDbEntity
  8
Visible (ANSI)
100
AcDbLine
 10
64.13226030154111
 20
90.74765319751254
 30
0.0
 11
64.13226030154115
 21
91.48205319751253
 31
0.0
  0
LINE
  5
526
330
6C
100
AcDbEntity
  8
Visible (ANSI)
100
AcDbLine
 10
64.00726030154115
 20
91.48205319751253
 30
0.0
 11
64.13226030154115
 21
91.48205319751253
 31
0.0
  0
SPLINE
  5
527
330
6C
100
AcDbEntity
  8
Visible (ANSI)
100
AcDbSpline
210
0.0
220
0.0
230
1.0
 70
     8
 71
     3
 72
    11
 73
     7
 74
     0
 42
0.0000000001
 43
0.0000000001
 40
0.0
 40
0.0
 40
0.0
 40
0.0
 40
1.018582815488612
 40
1.018582815488612
 40
1.018582815488612
 40
1.57079632679492
 40
1.57079632679492
 40
1.57079632679492
 40
1.57079632679492
 10
20.27286030154111
 20
90.60705319751258
 30
0.0
 10
20.28859350191803
 20
90.6070531975126
 30
0.0
 10
20.30432670229495
 20
90.63325610309176
 30
0.0
 10
20.32005990267187
 20
90.67389823096092
 30
0.0
 10
20.32858948484439
 20
90.69593191520961
 30
0.0
 10
20.33711906701691
 20
90.72177279094942
 30
0.0
 10
20.34564864918943
 20
90.74765319751262
 30
0.0
  0
SPLINE
  5
528
330
6C
100
AcDbEntity
  8
Visible (ANSI)
100
AcDbSpline
210
0.0
220
0.0
230
1.0
 70
     8
 71
     3
 72
    11
 73
     7
 74
     0
 42
0.0000000001
 43
0.0000000001
 40
0.0
 40
0.0
 40
0.0
 40
0.0
 40
1.018582815488498
 40
1.018582815488498
 40
1.018582815488498
 40
1.57079632679492
 40
1.57079632679492
 40
1.57079632679492
 40
1.57079632679492
 10
63.91887195389279
 20
90.74765319751262
 30
0.0
 10
63.93460515426971
 20
90.69991561622675
 30
0.0
 10
63.95033835464662
 20
90.65299306094454
 30
0.0
 10
63.96607155502355
 20
90.62795121378234
 30
0.0
 10
63.97460113719606
 20
90.61437505076375
 30
0.0
 10
63.98313071936859
 20
90.60705319751258
 30
0.0
 10
63.99166030154111
 20
90.60705319751258
 30
0.0
  0
LINE
  5
529
330
6C
100
AcDbEntity
  8
Visible (ANSI)
100
AcDbLine
 10
63.91887195389279
 20
91.48205319751262
 30
0.0
 11
63.91887195389279
 21
90.74765319751262
 31
0.0
  0
SPLINE
  5
52A
330
6C
100
AcDbEntity
  8
Visible (ANSI)
100
AcDbSpline
210
0.0
220
0.0
230
1.0
 70
     8
 71
     3
 72
     8
 73
     4
 74
     0
 42
0.0000000001
 43
0.0000000001
 40
0.0
 40
0.0
 40
0.0
 40
0.0
 40
1.57079632679492
 40
1.57079632679492
 40
1.57079632679492
 40
1.57079632679492
 10
63.99166030154111
 20
90.73205319751258
 30
0.0
 10
63.96739751899167
 20
90.73205319751258
 30
0.0
 10
63.94313473644223
 20
90.73948505661325
 30
0.0
 10
63.91887195389279
 20
90.74765319751259
 30
0.0
  0
SPLINE
  5
52B
330
6C
100
AcDbEntity
  8
Visible (ANSI)
100
AcDbSpline
210
0.0
220
0.0
230
1.0
 70
     8
 71
     3
 72
     8
 73
     4
 74
     0
 42
0.0000000001
 43
0.0000000001
 40
0.0
 40
0.0
 40
0.0
 40
0.0
 40
1.57079632679492
 40
1.57079632679492
 40
1.57079632679492
 40
1.57079632679492
 10
20.27286030154111
 20
90.73205319751258
 30
0.0
 10
20.29712308409055
 20
90.73205319751258
 30
0.0
 10
20.32138586663999
 20
90.73948505661325
 30
0.0
 10
20.34564864918943
 20
90.74765319751259
 30
0.0
  0
LINE
  5
52C
330
6C
100
AcDbEntity
  8
Visible (ANSI)
100
AcDbLine
 10
20.27286030154111
 20
90.73205319751258
 30
0.0
 11
20.27286030154111
 21
90.7013146962017
 31
0.0
  0
LINE
  5
52D
330
6C
100
AcDbEntity
  8
Visible (ANSI)
100
AcDbLine
 10
20.27286030154111
 20
90.7013146962017
 30
0.0
 11
20.27286030154111
 21
90.60705319751258
 31
0.0
  0
LINE
  5
52E
330
6C
100
AcDbEntity
  8
Visible (ANSI)
100
AcDbLine
 10
20.34564864918943
 20
90.74765319751262
 30
0.0
 11
20.34564864918943
 21
91.48205319751262
 31
0.0
  0
SPLINE
  5
52F
330
6C
100
AcDbEntity
  8
Visible (ANSI)
100
AcDbSpline
210
0.0
220
0.0
230
1.0
 70
     8
 71
     3
 72
    11
 73
     7
 74
     0
 42
0.0000000001
 43
0.0000000001
 40
0.0
 40
0.0
 40
0.0
 40
0.0
 40
1.01858281548856
 40
1.01858281548856
 40
1.01858281548856
 40
1.570796326794912
 40
1.570796326794912
 40
1.570796326794912
 40
1.570796326794912
 10
20.13226030154111
 20
90.74765319751255
 30
0.0
 10
20.13226030154111
 20
90.69991561622668
 30
0.0
 10
20.15846320712024
 20
90.65299306094448
 30
0.0
 10
20.19910533498942
 20
90.62795121378233
 30
0.0
 10
20.22113901923809
 20
90.61437505076373
 30
0.0
 10
20.24697989497788
 20
90.60705319751258
 30
0.0
 10
20.27286030154111
 20
90.60705319751258
 30
0.0
  0
LINE
  5
530
330
6C
100
AcDbEntity
  8
Visible (ANSI)
100
AcDbLine
 10
20.25726030154111
 20
90.74765319751255
 30
0.0
 11
20.25726030154111
 21
91.48205319751257
 31
0.0
  0
LINE
  5
531
330
6C
100
AcDbEntity
  8
Visible (ANSI)
100
AcDbLine
 10
20.13226030154111
 20
91.48205319751257
 30
0.0
 11
20.13226030154111
 21
90.74765319751255
 31
0.0
  0
LINE
  5
532
330
6C
100
AcDbEntity
  8
Visible (ANSI)
100
AcDbLine
 10
20.25726030154111
 20
90.74765319751255
 30
0.0
 11
20.13226030154111
 21
90.74765319751255
 31
0.0
  0
LINE
  5
533
330
6C
100
AcDbEntity
  8
Visible (ANSI)
100
AcDbLine
 10
20.25726030154111
 20
91.48205319751257
 30
0.0
 11
20.13226030154111
 21
91.48205319751257
 31
0.0
  0
SPLINE
  5
534
330
6C
100
AcDbEntity
  8
Visible (ANSI)
100
AcDbSpline
210
0.0
220
0.0
230
1.0
 70
     8
 71
     3
 72
     8
 73
     4
 74
     0
 42
0.0000000001
 43
0.0000000001
 40
0.0
 40
0.0
 40
0.0
 40
0.0
 40
1.570796326794912
 40
1.570796326794912
 40
1.570796326794912
 40
1.570796326794912
 10
20.27286030154111
 20
90.73205319751258
 30
0.0
 10
20.26469216064178
 20
90.73205319751258
 30
0.0
 10
20.25726030154111
 20
90.73948505661325
 30
0.0
 10
20.25726030154111
 20
90.74765319751255
 30
0.0
  0
LINE
  5
535
330
6C
100
AcDbEntity
  8
Visible (ANSI)
100
AcDbLine
 10
63.99166030154111
 20
90.60705319751258
 30
0.0
 11
20.27286030154111
 21
90.60705319751258
 31
0.0
  0
LINE
  5
536
330
6C
100
AcDbEntity
  8
Hidden (ANSI)
 48
1.113202452659606
100
AcDbLine
 10
20.27286030154111
 20
90.73205319751258
 30
0.0
 11
63.99166030154111
 21
90.73205319751258
 31
0.0
  0
LINE
  5
537
330
6C
100
AcDbEntity
  8
Visible (ANSI)
100
AcDbLine
 10
20.34564864918943
 20
91.48205319751262
 30
0.0
 11
63.91887195389279
 21
91.48205319751262
 31
0.0
  0
LINE
  5
538
330
6C
100
AcDbEntity
  8
Hidden (ANSI)
 48
0.0237087067216635
100
AcDbLine
 10
42.4137603015411
 20
90.73205319751236
 30
0.0
 11
42.4137603015411
 21
90.60705319751239
 31
0.0
  0
LINE
  5
539
330
6C
100
AcDbEntity
  8
Hidden (ANSI)
 48
0.0237087067216635
100
AcDbLine
 10
41.8507603015411
 20
90.73205319751236
 30
0.0
 11
41.8507603015411
 21
90.60705319751239
 31
0.0
  0
LINE
  5
53A
330
6C
100
AcDbEntity
  8
Hidden (ANSI)
 48
0.0237087067216635
100
AcDbLine
 10
63.53876030154109
 20
90.73205319751236
 30
0.0
 11
63.53876030154109
 21
90.60705319751239
 31
0.0
  0
LINE
  5
53B
330
6C
100
AcDbEntity
  8
Hidden (ANSI)
 48
0.0237087067216635
100
AcDbLine
 10
62.9757603015411
 20
90.73205319751236
 30
0.0
 11
62.9757603015411
 21
90.60705319751239
 31
0.0
  0
LINE
  5
53C
330
6C
100
AcDbEntity
  8
Hidden (ANSI)
 48
0.0237087067216635
100
AcDbLine
 10
21.28876030154111
 20
90.73205319751236
 30
0.0
 11
21.28876030154111
 21
90.60705319751239
 31
0.0
  0
LINE
  5
53D
330
6C
100
AcDbEntity
  8
Hidden (ANSI)
 48
0.0237087067216635
100
AcDbLine
 10
20.72576030154111
 20
90.73205319751236
 30
0.0
 11
20.72576030154111
 21
90.60705319751239
 31
0.0
  0
MTEXT
  5
53E
330
6C
100
AcDbEntity
  8
Symbol (ANSI)
100
AcDbMText
 10
38.22303308312982
 20
85.0536763872696
 30
0.0
 40
1.200000014830761
 41
0.0
 46
0.0
 71
     7
 72
     1
  1
TOP VIEW
  7
Text Style153
 73
     1
 44
1.0
  0
LINE
  5
53F
330
6C
100
AcDbEntity
  8
Symbol (ANSI)
370
    30
100
AcDbLine
 10
38.22399308559928
 20
84.8089600135207
 30
0.0
 11
45.7954678592766
 21
84.8089600135207
 31
0.0
  0
LINE
  5
540
330
6C
100
AcDbEntity
  8
Center Mark (ANSI)
  6
CHAIN
 48
0.170057401061058
100
AcDbLine
 10
21.00726030152918
 20
64.51054949452232
 30
0.0
 11
21.00726030152918
 21
61.44754949452233
 31
0.0
  0
LINE
  5
541
330
6C
100
AcDbEntity
  8
Center Mark (ANSI)
  6
CHAIN
 48
0.170057401061058
100
AcDbLine
 10
63.25726030152917
 20
64.51054949452234
 30
0.0
 11
63.25726030152917
 21
61.44754949452234
 31
0.0
  0
LINE
  5
542
330
6C
100
AcDbEntity
  8
Centerline (ANSI)
  6
CHAIN
 48
0.9524481296539306
100
AcDbLine
 10
19.47576030152918
 20
62.97904949452234
 30
0.0
 11
64.78876030152917
 21
62.97904949452235
 31
0.0
  0
LINE
  5
543
330
6C
100
AcDbEntity
  8
Center Mark (ANSI)
  6
CHAIN
 48
0.170057401061058
100
AcDbLine
 10
64.78876030152917
 20
62.97904949452235
 30
0.0
 11
61.72576030152916
 21
62.97904949452235
 31
0.0
  0
LINE
  5
544
330
6C
100
AcDbEntity
  8
Center Mark (ANSI)
  6
CHAIN
 48
0.170057401061058
100
AcDbLine
 10
64.78876030152917
 20
39.84904949452234
 30
0.0
 11
61.72576030152916
 21
39.84904949452234
 31
0.0
  0
LINE
  5
545
330
6C
100
AcDbEntity
  8
Centerline (ANSI)
  6
CHAIN
 48
0.9524481296539306
100
AcDbLine
 10
63.25726030152917
 20
64.51054949452234
 30
0.0
 11
63.25726030152917
 21
38.31754949452234
 31
0.0
  0
LINE
  5
546
330
6C
100
AcDbEntity
  8
Center Mark (ANSI)
  6
CHAIN
 48
0.170057401061058
100
AcDbLine
 10
63.25726030152917
 20
38.31754949452234
 30
0.0
 11
63.25726030152917
 21
41.38054949452234
 31
0.0
  0
LINE
  5
547
330
6C
100
AcDbEntity
  8
Center Mark (ANSI)
  6
CHAIN
 48
0.170057401061058
100
AcDbLine
 10
21.00726030152916
 20
38.31754949452234
 30
0.0
 11
21.00726030152916
 21
41.38054949452234
 31
0.0
  0
LINE
  5
548
330
6C
100
AcDbEntity
  8
Centerline (ANSI)
  6
CHAIN
 48
0.9524481296539306
100
AcDbLine
 10
64.78876030152917
 20
39.84904949452234
 30
0.0
 11
19.47576030152916
 21
39.84904949452234
 31
0.0
  0
LINE
  5
549
330
6C
100
AcDbEntity
  8
Center Mark (ANSI)
  6
CHAIN
 48
0.170057401061058
100
AcDbLine
 10
19.47576030152916
 20
39.84904949452234
 30
0.0
 11
22.53876030152916
 21
39.84904949452234
 31
0.0
  0
LINE
  5
54A
330
6C
100
AcDbEntity
  8
Center Mark (ANSI)
  6
CHAIN
 48
0.170057401061058
100
AcDbLine
 10
19.47576030152918
 20
62.97904949452234
 30
0.0
 11
22.53876030152918
 21
62.97904949452234
 31
0.0
  0
LINE
  5
54B
330
6C
100
AcDbEntity
  8
Centerline (ANSI)
  6
CHAIN
 48
0.9524481296539306
100
AcDbLine
 10
21.00726030152916
 20
38.31754949452234
 30
0.0
 11
21.00726030152918
 21
64.51054949452232
 31
0.0
  0
DIMENSION
  5
54C
330
6C
100
AcDbEntity
  8
Dimension (ANSI)
100
AcDbDimension
280
     0
  2
*D4
 10
64.13226030152917
 20
77.1710862563926
 30
0.0
 11
42.13226030152917
 21
77.1710862563926
 31
0.0
 70
   160
  1
<>
 42
44.0
 73
     0
 74
     0
 75
     0
  3
Default (ANSI)
100
AcDbAlignedDimension
 13
20.13226030152917
 23
63.64066114687402
 33
0.0
 14
64.13226030152917
 24
63.64066114687402
 34
0.0
100
AcDbRotatedDimension
1001
ACAD
1000
DSTYLE
1002
{
1070
   289
1070
     1
1070
    73
1070
     0
1070
    74
1070
     0
1070
   271
1070
     2
1070
   272
1070
     2
1070
    48
1040
0.0
1070
    47
1040
0.0
1002
}
  0
DIMENSION
  5
638
330
6C
100
AcDbEntity
  8
Dimension (ANSI)
100
AcDbDimension
280
     0
  2
*D5
 10
21.00726030152918
 20
68.44755736853809
 30
0.0
 11
16.31071648018869
 21
68.44755736853809
 31
0.0
 70
   160
  1
<>
 42
0.8750000000000035
 73
     0
 74
     0
 75
     0
  3
Default (ANSI)
100
AcDbAlignedDimension
 13
20.13226030152917
 23
63.64066114687402
 33
0.0
 14
21.00726030152918
 24
64.51054949452232
 34
0.0
100
AcDbRotatedDimension
1001
ACAD
1000
DSTYLE
1002
{
1070
   289
1070
     1
1070
    73
1070
     0
1070
    74
1070
     0
1070
   271
1070
     2
1070
   272
1070
     2
1070
    48
1040
0.0
1070
    47
1040
0.0
1002
}
  0
DIMENSION
  5
722
330
6C
100
AcDbEntity
  8
Dimension (ANSI)
100
AcDbDimension
280
     0
  2
*D6
 10
63.25726030152917
 20
73.17196681735698
 30
0.0
 11
42.13226030152918
 21
73.17196681735698
 31
0.0
 70
   160
  1
<>
 42
42.24999999999998
 73
     0
 74
     0
 75
     0
  3
Default (ANSI)
100
AcDbAlignedDimension
 13
21.00726030152918
 23
64.51054949452232
 33
0.0
 14
63.25726030152917
 24
64.51054949452234
 34
0.0
 50
180.0
100
AcDbRotatedDimension
1001
ACAD
1000
DSTYLE
1002
{
1070
   289
1070
     1
1070
    73
1070
     0
1070
    74
1070
     0
1070
   271
1070
     2
1070
   272
1070
     2
1070
    48
1040
0.0
1070
    47
1040
0.0
1002
}
  0
DIMENSION
  5
80C
330
6C
100
AcDbEntity
  8
Dimension (ANSI)
100
AcDbDimension
280
     0
  2
*D7
 10
18.37604430264305
 20
39.84904949452234
 30
0.0
 11
15.53875242751343
 21
36.10407283570095
 31
0.0
 70
   160
  1
<>
 42
0.875
 73
     0
 74
     0
 75
     0
  3
Default (ANSI)
100
AcDbAlignedDimension
 13
20.3456486491775
 23
38.97404949452234
 33
0.0
 14
19.47576030152916
 24
39.84904949452234
 34
0.0
 50
90.0
100
AcDbRotatedDimension
1001
ACAD
1000
DSTYLE
1002
{
1070
   289
1070
     1
1070
   271
1070
     2
1070
   272
1070
     2
1070
    48
1040
0.0
1070
    47
1040
0.0
1002
}
  0
DIMENSION
  5
90C
330
6C
100
AcDbEntity
  8
Dimension (ANSI)
100
AcDbDimension
280
     0
  2
*D8
 10
15.53875242751344
 20
62.97904949452235
 30
0.0
 11
15.53875242751343
 21
51.41404949452233
 31
0.0
 70
   160
  1
<>
 42
23.13
 73
     0
 74
     0
 75
     0
  3
Default (ANSI)
100
AcDbAlignedDimension
 13
19.47576030152916
 23
39.84904949452234
 33
0.0
 14
19.47576030152918
 24
62.97904949452234
 34
0.0
 50
90.0
100
AcDbRotatedDimension
1001
ACAD
1000
DSTYLE
1002
{
1070
   289
1070
     1
1070
   271
1070
     2
1070
   272
1070
     2
1070
    48
1040
0.0
1070
    47
1040
0.0
1002
}
  0
DIMENSION
  5
9F6
330
6C
100
AcDbEntity
  8
Dimension (ANSI)
100
AcDbDimension
280
     0
  2
*D9
 10
9.322026601933417
 20
63.85404949452234
 30
0.0
 11
9.322026601933407
 21
51.41404949452233
 31
0.0
 70
   160
  1
<>
 42
24.87999999999999
 73
     0
 74
     0
 75
     0
  3
Default (ANSI)
100
AcDbAlignedDimension
 13
20.3456486491775
 23
38.97404949452234
 33
0.0
 14
20.34564864917751
 24
63.85404949452233
 34
0.0
 50
90.0
100
AcDbRotatedDimension
1001
ACAD
1000
DSTYLE
1002
{
1070
   289
1070
     1
1070
   271
1070
     2
1070
   272
1070
     2
1070
    48
1040
0.0
1070
    47
1040
0.0
1002
}
  0
DIMENSION
  5
AE0
330
6C
100
AcDbEntity
  8
Dimension (ANSI)
100
AcDbDimension
280
     0
  2
*D10
 10
63.08525042471615
 20
40.0718831820087
 30
0.0
 11
69.78258217010736
 21
36.8617291243741
 31
0.0
 70
   163
  1
<>{\P(6 PL.)}
 71
     4
 42
0.5629999999999999
 73
     0
 74
     0
 75
     0
  3
Default (ANSI)
100
AcDbDiametricDimension
 15
63.42927017834217
 25
39.62621580703597
 35
0.0
 40
0.0
1001
ACAD
1000
DSTYLE
1002
{
1070
   144
1040
1.00000000000002
1070
   271
1070
     3
1070
   272
1070
     3
1070
    48
1040
0.0
1070
    47
1040
0.0
1002
}
1001
ACAD_DSTYLE_DIMRADIAL_EXTENSION
1070
   387
1070
     1
1070
   388
1040
0.0
1070
   390
1040
0.0
  0
DIMENSION
  5
B9A
330
6C
100
AcDbEntity
  8
Dimension (ANSI)
100
AcDbDimension
280
     0
  2
*D11
 10
55.8081773077967
 20
90.60705319751258
 30
0.0
 11
58.69261491988797
 21
95.70202987301863
 31
0.0
 70
   160
  1
<>{\PTYP.}
 71
     5
 42
0.8750000000000426
 73
     0
 74
     0
 75
     0
  3
Default (ANSI)
100
AcDbAlignedDimension
 13
58.69261491988797
 23
91.48205319751262
 33
0.0
 14
58.68898206503857
 24
90.60705319751258
 34
0.0
 50
270.0
100
AcDbRotatedDimension
1001
ACAD
1000
DSTYLE
1002
{
1070
   289
1070
     1
1070
   271
1070
     2
1070
    76
1070
     1
1070
    75
1070
     1
1070
   272
1070
     2
1070
    48
1040
0.0
1070
    47
1040
0.0
1002
}
  0
DIMENSION
  5
CA3
330
6C
100
AcDbEntity
  8
Dimension (ANSI)
100
AcDbDimension
280
     0
  2
*D12
 10
84.0706672803626
 20
62.48739647164943
 30
0.0
 11
89.36839911637369
 21
62.48739647164943
 31
0.0
 70
   160
  1
<>{\PTYP.}
 71
     4
 42
0.8750000000000142
 73
     0
 74
     0
 75
     0
  3
Default (ANSI)
100
AcDbAlignedDimension
 13
84.94566728036261
 23
62.48739647164943
 33
0.0
 14
84.0706672803626
 24
62.53697005051492
 34
0.0
 50
180.0
100
AcDbRotatedDimension
1001
ACAD
1000
DSTYLE
1002
{
1070
   289
1070
     1
1070
    73
1070
     0
1070
    74
1070
     0
1070
   271
1070
     2
1070
    76
1070
     1
1070
    75
1070
     1
1070
   272
1070
     2
1070
    48
1040
0.0
1070
    47
1040
0.0
1002
}
  0
LINE
  5
D92
330
6C
100
AcDbEntity
  8
Center Mark (ANSI)
  6
CHAIN
 48
0.170057401061058
100
AcDbLine
 10
43.66376030152918
 20
62.97904949452234
 30
0.0
 11
40.60076030152917
 21
62.97904949452234
 31
0.0
  0
LINE
  5
D93
330
6C
100
AcDbEntity
  8
Center Mark (ANSI)
  6
CHAIN
 48
0.170057401061058
100
AcDbLine
 10
43.66376030152919
 20
39.84904949452232
 30
0.0
 11
40.60076030152919
 21
39.84904949452232
 31
0.0
  0
LINE
  5
D94
330
6C
100
AcDbEntity
  8
Centerline (ANSI)
  6
CHAIN
 48
0.9524481296539306
100
AcDbLine
 10
42.13226030152918
 20
64.51054949452232
 30
0.0
 11
42.13226030152919
 21
38.31754949452232
 31
0.0
  0
DIMENSION
  5
D95
330
6C
100
AcDbEntity
  8
Dimension (ANSI)
100
AcDbDimension
280
     0
  2
*D13
 10
42.13226030152918
 20
68.44755736853809
 30
0.0
 11
31.56976030152918
 21
68.44755736853809
 31
0.0
 70
   160
  1
<>
 42
21.125
 73
     0
 74
     0
 75
     0
  3
Default (ANSI)
100
AcDbAlignedDimension
 13
21.00726030152918
 23
64.51054949452232
 33
0.0
 14
42.13226030152918
 24
64.51054949452232
 34
0.0
 50
180.0
100
AcDbRotatedDimension
1001
ACAD
1000
DSTYLE
1002
{
1070
   289
1070
     1
1070
    73
1070
     0
1070
    74
1070
     0
1070
   271
1070
     2
1070
   272
1070
     2
1070
    48
1040
0.0
1070
    47
1040
0.0
1002
}
  0
MTEXT
  5
E7F
102
{ACAD_XDICTIONARY
360
E86
102
}
330
6C
100
AcDbEntity
  8
Symbol (ANSI)
100
AcDbMText
 10
85.79674252098106
 20
11.96201358611618
 30
0.0
 40
1.000000031914297
 41
73.83387107548755
 46
0.0
 71
     4
 72
     1
  3
{\fRomanS|b0|i0|c0|p2;\H2x;PART#: WA60P48F2G\P(DATA SUBJECT TO CHANGE WITHOUT NOTICE)\H1.6157x; \H0.61894x;\P \H1.352x; \H0.73963x;\P\H0.6x;THIS DRAWING IS PROPERTY OF HUBBELL INC. WIEGMANN\H1.5633x; \H0.63966x;\PALL INFORMATION IS PROPRIETARY AND NO
  1
T TO BE DUPLICATED\H1.234x; \H0.81039x;\P\H1.2571x; }
  7
Note Text (ANSI)
 73
     1
 44
0.8026435375213623
  0
ENDSEC
  0
SECTION
  2
OBJECTS
  0
DICTIONARY
  5
C
330
0
100
AcDbDictionary
281
     1
  3
ACAD_CIP_PREVIOUS_PRODUCT_INFO
350
E81
  3
ACAD_COLOR
350
63
  3
ACAD_GROUP
350
D
  3
ACAD_LAYOUT
350
62
  3
ACAD_MATERIAL
350
10
  3
ACAD_MLEADERSTYLE
350
66
  3
ACAD_MLINESTYLE
350
5F
  3
ACAD_PLOTSETTINGS
350
61
  3
ACAD_PLOTSTYLENAME
350
E
  3
ACAD_SCALELIST
350
42
  3
ACAD_TABLESTYLE
350
64
  3
ACAD_VISUALSTYLE
350
29
  3
ACDB_RECOMPOSE_DATA
350
E88
  3
AcDbVariableDictionary
350
76
  0
DICTIONARY
  5
E86
330
E7F
100
AcDbDictionary
280
     1
281
     1
  3
ACAD_MTEXT_2008_RT
360
E87
  0
XRECORD
  5
E81
102
{ACAD_REACTORS
330
C
102
}
330
C
100
AcDbXrecord
280
     1
300
INVNTOR
300
2012
300
PDSP_F_S
  0
DICTIONARY
  5
63
102
{ACAD_REACTORS
330
C
102
}
330
C
100
AcDbDictionary
281
     1
  0
DICTIONARY
  5
D
102
{ACAD_REACTORS
330
C
102
}
330
C
100
AcDbDictionary
281
     1
  0
DICTIONARY
  5
62
102
{ACAD_REACTORS
330
C
102
}
330
C
100
AcDbDictionary
281
     1
  3
Layout1
350
6B
  3
Layout2
350
73
  3
Model
350
6F
  0
DICTIONARY
  5
10
102
{ACAD_REACTORS
330
C
102
}
330
C
100
AcDbDictionary
281
     1
  3
ByBlock
350
19
  3
ByLayer
350
11
  3
Global
350
21
  0
DICTIONARY
  5
66
102
{ACAD_REACTORS
330
C
102
}
330
C
100
AcDbDictionary
281
     1
  3
Standard
350
67
  0
DICTIONARY
  5
5F
102
{ACAD_REACTORS
330
C
102
}
330
C
100
AcDbDictionary
281
     1
  3
Standard
350
60
  0
DICTIONARY
  5
61
102
{ACAD_REACTORS
330
C
102
}
330
C
100
AcDbDictionary
281
     1
  0
ACDBDICTIONARYWDFLT
  5
E
102
{ACAD_REACTORS
330
C
102
}
330
C
100
AcDbDictionary
281
     1
  3
Normal
350
F
100
AcDbDictionaryWithDefault
340
F
  0
DICTIONARY
  5
42
102
{ACAD_REACTORS
330
C
102
}
330
C
100
AcDbDictionary
281
     1
  3
A0
350
43
  3
A1
350
44
  3
A2
350
45
  3
A3
350
46
  3
A4
350
47
  3
A5
350
48
  3
A6
350
49
  3
A7
350
4A
  3
A8
350
4B
  3
A9
350
4C
  3
B0
350
4D
  3
B1
350
4E
  3
B2
350
4F
  3
B3
350
50
  3
B4
350
51
  3
B5
350
52
  3
B6
350
53
  0
DICTIONARY
  5
64
102
{ACAD_REACTORS
330
C
102
}
330
C
100
AcDbDictionary
281
     1
  3
Standard
350
65
  0
DICTIONARY
  5
29
102
{ACAD_REACTORS
330
C
102
}
330
C
100
AcDbDictionary
281
     1
  3
2dWireframe
350
2F
  3
Basic
350
2E
  3
Brighten
350
35
  3
ColorChange
350
39
  3
Conceptual
350
32
  3
Dim
350
34
  3
EdgeColorOff
350
41
  3
Facepattern
350
38
  3
Flat
350
2A
  3
FlatWithEdges
350
2B
  3
Gouraud
350
2C
  3
GouraudWithEdges
350
2D
  3
Hidden
350
31
  3
JitterOff
350
3F
  3
Linepattern
350
37
  3
OverhangOff
350
40
  3
Realistic
350
33
  3
Shaded
350
3E
  3
Shaded with edges
350
3D
  3
Shades of Gray
350
3A
  3
Sketchy
350
3B
  3
Thicken
350
36
  3
Wireframe
350
30
  3
X-Ray
350
3C
  0
XRECORD
  5
E88
102
{ACAD_REACTORS
330
C
102
}
330
C
100
AcDbXrecord
280
     1
 90
        1
330
65
330
E7F
  0
DICTIONARY
  5
76
102
{ACAD_REACTORS
330
C
102
}
330
C
100
AcDbDictionary
281
     1
  3
CANNOSCALE
350
79
  3
CMLEADERSTYLE
350
78
  3
CTABLESTYLE
350
77
  0
XRECORD
  5
E87
102
{ACAD_REACTORS
330
E86
102
}
330
E86
100
AcDbXrecord
280
     1
 40
3109246.0
  1
\pxsm0.94;{\fRomanS|b0|i0;\H2.0000;PART#: WA60P48F2G\P(DATA SUBJECT TO CHANGE WITHOUT NOTICE)\P \P\fRomanS|b0|i0;\H1.2000;THIS DRAWING IS PROPERTY OF HUBBELL INC. WIEGMANN\PALL INFORMATION IS PROPRIETARY AND NOT TO BE DUPLICATED\P}
  0
LAYOUT
  5
6B
102
{ACAD_REACTORS
330
62
102
}
330
62
100
AcDbPlotSettings
  1

  2

  4

  6

 40
0.0
 41
0.0
 42
0.0
 43
0.0
 44
0.0
 45
0.0
 46
0.0
 47
0.0
 48
0.0
 49
0.0
140
0.0
141
0.0
142
1.0
143
1.0
 70
   688
 72
     0
 73
     0
 74
     5
  7

 75
    16
147
1.0
 76
     0
 77
     2
 78
   300
148
0.0
149
0.0
100
AcDbLayout
  1
Layout1
 70
     1
 71
     1
 10
0.0
 20
0.0
 11
12.0
 21
9.0
 12
0.0
 22
0.0
 32
0.0
 14
0.0
 24
0.0
 34
0.0
 15
0.0
 25
0.0
 35
0.0
146
0.0
 13
0.0
 23
0.0
 33
0.0
 16
1.0
 26
0.0
 36
0.0
 17
0.0
 27
1.0
 37
0.0
 76
     0
330
68
  0
LAYOUT
  5
73
102
{ACAD_REACTORS
330
62
102
}
330
62
100
AcDbPlotSettings
  1

  2

  4

  6

 40
0.0
 41
0.0
 42
0.0
 43
0.0
 44
0.0
 45
0.0
 46
0.0
 47
0.0
 48
0.0
 49
0.0
140
0.0
141
0.0
142
1.0
143
1.0
 70
   688
 72
     0
 73
     0
 74
     5
  7

 75
    16
147
1.0
 76
     0
 77
     2
 78
   300
148
0.0
149
0.0
100
AcDbLayout
  1
Layout2
 70
     1
 71
     2
 10
0.0
 20
0.0
 11
12.0
 21
9.0
 12
0.0
 22
0.0
 32
0.0
 14
0.0
 24
0.0
 34
0.0
 15
0.0
 25
0.0
 35
0.0
146
0.0
 13
0.0
 23
0.0
 33
0.0
 16
1.0
 26
0.0
 36
0.0
 17
0.0
 27
1.0
 37
0.0
 76
     0
330
70
  0
LAYOUT
  5
6F
102
{ACAD_REACTORS
330
62
102
}
330
62
100
AcDbPlotSettings
  1

  2

  4

  6

 40
0.0
 41
0.0
 42
0.0
 43
0.0
 44
0.0
 45
0.0
 46
0.0
 47
0.0
 48
0.0
 49
0.0
140
0.0
141
0.0
142
1.0
143
1.0
 70
  1712
 72
     0
 73
     0
 74
     0
  7

 75
     0
147
1.0
 76
     0
 77
     2
 78
   300
148
0.0
149
0.0
100
AcDbLayout
  1
Model
 70
     1
 71
     0
 10
0.0
 20
0.0
 11
12.0
 21
9.0
 12
0.0
 22
0.0
 32
0.0
 14
0.0
 24
0.0
 34
0.0
 15
0.0
 25
0.0
 35
0.0
146
0.0
 13
0.0
 23
0.0
 33
0.0
 16
1.0
 26
0.0
 36
0.0
 17
0.0
 27
1.0
 37
0.0
 76
     0
330
6C
  0
MATERIAL
  5
19
102
{ACAD_XDICTIONARY
360
1A
102
}
102
{ACAD_REACTORS
330
10
102
}
330
10
100
AcDbMaterial
  1
ByBlock
 72
     0
 43
0.0208333333333333
 43
0.0
 43
0.0
 43
0.0
 43
0.0
 43
0.0208333333333333
 43
0.0
 43
0.0
 43
0.0
 43
0.0
 43
1.0
 43
0.0
 43
0.0
 43
0.0
 43
0.0
 43
1.0
 77
     0
 47
0.0208333333333333
 47
0.0
 47
0.0
 47
0.0
 47
0.0
 47
0.0208333333333333
 47
0.0
 47
0.0
 47
0.0
 47
0.0
 47
1.0
 47
0.0
 47
0.0
 47
0.0
 47
0.0
 47
1.0
171
     0
 49
0.0208333333333333
 49
0.0
 49
0.0
 49
0.0
 49
0.0
 49
0.0208333333333333
 49
0.0
 49
0.0
 49
0.0
 49
0.0
 49
1.0
 49
0.0
 49
0.0
 49
0.0
 49
0.0
 49
1.0
175
     0
142
0.0208333333333333
142
0.0
142
0.0
142
0.0
142
0.0
142
0.0208333333333333
142
0.0
142
0.0
142
0.0
142
0.0
142
1.0
142
0.0
142
0.0
142
0.0
142
0.0
142
1.0
179
     0
144
0.0208333333333333
144
0.0
144
0.0
144
0.0
144
0.0
144
0.0208333333333333
144
0.0
144
0.0
144
0.0
144
0.0
144
1.0
144
0.0
144
0.0
144
0.0
144
0.0
144
1.0
147
0.0208333333333333
147
0.0
147
0.0
147
0.0
147
0.0
147
0.0208333333333333
147
0.0
147
0.0
147
0.0
147
0.0
147
1.0
147
0.0
147
0.0
147
0.0
147
0.0
147
1.0
  0
MATERIAL
  5
11
102
{ACAD_XDICTIONARY
360
12
102
}
102
{ACAD_REACTORS
330
10
102
}
330
10
100
AcDbMaterial
  1
ByLayer
 72
     0
 43
0.0208333333333333
 43
0.0
 43
0.0
 43
0.0
 43
0.0
 43
0.0208333333333333
 43
0.0
 43
0.0
 43
0.0
 43
0.0
 43
1.0
 43
0.0
 43
0.0
 43
0.0
 43
0.0
 43
1.0
 77
     0
 47
0.0208333333333333
 47
0.0
 47
0.0
 47
0.0
 47
0.0
 47
0.0208333333333333
 47
0.0
 47
0.0
 47
0.0
 47
0.0
 47
1.0
 47
0.0
 47
0.0
 47
0.0
 47
0.0
 47
1.0
171
     0
 49
0.0208333333333333
 49
0.0
 49
0.0
 49
0.0
 49
0.0
 49
0.0208333333333333
 49
0.0
 49
0.0
 49
0.0
 49
0.0
 49
1.0
 49
0.0
 49
0.0
 49
0.0
 49
0.0
 49
1.0
175
     0
142
0.0208333333333333
142
0.0
142
0.0
142
0.0
142
0.0
142
0.0208333333333333
142
0.0
142
0.0
142
0.0
142
0.0
142
1.0
142
0.0
142
0.0
142
0.0
142
0.0
142
1.0
179
     0
144
0.0208333333333333
144
0.0
144
0.0
144
0.0
144
0.0
144
0.0208333333333333
144
0.0
144
0.0
144
0.0
144
0.0
144
1.0
144
0.0
144
0.0
144
0.0
144
0.0
144
1.0
147
0.0208333333333333
147
0.0
147
0.0
147
0.0
147
0.0
147
0.0208333333333333
147
0.0
147
0.0
147
0.0
147
0.0
147
1.0
147
0.0
147
0.0
147
0.0
147
0.0
147
1.0
  0
MATERIAL
  5
21
102
{ACAD_XDICTIONARY
360
22
102
}
102
{ACAD_REACTORS
330
10
102
}
330
10
100
AcDbMaterial
  1
Global
 72
     0
 43
0.0208333333333333
 43
0.0
 43
0.0
 43
0.0
 43
0.0
 43
0.0208333333333333
 43
0.0
 43
0.0
 43
0.0
 43
0.0
 43
1.0
 43
0.0
 43
0.0
 43
0.0
 43
0.0
 43
1.0
 77
     0
 47
0.0208333333333333
 47
0.0
 47
0.0
 47
0.0
 47
0.0
 47
0.0208333333333333
 47
0.0
 47
0.0
 47
0.0
 47
0.0
 47
1.0
 47
0.0
 47
0.0
 47
0.0
 47
0.0
 47
1.0
171
     0
 49
0.0208333333333333
 49
0.0
 49
0.0
 49
0.0
 49
0.0
 49
0.0208333333333333
 49
0.0
 49
0.0
 49
0.0
 49
0.0
 49
1.0
 49
0.0
 49
0.0
 49
0.0
 49
0.0
 49
1.0
175
     0
142
0.0208333333333333
142
0.0
142
0.0
142
0.0
142
0.0
142
0.0208333333333333
142
0.0
142
0.0
142
0.0
142
0.0
142
1.0
142
0.0
142
0.0
142
0.0
142
0.0
142
1.0
179
     0
144
0.0208333333333333
144
0.0
144
0.0
144
0.0
144
0.0
144
0.0208333333333333
144
0.0
144
0.0
144
0.0
144
0.0
144
1.0
144
0.0
144
0.0
144
0.0
144
0.0
144
1.0
147
0.0208333333333333
147
0.0
147
0.0
147
0.0
147
0.0
147
0.0208333333333333
147
0.0
147
0.0
147
0.0
147
0.0
147
1.0
147
0.0
147
0.0
147
0.0
147
0.0
147
1.0
  0
MLEADERSTYLE
  5
67
102
{ACAD_XDICTIONARY
360
E84
102
}
102
{ACAD_REACTORS
330
66
102
}
330
66
100
AcDbMLeaderStyle
179
     2
170
     2
171
     1
172
     0
 90
        2
 40
0.0
 41
0.0
173
     1
 91
-1056964608
340
5B
 92
       -2
290
     1
 42
0.09
291
     1
 43
0.36
  3
Standard
 44
0.18
300

342
55
174
     1
178
     6
175
     1
176
     0
 93
-1056964608
 45
0.18
292
     0
297
     0
 46
0.18
 94
-1056964608
 47
1.0
 49
1.0
140
1.0
293
     1
141
0.0
294
     1
177
     0
142
1.0
295
     0
296
     0
143
0.125
271
     0
272
     9
273
     9
  0
MLINESTYLE
  5
60
102
{ACAD_REACTORS
330
5F
102
}
330
5F
100
AcDbMlineStyle
  2
STANDARD
 70
     0
  3

 62
   256
 51
90.0
 52
90.0
 71
     2
 49
0.5
 62
   256
  6
BYLAYER
 49
-0.5
 62
   256
  6
BYLAYER
  0
ACDBPLACEHOLDER
  5
F
102
{ACAD_REACTORS
330
E
102
}
330
E
  0
SCALE
  5
43
102
{ACAD_REACTORS
330
42
102
}
330
42
100
AcDbScale
 70
     0
300
1:1
140
1.0
141
1.0
290
     1
  0
SCALE
  5
44
102
{ACAD_REACTORS
330
42
102
}
330
42
100
AcDbScale
 70
     0
300
1/128" = 1'-0"
140
0.0078125
141
12.0
290
     0
  0
SCALE
  5
45
102
{ACAD_REACTORS
330
42
102
}
330
42
100
AcDbScale
 70
     0
300
1/64" = 1'-0"
140
0.015625
141
12.0
290
     0
  0
SCALE
  5
46
102
{ACAD_REACTORS
330
42
102
}
330
42
100
AcDbScale
 70
     0
300
1/32" = 1'-0"
140
0.03125
141
12.0
290
     0
  0
SCALE
  5
47
102
{ACAD_REACTORS
330
42
102
}
330
42
100
AcDbScale
 70
     0
300
1/16" = 1'-0"
140
0.0625
141
12.0
290
     0
  0
SCALE
  5
48
102
{ACAD_REACTORS
330
42
102
}
330
42
100
AcDbScale
 70
     0
300
3/32" = 1'-0"
140
0.09375
141
12.0
290
     0
  0
SCALE
  5
49
102
{ACAD_REACTORS
330
42
102
}
330
42
100
AcDbScale
 70
     0
300
1/8" = 1'-0"
140
0.125
141
12.0
290
     0
  0
SCALE
  5
4A
102
{ACAD_REACTORS
330
42
102
}
330
42
100
AcDbScale
 70
     0
300
3/16" = 1'-0"
140
0.1875
141
12.0
290
     0
  0
SCALE
  5
4B
102
{ACAD_REACTORS
330
42
102
}
330
42
100
AcDbScale
 70
     0
300
1/4" = 1'-0"
140
0.25
141
12.0
290
     0
  0
SCALE
  5
4C
102
{ACAD_REACTORS
330
42
102
}
330
42
100
AcDbScale
 70
     0
300
3/8" = 1'-0"
140
0.375
141
12.0
290
     0
  0
SCALE
  5
4D
102
{ACAD_REACTORS
330
42
102
}
330
42
100
AcDbScale
 70
     0
300
1/2" = 1'-0"
140
0.5
141
12.0
290
     0
  0
SCALE
  5
4E
102
{ACAD_REACTORS
330
42
102
}
330
42
100
AcDbScale
 70
     0
300
3/4" = 1'-0"
140
0.75
141
12.0
290
     0
  0
SCALE
  5
4F
102
{ACAD_REACTORS
330
42
102
}
330
42
100
AcDbScale
 70
     0
300
1" = 1'-0"
140
1.0
141
12.0
290
     0
  0
SCALE
  5
50
102
{ACAD_REACTORS
330
42
102
}
330
42
100
AcDbScale
 70
     0
300
1-1/2" = 1'-0"
140
1.5
141
12.0
290
     0
  0
SCALE
  5
51
102
{ACAD_REACTORS
330
42
102
}
330
42
100
AcDbScale
 70
     0
300
3" = 1'-0"
140
3.0
141
12.0
290
     0
  0
SCALE
  5
52
102
{ACAD_REACTORS
330
42
102
}
330
42
100
AcDbScale
 70
     0
300
6" = 1'-0"
140
6.0
141
12.0
290
     0
  0
SCALE
  5
53
102
{ACAD_REACTORS
330
42
102
}
330
42
100
AcDbScale
 70
     0
300
1'-0" = 1'-0"
140
12.0
141
12.0
290
     0
  0
TABLESTYLE
  5
65
102
{ACAD_XDICTIONARY
360
E82
102
}
102
{ACAD_REACTORS
330
64
102
}
330
64
100
AcDbTableStyle
280
     0
  3
Standard
 70
     0
 71
     0
 40
0.06
 41
0.06
280
     0
281
     0
  7
Standard
140
0.18
170
     2
 62
     0
 63
     7
283
     0
 90
      512
 91
        0
  1

274
    -2
284
     1
 64
     0
275
    -2
285
     1
 65
     0
276
    -2
286
     1
 66
     0
277
    -2
287
     1
 67
     0
278
    -2
288
     1
 68
     0
279
    -2
289
     1
 69
     0
  7
Standard
140
0.25
170
     5
 62
     0
 63
     7
283
     0
 90
      512
 91
        0
  1

274
    -2
284
     1
 64
     0
275
    -2
285
     1
 65
     0
276
    -2
286
     1
 66
     0
277
    -2
287
     1
 67
     0
278
    -2
288
     1
 68
     0
279
    -2
289
     1
 69
     0
  7
Standard
140
0.18
170
     5
 62
     0
 63
     7
283
     0
 90
      512
 91
        0
  1

274
    -2
284
     1
 64
     0
275
    -2
285
     1
 65
     0
276
    -2
286
     1
 66
     0
277
    -2
287
     1
 67
     0
278
    -2
288
     1
 68
     0
279
    -2
289
     1
 69
     0
  0
VISUALSTYLE
  5
2F
102
{ACAD_REACTORS
330
29
102
}
330
29
100
AcDbVisualStyle
  2
2dWireframe
 70
     4
177
     2
291
     0
 71
     0
176
     1
 72
     2
176
     1
 73
     0
176
     1
 90
        0
176
     1
 40
0.6
176
     1
 41
30.0
176
     1
 63
     7
421
 16777215
176
     1
 74
     1
176
     1
 91
        4
176
     1
 64
     7
176
     1
 65
   257
176
     1
 75
     1
176
     1
175
     1
176
     1
 42
1.0
176
     1
 92
        0
176
     1
 66
   257
176
     1
 43
1.0
176
     1
 76
     1
176
     1
 77
     6
176
     1
 78
     2
176
     1
 67
     7
176
     1
 79
     5
176
     1
170
     0
176
     1
171
     0
176
     1
290
     0
176
     1
 93
        1
176
     1
 44
0.0
176
     1
173
     0
176
     1
  0
VISUALSTYLE
  5
2E
102
{ACAD_REACTORS
330
29
102
}
330
29
100
AcDbVisualStyle
  2
Basic
 70
     7
177
     2
291
     1
 71
     1
176
     1
 72
     0
176
     1
 73
     1
176
     1
 90
        0
176
     1
 40
0.6
176
     1
 41
30.0
176
     1
 63
     7
421
 16777215
176
     1
 74
     0
176
     1
 91
        4
176
     1
 64
     7
176
     1
 65
   257
176
     1
 75
     1
176
     1
175
     1
176
     1
 42
1.0
176
     1
 92
        8
176
     1
 66
     7
176
     1
 43
1.0
176
     1
 76
     1
176
     1
 77
     6
176
     1
 78
     2
176
     1
 67
     7
176
     1
 79
     5
176
     1
170
     0
176
     1
171
     0
176
     1
290
     0
176
     1
 93
        1
176
     1
 44
0.0
176
     1
173
     0
176
     1
  0
VISUALSTYLE
  5
35
102
{ACAD_REACTORS
330
29
102
}
330
29
100
AcDbVisualStyle
  2
Brighten
 70
    12
177
     2
291
     1
 71
     2
176
     1
 72
     2
176
     1
 73
     0
176
     1
 90
        0
176
     1
 40
0.6
176
     1
 41
30.0
176
     1
 63
     7
421
 16777215
176
     1
 74
     1
176
     1
 91
        4
176
     1
 64
     7
176
     1
 65
   257
176
     1
 75
     1
176
     1
175
     1
176
     1
 42
1.0
176
     1
 92
        8
176
     1
 66
     7
176
     1
 43
1.0
176
     1
 76
     1
176
     1
 77
     6
176
     1
 78
     2
176
     1
 67
     7
176
     1
 79
     5
176
     1
170
     0
176
     1
171
     0
176
     1
290
     0
176
     1
 93
        1
176
     1
 44
50.0
176
     1
173
     0
176
     1
  0
VISUALSTYLE
  5
39
102
{ACAD_REACTORS
330
29
102
}
330
29
100
AcDbVisualStyle
  2
ColorChange
 70
    16
177
     2
291
     1
 71
     2
176
     1
 72
     2
176
     1
 73
     3
176
     1
 90
        0
176
     1
 40
0.6
176
     1
 41
30.0
176
     1
 63
     8
421
  8421504
176
     1
 74
     1
176
     1
 91
        4
176
     1
 64
     7
176
     1
 65
   257
176
     1
 75
     1
176
     1
175
     1
176
     1
 42
1.0
176
     1
 92
        8
176
     1
 66
     8
424
  8421504
176
     1
 43
1.0
176
     1
 76
     1
176
     1
 77
     6
176
     1
 78
     2
176
     1
 67
     7
176
     1
 79
     5
176
     1
170
     0
176
     1
171
     0
176
     1
290
     0
176
     1
 93
        1
176
     1
 44
0.0
176
     1
173
     0
176
     1
  0
VISUALSTYLE
  5
32
102
{ACAD_REACTORS
330
29
102
}
330
29
100
AcDbVisualStyle
  2
Conceptual
 70
     9
177
     2
291
     0
 71
     3
176
     1
 72
     2
176
     1
 73
     0
176
     1
 90
        0
176
     1
 40
0.6
176
     1
 41
30.0
176
     1
 63
     7
421
 16777215
176
     1
 74
     2
176
     1
 91
        2
176
     1
 64
     7
176
     1
 65
   257
176
     1
 75
     1
176
     1
175
     1
176
     1
 42
179.0
176
     1
 92
        8
176
     1
 66
     7
176
     1
 43
1.0
176
     1
 76
     1
176
     1
 77
     6
176
     1
 78
     2
176
     1
 67
     7
176
     1
 79
     3
176
     1
170
     0
176
     1
171
     0
176
     1
290
     0
176
     1
 93
        1
176
     1
 44
0.0
176
     1
173
     0
176
     1
  0
VISUALSTYLE
  5
34
102
{ACAD_REACTORS
330
29
102
}
330
29
100
AcDbVisualStyle
  2
Dim
 70
    11
177
     2
291
     1
 71
     2
176
     1
 72
     2
176
     1
 73
     0
176
     1
 90
        0
176
     1
 40
0.6
176
     1
 41
30.0
176
     1
 63
     7
421
 16777215
176
     1
 74
     1
176
     1
 91
        4
176
     1
 64
     7
176
     1
 65
   257
176
     1
 75
     1
176
     1
175
     1
176
     1
 42
1.0
176
     1
 92
        8
176
     1
 66
     7
176
     1
 43
1.0
176
     1
 76
     1
176
     1
 77
     6
176
     1
 78
     2
176
     1
 67
     7
176
     1
 79
     5
176
     1
170
     0
176
     1
171
     0
176
     1
290
     0
176
     1
 93
        1
176
     1
 44
-50.0
176
     1
173
     0
176
     1
  0
VISUALSTYLE
  5
41
102
{ACAD_REACTORS
330
29
102
}
330
29
100
AcDbVisualStyle
  2
EdgeColorOff
 70
    22
177
     2
291
     1
 71
     2
176
     0
 72
     2
176
     0
 73
     0
176
     0
 90
        0
176
     0
 40
0.6
176
     0
 41
30.0
176
     0
 63
     7
421
 16777215
176
     0
 74
     1
176
     0
 91
        4
176
     0
 64
     7
176
     0
 65
   257
176
     0
 75
     1
176
     0
175
     1
176
     0
 42
1.0
176
     0
 92
        8
176
     2
 66
     7
176
     0
 43
1.0
176
     0
 76
     1
176
     0
 77
     6
176
     0
 78
     2
176
     0
 67
     7
176
     0
 79
     5
176
     0
170
     0
176
     0
171
     0
176
     0
290
     0
176
     0
 93
        1
176
     0
 44
0.0
176
     0
173
     0
176
     0
  0
VISUALSTYLE
  5
38
102
{ACAD_REACTORS
330
29
102
}
330
29
100
AcDbVisualStyle
  2
Facepattern
 70
    15
177
     2
291
     1
 71
     2
176
     1
 72
     2
176
     1
 73
     0
176
     1
 90
        0
176
     1
 40
0.6
176
     1
 41
30.0
176
     1
 63
     7
421
 16777215
176
     1
 74
     1
176
     1
 91
        4
176
     1
 64
     7
176
     1
 65
   257
176
     1
 75
     1
176
     1
175
     1
176
     1
 42
1.0
176
     1
 92
        8
176
     1
 66
     7
176
     1
 43
1.0
176
     1
 76
     1
176
     1
 77
     6
176
     1
 78
     2
176
     1
 67
     7
176
     1
 79
     5
176
     1
170
     0
176
     1
171
     0
176
     1
290
     0
176
     1
 93
        1
176
     1
 44
0.0
176
     1
173
     0
176
     1
  0
VISUALSTYLE
  5
2A
102
{ACAD_REACTORS
330
29
102
}
330
29
100
AcDbVisualStyle
  2
Flat
 70
     0
177
     2
291
     1
 71
     2
176
     1
 72
     1
176
     1
 73
     1
176
     1
 90
        2
176
     1
 40
0.6
176
     1
 41
30.0
176
     1
 63
     7
421
 16777215
176
     1
 74
     0
176
     1
 91
        0
176
     1
 64
     7
176
     1
 65
   257
176
     1
 75
     1
176
     1
175
     1
176
     1
 42
1.0
176
     1
 92
        8
176
     1
 66
     7
176
     1
 43
1.0
176
     1
 76
     1
176
     1
 77
     6
176
     1
 78
     2
176
     1
 67
     7
176
     1
 79
     5
176
     1
170
     0
176
     1
171
     0
176
     1
290
     0
176
     1
 93
       13
176
     1
 44
0.0
176
     1
173
     0
176
     1
  0
VISUALSTYLE
  5
2B
102
{ACAD_REACTORS
330
29
102
}
330
29
100
AcDbVisualStyle
  2
FlatWithEdges
 70
     1
177
     2
291
     1
 71
     2
176
     1
 72
     1
176
     1
 73
     1
176
     1
 90
        2
176
     1
 40
0.6
176
     1
 41
30.0
176
     1
 63
     7
421
 16777215
176
     1
 74
     1
176
     1
 91
        0
176
     1
 64
     7
176
     1
 65
   257
176
     1
 75
     1
176
     1
175
     1
176
     1
 42
1.0
176
     1
 92
        0
176
     1
 66
   257
176
     1
 43
1.0
176
     1
 76
     1
176
     1
 77
     6
176
     1
 78
     2
176
     1
 67
     7
176
     1
 79
     5
176
     1
170
     0
176
     1
171
     0
176
     1
290
     0
176
     1
 93
       13
176
     1
 44
0.0
176
     1
173
     0
176
     1
  0
VISUALSTYLE
  5
2C
102
{ACAD_REACTORS
330
29
102
}
330
29
100
AcDbVisualStyle
  2
Gouraud
 70
     2
177
     2
291
     1
 71
     2
176
     1
 72
     2
176
     1
 73
     1
176
     1
 90
        2
176
     1
 40
0.6
176
     1
 41
30.0
176
     1
 63
     7
421
 16777215
176
     1
 74
     0
176
     1
 91
        0
176
     1
 64
     7
176
     1
 65
   257
176
     1
 75
     1
176
     1
175
     1
176
     1
 42
1.0
176
     1
 92
        0
176
     1
 66
     7
176
     1
 43
1.0
176
     1
 76
     1
176
     1
 77
     6
176
     1
 78
     2
176
     1
 67
     7
176
     1
 79
     5
176
     1
170
     0
176
     1
171
     0
176
     1
290
     0
176
     1
 93
       13
176
     1
 44
0.0
176
     1
173
     0
176
     1
  0
VISUALSTYLE
  5
2D
102
{ACAD_REACTORS
330
29
102
}
330
29
100
AcDbVisualStyle
  2
GouraudWithEdges
 70
     3
177
     2
291
     1
 71
     2
176
     1
 72
     2
176
     1
 73
     1
176
     1
 90
        2
176
     1
 40
0.6
176
     1
 41
30.0
176
     1
 63
     7
421
 16777215
176
     1
 74
     1
176
     1
 91
        0
176
     1
 64
     7
176
     1
 65
   257
176
     1
 75
     1
176
     1
175
     1
176
     1
 42
1.0
176
     1
 92
        0
176
     1
 66
   257
176
     1
 43
1.0
176
     1
 76
     1
176
     1
 77
     6
176
     1
 78
     2
176
     1
 67
     7
176
     1
 79
     5
176
     1
170
     0
176
     1
171
     0
176
     1
290
     0
176
     1
 93
       13
176
     1
 44
0.0
176
     1
173
     0
176
     1
  0
VISUALSTYLE
  5
31
102
{ACAD_REACTORS
330
29
102
}
330
29
100
AcDbVisualStyle
  2
Hidden
 70
     6
177
     2
291
     0
 71
     1
176
     1
 72
     2
176
     1
 73
     2
176
     1
 90
        0
176
     1
 40
0.6
176
     1
 41
30.0
176
     1
 63
     7
421
 16777215
176
     1
 74
     2
176
     1
 91
        2
176
     1
 64
     7
176
     1
 65
   257
176
     1
 75
     2
176
     1
175
     1
176
     1
 42
40.0
176
     1
 92
        0
176
     1
 66
   257
176
     1
 43
1.0
176
     1
 76
     1
176
     1
 77
     6
176
     1
 78
     2
176
     1
 67
     7
176
     1
 79
     3
176
     1
170
     0
176
     1
171
     0
176
     1
290
     0
176
     1
 93
        1
176
     1
 44
0.0
176
     1
173
     0
176
     1
  0
VISUALSTYLE
  5
3F
102
{ACAD_REACTORS
330
29
102
}
330
29
100
AcDbVisualStyle
  2
JitterOff
 70
    20
177
     2
291
     1
 71
     2
176
     0
 72
     2
176
     0
 73
     0
176
     0
 90
        0
176
     0
 40
0.6
176
     0
 41
30.0
176
     0
 63
     7
421
 16777215
176
     0
 74
     1
176
     0
 91
        4
176
     0
 64
     7
176
     0
 65
   257
176
     0
 75
     1
176
     0
175
     1
176
     0
 42
1.0
176
     0
 92
       10
176
     2
 66
     7
176
     0
 43
1.0
176
     0
 76
     1
176
     0
 77
     6
176
     0
 78
     2
176
     0
 67
     7
176
     0
 79
     5
176
     0
170
     0
176
     0
171
     0
176
     0
290
     0
176
     0
 93
        1
176
     0
 44
0.0
176
     0
173
     0
176
     0
  0
VISUALSTYLE
  5
37
102
{ACAD_REACTORS
330
29
102
}
330
29
100
AcDbVisualStyle
  2
Linepattern
 70
    14
177
     2
291
     1
 71
     2
176
     1
 72
     2
176
     1
 73
     0
176
     1
 90
        0
176
     1
 40
0.6
176
     1
 41
30.0
176
     1
 63
     7
421
 16777215
176
     1
 74
     1
176
     1
 91
        4
176
     1
 64
     7
176
     1
 65
   257
176
     1
 75
     7
176
     1
175
     7
176
     1
 42
1.0
176
     1
 92
        8
176
     1
 66
     7
176
     1
 43
1.0
176
     1
 76
     1
176
     1
 77
     6
176
     1
 78
     2
176
     1
 67
     7
176
     1
 79
     5
176
     1
170
     0
176
     1
171
     0
176
     1
290
     0
176
     1
 93
        1
176
     1
 44
0.0
176
     1
173
     0
176
     1
  0
VISUALSTYLE
  5
40
102
{ACAD_REACTORS
330
29
102
}
330
29
100
AcDbVisualStyle
  2
OverhangOff
 70
    21
177
     2
291
     1
 71
     2
176
     0
 72
     2
176
     0
 73
     0
176
     0
 90
        0
176
     0
 40
0.6
176
     0
 41
30.0
176
     0
 63
     7
421
 16777215
176
     0
 74
     1
176
     0
 91
        4
176
     0
 64
     7
176
     0
 65
   257
176
     0
 75
     1
176
     0
175
     1
176
     0
 42
1.0
176
     0
 92
        9
176
     2
 66
     7
176
     0
 43
1.0
176
     0
 76
     1
176
     0
 77
     6
176
     0
 78
     2
176
     0
 67
     7
176
     0
 79
     5
176
     0
170
     0
176
     0
171
     0
176
     0
290
     0
176
     0
 93
        1
176
     0
 44
0.0
176
     0
173
     0
176
     0
  0
VISUALSTYLE
  5
33
102
{ACAD_REACTORS
330
29
102
}
330
29
100
AcDbVisualStyle
  2
Realistic
 70
     8
177
     2
291
     0
 71
     2
176
     1
 72
     3
176
     1
 73
     0
176
     1
 90
        2
176
     1
 40
0.6
176
     1
 41
30.0
176
     1
 63
     7
421
 16777215
176
     1
 74
     0
176
     1
 91
        0
176
     1
 64
     7
176
     1
 65
   257
176
     1
 75
     1
176
     1
175
     1
176
     1
 42
1.0
176
     1
 92
        8
176
     1
 66
   257
176
     1
 43
1.0
176
     1
 76
     1
176
     1
 77
     6
176
     1
 78
     2
176
     1
 67
     7
176
     1
 79
     3
176
     1
170
     0
176
     1
171
     0
176
     1
290
     0
176
     1
 93
       13
176
     1
 44
0.0
176
     1
173
     0
176
     1
  0
VISUALSTYLE
  5
3E
102
{ACAD_REACTORS
330
29
102
}
330
29
100
AcDbVisualStyle
  2
Shaded
 70
    27
177
     2
291
     0
 71
     2
176
     1
 72
     2
176
     1
 73
     1
176
     1
 90
        2
176
     1
 40
0.6
176
     1
 41
30.0
176
     1
 63
     7
421
 16777215
176
     1
 74
     0
176
     1
 91
        4
176
     1
 64
     7
176
     1
 65
   257
176
     1
 75
     1
176
     1
175
     1
176
     1
 42
1.0
176
     1
 92
        8
176
     1
 66
   257
176
     1
 43
1.0
176
     1
 76
     1
176
     1
 77
     6
176
     1
 78
     2
176
     1
 67
     8
425
  7895160
176
     1
 79
     3
176
     1
170
     0
176
     1
171
     0
176
     1
290
     0
176
     1
 93
        5
176
     1
 44
0.0
176
     1
173
     0
176
     1
  0
VISUALSTYLE
  5
3D
102
{ACAD_REACTORS
330
29
102
}
330
29
100
AcDbVisualStyle
  2
Shaded with edges
 70
    26
177
     2
291
     0
 71
     2
176
     1
 72
     2
176
     1
 73
     1
176
     1
 90
        2
176
     1
 40
0.6
176
     1
 41
30.0
176
     1
 63
     7
421
 16777215
176
     1
 74
     1
176
     1
 91
       10
176
     1
 64
     7
176
     1
 65
   257
176
     1
 75
     2
176
     1
175
     1
176
     1
 42
1.0
176
     1
 92
        8
176
     1
 66
   257
176
     1
 43
1.0
176
     1
 76
     1
176
     1
 77
     6
176
     1
 78
     2
176
     1
 67
     7
176
     1
 79
     3
176
     1
170
     0
176
     1
171
     0
176
     1
290
     0
176
     1
 93
        5
176
     1
 44
0.0
176
     1
173
     0
176
     1
  0
VISUALSTYLE
  5
3A
102
{ACAD_REACTORS
330
29
102
}
330
29
100
AcDbVisualStyle
  2
Shades of Gray
 70
    23
177
     2
291
     0
 71
     2
176
     1
 72
     2
176
     1
 73
     3
176
     1
 90
        0
176
     1
 40
0.6
176
     1
 41
30.0
176
     1
 63
     7
421
 16777215
176
     1
 74
     2
176
     1
 91
        2
176
     1
 64
     7
176
     1
 65
     7
176
     1
 75
     1
176
     1
175
     1
176
     1
 42
40.0
176
     1
 92
        8
176
     1
 66
     7
176
     1
 43
1.0
176
     1
 76
     1
176
     1
 77
     6
176
     1
 78
     2
176
     1
 67
     7
176
     1
 79
     3
176
     1
170
     0
176
     1
171
     0
176
     1
290
     0
176
     1
 93
        1
176
     1
 44
0.0
176
     1
173
     0
176
     1
  0
VISUALSTYLE
  5
3B
102
{ACAD_REACTORS
330
29
102
}
330
29
100
AcDbVisualStyle
  2
Sketchy
 70
    24
177
     2
291
     0
 71
     1
176
     1
 72
     2
176
     1
 73
     2
176
     1
 90
        0
176
     1
 40
0.6
176
     1
 41
30.0
176
     1
 63
     7
421
 16777215
176
     1
 74
     2
176
     1
 91
        2
176
     1
 64
     7
176
     1
 65
     7
176
     1
 75
     1
176
     1
175
     1
176
     1
 42
40.0
176
     1
 92
       11
176
     1
 66
     7
176
     1
 43
1.0
176
     1
 76
     1
176
     1
 77
     6
176
     1
 78
     2
176
     1
 67
     7
176
     1
 79
     6
176
     1
170
     0
176
     1
171
     0
176
     1
290
     0
176
     1
 93
        1
176
     1
 44
0.0
176
     1
173
     0
176
     1
  0
VISUALSTYLE
  5
36
102
{ACAD_REACTORS
330
29
102
}
330
29
100
AcDbVisualStyle
  2
Thicken
 70
    13
177
     2
291
     1
 71
     2
176
     1
 72
     2
176
     1
 73
     0
176
     1
 90
        0
176
     1
 40
0.6
176
     1
 41
30.0
176
     1
 63
     7
421
 16777215
176
     1
 74
     1
176
     1
 91
        4
176
     1
 64
     7
176
     1
 65
   257
176
     1
 75
     1
176
     1
175
     1
176
     1
 42
1.0
176
     1
 92
       12
176
     1
 66
     7
176
     1
 43
1.0
176
     1
 76
     1
176
     1
 77
     6
176
     1
 78
     2
176
     1
 67
     7
176
     1
 79
     5
176
     1
170
     0
176
     1
171
     0
176
     1
290
     0
176
     1
 93
        1
176
     1
 44
0.0
176
     1
173
     0
176
     1
  0
VISUALSTYLE
  5
30
102
{ACAD_REACTORS
330
29
102
}
330
29
100
AcDbVisualStyle
  2
Wireframe
 70
     5
177
     2
291
     0
 71
     0
176
     1
 72
     2
176
     1
 73
     0
176
     1
 90
        0
176
     1
 40
0.6
176
     1
 41
30.0
176
     1
 63
     7
421
 16777215
176
     1
 74
     1
176
     1
 91
        4
176
     1
 64
     7
176
     1
 65
   257
176
     1
 75
     1
176
     1
175
     1
176
     1
 42
1.0
176
     1
 92
        0
176
     1
 66
   257
176
     1
 43
1.0
176
     1
 76
     1
176
     1
 77
     6
176
     1
 78
     2
176
     1
 67
     7
176
     1
 79
     3
176
     1
170
     0
176
     1
171
     0
176
     1
290
     0
176
     1
 93
        1
176
     1
 44
0.0
176
     1
173
     0
176
     1
  0
VISUALSTYLE
  5
3C
102
{ACAD_REACTORS
330
29
102
}
330
29
100
AcDbVisualStyle
  2
X-Ray
 70
    25
177
     2
291
     0
 71
     2
176
     1
 72
     2
176
     1
 73
     1
176
     1
 90
        1
176
     1
 40
0.5
176
     1
 41
30.0
176
     1
 63
     7
421
 16777215
176
     1
 74
     1
176
     1
 91
        0
176
     1
 64
     7
176
     1
 65
   257
176
     1
 75
     1
176
     1
175
     1
176
     1
 42
1.0
176
     1
 92
        8
176
     1
 66
     7
176
     1
 43
1.0
176
     1
 76
     1
176
     1
 77
     6
176
     1
 78
     2
176
     1
 67
     7
176
     1
 79
     3
176
     1
170
     0
176
     1
171
     0
176
     1
290
     0
176
     1
 93
       13
176
     1
 44
0.0
176
     1
173
     0
176
     1
  0
DICTIONARYVAR
  5
79
102
{ACAD_REACTORS
330
76
102
}
330
76
100
DictionaryVariables
280
     0
  1
1:1
  0
DICTIONARYVAR
  5
78
102
{ACAD_REACTORS
330
76
102
}
330
76
100
DictionaryVariables
280
     0
  1
STANDARD
  0
DICTIONARYVAR
  5
77
102
{ACAD_REACTORS
330
76
102
}
330
76
100
DictionaryVariables
280
     0
  1
STANDARD
  0
DICTIONARY
  5
1A
330
19
100
AcDbDictionary
280
     1
281
     1
  3
BUMPTILE
360
1C
  3
DIFFUSETILE
360
1B
  3
OPACITYTILE
360
1F
  3
REFLECTIONTILE
360
1E
  3
REFRACTIONTILE
360
20
  3
SPECULARTILE
360
1D
  0
DICTIONARY
  5
12
330
11
100
AcDbDictionary
280
     1
281
     1
  3
BUMPTILE
360
14
  3
DIFFUSETILE
360
13
  3
FBXASSET
360
109
  3
OPACITYTILE
360
17
  3
REFLECTIONTILE
360
16
  3
REFRACTIONTILE
360
18
  3
SPECULARTILE
360
15
  0
DICTIONARY
  5
22
330
21
100
AcDbDictionary
280
     1
281
     1
  3
BUMPTILE
360
24
  3
DIFFUSETILE
360
23
  3
FBXASSET
360
BA
  3
OPACITYTILE
360
27
  3
REFLECTIONTILE
360
26
  3
REFRACTIONTILE
360
28
  3
SPECULARTILE
360
25
  0
DICTIONARY
  5
E84
330
67
100
AcDbDictionary
280
     1
281
     1
  3
ACAD_XREC_ROUNDTRIP
360
E85
  0
DICTIONARY
  5
E82
330
65
100
AcDbDictionary
280
     1
281
     1
  3
ACAD_ROUNDTRIP_2008_TABLESTYLE_CELLSTYLEMAP
360
E83
  0
XRECORD
  5
1C
102
{ACAD_REACTORS
330
1A
102
}
330
1A
100
AcDbXrecord
280
     1
270
     1
271
     1
  0
XRECORD
  5
1B
102
{ACAD_REACTORS
330
1A
102
}
330
1A
100
AcDbXrecord
280
     1
270
     1
271
     1
  0
XRECORD
  5
1F
102
{ACAD_REACTORS
330
1A
102
}
330
1A
100
AcDbXrecord
280
     1
270
     1
271
     1
  0
XRECORD
  5
1E
102
{ACAD_REACTORS
330
1A
102
}
330
1A
100
AcDbXrecord
280
     1
270
     1
271
     1
  0
XRECORD
  5
20
102
{ACAD_REACTORS
330
1A
102
}
330
1A
100
AcDbXrecord
280
     1
270
     1
271
     1
  0
XRECORD
  5
1D
102
{ACAD_REACTORS
330
1A
102
}
330
1A
100
AcDbXrecord
280
     1
270
     1
271
     1
  0
XRECORD
  5
14
102
{ACAD_REACTORS
330
12
102
}
330
12
100
AcDbXrecord
280
     1
270
     1
271
     1
  0
XRECORD
  5
13
102
{ACAD_REACTORS
330
12
102
}
330
12
100
AcDbXrecord
280
     1
270
     1
271
     1
  0
XRECORD
  5
109
102
{ACAD_REACTORS
330
12
102
}
330
12
100
AcDbXrecord
280
     1
 70
     1
 90
1959938040
 71
     1
  1
CBFBDE01-2A20-4FA7-8D24-4E71F0F315BC
311
504B03040A00000800006598D5423DEE336E79000000790000001B0000006175746F6465736B2D64657369676E2D7061636B6167652E786D6C3C3F786D6C2076657273696F6E3D22312E302220656E636F64696E673D227574662D3822203F3E3C666F726D6174733E3C666F726D61743E687474703A2F2F736368656D612E
311
6175746F6465736B2E636F6D2F64657369676E2D7061636B6167652F323030393C2F666F726D61743E3C2F666F726D6174733E504B03041400060808006598D542D486FD9CA0000000F4000000130000005B436F6E74656E745F54797065735D2E786D6C7D8EC10E82300C865F65E91D8A1E8C310C0EEA1BF002731658846E
311
D98AC1B77784ABF1D8FE5FBFBF75BBCE937A534CCEB38643598122B6FEE978D0B0485F9C41B54DDD7D022595594E1A469170414C76A4D9A4D207E29CF43ECE46F218070CC6BECC4078ACAA135ACF422C856C0E68EA1BF5669944DDD7BCDE7B1F8E415D77AECB980613C2E4AC91FC167A2B244592486606FC29C8FD7F045B9A
311
EF7053A7E60B504B03041400060808006598D54274AD9701EA0000007C01000008000000636F72652E786D6C8D90516EC3201044AF82F6B7C206533BB68589DAB83D412F8080B828315806AA1EBF3871A4F6AF5F3B1AE6B1ABE1C7EFF98ABECC1AAC7703D08200324E796DDD34408A67DC023A0ABE7A1F7FC50039399B0136
311
1B049F569F96DD52DE45E362769DD766376508260252D72C0608EAD3CCB29029E644B8148B54173999823E548653B21ADD97589DFFB3676B56105D737A39B0B1C1F5A165F8B9AD46FC3A6675621D1BEBF6D4BEBF8DBCDC60C1A39D1FFBD56A64341A444528C3A4C115FDA05D4F584FC913A97B4678B9C5FF4069D1FF849275
311
9155FBB9772C80A0F990DB83E0E5D6451EB7A2F2DC7A133F504B03041400060808006598D54255019EA25F0000007C00000007000000636E782E786D6C4DCB3B0E80201045D1AD90E915ED2CF8AC45050C11660C8261F98AB1B07AC9C97D42D718D865D3E909258CFD00CCE24AC6E326A164D74DC0B4128928FF326038472B
311
A13128B1252AC747C6BAB984FC68F0B87FE8960A5C09FE86CFB69FBA01504B03041400060808006598D5423302CC0567010000020300000C0000006662782F636F72652E786D6C8D525B6E833010BC8AE5DF0A6C701E24328EDAD09EA01770C0A128602363A31CBFCB23A2A9A2284232D6CCCEEEEC003F5C9B1AF5CA7695D1
311
298E428A91D2B9292A5DA6D8BB7390607410DC1AE3FE9461A465A3523CC058F0D21ADFCE506EB453DA01AA4DA16650769D7218E5355C52DCE53FAA91A1F40E2ABA4BD8CAFC224B154621D0502778E72C1840D390E1C4E27CBA7232E1827B5F15335B1530AD3A57CA62B1DB1CDFB72CDB04EB6DC282551267C14706B723DBB1
311
6C9D1C93AFCF8C93412CB8AB9A9BBBDC2AE95481454C2316D04D1047DFD16E4FD93EA26F74BD679493A1FC4EE4DBE24591AFB463F16C7792755844606424FE6D0B1139D4C91EFC10C1C91022BCC684EF8386402064274FF56D8F0B40BDCA9DB12B600AE317AA97B5573095A2F1E16462A1F3D800367BD8277ED2E7790FF880
311
5297604D3AB89EBC1BA6F369EA1C45AB6CD0BB2BD2C636B25ECC4D16977319F4509E9BDAD857D4645E95CC6192E1EF15BF504B03041400060808006598D542416CCB887E0000009D0000000B0000006662782F636E782E786D6C4DCCDF0A83201C86E15B91DFB9CB3FB519A8B1C0EE239685CC349C8E5DFE6A74B0A30F1E3E
311
5ED97D568FDE36BD5C0C0AE88500B2E1112717160525CF5800EAB44C31E6BF1BA030AE56C1C1A0E59262D94E9AEC3C169F77F52E3C4F6C5AD3122A0CAEFB9EE29A098EEFAC2678E0A661ECC687EB20A0D2B2FA95F63DC2FA0B504B03041400060808006598D5421B3303572B01000014020000310000006662782F35394539
311
303138452D344242312D343238332D413234302D4633453532323733463646382F636F72652E786D6C8D515B6EC32010BC0AE22B5585CDC3769D0813355272825E801A92A2C460F1A872FC42ED48ED5F7E58343B333BDAE5FBFB7403DFDA07E3EC00498521D07674CAD8CB00533CA31E82BDE0DEB9F887068195931E6081A1
311
E017EFD2BC42A3B351DB9851EB945E4119828E108CB7FC196018BFF4242B996266846B35CBF12A2FBA22556E679EE021FA1C002C43CA0B45BB3D6E31E98FA8391C086A68CFD03B6D303AB1634BE91B3B75A79ED78B50F0948C5AE546E538E66CB47FD6A488058F667AC41FBD96512B2828260CE10E51F241B63BCC7604BFE2
311
76C730AF0BFD9F28CDEA4951323632BAC65D64010AC2EBA521B872E9F3F608A3EFB3F31194799BA0C71728708509652D251DAF176A5E40F6EC9AD53344E7F38237D7CFCC26ED62DC3582D7E546B9FC1E30D7724FF103504B03041400060808006598D5425512338A4E01000033030000300000006662782F35394539303138
311
452D344242312D343238332D413234302D4633453532323733463646382F636E782E786D6CD593BD6E032110845F05D146F783CFB1128BC3528A3C418AB418D6313107277EA2F8EDB3D8D871E322651A749A1D66569F38BEF99E2CF982108D7723656D4F0938E5B5711F23CD69D73C51B2113C789F6E6C943839C1488B4C05
311
FF083ECF55D2B093D92654AD71872A06883E070511E5729358AFA4C500704D4611A62D680D9A5C8DF8B58380ABA0B83D92B407F2FAF24EFCF613548ABC2B298277A543F072D6A61B1325CACA18471AD51E26D9CA9CBC867868B54CB265EDA5EBCE4EBF49A45CB854E66048291F6939A9A81BB5C8917738143CA680F4AA291D
311
67A042CEB3354A2684DC9D8C678FE0D9B8B45A56AF41F001DD6C352C9718769A099ECC04D5A102C8049A8A45CF86A65F350BF6C69ED7FDB066FD43FFB81E7ADE15BBE05BEF6DBD843110FC4C9477095CA282F1AE8CEFE1AB3EA24D40D63E1CFF001201D4D6339D6BC67FE6D39DDE37E20AF817881F504B0304140006080800
311
6598D542E5AF7318A405000081100000340000006662782F35394539303138452D344242312D343238332D413234302D4633453532323733463646382F6F626A656374732E786D6CAD575B6FDB3614FE2B82F6B23DC8B26CA74D06458363C785D1A52D6AB4D88301839228850B750149A5CE7EFD3E4A942CB976EA0D7DD185
311
97C373BEF39D0BFD3FF619B79EA990ACC86F6D6F34B62D9A4745CCF2F4D6AE54E25CDBD61F812F8A42F596D9564E327A6BEB613BF0535154A5198A69422AAE8E4657777F5932A239B5AD8813296F6D193DD28C8C48A58A98CAA7514C1419A5C97EE48D9A8543B1A920E5E391D092089A2B688AF11C52AC46296FF83BB6DDC0
311
77F57CE0EBA759353DBFCAADED199ECF72A9481E7D77D89198A9375BDE4FAE6E9CABD96CEACCDE4C3CE76E75B774BCB7D3F1E2CD627133BFBFC1C1520948329A089AD8C13B602358E4BBCD54E0572C57D38959621CE40AFACCB4A7EC606279BEDBACE9AC33469E523F2AF29C46355640A3B6CF888E6949F3183E675442B31E
311
42E3E1AFA771EC4D4FF5BF39B23F7C1902FD1D3D41ADEEEDBBAF6911FE0D13E4250C12926A0636581A431BAE8E0F088745C1CD1C93564614158C708BB35010F1620758AA9704FE408C66B2D0D1A02DB00378A1991ED20561F4639E9FD232A938D734B6833A0A768815AA64AD19FB878A83F67D64A0137CA5D9706D0C522F25
311
B5839B8622D7476C6A80B4124E52B81C66EA9DD3C991A10B1DA7EBA51DBC5F85FB8D8EDDD38797A228A9509A3EA056EBB8F6AD51323A7917794E6FB08F543980F219C87F40A81F5481DF04DBCFF633738A122497492132F8C61A5BCE188FB1E5D54FFDDDFBF2DD6EF3D07BE7F084B335543F01CFA10D7D5FF6E00CFC6710BE
311
105363DA26221C69E381E5004893C4E20586908793706F076B64396465EC223CF06032D47DC6A7EF1A314814F549BD770E2C8FD2E205091AB0D58C841A0DF98D82073F7D97CEEA83CDB273F05EFD14BACE979BF79B4A2424A20F26A69734613953287107DEF4151A603EB0E889BE7C2B440C43BFC77BD3C73B334749A0AD31
311
D7C0A76D4ED73F8793070744D897163ADDF83F380146E8C2DA93FFC064443927392DAAF6DC57EB07CA4603B10E76CDE4AEC01C0A0B48D3CC1CC5208A742458A941ECAA5597344767ACFBB2FE0046DAC1DDCB9FE4A59FBDC243EE8D0A5E885DF8B26BD2D249A8BF0EB96D3070B514D0BD0E9236FE0DE8BB9825492591044FE0
311
FA75BDE8FB4EA705A488566A132D33D88FE022C290B6958B6A2D082A6991EF18EA26E2EEE4017DF980D430A016784E634979B2639C57D92E611CD5689791F20C1CFF5FFFB0CACA1DC98A2A5767640F54477518EA3E60AFFC4654F468079BFAEDDC21F7C6343E43065D4B4E603570ED42774BF763CF99CC276367B69ABF75AE
311
97939933BB7FEBADC6ABA9777507D38D46751315F86DA9E94734BC84D2E6578219F77D59237E4C12B08307A2E4F65D139EEDFBCB7A845ED877B107F5B2DB388F9FD1F7D1F8C7020E2B4F0A5A6725A719CD15D131F4A03FF867823E63A04C33BECE484A2F90F2F1DDE6C8188C5CB0EF938E77FAED68AF195DE8803C29443D56
311
599813C68F36A60D92A3324F0D7EAD4FBA775368DA5FFD671C83CE54169CC5C883B195D222A30AD9F0822224322A41BD7E4F1F9BBBC705BB9F9B0E519190D35693478226994B8405485E456A386EFD82A64EF755B736CAEDE8090F93296C0B9CB9B5D1A42B1651390A51A0752B540B0797FA9D3C384BF294A3D76E3675FFDD
311
2E8DCDA024774B2EE99F8C5D4D0A3706208D94E81BD010C13BB532815FEB66E6A3FF6478AB8E45143EC34A75B61C063A63EA6310A28D51E6B68026E6C91CBD47A0BE6E9637AAD70C10B9E896F52A091AA98E2222AD6F0A5A3FA3D27CF9C9458762AD3F5A25AF52F8F272498EA02073A5031C2C022B8CCC92285075F1FBF693
311
287093CDAC150305AC5FF7D76F7EDB2E8A2C2BF266683B37F7616BF388DB6DBC4572A0FA5A22B793B137D9D6D7017343D98544D21189E51306E059C13AA007EE072F9B3B23EA5033D1AD73B52B8E18BA5E5AA6B0CD20D4D0A59F5B3538683C726A2186F49552474C7F41F9EA8DC0AD974205815E3EF817504B030414000608
311
00006598D542000000000000000000000000350000006662782F35394539303138452D344242312D343238332D413234302D4633453532323733463646382F76657274696365732E62696E504B03041400060808006598D542F270F1330600000004000000360000006662782F35394539303138452D344242312D34323833
311
2D413234302D4633453532323733463646382F747269616E676C65732E62696E636660600000504B03041400060800006598D542000000000000000000000000370000006662782F35394539303138452D344242312D343238332D413234302D4633453532323733463646382F617474726962757465732E62696E504B0304
311
1400060808006598D542D5987DFC8F00000041010000360000006662782F35394539303138452D344242312D343238332D413234302D4633453532323733463646382F6469726563746F72792E786D6C858F410EC2201045AF4266AF15DDB800BA74E7C21B903225242D6328188F2FA5C4183471359997F9FF81E89FF3C41E
311
1816475E02DF1F80A11FC8386F25A438EECEC07A250251FC3803E6F58C12560C4AD840E95E91C151A72936F496F35732D860FE635F62C8F2DA16B505C545B74125BAA2FA9E05D7CC053D063734D5C7665FD55B6B8D15D5E9BFEAFD8490FFA45E504B03041400060808006598D5421C47CA30FD000000A00100003B00000066
311
62782F35394539303138452D344242312D343238332D413234302D4633453532323733463646382F7265736F75726365732F636F72652E786D6C8D504B6E833010BD0A9A6D05D8B824808CA336B427E8052C332156828DFCA97AFC9A40A576D7CDCCE87D344F8F9FBEE67BF689CE6B6B7AA005810C8DB2A336530F315CF206
311
B293E0CEDAF04B06999133F6B0C220F8E46C5C76485913D084841A3BE20E4AEF3140A6EEE9E8C1AB2BCEB290312485BF158B54373961418B44279DE03EB81420DB9EAC1384436FA353E879B9B182C7A8C75DA3C7F4535F343A10EDE1FC7264439DD7C786E5CF4D35E4AF43BACEAC4D68736EDEDF065EAE66C1839E7F322A87
311
32E008A22294E5E49057F483B61D611D254FA4EE18E1E52AFF638ACBF84F53D426B06A8FBBD93C089A823C08C1CBB5AFB41E65A6BD762BBE01504B010214000A00000800006598D5423DEE336E79000000790000001B00000000000000000000000000000000006175746F6465736B2D64657369676E2D7061636B6167652E
311
786D6C504B010214001400060808006598D542D486FD9CA0000000F40000001300000000000000000000000000B20000005B436F6E74656E745F54797065735D2E786D6C504B010214001400060808006598D54274AD9701EA0000007C010000080000000000000000000000000083010000636F72652E786D6C504B010214
311
001400060808006598D54255019EA25F0000007C000000070000000000000000000000000093020000636E782E786D6C504B010214001400060808006598D5423302CC0567010000020300000C00000000000000000000000000170300006662782F636F72652E786D6C504B010214001400060808006598D542416CCB887E
311
0000009D0000000B00000000000000000000000000A80400006662782F636E782E786D6C504B010214001400060808006598D5421B3303572B0100001402000031000000000000000000000000004F0500006662782F35394539303138452D344242312D343238332D413234302D4633453532323733463646382F636F7265
311
2E786D6C504B010214001400060808006598D5425512338A4E010000330300003000000000000000000000000000C90600006662782F35394539303138452D344242312D343238332D413234302D4633453532323733463646382F636E782E786D6C504B010214001400060808006598D542E5AF7318A40500008110000034
311
00000000000000000000000000650800006662782F35394539303138452D344242312D343238332D413234302D4633453532323733463646382F6F626A656374732E786D6C504B010214001400060800006598D54200000000000000000000000035000000000000000000000000005B0E00006662782F3539453930313845
311
2D344242312D343238332D413234302D4633453532323733463646382F76657274696365732E62696E504B010214001400060808006598D542F270F13306000000040000003600000000000000000000000000AE0E00006662782F35394539303138452D344242312D343238332D413234302D463345353232373346364638
311
2F747269616E676C65732E62696E504B010214001400060800006598D5420000000000000000000000003700000000000000000000000000080F00006662782F35394539303138452D344242312D343238332D413234302D4633453532323733463646382F617474726962757465732E62696E504B01021400140006080800
311
6598D542D5987DFC8F0000004101000036000000000000000000000000005D0F00006662782F35394539303138452D344242312D343238332D413234302D4633453532323733463646382F6469726563746F72792E786D6C504B010214001400060808006598D5421C47CA30FD000000A00100003B00000000000000000000
311
000000401000006662782F35394539303138452D344242312D343238332D413234302D4633453532323733463646382F7265736F75726365732F636F72652E786D6C504B0506000000000E000E0080040000961100000000
310
504B03040A00000800006598D5423DEE336E79000000790000001B0000006175746F6465736B2D64657369676E2D7061636B6167652E786D6C3C3F786D6C2076657273696F6E3D22312E302220656E636F64696E673D227574662D3822203F3E3C666F726D6174733E3C666F726D61743E687474703A2F2F736368656D612E
310
6175746F6465736B2E636F6D2F64657369676E2D7061636B6167652F323030393C2F666F726D61743E3C2F666F726D6174733E504B03041400060808006598D542D486FD9CA0000000F4000000130000005B436F6E74656E745F54797065735D2E786D6C7D8EC10E82300C865F65E91D8A1E8C310C0EEA1BF002731658846E
310
D98AC1B77784ABF1D8FE5FBFBF75BBCE937A534CCEB38643598122B6FEE978D0B0485F9C41B54DDD7D022595594E1A469170414C76A4D9A4D207E29CF43ECE46F218070CC6BECC4078ACAA135ACF422C856C0E68EA1BF5669944DDD7BCDE7B1F8E415D77AECB980613C2E4AC91FC167A2B244592486606FC29C8FD7F045B9A
310
EF7053A7E60B504B03041400060808006598D54261D3A106EA0000007C01000008000000636F72652E786D6C8D90D16E83300C457F05F9750A384081A190AAADC417EC07A22465514B824832EDF3175A2A6D6F7BB2757D8F6D5D76FC9EEFD9975EBD7176009A2364DA4AA78C9D0688E14A3AC88E9CADCE855F36C8AC98F500
310
9B0C9C4DAB8BCB2E496783B621A9D629BD8BC27B1D2093F7D40CE0E5A79E452E62480E7FCB17216F62D2397D75098ED1A8EC79C4A8B4CF5C8D5E818F2D3D1FAABA25173C35A46E2F67D29DDA91608738D2AEA60DB6ACD860CE82995FF7E5AA45D00A7889B422D890927ED0F71EAB9EE21B1EFA0A59B1D9FF407151FF84A2B1
310
A12AF7779F98074ED3238F0167C596452A8FA052DD72E33F504B03041400060808006598D54255019EA25F0000007C00000007000000636E782E786D6C4DCB3B0E80201045D1AD90E915ED2CF8AC45050C11660C8261F98AB1B07AC9C97D42D718D865D3E909258CFD00CCE24AC6E326A164D74DC0B4128928FF326038472B
310
A13128B1252AC747C6BAB984FC68F0B87FE8960A5C09FE86CFB69FBA01504B03041400060808006598D542AFB6205866010000020300000C0000006662782F636F72652E786D6C8D52ED8A8330107C9590BF8726515BBD1253DA429FE05E20D5D4936A2231913EFEAD1FC5EB51CA21C430B3B33B3BCAF7F7B64183B27D6D74
310
8E59483152BA3065ADAB1C7B770D328CF6825B63DCAF328CB46C558E47180B5E59E3BB052A8C764A3B40B529D502CABE570EA3A2814B8EFBE25BB53294DE41457F0B3B59DC64A54216020D7582F7CE8201340F194F2CAE973B27332EB8F775B9B07509D3EA6BAD2C16E7941D37719206277AD806497A3A06D9213D0734A3F4
310
CCB2846D69CAC92816DCD5EDC35D619574AAC422A22C0EE83688D817FBDCD178C7E807DDEC62CAC958FE24F25DF94F91AFB58BA3C5EE2CEBB160606422FE6C0B1139D4CB01FC10C1C91822BCA6849F8386402064272FCD638F1B40832A9CB10930A5F12B35C8C62B984AD1F47032B3D0796A009BBDEC13BDE9F3BE077C40A9
310
2BB0261D5C2FDE8DD3F93C7589A2533618DC1D69635BD9ACE6668BEBB90E7A292F4C63EC7FD46459952C6192F1EF153F504B03041400060808006598D5426D57C29B7E0000009D0000000B0000006662782F636E782E786D6C4DCCD10A83201886E15B91FFDCA5AB69811ACCEC3E625948A6C3E5D8E5AF46073BFAE0E1E315
310
ED67F5E86DD3CBC520815E08201B1E7174619690B709D7805A25528CDBDF0D5018562BE16050624E313F4F1AED3464BFEDEA5D584E2455D9F1AB36981B53E38A52831BC308EE7AC6F5BD6F58A96F502851FC4AFB1E61F505504B03041400060808006598D5426888A67F2C01000014020000310000006662782F3034334437
310
3243452D374545382D343131452D394536302D4446363743424639363343352F636F72652E786D6C8D515B6E833010BC8AE5AF5495C1060221328ED4849CA01720E0502BC1467E54397ED78548ED5F7EBCD6ECCCECD8CB0F8FE98EBEA575CAE806B3846224756F06A5C706077F253B8C0E825B63FC1F1A46BA9B6483238C05
310
1FAD09F30AF5467BA93DA0DA0C72053BE7A4C7A8BFC3A5C1AEFF92539774C103C3DD92B9EB6FDD281396401B78823B6F21005A86C4130B5AE4A72A3BB6A46ADB1D29186B49DD96949CCE6575FC38D7657EDCF274110A1E821A56B91A208EBA2A695F358962C1BD9A9EF17B2B3B2F072C32CA72424B92B14F56EF69BE67F49D
310
6EF739E569A4FF13857978511494F679B6C65D640E0BC6D3A521F860C2E5FE0C231FB3B11EC5791B27FB3778554219ABB29A8164A1C207806759AC9ECE1B0B1FBCB95D809D032B1A9785E069DC1194DF05428DFB143F504B03041400060808006598D54233B5FC9D5601000033030000300000006662782F30343344373243
310
452D374545382D343131452D394536302D4446363743424639363343352F636E782E786D6CBD93CD6EC32010845F0571ADFC439C46698489D4439FA0875E316C1A1A0C16E0AA79FB2E094973C9A152D50BB2668799D527CCB75FA3259F10A2F1AEA7AC6E2901A7BC36EEBDA773DA556B4AB68207EFD38D8D122747E86996A9
310
E0EFC1CF539134ECE46C13AAD6B8431103443F070511E57C9358AFA4C50070D58C228C03680D9A5C8DF8B58380ABA0381C49DA0379797E237EF80095226F728AE04DEE103C9FA5E9C64489B232C69E46B58751D6724E5E433CD45A2659B3FAD27567A79F24922F5C2AE760482EEF693EA9281BD5C8913738143CA680F48A29
310
1D27A0424E93354A2684DC9C8C678FE0B37169B52C5E83E003BABBC56ABDC6B0D34CF06446280E154026D0542C5AD655EDAA5AB057F6B469BB0D6B1FDAC74DD7F226DB051FBCB7E512C640F01351DE2570890AC69B3CBE87AFF888360159FB70FC054804505ACF74AE197FC987ADBAE5F21FF934A7F78DB802FE05E21B504B
310
03041400060808006598D542AB87FBF1620700009A1B0000340000006662782F30343344373243452D374545382D343131452D394536302D4446363743424639363343352F6F626A656374732E786D6CED59DD739B3810FF5718EEE5EEC1D8D84E9BDC103A89D3743CBDB49DFADAB907CF3032C8441721184924F1FDF5B7FA
310
00033109BEE6DEFA6003425AEDFEF6534BF0EE31A3CE3DE682E4ECDCF5BD89EB6016E70961E9B95BCAEDE8D475DE8501CF73D998E63A0C65F8DC55C36E18A43C2F0B3B94E02D2AA9EC8C5E5FFEE5881833EC3A3145429CBB22BEC519F25029F3048B3B2F411279E9F6D1F33D33B14D36E5A8B8ED102D10C74C02A730CE808A
310
6398F2DB8F13771C0663F53E0CD4BF9D351B346BDE3F6BACA56E7349989088C54F58EA90990D6269E6CFAFDE4F4FCE4627F3F96C347F33F54797D7975723FFED6CB278B3589C5DBC3F03F636794EAD4C092E304B407F3B37F483B17A538B6E1138C4759C3386630D2440A5C5EA122458C0560DF826ED475F49D478AD256C3C
310
CFD57BCB426378D6A6D2376B18102DBA2088DDAE92B8BA36E5CB377F83E0628851728125702B2407ED5A783878851B4E82B1190D83CD5E17443819929813441D4A361C71500A4C5553C2C02CB06494737020E52809B4E6CCEBB66D8167BEEC3A87B8DC96942ACF7043ED5811B81F96427346FEC17CCF7D1319E009A42D0993
310
A7964BB92BB01B9E05633D1806EA329BDA970648674B512A3422E66D47D08572FDE5951B7EBCDE3CAE543838BC79C1F30273A98C4EE951F305866CAF0A25BBAD3F48736A01086340B52BF7A07C05E43F41F4D8B3027AE3E471FE38B77325474C6C739E816E9C89339AC0DFC4F1F5BFBA6FDC05E37A715B7B7D78829B2AA84E
310
7F1CCFB60C1A2BCB7F03CE30B80783CFF9CCBE5AC588823DDF100600292371680E4310DAB79B47375C42E084400FAB100D7D1019D8BD87DB606CC9ECB552B997F53A0688DA3D66439404B0698B04367AF4F401B20727F15E4D4D11FBE03D791573BDB85A7D5C957C8B627C637DFA0A6F092312B2E661865A98B724BAC3BB87
310
9C2720E853BC574DBC33BB9500B415E60AF8B402413DEC776E6D10C3BA3457E1267861071042E5EA06FD1B22624C2962382FAB7DEBE8A60CB5F6785B33B8E1D4403C9B764C98E37BA2AA0A709AFD8C16A390F7634E0A05A21B7E3092D541D3EB91EEDBF21358643DBF67D69241E86588FEA983D6011C5A965D216D81A805DE
310
ECC3799CD39C479B5D64229D0BB504B0D1F696EF2DA210EB8D921415F020ED775548498DB45142B6DB52405C3DC0E2F7E5A2690E136FE69F38CDFF8E33CE21DA82EF226EFDAEB347443294E2688B92BEED9ABBD5B48526D9439AE32D05B9C83D91BB08C96892E0F418688E227EF6AAD4539A0B41181690AF0E82DF4463E241
310
2031DAAC58565AED004D44946189E8310828323DE0EAB4A36BDC184A879779ACADF7398D3589FE4F16C111D492398B0894A290435E64DCF74E2086B4D1352877F0056BAB686B3168092544BC8B1E30496FE531A81BF23DB8C77024296594172806B31E40F689AF28A57678DFA0F84EE58F282EE96B1988C0741B114ACB2C82
310
1F6170F218E2DA75607A1685067113FB24CEA02843B2E4433679733279B28FA919BA21B0B1D1965008DB51868A1ED45B0151D7234E0DBEA5DEA3D44D991511CAF2920D32146FD6F5264BBEAB56457620BFAA5484B2B1226C09860161B2CEAA55CC0653D78115DC4807AA5D24505650730A7B21F1F8B53769CABD1B70EBA7AF
310
BB4106855F8FF69A11755EC160796C1506E201C9F8D60D57FA3ABA84FA3BC1C93ED557B566B30204C454242F39B12AFAB684F2C6D6686E7883A4587F3059B7BA7E5B7AD0FD08C6B0066A977AE152019D612691AA4C6ED40DFD8A2004B76898F1A5CAA9C750B948125D35227A4DFAD4D92A235A9B66C42B6E31CB33F8B13561
310
312D13BC4689B88B6E248D5644B16EA5F4325261FCAC809F3FAC3AF0C0C80091BEA8020F3F74D6DAD1852A970E1291B765B6618840106C89961ADD78054BAD462A2DD75775A680BA0B0CCCAA78FEF364D16C47FC3C59A4D6307EE86471B9FB03ED9A7D91463A8F955D1F750CA8F393A2F21AC700DD76A8A9D659C424732BBF
310
75A608826215E507576355D03004FB38FECF59BB2F0B9AED3AFC1F97B5FD2715C75159A5355975A90E54AECB660E5BA876ECFB893F9A5E4C27A3F9F5C5DBD1E9D5743E9ABF7FEB5F4FAEE1B876B9A8D1D48E1A067530D3B90B9E4D50AB86D593C500BAB222A72481D37CE2A41862BE8433FD80F639CFB080E4D96C7627B629
310
3F60F5BDE9734AB4A1B8E2E4164183980A48EB805119CBF6B8F30BB426251CB4CF5D681A7977F067ADD27520F39CBBD02A9024C6C2DB409B4935F4347148B93AF75B62800F62A94A896651FD5CAF52D8B4C27F3D65481AB072B57A1850B815D0FD6A7528346F96A7F828C12B761C24E176534AA8D68C2CFB815A18BDCD5EFD
310
46364AD89DDDFA115CF779B17C4FCF692132E893C1B34660A88E24E2A9EE772BC62C4B17575FC6D06773969F9D829629E87238A511C760CCA52AA8C08AC02A2CCD024930D5C5EFEB2F3C874F3C99A3AB22E7D7C7D337BFAD177996E5CC0CAD2FE05496C0872267750B9F7D9235140F5835D7C57A3AF1A76BDDD4B67DF66883
310
04F6545504035531A104E9981CD8E59306956D5F8E952A3AD397578E0DA2D00C3076F4A4C76B3E7239E043EA738AF218EDE795B4CFF6B5C77A2AD804878E74F82F504B03041400060800006598D542000000000000000000000000350000006662782F30343344373243452D374545382D343131452D394536302D44463637
310
43424639363343352F76657274696365732E62696E504B03041400060808006598D542F270F1330600000004000000360000006662782F30343344373243452D374545382D343131452D394536302D4446363743424639363343352F747269616E676C65732E62696E636660600000504B03041400060800006598D5420000
310
00000000000000000000370000006662782F30343344373243452D374545382D343131452D394536302D4446363743424639363343352F617474726962757465732E62696E504B03041400060808006598D542D5987DFC8F00000041010000360000006662782F30343344373243452D374545382D343131452D394536302D
310
4446363743424639363343352F6469726563746F72792E786D6C858F410EC2201045AF4266AF15DDB800BA74E7C21B903225242D6328188F2FA5C4183471359997F9FF81E89FF3C41E1816475E02DF1F80A11FC8386F25A438EECEC07A250251FC3803E6F58C12560C4AD840E95E91C151A72936F496F35732D860FE635F62
310
C8F2DA16B505C545B74125BAA2FA9E05D7CC053D063734D5C7665FD55B6B8D15D5E9BFEAFD8490FFA45E504B03041400060808006598D54272788F9EFD000000A00100003B0000006662782F30343344373243452D374545382D343131452D394536302D4446363743424639363343352F7265736F75726365732F636F7265
310
2E786D6C8D504B6E833010BD0A9A6D65B0810045C651122927E8052C332156828DFCA97AFC9A40A576D7CDCCE87D344F8F1FBFE667F689CE6B6B066039850C8DB2A336D30031DC4807D95170676DF82583CCC819075861107C72362E3BA4AC096842428D1D7107A5F7182053CF740CE0D51D6799CB1892C23FF245AA879C30
310
6779A2934E701F5C0A906D4FD609C2A1B7D129F4BCD858C163D4E3AED163FAA96F1A1D886BCBCE87AA6EC8859E1A52B79733E94EED95D08ED22BEB6AD6D09617AB59F0A0E79F8CCAA10C38822829AB086D48C93ED87B4FAB9ED1377AE82BCA8B55FEC71497F19FA6A84DA8CA3DEE66F320580AF222042FD6BED27A9599F6DA
310
ADF806504B010214000A00000800006598D5423DEE336E79000000790000001B00000000000000000000000000000000006175746F6465736B2D64657369676E2D7061636B6167652E786D6C504B010214001400060808006598D542D486FD9CA0000000F40000001300000000000000000000000000B20000005B436F6E74
310
656E745F54797065735D2E786D6C504B010214001400060808006598D54261D3A106EA0000007C010000080000000000000000000000000083010000636F72652E786D6C504B010214001400060808006598D54255019EA25F0000007C000000070000000000000000000000000093020000636E782E786D6C504B01021400
310
1400060808006598D542AFB6205866010000020300000C00000000000000000000000000170300006662782F636F72652E786D6C504B010214001400060808006598D5426D57C29B7E0000009D0000000B00000000000000000000000000A70400006662782F636E782E786D6C504B010214001400060808006598D5426888
310
A67F2C0100001402000031000000000000000000000000004E0500006662782F30343344373243452D374545382D343131452D394536302D4446363743424639363343352F636F72652E786D6C504B010214001400060808006598D54233B5FC9D56010000330300003000000000000000000000000000C90600006662782F
310
30343344373243452D374545382D343131452D394536302D4446363743424639363343352F636E782E786D6C504B010214001400060808006598D542AB87FBF1620700009A1B000034000000000000000000000000006D0800006662782F30343344373243452D374545382D343131452D394536302D444636374342463936
310
3343352F6F626A656374732E786D6C504B010214001400060800006598D5420000000000000000000000003500000000000000000000000000211000006662782F30343344373243452D374545382D343131452D394536302D4446363743424639363343352F76657274696365732E62696E504B0102140014000608080065
310
98D542F270F13306000000040000003600000000000000000000000000741000006662782F30343344373243452D374545382D343131452D394536302D4446363743424639363343352F747269616E676C65732E62696E504B010214001400060800006598D542000000000000000000000000370000000000000000000000
310
0000CE1000006662782F30343344373243452D374545382D343131452D394536302D4446363743424639363343352F617474726962757465732E62696E504B010214001400060808006598D542D5987DFC8F000000410100003600000000000000000000000000231100006662782F30343344373243452D374545382D3431
310
31452D394536302D4446363743424639363343352F6469726563746F72792E786D6C504B010214001400060808006598D54272788F9EFD000000A00100003B00000000000000000000000000061200006662782F30343344373243452D374545382D343131452D394536302D4446363743424639363343352F7265736F7572
310
6365732F636F72652E786D6C504B0506000000000E000E00800400005C1300000000
  0
XRECORD
  5
17
102
{ACAD_REACTORS
330
12
102
}
330
12
100
AcDbXrecord
280
     1
270
     1
271
     1
  0
XRECORD
  5
16
102
{ACAD_REACTORS
330
12
102
}
330
12
100
AcDbXrecord
280
     1
270
     1
271
     1
  0
XRECORD
  5
18
102
{ACAD_REACTORS
330
12
102
}
330
12
100
AcDbXrecord
280
     1
270
     1
271
     1
  0
XRECORD
  5
15
102
{ACAD_REACTORS
330
12
102
}
330
12
100
AcDbXrecord
280
     1
270
     1
271
     1
  0
XRECORD
  5
24
102
{ACAD_REACTORS
330
22
102
}
330
22
100
AcDbXrecord
280
     1
270
     1
271
     1
  0
XRECORD
  5
23
102
{ACAD_REACTORS
330
22
102
}
330
22
100
AcDbXrecord
280
     1
270
     1
271
     1
  0
XRECORD
  5
BA
102
{ACAD_REACTORS
330
22
102
}
330
22
100
AcDbXrecord
280
     1
 70
     1
 90
1959938040
 71
     1
  1
0FFA71CD-7F68-4C5E-956E-59A041268CB8
311
504B03040A00000800006398D5423DEE336E79000000790000001B0000006175746F6465736B2D64657369676E2D7061636B6167652E786D6C3C3F786D6C2076657273696F6E3D22312E302220656E636F64696E673D227574662D3822203F3E3C666F726D6174733E3C666F726D61743E687474703A2F2F736368656D612E
311
6175746F6465736B2E636F6D2F64657369676E2D7061636B6167652F323030393C2F666F726D61743E3C2F666F726D6174733E504B03041400060808006398D542D486FD9CA0000000F4000000130000005B436F6E74656E745F54797065735D2E786D6C7D8EC10E82300C865F65E91D8A1E8C310C0EEA1BF002731658846E
311
D98AC1B77784ABF1D8FE5FBFBF75BBCE937A534CCEB38643598122B6FEE978D0B0485F9C41B54DDD7D022595594E1A469170414C76A4D9A4D207E29CF43ECE46F218070CC6BECC4078ACAA135ACF422C856C0E68EA1BF5669944DDD7BCDE7B1F8E415D77AECB980613C2E4AC91FC167A2B244592486606FC29C8FD7F045B9A
311
EF7053A7E60B504B03041400060808006398D54234B7809DED0000007C01000008000000636F72652E786D6C8D90416EC3201045AF82665B6183499CD8C2448EDD9CA0174098B828315806AA1EBF3871A476D7D58CFEFC3733FAFCF43DDDD1975EBC71B6019A1140DA2A37183B3610C3151F019D045F9C0BBF6C80AC9C7403
311
AB0C828F8B8BF326296783B621A9D60D7A13A5F73A0052F7D434E0D5A79E642663480E7FCB66A96E72D4197D75098ED10CE879C40C699FB91ABD80D855B4AFAAF71E5FD8E58C7797B2C36D4B8FB864156DBBEEBC3F143DCF5758F060A6D77DB56819F400A220946152E2827ED0AA26AC268737B2AF19E1F96AFF03C579F827
311
148D0DACD8DE7D621E044D8F3C0682E76B16A93C824A75CD4DFC00504B03041400060808006398D54255019EA25F0000007C00000007000000636E782E786D6C4DCB3B0E80201045D1AD90E915ED2CF8AC45050C11660C8261F98AB1B07AC9C97D42D718D865D3E909258CFD00CCE24AC6E326A164D74DC0B4128928FF3260
311
38472BA13128B1252AC747C6BAB984FC68F0B87FE8960A5C09FE86CFB69FBA01504B03041400060808006398D5424E64C88868010000020300000C0000006662782F636F72652E786D6C8D525B6E833010BC8AE5DF0A8C212F22E3288FE604BD80030EB502363236CAF1BB3C229AAA8A222463CDECECCE0EB0DDBDAE50276D
311
AB8CCE300D238CA4CE4DA1749961EFAEC106A31D67D618F7AB0C232D6A99E11EC69C95D6F8668272A39DD40E506D0A3981A26DA5C328AFE092E136FF96B508857750D1DEC246E43751CA908640431D67ADB360008D43FA13F3EBE5CEC88873E6BD2A265615304D5D95B4982F527A4AD3CF53704ECE8760715E1D83FD9E6E82
311
5592D2FDF17858AEE31323BD9833A7EA87BBDC4AE16481791CD1248856414CBF68BA8D926DB4FE8896DB2462A42F7F12F9A67853E49576493CD91D652DE6148C0CC49F6D2122875AD1811FC219E94384D790F073D0100884ECC4A57AEC7103A893B93376014C61FC4C75A2F212A6466878181959E83C3480CDFEED13BFE8F3
311
BA077C40A14BB0261C5C2FDEF5D3D938758AA29136E8DC1D69636B51CDE6468BF3390FFA579E9BCAD877D4645A954C6192FEEFE53F504B03041400060808006398D542DD6FD1C77D0000009D0000000B0000006662782F636E782E786D6C4DCCD10A83201886E15B91FFDCA59538418D79F0DF472C0B59E9703A76F9ABD1C1
311
8E3E78F878F5F0D956F2F6F9155234C02F0C888FF73485B818A865A6572083D539A5F2770312C7CD1B3818AC5E72AACF93263F8F752DBBAE213E4E6CD54DA0E83ACA44CF698F28A86B155227B9724C4A8EE8A0B1BAF995F63DC2F60B504B03041400060808006398D5429B4223372901000013020000310000006662782F32
311
394135463533332D303534312D344646352D423239462D4237313942303737314646422F636F72652E786D6C8D51CB6EC32010FC15C42955651BFC88E30813D5077F417F806092A2C460F1A8F2F95D6A476A6FB9B06876667660D9E931DFD1B7725E5BD3639A138C949176D2E6DAE3182ED901A31367CEDAF087869111B3EA
311
718231675767E3B241D29AA04C00D4D8496DA0F05E058CE41D2E3DF6F24BCD22173100C3DFF245C89BB8AA9CE6D0061E673E380880D621E9C4BCEC3E9AB1A9AA8C3435CDEA716CB2A1ECC66C68693790B6A5E338B062157216A39E36B99E208EBE68E55E354962CE829E9FF1A55322A809F48442807D56D24FDA1D497524ED
311
3B698E156145A2FF13C5657A5114B50955B9C55D651E73CA8AB5C1D964E3F9FE0CA31E8B7501A5793BAFE41BE62427941EDAAE65C5CA84F783E5BEDE2C7DB00EFE77773B039936ABEFBEE6AC482B82F2BB3FA8699DFC07504B03041400060808006398D54290CBA8724F01000033030000300000006662782F323941354635
311
33332D303534312D344646352D423239462D4237313942303737314646422F636E782E786D6CD593BD6E032110845F05D146F7E7739CC4E2B094224F90222D076B9B9883133F51FCF6596CECB87191320D3ACD0E33AB4F1CDB7C4F867C810FDAD98176754B0958E994B6BB81A6B8AD9E29D970E69D8B37364AAC9860A059A6
311
9CEDBC4B7391146C45321155A3EDA1881E824B5E424039DF24C6496130006C9550846904A54091AB11BFB6E0711514C723897B206FAF1FC48D9F2063604D4EE1ACC91D9CE5B334DD982891468430D020F730895AA4E8148443AD441475575FBAEEECF49B44F2854B65F29AE4F281E693F2B2518D1C598343CE42F448AF98E2
311
7106CAC53C1B2D4544C8CDC978F67096B48DAB65F16A04EFD1DDADFAE512C34E33CEA29EA038A407114151BE68BBBE6A57D5A27BEF5ED66DBF6E9F1EDAC775DFB226DB391B9D33E512C680773391CE46B091F28E35797C0F5FF111A53DB276FEF8079008A0B49EE95C33FE339FE6F4BE1197C7BF80FF00504B030414000608
311
08006398D542C6E95EFBA505000080100000340000006662782F32394135463533332D303534312D344646352D423239462D4237313942303737314646422F6F626A656374732E786D6CAD57DB6EDB3810FD1541FBB2FBE08B6C2775168A0AC78E0BA3485BD468B10F060C4AA2146EA80B282A71F6EBF750A46EAE9D7A177D
311
B12C6A389C3973E642F7FD21E1D6331505CBD25BDB198E6D8BA64116B234BEB54B190DE6B6F5DE734596C98E986DA524A1B7B65AB63D371659999BA59046A4E4F268757DF797550434A5B615705214B776113CD2840C4929B390164FC39048328CA3C3D0196AC1BEDA5890FCF148694E044D252CC57A0A2D9636CAE9BF8EED
311
91E78ED477CF55BF466A7A5E6A54F9D33F9FA5852469F0C361476AA6CE6C753FB9BA195CCD66D3C1EC7AE20CEED677AB81F36E3A5E5E2F97378BFB1B1C5C48014DC6124123DBFB006C040BDC91FEE4B9254BE57462444C8046823E331529DB9B588E3BD2328D77C6C953E607599AD2A0C20A6854FE19D521CD691A22E68C16
311
B0AC83D0B8FFEA281C3B9FA7EADD1CD95DBE0C81EE8E8EA2DAF6FAD9B534F3FF860BC5250C1205550CD4581A473557C72DC27E9671F38D15564224158C708B335F10F16A7B1055229EDB53A3982C5436280F6C0F51D09FFB74411AFD9CE7A7AC8C4ACE158D6DAFCA823D7285CAA2B28CFD43456B7D1719D884582936CC8D43
311
F235A7B677A329323F629306D28A38891172B8A9764E27478E2E559E6E56B6F771ED1FB62A774F1F9E8B2CA7422AFA805A75E0EAA742C9D8E45C1439B5C13E32A505E52B90FF84546F4D41DC043BCC0E33738A14242DA24C24888D35B60663FC8C2DA7FA55FF3BFFDC51B3B91FBD737822D80AAA5F8067DF876E2C3B707AEE
311
33089F89A9716D1B108EB2F1C05200A44862F10C4BA8C3917FB0BD0DAA1CAA327611EE397019E63EE3AF3B326A5028AA933ACF14581E95C50B0A3460AB18093334F98D816D9C7E2867D5C146EC1CBC57BF84AE8BD5F6E3B6141109E883C9E9158D58CA245A5CCB9BAE413DCC7B1E3DD1D7974C8470F447BCB75DBC13735401
311
B415E60AF8B8AEE9EAA53DB97740807D71A6CA8DFB9313E0846AAC1DFD0FAC0828E724A559599FFB66FF40DBD010AB64574C6E1A4CDB58401AFDE52807D1A403C1720562D3AD9AA2393CE3DDB7CD273012F23CF3096F85FCB6F40619CFC4DE7FDDEBAA7412E9EF7D6A1B08464A0BD85EE5489DFE06F37DC8A2A82C50034FC0
311
FA7DB3EC864E550554885AAB4E9619DC476E1161385BEB45B316048D344BF70C6D136977F280AE7E206A0850293C67714179B4679C97C93E621CCD689F90FC0C1CFFDF7EBF4CF23D49B232956774F74C4773E8DBDE236FF14264F0687BDBEA39B843E90D69D886B927AC5AC909AC7AA11DAFD78B77CE723578B7BE9E0F66CB
311
ABFBC1CDD5F5FDE0EA66319E3993EBF9F26E5EC7492BF7DCBAD374131A514267734BC14CF8BE6D903EA606D8DE0391C5EE83CECEFAF96D33C428EC8EB007EDB2D9B8089F31F6D1F0E70A5AC9938A3649CE69425349540A3DA83FFC2BC198D13346AF6F1212D30BB47CFEB03D72062B17ECFBA2D29DBE1CED35AB4B95902795
311
C8C732F153C2F8D1C6582339CCD3D8E057C7A479EA3E53BFAA3713180CA645C6598832185A31CD122A510C2FE84122A105A8D71DE94373F5B860F7B31E1025F139AD2D792498917981B400B5CA40F6D7ADDF30D3A9B1EAD646B71D3EE1C7540ADB02676E6DCCE89205B418FAE8CF6A12AA94834BDD411E733F49638E515B6F
311
6ADE9B5D0A9B5E476E442E199F8C5FBA821B075046728C0D9887109DCA18CFAD6C33DF83FFE4786D8E4524FEFAA56C7C69171A67AA6390A2DA297359C00CF3648E3E2051DF76CB1956323D442EBA64BD4902AD75208988AB8B82B2CF98B4587D196140B1369FAD9C97316279B9A681A02073A9121C2C022B8CCE9C485075F9
311
E7EE8BC870914DAC350305ACDF0FF3EB3F76CB2C49B2542FED16E63A6C6D1F71B90D77280E54DD4A8ADD64EC4C76D56DC05C50F63E29E89084C513161059C11AA07BE1072FF595117D487F68E4462A14470CDDAC2CD3D866506AE8D2ADAD0A1CCC1D29B59043EA46A932A62B90BF79211855A230416094F7FE05504B030414
311
00060800006398D542000000000000000000000000350000006662782F32394135463533332D303534312D344646352D423239462D4237313942303737314646422F76657274696365732E62696E504B03041400060808006398D542F270F1330600000004000000360000006662782F32394135463533332D303534312D34
311
4646352D423239462D4237313942303737314646422F747269616E676C65732E62696E636660600000504B03041400060800006398D542000000000000000000000000370000006662782F32394135463533332D303534312D344646352D423239462D4237313942303737314646422F617474726962757465732E62696E50
311
4B03041400060808006398D542D5987DFC8F00000041010000360000006662782F32394135463533332D303534312D344646352D423239462D4237313942303737314646422F6469726563746F72792E786D6C858F410EC2201045AF4266AF15DDB800BA74E7C21B903225242D6328188F2FA5C4183471359997F9FF81E89F
311
F3C41E1816475E02DF1F80A11FC8386F25A438EECEC07A250251FC3803E6F58C12560C4AD840E95E91C151A72936F496F35732D860FE635F62C8F2DA16B505C545B74125BAA2FA9E05D7CC053D063734D5C7665FD55B6B8D15D5E9BFEAFD8490FFA45E504B03041400060808006398D542EBD94A25FF000000A00100003B00
311
00006662782F32394135463533332D303534312D344646352D423239462D4237313942303737314646422F7265736F75726365732F636F72652E786D6C8D504B6E833010BD0A9A6D65B0212121328E082927E8052C3349AC041BF953F5F8350995DA5D3733A3F7D13C3D7EFC9A1ED9273AAFAD6981E5143234CA8EDA5C5B88
311
E142F6901D0577D6865F32C88C9CB0850506C1AFCEC679859435014D48A8B123AEA0F41E0364EA918E16BCBAE12473194352F87B3E4B759757CC599EE8A413DC07970264AF27CB04E1D0DBE8147A5EBC58C163D4E3AAD163FAA92F1A1D884DC3CE4DF3DE93A11A4E6433D43DE93AB62775D5B0AEEF4FDB5D79E6C562163CE8
311
E927A37228038E204ACA2A426B52B20FD61C6875A0BB37BA3D5494178BFC8F29CEE33F4D519B50956BDC97CD836029C89310BC58FA4AEB5966DA4BB7E21B504B010214000A00000800006398D5423DEE336E79000000790000001B00000000000000000000000000000000006175746F6465736B2D64657369676E2D706163
311
6B6167652E786D6C504B010214001400060808006398D542D486FD9CA0000000F40000001300000000000000000000000000B20000005B436F6E74656E745F54797065735D2E786D6C504B010214001400060808006398D54234B7809DED0000007C010000080000000000000000000000000083010000636F72652E786D6C
311
504B010214001400060808006398D54255019EA25F0000007C000000070000000000000000000000000096020000636E782E786D6C504B010214001400060808006398D5424E64C88868010000020300000C000000000000000000000000001A0300006662782F636F72652E786D6C504B010214001400060808006398D542
311
DD6FD1C77D0000009D0000000B00000000000000000000000000AC0400006662782F636E782E786D6C504B010214001400060808006398D5429B42233729010000130200003100000000000000000000000000520500006662782F32394135463533332D303534312D344646352D423239462D423731394230373731464642
311
2F636F72652E786D6C504B010214001400060808006398D54290CBA8724F010000330300003000000000000000000000000000CA0600006662782F32394135463533332D303534312D344646352D423239462D4237313942303737314646422F636E782E786D6C504B010214001400060808006398D542C6E95EFBA5050000
311
801000003400000000000000000000000000670800006662782F32394135463533332D303534312D344646352D423239462D4237313942303737314646422F6F626A656374732E786D6C504B010214001400060800006398D54200000000000000000000000035000000000000000000000000005E0E00006662782F323941
311
35463533332D303534312D344646352D423239462D4237313942303737314646422F76657274696365732E62696E504B010214001400060808006398D542F270F13306000000040000003600000000000000000000000000B10E00006662782F32394135463533332D303534312D344646352D423239462D42373139423037
311
37314646422F747269616E676C65732E62696E504B010214001400060800006398D54200000000000000000000000037000000000000000000000000000B0F00006662782F32394135463533332D303534312D344646352D423239462D4237313942303737314646422F617474726962757465732E62696E504B0102140014
311
00060808006398D542D5987DFC8F000000410100003600000000000000000000000000600F00006662782F32394135463533332D303534312D344646352D423239462D4237313942303737314646422F6469726563746F72792E786D6C504B010214001400060808006398D542EBD94A25FF000000A00100003B0000000000
311
0000000000000000431000006662782F32394135463533332D303534312D344646352D423239462D4237313942303737314646422F7265736F75726365732F636F72652E786D6C504B0506000000000E000E00800400009B1100000000
310
504B03040A00000800006398D5423DEE336E79000000790000001B0000006175746F6465736B2D64657369676E2D7061636B6167652E786D6C3C3F786D6C2076657273696F6E3D22312E302220656E636F64696E673D227574662D3822203F3E3C666F726D6174733E3C666F726D61743E687474703A2F2F736368656D612E
310
6175746F6465736B2E636F6D2F64657369676E2D7061636B6167652F323030393C2F666F726D61743E3C2F666F726D6174733E504B03041400060808006398D542D486FD9CA0000000F4000000130000005B436F6E74656E745F54797065735D2E786D6C7D8EC10E82300C865F65E91D8A1E8C310C0EEA1BF002731658846E
310
D98AC1B77784ABF1D8FE5FBFBF75BBCE937A534CCEB38643598122B6FEE978D0B0485F9C41B54DDD7D022595594E1A469170414C76A4D9A4D207E29CF43ECE46F218070CC6BECC4078ACAA135ACF422C856C0E68EA1BF5669944DDD7BCDE7B1F8E415D77AECB980613C2E4AC91FC167A2B244592486606FC29C8FD7F045B9A
310
EF7053A7E60B504B03041400060808006398D54217663B02EB0000007C01000008000000636F72652E786D6C8D90DD6E842010855F85CC6D83824AAD06D9986D7982BE0041D625BB821168FAF8C5FD49DABB5ECDE4CCF96626871FBE972BFA325BB0DE0D400B02C838ED27EBE601523CE1374007C137EFE32F1B20A71633C0
310
2E83E0F3E6D3FA90B477D1B89855E727F31055082602D2D7DC0C10F4D92CAA50296647B814ABD217359B823EBB0CA76427743F62A7BCCF9EACD940B4924A397E3498B592E046D2168FECC8702D8F9D7CEFD8D8358C973B2C78B4CBF3BEDE8C8A660251115A63F28A2BFA49BB9ED43D695F08EB6BC2CBDDFE074AEBF44F2859
310
17EBEAF1EE1D0B20687EE43610BCDCB3C8E51654AE7B6EE207504B03041400060808006398D54255019EA25F0000007C00000007000000636E782E786D6C4DCB3B0E80201045D1AD90E915ED2CF8AC45050C11660C8261F98AB1B07AC9C97D42D718D865D3E909258CFD00CCE24AC6E326A164D74DC0B4128928FF32603847
310
2BA13128B1252AC747C6BAB984FC68F0B87FE8960A5C09FE86CFB69FBA01504B03041400060808006398D542A42E3FB867010000020300000C0000006662782F636F72652E786D6C8D525B6E833010BC8AE5DF0A6C5EA544C651949613F4020E3814056C646C94E37779443455144548C69AD9D99D1D60FB6BD7A2519AA1D1
310
2AC7814F3192AAD455A3EA1C3B7BF63E30DA7366B4B67FCA3052A293399E60CC596DB4EB57A8D4CA4A650155BA922B2886415A8CCA162E391ECA1FD9095F380B15C3C5EF457911B5F4031F68A8E36CB0060CA065C874627E3E5D195970CE9C6BAA956D2A98D69C1B69304F8BA0280E5FB197A405F5E22248BD43724CBCA838
310
66C567961CB23861641273669BEEE6AE34525859611ED220F2E8BB1706DF41B6A3D18EA66F34D9459491A9FC4EE4FAEA45916B948DC2D5EE221B300FC0C84CFCDB1622B2681023F8219C91294478CD09DF070D8140C8569CDADB1E178046595A6D62602AED366A14AD933095A2F9616461A1F3DC00367BD8277CD2E7790FF8
310
8042D5604D58B89E9C9DA6B365EA1A452F8D37DA2B52DA74A2DDCC2D16B7731BF4505EEA569B57D4645D95AC6192E9EFE5BF504B03041400060808006398D54270BDE5187E0000009D0000000B0000006662782F636E782E786D6C4DCCD10E82201886E15B61FF390909611BE042BD1097E858088DA075F969F3A0A36F7BF6
310
ED95ED67F5E86DD3CBC5A0809E08201BEE7172615150F28C1B40AD9629C6FC770314C6D52AD819B45C522CCF83263B8FC5E74DBD0B8F03051D0C177D87992135667DD3E12BE7175C939B61449C0D1D04545A56BFD2B67B587F01504B03041400060808006398D54234CED41A2B01000014020000310000006662782F373145
310
42353744432D344230332D344438432D393535362D3330414234303732423145372F636F72652E786D6C8D515B6EC23010BC4AE42FAA2A891DE705728C1AE006BD80710CB52076E447C5F1BB6982D4FEF1E3B566676647BB6CFF18EFC9B7725E5BD3219261942823EDA0CDB543315CD216257BCE9CB5E10F0D25468CAA4333
310
8C38BB3A1BA71592D6046502A0C60E6A0585F72AA044DEE1D3212FBFD42832110330FC2D9B84BC89ABCA48066DE071E6838300C932647E116FC8A9AF9AE3212D7B4CD3F2D81ED26D55D529C51F7D899BA227A786E58B90B318F5B0CAF50071F4452BF7AAC92CE62CE8F1195F3A25821A102F30A129AED3827C92ED0ED31D6E
310
DE71B5A398E533FD9F284EC38BA2A84DA0C51A779179C409CB970667838DE7FB338C7A4CD685649EB7F14ABE218E334C8AB66C6B58C042850580675DAE9E3E58070BDEDCCEC0A6AB715D7296CF3782F27B40A8F33DF90F504B03041400060808006398D542F66C67655601000033030000300000006662782F373145423537
310
44432D344230332D344438432D393535362D3330414234303732423145372F636E782E786D6CBD93CD6EC32010845F0571ADFC17A76E1A6122F5D027E8A1570C9B84068305B86ADEBE4B42D25C72A854F582ACD96166F509B3CDD768C827F8A09DED6953D69480954E69BBEBE91CB7C58A920D67DEB97863A3C48A117A9A64
310
CAD9CEBB79CA9282AD984D44D5687BC8A287E0662F21A09C6E12E3A4301800B69851847100A54091AB11BFB6E07115148723897B20AF2FEFC40D1F206360554AE1AC4A1D9CA53337DD9828914684D0D320F7308A52CCD1290887528928CAA6BC74DDD9E92789A40B97CAD96B92CA7B9A4ECAF346257264150E390BD123BD6C
310
8AC7092817D364B41411215727E3D9C3D9AC6DEC96D9AB11BC4777BBE8562B0C3BCD388B7A84EC901E440445F9A26EDAA2EE8A45F3D63CAFEB765D3F3DD48FEBB66655B273363867F2258C01EF26229D8D6023E50DABD2F81EBEEC234A7B64EDFCF1172011406E3DD3B966FC259FA66B97CB7FE4539DDE37E2F2F817F06F50
310
4B03041400060808006398D542CD1A993462070000991B0000340000006662782F37314542353744432D344230332D344438432D393535362D3330414234303732423145372F6F626A656374732E786D6CED595B73A33614FE2B0C7D691F8C4D6C67930EA1933897F1EC647767DDDDE98367181964A246084612B9F4D7F7E8
310
02066212DC4DDFF6C106847474CE77AE3A047F3C65D479C05C909C9DB9BE37711DCCE23C212C3D734BB91D9DB8CE1F61C0F35C36A6B90E43193E73D5B01B0629CFCBC20E25788B4A2A3BA3D7177F3922C60CBB4E4C911067AE88EF70863C54CA3CC1E2DE4B90445EBA7DF27CCF4C6C934D392AEE3A440BC43193C0298C33A0
310
E218A6FCF6E3C41D87C158BD0F03F56F674D07CD9AF5CF1A6BA9DB5C12262462F10B963A64A683589AFAB3CBABA3F9E9683E9B4D47B3E3237F74717D7139F23F4C278BE3C5E2F4FCEA14D8DBE439B53225B8C02C01FD3DBBA11F8CD59B5A748BC03EAEE39C311C6B20012A2D569720C102B66AC037693FFA4AA2C66B2D61E3
310
79A6DE5B161AC3D33695BE59C38068D10541EC7695C4D5B5295FBEF91B0417438C920B2C815B213968D7C2C3C12BDC70128CCD68186C76BA20C2C990C49C20EA50B2E188835260AA9A1206668125A39C8303294749A035675EB76D0B3CF36DD7D9C7E5B6A45479861B6AC78AC0FDB0149A33F20FE63BEE9BC8004F206D4998
310
3CB15CCAE702BBE16930D68361A02ED323FBD200E96C294A8546C4BCED08BA50AEBFBC74C38FD79BA7950A07FB372F785E602E95D1293D6ABEC090ED55A164B7F507694E2D00610CA876E50E94AF80FC27881E3B56406F9C3CCD9E6676AEE488896DCE33D08D33714613F89B38BEFE57F78DBB605C2F6E6BAF0F4F705305D5
310
C98FE3D996416365F96FC019060F60F0399FDA57AB1851B0E75BC2002065240ECD610842FB76F3E4864B089C10E86115A2A10F2203BB0F701B8C2D999D562AF7B25EC70051BBC774889200366D91C0468F9E6E207B7012EFD4D414B10FDEF9BB98EBF9E5EAE3AAE45B14E35BEBD397784B18919035F733D4C2BC25D13D7E7E
310
CC790282BEC47BD5C43BB35B09405B61AE804F2B10D4C36EE7D60631AC4B73156E823776002154AE6ED0BF2522C6942286F3B2DAB78E6ECA506B8FB735831B1E1988A7471D13E6F881A8AA029C6637A3C528E4FD98934281E8863746B23A687A3DD27D5B7E028BACE7F7CC5A3208BD0CD13F75D0DA8343CBB22BA42D10B5C0
310
9B5D388F739AF368F31C9948E7422D016CB4BDE57B8B28C47AA32445053C48FB5D155252236D9490EDB6141057F7B0F87DB9689AC3C49BFA73A7F9DF71C619445BF05DC4ADDF75F6884886521C6D51D2B75D73B79AB6D0247B4873BCA520177920F23942329A24383D049A83889FBE2BF594E642108605E4ABBDE037D19878
310
10488C362B9695563B4013116558227A08028A4C0FB83AEDE81A3786D2E16D1E6BEB7D4D634DA2FF93457004B564CE2202A528E4903719F7BD39C49036BA06E50EBE606D156D2D062DA184889FA3474CD23B7908EA867C0FEE311C494A19E5058AC1AC07907DE12B4AA91DDE3728BE57F9238A4BFA5E062230DD4684D2328B
310
E047189C3C86B8761D985E45A141DCC43E893328CA902CF9904D8EE79317FB989AA11B021B1B6D0985B01D65A8E841BD1510753DE2D4E05BEA3D4ADD945911A12C2FD92043F1A65D6FB2E4BB6A556407F2AB4A45281B2BC29660181026EBAC5AC56C30751D58C18D74A07A8E04CA0A6A4E616F241EBFF6264DB977036EFDF4
310
7D37C8A0F0EBD15E33A2CE2A182C8FADC2403C2219DFB9E14A5F4717507F2738D9A5FAAAD66C568080988AE425275645DF9650DED81ACD0D6F9114EB1B9375ABEBB7A507DD8F600C6BA076A9172E15D0196612A9CAE456DDD0AF0842708B86195FAA9C7A0895F324D15523A2D7A44F9DAD32A2B56946BCE20EB33C831F5B13
310
16D332C16B9488FBE856D2684514EB564A2F2315C6AF0AF8F966D58107460688F4451578F8B1B3D68E2E54B9B49788BC2BB30D430482604BB4D4E8C62B586A355269B9BEAA3305D45D606056C5B39F278B663BE2E7C922B586F163270B9A6F10DD459B46368F95591F740AA8D393A2F21EA700DD75A8A9D649C4E4722BBEF5
310
A508626215E407176355CC3004FB38FECF49BB2F099AED3AFC1F96B4FD1705C74149A5355935A9F614AECB660A9B5C5F9F7FF01797A30FD7C727A3D9627E353A9D1F5F8DE6A7E793997F747CB2B838A9D1D47E1A06752CD3A90B9E4D4CAB86D593C5009AB222A72481C37CE2A41842BE8423FD80EE39CFB080DCD9EC7527B6
310
273F60F58369734AB4A1B8E2E40E417F980AC8EA805119CBF6B8F30B7426259CB3CF5CE81979F7F067ADD27520F19CB9D0299024C6C2DB409749F5F33471C8B83AF55B62800F62A9CA886651FD5CAF52D8B4A27F3D654816B072B55A1850B715D0FC6A3528346F96A7F820C12B761C24E176534A28D68C2CBB815A18BDCD4E
310
FD46364AD8BDDDFA095CF775B17C4FCF692132E88BC1AB4660A88E24E2A96E772BC62C4BE7975FC6D06673969F9D829629E87238A511C760CCA5AAA7C08AC02A2CCD024930D5C5EFEB2F3C872F3C99A38B22E7D7A793E3DFD68B3CCB726686D6E770284BE03B91B3BA83AF3EC91A6A07AC7AEB627D34F18FD6BAA76DDBECD1
310
0609ECA9A20806AA5A4209D23139B0CB17FD29DBBD1C2B5574A62F2F1D1B44A11760ECE8458BD77CE372C087D4D714E531DACF2B695F6D6B8FF554B0090E0DE9F05F504B03041400060800006398D542000000000000000000000000350000006662782F37314542353744432D344230332D344438432D393535362D333041
310
4234303732423145372F76657274696365732E62696E504B03041400060808006398D542F270F1330600000004000000360000006662782F37314542353744432D344230332D344438432D393535362D3330414234303732423145372F747269616E676C65732E62696E636660600000504B03041400060800006398D54200
310
0000000000000000000000370000006662782F37314542353744432D344230332D344438432D393535362D3330414234303732423145372F617474726962757465732E62696E504B03041400060808006398D542D5987DFC8F00000041010000360000006662782F37314542353744432D344230332D344438432D39353536
310
2D3330414234303732423145372F6469726563746F72792E786D6C858F410EC2201045AF4266AF15DDB800BA74E7C21B903225242D6328188F2FA5C4183471359997F9FF81E89FF3C41E1816475E02DF1F80A11FC8386F25A438EECEC07A250251FC3803E6F58C12560C4AD840E95E91C151A72936F496F35732D860FE635F
310
62C8F2DA16B505C545B74125BAA2FA9E05D7CC053D063734D5C7665FD55B6B8D15D5E9BFEAFD8490FFA45E504B03041400060808006398D542C808F1BAFE000000A00100003B0000006662782F37314542353744432D344230332D344438432D393535362D3330414234303732423145372F7265736F75726365732F636F72
310
652E786D6C8D504B6EC32010BD8A35DB0A1BE2B8AE2D4C14A5E504BD00C213172586884FD5E31712576A77DDCC8CDE47F3F4F8E16BBD569FE8837176025653A8D06A371BBB4C90E299BC407510DC3B177FC9A0B26AC5090A0C822FDEA5DB06696723DA9851EB66DC40150246A8F4351F1304FD81ABAA558A59112EF54DE98B
310
5AB06675A6B34EF0107D0E503D9E9409C26370C96B0CBC79B082A764E64D63E6FCD39C0D7A10BD64521EDF5AD2F59292BD643D3976A78EB4F234C8D7A13B0EFB8E37C52C7834EB4F46ED51459C41EC286B097D263BF6CE8691B623ED9F6837B6943745FEC7946EF33F4DC9D8D8EEB6B80F5B00C172903B217853FACAEB5E66
310
DEA55BF10D504B010214000A00000800006398D5423DEE336E79000000790000001B00000000000000000000000000000000006175746F6465736B2D64657369676E2D7061636B6167652E786D6C504B010214001400060808006398D542D486FD9CA0000000F40000001300000000000000000000000000B20000005B436F
310
6E74656E745F54797065735D2E786D6C504B010214001400060808006398D54217663B02EB0000007C010000080000000000000000000000000083010000636F72652E786D6C504B010214001400060808006398D54255019EA25F0000007C000000070000000000000000000000000094020000636E782E786D6C504B0102
310
14001400060808006398D542A42E3FB867010000020300000C00000000000000000000000000180300006662782F636F72652E786D6C504B010214001400060808006398D54270BDE5187E0000009D0000000B00000000000000000000000000A90400006662782F636E782E786D6C504B010214001400060808006398D542
310
34CED41A2B010000140200003100000000000000000000000000500500006662782F37314542353744432D344230332D344438432D393535362D3330414234303732423145372F636F72652E786D6C504B010214001400060808006398D542F66C676556010000330300003000000000000000000000000000CA0600006662
310
782F37314542353744432D344230332D344438432D393535362D3330414234303732423145372F636E782E786D6C504B010214001400060808006398D542CD1A993462070000991B000034000000000000000000000000006E0800006662782F37314542353744432D344230332D344438432D393535362D33304142343037
310
32423145372F6F626A656374732E786D6C504B010214001400060800006398D5420000000000000000000000003500000000000000000000000000221000006662782F37314542353744432D344230332D344438432D393535362D3330414234303732423145372F76657274696365732E62696E504B010214001400060808
310
006398D542F270F13306000000040000003600000000000000000000000000751000006662782F37314542353744432D344230332D344438432D393535362D3330414234303732423145372F747269616E676C65732E62696E504B010214001400060800006398D54200000000000000000000000037000000000000000000
310
00000000CF1000006662782F37314542353744432D344230332D344438432D393535362D3330414234303732423145372F617474726962757465732E62696E504B010214001400060808006398D542D5987DFC8F000000410100003600000000000000000000000000241100006662782F37314542353744432D344230332D
310
344438432D393535362D3330414234303732423145372F6469726563746F72792E786D6C504B010214001400060808006398D542C808F1BAFE000000A00100003B00000000000000000000000000071200006662782F37314542353744432D344230332D344438432D393535362D3330414234303732423145372F7265736F
310
75726365732F636F72652E786D6C504B0506000000000E000E00800400005E1300000000
  0
XRECORD
  5
27
102
{ACAD_REACTORS
330
22
102
}
330
22
100
AcDbXrecord
280
     1
270
     1
271
     1
  0
XRECORD
  5
26
102
{ACAD_REACTORS
330
22
102
}
330
22
100
AcDbXrecord
280
     1
270
     1
271
     1
  0
XRECORD
  5
28
102
{ACAD_REACTORS
330
22
102
}
330
22
100
AcDbXrecord
280
     1
270
     1
271
     1
  0
XRECORD
  5
25
102
{ACAD_REACTORS
330
22
102
}
330
22
100
AcDbXrecord
280
     1
270
     1
271
     1
  0
XRECORD
  5
E85
102
{ACAD_REACTORS
330
E84
102
}
330
E84
100
AcDbXrecord
280
     1
102
ACAD_ROUNDTRIP_2012_MLEADER_STYLE
298
     1
  0
CELLSTYLEMAP
  5
E83
102
{ACAD_REACTORS
330
E82
102
}
330
E82
100
AcDbCellStyleMap
 90
        3
300
CELLSTYLE
  1
TABLEFORMAT_BEGIN
 90
        5
170
     1
 91
        0
 92
    32768
 62
   257
 93
        1
300
CONTENTFORMAT
  1
CONTENTFORMAT_BEGIN
 90
        0
 91
        0
 92
      512
 93
        0
300

 40
0.0
140
1.0
 94
        5
 62
     0
340
55
144
0.25
309
CONTENTFORMAT_END
171
     0
 94
        0
309
TABLEFORMAT_END
  1
CELLSTYLE_BEGIN
 90
        1
 91
        1
300
_TITLE
309
CELLSTYLE_END
300
CELLSTYLE
  1
TABLEFORMAT_BEGIN
 90
        5
170
     1
 91
        0
 92
        0
 62
   257
 93
        1
300
CONTENTFORMAT
  1
CONTENTFORMAT_BEGIN
 90
        0
 91
        0
 92
      512
 93
        0
300

 40
0.0
140
1.0
 94
        5
 62
     0
340
55
144
0.18
309
CONTENTFORMAT_END
171
     0
 94
        0
309
TABLEFORMAT_END
  1
CELLSTYLE_BEGIN
 90
        2
 91
        1
300
_HEADER
309
CELLSTYLE_END
300
CELLSTYLE
  1
TABLEFORMAT_BEGIN
 90
        5
170
     1
 91
        0
 92
        0
 62
   257
 93
        1
300
CONTENTFORMAT
  1
CONTENTFORMAT_BEGIN
 90
        0
 91
        0
 92
      512
 93
        0
300

 40
0.0
140
1.0
 94
        2
 62
     0
340
55
144
0.18
309
CONTENTFORMAT_END
171
     0
 94
        0
309
TABLEFORMAT_END
  1
CELLSTYLE_BEGIN
 90
        3
 91
        2
300
_DATA
309
CELLSTYLE_END
  0
ENDSEC
  0
EOF
