  0
SECTION
  2
HEADER
  9
$ACADVER
  1
AC1024
  9
$ACADMAINTVER
 70
    63
  9
$DWGCODEPAGE
  3
ANSI_1252
  9
$AUTHOR
  1
PR
  9
$REVISIONNUMBER
  1
-
  9
$CUSTOMPROPERTYTAG
  1
Manager
  9
$CUSTOMPROPERTY
  1

  9
$CUSTOMPROPERTYTAG
  1
Company
  9
$CUSTOMPROPERTY
  1

  9
$CUSTOMPROPERTYTAG
  1
Category
  9
$CUSTOMPROPERTY
  1

  9
$CUSTOMPROPERTYTAG
  1
Part Number
  9
$CUSTOMPROPERTY
  1
HWDWA72P24F1
  9
$CUSTOMPROPERTYTAG
  1
Description
  9
$CUSTOMPROPERTY
  1
N1P PANEL MASTER VIEW
  9
$CUSTOMPROPERTYTAG
  1
Project
  9
$CUSTOMPROPERTY
  1

  9
$CUSTOMPROPERTYTAG
  1
Designer
  9
$CUSTOMPROPERTY
  1
PR
  9
$CUSTOMPROPERTYTAG
  1
Engineer
  9
$CUSTOMPROPERTY
  1

  9
$CUSTOMPROPERTYTAG
  1
Authority
  9
$CUSTOMPROPERTY
  1

  9
$CUSTOMPROPERTYTAG
  1
Cost Center
  9
$CUSTOMPROPERTY
  1

  9
$CUSTOMPROPERTYTAG
  1
Vendor
  9
$CUSTOMPROPERTY
  1

  9
$CUSTOMPROPERTYTAG
  1
User Status
  9
$CUSTOMPROPERTY
  1

  9
$CUSTOMPROPERTYTAG
  1
Design Status
  9
$CUSTOMPROPERTY
  1
WorkInProgress
  9
$CUSTOMPROPERTYTAG
  1
Checked by
  9
$CUSTOMPROPERTY
  1
NJ
  9
$CUSTOMPROPERTYTAG
  1
Engr Approved by
  9
$CUSTOMPROPERTY
  1

  9
$CUSTOMPROPERTYTAG
  1
Date Eng Approved
  9
$CUSTOMPROPERTY
  1
06/19/2013
  9
$CUSTOMPROPERTYTAG
  1
Mfg Approved by
  9
$CUSTOMPROPERTY
  1

  9
$CUSTOMPROPERTYTAG
  1
DWG. NO
  9
$CUSTOMPROPERTY
  1

  9
$CUSTOMPROPERTYTAG
  1
NUMBER OF SHEETS
  9
$CUSTOMPROPERTY
  1
1
  9
$CUSTOMPROPERTYTAG
  1
DRAWING #
  9
$CUSTOMPROPERTY
  1
1
  9
$INSBASE
 10
0.0
 20
0.0
 30
0.0
  9
$EXTMIN
 10
0.0
 20
0.0
 30
0.0
  9
$EXTMAX
 10
204.0
 20
132.0
 30
0.0
  9
$LIMMIN
 10
0.0
 20
0.0
  9
$LIMMAX
 10
204.0
 20
132.0
  9
$ORTHOMODE
 70
     0
  9
$REGENMODE
 70
     1
  9
$FILLMODE
 70
     1
  9
$QTEXTMODE
 70
     0
  9
$MIRRTEXT
 70
     0
  9
$LTSCALE
 40
12.0
  9
$ATTMODE
 70
     1
  9
$TEXTSIZE
 40
0.2
  9
$TRACEWID
 40
0.05
  9
$TEXTSTYLE
  7
Standard
  9
$CLAYER
  8
0
  9
$CELTYPE
  6
ByLayer
  9
$CECOLOR
 62
   256
  9
$CELTSCALE
 40
1.0
  9
$DISPSILH
 70
     0
  9
$DIMSCALE
 40
1.0
  9
$DIMASZ
 40
0.0708661417322835
  9
$DIMEXO
 40
0.0625
  9
$DIMDLI
 40
0.38
  9
$DIMRND
 40
0.0
  9
$DIMDLE
 40
0.0
  9
$DIMEXE
 40
0.18
  9
$DIMTP
 40
0.0
  9
$DIMTM
 40
0.0
  9
$DIMTXT
 40
0.0708661417322835
  9
$DIMCEN
 40
0.09
  9
$DIMTSZ
 40
0.0
  9
$DIMTOL
 70
     0
  9
$DIMLIM
 70
     0
  9
$DIMTIH
 70
     1
  9
$DIMTOH
 70
     1
  9
$DIMSE1
 70
     0
  9
$DIMSE2
 70
     0
  9
$DIMTAD
 70
     0
  9
$DIMZIN
 70
     0
  9
$DIMBLK
  1

  9
$DIMASO
 70
     1
  9
$DIMSHO
 70
     1
  9
$DIMPOST
  1

  9
$DIMAPOST
  1

  9
$DIMALT
 70
     0
  9
$DIMALTD
 70
     2
  9
$DIMALTF
 40
25.4
  9
$DIMLFAC
 40
1.0
  9
$DIMTOFL
 70
     0
  9
$DIMTVP
 40
0.0
  9
$DIMTIX
 70
     0
  9
$DIMSOXD
 70
     0
  9
$DIMSAH
 70
     0
  9
$DIMBLK1
  1

  9
$DIMBLK2
  1

  9
$DIMSTYLE
  2
STANDARD
  9
$DIMCLRD
 70
     0
  9
$DIMCLRE
 70
     0
  9
$DIMCLRT
 70
     0
  9
$DIMTFAC
 40
1.0
  9
$DIMGAP
 40
0.09
  9
$DIMJUST
 70
     0
  9
$DIMSD1
 70
     0
  9
$DIMSD2
 70
     0
  9
$DIMTOLJ
 70
     1
  9
$DIMTZIN
 70
     0
  9
$DIMALTZ
 70
     0
  9
$DIMALTTZ
 70
     0
  9
$DIMUPT
 70
     0
  9
$DIMDEC
 70
     4
  9
$DIMTDEC
 70
     4
  9
$DIMALTU
 70
     2
  9
$DIMALTTD
 70
     2
  9
$DIMTXSTY
  7
Standard
  9
$DIMAUNIT
 70
     0
  9
$DIMADEC
 70
     0
  9
$DIMALTRND
 40
0.0
  9
$DIMAZIN
 70
     0
  9
$DIMDSEP
 70
    46
  9
$DIMATFIT
 70
     3
  9
$DIMFRAC
 70
     0
  9
$DIMLDRBLK
  1

  9
$DIMLUNIT
 70
     2
  9
$DIMLWD
 70
    -2
  9
$DIMLWE
 70
    -2
  9
$DIMTMOVE
 70
     0
  9
$DIMFXL
 40
1.0
  9
$DIMFXLON
 70
     0
  9
$DIMJOGANG
 40
0.7853981633974483
  9
$DIMTFILL
 70
     0
  9
$DIMTFILLCLR
 70
     0
  9
$DIMARCSYM
 70
     0
  9
$DIMLTYPE
  6

  9
$DIMLTEX1
  6

  9
$DIMLTEX2
  6

  9
$DIMTXTDIRECTION
 70
     0
  9
$LUNITS
 70
     2
  9
$LUPREC
 70
     4
  9
$SKETCHINC
 40
0.1
  9
$FILLETRAD
 40
0.0
  9
$AUNITS
 70
     0
  9
$AUPREC
 70
     0
  9
$MENU
  1
.
  9
$ELEVATION
 40
0.0
  9
$PELEVATION
 40
0.0
  9
$THICKNESS
 40
0.0
  9
$LIMCHECK
 70
     0
  9
$CHAMFERA
 40
0.0
  9
$CHAMFERB
 40
0.0
  9
$CHAMFERC
 40
0.0
  9
$CHAMFERD
 40
0.0
  9
$SKPOLY
 70
     0
  9
$TDCREATE
 40
2456465.794327222
  9
$TDUCREATE
 40
2456465.565160556
  9
$TDUPDATE
 40
2456465.794327234
  9
$TDUUPDATE
 40
2456465.565160567
  9
$TDINDWG
 40
0.0000470023
  9
$TDUSRTIMER
 40
0.0000470023
  9
$USRTIMER
 70
     1
  9
$ANGBASE
 50
0.0
  9
$ANGDIR
 70
     0
  9
$PDMODE
 70
     0
  9
$PDSIZE
 40
0.0
  9
$PLINEWID
 40
0.0
  9
$SPLFRAME
 70
     0
  9
$SPLINETYPE
 70
     6
  9
$SPLINESEGS
 70
     8
  9
$HANDSEED
  5
E89
  9
$SURFTAB1
 70
     6
  9
$SURFTAB2
 70
     6
  9
$SURFTYPE
 70
     6
  9
$SURFU
 70
     6
  9
$SURFV
 70
     6
  9
$UCSBASE
  2

  9
$UCSNAME
  2

  9
$UCSORG
 10
0.0
 20
0.0
 30
0.0
  9
$UCSXDIR
 10
1.0
 20
0.0
 30
0.0
  9
$UCSYDIR
 10
0.0
 20
1.0
 30
0.0
  9
$UCSORTHOREF
  2

  9
$UCSORTHOVIEW
 70
     0
  9
$UCSORGTOP
 10
0.0
 20
0.0
 30
0.0
  9
$UCSORGBOTTOM
 10
0.0
 20
0.0
 30
0.0
  9
$UCSORGLEFT
 10
0.0
 20
0.0
 30
0.0
  9
$UCSORGRIGHT
 10
0.0
 20
0.0
 30
0.0
  9
$UCSORGFRONT
 10
0.0
 20
0.0
 30
0.0
  9
$UCSORGBACK
 10
0.0
 20
0.0
 30
0.0
  9
$PUCSBASE
  2

  9
$PUCSNAME
  2

  9
$PUCSORG
 10
0.0
 20
0.0
 30
0.0
  9
$PUCSXDIR
 10
1.0
 20
0.0
 30
0.0
  9
$PUCSYDIR
 10
0.0
 20
1.0
 30
0.0
  9
$PUCSORTHOREF
  2

  9
$PUCSORTHOVIEW
 70
     0
  9
$PUCSORGTOP
 10
0.0
 20
0.0
 30
0.0
  9
$PUCSORGBOTTOM
 10
0.0
 20
0.0
 30
0.0
  9
$PUCSORGLEFT
 10
0.0
 20
0.0
 30
0.0
  9
$PUCSORGRIGHT
 10
0.0
 20
0.0
 30
0.0
  9
$PUCSORGFRONT
 10
0.0
 20
0.0
 30
0.0
  9
$PUCSORGBACK
 10
0.0
 20
0.0
 30
0.0
  9
$USERI1
 70
     0
  9
$USERI2
 70
     0
  9
$USERI3
 70
     0
  9
$USERI4
 70
     0
  9
$USERI5
 70
     0
  9
$USERR1
 40
0.0
  9
$USERR2
 40
0.0
  9
$USERR3
 40
0.0
  9
$USERR4
 40
0.0
  9
$USERR5
 40
0.0
  9
$WORLDVIEW
 70
     1
  9
$SHADEDGE
 70
     3
  9
$SHADEDIF
 70
    70
  9
$TILEMODE
 70
     1
  9
$MAXACTVP
 70
    64
  9
$PINSBASE
 10
0.0
 20
0.0
 30
0.0
  9
$PLIMCHECK
 70
     0
  9
$PEXTMIN
 10
0.0
 20
0.0
 30
0.0
  9
$PEXTMAX
 10
204.0
 20
132.0
 30
0.0
  9
$PLIMMIN
 10
0.0
 20
0.0
  9
$PLIMMAX
 10
204.0
 20
132.0
  9
$UNITMODE
 70
     0
  9
$VISRETAIN
 70
     1
  9
$PLINEGEN
 70
     0
  9
$PSLTSCALE
 70
     1
  9
$TREEDEPTH
 70
  3020
  9
$CMLSTYLE
  2
Standard
  9
$CMLJUST
 70
     0
  9
$CMLSCALE
 40
1.0
  9
$PROXYGRAPHICS
 70
     1
  9
$MEASUREMENT
 70
     0
  9
$CELWEIGHT
370
    -1
  9
$ENDCAPS
280
     0
  9
$JOINSTYLE
280
     0
  9
$LWDISPLAY
290
     0
  9
$INSUNITS
 70
     1
  9
$HYPERLINKBASE
  1

  9
$STYLESHEET
  1

  9
$XEDIT
290
     1
  9
$CEPSNTYPE
380
     0
  9
$PSTYLEMODE
290
     1
  9
$FINGERPRINTGUID
  2
{C204A93A-37E5-4CE2-AE9E-A3C3329C817F}
  9
$VERSIONGUID
  2
{36261075-7AF3-41ED-8D19-7FD40679A137}
  9
$EXTNAMES
290
     1
  9
$PSVPSCALE
 40
0.0
  9
$OLESTARTUP
290
     0
  9
$SORTENTS
280
   127
  9
$INDEXCTL
280
     0
  9
$HIDETEXT
280
     1
  9
$XCLIPFRAME
280
     2
  9
$HALOGAP
280
     0
  9
$OBSCOLOR
 70
   257
  9
$OBSLTYPE
280
     0
  9
$INTERSECTIONDISPLAY
280
     0
  9
$INTERSECTIONCOLOR
 70
   257
  9
$DIMASSOC
280
     1
  9
$PROJECTNAME
  1

  9
$CAMERADISPLAY
290
     0
  9
$LENSLENGTH
 40
50.0
  9
$CAMERAHEIGHT
 40
0.0
  9
$STEPSPERSEC
 40
2.0
  9
$STEPSIZE
 40
6.0
  9
$3DDWFPREC
 40
2.0
  9
$PSOLWIDTH
 40
0.25
  9
$PSOLHEIGHT
 40
4.0
  9
$LOFTANG1
 40
1.570796326794896
  9
$LOFTANG2
 40
1.570796326794896
  9
$LOFTMAG1
 40
0.0
  9
$LOFTMAG2
 40
0.0
  9
$LOFTPARAM
 70
     7
  9
$LOFTNORMALS
280
     1
  9
$LATITUDE
 40
37.795
  9
$LONGITUDE
 40
-122.394
  9
$NORTHDIRECTION
 40
0.0
  9
$TIMEZONE
 70
 -8000
  9
$LIGHTGLYPHDISPLAY
280
     1
  9
$TILEMODELIGHTSYNCH
280
     1
  9
$CMATERIAL
347
11
  9
$SOLIDHIST
280
     0
  9
$SHOWHIST
280
     1
  9
$DWFFRAME
280
     2
  9
$DGNFRAME
280
     0
  9
$REALWORLDSCALE
290
     1
  9
$INTERFERECOLOR
 62
     1
  9
$INTERFEREOBJVS
345
33
  9
$INTERFEREVPVS
346
30
  9
$CSHADOW
280
     0
  9
$SHADOWPLANELOCATION
 40
0.0
  0
ENDSEC
  0
SECTION
  2
CLASSES
  0
CLASS
  1
ACDBDICTIONARYWDFLT
  2
AcDbDictionaryWithDefault
  3
ObjectDBX Classes
 90
        0
 91
        1
280
     0
281
     0
  0
CLASS
  1
MATERIAL
  2
AcDbMaterial
  3
ObjectDBX Classes
 90
     1153
 91
        3
280
     0
281
     0
  0
CLASS
  1
VISUALSTYLE
  2
AcDbVisualStyle
  3
ObjectDBX Classes
 90
     4095
 91
       24
280
     0
281
     0
  0
CLASS
  1
SCALE
  2
AcDbScale
  3
ObjectDBX Classes
 90
     1153
 91
       17
280
     0
281
     0
  0
CLASS
  1
TABLESTYLE
  2
AcDbTableStyle
  3
ObjectDBX Classes
 90
     4095
 91
        1
280
     0
281
     0
  0
CLASS
  1
MLEADERSTYLE
  2
AcDbMLeaderStyle
  3
ACDB_MLEADERSTYLE_CLASS
 90
     4095
 91
        1
280
     0
281
     0
  0
CLASS
  1
DICTIONARYVAR
  2
AcDbDictionaryVar
  3
ObjectDBX Classes
 90
        0
 91
        3
280
     0
281
     0
  0
CLASS
  1
CELLSTYLEMAP
  2
AcDbCellStyleMap
  3
ObjectDBX Classes
 90
     1152
 91
        1
280
     0
281
     0
  0
ENDSEC
  0
SECTION
  2
TABLES
  0
TABLE
  2
VPORT
  5
8
330
0
100
AcDbSymbolTable
 70
     1
  0
VPORT
  5
57
330
8
100
AcDbSymbolTableRecord
100
AcDbViewportTableRecord
  2
*Active
 70
     0
 10
0.0
 20
0.0
 11
1.0
 21
1.0
 12
102.0
 22
66.0
 13
0.0
 23
0.0
 14
1.0
 24
1.0
 15
0.0
 25
0.0
 16
0.0
 26
0.0
 36
1.0
 17
0.0
 27
0.0
 37
0.0
 40
132.0
 41
1.545454545454545
 42
50.0
 43
0.0
 44
0.0
 50
0.0
 51
0.0
 71
     0
 72
   100
 73
     1
 74
     1
 75
     0
 76
     0
 77
     0
 78
     0
281
     0
 65
     1
110
0.0
120
0.0
130
0.0
111
1.0
121
0.0
131
0.0
112
0.0
122
1.0
132
0.0
 79
     0
146
0.0
 60
     3
 61
     5
292
     1
282
     1
141
0.0
142
0.0
 63
   250
421
  3355443
  0
ENDTAB
  0
TABLE
  2
LTYPE
  5
5
330
0
100
AcDbSymbolTable
 70
    59
  0
LTYPE
  5
5B
330
5
100
AcDbSymbolTableRecord
100
AcDbLinetypeTableRecord
  2
ByBlock
 70
     0
  3

 72
    65
 73
     0
 40
0.0
  0
LTYPE
  5
5C
330
5
100
AcDbSymbolTableRecord
100
AcDbLinetypeTableRecord
  2
ByLayer
 70
     0
  3

 72
    65
 73
     0
 40
0.0
  0
LTYPE
  5
5D
330
5
100
AcDbSymbolTableRecord
100
AcDbLinetypeTableRecord
  2
Continuous
 70
     0
  3
Solid line
 72
    65
 73
     0
 40
0.0
  0
LTYPE
  5
7C
330
5
100
AcDbSymbolTableRecord
100
AcDbLinetypeTableRecord
  2
BY_STANDARD
 70
     0
  3
By Standard ____________    ____    ____   _
 72
    65
 73
     6
 40
1.240299999999999
 49
0.6614
 74
     0
 49
-0.0827
 74
     0
 49
0.1654
 74
     0
 49
-0.0827
 74
     0
 49
0.1654
 74
     0
 49
-0.0827
 74
     0
  0
LTYPE
  5
7D
330
5
100
AcDbSymbolTableRecord
100
AcDbLinetypeTableRecord
  2
CHAIN
 70
     0
  3
Chain ____ _ ____ _ ____ _ ____ _ ____ _ ____
 72
    65
 73
     4
 40
0.7087
 49
0.4724000000000001
 74
     0
 49
-0.0591
 74
     0
 49
0.1181
 74
     0
 49
-0.0591
 74
     0
  0
LTYPE
  5
7E
330
5
100
AcDbSymbolTableRecord
100
AcDbLinetypeTableRecord
  2
DASH_DOT
 70
     0
  3
Dash dot __ . __ . __ . __ . __ . __ . __ . __
 72
    65
 73
     4
 40
0.37
 49
0.24
 74
     0
 49
-0.06
 74
     0
 49
0.01
 74
     0
 49
-0.06
 74
     0
  0
LTYPE
  5
7F
330
5
100
AcDbSymbolTableRecord
100
AcDbLinetypeTableRecord
  2
DOUBLE_DASH_DOT
 70
     0
  3
Double-Dash Dot __ __ . __ __ . __ __ . __ _
 72
    65
 73
     6
 40
0.4398
 49
0.24
 74
     0
 49
-0.06
 74
     0
 49
0.0098
 74
     0
 49
-0.06
 74
     0
 49
0.01
 74
     0
 49
-0.06
 74
     0
  0
LTYPE
  5
80
330
5
100
AcDbSymbolTableRecord
100
AcDbLinetypeTableRecord
  2
DASH_TRIPLE_DOT
 70
     0
  3
Dash Triple-Dot _ . . . _ . . . _ . . . _
 72
    65
 73
     8
 40
0.51
 49
0.24
 74
     0
 49
-0.06
 74
     0
 49
0.01
 74
     0
 49
-0.06
 74
     0
 49
0.01
 74
     0
 49
-0.06
 74
     0
 49
0.01
 74
     0
 49
-0.06
 74
     0
  0
LTYPE
  5
81
330
5
100
AcDbSymbolTableRecord
100
AcDbLinetypeTableRecord
  2
DASHED
 70
     0
  3
Dashed __ __ __ __ __ __ __ __ __ __ __ __ __ _
 72
    65
 73
     2
 40
0.2067
 49
0.1654
 74
     0
 49
-0.0413
 74
     0
  0
LTYPE
  5
82
330
5
100
AcDbSymbolTableRecord
100
AcDbLinetypeTableRecord
  2
DASH_DOUBLE_DOT
 70
     0
  3
Dash Double-Dot __ . . __ . . __ . . __ . .
 72
    65
 73
     6
 40
0.4398
 49
0.24
 74
     0
 49
-0.06
 74
     0
 49
0.0098
 74
     0
 49
-0.06
 74
     0
 49
0.01
 74
     0
 49
-0.06
 74
     0
  0
LTYPE
  5
83
330
5
100
AcDbSymbolTableRecord
100
AcDbLinetypeTableRecord
  2
DASHED_SPACE
 70
     0
  3
Dashed Space __ __ __ __ __ __ __ __ __ __ __ _
 72
    65
 73
     2
 40
0.2067
 49
0.1654
 74
     0
 49
-0.0413
 74
     0
  0
LTYPE
  5
84
330
5
100
AcDbSymbolTableRecord
100
AcDbLinetypeTableRecord
  2
DOTTED
 70
     0
  3
Dotted . . . . . . . . . . . . . . . . . . . . 
 72
    65
 73
     2
 40
0.0482
 49
0.0069
 74
     0
 49
-0.0413
 74
     0
  0
LTYPE
  5
85
330
5
100
AcDbSymbolTableRecord
100
AcDbLinetypeTableRecord
  2
DOUBLE_DASH_CHAIN
 70
     0
  3
Double-Dash Chain ______  __  __  ______  __  _
 72
    65
 73
     6
 40
1.240299999999999
 49
0.6614
 74
     0
 49
-0.0827
 74
     0
 49
0.1654
 74
     0
 49
-0.0827
 74
     0
 49
0.1654
 74
     0
 49
-0.0827
 74
     0
  0
LTYPE
  5
87
330
5
100
AcDbSymbolTableRecord
100
AcDbLinetypeTableRecord
  2
DOUBLE_DASH_DOUBLE_DOT
 70
     0
  3
Double-Dash Double-dot _ _ . . _ _ . . _
 72
    65
 73
     8
 40
0.7400000000000001
 49
0.24
 74
     0
 49
-0.06
 74
     0
 49
0.24
 74
     0
 49
-0.06
 74
     0
 49
0.01
 74
     0
 49
-0.06
 74
     0
 49
0.01
 74
     0
 49
-0.06
 74
     0
  0
LTYPE
  5
88
330
5
100
AcDbSymbolTableRecord
100
AcDbLinetypeTableRecord
  2
DOUBLE_DASH_TRIPLE_DOT
 70
     0
  3
Double Dash Triple Dot __ __ . . . __ __ . .
 72
    65
 73
    10
 40
0.8100000000000001
 49
0.24
 74
     0
 49
-0.06
 74
     0
 49
0.24
 74
     0
 49
-0.06
 74
     0
 49
0.01
 74
     0
 49
-0.06
 74
     0
 49
0.01
 74
     0
 49
-0.06
 74
     0
 49
0.01
 74
     0
 49
-0.06
 74
     0
  0
LTYPE
  5
89
330
5
100
AcDbSymbolTableRecord
100
AcDbLinetypeTableRecord
  2
LONG_DASH_DOTTED
 70
     0
  3
Long Dash Dotted ____ . ____ . ____ . ____ . _
 72
    65
 73
     4
 40
0.3543
 49
0.2362
 74
     0
 49
-0.0295
 74
     0
 49
0.0591
 74
     0
 49
-0.0295
 74
     0
  0
LTYPE
  5
8A
330
5
100
AcDbSymbolTableRecord
100
AcDbLinetypeTableRecord
  2
LONG_DASH_DOUBLE_DOT
 70
     0
  3
Long Dash Double Dot ________  .  .  ________  
 72
    65
 73
     6
 40
0.6799999999999999
 49
0.48
 74
     0
 49
-0.06
 74
     0
 49
0.01
 74
     0
 49
-0.06
 74
     0
 49
0.01
 74
     0
 49
-0.06
 74
     0
  0
LTYPE
  5
8B
330
5
100
AcDbSymbolTableRecord
100
AcDbLinetypeTableRecord
  2
LONG_DASH_TRIPLE_DOT
 70
     0
  3
Long Dash Triple Dot ____ ... ____ ... ____
 72
    65
 73
     8
 40
0.3689
 49
0.2362
 74
     0
 49
-0.0295
 74
     0
 49
0.0049
 74
     0
 49
-0.0295
 74
     0
 49
0.0049
 74
     0
 49
-0.0295
 74
     0
 49
0.0049
 74
     0
 49
-0.0295
 74
     0
  0
LTYPE
  5
8C
330
5
100
AcDbSymbolTableRecord
100
AcDbLinetypeTableRecord
  2
BORDER
 70
     0
  3
Border __ __ . __ __ . __ __ . __ __ . __ __ .
 72
    65
 73
     6
 40
1.75
 49
0.5
 74
     0
 49
-0.25
 74
     0
 49
0.5
 74
     0
 49
-0.25
 74
     0
 49
0.0
 74
     0
 49
-0.25
 74
     0
  0
LTYPE
  5
8D
330
5
100
AcDbSymbolTableRecord
100
AcDbLinetypeTableRecord
  2
BORDER2
 70
     0
  3
Border (.5x) __.__.__.__.__.__.__.__.__.__.__.
 72
    65
 73
     6
 40
0.875
 49
0.25
 74
     0
 49
-0.125
 74
     0
 49
0.25
 74
     0
 49
-0.125
 74
     0
 49
0.0
 74
     0
 49
-0.125
 74
     0
  0
LTYPE
  5
8E
330
5
100
AcDbSymbolTableRecord
100
AcDbLinetypeTableRecord
  2
BORDERX2
 70
     0
  3
Border (2x) ____  ____  .  ____  ____  .  ___
 72
    65
 73
     6
 40
3.5
 49
1.0
 74
     0
 49
-0.5
 74
     0
 49
1.0
 74
     0
 49
-0.5
 74
     0
 49
0.0
 74
     0
 49
-0.5
 74
     0
  0
LTYPE
  5
8F
330
5
100
AcDbSymbolTableRecord
100
AcDbLinetypeTableRecord
  2
CENTER
 70
     0
  3
Center ____ _ ____ _ ____ _ ____ _ ____ _ ____
 72
    65
 73
     4
 40
2.0
 49
1.25
 74
     0
 49
-0.25
 74
     0
 49
0.25
 74
     0
 49
-0.25
 74
     0
  0
LTYPE
  5
90
330
5
100
AcDbSymbolTableRecord
100
AcDbLinetypeTableRecord
  2
CENTER2
 70
     0
  3
Center (.5x) ___ _ ___ _ ___ _ ___ _ ___ _ ___
 72
    65
 73
     4
 40
1.125
 49
0.75
 74
     0
 49
-0.125
 74
     0
 49
0.125
 74
     0
 49
-0.125
 74
     0
  0
LTYPE
  5
91
330
5
100
AcDbSymbolTableRecord
100
AcDbLinetypeTableRecord
  2
CENTERX2
 70
     0
  3
Center (2x) ________  __  ________  __  _____
 72
    65
 73
     4
 40
4.0
 49
2.5
 74
     0
 49
-0.5
 74
     0
 49
0.5
 74
     0
 49
-0.5
 74
     0
  0
LTYPE
  5
92
330
5
100
AcDbSymbolTableRecord
100
AcDbLinetypeTableRecord
  2
DASHDOT2
 70
     0
  3
Dash dot (.5x) _._._._._._._._._._._._._._._.
 72
    65
 73
     4
 40
0.5
 49
0.25
 74
     0
 49
-0.125
 74
     0
 49
0.0
 74
     0
 49
-0.125
 74
     0
  0
LTYPE
  5
93
330
5
100
AcDbSymbolTableRecord
100
AcDbLinetypeTableRecord
  2
DASHDOTX2
 70
     0
  3
Dash dot (2x) ____  .  ____  .  ____  .  ___
 72
    65
 73
     4
 40
2.0
 49
1.0
 74
     0
 49
-0.5
 74
     0
 49
0.0
 74
     0
 49
-0.5
 74
     0
  0
LTYPE
  5
95
330
5
100
AcDbSymbolTableRecord
100
AcDbLinetypeTableRecord
  2
DASHED2
 70
     0
  3
Dashed (.5x) _ _ _ _ _ _ _ _ _ _ _ _ _ _ _ _ _
 72
    65
 73
     2
 40
0.375
 49
0.25
 74
     0
 49
-0.125
 74
     0
  0
LTYPE
  5
96
330
5
100
AcDbSymbolTableRecord
100
AcDbLinetypeTableRecord
  2
DASHEDX2
 70
     0
  3
Dashed (2x) ____  ____  ____  ____  ____  ___
 72
    65
 73
     2
 40
1.5
 49
1.0
 74
     0
 49
-0.5
 74
     0
  0
LTYPE
  5
97
330
5
100
AcDbSymbolTableRecord
100
AcDbLinetypeTableRecord
  2
DIVIDE
 70
     0
  3
Divide ____ . . ____ . . ____ . . ____ . . ____
 72
    65
 73
     6
 40
1.25
 49
0.5
 74
     0
 49
-0.25
 74
     0
 49
0.0
 74
     0
 49
-0.25
 74
     0
 49
0.0
 74
     0
 49
-0.25
 74
     0
  0
LTYPE
  5
98
330
5
100
AcDbSymbolTableRecord
100
AcDbLinetypeTableRecord
  2
DIVIDE2
 70
     0
  3
Divide (.5x) __..__..__..__..__..__..__..__.._
 72
    65
 73
     6
 40
0.625
 49
0.25
 74
     0
 49
-0.125
 74
     0
 49
0.0
 74
     0
 49
-0.125
 74
     0
 49
0.0
 74
     0
 49
-0.125
 74
     0
  0
LTYPE
  5
99
330
5
100
AcDbSymbolTableRecord
100
AcDbLinetypeTableRecord
  2
DIVIDEX2
 70
     0
  3
Divide (2x) ________  .  .  ________  .  .  _
 72
    65
 73
     6
 40
2.5
 49
1.0
 74
     0
 49
-0.5
 74
     0
 49
0.0
 74
     0
 49
-0.5
 74
     0
 49
0.0
 74
     0
 49
-0.5
 74
     0
  0
LTYPE
  5
9A
330
5
100
AcDbSymbolTableRecord
100
AcDbLinetypeTableRecord
  2
DOT
 70
     0
  3
Dot . . . . . . . . . . . . . . . . . . . . . .
 72
    65
 73
     2
 40
0.25
 49
0.0
 74
     0
 49
-0.25
 74
     0
  0
LTYPE
  5
9B
330
5
100
AcDbSymbolTableRecord
100
AcDbLinetypeTableRecord
  2
DOT2
 70
     0
  3
Dot (.5x) .....................................
 72
    65
 73
     2
 40
0.125
 49
0.0
 74
     0
 49
-0.125
 74
     0
  0
LTYPE
  5
9C
330
5
100
AcDbSymbolTableRecord
100
AcDbLinetypeTableRecord
  2
DOTX2
 70
     0
  3
Dot (2x) .  .  .  .  .  .  .  .  .  .  .  .  . 
 72
    65
 73
     2
 40
0.5
 49
0.0
 74
     0
 49
-0.5
 74
     0
  0
LTYPE
  5
9D
330
5
100
AcDbSymbolTableRecord
100
AcDbLinetypeTableRecord
  2
HIDDEN
 70
     0
  3
Hidden __ __ __ __ __ __ __ __ __ __ __ __ __ _
 72
    65
 73
     2
 40
0.375
 49
0.25
 74
     0
 49
-0.125
 74
     0
  0
LTYPE
  5
9E
330
5
100
AcDbSymbolTableRecord
100
AcDbLinetypeTableRecord
  2
HIDDEN2
 70
     0
  3
Hidden (.5x) _ _ _ _ _ _ _ _ _ _ _ _ _ _ _ _ _
 72
    65
 73
     2
 40
0.1875
 49
0.125
 74
     0
 49
-0.0625
 74
     0
  0
LTYPE
  5
9F
330
5
100
AcDbSymbolTableRecord
100
AcDbLinetypeTableRecord
  2
HIDDENX2
 70
     0
  3
Hidden (2x) ____ ____ ____ ____ ____ ____ ____
 72
    65
 73
     2
 40
0.75
 49
0.5
 74
     0
 49
-0.25
 74
     0
  0
LTYPE
  5
A0
330
5
100
AcDbSymbolTableRecord
100
AcDbLinetypeTableRecord
  2
PHANTOM
 70
     0
  3
Phantom ______  __  __  ______  __  __  ______
 72
    65
 73
     6
 40
2.5
 49
1.25
 74
     0
 49
-0.25
 74
     0
 49
0.25
 74
     0
 49
-0.25
 74
     0
 49
0.25
 74
     0
 49
-0.25
 74
     0
  0
LTYPE
  5
A1
330
5
100
AcDbSymbolTableRecord
100
AcDbLinetypeTableRecord
  2
PHANTOM2
 70
     0
  3
Phantom (.5x) ___ _ _ ___ _ _ ___ _ _ ___ _ _
 72
    65
 73
     6
 40
1.25
 49
0.625
 74
     0
 49
-0.125
 74
     0
 49
0.125
 74
     0
 49
-0.125
 74
     0
 49
0.125
 74
     0
 49
-0.125
 74
     0
  0
LTYPE
  5
A2
330
5
100
AcDbSymbolTableRecord
100
AcDbLinetypeTableRecord
  2
PHANTOMX2
 70
     0
  3
Phantom (2x) ____________    ____    ____   _
 72
    65
 73
     6
 40
5.0
 49
2.5
 74
     0
 49
-0.5
 74
     0
 49
0.5
 74
     0
 49
-0.5
 74
     0
 49
0.5
 74
     0
 49
-0.5
 74
     0
  0
LTYPE
  5
A3
330
5
100
AcDbSymbolTableRecord
100
AcDbLinetypeTableRecord
  2
ACAD_ISO02W100
 70
     0
  3
ISO dash __ __ __ __ __ __ __ __ __ __ __ __ __
 72
    65
 73
     2
 40
0.59
 49
0.47
 74
     0
 49
-0.12
 74
     0
  0
LTYPE
  5
A4
330
5
100
AcDbSymbolTableRecord
100
AcDbLinetypeTableRecord
  2
ACAD_ISO03W100
 70
     0
  3
ISO dash space __    __    __    __    __    __
 72
    65
 73
     2
 40
1.179999999999999
 49
0.47
 74
     0
 49
-0.71
 74
     0
  0
LTYPE
  5
A5
330
5
100
AcDbSymbolTableRecord
100
AcDbLinetypeTableRecord
  2
ACAD_ISO04W100
 70
     0
  3
ISO long-dash dot ____ . ____ . ____ . ____ . _
 72
    65
 73
     4
 40
1.179999999999999
 49
0.9399999999999998
 74
     0
 49
-0.12
 74
     0
 49
0.0
 74
     0
 49
-0.12
 74
     0
  0
LTYPE
  5
A6
330
5
100
AcDbSymbolTableRecord
100
AcDbLinetypeTableRecord
  2
ACAD_ISO05W100
 70
     0
  3
ISO long-dash double-dot ____ .. ____ .. ____ .
 72
    65
 73
     6
 40
1.299999999999999
 49
0.9399999999999998
 74
     0
 49
-0.12
 74
     0
 49
0.0
 74
     0
 49
-0.12
 74
     0
 49
0.0
 74
     0
 49
-0.12
 74
     0
  0
LTYPE
  5
A7
330
5
100
AcDbSymbolTableRecord
100
AcDbLinetypeTableRecord
  2
ACAD_ISO06W100
 70
     0
  3
ISO long-dash triple-dot ____ ... ____ ... ____
 72
    65
 73
     8
 40
1.419999999999999
 49
0.9399999999999998
 74
     0
 49
-0.12
 74
     0
 49
0.0
 74
     0
 49
-0.12
 74
     0
 49
0.0
 74
     0
 49
-0.12
 74
     0
 49
0.0
 74
     0
 49
-0.12
 74
     0
  0
LTYPE
  5
A8
330
5
100
AcDbSymbolTableRecord
100
AcDbLinetypeTableRecord
  2
ACAD_ISO07W100
 70
     0
  3
ISO dot . . . . . . . . . . . . . . . . . . . .
 72
    65
 73
     2
 40
0.12
 49
0.0
 74
     0
 49
-0.12
 74
     0
  0
LTYPE
  5
A9
330
5
100
AcDbSymbolTableRecord
100
AcDbLinetypeTableRecord
  2
ACAD_ISO08W100
 70
     0
  3
ISO long-dash short-dash ____ __ ____ __ ____ _
 72
    65
 73
     4
 40
0.95
 49
0.47
 74
     0
 49
-0.12
 74
     0
 49
0.24
 74
     0
 49
-0.12
 74
     0
  0
LTYPE
  5
AA
330
5
100
AcDbSymbolTableRecord
100
AcDbLinetypeTableRecord
  2
ACAD_ISO09W100
 70
     0
  3
ISO long-dash double-short-dash ____ __ __ ____
 72
    65
 73
     6
 40
1.31
 49
0.47
 74
     0
 49
-0.12
 74
     0
 49
0.24
 74
     0
 49
-0.12
 74
     0
 49
0.24
 74
     0
 49
-0.12
 74
     0
  0
LTYPE
  5
AB
330
5
100
AcDbSymbolTableRecord
100
AcDbLinetypeTableRecord
  2
ACAD_ISO10W100
 70
     0
  3
ISO dash dot __ . __ . __ . __ . __ . __ . __ .
 72
    65
 73
     4
 40
0.71
 49
0.47
 74
     0
 49
-0.12
 74
     0
 49
0.0
 74
     0
 49
-0.12
 74
     0
  0
LTYPE
  5
AC
330
5
100
AcDbSymbolTableRecord
100
AcDbLinetypeTableRecord
  2
ACAD_ISO11W100
 70
     0
  3
ISO double-dash dot __ __ . __ __ . __ __ . __ 
 72
    65
 73
     6
 40
1.299999999999999
 49
0.47
 74
     0
 49
-0.12
 74
     0
 49
0.47
 74
     0
 49
-0.12
 74
     0
 49
0.0
 74
     0
 49
-0.12
 74
     0
  0
LTYPE
  5
AD
330
5
100
AcDbSymbolTableRecord
100
AcDbLinetypeTableRecord
  2
ACAD_ISO12W100
 70
     0
  3
ISO dash double-dot __ . . __ . . __ . . __ . .
 72
    65
 73
     6
 40
0.8299999999999998
 49
0.47
 74
     0
 49
-0.12
 74
     0
 49
0.0
 74
     0
 49
-0.12
 74
     0
 49
0.0
 74
     0
 49
-0.12
 74
     0
  0
LTYPE
  5
AE
330
5
100
AcDbSymbolTableRecord
100
AcDbLinetypeTableRecord
  2
ACAD_ISO13W100
 70
     0
  3
ISO double-dash double-dot __ __ . . __ __ . . 
 72
    65
 73
     8
 40
1.419999999999999
 49
0.47
 74
     0
 49
-0.12
 74
     0
 49
0.47
 74
     0
 49
-0.12
 74
     0
 49
0.0
 74
     0
 49
-0.12
 74
     0
 49
0.0
 74
     0
 49
-0.12
 74
     0
  0
LTYPE
  5
AF
330
5
100
AcDbSymbolTableRecord
100
AcDbLinetypeTableRecord
  2
ACAD_ISO14W100
 70
     0
  3
ISO dash triple-dot __ . . . __ . . . __ . . . 
 72
    65
 73
     8
 40
0.95
 49
0.47
 74
     0
 49
-0.12
 74
     0
 49
0.0
 74
     0
 49
-0.12
 74
     0
 49
0.0
 74
     0
 49
-0.12
 74
     0
 49
0.0
 74
     0
 49
-0.12
 74
     0
  0
LTYPE
  5
B0
330
5
100
AcDbSymbolTableRecord
100
AcDbLinetypeTableRecord
  2
ACAD_ISO15W100
 70
     0
  3
ISO double-dash triple-dot __ __ . . . __ __ . 
 72
    65
 73
    10
 40
1.539999999999999
 49
0.47
 74
     0
 49
-0.12
 74
     0
 49
0.47
 74
     0
 49
-0.12
 74
     0
 49
0.0
 74
     0
 49
-0.12
 74
     0
 49
0.0
 74
     0
 49
-0.12
 74
     0
 49
0.0
 74
     0
 49
-0.12
 74
     0
  0
LTYPE
  5
B3
330
5
100
AcDbSymbolTableRecord
100
AcDbLinetypeTableRecord
  2
FENCELINE1
 70
     0
  3
Fenceline circle ----0-----0----0-----0----0---
 72
    65
 73
     4
 40
1.45
 49
0.25
 74
     0
 49
-0.1
 74
     4
 75
   133
340
B2
 46
0.1
 50
0.0
 44
-0.1
 45
0.0
 49
-0.1
 74
     0
 49
1.0
 74
     0
  0
LTYPE
  5
B4
330
5
100
AcDbSymbolTableRecord
100
AcDbLinetypeTableRecord
  2
FENCELINE2
 70
     0
  3
Fenceline square ----[]-----[]----[]-----[]----
 72
    65
 73
     4
 40
1.45
 49
0.25
 74
     0
 49
-0.1
 74
     4
 75
   132
340
B2
 46
0.1
 50
0.0
 44
-0.1
 45
0.0
 49
-0.1
 74
     0
 49
1.0
 74
     0
  0
LTYPE
  5
B5
330
5
100
AcDbSymbolTableRecord
100
AcDbLinetypeTableRecord
  2
TRACKS
 70
     0
  3
Tracks -|-|-|-|-|-|-|-|-|-|-|-|-|-|-|-|-|-|-|-|
 72
    65
 73
     2
 40
0.3
 49
0.15
 74
     4
 75
   130
340
B2
 46
0.25
 50
0.0
 44
0.0
 45
0.0
 49
0.15
 74
     0
  0
LTYPE
  5
B6
330
5
100
AcDbSymbolTableRecord
100
AcDbLinetypeTableRecord
  2
BATTING
 70
     0
  3
Batting SSSSSSSSSSSSSSSSSSSSSSSSSSSSSSSSSSSSSSS
 72
    65
 73
     4
 40
0.4001000000000001
 49
0.0001
 74
     0
 49
-0.1
 74
     4
 75
   134
340
B2
 46
0.1
 50
0.0
 44
-0.1
 45
0.0
 49
-0.2
 74
     4
 75
   134
340
B2
 46
0.1
 50
180.0
 44
0.1
 45
0.0
 49
-0.1
 74
     0
  0
LTYPE
  5
B7
330
5
100
AcDbSymbolTableRecord
100
AcDbLinetypeTableRecord
  2
HOT_WATER_SUPPLY
 70
     0
  3
Hot water supply ---- HW ---- HW ---- HW ----
 72
    65
 73
     3
 40
0.9
 49
0.5
 74
     0
 49
-0.2
 74
     2
 75
     0
340
55
 46
0.1
 50
0.0
 44
-0.1
 45
-0.05
  9
HW
 49
-0.2
 74
     0
  0
LTYPE
  5
B8
330
5
100
AcDbSymbolTableRecord
100
AcDbLinetypeTableRecord
  2
GAS_LINE
 70
     0
  3
Gas line ----GAS----GAS----GAS----GAS----GAS---
 72
    65
 73
     3
 40
0.95
 49
0.5
 74
     0
 49
-0.2
 74
     2
 75
     0
340
55
 46
0.1
 50
0.0
 44
-0.1
 45
-0.05
  9
GAS
 49
-0.25
 74
     0
  0
LTYPE
  5
B9
330
5
100
AcDbSymbolTableRecord
100
AcDbLinetypeTableRecord
  2
ZIGZAG
 70
     0
  3
Zig zag /\/\/\/\/\/\/\/\/\/\/\/\/\/\/\/\/\/\/\/
 72
    65
 73
     4
 40
0.8001000000000001
 49
0.0001
 74
     0
 49
-0.2
 74
     4
 75
   131
340
B2
 46
0.2
 50
0.0
 44
-0.2
 45
0.0
 49
-0.4
 74
     4
 75
   131
340
B2
 46
0.2
 50
180.0
 44
0.2
 45
0.0
 49
-0.2
 74
     0
  0
ENDTAB
  0
TABLE
  2
LAYER
  5
2
330
0
100
AcDbSymbolTable
 70
    27
  0
LAYER
  5
54
330
2
100
AcDbSymbolTableRecord
100
AcDbLayerTableRecord
  2
0
 70
     0
 62
     7
  6
Continuous
370
    18
390
F
347
21
  0
LAYER
  5
C0
330
2
100
AcDbSymbolTableRecord
100
AcDbLayerTableRecord
  2
Center Mark (ANSI)
 70
     0
 62
     7
  6
Continuous
370
    15
390
F
347
21
  0
LAYER
  5
C1
330
2
100
AcDbSymbolTableRecord
100
AcDbLayerTableRecord
  2
Centerline (ANSI)
 70
     0
 62
     7
  6
Continuous
370
    15
390
F
347
21
  0
LAYER
  5
C3
330
2
100
AcDbSymbolTableRecord
100
AcDbLayerTableRecord
  2
Dimension (ANSI)
 70
     0
 62
     7
  6
Continuous
370
    13
390
F
347
21
  0
LAYER
  5
C5
330
2
100
AcDbSymbolTableRecord
100
AcDbLayerTableRecord
  2
Hidden (ANSI)
 70
     0
 62
     7
  6
DASHED
370
    15
390
F
347
21
  0
LAYER
  5
CC
330
2
100
AcDbSymbolTableRecord
100
AcDbLayerTableRecord
  2
Symbol (ANSI)
 70
     0
 62
     7
  6
Continuous
370
    18
390
F
347
21
  0
LAYER
  5
CF
330
2
100
AcDbSymbolTableRecord
100
AcDbLayerTableRecord
  2
Visible (ANSI)
 70
     0
 62
     7
  6
Continuous
370
    13
390
F
347
21
  0
LAYER
  5
D0
330
2
100
AcDbSymbolTableRecord
100
AcDbLayerTableRecord
  2
Visible Narrow (ANSI)
 70
     0
 62
     7
  6
Continuous
370
    18
390
F
347
21
  0
LAYER
  5
551
330
2
100
AcDbSymbolTableRecord
100
AcDbLayerTableRecord
  2
Defpoints
 70
     0
 62
     7
  6
Continuous
290
     0
370
    -3
390
F
347
21
  0
ENDTAB
  0
TABLE
  2
STYLE
  5
3
330
0
100
AcDbSymbolTable
 70
    18
  0
STYLE
  5
55
330
3
100
AcDbSymbolTableRecord
100
AcDbTextStyleTableRecord
  2
Standard
 70
     0
 40
0.0
 41
1.0
 50
0.0
 71
     0
 42
0.2
  3
txt
  4

  0
STYLE
  5
5A
330
3
100
AcDbSymbolTableRecord
100
AcDbTextStyleTableRecord
  2
Annotative
 70
     0
 40
0.0
 41
1.0
 50
0.0
 71
     0
 42
0.2
  3
txt
  4

1001
AcadAnnotative
1000
AnnotativeData
1002
{
1070
     1
1070
     1
1002
}
  0
STYLE
  5
B2
330
3
100
AcDbSymbolTableRecord
100
AcDbTextStyleTableRecord
  2

 70
     1
 40
0.0
 41
1.0
 50
0.0
 71
     0
 42
0.2
  3
ltypeshp.shx
  4

  0
STYLE
  5
D4
330
3
100
AcDbSymbolTableRecord
100
AcDbTextStyleTableRecord
  2
ITALICC_120
 70
     0
 40
0.0
 41
1.0
 50
0.0
 71
     0
 42
0.2
  3
italicc.shx
  4

  0
STYLE
  5
D5
330
3
100
AcDbSymbolTableRecord
100
AcDbTextStyleTableRecord
  2
Label Text (ANSI)
 70
     0
 40
0.0
 41
1.0
 50
0.0
 71
     0
 42
0.2
  3
tahoma.ttf
  4

1001
ACAD
1000
Tahoma
1071
      256
  0
STYLE
  5
D6
330
3
100
AcDbSymbolTableRecord
100
AcDbTextStyleTableRecord
  2
Note Text (ANSI)
 70
     0
 40
0.0
 41
1.0
 50
0.0
 71
     0
 42
0.2
  3
tahoma.ttf
  4

1001
ACAD
1000
Tahoma
1071
      256
  0
STYLE
  5
D7
330
3
100
AcDbSymbolTableRecord
100
AcDbTextStyleTableRecord
  2
ROMANS
 70
     0
 40
0.0
 41
1.0
 50
0.0
 71
     0
 42
0.2
  3
romans.shx
  4

  0
STYLE
  5
D8
330
3
100
AcDbSymbolTableRecord
100
AcDbTextStyleTableRecord
  2
SANSSERIF_114
 70
     0
 40
0.0
 41
1.0
 50
0.0
 71
     0
 42
0.2
  3
tahoma.ttf
  4

1001
ACAD
1000
Tahoma
1071
      256
  0
STYLE
  5
D9
330
3
100
AcDbSymbolTableRecord
100
AcDbTextStyleTableRecord
  2
SANSSERIF_117
 70
     0
 40
0.0
 41
1.0
 50
0.0
 71
     0
 42
0.2
  3
tahoma.ttf
  4

1001
ACAD
1000
Tahoma
1071
      256
  0
STYLE
  5
DA
330
3
100
AcDbSymbolTableRecord
100
AcDbTextStyleTableRecord
  2
STANDARDAM_ANSI
 70
     0
 40
0.0
 41
1.0
 50
0.0
 71
     0
 42
0.2
  3
txt.shx
  4

  0
STYLE
  5
DB
330
3
100
AcDbSymbolTableRecord
100
AcDbTextStyleTableRecord
  2
StandardAM_ANSI$0
 70
     0
 40
0.0
 41
1.0
 50
0.0
 71
     0
 42
0.2
  3
txt.shx
  4

  0
STYLE
  5
DC
330
3
100
AcDbSymbolTableRecord
100
AcDbTextStyleTableRecord
  2
STANDARDAM_ANSI$3
 70
     0
 40
0.0
 41
1.0
 50
0.0
 71
     0
 42
0.2
  3
txt.shx
  4

  0
STYLE
  5
DD
330
3
100
AcDbSymbolTableRecord
100
AcDbTextStyleTableRecord
  2
STANDARDAM_ANSI$4
 70
     0
 40
0.0
 41
1.0
 50
0.0
 71
     0
 42
0.2
  3
txt.shx
  4

  0
STYLE
  5
DE
330
3
100
AcDbSymbolTableRecord
100
AcDbTextStyleTableRecord
  2
STANDARDAM_ANSI$7
 70
     0
 40
0.0
 41
1.0
 50
0.0
 71
     0
 42
0.2
  3
txt.shx
  4

  0
STYLE
  5
DF
330
3
100
AcDbSymbolTableRecord
100
AcDbTextStyleTableRecord
  2
STANDARDAM_ANSI$SF
 70
     0
 40
0.0
 41
1.0
 50
0.0
 71
     0
 42
0.2
  3
txt.shx
  4

  0
STYLE
  5
E0
330
3
100
AcDbSymbolTableRecord
100
AcDbTextStyleTableRecord
  2
STANDARDAM_ANSI$SH
 70
     0
 40
0.0
 41
1.0
 50
0.0
 71
     0
 42
0.2
  3
txt.shx
  4

  0
STYLE
  5
E1
330
3
100
AcDbSymbolTableRecord
100
AcDbTextStyleTableRecord
  2
STANDARDSTANDARD
 70
     0
 40
0.0
 41
1.0
 50
0.0
 71
     0
 42
0.2
  3
txt.shx
  4

  0
STYLE
  5
2E1
330
3
100
AcDbSymbolTableRecord
100
AcDbTextStyleTableRecord
  2
Text Style153
 70
     0
 40
0.0
 41
1.0
 50
0.0
 71
     0
 42
0.2
  3
tahoma.ttf
  4

1001
ACAD
1000
Tahoma
1071
      256
  0
ENDTAB
  0
TABLE
  2
VIEW
  5
6
330
0
100
AcDbSymbolTable
 70
     0
  0
ENDTAB
  0
TABLE
  2
UCS
  5
7
330
0
100
AcDbSymbolTable
 70
     0
  0
ENDTAB
  0
TABLE
  2
APPID
  5
9
330
0
100
AcDbSymbolTable
 70
     3
  0
APPID
  5
56
330
9
100
AcDbSymbolTableRecord
100
AcDbRegAppTableRecord
  2
ACAD
 70
     0
  0
APPID
  5
5E
330
9
100
AcDbSymbolTableRecord
100
AcDbRegAppTableRecord
  2
AcadAnnotative
 70
     0
  0
APPID
  5
C66
330
9
100
AcDbSymbolTableRecord
100
AcDbRegAppTableRecord
  2
ACAD_DSTYLE_DIMRADIAL_EXTENSION
 70
     0
  0
ENDTAB
  0
TABLE
  2
DIMSTYLE
  5
A
330
0
100
AcDbSymbolTable
 70
    27
100
AcDbDimStyleTable
 71
     2
340
F6
340
58
  0
DIMSTYLE
105
58
330
A
100
AcDbSymbolTableRecord
100
AcDbDimStyleTableRecord
  2
STANDARD
 70
     0
 41
0.1800000071525573
 42
0.0625
140
0.1800000071525574
144
1.0
147
0.0900000035762787
176
   256
177
   256
178
   256
274
     3
340
55
371
    -1
372
    -1
  0
DIMSTYLE
105
59
330
A
100
AcDbSymbolTableRecord
100
AcDbDimStyleTableRecord
  2
Annotative
 70
     0
340
55
1001
AcadAnnotative
1000
AnnotativeData
1002
{
1070
     1
1070
     1
1002
}
  0
DIMSTYLE
105
E2
330
A
100
AcDbSymbolTableRecord
100
AcDbDimStyleTableRecord
  2
AM_ANSI
 70
     0
  4
 mm
 40
12.0
 41
0.119999997317791
 42
0.05
 43
0.5
 44
0.1
 45
0.00000001
 78
     4
 79
     2
140
0.1200000047683716
146
0.7099999189376831
147
0.0599999986588955
176
   256
177
   256
178
     2
284
     4
340
DA
371
    -1
372
    -1
  0
DIMSTYLE
105
E3
330
A
100
AcDbSymbolTableRecord
100
AcDbDimStyleTableRecord
  2
AM_ANSI$7
 70
     0
  4
 mm
 40
12.0
 41
0.119999997317791
 42
0.05
 43
0.5
 44
0.1
 45
0.00000001
 78
     4
 79
     2
140
0.1200000047683716
146
0.7099999189376831
147
0.0599999986588955
176
   256
177
   256
178
     2
284
     4
340
DA
371
    -1
372
    -1
  0
DIMSTYLE
105
E4
330
A
100
AcDbSymbolTableRecord
100
AcDbDimStyleTableRecord
  2
AM_ANSI$0
 70
     0
  4
 mm
 40
12.0
 41
0.119999997317791
 42
0.05
 43
0.5
 44
0.1
 45
0.00000001
 78
     4
 79
     2
140
0.1200000047683716
146
0.7099999189376831
147
0.0599999986588955
176
   256
177
   256
178
     2
284
     4
340
DB
371
    -1
372
    -1
  0
DIMSTYLE
105
E5
330
A
100
AcDbSymbolTableRecord
100
AcDbDimStyleTableRecord
  2
AM_ANSI$0$7
 70
     0
  4
 mm
 40
12.0
 41
0.119999997317791
 42
0.05
 43
0.5
 44
0.1
 45
0.00000001
 78
     4
 79
     2
140
0.1200000047683716
146
0.7099999189376831
147
0.0599999986588955
176
   256
177
   256
178
     2
284
     4
340
DB
371
    -1
372
    -1
  0
DIMSTYLE
105
E6
330
A
100
AcDbSymbolTableRecord
100
AcDbDimStyleTableRecord
  2
AM_ANSI$3
 70
     0
  4
 mm
 40
12.0
 41
0.119999997317791
 42
0.05
 43
0.5
 44
0.1
 45
0.00000001
 78
     4
 79
     2
140
0.1200000047683716
146
0.7099999189376831
147
0.0599999986588955
176
   256
177
   256
178
     2
284
     4
340
DC
371
    -1
372
    -1
  0
DIMSTYLE
105
E7
330
A
100
AcDbSymbolTableRecord
100
AcDbDimStyleTableRecord
  2
AM_ANSI$3$7
 70
     0
  4
 mm
 40
12.0
 41
0.119999997317791
 42
0.05
 43
0.5
 44
0.1
 45
0.00000001
 78
     4
 79
     2
140
0.1200000047683716
146
0.7099999189376831
147
0.0599999986588955
176
   256
177
   256
178
     2
284
     4
340
DC
371
    -1
372
    -1
  0
DIMSTYLE
105
E8
330
A
100
AcDbSymbolTableRecord
100
AcDbDimStyleTableRecord
  2
AM_ANSI$4
 70
     0
  4
 mm
 40
12.0
 41
0.119999997317791
 42
0.05
 43
0.5
 44
0.1
 45
0.00000001
 78
     4
 79
     2
140
0.1200000047683716
146
0.7099999189376831
147
0.0599999986588955
176
   256
177
   256
178
     2
284
     4
340
DD
371
    -1
372
    -1
  0
DIMSTYLE
105
E9
330
A
100
AcDbSymbolTableRecord
100
AcDbDimStyleTableRecord
  2
AM_ANSI$4$7
 70
     0
  4
 mm
 40
12.0
 41
0.119999997317791
 42
0.05
 43
0.5
 44
0.1
 45
0.00000001
 78
     4
 79
     2
140
0.1200000047683716
146
0.7099999189376831
147
0.0599999986588955
176
   256
177
   256
178
     2
284
     4
340
DD
371
    -1
372
    -1
  0
DIMSTYLE
105
EA
330
A
100
AcDbSymbolTableRecord
100
AcDbDimStyleTableRecord
  2
AM_ANSI$SF
 70
     0
  4
 mm
 40
12.0
 41
0.119999997317791
 42
0.05
 43
0.5
 44
0.1
 45
0.00000001
 75
     1
 76
     1
 78
     4
 79
     2
140
0.1200000047683716
146
0.7099999189376831
147
0.0599999986588955
176
   256
177
   256
178
     2
284
     4
340
DF
371
    -1
372
    -1
  0
DIMSTYLE
105
EB
330
A
100
AcDbSymbolTableRecord
100
AcDbDimStyleTableRecord
  2
AM_ANSI$SF$7
 70
     0
  4
 mm
 40
12.0
 41
0.119999997317791
 42
0.05
 43
0.5
 44
0.1
 45
0.00000001
 75
     1
 76
     1
 78
     4
 79
     2
140
0.1200000047683716
146
0.7099999189376831
147
0.0599999986588955
176
   256
177
   256
178
     2
284
     4
340
DF
371
    -1
372
    -1
  0
DIMSTYLE
105
EC
330
A
100
AcDbSymbolTableRecord
100
AcDbDimStyleTableRecord
  2
AM_ANSI$SH
 70
     0
  4
 mm
 40
12.0
 41
0.119999997317791
 42
0.05
 43
0.5
 44
0.1
 45
0.00000001
 75
     1
 76
     1
 78
     4
 79
     2
140
0.1200000047683716
146
0.7099999189376831
147
0.0599999986588955
176
   256
177
   256
178
     2
284
     4
340
E0
371
    -1
372
    -1
  0
DIMSTYLE
105
ED
330
A
100
AcDbSymbolTableRecord
100
AcDbDimStyleTableRecord
  2
AM_ANSI$SH$7
 70
     0
  4
 mm
 40
12.0
 41
0.119999997317791
 42
0.05
 43
0.5
 44
0.1
 45
0.00000001
 75
     1
 76
     1
 78
     4
 79
     2
140
0.1200000047683716
146
0.7099999189376831
147
0.0599999986588955
176
   256
177
   256
178
     2
284
     4
340
E0
371
    -1
372
    -1
  0
DIMSTYLE
105
EE
330
A
100
AcDbSymbolTableRecord
100
AcDbDimStyleTableRecord
  2
Architectural (ANSI)
 70
     0
 40
12.0
 41
0.0984251946210861
 43
0.2362204724409449
 44
0.125
 45
0.00000001
 46
0.3937007874015748
 78
     3
 79
     3
140
0.1200000047683716
147
0.031496062992126
171
     1
176
   256
177
   256
178
   256
272
     2
274
     1
276
     2
277
     4
284
    12
285
     4
286
    12
340
D6
371
    -1
372
    -1
  0
DIMSTYLE
105
EF
330
A
100
AcDbSymbolTableRecord
100
AcDbDimStyleTableRecord
  2
Architectural (ANSI)$7
 70
     0
 40
12.0
 41
0.0984251946210861
 43
0.2362204724409449
 44
0.125
 45
0.00000001
 46
0.3937007874015748
 78
     3
 79
     3
140
0.1200000047683716
147
0.031496062992126
171
     1
176
   256
177
   256
178
   256
272
     2
274
     1
276
     2
277
     4
284
    12
285
     4
286
    12
340
D6
371
    -1
372
    -1
  0
DIMSTYLE
105
F0
330
A
100
AcDbSymbolTableRecord
100
AcDbDimStyleTableRecord
  2
Default - Fraction (ANSI)
 70
     0
 40
12.0
 41
0.0984251946210861
 43
0.2362204724409449
 44
0.125
 45
0.00000001
 46
0.3937007874015748
 79
     3
140
0.1200000047683716
147
0.031496062992126
171
     1
176
   256
177
   256
178
   256
272
     2
274
     1
276
     2
277
     5
284
    12
285
     4
286
    12
340
D6
371
    -1
372
    -1
  0
DIMSTYLE
105
F1
330
A
100
AcDbSymbolTableRecord
100
AcDbDimStyleTableRecord
  2
Default - Fraction (ANSI)$7
 70
     0
 40
12.0
 41
0.0984251946210861
 43
0.2362204724409449
 44
0.125
 45
0.00000001
 46
0.3937007874015748
 79
     3
140
0.1200000047683716
147
0.031496062992126
171
     1
176
   256
177
   256
178
   256
272
     2
274
     1
276
     2
277
     5
284
    12
285
     4
286
    12
340
D6
371
    -1
372
    -1
  0
DIMSTYLE
105
F2
330
A
100
AcDbSymbolTableRecord
100
AcDbDimStyleTableRecord
  2
Default - mm (ANSI)
 70
     0
 40
12.0
 41
0.0984251946210861
 42
0.063
 43
0.2362204724409449
 44
0.125
 45
0.00000001
 46
0.3937007874015748
 73
     0
 78
     4
 79
     1
140
0.1200000047683716
143
1.0
144
25.4
147
0.031496062992126
171
     1
176
   256
177
   256
178
   256
179
     1
271
     2
272
     2
274
     1
284
     4
285
     4
340
D6
371
    -1
372
    -1
  0
DIMSTYLE
105
F3
330
A
100
AcDbSymbolTableRecord
100
AcDbDimStyleTableRecord
  2
Default - mm (ANSI)$7
 70
     0
 40
12.0
 41
0.0984251946210861
 42
0.063
 43
0.2362204724409449
 44
0.125
 45
0.00000001
 46
0.3937007874015748
 73
     0
 78
     4
 79
     1
140
0.1200000047683716
143
1.0
144
25.4
147
0.031496062992126
171
     1
176
   256
177
   256
178
   256
179
     1
271
     2
272
     2
274
     1
284
     4
285
     4
340
D6
371
    -1
372
    -1
  0
DIMSTYLE
105
F4
330
A
100
AcDbSymbolTableRecord
100
AcDbDimStyleTableRecord
  2
Default - mm [in] (ANSI)
 70
     0
  4
 in
 40
12.0
 41
0.0984251946210861
 42
0.063
 43
0.25
 44
0.125
 45
0.00000001
 46
0.3937007874015748
 73
     0
 78
     4
 79
     1
140
0.1200000047683716
143
0.03937
144
25.4
147
0.031496062992126
170
     1
171
     3
176
   256
177
   256
178
   256
179
     1
271
     2
272
     2
274
     3
284
     4
285
     4
286
     4
340
D6
371
    -1
372
    -1
  0
DIMSTYLE
105
F5
330
A
100
AcDbSymbolTableRecord
100
AcDbDimStyleTableRecord
  2
Default - mm [in] (ANSI)$7
 70
     0
  4
 in
 40
12.0
 41
0.0984251946210861
 42
0.063
 43
0.25
 44
0.125
 45
0.00000001
 46
0.3937007874015748
 73
     0
 78
     4
 79
     1
140
0.1200000047683716
143
0.03937
144
25.4
147
0.031496062992126
170
     1
171
     3
176
   256
177
   256
178
   256
179
     1
271
     2
272
     2
274
     3
284
     4
285
     4
286
     4
340
D6
371
    -1
372
    -1
  0
DIMSTYLE
105
F6
102
{ACAD_REACTORS
330
54F
330
63B
330
725
330
80F
330
90F
330
9F9
330
AE3
330
BCD
330
C87
330
D90
102
}
330
A
100
AcDbSymbolTableRecord
100
AcDbDimStyleTableRecord
  2
Default (ANSI)
 70
     0
 40
12.0
 41
0.0984251946210861
 43
0.2362204724409449
 44
0.125
 45
0.00000001
 46
0.3937007874015748
 79
     1
140
0.1200000047683716
147
0.031496062992126
171
     1
176
   256
177
   256
178
   256
271
     2
272
     2
274
     1
284
     4
285
     4
340
D6
371
    -1
372
    -1
  0
DIMSTYLE
105
F7
330
A
100
AcDbSymbolTableRecord
100
AcDbDimStyleTableRecord
  2
Default (ANSI)$7
 70
     0
 40
12.0
 41
0.0984251946210861
 43
0.2362204724409449
 44
0.125
 45
0.00000001
 46
0.3937007874015748
 79
     1
140
0.1200000047683716
147
0.031496062992126
171
     1
176
   256
177
   256
178
   256
271
     2
272
     2
274
     1
284
     4
285
     4
340
D6
371
    -1
372
    -1
  0
DIMSTYLE
105
F8
330
A
100
AcDbSymbolTableRecord
100
AcDbDimStyleTableRecord
  2
Alternate (ANSI)
 70
     0
 40
12.0
 41
0.0979999974370003
340
55
342
F9
  0
DIMSTYLE
105
10B
330
A
100
AcDbSymbolTableRecord
100
AcDbDimStyleTableRecord
  2
Datum (ANSI)
 70
     0
 40
12.0
 41
0.0979999974370003
340
55
342
F9
  0
DIMSTYLE
105
11A
330
A
100
AcDbSymbolTableRecord
100
AcDbDimStyleTableRecord
  2
Large (ANSI)
 70
     0
 40
12.0
 41
0.1959999948740005
340
55
342
F9
  0
ENDTAB
  0
TABLE
  2
BLOCK_RECORD
  5
1
330
0
100
AcDbSymbolTable
 70
    14
  0
BLOCK_RECORD
  5
6C
330
1
100
AcDbSymbolTableRecord
100
AcDbBlockTableRecord
  2
*Model_Space
340
6F
 70
     0
280
     1
281
     0
  0
BLOCK_RECORD
  5
68
330
1
100
AcDbSymbolTableRecord
100
AcDbBlockTableRecord
  2
*Paper_Space
340
6B
 70
     0
280
     1
281
     0
  0
BLOCK_RECORD
  5
70
330
1
100
AcDbSymbolTableRecord
100
AcDbBlockTableRecord
  2
*Paper_Space0
340
73
 70
     0
280
     1
281
     0
  0
BLOCK_RECORD
  5
F9
330
1
100
AcDbSymbolTableRecord
100
AcDbBlockTableRecord
  2
_Closed
340
0
 70
     0
280
     1
281
     0
  0
BLOCK_RECORD
  5
100
330
1
100
AcDbSymbolTableRecord
100
AcDbBlockTableRecord
  2
DatumFilled45
340
0
 70
     0
280
     1
281
     0
  0
BLOCK_RECORD
  5
10C
330
1
100
AcDbSymbolTableRecord
100
AcDbBlockTableRecord
  2
Filled-1
340
0
 70
     0
280
     1
281
     0
  0
BLOCK_RECORD
  5
552
330
1
100
AcDbSymbolTableRecord
100
AcDbBlockTableRecord
  2
*D4
340
0
 70
     0
280
     1
281
     0
  0
BLOCK_RECORD
  5
63C
330
1
100
AcDbSymbolTableRecord
100
AcDbBlockTableRecord
  2
*D5
340
0
 70
     0
280
     1
281
     0
  0
BLOCK_RECORD
  5
726
330
1
100
AcDbSymbolTableRecord
100
AcDbBlockTableRecord
  2
*D6
340
0
 70
     0
280
     1
281
     0
  0
BLOCK_RECORD
  5
810
330
1
100
AcDbSymbolTableRecord
100
AcDbBlockTableRecord
  2
*D7
340
0
 70
     0
280
     1
281
     0
  0
BLOCK_RECORD
  5
910
330
1
100
AcDbSymbolTableRecord
100
AcDbBlockTableRecord
  2
*D8
340
0
 70
     0
280
     1
281
     0
  0
BLOCK_RECORD
  5
9FA
330
1
100
AcDbSymbolTableRecord
100
AcDbBlockTableRecord
  2
*D9
340
0
 70
     0
280
     1
281
     0
  0
BLOCK_RECORD
  5
AE4
330
1
100
AcDbSymbolTableRecord
100
AcDbBlockTableRecord
  2
*D10
340
0
 70
     0
280
     1
281
     0
  0
BLOCK_RECORD
  5
BCE
330
1
100
AcDbSymbolTableRecord
100
AcDbBlockTableRecord
  2
*D11
340
0
 70
     0
280
     1
281
     0
  0
BLOCK_RECORD
  5
C88
330
1
100
AcDbSymbolTableRecord
100
AcDbBlockTableRecord
  2
*D12
340
0
 70
     0
280
     1
281
     0
  0
BLOCK_RECORD
  5
D91
330
1
100
AcDbSymbolTableRecord
100
AcDbBlockTableRecord
  2
*D13
340
0
 70
     0
280
     1
281
     0
  0
ENDTAB
  0
ENDSEC
  0
SECTION
  2
BLOCKS
  0
BLOCK
  5
6D
330
6C
100
AcDbEntity
  8
0
100
AcDbBlockBegin
  2
*Model_Space
 70
     0
 10
0.0
 20
0.0
 30
0.0
  3
*Model_Space
  1

  0
ENDBLK
  5
6E
330
6C
100
AcDbEntity
  8
0
100
AcDbBlockEnd
  0
BLOCK
  5
69
330
68
100
AcDbEntity
 67
     1
  8
0
100
AcDbBlockBegin
  2
*Paper_Space
 70
     0
 10
0.0
 20
0.0
 30
0.0
  3
*Paper_Space
  1

  0
ENDBLK
  5
6A
330
68
100
AcDbEntity
 67
     1
  8
0
100
AcDbBlockEnd
  0
BLOCK
  5
71
330
70
100
AcDbEntity
 67
     1
  8
0
100
AcDbBlockBegin
  2
*Paper_Space0
 70
     0
 10
0.0
 20
0.0
 30
0.0
  3
*Paper_Space0
  1

  0
ENDBLK
  5
72
330
70
100
AcDbEntity
 67
     1
  8
0
100
AcDbBlockEnd
  0
BLOCK
  5
FE
330
F9
100
AcDbEntity
  8
0
100
AcDbBlockBegin
  2
_Closed
 70
     0
 10
0.0
 20
0.0
 30
0.0
  3
_Closed
  1

  0
LINE
  5
FA
330
F9
100
AcDbEntity
  8
0
  6
ByBlock
 62
     0
370
    -2
100
AcDbLine
 10
-1.0
 20
0.1666666666666666
 30
0.0
 11
0.0
 21
0.0
 31
0.0
  0
LINE
  5
FB
330
F9
100
AcDbEntity
  8
0
  6
ByBlock
 62
     0
370
    -2
100
AcDbLine
 10
0.0
 20
0.0
 30
0.0
 11
-1.0
 21
-0.1666666666666666
 31
0.0
  0
LINE
  5
FC
330
F9
100
AcDbEntity
  8
0
  6
ByBlock
 62
     0
370
    -2
100
AcDbLine
 10
-1.0
 20
0.1666666666666666
 30
0.0
 11
-1.0
 21
-0.1666666666666666
 31
0.0
  0
LINE
  5
FD
330
F9
100
AcDbEntity
  8
0
  6
ByBlock
 62
     0
370
    -2
100
AcDbLine
 10
0.0
 20
0.0
 30
0.0
 11
-1.0
 21
0.0
 31
0.0
  0
ENDBLK
  5
FF
330
F9
100
AcDbEntity
  8
0
100
AcDbBlockEnd
  0
BLOCK
  5
101
330
100
100
AcDbEntity
  8
0
100
AcDbBlockBegin
  2
DatumFilled45
 70
     0
 10
0.0
 20
0.0
 30
0.0
  3
DatumFilled45
  1

  0
POLYLINE
  5
103
330
100
100
AcDbEntity
  8
0
 62
     0
100
AcDb2dPolyline
 66
     1
 10
0.0
 20
0.0
 30
0.0
 70
   128
  0
VERTEX
  5
104
330
103
100
AcDbEntity
  8
0
 62
     0
100
AcDbVertex
100
AcDb2dVertex
 10
0.0
 20
0.9999999999999998
 30
0.0
  0
VERTEX
  5
105
330
103
100
AcDbEntity
  8
0
 62
     0
100
AcDbVertex
100
AcDb2dVertex
 10
0.0
 20
-0.9999999999999998
 30
0.0
  0
VERTEX
  5
107
330
103
100
AcDbEntity
  8
0
 62
     0
100
AcDbVertex
100
AcDb2dVertex
 10
-0.9999999999999998
 20
0.0
 30
0.0
  0
VERTEX
  5
108
330
103
100
AcDbEntity
  8
0
 62
     0
100
AcDbVertex
100
AcDb2dVertex
 10
0.0
 20
0.9999999999999998
 30
0.0
  0
SEQEND
  5
106
330
103
100
AcDbEntity
  8
0
 62
     0
  0
SOLID
  5
10A
330
100
100
AcDbEntity
  8
0
 62
     0
100
AcDbTrace
 10
0.0
 20
0.9999999999999998
 30
0.0
 11
0.0
 21
-0.9999999999999998
 31
0.0
 12
-0.9999999999999998
 22
0.0
 32
0.0
 13
0.0
 23
0.9999999999999998
 33
0.0
  0
ENDBLK
  5
102
330
100
100
AcDbEntity
  8
0
100
AcDbBlockEnd
  0
BLOCK
  5
10D
330
10C
100
AcDbEntity
  8
0
100
AcDbBlockBegin
  2
Filled-1
 70
     0
 10
0.0
 20
0.0
 30
0.0
  3
Filled-1
  1

  0
LINE
  5
10F
330
10C
100
AcDbEntity
  8
0
 62
     0
100
AcDbLine
 10
-0.9999999999999998
 20
0.0
 30
0.0
 11
0.0
 21
0.0
 31
0.0
  0
POLYLINE
  5
110
330
10C
100
AcDbEntity
  8
0
 62
     0
100
AcDb2dPolyline
 66
     1
 10
0.0
 20
0.0
 30
0.0
 70
   128
  0
VERTEX
  5
111
330
110
100
AcDbEntity
  8
0
 62
     0
100
AcDbVertex
100
AcDb2dVertex
 10
-0.9999999999999998
 20
-0.0994897959183674
 30
0.0
  0
VERTEX
  5
112
330
110
100
AcDbEntity
  8
0
 62
     0
100
AcDbVertex
100
AcDb2dVertex
 10
0.0
 20
0.0
 30
0.0
  0
VERTEX
  5
114
330
110
100
AcDbEntity
  8
0
 62
     0
100
AcDbVertex
100
AcDb2dVertex
 10
-0.9999999999999998
 20
0.0994897959183674
 30
0.0
  0
VERTEX
  5
115
330
110
100
AcDbEntity
  8
0
 62
     0
100
AcDbVertex
100
AcDb2dVertex
 10
-0.9999999999999998
 20
-0.0994897959183674
 30
0.0
  0
SEQEND
  5
113
330
110
100
AcDbEntity
  8
0
 62
     0
  0
SOLID
  5
116
330
10C
100
AcDbEntity
  8
0
 62
     0
100
AcDbTrace
 10
-0.9999999999999998
 20
-0.0994897959183674
 30
0.0
 11
0.0
 21
0.0
 31
0.0
 12
-0.9999999999999998
 22
0.0994897959183674
 32
0.0
 13
-0.9999999999999998
 23
-0.0994897959183674
 33
0.0
  0
LINE
  5
117
330
10C
100
AcDbEntity
  8
0
 62
     0
100
AcDbLine
 10
-0.9999999999999998
 20
-0.0994897959183674
 30
0.0
 11
0.0
 21
0.0
 31
0.0
  0
LINE
  5
118
330
10C
100
AcDbEntity
  8
0
 62
     0
100
AcDbLine
 10
0.0
 20
0.0
 30
0.0
 11
-0.9999999999999998
 21
0.0994897959183674
 31
0.0
  0
LINE
  5
119
330
10C
100
AcDbEntity
  8
0
 62
     0
100
AcDbLine
 10
-0.9999999999999998
 20
0.0994897959183674
 30
0.0
 11
-0.9999999999999998
 21
-0.0994897959183674
 31
0.0
  0
ENDBLK
  5
10E
330
10C
100
AcDbEntity
  8
0
100
AcDbBlockEnd
  0
BLOCK
  5
553
330
552
100
AcDbEntity
  8
0
100
AcDbBlockBegin
  2
*D4
 70
     1
 10
0.0
 20
0.0
 30
0.0
  3
*D4
  1

  0
LINE
  5
631
330
552
100
AcDbEntity
  8
Dimension (ANSI)
440
 16777216
100
AcDbLine
 10
40.55871236183501
 20
92.28681813269055
 30
0.0
 11
40.55871236183501
 21
103.4305189200921
 31
0.0
  0
LINE
  5
632
330
552
100
AcDbEntity
  8
Dimension (ANSI)
440
 16777216
100
AcDbLine
 10
60.55871236183502
 20
92.28681813269055
 30
0.0
 11
60.55871236183502
 21
103.4305189200921
 31
0.0
  0
LINE
  5
633
330
552
100
AcDbEntity
  8
Dimension (ANSI)
440
 16777216
100
AcDbLine
 10
41.73981469728805
 20
101.9305189200921
 30
0.0
 11
47.81138410734285
 21
101.9305189200921
 31
0.0
  0
LINE
  5
634
330
552
100
AcDbEntity
  8
Dimension (ANSI)
440
 16777216
100
AcDbLine
 10
59.37761002638199
 20
101.9305189200921
 30
0.0
 11
53.30604061632719
 21
101.9305189200921
 31
0.0
  0
SOLID
  5
635
330
552
100
AcDbEntity
  8
Dimension (ANSI)
440
 16777216
100
AcDbTrace
 10
41.73981469728805
 20
102.1273693093343
 30
0.0
 11
41.73981469728805
 21
101.7336685308499
 31
0.0
 12
40.55871236183501
 22
101.9305189200921
 32
0.0
 13
40.55871236183501
 23
101.9305189200921
 33
0.0
  0
SOLID
  5
636
330
552
100
AcDbEntity
  8
Dimension (ANSI)
440
 16777216
100
AcDbTrace
 10
59.37761002638199
 20
102.1273693093343
 30
0.0
 11
59.37761002638199
 21
101.7336685308499
 31
0.0
 12
60.55871236183502
 22
101.9305189200921
 32
0.0
 13
60.55871236183502
 23
101.9305189200921
 33
0.0
  0
MTEXT
  5
637
330
552
100
AcDbEntity
  8
Dimension (ANSI)
440
 16777216
100
AcDbMText
 10
48.18933686324836
 20
102.6804987972978
 30
0.0
 40
1.440000057220458
 41
0.0
 46
0.0
 71
     1
 72
     1
  1
\A1;20.00
  7
Note Text (ANSI)
 73
     1
 44
1.0
  0
POINT
  5
638
330
552
100
AcDbEntity
  8
Defpoints
 62
     0
440
 16777216
100
AcDbPoint
 10
40.55871236183501
 20
91.53681813269056
 30
0.0
  0
POINT
  5
639
330
552
100
AcDbEntity
  8
Defpoints
 62
     0
440
 16777216
100
AcDbPoint
 10
60.55871236183502
 20
91.53681813269056
 30
0.0
  0
POINT
  5
63A
330
552
100
AcDbEntity
  8
Defpoints
 62
     0
440
 16777216
100
AcDbPoint
 10
60.55871236183502
 20
101.9305189200921
 30
0.0
  0
ENDBLK
  5
554
330
552
100
AcDbEntity
  8
0
100
AcDbBlockEnd
  0
BLOCK
  5
63D
330
63C
100
AcDbEntity
  8
0
100
AcDbBlockBegin
  2
*D5
 70
     1
 10
0.0
 20
0.0
 30
0.0
  3
*D5
  1

  0
LINE
  5
71B
330
63C
100
AcDbEntity
  8
Dimension (ANSI)
440
 16777216
100
AcDbLine
 10
40.55871236183501
 20
92.28681813269055
 30
0.0
 11
40.55871236183501
 21
98.82776884224568
 31
0.0
  0
LINE
  5
71C
330
63C
100
AcDbEntity
  8
Dimension (ANSI)
440
 16777216
100
AcDbLine
 10
41.43371236183502
 20
93.3533593934268
 30
0.0
 11
41.43371236183502
 21
98.82776884224568
 31
0.0
  0
LINE
  5
71D
330
63C
100
AcDbEntity
  8
Dimension (ANSI)
440
 16777216
100
AcDbLine
 10
42.61481469728805
 20
97.3277688422457
 30
0.0
 11
43.79591703274108
 21
97.3277688422457
 31
0.0
  0
LINE
  5
71E
330
63C
100
AcDbEntity
  8
Dimension (ANSI)
440
 16777216
100
AcDbLine
 10
39.37761002638199
 20
97.3277688422457
 30
0.0
 11
37.58623281490137
 21
97.3277688422457
 31
0.0
  0
SOLID
  5
71F
330
63C
100
AcDbEntity
  8
Dimension (ANSI)
440
 16777216
100
AcDbTrace
 10
42.61481469728805
 20
97.52461923148786
 30
0.0
 11
42.61481469728805
 21
97.13091845300352
 31
0.0
 12
41.43371236183502
 22
97.3277688422457
 32
0.0
 13
41.43371236183502
 23
97.3277688422457
 33
0.0
  0
SOLID
  5
720
330
63C
100
AcDbEntity
  8
Dimension (ANSI)
440
 16777216
100
AcDbTrace
 10
39.37761002638199
 20
97.52461923148786
 30
0.0
 11
39.37761002638199
 21
97.13091845300352
 31
0.0
 12
40.55871236183501
 22
97.3277688422457
 32
0.0
 13
40.55871236183501
 23
97.3277688422457
 33
0.0
  0
MTEXT
  5
721
330
63C
100
AcDbEntity
  8
Dimension (ANSI)
440
 16777216
100
AcDbMText
 10
33.51688974140186
 20
98.0806499955721
 30
0.0
 40
1.440000057220458
 41
0.0
 46
0.0
 71
     1
 72
     1
  1
\A1;0.88
  7
Note Text (ANSI)
 73
     1
 44
1.0
  0
POINT
  5
722
330
63C
100
AcDbEntity
  8
Defpoints
 62
     0
440
 16777216
100
AcDbPoint
 10
40.55871236183501
 20
91.53681813269056
 30
0.0
  0
POINT
  5
723
330
63C
100
AcDbEntity
  8
Defpoints
 62
     0
440
 16777216
100
AcDbPoint
 10
41.43371236183502
 20
92.60335939342679
 30
0.0
  0
POINT
  5
724
330
63C
100
AcDbEntity
  8
Defpoints
 62
     0
440
 16777216
100
AcDbPoint
 10
41.43371236183502
 20
97.3277688422457
 30
0.0
  0
ENDBLK
  5
63E
330
63C
100
AcDbEntity
  8
0
100
AcDbBlockEnd
  0
BLOCK
  5
727
330
726
100
AcDbEntity
  8
0
100
AcDbBlockBegin
  2
*D6
 70
     1
 10
0.0
 20
0.0
 30
0.0
  3
*D6
  1

  0
LINE
  5
805
330
726
100
AcDbEntity
  8
Dimension (ANSI)
440
 16777216
100
AcDbLine
 10
41.43371236183502
 20
93.3533593934268
 30
0.0
 11
41.43371236183502
 21
98.8277688422457
 31
0.0
  0
LINE
  5
806
330
726
100
AcDbEntity
  8
Dimension (ANSI)
440
 16777216
100
AcDbLine
 10
59.68371236183503
 20
93.3533593934268
 30
0.0
 11
59.68371236183503
 21
98.8277688422457
 31
0.0
  0
LINE
  5
807
330
726
100
AcDbEntity
  8
Dimension (ANSI)
440
 16777216
100
AcDbLine
 10
42.61481469728805
 20
97.3277688422457
 30
0.0
 11
47.87956409617972
 21
97.3277688422457
 31
0.0
  0
LINE
  5
808
330
726
100
AcDbEntity
  8
Dimension (ANSI)
440
 16777216
100
AcDbLine
 10
58.50261002638199
 20
97.3277688422457
 30
0.0
 11
53.23786062749031
 21
97.3277688422457
 31
0.0
  0
SOLID
  5
809
330
726
100
AcDbEntity
  8
Dimension (ANSI)
440
 16777216
100
AcDbTrace
 10
42.61481469728805
 20
97.52461923148787
 30
0.0
 11
42.61481469728805
 21
97.13091845300354
 31
0.0
 12
41.43371236183502
 22
97.3277688422457
 32
0.0
 13
41.43371236183502
 23
97.3277688422457
 33
0.0
  0
SOLID
  5
80A
330
726
100
AcDbEntity
  8
Dimension (ANSI)
440
 16777216
100
AcDbTrace
 10
58.50261002638199
 20
97.52461923148787
 30
0.0
 11
58.50261002638199
 21
97.13091845300354
 31
0.0
 12
59.68371236183503
 22
97.3277688422457
 32
0.0
 13
59.68371236183503
 23
97.3277688422457
 33
0.0
  0
MTEXT
  5
80B
330
726
100
AcDbEntity
  8
Dimension (ANSI)
440
 16777216
100
AcDbMText
 10
48.25751685208524
 20
98.08064999557212
 30
0.0
 40
1.440000057220458
 41
0.0
 46
0.0
 71
     1
 72
     1
  1
\A1;18.25
  7
Note Text (ANSI)
 73
     1
 44
1.0
  0
POINT
  5
80C
330
726
100
AcDbEntity
  8
Defpoints
 62
     0
440
 16777216
100
AcDbPoint
 10
41.43371236183502
 20
92.60335939342679
 30
0.0
  0
POINT
  5
80D
330
726
100
AcDbEntity
  8
Defpoints
 62
     0
440
 16777216
100
AcDbPoint
 10
59.68371236183503
 20
92.60335939342679
 30
0.0
  0
POINT
  5
80E
330
726
100
AcDbEntity
  8
Defpoints
 62
     0
440
 16777216
100
AcDbPoint
 10
59.68371236183503
 20
97.3277688422457
 30
0.0
  0
ENDBLK
  5
728
330
726
100
AcDbEntity
  8
0
100
AcDbBlockEnd
  0
BLOCK
  5
811
330
810
100
AcDbEntity
  8
0
100
AcDbBlockBegin
  2
*D7
 70
     1
 10
0.0
 20
0.0
 30
0.0
  3
*D7
  1

  0
LINE
  5
904
330
810
100
AcDbEntity
  8
Dimension (ANSI)
440
 16777216
100
AcDbLine
 10
39.96875362257128
 20
31.69685939342682
 30
0.0
 11
36.83255316317167
 21
31.69685939342682
 31
0.0
  0
LINE
  5
905
330
810
100
AcDbEntity
  8
Dimension (ANSI)
440
 16777216
100
AcDbLine
 10
38.90221236183501
 20
32.57185939342682
 30
0.0
 11
36.83255316317167
 21
32.57185939342682
 31
0.0
  0
LINE
  5
906
330
810
100
AcDbEntity
  8
Dimension (ANSI)
440
 16777216
100
AcDbLine
 10
38.33255316317167
 20
33.75296172887985
 30
0.0
 11
38.33255316317167
 21
34.93406406433288
 31
0.0
  0
LINE
  5
907
330
810
100
AcDbEntity
  8
Dimension (ANSI)
440
 16777216
100
AcDbLine
 10
38.33255316317167
 20
30.51575705797379
 30
0.0
 11
38.33255316317167
 21
28.25288740284113
 31
0.0
  0
LINE
  5
908
330
810
100
AcDbEntity
  8
Dimension (ANSI)
440
 16777216
100
AcDbLine
 10
38.33255316317167
 20
28.25288740284113
 30
0.0
 11
37.15145082771864
 21
28.25288740284113
 31
0.0
  0
SOLID
  5
909
330
810
100
AcDbEntity
  8
Dimension (ANSI)
440
 16777216
100
AcDbTrace
 10
38.1357027739295
 20
33.75296172887985
 30
0.0
 11
38.52940355241384
 21
33.75296172887985
 31
0.0
 12
38.33255316317167
 22
32.57185939342682
 32
0.0
 13
38.33255316317167
 23
32.57185939342682
 33
0.0
  0
SOLID
  5
90A
330
810
100
AcDbEntity
  8
Dimension (ANSI)
440
 16777216
100
AcDbTrace
 10
38.1357027739295
 20
30.51575705797379
 30
0.0
 11
38.52940355241384
 21
30.51575705797379
 31
0.0
 12
38.33255316317167
 22
31.69685939342682
 32
0.0
 13
38.33255316317167
 23
31.69685939342682
 33
0.0
  0
MTEXT
  5
90B
330
810
100
AcDbEntity
  8
Dimension (ANSI)
440
 16777216
100
AcDbMText
 10
33.08210775421912
 20
29.00576855616755
 30
0.0
 40
1.440000057220458
 41
0.0
 46
0.0
 71
     1
 72
     1
  1
\A1;0.88
  7
Note Text (ANSI)
 73
     1
 44
1.0
  0
POINT
  5
90C
330
810
100
AcDbEntity
  8
Defpoints
 62
     0
440
 16777216
100
AcDbPoint
 10
40.71875362257127
 20
31.69685939342682
 30
0.0
  0
POINT
  5
90D
330
810
100
AcDbEntity
  8
Defpoints
 62
     0
440
 16777216
100
AcDbPoint
 10
39.65221236183501
 20
32.57185939342682
 30
0.0
  0
POINT
  5
90E
330
810
100
AcDbEntity
  8
Defpoints
 62
     0
440
 16777216
100
AcDbPoint
 10
38.33255316317167
 20
32.57185939342682
 30
0.0
  0
ENDBLK
  5
812
330
810
100
AcDbEntity
  8
0
100
AcDbBlockEnd
  0
BLOCK
  5
911
330
910
100
AcDbEntity
  8
0
100
AcDbBlockBegin
  2
*D8
 70
     1
 10
0.0
 20
0.0
 30
0.0
  3
*D8
  1

  0
LINE
  5
9EF
330
910
100
AcDbEntity
  8
Dimension (ANSI)
440
 16777216
100
AcDbLine
 10
38.90221236183501
 20
32.57185939342682
 30
0.0
 11
33.42780291301612
 21
32.57185939342682
 31
0.0
  0
LINE
  5
9F0
330
910
100
AcDbEntity
  8
Dimension (ANSI)
440
 16777216
100
AcDbLine
 10
38.90221236183503
 20
61.69685939342681
 30
0.0
 11
33.42780291301613
 21
61.69685939342681
 31
0.0
  0
LINE
  5
9F1
330
910
100
AcDbEntity
  8
Dimension (ANSI)
440
 16777216
100
AcDbLine
 10
34.92780291301612
 20
33.75296172887985
 30
0.0
 11
34.92780291301612
 21
46.0064267603156
 31
0.0
  0
LINE
  5
9F2
330
910
100
AcDbEntity
  8
Dimension (ANSI)
440
 16777216
100
AcDbLine
 10
34.92780291301613
 20
60.51575705797378
 30
0.0
 11
34.92780291301613
 21
48.26229202653801
 31
0.0
  0
SOLID
  5
9F3
330
910
100
AcDbEntity
  8
Dimension (ANSI)
440
 16777216
100
AcDbTrace
 10
34.73095252377395
 20
33.75296172887985
 30
0.0
 11
35.12465330225829
 21
33.75296172887985
 31
0.0
 12
34.92780291301612
 22
32.57185939342682
 32
0.0
 13
34.92780291301612
 23
32.57185939342682
 33
0.0
  0
SOLID
  5
9F4
330
910
100
AcDbEntity
  8
Dimension (ANSI)
440
 16777216
100
AcDbTrace
 10
34.73095252377396
 20
60.51575705797378
 30
0.0
 11
35.1246533022583
 21
60.51575705797378
 31
0.0
 12
34.92780291301613
 22
61.69685939342681
 32
0.0
 13
34.92780291301613
 23
61.69685939342681
 33
0.0
  0
MTEXT
  5
9F5
330
910
100
AcDbEntity
  8
Dimension (ANSI)
440
 16777216
100
AcDbMText
 10
32.57438443309341
 20
47.88433927063251
 30
0.0
 40
1.440000057220458
 41
0.0
 46
0.0
 71
     1
 72
     1
  1
\A1;29.13
  7
Note Text (ANSI)
 73
     1
 44
1.0
  0
POINT
  5
9F6
330
910
100
AcDbEntity
  8
Defpoints
 62
     0
440
 16777216
100
AcDbPoint
 10
39.65221236183501
 20
32.57185939342682
 30
0.0
  0
POINT
  5
9F7
330
910
100
AcDbEntity
  8
Defpoints
 62
     0
440
 16777216
100
AcDbPoint
 10
39.65221236183504
 20
61.69685939342681
 30
0.0
  0
POINT
  5
9F8
330
910
100
AcDbEntity
  8
Defpoints
 62
     0
440
 16777216
100
AcDbPoint
 10
34.92780291301613
 20
61.69685939342681
 30
0.0
  0
ENDBLK
  5
912
330
910
100
AcDbEntity
  8
0
100
AcDbBlockEnd
  0
BLOCK
  5
9FB
330
9FA
100
AcDbEntity
  8
0
100
AcDbBlockBegin
  2
*D9
 70
     1
 10
0.0
 20
0.0
 30
0.0
  3
*D9
  1

  0
LINE
  5
AD9
330
9FA
100
AcDbEntity
  8
Dimension (ANSI)
440
 16777216
100
AcDbLine
 10
38.90221236183501
 20
32.57185939342682
 30
0.0
 11
24.92386590514211
 21
32.57185939342682
 31
0.0
  0
LINE
  5
ADA
330
9FA
100
AcDbEntity
  8
Dimension (ANSI)
440
 16777216
100
AcDbLine
 10
38.90221236183503
 20
90.8218593934268
 30
0.0
 11
24.92386590514213
 21
90.82185939342682
 31
0.0
  0
LINE
  5
ADB
330
9FA
100
AcDbEntity
  8
Dimension (ANSI)
440
 16777216
100
AcDbLine
 10
26.42386590514212
 20
33.75296172887985
 30
0.0
 11
26.42386590514212
 21
60.56602548419487
 31
0.0
  0
LINE
  5
ADC
330
9FA
100
AcDbEntity
  8
Dimension (ANSI)
440
 16777216
100
AcDbLine
 10
26.42386590514213
 20
89.64075705797379
 30
0.0
 11
26.42386590514212
 21
62.82769330265871
 31
0.0
  0
SOLID
  5
ADD
330
9FA
100
AcDbEntity
  8
Dimension (ANSI)
440
 16777216
100
AcDbTrace
 10
26.22701551589994
 20
33.75296172887985
 30
0.0
 11
26.62071629438429
 21
33.75296172887985
 31
0.0
 12
26.42386590514212
 22
32.57185939342682
 32
0.0
 13
26.42386590514212
 23
32.57185939342682
 33
0.0
  0
SOLID
  5
ADE
330
9FA
100
AcDbEntity
  8
Dimension (ANSI)
440
 16777216
100
AcDbTrace
 10
26.22701551589996
 20
89.64075705797379
 30
0.0
 11
26.6207162943843
 21
89.64075705797379
 31
0.0
 12
26.42386590514213
 22
90.82185939342682
 32
0.0
 13
26.42386590514213
 23
90.82185939342682
 33
0.0
  0
MTEXT
  5
ADF
330
9FA
100
AcDbEntity
  8
Dimension (ANSI)
440
 16777216
100
AcDbMText
 10
24.07334870134012
 20
62.44974054675321
 30
0.0
 40
1.440000057220458
 41
0.0
 46
0.0
 71
     1
 72
     1
  1
\A1;58.25
  7
Note Text (ANSI)
 73
     1
 44
1.0
  0
POINT
  5
AE0
330
9FA
100
AcDbEntity
  8
Defpoints
 62
     0
440
 16777216
100
AcDbPoint
 10
39.65221236183501
 20
32.57185939342682
 30
0.0
  0
POINT
  5
AE1
330
9FA
100
AcDbEntity
  8
Defpoints
 62
     0
440
 16777216
100
AcDbPoint
 10
39.65221236183502
 20
90.8218593934268
 30
0.0
  0
POINT
  5
AE2
330
9FA
100
AcDbEntity
  8
Defpoints
 62
     0
440
 16777216
100
AcDbPoint
 10
26.42386590514213
 20
90.82185939342682
 30
0.0
  0
ENDBLK
  5
9FC
330
9FA
100
AcDbEntity
  8
0
100
AcDbBlockEnd
  0
BLOCK
  5
AE5
330
AE4
100
AcDbEntity
  8
0
100
AcDbBlockBegin
  2
*D10
 70
     1
 10
0.0
 20
0.0
 30
0.0
  3
*D10
  1

  0
LINE
  5
BC3
330
AE4
100
AcDbEntity
  8
Dimension (ANSI)
440
 16777216
100
AcDbLine
 10
39.96875362257128
 20
31.69685939342682
 30
0.0
 11
17.48647015800435
 21
31.69685939342683
 31
0.0
  0
LINE
  5
BC4
330
AE4
100
AcDbEntity
  8
Dimension (ANSI)
440
 16777216
100
AcDbLine
 10
39.96875362257126
 20
91.69685939342681
 30
0.0
 11
17.48647015800437
 21
91.69685939342683
 31
0.0
  0
LINE
  5
BC5
330
AE4
100
AcDbEntity
  8
Dimension (ANSI)
440
 16777216
100
AcDbLine
 10
18.98647015800435
 20
32.87796172887985
 30
0.0
 11
18.98647015800436
 21
60.56941030633573
 31
0.0
  0
LINE
  5
BC6
330
AE4
100
AcDbEntity
  8
Dimension (ANSI)
440
 16777216
100
AcDbLine
 10
18.98647015800437
 20
90.51575705797379
 30
0.0
 11
18.98647015800436
 21
62.8243084805179
 31
0.0
  0
SOLID
  5
BC7
330
AE4
100
AcDbEntity
  8
Dimension (ANSI)
440
 16777216
100
AcDbTrace
 10
18.78961976876218
 20
32.87796172887985
 30
0.0
 11
19.18332054724652
 21
32.87796172887985
 31
0.0
 12
18.98647015800435
 22
31.69685939342683
 32
0.0
 13
18.98647015800435
 23
31.69685939342683
 33
0.0
  0
SOLID
  5
BC8
330
AE4
100
AcDbEntity
  8
Dimension (ANSI)
440
 16777216
100
AcDbTrace
 10
18.7896197687622
 20
90.51575705797379
 30
0.0
 11
19.18332054724654
 21
90.51575705797379
 31
0.0
 12
18.98647015800437
 22
91.69685939342683
 32
0.0
 13
18.98647015800437
 23
91.69685939342683
 33
0.0
  0
MTEXT
  5
BC9
330
AE4
100
AcDbEntity
  8
Dimension (ANSI)
440
 16777216
100
AcDbMText
 10
16.60548955493482
 20
62.44635572461239
 30
0.0
 40
1.440000057220458
 41
0.0
 46
0.0
 71
     1
 72
     1
  1
\A1;60.00
  7
Note Text (ANSI)
 73
     1
 44
1.0
  0
POINT
  5
BCA
330
AE4
100
AcDbEntity
  8
Defpoints
 62
     0
440
 16777216
100
AcDbPoint
 10
40.71875362257127
 20
31.69685939342682
 30
0.0
  0
POINT
  5
BCB
330
AE4
100
AcDbEntity
  8
Defpoints
 62
     0
440
 16777216
100
AcDbPoint
 10
40.71875362257125
 20
91.69685939342681
 30
0.0
  0
POINT
  5
BCC
330
AE4
100
AcDbEntity
  8
Defpoints
 62
     0
440
 16777216
100
AcDbPoint
 10
18.98647015800437
 20
91.69685939342683
 30
0.0
  0
ENDBLK
  5
AE6
330
AE4
100
AcDbEntity
  8
0
100
AcDbBlockEnd
  0
BLOCK
  5
BCF
330
BCE
100
AcDbEntity
  8
0
100
AcDbBlockBegin
  2
*D11
 70
     1
 10
0.0
 20
0.0
 30
0.0
  3
*D11
  1

  0
LINE
  5
C7F
330
BCE
100
AcDbEntity
  8
Dimension (ANSI)
440
 16777216
100
AcDbLine
 10
63.60008197880016
 20
29.58453902327854
 30
0.0
 11
61.98968599924389
 21
29.58453902327855
 31
0.0
  0
LINE
  5
C80
330
BCE
100
AcDbEntity
  8
Dimension (ANSI)
440
 16777216
100
AcDbLine
 10
61.98968599924389
 20
29.58453902327855
 30
0.0
 11
60.57743189131172
 21
31.41407228246701
 31
0.0
  0
MTEXT
  5
C81
330
BCE
100
AcDbEntity
  8
Dimension (ANSI)
440
 16777216
100
AcDbMText
 10
63.97803473470567
 20
29.58453902327855
 30
0.0
 40
1.440000057220458
 41
0.0
 46
0.0
 71
     4
 72
     1
  1
\A1;∅0.563{\P(6 PL.)}
  7
Note Text (ANSI)
 73
     1
 44
1.0
  0
SOLID
  5
C82
330
BCE
100
AcDbEntity
  8
Dimension (ANSI)
440
 16777216
100
AcDbTrace
 10
60.73325746189062
 20
31.53435722457763
 30
0.0
 11
60.42160632073281
 21
31.29378734035639
 31
0.0
 12
59.85572223864803
 22
32.34902570594043
 32
0.0
 13
59.85572223864803
 23
32.34902570594043
 33
0.0
  0
LINE
  5
C83
330
BCE
100
AcDbEntity
  8
Dimension (ANSI)
440
 16777216
100
AcDbLine
 10
58.60371236183502
 20
32.57185939342682
 30
0.0
 11
60.76371236183502
 21
32.57185939342681
 31
0.0
  0
LINE
  5
C84
330
BCE
100
AcDbEntity
  8
Dimension (ANSI)
440
 16777216
100
AcDbLine
 10
59.68371236183504
 20
31.49185939342681
 30
0.0
 11
59.68371236183504
 21
33.65185939342681
 31
0.0
  0
POINT
  5
C85
330
BCE
100
AcDbEntity
  8
Defpoints
 62
     0
440
 16777216
100
AcDbPoint
 10
59.85572223864803
 20
32.34902570594043
 30
0.0
  0
POINT
  5
C86
330
BCE
100
AcDbEntity
  8
Defpoints
 62
     0
440
 16777216
100
AcDbPoint
 10
59.51170248502201
 20
32.79469308091318
 30
0.0
  0
ENDBLK
  5
BD0
330
BCE
100
AcDbEntity
  8
0
100
AcDbBlockEnd
  0
BLOCK
  5
C89
330
C88
100
AcDbEntity
  8
0
100
AcDbBlockBegin
  2
*D12
 70
     1
 10
0.0
 20
0.0
 30
0.0
  3
*D12
  1

  0
LINE
  5
D87
330
C88
100
AcDbEntity
  8
Dimension (ANSI)
440
 16777216
100
AcDbLine
 10
54.57689844057388
 20
113.2242852826758
 30
0.0
 11
54.57689844057388
 21
112.0431829472228
 31
0.0
  0
LINE
  5
D88
330
C88
100
AcDbEntity
  8
Dimension (ANSI)
440
 16777216
100
AcDbLine
 10
54.57689844057388
 20
116.461489953582
 30
0.0
 11
54.57689844057388
 21
120.3443596287361
 31
0.0
  0
LINE
  5
D89
330
C88
100
AcDbEntity
  8
Dimension (ANSI)
440
 16777216
100
AcDbLine
 10
54.57689844057388
 20
120.3443596287361
 30
0.0
 11
55.75800077602692
 21
120.3443596287361
 31
0.0
  0
SOLID
  5
D8A
330
C88
100
AcDbEntity
  8
Dimension (ANSI)
440
 16777216
100
AcDbTrace
 10
54.38004805133171
 20
113.2242852826758
 30
0.0
 11
54.77374882981606
 21
113.2242852826758
 31
0.0
 12
54.57689844057388
 22
114.4053876181288
 32
0.0
 13
54.57689844057388
 23
114.4053876181288
 33
0.0
  0
SOLID
  5
D8B
330
C88
100
AcDbEntity
  8
Dimension (ANSI)
440
 16777216
100
AcDbTrace
 10
54.38004805133171
 20
116.461489953582
 30
0.0
 11
54.77374882981606
 21
116.461489953582
 31
0.0
 12
54.57689844057388
 22
115.2803876181289
 32
0.0
 13
54.57689844057388
 23
115.2803876181289
 33
0.0
  0
MTEXT
  5
D8C
330
C88
100
AcDbEntity
  8
Dimension (ANSI)
440
 16777216
100
AcDbMText
 10
58.03822357508341
 20
120.3443596287361
 30
0.0
 40
1.440000057220458
 41
0.0
 46
0.0
 71
     5
 72
     1
  1
\A1;0.88{\PTYP.}
  7
Note Text (ANSI)
 73
     1
 44
1.0
  0
POINT
  5
D8D
330
C88
100
AcDbEntity
  8
Defpoints
 62
     0
440
 16777216
100
AcDbPoint
 10
58.03822357508341
 20
115.2803876181289
 30
0.0
  0
POINT
  5
D8E
330
C88
100
AcDbEntity
  8
Defpoints
 62
     0
440
 16777216
100
AcDbPoint
 10
58.05007718019604
 20
114.4053876181288
 30
0.0
  0
POINT
  5
D8F
330
C88
100
AcDbEntity
  8
Defpoints
 62
     0
440
 16777216
100
AcDbPoint
 10
54.57689844057388
 20
114.4053876181288
 30
0.0
  0
ENDBLK
  5
C8A
330
C88
100
AcDbEntity
  8
0
100
AcDbBlockEnd
  0
BLOCK
  5
D92
330
D91
100
AcDbEntity
  8
0
100
AcDbBlockBegin
  2
*D13
 70
     1
 10
0.0
 20
0.0
 30
0.0
  3
*D13
  1

  0
LINE
  5
E77
330
D91
100
AcDbEntity
  8
Dimension (ANSI)
440
 16777216
100
AcDbLine
 10
99.79116784642087
 20
88.7221895747014
 30
0.0
 11
98.61006551096785
 21
88.7221895747014
 31
0.0
  0
LINE
  5
E78
330
D91
100
AcDbEntity
  8
Dimension (ANSI)
440
 16777216
100
AcDbLine
 10
103.0283725173269
 20
88.7221895747014
 30
0.0
 11
104.8743255860307
 21
88.7221895747014
 31
0.0
  0
SOLID
  5
E79
330
D91
100
AcDbEntity
  8
Dimension (ANSI)
440
 16777216
100
AcDbTrace
 10
99.79116784642087
 20
88.91903996394358
 30
0.0
 11
99.79116784642087
 21
88.52533918545923
 31
0.0
 12
100.9722701818739
 22
88.7221895747014
 32
0.0
 13
100.9722701818739
 23
88.7221895747014
 33
0.0
  0
SOLID
  5
E7A
330
D91
100
AcDbEntity
  8
Dimension (ANSI)
440
 16777216
100
AcDbTrace
 10
103.0283725173269
 20
88.91903996394358
 30
0.0
 11
103.0283725173269
 21
88.52533918545923
 31
0.0
 12
101.8472701818739
 22
88.7221895747014
 32
0.0
 13
101.8472701818739
 23
88.7221895747014
 33
0.0
  0
MTEXT
  5
E7B
330
D91
100
AcDbEntity
  8
Dimension (ANSI)
440
 16777216
100
AcDbMText
 10
105.2522783419362
 20
88.7221895747014
 30
0.0
 40
1.440000057220458
 41
0.0
 46
0.0
 71
     4
 72
     1
  1
\A1;0.88{\PTYP.}
  7
Note Text (ANSI)
 73
     1
 44
1.0
  0
POINT
  5
E7C
330
D91
100
AcDbEntity
  8
Defpoints
 62
     0
440
 16777216
100
AcDbPoint
 10
101.8472701818739
 20
88.7221895747014
 30
0.0
  0
POINT
  5
E7D
330
D91
100
AcDbEntity
  8
Defpoints
 62
     0
440
 16777216
100
AcDbPoint
 10
100.9722701818739
 20
88.72836705371753
 30
0.0
  0
POINT
  5
E7E
330
D91
100
AcDbEntity
  8
Defpoints
 62
     0
440
 16777216
100
AcDbPoint
 10
100.9722701818739
 20
88.7221895747014
 30
0.0
  0
ENDBLK
  5
D93
330
D91
100
AcDbEntity
  8
0
100
AcDbBlockEnd
  0
ENDSEC
  0
SECTION
  2
ENTITIES
  0
CIRCLE
  5
11B
330
6C
100
AcDbEntity
  8
Visible (ANSI)
100
AcDbCircle
 10
59.68371236183503
 20
61.69685939342682
 30
0.0
 40
0.2814999999999999
  0
CIRCLE
  5
11C
330
6C
100
AcDbEntity
  8
Visible (ANSI)
100
AcDbCircle
 10
41.43371236183503
 20
61.69685939342681
 30
0.0
 40
0.2814999999999999
  0
CIRCLE
  5
11D
330
6C
100
AcDbEntity
  8
Visible (ANSI)
100
AcDbCircle
 10
59.68371236183502
 20
90.82185939342682
 30
0.0
 40
0.2814999999999999
  0
CIRCLE
  5
11E
330
6C
100
AcDbEntity
  8
Visible (ANSI)
100
AcDbCircle
 10
41.43371236183502
 20
90.82185939342682
 30
0.0
 40
0.2814999999999999
  0
CIRCLE
  5
11F
330
6C
100
AcDbEntity
  8
Visible (ANSI)
100
AcDbCircle
 10
41.43371236183501
 20
32.57185939342682
 30
0.0
 40
0.2814999999999999
  0
CIRCLE
  5
120
330
6C
100
AcDbEntity
  8
Visible (ANSI)
100
AcDbCircle
 10
59.68371236183503
 20
32.57185939342682
 30
0.0
 40
0.2814999999999999
  0
LINE
  5
121
330
6C
100
AcDbEntity
  8
Visible (ANSI)
100
AcDbLine
 10
60.55871236183502
 20
91.53681813269058
 30
0.0
 11
60.55871236183504
 21
31.85690065416307
 31
0.0
  0
LINE
  5
122
330
6C
100
AcDbEntity
  8
Visible (ANSI)
100
AcDbLine
 10
40.71875362257125
 20
91.69685939342681
 30
0.0
 11
60.39867110109877
 21
91.69685939342681
 31
0.0
  0
LINE
  5
123
330
6C
100
AcDbEntity
  8
Visible (ANSI)
100
AcDbLine
 10
40.55871236183503
 20
31.85690065416305
 30
0.0
 11
40.55871236183501
 21
91.53681813269058
 31
0.0
  0
LINE
  5
124
330
6C
100
AcDbEntity
  8
Visible (ANSI)
100
AcDbLine
 10
60.39867110109879
 20
31.69685939342682
 30
0.0
 11
40.71875362257127
 21
31.69685939342682
 31
0.0
  0
LINE
  5
125
330
6C
100
AcDbEntity
  8
Hidden (ANSI)
 48
1.093663692474365
100
AcDbLine
 10
60.46496236183504
 20
31.85690065416306
 30
0.0
 11
60.46496236183502
 21
91.53681813269058
 31
0.0
  0
LINE
  5
126
330
6C
100
AcDbEntity
  8
Hidden (ANSI)
 48
1.133453011512756
100
AcDbLine
 10
60.39867110109877
 20
91.6031093934268
 30
0.0
 11
40.71875362257125
 21
91.6031093934268
 31
0.0
  0
LINE
  5
127
330
6C
100
AcDbEntity
  8
Hidden (ANSI)
 48
1.093663692474365
100
AcDbLine
 10
40.65246236183502
 20
91.53681813269058
 30
0.0
 11
40.65246236183504
 21
31.85690065416305
 31
0.0
  0
LINE
  5
128
330
6C
100
AcDbEntity
  8
Hidden (ANSI)
 48
1.133453011512756
100
AcDbLine
 10
40.71875362257127
 20
31.79060939342682
 30
0.0
 11
60.39867110109879
 21
31.79060939342682
 31
0.0
  0
POLYLINE
  5
129
330
6C
100
AcDbEntity
  8
Visible (ANSI)
100
AcDb2dPolyline
 66
     1
 10
0.0
 20
0.0
 30
0.0
 70
   128
  0
VERTEX
  5
12A
330
129
100
AcDbEntity
  8
Visible (ANSI)
100
AcDbVertex
100
AcDb2dVertex
 10
60.44936241268164
 20
91.58751034538299
 30
0.0
  0
VERTEX
  5
12B
330
129
100
AcDbEntity
  8
Visible (ANSI)
100
AcDbVertex
100
AcDb2dVertex
 10
60.45651421913003
 20
91.58539574154444
 30
0.0
  0
VERTEX
  5
12D
330
129
100
AcDbEntity
  8
Visible (ANSI)
100
AcDbVertex
100
AcDb2dVertex
 10
60.46363598859207
 20
91.58328714510313
 30
0.0
  0
VERTEX
  5
12E
330
129
100
AcDbEntity
  8
Visible (ANSI)
100
AcDbVertex
100
AcDb2dVertex
 10
60.47069618223211
 20
91.58117254126453
 30
0.0
  0
VERTEX
  5
12F
330
129
100
AcDbEntity
  8
Visible (ANSI)
100
AcDbVertex
100
AcDb2dVertex
 10
60.47766476306381
 20
91.57905793742594
 30
0.0
  0
VERTEX
  5
130
330
129
100
AcDbEntity
  8
Visible (ANSI)
100
AcDbVertex
100
AcDb2dVertex
 10
60.48451169410081
 20
91.57694934098463
 30
0.0
  0
VERTEX
  5
131
330
129
100
AcDbEntity
  8
Visible (ANSI)
100
AcDbVertex
100
AcDb2dVertex
 10
60.4912084402061
 20
91.57483473714606
 30
0.0
  0
VERTEX
  5
132
330
129
100
AcDbEntity
  8
Visible (ANSI)
100
AcDbVertex
100
AcDb2dVertex
 10
60.49772646624264
 20
91.57272614070475
 30
0.0
  0
VERTEX
  5
133
330
129
100
AcDbEntity
  8
Visible (ANSI)
100
AcDbVertex
100
AcDb2dVertex
 10
60.5040372370734
 20
91.57061153686615
 30
0.0
  0
VERTEX
  5
134
330
129
100
AcDbEntity
  8
Visible (ANSI)
100
AcDbVertex
100
AcDb2dVertex
 10
60.51011371941069
 20
91.56850294042483
 30
0.0
  0
VERTEX
  5
135
330
129
100
AcDbEntity
  8
Visible (ANSI)
100
AcDbVertex
100
AcDb2dVertex
 10
60.51593038181611
 20
91.56638833658623
 30
0.0
  0
VERTEX
  5
136
330
129
100
AcDbEntity
  8
Visible (ANSI)
100
AcDbVertex
100
AcDb2dVertex
 10
60.52146169285127
 20
91.5642737327477
 30
0.0
  0
VERTEX
  5
137
330
129
100
AcDbEntity
  8
Visible (ANSI)
100
AcDbVertex
100
AcDb2dVertex
 10
60.52668512477641
 20
91.56216513630637
 30
0.0
  0
VERTEX
  5
138
330
129
100
AcDbEntity
  8
Visible (ANSI)
100
AcDbVertex
100
AcDb2dVertex
 10
60.53157664800245
 20
91.56005053246778
 30
0.0
  0
VERTEX
  5
139
330
129
100
AcDbEntity
  8
Visible (ANSI)
100
AcDbVertex
100
AcDb2dVertex
 10
60.53611523663895
 20
91.55794193602647
 30
0.0
  0
VERTEX
  5
13A
330
129
100
AcDbEntity
  8
Visible (ANSI)
100
AcDbVertex
100
AcDb2dVertex
 10
60.54028286849411
 20
91.55582733218787
 30
0.0
  0
VERTEX
  5
13B
330
129
100
AcDbEntity
  8
Visible (ANSI)
100
AcDbVertex
100
AcDb2dVertex
 10
60.54406152137612
 20
91.55371272834932
 30
0.0
  0
VERTEX
  5
13C
330
129
100
AcDbEntity
  8
Visible (ANSI)
100
AcDbVertex
100
AcDb2dVertex
 10
60.5474346749425
 20
91.55160413190799
 30
0.0
  0
VERTEX
  5
13D
330
129
100
AcDbEntity
  8
Visible (ANSI)
100
AcDbVertex
100
AcDb2dVertex
 10
60.55038881254938
 20
91.5494895280694
 30
0.0
  0
VERTEX
  5
13E
330
129
100
AcDbEntity
  8
Visible (ANSI)
100
AcDbVertex
100
AcDb2dVertex
 10
60.5529089157036
 20
91.54738093162809
 30
0.0
  0
VERTEX
  5
13F
330
129
100
AcDbEntity
  8
Visible (ANSI)
100
AcDbVertex
100
AcDb2dVertex
 10
60.55498597330926
 20
91.54526632778949
 30
0.0
  0
VERTEX
  5
140
330
129
100
AcDbEntity
  8
Visible (ANSI)
100
AcDbVertex
100
AcDb2dVertex
 10
60.55661097427043
 20
91.54315172395092
 30
0.0
  0
VERTEX
  5
141
330
129
100
AcDbEntity
  8
Visible (ANSI)
100
AcDbVertex
100
AcDb2dVertex
 10
60.55777640934056
 20
91.54104312750963
 30
0.0
  0
VERTEX
  5
142
330
129
100
AcDbEntity
  8
Visible (ANSI)
100
AcDbVertex
100
AcDb2dVertex
 10
60.55847777297169
 20
91.53892852367103
 30
0.0
  0
VERTEX
  5
143
330
129
100
AcDbEntity
  8
Visible (ANSI)
100
AcDbVertex
100
AcDb2dVertex
 10
60.55871206146516
 20
91.53681992722971
 30
0.0
  0
SEQEND
  5
12C
330
129
100
AcDbEntity
  8
Visible (ANSI)
  0
POLYLINE
  5
144
330
6C
100
AcDbEntity
  8
Visible (ANSI)
100
AcDb2dPolyline
 66
     1
 10
0.0
 20
0.0
 30
0.0
 70
   128
  0
VERTEX
  5
145
330
144
100
AcDbEntity
  8
Visible (ANSI)
100
AcDbVertex
100
AcDb2dVertex
 10
60.55871206146516
 20
31.85690065714982
 30
0.0
  0
VERTEX
  5
146
330
144
100
AcDbEntity
  8
Visible (ANSI)
100
AcDbVertex
100
AcDb2dVertex
 10
60.55847777297169
 20
31.85478851728277
 30
0.0
  0
VERTEX
  5
148
330
144
100
AcDbEntity
  8
Visible (ANSI)
100
AcDbVertex
100
AcDb2dVertex
 10
60.55777640934056
 20
31.85267637741572
 30
0.0
  0
VERTEX
  5
149
330
144
100
AcDbEntity
  8
Visible (ANSI)
100
AcDbVertex
100
AcDb2dVertex
 10
60.55661097427043
 20
31.85056424928187
 30
0.0
  0
VERTEX
  5
14A
330
144
100
AcDbEntity
  8
Visible (ANSI)
100
AcDbVertex
100
AcDb2dVertex
 10
60.55498597330926
 20
31.84845210941483
 30
0.0
  0
VERTEX
  5
14B
330
144
100
AcDbEntity
  8
Visible (ANSI)
100
AcDbVertex
100
AcDb2dVertex
 10
60.5529089157036
 20
31.84633996954778
 30
0.0
  0
VERTEX
  5
14C
330
144
100
AcDbEntity
  8
Visible (ANSI)
100
AcDbVertex
100
AcDb2dVertex
 10
60.55038881254938
 20
31.84422784141393
 30
0.0
  0
VERTEX
  5
14D
330
144
100
AcDbEntity
  8
Visible (ANSI)
100
AcDbVertex
100
AcDb2dVertex
 10
60.5474346749425
 20
31.84211570154689
 30
0.0
  0
VERTEX
  5
14E
330
144
100
AcDbEntity
  8
Visible (ANSI)
100
AcDbVertex
100
AcDb2dVertex
 10
60.54406152137612
 20
31.84000356167984
 30
0.0
  0
VERTEX
  5
14F
330
144
100
AcDbEntity
  8
Visible (ANSI)
100
AcDbVertex
100
AcDb2dVertex
 10
60.54028286849411
 20
31.83789143354599
 30
0.0
  0
VERTEX
  5
150
330
144
100
AcDbEntity
  8
Visible (ANSI)
100
AcDbVertex
100
AcDb2dVertex
 10
60.53611523663895
 20
31.83577929367894
 30
0.0
  0
VERTEX
  5
151
330
144
100
AcDbEntity
  8
Visible (ANSI)
100
AcDbVertex
100
AcDb2dVertex
 10
60.53157664800245
 20
31.8336671538119
 30
0.0
  0
VERTEX
  5
152
330
144
100
AcDbEntity
  8
Visible (ANSI)
100
AcDbVertex
100
AcDb2dVertex
 10
60.52668512477641
 20
31.83155502567805
 30
0.0
  0
VERTEX
  5
153
330
144
100
AcDbEntity
  8
Visible (ANSI)
100
AcDbVertex
100
AcDb2dVertex
 10
60.52146169285127
 20
31.829442885811
 30
0.0
  0
VERTEX
  5
154
330
144
100
AcDbEntity
  8
Visible (ANSI)
100
AcDbVertex
100
AcDb2dVertex
 10
60.51593038181611
 20
31.82733075767715
 30
0.0
  0
VERTEX
  5
155
330
144
100
AcDbEntity
  8
Visible (ANSI)
100
AcDbVertex
100
AcDb2dVertex
 10
60.51011371941069
 20
31.8252186178101
 30
0.0
  0
VERTEX
  5
156
330
144
100
AcDbEntity
  8
Visible (ANSI)
100
AcDbVertex
100
AcDb2dVertex
 10
60.5040372370734
 20
31.82310647794306
 30
0.0
  0
VERTEX
  5
157
330
144
100
AcDbEntity
  8
Visible (ANSI)
100
AcDbVertex
100
AcDb2dVertex
 10
60.49772646624264
 20
31.82099434980921
 30
0.0
  0
VERTEX
  5
158
330
144
100
AcDbEntity
  8
Visible (ANSI)
100
AcDbVertex
100
AcDb2dVertex
 10
60.4912084402061
 20
31.81888220994216
 30
0.0
  0
VERTEX
  5
159
330
144
100
AcDbEntity
  8
Visible (ANSI)
100
AcDbVertex
100
AcDb2dVertex
 10
60.48451169410081
 20
31.81677007007511
 30
0.0
  0
VERTEX
  5
15A
330
144
100
AcDbEntity
  8
Visible (ANSI)
100
AcDbVertex
100
AcDb2dVertex
 10
60.47766476306381
 20
31.81465794194127
 30
0.0
  0
VERTEX
  5
15B
330
144
100
AcDbEntity
  8
Visible (ANSI)
100
AcDbVertex
100
AcDb2dVertex
 10
60.47069618223211
 20
31.81254580207422
 30
0.0
  0
VERTEX
  5
15C
330
144
100
AcDbEntity
  8
Visible (ANSI)
100
AcDbVertex
100
AcDb2dVertex
 10
60.46363598859207
 20
31.81043366220718
 30
0.0
  0
VERTEX
  5
15D
330
144
100
AcDbEntity
  8
Visible (ANSI)
100
AcDbVertex
100
AcDb2dVertex
 10
60.45651421913003
 20
31.80832153407332
 30
0.0
  0
VERTEX
  5
15E
330
144
100
AcDbEntity
  8
Visible (ANSI)
100
AcDbVertex
100
AcDb2dVertex
 10
60.44936241268164
 20
31.80620939420628
 30
0.0
  0
SEQEND
  5
147
330
144
100
AcDbEntity
  8
Visible (ANSI)
  0
POLYLINE
  5
15F
330
6C
100
AcDbEntity
  8
Visible (ANSI)
100
AcDb2dPolyline
 66
     1
 10
0.0
 20
0.0
 30
0.0
 70
   128
  0
VERTEX
  5
160
330
15F
100
AcDbEntity
  8
Visible (ANSI)
100
AcDbVertex
100
AcDb2dVertex
 10
40.6680623626145
 20
91.58751034538299
 30
0.0
  0
VERTEX
  5
161
330
15F
100
AcDbEntity
  8
Visible (ANSI)
100
AcDbVertex
100
AcDb2dVertex
 10
40.67017450248154
 20
91.59465914813278
 30
0.0
  0
VERTEX
  5
163
330
15F
100
AcDbEntity
  8
Visible (ANSI)
100
AcDbVertex
100
AcDb2dVertex
 10
40.67228663061539
 20
91.60178392129344
 30
0.0
  0
VERTEX
  5
164
330
15F
100
AcDbEntity
  8
Visible (ANSI)
100
AcDbVertex
100
AcDb2dVertex
 10
40.67439877048244
 20
91.60884261308417
 30
0.0
  0
VERTEX
  5
165
330
15F
100
AcDbEntity
  8
Visible (ANSI)
100
AcDbVertex
100
AcDb2dVertex
 10
40.67651091034949
 20
91.61581119391586
 30
0.0
  0
VERTEX
  5
166
330
15F
100
AcDbEntity
  8
Visible (ANSI)
100
AcDbVertex
100
AcDb2dVertex
 10
40.67862303848333
 20
91.62265962680217
 30
0.0
  0
VERTEX
  5
167
330
15F
100
AcDbEntity
  8
Visible (ANSI)
100
AcDbVertex
100
AcDb2dVertex
 10
40.68073517835038
 20
91.62935787475676
 30
0.0
  0
VERTEX
  5
168
330
15F
100
AcDbEntity
  8
Visible (ANSI)
100
AcDbVertex
100
AcDb2dVertex
 10
40.68284731821742
 20
91.63587590079334
 30
0.0
  0
VERTEX
  5
169
330
15F
100
AcDbEntity
  8
Visible (ANSI)
100
AcDbVertex
100
AcDb2dVertex
 10
40.68495944635126
 20
91.64218366792546
 30
0.0
  0
VERTEX
  5
16A
330
15F
100
AcDbEntity
  8
Visible (ANSI)
100
AcDbVertex
100
AcDb2dVertex
 10
40.68707158621832
 20
91.64826315396137
 30
0.0
  0
VERTEX
  5
16B
330
15F
100
AcDbEntity
  8
Visible (ANSI)
100
AcDbVertex
100
AcDb2dVertex
 10
40.68918372608537
 20
91.6540783145175
 30
0.0
  0
VERTEX
  5
16C
330
15F
100
AcDbEntity
  8
Visible (ANSI)
100
AcDbVertex
100
AcDb2dVertex
 10
40.69129585421921
 20
91.65961112740196
 30
0.0
  0
VERTEX
  5
16D
330
15F
100
AcDbEntity
  8
Visible (ANSI)
100
AcDbVertex
100
AcDb2dVertex
 10
40.69340799408626
 20
91.66483155562845
 30
0.0
  0
VERTEX
  5
16E
330
15F
100
AcDbEntity
  8
Visible (ANSI)
100
AcDbVertex
100
AcDb2dVertex
 10
40.69552012222011
 20
91.66972157700518
 30
0.0
  0
VERTEX
  5
16F
330
15F
100
AcDbEntity
  8
Visible (ANSI)
100
AcDbVertex
100
AcDb2dVertex
 10
40.69763226208716
 20
91.67426316934033
 30
0.0
  0
VERTEX
  5
170
330
15F
100
AcDbEntity
  8
Visible (ANSI)
100
AcDbVertex
100
AcDb2dVertex
 10
40.6997444019542
 20
91.67843230304479
 30
0.0
  0
VERTEX
  5
171
330
15F
100
AcDbEntity
  8
Visible (ANSI)
100
AcDbVertex
100
AcDb2dVertex
 10
40.70185653008805
 20
91.68221095592683
 30
0.0
  0
VERTEX
  5
172
330
15F
100
AcDbEntity
  8
Visible (ANSI)
100
AcDbVertex
100
AcDb2dVertex
 10
40.7039686699551
 20
91.68558110579457
 30
0.0
  0
VERTEX
  5
173
330
15F
100
AcDbEntity
  8
Visible (ANSI)
100
AcDbVertex
100
AcDb2dVertex
 10
40.70608080982214
 20
91.68853674525076
 30
0.0
  0
VERTEX
  5
174
330
15F
100
AcDbEntity
  8
Visible (ANSI)
100
AcDbVertex
100
AcDb2dVertex
 10
40.70819293795599
 20
91.69105384470633
 30
0.0
  0
VERTEX
  5
175
330
15F
100
AcDbEntity
  8
Visible (ANSI)
100
AcDbVertex
100
AcDb2dVertex
 10
40.71030507782304
 20
91.69313240416132
 30
0.0
  0
VERTEX
  5
176
330
15F
100
AcDbEntity
  8
Visible (ANSI)
100
AcDbVertex
100
AcDb2dVertex
 10
40.71241721769009
 20
91.69476040882111
 30
0.0
  0
VERTEX
  5
177
330
15F
100
AcDbEntity
  8
Visible (ANSI)
100
AcDbVertex
100
AcDb2dVertex
 10
40.71452934582394
 20
91.69592584389127
 30
0.0
  0
VERTEX
  5
178
330
15F
100
AcDbEntity
  8
Visible (ANSI)
100
AcDbVertex
100
AcDb2dVertex
 10
40.71664148569099
 20
91.69662270197441
 30
0.0
  0
VERTEX
  5
179
330
15F
100
AcDbEntity
  8
Visible (ANSI)
100
AcDbVertex
100
AcDb2dVertex
 10
40.71875362555803
 20
91.69685699046791
 30
0.0
  0
SEQEND
  5
162
330
15F
100
AcDbEntity
  8
Visible (ANSI)
  0
POLYLINE
  5
17A
330
6C
100
AcDbEntity
  8
Visible (ANSI)
100
AcDb2dPolyline
 66
     1
 10
0.0
 20
0.0
 30
0.0
 70
   128
  0
VERTEX
  5
17B
330
17A
100
AcDbEntity
  8
Visible (ANSI)
100
AcDbVertex
100
AcDb2dVertex
 10
60.39867049267903
 20
91.69685699046791
 30
0.0
  0
VERTEX
  5
17C
330
17A
100
AcDbEntity
  8
Visible (ANSI)
100
AcDbVertex
100
AcDb2dVertex
 10
60.40078359466829
 20
91.69662270197441
 30
0.0
  0
VERTEX
  5
17E
330
17A
100
AcDbEntity
  8
Visible (ANSI)
100
AcDbVertex
100
AcDb2dVertex
 10
60.40289519480824
 20
91.69592584389127
 30
0.0
  0
VERTEX
  5
17F
330
17A
100
AcDbEntity
  8
Visible (ANSI)
100
AcDbVertex
100
AcDb2dVertex
 10
60.40500679494819
 20
91.69476040882111
 30
0.0
  0
VERTEX
  5
180
330
17A
100
AcDbEntity
  8
Visible (ANSI)
100
AcDbVertex
100
AcDb2dVertex
 10
60.40711989693746
 20
91.69313240416132
 30
0.0
  0
VERTEX
  5
181
330
17A
100
AcDbEntity
  8
Visible (ANSI)
100
AcDbVertex
100
AcDb2dVertex
 10
60.4092314970774
 20
91.69105384470633
 30
0.0
  0
VERTEX
  5
182
330
17A
100
AcDbEntity
  8
Visible (ANSI)
100
AcDbVertex
100
AcDb2dVertex
 10
60.41134459906666
 20
91.68853674525076
 30
0.0
  0
VERTEX
  5
183
330
17A
100
AcDbEntity
  8
Visible (ANSI)
100
AcDbVertex
100
AcDb2dVertex
 10
60.41345619920662
 20
91.68558110579457
 30
0.0
  0
VERTEX
  5
184
330
17A
100
AcDbEntity
  8
Visible (ANSI)
100
AcDbVertex
100
AcDb2dVertex
 10
60.41556779934657
 20
91.68221095592683
 30
0.0
  0
VERTEX
  5
185
330
17A
100
AcDbEntity
  8
Visible (ANSI)
100
AcDbVertex
100
AcDb2dVertex
 10
60.41768090133583
 20
91.67843230304479
 30
0.0
  0
VERTEX
  5
186
330
17A
100
AcDbEntity
  8
Visible (ANSI)
100
AcDbVertex
100
AcDb2dVertex
 10
60.41979250147578
 20
91.67426316934033
 30
0.0
  0
VERTEX
  5
187
330
17A
100
AcDbEntity
  8
Visible (ANSI)
100
AcDbVertex
100
AcDb2dVertex
 10
60.42190410161572
 20
91.66972157700518
 30
0.0
  0
VERTEX
  5
188
330
17A
100
AcDbEntity
  8
Visible (ANSI)
100
AcDbVertex
100
AcDb2dVertex
 10
60.42401720360499
 20
91.66483155562845
 30
0.0
  0
VERTEX
  5
189
330
17A
100
AcDbEntity
  8
Visible (ANSI)
100
AcDbVertex
100
AcDb2dVertex
 10
60.42612880374495
 20
91.65961112740196
 30
0.0
  0
VERTEX
  5
18A
330
17A
100
AcDbEntity
  8
Visible (ANSI)
100
AcDbVertex
100
AcDb2dVertex
 10
60.42824040388489
 20
91.6540783145175
 30
0.0
  0
VERTEX
  5
18B
330
17A
100
AcDbEntity
  8
Visible (ANSI)
100
AcDbVertex
100
AcDb2dVertex
 10
60.43035350587416
 20
91.64826315396137
 30
0.0
  0
VERTEX
  5
18C
330
17A
100
AcDbEntity
  8
Visible (ANSI)
100
AcDbVertex
100
AcDb2dVertex
 10
60.43246510601409
 20
91.64218366792546
 30
0.0
  0
VERTEX
  5
18D
330
17A
100
AcDbEntity
  8
Visible (ANSI)
100
AcDbVertex
100
AcDb2dVertex
 10
60.43457670615405
 20
91.63587590079334
 30
0.0
  0
VERTEX
  5
18E
330
17A
100
AcDbEntity
  8
Visible (ANSI)
100
AcDbVertex
100
AcDb2dVertex
 10
60.43668980814332
 20
91.62935787475676
 30
0.0
  0
VERTEX
  5
18F
330
17A
100
AcDbEntity
  8
Visible (ANSI)
100
AcDbVertex
100
AcDb2dVertex
 10
60.43880140828327
 20
91.62265962680217
 30
0.0
  0
VERTEX
  5
190
330
17A
100
AcDbEntity
  8
Visible (ANSI)
100
AcDbVertex
100
AcDb2dVertex
 10
60.44091451027253
 20
91.61581119391586
 30
0.0
  0
VERTEX
  5
191
330
17A
100
AcDbEntity
  8
Visible (ANSI)
100
AcDbVertex
100
AcDb2dVertex
 10
60.44302611041247
 20
91.60884261308417
 30
0.0
  0
VERTEX
  5
192
330
17A
100
AcDbEntity
  8
Visible (ANSI)
100
AcDbVertex
100
AcDb2dVertex
 10
60.44513771055243
 20
91.60178392129344
 30
0.0
  0
VERTEX
  5
193
330
17A
100
AcDbEntity
  8
Visible (ANSI)
100
AcDbVertex
100
AcDb2dVertex
 10
60.4472508125417
 20
91.59465914813278
 30
0.0
  0
VERTEX
  5
194
330
17A
100
AcDbEntity
  8
Visible (ANSI)
100
AcDbVertex
100
AcDb2dVertex
 10
60.44936241268164
 20
91.58751034538299
 30
0.0
  0
SEQEND
  5
17D
330
17A
100
AcDbEntity
  8
Visible (ANSI)
  0
POLYLINE
  5
195
330
6C
100
AcDbEntity
  8
Visible (ANSI)
100
AcDb2dPolyline
 66
     1
 10
0.0
 20
0.0
 30
0.0
 70
   128
  0
VERTEX
  5
196
330
195
100
AcDbEntity
  8
Visible (ANSI)
100
AcDbVertex
100
AcDb2dVertex
 10
40.6680623626145
 20
31.80620939420628
 30
0.0
  0
VERTEX
  5
197
330
195
100
AcDbEntity
  8
Visible (ANSI)
100
AcDbVertex
100
AcDb2dVertex
 10
40.66091053269971
 20
31.80832153407332
 30
0.0
  0
VERTEX
  5
199
330
195
100
AcDbEntity
  8
Visible (ANSI)
100
AcDbVertex
100
AcDb2dVertex
 10
40.65378932056456
 20
31.81043366220718
 30
0.0
  0
VERTEX
  5
19A
330
195
100
AcDbEntity
  8
Visible (ANSI)
100
AcDbVertex
100
AcDb2dVertex
 10
40.6467292325233
 20
31.81254580207422
 30
0.0
  0
VERTEX
  5
19B
330
195
100
AcDbEntity
  8
Visible (ANSI)
100
AcDbVertex
100
AcDb2dVertex
 10
40.63976049916004
 20
31.81465794194127
 30
0.0
  0
VERTEX
  5
19C
330
195
100
AcDbEntity
  8
Visible (ANSI)
100
AcDbVertex
100
AcDb2dVertex
 10
40.63291295799674
 20
31.81677007007511
 30
0.0
  0
VERTEX
  5
19D
330
195
100
AcDbEntity
  8
Visible (ANSI)
100
AcDbVertex
100
AcDb2dVertex
 10
40.62621593029471
 20
31.81888220994216
 30
0.0
  0
VERTEX
  5
19E
330
195
100
AcDbEntity
  8
Visible (ANSI)
100
AcDbVertex
100
AcDb2dVertex
 10
40.61969809198934
 20
31.82099434980921
 30
0.0
  0
VERTEX
  5
19F
330
195
100
AcDbEntity
  8
Visible (ANSI)
100
AcDbVertex
100
AcDb2dVertex
 10
40.61338736222476
 20
31.82310647794306
 30
0.0
  0
VERTEX
  5
1A0
330
195
100
AcDbEntity
  8
Visible (ANSI)
100
AcDbVertex
100
AcDb2dVertex
 10
40.6073107566889
 20
31.8252186178101
 30
0.0
  0
VERTEX
  5
1A1
330
195
100
AcDbEntity
  8
Visible (ANSI)
100
AcDbVertex
100
AcDb2dVertex
 10
40.60149429961444
 20
31.82733075767715
 30
0.0
  0
VERTEX
  5
1A2
330
195
100
AcDbEntity
  8
Visible (ANSI)
100
AcDbVertex
100
AcDb2dVertex
 10
40.595962897647
 20
31.829442885811
 30
0.0
  0
VERTEX
  5
1A3
330
195
100
AcDbEntity
  8
Visible (ANSI)
100
AcDbVertex
100
AcDb2dVertex
 10
40.59074023424631
 20
31.83155502567805
 30
0.0
  0
VERTEX
  5
1A4
330
195
100
AcDbEntity
  8
Visible (ANSI)
100
AcDbVertex
100
AcDb2dVertex
 10
40.58584867875398
 20
31.8336671538119
 30
0.0
  0
VERTEX
  5
1A5
330
195
100
AcDbEntity
  8
Visible (ANSI)
100
AcDbVertex
100
AcDb2dVertex
 10
40.5813091734614
 20
31.83577929367894
 30
0.0
  0
VERTEX
  5
1A6
330
195
100
AcDbEntity
  8
Visible (ANSI)
100
AcDbVertex
100
AcDb2dVertex
 10
40.57714116027731
 20
31.83789143354599
 30
0.0
  0
VERTEX
  5
1A7
330
195
100
AcDbEntity
  8
Visible (ANSI)
100
AcDbVertex
100
AcDb2dVertex
 10
40.5733624839289
 20
31.84000356167984
 30
0.0
  0
VERTEX
  5
1A8
330
195
100
AcDbEntity
  8
Visible (ANSI)
100
AcDbVertex
100
AcDb2dVertex
 10
40.56998932742923
 20
31.84211570154689
 30
0.0
  0
VERTEX
  5
1A9
330
195
100
AcDbEntity
  8
Visible (ANSI)
100
AcDbVertex
100
AcDb2dVertex
 10
40.56703613507809
 20
31.84422784141393
 30
0.0
  0
VERTEX
  5
1AA
330
195
100
AcDbEntity
  8
Visible (ANSI)
100
AcDbVertex
100
AcDb2dVertex
 10
40.56451555232942
 20
31.84633996954778
 30
0.0
  0
VERTEX
  5
1AB
330
195
100
AcDbEntity
  8
Visible (ANSI)
100
AcDbVertex
100
AcDb2dVertex
 10
40.56243837262517
 20
31.84845210941483
 30
0.0
  0
VERTEX
  5
1AC
330
195
100
AcDbEntity
  8
Visible (ANSI)
100
AcDbVertex
100
AcDb2dVertex
 10
40.56081349137928
 20
31.85056424928187
 30
0.0
  0
VERTEX
  5
1AD
330
195
100
AcDbEntity
  8
Visible (ANSI)
100
AcDbVertex
100
AcDb2dVertex
 10
40.55964786628634
 20
31.85267637741572
 30
0.0
  0
VERTEX
  5
1AE
330
195
100
AcDbEntity
  8
Visible (ANSI)
100
AcDbVertex
100
AcDb2dVertex
 10
40.55894648858455
 20
31.85478851728277
 30
0.0
  0
VERTEX
  5
1AF
330
195
100
AcDbEntity
  8
Visible (ANSI)
100
AcDbVertex
100
AcDb2dVertex
 10
40.55871236183503
 20
31.85690065714982
 30
0.0
  0
SEQEND
  5
198
330
195
100
AcDbEntity
  8
Visible (ANSI)
  0
POLYLINE
  5
1B0
330
6C
100
AcDbEntity
  8
Visible (ANSI)
100
AcDb2dPolyline
 66
     1
 10
0.0
 20
0.0
 30
0.0
 70
   128
  0
VERTEX
  5
1B1
330
1B0
100
AcDbEntity
  8
Visible (ANSI)
100
AcDbVertex
100
AcDb2dVertex
 10
40.55871236183501
 20
91.53681992722971
 30
0.0
  0
VERTEX
  5
1B2
330
1B0
100
AcDbEntity
  8
Visible (ANSI)
100
AcDbVertex
100
AcDb2dVertex
 10
40.55894648858455
 20
91.53892852367103
 30
0.0
  0
VERTEX
  5
1B4
330
1B0
100
AcDbEntity
  8
Visible (ANSI)
100
AcDbVertex
100
AcDb2dVertex
 10
40.55964786628634
 20
91.54104312750963
 30
0.0
  0
VERTEX
  5
1B5
330
1B0
100
AcDbEntity
  8
Visible (ANSI)
100
AcDbVertex
100
AcDb2dVertex
 10
40.56081349137928
 20
91.54315172395092
 30
0.0
  0
VERTEX
  5
1B6
330
1B0
100
AcDbEntity
  8
Visible (ANSI)
100
AcDbVertex
100
AcDb2dVertex
 10
40.56243837262517
 20
91.54526632778949
 30
0.0
  0
VERTEX
  5
1B7
330
1B0
100
AcDbEntity
  8
Visible (ANSI)
100
AcDbVertex
100
AcDb2dVertex
 10
40.56451555232942
 20
91.54738093162809
 30
0.0
  0
VERTEX
  5
1B8
330
1B0
100
AcDbEntity
  8
Visible (ANSI)
100
AcDbVertex
100
AcDb2dVertex
 10
40.56703613507809
 20
91.5494895280694
 30
0.0
  0
VERTEX
  5
1B9
330
1B0
100
AcDbEntity
  8
Visible (ANSI)
100
AcDbVertex
100
AcDb2dVertex
 10
40.56998932742923
 20
91.55160413190799
 30
0.0
  0
VERTEX
  5
1BA
330
1B0
100
AcDbEntity
  8
Visible (ANSI)
100
AcDbVertex
100
AcDb2dVertex
 10
40.5733624839289
 20
91.55371272834932
 30
0.0
  0
VERTEX
  5
1BB
330
1B0
100
AcDbEntity
  8
Visible (ANSI)
100
AcDbVertex
100
AcDb2dVertex
 10
40.57714116027731
 20
91.55582733218787
 30
0.0
  0
VERTEX
  5
1BC
330
1B0
100
AcDbEntity
  8
Visible (ANSI)
100
AcDbVertex
100
AcDb2dVertex
 10
40.5813091734614
 20
91.55794193602647
 30
0.0
  0
VERTEX
  5
1BD
330
1B0
100
AcDbEntity
  8
Visible (ANSI)
100
AcDbVertex
100
AcDb2dVertex
 10
40.58584867875398
 20
91.56005053246778
 30
0.0
  0
VERTEX
  5
1BE
330
1B0
100
AcDbEntity
  8
Visible (ANSI)
100
AcDbVertex
100
AcDb2dVertex
 10
40.59074023424631
 20
91.56216513630637
 30
0.0
  0
VERTEX
  5
1BF
330
1B0
100
AcDbEntity
  8
Visible (ANSI)
100
AcDbVertex
100
AcDb2dVertex
 10
40.595962897647
 20
91.5642737327477
 30
0.0
  0
VERTEX
  5
1C0
330
1B0
100
AcDbEntity
  8
Visible (ANSI)
100
AcDbVertex
100
AcDb2dVertex
 10
40.60149429961444
 20
91.56638833658623
 30
0.0
  0
VERTEX
  5
1C1
330
1B0
100
AcDbEntity
  8
Visible (ANSI)
100
AcDbVertex
100
AcDb2dVertex
 10
40.6073107566889
 20
91.56850294042483
 30
0.0
  0
VERTEX
  5
1C2
330
1B0
100
AcDbEntity
  8
Visible (ANSI)
100
AcDbVertex
100
AcDb2dVertex
 10
40.61338736222476
 20
91.57061153686615
 30
0.0
  0
VERTEX
  5
1C3
330
1B0
100
AcDbEntity
  8
Visible (ANSI)
100
AcDbVertex
100
AcDb2dVertex
 10
40.61969809198934
 20
91.57272614070475
 30
0.0
  0
VERTEX
  5
1C4
330
1B0
100
AcDbEntity
  8
Visible (ANSI)
100
AcDbVertex
100
AcDb2dVertex
 10
40.62621593029471
 20
91.57483473714606
 30
0.0
  0
VERTEX
  5
1C5
330
1B0
100
AcDbEntity
  8
Visible (ANSI)
100
AcDbVertex
100
AcDb2dVertex
 10
40.63291295799674
 20
91.57694934098463
 30
0.0
  0
VERTEX
  5
1C6
330
1B0
100
AcDbEntity
  8
Visible (ANSI)
100
AcDbVertex
100
AcDb2dVertex
 10
40.63976049916004
 20
91.57905793742594
 30
0.0
  0
VERTEX
  5
1C7
330
1B0
100
AcDbEntity
  8
Visible (ANSI)
100
AcDbVertex
100
AcDb2dVertex
 10
40.6467292325233
 20
91.58117254126453
 30
0.0
  0
VERTEX
  5
1C8
330
1B0
100
AcDbEntity
  8
Visible (ANSI)
100
AcDbVertex
100
AcDb2dVertex
 10
40.65378932056456
 20
91.58328714510313
 30
0.0
  0
VERTEX
  5
1C9
330
1B0
100
AcDbEntity
  8
Visible (ANSI)
100
AcDbVertex
100
AcDb2dVertex
 10
40.66091053269971
 20
91.58539574154444
 30
0.0
  0
VERTEX
  5
1CA
330
1B0
100
AcDbEntity
  8
Visible (ANSI)
100
AcDbVertex
100
AcDb2dVertex
 10
40.6680623626145
 20
91.58751034538299
 30
0.0
  0
SEQEND
  5
1B3
330
1B0
100
AcDbEntity
  8
Visible (ANSI)
  0
POLYLINE
  5
1CB
330
6C
100
AcDbEntity
  8
Visible (ANSI)
100
AcDb2dPolyline
 66
     1
 10
0.0
 20
0.0
 30
0.0
 70
   128
  0
VERTEX
  5
1CC
330
1CB
100
AcDbEntity
  8
Visible (ANSI)
100
AcDbVertex
100
AcDb2dVertex
 10
60.44936241268164
 20
31.80620939420628
 30
0.0
  0
VERTEX
  5
1CD
330
1CB
100
AcDbEntity
  8
Visible (ANSI)
100
AcDbVertex
100
AcDb2dVertex
 10
60.4472508125417
 20
31.79905756429149
 30
0.0
  0
VERTEX
  5
1CF
330
1CB
100
AcDbEntity
  8
Visible (ANSI)
100
AcDbVertex
100
AcDb2dVertex
 10
60.44513771055243
 20
31.79193635215634
 30
0.0
  0
VERTEX
  5
1D0
330
1CB
100
AcDbEntity
  8
Visible (ANSI)
100
AcDbVertex
100
AcDb2dVertex
 10
60.44302611041247
 20
31.78487626411508
 30
0.0
  0
VERTEX
  5
1D1
330
1CB
100
AcDbEntity
  8
Visible (ANSI)
100
AcDbVertex
100
AcDb2dVertex
 10
60.44091451027253
 20
31.77790753075182
 30
0.0
  0
VERTEX
  5
1D2
330
1CB
100
AcDbEntity
  8
Visible (ANSI)
100
AcDbVertex
100
AcDb2dVertex
 10
60.43880140828327
 20
31.77105998958853
 30
0.0
  0
VERTEX
  5
1D3
330
1CB
100
AcDbEntity
  8
Visible (ANSI)
100
AcDbVertex
100
AcDb2dVertex
 10
60.43668980814332
 20
31.7643629618865
 30
0.0
  0
VERTEX
  5
1D4
330
1CB
100
AcDbEntity
  8
Visible (ANSI)
100
AcDbVertex
100
AcDb2dVertex
 10
60.43457670615405
 20
31.75784512358112
 30
0.0
  0
VERTEX
  5
1D5
330
1CB
100
AcDbEntity
  8
Visible (ANSI)
100
AcDbVertex
100
AcDb2dVertex
 10
60.43246510601409
 20
31.75153439381655
 30
0.0
  0
VERTEX
  5
1D6
330
1CB
100
AcDbEntity
  8
Visible (ANSI)
100
AcDbVertex
100
AcDb2dVertex
 10
60.43035350587416
 20
31.74545778828068
 30
0.0
  0
VERTEX
  5
1D7
330
1CB
100
AcDbEntity
  8
Visible (ANSI)
100
AcDbVertex
100
AcDb2dVertex
 10
60.42824040388489
 20
31.73964133120622
 30
0.0
  0
VERTEX
  5
1D8
330
1CB
100
AcDbEntity
  8
Visible (ANSI)
100
AcDbVertex
100
AcDb2dVertex
 10
60.42612880374495
 20
31.73410992923879
 30
0.0
  0
VERTEX
  5
1D9
330
1CB
100
AcDbEntity
  8
Visible (ANSI)
100
AcDbVertex
100
AcDb2dVertex
 10
60.42401720360499
 20
31.7288872658381
 30
0.0
  0
VERTEX
  5
1DA
330
1CB
100
AcDbEntity
  8
Visible (ANSI)
100
AcDbVertex
100
AcDb2dVertex
 10
60.42190410161572
 20
31.72399571034577
 30
0.0
  0
VERTEX
  5
1DB
330
1CB
100
AcDbEntity
  8
Visible (ANSI)
100
AcDbVertex
100
AcDb2dVertex
 10
60.41979250147578
 20
31.71945620505319
 30
0.0
  0
VERTEX
  5
1DC
330
1CB
100
AcDbEntity
  8
Visible (ANSI)
100
AcDbVertex
100
AcDb2dVertex
 10
60.41768090133583
 20
31.7152881918691
 30
0.0
  0
VERTEX
  5
1DD
330
1CB
100
AcDbEntity
  8
Visible (ANSI)
100
AcDbVertex
100
AcDb2dVertex
 10
60.41556779934657
 20
31.71150951552069
 30
0.0
  0
VERTEX
  5
1DE
330
1CB
100
AcDbEntity
  8
Visible (ANSI)
100
AcDbVertex
100
AcDb2dVertex
 10
60.41345619920662
 20
31.70813635902101
 30
0.0
  0
VERTEX
  5
1DF
330
1CB
100
AcDbEntity
  8
Visible (ANSI)
100
AcDbVertex
100
AcDb2dVertex
 10
60.41134459906666
 20
31.70518316666988
 30
0.0
  0
VERTEX
  5
1E0
330
1CB
100
AcDbEntity
  8
Visible (ANSI)
100
AcDbVertex
100
AcDb2dVertex
 10
60.4092314970774
 20
31.7026625839212
 30
0.0
  0
VERTEX
  5
1E1
330
1CB
100
AcDbEntity
  8
Visible (ANSI)
100
AcDbVertex
100
AcDb2dVertex
 10
60.40711989693746
 20
31.70058540421696
 30
0.0
  0
VERTEX
  5
1E2
330
1CB
100
AcDbEntity
  8
Visible (ANSI)
100
AcDbVertex
100
AcDb2dVertex
 10
60.40500679494819
 20
31.69896052297106
 30
0.0
  0
VERTEX
  5
1E3
330
1CB
100
AcDbEntity
  8
Visible (ANSI)
100
AcDbVertex
100
AcDb2dVertex
 10
60.40289519480824
 20
31.69779489787813
 30
0.0
  0
VERTEX
  5
1E4
330
1CB
100
AcDbEntity
  8
Visible (ANSI)
100
AcDbVertex
100
AcDb2dVertex
 10
60.40078359466829
 20
31.69709352017633
 30
0.0
  0
VERTEX
  5
1E5
330
1CB
100
AcDbEntity
  8
Visible (ANSI)
100
AcDbVertex
100
AcDb2dVertex
 10
60.39867049267903
 20
31.69685939342682
 30
0.0
  0
SEQEND
  5
1CE
330
1CB
100
AcDbEntity
  8
Visible (ANSI)
  0
POLYLINE
  5
1E6
330
6C
100
AcDbEntity
  8
Visible (ANSI)
100
AcDb2dPolyline
 66
     1
 10
0.0
 20
0.0
 30
0.0
 70
   128
  0
VERTEX
  5
1E7
330
1E6
100
AcDbEntity
  8
Visible (ANSI)
100
AcDbVertex
100
AcDb2dVertex
 10
40.71875362555803
 20
31.69685939342682
 30
0.0
  0
VERTEX
  5
1E8
330
1E6
100
AcDbEntity
  8
Visible (ANSI)
100
AcDbVertex
100
AcDb2dVertex
 10
40.71664148569099
 20
31.69709352017633
 30
0.0
  0
VERTEX
  5
1EA
330
1E6
100
AcDbEntity
  8
Visible (ANSI)
100
AcDbVertex
100
AcDb2dVertex
 10
40.71452934582394
 20
31.69779489787813
 30
0.0
  0
VERTEX
  5
1EB
330
1E6
100
AcDbEntity
  8
Visible (ANSI)
100
AcDbVertex
100
AcDb2dVertex
 10
40.71241721769009
 20
31.69896052297106
 30
0.0
  0
VERTEX
  5
1EC
330
1E6
100
AcDbEntity
  8
Visible (ANSI)
100
AcDbVertex
100
AcDb2dVertex
 10
40.71030507782304
 20
31.70058540421696
 30
0.0
  0
VERTEX
  5
1ED
330
1E6
100
AcDbEntity
  8
Visible (ANSI)
100
AcDbVertex
100
AcDb2dVertex
 10
40.70819293795599
 20
31.7026625839212
 30
0.0
  0
VERTEX
  5
1EE
330
1E6
100
AcDbEntity
  8
Visible (ANSI)
100
AcDbVertex
100
AcDb2dVertex
 10
40.70608080982214
 20
31.70518316666988
 30
0.0
  0
VERTEX
  5
1EF
330
1E6
100
AcDbEntity
  8
Visible (ANSI)
100
AcDbVertex
100
AcDb2dVertex
 10
40.7039686699551
 20
31.70813635902101
 30
0.0
  0
VERTEX
  5
1F0
330
1E6
100
AcDbEntity
  8
Visible (ANSI)
100
AcDbVertex
100
AcDb2dVertex
 10
40.70185653008805
 20
31.71150951552069
 30
0.0
  0
VERTEX
  5
1F1
330
1E6
100
AcDbEntity
  8
Visible (ANSI)
100
AcDbVertex
100
AcDb2dVertex
 10
40.6997444019542
 20
31.7152881918691
 30
0.0
  0
VERTEX
  5
1F2
330
1E6
100
AcDbEntity
  8
Visible (ANSI)
100
AcDbVertex
100
AcDb2dVertex
 10
40.69763226208716
 20
31.71945620505319
 30
0.0
  0
VERTEX
  5
1F3
330
1E6
100
AcDbEntity
  8
Visible (ANSI)
100
AcDbVertex
100
AcDb2dVertex
 10
40.69552012222011
 20
31.72399571034577
 30
0.0
  0
VERTEX
  5
1F4
330
1E6
100
AcDbEntity
  8
Visible (ANSI)
100
AcDbVertex
100
AcDb2dVertex
 10
40.69340799408626
 20
31.7288872658381
 30
0.0
  0
VERTEX
  5
1F5
330
1E6
100
AcDbEntity
  8
Visible (ANSI)
100
AcDbVertex
100
AcDb2dVertex
 10
40.69129585421921
 20
31.73410992923879
 30
0.0
  0
VERTEX
  5
1F6
330
1E6
100
AcDbEntity
  8
Visible (ANSI)
100
AcDbVertex
100
AcDb2dVertex
 10
40.68918372608537
 20
31.73964133120622
 30
0.0
  0
VERTEX
  5
1F7
330
1E6
100
AcDbEntity
  8
Visible (ANSI)
100
AcDbVertex
100
AcDb2dVertex
 10
40.68707158621832
 20
31.74545778828068
 30
0.0
  0
VERTEX
  5
1F8
330
1E6
100
AcDbEntity
  8
Visible (ANSI)
100
AcDbVertex
100
AcDb2dVertex
 10
40.68495944635126
 20
31.75153439381655
 30
0.0
  0
VERTEX
  5
1F9
330
1E6
100
AcDbEntity
  8
Visible (ANSI)
100
AcDbVertex
100
AcDb2dVertex
 10
40.68284731821742
 20
31.75784512358112
 30
0.0
  0
VERTEX
  5
1FA
330
1E6
100
AcDbEntity
  8
Visible (ANSI)
100
AcDbVertex
100
AcDb2dVertex
 10
40.68073517835038
 20
31.7643629618865
 30
0.0
  0
VERTEX
  5
1FB
330
1E6
100
AcDbEntity
  8
Visible (ANSI)
100
AcDbVertex
100
AcDb2dVertex
 10
40.67862303848333
 20
31.77105998958853
 30
0.0
  0
VERTEX
  5
1FC
330
1E6
100
AcDbEntity
  8
Visible (ANSI)
100
AcDbVertex
100
AcDb2dVertex
 10
40.67651091034949
 20
31.77790753075182
 30
0.0
  0
VERTEX
  5
1FD
330
1E6
100
AcDbEntity
  8
Visible (ANSI)
100
AcDbVertex
100
AcDb2dVertex
 10
40.67439877048244
 20
31.78487626411508
 30
0.0
  0
VERTEX
  5
1FE
330
1E6
100
AcDbEntity
  8
Visible (ANSI)
100
AcDbVertex
100
AcDb2dVertex
 10
40.67228663061539
 20
31.79193635215634
 30
0.0
  0
VERTEX
  5
1FF
330
1E6
100
AcDbEntity
  8
Visible (ANSI)
100
AcDbVertex
100
AcDb2dVertex
 10
40.67017450248154
 20
31.79905756429149
 30
0.0
  0
VERTEX
  5
200
330
1E6
100
AcDbEntity
  8
Visible (ANSI)
100
AcDbVertex
100
AcDb2dVertex
 10
40.6680623626145
 20
31.80620939420628
 30
0.0
  0
SEQEND
  5
1E9
330
1E6
100
AcDbEntity
  8
Visible (ANSI)
  0
LINE
  5
201
330
6C
100
AcDbEntity
  8
Hidden (ANSI)
 48
0.0147804422304034
100
AcDbLine
 10
60.46496236183504
 20
31.85690065416306
 30
0.0
 11
60.55871236183504
 21
31.85690065416306
 31
0.0
  0
POLYLINE
  5
202
330
6C
100
AcDbEntity
  8
Hidden (ANSI)
 48
0.0088364370167255
100
AcDb2dPolyline
 66
     1
 10
0.0
 20
0.0
 30
0.0
 70
   128
  0
VERTEX
  5
203
330
202
100
AcDbEntity
  8
Hidden (ANSI)
 48
0.0088364370167255
100
AcDbVertex
100
AcDb2dVertex
 10
60.44936241268164
 20
31.80620939420628
 30
0.0
  0
VERTEX
  5
204
330
202
100
AcDbEntity
  8
Hidden (ANSI)
 48
0.0088364370167255
100
AcDbVertex
100
AcDb2dVertex
 10
60.450382168368
 20
31.80832153407332
 30
0.0
  0
VERTEX
  5
206
330
202
100
AcDbEntity
  8
Hidden (ANSI)
 48
0.0088364370167255
100
AcDbVertex
100
AcDb2dVertex
 10
60.45139892035573
 20
31.81043366220718
 30
0.0
  0
VERTEX
  5
207
330
202
100
AcDbEntity
  8
Hidden (ANSI)
 48
0.0088364370167255
100
AcDbVertex
100
AcDb2dVertex
 10
60.45240515939823
 20
31.81254580207422
 30
0.0
  0
VERTEX
  5
208
330
202
100
AcDbEntity
  8
Hidden (ANSI)
 48
0.0088364370167255
100
AcDbVertex
100
AcDb2dVertex
 10
60.4533993836462
 20
31.81465794194127
 30
0.0
  0
VERTEX
  5
209
330
202
100
AcDbEntity
  8
Hidden (ANSI)
 48
0.0088364370167255
100
AcDbVertex
100
AcDb2dVertex
 10
60.45437708755169
 20
31.81677007007511
 30
0.0
  0
VERTEX
  5
20A
330
202
100
AcDbEntity
  8
Hidden (ANSI)
 48
0.0088364370167255
100
AcDbVertex
100
AcDb2dVertex
 10
60.45533226371741
 20
31.81888220994216
 30
0.0
  0
VERTEX
  5
20B
330
202
100
AcDbEntity
  8
Hidden (ANSI)
 48
0.0088364370167255
100
AcDbVertex
100
AcDb2dVertex
 10
60.45626190844474
 20
31.82099434980921
 30
0.0
  0
VERTEX
  5
20C
330
202
100
AcDbEntity
  8
Hidden (ANSI)
 48
0.0088364370167255
100
AcDbVertex
100
AcDb2dVertex
 10
60.45716301803505
 20
31.82310647794306
 30
0.0
  0
VERTEX
  5
20D
330
202
100
AcDbEntity
  8
Hidden (ANSI)
 48
0.0088364370167255
100
AcDbVertex
100
AcDb2dVertex
 10
60.45802958509105
 20
31.8252186178101
 30
0.0
  0
VERTEX
  5
20E
330
202
100
AcDbEntity
  8
Hidden (ANSI)
 48
0.0088364370167255
100
AcDbVertex
100
AcDb2dVertex
 10
60.45885860591414
 20
31.82733075767715
 30
0.0
  0
VERTEX
  5
20F
330
202
100
AcDbEntity
  8
Hidden (ANSI)
 48
0.0088364370167255
100
AcDbVertex
100
AcDb2dVertex
 10
60.45964857865498
 20
31.829442885811
 30
0.0
  0
VERTEX
  5
210
330
202
100
AcDbEntity
  8
Hidden (ANSI)
 48
0.0088364370167255
100
AcDbVertex
100
AcDb2dVertex
 10
60.4603934959163
 20
31.83155502567805
 30
0.0
  0
VERTEX
  5
211
330
202
100
AcDbEntity
  8
Hidden (ANSI)
 48
0.0088364370167255
100
AcDbVertex
100
AcDb2dVertex
 10
60.46109035399947
 20
31.8336671538119
 30
0.0
  0
VERTEX
  5
212
330
202
100
AcDbEntity
  8
Hidden (ANSI)
 48
0.0088364370167255
100
AcDbVertex
100
AcDb2dVertex
 10
60.46173915290449
 20
31.83577929367894
 30
0.0
  0
VERTEX
  5
213
330
202
100
AcDbEntity
  8
Hidden (ANSI)
 48
0.0088364370167255
100
AcDbVertex
100
AcDb2dVertex
 10
60.46233388523408
 20
31.83789143354599
 30
0.0
  0
VERTEX
  5
214
330
202
100
AcDbEntity
  8
Hidden (ANSI)
 48
0.0088364370167255
100
AcDbVertex
100
AcDb2dVertex
 10
60.46287304913895
 20
31.84000356167984
 30
0.0
  0
VERTEX
  5
215
330
202
100
AcDbEntity
  8
Hidden (ANSI)
 48
0.0088364370167255
100
AcDbVertex
100
AcDb2dVertex
 10
60.46335364092045
 20
31.84211570154689
 30
0.0
  0
VERTEX
  5
216
330
202
100
AcDbEntity
  8
Hidden (ANSI)
 48
0.0088364370167255
100
AcDbVertex
100
AcDb2dVertex
 10
60.46377415872925
 20
31.84422784141393
 30
0.0
  0
VERTEX
  5
217
330
202
100
AcDbEntity
  8
Hidden (ANSI)
 48
0.0088364370167255
100
AcDbVertex
100
AcDb2dVertex
 10
60.46413460256538
 20
31.84633996954778
 30
0.0
  0
VERTEX
  5
218
330
202
100
AcDbEntity
  8
Hidden (ANSI)
 48
0.0088364370167255
100
AcDbVertex
100
AcDb2dVertex
 10
60.46443046688086
 20
31.84845210941483
 30
0.0
  0
VERTEX
  5
219
330
202
100
AcDbEntity
  8
Hidden (ANSI)
 48
0.0088364370167255
100
AcDbVertex
100
AcDb2dVertex
 10
60.46466325352502
 20
31.85056424928187
 30
0.0
  0
VERTEX
  5
21A
330
202
100
AcDbEntity
  8
Hidden (ANSI)
 48
0.0088364370167255
100
AcDbVertex
100
AcDb2dVertex
 10
60.46482845694991
 20
31.85267637741572
 30
0.0
  0
VERTEX
  5
21B
330
202
100
AcDbEntity
  8
Hidden (ANSI)
 48
0.0088364370167255
100
AcDbVertex
100
AcDb2dVertex
 10
60.46492908085416
 20
31.85478851728277
 30
0.0
  0
VERTEX
  5
21C
330
202
100
AcDbEntity
  8
Hidden (ANSI)
 48
0.0088364370167255
100
AcDbVertex
100
AcDb2dVertex
 10
60.46496212153915
 20
31.85690065714982
 30
0.0
  0
SEQEND
  5
205
330
202
100
AcDbEntity
  8
Hidden (ANSI)
 48
0.0088364370167255
  0
LINE
  5
21D
330
6C
100
AcDbEntity
  8
Hidden (ANSI)
 48
0.0147804422304034
100
AcDbLine
 10
60.46496236183502
 20
91.53681813269058
 30
0.0
 11
60.55871236183502
 21
91.53681813269058
 31
0.0
  0
POLYLINE
  5
21E
330
6C
100
AcDbEntity
  8
Hidden (ANSI)
 48
0.008836317807436
100
AcDb2dPolyline
 66
     1
 10
0.0
 20
0.0
 30
0.0
 70
   128
  0
VERTEX
  5
21F
330
21E
100
AcDbEntity
  8
Hidden (ANSI)
 48
0.008836317807436
100
AcDbVertex
100
AcDb2dVertex
 10
60.44936241268164
 20
91.58751034538299
 30
0.0
  0
VERTEX
  5
220
330
21E
100
AcDbEntity
  8
Hidden (ANSI)
 48
0.008836317807436
100
AcDbVertex
100
AcDb2dVertex
 10
60.450382168368
 20
91.58539574154444
 30
0.0
  0
VERTEX
  5
222
330
21E
100
AcDbEntity
  8
Hidden (ANSI)
 48
0.008836317807436
100
AcDbVertex
100
AcDb2dVertex
 10
60.45139892035573
 20
91.58328714510313
 30
0.0
  0
VERTEX
  5
223
330
21E
100
AcDbEntity
  8
Hidden (ANSI)
 48
0.008836317807436
100
AcDbVertex
100
AcDb2dVertex
 10
60.45240515939823
 20
91.58117254126453
 30
0.0
  0
VERTEX
  5
224
330
21E
100
AcDbEntity
  8
Hidden (ANSI)
 48
0.008836317807436
100
AcDbVertex
100
AcDb2dVertex
 10
60.4533993836462
 20
91.57905793742594
 30
0.0
  0
VERTEX
  5
225
330
21E
100
AcDbEntity
  8
Hidden (ANSI)
 48
0.008836317807436
100
AcDbVertex
100
AcDb2dVertex
 10
60.45437708755169
 20
91.57694934098463
 30
0.0
  0
VERTEX
  5
226
330
21E
100
AcDbEntity
  8
Hidden (ANSI)
 48
0.008836317807436
100
AcDbVertex
100
AcDb2dVertex
 10
60.45533226371741
 20
91.57483473714606
 30
0.0
  0
VERTEX
  5
227
330
21E
100
AcDbEntity
  8
Hidden (ANSI)
 48
0.008836317807436
100
AcDbVertex
100
AcDb2dVertex
 10
60.45626190844474
 20
91.57272614070475
 30
0.0
  0
VERTEX
  5
228
330
21E
100
AcDbEntity
  8
Hidden (ANSI)
 48
0.008836317807436
100
AcDbVertex
100
AcDb2dVertex
 10
60.45716301803505
 20
91.57061153686615
 30
0.0
  0
VERTEX
  5
229
330
21E
100
AcDbEntity
  8
Hidden (ANSI)
 48
0.008836317807436
100
AcDbVertex
100
AcDb2dVertex
 10
60.45802958509105
 20
91.56850294042483
 30
0.0
  0
VERTEX
  5
22A
330
21E
100
AcDbEntity
  8
Hidden (ANSI)
 48
0.008836317807436
100
AcDbVertex
100
AcDb2dVertex
 10
60.45885860591414
 20
91.56638833658623
 30
0.0
  0
VERTEX
  5
22B
330
21E
100
AcDbEntity
  8
Hidden (ANSI)
 48
0.008836317807436
100
AcDbVertex
100
AcDb2dVertex
 10
60.45964857865498
 20
91.5642737327477
 30
0.0
  0
VERTEX
  5
22C
330
21E
100
AcDbEntity
  8
Hidden (ANSI)
 48
0.008836317807436
100
AcDbVertex
100
AcDb2dVertex
 10
60.4603934959163
 20
91.56216513630637
 30
0.0
  0
VERTEX
  5
22D
330
21E
100
AcDbEntity
  8
Hidden (ANSI)
 48
0.008836317807436
100
AcDbVertex
100
AcDb2dVertex
 10
60.46109035399947
 20
91.56005053246778
 30
0.0
  0
VERTEX
  5
22E
330
21E
100
AcDbEntity
  8
Hidden (ANSI)
 48
0.008836317807436
100
AcDbVertex
100
AcDb2dVertex
 10
60.46173915290449
 20
91.55794193602647
 30
0.0
  0
VERTEX
  5
22F
330
21E
100
AcDbEntity
  8
Hidden (ANSI)
 48
0.008836317807436
100
AcDbVertex
100
AcDb2dVertex
 10
60.46233388523408
 20
91.55582733218787
 30
0.0
  0
VERTEX
  5
230
330
21E
100
AcDbEntity
  8
Hidden (ANSI)
 48
0.008836317807436
100
AcDbVertex
100
AcDb2dVertex
 10
60.46287304913895
 20
91.55371272834932
 30
0.0
  0
VERTEX
  5
231
330
21E
100
AcDbEntity
  8
Hidden (ANSI)
 48
0.008836317807436
100
AcDbVertex
100
AcDb2dVertex
 10
60.46335364092045
 20
91.55160413190799
 30
0.0
  0
VERTEX
  5
232
330
21E
100
AcDbEntity
  8
Hidden (ANSI)
 48
0.008836317807436
100
AcDbVertex
100
AcDb2dVertex
 10
60.46377415872925
 20
91.5494895280694
 30
0.0
  0
VERTEX
  5
233
330
21E
100
AcDbEntity
  8
Hidden (ANSI)
 48
0.008836317807436
100
AcDbVertex
100
AcDb2dVertex
 10
60.46413460256538
 20
91.54738093162809
 30
0.0
  0
VERTEX
  5
234
330
21E
100
AcDbEntity
  8
Hidden (ANSI)
 48
0.008836317807436
100
AcDbVertex
100
AcDb2dVertex
 10
60.46443046688086
 20
91.54526632778949
 30
0.0
  0
VERTEX
  5
235
330
21E
100
AcDbEntity
  8
Hidden (ANSI)
 48
0.008836317807436
100
AcDbVertex
100
AcDb2dVertex
 10
60.46466325352502
 20
91.54315172395092
 30
0.0
  0
VERTEX
  5
236
330
21E
100
AcDbEntity
  8
Hidden (ANSI)
 48
0.008836317807436
100
AcDbVertex
100
AcDb2dVertex
 10
60.46482845694991
 20
91.54104312750963
 30
0.0
  0
VERTEX
  5
237
330
21E
100
AcDbEntity
  8
Hidden (ANSI)
 48
0.008836317807436
100
AcDbVertex
100
AcDb2dVertex
 10
60.46492908085416
 20
91.53892852367103
 30
0.0
  0
VERTEX
  5
238
330
21E
100
AcDbEntity
  8
Hidden (ANSI)
 48
0.008836317807436
100
AcDbVertex
100
AcDb2dVertex
 10
60.46496212153915
 20
91.53681992722971
 30
0.0
  0
SEQEND
  5
221
330
21E
100
AcDbEntity
  8
Hidden (ANSI)
 48
0.008836317807436
  0
LINE
  5
239
330
6C
100
AcDbEntity
  8
Hidden (ANSI)
 48
0.0147804422304034
100
AcDbLine
 10
60.39867110109877
 20
91.6031093934268
 30
0.0
 11
60.39867110109877
 21
91.69685939342681
 31
0.0
  0
POLYLINE
  5
23A
330
6C
100
AcDbEntity
  8
Hidden (ANSI)
 48
0.0088364835828543
100
AcDb2dPolyline
 66
     1
 10
0.0
 20
0.0
 30
0.0
 70
   128
  0
VERTEX
  5
23B
330
23A
100
AcDbEntity
  8
Hidden (ANSI)
 48
0.0088364835828543
100
AcDbVertex
100
AcDb2dVertex
 10
60.44936241268164
 20
91.58751034538299
 30
0.0
  0
VERTEX
  5
23C
330
23A
100
AcDbEntity
  8
Hidden (ANSI)
 48
0.0088364835828543
100
AcDbVertex
100
AcDb2dVertex
 10
60.4472508125417
 20
91.58853160291871
 30
0.0
  0
VERTEX
  5
23E
330
23A
100
AcDbEntity
  8
Hidden (ANSI)
 48
0.0088364835828543
100
AcDbVertex
100
AcDb2dVertex
 10
60.44513771055243
 20
91.58954685305708
 30
0.0
  0
VERTEX
  5
23F
330
23A
100
AcDbEntity
  8
Hidden (ANSI)
 48
0.0088364835828543
100
AcDbVertex
100
AcDb2dVertex
 10
60.44302611041247
 20
91.59055008840098
 30
0.0
  0
VERTEX
  5
240
330
23A
100
AcDbEntity
  8
Hidden (ANSI)
 48
0.0088364835828543
100
AcDbVertex
100
AcDb2dVertex
 10
60.44091451027253
 20
91.59154731634757
 30
0.0
  0
VERTEX
  5
241
330
23A
100
AcDbEntity
  8
Hidden (ANSI)
 48
0.0088364835828543
100
AcDbVertex
100
AcDb2dVertex
 10
60.43880140828327
 20
91.59252652210238
 30
0.0
  0
VERTEX
  5
242
330
23A
100
AcDbEntity
  8
Hidden (ANSI)
 48
0.0088364835828543
100
AcDbVertex
100
AcDb2dVertex
 10
60.43668980814332
 20
91.59348169826809
 30
0.0
  0
VERTEX
  5
243
330
23A
100
AcDbEntity
  8
Hidden (ANSI)
 48
0.0088364835828543
100
AcDbVertex
100
AcDb2dVertex
 10
60.43457670615405
 20
91.59440683744749
 30
0.0
  0
VERTEX
  5
244
330
23A
100
AcDbEntity
  8
Hidden (ANSI)
 48
0.0088364835828543
100
AcDbVertex
100
AcDb2dVertex
 10
60.43246510601409
 20
91.5953079470378
 30
0.0
  0
VERTEX
  5
245
330
23A
100
AcDbEntity
  8
Hidden (ANSI)
 48
0.0088364835828543
100
AcDbVertex
100
AcDb2dVertex
 10
60.43035350587416
 20
91.59617901964173
 30
0.0
  0
VERTEX
  5
246
330
23A
100
AcDbEntity
  8
Hidden (ANSI)
 48
0.0088364835828543
100
AcDbVertex
100
AcDb2dVertex
 10
60.42824040388489
 20
91.59700804046481
 30
0.0
  0
VERTEX
  5
247
330
23A
100
AcDbEntity
  8
Hidden (ANSI)
 48
0.0088364835828543
100
AcDbVertex
100
AcDb2dVertex
 10
60.42612880374495
 20
91.59779500950703
 30
0.0
  0
VERTEX
  5
248
330
23A
100
AcDbEntity
  8
Hidden (ANSI)
 48
0.0088364835828543
100
AcDbVertex
100
AcDb2dVertex
 10
60.42401720360499
 20
91.59853992676834
 30
0.0
  0
VERTEX
  5
249
330
23A
100
AcDbEntity
  8
Hidden (ANSI)
 48
0.0088364835828543
100
AcDbVertex
100
AcDb2dVertex
 10
60.42190410161572
 20
91.59923678485153
 30
0.0
  0
VERTEX
  5
24A
330
23A
100
AcDbEntity
  8
Hidden (ANSI)
 48
0.0088364835828543
100
AcDbVertex
100
AcDb2dVertex
 10
60.41979250147578
 20
91.59988558375655
 30
0.0
  0
VERTEX
  5
24B
330
23A
100
AcDbEntity
  8
Hidden (ANSI)
 48
0.0088364835828543
100
AcDbVertex
100
AcDb2dVertex
 10
60.41768090133583
 20
91.60048031608615
 30
0.0
  0
VERTEX
  5
24C
330
23A
100
AcDbEntity
  8
Hidden (ANSI)
 48
0.0088364835828543
100
AcDbVertex
100
AcDb2dVertex
 10
60.41556779934657
 20
91.60102098184033
 30
0.0
  0
VERTEX
  5
24D
330
23A
100
AcDbEntity
  8
Hidden (ANSI)
 48
0.0088364835828543
100
AcDbVertex
100
AcDb2dVertex
 10
60.41345619920662
 20
91.60150157362181
 30
0.0
  0
VERTEX
  5
24E
330
23A
100
AcDbEntity
  8
Hidden (ANSI)
 48
0.0088364835828543
100
AcDbVertex
100
AcDb2dVertex
 10
60.41134459906666
 20
91.60192209143064
 30
0.0
  0
VERTEX
  5
24F
330
23A
100
AcDbEntity
  8
Hidden (ANSI)
 48
0.0088364835828543
100
AcDbVertex
100
AcDb2dVertex
 10
60.4092314970774
 20
91.60228253526675
 30
0.0
  0
VERTEX
  5
250
330
23A
100
AcDbEntity
  8
Hidden (ANSI)
 48
0.0088364835828543
100
AcDbVertex
100
AcDb2dVertex
 10
60.40711989693746
 20
91.6025768977329
 30
0.0
  0
VERTEX
  5
251
330
23A
100
AcDbEntity
  8
Hidden (ANSI)
 48
0.0088364835828543
100
AcDbVertex
100
AcDb2dVertex
 10
60.40500679494819
 20
91.60281118622638
 30
0.0
  0
VERTEX
  5
252
330
23A
100
AcDbEntity
  8
Hidden (ANSI)
 48
0.0088364835828543
100
AcDbVertex
100
AcDb2dVertex
 10
60.40289519480824
 20
91.60297338595263
 30
0.0
  0
VERTEX
  5
253
330
23A
100
AcDbEntity
  8
Hidden (ANSI)
 48
0.0088364835828543
100
AcDbVertex
100
AcDb2dVertex
 10
60.40078359466829
 20
91.60307551170623
 30
0.0
  0
VERTEX
  5
254
330
23A
100
AcDbEntity
  8
Hidden (ANSI)
 48
0.0088364835828543
100
AcDbVertex
100
AcDb2dVertex
 10
60.39867049267903
 20
91.60311155608985
 30
0.0
  0
SEQEND
  5
23D
330
23A
100
AcDbEntity
  8
Hidden (ANSI)
 48
0.0088364835828543
  0
LINE
  5
255
330
6C
100
AcDbEntity
  8
Hidden (ANSI)
 48
0.0147804422304034
100
AcDbLine
 10
40.71875362257125
 20
91.6031093934268
 30
0.0
 11
40.71875362257125
 21
91.69685939342681
 31
0.0
  0
POLYLINE
  5
256
330
6C
100
AcDbEntity
  8
Hidden (ANSI)
 48
0.0088363895192742
100
AcDb2dPolyline
 66
     1
 10
0.0
 20
0.0
 30
0.0
 70
   128
  0
VERTEX
  5
257
330
256
100
AcDbEntity
  8
Hidden (ANSI)
 48
0.0088363895192742
100
AcDbVertex
100
AcDb2dVertex
 10
40.6680623626145
 20
91.58751034538299
 30
0.0
  0
VERTEX
  5
258
330
256
100
AcDbEntity
  8
Hidden (ANSI)
 48
0.0088363895192742
100
AcDbVertex
100
AcDb2dVertex
 10
40.67017450248154
 20
91.58853160291871
 30
0.0
  0
VERTEX
  5
25A
330
256
100
AcDbEntity
  8
Hidden (ANSI)
 48
0.0088363895192742
100
AcDbVertex
100
AcDb2dVertex
 10
40.67228663061539
 20
91.58954685305708
 30
0.0
  0
VERTEX
  5
25B
330
256
100
AcDbEntity
  8
Hidden (ANSI)
 48
0.0088363895192742
100
AcDbVertex
100
AcDb2dVertex
 10
40.67439877048244
 20
91.59055008840098
 30
0.0
  0
VERTEX
  5
25C
330
256
100
AcDbEntity
  8
Hidden (ANSI)
 48
0.0088363895192742
100
AcDbVertex
100
AcDb2dVertex
 10
40.67651091034949
 20
91.59154731634757
 30
0.0
  0
VERTEX
  5
25D
330
256
100
AcDbEntity
  8
Hidden (ANSI)
 48
0.0088363895192742
100
AcDbVertex
100
AcDb2dVertex
 10
40.67862303848333
 20
91.59252652210238
 30
0.0
  0
VERTEX
  5
25E
330
256
100
AcDbEntity
  8
Hidden (ANSI)
 48
0.0088363895192742
100
AcDbVertex
100
AcDb2dVertex
 10
40.68073517835038
 20
91.59348169826809
 30
0.0
  0
VERTEX
  5
25F
330
256
100
AcDbEntity
  8
Hidden (ANSI)
 48
0.0088363895192742
100
AcDbVertex
100
AcDb2dVertex
 10
40.68284731821742
 20
91.59440683744749
 30
0.0
  0
VERTEX
  5
260
330
256
100
AcDbEntity
  8
Hidden (ANSI)
 48
0.0088363895192742
100
AcDbVertex
100
AcDb2dVertex
 10
40.68495944635126
 20
91.5953079470378
 30
0.0
  0
VERTEX
  5
261
330
256
100
AcDbEntity
  8
Hidden (ANSI)
 48
0.0088363895192742
100
AcDbVertex
100
AcDb2dVertex
 10
40.68707158621832
 20
91.59617901964173
 30
0.0
  0
VERTEX
  5
262
330
256
100
AcDbEntity
  8
Hidden (ANSI)
 48
0.0088363895192742
100
AcDbVertex
100
AcDb2dVertex
 10
40.68918372608537
 20
91.59700804046481
 30
0.0
  0
VERTEX
  5
263
330
256
100
AcDbEntity
  8
Hidden (ANSI)
 48
0.0088363895192742
100
AcDbVertex
100
AcDb2dVertex
 10
40.69129585421921
 20
91.59779500950703
 30
0.0
  0
VERTEX
  5
264
330
256
100
AcDbEntity
  8
Hidden (ANSI)
 48
0.0088363895192742
100
AcDbVertex
100
AcDb2dVertex
 10
40.69340799408626
 20
91.59853992676834
 30
0.0
  0
VERTEX
  5
265
330
256
100
AcDbEntity
  8
Hidden (ANSI)
 48
0.0088363895192742
100
AcDbVertex
100
AcDb2dVertex
 10
40.69552012222011
 20
91.59923678485153
 30
0.0
  0
VERTEX
  5
266
330
256
100
AcDbEntity
  8
Hidden (ANSI)
 48
0.0088363895192742
100
AcDbVertex
100
AcDb2dVertex
 10
40.69763226208716
 20
91.59988558375655
 30
0.0
  0
VERTEX
  5
267
330
256
100
AcDbEntity
  8
Hidden (ANSI)
 48
0.0088363895192742
100
AcDbVertex
100
AcDb2dVertex
 10
40.6997444019542
 20
91.60048031608615
 30
0.0
  0
VERTEX
  5
268
330
256
100
AcDbEntity
  8
Hidden (ANSI)
 48
0.0088363895192742
100
AcDbVertex
100
AcDb2dVertex
 10
40.70185653008805
 20
91.60102098184033
 30
0.0
  0
VERTEX
  5
269
330
256
100
AcDbEntity
  8
Hidden (ANSI)
 48
0.0088363895192742
100
AcDbVertex
100
AcDb2dVertex
 10
40.7039686699551
 20
91.60150157362181
 30
0.0
  0
VERTEX
  5
26A
330
256
100
AcDbEntity
  8
Hidden (ANSI)
 48
0.0088363895192742
100
AcDbVertex
100
AcDb2dVertex
 10
40.70608080982214
 20
91.60192209143064
 30
0.0
  0
VERTEX
  5
26B
330
256
100
AcDbEntity
  8
Hidden (ANSI)
 48
0.0088363895192742
100
AcDbVertex
100
AcDb2dVertex
 10
40.70819293795599
 20
91.60228253526675
 30
0.0
  0
VERTEX
  5
26C
330
256
100
AcDbEntity
  8
Hidden (ANSI)
 48
0.0088363895192742
100
AcDbVertex
100
AcDb2dVertex
 10
40.71030507782304
 20
91.6025768977329
 30
0.0
  0
VERTEX
  5
26D
330
256
100
AcDbEntity
  8
Hidden (ANSI)
 48
0.0088363895192742
100
AcDbVertex
100
AcDb2dVertex
 10
40.71241721769009
 20
91.60281118622638
 30
0.0
  0
VERTEX
  5
26E
330
256
100
AcDbEntity
  8
Hidden (ANSI)
 48
0.0088363895192742
100
AcDbVertex
100
AcDb2dVertex
 10
40.71452934582394
 20
91.60297338595263
 30
0.0
  0
VERTEX
  5
26F
330
256
100
AcDbEntity
  8
Hidden (ANSI)
 48
0.0088363895192742
100
AcDbVertex
100
AcDb2dVertex
 10
40.71664148569099
 20
91.60307551170623
 30
0.0
  0
VERTEX
  5
270
330
256
100
AcDbEntity
  8
Hidden (ANSI)
 48
0.0088363895192742
100
AcDbVertex
100
AcDb2dVertex
 10
40.71875362555803
 20
91.60311155608985
 30
0.0
  0
SEQEND
  5
259
330
256
100
AcDbEntity
  8
Hidden (ANSI)
 48
0.0088363895192742
  0
LINE
  5
271
330
6C
100
AcDbEntity
  8
Hidden (ANSI)
 48
0.0147804422304034
100
AcDbLine
 10
40.65246236183502
 20
91.53681813269058
 30
0.0
 11
40.55871236183501
 21
91.53681813269058
 31
0.0
  0
POLYLINE
  5
272
330
6C
100
AcDbEntity
  8
Hidden (ANSI)
 48
0.0088363168761134
100
AcDb2dPolyline
 66
     1
 10
0.0
 20
0.0
 30
0.0
 70
   128
  0
VERTEX
  5
273
330
272
100
AcDbEntity
  8
Hidden (ANSI)
 48
0.0088363168761134
100
AcDbVertex
100
AcDb2dVertex
 10
40.6680623626145
 20
91.58751034538299
 30
0.0
  0
VERTEX
  5
274
330
272
100
AcDbEntity
  8
Hidden (ANSI)
 48
0.0088363168761134
100
AcDbVertex
100
AcDb2dVertex
 10
40.66704206720103
 20
91.58539574154444
 30
0.0
  0
VERTEX
  5
276
330
272
100
AcDbEntity
  8
Hidden (ANSI)
 48
0.0088363168761134
100
AcDbVertex
100
AcDb2dVertex
 10
40.66602614827035
 20
91.58328714510313
 30
0.0
  0
VERTEX
  5
277
330
272
100
AcDbEntity
  8
Hidden (ANSI)
 48
0.0088363168761134
100
AcDbVertex
100
AcDb2dVertex
 10
40.66501894710562
 20
91.58117254126453
 30
0.0
  0
VERTEX
  5
278
330
272
100
AcDbEntity
  8
Hidden (ANSI)
 48
0.0088363168761134
100
AcDbVertex
100
AcDb2dVertex
 10
40.66402478152364
 20
91.57905793742594
 30
0.0
  0
VERTEX
  5
279
330
272
100
AcDbEntity
  8
Hidden (ANSI)
 48
0.0088363168761134
100
AcDbVertex
100
AcDb2dVertex
 10
40.6630479106752
 20
91.57694934098463
 30
0.0
  0
VERTEX
  5
27A
330
272
100
AcDbEntity
  8
Hidden (ANSI)
 48
0.0088363168761134
100
AcDbVertex
100
AcDb2dVertex
 10
40.66209249984552
 20
91.57483473714606
 30
0.0
  0
VERTEX
  5
27B
330
272
100
AcDbEntity
  8
Hidden (ANSI)
 48
0.0088363168761134
100
AcDbVertex
100
AcDb2dVertex
 10
40.66116265565383
 20
91.57272614070475
 30
0.0
  0
VERTEX
  5
27C
330
272
100
AcDbEntity
  8
Hidden (ANSI)
 48
0.0088363168761134
100
AcDbVertex
100
AcDb2dVertex
 10
40.66026236738737
 20
91.57061153686615
 30
0.0
  0
VERTEX
  5
27D
330
272
100
AcDbEntity
  8
Hidden (ANSI)
 48
0.0088363168761134
100
AcDbVertex
100
AcDb2dVertex
 10
40.65939547180183
 20
91.56850294042483
 30
0.0
  0
VERTEX
  5
27E
330
272
100
AcDbEntity
  8
Hidden (ANSI)
 48
0.0088363168761134
100
AcDbVertex
100
AcDb2dVertex
 10
40.65856568832089
 20
91.56638833658623
 30
0.0
  0
VERTEX
  5
27F
330
272
100
AcDbEntity
  8
Hidden (ANSI)
 48
0.0088363168761134
100
AcDbVertex
100
AcDb2dVertex
 10
40.65777657210349
 20
91.5642737327477
 30
0.0
  0
VERTEX
  5
280
330
272
100
AcDbEntity
  8
Hidden (ANSI)
 48
0.0088363168761134
100
AcDbVertex
100
AcDb2dVertex
 10
40.657031496444
 20
91.56216513630637
 30
0.0
  0
VERTEX
  5
281
330
272
100
AcDbEntity
  8
Hidden (ANSI)
 48
0.0088363168761134
100
AcDbVertex
100
AcDb2dVertex
 10
40.65633365863881
 20
91.56005053246778
 30
0.0
  0
VERTEX
  5
282
330
272
100
AcDbEntity
  8
Hidden (ANSI)
 48
0.0088363168761134
100
AcDbVertex
100
AcDb2dVertex
 10
40.65568605065338
 20
91.55794193602647
 30
0.0
  0
VERTEX
  5
283
330
272
100
AcDbEntity
  8
Hidden (ANSI)
 48
0.0088363168761134
100
AcDbVertex
100
AcDb2dVertex
 10
40.65509143565575
 20
91.55582733218787
 30
0.0
  0
VERTEX
  5
284
330
272
100
AcDbEntity
  8
Hidden (ANSI)
 48
0.0088363168761134
100
AcDbVertex
100
AcDb2dVertex
 10
40.65455236561646
 20
91.55371272834932
 30
0.0
  0
VERTEX
  5
285
330
272
100
AcDbEntity
  8
Hidden (ANSI)
 48
0.0088363168761134
100
AcDbVertex
100
AcDb2dVertex
 10
40.65407114610889
 20
91.55160413190799
 30
0.0
  0
VERTEX
  5
286
330
272
100
AcDbEntity
  8
Hidden (ANSI)
 48
0.0088363168761134
100
AcDbVertex
100
AcDb2dVertex
 10
40.65364984217583
 20
91.5494895280694
 30
0.0
  0
VERTEX
  5
287
330
272
100
AcDbEntity
  8
Hidden (ANSI)
 48
0.0088363168761134
100
AcDbVertex
100
AcDb2dVertex
 10
40.65329024899654
 20
91.54738093162809
 30
0.0
  0
VERTEX
  5
288
330
272
100
AcDbEntity
  8
Hidden (ANSI)
 48
0.0088363168761134
100
AcDbVertex
100
AcDb2dVertex
 10
40.65299392121974
 20
91.54526632778949
 30
0.0
  0
VERTEX
  5
289
330
272
100
AcDbEntity
  8
Hidden (ANSI)
 48
0.0088363168761134
100
AcDbVertex
100
AcDb2dVertex
 10
40.6527621142976
 20
91.54315172395092
 30
0.0
  0
VERTEX
  5
28A
330
272
100
AcDbEntity
  8
Hidden (ANSI)
 48
0.0088363168761134
100
AcDbVertex
100
AcDb2dVertex
 10
40.65259581968532
 20
91.54104312750963
 30
0.0
  0
VERTEX
  5
28B
330
272
100
AcDbEntity
  8
Hidden (ANSI)
 48
0.0088363168761134
100
AcDbVertex
100
AcDb2dVertex
 10
40.65249576484116
 20
91.53892852367103
 30
0.0
  0
VERTEX
  5
28C
330
272
100
AcDbEntity
  8
Hidden (ANSI)
 48
0.0088363168761134
100
AcDbVertex
100
AcDb2dVertex
 10
40.65246236042705
 20
91.53681992722971
 30
0.0
  0
SEQEND
  5
275
330
272
100
AcDbEntity
  8
Hidden (ANSI)
 48
0.0088363168761134
  0
LINE
  5
28D
330
6C
100
AcDbEntity
  8
Hidden (ANSI)
 48
0.0147804422304034
100
AcDbLine
 10
40.65246236183504
 20
31.85690065416305
 30
0.0
 11
40.55871236183503
 21
31.85690065416305
 31
0.0
  0
POLYLINE
  5
28E
330
6C
100
AcDbEntity
  8
Hidden (ANSI)
 48
0.008836436085403
100
AcDb2dPolyline
 66
     1
 10
0.0
 20
0.0
 30
0.0
 70
   128
  0
VERTEX
  5
28F
330
28E
100
AcDbEntity
  8
Hidden (ANSI)
 48
0.008836436085403
100
AcDbVertex
100
AcDb2dVertex
 10
40.6680623626145
 20
31.80620939420628
 30
0.0
  0
VERTEX
  5
290
330
28E
100
AcDbEntity
  8
Hidden (ANSI)
 48
0.008836436085403
100
AcDbVertex
100
AcDb2dVertex
 10
40.66704206720103
 20
31.80832153407332
 30
0.0
  0
VERTEX
  5
292
330
28E
100
AcDbEntity
  8
Hidden (ANSI)
 48
0.008836436085403
100
AcDbVertex
100
AcDb2dVertex
 10
40.66602614827035
 20
31.81043366220718
 30
0.0
  0
VERTEX
  5
293
330
28E
100
AcDbEntity
  8
Hidden (ANSI)
 48
0.008836436085403
100
AcDbVertex
100
AcDb2dVertex
 10
40.66501894710562
 20
31.81254580207422
 30
0.0
  0
VERTEX
  5
294
330
28E
100
AcDbEntity
  8
Hidden (ANSI)
 48
0.008836436085403
100
AcDbVertex
100
AcDb2dVertex
 10
40.66402478152364
 20
31.81465794194127
 30
0.0
  0
VERTEX
  5
295
330
28E
100
AcDbEntity
  8
Hidden (ANSI)
 48
0.008836436085403
100
AcDbVertex
100
AcDb2dVertex
 10
40.6630479106752
 20
31.81677007007511
 30
0.0
  0
VERTEX
  5
296
330
28E
100
AcDbEntity
  8
Hidden (ANSI)
 48
0.008836436085403
100
AcDbVertex
100
AcDb2dVertex
 10
40.66209249984552
 20
31.81888220994216
 30
0.0
  0
VERTEX
  5
297
330
28E
100
AcDbEntity
  8
Hidden (ANSI)
 48
0.008836436085403
100
AcDbVertex
100
AcDb2dVertex
 10
40.66116265565383
 20
31.82099434980921
 30
0.0
  0
VERTEX
  5
298
330
28E
100
AcDbEntity
  8
Hidden (ANSI)
 48
0.008836436085403
100
AcDbVertex
100
AcDb2dVertex
 10
40.66026236738737
 20
31.82310647794306
 30
0.0
  0
VERTEX
  5
299
330
28E
100
AcDbEntity
  8
Hidden (ANSI)
 48
0.008836436085403
100
AcDbVertex
100
AcDb2dVertex
 10
40.65939547180183
 20
31.8252186178101
 30
0.0
  0
VERTEX
  5
29A
330
28E
100
AcDbEntity
  8
Hidden (ANSI)
 48
0.008836436085403
100
AcDbVertex
100
AcDb2dVertex
 10
40.65856568832089
 20
31.82733075767715
 30
0.0
  0
VERTEX
  5
29B
330
28E
100
AcDbEntity
  8
Hidden (ANSI)
 48
0.008836436085403
100
AcDbVertex
100
AcDb2dVertex
 10
40.65777657210349
 20
31.829442885811
 30
0.0
  0
VERTEX
  5
29C
330
28E
100
AcDbEntity
  8
Hidden (ANSI)
 48
0.008836436085403
100
AcDbVertex
100
AcDb2dVertex
 10
40.657031496444
 20
31.83155502567805
 30
0.0
  0
VERTEX
  5
29D
330
28E
100
AcDbEntity
  8
Hidden (ANSI)
 48
0.008836436085403
100
AcDbVertex
100
AcDb2dVertex
 10
40.65633365863881
 20
31.8336671538119
 30
0.0
  0
VERTEX
  5
29E
330
28E
100
AcDbEntity
  8
Hidden (ANSI)
 48
0.008836436085403
100
AcDbVertex
100
AcDb2dVertex
 10
40.65568605065338
 20
31.83577929367894
 30
0.0
  0
VERTEX
  5
29F
330
28E
100
AcDbEntity
  8
Hidden (ANSI)
 48
0.008836436085403
100
AcDbVertex
100
AcDb2dVertex
 10
40.65509143565575
 20
31.83789143354599
 30
0.0
  0
VERTEX
  5
2A0
330
28E
100
AcDbEntity
  8
Hidden (ANSI)
 48
0.008836436085403
100
AcDbVertex
100
AcDb2dVertex
 10
40.65455236561646
 20
31.84000356167984
 30
0.0
  0
VERTEX
  5
2A1
330
28E
100
AcDbEntity
  8
Hidden (ANSI)
 48
0.008836436085403
100
AcDbVertex
100
AcDb2dVertex
 10
40.65407114610889
 20
31.84211570154689
 30
0.0
  0
VERTEX
  5
2A2
330
28E
100
AcDbEntity
  8
Hidden (ANSI)
 48
0.008836436085403
100
AcDbVertex
100
AcDb2dVertex
 10
40.65364984217583
 20
31.84422784141393
 30
0.0
  0
VERTEX
  5
2A3
330
28E
100
AcDbEntity
  8
Hidden (ANSI)
 48
0.008836436085403
100
AcDbVertex
100
AcDb2dVertex
 10
40.65329024899654
 20
31.84633996954778
 30
0.0
  0
VERTEX
  5
2A4
330
28E
100
AcDbEntity
  8
Hidden (ANSI)
 48
0.008836436085403
100
AcDbVertex
100
AcDb2dVertex
 10
40.65299392121974
 20
31.84845210941483
 30
0.0
  0
VERTEX
  5
2A5
330
28E
100
AcDbEntity
  8
Hidden (ANSI)
 48
0.008836436085403
100
AcDbVertex
100
AcDb2dVertex
 10
40.6527621142976
 20
31.85056424928187
 30
0.0
  0
VERTEX
  5
2A6
330
28E
100
AcDbEntity
  8
Hidden (ANSI)
 48
0.008836436085403
100
AcDbVertex
100
AcDb2dVertex
 10
40.65259581968532
 20
31.85267637741572
 30
0.0
  0
VERTEX
  5
2A7
330
28E
100
AcDbEntity
  8
Hidden (ANSI)
 48
0.008836436085403
100
AcDbVertex
100
AcDb2dVertex
 10
40.65249576484116
 20
31.85478851728277
 30
0.0
  0
VERTEX
  5
2A8
330
28E
100
AcDbEntity
  8
Hidden (ANSI)
 48
0.008836436085403
100
AcDbVertex
100
AcDb2dVertex
 10
40.65246236042705
 20
31.85690065714982
 30
0.0
  0
SEQEND
  5
291
330
28E
100
AcDbEntity
  8
Hidden (ANSI)
 48
0.008836436085403
  0
LINE
  5
2A9
330
6C
100
AcDbEntity
  8
Hidden (ANSI)
 48
0.0147804422304034
100
AcDbLine
 10
40.71875362257127
 20
31.79060939342682
 30
0.0
 11
40.71875362257127
 21
31.69685939342682
 31
0.0
  0
POLYLINE
  5
2AA
330
6C
100
AcDbEntity
  8
Hidden (ANSI)
 48
0.008836436085403
100
AcDb2dPolyline
 66
     1
 10
0.0
 20
0.0
 30
0.0
 70
   128
  0
VERTEX
  5
2AB
330
2AA
100
AcDbEntity
  8
Hidden (ANSI)
 48
0.008836436085403
100
AcDbVertex
100
AcDb2dVertex
 10
40.6680623626145
 20
31.80620939420628
 30
0.0
  0
VERTEX
  5
2AC
330
2AA
100
AcDbEntity
  8
Hidden (ANSI)
 48
0.008836436085403
100
AcDbVertex
100
AcDb2dVertex
 10
40.67017450248154
 20
31.80518909879282
 30
0.0
  0
VERTEX
  5
2AE
330
2AA
100
AcDbEntity
  8
Hidden (ANSI)
 48
0.008836436085403
100
AcDbVertex
100
AcDb2dVertex
 10
40.67228663061539
 20
31.80417317986214
 30
0.0
  0
VERTEX
  5
2AF
330
2AA
100
AcDbEntity
  8
Hidden (ANSI)
 48
0.008836436085403
100
AcDbVertex
100
AcDb2dVertex
 10
40.67439877048244
 20
31.80316597869741
 30
0.0
  0
VERTEX
  5
2B0
330
2AA
100
AcDbEntity
  8
Hidden (ANSI)
 48
0.008836436085403
100
AcDbVertex
100
AcDb2dVertex
 10
40.67651091034949
 20
31.80217181311542
 30
0.0
  0
VERTEX
  5
2B1
330
2AA
100
AcDbEntity
  8
Hidden (ANSI)
 48
0.008836436085403
100
AcDbVertex
100
AcDb2dVertex
 10
40.67862303848333
 20
31.80119494226699
 30
0.0
  0
VERTEX
  5
2B2
330
2AA
100
AcDbEntity
  8
Hidden (ANSI)
 48
0.008836436085403
100
AcDbVertex
100
AcDb2dVertex
 10
40.68073517835038
 20
31.80023953143731
 30
0.0
  0
VERTEX
  5
2B3
330
2AA
100
AcDbEntity
  8
Hidden (ANSI)
 48
0.008836436085403
100
AcDbVertex
100
AcDb2dVertex
 10
40.68284731821742
 20
31.79930968724562
 30
0.0
  0
VERTEX
  5
2B4
330
2AA
100
AcDbEntity
  8
Hidden (ANSI)
 48
0.008836436085403
100
AcDbVertex
100
AcDb2dVertex
 10
40.68495944635126
 20
31.79840939897915
 30
0.0
  0
VERTEX
  5
2B5
330
2AA
100
AcDbEntity
  8
Hidden (ANSI)
 48
0.008836436085403
100
AcDbVertex
100
AcDb2dVertex
 10
40.68707158621832
 20
31.79754250339361
 30
0.0
  0
VERTEX
  5
2B6
330
2AA
100
AcDbEntity
  8
Hidden (ANSI)
 48
0.008836436085403
100
AcDbVertex
100
AcDb2dVertex
 10
40.68918372608537
 20
31.79671271991267
 30
0.0
  0
VERTEX
  5
2B7
330
2AA
100
AcDbEntity
  8
Hidden (ANSI)
 48
0.008836436085403
100
AcDbVertex
100
AcDb2dVertex
 10
40.69129585421921
 20
31.79592360369527
 30
0.0
  0
VERTEX
  5
2B8
330
2AA
100
AcDbEntity
  8
Hidden (ANSI)
 48
0.008836436085403
100
AcDbVertex
100
AcDb2dVertex
 10
40.69340799408626
 20
31.79517852803579
 30
0.0
  0
VERTEX
  5
2B9
330
2AA
100
AcDbEntity
  8
Hidden (ANSI)
 48
0.008836436085403
100
AcDbVertex
100
AcDb2dVertex
 10
40.69552012222011
 20
31.7944806902306
 30
0.0
  0
VERTEX
  5
2BA
330
2AA
100
AcDbEntity
  8
Hidden (ANSI)
 48
0.008836436085403
100
AcDbVertex
100
AcDb2dVertex
 10
40.69763226208716
 20
31.79383308224516
 30
0.0
  0
VERTEX
  5
2BB
330
2AA
100
AcDbEntity
  8
Hidden (ANSI)
 48
0.008836436085403
100
AcDbVertex
100
AcDb2dVertex
 10
40.6997444019542
 20
31.79323846724753
 30
0.0
  0
VERTEX
  5
2BC
330
2AA
100
AcDbEntity
  8
Hidden (ANSI)
 48
0.008836436085403
100
AcDbVertex
100
AcDb2dVertex
 10
40.70185653008805
 20
31.79269939720825
 30
0.0
  0
VERTEX
  5
2BD
330
2AA
100
AcDbEntity
  8
Hidden (ANSI)
 48
0.008836436085403
100
AcDbVertex
100
AcDb2dVertex
 10
40.7039686699551
 20
31.79221817770067
 30
0.0
  0
VERTEX
  5
2BE
330
2AA
100
AcDbEntity
  8
Hidden (ANSI)
 48
0.008836436085403
100
AcDbVertex
100
AcDb2dVertex
 10
40.70608080982214
 20
31.79179687376761
 30
0.0
  0
VERTEX
  5
2BF
330
2AA
100
AcDbEntity
  8
Hidden (ANSI)
 48
0.008836436085403
100
AcDbVertex
100
AcDb2dVertex
 10
40.70819293795599
 20
31.79143728058833
 30
0.0
  0
VERTEX
  5
2C0
330
2AA
100
AcDbEntity
  8
Hidden (ANSI)
 48
0.008836436085403
100
AcDbVertex
100
AcDb2dVertex
 10
40.71030507782304
 20
31.79114095281153
 30
0.0
  0
VERTEX
  5
2C1
330
2AA
100
AcDbEntity
  8
Hidden (ANSI)
 48
0.008836436085403
100
AcDbVertex
100
AcDb2dVertex
 10
40.71241721769009
 20
31.79090914588939
 30
0.0
  0
VERTEX
  5
2C2
330
2AA
100
AcDbEntity
  8
Hidden (ANSI)
 48
0.008836436085403
100
AcDbVertex
100
AcDb2dVertex
 10
40.71452934582394
 20
31.7907428512771
 30
0.0
  0
VERTEX
  5
2C3
330
2AA
100
AcDbEntity
  8
Hidden (ANSI)
 48
0.008836436085403
100
AcDbVertex
100
AcDb2dVertex
 10
40.71664148569099
 20
31.79064279643294
 30
0.0
  0
VERTEX
  5
2C4
330
2AA
100
AcDbEntity
  8
Hidden (ANSI)
 48
0.008836436085403
100
AcDbVertex
100
AcDb2dVertex
 10
40.71875362555803
 20
31.79060939201884
 30
0.0
  0
SEQEND
  5
2AD
330
2AA
100
AcDbEntity
  8
Hidden (ANSI)
 48
0.008836436085403
  0
LINE
  5
2C5
330
6C
100
AcDbEntity
  8
Hidden (ANSI)
 48
0.0147804422304034
100
AcDbLine
 10
60.39867110109879
 20
31.79060939342682
 30
0.0
 11
60.39867110109879
 21
31.69685939342682
 31
0.0
  0
POLYLINE
  5
2C6
330
6C
100
AcDbEntity
  8
Hidden (ANSI)
 48
0.008836530148983
100
AcDb2dPolyline
 66
     1
 10
0.0
 20
0.0
 30
0.0
 70
   128
  0
VERTEX
  5
2C7
330
2C6
100
AcDbEntity
  8
Hidden (ANSI)
 48
0.008836530148983
100
AcDbVertex
100
AcDb2dVertex
 10
60.44936241268164
 20
31.80620939420628
 30
0.0
  0
VERTEX
  5
2C8
330
2C6
100
AcDbEntity
  8
Hidden (ANSI)
 48
0.008836530148983
100
AcDbVertex
100
AcDb2dVertex
 10
60.4472508125417
 20
31.80518909879282
 30
0.0
  0
VERTEX
  5
2CA
330
2C6
100
AcDbEntity
  8
Hidden (ANSI)
 48
0.008836530148983
100
AcDbVertex
100
AcDb2dVertex
 10
60.44513771055243
 20
31.80417317986214
 30
0.0
  0
VERTEX
  5
2CB
330
2C6
100
AcDbEntity
  8
Hidden (ANSI)
 48
0.008836530148983
100
AcDbVertex
100
AcDb2dVertex
 10
60.44302611041247
 20
31.80316597869741
 30
0.0
  0
VERTEX
  5
2CC
330
2C6
100
AcDbEntity
  8
Hidden (ANSI)
 48
0.008836530148983
100
AcDbVertex
100
AcDb2dVertex
 10
60.44091451027253
 20
31.80217181311542
 30
0.0
  0
VERTEX
  5
2CD
330
2C6
100
AcDbEntity
  8
Hidden (ANSI)
 48
0.008836530148983
100
AcDbVertex
100
AcDb2dVertex
 10
60.43880140828327
 20
31.80119494226699
 30
0.0
  0
VERTEX
  5
2CE
330
2C6
100
AcDbEntity
  8
Hidden (ANSI)
 48
0.008836530148983
100
AcDbVertex
100
AcDb2dVertex
 10
60.43668980814332
 20
31.80023953143731
 30
0.0
  0
VERTEX
  5
2CF
330
2C6
100
AcDbEntity
  8
Hidden (ANSI)
 48
0.008836530148983
100
AcDbVertex
100
AcDb2dVertex
 10
60.43457670615405
 20
31.79930968724562
 30
0.0
  0
VERTEX
  5
2D0
330
2C6
100
AcDbEntity
  8
Hidden (ANSI)
 48
0.008836530148983
100
AcDbVertex
100
AcDb2dVertex
 10
60.43246510601409
 20
31.79840939897915
 30
0.0
  0
VERTEX
  5
2D1
330
2C6
100
AcDbEntity
  8
Hidden (ANSI)
 48
0.008836530148983
100
AcDbVertex
100
AcDb2dVertex
 10
60.43035350587416
 20
31.79754250339361
 30
0.0
  0
VERTEX
  5
2D2
330
2C6
100
AcDbEntity
  8
Hidden (ANSI)
 48
0.008836530148983
100
AcDbVertex
100
AcDb2dVertex
 10
60.42824040388489
 20
31.79671271991267
 30
0.0
  0
VERTEX
  5
2D3
330
2C6
100
AcDbEntity
  8
Hidden (ANSI)
 48
0.008836530148983
100
AcDbVertex
100
AcDb2dVertex
 10
60.42612880374495
 20
31.79592360369527
 30
0.0
  0
VERTEX
  5
2D4
330
2C6
100
AcDbEntity
  8
Hidden (ANSI)
 48
0.008836530148983
100
AcDbVertex
100
AcDb2dVertex
 10
60.42401720360499
 20
31.79517852803579
 30
0.0
  0
VERTEX
  5
2D5
330
2C6
100
AcDbEntity
  8
Hidden (ANSI)
 48
0.008836530148983
100
AcDbVertex
100
AcDb2dVertex
 10
60.42190410161572
 20
31.7944806902306
 30
0.0
  0
VERTEX
  5
2D6
330
2C6
100
AcDbEntity
  8
Hidden (ANSI)
 48
0.008836530148983
100
AcDbVertex
100
AcDb2dVertex
 10
60.41979250147578
 20
31.79383308224516
 30
0.0
  0
VERTEX
  5
2D7
330
2C6
100
AcDbEntity
  8
Hidden (ANSI)
 48
0.008836530148983
100
AcDbVertex
100
AcDb2dVertex
 10
60.41768090133583
 20
31.79323846724753
 30
0.0
  0
VERTEX
  5
2D8
330
2C6
100
AcDbEntity
  8
Hidden (ANSI)
 48
0.008836530148983
100
AcDbVertex
100
AcDb2dVertex
 10
60.41556779934657
 20
31.79269939720825
 30
0.0
  0
VERTEX
  5
2D9
330
2C6
100
AcDbEntity
  8
Hidden (ANSI)
 48
0.008836530148983
100
AcDbVertex
100
AcDb2dVertex
 10
60.41345619920662
 20
31.79221817770067
 30
0.0
  0
VERTEX
  5
2DA
330
2C6
100
AcDbEntity
  8
Hidden (ANSI)
 48
0.008836530148983
100
AcDbVertex
100
AcDb2dVertex
 10
60.41134459906666
 20
31.79179687376761
 30
0.0
  0
VERTEX
  5
2DB
330
2C6
100
AcDbEntity
  8
Hidden (ANSI)
 48
0.008836530148983
100
AcDbVertex
100
AcDb2dVertex
 10
60.4092314970774
 20
31.79143728058833
 30
0.0
  0
VERTEX
  5
2DC
330
2C6
100
AcDbEntity
  8
Hidden (ANSI)
 48
0.008836530148983
100
AcDbVertex
100
AcDb2dVertex
 10
60.40711989693746
 20
31.79114095281153
 30
0.0
  0
VERTEX
  5
2DD
330
2C6
100
AcDbEntity
  8
Hidden (ANSI)
 48
0.008836530148983
100
AcDbVertex
100
AcDb2dVertex
 10
60.40500679494819
 20
31.79090914588939
 30
0.0
  0
VERTEX
  5
2DE
330
2C6
100
AcDbEntity
  8
Hidden (ANSI)
 48
0.008836530148983
100
AcDbVertex
100
AcDb2dVertex
 10
60.40289519480824
 20
31.7907428512771
 30
0.0
  0
VERTEX
  5
2DF
330
2C6
100
AcDbEntity
  8
Hidden (ANSI)
 48
0.008836530148983
100
AcDbVertex
100
AcDb2dVertex
 10
60.40078359466829
 20
31.79064279643294
 30
0.0
  0
VERTEX
  5
2E0
330
2C6
100
AcDbEntity
  8
Hidden (ANSI)
 48
0.008836530148983
100
AcDbVertex
100
AcDb2dVertex
 10
60.39867049267903
 20
31.79060939201884
 30
0.0
  0
SEQEND
  5
2C9
330
2C6
100
AcDbEntity
  8
Hidden (ANSI)
 48
0.008836530148983
  0
MTEXT
  5
2E2
330
6C
100
AcDbEntity
  8
Symbol (ANSI)
100
AcDbMText
 10
44.9141227065416
 20
25.7677602011051
 30
0.0
 40
1.440000017796914
 41
0.0
 46
0.0
 71
     7
 72
     1
  1
FRONT VIEW
  7
Text Style153
 73
     1
 44
1.0
  0
LINE
  5
2E4
330
6C
100
AcDbEntity
  8
Symbol (ANSI)
370
    30
100
AcDbLine
 10
44.77012233612096
 20
25.47410055260642
 30
0.0
 11
56.34730238754909
 21
25.47410055260642
 31
0.0
  0
POLYLINE
  5
2E5
330
6C
100
AcDbEntity
  8
Visible (ANSI)
100
AcDb2dPolyline
 66
     1
 10
0.0
 20
0.0
 30
0.0
 70
   128
  0
VERTEX
  5
2E6
330
2E5
100
AcDbEntity
  8
Visible (ANSI)
100
AcDbVertex
100
AcDb2dVertex
 10
100.9722701832819
 20
91.58751034538299
 30
0.0
  0
VERTEX
  5
2E7
330
2E5
100
AcDbEntity
  8
Visible (ANSI)
100
AcDbVertex
100
AcDb2dVertex
 10
100.9725043075106
 20
91.5853957415444
 30
0.0
  0
VERTEX
  5
2E9
330
2E5
100
AcDbEntity
  8
Visible (ANSI)
100
AcDbVertex
100
AcDb2dVertex
 10
100.9732056887415
 20
91.58328714510309
 30
0.0
  0
VERTEX
  5
2EA
330
2E5
100
AcDbEntity
  8
Visible (ANSI)
100
AcDbVertex
100
AcDb2dVertex
 10
100.9743713115428
 20
91.5811725412645
 30
0.0
  0
VERTEX
  5
2EB
330
2E5
100
AcDbEntity
  8
Visible (ANSI)
100
AcDbVertex
100
AcDb2dVertex
 10
100.975996195172
 20
91.57905793742594
 30
0.0
  0
VERTEX
  5
2EC
330
2E5
100
AcDbEntity
  8
Visible (ANSI)
100
AcDbVertex
100
AcDb2dVertex
 10
100.9780733701097
 20
91.57694934098463
 30
0.0
  0
VERTEX
  5
2ED
330
2E5
100
AcDbEntity
  8
Visible (ANSI)
100
AcDbVertex
100
AcDb2dVertex
 10
100.980593954325
 20
91.57483473714604
 30
0.0
  0
VERTEX
  5
2EE
330
2E5
100
AcDbEntity
  8
Visible (ANSI)
100
AcDbVertex
100
AcDb2dVertex
 10
100.9835471474094
 20
91.57272614070471
 30
0.0
  0
VERTEX
  5
2EF
330
2E5
100
AcDbEntity
  8
Visible (ANSI)
100
AcDbVertex
100
AcDb2dVertex
 10
100.9869203068424
 20
91.57061153686614
 30
0.0
  0
VERTEX
  5
2F0
330
2E5
100
AcDbEntity
  8
Visible (ANSI)
100
AcDbVertex
100
AcDb2dVertex
 10
100.9906989773242
 20
91.56850294042483
 30
0.0
  0
VERTEX
  5
2F1
330
2E5
100
AcDbEntity
  8
Visible (ANSI)
100
AcDbVertex
100
AcDb2dVertex
 10
100.9948669963749
 20
91.56638833658623
 30
0.0
  0
VERTEX
  5
2F2
330
2E5
100
AcDbEntity
  8
Visible (ANSI)
100
AcDbVertex
100
AcDb2dVertex
 10
100.9994065002009
 20
91.56427373274764
 30
0.0
  0
VERTEX
  5
2F3
330
2E5
100
AcDbEntity
  8
Visible (ANSI)
100
AcDbVertex
100
AcDb2dVertex
 10
101.0042980527599
 20
91.56216513630633
 30
0.0
  0
VERTEX
  5
2F4
330
2E5
100
AcDbEntity
  8
Visible (ANSI)
100
AcDbVertex
100
AcDb2dVertex
 10
101.0095207161606
 20
91.56005053246776
 30
0.0
  0
VERTEX
  5
2F5
330
2E5
100
AcDbEntity
  8
Visible (ANSI)
100
AcDbVertex
100
AcDb2dVertex
 10
101.0150521210613
 20
91.55794193602645
 30
0.0
  0
VERTEX
  5
2F6
330
2E5
100
AcDbEntity
  8
Visible (ANSI)
100
AcDbVertex
100
AcDb2dVertex
 10
101.0208685781358
 20
91.55582733218787
 30
0.0
  0
VERTEX
  5
2F7
330
2E5
100
AcDbEntity
  8
Visible (ANSI)
100
AcDbVertex
100
AcDb2dVertex
 10
101.0269451807384
 20
91.55371272834928
 30
0.0
  0
VERTEX
  5
2F8
330
2E5
100
AcDbEntity
  8
Visible (ANSI)
100
AcDbVertex
100
AcDb2dVertex
 10
101.0332559134362
 20
91.55160413190797
 30
0.0
  0
VERTEX
  5
2F9
330
2E5
100
AcDbEntity
  8
Visible (ANSI)
100
AcDbVertex
100
AcDb2dVertex
 10
101.0397737488083
 20
91.54948952806938
 30
0.0
  0
VERTEX
  5
2FA
330
2E5
100
AcDbEntity
  8
Visible (ANSI)
100
AcDbVertex
100
AcDb2dVertex
 10
101.0464707765103
 20
91.54738093162807
 30
0.0
  0
VERTEX
  5
2FB
330
2E5
100
AcDbEntity
  8
Visible (ANSI)
100
AcDbVertex
100
AcDb2dVertex
 10
101.0533183191403
 20
91.54526632778949
 30
0.0
  0
VERTEX
  5
2FC
330
2E5
100
AcDbEntity
  8
Visible (ANSI)
100
AcDbVertex
100
AcDb2dVertex
 10
101.0602870550702
 20
91.5431517239509
 30
0.0
  0
VERTEX
  5
2FD
330
2E5
100
AcDbEntity
  8
Visible (ANSI)
100
AcDbVertex
100
AcDb2dVertex
 10
101.0673471427448
 20
91.54104312750957
 30
0.0
  0
VERTEX
  5
2FE
330
2E5
100
AcDbEntity
  8
Visible (ANSI)
100
AcDbVertex
100
AcDb2dVertex
 10
101.0744683497466
 20
91.538928523671
 30
0.0
  0
VERTEX
  5
2FF
330
2E5
100
AcDbEntity
  8
Visible (ANSI)
100
AcDbVertex
100
AcDb2dVertex
 10
101.0816201825947
 20
91.53681992722971
 30
0.0
  0
SEQEND
  5
2E8
330
2E5
100
AcDbEntity
  8
Visible (ANSI)
  0
POLYLINE
  5
300
330
6C
100
AcDbEntity
  8
Visible (ANSI)
100
AcDb2dPolyline
 66
     1
 10
0.0
 20
0.0
 30
0.0
 70
   128
  0
VERTEX
  5
301
330
300
100
AcDbEntity
  8
Visible (ANSI)
100
AcDbVertex
100
AcDb2dVertex
 10
101.0816201825947
 20
31.8569006571498
 30
0.0
  0
VERTEX
  5
302
330
300
100
AcDbEntity
  8
Visible (ANSI)
100
AcDbVertex
100
AcDb2dVertex
 10
101.0744683497466
 20
31.85478851728275
 30
0.0
  0
VERTEX
  5
304
330
300
100
AcDbEntity
  8
Visible (ANSI)
100
AcDbVertex
100
AcDb2dVertex
 10
101.0673471427448
 20
31.85267637741571
 30
0.0
  0
VERTEX
  5
305
330
300
100
AcDbEntity
  8
Visible (ANSI)
100
AcDbVertex
100
AcDb2dVertex
 10
101.0602870550702
 20
31.85056424928186
 30
0.0
  0
VERTEX
  5
306
330
300
100
AcDbEntity
  8
Visible (ANSI)
100
AcDbVertex
100
AcDb2dVertex
 10
101.0533183191403
 20
31.84845210941481
 30
0.0
  0
VERTEX
  5
307
330
300
100
AcDbEntity
  8
Visible (ANSI)
100
AcDbVertex
100
AcDb2dVertex
 10
101.0464707765103
 20
31.84633996954776
 30
0.0
  0
VERTEX
  5
308
330
300
100
AcDbEntity
  8
Visible (ANSI)
100
AcDbVertex
100
AcDb2dVertex
 10
101.0397737488083
 20
31.84422784141391
 30
0.0
  0
VERTEX
  5
309
330
300
100
AcDbEntity
  8
Visible (ANSI)
100
AcDbVertex
100
AcDb2dVertex
 10
101.0332559134362
 20
31.84211570154687
 30
0.0
  0
VERTEX
  5
30A
330
300
100
AcDbEntity
  8
Visible (ANSI)
100
AcDbVertex
100
AcDb2dVertex
 10
101.0269451807384
 20
31.84000356167982
 30
0.0
  0
VERTEX
  5
30B
330
300
100
AcDbEntity
  8
Visible (ANSI)
100
AcDbVertex
100
AcDb2dVertex
 10
101.0208685781358
 20
31.83789143354597
 30
0.0
  0
VERTEX
  5
30C
330
300
100
AcDbEntity
  8
Visible (ANSI)
100
AcDbVertex
100
AcDb2dVertex
 10
101.0150521210613
 20
31.83577929367892
 30
0.0
  0
VERTEX
  5
30D
330
300
100
AcDbEntity
  8
Visible (ANSI)
100
AcDbVertex
100
AcDb2dVertex
 10
101.0095207161606
 20
31.83366715381188
 30
0.0
  0
VERTEX
  5
30E
330
300
100
AcDbEntity
  8
Visible (ANSI)
100
AcDbVertex
100
AcDb2dVertex
 10
101.0042980527599
 20
31.83155502567803
 30
0.0
  0
VERTEX
  5
30F
330
300
100
AcDbEntity
  8
Visible (ANSI)
100
AcDbVertex
100
AcDb2dVertex
 10
100.9994065002009
 20
31.82944288581099
 30
0.0
  0
VERTEX
  5
310
330
300
100
AcDbEntity
  8
Visible (ANSI)
100
AcDbVertex
100
AcDb2dVertex
 10
100.9948669963749
 20
31.82733075767713
 30
0.0
  0
VERTEX
  5
311
330
300
100
AcDbEntity
  8
Visible (ANSI)
100
AcDbVertex
100
AcDb2dVertex
 10
100.9906989773242
 20
31.82521861781009
 30
0.0
  0
VERTEX
  5
312
330
300
100
AcDbEntity
  8
Visible (ANSI)
100
AcDbVertex
100
AcDb2dVertex
 10
100.9869203068424
 20
31.82310647794305
 30
0.0
  0
VERTEX
  5
313
330
300
100
AcDbEntity
  8
Visible (ANSI)
100
AcDbVertex
100
AcDb2dVertex
 10
100.9835471474094
 20
31.82099434980919
 30
0.0
  0
VERTEX
  5
314
330
300
100
AcDbEntity
  8
Visible (ANSI)
100
AcDbVertex
100
AcDb2dVertex
 10
100.980593954325
 20
31.81888220994215
 30
0.0
  0
VERTEX
  5
315
330
300
100
AcDbEntity
  8
Visible (ANSI)
100
AcDbVertex
100
AcDb2dVertex
 10
100.9780733701097
 20
31.8167700700751
 30
0.0
  0
VERTEX
  5
316
330
300
100
AcDbEntity
  8
Visible (ANSI)
100
AcDbVertex
100
AcDb2dVertex
 10
100.975996195172
 20
31.81465794194125
 30
0.0
  0
VERTEX
  5
317
330
300
100
AcDbEntity
  8
Visible (ANSI)
100
AcDbVertex
100
AcDb2dVertex
 10
100.9743713115428
 20
31.8125458020742
 30
0.0
  0
VERTEX
  5
318
330
300
100
AcDbEntity
  8
Visible (ANSI)
100
AcDbVertex
100
AcDb2dVertex
 10
100.9732056887415
 20
31.81043366220716
 30
0.0
  0
VERTEX
  5
319
330
300
100
AcDbEntity
  8
Visible (ANSI)
100
AcDbVertex
100
AcDb2dVertex
 10
100.9725043075106
 20
31.8083215340733
 30
0.0
  0
VERTEX
  5
31A
330
300
100
AcDbEntity
  8
Visible (ANSI)
100
AcDbVertex
100
AcDb2dVertex
 10
100.9722701832819
 20
31.80620939420626
 30
0.0
  0
SEQEND
  5
303
330
300
100
AcDbEntity
  8
Visible (ANSI)
  0
LINE
  5
31B
330
6C
100
AcDbEntity
  8
Visible (ANSI)
100
AcDbLine
 10
101.8472701818739
 20
31.85690065416304
 30
0.0
 11
101.0816201818739
 21
31.85690065416304
 31
0.0
  0
LINE
  5
31C
330
6C
100
AcDbEntity
  8
Visible (ANSI)
100
AcDbLine
 10
101.049349123003
 20
31.8062093934268
 30
0.0
 11
100.9722701818739
 21
31.8062093934268
 31
0.0
  0
LINE
  5
31D
330
6C
100
AcDbEntity
  8
Visible (ANSI)
100
AcDbLine
 10
101.0660201818739
 20
31.8062093934268
 30
0.0
 11
101.049349123003
 21
31.8062093934268
 31
0.0
  0
POLYLINE
  5
31E
330
6C
100
AcDbEntity
  8
Visible (ANSI)
100
AcDb2dPolyline
 66
     1
 10
0.0
 20
0.0
 30
0.0
 70
   128
  0
VERTEX
  5
31F
330
31E
100
AcDbEntity
  8
Visible (ANSI)
100
AcDbVertex
100
AcDb2dVertex
 10
101.0660201818739
 20
31.80620939420626
 30
0.0
  0
VERTEX
  5
320
330
31E
100
AcDbEntity
  8
Visible (ANSI)
100
AcDbVertex
100
AcDb2dVertex
 10
101.0660535826701
 20
31.8083215340733
 30
0.0
  0
VERTEX
  5
322
330
31E
100
AcDbEntity
  8
Visible (ANSI)
100
AcDbVertex
100
AcDb2dVertex
 10
101.0661536420374
 20
31.81043366220716
 30
0.0
  0
VERTEX
  5
323
330
31E
100
AcDbEntity
  8
Visible (ANSI)
100
AcDbVertex
100
AcDb2dVertex
 10
101.0663199315049
 20
31.8125458020742
 30
0.0
  0
VERTEX
  5
324
330
31E
100
AcDbEntity
  8
Visible (ANSI)
100
AcDbVertex
100
AcDb2dVertex
 10
101.066551739
 20
31.81465794194125
 30
0.0
  0
VERTEX
  5
325
330
31E
100
AcDbEntity
  8
Visible (ANSI)
100
AcDbVertex
100
AcDb2dVertex
 10
101.0668480718184
 20
31.8167700700751
 30
0.0
  0
VERTEX
  5
326
330
31E
100
AcDbEntity
  8
Visible (ANSI)
100
AcDbVertex
100
AcDb2dVertex
 10
101.0672076611477
 20
31.81888220994215
 30
0.0
  0
VERTEX
  5
327
330
31E
100
AcDbEntity
  8
Visible (ANSI)
100
AcDbVertex
100
AcDb2dVertex
 10
101.0676289671891
 20
31.82099434980919
 30
0.0
  0
VERTEX
  5
328
330
31E
100
AcDbEntity
  8
Visible (ANSI)
100
AcDbVertex
100
AcDb2dVertex
 10
101.0681101855967
 20
31.82310647794305
 30
0.0
  0
VERTEX
  5
329
330
31E
100
AcDbEntity
  8
Visible (ANSI)
100
AcDbVertex
100
AcDb2dVertex
 10
101.0686492560026
 20
31.82521861781009
 30
0.0
  0
VERTEX
  5
32A
330
31E
100
AcDbEntity
  8
Visible (ANSI)
100
AcDbVertex
100
AcDb2dVertex
 10
101.0692438699003
 20
31.82733075767713
 30
0.0
  0
VERTEX
  5
32B
330
31E
100
AcDbEntity
  8
Visible (ANSI)
100
AcDbVertex
100
AcDb2dVertex
 10
101.069891480819
 20
31.82944288581099
 30
0.0
  0
VERTEX
  5
32C
330
31E
100
AcDbEntity
  8
Visible (ANSI)
100
AcDbVertex
100
AcDb2dVertex
 10
101.0705893160575
 20
31.83155502567803
 30
0.0
  0
VERTEX
  5
32D
330
31E
100
AcDbEntity
  8
Visible (ANSI)
100
AcDbVertex
100
AcDb2dVertex
 10
101.0713343873171
 20
31.83366715381188
 30
0.0
  0
VERTEX
  5
32E
330
31E
100
AcDbEntity
  8
Visible (ANSI)
100
AcDbVertex
100
AcDb2dVertex
 10
101.0721235035345
 20
31.83577929367892
 30
0.0
  0
VERTEX
  5
32F
330
31E
100
AcDbEntity
  8
Visible (ANSI)
100
AcDbVertex
100
AcDb2dVertex
 10
101.0729532859154
 20
31.83789143354597
 30
0.0
  0
VERTEX
  5
330
330
31E
100
AcDbEntity
  8
Visible (ANSI)
100
AcDbVertex
100
AcDb2dVertex
 10
101.0738201822343
 20
31.84000356167982
 30
0.0
  0
VERTEX
  5
331
330
31E
100
AcDbEntity
  8
Visible (ANSI)
100
AcDbVertex
100
AcDb2dVertex
 10
101.0747204785673
 20
31.84211570154687
 30
0.0
  0
VERTEX
  5
332
330
31E
100
AcDbEntity
  8
Visible (ANSI)
100
AcDbVertex
100
AcDb2dVertex
 10
101.0756503205591
 20
31.84422784141391
 30
0.0
  0
VERTEX
  5
333
330
31E
100
AcDbEntity
  8
Visible (ANSI)
100
AcDbVertex
100
AcDb2dVertex
 10
101.0766057262554
 20
31.84633996954776
 30
0.0
  0
VERTEX
  5
334
330
31E
100
AcDbEntity
  8
Visible (ANSI)
100
AcDbVertex
100
AcDb2dVertex
 10
101.0775826044371
 20
31.84845210941481
 30
0.0
  0
VERTEX
  5
335
330
31E
100
AcDbEntity
  8
Visible (ANSI)
100
AcDbVertex
100
AcDb2dVertex
 10
101.0785767729524
 20
31.85056424928186
 30
0.0
  0
VERTEX
  5
336
330
31E
100
AcDbEntity
  8
Visible (ANSI)
100
AcDbVertex
100
AcDb2dVertex
 10
101.0795839726505
 20
31.85267637741571
 30
0.0
  0
VERTEX
  5
337
330
31E
100
AcDbEntity
  8
Visible (ANSI)
100
AcDbVertex
100
AcDb2dVertex
 10
101.0805998930478
 20
31.85478851728275
 30
0.0
  0
VERTEX
  5
338
330
31E
100
AcDbEntity
  8
Visible (ANSI)
100
AcDbVertex
100
AcDb2dVertex
 10
101.0816201825947
 20
31.8569006571498
 30
0.0
  0
SEQEND
  5
321
330
31E
100
AcDbEntity
  8
Visible (ANSI)
  0
POLYLINE
  5
339
330
6C
100
AcDbEntity
  8
Visible (ANSI)
100
AcDb2dPolyline
 66
     1
 10
0.0
 20
0.0
 30
0.0
 70
   128
  0
VERTEX
  5
33A
330
339
100
AcDbEntity
  8
Visible (ANSI)
100
AcDbVertex
100
AcDb2dVertex
 10
101.0660201818739
 20
91.58751034538299
 30
0.0
  0
VERTEX
  5
33B
330
339
100
AcDbEntity
  8
Visible (ANSI)
100
AcDbVertex
100
AcDb2dVertex
 10
101.0660535826701
 20
91.5853957415444
 30
0.0
  0
VERTEX
  5
33D
330
339
100
AcDbEntity
  8
Visible (ANSI)
100
AcDbVertex
100
AcDb2dVertex
 10
101.0661536420374
 20
91.58328714510309
 30
0.0
  0
VERTEX
  5
33E
330
339
100
AcDbEntity
  8
Visible (ANSI)
100
AcDbVertex
100
AcDb2dVertex
 10
101.0663199315049
 20
91.5811725412645
 30
0.0
  0
VERTEX
  5
33F
330
339
100
AcDbEntity
  8
Visible (ANSI)
100
AcDbVertex
100
AcDb2dVertex
 10
101.066551739
 20
91.57905793742594
 30
0.0
  0
VERTEX
  5
340
330
339
100
AcDbEntity
  8
Visible (ANSI)
100
AcDbVertex
100
AcDb2dVertex
 10
101.0668480718184
 20
91.57694934098463
 30
0.0
  0
VERTEX
  5
341
330
339
100
AcDbEntity
  8
Visible (ANSI)
100
AcDbVertex
100
AcDb2dVertex
 10
101.0672076611477
 20
91.57483473714604
 30
0.0
  0
VERTEX
  5
342
330
339
100
AcDbEntity
  8
Visible (ANSI)
100
AcDbVertex
100
AcDb2dVertex
 10
101.0676289671891
 20
91.57272614070471
 30
0.0
  0
VERTEX
  5
343
330
339
100
AcDbEntity
  8
Visible (ANSI)
100
AcDbVertex
100
AcDb2dVertex
 10
101.0681101855967
 20
91.57061153686614
 30
0.0
  0
VERTEX
  5
344
330
339
100
AcDbEntity
  8
Visible (ANSI)
100
AcDbVertex
100
AcDb2dVertex
 10
101.0686492560026
 20
91.56850294042483
 30
0.0
  0
VERTEX
  5
345
330
339
100
AcDbEntity
  8
Visible (ANSI)
100
AcDbVertex
100
AcDb2dVertex
 10
101.0692438699003
 20
91.56638833658623
 30
0.0
  0
VERTEX
  5
346
330
339
100
AcDbEntity
  8
Visible (ANSI)
100
AcDbVertex
100
AcDb2dVertex
 10
101.069891480819
 20
91.56427373274764
 30
0.0
  0
VERTEX
  5
347
330
339
100
AcDbEntity
  8
Visible (ANSI)
100
AcDbVertex
100
AcDb2dVertex
 10
101.0705893160575
 20
91.56216513630633
 30
0.0
  0
VERTEX
  5
348
330
339
100
AcDbEntity
  8
Visible (ANSI)
100
AcDbVertex
100
AcDb2dVertex
 10
101.0713343873171
 20
91.56005053246776
 30
0.0
  0
VERTEX
  5
349
330
339
100
AcDbEntity
  8
Visible (ANSI)
100
AcDbVertex
100
AcDb2dVertex
 10
101.0721235035345
 20
91.55794193602645
 30
0.0
  0
VERTEX
  5
34A
330
339
100
AcDbEntity
  8
Visible (ANSI)
100
AcDbVertex
100
AcDb2dVertex
 10
101.0729532859154
 20
91.55582733218787
 30
0.0
  0
VERTEX
  5
34B
330
339
100
AcDbEntity
  8
Visible (ANSI)
100
AcDbVertex
100
AcDb2dVertex
 10
101.0738201822343
 20
91.55371272834928
 30
0.0
  0
VERTEX
  5
34C
330
339
100
AcDbEntity
  8
Visible (ANSI)
100
AcDbVertex
100
AcDb2dVertex
 10
101.0747204785673
 20
91.55160413190797
 30
0.0
  0
VERTEX
  5
34D
330
339
100
AcDbEntity
  8
Visible (ANSI)
100
AcDbVertex
100
AcDb2dVertex
 10
101.0756503205591
 20
91.54948952806938
 30
0.0
  0
VERTEX
  5
34E
330
339
100
AcDbEntity
  8
Visible (ANSI)
100
AcDbVertex
100
AcDb2dVertex
 10
101.0766057262554
 20
91.54738093162807
 30
0.0
  0
VERTEX
  5
34F
330
339
100
AcDbEntity
  8
Visible (ANSI)
100
AcDbVertex
100
AcDb2dVertex
 10
101.0775826044371
 20
91.54526632778949
 30
0.0
  0
VERTEX
  5
350
330
339
100
AcDbEntity
  8
Visible (ANSI)
100
AcDbVertex
100
AcDb2dVertex
 10
101.0785767729524
 20
91.5431517239509
 30
0.0
  0
VERTEX
  5
351
330
339
100
AcDbEntity
  8
Visible (ANSI)
100
AcDbVertex
100
AcDb2dVertex
 10
101.0795839726505
 20
91.54104312750957
 30
0.0
  0
VERTEX
  5
352
330
339
100
AcDbEntity
  8
Visible (ANSI)
100
AcDbVertex
100
AcDb2dVertex
 10
101.0805998930478
 20
91.538928523671
 30
0.0
  0
VERTEX
  5
353
330
339
100
AcDbEntity
  8
Visible (ANSI)
100
AcDbVertex
100
AcDb2dVertex
 10
101.0816201825947
 20
91.53681992722971
 30
0.0
  0
SEQEND
  5
33C
330
339
100
AcDbEntity
  8
Visible (ANSI)
  0
LINE
  5
354
330
6C
100
AcDbEntity
  8
Visible (ANSI)
100
AcDbLine
 10
101.0660201818739
 20
91.58750939342679
 30
0.0
 11
101.049349123003
 21
91.58750939342679
 31
0.0
  0
LINE
  5
355
330
6C
100
AcDbEntity
  8
Visible (ANSI)
100
AcDbLine
 10
101.049349123003
 20
91.58750939342679
 30
0.0
 11
100.9722701818739
 21
91.58750939342679
 31
0.0
  0
LINE
  5
356
330
6C
100
AcDbEntity
  8
Visible (ANSI)
100
AcDbLine
 10
101.0816201818739
 20
91.53681813269054
 30
0.0
 11
101.8472701818739
 21
91.53681813269054
 31
0.0
  0
POLYLINE
  5
357
330
6C
100
AcDbEntity
  8
Visible (ANSI)
100
AcDb2dPolyline
 66
     1
 10
0.0
 20
0.0
 30
0.0
 70
   128
  0
VERTEX
  5
358
330
357
100
AcDbEntity
  8
Visible (ANSI)
100
AcDbVertex
100
AcDb2dVertex
 10
101.0816201825947
 20
91.69685699046787
 30
0.0
  0
VERTEX
  5
359
330
357
100
AcDbEntity
  8
Visible (ANSI)
100
AcDbVertex
100
AcDb2dVertex
 10
101.0744683497466
 20
91.6966227019744
 30
0.0
  0
VERTEX
  5
35B
330
357
100
AcDbEntity
  8
Visible (ANSI)
100
AcDbVertex
100
AcDb2dVertex
 10
101.0673471427447
 20
91.69592584389123
 30
0.0
  0
VERTEX
  5
35C
330
357
100
AcDbEntity
  8
Visible (ANSI)
100
AcDbVertex
100
AcDb2dVertex
 10
101.0602870550701
 20
91.69476040882111
 30
0.0
  0
VERTEX
  5
35D
330
357
100
AcDbEntity
  8
Visible (ANSI)
100
AcDbVertex
100
AcDb2dVertex
 10
101.0533183191402
 20
91.69313240416128
 30
0.0
  0
VERTEX
  5
35E
330
357
100
AcDbEntity
  8
Visible (ANSI)
100
AcDbVertex
100
AcDb2dVertex
 10
101.0464707765103
 20
91.69105384470631
 30
0.0
  0
VERTEX
  5
35F
330
357
100
AcDbEntity
  8
Visible (ANSI)
100
AcDbVertex
100
AcDb2dVertex
 10
101.0397737488083
 20
91.68853674525072
 30
0.0
  0
VERTEX
  5
360
330
357
100
AcDbEntity
  8
Visible (ANSI)
100
AcDbVertex
100
AcDb2dVertex
 10
101.0332559134362
 20
91.68558110579452
 30
0.0
  0
VERTEX
  5
361
330
357
100
AcDbEntity
  8
Visible (ANSI)
100
AcDbVertex
100
AcDb2dVertex
 10
101.0269451807383
 20
91.68221095592679
 30
0.0
  0
VERTEX
  5
362
330
357
100
AcDbEntity
  8
Visible (ANSI)
100
AcDbVertex
100
AcDb2dVertex
 10
101.0208685781357
 20
91.67843230304479
 30
0.0
  0
VERTEX
  5
363
330
357
100
AcDbEntity
  8
Visible (ANSI)
100
AcDbVertex
100
AcDb2dVertex
 10
101.0150521210613
 20
91.67426316934029
 30
0.0
  0
VERTEX
  5
364
330
357
100
AcDbEntity
  8
Visible (ANSI)
100
AcDbVertex
100
AcDb2dVertex
 10
101.0095207161605
 20
91.66972157700516
 30
0.0
  0
VERTEX
  5
365
330
357
100
AcDbEntity
  8
Visible (ANSI)
100
AcDbVertex
100
AcDb2dVertex
 10
101.0042980527599
 20
91.66483155562843
 30
0.0
  0
VERTEX
  5
366
330
357
100
AcDbEntity
  8
Visible (ANSI)
100
AcDbVertex
100
AcDb2dVertex
 10
100.9994065002008
 20
91.65961112740193
 30
0.0
  0
VERTEX
  5
367
330
357
100
AcDbEntity
  8
Visible (ANSI)
100
AcDbVertex
100
AcDb2dVertex
 10
100.9948669963749
 20
91.65407831451746
 30
0.0
  0
VERTEX
  5
368
330
357
100
AcDbEntity
  8
Visible (ANSI)
100
AcDbVertex
100
AcDb2dVertex
 10
100.9906989773242
 20
91.64826315396137
 30
0.0
  0
VERTEX
  5
369
330
357
100
AcDbEntity
  8
Visible (ANSI)
100
AcDbVertex
100
AcDb2dVertex
 10
100.9869203068424
 20
91.64218366792544
 30
0.0
  0
VERTEX
  5
36A
330
357
100
AcDbEntity
  8
Visible (ANSI)
100
AcDbVertex
100
AcDb2dVertex
 10
100.9835471474094
 20
91.63587590079329
 30
0.0
  0
VERTEX
  5
36B
330
357
100
AcDbEntity
  8
Visible (ANSI)
100
AcDbVertex
100
AcDb2dVertex
 10
100.980593954325
 20
91.62935787475676
 30
0.0
  0
VERTEX
  5
36C
330
357
100
AcDbEntity
  8
Visible (ANSI)
100
AcDbVertex
100
AcDb2dVertex
 10
100.9780733701096
 20
91.62265962680216
 30
0.0
  0
VERTEX
  5
36D
330
357
100
AcDbEntity
  8
Visible (ANSI)
100
AcDbVertex
100
AcDb2dVertex
 10
100.975996195172
 20
91.61581119391584
 30
0.0
  0
VERTEX
  5
36E
330
357
100
AcDbEntity
  8
Visible (ANSI)
100
AcDbVertex
100
AcDb2dVertex
 10
100.9743713115428
 20
91.60884261308416
 30
0.0
  0
VERTEX
  5
36F
330
357
100
AcDbEntity
  8
Visible (ANSI)
100
AcDbVertex
100
AcDb2dVertex
 10
100.9732056887415
 20
91.60178392129344
 30
0.0
  0
VERTEX
  5
370
330
357
100
AcDbEntity
  8
Visible (ANSI)
100
AcDbVertex
100
AcDb2dVertex
 10
100.9725043075106
 20
91.59465914813273
 30
0.0
  0
VERTEX
  5
371
330
357
100
AcDbEntity
  8
Visible (ANSI)
100
AcDbVertex
100
AcDb2dVertex
 10
100.9722701832819
 20
91.58751034538299
 30
0.0
  0
SEQEND
  5
35A
330
357
100
AcDbEntity
  8
Visible (ANSI)
  0
LINE
  5
372
330
6C
100
AcDbEntity
  8
Visible (ANSI)
100
AcDbLine
 10
101.0816201818739
 20
91.6031093934268
 30
0.0
 11
101.8472701818739
 21
91.60310939342666
 31
0.0
  0
LINE
  5
373
330
6C
100
AcDbEntity
  8
Visible (ANSI)
100
AcDbLine
 10
101.8472701818739
 20
91.69685939342667
 30
0.0
 11
101.0816201818739
 21
91.69685939342681
 31
0.0
  0
LINE
  5
374
330
6C
100
AcDbEntity
  8
Visible (ANSI)
100
AcDbLine
 10
101.0816201818739
 20
91.6031093934268
 30
0.0
 11
101.0816201818739
 21
91.69685939342681
 31
0.0
  0
LINE
  5
375
330
6C
100
AcDbEntity
  8
Visible (ANSI)
100
AcDbLine
 10
101.8472701818739
 20
91.60310939342666
 30
0.0
 11
101.8472701818739
 21
91.69685939342667
 31
0.0
  0
POLYLINE
  5
376
330
6C
100
AcDbEntity
  8
Visible (ANSI)
100
AcDb2dPolyline
 66
     1
 10
0.0
 20
0.0
 30
0.0
 70
   128
  0
VERTEX
  5
377
330
376
100
AcDbEntity
  8
Visible (ANSI)
100
AcDbVertex
100
AcDb2dVertex
 10
101.0660201818739
 20
91.58751034538299
 30
0.0
  0
VERTEX
  5
378
330
376
100
AcDbEntity
  8
Visible (ANSI)
100
AcDbVertex
100
AcDb2dVertex
 10
101.0660535826701
 20
91.58853160291867
 30
0.0
  0
VERTEX
  5
37A
330
376
100
AcDbEntity
  8
Visible (ANSI)
100
AcDbVertex
100
AcDb2dVertex
 10
101.0661536420374
 20
91.58954685305708
 30
0.0
  0
VERTEX
  5
37B
330
376
100
AcDbEntity
  8
Visible (ANSI)
100
AcDbVertex
100
AcDb2dVertex
 10
101.0663199315049
 20
91.59055008840095
 30
0.0
  0
VERTEX
  5
37C
330
376
100
AcDbEntity
  8
Visible (ANSI)
100
AcDbVertex
100
AcDb2dVertex
 10
101.066551739
 20
91.59154731634757
 30
0.0
  0
VERTEX
  5
37D
330
376
100
AcDbEntity
  8
Visible (ANSI)
100
AcDbVertex
100
AcDb2dVertex
 10
101.0668480718184
 20
91.59252652210236
 30
0.0
  0
VERTEX
  5
37E
330
376
100
AcDbEntity
  8
Visible (ANSI)
100
AcDbVertex
100
AcDb2dVertex
 10
101.0672076611477
 20
91.59348169826808
 30
0.0
  0
VERTEX
  5
37F
330
376
100
AcDbEntity
  8
Visible (ANSI)
100
AcDbVertex
100
AcDb2dVertex
 10
101.0676289671891
 20
91.59440683744746
 30
0.0
  0
VERTEX
  5
380
330
376
100
AcDbEntity
  8
Visible (ANSI)
100
AcDbVertex
100
AcDb2dVertex
 10
101.0681101855967
 20
91.59530794703776
 30
0.0
  0
VERTEX
  5
381
330
376
100
AcDbEntity
  8
Visible (ANSI)
100
AcDbVertex
100
AcDb2dVertex
 10
101.0686492560026
 20
91.59617901964173
 30
0.0
  0
VERTEX
  5
382
330
376
100
AcDbEntity
  8
Visible (ANSI)
100
AcDbVertex
100
AcDb2dVertex
 10
101.0692438699003
 20
91.59700804046481
 30
0.0
  0
VERTEX
  5
383
330
376
100
AcDbEntity
  8
Visible (ANSI)
100
AcDbVertex
100
AcDb2dVertex
 10
101.069891480819
 20
91.59779500950701
 30
0.0
  0
VERTEX
  5
384
330
376
100
AcDbEntity
  8
Visible (ANSI)
100
AcDbVertex
100
AcDb2dVertex
 10
101.0705893160575
 20
91.59853992676834
 30
0.0
  0
VERTEX
  5
385
330
376
100
AcDbEntity
  8
Visible (ANSI)
100
AcDbVertex
100
AcDb2dVertex
 10
101.0713343873171
 20
91.59923678485148
 30
0.0
  0
VERTEX
  5
386
330
376
100
AcDbEntity
  8
Visible (ANSI)
100
AcDbVertex
100
AcDb2dVertex
 10
101.0721235035345
 20
91.59988558375651
 30
0.0
  0
VERTEX
  5
387
330
376
100
AcDbEntity
  8
Visible (ANSI)
100
AcDbVertex
100
AcDb2dVertex
 10
101.0729532859154
 20
91.6004803160861
 30
0.0
  0
VERTEX
  5
388
330
376
100
AcDbEntity
  8
Visible (ANSI)
100
AcDbVertex
100
AcDb2dVertex
 10
101.0738201822343
 20
91.60102098184029
 30
0.0
  0
VERTEX
  5
389
330
376
100
AcDbEntity
  8
Visible (ANSI)
100
AcDbVertex
100
AcDb2dVertex
 10
101.0747204785673
 20
91.60150157362179
 30
0.0
  0
VERTEX
  5
38A
330
376
100
AcDbEntity
  8
Visible (ANSI)
100
AcDbVertex
100
AcDb2dVertex
 10
101.075650320559
 20
91.6019220914306
 30
0.0
  0
VERTEX
  5
38B
330
376
100
AcDbEntity
  8
Visible (ANSI)
100
AcDbVertex
100
AcDb2dVertex
 10
101.0766057262554
 20
91.60228253526673
 30
0.0
  0
VERTEX
  5
38C
330
376
100
AcDbEntity
  8
Visible (ANSI)
100
AcDbVertex
100
AcDb2dVertex
 10
101.0775826044371
 20
91.6025768977329
 30
0.0
  0
VERTEX
  5
38D
330
376
100
AcDbEntity
  8
Visible (ANSI)
100
AcDbVertex
100
AcDb2dVertex
 10
101.0785767729524
 20
91.60281118622638
 30
0.0
  0
VERTEX
  5
38E
330
376
100
AcDbEntity
  8
Visible (ANSI)
100
AcDbVertex
100
AcDb2dVertex
 10
101.0795839726505
 20
91.60297338595263
 30
0.0
  0
VERTEX
  5
38F
330
376
100
AcDbEntity
  8
Visible (ANSI)
100
AcDbVertex
100
AcDb2dVertex
 10
101.0805998930478
 20
91.60307551170619
 30
0.0
  0
VERTEX
  5
390
330
376
100
AcDbEntity
  8
Visible (ANSI)
100
AcDbVertex
100
AcDb2dVertex
 10
101.0816201825947
 20
91.6031115560898
 30
0.0
  0
SEQEND
  5
379
330
376
100
AcDbEntity
  8
Visible (ANSI)
  0
POLYLINE
  5
391
330
6C
100
AcDbEntity
  8
Visible (ANSI)
100
AcDb2dPolyline
 66
     1
 10
0.0
 20
0.0
 30
0.0
 70
   128
  0
VERTEX
  5
392
330
391
100
AcDbEntity
  8
Visible (ANSI)
100
AcDbVertex
100
AcDb2dVertex
 10
100.9722701832819
 20
31.80620939420626
 30
0.0
  0
VERTEX
  5
393
330
391
100
AcDbEntity
  8
Visible (ANSI)
100
AcDbVertex
100
AcDb2dVertex
 10
100.9725043075106
 20
31.79905756429147
 30
0.0
  0
VERTEX
  5
395
330
391
100
AcDbEntity
  8
Visible (ANSI)
100
AcDbVertex
100
AcDb2dVertex
 10
100.9732056887415
 20
31.79193635215633
 30
0.0
  0
VERTEX
  5
396
330
391
100
AcDbEntity
  8
Visible (ANSI)
100
AcDbVertex
100
AcDb2dVertex
 10
100.9743713115428
 20
31.78487626411507
 30
0.0
  0
VERTEX
  5
397
330
391
100
AcDbEntity
  8
Visible (ANSI)
100
AcDbVertex
100
AcDb2dVertex
 10
100.975996195172
 20
31.7779075307518
 30
0.0
  0
VERTEX
  5
398
330
391
100
AcDbEntity
  8
Visible (ANSI)
100
AcDbVertex
100
AcDb2dVertex
 10
100.9780733701096
 20
31.77105998958852
 30
0.0
  0
VERTEX
  5
399
330
391
100
AcDbEntity
  8
Visible (ANSI)
100
AcDbVertex
100
AcDb2dVertex
 10
100.980593954325
 20
31.76436296188648
 30
0.0
  0
VERTEX
  5
39A
330
391
100
AcDbEntity
  8
Visible (ANSI)
100
AcDbVertex
100
AcDb2dVertex
 10
100.9835471474094
 20
31.75784512358111
 30
0.0
  0
VERTEX
  5
39B
330
391
100
AcDbEntity
  8
Visible (ANSI)
100
AcDbVertex
100
AcDb2dVertex
 10
100.9869203068424
 20
31.75153439381653
 30
0.0
  0
VERTEX
  5
39C
330
391
100
AcDbEntity
  8
Visible (ANSI)
100
AcDbVertex
100
AcDb2dVertex
 10
100.9906989773242
 20
31.74545778828066
 30
0.0
  0
VERTEX
  5
39D
330
391
100
AcDbEntity
  8
Visible (ANSI)
100
AcDbVertex
100
AcDb2dVertex
 10
100.9948669963749
 20
31.7396413312062
 30
0.0
  0
VERTEX
  5
39E
330
391
100
AcDbEntity
  8
Visible (ANSI)
100
AcDbVertex
100
AcDb2dVertex
 10
100.9994065002008
 20
31.73410992923877
 30
0.0
  0
VERTEX
  5
39F
330
391
100
AcDbEntity
  8
Visible (ANSI)
100
AcDbVertex
100
AcDb2dVertex
 10
101.0042980527599
 20
31.72888726583809
 30
0.0
  0
VERTEX
  5
3A0
330
391
100
AcDbEntity
  8
Visible (ANSI)
100
AcDbVertex
100
AcDb2dVertex
 10
101.0095207161605
 20
31.72399571034575
 30
0.0
  0
VERTEX
  5
3A1
330
391
100
AcDbEntity
  8
Visible (ANSI)
100
AcDbVertex
100
AcDb2dVertex
 10
101.0150521210613
 20
31.71945620505317
 30
0.0
  0
VERTEX
  5
3A2
330
391
100
AcDbEntity
  8
Visible (ANSI)
100
AcDbVertex
100
AcDb2dVertex
 10
101.0208685781357
 20
31.71528819186908
 30
0.0
  0
VERTEX
  5
3A3
330
391
100
AcDbEntity
  8
Visible (ANSI)
100
AcDbVertex
100
AcDb2dVertex
 10
101.0269451807383
 20
31.71150951552068
 30
0.0
  0
VERTEX
  5
3A4
330
391
100
AcDbEntity
  8
Visible (ANSI)
100
AcDbVertex
100
AcDb2dVertex
 10
101.0332559134362
 20
31.708136359021
 30
0.0
  0
VERTEX
  5
3A5
330
391
100
AcDbEntity
  8
Visible (ANSI)
100
AcDbVertex
100
AcDb2dVertex
 10
101.0397737488083
 20
31.70518316666986
 30
0.0
  0
VERTEX
  5
3A6
330
391
100
AcDbEntity
  8
Visible (ANSI)
100
AcDbVertex
100
AcDb2dVertex
 10
101.0464707765103
 20
31.70266258392118
 30
0.0
  0
VERTEX
  5
3A7
330
391
100
AcDbEntity
  8
Visible (ANSI)
100
AcDbVertex
100
AcDb2dVertex
 10
101.0533183191402
 20
31.70058540421694
 30
0.0
  0
VERTEX
  5
3A8
330
391
100
AcDbEntity
  8
Visible (ANSI)
100
AcDbVertex
100
AcDb2dVertex
 10
101.0602870550701
 20
31.69896052297104
 30
0.0
  0
VERTEX
  5
3A9
330
391
100
AcDbEntity
  8
Visible (ANSI)
100
AcDbVertex
100
AcDb2dVertex
 10
101.0673471427447
 20
31.69779489787811
 30
0.0
  0
VERTEX
  5
3AA
330
391
100
AcDbEntity
  8
Visible (ANSI)
100
AcDbVertex
100
AcDb2dVertex
 10
101.0744683497466
 20
31.69709352017632
 30
0.0
  0
VERTEX
  5
3AB
330
391
100
AcDbEntity
  8
Visible (ANSI)
100
AcDbVertex
100
AcDb2dVertex
 10
101.0816201825947
 20
31.6968593934268
 30
0.0
  0
SEQEND
  5
394
330
391
100
AcDbEntity
  8
Visible (ANSI)
  0
LINE
  5
3AC
330
6C
100
AcDbEntity
  8
Visible (ANSI)
100
AcDbLine
 10
101.0816201818739
 20
31.7906093934268
 30
0.0
 11
101.8472701818739
 21
31.7906093934268
 31
0.0
  0
LINE
  5
3AD
330
6C
100
AcDbEntity
  8
Visible (ANSI)
100
AcDbLine
 10
101.0816201818739
 20
31.7906093934268
 30
0.0
 11
101.0816201818739
 21
31.6968593934268
 31
0.0
  0
POLYLINE
  5
3AE
330
6C
100
AcDbEntity
  8
Visible (ANSI)
100
AcDb2dPolyline
 66
     1
 10
0.0
 20
0.0
 30
0.0
 70
   128
  0
VERTEX
  5
3AF
330
3AE
100
AcDbEntity
  8
Visible (ANSI)
100
AcDbVertex
100
AcDb2dVertex
 10
101.0660201818739
 20
31.80620939420626
 30
0.0
  0
VERTEX
  5
3B0
330
3AE
100
AcDbEntity
  8
Visible (ANSI)
100
AcDbVertex
100
AcDb2dVertex
 10
101.0660535826701
 20
31.8051890987928
 30
0.0
  0
VERTEX
  5
3B2
330
3AE
100
AcDbEntity
  8
Visible (ANSI)
100
AcDbVertex
100
AcDb2dVertex
 10
101.0661536420374
 20
31.80417317986212
 30
0.0
  0
VERTEX
  5
3B3
330
3AE
100
AcDbEntity
  8
Visible (ANSI)
100
AcDbVertex
100
AcDb2dVertex
 10
101.0663199315049
 20
31.80316597869739
 30
0.0
  0
VERTEX
  5
3B4
330
3AE
100
AcDbEntity
  8
Visible (ANSI)
100
AcDbVertex
100
AcDb2dVertex
 10
101.066551739
 20
31.80217181311541
 30
0.0
  0
VERTEX
  5
3B5
330
3AE
100
AcDbEntity
  8
Visible (ANSI)
100
AcDbVertex
100
AcDb2dVertex
 10
101.0668480718184
 20
31.80119494226697
 30
0.0
  0
VERTEX
  5
3B6
330
3AE
100
AcDbEntity
  8
Visible (ANSI)
100
AcDbVertex
100
AcDb2dVertex
 10
101.0672076611477
 20
31.80023953143729
 30
0.0
  0
VERTEX
  5
3B7
330
3AE
100
AcDbEntity
  8
Visible (ANSI)
100
AcDbVertex
100
AcDb2dVertex
 10
101.0676289671891
 20
31.7993096872456
 30
0.0
  0
VERTEX
  5
3B8
330
3AE
100
AcDbEntity
  8
Visible (ANSI)
100
AcDbVertex
100
AcDb2dVertex
 10
101.0681101855967
 20
31.79840939897914
 30
0.0
  0
VERTEX
  5
3B9
330
3AE
100
AcDbEntity
  8
Visible (ANSI)
100
AcDbVertex
100
AcDb2dVertex
 10
101.0686492560026
 20
31.79754250339359
 30
0.0
  0
VERTEX
  5
3BA
330
3AE
100
AcDbEntity
  8
Visible (ANSI)
100
AcDbVertex
100
AcDb2dVertex
 10
101.0692438699003
 20
31.79671271991265
 30
0.0
  0
VERTEX
  5
3BB
330
3AE
100
AcDbEntity
  8
Visible (ANSI)
100
AcDbVertex
100
AcDb2dVertex
 10
101.069891480819
 20
31.79592360369526
 30
0.0
  0
VERTEX
  5
3BC
330
3AE
100
AcDbEntity
  8
Visible (ANSI)
100
AcDbVertex
100
AcDb2dVertex
 10
101.0705893160575
 20
31.79517852803577
 30
0.0
  0
VERTEX
  5
3BD
330
3AE
100
AcDbEntity
  8
Visible (ANSI)
100
AcDbVertex
100
AcDb2dVertex
 10
101.0713343873171
 20
31.79448069023059
 30
0.0
  0
VERTEX
  5
3BE
330
3AE
100
AcDbEntity
  8
Visible (ANSI)
100
AcDbVertex
100
AcDb2dVertex
 10
101.0721235035345
 20
31.79383308224514
 30
0.0
  0
VERTEX
  5
3BF
330
3AE
100
AcDbEntity
  8
Visible (ANSI)
100
AcDbVertex
100
AcDb2dVertex
 10
101.0729532859154
 20
31.79323846724752
 30
0.0
  0
VERTEX
  5
3C0
330
3AE
100
AcDbEntity
  8
Visible (ANSI)
100
AcDbVertex
100
AcDb2dVertex
 10
101.0738201822343
 20
31.79269939720823
 30
0.0
  0
VERTEX
  5
3C1
330
3AE
100
AcDbEntity
  8
Visible (ANSI)
100
AcDbVertex
100
AcDb2dVertex
 10
101.0747204785673
 20
31.79221817770065
 30
0.0
  0
VERTEX
  5
3C2
330
3AE
100
AcDbEntity
  8
Visible (ANSI)
100
AcDbVertex
100
AcDb2dVertex
 10
101.075650320559
 20
31.79179687376759
 30
0.0
  0
VERTEX
  5
3C3
330
3AE
100
AcDbEntity
  8
Visible (ANSI)
100
AcDbVertex
100
AcDb2dVertex
 10
101.0766057262554
 20
31.79143728058831
 30
0.0
  0
VERTEX
  5
3C4
330
3AE
100
AcDbEntity
  8
Visible (ANSI)
100
AcDbVertex
100
AcDb2dVertex
 10
101.0775826044371
 20
31.79114095281152
 30
0.0
  0
VERTEX
  5
3C5
330
3AE
100
AcDbEntity
  8
Visible (ANSI)
100
AcDbVertex
100
AcDb2dVertex
 10
101.0785767729524
 20
31.79090914588937
 30
0.0
  0
VERTEX
  5
3C6
330
3AE
100
AcDbEntity
  8
Visible (ANSI)
100
AcDbVertex
100
AcDb2dVertex
 10
101.0795839726505
 20
31.79074285127708
 30
0.0
  0
VERTEX
  5
3C7
330
3AE
100
AcDbEntity
  8
Visible (ANSI)
100
AcDbVertex
100
AcDb2dVertex
 10
101.0805998930478
 20
31.79064279643293
 30
0.0
  0
VERTEX
  5
3C8
330
3AE
100
AcDbEntity
  8
Visible (ANSI)
100
AcDbVertex
100
AcDb2dVertex
 10
101.0816201825947
 20
31.79060939201882
 30
0.0
  0
SEQEND
  5
3B1
330
3AE
100
AcDbEntity
  8
Visible (ANSI)
  0
LINE
  5
3C9
330
6C
100
AcDbEntity
  8
Visible (ANSI)
100
AcDbLine
 10
101.0816201818739
 20
31.6968593934268
 30
0.0
 11
101.8472701818739
 21
31.6968593934268
 31
0.0
  0
LINE
  5
3CA
330
6C
100
AcDbEntity
  8
Visible (ANSI)
100
AcDbLine
 10
101.8472701818739
 20
31.7906093934268
 30
0.0
 11
101.8472701818739
 21
31.6968593934268
 31
0.0
  0
LINE
  5
3CB
330
6C
100
AcDbEntity
  8
Visible (ANSI)
100
AcDbLine
 10
100.9722701818739
 20
31.8062093934268
 30
0.0
 11
100.9722701818739
 21
91.58750939342679
 31
0.0
  0
LINE
  5
3CC
330
6C
100
AcDbEntity
  8
Hidden (ANSI)
 48
1.095521569252014
100
AcDbLine
 10
101.0660201818739
 20
91.58750939342679
 30
0.0
 11
101.0660201818739
 21
31.8062093934268
 31
0.0
  0
LINE
  5
3CD
330
6C
100
AcDbEntity
  8
Visible (ANSI)
100
AcDbLine
 10
101.8472701818739
 20
91.53681813269054
 30
0.0
 11
101.8472701818739
 21
31.85690065416305
 31
0.0
  0
LINE
  5
3CE
330
6C
100
AcDbEntity
  8
Hidden (ANSI)
 48
0.0147804422304034
100
AcDbLine
 10
101.0660201818737
 20
61.41535939342681
 30
0.0
 11
100.9722701818737
 21
61.41535939342681
 31
0.0
  0
LINE
  5
3CF
330
6C
100
AcDbEntity
  8
Hidden (ANSI)
 48
0.0147804422304034
100
AcDbLine
 10
101.0660201818737
 20
61.97835939342681
 30
0.0
 11
100.9722701818737
 21
61.97835939342681
 31
0.0
  0
LINE
  5
3D0
330
6C
100
AcDbEntity
  8
Hidden (ANSI)
 48
0.0147804422304034
100
AcDbLine
 10
101.0660201818737
 20
90.54035939342679
 30
0.0
 11
100.9722701818737
 21
90.54035939342679
 31
0.0
  0
LINE
  5
3D1
330
6C
100
AcDbEntity
  8
Hidden (ANSI)
 48
0.0147804422304034
100
AcDbLine
 10
101.0660201818737
 20
91.10335939342681
 30
0.0
 11
100.9722701818737
 21
91.10335939342681
 31
0.0
  0
LINE
  5
3D2
330
6C
100
AcDbEntity
  8
Hidden (ANSI)
 48
0.0147804422304034
100
AcDbLine
 10
101.0660201818737
 20
32.2903593934268
 30
0.0
 11
100.9722701818737
 21
32.2903593934268
 31
0.0
  0
LINE
  5
3D3
330
6C
100
AcDbEntity
  8
Hidden (ANSI)
 48
0.0147804422304034
100
AcDbLine
 10
101.0660201818737
 20
32.8533593934268
 30
0.0
 11
100.9722701818737
 21
32.8533593934268
 31
0.0
  0
MTEXT
  5
3D4
330
6C
100
AcDbEntity
  8
Symbol (ANSI)
100
AcDbMText
 10
96.61796350331229
 20
25.77709569426067
 30
0.0
 40
1.440000017796914
 41
0.0
 46
0.0
 71
     7
 72
     1
  1
SIDE VIEW
  7
Text Style153
 73
     1
 44
1.0
  0
LINE
  5
3D5
330
6C
100
AcDbEntity
  8
Symbol (ANSI)
370
    30
100
AcDbLine
 10
96.54423531365692
 20
25.47876830028418
 30
0.0
 11
106.2753211585228
 21
25.47876830028418
 31
0.0
  0
ELLIPSE
  5
3D6
330
6C
100
AcDbEntity
  8
Visible (ANSI)
100
AcDbEllipse
 10
161.3610156928988
 20
57.80307657551376
 30
0.0
 11
-0.1404775675610101
 21
0.2439432372748665
 31
0.0
210
0.0
220
0.0
230
1.0
 40
0.578093115915809
 41
0.0
 42
6.283185307179586
  0
ELLIPSE
  5
3D7
330
6C
100
AcDbEntity
  8
Visible (ANSI)
100
AcDbEllipse
 10
161.427306953635
 20
57.8412511736818
 30
0.0
 11
-0.1404775675610098
 21
0.2439432372748659
 31
0.0
210
0.0
220
0.0
230
0.9999999999999998
 40
0.578093115915809
 41
0.2372585647783909
 42
2.904334088811491
  0
ELLIPSE
  5
3D8
330
6C
100
AcDbEntity
  8
Visible (ANSI)
100
AcDbEllipse
 10
148.4563169362424
 20
65.23439835222283
 30
0.0
 11
-0.1404775675610101
 21
0.2439432372748665
 31
0.0
210
0.0
220
0.0
230
1.0
 40
0.578093115915809
 41
0.0
 42
6.283185307179586
  0
ELLIPSE
  5
3D9
330
6C
100
AcDbEntity
  8
Visible (ANSI)
100
AcDbEllipse
 10
148.5226081969786
 20
65.27257295039088
 30
0.0
 11
-0.1404775675610089
 21
0.2439432372748646
 31
0.0
210
0.0
220
0.0
230
1.0
 40
0.578093115915809
 41
0.2372585647784398
 42
2.904334088811397
  0
ELLIPSE
  5
3DA
330
6C
100
AcDbEntity
  8
Visible (ANSI)
100
AcDbEllipse
 10
161.3610156928988
 20
81.61413658655265
 30
0.0
 11
-0.1404775675610101
 21
0.2439432372748665
 31
0.0
210
0.0
220
0.0
230
1.0
 40
0.578093115915809
 41
0.0
 42
6.283185307179586
  0
ELLIPSE
  5
3DB
330
6C
100
AcDbEntity
  8
Visible (ANSI)
100
AcDbEllipse
 10
161.427306953635
 20
81.65231118472068
 30
0.0
 11
-0.1404775675610117
 21
0.2439432372748693
 31
0.0
210
0.0
220
0.0
230
1.0
 40
0.5780931159158092
 41
0.2372585647784887
 42
2.904334088811284
  0
ELLIPSE
  5
3DC
330
6C
100
AcDbEntity
  8
Visible (ANSI)
100
AcDbEllipse
 10
148.4563169362425
 20
89.04545836326171
 30
0.0
 11
-0.1404775675610101
 21
0.2439432372748665
 31
0.0
210
0.0
220
0.0
230
1.0
 40
0.578093115915809
 41
0.0
 42
6.283185307179586
  0
ELLIPSE
  5
3DD
330
6C
100
AcDbEntity
  8
Visible (ANSI)
100
AcDbEllipse
 10
148.5226081969787
 20
89.08363296142974
 30
0.0
 11
-0.1404775675610124
 21
0.2439432372748703
 31
0.0
210
0.0
220
0.0
230
1.0
 40
0.5780931159158092
 41
0.2372585647784083
 42
2.904334088811377
  0
ELLIPSE
  5
3DE
330
6C
100
AcDbEntity
  8
Visible (ANSI)
100
AcDbEllipse
 10
148.4563169362423
 20
41.42333834118394
 30
0.0
 11
-0.1404775675610101
 21
0.2439432372748665
 31
0.0
210
0.0
220
0.0
230
1.0
 40
0.578093115915809
 41
0.0
 42
6.283185307179586
  0
ELLIPSE
  5
3DF
330
6C
100
AcDbEntity
  8
Visible (ANSI)
100
AcDbEllipse
 10
148.5226081969785
 20
41.46151293935197
 30
0.0
 11
-0.1404775675610102
 21
0.2439432372748665
 31
0.0
210
0.0
220
0.0
230
1.0
 40
0.578093115915809
 41
0.2372585647784087
 42
2.904334088811396
  0
ELLIPSE
  5
3E0
330
6C
100
AcDbEntity
  8
Visible (ANSI)
100
AcDbEllipse
 10
161.3610156928987
 20
33.99201656447487
 30
0.0
 11
-0.1404775675610101
 21
0.2439432372748665
 31
0.0
210
0.0
220
0.0
230
1.0
 40
0.578093115915809
 41
0.0
 42
6.283185307179586
  0
ELLIPSE
  5
3E1
330
6C
100
AcDbEntity
  8
Visible (ANSI)
100
AcDbEllipse
 10
161.4273069536349
 20
34.0301911626429
 30
0.0
 11
-0.1404775675610099
 21
0.2439432372748661
 31
0.0
210
0.0
220
0.0
230
0.9999999999999998
 40
0.578093115915809
 41
0.2372585647783909
 42
2.904334088811481
  0
LINE
  5
3E2
330
6C
100
AcDbEntity
  8
Visible Narrow (ANSI)
100
AcDbLine
 10
162.0570562529599
 20
81.88687964995372
 30
0.0
 11
162.0570562529598
 21
33.09573470454369
 31
0.0
  0
LINE
  5
3E3
330
6C
100
AcDbEntity
  8
Visible Narrow (ANSI)
100
AcDbLine
 10
161.9024119999143
 20
33.05429221007412
 30
0.0
 11
161.9024119999144
 21
81.92832214442328
 31
0.0
  0
LINE
  5
3E4
330
6C
100
AcDbEntity
  8
Visible Narrow (ANSI)
100
AcDbLine
 10
148.0280868899631
 20
90.09646708296866
 30
0.0
 11
161.9438899922237
 21
82.08288903792654
 31
0.0
  0
LINE
  5
3E5
330
6C
100
AcDbEntity
  8
Visible Narrow (ANSI)
100
AcDbLine
 10
161.9024119999144
 20
81.92832214442328
 30
0.0
 11
147.9149206292269
 21
89.98318271766247
 31
0.0
  0
LINE
  5
3E6
330
6C
100
AcDbEntity
  8
Visible Narrow (ANSI)
100
AcDbLine
 10
147.9149206292269
 20
89.98318271766247
 30
0.0
 11
147.9149206292268
 21
41.10915278331329
 31
0.0
  0
LINE
  5
3E7
330
6C
100
AcDbEntity
  8
Visible Narrow (ANSI)
100
AcDbLine
 10
147.9149206292268
 20
41.10915278331329
 30
0.0
 11
161.9024119999143
 21
33.05429221007412
 31
0.0
  0
LINE
  5
3E8
330
6C
100
AcDbEntity
  8
Visible (ANSI)
100
AcDbLine
 10
147.8828927557496
 20
90.00698832173087
 30
0.0
 11
147.8828927557495
 21
41.17440088185128
 31
0.0
  0
LINE
  5
3E9
330
6C
100
AcDbEntity
  8
Visible (ANSI)
100
AcDbLine
 10
147.9556397759755
 20
41.04857269366458
 30
0.0
 11
161.9071987615375
 21
33.01440420484425
 31
0.0
  0
POLYLINE
  5
3EA
330
6C
100
AcDbEntity
  8
Visible (ANSI)
100
AcDb2dPolyline
 66
     1
 10
0.0
 20
0.0
 30
0.0
 70
   128
  0
VERTEX
  5
3EB
330
3EA
100
AcDbEntity
  8
Visible (ANSI)
100
AcDbVertex
100
AcDb2dVertex
 10
161.902412036864
 20
81.92832290256111
 30
0.0
  0
VERTEX
  5
3EC
330
3EA
100
AcDbEntity
  8
Visible (ANSI)
100
AcDbVertex
100
AcDb2dVertex
 10
161.9076346785312
 20
81.92377726372347
 30
0.0
  0
VERTEX
  5
3EE
330
3EA
100
AcDbEntity
  8
Visible (ANSI)
100
AcDbVertex
100
AcDb2dVertex
 10
161.9131664814364
 20
81.91943903219685
 30
0.0
  0
VERTEX
  5
3EF
330
3EA
100
AcDbEntity
  8
Visible (ANSI)
100
AcDbVertex
100
AcDb2dVertex
 10
161.9189830120228
 20
81.91530999992824
 30
0.0
  0
VERTEX
  5
3F0
330
3EA
100
AcDbEntity
  8
Visible (ANSI)
100
AcDbVertex
100
AcDb2dVertex
 10
161.925059509017
 20
81.91140528104314
 30
0.0
  0
VERTEX
  5
3F1
330
3EA
100
AcDbEntity
  8
Visible (ANSI)
100
AcDbVertex
100
AcDb2dVertex
 10
161.9313698048677
 20
81.90773917984563
 30
0.0
  0
VERTEX
  5
3F2
330
3EA
100
AcDbEntity
  8
Visible (ANSI)
100
AcDbVertex
100
AcDb2dVertex
 10
161.9378874416419
 20
81.90430987633551
 30
0.0
  0
VERTEX
  5
3F3
330
3EA
100
AcDbEntity
  8
Visible (ANSI)
100
AcDbVertex
100
AcDb2dVertex
 10
161.9445846049084
 20
81.90113441467898
 30
0.0
  0
VERTEX
  5
3F4
330
3EA
100
AcDbEntity
  8
Visible (ANSI)
100
AcDbVertex
100
AcDb2dVertex
 10
161.9514321776664
 20
81.89820944362061
 30
0.0
  0
VERTEX
  5
3F5
330
3EA
100
AcDbEntity
  8
Visible (ANSI)
100
AcDbVertex
100
AcDb2dVertex
 10
161.9584008230545
 20
81.89554990752389
 30
0.0
  0
VERTEX
  5
3F6
330
3EA
100
AcDbEntity
  8
Visible (ANSI)
100
AcDbVertex
100
AcDb2dVertex
 10
161.9654610590201
 20
81.89314979872788
 30
0.0
  0
VERTEX
  5
3F7
330
3EA
100
AcDbEntity
  8
Visible (ANSI)
100
AcDbVertex
100
AcDb2dVertex
 10
161.9725822005004
 20
81.89101715079495
 30
0.0
  0
VERTEX
  5
3F8
330
3EA
100
AcDbEntity
  8
Visible (ANSI)
100
AcDbVertex
100
AcDb2dVertex
 10
161.9797345746208
 20
81.88915813398152
 30
0.0
  0
VERTEX
  5
3F9
330
3EA
100
AcDbEntity
  8
Visible (ANSI)
100
AcDbVertex
100
AcDb2dVertex
 10
161.9868863845707
 20
81.88756418455289
 30
0.0
  0
VERTEX
  5
3FA
330
3EA
100
AcDbEntity
  8
Visible (ANSI)
100
AcDbVertex
100
AcDb2dVertex
 10
161.9940069452874
 20
81.88624457812222
 30
0.0
  0
VERTEX
  5
3FB
330
3EA
100
AcDbEntity
  8
Visible (ANSI)
100
AcDbVertex
100
AcDb2dVertex
 10
162.0010667622735
 20
81.8851871843959
 30
0.0
  0
VERTEX
  5
3FC
330
3EA
100
AcDbEntity
  8
Visible (ANSI)
100
AcDbVertex
100
AcDb2dVertex
 10
162.008035480257
 20
81.88439411138421
 30
0.0
  0
VERTEX
  5
3FD
330
3EA
100
AcDbEntity
  8
Visible (ANSI)
100
AcDbVertex
100
AcDb2dVertex
 10
162.0148830219027
 20
81.88386640405743
 30
0.0
  0
VERTEX
  5
3FE
330
3EA
100
AcDbEntity
  8
Visible (ANSI)
100
AcDbVertex
100
AcDb2dVertex
 10
162.0215807182273
 20
81.88358873822426
 30
0.0
  0
VERTEX
  5
3FF
330
3EA
100
AcDbEntity
  8
Visible (ANSI)
100
AcDbVertex
100
AcDb2dVertex
 10
162.0280982139589
 20
81.88356568703891
 30
0.0
  0
VERTEX
  5
400
330
3EA
100
AcDbEntity
  8
Visible (ANSI)
100
AcDbVertex
100
AcDb2dVertex
 10
162.0344088593048
 20
81.8837794198051
 30
0.0
  0
VERTEX
  5
401
330
3EA
100
AcDbEntity
  8
Visible (ANSI)
100
AcDbVertex
100
AcDb2dVertex
 10
162.0404855489362
 20
81.88422657749159
 30
0.0
  0
VERTEX
  5
402
330
3EA
100
AcDbEntity
  8
Visible (ANSI)
100
AcDbVertex
100
AcDb2dVertex
 10
162.0463018718478
 20
81.88490297780836
 30
0.0
  0
VERTEX
  5
403
330
3EA
100
AcDbEntity
  8
Visible (ANSI)
100
AcDbVertex
100
AcDb2dVertex
 10
162.0518332645887
 20
81.88578832222376
 30
0.0
  0
VERTEX
  5
404
330
3EA
100
AcDbEntity
  8
Visible (ANSI)
100
AcDbVertex
100
AcDb2dVertex
 10
162.0570560410761
 20
81.88688123967686
 30
0.0
  0
SEQEND
  5
3ED
330
3EA
100
AcDbEntity
  8
Visible (ANSI)
  0
POLYLINE
  5
405
330
6C
100
AcDbEntity
  8
Visible (ANSI)
100
AcDb2dPolyline
 66
     1
 10
0.0
 20
0.0
 30
0.0
 70
   128
  0
VERTEX
  5
406
330
405
100
AcDbEntity
  8
Visible (ANSI)
100
AcDbVertex
100
AcDb2dVertex
 10
162.0570560410759
 20
33.09573482958832
 30
0.0
  0
VERTEX
  5
407
330
405
100
AcDbEntity
  8
Visible (ANSI)
100
AcDbVertex
100
AcDb2dVertex
 10
162.0518332645886
 20
33.0911912613016
 30
0.0
  0
VERTEX
  5
409
330
405
100
AcDbEntity
  8
Visible (ANSI)
100
AcDbVertex
100
AcDb2dVertex
 10
162.0463018718477
 20
33.08685035472224
 30
0.0
  0
VERTEX
  5
40A
330
405
100
AcDbEntity
  8
Visible (ANSI)
100
AcDbVertex
100
AcDb2dVertex
 10
162.0404855489361
 20
33.08272331316427
 30
0.0
  0
VERTEX
  5
40B
330
405
100
AcDbEntity
  8
Visible (ANSI)
100
AcDbVertex
100
AcDb2dVertex
 10
162.0344088593047
 20
33.0788205933138
 30
0.0
  0
VERTEX
  5
40C
330
405
100
AcDbEntity
  8
Visible (ANSI)
100
AcDbVertex
100
AcDb2dVertex
 10
162.0280982139587
 20
33.07515129838363
 30
0.0
  0
VERTEX
  5
40D
330
405
100
AcDbEntity
  8
Visible (ANSI)
100
AcDbVertex
100
AcDb2dVertex
 10
162.0215807182272
 20
33.0717237083278
 30
0.0
  0
VERTEX
  5
40E
330
405
100
AcDbEntity
  8
Visible (ANSI)
100
AcDbVertex
100
AcDb2dVertex
 10
162.0148830219026
 20
33.06854581199699
 30
0.0
  0
VERTEX
  5
40F
330
405
100
AcDbEntity
  8
Visible (ANSI)
100
AcDbVertex
100
AcDb2dVertex
 10
162.0080354802568
 20
33.06562286849015
 30
0.0
  0
VERTEX
  5
410
330
405
100
AcDbEntity
  8
Visible (ANSI)
100
AcDbVertex
100
AcDb2dVertex
 10
162.0010667622734
 20
33.0629603889303
 30
0.0
  0
VERTEX
  5
411
330
405
100
AcDbEntity
  8
Visible (ANSI)
100
AcDbVertex
100
AcDb2dVertex
 10
161.9940069452873
 20
33.06056222049264
 30
0.0
  0
VERTEX
  5
412
330
405
100
AcDbEntity
  8
Visible (ANSI)
100
AcDbVertex
100
AcDb2dVertex
 10
161.9868863845706
 20
33.05843117608969
 30
0.0
  0
VERTEX
  5
413
330
405
100
AcDbEntity
  8
Visible (ANSI)
100
AcDbVertex
100
AcDb2dVertex
 10
161.9797345746206
 20
33.05656957294679
 30
0.0
  0
VERTEX
  5
414
330
405
100
AcDbEntity
  8
Visible (ANSI)
100
AcDbVertex
100
AcDb2dVertex
 10
161.9725822005003
 20
33.05497793892659
 30
0.0
  0
VERTEX
  5
415
330
405
100
AcDbEntity
  8
Visible (ANSI)
100
AcDbVertex
100
AcDb2dVertex
 10
161.9654610590199
 20
33.05365503428796
 30
0.0
  0
VERTEX
  5
416
330
405
100
AcDbEntity
  8
Visible (ANSI)
100
AcDbVertex
100
AcDb2dVertex
 10
161.9584008230543
 20
33.05259958092002
 30
0.0
  0
VERTEX
  5
417
330
405
100
AcDbEntity
  8
Visible (ANSI)
100
AcDbVertex
100
AcDb2dVertex
 10
161.9514321776663
 20
33.0518084661831
 30
0.0
  0
VERTEX
  5
418
330
405
100
AcDbEntity
  8
Visible (ANSI)
100
AcDbVertex
100
AcDb2dVertex
 10
161.9445846049083
 20
33.05127788466994
 30
0.0
  0
VERTEX
  5
419
330
405
100
AcDbEntity
  8
Visible (ANSI)
100
AcDbVertex
100
AcDb2dVertex
 10
161.9378874416417
 20
33.05100269549284
 30
0.0
  0
VERTEX
  5
41A
330
405
100
AcDbEntity
  8
Visible (ANSI)
100
AcDbVertex
100
AcDb2dVertex
 10
161.9313698048676
 20
33.05097643683897
 30
0.0
  0
VERTEX
  5
41B
330
405
100
AcDbEntity
  8
Visible (ANSI)
100
AcDbVertex
100
AcDb2dVertex
 10
161.9250595090169
 20
33.05119189679533
 30
0.0
  0
VERTEX
  5
41C
330
405
100
AcDbEntity
  8
Visible (ANSI)
100
AcDbVertex
100
AcDb2dVertex
 10
161.9189830120227
 20
33.05164105351642
 30
0.0
  0
VERTEX
  5
41D
330
405
100
AcDbEntity
  8
Visible (ANSI)
100
AcDbVertex
100
AcDb2dVertex
 10
161.9131664814362
 20
33.05231452362104
 30
0.0
  0
VERTEX
  5
41E
330
405
100
AcDbEntity
  8
Visible (ANSI)
100
AcDbVertex
100
AcDb2dVertex
 10
161.907634678531
 20
33.05320211390651
 30
0.0
  0
VERTEX
  5
41F
330
405
100
AcDbEntity
  8
Visible (ANSI)
100
AcDbVertex
100
AcDb2dVertex
 10
161.9024120368639
 20
33.05429219058016
 30
0.0
  0
SEQEND
  5
408
330
405
100
AcDbEntity
  8
Visible (ANSI)
  0
LINE
  5
420
330
6C
100
AcDbEntity
  8
Visible (ANSI)
100
AcDbLine
 10
161.9922183703933
 20
81.92589119294671
 30
0.0
 11
162.5321612992391
 21
82.23682364638689
 31
0.0
  0
LINE
  5
421
330
6C
100
AcDbEntity
  8
Visible (ANSI)
100
AcDbLine
 10
162.5984525599752
 20
33.40750410280884
 30
0.0
 11
162.0570562529598
 21
33.09573470454369
 31
0.0
  0
LINE
  5
422
330
6C
100
AcDbEntity
  8
Visible (ANSI)
100
AcDbLine
 10
162.0026416330055
 20
81.91821494555913
 30
0.0
 11
162.0570562529599
 21
81.88687964995372
 31
0.0
  0
POLYLINE
  5
423
330
6C
100
AcDbEntity
  8
Visible (ANSI)
100
AcDb2dPolyline
 66
     1
 10
0.0
 20
0.0
 30
0.0
 70
   128
  0
VERTEX
  5
424
330
423
100
AcDbEntity
  8
Visible (ANSI)
100
AcDbVertex
100
AcDb2dVertex
 10
161.9687032966046
 20
81.96649750015584
 30
0.0
  0
VERTEX
  5
425
330
423
100
AcDbEntity
  8
Visible (ANSI)
100
AcDbVertex
100
AcDb2dVertex
 10
161.9692359470738
 20
81.96495743957573
 30
0.0
  0
VERTEX
  5
427
330
423
100
AcDbEntity
  8
Visible (ANSI)
100
AcDbVertex
100
AcDb2dVertex
 10
161.9697920806643
 20
81.96343703644949
 30
0.0
  0
VERTEX
  5
428
330
423
100
AcDbEntity
  8
Visible (ANSI)
100
AcDbVertex
100
AcDb2dVertex
 10
161.970370553367
 20
81.96192703241839
 30
0.0
  0
VERTEX
  5
429
330
423
100
AcDbEntity
  8
Visible (ANSI)
100
AcDbVertex
100
AcDb2dVertex
 10
161.9709701666731
 20
81.9604377830611
 30
0.0
  0
VERTEX
  5
42A
330
423
100
AcDbEntity
  8
Visible (ANSI)
100
AcDbVertex
100
AcDb2dVertex
 10
161.9715886059178
 20
81.95896057897652
 30
0.0
  0
VERTEX
  5
42B
330
423
100
AcDbEntity
  8
Visible (ANSI)
100
AcDbVertex
100
AcDb2dVertex
 10
161.9722256265856
 20
81.95750019068791
 30
0.0
  0
VERTEX
  5
42C
330
423
100
AcDbEntity
  8
Visible (ANSI)
100
AcDbVertex
100
AcDb2dVertex
 10
161.9728788070671
 20
81.95606258119992
 30
0.0
  0
VERTEX
  5
42D
330
423
100
AcDbEntity
  8
Visible (ANSI)
100
AcDbVertex
100
AcDb2dVertex
 10
161.9735477970244
 20
81.95463772610564
 30
0.0
  0
VERTEX
  5
42E
330
423
100
AcDbEntity
  8
Visible (ANSI)
100
AcDbVertex
100
AcDb2dVertex
 10
161.9742300705243
 20
81.95323643966414
 30
0.0
  0
VERTEX
  5
42F
330
423
100
AcDbEntity
  8
Visible (ANSI)
100
AcDbVertex
100
AcDb2dVertex
 10
161.9749251746881
 20
81.951848638419
 30
0.0
  0
VERTEX
  5
430
330
423
100
AcDbEntity
  8
Visible (ANSI)
100
AcDbVertex
100
AcDb2dVertex
 10
161.9756304825972
 20
81.9504850784757
 30
0.0
  0
VERTEX
  5
431
330
423
100
AcDbEntity
  8
Visible (ANSI)
100
AcDbVertex
100
AcDb2dVertex
 10
161.9763454429798
 20
81.94913561971711
 30
0.0
  0
VERTEX
  5
432
330
423
100
AcDbEntity
  8
Visible (ANSI)
100
AcDbVertex
100
AcDb2dVertex
 10
161.9770673324691
 20
81.94781096270785
 30
0.0
  0
VERTEX
  5
433
330
423
100
AcDbEntity
  8
Visible (ANSI)
100
AcDbVertex
100
AcDb2dVertex
 10
161.9777955061325
 20
81.94650091339502
 30
0.0
  0
VERTEX
  5
434
330
423
100
AcDbEntity
  8
Visible (ANSI)
100
AcDbVertex
100
AcDb2dVertex
 10
161.9785282118265
 20
81.94521059721006
 30
0.0
  0
VERTEX
  5
435
330
423
100
AcDbEntity
  8
Visible (ANSI)
100
AcDbVertex
100
AcDb2dVertex
 10
161.97926365411
 20
81.94394511465068
 30
0.0
  0
VERTEX
  5
436
330
423
100
AcDbEntity
  8
Visible (ANSI)
100
AcDbVertex
100
AcDb2dVertex
 10
161.9799999968364
 20
81.94269480878288
 30
0.0
  0
VERTEX
  5
437
330
423
100
AcDbEntity
  8
Visible (ANSI)
100
AcDbVertex
100
AcDb2dVertex
 10
161.9807353626354
 20
81.9414696442549
 30
0.0
  0
VERTEX
  5
438
330
423
100
AcDbEntity
  8
Visible (ANSI)
100
AcDbVertex
100
AcDb2dVertex
 10
161.9814688992881
 20
81.94025930764583
 30
0.0
  0
VERTEX
  5
439
330
423
100
AcDbEntity
  8
Visible (ANSI)
100
AcDbVertex
100
AcDb2dVertex
 10
161.9821986557917
 20
81.93907372120177
 30
0.0
  0
VERTEX
  5
43A
330
423
100
AcDbEntity
  8
Visible (ANSI)
100
AcDbVertex
100
AcDb2dVertex
 10
161.9829226471788
 20
81.93790314228861
 30
0.0
  0
VERTEX
  5
43B
330
423
100
AcDbEntity
  8
Visible (ANSI)
100
AcDbVertex
100
AcDb2dVertex
 10
161.9836399183007
 20
81.93675193220304
 30
0.0
  0
VERTEX
  5
43C
330
423
100
AcDbEntity
  8
Visible (ANSI)
100
AcDbVertex
100
AcDb2dVertex
 10
161.9843484219655
 20
81.93562504646925
 30
0.0
  0
VERTEX
  5
43D
330
423
100
AcDbEntity
  8
Visible (ANSI)
100
AcDbVertex
100
AcDb2dVertex
 10
161.9850460840173
 20
81.93451269109276
 30
0.0
  0
SEQEND
  5
426
330
423
100
AcDbEntity
  8
Visible (ANSI)
  0
LINE
  5
43E
330
6C
100
AcDbEntity
  8
Visible (ANSI)
100
AcDbLine
 10
161.9687032606506
 20
81.96649674259132
 30
0.0
 11
161.9569150418734
 21
81.95970835887468
 31
0.0
  0
LINE
  5
43F
330
6C
100
AcDbEntity
  8
Visible (ANSI)
100
AcDbLine
 10
161.9569150418734
 20
81.95970835887468
 30
0.0
 11
161.9024119999144
 21
81.92832214442328
 31
0.0
  0
LINE
  5
440
330
6C
100
AcDbEntity
  8
Visible (ANSI)
100
AcDbLine
 10
162.0570562529599
 20
81.88687964995372
 30
0.0
 11
162.5984525599753
 21
82.19864904821887
 31
0.0
  0
LINE
  5
441
330
6C
100
AcDbEntity
  8
Visible (ANSI)
100
AcDbLine
 10
162.5321612992391
 20
82.23682364638689
 30
0.0
 11
162.5984525599753
 21
82.19864904821887
 31
0.0
  0
POLYLINE
  5
442
330
6C
100
AcDbEntity
  8
Visible (ANSI)
100
AcDb2dPolyline
 66
     1
 10
0.0
 20
0.0
 30
0.0
 70
   128
  0
VERTEX
  5
443
330
442
100
AcDbEntity
  8
Visible (ANSI)
100
AcDbVertex
100
AcDb2dVertex
 10
147.9149206307736
 20
89.98318349618743
 30
0.0
  0
VERTEX
  5
444
330
442
100
AcDbEntity
  8
Visible (ANSI)
100
AcDbVertex
100
AcDb2dVertex
 10
147.9165796900262
 20
89.98826325940321
 30
0.0
  0
VERTEX
  5
446
330
442
100
AcDbEntity
  8
Visible (ANSI)
100
AcDbVertex
100
AcDb2dVertex
 10
147.918569141577
 20
89.99351364712374
 30
0.0
  0
VERTEX
  5
447
330
442
100
AcDbEntity
  8
Visible (ANSI)
100
AcDbVertex
100
AcDb2dVertex
 10
147.9208868697869
 20
89.99889904261021
 30
0.0
  0
VERTEX
  5
448
330
442
100
AcDbEntity
  8
Visible (ANSI)
100
AcDbVertex
100
AcDb2dVertex
 10
147.9235293444425
 20
90.00439777718181
 30
0.0
  0
VERTEX
  5
449
330
442
100
AcDbEntity
  8
Visible (ANSI)
100
AcDbVertex
100
AcDb2dVertex
 10
147.9264916290528
 20
90.00998246100602
 30
0.0
  0
VERTEX
  5
44A
330
442
100
AcDbEntity
  8
Visible (ANSI)
100
AcDbVertex
100
AcDb2dVertex
 10
147.9297674596668
 20
90.01562491115072
 30
0.0
  0
VERTEX
  5
44B
330
442
100
AcDbEntity
  8
Visible (ANSI)
100
AcDbVertex
100
AcDb2dVertex
 10
147.9333491909458
 20
90.02129617786177
 30
0.0
  0
VERTEX
  5
44C
330
442
100
AcDbEntity
  8
Visible (ANSI)
100
AcDbVertex
100
AcDb2dVertex
 10
147.9372278749811
 20
90.02696656128476
 30
0.0
  0
VERTEX
  5
44D
330
442
100
AcDbEntity
  8
Visible (ANSI)
100
AcDbVertex
100
AcDb2dVertex
 10
147.9413933069254
 20
90.03261543173721
 30
0.0
  0
VERTEX
  5
44E
330
442
100
AcDbEntity
  8
Visible (ANSI)
100
AcDbVertex
100
AcDb2dVertex
 10
147.9458340498831
 20
90.03820674472198
 30
0.0
  0
VERTEX
  5
44F
330
442
100
AcDbEntity
  8
Visible (ANSI)
100
AcDbVertex
100
AcDb2dVertex
 10
147.9505374639478
 20
90.04371849696557
 30
0.0
  0
VERTEX
  5
450
330
442
100
AcDbEntity
  8
Visible (ANSI)
100
AcDbVertex
100
AcDb2dVertex
 10
147.9554898223556
 20
90.04911820798763
 30
0.0
  0
VERTEX
  5
451
330
442
100
AcDbEntity
  8
Visible (ANSI)
100
AcDbVertex
100
AcDb2dVertex
 10
147.9606763031883
 20
90.05438262753283
 30
0.0
  0
VERTEX
  5
452
330
442
100
AcDbEntity
  8
Visible (ANSI)
100
AcDbVertex
100
AcDb2dVertex
 10
147.9660811055259
 20
90.05948790335466
 30
0.0
  0
VERTEX
  5
453
330
442
100
AcDbEntity
  8
Visible (ANSI)
100
AcDbVertex
100
AcDb2dVertex
 10
147.9716874701885
 20
90.06440474871723
 30
0.0
  0
VERTEX
  5
454
330
442
100
AcDbEntity
  8
Visible (ANSI)
100
AcDbVertex
100
AcDb2dVertex
 10
147.9774777772216
 20
90.06910829252779
 30
0.0
  0
VERTEX
  5
455
330
442
100
AcDbEntity
  8
Visible (ANSI)
100
AcDbVertex
100
AcDb2dVertex
 10
147.9834336475293
 20
90.07357319786716
 30
0.0
  0
VERTEX
  5
456
330
442
100
AcDbEntity
  8
Visible (ANSI)
100
AcDbVertex
100
AcDb2dVertex
 10
147.9895359615424
 20
90.07778355273256
 30
0.0
  0
VERTEX
  5
457
330
442
100
AcDbEntity
  8
Visible (ANSI)
100
AcDbVertex
100
AcDb2dVertex
 10
147.9957649753704
 20
90.08170835160775
 30
0.0
  0
VERTEX
  5
458
330
442
100
AcDbEntity
  8
Visible (ANSI)
100
AcDbVertex
100
AcDb2dVertex
 10
148.0021004276213
 20
90.0853359076221
 30
0.0
  0
VERTEX
  5
459
330
442
100
AcDbEntity
  8
Visible (ANSI)
100
AcDbVertex
100
AcDb2dVertex
 10
148.0085215764764
 20
90.08864446325139
 30
0.0
  0
VERTEX
  5
45A
330
442
100
AcDbEntity
  8
Visible (ANSI)
100
AcDbVertex
100
AcDb2dVertex
 10
148.0150073124731
 20
90.09161204925916
 30
0.0
  0
VERTEX
  5
45B
330
442
100
AcDbEntity
  8
Visible (ANSI)
100
AcDbVertex
100
AcDb2dVertex
 10
148.0215362746572
 20
90.09422143424888
 30
0.0
  0
VERTEX
  5
45C
330
442
100
AcDbEntity
  8
Visible (ANSI)
100
AcDbVertex
100
AcDb2dVertex
 10
148.0280868925848
 20
90.09646511751382
 30
0.0
  0
SEQEND
  5
445
330
442
100
AcDbEntity
  8
Visible (ANSI)
  0
POLYLINE
  5
45D
330
6C
100
AcDbEntity
  8
Visible (ANSI)
100
AcDb2dPolyline
 66
     1
 10
0.0
 20
0.0
 30
0.0
 70
   128
  0
VERTEX
  5
45E
330
45D
100
AcDbEntity
  8
Visible (ANSI)
100
AcDbVertex
100
AcDb2dVertex
 10
161.9438895625156
 20
82.08288732143381
 30
0.0
  0
VERTEX
  5
45F
330
45D
100
AcDbEntity
  8
Visible (ANSI)
100
AcDbVertex
100
AcDb2dVertex
 10
161.9403266417567
 20
82.07892313779522
 30
0.0
  0
VERTEX
  5
461
330
45D
100
AcDbEntity
  8
Visible (ANSI)
100
AcDbVertex
100
AcDb2dVertex
 10
161.9367843147736
 20
82.0745938639785
 30
0.0
  0
VERTEX
  5
462
330
45D
100
AcDbEntity
  8
Visible (ANSI)
100
AcDbVertex
100
AcDb2dVertex
 10
161.9332852056812
 20
82.06990639392138
 30
0.0
  0
VERTEX
  5
463
330
45D
100
AcDbEntity
  8
Visible (ANSI)
100
AcDbVertex
100
AcDb2dVertex
 10
161.9298517539949
 20
82.06487733791849
 30
0.0
  0
VERTEX
  5
464
330
45D
100
AcDbEntity
  8
Visible (ANSI)
100
AcDbVertex
100
AcDb2dVertex
 10
161.9265029369449
 20
82.05952989307712
 30
0.0
  0
VERTEX
  5
465
330
45D
100
AcDbEntity
  8
Visible (ANSI)
100
AcDbVertex
100
AcDb2dVertex
 10
161.9232616119889
 20
82.053884598606
 30
0.0
  0
VERTEX
  5
466
330
45D
100
AcDbEntity
  8
Visible (ANSI)
100
AcDbVertex
100
AcDb2dVertex
 10
161.9201459331768
 20
82.04795435491359
 30
0.0
  0
VERTEX
  5
467
330
45D
100
AcDbEntity
  8
Visible (ANSI)
100
AcDbVertex
100
AcDb2dVertex
 10
161.91717669807
 20
82.04176956074723
 30
0.0
  0
VERTEX
  5
468
330
45D
100
AcDbEntity
  8
Visible (ANSI)
100
AcDbVertex
100
AcDb2dVertex
 10
161.9143740799091
 20
82.03534552134073
 30
0.0
  0
VERTEX
  5
469
330
45D
100
AcDbEntity
  8
Visible (ANSI)
100
AcDbVertex
100
AcDb2dVertex
 10
161.9117543504473
 20
82.02870878715115
 30
0.0
  0
VERTEX
  5
46A
330
45D
100
AcDbEntity
  8
Visible (ANSI)
100
AcDbVertex
100
AcDb2dVertex
 10
161.9093361833107
 20
82.02188362250229
 30
0.0
  0
VERTEX
  5
46B
330
45D
100
AcDbEntity
  8
Visible (ANSI)
100
AcDbVertex
100
AcDb2dVertex
 10
161.9071373913502
 20
82.01489870736116
 30
0.0
  0
VERTEX
  5
46C
330
45D
100
AcDbEntity
  8
Visible (ANSI)
100
AcDbVertex
100
AcDb2dVertex
 10
161.9051716681432
 20
82.00777910751208
 30
0.0
  0
VERTEX
  5
46D
330
45D
100
AcDbEntity
  8
Visible (ANSI)
100
AcDbVertex
100
AcDb2dVertex
 10
161.9034548809828
 20
82.00054747121916
 30
0.0
  0
VERTEX
  5
46E
330
45D
100
AcDbEntity
  8
Visible (ANSI)
100
AcDbVertex
100
AcDb2dVertex
 10
161.9020018351939
 20
81.99323565786077
 30
0.0
  0
VERTEX
  5
46F
330
45D
100
AcDbEntity
  8
Visible (ANSI)
100
AcDbVertex
100
AcDb2dVertex
 10
161.9008230384504
 20
81.98586689858132
 30
0.0
  0
VERTEX
  5
470
330
45D
100
AcDbEntity
  8
Visible (ANSI)
100
AcDbVertex
100
AcDb2dVertex
 10
161.8999309813194
 20
81.97847663110897
 30
0.0
  0
VERTEX
  5
471
330
45D
100
AcDbEntity
  8
Visible (ANSI)
100
AcDbVertex
100
AcDb2dVertex
 10
161.8993369472092
 20
81.97108486402433
 30
0.0
  0
VERTEX
  5
472
330
45D
100
AcDbEntity
  8
Visible (ANSI)
100
AcDbVertex
100
AcDb2dVertex
 10
161.8990477517961
 20
81.96372252505261
 30
0.0
  0
VERTEX
  5
473
330
45D
100
AcDbEntity
  8
Visible (ANSI)
100
AcDbVertex
100
AcDb2dVertex
 10
161.899073156058
 20
81.95641734563247
 30
0.0
  0
VERTEX
  5
474
330
45D
100
AcDbEntity
  8
Visible (ANSI)
100
AcDbVertex
100
AcDb2dVertex
 10
161.8994173166033
 20
81.94919872223385
 30
0.0
  0
VERTEX
  5
475
330
45D
100
AcDbEntity
  8
Visible (ANSI)
100
AcDbVertex
100
AcDb2dVertex
 10
161.9000862235943
 20
81.94209343792037
 30
0.0
  0
VERTEX
  5
476
330
45D
100
AcDbEntity
  8
Visible (ANSI)
100
AcDbVertex
100
AcDb2dVertex
 10
161.9010844609157
 20
81.93512255460392
 30
0.0
  0
VERTEX
  5
477
330
45D
100
AcDbEntity
  8
Visible (ANSI)
100
AcDbVertex
100
AcDb2dVertex
 10
161.902412036864
 20
81.92832290256111
 30
0.0
  0
SEQEND
  5
460
330
45D
100
AcDbEntity
  8
Visible (ANSI)
  0
LINE
  5
478
330
6C
100
AcDbEntity
  8
Visible (ANSI)
100
AcDbLine
 10
161.9453332752011
 20
82.00707512636293
 30
0.0
 11
162.4852862992391
 21
82.31801339323759
 31
0.0
  0
LINE
  5
479
330
6C
100
AcDbEntity
  8
Visible (ANSI)
100
AcDbLine
 10
162.4852862992391
 20
82.39465843619157
 30
0.0
 11
161.9438899922237
 21
82.08288903792654
 31
0.0
  0
LINE
  5
47A
330
6C
100
AcDbEntity
  8
Visible (ANSI)
100
AcDbLine
 10
161.9438899922236
 20
82.01987337122057
 30
0.0
 11
161.9438899922237
 21
82.08288903792654
 31
0.0
  0
LINE
  5
47B
330
6C
100
AcDbEntity
  8
Visible (ANSI)
100
AcDbLine
 10
162.4852862992391
 20
82.31801339323759
 30
0.0
 11
162.4852862992391
 21
82.39465843619157
 31
0.0
  0
POLYLINE
  5
47C
330
6C
100
AcDbEntity
  8
Visible (ANSI)
100
AcDb2dPolyline
 66
     1
 10
0.0
 20
0.0
 30
0.0
 70
   128
  0
VERTEX
  5
47D
330
47C
100
AcDbEntity
  8
Visible (ANSI)
100
AcDbVertex
100
AcDb2dVertex
 10
161.9687032966046
 20
81.96649750015584
 30
0.0
  0
VERTEX
  5
47E
330
47C
100
AcDbEntity
  8
Visible (ANSI)
100
AcDbVertex
100
AcDb2dVertex
 10
161.9676387511929
 20
81.96772386804314
 30
0.0
  0
VERTEX
  5
480
330
47C
100
AcDbEntity
  8
Visible (ANSI)
100
AcDbVertex
100
AcDb2dVertex
 10
161.9665976963769
 20
81.96896989768841
 30
0.0
  0
VERTEX
  5
481
330
47C
100
AcDbEntity
  8
Visible (ANSI)
100
AcDbVertex
100
AcDb2dVertex
 10
161.965582173992
 20
81.97021958472898
 30
0.0
  0
VERTEX
  5
482
330
47C
100
AcDbEntity
  8
Visible (ANSI)
100
AcDbVertex
100
AcDb2dVertex
 10
161.9645899234948
 20
81.9714838962516
 30
0.0
  0
VERTEX
  5
483
330
47C
100
AcDbEntity
  8
Visible (ANSI)
100
AcDbVertex
100
AcDb2dVertex
 10
161.9636228779623
 20
81.97275658792445
 30
0.0
  0
VERTEX
  5
484
330
47C
100
AcDbEntity
  8
Visible (ANSI)
100
AcDbVertex
100
AcDb2dVertex
 10
161.9626797307734
 20
81.97403813040775
 30
0.0
  0
VERTEX
  5
485
330
47C
100
AcDbEntity
  8
Visible (ANSI)
100
AcDbVertex
100
AcDb2dVertex
 10
161.9617591220434
 20
81.97531914102846
 30
0.0
  0
VERTEX
  5
486
330
47C
100
AcDbEntity
  8
Visible (ANSI)
100
AcDbVertex
100
AcDb2dVertex
 10
161.9608628253378
 20
81.97660801758924
 30
0.0
  0
VERTEX
  5
487
330
47C
100
AcDbEntity
  8
Visible (ANSI)
100
AcDbVertex
100
AcDb2dVertex
 10
161.9599883142696
 20
81.9779008400968
 30
0.0
  0
VERTEX
  5
488
330
47C
100
AcDbEntity
  8
Visible (ANSI)
100
AcDbVertex
100
AcDb2dVertex
 10
161.9591372596365
 20
81.97919612451295
 30
0.0
  0
VERTEX
  5
489
330
47C
100
AcDbEntity
  8
Visible (ANSI)
100
AcDbVertex
100
AcDb2dVertex
 10
161.9583070345198
 20
81.98048989295205
 30
0.0
  0
VERTEX
  5
48A
330
47C
100
AcDbEntity
  8
Visible (ANSI)
100
AcDbVertex
100
AcDb2dVertex
 10
161.9574992108057
 20
81.98178060441662
 30
0.0
  0
VERTEX
  5
48B
330
47C
100
AcDbEntity
  8
Visible (ANSI)
100
AcDbVertex
100
AcDb2dVertex
 10
161.9567121270952
 20
81.98306361393353
 30
0.0
  0
VERTEX
  5
48C
330
47C
100
AcDbEntity
  8
Visible (ANSI)
100
AcDbVertex
100
AcDb2dVertex
 10
161.9559440758396
 20
81.98434898394474
 30
0.0
  0
VERTEX
  5
48D
330
47C
100
AcDbEntity
  8
Visible (ANSI)
100
AcDbVertex
100
AcDb2dVertex
 10
161.9551964906695
 20
81.98562527117605
 30
0.0
  0
VERTEX
  5
48E
330
47C
100
AcDbEntity
  8
Visible (ANSI)
100
AcDbVertex
100
AcDb2dVertex
 10
161.9544665135276
 20
81.98689327596822
 30
0.0
  0
VERTEX
  5
48F
330
47C
100
AcDbEntity
  8
Visible (ANSI)
100
AcDbVertex
100
AcDb2dVertex
 10
161.9537554936524
 20
81.98815132910954
 30
0.0
  0
VERTEX
  5
490
330
47C
100
AcDbEntity
  8
Visible (ANSI)
100
AcDbVertex
100
AcDb2dVertex
 10
161.9530615536735
 20
81.98939957258753
 30
0.0
  0
VERTEX
  5
491
330
47C
100
AcDbEntity
  8
Visible (ANSI)
100
AcDbVertex
100
AcDb2dVertex
 10
161.9523827783671
 20
81.9906381265914
 30
0.0
  0
VERTEX
  5
492
330
47C
100
AcDbEntity
  8
Visible (ANSI)
100
AcDbVertex
100
AcDb2dVertex
 10
161.9517204023745
 20
81.99186034458701
 30
0.0
  0
VERTEX
  5
493
330
47C
100
AcDbEntity
  8
Visible (ANSI)
100
AcDbVertex
100
AcDb2dVertex
 10
161.9510713782423
 20
81.99307182917934
 30
0.0
  0
VERTEX
  5
494
330
47C
100
AcDbEntity
  8
Visible (ANSI)
100
AcDbVertex
100
AcDb2dVertex
 10
161.9504368742386
 20
81.99426098428222
 30
0.0
  0
VERTEX
  5
495
330
47C
100
AcDbEntity
  8
Visible (ANSI)
100
AcDbVertex
100
AcDb2dVertex
 10
161.9498148426531
 20
81.99543767645156
 30
0.0
  0
VERTEX
  5
496
330
47C
100
AcDbEntity
  8
Visible (ANSI)
100
AcDbVertex
100
AcDb2dVertex
 10
161.9492032082928
 20
81.99659702242605
 30
0.0
  0
SEQEND
  5
47F
330
47C
100
AcDbEntity
  8
Visible (ANSI)
  0
LINE
  5
497
330
6C
100
AcDbEntity
  8
Visible (ANSI)
100
AcDbLine
 10
148.0280868899631
 20
90.09646708296866
 30
0.0
 11
148.5694831969785
 21
90.40823648123371
 31
0.0
  0
POLYLINE
  5
498
330
6C
100
AcDbEntity
  8
Visible (ANSI)
100
AcDb2dPolyline
 66
     1
 10
0.0
 20
0.0
 30
0.0
 70
   128
  0
VERTEX
  5
499
330
498
100
AcDbEntity
  8
Visible (ANSI)
100
AcDbVertex
100
AcDb2dVertex
 10
147.9149206307735
 20
41.10915278420647
 30
0.0
  0
VERTEX
  5
49A
330
498
100
AcDbEntity
  8
Visible (ANSI)
100
AcDbVertex
100
AcDb2dVertex
 10
147.9124321248609
 20
41.11149688791635
 30
0.0
  0
VERTEX
  5
49C
330
498
100
AcDbEntity
  8
Visible (ANSI)
100
AcDbVertex
100
AcDb2dVertex
 10
147.9100290741726
 20
41.11388708695154
 30
0.0
  0
VERTEX
  5
49D
330
498
100
AcDbEntity
  8
Visible (ANSI)
100
AcDbVertex
100
AcDb2dVertex
 10
147.9077140672553
 20
41.11632173774355
 30
0.0
  0
VERTEX
  5
49E
330
498
100
AcDbEntity
  8
Visible (ANSI)
100
AcDbVertex
100
AcDb2dVertex
 10
147.9054895682062
 20
41.11879917772408
 30
0.0
  0
VERTEX
  5
49F
330
498
100
AcDbEntity
  8
Visible (ANSI)
100
AcDbVertex
100
AcDb2dVertex
 10
147.9033579706012
 20
41.12131766060388
 30
0.0
  0
VERTEX
  5
4A0
330
498
100
AcDbEntity
  8
Visible (ANSI)
100
AcDbVertex
100
AcDb2dVertex
 10
147.9013215518635
 20
41.12387542579763
 30
0.0
  0
VERTEX
  5
4A1
330
498
100
AcDbEntity
  8
Visible (ANSI)
100
AcDbVertex
100
AcDb2dVertex
 10
147.8993824981536
 20
41.12647065060976
 30
0.0
  0
VERTEX
  5
4A2
330
498
100
AcDbEntity
  8
Visible (ANSI)
100
AcDbVertex
100
AcDb2dVertex
 10
147.897542879479
 20
41.1291014836785
 30
0.0
  0
VERTEX
  5
4A3
330
498
100
AcDbEntity
  8
Visible (ANSI)
100
AcDbVertex
100
AcDb2dVertex
 10
147.8958046662878
 20
41.13176602105023
 30
0.0
  0
VERTEX
  5
4A4
330
498
100
AcDbEntity
  8
Visible (ANSI)
100
AcDbVertex
100
AcDb2dVertex
 10
147.894169721172
 20
41.13446235410473
 30
0.0
  0
VERTEX
  5
4A5
330
498
100
AcDbEntity
  8
Visible (ANSI)
100
AcDbVertex
100
AcDb2dVertex
 10
147.8926397947194
 20
41.13718851438934
 30
0.0
  0
VERTEX
  5
4A6
330
498
100
AcDbEntity
  8
Visible (ANSI)
100
AcDbVertex
100
AcDb2dVertex
 10
147.8912165296614
 20
41.13994250004445
 30
0.0
  0
VERTEX
  5
4A7
330
498
100
AcDbEntity
  8
Visible (ANSI)
100
AcDbVertex
100
AcDb2dVertex
 10
147.8899014401317
 20
41.14272229248853
 30
0.0
  0
VERTEX
  5
4A8
330
498
100
AcDbEntity
  8
Visible (ANSI)
100
AcDbVertex
100
AcDb2dVertex
 10
147.8886959448531
 20
41.14552583730715
 30
0.0
  0
VERTEX
  5
4A9
330
498
100
AcDbEntity
  8
Visible (ANSI)
100
AcDbVertex
100
AcDb2dVertex
 10
147.8876013298023
 20
41.14835104660501
 30
0.0
  0
VERTEX
  5
4AA
330
498
100
AcDbEntity
  8
Visible (ANSI)
100
AcDbVertex
100
AcDb2dVertex
 10
147.8866187689514
 20
41.15119583976436
 30
0.0
  0
VERTEX
  5
4AB
330
498
100
AcDbEntity
  8
Visible (ANSI)
100
AcDbVertex
100
AcDb2dVertex
 10
147.8857493076752
 20
41.1540580858905
 30
0.0
  0
VERTEX
  5
4AC
330
498
100
AcDbEntity
  8
Visible (ANSI)
100
AcDbVertex
100
AcDb2dVertex
 10
147.884993883492
 20
41.15693563979258
 30
0.0
  0
VERTEX
  5
4AD
330
498
100
AcDbEntity
  8
Visible (ANSI)
100
AcDbVertex
100
AcDb2dVertex
 10
147.8843533073968
 20
41.1598263526965
 30
0.0
  0
VERTEX
  5
4AE
330
498
100
AcDbEntity
  8
Visible (ANSI)
100
AcDbVertex
100
AcDb2dVertex
 10
147.883828261787
 20
41.16272804955077
 30
0.0
  0
VERTEX
  5
4AF
330
498
100
AcDbEntity
  8
Visible (ANSI)
100
AcDbVertex
100
AcDb2dVertex
 10
147.8834193046105
 20
41.16563853615602
 30
0.0
  0
VERTEX
  5
4B0
330
498
100
AcDbEntity
  8
Visible (ANSI)
100
AcDbVertex
100
AcDb2dVertex
 10
147.8831268838849
 20
41.16855564350696
 30
0.0
  0
VERTEX
  5
4B1
330
498
100
AcDbEntity
  8
Visible (ANSI)
100
AcDbVertex
100
AcDb2dVertex
 10
147.8829513045112
 20
41.17147716068224
 30
0.0
  0
VERTEX
  5
4B2
330
498
100
AcDbEntity
  8
Visible (ANSI)
100
AcDbVertex
100
AcDb2dVertex
 10
147.8828927531634
 20
41.17440088276969
 30
0.0
  0
SEQEND
  5
49B
330
498
100
AcDbEntity
  8
Visible (ANSI)
  0
POLYLINE
  5
4B3
330
6C
100
AcDbEntity
  8
Visible (ANSI)
100
AcDb2dPolyline
 66
     1
 10
0.0
 20
0.0
 30
0.0
 70
   128
  0
VERTEX
  5
4B4
330
4B3
100
AcDbEntity
  8
Visible (ANSI)
100
AcDbVertex
100
AcDb2dVertex
 10
147.9149206297365
 20
90.0307953932131
 30
0.0
  0
VERTEX
  5
4B5
330
4B3
100
AcDbEntity
  8
Visible (ANSI)
100
AcDbVertex
100
AcDb2dVertex
 10
147.910029072844
 20
90.02951173908076
 30
0.0
  0
VERTEX
  5
4B7
330
4B3
100
AcDbEntity
  8
Visible (ANSI)
100
AcDbVertex
100
AcDb2dVertex
 10
147.9054895680118
 20
90.02805520440707
 30
0.0
  0
VERTEX
  5
4B8
330
4B3
100
AcDbEntity
  8
Visible (ANSI)
100
AcDbVertex
100
AcDb2dVertex
 10
147.9013215535489
 20
90.02642960638329
 30
0.0
  0
VERTEX
  5
4B9
330
4B3
100
AcDbEntity
  8
Visible (ANSI)
100
AcDbVertex
100
AcDb2dVertex
 10
147.8975428776642
 20
90.02465911059175
 30
0.0
  0
VERTEX
  5
4BA
330
4B3
100
AcDbEntity
  8
Visible (ANSI)
100
AcDbVertex
100
AcDb2dVertex
 10
147.8941697216907
 20
90.0227537901989
 30
0.0
  0
VERTEX
  5
4BB
330
4B3
100
AcDbEntity
  8
Visible (ANSI)
100
AcDbVertex
100
AcDb2dVertex
 10
147.8912165291429
 20
90.02072429569
 30
0.0
  0
VERTEX
  5
4BC
330
4B3
100
AcDbEntity
  8
Visible (ANSI)
100
AcDbVertex
100
AcDb2dVertex
 10
147.8886959458903
 20
90.01859652208432
 30
0.0
  0
VERTEX
  5
4BD
330
4B3
100
AcDbEntity
  8
Visible (ANSI)
100
AcDbVertex
100
AcDb2dVertex
 10
147.8866187658403
 20
90.01637716086829
 30
0.0
  0
VERTEX
  5
4BE
330
4B3
100
AcDbEntity
  8
Visible (ANSI)
100
AcDbVertex
100
AcDb2dVertex
 10
147.8849938866033
 20
90.01409292180964
 30
0.0
  0
VERTEX
  5
4BF
330
4B3
100
AcDbEntity
  8
Visible (ANSI)
100
AcDbVertex
100
AcDb2dVertex
 10
147.8838282607501
 20
90.01175607660428
 30
0.0
  0
VERTEX
  5
4C0
330
4B3
100
AcDbEntity
  8
Visible (ANSI)
100
AcDbVertex
100
AcDb2dVertex
 10
147.8831268818109
 20
90.00937912209762
 30
0.0
  0
VERTEX
  5
4C1
330
4B3
100
AcDbEntity
  8
Visible (ANSI)
100
AcDbVertex
100
AcDb2dVertex
 10
147.8828927531636
 20
90.00698944380447
 30
0.0
  0
VERTEX
  5
4C2
330
4B3
100
AcDbEntity
  8
Visible (ANSI)
100
AcDbVertex
100
AcDb2dVertex
 10
147.883126883885
 20
90.00459485537531
 30
0.0
  0
VERTEX
  5
4C3
330
4B3
100
AcDbEntity
  8
Visible (ANSI)
100
AcDbVertex
100
AcDb2dVertex
 10
147.8838282617871
 20
90.00222281399066
 30
0.0
  0
VERTEX
  5
4C4
330
4B3
100
AcDbEntity
  8
Visible (ANSI)
100
AcDbVertex
100
AcDb2dVertex
 10
147.8849938834921
 20
89.99988596639648
 30
0.0
  0
VERTEX
  5
4C5
330
4B3
100
AcDbEntity
  8
Visible (ANSI)
100
AcDbVertex
100
AcDb2dVertex
 10
147.8866187689516
 20
89.99759681720188
 30
0.0
  0
VERTEX
  5
4C6
330
4B3
100
AcDbEntity
  8
Visible (ANSI)
100
AcDbVertex
100
AcDb2dVertex
 10
147.8886959448532
 20
89.99538236731622
 30
0.0
  0
VERTEX
  5
4C7
330
4B3
100
AcDbEntity
  8
Visible (ANSI)
100
AcDbVertex
100
AcDb2dVertex
 10
147.8912165296615
 20
89.99324968088712
 30
0.0
  0
VERTEX
  5
4C8
330
4B3
100
AcDbEntity
  8
Visible (ANSI)
100
AcDbVertex
100
AcDb2dVertex
 10
147.8941697211722
 20
89.99122509711138
 30
0.0
  0
VERTEX
  5
4C9
330
4B3
100
AcDbEntity
  8
Visible (ANSI)
100
AcDbVertex
100
AcDb2dVertex
 10
147.8975428794791
 20
89.98931486792631
 30
0.0
  0
VERTEX
  5
4CA
330
4B3
100
AcDbEntity
  8
Visible (ANSI)
100
AcDbVertex
100
AcDb2dVertex
 10
147.9013215518637
 20
89.98754437220943
 30
0.0
  0
VERTEX
  5
4CB
330
4B3
100
AcDbEntity
  8
Visible (ANSI)
100
AcDbVertex
100
AcDb2dVertex
 10
147.9054895682063
 20
89.98592368629987
 30
0.0
  0
VERTEX
  5
4CC
330
4B3
100
AcDbEntity
  8
Visible (ANSI)
100
AcDbVertex
100
AcDb2dVertex
 10
147.9100290741728
 20
89.98446223676852
 30
0.0
  0
VERTEX
  5
4CD
330
4B3
100
AcDbEntity
  8
Visible (ANSI)
100
AcDbVertex
100
AcDb2dVertex
 10
147.9149206307736
 20
89.98318349618743
 30
0.0
  0
SEQEND
  5
4B6
330
4B3
100
AcDbEntity
  8
Visible (ANSI)
  0
LINE
  5
4CE
330
6C
100
AcDbEntity
  8
Visible (ANSI)
100
AcDbLine
 10
148.3610148291938
 20
41.42018834884598
 30
0.0
 11
148.5226081969784
 21
41.51324378048637
 31
0.0
  0
LINE
  5
4CF
330
6C
100
AcDbEntity
  8
Visible (ANSI)
100
AcDbLine
 10
147.968481764374
 20
90.06163773219183
 30
0.0
 11
147.9149206292269
 21
90.03079392579929
 31
0.0
  0
LINE
  5
4D0
330
6C
100
AcDbEntity
  8
Visible (ANSI)
100
AcDbLine
 10
147.9328207365493
 20
90.02048593954878
 30
0.0
 11
147.9149206292269
 21
90.03079392579929
 31
0.0
  0
POLYLINE
  5
4D1
330
6C
100
AcDbEntity
  8
Visible (ANSI)
100
AcDb2dPolyline
 66
     1
 10
0.0
 20
0.0
 30
0.0
 70
   128
  0
VERTEX
  5
4D2
330
4D1
100
AcDbEntity
  8
Visible (ANSI)
100
AcDbVertex
100
AcDb2dVertex
 10
161.9024120368639
 20
33.05429219058016
 30
0.0
  0
VERTEX
  5
4D3
330
4D1
100
AcDbEntity
  8
Visible (ANSI)
100
AcDbVertex
100
AcDb2dVertex
 10
161.9010844609155
 20
33.04940040150463
 30
0.0
  0
VERTEX
  5
4D5
330
4D1
100
AcDbEntity
  8
Visible (ANSI)
100
AcDbVertex
100
AcDb2dVertex
 10
161.9000862235941
 20
33.04472452050195
 30
0.0
  0
VERTEX
  5
4D6
330
4D1
100
AcDbEntity
  8
Visible (ANSI)
100
AcDbVertex
100
AcDb2dVertex
 10
161.8994173166031
 20
33.04028703695749
 30
0.0
  0
VERTEX
  5
4D7
330
4D1
100
AcDbEntity
  8
Visible (ANSI)
100
AcDbVertex
100
AcDb2dVertex
 10
161.8990731560579
 20
33.03611124920801
 30
0.0
  0
VERTEX
  5
4D8
330
4D1
100
AcDbEntity
  8
Visible (ANSI)
100
AcDbVertex
100
AcDb2dVertex
 10
161.899047751796
 20
33.03221932442196
 30
0.0
  0
VERTEX
  5
4D9
330
4D1
100
AcDbEntity
  8
Visible (ANSI)
100
AcDbVertex
100
AcDb2dVertex
 10
161.8993369472091
 20
33.02863039429414
 30
0.0
  0
VERTEX
  5
4DA
330
4D1
100
AcDbEntity
  8
Visible (ANSI)
100
AcDbVertex
100
AcDb2dVertex
 10
161.8999309813194
 20
33.02536472796622
 30
0.0
  0
VERTEX
  5
4DB
330
4D1
100
AcDbEntity
  8
Visible (ANSI)
100
AcDbVertex
100
AcDb2dVertex
 10
161.9008230384503
 20
33.0224387795808
 30
0.0
  0
VERTEX
  5
4DC
330
4D1
100
AcDbEntity
  8
Visible (ANSI)
100
AcDbVertex
100
AcDb2dVertex
 10
161.9020018351938
 20
33.01986936114641
 30
0.0
  0
VERTEX
  5
4DD
330
4D1
100
AcDbEntity
  8
Visible (ANSI)
100
AcDbVertex
100
AcDb2dVertex
 10
161.9034548809827
 20
33.0176717789537
 30
0.0
  0
VERTEX
  5
4DE
330
4D1
100
AcDbEntity
  8
Visible (ANSI)
100
AcDbVertex
100
AcDb2dVertex
 10
161.9051716681431
 20
33.01585789820577
 30
0.0
  0
VERTEX
  5
4DF
330
4D1
100
AcDbEntity
  8
Visible (ANSI)
100
AcDbVertex
100
AcDb2dVertex
 10
161.90713739135
 20
33.01443977852058
 30
0.0
  0
VERTEX
  5
4E0
330
4D1
100
AcDbEntity
  8
Visible (ANSI)
100
AcDbVertex
100
AcDb2dVertex
 10
161.9093361833105
 20
33.01342779361598
 30
0.0
  0
VERTEX
  5
4E1
330
4D1
100
AcDbEntity
  8
Visible (ANSI)
100
AcDbVertex
100
AcDb2dVertex
 10
161.9117543504472
 20
33.01282873300889
 30
0.0
  0
VERTEX
  5
4E2
330
4D1
100
AcDbEntity
  8
Visible (ANSI)
100
AcDbVertex
100
AcDb2dVertex
 10
161.9143740799089
 20
33.01264945673034
 30
0.0
  0
VERTEX
  5
4E3
330
4D1
100
AcDbEntity
  8
Visible (ANSI)
100
AcDbVertex
100
AcDb2dVertex
 10
161.9171766980698
 20
33.01289502335301
 30
0.0
  0
VERTEX
  5
4E4
330
4D1
100
AcDbEntity
  8
Visible (ANSI)
100
AcDbVertex
100
AcDb2dVertex
 10
161.9201459331767
 20
33.01356684678675
 30
0.0
  0
VERTEX
  5
4E5
330
4D1
100
AcDbEntity
  8
Visible (ANSI)
100
AcDbVertex
100
AcDb2dVertex
 10
161.9232616119888
 20
33.01466634202391
 30
0.0
  0
VERTEX
  5
4E6
330
4D1
100
AcDbEntity
  8
Visible (ANSI)
100
AcDbVertex
100
AcDb2dVertex
 10
161.9265029369448
 20
33.01619309389305
 30
0.0
  0
VERTEX
  5
4E7
330
4D1
100
AcDbEntity
  8
Visible (ANSI)
100
AcDbVertex
100
AcDb2dVertex
 10
161.9298517539947
 20
33.01814302613323
 30
0.0
  0
VERTEX
  5
4E8
330
4D1
100
AcDbEntity
  8
Visible (ANSI)
100
AcDbVertex
100
AcDb2dVertex
 10
161.9332852056811
 20
33.02051269461646
 30
0.0
  0
VERTEX
  5
4E9
330
4D1
100
AcDbEntity
  8
Visible (ANSI)
100
AcDbVertex
100
AcDb2dVertex
 10
161.9367843147735
 20
33.02329441313942
 30
0.0
  0
VERTEX
  5
4EA
330
4D1
100
AcDbEntity
  8
Visible (ANSI)
100
AcDbVertex
100
AcDb2dVertex
 10
161.9403266417566
 20
33.02648056331032
 30
0.0
  0
VERTEX
  5
4EB
330
4D1
100
AcDbEntity
  8
Visible (ANSI)
100
AcDbVertex
100
AcDb2dVertex
 10
161.9438895625154
 20
33.03006179541374
 30
0.0
  0
SEQEND
  5
4D4
330
4D1
100
AcDbEntity
  8
Visible (ANSI)
  0
POLYLINE
  5
4EC
330
6C
100
AcDbEntity
  8
Visible (ANSI)
100
AcDb2dPolyline
 66
     1
 10
0.0
 20
0.0
 30
0.0
 70
   128
  0
VERTEX
  5
4ED
330
4EC
100
AcDbEntity
  8
Visible (ANSI)
100
AcDbVertex
100
AcDb2dVertex
 10
147.9556397713843
 20
41.04857269436667
 30
0.0
  0
VERTEX
  5
4EE
330
4EC
100
AcDbEntity
  8
Visible (ANSI)
100
AcDbVertex
100
AcDb2dVertex
 10
147.9531237621641
 20
41.05008946333697
 30
0.0
  0
VERTEX
  5
4F0
330
4EC
100
AcDbEntity
  8
Visible (ANSI)
100
AcDbVertex
100
AcDb2dVertex
 10
147.9506683680768
 20
41.05170703828114
 30
0.0
  0
VERTEX
  5
4F1
330
4EC
100
AcDbEntity
  8
Visible (ANSI)
100
AcDbVertex
100
AcDb2dVertex
 10
147.9482754434178
 20
41.05342413934074
 30
0.0
  0
VERTEX
  5
4F2
330
4EC
100
AcDbEntity
  8
Visible (ANSI)
100
AcDbVertex
100
AcDb2dVertex
 10
147.9459467512196
 20
41.05523938363113
 30
0.0
  0
VERTEX
  5
4F3
330
4EC
100
AcDbEntity
  8
Visible (ANSI)
100
AcDbVertex
100
AcDb2dVertex
 10
147.9436839756969
 20
41.05715128532479
 30
0.0
  0
VERTEX
  5
4F4
330
4EC
100
AcDbEntity
  8
Visible (ANSI)
100
AcDbVertex
100
AcDb2dVertex
 10
147.9414887720262
 20
41.05915824366078
 30
0.0
  0
VERTEX
  5
4F5
330
4EC
100
AcDbEntity
  8
Visible (ANSI)
100
AcDbVertex
100
AcDb2dVertex
 10
147.9393626750827
 20
41.0612585692684
 30
0.0
  0
VERTEX
  5
4F6
330
4EC
100
AcDbEntity
  8
Visible (ANSI)
100
AcDbVertex
100
AcDb2dVertex
 10
147.9373071865554
 20
41.06345046028789
 30
0.0
  0
VERTEX
  5
4F7
330
4EC
100
AcDbEntity
  8
Visible (ANSI)
100
AcDbVertex
100
AcDb2dVertex
 10
147.9353236961288
 20
41.06573203342562
 30
0.0
  0
VERTEX
  5
4F8
330
4EC
100
AcDbEntity
  8
Visible (ANSI)
100
AcDbVertex
100
AcDb2dVertex
 10
147.9334135478559
 20
41.06810128093608
 30
0.0
  0
VERTEX
  5
4F9
330
4EC
100
AcDbEntity
  8
Visible (ANSI)
100
AcDbVertex
100
AcDb2dVertex
 10
147.9315779820819
 20
41.07055612085269
 30
0.0
  0
VERTEX
  5
4FA
330
4EC
100
AcDbEntity
  8
Visible (ANSI)
100
AcDbVertex
100
AcDb2dVertex
 10
147.9298181644826
 20
41.07309438983973
 30
0.0
  0
VERTEX
  5
4FB
330
4EC
100
AcDbEntity
  8
Visible (ANSI)
100
AcDbVertex
100
AcDb2dVertex
 10
147.9281351943605
 20
41.07571380491514
 30
0.0
  0
VERTEX
  5
4FC
330
4EC
100
AcDbEntity
  8
Visible (ANSI)
100
AcDbVertex
100
AcDb2dVertex
 10
147.9265300631621
 20
41.07841202083855
 30
0.0
  0
VERTEX
  5
4FD
330
4EC
100
AcDbEntity
  8
Visible (ANSI)
100
AcDbVertex
100
AcDb2dVertex
 10
147.9250037125543
 20
41.08118658711192
 30
0.0
  0
VERTEX
  5
4FE
330
4EC
100
AcDbEntity
  8
Visible (ANSI)
100
AcDbVertex
100
AcDb2dVertex
 10
147.9235569597545
 20
41.08403499581212
 30
0.0
  0
VERTEX
  5
4FF
330
4EC
100
AcDbEntity
  8
Visible (ANSI)
100
AcDbVertex
100
AcDb2dVertex
 10
147.9221905722003
 20
41.08695463375839
 30
0.0
  0
VERTEX
  5
500
330
4EC
100
AcDbEntity
  8
Visible (ANSI)
100
AcDbVertex
100
AcDb2dVertex
 10
147.9209052053252
 20
41.08994282315981
 30
0.0
  0
VERTEX
  5
501
330
4EC
100
AcDbEntity
  8
Visible (ANSI)
100
AcDbVertex
100
AcDb2dVertex
 10
147.919701431596
 20
41.09299682405969
 30
0.0
  0
VERTEX
  5
502
330
4EC
100
AcDbEntity
  8
Visible (ANSI)
100
AcDbVertex
100
AcDb2dVertex
 10
147.9185797571069
 20
41.09611380563237
 30
0.0
  0
VERTEX
  5
503
330
4EC
100
AcDbEntity
  8
Visible (ANSI)
100
AcDbVertex
100
AcDb2dVertex
 10
147.9175405635025
 20
41.09929087962711
 30
0.0
  0
VERTEX
  5
504
330
4EC
100
AcDbEntity
  8
Visible (ANSI)
100
AcDbVertex
100
AcDb2dVertex
 10
147.9165841826478
 20
41.10252508131283
 30
0.0
  0
VERTEX
  5
505
330
4EC
100
AcDbEntity
  8
Visible (ANSI)
100
AcDbVertex
100
AcDb2dVertex
 10
147.9157108219584
 20
41.10581341251447
 30
0.0
  0
VERTEX
  5
506
330
4EC
100
AcDbEntity
  8
Visible (ANSI)
100
AcDbVertex
100
AcDb2dVertex
 10
147.9149206307735
 20
41.10915278420647
 30
0.0
  0
SEQEND
  5
4EF
330
4EC
100
AcDbEntity
  8
Visible (ANSI)
  0
LINE
  5
507
330
6C
100
AcDbEntity
  8
Visible (ANSI)
100
AcDbLine
 10
148.4081451792096
 20
41.33914564828962
 30
0.0
 11
148.5694831969784
 21
41.43205403363558
 31
0.0
  0
LINE
  5
508
330
6C
100
AcDbEntity
  8
Visible (ANSI)
100
AcDbLine
 10
161.9438899922235
 20
33.0512379023875
 30
0.0
 11
161.9438899922235
 21
33.03006154737431
 31
0.0
  0
LINE
  5
509
330
6C
100
AcDbEntity
  8
Visible (ANSI)
100
AcDbLine
 10
161.9438899922235
 20
33.03006154737431
 30
0.0
 11
162.0009391205776
 21
33.06291395546806
 31
0.0
  0
LINE
  5
50A
330
6C
100
AcDbEntity
  8
Visible (ANSI)
100
AcDbLine
 10
162.0555098603745
 20
33.09433915451151
 30
0.0
 11
162.4852862992389
 21
33.34183094563946
 31
0.0
  0
LINE
  5
50B
330
6C
100
AcDbEntity
  8
Visible (ANSI)
100
AcDbLine
 10
162.4852862992389
 20
33.34233598740708
 30
0.0
 11
162.4852862992389
 21
33.34183094563946
 31
0.0
  0
POLYLINE
  5
50C
330
6C
100
AcDbEntity
  8
Visible (ANSI)
100
AcDb2dPolyline
 66
     1
 10
0.0
 20
0.0
 30
0.0
 70
   128
  0
VERTEX
  5
50D
330
50C
100
AcDbEntity
  8
Visible (ANSI)
100
AcDbVertex
100
AcDb2dVertex
 10
161.9850460840173
 20
81.93451269109276
 30
0.0
  0
VERTEX
  5
50E
330
50C
100
AcDbEntity
  8
Visible (ANSI)
100
AcDbVertex
100
AcDb2dVertex
 10
161.9886576675855
 20
81.92962558564165
 30
0.0
  0
VERTEX
  5
510
330
50C
100
AcDbEntity
  8
Visible (ANSI)
100
AcDbVertex
100
AcDb2dVertex
 10
161.9929288275543
 20
81.92523694501979
 30
0.0
  0
VERTEX
  5
511
330
50C
100
AcDbEntity
  8
Visible (ANSI)
100
AcDbVertex
100
AcDb2dVertex
 10
161.9976754903629
 20
81.92141442859162
 30
0.0
  0
VERTEX
  5
512
330
50C
100
AcDbEntity
  8
Visible (ANSI)
100
AcDbVertex
100
AcDb2dVertex
 10
162.0026418711018
 20
81.91821627615588
 30
0.0
  0
SEQEND
  5
50F
330
50C
100
AcDbEntity
  8
Visible (ANSI)
  0
POLYLINE
  5
513
330
6C
100
AcDbEntity
  8
Visible (ANSI)
100
AcDb2dPolyline
 66
     1
 10
0.0
 20
0.0
 30
0.0
 70
   128
  0
VERTEX
  5
514
330
513
100
AcDbEntity
  8
Visible (ANSI)
100
AcDbVertex
100
AcDb2dVertex
 10
161.9438895625156
 20
82.01987495285326
 30
0.0
  0
VERTEX
  5
515
330
513
100
AcDbEntity
  8
Visible (ANSI)
100
AcDbVertex
100
AcDb2dVertex
 10
161.9441838074613
 20
82.01399251641753
 30
0.0
  0
VERTEX
  5
517
330
513
100
AcDbEntity
  8
Visible (ANSI)
100
AcDbVertex
100
AcDb2dVertex
 10
161.9451208582198
 20
82.00801242879514
 30
0.0
  0
VERTEX
  5
518
330
513
100
AcDbEntity
  8
Visible (ANSI)
100
AcDbVertex
100
AcDb2dVertex
 10
161.9467863820979
 20
82.00213262342636
 30
0.0
  0
VERTEX
  5
519
330
513
100
AcDbEntity
  8
Visible (ANSI)
100
AcDbVertex
100
AcDb2dVertex
 10
161.9492032082928
 20
81.99659702242605
 30
0.0
  0
SEQEND
  5
516
330
513
100
AcDbEntity
  8
Visible (ANSI)
  0
LINE
  5
51A
330
6C
100
AcDbEntity
  8
Visible (ANSI)
100
AcDbLine
 10
162.5984525599753
 20
82.19864904821887
 30
0.0
 11
162.5984525599752
 21
33.40750410280884
 31
0.0
  0
LINE
  5
51B
330
6C
100
AcDbEntity
  8
Visible (ANSI)
100
AcDbLine
 10
148.5694831969785
 20
90.40823648123371
 30
0.0
 11
162.4852862992391
 21
82.39465843619157
 31
0.0
  0
LINE
  5
51C
330
6C
100
AcDbEntity
  8
Visible (ANSI)
100
AcDbLine
 10
148.5226081969784
 20
41.51324378048637
 30
0.0
 11
148.5226081969784
 21
41.60216543437137
 31
0.0
  0
LINE
  5
51D
330
6C
100
AcDbEntity
  8
Visible (ANSI)
100
AcDbLine
 10
148.5226081969784
 20
65.04243343474778
 30
0.0
 11
148.5226081969784
 21
65.41322544541026
 31
0.0
  0
LINE
  5
51E
330
6C
100
AcDbEntity
  8
Visible (ANSI)
100
AcDbLine
 10
148.5226081969785
 20
88.85349344578667
 30
0.0
 11
148.5226081969785
 21
89.22428545644914
 31
0.0
  0
LINE
  5
51F
330
6C
100
AcDbEntity
  8
Visible (ANSI)
100
AcDbLine
 10
161.5495296904453
 20
33.95734238104141
 30
0.0
 11
161.2282678165217
 21
34.14234479022074
 31
0.0
  0
LINE
  5
520
330
6C
100
AcDbEntity
  8
Visible (ANSI)
100
AcDbLine
 10
148.6448309337889
 20
41.38866415775048
 30
0.0
 11
148.5694831969784
 21
41.43205403363558
 31
0.0
  0
SPLINE
  5
521
330
6C
100
AcDbEntity
  8
Visible (ANSI)
100
AcDbSpline
210
0.0
220
0.0
230
1.0
 70
     8
 71
     3
 72
    11
 73
     7
 74
     0
 42
0.0000000001
 43
0.0000000001
 40
0.0
 40
0.0
 40
0.0
 40
0.0
 40
1.084645898258978
 40
1.084645898258978
 40
1.084645898258978
 40
1.5707963267949
 40
1.5707963267949
 40
1.5707963267949
 40
1.5707963267949
 10
60.44936236185077
 20
114.4053876181288
 30
0.0
 10
60.48889770484231
 20
114.4053876181288
 30
0.0
 10
60.52757092232329
 20
114.428691776194
 30
0.0
 10
60.54604285481882
 20
114.4636464762405
 30
0.0
 10
60.55432218165996
 20
114.4793135639363
 30
0.0
 10
60.55871236185078
 20
114.4970174350087
 30
0.0
 10
60.55871236185078
 20
114.5147376181288
 30
0.0
  0
LINE
  5
522
330
6C
100
AcDbEntity
  8
Visible (ANSI)
100
AcDbLine
 10
60.46496236185078
 20
114.5147376181288
 30
0.0
 11
60.46496236185079
 21
115.2803876181288
 31
0.0
  0
LINE
  5
523
330
6C
100
AcDbEntity
  8
Visible (ANSI)
100
AcDbLine
 10
60.46496236185078
 20
114.5147376181288
 30
0.0
 11
60.55871236185078
 21
114.5147376181288
 31
0.0
  0
SPLINE
  5
524
330
6C
100
AcDbEntity
  8
Visible (ANSI)
100
AcDbSpline
210
0.0
220
0.0
230
1.0
 70
     8
 71
     3
 72
     8
 73
     4
 74
     0
 42
0.0000000001
 43
0.0000000001
 40
0.0
 40
0.0
 40
0.0
 40
0.0
 40
1.5707963267949
 40
1.5707963267949
 40
1.5707963267949
 40
1.5707963267949
 10
60.44936236185077
 20
114.4991376181288
 30
0.0
 10
60.45753050275012
 20
114.4991376181288
 30
0.0
 10
60.46496236185078
 20
114.5065694772295
 30
0.0
 10
60.46496236185078
 20
114.5147376181288
 30
0.0
  0
LINE
  5
525
330
6C
100
AcDbEntity
  8
Visible (ANSI)
100
AcDbLine
 10
60.44936236185077
 20
114.4991376181288
 30
0.0
 11
60.44936236185077
 21
114.4824665592579
 31
0.0
  0
LINE
  5
526
330
6C
100
AcDbEntity
  8
Visible (ANSI)
100
AcDbLine
 10
60.44936236185077
 20
114.4824665592579
 30
0.0
 11
60.44936236185077
 21
114.4053876181288
 31
0.0
  0
LINE
  5
527
330
6C
100
AcDbEntity
  8
Visible (ANSI)
100
AcDbLine
 10
60.55871236185078
 20
114.5147376181288
 30
0.0
 11
60.5587123618508
 21
115.2803876181288
 31
0.0
  0
LINE
  5
528
330
6C
100
AcDbEntity
  8
Visible (ANSI)
100
AcDbLine
 10
60.46496236185079
 20
115.2803876181288
 30
0.0
 11
60.5587123618508
 21
115.2803876181288
 31
0.0
  0
SPLINE
  5
529
330
6C
100
AcDbEntity
  8
Visible (ANSI)
100
AcDbSpline
210
0.0
220
0.0
230
1.0
 70
     8
 71
     3
 72
    11
 73
     7
 74
     0
 42
0.0000000001
 43
0.0000000001
 40
0.0
 40
0.0
 40
0.0
 40
0.0
 40
1.084645898259629
 40
1.084645898259629
 40
1.084645898259629
 40
1.570796326794961
 40
1.570796326794961
 40
1.570796326794961
 40
1.570796326794961
 10
40.66806236185078
 20
114.4053876181288
 30
0.0
 10
40.67972991906306
 20
114.4053876181289
 30
0.0
 10
40.69139747627534
 20
114.4286917761941
 30
0.0
 10
40.70306503348763
 20
114.4636464762406
 30
0.0
 10
40.70829456318743
 20
114.4793135639364
 30
0.0
 10
40.71352409288722
 20
114.4970174350088
 30
0.0
 10
40.71875362258702
 20
114.5147376181289
 30
0.0
  0
SPLINE
  5
52A
330
6C
100
AcDbEntity
  8
Visible (ANSI)
100
AcDbSpline
210
0.0
220
0.0
230
1.0
 70
     8
 71
     3
 72
    11
 73
     7
 74
     0
 42
0.0000000001
 43
0.0000000001
 40
0.0
 40
0.0
 40
0.0
 40
0.0
 40
1.084645898259008
 40
1.084645898259008
 40
1.084645898259008
 40
1.570796326794961
 40
1.570796326794961
 40
1.570796326794961
 40
1.570796326794961
 10
60.39867110111454
 20
114.5147376181289
 30
0.0
 10
60.41033865832681
 20
114.4752022751374
 30
0.0
 10
60.42200621553909
 20
114.4365290576564
 30
0.0
 10
60.43367377275137
 20
114.4180571251608
 30
0.0
 10
60.43890330245117
 20
114.4097777983197
 30
0.0
 10
60.44413283215098
 20
114.4053876181289
 30
0.0
 10
60.44936236185077
 20
114.4053876181288
 30
0.0
  0
LINE
  5
52B
330
6C
100
AcDbEntity
  8
Visible (ANSI)
100
AcDbLine
 10
60.39867110111455
 20
115.2803876181289
 30
0.0
 11
60.39867110111454
 21
114.5147376181289
 31
0.0
  0
SPLINE
  5
52C
330
6C
100
AcDbEntity
  8
Visible (ANSI)
100
AcDbSpline
210
0.0
220
0.0
230
1.0
 70
     8
 71
     3
 72
     8
 73
     4
 74
     0
 42
0.0000000001
 43
0.0000000001
 40
0.0
 40
0.0
 40
0.0
 40
0.0
 40
1.570796326794961
 40
1.570796326794961
 40
1.570796326794961
 40
1.570796326794961
 10
60.44936236185077
 20
114.4991376181288
 30
0.0
 10
60.4324652749387
 20
114.4991376181288
 30
0.0
 10
60.41556818802662
 20
114.5065694772295
 30
0.0
 10
60.39867110111454
 20
114.5147376181288
 30
0.0
  0
SPLINE
  5
52D
330
6C
100
AcDbEntity
  8
Visible (ANSI)
100
AcDbSpline
210
0.0
220
0.0
230
1.0
 70
     8
 71
     3
 72
     8
 73
     4
 74
     0
 42
0.0000000001
 43
0.0000000001
 40
0.0
 40
0.0
 40
0.0
 40
0.0
 40
1.570796326794961
 40
1.570796326794961
 40
1.570796326794961
 40
1.570796326794961
 10
40.66806236185078
 20
114.4991376181288
 30
0.0
 10
40.68495944876286
 20
114.4991376181288
 30
0.0
 10
40.70185653567494
 20
114.5065694772295
 30
0.0
 10
40.71875362258702
 20
114.5147376181288
 30
0.0
  0
LINE
  5
52E
330
6C
100
AcDbEntity
  8
Visible (ANSI)
100
AcDbLine
 10
40.66806236185078
 20
114.4991376181288
 30
0.0
 11
40.66806236185078
 21
114.4824665592579
 31
0.0
  0
LINE
  5
52F
330
6C
100
AcDbEntity
  8
Visible (ANSI)
100
AcDbLine
 10
40.66806236185078
 20
114.4824665592579
 30
0.0
 11
40.66806236185078
 21
114.4053876181288
 31
0.0
  0
LINE
  5
530
330
6C
100
AcDbEntity
  8
Visible (ANSI)
100
AcDbLine
 10
40.71875362258702
 20
114.5147376181289
 30
0.0
 11
40.71875362258702
 21
115.2803876181289
 31
0.0
  0
SPLINE
  5
531
330
6C
100
AcDbEntity
  8
Visible (ANSI)
100
AcDbSpline
210
0.0
220
0.0
230
1.0
 70
     8
 71
     3
 72
    11
 73
     7
 74
     0
 42
0.0000000001
 43
0.0000000001
 40
0.0
 40
0.0
 40
0.0
 40
0.0
 40
1.084645898258922
 40
1.084645898258922
 40
1.084645898258922
 40
1.570796326794871
 40
1.570796326794871
 40
1.570796326794871
 40
1.570796326794871
 10
40.55871236185078
 20
114.5147376181288
 30
0.0
 10
40.55871236185078
 20
114.4752022751373
 30
0.0
 10
40.58201651991594
 20
114.4365290576563
 30
0.0
 10
40.61697121996242
 20
114.4180571251608
 30
0.0
 10
40.63263830765825
 20
114.4097777983197
 30
0.0
 10
40.65034217873065
 20
114.4053876181288
 30
0.0
 10
40.66806236185078
 20
114.4053876181288
 30
0.0
  0
LINE
  5
532
330
6C
100
AcDbEntity
  8
Visible (ANSI)
100
AcDbLine
 10
40.65246236185077
 20
114.5147376181288
 30
0.0
 11
40.65246236185077
 21
115.2803876181288
 31
0.0
  0
LINE
  5
533
330
6C
100
AcDbEntity
  8
Visible (ANSI)
100
AcDbLine
 10
40.55871236185078
 20
115.2803876181288
 30
0.0
 11
40.55871236185078
 21
114.5147376181288
 31
0.0
  0
LINE
  5
534
330
6C
100
AcDbEntity
  8
Visible (ANSI)
100
AcDbLine
 10
40.65246236185077
 20
114.5147376181288
 30
0.0
 11
40.55871236185078
 21
114.5147376181288
 31
0.0
  0
LINE
  5
535
330
6C
100
AcDbEntity
  8
Visible (ANSI)
100
AcDbLine
 10
40.65246236185077
 20
115.2803876181288
 30
0.0
 11
40.55871236185078
 21
115.2803876181288
 31
0.0
  0
SPLINE
  5
536
330
6C
100
AcDbEntity
  8
Visible (ANSI)
100
AcDbSpline
210
0.0
220
0.0
230
1.0
 70
     8
 71
     3
 72
     8
 73
     4
 74
     0
 42
0.0000000001
 43
0.0000000001
 40
0.0
 40
0.0
 40
0.0
 40
0.0
 40
1.570796326794871
 40
1.570796326794871
 40
1.570796326794871
 40
1.570796326794871
 10
40.66806236185078
 20
114.4991376181288
 30
0.0
 10
40.65989422095145
 20
114.4991376181288
 30
0.0
 10
40.65246236185077
 20
114.5065694772295
 30
0.0
 10
40.65246236185077
 20
114.5147376181288
 30
0.0
  0
LINE
  5
537
330
6C
100
AcDbEntity
  8
Visible (ANSI)
100
AcDbLine
 10
60.44936236185077
 20
114.4053876181288
 30
0.0
 11
40.66806236185078
 21
114.4053876181288
 31
0.0
  0
LINE
  5
538
330
6C
100
AcDbEntity
  8
Hidden (ANSI)
 48
1.139292001724243
100
AcDbLine
 10
40.66806236185078
 20
114.4991376181288
 30
0.0
 11
60.44936236185077
 21
114.4991376181288
 31
0.0
  0
LINE
  5
539
330
6C
100
AcDbEntity
  8
Visible (ANSI)
100
AcDbLine
 10
40.71875362258702
 20
115.2803876181289
 30
0.0
 11
60.39867110111455
 21
115.2803876181289
 31
0.0
  0
LINE
  5
53A
330
6C
100
AcDbEntity
  8
Hidden (ANSI)
 48
0.0147804422304034
100
AcDbLine
 10
59.96521236185078
 20
114.4991376181286
 30
0.0
 11
59.96521236185078
 21
114.4053876181286
 31
0.0
  0
LINE
  5
53B
330
6C
100
AcDbEntity
  8
Hidden (ANSI)
 48
0.0147804422304034
100
AcDbLine
 10
59.40221236185078
 20
114.4991376181286
 30
0.0
 11
59.40221236185078
 21
114.4053876181286
 31
0.0
  0
LINE
  5
53C
330
6C
100
AcDbEntity
  8
Hidden (ANSI)
 48
0.0147804422304034
100
AcDbLine
 10
41.71521236185077
 20
114.4991376181286
 30
0.0
 11
41.71521236185077
 21
114.4053876181286
 31
0.0
  0
LINE
  5
53D
330
6C
100
AcDbEntity
  8
Hidden (ANSI)
 48
0.0147804422304034
100
AcDbLine
 10
41.15221236185077
 20
114.4991376181286
 30
0.0
 11
41.15221236185077
 21
114.4053876181286
 31
0.0
  0
MTEXT
  5
53E
330
6C
100
AcDbEntity
  8
Symbol (ANSI)
100
AcDbMText
 10
45.89214566557785
 20
108.6019134350459
 30
0.0
 40
1.440000017796914
 41
0.0
 46
0.0
 71
     7
 72
     1
  1
TOP VIEW
  7
Text Style153
 73
     1
 44
1.0
  0
LINE
  5
53F
330
6C
100
AcDbEntity
  8
Symbol (ANSI)
370
    30
100
AcDbLine
 10
45.89329766854122
 20
108.3082537865472
 30
0.0
 11
54.97906739695399
 21
108.3082537865472
 31
0.0
  0
LINE
  5
540
330
6C
100
AcDbEntity
  8
Center Mark (ANSI)
  6
CHAIN
 48
0.1648447215557098
100
AcDbLine
 10
41.43371236183502
 20
92.60335939342679
 30
0.0
 11
41.43371236183502
 21
89.04035939342682
 31
0.0
  0
LINE
  5
541
330
6C
100
AcDbEntity
  8
Center Mark (ANSI)
  6
CHAIN
 48
0.1648447215557098
100
AcDbLine
 10
59.68371236183503
 20
92.60335939342679
 30
0.0
 11
59.68371236183503
 21
89.04035939342682
 31
0.0
  0
LINE
  5
542
330
6C
100
AcDbEntity
  8
Centerline (ANSI)
  6
CHAIN
 48
0.9524481296539306
100
AcDbLine
 10
39.65221236183502
 20
90.8218593934268
 30
0.0
 11
61.46521236183502
 21
90.8218593934268
 31
0.0
  0
LINE
  5
543
330
6C
100
AcDbEntity
  8
Center Mark (ANSI)
  6
CHAIN
 48
0.1648447215557098
100
AcDbLine
 10
61.46521236183502
 20
90.8218593934268
 30
0.0
 11
57.90221236183503
 21
90.8218593934268
 31
0.0
  0
LINE
  5
544
330
6C
100
AcDbEntity
  8
Center Mark (ANSI)
  6
CHAIN
 48
0.1648447215557098
100
AcDbLine
 10
61.46521236183502
 20
32.57185939342682
 30
0.0
 11
57.90221236183503
 21
32.57185939342682
 31
0.0
  0
LINE
  5
545
330
6C
100
AcDbEntity
  8
Centerline (ANSI)
  6
CHAIN
 48
0.9524481296539306
100
AcDbLine
 10
59.68371236183503
 20
92.60335939342679
 30
0.0
 11
59.68371236183503
 21
30.79035939342681
 31
0.0
  0
LINE
  5
546
330
6C
100
AcDbEntity
  8
Center Mark (ANSI)
  6
CHAIN
 48
0.1648447215557098
100
AcDbLine
 10
59.68371236183503
 20
30.79035939342682
 30
0.0
 11
59.68371236183503
 21
34.35335939342682
 31
0.0
  0
LINE
  5
547
330
6C
100
AcDbEntity
  8
Center Mark (ANSI)
  6
CHAIN
 48
0.1648447215557098
100
AcDbLine
 10
41.43371236183501
 20
30.79035939342682
 30
0.0
 11
41.43371236183501
 21
34.35335939342682
 31
0.0
  0
LINE
  5
548
330
6C
100
AcDbEntity
  8
Centerline (ANSI)
  6
CHAIN
 48
0.9524481296539306
100
AcDbLine
 10
61.46521236183502
 20
32.57185939342682
 30
0.0
 11
39.65221236183501
 21
32.57185939342682
 31
0.0
  0
LINE
  5
549
330
6C
100
AcDbEntity
  8
Center Mark (ANSI)
  6
CHAIN
 48
0.1648447215557098
100
AcDbLine
 10
39.65221236183501
 20
32.57185939342682
 30
0.0
 11
43.215212361835
 21
32.57185939342682
 31
0.0
  0
LINE
  5
54A
330
6C
100
AcDbEntity
  8
Center Mark (ANSI)
  6
CHAIN
 48
0.1648447215557098
100
AcDbLine
 10
39.65221236183502
 20
90.8218593934268
 30
0.0
 11
43.21521236183502
 21
90.8218593934268
 31
0.0
  0
LINE
  5
54B
330
6C
100
AcDbEntity
  8
Centerline (ANSI)
  6
CHAIN
 48
0.9524481296539306
100
AcDbLine
 10
41.43371236183501
 20
30.79035939342681
 30
0.0
 11
41.43371236183502
 21
92.60335939342679
 31
0.0
  0
LINE
  5
54C
330
6C
100
AcDbEntity
  8
Center Mark (ANSI)
  6
CHAIN
 48
0.1648447215557098
100
AcDbLine
 10
41.43371236183503
 20
63.47835939342681
 30
0.0
 11
41.43371236183503
 21
59.91535939342682
 31
0.0
  0
LINE
  5
54D
330
6C
100
AcDbEntity
  8
Center Mark (ANSI)
  6
CHAIN
 48
0.1648447215557098
100
AcDbLine
 10
59.68371236183504
 20
63.47835939342682
 30
0.0
 11
59.68371236183504
 21
59.91535939342682
 31
0.0
  0
LINE
  5
54E
330
6C
100
AcDbEntity
  8
Centerline (ANSI)
  6
CHAIN
 48
0.9524481296539306
100
AcDbLine
 10
39.65221236183504
 20
61.69685939342681
 30
0.0
 11
61.46521236183503
 21
61.69685939342682
 31
0.0
  0
DIMENSION
  5
54F
330
6C
100
AcDbEntity
  8
Dimension (ANSI)
100
AcDbDimension
280
     0
  2
*D4
 10
60.55871236183502
 20
101.9305189200921
 30
0.0
 11
50.55871236183502
 21
101.9305189200921
 31
0.0
 70
   160
  1
<>
 42
20.0
 73
     0
 74
     0
 75
     0
  3
Default (ANSI)
100
AcDbAlignedDimension
 13
40.55871236183501
 23
91.53681813269056
 33
0.0
 14
60.55871236183502
 24
91.53681813269056
 34
0.0
100
AcDbRotatedDimension
1001
ACAD
1000
DSTYLE
1002
{
1070
   289
1070
     1
1070
    73
1070
     0
1070
    74
1070
     0
1070
   271
1070
     2
1070
   272
1070
     2
1070
    48
1040
0.0
1070
    47
1040
0.0
1002
}
  0
DIMENSION
  5
63B
330
6C
100
AcDbEntity
  8
Dimension (ANSI)
100
AcDbDimension
280
     0
  2
*D5
 10
41.43371236183502
 20
97.3277688422457
 30
0.0
 11
35.36258490019886
 21
97.3277688422457
 31
0.0
 70
   160
  1
<>
 42
0.875
 73
     0
 74
     0
 75
     0
  3
Default (ANSI)
100
AcDbAlignedDimension
 13
40.55871236183501
 23
91.53681813269056
 33
0.0
 14
41.43371236183502
 24
92.60335939342679
 34
0.0
100
AcDbRotatedDimension
1001
ACAD
1000
DSTYLE
1002
{
1070
   289
1070
     1
1070
    73
1070
     0
1070
    74
1070
     0
1070
   271
1070
     2
1070
   272
1070
     2
1070
    48
1040
0.0
1070
    47
1040
0.0
1002
}
  0
DIMENSION
  5
725
330
6C
100
AcDbEntity
  8
Dimension (ANSI)
100
AcDbDimension
280
     0
  2
*D6
 10
59.68371236183503
 20
97.3277688422457
 30
0.0
 11
50.55871236183502
 21
97.3277688422457
 31
0.0
 70
   160
  1
<>
 42
18.25000000000001
 73
     0
 74
     0
 75
     0
  3
Default (ANSI)
100
AcDbAlignedDimension
 13
41.43371236183502
 23
92.60335939342679
 33
0.0
 14
59.68371236183503
 24
92.60335939342679
 34
0.0
 50
180.0
100
AcDbRotatedDimension
1001
ACAD
1000
DSTYLE
1002
{
1070
   289
1070
     1
1070
    73
1070
     0
1070
    74
1070
     0
1070
   271
1070
     2
1070
   272
1070
     2
1070
    48
1040
0.0
1070
    47
1040
0.0
1002
}
  0
DIMENSION
  5
80F
330
6C
100
AcDbEntity
  8
Dimension (ANSI)
100
AcDbDimension
280
     0
  2
*D7
 10
38.33255316317167
 20
32.57185939342682
 30
0.0
 11
34.92780291301612
 21
28.25288740284113
 31
0.0
 70
   160
  1
<>
 42
0.8749999999999928
 73
     0
 74
     0
 75
     0
  3
Default (ANSI)
100
AcDbAlignedDimension
 13
40.71875362257127
 23
31.69685939342682
 33
0.0
 14
39.65221236183501
 24
32.57185939342682
 34
0.0
 50
90.0
100
AcDbRotatedDimension
1001
ACAD
1000
DSTYLE
1002
{
1070
   289
1070
     1
1070
   271
1070
     2
1070
   272
1070
     2
1070
    48
1040
0.0
1070
    47
1040
0.0
1002
}
  0
DIMENSION
  5
90F
330
6C
100
AcDbEntity
  8
Dimension (ANSI)
100
AcDbDimension
280
     0
  2
*D8
 10
34.92780291301613
 20
61.69685939342681
 30
0.0
 11
34.92780291301612
 21
47.13435939342681
 31
0.0
 70
   160
  1
<>
 42
29.125
 73
     0
 74
     0
 75
     0
  3
Default (ANSI)
100
AcDbAlignedDimension
 13
39.65221236183501
 23
32.57185939342682
 33
0.0
 14
39.65221236183504
 24
61.69685939342681
 34
0.0
 50
90.0
100
AcDbRotatedDimension
1001
ACAD
1000
DSTYLE
1002
{
1070
   289
1070
     1
1070
   271
1070
     2
1070
   272
1070
     2
1070
    48
1040
0.0
1070
    47
1040
0.0
1002
}
  0
DIMENSION
  5
9F9
330
6C
100
AcDbEntity
  8
Dimension (ANSI)
100
AcDbDimension
280
     0
  2
*D9
 10
26.42386590514213
 20
90.82185939342682
 30
0.0
 11
26.42386590514211
 21
61.6968593934268
 31
0.0
 70
   160
  1
<>
 42
58.25
 73
     0
 74
     0
 75
     0
  3
Default (ANSI)
100
AcDbAlignedDimension
 13
39.65221236183501
 23
32.57185939342682
 33
0.0
 14
39.65221236183502
 24
90.8218593934268
 34
0.0
 50
90.0
100
AcDbRotatedDimension
1001
ACAD
1000
DSTYLE
1002
{
1070
   289
1070
     1
1070
   271
1070
     2
1070
   272
1070
     2
1070
    48
1040
0.0
1070
    47
1040
0.0
1002
}
  0
DIMENSION
  5
AE3
330
6C
100
AcDbEntity
  8
Dimension (ANSI)
100
AcDbDimension
280
     0
  2
*D10
 10
18.98647015800437
 20
91.69685939342683
 30
0.0
 11
18.98647015800435
 21
61.69685939342682
 31
0.0
 70
   160
  1
<>
 42
60.0
 73
     0
 74
     0
 75
     0
  3
Default (ANSI)
100
AcDbAlignedDimension
 13
40.71875362257127
 23
31.69685939342682
 33
0.0
 14
40.71875362257125
 24
91.69685939342681
 34
0.0
 50
90.0
100
AcDbRotatedDimension
1001
ACAD
1000
DSTYLE
1002
{
1070
   289
1070
     1
1070
   271
1070
     2
1070
   272
1070
     2
1070
    48
1040
0.0
1070
    47
1040
0.0
1002
}
  0
DIMENSION
  5
BCD
330
6C
100
AcDbEntity
  8
Dimension (ANSI)
100
AcDbDimension
280
     0
  2
*D11
 10
59.51170248502201
 20
32.79469308091318
 30
0.0
 11
67.052903876647
 21
29.58453902327855
 31
0.0
 70
   163
  1
<>{\P(6 PL.)}
 71
     4
 42
0.5629999999999999
 73
     0
 74
     0
 75
     0
  3
Default (ANSI)
100
AcDbDiametricDimension
 15
59.85572223864803
 25
32.34902570594043
 35
0.0
 40
0.0
1001
ACAD
1000
DSTYLE
1002
{
1070
   144
1040
0.9999999999999893
1070
   271
1070
     3
1070
   272
1070
     3
1070
    48
1040
0.0
1070
    47
1040
0.0
1002
}
1001
ACAD_DSTYLE_DIMRADIAL_EXTENSION
1070
   387
1070
     1
1070
   388
1040
0.0
1070
   390
1040
0.0
  0
DIMENSION
  5
C87
330
6C
100
AcDbEntity
  8
Dimension (ANSI)
100
AcDbDimension
280
     0
  2
*D12
 10
54.57689844057388
 20
114.4053876181288
 30
0.0
 11
58.03822357508341
 21
120.3443596287361
 31
0.0
 70
   160
  1
<>{\PTYP.}
 71
     5
 42
0.875000000000071
 73
     0
 74
     0
 75
     0
  3
Default (ANSI)
100
AcDbAlignedDimension
 13
58.03822357508341
 23
115.2803876181289
 33
0.0
 14
58.05007718019604
 24
114.4053876181288
 34
0.0
 50
270.0
100
AcDbRotatedDimension
1001
ACAD
1000
DSTYLE
1002
{
1070
   289
1070
     1
1070
   271
1070
     2
1070
    76
1070
     1
1070
    75
1070
     1
1070
   272
1070
     2
1070
    48
1040
0.0
1070
    47
1040
0.0
1002
}
  0
DIMENSION
  5
D90
330
6C
100
AcDbEntity
  8
Dimension (ANSI)
100
AcDbDimension
280
     0
  2
*D13
 10
100.9722701818739
 20
88.7221895747014
 30
0.0
 11
107.1545483850872
 21
88.7221895747014
 31
0.0
 70
   160
  1
<>{\PTYP.}
 71
     4
 42
0.8750000000000284
 73
     0
 74
     0
 75
     0
  3
Default (ANSI)
100
AcDbAlignedDimension
 13
101.8472701818739
 23
88.7221895747014
 33
0.0
 14
100.9722701818739
 24
88.72836705371753
 34
0.0
 50
180.0
100
AcDbRotatedDimension
1001
ACAD
1000
DSTYLE
1002
{
1070
   289
1070
     1
1070
    73
1070
     0
1070
    74
1070
     0
1070
   271
1070
     2
1070
    76
1070
     1
1070
    75
1070
     1
1070
   272
1070
     2
1070
    48
1040
0.0
1070
    47
1040
0.0
1002
}
  0
MTEXT
  5
E7F
102
{ACAD_XDICTIONARY
360
E86
102
}
330
6C
100
AcDbEntity
  8
Symbol (ANSI)
100
AcDbMText
 10
109.1339095709314
 20
13.91314255906076
 30
0.0
 40
1.200000038297157
 41
88.60064529058503
 46
0.0
 71
     4
 72
     1
  3
{\fRomanS|b0|i0|c0|p2;\H2x;PART#: WA72P24F1G\P(DATA SUBJECT TO CHANGE WITHOUT NOTICE)\H1.6157x; \H0.61894x;\P \H1.352x; \H0.73963x;\P\H0.6x;THIS DRAWING IS PROPERTY OF HUBBELL INC. WIEGMANN\H1.5633x; \H0.63966x;\PALL INFORMATION IS PROPRIETARY AND NO
  1
T TO BE DUPLICATED\H1.234x; \H0.81039x;\P\H1.2571x; }
  7
Note Text (ANSI)
 73
     1
 44
0.8026435375213623
  0
ENDSEC
  0
SECTION
  2
OBJECTS
  0
DICTIONARY
  5
C
330
0
100
AcDbDictionary
281
     1
  3
ACAD_CIP_PREVIOUS_PRODUCT_INFO
350
E81
  3
ACAD_COLOR
350
63
  3
ACAD_GROUP
350
D
  3
ACAD_LAYOUT
350
62
  3
ACAD_MATERIAL
350
10
  3
ACAD_MLEADERSTYLE
350
66
  3
ACAD_MLINESTYLE
350
5F
  3
ACAD_PLOTSETTINGS
350
61
  3
ACAD_PLOTSTYLENAME
350
E
  3
ACAD_SCALELIST
350
42
  3
ACAD_TABLESTYLE
350
64
  3
ACAD_VISUALSTYLE
350
29
  3
ACDB_RECOMPOSE_DATA
350
E88
  3
AcDbVariableDictionary
350
76
  0
DICTIONARY
  5
E86
330
E7F
100
AcDbDictionary
280
     1
281
     1
  3
ACAD_MTEXT_2008_RT
360
E87
  0
XRECORD
  5
E81
102
{ACAD_REACTORS
330
C
102
}
330
C
100
AcDbXrecord
280
     1
300
INVNTOR
300
2012
300
PDSP_F_S
  0
DICTIONARY
  5
63
102
{ACAD_REACTORS
330
C
102
}
330
C
100
AcDbDictionary
281
     1
  0
DICTIONARY
  5
D
102
{ACAD_REACTORS
330
C
102
}
330
C
100
AcDbDictionary
281
     1
  0
DICTIONARY
  5
62
102
{ACAD_REACTORS
330
C
102
}
330
C
100
AcDbDictionary
281
     1
  3
Layout1
350
6B
  3
Layout2
350
73
  3
Model
350
6F
  0
DICTIONARY
  5
10
102
{ACAD_REACTORS
330
C
102
}
330
C
100
AcDbDictionary
281
     1
  3
ByBlock
350
19
  3
ByLayer
350
11
  3
Global
350
21
  0
DICTIONARY
  5
66
102
{ACAD_REACTORS
330
C
102
}
330
C
100
AcDbDictionary
281
     1
  3
Standard
350
67
  0
DICTIONARY
  5
5F
102
{ACAD_REACTORS
330
C
102
}
330
C
100
AcDbDictionary
281
     1
  3
Standard
350
60
  0
DICTIONARY
  5
61
102
{ACAD_REACTORS
330
C
102
}
330
C
100
AcDbDictionary
281
     1
  0
ACDBDICTIONARYWDFLT
  5
E
102
{ACAD_REACTORS
330
C
102
}
330
C
100
AcDbDictionary
281
     1
  3
Normal
350
F
100
AcDbDictionaryWithDefault
340
F
  0
DICTIONARY
  5
42
102
{ACAD_REACTORS
330
C
102
}
330
C
100
AcDbDictionary
281
     1
  3
A0
350
43
  3
A1
350
44
  3
A2
350
45
  3
A3
350
46
  3
A4
350
47
  3
A5
350
48
  3
A6
350
49
  3
A7
350
4A
  3
A8
350
4B
  3
A9
350
4C
  3
B0
350
4D
  3
B1
350
4E
  3
B2
350
4F
  3
B3
350
50
  3
B4
350
51
  3
B5
350
52
  3
B6
350
53
  0
DICTIONARY
  5
64
102
{ACAD_REACTORS
330
C
102
}
330
C
100
AcDbDictionary
281
     1
  3
Standard
350
65
  0
DICTIONARY
  5
29
102
{ACAD_REACTORS
330
C
102
}
330
C
100
AcDbDictionary
281
     1
  3
2dWireframe
350
2F
  3
Basic
350
2E
  3
Brighten
350
35
  3
ColorChange
350
39
  3
Conceptual
350
32
  3
Dim
350
34
  3
EdgeColorOff
350
41
  3
Facepattern
350
38
  3
Flat
350
2A
  3
FlatWithEdges
350
2B
  3
Gouraud
350
2C
  3
GouraudWithEdges
350
2D
  3
Hidden
350
31
  3
JitterOff
350
3F
  3
Linepattern
350
37
  3
OverhangOff
350
40
  3
Realistic
350
33
  3
Shaded
350
3E
  3
Shaded with edges
350
3D
  3
Shades of Gray
350
3A
  3
Sketchy
350
3B
  3
Thicken
350
36
  3
Wireframe
350
30
  3
X-Ray
350
3C
  0
XRECORD
  5
E88
102
{ACAD_REACTORS
330
C
102
}
330
C
100
AcDbXrecord
280
     1
 90
        1
330
65
330
E7F
  0
DICTIONARY
  5
76
102
{ACAD_REACTORS
330
C
102
}
330
C
100
AcDbDictionary
281
     1
  3
CANNOSCALE
350
79
  3
CMLEADERSTYLE
350
78
  3
CTABLESTYLE
350
77
  0
XRECORD
  5
E87
102
{ACAD_REACTORS
330
E86
102
}
330
E86
100
AcDbXrecord
280
     1
 40
3109072.0
  1
\pxsm0.94;{\fRomanS|b0|i0;\H2.4000;PART#: WA72P24F1G\P(DATA SUBJECT TO CHANGE WITHOUT NOTICE)\P \P\fRomanS|b0|i0;\H1.4400;THIS DRAWING IS PROPERTY OF HUBBELL INC. WIEGMANN\PALL INFORMATION IS PROPRIETARY AND NOT TO BE DUPLICATED\P}
  0
LAYOUT
  5
6B
102
{ACAD_REACTORS
330
62
102
}
330
62
100
AcDbPlotSettings
  1

  2

  4

  6

 40
0.0
 41
0.0
 42
0.0
 43
0.0
 44
0.0
 45
0.0
 46
0.0
 47
0.0
 48
0.0
 49
0.0
140
0.0
141
0.0
142
1.0
143
1.0
 70
   688
 72
     0
 73
     0
 74
     5
  7

 75
    16
147
1.0
 76
     0
 77
     2
 78
   300
148
0.0
149
0.0
100
AcDbLayout
  1
Layout1
 70
     1
 71
     1
 10
0.0
 20
0.0
 11
12.0
 21
9.0
 12
0.0
 22
0.0
 32
0.0
 14
0.0
 24
0.0
 34
0.0
 15
0.0
 25
0.0
 35
0.0
146
0.0
 13
0.0
 23
0.0
 33
0.0
 16
1.0
 26
0.0
 36
0.0
 17
0.0
 27
1.0
 37
0.0
 76
     0
330
68
  0
LAYOUT
  5
73
102
{ACAD_REACTORS
330
62
102
}
330
62
100
AcDbPlotSettings
  1

  2

  4

  6

 40
0.0
 41
0.0
 42
0.0
 43
0.0
 44
0.0
 45
0.0
 46
0.0
 47
0.0
 48
0.0
 49
0.0
140
0.0
141
0.0
142
1.0
143
1.0
 70
   688
 72
     0
 73
     0
 74
     5
  7

 75
    16
147
1.0
 76
     0
 77
     2
 78
   300
148
0.0
149
0.0
100
AcDbLayout
  1
Layout2
 70
     1
 71
     2
 10
0.0
 20
0.0
 11
12.0
 21
9.0
 12
0.0
 22
0.0
 32
0.0
 14
0.0
 24
0.0
 34
0.0
 15
0.0
 25
0.0
 35
0.0
146
0.0
 13
0.0
 23
0.0
 33
0.0
 16
1.0
 26
0.0
 36
0.0
 17
0.0
 27
1.0
 37
0.0
 76
     0
330
70
  0
LAYOUT
  5
6F
102
{ACAD_REACTORS
330
62
102
}
330
62
100
AcDbPlotSettings
  1

  2

  4

  6

 40
0.0
 41
0.0
 42
0.0
 43
0.0
 44
0.0
 45
0.0
 46
0.0
 47
0.0
 48
0.0
 49
0.0
140
0.0
141
0.0
142
1.0
143
1.0
 70
  1712
 72
     0
 73
     0
 74
     0
  7

 75
     0
147
1.0
 76
     0
 77
     2
 78
   300
148
0.0
149
0.0
100
AcDbLayout
  1
Model
 70
     1
 71
     0
 10
0.0
 20
0.0
 11
12.0
 21
9.0
 12
0.0
 22
0.0
 32
0.0
 14
0.0
 24
0.0
 34
0.0
 15
0.0
 25
0.0
 35
0.0
146
0.0
 13
0.0
 23
0.0
 33
0.0
 16
1.0
 26
0.0
 36
0.0
 17
0.0
 27
1.0
 37
0.0
 76
     0
330
6C
  0
MATERIAL
  5
19
102
{ACAD_XDICTIONARY
360
1A
102
}
102
{ACAD_REACTORS
330
10
102
}
330
10
100
AcDbMaterial
  1
ByBlock
 72
     0
 43
0.0208333333333333
 43
0.0
 43
0.0
 43
0.0
 43
0.0
 43
0.0208333333333333
 43
0.0
 43
0.0
 43
0.0
 43
0.0
 43
1.0
 43
0.0
 43
0.0
 43
0.0
 43
0.0
 43
1.0
 77
     0
 47
0.0208333333333333
 47
0.0
 47
0.0
 47
0.0
 47
0.0
 47
0.0208333333333333
 47
0.0
 47
0.0
 47
0.0
 47
0.0
 47
1.0
 47
0.0
 47
0.0
 47
0.0
 47
0.0
 47
1.0
171
     0
 49
0.0208333333333333
 49
0.0
 49
0.0
 49
0.0
 49
0.0
 49
0.0208333333333333
 49
0.0
 49
0.0
 49
0.0
 49
0.0
 49
1.0
 49
0.0
 49
0.0
 49
0.0
 49
0.0
 49
1.0
175
     0
142
0.0208333333333333
142
0.0
142
0.0
142
0.0
142
0.0
142
0.0208333333333333
142
0.0
142
0.0
142
0.0
142
0.0
142
1.0
142
0.0
142
0.0
142
0.0
142
0.0
142
1.0
179
     0
144
0.0208333333333333
144
0.0
144
0.0
144
0.0
144
0.0
144
0.0208333333333333
144
0.0
144
0.0
144
0.0
144
0.0
144
1.0
144
0.0
144
0.0
144
0.0
144
0.0
144
1.0
147
0.0208333333333333
147
0.0
147
0.0
147
0.0
147
0.0
147
0.0208333333333333
147
0.0
147
0.0
147
0.0
147
0.0
147
1.0
147
0.0
147
0.0
147
0.0
147
0.0
147
1.0
  0
MATERIAL
  5
11
102
{ACAD_XDICTIONARY
360
12
102
}
102
{ACAD_REACTORS
330
10
102
}
330
10
100
AcDbMaterial
  1
ByLayer
 72
     0
 43
0.0208333333333333
 43
0.0
 43
0.0
 43
0.0
 43
0.0
 43
0.0208333333333333
 43
0.0
 43
0.0
 43
0.0
 43
0.0
 43
1.0
 43
0.0
 43
0.0
 43
0.0
 43
0.0
 43
1.0
 77
     0
 47
0.0208333333333333
 47
0.0
 47
0.0
 47
0.0
 47
0.0
 47
0.0208333333333333
 47
0.0
 47
0.0
 47
0.0
 47
0.0
 47
1.0
 47
0.0
 47
0.0
 47
0.0
 47
0.0
 47
1.0
171
     0
 49
0.0208333333333333
 49
0.0
 49
0.0
 49
0.0
 49
0.0
 49
0.0208333333333333
 49
0.0
 49
0.0
 49
0.0
 49
0.0
 49
1.0
 49
0.0
 49
0.0
 49
0.0
 49
0.0
 49
1.0
175
     0
142
0.0208333333333333
142
0.0
142
0.0
142
0.0
142
0.0
142
0.0208333333333333
142
0.0
142
0.0
142
0.0
142
0.0
142
1.0
142
0.0
142
0.0
142
0.0
142
0.0
142
1.0
179
     0
144
0.0208333333333333
144
0.0
144
0.0
144
0.0
144
0.0
144
0.0208333333333333
144
0.0
144
0.0
144
0.0
144
0.0
144
1.0
144
0.0
144
0.0
144
0.0
144
0.0
144
1.0
147
0.0208333333333333
147
0.0
147
0.0
147
0.0
147
0.0
147
0.0208333333333333
147
0.0
147
0.0
147
0.0
147
0.0
147
1.0
147
0.0
147
0.0
147
0.0
147
0.0
147
1.0
  0
MATERIAL
  5
21
102
{ACAD_XDICTIONARY
360
22
102
}
102
{ACAD_REACTORS
330
10
102
}
330
10
100
AcDbMaterial
  1
Global
 72
     0
 43
0.0208333333333333
 43
0.0
 43
0.0
 43
0.0
 43
0.0
 43
0.0208333333333333
 43
0.0
 43
0.0
 43
0.0
 43
0.0
 43
1.0
 43
0.0
 43
0.0
 43
0.0
 43
0.0
 43
1.0
 77
     0
 47
0.0208333333333333
 47
0.0
 47
0.0
 47
0.0
 47
0.0
 47
0.0208333333333333
 47
0.0
 47
0.0
 47
0.0
 47
0.0
 47
1.0
 47
0.0
 47
0.0
 47
0.0
 47
0.0
 47
1.0
171
     0
 49
0.0208333333333333
 49
0.0
 49
0.0
 49
0.0
 49
0.0
 49
0.0208333333333333
 49
0.0
 49
0.0
 49
0.0
 49
0.0
 49
1.0
 49
0.0
 49
0.0
 49
0.0
 49
0.0
 49
1.0
175
     0
142
0.0208333333333333
142
0.0
142
0.0
142
0.0
142
0.0
142
0.0208333333333333
142
0.0
142
0.0
142
0.0
142
0.0
142
1.0
142
0.0
142
0.0
142
0.0
142
0.0
142
1.0
179
     0
144
0.0208333333333333
144
0.0
144
0.0
144
0.0
144
0.0
144
0.0208333333333333
144
0.0
144
0.0
144
0.0
144
0.0
144
1.0
144
0.0
144
0.0
144
0.0
144
0.0
144
1.0
147
0.0208333333333333
147
0.0
147
0.0
147
0.0
147
0.0
147
0.0208333333333333
147
0.0
147
0.0
147
0.0
147
0.0
147
1.0
147
0.0
147
0.0
147
0.0
147
0.0
147
1.0
  0
MLEADERSTYLE
  5
67
102
{ACAD_XDICTIONARY
360
E84
102
}
102
{ACAD_REACTORS
330
66
102
}
330
66
100
AcDbMLeaderStyle
179
     2
170
     2
171
     1
172
     0
 90
        2
 40
0.0
 41
0.0
173
     1
 91
-1056964608
340
5B
 92
       -2
290
     1
 42
0.09
291
     1
 43
0.36
  3
Standard
 44
0.18
300

342
55
174
     1
178
     6
175
     1
176
     0
 93
-1056964608
 45
0.18
292
     0
297
     0
 46
0.18
 94
-1056964608
 47
1.0
 49
1.0
140
1.0
293
     1
141
0.0
294
     1
177
     0
142
1.0
295
     0
296
     0
143
0.125
271
     0
272
     9
273
     9
  0
MLINESTYLE
  5
60
102
{ACAD_REACTORS
330
5F
102
}
330
5F
100
AcDbMlineStyle
  2
STANDARD
 70
     0
  3

 62
   256
 51
90.0
 52
90.0
 71
     2
 49
0.5
 62
   256
  6
BYLAYER
 49
-0.5
 62
   256
  6
BYLAYER
  0
ACDBPLACEHOLDER
  5
F
102
{ACAD_REACTORS
330
E
102
}
330
E
  0
SCALE
  5
43
102
{ACAD_REACTORS
330
42
102
}
330
42
100
AcDbScale
 70
     0
300
1:1
140
1.0
141
1.0
290
     1
  0
SCALE
  5
44
102
{ACAD_REACTORS
330
42
102
}
330
42
100
AcDbScale
 70
     0
300
1/128" = 1'-0"
140
0.0078125
141
12.0
290
     0
  0
SCALE
  5
45
102
{ACAD_REACTORS
330
42
102
}
330
42
100
AcDbScale
 70
     0
300
1/64" = 1'-0"
140
0.015625
141
12.0
290
     0
  0
SCALE
  5
46
102
{ACAD_REACTORS
330
42
102
}
330
42
100
AcDbScale
 70
     0
300
1/32" = 1'-0"
140
0.03125
141
12.0
290
     0
  0
SCALE
  5
47
102
{ACAD_REACTORS
330
42
102
}
330
42
100
AcDbScale
 70
     0
300
1/16" = 1'-0"
140
0.0625
141
12.0
290
     0
  0
SCALE
  5
48
102
{ACAD_REACTORS
330
42
102
}
330
42
100
AcDbScale
 70
     0
300
3/32" = 1'-0"
140
0.09375
141
12.0
290
     0
  0
SCALE
  5
49
102
{ACAD_REACTORS
330
42
102
}
330
42
100
AcDbScale
 70
     0
300
1/8" = 1'-0"
140
0.125
141
12.0
290
     0
  0
SCALE
  5
4A
102
{ACAD_REACTORS
330
42
102
}
330
42
100
AcDbScale
 70
     0
300
3/16" = 1'-0"
140
0.1875
141
12.0
290
     0
  0
SCALE
  5
4B
102
{ACAD_REACTORS
330
42
102
}
330
42
100
AcDbScale
 70
     0
300
1/4" = 1'-0"
140
0.25
141
12.0
290
     0
  0
SCALE
  5
4C
102
{ACAD_REACTORS
330
42
102
}
330
42
100
AcDbScale
 70
     0
300
3/8" = 1'-0"
140
0.375
141
12.0
290
     0
  0
SCALE
  5
4D
102
{ACAD_REACTORS
330
42
102
}
330
42
100
AcDbScale
 70
     0
300
1/2" = 1'-0"
140
0.5
141
12.0
290
     0
  0
SCALE
  5
4E
102
{ACAD_REACTORS
330
42
102
}
330
42
100
AcDbScale
 70
     0
300
3/4" = 1'-0"
140
0.75
141
12.0
290
     0
  0
SCALE
  5
4F
102
{ACAD_REACTORS
330
42
102
}
330
42
100
AcDbScale
 70
     0
300
1" = 1'-0"
140
1.0
141
12.0
290
     0
  0
SCALE
  5
50
102
{ACAD_REACTORS
330
42
102
}
330
42
100
AcDbScale
 70
     0
300
1-1/2" = 1'-0"
140
1.5
141
12.0
290
     0
  0
SCALE
  5
51
102
{ACAD_REACTORS
330
42
102
}
330
42
100
AcDbScale
 70
     0
300
3" = 1'-0"
140
3.0
141
12.0
290
     0
  0
SCALE
  5
52
102
{ACAD_REACTORS
330
42
102
}
330
42
100
AcDbScale
 70
     0
300
6" = 1'-0"
140
6.0
141
12.0
290
     0
  0
SCALE
  5
53
102
{ACAD_REACTORS
330
42
102
}
330
42
100
AcDbScale
 70
     0
300
1'-0" = 1'-0"
140
12.0
141
12.0
290
     0
  0
TABLESTYLE
  5
65
102
{ACAD_XDICTIONARY
360
E82
102
}
102
{ACAD_REACTORS
330
64
102
}
330
64
100
AcDbTableStyle
280
     0
  3
Standard
 70
     0
 71
     0
 40
0.06
 41
0.06
280
     0
281
     0
  7
Standard
140
0.18
170
     2
 62
     0
 63
     7
283
     0
 90
      512
 91
        0
  1

274
    -2
284
     1
 64
     0
275
    -2
285
     1
 65
     0
276
    -2
286
     1
 66
     0
277
    -2
287
     1
 67
     0
278
    -2
288
     1
 68
     0
279
    -2
289
     1
 69
     0
  7
Standard
140
0.25
170
     5
 62
     0
 63
     7
283
     0
 90
      512
 91
        0
  1

274
    -2
284
     1
 64
     0
275
    -2
285
     1
 65
     0
276
    -2
286
     1
 66
     0
277
    -2
287
     1
 67
     0
278
    -2
288
     1
 68
     0
279
    -2
289
     1
 69
     0
  7
Standard
140
0.18
170
     5
 62
     0
 63
     7
283
     0
 90
      512
 91
        0
  1

274
    -2
284
     1
 64
     0
275
    -2
285
     1
 65
     0
276
    -2
286
     1
 66
     0
277
    -2
287
     1
 67
     0
278
    -2
288
     1
 68
     0
279
    -2
289
     1
 69
     0
  0
VISUALSTYLE
  5
2F
102
{ACAD_REACTORS
330
29
102
}
330
29
100
AcDbVisualStyle
  2
2dWireframe
 70
     4
177
     2
291
     0
 71
     0
176
     1
 72
     2
176
     1
 73
     0
176
     1
 90
        0
176
     1
 40
0.6
176
     1
 41
30.0
176
     1
 63
     7
421
 16777215
176
     1
 74
     1
176
     1
 91
        4
176
     1
 64
     7
176
     1
 65
   257
176
     1
 75
     1
176
     1
175
     1
176
     1
 42
1.0
176
     1
 92
        0
176
     1
 66
   257
176
     1
 43
1.0
176
     1
 76
     1
176
     1
 77
     6
176
     1
 78
     2
176
     1
 67
     7
176
     1
 79
     5
176
     1
170
     0
176
     1
171
     0
176
     1
290
     0
176
     1
 93
        1
176
     1
 44
0.0
176
     1
173
     0
176
     1
  0
VISUALSTYLE
  5
2E
102
{ACAD_REACTORS
330
29
102
}
330
29
100
AcDbVisualStyle
  2
Basic
 70
     7
177
     2
291
     1
 71
     1
176
     1
 72
     0
176
     1
 73
     1
176
     1
 90
        0
176
     1
 40
0.6
176
     1
 41
30.0
176
     1
 63
     7
421
 16777215
176
     1
 74
     0
176
     1
 91
        4
176
     1
 64
     7
176
     1
 65
   257
176
     1
 75
     1
176
     1
175
     1
176
     1
 42
1.0
176
     1
 92
        8
176
     1
 66
     7
176
     1
 43
1.0
176
     1
 76
     1
176
     1
 77
     6
176
     1
 78
     2
176
     1
 67
     7
176
     1
 79
     5
176
     1
170
     0
176
     1
171
     0
176
     1
290
     0
176
     1
 93
        1
176
     1
 44
0.0
176
     1
173
     0
176
     1
  0
VISUALSTYLE
  5
35
102
{ACAD_REACTORS
330
29
102
}
330
29
100
AcDbVisualStyle
  2
Brighten
 70
    12
177
     2
291
     1
 71
     2
176
     1
 72
     2
176
     1
 73
     0
176
     1
 90
        0
176
     1
 40
0.6
176
     1
 41
30.0
176
     1
 63
     7
421
 16777215
176
     1
 74
     1
176
     1
 91
        4
176
     1
 64
     7
176
     1
 65
   257
176
     1
 75
     1
176
     1
175
     1
176
     1
 42
1.0
176
     1
 92
        8
176
     1
 66
     7
176
     1
 43
1.0
176
     1
 76
     1
176
     1
 77
     6
176
     1
 78
     2
176
     1
 67
     7
176
     1
 79
     5
176
     1
170
     0
176
     1
171
     0
176
     1
290
     0
176
     1
 93
        1
176
     1
 44
50.0
176
     1
173
     0
176
     1
  0
VISUALSTYLE
  5
39
102
{ACAD_REACTORS
330
29
102
}
330
29
100
AcDbVisualStyle
  2
ColorChange
 70
    16
177
     2
291
     1
 71
     2
176
     1
 72
     2
176
     1
 73
     3
176
     1
 90
        0
176
     1
 40
0.6
176
     1
 41
30.0
176
     1
 63
     8
421
  8421504
176
     1
 74
     1
176
     1
 91
        4
176
     1
 64
     7
176
     1
 65
   257
176
     1
 75
     1
176
     1
175
     1
176
     1
 42
1.0
176
     1
 92
        8
176
     1
 66
     8
424
  8421504
176
     1
 43
1.0
176
     1
 76
     1
176
     1
 77
     6
176
     1
 78
     2
176
     1
 67
     7
176
     1
 79
     5
176
     1
170
     0
176
     1
171
     0
176
     1
290
     0
176
     1
 93
        1
176
     1
 44
0.0
176
     1
173
     0
176
     1
  0
VISUALSTYLE
  5
32
102
{ACAD_REACTORS
330
29
102
}
330
29
100
AcDbVisualStyle
  2
Conceptual
 70
     9
177
     2
291
     0
 71
     3
176
     1
 72
     2
176
     1
 73
     0
176
     1
 90
        0
176
     1
 40
0.6
176
     1
 41
30.0
176
     1
 63
     7
421
 16777215
176
     1
 74
     2
176
     1
 91
        2
176
     1
 64
     7
176
     1
 65
   257
176
     1
 75
     1
176
     1
175
     1
176
     1
 42
179.0
176
     1
 92
        8
176
     1
 66
     7
176
     1
 43
1.0
176
     1
 76
     1
176
     1
 77
     6
176
     1
 78
     2
176
     1
 67
     7
176
     1
 79
     3
176
     1
170
     0
176
     1
171
     0
176
     1
290
     0
176
     1
 93
        1
176
     1
 44
0.0
176
     1
173
     0
176
     1
  0
VISUALSTYLE
  5
34
102
{ACAD_REACTORS
330
29
102
}
330
29
100
AcDbVisualStyle
  2
Dim
 70
    11
177
     2
291
     1
 71
     2
176
     1
 72
     2
176
     1
 73
     0
176
     1
 90
        0
176
     1
 40
0.6
176
     1
 41
30.0
176
     1
 63
     7
421
 16777215
176
     1
 74
     1
176
     1
 91
        4
176
     1
 64
     7
176
     1
 65
   257
176
     1
 75
     1
176
     1
175
     1
176
     1
 42
1.0
176
     1
 92
        8
176
     1
 66
     7
176
     1
 43
1.0
176
     1
 76
     1
176
     1
 77
     6
176
     1
 78
     2
176
     1
 67
     7
176
     1
 79
     5
176
     1
170
     0
176
     1
171
     0
176
     1
290
     0
176
     1
 93
        1
176
     1
 44
-50.0
176
     1
173
     0
176
     1
  0
VISUALSTYLE
  5
41
102
{ACAD_REACTORS
330
29
102
}
330
29
100
AcDbVisualStyle
  2
EdgeColorOff
 70
    22
177
     2
291
     1
 71
     2
176
     0
 72
     2
176
     0
 73
     0
176
     0
 90
        0
176
     0
 40
0.6
176
     0
 41
30.0
176
     0
 63
     7
421
 16777215
176
     0
 74
     1
176
     0
 91
        4
176
     0
 64
     7
176
     0
 65
   257
176
     0
 75
     1
176
     0
175
     1
176
     0
 42
1.0
176
     0
 92
        8
176
     2
 66
     7
176
     0
 43
1.0
176
     0
 76
     1
176
     0
 77
     6
176
     0
 78
     2
176
     0
 67
     7
176
     0
 79
     5
176
     0
170
     0
176
     0
171
     0
176
     0
290
     0
176
     0
 93
        1
176
     0
 44
0.0
176
     0
173
     0
176
     0
  0
VISUALSTYLE
  5
38
102
{ACAD_REACTORS
330
29
102
}
330
29
100
AcDbVisualStyle
  2
Facepattern
 70
    15
177
     2
291
     1
 71
     2
176
     1
 72
     2
176
     1
 73
     0
176
     1
 90
        0
176
     1
 40
0.6
176
     1
 41
30.0
176
     1
 63
     7
421
 16777215
176
     1
 74
     1
176
     1
 91
        4
176
     1
 64
     7
176
     1
 65
   257
176
     1
 75
     1
176
     1
175
     1
176
     1
 42
1.0
176
     1
 92
        8
176
     1
 66
     7
176
     1
 43
1.0
176
     1
 76
     1
176
     1
 77
     6
176
     1
 78
     2
176
     1
 67
     7
176
     1
 79
     5
176
     1
170
     0
176
     1
171
     0
176
     1
290
     0
176
     1
 93
        1
176
     1
 44
0.0
176
     1
173
     0
176
     1
  0
VISUALSTYLE
  5
2A
102
{ACAD_REACTORS
330
29
102
}
330
29
100
AcDbVisualStyle
  2
Flat
 70
     0
177
     2
291
     1
 71
     2
176
     1
 72
     1
176
     1
 73
     1
176
     1
 90
        2
176
     1
 40
0.6
176
     1
 41
30.0
176
     1
 63
     7
421
 16777215
176
     1
 74
     0
176
     1
 91
        0
176
     1
 64
     7
176
     1
 65
   257
176
     1
 75
     1
176
     1
175
     1
176
     1
 42
1.0
176
     1
 92
        8
176
     1
 66
     7
176
     1
 43
1.0
176
     1
 76
     1
176
     1
 77
     6
176
     1
 78
     2
176
     1
 67
     7
176
     1
 79
     5
176
     1
170
     0
176
     1
171
     0
176
     1
290
     0
176
     1
 93
       13
176
     1
 44
0.0
176
     1
173
     0
176
     1
  0
VISUALSTYLE
  5
2B
102
{ACAD_REACTORS
330
29
102
}
330
29
100
AcDbVisualStyle
  2
FlatWithEdges
 70
     1
177
     2
291
     1
 71
     2
176
     1
 72
     1
176
     1
 73
     1
176
     1
 90
        2
176
     1
 40
0.6
176
     1
 41
30.0
176
     1
 63
     7
421
 16777215
176
     1
 74
     1
176
     1
 91
        0
176
     1
 64
     7
176
     1
 65
   257
176
     1
 75
     1
176
     1
175
     1
176
     1
 42
1.0
176
     1
 92
        0
176
     1
 66
   257
176
     1
 43
1.0
176
     1
 76
     1
176
     1
 77
     6
176
     1
 78
     2
176
     1
 67
     7
176
     1
 79
     5
176
     1
170
     0
176
     1
171
     0
176
     1
290
     0
176
     1
 93
       13
176
     1
 44
0.0
176
     1
173
     0
176
     1
  0
VISUALSTYLE
  5
2C
102
{ACAD_REACTORS
330
29
102
}
330
29
100
AcDbVisualStyle
  2
Gouraud
 70
     2
177
     2
291
     1
 71
     2
176
     1
 72
     2
176
     1
 73
     1
176
     1
 90
        2
176
     1
 40
0.6
176
     1
 41
30.0
176
     1
 63
     7
421
 16777215
176
     1
 74
     0
176
     1
 91
        0
176
     1
 64
     7
176
     1
 65
   257
176
     1
 75
     1
176
     1
175
     1
176
     1
 42
1.0
176
     1
 92
        0
176
     1
 66
     7
176
     1
 43
1.0
176
     1
 76
     1
176
     1
 77
     6
176
     1
 78
     2
176
     1
 67
     7
176
     1
 79
     5
176
     1
170
     0
176
     1
171
     0
176
     1
290
     0
176
     1
 93
       13
176
     1
 44
0.0
176
     1
173
     0
176
     1
  0
VISUALSTYLE
  5
2D
102
{ACAD_REACTORS
330
29
102
}
330
29
100
AcDbVisualStyle
  2
GouraudWithEdges
 70
     3
177
     2
291
     1
 71
     2
176
     1
 72
     2
176
     1
 73
     1
176
     1
 90
        2
176
     1
 40
0.6
176
     1
 41
30.0
176
     1
 63
     7
421
 16777215
176
     1
 74
     1
176
     1
 91
        0
176
     1
 64
     7
176
     1
 65
   257
176
     1
 75
     1
176
     1
175
     1
176
     1
 42
1.0
176
     1
 92
        0
176
     1
 66
   257
176
     1
 43
1.0
176
     1
 76
     1
176
     1
 77
     6
176
     1
 78
     2
176
     1
 67
     7
176
     1
 79
     5
176
     1
170
     0
176
     1
171
     0
176
     1
290
     0
176
     1
 93
       13
176
     1
 44
0.0
176
     1
173
     0
176
     1
  0
VISUALSTYLE
  5
31
102
{ACAD_REACTORS
330
29
102
}
330
29
100
AcDbVisualStyle
  2
Hidden
 70
     6
177
     2
291
     0
 71
     1
176
     1
 72
     2
176
     1
 73
     2
176
     1
 90
        0
176
     1
 40
0.6
176
     1
 41
30.0
176
     1
 63
     7
421
 16777215
176
     1
 74
     2
176
     1
 91
        2
176
     1
 64
     7
176
     1
 65
   257
176
     1
 75
     2
176
     1
175
     1
176
     1
 42
40.0
176
     1
 92
        0
176
     1
 66
   257
176
     1
 43
1.0
176
     1
 76
     1
176
     1
 77
     6
176
     1
 78
     2
176
     1
 67
     7
176
     1
 79
     3
176
     1
170
     0
176
     1
171
     0
176
     1
290
     0
176
     1
 93
        1
176
     1
 44
0.0
176
     1
173
     0
176
     1
  0
VISUALSTYLE
  5
3F
102
{ACAD_REACTORS
330
29
102
}
330
29
100
AcDbVisualStyle
  2
JitterOff
 70
    20
177
     2
291
     1
 71
     2
176
     0
 72
     2
176
     0
 73
     0
176
     0
 90
        0
176
     0
 40
0.6
176
     0
 41
30.0
176
     0
 63
     7
421
 16777215
176
     0
 74
     1
176
     0
 91
        4
176
     0
 64
     7
176
     0
 65
   257
176
     0
 75
     1
176
     0
175
     1
176
     0
 42
1.0
176
     0
 92
       10
176
     2
 66
     7
176
     0
 43
1.0
176
     0
 76
     1
176
     0
 77
     6
176
     0
 78
     2
176
     0
 67
     7
176
     0
 79
     5
176
     0
170
     0
176
     0
171
     0
176
     0
290
     0
176
     0
 93
        1
176
     0
 44
0.0
176
     0
173
     0
176
     0
  0
VISUALSTYLE
  5
37
102
{ACAD_REACTORS
330
29
102
}
330
29
100
AcDbVisualStyle
  2
Linepattern
 70
    14
177
     2
291
     1
 71
     2
176
     1
 72
     2
176
     1
 73
     0
176
     1
 90
        0
176
     1
 40
0.6
176
     1
 41
30.0
176
     1
 63
     7
421
 16777215
176
     1
 74
     1
176
     1
 91
        4
176
     1
 64
     7
176
     1
 65
   257
176
     1
 75
     7
176
     1
175
     7
176
     1
 42
1.0
176
     1
 92
        8
176
     1
 66
     7
176
     1
 43
1.0
176
     1
 76
     1
176
     1
 77
     6
176
     1
 78
     2
176
     1
 67
     7
176
     1
 79
     5
176
     1
170
     0
176
     1
171
     0
176
     1
290
     0
176
     1
 93
        1
176
     1
 44
0.0
176
     1
173
     0
176
     1
  0
VISUALSTYLE
  5
40
102
{ACAD_REACTORS
330
29
102
}
330
29
100
AcDbVisualStyle
  2
OverhangOff
 70
    21
177
     2
291
     1
 71
     2
176
     0
 72
     2
176
     0
 73
     0
176
     0
 90
        0
176
     0
 40
0.6
176
     0
 41
30.0
176
     0
 63
     7
421
 16777215
176
     0
 74
     1
176
     0
 91
        4
176
     0
 64
     7
176
     0
 65
   257
176
     0
 75
     1
176
     0
175
     1
176
     0
 42
1.0
176
     0
 92
        9
176
     2
 66
     7
176
     0
 43
1.0
176
     0
 76
     1
176
     0
 77
     6
176
     0
 78
     2
176
     0
 67
     7
176
     0
 79
     5
176
     0
170
     0
176
     0
171
     0
176
     0
290
     0
176
     0
 93
        1
176
     0
 44
0.0
176
     0
173
     0
176
     0
  0
VISUALSTYLE
  5
33
102
{ACAD_REACTORS
330
29
102
}
330
29
100
AcDbVisualStyle
  2
Realistic
 70
     8
177
     2
291
     0
 71
     2
176
     1
 72
     3
176
     1
 73
     0
176
     1
 90
        2
176
     1
 40
0.6
176
     1
 41
30.0
176
     1
 63
     7
421
 16777215
176
     1
 74
     0
176
     1
 91
        0
176
     1
 64
     7
176
     1
 65
   257
176
     1
 75
     1
176
     1
175
     1
176
     1
 42
1.0
176
     1
 92
        8
176
     1
 66
   257
176
     1
 43
1.0
176
     1
 76
     1
176
     1
 77
     6
176
     1
 78
     2
176
     1
 67
     7
176
     1
 79
     3
176
     1
170
     0
176
     1
171
     0
176
     1
290
     0
176
     1
 93
       13
176
     1
 44
0.0
176
     1
173
     0
176
     1
  0
VISUALSTYLE
  5
3E
102
{ACAD_REACTORS
330
29
102
}
330
29
100
AcDbVisualStyle
  2
Shaded
 70
    27
177
     2
291
     0
 71
     2
176
     1
 72
     2
176
     1
 73
     1
176
     1
 90
        2
176
     1
 40
0.6
176
     1
 41
30.0
176
     1
 63
     7
421
 16777215
176
     1
 74
     0
176
     1
 91
        4
176
     1
 64
     7
176
     1
 65
   257
176
     1
 75
     1
176
     1
175
     1
176
     1
 42
1.0
176
     1
 92
        8
176
     1
 66
   257
176
     1
 43
1.0
176
     1
 76
     1
176
     1
 77
     6
176
     1
 78
     2
176
     1
 67
     8
425
  7895160
176
     1
 79
     3
176
     1
170
     0
176
     1
171
     0
176
     1
290
     0
176
     1
 93
        5
176
     1
 44
0.0
176
     1
173
     0
176
     1
  0
VISUALSTYLE
  5
3D
102
{ACAD_REACTORS
330
29
102
}
330
29
100
AcDbVisualStyle
  2
Shaded with edges
 70
    26
177
     2
291
     0
 71
     2
176
     1
 72
     2
176
     1
 73
     1
176
     1
 90
        2
176
     1
 40
0.6
176
     1
 41
30.0
176
     1
 63
     7
421
 16777215
176
     1
 74
     1
176
     1
 91
       10
176
     1
 64
     7
176
     1
 65
   257
176
     1
 75
     2
176
     1
175
     1
176
     1
 42
1.0
176
     1
 92
        8
176
     1
 66
   257
176
     1
 43
1.0
176
     1
 76
     1
176
     1
 77
     6
176
     1
 78
     2
176
     1
 67
     7
176
     1
 79
     3
176
     1
170
     0
176
     1
171
     0
176
     1
290
     0
176
     1
 93
        5
176
     1
 44
0.0
176
     1
173
     0
176
     1
  0
VISUALSTYLE
  5
3A
102
{ACAD_REACTORS
330
29
102
}
330
29
100
AcDbVisualStyle
  2
Shades of Gray
 70
    23
177
     2
291
     0
 71
     2
176
     1
 72
     2
176
     1
 73
     3
176
     1
 90
        0
176
     1
 40
0.6
176
     1
 41
30.0
176
     1
 63
     7
421
 16777215
176
     1
 74
     2
176
     1
 91
        2
176
     1
 64
     7
176
     1
 65
     7
176
     1
 75
     1
176
     1
175
     1
176
     1
 42
40.0
176
     1
 92
        8
176
     1
 66
     7
176
     1
 43
1.0
176
     1
 76
     1
176
     1
 77
     6
176
     1
 78
     2
176
     1
 67
     7
176
     1
 79
     3
176
     1
170
     0
176
     1
171
     0
176
     1
290
     0
176
     1
 93
        1
176
     1
 44
0.0
176
     1
173
     0
176
     1
  0
VISUALSTYLE
  5
3B
102
{ACAD_REACTORS
330
29
102
}
330
29
100
AcDbVisualStyle
  2
Sketchy
 70
    24
177
     2
291
     0
 71
     1
176
     1
 72
     2
176
     1
 73
     2
176
     1
 90
        0
176
     1
 40
0.6
176
     1
 41
30.0
176
     1
 63
     7
421
 16777215
176
     1
 74
     2
176
     1
 91
        2
176
     1
 64
     7
176
     1
 65
     7
176
     1
 75
     1
176
     1
175
     1
176
     1
 42
40.0
176
     1
 92
       11
176
     1
 66
     7
176
     1
 43
1.0
176
     1
 76
     1
176
     1
 77
     6
176
     1
 78
     2
176
     1
 67
     7
176
     1
 79
     6
176
     1
170
     0
176
     1
171
     0
176
     1
290
     0
176
     1
 93
        1
176
     1
 44
0.0
176
     1
173
     0
176
     1
  0
VISUALSTYLE
  5
36
102
{ACAD_REACTORS
330
29
102
}
330
29
100
AcDbVisualStyle
  2
Thicken
 70
    13
177
     2
291
     1
 71
     2
176
     1
 72
     2
176
     1
 73
     0
176
     1
 90
        0
176
     1
 40
0.6
176
     1
 41
30.0
176
     1
 63
     7
421
 16777215
176
     1
 74
     1
176
     1
 91
        4
176
     1
 64
     7
176
     1
 65
   257
176
     1
 75
     1
176
     1
175
     1
176
     1
 42
1.0
176
     1
 92
       12
176
     1
 66
     7
176
     1
 43
1.0
176
     1
 76
     1
176
     1
 77
     6
176
     1
 78
     2
176
     1
 67
     7
176
     1
 79
     5
176
     1
170
     0
176
     1
171
     0
176
     1
290
     0
176
     1
 93
        1
176
     1
 44
0.0
176
     1
173
     0
176
     1
  0
VISUALSTYLE
  5
30
102
{ACAD_REACTORS
330
29
102
}
330
29
100
AcDbVisualStyle
  2
Wireframe
 70
     5
177
     2
291
     0
 71
     0
176
     1
 72
     2
176
     1
 73
     0
176
     1
 90
        0
176
     1
 40
0.6
176
     1
 41
30.0
176
     1
 63
     7
421
 16777215
176
     1
 74
     1
176
     1
 91
        4
176
     1
 64
     7
176
     1
 65
   257
176
     1
 75
     1
176
     1
175
     1
176
     1
 42
1.0
176
     1
 92
        0
176
     1
 66
   257
176
     1
 43
1.0
176
     1
 76
     1
176
     1
 77
     6
176
     1
 78
     2
176
     1
 67
     7
176
     1
 79
     3
176
     1
170
     0
176
     1
171
     0
176
     1
290
     0
176
     1
 93
        1
176
     1
 44
0.0
176
     1
173
     0
176
     1
  0
VISUALSTYLE
  5
3C
102
{ACAD_REACTORS
330
29
102
}
330
29
100
AcDbVisualStyle
  2
X-Ray
 70
    25
177
     2
291
     0
 71
     2
176
     1
 72
     2
176
     1
 73
     1
176
     1
 90
        1
176
     1
 40
0.5
176
     1
 41
30.0
176
     1
 63
     7
421
 16777215
176
     1
 74
     1
176
     1
 91
        0
176
     1
 64
     7
176
     1
 65
   257
176
     1
 75
     1
176
     1
175
     1
176
     1
 42
1.0
176
     1
 92
        8
176
     1
 66
     7
176
     1
 43
1.0
176
     1
 76
     1
176
     1
 77
     6
176
     1
 78
     2
176
     1
 67
     7
176
     1
 79
     3
176
     1
170
     0
176
     1
171
     0
176
     1
290
     0
176
     1
 93
       13
176
     1
 44
0.0
176
     1
173
     0
176
     1
  0
DICTIONARYVAR
  5
79
102
{ACAD_REACTORS
330
76
102
}
330
76
100
DictionaryVariables
280
     0
  1
1:1
  0
DICTIONARYVAR
  5
78
102
{ACAD_REACTORS
330
76
102
}
330
76
100
DictionaryVariables
280
     0
  1
STANDARD
  0
DICTIONARYVAR
  5
77
102
{ACAD_REACTORS
330
76
102
}
330
76
100
DictionaryVariables
280
     0
  1
STANDARD
  0
DICTIONARY
  5
1A
330
19
100
AcDbDictionary
280
     1
281
     1
  3
BUMPTILE
360
1C
  3
DIFFUSETILE
360
1B
  3
OPACITYTILE
360
1F
  3
REFLECTIONTILE
360
1E
  3
REFRACTIONTILE
360
20
  3
SPECULARTILE
360
1D
  0
DICTIONARY
  5
12
330
11
100
AcDbDictionary
280
     1
281
     1
  3
BUMPTILE
360
14
  3
DIFFUSETILE
360
13
  3
FBXASSET
360
109
  3
OPACITYTILE
360
17
  3
REFLECTIONTILE
360
16
  3
REFRACTIONTILE
360
18
  3
SPECULARTILE
360
15
  0
DICTIONARY
  5
22
330
21
100
AcDbDictionary
280
     1
281
     1
  3
BUMPTILE
360
24
  3
DIFFUSETILE
360
23
  3
FBXASSET
360
BA
  3
OPACITYTILE
360
27
  3
REFLECTIONTILE
360
26
  3
REFRACTIONTILE
360
28
  3
SPECULARTILE
360
25
  0
DICTIONARY
  5
E84
330
67
100
AcDbDictionary
280
     1
281
     1
  3
ACAD_XREC_ROUNDTRIP
360
E85
  0
DICTIONARY
  5
E82
330
65
100
AcDbDictionary
280
     1
281
     1
  3
ACAD_ROUNDTRIP_2008_TABLESTYLE_CELLSTYLEMAP
360
E83
  0
XRECORD
  5
1C
102
{ACAD_REACTORS
330
1A
102
}
330
1A
100
AcDbXrecord
280
     1
270
     1
271
     1
  0
XRECORD
  5
1B
102
{ACAD_REACTORS
330
1A
102
}
330
1A
100
AcDbXrecord
280
     1
270
     1
271
     1
  0
XRECORD
  5
1F
102
{ACAD_REACTORS
330
1A
102
}
330
1A
100
AcDbXrecord
280
     1
270
     1
271
     1
  0
XRECORD
  5
1E
102
{ACAD_REACTORS
330
1A
102
}
330
1A
100
AcDbXrecord
280
     1
270
     1
271
     1
  0
XRECORD
  5
20
102
{ACAD_REACTORS
330
1A
102
}
330
1A
100
AcDbXrecord
280
     1
270
     1
271
     1
  0
XRECORD
  5
1D
102
{ACAD_REACTORS
330
1A
102
}
330
1A
100
AcDbXrecord
280
     1
270
     1
271
     1
  0
XRECORD
  5
14
102
{ACAD_REACTORS
330
12
102
}
330
12
100
AcDbXrecord
280
     1
270
     1
271
     1
  0
XRECORD
  5
13
102
{ACAD_REACTORS
330
12
102
}
330
12
100
AcDbXrecord
280
     1
270
     1
271
     1
  0
XRECORD
  5
109
102
{ACAD_REACTORS
330
12
102
}
330
12
100
AcDbXrecord
280
     1
 70
     1
 90
1959938040
 71
     1
  1
5CA711E9-1C5A-458B-899C-CB16223CA6F4
311
504B03040A00000800007A98D5423DEE336E79000000790000001B0000006175746F6465736B2D64657369676E2D7061636B6167652E786D6C3C3F786D6C2076657273696F6E3D22312E302220656E636F64696E673D227574662D3822203F3E3C666F726D6174733E3C666F726D61743E687474703A2F2F736368656D612E
311
6175746F6465736B2E636F6D2F64657369676E2D7061636B6167652F323030393C2F666F726D61743E3C2F666F726D6174733E504B03041400060808007A98D542D486FD9CA0000000F4000000130000005B436F6E74656E745F54797065735D2E786D6C7D8EC10E82300C865F65E91D8A1E8C310C0EEA1BF002731658846E
311
D98AC1B77784ABF1D8FE5FBFBF75BBCE937A534CCEB38643598122B6FEE978D0B0485F9C41B54DDD7D022595594E1A469170414C76A4D9A4D207E29CF43ECE46F218070CC6BECC4078ACAA135ACF422C856C0E68EA1BF5669944DDD7BCDE7B1F8E415D77AECB980613C2E4AC91FC167A2B244592486606FC29C8FD7F045B9A
311
EF7053A7E60B504B03041400060808007A98D54207E7C803EB0000007C01000008000000636F72652E786D6C8D904D6EC3201085AF82D856D8FC386E6C61A2B8954FD00B20202E4A0C9681AAC72F248ED4EEBA9AD19BF7CD8C1E3F7D2F37F065B660BD1B20A93004C629AFAD9B0798E2051D213809BE791F7FD92070723103
311
2C32147CDE7C5A774979178D8B59755E9B5D9421980881BAE56680417D9A455632C5EC08D76A95EA2A6753916797E194AC068F2356E77DF662CD06454B8FA47B7B6DD0786667D4342D46DDFB34A2B66B8E741A274A29E17581058F7679DE579B91D1682828260CE11651F241BA1EB3FEC05EF0A16798D7C5FE074AABFE2794
311
AC8B8CEEEF3EB0004579E43E10BC2E59E4720F2AD7929BF801504B03041400060808007A98D54255019EA25F0000007C00000007000000636E782E786D6C4DCB3B0E80201045D1AD90E915ED2CF8AC45050C11660C8261F98AB1B07AC9C97D42D718D865D3E909258CFD00CCE24AC6E326A164D74DC0B4128928FF32603847
311
2BA13128B1252AC747C6BAB984FC68F0B87FE8960A5C09FE86CFB69FBA01504B03041400060808007A98D5426A3C69B967010000020300000C0000006662782F636F72652E786D6C8D525B6E833010BC8AE5DFCA180CA121328E925639412FE0804351C046C646397E9747445345518564AC999DDDD901BEBFB50D1A94ED6B
311
A3731C0521464A17A6AC759563EF2E648BD15E706B8CFB55869196ADCAF10863C12B6B7CB74085D14E6907A836A55A40D9F7CA61543470C9715F7CAB5606D23BA8E8AF41278BABAC54100540439DE0BDB36000CD43C6138BCBF9C6E98C0BEE7D5D2E6C5DC2B4FA522B8B45CAB651F6F19E90E3213E90244943927D9E8E24CD
311
922D3B1D4F8CB188D3512CB8ABDBBBBBC22AE95489050BA398842961D15794EDC278B789DFC2CD2E0E391DCB1F44BE2BFF29F2B576315BECCEB21E8BD1C844FCD9162272A89703F8A182D33144784D093F060D8140C84E9E9BFB1E57800655386313604AE3576A908D57303544D3C3E9CC42E7A9016CF6B40F7BD1E7750FF8
311
805257604D3AB89EBD1BA7F379EA1245A72C19DC0D69635BD9ACE6668BEBB90E7A2A2F4C63EC7FD47459952E61D2F1EF153F504B03041400060808007A98D542CEFEB4AF7E0000009D0000000B0000006662782F636E782E786D6C4DCCD10A83201886E15B91FFDC65D650418DB9ADFB886521990EA76397BF1A1DECE88387
311
8F57769FD5A3B74D2F178382FA4400D9F088A30BB3829227CC01755AA618F3DF0D501856AB6067D0724EB13C0F1AED34149F37F52E2C07DEFA9E12D1304CA821B8ADEF028B96187CE58D6167CAF84550A8B4AC7EA56DF7B0FE02504B03041400060808007A98D5420FE152522B01000014020000310000006662782F444646
311
32303933372D303242302D343145392D393430422D4338334237353237384139322F636F72652E786D6C8D515B6EC32010BC0AE22B55651BFC7684899AB639412F4030495062B07854397ED7B523B57FF961D1ECCCEC6897EDEEE30D7D2BE7B5353DA629C1481969076DCE3D8EE194B418ED3873D6863F348C8C18558F6718
311
737676364E2B24AD09CA04408D1DD40A0AEF55C048DEE0D3632F2F6A14A9880118FE9A4E425EC559A5348536F038F3C14100B40C995FCC3F0E879C744593907C4F92927E764957927DF2DE16FBA6CA9BF6ADCB59B608398B510FAB5C0F10479FB472CF9ACC62CE821E1FF1A55322A801F39CD022217592D32FDA6D49B1AD8A
311
57526D0BC2B299FE4F14A7E14951D42614F91A779179CC29CB960667838DC7DB238CBA4FD60534CFDB78255F302729A1B4AD1B0292850A0B00CFBA5C3D7DB00E16BCB91E814DABC5B82E39CBE61B41F93D20D4F99EFC07504B03041400060808007A98D5421BF9141E4E01000033030000300000006662782F444646323039
311
33372D303242302D343145392D393430422D4338334237353237384139322F636E782E786D6CD593CD6E022114855F85B06DE6CF51D31A06932EFA045D74CBC055A90C4CF869EADBF7A268DDB8E8B21B3239F770CECD17866DBF2743BEC007EDEC40BBBAA504AC744ADBFD4053DC55CF946C39F3CEC53B1B25564C30D02C53
311
CEF6DEA5B9480A76229988AAD1F658440FC1252F21A09C6F12E3A4301800B64A28C2348252A0C8CD885F3BF0B80A8AE389C40390B7D70FE2C64F9031B026A770D6E40ECEF2599AEE4C944823421868900798442D52740AC2B156228ABAABAF5D0F76FA4D22F9C2B532794D72F940F34979D9A8468EACC12167217AA4574CF1
311
3403E5629E8D962222E4E66CBC78384BDAC6F5B2783582F7E8EED6FD728961E71967514F501CD28388A0285FB45D5FB5EB6AD1BD772F9BB6DFACFAA776B5E95BD6643B67A373A65CC218F06E26D2D9083652DEB1268F1FE12B3EA2B447D6CE9FFE00120194D60B9D5BC67FE6D39CDF37E2F2F817F01F504B03041400060808
311
007A98D5420878AE32A405000081100000340000006662782F44464632303933372D303242302D343145392D393430422D4338334237353237384139322F6F626A656374732E786D6CAD57D96EDB3814FD1541F332F3E045B693C603458597A630DAB4458D16F360C0A0254AE1845A405289335F3F8722254BAE9D7A067DD1
311
C2E5F2DE73CF5DE8BFDDA7DC79A242B23CBB75BDFED0756816E611CB925BB75471EFC675DE06BEC873D55AE63A1949E9ADAB87DDC04F445E167628A23129B93A1ABD9BFFE5C89066D475424EA4BC7565F84053D227A5CA232A1FFB1151A49FC4FBBED7370BBB6213418A8723A105113453D014E319A4384629AFFB3B740781
311
3FD0F381AF9F76D5F8FCAA41654FF77C964945B2F087C38EC48CBDC9F2DDE86ADABB9A4CC6BDC9F5C8EBCDEFE6CB9EF7663C5C5C2F16D3D9BB290E964A4092D544D0D80DDE031BC1427F60A602BF64991A8FEC12EBA081A04F4C7BCA0D468EE70FCC9AC63A6BE429F5C33CCB68586105342AFBACE88816348BE0734625346B
311
2134ECFE7A1AC7D6F458FFDB23DBC39721D0DED11254EB5EBFDB9AE6BBBF6182BC84414252CD4083A535D4707578407897E7DCCE31E9A44451C1087738DB09225EDC004BF592C0EF88D14C163A1AB4056E002F98E92E5D10463FE7F9292DE392734D6337A8A2608B58A14A569AB17FA83868DF46063AC1579A0D37D620F552
311
5037981A8ADC1CB1C900E9C49C247039CCD43BC7A32343173A4E574B37F870B7DBAF75EC9E3EBC10794185D2F401B56AC7D56F8D92D5C9BBC8737A837BA4CA0194AF40FE1342FDA00AFC26D87EB29FD8539420998C7391C237CED0E90DF1183A5EF5D4DFAD2F7FD06CEE7AEF1C9E70B686EA17E0D9B5A1EDCB169C81FF04C2
311
E7626C4D5B8784236DDCB30C006992383CC710F270BCDBBBC10A590E5919BB080F3C980C759FF0E90FAC18248AEAA4D63B03964769F182040DD82A46420D437EABE0C14F3FA4B3EA60BBEC1CBC57BF84AEB3E5FAC3BA143109E9BD8DE9258D59C6144ADC81376D853A98772C7AA42FCFB98860E88F78AFDB78A7F62809B435
311
E61AF8A4CEE9FAE77072E78010FB925CA71BFF2727C0085D585BF2EF990C29E724A379599FFB6AFD40D93010EB60D74C6E0ACCA1B0803466E6280651A443C10A0D6253AD9AA4D93F63DDB7D52730D20DE62F1FC94B3B7BED0EB937CC792EB6BB97AD494B27A1FEDEE5B6C560A0A580EE5590D4F16F41DF462C8E4B89247802
311
D7EFAB45DB773A2D2045D4524DB44C603F828B084BDA5A2EAAB520A8A479B665A89B88BB9307B4E50352CB804AE0398D25E5F196715EA6DB987154A36D4A8A3370FC7FFD77655A6C499A97993A23BBA33AAA4357F70E7BE53351E1831BACAB776F8EDC1BD1E80C19742D398155C7B5578BD91BCF7B37ED798BAB596F727533
311
EFDD4CA78BDE62EE5D8F46E3C5ECFA6E52FBC96812F875A9694734BC84D2E6978259F77D5B217E6C1270837BA2E4E6BD09CFFAFD6DD5472FEC0FB007F5B2D9388B9ED0F7D1E8E7020E2B4F0A5AA505A729CD14D13174AF3FF857823EA3A38C195FA524A11748F9FC7E7D640C462ED8F745C73B7D3EDA6B47173A204F0A510F
311
65BACB08E3471B138364BFC8128B5FED93E66D0A4DFDABFFAC63D099CA9CB308793072129AA754211B5E5084444A25A8D7EEE9237BF7B860F793E91015D9715A6BF240D0247389B000B5CA5075C79DDFD0D4E9BEEAD645B9ED3FE2613385EB8033B72E9A74C5422AFB3B1468DD0A55C2C1A576278FC69F640947AF6D3635FF
311
CD2E8D4DA724374B2EE99FAC5D26855B0390460AF40D6888E09D4A99C0AF74B3F3E17F32BC56C7210A9FBB5235B61C061A63AA6310A2C6287B5B4013F3688FDE23505F37CBEB576B3A885C74CB7A9504466A4F1191543705AD9F5569B6FC324087E2AC3E3B052F13F8F272493D4141E652073858045658990551A0EAE2CFCD
311
1791E3269B3A770C14707EDFDF5CFFB159E4699A67666833B3F76167FD80DB6DB44172A0FA5A2237A3A137DA54D7017B43D9EE88A47D12C9470CC0B382354077DC0F5E9A3B23EA909968D60DB42B8E18BA5A3AB6B021D3D6EBDBB9558383C623A30E62485F2975C4B41714AFDE0806D552A820D0CB07FF02504B0304140006
311
0800007A98D542000000000000000000000000350000006662782F44464632303933372D303242302D343145392D393430422D4338334237353237384139322F76657274696365732E62696E504B03041400060808007A98D542F270F1330600000004000000360000006662782F44464632303933372D303242302D343145
311
392D393430422D4338334237353237384139322F747269616E676C65732E62696E636660600000504B03041400060800007A98D542000000000000000000000000370000006662782F44464632303933372D303242302D343145392D393430422D4338334237353237384139322F617474726962757465732E62696E504B03
311
041400060808007A98D542D5987DFC8F00000041010000360000006662782F44464632303933372D303242302D343145392D393430422D4338334237353237384139322F6469726563746F72792E786D6C858F410EC2201045AF4266AF15DDB800BA74E7C21B903225242D6328188F2FA5C4183471359997F9FF81E89FF3C4
311
1E1816475E02DF1F80A11FC8386F25A438EECEC07A250251FC3803E6F58C12560C4AD840E95E91C151A72936F496F35732D860FE635F62C8F2DA16B505C545B74125BAA2FA9E05D7CC053D063734D5C7665FD55B6B8D15D5E9BFEAFD8490FFA45E504B03041400060808007A98D542D88902BBFD000000A00100003B000000
311
6662782F44464632303933372D303242302D343145392D393430422D4338334237353237384139322F7265736F75726365732F636F72652E786D6C8D50596EC23010BD4A34BF95132F9012E418412B4ED00B58CE0016C4465EAA1EBF36A452FBD79F99D15B344F4FEEBEE65BF389215AEF46602D85069DF19375E711723A91
311
0D343B2583F7E9970C1AA7671CA1C2A0E439F87C5F20E35D42970AEAFC840BA863C4048DB9956384682E38EB56E75414F1DADEB5B9EA33B6AC2D74D129195328019AE7933A41058C3E078351764F56C99CEDB468EC547EDA93C500AAE71B36BCBD0A72D88B3D59AD7A4A86F7E381F4C36AC38F8723E79CC9AE9A954C76FEC9
311
6802EA8413284E9920B4279C7DB0614BC5762D5EE87A2BA8ECAAFC8F29DFA77F9AB27549F025EED31641D5200F42C9AEF655D6A3CCB26BB7EA1B504B010214000A00000800007A98D5423DEE336E79000000790000001B00000000000000000000000000000000006175746F6465736B2D64657369676E2D7061636B616765
311
2E786D6C504B010214001400060808007A98D542D486FD9CA0000000F40000001300000000000000000000000000B20000005B436F6E74656E745F54797065735D2E786D6C504B010214001400060808007A98D54207E7C803EB0000007C010000080000000000000000000000000083010000636F72652E786D6C504B0102
311
14001400060808007A98D54255019EA25F0000007C000000070000000000000000000000000094020000636E782E786D6C504B010214001400060808007A98D5426A3C69B967010000020300000C00000000000000000000000000180300006662782F636F72652E786D6C504B010214001400060808007A98D542CEFEB4AF
311
7E0000009D0000000B00000000000000000000000000A90400006662782F636E782E786D6C504B010214001400060808007A98D5420FE152522B010000140200003100000000000000000000000000500500006662782F44464632303933372D303242302D343145392D393430422D4338334237353237384139322F636F72
311
652E786D6C504B010214001400060808007A98D5421BF9141E4E010000330300003000000000000000000000000000CA0600006662782F44464632303933372D303242302D343145392D393430422D4338334237353237384139322F636E782E786D6C504B010214001400060808007A98D5420878AE32A405000081100000
311
3400000000000000000000000000660800006662782F44464632303933372D303242302D343145392D393430422D4338334237353237384139322F6F626A656374732E786D6C504B010214001400060800007A98D54200000000000000000000000035000000000000000000000000005C0E00006662782F44464632303933
311
372D303242302D343145392D393430422D4338334237353237384139322F76657274696365732E62696E504B010214001400060808007A98D542F270F13306000000040000003600000000000000000000000000AF0E00006662782F44464632303933372D303242302D343145392D393430422D4338334237353237384139
311
322F747269616E676C65732E62696E504B010214001400060800007A98D5420000000000000000000000003700000000000000000000000000090F00006662782F44464632303933372D303242302D343145392D393430422D4338334237353237384139322F617474726962757465732E62696E504B010214001400060808
311
007A98D542D5987DFC8F0000004101000036000000000000000000000000005E0F00006662782F44464632303933372D303242302D343145392D393430422D4338334237353237384139322F6469726563746F72792E786D6C504B010214001400060808007A98D542D88902BBFD000000A00100003B000000000000000000
311
00000000411000006662782F44464632303933372D303242302D343145392D393430422D4338334237353237384139322F7265736F75726365732F636F72652E786D6C504B0506000000000E000E0080040000971100000000
310
504B03040A00000800007A98D5423DEE336E79000000790000001B0000006175746F6465736B2D64657369676E2D7061636B6167652E786D6C3C3F786D6C2076657273696F6E3D22312E302220656E636F64696E673D227574662D3822203F3E3C666F726D6174733E3C666F726D61743E687474703A2F2F736368656D612E
310
6175746F6465736B2E636F6D2F64657369676E2D7061636B6167652F323030393C2F666F726D61743E3C2F666F726D6174733E504B03041400060808007A98D542D486FD9CA0000000F4000000130000005B436F6E74656E745F54797065735D2E786D6C7D8EC10E82300C865F65E91D8A1E8C310C0EEA1BF002731658846E
310
D98AC1B77784ABF1D8FE5FBFBF75BBCE937A534CCEB38643598122B6FEE978D0B0485F9C41B54DDD7D022595594E1A469170414C76A4D9A4D207E29CF43ECE46F218070CC6BECC4078ACAA135ACF422C856C0E68EA1BF5669944DDD7BCDE7B1F8E415D77AECB980613C2E4AC91FC167A2B244592486606FC29C8FD7F045B9A
310
EF7053A7E60B504B03041400060808007A98D5428E26031EE90000007C01000008000000636F72652E786D6C8D904D6EC3201085AF82D85638604A4B2C4C24A7F5097A010413172506CB40D5E317E7476A775DCDE8CDFB66464F1DBEE70BFA8235F9187ACC1A8A11041B9D0F538F4B3E1189D141AB35C6FCCB86513033F478
310
93B156D31ACB72976C0C1942AE6A880EEEA249093246F6529B1E27FB09B3694CC9D591CECD62ECD94CD0B04757E152BC43B723DED57DFEE461C5BA1DD8BBE48293F1558CE4F9384A320C6F921C05A55C0E741492AADD066B95FDFCB86F5730195CE529E384BE90967DB07D477927F813151DAFD066FF0395C5FD132A3E64DE
310
DEDFBD61096B561FB90EB4DA6D59D4720DAAD62D37FD03504B03041400060808007A98D54255019EA25F0000007C00000007000000636E782E786D6C4DCB3B0E80201045D1AD90E915ED2CF8AC45050C11660C8261F98AB1B07AC9C97D42D718D865D3E909258CFD00CCE24AC6E326A164D74DC0B4128928FF326038472BA1
310
3128B1252AC747C6BAB984FC68F0B87FE8960A5C09FE86CFB69FBA01504B03041400060808007A98D542B024E89666010000020300000C0000006662782F636F72652E786D6C8D525B6E833010BC8AE5DF0A3038B434328E445A4ED00B38E05014B0911F28C7EFF28868AA28AA908C35B3B33B3BC00ED7BE43A334B6D52AC7
310
71483092AAD275AB9A1C7B770E328C0E9C19ADDDAF328C94E8658E271873D618ED8715AAB47252394095AEE50A0A6BA5C3A8EAE092635B7DCB5E84C23BA8B0977010D54534328C43A0A18E33EB0C1840CB90E9C4FC7CBAB268C139F3BEAD57B6AD615A7B6EA5C13C29E2CF8CA63428DFD232D81DCB2C288A8F2C38A684D0AC
310
20659A11164D62CE5CDBDFDC55460A276BD0939806E43548E2AFF87D4FE83EA52F24DD53104DE577223FD4FF14F956399AAC761799C53C062333F1675B88C8212B46F01371164D21C26B4EF83E6808044276E2D4DDF6B80034CACA69B303A6D67EA346D1790953099A1F162D2C749E1BC0660FFB244FFA3CEF011F50A806AC
310
0907D79377D374B64C5DA318A4094677454A9B5E749BB9C5E2766E831ECA2BDD69F31F75B4AE1AAD6146D3DFCB7F00504B03041400060808007A98D54234568CE17D0000009D0000000B0000006662782F636E782E786D6C4DCCD10A83201886E15B91FFDCF52BB112D490CDEE239685AC349C8E5DFE6A74B0A30F1E3E5ED9
310
7DD685BC5D7AF91814B00B0271E111471F6605254FB405D2699962CC7F372061589D828341CB39C5B29D34BA69284BDE75F1E179A2E9F9ADB70D52BC324B6B839C1A148CB2A66EB9BD73148241A565F52BED7B84F517504B03041400060808007A98D5426A5878FD2A01000014020000310000006662782F41463243464537
310
302D303631452D344130322D413039312D3137343832454432303939312F636F72652E786D6C8D515B6EC32010BC0AE22B55651BB0F3708489A23639412F4080242831583CAA1CBFEBDA91DABFFCB06876667660F9EED1DFD1B709D17AD7615A128C8C535E5B77E9704EE76283D14EF0E07DFA43C3C8C9DE747884B1E097E0
310
F33043CABB645C02D4796D6650C6681246EA0E970E477535BD2C654EC088B77290EA262FA6A425B48127784C0102A069C87862B13FB28FE3614D0AB2A287A2D91356EC494B0BBA6E36ECF0C948DB525E4D42C173B67A965B0D71ECD99AF0AAC928163CD9FE195F052393D15830426B085030FA45DB2DA9B7CBFA9D2CB735E1
310
D548FF27CA837E5194AD4B359BE34EB28805BC666A08AE7D3EDD9F61CC63F021A171DE221AF5860529096594B1F5865713153E003C57CDEC19930FF0C18BDB09D8F56CBC6A04AFC61D41F95D20D4719FE207504B03041400060808007A98D5427D5EDB095601000033030000300000006662782F41463243464537302D3036
310
31452D344130322D413039312D3137343832454432303939312F636E782E786D6CBD93CD6EC32010845F0571ADFC1727561A6122F5D027E8A1570C9B84068305B86ADEBE4B42D25C72A854F582ACD96166F509B3EDD768C827F8A09DED6953D69480954E69BBEFE91C77C59A922D67DEB97867A3C48A117A9A64CAD9DEBB79
310
CA92829D984D44D5687BCCA287E0662F21A09C6E12E3A4301800B69851847100A540919B11BF76E07115148713890720AF2FEFC40D1F206360554AE1AC4A1D9CA53337DD9928914684D0D3200F308A52CCD12908C7528928CAA6BC763DD8E92789A40BD7CAD96B92CA7B9A4ECAF346257264150E390BD123BD6C8AA7092817
310
D364B41411215767E3C5C3D9AC6DEC96D9AB11BC4777BBE8D66B0C3BCF388B7A84EC901E440445F9A26EDAA2EE8A45F3D63C6FEA76B36A9FEAD5A6AD5995EC9C0DCE997C0963C0BB89486723D84879C3AA347E842FFB88D21E593B7FFA054804905B2F746E197FC9A7E9DAE5F21FF954E7F78DB83CFE05FC1B504B03041400
310
060808007A98D5424AF43914630700009A1B0000340000006662782F41463243464537302D303631452D344130322D413039312D3137343832454432303939312F6F626A656374732E786D6CED595B73A33614FE2B0C7D691F8C8D2FD9A443D8499CCD8E679BED4EDDEDF4C1338C0C3251230423896CDC5FDFA30B18884970
310
9BBEED830D08E9E89CEF5C7508DE3F65D479C45C909C5DBABE37711DCCE23C212CBD744BB91B9DBBCEFB30E0792E1BD35C87A10C5FBA6AD80D8394E765618712BC4325959DD1DBEB3F1D1163865D27A648884B57C4F738431E2A659E60F1E02548222FDD3D79BE6726B6C9A61C15F71DA205E29849E014C61950710C537EFB
310
71E28EC360ACDE8781FAB7B3668366CDFB678DB5D46D2E091312B1F8194B1D32B3412CCDFCF9CD87E9E262B498CF67A3F9D9D41F5DDF5EDF8CFC77B3C9F26CB9BCB8FA7001EC6DF39C5A99125C609680FEF66EE80763F5A616DD22708CEB38670CC71A48804A8BD52548B080AD1AF04DDA8FBE92A8F15A4BD8789EABF79685
310
C6F0AC4DA56FD630205A744110BB5D2571756DCA976FFF02C1C510A3E4024BE056480EDAB5F070F00A379C0463331A06DB832E887032243127883A946C39E2A01498AAA684815960C928E7E040CA511268CD99D76DDB02CF7CDD758E71B92B29559EE186DAB122703F2C85E68CFC8DF981FB2632C013485B1226CF2D97725F
310
6037BC08C67A300CD46536B52F0D90CE8EA2546844CCDB8EA04BE5FAAB1B37FC74BB7D5AAB70707CF382E705E652199DD2A3E60B0CD95E154A765B7F90E6D40210C6806A571E40F90D90FF0CD1E3C00AE88D93A7F9D3DCCE951C31B1CB7906BA7126CE68027F13C7D7FFEABE71178CEBC56DEDF5E1096EAAA03AFFEF78B665
310
D05859FE1B7086C123187CCE67F6D53A4614ECF98E300048198943731882D0BEDB3EB9E10A0227047A588568E883C8C0EE23DC06634BE6A095CABDACD73140D4EE311BA224804D5B24B0D1A3A78F903D38890F6A6A8AD807EFE24DCCF5EA66FD695DF21D8AF19DF5E91BBC238C48C89AC7196A61DE92E801EFBFE53C01419F
310
E3BD6EE29DD9AD04A0AD3057C0A71508EAE1B0736B8318D6A5B90A37C12B3B80102A5737E8DF1111634A11C37959ED5B473765A8B5C7DB9AC10DA706E2D9B463C21C3F12555580D31C66B41885BC1F73522810DDF0A391AC0E9A5E8F745F579FC122EBF93DB3560C422F43F4771DB48EE0D0B2EC0A690B442DF0F610CEE39C
310
E63CDAEE2313E95CA825808DB6B7FCD1220AB1DE284951010FD27E578594D4481B2564B72B05C4D5232CFEB15A36CD61E2CDFC85D3FCEF38E31CA22DF82EE2D6EF3A7B442443298E7628E9DBAEB95B4D5B68923DA439DE51908B3C12B98F908C26094E4F81E624E2176F4A3DA5B910846101F9EA28F84D34261E0412A3CD8A
310
65A5D50ED044441996889E828022D303AE4E3BBAC68DA174789DC7DA7A5FD25893E8FF64111C412D99B38840290A39E455C67D6F0131A48DAE41B9832F585B455B8B414B2821E27DF40D93F45E9E82BA21DF837B0C4792524679816230EB01649FF98A526A87F72D8A1F54FE88E292BE9581084C7711A1B4CC22F81106278F
310
21AE5D07A61751681037B14FE20C8A32244B3E6493B3C5E4D93EA666E886C0C6463B42216C47192A7A506F05445D8F3835F8967A8F52B765564428CB4B36C850BC59D79B2CF9AE5A15D981FCAA5211CAC68AB025180684C93AAB56311B4C5D075670231DA8F691405941CD29EC95C4E3D7DEA429F76EC0AD9FBEED0619147E
310
3DDA6B46D4790583E5B15518886F48C6F76EB8D6D7D135D4DF094E0EA9BEAA359B152020A62279C98955D1D7159437B64673C33B24C5E6A3C9BAD5F5EBCA83EE4730863550BBD40B570AE80C3389546572A76EE86F0842708B86195FA99C7A0A95AB24D15523A2B7A44F9DAD32A2B56946BCE21EB33C831FDB1016D332C11B
310
948887E84ED2684D14EB564A2F2315C62F0AF8EBC775071E181920D21755E0E16F9DB57674A9CAA5A344E47D996D192210045BA2A546375EC152AB914ACBF5559D29A0EE0203B32A9E7F3F5934DB11DF4F16A9358CFF74B2B8DEFF82F6CDBE48239DC7CAAE4F3A06D4F94951798B63806E3BD454EB2C6292B995DF3A530441
310
B18AF283ABB12A6818827D1CFFEBACDD9705CD761DFE4FCBDAFEB38AE3A4ACD29AACBA54472AD75533872D9657EF7CFFC3C5C85F2EAE46F3C5F9F5E8FCE262395A5EFB67D3E96C7975763BAFD1D48E1A067530D3B90B9E4D50AB86D593C500BAB222A72481D37CE2A41862BE8433FD80F639CFB080E4D96C7627B6293F60F5
310
A3E9734AB4A5B8E2E41E4183980A48EB805119CBF6B8F303B426251CB42F5D681A790FF067ADD27520F35CBAD02A9024C6C2DB429B4935F4347148B93AF75B62800F62A94A896651FD5CAF52D8B4C27F3D65481AB072B57A1850B815D0FD6A7528346F96A7F824C12B761C24E1765B4AA8D68C2C87815A18BDCD41FD46364A
310
D883DDFA095CF765B17C4FCF692132E893C18B4660A88E24E2A9EE772BC62C4B57375FC6D0677356BF3A052D53D0E5704A238EC1984B555081158155589A059260AACB9F375F780E9F7832475745CE8F4FE7673F6D967996E5CC0C6DAEE05496C08722677D0F9F7D920D140F5835D7C5663AF1A71BDDD4B67DF6688B04F654
310
5504035531A104E9981CD8E5B306956D5F8E952A3AD357378E0DA2D00C3076F4ACC76B3E7239E043EA738AF218EDE795B42FF6B5C77A2AD804878E74F80F504B03041400060800007A98D542000000000000000000000000350000006662782F41463243464537302D303631452D344130322D413039312D31373438324544
310
32303939312F76657274696365732E62696E504B03041400060808007A98D542F270F1330600000004000000360000006662782F41463243464537302D303631452D344130322D413039312D3137343832454432303939312F747269616E676C65732E62696E636660600000504B03041400060800007A98D5420000000000
310
00000000000000370000006662782F41463243464537302D303631452D344130322D413039312D3137343832454432303939312F617474726962757465732E62696E504B03041400060808007A98D542D5987DFC8F00000041010000360000006662782F41463243464537302D303631452D344130322D413039312D313734
310
3832454432303939312F6469726563746F72792E786D6C858F410EC2201045AF4266AF15DDB800BA74E7C21B903225242D6328188F2FA5C4183471359997F9FF81E89FF3C41E1816475E02DF1F80A11FC8386F25A438EECEC07A250251FC3803E6F58C12560C4AD840E95E91C151A72936F496F35732D860FE635F62C8F2DA
310
16B505C545B74125BAA2FA9E05D7CC053D063734D5C7665FD55B6B8D15D5E9BFEAFD8490FFA45E504B03041400060808007A98D5429D8D2D86FD000000A00100003B0000006662782F41463243464537302D303631452D344130322D413039312D3137343832454432303939312F7265736F75726365732F636F72652E786D
310
6C8D90DD4EC42010855FA5E1D6D04211AD0D6593AEF6097C0142672BD92D34FC181F5FD8D644EFBC61C839E7CB9C8C387DADB7EA137C30CE0E88D6045560B59B8D5D0694E20577A83A49E19D8BBF62A8B26A8501151949B17897B643D2CE46B031ABD6CD70882A0488A8D2B7FC1950D01FB0AA5AA59813E15A6F4A5FD50235
310
ADB39D735284E873816A5F525E243D0497BC86209ADD952225331F1933E79DE662C023D98EF4AD63BCC5D3339FF0E379EAF038BE76F8CC0961DD4826DE11D114588A68D69F8EDA838A30679E5086C9136EE93B7DE909EB397B20BC67192AF13F50DAE67F42C9D8C8DAA3EE8E0524692E7237A468CABDF2B81F33CF725BF90D
310
504B010214000A00000800007A98D5423DEE336E79000000790000001B00000000000000000000000000000000006175746F6465736B2D64657369676E2D7061636B6167652E786D6C504B010214001400060808007A98D542D486FD9CA0000000F40000001300000000000000000000000000B20000005B436F6E74656E74
310
5F54797065735D2E786D6C504B010214001400060808007A98D5428E26031EE90000007C010000080000000000000000000000000083010000636F72652E786D6C504B010214001400060808007A98D54255019EA25F0000007C000000070000000000000000000000000092020000636E782E786D6C504B01021400140006
310
0808007A98D542B024E89666010000020300000C00000000000000000000000000160300006662782F636F72652E786D6C504B010214001400060808007A98D54234568CE17D0000009D0000000B00000000000000000000000000A60400006662782F636E782E786D6C504B010214001400060808007A98D5426A5878FD2A
310
0100001402000031000000000000000000000000004C0500006662782F41463243464537302D303631452D344130322D413039312D3137343832454432303939312F636F72652E786D6C504B010214001400060808007A98D5427D5EDB0956010000330300003000000000000000000000000000C50600006662782F414632
310
43464537302D303631452D344130322D413039312D3137343832454432303939312F636E782E786D6C504B010214001400060808007A98D5424AF43914630700009A1B00003400000000000000000000000000690800006662782F41463243464537302D303631452D344130322D413039312D313734383245443230393931
310
2F6F626A656374732E786D6C504B010214001400060800007A98D54200000000000000000000000035000000000000000000000000001E1000006662782F41463243464537302D303631452D344130322D413039312D3137343832454432303939312F76657274696365732E62696E504B010214001400060808007A98D542
310
F270F13306000000040000003600000000000000000000000000711000006662782F41463243464537302D303631452D344130322D413039312D3137343832454432303939312F747269616E676C65732E62696E504B010214001400060800007A98D5420000000000000000000000003700000000000000000000000000CB
310
1000006662782F41463243464537302D303631452D344130322D413039312D3137343832454432303939312F617474726962757465732E62696E504B010214001400060808007A98D542D5987DFC8F000000410100003600000000000000000000000000201100006662782F41463243464537302D303631452D344130322D
310
413039312D3137343832454432303939312F6469726563746F72792E786D6C504B010214001400060808007A98D5429D8D2D86FD000000A00100003B00000000000000000000000000031200006662782F41463243464537302D303631452D344130322D413039312D3137343832454432303939312F7265736F7572636573
310
2F636F72652E786D6C504B0506000000000E000E0080040000591300000000
  0
XRECORD
  5
17
102
{ACAD_REACTORS
330
12
102
}
330
12
100
AcDbXrecord
280
     1
270
     1
271
     1
  0
XRECORD
  5
16
102
{ACAD_REACTORS
330
12
102
}
330
12
100
AcDbXrecord
280
     1
270
     1
271
     1
  0
XRECORD
  5
18
102
{ACAD_REACTORS
330
12
102
}
330
12
100
AcDbXrecord
280
     1
270
     1
271
     1
  0
XRECORD
  5
15
102
{ACAD_REACTORS
330
12
102
}
330
12
100
AcDbXrecord
280
     1
270
     1
271
     1
  0
XRECORD
  5
24
102
{ACAD_REACTORS
330
22
102
}
330
22
100
AcDbXrecord
280
     1
270
     1
271
     1
  0
XRECORD
  5
23
102
{ACAD_REACTORS
330
22
102
}
330
22
100
AcDbXrecord
280
     1
270
     1
271
     1
  0
XRECORD
  5
BA
102
{ACAD_REACTORS
330
22
102
}
330
22
100
AcDbXrecord
280
     1
 70
     1
 90
1959938040
 71
     1
  1
B1EDBB74-3EDB-4F89-9C45-70A38302D3A2
311
504B03040A00000800007998D5423DEE336E79000000790000001B0000006175746F6465736B2D64657369676E2D7061636B6167652E786D6C3C3F786D6C2076657273696F6E3D22312E302220656E636F64696E673D227574662D3822203F3E3C666F726D6174733E3C666F726D61743E687474703A2F2F736368656D612E
311
6175746F6465736B2E636F6D2F64657369676E2D7061636B6167652F323030393C2F666F726D61743E3C2F666F726D6174733E504B03041400060808007998D542D486FD9CA0000000F4000000130000005B436F6E74656E745F54797065735D2E786D6C7D8EC10E82300C865F65E91D8A1E8C310C0EEA1BF002731658846E
311
D98AC1B77784ABF1D8FE5FBFBF75BBCE937A534CCEB38643598122B6FEE978D0B0485F9C41B54DDD7D022595594E1A469170414C76A4D9A4D207E29CF43ECE46F218070CC6BECC4078ACAA135ACF422C856C0E68EA1BF5669944DDD7BCDE7B1F8E415D77AECB980613C2E4AC91FC167A2B244592486606FC29C8FD7F045B9A
311
EF7053A7E60B504B03041400060808007998D542C74D7880EA0000007C01000008000000636F72652E786D6C8D904D6EC3201085AF82665BE180FF645B98288D73835E0001715162B00C543D7E2171A476D7D58CDEBC6F66F4D8F17BB9A32FBD79E3EC08B42080B4954E193B8F10C31577808E9C6DCE855F3640562C7A842C
311
0367F3E6E2BA4BD2D9A06D48AA754AEFA2F05E0740F29E9A11BCFCD48B28440CC9E16FC52AE44DCCBAA0AF2EC1311A859E478C4AFBCCD5E80D38E97B42CE9716F797BAC5F57BDDE18E920977A77E9AE8B939552D65870C7316CCF2BA2F372D8256C04B422B4C5A5CD20FDA0FA41A1AF2469AA122EC90ED7FA0B8AA7F42D1D8
311
5095FBBB4FCC03CF8F3C069C1D7216A93C824A35E7C67F00504B03041400060808007998D54255019EA25F0000007C00000007000000636E782E786D6C4DCB3B0E80201045D1AD90E915ED2CF8AC45050C11660C8261F98AB1B07AC9C97D42D718D865D3E909258CFD00CCE24AC6E326A164D74DC0B4128928FF326038472B
311
A13128B1252AC747C6BAB984FC68F0B87FE8960A5C09FE86CFB69FBA01504B03041400060808007998D54291D9B6C967010000020300000C0000006662782F636F72652E786D6C8D52ED8E8320107C15C2DF0B821F35B5419A5EDB37B817A04A3D53058360FAF8B77E345E2F4D73314132B3B33B3BCAF7F7B64183B27D6D74
311
8EC38061A47461CA5A5739F6EE4AB618ED05B7C6B85F651869D9AA1C8F3016BCB2C6770B5418ED9476806A53AA05947DAF1C464503971CF7C5B76A6520BD838AFE1674B2B8C94A05610034D409DE3B0B06D03C643CB1B85EEE9CCEB8E0DED7E5C2D6254CABAFB5B258B02C63EC784E49764E52927C265BB20DD9896C0FD9E9
311
141E3787380D391DC582BBBA7DB82BAC924E9558442C8C094B49147E85D98EC5BB0DFB609B5DCC381DCB9F44BE2BFF29F2B57671B4D89D653D16A39189F8B32D44E4502F07F04305A76388F09A127E0E1A0281909DBC348F3D6E000DAA70C626C094C6AFD4201BAF602A43D3C3E9CC42E7A9016CF6B24FF4A6CFFB1EF001A5
311
AEC09A7470BD78374EE7F3D4258A4E5932B83BD2C6B6B259CDCD16D7731DF4525E98C6D8FFA8E9B22A5DC2A4E3DF2B7E00504B03041400060808007998D542CF63ED357D0000009D0000000B0000006662782F636E782E786D6C4DCCD10A83201886E15B91FFDCA524E9408D5C751FB12C64A6C3E9D8E5AF46073BFAE0E1E3
311
95ED67F3E86DD3CBC5A0805E08201BEE7176615550F28205A056CB1463FEBB010AD366151C0C5AAE2996E749B35DA6E2F3AEDE85C78994733E32316062CC15332218365D53E3DE8CB78136A6E93B0E9596D5AFB4EF11D65F504B03041400060808007998D542543957642D01000014020000310000006662782F3137373746
311
3438452D304242392D343038342D424136332D4442464345313642364441372F636F72652E786D6C8D515B6EC32010BC0AE22B55850DB6633B11268A9BE404BD8003244589C1E251E5F885DA91DABFFCB068766676B44B778FF10EBEA575CAE80E920C4320353742E96B0783BFA016821DA3D618FF8706811E46D9C1044346
311
AFD6846981B8D15E6A1F516D845CC0C139E921E0F7F8E9A0E35F721CB221F8C870B76C1AF86DB8CA8C64B11D798C3A6F6300300F492F64A4699A53D51E11EEFB0DAA705BA17E5F97E8D09F3E8EA4EEEBC3BEA1F92C6434042516B912318EBA28695F35496246BD1A9FF1B995839702B2029312E11A15E4936CB6B8DCAEF13B
311
5E6F4B4CF344FF270A9378511494F665B1C49D652E66A5F9DC60549870BE3FC3C8C764AC0769DECA49FE0619CE30297059151B9ACFD4B880E859578BA7F3C6C605AF6EE7C826EBD9B8AE18CDD38D62F93D60ACE99EEC07504B03041400060808007998D54218C6988C4E01000033030000300000006662782F313737374634
311
38452D304242392D343038342D424136332D4442464345313642364441372F636E782E786D6CD593CD6E022114855F85B06DE6CF51D31A06932EFA045D74CBC055A90C4CF869EADBF7A268DDB8E8B21B3239F770CECD17866DBF2743BEC007EDEC40BBBAA504AC744ADBFD4053DC55CF946C39F3CEC53B1B25564C30D02C53
311
CEF6DEA5B9480A76229988AAD1F658440FC1252F21A09C6F12E3A4301800B64A28C2348252A0C8CD885F3BF0B80A8AE389C40390B7D70FE2C64F9031B026A770D6E40ECEF2599AEE4C944823421868900798442D52740AC2B156228ABAABAF5D0F76FA4D22F9C2B532794D72F940F34979D9A8468EACC12167217AA4574CF1
311
3403E5629E8D962222E4E66CBC78384BDAC6F5B2783582F7E8EED6FD728961E71967514F501CD28388A0285FB45D5FB5EB6AD1BD772F9BB6DFACDAA776B5E95BD6643B67A373A65CC218F06E26D2D9083652DEB1268F1FE12B3EA2B447D6CE9FFE00120194D60B9D5BC67FE6D39CDF37E2F2F817F01F504B03041400060808
311
007998D542CD6CE1C2A305000080100000340000006662782F31373737463438452D304242392D343038342D424136332D4442464345313642364441372F6F626A656374732E786D6CAD57DB6EDB3810FD1541FBB2FBE08B6CA74D168A0A5F9AC228D216355AEC8301839228851BEA02924A9CFDFA3D14295972EDD4BBE88B
311
6551C3E1CC993317FAEFF619779EA890ACC86F5D6F38761D9A4745CCF2F4D6AD5432B8769D77812F8A4275C45C272719BD75F5B21BF8A928AAD22EC53421155747AB778BBF1C19D19CBA4EC48994B7AE8C1E684686A452454CE5E330268A0CD3643FF48646B0AF3615A47C38525A124173054BB19E438B638CF2FAAF637714
311
F823FD3DF0F5AF959A9E971AD5FEF4CF67B954248F7E38EC48CDD49BADDE4FAE6E0657B3D974307B33F1068BBBC56AE0BD9D8E976F96CB9BF9FB1B1C2C9580266B89A0891B7C00368245FEC87C0AFC8AE56A3AB122364023419F988E941B4C1CCF1F1999D63BEBE429F3A322CF69546305346AFFACEA9896348F117346252C
311
EB2034EEBF7A1AC7CEE7A97EB74776972F43A0BBA3A3A8B1BD79762D2DC2BFE182BC84414252CD4083A575D470757C40382C0A6EBF31E9644451C10877380B05112F6E00512D12F83D359AC9426783F6C00D1005F3B94F17A4D1CF797ECACAA4E25CD3D80DEA2CD82157A892B565EC1F2A0ED67791814D889566C3B57548BD
311
94D40D6E0C45AE8FD8648074124E52841C6EEA9DD3C991A34B9DA7EB951B7CBC0BF71B9DBBA70F2F455152A1347D40AD2670CD53A3646DF22E8A9CDEE01E997200E52B90FF84543F9882B809B69FED67F61425482E934264888D33760663FC8C1DAFFED5FF3BFFFC51BBB91FBD737822D81AAA5F8067DF876E2C3B7006FE13
311
085F88A9756D13118EB271CF7200A449E2F0024BA8C349B8778335AA1CAA3276111E787019E63EE1AF3FB26A5028EA933ACF1C581E95C50B0A3460AB1909330CF9AD818738FD50CEEA83ADD83978AF7E095DE7ABCDC74D251212D17B9BD32B9AB09C29B4B8036FBA06F530EF79F4485F9E0B11C3D11FF1DE74F1CEEC511268
311
6BCC35F06953D3F5CBE1E4DE0111F6A5852E37FE4F4E8013BAB176F4DF331951CE494E8BAA39F7D5FE81B66120D6C9AE99DC369843630169CC97A31C44938E042B35886DB76A8BE6F08C77DFD69FC048C8F32224FC20141E4A6F54F042ECC2979DA94A2791FEDEA7B68560A4B580ED758E34E96F31DFC52C492A891A7802D6
311
EFEB653774BA2AA042345A4DB2CCE03E728B08CBD9462F9AB52068A445BE63689B48BB930774F503514B805AE1398B25E5C98E715E65BB847134A35D46CA3370FC7FFBC32A2B77242BAA5C9DD1DD331DCDA16F7B8FBCF299A8E8C10D36F573B040E98D697C08734F58B7921358F542BBF0DEAF168BB7B3C114CFC1ECEEFA66
311
70B39C5D0DDE8EE7D3EBE978B29ACE274D9C8CF2C06F3A4D37A111257436BF12CC86EFDB1AE9636B801BDC1325B71F4C7636CF6FEB2146617F843D6897EDC679FC84B18FC63F5770903CA9689D959C66345744A7D0BDFEC3BF128C193D63CCFA3A2329BD40CBE70F9B2367B072C1BE2F3ADDE9F3D15EBBBAD4097952897AA8
311
B230278C1F6D4C0D92C3324F2D7E4D4CDAA7E933CDAB7EB381C1602A0BCE6294C1D849699151856278410F121995A05E77A48FEDD5E382DD4F66405424E4B4B1E4816046E61269016A5591EAAF3BBF61A6D363D5AD8B6E3B7CC48FAD14AE03CEDCBA98D1158BA81C86E8CF7A12AA95834BDD411E733FC9538E51DB6C6ADFDB
311
5D1A9B5E476E452E199FAC5FA6825B0750464A8C0D9887109DDA98C0AF6DB3DFA3FFE478638E4314FE86956A7D392CB4CED4C720458D53F6B28019E6D11EBD47A2BEEE9637AC657A885C74C97A950446EB401191D617056D9F3569BEFA32C280E2AC3F3B25AF52C4F2724D034141E64A2738580456589D2551A0EAF2CFED17
311
51E0229B39770C14707EDF5FBFF963BB2CB2ACC8CDD2766EAFC3CEE60197DB788BE240F5AD446E27636FB2AD6F03F682B20B89A44312CB472C20B282B540F7C20F5E9A2B23FA90F9D0CA8D74288E18BA5E39B6B1CDA0D4D2A55B5B3538983B72EA2087F48D52674C57A07CF54230AA456182C0281FFC0B504B030414000608
311
00007998D542000000000000000000000000350000006662782F31373737463438452D304242392D343038342D424136332D4442464345313642364441372F76657274696365732E62696E504B03041400060808007998D542F270F1330600000004000000360000006662782F31373737463438452D304242392D34303834
311
2D424136332D4442464345313642364441372F747269616E676C65732E62696E636660600000504B03041400060800007998D542000000000000000000000000370000006662782F31373737463438452D304242392D343038342D424136332D4442464345313642364441372F617474726962757465732E62696E504B0304
311
1400060808007998D542D5987DFC8F00000041010000360000006662782F31373737463438452D304242392D343038342D424136332D4442464345313642364441372F6469726563746F72792E786D6C858F410EC2201045AF4266AF15DDB800BA74E7C21B903225242D6328188F2FA5C4183471359997F9FF81E89FF3C41E
311
1816475E02DF1F80A11FC8386F25A438EECEC07A250251FC3803E6F58C12560C4AD840E95E91C151A72936F496F35732D860FE635F62C8F2DA16B505C545B74125BAA2FA9E05D7CC053D063734D5C7665FD55B6B8D15D5E9BFEAFD8490FFA45E504B03041400060808007998D542AFA725B1FD000000A00100003B00000066
311
62782F31373737463438452D304242392D343038342D424136332D4442464345313642364441372F7265736F75726365732F636F72652E786D6C8D504B6E833010BD0A9A6D65B04340808CA334C90D7A01CB4C88956047FE543D7EED40A576D7CDCCE87D344F8F1FBE9647F189CE6B6B46602585028DB29336F308315C4907
311
C54170676DF82583C2C80547C830083E3B1B9F1BA4AC096842428D9D7003A5F718A0508F748CE0D50D1759CA1892C2DFCBA754773963C9CA44279DE03EB814A0589FE409C2A1B7D129F4BC5A59C163D4D3A6D153FAA9AF1A1D08DAF7949E2E0DE92FFB96ECDFF71DE9183D93EED89FCFECD41CEB96F12A9B050F7AF9C9A81C
311
CA8013881D6535A12DD9B10FD60FB41E1AFA469BA1A6BCCAF23FA6F89CFE698ADA847AB7C55D6D1E440EF22204AF725F69BDCA4C3B772BBE01504B010214000A00000800007998D5423DEE336E79000000790000001B00000000000000000000000000000000006175746F6465736B2D64657369676E2D7061636B6167652E
311
786D6C504B010214001400060808007998D542D486FD9CA0000000F40000001300000000000000000000000000B20000005B436F6E74656E745F54797065735D2E786D6C504B010214001400060808007998D542C74D7880EA0000007C010000080000000000000000000000000083010000636F72652E786D6C504B010214
311
001400060808007998D54255019EA25F0000007C000000070000000000000000000000000093020000636E782E786D6C504B010214001400060808007998D54291D9B6C967010000020300000C00000000000000000000000000170300006662782F636F72652E786D6C504B010214001400060808007998D542CF63ED357D
311
0000009D0000000B00000000000000000000000000A80400006662782F636E782E786D6C504B010214001400060808007998D542543957642D0100001402000031000000000000000000000000004E0500006662782F31373737463438452D304242392D343038342D424136332D4442464345313642364441372F636F7265
311
2E786D6C504B010214001400060808007998D54218C6988C4E010000330300003000000000000000000000000000CA0600006662782F31373737463438452D304242392D343038342D424136332D4442464345313642364441372F636E782E786D6C504B010214001400060808007998D542CD6CE1C2A30500008010000034
311
00000000000000000000000000660800006662782F31373737463438452D304242392D343038342D424136332D4442464345313642364441372F6F626A656374732E786D6C504B010214001400060800007998D54200000000000000000000000035000000000000000000000000005B0E00006662782F3137373746343845
311
2D304242392D343038342D424136332D4442464345313642364441372F76657274696365732E62696E504B010214001400060808007998D542F270F13306000000040000003600000000000000000000000000AE0E00006662782F31373737463438452D304242392D343038342D424136332D444246434531364236444137
311
2F747269616E676C65732E62696E504B010214001400060800007998D5420000000000000000000000003700000000000000000000000000080F00006662782F31373737463438452D304242392D343038342D424136332D4442464345313642364441372F617474726962757465732E62696E504B01021400140006080800
311
7998D542D5987DFC8F0000004101000036000000000000000000000000005D0F00006662782F31373737463438452D304242392D343038342D424136332D4442464345313642364441372F6469726563746F72792E786D6C504B010214001400060808007998D542AFA725B1FD000000A00100003B00000000000000000000
311
000000401000006662782F31373737463438452D304242392D343038342D424136332D4442464345313642364441372F7265736F75726365732F636F72652E786D6C504B0506000000000E000E0080040000961100000000
310
504B03040A00000800007998D5423DEE336E79000000790000001B0000006175746F6465736B2D64657369676E2D7061636B6167652E786D6C3C3F786D6C2076657273696F6E3D22312E302220656E636F64696E673D227574662D3822203F3E3C666F726D6174733E3C666F726D61743E687474703A2F2F736368656D612E
310
6175746F6465736B2E636F6D2F64657369676E2D7061636B6167652F323030393C2F666F726D61743E3C2F666F726D6174733E504B03041400060808007998D542D486FD9CA0000000F4000000130000005B436F6E74656E745F54797065735D2E786D6C7D8EC10E82300C865F65E91D8A1E8C310C0EEA1BF002731658846E
310
D98AC1B77784ABF1D8FE5FBFBF75BBCE937A534CCEB38643598122B6FEE978D0B0485F9C41B54DDD7D022595594E1A469170414C76A4D9A4D207E29CF43ECE46F218070CC6BECC4078ACAA135ACF422C856C0E68EA1BF5669944DDD7BCDE7B1F8E415D77AECB980613C2E4AC91FC167A2B244592486606FC29C8FD7F045B9A
310
EF7053A7E60B504B03041400060808007998D54226AA4E5BEB0000007C01000008000000636F72652E786D6C8D904D6EC3201085AF82D856D860E25F61A2DA914FD00B20202E4A0C9681AAC72F4E1CA9DD7535A337EF9B193D76FE5EEEE04B6FDE38DB43926108B4954E193BF730862B6A203873B639177ED920B062D13DDC
310
65C8D9BCB9B81E927436681B926A9DD28728BCD70102794F4D0FBDFCD48BC8440CC9E16FD92AE44DCC3A23AF2EC1311A059E478C4AFBCCD5E80DF2CB385CE8441A44DE4B824E7818513B351435D558B7275257433DB17C87390B6679DD979B16412BC80B4C28C2152AC807693B4CBB12BFE1B2A398E5BBFD0F1457F54F281A
310
1B6871BCFBC43CE4243DF2187096EF59A4F2082AD53D37FE03504B03041400060808007998D54255019EA25F0000007C00000007000000636E782E786D6C4DCB3B0E80201045D1AD90E915ED2CF8AC45050C11660C8261F98AB1B07AC9C97D42D718D865D3E909258CFD00CCE24AC6E326A164D74DC0B4128928FF32603847
310
2BA13128B1252AC747C6BAB984FC68F0B87FE8960A5C09FE86CFB69FBA01504B03041400060808007998D5424247E56367010000020300000C0000006662782F636F72652E786D6C8D52ED8E8320107C15C2DF0B02DAEF20CDB54D9FE05E802AF54C150C82E9E3DFFAD178BD34CDC504C9CCCEEEECA8D8DFEB0A75DAB5A535
310
29E611C3489BCCE6A529521CFC956C30DA4BE1ACF5BFCA3032AAD629EE612C45E16C682628B3C66BE3013536D713A8DA567B8CB20A2E296EB36F5DAB48050F15ED2D6A547653858E780434D449D17A0706D038A43FB1BC5EEE828EB8142194F9C496394C2BAFA576589E8E875372E61BC23F979C2CD8E148B6E74D4236ABE3
310
7ABBE0EBD5617D16B4174BE1CBFAE12E735A799D6319339E10B62231FFE2DB1D4B764BF6C196BB8409DA973F894293FF53144AE39378B23BCA5A2C391819883FDB42441EB5AA033F540ADA8708AF21E1E7A0211008D9AB4BF5D8E30650A7336FDD0298DC8699EA5415344C656878041D59E83C3480CD5EF689DFF479DF033E
310
A0320558531EAE97E0FBE9629C3A45D168473A7F47C6BA5A55B3B9D1E27CCE835ECA335B59F71F359D56A55398B4FF7BE50F504B03041400060808007998D542C7F3D4BD7D0000009D0000000B0000006662782F636E782E786D6C4DCCD10AC2201886E15B91FFDC66BAC2813AD4E83E467343723A4CA3CB6F8B1D74F4C1C3
310
C72BFACF12D0DBE5974F51C2F94400B9F848A38FB3845A26CC01F54AE494CADF0D501C162761675062CEA9AE078D6E1A6A289B061F9F075AC3ECFDD6697CE59716B78430CC2D6558734338D7D4748442A344F32B6DBB87D517504B03041400060808007998D542C664B2B82B01000014020000310000006662782F43423343
310
464439412D363835342D343030332D384332332D4138423038384132423930322F636F72652E786D6C8D515B6EC23010BC4AE42FAACAC9C60E91418E1150F504BD80490C58103BF2A3E2F8B59B20B57FFC78ADD999D9D12EDF3DC67BF1AD9CD7D674A82E0115CAF476D0E6D2A118CE98A16227B8B336FCA1A1C2C8517528C3
310
48F08BB3715AA0DE9AA04C48A8B1835A40E9BD0AA8E8EFE9D321DF5FD5284B194362F85B39C9FE262FAAACCBD44E3CC17D702940310FC92F12C7033D7E7E6CF6B865EB06370014B323A178CF0EC0D89E1C364078350B058F510F8B5C0F298E3E6BE55E35C962C1831E9FF17BA764500312046A8AA1C5A4FEAA375BA0DB35BC
310
C37A4B815799FE4F14A7E14551D42650B2C49D651E899A577343F0C1C6D3FD19463D26EB4291E7ADBCEADF9080126AC25A06945733352D2079B6CDE2E9837569C1ABDB29B1E962DC368257F946A9FC1E30D57C4FF103504B03041400060808007998D5427E61579B5601000033030000300000006662782F43423343464439
310
412D363835342D343030332D384332332D4138423038384132423930322F636E782E786D6CBD93CD6EC23010845FC5F2B5CA1F818822C7483DF4097AE8D5B1177049ECC83F5579FBAEC1502E1C2A55BD58D1EC7866F5C961DBAF69249FE0BCB6A6A74D595302465AA5CDBEA731EC8A35255BCE9CB5E1CE46891113F434C994
310
B3BDB371CE92829D88634075D4E6984507DE4627C1A39C6E92D14A3162009822A208D3004A812237237EEDC0E12A280E27120E405E5FDE891D3E4006CFAA94C259953A384B676EBA33512247E17D4FBD3CC0244A118355E08FA51241944D79ED7AB0D34F124917AE95D16992CA7B9A4ECAF346257264150E39F3C121BD6C0A
310
A7192817F33C6A290242AECEC68B87B3A84DE896D9AB11BC4377BBE8D66B0C3BCF380B7A82EC900E440045F9A26EDAA2EE8A45F3D63C6FEA76B3AA9FEAD5A6AD5995EC9C0DD68EF912C680B33391D6043081F2865569FC085FF611A51DB2B6EEF40B900820B75EE8DC32FE924FD3B5CBE53FF2A9CEEF1B7139FC0BF837504B
310
03041400060808007998D5427E49D68060070000991B0000340000006662782F43423343464439412D363835342D343030332D384332332D4138423038384132423930322F6F626A656374732E786D6CED59DD739B3810FF5718EEE5EEC1D8C44E9BDC106E12BBC9783A693BF5B5730F9E616490892E423092489CFBEB6FF5
310
010662127CCDBDF5C10684B4DAFDEDA796E08F5D469D07CC05C9D985EB7B13D7C12CCE13C2D20BB794DBD199EBFC11063CCF65639AEB3094E10B570DBB6190F2BC2CEC5082B7A8A4B2337A7DF5972362CCB0EBC4140971E18AF80E67C843A5CC132CEEBD0449E4A5DB9DE77B66629B6CCA5171D7215A208E99044E619C0115
310
C730E5B71F27EE380CC6EA7D18A87F3B6B3A68D6AC7FD6584BDDE6923021118B9FB1D421331DC4D2D49F2D3E9C9C9E8F4E67B3E968F6EEC41F5D5D5F2D46FEFBE964FE6E3E3FBFFC700EEC6DF29C5A99125C609680FE9EDCD00FC6EA4D2DBA45E010D771CE188E3590009516AB4B9060015B35E09BB41F7D2551E3B596B0F1
310
3C53EF2D0B8DE1699B4ADFAC6140B4E8822076BB4AE2EADA942FDFFC0D828B2146C90596C0AD901CB46BE1E1E0156E3809C666340C367B5D10E16448624E107528D970C4412930554D0903B3C09251CEC18194A324D09A33AFDBB6059EF9BAEB1CE2725B52AA3CC30DB56345E07E580ACD19F907F33DF74D64802790B6244C
310
9E592EE55381DDF03C18EBC1305097E9897D698074B614A5422362DE76049D2BD75F2EDCF0E3F566B752E1E0F0E605CF0BCCA5323AA547CD1718B2BD2A94ECB6FE20CDA905208C01D5AEDC83F21590FF04D163CF0AE88D93DD6C37B37325474C6C739E816E9C89339AC0DFC4F1F5BFBA6FDC05E37A715B7B7D78829B2AA8CE
310
7E1CCFB60C1A2BCB7F03CE30780083CFF9D4BE5AC588823DDF120600292371680E4310DAB79B9D1B2E217042A0875588863E880CEC3EC06D30B664F65AA9DCCB7A1D0344ED1ED3214A02D8B445021B3D7ABA81ECC149BC575353C43E784FDFC45C2F17AB8FAB926F518C6FAD4F2FF0963022216B1E66A885794BA27BFCF498
310
F304047D8EF7AA897766B71280B6C25C019F5620A887FDCEAD0D625897E62ADC04AFEC0042A85CDDA07F4B448C29450CE765B56F1DDD94A1D61E6F6B06373C31104F4F3A26CCF10351550538CD7E468B51C8FB31278502D10D6F8C6475D0F47AA4FBB6FC041659CFEF99B564107A19A27FEAA0750087966557485B206A8137
310
FB701EE734E7D1E6293291CE855A02D8687BCBF7165188F546498A0A7890F6BB2AA4A446DA2821DB6D2920AE1E60F1FB72DE34878937F54F9DE67FC71967106DC17711B77ED7D92322194A71B44549DF76CDDD6ADA4293EC21CDF196825CE481C8A708C96892E0F418688E227EFEA6D4539A0B41181690AF0E82DF4463E241
310
2031DAAC58565AED004D44946189E8310828323DE0EAB4A36BDC184A87D779ACADF7258D3589FE4F16C111D492398B0894A290435E65DCF74E2186B4D1352877F0056BAB686B3168092544FC143D6292DEC9635037E47B708FE14852CA282F500C663D80EC335F514AEDF0BE41F1BDCA1F515CD2B7321081E9362294965904
310
3FC2E0E431C4B5EBC0F4220A0DE226F6499C41518664C9876CF2EE74F26C1F533374436063A32DA110B6A30C153DA8B702A2AE479C1A7C4BBD47A99B322B2294E5251B6428DEB4EB4D967C57AD8AEC407E55A908656345D8120C03C2649D55AB980DA6AE032BB8910E544F91405941CD29EC95C4E3D7DEA429F76EC0AD9FBE
310
ED0619147E3DDA6B46D4590583E5B15518884724E33B375CE9EBE80AEAEF0427FB545FD59ACD0A10105391BCE4C4AAE8DB12CA1B5BA3B9E12D92627D63B26E75FDB6F4A0FB118C610DD42EF5C2A5023AC34C225599DCAA1BFA1541086ED130E34B95538FA1729924BA6A44F49AF4A9B35546B436CD8857DC619667F0636BC2
310
625A26788D12711FDD4A1AAD8862DD4AE965A4C2F845013FDFAC3AF0C0C80091BEA8020F3F76D6DAD1B92A970E12917765B6618840106C89961ADD78054BAD462A2DD75775A680BA0B0CCCAA78F6F364D16C47FC3C59A4D6307EEC6441F30DA2FB68D3C8E6B132EBA34E01757A5254DEE214A0BB0E35D53A89985C6EC5B7BE
310
14414CAC82FCE062AC8A1986601FC7FF3969F72541B35D87FFE392B6FFACE0382AA9B426AB26D581C275D94C6157FE87C5D5D5FBD9680AD7D1ECFAEC7C743E9F9D8EDE4F2EA767D3C9C9627A596762433C0CEA58A653173C9B98560DAB278B013465454E490287F9C44931847C0947FA01DD739E6101B9B3D9EB4E6C4F7EC0
310
EA07D3E694684371C5C91D82FE301590D5418C3296ED71E717E84C4A38675FB8D033F2EEE1CF5AA5EB40E2B970A15320498C85B7812E93EAE769E2907175EAB7C4208E2196AA8C6816D5CFF52A854D2BFAD7538664012B57AB8501755B01CDAF568342F366798A8F12BC62C741126E37A58462CDC8B21FA885D1DBECD56F64
310
A384DDDBAD77E0BA2F8BE57B7A4E0B91415F0C5E3402437524114F75BB5B316659BA5C7C19439BCD597E760A5AA6A0CBE194461C833197AA9E022B02ABB0340B24C154E7BFAFBFF01CBEF0648E2E8A9C5F7767EF7E5BCFF32CCB99195A5FC2A12C81EF44CEEA0EBEFA246BA81DB0EAAD8BF5C9C43F59EB9EB66DB3471B24B0
310
A78A2218A86A092548C7E4C02E9FF5A76CF772AC54D199BE5C383688422FC0D8D1B316AFF9C6E5800FA9AF29CA63B49F57D2BED8D61EEBA960131C1AD2E1BF504B03041400060800007998D542000000000000000000000000350000006662782F43423343464439412D363835342D343030332D384332332D413842303838
310
4132423930322F76657274696365732E62696E504B03041400060808007998D542F270F1330600000004000000360000006662782F43423343464439412D363835342D343030332D384332332D4138423038384132423930322F747269616E676C65732E62696E636660600000504B03041400060800007998D54200000000
310
0000000000000000370000006662782F43423343464439412D363835342D343030332D384332332D4138423038384132423930322F617474726962757465732E62696E504B03041400060808007998D542D5987DFC8F00000041010000360000006662782F43423343464439412D363835342D343030332D384332332D4138
310
423038384132423930322F6469726563746F72792E786D6C858F410EC2201045AF4266AF15DDB800BA74E7C21B903225242D6328188F2FA5C4183471359997F9FF81E89FF3C41E1816475E02DF1F80A11FC8386F25A438EECEC07A250251FC3803E6F58C12560C4AD840E95E91C151A72936F496F35732D860FE635F62C8F2
310
DA16B505C545B74125BAA2FA9E05D7CC053D063734D5C7665FD55B6B8D15D5E9BFEAFD8490FFA45E504B03041400060808007998D542D6CBDA2BFE000000A00100003B0000006662782F43423343464439412D363835342D343030332D384332332D4138423038384132423930322F7265736F75726365732F636F72652E78
310
6D6C8D504B6E833010BD0A9A6D65B04380101947858813F40296992456821DF953F5F835814AEDAE9B99D1FB689E1E3F7DCD8FEC139DD7D674C0720A191A65276DAE1DC4702107C84E823B6BC32F196446CED8C10283E05767E373839435014D48A8B1136EA0F41E0364EA918E0EBCBAE12C73194352F87BFE94EA2EAF98B3
310
3CD14927B80F2E05C8D627CB04E1D0DBE8147A5EACACE031EA69D3E829FDD4178D0EC479E8CFE5C81AC2DE2B46F6B41F483B1E4A72A887A6DDB3A6EE9B91178B59F0A0E79F8CCAA10C3881D85156125A931DFB60ED9196C78ABED1EA58525E2CF23FA6F89CFE698ADA8472B7C55D6D1E044B415E84E0C5D2575AAF32D35EBA
310
15DF504B010214000A00000800007998D5423DEE336E79000000790000001B00000000000000000000000000000000006175746F6465736B2D64657369676E2D7061636B6167652E786D6C504B010214001400060808007998D542D486FD9CA0000000F40000001300000000000000000000000000B20000005B436F6E7465
310
6E745F54797065735D2E786D6C504B010214001400060808007998D54226AA4E5BEB0000007C010000080000000000000000000000000083010000636F72652E786D6C504B010214001400060808007998D54255019EA25F0000007C000000070000000000000000000000000094020000636E782E786D6C504B0102140014
310
00060808007998D5424247E56367010000020300000C00000000000000000000000000180300006662782F636F72652E786D6C504B010214001400060808007998D542C7F3D4BD7D0000009D0000000B00000000000000000000000000A90400006662782F636E782E786D6C504B010214001400060808007998D542C664B2
310
B82B0100001402000031000000000000000000000000004F0500006662782F43423343464439412D363835342D343030332D384332332D4138423038384132423930322F636F72652E786D6C504B010214001400060808007998D5427E61579B56010000330300003000000000000000000000000000C90600006662782F43
310
423343464439412D363835342D343030332D384332332D4138423038384132423930322F636E782E786D6C504B010214001400060808007998D5427E49D68060070000991B000034000000000000000000000000006D0800006662782F43423343464439412D363835342D343030332D384332332D41384230383841324239
310
30322F6F626A656374732E786D6C504B010214001400060800007998D54200000000000000000000000035000000000000000000000000001F1000006662782F43423343464439412D363835342D343030332D384332332D4138423038384132423930322F76657274696365732E62696E504B010214001400060808007998
310
D542F270F13306000000040000003600000000000000000000000000721000006662782F43423343464439412D363835342D343030332D384332332D4138423038384132423930322F747269616E676C65732E62696E504B010214001400060800007998D54200000000000000000000000037000000000000000000000000
310
00CC1000006662782F43423343464439412D363835342D343030332D384332332D4138423038384132423930322F617474726962757465732E62696E504B010214001400060808007998D542D5987DFC8F000000410100003600000000000000000000000000211100006662782F43423343464439412D363835342D343030
310
332D384332332D4138423038384132423930322F6469726563746F72792E786D6C504B010214001400060808007998D542D6CBDA2BFE000000A00100003B00000000000000000000000000041200006662782F43423343464439412D363835342D343030332D384332332D4138423038384132423930322F7265736F757263
310
65732F636F72652E786D6C504B0506000000000E000E00800400005B1300000000
  0
XRECORD
  5
27
102
{ACAD_REACTORS
330
22
102
}
330
22
100
AcDbXrecord
280
     1
270
     1
271
     1
  0
XRECORD
  5
26
102
{ACAD_REACTORS
330
22
102
}
330
22
100
AcDbXrecord
280
     1
270
     1
271
     1
  0
XRECORD
  5
28
102
{ACAD_REACTORS
330
22
102
}
330
22
100
AcDbXrecord
280
     1
270
     1
271
     1
  0
XRECORD
  5
25
102
{ACAD_REACTORS
330
22
102
}
330
22
100
AcDbXrecord
280
     1
270
     1
271
     1
  0
XRECORD
  5
E85
102
{ACAD_REACTORS
330
E84
102
}
330
E84
100
AcDbXrecord
280
     1
102
ACAD_ROUNDTRIP_2012_MLEADER_STYLE
298
     1
  0
CELLSTYLEMAP
  5
E83
102
{ACAD_REACTORS
330
E82
102
}
330
E82
100
AcDbCellStyleMap
 90
        3
300
CELLSTYLE
  1
TABLEFORMAT_BEGIN
 90
        5
170
     1
 91
        0
 92
    32768
 62
   257
 93
        1
300
CONTENTFORMAT
  1
CONTENTFORMAT_BEGIN
 90
        0
 91
        0
 92
      512
 93
        0
300

 40
0.0
140
1.0
 94
        5
 62
     0
340
55
144
0.25
309
CONTENTFORMAT_END
171
     0
 94
        0
309
TABLEFORMAT_END
  1
CELLSTYLE_BEGIN
 90
        1
 91
        1
300
_TITLE
309
CELLSTYLE_END
300
CELLSTYLE
  1
TABLEFORMAT_BEGIN
 90
        5
170
     1
 91
        0
 92
        0
 62
   257
 93
        1
300
CONTENTFORMAT
  1
CONTENTFORMAT_BEGIN
 90
        0
 91
        0
 92
      512
 93
        0
300

 40
0.0
140
1.0
 94
        5
 62
     0
340
55
144
0.18
309
CONTENTFORMAT_END
171
     0
 94
        0
309
TABLEFORMAT_END
  1
CELLSTYLE_BEGIN
 90
        2
 91
        1
300
_HEADER
309
CELLSTYLE_END
300
CELLSTYLE
  1
TABLEFORMAT_BEGIN
 90
        5
170
     1
 91
        0
 92
        0
 62
   257
 93
        1
300
CONTENTFORMAT
  1
CONTENTFORMAT_BEGIN
 90
        0
 91
        0
 92
      512
 93
        0
300

 40
0.0
140
1.0
 94
        2
 62
     0
340
55
144
0.18
309
CONTENTFORMAT_END
171
     0
 94
        0
309
TABLEFORMAT_END
  1
CELLSTYLE_BEGIN
 90
        3
 91
        2
300
_DATA
309
CELLSTYLE_END
  0
ENDSEC
  0
EOF
