  0
SECTION
  2
HEADER
  9
$ACADVER
  1
AC1024
  9
$ACADMAINTVER
 70
    63
  9
$DWGCODEPAGE
  3
ANSI_1252
  9
$AUTHOR
  1
VR
  9
$REVISIONNUMBER
  1
-
  9
$CUSTOMPROPERTYTAG
  1
Manager
  9
$CUSTOMPROPERTY
  1

  9
$CUSTOMPROPERTYTAG
  1
Company
  9
$CUSTOMPROPERTY
  1

  9
$CUSTOMPROPERTYTAG
  1
Category
  9
$CUSTOMPROPERTY
  1

  9
$CUSTOMPROPERTYTAG
  1
Part Number
  9
$CUSTOMPROPERTY
  1
HWDWA72P24F2
  9
$CUSTOMPROPERTYTAG
  1
Description
  9
$CUSTOMPROPERTY
  1
N1P PANEL MASTER VIEW
  9
$CUSTOMPROPERTYTAG
  1
Project
  9
$CUSTOMPROPERTY
  1

  9
$CUSTOMPROPERTYTAG
  1
Designer
  9
$CUSTOMPROPERTY
  1
VR
  9
$CUSTOMPROPERTYTAG
  1
Engineer
  9
$CUSTOMPROPERTY
  1

  9
$CUSTOMPROPERTYTAG
  1
Authority
  9
$CUSTOMPROPERTY
  1

  9
$CUSTOMPROPERTYTAG
  1
Cost Center
  9
$CUSTOMPROPERTY
  1

  9
$CUSTOMPROPERTYTAG
  1
Vendor
  9
$CUSTOMPROPERTY
  1

  9
$CUSTOMPROPERTYTAG
  1
User Status
  9
$CUSTOMPROPERTY
  1

  9
$CUSTOMPROPERTYTAG
  1
Design Status
  9
$CUSTOMPROPERTY
  1
WorkInProgress
  9
$CUSTOMPROPERTYTAG
  1
Checked by
  9
$CUSTOMPROPERTY
  1
NJ
  9
$CUSTOMPROPERTYTAG
  1
Engr Approved by
  9
$CUSTOMPROPERTY
  1

  9
$CUSTOMPROPERTYTAG
  1
Date Eng Approved
  9
$CUSTOMPROPERTY
  1
06/10/2013
  9
$CUSTOMPROPERTYTAG
  1
Mfg Approved by
  9
$CUSTOMPROPERTY
  1

  9
$CUSTOMPROPERTYTAG
  1
DWG. NO
  9
$CUSTOMPROPERTY
  1

  9
$CUSTOMPROPERTYTAG
  1
NUMBER OF SHEETS
  9
$CUSTOMPROPERTY
  1
1
  9
$CUSTOMPROPERTYTAG
  1
DRAWING #
  9
$CUSTOMPROPERTY
  1
1
  9
$INSBASE
 10
0.0
 20
0.0
 30
0.0
  9
$EXTMIN
 10
0.0
 20
0.0
 30
0.0
  9
$EXTMAX
 10
170.0
 20
110.0
 30
0.0
  9
$LIMMIN
 10
0.0
 20
0.0
  9
$LIMMAX
 10
170.0
 20
110.0
  9
$ORTHOMODE
 70
     0
  9
$REGENMODE
 70
     1
  9
$FILLMODE
 70
     1
  9
$QTEXTMODE
 70
     0
  9
$MIRRTEXT
 70
     0
  9
$LTSCALE
 40
10.0
  9
$ATTMODE
 70
     1
  9
$TEXTSIZE
 40
0.2
  9
$TRACEWID
 40
0.05
  9
$TEXTSTYLE
  7
Standard
  9
$CLAYER
  8
0
  9
$CELTYPE
  6
ByLayer
  9
$CECOLOR
 62
   256
  9
$CELTSCALE
 40
1.0
  9
$DISPSILH
 70
     0
  9
$DIMSCALE
 40
1.0
  9
$DIMASZ
 40
0.0708661417322835
  9
$DIMEXO
 40
0.0625
  9
$DIMDLI
 40
0.38
  9
$DIMRND
 40
0.0
  9
$DIMDLE
 40
0.0
  9
$DIMEXE
 40
0.18
  9
$DIMTP
 40
0.0
  9
$DIMTM
 40
0.0
  9
$DIMTXT
 40
0.0708661417322835
  9
$DIMCEN
 40
0.09
  9
$DIMTSZ
 40
0.0
  9
$DIMTOL
 70
     0
  9
$DIMLIM
 70
     0
  9
$DIMTIH
 70
     1
  9
$DIMTOH
 70
     1
  9
$DIMSE1
 70
     0
  9
$DIMSE2
 70
     0
  9
$DIMTAD
 70
     0
  9
$DIMZIN
 70
     0
  9
$DIMBLK
  1

  9
$DIMASO
 70
     1
  9
$DIMSHO
 70
     1
  9
$DIMPOST
  1

  9
$DIMAPOST
  1

  9
$DIMALT
 70
     0
  9
$DIMALTD
 70
     2
  9
$DIMALTF
 40
25.4
  9
$DIMLFAC
 40
1.0
  9
$DIMTOFL
 70
     0
  9
$DIMTVP
 40
0.0
  9
$DIMTIX
 70
     0
  9
$DIMSOXD
 70
     0
  9
$DIMSAH
 70
     0
  9
$DIMBLK1
  1

  9
$DIMBLK2
  1

  9
$DIMSTYLE
  2
STANDARD
  9
$DIMCLRD
 70
     0
  9
$DIMCLRE
 70
     0
  9
$DIMCLRT
 70
     0
  9
$DIMTFAC
 40
1.0
  9
$DIMGAP
 40
0.09
  9
$DIMJUST
 70
     0
  9
$DIMSD1
 70
     0
  9
$DIMSD2
 70
     0
  9
$DIMTOLJ
 70
     1
  9
$DIMTZIN
 70
     0
  9
$DIMALTZ
 70
     0
  9
$DIMALTTZ
 70
     0
  9
$DIMUPT
 70
     0
  9
$DIMDEC
 70
     4
  9
$DIMTDEC
 70
     4
  9
$DIMALTU
 70
     2
  9
$DIMALTTD
 70
     2
  9
$DIMTXSTY
  7
Standard
  9
$DIMAUNIT
 70
     0
  9
$DIMADEC
 70
     0
  9
$DIMALTRND
 40
0.0
  9
$DIMAZIN
 70
     0
  9
$DIMDSEP
 70
    46
  9
$DIMATFIT
 70
     3
  9
$DIMFRAC
 70
     0
  9
$DIMLDRBLK
  1

  9
$DIMLUNIT
 70
     2
  9
$DIMLWD
 70
    -2
  9
$DIMLWE
 70
    -2
  9
$DIMTMOVE
 70
     0
  9
$DIMFXL
 40
1.0
  9
$DIMFXLON
 70
     0
  9
$DIMJOGANG
 40
0.7853981633974483
  9
$DIMTFILL
 70
     0
  9
$DIMTFILLCLR
 70
     0
  9
$DIMARCSYM
 70
     0
  9
$DIMLTYPE
  6

  9
$DIMLTEX1
  6

  9
$DIMLTEX2
  6

  9
$DIMTXTDIRECTION
 70
     0
  9
$LUNITS
 70
     2
  9
$LUPREC
 70
     4
  9
$SKETCHINC
 40
0.1
  9
$FILLETRAD
 40
0.0
  9
$AUNITS
 70
     0
  9
$AUPREC
 70
     0
  9
$MENU
  1
.
  9
$ELEVATION
 40
0.0
  9
$PELEVATION
 40
0.0
  9
$THICKNESS
 40
0.0
  9
$LIMCHECK
 70
     0
  9
$CHAMFERA
 40
0.0
  9
$CHAMFERB
 40
0.0
  9
$CHAMFERC
 40
0.0
  9
$CHAMFERD
 40
0.0
  9
$SKPOLY
 70
     0
  9
$TDCREATE
 40
2456461.720933403
  9
$TDUCREATE
 40
2456461.491766736
  9
$TDUPDATE
 40
2456461.720933403
  9
$TDUUPDATE
 40
2456461.491766736
  9
$TDINDWG
 40
0.0000456019
  9
$TDUSRTIMER
 40
0.0000456019
  9
$USRTIMER
 70
     1
  9
$ANGBASE
 50
0.0
  9
$ANGDIR
 70
     0
  9
$PDMODE
 70
     0
  9
$PDSIZE
 40
0.0
  9
$PLINEWID
 40
0.0
  9
$SPLFRAME
 70
     0
  9
$SPLINETYPE
 70
     6
  9
$SPLINESEGS
 70
     8
  9
$HANDSEED
  5
D81
  9
$SURFTAB1
 70
     6
  9
$SURFTAB2
 70
     6
  9
$SURFTYPE
 70
     6
  9
$SURFU
 70
     6
  9
$SURFV
 70
     6
  9
$UCSBASE
  2

  9
$UCSNAME
  2

  9
$UCSORG
 10
0.0
 20
0.0
 30
0.0
  9
$UCSXDIR
 10
1.0
 20
0.0
 30
0.0
  9
$UCSYDIR
 10
0.0
 20
1.0
 30
0.0
  9
$UCSORTHOREF
  2

  9
$UCSORTHOVIEW
 70
     0
  9
$UCSORGTOP
 10
0.0
 20
0.0
 30
0.0
  9
$UCSORGBOTTOM
 10
0.0
 20
0.0
 30
0.0
  9
$UCSORGLEFT
 10
0.0
 20
0.0
 30
0.0
  9
$UCSORGRIGHT
 10
0.0
 20
0.0
 30
0.0
  9
$UCSORGFRONT
 10
0.0
 20
0.0
 30
0.0
  9
$UCSORGBACK
 10
0.0
 20
0.0
 30
0.0
  9
$PUCSBASE
  2

  9
$PUCSNAME
  2

  9
$PUCSORG
 10
0.0
 20
0.0
 30
0.0
  9
$PUCSXDIR
 10
1.0
 20
0.0
 30
0.0
  9
$PUCSYDIR
 10
0.0
 20
1.0
 30
0.0
  9
$PUCSORTHOREF
  2

  9
$PUCSORTHOVIEW
 70
     0
  9
$PUCSORGTOP
 10
0.0
 20
0.0
 30
0.0
  9
$PUCSORGBOTTOM
 10
0.0
 20
0.0
 30
0.0
  9
$PUCSORGLEFT
 10
0.0
 20
0.0
 30
0.0
  9
$PUCSORGRIGHT
 10
0.0
 20
0.0
 30
0.0
  9
$PUCSORGFRONT
 10
0.0
 20
0.0
 30
0.0
  9
$PUCSORGBACK
 10
0.0
 20
0.0
 30
0.0
  9
$USERI1
 70
     0
  9
$USERI2
 70
     0
  9
$USERI3
 70
     0
  9
$USERI4
 70
     0
  9
$USERI5
 70
     0
  9
$USERR1
 40
0.0
  9
$USERR2
 40
0.0
  9
$USERR3
 40
0.0
  9
$USERR4
 40
0.0
  9
$USERR5
 40
0.0
  9
$WORLDVIEW
 70
     1
  9
$SHADEDGE
 70
     3
  9
$SHADEDIF
 70
    70
  9
$TILEMODE
 70
     1
  9
$MAXACTVP
 70
    64
  9
$PINSBASE
 10
0.0
 20
0.0
 30
0.0
  9
$PLIMCHECK
 70
     0
  9
$PEXTMIN
 10
0.0
 20
0.0
 30
0.0
  9
$PEXTMAX
 10
170.0
 20
110.0
 30
0.0
  9
$PLIMMIN
 10
0.0
 20
0.0
  9
$PLIMMAX
 10
170.0
 20
110.0
  9
$UNITMODE
 70
     0
  9
$VISRETAIN
 70
     1
  9
$PLINEGEN
 70
     0
  9
$PSLTSCALE
 70
     1
  9
$TREEDEPTH
 70
  3020
  9
$CMLSTYLE
  2
Standard
  9
$CMLJUST
 70
     0
  9
$CMLSCALE
 40
1.0
  9
$PROXYGRAPHICS
 70
     1
  9
$MEASUREMENT
 70
     0
  9
$CELWEIGHT
370
    -1
  9
$ENDCAPS
280
     0
  9
$JOINSTYLE
280
     0
  9
$LWDISPLAY
290
     0
  9
$INSUNITS
 70
     1
  9
$HYPERLINKBASE
  1

  9
$STYLESHEET
  1

  9
$XEDIT
290
     1
  9
$CEPSNTYPE
380
     0
  9
$PSTYLEMODE
290
     1
  9
$FINGERPRINTGUID
  2
{0FBAA297-8CE8-4BCD-BB87-07CCE6EFD238}
  9
$VERSIONGUID
  2
{6FD3919B-6C5F-482B-9AEF-732B69EC788A}
  9
$EXTNAMES
290
     1
  9
$PSVPSCALE
 40
0.0
  9
$OLESTARTUP
290
     0
  9
$SORTENTS
280
   127
  9
$INDEXCTL
280
     0
  9
$HIDETEXT
280
     1
  9
$XCLIPFRAME
280
     2
  9
$HALOGAP
280
     0
  9
$OBSCOLOR
 70
   257
  9
$OBSLTYPE
280
     0
  9
$INTERSECTIONDISPLAY
280
     0
  9
$INTERSECTIONCOLOR
 70
   257
  9
$DIMASSOC
280
     1
  9
$PROJECTNAME
  1

  9
$CAMERADISPLAY
290
     0
  9
$LENSLENGTH
 40
50.0
  9
$CAMERAHEIGHT
 40
0.0
  9
$STEPSPERSEC
 40
2.0
  9
$STEPSIZE
 40
6.0
  9
$3DDWFPREC
 40
2.0
  9
$PSOLWIDTH
 40
0.25
  9
$PSOLHEIGHT
 40
4.0
  9
$LOFTANG1
 40
1.570796326794896
  9
$LOFTANG2
 40
1.570796326794896
  9
$LOFTMAG1
 40
0.0
  9
$LOFTMAG2
 40
0.0
  9
$LOFTPARAM
 70
     7
  9
$LOFTNORMALS
280
     1
  9
$LATITUDE
 40
37.795
  9
$LONGITUDE
 40
-122.394
  9
$NORTHDIRECTION
 40
0.0
  9
$TIMEZONE
 70
 -8000
  9
$LIGHTGLYPHDISPLAY
280
     1
  9
$TILEMODELIGHTSYNCH
280
     1
  9
$CMATERIAL
347
11
  9
$SOLIDHIST
280
     0
  9
$SHOWHIST
280
     1
  9
$DWFFRAME
280
     2
  9
$DGNFRAME
280
     0
  9
$REALWORLDSCALE
290
     1
  9
$INTERFERECOLOR
 62
     1
  9
$INTERFEREOBJVS
345
33
  9
$INTERFEREVPVS
346
30
  9
$CSHADOW
280
     0
  9
$SHADOWPLANELOCATION
 40
0.0
  0
ENDSEC
  0
SECTION
  2
CLASSES
  0
CLASS
  1
ACDBDICTIONARYWDFLT
  2
AcDbDictionaryWithDefault
  3
ObjectDBX Classes
 90
        0
 91
        1
280
     0
281
     0
  0
CLASS
  1
MATERIAL
  2
AcDbMaterial
  3
ObjectDBX Classes
 90
     1153
 91
        3
280
     0
281
     0
  0
CLASS
  1
VISUALSTYLE
  2
AcDbVisualStyle
  3
ObjectDBX Classes
 90
     4095
 91
       24
280
     0
281
     0
  0
CLASS
  1
SCALE
  2
AcDbScale
  3
ObjectDBX Classes
 90
     1153
 91
       17
280
     0
281
     0
  0
CLASS
  1
TABLESTYLE
  2
AcDbTableStyle
  3
ObjectDBX Classes
 90
     4095
 91
        1
280
     0
281
     0
  0
CLASS
  1
MLEADERSTYLE
  2
AcDbMLeaderStyle
  3
ACDB_MLEADERSTYLE_CLASS
 90
     4095
 91
        1
280
     0
281
     0
  0
CLASS
  1
DICTIONARYVAR
  2
AcDbDictionaryVar
  3
ObjectDBX Classes
 90
        0
 91
        3
280
     0
281
     0
  0
CLASS
  1
CELLSTYLEMAP
  2
AcDbCellStyleMap
  3
ObjectDBX Classes
 90
     1152
 91
        1
280
     0
281
     0
  0
ENDSEC
  0
SECTION
  2
TABLES
  0
TABLE
  2
VPORT
  5
8
330
0
100
AcDbSymbolTable
 70
     1
  0
VPORT
  5
57
330
8
100
AcDbSymbolTableRecord
100
AcDbViewportTableRecord
  2
*Active
 70
     0
 10
0.0
 20
0.0
 11
1.0
 21
1.0
 12
85.0
 22
55.0
 13
0.0
 23
0.0
 14
1.0
 24
1.0
 15
0.0
 25
0.0
 16
0.0
 26
0.0
 36
1.0
 17
0.0
 27
0.0
 37
0.0
 40
110.0
 41
1.545454545454545
 42
50.0
 43
0.0
 44
0.0
 50
0.0
 51
0.0
 71
     0
 72
   100
 73
     1
 74
     1
 75
     0
 76
     0
 77
     0
 78
     0
281
     0
 65
     1
110
0.0
120
0.0
130
0.0
111
1.0
121
0.0
131
0.0
112
0.0
122
1.0
132
0.0
 79
     0
146
0.0
 60
     3
 61
     5
292
     1
282
     1
141
0.0
142
0.0
 63
   250
421
  3355443
  0
ENDTAB
  0
TABLE
  2
LTYPE
  5
5
330
0
100
AcDbSymbolTable
 70
    59
  0
LTYPE
  5
5B
330
5
100
AcDbSymbolTableRecord
100
AcDbLinetypeTableRecord
  2
ByBlock
 70
     0
  3

 72
    65
 73
     0
 40
0.0
  0
LTYPE
  5
5C
330
5
100
AcDbSymbolTableRecord
100
AcDbLinetypeTableRecord
  2
ByLayer
 70
     0
  3

 72
    65
 73
     0
 40
0.0
  0
LTYPE
  5
5D
330
5
100
AcDbSymbolTableRecord
100
AcDbLinetypeTableRecord
  2
Continuous
 70
     0
  3
Solid line
 72
    65
 73
     0
 40
0.0
  0
LTYPE
  5
7C
330
5
100
AcDbSymbolTableRecord
100
AcDbLinetypeTableRecord
  2
BY_STANDARD
 70
     0
  3
By Standard ____________    ____    ____   _
 72
    65
 73
     6
 40
1.240299999999999
 49
0.6614
 74
     0
 49
-0.0827
 74
     0
 49
0.1654
 74
     0
 49
-0.0827
 74
     0
 49
0.1654
 74
     0
 49
-0.0827
 74
     0
  0
LTYPE
  5
7D
330
5
100
AcDbSymbolTableRecord
100
AcDbLinetypeTableRecord
  2
CHAIN
 70
     0
  3
Chain ____ _ ____ _ ____ _ ____ _ ____ _ ____
 72
    65
 73
     4
 40
0.7087
 49
0.4724000000000001
 74
     0
 49
-0.0591
 74
     0
 49
0.1181
 74
     0
 49
-0.0591
 74
     0
  0
LTYPE
  5
7E
330
5
100
AcDbSymbolTableRecord
100
AcDbLinetypeTableRecord
  2
DASH_DOT
 70
     0
  3
Dash dot __ . __ . __ . __ . __ . __ . __ . __
 72
    65
 73
     4
 40
0.37
 49
0.24
 74
     0
 49
-0.06
 74
     0
 49
0.01
 74
     0
 49
-0.06
 74
     0
  0
LTYPE
  5
7F
330
5
100
AcDbSymbolTableRecord
100
AcDbLinetypeTableRecord
  2
DOUBLE_DASH_DOT
 70
     0
  3
Double-Dash Dot __ __ . __ __ . __ __ . __ _
 72
    65
 73
     6
 40
0.4398
 49
0.24
 74
     0
 49
-0.06
 74
     0
 49
0.0098
 74
     0
 49
-0.06
 74
     0
 49
0.01
 74
     0
 49
-0.06
 74
     0
  0
LTYPE
  5
80
330
5
100
AcDbSymbolTableRecord
100
AcDbLinetypeTableRecord
  2
DASH_TRIPLE_DOT
 70
     0
  3
Dash Triple-Dot _ . . . _ . . . _ . . . _
 72
    65
 73
     8
 40
0.51
 49
0.24
 74
     0
 49
-0.06
 74
     0
 49
0.01
 74
     0
 49
-0.06
 74
     0
 49
0.01
 74
     0
 49
-0.06
 74
     0
 49
0.01
 74
     0
 49
-0.06
 74
     0
  0
LTYPE
  5
81
330
5
100
AcDbSymbolTableRecord
100
AcDbLinetypeTableRecord
  2
DASHED
 70
     0
  3
Dashed __ __ __ __ __ __ __ __ __ __ __ __ __ _
 72
    65
 73
     2
 40
0.2067
 49
0.1654
 74
     0
 49
-0.0413
 74
     0
  0
LTYPE
  5
82
330
5
100
AcDbSymbolTableRecord
100
AcDbLinetypeTableRecord
  2
DASH_DOUBLE_DOT
 70
     0
  3
Dash Double-Dot __ . . __ . . __ . . __ . .
 72
    65
 73
     6
 40
0.4398
 49
0.24
 74
     0
 49
-0.06
 74
     0
 49
0.0098
 74
     0
 49
-0.06
 74
     0
 49
0.01
 74
     0
 49
-0.06
 74
     0
  0
LTYPE
  5
83
330
5
100
AcDbSymbolTableRecord
100
AcDbLinetypeTableRecord
  2
DASHED_SPACE
 70
     0
  3
Dashed Space __ __ __ __ __ __ __ __ __ __ __ _
 72
    65
 73
     2
 40
0.2067
 49
0.1654
 74
     0
 49
-0.0413
 74
     0
  0
LTYPE
  5
84
330
5
100
AcDbSymbolTableRecord
100
AcDbLinetypeTableRecord
  2
DOTTED
 70
     0
  3
Dotted . . . . . . . . . . . . . . . . . . . . 
 72
    65
 73
     2
 40
0.0482
 49
0.0069
 74
     0
 49
-0.0413
 74
     0
  0
LTYPE
  5
85
330
5
100
AcDbSymbolTableRecord
100
AcDbLinetypeTableRecord
  2
DOUBLE_DASH_CHAIN
 70
     0
  3
Double-Dash Chain ______  __  __  ______  __  _
 72
    65
 73
     6
 40
1.240299999999999
 49
0.6614
 74
     0
 49
-0.0827
 74
     0
 49
0.1654
 74
     0
 49
-0.0827
 74
     0
 49
0.1654
 74
     0
 49
-0.0827
 74
     0
  0
LTYPE
  5
87
330
5
100
AcDbSymbolTableRecord
100
AcDbLinetypeTableRecord
  2
DOUBLE_DASH_DOUBLE_DOT
 70
     0
  3
Double-Dash Double-dot _ _ . . _ _ . . _
 72
    65
 73
     8
 40
0.7400000000000001
 49
0.24
 74
     0
 49
-0.06
 74
     0
 49
0.24
 74
     0
 49
-0.06
 74
     0
 49
0.01
 74
     0
 49
-0.06
 74
     0
 49
0.01
 74
     0
 49
-0.06
 74
     0
  0
LTYPE
  5
88
330
5
100
AcDbSymbolTableRecord
100
AcDbLinetypeTableRecord
  2
DOUBLE_DASH_TRIPLE_DOT
 70
     0
  3
Double Dash Triple Dot __ __ . . . __ __ . .
 72
    65
 73
    10
 40
0.8100000000000001
 49
0.24
 74
     0
 49
-0.06
 74
     0
 49
0.24
 74
     0
 49
-0.06
 74
     0
 49
0.01
 74
     0
 49
-0.06
 74
     0
 49
0.01
 74
     0
 49
-0.06
 74
     0
 49
0.01
 74
     0
 49
-0.06
 74
     0
  0
LTYPE
  5
89
330
5
100
AcDbSymbolTableRecord
100
AcDbLinetypeTableRecord
  2
LONG_DASH_DOTTED
 70
     0
  3
Long Dash Dotted ____ . ____ . ____ . ____ . _
 72
    65
 73
     4
 40
0.3543
 49
0.2362
 74
     0
 49
-0.0295
 74
     0
 49
0.0591
 74
     0
 49
-0.0295
 74
     0
  0
LTYPE
  5
8A
330
5
100
AcDbSymbolTableRecord
100
AcDbLinetypeTableRecord
  2
LONG_DASH_DOUBLE_DOT
 70
     0
  3
Long Dash Double Dot ________  .  .  ________  
 72
    65
 73
     6
 40
0.6799999999999999
 49
0.48
 74
     0
 49
-0.06
 74
     0
 49
0.01
 74
     0
 49
-0.06
 74
     0
 49
0.01
 74
     0
 49
-0.06
 74
     0
  0
LTYPE
  5
8B
330
5
100
AcDbSymbolTableRecord
100
AcDbLinetypeTableRecord
  2
LONG_DASH_TRIPLE_DOT
 70
     0
  3
Long Dash Triple Dot ____ ... ____ ... ____
 72
    65
 73
     8
 40
0.3689
 49
0.2362
 74
     0
 49
-0.0295
 74
     0
 49
0.0049
 74
     0
 49
-0.0295
 74
     0
 49
0.0049
 74
     0
 49
-0.0295
 74
     0
 49
0.0049
 74
     0
 49
-0.0295
 74
     0
  0
LTYPE
  5
8C
330
5
100
AcDbSymbolTableRecord
100
AcDbLinetypeTableRecord
  2
BORDER
 70
     0
  3
Border __ __ . __ __ . __ __ . __ __ . __ __ .
 72
    65
 73
     6
 40
1.75
 49
0.5
 74
     0
 49
-0.25
 74
     0
 49
0.5
 74
     0
 49
-0.25
 74
     0
 49
0.0
 74
     0
 49
-0.25
 74
     0
  0
LTYPE
  5
8D
330
5
100
AcDbSymbolTableRecord
100
AcDbLinetypeTableRecord
  2
BORDER2
 70
     0
  3
Border (.5x) __.__.__.__.__.__.__.__.__.__.__.
 72
    65
 73
     6
 40
0.875
 49
0.25
 74
     0
 49
-0.125
 74
     0
 49
0.25
 74
     0
 49
-0.125
 74
     0
 49
0.0
 74
     0
 49
-0.125
 74
     0
  0
LTYPE
  5
8E
330
5
100
AcDbSymbolTableRecord
100
AcDbLinetypeTableRecord
  2
BORDERX2
 70
     0
  3
Border (2x) ____  ____  .  ____  ____  .  ___
 72
    65
 73
     6
 40
3.5
 49
1.0
 74
     0
 49
-0.5
 74
     0
 49
1.0
 74
     0
 49
-0.5
 74
     0
 49
0.0
 74
     0
 49
-0.5
 74
     0
  0
LTYPE
  5
8F
330
5
100
AcDbSymbolTableRecord
100
AcDbLinetypeTableRecord
  2
CENTER
 70
     0
  3
Center ____ _ ____ _ ____ _ ____ _ ____ _ ____
 72
    65
 73
     4
 40
2.0
 49
1.25
 74
     0
 49
-0.25
 74
     0
 49
0.25
 74
     0
 49
-0.25
 74
     0
  0
LTYPE
  5
90
330
5
100
AcDbSymbolTableRecord
100
AcDbLinetypeTableRecord
  2
CENTER2
 70
     0
  3
Center (.5x) ___ _ ___ _ ___ _ ___ _ ___ _ ___
 72
    65
 73
     4
 40
1.125
 49
0.75
 74
     0
 49
-0.125
 74
     0
 49
0.125
 74
     0
 49
-0.125
 74
     0
  0
LTYPE
  5
91
330
5
100
AcDbSymbolTableRecord
100
AcDbLinetypeTableRecord
  2
CENTERX2
 70
     0
  3
Center (2x) ________  __  ________  __  _____
 72
    65
 73
     4
 40
4.0
 49
2.5
 74
     0
 49
-0.5
 74
     0
 49
0.5
 74
     0
 49
-0.5
 74
     0
  0
LTYPE
  5
92
330
5
100
AcDbSymbolTableRecord
100
AcDbLinetypeTableRecord
  2
DASHDOT2
 70
     0
  3
Dash dot (.5x) _._._._._._._._._._._._._._._.
 72
    65
 73
     4
 40
0.5
 49
0.25
 74
     0
 49
-0.125
 74
     0
 49
0.0
 74
     0
 49
-0.125
 74
     0
  0
LTYPE
  5
93
330
5
100
AcDbSymbolTableRecord
100
AcDbLinetypeTableRecord
  2
DASHDOTX2
 70
     0
  3
Dash dot (2x) ____  .  ____  .  ____  .  ___
 72
    65
 73
     4
 40
2.0
 49
1.0
 74
     0
 49
-0.5
 74
     0
 49
0.0
 74
     0
 49
-0.5
 74
     0
  0
LTYPE
  5
95
330
5
100
AcDbSymbolTableRecord
100
AcDbLinetypeTableRecord
  2
DASHED2
 70
     0
  3
Dashed (.5x) _ _ _ _ _ _ _ _ _ _ _ _ _ _ _ _ _
 72
    65
 73
     2
 40
0.375
 49
0.25
 74
     0
 49
-0.125
 74
     0
  0
LTYPE
  5
96
330
5
100
AcDbSymbolTableRecord
100
AcDbLinetypeTableRecord
  2
DASHEDX2
 70
     0
  3
Dashed (2x) ____  ____  ____  ____  ____  ___
 72
    65
 73
     2
 40
1.5
 49
1.0
 74
     0
 49
-0.5
 74
     0
  0
LTYPE
  5
97
330
5
100
AcDbSymbolTableRecord
100
AcDbLinetypeTableRecord
  2
DIVIDE
 70
     0
  3
Divide ____ . . ____ . . ____ . . ____ . . ____
 72
    65
 73
     6
 40
1.25
 49
0.5
 74
     0
 49
-0.25
 74
     0
 49
0.0
 74
     0
 49
-0.25
 74
     0
 49
0.0
 74
     0
 49
-0.25
 74
     0
  0
LTYPE
  5
98
330
5
100
AcDbSymbolTableRecord
100
AcDbLinetypeTableRecord
  2
DIVIDE2
 70
     0
  3
Divide (.5x) __..__..__..__..__..__..__..__.._
 72
    65
 73
     6
 40
0.625
 49
0.25
 74
     0
 49
-0.125
 74
     0
 49
0.0
 74
     0
 49
-0.125
 74
     0
 49
0.0
 74
     0
 49
-0.125
 74
     0
  0
LTYPE
  5
99
330
5
100
AcDbSymbolTableRecord
100
AcDbLinetypeTableRecord
  2
DIVIDEX2
 70
     0
  3
Divide (2x) ________  .  .  ________  .  .  _
 72
    65
 73
     6
 40
2.5
 49
1.0
 74
     0
 49
-0.5
 74
     0
 49
0.0
 74
     0
 49
-0.5
 74
     0
 49
0.0
 74
     0
 49
-0.5
 74
     0
  0
LTYPE
  5
9A
330
5
100
AcDbSymbolTableRecord
100
AcDbLinetypeTableRecord
  2
DOT
 70
     0
  3
Dot . . . . . . . . . . . . . . . . . . . . . .
 72
    65
 73
     2
 40
0.25
 49
0.0
 74
     0
 49
-0.25
 74
     0
  0
LTYPE
  5
9B
330
5
100
AcDbSymbolTableRecord
100
AcDbLinetypeTableRecord
  2
DOT2
 70
     0
  3
Dot (.5x) .....................................
 72
    65
 73
     2
 40
0.125
 49
0.0
 74
     0
 49
-0.125
 74
     0
  0
LTYPE
  5
9C
330
5
100
AcDbSymbolTableRecord
100
AcDbLinetypeTableRecord
  2
DOTX2
 70
     0
  3
Dot (2x) .  .  .  .  .  .  .  .  .  .  .  .  . 
 72
    65
 73
     2
 40
0.5
 49
0.0
 74
     0
 49
-0.5
 74
     0
  0
LTYPE
  5
9D
330
5
100
AcDbSymbolTableRecord
100
AcDbLinetypeTableRecord
  2
HIDDEN
 70
     0
  3
Hidden __ __ __ __ __ __ __ __ __ __ __ __ __ _
 72
    65
 73
     2
 40
0.375
 49
0.25
 74
     0
 49
-0.125
 74
     0
  0
LTYPE
  5
9E
330
5
100
AcDbSymbolTableRecord
100
AcDbLinetypeTableRecord
  2
HIDDEN2
 70
     0
  3
Hidden (.5x) _ _ _ _ _ _ _ _ _ _ _ _ _ _ _ _ _
 72
    65
 73
     2
 40
0.1875
 49
0.125
 74
     0
 49
-0.0625
 74
     0
  0
LTYPE
  5
9F
330
5
100
AcDbSymbolTableRecord
100
AcDbLinetypeTableRecord
  2
HIDDENX2
 70
     0
  3
Hidden (2x) ____ ____ ____ ____ ____ ____ ____
 72
    65
 73
     2
 40
0.75
 49
0.5
 74
     0
 49
-0.25
 74
     0
  0
LTYPE
  5
A0
330
5
100
AcDbSymbolTableRecord
100
AcDbLinetypeTableRecord
  2
PHANTOM
 70
     0
  3
Phantom ______  __  __  ______  __  __  ______
 72
    65
 73
     6
 40
2.5
 49
1.25
 74
     0
 49
-0.25
 74
     0
 49
0.25
 74
     0
 49
-0.25
 74
     0
 49
0.25
 74
     0
 49
-0.25
 74
     0
  0
LTYPE
  5
A1
330
5
100
AcDbSymbolTableRecord
100
AcDbLinetypeTableRecord
  2
PHANTOM2
 70
     0
  3
Phantom (.5x) ___ _ _ ___ _ _ ___ _ _ ___ _ _
 72
    65
 73
     6
 40
1.25
 49
0.625
 74
     0
 49
-0.125
 74
     0
 49
0.125
 74
     0
 49
-0.125
 74
     0
 49
0.125
 74
     0
 49
-0.125
 74
     0
  0
LTYPE
  5
A2
330
5
100
AcDbSymbolTableRecord
100
AcDbLinetypeTableRecord
  2
PHANTOMX2
 70
     0
  3
Phantom (2x) ____________    ____    ____   _
 72
    65
 73
     6
 40
5.0
 49
2.5
 74
     0
 49
-0.5
 74
     0
 49
0.5
 74
     0
 49
-0.5
 74
     0
 49
0.5
 74
     0
 49
-0.5
 74
     0
  0
LTYPE
  5
A3
330
5
100
AcDbSymbolTableRecord
100
AcDbLinetypeTableRecord
  2
ACAD_ISO02W100
 70
     0
  3
ISO dash __ __ __ __ __ __ __ __ __ __ __ __ __
 72
    65
 73
     2
 40
0.59
 49
0.47
 74
     0
 49
-0.12
 74
     0
  0
LTYPE
  5
A4
330
5
100
AcDbSymbolTableRecord
100
AcDbLinetypeTableRecord
  2
ACAD_ISO03W100
 70
     0
  3
ISO dash space __    __    __    __    __    __
 72
    65
 73
     2
 40
1.179999999999999
 49
0.47
 74
     0
 49
-0.71
 74
     0
  0
LTYPE
  5
A5
330
5
100
AcDbSymbolTableRecord
100
AcDbLinetypeTableRecord
  2
ACAD_ISO04W100
 70
     0
  3
ISO long-dash dot ____ . ____ . ____ . ____ . _
 72
    65
 73
     4
 40
1.179999999999999
 49
0.9399999999999998
 74
     0
 49
-0.12
 74
     0
 49
0.0
 74
     0
 49
-0.12
 74
     0
  0
LTYPE
  5
A6
330
5
100
AcDbSymbolTableRecord
100
AcDbLinetypeTableRecord
  2
ACAD_ISO05W100
 70
     0
  3
ISO long-dash double-dot ____ .. ____ .. ____ .
 72
    65
 73
     6
 40
1.299999999999999
 49
0.9399999999999998
 74
     0
 49
-0.12
 74
     0
 49
0.0
 74
     0
 49
-0.12
 74
     0
 49
0.0
 74
     0
 49
-0.12
 74
     0
  0
LTYPE
  5
A7
330
5
100
AcDbSymbolTableRecord
100
AcDbLinetypeTableRecord
  2
ACAD_ISO06W100
 70
     0
  3
ISO long-dash triple-dot ____ ... ____ ... ____
 72
    65
 73
     8
 40
1.419999999999999
 49
0.9399999999999998
 74
     0
 49
-0.12
 74
     0
 49
0.0
 74
     0
 49
-0.12
 74
     0
 49
0.0
 74
     0
 49
-0.12
 74
     0
 49
0.0
 74
     0
 49
-0.12
 74
     0
  0
LTYPE
  5
A8
330
5
100
AcDbSymbolTableRecord
100
AcDbLinetypeTableRecord
  2
ACAD_ISO07W100
 70
     0
  3
ISO dot . . . . . . . . . . . . . . . . . . . .
 72
    65
 73
     2
 40
0.12
 49
0.0
 74
     0
 49
-0.12
 74
     0
  0
LTYPE
  5
A9
330
5
100
AcDbSymbolTableRecord
100
AcDbLinetypeTableRecord
  2
ACAD_ISO08W100
 70
     0
  3
ISO long-dash short-dash ____ __ ____ __ ____ _
 72
    65
 73
     4
 40
0.95
 49
0.47
 74
     0
 49
-0.12
 74
     0
 49
0.24
 74
     0
 49
-0.12
 74
     0
  0
LTYPE
  5
AA
330
5
100
AcDbSymbolTableRecord
100
AcDbLinetypeTableRecord
  2
ACAD_ISO09W100
 70
     0
  3
ISO long-dash double-short-dash ____ __ __ ____
 72
    65
 73
     6
 40
1.31
 49
0.47
 74
     0
 49
-0.12
 74
     0
 49
0.24
 74
     0
 49
-0.12
 74
     0
 49
0.24
 74
     0
 49
-0.12
 74
     0
  0
LTYPE
  5
AB
330
5
100
AcDbSymbolTableRecord
100
AcDbLinetypeTableRecord
  2
ACAD_ISO10W100
 70
     0
  3
ISO dash dot __ . __ . __ . __ . __ . __ . __ .
 72
    65
 73
     4
 40
0.71
 49
0.47
 74
     0
 49
-0.12
 74
     0
 49
0.0
 74
     0
 49
-0.12
 74
     0
  0
LTYPE
  5
AC
330
5
100
AcDbSymbolTableRecord
100
AcDbLinetypeTableRecord
  2
ACAD_ISO11W100
 70
     0
  3
ISO double-dash dot __ __ . __ __ . __ __ . __ 
 72
    65
 73
     6
 40
1.299999999999999
 49
0.47
 74
     0
 49
-0.12
 74
     0
 49
0.47
 74
     0
 49
-0.12
 74
     0
 49
0.0
 74
     0
 49
-0.12
 74
     0
  0
LTYPE
  5
AD
330
5
100
AcDbSymbolTableRecord
100
AcDbLinetypeTableRecord
  2
ACAD_ISO12W100
 70
     0
  3
ISO dash double-dot __ . . __ . . __ . . __ . .
 72
    65
 73
     6
 40
0.8299999999999998
 49
0.47
 74
     0
 49
-0.12
 74
     0
 49
0.0
 74
     0
 49
-0.12
 74
     0
 49
0.0
 74
     0
 49
-0.12
 74
     0
  0
LTYPE
  5
AE
330
5
100
AcDbSymbolTableRecord
100
AcDbLinetypeTableRecord
  2
ACAD_ISO13W100
 70
     0
  3
ISO double-dash double-dot __ __ . . __ __ . . 
 72
    65
 73
     8
 40
1.419999999999999
 49
0.47
 74
     0
 49
-0.12
 74
     0
 49
0.47
 74
     0
 49
-0.12
 74
     0
 49
0.0
 74
     0
 49
-0.12
 74
     0
 49
0.0
 74
     0
 49
-0.12
 74
     0
  0
LTYPE
  5
AF
330
5
100
AcDbSymbolTableRecord
100
AcDbLinetypeTableRecord
  2
ACAD_ISO14W100
 70
     0
  3
ISO dash triple-dot __ . . . __ . . . __ . . . 
 72
    65
 73
     8
 40
0.95
 49
0.47
 74
     0
 49
-0.12
 74
     0
 49
0.0
 74
     0
 49
-0.12
 74
     0
 49
0.0
 74
     0
 49
-0.12
 74
     0
 49
0.0
 74
     0
 49
-0.12
 74
     0
  0
LTYPE
  5
B0
330
5
100
AcDbSymbolTableRecord
100
AcDbLinetypeTableRecord
  2
ACAD_ISO15W100
 70
     0
  3
ISO double-dash triple-dot __ __ . . . __ __ . 
 72
    65
 73
    10
 40
1.539999999999999
 49
0.47
 74
     0
 49
-0.12
 74
     0
 49
0.47
 74
     0
 49
-0.12
 74
     0
 49
0.0
 74
     0
 49
-0.12
 74
     0
 49
0.0
 74
     0
 49
-0.12
 74
     0
 49
0.0
 74
     0
 49
-0.12
 74
     0
  0
LTYPE
  5
B3
330
5
100
AcDbSymbolTableRecord
100
AcDbLinetypeTableRecord
  2
FENCELINE1
 70
     0
  3
Fenceline circle ----0-----0----0-----0----0---
 72
    65
 73
     4
 40
1.45
 49
0.25
 74
     0
 49
-0.1
 74
     4
 75
   133
340
B2
 46
0.1
 50
0.0
 44
-0.1
 45
0.0
 49
-0.1
 74
     0
 49
1.0
 74
     0
  0
LTYPE
  5
B4
330
5
100
AcDbSymbolTableRecord
100
AcDbLinetypeTableRecord
  2
FENCELINE2
 70
     0
  3
Fenceline square ----[]-----[]----[]-----[]----
 72
    65
 73
     4
 40
1.45
 49
0.25
 74
     0
 49
-0.1
 74
     4
 75
   132
340
B2
 46
0.1
 50
0.0
 44
-0.1
 45
0.0
 49
-0.1
 74
     0
 49
1.0
 74
     0
  0
LTYPE
  5
B5
330
5
100
AcDbSymbolTableRecord
100
AcDbLinetypeTableRecord
  2
TRACKS
 70
     0
  3
Tracks -|-|-|-|-|-|-|-|-|-|-|-|-|-|-|-|-|-|-|-|
 72
    65
 73
     2
 40
0.3
 49
0.15
 74
     4
 75
   130
340
B2
 46
0.25
 50
0.0
 44
0.0
 45
0.0
 49
0.15
 74
     0
  0
LTYPE
  5
B6
330
5
100
AcDbSymbolTableRecord
100
AcDbLinetypeTableRecord
  2
BATTING
 70
     0
  3
Batting SSSSSSSSSSSSSSSSSSSSSSSSSSSSSSSSSSSSSSS
 72
    65
 73
     4
 40
0.4001000000000001
 49
0.0001
 74
     0
 49
-0.1
 74
     4
 75
   134
340
B2
 46
0.1
 50
0.0
 44
-0.1
 45
0.0
 49
-0.2
 74
     4
 75
   134
340
B2
 46
0.1
 50
180.0
 44
0.1
 45
0.0
 49
-0.1
 74
     0
  0
LTYPE
  5
B7
330
5
100
AcDbSymbolTableRecord
100
AcDbLinetypeTableRecord
  2
HOT_WATER_SUPPLY
 70
     0
  3
Hot water supply ---- HW ---- HW ---- HW ----
 72
    65
 73
     3
 40
0.9
 49
0.5
 74
     0
 49
-0.2
 74
     2
 75
     0
340
55
 46
0.1
 50
0.0
 44
-0.1
 45
-0.05
  9
HW
 49
-0.2
 74
     0
  0
LTYPE
  5
B8
330
5
100
AcDbSymbolTableRecord
100
AcDbLinetypeTableRecord
  2
GAS_LINE
 70
     0
  3
Gas line ----GAS----GAS----GAS----GAS----GAS---
 72
    65
 73
     3
 40
0.95
 49
0.5
 74
     0
 49
-0.2
 74
     2
 75
     0
340
55
 46
0.1
 50
0.0
 44
-0.1
 45
-0.05
  9
GAS
 49
-0.25
 74
     0
  0
LTYPE
  5
B9
330
5
100
AcDbSymbolTableRecord
100
AcDbLinetypeTableRecord
  2
ZIGZAG
 70
     0
  3
Zig zag /\/\/\/\/\/\/\/\/\/\/\/\/\/\/\/\/\/\/\/
 72
    65
 73
     4
 40
0.8001000000000001
 49
0.0001
 74
     0
 49
-0.2
 74
     4
 75
   131
340
B2
 46
0.2
 50
0.0
 44
-0.2
 45
0.0
 49
-0.4
 74
     4
 75
   131
340
B2
 46
0.2
 50
180.0
 44
0.2
 45
0.0
 49
-0.2
 74
     0
  0
ENDTAB
  0
TABLE
  2
LAYER
  5
2
330
0
100
AcDbSymbolTable
 70
    27
  0
LAYER
  5
54
330
2
100
AcDbSymbolTableRecord
100
AcDbLayerTableRecord
  2
0
 70
     0
 62
     7
  6
Continuous
370
    18
390
F
347
21
  0
LAYER
  5
C0
330
2
100
AcDbSymbolTableRecord
100
AcDbLayerTableRecord
  2
Center Mark (ANSI)
 70
     0
 62
     7
  6
Continuous
370
    15
390
F
347
21
  0
LAYER
  5
C1
330
2
100
AcDbSymbolTableRecord
100
AcDbLayerTableRecord
  2
Centerline (ANSI)
 70
     0
 62
     7
  6
Continuous
370
    15
390
F
347
21
  0
LAYER
  5
C3
330
2
100
AcDbSymbolTableRecord
100
AcDbLayerTableRecord
  2
Dimension (ANSI)
 70
     0
 62
     7
  6
Continuous
370
    13
390
F
347
21
  0
LAYER
  5
C5
330
2
100
AcDbSymbolTableRecord
100
AcDbLayerTableRecord
  2
Hidden (ANSI)
 70
     0
 62
     7
  6
DASHED
370
    15
390
F
347
21
  0
LAYER
  5
CC
330
2
100
AcDbSymbolTableRecord
100
AcDbLayerTableRecord
  2
Symbol (ANSI)
 70
     0
 62
     7
  6
Continuous
370
    18
390
F
347
21
  0
LAYER
  5
CF
330
2
100
AcDbSymbolTableRecord
100
AcDbLayerTableRecord
  2
Visible (ANSI)
 70
     0
 62
     7
  6
Continuous
370
    13
390
F
347
21
  0
LAYER
  5
D0
330
2
100
AcDbSymbolTableRecord
100
AcDbLayerTableRecord
  2
Visible Narrow (ANSI)
 70
     0
 62
     7
  6
Continuous
370
    18
390
F
347
21
  0
LAYER
  5
532
330
2
100
AcDbSymbolTableRecord
100
AcDbLayerTableRecord
  2
Defpoints
 70
     0
 62
     7
  6
Continuous
290
     0
370
    -3
390
F
347
21
  0
ENDTAB
  0
TABLE
  2
STYLE
  5
3
330
0
100
AcDbSymbolTable
 70
    18
  0
STYLE
  5
55
330
3
100
AcDbSymbolTableRecord
100
AcDbTextStyleTableRecord
  2
Standard
 70
     0
 40
0.0
 41
1.0
 50
0.0
 71
     0
 42
0.2
  3
txt
  4

  0
STYLE
  5
5A
330
3
100
AcDbSymbolTableRecord
100
AcDbTextStyleTableRecord
  2
Annotative
 70
     0
 40
0.0
 41
1.0
 50
0.0
 71
     0
 42
0.2
  3
txt
  4

1001
AcadAnnotative
1000
AnnotativeData
1002
{
1070
     1
1070
     1
1002
}
  0
STYLE
  5
B2
330
3
100
AcDbSymbolTableRecord
100
AcDbTextStyleTableRecord
  2

 70
     1
 40
0.0
 41
1.0
 50
0.0
 71
     0
 42
0.2
  3
ltypeshp.shx
  4

  0
STYLE
  5
D4
330
3
100
AcDbSymbolTableRecord
100
AcDbTextStyleTableRecord
  2
ITALICC_120
 70
     0
 40
0.0
 41
1.0
 50
0.0
 71
     0
 42
0.2
  3
italicc.shx
  4

  0
STYLE
  5
D5
330
3
100
AcDbSymbolTableRecord
100
AcDbTextStyleTableRecord
  2
Label Text (ANSI)
 70
     0
 40
0.0
 41
1.0
 50
0.0
 71
     0
 42
0.2
  3
tahoma.ttf
  4

1001
ACAD
1000
Tahoma
1071
      256
  0
STYLE
  5
D6
330
3
100
AcDbSymbolTableRecord
100
AcDbTextStyleTableRecord
  2
Note Text (ANSI)
 70
     0
 40
0.0
 41
1.0
 50
0.0
 71
     0
 42
0.2
  3
tahoma.ttf
  4

1001
ACAD
1000
Tahoma
1071
      256
  0
STYLE
  5
D7
330
3
100
AcDbSymbolTableRecord
100
AcDbTextStyleTableRecord
  2
ROMANS
 70
     0
 40
0.0
 41
1.0
 50
0.0
 71
     0
 42
0.2
  3
romans.shx
  4

  0
STYLE
  5
D8
330
3
100
AcDbSymbolTableRecord
100
AcDbTextStyleTableRecord
  2
SANSSERIF_114
 70
     0
 40
0.0
 41
1.0
 50
0.0
 71
     0
 42
0.2
  3
tahoma.ttf
  4

1001
ACAD
1000
Tahoma
1071
      256
  0
STYLE
  5
D9
330
3
100
AcDbSymbolTableRecord
100
AcDbTextStyleTableRecord
  2
SANSSERIF_117
 70
     0
 40
0.0
 41
1.0
 50
0.0
 71
     0
 42
0.2
  3
tahoma.ttf
  4

1001
ACAD
1000
Tahoma
1071
      256
  0
STYLE
  5
DA
330
3
100
AcDbSymbolTableRecord
100
AcDbTextStyleTableRecord
  2
STANDARDAM_ANSI
 70
     0
 40
0.0
 41
1.0
 50
0.0
 71
     0
 42
0.2
  3
txt.shx
  4

  0
STYLE
  5
DB
330
3
100
AcDbSymbolTableRecord
100
AcDbTextStyleTableRecord
  2
StandardAM_ANSI$0
 70
     0
 40
0.0
 41
1.0
 50
0.0
 71
     0
 42
0.2
  3
txt.shx
  4

  0
STYLE
  5
DC
330
3
100
AcDbSymbolTableRecord
100
AcDbTextStyleTableRecord
  2
STANDARDAM_ANSI$3
 70
     0
 40
0.0
 41
1.0
 50
0.0
 71
     0
 42
0.2
  3
txt.shx
  4

  0
STYLE
  5
DD
330
3
100
AcDbSymbolTableRecord
100
AcDbTextStyleTableRecord
  2
STANDARDAM_ANSI$4
 70
     0
 40
0.0
 41
1.0
 50
0.0
 71
     0
 42
0.2
  3
txt.shx
  4

  0
STYLE
  5
DE
330
3
100
AcDbSymbolTableRecord
100
AcDbTextStyleTableRecord
  2
STANDARDAM_ANSI$7
 70
     0
 40
0.0
 41
1.0
 50
0.0
 71
     0
 42
0.2
  3
txt.shx
  4

  0
STYLE
  5
DF
330
3
100
AcDbSymbolTableRecord
100
AcDbTextStyleTableRecord
  2
STANDARDAM_ANSI$SF
 70
     0
 40
0.0
 41
1.0
 50
0.0
 71
     0
 42
0.2
  3
txt.shx
  4

  0
STYLE
  5
E0
330
3
100
AcDbSymbolTableRecord
100
AcDbTextStyleTableRecord
  2
STANDARDAM_ANSI$SH
 70
     0
 40
0.0
 41
1.0
 50
0.0
 71
     0
 42
0.2
  3
txt.shx
  4

  0
STYLE
  5
E1
330
3
100
AcDbSymbolTableRecord
100
AcDbTextStyleTableRecord
  2
STANDARDSTANDARD
 70
     0
 40
0.0
 41
1.0
 50
0.0
 71
     0
 42
0.2
  3
txt.shx
  4

  0
STYLE
  5
2DF
330
3
100
AcDbSymbolTableRecord
100
AcDbTextStyleTableRecord
  2
Text Style153
 70
     0
 40
0.0
 41
1.0
 50
0.0
 71
     0
 42
0.2
  3
tahoma.ttf
  4

1001
ACAD
1000
Tahoma
1071
      256
  0
ENDTAB
  0
TABLE
  2
VIEW
  5
6
330
0
100
AcDbSymbolTable
 70
     0
  0
ENDTAB
  0
TABLE
  2
UCS
  5
7
330
0
100
AcDbSymbolTable
 70
     0
  0
ENDTAB
  0
TABLE
  2
APPID
  5
9
330
0
100
AcDbSymbolTable
 70
     3
  0
APPID
  5
56
330
9
100
AcDbSymbolTableRecord
100
AcDbRegAppTableRecord
  2
ACAD
 70
     0
  0
APPID
  5
5E
330
9
100
AcDbSymbolTableRecord
100
AcDbRegAppTableRecord
  2
AcadAnnotative
 70
     0
  0
APPID
  5
B5E
330
9
100
AcDbSymbolTableRecord
100
AcDbRegAppTableRecord
  2
ACAD_DSTYLE_DIMRADIAL_EXTENSION
 70
     0
  0
ENDTAB
  0
TABLE
  2
DIMSTYLE
  5
A
330
0
100
AcDbSymbolTable
 70
    27
100
AcDbDimStyleTable
 71
     2
340
F6
340
58
  0
DIMSTYLE
105
58
330
A
100
AcDbSymbolTableRecord
100
AcDbDimStyleTableRecord
  2
STANDARD
 70
     0
 41
0.1800000071525573
 42
0.0625
140
0.1800000071525574
144
1.0
147
0.0900000035762787
176
   256
177
   256
178
   256
274
     3
340
55
371
    -1
372
    -1
  0
DIMSTYLE
105
59
330
A
100
AcDbSymbolTableRecord
100
AcDbDimStyleTableRecord
  2
Annotative
 70
     0
340
55
1001
AcadAnnotative
1000
AnnotativeData
1002
{
1070
     1
1070
     1
1002
}
  0
DIMSTYLE
105
E2
330
A
100
AcDbSymbolTableRecord
100
AcDbDimStyleTableRecord
  2
AM_ANSI
 70
     0
  4
 mm
 40
10.0
 41
0.119999997317791
 42
0.05
 43
0.5
 44
0.1
 45
0.00000001
 78
     4
 79
     2
140
0.1200000047683716
146
0.7099999189376831
147
0.0599999986588955
176
   256
177
   256
178
     2
284
     4
340
DA
371
    -1
372
    -1
  0
DIMSTYLE
105
E3
330
A
100
AcDbSymbolTableRecord
100
AcDbDimStyleTableRecord
  2
AM_ANSI$7
 70
     0
  4
 mm
 40
10.0
 41
0.119999997317791
 42
0.05
 43
0.5
 44
0.1
 45
0.00000001
 78
     4
 79
     2
140
0.1200000047683716
146
0.7099999189376831
147
0.0599999986588955
176
   256
177
   256
178
     2
284
     4
340
DA
371
    -1
372
    -1
  0
DIMSTYLE
105
E4
330
A
100
AcDbSymbolTableRecord
100
AcDbDimStyleTableRecord
  2
AM_ANSI$0
 70
     0
  4
 mm
 40
10.0
 41
0.119999997317791
 42
0.05
 43
0.5
 44
0.1
 45
0.00000001
 78
     4
 79
     2
140
0.1200000047683716
146
0.7099999189376831
147
0.0599999986588955
176
   256
177
   256
178
     2
284
     4
340
DB
371
    -1
372
    -1
  0
DIMSTYLE
105
E5
330
A
100
AcDbSymbolTableRecord
100
AcDbDimStyleTableRecord
  2
AM_ANSI$0$7
 70
     0
  4
 mm
 40
10.0
 41
0.119999997317791
 42
0.05
 43
0.5
 44
0.1
 45
0.00000001
 78
     4
 79
     2
140
0.1200000047683716
146
0.7099999189376831
147
0.0599999986588955
176
   256
177
   256
178
     2
284
     4
340
DB
371
    -1
372
    -1
  0
DIMSTYLE
105
E6
330
A
100
AcDbSymbolTableRecord
100
AcDbDimStyleTableRecord
  2
AM_ANSI$3
 70
     0
  4
 mm
 40
10.0
 41
0.119999997317791
 42
0.05
 43
0.5
 44
0.1
 45
0.00000001
 78
     4
 79
     2
140
0.1200000047683716
146
0.7099999189376831
147
0.0599999986588955
176
   256
177
   256
178
     2
284
     4
340
DC
371
    -1
372
    -1
  0
DIMSTYLE
105
E7
330
A
100
AcDbSymbolTableRecord
100
AcDbDimStyleTableRecord
  2
AM_ANSI$3$7
 70
     0
  4
 mm
 40
10.0
 41
0.119999997317791
 42
0.05
 43
0.5
 44
0.1
 45
0.00000001
 78
     4
 79
     2
140
0.1200000047683716
146
0.7099999189376831
147
0.0599999986588955
176
   256
177
   256
178
     2
284
     4
340
DC
371
    -1
372
    -1
  0
DIMSTYLE
105
E8
330
A
100
AcDbSymbolTableRecord
100
AcDbDimStyleTableRecord
  2
AM_ANSI$4
 70
     0
  4
 mm
 40
10.0
 41
0.119999997317791
 42
0.05
 43
0.5
 44
0.1
 45
0.00000001
 78
     4
 79
     2
140
0.1200000047683716
146
0.7099999189376831
147
0.0599999986588955
176
   256
177
   256
178
     2
284
     4
340
DD
371
    -1
372
    -1
  0
DIMSTYLE
105
E9
330
A
100
AcDbSymbolTableRecord
100
AcDbDimStyleTableRecord
  2
AM_ANSI$4$7
 70
     0
  4
 mm
 40
10.0
 41
0.119999997317791
 42
0.05
 43
0.5
 44
0.1
 45
0.00000001
 78
     4
 79
     2
140
0.1200000047683716
146
0.7099999189376831
147
0.0599999986588955
176
   256
177
   256
178
     2
284
     4
340
DD
371
    -1
372
    -1
  0
DIMSTYLE
105
EA
330
A
100
AcDbSymbolTableRecord
100
AcDbDimStyleTableRecord
  2
AM_ANSI$SF
 70
     0
  4
 mm
 40
10.0
 41
0.119999997317791
 42
0.05
 43
0.5
 44
0.1
 45
0.00000001
 75
     1
 76
     1
 78
     4
 79
     2
140
0.1200000047683716
146
0.7099999189376831
147
0.0599999986588955
176
   256
177
   256
178
     2
284
     4
340
DF
371
    -1
372
    -1
  0
DIMSTYLE
105
EB
330
A
100
AcDbSymbolTableRecord
100
AcDbDimStyleTableRecord
  2
AM_ANSI$SF$7
 70
     0
  4
 mm
 40
10.0
 41
0.119999997317791
 42
0.05
 43
0.5
 44
0.1
 45
0.00000001
 75
     1
 76
     1
 78
     4
 79
     2
140
0.1200000047683716
146
0.7099999189376831
147
0.0599999986588955
176
   256
177
   256
178
     2
284
     4
340
DF
371
    -1
372
    -1
  0
DIMSTYLE
105
EC
330
A
100
AcDbSymbolTableRecord
100
AcDbDimStyleTableRecord
  2
AM_ANSI$SH
 70
     0
  4
 mm
 40
10.0
 41
0.119999997317791
 42
0.05
 43
0.5
 44
0.1
 45
0.00000001
 75
     1
 76
     1
 78
     4
 79
     2
140
0.1200000047683716
146
0.7099999189376831
147
0.0599999986588955
176
   256
177
   256
178
     2
284
     4
340
E0
371
    -1
372
    -1
  0
DIMSTYLE
105
ED
330
A
100
AcDbSymbolTableRecord
100
AcDbDimStyleTableRecord
  2
AM_ANSI$SH$7
 70
     0
  4
 mm
 40
10.0
 41
0.119999997317791
 42
0.05
 43
0.5
 44
0.1
 45
0.00000001
 75
     1
 76
     1
 78
     4
 79
     2
140
0.1200000047683716
146
0.7099999189376831
147
0.0599999986588955
176
   256
177
   256
178
     2
284
     4
340
E0
371
    -1
372
    -1
  0
DIMSTYLE
105
EE
330
A
100
AcDbSymbolTableRecord
100
AcDbDimStyleTableRecord
  2
Architectural (ANSI)
 70
     0
 40
10.0
 41
0.0984251946210861
 43
0.2362204724409449
 44
0.125
 45
0.00000001
 46
0.3937007874015748
 78
     3
 79
     3
140
0.1200000047683716
147
0.031496062992126
171
     1
176
   256
177
   256
178
   256
272
     2
274
     1
276
     2
277
     4
284
    12
285
     4
286
    12
340
D6
371
    -1
372
    -1
  0
DIMSTYLE
105
EF
330
A
100
AcDbSymbolTableRecord
100
AcDbDimStyleTableRecord
  2
Architectural (ANSI)$7
 70
     0
 40
10.0
 41
0.0984251946210861
 43
0.2362204724409449
 44
0.125
 45
0.00000001
 46
0.3937007874015748
 78
     3
 79
     3
140
0.1200000047683716
147
0.031496062992126
171
     1
176
   256
177
   256
178
   256
272
     2
274
     1
276
     2
277
     4
284
    12
285
     4
286
    12
340
D6
371
    -1
372
    -1
  0
DIMSTYLE
105
F0
330
A
100
AcDbSymbolTableRecord
100
AcDbDimStyleTableRecord
  2
Default - Fraction (ANSI)
 70
     0
 40
10.0
 41
0.0984251946210861
 43
0.2362204724409449
 44
0.125
 45
0.00000001
 46
0.3937007874015748
 79
     3
140
0.1200000047683716
147
0.031496062992126
171
     1
176
   256
177
   256
178
   256
272
     2
274
     1
276
     2
277
     5
284
    12
285
     4
286
    12
340
D6
371
    -1
372
    -1
  0
DIMSTYLE
105
F1
330
A
100
AcDbSymbolTableRecord
100
AcDbDimStyleTableRecord
  2
Default - Fraction (ANSI)$7
 70
     0
 40
10.0
 41
0.0984251946210861
 43
0.2362204724409449
 44
0.125
 45
0.00000001
 46
0.3937007874015748
 79
     3
140
0.1200000047683716
147
0.031496062992126
171
     1
176
   256
177
   256
178
   256
272
     2
274
     1
276
     2
277
     5
284
    12
285
     4
286
    12
340
D6
371
    -1
372
    -1
  0
DIMSTYLE
105
F2
330
A
100
AcDbSymbolTableRecord
100
AcDbDimStyleTableRecord
  2
Default - mm (ANSI)
 70
     0
 40
10.0
 41
0.0984251946210861
 42
0.063
 43
0.2362204724409449
 44
0.125
 45
0.00000001
 46
0.3937007874015748
 73
     0
 78
     4
 79
     1
140
0.1200000047683716
143
1.0
144
25.4
147
0.031496062992126
171
     1
176
   256
177
   256
178
   256
179
     1
271
     2
272
     2
274
     1
284
     4
285
     4
340
D6
371
    -1
372
    -1
  0
DIMSTYLE
105
F3
330
A
100
AcDbSymbolTableRecord
100
AcDbDimStyleTableRecord
  2
Default - mm (ANSI)$7
 70
     0
 40
10.0
 41
0.0984251946210861
 42
0.063
 43
0.2362204724409449
 44
0.125
 45
0.00000001
 46
0.3937007874015748
 73
     0
 78
     4
 79
     1
140
0.1200000047683716
143
1.0
144
25.4
147
0.031496062992126
171
     1
176
   256
177
   256
178
   256
179
     1
271
     2
272
     2
274
     1
284
     4
285
     4
340
D6
371
    -1
372
    -1
  0
DIMSTYLE
105
F4
330
A
100
AcDbSymbolTableRecord
100
AcDbDimStyleTableRecord
  2
Default - mm [in] (ANSI)
 70
     0
  4
 in
 40
10.0
 41
0.0984251946210861
 42
0.063
 43
0.25
 44
0.125
 45
0.00000001
 46
0.3937007874015748
 73
     0
 78
     4
 79
     1
140
0.1200000047683716
143
0.03937
144
25.4
147
0.031496062992126
170
     1
171
     3
176
   256
177
   256
178
   256
179
     1
271
     2
272
     2
274
     3
284
     4
285
     4
286
     4
340
D6
371
    -1
372
    -1
  0
DIMSTYLE
105
F5
330
A
100
AcDbSymbolTableRecord
100
AcDbDimStyleTableRecord
  2
Default - mm [in] (ANSI)$7
 70
     0
  4
 in
 40
10.0
 41
0.0984251946210861
 42
0.063
 43
0.25
 44
0.125
 45
0.00000001
 46
0.3937007874015748
 73
     0
 78
     4
 79
     1
140
0.1200000047683716
143
0.03937
144
25.4
147
0.031496062992126
170
     1
171
     3
176
   256
177
   256
178
   256
179
     1
271
     2
272
     2
274
     3
284
     4
285
     4
286
     4
340
D6
371
    -1
372
    -1
  0
DIMSTYLE
105
F6
102
{ACAD_REACTORS
330
530
330
61C
330
706
330
7F0
330
8F0
330
9DA
330
AC4
330
B7F
330
C88
102
}
330
A
100
AcDbSymbolTableRecord
100
AcDbDimStyleTableRecord
  2
Default (ANSI)
 70
     0
 40
10.0
 41
0.0984251946210861
 43
0.2362204724409449
 44
0.125
 45
0.00000001
 46
0.3937007874015748
 79
     1
140
0.1200000047683716
147
0.031496062992126
171
     1
176
   256
177
   256
178
   256
271
     2
272
     2
274
     1
284
     4
285
     4
340
D6
371
    -1
372
    -1
  0
DIMSTYLE
105
F7
330
A
100
AcDbSymbolTableRecord
100
AcDbDimStyleTableRecord
  2
Default (ANSI)$7
 70
     0
 40
10.0
 41
0.0984251946210861
 43
0.2362204724409449
 44
0.125
 45
0.00000001
 46
0.3937007874015748
 79
     1
140
0.1200000047683716
147
0.031496062992126
171
     1
176
   256
177
   256
178
   256
271
     2
272
     2
274
     1
284
     4
285
     4
340
D6
371
    -1
372
    -1
  0
DIMSTYLE
105
F8
330
A
100
AcDbSymbolTableRecord
100
AcDbDimStyleTableRecord
  2
Alternate (ANSI)
 70
     0
 40
10.0
 41
0.0979999974370003
340
55
342
F9
  0
DIMSTYLE
105
10B
330
A
100
AcDbSymbolTableRecord
100
AcDbDimStyleTableRecord
  2
Datum (ANSI)
 70
     0
 40
10.0
 41
0.0979999974370003
340
55
342
F9
  0
DIMSTYLE
105
11A
330
A
100
AcDbSymbolTableRecord
100
AcDbDimStyleTableRecord
  2
Large (ANSI)
 70
     0
 40
10.0
 41
0.1959999948740005
340
55
342
F9
  0
ENDTAB
  0
TABLE
  2
BLOCK_RECORD
  5
1
330
0
100
AcDbSymbolTable
 70
    13
  0
BLOCK_RECORD
  5
6C
330
1
100
AcDbSymbolTableRecord
100
AcDbBlockTableRecord
  2
*Model_Space
340
6F
 70
     0
280
     1
281
     0
  0
BLOCK_RECORD
  5
68
330
1
100
AcDbSymbolTableRecord
100
AcDbBlockTableRecord
  2
*Paper_Space
340
6B
 70
     0
280
     1
281
     0
  0
BLOCK_RECORD
  5
70
330
1
100
AcDbSymbolTableRecord
100
AcDbBlockTableRecord
  2
*Paper_Space0
340
73
 70
     0
280
     1
281
     0
  0
BLOCK_RECORD
  5
F9
330
1
100
AcDbSymbolTableRecord
100
AcDbBlockTableRecord
  2
_Closed
340
0
 70
     0
280
     1
281
     0
  0
BLOCK_RECORD
  5
100
330
1
100
AcDbSymbolTableRecord
100
AcDbBlockTableRecord
  2
DatumFilled45
340
0
 70
     0
280
     1
281
     0
  0
BLOCK_RECORD
  5
10C
330
1
100
AcDbSymbolTableRecord
100
AcDbBlockTableRecord
  2
Filled-1
340
0
 70
     0
280
     1
281
     0
  0
BLOCK_RECORD
  5
533
330
1
100
AcDbSymbolTableRecord
100
AcDbBlockTableRecord
  2
*D4
340
0
 70
     0
280
     1
281
     0
  0
BLOCK_RECORD
  5
61D
330
1
100
AcDbSymbolTableRecord
100
AcDbBlockTableRecord
  2
*D5
340
0
 70
     0
280
     1
281
     0
  0
BLOCK_RECORD
  5
707
330
1
100
AcDbSymbolTableRecord
100
AcDbBlockTableRecord
  2
*D6
340
0
 70
     0
280
     1
281
     0
  0
BLOCK_RECORD
  5
7F1
330
1
100
AcDbSymbolTableRecord
100
AcDbBlockTableRecord
  2
*D7
340
0
 70
     0
280
     1
281
     0
  0
BLOCK_RECORD
  5
8F1
330
1
100
AcDbSymbolTableRecord
100
AcDbBlockTableRecord
  2
*D8
340
0
 70
     0
280
     1
281
     0
  0
BLOCK_RECORD
  5
9DB
330
1
100
AcDbSymbolTableRecord
100
AcDbBlockTableRecord
  2
*D9
340
0
 70
     0
280
     1
281
     0
  0
BLOCK_RECORD
  5
AC5
330
1
100
AcDbSymbolTableRecord
100
AcDbBlockTableRecord
  2
*D10
340
0
 70
     0
280
     1
281
     0
  0
BLOCK_RECORD
  5
B80
330
1
100
AcDbSymbolTableRecord
100
AcDbBlockTableRecord
  2
*D11
340
0
 70
     0
280
     1
281
     0
  0
BLOCK_RECORD
  5
C89
330
1
100
AcDbSymbolTableRecord
100
AcDbBlockTableRecord
  2
*D12
340
0
 70
     0
280
     1
281
     0
  0
ENDTAB
  0
ENDSEC
  0
SECTION
  2
BLOCKS
  0
BLOCK
  5
6D
330
6C
100
AcDbEntity
  8
0
100
AcDbBlockBegin
  2
*Model_Space
 70
     0
 10
0.0
 20
0.0
 30
0.0
  3
*Model_Space
  1

  0
ENDBLK
  5
6E
330
6C
100
AcDbEntity
  8
0
100
AcDbBlockEnd
  0
BLOCK
  5
69
330
68
100
AcDbEntity
 67
     1
  8
0
100
AcDbBlockBegin
  2
*Paper_Space
 70
     0
 10
0.0
 20
0.0
 30
0.0
  3
*Paper_Space
  1

  0
ENDBLK
  5
6A
330
68
100
AcDbEntity
 67
     1
  8
0
100
AcDbBlockEnd
  0
BLOCK
  5
71
330
70
100
AcDbEntity
 67
     1
  8
0
100
AcDbBlockBegin
  2
*Paper_Space0
 70
     0
 10
0.0
 20
0.0
 30
0.0
  3
*Paper_Space0
  1

  0
ENDBLK
  5
72
330
70
100
AcDbEntity
 67
     1
  8
0
100
AcDbBlockEnd
  0
BLOCK
  5
FE
330
F9
100
AcDbEntity
  8
0
100
AcDbBlockBegin
  2
_Closed
 70
     0
 10
0.0
 20
0.0
 30
0.0
  3
_Closed
  1

  0
LINE
  5
FA
330
F9
100
AcDbEntity
  8
0
  6
ByBlock
 62
     0
370
    -2
100
AcDbLine
 10
-1.0
 20
0.1666666666666666
 30
0.0
 11
0.0
 21
0.0
 31
0.0
  0
LINE
  5
FB
330
F9
100
AcDbEntity
  8
0
  6
ByBlock
 62
     0
370
    -2
100
AcDbLine
 10
0.0
 20
0.0
 30
0.0
 11
-1.0
 21
-0.1666666666666666
 31
0.0
  0
LINE
  5
FC
330
F9
100
AcDbEntity
  8
0
  6
ByBlock
 62
     0
370
    -2
100
AcDbLine
 10
-1.0
 20
0.1666666666666666
 30
0.0
 11
-1.0
 21
-0.1666666666666666
 31
0.0
  0
LINE
  5
FD
330
F9
100
AcDbEntity
  8
0
  6
ByBlock
 62
     0
370
    -2
100
AcDbLine
 10
0.0
 20
0.0
 30
0.0
 11
-1.0
 21
0.0
 31
0.0
  0
ENDBLK
  5
FF
330
F9
100
AcDbEntity
  8
0
100
AcDbBlockEnd
  0
BLOCK
  5
101
330
100
100
AcDbEntity
  8
0
100
AcDbBlockBegin
  2
DatumFilled45
 70
     0
 10
0.0
 20
0.0
 30
0.0
  3
DatumFilled45
  1

  0
POLYLINE
  5
103
330
100
100
AcDbEntity
  8
0
 62
     0
100
AcDb2dPolyline
 66
     1
 10
0.0
 20
0.0
 30
0.0
 70
   128
  0
VERTEX
  5
104
330
103
100
AcDbEntity
  8
0
 62
     0
100
AcDbVertex
100
AcDb2dVertex
 10
0.0
 20
0.9999999999999998
 30
0.0
  0
VERTEX
  5
105
330
103
100
AcDbEntity
  8
0
 62
     0
100
AcDbVertex
100
AcDb2dVertex
 10
0.0
 20
-0.9999999999999998
 30
0.0
  0
VERTEX
  5
107
330
103
100
AcDbEntity
  8
0
 62
     0
100
AcDbVertex
100
AcDb2dVertex
 10
-0.9999999999999998
 20
0.0
 30
0.0
  0
VERTEX
  5
108
330
103
100
AcDbEntity
  8
0
 62
     0
100
AcDbVertex
100
AcDb2dVertex
 10
0.0
 20
0.9999999999999998
 30
0.0
  0
SEQEND
  5
106
330
103
100
AcDbEntity
  8
0
 62
     0
  0
SOLID
  5
10A
330
100
100
AcDbEntity
  8
0
 62
     0
100
AcDbTrace
 10
0.0
 20
0.9999999999999998
 30
0.0
 11
0.0
 21
-0.9999999999999998
 31
0.0
 12
-0.9999999999999998
 22
0.0
 32
0.0
 13
0.0
 23
0.9999999999999998
 33
0.0
  0
ENDBLK
  5
102
330
100
100
AcDbEntity
  8
0
100
AcDbBlockEnd
  0
BLOCK
  5
10D
330
10C
100
AcDbEntity
  8
0
100
AcDbBlockBegin
  2
Filled-1
 70
     0
 10
0.0
 20
0.0
 30
0.0
  3
Filled-1
  1

  0
LINE
  5
10F
330
10C
100
AcDbEntity
  8
0
 62
     0
100
AcDbLine
 10
-0.9999999999999998
 20
0.0
 30
0.0
 11
0.0
 21
0.0
 31
0.0
  0
POLYLINE
  5
110
330
10C
100
AcDbEntity
  8
0
 62
     0
100
AcDb2dPolyline
 66
     1
 10
0.0
 20
0.0
 30
0.0
 70
   128
  0
VERTEX
  5
111
330
110
100
AcDbEntity
  8
0
 62
     0
100
AcDbVertex
100
AcDb2dVertex
 10
-0.9999999999999998
 20
-0.0994897959183674
 30
0.0
  0
VERTEX
  5
112
330
110
100
AcDbEntity
  8
0
 62
     0
100
AcDbVertex
100
AcDb2dVertex
 10
0.0
 20
0.0
 30
0.0
  0
VERTEX
  5
114
330
110
100
AcDbEntity
  8
0
 62
     0
100
AcDbVertex
100
AcDb2dVertex
 10
-0.9999999999999998
 20
0.0994897959183674
 30
0.0
  0
VERTEX
  5
115
330
110
100
AcDbEntity
  8
0
 62
     0
100
AcDbVertex
100
AcDb2dVertex
 10
-0.9999999999999998
 20
-0.0994897959183674
 30
0.0
  0
SEQEND
  5
113
330
110
100
AcDbEntity
  8
0
 62
     0
  0
SOLID
  5
116
330
10C
100
AcDbEntity
  8
0
 62
     0
100
AcDbTrace
 10
-0.9999999999999998
 20
-0.0994897959183674
 30
0.0
 11
0.0
 21
0.0
 31
0.0
 12
-0.9999999999999998
 22
0.0994897959183674
 32
0.0
 13
-0.9999999999999998
 23
-0.0994897959183674
 33
0.0
  0
LINE
  5
117
330
10C
100
AcDbEntity
  8
0
 62
     0
100
AcDbLine
 10
-0.9999999999999998
 20
-0.0994897959183674
 30
0.0
 11
0.0
 21
0.0
 31
0.0
  0
LINE
  5
118
330
10C
100
AcDbEntity
  8
0
 62
     0
100
AcDbLine
 10
0.0
 20
0.0
 30
0.0
 11
-0.9999999999999998
 21
0.0994897959183674
 31
0.0
  0
LINE
  5
119
330
10C
100
AcDbEntity
  8
0
 62
     0
100
AcDbLine
 10
-0.9999999999999998
 20
0.0994897959183674
 30
0.0
 11
-0.9999999999999998
 21
-0.0994897959183674
 31
0.0
  0
ENDBLK
  5
10E
330
10C
100
AcDbEntity
  8
0
100
AcDbBlockEnd
  0
BLOCK
  5
534
330
533
100
AcDbEntity
  8
0
100
AcDbBlockBegin
  2
*D4
 70
     1
 10
0.0
 20
0.0
 30
0.0
  3
*D4
  1

  0
LINE
  5
612
330
533
100
AcDbEntity
  8
Dimension (ANSI)
440
 16777216
100
AcDbLine
 10
32.13226030152919
 20
67.31900823378611
 30
0.0
 11
32.13226030152919
 21
76.60542555662073
 31
0.0
  0
LINE
  5
613
330
533
100
AcDbEntity
  8
Dimension (ANSI)
440
 16777216
100
AcDbLine
 10
52.13226030152919
 20
67.31900823378611
 30
0.0
 11
52.13226030152919
 21
76.60542555662073
 31
0.0
  0
LINE
  5
614
330
533
100
AcDbEntity
  8
Dimension (ANSI)
440
 16777216
100
AcDbLine
 10
33.11651224774005
 20
75.35542555662073
 30
0.0
 11
39.84282008945238
 21
75.35542555662073
 31
0.0
  0
LINE
  5
615
330
533
100
AcDbEntity
  8
Dimension (ANSI)
440
 16777216
100
AcDbLine
 10
51.14800835531833
 20
75.35542555662073
 30
0.0
 11
44.421700513606
 21
75.35542555662073
 31
0.0
  0
SOLID
  5
616
330
533
100
AcDbEntity
  8
Dimension (ANSI)
440
 16777216
100
AcDbTrace
 10
33.11651224774005
 20
75.51946754765587
 30
0.0
 11
33.11651224774005
 21
75.19138356558558
 31
0.0
 12
32.13226030152919
 22
75.35542555662073
 32
0.0
 13
32.13226030152919
 23
75.35542555662073
 33
0.0
  0
SOLID
  5
617
330
533
100
AcDbEntity
  8
Dimension (ANSI)
440
 16777216
100
AcDbTrace
 10
51.14800835531833
 20
75.51946754765587
 30
0.0
 11
51.14800835531833
 21
75.19138356558558
 31
0.0
 12
52.13226030152919
 22
75.35542555662073
 32
0.0
 13
52.13226030152919
 23
75.35542555662073
 33
0.0
  0
MTEXT
  5
618
330
533
100
AcDbEntity
  8
Dimension (ANSI)
440
 16777216
100
AcDbMText
 10
40.15778071937363
 20
75.98040878762548
 30
0.0
 40
1.200000047683715
 41
0.0
 46
0.0
 71
     1
 72
     1
  1
\A1;20.00
  7
Note Text (ANSI)
 73
     1
 44
1.0
  0
POINT
  5
619
330
533
100
AcDbEntity
  8
Defpoints
 62
     0
440
 16777216
100
AcDbPoint
 10
32.13226030152919
 20
66.69400823378611
 30
0.0
  0
POINT
  5
61A
330
533
100
AcDbEntity
  8
Defpoints
 62
     0
440
 16777216
100
AcDbPoint
 10
52.13226030152919
 20
66.69400823378611
 30
0.0
  0
POINT
  5
61B
330
533
100
AcDbEntity
  8
Defpoints
 62
     0
440
 16777216
100
AcDbPoint
 10
52.13226030152919
 20
75.35542555662073
 30
0.0
  0
ENDBLK
  5
535
330
533
100
AcDbEntity
  8
0
100
AcDbBlockEnd
  0
BLOCK
  5
61E
330
61D
100
AcDbEntity
  8
0
100
AcDbBlockBegin
  2
*D5
 70
     1
 10
0.0
 20
0.0
 30
0.0
  3
*D5
  1

  0
LINE
  5
6FC
330
61D
100
AcDbEntity
  8
Dimension (ANSI)
440
 16777216
100
AcDbLine
 10
32.13226030152919
 20
67.31900823378611
 30
0.0
 11
32.13226030152919
 21
72.69755736853809
 31
0.0
  0
LINE
  5
6FD
330
61D
100
AcDbEntity
  8
Dimension (ANSI)
440
 16777216
100
AcDbLine
 10
33.00726030152919
 20
68.13554949452236
 30
0.0
 11
33.00726030152919
 21
72.69755736853809
 31
0.0
  0
LINE
  5
6FE
330
61D
100
AcDbEntity
  8
Dimension (ANSI)
440
 16777216
100
AcDbLine
 10
33.99151224774005
 20
71.44755736853809
 30
0.0
 11
34.97576419395091
 21
71.44755736853809
 31
0.0
  0
LINE
  5
6FF
330
61D
100
AcDbEntity
  8
Dimension (ANSI)
440
 16777216
100
AcDbLine
 10
31.14800835531833
 20
71.44755736853809
 30
0.0
 11
29.65519401241781
 21
71.44755736853809
 31
0.0
  0
SOLID
  5
700
330
61D
100
AcDbEntity
  8
Dimension (ANSI)
440
 16777216
100
AcDbTrace
 10
33.99151224774005
 20
71.61159935957325
 30
0.0
 11
33.99151224774005
 21
71.28351537750295
 31
0.0
 12
33.00726030152919
 22
71.44755736853809
 32
0.0
 13
33.00726030152919
 23
71.44755736853809
 33
0.0
  0
SOLID
  5
701
330
61D
100
AcDbEntity
  8
Dimension (ANSI)
440
 16777216
100
AcDbTrace
 10
31.14800835531833
 20
71.61159935957325
 30
0.0
 11
31.14800835531833
 21
71.28351537750295
 31
0.0
 12
32.13226030152919
 22
71.44755736853809
 32
0.0
 13
32.13226030152919
 23
71.44755736853809
 33
0.0
  0
MTEXT
  5
702
330
61D
100
AcDbEntity
  8
Dimension (ANSI)
440
 16777216
100
AcDbMText
 10
26.26407478450156
 20
72.07495832964345
 30
0.0
 40
1.200000047683715
 41
0.0
 46
0.0
 71
     1
 72
     1
  1
\A1;0.88
  7
Note Text (ANSI)
 73
     1
 44
1.0
  0
POINT
  5
703
330
61D
100
AcDbEntity
  8
Defpoints
 62
     0
440
 16777216
100
AcDbPoint
 10
32.13226030152919
 20
66.69400823378611
 30
0.0
  0
POINT
  5
704
330
61D
100
AcDbEntity
  8
Defpoints
 62
     0
440
 16777216
100
AcDbPoint
 10
33.00726030152919
 20
67.51054949452236
 30
0.0
  0
POINT
  5
705
330
61D
100
AcDbEntity
  8
Defpoints
 62
     0
440
 16777216
100
AcDbPoint
 10
33.00726030152919
 20
71.44755736853809
 30
0.0
  0
ENDBLK
  5
61F
330
61D
100
AcDbEntity
  8
0
100
AcDbBlockEnd
  0
BLOCK
  5
708
330
707
100
AcDbEntity
  8
0
100
AcDbBlockBegin
  2
*D6
 70
     1
 10
0.0
 20
0.0
 30
0.0
  3
*D6
  1

  0
LINE
  5
7E6
330
707
100
AcDbEntity
  8
Dimension (ANSI)
440
 16777216
100
AcDbLine
 10
33.00726030152919
 20
68.13554949452236
 30
0.0
 11
33.00726030152919
 21
72.69755736853809
 31
0.0
  0
LINE
  5
7E7
330
707
100
AcDbEntity
  8
Dimension (ANSI)
440
 16777216
100
AcDbLine
 10
51.25726030152919
 20
68.13554949452236
 30
0.0
 11
51.25726030152919
 21
72.69755736853809
 31
0.0
  0
LINE
  5
7E8
330
707
100
AcDbEntity
  8
Dimension (ANSI)
440
 16777216
100
AcDbLine
 10
33.99151224774005
 20
71.44755736853809
 30
0.0
 11
39.89963674681644
 21
71.44755736853809
 31
0.0
  0
LINE
  5
7E9
330
707
100
AcDbEntity
  8
Dimension (ANSI)
440
 16777216
100
AcDbLine
 10
50.27300835531833
 20
71.44755736853809
 30
0.0
 11
44.36488385624193
 21
71.44755736853809
 31
0.0
  0
SOLID
  5
7EA
330
707
100
AcDbEntity
  8
Dimension (ANSI)
440
 16777216
100
AcDbTrace
 10
33.99151224774005
 20
71.61159935957325
 30
0.0
 11
33.99151224774005
 21
71.28351537750295
 31
0.0
 12
33.00726030152919
 22
71.44755736853809
 32
0.0
 13
33.00726030152919
 23
71.44755736853809
 33
0.0
  0
SOLID
  5
7EB
330
707
100
AcDbEntity
  8
Dimension (ANSI)
440
 16777216
100
AcDbTrace
 10
50.27300835531833
 20
71.61159935957325
 30
0.0
 11
50.27300835531833
 21
71.28351537750295
 31
0.0
 12
51.25726030152919
 22
71.44755736853809
 32
0.0
 13
51.25726030152919
 23
71.44755736853809
 33
0.0
  0
MTEXT
  5
7EC
330
707
100
AcDbEntity
  8
Dimension (ANSI)
440
 16777216
100
AcDbMText
 10
40.2145973767377
 20
72.07495832964345
 30
0.0
 40
1.200000047683715
 41
0.0
 46
0.0
 71
     1
 72
     1
  1
\A1;18.25
  7
Note Text (ANSI)
 73
     1
 44
1.0
  0
POINT
  5
7ED
330
707
100
AcDbEntity
  8
Defpoints
 62
     0
440
 16777216
100
AcDbPoint
 10
33.00726030152919
 20
67.51054949452236
 30
0.0
  0
POINT
  5
7EE
330
707
100
AcDbEntity
  8
Defpoints
 62
     0
440
 16777216
100
AcDbPoint
 10
51.25726030152919
 20
67.51054949452236
 30
0.0
  0
POINT
  5
7EF
330
707
100
AcDbEntity
  8
Defpoints
 62
     0
440
 16777216
100
AcDbPoint
 10
51.25726030152919
 20
71.44755736853809
 30
0.0
  0
ENDBLK
  5
709
330
707
100
AcDbEntity
  8
0
100
AcDbBlockEnd
  0
BLOCK
  5
7F2
330
7F1
100
AcDbEntity
  8
0
100
AcDbBlockBegin
  2
*D7
 70
     1
 10
0.0
 20
0.0
 30
0.0
  3
*D7
  1

  0
LINE
  5
8E5
330
7F1
100
AcDbEntity
  8
Dimension (ANSI)
440
 16777216
100
AcDbLine
 10
31.66730156226543
 20
35.97404949452234
 30
0.0
 11
29.12604430264305
 21
35.97404949452234
 31
0.0
  0
LINE
  5
8E6
330
7F1
100
AcDbEntity
  8
Dimension (ANSI)
440
 16777216
100
AcDbLine
 10
30.85076030152917
 20
36.84904949452235
 30
0.0
 11
29.12604430264305
 21
36.84904949452235
 31
0.0
  0
LINE
  5
8E7
330
7F1
100
AcDbEntity
  8
Dimension (ANSI)
440
 16777216
100
AcDbLine
 10
30.37604430264305
 20
37.83330144073321
 30
0.0
 11
30.37604430264305
 21
38.81755338694407
 31
0.0
  0
LINE
  5
8E8
330
7F1
100
AcDbEntity
  8
Dimension (ANSI)
440
 16777216
100
AcDbLine
 10
30.37604430264305
 20
34.98979754831148
 30
0.0
 11
30.37604430264305
 21
33.10407283570093
 31
0.0
  0
LINE
  5
8E9
330
7F1
100
AcDbEntity
  8
Dimension (ANSI)
440
 16777216
100
AcDbLine
 10
30.37604430264305
 20
33.10407283570093
 30
0.0
 11
29.39179235643218
 21
33.10407283570093
 31
0.0
  0
SOLID
  5
8EA
330
7F1
100
AcDbEntity
  8
Dimension (ANSI)
440
 16777216
100
AcDbTrace
 10
30.2120023116079
 20
37.83330144073321
 30
0.0
 11
30.54008629367819
 21
37.83330144073321
 31
0.0
 12
30.37604430264305
 22
36.84904949452235
 32
0.0
 13
30.37604430264305
 23
36.84904949452235
 33
0.0
  0
SOLID
  5
8EB
330
7F1
100
AcDbEntity
  8
Dimension (ANSI)
440
 16777216
100
AcDbTrace
 10
30.2120023116079
 20
34.98979754831148
 30
0.0
 11
30.54008629367819
 21
34.98979754831148
 31
0.0
 12
30.37604430264305
 22
35.97404949452234
 32
0.0
 13
30.37604430264305
 23
35.97404949452234
 33
0.0
  0
MTEXT
  5
8EC
330
7F1
100
AcDbEntity
  8
Dimension (ANSI)
440
 16777216
100
AcDbMText
 10
26.00067312851593
 20
33.73147379680629
 30
0.0
 40
1.200000047683715
 41
0.0
 46
0.0
 71
     1
 72
     1
  1
\A1;0.88
  7
Note Text (ANSI)
 73
     1
 44
1.0
  0
POINT
  5
8ED
330
7F1
100
AcDbEntity
  8
Defpoints
 62
     0
440
 16777216
100
AcDbPoint
 10
32.29230156226543
 20
35.97404949452234
 30
0.0
  0
POINT
  5
8EE
330
7F1
100
AcDbEntity
  8
Defpoints
 62
     0
440
 16777216
100
AcDbPoint
 10
31.47576030152917
 20
36.84904949452235
 30
0.0
  0
POINT
  5
8EF
330
7F1
100
AcDbEntity
  8
Defpoints
 62
     0
440
 16777216
100
AcDbPoint
 10
30.37604430264305
 20
36.84904949452235
 30
0.0
  0
ENDBLK
  5
7F3
330
7F1
100
AcDbEntity
  8
0
100
AcDbBlockEnd
  0
BLOCK
  5
8F2
330
8F1
100
AcDbEntity
  8
0
100
AcDbBlockBegin
  2
*D8
 70
     1
 10
0.0
 20
0.0
 30
0.0
  3
*D8
  1

  0
LINE
  5
9D0
330
8F1
100
AcDbEntity
  8
Dimension (ANSI)
440
 16777216
100
AcDbLine
 10
30.85076030152917
 20
36.84904949452235
 30
0.0
 11
26.28875242751344
 21
36.84904949452235
 31
0.0
  0
LINE
  5
9D1
330
8F1
100
AcDbEntity
  8
Dimension (ANSI)
440
 16777216
100
AcDbLine
 10
30.85076030152918
 20
65.97904949452235
 30
0.0
 11
26.28875242751345
 21
65.97904949452235
 31
0.0
  0
LINE
  5
9D2
330
8F1
100
AcDbEntity
  8
Dimension (ANSI)
440
 16777216
100
AcDbLine
 10
27.53875242751344
 20
37.83330144073321
 30
0.0
 11
27.53875242751344
 21
50.47410563359633
 31
0.0
  0
LINE
  5
9D3
330
8F1
100
AcDbEntity
  8
Dimension (ANSI)
440
 16777216
100
AcDbLine
 10
27.53875242751345
 20
64.99479754831149
 30
0.0
 11
27.53875242751344
 21
52.35399335544835
 31
0.0
  0
SOLID
  5
9D4
330
8F1
100
AcDbEntity
  8
Dimension (ANSI)
440
 16777216
100
AcDbTrace
 10
27.3747104364783
 20
37.83330144073321
 30
0.0
 11
27.70279441854858
 21
37.83330144073321
 31
0.0
 12
27.53875242751344
 22
36.84904949452235
 32
0.0
 13
27.53875242751344
 23
36.84904949452235
 33
0.0
  0
SOLID
  5
9D5
330
8F1
100
AcDbEntity
  8
Dimension (ANSI)
440
 16777216
100
AcDbTrace
 10
27.3747104364783
 20
64.99479754831149
 30
0.0
 11
27.70279441854859
 21
64.99479754831149
 31
0.0
 12
27.53875242751345
 22
65.97904949452235
 32
0.0
 13
27.53875242751345
 23
65.97904949452235
 33
0.0
  0
MTEXT
  5
9D6
330
8F1
100
AcDbEntity
  8
Dimension (ANSI)
440
 16777216
100
AcDbMText
 10
25.57757036091118
 20
52.0390327255271
 30
0.0
 40
1.200000047683715
 41
0.0
 46
0.0
 71
     1
 72
     1
  1
\A1;29.13
  7
Note Text (ANSI)
 73
     1
 44
1.0
  0
POINT
  5
9D7
330
8F1
100
AcDbEntity
  8
Defpoints
 62
     0
440
 16777216
100
AcDbPoint
 10
31.47576030152917
 20
36.84904949452235
 30
0.0
  0
POINT
  5
9D8
330
8F1
100
AcDbEntity
  8
Defpoints
 62
     0
440
 16777216
100
AcDbPoint
 10
31.47576030152918
 20
65.97904949452235
 30
0.0
  0
POINT
  5
9D9
330
8F1
100
AcDbEntity
  8
Defpoints
 62
     0
440
 16777216
100
AcDbPoint
 10
27.53875242751345
 20
65.97904949452235
 30
0.0
  0
ENDBLK
  5
8F3
330
8F1
100
AcDbEntity
  8
0
100
AcDbBlockEnd
  0
BLOCK
  5
9DC
330
9DB
100
AcDbEntity
  8
0
100
AcDbBlockBegin
  2
*D9
 70
     1
 10
0.0
 20
0.0
 30
0.0
  3
*D9
  1

  0
LINE
  5
ABA
330
9DB
100
AcDbEntity
  8
Dimension (ANSI)
440
 16777216
100
AcDbLine
 10
31.66730156226543
 20
35.97404949452234
 30
0.0
 11
20.01867951502134
 21
35.97404949452234
 31
0.0
  0
LINE
  5
ABB
330
9DB
100
AcDbEntity
  8
Dimension (ANSI)
440
 16777216
100
AcDbLine
 10
31.66730156226542
 20
66.85404949452237
 30
0.0
 11
20.01867951502135
 21
66.85404949452237
 31
0.0
  0
LINE
  5
ABC
330
9DB
100
AcDbEntity
  8
Dimension (ANSI)
440
 16777216
100
AcDbLine
 10
21.26867951502134
 20
36.9583014407332
 30
0.0
 11
21.26867951502135
 21
50.47168790349573
 31
0.0
  0
LINE
  5
ABD
330
9DB
100
AcDbEntity
  8
Dimension (ANSI)
440
 16777216
100
AcDbLine
 10
21.26867951502135
 20
65.86979754831151
 30
0.0
 11
21.26867951502135
 21
52.35641108554894
 31
0.0
  0
SOLID
  5
ABE
330
9DB
100
AcDbEntity
  8
Dimension (ANSI)
440
 16777216
100
AcDbTrace
 10
21.1046375239862
 20
36.9583014407332
 30
0.0
 11
21.43272150605649
 21
36.9583014407332
 31
0.0
 12
21.26867951502134
 22
35.97404949452234
 32
0.0
 13
21.26867951502134
 23
35.97404949452234
 33
0.0
  0
SOLID
  5
ABF
330
9DB
100
AcDbEntity
  8
Dimension (ANSI)
440
 16777216
100
AcDbTrace
 10
21.1046375239862
 20
65.86979754831151
 30
0.0
 11
21.4327215060565
 21
65.86979754831151
 31
0.0
 12
21.26867951502135
 22
66.85404949452237
 32
0.0
 13
21.26867951502135
 23
66.85404949452237
 33
0.0
  0
MTEXT
  5
AC0
330
9DB
100
AcDbEntity
  8
Dimension (ANSI)
440
 16777216
100
AcDbMText
 10
19.28573787751369
 20
52.04145045562769
 30
0.0
 40
1.200000047683715
 41
0.0
 46
0.0
 71
     1
 72
     1
  1
\A1;30.88
  7
Note Text (ANSI)
 73
     1
 44
1.0
  0
POINT
  5
AC1
330
9DB
100
AcDbEntity
  8
Defpoints
 62
     0
440
 16777216
100
AcDbPoint
 10
32.29230156226543
 20
35.97404949452234
 30
0.0
  0
POINT
  5
AC2
330
9DB
100
AcDbEntity
  8
Defpoints
 62
     0
440
 16777216
100
AcDbPoint
 10
32.29230156226542
 20
66.85404949452236
 30
0.0
  0
POINT
  5
AC3
330
9DB
100
AcDbEntity
  8
Defpoints
 62
     0
440
 16777216
100
AcDbPoint
 10
21.26867951502135
 20
66.85404949452237
 30
0.0
  0
ENDBLK
  5
9DD
330
9DB
100
AcDbEntity
  8
0
100
AcDbBlockEnd
  0
BLOCK
  5
AC6
330
AC5
100
AcDbEntity
  8
0
100
AcDbBlockBegin
  2
*D10
 70
     1
 10
0.0
 20
0.0
 30
0.0
  3
*D10
  1

  0
LINE
  5
B77
330
AC5
100
AcDbEntity
  8
Dimension (ANSI)
440
 16777216
100
AcDbLine
 10
54.84450916306271
 20
33.8617291243741
 30
0.0
 11
53.56323393893807
 21
33.8617291243741
 31
0.0
  0
LINE
  5
B78
330
AC5
100
AcDbEntity
  8
Dimension (ANSI)
440
 16777216
100
AcDbLine
 10
53.56323393893807
 20
33.8617291243741
 30
0.0
 11
52.03069488889527
 21
35.84708795414147
 31
0.0
  0
MTEXT
  5
B79
330
AC5
100
AcDbEntity
  8
Dimension (ANSI)
440
 16777216
100
AcDbMText
 10
55.15946979298397
 20
33.86172912437411
 30
0.0
 40
1.200000047683715
 41
0.0
 46
0.0
 71
     4
 72
     1
  1
\A1;∅0.563{\P(4 PL.)}
  7
Note Text (ANSI)
 73
     1
 44
1.0
  0
SOLID
  5
B7A
330
AC5
100
AcDbEntity
  8
Dimension (ANSI)
440
 16777216
100
AcDbTrace
 10
52.16054953104436
 20
35.94732540590032
 30
0.0
 11
51.90084024674619
 21
35.74685050238263
 31
0.0
 12
51.42927017834218
 22
36.62621580703599
 32
0.0
 13
51.42927017834218
 23
36.62621580703599
 33
0.0
  0
LINE
  5
B7B
330
AC5
100
AcDbEntity
  8
Dimension (ANSI)
440
 16777216
100
AcDbLine
 10
50.35726030152918
 20
36.84904949452235
 30
0.0
 11
52.15726030152917
 21
36.84904949452235
 31
0.0
  0
LINE
  5
B7C
330
AC5
100
AcDbEntity
  8
Dimension (ANSI)
440
 16777216
100
AcDbLine
 10
51.25726030152918
 20
35.94904949452236
 30
0.0
 11
51.25726030152918
 21
37.74904949452235
 31
0.0
  0
POINT
  5
B7D
330
AC5
100
AcDbEntity
  8
Defpoints
 62
     0
440
 16777216
100
AcDbPoint
 10
51.42927017834218
 20
36.62621580703599
 30
0.0
  0
POINT
  5
B7E
330
AC5
100
AcDbEntity
  8
Defpoints
 62
     0
440
 16777216
100
AcDbPoint
 10
51.08525042471618
 20
37.07188318200872
 30
0.0
  0
ENDBLK
  5
AC7
330
AC5
100
AcDbEntity
  8
0
100
AcDbBlockEnd
  0
BLOCK
  5
B81
330
B80
100
AcDbEntity
  8
0
100
AcDbBlockBegin
  2
*D11
 70
     1
 10
0.0
 20
0.0
 30
0.0
  3
*D11
  1

  0
LINE
  5
C7F
330
B80
100
AcDbEntity
  8
Dimension (ANSI)
440
 16777216
100
AcDbLine
 10
46.72733390268247
 20
89.62279322281885
 30
0.0
 11
46.72733390268247
 21
88.63854127660799
 31
0.0
  0
LINE
  5
C80
330
B80
100
AcDbEntity
  8
Dimension (ANSI)
440
 16777216
100
AcDbLine
 10
46.72733390268247
 20
92.46629711524061
 30
0.0
 11
46.72733390268247
 21
95.70202184453572
 31
0.0
  0
LINE
  5
C81
330
B80
100
AcDbEntity
  8
Dimension (ANSI)
440
 16777216
100
AcDbLine
 10
46.72733390268247
 20
95.70202184453572
 30
0.0
 11
47.71158584889334
 21
95.70202184453572
 31
0.0
  0
SOLID
  5
C82
330
B80
100
AcDbEntity
  8
Dimension (ANSI)
440
 16777216
100
AcDbTrace
 10
46.56329191164734
 20
89.62279322281885
 30
0.0
 11
46.89137589371762
 21
89.62279322281885
 31
0.0
 12
46.72733390268247
 22
90.60704516902971
 32
0.0
 13
46.72733390268247
 23
90.60704516902971
 33
0.0
  0
SOLID
  5
C83
330
B80
100
AcDbEntity
  8
Dimension (ANSI)
440
 16777216
100
AcDbTrace
 10
46.56329191164734
 20
92.46629711524061
 30
0.0
 11
46.89137589371762
 21
92.46629711524061
 31
0.0
 12
46.72733390268247
 22
91.48204516902975
 32
0.0
 13
46.72733390268247
 23
91.48204516902975
 33
0.0
  0
MTEXT
  5
C84
330
B80
100
AcDbEntity
  8
Dimension (ANSI)
440
 16777216
100
AcDbMText
 10
49.61177151477375
 20
95.70202184453574
 30
0.0
 40
1.200000047683715
 41
0.0
 46
0.0
 71
     5
 72
     1
  1
\A1;0.88{\PTYP.}
  7
Note Text (ANSI)
 73
     1
 44
1.0
  0
POINT
  5
C85
330
B80
100
AcDbEntity
  8
Defpoints
 62
     0
440
 16777216
100
AcDbPoint
 10
49.61177151477375
 20
91.48204516902975
 30
0.0
  0
POINT
  5
C86
330
B80
100
AcDbEntity
  8
Defpoints
 62
     0
440
 16777216
100
AcDbPoint
 10
49.61177151477375
 20
90.60704516902971
 30
0.0
  0
POINT
  5
C87
330
B80
100
AcDbEntity
  8
Defpoints
 62
     0
440
 16777216
100
AcDbPoint
 10
46.72733390268247
 20
90.60704516902971
 30
0.0
  0
ENDBLK
  5
B82
330
B80
100
AcDbEntity
  8
0
100
AcDbBlockEnd
  0
BLOCK
  5
C8A
330
C89
100
AcDbEntity
  8
0
100
AcDbBlockBegin
  2
*D12
 70
     1
 10
0.0
 20
0.0
 30
0.0
  3
*D12
  1

  0
LINE
  5
D6F
330
C89
100
AcDbEntity
  8
Dimension (ANSI)
440
 16777216
100
AcDbLine
 10
83.08640730566445
 20
65.25273920897882
 30
0.0
 11
82.10215535945359
 21
65.25273920897882
 31
0.0
  0
LINE
  5
D70
330
C89
100
AcDbEntity
  8
Dimension (ANSI)
440
 16777216
100
AcDbLine
 10
85.92991119808621
 20
65.25273920897882
 30
0.0
 11
87.468205422006
 21
65.25273920897882
 31
0.0
  0
SOLID
  5
D71
330
C89
100
AcDbEntity
  8
Dimension (ANSI)
440
 16777216
100
AcDbTrace
 10
83.08640730566445
 20
65.41678120001397
 30
0.0
 11
83.08640730566445
 21
65.08869721794368
 31
0.0
 12
84.07065925187531
 22
65.25273920897882
 32
0.0
 13
84.07065925187531
 23
65.25273920897882
 33
0.0
  0
SOLID
  5
D72
330
C89
100
AcDbEntity
  8
Dimension (ANSI)
440
 16777216
100
AcDbTrace
 10
85.92991119808621
 20
65.41678120001397
 30
0.0
 11
85.92991119808621
 21
65.08869721794368
 31
0.0
 12
84.94565925187535
 22
65.25273920897882
 32
0.0
 13
84.94565925187535
 23
65.25273920897882
 33
0.0
  0
MTEXT
  5
D73
330
C89
100
AcDbEntity
  8
Dimension (ANSI)
440
 16777216
100
AcDbMText
 10
87.78316605192726
 20
65.25273920897882
 30
0.0
 40
1.200000047683715
 41
0.0
 46
0.0
 71
     4
 72
     1
  1
\A1;0.88{\PTYP.}
  7
Note Text (ANSI)
 73
     1
 44
1.0
  0
POINT
  5
D74
330
C89
100
AcDbEntity
  8
Defpoints
 62
     0
440
 16777216
100
AcDbPoint
 10
84.94565925187535
 20
65.25273920897882
 30
0.0
  0
POINT
  5
D75
330
C89
100
AcDbEntity
  8
Defpoints
 62
     0
440
 16777216
100
AcDbPoint
 10
84.07065925187531
 20
65.26411765354035
 30
0.0
  0
POINT
  5
D76
330
C89
100
AcDbEntity
  8
Defpoints
 62
     0
440
 16777216
100
AcDbPoint
 10
84.07065925187531
 20
65.25273920897882
 30
0.0
  0
ENDBLK
  5
C8B
330
C89
100
AcDbEntity
  8
0
100
AcDbBlockEnd
  0
ENDSEC
  0
SECTION
  2
ENTITIES
  0
CIRCLE
  5
11B
330
6C
100
AcDbEntity
  8
Visible (ANSI)
100
AcDbCircle
 10
51.25726030152919
 20
65.97904949452235
 30
0.0
 40
0.2814999999999999
  0
CIRCLE
  5
11C
330
6C
100
AcDbEntity
  8
Visible (ANSI)
100
AcDbCircle
 10
33.00726030152919
 20
65.97904949452235
 30
0.0
 40
0.2814999999999999
  0
CIRCLE
  5
11D
330
6C
100
AcDbEntity
  8
Visible (ANSI)
100
AcDbCircle
 10
33.00726030152917
 20
36.84904949452235
 30
0.0
 40
0.2814999999999999
  0
CIRCLE
  5
11E
330
6C
100
AcDbEntity
  8
Visible (ANSI)
100
AcDbCircle
 10
51.25726030152918
 20
36.84904949452234
 30
0.0
 40
0.2814999999999999
  0
LINE
  5
11F
330
6C
100
AcDbEntity
  8
Visible (ANSI)
100
AcDbLine
 10
52.13226030152919
 20
66.69400823378611
 30
0.0
 11
52.13226030152919
 21
36.13409075525858
 31
0.0
  0
LINE
  5
120
330
6C
100
AcDbEntity
  8
Visible (ANSI)
100
AcDbLine
 10
32.29230156226542
 20
66.85404949452236
 30
0.0
 11
51.97221904079295
 21
66.85404949452233
 31
0.0
  0
LINE
  5
121
330
6C
100
AcDbEntity
  8
Visible (ANSI)
100
AcDbLine
 10
32.13226030152919
 20
36.13409075525858
 30
0.0
 11
32.13226030152919
 21
66.69400823378611
 31
0.0
  0
LINE
  5
122
330
6C
100
AcDbEntity
  8
Visible (ANSI)
100
AcDbLine
 10
51.97221904079295
 20
35.97404949452234
 30
0.0
 11
32.29230156226543
 21
35.97404949452234
 31
0.0
  0
LINE
  5
123
330
6C
100
AcDbEntity
  8
Hidden (ANSI)
100
AcDbLine
 10
52.03851030152919
 20
36.13409075525858
 30
0.0
 11
52.03851030152918
 21
66.69400823378611
 31
0.0
  0
LINE
  5
124
330
6C
100
AcDbEntity
  8
Hidden (ANSI)
100
AcDbLine
 10
51.97221904079295
 20
66.76029949452233
 30
0.0
 11
32.29230156226542
 21
66.76029949452235
 31
0.0
  0
LINE
  5
125
330
6C
100
AcDbEntity
  8
Hidden (ANSI)
100
AcDbLine
 10
32.22601030152919
 20
66.69400823378611
 30
0.0
 11
32.22601030152919
 21
36.13409075525858
 31
0.0
  0
LINE
  5
126
330
6C
100
AcDbEntity
  8
Hidden (ANSI)
100
AcDbLine
 10
32.29230156226543
 20
36.06779949452234
 30
0.0
 11
51.97221904079295
 21
36.06779949452234
 31
0.0
  0
POLYLINE
  5
127
330
6C
100
AcDbEntity
  8
Visible (ANSI)
100
AcDb2dPolyline
 66
     1
 10
0.0
 20
0.0
 30
0.0
 70
   128
  0
VERTEX
  5
128
330
127
100
AcDbEntity
  8
Visible (ANSI)
100
AcDbVertex
100
AcDb2dVertex
 10
52.00725958064151
 20
66.7290489706773
 30
0.0
  0
VERTEX
  5
129
330
127
100
AcDbEntity
  8
Visible (ANSI)
100
AcDbVertex
100
AcDb2dVertex
 10
52.01543564832423
 20
66.727589173141
 30
0.0
  0
VERTEX
  5
12B
330
127
100
AcDbEntity
  8
Visible (ANSI)
100
AcDbVertex
100
AcDb2dVertex
 10
52.02357567162332
 20
66.72612937560471
 30
0.0
  0
VERTEX
  5
12C
330
127
100
AcDbEntity
  8
Visible (ANSI)
100
AcDbVertex
100
AcDb2dVertex
 10
52.03164660985382
 20
66.72466957806841
 30
0.0
  0
VERTEX
  5
12D
330
127
100
AcDbEntity
  8
Visible (ANSI)
100
AcDbVertex
100
AcDb2dVertex
 10
52.03961241863211
 20
66.72320978053213
 30
0.0
  0
VERTEX
  5
12E
330
127
100
AcDbEntity
  8
Visible (ANSI)
100
AcDbVertex
100
AcDb2dVertex
 10
52.04744005727323
 20
66.72174998299583
 30
0.0
  0
VERTEX
  5
12F
330
127
100
AcDbEntity
  8
Visible (ANSI)
100
AcDbVertex
100
AcDb2dVertex
 10
52.05509498324286
 20
66.72029018545953
 30
0.0
  0
VERTEX
  5
130
330
127
100
AcDbEntity
  8
Visible (ANSI)
100
AcDbVertex
100
AcDb2dVertex
 10
52.06254565770538
 20
66.71883038792325
 30
0.0
  0
VERTEX
  5
131
330
127
100
AcDbEntity
  8
Visible (ANSI)
100
AcDbVertex
100
AcDb2dVertex
 10
52.06976054182508
 20
66.71736758668831
 30
0.0
  0
VERTEX
  5
132
330
127
100
AcDbEntity
  8
Visible (ANSI)
100
AcDbVertex
100
AcDb2dVertex
 10
52.07670659491702
 20
66.71590778915201
 30
0.0
  0
VERTEX
  5
133
330
127
100
AcDbEntity
  8
Visible (ANSI)
100
AcDbVertex
100
AcDb2dVertex
 10
52.08335528184416
 20
66.71444799161571
 30
0.0
  0
VERTEX
  5
134
330
127
100
AcDbEntity
  8
Visible (ANSI)
100
AcDbVertex
100
AcDb2dVertex
 10
52.08967806746946
 20
66.71298819407943
 30
0.0
  0
VERTEX
  5
135
330
127
100
AcDbEntity
  8
Visible (ANSI)
100
AcDbVertex
100
AcDb2dVertex
 10
52.09564791850524
 20
66.71152839654313
 30
0.0
  0
VERTEX
  5
136
330
127
100
AcDbEntity
  8
Visible (ANSI)
100
AcDbVertex
100
AcDb2dVertex
 10
52.10124080536239
 20
66.71006859900685
 30
0.0
  0
VERTEX
  5
137
330
127
100
AcDbEntity
  8
Visible (ANSI)
100
AcDbVertex
100
AcDb2dVertex
 10
52.10642969475324
 20
66.70860880147055
 30
0.0
  0
VERTEX
  5
138
330
127
100
AcDbEntity
  8
Visible (ANSI)
100
AcDbVertex
100
AcDb2dVertex
 10
52.11119356078732
 20
66.70714900393424
 30
0.0
  0
VERTEX
  5
139
330
127
100
AcDbEntity
  8
Visible (ANSI)
100
AcDbVertex
100
AcDb2dVertex
 10
52.1155128794235
 20
66.70568920639796
 30
0.0
  0
VERTEX
  5
13A
330
127
100
AcDbEntity
  8
Visible (ANSI)
100
AcDbVertex
100
AcDb2dVertex
 10
52.11936962847001
 20
66.70422940886165
 30
0.0
  0
VERTEX
  5
13B
330
127
100
AcDbEntity
  8
Visible (ANSI)
100
AcDbVertex
100
AcDb2dVertex
 10
52.12274578573502
 20
66.70276961132536
 30
0.0
  0
VERTEX
  5
13C
330
127
100
AcDbEntity
  8
Visible (ANSI)
100
AcDbVertex
100
AcDb2dVertex
 10
52.12562633272537
 20
66.70130981378907
 30
0.0
  0
VERTEX
  5
13D
330
127
100
AcDbEntity
  8
Visible (ANSI)
100
AcDbVertex
100
AcDb2dVertex
 10
52.12800075649582
 20
66.69984701255415
 30
0.0
  0
VERTEX
  5
13E
330
127
100
AcDbEntity
  8
Visible (ANSI)
100
AcDbVertex
100
AcDb2dVertex
 10
52.12985854410117
 20
66.69838721501784
 30
0.0
  0
VERTEX
  5
13F
330
127
100
AcDbEntity
  8
Visible (ANSI)
100
AcDbVertex
100
AcDb2dVertex
 10
52.13119068444551
 20
66.69692741748156
 30
0.0
  0
VERTEX
  5
140
330
127
100
AcDbEntity
  8
Visible (ANSI)
100
AcDbVertex
100
AcDb2dVertex
 10
52.13199267198088
 20
66.69546761994526
 30
0.0
  0
VERTEX
  5
141
330
127
100
AcDbEntity
  8
Visible (ANSI)
100
AcDbVertex
100
AcDb2dVertex
 10
52.13226000115933
 20
66.69400782240896
 30
0.0
  0
SEQEND
  5
12A
330
127
100
AcDbEntity
  8
Visible (ANSI)
  0
POLYLINE
  5
142
330
6C
100
AcDbEntity
  8
Visible (ANSI)
100
AcDb2dPolyline
 66
     1
 10
0.0
 20
0.0
 30
0.0
 70
   128
  0
VERTEX
  5
143
330
142
100
AcDbEntity
  8
Visible (ANSI)
100
AcDbVertex
100
AcDb2dVertex
 10
52.13226000115933
 20
36.13409075824534
 30
0.0
  0
VERTEX
  5
144
330
142
100
AcDbEntity
  8
Visible (ANSI)
100
AcDbVertex
100
AcDb2dVertex
 10
52.13199267198088
 20
36.1326307025787
 30
0.0
  0
VERTEX
  5
146
330
142
100
AcDbEntity
  8
Visible (ANSI)
100
AcDbVertex
100
AcDb2dVertex
 10
52.13119068444551
 20
36.13117064691205
 30
0.0
  0
VERTEX
  5
147
330
142
100
AcDbEntity
  8
Visible (ANSI)
100
AcDbVertex
100
AcDb2dVertex
 10
52.12985854410117
 20
36.1297106029786
 30
0.0
  0
VERTEX
  5
148
330
142
100
AcDbEntity
  8
Visible (ANSI)
100
AcDbVertex
100
AcDb2dVertex
 10
52.12800075649582
 20
36.12825054731196
 30
0.0
  0
VERTEX
  5
149
330
142
100
AcDbEntity
  8
Visible (ANSI)
100
AcDbVertex
100
AcDb2dVertex
 10
52.12562633272537
 20
36.12679049164531
 30
0.0
  0
VERTEX
  5
14A
330
142
100
AcDbEntity
  8
Visible (ANSI)
100
AcDbVertex
100
AcDb2dVertex
 10
52.12274578573502
 20
36.12533043597867
 30
0.0
  0
VERTEX
  5
14B
330
142
100
AcDbEntity
  8
Visible (ANSI)
100
AcDbVertex
100
AcDb2dVertex
 10
52.11936962847001
 20
36.12387039204521
 30
0.0
  0
VERTEX
  5
14C
330
142
100
AcDbEntity
  8
Visible (ANSI)
100
AcDbVertex
100
AcDb2dVertex
 10
52.1155128794235
 20
36.12241033637857
 30
0.0
  0
VERTEX
  5
14D
330
142
100
AcDbEntity
  8
Visible (ANSI)
100
AcDbVertex
100
AcDb2dVertex
 10
52.11119356078732
 20
36.12095028071192
 30
0.0
  0
VERTEX
  5
14E
330
142
100
AcDbEntity
  8
Visible (ANSI)
100
AcDbVertex
100
AcDb2dVertex
 10
52.10642969475324
 20
36.11949022504528
 30
0.0
  0
VERTEX
  5
14F
330
142
100
AcDbEntity
  8
Visible (ANSI)
100
AcDbVertex
100
AcDb2dVertex
 10
52.10124080536239
 20
36.11803018111184
 30
0.0
  0
VERTEX
  5
150
330
142
100
AcDbEntity
  8
Visible (ANSI)
100
AcDbVertex
100
AcDb2dVertex
 10
52.09564791850524
 20
36.11657012544519
 30
0.0
  0
VERTEX
  5
151
330
142
100
AcDbEntity
  8
Visible (ANSI)
100
AcDbVertex
100
AcDb2dVertex
 10
52.08967806746946
 20
36.11511006977854
 30
0.0
  0
VERTEX
  5
152
330
142
100
AcDbEntity
  8
Visible (ANSI)
100
AcDbVertex
100
AcDb2dVertex
 10
52.08335528184416
 20
36.11365001411189
 30
0.0
  0
VERTEX
  5
153
330
142
100
AcDbEntity
  8
Visible (ANSI)
100
AcDbVertex
100
AcDb2dVertex
 10
52.07670659491702
 20
36.11218997017844
 30
0.0
  0
VERTEX
  5
154
330
142
100
AcDbEntity
  8
Visible (ANSI)
100
AcDbVertex
100
AcDb2dVertex
 10
52.06976054182508
 20
36.1107299145118
 30
0.0
  0
VERTEX
  5
155
330
142
100
AcDbEntity
  8
Visible (ANSI)
100
AcDbVertex
100
AcDb2dVertex
 10
52.06254565770538
 20
36.10926985884516
 30
0.0
  0
VERTEX
  5
156
330
142
100
AcDbEntity
  8
Visible (ANSI)
100
AcDbVertex
100
AcDb2dVertex
 10
52.05509498324286
 20
36.10780981491171
 30
0.0
  0
VERTEX
  5
157
330
142
100
AcDbEntity
  8
Visible (ANSI)
100
AcDbVertex
100
AcDb2dVertex
 10
52.04744005727323
 20
36.10634975924507
 30
0.0
  0
VERTEX
  5
158
330
142
100
AcDbEntity
  8
Visible (ANSI)
100
AcDbVertex
100
AcDb2dVertex
 10
52.03961241863211
 20
36.10488970357842
 30
0.0
  0
VERTEX
  5
159
330
142
100
AcDbEntity
  8
Visible (ANSI)
100
AcDbVertex
100
AcDb2dVertex
 10
52.03164660985382
 20
36.10342964791177
 30
0.0
  0
VERTEX
  5
15A
330
142
100
AcDbEntity
  8
Visible (ANSI)
100
AcDbVertex
100
AcDb2dVertex
 10
52.02357567162332
 20
36.10196960397832
 30
0.0
  0
VERTEX
  5
15B
330
142
100
AcDbEntity
  8
Visible (ANSI)
100
AcDbVertex
100
AcDb2dVertex
 10
52.01543564832423
 20
36.10050954831168
 30
0.0
  0
VERTEX
  5
15C
330
142
100
AcDbEntity
  8
Visible (ANSI)
100
AcDbVertex
100
AcDb2dVertex
 10
52.00725958064151
 20
36.09904949264503
 30
0.0
  0
SEQEND
  5
145
330
142
100
AcDbEntity
  8
Visible (ANSI)
  0
POLYLINE
  5
15D
330
6C
100
AcDbEntity
  8
Visible (ANSI)
100
AcDb2dPolyline
 66
     1
 10
0.0
 20
0.0
 30
0.0
 70
   128
  0
VERTEX
  5
15E
330
15D
100
AcDbEntity
  8
Visible (ANSI)
100
AcDbVertex
100
AcDb2dVertex
 10
32.25726029965188
 20
66.7290489706773
 30
0.0
  0
VERTEX
  5
15F
330
15D
100
AcDbEntity
  8
Visible (ANSI)
100
AcDbVertex
100
AcDb2dVertex
 10
32.25872035531853
 20
66.73722503836
 30
0.0
  0
VERTEX
  5
161
330
15D
100
AcDbEntity
  8
Visible (ANSI)
100
AcDbVertex
100
AcDb2dVertex
 10
32.26018041098518
 20
66.74536506165908
 30
0.0
  0
VERTEX
  5
162
330
15D
100
AcDbEntity
  8
Visible (ANSI)
100
AcDbVertex
100
AcDb2dVertex
 10
32.26164045491862
 20
66.75343599988959
 30
0.0
  0
VERTEX
  5
163
330
15D
100
AcDbEntity
  8
Visible (ANSI)
100
AcDbVertex
100
AcDb2dVertex
 10
32.26310051058527
 20
66.76140180866788
 30
0.0
  0
VERTEX
  5
164
330
15D
100
AcDbEntity
  8
Visible (ANSI)
100
AcDbVertex
100
AcDb2dVertex
 10
32.26456056625192
 20
66.769229447309
 30
0.0
  0
VERTEX
  5
165
330
15D
100
AcDbEntity
  8
Visible (ANSI)
100
AcDbVertex
100
AcDb2dVertex
 10
32.26602062191856
 20
66.77688587512796
 30
0.0
  0
VERTEX
  5
166
330
15D
100
AcDbEntity
  8
Visible (ANSI)
100
AcDbVertex
100
AcDb2dVertex
 10
32.26748066585201
 20
66.78433504774115
 30
0.0
  0
VERTEX
  5
167
330
15D
100
AcDbEntity
  8
Visible (ANSI)
100
AcDbVertex
100
AcDb2dVertex
 10
32.26894072151865
 20
66.79154993186087
 30
0.0
  0
VERTEX
  5
168
330
15D
100
AcDbEntity
  8
Visible (ANSI)
100
AcDbVertex
100
AcDb2dVertex
 10
32.27040077718529
 20
66.79849448310348
 30
0.0
  0
VERTEX
  5
169
330
15D
100
AcDbEntity
  8
Visible (ANSI)
100
AcDbVertex
100
AcDb2dVertex
 10
32.27186082111874
 20
66.80514467187993
 30
0.0
  0
VERTEX
  5
16A
330
15D
100
AcDbEntity
  8
Visible (ANSI)
100
AcDbVertex
100
AcDb2dVertex
 10
32.27332087678539
 20
66.81146745750523
 30
0.0
  0
VERTEX
  5
16B
330
15D
100
AcDbEntity
  8
Visible (ANSI)
100
AcDbVertex
100
AcDb2dVertex
 10
32.27478093245204
 20
66.81743881039031
 30
0.0
  0
VERTEX
  5
16C
330
15D
100
AcDbEntity
  8
Visible (ANSI)
100
AcDbVertex
100
AcDb2dVertex
 10
32.27624098811869
 20
66.82302869354886
 30
0.0
  0
VERTEX
  5
16D
330
15D
100
AcDbEntity
  8
Visible (ANSI)
100
AcDbVertex
100
AcDb2dVertex
 10
32.27770103205213
 20
66.82821908478901
 30
0.0
  0
VERTEX
  5
16E
330
15D
100
AcDbEntity
  8
Visible (ANSI)
100
AcDbVertex
100
AcDb2dVertex
 10
32.27916108771878
 20
66.83298295082308
 30
0.0
  0
VERTEX
  5
16F
330
15D
100
AcDbEntity
  8
Visible (ANSI)
100
AcDbVertex
100
AcDb2dVertex
 10
32.28062114338543
 20
66.83730226945929
 30
0.0
  0
VERTEX
  5
170
330
15D
100
AcDbEntity
  8
Visible (ANSI)
100
AcDbVertex
100
AcDb2dVertex
 10
32.28208119905207
 20
66.84115901850579
 30
0.0
  0
VERTEX
  5
171
330
15D
100
AcDbEntity
  8
Visible (ANSI)
100
AcDbVertex
100
AcDb2dVertex
 10
32.28354124298552
 20
66.84453517577082
 30
0.0
  0
VERTEX
  5
172
330
15D
100
AcDbEntity
  8
Visible (ANSI)
100
AcDbVertex
100
AcDb2dVertex
 10
32.28500129865216
 20
66.84741572276114
 30
0.0
  0
VERTEX
  5
173
330
15D
100
AcDbEntity
  8
Visible (ANSI)
100
AcDbVertex
100
AcDb2dVertex
 10
32.28646135431881
 20
66.84979164838093
 30
0.0
  0
VERTEX
  5
174
330
15D
100
AcDbEntity
  8
Visible (ANSI)
100
AcDbVertex
100
AcDb2dVertex
 10
32.28792140998545
 20
66.85164793413695
 30
0.0
  0
VERTEX
  5
175
330
15D
100
AcDbEntity
  8
Visible (ANSI)
100
AcDbVertex
100
AcDb2dVertex
 10
32.2893814539189
 20
66.85298157633059
 30
0.0
  0
VERTEX
  5
176
330
15D
100
AcDbEntity
  8
Visible (ANSI)
100
AcDbVertex
100
AcDb2dVertex
 10
32.29084150958555
 20
66.85378056016734
 30
0.0
  0
VERTEX
  5
177
330
15D
100
AcDbEntity
  8
Visible (ANSI)
100
AcDbVertex
100
AcDb2dVertex
 10
32.2923015652522
 20
66.85405089304443
 30
0.0
  0
SEQEND
  5
160
330
15D
100
AcDbEntity
  8
Visible (ANSI)
  0
POLYLINE
  5
178
330
6C
100
AcDbEntity
  8
Visible (ANSI)
100
AcDb2dPolyline
 66
     1
 10
0.0
 20
0.0
 30
0.0
 70
   128
  0
VERTEX
  5
179
330
178
100
AcDbEntity
  8
Visible (ANSI)
100
AcDbVertex
100
AcDb2dVertex
 10
51.97221843237318
 20
66.85405089304443
 30
0.0
  0
VERTEX
  5
17A
330
178
100
AcDbEntity
  8
Visible (ANSI)
100
AcDbVertex
100
AcDb2dVertex
 10
51.9736797317588
 20
66.85378056016734
 30
0.0
  0
VERTEX
  5
17C
330
178
100
AcDbEntity
  8
Visible (ANSI)
100
AcDbVertex
100
AcDb2dVertex
 10
51.9751395292951
 20
66.85298157633059
 30
0.0
  0
VERTEX
  5
17D
330
178
100
AcDbEntity
  8
Visible (ANSI)
100
AcDbVertex
100
AcDb2dVertex
 10
51.97659932683139
 20
66.85164793413695
 30
0.0
  0
VERTEX
  5
17E
330
178
100
AcDbEntity
  8
Visible (ANSI)
100
AcDbVertex
100
AcDb2dVertex
 10
51.97805912436768
 20
66.84979164838093
 30
0.0
  0
VERTEX
  5
17F
330
178
100
AcDbEntity
  8
Visible (ANSI)
100
AcDbVertex
100
AcDb2dVertex
 10
51.97951892190398
 20
66.84741572276114
 30
0.0
  0
VERTEX
  5
180
330
178
100
AcDbEntity
  8
Visible (ANSI)
100
AcDbVertex
100
AcDb2dVertex
 10
51.98097871944027
 20
66.84453517577082
 30
0.0
  0
VERTEX
  5
181
330
178
100
AcDbEntity
  8
Visible (ANSI)
100
AcDbVertex
100
AcDb2dVertex
 10
51.98244001882589
 20
66.84115901850579
 30
0.0
  0
VERTEX
  5
182
330
178
100
AcDbEntity
  8
Visible (ANSI)
100
AcDbVertex
100
AcDb2dVertex
 10
51.98389981636218
 20
66.83730226945929
 30
0.0
  0
VERTEX
  5
183
330
178
100
AcDbEntity
  8
Visible (ANSI)
100
AcDbVertex
100
AcDb2dVertex
 10
51.98535961389847
 20
66.83298295082308
 30
0.0
  0
VERTEX
  5
184
330
178
100
AcDbEntity
  8
Visible (ANSI)
100
AcDbVertex
100
AcDb2dVertex
 10
51.98681941143476
 20
66.82821908478901
 30
0.0
  0
VERTEX
  5
185
330
178
100
AcDbEntity
  8
Visible (ANSI)
100
AcDbVertex
100
AcDb2dVertex
 10
51.98827920897106
 20
66.82302869354886
 30
0.0
  0
VERTEX
  5
186
330
178
100
AcDbEntity
  8
Visible (ANSI)
100
AcDbVertex
100
AcDb2dVertex
 10
51.98973900650735
 20
66.81743881039031
 30
0.0
  0
VERTEX
  5
187
330
178
100
AcDbEntity
  8
Visible (ANSI)
100
AcDbVertex
100
AcDb2dVertex
 10
51.99120030589297
 20
66.81146745750523
 30
0.0
  0
VERTEX
  5
188
330
178
100
AcDbEntity
  8
Visible (ANSI)
100
AcDbVertex
100
AcDb2dVertex
 10
51.99266010342927
 20
66.80514467187993
 30
0.0
  0
VERTEX
  5
189
330
178
100
AcDbEntity
  8
Visible (ANSI)
100
AcDbVertex
100
AcDb2dVertex
 10
51.99411990096556
 20
66.79849448310348
 30
0.0
  0
VERTEX
  5
18A
330
178
100
AcDbEntity
  8
Visible (ANSI)
100
AcDbVertex
100
AcDb2dVertex
 10
51.99557969850185
 20
66.79154993186087
 30
0.0
  0
VERTEX
  5
18B
330
178
100
AcDbEntity
  8
Visible (ANSI)
100
AcDbVertex
100
AcDb2dVertex
 10
51.99703949603814
 20
66.78433504774115
 30
0.0
  0
VERTEX
  5
18C
330
178
100
AcDbEntity
  8
Visible (ANSI)
100
AcDbVertex
100
AcDb2dVertex
 10
51.99849929357444
 20
66.77688587512796
 30
0.0
  0
VERTEX
  5
18D
330
178
100
AcDbEntity
  8
Visible (ANSI)
100
AcDbVertex
100
AcDb2dVertex
 10
51.99996059296005
 20
66.769229447309
 30
0.0
  0
VERTEX
  5
18E
330
178
100
AcDbEntity
  8
Visible (ANSI)
100
AcDbVertex
100
AcDb2dVertex
 10
52.00142039049634
 20
66.76140180866788
 30
0.0
  0
VERTEX
  5
18F
330
178
100
AcDbEntity
  8
Visible (ANSI)
100
AcDbVertex
100
AcDb2dVertex
 10
52.00288018803264
 20
66.75343599988959
 30
0.0
  0
VERTEX
  5
190
330
178
100
AcDbEntity
  8
Visible (ANSI)
100
AcDbVertex
100
AcDb2dVertex
 10
52.00433998556893
 20
66.74536506165908
 30
0.0
  0
VERTEX
  5
191
330
178
100
AcDbEntity
  8
Visible (ANSI)
100
AcDbVertex
100
AcDb2dVertex
 10
52.00579978310523
 20
66.73722503836
 30
0.0
  0
VERTEX
  5
192
330
178
100
AcDbEntity
  8
Visible (ANSI)
100
AcDbVertex
100
AcDb2dVertex
 10
52.00725958064151
 20
66.7290489706773
 30
0.0
  0
SEQEND
  5
17B
330
178
100
AcDbEntity
  8
Visible (ANSI)
  0
POLYLINE
  5
193
330
6C
100
AcDbEntity
  8
Visible (ANSI)
100
AcDb2dPolyline
 66
     1
 10
0.0
 20
0.0
 30
0.0
 70
   128
  0
VERTEX
  5
194
330
193
100
AcDbEntity
  8
Visible (ANSI)
100
AcDbVertex
100
AcDb2dVertex
 10
32.25726029965188
 20
36.09904949264503
 30
0.0
  0
VERTEX
  5
195
330
193
100
AcDbEntity
  8
Visible (ANSI)
100
AcDbVertex
100
AcDb2dVertex
 10
32.24908491249465
 20
36.10050954831168
 30
0.0
  0
VERTEX
  5
197
330
193
100
AcDbEntity
  8
Visible (ANSI)
100
AcDbVertex
100
AcDb2dVertex
 10
32.24094452546643
 20
36.10196960397832
 30
0.0
  0
VERTEX
  5
198
330
193
100
AcDbEntity
  8
Visible (ANSI)
100
AcDbVertex
100
AcDb2dVertex
 10
32.23287400963105
 20
36.10342964791177
 30
0.0
  0
VERTEX
  5
199
330
193
100
AcDbEntity
  8
Visible (ANSI)
100
AcDbVertex
100
AcDb2dVertex
 10
32.22490791925601
 20
36.10488970357842
 30
0.0
  0
VERTEX
  5
19A
330
193
100
AcDbEntity
  8
Visible (ANSI)
100
AcDbVertex
100
AcDb2dVertex
 10
32.21708036861387
 20
36.10634975924507
 30
0.0
  0
VERTEX
  5
19B
330
193
100
AcDbEntity
  8
Visible (ANSI)
100
AcDbVertex
100
AcDb2dVertex
 10
32.20942487358414
 20
36.10780981491171
 30
0.0
  0
VERTEX
  5
19C
330
193
100
AcDbEntity
  8
Visible (ANSI)
100
AcDbVertex
100
AcDb2dVertex
 10
32.20197421672143
 20
36.10926985884516
 30
0.0
  0
VERTEX
  5
19D
330
193
100
AcDbEntity
  8
Visible (ANSI)
100
AcDbVertex
100
AcDb2dVertex
 10
32.19476030059055
 20
36.1107299145118
 30
0.0
  0
VERTEX
  5
19E
330
193
100
AcDbEntity
  8
Visible (ANSI)
100
AcDbVertex
100
AcDb2dVertex
 10
32.18781402456784
 20
36.11218997017844
 30
0.0
  0
VERTEX
  5
19F
330
193
100
AcDbEntity
  8
Visible (ANSI)
100
AcDbVertex
100
AcDb2dVertex
 10
32.18116512350985
 20
36.11365001411189
 30
0.0
  0
VERTEX
  5
1A0
330
193
100
AcDbEntity
  8
Visible (ANSI)
100
AcDbVertex
100
AcDb2dVertex
 10
32.17484207388759
 20
36.11511006977854
 30
0.0
  0
VERTEX
  5
1A1
330
193
100
AcDbEntity
  8
Visible (ANSI)
100
AcDbVertex
100
AcDb2dVertex
 10
32.16887195298828
 20
36.11657012544519
 30
0.0
  0
VERTEX
  5
1A2
330
193
100
AcDbEntity
  8
Visible (ANSI)
100
AcDbVertex
100
AcDb2dVertex
 10
32.16328032451658
 20
36.11803018111184
 30
0.0
  0
VERTEX
  5
1A3
330
193
100
AcDbEntity
  8
Visible (ANSI)
100
AcDbVertex
100
AcDb2dVertex
 10
32.15809113299589
 20
36.11949022504528
 30
0.0
  0
VERTEX
  5
1A4
330
193
100
AcDbEntity
  8
Visible (ANSI)
100
AcDbVertex
100
AcDb2dVertex
 10
32.15332659963619
 20
36.12095028071192
 30
0.0
  0
VERTEX
  5
1A5
330
193
100
AcDbEntity
  8
Visible (ANSI)
100
AcDbVertex
100
AcDb2dVertex
 10
32.14900712553512
 20
36.12241033637857
 30
0.0
  0
VERTEX
  5
1A6
330
193
100
AcDbEntity
  8
Visible (ANSI)
100
AcDbVertex
100
AcDb2dVertex
 10
32.14515120954566
 20
36.12387039204521
 30
0.0
  0
VERTEX
  5
1A7
330
193
100
AcDbEntity
  8
Visible (ANSI)
100
AcDbVertex
100
AcDb2dVertex
 10
32.1417753602771
 20
36.12533043597867
 30
0.0
  0
VERTEX
  5
1A8
330
193
100
AcDbEntity
  8
Visible (ANSI)
100
AcDbVertex
100
AcDb2dVertex
 10
32.13889403522907
 20
36.12679049164531
 30
0.0
  0
VERTEX
  5
1A9
330
193
100
AcDbEntity
  8
Visible (ANSI)
100
AcDbVertex
100
AcDb2dVertex
 10
32.13651957332572
 20
36.12825054731196
 30
0.0
  0
VERTEX
  5
1AA
330
193
100
AcDbEntity
  8
Visible (ANSI)
100
AcDbVertex
100
AcDb2dVertex
 10
32.13466214156627
 20
36.1297106029786
 30
0.0
  0
VERTEX
  5
1AB
330
193
100
AcDbEntity
  8
Visible (ANSI)
100
AcDbVertex
100
AcDb2dVertex
 10
32.13332969386716
 20
36.13117064691205
 30
0.0
  0
VERTEX
  5
1AC
330
193
100
AcDbEntity
  8
Visible (ANSI)
100
AcDbVertex
100
AcDb2dVertex
 10
32.13252793611454
 20
36.1326307025787
 30
0.0
  0
VERTEX
  5
1AD
330
193
100
AcDbEntity
  8
Visible (ANSI)
100
AcDbVertex
100
AcDb2dVertex
 10
32.13226030152919
 20
36.13409075824534
 30
0.0
  0
SEQEND
  5
196
330
193
100
AcDbEntity
  8
Visible (ANSI)
  0
POLYLINE
  5
1AE
330
6C
100
AcDbEntity
  8
Visible (ANSI)
100
AcDb2dPolyline
 66
     1
 10
0.0
 20
0.0
 30
0.0
 70
   128
  0
VERTEX
  5
1AF
330
1AE
100
AcDbEntity
  8
Visible (ANSI)
100
AcDbVertex
100
AcDb2dVertex
 10
32.13226030152919
 20
66.69400782240896
 30
0.0
  0
VERTEX
  5
1B0
330
1AE
100
AcDbEntity
  8
Visible (ANSI)
100
AcDbVertex
100
AcDb2dVertex
 10
32.13252793611454
 20
66.69546761994526
 30
0.0
  0
VERTEX
  5
1B2
330
1AE
100
AcDbEntity
  8
Visible (ANSI)
100
AcDbVertex
100
AcDb2dVertex
 10
32.13332969386716
 20
66.69692741748156
 30
0.0
  0
VERTEX
  5
1B3
330
1AE
100
AcDbEntity
  8
Visible (ANSI)
100
AcDbVertex
100
AcDb2dVertex
 10
32.13466214156627
 20
66.69838721501784
 30
0.0
  0
VERTEX
  5
1B4
330
1AE
100
AcDbEntity
  8
Visible (ANSI)
100
AcDbVertex
100
AcDb2dVertex
 10
32.13651957332572
 20
66.69984701255415
 30
0.0
  0
VERTEX
  5
1B5
330
1AE
100
AcDbEntity
  8
Visible (ANSI)
100
AcDbVertex
100
AcDb2dVertex
 10
32.13889403522907
 20
66.70130981378907
 30
0.0
  0
VERTEX
  5
1B6
330
1AE
100
AcDbEntity
  8
Visible (ANSI)
100
AcDbVertex
100
AcDb2dVertex
 10
32.1417753602771
 20
66.70276961132536
 30
0.0
  0
VERTEX
  5
1B7
330
1AE
100
AcDbEntity
  8
Visible (ANSI)
100
AcDbVertex
100
AcDb2dVertex
 10
32.14515120954566
 20
66.70422940886165
 30
0.0
  0
VERTEX
  5
1B8
330
1AE
100
AcDbEntity
  8
Visible (ANSI)
100
AcDbVertex
100
AcDb2dVertex
 10
32.14900712553512
 20
66.70568920639796
 30
0.0
  0
VERTEX
  5
1B9
330
1AE
100
AcDbEntity
  8
Visible (ANSI)
100
AcDbVertex
100
AcDb2dVertex
 10
32.15332659963619
 20
66.70714900393424
 30
0.0
  0
VERTEX
  5
1BA
330
1AE
100
AcDbEntity
  8
Visible (ANSI)
100
AcDbVertex
100
AcDb2dVertex
 10
32.15809113299589
 20
66.70860880147055
 30
0.0
  0
VERTEX
  5
1BB
330
1AE
100
AcDbEntity
  8
Visible (ANSI)
100
AcDbVertex
100
AcDb2dVertex
 10
32.16328032451658
 20
66.71006859900685
 30
0.0
  0
VERTEX
  5
1BC
330
1AE
100
AcDbEntity
  8
Visible (ANSI)
100
AcDbVertex
100
AcDb2dVertex
 10
32.16887195298828
 20
66.71152839654313
 30
0.0
  0
VERTEX
  5
1BD
330
1AE
100
AcDbEntity
  8
Visible (ANSI)
100
AcDbVertex
100
AcDb2dVertex
 10
32.17484207388759
 20
66.71298819407943
 30
0.0
  0
VERTEX
  5
1BE
330
1AE
100
AcDbEntity
  8
Visible (ANSI)
100
AcDbVertex
100
AcDb2dVertex
 10
32.18116512350985
 20
66.71444799161571
 30
0.0
  0
VERTEX
  5
1BF
330
1AE
100
AcDbEntity
  8
Visible (ANSI)
100
AcDbVertex
100
AcDb2dVertex
 10
32.18781402456784
 20
66.71590778915201
 30
0.0
  0
VERTEX
  5
1C0
330
1AE
100
AcDbEntity
  8
Visible (ANSI)
100
AcDbVertex
100
AcDb2dVertex
 10
32.19476030059055
 20
66.71736758668831
 30
0.0
  0
VERTEX
  5
1C1
330
1AE
100
AcDbEntity
  8
Visible (ANSI)
100
AcDbVertex
100
AcDb2dVertex
 10
32.20197421672143
 20
66.71883038792325
 30
0.0
  0
VERTEX
  5
1C2
330
1AE
100
AcDbEntity
  8
Visible (ANSI)
100
AcDbVertex
100
AcDb2dVertex
 10
32.20942487358414
 20
66.72029018545953
 30
0.0
  0
VERTEX
  5
1C3
330
1AE
100
AcDbEntity
  8
Visible (ANSI)
100
AcDbVertex
100
AcDb2dVertex
 10
32.21708036861387
 20
66.72174998299583
 30
0.0
  0
VERTEX
  5
1C4
330
1AE
100
AcDbEntity
  8
Visible (ANSI)
100
AcDbVertex
100
AcDb2dVertex
 10
32.22490791925601
 20
66.72320978053213
 30
0.0
  0
VERTEX
  5
1C5
330
1AE
100
AcDbEntity
  8
Visible (ANSI)
100
AcDbVertex
100
AcDb2dVertex
 10
32.23287400963105
 20
66.72466957806841
 30
0.0
  0
VERTEX
  5
1C6
330
1AE
100
AcDbEntity
  8
Visible (ANSI)
100
AcDbVertex
100
AcDb2dVertex
 10
32.24094452546643
 20
66.72612937560471
 30
0.0
  0
VERTEX
  5
1C7
330
1AE
100
AcDbEntity
  8
Visible (ANSI)
100
AcDbVertex
100
AcDb2dVertex
 10
32.24908491249465
 20
66.727589173141
 30
0.0
  0
VERTEX
  5
1C8
330
1AE
100
AcDbEntity
  8
Visible (ANSI)
100
AcDbVertex
100
AcDb2dVertex
 10
32.25726029965188
 20
66.7290489706773
 30
0.0
  0
SEQEND
  5
1B1
330
1AE
100
AcDbEntity
  8
Visible (ANSI)
  0
POLYLINE
  5
1C9
330
6C
100
AcDbEntity
  8
Visible (ANSI)
100
AcDb2dPolyline
 66
     1
 10
0.0
 20
0.0
 30
0.0
 70
   128
  0
VERTEX
  5
1CA
330
1C9
100
AcDbEntity
  8
Visible (ANSI)
100
AcDbVertex
100
AcDb2dVertex
 10
52.00725958064151
 20
36.09904949264503
 30
0.0
  0
VERTEX
  5
1CB
330
1C9
100
AcDbEntity
  8
Visible (ANSI)
100
AcDbVertex
100
AcDb2dVertex
 10
52.00579978310523
 20
36.0908741054878
 30
0.0
  0
VERTEX
  5
1CD
330
1C9
100
AcDbEntity
  8
Visible (ANSI)
100
AcDbVertex
100
AcDb2dVertex
 10
52.00433998556893
 20
36.08273371845958
 30
0.0
  0
VERTEX
  5
1CE
330
1C9
100
AcDbEntity
  8
Visible (ANSI)
100
AcDbVertex
100
AcDb2dVertex
 10
52.00288018803264
 20
36.0746632026242
 30
0.0
  0
VERTEX
  5
1CF
330
1C9
100
AcDbEntity
  8
Visible (ANSI)
100
AcDbVertex
100
AcDb2dVertex
 10
52.00142039049634
 20
36.06669711224916
 30
0.0
  0
VERTEX
  5
1D0
330
1C9
100
AcDbEntity
  8
Visible (ANSI)
100
AcDbVertex
100
AcDb2dVertex
 10
51.99996059296005
 20
36.05886956160702
 30
0.0
  0
VERTEX
  5
1D1
330
1C9
100
AcDbEntity
  8
Visible (ANSI)
100
AcDbVertex
100
AcDb2dVertex
 10
51.99849929357444
 20
36.05121406657729
 30
0.0
  0
VERTEX
  5
1D2
330
1C9
100
AcDbEntity
  8
Visible (ANSI)
100
AcDbVertex
100
AcDb2dVertex
 10
51.99703949603814
 20
36.04376340971458
 30
0.0
  0
VERTEX
  5
1D3
330
1C9
100
AcDbEntity
  8
Visible (ANSI)
100
AcDbVertex
100
AcDb2dVertex
 10
51.99557969850185
 20
36.03654949358369
 30
0.0
  0
VERTEX
  5
1D4
330
1C9
100
AcDbEntity
  8
Visible (ANSI)
100
AcDbVertex
100
AcDb2dVertex
 10
51.99411990096556
 20
36.02960321756099
 30
0.0
  0
VERTEX
  5
1D5
330
1C9
100
AcDbEntity
  8
Visible (ANSI)
100
AcDbVertex
100
AcDb2dVertex
 10
51.99266010342927
 20
36.022954316503
 30
0.0
  0
VERTEX
  5
1D6
330
1C9
100
AcDbEntity
  8
Visible (ANSI)
100
AcDbVertex
100
AcDb2dVertex
 10
51.99120030589297
 20
36.01663126688074
 30
0.0
  0
VERTEX
  5
1D7
330
1C9
100
AcDbEntity
  8
Visible (ANSI)
100
AcDbVertex
100
AcDb2dVertex
 10
51.98973900650735
 20
36.01066114598142
 30
0.0
  0
VERTEX
  5
1D8
330
1C9
100
AcDbEntity
  8
Visible (ANSI)
100
AcDbVertex
100
AcDb2dVertex
 10
51.98827920897106
 20
36.00506951750972
 30
0.0
  0
VERTEX
  5
1D9
330
1C9
100
AcDbEntity
  8
Visible (ANSI)
100
AcDbVertex
100
AcDb2dVertex
 10
51.98681941143476
 20
35.99988032598904
 30
0.0
  0
VERTEX
  5
1DA
330
1C9
100
AcDbEntity
  8
Visible (ANSI)
100
AcDbVertex
100
AcDb2dVertex
 10
51.98535961389847
 20
35.99511579262934
 30
0.0
  0
VERTEX
  5
1DB
330
1C9
100
AcDbEntity
  8
Visible (ANSI)
100
AcDbVertex
100
AcDb2dVertex
 10
51.98389981636218
 20
35.99079631852827
 30
0.0
  0
VERTEX
  5
1DC
330
1C9
100
AcDbEntity
  8
Visible (ANSI)
100
AcDbVertex
100
AcDb2dVertex
 10
51.98244001882589
 20
35.98694040253881
 30
0.0
  0
VERTEX
  5
1DD
330
1C9
100
AcDbEntity
  8
Visible (ANSI)
100
AcDbVertex
100
AcDb2dVertex
 10
51.98097871944027
 20
35.98356455327024
 30
0.0
  0
VERTEX
  5
1DE
330
1C9
100
AcDbEntity
  8
Visible (ANSI)
100
AcDbVertex
100
AcDb2dVertex
 10
51.97951892190398
 20
35.98068322822222
 30
0.0
  0
VERTEX
  5
1DF
330
1C9
100
AcDbEntity
  8
Visible (ANSI)
100
AcDbVertex
100
AcDb2dVertex
 10
51.97805912436768
 20
35.97830876631887
 30
0.0
  0
VERTEX
  5
1E0
330
1C9
100
AcDbEntity
  8
Visible (ANSI)
100
AcDbVertex
100
AcDb2dVertex
 10
51.97659932683139
 20
35.97645133455941
 30
0.0
  0
VERTEX
  5
1E1
330
1C9
100
AcDbEntity
  8
Visible (ANSI)
100
AcDbVertex
100
AcDb2dVertex
 10
51.9751395292951
 20
35.9751188868603
 30
0.0
  0
VERTEX
  5
1E2
330
1C9
100
AcDbEntity
  8
Visible (ANSI)
100
AcDbVertex
100
AcDb2dVertex
 10
51.9736797317588
 20
35.97431712910769
 30
0.0
  0
VERTEX
  5
1E3
330
1C9
100
AcDbEntity
  8
Visible (ANSI)
100
AcDbVertex
100
AcDb2dVertex
 10
51.97221843237318
 20
35.97404949452234
 30
0.0
  0
SEQEND
  5
1CC
330
1C9
100
AcDbEntity
  8
Visible (ANSI)
  0
POLYLINE
  5
1E4
330
6C
100
AcDbEntity
  8
Visible (ANSI)
100
AcDb2dPolyline
 66
     1
 10
0.0
 20
0.0
 30
0.0
 70
   128
  0
VERTEX
  5
1E5
330
1E4
100
AcDbEntity
  8
Visible (ANSI)
100
AcDbVertex
100
AcDb2dVertex
 10
32.2923015652522
 20
35.97404949452234
 30
0.0
  0
VERTEX
  5
1E6
330
1E4
100
AcDbEntity
  8
Visible (ANSI)
100
AcDbVertex
100
AcDb2dVertex
 10
32.29084150958555
 20
35.97431712910769
 30
0.0
  0
VERTEX
  5
1E8
330
1E4
100
AcDbEntity
  8
Visible (ANSI)
100
AcDbVertex
100
AcDb2dVertex
 10
32.2893814539189
 20
35.9751188868603
 30
0.0
  0
VERTEX
  5
1E9
330
1E4
100
AcDbEntity
  8
Visible (ANSI)
100
AcDbVertex
100
AcDb2dVertex
 10
32.28792140998545
 20
35.97645133455941
 30
0.0
  0
VERTEX
  5
1EA
330
1E4
100
AcDbEntity
  8
Visible (ANSI)
100
AcDbVertex
100
AcDb2dVertex
 10
32.28646135431881
 20
35.97830876631887
 30
0.0
  0
VERTEX
  5
1EB
330
1E4
100
AcDbEntity
  8
Visible (ANSI)
100
AcDbVertex
100
AcDb2dVertex
 10
32.28500129865216
 20
35.98068322822222
 30
0.0
  0
VERTEX
  5
1EC
330
1E4
100
AcDbEntity
  8
Visible (ANSI)
100
AcDbVertex
100
AcDb2dVertex
 10
32.28354124298552
 20
35.98356455327024
 30
0.0
  0
VERTEX
  5
1ED
330
1E4
100
AcDbEntity
  8
Visible (ANSI)
100
AcDbVertex
100
AcDb2dVertex
 10
32.28208119905207
 20
35.98694040253881
 30
0.0
  0
VERTEX
  5
1EE
330
1E4
100
AcDbEntity
  8
Visible (ANSI)
100
AcDbVertex
100
AcDb2dVertex
 10
32.28062114338543
 20
35.99079631852827
 30
0.0
  0
VERTEX
  5
1EF
330
1E4
100
AcDbEntity
  8
Visible (ANSI)
100
AcDbVertex
100
AcDb2dVertex
 10
32.27916108771878
 20
35.99511579262934
 30
0.0
  0
VERTEX
  5
1F0
330
1E4
100
AcDbEntity
  8
Visible (ANSI)
100
AcDbVertex
100
AcDb2dVertex
 10
32.27770103205213
 20
35.99988032598904
 30
0.0
  0
VERTEX
  5
1F1
330
1E4
100
AcDbEntity
  8
Visible (ANSI)
100
AcDbVertex
100
AcDb2dVertex
 10
32.27624098811869
 20
36.00506951750972
 30
0.0
  0
VERTEX
  5
1F2
330
1E4
100
AcDbEntity
  8
Visible (ANSI)
100
AcDbVertex
100
AcDb2dVertex
 10
32.27478093245204
 20
36.01066114598142
 30
0.0
  0
VERTEX
  5
1F3
330
1E4
100
AcDbEntity
  8
Visible (ANSI)
100
AcDbVertex
100
AcDb2dVertex
 10
32.27332087678539
 20
36.01663126688074
 30
0.0
  0
VERTEX
  5
1F4
330
1E4
100
AcDbEntity
  8
Visible (ANSI)
100
AcDbVertex
100
AcDb2dVertex
 10
32.27186082111874
 20
36.022954316503
 30
0.0
  0
VERTEX
  5
1F5
330
1E4
100
AcDbEntity
  8
Visible (ANSI)
100
AcDbVertex
100
AcDb2dVertex
 10
32.27040077718529
 20
36.02960321756099
 30
0.0
  0
VERTEX
  5
1F6
330
1E4
100
AcDbEntity
  8
Visible (ANSI)
100
AcDbVertex
100
AcDb2dVertex
 10
32.26894072151865
 20
36.03654949358369
 30
0.0
  0
VERTEX
  5
1F7
330
1E4
100
AcDbEntity
  8
Visible (ANSI)
100
AcDbVertex
100
AcDb2dVertex
 10
32.26748066585201
 20
36.04376340971458
 30
0.0
  0
VERTEX
  5
1F8
330
1E4
100
AcDbEntity
  8
Visible (ANSI)
100
AcDbVertex
100
AcDb2dVertex
 10
32.26602062191856
 20
36.05121406657729
 30
0.0
  0
VERTEX
  5
1F9
330
1E4
100
AcDbEntity
  8
Visible (ANSI)
100
AcDbVertex
100
AcDb2dVertex
 10
32.26456056625192
 20
36.05886956160702
 30
0.0
  0
VERTEX
  5
1FA
330
1E4
100
AcDbEntity
  8
Visible (ANSI)
100
AcDbVertex
100
AcDb2dVertex
 10
32.26310051058527
 20
36.06669711224916
 30
0.0
  0
VERTEX
  5
1FB
330
1E4
100
AcDbEntity
  8
Visible (ANSI)
100
AcDbVertex
100
AcDb2dVertex
 10
32.26164045491862
 20
36.0746632026242
 30
0.0
  0
VERTEX
  5
1FC
330
1E4
100
AcDbEntity
  8
Visible (ANSI)
100
AcDbVertex
100
AcDb2dVertex
 10
32.26018041098518
 20
36.08273371845958
 30
0.0
  0
VERTEX
  5
1FD
330
1E4
100
AcDbEntity
  8
Visible (ANSI)
100
AcDbVertex
100
AcDb2dVertex
 10
32.25872035531853
 20
36.0908741054878
 30
0.0
  0
VERTEX
  5
1FE
330
1E4
100
AcDbEntity
  8
Visible (ANSI)
100
AcDbVertex
100
AcDb2dVertex
 10
32.25726029965188
 20
36.09904949264503
 30
0.0
  0
SEQEND
  5
1E7
330
1E4
100
AcDbEntity
  8
Visible (ANSI)
  0
LINE
  5
1FF
330
6C
100
AcDbEntity
  8
Hidden (ANSI)
100
AcDbLine
 10
52.03851030152919
 20
36.13409075525858
 30
0.0
 11
52.13226030152919
 21
36.13409075525858
 31
0.0
  0
POLYLINE
  5
200
330
6C
100
AcDbEntity
  8
Hidden (ANSI)
100
AcDb2dPolyline
 66
     1
 10
0.0
 20
0.0
 30
0.0
 70
   128
  0
VERTEX
  5
201
330
200
100
AcDbEntity
  8
Hidden (ANSI)
100
AcDbVertex
100
AcDb2dVertex
 10
52.00725958064151
 20
36.09904949264503
 30
0.0
  0
VERTEX
  5
202
330
200
100
AcDbEntity
  8
Hidden (ANSI)
100
AcDbVertex
100
AcDb2dVertex
 10
52.00930359756219
 20
36.10050954831168
 30
0.0
  0
VERTEX
  5
204
330
200
100
AcDbEntity
  8
Hidden (ANSI)
100
AcDbVertex
100
AcDb2dVertex
 10
52.01133860338696
 20
36.10196960397832
 30
0.0
  0
VERTEX
  5
205
330
200
100
AcDbEntity
  8
Hidden (ANSI)
100
AcDbVertex
100
AcDb2dVertex
 10
52.01335708886925
 20
36.10342964791177
 30
0.0
  0
VERTEX
  5
206
330
200
100
AcDbEntity
  8
Hidden (ANSI)
100
AcDbVertex
100
AcDb2dVertex
 10
52.01534854106383
 20
36.10488970357842
 30
0.0
  0
VERTEX
  5
207
330
200
100
AcDbEntity
  8
Hidden (ANSI)
100
AcDbVertex
100
AcDb2dVertex
 10
52.01730545072411
 20
36.10634975924507
 30
0.0
  0
VERTEX
  5
208
330
200
100
AcDbEntity
  8
Hidden (ANSI)
100
AcDbVertex
100
AcDb2dVertex
 10
52.01921880675419
 20
36.10780981491171
 30
0.0
  0
VERTEX
  5
209
330
200
100
AcDbEntity
  8
Hidden (ANSI)
100
AcDbVertex
100
AcDb2dVertex
 10
52.02108109990749
 20
36.10926985884516
 30
0.0
  0
VERTEX
  5
20A
330
200
100
AcDbEntity
  8
Hidden (ANSI)
100
AcDbVertex
100
AcDb2dVertex
 10
52.02288482093742
 20
36.1107299145118
 30
0.0
  0
VERTEX
  5
20B
330
200
100
AcDbEntity
  8
Hidden (ANSI)
100
AcDbVertex
100
AcDb2dVertex
 10
52.02462246059738
 20
36.11218997017844
 30
0.0
  0
VERTEX
  5
20C
330
200
100
AcDbEntity
  8
Hidden (ANSI)
100
AcDbVertex
100
AcDb2dVertex
 10
52.02628350594218
 20
36.11365001411189
 30
0.0
  0
VERTEX
  5
20D
330
200
100
AcDbEntity
  8
Hidden (ANSI)
100
AcDbVertex
100
AcDb2dVertex
 10
52.02786495327316
 20
36.11511006977854
 30
0.0
  0
VERTEX
  5
20E
330
200
100
AcDbEntity
  8
Hidden (ANSI)
100
AcDbVertex
100
AcDb2dVertex
 10
52.02935779149444
 20
36.11657012544519
 30
0.0
  0
VERTEX
  5
20F
330
200
100
AcDbEntity
  8
Hidden (ANSI)
100
AcDbVertex
100
AcDb2dVertex
 10
52.03075601320872
 20
36.11803018111184
 30
0.0
  0
VERTEX
  5
210
330
200
100
AcDbEntity
  8
Hidden (ANSI)
100
AcDbVertex
100
AcDb2dVertex
 10
52.03205210916944
 20
36.11949022504528
 30
0.0
  0
VERTEX
  5
211
330
200
100
AcDbEntity
  8
Hidden (ANSI)
100
AcDbVertex
100
AcDb2dVertex
 10
52.03324307567797
 20
36.12095028071192
 30
0.0
  0
VERTEX
  5
212
330
200
100
AcDbEntity
  8
Hidden (ANSI)
100
AcDbVertex
100
AcDb2dVertex
 10
52.03432290533701
 20
36.12241033637857
 30
0.0
  0
VERTEX
  5
213
330
200
100
AcDbEntity
  8
Hidden (ANSI)
100
AcDbVertex
100
AcDb2dVertex
 10
52.03528709259864
 20
36.12387039204521
 30
0.0
  0
VERTEX
  5
214
330
200
100
AcDbEntity
  8
Hidden (ANSI)
100
AcDbVertex
100
AcDb2dVertex
 10
52.0361311319149
 20
36.12533043597867
 30
0.0
  0
VERTEX
  5
215
330
200
100
AcDbEntity
  8
Hidden (ANSI)
100
AcDbVertex
100
AcDb2dVertex
 10
52.03685201958714
 20
36.12679049164531
 30
0.0
  0
VERTEX
  5
216
330
200
100
AcDbEntity
  8
Hidden (ANSI)
100
AcDbVertex
100
AcDb2dVertex
 10
52.03744525006743
 20
36.12825054731196
 30
0.0
  0
VERTEX
  5
217
330
200
100
AcDbEntity
  8
Hidden (ANSI)
100
AcDbVertex
100
AcDb2dVertex
 10
52.03790932150643
 20
36.1297106029786
 30
0.0
  0
VERTEX
  5
218
330
200
100
AcDbEntity
  8
Hidden (ANSI)
100
AcDbVertex
100
AcDb2dVertex
 10
52.03824273205484
 20
36.13117064691205
 30
0.0
  0
VERTEX
  5
219
330
200
100
AcDbEntity
  8
Hidden (ANSI)
100
AcDbVertex
100
AcDb2dVertex
 10
52.03844397986335
 20
36.1326307025787
 30
0.0
  0
VERTEX
  5
21A
330
200
100
AcDbEntity
  8
Hidden (ANSI)
100
AcDbVertex
100
AcDb2dVertex
 10
52.0385100612333
 20
36.13409075824534
 30
0.0
  0
SEQEND
  5
203
330
200
100
AcDbEntity
  8
Hidden (ANSI)
  0
LINE
  5
21B
330
6C
100
AcDbEntity
  8
Hidden (ANSI)
100
AcDbLine
 10
52.03851030152918
 20
66.69400823378611
 30
0.0
 11
52.13226030152919
 21
66.69400823378611
 31
0.0
  0
POLYLINE
  5
21C
330
6C
100
AcDbEntity
  8
Hidden (ANSI)
100
AcDb2dPolyline
 66
     1
 10
0.0
 20
0.0
 30
0.0
 70
   128
  0
VERTEX
  5
21D
330
21C
100
AcDbEntity
  8
Hidden (ANSI)
100
AcDbVertex
100
AcDb2dVertex
 10
52.00725958064151
 20
66.7290489706773
 30
0.0
  0
VERTEX
  5
21E
330
21C
100
AcDbEntity
  8
Hidden (ANSI)
100
AcDbVertex
100
AcDb2dVertex
 10
52.00930359756219
 20
66.727589173141
 30
0.0
  0
VERTEX
  5
220
330
21C
100
AcDbEntity
  8
Hidden (ANSI)
100
AcDbVertex
100
AcDb2dVertex
 10
52.01133860338696
 20
66.72612937560471
 30
0.0
  0
VERTEX
  5
221
330
21C
100
AcDbEntity
  8
Hidden (ANSI)
100
AcDbVertex
100
AcDb2dVertex
 10
52.01335708886925
 20
66.72466957806841
 30
0.0
  0
VERTEX
  5
222
330
21C
100
AcDbEntity
  8
Hidden (ANSI)
100
AcDbVertex
100
AcDb2dVertex
 10
52.01534854106383
 20
66.72320978053213
 30
0.0
  0
VERTEX
  5
223
330
21C
100
AcDbEntity
  8
Hidden (ANSI)
100
AcDbVertex
100
AcDb2dVertex
 10
52.01730545072411
 20
66.72174998299583
 30
0.0
  0
VERTEX
  5
224
330
21C
100
AcDbEntity
  8
Hidden (ANSI)
100
AcDbVertex
100
AcDb2dVertex
 10
52.01921880675419
 20
66.72029018545953
 30
0.0
  0
VERTEX
  5
225
330
21C
100
AcDbEntity
  8
Hidden (ANSI)
100
AcDbVertex
100
AcDb2dVertex
 10
52.02108109990749
 20
66.71883038792325
 30
0.0
  0
VERTEX
  5
226
330
21C
100
AcDbEntity
  8
Hidden (ANSI)
100
AcDbVertex
100
AcDb2dVertex
 10
52.02288482093742
 20
66.71736758668831
 30
0.0
  0
VERTEX
  5
227
330
21C
100
AcDbEntity
  8
Hidden (ANSI)
100
AcDbVertex
100
AcDb2dVertex
 10
52.02462246059738
 20
66.71590778915201
 30
0.0
  0
VERTEX
  5
228
330
21C
100
AcDbEntity
  8
Hidden (ANSI)
100
AcDbVertex
100
AcDb2dVertex
 10
52.02628350594218
 20
66.71444799161571
 30
0.0
  0
VERTEX
  5
229
330
21C
100
AcDbEntity
  8
Hidden (ANSI)
100
AcDbVertex
100
AcDb2dVertex
 10
52.02786495327316
 20
66.71298819407943
 30
0.0
  0
VERTEX
  5
22A
330
21C
100
AcDbEntity
  8
Hidden (ANSI)
100
AcDbVertex
100
AcDb2dVertex
 10
52.02935779149444
 20
66.71152839654313
 30
0.0
  0
VERTEX
  5
22B
330
21C
100
AcDbEntity
  8
Hidden (ANSI)
100
AcDbVertex
100
AcDb2dVertex
 10
52.03075601320872
 20
66.71006859900685
 30
0.0
  0
VERTEX
  5
22C
330
21C
100
AcDbEntity
  8
Hidden (ANSI)
100
AcDbVertex
100
AcDb2dVertex
 10
52.03205210916944
 20
66.70860880147055
 30
0.0
  0
VERTEX
  5
22D
330
21C
100
AcDbEntity
  8
Hidden (ANSI)
100
AcDbVertex
100
AcDb2dVertex
 10
52.03324307567797
 20
66.70714900393424
 30
0.0
  0
VERTEX
  5
22E
330
21C
100
AcDbEntity
  8
Hidden (ANSI)
100
AcDbVertex
100
AcDb2dVertex
 10
52.03432290533701
 20
66.70568920639796
 30
0.0
  0
VERTEX
  5
22F
330
21C
100
AcDbEntity
  8
Hidden (ANSI)
100
AcDbVertex
100
AcDb2dVertex
 10
52.03528709259864
 20
66.70422940886165
 30
0.0
  0
VERTEX
  5
230
330
21C
100
AcDbEntity
  8
Hidden (ANSI)
100
AcDbVertex
100
AcDb2dVertex
 10
52.0361311319149
 20
66.70276961132536
 30
0.0
  0
VERTEX
  5
231
330
21C
100
AcDbEntity
  8
Hidden (ANSI)
100
AcDbVertex
100
AcDb2dVertex
 10
52.03685201958714
 20
66.70130981378907
 30
0.0
  0
VERTEX
  5
232
330
21C
100
AcDbEntity
  8
Hidden (ANSI)
100
AcDbVertex
100
AcDb2dVertex
 10
52.03744525006743
 20
66.69984701255415
 30
0.0
  0
VERTEX
  5
233
330
21C
100
AcDbEntity
  8
Hidden (ANSI)
100
AcDbVertex
100
AcDb2dVertex
 10
52.03790932150643
 20
66.69838721501784
 30
0.0
  0
VERTEX
  5
234
330
21C
100
AcDbEntity
  8
Hidden (ANSI)
100
AcDbVertex
100
AcDb2dVertex
 10
52.03824273205484
 20
66.69692741748156
 30
0.0
  0
VERTEX
  5
235
330
21C
100
AcDbEntity
  8
Hidden (ANSI)
100
AcDbVertex
100
AcDb2dVertex
 10
52.03844397986335
 20
66.69546761994526
 30
0.0
  0
VERTEX
  5
236
330
21C
100
AcDbEntity
  8
Hidden (ANSI)
100
AcDbVertex
100
AcDb2dVertex
 10
52.0385100612333
 20
66.69400782240896
 30
0.0
  0
SEQEND
  5
21F
330
21C
100
AcDbEntity
  8
Hidden (ANSI)
  0
LINE
  5
237
330
6C
100
AcDbEntity
  8
Hidden (ANSI)
100
AcDbLine
 10
51.97221904079295
 20
66.76029949452233
 30
0.0
 11
51.97221904079295
 21
66.85404949452233
 31
0.0
  0
POLYLINE
  5
238
330
6C
100
AcDbEntity
  8
Hidden (ANSI)
100
AcDb2dPolyline
 66
     1
 10
0.0
 20
0.0
 30
0.0
 70
   128
  0
VERTEX
  5
239
330
238
100
AcDbEntity
  8
Hidden (ANSI)
100
AcDbVertex
100
AcDb2dVertex
 10
52.00725958064151
 20
66.7290489706773
 30
0.0
  0
VERTEX
  5
23A
330
238
100
AcDbEntity
  8
Hidden (ANSI)
100
AcDbVertex
100
AcDb2dVertex
 10
52.00579978310523
 20
66.7310944894473
 30
0.0
  0
VERTEX
  5
23C
330
238
100
AcDbEntity
  8
Hidden (ANSI)
100
AcDbVertex
100
AcDb2dVertex
 10
52.00433998556893
 20
66.73312799342276
 30
0.0
  0
VERTEX
  5
23D
330
238
100
AcDbEntity
  8
Hidden (ANSI)
100
AcDbVertex
100
AcDb2dVertex
 10
52.00288018803264
 20
66.73514647890503
 30
0.0
  0
VERTEX
  5
23E
330
238
100
AcDbEntity
  8
Hidden (ANSI)
100
AcDbVertex
100
AcDb2dVertex
 10
52.00142039049634
 20
66.73713793109961
 30
0.0
  0
VERTEX
  5
23F
330
238
100
AcDbEntity
  8
Hidden (ANSI)
100
AcDbVertex
100
AcDb2dVertex
 10
51.99996059296005
 20
66.73909333891057
 30
0.0
  0
VERTEX
  5
240
330
238
100
AcDbEntity
  8
Hidden (ANSI)
100
AcDbVertex
100
AcDb2dVertex
 10
51.99849929357444
 20
66.74100969863927
 30
0.0
  0
VERTEX
  5
241
330
238
100
AcDbEntity
  8
Hidden (ANSI)
100
AcDbVertex
100
AcDb2dVertex
 10
51.99703949603814
 20
66.74287199179257
 30
0.0
  0
VERTEX
  5
242
330
238
100
AcDbEntity
  8
Hidden (ANSI)
100
AcDbVertex
100
AcDb2dVertex
 10
51.99557969850185
 20
66.74467421097318
 30
0.0
  0
VERTEX
  5
243
330
238
100
AcDbEntity
  8
Hidden (ANSI)
100
AcDbVertex
100
AcDb2dVertex
 10
51.99411990096556
 20
66.74641034878384
 30
0.0
  0
VERTEX
  5
244
330
238
100
AcDbEntity
  8
Hidden (ANSI)
100
AcDbVertex
100
AcDb2dVertex
 10
51.99266010342927
 20
66.74807439782727
 30
0.0
  0
VERTEX
  5
245
330
238
100
AcDbEntity
  8
Hidden (ANSI)
100
AcDbVertex
100
AcDb2dVertex
 10
51.99120030589297
 20
66.74965434330895
 30
0.0
  0
VERTEX
  5
246
330
238
100
AcDbEntity
  8
Hidden (ANSI)
100
AcDbVertex
100
AcDb2dVertex
 10
51.98973900650735
 20
66.7511471815302
 30
0.0
  0
VERTEX
  5
247
330
238
100
AcDbEntity
  8
Hidden (ANSI)
100
AcDbVertex
100
AcDb2dVertex
 10
51.98827920897106
 20
66.75254390139518
 30
0.0
  0
VERTEX
  5
248
330
238
100
AcDbEntity
  8
Hidden (ANSI)
100
AcDbVertex
100
AcDb2dVertex
 10
51.98681941143476
 20
66.75384149920522
 30
0.0
  0
VERTEX
  5
249
330
238
100
AcDbEntity
  8
Hidden (ANSI)
100
AcDbVertex
100
AcDb2dVertex
 10
51.98535961389847
 20
66.75503396756306
 30
0.0
  0
VERTEX
  5
24A
330
238
100
AcDbEntity
  8
Hidden (ANSI)
100
AcDbVertex
100
AcDb2dVertex
 10
51.98389981636218
 20
66.7561122953728
 30
0.0
  0
VERTEX
  5
24B
330
238
100
AcDbEntity
  8
Hidden (ANSI)
100
AcDbVertex
100
AcDb2dVertex
 10
51.98244001882589
 20
66.75707648263443
 30
0.0
  0
VERTEX
  5
24C
330
238
100
AcDbEntity
  8
Hidden (ANSI)
100
AcDbVertex
100
AcDb2dVertex
 10
51.98097871944027
 20
66.75792052195067
 30
0.0
  0
VERTEX
  5
24D
330
238
100
AcDbEntity
  8
Hidden (ANSI)
100
AcDbVertex
100
AcDb2dVertex
 10
51.97951892190398
 20
66.75864140962291
 30
0.0
  0
VERTEX
  5
24E
330
238
100
AcDbEntity
  8
Hidden (ANSI)
100
AcDbVertex
100
AcDb2dVertex
 10
51.97805912436768
 20
66.75923614195252
 30
0.0
  0
VERTEX
  5
24F
330
238
100
AcDbEntity
  8
Hidden (ANSI)
100
AcDbVertex
100
AcDb2dVertex
 10
51.97659932683139
 20
66.75969871154221
 30
0.0
  0
VERTEX
  5
250
330
238
100
AcDbEntity
  8
Hidden (ANSI)
100
AcDbVertex
100
AcDb2dVertex
 10
51.9751395292951
 20
66.76003212209062
 30
0.0
  0
VERTEX
  5
251
330
238
100
AcDbEntity
  8
Hidden (ANSI)
100
AcDbVertex
100
AcDb2dVertex
 10
51.9736797317588
 20
66.76023336989911
 30
0.0
  0
VERTEX
  5
252
330
238
100
AcDbEntity
  8
Hidden (ANSI)
100
AcDbVertex
100
AcDb2dVertex
 10
51.97221843237318
 20
66.76029945126908
 30
0.0
  0
SEQEND
  5
23B
330
238
100
AcDbEntity
  8
Hidden (ANSI)
  0
LINE
  5
253
330
6C
100
AcDbEntity
  8
Hidden (ANSI)
100
AcDbLine
 10
32.29230156226542
 20
66.76029949452235
 30
0.0
 11
32.29230156226542
 21
66.85404949452236
 31
0.0
  0
POLYLINE
  5
254
330
6C
100
AcDbEntity
  8
Hidden (ANSI)
100
AcDb2dPolyline
 66
     1
 10
0.0
 20
0.0
 30
0.0
 70
   128
  0
VERTEX
  5
255
330
254
100
AcDbEntity
  8
Hidden (ANSI)
100
AcDbVertex
100
AcDb2dVertex
 10
32.25726029965188
 20
66.7290489706773
 30
0.0
  0
VERTEX
  5
256
330
254
100
AcDbEntity
  8
Hidden (ANSI)
100
AcDbVertex
100
AcDb2dVertex
 10
32.25872035531853
 20
66.7310944894473
 30
0.0
  0
VERTEX
  5
258
330
254
100
AcDbEntity
  8
Hidden (ANSI)
100
AcDbVertex
100
AcDb2dVertex
 10
32.26018041098518
 20
66.73312799342276
 30
0.0
  0
VERTEX
  5
259
330
254
100
AcDbEntity
  8
Hidden (ANSI)
100
AcDbVertex
100
AcDb2dVertex
 10
32.26164045491862
 20
66.73514647890503
 30
0.0
  0
VERTEX
  5
25A
330
254
100
AcDbEntity
  8
Hidden (ANSI)
100
AcDbVertex
100
AcDb2dVertex
 10
32.26310051058527
 20
66.73713793109961
 30
0.0
  0
VERTEX
  5
25B
330
254
100
AcDbEntity
  8
Hidden (ANSI)
100
AcDbVertex
100
AcDb2dVertex
 10
32.26456056625192
 20
66.73909333891057
 30
0.0
  0
VERTEX
  5
25C
330
254
100
AcDbEntity
  8
Hidden (ANSI)
100
AcDbVertex
100
AcDb2dVertex
 10
32.26602062191856
 20
66.74100969863927
 30
0.0
  0
VERTEX
  5
25D
330
254
100
AcDbEntity
  8
Hidden (ANSI)
100
AcDbVertex
100
AcDb2dVertex
 10
32.26748066585201
 20
66.74287199179257
 30
0.0
  0
VERTEX
  5
25E
330
254
100
AcDbEntity
  8
Hidden (ANSI)
100
AcDbVertex
100
AcDb2dVertex
 10
32.26894072151865
 20
66.74467421097318
 30
0.0
  0
VERTEX
  5
25F
330
254
100
AcDbEntity
  8
Hidden (ANSI)
100
AcDbVertex
100
AcDb2dVertex
 10
32.27040077718529
 20
66.74641034878384
 30
0.0
  0
VERTEX
  5
260
330
254
100
AcDbEntity
  8
Hidden (ANSI)
100
AcDbVertex
100
AcDb2dVertex
 10
32.27186082111874
 20
66.74807439782727
 30
0.0
  0
VERTEX
  5
261
330
254
100
AcDbEntity
  8
Hidden (ANSI)
100
AcDbVertex
100
AcDb2dVertex
 10
32.27332087678539
 20
66.74965434330895
 30
0.0
  0
VERTEX
  5
262
330
254
100
AcDbEntity
  8
Hidden (ANSI)
100
AcDbVertex
100
AcDb2dVertex
 10
32.27478093245204
 20
66.7511471815302
 30
0.0
  0
VERTEX
  5
263
330
254
100
AcDbEntity
  8
Hidden (ANSI)
100
AcDbVertex
100
AcDb2dVertex
 10
32.27624098811869
 20
66.75254390139518
 30
0.0
  0
VERTEX
  5
264
330
254
100
AcDbEntity
  8
Hidden (ANSI)
100
AcDbVertex
100
AcDb2dVertex
 10
32.27770103205213
 20
66.75384149920522
 30
0.0
  0
VERTEX
  5
265
330
254
100
AcDbEntity
  8
Hidden (ANSI)
100
AcDbVertex
100
AcDb2dVertex
 10
32.27916108771878
 20
66.75503396756306
 30
0.0
  0
VERTEX
  5
266
330
254
100
AcDbEntity
  8
Hidden (ANSI)
100
AcDbVertex
100
AcDb2dVertex
 10
32.28062114338543
 20
66.7561122953728
 30
0.0
  0
VERTEX
  5
267
330
254
100
AcDbEntity
  8
Hidden (ANSI)
100
AcDbVertex
100
AcDb2dVertex
 10
32.28208119905207
 20
66.75707648263443
 30
0.0
  0
VERTEX
  5
268
330
254
100
AcDbEntity
  8
Hidden (ANSI)
100
AcDbVertex
100
AcDb2dVertex
 10
32.28354124298552
 20
66.75792052195067
 30
0.0
  0
VERTEX
  5
269
330
254
100
AcDbEntity
  8
Hidden (ANSI)
100
AcDbVertex
100
AcDb2dVertex
 10
32.28500129865216
 20
66.75864140962291
 30
0.0
  0
VERTEX
  5
26A
330
254
100
AcDbEntity
  8
Hidden (ANSI)
100
AcDbVertex
100
AcDb2dVertex
 10
32.28646135431881
 20
66.75923614195252
 30
0.0
  0
VERTEX
  5
26B
330
254
100
AcDbEntity
  8
Hidden (ANSI)
100
AcDbVertex
100
AcDb2dVertex
 10
32.28792140998545
 20
66.75969871154221
 30
0.0
  0
VERTEX
  5
26C
330
254
100
AcDbEntity
  8
Hidden (ANSI)
100
AcDbVertex
100
AcDb2dVertex
 10
32.2893814539189
 20
66.76003212209062
 30
0.0
  0
VERTEX
  5
26D
330
254
100
AcDbEntity
  8
Hidden (ANSI)
100
AcDbVertex
100
AcDb2dVertex
 10
32.29084150958555
 20
66.76023336989911
 30
0.0
  0
VERTEX
  5
26E
330
254
100
AcDbEntity
  8
Hidden (ANSI)
100
AcDbVertex
100
AcDb2dVertex
 10
32.2923015652522
 20
66.76029945126908
 30
0.0
  0
SEQEND
  5
257
330
254
100
AcDbEntity
  8
Hidden (ANSI)
  0
LINE
  5
26F
330
6C
100
AcDbEntity
  8
Hidden (ANSI)
100
AcDbLine
 10
32.22601030152919
 20
66.69400823378611
 30
0.0
 11
32.13226030152919
 21
66.69400823378611
 31
0.0
  0
POLYLINE
  5
270
330
6C
100
AcDbEntity
  8
Hidden (ANSI)
100
AcDb2dPolyline
 66
     1
 10
0.0
 20
0.0
 30
0.0
 70
   128
  0
VERTEX
  5
271
330
270
100
AcDbEntity
  8
Hidden (ANSI)
100
AcDbVertex
100
AcDb2dVertex
 10
32.25726029965188
 20
66.7290489706773
 30
0.0
  0
VERTEX
  5
272
330
270
100
AcDbEntity
  8
Hidden (ANSI)
100
AcDbVertex
100
AcDb2dVertex
 10
32.25521645872917
 20
66.727589173141
 30
0.0
  0
VERTEX
  5
274
330
270
100
AcDbEntity
  8
Hidden (ANSI)
100
AcDbVertex
100
AcDb2dVertex
 10
32.25318135903882
 20
66.72612937560471
 30
0.0
  0
VERTEX
  5
275
330
270
100
AcDbEntity
  8
Hidden (ANSI)
100
AcDbVertex
100
AcDb2dVertex
 10
32.25116373007998
 20
66.72466957806841
 30
0.0
  0
VERTEX
  5
276
330
270
100
AcDbEntity
  8
Hidden (ANSI)
100
AcDbVertex
100
AcDb2dVertex
 10
32.24917220748622
 20
66.72320978053213
 30
0.0
  0
VERTEX
  5
277
330
270
100
AcDbEntity
  8
Hidden (ANSI)
100
AcDbVertex
100
AcDb2dVertex
 10
32.24721532129233
 20
66.72174998299583
 30
0.0
  0
VERTEX
  5
278
330
270
100
AcDbEntity
  8
Hidden (ANSI)
100
AcDbVertex
100
AcDb2dVertex
 10
32.24530144900155
 20
66.72029018545953
 30
0.0
  0
VERTEX
  5
279
330
270
100
AcDbEntity
  8
Hidden (ANSI)
100
AcDbVertex
100
AcDb2dVertex
 10
32.24343878038592
 20
66.71883038792325
 30
0.0
  0
VERTEX
  5
27A
330
270
100
AcDbEntity
  8
Hidden (ANSI)
100
AcDbVertex
100
AcDb2dVertex
 10
32.24163530575315
 20
66.71736758668831
 30
0.0
  0
VERTEX
  5
27B
330
270
100
AcDbEntity
  8
Hidden (ANSI)
100
AcDbVertex
100
AcDb2dVertex
 10
32.23989873381418
 20
66.71590778915201
 30
0.0
  0
VERTEX
  5
27C
330
270
100
AcDbEntity
  8
Hidden (ANSI)
100
AcDbVertex
100
AcDb2dVertex
 10
32.2382365034164
 20
66.71444799161571
 30
0.0
  0
VERTEX
  5
27D
330
270
100
AcDbEntity
  8
Hidden (ANSI)
100
AcDbVertex
100
AcDb2dVertex
 10
32.23665574834408
 20
66.71298819407943
 30
0.0
  0
VERTEX
  5
27E
330
270
100
AcDbEntity
  8
Hidden (ANSI)
100
AcDbVertex
100
AcDb2dVertex
 10
32.23516321518596
 20
66.71152839654313
 30
0.0
  0
VERTEX
  5
27F
330
270
100
AcDbEntity
  8
Hidden (ANSI)
100
AcDbVertex
100
AcDb2dVertex
 10
32.23376531026801
 20
66.71006859900685
 30
0.0
  0
VERTEX
  5
280
330
270
100
AcDbEntity
  8
Hidden (ANSI)
100
AcDbVertex
100
AcDb2dVertex
 10
32.23246800578792
 20
66.70860880147055
 30
0.0
  0
VERTEX
  5
281
330
270
100
AcDbEntity
  8
Hidden (ANSI)
100
AcDbVertex
100
AcDb2dVertex
 10
32.23127687501462
 20
66.70714900393424
 30
0.0
  0
VERTEX
  5
282
330
270
100
AcDbEntity
  8
Hidden (ANSI)
100
AcDbVertex
100
AcDb2dVertex
 10
32.23019701015598
 20
66.70568920639796
 30
0.0
  0
VERTEX
  5
283
330
270
100
AcDbEntity
  8
Hidden (ANSI)
100
AcDbVertex
100
AcDb2dVertex
 10
32.22923302822531
 20
66.70422940886165
 30
0.0
  0
VERTEX
  5
284
330
270
100
AcDbEntity
  8
Hidden (ANSI)
100
AcDbVertex
100
AcDb2dVertex
 10
32.22838906517484
 20
66.70276961132536
 30
0.0
  0
VERTEX
  5
285
330
270
100
AcDbEntity
  8
Hidden (ANSI)
100
AcDbVertex
100
AcDb2dVertex
 10
32.2276687348295
 20
66.70130981378907
 30
0.0
  0
VERTEX
  5
286
330
270
100
AcDbEntity
  8
Hidden (ANSI)
100
AcDbVertex
100
AcDb2dVertex
 10
32.22707511715368
 20
66.69984701255415
 30
0.0
  0
VERTEX
  5
287
330
270
100
AcDbEntity
  8
Hidden (ANSI)
100
AcDbVertex
100
AcDb2dVertex
 10
32.22661076411794
 20
66.69838721501784
 30
0.0
  0
VERTEX
  5
288
330
270
100
AcDbEntity
  8
Hidden (ANSI)
100
AcDbVertex
100
AcDb2dVertex
 10
32.22627764689946
 20
66.69692741748156
 30
0.0
  0
VERTEX
  5
289
330
270
100
AcDbEntity
  8
Hidden (ANSI)
100
AcDbVertex
100
AcDb2dVertex
 10
32.22607720868161
 20
66.69546761994526
 30
0.0
  0
VERTEX
  5
28A
330
270
100
AcDbEntity
  8
Hidden (ANSI)
100
AcDbVertex
100
AcDb2dVertex
 10
32.22601030012121
 20
66.69400782240896
 30
0.0
  0
SEQEND
  5
273
330
270
100
AcDbEntity
  8
Hidden (ANSI)
  0
LINE
  5
28B
330
6C
100
AcDbEntity
  8
Hidden (ANSI)
100
AcDbLine
 10
32.22601030152919
 20
36.13409075525858
 30
0.0
 11
32.13226030152919
 21
36.13409075525858
 31
0.0
  0
POLYLINE
  5
28C
330
6C
100
AcDbEntity
  8
Hidden (ANSI)
100
AcDb2dPolyline
 66
     1
 10
0.0
 20
0.0
 30
0.0
 70
   128
  0
VERTEX
  5
28D
330
28C
100
AcDbEntity
  8
Hidden (ANSI)
100
AcDbVertex
100
AcDb2dVertex
 10
32.25726029965188
 20
36.09904949264503
 30
0.0
  0
VERTEX
  5
28E
330
28C
100
AcDbEntity
  8
Hidden (ANSI)
100
AcDbVertex
100
AcDb2dVertex
 10
32.25521645872917
 20
36.10050954831168
 30
0.0
  0
VERTEX
  5
290
330
28C
100
AcDbEntity
  8
Hidden (ANSI)
100
AcDbVertex
100
AcDb2dVertex
 10
32.25318135903882
 20
36.10196960397832
 30
0.0
  0
VERTEX
  5
291
330
28C
100
AcDbEntity
  8
Hidden (ANSI)
100
AcDbVertex
100
AcDb2dVertex
 10
32.25116373007998
 20
36.10342964791177
 30
0.0
  0
VERTEX
  5
292
330
28C
100
AcDbEntity
  8
Hidden (ANSI)
100
AcDbVertex
100
AcDb2dVertex
 10
32.24917220748622
 20
36.10488970357842
 30
0.0
  0
VERTEX
  5
293
330
28C
100
AcDbEntity
  8
Hidden (ANSI)
100
AcDbVertex
100
AcDb2dVertex
 10
32.24721532129233
 20
36.10634975924507
 30
0.0
  0
VERTEX
  5
294
330
28C
100
AcDbEntity
  8
Hidden (ANSI)
100
AcDbVertex
100
AcDb2dVertex
 10
32.24530144900155
 20
36.10780981491171
 30
0.0
  0
VERTEX
  5
295
330
28C
100
AcDbEntity
  8
Hidden (ANSI)
100
AcDbVertex
100
AcDb2dVertex
 10
32.24343878038592
 20
36.10926985884516
 30
0.0
  0
VERTEX
  5
296
330
28C
100
AcDbEntity
  8
Hidden (ANSI)
100
AcDbVertex
100
AcDb2dVertex
 10
32.24163530575315
 20
36.1107299145118
 30
0.0
  0
VERTEX
  5
297
330
28C
100
AcDbEntity
  8
Hidden (ANSI)
100
AcDbVertex
100
AcDb2dVertex
 10
32.23989873381418
 20
36.11218997017844
 30
0.0
  0
VERTEX
  5
298
330
28C
100
AcDbEntity
  8
Hidden (ANSI)
100
AcDbVertex
100
AcDb2dVertex
 10
32.2382365034164
 20
36.11365001411189
 30
0.0
  0
VERTEX
  5
299
330
28C
100
AcDbEntity
  8
Hidden (ANSI)
100
AcDbVertex
100
AcDb2dVertex
 10
32.23665574834408
 20
36.11511006977854
 30
0.0
  0
VERTEX
  5
29A
330
28C
100
AcDbEntity
  8
Hidden (ANSI)
100
AcDbVertex
100
AcDb2dVertex
 10
32.23516321518596
 20
36.11657012544519
 30
0.0
  0
VERTEX
  5
29B
330
28C
100
AcDbEntity
  8
Hidden (ANSI)
100
AcDbVertex
100
AcDb2dVertex
 10
32.23376531026801
 20
36.11803018111184
 30
0.0
  0
VERTEX
  5
29C
330
28C
100
AcDbEntity
  8
Hidden (ANSI)
100
AcDbVertex
100
AcDb2dVertex
 10
32.23246800578792
 20
36.11949022504528
 30
0.0
  0
VERTEX
  5
29D
330
28C
100
AcDbEntity
  8
Hidden (ANSI)
100
AcDbVertex
100
AcDb2dVertex
 10
32.23127687501462
 20
36.12095028071192
 30
0.0
  0
VERTEX
  5
29E
330
28C
100
AcDbEntity
  8
Hidden (ANSI)
100
AcDbVertex
100
AcDb2dVertex
 10
32.23019701015598
 20
36.12241033637857
 30
0.0
  0
VERTEX
  5
29F
330
28C
100
AcDbEntity
  8
Hidden (ANSI)
100
AcDbVertex
100
AcDb2dVertex
 10
32.22923302822531
 20
36.12387039204521
 30
0.0
  0
VERTEX
  5
2A0
330
28C
100
AcDbEntity
  8
Hidden (ANSI)
100
AcDbVertex
100
AcDb2dVertex
 10
32.22838906517484
 20
36.12533043597867
 30
0.0
  0
VERTEX
  5
2A1
330
28C
100
AcDbEntity
  8
Hidden (ANSI)
100
AcDbVertex
100
AcDb2dVertex
 10
32.2276687348295
 20
36.12679049164531
 30
0.0
  0
VERTEX
  5
2A2
330
28C
100
AcDbEntity
  8
Hidden (ANSI)
100
AcDbVertex
100
AcDb2dVertex
 10
32.22707511715368
 20
36.12825054731196
 30
0.0
  0
VERTEX
  5
2A3
330
28C
100
AcDbEntity
  8
Hidden (ANSI)
100
AcDbVertex
100
AcDb2dVertex
 10
32.22661076411794
 20
36.1297106029786
 30
0.0
  0
VERTEX
  5
2A4
330
28C
100
AcDbEntity
  8
Hidden (ANSI)
100
AcDbVertex
100
AcDb2dVertex
 10
32.22627764689946
 20
36.13117064691205
 30
0.0
  0
VERTEX
  5
2A5
330
28C
100
AcDbEntity
  8
Hidden (ANSI)
100
AcDbVertex
100
AcDb2dVertex
 10
32.22607720868161
 20
36.1326307025787
 30
0.0
  0
VERTEX
  5
2A6
330
28C
100
AcDbEntity
  8
Hidden (ANSI)
100
AcDbVertex
100
AcDb2dVertex
 10
32.22601030012121
 20
36.13409075824534
 30
0.0
  0
SEQEND
  5
28F
330
28C
100
AcDbEntity
  8
Hidden (ANSI)
  0
LINE
  5
2A7
330
6C
100
AcDbEntity
  8
Hidden (ANSI)
100
AcDbLine
 10
32.29230156226543
 20
36.06779949452234
 30
0.0
 11
32.29230156226543
 21
35.97404949452234
 31
0.0
  0
POLYLINE
  5
2A8
330
6C
100
AcDbEntity
  8
Hidden (ANSI)
100
AcDb2dPolyline
 66
     1
 10
0.0
 20
0.0
 30
0.0
 70
   128
  0
VERTEX
  5
2A9
330
2A8
100
AcDbEntity
  8
Hidden (ANSI)
100
AcDbVertex
100
AcDb2dVertex
 10
32.25726029965188
 20
36.09904949264503
 30
0.0
  0
VERTEX
  5
2AA
330
2A8
100
AcDbEntity
  8
Hidden (ANSI)
100
AcDbVertex
100
AcDb2dVertex
 10
32.25872035531853
 20
36.09700565172232
 30
0.0
  0
VERTEX
  5
2AC
330
2A8
100
AcDbEntity
  8
Hidden (ANSI)
100
AcDbVertex
100
AcDb2dVertex
 10
32.26018041098518
 20
36.09497055203197
 30
0.0
  0
VERTEX
  5
2AD
330
2A8
100
AcDbEntity
  8
Hidden (ANSI)
100
AcDbVertex
100
AcDb2dVertex
 10
32.26164045491862
 20
36.09295292307312
 30
0.0
  0
VERTEX
  5
2AE
330
2A8
100
AcDbEntity
  8
Hidden (ANSI)
100
AcDbVertex
100
AcDb2dVertex
 10
32.26310051058527
 20
36.09096140047937
 30
0.0
  0
VERTEX
  5
2AF
330
2A8
100
AcDbEntity
  8
Hidden (ANSI)
100
AcDbVertex
100
AcDb2dVertex
 10
32.26456056625192
 20
36.08900451428548
 30
0.0
  0
VERTEX
  5
2B0
330
2A8
100
AcDbEntity
  8
Hidden (ANSI)
100
AcDbVertex
100
AcDb2dVertex
 10
32.26602062191856
 20
36.08709064199469
 30
0.0
  0
VERTEX
  5
2B1
330
2A8
100
AcDbEntity
  8
Hidden (ANSI)
100
AcDbVertex
100
AcDb2dVertex
 10
32.26748066585201
 20
36.08522797337907
 30
0.0
  0
VERTEX
  5
2B2
330
2A8
100
AcDbEntity
  8
Hidden (ANSI)
100
AcDbVertex
100
AcDb2dVertex
 10
32.26894072151865
 20
36.0834244987463
 30
0.0
  0
VERTEX
  5
2B3
330
2A8
100
AcDbEntity
  8
Hidden (ANSI)
100
AcDbVertex
100
AcDb2dVertex
 10
32.27040077718529
 20
36.08168792680733
 30
0.0
  0
VERTEX
  5
2B4
330
2A8
100
AcDbEntity
  8
Hidden (ANSI)
100
AcDbVertex
100
AcDb2dVertex
 10
32.27186082111874
 20
36.08002569640955
 30
0.0
  0
VERTEX
  5
2B5
330
2A8
100
AcDbEntity
  8
Hidden (ANSI)
100
AcDbVertex
100
AcDb2dVertex
 10
32.27332087678539
 20
36.07844494133723
 30
0.0
  0
VERTEX
  5
2B6
330
2A8
100
AcDbEntity
  8
Hidden (ANSI)
100
AcDbVertex
100
AcDb2dVertex
 10
32.27478093245204
 20
36.07695240817911
 30
0.0
  0
VERTEX
  5
2B7
330
2A8
100
AcDbEntity
  8
Hidden (ANSI)
100
AcDbVertex
100
AcDb2dVertex
 10
32.27624098811869
 20
36.07555450326116
 30
0.0
  0
VERTEX
  5
2B8
330
2A8
100
AcDbEntity
  8
Hidden (ANSI)
100
AcDbVertex
100
AcDb2dVertex
 10
32.27770103205213
 20
36.07425719878107
 30
0.0
  0
VERTEX
  5
2B9
330
2A8
100
AcDbEntity
  8
Hidden (ANSI)
100
AcDbVertex
100
AcDb2dVertex
 10
32.27916108771878
 20
36.07306606800777
 30
0.0
  0
VERTEX
  5
2BA
330
2A8
100
AcDbEntity
  8
Hidden (ANSI)
100
AcDbVertex
100
AcDb2dVertex
 10
32.28062114338543
 20
36.07198620314913
 30
0.0
  0
VERTEX
  5
2BB
330
2A8
100
AcDbEntity
  8
Hidden (ANSI)
100
AcDbVertex
100
AcDb2dVertex
 10
32.28208119905207
 20
36.07102222121846
 30
0.0
  0
VERTEX
  5
2BC
330
2A8
100
AcDbEntity
  8
Hidden (ANSI)
100
AcDbVertex
100
AcDb2dVertex
 10
32.28354124298552
 20
36.07017825816799
 30
0.0
  0
VERTEX
  5
2BD
330
2A8
100
AcDbEntity
  8
Hidden (ANSI)
100
AcDbVertex
100
AcDb2dVertex
 10
32.28500129865216
 20
36.06945792782265
 30
0.0
  0
VERTEX
  5
2BE
330
2A8
100
AcDbEntity
  8
Hidden (ANSI)
100
AcDbVertex
100
AcDb2dVertex
 10
32.28646135431881
 20
36.06886431014683
 30
0.0
  0
VERTEX
  5
2BF
330
2A8
100
AcDbEntity
  8
Hidden (ANSI)
100
AcDbVertex
100
AcDb2dVertex
 10
32.28792140998545
 20
36.06839995711109
 30
0.0
  0
VERTEX
  5
2C0
330
2A8
100
AcDbEntity
  8
Hidden (ANSI)
100
AcDbVertex
100
AcDb2dVertex
 10
32.2893814539189
 20
36.06806683989261
 30
0.0
  0
VERTEX
  5
2C1
330
2A8
100
AcDbEntity
  8
Hidden (ANSI)
100
AcDbVertex
100
AcDb2dVertex
 10
32.29084150958555
 20
36.06786640167476
 30
0.0
  0
VERTEX
  5
2C2
330
2A8
100
AcDbEntity
  8
Hidden (ANSI)
100
AcDbVertex
100
AcDb2dVertex
 10
32.2923015652522
 20
36.06779949311436
 30
0.0
  0
SEQEND
  5
2AB
330
2A8
100
AcDbEntity
  8
Hidden (ANSI)
  0
LINE
  5
2C3
330
6C
100
AcDbEntity
  8
Hidden (ANSI)
100
AcDbLine
 10
51.97221904079295
 20
36.06779949452234
 30
0.0
 11
51.97221904079295
 21
35.97404949452234
 31
0.0
  0
POLYLINE
  5
2C4
330
6C
100
AcDbEntity
  8
Hidden (ANSI)
100
AcDb2dPolyline
 66
     1
 10
0.0
 20
0.0
 30
0.0
 70
   128
  0
VERTEX
  5
2C5
330
2C4
100
AcDbEntity
  8
Hidden (ANSI)
100
AcDbVertex
100
AcDb2dVertex
 10
52.00725958064151
 20
36.09904949264503
 30
0.0
  0
VERTEX
  5
2C6
330
2C4
100
AcDbEntity
  8
Hidden (ANSI)
100
AcDbVertex
100
AcDb2dVertex
 10
52.00579978310523
 20
36.09700565172232
 30
0.0
  0
VERTEX
  5
2C8
330
2C4
100
AcDbEntity
  8
Hidden (ANSI)
100
AcDbVertex
100
AcDb2dVertex
 10
52.00433998556893
 20
36.09497055203197
 30
0.0
  0
VERTEX
  5
2C9
330
2C4
100
AcDbEntity
  8
Hidden (ANSI)
100
AcDbVertex
100
AcDb2dVertex
 10
52.00288018803264
 20
36.09295292307312
 30
0.0
  0
VERTEX
  5
2CA
330
2C4
100
AcDbEntity
  8
Hidden (ANSI)
100
AcDbVertex
100
AcDb2dVertex
 10
52.00142039049634
 20
36.09096140047937
 30
0.0
  0
VERTEX
  5
2CB
330
2C4
100
AcDbEntity
  8
Hidden (ANSI)
100
AcDbVertex
100
AcDb2dVertex
 10
51.99996059296005
 20
36.08900451428548
 30
0.0
  0
VERTEX
  5
2CC
330
2C4
100
AcDbEntity
  8
Hidden (ANSI)
100
AcDbVertex
100
AcDb2dVertex
 10
51.99849929357444
 20
36.08709064199469
 30
0.0
  0
VERTEX
  5
2CD
330
2C4
100
AcDbEntity
  8
Hidden (ANSI)
100
AcDbVertex
100
AcDb2dVertex
 10
51.99703949603814
 20
36.08522797337907
 30
0.0
  0
VERTEX
  5
2CE
330
2C4
100
AcDbEntity
  8
Hidden (ANSI)
100
AcDbVertex
100
AcDb2dVertex
 10
51.99557969850185
 20
36.0834244987463
 30
0.0
  0
VERTEX
  5
2CF
330
2C4
100
AcDbEntity
  8
Hidden (ANSI)
100
AcDbVertex
100
AcDb2dVertex
 10
51.99411990096556
 20
36.08168792680733
 30
0.0
  0
VERTEX
  5
2D0
330
2C4
100
AcDbEntity
  8
Hidden (ANSI)
100
AcDbVertex
100
AcDb2dVertex
 10
51.99266010342927
 20
36.08002569640955
 30
0.0
  0
VERTEX
  5
2D1
330
2C4
100
AcDbEntity
  8
Hidden (ANSI)
100
AcDbVertex
100
AcDb2dVertex
 10
51.99120030589297
 20
36.07844494133723
 30
0.0
  0
VERTEX
  5
2D2
330
2C4
100
AcDbEntity
  8
Hidden (ANSI)
100
AcDbVertex
100
AcDb2dVertex
 10
51.98973900650735
 20
36.07695240817911
 30
0.0
  0
VERTEX
  5
2D3
330
2C4
100
AcDbEntity
  8
Hidden (ANSI)
100
AcDbVertex
100
AcDb2dVertex
 10
51.98827920897106
 20
36.07555450326116
 30
0.0
  0
VERTEX
  5
2D4
330
2C4
100
AcDbEntity
  8
Hidden (ANSI)
100
AcDbVertex
100
AcDb2dVertex
 10
51.98681941143476
 20
36.07425719878107
 30
0.0
  0
VERTEX
  5
2D5
330
2C4
100
AcDbEntity
  8
Hidden (ANSI)
100
AcDbVertex
100
AcDb2dVertex
 10
51.98535961389847
 20
36.07306606800777
 30
0.0
  0
VERTEX
  5
2D6
330
2C4
100
AcDbEntity
  8
Hidden (ANSI)
100
AcDbVertex
100
AcDb2dVertex
 10
51.98389981636218
 20
36.07198620314913
 30
0.0
  0
VERTEX
  5
2D7
330
2C4
100
AcDbEntity
  8
Hidden (ANSI)
100
AcDbVertex
100
AcDb2dVertex
 10
51.98244001882589
 20
36.07102222121846
 30
0.0
  0
VERTEX
  5
2D8
330
2C4
100
AcDbEntity
  8
Hidden (ANSI)
100
AcDbVertex
100
AcDb2dVertex
 10
51.98097871944027
 20
36.07017825816799
 30
0.0
  0
VERTEX
  5
2D9
330
2C4
100
AcDbEntity
  8
Hidden (ANSI)
100
AcDbVertex
100
AcDb2dVertex
 10
51.97951892190398
 20
36.06945792782265
 30
0.0
  0
VERTEX
  5
2DA
330
2C4
100
AcDbEntity
  8
Hidden (ANSI)
100
AcDbVertex
100
AcDb2dVertex
 10
51.97805912436768
 20
36.06886431014683
 30
0.0
  0
VERTEX
  5
2DB
330
2C4
100
AcDbEntity
  8
Hidden (ANSI)
100
AcDbVertex
100
AcDb2dVertex
 10
51.97659932683139
 20
36.06839995711109
 30
0.0
  0
VERTEX
  5
2DC
330
2C4
100
AcDbEntity
  8
Hidden (ANSI)
100
AcDbVertex
100
AcDb2dVertex
 10
51.9751395292951
 20
36.06806683989261
 30
0.0
  0
VERTEX
  5
2DD
330
2C4
100
AcDbEntity
  8
Hidden (ANSI)
100
AcDbVertex
100
AcDb2dVertex
 10
51.9736797317588
 20
36.06786640167476
 30
0.0
  0
VERTEX
  5
2DE
330
2C4
100
AcDbEntity
  8
Hidden (ANSI)
100
AcDbVertex
100
AcDb2dVertex
 10
51.97221843237318
 20
36.06779949311436
 30
0.0
  0
SEQEND
  5
2C7
330
2C4
100
AcDbEntity
  8
Hidden (ANSI)
  0
MTEXT
  5
2E0
330
6C
100
AcDbEntity
  8
Symbol (ANSI)
100
AcDbMText
 10
37.67358708141376
 20
30.9589722772465
 30
0.0
 40
1.200000014830761
 41
0.0
 46
0.0
 71
     7
 72
     1
  1
FRONT VIEW
  7
Text Style153
 73
     1
 44
1.0
  0
LINE
  5
2E2
330
6C
100
AcDbEntity
  8
Symbol (ANSI)
370
    30
100
AcDbLine
 10
37.55358677272989
 20
30.7142559034976
 30
0.0
 11
47.20123681558666
 21
30.7142559034976
 31
0.0
  0
POLYLINE
  5
2E3
330
6C
100
AcDbEntity
  8
Visible (ANSI)
100
AcDb2dPolyline
 66
     1
 10
0.0
 20
0.0
 30
0.0
 70
   128
  0
VERTEX
  5
2E4
330
2E3
100
AcDbEntity
  8
Visible (ANSI)
100
AcDbVertex
100
AcDb2dVertex
 10
84.07065925328328
 20
66.72904897067728
 30
0.0
  0
VERTEX
  5
2E5
330
2E3
100
AcDbEntity
  8
Visible (ANSI)
100
AcDbVertex
100
AcDb2dVertex
 10
84.0709268875249
 20
66.72758917314098
 30
0.0
  0
VERTEX
  5
2E7
330
2E3
100
AcDbEntity
  8
Visible (ANSI)
100
AcDbVertex
100
AcDb2dVertex
 10
84.07172864626291
 20
66.72612937560469
 30
0.0
  0
VERTEX
  5
2E8
330
2E3
100
AcDbEntity
  8
Visible (ANSI)
100
AcDbVertex
100
AcDb2dVertex
 10
84.0730610916704
 20
66.72466957806841
 30
0.0
  0
VERTEX
  5
2E9
330
2E3
100
AcDbEntity
  8
Visible (ANSI)
100
AcDbVertex
100
AcDb2dVertex
 10
84.07491852141319
 20
66.72320978053211
 30
0.0
  0
VERTEX
  5
2EA
330
2E3
100
AcDbEntity
  8
Visible (ANSI)
100
AcDbVertex
100
AcDb2dVertex
 10
84.07729298624984
 20
66.72174998299581
 30
0.0
  0
VERTEX
  5
2EB
330
2E3
100
AcDbEntity
  8
Visible (ANSI)
100
AcDbVertex
100
AcDb2dVertex
 10
84.08017430763125
 20
66.72029018545952
 30
0.0
  0
VERTEX
  5
2EC
330
2E3
100
AcDbEntity
  8
Visible (ANSI)
100
AcDbVertex
100
AcDb2dVertex
 10
84.0835501598331
 20
66.71883038792322
 30
0.0
  0
VERTEX
  5
2ED
330
2E3
100
AcDbEntity
  8
Visible (ANSI)
100
AcDbVertex
100
AcDb2dVertex
 10
84.08740607582258
 20
66.7173675866883
 30
0.0
  0
VERTEX
  5
2EE
330
2E3
100
AcDbEntity
  8
Visible (ANSI)
100
AcDbVertex
100
AcDb2dVertex
 10
84.09172555285694
 20
66.715907789152
 30
0.0
  0
VERTEX
  5
2EF
330
2E3
100
AcDbEntity
  8
Visible (ANSI)
100
AcDbVertex
100
AcDb2dVertex
 10
84.0964900818167
 20
66.71444799161569
 30
0.0
  0
VERTEX
  5
2F0
330
2E3
100
AcDbEntity
  8
Visible (ANSI)
100
AcDbVertex
100
AcDb2dVertex
 10
84.10167927627069
 20
66.71298819407941
 30
0.0
  0
VERTEX
  5
2F1
330
2E3
100
AcDbEntity
  8
Visible (ANSI)
100
AcDbVertex
100
AcDb2dVertex
 10
84.10727090180909
 20
66.71152839654313
 30
0.0
  0
VERTEX
  5
2F2
330
2E3
100
AcDbEntity
  8
Visible (ANSI)
100
AcDbVertex
100
AcDb2dVertex
 10
84.11324102270841
 20
66.71006859900683
 30
0.0
  0
VERTEX
  5
2F3
330
2E3
100
AcDbEntity
  8
Visible (ANSI)
100
AcDbVertex
100
AcDb2dVertex
 10
84.11956407233068
 20
66.70860880147053
 30
0.0
  0
VERTEX
  5
2F4
330
2E3
100
AcDbEntity
  8
Visible (ANSI)
100
AcDbVertex
100
AcDb2dVertex
 10
84.12621297338866
 20
66.70714900393424
 30
0.0
  0
VERTEX
  5
2F5
330
2E3
100
AcDbEntity
  8
Visible (ANSI)
100
AcDbVertex
100
AcDb2dVertex
 10
84.13315925234467
 20
66.70568920639794
 30
0.0
  0
VERTEX
  5
2F6
330
2E3
100
AcDbEntity
  8
Visible (ANSI)
100
AcDbVertex
100
AcDb2dVertex
 10
84.14037316554226
 20
66.70422940886165
 30
0.0
  0
VERTEX
  5
2F7
330
2E3
100
AcDbEntity
  8
Visible (ANSI)
100
AcDbVertex
100
AcDb2dVertex
 10
84.14782382240495
 20
66.70276961132535
 30
0.0
  0
VERTEX
  5
2F8
330
2E3
100
AcDbEntity
  8
Visible (ANSI)
100
AcDbVertex
100
AcDb2dVertex
 10
84.15547931890136
 20
66.70130981378905
 30
0.0
  0
VERTEX
  5
2F9
330
2E3
100
AcDbEntity
  8
Visible (ANSI)
100
AcDbVertex
100
AcDb2dVertex
 10
84.16330687119346
 20
66.69984701255413
 30
0.0
  0
VERTEX
  5
2FA
330
2E3
100
AcDbEntity
  8
Visible (ANSI)
100
AcDbVertex
100
AcDb2dVertex
 10
84.17127296138518
 20
66.69838721501784
 30
0.0
  0
VERTEX
  5
2FB
330
2E3
100
AcDbEntity
  8
Visible (ANSI)
100
AcDbVertex
100
AcDb2dVertex
 10
84.17934347722058
 20
66.69692741748154
 30
0.0
  0
VERTEX
  5
2FC
330
2E3
100
AcDbEntity
  8
Visible (ANSI)
100
AcDbVertex
100
AcDb2dVertex
 10
84.18748386131547
 20
66.69546761994524
 30
0.0
  0
VERTEX
  5
2FD
330
2E3
100
AcDbEntity
  8
Visible (ANSI)
100
AcDbVertex
100
AcDb2dVertex
 10
84.195659251406
 20
66.69400782240895
 30
0.0
  0
SEQEND
  5
2E6
330
2E3
100
AcDbEntity
  8
Visible (ANSI)
  0
POLYLINE
  5
2FE
330
6C
100
AcDbEntity
  8
Visible (ANSI)
100
AcDb2dPolyline
 66
     1
 10
0.0
 20
0.0
 30
0.0
 70
   128
  0
VERTEX
  5
2FF
330
2FE
100
AcDbEntity
  8
Visible (ANSI)
100
AcDbVertex
100
AcDb2dVertex
 10
84.195659251406
 20
36.13409075824533
 30
0.0
  0
VERTEX
  5
300
330
2FE
100
AcDbEntity
  8
Visible (ANSI)
100
AcDbVertex
100
AcDb2dVertex
 10
84.18748386131547
 20
36.13263070257868
 30
0.0
  0
VERTEX
  5
302
330
2FE
100
AcDbEntity
  8
Visible (ANSI)
100
AcDbVertex
100
AcDb2dVertex
 10
84.17934347722058
 20
36.13117064691203
 30
0.0
  0
VERTEX
  5
303
330
2FE
100
AcDbEntity
  8
Visible (ANSI)
100
AcDbVertex
100
AcDb2dVertex
 10
84.17127296138518
 20
36.12971060297859
 30
0.0
  0
VERTEX
  5
304
330
2FE
100
AcDbEntity
  8
Visible (ANSI)
100
AcDbVertex
100
AcDb2dVertex
 10
84.16330687119346
 20
36.12825054731195
 30
0.0
  0
VERTEX
  5
305
330
2FE
100
AcDbEntity
  8
Visible (ANSI)
100
AcDbVertex
100
AcDb2dVertex
 10
84.15547931890136
 20
36.1267904916453
 30
0.0
  0
VERTEX
  5
306
330
2FE
100
AcDbEntity
  8
Visible (ANSI)
100
AcDbVertex
100
AcDb2dVertex
 10
84.14782382240495
 20
36.12533043597866
 30
0.0
  0
VERTEX
  5
307
330
2FE
100
AcDbEntity
  8
Visible (ANSI)
100
AcDbVertex
100
AcDb2dVertex
 10
84.14037316554226
 20
36.1238703920452
 30
0.0
  0
VERTEX
  5
308
330
2FE
100
AcDbEntity
  8
Visible (ANSI)
100
AcDbVertex
100
AcDb2dVertex
 10
84.13315925234467
 20
36.12241033637856
 30
0.0
  0
VERTEX
  5
309
330
2FE
100
AcDbEntity
  8
Visible (ANSI)
100
AcDbVertex
100
AcDb2dVertex
 10
84.12621297338866
 20
36.12095028071191
 30
0.0
  0
VERTEX
  5
30A
330
2FE
100
AcDbEntity
  8
Visible (ANSI)
100
AcDbVertex
100
AcDb2dVertex
 10
84.11956407233068
 20
36.11949022504527
 30
0.0
  0
VERTEX
  5
30B
330
2FE
100
AcDbEntity
  8
Visible (ANSI)
100
AcDbVertex
100
AcDb2dVertex
 10
84.11324102270841
 20
36.11803018111182
 30
0.0
  0
VERTEX
  5
30C
330
2FE
100
AcDbEntity
  8
Visible (ANSI)
100
AcDbVertex
100
AcDb2dVertex
 10
84.10727090180909
 20
36.11657012544517
 30
0.0
  0
VERTEX
  5
30D
330
2FE
100
AcDbEntity
  8
Visible (ANSI)
100
AcDbVertex
100
AcDb2dVertex
 10
84.10167927627069
 20
36.11511006977853
 30
0.0
  0
VERTEX
  5
30E
330
2FE
100
AcDbEntity
  8
Visible (ANSI)
100
AcDbVertex
100
AcDb2dVertex
 10
84.0964900818167
 20
36.11365001411188
 30
0.0
  0
VERTEX
  5
30F
330
2FE
100
AcDbEntity
  8
Visible (ANSI)
100
AcDbVertex
100
AcDb2dVertex
 10
84.09172555285694
 20
36.11218997017843
 30
0.0
  0
VERTEX
  5
310
330
2FE
100
AcDbEntity
  8
Visible (ANSI)
100
AcDbVertex
100
AcDb2dVertex
 10
84.08740607582258
 20
36.11072991451179
 30
0.0
  0
VERTEX
  5
311
330
2FE
100
AcDbEntity
  8
Visible (ANSI)
100
AcDbVertex
100
AcDb2dVertex
 10
84.0835501598331
 20
36.10926985884514
 30
0.0
  0
VERTEX
  5
312
330
2FE
100
AcDbEntity
  8
Visible (ANSI)
100
AcDbVertex
100
AcDb2dVertex
 10
84.08017430763125
 20
36.10780981491169
 30
0.0
  0
VERTEX
  5
313
330
2FE
100
AcDbEntity
  8
Visible (ANSI)
100
AcDbVertex
100
AcDb2dVertex
 10
84.07729298624984
 20
36.10634975924505
 30
0.0
  0
VERTEX
  5
314
330
2FE
100
AcDbEntity
  8
Visible (ANSI)
100
AcDbVertex
100
AcDb2dVertex
 10
84.07491852141319
 20
36.1048897035784
 30
0.0
  0
VERTEX
  5
315
330
2FE
100
AcDbEntity
  8
Visible (ANSI)
100
AcDbVertex
100
AcDb2dVertex
 10
84.0730610916704
 20
36.10342964791176
 30
0.0
  0
VERTEX
  5
316
330
2FE
100
AcDbEntity
  8
Visible (ANSI)
100
AcDbVertex
100
AcDb2dVertex
 10
84.07172864626291
 20
36.10196960397831
 30
0.0
  0
VERTEX
  5
317
330
2FE
100
AcDbEntity
  8
Visible (ANSI)
100
AcDbVertex
100
AcDb2dVertex
 10
84.0709268875249
 20
36.10050954831166
 30
0.0
  0
VERTEX
  5
318
330
2FE
100
AcDbEntity
  8
Visible (ANSI)
100
AcDbVertex
100
AcDb2dVertex
 10
84.07065925328328
 20
36.09904949264502
 30
0.0
  0
SEQEND
  5
301
330
2FE
100
AcDbEntity
  8
Visible (ANSI)
  0
LINE
  5
319
330
6C
100
AcDbEntity
  8
Visible (ANSI)
100
AcDbLine
 10
84.94565925187535
 20
36.13409075525856
 30
0.0
 11
84.19565925187534
 21
36.13409075525856
 31
0.0
  0
LINE
  5
31A
330
6C
100
AcDbEntity
  8
Visible (ANSI)
100
AcDbLine
 10
84.16440925187531
 20
36.09904949452233
 30
0.0
 11
84.07065925187529
 21
36.09904949452233
 31
0.0
  0
POLYLINE
  5
31B
330
6C
100
AcDbEntity
  8
Visible (ANSI)
100
AcDb2dPolyline
 66
     1
 10
0.0
 20
0.0
 30
0.0
 70
   128
  0
VERTEX
  5
31C
330
31B
100
AcDbEntity
  8
Visible (ANSI)
100
AcDbVertex
100
AcDb2dVertex
 10
84.16440925187531
 20
36.09904949264502
 30
0.0
  0
VERTEX
  5
31D
330
31B
100
AcDbEntity
  8
Visible (ANSI)
100
AcDbVertex
100
AcDb2dVertex
 10
84.16447616052165
 20
36.10050954831166
 30
0.0
  0
VERTEX
  5
31F
330
31B
100
AcDbEntity
  8
Visible (ANSI)
100
AcDbVertex
100
AcDb2dVertex
 10
84.16467659995978
 20
36.10196960397831
 30
0.0
  0
VERTEX
  5
320
330
31B
100
AcDbEntity
  8
Visible (ANSI)
100
AcDbVertex
100
AcDb2dVertex
 10
84.16500971188456
 20
36.10342964791176
 30
0.0
  0
VERTEX
  5
321
330
31B
100
AcDbEntity
  8
Visible (ANSI)
100
AcDbVertex
100
AcDb2dVertex
 10
84.16547406982443
 20
36.1048897035784
 30
0.0
  0
VERTEX
  5
322
330
31B
100
AcDbEntity
  8
Visible (ANSI)
100
AcDbVertex
100
AcDb2dVertex
 10
84.16606768530028
 20
36.10634975924505
 30
0.0
  0
VERTEX
  5
323
330
31B
100
AcDbEntity
  8
Visible (ANSI)
100
AcDbVertex
100
AcDb2dVertex
 10
84.16678801656228
 20
36.10780981491169
 30
0.0
  0
VERTEX
  5
324
330
31B
100
AcDbEntity
  8
Visible (ANSI)
100
AcDbVertex
100
AcDb2dVertex
 10
84.16763197887943
 20
36.10926985884514
 30
0.0
  0
VERTEX
  5
325
330
31B
100
AcDbEntity
  8
Visible (ANSI)
100
AcDbVertex
100
AcDb2dVertex
 10
84.16859595787679
 20
36.11072991451179
 30
0.0
  0
VERTEX
  5
326
330
31B
100
AcDbEntity
  8
Visible (ANSI)
100
AcDbVertex
100
AcDb2dVertex
 10
84.16967582640205
 20
36.11218997017843
 30
0.0
  0
VERTEX
  5
327
330
31B
100
AcDbEntity
  8
Visible (ANSI)
100
AcDbVertex
100
AcDb2dVertex
 10
84.17086695974198
 20
36.11365001411188
 30
0.0
  0
VERTEX
  5
328
330
31B
100
AcDbEntity
  8
Visible (ANSI)
100
AcDbVertex
100
AcDb2dVertex
 10
84.17216425762216
 20
36.11511006977853
 30
0.0
  0
VERTEX
  5
329
330
31B
100
AcDbEntity
  8
Visible (ANSI)
100
AcDbVertex
100
AcDb2dVertex
 10
84.17356216474008
 20
36.11657012544517
 30
0.0
  0
VERTEX
  5
32A
330
31B
100
AcDbEntity
  8
Visible (ANSI)
100
AcDbVertex
100
AcDb2dVertex
 10
84.17505469496491
 20
36.11803018111182
 30
0.0
  0
VERTEX
  5
32B
330
31B
100
AcDbEntity
  8
Visible (ANSI)
100
AcDbVertex
100
AcDb2dVertex
 10
84.17663545737047
 20
36.11949022504527
 30
0.0
  0
VERTEX
  5
32C
330
31B
100
AcDbEntity
  8
Visible (ANSI)
100
AcDbVertex
100
AcDb2dVertex
 10
84.17829768263498
 20
36.12095028071191
 30
0.0
  0
VERTEX
  5
32D
330
31B
100
AcDbEntity
  8
Visible (ANSI)
100
AcDbVertex
100
AcDb2dVertex
 10
84.18003425164064
 20
36.12241033637856
 30
0.0
  0
VERTEX
  5
32E
330
31B
100
AcDbEntity
  8
Visible (ANSI)
100
AcDbVertex
100
AcDb2dVertex
 10
84.18183773067337
 20
36.1238703920452
 30
0.0
  0
VERTEX
  5
32F
330
31B
100
AcDbEntity
  8
Visible (ANSI)
100
AcDbVertex
100
AcDb2dVertex
 10
84.18370039488905
 20
36.12533043597866
 30
0.0
  0
VERTEX
  5
330
330
31B
100
AcDbEntity
  8
Visible (ANSI)
100
AcDbVertex
100
AcDb2dVertex
 10
84.18561426864647
 20
36.1267904916453
 30
0.0
  0
VERTEX
  5
331
330
31B
100
AcDbEntity
  8
Visible (ANSI)
100
AcDbVertex
100
AcDb2dVertex
 10
84.18757115630702
 20
36.12825054731195
 30
0.0
  0
VERTEX
  5
332
330
31B
100
AcDbEntity
  8
Visible (ANSI)
100
AcDbVertex
100
AcDb2dVertex
 10
84.18956267890077
 20
36.12971060297859
 30
0.0
  0
VERTEX
  5
333
330
31B
100
AcDbEntity
  8
Visible (ANSI)
100
AcDbVertex
100
AcDb2dVertex
 10
84.19158030785963
 20
36.13117064691203
 30
0.0
  0
VERTEX
  5
334
330
31B
100
AcDbEntity
  8
Visible (ANSI)
100
AcDbVertex
100
AcDb2dVertex
 10
84.19361540461668
 20
36.13263070257868
 30
0.0
  0
VERTEX
  5
335
330
31B
100
AcDbEntity
  8
Visible (ANSI)
100
AcDbVertex
100
AcDb2dVertex
 10
84.19565925140599
 20
36.13409075824533
 30
0.0
  0
SEQEND
  5
31E
330
31B
100
AcDbEntity
  8
Visible (ANSI)
  0
POLYLINE
  5
336
330
6C
100
AcDbEntity
  8
Visible (ANSI)
100
AcDb2dPolyline
 66
     1
 10
0.0
 20
0.0
 30
0.0
 70
   128
  0
VERTEX
  5
337
330
336
100
AcDbEntity
  8
Visible (ANSI)
100
AcDbVertex
100
AcDb2dVertex
 10
84.16440925187531
 20
66.72904897067728
 30
0.0
  0
VERTEX
  5
338
330
336
100
AcDbEntity
  8
Visible (ANSI)
100
AcDbVertex
100
AcDb2dVertex
 10
84.16447616052165
 20
66.72758917314098
 30
0.0
  0
VERTEX
  5
33A
330
336
100
AcDbEntity
  8
Visible (ANSI)
100
AcDbVertex
100
AcDb2dVertex
 10
84.16467659995978
 20
66.72612937560469
 30
0.0
  0
VERTEX
  5
33B
330
336
100
AcDbEntity
  8
Visible (ANSI)
100
AcDbVertex
100
AcDb2dVertex
 10
84.16500971188456
 20
66.72466957806841
 30
0.0
  0
VERTEX
  5
33C
330
336
100
AcDbEntity
  8
Visible (ANSI)
100
AcDbVertex
100
AcDb2dVertex
 10
84.16547406982443
 20
66.72320978053211
 30
0.0
  0
VERTEX
  5
33D
330
336
100
AcDbEntity
  8
Visible (ANSI)
100
AcDbVertex
100
AcDb2dVertex
 10
84.16606768530028
 20
66.72174998299581
 30
0.0
  0
VERTEX
  5
33E
330
336
100
AcDbEntity
  8
Visible (ANSI)
100
AcDbVertex
100
AcDb2dVertex
 10
84.16678801656228
 20
66.72029018545952
 30
0.0
  0
VERTEX
  5
33F
330
336
100
AcDbEntity
  8
Visible (ANSI)
100
AcDbVertex
100
AcDb2dVertex
 10
84.16763197887943
 20
66.71883038792322
 30
0.0
  0
VERTEX
  5
340
330
336
100
AcDbEntity
  8
Visible (ANSI)
100
AcDbVertex
100
AcDb2dVertex
 10
84.16859595787679
 20
66.7173675866883
 30
0.0
  0
VERTEX
  5
341
330
336
100
AcDbEntity
  8
Visible (ANSI)
100
AcDbVertex
100
AcDb2dVertex
 10
84.16967582640205
 20
66.715907789152
 30
0.0
  0
VERTEX
  5
342
330
336
100
AcDbEntity
  8
Visible (ANSI)
100
AcDbVertex
100
AcDb2dVertex
 10
84.17086695974198
 20
66.71444799161569
 30
0.0
  0
VERTEX
  5
343
330
336
100
AcDbEntity
  8
Visible (ANSI)
100
AcDbVertex
100
AcDb2dVertex
 10
84.17216425762216
 20
66.71298819407941
 30
0.0
  0
VERTEX
  5
344
330
336
100
AcDbEntity
  8
Visible (ANSI)
100
AcDbVertex
100
AcDb2dVertex
 10
84.17356216474008
 20
66.71152839654313
 30
0.0
  0
VERTEX
  5
345
330
336
100
AcDbEntity
  8
Visible (ANSI)
100
AcDbVertex
100
AcDb2dVertex
 10
84.17505469496491
 20
66.71006859900683
 30
0.0
  0
VERTEX
  5
346
330
336
100
AcDbEntity
  8
Visible (ANSI)
100
AcDbVertex
100
AcDb2dVertex
 10
84.17663545737047
 20
66.70860880147053
 30
0.0
  0
VERTEX
  5
347
330
336
100
AcDbEntity
  8
Visible (ANSI)
100
AcDbVertex
100
AcDb2dVertex
 10
84.17829768263498
 20
66.70714900393424
 30
0.0
  0
VERTEX
  5
348
330
336
100
AcDbEntity
  8
Visible (ANSI)
100
AcDbVertex
100
AcDb2dVertex
 10
84.18003425164064
 20
66.70568920639794
 30
0.0
  0
VERTEX
  5
349
330
336
100
AcDbEntity
  8
Visible (ANSI)
100
AcDbVertex
100
AcDb2dVertex
 10
84.18183773067337
 20
66.70422940886165
 30
0.0
  0
VERTEX
  5
34A
330
336
100
AcDbEntity
  8
Visible (ANSI)
100
AcDbVertex
100
AcDb2dVertex
 10
84.18370039488905
 20
66.70276961132535
 30
0.0
  0
VERTEX
  5
34B
330
336
100
AcDbEntity
  8
Visible (ANSI)
100
AcDbVertex
100
AcDb2dVertex
 10
84.18561426864647
 20
66.70130981378905
 30
0.0
  0
VERTEX
  5
34C
330
336
100
AcDbEntity
  8
Visible (ANSI)
100
AcDbVertex
100
AcDb2dVertex
 10
84.18757115630702
 20
66.69984701255413
 30
0.0
  0
VERTEX
  5
34D
330
336
100
AcDbEntity
  8
Visible (ANSI)
100
AcDbVertex
100
AcDb2dVertex
 10
84.18956267890077
 20
66.69838721501784
 30
0.0
  0
VERTEX
  5
34E
330
336
100
AcDbEntity
  8
Visible (ANSI)
100
AcDbVertex
100
AcDb2dVertex
 10
84.19158030785963
 20
66.69692741748154
 30
0.0
  0
VERTEX
  5
34F
330
336
100
AcDbEntity
  8
Visible (ANSI)
100
AcDbVertex
100
AcDb2dVertex
 10
84.19361540461668
 20
66.69546761994524
 30
0.0
  0
VERTEX
  5
350
330
336
100
AcDbEntity
  8
Visible (ANSI)
100
AcDbVertex
100
AcDb2dVertex
 10
84.19565925140599
 20
66.69400782240895
 30
0.0
  0
SEQEND
  5
339
330
336
100
AcDbEntity
  8
Visible (ANSI)
  0
LINE
  5
351
330
6C
100
AcDbEntity
  8
Visible (ANSI)
100
AcDbLine
 10
84.16440925187531
 20
66.72904949452231
 30
0.0
 11
84.07065925187529
 21
66.72904949452231
 31
0.0
  0
LINE
  5
352
330
6C
100
AcDbEntity
  8
Visible (ANSI)
100
AcDbLine
 10
84.19565925187534
 20
66.69400823378609
 30
0.0
 11
84.94565925187535
 21
66.69400823378609
 31
0.0
  0
POLYLINE
  5
353
330
6C
100
AcDbEntity
  8
Visible (ANSI)
100
AcDb2dPolyline
 66
     1
 10
0.0
 20
0.0
 30
0.0
 70
   128
  0
VERTEX
  5
354
330
353
100
AcDbEntity
  8
Visible (ANSI)
100
AcDbVertex
100
AcDb2dVertex
 10
84.19565925140595
 20
66.85405089304442
 30
0.0
  0
VERTEX
  5
355
330
353
100
AcDbEntity
  8
Visible (ANSI)
100
AcDbVertex
100
AcDb2dVertex
 10
84.18748386131545
 20
66.85378056016732
 30
0.0
  0
VERTEX
  5
357
330
353
100
AcDbEntity
  8
Visible (ANSI)
100
AcDbVertex
100
AcDb2dVertex
 10
84.1793434772205
 20
66.85298157633058
 30
0.0
  0
VERTEX
  5
358
330
353
100
AcDbEntity
  8
Visible (ANSI)
100
AcDbVertex
100
AcDb2dVertex
 10
84.17127296138515
 20
66.85164793413694
 30
0.0
  0
VERTEX
  5
359
330
353
100
AcDbEntity
  8
Visible (ANSI)
100
AcDbVertex
100
AcDb2dVertex
 10
84.16330687119343
 20
66.8497916483809
 30
0.0
  0
VERTEX
  5
35A
330
353
100
AcDbEntity
  8
Visible (ANSI)
100
AcDbVertex
100
AcDb2dVertex
 10
84.15547931890129
 20
66.84741572276114
 30
0.0
  0
VERTEX
  5
35B
330
353
100
AcDbEntity
  8
Visible (ANSI)
100
AcDbVertex
100
AcDb2dVertex
 10
84.14782382240492
 20
66.84453517577079
 30
0.0
  0
VERTEX
  5
35C
330
353
100
AcDbEntity
  8
Visible (ANSI)
100
AcDbVertex
100
AcDb2dVertex
 10
84.14037316554221
 20
66.84115901850578
 30
0.0
  0
VERTEX
  5
35D
330
353
100
AcDbEntity
  8
Visible (ANSI)
100
AcDbVertex
100
AcDb2dVertex
 10
84.13315925234462
 20
66.83730226945927
 30
0.0
  0
VERTEX
  5
35E
330
353
100
AcDbEntity
  8
Visible (ANSI)
100
AcDbVertex
100
AcDb2dVertex
 10
84.12621297338862
 20
66.83298295082308
 30
0.0
  0
VERTEX
  5
35F
330
353
100
AcDbEntity
  8
Visible (ANSI)
100
AcDbVertex
100
AcDb2dVertex
 10
84.11956407233063
 20
66.82821908478899
 30
0.0
  0
VERTEX
  5
360
330
353
100
AcDbEntity
  8
Visible (ANSI)
100
AcDbVertex
100
AcDb2dVertex
 10
84.11324102270837
 20
66.82302869354884
 30
0.0
  0
VERTEX
  5
361
330
353
100
AcDbEntity
  8
Visible (ANSI)
100
AcDbVertex
100
AcDb2dVertex
 10
84.10727090180905
 20
66.81743881039031
 30
0.0
  0
VERTEX
  5
362
330
353
100
AcDbEntity
  8
Visible (ANSI)
100
AcDbVertex
100
AcDb2dVertex
 10
84.10167927627066
 20
66.81146745750521
 30
0.0
  0
VERTEX
  5
363
330
353
100
AcDbEntity
  8
Visible (ANSI)
100
AcDbVertex
100
AcDb2dVertex
 10
84.09649008181666
 20
66.80514467187991
 30
0.0
  0
VERTEX
  5
364
330
353
100
AcDbEntity
  8
Visible (ANSI)
100
AcDbVertex
100
AcDb2dVertex
 10
84.09172555285691
 20
66.79849448310346
 30
0.0
  0
VERTEX
  5
365
330
353
100
AcDbEntity
  8
Visible (ANSI)
100
AcDbVertex
100
AcDb2dVertex
 10
84.08740607582256
 20
66.79154993186084
 30
0.0
  0
VERTEX
  5
366
330
353
100
AcDbEntity
  8
Visible (ANSI)
100
AcDbVertex
100
AcDb2dVertex
 10
84.08355015983309
 20
66.78433504774114
 30
0.0
  0
VERTEX
  5
367
330
353
100
AcDbEntity
  8
Visible (ANSI)
100
AcDbVertex
100
AcDb2dVertex
 10
84.08017430763122
 20
66.77688587512796
 30
0.0
  0
VERTEX
  5
368
330
353
100
AcDbEntity
  8
Visible (ANSI)
100
AcDbVertex
100
AcDb2dVertex
 10
84.07729298624984
 20
66.769229447309
 30
0.0
  0
VERTEX
  5
369
330
353
100
AcDbEntity
  8
Visible (ANSI)
100
AcDbVertex
100
AcDb2dVertex
 10
84.07491852141317
 20
66.76140180866787
 30
0.0
  0
VERTEX
  5
36A
330
353
100
AcDbEntity
  8
Visible (ANSI)
100
AcDbVertex
100
AcDb2dVertex
 10
84.07306109167038
 20
66.75343599988957
 30
0.0
  0
VERTEX
  5
36B
330
353
100
AcDbEntity
  8
Visible (ANSI)
100
AcDbVertex
100
AcDb2dVertex
 10
84.07172864626289
 20
66.74536506165908
 30
0.0
  0
VERTEX
  5
36C
330
353
100
AcDbEntity
  8
Visible (ANSI)
100
AcDbVertex
100
AcDb2dVertex
 10
84.07092688752488
 20
66.73722503836
 30
0.0
  0
VERTEX
  5
36D
330
353
100
AcDbEntity
  8
Visible (ANSI)
100
AcDbVertex
100
AcDb2dVertex
 10
84.07065925328328
 20
66.72904897067728
 30
0.0
  0
SEQEND
  5
356
330
353
100
AcDbEntity
  8
Visible (ANSI)
  0
LINE
  5
36E
330
6C
100
AcDbEntity
  8
Visible (ANSI)
100
AcDbLine
 10
84.19565925187528
 20
66.76029949452232
 30
0.0
 11
84.94565925187528
 21
66.76029949452227
 31
0.0
  0
LINE
  5
36F
330
6C
100
AcDbEntity
  8
Visible (ANSI)
100
AcDbLine
 10
84.94565925187528
 20
66.85404949452228
 30
0.0
 11
84.1956592518753
 21
66.85404949452233
 31
0.0
  0
LINE
  5
370
330
6C
100
AcDbEntity
  8
Visible (ANSI)
100
AcDbLine
 10
84.19565925187528
 20
66.76029949452232
 30
0.0
 11
84.1956592518753
 21
66.85404949452233
 31
0.0
  0
LINE
  5
371
330
6C
100
AcDbEntity
  8
Visible (ANSI)
100
AcDbLine
 10
84.94565925187528
 20
66.76029949452227
 30
0.0
 11
84.94565925187528
 21
66.85404949452228
 31
0.0
  0
POLYLINE
  5
372
330
6C
100
AcDbEntity
  8
Visible (ANSI)
100
AcDb2dPolyline
 66
     1
 10
0.0
 20
0.0
 30
0.0
 70
   128
  0
VERTEX
  5
373
330
372
100
AcDbEntity
  8
Visible (ANSI)
100
AcDbVertex
100
AcDb2dVertex
 10
84.16440925187531
 20
66.72904897067728
 30
0.0
  0
VERTEX
  5
374
330
372
100
AcDbEntity
  8
Visible (ANSI)
100
AcDbVertex
100
AcDb2dVertex
 10
84.16447616052165
 20
66.73109448944728
 30
0.0
  0
VERTEX
  5
376
330
372
100
AcDbEntity
  8
Visible (ANSI)
100
AcDbVertex
100
AcDb2dVertex
 10
84.16467659995978
 20
66.73312799342273
 30
0.0
  0
VERTEX
  5
377
330
372
100
AcDbEntity
  8
Visible (ANSI)
100
AcDbVertex
100
AcDb2dVertex
 10
84.16500971188456
 20
66.73514647890502
 30
0.0
  0
VERTEX
  5
378
330
372
100
AcDbEntity
  8
Visible (ANSI)
100
AcDbVertex
100
AcDb2dVertex
 10
84.16547406982443
 20
66.73713793109958
 30
0.0
  0
VERTEX
  5
379
330
372
100
AcDbEntity
  8
Visible (ANSI)
100
AcDbVertex
100
AcDb2dVertex
 10
84.16606768530026
 20
66.73909333891055
 30
0.0
  0
VERTEX
  5
37A
330
372
100
AcDbEntity
  8
Visible (ANSI)
100
AcDbVertex
100
AcDb2dVertex
 10
84.16678801656226
 20
66.74100969863927
 30
0.0
  0
VERTEX
  5
37B
330
372
100
AcDbEntity
  8
Visible (ANSI)
100
AcDbVertex
100
AcDb2dVertex
 10
84.16763197887942
 20
66.74287199179257
 30
0.0
  0
VERTEX
  5
37C
330
372
100
AcDbEntity
  8
Visible (ANSI)
100
AcDbVertex
100
AcDb2dVertex
 10
84.16859595787679
 20
66.74467421097318
 30
0.0
  0
VERTEX
  5
37D
330
372
100
AcDbEntity
  8
Visible (ANSI)
100
AcDbVertex
100
AcDb2dVertex
 10
84.16967582640205
 20
66.74641034878383
 30
0.0
  0
VERTEX
  5
37E
330
372
100
AcDbEntity
  8
Visible (ANSI)
100
AcDbVertex
100
AcDb2dVertex
 10
84.17086695974196
 20
66.74807439782725
 30
0.0
  0
VERTEX
  5
37F
330
372
100
AcDbEntity
  8
Visible (ANSI)
100
AcDbVertex
100
AcDb2dVertex
 10
84.17216425762214
 20
66.74965434330893
 30
0.0
  0
VERTEX
  5
380
330
372
100
AcDbEntity
  8
Visible (ANSI)
100
AcDbVertex
100
AcDb2dVertex
 10
84.17356216474006
 20
66.7511471815302
 30
0.0
  0
VERTEX
  5
381
330
372
100
AcDbEntity
  8
Visible (ANSI)
100
AcDbVertex
100
AcDb2dVertex
 10
84.17505469496489
 20
66.75254390139518
 30
0.0
  0
VERTEX
  5
382
330
372
100
AcDbEntity
  8
Visible (ANSI)
100
AcDbVertex
100
AcDb2dVertex
 10
84.17663545737047
 20
66.75384149920521
 30
0.0
  0
VERTEX
  5
383
330
372
100
AcDbEntity
  8
Visible (ANSI)
100
AcDbVertex
100
AcDb2dVertex
 10
84.17829768263496
 20
66.75503396756305
 30
0.0
  0
VERTEX
  5
384
330
372
100
AcDbEntity
  8
Visible (ANSI)
100
AcDbVertex
100
AcDb2dVertex
 10
84.18003425164062
 20
66.75611229537278
 30
0.0
  0
VERTEX
  5
385
330
372
100
AcDbEntity
  8
Visible (ANSI)
100
AcDbVertex
100
AcDb2dVertex
 10
84.18183773067335
 20
66.75707648263442
 30
0.0
  0
VERTEX
  5
386
330
372
100
AcDbEntity
  8
Visible (ANSI)
100
AcDbVertex
100
AcDb2dVertex
 10
84.18370039488904
 20
66.75792052195067
 30
0.0
  0
VERTEX
  5
387
330
372
100
AcDbEntity
  8
Visible (ANSI)
100
AcDbVertex
100
AcDb2dVertex
 10
84.18561426864647
 20
66.75864140962291
 30
0.0
  0
VERTEX
  5
388
330
372
100
AcDbEntity
  8
Visible (ANSI)
100
AcDbVertex
100
AcDb2dVertex
 10
84.187571156307
 20
66.75923614195252
 30
0.0
  0
VERTEX
  5
389
330
372
100
AcDbEntity
  8
Visible (ANSI)
100
AcDbVertex
100
AcDb2dVertex
 10
84.18956267890076
 20
66.7596987115422
 30
0.0
  0
VERTEX
  5
38A
330
372
100
AcDbEntity
  8
Visible (ANSI)
100
AcDbVertex
100
AcDb2dVertex
 10
84.19158030785959
 20
66.7600321220906
 30
0.0
  0
VERTEX
  5
38B
330
372
100
AcDbEntity
  8
Visible (ANSI)
100
AcDbVertex
100
AcDb2dVertex
 10
84.19361540461666
 20
66.76023336989911
 30
0.0
  0
VERTEX
  5
38C
330
372
100
AcDbEntity
  8
Visible (ANSI)
100
AcDbVertex
100
AcDb2dVertex
 10
84.19565925140595
 20
66.76029945126906
 30
0.0
  0
SEQEND
  5
375
330
372
100
AcDbEntity
  8
Visible (ANSI)
  0
POLYLINE
  5
38D
330
6C
100
AcDbEntity
  8
Visible (ANSI)
100
AcDb2dPolyline
 66
     1
 10
0.0
 20
0.0
 30
0.0
 70
   128
  0
VERTEX
  5
38E
330
38D
100
AcDbEntity
  8
Visible (ANSI)
100
AcDbVertex
100
AcDb2dVertex
 10
84.07065925328328
 20
36.09904949264502
 30
0.0
  0
VERTEX
  5
38F
330
38D
100
AcDbEntity
  8
Visible (ANSI)
100
AcDbVertex
100
AcDb2dVertex
 10
84.07092688752488
 20
36.09087410548779
 30
0.0
  0
VERTEX
  5
391
330
38D
100
AcDbEntity
  8
Visible (ANSI)
100
AcDbVertex
100
AcDb2dVertex
 10
84.07172864626289
 20
36.08273371845957
 30
0.0
  0
VERTEX
  5
392
330
38D
100
AcDbEntity
  8
Visible (ANSI)
100
AcDbVertex
100
AcDb2dVertex
 10
84.07306109167038
 20
36.07466320262419
 30
0.0
  0
VERTEX
  5
393
330
38D
100
AcDbEntity
  8
Visible (ANSI)
100
AcDbVertex
100
AcDb2dVertex
 10
84.07491852141317
 20
36.06669711224915
 30
0.0
  0
VERTEX
  5
394
330
38D
100
AcDbEntity
  8
Visible (ANSI)
100
AcDbVertex
100
AcDb2dVertex
 10
84.07729298624984
 20
36.05886956160701
 30
0.0
  0
VERTEX
  5
395
330
38D
100
AcDbEntity
  8
Visible (ANSI)
100
AcDbVertex
100
AcDb2dVertex
 10
84.08017430763122
 20
36.05121406657727
 30
0.0
  0
VERTEX
  5
396
330
38D
100
AcDbEntity
  8
Visible (ANSI)
100
AcDbVertex
100
AcDb2dVertex
 10
84.08355015983309
 20
36.04376340971457
 30
0.0
  0
VERTEX
  5
397
330
38D
100
AcDbEntity
  8
Visible (ANSI)
100
AcDbVertex
100
AcDb2dVertex
 10
84.08740607582256
 20
36.03654949358368
 30
0.0
  0
VERTEX
  5
398
330
38D
100
AcDbEntity
  8
Visible (ANSI)
100
AcDbVertex
100
AcDb2dVertex
 10
84.09172555285691
 20
36.02960321756098
 30
0.0
  0
VERTEX
  5
399
330
38D
100
AcDbEntity
  8
Visible (ANSI)
100
AcDbVertex
100
AcDb2dVertex
 10
84.09649008181666
 20
36.02295431650298
 30
0.0
  0
VERTEX
  5
39A
330
38D
100
AcDbEntity
  8
Visible (ANSI)
100
AcDbVertex
100
AcDb2dVertex
 10
84.10167927627066
 20
36.01663126688072
 30
0.0
  0
VERTEX
  5
39B
330
38D
100
AcDbEntity
  8
Visible (ANSI)
100
AcDbVertex
100
AcDb2dVertex
 10
84.10727090180905
 20
36.01066114598141
 30
0.0
  0
VERTEX
  5
39C
330
38D
100
AcDbEntity
  8
Visible (ANSI)
100
AcDbVertex
100
AcDb2dVertex
 10
84.11324102270837
 20
36.00506951750971
 30
0.0
  0
VERTEX
  5
39D
330
38D
100
AcDbEntity
  8
Visible (ANSI)
100
AcDbVertex
100
AcDb2dVertex
 10
84.11956407233063
 20
35.99988032598903
 30
0.0
  0
VERTEX
  5
39E
330
38D
100
AcDbEntity
  8
Visible (ANSI)
100
AcDbVertex
100
AcDb2dVertex
 10
84.12621297338862
 20
35.99511579262932
 30
0.0
  0
VERTEX
  5
39F
330
38D
100
AcDbEntity
  8
Visible (ANSI)
100
AcDbVertex
100
AcDb2dVertex
 10
84.13315925234462
 20
35.99079631852826
 30
0.0
  0
VERTEX
  5
3A0
330
38D
100
AcDbEntity
  8
Visible (ANSI)
100
AcDbVertex
100
AcDb2dVertex
 10
84.14037316554221
 20
35.98694040253879
 30
0.0
  0
VERTEX
  5
3A1
330
38D
100
AcDbEntity
  8
Visible (ANSI)
100
AcDbVertex
100
AcDb2dVertex
 10
84.14782382240492
 20
35.98356455327023
 30
0.0
  0
VERTEX
  5
3A2
330
38D
100
AcDbEntity
  8
Visible (ANSI)
100
AcDbVertex
100
AcDb2dVertex
 10
84.15547931890129
 20
35.9806832282222
 30
0.0
  0
VERTEX
  5
3A3
330
38D
100
AcDbEntity
  8
Visible (ANSI)
100
AcDbVertex
100
AcDb2dVertex
 10
84.16330687119343
 20
35.97830876631885
 30
0.0
  0
VERTEX
  5
3A4
330
38D
100
AcDbEntity
  8
Visible (ANSI)
100
AcDbVertex
100
AcDb2dVertex
 10
84.17127296138515
 20
35.9764513345594
 30
0.0
  0
VERTEX
  5
3A5
330
38D
100
AcDbEntity
  8
Visible (ANSI)
100
AcDbVertex
100
AcDb2dVertex
 10
84.1793434772205
 20
35.97511888686029
 30
0.0
  0
VERTEX
  5
3A6
330
38D
100
AcDbEntity
  8
Visible (ANSI)
100
AcDbVertex
100
AcDb2dVertex
 10
84.18748386131545
 20
35.97431712910768
 30
0.0
  0
VERTEX
  5
3A7
330
38D
100
AcDbEntity
  8
Visible (ANSI)
100
AcDbVertex
100
AcDb2dVertex
 10
84.19565925140595
 20
35.97404949452233
 30
0.0
  0
SEQEND
  5
390
330
38D
100
AcDbEntity
  8
Visible (ANSI)
  0
LINE
  5
3A8
330
6C
100
AcDbEntity
  8
Visible (ANSI)
100
AcDbLine
 10
84.1956592518753
 20
36.06779949452233
 30
0.0
 11
84.94565925187529
 21
36.06779949452233
 31
0.0
  0
LINE
  5
3A9
330
6C
100
AcDbEntity
  8
Visible (ANSI)
100
AcDbLine
 10
84.1956592518753
 20
36.06779949452233
 30
0.0
 11
84.1956592518753
 21
35.97404949452233
 31
0.0
  0
POLYLINE
  5
3AA
330
6C
100
AcDbEntity
  8
Visible (ANSI)
100
AcDb2dPolyline
 66
     1
 10
0.0
 20
0.0
 30
0.0
 70
   128
  0
VERTEX
  5
3AB
330
3AA
100
AcDbEntity
  8
Visible (ANSI)
100
AcDbVertex
100
AcDb2dVertex
 10
84.16440925187531
 20
36.09904949264502
 30
0.0
  0
VERTEX
  5
3AC
330
3AA
100
AcDbEntity
  8
Visible (ANSI)
100
AcDbVertex
100
AcDb2dVertex
 10
84.16447616052165
 20
36.09700565172231
 30
0.0
  0
VERTEX
  5
3AE
330
3AA
100
AcDbEntity
  8
Visible (ANSI)
100
AcDbVertex
100
AcDb2dVertex
 10
84.16467659995978
 20
36.09497055203195
 30
0.0
  0
VERTEX
  5
3AF
330
3AA
100
AcDbEntity
  8
Visible (ANSI)
100
AcDbVertex
100
AcDb2dVertex
 10
84.16500971188456
 20
36.09295292307311
 30
0.0
  0
VERTEX
  5
3B0
330
3AA
100
AcDbEntity
  8
Visible (ANSI)
100
AcDbVertex
100
AcDb2dVertex
 10
84.16547406982443
 20
36.09096140047935
 30
0.0
  0
VERTEX
  5
3B1
330
3AA
100
AcDbEntity
  8
Visible (ANSI)
100
AcDbVertex
100
AcDb2dVertex
 10
84.16606768530026
 20
36.08900451428546
 30
0.0
  0
VERTEX
  5
3B2
330
3AA
100
AcDbEntity
  8
Visible (ANSI)
100
AcDbVertex
100
AcDb2dVertex
 10
84.16678801656226
 20
36.08709064199468
 30
0.0
  0
VERTEX
  5
3B3
330
3AA
100
AcDbEntity
  8
Visible (ANSI)
100
AcDbVertex
100
AcDb2dVertex
 10
84.16763197887942
 20
36.08522797337906
 30
0.0
  0
VERTEX
  5
3B4
330
3AA
100
AcDbEntity
  8
Visible (ANSI)
100
AcDbVertex
100
AcDb2dVertex
 10
84.16859595787679
 20
36.08342449874629
 30
0.0
  0
VERTEX
  5
3B5
330
3AA
100
AcDbEntity
  8
Visible (ANSI)
100
AcDbVertex
100
AcDb2dVertex
 10
84.16967582640205
 20
36.08168792680731
 30
0.0
  0
VERTEX
  5
3B6
330
3AA
100
AcDbEntity
  8
Visible (ANSI)
100
AcDbVertex
100
AcDb2dVertex
 10
84.17086695974196
 20
36.08002569640954
 30
0.0
  0
VERTEX
  5
3B7
330
3AA
100
AcDbEntity
  8
Visible (ANSI)
100
AcDbVertex
100
AcDb2dVertex
 10
84.17216425762214
 20
36.07844494133722
 30
0.0
  0
VERTEX
  5
3B8
330
3AA
100
AcDbEntity
  8
Visible (ANSI)
100
AcDbVertex
100
AcDb2dVertex
 10
84.17356216474006
 20
36.07695240817909
 30
0.0
  0
VERTEX
  5
3B9
330
3AA
100
AcDbEntity
  8
Visible (ANSI)
100
AcDbVertex
100
AcDb2dVertex
 10
84.17505469496489
 20
36.07555450326114
 30
0.0
  0
VERTEX
  5
3BA
330
3AA
100
AcDbEntity
  8
Visible (ANSI)
100
AcDbVertex
100
AcDb2dVertex
 10
84.17663545737047
 20
36.07425719878105
 30
0.0
  0
VERTEX
  5
3BB
330
3AA
100
AcDbEntity
  8
Visible (ANSI)
100
AcDbVertex
100
AcDb2dVertex
 10
84.17829768263496
 20
36.07306606800776
 30
0.0
  0
VERTEX
  5
3BC
330
3AA
100
AcDbEntity
  8
Visible (ANSI)
100
AcDbVertex
100
AcDb2dVertex
 10
84.18003425164062
 20
36.07198620314912
 30
0.0
  0
VERTEX
  5
3BD
330
3AA
100
AcDbEntity
  8
Visible (ANSI)
100
AcDbVertex
100
AcDb2dVertex
 10
84.18183773067335
 20
36.07102222121844
 30
0.0
  0
VERTEX
  5
3BE
330
3AA
100
AcDbEntity
  8
Visible (ANSI)
100
AcDbVertex
100
AcDb2dVertex
 10
84.18370039488904
 20
36.07017825816798
 30
0.0
  0
VERTEX
  5
3BF
330
3AA
100
AcDbEntity
  8
Visible (ANSI)
100
AcDbVertex
100
AcDb2dVertex
 10
84.18561426864647
 20
36.06945792782263
 30
0.0
  0
VERTEX
  5
3C0
330
3AA
100
AcDbEntity
  8
Visible (ANSI)
100
AcDbVertex
100
AcDb2dVertex
 10
84.187571156307
 20
36.06886431014681
 30
0.0
  0
VERTEX
  5
3C1
330
3AA
100
AcDbEntity
  8
Visible (ANSI)
100
AcDbVertex
100
AcDb2dVertex
 10
84.18956267890076
 20
36.06839995711107
 30
0.0
  0
VERTEX
  5
3C2
330
3AA
100
AcDbEntity
  8
Visible (ANSI)
100
AcDbVertex
100
AcDb2dVertex
 10
84.19158030785959
 20
36.0680668398926
 30
0.0
  0
VERTEX
  5
3C3
330
3AA
100
AcDbEntity
  8
Visible (ANSI)
100
AcDbVertex
100
AcDb2dVertex
 10
84.19361540461666
 20
36.06786640167474
 30
0.0
  0
VERTEX
  5
3C4
330
3AA
100
AcDbEntity
  8
Visible (ANSI)
100
AcDbVertex
100
AcDb2dVertex
 10
84.19565925140595
 20
36.06779949311434
 30
0.0
  0
SEQEND
  5
3AD
330
3AA
100
AcDbEntity
  8
Visible (ANSI)
  0
LINE
  5
3C5
330
6C
100
AcDbEntity
  8
Visible (ANSI)
100
AcDbLine
 10
84.1956592518753
 20
35.97404949452233
 30
0.0
 11
84.94565925187529
 21
35.97404949452233
 31
0.0
  0
LINE
  5
3C6
330
6C
100
AcDbEntity
  8
Visible (ANSI)
100
AcDbLine
 10
84.94565925187529
 20
36.06779949452233
 30
0.0
 11
84.94565925187529
 21
35.97404949452233
 31
0.0
  0
LINE
  5
3C7
330
6C
100
AcDbEntity
  8
Visible (ANSI)
100
AcDbLine
 10
84.07065925187529
 20
36.09904949452233
 30
0.0
 11
84.07065925187529
 21
66.72904949452231
 31
0.0
  0
LINE
  5
3C8
330
6C
100
AcDbEntity
  8
Hidden (ANSI)
100
AcDbLine
 10
84.16440925187531
 20
66.72904949452231
 30
0.0
 11
84.16440925187531
 21
36.09904949452233
 31
0.0
  0
LINE
  5
3C9
330
6C
100
AcDbEntity
  8
Visible (ANSI)
100
AcDbLine
 10
84.94565925187535
 20
66.69400823378609
 30
0.0
 11
84.94565925187535
 21
36.13409075525856
 31
0.0
  0
LINE
  5
3CA
330
6C
100
AcDbEntity
  8
Hidden (ANSI)
100
AcDbLine
 10
84.16440925187508
 20
65.69754949452233
 30
0.0
 11
84.07065925187508
 21
65.69754949452233
 31
0.0
  0
LINE
  5
3CB
330
6C
100
AcDbEntity
  8
Hidden (ANSI)
100
AcDbLine
 10
84.16440925187508
 20
66.26054949452235
 30
0.0
 11
84.07065925187508
 21
66.26054949452235
 31
0.0
  0
LINE
  5
3CC
330
6C
100
AcDbEntity
  8
Hidden (ANSI)
100
AcDbLine
 10
84.16440925187508
 20
36.56754949452233
 30
0.0
 11
84.07065925187508
 21
36.56754949452233
 31
0.0
  0
LINE
  5
3CD
330
6C
100
AcDbEntity
  8
Hidden (ANSI)
100
AcDbLine
 10
84.16440925187508
 20
37.13054949452232
 30
0.0
 11
84.07065925187508
 21
37.13054949452232
 31
0.0
  0
MTEXT
  5
3CE
330
6C
100
AcDbEntity
  8
Symbol (ANSI)
100
AcDbMText
 10
80.76013180052298
 20
30.96675185487614
 30
0.0
 40
1.200000014830761
 41
0.0
 46
0.0
 71
     7
 72
     1
  1
SIDE VIEW
  7
Text Style153
 73
     1
 44
1.0
  0
LINE
  5
3CF
330
6C
100
AcDbEntity
  8
Symbol (ANSI)
370
    30
100
AcDbLine
 10
80.69869164247682
 20
30.71814569322907
 30
0.0
 11
88.80792984653178
 21
30.71814569322907
 31
0.0
  0
ELLIPSE
  5
3D0
330
6C
100
AcDbEntity
  8
Visible (ANSI)
100
AcDbEllipse
 10
135.4913570984586
 20
59.42784054994085
 30
0.0
 11
-0.1404775675610101
 21
0.2439432372748666
 31
0.0
210
0.0
220
0.0
230
1.0
 40
0.5780931159158093
 41
0.0
 42
6.283185307179586
  0
ELLIPSE
  5
3D1
330
6C
100
AcDbEntity
  8
Visible (ANSI)
100
AcDbEllipse
 10
135.5576483591948
 20
59.4660151481089
 30
0.0
 11
-0.1404775675610097
 21
0.243943237274866
 31
0.0
210
0.0
220
0.0
230
1.0
 40
0.5780931159158093
 41
0.2372585647783669
 42
2.904334088811332
  0
ELLIPSE
  5
3D2
330
6C
100
AcDbEntity
  8
Visible (ANSI)
100
AcDbEllipse
 10
122.5866583418022
 20
66.85916232664993
 30
0.0
 11
-0.1404775675610101
 21
0.2439432372748666
 31
0.0
210
0.0
220
0.0
230
1.0
 40
0.5780931159158093
 41
0.0
 42
6.283185307179586
  0
ELLIPSE
  5
3D3
330
6C
100
AcDbEntity
  8
Visible (ANSI)
100
AcDbEllipse
 10
122.6529496025384
 20
66.89733692481796
 30
0.0
 11
-0.1404775675610098
 21
0.243943237274866
 31
0.0
210
0.0
220
0.0
230
1.0
 40
0.5780931159158093
 41
0.2372585647784593
 42
2.904334088811316
  0
ELLIPSE
  5
3D4
330
6C
100
AcDbEntity
  8
Visible (ANSI)
100
AcDbEllipse
 10
122.5866583418021
 20
43.04401457998681
 30
0.0
 11
-0.1404775675610101
 21
0.2439432372748666
 31
0.0
210
0.0
220
0.0
230
1.0
 40
0.5780931159158093
 41
0.0
 42
6.283185307179586
  0
ELLIPSE
  5
3D5
330
6C
100
AcDbEntity
  8
Visible (ANSI)
100
AcDbEllipse
 10
122.6529496025383
 20
43.08218917815485
 30
0.0
 11
-0.1404775675610102
 21
0.2439432372748664
 31
0.0
210
0.0
220
0.0
230
0.9999999999999998
 40
0.578093115915809
 41
0.2372585647784328
 42
2.904334088811331
  0
ELLIPSE
  5
3D6
330
6C
100
AcDbEntity
  8
Visible (ANSI)
100
AcDbEllipse
 10
135.4913570984585
 20
35.61269280327773
 30
0.0
 11
-0.1404775675610101
 21
0.2439432372748666
 31
0.0
210
0.0
220
0.0
230
1.0
 40
0.5780931159158093
 41
0.0
 42
6.283185307179586
  0
ELLIPSE
  5
3D7
330
6C
100
AcDbEntity
  8
Visible (ANSI)
100
AcDbEllipse
 10
135.5576483591947
 20
35.65086740144578
 30
0.0
 11
-0.1404775675610099
 21
0.2439432372748663
 31
0.0
210
0.0
220
0.0
230
1.0
 40
0.578093115915809
 41
0.2372585647783669
 42
2.904334088811332
  0
LINE
  5
3D8
330
6C
100
AcDbEntity
  8
Visible Narrow (ANSI)
100
AcDbLine
 10
136.1984638796452
 20
59.70695622626277
 30
0.0
 11
136.1984638796451
 21
34.7227835562674
 31
0.0
  0
LINE
  5
3D9
330
6C
100
AcDbEntity
  8
Visible Narrow (ANSI)
100
AcDbLine
 10
136.0216871843485
 20
34.69413567430161
 30
0.0
 11
136.0216871843485
 21
59.73560410822853
 31
0.0
  0
LINE
  5
3DA
330
6C
100
AcDbEntity
  8
Visible Narrow (ANSI)
100
AcDbLine
 10
122.1694945166484
 20
67.91654365927773
 30
0.0
 11
136.0852976189089
 21
59.90296561423557
 31
0.0
  0
LINE
  5
3DB
330
6C
100
AcDbEntity
  8
Visible Narrow (ANSI)
100
AcDbLine
 10
136.0216871843485
 20
59.73560410822853
 30
0.0
 11
122.0563282559122
 21
67.77771945562602
 31
0.0
  0
LINE
  5
3DC
330
6C
100
AcDbEntity
  8
Visible Narrow (ANSI)
100
AcDbLine
 10
122.0563282559122
 20
67.77771945562602
 30
0.0
 11
122.0563282559121
 21
42.73625102169909
 31
0.0
  0
LINE
  5
3DD
330
6C
100
AcDbEntity
  8
Visible Narrow (ANSI)
100
AcDbLine
 10
122.0563282559121
 20
42.7362510216991
 30
0.0
 11
136.0216871843485
 21
34.69413567430161
 31
0.0
  0
LINE
  5
3DE
330
6C
100
AcDbEntity
  8
Visible (ANSI)
100
AcDbLine
 10
122.0197166035605
 20
67.81429497886718
 30
0.0
 11
122.0197166035604
 21
42.80147442690604
 31
0.0
  0
LINE
  5
3DF
330
6C
100
AcDbEntity
  8
Visible (ANSI)
100
AcDbLine
 10
122.0947570361845
 20
42.67167566557838
 30
0.0
 11
136.0352770464766
 21
34.6438640998341
 31
0.0
  0
POLYLINE
  5
3E0
330
6C
100
AcDbEntity
  8
Visible (ANSI)
100
AcDb2dPolyline
 66
     1
 10
0.0
 20
0.0
 30
0.0
 70
   128
  0
VERTEX
  5
3E1
330
3E0
100
AcDbEntity
  8
Visible (ANSI)
100
AcDbVertex
100
AcDb2dVertex
 10
136.0216866755996
 20
59.73560397407622
 30
0.0
  0
VERTEX
  5
3E2
330
3E0
100
AcDbEntity
  8
Visible (ANSI)
100
AcDbVertex
100
AcDb2dVertex
 10
136.0276572744886
 20
59.73119024059754
 30
0.0
  0
VERTEX
  5
3E4
330
3E0
100
AcDbEntity
  8
Visible (ANSI)
100
AcDbVertex
100
AcDb2dVertex
 10
136.0339800692029
 20
59.72700867744295
 30
0.0
  0
VERTEX
  5
3E5
330
3E0
100
AcDbEntity
  8
Visible (ANSI)
100
AcDbVertex
100
AcDb2dVertex
 10
136.0406292655394
 20
59.72307133876935
 30
0.0
  0
VERTEX
  5
3E6
330
3E0
100
AcDbEntity
  8
Visible (ANSI)
100
AcDbVertex
100
AcDb2dVertex
 10
136.0475753441109
 20
59.71939057972922
 30
0.0
  0
VERTEX
  5
3E7
330
3E0
100
AcDbEntity
  8
Visible (ANSI)
100
AcDbVertex
100
AcDb2dVertex
 10
136.0547893206624
 20
59.71597661745082
 30
0.0
  0
VERTEX
  5
3E8
330
3E0
100
AcDbEntity
  8
Visible (ANSI)
100
AcDbVertex
100
AcDb2dVertex
 10
136.0622395726126
 20
59.7128393728445
 30
0.0
  0
VERTEX
  5
3E9
330
3E0
100
AcDbEntity
  8
Visible (ANSI)
100
AcDbVertex
100
AcDb2dVertex
 10
136.0698950830337
 20
59.70998666940686
 30
0.0
  0
VERTEX
  5
3EA
330
3E0
100
AcDbEntity
  8
Visible (ANSI)
100
AcDbVertex
100
AcDb2dVertex
 10
136.077723320864
 20
59.70742300303763
 30
0.0
  0
VERTEX
  5
3EB
330
3E0
100
AcDbEntity
  8
Visible (ANSI)
100
AcDbVertex
100
AcDb2dVertex
 10
136.08568925361
 20
59.70516001924639
 30
0.0
  0
VERTEX
  5
3EC
330
3E0
100
AcDbEntity
  8
Visible (ANSI)
100
AcDbVertex
100
AcDb2dVertex
 10
136.0937596159587
 20
59.70319934491932
 30
0.0
  0
VERTEX
  5
3ED
330
3E0
100
AcDbEntity
  8
Visible (ANSI)
100
AcDbVertex
100
AcDb2dVertex
 10
136.1018998151377
 20
59.70154429817451
 30
0.0
  0
VERTEX
  5
3EE
330
3E0
100
AcDbEntity
  8
Visible (ANSI)
100
AcDbVertex
100
AcDb2dVertex
 10
136.1100750136238
 20
59.70019683309448
 30
0.0
  0
VERTEX
  5
3EF
330
3E0
100
AcDbEntity
  8
Visible (ANSI)
100
AcDbVertex
100
AcDb2dVertex
 10
136.1182512948194
 20
59.6991569879009
 30
0.0
  0
VERTEX
  5
3F0
330
3E0
100
AcDbEntity
  8
Visible (ANSI)
100
AcDbVertex
100
AcDb2dVertex
 10
136.1263914649601
 20
59.69842535980724
 30
0.0
  0
VERTEX
  5
3F1
330
3E0
100
AcDbEntity
  8
Visible (ANSI)
100
AcDbVertex
100
AcDb2dVertex
 10
136.134461509963
 20
59.69799948471067
 30
0.0
  0
VERTEX
  5
3F2
330
3E0
100
AcDbEntity
  8
Visible (ANSI)
100
AcDbVertex
100
AcDb2dVertex
 10
136.1424274904146
 20
59.69787571841454
 30
0.0
  0
VERTEX
  5
3F3
330
3E0
100
AcDbEntity
  8
Visible (ANSI)
100
AcDbVertex
100
AcDb2dVertex
 10
136.1502556307596
 20
59.69804928798872
 30
0.0
  0
VERTEX
  5
3F4
330
3E0
100
AcDbEntity
  8
Visible (ANSI)
100
AcDbVertex
100
AcDb2dVertex
 10
136.1579113444479
 20
59.6985149534821
 30
0.0
  0
VERTEX
  5
3F5
330
3E0
100
AcDbEntity
  8
Visible (ANSI)
100
AcDbVertex
100
AcDb2dVertex
 10
136.1653614522443
 20
59.69926583917589
 30
0.0
  0
VERTEX
  5
3F6
330
3E0
100
AcDbEntity
  8
Visible (ANSI)
100
AcDbVertex
100
AcDb2dVertex
 10
136.1725753386997
 20
59.70029042079284
 30
0.0
  0
VERTEX
  5
3F7
330
3E0
100
AcDbEntity
  8
Visible (ANSI)
100
AcDbVertex
100
AcDb2dVertex
 10
136.1795218693075
 20
59.70158424214591
 30
0.0
  0
VERTEX
  5
3F8
330
3E0
100
AcDbEntity
  8
Visible (ANSI)
100
AcDbVertex
100
AcDb2dVertex
 10
136.1861705512534
 20
59.70313462648513
 30
0.0
  0
VERTEX
  5
3F9
330
3E0
100
AcDbEntity
  8
Visible (ANSI)
100
AcDbVertex
100
AcDb2dVertex
 10
136.192493762873
 20
59.70492933683164
 30
0.0
  0
VERTEX
  5
3FA
330
3E0
100
AcDbEntity
  8
Visible (ANSI)
100
AcDbVertex
100
AcDb2dVertex
 10
136.1984636669198
 20
59.70695601206079
 30
0.0
  0
SEQEND
  5
3E3
330
3E0
100
AcDbEntity
  8
Visible (ANSI)
  0
POLYLINE
  5
3FB
330
6C
100
AcDbEntity
  8
Visible (ANSI)
100
AcDb2dPolyline
 66
     1
 10
0.0
 20
0.0
 30
0.0
 70
   128
  0
VERTEX
  5
3FC
330
3FB
100
AcDbEntity
  8
Visible (ANSI)
100
AcDbVertex
100
AcDb2dVertex
 10
136.1984636669197
 20
34.72278368082743
 30
0.0
  0
VERTEX
  5
3FD
330
3FB
100
AcDbEntity
  8
Visible (ANSI)
100
AcDbVertex
100
AcDb2dVertex
 10
136.1924937628729
 20
34.71836988800724
 30
0.0
  0
VERTEX
  5
3FF
330
3FB
100
AcDbEntity
  8
Visible (ANSI)
100
AcDbVertex
100
AcDb2dVertex
 10
136.1861705512533
 20
34.71418806006972
 30
0.0
  0
VERTEX
  5
400
330
3FB
100
AcDbEntity
  8
Visible (ANSI)
100
AcDbVertex
100
AcDb2dVertex
 10
136.1795218693074
 20
34.71025056773191
 30
0.0
  0
VERTEX
  5
401
330
3FB
100
AcDbEntity
  8
Visible (ANSI)
100
AcDbVertex
100
AcDb2dVertex
 10
136.1725753386996
 20
34.70656962878781
 30
0.0
  0
VERTEX
  5
402
330
3FB
100
AcDbEntity
  8
Visible (ANSI)
100
AcDbVertex
100
AcDb2dVertex
 10
136.1653614522442
 20
34.70315547391466
 30
0.0
  0
VERTEX
  5
403
330
3FB
100
AcDbEntity
  8
Visible (ANSI)
100
AcDbVertex
100
AcDb2dVertex
 10
136.1579113444479
 20
34.70001747062984
 30
0.0
  0
VERTEX
  5
404
330
3FB
100
AcDbEntity
  8
Visible (ANSI)
100
AcDbVertex
100
AcDb2dVertex
 10
136.1502556307595
 20
34.69716469713787
 30
0.0
  0
VERTEX
  5
405
330
3FB
100
AcDbEntity
  8
Visible (ANSI)
100
AcDbVertex
100
AcDb2dVertex
 10
136.1424274904145
 20
34.69460400997268
 30
0.0
  0
VERTEX
  5
406
330
3FB
100
AcDbEntity
  8
Visible (ANSI)
100
AcDbVertex
100
AcDb2dVertex
 10
136.134461509963
 20
34.69234065867778
 30
0.0
  0
VERTEX
  5
407
330
3FB
100
AcDbEntity
  8
Visible (ANSI)
100
AcDbVertex
100
AcDb2dVertex
 10
136.1263914649601
 20
34.69037941618331
 30
0.0
  0
VERTEX
  5
408
330
3FB
100
AcDbEntity
  8
Visible (ANSI)
100
AcDbVertex
100
AcDb2dVertex
 10
136.1182512948193
 20
34.68872393627839
 30
0.0
  0
VERTEX
  5
409
330
3FB
100
AcDbEntity
  8
Visible (ANSI)
100
AcDbVertex
100
AcDb2dVertex
 10
136.1100750136238
 20
34.68737666388095
 30
0.0
  0
VERTEX
  5
40A
330
3FB
100
AcDbEntity
  8
Visible (ANSI)
100
AcDbVertex
100
AcDb2dVertex
 10
136.1018998151376
 20
34.68633701136995
 30
0.0
  0
VERTEX
  5
40B
330
3FB
100
AcDbEntity
  8
Visible (ANSI)
100
AcDbVertex
100
AcDb2dVertex
 10
136.0937596159587
 20
34.68560494052373
 30
0.0
  0
VERTEX
  5
40C
330
3FB
100
AcDbEntity
  8
Visible (ANSI)
100
AcDbVertex
100
AcDb2dVertex
 10
136.0856892536099
 20
34.68517850685223
 30
0.0
  0
VERTEX
  5
40D
330
3FB
100
AcDbEntity
  8
Visible (ANSI)
100
AcDbVertex
100
AcDb2dVertex
 10
136.077723320864
 20
34.68505437305243
 30
0.0
  0
VERTEX
  5
40E
330
3FB
100
AcDbEntity
  8
Visible (ANSI)
100
AcDbVertex
100
AcDb2dVertex
 10
136.0698950830336
 20
34.68522846616546
 30
0.0
  0
VERTEX
  5
40F
330
3FB
100
AcDbEntity
  8
Visible (ANSI)
100
AcDbVertex
100
AcDb2dVertex
 10
136.0622395726125
 20
34.68569406160453
 30
0.0
  0
VERTEX
  5
410
330
3FB
100
AcDbEntity
  8
Visible (ANSI)
100
AcDbVertex
100
AcDb2dVertex
 10
136.0547893206623
 20
34.68644418861983
 30
0.0
  0
VERTEX
  5
411
330
3FB
100
AcDbEntity
  8
Visible (ANSI)
100
AcDbVertex
100
AcDb2dVertex
 10
136.0475753441108
 20
34.68747103330719
 30
0.0
  0
VERTEX
  5
412
330
3FB
100
AcDbEntity
  8
Visible (ANSI)
100
AcDbVertex
100
AcDb2dVertex
 10
136.0406292655393
 20
34.68876467475629
 30
0.0
  0
VERTEX
  5
413
330
3FB
100
AcDbEntity
  8
Visible (ANSI)
100
AcDbVertex
100
AcDb2dVertex
 10
136.0339800692028
 20
34.6903149054313
 30
0.0
  0
VERTEX
  5
414
330
3FB
100
AcDbEntity
  8
Visible (ANSI)
100
AcDbVertex
100
AcDb2dVertex
 10
136.0276572744885
 20
34.69210935099487
 30
0.0
  0
VERTEX
  5
415
330
3FB
100
AcDbEntity
  8
Visible (ANSI)
100
AcDbVertex
100
AcDb2dVertex
 10
136.0216866755995
 20
34.69413596688252
 30
0.0
  0
SEQEND
  5
3FE
330
3FB
100
AcDbEntity
  8
Visible (ANSI)
  0
LINE
  5
416
330
6C
100
AcDbEntity
  8
Visible (ANSI)
100
AcDbLine
 10
136.1321726189089
 20
59.74513082443079
 30
0.0
 11
136.6625027047988
 21
60.05052760977509
 31
0.0
  0
LINE
  5
417
330
6C
100
AcDbEntity
  8
Visible (ANSI)
100
AcDbLine
 10
136.728793965535
 20
35.02818034161169
 30
0.0
 11
136.1984638796451
 21
34.7227835562674
 31
0.0
  0
LINE
  5
418
330
6C
100
AcDbEntity
  8
Visible (ANSI)
100
AcDbLine
 10
136.1321726189089
 20
59.74513082443079
 30
0.0
 11
136.1984638796452
 21
59.70695622626277
 31
0.0
  0
POLYLINE
  5
419
330
6C
100
AcDbEntity
  8
Visible (ANSI)
100
AcDb2dPolyline
 66
     1
 10
0.0
 20
0.0
 30
0.0
 70
   128
  0
VERTEX
  5
41A
330
419
100
AcDbEntity
  8
Visible (ANSI)
100
AcDbVertex
100
AcDb2dVertex
 10
136.0879779353402
 20
59.77377857167092
 30
0.0
  0
VERTEX
  5
41B
330
419
100
AcDbEntity
  8
Visible (ANSI)
100
AcDbVertex
100
AcDb2dVertex
 10
136.0894705851232
 20
59.77178004837726
 30
0.0
  0
VERTEX
  5
41D
330
419
100
AcDbEntity
  8
Visible (ANSI)
100
AcDbVertex
100
AcDb2dVertex
 10
136.0910512836276
 20
59.76983956752931
 30
0.0
  0
VERTEX
  5
41E
330
419
100
AcDbEntity
  8
Visible (ANSI)
100
AcDbVertex
100
AcDb2dVertex
 10
136.0927141141008
 20
59.76795983736192
 30
0.0
  0
VERTEX
  5
41F
330
419
100
AcDbEntity
  8
Visible (ANSI)
100
AcDbVertex
100
AcDb2dVertex
 10
136.0944506341002
 20
59.76614455784819
 30
0.0
  0
VERTEX
  5
420
330
419
100
AcDbEntity
  8
Visible (ANSI)
100
AcDbVertex
100
AcDb2dVertex
 10
136.0962541277195
 20
59.764395977021
 30
0.0
  0
VERTEX
  5
421
330
419
100
AcDbEntity
  8
Visible (ANSI)
100
AcDbVertex
100
AcDb2dVertex
 10
136.0981164258633
 20
59.76271672917034
 30
0.0
  0
VERTEX
  5
422
330
419
100
AcDbEntity
  8
Visible (ANSI)
100
AcDbVertex
100
AcDb2dVertex
 10
136.100030037458
 20
59.76110861593999
 30
0.0
  0
VERTEX
  5
423
330
419
100
AcDbEntity
  8
Visible (ANSI)
100
AcDbVertex
100
AcDb2dVertex
 10
136.1019870969156
 20
59.75957076763981
 30
0.0
  0
VERTEX
  5
424
330
419
100
AcDbEntity
  8
Visible (ANSI)
100
AcDbVertex
100
AcDb2dVertex
 10
136.1039793760594
 20
59.75810947277444
 30
0.0
  0
VERTEX
  5
425
330
419
100
AcDbEntity
  8
Visible (ANSI)
100
AcDbVertex
100
AcDb2dVertex
 10
136.1059961709486
 20
59.75672467334155
 30
0.0
  0
VERTEX
  5
426
330
419
100
AcDbEntity
  8
Visible (ANSI)
100
AcDbVertex
100
AcDb2dVertex
 10
136.1080317512087
 20
59.75541551562446
 30
0.0
  0
VERTEX
  5
427
330
419
100
AcDbEntity
  8
Visible (ANSI)
100
AcDbVertex
100
AcDb2dVertex
 10
136.1100758168407
 20
59.75418340680741
 30
0.0
  0
VERTEX
  5
428
330
419
100
AcDbEntity
  8
Visible (ANSI)
100
AcDbVertex
100
AcDb2dVertex
 10
136.1121198871396
 20
59.75302835555003
 30
0.0
  0
VERTEX
  5
429
330
419
100
AcDbEntity
  8
Visible (ANSI)
100
AcDbVertex
100
AcDb2dVertex
 10
136.1141541331989
 20
59.75195081722758
 30
0.0
  0
VERTEX
  5
42A
330
419
100
AcDbEntity
  8
Visible (ANSI)
100
AcDbVertex
100
AcDb2dVertex
 10
136.1161716444496
 20
59.75094925849447
 30
0.0
  0
VERTEX
  5
42B
330
419
100
AcDbEntity
  8
Visible (ANSI)
100
AcDbVertex
100
AcDb2dVertex
 10
136.118163139044
 20
59.75002322666283
 30
0.0
  0
VERTEX
  5
42C
330
419
100
AcDbEntity
  8
Visible (ANSI)
100
AcDbVertex
100
AcDb2dVertex
 10
136.1201201746488
 20
59.74917152939599
 30
0.0
  0
VERTEX
  5
42D
330
419
100
AcDbEntity
  8
Visible (ANSI)
100
AcDbVertex
100
AcDb2dVertex
 10
136.1220341030709
 20
59.74839285581036
 30
0.0
  0
VERTEX
  5
42E
330
419
100
AcDbEntity
  8
Visible (ANSI)
100
AcDbVertex
100
AcDb2dVertex
 10
136.1238971607446
 20
59.74768518135221
 30
0.0
  0
VERTEX
  5
42F
330
419
100
AcDbEntity
  8
Visible (ANSI)
100
AcDbVertex
100
AcDb2dVertex
 10
136.1257003665748
 20
59.74704454776725
 30
0.0
  0
VERTEX
  5
430
330
419
100
AcDbEntity
  8
Visible (ANSI)
100
AcDbVertex
100
AcDb2dVertex
 10
136.1274367337672
 20
59.74647306605184
 30
0.0
  0
VERTEX
  5
431
330
419
100
AcDbEntity
  8
Visible (ANSI)
100
AcDbVertex
100
AcDb2dVertex
 10
136.1290991697456
 20
59.74596541929102
 30
0.0
  0
VERTEX
  5
432
330
419
100
AcDbEntity
  8
Visible (ANSI)
100
AcDbVertex
100
AcDb2dVertex
 10
136.130680504153
 20
59.74551870144395
 30
0.0
  0
VERTEX
  5
433
330
419
100
AcDbEntity
  8
Visible (ANSI)
100
AcDbVertex
100
AcDb2dVertex
 10
136.1321724486622
 20
59.74513058576696
 30
0.0
  0
SEQEND
  5
41C
330
419
100
AcDbEntity
  8
Visible (ANSI)
  0
LINE
  5
434
330
6C
100
AcDbEntity
  8
Visible (ANSI)
100
AcDbLine
 10
136.0879784450848
 20
59.77377870639656
 30
0.0
 11
136.0216871843485
 21
59.73560410822853
 31
0.0
  0
LINE
  5
435
330
6C
100
AcDbEntity
  8
Visible (ANSI)
100
AcDbLine
 10
136.1984638796452
 20
59.70695622626277
 30
0.0
 11
136.728793965535
 21
60.01235301160707
 31
0.0
  0
LINE
  5
436
330
6C
100
AcDbEntity
  8
Visible (ANSI)
100
AcDbLine
 10
136.6625027047988
 20
60.05052760977509
 30
0.0
 11
136.728793965535
 21
60.01235301160707
 31
0.0
  0
POLYLINE
  5
437
330
6C
100
AcDbEntity
  8
Visible (ANSI)
100
AcDb2dPolyline
 66
     1
 10
0.0
 20
0.0
 30
0.0
 70
   128
  0
VERTEX
  5
438
330
437
100
AcDbEntity
  8
Visible (ANSI)
100
AcDbVertex
100
AcDb2dVertex
 10
122.0563282555803
 20
67.77771902869575
 30
0.0
  0
VERTEX
  5
439
330
437
100
AcDbEntity
  8
Visible (ANSI)
100
AcDbVertex
100
AcDb2dVertex
 10
122.0575499168302
 20
67.78391780042896
 30
0.0
  0
VERTEX
  5
43B
330
437
100
AcDbEntity
  8
Visible (ANSI)
100
AcDbVertex
100
AcDb2dVertex
 10
122.0591492611335
 20
67.79030459738554
 30
0.0
  0
VERTEX
  5
43C
330
437
100
AcDbEntity
  8
Visible (ANSI)
100
AcDbVertex
100
AcDb2dVertex
 10
122.0611238492829
 20
67.79685101215782
 30
0.0
  0
VERTEX
  5
43D
330
437
100
AcDbEntity
  8
Visible (ANSI)
100
AcDbVertex
100
AcDb2dVertex
 10
122.0634696657124
 20
67.80352524524214
 30
0.0
  0
VERTEX
  5
43E
330
437
100
AcDbEntity
  8
Visible (ANSI)
100
AcDbVertex
100
AcDb2dVertex
 10
122.0661810811629
 20
67.81029705220217
 30
0.0
  0
VERTEX
  5
43F
330
437
100
AcDbEntity
  8
Visible (ANSI)
100
AcDbVertex
100
AcDb2dVertex
 10
122.0692508983132
 20
67.81713527605934
 30
0.0
  0
VERTEX
  5
440
330
437
100
AcDbEntity
  8
Visible (ANSI)
100
AcDbVertex
100
AcDb2dVertex
 10
122.0726703932636
 20
67.82400543462704
 30
0.0
  0
VERTEX
  5
441
330
437
100
AcDbEntity
  8
Visible (ANSI)
100
AcDbVertex
100
AcDb2dVertex
 10
122.0764293528703
 20
67.83087952644949
 30
0.0
  0
VERTEX
  5
442
330
437
100
AcDbEntity
  8
Visible (ANSI)
100
AcDbVertex
100
AcDb2dVertex
 10
122.0805160996353
 20
67.83772136847606
 30
0.0
  0
VERTEX
  5
443
330
437
100
AcDbEntity
  8
Visible (ANSI)
100
AcDbVertex
100
AcDb2dVertex
 10
122.084917537338
 20
67.84450378332893
 30
0.0
  0
VERTEX
  5
444
330
437
100
AcDbEntity
  8
Visible (ANSI)
100
AcDbVertex
100
AcDb2dVertex
 10
122.0896192671881
 20
67.85119144786825
 30
0.0
  0
VERTEX
  5
445
330
437
100
AcDbEntity
  8
Visible (ANSI)
100
AcDbVertex
100
AcDb2dVertex
 10
122.094605558787
 20
67.85775566779387
 30
0.0
  0
VERTEX
  5
446
330
437
100
AcDbEntity
  8
Visible (ANSI)
100
AcDbVertex
100
AcDb2dVertex
 10
122.0998594870222
 20
67.86416213993
 30
0.0
  0
VERTEX
  5
447
330
437
100
AcDbEntity
  8
Visible (ANSI)
100
AcDbVertex
100
AcDb2dVertex
 10
122.105362965254
 20
67.87038572443782
 30
0.0
  0
VERTEX
  5
448
330
437
100
AcDbEntity
  8
Visible (ANSI)
100
AcDbVertex
100
AcDb2dVertex
 10
122.1110968635424
 20
67.87639328502002
 30
0.0
  0
VERTEX
  5
449
330
437
100
AcDbEntity
  8
Visible (ANSI)
100
AcDbVertex
100
AcDb2dVertex
 10
122.117041039759
 20
67.88215849816063
 30
0.0
  0
VERTEX
  5
44A
330
437
100
AcDbEntity
  8
Visible (ANSI)
100
AcDbVertex
100
AcDb2dVertex
 10
122.1231744619627
 20
67.88765451837924
 30
0.0
  0
VERTEX
  5
44B
330
437
100
AcDbEntity
  8
Visible (ANSI)
100
AcDbVertex
100
AcDb2dVertex
 10
122.1294752789207
 20
67.89285403795204
 30
0.0
  0
VERTEX
  5
44C
330
437
100
AcDbEntity
  8
Visible (ANSI)
100
AcDbVertex
100
AcDb2dVertex
 10
122.1359209476695
 20
67.89773177781289
 30
0.0
  0
VERTEX
  5
44D
330
437
100
AcDbEntity
  8
Visible (ANSI)
100
AcDbVertex
100
AcDb2dVertex
 10
122.1424882782381
 20
67.90226702630565
 30
0.0
  0
VERTEX
  5
44E
330
437
100
AcDbEntity
  8
Visible (ANSI)
100
AcDbVertex
100
AcDb2dVertex
 10
122.149153569895
 20
67.90643385676077
 30
0.0
  0
VERTEX
  5
44F
330
437
100
AcDbEntity
  8
Visible (ANSI)
100
AcDbVertex
100
AcDb2dVertex
 10
122.1558926933361
 20
67.91021592792637
 30
0.0
  0
VERTEX
  5
450
330
437
100
AcDbEntity
  8
Visible (ANSI)
100
AcDbVertex
100
AcDb2dVertex
 10
122.1626812293939
 20
67.9135893359676
 30
0.0
  0
VERTEX
  5
451
330
437
100
AcDbEntity
  8
Visible (ANSI)
100
AcDbVertex
100
AcDb2dVertex
 10
122.1694945184285
 20
67.91654480122812
 30
0.0
  0
SEQEND
  5
43A
330
437
100
AcDbEntity
  8
Visible (ANSI)
  0
POLYLINE
  5
452
330
6C
100
AcDbEntity
  8
Visible (ANSI)
100
AcDb2dPolyline
 66
     1
 10
0.0
 20
0.0
 30
0.0
 70
   128
  0
VERTEX
  5
453
330
452
100
AcDbEntity
  8
Visible (ANSI)
100
AcDbVertex
100
AcDb2dVertex
 10
136.0852971883593
 20
59.90296700514809
 30
0.0
  0
VERTEX
  5
454
330
452
100
AcDbEntity
  8
Visible (ANSI)
100
AcDbVertex
100
AcDb2dVertex
 10
136.0805496092924
 20
59.89882197663185
 30
0.0
  0
VERTEX
  5
456
330
452
100
AcDbEntity
  8
Visible (ANSI)
100
AcDbVertex
100
AcDb2dVertex
 10
136.0758257212345
 20
59.89425961688147
 30
0.0
  0
VERTEX
  5
457
330
452
100
AcDbEntity
  8
Visible (ANSI)
100
AcDbVertex
100
AcDb2dVertex
 10
136.0711512374967
 20
59.88928859878443
 30
0.0
  0
VERTEX
  5
458
330
452
100
AcDbEntity
  8
Visible (ANSI)
100
AcDbVertex
100
AcDb2dVertex
 10
136.0665505938396
 20
59.88393281662017
 30
0.0
  0
VERTEX
  5
459
330
452
100
AcDbEntity
  8
Visible (ANSI)
100
AcDbVertex
100
AcDb2dVertex
 10
136.0620479112709
 20
59.87820861641826
 30
0.0
  0
VERTEX
  5
45A
330
452
100
AcDbEntity
  8
Visible (ANSI)
100
AcDbVertex
100
AcDb2dVertex
 10
136.057666890522
 20
59.87214192484827
 30
0.0
  0
VERTEX
  5
45B
330
452
100
AcDbEntity
  8
Visible (ANSI)
100
AcDbVertex
100
AcDb2dVertex
 10
136.053431775235
 20
59.86575284679743
 30
0.0
  0
VERTEX
  5
45C
330
452
100
AcDbEntity
  8
Visible (ANSI)
100
AcDbVertex
100
AcDb2dVertex
 10
136.0493630010312
 20
59.8590678748697
 30
0.0
  0
VERTEX
  5
45D
330
452
100
AcDbEntity
  8
Visible (ANSI)
100
AcDbVertex
100
AcDb2dVertex
 10
136.0454834728145
 20
59.85211371001994
 30
0.0
  0
VERTEX
  5
45E
330
452
100
AcDbEntity
  8
Visible (ANSI)
100
AcDbVertex
100
AcDb2dVertex
 10
136.041814222526
 20
59.84491719772861
 30
0.0
  0
VERTEX
  5
45F
330
452
100
AcDbEntity
  8
Visible (ANSI)
100
AcDbVertex
100
AcDb2dVertex
 10
136.0383753839974
 20
59.83750466628936
 30
0.0
  0
VERTEX
  5
460
330
452
100
AcDbEntity
  8
Visible (ANSI)
100
AcDbVertex
100
AcDb2dVertex
 10
136.035186103762
 20
59.82990924244408
 30
0.0
  0
VERTEX
  5
461
330
452
100
AcDbEntity
  8
Visible (ANSI)
100
AcDbVertex
100
AcDb2dVertex
 10
136.0322655221309
 20
59.8221554592627
 30
0.0
  0
VERTEX
  5
462
330
452
100
AcDbEntity
  8
Visible (ANSI)
100
AcDbVertex
100
AcDb2dVertex
 10
136.0296284402807
 20
59.81427884301425
 30
0.0
  0
VERTEX
  5
463
330
452
100
AcDbEntity
  8
Visible (ANSI)
100
AcDbVertex
100
AcDb2dVertex
 10
136.0272916422811
 20
59.80630748122997
 30
0.0
  0
VERTEX
  5
464
330
452
100
AcDbEntity
  8
Visible (ANSI)
100
AcDbVertex
100
AcDb2dVertex
 10
136.025269543516
 20
59.79827668749424
 30
0.0
  0
VERTEX
  5
465
330
452
100
AcDbEntity
  8
Visible (ANSI)
100
AcDbVertex
100
AcDb2dVertex
 10
136.0235752319093
 20
59.79021364396267
 30
0.0
  0
VERTEX
  5
466
330
452
100
AcDbEntity
  8
Visible (ANSI)
100
AcDbVertex
100
AcDb2dVertex
 10
136.0222203766621
 20
59.78215453846352
 30
0.0
  0
VERTEX
  5
467
330
452
100
AcDbEntity
  8
Visible (ANSI)
100
AcDbVertex
100
AcDb2dVertex
 10
136.0212162694795
 20
59.77412675135061
 30
0.0
  0
VERTEX
  5
468
330
452
100
AcDbEntity
  8
Visible (ANSI)
100
AcDbVertex
100
AcDb2dVertex
 10
136.0205695020288
 20
59.76616599268145
 30
0.0
  0
VERTEX
  5
469
330
452
100
AcDbEntity
  8
Visible (ANSI)
100
AcDbVertex
100
AcDb2dVertex
 10
136.0202883335992
 20
59.75830280788798
 30
0.0
  0
VERTEX
  5
46A
330
452
100
AcDbEntity
  8
Visible (ANSI)
100
AcDbVertex
100
AcDb2dVertex
 10
136.0203783851531
 20
59.75056744618427
 30
0.0
  0
VERTEX
  5
46B
330
452
100
AcDbEntity
  8
Visible (ANSI)
100
AcDbVertex
100
AcDb2dVertex
 10
136.0208436888496
 20
59.74299169751856
 30
0.0
  0
VERTEX
  5
46C
330
452
100
AcDbEntity
  8
Visible (ANSI)
100
AcDbVertex
100
AcDb2dVertex
 10
136.0216866755996
 20
59.73560397407622
 30
0.0
  0
SEQEND
  5
455
330
452
100
AcDbEntity
  8
Visible (ANSI)
  0
LINE
  5
46D
330
6C
100
AcDbEntity
  8
Visible (ANSI)
100
AcDbLine
 10
136.0852976189089
 20
59.82632057128157
 30
0.0
 11
136.6156277047988
 21
60.13171735662584
 31
0.0
  0
LINE
  5
46E
330
6C
100
AcDbEntity
  8
Visible (ANSI)
100
AcDbLine
 10
136.6156277047988
 20
60.20836239957984
 30
0.0
 11
136.0852976189089
 21
59.90296561423557
 31
0.0
  0
LINE
  5
46F
330
6C
100
AcDbEntity
  8
Visible (ANSI)
100
AcDbLine
 10
136.0852976189089
 20
59.82632057128157
 30
0.0
 11
136.0852976189089
 21
59.90296561423557
 31
0.0
  0
LINE
  5
470
330
6C
100
AcDbEntity
  8
Visible (ANSI)
100
AcDbLine
 10
136.6156277047988
 20
60.13171735662584
 30
0.0
 11
136.6156277047988
 21
60.20836239957984
 31
0.0
  0
POLYLINE
  5
471
330
6C
100
AcDbEntity
  8
Visible (ANSI)
100
AcDb2dPolyline
 66
     1
 10
0.0
 20
0.0
 30
0.0
 70
   128
  0
VERTEX
  5
472
330
471
100
AcDbEntity
  8
Visible (ANSI)
100
AcDbVertex
100
AcDb2dVertex
 10
136.0879779353402
 20
59.77377857167092
 30
0.0
  0
VERTEX
  5
473
330
471
100
AcDbEntity
  8
Visible (ANSI)
100
AcDbVertex
100
AcDb2dVertex
 10
136.0869930141607
 20
59.77607254787393
 30
0.0
  0
VERTEX
  5
475
330
471
100
AcDbEntity
  8
Visible (ANSI)
100
AcDbVertex
100
AcDb2dVertex
 10
136.0861025135095
 20
59.7784110745823
 30
0.0
  0
VERTEX
  5
476
330
471
100
AcDbEntity
  8
Visible (ANSI)
100
AcDbVertex
100
AcDb2dVertex
 10
136.0853058264734
 20
59.78079134663264
 30
0.0
  0
VERTEX
  5
477
330
471
100
AcDbEntity
  8
Visible (ANSI)
100
AcDbVertex
100
AcDb2dVertex
 10
136.0846019443845
 20
59.78320296051114
 30
0.0
  0
VERTEX
  5
478
330
471
100
AcDbEntity
  8
Visible (ANSI)
100
AcDbVertex
100
AcDb2dVertex
 10
136.0839894611758
 20
59.78563773952207
 30
0.0
  0
VERTEX
  5
479
330
471
100
AcDbEntity
  8
Visible (ANSI)
100
AcDbVertex
100
AcDb2dVertex
 10
136.083465517591
 20
59.78809280455724
 30
0.0
  0
VERTEX
  5
47A
330
471
100
AcDbEntity
  8
Visible (ANSI)
100
AcDbVertex
100
AcDb2dVertex
 10
136.0830300563314
 20
59.79055339810825
 30
0.0
  0
VERTEX
  5
47B
330
471
100
AcDbEntity
  8
Visible (ANSI)
100
AcDbVertex
100
AcDb2dVertex
 10
136.0826794596803
 20
59.79301374863339
 30
0.0
  0
VERTEX
  5
47C
330
471
100
AcDbEntity
  8
Visible (ANSI)
100
AcDbVertex
100
AcDb2dVertex
 10
136.0824108093002
 20
59.79546726424356
 30
0.0
  0
VERTEX
  5
47D
330
471
100
AcDbEntity
  8
Visible (ANSI)
100
AcDbVertex
100
AcDb2dVertex
 10
136.0822208350251
 20
59.79790715044497
 30
0.0
  0
VERTEX
  5
47E
330
471
100
AcDbEntity
  8
Visible (ANSI)
100
AcDbVertex
100
AcDb2dVertex
 10
136.0821059304163
 20
59.80032150776701
 30
0.0
  0
VERTEX
  5
47F
330
471
100
AcDbEntity
  8
Visible (ANSI)
100
AcDbVertex
100
AcDb2dVertex
 10
136.082061105314
 20
59.80270622999576
 30
0.0
  0
VERTEX
  5
480
330
471
100
AcDbEntity
  8
Visible (ANSI)
100
AcDbVertex
100
AcDb2dVertex
 10
136.08208425082
 20
59.80505028951561
 30
0.0
  0
VERTEX
  5
481
330
471
100
AcDbEntity
  8
Visible (ANSI)
100
AcDbVertex
100
AcDb2dVertex
 10
136.0821697858993
 20
59.80734923985027
 30
0.0
  0
VERTEX
  5
482
330
471
100
AcDbEntity
  8
Visible (ANSI)
100
AcDbVertex
100
AcDb2dVertex
 10
136.0823129239186
 20
59.80959541323053
 30
0.0
  0
VERTEX
  5
483
330
471
100
AcDbEntity
  8
Visible (ANSI)
100
AcDbVertex
100
AcDb2dVertex
 10
136.0825086309015
 20
59.8117785437866
 30
0.0
  0
VERTEX
  5
484
330
471
100
AcDbEntity
  8
Visible (ANSI)
100
AcDbVertex
100
AcDb2dVertex
 10
136.0827516504182
 20
59.81389560454199
 30
0.0
  0
VERTEX
  5
485
330
471
100
AcDbEntity
  8
Visible (ANSI)
100
AcDbVertex
100
AcDb2dVertex
 10
136.0830354582112
 20
59.81593915018949
 30
0.0
  0
VERTEX
  5
486
330
471
100
AcDbEntity
  8
Visible (ANSI)
100
AcDbVertex
100
AcDb2dVertex
 10
136.0833565385864
 20
59.81790225432382
 30
0.0
  0
VERTEX
  5
487
330
471
100
AcDbEntity
  8
Visible (ANSI)
100
AcDbVertex
100
AcDb2dVertex
 10
136.0837080343841
 20
59.81977973559746
 30
0.0
  0
VERTEX
  5
488
330
471
100
AcDbEntity
  8
Visible (ANSI)
100
AcDbVertex
100
AcDb2dVertex
 10
136.084084020778
 20
59.82156327079944
 30
0.0
  0
VERTEX
  5
489
330
471
100
AcDbEntity
  8
Visible (ANSI)
100
AcDbVertex
100
AcDb2dVertex
 10
136.0844784671596
 20
59.82325184279853
 30
0.0
  0
VERTEX
  5
48A
330
471
100
AcDbEntity
  8
Visible (ANSI)
100
AcDbVertex
100
AcDb2dVertex
 10
136.0848852651398
 20
59.82483947834216
 30
0.0
  0
VERTEX
  5
48B
330
471
100
AcDbEntity
  8
Visible (ANSI)
100
AcDbVertex
100
AcDb2dVertex
 10
136.0852971883593
 20
59.82632078347482
 30
0.0
  0
SEQEND
  5
474
330
471
100
AcDbEntity
  8
Visible (ANSI)
  0
LINE
  5
48C
330
6C
100
AcDbEntity
  8
Visible (ANSI)
100
AcDbLine
 10
122.1694945166484
 20
67.91654365927773
 30
0.0
 11
122.6998246025382
 21
68.221940444622
 31
0.0
  0
POLYLINE
  5
48D
330
6C
100
AcDbEntity
  8
Visible (ANSI)
100
AcDb2dPolyline
 66
     1
 10
0.0
 20
0.0
 30
0.0
 70
   128
  0
VERTEX
  5
48E
330
48D
100
AcDbEntity
  8
Visible (ANSI)
100
AcDbVertex
100
AcDb2dVertex
 10
122.0563282555803
 20
42.73625102150207
 30
0.0
  0
VERTEX
  5
48F
330
48D
100
AcDbEntity
  8
Visible (ANSI)
100
AcDbVertex
100
AcDb2dVertex
 10
122.0534835922045
 20
42.73854049043971
 30
0.0
  0
VERTEX
  5
491
330
48D
100
AcDbEntity
  8
Visible (ANSI)
100
AcDbVertex
100
AcDb2dVertex
 10
122.0507366298696
 20
42.74088264793951
 30
0.0
  0
VERTEX
  5
492
330
48D
100
AcDbEntity
  8
Visible (ANSI)
100
AcDbVertex
100
AcDb2dVertex
 10
122.0480902931357
 20
42.74327563308426
 30
0.0
  0
VERTEX
  5
493
330
48D
100
AcDbEntity
  8
Visible (ANSI)
100
AcDbVertex
100
AcDb2dVertex
 10
122.0455474360411
 20
42.74571751567999
 30
0.0
  0
VERTEX
  5
494
330
48D
100
AcDbEntity
  8
Visible (ANSI)
100
AcDbVertex
100
AcDb2dVertex
 10
122.0431107674335
 20
42.74820631055209
 30
0.0
  0
VERTEX
  5
495
330
48D
100
AcDbEntity
  8
Visible (ANSI)
100
AcDbVertex
100
AcDb2dVertex
 10
122.0407829007494
 20
42.75074001591498
 30
0.0
  0
VERTEX
  5
496
330
48D
100
AcDbEntity
  8
Visible (ANSI)
100
AcDbVertex
100
AcDb2dVertex
 10
122.0385663332725
 20
42.75331654387333
 30
0.0
  0
VERTEX
  5
497
330
48D
100
AcDbEntity
  8
Visible (ANSI)
100
AcDbVertex
100
AcDb2dVertex
 10
122.0364634253924
 20
42.7559337755137
 30
0.0
  0
VERTEX
  5
498
330
48D
100
AcDbEntity
  8
Visible (ANSI)
100
AcDbVertex
100
AcDb2dVertex
 10
122.0344764462355
 20
42.7585895489233
 30
0.0
  0
VERTEX
  5
499
330
48D
100
AcDbEntity
  8
Visible (ANSI)
100
AcDbVertex
100
AcDb2dVertex
 10
122.0326075114409
 20
42.76128165680107
 30
0.0
  0
VERTEX
  5
49A
330
48D
100
AcDbEntity
  8
Visible (ANSI)
100
AcDbVertex
100
AcDb2dVertex
 10
122.0308586246433
 20
42.76400785601322
 30
0.0
  0
VERTEX
  5
49B
330
48D
100
AcDbEntity
  8
Visible (ANSI)
100
AcDbVertex
100
AcDb2dVertex
 10
122.0292316608796
 20
42.76676586759308
 30
0.0
  0
VERTEX
  5
49C
330
48D
100
AcDbEntity
  8
Visible (ANSI)
100
AcDbVertex
100
AcDb2dVertex
 10
122.0277283624408
 20
42.76955336953761
 30
0.0
  0
VERTEX
  5
49D
330
48D
100
AcDbEntity
  8
Visible (ANSI)
100
AcDbVertex
100
AcDb2dVertex
 10
122.0263503388719
 20
42.77236803039945
 30
0.0
  0
VERTEX
  5
49E
330
48D
100
AcDbEntity
  8
Visible (ANSI)
100
AcDbVertex
100
AcDb2dVertex
 10
122.0250990628236
 20
42.77520746845419
 30
0.0
  0
VERTEX
  5
49F
330
48D
100
AcDbEntity
  8
Visible (ANSI)
100
AcDbVertex
100
AcDb2dVertex
 10
122.0239758742007
 20
42.77806928290362
 30
0.0
  0
VERTEX
  5
4A0
330
48D
100
AcDbEntity
  8
Visible (ANSI)
100
AcDbVertex
100
AcDb2dVertex
 10
122.0229819843101
 20
42.78095104667221
 30
0.0
  0
VERTEX
  5
4A1
330
48D
100
AcDbEntity
  8
Visible (ANSI)
100
AcDbVertex
100
AcDb2dVertex
 10
122.0221184468232
 20
42.78385031357348
 30
0.0
  0
VERTEX
  5
4A2
330
48D
100
AcDbEntity
  8
Visible (ANSI)
100
AcDbVertex
100
AcDb2dVertex
 10
122.0213861868134
 20
42.78676461592136
 30
0.0
  0
VERTEX
  5
4A3
330
48D
100
AcDbEntity
  8
Visible (ANSI)
100
AcDbVertex
100
AcDb2dVertex
 10
122.0207859945342
 20
42.78969146807631
 30
0.0
  0
VERTEX
  5
4A4
330
48D
100
AcDbEntity
  8
Visible (ANSI)
100
AcDbVertex
100
AcDb2dVertex
 10
122.0203185150481
 20
42.79262839167643
 30
0.0
  0
VERTEX
  5
4A5
330
48D
100
AcDbEntity
  8
Visible (ANSI)
100
AcDbVertex
100
AcDb2dVertex
 10
122.0199842378559
 20
42.79557286883266
 30
0.0
  0
VERTEX
  5
4A6
330
48D
100
AcDbEntity
  8
Visible (ANSI)
100
AcDbVertex
100
AcDb2dVertex
 10
122.0197835280089
 20
42.79852238647069
 30
0.0
  0
VERTEX
  5
4A7
330
48D
100
AcDbEntity
  8
Visible (ANSI)
100
AcDbVertex
100
AcDb2dVertex
 10
122.0197166012195
 20
42.80147442673843
 30
0.0
  0
SEQEND
  5
490
330
48D
100
AcDbEntity
  8
Visible (ANSI)
  0
POLYLINE
  5
4A8
330
6C
100
AcDbEntity
  8
Visible (ANSI)
100
AcDb2dPolyline
 66
     1
 10
0.0
 20
0.0
 30
0.0
 70
   128
  0
VERTEX
  5
4A9
330
4A8
100
AcDbEntity
  8
Visible (ANSI)
100
AcDbVertex
100
AcDb2dVertex
 10
122.0563282555803
 20
67.85087016559704
 30
0.0
  0
VERTEX
  5
4AA
330
4A8
100
AcDbEntity
  8
Visible (ANSI)
100
AcDbVertex
100
AcDb2dVertex
 10
122.0507366280386
 20
67.84862565541621
 30
0.0
  0
VERTEX
  5
4AC
330
4A8
100
AcDbEntity
  8
Visible (ANSI)
100
AcDbVertex
100
AcDb2dVertex
 10
122.0455474355873
 20
67.84617790686244
 30
0.0
  0
VERTEX
  5
4AD
330
4A8
100
AcDbEntity
  8
Visible (ANSI)
100
AcDbVertex
100
AcDb2dVertex
 10
122.0407829019161
 20
67.8435425136929
 30
0.0
  0
VERTEX
  5
4AE
330
4A8
100
AcDbEntity
  8
Visible (ANSI)
100
AcDbVertex
100
AcDb2dVertex
 10
122.0364634281147
 20
67.84073587093868
 30
0.0
  0
VERTEX
  5
4AF
330
4A8
100
AcDbEntity
  8
Visible (ANSI)
100
AcDbVertex
100
AcDb2dVertex
 10
122.0326075109224
 20
67.83777756343006
 30
0.0
  0
VERTEX
  5
4B0
330
4A8
100
AcDbEntity
  8
Visible (ANSI)
100
AcDbVertex
100
AcDb2dVertex
 10
122.0292316619167
 20
67.83468046813884
 30
0.0
  0
VERTEX
  5
4B1
330
4A8
100
AcDbEntity
  8
Visible (ANSI)
100
AcDbVertex
100
AcDb2dVertex
 10
122.0263503378349
 20
67.83146541452549
 30
0.0
  0
VERTEX
  5
4B2
330
4A8
100
AcDbEntity
  8
Visible (ANSI)
100
AcDbVertex
100
AcDb2dVertex
 10
122.0239758752378
 20
67.82815128080675
 30
0.0
  0
VERTEX
  5
4B3
330
4A8
100
AcDbEntity
  8
Visible (ANSI)
100
AcDbVertex
100
AcDb2dVertex
 10
122.022118443712
 20
67.82475736772792
 30
0.0
  0
VERTEX
  5
4B4
330
4A8
100
AcDbEntity
  8
Visible (ANSI)
100
AcDbVertex
100
AcDb2dVertex
 10
122.0207859945343
 20
67.82130331943204
 30
0.0
  0
VERTEX
  5
4B5
330
4A8
100
AcDbEntity
  8
Visible (ANSI)
100
AcDbVertex
100
AcDb2dVertex
 10
122.0199842357818
 20
67.81780903746114
 30
0.0
  0
VERTEX
  5
4B6
330
4A8
100
AcDbEntity
  8
Visible (ANSI)
100
AcDbVertex
100
AcDb2dVertex
 10
122.0197166012196
 20
67.81429459595198
 30
0.0
  0
VERTEX
  5
4B7
330
4A8
100
AcDbEntity
  8
Visible (ANSI)
100
AcDbVertex
100
AcDb2dVertex
 10
122.019984237856
 20
67.81078015563721
 30
0.0
  0
VERTEX
  5
4B8
330
4A8
100
AcDbEntity
  8
Visible (ANSI)
100
AcDbVertex
100
AcDb2dVertex
 10
122.0207859945343
 20
67.80728587247189
 30
0.0
  0
VERTEX
  5
4B9
330
4A8
100
AcDbEntity
  8
Visible (ANSI)
100
AcDbVertex
100
AcDb2dVertex
 10
122.0221184468233
 20
67.80383182596766
 30
0.0
  0
VERTEX
  5
4BA
330
4A8
100
AcDbEntity
  8
Visible (ANSI)
100
AcDbVertex
100
AcDb2dVertex
 10
122.0239758742007
 20
67.80043791288882
 30
0.0
  0
VERTEX
  5
4BB
330
4A8
100
AcDbEntity
  8
Visible (ANSI)
100
AcDbVertex
100
AcDb2dVertex
 10
122.026350338872
 20
67.79712623364085
 30
0.0
  0
VERTEX
  5
4BC
330
4A8
100
AcDbEntity
  8
Visible (ANSI)
100
AcDbVertex
100
AcDb2dVertex
 10
122.0292316608796
 20
67.79391117883307
 30
0.0
  0
VERTEX
  5
4BD
330
4A8
100
AcDbEntity
  8
Visible (ANSI)
100
AcDbVertex
100
AcDb2dVertex
 10
122.032607511441
 20
67.79081408563209
 30
0.0
  0
VERTEX
  5
4BE
330
4A8
100
AcDbEntity
  8
Visible (ANSI)
100
AcDbVertex
100
AcDb2dVertex
 10
122.0364634253924
 20
67.78785332193574
 30
0.0
  0
VERTEX
  5
4BF
330
4A8
100
AcDbEntity
  8
Visible (ANSI)
100
AcDbVertex
100
AcDb2dVertex
 10
122.0407829007494
 20
67.78504667992804
 30
0.0
  0
VERTEX
  5
4C0
330
4A8
100
AcDbEntity
  8
Visible (ANSI)
100
AcDbVertex
100
AcDb2dVertex
 10
122.0455474360411
 20
67.78241128769164
 30
0.0
  0
VERTEX
  5
4C1
330
4A8
100
AcDbEntity
  8
Visible (ANSI)
100
AcDbVertex
100
AcDb2dVertex
 10
122.0507366298697
 20
67.77996353754217
 30
0.0
  0
VERTEX
  5
4C2
330
4A8
100
AcDbEntity
  8
Visible (ANSI)
100
AcDbVertex
100
AcDb2dVertex
 10
122.0563282555803
 20
67.77771902869575
 30
0.0
  0
SEQEND
  5
4AB
330
4A8
100
AcDbEntity
  8
Visible (ANSI)
  0
LINE
  5
4C3
330
6C
100
AcDbEntity
  8
Visible (ANSI)
100
AcDbLine
 10
122.4913562347536
 20
43.04086458764885
 30
0.0
 11
122.6529496025382
 21
43.13392001928924
 31
0.0
  0
LINE
  5
4C4
330
6C
100
AcDbEntity
  8
Visible (ANSI)
100
AcDbLine
 10
122.130135880898
 20
67.89337348657838
 30
0.0
 11
122.0563282559121
 21
67.85087050210833
 31
0.0
  0
LINE
  5
4C5
330
6C
100
AcDbEntity
  8
Visible (ANSI)
100
AcDbLine
 10
122.0801590923006
 20
67.83714723612977
 30
0.0
 11
122.0563282559121
 21
67.85087050210833
 31
0.0
  0
POLYLINE
  5
4C6
330
6C
100
AcDbEntity
  8
Visible (ANSI)
100
AcDb2dPolyline
 66
     1
 10
0.0
 20
0.0
 30
0.0
 70
   128
  0
VERTEX
  5
4C7
330
4C6
100
AcDbEntity
  8
Visible (ANSI)
100
AcDbVertex
100
AcDb2dVertex
 10
136.0216866755995
 20
34.69413596688252
 30
0.0
  0
VERTEX
  5
4C8
330
4C6
100
AcDbEntity
  8
Visible (ANSI)
100
AcDbVertex
100
AcDb2dVertex
 10
136.0208436888496
 20
34.68815560543349
 30
0.0
  0
VERTEX
  5
4CA
330
4C6
100
AcDbEntity
  8
Visible (ANSI)
100
AcDbVertex
100
AcDb2dVertex
 10
136.020378385153
 20
34.68242135144485
 30
0.0
  0
VERTEX
  5
4CB
330
4C6
100
AcDbEntity
  8
Visible (ANSI)
100
AcDbVertex
100
AcDb2dVertex
 10
136.0202883335991
 20
34.67696031378621
 30
0.0
  0
VERTEX
  5
4CC
330
4C6
100
AcDbEntity
  8
Visible (ANSI)
100
AcDbVertex
100
AcDb2dVertex
 10
136.0205695020288
 20
34.67179842023359
 30
0.0
  0
VERTEX
  5
4CD
330
4C6
100
AcDbEntity
  8
Visible (ANSI)
100
AcDbVertex
100
AcDb2dVertex
 10
136.0212162694794
 20
34.66696032391537
 30
0.0
  0
VERTEX
  5
4CE
330
4C6
100
AcDbEntity
  8
Visible (ANSI)
100
AcDbVertex
100
AcDb2dVertex
 10
136.022220376662
 20
34.66246989252751
 30
0.0
  0
VERTEX
  5
4CF
330
4C6
100
AcDbEntity
  8
Visible (ANSI)
100
AcDbVertex
100
AcDb2dVertex
 10
136.0235752319092
 20
34.658347685278
 30
0.0
  0
VERTEX
  5
4D0
330
4C6
100
AcDbEntity
  8
Visible (ANSI)
100
AcDbVertex
100
AcDb2dVertex
 10
136.0252695435159
 20
34.65461450464977
 30
0.0
  0
VERTEX
  5
4D1
330
4C6
100
AcDbEntity
  8
Visible (ANSI)
100
AcDbVertex
100
AcDb2dVertex
 10
136.0272916422811
 20
34.65128889249306
 30
0.0
  0
VERTEX
  5
4D2
330
4C6
100
AcDbEntity
  8
Visible (ANSI)
100
AcDbVertex
100
AcDb2dVertex
 10
136.0296284402806
 20
34.64838762162017
 30
0.0
  0
VERTEX
  5
4D3
330
4C6
100
AcDbEntity
  8
Visible (ANSI)
100
AcDbVertex
100
AcDb2dVertex
 10
136.0322655221308
 20
34.64592567162073
 30
0.0
  0
VERTEX
  5
4D4
330
4C6
100
AcDbEntity
  8
Visible (ANSI)
100
AcDbVertex
100
AcDb2dVertex
 10
136.035186103762
 20
34.64391673724329
 30
0.0
  0
VERTEX
  5
4D5
330
4C6
100
AcDbEntity
  8
Visible (ANSI)
100
AcDbVertex
100
AcDb2dVertex
 10
136.0383753839973
 20
34.64237074840387
 30
0.0
  0
VERTEX
  5
4D6
330
4C6
100
AcDbEntity
  8
Visible (ANSI)
100
AcDbVertex
100
AcDb2dVertex
 10
136.0418142225259
 20
34.64129748179994
 30
0.0
  0
VERTEX
  5
4D7
330
4C6
100
AcDbEntity
  8
Visible (ANSI)
100
AcDbVertex
100
AcDb2dVertex
 10
136.0454834728144
 20
34.64070407856253
 30
0.0
  0
VERTEX
  5
4D8
330
4C6
100
AcDbEntity
  8
Visible (ANSI)
100
AcDbVertex
100
AcDb2dVertex
 10
136.0493630010311
 20
34.64059562324784
 30
0.0
  0
VERTEX
  5
4D9
330
4C6
100
AcDbEntity
  8
Visible (ANSI)
100
AcDbVertex
100
AcDb2dVertex
 10
136.0534317752349
 20
34.64097512805053
 30
0.0
  0
VERTEX
  5
4DA
330
4C6
100
AcDbEntity
  8
Visible (ANSI)
100
AcDbVertex
100
AcDb2dVertex
 10
136.0576668905219
 20
34.64184412257294
 30
0.0
  0
VERTEX
  5
4DB
330
4C6
100
AcDbEntity
  8
Visible (ANSI)
100
AcDbVertex
100
AcDb2dVertex
 10
136.0620479112708
 20
34.64320021222425
 30
0.0
  0
VERTEX
  5
4DC
330
4C6
100
AcDbEntity
  8
Visible (ANSI)
100
AcDbVertex
100
AcDb2dVertex
 10
136.0665505938396
 20
34.64504074676475
 30
0.0
  0
VERTEX
  5
4DD
330
4C6
100
AcDbEntity
  8
Visible (ANSI)
100
AcDbVertex
100
AcDb2dVertex
 10
136.0711512374966
 20
34.64736038985174
 30
0.0
  0
VERTEX
  5
4DE
330
4C6
100
AcDbEntity
  8
Visible (ANSI)
100
AcDbVertex
100
AcDb2dVertex
 10
136.0758257212344
 20
34.65015175382236
 30
0.0
  0
VERTEX
  5
4DF
330
4C6
100
AcDbEntity
  8
Visible (ANSI)
100
AcDbVertex
100
AcDb2dVertex
 10
136.0805496092923
 20
34.65340543188876
 30
0.0
  0
VERTEX
  5
4E0
330
4C6
100
AcDbEntity
  8
Visible (ANSI)
100
AcDbVertex
100
AcDb2dVertex
 10
136.0852971883593
 20
34.65711064665284
 30
0.0
  0
SEQEND
  5
4C9
330
4C6
100
AcDbEntity
  8
Visible (ANSI)
  0
POLYLINE
  5
4E1
330
6C
100
AcDbEntity
  8
Visible (ANSI)
100
AcDb2dPolyline
 66
     1
 10
0.0
 20
0.0
 30
0.0
 70
   128
  0
VERTEX
  5
4E2
330
4E1
100
AcDbEntity
  8
Visible (ANSI)
100
AcDbVertex
100
AcDb2dVertex
 10
122.0947570343945
 20
42.67167566947398
 30
0.0
  0
VERTEX
  5
4E3
330
4E1
100
AcDbEntity
  8
Visible (ANSI)
100
AcDbVertex
100
AcDb2dVertex
 10
122.0922191843123
 20
42.67321472987589
 30
0.0
  0
VERTEX
  5
4E5
330
4E1
100
AcDbEntity
  8
Visible (ANSI)
100
AcDbVertex
100
AcDb2dVertex
 10
122.0897506317798
 20
42.67486902073435
 30
0.0
  0
VERTEX
  5
4E6
330
4E1
100
AcDbEntity
  8
Visible (ANSI)
100
AcDbVertex
100
AcDb2dVertex
 10
122.0873534841393
 20
42.67663708649015
 30
0.0
  0
VERTEX
  5
4E7
330
4E1
100
AcDbEntity
  8
Visible (ANSI)
100
AcDbVertex
100
AcDb2dVertex
 10
122.0850297574704
 20
42.6785173398916
 30
0.0
  0
VERTEX
  5
4E8
330
4E1
100
AcDbEntity
  8
Visible (ANSI)
100
AcDbVertex
100
AcDb2dVertex
 10
122.0827813973315
 20
42.68050808353134
 30
0.0
  0
VERTEX
  5
4E9
330
4E1
100
AcDbEntity
  8
Visible (ANSI)
100
AcDbVertex
100
AcDb2dVertex
 10
122.0806102663144
 20
42.68260749068914
 30
0.0
  0
VERTEX
  5
4EA
330
4E1
100
AcDbEntity
  8
Visible (ANSI)
100
AcDbVertex
100
AcDb2dVertex
 10
122.0785181440451
 20
42.68481362451683
 30
0.0
  0
VERTEX
  5
4EB
330
4E1
100
AcDbEntity
  8
Visible (ANSI)
100
AcDbVertex
100
AcDb2dVertex
 10
122.0765067230347
 20
42.68712442845511
 30
0.0
  0
VERTEX
  5
4EC
330
4E1
100
AcDbEntity
  8
Visible (ANSI)
100
AcDbVertex
100
AcDb2dVertex
 10
122.0745776169766
 20
42.68953774779801
 30
0.0
  0
VERTEX
  5
4ED
330
4E1
100
AcDbEntity
  8
Visible (ANSI)
100
AcDbVertex
100
AcDb2dVertex
 10
122.0727323358563
 20
42.69205129137868
 30
0.0
  0
VERTEX
  5
4EE
330
4E1
100
AcDbEntity
  8
Visible (ANSI)
100
AcDbVertex
100
AcDb2dVertex
 10
122.0709723149896
 20
42.69466268666112
 30
0.0
  0
VERTEX
  5
4EF
330
4E1
100
AcDbEntity
  8
Visible (ANSI)
100
AcDbVertex
100
AcDb2dVertex
 10
122.0692988901331
 20
42.69736943662978
 30
0.0
  0
VERTEX
  5
4F0
330
4E1
100
AcDbEntity
  8
Visible (ANSI)
100
AcDbVertex
100
AcDb2dVertex
 10
122.0677133057802
 20
42.70016895334452
 30
0.0
  0
VERTEX
  5
4F1
330
4E1
100
AcDbEntity
  8
Visible (ANSI)
100
AcDbVertex
100
AcDb2dVertex
 10
122.0662167110134
 20
42.70305854595934
 30
0.0
  0
VERTEX
  5
4F2
330
4E1
100
AcDbEntity
  8
Visible (ANSI)
100
AcDbVertex
100
AcDb2dVertex
 10
122.0648101553555
 20
42.70603541833355
 30
0.0
  0
VERTEX
  5
4F3
330
4E1
100
AcDbEntity
  8
Visible (ANSI)
100
AcDbVertex
100
AcDb2dVertex
 10
122.0634946012149
 20
42.70909670017944
 30
0.0
  0
VERTEX
  5
4F4
330
4E1
100
AcDbEntity
  8
Visible (ANSI)
100
AcDbVertex
100
AcDb2dVertex
 10
122.0622709072922
 20
42.71223940393329
 30
0.0
  0
VERTEX
  5
4F5
330
4E1
100
AcDbEntity
  8
Visible (ANSI)
100
AcDbVertex
100
AcDb2dVertex
 10
122.0611398202835
 20
42.71546048229149
 30
0.0
  0
VERTEX
  5
4F6
330
4E1
100
AcDbEntity
  8
Visible (ANSI)
100
AcDbVertex
100
AcDb2dVertex
 10
122.0601020205119
 20
42.71875678269278
 30
0.0
  0
VERTEX
  5
4F7
330
4E1
100
AcDbEntity
  8
Visible (ANSI)
100
AcDbVertex
100
AcDb2dVertex
 10
122.0591580597029
 20
42.72212506881792
 30
0.0
  0
VERTEX
  5
4F8
330
4E1
100
AcDbEntity
  8
Visible (ANSI)
100
AcDbVertex
100
AcDb2dVertex
 10
122.0583083983192
 20
42.72556205662608
 30
0.0
  0
VERTEX
  5
4F9
330
4E1
100
AcDbEntity
  8
Visible (ANSI)
100
AcDbVertex
100
AcDb2dVertex
 10
122.0575533889672
 20
42.72906435200407
 30
0.0
  0
VERTEX
  5
4FA
330
4E1
100
AcDbEntity
  8
Visible (ANSI)
100
AcDbVertex
100
AcDb2dVertex
 10
122.0568932888423
 20
42.73262850589503
 30
0.0
  0
VERTEX
  5
4FB
330
4E1
100
AcDbEntity
  8
Visible (ANSI)
100
AcDbVertex
100
AcDb2dVertex
 10
122.0563282555803
 20
42.73625102150207
 30
0.0
  0
SEQEND
  5
4E4
330
4E1
100
AcDbEntity
  8
Visible (ANSI)
  0
LINE
  5
4FC
330
6C
100
AcDbEntity
  8
Visible (ANSI)
100
AcDbLine
 10
122.5384865847694
 20
42.95982188709248
 30
0.0
 11
122.6998246025382
 21
43.05273027243845
 31
0.0
  0
LINE
  5
4FD
330
6C
100
AcDbEntity
  8
Visible (ANSI)
100
AcDbLine
 10
136.0852976189088
 20
34.68516546603068
 30
0.0
 11
136.0852976189088
 21
34.65711039909803
 31
0.0
  0
LINE
  5
4FE
330
6C
100
AcDbEntity
  8
Visible (ANSI)
100
AcDbLine
 10
136.0852976189088
 20
34.65711039909803
 30
0.0
 11
136.164896863506
 21
34.70294855548887
 31
0.0
  0
LINE
  5
4FF
330
6C
100
AcDbEntity
  8
Visible (ANSI)
100
AcDbLine
 10
136.1957505786107
 20
34.72071602835081
 30
0.0
 11
136.6156277047987
 21
34.96250718444232
 31
0.0
  0
LINE
  5
500
330
6C
100
AcDbEntity
  8
Visible (ANSI)
100
AcDbLine
 10
136.6156277047987
 20
34.96301222620995
 30
0.0
 11
136.6156277047987
 21
34.96250718444232
 31
0.0
  0
LINE
  5
501
330
6C
100
AcDbEntity
  8
Visible (ANSI)
100
AcDbLine
 10
136.728793965535
 20
60.01235301160707
 30
0.0
 11
136.728793965535
 21
35.02818034161169
 31
0.0
  0
LINE
  5
502
330
6C
100
AcDbEntity
  8
Visible (ANSI)
100
AcDbLine
 10
122.6998246025382
 20
68.221940444622
 30
0.0
 11
136.6156277047988
 21
60.20836239957984
 31
0.0
  0
LINE
  5
503
330
6C
100
AcDbEntity
  8
Visible (ANSI)
100
AcDbLine
 10
122.6529496025382
 20
43.13392001928924
 30
0.0
 11
122.6529496025382
 21
43.22284167317423
 31
0.0
  0
LINE
  5
504
330
6C
100
AcDbEntity
  8
Visible (ANSI)
100
AcDbLine
 10
122.6529496025382
 20
66.66719740917487
 30
0.0
 11
122.6529496025382
 21
67.03798941983736
 31
0.0
  0
LINE
  5
505
330
6C
100
AcDbEntity
  8
Visible (ANSI)
100
AcDbLine
 10
135.6798710960051
 20
35.57801861984428
 30
0.0
 11
135.3586092220815
 21
35.76302102902361
 31
0.0
  0
LINE
  5
506
330
6C
100
AcDbEntity
  8
Visible (ANSI)
100
AcDbLine
 10
122.7751723393487
 20
43.00934039655334
 30
0.0
 11
122.6998246025382
 21
43.05273027243845
 31
0.0
  0
SPLINE
  5
507
330
6C
100
AcDbEntity
  8
Visible (ANSI)
100
AcDbSpline
210
0.0
220
0.0
230
1.0
 70
     8
 71
     3
 72
    11
 73
     7
 74
     0
 42
0.0000000001
 43
0.0000000001
 40
0.0
 40
0.0
 40
0.0
 40
0.0
 40
1.048975082050325
 40
1.048975082050325
 40
1.048975082050325
 40
1.57079632679489
 40
1.57079632679489
 40
1.57079632679489
 40
1.57079632679489
 10
52.00726030154112
 20
90.60704516902971
 30
0.0
 10
52.05096759662655
 20
90.60704516902971
 30
0.0
 10
52.09383807099766
 20
90.63184727743706
 30
0.0
 10
52.11562440161484
 20
90.66973769102578
 30
0.0
 10
52.12646219019115
 20
90.68858658755447
 30
0.0
 10
52.13226030154112
 20
90.71030261716535
 30
0.0
 10
52.13226030154112
 20
90.7320451690297
 30
0.0
  0
LINE
  5
508
330
6C
100
AcDbEntity
  8
Visible (ANSI)
100
AcDbLine
 10
52.03851030154112
 20
90.7320451690297
 30
0.0
 11
52.03851030154112
 21
91.48204516902969
 31
0.0
  0
LINE
  5
509
330
6C
100
AcDbEntity
  8
Visible (ANSI)
100
AcDbLine
 10
52.03851030154112
 20
90.7320451690297
 30
0.0
 11
52.13226030154112
 21
90.7320451690297
 31
0.0
  0
SPLINE
  5
50A
330
6C
100
AcDbEntity
  8
Visible (ANSI)
100
AcDbSpline
210
0.0
220
0.0
230
1.0
 70
     8
 71
     3
 72
    11
 73
     7
 74
     0
 42
0.0000000001
 43
0.0000000001
 40
0.0
 40
0.0
 40
0.0
 40
0.0
 40
1.483474787626229
 40
1.483474787626229
 40
1.483474787626229
 40
1.57079632679489
 40
1.57079632679489
 40
1.57079632679489
 40
1.57079632679489
 10
52.00726030154112
 20
90.70079516902971
 30
0.0
 10
52.02271316391223
 20
90.70079516902971
 30
0.0
 10
52.03704358225433
 20
90.71392585211601
 30
0.0
 10
52.0383912358018
 20
90.72931983747967
 30
0.0
 10
52.03847056251702
 20
90.73022597117814
 30
0.0
 10
52.03851030154112
 20
90.73113556966337
 30
0.0
 10
52.03851030154112
 20
90.7320451690297
 30
0.0
  0
LINE
  5
50B
330
6C
100
AcDbEntity
  8
Visible (ANSI)
100
AcDbLine
 10
52.00726030154111
 20
90.70079516902971
 30
0.0
 11
52.00726030154111
 21
90.60704516902971
 31
0.0
  0
LINE
  5
50C
330
6C
100
AcDbEntity
  8
Visible (ANSI)
100
AcDbLine
 10
52.13226030154112
 20
90.7320451690297
 30
0.0
 11
52.13226030154112
 21
91.48204516902969
 31
0.0
  0
LINE
  5
50D
330
6C
100
AcDbEntity
  8
Visible (ANSI)
100
AcDbLine
 10
52.03851030154112
 20
91.48204516902969
 30
0.0
 11
52.13226030154112
 21
91.48204516902969
 31
0.0
  0
SPLINE
  5
50E
330
6C
100
AcDbEntity
  8
Visible (ANSI)
100
AcDbSpline
210
0.0
220
0.0
230
1.0
 70
     8
 71
     3
 72
    11
 73
     7
 74
     0
 42
0.0000000001
 43
0.0000000001
 40
0.0
 40
0.0
 40
0.0
 40
0.0
 40
1.048975082050324
 40
1.048975082050324
 40
1.048975082050324
 40
1.57079632679489
 40
1.57079632679489
 40
1.57079632679489
 40
1.57079632679489
 10
32.25726030154112
 20
90.60704516902971
 30
0.0
 10
32.26506046606678
 20
90.60704516902973
 30
0.0
 10
32.27286063059246
 20
90.63184727743708
 30
0.0
 10
32.28066079511812
 20
90.66973769102579
 30
0.0
 10
32.28454105083786
 20
90.68858658755452
 30
0.0
 10
32.28842130655761
 20
90.7103026171654
 30
0.0
 10
32.29230156227736
 20
90.73204516902976
 30
0.0
  0
SPLINE
  5
50F
330
6C
100
AcDbEntity
  8
Visible (ANSI)
100
AcDbSpline
210
0.0
220
0.0
230
1.0
 70
     8
 71
     3
 72
    11
 73
     7
 74
     0
 42
0.0000000001
 43
0.0000000001
 40
0.0
 40
0.0
 40
0.0
 40
0.0
 40
1.04897508204998
 40
1.04897508204998
 40
1.04897508204998
 40
1.570796326794658
 40
1.570796326794658
 40
1.570796326794658
 40
1.570796326794658
 10
51.97221904080488
 20
90.73204516902974
 30
0.0
 10
51.98001920533054
 20
90.68833787394432
 30
0.0
 10
51.98781936985621
 20
90.64546739957322
 30
0.0
 10
51.99561953438188
 20
90.62368106895602
 30
0.0
 10
51.99949979010162
 20
90.61284328037972
 30
0.0
 10
52.00338004582138
 20
90.60704516902973
 30
0.0
 10
52.00726030154113
 20
90.60704516902973
 30
0.0
  0
LINE
  5
510
330
6C
100
AcDbEntity
  8
Visible (ANSI)
100
AcDbLine
 10
51.97221904080488
 20
91.48204516902975
 30
0.0
 11
51.97221904080488
 21
90.73204516902976
 31
0.0
  0
SPLINE
  5
511
330
6C
100
AcDbEntity
  8
Visible (ANSI)
100
AcDbSpline
210
0.0
220
0.0
230
1.0
 70
     8
 71
     3
 72
    11
 73
     7
 74
     0
 42
0.0000000001
 43
0.0000000001
 40
0.0
 40
0.0
 40
0.0
 40
0.0
 40
1.48347478762764
 40
1.48347478762764
 40
1.48347478762764
 40
1.570796326794658
 40
1.570796326794658
 40
1.570796326794658
 40
1.570796326794658
 10
52.00726030154113
 20
90.70079516902971
 30
0.0
 10
51.99622920308017
 20
90.70079516902973
 30
0.0
 10
51.98519810461923
 20
90.71392585211604
 30
0.0
 10
51.97416700615828
 20
90.72931983747972
 30
0.0
 10
51.97351768437381
 20
90.73022597117818
 30
0.0
 10
51.97286836258935
 20
90.73113556966339
 30
0.0
 10
51.97221904080488
 20
90.73204516902972
 30
0.0
  0
SPLINE
  5
512
330
6C
100
AcDbEntity
  8
Visible (ANSI)
100
AcDbSpline
210
0.0
220
0.0
230
1.0
 70
     8
 71
     3
 72
    11
 73
     7
 74
     0
 42
0.0000000001
 43
0.0000000001
 40
0.0
 40
0.0
 40
0.0
 40
0.0
 40
1.483474787626228
 40
1.483474787626228
 40
1.483474787626228
 40
1.57079632679489
 40
1.57079632679489
 40
1.57079632679489
 40
1.57079632679489
 10
32.25726030154112
 20
90.70079516902971
 30
0.0
 10
32.26829140000205
 20
90.70079516902973
 30
0.0
 10
32.27932249846299
 20
90.71392585211603
 30
0.0
 10
32.29035359692392
 20
90.72931983747968
 30
0.0
 10
32.29100291870839
 20
90.73022597117816
 30
0.0
 10
32.29165224049288
 20
90.73113556966339
 30
0.0
 10
32.29230156227736
 20
90.73204516902974
 30
0.0
  0
LINE
  5
513
330
6C
100
AcDbEntity
  8
Visible (ANSI)
100
AcDbLine
 10
32.25726030154112
 20
90.70079516902971
 30
0.0
 11
32.25726030154112
 21
90.60704516902971
 31
0.0
  0
LINE
  5
514
330
6C
100
AcDbEntity
  8
Visible (ANSI)
100
AcDbLine
 10
32.29230156227736
 20
90.73204516902976
 30
0.0
 11
32.29230156227736
 21
91.48204516902977
 31
0.0
  0
SPLINE
  5
515
330
6C
100
AcDbEntity
  8
Visible (ANSI)
100
AcDbSpline
210
0.0
220
0.0
230
1.0
 70
     8
 71
     3
 72
    11
 73
     7
 74
     0
 42
0.0000000001
 43
0.0000000001
 40
0.0
 40
0.0
 40
0.0
 40
0.0
 40
1.048975082050299
 40
1.048975082050299
 40
1.048975082050299
 40
1.570796326794906
 40
1.570796326794906
 40
1.570796326794906
 40
1.570796326794906
 10
32.13226030154112
 20
90.7320451690297
 30
0.0
 10
32.13226030154112
 20
90.68833787394428
 30
0.0
 10
32.15706240994846
 20
90.64546739957318
 30
0.0
 10
32.19495282353717
 20
90.62368106895599
 30
0.0
 10
32.21380172006587
 20
90.61284328037968
 30
0.0
 10
32.23551774967676
 20
90.60704516902971
 30
0.0
 10
32.25726030154112
 20
90.60704516902971
 30
0.0
  0
LINE
  5
516
330
6C
100
AcDbEntity
  8
Visible (ANSI)
100
AcDbLine
 10
32.22601030154112
 20
90.7320451690297
 30
0.0
 11
32.22601030154112
 21
91.48204516902969
 31
0.0
  0
LINE
  5
517
330
6C
100
AcDbEntity
  8
Visible (ANSI)
100
AcDbLine
 10
32.13226030154112
 20
91.48204516902969
 30
0.0
 11
32.13226030154112
 21
90.7320451690297
 31
0.0
  0
LINE
  5
518
330
6C
100
AcDbEntity
  8
Visible (ANSI)
100
AcDbLine
 10
32.22601030154112
 20
90.7320451690297
 30
0.0
 11
32.13226030154112
 21
90.7320451690297
 31
0.0
  0
LINE
  5
519
330
6C
100
AcDbEntity
  8
Visible (ANSI)
100
AcDbLine
 10
32.22601030154112
 20
91.48204516902969
 30
0.0
 11
32.13226030154112
 21
91.48204516902969
 31
0.0
  0
SPLINE
  5
51A
330
6C
100
AcDbEntity
  8
Visible (ANSI)
100
AcDbSpline
210
0.0
220
0.0
230
1.0
 70
     8
 71
     3
 72
    11
 73
     7
 74
     0
 42
0.0000000001
 43
0.0000000001
 40
0.0
 40
0.0
 40
0.0
 40
0.0
 40
1.483474787626956
 40
1.483474787626956
 40
1.483474787626956
 40
1.570796326794906
 40
1.570796326794906
 40
1.570796326794906
 40
1.570796326794906
 10
32.25726030154112
 20
90.70079516902971
 30
0.0
 10
32.24180743917
 20
90.70079516902971
 30
0.0
 10
32.22747702082791
 20
90.71392585211603
 30
0.0
 10
32.22612936728044
 20
90.72931983747968
 30
0.0
 10
32.22605004056521
 20
90.73022597117816
 30
0.0
 10
32.22601030154112
 20
90.73113556966339
 30
0.0
 10
32.22601030154112
 20
90.7320451690297
 30
0.0
  0
LINE
  5
51B
330
6C
100
AcDbEntity
  8
Visible (ANSI)
100
AcDbLine
 10
52.00726030154111
 20
90.60704516902971
 30
0.0
 11
32.25726030154112
 21
90.60704516902971
 31
0.0
  0
LINE
  5
51C
330
6C
100
AcDbEntity
  8
Hidden (ANSI)
100
AcDbLine
 10
32.25726030154112
 20
90.70079516902971
 30
0.0
 11
52.00726030154111
 21
90.70079516902971
 31
0.0
  0
LINE
  5
51D
330
6C
100
AcDbEntity
  8
Visible (ANSI)
100
AcDbLine
 10
32.29230156227736
 20
91.48204516902977
 30
0.0
 11
51.97221904080488
 21
91.48204516902975
 31
0.0
  0
LINE
  5
51E
330
6C
100
AcDbEntity
  8
Hidden (ANSI)
100
AcDbLine
 10
51.53876030154112
 20
90.7007951690295
 30
0.0
 11
51.53876030154112
 21
90.6070451690295
 31
0.0
  0
LINE
  5
51F
330
6C
100
AcDbEntity
  8
Hidden (ANSI)
100
AcDbLine
 10
50.97576030154112
 20
90.7007951690295
 30
0.0
 11
50.97576030154112
 21
90.6070451690295
 31
0.0
  0
LINE
  5
520
330
6C
100
AcDbEntity
  8
Hidden (ANSI)
100
AcDbLine
 10
33.28876030154112
 20
90.7007951690295
 30
0.0
 11
33.28876030154112
 21
90.6070451690295
 31
0.0
  0
LINE
  5
521
330
6C
100
AcDbEntity
  8
Hidden (ANSI)
100
AcDbLine
 10
32.72576030154112
 20
90.7007951690295
 30
0.0
 11
32.72576030154112
 21
90.6070451690295
 31
0.0
  0
MTEXT
  5
522
330
6C
100
AcDbEntity
  8
Symbol (ANSI)
100
AcDbMText
 10
38.22303308312982
 20
85.0536763872696
 30
0.0
 40
1.200000014830761
 41
0.0
 46
0.0
 71
     7
 72
     1
  1
TOP VIEW
  7
Text Style153
 73
     1
 44
1.0
  0
LINE
  5
523
330
6C
100
AcDbEntity
  8
Symbol (ANSI)
370
    30
100
AcDbLine
 10
38.22399308559928
 20
84.8089600135207
 30
0.0
 11
45.7954678592766
 21
84.8089600135207
 31
0.0
  0
LINE
  5
524
330
6C
100
AcDbEntity
  8
Center Mark (ANSI)
  6
Continuous
100
AcDbLine
 10
33.00726030152919
 20
67.51054949452236
 30
0.0
 11
33.00726030152919
 21
64.44754949452235
 31
0.0
  0
LINE
  5
525
330
6C
100
AcDbEntity
  8
Center Mark (ANSI)
  6
Continuous
100
AcDbLine
 10
51.25726030152919
 20
67.51054949452236
 30
0.0
 11
51.25726030152919
 21
64.44754949452235
 31
0.0
  0
LINE
  5
526
330
6C
100
AcDbEntity
  8
Centerline (ANSI)
  6
Continuous
100
AcDbLine
 10
31.47576030152918
 20
65.97904949452235
 30
0.0
 11
52.78876030152919
 21
65.97904949452235
 31
0.0
  0
LINE
  5
527
330
6C
100
AcDbEntity
  8
Center Mark (ANSI)
  6
Continuous
100
AcDbLine
 10
52.78876030152919
 20
65.97904949452235
 30
0.0
 11
49.72576030152919
 21
65.97904949452235
 31
0.0
  0
LINE
  5
528
330
6C
100
AcDbEntity
  8
Center Mark (ANSI)
  6
Continuous
100
AcDbLine
 10
52.78876030152918
 20
36.84904949452235
 30
0.0
 11
49.72576030152918
 21
36.84904949452235
 31
0.0
  0
LINE
  5
529
330
6C
100
AcDbEntity
  8
Centerline (ANSI)
  6
Continuous
100
AcDbLine
 10
51.25726030152919
 20
67.51054949452236
 30
0.0
 11
51.25726030152918
 21
35.31754949452235
 31
0.0
  0
LINE
  5
52A
330
6C
100
AcDbEntity
  8
Center Mark (ANSI)
  6
Continuous
100
AcDbLine
 10
51.25726030152918
 20
35.31754949452235
 30
0.0
 11
51.25726030152918
 21
38.38054949452235
 31
0.0
  0
LINE
  5
52B
330
6C
100
AcDbEntity
  8
Center Mark (ANSI)
  6
Continuous
100
AcDbLine
 10
33.00726030152917
 20
35.31754949452235
 30
0.0
 11
33.00726030152917
 21
38.38054949452235
 31
0.0
  0
LINE
  5
52C
330
6C
100
AcDbEntity
  8
Centerline (ANSI)
  6
Continuous
100
AcDbLine
 10
52.78876030152918
 20
36.84904949452235
 30
0.0
 11
31.47576030152917
 21
36.84904949452235
 31
0.0
  0
LINE
  5
52D
330
6C
100
AcDbEntity
  8
Center Mark (ANSI)
  6
Continuous
100
AcDbLine
 10
31.47576030152917
 20
36.84904949452235
 30
0.0
 11
34.53876030152918
 21
36.84904949452235
 31
0.0
  0
LINE
  5
52E
330
6C
100
AcDbEntity
  8
Center Mark (ANSI)
  6
Continuous
100
AcDbLine
 10
31.47576030152918
 20
65.97904949452235
 30
0.0
 11
34.53876030152919
 21
65.97904949452235
 31
0.0
  0
LINE
  5
52F
330
6C
100
AcDbEntity
  8
Centerline (ANSI)
  6
Continuous
100
AcDbLine
 10
33.00726030152917
 20
35.31754949452235
 30
0.0
 11
33.00726030152919
 21
67.51054949452236
 31
0.0
  0
DIMENSION
  5
530
330
6C
100
AcDbEntity
  8
Dimension (ANSI)
100
AcDbDimension
280
     0
  2
*D4
 10
52.13226030152919
 20
75.35542555662073
 30
0.0
 11
42.13226030152918
 21
75.35542555662073
 31
0.0
 70
   160
  1
<>
 42
20.00000000000001
 73
     0
 74
     0
 75
     0
  3
Default (ANSI)
100
AcDbAlignedDimension
 13
32.13226030152919
 23
66.69400823378611
 33
0.0
 14
52.13226030152919
 24
66.69400823378611
 34
0.0
100
AcDbRotatedDimension
1001
ACAD
1000
DSTYLE
1002
{
1070
   289
1070
     1
1070
    73
1070
     0
1070
    74
1070
     0
1070
   271
1070
     2
1070
   272
1070
     2
1070
    48
1040
0.0
1070
    47
1040
0.0
1002
}
  0
DIMENSION
  5
61C
330
6C
100
AcDbEntity
  8
Dimension (ANSI)
100
AcDbDimension
280
     0
  2
*D5
 10
33.00726030152919
 20
71.44755736853809
 30
0.0
 11
27.80215408349905
 21
71.44755736853809
 31
0.0
 70
   160
  1
<>
 42
0.875
 73
     0
 74
     0
 75
     0
  3
Default (ANSI)
100
AcDbAlignedDimension
 13
32.13226030152919
 23
66.69400823378611
 33
0.0
 14
33.00726030152919
 24
67.51054949452236
 34
0.0
100
AcDbRotatedDimension
1001
ACAD
1000
DSTYLE
1002
{
1070
   289
1070
     1
1070
    73
1070
     0
1070
    74
1070
     0
1070
   271
1070
     2
1070
   272
1070
     2
1070
    48
1040
0.0
1070
    47
1040
0.0
1002
}
  0
DIMENSION
  5
706
330
6C
100
AcDbEntity
  8
Dimension (ANSI)
100
AcDbDimension
280
     0
  2
*D6
 10
51.25726030152919
 20
71.44755736853809
 30
0.0
 11
42.13226030152918
 21
71.44755736853809
 31
0.0
 70
   160
  1
<>
 42
18.25000000000001
 73
     0
 74
     0
 75
     0
  3
Default (ANSI)
100
AcDbAlignedDimension
 13
33.00726030152919
 23
67.51054949452236
 33
0.0
 14
51.25726030152919
 24
67.51054949452236
 34
0.0
 50
180.0
100
AcDbRotatedDimension
1001
ACAD
1000
DSTYLE
1002
{
1070
   289
1070
     1
1070
    73
1070
     0
1070
    74
1070
     0
1070
   271
1070
     2
1070
   272
1070
     2
1070
    48
1040
0.0
1070
    47
1040
0.0
1002
}
  0
DIMENSION
  5
7F0
330
6C
100
AcDbEntity
  8
Dimension (ANSI)
100
AcDbDimension
280
     0
  2
*D7
 10
30.37604430264305
 20
36.84904949452235
 30
0.0
 11
27.53875242751342
 21
33.10407283570094
 31
0.0
 70
   160
  1
<>
 42
0.8750000000000071
 73
     0
 74
     0
 75
     0
  3
Default (ANSI)
100
AcDbAlignedDimension
 13
32.29230156226543
 23
35.97404949452234
 33
0.0
 14
31.47576030152917
 24
36.84904949452235
 34
0.0
 50
90.0
100
AcDbRotatedDimension
1001
ACAD
1000
DSTYLE
1002
{
1070
   289
1070
     1
1070
   271
1070
     2
1070
   272
1070
     2
1070
    48
1040
0.0
1070
    47
1040
0.0
1002
}
  0
DIMENSION
  5
8F0
330
6C
100
AcDbEntity
  8
Dimension (ANSI)
100
AcDbDimension
280
     0
  2
*D8
 10
27.53875242751345
 20
65.97904949452235
 30
0.0
 11
27.53875242751343
 21
51.41404949452235
 31
0.0
 70
   160
  1
<>
 42
29.13
 73
     0
 74
     0
 75
     0
  3
Default (ANSI)
100
AcDbAlignedDimension
 13
31.47576030152917
 23
36.84904949452235
 33
0.0
 14
31.47576030152918
 24
65.97904949452235
 34
0.0
 50
90.0
100
AcDbRotatedDimension
1001
ACAD
1000
DSTYLE
1002
{
1070
   289
1070
     1
1070
   271
1070
     2
1070
   272
1070
     2
1070
    48
1040
0.0
1070
    47
1040
0.0
1002
}
  0
DIMENSION
  5
9DA
330
6C
100
AcDbEntity
  8
Dimension (ANSI)
100
AcDbDimension
280
     0
  2
*D9
 10
21.26867951502135
 20
66.85404949452237
 30
0.0
 11
21.26867951502134
 21
51.41404949452234
 31
0.0
 70
   160
  1
<>
 42
30.88000000000003
 73
     0
 74
     0
 75
     0
  3
Default (ANSI)
100
AcDbAlignedDimension
 13
32.29230156226543
 23
35.97404949452234
 33
0.0
 14
32.29230156226542
 24
66.85404949452236
 34
0.0
 50
90.0
100
AcDbRotatedDimension
1001
ACAD
1000
DSTYLE
1002
{
1070
   289
1070
     1
1070
   271
1070
     2
1070
   272
1070
     2
1070
    48
1040
0.0
1070
    47
1040
0.0
1002
}
  0
DIMENSION
  5
AC4
330
6C
100
AcDbEntity
  8
Dimension (ANSI)
100
AcDbDimension
280
     0
  2
*D10
 10
51.08525042471618
 20
37.07188318200872
 30
0.0
 11
57.78258217010737
 21
33.86172912437411
 31
0.0
 70
   163
  1
<>{\P(4 PL.)}
 71
     4
 42
0.5629999999999999
 73
     0
 74
     0
 75
     0
  3
Default (ANSI)
100
AcDbDiametricDimension
 15
51.42927017834218
 25
36.62621580703599
 35
0.0
 40
0.0
1001
ACAD
1000
DSTYLE
1002
{
1070
   144
1040
1.00000000000002
1070
   271
1070
     3
1070
   272
1070
     3
1070
    48
1040
0.0
1070
    47
1040
0.0
1002
}
1001
ACAD_DSTYLE_DIMRADIAL_EXTENSION
1070
   387
1070
     1
1070
   388
1040
0.0
1070
   390
1040
0.0
  0
DIMENSION
  5
B7F
330
6C
100
AcDbEntity
  8
Dimension (ANSI)
100
AcDbDimension
280
     0
  2
*D11
 10
46.72733390268247
 20
90.60704516902971
 30
0.0
 11
49.61177151477375
 21
95.70202184453574
 31
0.0
 70
   160
  1
<>{\PTYP.}
 71
     5
 42
0.8750000000000284
 73
     0
 74
     0
 75
     0
  3
Default (ANSI)
100
AcDbAlignedDimension
 13
49.61177151477375
 23
91.48204516902975
 33
0.0
 14
49.61177151477375
 24
90.60704516902971
 34
0.0
 50
270.0
100
AcDbRotatedDimension
1001
ACAD
1000
DSTYLE
1002
{
1070
   289
1070
     1
1070
   271
1070
     2
1070
    76
1070
     1
1070
    75
1070
     1
1070
   272
1070
     2
1070
    48
1040
0.0
1070
    47
1040
0.0
1002
}
  0
DIMENSION
  5
C88
330
6C
100
AcDbEntity
  8
Dimension (ANSI)
100
AcDbDimension
280
     0
  2
*D12
 10
84.07065925187531
 20
65.25273920897882
 30
0.0
 11
89.36839108788644
 21
65.25273920897882
 31
0.0
 70
   160
  1
<>{\PTYP.}
 71
     4
 42
0.8750000000000426
 73
     0
 74
     0
 75
     0
  3
Default (ANSI)
100
AcDbAlignedDimension
 13
84.94565925187535
 23
65.25273920897882
 33
0.0
 14
84.07065925187531
 24
65.26411765354035
 34
0.0
 50
180.0
100
AcDbRotatedDimension
1001
ACAD
1000
DSTYLE
1002
{
1070
   289
1070
     1
1070
    73
1070
     0
1070
    74
1070
     0
1070
   271
1070
     2
1070
    76
1070
     1
1070
    75
1070
     1
1070
   272
1070
     2
1070
    48
1040
0.0
1070
    47
1040
0.0
1002
}
  0
MTEXT
  5
D77
102
{ACAD_XDICTIONARY
360
D7E
102
}
330
6C
100
AcDbEntity
  8
Symbol (ANSI)
100
AcDbMText
 10
93.70287827060804
 20
9.510503656281096
 30
0.0
 40
1.000000031914297
 41
73.83387107548756
 46
0.0
 71
     4
 72
     1
  3
{\fRomanS|b0|i0|c0|p2;\H2x;PART#: WA72P24F2\P(DATA SUBJECT TO CHANGE WITHOUT NOTICE)\H1.6157x; \H0.61894x;\P \H1.352x; \H0.73963x;\P\H0.6x;THIS DRAWING IS PROPERTY OF HUBBELL INC. WIEGMANN\H1.5633x; \H0.63966x;\PALL INFORMATION IS PROPRIETARY AND NOT
  1
 TO BE DUPLICATED\H1.234x; \H0.81039x;\P\H1.2571x; }
  7
Note Text (ANSI)
 73
     1
 44
0.8026435375213623
  0
ENDSEC
  0
SECTION
  2
OBJECTS
  0
DICTIONARY
  5
C
330
0
100
AcDbDictionary
281
     1
  3
ACAD_CIP_PREVIOUS_PRODUCT_INFO
350
D79
  3
ACAD_COLOR
350
63
  3
ACAD_GROUP
350
D
  3
ACAD_LAYOUT
350
62
  3
ACAD_MATERIAL
350
10
  3
ACAD_MLEADERSTYLE
350
66
  3
ACAD_MLINESTYLE
350
5F
  3
ACAD_PLOTSETTINGS
350
61
  3
ACAD_PLOTSTYLENAME
350
E
  3
ACAD_SCALELIST
350
42
  3
ACAD_TABLESTYLE
350
64
  3
ACAD_VISUALSTYLE
350
29
  3
ACDB_RECOMPOSE_DATA
350
D80
  3
AcDbVariableDictionary
350
76
  0
DICTIONARY
  5
D7E
330
D77
100
AcDbDictionary
280
     1
281
     1
  3
ACAD_MTEXT_2008_RT
360
D7F
  0
XRECORD
  5
D79
102
{ACAD_REACTORS
330
C
102
}
330
C
100
AcDbXrecord
280
     1
300
INVNTOR
300
2012
300
PDSP_F_S
  0
DICTIONARY
  5
63
102
{ACAD_REACTORS
330
C
102
}
330
C
100
AcDbDictionary
281
     1
  0
DICTIONARY
  5
D
102
{ACAD_REACTORS
330
C
102
}
330
C
100
AcDbDictionary
281
     1
  0
DICTIONARY
  5
62
102
{ACAD_REACTORS
330
C
102
}
330
C
100
AcDbDictionary
281
     1
  3
Layout1
350
6B
  3
Layout2
350
73
  3
Model
350
6F
  0
DICTIONARY
  5
10
102
{ACAD_REACTORS
330
C
102
}
330
C
100
AcDbDictionary
281
     1
  3
ByBlock
350
19
  3
ByLayer
350
11
  3
Global
350
21
  0
DICTIONARY
  5
66
102
{ACAD_REACTORS
330
C
102
}
330
C
100
AcDbDictionary
281
     1
  3
Standard
350
67
  0
DICTIONARY
  5
5F
102
{ACAD_REACTORS
330
C
102
}
330
C
100
AcDbDictionary
281
     1
  3
Standard
350
60
  0
DICTIONARY
  5
61
102
{ACAD_REACTORS
330
C
102
}
330
C
100
AcDbDictionary
281
     1
  0
ACDBDICTIONARYWDFLT
  5
E
102
{ACAD_REACTORS
330
C
102
}
330
C
100
AcDbDictionary
281
     1
  3
Normal
350
F
100
AcDbDictionaryWithDefault
340
F
  0
DICTIONARY
  5
42
102
{ACAD_REACTORS
330
C
102
}
330
C
100
AcDbDictionary
281
     1
  3
A0
350
43
  3
A1
350
44
  3
A2
350
45
  3
A3
350
46
  3
A4
350
47
  3
A5
350
48
  3
A6
350
49
  3
A7
350
4A
  3
A8
350
4B
  3
A9
350
4C
  3
B0
350
4D
  3
B1
350
4E
  3
B2
350
4F
  3
B3
350
50
  3
B4
350
51
  3
B5
350
52
  3
B6
350
53
  0
DICTIONARY
  5
64
102
{ACAD_REACTORS
330
C
102
}
330
C
100
AcDbDictionary
281
     1
  3
Standard
350
65
  0
DICTIONARY
  5
29
102
{ACAD_REACTORS
330
C
102
}
330
C
100
AcDbDictionary
281
     1
  3
2dWireframe
350
2F
  3
Basic
350
2E
  3
Brighten
350
35
  3
ColorChange
350
39
  3
Conceptual
350
32
  3
Dim
350
34
  3
EdgeColorOff
350
41
  3
Facepattern
350
38
  3
Flat
350
2A
  3
FlatWithEdges
350
2B
  3
Gouraud
350
2C
  3
GouraudWithEdges
350
2D
  3
Hidden
350
31
  3
JitterOff
350
3F
  3
Linepattern
350
37
  3
OverhangOff
350
40
  3
Realistic
350
33
  3
Shaded
350
3E
  3
Shaded with edges
350
3D
  3
Shades of Gray
350
3A
  3
Sketchy
350
3B
  3
Thicken
350
36
  3
Wireframe
350
30
  3
X-Ray
350
3C
  0
XRECORD
  5
D80
102
{ACAD_REACTORS
330
C
102
}
330
C
100
AcDbXrecord
280
     1
 90
        1
330
65
330
D77
  0
DICTIONARY
  5
76
102
{ACAD_REACTORS
330
C
102
}
330
C
100
AcDbDictionary
281
     1
  3
CANNOSCALE
350
79
  3
CMLEADERSTYLE
350
78
  3
CTABLESTYLE
350
77
  0
XRECORD
  5
D7F
102
{ACAD_REACTORS
330
D7E
102
}
330
D7E
100
AcDbXrecord
280
     1
 40
3088535.0
  1
\pxsm0.94;{\fRomanS|b0|i0;\H2.0000;PART#: WA72P24F2\P(DATA SUBJECT TO CHANGE WITHOUT NOTICE)\P \P\fRomanS|b0|i0;\H1.2000;THIS DRAWING IS PROPERTY OF HUBBELL INC. WIEGMANN\PALL INFORMATION IS PROPRIETARY AND NOT TO BE DUPLICATED\P}
  0
LAYOUT
  5
6B
102
{ACAD_REACTORS
330
62
102
}
330
62
100
AcDbPlotSettings
  1

  2

  4

  6

 40
0.0
 41
0.0
 42
0.0
 43
0.0
 44
0.0
 45
0.0
 46
0.0
 47
0.0
 48
0.0
 49
0.0
140
0.0
141
0.0
142
1.0
143
1.0
 70
   688
 72
     0
 73
     0
 74
     5
  7

 75
    16
147
1.0
 76
     0
 77
     2
 78
   300
148
0.0
149
0.0
100
AcDbLayout
  1
Layout1
 70
     1
 71
     1
 10
0.0
 20
0.0
 11
12.0
 21
9.0
 12
0.0
 22
0.0
 32
0.0
 14
0.0
 24
0.0
 34
0.0
 15
0.0
 25
0.0
 35
0.0
146
0.0
 13
0.0
 23
0.0
 33
0.0
 16
1.0
 26
0.0
 36
0.0
 17
0.0
 27
1.0
 37
0.0
 76
     0
330
68
  0
LAYOUT
  5
73
102
{ACAD_REACTORS
330
62
102
}
330
62
100
AcDbPlotSettings
  1

  2

  4

  6

 40
0.0
 41
0.0
 42
0.0
 43
0.0
 44
0.0
 45
0.0
 46
0.0
 47
0.0
 48
0.0
 49
0.0
140
0.0
141
0.0
142
1.0
143
1.0
 70
   688
 72
     0
 73
     0
 74
     5
  7

 75
    16
147
1.0
 76
     0
 77
     2
 78
   300
148
0.0
149
0.0
100
AcDbLayout
  1
Layout2
 70
     1
 71
     2
 10
0.0
 20
0.0
 11
12.0
 21
9.0
 12
0.0
 22
0.0
 32
0.0
 14
0.0
 24
0.0
 34
0.0
 15
0.0
 25
0.0
 35
0.0
146
0.0
 13
0.0
 23
0.0
 33
0.0
 16
1.0
 26
0.0
 36
0.0
 17
0.0
 27
1.0
 37
0.0
 76
     0
330
70
  0
LAYOUT
  5
6F
102
{ACAD_REACTORS
330
62
102
}
330
62
100
AcDbPlotSettings
  1

  2

  4

  6

 40
0.0
 41
0.0
 42
0.0
 43
0.0
 44
0.0
 45
0.0
 46
0.0
 47
0.0
 48
0.0
 49
0.0
140
0.0
141
0.0
142
1.0
143
1.0
 70
  1712
 72
     0
 73
     0
 74
     0
  7

 75
     0
147
1.0
 76
     0
 77
     2
 78
   300
148
0.0
149
0.0
100
AcDbLayout
  1
Model
 70
     1
 71
     0
 10
0.0
 20
0.0
 11
12.0
 21
9.0
 12
0.0
 22
0.0
 32
0.0
 14
0.0
 24
0.0
 34
0.0
 15
0.0
 25
0.0
 35
0.0
146
0.0
 13
0.0
 23
0.0
 33
0.0
 16
1.0
 26
0.0
 36
0.0
 17
0.0
 27
1.0
 37
0.0
 76
     0
330
6C
  0
MATERIAL
  5
19
102
{ACAD_XDICTIONARY
360
1A
102
}
102
{ACAD_REACTORS
330
10
102
}
330
10
100
AcDbMaterial
  1
ByBlock
 72
     0
 43
0.0208333333333333
 43
0.0
 43
0.0
 43
0.0
 43
0.0
 43
0.0208333333333333
 43
0.0
 43
0.0
 43
0.0
 43
0.0
 43
1.0
 43
0.0
 43
0.0
 43
0.0
 43
0.0
 43
1.0
 77
     0
 47
0.0208333333333333
 47
0.0
 47
0.0
 47
0.0
 47
0.0
 47
0.0208333333333333
 47
0.0
 47
0.0
 47
0.0
 47
0.0
 47
1.0
 47
0.0
 47
0.0
 47
0.0
 47
0.0
 47
1.0
171
     0
 49
0.0208333333333333
 49
0.0
 49
0.0
 49
0.0
 49
0.0
 49
0.0208333333333333
 49
0.0
 49
0.0
 49
0.0
 49
0.0
 49
1.0
 49
0.0
 49
0.0
 49
0.0
 49
0.0
 49
1.0
175
     0
142
0.0208333333333333
142
0.0
142
0.0
142
0.0
142
0.0
142
0.0208333333333333
142
0.0
142
0.0
142
0.0
142
0.0
142
1.0
142
0.0
142
0.0
142
0.0
142
0.0
142
1.0
179
     0
144
0.0208333333333333
144
0.0
144
0.0
144
0.0
144
0.0
144
0.0208333333333333
144
0.0
144
0.0
144
0.0
144
0.0
144
1.0
144
0.0
144
0.0
144
0.0
144
0.0
144
1.0
147
0.0208333333333333
147
0.0
147
0.0
147
0.0
147
0.0
147
0.0208333333333333
147
0.0
147
0.0
147
0.0
147
0.0
147
1.0
147
0.0
147
0.0
147
0.0
147
0.0
147
1.0
  0
MATERIAL
  5
11
102
{ACAD_XDICTIONARY
360
12
102
}
102
{ACAD_REACTORS
330
10
102
}
330
10
100
AcDbMaterial
  1
ByLayer
 72
     0
 43
0.0208333333333333
 43
0.0
 43
0.0
 43
0.0
 43
0.0
 43
0.0208333333333333
 43
0.0
 43
0.0
 43
0.0
 43
0.0
 43
1.0
 43
0.0
 43
0.0
 43
0.0
 43
0.0
 43
1.0
 77
     0
 47
0.0208333333333333
 47
0.0
 47
0.0
 47
0.0
 47
0.0
 47
0.0208333333333333
 47
0.0
 47
0.0
 47
0.0
 47
0.0
 47
1.0
 47
0.0
 47
0.0
 47
0.0
 47
0.0
 47
1.0
171
     0
 49
0.0208333333333333
 49
0.0
 49
0.0
 49
0.0
 49
0.0
 49
0.0208333333333333
 49
0.0
 49
0.0
 49
0.0
 49
0.0
 49
1.0
 49
0.0
 49
0.0
 49
0.0
 49
0.0
 49
1.0
175
     0
142
0.0208333333333333
142
0.0
142
0.0
142
0.0
142
0.0
142
0.0208333333333333
142
0.0
142
0.0
142
0.0
142
0.0
142
1.0
142
0.0
142
0.0
142
0.0
142
0.0
142
1.0
179
     0
144
0.0208333333333333
144
0.0
144
0.0
144
0.0
144
0.0
144
0.0208333333333333
144
0.0
144
0.0
144
0.0
144
0.0
144
1.0
144
0.0
144
0.0
144
0.0
144
0.0
144
1.0
147
0.0208333333333333
147
0.0
147
0.0
147
0.0
147
0.0
147
0.0208333333333333
147
0.0
147
0.0
147
0.0
147
0.0
147
1.0
147
0.0
147
0.0
147
0.0
147
0.0
147
1.0
  0
MATERIAL
  5
21
102
{ACAD_XDICTIONARY
360
22
102
}
102
{ACAD_REACTORS
330
10
102
}
330
10
100
AcDbMaterial
  1
Global
 72
     0
 43
0.0208333333333333
 43
0.0
 43
0.0
 43
0.0
 43
0.0
 43
0.0208333333333333
 43
0.0
 43
0.0
 43
0.0
 43
0.0
 43
1.0
 43
0.0
 43
0.0
 43
0.0
 43
0.0
 43
1.0
 77
     0
 47
0.0208333333333333
 47
0.0
 47
0.0
 47
0.0
 47
0.0
 47
0.0208333333333333
 47
0.0
 47
0.0
 47
0.0
 47
0.0
 47
1.0
 47
0.0
 47
0.0
 47
0.0
 47
0.0
 47
1.0
171
     0
 49
0.0208333333333333
 49
0.0
 49
0.0
 49
0.0
 49
0.0
 49
0.0208333333333333
 49
0.0
 49
0.0
 49
0.0
 49
0.0
 49
1.0
 49
0.0
 49
0.0
 49
0.0
 49
0.0
 49
1.0
175
     0
142
0.0208333333333333
142
0.0
142
0.0
142
0.0
142
0.0
142
0.0208333333333333
142
0.0
142
0.0
142
0.0
142
0.0
142
1.0
142
0.0
142
0.0
142
0.0
142
0.0
142
1.0
179
     0
144
0.0208333333333333
144
0.0
144
0.0
144
0.0
144
0.0
144
0.0208333333333333
144
0.0
144
0.0
144
0.0
144
0.0
144
1.0
144
0.0
144
0.0
144
0.0
144
0.0
144
1.0
147
0.0208333333333333
147
0.0
147
0.0
147
0.0
147
0.0
147
0.0208333333333333
147
0.0
147
0.0
147
0.0
147
0.0
147
1.0
147
0.0
147
0.0
147
0.0
147
0.0
147
1.0
  0
MLEADERSTYLE
  5
67
102
{ACAD_XDICTIONARY
360
D7C
102
}
102
{ACAD_REACTORS
330
66
102
}
330
66
100
AcDbMLeaderStyle
179
     2
170
     2
171
     1
172
     0
 90
        2
 40
0.0
 41
0.0
173
     1
 91
-1056964608
340
5B
 92
       -2
290
     1
 42
0.09
291
     1
 43
0.36
  3
Standard
 44
0.18
300

342
55
174
     1
178
     6
175
     1
176
     0
 93
-1056964608
 45
0.18
292
     0
297
     0
 46
0.18
 94
-1056964608
 47
1.0
 49
1.0
140
1.0
293
     1
141
0.0
294
     1
177
     0
142
1.0
295
     0
296
     0
143
0.125
271
     0
272
     9
273
     9
  0
MLINESTYLE
  5
60
102
{ACAD_REACTORS
330
5F
102
}
330
5F
100
AcDbMlineStyle
  2
STANDARD
 70
     0
  3

 62
   256
 51
90.0
 52
90.0
 71
     2
 49
0.5
 62
   256
  6
BYLAYER
 49
-0.5
 62
   256
  6
BYLAYER
  0
ACDBPLACEHOLDER
  5
F
102
{ACAD_REACTORS
330
E
102
}
330
E
  0
SCALE
  5
43
102
{ACAD_REACTORS
330
42
102
}
330
42
100
AcDbScale
 70
     0
300
1:1
140
1.0
141
1.0
290
     1
  0
SCALE
  5
44
102
{ACAD_REACTORS
330
42
102
}
330
42
100
AcDbScale
 70
     0
300
1/128" = 1'-0"
140
0.0078125
141
12.0
290
     0
  0
SCALE
  5
45
102
{ACAD_REACTORS
330
42
102
}
330
42
100
AcDbScale
 70
     0
300
1/64" = 1'-0"
140
0.015625
141
12.0
290
     0
  0
SCALE
  5
46
102
{ACAD_REACTORS
330
42
102
}
330
42
100
AcDbScale
 70
     0
300
1/32" = 1'-0"
140
0.03125
141
12.0
290
     0
  0
SCALE
  5
47
102
{ACAD_REACTORS
330
42
102
}
330
42
100
AcDbScale
 70
     0
300
1/16" = 1'-0"
140
0.0625
141
12.0
290
     0
  0
SCALE
  5
48
102
{ACAD_REACTORS
330
42
102
}
330
42
100
AcDbScale
 70
     0
300
3/32" = 1'-0"
140
0.09375
141
12.0
290
     0
  0
SCALE
  5
49
102
{ACAD_REACTORS
330
42
102
}
330
42
100
AcDbScale
 70
     0
300
1/8" = 1'-0"
140
0.125
141
12.0
290
     0
  0
SCALE
  5
4A
102
{ACAD_REACTORS
330
42
102
}
330
42
100
AcDbScale
 70
     0
300
3/16" = 1'-0"
140
0.1875
141
12.0
290
     0
  0
SCALE
  5
4B
102
{ACAD_REACTORS
330
42
102
}
330
42
100
AcDbScale
 70
     0
300
1/4" = 1'-0"
140
0.25
141
12.0
290
     0
  0
SCALE
  5
4C
102
{ACAD_REACTORS
330
42
102
}
330
42
100
AcDbScale
 70
     0
300
3/8" = 1'-0"
140
0.375
141
12.0
290
     0
  0
SCALE
  5
4D
102
{ACAD_REACTORS
330
42
102
}
330
42
100
AcDbScale
 70
     0
300
1/2" = 1'-0"
140
0.5
141
12.0
290
     0
  0
SCALE
  5
4E
102
{ACAD_REACTORS
330
42
102
}
330
42
100
AcDbScale
 70
     0
300
3/4" = 1'-0"
140
0.75
141
12.0
290
     0
  0
SCALE
  5
4F
102
{ACAD_REACTORS
330
42
102
}
330
42
100
AcDbScale
 70
     0
300
1" = 1'-0"
140
1.0
141
12.0
290
     0
  0
SCALE
  5
50
102
{ACAD_REACTORS
330
42
102
}
330
42
100
AcDbScale
 70
     0
300
1-1/2" = 1'-0"
140
1.5
141
12.0
290
     0
  0
SCALE
  5
51
102
{ACAD_REACTORS
330
42
102
}
330
42
100
AcDbScale
 70
     0
300
3" = 1'-0"
140
3.0
141
12.0
290
     0
  0
SCALE
  5
52
102
{ACAD_REACTORS
330
42
102
}
330
42
100
AcDbScale
 70
     0
300
6" = 1'-0"
140
6.0
141
12.0
290
     0
  0
SCALE
  5
53
102
{ACAD_REACTORS
330
42
102
}
330
42
100
AcDbScale
 70
     0
300
1'-0" = 1'-0"
140
12.0
141
12.0
290
     0
  0
TABLESTYLE
  5
65
102
{ACAD_XDICTIONARY
360
D7A
102
}
102
{ACAD_REACTORS
330
64
102
}
330
64
100
AcDbTableStyle
280
     0
  3
Standard
 70
     0
 71
     0
 40
0.06
 41
0.06
280
     0
281
     0
  7
Standard
140
0.18
170
     2
 62
     0
 63
     7
283
     0
 90
      512
 91
        0
  1

274
    -2
284
     1
 64
     0
275
    -2
285
     1
 65
     0
276
    -2
286
     1
 66
     0
277
    -2
287
     1
 67
     0
278
    -2
288
     1
 68
     0
279
    -2
289
     1
 69
     0
  7
Standard
140
0.25
170
     5
 62
     0
 63
     7
283
     0
 90
      512
 91
        0
  1

274
    -2
284
     1
 64
     0
275
    -2
285
     1
 65
     0
276
    -2
286
     1
 66
     0
277
    -2
287
     1
 67
     0
278
    -2
288
     1
 68
     0
279
    -2
289
     1
 69
     0
  7
Standard
140
0.18
170
     5
 62
     0
 63
     7
283
     0
 90
      512
 91
        0
  1

274
    -2
284
     1
 64
     0
275
    -2
285
     1
 65
     0
276
    -2
286
     1
 66
     0
277
    -2
287
     1
 67
     0
278
    -2
288
     1
 68
     0
279
    -2
289
     1
 69
     0
  0
VISUALSTYLE
  5
2F
102
{ACAD_REACTORS
330
29
102
}
330
29
100
AcDbVisualStyle
  2
2dWireframe
 70
     4
177
     2
291
     0
 71
     0
176
     1
 72
     2
176
     1
 73
     0
176
     1
 90
        0
176
     1
 40
0.6
176
     1
 41
30.0
176
     1
 63
     7
421
 16777215
176
     1
 74
     1
176
     1
 91
        4
176
     1
 64
     7
176
     1
 65
   257
176
     1
 75
     1
176
     1
175
     1
176
     1
 42
1.0
176
     1
 92
        0
176
     1
 66
   257
176
     1
 43
1.0
176
     1
 76
     1
176
     1
 77
     6
176
     1
 78
     2
176
     1
 67
     7
176
     1
 79
     5
176
     1
170
     0
176
     1
171
     0
176
     1
290
     0
176
     1
 93
        1
176
     1
 44
0.0
176
     1
173
     0
176
     1
  0
VISUALSTYLE
  5
2E
102
{ACAD_REACTORS
330
29
102
}
330
29
100
AcDbVisualStyle
  2
Basic
 70
     7
177
     2
291
     1
 71
     1
176
     1
 72
     0
176
     1
 73
     1
176
     1
 90
        0
176
     1
 40
0.6
176
     1
 41
30.0
176
     1
 63
     7
421
 16777215
176
     1
 74
     0
176
     1
 91
        4
176
     1
 64
     7
176
     1
 65
   257
176
     1
 75
     1
176
     1
175
     1
176
     1
 42
1.0
176
     1
 92
        8
176
     1
 66
     7
176
     1
 43
1.0
176
     1
 76
     1
176
     1
 77
     6
176
     1
 78
     2
176
     1
 67
     7
176
     1
 79
     5
176
     1
170
     0
176
     1
171
     0
176
     1
290
     0
176
     1
 93
        1
176
     1
 44
0.0
176
     1
173
     0
176
     1
  0
VISUALSTYLE
  5
35
102
{ACAD_REACTORS
330
29
102
}
330
29
100
AcDbVisualStyle
  2
Brighten
 70
    12
177
     2
291
     1
 71
     2
176
     1
 72
     2
176
     1
 73
     0
176
     1
 90
        0
176
     1
 40
0.6
176
     1
 41
30.0
176
     1
 63
     7
421
 16777215
176
     1
 74
     1
176
     1
 91
        4
176
     1
 64
     7
176
     1
 65
   257
176
     1
 75
     1
176
     1
175
     1
176
     1
 42
1.0
176
     1
 92
        8
176
     1
 66
     7
176
     1
 43
1.0
176
     1
 76
     1
176
     1
 77
     6
176
     1
 78
     2
176
     1
 67
     7
176
     1
 79
     5
176
     1
170
     0
176
     1
171
     0
176
     1
290
     0
176
     1
 93
        1
176
     1
 44
50.0
176
     1
173
     0
176
     1
  0
VISUALSTYLE
  5
39
102
{ACAD_REACTORS
330
29
102
}
330
29
100
AcDbVisualStyle
  2
ColorChange
 70
    16
177
     2
291
     1
 71
     2
176
     1
 72
     2
176
     1
 73
     3
176
     1
 90
        0
176
     1
 40
0.6
176
     1
 41
30.0
176
     1
 63
     8
421
  8421504
176
     1
 74
     1
176
     1
 91
        4
176
     1
 64
     7
176
     1
 65
   257
176
     1
 75
     1
176
     1
175
     1
176
     1
 42
1.0
176
     1
 92
        8
176
     1
 66
     8
424
  8421504
176
     1
 43
1.0
176
     1
 76
     1
176
     1
 77
     6
176
     1
 78
     2
176
     1
 67
     7
176
     1
 79
     5
176
     1
170
     0
176
     1
171
     0
176
     1
290
     0
176
     1
 93
        1
176
     1
 44
0.0
176
     1
173
     0
176
     1
  0
VISUALSTYLE
  5
32
102
{ACAD_REACTORS
330
29
102
}
330
29
100
AcDbVisualStyle
  2
Conceptual
 70
     9
177
     2
291
     0
 71
     3
176
     1
 72
     2
176
     1
 73
     0
176
     1
 90
        0
176
     1
 40
0.6
176
     1
 41
30.0
176
     1
 63
     7
421
 16777215
176
     1
 74
     2
176
     1
 91
        2
176
     1
 64
     7
176
     1
 65
   257
176
     1
 75
     1
176
     1
175
     1
176
     1
 42
179.0
176
     1
 92
        8
176
     1
 66
     7
176
     1
 43
1.0
176
     1
 76
     1
176
     1
 77
     6
176
     1
 78
     2
176
     1
 67
     7
176
     1
 79
     3
176
     1
170
     0
176
     1
171
     0
176
     1
290
     0
176
     1
 93
        1
176
     1
 44
0.0
176
     1
173
     0
176
     1
  0
VISUALSTYLE
  5
34
102
{ACAD_REACTORS
330
29
102
}
330
29
100
AcDbVisualStyle
  2
Dim
 70
    11
177
     2
291
     1
 71
     2
176
     1
 72
     2
176
     1
 73
     0
176
     1
 90
        0
176
     1
 40
0.6
176
     1
 41
30.0
176
     1
 63
     7
421
 16777215
176
     1
 74
     1
176
     1
 91
        4
176
     1
 64
     7
176
     1
 65
   257
176
     1
 75
     1
176
     1
175
     1
176
     1
 42
1.0
176
     1
 92
        8
176
     1
 66
     7
176
     1
 43
1.0
176
     1
 76
     1
176
     1
 77
     6
176
     1
 78
     2
176
     1
 67
     7
176
     1
 79
     5
176
     1
170
     0
176
     1
171
     0
176
     1
290
     0
176
     1
 93
        1
176
     1
 44
-50.0
176
     1
173
     0
176
     1
  0
VISUALSTYLE
  5
41
102
{ACAD_REACTORS
330
29
102
}
330
29
100
AcDbVisualStyle
  2
EdgeColorOff
 70
    22
177
     2
291
     1
 71
     2
176
     0
 72
     2
176
     0
 73
     0
176
     0
 90
        0
176
     0
 40
0.6
176
     0
 41
30.0
176
     0
 63
     7
421
 16777215
176
     0
 74
     1
176
     0
 91
        4
176
     0
 64
     7
176
     0
 65
   257
176
     0
 75
     1
176
     0
175
     1
176
     0
 42
1.0
176
     0
 92
        8
176
     2
 66
     7
176
     0
 43
1.0
176
     0
 76
     1
176
     0
 77
     6
176
     0
 78
     2
176
     0
 67
     7
176
     0
 79
     5
176
     0
170
     0
176
     0
171
     0
176
     0
290
     0
176
     0
 93
        1
176
     0
 44
0.0
176
     0
173
     0
176
     0
  0
VISUALSTYLE
  5
38
102
{ACAD_REACTORS
330
29
102
}
330
29
100
AcDbVisualStyle
  2
Facepattern
 70
    15
177
     2
291
     1
 71
     2
176
     1
 72
     2
176
     1
 73
     0
176
     1
 90
        0
176
     1
 40
0.6
176
     1
 41
30.0
176
     1
 63
     7
421
 16777215
176
     1
 74
     1
176
     1
 91
        4
176
     1
 64
     7
176
     1
 65
   257
176
     1
 75
     1
176
     1
175
     1
176
     1
 42
1.0
176
     1
 92
        8
176
     1
 66
     7
176
     1
 43
1.0
176
     1
 76
     1
176
     1
 77
     6
176
     1
 78
     2
176
     1
 67
     7
176
     1
 79
     5
176
     1
170
     0
176
     1
171
     0
176
     1
290
     0
176
     1
 93
        1
176
     1
 44
0.0
176
     1
173
     0
176
     1
  0
VISUALSTYLE
  5
2A
102
{ACAD_REACTORS
330
29
102
}
330
29
100
AcDbVisualStyle
  2
Flat
 70
     0
177
     2
291
     1
 71
     2
176
     1
 72
     1
176
     1
 73
     1
176
     1
 90
        2
176
     1
 40
0.6
176
     1
 41
30.0
176
     1
 63
     7
421
 16777215
176
     1
 74
     0
176
     1
 91
        0
176
     1
 64
     7
176
     1
 65
   257
176
     1
 75
     1
176
     1
175
     1
176
     1
 42
1.0
176
     1
 92
        8
176
     1
 66
     7
176
     1
 43
1.0
176
     1
 76
     1
176
     1
 77
     6
176
     1
 78
     2
176
     1
 67
     7
176
     1
 79
     5
176
     1
170
     0
176
     1
171
     0
176
     1
290
     0
176
     1
 93
       13
176
     1
 44
0.0
176
     1
173
     0
176
     1
  0
VISUALSTYLE
  5
2B
102
{ACAD_REACTORS
330
29
102
}
330
29
100
AcDbVisualStyle
  2
FlatWithEdges
 70
     1
177
     2
291
     1
 71
     2
176
     1
 72
     1
176
     1
 73
     1
176
     1
 90
        2
176
     1
 40
0.6
176
     1
 41
30.0
176
     1
 63
     7
421
 16777215
176
     1
 74
     1
176
     1
 91
        0
176
     1
 64
     7
176
     1
 65
   257
176
     1
 75
     1
176
     1
175
     1
176
     1
 42
1.0
176
     1
 92
        0
176
     1
 66
   257
176
     1
 43
1.0
176
     1
 76
     1
176
     1
 77
     6
176
     1
 78
     2
176
     1
 67
     7
176
     1
 79
     5
176
     1
170
     0
176
     1
171
     0
176
     1
290
     0
176
     1
 93
       13
176
     1
 44
0.0
176
     1
173
     0
176
     1
  0
VISUALSTYLE
  5
2C
102
{ACAD_REACTORS
330
29
102
}
330
29
100
AcDbVisualStyle
  2
Gouraud
 70
     2
177
     2
291
     1
 71
     2
176
     1
 72
     2
176
     1
 73
     1
176
     1
 90
        2
176
     1
 40
0.6
176
     1
 41
30.0
176
     1
 63
     7
421
 16777215
176
     1
 74
     0
176
     1
 91
        0
176
     1
 64
     7
176
     1
 65
   257
176
     1
 75
     1
176
     1
175
     1
176
     1
 42
1.0
176
     1
 92
        0
176
     1
 66
     7
176
     1
 43
1.0
176
     1
 76
     1
176
     1
 77
     6
176
     1
 78
     2
176
     1
 67
     7
176
     1
 79
     5
176
     1
170
     0
176
     1
171
     0
176
     1
290
     0
176
     1
 93
       13
176
     1
 44
0.0
176
     1
173
     0
176
     1
  0
VISUALSTYLE
  5
2D
102
{ACAD_REACTORS
330
29
102
}
330
29
100
AcDbVisualStyle
  2
GouraudWithEdges
 70
     3
177
     2
291
     1
 71
     2
176
     1
 72
     2
176
     1
 73
     1
176
     1
 90
        2
176
     1
 40
0.6
176
     1
 41
30.0
176
     1
 63
     7
421
 16777215
176
     1
 74
     1
176
     1
 91
        0
176
     1
 64
     7
176
     1
 65
   257
176
     1
 75
     1
176
     1
175
     1
176
     1
 42
1.0
176
     1
 92
        0
176
     1
 66
   257
176
     1
 43
1.0
176
     1
 76
     1
176
     1
 77
     6
176
     1
 78
     2
176
     1
 67
     7
176
     1
 79
     5
176
     1
170
     0
176
     1
171
     0
176
     1
290
     0
176
     1
 93
       13
176
     1
 44
0.0
176
     1
173
     0
176
     1
  0
VISUALSTYLE
  5
31
102
{ACAD_REACTORS
330
29
102
}
330
29
100
AcDbVisualStyle
  2
Hidden
 70
     6
177
     2
291
     0
 71
     1
176
     1
 72
     2
176
     1
 73
     2
176
     1
 90
        0
176
     1
 40
0.6
176
     1
 41
30.0
176
     1
 63
     7
421
 16777215
176
     1
 74
     2
176
     1
 91
        2
176
     1
 64
     7
176
     1
 65
   257
176
     1
 75
     2
176
     1
175
     1
176
     1
 42
40.0
176
     1
 92
        0
176
     1
 66
   257
176
     1
 43
1.0
176
     1
 76
     1
176
     1
 77
     6
176
     1
 78
     2
176
     1
 67
     7
176
     1
 79
     3
176
     1
170
     0
176
     1
171
     0
176
     1
290
     0
176
     1
 93
        1
176
     1
 44
0.0
176
     1
173
     0
176
     1
  0
VISUALSTYLE
  5
3F
102
{ACAD_REACTORS
330
29
102
}
330
29
100
AcDbVisualStyle
  2
JitterOff
 70
    20
177
     2
291
     1
 71
     2
176
     0
 72
     2
176
     0
 73
     0
176
     0
 90
        0
176
     0
 40
0.6
176
     0
 41
30.0
176
     0
 63
     7
421
 16777215
176
     0
 74
     1
176
     0
 91
        4
176
     0
 64
     7
176
     0
 65
   257
176
     0
 75
     1
176
     0
175
     1
176
     0
 42
1.0
176
     0
 92
       10
176
     2
 66
     7
176
     0
 43
1.0
176
     0
 76
     1
176
     0
 77
     6
176
     0
 78
     2
176
     0
 67
     7
176
     0
 79
     5
176
     0
170
     0
176
     0
171
     0
176
     0
290
     0
176
     0
 93
        1
176
     0
 44
0.0
176
     0
173
     0
176
     0
  0
VISUALSTYLE
  5
37
102
{ACAD_REACTORS
330
29
102
}
330
29
100
AcDbVisualStyle
  2
Linepattern
 70
    14
177
     2
291
     1
 71
     2
176
     1
 72
     2
176
     1
 73
     0
176
     1
 90
        0
176
     1
 40
0.6
176
     1
 41
30.0
176
     1
 63
     7
421
 16777215
176
     1
 74
     1
176
     1
 91
        4
176
     1
 64
     7
176
     1
 65
   257
176
     1
 75
     7
176
     1
175
     7
176
     1
 42
1.0
176
     1
 92
        8
176
     1
 66
     7
176
     1
 43
1.0
176
     1
 76
     1
176
     1
 77
     6
176
     1
 78
     2
176
     1
 67
     7
176
     1
 79
     5
176
     1
170
     0
176
     1
171
     0
176
     1
290
     0
176
     1
 93
        1
176
     1
 44
0.0
176
     1
173
     0
176
     1
  0
VISUALSTYLE
  5
40
102
{ACAD_REACTORS
330
29
102
}
330
29
100
AcDbVisualStyle
  2
OverhangOff
 70
    21
177
     2
291
     1
 71
     2
176
     0
 72
     2
176
     0
 73
     0
176
     0
 90
        0
176
     0
 40
0.6
176
     0
 41
30.0
176
     0
 63
     7
421
 16777215
176
     0
 74
     1
176
     0
 91
        4
176
     0
 64
     7
176
     0
 65
   257
176
     0
 75
     1
176
     0
175
     1
176
     0
 42
1.0
176
     0
 92
        9
176
     2
 66
     7
176
     0
 43
1.0
176
     0
 76
     1
176
     0
 77
     6
176
     0
 78
     2
176
     0
 67
     7
176
     0
 79
     5
176
     0
170
     0
176
     0
171
     0
176
     0
290
     0
176
     0
 93
        1
176
     0
 44
0.0
176
     0
173
     0
176
     0
  0
VISUALSTYLE
  5
33
102
{ACAD_REACTORS
330
29
102
}
330
29
100
AcDbVisualStyle
  2
Realistic
 70
     8
177
     2
291
     0
 71
     2
176
     1
 72
     3
176
     1
 73
     0
176
     1
 90
        2
176
     1
 40
0.6
176
     1
 41
30.0
176
     1
 63
     7
421
 16777215
176
     1
 74
     0
176
     1
 91
        0
176
     1
 64
     7
176
     1
 65
   257
176
     1
 75
     1
176
     1
175
     1
176
     1
 42
1.0
176
     1
 92
        8
176
     1
 66
   257
176
     1
 43
1.0
176
     1
 76
     1
176
     1
 77
     6
176
     1
 78
     2
176
     1
 67
     7
176
     1
 79
     3
176
     1
170
     0
176
     1
171
     0
176
     1
290
     0
176
     1
 93
       13
176
     1
 44
0.0
176
     1
173
     0
176
     1
  0
VISUALSTYLE
  5
3E
102
{ACAD_REACTORS
330
29
102
}
330
29
100
AcDbVisualStyle
  2
Shaded
 70
    27
177
     2
291
     0
 71
     2
176
     1
 72
     2
176
     1
 73
     1
176
     1
 90
        2
176
     1
 40
0.6
176
     1
 41
30.0
176
     1
 63
     7
421
 16777215
176
     1
 74
     0
176
     1
 91
        4
176
     1
 64
     7
176
     1
 65
   257
176
     1
 75
     1
176
     1
175
     1
176
     1
 42
1.0
176
     1
 92
        8
176
     1
 66
   257
176
     1
 43
1.0
176
     1
 76
     1
176
     1
 77
     6
176
     1
 78
     2
176
     1
 67
     8
425
  7895160
176
     1
 79
     3
176
     1
170
     0
176
     1
171
     0
176
     1
290
     0
176
     1
 93
        5
176
     1
 44
0.0
176
     1
173
     0
176
     1
  0
VISUALSTYLE
  5
3D
102
{ACAD_REACTORS
330
29
102
}
330
29
100
AcDbVisualStyle
  2
Shaded with edges
 70
    26
177
     2
291
     0
 71
     2
176
     1
 72
     2
176
     1
 73
     1
176
     1
 90
        2
176
     1
 40
0.6
176
     1
 41
30.0
176
     1
 63
     7
421
 16777215
176
     1
 74
     1
176
     1
 91
       10
176
     1
 64
     7
176
     1
 65
   257
176
     1
 75
     2
176
     1
175
     1
176
     1
 42
1.0
176
     1
 92
        8
176
     1
 66
   257
176
     1
 43
1.0
176
     1
 76
     1
176
     1
 77
     6
176
     1
 78
     2
176
     1
 67
     7
176
     1
 79
     3
176
     1
170
     0
176
     1
171
     0
176
     1
290
     0
176
     1
 93
        5
176
     1
 44
0.0
176
     1
173
     0
176
     1
  0
VISUALSTYLE
  5
3A
102
{ACAD_REACTORS
330
29
102
}
330
29
100
AcDbVisualStyle
  2
Shades of Gray
 70
    23
177
     2
291
     0
 71
     2
176
     1
 72
     2
176
     1
 73
     3
176
     1
 90
        0
176
     1
 40
0.6
176
     1
 41
30.0
176
     1
 63
     7
421
 16777215
176
     1
 74
     2
176
     1
 91
        2
176
     1
 64
     7
176
     1
 65
     7
176
     1
 75
     1
176
     1
175
     1
176
     1
 42
40.0
176
     1
 92
        8
176
     1
 66
     7
176
     1
 43
1.0
176
     1
 76
     1
176
     1
 77
     6
176
     1
 78
     2
176
     1
 67
     7
176
     1
 79
     3
176
     1
170
     0
176
     1
171
     0
176
     1
290
     0
176
     1
 93
        1
176
     1
 44
0.0
176
     1
173
     0
176
     1
  0
VISUALSTYLE
  5
3B
102
{ACAD_REACTORS
330
29
102
}
330
29
100
AcDbVisualStyle
  2
Sketchy
 70
    24
177
     2
291
     0
 71
     1
176
     1
 72
     2
176
     1
 73
     2
176
     1
 90
        0
176
     1
 40
0.6
176
     1
 41
30.0
176
     1
 63
     7
421
 16777215
176
     1
 74
     2
176
     1
 91
        2
176
     1
 64
     7
176
     1
 65
     7
176
     1
 75
     1
176
     1
175
     1
176
     1
 42
40.0
176
     1
 92
       11
176
     1
 66
     7
176
     1
 43
1.0
176
     1
 76
     1
176
     1
 77
     6
176
     1
 78
     2
176
     1
 67
     7
176
     1
 79
     6
176
     1
170
     0
176
     1
171
     0
176
     1
290
     0
176
     1
 93
        1
176
     1
 44
0.0
176
     1
173
     0
176
     1
  0
VISUALSTYLE
  5
36
102
{ACAD_REACTORS
330
29
102
}
330
29
100
AcDbVisualStyle
  2
Thicken
 70
    13
177
     2
291
     1
 71
     2
176
     1
 72
     2
176
     1
 73
     0
176
     1
 90
        0
176
     1
 40
0.6
176
     1
 41
30.0
176
     1
 63
     7
421
 16777215
176
     1
 74
     1
176
     1
 91
        4
176
     1
 64
     7
176
     1
 65
   257
176
     1
 75
     1
176
     1
175
     1
176
     1
 42
1.0
176
     1
 92
       12
176
     1
 66
     7
176
     1
 43
1.0
176
     1
 76
     1
176
     1
 77
     6
176
     1
 78
     2
176
     1
 67
     7
176
     1
 79
     5
176
     1
170
     0
176
     1
171
     0
176
     1
290
     0
176
     1
 93
        1
176
     1
 44
0.0
176
     1
173
     0
176
     1
  0
VISUALSTYLE
  5
30
102
{ACAD_REACTORS
330
29
102
}
330
29
100
AcDbVisualStyle
  2
Wireframe
 70
     5
177
     2
291
     0
 71
     0
176
     1
 72
     2
176
     1
 73
     0
176
     1
 90
        0
176
     1
 40
0.6
176
     1
 41
30.0
176
     1
 63
     7
421
 16777215
176
     1
 74
     1
176
     1
 91
        4
176
     1
 64
     7
176
     1
 65
   257
176
     1
 75
     1
176
     1
175
     1
176
     1
 42
1.0
176
     1
 92
        0
176
     1
 66
   257
176
     1
 43
1.0
176
     1
 76
     1
176
     1
 77
     6
176
     1
 78
     2
176
     1
 67
     7
176
     1
 79
     3
176
     1
170
     0
176
     1
171
     0
176
     1
290
     0
176
     1
 93
        1
176
     1
 44
0.0
176
     1
173
     0
176
     1
  0
VISUALSTYLE
  5
3C
102
{ACAD_REACTORS
330
29
102
}
330
29
100
AcDbVisualStyle
  2
X-Ray
 70
    25
177
     2
291
     0
 71
     2
176
     1
 72
     2
176
     1
 73
     1
176
     1
 90
        1
176
     1
 40
0.5
176
     1
 41
30.0
176
     1
 63
     7
421
 16777215
176
     1
 74
     1
176
     1
 91
        0
176
     1
 64
     7
176
     1
 65
   257
176
     1
 75
     1
176
     1
175
     1
176
     1
 42
1.0
176
     1
 92
        8
176
     1
 66
     7
176
     1
 43
1.0
176
     1
 76
     1
176
     1
 77
     6
176
     1
 78
     2
176
     1
 67
     7
176
     1
 79
     3
176
     1
170
     0
176
     1
171
     0
176
     1
290
     0
176
     1
 93
       13
176
     1
 44
0.0
176
     1
173
     0
176
     1
  0
DICTIONARYVAR
  5
79
102
{ACAD_REACTORS
330
76
102
}
330
76
100
DictionaryVariables
280
     0
  1
1:1
  0
DICTIONARYVAR
  5
78
102
{ACAD_REACTORS
330
76
102
}
330
76
100
DictionaryVariables
280
     0
  1
STANDARD
  0
DICTIONARYVAR
  5
77
102
{ACAD_REACTORS
330
76
102
}
330
76
100
DictionaryVariables
280
     0
  1
STANDARD
  0
DICTIONARY
  5
1A
330
19
100
AcDbDictionary
280
     1
281
     1
  3
BUMPTILE
360
1C
  3
DIFFUSETILE
360
1B
  3
OPACITYTILE
360
1F
  3
REFLECTIONTILE
360
1E
  3
REFRACTIONTILE
360
20
  3
SPECULARTILE
360
1D
  0
DICTIONARY
  5
12
330
11
100
AcDbDictionary
280
     1
281
     1
  3
BUMPTILE
360
14
  3
DIFFUSETILE
360
13
  3
FBXASSET
360
109
  3
OPACITYTILE
360
17
  3
REFLECTIONTILE
360
16
  3
REFRACTIONTILE
360
18
  3
SPECULARTILE
360
15
  0
DICTIONARY
  5
22
330
21
100
AcDbDictionary
280
     1
281
     1
  3
BUMPTILE
360
24
  3
DIFFUSETILE
360
23
  3
FBXASSET
360
BA
  3
OPACITYTILE
360
27
  3
REFLECTIONTILE
360
26
  3
REFRACTIONTILE
360
28
  3
SPECULARTILE
360
25
  0
DICTIONARY
  5
D7C
330
67
100
AcDbDictionary
280
     1
281
     1
  3
ACAD_XREC_ROUNDTRIP
360
D7D
  0
DICTIONARY
  5
D7A
330
65
100
AcDbDictionary
280
     1
281
     1
  3
ACAD_ROUNDTRIP_2008_TABLESTYLE_CELLSTYLEMAP
360
D7B
  0
XRECORD
  5
1C
102
{ACAD_REACTORS
330
1A
102
}
330
1A
100
AcDbXrecord
280
     1
270
     1
271
     1
  0
XRECORD
  5
1B
102
{ACAD_REACTORS
330
1A
102
}
330
1A
100
AcDbXrecord
280
     1
270
     1
271
     1
  0
XRECORD
  5
1F
102
{ACAD_REACTORS
330
1A
102
}
330
1A
100
AcDbXrecord
280
     1
270
     1
271
     1
  0
XRECORD
  5
1E
102
{ACAD_REACTORS
330
1A
102
}
330
1A
100
AcDbXrecord
280
     1
270
     1
271
     1
  0
XRECORD
  5
20
102
{ACAD_REACTORS
330
1A
102
}
330
1A
100
AcDbXrecord
280
     1
270
     1
271
     1
  0
XRECORD
  5
1D
102
{ACAD_REACTORS
330
1A
102
}
330
1A
100
AcDbXrecord
280
     1
270
     1
271
     1
  0
XRECORD
  5
14
102
{ACAD_REACTORS
330
12
102
}
330
12
100
AcDbXrecord
280
     1
270
     1
271
     1
  0
XRECORD
  5
13
102
{ACAD_REACTORS
330
12
102
}
330
12
100
AcDbXrecord
280
     1
270
     1
271
     1
  0
XRECORD
  5
109
102
{ACAD_REACTORS
330
12
102
}
330
12
100
AcDbXrecord
280
     1
 70
     1
 90
1959938040
 71
     1
  1
088BA6D8-FC52-47AF-B329-CF8D2C4D56DB
311
504B03040A0000080000468AD1423DEE336E79000000790000001B0000006175746F6465736B2D64657369676E2D7061636B6167652E786D6C3C3F786D6C2076657273696F6E3D22312E302220656E636F64696E673D227574662D3822203F3E3C666F726D6174733E3C666F726D61743E687474703A2F2F736368656D612E
311
6175746F6465736B2E636F6D2F64657369676E2D7061636B6167652F323030393C2F666F726D61743E3C2F666F726D6174733E504B0304140006080800468AD142D486FD9CA0000000F4000000130000005B436F6E74656E745F54797065735D2E786D6C7D8EC10E82300C865F65E91D8A1E8C310C0EEA1BF002731658846E
311
D98AC1B77784ABF1D8FE5FBFBF75BBCE937A534CCEB38643598122B6FEE978D0B0485F9C41B54DDD7D022595594E1A469170414C76A4D9A4D207E29CF43ECE46F218070CC6BECC4078ACAA135ACF422C856C0E68EA1BF5669944DDD7BCDE7B1F8E415D77AECB980613C2E4AC91FC167A2B244592486606FC29C8FD7F045B9A
311
EF7053A7E60B504B0304140006080800468AD1429BE84474EC0000007C01000008000000636F72652E786D6C8D90416EC3201045AF82D856D80C8EEDC4C2444DEB9EA01740401C94182C03558F5F9C3852BBEB6A467FFE9B197D7EFC9E6EE8CB2CC17AD763282846C629AFAD1B7B9CE299EC313A0ABE781F7FD9307272323D
311
5E652CF8B8F8346F92F22E1A17B3EABC369B284330112375CB4D8F83BA98491632C5EC08D76296EA2A4753C0B3CB704A56A3C711ABF33E7BB666C1E2509F0E6F740FE4D47C00D93160E4F5BDAA098561C786A61DAAA1E5E50A0B1EEDF4BCAF1623A3D158300A15A10D81F613DA0EF61DB0175A7715E5E56AFF03A559FF134A
311
D6C58A6DEF3EB08005E447EE03C1CB358B5CEE41E5BAE6267E00504B0304140006080800468AD14255019EA25F0000007C00000007000000636E782E786D6C4DCB3B0E80201045D1AD90E915ED2CF8AC45050C11660C8261F98AB1B07AC9C97D42D718D865D3E909258CFD00CCE24AC6E326A164D74DC0B4128928FF326038
311
472BA13128B1252AC747C6BAB984FC68F0B87FE8960A5C09FE86CFB69FBA01504B0304140006080800468AD142736C404D68010000020300000C0000006662782F636F72652E786D6C8D52ED8E8230107C95A67F2FA51454D4949AF38E7B827B810A9523424B4A4B7CFC5B3E0CE7C51843529A999DDDD9017EB83635EA95ED
311
2AA353CC821023A5735354BA4CB17767B2C5E820B835C6FD29C348CB46A57880B1E0A535BE9DA1DC68A7B403549B42CDA0EC3AE530CA6BB8A4B8CB7F542303E91D547497A095F945962A6001D0502778E72C1840D390E1C4E27CBA723AE1827B5F15335B1530AD3A57CA62B15B1F771FE19691E3E68B9155C422F2FE19AF49
311
C8B255946D922CCE124E07B1E0AE6A6EEE72ABA453051651C862126E084BBE59B267DB3D8BDEC2F53E0E391DCAEF44BE2D5E14F94ABB389AED4EB20E0B064646E2DFB61091439DECC10F159C0E21C26B4CF83E6808044276F254DFF6B800D4ABDC19BB02A6307EA17A597B055343343E9C4E2C741E1BC0660FFB444FFA3CEF
311
011F50EA12AC4907D79377C3743E4D9DA3689525BDBB226D6C23EBC5DC64713997410FE5B9A98D7D454DE755E91C261DFE5EF10B504B0304140006080800468AD142D900621D7D0000009D0000000B0000006662782F636E782E786D6C4DCCD10A83201886E15B91FFDC55266D821AA2751FB12C64A6C3E9D8E5AF46073BFA
311
E0E1E3E5FD67F3E86DD3CBC520A0B9D4806CB8C7D9855540C90BBE01EA254F31E6BF1BA0306D56C0C120F99A62799E34DB652A3EEFEA5D789C388C4A9B6B3762561B8D69A70C5684B6B8658C92A1D194120695E4D5AFB4EF11965F504B0304140006080800468AD14251076D052D01000014020000310000006662782F4546
311
4143443736462D393044432D343641442D413234332D3339393432453143343432392F636F72652E786D6C8D515B6EC32010BC0AE22B55651B3071E2081345799CA0177080242831583CAA1CBF503B52FB971F16CDCECC8E76D9F6393CC0B7725E5BD3415C22089411566A73ED600C97620DC19633676DF84383C0F483EA60
311
8621675767E33843C29AA04C48A8B152CD60EFBD0A108847FA74D08B9B1AFAB28F2131FCBD1C7B71EFAFAAC4656A271E673EB814004C43F20BF9F1B4DB1F56CDA968D1615FD06677287684D645DDB6941CF19E52D2B26A127216A396B35CCB14475FB472EF9A643167410FAFF8C2A93E28093941B82E5053E0D5175E6DF07A
311
83C9275A6E6AC4AA4CFF278AA37C5314B5093599E34E320F3966D5D4E04CDA787EBCC2A8E7685D0079DEC22BF101392A11C60D6AC89A5513352D20793674F6F4C1BAB4E0C5FD9CD87839193794B32ADF2895DF03A69AEFC97F00504B0304140006080800468AD14233D481214E01000033030000300000006662782F454641
311
43443736462D393044432D343641442D413234332D3339393432453143343432392F636E782E786D6CD593CD6E022114855F85B06DE607B56A0C8349177D822EBA45B8562A03137E9AFAF6BD285A372EBAEC864CCE3D9C73F385E1DBEFD1922F08D1783750D6F69480535E1BF731D09CF6CD9A92ADE0C1FB7467A3C4C91106
311
5A642AF847F079AA9286BDCC36A16A8D3B563140F439288828979BC47A252D06806B328A30EE406BD0E466C4AF3D045C05C5DD89A40390D79777E2779FA052E45D4911BC2B1D8297B336DD99285156C638D0A80E30CA56E6E435C463AB65922D6BAF5D0F76FA4D22E5C2B53207434AF940CB4945DDA8458EBCC3A1E03105A4
311
574DE9340115729AAC513221E4EE6CBC7804CFC6A5E5A27A0D820FE866CBF9628161E799E0C98C501D2A804CA0A998F56CDEF4CB86ADDED86AC3D61B367BEA9F37F39E77C52EF8CE7B5B2F610C043F11E55D0297A860BC2BE347F8AA8F681390B50FA73F804400B5F542E796F19FF974E7F78DB802FE05E207504B03041400
311
06080800468AD14211BEF9A5A405000081100000340000006662782F45464143443736462D393044432D343641442D413234332D3339393432453143343432392F6F626A656374732E786D6CAD57D98EDB3614FD15417D691FBCC8F64C3C854681973A30D249821809FA60C0A0254AC30EB580A4269E7E7D0F454A961C7BE2
311
1679D1C2E5F2DE73CF5DE8BF3DA4DC79A642B23CBB77BDFED0756816E611CB927BB754716FEA3A6F035FE4B96A2D739D8CA4F4DED5C36EE027222F0B3B14D198945C9D8CAEE67F3932A419759D901329EF5D193ED294F449A9F288CAA77E4414E927F1A1EFF5CDC2AED84490E2F144684104CD1434C57806298E51CAEBFE0E
311
DD41E00FF47CE0EBA75D35BEBC6A50D9D33D9F6552912CFCEEB01331636FB2FC637473D7BB994CC6BDC9EDC8EBCD57F365CF7B331E2E6E178BBBD91F7738582A0149561341633778076C040BFD81990AFC92656A3CB24BAC8306823E33ED293718399E3F306B1AEBAC91E7D40FF32CA3618515D0A8ECB3A2235AD02C82CF19
311
95D0AC85D0B0FBEB691C5BD363FD6F8F6C0F5F87407B474B50AD7BFD6E6B9AEFFF8609F21A06094935030D96D650C3D5E111E17D9E733BC7A49312450523DCE16C2F887871032CD54B02BF23463359E868D016B801BC60A6BB744118FD98E7E7B48C4BCE358DDDA08A821D62852A5969C6FEA1E2A87D1B19E8045F69364CAD
311
41EAA5A06E706728323D619301D2893949E07298A9778E4727862E749CAE976EF07EB53F6C74EC9E3FBC10794185D2F401B56AC7D56F8D92D5C9BBCA737A837BA2CA1194CF40FE0342FDA80AFC26D8617298D8539420998C7391C237CED0E90DF1183A5EF5D4DFAD2F7FD06CEE7AEF129E70B686EA27E0D9B5A1EDCB169C81
311
FF0CC2E7626C4DDB8484236D3CB00C006992383CC710F270BC3FB8C11A590E5919BB080F3C980C759FF1E90FAC18248AEAA4D63B03962769F18A040DD82A46420D437EABE0D14FDFA5B3EA60BBEC12BC373F85AEB3E5E6FDA6143109E9838DE9258D59C6144ADC91376D853A98772C7AA22FDF7211C1D0EFF1DEB4F14EED51
311
12686BCC35F0499DD3F5CFF1E4CE0121F625B94E37FE0F4E8011BAB0B6E43F301952CE4946F3B23EF7D5FA81B26120D6C1AE99DC149863610169CCCC490CA2488782151AC4A65A3549B37FC1BA2FEB0F60A41BCC5FFE242FEDECB53FE6DE30E7B9D8ED5F76262D9D85FA6B97DB1683819602BA574152C7BF057D17B1382E25
311
92E0195CBFAE176DDFE9B48014514B35D13281FD082E222C696BB9A8D682A092E6D98EA16E22EECE1ED0960F482D032A8197349694C73BC67999EE62C6518D7629292EC0F1FFF5DF9769B123695E66EA82EC8EEAA80E5DDD3BEC95DF880A1FDD6053BD7B73E4DE884617C8A06BC919AC3AAE1D4EA7F3D9ED72DA5B2D6E46BD
311
C99BD9AA371F8FEE7A8BD574395A4C9637B7CB79ED27A349E0D7A5A61DD1F0124A9B5F0A66DDF7658DF8B149C00D1E8892DB77263CEBF797751FBDB03FC01ED4CB66E32C7A46DF47A31F0B38AE3C2B689D169CA6345344C7D083FEE09F09FA8C8E32667C9D92845E21E5E3BBCD893118B962DF271DEFF4DBC95E3BBAD00179
311
56887A2CD37D46183FD9981824FB459658FC6A9F346F5368EA5FFD671D83CE54E69C45C8839193D03CA50AD9F08A2224522A41BD764F1FD9BBC715BB9F4D87A8C89ED35A93478226994B8405A85586AA3BEEFC82A64EF755F72ECA6DFF090F9B295C079CB977D1A42B1652D9DFA340EB56A8120E2EB53B7934FE244B387A6D
311
B3A9F96F76696C3A25B959724DFF64ED3229DC1A803452A06F404304EF54CA047EA59B9D0FFF93E1B53A0E51F8DC97AAB1E538D018531D83103546D9DB029A98277BF40181FABA595EBF5AD341E4AA5BD6AB2430527B8A88A4BA2968FDAC4AB3E5A7013A1467FDD1297899C097D74BEA090A32973AC0C122B0C2CA2C880255
311
17BF6F3F891C37D9D4593150C0F9F530BDFD6DBBC8D334CFCCD07666EFC3CEE611B7DB688BE440F5B5446E47436FB4ADAE03F686B2DB1349FB24924F188067056B80EEB81FBC347746D42133D1AC1B68579C3074BD746C619B40A8A54B3BB76A70D07864D4410CE92BA58E98F682E2D51BC1A05A0A15047AF9E05F504B0304
311
140006080000468AD142000000000000000000000000350000006662782F45464143443736462D393044432D343641442D413234332D3339393432453143343432392F76657274696365732E62696E504B0304140006080800468AD142F270F1330600000004000000360000006662782F45464143443736462D393044432D
311
343641442D413234332D3339393432453143343432392F747269616E676C65732E62696E636660600000504B0304140006080000468AD142000000000000000000000000370000006662782F45464143443736462D393044432D343641442D413234332D3339393432453143343432392F617474726962757465732E62696E
311
504B0304140006080800468AD142D5987DFC8F00000041010000360000006662782F45464143443736462D393044432D343641442D413234332D3339393432453143343432392F6469726563746F72792E786D6C858F410EC2201045AF4266AF15DDB800BA74E7C21B903225242D6328188F2FA5C4183471359997F9FF81E8
311
9FF3C41E1816475E02DF1F80A11FC8386F25A438EECEC07A250251FC3803E6F58C12560C4AD840E95E91C151A72936F496F35732D860FE635F62C8F2DA16B505C545B74125BAA2FA9E05D7CC053D063734D5C7665FD55B6B8D15D5E9BFEAFD8490FFA45E504B0304140006080800468AD14288436AECFE000000A00100003B
311
0000006662782F45464143443736462D393044432D343641442D413234332D3339393432453143343432392F7265736F75726365732F636F72652E786D6C8D504B6E833010BD0A9A6D65B02140828CA3A6A527E8052C33A156828DFCA97AFC9A40A576D7CDCCE87D344F8F9FBFE67BF689CE6B6B7A6039850C8DB2A336530F
311
315CC911B2B3E0CEDAF04B06999133F6B0C220F8E46C5C76485913D084841A3BE20E4AEF3140A6EEE9E8C1AB0F9C652E63480A7FCB17A96E72C29CE5894E3AC17D702940B63D59270887DE46A7D0F36263058F518FBB468FE9A7BE6A74204EF5E5F4428F945C9A37460E252BC9F36B5513CA86433934ED500D2D2F56B3E041
311
CF3F19954319700451525611DA10D6BEB3B663C78E954FB4EE2ACA8B55FEC71497F19FA6A84DA8CA3DEE66F320580AF220042FD6BED27A9499F6DAADF806504B010214000A0000080000468AD1423DEE336E79000000790000001B00000000000000000000000000000000006175746F6465736B2D64657369676E2D706163
311
6B6167652E786D6C504B01021400140006080800468AD142D486FD9CA0000000F40000001300000000000000000000000000B20000005B436F6E74656E745F54797065735D2E786D6C504B01021400140006080800468AD1429BE84474EC0000007C010000080000000000000000000000000083010000636F72652E786D6C
311
504B01021400140006080800468AD14255019EA25F0000007C000000070000000000000000000000000095020000636E782E786D6C504B01021400140006080800468AD142736C404D68010000020300000C00000000000000000000000000190300006662782F636F72652E786D6C504B01021400140006080800468AD142
311
D900621D7D0000009D0000000B00000000000000000000000000AB0400006662782F636E782E786D6C504B01021400140006080800468AD14251076D052D010000140200003100000000000000000000000000510500006662782F45464143443736462D393044432D343641442D413234332D333939343245314334343239
311
2F636F72652E786D6C504B01021400140006080800468AD14233D481214E010000330300003000000000000000000000000000CD0600006662782F45464143443736462D393044432D343641442D413234332D3339393432453143343432392F636E782E786D6C504B01021400140006080800468AD14211BEF9A5A4050000
311
811000003400000000000000000000000000690800006662782F45464143443736462D393044432D343641442D413234332D3339393432453143343432392F6F626A656374732E786D6C504B01021400140006080000468AD14200000000000000000000000035000000000000000000000000005F0E00006662782F454641
311
43443736462D393044432D343641442D413234332D3339393432453143343432392F76657274696365732E62696E504B01021400140006080800468AD142F270F13306000000040000003600000000000000000000000000B20E00006662782F45464143443736462D393044432D343641442D413234332D33393934324531
311
43343432392F747269616E676C65732E62696E504B01021400140006080000468AD14200000000000000000000000037000000000000000000000000000C0F00006662782F45464143443736462D393044432D343641442D413234332D3339393432453143343432392F617474726962757465732E62696E504B0102140014
311
0006080800468AD142D5987DFC8F000000410100003600000000000000000000000000610F00006662782F45464143443736462D393044432D343641442D413234332D3339393432453143343432392F6469726563746F72792E786D6C504B01021400140006080800468AD14288436AECFE000000A00100003B0000000000
311
0000000000000000441000006662782F45464143443736462D393044432D343641442D413234332D3339393432453143343432392F7265736F75726365732F636F72652E786D6C504B0506000000000E000E00800400009B1100000000
310
504B03040A0000080000468AD1423DEE336E79000000790000001B0000006175746F6465736B2D64657369676E2D7061636B6167652E786D6C3C3F786D6C2076657273696F6E3D22312E302220656E636F64696E673D227574662D3822203F3E3C666F726D6174733E3C666F726D61743E687474703A2F2F736368656D612E
310
6175746F6465736B2E636F6D2F64657369676E2D7061636B6167652F323030393C2F666F726D61743E3C2F666F726D6174733E504B0304140006080800468AD142D486FD9CA0000000F4000000130000005B436F6E74656E745F54797065735D2E786D6C7D8EC10E82300C865F65E91D8A1E8C310C0EEA1BF002731658846E
310
D98AC1B77784ABF1D8FE5FBFBF75BBCE937A534CCEB38643598122B6FEE978D0B0485F9C41B54DDD7D022595594E1A469170414C76A4D9A4D207E29CF43ECE46F218070CC6BECC4078ACAA135ACF422C856C0E68EA1BF5669944DDD7BCDE7B1F8E415D77AECB980613C2E4AC91FC167A2B244592486606FC29C8FD7F045B9A
310
EF7053A7E60B504B0304140006080800468AD14219D9EB99EC0000007C01000008000000636F72652E786D6C8D904D6EC3201085AF82665B6183FF882D4C94D4EA097A01848983128365A0EAF18B13476A775DCDE8CDFB66468F1FBFE73BFAD2AB37CEF6403302485BE54663A71E62B8E003A0A3E0AB73E1970D9095B3EE61
310
9341F0697571D925E56CD03624D5BA51EFA2F45E0740EA9E9A1EBCBAEA59663286E4F0B76C91EA26279DD15797E018CD889E47CC98F6998BD12B08C6AAB6F9180EB865E41D57A7F380DBA266F834544DCD685DB073CDF30D163C98F9755FAD5A063D8228082D316930659F9475F4D0D1E28DD45D4978BED9FF407119FF0945
310
634359ECEF3E310F82A6471E03C1F32D8B541E41A5BAE5267E00504B0304140006080800468AD14255019EA25F0000007C00000007000000636E782E786D6C4DCB3B0E80201045D1AD90E915ED2CF8AC45050C11660C8261F98AB1B07AC9C97D42D718D865D3E909258CFD00CCE24AC6E326A164D74DC0B4128928FF326038
310
472BA13128B1252AC747C6BAB984FC68F0B87FE8960A5C09FE86CFB69FBA01504B0304140006080800468AD142CBE7755E68010000020300000C0000006662782F636F72652E786D6C8D52ED8E8230107C95A67F2FA51441D4941A3D734F702F50A17244684969898F7FCB87E1BC1863484A33B3B33B3BC0F7B7A646BDB25D
310
657486591062A4746E8A4A9719F6EE423618ED05B7C6B83F651869D9A80C0F3016BCB4C6B733941BED9476806A53A819945DA71C46790D970C77F98F6A6420BD838AEE1AB432BFCA52052C001AEA04EF9C0503681A329C585CCE374E275C70EFAB6266AB02A655974A592CD234DEAEBF4E1BB24DC34F121F8E27B28D92941C
310
4EF13A495912A5C784D3412CB8AB9ABBBBDC2AE954814514B21509D784A5DF2CDDB1CD8E451F61B25B859C0EE50F22DF166F8A7CA5DD2A9AED4EB20E0B064646E2DFB61091439DECC10F159C0E21C26B4CF8316808044276F25CDFF7B802D4ABDC191B035318BF50BDACBD82A9211A1F4E27163A8F0D60B3A77DA2177D5EF7
310
800F287509D6A483EBD9BB613A9FA6CE51B4CA92DEDD9036B691F5626EB2B89CCBA0A7F2DCD4C6BEA3A6F3AA740E930E7FAFF805504B0304140006080800468AD142F54253307D0000009D0000000B0000006662782F636E782E786D6C4DCCD10A83201886E15B91FFDCE52825418D61FCF711CB42663A9C8E5DFE6A74B0A3
310
0F1E3E5E357CB640DE2EBF7C8A1AAE1706C4C57B9A7D5C35D4B2D01EC860544EA9FCDD80C469731A0E06A3D69CEAF3A4D92D530D65D7E0E3E344892DE7AC6BA9951669C77BA437944885108CD971442938344635BFD2BE47D87C01504B0304140006080800468AD1424A66F32B2B01000014020000310000006662782F3946
310
3335353034332D433943462D343538462D414639462D3636363030434444463936352F636F72652E786D6C8D515B6EC32010BC8AC557AA0A1BFC20768489AA443E412F400C715162B07854397EA176A4F62F3F2C9A9D991DEDD2E363BE67DFD23A65740F708E4026F56884D2530F82BFC216644746AD31FE0F0D649ACFB207
310
09068C4ED684658346A3BDD43EA2DA08B981DC39E94136DEE3A7076EFC9233CF79F091E16EF9C2C71B9F648EF3D88E3C469DB73140B60E492F60DD50350DAA2B78EA4E03AC9B76801F433740420842A7F379E848438B55C868084A6C7225621C7555D2BE6A92C48C7A353FE38F56722F056025C2154404E2FD27DE1F707BC0
310
E53B6A0E15A245A2FF138545BC280A4AFBAADCE2AE320718A6C5DA60549870B93FC3C8C762ACCFD2BC9D93E31B602847B8C4B8AD5B5AACD4B880E849EACDD37963E38277B74B64579B31A9192DD28D62F93D60ACE99EEC07504B0304140006080800468AD14255734E365601000033030000300000006662782F3946333535
310
3034332D433943462D343538462D414639462D3636363030434444463936352F636E782E786D6CBD93CD6EC32010845F0571ADFC439C3A518489D4439FA0875E316C121A1B2CC055F3F65D1292E69243A5AA1764CD0E33AB4F986FBFC6817C820FC6D98EB2B2A604AC72DAD87D47E7B82BD6946C05F7CEC53B1B25568ED0D1
310
2453C1F7DECD539634ECE43C445407638F59F410DCEC150494D34D323825070C005BCC28C2D883D6A0C9CD885F3BF0B80A8AFD89C40390D79777E2FA0F5031F02AA5085EA50EC1D3999BEE4C94A84186D0D1A00E30CA52CED16908C752CB284B565EBB1EECF49344D2856BE5EC0D49E51D4D271579A31239F20A878287E891
310
5E36C5D30454C8691A8C9211215767E3C523F86C6C6C97D96B10BC4777B368D76B0C3BCF048F6684EC501E64044DC5A2664D51B7055BBDB1D586AD376CF1543F6F9A9A57C92E78EFDC902F610C783711E56C041BA960BC4AE347F8B28F68E391B5F3A75F804400B9F542E796F1977C58DB2C97FFC8A73ABF6FC4E5F12F10DF
310
504B0304140006080800468AD142441C61CB640700009A1B0000340000006662782F39463335353034332D433943462D343538462D414639462D3636363030434444463936352F6F626A656374732E786D6CED59DD73A33610FF5718FAD23E181BDBC9251D4227B12F379E6BDA9B73EFA60F9E616490891A211849E4E2FEF5
310
5D7D80819804B7E9DB3DD8809056BBBFFDD412FCF29451E71173417276E5FADEC475308BF384B0F4CA2DE56E74E13ABF8401CF73D998E63A0C65F8CA55C36E18A43C2F0B3B94E01D2AA9EC8CDEDEFCE9881833EC3A3145425CB922BEC719F25029F3048B072F411279E9EEC9F33D33B14D36E5A8B8EF102D10C74C02A730CE
310
808A6398F2DB8F13771C0663F53E0CD4BF9D351B346BDE3F6BACA56E7349989088C5CF58EA90990D6269E6CF97EFA76797A3B3F97C369A9F4FFDD1CDEDCD72E4BF9B4D16E78BC5E5F5FB4B606F9BE7D4CA94E002B304F4B777433F18AB37B5E81681635CC7396338D64002545AAC2E4182056CD5806FD27EF495448DD75AC2
310
C6F35CBDB72C3486676D2A7DB38601D1A20B82D8ED2A89AB6B53BE7CFB17082E861825175802B74272D0AE85878357B8E124189BD130D81E7441849321893941D4A164CB1107A5C05435250CCC024B46390707528E92406BCEBC6EDB1678E6EBAE738CCB5D49A9F20C37D48E1581FB61293467E46FCC0FDC3791019E40DA92
310
307961B994FB02BBE16530D68361A02EB3A97D6980747614A5422362DE76045D28D75F2DDDF0E3EDF669ADC2C1F1CD0B9E17984B65744A8F9A2F30647B5528D96DFD419A530B401803AA5D7900E53320FF1B448F032BA0374E9EE64F733B5772C4C42EE719E8C69938A309FC4D1C5FFFABFBC65D30AE17B7B5D78727B8A982
310
EAE2BFE3D996416365F96FC019068F60F0399FD957EB1851B0E73BC2002065240ECD610842FB6EFBE4862B089C10E86115A2A10F2203BB8F701B8C2D9983562AF7B25EC70051BBC76C889200366D91C0468F9E3E40F6E0243EA8A929621FBC676F62AED7CBF5C775C97728C677D6A7977847189190358F33D4C2BC25D103DE
310
7FCB7902823EC77BDDC43BB35B09405B61AE804F2B10D4C361E7D60631AC4B73156E825776002154AE6ED0BF2322C6942286F3B2DAB78E6ECA506B8FB735831B4E0DC4B369C784397E24AAAA00A739CC68310A793FE6A45020BAE10723591D34BD1EE9BEAC7E038BACE7F7CC5A3108BD0CD13F74D03A8243CBB22BA42D10B5
310
C0DB43388F739AF368BB8F4CA473A1960036DADEF2B5451462BD5192A2021EA4FDAE0A29A991364AC86E570A88AB4758FCBA5A34CD61E2CDFC33A7F9DF71C639445BF05DC4ADDF75F6884886521CED50D2B75D73B79AB6D0247B4873BCA320177924721F21194D129C9E02CD49C42FDF947A4A732108C302F2D551F09B684C
310
3C0824469B15CB4AAB1DA08988322C113D050145A6075C9D76748D1B43E9F03A8FB5F5BEA4B126D1FFC92238825A32671181521472C8AB8CFBDE19C49036BA06E50EBE606D156D2D062DA18488F7D1374CD27B790AEA867C0FEE311C494A19E5058AC1AC07907DE62B4AA91DDEB7287E50F9238A4BFA56062230DD4584D232
310
8BE047189C3C86B8761D985E44A141DCC43E893328CA902CF9904DCECF26CFF631354337043636DA110A613BCA50D1837A2B20EA7AC4A9C1B7D47B94BA2DB32242595EB24186E2CDBADE64C977D5AAC80EE457958A503656842DC130204CD659B58AD960EA3AB0821BE940B58F04CA0A6A4E61AF241EBFF6264DB977036EFD
310
F46D37C8A0F0EBD15E33A2CE2B182C8FADC2407C4332BE77C3B5BE8E6EA0FE4E707248F555ADD9AC00013115C94B4EAC8ABEACA0BCB1359A1BDE2129361F4CD6ADAE5F561E743F8231AC81DAA55EB85240679849A42A933B75433F2308C12D1A667CA572EA2954AE9344578D88DE923E75B6CA88D6A619F18A7BCCF20C7E6C
310
43584CCB046F50221EA23B49A33551AC5B29BD8C5418BF28E0EF1FD61D78606480489F548187BF75D6DAD1852A978E1291F765B6658840106C89961ADD78054BAD462A2DD75775A680BA0B0CCCAA78FEFD64D16C477C3F59A4D630FED3C9E266FF2BDA37FB228D741E2BBB3EE91850E72745E52D8E01BAED5053ADB38849E6
310
567EEB4C1104C52ACA0FAEC6AAA06108F671FCAFB3765F1634DB75F83F2D6BFBCF2A8E93B24A6BB2EA521DA95C57CD1C36B9B8B8B93E5F5E8C6E1767D3D1FCDDF5EDE86636BD1C2D6E2F96D3C57C7976BEBCA9D1D48E1A067530D3B90B9E4D50AB86D593C500BAB222A72481D37CE2A41862BE8433FD80F639CFB080E4D96C
310
7627B6293F60F5A3E9734AB4A5B8E2E41E4183980A48EB805119CBF6B8F303B426251CB4AF5C681A790FF067ADD27520F35CB9D02A9024C6C2DB429B4935F4347148B93AF75B62800F62A94A896651FD5CAF52D8B4C27F3D65481AB072B57A1850B815D0FD6A7528346F96A7F824C12B761C24E1765B4AA8D68C2C87815A18
310
BDCD41FD46364AD883DDFA095CF765B17C4FCF692132E893C18B4660A88E24E2A9EE772BC62C4BD7CB4F63E8B339ABDF9D829629E87238A511C760CCA52AA8C08AC02A2CCD024930D5C5CF9B4F3C874F3C99A3AB22E7C7A78BF39F368B3CCB72668636D7702A4BE04391B3BE87CF3EC9068A07AC9AEB62339DF8D38D6E6ADB
310
3E7BB445027BAA2A8281AA985082744C0EECF25983CAB62FC74A159DE9ABA563832834038C1D3DEBF19A8F5C0EF890FA9CA23C46FB7925ED8B7DEDB19E0A36C1A1231DFE03504B0304140006080000468AD142000000000000000000000000350000006662782F39463335353034332D433943462D343538462D414639462D
310
3636363030434444463936352F76657274696365732E62696E504B0304140006080800468AD142F270F1330600000004000000360000006662782F39463335353034332D433943462D343538462D414639462D3636363030434444463936352F747269616E676C65732E62696E636660600000504B0304140006080000468A
310
D142000000000000000000000000370000006662782F39463335353034332D433943462D343538462D414639462D3636363030434444463936352F617474726962757465732E62696E504B0304140006080800468AD142D5987DFC8F00000041010000360000006662782F39463335353034332D433943462D343538462D41
310
4639462D3636363030434444463936352F6469726563746F72792E786D6C858F410EC2201045AF4266AF15DDB800BA74E7C21B903225242D6328188F2FA5C4183471359997F9FF81E89FF3C41E1816475E02DF1F80A11FC8386F25A438EECEC07A250251FC3803E6F58C12560C4AD840E95E91C151A72936F496F35732D860
310
FE635F62C8F2DA16B505C545B74125BAA2FA9E05D7CC053D063734D5C7665FD55B6B8D15D5E9BFEAFD8490FFA45E504B0304140006080800468AD142E9B87FE9FE000000A00100003B0000006662782F39463335353034332D433943462D343538462D414639462D3636363030434444463936352F7265736F75726365732F
310
636F72652E786D6C8D504B6E833010BD0A9A6D65C010E210194749514FD00B5866925A0936F2A7EAF16B072AB5BB6E6646EFA3797AFCF4353F8A4F745E5B33002D6B28D0283B69731B20862B39407112DC591B7EC9A03072C601320C82DF9C8DCB06296B029A90506327DC40E93D0628D4231D0378F581B32C650C49E1EFE5
310
22D55DDEB0A465A2934E701F5C0A50AC4FF204E1D0DBE8147A5EADACE031EA69D3E829FDD4578D0E0463BB7EFF3632D2B3FA95ECCE9791F44DC7C879DCED3B46BB865D3A5E65B3E041CF3F199543197002D1D4B425F59E50F64ED9911E8EB479A9BB635BF32ACBFF98E232FDD314B5096DB3C55D6D1E044D419E84E055EE2B
310
AD679969E76EC537504B010214000A0000080000468AD1423DEE336E79000000790000001B00000000000000000000000000000000006175746F6465736B2D64657369676E2D7061636B6167652E786D6C504B01021400140006080800468AD142D486FD9CA0000000F40000001300000000000000000000000000B2000000
310
5B436F6E74656E745F54797065735D2E786D6C504B01021400140006080800468AD14219D9EB99EC0000007C010000080000000000000000000000000083010000636F72652E786D6C504B01021400140006080800468AD14255019EA25F0000007C000000070000000000000000000000000095020000636E782E786D6C50
310
4B01021400140006080800468AD142CBE7755E68010000020300000C00000000000000000000000000190300006662782F636F72652E786D6C504B01021400140006080800468AD142F54253307D0000009D0000000B00000000000000000000000000AB0400006662782F636E782E786D6C504B0102140014000608080046
310
8AD1424A66F32B2B010000140200003100000000000000000000000000510500006662782F39463335353034332D433943462D343538462D414639462D3636363030434444463936352F636F72652E786D6C504B01021400140006080800468AD14255734E3656010000330300003000000000000000000000000000CB0600
310
006662782F39463335353034332D433943462D343538462D414639462D3636363030434444463936352F636E782E786D6C504B01021400140006080800468AD142441C61CB640700009A1B000034000000000000000000000000006F0800006662782F39463335353034332D433943462D343538462D414639462D36363630
310
30434444463936352F6F626A656374732E786D6C504B01021400140006080000468AD1420000000000000000000000003500000000000000000000000000251000006662782F39463335353034332D433943462D343538462D414639462D3636363030434444463936352F76657274696365732E62696E504B010214001400
310
06080800468AD142F270F13306000000040000003600000000000000000000000000781000006662782F39463335353034332D433943462D343538462D414639462D3636363030434444463936352F747269616E676C65732E62696E504B01021400140006080000468AD14200000000000000000000000037000000000000
310
00000000000000D21000006662782F39463335353034332D433943462D343538462D414639462D3636363030434444463936352F617474726962757465732E62696E504B01021400140006080800468AD142D5987DFC8F000000410100003600000000000000000000000000271100006662782F39463335353034332D4339
310
43462D343538462D414639462D3636363030434444463936352F6469726563746F72792E786D6C504B01021400140006080800468AD142E9B87FE9FE000000A00100003B000000000000000000000000000A1200006662782F39463335353034332D433943462D343538462D414639462D3636363030434444463936352F72
310
65736F75726365732F636F72652E786D6C504B0506000000000E000E0080040000611300000000
  0
XRECORD
  5
17
102
{ACAD_REACTORS
330
12
102
}
330
12
100
AcDbXrecord
280
     1
270
     1
271
     1
  0
XRECORD
  5
16
102
{ACAD_REACTORS
330
12
102
}
330
12
100
AcDbXrecord
280
     1
270
     1
271
     1
  0
XRECORD
  5
18
102
{ACAD_REACTORS
330
12
102
}
330
12
100
AcDbXrecord
280
     1
270
     1
271
     1
  0
XRECORD
  5
15
102
{ACAD_REACTORS
330
12
102
}
330
12
100
AcDbXrecord
280
     1
270
     1
271
     1
  0
XRECORD
  5
24
102
{ACAD_REACTORS
330
22
102
}
330
22
100
AcDbXrecord
280
     1
270
     1
271
     1
  0
XRECORD
  5
23
102
{ACAD_REACTORS
330
22
102
}
330
22
100
AcDbXrecord
280
     1
270
     1
271
     1
  0
XRECORD
  5
BA
102
{ACAD_REACTORS
330
22
102
}
330
22
100
AcDbXrecord
280
     1
 70
     1
 90
1959938040
 71
     1
  1
468E9B9F-EF3E-4DBC-B06C-79A67BD03EFD
311
504B03040A0000080000448AD1423DEE336E79000000790000001B0000006175746F6465736B2D64657369676E2D7061636B6167652E786D6C3C3F786D6C2076657273696F6E3D22312E302220656E636F64696E673D227574662D3822203F3E3C666F726D6174733E3C666F726D61743E687474703A2F2F736368656D612E
311
6175746F6465736B2E636F6D2F64657369676E2D7061636B6167652F323030393C2F666F726D61743E3C2F666F726D6174733E504B0304140006080800448AD142D486FD9CA0000000F4000000130000005B436F6E74656E745F54797065735D2E786D6C7D8EC10E82300C865F65E91D8A1E8C310C0EEA1BF002731658846E
311
D98AC1B77784ABF1D8FE5FBFBF75BBCE937A534CCEB38643598122B6FEE978D0B0485F9C41B54DDD7D022595594E1A469170414C76A4D9A4D207E29CF43ECE46F218070CC6BECC4078ACAA135ACF422C856C0E68EA1BF5669944DDD7BCDE7B1F8E415D77AECB980613C2E4AC91FC167A2B244592486606FC29C8FD7F045B9A
311
EF7053A7E60B504B0304140006080800448AD142C3897C19EB0000007C01000008000000636F72652E786D6C8D90416EC3201045AF82665B6183491CDBC244B5D59EA01740405C94182C03558F5F9C3852BBEB6A467FFE9B197D7EFE9E6FE8CBACC17AD7032D0820E394D7D64D3DA478C10DA0B3E0ABF7F1970D9093B3E961
311
9341F069F569D925E55D342E66D5796D76518660222075CB4D0F417D9A591632C5EC08D76291EA2A2753D06797E194AC468F2356E77DF662CD0A820DAFE3480E237E1F870A1F5AC6F0C08E356E68D5BCD1535B53DAF27283058F767EDE57AB91D1681015A10C931AD3D3073D75B4E948FB428E1D23BCDCEC7FA0B4E87F42C9
311
BAC8AAFDDD071640D0FCC87D2078B96591CB3DA85CB7DCC40F504B0304140006080800448AD14255019EA25F0000007C00000007000000636E782E786D6C4DCB3B0E80201045D1AD90E915ED2CF8AC45050C11660C8261F98AB1B07AC9C97D42D718D865D3E909258CFD00CCE24AC6E326A164D74DC0B4128928FF32603847
311
2BA13128B1252AC747C6BAB984FC68F0B87FE8960A5C09FE86CFB69FBA01504B0304140006080800448AD142E3E8FA4368010000020300000C0000006662782F636F72652E786D6C8D525B6E833010BC8AE5DFCA18431E1019470D6A4FD00B38E05014B091B1518EDFE511D154515421196B66677776801F6F6D830665FBDA
311
E80CB320C448E9C294B5AE32ECDD8524181D05B7C6B85F651869D9AA0C8F3016BCB2C6770B5418ED9476806A53AA05947DAF1C464503970CF7C5B76A6520BD838AFE1A74B2B8CA4A052C001AEA04EF9D0503681E329E585CCE374E675C70EFEB7261EB12A6D5975A592CE2D37B9E879B9C7CE6A7886CD23826A778BB23098B
311
920FB64F778CA59C8E62C15DDDDEDD155649A74A2CA290C524DC11B6FF62FB034B0E61FA166E0F71C8E958FE20F25DF94F91AFB58BA3C5EE2CEBB160606422FE6C0B1139D4CB01FC50C1E91822BCA6841F838640206427CFCD7D8F2B40832A9CB11B604AE3576A908D57303544D3C3E9CC42E7A9016CF6B44FF4A2CFEB1EF0
311
01A5AEC09A74703D7B374EE7F3D4258A4E5932B81BD2C6B6B259CDCD16D7731DF4545E98C6D8FFA8E9B22A5DC2A4E3DF2B7E00504B0304140006080800448AD1421849D96E7D0000009D0000000B0000006662782F636E782E786D6C4DCCD10A83201805E05791FFDEF527AE1CA841A3DE239685CC349C8E3DFE6C74B1ABC3
311
F9381CD97D3647DE26BE6CF00AEA0B0231FE1166EB5705392D5400E9B48C21A4BF19103F6D46C1C1A0E51A43DE4F9ACD3265978A3AEB9F2736D761140C6F54887EA49C23D21E4BADF1DED6AC61D80E1C2A2DABDF53C9E3587F01504B0304140006080800448AD142FEFAC8402A01000014020000310000006662782F363545
311
46383230392D383842462D343430302D423030392D3130433731323632303745342F636F72652E786D6C8D515B6EC23010BC4AE42FAA2AC93AE405728C440527E805426C520B62477E541CBFEB2648ED1F3F5E7B3C333BDA6587C7744FBEA575CAE88ED00C4822F56084D2634782BFA62D490E9C5963FC1F1A49743FC98E44
311
9870365A13E6151A8CF6527B44B51172057BE7A427C970C74B47DCF025A73EEB834786BB65733FDCFA516634C36FE471E6BCC500C9D2249E84D7D5E9DC16B04BDBF6784ECB12203D023E297C34B4A80B684E25CB1721672128B1CA95C038EAAAA47DD5248A39F36A7AC61FACECBD14841740B729D4296D3E69B3A7ED1E76EF
311
50EDB7C0F248FF270AB378511494F6DB628DBBC81CE194E5CB0767C284CBFD19463E66637D12FB6D9C1CDE08870C286DCAB242C942C501A0675DAE9ECE1B8B03DEDC2EC8A6D5625C979CE57147587E178835EE93FF00504B0304140006080800448AD14239FBB9FE4F01000033030000300000006662782F36354546383230
311
392D383842462D343430302D423030392D3130433731323632303745342F636E782E786D6CD593CD6E022114855F85B06DE6876AB5350C265DF409BAE816E1AA540626FC34F5ED7B51B46E5C74D90D999C7B38E7E60BC3D7DFA3255F10A2F16EA0ACED2901A7BC366E37D09CB6CD33256BC183F7E9C6468993230CB4C854F0
311
5DF079AA9286ADCC36A16A8D3B543140F439288828979BC47A252D06806B328A306E406BD0E46AC4AF2D045C05C5CD91A43D90B7D70FE2379FA052E45D4911BC2B1D8297B336DD98285156C638D0A8F630CA56E6E435C443AB65922D6B2F5D7776FA4D22E5C2A53207434AF940CB4945DDA8458EBCC3A1E03105A4574DE938
311
0115729AAC513221E4EE643C7B04CFC6A5C5BC7A0D820FE8668BD97C8E61A799E0C98C501D2A804CA0A978ECD9ACE9170D5BBEB3E58A3DAFFA9787FE6935EB7957EC826FBCB7F512C640F01351DE2570890AC6BB32BE87AFFA88360159FB70FC034804505BCF74AE19FF994F777ADF882BE05F207E00504B03041400060808
311
00448AD14269799385A505000080100000340000006662782F36354546383230392D383842462D343430302D423030392D3130433731323632303745342F6F626A656374732E786D6CAD57DB6EDB3810FD1541FBB2FBE0BB9BC60B45456CC78551A42D6AB4D807030625518A3694289054EAECD7EFA148C9926327DE455F2C
311
8B1A0E67CE9CB9D0FBB0CF98F344854C797EE38EFA43D7A179C8A3344F6EDC52C5BD6BD7F9E07B8273D512739D9C64F4C6D5CBAEEF258297855D8A684C4AA68E5657F3BF1C19D29CBA4EC8889437AE0C1F6846FAA4543CA2F2B11F1145FA49BCEF8FFA46B0AB3611A47838525A104173054BB19E438B638C1A755F87EEC0F7
311
06FABBEFE95F2B35392F35A8FCE99E9FE652913C7C71D8919AC968BABC1BBF9BF5DE4DA793DEF46A3CEACD57F3656FF47E325C5C2D16B3DBBB190E964A4093B544D0D8F53F021B9186DEC07CF2BD32CDD5646C456C8006823EA53A52AE3F7646DEC0C834DE59274F991FF23CA7618515D0A8FCB3AA235AD03C42CC532A6159
311
0BA161F775A4716C7D9EE8777B647BF93204DA3B5A8A6ADBEB67DB521EFC0D17E4250C12926A061A2CADA386ABC303C201E7CC7E4BA5931145454A98C3D24010F1ECFA10D522BED751A3992C7436680F5C1F51309FBB74411ABDCDF35356C625639AC6AE5F65C10EB94295AC2C4BFFA1E2607D1B19D8845869365C5B87D473
311
415D7F6628727DC42603A413339220E47053EF9C8C8F1C5DE83C5D2F5DFFD32AD86F74EE9E3EBC10BCA04269FA805A75E0EAA746C9DA34BA28727A837B64CA01946F40FE3352FD600AE226D2FD743FB5A72841721973912136CED0E90DF1337446D5AFFEDFFAE70D9ACDDDE89DC313C1D650FD023CBB3EB463D982D3F79E40
311
782E26D6B54D4818CAC67D9A03204D1287712CA10EC7C1DEF5D7A872A8CAD845983F82CB30F7097FBD81558342519DD47AE6C0F2A82C5E50A0015BC5489861C86F0D3CC4E94539AB0EB662E7E07DF74BE87ABBDC7CDA94222621BDB739BDA4719AA70A2DEEC09BB6411DCC3B1E3DD2E79F5C4470F425DE9B36DE993D4A026D
311
8DB9063EA96BBA7E399CDC3920C4BE84EB72E3BD71029CD08DB5A5FF3E9521658CE49497F5B9AFF60FB40D03B14E76CDE4A6C11C1A0B4863BE1CE5209A7428D24283D874ABA668F6CF78F77DFD198C843CE3016107A1E0507A43CEB8D805CF3B53954E22FDA34B6D0BC1406B01DBAB1CA9D3DF62BE8BD2382E256AE009587F
311
AC17EDD0E9AA800A516B35C93285FBC82D222C676BBD68D682A091F27C97A26D22ED4E1ED0D60F442D012A85E72C9694C5BB94B132DBC5294333DA65A43803C7FFB73F28B36247325EE6EA8CEE8EE9680E5DDB3BE4953F890A1F5C7F533D7B7394DE884687307784752B39815527B4D3ABEBBBD97CB6EADDAD2677BDE972BE
311
E8CD87578BDEFBD9EDD5FBF97238B95B2DEB3819E5BE57779A7642234AE86C5E29521BBEEF6BA48FAD01AE7F4F94DC7E34D9593FBFAFFB1885BD01F6A05D361B6FA3278C7D347A5BC141F2A4A27556309AD15C119D42F7FA0FFB463066748C31EBEB8C24F4022D5F3E6E8E9CC1CA05FBBEEA74A73F8FF6DAD5854EC8934AD4
311
4399053949D9D1C6C420D92FF2C4E257C7A4799A3E53BFEA371B180CA692B33442198C9C84F28C2A14C30B7A90C8A804F5DA237D64AF1E17EC7E3203A22201A3B5250F04333293480B50AB0C5577DDF90D339D1EAB6E5C74DBFE237E6CA5701D70E6C6C58CAED290CA7E80FEAC27A14A39B8D41EE431F7933C6118B5CDA6E6
311
BDD9A5B1E974E446E492F1C9FA652AB8750065A4C0D8807908D1A98CF1BDCA36FB3DFC4F8ED7E63844E16F50AAC697C342E34C750C52D438652F0B98611EEDD17B24EAEB6E8DFA954C07918B2E59AF92C068ED292292EAA2A0EDB326DD2EBF0E30A038EB2F4EC1CA04B1BC5C534F5090B9D4090E16811556674114A8BAF873
311
FB55705C643367958202CEEFFBEBAB3FB60B9E653C374BDB5B7B1D76360FB8DC465B1407AA6F25723B1E8EC6DBEA36602F28BB8048DA27917CC402222BD206E84EF8C14B7365441F321F1AB9810EC51143D74BC736B629945ABAB46BAB060773474E1DE490BE51EA8C690B14AF5E080695284C1018E5FD7F01504B03041400
311
06080000448AD142000000000000000000000000350000006662782F36354546383230392D383842462D343430302D423030392D3130433731323632303745342F76657274696365732E62696E504B0304140006080800448AD142F270F1330600000004000000360000006662782F36354546383230392D383842462D3434
311
30302D423030392D3130433731323632303745342F747269616E676C65732E62696E636660600000504B0304140006080000448AD142000000000000000000000000370000006662782F36354546383230392D383842462D343430302D423030392D3130433731323632303745342F617474726962757465732E62696E504B
311
0304140006080800448AD142D5987DFC8F00000041010000360000006662782F36354546383230392D383842462D343430302D423030392D3130433731323632303745342F6469726563746F72792E786D6C858F410EC2201045AF4266AF15DDB800BA74E7C21B903225242D6328188F2FA5C4183471359997F9FF81E89FF3
311
C41E1816475E02DF1F80A11FC8386F25A438EECEC07A250251FC3803E6F58C12560C4AD840E95E91C151A72936F496F35732D860FE635F62C8F2DA16B505C545B74125BAA2FA9E05D7CC053D063734D5C7665FD55B6B8D15D5E9BFEAFD8490FFA45E504B0304140006080800448AD142D0225281FE000000A00100003B0000
311
006662782F36354546383230392D383842462D343430302D423030392D3130433731323632303745342F7265736F75726365732F636F72652E786D6C8D504B6E833010BD0A9A6D65B0714220328E0A6A4FD00B586642AC043BF2A7EAF16B122AB5BB6E6646EFA3797AE2F4B5DC8A4FF4C138DB032B291468B59B8C9D7B48F1
311
4C5A284E5278E7E22F1914562DD8C30A8314B377E9BE41DAD9883666D4BA0937508580110A7DCB470F415F7051A54A312BC2B5BC2B7D553396ACCC74D64911A2CF018AE7937582F4185CF21A83A89EAC14299969D39829FF3467831E241F5EC791EE06F23E0E35D9759C9381EF1BD2B2BA7D6387AE61AC13D56A96229AE527
311
A3F6A8224E206BCA38A10D61870F7638B2F648BB17BA3F722AAA55FEC794EED33F4DC9D8C8EB2DEED31640B21CE4414851AD7DE5F52833EFB55BF90D504B010214000A0000080000448AD1423DEE336E79000000790000001B00000000000000000000000000000000006175746F6465736B2D64657369676E2D7061636B61
311
67652E786D6C504B01021400140006080800448AD142D486FD9CA0000000F40000001300000000000000000000000000B20000005B436F6E74656E745F54797065735D2E786D6C504B01021400140006080800448AD142C3897C19EB0000007C010000080000000000000000000000000083010000636F72652E786D6C504B
311
01021400140006080800448AD14255019EA25F0000007C000000070000000000000000000000000094020000636E782E786D6C504B01021400140006080800448AD142E3E8FA4368010000020300000C00000000000000000000000000180300006662782F636F72652E786D6C504B01021400140006080800448AD1421849
311
D96E7D0000009D0000000B00000000000000000000000000AA0400006662782F636E782E786D6C504B01021400140006080800448AD142FEFAC8402A010000140200003100000000000000000000000000500500006662782F36354546383230392D383842462D343430302D423030392D3130433731323632303745342F63
311
6F72652E786D6C504B01021400140006080800448AD14239FBB9FE4F010000330300003000000000000000000000000000C90600006662782F36354546383230392D383842462D343430302D423030392D3130433731323632303745342F636E782E786D6C504B01021400140006080800448AD14269799385A50500008010
311
00003400000000000000000000000000660800006662782F36354546383230392D383842462D343430302D423030392D3130433731323632303745342F6F626A656374732E786D6C504B01021400140006080000448AD14200000000000000000000000035000000000000000000000000005D0E00006662782F3635454638
311
3230392D383842462D343430302D423030392D3130433731323632303745342F76657274696365732E62696E504B01021400140006080800448AD142F270F13306000000040000003600000000000000000000000000B00E00006662782F36354546383230392D383842462D343430302D423030392D313043373132363230
311
3745342F747269616E676C65732E62696E504B01021400140006080000448AD14200000000000000000000000037000000000000000000000000000A0F00006662782F36354546383230392D383842462D343430302D423030392D3130433731323632303745342F617474726962757465732E62696E504B01021400140006
311
080800448AD142D5987DFC8F0000004101000036000000000000000000000000005F0F00006662782F36354546383230392D383842462D343430302D423030392D3130433731323632303745342F6469726563746F72792E786D6C504B01021400140006080800448AD142D0225281FE000000A00100003B00000000000000
311
000000000000421000006662782F36354546383230392D383842462D343430302D423030392D3130433731323632303745342F7265736F75726365732F636F72652E786D6C504B0506000000000E000E0080040000991100000000
310
504B03040A0000080000448AD1423DEE336E79000000790000001B0000006175746F6465736B2D64657369676E2D7061636B6167652E786D6C3C3F786D6C2076657273696F6E3D22312E302220656E636F64696E673D227574662D3822203F3E3C666F726D6174733E3C666F726D61743E687474703A2F2F736368656D612E
310
6175746F6465736B2E636F6D2F64657369676E2D7061636B6167652F323030393C2F666F726D61743E3C2F666F726D6174733E504B0304140006080800448AD142D486FD9CA0000000F4000000130000005B436F6E74656E745F54797065735D2E786D6C7D8EC10E82300C865F65E91D8A1E8C310C0EEA1BF002731658846E
310
D98AC1B77784ABF1D8FE5FBFBF75BBCE937A534CCEB38643598122B6FEE978D0B0485F9C41B54DDD7D022595594E1A469170414C76A4D9A4D207E29CF43ECE46F218070CC6BECC4078ACAA135ACF422C856C0E68EA1BF5669944DDD7BCDE7B1F8E415D77AECB980613C2E4AC91FC167A2B244592486606FC29C8FD7F045B9A
310
EF7053A7E60B504B0304140006080800448AD14242F7DB2FEC0000007C01000008000000636F72652E786D6C8D90416EC3201045AF82665B61036E62C7C244B5D39CA01740405C94182C03558F5F9C3852BBEB6A467FFE9B197D7EFC9E6EE8CB2CC17AD7012D0820E394D7D68D1DA478C10DA0A3E08BF7F1970D909393E960
310
9541F071F169DE24E55D342E66D5796D36518660222075CB4D07417D9A491632C5EC08D76296EA2A4753D06797E194AC468F2356E77DF662CD02A2694E6FA4D90DF87C6204BF927EC087F77AC0FD99B181D464CFFA9A972B2C78B4D3F3BE5A8C8C468360845698EC31AD3F68DDD2A6258717B26B2BC2CBD5FE074AB3FE2794
310
AC8B15DBDE7D600104CD8FDC0782976B16B9DC83CA75CD4DFC00504B0304140006080800448AD14255019EA25F0000007C00000007000000636E782E786D6C4DCB3B0E80201045D1AD90E915ED2CF8AC45050C11660C8261F98AB1B07AC9C97D42D718D865D3E909258CFD00CCE24AC6E326A164D74DC0B4128928FF326038
310
472BA13128B1252AC747C6BAB984FC68F0B87FE8960A5C09FE86CFB69FBA01504B0304140006080800448AD14296041BD068010000020300000C0000006662782F636F72652E786D6C8D52ED8E8230107C95A67F2FD0821FA02935279E4F702F50A1728DD092D2121FFF960FE37931C69094666667777680EDAE4D8D7A693B
310
657486A390622475614AA5AB0C7B770E528C769C5963DC9F328CB46864860718735659E3DB192A8C76523B40B529E50C8AAE930EA3A2864B86BBE247362214DE414577095B515C4425C328041AEA38EB9C0503681A329C989F4F5746269C33EF5539B3AA8469EAACA4C53C4D0F9F345DE5C1F110D36049F779B0F94AF2607F
310
8CE39C26741DEF13460631674E3537778595C2C912F398468B80AE8328F98E926D946EE9E683AEB60BCAC850FE20F26DF9A6C82BED16F16C7792759847606424FE6D0B1139D4891EFC10CEC81022BCC6841F8386402064274EF56D8F0B40BD2C9CB14B604AE3EF542F6A2F612A45E3C3C8C442E7B1016CF6B44FFCA2CFEB1E
310
F00185AEC09A70703D79374C67D3D4398A56DAA07757A48D6D447D373759BC9FF7414FE585A98D7D474DE655C91C2619FE5EFE0B504B0304140006080800448AD1429B38EE547D0000009D0000000B0000006662782F636E782E786D6C4DCCD10AC2201805E05791FFDE9664CB813ADA6CEF319A1B92F30FD3E8F19BB18BAE
310
CEE1E37064FB593D79DBF8721814B0C311880D779C5C5814E4345301A4D53222A6BF199030AE564161D07289989F3B4D761EB34F9B7A171E3B0E1D1367D61B7ABD988EF29330B4E94B3382D7EC5637820F506959FD9EB62CC7FA0B504B0304140006080800448AD142EF87D35E2B01000014020000310000006662782F4642
310
3138353143442D413744422D343338442D394344422D3444383436314536393834462F636F72652E786D6C8D515B6EC32010BC0AE22B55651B62C78F0813357173825E8000495062B07854397EA176A4F62F3F2C9A9D991DED92DD63BC836F699D32BA8738471048CD8D50FAD2C3E0CF590BC18E126B8CFF438340B351F630
310
C190928B35615A206EB497DA47541B21179039273D04FC1E3F3D74FC2A4796B3E023C3DDF289F11BBBC81CE7B11D7994386F6300300F492FA4C73D6E37F830641FCDB0CFAAB21DB2EE907E435BD5F8B3EEDAEA488A594849084A2C7225621C7556D2BE6A92C49478353EE3732B999702D235C26586EA0C375FB8D9E2768BBA
310
77B4D996881489FE4F1426F1A22828EDCBF512779639483129E60625C284D3FD19463E26633D48F3564EF23748518EF01A97356E483153E302A2675D2D9ECE1B1B17BCBA9D22BB5C8CEB8A9222DD2896DF03C69AEE497F00504B0304140006080800448AD1425F5C76E95701000033030000300000006662782F4642313835
310
3143442D413744422D343338442D394344422D3444383436314536393834462F636E782E786D6CBD93CD6EC32010845F0571ADFC439C3A698489D4439FA0875E316C121A1B2CC055F3F65D1292E6D243A5AA1764CD0E33AB4F986F3FC7817C800FC6D98EB2B2A604AC72DAD87D47E7B82BD6946C05F7CEC53B1B25568ED0D1
310
2453C1F7DECD539634ECE43C445407638F59F410DCEC150494D34D323825070C005BCC28C2D883D6A0C9CD885F3BF0B80A8AFD89C4039097E737E2FA775031F02AA5085EA50EC1D3999BEE4C94A84186D0D1A00E30CA52CED16908C752CB284B565EBB7ED8E93B89A40BD7CAD91B92CA3B9A4E2AF2462572E4150E050FD123
310
BD6C8AA709A890D33418252342AECEC68B47F0D9D8D82EB3D720788FEE66D1AED718769E091ECD08D9A13CC8089A8A45CD9AA26E0BB67A65AB0D5B6FEAA787FA71D3D4BC4A76C17BE7867C0963C0BB89286723D84805E3551AFF842FFB88361E593B7FFA054804905B2F746E197FC987B5CD72F98F7CAAF3FB465C1EFF02F1
310
05504B0304140006080800448AD1420A8ED8BA62070000991B0000340000006662782F46423138353143442D413744422D343338442D394344422D3444383436314536393834462F6F626A656374732E786D6CED595B73A33614FE2B0C7D691F8C4DEC64930EA193D849C6B393DD9D7577A70F9E616490891A211849E4D25F
310
DFA30B18884970377DDB071B10D2D139DFB9EA10FCF19451E70173417276EEFADEC475308BF384B0F4DC2DE57674EA3A7F8401CF73D998E63A0C65F8DC55C36E18A43C2F0B3B94E02D2AA9EC8C5E5FFEE5881833EC3A3145429CBB22BEC319F25029F3048B7B2F411279E9F6C9F33D33B14D36E5A8B8EB102D10C74C02A730
310
CE808A6398F2DB8F13771C0663F53E0CD4BF9D351D346BD63F6BACA56E7349989088C52F58EA90990E6269EACF165747C767A3E3D96C3A9A9D1CF9A3CBEBCBC5C8FF309DCC4FE6F3B38BAB33606F93E7D4CA94E002B304F4F7EC867E30566F6AD12D02FBB88E73C670AC8104A8B4585D82040BD8AA01DFA4FDE82B891AAFB5
310
848DE7997A6F59680C4FDB54FA660D03A2451704B1DB551257D7A67CF9E66F105C0C314A2EB0046E85E4A05D0B0F07AF70C3493036A361B0D9E982082743127382A843C986230E4A81A96A4A189805968C720E0EA41C2581D69C79DDB62DF0CCB75D671F97DB9252E5196EA81D2B02F7C35268CEC83F98EFB86F22033C81B4
310
2561F2D472299F0BEC8667C1580F8681BA4C8FEC4B03A4B3A528151A11F3B623E85CB9FE72E1861FAF374F2B150EF66F5EF0BCC05C2AA3537AD47C8121DBAB42C96EEB0FD29C5A00C21850EDCA1D285F01F94F103D76AC80DE38799A3DCDEC5CC91113DB9C67A01B67E28C26F037717CFDAFEE1B77C1B85EDCD65E1F9EE0A6
310
0AAAD31FC7B32D83C6CAF2DF80330C1EC0E0733EB5AF5631A260CFB7840140CA481C9AC31084F6EDE6C90D97103821D0C32A44431F4406761FE036185B323BAD54EE65BD8E01A2768FE91025016CDA22818D1E3DDD40F6E024DEA9A929621FBCC7EF62AE178BD5C755C9B728C6B7D6A717784B18919035F733D4C2BC25D13D
310
7E7ECC790282BEC47BD5C43BB35B09405B61AE804F2B10D4C36EE7D60631AC4B73156E823776002154AE6ED0BF2522C6942286F3B2DAB78E6ECA506B8FB735831B1E1988A7471D13E6F881A8AA029C6637A3C528E4FD98934281E8863746B23A687A3DD27D5B7E028BACE7F7CC5A3208BD0CD13F75D0DA8343CBB22BA42D10
310
B5C09B5D388F739AF368F31C9948E7422D016CB4BDE57B8B28C47AA32445053C48FB5D155252236D9490EDB6141057F7B0F87D396F9AC3C49BFAC74EF3BFE38C3388B6E0BB885BBFEBEC11910CA538DAA2A46FBBE66E356DA149F690E6784B412EF240E47384643449707A083407113F7B57EA29CD85200C0BC8577BC16FA2
310
31F12090186D562C2BAD76802622CAB044F4100414991E7075DAD1356E0CA5C3DB3CD6D6FB9AC69A44FF278BE0086AC99C45044A51C8216F32EE7BC71043DAE81A943BF882B555B4B518B48412227E8E1E3149EFE421A81BF23DB8C77024296594172806B31E40F685AF28A57678DFA0F85EE58F282EE97B1988C0741B114A
310
CB2C821F6170F218E2DA75607A1585067113FB24CEA02843B2E4433639399EBCD8C7D40CDD10D8D8684B2884ED2843450FEAAD80A8EB11A706DF52EF51EAA6CC8A086579C906198A37ED7A9325DF55AB223B905F552A42D95811B604C380305967D52A6683A9EBC00A6EA403D57324505650730A7B23F1F8B53769CABD1B70
310
EBA7EFBB4106855F8FF69A117556C160796C1506E211C9F8CE0D57FA3ABA84FA3BC1C92ED557B566B30204C454242F39B12AFAB684F2C6D6686E788BA458DF98AC5B5DBF2D3DE87E04635803B54BBD70A980CE3093485526B7EA867E4510825B34CCF852E5D443A85C2489AE1A11BD267DEA6C9511AD4D33E2157798E519FC
310
D89AB09896095EA344DC47B792462BA258B7527A19A9307E55C0CF37AB0E3C303240A42FAAC0C38F9DB57674AECAA5BD44E45D996D182210045BA2A546375EC152AB914ACBF5559D29A0EE0203B32A9EFD3C5934DB113F4F16A9358C1F3B59D07C83E82EDA34B279ACCCFAA053409D9E1495F73805E8AE434DB54E2226975B
310
F1AD2F451013AB203FB818AB628621D8C7F17F4EDA7D49D06CD7E1FFB0A4EDBF28380E4A2AADC9AA49B5A7705DB652D8C9E9D5D9E5D9F5E8EA7A7A359A2D2EE7A3CBC9C97CF4E1ECE2E4C3E56232BDBA5ED4686A3F0D833A96E9D405CF26A655C3EAC962004D59915392C0613E71520C215FC2917E40F79C675840EE6CF6BA
310
13DB931FB0FAC1B43925DA505C717287A03F4C056475C0A88C657BDCF9053A9312CED9E72EF48CBC7BF8B356E93A9078CE5DE814481263E16DA0CBA4FA799A38645C9DFA2D31C007B1546544B3A87EAE57296C5AD1BF9E32240B58B95A2D0CA8DB0A687EB51A149A37CB537C90E0153B0E9270BB2925146B4696DD402D8CDE
310
66A77E231B25ECDE6EFD04AEFBBA58BEA7E7B41019F4C5E0552330544712F154B7BB156396A58BC59731B4D99CE567A7A0650ABA1C4E69C4311873A9EA29B022B00A4BB340124C75FEFBFA0BCFE10B4FE6E8A2C8F9F5E9F4E4B7F53CCFB29C99A1F5051CCA12F84EE4ACEEE0AB4FB286DA01ABDEBA581F4DFCA3B5EE69DB36
310
7BB441027BAA288281AA965082744C0EECF2457FCA762FC74A159DE9CB85638328F4028C1DBD68F19A6F5C0EF890FA9AA23C46FB7925EDAB6DEDB19E0A36C1A1211DFE0B504B0304140006080000448AD142000000000000000000000000350000006662782F46423138353143442D413744422D343338442D394344422D34
310
44383436314536393834462F76657274696365732E62696E504B0304140006080800448AD142F270F1330600000004000000360000006662782F46423138353143442D413744422D343338442D394344422D3444383436314536393834462F747269616E676C65732E62696E636660600000504B0304140006080000448AD1
310
42000000000000000000000000370000006662782F46423138353143442D413744422D343338442D394344422D3444383436314536393834462F617474726962757465732E62696E504B0304140006080800448AD142D5987DFC8F00000041010000360000006662782F46423138353143442D413744422D343338442D3943
310
44422D3444383436314536393834462F6469726563746F72792E786D6C858F410EC2201045AF4266AF15DDB800BA74E7C21B903225242D6328188F2FA5C4183471359997F9FF81E89FF3C41E1816475E02DF1F80A11FC8386F25A438EECEC07A250251FC3803E6F58C12560C4AD840E95E91C151A72936F496F35732D860FE
310
635F62C8F2DA16B505C545B74125BAA2FA9E05D7CC053D063734D5C7665FD55B6B8D15D5E9BFEAFD8490FFA45E504B0304140006080800448AD142515CF5B7FE000000A00100003B0000006662782F46423138353143442D413744422D343338442D394344422D3444383436314536393834462F7265736F75726365732F63
310
6F72652E786D6C8D504B6E833010BD0A9A6D65B0A10904194725694ED00B586642AC041BF953F5F835814AEDAE9B99D1FB689E1E3F7E4D8FEC139DD7D674C0720A191A65076DC60E62B89206B2A3E0CEDAF04B0699911376B0C020F8E86C9C37485913D084841A3BE0064AEF3140A61EE9E8C0AB1B4E3297312485BFE7B354
310
773962CEF244279DE03EB814205B9F2C1384436FA353E879B1B282C7A8874DA387F4535F353A104D737EA3CDAE27977349C92BED4FE4F05E9F487F29CB13ADE9BEEC6B5E2C66C1839E7E322A8732E000A2A4AC22744F58FDC1EA96352D3DBCD05D5B515E2CF23FA6380FFF34456D42556E71579B07C15290272178B1F495D6
310
B3CCB4976EC537504B010214000A0000080000448AD1423DEE336E79000000790000001B00000000000000000000000000000000006175746F6465736B2D64657369676E2D7061636B6167652E786D6C504B01021400140006080800448AD142D486FD9CA0000000F40000001300000000000000000000000000B20000005B
310
436F6E74656E745F54797065735D2E786D6C504B01021400140006080800448AD14242F7DB2FEC0000007C010000080000000000000000000000000083010000636F72652E786D6C504B01021400140006080800448AD14255019EA25F0000007C000000070000000000000000000000000095020000636E782E786D6C504B
310
01021400140006080800448AD14296041BD068010000020300000C00000000000000000000000000190300006662782F636F72652E786D6C504B01021400140006080800448AD1429B38EE547D0000009D0000000B00000000000000000000000000AB0400006662782F636E782E786D6C504B01021400140006080800448A
310
D142EF87D35E2B010000140200003100000000000000000000000000510500006662782F46423138353143442D413744422D343338442D394344422D3444383436314536393834462F636F72652E786D6C504B01021400140006080800448AD1425F5C76E957010000330300003000000000000000000000000000CB060000
310
6662782F46423138353143442D413744422D343338442D394344422D3444383436314536393834462F636E782E786D6C504B01021400140006080800448AD1420A8ED8BA62070000991B00003400000000000000000000000000700800006662782F46423138353143442D413744422D343338442D394344422D3444383436
310
314536393834462F6F626A656374732E786D6C504B01021400140006080000448AD1420000000000000000000000003500000000000000000000000000241000006662782F46423138353143442D413744422D343338442D394344422D3444383436314536393834462F76657274696365732E62696E504B01021400140006
310
080800448AD142F270F13306000000040000003600000000000000000000000000771000006662782F46423138353143442D413744422D343338442D394344422D3444383436314536393834462F747269616E676C65732E62696E504B01021400140006080000448AD1420000000000000000000000003700000000000000
310
000000000000D11000006662782F46423138353143442D413744422D343338442D394344422D3444383436314536393834462F617474726962757465732E62696E504B01021400140006080800448AD142D5987DFC8F000000410100003600000000000000000000000000261100006662782F46423138353143442D413744
310
422D343338442D394344422D3444383436314536393834462F6469726563746F72792E786D6C504B01021400140006080800448AD142515CF5B7FE000000A00100003B00000000000000000000000000091200006662782F46423138353143442D413744422D343338442D394344422D3444383436314536393834462F7265
310
736F75726365732F636F72652E786D6C504B0506000000000E000E0080040000601300000000
  0
XRECORD
  5
27
102
{ACAD_REACTORS
330
22
102
}
330
22
100
AcDbXrecord
280
     1
270
     1
271
     1
  0
XRECORD
  5
26
102
{ACAD_REACTORS
330
22
102
}
330
22
100
AcDbXrecord
280
     1
270
     1
271
     1
  0
XRECORD
  5
28
102
{ACAD_REACTORS
330
22
102
}
330
22
100
AcDbXrecord
280
     1
270
     1
271
     1
  0
XRECORD
  5
25
102
{ACAD_REACTORS
330
22
102
}
330
22
100
AcDbXrecord
280
     1
270
     1
271
     1
  0
XRECORD
  5
D7D
102
{ACAD_REACTORS
330
D7C
102
}
330
D7C
100
AcDbXrecord
280
     1
102
ACAD_ROUNDTRIP_2012_MLEADER_STYLE
298
     1
  0
CELLSTYLEMAP
  5
D7B
102
{ACAD_REACTORS
330
D7A
102
}
330
D7A
100
AcDbCellStyleMap
 90
        3
300
CELLSTYLE
  1
TABLEFORMAT_BEGIN
 90
        5
170
     1
 91
        0
 92
    32768
 62
   257
 93
        1
300
CONTENTFORMAT
  1
CONTENTFORMAT_BEGIN
 90
        0
 91
        0
 92
      512
 93
        0
300

 40
0.0
140
1.0
 94
        5
 62
     0
340
55
144
0.25
309
CONTENTFORMAT_END
171
     0
 94
        0
309
TABLEFORMAT_END
  1
CELLSTYLE_BEGIN
 90
        1
 91
        1
300
_TITLE
309
CELLSTYLE_END
300
CELLSTYLE
  1
TABLEFORMAT_BEGIN
 90
        5
170
     1
 91
        0
 92
        0
 62
   257
 93
        1
300
CONTENTFORMAT
  1
CONTENTFORMAT_BEGIN
 90
        0
 91
        0
 92
      512
 93
        0
300

 40
0.0
140
1.0
 94
        5
 62
     0
340
55
144
0.18
309
CONTENTFORMAT_END
171
     0
 94
        0
309
TABLEFORMAT_END
  1
CELLSTYLE_BEGIN
 90
        2
 91
        1
300
_HEADER
309
CELLSTYLE_END
300
CELLSTYLE
  1
TABLEFORMAT_BEGIN
 90
        5
170
     1
 91
        0
 92
        0
 62
   257
 93
        1
300
CONTENTFORMAT
  1
CONTENTFORMAT_BEGIN
 90
        0
 91
        0
 92
      512
 93
        0
300

 40
0.0
140
1.0
 94
        2
 62
     0
340
55
144
0.18
309
CONTENTFORMAT_END
171
     0
 94
        0
309
TABLEFORMAT_END
  1
CELLSTYLE_BEGIN
 90
        3
 91
        2
300
_DATA
309
CELLSTYLE_END
  0
ENDSEC
  0
EOF
