  0
SECTION
  2
HEADER
  9
$ACADVER
  1
AC1024
  9
$ACADMAINTVER
 70
    63
  9
$DWGCODEPAGE
  3
ANSI_1252
  9
$AUTHOR
  1
PR
  9
$REVISIONNUMBER
  1
-
  9
$CUSTOMPROPERTYTAG
  1
Manager
  9
$CUSTOMPROPERTY
  1

  9
$CUSTOMPROPERTYTAG
  1
Company
  9
$CUSTOMPROPERTY
  1

  9
$CUSTOMPROPERTYTAG
  1
Category
  9
$CUSTOMPROPERTY
  1

  9
$CUSTOMPROPERTYTAG
  1
Part Number
  9
$CUSTOMPROPERTY
  1
HWDWA72P30F2
  9
$CUSTOMPROPERTYTAG
  1
Description
  9
$CUSTOMPROPERTY
  1
N1P PANEL MASTER VIEW
  9
$CUSTOMPROPERTYTAG
  1
Project
  9
$CUSTOMPROPERTY
  1

  9
$CUSTOMPROPERTYTAG
  1
Designer
  9
$CUSTOMPROPERTY
  1
PR
  9
$CUSTOMPROPERTYTAG
  1
Engineer
  9
$CUSTOMPROPERTY
  1

  9
$CUSTOMPROPERTYTAG
  1
Authority
  9
$CUSTOMPROPERTY
  1

  9
$CUSTOMPROPERTYTAG
  1
Cost Center
  9
$CUSTOMPROPERTY
  1

  9
$CUSTOMPROPERTYTAG
  1
Vendor
  9
$CUSTOMPROPERTY
  1

  9
$CUSTOMPROPERTYTAG
  1
User Status
  9
$CUSTOMPROPERTY
  1

  9
$CUSTOMPROPERTYTAG
  1
Design Status
  9
$CUSTOMPROPERTY
  1
WorkInProgress
  9
$CUSTOMPROPERTYTAG
  1
Checked by
  9
$CUSTOMPROPERTY
  1
NJ
  9
$CUSTOMPROPERTYTAG
  1
Engr Approved by
  9
$CUSTOMPROPERTY
  1

  9
$CUSTOMPROPERTYTAG
  1
Date Eng Approved
  9
$CUSTOMPROPERTY
  1
06/19/2013
  9
$CUSTOMPROPERTYTAG
  1
Mfg Approved by
  9
$CUSTOMPROPERTY
  1

  9
$CUSTOMPROPERTYTAG
  1
DWG. NO
  9
$CUSTOMPROPERTY
  1

  9
$CUSTOMPROPERTYTAG
  1
NUMBER OF SHEETS
  9
$CUSTOMPROPERTY
  1
1
  9
$CUSTOMPROPERTYTAG
  1
DRAWING #
  9
$CUSTOMPROPERTY
  1
1
  9
$INSBASE
 10
0.0
 20
0.0
 30
0.0
  9
$EXTMIN
 10
0.0
 20
0.0
 30
0.0
  9
$EXTMAX
 10
170.0
 20
110.0
 30
0.0
  9
$LIMMIN
 10
0.0
 20
0.0
  9
$LIMMAX
 10
170.0
 20
110.0
  9
$ORTHOMODE
 70
     0
  9
$REGENMODE
 70
     1
  9
$FILLMODE
 70
     1
  9
$QTEXTMODE
 70
     0
  9
$MIRRTEXT
 70
     0
  9
$LTSCALE
 40
10.0
  9
$ATTMODE
 70
     1
  9
$TEXTSIZE
 40
0.2
  9
$TRACEWID
 40
0.05
  9
$TEXTSTYLE
  7
Standard
  9
$CLAYER
  8
0
  9
$CELTYPE
  6
ByLayer
  9
$CECOLOR
 62
   256
  9
$CELTSCALE
 40
1.0
  9
$DISPSILH
 70
     0
  9
$DIMSCALE
 40
1.0
  9
$DIMASZ
 40
0.0708661417322835
  9
$DIMEXO
 40
0.0625
  9
$DIMDLI
 40
0.38
  9
$DIMRND
 40
0.0
  9
$DIMDLE
 40
0.0
  9
$DIMEXE
 40
0.18
  9
$DIMTP
 40
0.0
  9
$DIMTM
 40
0.0
  9
$DIMTXT
 40
0.0708661417322835
  9
$DIMCEN
 40
0.09
  9
$DIMTSZ
 40
0.0
  9
$DIMTOL
 70
     0
  9
$DIMLIM
 70
     0
  9
$DIMTIH
 70
     1
  9
$DIMTOH
 70
     1
  9
$DIMSE1
 70
     0
  9
$DIMSE2
 70
     0
  9
$DIMTAD
 70
     0
  9
$DIMZIN
 70
     0
  9
$DIMBLK
  1

  9
$DIMASO
 70
     1
  9
$DIMSHO
 70
     1
  9
$DIMPOST
  1

  9
$DIMAPOST
  1

  9
$DIMALT
 70
     0
  9
$DIMALTD
 70
     2
  9
$DIMALTF
 40
25.4
  9
$DIMLFAC
 40
1.0
  9
$DIMTOFL
 70
     0
  9
$DIMTVP
 40
0.0
  9
$DIMTIX
 70
     0
  9
$DIMSOXD
 70
     0
  9
$DIMSAH
 70
     0
  9
$DIMBLK1
  1

  9
$DIMBLK2
  1

  9
$DIMSTYLE
  2
STANDARD
  9
$DIMCLRD
 70
     0
  9
$DIMCLRE
 70
     0
  9
$DIMCLRT
 70
     0
  9
$DIMTFAC
 40
1.0
  9
$DIMGAP
 40
0.09
  9
$DIMJUST
 70
     0
  9
$DIMSD1
 70
     0
  9
$DIMSD2
 70
     0
  9
$DIMTOLJ
 70
     1
  9
$DIMTZIN
 70
     0
  9
$DIMALTZ
 70
     0
  9
$DIMALTTZ
 70
     0
  9
$DIMUPT
 70
     0
  9
$DIMDEC
 70
     4
  9
$DIMTDEC
 70
     4
  9
$DIMALTU
 70
     2
  9
$DIMALTTD
 70
     2
  9
$DIMTXSTY
  7
Standard
  9
$DIMAUNIT
 70
     0
  9
$DIMADEC
 70
     0
  9
$DIMALTRND
 40
0.0
  9
$DIMAZIN
 70
     0
  9
$DIMDSEP
 70
    46
  9
$DIMATFIT
 70
     3
  9
$DIMFRAC
 70
     0
  9
$DIMLDRBLK
  1

  9
$DIMLUNIT
 70
     2
  9
$DIMLWD
 70
    -2
  9
$DIMLWE
 70
    -2
  9
$DIMTMOVE
 70
     0
  9
$DIMFXL
 40
1.0
  9
$DIMFXLON
 70
     0
  9
$DIMJOGANG
 40
0.7853981633974483
  9
$DIMTFILL
 70
     0
  9
$DIMTFILLCLR
 70
     0
  9
$DIMARCSYM
 70
     0
  9
$DIMLTYPE
  6

  9
$DIMLTEX1
  6

  9
$DIMLTEX2
  6

  9
$DIMTXTDIRECTION
 70
     0
  9
$LUNITS
 70
     2
  9
$LUPREC
 70
     4
  9
$SKETCHINC
 40
0.1
  9
$FILLETRAD
 40
0.0
  9
$AUNITS
 70
     0
  9
$AUPREC
 70
     0
  9
$MENU
  1
.
  9
$ELEVATION
 40
0.0
  9
$PELEVATION
 40
0.0
  9
$THICKNESS
 40
0.0
  9
$LIMCHECK
 70
     0
  9
$CHAMFERA
 40
0.0
  9
$CHAMFERB
 40
0.0
  9
$CHAMFERC
 40
0.0
  9
$CHAMFERD
 40
0.0
  9
$SKPOLY
 70
     0
  9
$TDCREATE
 40
2456465.798479387
  9
$TDUCREATE
 40
2456465.569312720
  9
$TDUPDATE
 40
2456465.798479399
  9
$TDUUPDATE
 40
2456465.569312731
  9
$TDINDWG
 40
0.0000459028
  9
$TDUSRTIMER
 40
0.0000459028
  9
$USRTIMER
 70
     1
  9
$ANGBASE
 50
0.0
  9
$ANGDIR
 70
     0
  9
$PDMODE
 70
     0
  9
$PDSIZE
 40
0.0
  9
$PLINEWID
 40
0.0
  9
$SPLFRAME
 70
     0
  9
$SPLINETYPE
 70
     6
  9
$SPLINESEGS
 70
     8
  9
$HANDSEED
  5
D93
  9
$SURFTAB1
 70
     6
  9
$SURFTAB2
 70
     6
  9
$SURFTYPE
 70
     6
  9
$SURFU
 70
     6
  9
$SURFV
 70
     6
  9
$UCSBASE
  2

  9
$UCSNAME
  2

  9
$UCSORG
 10
0.0
 20
0.0
 30
0.0
  9
$UCSXDIR
 10
1.0
 20
0.0
 30
0.0
  9
$UCSYDIR
 10
0.0
 20
1.0
 30
0.0
  9
$UCSORTHOREF
  2

  9
$UCSORTHOVIEW
 70
     0
  9
$UCSORGTOP
 10
0.0
 20
0.0
 30
0.0
  9
$UCSORGBOTTOM
 10
0.0
 20
0.0
 30
0.0
  9
$UCSORGLEFT
 10
0.0
 20
0.0
 30
0.0
  9
$UCSORGRIGHT
 10
0.0
 20
0.0
 30
0.0
  9
$UCSORGFRONT
 10
0.0
 20
0.0
 30
0.0
  9
$UCSORGBACK
 10
0.0
 20
0.0
 30
0.0
  9
$PUCSBASE
  2

  9
$PUCSNAME
  2

  9
$PUCSORG
 10
0.0
 20
0.0
 30
0.0
  9
$PUCSXDIR
 10
1.0
 20
0.0
 30
0.0
  9
$PUCSYDIR
 10
0.0
 20
1.0
 30
0.0
  9
$PUCSORTHOREF
  2

  9
$PUCSORTHOVIEW
 70
     0
  9
$PUCSORGTOP
 10
0.0
 20
0.0
 30
0.0
  9
$PUCSORGBOTTOM
 10
0.0
 20
0.0
 30
0.0
  9
$PUCSORGLEFT
 10
0.0
 20
0.0
 30
0.0
  9
$PUCSORGRIGHT
 10
0.0
 20
0.0
 30
0.0
  9
$PUCSORGFRONT
 10
0.0
 20
0.0
 30
0.0
  9
$PUCSORGBACK
 10
0.0
 20
0.0
 30
0.0
  9
$USERI1
 70
     0
  9
$USERI2
 70
     0
  9
$USERI3
 70
     0
  9
$USERI4
 70
     0
  9
$USERI5
 70
     0
  9
$USERR1
 40
0.0
  9
$USERR2
 40
0.0
  9
$USERR3
 40
0.0
  9
$USERR4
 40
0.0
  9
$USERR5
 40
0.0
  9
$WORLDVIEW
 70
     1
  9
$SHADEDGE
 70
     3
  9
$SHADEDIF
 70
    70
  9
$TILEMODE
 70
     1
  9
$MAXACTVP
 70
    64
  9
$PINSBASE
 10
0.0
 20
0.0
 30
0.0
  9
$PLIMCHECK
 70
     0
  9
$PEXTMIN
 10
0.0
 20
0.0
 30
0.0
  9
$PEXTMAX
 10
170.0
 20
110.0
 30
0.0
  9
$PLIMMIN
 10
0.0
 20
0.0
  9
$PLIMMAX
 10
170.0
 20
110.0
  9
$UNITMODE
 70
     0
  9
$VISRETAIN
 70
     1
  9
$PLINEGEN
 70
     0
  9
$PSLTSCALE
 70
     1
  9
$TREEDEPTH
 70
  3020
  9
$CMLSTYLE
  2
Standard
  9
$CMLJUST
 70
     0
  9
$CMLSCALE
 40
1.0
  9
$PROXYGRAPHICS
 70
     1
  9
$MEASUREMENT
 70
     0
  9
$CELWEIGHT
370
    -1
  9
$ENDCAPS
280
     0
  9
$JOINSTYLE
280
     0
  9
$LWDISPLAY
290
     0
  9
$INSUNITS
 70
     1
  9
$HYPERLINKBASE
  1

  9
$STYLESHEET
  1

  9
$XEDIT
290
     1
  9
$CEPSNTYPE
380
     0
  9
$PSTYLEMODE
290
     1
  9
$FINGERPRINTGUID
  2
{6A8FD45E-71E3-416E-A3E1-144315A31CA9}
  9
$VERSIONGUID
  2
{8DC6C1BB-F11F-47FA-AFE1-FA4ACD28E494}
  9
$EXTNAMES
290
     1
  9
$PSVPSCALE
 40
0.0
  9
$OLESTARTUP
290
     0
  9
$SORTENTS
280
   127
  9
$INDEXCTL
280
     0
  9
$HIDETEXT
280
     1
  9
$XCLIPFRAME
280
     2
  9
$HALOGAP
280
     0
  9
$OBSCOLOR
 70
   257
  9
$OBSLTYPE
280
     0
  9
$INTERSECTIONDISPLAY
280
     0
  9
$INTERSECTIONCOLOR
 70
   257
  9
$DIMASSOC
280
     1
  9
$PROJECTNAME
  1

  9
$CAMERADISPLAY
290
     0
  9
$LENSLENGTH
 40
50.0
  9
$CAMERAHEIGHT
 40
0.0
  9
$STEPSPERSEC
 40
2.0
  9
$STEPSIZE
 40
6.0
  9
$3DDWFPREC
 40
2.0
  9
$PSOLWIDTH
 40
0.25
  9
$PSOLHEIGHT
 40
4.0
  9
$LOFTANG1
 40
1.570796326794896
  9
$LOFTANG2
 40
1.570796326794896
  9
$LOFTMAG1
 40
0.0
  9
$LOFTMAG2
 40
0.0
  9
$LOFTPARAM
 70
     7
  9
$LOFTNORMALS
280
     1
  9
$LATITUDE
 40
37.795
  9
$LONGITUDE
 40
-122.394
  9
$NORTHDIRECTION
 40
0.0
  9
$TIMEZONE
 70
 -8000
  9
$LIGHTGLYPHDISPLAY
280
     1
  9
$TILEMODELIGHTSYNCH
280
     1
  9
$CMATERIAL
347
11
  9
$SOLIDHIST
280
     0
  9
$SHOWHIST
280
     1
  9
$DWFFRAME
280
     2
  9
$DGNFRAME
280
     0
  9
$REALWORLDSCALE
290
     1
  9
$INTERFERECOLOR
 62
     1
  9
$INTERFEREOBJVS
345
33
  9
$INTERFEREVPVS
346
30
  9
$CSHADOW
280
     0
  9
$SHADOWPLANELOCATION
 40
0.0
  0
ENDSEC
  0
SECTION
  2
CLASSES
  0
CLASS
  1
ACDBDICTIONARYWDFLT
  2
AcDbDictionaryWithDefault
  3
ObjectDBX Classes
 90
        0
 91
        1
280
     0
281
     0
  0
CLASS
  1
MATERIAL
  2
AcDbMaterial
  3
ObjectDBX Classes
 90
     1153
 91
        3
280
     0
281
     0
  0
CLASS
  1
VISUALSTYLE
  2
AcDbVisualStyle
  3
ObjectDBX Classes
 90
     4095
 91
       24
280
     0
281
     0
  0
CLASS
  1
SCALE
  2
AcDbScale
  3
ObjectDBX Classes
 90
     1153
 91
       17
280
     0
281
     0
  0
CLASS
  1
TABLESTYLE
  2
AcDbTableStyle
  3
ObjectDBX Classes
 90
     4095
 91
        1
280
     0
281
     0
  0
CLASS
  1
MLEADERSTYLE
  2
AcDbMLeaderStyle
  3
ACDB_MLEADERSTYLE_CLASS
 90
     4095
 91
        1
280
     0
281
     0
  0
CLASS
  1
DICTIONARYVAR
  2
AcDbDictionaryVar
  3
ObjectDBX Classes
 90
        0
 91
        3
280
     0
281
     0
  0
CLASS
  1
CELLSTYLEMAP
  2
AcDbCellStyleMap
  3
ObjectDBX Classes
 90
     1152
 91
        1
280
     0
281
     0
  0
ENDSEC
  0
SECTION
  2
TABLES
  0
TABLE
  2
VPORT
  5
8
330
0
100
AcDbSymbolTable
 70
     1
  0
VPORT
  5
57
330
8
100
AcDbSymbolTableRecord
100
AcDbViewportTableRecord
  2
*Active
 70
     0
 10
0.0
 20
0.0
 11
1.0
 21
1.0
 12
85.0
 22
55.0
 13
0.0
 23
0.0
 14
1.0
 24
1.0
 15
0.0
 25
0.0
 16
0.0
 26
0.0
 36
1.0
 17
0.0
 27
0.0
 37
0.0
 40
110.0
 41
1.545454545454545
 42
50.0
 43
0.0
 44
0.0
 50
0.0
 51
0.0
 71
     0
 72
   100
 73
     1
 74
     1
 75
     0
 76
     0
 77
     0
 78
     0
281
     0
 65
     1
110
0.0
120
0.0
130
0.0
111
1.0
121
0.0
131
0.0
112
0.0
122
1.0
132
0.0
 79
     0
146
0.0
 60
     3
 61
     5
292
     1
282
     1
141
0.0
142
0.0
 63
   250
421
  3355443
  0
ENDTAB
  0
TABLE
  2
LTYPE
  5
5
330
0
100
AcDbSymbolTable
 70
    59
  0
LTYPE
  5
5B
330
5
100
AcDbSymbolTableRecord
100
AcDbLinetypeTableRecord
  2
ByBlock
 70
     0
  3

 72
    65
 73
     0
 40
0.0
  0
LTYPE
  5
5C
330
5
100
AcDbSymbolTableRecord
100
AcDbLinetypeTableRecord
  2
ByLayer
 70
     0
  3

 72
    65
 73
     0
 40
0.0
  0
LTYPE
  5
5D
330
5
100
AcDbSymbolTableRecord
100
AcDbLinetypeTableRecord
  2
Continuous
 70
     0
  3
Solid line
 72
    65
 73
     0
 40
0.0
  0
LTYPE
  5
7C
330
5
100
AcDbSymbolTableRecord
100
AcDbLinetypeTableRecord
  2
BY_STANDARD
 70
     0
  3
By Standard ____________    ____    ____   _
 72
    65
 73
     6
 40
1.240299999999999
 49
0.6614
 74
     0
 49
-0.0827
 74
     0
 49
0.1654
 74
     0
 49
-0.0827
 74
     0
 49
0.1654
 74
     0
 49
-0.0827
 74
     0
  0
LTYPE
  5
7D
330
5
100
AcDbSymbolTableRecord
100
AcDbLinetypeTableRecord
  2
CHAIN
 70
     0
  3
Chain ____ _ ____ _ ____ _ ____ _ ____ _ ____
 72
    65
 73
     4
 40
0.7087
 49
0.4724000000000001
 74
     0
 49
-0.0591
 74
     0
 49
0.1181
 74
     0
 49
-0.0591
 74
     0
  0
LTYPE
  5
7E
330
5
100
AcDbSymbolTableRecord
100
AcDbLinetypeTableRecord
  2
DASH_DOT
 70
     0
  3
Dash dot __ . __ . __ . __ . __ . __ . __ . __
 72
    65
 73
     4
 40
0.37
 49
0.24
 74
     0
 49
-0.06
 74
     0
 49
0.01
 74
     0
 49
-0.06
 74
     0
  0
LTYPE
  5
7F
330
5
100
AcDbSymbolTableRecord
100
AcDbLinetypeTableRecord
  2
DOUBLE_DASH_DOT
 70
     0
  3
Double-Dash Dot __ __ . __ __ . __ __ . __ _
 72
    65
 73
     6
 40
0.4398
 49
0.24
 74
     0
 49
-0.06
 74
     0
 49
0.0098
 74
     0
 49
-0.06
 74
     0
 49
0.01
 74
     0
 49
-0.06
 74
     0
  0
LTYPE
  5
80
330
5
100
AcDbSymbolTableRecord
100
AcDbLinetypeTableRecord
  2
DASH_TRIPLE_DOT
 70
     0
  3
Dash Triple-Dot _ . . . _ . . . _ . . . _
 72
    65
 73
     8
 40
0.51
 49
0.24
 74
     0
 49
-0.06
 74
     0
 49
0.01
 74
     0
 49
-0.06
 74
     0
 49
0.01
 74
     0
 49
-0.06
 74
     0
 49
0.01
 74
     0
 49
-0.06
 74
     0
  0
LTYPE
  5
81
330
5
100
AcDbSymbolTableRecord
100
AcDbLinetypeTableRecord
  2
DASHED
 70
     0
  3
Dashed __ __ __ __ __ __ __ __ __ __ __ __ __ _
 72
    65
 73
     2
 40
0.2067
 49
0.1654
 74
     0
 49
-0.0413
 74
     0
  0
LTYPE
  5
82
330
5
100
AcDbSymbolTableRecord
100
AcDbLinetypeTableRecord
  2
DASH_DOUBLE_DOT
 70
     0
  3
Dash Double-Dot __ . . __ . . __ . . __ . .
 72
    65
 73
     6
 40
0.4398
 49
0.24
 74
     0
 49
-0.06
 74
     0
 49
0.0098
 74
     0
 49
-0.06
 74
     0
 49
0.01
 74
     0
 49
-0.06
 74
     0
  0
LTYPE
  5
83
330
5
100
AcDbSymbolTableRecord
100
AcDbLinetypeTableRecord
  2
DASHED_SPACE
 70
     0
  3
Dashed Space __ __ __ __ __ __ __ __ __ __ __ _
 72
    65
 73
     2
 40
0.2067
 49
0.1654
 74
     0
 49
-0.0413
 74
     0
  0
LTYPE
  5
84
330
5
100
AcDbSymbolTableRecord
100
AcDbLinetypeTableRecord
  2
DOTTED
 70
     0
  3
Dotted . . . . . . . . . . . . . . . . . . . . 
 72
    65
 73
     2
 40
0.0482
 49
0.0069
 74
     0
 49
-0.0413
 74
     0
  0
LTYPE
  5
85
330
5
100
AcDbSymbolTableRecord
100
AcDbLinetypeTableRecord
  2
DOUBLE_DASH_CHAIN
 70
     0
  3
Double-Dash Chain ______  __  __  ______  __  _
 72
    65
 73
     6
 40
1.240299999999999
 49
0.6614
 74
     0
 49
-0.0827
 74
     0
 49
0.1654
 74
     0
 49
-0.0827
 74
     0
 49
0.1654
 74
     0
 49
-0.0827
 74
     0
  0
LTYPE
  5
87
330
5
100
AcDbSymbolTableRecord
100
AcDbLinetypeTableRecord
  2
DOUBLE_DASH_DOUBLE_DOT
 70
     0
  3
Double-Dash Double-dot _ _ . . _ _ . . _
 72
    65
 73
     8
 40
0.7400000000000001
 49
0.24
 74
     0
 49
-0.06
 74
     0
 49
0.24
 74
     0
 49
-0.06
 74
     0
 49
0.01
 74
     0
 49
-0.06
 74
     0
 49
0.01
 74
     0
 49
-0.06
 74
     0
  0
LTYPE
  5
88
330
5
100
AcDbSymbolTableRecord
100
AcDbLinetypeTableRecord
  2
DOUBLE_DASH_TRIPLE_DOT
 70
     0
  3
Double Dash Triple Dot __ __ . . . __ __ . .
 72
    65
 73
    10
 40
0.8100000000000001
 49
0.24
 74
     0
 49
-0.06
 74
     0
 49
0.24
 74
     0
 49
-0.06
 74
     0
 49
0.01
 74
     0
 49
-0.06
 74
     0
 49
0.01
 74
     0
 49
-0.06
 74
     0
 49
0.01
 74
     0
 49
-0.06
 74
     0
  0
LTYPE
  5
89
330
5
100
AcDbSymbolTableRecord
100
AcDbLinetypeTableRecord
  2
LONG_DASH_DOTTED
 70
     0
  3
Long Dash Dotted ____ . ____ . ____ . ____ . _
 72
    65
 73
     4
 40
0.3543
 49
0.2362
 74
     0
 49
-0.0295
 74
     0
 49
0.0591
 74
     0
 49
-0.0295
 74
     0
  0
LTYPE
  5
8A
330
5
100
AcDbSymbolTableRecord
100
AcDbLinetypeTableRecord
  2
LONG_DASH_DOUBLE_DOT
 70
     0
  3
Long Dash Double Dot ________  .  .  ________  
 72
    65
 73
     6
 40
0.6799999999999999
 49
0.48
 74
     0
 49
-0.06
 74
     0
 49
0.01
 74
     0
 49
-0.06
 74
     0
 49
0.01
 74
     0
 49
-0.06
 74
     0
  0
LTYPE
  5
8B
330
5
100
AcDbSymbolTableRecord
100
AcDbLinetypeTableRecord
  2
LONG_DASH_TRIPLE_DOT
 70
     0
  3
Long Dash Triple Dot ____ ... ____ ... ____
 72
    65
 73
     8
 40
0.3689
 49
0.2362
 74
     0
 49
-0.0295
 74
     0
 49
0.0049
 74
     0
 49
-0.0295
 74
     0
 49
0.0049
 74
     0
 49
-0.0295
 74
     0
 49
0.0049
 74
     0
 49
-0.0295
 74
     0
  0
LTYPE
  5
8C
330
5
100
AcDbSymbolTableRecord
100
AcDbLinetypeTableRecord
  2
BORDER
 70
     0
  3
Border __ __ . __ __ . __ __ . __ __ . __ __ .
 72
    65
 73
     6
 40
1.75
 49
0.5
 74
     0
 49
-0.25
 74
     0
 49
0.5
 74
     0
 49
-0.25
 74
     0
 49
0.0
 74
     0
 49
-0.25
 74
     0
  0
LTYPE
  5
8D
330
5
100
AcDbSymbolTableRecord
100
AcDbLinetypeTableRecord
  2
BORDER2
 70
     0
  3
Border (.5x) __.__.__.__.__.__.__.__.__.__.__.
 72
    65
 73
     6
 40
0.875
 49
0.25
 74
     0
 49
-0.125
 74
     0
 49
0.25
 74
     0
 49
-0.125
 74
     0
 49
0.0
 74
     0
 49
-0.125
 74
     0
  0
LTYPE
  5
8E
330
5
100
AcDbSymbolTableRecord
100
AcDbLinetypeTableRecord
  2
BORDERX2
 70
     0
  3
Border (2x) ____  ____  .  ____  ____  .  ___
 72
    65
 73
     6
 40
3.5
 49
1.0
 74
     0
 49
-0.5
 74
     0
 49
1.0
 74
     0
 49
-0.5
 74
     0
 49
0.0
 74
     0
 49
-0.5
 74
     0
  0
LTYPE
  5
8F
330
5
100
AcDbSymbolTableRecord
100
AcDbLinetypeTableRecord
  2
CENTER
 70
     0
  3
Center ____ _ ____ _ ____ _ ____ _ ____ _ ____
 72
    65
 73
     4
 40
2.0
 49
1.25
 74
     0
 49
-0.25
 74
     0
 49
0.25
 74
     0
 49
-0.25
 74
     0
  0
LTYPE
  5
90
330
5
100
AcDbSymbolTableRecord
100
AcDbLinetypeTableRecord
  2
CENTER2
 70
     0
  3
Center (.5x) ___ _ ___ _ ___ _ ___ _ ___ _ ___
 72
    65
 73
     4
 40
1.125
 49
0.75
 74
     0
 49
-0.125
 74
     0
 49
0.125
 74
     0
 49
-0.125
 74
     0
  0
LTYPE
  5
91
330
5
100
AcDbSymbolTableRecord
100
AcDbLinetypeTableRecord
  2
CENTERX2
 70
     0
  3
Center (2x) ________  __  ________  __  _____
 72
    65
 73
     4
 40
4.0
 49
2.5
 74
     0
 49
-0.5
 74
     0
 49
0.5
 74
     0
 49
-0.5
 74
     0
  0
LTYPE
  5
92
330
5
100
AcDbSymbolTableRecord
100
AcDbLinetypeTableRecord
  2
DASHDOT2
 70
     0
  3
Dash dot (.5x) _._._._._._._._._._._._._._._.
 72
    65
 73
     4
 40
0.5
 49
0.25
 74
     0
 49
-0.125
 74
     0
 49
0.0
 74
     0
 49
-0.125
 74
     0
  0
LTYPE
  5
93
330
5
100
AcDbSymbolTableRecord
100
AcDbLinetypeTableRecord
  2
DASHDOTX2
 70
     0
  3
Dash dot (2x) ____  .  ____  .  ____  .  ___
 72
    65
 73
     4
 40
2.0
 49
1.0
 74
     0
 49
-0.5
 74
     0
 49
0.0
 74
     0
 49
-0.5
 74
     0
  0
LTYPE
  5
95
330
5
100
AcDbSymbolTableRecord
100
AcDbLinetypeTableRecord
  2
DASHED2
 70
     0
  3
Dashed (.5x) _ _ _ _ _ _ _ _ _ _ _ _ _ _ _ _ _
 72
    65
 73
     2
 40
0.375
 49
0.25
 74
     0
 49
-0.125
 74
     0
  0
LTYPE
  5
96
330
5
100
AcDbSymbolTableRecord
100
AcDbLinetypeTableRecord
  2
DASHEDX2
 70
     0
  3
Dashed (2x) ____  ____  ____  ____  ____  ___
 72
    65
 73
     2
 40
1.5
 49
1.0
 74
     0
 49
-0.5
 74
     0
  0
LTYPE
  5
97
330
5
100
AcDbSymbolTableRecord
100
AcDbLinetypeTableRecord
  2
DIVIDE
 70
     0
  3
Divide ____ . . ____ . . ____ . . ____ . . ____
 72
    65
 73
     6
 40
1.25
 49
0.5
 74
     0
 49
-0.25
 74
     0
 49
0.0
 74
     0
 49
-0.25
 74
     0
 49
0.0
 74
     0
 49
-0.25
 74
     0
  0
LTYPE
  5
98
330
5
100
AcDbSymbolTableRecord
100
AcDbLinetypeTableRecord
  2
DIVIDE2
 70
     0
  3
Divide (.5x) __..__..__..__..__..__..__..__.._
 72
    65
 73
     6
 40
0.625
 49
0.25
 74
     0
 49
-0.125
 74
     0
 49
0.0
 74
     0
 49
-0.125
 74
     0
 49
0.0
 74
     0
 49
-0.125
 74
     0
  0
LTYPE
  5
99
330
5
100
AcDbSymbolTableRecord
100
AcDbLinetypeTableRecord
  2
DIVIDEX2
 70
     0
  3
Divide (2x) ________  .  .  ________  .  .  _
 72
    65
 73
     6
 40
2.5
 49
1.0
 74
     0
 49
-0.5
 74
     0
 49
0.0
 74
     0
 49
-0.5
 74
     0
 49
0.0
 74
     0
 49
-0.5
 74
     0
  0
LTYPE
  5
9A
330
5
100
AcDbSymbolTableRecord
100
AcDbLinetypeTableRecord
  2
DOT
 70
     0
  3
Dot . . . . . . . . . . . . . . . . . . . . . .
 72
    65
 73
     2
 40
0.25
 49
0.0
 74
     0
 49
-0.25
 74
     0
  0
LTYPE
  5
9B
330
5
100
AcDbSymbolTableRecord
100
AcDbLinetypeTableRecord
  2
DOT2
 70
     0
  3
Dot (.5x) .....................................
 72
    65
 73
     2
 40
0.125
 49
0.0
 74
     0
 49
-0.125
 74
     0
  0
LTYPE
  5
9C
330
5
100
AcDbSymbolTableRecord
100
AcDbLinetypeTableRecord
  2
DOTX2
 70
     0
  3
Dot (2x) .  .  .  .  .  .  .  .  .  .  .  .  . 
 72
    65
 73
     2
 40
0.5
 49
0.0
 74
     0
 49
-0.5
 74
     0
  0
LTYPE
  5
9D
330
5
100
AcDbSymbolTableRecord
100
AcDbLinetypeTableRecord
  2
HIDDEN
 70
     0
  3
Hidden __ __ __ __ __ __ __ __ __ __ __ __ __ _
 72
    65
 73
     2
 40
0.375
 49
0.25
 74
     0
 49
-0.125
 74
     0
  0
LTYPE
  5
9E
330
5
100
AcDbSymbolTableRecord
100
AcDbLinetypeTableRecord
  2
HIDDEN2
 70
     0
  3
Hidden (.5x) _ _ _ _ _ _ _ _ _ _ _ _ _ _ _ _ _
 72
    65
 73
     2
 40
0.1875
 49
0.125
 74
     0
 49
-0.0625
 74
     0
  0
LTYPE
  5
9F
330
5
100
AcDbSymbolTableRecord
100
AcDbLinetypeTableRecord
  2
HIDDENX2
 70
     0
  3
Hidden (2x) ____ ____ ____ ____ ____ ____ ____
 72
    65
 73
     2
 40
0.75
 49
0.5
 74
     0
 49
-0.25
 74
     0
  0
LTYPE
  5
A0
330
5
100
AcDbSymbolTableRecord
100
AcDbLinetypeTableRecord
  2
PHANTOM
 70
     0
  3
Phantom ______  __  __  ______  __  __  ______
 72
    65
 73
     6
 40
2.5
 49
1.25
 74
     0
 49
-0.25
 74
     0
 49
0.25
 74
     0
 49
-0.25
 74
     0
 49
0.25
 74
     0
 49
-0.25
 74
     0
  0
LTYPE
  5
A1
330
5
100
AcDbSymbolTableRecord
100
AcDbLinetypeTableRecord
  2
PHANTOM2
 70
     0
  3
Phantom (.5x) ___ _ _ ___ _ _ ___ _ _ ___ _ _
 72
    65
 73
     6
 40
1.25
 49
0.625
 74
     0
 49
-0.125
 74
     0
 49
0.125
 74
     0
 49
-0.125
 74
     0
 49
0.125
 74
     0
 49
-0.125
 74
     0
  0
LTYPE
  5
A2
330
5
100
AcDbSymbolTableRecord
100
AcDbLinetypeTableRecord
  2
PHANTOMX2
 70
     0
  3
Phantom (2x) ____________    ____    ____   _
 72
    65
 73
     6
 40
5.0
 49
2.5
 74
     0
 49
-0.5
 74
     0
 49
0.5
 74
     0
 49
-0.5
 74
     0
 49
0.5
 74
     0
 49
-0.5
 74
     0
  0
LTYPE
  5
A3
330
5
100
AcDbSymbolTableRecord
100
AcDbLinetypeTableRecord
  2
ACAD_ISO02W100
 70
     0
  3
ISO dash __ __ __ __ __ __ __ __ __ __ __ __ __
 72
    65
 73
     2
 40
0.59
 49
0.47
 74
     0
 49
-0.12
 74
     0
  0
LTYPE
  5
A4
330
5
100
AcDbSymbolTableRecord
100
AcDbLinetypeTableRecord
  2
ACAD_ISO03W100
 70
     0
  3
ISO dash space __    __    __    __    __    __
 72
    65
 73
     2
 40
1.179999999999999
 49
0.47
 74
     0
 49
-0.71
 74
     0
  0
LTYPE
  5
A5
330
5
100
AcDbSymbolTableRecord
100
AcDbLinetypeTableRecord
  2
ACAD_ISO04W100
 70
     0
  3
ISO long-dash dot ____ . ____ . ____ . ____ . _
 72
    65
 73
     4
 40
1.179999999999999
 49
0.9399999999999998
 74
     0
 49
-0.12
 74
     0
 49
0.0
 74
     0
 49
-0.12
 74
     0
  0
LTYPE
  5
A6
330
5
100
AcDbSymbolTableRecord
100
AcDbLinetypeTableRecord
  2
ACAD_ISO05W100
 70
     0
  3
ISO long-dash double-dot ____ .. ____ .. ____ .
 72
    65
 73
     6
 40
1.299999999999999
 49
0.9399999999999998
 74
     0
 49
-0.12
 74
     0
 49
0.0
 74
     0
 49
-0.12
 74
     0
 49
0.0
 74
     0
 49
-0.12
 74
     0
  0
LTYPE
  5
A7
330
5
100
AcDbSymbolTableRecord
100
AcDbLinetypeTableRecord
  2
ACAD_ISO06W100
 70
     0
  3
ISO long-dash triple-dot ____ ... ____ ... ____
 72
    65
 73
     8
 40
1.419999999999999
 49
0.9399999999999998
 74
     0
 49
-0.12
 74
     0
 49
0.0
 74
     0
 49
-0.12
 74
     0
 49
0.0
 74
     0
 49
-0.12
 74
     0
 49
0.0
 74
     0
 49
-0.12
 74
     0
  0
LTYPE
  5
A8
330
5
100
AcDbSymbolTableRecord
100
AcDbLinetypeTableRecord
  2
ACAD_ISO07W100
 70
     0
  3
ISO dot . . . . . . . . . . . . . . . . . . . .
 72
    65
 73
     2
 40
0.12
 49
0.0
 74
     0
 49
-0.12
 74
     0
  0
LTYPE
  5
A9
330
5
100
AcDbSymbolTableRecord
100
AcDbLinetypeTableRecord
  2
ACAD_ISO08W100
 70
     0
  3
ISO long-dash short-dash ____ __ ____ __ ____ _
 72
    65
 73
     4
 40
0.95
 49
0.47
 74
     0
 49
-0.12
 74
     0
 49
0.24
 74
     0
 49
-0.12
 74
     0
  0
LTYPE
  5
AA
330
5
100
AcDbSymbolTableRecord
100
AcDbLinetypeTableRecord
  2
ACAD_ISO09W100
 70
     0
  3
ISO long-dash double-short-dash ____ __ __ ____
 72
    65
 73
     6
 40
1.31
 49
0.47
 74
     0
 49
-0.12
 74
     0
 49
0.24
 74
     0
 49
-0.12
 74
     0
 49
0.24
 74
     0
 49
-0.12
 74
     0
  0
LTYPE
  5
AB
330
5
100
AcDbSymbolTableRecord
100
AcDbLinetypeTableRecord
  2
ACAD_ISO10W100
 70
     0
  3
ISO dash dot __ . __ . __ . __ . __ . __ . __ .
 72
    65
 73
     4
 40
0.71
 49
0.47
 74
     0
 49
-0.12
 74
     0
 49
0.0
 74
     0
 49
-0.12
 74
     0
  0
LTYPE
  5
AC
330
5
100
AcDbSymbolTableRecord
100
AcDbLinetypeTableRecord
  2
ACAD_ISO11W100
 70
     0
  3
ISO double-dash dot __ __ . __ __ . __ __ . __ 
 72
    65
 73
     6
 40
1.299999999999999
 49
0.47
 74
     0
 49
-0.12
 74
     0
 49
0.47
 74
     0
 49
-0.12
 74
     0
 49
0.0
 74
     0
 49
-0.12
 74
     0
  0
LTYPE
  5
AD
330
5
100
AcDbSymbolTableRecord
100
AcDbLinetypeTableRecord
  2
ACAD_ISO12W100
 70
     0
  3
ISO dash double-dot __ . . __ . . __ . . __ . .
 72
    65
 73
     6
 40
0.8299999999999998
 49
0.47
 74
     0
 49
-0.12
 74
     0
 49
0.0
 74
     0
 49
-0.12
 74
     0
 49
0.0
 74
     0
 49
-0.12
 74
     0
  0
LTYPE
  5
AE
330
5
100
AcDbSymbolTableRecord
100
AcDbLinetypeTableRecord
  2
ACAD_ISO13W100
 70
     0
  3
ISO double-dash double-dot __ __ . . __ __ . . 
 72
    65
 73
     8
 40
1.419999999999999
 49
0.47
 74
     0
 49
-0.12
 74
     0
 49
0.47
 74
     0
 49
-0.12
 74
     0
 49
0.0
 74
     0
 49
-0.12
 74
     0
 49
0.0
 74
     0
 49
-0.12
 74
     0
  0
LTYPE
  5
AF
330
5
100
AcDbSymbolTableRecord
100
AcDbLinetypeTableRecord
  2
ACAD_ISO14W100
 70
     0
  3
ISO dash triple-dot __ . . . __ . . . __ . . . 
 72
    65
 73
     8
 40
0.95
 49
0.47
 74
     0
 49
-0.12
 74
     0
 49
0.0
 74
     0
 49
-0.12
 74
     0
 49
0.0
 74
     0
 49
-0.12
 74
     0
 49
0.0
 74
     0
 49
-0.12
 74
     0
  0
LTYPE
  5
B0
330
5
100
AcDbSymbolTableRecord
100
AcDbLinetypeTableRecord
  2
ACAD_ISO15W100
 70
     0
  3
ISO double-dash triple-dot __ __ . . . __ __ . 
 72
    65
 73
    10
 40
1.539999999999999
 49
0.47
 74
     0
 49
-0.12
 74
     0
 49
0.47
 74
     0
 49
-0.12
 74
     0
 49
0.0
 74
     0
 49
-0.12
 74
     0
 49
0.0
 74
     0
 49
-0.12
 74
     0
 49
0.0
 74
     0
 49
-0.12
 74
     0
  0
LTYPE
  5
B3
330
5
100
AcDbSymbolTableRecord
100
AcDbLinetypeTableRecord
  2
FENCELINE1
 70
     0
  3
Fenceline circle ----0-----0----0-----0----0---
 72
    65
 73
     4
 40
1.45
 49
0.25
 74
     0
 49
-0.1
 74
     4
 75
   133
340
B2
 46
0.1
 50
0.0
 44
-0.1
 45
0.0
 49
-0.1
 74
     0
 49
1.0
 74
     0
  0
LTYPE
  5
B4
330
5
100
AcDbSymbolTableRecord
100
AcDbLinetypeTableRecord
  2
FENCELINE2
 70
     0
  3
Fenceline square ----[]-----[]----[]-----[]----
 72
    65
 73
     4
 40
1.45
 49
0.25
 74
     0
 49
-0.1
 74
     4
 75
   132
340
B2
 46
0.1
 50
0.0
 44
-0.1
 45
0.0
 49
-0.1
 74
     0
 49
1.0
 74
     0
  0
LTYPE
  5
B5
330
5
100
AcDbSymbolTableRecord
100
AcDbLinetypeTableRecord
  2
TRACKS
 70
     0
  3
Tracks -|-|-|-|-|-|-|-|-|-|-|-|-|-|-|-|-|-|-|-|
 72
    65
 73
     2
 40
0.3
 49
0.15
 74
     4
 75
   130
340
B2
 46
0.25
 50
0.0
 44
0.0
 45
0.0
 49
0.15
 74
     0
  0
LTYPE
  5
B6
330
5
100
AcDbSymbolTableRecord
100
AcDbLinetypeTableRecord
  2
BATTING
 70
     0
  3
Batting SSSSSSSSSSSSSSSSSSSSSSSSSSSSSSSSSSSSSSS
 72
    65
 73
     4
 40
0.4001000000000001
 49
0.0001
 74
     0
 49
-0.1
 74
     4
 75
   134
340
B2
 46
0.1
 50
0.0
 44
-0.1
 45
0.0
 49
-0.2
 74
     4
 75
   134
340
B2
 46
0.1
 50
180.0
 44
0.1
 45
0.0
 49
-0.1
 74
     0
  0
LTYPE
  5
B7
330
5
100
AcDbSymbolTableRecord
100
AcDbLinetypeTableRecord
  2
HOT_WATER_SUPPLY
 70
     0
  3
Hot water supply ---- HW ---- HW ---- HW ----
 72
    65
 73
     3
 40
0.9
 49
0.5
 74
     0
 49
-0.2
 74
     2
 75
     0
340
55
 46
0.1
 50
0.0
 44
-0.1
 45
-0.05
  9
HW
 49
-0.2
 74
     0
  0
LTYPE
  5
B8
330
5
100
AcDbSymbolTableRecord
100
AcDbLinetypeTableRecord
  2
GAS_LINE
 70
     0
  3
Gas line ----GAS----GAS----GAS----GAS----GAS---
 72
    65
 73
     3
 40
0.95
 49
0.5
 74
     0
 49
-0.2
 74
     2
 75
     0
340
55
 46
0.1
 50
0.0
 44
-0.1
 45
-0.05
  9
GAS
 49
-0.25
 74
     0
  0
LTYPE
  5
B9
330
5
100
AcDbSymbolTableRecord
100
AcDbLinetypeTableRecord
  2
ZIGZAG
 70
     0
  3
Zig zag /\/\/\/\/\/\/\/\/\/\/\/\/\/\/\/\/\/\/\/
 72
    65
 73
     4
 40
0.8001000000000001
 49
0.0001
 74
     0
 49
-0.2
 74
     4
 75
   131
340
B2
 46
0.2
 50
0.0
 44
-0.2
 45
0.0
 49
-0.4
 74
     4
 75
   131
340
B2
 46
0.2
 50
180.0
 44
0.2
 45
0.0
 49
-0.2
 74
     0
  0
ENDTAB
  0
TABLE
  2
LAYER
  5
2
330
0
100
AcDbSymbolTable
 70
    27
  0
LAYER
  5
54
330
2
100
AcDbSymbolTableRecord
100
AcDbLayerTableRecord
  2
0
 70
     0
 62
     7
  6
Continuous
370
    18
390
F
347
21
  0
LAYER
  5
C0
330
2
100
AcDbSymbolTableRecord
100
AcDbLayerTableRecord
  2
Center Mark (ANSI)
 70
     0
 62
     7
  6
Continuous
370
    15
390
F
347
21
  0
LAYER
  5
C1
330
2
100
AcDbSymbolTableRecord
100
AcDbLayerTableRecord
  2
Centerline (ANSI)
 70
     0
 62
     7
  6
Continuous
370
    15
390
F
347
21
  0
LAYER
  5
C3
330
2
100
AcDbSymbolTableRecord
100
AcDbLayerTableRecord
  2
Dimension (ANSI)
 70
     0
 62
     7
  6
Continuous
370
    13
390
F
347
21
  0
LAYER
  5
C5
330
2
100
AcDbSymbolTableRecord
100
AcDbLayerTableRecord
  2
Hidden (ANSI)
 70
     0
 62
     7
  6
DASHED
370
    15
390
F
347
21
  0
LAYER
  5
CC
330
2
100
AcDbSymbolTableRecord
100
AcDbLayerTableRecord
  2
Symbol (ANSI)
 70
     0
 62
     7
  6
Continuous
370
    18
390
F
347
21
  0
LAYER
  5
CF
330
2
100
AcDbSymbolTableRecord
100
AcDbLayerTableRecord
  2
Visible (ANSI)
 70
     0
 62
     7
  6
Continuous
370
    13
390
F
347
21
  0
LAYER
  5
D0
330
2
100
AcDbSymbolTableRecord
100
AcDbLayerTableRecord
  2
Visible Narrow (ANSI)
 70
     0
 62
     7
  6
Continuous
370
    18
390
F
347
21
  0
LAYER
  5
545
330
2
100
AcDbSymbolTableRecord
100
AcDbLayerTableRecord
  2
Defpoints
 70
     0
 62
     7
  6
Continuous
290
     0
370
    -3
390
F
347
21
  0
ENDTAB
  0
TABLE
  2
STYLE
  5
3
330
0
100
AcDbSymbolTable
 70
    18
  0
STYLE
  5
55
330
3
100
AcDbSymbolTableRecord
100
AcDbTextStyleTableRecord
  2
Standard
 70
     0
 40
0.0
 41
1.0
 50
0.0
 71
     0
 42
0.2
  3
txt
  4

  0
STYLE
  5
5A
330
3
100
AcDbSymbolTableRecord
100
AcDbTextStyleTableRecord
  2
Annotative
 70
     0
 40
0.0
 41
1.0
 50
0.0
 71
     0
 42
0.2
  3
txt
  4

1001
AcadAnnotative
1000
AnnotativeData
1002
{
1070
     1
1070
     1
1002
}
  0
STYLE
  5
B2
330
3
100
AcDbSymbolTableRecord
100
AcDbTextStyleTableRecord
  2

 70
     1
 40
0.0
 41
1.0
 50
0.0
 71
     0
 42
0.2
  3
ltypeshp.shx
  4

  0
STYLE
  5
D4
330
3
100
AcDbSymbolTableRecord
100
AcDbTextStyleTableRecord
  2
ITALICC_120
 70
     0
 40
0.0
 41
1.0
 50
0.0
 71
     0
 42
0.2
  3
italicc.shx
  4

  0
STYLE
  5
D5
330
3
100
AcDbSymbolTableRecord
100
AcDbTextStyleTableRecord
  2
Label Text (ANSI)
 70
     0
 40
0.0
 41
1.0
 50
0.0
 71
     0
 42
0.2
  3
tahoma.ttf
  4

1001
ACAD
1000
Tahoma
1071
      256
  0
STYLE
  5
D6
330
3
100
AcDbSymbolTableRecord
100
AcDbTextStyleTableRecord
  2
Note Text (ANSI)
 70
     0
 40
0.0
 41
1.0
 50
0.0
 71
     0
 42
0.2
  3
tahoma.ttf
  4

1001
ACAD
1000
Tahoma
1071
      256
  0
STYLE
  5
D7
330
3
100
AcDbSymbolTableRecord
100
AcDbTextStyleTableRecord
  2
ROMANS
 70
     0
 40
0.0
 41
1.0
 50
0.0
 71
     0
 42
0.2
  3
romans.shx
  4

  0
STYLE
  5
D8
330
3
100
AcDbSymbolTableRecord
100
AcDbTextStyleTableRecord
  2
SANSSERIF_114
 70
     0
 40
0.0
 41
1.0
 50
0.0
 71
     0
 42
0.2
  3
tahoma.ttf
  4

1001
ACAD
1000
Tahoma
1071
      256
  0
STYLE
  5
D9
330
3
100
AcDbSymbolTableRecord
100
AcDbTextStyleTableRecord
  2
SANSSERIF_117
 70
     0
 40
0.0
 41
1.0
 50
0.0
 71
     0
 42
0.2
  3
tahoma.ttf
  4

1001
ACAD
1000
Tahoma
1071
      256
  0
STYLE
  5
DA
330
3
100
AcDbSymbolTableRecord
100
AcDbTextStyleTableRecord
  2
STANDARDAM_ANSI
 70
     0
 40
0.0
 41
1.0
 50
0.0
 71
     0
 42
0.2
  3
txt.shx
  4

  0
STYLE
  5
DB
330
3
100
AcDbSymbolTableRecord
100
AcDbTextStyleTableRecord
  2
StandardAM_ANSI$0
 70
     0
 40
0.0
 41
1.0
 50
0.0
 71
     0
 42
0.2
  3
txt.shx
  4

  0
STYLE
  5
DC
330
3
100
AcDbSymbolTableRecord
100
AcDbTextStyleTableRecord
  2
STANDARDAM_ANSI$3
 70
     0
 40
0.0
 41
1.0
 50
0.0
 71
     0
 42
0.2
  3
txt.shx
  4

  0
STYLE
  5
DD
330
3
100
AcDbSymbolTableRecord
100
AcDbTextStyleTableRecord
  2
STANDARDAM_ANSI$4
 70
     0
 40
0.0
 41
1.0
 50
0.0
 71
     0
 42
0.2
  3
txt.shx
  4

  0
STYLE
  5
DE
330
3
100
AcDbSymbolTableRecord
100
AcDbTextStyleTableRecord
  2
STANDARDAM_ANSI$7
 70
     0
 40
0.0
 41
1.0
 50
0.0
 71
     0
 42
0.2
  3
txt.shx
  4

  0
STYLE
  5
DF
330
3
100
AcDbSymbolTableRecord
100
AcDbTextStyleTableRecord
  2
STANDARDAM_ANSI$SF
 70
     0
 40
0.0
 41
1.0
 50
0.0
 71
     0
 42
0.2
  3
txt.shx
  4

  0
STYLE
  5
E0
330
3
100
AcDbSymbolTableRecord
100
AcDbTextStyleTableRecord
  2
STANDARDAM_ANSI$SH
 70
     0
 40
0.0
 41
1.0
 50
0.0
 71
     0
 42
0.2
  3
txt.shx
  4

  0
STYLE
  5
E1
330
3
100
AcDbSymbolTableRecord
100
AcDbTextStyleTableRecord
  2
STANDARDSTANDARD
 70
     0
 40
0.0
 41
1.0
 50
0.0
 71
     0
 42
0.2
  3
txt.shx
  4

  0
STYLE
  5
2DF
330
3
100
AcDbSymbolTableRecord
100
AcDbTextStyleTableRecord
  2
Text Style153
 70
     0
 40
0.0
 41
1.0
 50
0.0
 71
     0
 42
0.2
  3
tahoma.ttf
  4

1001
ACAD
1000
Tahoma
1071
      256
  0
ENDTAB
  0
TABLE
  2
VIEW
  5
6
330
0
100
AcDbSymbolTable
 70
     0
  0
ENDTAB
  0
TABLE
  2
UCS
  5
7
330
0
100
AcDbSymbolTable
 70
     0
  0
ENDTAB
  0
TABLE
  2
APPID
  5
9
330
0
100
AcDbSymbolTable
 70
     3
  0
APPID
  5
56
330
9
100
AcDbSymbolTableRecord
100
AcDbRegAppTableRecord
  2
ACAD
 70
     0
  0
APPID
  5
5E
330
9
100
AcDbSymbolTableRecord
100
AcDbRegAppTableRecord
  2
AcadAnnotative
 70
     0
  0
APPID
  5
B70
330
9
100
AcDbSymbolTableRecord
100
AcDbRegAppTableRecord
  2
ACAD_DSTYLE_DIMRADIAL_EXTENSION
 70
     0
  0
ENDTAB
  0
TABLE
  2
DIMSTYLE
  5
A
330
0
100
AcDbSymbolTable
 70
    27
100
AcDbDimStyleTable
 71
     2
340
F6
340
58
  0
DIMSTYLE
105
58
330
A
100
AcDbSymbolTableRecord
100
AcDbDimStyleTableRecord
  2
STANDARD
 70
     0
 41
0.1800000071525573
 42
0.0625
140
0.1800000071525574
144
1.0
147
0.0900000035762787
176
   256
177
   256
178
   256
274
     3
340
55
371
    -1
372
    -1
  0
DIMSTYLE
105
59
330
A
100
AcDbSymbolTableRecord
100
AcDbDimStyleTableRecord
  2
Annotative
 70
     0
340
55
1001
AcadAnnotative
1000
AnnotativeData
1002
{
1070
     1
1070
     1
1002
}
  0
DIMSTYLE
105
E2
330
A
100
AcDbSymbolTableRecord
100
AcDbDimStyleTableRecord
  2
AM_ANSI
 70
     0
  4
 mm
 40
10.0
 41
0.119999997317791
 42
0.05
 43
0.5
 44
0.1
 45
0.00000001
 78
     4
 79
     2
140
0.1200000047683716
146
0.7099999189376831
147
0.0599999986588955
176
   256
177
   256
178
     2
284
     4
340
DA
371
    -1
372
    -1
  0
DIMSTYLE
105
E3
330
A
100
AcDbSymbolTableRecord
100
AcDbDimStyleTableRecord
  2
AM_ANSI$7
 70
     0
  4
 mm
 40
10.0
 41
0.119999997317791
 42
0.05
 43
0.5
 44
0.1
 45
0.00000001
 78
     4
 79
     2
140
0.1200000047683716
146
0.7099999189376831
147
0.0599999986588955
176
   256
177
   256
178
     2
284
     4
340
DA
371
    -1
372
    -1
  0
DIMSTYLE
105
E4
330
A
100
AcDbSymbolTableRecord
100
AcDbDimStyleTableRecord
  2
AM_ANSI$0
 70
     0
  4
 mm
 40
10.0
 41
0.119999997317791
 42
0.05
 43
0.5
 44
0.1
 45
0.00000001
 78
     4
 79
     2
140
0.1200000047683716
146
0.7099999189376831
147
0.0599999986588955
176
   256
177
   256
178
     2
284
     4
340
DB
371
    -1
372
    -1
  0
DIMSTYLE
105
E5
330
A
100
AcDbSymbolTableRecord
100
AcDbDimStyleTableRecord
  2
AM_ANSI$0$7
 70
     0
  4
 mm
 40
10.0
 41
0.119999997317791
 42
0.05
 43
0.5
 44
0.1
 45
0.00000001
 78
     4
 79
     2
140
0.1200000047683716
146
0.7099999189376831
147
0.0599999986588955
176
   256
177
   256
178
     2
284
     4
340
DB
371
    -1
372
    -1
  0
DIMSTYLE
105
E6
330
A
100
AcDbSymbolTableRecord
100
AcDbDimStyleTableRecord
  2
AM_ANSI$3
 70
     0
  4
 mm
 40
10.0
 41
0.119999997317791
 42
0.05
 43
0.5
 44
0.1
 45
0.00000001
 78
     4
 79
     2
140
0.1200000047683716
146
0.7099999189376831
147
0.0599999986588955
176
   256
177
   256
178
     2
284
     4
340
DC
371
    -1
372
    -1
  0
DIMSTYLE
105
E7
330
A
100
AcDbSymbolTableRecord
100
AcDbDimStyleTableRecord
  2
AM_ANSI$3$7
 70
     0
  4
 mm
 40
10.0
 41
0.119999997317791
 42
0.05
 43
0.5
 44
0.1
 45
0.00000001
 78
     4
 79
     2
140
0.1200000047683716
146
0.7099999189376831
147
0.0599999986588955
176
   256
177
   256
178
     2
284
     4
340
DC
371
    -1
372
    -1
  0
DIMSTYLE
105
E8
330
A
100
AcDbSymbolTableRecord
100
AcDbDimStyleTableRecord
  2
AM_ANSI$4
 70
     0
  4
 mm
 40
10.0
 41
0.119999997317791
 42
0.05
 43
0.5
 44
0.1
 45
0.00000001
 78
     4
 79
     2
140
0.1200000047683716
146
0.7099999189376831
147
0.0599999986588955
176
   256
177
   256
178
     2
284
     4
340
DD
371
    -1
372
    -1
  0
DIMSTYLE
105
E9
330
A
100
AcDbSymbolTableRecord
100
AcDbDimStyleTableRecord
  2
AM_ANSI$4$7
 70
     0
  4
 mm
 40
10.0
 41
0.119999997317791
 42
0.05
 43
0.5
 44
0.1
 45
0.00000001
 78
     4
 79
     2
140
0.1200000047683716
146
0.7099999189376831
147
0.0599999986588955
176
   256
177
   256
178
     2
284
     4
340
DD
371
    -1
372
    -1
  0
DIMSTYLE
105
EA
330
A
100
AcDbSymbolTableRecord
100
AcDbDimStyleTableRecord
  2
AM_ANSI$SF
 70
     0
  4
 mm
 40
10.0
 41
0.119999997317791
 42
0.05
 43
0.5
 44
0.1
 45
0.00000001
 75
     1
 76
     1
 78
     4
 79
     2
140
0.1200000047683716
146
0.7099999189376831
147
0.0599999986588955
176
   256
177
   256
178
     2
284
     4
340
DF
371
    -1
372
    -1
  0
DIMSTYLE
105
EB
330
A
100
AcDbSymbolTableRecord
100
AcDbDimStyleTableRecord
  2
AM_ANSI$SF$7
 70
     0
  4
 mm
 40
10.0
 41
0.119999997317791
 42
0.05
 43
0.5
 44
0.1
 45
0.00000001
 75
     1
 76
     1
 78
     4
 79
     2
140
0.1200000047683716
146
0.7099999189376831
147
0.0599999986588955
176
   256
177
   256
178
     2
284
     4
340
DF
371
    -1
372
    -1
  0
DIMSTYLE
105
EC
330
A
100
AcDbSymbolTableRecord
100
AcDbDimStyleTableRecord
  2
AM_ANSI$SH
 70
     0
  4
 mm
 40
10.0
 41
0.119999997317791
 42
0.05
 43
0.5
 44
0.1
 45
0.00000001
 75
     1
 76
     1
 78
     4
 79
     2
140
0.1200000047683716
146
0.7099999189376831
147
0.0599999986588955
176
   256
177
   256
178
     2
284
     4
340
E0
371
    -1
372
    -1
  0
DIMSTYLE
105
ED
330
A
100
AcDbSymbolTableRecord
100
AcDbDimStyleTableRecord
  2
AM_ANSI$SH$7
 70
     0
  4
 mm
 40
10.0
 41
0.119999997317791
 42
0.05
 43
0.5
 44
0.1
 45
0.00000001
 75
     1
 76
     1
 78
     4
 79
     2
140
0.1200000047683716
146
0.7099999189376831
147
0.0599999986588955
176
   256
177
   256
178
     2
284
     4
340
E0
371
    -1
372
    -1
  0
DIMSTYLE
105
EE
330
A
100
AcDbSymbolTableRecord
100
AcDbDimStyleTableRecord
  2
Architectural (ANSI)
 70
     0
 40
10.0
 41
0.0984251946210861
 43
0.2362204724409449
 44
0.125
 45
0.00000001
 46
0.3937007874015748
 78
     3
 79
     3
140
0.1200000047683716
147
0.031496062992126
171
     1
176
   256
177
   256
178
   256
272
     2
274
     1
276
     2
277
     4
284
    12
285
     4
286
    12
340
D6
371
    -1
372
    -1
  0
DIMSTYLE
105
EF
330
A
100
AcDbSymbolTableRecord
100
AcDbDimStyleTableRecord
  2
Architectural (ANSI)$7
 70
     0
 40
10.0
 41
0.0984251946210861
 43
0.2362204724409449
 44
0.125
 45
0.00000001
 46
0.3937007874015748
 78
     3
 79
     3
140
0.1200000047683716
147
0.031496062992126
171
     1
176
   256
177
   256
178
   256
272
     2
274
     1
276
     2
277
     4
284
    12
285
     4
286
    12
340
D6
371
    -1
372
    -1
  0
DIMSTYLE
105
F0
330
A
100
AcDbSymbolTableRecord
100
AcDbDimStyleTableRecord
  2
Default - Fraction (ANSI)
 70
     0
 40
10.0
 41
0.0984251946210861
 43
0.2362204724409449
 44
0.125
 45
0.00000001
 46
0.3937007874015748
 79
     3
140
0.1200000047683716
147
0.031496062992126
171
     1
176
   256
177
   256
178
   256
272
     2
274
     1
276
     2
277
     5
284
    12
285
     4
286
    12
340
D6
371
    -1
372
    -1
  0
DIMSTYLE
105
F1
330
A
100
AcDbSymbolTableRecord
100
AcDbDimStyleTableRecord
  2
Default - Fraction (ANSI)$7
 70
     0
 40
10.0
 41
0.0984251946210861
 43
0.2362204724409449
 44
0.125
 45
0.00000001
 46
0.3937007874015748
 79
     3
140
0.1200000047683716
147
0.031496062992126
171
     1
176
   256
177
   256
178
   256
272
     2
274
     1
276
     2
277
     5
284
    12
285
     4
286
    12
340
D6
371
    -1
372
    -1
  0
DIMSTYLE
105
F2
330
A
100
AcDbSymbolTableRecord
100
AcDbDimStyleTableRecord
  2
Default - mm (ANSI)
 70
     0
 40
10.0
 41
0.0984251946210861
 42
0.063
 43
0.2362204724409449
 44
0.125
 45
0.00000001
 46
0.3937007874015748
 73
     0
 78
     4
 79
     1
140
0.1200000047683716
143
1.0
144
25.4
147
0.031496062992126
171
     1
176
   256
177
   256
178
   256
179
     1
271
     2
272
     2
274
     1
284
     4
285
     4
340
D6
371
    -1
372
    -1
  0
DIMSTYLE
105
F3
330
A
100
AcDbSymbolTableRecord
100
AcDbDimStyleTableRecord
  2
Default - mm (ANSI)$7
 70
     0
 40
10.0
 41
0.0984251946210861
 42
0.063
 43
0.2362204724409449
 44
0.125
 45
0.00000001
 46
0.3937007874015748
 73
     0
 78
     4
 79
     1
140
0.1200000047683716
143
1.0
144
25.4
147
0.031496062992126
171
     1
176
   256
177
   256
178
   256
179
     1
271
     2
272
     2
274
     1
284
     4
285
     4
340
D6
371
    -1
372
    -1
  0
DIMSTYLE
105
F4
330
A
100
AcDbSymbolTableRecord
100
AcDbDimStyleTableRecord
  2
Default - mm [in] (ANSI)
 70
     0
  4
 in
 40
10.0
 41
0.0984251946210861
 42
0.063
 43
0.25
 44
0.125
 45
0.00000001
 46
0.3937007874015748
 73
     0
 78
     4
 79
     1
140
0.1200000047683716
143
0.03937
144
25.4
147
0.031496062992126
170
     1
171
     3
176
   256
177
   256
178
   256
179
     1
271
     2
272
     2
274
     3
284
     4
285
     4
286
     4
340
D6
371
    -1
372
    -1
  0
DIMSTYLE
105
F5
330
A
100
AcDbSymbolTableRecord
100
AcDbDimStyleTableRecord
  2
Default - mm [in] (ANSI)$7
 70
     0
  4
 in
 40
10.0
 41
0.0984251946210861
 42
0.063
 43
0.25
 44
0.125
 45
0.00000001
 46
0.3937007874015748
 73
     0
 78
     4
 79
     1
140
0.1200000047683716
143
0.03937
144
25.4
147
0.031496062992126
170
     1
171
     3
176
   256
177
   256
178
   256
179
     1
271
     2
272
     2
274
     3
284
     4
285
     4
286
     4
340
D6
371
    -1
372
    -1
  0
DIMSTYLE
105
F6
102
{ACAD_REACTORS
330
543
330
62F
330
719
330
803
330
903
330
9ED
330
AD7
330
B91
330
C9A
102
}
330
A
100
AcDbSymbolTableRecord
100
AcDbDimStyleTableRecord
  2
Default (ANSI)
 70
     0
 40
10.0
 41
0.0984251946210861
 43
0.2362204724409449
 44
0.125
 45
0.00000001
 46
0.3937007874015748
 79
     1
140
0.1200000047683716
147
0.031496062992126
171
     1
176
   256
177
   256
178
   256
271
     2
272
     2
274
     1
284
     4
285
     4
340
D6
371
    -1
372
    -1
  0
DIMSTYLE
105
F7
330
A
100
AcDbSymbolTableRecord
100
AcDbDimStyleTableRecord
  2
Default (ANSI)$7
 70
     0
 40
10.0
 41
0.0984251946210861
 43
0.2362204724409449
 44
0.125
 45
0.00000001
 46
0.3937007874015748
 79
     1
140
0.1200000047683716
147
0.031496062992126
171
     1
176
   256
177
   256
178
   256
271
     2
272
     2
274
     1
284
     4
285
     4
340
D6
371
    -1
372
    -1
  0
DIMSTYLE
105
F8
330
A
100
AcDbSymbolTableRecord
100
AcDbDimStyleTableRecord
  2
Alternate (ANSI)
 70
     0
 40
10.0
 41
0.0979999974370003
340
55
342
F9
  0
DIMSTYLE
105
10B
330
A
100
AcDbSymbolTableRecord
100
AcDbDimStyleTableRecord
  2
Datum (ANSI)
 70
     0
 40
10.0
 41
0.0979999974370003
340
55
342
F9
  0
DIMSTYLE
105
11A
330
A
100
AcDbSymbolTableRecord
100
AcDbDimStyleTableRecord
  2
Large (ANSI)
 70
     0
 40
10.0
 41
0.1959999948740005
340
55
342
F9
  0
ENDTAB
  0
TABLE
  2
BLOCK_RECORD
  5
1
330
0
100
AcDbSymbolTable
 70
    13
  0
BLOCK_RECORD
  5
6C
330
1
100
AcDbSymbolTableRecord
100
AcDbBlockTableRecord
  2
*Model_Space
340
6F
 70
     0
280
     1
281
     0
  0
BLOCK_RECORD
  5
68
330
1
100
AcDbSymbolTableRecord
100
AcDbBlockTableRecord
  2
*Paper_Space
340
6B
 70
     0
280
     1
281
     0
  0
BLOCK_RECORD
  5
70
330
1
100
AcDbSymbolTableRecord
100
AcDbBlockTableRecord
  2
*Paper_Space0
340
73
 70
     0
280
     1
281
     0
  0
BLOCK_RECORD
  5
F9
330
1
100
AcDbSymbolTableRecord
100
AcDbBlockTableRecord
  2
_Closed
340
0
 70
     0
280
     1
281
     0
  0
BLOCK_RECORD
  5
100
330
1
100
AcDbSymbolTableRecord
100
AcDbBlockTableRecord
  2
DatumFilled45
340
0
 70
     0
280
     1
281
     0
  0
BLOCK_RECORD
  5
10C
330
1
100
AcDbSymbolTableRecord
100
AcDbBlockTableRecord
  2
Filled-1
340
0
 70
     0
280
     1
281
     0
  0
BLOCK_RECORD
  5
546
330
1
100
AcDbSymbolTableRecord
100
AcDbBlockTableRecord
  2
*D4
340
0
 70
     0
280
     1
281
     0
  0
BLOCK_RECORD
  5
630
330
1
100
AcDbSymbolTableRecord
100
AcDbBlockTableRecord
  2
*D5
340
0
 70
     0
280
     1
281
     0
  0
BLOCK_RECORD
  5
71A
330
1
100
AcDbSymbolTableRecord
100
AcDbBlockTableRecord
  2
*D6
340
0
 70
     0
280
     1
281
     0
  0
BLOCK_RECORD
  5
804
330
1
100
AcDbSymbolTableRecord
100
AcDbBlockTableRecord
  2
*D7
340
0
 70
     0
280
     1
281
     0
  0
BLOCK_RECORD
  5
904
330
1
100
AcDbSymbolTableRecord
100
AcDbBlockTableRecord
  2
*D8
340
0
 70
     0
280
     1
281
     0
  0
BLOCK_RECORD
  5
9EE
330
1
100
AcDbSymbolTableRecord
100
AcDbBlockTableRecord
  2
*D9
340
0
 70
     0
280
     1
281
     0
  0
BLOCK_RECORD
  5
AD8
330
1
100
AcDbSymbolTableRecord
100
AcDbBlockTableRecord
  2
*D10
340
0
 70
     0
280
     1
281
     0
  0
BLOCK_RECORD
  5
B92
330
1
100
AcDbSymbolTableRecord
100
AcDbBlockTableRecord
  2
*D11
340
0
 70
     0
280
     1
281
     0
  0
BLOCK_RECORD
  5
C9B
330
1
100
AcDbSymbolTableRecord
100
AcDbBlockTableRecord
  2
*D12
340
0
 70
     0
280
     1
281
     0
  0
ENDTAB
  0
ENDSEC
  0
SECTION
  2
BLOCKS
  0
BLOCK
  5
6D
330
6C
100
AcDbEntity
  8
0
100
AcDbBlockBegin
  2
*Model_Space
 70
     0
 10
0.0
 20
0.0
 30
0.0
  3
*Model_Space
  1

  0
ENDBLK
  5
6E
330
6C
100
AcDbEntity
  8
0
100
AcDbBlockEnd
  0
BLOCK
  5
69
330
68
100
AcDbEntity
 67
     1
  8
0
100
AcDbBlockBegin
  2
*Paper_Space
 70
     0
 10
0.0
 20
0.0
 30
0.0
  3
*Paper_Space
  1

  0
ENDBLK
  5
6A
330
68
100
AcDbEntity
 67
     1
  8
0
100
AcDbBlockEnd
  0
BLOCK
  5
71
330
70
100
AcDbEntity
 67
     1
  8
0
100
AcDbBlockBegin
  2
*Paper_Space0
 70
     0
 10
0.0
 20
0.0
 30
0.0
  3
*Paper_Space0
  1

  0
ENDBLK
  5
72
330
70
100
AcDbEntity
 67
     1
  8
0
100
AcDbBlockEnd
  0
BLOCK
  5
FE
330
F9
100
AcDbEntity
  8
0
100
AcDbBlockBegin
  2
_Closed
 70
     0
 10
0.0
 20
0.0
 30
0.0
  3
_Closed
  1

  0
LINE
  5
FA
330
F9
100
AcDbEntity
  8
0
  6
ByBlock
 62
     0
370
    -2
100
AcDbLine
 10
-1.0
 20
0.1666666666666666
 30
0.0
 11
0.0
 21
0.0
 31
0.0
  0
LINE
  5
FB
330
F9
100
AcDbEntity
  8
0
  6
ByBlock
 62
     0
370
    -2
100
AcDbLine
 10
0.0
 20
0.0
 30
0.0
 11
-1.0
 21
-0.1666666666666666
 31
0.0
  0
LINE
  5
FC
330
F9
100
AcDbEntity
  8
0
  6
ByBlock
 62
     0
370
    -2
100
AcDbLine
 10
-1.0
 20
0.1666666666666666
 30
0.0
 11
-1.0
 21
-0.1666666666666666
 31
0.0
  0
LINE
  5
FD
330
F9
100
AcDbEntity
  8
0
  6
ByBlock
 62
     0
370
    -2
100
AcDbLine
 10
0.0
 20
0.0
 30
0.0
 11
-1.0
 21
0.0
 31
0.0
  0
ENDBLK
  5
FF
330
F9
100
AcDbEntity
  8
0
100
AcDbBlockEnd
  0
BLOCK
  5
101
330
100
100
AcDbEntity
  8
0
100
AcDbBlockBegin
  2
DatumFilled45
 70
     0
 10
0.0
 20
0.0
 30
0.0
  3
DatumFilled45
  1

  0
POLYLINE
  5
103
330
100
100
AcDbEntity
  8
0
 62
     0
100
AcDb2dPolyline
 66
     1
 10
0.0
 20
0.0
 30
0.0
 70
   128
  0
VERTEX
  5
104
330
103
100
AcDbEntity
  8
0
 62
     0
100
AcDbVertex
100
AcDb2dVertex
 10
0.0
 20
0.9999999999999998
 30
0.0
  0
VERTEX
  5
105
330
103
100
AcDbEntity
  8
0
 62
     0
100
AcDbVertex
100
AcDb2dVertex
 10
0.0
 20
-0.9999999999999998
 30
0.0
  0
VERTEX
  5
107
330
103
100
AcDbEntity
  8
0
 62
     0
100
AcDbVertex
100
AcDb2dVertex
 10
-0.9999999999999998
 20
0.0
 30
0.0
  0
VERTEX
  5
108
330
103
100
AcDbEntity
  8
0
 62
     0
100
AcDbVertex
100
AcDb2dVertex
 10
0.0
 20
0.9999999999999998
 30
0.0
  0
SEQEND
  5
106
330
103
100
AcDbEntity
  8
0
 62
     0
  0
SOLID
  5
10A
330
100
100
AcDbEntity
  8
0
 62
     0
100
AcDbTrace
 10
0.0
 20
0.9999999999999998
 30
0.0
 11
0.0
 21
-0.9999999999999998
 31
0.0
 12
-0.9999999999999998
 22
0.0
 32
0.0
 13
0.0
 23
0.9999999999999998
 33
0.0
  0
ENDBLK
  5
102
330
100
100
AcDbEntity
  8
0
100
AcDbBlockEnd
  0
BLOCK
  5
10D
330
10C
100
AcDbEntity
  8
0
100
AcDbBlockBegin
  2
Filled-1
 70
     0
 10
0.0
 20
0.0
 30
0.0
  3
Filled-1
  1

  0
LINE
  5
10F
330
10C
100
AcDbEntity
  8
0
 62
     0
100
AcDbLine
 10
-0.9999999999999998
 20
0.0
 30
0.0
 11
0.0
 21
0.0
 31
0.0
  0
POLYLINE
  5
110
330
10C
100
AcDbEntity
  8
0
 62
     0
100
AcDb2dPolyline
 66
     1
 10
0.0
 20
0.0
 30
0.0
 70
   128
  0
VERTEX
  5
111
330
110
100
AcDbEntity
  8
0
 62
     0
100
AcDbVertex
100
AcDb2dVertex
 10
-0.9999999999999998
 20
-0.0994897959183674
 30
0.0
  0
VERTEX
  5
112
330
110
100
AcDbEntity
  8
0
 62
     0
100
AcDbVertex
100
AcDb2dVertex
 10
0.0
 20
0.0
 30
0.0
  0
VERTEX
  5
114
330
110
100
AcDbEntity
  8
0
 62
     0
100
AcDbVertex
100
AcDb2dVertex
 10
-0.9999999999999998
 20
0.0994897959183674
 30
0.0
  0
VERTEX
  5
115
330
110
100
AcDbEntity
  8
0
 62
     0
100
AcDbVertex
100
AcDb2dVertex
 10
-0.9999999999999998
 20
-0.0994897959183674
 30
0.0
  0
SEQEND
  5
113
330
110
100
AcDbEntity
  8
0
 62
     0
  0
SOLID
  5
116
330
10C
100
AcDbEntity
  8
0
 62
     0
100
AcDbTrace
 10
-0.9999999999999998
 20
-0.0994897959183674
 30
0.0
 11
0.0
 21
0.0
 31
0.0
 12
-0.9999999999999998
 22
0.0994897959183674
 32
0.0
 13
-0.9999999999999998
 23
-0.0994897959183674
 33
0.0
  0
LINE
  5
117
330
10C
100
AcDbEntity
  8
0
 62
     0
100
AcDbLine
 10
-0.9999999999999998
 20
-0.0994897959183674
 30
0.0
 11
0.0
 21
0.0
 31
0.0
  0
LINE
  5
118
330
10C
100
AcDbEntity
  8
0
 62
     0
100
AcDbLine
 10
0.0
 20
0.0
 30
0.0
 11
-0.9999999999999998
 21
0.0994897959183674
 31
0.0
  0
LINE
  5
119
330
10C
100
AcDbEntity
  8
0
 62
     0
100
AcDbLine
 10
-0.9999999999999998
 20
0.0994897959183674
 30
0.0
 11
-0.9999999999999998
 21
-0.0994897959183674
 31
0.0
  0
ENDBLK
  5
10E
330
10C
100
AcDbEntity
  8
0
100
AcDbBlockEnd
  0
BLOCK
  5
547
330
546
100
AcDbEntity
  8
0
100
AcDbBlockBegin
  2
*D4
 70
     1
 10
0.0
 20
0.0
 30
0.0
  3
*D4
  1

  0
LINE
  5
625
330
546
100
AcDbEntity
  8
Dimension (ANSI)
440
 16777216
100
AcDbLine
 10
29.13226030152918
 20
67.31900823378609
 30
0.0
 11
29.13226030152918
 21
76.60542555662072
 31
0.0
  0
LINE
  5
626
330
546
100
AcDbEntity
  8
Dimension (ANSI)
440
 16777216
100
AcDbLine
 10
55.13226030152917
 20
67.31900823378611
 30
0.0
 11
55.13226030152917
 21
76.60542555662072
 31
0.0
  0
LINE
  5
627
330
546
100
AcDbEntity
  8
Dimension (ANSI)
440
 16777216
100
AcDbLine
 10
30.11651224774004
 20
75.35542555662072
 30
0.0
 11
39.84282008945236
 21
75.35542555662072
 31
0.0
  0
LINE
  5
628
330
546
100
AcDbEntity
  8
Dimension (ANSI)
440
 16777216
100
AcDbLine
 10
54.14800835531831
 20
75.35542555662072
 30
0.0
 11
44.42170051360598
 21
75.35542555662072
 31
0.0
  0
SOLID
  5
629
330
546
100
AcDbEntity
  8
Dimension (ANSI)
440
 16777216
100
AcDbTrace
 10
30.11651224774004
 20
75.51946754765586
 30
0.0
 11
30.11651224774004
 21
75.19138356558556
 31
0.0
 12
29.13226030152918
 22
75.35542555662072
 32
0.0
 13
29.13226030152918
 23
75.35542555662072
 33
0.0
  0
SOLID
  5
62A
330
546
100
AcDbEntity
  8
Dimension (ANSI)
440
 16777216
100
AcDbTrace
 10
54.14800835531831
 20
75.51946754765586
 30
0.0
 11
54.14800835531831
 21
75.19138356558556
 31
0.0
 12
55.13226030152917
 22
75.35542555662072
 32
0.0
 13
55.13226030152917
 23
75.35542555662072
 33
0.0
  0
MTEXT
  5
62B
330
546
100
AcDbEntity
  8
Dimension (ANSI)
440
 16777216
100
AcDbMText
 10
40.15778071937361
 20
75.98040878762546
 30
0.0
 40
1.200000047683715
 41
0.0
 46
0.0
 71
     1
 72
     1
  1
\A1;26.00
  7
Note Text (ANSI)
 73
     1
 44
1.0
  0
POINT
  5
62C
330
546
100
AcDbEntity
  8
Defpoints
 62
     0
440
 16777216
100
AcDbPoint
 10
29.13226030152918
 20
66.69400823378609
 30
0.0
  0
POINT
  5
62D
330
546
100
AcDbEntity
  8
Defpoints
 62
     0
440
 16777216
100
AcDbPoint
 10
55.13226030152917
 20
66.69400823378611
 30
0.0
  0
POINT
  5
62E
330
546
100
AcDbEntity
  8
Defpoints
 62
     0
440
 16777216
100
AcDbPoint
 10
55.13226030152917
 20
75.35542555662072
 30
0.0
  0
ENDBLK
  5
548
330
546
100
AcDbEntity
  8
0
100
AcDbBlockEnd
  0
BLOCK
  5
631
330
630
100
AcDbEntity
  8
0
100
AcDbBlockBegin
  2
*D5
 70
     1
 10
0.0
 20
0.0
 30
0.0
  3
*D5
  1

  0
LINE
  5
70F
330
630
100
AcDbEntity
  8
Dimension (ANSI)
440
 16777216
100
AcDbLine
 10
29.13226030152918
 20
67.31900823378609
 30
0.0
 11
29.13226030152918
 21
72.69755736853809
 31
0.0
  0
LINE
  5
710
330
630
100
AcDbEntity
  8
Dimension (ANSI)
440
 16777216
100
AcDbLine
 10
30.00726030152918
 20
68.13554949452234
 30
0.0
 11
30.00726030152918
 21
72.69755736853809
 31
0.0
  0
LINE
  5
711
330
630
100
AcDbEntity
  8
Dimension (ANSI)
440
 16777216
100
AcDbLine
 10
30.99151224774004
 20
71.44755736853809
 30
0.0
 11
31.9757641939509
 21
71.44755736853809
 31
0.0
  0
LINE
  5
712
330
630
100
AcDbEntity
  8
Dimension (ANSI)
440
 16777216
100
AcDbLine
 10
28.14800835531832
 20
71.44755736853809
 30
0.0
 11
26.6551940124178
 21
71.44755736853809
 31
0.0
  0
SOLID
  5
713
330
630
100
AcDbEntity
  8
Dimension (ANSI)
440
 16777216
100
AcDbTrace
 10
30.99151224774004
 20
71.61159935957323
 30
0.0
 11
30.99151224774004
 21
71.28351537750294
 31
0.0
 12
30.00726030152918
 22
71.44755736853809
 32
0.0
 13
30.00726030152918
 23
71.44755736853809
 33
0.0
  0
SOLID
  5
714
330
630
100
AcDbEntity
  8
Dimension (ANSI)
440
 16777216
100
AcDbTrace
 10
28.14800835531832
 20
71.61159935957323
 30
0.0
 11
28.14800835531832
 21
71.28351537750294
 31
0.0
 12
29.13226030152918
 22
71.44755736853809
 32
0.0
 13
29.13226030152918
 23
71.44755736853809
 33
0.0
  0
MTEXT
  5
715
330
630
100
AcDbEntity
  8
Dimension (ANSI)
440
 16777216
100
AcDbMText
 10
23.26407478450155
 20
72.07495832964344
 30
0.0
 40
1.200000047683715
 41
0.0
 46
0.0
 71
     1
 72
     1
  1
\A1;0.88
  7
Note Text (ANSI)
 73
     1
 44
1.0
  0
POINT
  5
716
330
630
100
AcDbEntity
  8
Defpoints
 62
     0
440
 16777216
100
AcDbPoint
 10
29.13226030152918
 20
66.69400823378609
 30
0.0
  0
POINT
  5
717
330
630
100
AcDbEntity
  8
Defpoints
 62
     0
440
 16777216
100
AcDbPoint
 10
30.00726030152918
 20
67.51054949452234
 30
0.0
  0
POINT
  5
718
330
630
100
AcDbEntity
  8
Defpoints
 62
     0
440
 16777216
100
AcDbPoint
 10
30.00726030152918
 20
71.44755736853809
 30
0.0
  0
ENDBLK
  5
632
330
630
100
AcDbEntity
  8
0
100
AcDbBlockEnd
  0
BLOCK
  5
71B
330
71A
100
AcDbEntity
  8
0
100
AcDbBlockBegin
  2
*D6
 70
     1
 10
0.0
 20
0.0
 30
0.0
  3
*D6
  1

  0
LINE
  5
7F9
330
71A
100
AcDbEntity
  8
Dimension (ANSI)
440
 16777216
100
AcDbLine
 10
30.00726030152918
 20
68.13554949452234
 30
0.0
 11
30.00726030152918
 21
72.69755736853809
 31
0.0
  0
LINE
  5
7FA
330
71A
100
AcDbEntity
  8
Dimension (ANSI)
440
 16777216
100
AcDbLine
 10
54.25726030152919
 20
68.13554949452234
 30
0.0
 11
54.25726030152919
 21
72.69755736853809
 31
0.0
  0
LINE
  5
7FB
330
71A
100
AcDbEntity
  8
Dimension (ANSI)
440
 16777216
100
AcDbLine
 10
30.99151224774004
 20
71.44755736853809
 30
0.0
 11
39.85249100985476
 21
71.44755736853809
 31
0.0
  0
LINE
  5
7FC
330
71A
100
AcDbEntity
  8
Dimension (ANSI)
440
 16777216
100
AcDbLine
 10
53.27300835531833
 20
71.44755736853809
 30
0.0
 11
44.41202959320358
 21
71.44755736853809
 31
0.0
  0
SOLID
  5
7FD
330
71A
100
AcDbEntity
  8
Dimension (ANSI)
440
 16777216
100
AcDbTrace
 10
30.99151224774004
 20
71.61159935957323
 30
0.0
 11
30.99151224774004
 21
71.28351537750294
 31
0.0
 12
30.00726030152918
 22
71.44755736853809
 32
0.0
 13
30.00726030152918
 23
71.44755736853809
 33
0.0
  0
SOLID
  5
7FE
330
71A
100
AcDbEntity
  8
Dimension (ANSI)
440
 16777216
100
AcDbTrace
 10
53.27300835531833
 20
71.61159935957323
 30
0.0
 11
53.27300835531833
 21
71.28351537750294
 31
0.0
 12
54.25726030152919
 22
71.44755736853809
 32
0.0
 13
54.25726030152919
 23
71.44755736853809
 33
0.0
  0
MTEXT
  5
7FF
330
71A
100
AcDbEntity
  8
Dimension (ANSI)
440
 16777216
100
AcDbMText
 10
40.16745163977602
 20
72.07254059954284
 30
0.0
 40
1.200000047683715
 41
0.0
 46
0.0
 71
     1
 72
     1
  1
\A1;24.25
  7
Note Text (ANSI)
 73
     1
 44
1.0
  0
POINT
  5
800
330
71A
100
AcDbEntity
  8
Defpoints
 62
     0
440
 16777216
100
AcDbPoint
 10
30.00726030152918
 20
67.51054949452234
 30
0.0
  0
POINT
  5
801
330
71A
100
AcDbEntity
  8
Defpoints
 62
     0
440
 16777216
100
AcDbPoint
 10
54.25726030152919
 20
67.51054949452234
 30
0.0
  0
POINT
  5
802
330
71A
100
AcDbEntity
  8
Defpoints
 62
     0
440
 16777216
100
AcDbPoint
 10
54.25726030152919
 20
71.44755736853809
 30
0.0
  0
ENDBLK
  5
71C
330
71A
100
AcDbEntity
  8
0
100
AcDbBlockEnd
  0
BLOCK
  5
805
330
804
100
AcDbEntity
  8
0
100
AcDbBlockBegin
  2
*D7
 70
     1
 10
0.0
 20
0.0
 30
0.0
  3
*D7
  1

  0
LINE
  5
8F8
330
804
100
AcDbEntity
  8
Dimension (ANSI)
440
 16777216
100
AcDbLine
 10
28.66730156226543
 20
35.97404949452233
 30
0.0
 11
26.12604430264304
 21
35.97404949452233
 31
0.0
  0
LINE
  5
8F9
330
804
100
AcDbEntity
  8
Dimension (ANSI)
440
 16777216
100
AcDbLine
 10
27.85076030152916
 20
36.84904949452234
 30
0.0
 11
26.12604430264304
 21
36.84904949452234
 31
0.0
  0
LINE
  5
8FA
330
804
100
AcDbEntity
  8
Dimension (ANSI)
440
 16777216
100
AcDbLine
 10
27.37604430264304
 20
37.8333014407332
 30
0.0
 11
27.37604430264304
 21
38.81755338694406
 31
0.0
  0
LINE
  5
8FB
330
804
100
AcDbEntity
  8
Dimension (ANSI)
440
 16777216
100
AcDbLine
 10
27.37604430264304
 20
34.98979754831147
 30
0.0
 11
27.37604430264304
 21
33.10407283570093
 31
0.0
  0
LINE
  5
8FC
330
804
100
AcDbEntity
  8
Dimension (ANSI)
440
 16777216
100
AcDbLine
 10
27.37604430264304
 20
33.10407283570093
 30
0.0
 11
26.39179235643218
 21
33.10407283570093
 31
0.0
  0
SOLID
  5
8FD
330
804
100
AcDbEntity
  8
Dimension (ANSI)
440
 16777216
100
AcDbTrace
 10
27.2120023116079
 20
37.8333014407332
 30
0.0
 11
27.54008629367818
 21
37.8333014407332
 31
0.0
 12
27.37604430264304
 22
36.84904949452234
 32
0.0
 13
27.37604430264304
 23
36.84904949452234
 33
0.0
  0
SOLID
  5
8FE
330
804
100
AcDbEntity
  8
Dimension (ANSI)
440
 16777216
100
AcDbTrace
 10
27.2120023116079
 20
34.98979754831147
 30
0.0
 11
27.54008629367818
 21
34.98979754831147
 31
0.0
 12
27.37604430264304
 22
35.97404949452233
 32
0.0
 13
27.37604430264304
 23
35.97404949452233
 33
0.0
  0
MTEXT
  5
8FF
330
804
100
AcDbEntity
  8
Dimension (ANSI)
440
 16777216
100
AcDbMText
 10
23.00067312851592
 20
33.73147379680628
 30
0.0
 40
1.200000047683715
 41
0.0
 46
0.0
 71
     1
 72
     1
  1
\A1;0.88
  7
Note Text (ANSI)
 73
     1
 44
1.0
  0
POINT
  5
900
330
804
100
AcDbEntity
  8
Defpoints
 62
     0
440
 16777216
100
AcDbPoint
 10
29.29230156226543
 20
35.97404949452233
 30
0.0
  0
POINT
  5
901
330
804
100
AcDbEntity
  8
Defpoints
 62
     0
440
 16777216
100
AcDbPoint
 10
28.47576030152916
 20
36.84904949452234
 30
0.0
  0
POINT
  5
902
330
804
100
AcDbEntity
  8
Defpoints
 62
     0
440
 16777216
100
AcDbPoint
 10
27.37604430264304
 20
36.84904949452234
 30
0.0
  0
ENDBLK
  5
806
330
804
100
AcDbEntity
  8
0
100
AcDbBlockEnd
  0
BLOCK
  5
905
330
904
100
AcDbEntity
  8
0
100
AcDbBlockBegin
  2
*D8
 70
     1
 10
0.0
 20
0.0
 30
0.0
  3
*D8
  1

  0
LINE
  5
9E3
330
904
100
AcDbEntity
  8
Dimension (ANSI)
440
 16777216
100
AcDbLine
 10
27.85076030152916
 20
36.84904949452234
 30
0.0
 11
23.28875242751343
 21
36.84904949452234
 31
0.0
  0
LINE
  5
9E4
330
904
100
AcDbEntity
  8
Dimension (ANSI)
440
 16777216
100
AcDbLine
 10
27.85076030152918
 20
65.97904949452233
 30
0.0
 11
23.28875242751344
 21
65.97904949452233
 31
0.0
  0
LINE
  5
9E5
330
904
100
AcDbEntity
  8
Dimension (ANSI)
440
 16777216
100
AcDbLine
 10
24.53875242751343
 20
37.8333014407332
 30
0.0
 11
24.53875242751343
 21
50.47410563359632
 31
0.0
  0
LINE
  5
9E6
330
904
100
AcDbEntity
  8
Dimension (ANSI)
440
 16777216
100
AcDbLine
 10
24.53875242751344
 20
64.99479754831146
 30
0.0
 11
24.53875242751343
 21
52.35399335544833
 31
0.0
  0
SOLID
  5
9E7
330
904
100
AcDbEntity
  8
Dimension (ANSI)
440
 16777216
100
AcDbTrace
 10
24.37471043647829
 20
37.8333014407332
 30
0.0
 11
24.70279441854858
 21
37.8333014407332
 31
0.0
 12
24.53875242751343
 22
36.84904949452234
 32
0.0
 13
24.53875242751343
 23
36.84904949452234
 33
0.0
  0
SOLID
  5
9E8
330
904
100
AcDbEntity
  8
Dimension (ANSI)
440
 16777216
100
AcDbTrace
 10
24.37471043647829
 20
64.99479754831146
 30
0.0
 11
24.70279441854858
 21
64.99479754831146
 31
0.0
 12
24.53875242751344
 22
65.97904949452233
 32
0.0
 13
24.53875242751344
 23
65.97904949452233
 33
0.0
  0
MTEXT
  5
9E9
330
904
100
AcDbEntity
  8
Dimension (ANSI)
440
 16777216
100
AcDbMText
 10
22.57757036091117
 20
52.03903272552708
 30
0.0
 40
1.200000047683715
 41
0.0
 46
0.0
 71
     1
 72
     1
  1
\A1;29.13
  7
Note Text (ANSI)
 73
     1
 44
1.0
  0
POINT
  5
9EA
330
904
100
AcDbEntity
  8
Defpoints
 62
     0
440
 16777216
100
AcDbPoint
 10
28.47576030152916
 20
36.84904949452234
 30
0.0
  0
POINT
  5
9EB
330
904
100
AcDbEntity
  8
Defpoints
 62
     0
440
 16777216
100
AcDbPoint
 10
28.47576030152918
 20
65.97904949452233
 30
0.0
  0
POINT
  5
9EC
330
904
100
AcDbEntity
  8
Defpoints
 62
     0
440
 16777216
100
AcDbPoint
 10
24.53875242751344
 20
65.97904949452233
 30
0.0
  0
ENDBLK
  5
906
330
904
100
AcDbEntity
  8
0
100
AcDbBlockEnd
  0
BLOCK
  5
9EF
330
9EE
100
AcDbEntity
  8
0
100
AcDbBlockBegin
  2
*D9
 70
     1
 10
0.0
 20
0.0
 30
0.0
  3
*D9
  1

  0
LINE
  5
ACD
330
9EE
100
AcDbEntity
  8
Dimension (ANSI)
440
 16777216
100
AcDbLine
 10
28.66730156226543
 20
35.97404949452233
 30
0.0
 11
17.01867951502133
 21
35.97404949452233
 31
0.0
  0
LINE
  5
ACE
330
9EE
100
AcDbEntity
  8
Dimension (ANSI)
440
 16777216
100
AcDbLine
 10
28.66730156226541
 20
66.85404949452233
 30
0.0
 11
17.01867951502134
 21
66.85404949452233
 31
0.0
  0
LINE
  5
ACF
330
9EE
100
AcDbEntity
  8
Dimension (ANSI)
440
 16777216
100
AcDbLine
 10
18.26867951502133
 20
36.95830144073319
 30
0.0
 11
18.26867951502134
 21
50.47168790349573
 31
0.0
  0
LINE
  5
AD0
330
9EE
100
AcDbEntity
  8
Dimension (ANSI)
440
 16777216
100
AcDbLine
 10
18.26867951502134
 20
65.86979754831147
 30
0.0
 11
18.26867951502134
 21
52.35641108554894
 31
0.0
  0
SOLID
  5
AD1
330
9EE
100
AcDbEntity
  8
Dimension (ANSI)
440
 16777216
100
AcDbTrace
 10
18.10463752398619
 20
36.95830144073319
 30
0.0
 11
18.43272150605648
 21
36.95830144073319
 31
0.0
 12
18.26867951502133
 22
35.97404949452233
 32
0.0
 13
18.26867951502133
 23
35.97404949452233
 33
0.0
  0
SOLID
  5
AD2
330
9EE
100
AcDbEntity
  8
Dimension (ANSI)
440
 16777216
100
AcDbTrace
 10
18.1046375239862
 20
65.86979754831147
 30
0.0
 11
18.43272150605649
 21
65.86979754831147
 31
0.0
 12
18.26867951502134
 22
66.85404949452233
 32
0.0
 13
18.26867951502134
 23
66.85404949452233
 33
0.0
  0
MTEXT
  5
AD3
330
9EE
100
AcDbEntity
  8
Dimension (ANSI)
440
 16777216
100
AcDbMText
 10
16.28573787751368
 20
52.04145045562768
 30
0.0
 40
1.200000047683715
 41
0.0
 46
0.0
 71
     1
 72
     1
  1
\A1;30.88
  7
Note Text (ANSI)
 73
     1
 44
1.0
  0
POINT
  5
AD4
330
9EE
100
AcDbEntity
  8
Defpoints
 62
     0
440
 16777216
100
AcDbPoint
 10
29.29230156226543
 20
35.97404949452233
 30
0.0
  0
POINT
  5
AD5
330
9EE
100
AcDbEntity
  8
Defpoints
 62
     0
440
 16777216
100
AcDbPoint
 10
29.29230156226541
 20
66.85404949452233
 30
0.0
  0
POINT
  5
AD6
330
9EE
100
AcDbEntity
  8
Defpoints
 62
     0
440
 16777216
100
AcDbPoint
 10
18.26867951502134
 20
66.85404949452233
 30
0.0
  0
ENDBLK
  5
9F0
330
9EE
100
AcDbEntity
  8
0
100
AcDbBlockEnd
  0
BLOCK
  5
AD9
330
AD8
100
AcDbEntity
  8
0
100
AcDbBlockBegin
  2
*D10
 70
     1
 10
0.0
 20
0.0
 30
0.0
  3
*D10
  1

  0
LINE
  5
B89
330
AD8
100
AcDbEntity
  8
Dimension (ANSI)
440
 16777216
100
AcDbLine
 10
57.90523058856833
 20
33.86172912437409
 30
0.0
 11
56.56323393893782
 21
33.86172912437408
 31
0.0
  0
LINE
  5
B8A
330
AD8
100
AcDbEntity
  8
Dimension (ANSI)
440
 16777216
100
AcDbLine
 10
56.56323393893782
 20
33.86172912437408
 30
0.0
 11
55.03069488889523
 21
35.84708795414142
 31
0.0
  0
MTEXT
  5
B8B
330
AD8
100
AcDbEntity
  8
Dimension (ANSI)
440
 16777216
100
AcDbMText
 10
58.22019121848958
 20
33.86172912437408
 30
0.0
 40
1.200000047683715
 41
0.0
 46
0.0
 71
     4
 72
     1
  1
\A1;∅0.563{\P(4 PL.)}
  7
Note Text (ANSI)
 73
     1
 44
1.0
  0
SOLID
  5
B8C
330
AD8
100
AcDbEntity
  8
Dimension (ANSI)
440
 16777216
100
AcDbTrace
 10
55.16054953104433
 20
35.94732540590026
 30
0.0
 11
54.90084024674613
 21
35.74685050238258
 31
0.0
 12
54.42927017834219
 22
36.62621580703596
 32
0.0
 13
54.42927017834219
 23
36.62621580703596
 33
0.0
  0
LINE
  5
B8D
330
AD8
100
AcDbEntity
  8
Dimension (ANSI)
440
 16777216
100
AcDbLine
 10
53.35726030152921
 20
36.84904949452233
 30
0.0
 11
55.15726030152921
 21
36.84904949452234
 31
0.0
  0
LINE
  5
B8E
330
AD8
100
AcDbEntity
  8
Dimension (ANSI)
440
 16777216
100
AcDbLine
 10
54.25726030152921
 20
35.94904949452234
 30
0.0
 11
54.25726030152921
 21
37.74904949452233
 31
0.0
  0
POINT
  5
B8F
330
AD8
100
AcDbEntity
  8
Defpoints
 62
     0
440
 16777216
100
AcDbPoint
 10
54.42927017834219
 20
36.62621580703596
 30
0.0
  0
POINT
  5
B90
330
AD8
100
AcDbEntity
  8
Defpoints
 62
     0
440
 16777216
100
AcDbPoint
 10
54.08525042471623
 20
37.0718831820087
 30
0.0
  0
ENDBLK
  5
ADA
330
AD8
100
AcDbEntity
  8
0
100
AcDbBlockEnd
  0
BLOCK
  5
B93
330
B92
100
AcDbEntity
  8
0
100
AcDbBlockBegin
  2
*D11
 70
     1
 10
0.0
 20
0.0
 30
0.0
  3
*D11
  1

  0
LINE
  5
C91
330
B92
100
AcDbEntity
  8
Dimension (ANSI)
440
 16777216
100
AcDbLine
 10
49.00768224907979
 20
89.62278516860283
 30
0.0
 11
49.00768224907979
 21
88.63853322239197
 31
0.0
  0
LINE
  5
C92
330
B92
100
AcDbEntity
  8
Dimension (ANSI)
440
 16777216
100
AcDbLine
 10
49.00768224907979
 20
92.46628906102456
 30
0.0
 11
49.00768224907979
 21
95.70201379031969
 31
0.0
  0
LINE
  5
C93
330
B92
100
AcDbEntity
  8
Dimension (ANSI)
440
 16777216
100
AcDbLine
 10
49.00768224907979
 20
95.70201379031969
 30
0.0
 11
49.99193419529065
 21
95.70201379031969
 31
0.0
  0
SOLID
  5
C94
330
B92
100
AcDbEntity
  8
Dimension (ANSI)
440
 16777216
100
AcDbTrace
 10
48.84364025804465
 20
89.62278516860283
 30
0.0
 11
49.17172424011493
 21
89.62278516860283
 31
0.0
 12
49.00768224907979
 22
90.60703711481369
 32
0.0
 13
49.00768224907979
 23
90.60703711481369
 33
0.0
  0
SOLID
  5
C95
330
B92
100
AcDbEntity
  8
Dimension (ANSI)
440
 16777216
100
AcDbTrace
 10
48.84364025804465
 20
92.46628906102456
 30
0.0
 11
49.17172424011493
 21
92.46628906102456
 31
0.0
 12
49.00768224907979
 22
91.4820371148137
 32
0.0
 13
49.00768224907979
 23
91.4820371148137
 33
0.0
  0
MTEXT
  5
C96
330
B92
100
AcDbEntity
  8
Dimension (ANSI)
440
 16777216
100
AcDbMText
 10
51.89211986117107
 20
95.70201379031971
 30
0.0
 40
1.200000047683715
 41
0.0
 46
0.0
 71
     5
 72
     1
  1
\A1;0.88{\PTYP.}
  7
Note Text (ANSI)
 73
     1
 44
1.0
  0
POINT
  5
C97
330
B92
100
AcDbEntity
  8
Defpoints
 62
     0
440
 16777216
100
AcDbPoint
 10
51.89211986117107
 20
91.4820371148137
 30
0.0
  0
POINT
  5
C98
330
B92
100
AcDbEntity
  8
Defpoints
 62
     0
440
 16777216
100
AcDbPoint
 10
51.89588169099501
 20
90.60703711481369
 30
0.0
  0
POINT
  5
C99
330
B92
100
AcDbEntity
  8
Defpoints
 62
     0
440
 16777216
100
AcDbPoint
 10
49.00768224907979
 20
90.60703711481369
 30
0.0
  0
ENDBLK
  5
B94
330
B92
100
AcDbEntity
  8
0
100
AcDbBlockEnd
  0
BLOCK
  5
C9C
330
C9B
100
AcDbEntity
  8
0
100
AcDbBlockBegin
  2
*D12
 70
     1
 10
0.0
 20
0.0
 30
0.0
  3
*D12
  1

  0
LINE
  5
D81
330
C9B
100
AcDbEntity
  8
Dimension (ANSI)
440
 16777216
100
AcDbLine
 10
83.08639925144928
 20
65.2527392089788
 30
0.0
 11
82.10214730523842
 21
65.2527392089788
 31
0.0
  0
LINE
  5
D82
330
C9B
100
AcDbEntity
  8
Dimension (ANSI)
440
 16777216
100
AcDbLine
 10
85.92990314387103
 20
65.2527392089788
 30
0.0
 11
87.46819736779082
 21
65.2527392089788
 31
0.0
  0
SOLID
  5
D83
330
C9B
100
AcDbEntity
  8
Dimension (ANSI)
440
 16777216
100
AcDbTrace
 10
83.08639925144928
 20
65.41678120001396
 30
0.0
 11
83.08639925144928
 21
65.08869721794366
 31
0.0
 12
84.07065119766015
 22
65.2527392089788
 32
0.0
 13
84.07065119766015
 23
65.2527392089788
 33
0.0
  0
SOLID
  5
D84
330
C9B
100
AcDbEntity
  8
Dimension (ANSI)
440
 16777216
100
AcDbTrace
 10
85.92990314387103
 20
65.41678120001396
 30
0.0
 11
85.92990314387103
 21
65.08869721794366
 31
0.0
 12
84.94565119766017
 22
65.2527392089788
 32
0.0
 13
84.94565119766017
 23
65.2527392089788
 33
0.0
  0
MTEXT
  5
D85
330
C9B
100
AcDbEntity
  8
Dimension (ANSI)
440
 16777216
100
AcDbMText
 10
87.78315799771208
 20
65.2527392089788
 30
0.0
 40
1.200000047683715
 41
0.0
 46
0.0
 71
     4
 72
     1
  1
\A1;0.88{\PTYP.}
  7
Note Text (ANSI)
 73
     1
 44
1.0
  0
POINT
  5
D86
330
C9B
100
AcDbEntity
  8
Defpoints
 62
     0
440
 16777216
100
AcDbPoint
 10
84.94565119766017
 20
65.2527392089788
 30
0.0
  0
POINT
  5
D87
330
C9B
100
AcDbEntity
  8
Defpoints
 62
     0
440
 16777216
100
AcDbPoint
 10
84.07065119766015
 20
65.27827067780996
 30
0.0
  0
POINT
  5
D88
330
C9B
100
AcDbEntity
  8
Defpoints
 62
     0
440
 16777216
100
AcDbPoint
 10
84.07065119766015
 20
65.2527392089788
 30
0.0
  0
ENDBLK
  5
C9D
330
C9B
100
AcDbEntity
  8
0
100
AcDbBlockEnd
  0
ENDSEC
  0
SECTION
  2
ENTITIES
  0
CIRCLE
  5
11B
330
6C
100
AcDbEntity
  8
Visible (ANSI)
100
AcDbCircle
 10
54.25726030152919
 20
65.97904949452233
 30
0.0
 40
0.2814999999999999
  0
CIRCLE
  5
11C
330
6C
100
AcDbEntity
  8
Visible (ANSI)
100
AcDbCircle
 10
30.00726030152918
 20
65.97904949452233
 30
0.0
 40
0.2814999999999999
  0
CIRCLE
  5
11D
330
6C
100
AcDbEntity
  8
Visible (ANSI)
100
AcDbCircle
 10
30.00726030152916
 20
36.84904949452234
 30
0.0
 40
0.2814999999999999
  0
CIRCLE
  5
11E
330
6C
100
AcDbEntity
  8
Visible (ANSI)
100
AcDbCircle
 10
54.25726030152919
 20
36.84904949452234
 30
0.0
 40
0.2814999999999999
  0
LINE
  5
11F
330
6C
100
AcDbEntity
  8
Visible (ANSI)
100
AcDbLine
 10
55.13226030152917
 20
66.69400823378611
 30
0.0
 11
55.13226030152919
 21
36.13409075525858
 31
0.0
  0
LINE
  5
120
330
6C
100
AcDbEntity
  8
Visible (ANSI)
100
AcDbLine
 10
29.29230156226541
 20
66.85404949452233
 30
0.0
 11
54.97221904079294
 21
66.85404949452234
 31
0.0
  0
LINE
  5
121
330
6C
100
AcDbEntity
  8
Visible (ANSI)
100
AcDbLine
 10
29.13226030152919
 20
36.13409075525857
 30
0.0
 11
29.13226030152918
 21
66.69400823378609
 31
0.0
  0
LINE
  5
122
330
6C
100
AcDbEntity
  8
Visible (ANSI)
100
AcDbLine
 10
54.97221904079294
 20
35.97404949452233
 30
0.0
 11
29.29230156226543
 21
35.97404949452233
 31
0.0
  0
LINE
  5
123
330
6C
100
AcDbEntity
  8
Hidden (ANSI)
 48
1.056048035621643
100
AcDbLine
 10
55.0385103015292
 20
36.13409075525858
 30
0.0
 11
55.03851030152917
 21
66.69400823378611
 31
0.0
  0
LINE
  5
124
330
6C
100
AcDbEntity
  8
Hidden (ANSI)
 48
1.129432916641235
100
AcDbLine
 10
54.97221904079294
 20
66.76029949452234
 30
0.0
 11
29.29230156226541
 21
66.76029949452232
 31
0.0
  0
LINE
  5
125
330
6C
100
AcDbEntity
  8
Hidden (ANSI)
 48
1.056048035621643
100
AcDbLine
 10
29.22601030152918
 20
66.69400823378609
 30
0.0
 11
29.22601030152918
 21
36.13409075525857
 31
0.0
  0
LINE
  5
126
330
6C
100
AcDbEntity
  8
Hidden (ANSI)
 48
1.129432916641235
100
AcDbLine
 10
29.29230156226543
 20
36.06779949452234
 30
0.0
 11
54.97221904079294
 21
36.06779949452234
 31
0.0
  0
POLYLINE
  5
127
330
6C
100
AcDbEntity
  8
Visible (ANSI)
100
AcDb2dPolyline
 66
     1
 10
0.0
 20
0.0
 30
0.0
 70
   128
  0
VERTEX
  5
128
330
127
100
AcDbEntity
  8
Visible (ANSI)
100
AcDbVertex
100
AcDb2dVertex
 10
55.02291101318949
 20
66.74469824056226
 30
0.0
  0
VERTEX
  5
129
330
127
100
AcDbEntity
  8
Visible (ANSI)
100
AcDbVertex
100
AcDb2dVertex
 10
55.03006281963788
 20
66.74258664042231
 30
0.0
  0
VERTEX
  5
12B
330
127
100
AcDbEntity
  8
Visible (ANSI)
100
AcDbVertex
100
AcDb2dVertex
 10
55.03718458909993
 20
66.74047504028236
 30
0.0
  0
VERTEX
  5
12C
330
127
100
AcDbEntity
  8
Visible (ANSI)
100
AcDbVertex
100
AcDb2dVertex
 10
55.04424328089065
 20
66.7383634401424
 30
0.0
  0
VERTEX
  5
12D
330
127
100
AcDbEntity
  8
Visible (ANSI)
100
AcDbVertex
100
AcDb2dVertex
 10
55.05121186172235
 20
66.73625184000247
 30
0.0
  0
VERTEX
  5
12E
330
127
100
AcDbEntity
  8
Visible (ANSI)
100
AcDbVertex
100
AcDb2dVertex
 10
55.05806029460867
 20
66.73414023986251
 30
0.0
  0
VERTEX
  5
12F
330
127
100
AcDbEntity
  8
Visible (ANSI)
100
AcDbVertex
100
AcDb2dVertex
 10
55.06475553886463
 20
66.73202563602393
 30
0.0
  0
VERTEX
  5
130
330
127
100
AcDbEntity
  8
Visible (ANSI)
100
AcDbVertex
100
AcDb2dVertex
 10
55.07127356490117
 20
66.72991403588399
 30
0.0
  0
VERTEX
  5
131
330
127
100
AcDbEntity
  8
Visible (ANSI)
100
AcDbVertex
100
AcDb2dVertex
 10
55.07758433573195
 20
66.72780243574402
 30
0.0
  0
VERTEX
  5
132
330
127
100
AcDbEntity
  8
Visible (ANSI)
100
AcDbVertex
100
AcDb2dVertex
 10
55.08366081806923
 20
66.72569083560408
 30
0.0
  0
VERTEX
  5
133
330
127
100
AcDbEntity
  8
Visible (ANSI)
100
AcDbVertex
100
AcDb2dVertex
 10
55.08947898232397
 20
66.72357923546414
 30
0.0
  0
VERTEX
  5
134
330
127
100
AcDbEntity
  8
Visible (ANSI)
100
AcDbVertex
100
AcDb2dVertex
 10
55.0950087915098
 20
66.72146463162555
 30
0.0
  0
VERTEX
  5
135
330
127
100
AcDbEntity
  8
Visible (ANSI)
100
AcDbVertex
100
AcDb2dVertex
 10
55.10023222343495
 20
66.71935303148561
 30
0.0
  0
VERTEX
  5
136
330
127
100
AcDbEntity
  8
Visible (ANSI)
100
AcDbVertex
100
AcDb2dVertex
 10
55.1051252485103
 20
66.71724143134567
 30
0.0
  0
VERTEX
  5
137
330
127
100
AcDbEntity
  8
Visible (ANSI)
100
AcDbVertex
100
AcDb2dVertex
 10
55.10966383714681
 20
66.71512983120571
 30
0.0
  0
VERTEX
  5
138
330
127
100
AcDbEntity
  8
Visible (ANSI)
100
AcDbVertex
100
AcDb2dVertex
 10
55.11383297085128
 20
66.71301823106576
 30
0.0
  0
VERTEX
  5
139
330
127
100
AcDbEntity
  8
Visible (ANSI)
100
AcDbVertex
100
AcDb2dVertex
 10
55.11761162373329
 20
66.71090663092581
 30
0.0
  0
VERTEX
  5
13A
330
127
100
AcDbEntity
  8
Visible (ANSI)
100
AcDbVertex
100
AcDb2dVertex
 10
55.12098477729967
 20
66.70879202708722
 30
0.0
  0
VERTEX
  5
13B
330
127
100
AcDbEntity
  8
Visible (ANSI)
100
AcDbVertex
100
AcDb2dVertex
 10
55.12393741305723
 20
66.70668042694728
 30
0.0
  0
VERTEX
  5
13C
330
127
100
AcDbEntity
  8
Visible (ANSI)
100
AcDbVertex
100
AcDb2dVertex
 10
55.12645751621146
 20
66.70456882680733
 30
0.0
  0
VERTEX
  5
13D
330
127
100
AcDbEntity
  8
Visible (ANSI)
100
AcDbVertex
100
AcDb2dVertex
 10
55.12853307196778
 20
66.70245722666739
 30
0.0
  0
VERTEX
  5
13E
330
127
100
AcDbEntity
  8
Visible (ANSI)
100
AcDbVertex
100
AcDb2dVertex
 10
55.13015807292898
 20
66.70034562652745
 30
0.0
  0
VERTEX
  5
13F
330
127
100
AcDbEntity
  8
Visible (ANSI)
100
AcDbVertex
100
AcDb2dVertex
 10
55.1313235079991
 20
66.69823102268884
 30
0.0
  0
VERTEX
  5
140
330
127
100
AcDbEntity
  8
Visible (ANSI)
100
AcDbVertex
100
AcDb2dVertex
 10
55.13202637347955
 20
66.6961194225489
 30
0.0
  0
VERTEX
  5
141
330
127
100
AcDbEntity
  8
Visible (ANSI)
100
AcDbVertex
100
AcDb2dVertex
 10
55.13226066197302
 20
66.69400782240896
 30
0.0
  0
SEQEND
  5
12A
330
127
100
AcDbEntity
  8
Visible (ANSI)
  0
POLYLINE
  5
142
330
6C
100
AcDbEntity
  8
Visible (ANSI)
100
AcDb2dPolyline
 66
     1
 10
0.0
 20
0.0
 30
0.0
 70
   128
  0
VERTEX
  5
143
330
142
100
AcDbEntity
  8
Visible (ANSI)
100
AcDbVertex
100
AcDb2dVertex
 10
55.13226066197302
 20
36.13409075824534
 30
0.0
  0
VERTEX
  5
144
330
142
100
AcDbEntity
  8
Visible (ANSI)
100
AcDbVertex
100
AcDb2dVertex
 10
55.13202637347955
 20
36.13197861837829
 30
0.0
  0
VERTEX
  5
146
330
142
100
AcDbEntity
  8
Visible (ANSI)
100
AcDbVertex
100
AcDb2dVertex
 10
55.1313235079991
 20
36.12986647851124
 30
0.0
  0
VERTEX
  5
147
330
142
100
AcDbEntity
  8
Visible (ANSI)
100
AcDbVertex
100
AcDb2dVertex
 10
55.13015807292898
 20
36.12775435037739
 30
0.0
  0
VERTEX
  5
148
330
142
100
AcDbEntity
  8
Visible (ANSI)
100
AcDbVertex
100
AcDb2dVertex
 10
55.12853307196778
 20
36.12564221051034
 30
0.0
  0
VERTEX
  5
149
330
142
100
AcDbEntity
  8
Visible (ANSI)
100
AcDbVertex
100
AcDb2dVertex
 10
55.12645751621146
 20
36.1235300706433
 30
0.0
  0
VERTEX
  5
14A
330
142
100
AcDbEntity
  8
Visible (ANSI)
100
AcDbVertex
100
AcDb2dVertex
 10
55.12393741305723
 20
36.12141794250945
 30
0.0
  0
VERTEX
  5
14B
330
142
100
AcDbEntity
  8
Visible (ANSI)
100
AcDbVertex
100
AcDb2dVertex
 10
55.12098477729967
 20
36.1193058026424
 30
0.0
  0
VERTEX
  5
14C
330
142
100
AcDbEntity
  8
Visible (ANSI)
100
AcDbVertex
100
AcDb2dVertex
 10
55.11761162373329
 20
36.11719366277536
 30
0.0
  0
VERTEX
  5
14D
330
142
100
AcDbEntity
  8
Visible (ANSI)
100
AcDbVertex
100
AcDb2dVertex
 10
55.11383297085128
 20
36.1150815346415
 30
0.0
  0
VERTEX
  5
14E
330
142
100
AcDbEntity
  8
Visible (ANSI)
100
AcDbVertex
100
AcDb2dVertex
 10
55.10966383714681
 20
36.11296939477446
 30
0.0
  0
VERTEX
  5
14F
330
142
100
AcDbEntity
  8
Visible (ANSI)
100
AcDbVertex
100
AcDb2dVertex
 10
55.1051252485103
 20
36.11085725490741
 30
0.0
  0
VERTEX
  5
150
330
142
100
AcDbEntity
  8
Visible (ANSI)
100
AcDbVertex
100
AcDb2dVertex
 10
55.10023222343495
 20
36.10874512677356
 30
0.0
  0
VERTEX
  5
151
330
142
100
AcDbEntity
  8
Visible (ANSI)
100
AcDbVertex
100
AcDb2dVertex
 10
55.0950087915098
 20
36.10663298690652
 30
0.0
  0
VERTEX
  5
152
330
142
100
AcDbEntity
  8
Visible (ANSI)
100
AcDbVertex
100
AcDb2dVertex
 10
55.08947898232397
 20
36.10452085877267
 30
0.0
  0
VERTEX
  5
153
330
142
100
AcDbEntity
  8
Visible (ANSI)
100
AcDbVertex
100
AcDb2dVertex
 10
55.08366081806923
 20
36.10240871890562
 30
0.0
  0
VERTEX
  5
154
330
142
100
AcDbEntity
  8
Visible (ANSI)
100
AcDbVertex
100
AcDb2dVertex
 10
55.07758433573195
 20
36.10029657903857
 30
0.0
  0
VERTEX
  5
155
330
142
100
AcDbEntity
  8
Visible (ANSI)
100
AcDbVertex
100
AcDb2dVertex
 10
55.07127356490117
 20
36.09818445090474
 30
0.0
  0
VERTEX
  5
156
330
142
100
AcDbEntity
  8
Visible (ANSI)
100
AcDbVertex
100
AcDb2dVertex
 10
55.06475553886463
 20
36.09607231103768
 30
0.0
  0
VERTEX
  5
157
330
142
100
AcDbEntity
  8
Visible (ANSI)
100
AcDbVertex
100
AcDb2dVertex
 10
55.05806029460867
 20
36.09396017117064
 30
0.0
  0
VERTEX
  5
158
330
142
100
AcDbEntity
  8
Visible (ANSI)
100
AcDbVertex
100
AcDb2dVertex
 10
55.05121186172235
 20
36.09184804303679
 30
0.0
  0
VERTEX
  5
159
330
142
100
AcDbEntity
  8
Visible (ANSI)
100
AcDbVertex
100
AcDb2dVertex
 10
55.04424328089065
 20
36.08973590316974
 30
0.0
  0
VERTEX
  5
15A
330
142
100
AcDbEntity
  8
Visible (ANSI)
100
AcDbVertex
100
AcDb2dVertex
 10
55.03718458909993
 20
36.08762376330269
 30
0.0
  0
VERTEX
  5
15B
330
142
100
AcDbEntity
  8
Visible (ANSI)
100
AcDbVertex
100
AcDb2dVertex
 10
55.03006281963788
 20
36.08551163516884
 30
0.0
  0
VERTEX
  5
15C
330
142
100
AcDbEntity
  8
Visible (ANSI)
100
AcDbVertex
100
AcDb2dVertex
 10
55.02291101318949
 20
36.0833994953018
 30
0.0
  0
SEQEND
  5
145
330
142
100
AcDbEntity
  8
Visible (ANSI)
  0
POLYLINE
  5
15D
330
6C
100
AcDbEntity
  8
Visible (ANSI)
100
AcDb2dPolyline
 66
     1
 10
0.0
 20
0.0
 30
0.0
 70
   128
  0
VERTEX
  5
15E
330
15D
100
AcDbEntity
  8
Visible (ANSI)
100
AcDbVertex
100
AcDb2dVertex
 10
29.24161030230865
 20
66.74469824056226
 30
0.0
  0
VERTEX
  5
15F
330
15D
100
AcDbEntity
  8
Visible (ANSI)
100
AcDbVertex
100
AcDb2dVertex
 10
29.2437224421757
 20
66.75185004701065
 30
0.0
  0
VERTEX
  5
161
330
15D
100
AcDbEntity
  8
Visible (ANSI)
100
AcDbVertex
100
AcDb2dVertex
 10
29.24583457030954
 20
66.75897181647269
 30
0.0
  0
VERTEX
  5
162
330
15D
100
AcDbEntity
  8
Visible (ANSI)
100
AcDbVertex
100
AcDb2dVertex
 10
29.24794671017659
 20
66.76603351196205
 30
0.0
  0
VERTEX
  5
163
330
15D
100
AcDbEntity
  8
Visible (ANSI)
100
AcDbVertex
100
AcDb2dVertex
 10
29.25005885004364
 20
66.77300209279374
 30
0.0
  0
VERTEX
  5
164
330
15D
100
AcDbEntity
  8
Visible (ANSI)
100
AcDbVertex
100
AcDb2dVertex
 10
29.25217097817748
 20
66.77984752198142
 30
0.0
  0
VERTEX
  5
165
330
15D
100
AcDbEntity
  8
Visible (ANSI)
100
AcDbVertex
100
AcDb2dVertex
 10
29.25428311804453
 20
66.78654576993602
 30
0.0
  0
VERTEX
  5
166
330
15D
100
AcDbEntity
  8
Visible (ANSI)
100
AcDbVertex
100
AcDb2dVertex
 10
29.25639525791158
 20
66.79306379597257
 30
0.0
  0
VERTEX
  5
167
330
15D
100
AcDbEntity
  8
Visible (ANSI)
100
AcDbVertex
100
AcDb2dVertex
 10
29.25850738604543
 20
66.79937456680334
 30
0.0
  0
VERTEX
  5
168
330
15D
100
AcDbEntity
  8
Visible (ANSI)
100
AcDbVertex
100
AcDb2dVertex
 10
29.26061952591247
 20
66.80545104914063
 30
0.0
  0
VERTEX
  5
169
330
15D
100
AcDbEntity
  8
Visible (ANSI)
100
AcDbVertex
100
AcDb2dVertex
 10
29.26273166577952
 20
66.81126620969672
 30
0.0
  0
VERTEX
  5
16A
330
15D
100
AcDbEntity
  8
Visible (ANSI)
100
AcDbVertex
100
AcDb2dVertex
 10
29.26484379391337
 20
66.81679902258121
 30
0.0
  0
VERTEX
  5
16B
330
15D
100
AcDbEntity
  8
Visible (ANSI)
100
AcDbVertex
100
AcDb2dVertex
 10
29.26695593378042
 20
66.82202245450634
 30
0.0
  0
VERTEX
  5
16C
330
15D
100
AcDbEntity
  8
Visible (ANSI)
100
AcDbVertex
100
AcDb2dVertex
 10
29.26906806191427
 20
66.82691247588306
 30
0.0
  0
VERTEX
  5
16D
330
15D
100
AcDbEntity
  8
Visible (ANSI)
100
AcDbVertex
100
AcDb2dVertex
 10
29.27118020178131
 20
66.83145406821821
 30
0.0
  0
VERTEX
  5
16E
330
15D
100
AcDbEntity
  8
Visible (ANSI)
100
AcDbVertex
100
AcDb2dVertex
 10
29.27329234164836
 20
66.83562019822403
 30
0.0
  0
VERTEX
  5
16F
330
15D
100
AcDbEntity
  8
Visible (ANSI)
100
AcDbVertex
100
AcDb2dVertex
 10
29.27540446978221
 20
66.83939885110605
 30
0.0
  0
VERTEX
  5
170
330
15D
100
AcDbEntity
  8
Visible (ANSI)
100
AcDbVertex
100
AcDb2dVertex
 10
29.27751660964925
 20
66.84277200467242
 30
0.0
  0
VERTEX
  5
171
330
15D
100
AcDbEntity
  8
Visible (ANSI)
100
AcDbVertex
100
AcDb2dVertex
 10
29.2796287495163
 20
66.84572464043
 30
0.0
  0
VERTEX
  5
172
330
15D
100
AcDbEntity
  8
Visible (ANSI)
100
AcDbVertex
100
AcDb2dVertex
 10
29.28174087765015
 20
66.84824774728285
 30
0.0
  0
VERTEX
  5
173
330
15D
100
AcDbEntity
  8
Visible (ANSI)
100
AcDbVertex
100
AcDb2dVertex
 10
29.2838530175172
 20
66.85032330303918
 30
0.0
  0
VERTEX
  5
174
330
15D
100
AcDbEntity
  8
Visible (ANSI)
100
AcDbVertex
100
AcDb2dVertex
 10
29.28596515738424
 20
66.85194830400037
 30
0.0
  0
VERTEX
  5
175
330
15D
100
AcDbEntity
  8
Visible (ANSI)
100
AcDbVertex
100
AcDb2dVertex
 10
29.28807728551809
 20
66.85311373907051
 30
0.0
  0
VERTEX
  5
176
330
15D
100
AcDbEntity
  8
Visible (ANSI)
100
AcDbVertex
100
AcDb2dVertex
 10
29.29018942538514
 20
66.85381660455094
 30
0.0
  0
VERTEX
  5
177
330
15D
100
AcDbEntity
  8
Visible (ANSI)
100
AcDbVertex
100
AcDb2dVertex
 10
29.29230156525219
 20
66.85405089304442
 30
0.0
  0
SEQEND
  5
160
330
15D
100
AcDbEntity
  8
Visible (ANSI)
  0
POLYLINE
  5
178
330
6C
100
AcDbEntity
  8
Visible (ANSI)
100
AcDb2dPolyline
 66
     1
 10
0.0
 20
0.0
 30
0.0
 70
   128
  0
VERTEX
  5
179
330
178
100
AcDbEntity
  8
Visible (ANSI)
100
AcDbVertex
100
AcDb2dVertex
 10
54.97221759133756
 20
66.85405089304442
 30
0.0
  0
VERTEX
  5
17A
330
178
100
AcDbEntity
  8
Visible (ANSI)
100
AcDbVertex
100
AcDb2dVertex
 10
54.97433219517615
 20
66.85381660455094
 30
0.0
  0
VERTEX
  5
17C
330
178
100
AcDbEntity
  8
Visible (ANSI)
100
AcDbVertex
100
AcDb2dVertex
 10
54.97644379531609
 20
66.85311373907051
 30
0.0
  0
VERTEX
  5
17D
330
178
100
AcDbEntity
  8
Visible (ANSI)
100
AcDbVertex
100
AcDb2dVertex
 10
54.97855539545604
 20
66.85194830400037
 30
0.0
  0
VERTEX
  5
17E
330
178
100
AcDbEntity
  8
Visible (ANSI)
100
AcDbVertex
100
AcDb2dVertex
 10
54.980666995596
 20
66.85032330303918
 30
0.0
  0
VERTEX
  5
17F
330
178
100
AcDbEntity
  8
Visible (ANSI)
100
AcDbVertex
100
AcDb2dVertex
 10
54.98277859573594
 20
66.84824774728285
 30
0.0
  0
VERTEX
  5
180
330
178
100
AcDbEntity
  8
Visible (ANSI)
100
AcDbVertex
100
AcDb2dVertex
 10
54.98489319957452
 20
66.84572464043
 30
0.0
  0
VERTEX
  5
181
330
178
100
AcDbEntity
  8
Visible (ANSI)
100
AcDbVertex
100
AcDb2dVertex
 10
54.98700479971446
 20
66.84277200467242
 30
0.0
  0
VERTEX
  5
182
330
178
100
AcDbEntity
  8
Visible (ANSI)
100
AcDbVertex
100
AcDb2dVertex
 10
54.98911639985442
 20
66.83939885110605
 30
0.0
  0
VERTEX
  5
183
330
178
100
AcDbEntity
  8
Visible (ANSI)
100
AcDbVertex
100
AcDb2dVertex
 10
54.99122799999437
 20
66.83562019822403
 30
0.0
  0
VERTEX
  5
184
330
178
100
AcDbEntity
  8
Visible (ANSI)
100
AcDbVertex
100
AcDb2dVertex
 10
54.99333960013431
 20
66.83145406821821
 30
0.0
  0
VERTEX
  5
185
330
178
100
AcDbEntity
  8
Visible (ANSI)
100
AcDbVertex
100
AcDb2dVertex
 10
54.99545120027427
 20
66.82691247588306
 30
0.0
  0
VERTEX
  5
186
330
178
100
AcDbEntity
  8
Visible (ANSI)
100
AcDbVertex
100
AcDb2dVertex
 10
54.99756580411285
 20
66.82202245450634
 30
0.0
  0
VERTEX
  5
187
330
178
100
AcDbEntity
  8
Visible (ANSI)
100
AcDbVertex
100
AcDb2dVertex
 10
54.9996774042528
 20
66.81679902258121
 30
0.0
  0
VERTEX
  5
188
330
178
100
AcDbEntity
  8
Visible (ANSI)
100
AcDbVertex
100
AcDb2dVertex
 10
55.00178900439274
 20
66.81126620969672
 30
0.0
  0
VERTEX
  5
189
330
178
100
AcDbEntity
  8
Visible (ANSI)
100
AcDbVertex
100
AcDb2dVertex
 10
55.0039006045327
 20
66.80545104914063
 30
0.0
  0
VERTEX
  5
18A
330
178
100
AcDbEntity
  8
Visible (ANSI)
100
AcDbVertex
100
AcDb2dVertex
 10
55.00601220467263
 20
66.79937456680334
 30
0.0
  0
VERTEX
  5
18B
330
178
100
AcDbEntity
  8
Visible (ANSI)
100
AcDbVertex
100
AcDb2dVertex
 10
55.00812680851122
 20
66.79306379597257
 30
0.0
  0
VERTEX
  5
18C
330
178
100
AcDbEntity
  8
Visible (ANSI)
100
AcDbVertex
100
AcDb2dVertex
 10
55.01023840865117
 20
66.78654576993602
 30
0.0
  0
VERTEX
  5
18D
330
178
100
AcDbEntity
  8
Visible (ANSI)
100
AcDbVertex
100
AcDb2dVertex
 10
55.01235000879112
 20
66.77984752198142
 30
0.0
  0
VERTEX
  5
18E
330
178
100
AcDbEntity
  8
Visible (ANSI)
100
AcDbVertex
100
AcDb2dVertex
 10
55.01446160893107
 20
66.77300209279374
 30
0.0
  0
VERTEX
  5
18F
330
178
100
AcDbEntity
  8
Visible (ANSI)
100
AcDbVertex
100
AcDb2dVertex
 10
55.01657320907101
 20
66.76603351196205
 30
0.0
  0
VERTEX
  5
190
330
178
100
AcDbEntity
  8
Visible (ANSI)
100
AcDbVertex
100
AcDb2dVertex
 10
55.01868480921096
 20
66.75897181647269
 30
0.0
  0
VERTEX
  5
191
330
178
100
AcDbEntity
  8
Visible (ANSI)
100
AcDbVertex
100
AcDb2dVertex
 10
55.02079941304955
 20
66.75185004701065
 30
0.0
  0
VERTEX
  5
192
330
178
100
AcDbEntity
  8
Visible (ANSI)
100
AcDbVertex
100
AcDb2dVertex
 10
55.02291101318949
 20
66.74469824056226
 30
0.0
  0
SEQEND
  5
17B
330
178
100
AcDbEntity
  8
Visible (ANSI)
  0
POLYLINE
  5
193
330
6C
100
AcDbEntity
  8
Visible (ANSI)
100
AcDb2dPolyline
 66
     1
 10
0.0
 20
0.0
 30
0.0
 70
   128
  0
VERTEX
  5
194
330
193
100
AcDbEntity
  8
Visible (ANSI)
100
AcDbVertex
100
AcDb2dVertex
 10
29.24161030230865
 20
36.0833994953018
 30
0.0
  0
VERTEX
  5
195
330
193
100
AcDbEntity
  8
Visible (ANSI)
100
AcDbVertex
100
AcDb2dVertex
 10
29.23445847239386
 20
36.08551163516884
 30
0.0
  0
VERTEX
  5
197
330
193
100
AcDbEntity
  8
Visible (ANSI)
100
AcDbVertex
100
AcDb2dVertex
 10
29.22733726025871
 20
36.08762376330269
 30
0.0
  0
VERTEX
  5
198
330
193
100
AcDbEntity
  8
Visible (ANSI)
100
AcDbVertex
100
AcDb2dVertex
 10
29.22027717221745
 20
36.08973590316974
 30
0.0
  0
VERTEX
  5
199
330
193
100
AcDbEntity
  8
Visible (ANSI)
100
AcDbVertex
100
AcDb2dVertex
 10
29.21330843885419
 20
36.09184804303679
 30
0.0
  0
VERTEX
  5
19A
330
193
100
AcDbEntity
  8
Visible (ANSI)
100
AcDbVertex
100
AcDb2dVertex
 10
29.2064608976909
 20
36.09396017117064
 30
0.0
  0
VERTEX
  5
19B
330
193
100
AcDbEntity
  8
Visible (ANSI)
100
AcDbVertex
100
AcDb2dVertex
 10
29.19976386998887
 20
36.09607231103768
 30
0.0
  0
VERTEX
  5
19C
330
193
100
AcDbEntity
  8
Visible (ANSI)
100
AcDbVertex
100
AcDb2dVertex
 10
29.1932460316835
 20
36.09818445090474
 30
0.0
  0
VERTEX
  5
19D
330
193
100
AcDbEntity
  8
Visible (ANSI)
100
AcDbVertex
100
AcDb2dVertex
 10
29.18693530191891
 20
36.10029657903857
 30
0.0
  0
VERTEX
  5
19E
330
193
100
AcDbEntity
  8
Visible (ANSI)
100
AcDbVertex
100
AcDb2dVertex
 10
29.18085869638305
 20
36.10240871890562
 30
0.0
  0
VERTEX
  5
19F
330
193
100
AcDbEntity
  8
Visible (ANSI)
100
AcDbVertex
100
AcDb2dVertex
 10
29.17504223930859
 20
36.10452085877267
 30
0.0
  0
VERTEX
  5
1A0
330
193
100
AcDbEntity
  8
Visible (ANSI)
100
AcDbVertex
100
AcDb2dVertex
 10
29.16951083734115
 20
36.10663298690652
 30
0.0
  0
VERTEX
  5
1A1
330
193
100
AcDbEntity
  8
Visible (ANSI)
100
AcDbVertex
100
AcDb2dVertex
 10
29.16428817394047
 20
36.10874512677356
 30
0.0
  0
VERTEX
  5
1A2
330
193
100
AcDbEntity
  8
Visible (ANSI)
100
AcDbVertex
100
AcDb2dVertex
 10
29.15939661844814
 20
36.11085725490741
 30
0.0
  0
VERTEX
  5
1A3
330
193
100
AcDbEntity
  8
Visible (ANSI)
100
AcDbVertex
100
AcDb2dVertex
 10
29.15485711315556
 20
36.11296939477446
 30
0.0
  0
VERTEX
  5
1A4
330
193
100
AcDbEntity
  8
Visible (ANSI)
100
AcDbVertex
100
AcDb2dVertex
 10
29.15068909997147
 20
36.1150815346415
 30
0.0
  0
VERTEX
  5
1A5
330
193
100
AcDbEntity
  8
Visible (ANSI)
100
AcDbVertex
100
AcDb2dVertex
 10
29.14691042362306
 20
36.11719366277536
 30
0.0
  0
VERTEX
  5
1A6
330
193
100
AcDbEntity
  8
Visible (ANSI)
100
AcDbVertex
100
AcDb2dVertex
 10
29.14353726712338
 20
36.1193058026424
 30
0.0
  0
VERTEX
  5
1A7
330
193
100
AcDbEntity
  8
Visible (ANSI)
100
AcDbVertex
100
AcDb2dVertex
 10
29.14058407477225
 20
36.12141794250945
 30
0.0
  0
VERTEX
  5
1A8
330
193
100
AcDbEntity
  8
Visible (ANSI)
100
AcDbVertex
100
AcDb2dVertex
 10
29.13806349202357
 20
36.1235300706433
 30
0.0
  0
VERTEX
  5
1A9
330
193
100
AcDbEntity
  8
Visible (ANSI)
100
AcDbVertex
100
AcDb2dVertex
 10
29.13598631231933
 20
36.12564221051034
 30
0.0
  0
VERTEX
  5
1AA
330
193
100
AcDbEntity
  8
Visible (ANSI)
100
AcDbVertex
100
AcDb2dVertex
 10
29.13436143107343
 20
36.12775435037739
 30
0.0
  0
VERTEX
  5
1AB
330
193
100
AcDbEntity
  8
Visible (ANSI)
100
AcDbVertex
100
AcDb2dVertex
 10
29.13319580598049
 20
36.12986647851124
 30
0.0
  0
VERTEX
  5
1AC
330
193
100
AcDbEntity
  8
Visible (ANSI)
100
AcDbVertex
100
AcDb2dVertex
 10
29.1324944282787
 20
36.13197861837829
 30
0.0
  0
VERTEX
  5
1AD
330
193
100
AcDbEntity
  8
Visible (ANSI)
100
AcDbVertex
100
AcDb2dVertex
 10
29.13226030152919
 20
36.13409075824534
 30
0.0
  0
SEQEND
  5
196
330
193
100
AcDbEntity
  8
Visible (ANSI)
  0
POLYLINE
  5
1AE
330
6C
100
AcDbEntity
  8
Visible (ANSI)
100
AcDb2dPolyline
 66
     1
 10
0.0
 20
0.0
 30
0.0
 70
   128
  0
VERTEX
  5
1AF
330
1AE
100
AcDbEntity
  8
Visible (ANSI)
100
AcDbVertex
100
AcDb2dVertex
 10
29.13226030152918
 20
66.69400782240896
 30
0.0
  0
VERTEX
  5
1B0
330
1AE
100
AcDbEntity
  8
Visible (ANSI)
100
AcDbVertex
100
AcDb2dVertex
 10
29.1324944282787
 20
66.6961194225489
 30
0.0
  0
VERTEX
  5
1B2
330
1AE
100
AcDbEntity
  8
Visible (ANSI)
100
AcDbVertex
100
AcDb2dVertex
 10
29.13319580598049
 20
66.69823102268884
 30
0.0
  0
VERTEX
  5
1B3
330
1AE
100
AcDbEntity
  8
Visible (ANSI)
100
AcDbVertex
100
AcDb2dVertex
 10
29.13436143107343
 20
66.70034562652745
 30
0.0
  0
VERTEX
  5
1B4
330
1AE
100
AcDbEntity
  8
Visible (ANSI)
100
AcDbVertex
100
AcDb2dVertex
 10
29.13598631231933
 20
66.70245722666739
 30
0.0
  0
VERTEX
  5
1B5
330
1AE
100
AcDbEntity
  8
Visible (ANSI)
100
AcDbVertex
100
AcDb2dVertex
 10
29.13806349202357
 20
66.70456882680733
 30
0.0
  0
VERTEX
  5
1B6
330
1AE
100
AcDbEntity
  8
Visible (ANSI)
100
AcDbVertex
100
AcDb2dVertex
 10
29.14058407477225
 20
66.70668042694728
 30
0.0
  0
VERTEX
  5
1B7
330
1AE
100
AcDbEntity
  8
Visible (ANSI)
100
AcDbVertex
100
AcDb2dVertex
 10
29.14353726712338
 20
66.70879202708722
 30
0.0
  0
VERTEX
  5
1B8
330
1AE
100
AcDbEntity
  8
Visible (ANSI)
100
AcDbVertex
100
AcDb2dVertex
 10
29.14691042362306
 20
66.71090663092581
 30
0.0
  0
VERTEX
  5
1B9
330
1AE
100
AcDbEntity
  8
Visible (ANSI)
100
AcDbVertex
100
AcDb2dVertex
 10
29.15068909997147
 20
66.71301823106576
 30
0.0
  0
VERTEX
  5
1BA
330
1AE
100
AcDbEntity
  8
Visible (ANSI)
100
AcDbVertex
100
AcDb2dVertex
 10
29.15485711315556
 20
66.71512983120571
 30
0.0
  0
VERTEX
  5
1BB
330
1AE
100
AcDbEntity
  8
Visible (ANSI)
100
AcDbVertex
100
AcDb2dVertex
 10
29.15939661844814
 20
66.71724143134567
 30
0.0
  0
VERTEX
  5
1BC
330
1AE
100
AcDbEntity
  8
Visible (ANSI)
100
AcDbVertex
100
AcDb2dVertex
 10
29.16428817394047
 20
66.71935303148561
 30
0.0
  0
VERTEX
  5
1BD
330
1AE
100
AcDbEntity
  8
Visible (ANSI)
100
AcDbVertex
100
AcDb2dVertex
 10
29.16951083734115
 20
66.72146463162555
 30
0.0
  0
VERTEX
  5
1BE
330
1AE
100
AcDbEntity
  8
Visible (ANSI)
100
AcDbVertex
100
AcDb2dVertex
 10
29.17504223930859
 20
66.72357923546414
 30
0.0
  0
VERTEX
  5
1BF
330
1AE
100
AcDbEntity
  8
Visible (ANSI)
100
AcDbVertex
100
AcDb2dVertex
 10
29.18085869638305
 20
66.72569083560408
 30
0.0
  0
VERTEX
  5
1C0
330
1AE
100
AcDbEntity
  8
Visible (ANSI)
100
AcDbVertex
100
AcDb2dVertex
 10
29.18693530191891
 20
66.72780243574402
 30
0.0
  0
VERTEX
  5
1C1
330
1AE
100
AcDbEntity
  8
Visible (ANSI)
100
AcDbVertex
100
AcDb2dVertex
 10
29.1932460316835
 20
66.72991403588399
 30
0.0
  0
VERTEX
  5
1C2
330
1AE
100
AcDbEntity
  8
Visible (ANSI)
100
AcDbVertex
100
AcDb2dVertex
 10
29.19976386998887
 20
66.73202563602393
 30
0.0
  0
VERTEX
  5
1C3
330
1AE
100
AcDbEntity
  8
Visible (ANSI)
100
AcDbVertex
100
AcDb2dVertex
 10
29.2064608976909
 20
66.73414023986251
 30
0.0
  0
VERTEX
  5
1C4
330
1AE
100
AcDbEntity
  8
Visible (ANSI)
100
AcDbVertex
100
AcDb2dVertex
 10
29.21330843885419
 20
66.73625184000247
 30
0.0
  0
VERTEX
  5
1C5
330
1AE
100
AcDbEntity
  8
Visible (ANSI)
100
AcDbVertex
100
AcDb2dVertex
 10
29.22027717221745
 20
66.7383634401424
 30
0.0
  0
VERTEX
  5
1C6
330
1AE
100
AcDbEntity
  8
Visible (ANSI)
100
AcDbVertex
100
AcDb2dVertex
 10
29.22733726025871
 20
66.74047504028236
 30
0.0
  0
VERTEX
  5
1C7
330
1AE
100
AcDbEntity
  8
Visible (ANSI)
100
AcDbVertex
100
AcDb2dVertex
 10
29.23445847239386
 20
66.74258664042231
 30
0.0
  0
VERTEX
  5
1C8
330
1AE
100
AcDbEntity
  8
Visible (ANSI)
100
AcDbVertex
100
AcDb2dVertex
 10
29.24161030230865
 20
66.74469824056226
 30
0.0
  0
SEQEND
  5
1B1
330
1AE
100
AcDbEntity
  8
Visible (ANSI)
  0
POLYLINE
  5
1C9
330
6C
100
AcDbEntity
  8
Visible (ANSI)
100
AcDb2dPolyline
 66
     1
 10
0.0
 20
0.0
 30
0.0
 70
   128
  0
VERTEX
  5
1CA
330
1C9
100
AcDbEntity
  8
Visible (ANSI)
100
AcDbVertex
100
AcDb2dVertex
 10
55.02291101318949
 20
36.0833994953018
 30
0.0
  0
VERTEX
  5
1CB
330
1C9
100
AcDbEntity
  8
Visible (ANSI)
100
AcDbVertex
100
AcDb2dVertex
 10
55.02079941304955
 20
36.07624766538701
 30
0.0
  0
VERTEX
  5
1CD
330
1C9
100
AcDbEntity
  8
Visible (ANSI)
100
AcDbVertex
100
AcDb2dVertex
 10
55.01868480921096
 20
36.06912645325186
 30
0.0
  0
VERTEX
  5
1CE
330
1C9
100
AcDbEntity
  8
Visible (ANSI)
100
AcDbVertex
100
AcDb2dVertex
 10
55.01657320907101
 20
36.0620663652106
 30
0.0
  0
VERTEX
  5
1CF
330
1C9
100
AcDbEntity
  8
Visible (ANSI)
100
AcDbVertex
100
AcDb2dVertex
 10
55.01446160893107
 20
36.05509763184733
 30
0.0
  0
VERTEX
  5
1D0
330
1C9
100
AcDbEntity
  8
Visible (ANSI)
100
AcDbVertex
100
AcDb2dVertex
 10
55.01235000879112
 20
36.04825009068405
 30
0.0
  0
VERTEX
  5
1D1
330
1C9
100
AcDbEntity
  8
Visible (ANSI)
100
AcDbVertex
100
AcDb2dVertex
 10
55.01023840865117
 20
36.04155306298202
 30
0.0
  0
VERTEX
  5
1D2
330
1C9
100
AcDbEntity
  8
Visible (ANSI)
100
AcDbVertex
100
AcDb2dVertex
 10
55.00812680851122
 20
36.03503522467664
 30
0.0
  0
VERTEX
  5
1D3
330
1C9
100
AcDbEntity
  8
Visible (ANSI)
100
AcDbVertex
100
AcDb2dVertex
 10
55.00601220467263
 20
36.02872449491206
 30
0.0
  0
VERTEX
  5
1D4
330
1C9
100
AcDbEntity
  8
Visible (ANSI)
100
AcDbVertex
100
AcDb2dVertex
 10
55.0039006045327
 20
36.0226478893762
 30
0.0
  0
VERTEX
  5
1D5
330
1C9
100
AcDbEntity
  8
Visible (ANSI)
100
AcDbVertex
100
AcDb2dVertex
 10
55.00178900439274
 20
36.01683143230174
 30
0.0
  0
VERTEX
  5
1D6
330
1C9
100
AcDbEntity
  8
Visible (ANSI)
100
AcDbVertex
100
AcDb2dVertex
 10
54.9996774042528
 20
36.0113000303343
 30
0.0
  0
VERTEX
  5
1D7
330
1C9
100
AcDbEntity
  8
Visible (ANSI)
100
AcDbVertex
100
AcDb2dVertex
 10
54.99756580411285
 20
36.00607736693362
 30
0.0
  0
VERTEX
  5
1D8
330
1C9
100
AcDbEntity
  8
Visible (ANSI)
100
AcDbVertex
100
AcDb2dVertex
 10
54.99545120027427
 20
36.00118581144129
 30
0.0
  0
VERTEX
  5
1D9
330
1C9
100
AcDbEntity
  8
Visible (ANSI)
100
AcDbVertex
100
AcDb2dVertex
 10
54.99333960013431
 20
35.99664630614871
 30
0.0
  0
VERTEX
  5
1DA
330
1C9
100
AcDbEntity
  8
Visible (ANSI)
100
AcDbVertex
100
AcDb2dVertex
 10
54.99122799999437
 20
35.99247829296462
 30
0.0
  0
VERTEX
  5
1DB
330
1C9
100
AcDbEntity
  8
Visible (ANSI)
100
AcDbVertex
100
AcDb2dVertex
 10
54.98911639985442
 20
35.98869961661621
 30
0.0
  0
VERTEX
  5
1DC
330
1C9
100
AcDbEntity
  8
Visible (ANSI)
100
AcDbVertex
100
AcDb2dVertex
 10
54.98700479971446
 20
35.98532646011654
 30
0.0
  0
VERTEX
  5
1DD
330
1C9
100
AcDbEntity
  8
Visible (ANSI)
100
AcDbVertex
100
AcDb2dVertex
 10
54.98489319957452
 20
35.9823732677654
 30
0.0
  0
VERTEX
  5
1DE
330
1C9
100
AcDbEntity
  8
Visible (ANSI)
100
AcDbVertex
100
AcDb2dVertex
 10
54.98277859573594
 20
35.97985268501672
 30
0.0
  0
VERTEX
  5
1DF
330
1C9
100
AcDbEntity
  8
Visible (ANSI)
100
AcDbVertex
100
AcDb2dVertex
 10
54.980666995596
 20
35.97777550531247
 30
0.0
  0
VERTEX
  5
1E0
330
1C9
100
AcDbEntity
  8
Visible (ANSI)
100
AcDbVertex
100
AcDb2dVertex
 10
54.97855539545604
 20
35.97615062406658
 30
0.0
  0
VERTEX
  5
1E1
330
1C9
100
AcDbEntity
  8
Visible (ANSI)
100
AcDbVertex
100
AcDb2dVertex
 10
54.97644379531609
 20
35.97498499897364
 30
0.0
  0
VERTEX
  5
1E2
330
1C9
100
AcDbEntity
  8
Visible (ANSI)
100
AcDbVertex
100
AcDb2dVertex
 10
54.97433219517615
 20
35.97428362127184
 30
0.0
  0
VERTEX
  5
1E3
330
1C9
100
AcDbEntity
  8
Visible (ANSI)
100
AcDbVertex
100
AcDb2dVertex
 10
54.97221759133756
 20
35.97404949452233
 30
0.0
  0
SEQEND
  5
1CC
330
1C9
100
AcDbEntity
  8
Visible (ANSI)
  0
POLYLINE
  5
1E4
330
6C
100
AcDbEntity
  8
Visible (ANSI)
100
AcDb2dPolyline
 66
     1
 10
0.0
 20
0.0
 30
0.0
 70
   128
  0
VERTEX
  5
1E5
330
1E4
100
AcDbEntity
  8
Visible (ANSI)
100
AcDbVertex
100
AcDb2dVertex
 10
29.29230156525219
 20
35.97404949452233
 30
0.0
  0
VERTEX
  5
1E6
330
1E4
100
AcDbEntity
  8
Visible (ANSI)
100
AcDbVertex
100
AcDb2dVertex
 10
29.29018942538514
 20
35.97428362127184
 30
0.0
  0
VERTEX
  5
1E8
330
1E4
100
AcDbEntity
  8
Visible (ANSI)
100
AcDbVertex
100
AcDb2dVertex
 10
29.28807728551809
 20
35.97498499897364
 30
0.0
  0
VERTEX
  5
1E9
330
1E4
100
AcDbEntity
  8
Visible (ANSI)
100
AcDbVertex
100
AcDb2dVertex
 10
29.28596515738424
 20
35.97615062406658
 30
0.0
  0
VERTEX
  5
1EA
330
1E4
100
AcDbEntity
  8
Visible (ANSI)
100
AcDbVertex
100
AcDb2dVertex
 10
29.2838530175172
 20
35.97777550531247
 30
0.0
  0
VERTEX
  5
1EB
330
1E4
100
AcDbEntity
  8
Visible (ANSI)
100
AcDbVertex
100
AcDb2dVertex
 10
29.28174087765015
 20
35.97985268501672
 30
0.0
  0
VERTEX
  5
1EC
330
1E4
100
AcDbEntity
  8
Visible (ANSI)
100
AcDbVertex
100
AcDb2dVertex
 10
29.2796287495163
 20
35.9823732677654
 30
0.0
  0
VERTEX
  5
1ED
330
1E4
100
AcDbEntity
  8
Visible (ANSI)
100
AcDbVertex
100
AcDb2dVertex
 10
29.27751660964925
 20
35.98532646011654
 30
0.0
  0
VERTEX
  5
1EE
330
1E4
100
AcDbEntity
  8
Visible (ANSI)
100
AcDbVertex
100
AcDb2dVertex
 10
29.27540446978221
 20
35.98869961661621
 30
0.0
  0
VERTEX
  5
1EF
330
1E4
100
AcDbEntity
  8
Visible (ANSI)
100
AcDbVertex
100
AcDb2dVertex
 10
29.27329234164836
 20
35.99247829296462
 30
0.0
  0
VERTEX
  5
1F0
330
1E4
100
AcDbEntity
  8
Visible (ANSI)
100
AcDbVertex
100
AcDb2dVertex
 10
29.27118020178131
 20
35.99664630614871
 30
0.0
  0
VERTEX
  5
1F1
330
1E4
100
AcDbEntity
  8
Visible (ANSI)
100
AcDbVertex
100
AcDb2dVertex
 10
29.26906806191427
 20
36.00118581144129
 30
0.0
  0
VERTEX
  5
1F2
330
1E4
100
AcDbEntity
  8
Visible (ANSI)
100
AcDbVertex
100
AcDb2dVertex
 10
29.26695593378042
 20
36.00607736693362
 30
0.0
  0
VERTEX
  5
1F3
330
1E4
100
AcDbEntity
  8
Visible (ANSI)
100
AcDbVertex
100
AcDb2dVertex
 10
29.26484379391337
 20
36.0113000303343
 30
0.0
  0
VERTEX
  5
1F4
330
1E4
100
AcDbEntity
  8
Visible (ANSI)
100
AcDbVertex
100
AcDb2dVertex
 10
29.26273166577952
 20
36.01683143230174
 30
0.0
  0
VERTEX
  5
1F5
330
1E4
100
AcDbEntity
  8
Visible (ANSI)
100
AcDbVertex
100
AcDb2dVertex
 10
29.26061952591247
 20
36.0226478893762
 30
0.0
  0
VERTEX
  5
1F6
330
1E4
100
AcDbEntity
  8
Visible (ANSI)
100
AcDbVertex
100
AcDb2dVertex
 10
29.25850738604543
 20
36.02872449491206
 30
0.0
  0
VERTEX
  5
1F7
330
1E4
100
AcDbEntity
  8
Visible (ANSI)
100
AcDbVertex
100
AcDb2dVertex
 10
29.25639525791158
 20
36.03503522467664
 30
0.0
  0
VERTEX
  5
1F8
330
1E4
100
AcDbEntity
  8
Visible (ANSI)
100
AcDbVertex
100
AcDb2dVertex
 10
29.25428311804453
 20
36.04155306298202
 30
0.0
  0
VERTEX
  5
1F9
330
1E4
100
AcDbEntity
  8
Visible (ANSI)
100
AcDbVertex
100
AcDb2dVertex
 10
29.25217097817748
 20
36.04825009068405
 30
0.0
  0
VERTEX
  5
1FA
330
1E4
100
AcDbEntity
  8
Visible (ANSI)
100
AcDbVertex
100
AcDb2dVertex
 10
29.25005885004364
 20
36.05509763184733
 30
0.0
  0
VERTEX
  5
1FB
330
1E4
100
AcDbEntity
  8
Visible (ANSI)
100
AcDbVertex
100
AcDb2dVertex
 10
29.24794671017659
 20
36.0620663652106
 30
0.0
  0
VERTEX
  5
1FC
330
1E4
100
AcDbEntity
  8
Visible (ANSI)
100
AcDbVertex
100
AcDb2dVertex
 10
29.24583457030954
 20
36.06912645325186
 30
0.0
  0
VERTEX
  5
1FD
330
1E4
100
AcDbEntity
  8
Visible (ANSI)
100
AcDbVertex
100
AcDb2dVertex
 10
29.2437224421757
 20
36.07624766538701
 30
0.0
  0
VERTEX
  5
1FE
330
1E4
100
AcDbEntity
  8
Visible (ANSI)
100
AcDbVertex
100
AcDb2dVertex
 10
29.24161030230865
 20
36.0833994953018
 30
0.0
  0
SEQEND
  5
1E7
330
1E4
100
AcDbEntity
  8
Visible (ANSI)
  0
LINE
  5
1FF
330
6C
100
AcDbEntity
  8
Hidden (ANSI)
 48
0.0177565310150385
100
AcDbLine
 10
55.0385103015292
 20
36.13409075525858
 30
0.0
 11
55.13226030152919
 21
36.13409075525858
 31
0.0
  0
POLYLINE
  5
200
330
6C
100
AcDbEntity
  8
Hidden (ANSI)
 48
0.0106236711144447
100
AcDb2dPolyline
 66
     1
 10
0.0
 20
0.0
 30
0.0
 70
   128
  0
VERTEX
  5
201
330
200
100
AcDbEntity
  8
Hidden (ANSI)
 48
0.0106236711144447
100
AcDbVertex
100
AcDb2dVertex
 10
55.02291101318949
 20
36.0833994953018
 30
0.0
  0
VERTEX
  5
202
330
200
100
AcDbEntity
  8
Hidden (ANSI)
 48
0.0106236711144447
100
AcDbVertex
100
AcDb2dVertex
 10
55.02392926702654
 20
36.08551163516884
 30
0.0
  0
VERTEX
  5
204
330
200
100
AcDbEntity
  8
Hidden (ANSI)
 48
0.0106236711144447
100
AcDbVertex
100
AcDb2dVertex
 10
55.02494752086358
 20
36.08762376330269
 30
0.0
  0
VERTEX
  5
205
330
200
100
AcDbEntity
  8
Hidden (ANSI)
 48
0.0106236711144447
100
AcDbVertex
100
AcDb2dVertex
 10
55.02595375990609
 20
36.08973590316974
 30
0.0
  0
VERTEX
  5
206
330
200
100
AcDbEntity
  8
Hidden (ANSI)
 48
0.0106236711144447
100
AcDbVertex
100
AcDb2dVertex
 10
55.02694798415405
 20
36.09184804303679
 30
0.0
  0
VERTEX
  5
207
330
200
100
AcDbEntity
  8
Hidden (ANSI)
 48
0.0106236711144447
100
AcDbVertex
100
AcDb2dVertex
 10
55.02792418621022
 20
36.09396017117064
 30
0.0
  0
VERTEX
  5
208
330
200
100
AcDbEntity
  8
Hidden (ANSI)
 48
0.0106236711144447
100
AcDbVertex
100
AcDb2dVertex
 10
55.02887936237595
 20
36.09607231103768
 30
0.0
  0
VERTEX
  5
209
330
200
100
AcDbEntity
  8
Hidden (ANSI)
 48
0.0106236711144447
100
AcDbVertex
100
AcDb2dVertex
 10
55.0298105089526
 20
36.09818445090474
 30
0.0
  0
VERTEX
  5
20A
330
200
100
AcDbEntity
  8
Hidden (ANSI)
 48
0.0106236711144447
100
AcDbVertex
100
AcDb2dVertex
 10
55.03071161854291
 20
36.10029657903857
 30
0.0
  0
VERTEX
  5
20B
330
200
100
AcDbEntity
  8
Hidden (ANSI)
 48
0.0106236711144447
100
AcDbVertex
100
AcDb2dVertex
 10
55.0315766837496
 20
36.10240871890562
 30
0.0
  0
VERTEX
  5
20C
330
200
100
AcDbEntity
  8
Hidden (ANSI)
 48
0.0106236711144447
100
AcDbVertex
100
AcDb2dVertex
 10
55.03240570457268
 20
36.10452085877267
 30
0.0
  0
VERTEX
  5
20D
330
200
100
AcDbEntity
  8
Hidden (ANSI)
 48
0.0106236711144447
100
AcDbVertex
100
AcDb2dVertex
 10
55.03319567731351
 20
36.10663298690652
 30
0.0
  0
VERTEX
  5
20E
330
200
100
AcDbEntity
  8
Hidden (ANSI)
 48
0.0106236711144447
100
AcDbVertex
100
AcDb2dVertex
 10
55.03394059457484
 20
36.10874512677356
 30
0.0
  0
VERTEX
  5
20F
330
200
100
AcDbEntity
  8
Hidden (ANSI)
 48
0.0106236711144447
100
AcDbVertex
100
AcDb2dVertex
 10
55.03464045635663
 20
36.11085725490741
 30
0.0
  0
VERTEX
  5
210
330
200
100
AcDbEntity
  8
Hidden (ANSI)
 48
0.0106236711144447
100
AcDbVertex
100
AcDb2dVertex
 10
55.03528625156302
 20
36.11296939477446
 30
0.0
  0
VERTEX
  5
211
330
200
100
AcDbEntity
  8
Hidden (ANSI)
 48
0.0106236711144447
100
AcDbVertex
100
AcDb2dVertex
 10
55.03588098389261
 20
36.1150815346415
 30
0.0
  0
VERTEX
  5
212
330
200
100
AcDbEntity
  8
Hidden (ANSI)
 48
0.0106236711144447
100
AcDbVertex
100
AcDb2dVertex
 10
55.03642164964681
 20
36.11719366277536
 30
0.0
  0
VERTEX
  5
213
330
200
100
AcDbEntity
  8
Hidden (ANSI)
 48
0.0106236711144447
100
AcDbVertex
100
AcDb2dVertex
 10
55.0369022414283
 20
36.1193058026424
 30
0.0
  0
VERTEX
  5
214
330
200
100
AcDbEntity
  8
Hidden (ANSI)
 48
0.0106236711144447
100
AcDbVertex
100
AcDb2dVertex
 10
55.0373227592371
 20
36.12141794250945
 30
0.0
  0
VERTEX
  5
215
330
200
100
AcDbEntity
  8
Hidden (ANSI)
 48
0.0106236711144447
100
AcDbVertex
100
AcDb2dVertex
 10
55.03768320307322
 20
36.1235300706433
 30
0.0
  0
VERTEX
  5
216
330
200
100
AcDbEntity
  8
Hidden (ANSI)
 48
0.0106236711144447
100
AcDbVertex
100
AcDb2dVertex
 10
55.03797756553939
 20
36.12564221051034
 30
0.0
  0
VERTEX
  5
217
330
200
100
AcDbEntity
  8
Hidden (ANSI)
 48
0.0106236711144447
100
AcDbVertex
100
AcDb2dVertex
 10
55.03821185403287
 20
36.12775435037739
 30
0.0
  0
VERTEX
  5
218
330
200
100
AcDbEntity
  8
Hidden (ANSI)
 48
0.0106236711144447
100
AcDbVertex
100
AcDb2dVertex
 10
55.03837705745777
 20
36.12986647851124
 30
0.0
  0
VERTEX
  5
219
330
200
100
AcDbEntity
  8
Hidden (ANSI)
 48
0.0106236711144447
100
AcDbVertex
100
AcDb2dVertex
 10
55.0384761795127
 20
36.13197861837829
 30
0.0
  0
VERTEX
  5
21A
330
200
100
AcDbEntity
  8
Hidden (ANSI)
 48
0.0106236711144447
100
AcDbVertex
100
AcDb2dVertex
 10
55.03850922019767
 20
36.13409075824534
 30
0.0
  0
SEQEND
  5
203
330
200
100
AcDbEntity
  8
Hidden (ANSI)
 48
0.0106236711144447
  0
LINE
  5
21B
330
6C
100
AcDbEntity
  8
Hidden (ANSI)
 48
0.0177565310150385
100
AcDbLine
 10
55.03851030152917
 20
66.69400823378611
 30
0.0
 11
55.13226030152917
 21
66.69400823378611
 31
0.0
  0
POLYLINE
  5
21C
330
6C
100
AcDbEntity
  8
Hidden (ANSI)
 48
0.0106235267594457
100
AcDb2dPolyline
 66
     1
 10
0.0
 20
0.0
 30
0.0
 70
   128
  0
VERTEX
  5
21D
330
21C
100
AcDbEntity
  8
Hidden (ANSI)
 48
0.0106235267594457
100
AcDbVertex
100
AcDb2dVertex
 10
55.02291101318949
 20
66.74469824056226
 30
0.0
  0
VERTEX
  5
21E
330
21C
100
AcDbEntity
  8
Hidden (ANSI)
 48
0.0106235267594457
100
AcDbVertex
100
AcDb2dVertex
 10
55.02392926702654
 20
66.74258664042231
 30
0.0
  0
VERTEX
  5
220
330
21C
100
AcDbEntity
  8
Hidden (ANSI)
 48
0.0106235267594457
100
AcDbVertex
100
AcDb2dVertex
 10
55.02494752086358
 20
66.74047504028236
 30
0.0
  0
VERTEX
  5
221
330
21C
100
AcDbEntity
  8
Hidden (ANSI)
 48
0.0106235267594457
100
AcDbVertex
100
AcDb2dVertex
 10
55.02595375990609
 20
66.7383634401424
 30
0.0
  0
VERTEX
  5
222
330
21C
100
AcDbEntity
  8
Hidden (ANSI)
 48
0.0106235267594457
100
AcDbVertex
100
AcDb2dVertex
 10
55.02694798415405
 20
66.73625184000247
 30
0.0
  0
VERTEX
  5
223
330
21C
100
AcDbEntity
  8
Hidden (ANSI)
 48
0.0106235267594457
100
AcDbVertex
100
AcDb2dVertex
 10
55.02792418621022
 20
66.73414023986251
 30
0.0
  0
VERTEX
  5
224
330
21C
100
AcDbEntity
  8
Hidden (ANSI)
 48
0.0106235267594457
100
AcDbVertex
100
AcDb2dVertex
 10
55.02887936237595
 20
66.73202563602393
 30
0.0
  0
VERTEX
  5
225
330
21C
100
AcDbEntity
  8
Hidden (ANSI)
 48
0.0106235267594457
100
AcDbVertex
100
AcDb2dVertex
 10
55.0298105089526
 20
66.72991403588399
 30
0.0
  0
VERTEX
  5
226
330
21C
100
AcDbEntity
  8
Hidden (ANSI)
 48
0.0106235267594457
100
AcDbVertex
100
AcDb2dVertex
 10
55.03071161854291
 20
66.72780243574402
 30
0.0
  0
VERTEX
  5
227
330
21C
100
AcDbEntity
  8
Hidden (ANSI)
 48
0.0106235267594457
100
AcDbVertex
100
AcDb2dVertex
 10
55.0315766837496
 20
66.72569083560408
 30
0.0
  0
VERTEX
  5
228
330
21C
100
AcDbEntity
  8
Hidden (ANSI)
 48
0.0106235267594457
100
AcDbVertex
100
AcDb2dVertex
 10
55.03240570457268
 20
66.72357923546414
 30
0.0
  0
VERTEX
  5
229
330
21C
100
AcDbEntity
  8
Hidden (ANSI)
 48
0.0106235267594457
100
AcDbVertex
100
AcDb2dVertex
 10
55.03319567731351
 20
66.72146463162555
 30
0.0
  0
VERTEX
  5
22A
330
21C
100
AcDbEntity
  8
Hidden (ANSI)
 48
0.0106235267594457
100
AcDbVertex
100
AcDb2dVertex
 10
55.03394059457484
 20
66.71935303148561
 30
0.0
  0
VERTEX
  5
22B
330
21C
100
AcDbEntity
  8
Hidden (ANSI)
 48
0.0106235267594457
100
AcDbVertex
100
AcDb2dVertex
 10
55.03464045635663
 20
66.71724143134567
 30
0.0
  0
VERTEX
  5
22C
330
21C
100
AcDbEntity
  8
Hidden (ANSI)
 48
0.0106235267594457
100
AcDbVertex
100
AcDb2dVertex
 10
55.03528625156302
 20
66.71512983120571
 30
0.0
  0
VERTEX
  5
22D
330
21C
100
AcDbEntity
  8
Hidden (ANSI)
 48
0.0106235267594457
100
AcDbVertex
100
AcDb2dVertex
 10
55.03588098389261
 20
66.71301823106576
 30
0.0
  0
VERTEX
  5
22E
330
21C
100
AcDbEntity
  8
Hidden (ANSI)
 48
0.0106235267594457
100
AcDbVertex
100
AcDb2dVertex
 10
55.03642164964681
 20
66.71090663092581
 30
0.0
  0
VERTEX
  5
22F
330
21C
100
AcDbEntity
  8
Hidden (ANSI)
 48
0.0106235267594457
100
AcDbVertex
100
AcDb2dVertex
 10
55.0369022414283
 20
66.70879202708722
 30
0.0
  0
VERTEX
  5
230
330
21C
100
AcDbEntity
  8
Hidden (ANSI)
 48
0.0106235267594457
100
AcDbVertex
100
AcDb2dVertex
 10
55.0373227592371
 20
66.70668042694728
 30
0.0
  0
VERTEX
  5
231
330
21C
100
AcDbEntity
  8
Hidden (ANSI)
 48
0.0106235267594457
100
AcDbVertex
100
AcDb2dVertex
 10
55.03768320307322
 20
66.70456882680733
 30
0.0
  0
VERTEX
  5
232
330
21C
100
AcDbEntity
  8
Hidden (ANSI)
 48
0.0106235267594457
100
AcDbVertex
100
AcDb2dVertex
 10
55.03797756553939
 20
66.70245722666739
 30
0.0
  0
VERTEX
  5
233
330
21C
100
AcDbEntity
  8
Hidden (ANSI)
 48
0.0106235267594457
100
AcDbVertex
100
AcDb2dVertex
 10
55.03821185403287
 20
66.70034562652745
 30
0.0
  0
VERTEX
  5
234
330
21C
100
AcDbEntity
  8
Hidden (ANSI)
 48
0.0106235267594457
100
AcDbVertex
100
AcDb2dVertex
 10
55.03837705745777
 20
66.69823102268884
 30
0.0
  0
VERTEX
  5
235
330
21C
100
AcDbEntity
  8
Hidden (ANSI)
 48
0.0106235267594457
100
AcDbVertex
100
AcDb2dVertex
 10
55.0384761795127
 20
66.6961194225489
 30
0.0
  0
VERTEX
  5
236
330
21C
100
AcDbEntity
  8
Hidden (ANSI)
 48
0.0106235267594457
100
AcDbVertex
100
AcDb2dVertex
 10
55.03850922019767
 20
66.69400782240896
 30
0.0
  0
SEQEND
  5
21F
330
21C
100
AcDbEntity
  8
Hidden (ANSI)
 48
0.0106235267594457
  0
LINE
  5
237
330
6C
100
AcDbEntity
  8
Hidden (ANSI)
 48
0.0177565310150385
100
AcDbLine
 10
54.97221904079294
 20
66.76029949452234
 30
0.0
 11
54.97221904079294
 21
66.85404949452234
 31
0.0
  0
POLYLINE
  5
238
330
6C
100
AcDbEntity
  8
Hidden (ANSI)
 48
0.0106242010369897
100
AcDb2dPolyline
 66
     1
 10
0.0
 20
0.0
 30
0.0
 70
   128
  0
VERTEX
  5
239
330
238
100
AcDbEntity
  8
Hidden (ANSI)
 48
0.0106242010369897
100
AcDbVertex
100
AcDb2dVertex
 10
55.02291101318949
 20
66.74469824056226
 30
0.0
  0
VERTEX
  5
23A
330
238
100
AcDbEntity
  8
Hidden (ANSI)
 48
0.0106242010369897
100
AcDbVertex
100
AcDb2dVertex
 10
55.02079941304955
 20
66.74571949809792
 30
0.0
  0
VERTEX
  5
23C
330
238
100
AcDbEntity
  8
Hidden (ANSI)
 48
0.0106242010369897
100
AcDbVertex
100
AcDb2dVertex
 10
55.01868480921096
 20
66.74673474823634
 30
0.0
  0
VERTEX
  5
23D
330
238
100
AcDbEntity
  8
Hidden (ANSI)
 48
0.0106242010369897
100
AcDbVertex
100
AcDb2dVertex
 10
55.01657320907101
 20
66.74774399097749
 30
0.0
  0
VERTEX
  5
23E
330
238
100
AcDbEntity
  8
Hidden (ANSI)
 48
0.0106242010369897
100
AcDbVertex
100
AcDb2dVertex
 10
55.01446160893107
 20
66.74873821522545
 30
0.0
  0
VERTEX
  5
23F
330
238
100
AcDbEntity
  8
Hidden (ANSI)
 48
0.0106242010369897
100
AcDbVertex
100
AcDb2dVertex
 10
55.01235000879112
 20
66.7497144172816
 30
0.0
  0
VERTEX
  5
240
330
238
100
AcDbEntity
  8
Hidden (ANSI)
 48
0.0106242010369897
100
AcDbVertex
100
AcDb2dVertex
 10
55.01023840865117
 20
66.75066959344734
 30
0.0
  0
VERTEX
  5
241
330
238
100
AcDbEntity
  8
Hidden (ANSI)
 48
0.0106242010369897
100
AcDbVertex
100
AcDb2dVertex
 10
55.00812680851122
 20
66.75159773632536
 30
0.0
  0
VERTEX
  5
242
330
238
100
AcDbEntity
  8
Hidden (ANSI)
 48
0.0106242010369897
100
AcDbVertex
100
AcDb2dVertex
 10
55.00601220467263
 20
66.75249884591567
 30
0.0
  0
VERTEX
  5
243
330
238
100
AcDbEntity
  8
Hidden (ANSI)
 48
0.0106242010369897
100
AcDbVertex
100
AcDb2dVertex
 10
55.0039006045327
 20
66.75336691482098
 30
0.0
  0
VERTEX
  5
244
330
238
100
AcDbEntity
  8
Hidden (ANSI)
 48
0.0106242010369897
100
AcDbVertex
100
AcDb2dVertex
 10
55.00178900439274
 20
66.75419593564408
 30
0.0
  0
VERTEX
  5
245
330
238
100
AcDbEntity
  8
Hidden (ANSI)
 48
0.0106242010369897
100
AcDbVertex
100
AcDb2dVertex
 10
54.9996774042528
 20
66.7549859083849
 30
0.0
  0
VERTEX
  5
246
330
238
100
AcDbEntity
  8
Hidden (ANSI)
 48
0.0106242010369897
100
AcDbVertex
100
AcDb2dVertex
 10
54.99756580411285
 20
66.75573082564622
 30
0.0
  0
VERTEX
  5
247
330
238
100
AcDbEntity
  8
Hidden (ANSI)
 48
0.0106242010369897
100
AcDbVertex
100
AcDb2dVertex
 10
54.99545120027427
 20
66.75642768372938
 30
0.0
  0
VERTEX
  5
248
330
238
100
AcDbEntity
  8
Hidden (ANSI)
 48
0.0106242010369897
100
AcDbVertex
100
AcDb2dVertex
 10
54.99333960013431
 20
66.75707648263442
 30
0.0
  0
VERTEX
  5
249
330
238
100
AcDbEntity
  8
Hidden (ANSI)
 48
0.0106242010369897
100
AcDbVertex
100
AcDb2dVertex
 10
54.99122799999437
 20
66.75767121496402
 30
0.0
  0
VERTEX
  5
24A
330
238
100
AcDbEntity
  8
Hidden (ANSI)
 48
0.0106242010369897
100
AcDbVertex
100
AcDb2dVertex
 10
54.98911639985442
 20
66.75820887701957
 30
0.0
  0
VERTEX
  5
24B
330
238
100
AcDbEntity
  8
Hidden (ANSI)
 48
0.0106242010369897
100
AcDbVertex
100
AcDb2dVertex
 10
54.98700479971446
 20
66.75868946880107
 30
0.0
  0
VERTEX
  5
24C
330
238
100
AcDbEntity
  8
Hidden (ANSI)
 48
0.0106242010369897
100
AcDbVertex
100
AcDb2dVertex
 10
54.98489319957452
 20
66.7591129903085
 30
0.0
  0
VERTEX
  5
24D
330
238
100
AcDbEntity
  8
Hidden (ANSI)
 48
0.0106242010369897
100
AcDbVertex
100
AcDb2dVertex
 10
54.98277859573594
 20
66.759470430446
 30
0.0
  0
VERTEX
  5
24E
330
238
100
AcDbEntity
  8
Hidden (ANSI)
 48
0.0106242010369897
100
AcDbVertex
100
AcDb2dVertex
 10
54.980666995596
 20
66.75976779661079
 30
0.0
  0
VERTEX
  5
24F
330
238
100
AcDbEntity
  8
Hidden (ANSI)
 48
0.0106242010369897
100
AcDbVertex
100
AcDb2dVertex
 10
54.97855539545604
 20
66.75999908140564
 30
0.0
  0
VERTEX
  5
250
330
238
100
AcDbEntity
  8
Hidden (ANSI)
 48
0.0106242010369897
100
AcDbVertex
100
AcDb2dVertex
 10
54.97644379531609
 20
66.76016728852916
 30
0.0
  0
VERTEX
  5
251
330
238
100
AcDbEntity
  8
Hidden (ANSI)
 48
0.0106242010369897
100
AcDbVertex
100
AcDb2dVertex
 10
54.97433219517615
 20
66.7602664105841
 30
0.0
  0
VERTEX
  5
252
330
238
100
AcDbEntity
  8
Hidden (ANSI)
 48
0.0106242010369897
100
AcDbVertex
100
AcDb2dVertex
 10
54.97221759133756
 20
66.76029945126908
 30
0.0
  0
SEQEND
  5
23B
330
238
100
AcDbEntity
  8
Hidden (ANSI)
 48
0.0106242010369897
  0
LINE
  5
253
330
6C
100
AcDbEntity
  8
Hidden (ANSI)
 48
0.0177565310150385
100
AcDbLine
 10
29.29230156226541
 20
66.76029949452232
 30
0.0
 11
29.29230156226541
 21
66.85404949452233
 31
0.0
  0
POLYLINE
  5
254
330
6C
100
AcDbEntity
  8
Hidden (ANSI)
 48
0.010623830370605
100
AcDb2dPolyline
 66
     1
 10
0.0
 20
0.0
 30
0.0
 70
   128
  0
VERTEX
  5
255
330
254
100
AcDbEntity
  8
Hidden (ANSI)
 48
0.010623830370605
100
AcDbVertex
100
AcDb2dVertex
 10
29.24161030230865
 20
66.74469824056226
 30
0.0
  0
VERTEX
  5
256
330
254
100
AcDbEntity
  8
Hidden (ANSI)
 48
0.010623830370605
100
AcDbVertex
100
AcDb2dVertex
 10
29.2437224421757
 20
66.74571949809792
 30
0.0
  0
VERTEX
  5
258
330
254
100
AcDbEntity
  8
Hidden (ANSI)
 48
0.010623830370605
100
AcDbVertex
100
AcDb2dVertex
 10
29.24583457030954
 20
66.74673474823634
 30
0.0
  0
VERTEX
  5
259
330
254
100
AcDbEntity
  8
Hidden (ANSI)
 48
0.010623830370605
100
AcDbVertex
100
AcDb2dVertex
 10
29.24794671017659
 20
66.74774399097749
 30
0.0
  0
VERTEX
  5
25A
330
254
100
AcDbEntity
  8
Hidden (ANSI)
 48
0.010623830370605
100
AcDbVertex
100
AcDb2dVertex
 10
29.25005885004364
 20
66.74873821522545
 30
0.0
  0
VERTEX
  5
25B
330
254
100
AcDbEntity
  8
Hidden (ANSI)
 48
0.010623830370605
100
AcDbVertex
100
AcDb2dVertex
 10
29.25217097817748
 20
66.7497144172816
 30
0.0
  0
VERTEX
  5
25C
330
254
100
AcDbEntity
  8
Hidden (ANSI)
 48
0.010623830370605
100
AcDbVertex
100
AcDb2dVertex
 10
29.25428311804453
 20
66.75066959344734
 30
0.0
  0
VERTEX
  5
25D
330
254
100
AcDbEntity
  8
Hidden (ANSI)
 48
0.010623830370605
100
AcDbVertex
100
AcDb2dVertex
 10
29.25639525791158
 20
66.75159773632536
 30
0.0
  0
VERTEX
  5
25E
330
254
100
AcDbEntity
  8
Hidden (ANSI)
 48
0.010623830370605
100
AcDbVertex
100
AcDb2dVertex
 10
29.25850738604543
 20
66.75249884591567
 30
0.0
  0
VERTEX
  5
25F
330
254
100
AcDbEntity
  8
Hidden (ANSI)
 48
0.010623830370605
100
AcDbVertex
100
AcDb2dVertex
 10
29.26061952591247
 20
66.75336691482098
 30
0.0
  0
VERTEX
  5
260
330
254
100
AcDbEntity
  8
Hidden (ANSI)
 48
0.010623830370605
100
AcDbVertex
100
AcDb2dVertex
 10
29.26273166577952
 20
66.75419593564408
 30
0.0
  0
VERTEX
  5
261
330
254
100
AcDbEntity
  8
Hidden (ANSI)
 48
0.010623830370605
100
AcDbVertex
100
AcDb2dVertex
 10
29.26484379391337
 20
66.7549859083849
 30
0.0
  0
VERTEX
  5
262
330
254
100
AcDbEntity
  8
Hidden (ANSI)
 48
0.010623830370605
100
AcDbVertex
100
AcDb2dVertex
 10
29.26695593378042
 20
66.75573082564622
 30
0.0
  0
VERTEX
  5
263
330
254
100
AcDbEntity
  8
Hidden (ANSI)
 48
0.010623830370605
100
AcDbVertex
100
AcDb2dVertex
 10
29.26906806191427
 20
66.75642768372938
 30
0.0
  0
VERTEX
  5
264
330
254
100
AcDbEntity
  8
Hidden (ANSI)
 48
0.010623830370605
100
AcDbVertex
100
AcDb2dVertex
 10
29.27118020178131
 20
66.75707648263442
 30
0.0
  0
VERTEX
  5
265
330
254
100
AcDbEntity
  8
Hidden (ANSI)
 48
0.010623830370605
100
AcDbVertex
100
AcDb2dVertex
 10
29.27329234164836
 20
66.75767121496402
 30
0.0
  0
VERTEX
  5
266
330
254
100
AcDbEntity
  8
Hidden (ANSI)
 48
0.010623830370605
100
AcDbVertex
100
AcDb2dVertex
 10
29.27540446978221
 20
66.75820887701957
 30
0.0
  0
VERTEX
  5
267
330
254
100
AcDbEntity
  8
Hidden (ANSI)
 48
0.010623830370605
100
AcDbVertex
100
AcDb2dVertex
 10
29.27751660964925
 20
66.75868946880107
 30
0.0
  0
VERTEX
  5
268
330
254
100
AcDbEntity
  8
Hidden (ANSI)
 48
0.010623830370605
100
AcDbVertex
100
AcDb2dVertex
 10
29.2796287495163
 20
66.7591129903085
 30
0.0
  0
VERTEX
  5
269
330
254
100
AcDbEntity
  8
Hidden (ANSI)
 48
0.010623830370605
100
AcDbVertex
100
AcDb2dVertex
 10
29.28174087765015
 20
66.759470430446
 30
0.0
  0
VERTEX
  5
26A
330
254
100
AcDbEntity
  8
Hidden (ANSI)
 48
0.010623830370605
100
AcDbVertex
100
AcDb2dVertex
 10
29.2838530175172
 20
66.75976779661079
 30
0.0
  0
VERTEX
  5
26B
330
254
100
AcDbEntity
  8
Hidden (ANSI)
 48
0.010623830370605
100
AcDbVertex
100
AcDb2dVertex
 10
29.28596515738424
 20
66.75999908140564
 30
0.0
  0
VERTEX
  5
26C
330
254
100
AcDbEntity
  8
Hidden (ANSI)
 48
0.010623830370605
100
AcDbVertex
100
AcDb2dVertex
 10
29.28807728551809
 20
66.76016728852916
 30
0.0
  0
VERTEX
  5
26D
330
254
100
AcDbEntity
  8
Hidden (ANSI)
 48
0.010623830370605
100
AcDbVertex
100
AcDb2dVertex
 10
29.29018942538514
 20
66.7602664105841
 30
0.0
  0
VERTEX
  5
26E
330
254
100
AcDbEntity
  8
Hidden (ANSI)
 48
0.010623830370605
100
AcDbVertex
100
AcDb2dVertex
 10
29.29230156525219
 20
66.76029945126908
 30
0.0
  0
SEQEND
  5
257
330
254
100
AcDbEntity
  8
Hidden (ANSI)
 48
0.010623830370605
  0
LINE
  5
26F
330
6C
100
AcDbEntity
  8
Hidden (ANSI)
 48
0.0177565310150385
100
AcDbLine
 10
29.22601030152918
 20
66.69400823378609
 30
0.0
 11
29.13226030152918
 21
66.69400823378609
 31
0.0
  0
POLYLINE
  5
270
330
6C
100
AcDbEntity
  8
Hidden (ANSI)
 48
0.0106235789135099
100
AcDb2dPolyline
 66
     1
 10
0.0
 20
0.0
 30
0.0
 70
   128
  0
VERTEX
  5
271
330
270
100
AcDbEntity
  8
Hidden (ANSI)
 48
0.0106235789135099
100
AcDbVertex
100
AcDb2dVertex
 10
29.24161030230865
 20
66.74469824056226
 30
0.0
  0
VERTEX
  5
272
330
270
100
AcDbEntity
  8
Hidden (ANSI)
 48
0.0106235789135099
100
AcDbVertex
100
AcDb2dVertex
 10
29.24059000689519
 20
66.74258664042231
 30
0.0
  0
VERTEX
  5
274
330
270
100
AcDbEntity
  8
Hidden (ANSI)
 48
0.0106235789135099
100
AcDbVertex
100
AcDb2dVertex
 10
29.2395740879645
 20
66.74047504028236
 30
0.0
  0
VERTEX
  5
275
330
270
100
AcDbEntity
  8
Hidden (ANSI)
 48
0.0106235789135099
100
AcDbVertex
100
AcDb2dVertex
 10
29.23856688679978
 20
66.7383634401424
 30
0.0
  0
VERTEX
  5
276
330
270
100
AcDbEntity
  8
Hidden (ANSI)
 48
0.0106235789135099
100
AcDbVertex
100
AcDb2dVertex
 10
29.23757272121779
 20
66.73625184000247
 30
0.0
  0
VERTEX
  5
277
330
270
100
AcDbEntity
  8
Hidden (ANSI)
 48
0.0106235789135099
100
AcDbVertex
100
AcDb2dVertex
 10
29.23659585036936
 20
66.73414023986251
 30
0.0
  0
VERTEX
  5
278
330
270
100
AcDbEntity
  8
Hidden (ANSI)
 48
0.0106235789135099
100
AcDbVertex
100
AcDb2dVertex
 10
29.23564043953968
 20
66.73202563602393
 30
0.0
  0
VERTEX
  5
279
330
270
100
AcDbEntity
  8
Hidden (ANSI)
 48
0.0106235789135099
100
AcDbVertex
100
AcDb2dVertex
 10
29.23471059534799
 20
66.72991403588399
 30
0.0
  0
VERTEX
  5
27A
330
270
100
AcDbEntity
  8
Hidden (ANSI)
 48
0.0106235789135099
100
AcDbVertex
100
AcDb2dVertex
 10
29.23381030708153
 20
66.72780243574402
 30
0.0
  0
VERTEX
  5
27B
330
270
100
AcDbEntity
  8
Hidden (ANSI)
 48
0.0106235789135099
100
AcDbVertex
100
AcDb2dVertex
 10
29.23294341149598
 20
66.72569083560408
 30
0.0
  0
VERTEX
  5
27C
330
270
100
AcDbEntity
  8
Hidden (ANSI)
 48
0.0106235789135099
100
AcDbVertex
100
AcDb2dVertex
 10
29.23211362801504
 20
66.72357923546414
 30
0.0
  0
VERTEX
  5
27D
330
270
100
AcDbEntity
  8
Hidden (ANSI)
 48
0.0106235789135099
100
AcDbVertex
100
AcDb2dVertex
 10
29.23132451179764
 20
66.72146463162555
 30
0.0
  0
VERTEX
  5
27E
330
270
100
AcDbEntity
  8
Hidden (ANSI)
 48
0.0106235789135099
100
AcDbVertex
100
AcDb2dVertex
 10
29.23057943613816
 20
66.71935303148561
 30
0.0
  0
VERTEX
  5
27F
330
270
100
AcDbEntity
  8
Hidden (ANSI)
 48
0.0106235789135099
100
AcDbVertex
100
AcDb2dVertex
 10
29.22988159833297
 20
66.71724143134567
 30
0.0
  0
VERTEX
  5
280
330
270
100
AcDbEntity
  8
Hidden (ANSI)
 48
0.0106235789135099
100
AcDbVertex
100
AcDb2dVertex
 10
29.22923399034753
 20
66.71512983120571
 30
0.0
  0
VERTEX
  5
281
330
270
100
AcDbEntity
  8
Hidden (ANSI)
 48
0.0106235789135099
100
AcDbVertex
100
AcDb2dVertex
 10
29.22863937534991
 20
66.71301823106576
 30
0.0
  0
VERTEX
  5
282
330
270
100
AcDbEntity
  8
Hidden (ANSI)
 48
0.0106235789135099
100
AcDbVertex
100
AcDb2dVertex
 10
29.22810030531062
 20
66.71090663092581
 30
0.0
  0
VERTEX
  5
283
330
270
100
AcDbEntity
  8
Hidden (ANSI)
 48
0.0106235789135099
100
AcDbVertex
100
AcDb2dVertex
 10
29.22761908580304
 20
66.70879202708722
 30
0.0
  0
VERTEX
  5
284
330
270
100
AcDbEntity
  8
Hidden (ANSI)
 48
0.0106235789135099
100
AcDbVertex
100
AcDb2dVertex
 10
29.22719778186998
 20
66.70668042694728
 30
0.0
  0
VERTEX
  5
285
330
270
100
AcDbEntity
  8
Hidden (ANSI)
 48
0.0106235789135099
100
AcDbVertex
100
AcDb2dVertex
 10
29.22683818869069
 20
66.70456882680733
 30
0.0
  0
VERTEX
  5
286
330
270
100
AcDbEntity
  8
Hidden (ANSI)
 48
0.0106235789135099
100
AcDbVertex
100
AcDb2dVertex
 10
29.2265418609139
 20
66.70245722666739
 30
0.0
  0
VERTEX
  5
287
330
270
100
AcDbEntity
  8
Hidden (ANSI)
 48
0.0106235789135099
100
AcDbVertex
100
AcDb2dVertex
 10
29.22631005399175
 20
66.70034562652745
 30
0.0
  0
VERTEX
  5
288
330
270
100
AcDbEntity
  8
Hidden (ANSI)
 48
0.0106235789135099
100
AcDbVertex
100
AcDb2dVertex
 10
29.22614375937947
 20
66.69823102268884
 30
0.0
  0
VERTEX
  5
289
330
270
100
AcDbEntity
  8
Hidden (ANSI)
 48
0.0106235789135099
100
AcDbVertex
100
AcDb2dVertex
 10
29.22604370453531
 20
66.6961194225489
 30
0.0
  0
VERTEX
  5
28A
330
270
100
AcDbEntity
  8
Hidden (ANSI)
 48
0.0106235789135099
100
AcDbVertex
100
AcDb2dVertex
 10
29.22601030012121
 20
66.69400782240896
 30
0.0
  0
SEQEND
  5
273
330
270
100
AcDbEntity
  8
Hidden (ANSI)
 48
0.0106235789135099
  0
LINE
  5
28B
330
6C
100
AcDbEntity
  8
Hidden (ANSI)
 48
0.0177565310150385
100
AcDbLine
 10
29.22601030152918
 20
36.13409075525857
 30
0.0
 11
29.13226030152919
 21
36.13409075525857
 31
0.0
  0
POLYLINE
  5
28C
330
6C
100
AcDbEntity
  8
Hidden (ANSI)
 48
0.0106237232685089
100
AcDb2dPolyline
 66
     1
 10
0.0
 20
0.0
 30
0.0
 70
   128
  0
VERTEX
  5
28D
330
28C
100
AcDbEntity
  8
Hidden (ANSI)
 48
0.0106237232685089
100
AcDbVertex
100
AcDb2dVertex
 10
29.24161030230865
 20
36.0833994953018
 30
0.0
  0
VERTEX
  5
28E
330
28C
100
AcDbEntity
  8
Hidden (ANSI)
 48
0.0106237232685089
100
AcDbVertex
100
AcDb2dVertex
 10
29.24059000689519
 20
36.08551163516884
 30
0.0
  0
VERTEX
  5
290
330
28C
100
AcDbEntity
  8
Hidden (ANSI)
 48
0.0106237232685089
100
AcDbVertex
100
AcDb2dVertex
 10
29.2395740879645
 20
36.08762376330269
 30
0.0
  0
VERTEX
  5
291
330
28C
100
AcDbEntity
  8
Hidden (ANSI)
 48
0.0106237232685089
100
AcDbVertex
100
AcDb2dVertex
 10
29.23856688679978
 20
36.08973590316974
 30
0.0
  0
VERTEX
  5
292
330
28C
100
AcDbEntity
  8
Hidden (ANSI)
 48
0.0106237232685089
100
AcDbVertex
100
AcDb2dVertex
 10
29.23757272121779
 20
36.09184804303679
 30
0.0
  0
VERTEX
  5
293
330
28C
100
AcDbEntity
  8
Hidden (ANSI)
 48
0.0106237232685089
100
AcDbVertex
100
AcDb2dVertex
 10
29.23659585036936
 20
36.09396017117064
 30
0.0
  0
VERTEX
  5
294
330
28C
100
AcDbEntity
  8
Hidden (ANSI)
 48
0.0106237232685089
100
AcDbVertex
100
AcDb2dVertex
 10
29.23564043953968
 20
36.09607231103768
 30
0.0
  0
VERTEX
  5
295
330
28C
100
AcDbEntity
  8
Hidden (ANSI)
 48
0.0106237232685089
100
AcDbVertex
100
AcDb2dVertex
 10
29.23471059534799
 20
36.09818445090474
 30
0.0
  0
VERTEX
  5
296
330
28C
100
AcDbEntity
  8
Hidden (ANSI)
 48
0.0106237232685089
100
AcDbVertex
100
AcDb2dVertex
 10
29.23381030708153
 20
36.10029657903857
 30
0.0
  0
VERTEX
  5
297
330
28C
100
AcDbEntity
  8
Hidden (ANSI)
 48
0.0106237232685089
100
AcDbVertex
100
AcDb2dVertex
 10
29.23294341149598
 20
36.10240871890562
 30
0.0
  0
VERTEX
  5
298
330
28C
100
AcDbEntity
  8
Hidden (ANSI)
 48
0.0106237232685089
100
AcDbVertex
100
AcDb2dVertex
 10
29.23211362801504
 20
36.10452085877267
 30
0.0
  0
VERTEX
  5
299
330
28C
100
AcDbEntity
  8
Hidden (ANSI)
 48
0.0106237232685089
100
AcDbVertex
100
AcDb2dVertex
 10
29.23132451179764
 20
36.10663298690652
 30
0.0
  0
VERTEX
  5
29A
330
28C
100
AcDbEntity
  8
Hidden (ANSI)
 48
0.0106237232685089
100
AcDbVertex
100
AcDb2dVertex
 10
29.23057943613816
 20
36.10874512677356
 30
0.0
  0
VERTEX
  5
29B
330
28C
100
AcDbEntity
  8
Hidden (ANSI)
 48
0.0106237232685089
100
AcDbVertex
100
AcDb2dVertex
 10
29.22988159833297
 20
36.11085725490741
 30
0.0
  0
VERTEX
  5
29C
330
28C
100
AcDbEntity
  8
Hidden (ANSI)
 48
0.0106237232685089
100
AcDbVertex
100
AcDb2dVertex
 10
29.22923399034753
 20
36.11296939477446
 30
0.0
  0
VERTEX
  5
29D
330
28C
100
AcDbEntity
  8
Hidden (ANSI)
 48
0.0106237232685089
100
AcDbVertex
100
AcDb2dVertex
 10
29.22863937534991
 20
36.1150815346415
 30
0.0
  0
VERTEX
  5
29E
330
28C
100
AcDbEntity
  8
Hidden (ANSI)
 48
0.0106237232685089
100
AcDbVertex
100
AcDb2dVertex
 10
29.22810030531062
 20
36.11719366277536
 30
0.0
  0
VERTEX
  5
29F
330
28C
100
AcDbEntity
  8
Hidden (ANSI)
 48
0.0106237232685089
100
AcDbVertex
100
AcDb2dVertex
 10
29.22761908580304
 20
36.1193058026424
 30
0.0
  0
VERTEX
  5
2A0
330
28C
100
AcDbEntity
  8
Hidden (ANSI)
 48
0.0106237232685089
100
AcDbVertex
100
AcDb2dVertex
 10
29.22719778186998
 20
36.12141794250945
 30
0.0
  0
VERTEX
  5
2A1
330
28C
100
AcDbEntity
  8
Hidden (ANSI)
 48
0.0106237232685089
100
AcDbVertex
100
AcDb2dVertex
 10
29.22683818869069
 20
36.1235300706433
 30
0.0
  0
VERTEX
  5
2A2
330
28C
100
AcDbEntity
  8
Hidden (ANSI)
 48
0.0106237232685089
100
AcDbVertex
100
AcDb2dVertex
 10
29.2265418609139
 20
36.12564221051034
 30
0.0
  0
VERTEX
  5
2A3
330
28C
100
AcDbEntity
  8
Hidden (ANSI)
 48
0.0106237232685089
100
AcDbVertex
100
AcDb2dVertex
 10
29.22631005399175
 20
36.12775435037739
 30
0.0
  0
VERTEX
  5
2A4
330
28C
100
AcDbEntity
  8
Hidden (ANSI)
 48
0.0106237232685089
100
AcDbVertex
100
AcDb2dVertex
 10
29.22614375937947
 20
36.12986647851124
 30
0.0
  0
VERTEX
  5
2A5
330
28C
100
AcDbEntity
  8
Hidden (ANSI)
 48
0.0106237232685089
100
AcDbVertex
100
AcDb2dVertex
 10
29.22604370453531
 20
36.13197861837829
 30
0.0
  0
VERTEX
  5
2A6
330
28C
100
AcDbEntity
  8
Hidden (ANSI)
 48
0.0106237232685089
100
AcDbVertex
100
AcDb2dVertex
 10
29.22601030012121
 20
36.13409075824534
 30
0.0
  0
SEQEND
  5
28F
330
28C
100
AcDbEntity
  8
Hidden (ANSI)
 48
0.0106237232685089
  0
LINE
  5
2A7
330
6C
100
AcDbEntity
  8
Hidden (ANSI)
 48
0.0177565310150385
100
AcDbLine
 10
29.29230156226543
 20
36.06779949452234
 30
0.0
 11
29.29230156226543
 21
35.97404949452233
 31
0.0
  0
POLYLINE
  5
2A8
330
6C
100
AcDbEntity
  8
Hidden (ANSI)
 48
0.0106237232685089
100
AcDb2dPolyline
 66
     1
 10
0.0
 20
0.0
 30
0.0
 70
   128
  0
VERTEX
  5
2A9
330
2A8
100
AcDbEntity
  8
Hidden (ANSI)
 48
0.0106237232685089
100
AcDbVertex
100
AcDb2dVertex
 10
29.24161030230865
 20
36.0833994953018
 30
0.0
  0
VERTEX
  5
2AA
330
2A8
100
AcDbEntity
  8
Hidden (ANSI)
 48
0.0106237232685089
100
AcDbVertex
100
AcDb2dVertex
 10
29.2437224421757
 20
36.08237919988834
 30
0.0
  0
VERTEX
  5
2AC
330
2A8
100
AcDbEntity
  8
Hidden (ANSI)
 48
0.0106237232685089
100
AcDbVertex
100
AcDb2dVertex
 10
29.24583457030954
 20
36.08136328095765
 30
0.0
  0
VERTEX
  5
2AD
330
2A8
100
AcDbEntity
  8
Hidden (ANSI)
 48
0.0106237232685089
100
AcDbVertex
100
AcDb2dVertex
 10
29.24794671017659
 20
36.08035607979292
 30
0.0
  0
VERTEX
  5
2AE
330
2A8
100
AcDbEntity
  8
Hidden (ANSI)
 48
0.0106237232685089
100
AcDbVertex
100
AcDb2dVertex
 10
29.25005885004364
 20
36.07936191421095
 30
0.0
  0
VERTEX
  5
2AF
330
2A8
100
AcDbEntity
  8
Hidden (ANSI)
 48
0.0106237232685089
100
AcDbVertex
100
AcDb2dVertex
 10
29.25217097817748
 20
36.0783850433625
 30
0.0
  0
VERTEX
  5
2B0
330
2A8
100
AcDbEntity
  8
Hidden (ANSI)
 48
0.0106237232685089
100
AcDbVertex
100
AcDb2dVertex
 10
29.25428311804453
 20
36.07742963253283
 30
0.0
  0
VERTEX
  5
2B1
330
2A8
100
AcDbEntity
  8
Hidden (ANSI)
 48
0.0106237232685089
100
AcDbVertex
100
AcDb2dVertex
 10
29.25639525791158
 20
36.07649978834113
 30
0.0
  0
VERTEX
  5
2B2
330
2A8
100
AcDbEntity
  8
Hidden (ANSI)
 48
0.0106237232685089
100
AcDbVertex
100
AcDb2dVertex
 10
29.25850738604543
 20
36.07559950007467
 30
0.0
  0
VERTEX
  5
2B3
330
2A8
100
AcDbEntity
  8
Hidden (ANSI)
 48
0.0106237232685089
100
AcDbVertex
100
AcDb2dVertex
 10
29.26061952591247
 20
36.07473260448913
 30
0.0
  0
VERTEX
  5
2B4
330
2A8
100
AcDbEntity
  8
Hidden (ANSI)
 48
0.0106237232685089
100
AcDbVertex
100
AcDb2dVertex
 10
29.26273166577952
 20
36.07390282100819
 30
0.0
  0
VERTEX
  5
2B5
330
2A8
100
AcDbEntity
  8
Hidden (ANSI)
 48
0.0106237232685089
100
AcDbVertex
100
AcDb2dVertex
 10
29.26484379391337
 20
36.0731137047908
 30
0.0
  0
VERTEX
  5
2B6
330
2A8
100
AcDbEntity
  8
Hidden (ANSI)
 48
0.0106237232685089
100
AcDbVertex
100
AcDb2dVertex
 10
29.26695593378042
 20
36.07236862913131
 30
0.0
  0
VERTEX
  5
2B7
330
2A8
100
AcDbEntity
  8
Hidden (ANSI)
 48
0.0106237232685089
100
AcDbVertex
100
AcDb2dVertex
 10
29.26906806191427
 20
36.07167079132612
 30
0.0
  0
VERTEX
  5
2B8
330
2A8
100
AcDbEntity
  8
Hidden (ANSI)
 48
0.0106237232685089
100
AcDbVertex
100
AcDb2dVertex
 10
29.27118020178131
 20
36.07102318334068
 30
0.0
  0
VERTEX
  5
2B9
330
2A8
100
AcDbEntity
  8
Hidden (ANSI)
 48
0.0106237232685089
100
AcDbVertex
100
AcDb2dVertex
 10
29.27329234164836
 20
36.07042856834306
 30
0.0
  0
VERTEX
  5
2BA
330
2A8
100
AcDbEntity
  8
Hidden (ANSI)
 48
0.0106237232685089
100
AcDbVertex
100
AcDb2dVertex
 10
29.27540446978221
 20
36.06988949830377
 30
0.0
  0
VERTEX
  5
2BB
330
2A8
100
AcDbEntity
  8
Hidden (ANSI)
 48
0.0106237232685089
100
AcDbVertex
100
AcDb2dVertex
 10
29.27751660964925
 20
36.06940827879619
 30
0.0
  0
VERTEX
  5
2BC
330
2A8
100
AcDbEntity
  8
Hidden (ANSI)
 48
0.0106237232685089
100
AcDbVertex
100
AcDb2dVertex
 10
29.2796287495163
 20
36.06898697486313
 30
0.0
  0
VERTEX
  5
2BD
330
2A8
100
AcDbEntity
  8
Hidden (ANSI)
 48
0.0106237232685089
100
AcDbVertex
100
AcDb2dVertex
 10
29.28174087765015
 20
36.06862738168385
 30
0.0
  0
VERTEX
  5
2BE
330
2A8
100
AcDbEntity
  8
Hidden (ANSI)
 48
0.0106237232685089
100
AcDbVertex
100
AcDb2dVertex
 10
29.2838530175172
 20
36.06833105390705
 30
0.0
  0
VERTEX
  5
2BF
330
2A8
100
AcDbEntity
  8
Hidden (ANSI)
 48
0.0106237232685089
100
AcDbVertex
100
AcDb2dVertex
 10
29.28596515738424
 20
36.0680992469849
 30
0.0
  0
VERTEX
  5
2C0
330
2A8
100
AcDbEntity
  8
Hidden (ANSI)
 48
0.0106237232685089
100
AcDbVertex
100
AcDb2dVertex
 10
29.28807728551809
 20
36.06793295237262
 30
0.0
  0
VERTEX
  5
2C1
330
2A8
100
AcDbEntity
  8
Hidden (ANSI)
 48
0.0106237232685089
100
AcDbVertex
100
AcDb2dVertex
 10
29.29018942538514
 20
36.06783289752846
 30
0.0
  0
VERTEX
  5
2C2
330
2A8
100
AcDbEntity
  8
Hidden (ANSI)
 48
0.0106237232685089
100
AcDbVertex
100
AcDb2dVertex
 10
29.29230156525219
 20
36.06779949311435
 30
0.0
  0
SEQEND
  5
2AB
330
2A8
100
AcDbEntity
  8
Hidden (ANSI)
 48
0.0106237232685089
  0
LINE
  5
2C3
330
6C
100
AcDbEntity
  8
Hidden (ANSI)
 48
0.0177565310150385
100
AcDbLine
 10
54.97221904079294
 20
36.06779949452234
 30
0.0
 11
54.97221904079294
 21
35.97404949452233
 31
0.0
  0
POLYLINE
  5
2C4
330
6C
100
AcDbEntity
  8
Hidden (ANSI)
 48
0.0106240939348936
100
AcDb2dPolyline
 66
     1
 10
0.0
 20
0.0
 30
0.0
 70
   128
  0
VERTEX
  5
2C5
330
2C4
100
AcDbEntity
  8
Hidden (ANSI)
 48
0.0106240939348936
100
AcDbVertex
100
AcDb2dVertex
 10
55.02291101318949
 20
36.0833994953018
 30
0.0
  0
VERTEX
  5
2C6
330
2C4
100
AcDbEntity
  8
Hidden (ANSI)
 48
0.0106240939348936
100
AcDbVertex
100
AcDb2dVertex
 10
55.02079941304955
 20
36.08237919988834
 30
0.0
  0
VERTEX
  5
2C8
330
2C4
100
AcDbEntity
  8
Hidden (ANSI)
 48
0.0106240939348936
100
AcDbVertex
100
AcDb2dVertex
 10
55.01868480921096
 20
36.08136328095765
 30
0.0
  0
VERTEX
  5
2C9
330
2C4
100
AcDbEntity
  8
Hidden (ANSI)
 48
0.0106240939348936
100
AcDbVertex
100
AcDb2dVertex
 10
55.01657320907101
 20
36.08035607979292
 30
0.0
  0
VERTEX
  5
2CA
330
2C4
100
AcDbEntity
  8
Hidden (ANSI)
 48
0.0106240939348936
100
AcDbVertex
100
AcDb2dVertex
 10
55.01446160893107
 20
36.07936191421095
 30
0.0
  0
VERTEX
  5
2CB
330
2C4
100
AcDbEntity
  8
Hidden (ANSI)
 48
0.0106240939348936
100
AcDbVertex
100
AcDb2dVertex
 10
55.01235000879112
 20
36.0783850433625
 30
0.0
  0
VERTEX
  5
2CC
330
2C4
100
AcDbEntity
  8
Hidden (ANSI)
 48
0.0106240939348936
100
AcDbVertex
100
AcDb2dVertex
 10
55.01023840865117
 20
36.07742963253283
 30
0.0
  0
VERTEX
  5
2CD
330
2C4
100
AcDbEntity
  8
Hidden (ANSI)
 48
0.0106240939348936
100
AcDbVertex
100
AcDb2dVertex
 10
55.00812680851122
 20
36.07649978834113
 30
0.0
  0
VERTEX
  5
2CE
330
2C4
100
AcDbEntity
  8
Hidden (ANSI)
 48
0.0106240939348936
100
AcDbVertex
100
AcDb2dVertex
 10
55.00601220467263
 20
36.07559950007467
 30
0.0
  0
VERTEX
  5
2CF
330
2C4
100
AcDbEntity
  8
Hidden (ANSI)
 48
0.0106240939348936
100
AcDbVertex
100
AcDb2dVertex
 10
55.0039006045327
 20
36.07473260448913
 30
0.0
  0
VERTEX
  5
2D0
330
2C4
100
AcDbEntity
  8
Hidden (ANSI)
 48
0.0106240939348936
100
AcDbVertex
100
AcDb2dVertex
 10
55.00178900439274
 20
36.07390282100819
 30
0.0
  0
VERTEX
  5
2D1
330
2C4
100
AcDbEntity
  8
Hidden (ANSI)
 48
0.0106240939348936
100
AcDbVertex
100
AcDb2dVertex
 10
54.9996774042528
 20
36.0731137047908
 30
0.0
  0
VERTEX
  5
2D2
330
2C4
100
AcDbEntity
  8
Hidden (ANSI)
 48
0.0106240939348936
100
AcDbVertex
100
AcDb2dVertex
 10
54.99756580411285
 20
36.07236862913131
 30
0.0
  0
VERTEX
  5
2D3
330
2C4
100
AcDbEntity
  8
Hidden (ANSI)
 48
0.0106240939348936
100
AcDbVertex
100
AcDb2dVertex
 10
54.99545120027427
 20
36.07167079132612
 30
0.0
  0
VERTEX
  5
2D4
330
2C4
100
AcDbEntity
  8
Hidden (ANSI)
 48
0.0106240939348936
100
AcDbVertex
100
AcDb2dVertex
 10
54.99333960013431
 20
36.07102318334068
 30
0.0
  0
VERTEX
  5
2D5
330
2C4
100
AcDbEntity
  8
Hidden (ANSI)
 48
0.0106240939348936
100
AcDbVertex
100
AcDb2dVertex
 10
54.99122799999437
 20
36.07042856834306
 30
0.0
  0
VERTEX
  5
2D6
330
2C4
100
AcDbEntity
  8
Hidden (ANSI)
 48
0.0106240939348936
100
AcDbVertex
100
AcDb2dVertex
 10
54.98911639985442
 20
36.06988949830377
 30
0.0
  0
VERTEX
  5
2D7
330
2C4
100
AcDbEntity
  8
Hidden (ANSI)
 48
0.0106240939348936
100
AcDbVertex
100
AcDb2dVertex
 10
54.98700479971446
 20
36.06940827879619
 30
0.0
  0
VERTEX
  5
2D8
330
2C4
100
AcDbEntity
  8
Hidden (ANSI)
 48
0.0106240939348936
100
AcDbVertex
100
AcDb2dVertex
 10
54.98489319957452
 20
36.06898697486313
 30
0.0
  0
VERTEX
  5
2D9
330
2C4
100
AcDbEntity
  8
Hidden (ANSI)
 48
0.0106240939348936
100
AcDbVertex
100
AcDb2dVertex
 10
54.98277859573594
 20
36.06862738168385
 30
0.0
  0
VERTEX
  5
2DA
330
2C4
100
AcDbEntity
  8
Hidden (ANSI)
 48
0.0106240939348936
100
AcDbVertex
100
AcDb2dVertex
 10
54.980666995596
 20
36.06833105390705
 30
0.0
  0
VERTEX
  5
2DB
330
2C4
100
AcDbEntity
  8
Hidden (ANSI)
 48
0.0106240939348936
100
AcDbVertex
100
AcDb2dVertex
 10
54.97855539545604
 20
36.0680992469849
 30
0.0
  0
VERTEX
  5
2DC
330
2C4
100
AcDbEntity
  8
Hidden (ANSI)
 48
0.0106240939348936
100
AcDbVertex
100
AcDb2dVertex
 10
54.97644379531609
 20
36.06793295237262
 30
0.0
  0
VERTEX
  5
2DD
330
2C4
100
AcDbEntity
  8
Hidden (ANSI)
 48
0.0106240939348936
100
AcDbVertex
100
AcDb2dVertex
 10
54.97433219517615
 20
36.06783289752846
 30
0.0
  0
VERTEX
  5
2DE
330
2C4
100
AcDbEntity
  8
Hidden (ANSI)
 48
0.0106240939348936
100
AcDbVertex
100
AcDb2dVertex
 10
54.97221759133756
 20
36.06779949311435
 30
0.0
  0
SEQEND
  5
2C7
330
2C4
100
AcDbEntity
  8
Hidden (ANSI)
 48
0.0106240939348936
  0
MTEXT
  5
2E0
330
6C
100
AcDbEntity
  8
Symbol (ANSI)
100
AcDbMText
 10
37.67358708141376
 20
30.9589722772465
 30
0.0
 40
1.200000014830761
 41
0.0
 46
0.0
 71
     7
 72
     1
  1
FRONT VIEW
  7
Text Style153
 73
     1
 44
1.0
  0
LINE
  5
2E2
330
6C
100
AcDbEntity
  8
Symbol (ANSI)
370
    30
100
AcDbLine
 10
37.55358677272989
 20
30.7142559034976
 30
0.0
 11
47.20123681558666
 21
30.7142559034976
 31
0.0
  0
POLYLINE
  5
2E3
330
6C
100
AcDbEntity
  8
Visible (ANSI)
100
AcDb2dPolyline
 66
     1
 10
0.0
 20
0.0
 30
0.0
 70
   128
  0
VERTEX
  5
2E4
330
2E3
100
AcDbEntity
  8
Visible (ANSI)
100
AcDbVertex
100
AcDb2dVertex
 10
84.07065119906814
 20
66.74469824056226
 30
0.0
  0
VERTEX
  5
2E5
330
2E3
100
AcDbEntity
  8
Visible (ANSI)
100
AcDbVertex
100
AcDb2dVertex
 10
84.07088532329686
 20
66.74258664042229
 30
0.0
  0
VERTEX
  5
2E7
330
2E3
100
AcDbEntity
  8
Visible (ANSI)
100
AcDbVertex
100
AcDb2dVertex
 10
84.07158670452778
 20
66.74047504028234
 30
0.0
  0
VERTEX
  5
2E8
330
2E3
100
AcDbEntity
  8
Visible (ANSI)
100
AcDbVertex
100
AcDb2dVertex
 10
84.07275232732906
 20
66.73836344014239
 30
0.0
  0
VERTEX
  5
2E9
330
2E3
100
AcDbEntity
  8
Visible (ANSI)
100
AcDbVertex
100
AcDb2dVertex
 10
84.07437721095828
 20
66.73625184000245
 30
0.0
  0
VERTEX
  5
2EA
330
2E3
100
AcDbEntity
  8
Visible (ANSI)
100
AcDbVertex
100
AcDb2dVertex
 10
84.0764543858959
 20
66.73414023986251
 30
0.0
  0
VERTEX
  5
2EB
330
2E3
100
AcDbEntity
  8
Visible (ANSI)
100
AcDbVertex
100
AcDb2dVertex
 10
84.07897497011123
 20
66.73202563602392
 30
0.0
  0
VERTEX
  5
2EC
330
2E3
100
AcDbEntity
  8
Visible (ANSI)
100
AcDbVertex
100
AcDb2dVertex
 10
84.08192816319569
 20
66.72991403588397
 30
0.0
  0
VERTEX
  5
2ED
330
2E3
100
AcDbEntity
  8
Visible (ANSI)
100
AcDbVertex
100
AcDb2dVertex
 10
84.08530132262868
 20
66.72780243574402
 30
0.0
  0
VERTEX
  5
2EE
330
2E3
100
AcDbEntity
  8
Visible (ANSI)
100
AcDbVertex
100
AcDb2dVertex
 10
84.08907999311049
 20
66.72569083560407
 30
0.0
  0
VERTEX
  5
2EF
330
2E3
100
AcDbEntity
  8
Visible (ANSI)
100
AcDbVertex
100
AcDb2dVertex
 10
84.09324801216119
 20
66.72357923546413
 30
0.0
  0
VERTEX
  5
2F0
330
2E3
100
AcDbEntity
  8
Visible (ANSI)
100
AcDbVertex
100
AcDb2dVertex
 10
84.09778751598711
 20
66.72146463162555
 30
0.0
  0
VERTEX
  5
2F1
330
2E3
100
AcDbEntity
  8
Visible (ANSI)
100
AcDbVertex
100
AcDb2dVertex
 10
84.10267906854613
 20
66.71935303148559
 30
0.0
  0
VERTEX
  5
2F2
330
2E3
100
AcDbEntity
  8
Visible (ANSI)
100
AcDbVertex
100
AcDb2dVertex
 10
84.10790173194682
 20
66.71724143134565
 30
0.0
  0
VERTEX
  5
2F3
330
2E3
100
AcDbEntity
  8
Visible (ANSI)
100
AcDbVertex
100
AcDb2dVertex
 10
84.11343313684758
 20
66.7151298312057
 30
0.0
  0
VERTEX
  5
2F4
330
2E3
100
AcDbEntity
  8
Visible (ANSI)
100
AcDbVertex
100
AcDb2dVertex
 10
84.11924959392202
 20
66.71301823106574
 30
0.0
  0
VERTEX
  5
2F5
330
2E3
100
AcDbEntity
  8
Visible (ANSI)
100
AcDbVertex
100
AcDb2dVertex
 10
84.12532619652459
 20
66.71090663092581
 30
0.0
  0
VERTEX
  5
2F6
330
2E3
100
AcDbEntity
  8
Visible (ANSI)
100
AcDbVertex
100
AcDb2dVertex
 10
84.13163692922246
 20
66.70879202708722
 30
0.0
  0
VERTEX
  5
2F7
330
2E3
100
AcDbEntity
  8
Visible (ANSI)
100
AcDbVertex
100
AcDb2dVertex
 10
84.13815476459454
 20
66.70668042694727
 30
0.0
  0
VERTEX
  5
2F8
330
2E3
100
AcDbEntity
  8
Visible (ANSI)
100
AcDbVertex
100
AcDb2dVertex
 10
84.14485179229657
 20
66.70456882680733
 30
0.0
  0
VERTEX
  5
2F9
330
2E3
100
AcDbEntity
  8
Visible (ANSI)
100
AcDbVertex
100
AcDb2dVertex
 10
84.15169933492652
 20
66.70245722666738
 30
0.0
  0
VERTEX
  5
2FA
330
2E3
100
AcDbEntity
  8
Visible (ANSI)
100
AcDbVertex
100
AcDb2dVertex
 10
84.15866807085642
 20
66.70034562652744
 30
0.0
  0
VERTEX
  5
2FB
330
2E3
100
AcDbEntity
  8
Visible (ANSI)
100
AcDbVertex
100
AcDb2dVertex
 10
84.16572815853102
 20
66.69823102268884
 30
0.0
  0
VERTEX
  5
2FC
330
2E3
100
AcDbEntity
  8
Visible (ANSI)
100
AcDbVertex
100
AcDb2dVertex
 10
84.1728493655329
 20
66.69611942254888
 30
0.0
  0
VERTEX
  5
2FD
330
2E3
100
AcDbEntity
  8
Visible (ANSI)
100
AcDbVertex
100
AcDb2dVertex
 10
84.18000119838097
 20
66.69400782240895
 30
0.0
  0
SEQEND
  5
2E6
330
2E3
100
AcDbEntity
  8
Visible (ANSI)
  0
POLYLINE
  5
2FE
330
6C
100
AcDbEntity
  8
Visible (ANSI)
100
AcDb2dPolyline
 66
     1
 10
0.0
 20
0.0
 30
0.0
 70
   128
  0
VERTEX
  5
2FF
330
2FE
100
AcDbEntity
  8
Visible (ANSI)
100
AcDbVertex
100
AcDb2dVertex
 10
84.18000119838097
 20
36.13409075824532
 30
0.0
  0
VERTEX
  5
300
330
2FE
100
AcDbEntity
  8
Visible (ANSI)
100
AcDbVertex
100
AcDb2dVertex
 10
84.1728493655329
 20
36.13197861837827
 30
0.0
  0
VERTEX
  5
302
330
2FE
100
AcDbEntity
  8
Visible (ANSI)
100
AcDbVertex
100
AcDb2dVertex
 10
84.16572815853102
 20
36.12986647851123
 30
0.0
  0
VERTEX
  5
303
330
2FE
100
AcDbEntity
  8
Visible (ANSI)
100
AcDbVertex
100
AcDb2dVertex
 10
84.15866807085642
 20
36.12775435037737
 30
0.0
  0
VERTEX
  5
304
330
2FE
100
AcDbEntity
  8
Visible (ANSI)
100
AcDbVertex
100
AcDb2dVertex
 10
84.15169933492652
 20
36.12564221051033
 30
0.0
  0
VERTEX
  5
305
330
2FE
100
AcDbEntity
  8
Visible (ANSI)
100
AcDbVertex
100
AcDb2dVertex
 10
84.14485179229657
 20
36.12353007064328
 30
0.0
  0
VERTEX
  5
306
330
2FE
100
AcDbEntity
  8
Visible (ANSI)
100
AcDbVertex
100
AcDb2dVertex
 10
84.13815476459454
 20
36.12141794250944
 30
0.0
  0
VERTEX
  5
307
330
2FE
100
AcDbEntity
  8
Visible (ANSI)
100
AcDbVertex
100
AcDb2dVertex
 10
84.13163692922246
 20
36.11930580264239
 30
0.0
  0
VERTEX
  5
308
330
2FE
100
AcDbEntity
  8
Visible (ANSI)
100
AcDbVertex
100
AcDb2dVertex
 10
84.12532619652459
 20
36.11719366277534
 30
0.0
  0
VERTEX
  5
309
330
2FE
100
AcDbEntity
  8
Visible (ANSI)
100
AcDbVertex
100
AcDb2dVertex
 10
84.11924959392202
 20
36.11508153464149
 30
0.0
  0
VERTEX
  5
30A
330
2FE
100
AcDbEntity
  8
Visible (ANSI)
100
AcDbVertex
100
AcDb2dVertex
 10
84.11343313684758
 20
36.11296939477445
 30
0.0
  0
VERTEX
  5
30B
330
2FE
100
AcDbEntity
  8
Visible (ANSI)
100
AcDbVertex
100
AcDb2dVertex
 10
84.10790173194682
 20
36.1108572549074
 30
0.0
  0
VERTEX
  5
30C
330
2FE
100
AcDbEntity
  8
Visible (ANSI)
100
AcDbVertex
100
AcDb2dVertex
 10
84.10267906854613
 20
36.10874512677355
 30
0.0
  0
VERTEX
  5
30D
330
2FE
100
AcDbEntity
  8
Visible (ANSI)
100
AcDbVertex
100
AcDb2dVertex
 10
84.09778751598711
 20
36.10663298690651
 30
0.0
  0
VERTEX
  5
30E
330
2FE
100
AcDbEntity
  8
Visible (ANSI)
100
AcDbVertex
100
AcDb2dVertex
 10
84.09324801216119
 20
36.10452085877265
 30
0.0
  0
VERTEX
  5
30F
330
2FE
100
AcDbEntity
  8
Visible (ANSI)
100
AcDbVertex
100
AcDb2dVertex
 10
84.08907999311049
 20
36.10240871890561
 30
0.0
  0
VERTEX
  5
310
330
2FE
100
AcDbEntity
  8
Visible (ANSI)
100
AcDbVertex
100
AcDb2dVertex
 10
84.08530132262868
 20
36.10029657903856
 30
0.0
  0
VERTEX
  5
311
330
2FE
100
AcDbEntity
  8
Visible (ANSI)
100
AcDbVertex
100
AcDb2dVertex
 10
84.08192816319569
 20
36.09818445090472
 30
0.0
  0
VERTEX
  5
312
330
2FE
100
AcDbEntity
  8
Visible (ANSI)
100
AcDbVertex
100
AcDb2dVertex
 10
84.07897497011123
 20
36.09607231103767
 30
0.0
  0
VERTEX
  5
313
330
2FE
100
AcDbEntity
  8
Visible (ANSI)
100
AcDbVertex
100
AcDb2dVertex
 10
84.0764543858959
 20
36.09396017117062
 30
0.0
  0
VERTEX
  5
314
330
2FE
100
AcDbEntity
  8
Visible (ANSI)
100
AcDbVertex
100
AcDb2dVertex
 10
84.07437721095828
 20
36.09184804303677
 30
0.0
  0
VERTEX
  5
315
330
2FE
100
AcDbEntity
  8
Visible (ANSI)
100
AcDbVertex
100
AcDb2dVertex
 10
84.07275232732906
 20
36.08973590316973
 30
0.0
  0
VERTEX
  5
316
330
2FE
100
AcDbEntity
  8
Visible (ANSI)
100
AcDbVertex
100
AcDb2dVertex
 10
84.07158670452778
 20
36.08762376330267
 30
0.0
  0
VERTEX
  5
317
330
2FE
100
AcDbEntity
  8
Visible (ANSI)
100
AcDbVertex
100
AcDb2dVertex
 10
84.07088532329686
 20
36.08551163516883
 30
0.0
  0
VERTEX
  5
318
330
2FE
100
AcDbEntity
  8
Visible (ANSI)
100
AcDbVertex
100
AcDb2dVertex
 10
84.07065119906814
 20
36.08339949530178
 30
0.0
  0
SEQEND
  5
301
330
2FE
100
AcDbEntity
  8
Visible (ANSI)
  0
LINE
  5
319
330
6C
100
AcDbEntity
  8
Visible (ANSI)
100
AcDbLine
 10
84.94565119766019
 20
36.13409075525856
 30
0.0
 11
84.18000119766018
 21
36.13409075525857
 31
0.0
  0
LINE
  5
31A
330
6C
100
AcDbEntity
  8
Visible (ANSI)
100
AcDbLine
 10
84.14773013878921
 20
36.08339949452233
 30
0.0
 11
84.07065119766015
 21
36.08339949452233
 31
0.0
  0
LINE
  5
31B
330
6C
100
AcDbEntity
  8
Visible (ANSI)
100
AcDbLine
 10
84.16440119766015
 20
36.08339949452233
 30
0.0
 11
84.14773013878921
 21
36.08339949452233
 31
0.0
  0
POLYLINE
  5
31C
330
6C
100
AcDbEntity
  8
Visible (ANSI)
100
AcDb2dPolyline
 66
     1
 10
0.0
 20
0.0
 30
0.0
 70
   128
  0
VERTEX
  5
31D
330
31C
100
AcDbEntity
  8
Visible (ANSI)
100
AcDbVertex
100
AcDb2dVertex
 10
84.16440119766015
 20
36.08339949530178
 30
0.0
  0
VERTEX
  5
31E
330
31C
100
AcDbEntity
  8
Visible (ANSI)
100
AcDbVertex
100
AcDb2dVertex
 10
84.16443459845632
 20
36.08551163516883
 30
0.0
  0
VERTEX
  5
320
330
31C
100
AcDbEntity
  8
Visible (ANSI)
100
AcDbVertex
100
AcDb2dVertex
 10
84.16453465782362
 20
36.08762376330267
 30
0.0
  0
VERTEX
  5
321
330
31C
100
AcDbEntity
  8
Visible (ANSI)
100
AcDbVertex
100
AcDb2dVertex
 10
84.16470094729117
 20
36.08973590316973
 30
0.0
  0
VERTEX
  5
322
330
31C
100
AcDbEntity
  8
Visible (ANSI)
100
AcDbVertex
100
AcDb2dVertex
 10
84.16493275478623
 20
36.09184804303677
 30
0.0
  0
VERTEX
  5
323
330
31C
100
AcDbEntity
  8
Visible (ANSI)
100
AcDbVertex
100
AcDb2dVertex
 10
84.16522908760462
 20
36.09396017117062
 30
0.0
  0
VERTEX
  5
324
330
31C
100
AcDbEntity
  8
Visible (ANSI)
100
AcDbVertex
100
AcDb2dVertex
 10
84.16558867693396
 20
36.09607231103767
 30
0.0
  0
VERTEX
  5
325
330
31C
100
AcDbEntity
  8
Visible (ANSI)
100
AcDbVertex
100
AcDb2dVertex
 10
84.16600998297532
 20
36.09818445090472
 30
0.0
  0
VERTEX
  5
326
330
31C
100
AcDbEntity
  8
Visible (ANSI)
100
AcDbVertex
100
AcDb2dVertex
 10
84.16649120138293
 20
36.10029657903856
 30
0.0
  0
VERTEX
  5
327
330
31C
100
AcDbEntity
  8
Visible (ANSI)
100
AcDbVertex
100
AcDb2dVertex
 10
84.16703027178886
 20
36.10240871890561
 30
0.0
  0
VERTEX
  5
328
330
31C
100
AcDbEntity
  8
Visible (ANSI)
100
AcDbVertex
100
AcDb2dVertex
 10
84.1676248856865
 20
36.10452085877265
 30
0.0
  0
VERTEX
  5
329
330
31C
100
AcDbEntity
  8
Visible (ANSI)
100
AcDbVertex
100
AcDb2dVertex
 10
84.16827249660524
 20
36.10663298690651
 30
0.0
  0
VERTEX
  5
32A
330
31C
100
AcDbEntity
  8
Visible (ANSI)
100
AcDbVertex
100
AcDb2dVertex
 10
84.1689703318438
 20
36.10874512677355
 30
0.0
  0
VERTEX
  5
32B
330
31C
100
AcDbEntity
  8
Visible (ANSI)
100
AcDbVertex
100
AcDb2dVertex
 10
84.16971540310333
 20
36.1108572549074
 30
0.0
  0
VERTEX
  5
32C
330
31C
100
AcDbEntity
  8
Visible (ANSI)
100
AcDbVertex
100
AcDb2dVertex
 10
84.17050451932075
 20
36.11296939477445
 30
0.0
  0
VERTEX
  5
32D
330
31C
100
AcDbEntity
  8
Visible (ANSI)
100
AcDbVertex
100
AcDb2dVertex
 10
84.17133430170167
 20
36.11508153464149
 30
0.0
  0
VERTEX
  5
32E
330
31C
100
AcDbEntity
  8
Visible (ANSI)
100
AcDbVertex
100
AcDb2dVertex
 10
84.17220119802056
 20
36.11719366277534
 30
0.0
  0
VERTEX
  5
32F
330
31C
100
AcDbEntity
  8
Visible (ANSI)
100
AcDbVertex
100
AcDb2dVertex
 10
84.17310149435358
 20
36.11930580264239
 30
0.0
  0
VERTEX
  5
330
330
31C
100
AcDbEntity
  8
Visible (ANSI)
100
AcDbVertex
100
AcDb2dVertex
 10
84.17403133634531
 20
36.12141794250944
 30
0.0
  0
VERTEX
  5
331
330
31C
100
AcDbEntity
  8
Visible (ANSI)
100
AcDbVertex
100
AcDb2dVertex
 10
84.17498674204173
 20
36.12353007064328
 30
0.0
  0
VERTEX
  5
332
330
31C
100
AcDbEntity
  8
Visible (ANSI)
100
AcDbVertex
100
AcDb2dVertex
 10
84.1759636202234
 20
36.12564221051033
 30
0.0
  0
VERTEX
  5
333
330
31C
100
AcDbEntity
  8
Visible (ANSI)
100
AcDbVertex
100
AcDb2dVertex
 10
84.17695778873868
 20
36.12775435037737
 30
0.0
  0
VERTEX
  5
334
330
31C
100
AcDbEntity
  8
Visible (ANSI)
100
AcDbVertex
100
AcDb2dVertex
 10
84.17796498843676
 20
36.12986647851123
 30
0.0
  0
VERTEX
  5
335
330
31C
100
AcDbEntity
  8
Visible (ANSI)
100
AcDbVertex
100
AcDb2dVertex
 10
84.1789809088341
 20
36.13197861837827
 30
0.0
  0
VERTEX
  5
336
330
31C
100
AcDbEntity
  8
Visible (ANSI)
100
AcDbVertex
100
AcDb2dVertex
 10
84.18000119838096
 20
36.13409075824532
 30
0.0
  0
SEQEND
  5
31F
330
31C
100
AcDbEntity
  8
Visible (ANSI)
  0
POLYLINE
  5
337
330
6C
100
AcDbEntity
  8
Visible (ANSI)
100
AcDb2dPolyline
 66
     1
 10
0.0
 20
0.0
 30
0.0
 70
   128
  0
VERTEX
  5
338
330
337
100
AcDbEntity
  8
Visible (ANSI)
100
AcDbVertex
100
AcDb2dVertex
 10
84.16440119766015
 20
66.74469824056226
 30
0.0
  0
VERTEX
  5
339
330
337
100
AcDbEntity
  8
Visible (ANSI)
100
AcDbVertex
100
AcDb2dVertex
 10
84.16443459845632
 20
66.74258664042229
 30
0.0
  0
VERTEX
  5
33B
330
337
100
AcDbEntity
  8
Visible (ANSI)
100
AcDbVertex
100
AcDb2dVertex
 10
84.16453465782362
 20
66.74047504028234
 30
0.0
  0
VERTEX
  5
33C
330
337
100
AcDbEntity
  8
Visible (ANSI)
100
AcDbVertex
100
AcDb2dVertex
 10
84.16470094729117
 20
66.73836344014239
 30
0.0
  0
VERTEX
  5
33D
330
337
100
AcDbEntity
  8
Visible (ANSI)
100
AcDbVertex
100
AcDb2dVertex
 10
84.16493275478623
 20
66.73625184000245
 30
0.0
  0
VERTEX
  5
33E
330
337
100
AcDbEntity
  8
Visible (ANSI)
100
AcDbVertex
100
AcDb2dVertex
 10
84.16522908760462
 20
66.73414023986251
 30
0.0
  0
VERTEX
  5
33F
330
337
100
AcDbEntity
  8
Visible (ANSI)
100
AcDbVertex
100
AcDb2dVertex
 10
84.16558867693396
 20
66.73202563602392
 30
0.0
  0
VERTEX
  5
340
330
337
100
AcDbEntity
  8
Visible (ANSI)
100
AcDbVertex
100
AcDb2dVertex
 10
84.16600998297532
 20
66.72991403588397
 30
0.0
  0
VERTEX
  5
341
330
337
100
AcDbEntity
  8
Visible (ANSI)
100
AcDbVertex
100
AcDb2dVertex
 10
84.16649120138293
 20
66.72780243574402
 30
0.0
  0
VERTEX
  5
342
330
337
100
AcDbEntity
  8
Visible (ANSI)
100
AcDbVertex
100
AcDb2dVertex
 10
84.16703027178886
 20
66.72569083560407
 30
0.0
  0
VERTEX
  5
343
330
337
100
AcDbEntity
  8
Visible (ANSI)
100
AcDbVertex
100
AcDb2dVertex
 10
84.1676248856865
 20
66.72357923546413
 30
0.0
  0
VERTEX
  5
344
330
337
100
AcDbEntity
  8
Visible (ANSI)
100
AcDbVertex
100
AcDb2dVertex
 10
84.16827249660524
 20
66.72146463162555
 30
0.0
  0
VERTEX
  5
345
330
337
100
AcDbEntity
  8
Visible (ANSI)
100
AcDbVertex
100
AcDb2dVertex
 10
84.1689703318438
 20
66.71935303148559
 30
0.0
  0
VERTEX
  5
346
330
337
100
AcDbEntity
  8
Visible (ANSI)
100
AcDbVertex
100
AcDb2dVertex
 10
84.16971540310333
 20
66.71724143134565
 30
0.0
  0
VERTEX
  5
347
330
337
100
AcDbEntity
  8
Visible (ANSI)
100
AcDbVertex
100
AcDb2dVertex
 10
84.17050451932075
 20
66.7151298312057
 30
0.0
  0
VERTEX
  5
348
330
337
100
AcDbEntity
  8
Visible (ANSI)
100
AcDbVertex
100
AcDb2dVertex
 10
84.17133430170167
 20
66.71301823106574
 30
0.0
  0
VERTEX
  5
349
330
337
100
AcDbEntity
  8
Visible (ANSI)
100
AcDbVertex
100
AcDb2dVertex
 10
84.17220119802056
 20
66.71090663092581
 30
0.0
  0
VERTEX
  5
34A
330
337
100
AcDbEntity
  8
Visible (ANSI)
100
AcDbVertex
100
AcDb2dVertex
 10
84.17310149435358
 20
66.70879202708722
 30
0.0
  0
VERTEX
  5
34B
330
337
100
AcDbEntity
  8
Visible (ANSI)
100
AcDbVertex
100
AcDb2dVertex
 10
84.17403133634531
 20
66.70668042694727
 30
0.0
  0
VERTEX
  5
34C
330
337
100
AcDbEntity
  8
Visible (ANSI)
100
AcDbVertex
100
AcDb2dVertex
 10
84.17498674204173
 20
66.70456882680733
 30
0.0
  0
VERTEX
  5
34D
330
337
100
AcDbEntity
  8
Visible (ANSI)
100
AcDbVertex
100
AcDb2dVertex
 10
84.1759636202234
 20
66.70245722666738
 30
0.0
  0
VERTEX
  5
34E
330
337
100
AcDbEntity
  8
Visible (ANSI)
100
AcDbVertex
100
AcDb2dVertex
 10
84.17695778873868
 20
66.70034562652744
 30
0.0
  0
VERTEX
  5
34F
330
337
100
AcDbEntity
  8
Visible (ANSI)
100
AcDbVertex
100
AcDb2dVertex
 10
84.17796498843676
 20
66.69823102268884
 30
0.0
  0
VERTEX
  5
350
330
337
100
AcDbEntity
  8
Visible (ANSI)
100
AcDbVertex
100
AcDb2dVertex
 10
84.1789809088341
 20
66.69611942254888
 30
0.0
  0
VERTEX
  5
351
330
337
100
AcDbEntity
  8
Visible (ANSI)
100
AcDbVertex
100
AcDb2dVertex
 10
84.18000119838096
 20
66.69400782240895
 30
0.0
  0
SEQEND
  5
33A
330
337
100
AcDbEntity
  8
Visible (ANSI)
  0
LINE
  5
352
330
6C
100
AcDbEntity
  8
Visible (ANSI)
100
AcDbLine
 10
84.16440119766015
 20
66.74469949452232
 30
0.0
 11
84.14773013878921
 21
66.74469949452234
 31
0.0
  0
LINE
  5
353
330
6C
100
AcDbEntity
  8
Visible (ANSI)
100
AcDbLine
 10
84.14773013878921
 20
66.74469949452234
 30
0.0
 11
84.07065119766015
 21
66.74469949452232
 31
0.0
  0
LINE
  5
354
330
6C
100
AcDbEntity
  8
Visible (ANSI)
100
AcDbLine
 10
84.18000119766016
 20
66.69400823378609
 30
0.0
 11
84.94565119766015
 21
66.69400823378608
 31
0.0
  0
POLYLINE
  5
355
330
6C
100
AcDbEntity
  8
Visible (ANSI)
100
AcDb2dPolyline
 66
     1
 10
0.0
 20
0.0
 30
0.0
 70
   128
  0
VERTEX
  5
356
330
355
100
AcDbEntity
  8
Visible (ANSI)
100
AcDbVertex
100
AcDb2dVertex
 10
84.18000119838092
 20
66.8540508930444
 30
0.0
  0
VERTEX
  5
357
330
355
100
AcDbEntity
  8
Visible (ANSI)
100
AcDbVertex
100
AcDb2dVertex
 10
84.17284936553285
 20
66.85381660455092
 30
0.0
  0
VERTEX
  5
359
330
355
100
AcDbEntity
  8
Visible (ANSI)
100
AcDbVertex
100
AcDb2dVertex
 10
84.16572815853099
 20
66.85311373907049
 30
0.0
  0
VERTEX
  5
35A
330
355
100
AcDbEntity
  8
Visible (ANSI)
100
AcDbVertex
100
AcDb2dVertex
 10
84.15866807085638
 20
66.85194830400035
 30
0.0
  0
VERTEX
  5
35B
330
355
100
AcDbEntity
  8
Visible (ANSI)
100
AcDbVertex
100
AcDb2dVertex
 10
84.15169933492647
 20
66.85032330303918
 30
0.0
  0
VERTEX
  5
35C
330
355
100
AcDbEntity
  8
Visible (ANSI)
100
AcDbVertex
100
AcDb2dVertex
 10
84.14485179229654
 20
66.84824774728284
 30
0.0
  0
VERTEX
  5
35D
330
355
100
AcDbEntity
  8
Visible (ANSI)
100
AcDbVertex
100
AcDb2dVertex
 10
84.13815476459451
 20
66.84572464042999
 30
0.0
  0
VERTEX
  5
35E
330
355
100
AcDbEntity
  8
Visible (ANSI)
100
AcDbVertex
100
AcDb2dVertex
 10
84.13163692922243
 20
66.84277200467241
 30
0.0
  0
VERTEX
  5
35F
330
355
100
AcDbEntity
  8
Visible (ANSI)
100
AcDbVertex
100
AcDb2dVertex
 10
84.12532619652456
 20
66.83939885110603
 30
0.0
  0
VERTEX
  5
360
330
355
100
AcDbEntity
  8
Visible (ANSI)
100
AcDbVertex
100
AcDb2dVertex
 10
84.119249593922
 20
66.83562019822403
 30
0.0
  0
VERTEX
  5
361
330
355
100
AcDbEntity
  8
Visible (ANSI)
100
AcDbVertex
100
AcDb2dVertex
 10
84.11343313684753
 20
66.83145406821819
 30
0.0
  0
VERTEX
  5
362
330
355
100
AcDbEntity
  8
Visible (ANSI)
100
AcDbVertex
100
AcDb2dVertex
 10
84.1079017319468
 20
66.82691247588305
 30
0.0
  0
VERTEX
  5
363
330
355
100
AcDbEntity
  8
Visible (ANSI)
100
AcDbVertex
100
AcDb2dVertex
 10
84.10267906854612
 20
66.82202245450632
 30
0.0
  0
VERTEX
  5
364
330
355
100
AcDbEntity
  8
Visible (ANSI)
100
AcDbVertex
100
AcDb2dVertex
 10
84.09778751598707
 20
66.81679902258119
 30
0.0
  0
VERTEX
  5
365
330
355
100
AcDbEntity
  8
Visible (ANSI)
100
AcDbVertex
100
AcDb2dVertex
 10
84.09324801216115
 20
66.81126620969671
 30
0.0
  0
VERTEX
  5
366
330
355
100
AcDbEntity
  8
Visible (ANSI)
100
AcDbVertex
100
AcDb2dVertex
 10
84.08907999311045
 20
66.80545104914061
 30
0.0
  0
VERTEX
  5
367
330
355
100
AcDbEntity
  8
Visible (ANSI)
100
AcDbVertex
100
AcDb2dVertex
 10
84.08530132262866
 20
66.79937456680332
 30
0.0
  0
VERTEX
  5
368
330
355
100
AcDbEntity
  8
Visible (ANSI)
100
AcDbVertex
100
AcDb2dVertex
 10
84.08192816319568
 20
66.79306379597256
 30
0.0
  0
VERTEX
  5
369
330
355
100
AcDbEntity
  8
Visible (ANSI)
100
AcDbVertex
100
AcDb2dVertex
 10
84.07897497011122
 20
66.78654576993601
 30
0.0
  0
VERTEX
  5
36A
330
355
100
AcDbEntity
  8
Visible (ANSI)
100
AcDbVertex
100
AcDb2dVertex
 10
84.07645438589588
 20
66.77984752198141
 30
0.0
  0
VERTEX
  5
36B
330
355
100
AcDbEntity
  8
Visible (ANSI)
100
AcDbVertex
100
AcDb2dVertex
 10
84.07437721095826
 20
66.77300209279373
 30
0.0
  0
VERTEX
  5
36C
330
355
100
AcDbEntity
  8
Visible (ANSI)
100
AcDbVertex
100
AcDb2dVertex
 10
84.07275232732905
 20
66.76603351196203
 30
0.0
  0
VERTEX
  5
36D
330
355
100
AcDbEntity
  8
Visible (ANSI)
100
AcDbVertex
100
AcDb2dVertex
 10
84.07158670452776
 20
66.75897181647268
 30
0.0
  0
VERTEX
  5
36E
330
355
100
AcDbEntity
  8
Visible (ANSI)
100
AcDbVertex
100
AcDb2dVertex
 10
84.07088532329686
 20
66.75185004701063
 30
0.0
  0
VERTEX
  5
36F
330
355
100
AcDbEntity
  8
Visible (ANSI)
100
AcDbVertex
100
AcDb2dVertex
 10
84.07065119906814
 20
66.74469824056226
 30
0.0
  0
SEQEND
  5
358
330
355
100
AcDbEntity
  8
Visible (ANSI)
  0
LINE
  5
370
330
6C
100
AcDbEntity
  8
Visible (ANSI)
100
AcDbLine
 10
84.18000119766015
 20
66.76029949452233
 30
0.0
 11
84.94565119766015
 21
66.76029949452247
 31
0.0
  0
LINE
  5
371
330
6C
100
AcDbEntity
  8
Visible (ANSI)
100
AcDbLine
 10
84.94565119766013
 20
66.85404949452247
 30
0.0
 11
84.18000119766013
 21
66.85404949452233
 31
0.0
  0
LINE
  5
372
330
6C
100
AcDbEntity
  8
Visible (ANSI)
100
AcDbLine
 10
84.18000119766015
 20
66.76029949452233
 30
0.0
 11
84.18000119766013
 21
66.85404949452233
 31
0.0
  0
LINE
  5
373
330
6C
100
AcDbEntity
  8
Visible (ANSI)
100
AcDbLine
 10
84.94565119766015
 20
66.76029949452247
 30
0.0
 11
84.94565119766013
 21
66.85404949452247
 31
0.0
  0
POLYLINE
  5
374
330
6C
100
AcDbEntity
  8
Visible (ANSI)
100
AcDb2dPolyline
 66
     1
 10
0.0
 20
0.0
 30
0.0
 70
   128
  0
VERTEX
  5
375
330
374
100
AcDbEntity
  8
Visible (ANSI)
100
AcDbVertex
100
AcDb2dVertex
 10
84.16440119766015
 20
66.74469824056226
 30
0.0
  0
VERTEX
  5
376
330
374
100
AcDbEntity
  8
Visible (ANSI)
100
AcDbVertex
100
AcDb2dVertex
 10
84.16443459845632
 20
66.74571949809792
 30
0.0
  0
VERTEX
  5
378
330
374
100
AcDbEntity
  8
Visible (ANSI)
100
AcDbVertex
100
AcDb2dVertex
 10
84.16453465782362
 20
66.74673474823634
 30
0.0
  0
VERTEX
  5
379
330
374
100
AcDbEntity
  8
Visible (ANSI)
100
AcDbVertex
100
AcDb2dVertex
 10
84.16470094729117
 20
66.74774399097748
 30
0.0
  0
VERTEX
  5
37A
330
374
100
AcDbEntity
  8
Visible (ANSI)
100
AcDbVertex
100
AcDb2dVertex
 10
84.16493275478622
 20
66.74873821522545
 30
0.0
  0
VERTEX
  5
37B
330
374
100
AcDbEntity
  8
Visible (ANSI)
100
AcDbVertex
100
AcDb2dVertex
 10
84.16522908760462
 20
66.7497144172816
 30
0.0
  0
VERTEX
  5
37C
330
374
100
AcDbEntity
  8
Visible (ANSI)
100
AcDbVertex
100
AcDb2dVertex
 10
84.16558867693394
 20
66.75066959344732
 30
0.0
  0
VERTEX
  5
37D
330
374
100
AcDbEntity
  8
Visible (ANSI)
100
AcDbVertex
100
AcDb2dVertex
 10
84.16600998297532
 20
66.75159773632535
 30
0.0
  0
VERTEX
  5
37E
330
374
100
AcDbEntity
  8
Visible (ANSI)
100
AcDbVertex
100
AcDb2dVertex
 10
84.16649120138291
 20
66.75249884591565
 30
0.0
  0
VERTEX
  5
37F
330
374
100
AcDbEntity
  8
Visible (ANSI)
100
AcDbVertex
100
AcDb2dVertex
 10
84.16703027178886
 20
66.75336691482097
 30
0.0
  0
VERTEX
  5
380
330
374
100
AcDbEntity
  8
Visible (ANSI)
100
AcDbVertex
100
AcDb2dVertex
 10
84.16762488568648
 20
66.75419593564406
 30
0.0
  0
VERTEX
  5
381
330
374
100
AcDbEntity
  8
Visible (ANSI)
100
AcDbVertex
100
AcDb2dVertex
 10
84.16827249660524
 20
66.7549859083849
 30
0.0
  0
VERTEX
  5
382
330
374
100
AcDbEntity
  8
Visible (ANSI)
100
AcDbVertex
100
AcDb2dVertex
 10
84.16897033184378
 20
66.75573082564621
 30
0.0
  0
VERTEX
  5
383
330
374
100
AcDbEntity
  8
Visible (ANSI)
100
AcDbVertex
100
AcDb2dVertex
 10
84.16971540310333
 20
66.75642768372938
 30
0.0
  0
VERTEX
  5
384
330
374
100
AcDbEntity
  8
Visible (ANSI)
100
AcDbVertex
100
AcDb2dVertex
 10
84.17050451932073
 20
66.7570764826344
 30
0.0
  0
VERTEX
  5
385
330
374
100
AcDbEntity
  8
Visible (ANSI)
100
AcDbVertex
100
AcDb2dVertex
 10
84.17133430170165
 20
66.757671214964
 30
0.0
  0
VERTEX
  5
386
330
374
100
AcDbEntity
  8
Visible (ANSI)
100
AcDbVertex
100
AcDb2dVertex
 10
84.17220119802054
 20
66.75820887701956
 30
0.0
  0
VERTEX
  5
387
330
374
100
AcDbEntity
  8
Visible (ANSI)
100
AcDbVertex
100
AcDb2dVertex
 10
84.17310149435357
 20
66.75868946880105
 30
0.0
  0
VERTEX
  5
388
330
374
100
AcDbEntity
  8
Visible (ANSI)
100
AcDbVertex
100
AcDb2dVertex
 10
84.17403133634529
 20
66.7591129903085
 30
0.0
  0
VERTEX
  5
389
330
374
100
AcDbEntity
  8
Visible (ANSI)
100
AcDbVertex
100
AcDb2dVertex
 10
84.17498674204169
 20
66.75947043044598
 30
0.0
  0
VERTEX
  5
38A
330
374
100
AcDbEntity
  8
Visible (ANSI)
100
AcDbVertex
100
AcDb2dVertex
 10
84.17596362022338
 20
66.75976779661077
 30
0.0
  0
VERTEX
  5
38B
330
374
100
AcDbEntity
  8
Visible (ANSI)
100
AcDbVertex
100
AcDb2dVertex
 10
84.17695778873866
 20
66.75999908140562
 30
0.0
  0
VERTEX
  5
38C
330
374
100
AcDbEntity
  8
Visible (ANSI)
100
AcDbVertex
100
AcDb2dVertex
 10
84.17796498843674
 20
66.76016728852916
 30
0.0
  0
VERTEX
  5
38D
330
374
100
AcDbEntity
  8
Visible (ANSI)
100
AcDbVertex
100
AcDb2dVertex
 10
84.17898090883406
 20
66.76026641058408
 30
0.0
  0
VERTEX
  5
38E
330
374
100
AcDbEntity
  8
Visible (ANSI)
100
AcDbVertex
100
AcDb2dVertex
 10
84.18000119838092
 20
66.76029945126906
 30
0.0
  0
SEQEND
  5
377
330
374
100
AcDbEntity
  8
Visible (ANSI)
  0
POLYLINE
  5
38F
330
6C
100
AcDbEntity
  8
Visible (ANSI)
100
AcDb2dPolyline
 66
     1
 10
0.0
 20
0.0
 30
0.0
 70
   128
  0
VERTEX
  5
390
330
38F
100
AcDbEntity
  8
Visible (ANSI)
100
AcDbVertex
100
AcDb2dVertex
 10
84.07065119906814
 20
36.08339949530178
 30
0.0
  0
VERTEX
  5
391
330
38F
100
AcDbEntity
  8
Visible (ANSI)
100
AcDbVertex
100
AcDb2dVertex
 10
84.07088532329686
 20
36.076247665387
 30
0.0
  0
VERTEX
  5
393
330
38F
100
AcDbEntity
  8
Visible (ANSI)
100
AcDbVertex
100
AcDb2dVertex
 10
84.07158670452776
 20
36.06912645325185
 30
0.0
  0
VERTEX
  5
394
330
38F
100
AcDbEntity
  8
Visible (ANSI)
100
AcDbVertex
100
AcDb2dVertex
 10
84.07275232732905
 20
36.06206636521058
 30
0.0
  0
VERTEX
  5
395
330
38F
100
AcDbEntity
  8
Visible (ANSI)
100
AcDbVertex
100
AcDb2dVertex
 10
84.07437721095826
 20
36.05509763184732
 30
0.0
  0
VERTEX
  5
396
330
38F
100
AcDbEntity
  8
Visible (ANSI)
100
AcDbVertex
100
AcDb2dVertex
 10
84.07645438589588
 20
36.04825009068404
 30
0.0
  0
VERTEX
  5
397
330
38F
100
AcDbEntity
  8
Visible (ANSI)
100
AcDbVertex
100
AcDb2dVertex
 10
84.07897497011122
 20
36.04155306298201
 30
0.0
  0
VERTEX
  5
398
330
38F
100
AcDbEntity
  8
Visible (ANSI)
100
AcDbVertex
100
AcDb2dVertex
 10
84.08192816319568
 20
36.03503522467663
 30
0.0
  0
VERTEX
  5
399
330
38F
100
AcDbEntity
  8
Visible (ANSI)
100
AcDbVertex
100
AcDb2dVertex
 10
84.08530132262866
 20
36.02872449491205
 30
0.0
  0
VERTEX
  5
39A
330
38F
100
AcDbEntity
  8
Visible (ANSI)
100
AcDbVertex
100
AcDb2dVertex
 10
84.08907999311045
 20
36.02264788937618
 30
0.0
  0
VERTEX
  5
39B
330
38F
100
AcDbEntity
  8
Visible (ANSI)
100
AcDbVertex
100
AcDb2dVertex
 10
84.09324801216115
 20
36.01683143230173
 30
0.0
  0
VERTEX
  5
39C
330
38F
100
AcDbEntity
  8
Visible (ANSI)
100
AcDbVertex
100
AcDb2dVertex
 10
84.09778751598707
 20
36.01130003033429
 30
0.0
  0
VERTEX
  5
39D
330
38F
100
AcDbEntity
  8
Visible (ANSI)
100
AcDbVertex
100
AcDb2dVertex
 10
84.10267906854612
 20
36.00607736693361
 30
0.0
  0
VERTEX
  5
39E
330
38F
100
AcDbEntity
  8
Visible (ANSI)
100
AcDbVertex
100
AcDb2dVertex
 10
84.1079017319468
 20
36.00118581144128
 30
0.0
  0
VERTEX
  5
39F
330
38F
100
AcDbEntity
  8
Visible (ANSI)
100
AcDbVertex
100
AcDb2dVertex
 10
84.11343313684753
 20
35.99664630614869
 30
0.0
  0
VERTEX
  5
3A0
330
38F
100
AcDbEntity
  8
Visible (ANSI)
100
AcDbVertex
100
AcDb2dVertex
 10
84.119249593922
 20
35.99247829296461
 30
0.0
  0
VERTEX
  5
3A1
330
38F
100
AcDbEntity
  8
Visible (ANSI)
100
AcDbVertex
100
AcDb2dVertex
 10
84.12532619652456
 20
35.9886996166162
 30
0.0
  0
VERTEX
  5
3A2
330
38F
100
AcDbEntity
  8
Visible (ANSI)
100
AcDbVertex
100
AcDb2dVertex
 10
84.13163692922243
 20
35.98532646011652
 30
0.0
  0
VERTEX
  5
3A3
330
38F
100
AcDbEntity
  8
Visible (ANSI)
100
AcDbVertex
100
AcDb2dVertex
 10
84.13815476459451
 20
35.98237326776538
 30
0.0
  0
VERTEX
  5
3A4
330
38F
100
AcDbEntity
  8
Visible (ANSI)
100
AcDbVertex
100
AcDb2dVertex
 10
84.14485179229654
 20
35.9798526850167
 30
0.0
  0
VERTEX
  5
3A5
330
38F
100
AcDbEntity
  8
Visible (ANSI)
100
AcDbVertex
100
AcDb2dVertex
 10
84.15169933492647
 20
35.97777550531246
 30
0.0
  0
VERTEX
  5
3A6
330
38F
100
AcDbEntity
  8
Visible (ANSI)
100
AcDbVertex
100
AcDb2dVertex
 10
84.15866807085638
 20
35.97615062406656
 30
0.0
  0
VERTEX
  5
3A7
330
38F
100
AcDbEntity
  8
Visible (ANSI)
100
AcDbVertex
100
AcDb2dVertex
 10
84.16572815853099
 20
35.97498499897362
 30
0.0
  0
VERTEX
  5
3A8
330
38F
100
AcDbEntity
  8
Visible (ANSI)
100
AcDbVertex
100
AcDb2dVertex
 10
84.17284936553285
 20
35.97428362127183
 30
0.0
  0
VERTEX
  5
3A9
330
38F
100
AcDbEntity
  8
Visible (ANSI)
100
AcDbVertex
100
AcDb2dVertex
 10
84.18000119838092
 20
35.97404949452232
 30
0.0
  0
SEQEND
  5
392
330
38F
100
AcDbEntity
  8
Visible (ANSI)
  0
LINE
  5
3AA
330
6C
100
AcDbEntity
  8
Visible (ANSI)
100
AcDbLine
 10
84.18000119766015
 20
36.06779949452232
 30
0.0
 11
84.94565119766013
 21
36.06779949452232
 31
0.0
  0
LINE
  5
3AB
330
6C
100
AcDbEntity
  8
Visible (ANSI)
100
AcDbLine
 10
84.18000119766015
 20
36.06779949452232
 30
0.0
 11
84.18000119766015
 21
35.97404949452232
 31
0.0
  0
POLYLINE
  5
3AC
330
6C
100
AcDbEntity
  8
Visible (ANSI)
100
AcDb2dPolyline
 66
     1
 10
0.0
 20
0.0
 30
0.0
 70
   128
  0
VERTEX
  5
3AD
330
3AC
100
AcDbEntity
  8
Visible (ANSI)
100
AcDbVertex
100
AcDb2dVertex
 10
84.16440119766015
 20
36.08339949530178
 30
0.0
  0
VERTEX
  5
3AE
330
3AC
100
AcDbEntity
  8
Visible (ANSI)
100
AcDbVertex
100
AcDb2dVertex
 10
84.16443459845632
 20
36.08237919988833
 30
0.0
  0
VERTEX
  5
3B0
330
3AC
100
AcDbEntity
  8
Visible (ANSI)
100
AcDbVertex
100
AcDb2dVertex
 10
84.16453465782362
 20
36.08136328095763
 30
0.0
  0
VERTEX
  5
3B1
330
3AC
100
AcDbEntity
  8
Visible (ANSI)
100
AcDbVertex
100
AcDb2dVertex
 10
84.16470094729117
 20
36.08035607979291
 30
0.0
  0
VERTEX
  5
3B2
330
3AC
100
AcDbEntity
  8
Visible (ANSI)
100
AcDbVertex
100
AcDb2dVertex
 10
84.16493275478622
 20
36.07936191421093
 30
0.0
  0
VERTEX
  5
3B3
330
3AC
100
AcDbEntity
  8
Visible (ANSI)
100
AcDbVertex
100
AcDb2dVertex
 10
84.16522908760462
 20
36.07838504336249
 30
0.0
  0
VERTEX
  5
3B4
330
3AC
100
AcDbEntity
  8
Visible (ANSI)
100
AcDbVertex
100
AcDb2dVertex
 10
84.16558867693394
 20
36.07742963253282
 30
0.0
  0
VERTEX
  5
3B5
330
3AC
100
AcDbEntity
  8
Visible (ANSI)
100
AcDbVertex
100
AcDb2dVertex
 10
84.16600998297532
 20
36.07649978834112
 30
0.0
  0
VERTEX
  5
3B6
330
3AC
100
AcDbEntity
  8
Visible (ANSI)
100
AcDbVertex
100
AcDb2dVertex
 10
84.16649120138291
 20
36.07559950007466
 30
0.0
  0
VERTEX
  5
3B7
330
3AC
100
AcDbEntity
  8
Visible (ANSI)
100
AcDbVertex
100
AcDb2dVertex
 10
84.16703027178886
 20
36.07473260448911
 30
0.0
  0
VERTEX
  5
3B8
330
3AC
100
AcDbEntity
  8
Visible (ANSI)
100
AcDbVertex
100
AcDb2dVertex
 10
84.16762488568648
 20
36.07390282100818
 30
0.0
  0
VERTEX
  5
3B9
330
3AC
100
AcDbEntity
  8
Visible (ANSI)
100
AcDbVertex
100
AcDb2dVertex
 10
84.16827249660524
 20
36.07311370479078
 30
0.0
  0
VERTEX
  5
3BA
330
3AC
100
AcDbEntity
  8
Visible (ANSI)
100
AcDbVertex
100
AcDb2dVertex
 10
84.16897033184378
 20
36.07236862913129
 30
0.0
  0
VERTEX
  5
3BB
330
3AC
100
AcDbEntity
  8
Visible (ANSI)
100
AcDbVertex
100
AcDb2dVertex
 10
84.16971540310333
 20
36.07167079132611
 30
0.0
  0
VERTEX
  5
3BC
330
3AC
100
AcDbEntity
  8
Visible (ANSI)
100
AcDbVertex
100
AcDb2dVertex
 10
84.17050451932073
 20
36.07102318334066
 30
0.0
  0
VERTEX
  5
3BD
330
3AC
100
AcDbEntity
  8
Visible (ANSI)
100
AcDbVertex
100
AcDb2dVertex
 10
84.17133430170165
 20
36.07042856834304
 30
0.0
  0
VERTEX
  5
3BE
330
3AC
100
AcDbEntity
  8
Visible (ANSI)
100
AcDbVertex
100
AcDb2dVertex
 10
84.17220119802054
 20
36.06988949830375
 30
0.0
  0
VERTEX
  5
3BF
330
3AC
100
AcDbEntity
  8
Visible (ANSI)
100
AcDbVertex
100
AcDb2dVertex
 10
84.17310149435357
 20
36.06940827879618
 30
0.0
  0
VERTEX
  5
3C0
330
3AC
100
AcDbEntity
  8
Visible (ANSI)
100
AcDbVertex
100
AcDb2dVertex
 10
84.17403133634529
 20
36.06898697486311
 30
0.0
  0
VERTEX
  5
3C1
330
3AC
100
AcDbEntity
  8
Visible (ANSI)
100
AcDbVertex
100
AcDb2dVertex
 10
84.17498674204169
 20
36.06862738168383
 30
0.0
  0
VERTEX
  5
3C2
330
3AC
100
AcDbEntity
  8
Visible (ANSI)
100
AcDbVertex
100
AcDb2dVertex
 10
84.17596362022338
 20
36.06833105390704
 30
0.0
  0
VERTEX
  5
3C3
330
3AC
100
AcDbEntity
  8
Visible (ANSI)
100
AcDbVertex
100
AcDb2dVertex
 10
84.17695778873866
 20
36.06809924698489
 30
0.0
  0
VERTEX
  5
3C4
330
3AC
100
AcDbEntity
  8
Visible (ANSI)
100
AcDbVertex
100
AcDb2dVertex
 10
84.17796498843674
 20
36.06793295237261
 30
0.0
  0
VERTEX
  5
3C5
330
3AC
100
AcDbEntity
  8
Visible (ANSI)
100
AcDbVertex
100
AcDb2dVertex
 10
84.17898090883406
 20
36.06783289752845
 30
0.0
  0
VERTEX
  5
3C6
330
3AC
100
AcDbEntity
  8
Visible (ANSI)
100
AcDbVertex
100
AcDb2dVertex
 10
84.18000119838092
 20
36.06779949311434
 30
0.0
  0
SEQEND
  5
3AF
330
3AC
100
AcDbEntity
  8
Visible (ANSI)
  0
LINE
  5
3C7
330
6C
100
AcDbEntity
  8
Visible (ANSI)
100
AcDbLine
 10
84.18000119766015
 20
35.97404949452232
 30
0.0
 11
84.94565119766013
 21
35.97404949452232
 31
0.0
  0
LINE
  5
3C8
330
6C
100
AcDbEntity
  8
Visible (ANSI)
100
AcDbLine
 10
84.94565119766013
 20
36.06779949452232
 30
0.0
 11
84.94565119766013
 21
35.97404949452232
 31
0.0
  0
LINE
  5
3C9
330
6C
100
AcDbEntity
  8
Visible (ANSI)
100
AcDbLine
 10
84.07065119766015
 20
36.08339949452233
 30
0.0
 11
84.07065119766015
 21
66.74469949452232
 31
0.0
  0
LINE
  5
3CA
330
6C
100
AcDbEntity
  8
Hidden (ANSI)
 48
1.05955147743225
100
AcDbLine
 10
84.16440119766015
 20
66.74469949452232
 30
0.0
 11
84.16440119766015
 21
36.08339949452233
 31
0.0
  0
LINE
  5
3CB
330
6C
100
AcDbEntity
  8
Visible (ANSI)
100
AcDbLine
 10
84.94565119766015
 20
66.69400823378608
 30
0.0
 11
84.94565119766019
 21
36.13409075525856
 31
0.0
  0
LINE
  5
3CC
330
6C
100
AcDbEntity
  8
Hidden (ANSI)
 48
0.0177565310150385
100
AcDbLine
 10
84.16440119765992
 20
65.69754949452231
 30
0.0
 11
84.07065119765993
 21
65.69754949452231
 31
0.0
  0
LINE
  5
3CD
330
6C
100
AcDbEntity
  8
Hidden (ANSI)
 48
0.0177565310150385
100
AcDbLine
 10
84.16440119765992
 20
66.26054949452232
 30
0.0
 11
84.07065119765993
 21
66.26054949452232
 31
0.0
  0
LINE
  5
3CE
330
6C
100
AcDbEntity
  8
Hidden (ANSI)
 48
0.0177565310150385
100
AcDbLine
 10
84.16440119765992
 20
36.56754949452232
 30
0.0
 11
84.07065119765993
 21
36.56754949452232
 31
0.0
  0
LINE
  5
3CF
330
6C
100
AcDbEntity
  8
Hidden (ANSI)
 48
0.0177565310150385
100
AcDbLine
 10
84.16440119765992
 20
37.13054949452232
 30
0.0
 11
84.07065119765993
 21
37.13054949452232
 31
0.0
  0
MTEXT
  5
3D0
330
6C
100
AcDbEntity
  8
Symbol (ANSI)
100
AcDbMText
 10
80.76013180052298
 20
30.96675185487614
 30
0.0
 40
1.200000014830761
 41
0.0
 46
0.0
 71
     7
 72
     1
  1
SIDE VIEW
  7
Text Style153
 73
     1
 44
1.0
  0
LINE
  5
3D1
330
6C
100
AcDbEntity
  8
Symbol (ANSI)
370
    30
100
AcDbLine
 10
80.69869164247682
 20
30.71814569322907
 30
0.0
 11
88.80792984653178
 21
30.71814569322907
 31
0.0
  0
ELLIPSE
  5
3D2
330
6C
100
AcDbEntity
  8
Visible (ANSI)
100
AcDbEllipse
 10
137.6126717468277
 20
58.20625340856398
 30
0.0
 11
-0.1404775675610101
 21
0.2439432372748666
 31
0.0
210
0.0
220
0.0
230
1.0
 40
0.5780931159158093
 41
0.0
 42
6.283185307179586
  0
ELLIPSE
  5
3D3
330
6C
100
AcDbEntity
  8
Visible (ANSI)
100
AcDbEllipse
 10
137.678963007564
 20
58.24442800673202
 30
0.0
 11
-0.1404775675610097
 21
0.243943237274866
 31
0.0
210
0.0
220
0.0
230
1.0
 40
0.5780931159158093
 41
0.2372585647783669
 42
2.904334088811316
  0
ELLIPSE
  5
3D4
330
6C
100
AcDbEntity
  8
Visible (ANSI)
100
AcDbEllipse
 10
120.4653323030514
 20
68.08074946802673
 30
0.0
 11
-0.1404775675610101
 21
0.2439432372748666
 31
0.0
210
0.0
220
0.0
230
1.0
 40
0.5780931159158093
 41
0.0
 42
6.283185307179586
  0
ELLIPSE
  5
3D5
330
6C
100
AcDbEntity
  8
Visible (ANSI)
100
AcDbEllipse
 10
120.5316235637877
 20
68.11892406619477
 30
0.0
 11
-0.1404775675610098
 21
0.243943237274866
 31
0.0
210
0.0
220
0.0
230
1.0
 40
0.5780931159158093
 41
0.2372585647784593
 42
2.904334088811316
  0
ELLIPSE
  5
3D6
330
6C
100
AcDbEntity
  8
Visible (ANSI)
100
AcDbEllipse
 10
120.4653323030513
 20
44.26560172136362
 30
0.0
 11
-0.1404775675610101
 21
0.2439432372748666
 31
0.0
210
0.0
220
0.0
230
1.0
 40
0.5780931159158093
 41
0.0
 42
6.283185307179586
  0
ELLIPSE
  5
3D7
330
6C
100
AcDbEntity
  8
Visible (ANSI)
100
AcDbEllipse
 10
120.5316235637876
 20
44.30377631953166
 30
0.0
 11
-0.1404775675610102
 21
0.2439432372748664
 31
0.0
210
0.0
220
0.0
230
0.9999999999999998
 40
0.578093115915809
 41
0.2372585647784328
 42
2.904334088811331
  0
ELLIPSE
  5
3D8
330
6C
100
AcDbEntity
  8
Visible (ANSI)
100
AcDbEllipse
 10
137.6126717468277
 20
34.39110566190088
 30
0.0
 11
-0.1404775675610101
 21
0.2439432372748666
 31
0.0
210
0.0
220
0.0
230
1.0
 40
0.5780931159158093
 41
0.0
 42
6.283185307179586
  0
ELLIPSE
  5
3D9
330
6C
100
AcDbEntity
  8
Visible (ANSI)
100
AcDbEllipse
 10
137.6789630075639
 20
34.42928026006891
 30
0.0
 11
-0.1404775675610089
 21
0.2439432372748646
 31
0.0
210
0.0
220
0.0
230
1.0
 40
0.578093115915809
 41
0.2372585647783669
 42
2.904334088811488
  0
LINE
  5
3DA
330
6C
100
AcDbEntity
  8
Visible Narrow (ANSI)
100
AcDbLine
 10
138.3087123068888
 20
58.47899647196507
 30
0.0
 11
138.3087123068887
 21
33.49482380196969
 31
0.0
  0
LINE
  5
3DB
330
6C
100
AcDbEntity
  8
Visible Narrow (ANSI)
100
AcDbLine
 10
138.1540680538432
 20
33.45338130750013
 30
0.0
 11
138.1540680538433
 21
58.52043896643462
 31
0.0
  0
LINE
  5
3DC
330
6C
100
AcDbEntity
  8
Visible Narrow (ANSI)
100
AcDbLine
 10
120.0371022567721
 20
69.13175818773367
 30
0.0
 11
138.1955460461525
 21
58.67500585993788
 31
0.0
  0
LINE
  5
3DD
330
6C
100
AcDbEntity
  8
Visible Narrow (ANSI)
100
AcDbLine
 10
138.1540680538433
 20
58.52043896643462
 30
0.0
 11
119.9239359960359
 21
69.01847382242746
 31
0.0
  0
LINE
  5
3DE
330
6C
100
AcDbEntity
  8
Visible Narrow (ANSI)
100
AcDbLine
 10
119.9239359960359
 20
69.01847382242746
 30
0.0
 11
119.9239359960358
 21
43.95141616349298
 31
0.0
  0
LINE
  5
3DF
330
6C
100
AcDbEntity
  8
Visible Narrow (ANSI)
100
AcDbLine
 10
119.9239359960358
 20
43.95141616349298
 30
0.0
 11
138.1540680538432
 21
33.45338130750013
 31
0.0
  0
LINE
  5
3E0
330
6C
100
AcDbEntity
  8
Visible (ANSI)
100
AcDbLine
 10
119.8919081225586
 20
69.04227942649588
 30
0.0
 11
119.8919081225585
 21
44.01666426203096
 31
0.0
  0
LINE
  5
3E1
330
6C
100
AcDbEntity
  8
Visible (ANSI)
100
AcDbLine
 10
119.9646551427846
 20
43.89083607384427
 30
0.0
 11
138.1588548154665
 21
33.41349330227027
 31
0.0
  0
POLYLINE
  5
3E2
330
6C
100
AcDbEntity
  8
Visible (ANSI)
100
AcDb2dPolyline
 66
     1
 10
0.0
 20
0.0
 30
0.0
 70
   128
  0
VERTEX
  5
3E3
330
3E2
100
AcDbEntity
  8
Visible (ANSI)
100
AcDbVertex
100
AcDb2dVertex
 10
138.1540685580587
 20
58.52043765205146
 30
0.0
  0
VERTEX
  5
3E4
330
3E2
100
AcDbEntity
  8
Visible (ANSI)
100
AcDbVertex
100
AcDb2dVertex
 10
138.1592911997259
 20
58.51589446887899
 30
0.0
  0
VERTEX
  5
3E6
330
3E2
100
AcDbEntity
  8
Visible (ANSI)
100
AcDbVertex
100
AcDb2dVertex
 10
138.1648230026311
 20
58.51155378168717
 30
0.0
  0
VERTEX
  5
3E7
330
3E2
100
AcDbEntity
  8
Visible (ANSI)
100
AcDbVertex
100
AcDb2dVertex
 10
138.1706384712497
 20
58.50742781663036
 30
0.0
  0
VERTEX
  5
3E8
330
3E2
100
AcDbEntity
  8
Visible (ANSI)
100
AcDbVertex
100
AcDb2dVertex
 10
138.1767149682439
 20
58.50352555341046
 30
0.0
  0
VERTEX
  5
3E9
330
3E2
100
AcDbEntity
  8
Visible (ANSI)
100
AcDbVertex
100
AcDb2dVertex
 10
138.1830263260624
 20
58.49985638500114
 30
0.0
  0
VERTEX
  5
3EA
330
3E2
100
AcDbEntity
  8
Visible (ANSI)
100
AcDbVertex
100
AcDb2dVertex
 10
138.1895429008688
 20
58.49642769303764
 30
0.0
  0
VERTEX
  5
3EB
330
3E2
100
AcDbEntity
  8
Visible (ANSI)
100
AcDbVertex
100
AcDb2dVertex
 10
138.1962400641353
 20
58.49324977571593
 30
0.0
  0
VERTEX
  5
3EC
330
3E2
100
AcDbEntity
  8
Visible (ANSI)
100
AcDbVertex
100
AcDb2dVertex
 10
138.2030876368933
 20
58.49032726032272
 30
0.0
  0
VERTEX
  5
3ED
330
3E2
100
AcDbEntity
  8
Visible (ANSI)
100
AcDbVertex
100
AcDb2dVertex
 10
138.2100562822814
 20
58.48766526856085
 30
0.0
  0
VERTEX
  5
3EE
330
3E2
100
AcDbEntity
  8
Visible (ANSI)
100
AcDbVertex
100
AcDb2dVertex
 10
138.2171175802148
 20
58.48526700388339
 30
0.0
  0
VERTEX
  5
3EF
330
3E2
100
AcDbEntity
  8
Visible (ANSI)
100
AcDbVertex
100
AcDb2dVertex
 10
138.2242376597273
 20
58.48313496749707
 30
0.0
  0
VERTEX
  5
3F0
330
3E2
100
AcDbEntity
  8
Visible (ANSI)
100
AcDbVertex
100
AcDb2dVertex
 10
138.2313900338477
 20
58.48127349501847
 30
0.0
  0
VERTEX
  5
3F1
330
3E2
100
AcDbEntity
  8
Visible (ANSI)
100
AcDbVertex
100
AcDb2dVertex
 10
138.2385429057655
 20
58.47968138970841
 30
0.0
  0
VERTEX
  5
3F2
330
3E2
100
AcDbEntity
  8
Visible (ANSI)
100
AcDbVertex
100
AcDb2dVertex
 10
138.2456634664821
 20
58.47835932761256
 30
0.0
  0
VERTEX
  5
3F3
330
3E2
100
AcDbEntity
  8
Visible (ANSI)
100
AcDbVertex
100
AcDb2dVertex
 10
138.2527243454361
 20
58.47730377800481
 30
0.0
  0
VERTEX
  5
3F4
330
3E2
100
AcDbEntity
  8
Visible (ANSI)
100
AcDbVertex
100
AcDb2dVertex
 10
138.2596930634196
 20
58.47651316065831
 30
0.0
  0
VERTEX
  5
3F5
330
3E2
100
AcDbEntity
  8
Visible (ANSI)
100
AcDbVertex
100
AcDb2dVertex
 10
138.2665406050652
 20
58.47598054200116
 30
0.0
  0
VERTEX
  5
3F6
330
3E2
100
AcDbEntity
  8
Visible (ANSI)
100
AcDbVertex
100
AcDb2dVertex
 10
138.273237239422
 20
58.47570594337977
 30
0.0
  0
VERTEX
  5
3F7
330
3E2
100
AcDbEntity
  8
Visible (ANSI)
100
AcDbVertex
100
AcDb2dVertex
 10
138.2797547351536
 20
58.47568043652925
 30
0.0
  0
VERTEX
  5
3F8
330
3E2
100
AcDbEntity
  8
Visible (ANSI)
100
AcDbVertex
100
AcDb2dVertex
 10
138.2860643185317
 20
58.47589723650723
 30
0.0
  0
VERTEX
  5
3F9
330
3E2
100
AcDbEntity
  8
Visible (ANSI)
100
AcDbVertex
100
AcDb2dVertex
 10
138.2921410081631
 20
58.47634684985889
 30
0.0
  0
VERTEX
  5
3FA
330
3E2
100
AcDbEntity
  8
Visible (ANSI)
100
AcDbVertex
100
AcDb2dVertex
 10
138.2979573310747
 20
58.47701833884531
 30
0.0
  0
VERTEX
  5
3FB
330
3E2
100
AcDbEntity
  8
Visible (ANSI)
100
AcDbVertex
100
AcDb2dVertex
 10
138.3034897857835
 20
58.47790552737927
 30
0.0
  0
VERTEX
  5
3FC
330
3E2
100
AcDbEntity
  8
Visible (ANSI)
100
AcDbVertex
100
AcDb2dVertex
 10
138.3087125622708
 20
58.4789959891672
 30
0.0
  0
SEQEND
  5
3E5
330
3E2
100
AcDbEntity
  8
Visible (ANSI)
  0
POLYLINE
  5
3FD
330
6C
100
AcDbEntity
  8
Visible (ANSI)
100
AcDb2dPolyline
 66
     1
 10
0.0
 20
0.0
 30
0.0
 70
   128
  0
VERTEX
  5
3FE
330
3FD
100
AcDbEntity
  8
Visible (ANSI)
100
AcDbVertex
100
AcDb2dVertex
 10
138.3087125622707
 20
33.49482365793384
 30
0.0
  0
VERTEX
  5
3FF
330
3FD
100
AcDbEntity
  8
Visible (ANSI)
100
AcDbVertex
100
AcDb2dVertex
 10
138.3034897857834
 20
33.4902800896471
 30
0.0
  0
VERTEX
  5
401
330
3FD
100
AcDbEntity
  8
Visible (ANSI)
100
AcDbVertex
100
AcDb2dVertex
 10
138.2979573310747
 20
33.48593979461436
 30
0.0
  0
VERTEX
  5
402
330
3FD
100
AcDbEntity
  8
Visible (ANSI)
100
AcDbVertex
100
AcDb2dVertex
 10
138.2921410081631
 20
33.48181275305638
 30
0.0
  0
VERTEX
  5
403
330
3FD
100
AcDbEntity
  8
Visible (ANSI)
100
AcDbVertex
100
AcDb2dVertex
 10
138.2860643185317
 20
33.47791003320591
 30
0.0
  0
VERTEX
  5
404
330
3FD
100
AcDbEntity
  8
Visible (ANSI)
100
AcDbVertex
100
AcDb2dVertex
 10
138.2797547351535
 20
33.47424012672914
 30
0.0
  0
VERTEX
  5
405
330
3FD
100
AcDbEntity
  8
Visible (ANSI)
100
AcDbVertex
100
AcDb2dVertex
 10
138.273237239422
 20
33.47081253667332
 30
0.0
  0
VERTEX
  5
406
330
3FD
100
AcDbEntity
  8
Visible (ANSI)
100
AcDbVertex
100
AcDb2dVertex
 10
138.2665406050652
 20
33.4676340287959
 30
0.0
  0
VERTEX
  5
407
330
3FD
100
AcDbEntity
  8
Visible (ANSI)
100
AcDbVertex
100
AcDb2dVertex
 10
138.2596930634195
 20
33.46471108528906
 30
0.0
  0
VERTEX
  5
408
330
3FD
100
AcDbEntity
  8
Visible (ANSI)
100
AcDbVertex
100
AcDb2dVertex
 10
138.252724345436
 20
33.46204860572921
 30
0.0
  0
VERTEX
  5
409
330
3FD
100
AcDbEntity
  8
Visible (ANSI)
100
AcDbVertex
100
AcDb2dVertex
 10
138.2456634664821
 20
33.45965104883815
 30
0.0
  0
VERTEX
  5
40A
330
3FD
100
AcDbEntity
  8
Visible (ANSI)
100
AcDbVertex
100
AcDb2dVertex
 10
138.2385429057654
 20
33.4575200044352
 30
0.0
  0
VERTEX
  5
40B
330
3FD
100
AcDbEntity
  8
Visible (ANSI)
100
AcDbVertex
100
AcDb2dVertex
 10
138.2313900338476
 20
33.4556590128389
 30
0.0
  0
VERTEX
  5
40C
330
3FD
100
AcDbEntity
  8
Visible (ANSI)
100
AcDbVertex
100
AcDb2dVertex
 10
138.2242376597273
 20
33.4540673788187
 30
0.0
  0
VERTEX
  5
40D
330
3FD
100
AcDbEntity
  8
Visible (ANSI)
100
AcDbVertex
100
AcDb2dVertex
 10
138.2171175802147
 20
33.45274386263348
 30
0.0
  0
VERTEX
  5
40E
330
3FD
100
AcDbEntity
  8
Visible (ANSI)
100
AcDbVertex
100
AcDb2dVertex
 10
138.2100562822813
 20
33.45168902081212
 30
0.0
  0
VERTEX
  5
40F
330
3FD
100
AcDbEntity
  8
Visible (ANSI)
100
AcDbVertex
100
AcDb2dVertex
 10
138.2030876368933
 20
33.4508979060752
 30
0.0
  0
VERTEX
  5
410
330
3FD
100
AcDbEntity
  8
Visible (ANSI)
100
AcDbVertex
100
AcDb2dVertex
 10
138.1962400641353
 20
33.45036732456205
 30
0.0
  0
VERTEX
  5
411
330
3FD
100
AcDbEntity
  8
Visible (ANSI)
100
AcDbVertex
100
AcDb2dVertex
 10
138.1895429008687
 20
33.45009213538495
 30
0.0
  0
VERTEX
  5
412
330
3FD
100
AcDbEntity
  8
Visible (ANSI)
100
AcDbVertex
100
AcDb2dVertex
 10
138.1830263260624
 20
33.45006526518447
 30
0.0
  0
VERTEX
  5
413
330
3FD
100
AcDbEntity
  8
Visible (ANSI)
100
AcDbVertex
100
AcDb2dVertex
 10
138.1767149682439
 20
33.45028133668745
 30
0.0
  0
VERTEX
  5
414
330
3FD
100
AcDbEntity
  8
Visible (ANSI)
100
AcDbVertex
100
AcDb2dVertex
 10
138.1706384712497
 20
33.45073049340854
 30
0.0
  0
VERTEX
  5
415
330
3FD
100
AcDbEntity
  8
Visible (ANSI)
100
AcDbVertex
100
AcDb2dVertex
 10
138.164823002631
 20
33.45140335196654
 30
0.0
  0
VERTEX
  5
416
330
3FD
100
AcDbEntity
  8
Visible (ANSI)
100
AcDbVertex
100
AcDb2dVertex
 10
138.1592911997258
 20
33.45229094225202
 30
0.0
  0
VERTEX
  5
417
330
3FD
100
AcDbEntity
  8
Visible (ANSI)
100
AcDbVertex
100
AcDb2dVertex
 10
138.1540685580586
 20
33.45338101892568
 30
0.0
  0
SEQEND
  5
400
330
3FD
100
AcDbEntity
  8
Visible (ANSI)
  0
LINE
  5
418
330
6C
100
AcDbEntity
  8
Visible (ANSI)
100
AcDbLine
 10
138.2438744243222
 20
58.51800801495809
 30
0.0
 11
138.783817353168
 21
58.82894046839822
 31
0.0
  0
LINE
  5
419
330
6C
100
AcDbEntity
  8
Visible (ANSI)
100
AcDbLine
 10
138.8501086139042
 20
33.80659320023483
 30
0.0
 11
138.3087123068887
 21
33.4948238019697
 31
0.0
  0
LINE
  5
41A
330
6C
100
AcDbEntity
  8
Visible (ANSI)
100
AcDbLine
 10
138.2542976869343
 20
58.51033176757049
 30
0.0
 11
138.3087123068888
 21
58.47899647196507
 31
0.0
  0
POLYLINE
  5
41B
330
6C
100
AcDbEntity
  8
Visible (ANSI)
100
AcDb2dPolyline
 66
     1
 10
0.0
 20
0.0
 30
0.0
 70
   128
  0
VERTEX
  5
41C
330
41B
100
AcDbEntity
  8
Visible (ANSI)
100
AcDbVertex
100
AcDb2dVertex
 10
138.2203598177993
 20
58.55861224964616
 30
0.0
  0
VERTEX
  5
41D
330
41B
100
AcDbEntity
  8
Visible (ANSI)
100
AcDbVertex
100
AcDb2dVertex
 10
138.2208924682685
 20
58.55707464473124
 30
0.0
  0
VERTEX
  5
41F
330
41B
100
AcDbEntity
  8
Visible (ANSI)
100
AcDbVertex
100
AcDb2dVertex
 10
138.2214475398912
 20
58.55555239748643
 30
0.0
  0
VERTEX
  5
420
330
41B
100
AcDbEntity
  8
Visible (ANSI)
100
AcDbVertex
100
AcDb2dVertex
 10
138.2220270745618
 20
58.5540442375739
 30
0.0
  0
VERTEX
  5
421
330
41B
100
AcDbEntity
  8
Visible (ANSI)
100
AcDbVertex
100
AcDb2dVertex
 10
138.2226266878679
 20
58.55255253255143
 30
0.0
  0
VERTEX
  5
422
330
41B
100
AcDbEntity
  8
Visible (ANSI)
100
AcDbVertex
100
AcDb2dVertex
 10
138.2232440651447
 20
58.55107839567864
 30
0.0
  0
VERTEX
  5
423
330
41B
100
AcDbEntity
  8
Visible (ANSI)
100
AcDbVertex
100
AcDb2dVertex
 10
138.2238810858125
 20
58.54962046305521
 30
0.0
  0
VERTEX
  5
424
330
41B
100
AcDbEntity
  8
Visible (ANSI)
100
AcDbVertex
100
AcDb2dVertex
 10
138.2245353282618
 20
58.54817978635543
 30
0.0
  0
VERTEX
  5
425
330
41B
100
AcDbEntity
  8
Visible (ANSI)
100
AcDbVertex
100
AcDb2dVertex
 10
138.2252043182191
 20
58.54675493126116
 30
0.0
  0
VERTEX
  5
426
330
41B
100
AcDbEntity
  8
Visible (ANSI)
100
AcDbVertex
100
AcDb2dVertex
 10
138.2258855297513
 20
58.54535180070108
 30
0.0
  0
VERTEX
  5
427
330
41B
100
AcDbEntity
  8
Visible (ANSI)
100
AcDbVertex
100
AcDb2dVertex
 10
138.226580633915
 20
58.54396645512114
 30
0.0
  0
VERTEX
  5
428
330
41B
100
AcDbEntity
  8
Visible (ANSI)
100
AcDbVertex
100
AcDb2dVertex
 10
138.2272870037919
 20
58.54259982796602
 30
0.0
  0
VERTEX
  5
429
330
41B
100
AcDbEntity
  8
Visible (ANSI)
100
AcDbVertex
100
AcDb2dVertex
 10
138.2280019641745
 20
58.54125282487263
 30
0.0
  0
VERTEX
  5
42A
330
41B
100
AcDbEntity
  8
Visible (ANSI)
100
AcDbVertex
100
AcDb2dVertex
 10
138.228722791696
 20
58.53992632374478
 30
0.0
  0
VERTEX
  5
42B
330
41B
100
AcDbEntity
  8
Visible (ANSI)
100
AcDbVertex
100
AcDb2dVertex
 10
138.2294509653593
 20
58.53861873009716
 30
0.0
  0
VERTEX
  5
42C
330
41B
100
AcDbEntity
  8
Visible (ANSI)
100
AcDbVertex
100
AcDb2dVertex
 10
138.2301836710534
 20
58.53733086957737
 30
0.0
  0
VERTEX
  5
42D
330
41B
100
AcDbEntity
  8
Visible (ANSI)
100
AcDbVertex
100
AcDb2dVertex
 10
138.2309201753047
 20
58.53605986414101
 30
0.0
  0
VERTEX
  5
42E
330
41B
100
AcDbEntity
  8
Visible (ANSI)
100
AcDbVertex
100
AcDb2dVertex
 10
138.2316554560633
 20
58.53481262548499
 30
0.0
  0
VERTEX
  5
42F
330
41B
100
AcDbEntity
  8
Visible (ANSI)
100
AcDbVertex
100
AcDb2dVertex
 10
138.2323908218623
 20
58.53358500529184
 30
0.0
  0
VERTEX
  5
430
330
41B
100
AcDbEntity
  8
Visible (ANSI)
100
AcDbVertex
100
AcDb2dVertex
 10
138.2331254204828
 20
58.53237651280136
 30
0.0
  0
VERTEX
  5
431
330
41B
100
AcDbEntity
  8
Visible (ANSI)
100
AcDbVertex
100
AcDb2dVertex
 10
138.2338541150186
 20
58.53118908223873
 30
0.0
  0
VERTEX
  5
432
330
41B
100
AcDbEntity
  8
Visible (ANSI)
100
AcDbVertex
100
AcDb2dVertex
 10
138.2345781064057
 20
58.53002095899071
 30
0.0
  0
VERTEX
  5
433
330
41B
100
AcDbEntity
  8
Visible (ANSI)
100
AcDbVertex
100
AcDb2dVertex
 10
138.2352964394955
 20
58.52887159302373
 30
0.0
  0
VERTEX
  5
434
330
41B
100
AcDbEntity
  8
Visible (ANSI)
100
AcDbVertex
100
AcDb2dVertex
 10
138.2360038811924
 20
58.52774040750619
 30
0.0
  0
VERTEX
  5
435
330
41B
100
AcDbEntity
  8
Visible (ANSI)
100
AcDbVertex
100
AcDb2dVertex
 10
138.2367015432442
 20
58.52663050779489
 30
0.0
  0
SEQEND
  5
41E
330
41B
100
AcDbEntity
  8
Visible (ANSI)
  0
LINE
  5
436
330
6C
100
AcDbEntity
  8
Visible (ANSI)
100
AcDbLine
 10
138.2203593145795
 20
58.55861356460266
 30
0.0
 11
138.2085710958024
 21
58.55182518088604
 31
0.0
  0
LINE
  5
437
330
6C
100
AcDbEntity
  8
Visible (ANSI)
100
AcDbLine
 10
138.2085710958024
 20
58.55182518088604
 30
0.0
 11
138.1540680538433
 21
58.52043896643462
 31
0.0
  0
LINE
  5
438
330
6C
100
AcDbEntity
  8
Visible (ANSI)
100
AcDbLine
 10
138.3087123068888
 20
58.47899647196507
 30
0.0
 11
138.8501086139042
 21
58.79076587023019
 31
0.0
  0
LINE
  5
439
330
6C
100
AcDbEntity
  8
Visible (ANSI)
100
AcDbLine
 10
138.783817353168
 20
58.82894046839822
 30
0.0
 11
138.8501086139042
 21
58.79076587023019
 31
0.0
  0
POLYLINE
  5
43A
330
6C
100
AcDbEntity
  8
Visible (ANSI)
100
AcDb2dPolyline
 66
     1
 10
0.0
 20
0.0
 30
0.0
 70
   128
  0
VERTEX
  5
43B
330
43A
100
AcDbEntity
  8
Visible (ANSI)
100
AcDbVertex
100
AcDb2dVertex
 10
119.9239359975826
 20
69.01847279751194
 30
0.0
  0
VERTEX
  5
43C
330
43A
100
AcDbEntity
  8
Visible (ANSI)
100
AcDbVertex
100
AcDb2dVertex
 10
119.9255950568352
 20
69.02355501639289
 30
0.0
  0
VERTEX
  5
43E
330
43A
100
AcDbEntity
  8
Visible (ANSI)
100
AcDbVertex
100
AcDb2dVertex
 10
119.927584508386
 20
69.02880294844826
 30
0.0
  0
VERTEX
  5
43F
330
43A
100
AcDbEntity
  8
Visible (ANSI)
100
AcDbVertex
100
AcDb2dVertex
 10
119.9299022365958
 20
69.03419079959988
 30
0.0
  0
VERTEX
  5
440
330
43A
100
AcDbEntity
  8
Visible (ANSI)
100
AcDbVertex
100
AcDb2dVertex
 10
119.9325447112515
 20
69.03968953417152
 30
0.0
  0
VERTEX
  5
441
330
43A
100
AcDbEntity
  8
Visible (ANSI)
100
AcDbVertex
100
AcDb2dVertex
 10
119.9355069958618
 20
69.04527176233052
 30
0.0
  0
VERTEX
  5
442
330
43A
100
AcDbEntity
  8
Visible (ANSI)
100
AcDbVertex
100
AcDb2dVertex
 10
119.9387828264758
 20
69.05091421247525
 30
0.0
  0
VERTEX
  5
443
330
43A
100
AcDbEntity
  8
Visible (ANSI)
100
AcDbVertex
100
AcDb2dVertex
 10
119.9423645577548
 20
69.05658547918626
 30
0.0
  0
VERTEX
  5
444
330
43A
100
AcDbEntity
  8
Visible (ANSI)
100
AcDbVertex
100
AcDb2dVertex
 10
119.94624324179
 20
69.06225831827446
 30
0.0
  0
VERTEX
  5
445
330
43A
100
AcDbEntity
  8
Visible (ANSI)
100
AcDbVertex
100
AcDb2dVertex
 10
119.9504086737344
 20
69.06790473306171
 30
0.0
  0
VERTEX
  5
446
330
43A
100
AcDbEntity
  8
Visible (ANSI)
100
AcDbVertex
100
AcDb2dVertex
 10
119.954849416692
 20
69.07349604604648
 30
0.0
  0
VERTEX
  5
447
330
43A
100
AcDbEntity
  8
Visible (ANSI)
100
AcDbVertex
100
AcDb2dVertex
 10
119.9595528307568
 20
69.07900779829008
 30
0.0
  0
VERTEX
  5
448
330
43A
100
AcDbEntity
  8
Visible (ANSI)
100
AcDbVertex
100
AcDb2dVertex
 10
119.9645051891646
 20
69.08440996497731
 30
0.0
  0
VERTEX
  5
449
330
43A
100
AcDbEntity
  8
Visible (ANSI)
100
AcDbVertex
100
AcDb2dVertex
 10
119.9696916699972
 20
69.08967438452252
 30
0.0
  0
VERTEX
  5
44A
330
43A
100
AcDbEntity
  8
Visible (ANSI)
100
AcDbVertex
100
AcDb2dVertex
 10
119.9750964723349
 20
69.09477966034436
 30
0.0
  0
VERTEX
  5
44B
330
43A
100
AcDbEntity
  8
Visible (ANSI)
100
AcDbVertex
100
AcDb2dVertex
 10
119.9807028369975
 20
69.09969405004176
 30
0.0
  0
VERTEX
  5
44C
330
43A
100
AcDbEntity
  8
Visible (ANSI)
100
AcDbVertex
100
AcDb2dVertex
 10
119.9864931440305
 20
69.10439759385233
 30
0.0
  0
VERTEX
  5
44D
330
43A
100
AcDbEntity
  8
Visible (ANSI)
100
AcDbVertex
100
AcDb2dVertex
 10
119.9924490143382
 20
69.10886495485684
 30
0.0
  0
VERTEX
  5
44E
330
43A
100
AcDbEntity
  8
Visible (ANSI)
100
AcDbVertex
100
AcDb2dVertex
 10
119.9985513283513
 20
69.11307285405706
 30
0.0
  0
VERTEX
  5
44F
330
43A
100
AcDbEntity
  8
Visible (ANSI)
100
AcDbVertex
100
AcDb2dVertex
 10
120.0047803421794
 20
69.11700256426262
 30
0.0
  0
VERTEX
  5
450
330
43A
100
AcDbEntity
  8
Visible (ANSI)
100
AcDbVertex
100
AcDb2dVertex
 10
120.0111157944303
 20
69.12062766461179
 30
0.0
  0
VERTEX
  5
451
330
43A
100
AcDbEntity
  8
Visible (ANSI)
100
AcDbVertex
100
AcDb2dVertex
 10
120.0175369432854
 20
69.1239337645759
 30
0.0
  0
VERTEX
  5
452
330
43A
100
AcDbEntity
  8
Visible (ANSI)
100
AcDbVertex
100
AcDb2dVertex
 10
120.0240226792821
 20
69.12690135058368
 30
0.0
  0
VERTEX
  5
453
330
43A
100
AcDbEntity
  8
Visible (ANSI)
100
AcDbVertex
100
AcDb2dVertex
 10
120.0305516414661
 20
69.12951564690375
 30
0.0
  0
VERTEX
  5
454
330
43A
100
AcDbEntity
  8
Visible (ANSI)
100
AcDbVertex
100
AcDb2dVertex
 10
120.0371022593937
 20
69.13175933016869
 30
0.0
  0
SEQEND
  5
43D
330
43A
100
AcDbEntity
  8
Visible (ANSI)
  0
POLYLINE
  5
455
330
6C
100
AcDbEntity
  8
Visible (ANSI)
100
AcDb2dPolyline
 66
     1
 10
0.0
 20
0.0
 30
0.0
 70
   128
  0
VERTEX
  5
456
330
455
100
AcDbEntity
  8
Visible (ANSI)
100
AcDbVertex
100
AcDb2dVertex
 10
138.1955450217425
 20
58.6750075938011
 30
0.0
  0
VERTEX
  5
457
330
455
100
AcDbEntity
  8
Visible (ANSI)
100
AcDbVertex
100
AcDb2dVertex
 10
138.1919831629515
 20
58.67104279861593
 30
0.0
  0
VERTEX
  5
459
330
455
100
AcDbEntity
  8
Visible (ANSI)
100
AcDbVertex
100
AcDb2dVertex
 10
138.1884408359683
 20
58.66670861346882
 30
0.0
  0
VERTEX
  5
45A
330
455
100
AcDbEntity
  8
Visible (ANSI)
100
AcDbVertex
100
AcDb2dVertex
 10
138.184941726876
 20
58.66202114341174
 30
0.0
  0
VERTEX
  5
45B
330
455
100
AcDbEntity
  8
Visible (ANSI)
100
AcDbVertex
100
AcDb2dVertex
 10
138.1815072132217
 20
58.65699515462061
 30
0.0
  0
VERTEX
  5
45C
330
455
100
AcDbEntity
  8
Visible (ANSI)
100
AcDbVertex
100
AcDb2dVertex
 10
138.1781583961718
 20
58.65165016544441
 30
0.0
  0
VERTEX
  5
45D
330
455
100
AcDbEntity
  8
Visible (ANSI)
100
AcDbVertex
100
AcDb2dVertex
 10
138.1749181331836
 20
58.64599934809635
 30
0.0
  0
VERTEX
  5
45E
330
455
100
AcDbEntity
  8
Visible (ANSI)
100
AcDbVertex
100
AcDb2dVertex
 10
138.1718024543715
 20
58.64007156006909
 30
0.0
  0
VERTEX
  5
45F
330
455
100
AcDbEntity
  8
Visible (ANSI)
100
AcDbVertex
100
AcDb2dVertex
 10
138.1688332192647
 20
58.63388431023755
 30
0.0
  0
VERTEX
  5
460
330
455
100
AcDbEntity
  8
Visible (ANSI)
100
AcDbVertex
100
AcDb2dVertex
 10
138.1660295391359
 20
58.62746088237767
 30
0.0
  0
VERTEX
  5
461
330
455
100
AcDbEntity
  8
Visible (ANSI)
100
AcDbVertex
100
AcDb2dVertex
 10
138.1634098096742
 20
58.62082660385326
 30
0.0
  0
VERTEX
  5
462
330
455
100
AcDbEntity
  8
Visible (ANSI)
100
AcDbVertex
100
AcDb2dVertex
 10
138.1609916425376
 20
58.61400143920441
 30
0.0
  0
VERTEX
  5
463
330
455
100
AcDbEntity
  8
Visible (ANSI)
100
AcDbVertex
100
AcDb2dVertex
 10
138.1587939125449
 20
58.60701591251667
 30
0.0
  0
VERTEX
  5
464
330
455
100
AcDbEntity
  8
Visible (ANSI)
100
AcDbVertex
100
AcDb2dVertex
 10
138.156828189338
 20
58.59989385700242
 30
0.0
  0
VERTEX
  5
465
330
455
100
AcDbEntity
  8
Visible (ANSI)
100
AcDbVertex
100
AcDb2dVertex
 10
138.1551114021775
 20
58.59266222070952
 30
0.0
  0
VERTEX
  5
466
330
455
100
AcDbEntity
  8
Visible (ANSI)
100
AcDbVertex
100
AcDb2dVertex
 10
138.1536572944208
 20
58.58535101889771
 30
0.0
  0
VERTEX
  5
467
330
455
100
AcDbEntity
  8
Visible (ANSI)
100
AcDbVertex
100
AcDb2dVertex
 10
138.1524784976773
 20
58.57798471528344
 30
0.0
  0
VERTEX
  5
468
330
455
100
AcDbEntity
  8
Visible (ANSI)
100
AcDbVertex
100
AcDb2dVertex
 10
138.151588564482
 20
58.57059076905272
 30
0.0
  0
VERTEX
  5
469
330
455
100
AcDbEntity
  8
Visible (ANSI)
100
AcDbVertex
100
AcDb2dVertex
 10
138.150993468404
 20
58.56319961351467
 30
0.0
  0
VERTEX
  5
46A
330
455
100
AcDbEntity
  8
Visible (ANSI)
100
AcDbVertex
100
AcDb2dVertex
 10
138.1507042729909
 20
58.55583727454295
 30
0.0
  0
VERTEX
  5
46B
330
455
100
AcDbEntity
  8
Visible (ANSI)
100
AcDbVertex
100
AcDb2dVertex
 10
138.1507286152849
 20
58.54853516233461
 30
0.0
  0
VERTEX
  5
46C
330
455
100
AcDbEntity
  8
Visible (ANSI)
100
AcDbVertex
100
AcDb2dVertex
 10
138.1510727758302
 20
58.54131653893596
 30
0.0
  0
VERTEX
  5
46D
330
455
100
AcDbEntity
  8
Visible (ANSI)
100
AcDbVertex
100
AcDb2dVertex
 10
138.1517416828212
 20
58.53420879895732
 30
0.0
  0
VERTEX
  5
46E
330
455
100
AcDbEntity
  8
Visible (ANSI)
100
AcDbVertex
100
AcDb2dVertex
 10
138.1527409821104
 20
58.52723975975942
 30
0.0
  0
VERTEX
  5
46F
330
455
100
AcDbEntity
  8
Visible (ANSI)
100
AcDbVertex
100
AcDb2dVertex
 10
138.1540685580587
 20
58.52043765205146
 30
0.0
  0
SEQEND
  5
458
330
455
100
AcDbEntity
  8
Visible (ANSI)
  0
LINE
  5
470
330
6C
100
AcDbEntity
  8
Visible (ANSI)
100
AcDbLine
 10
138.19698932913
 20
58.59919194837429
 30
0.0
 11
138.7369423531679
 21
58.91013021524916
 31
0.0
  0
LINE
  5
471
330
6C
100
AcDbEntity
  8
Visible (ANSI)
100
AcDbLine
 10
138.7369423531679
 20
58.98677525820314
 30
0.0
 11
138.1955460461525
 21
58.67500585993788
 31
0.0
  0
LINE
  5
472
330
6C
100
AcDbEntity
  8
Visible (ANSI)
100
AcDbLine
 10
138.1955460461525
 20
58.61199019323189
 30
0.0
 11
138.1955460461525
 21
58.67500585993788
 31
0.0
  0
LINE
  5
473
330
6C
100
AcDbEntity
  8
Visible (ANSI)
100
AcDbLine
 10
138.7369423531679
 20
58.91013021524916
 30
0.0
 11
138.7369423531679
 21
58.98677525820314
 31
0.0
  0
POLYLINE
  5
474
330
6C
100
AcDbEntity
  8
Visible (ANSI)
100
AcDb2dPolyline
 66
     1
 10
0.0
 20
0.0
 30
0.0
 70
   128
  0
VERTEX
  5
475
330
474
100
AcDbEntity
  8
Visible (ANSI)
100
AcDbVertex
100
AcDb2dVertex
 10
138.2203598177993
 20
58.55861224964616
 30
0.0
  0
VERTEX
  5
476
330
474
100
AcDbEntity
  8
Visible (ANSI)
100
AcDbVertex
100
AcDb2dVertex
 10
138.2192952723876
 20
58.55984352886382
 30
0.0
  0
VERTEX
  5
478
330
474
100
AcDbEntity
  8
Visible (ANSI)
100
AcDbVertex
100
AcDb2dVertex
 10
138.2182531556038
 20
58.56108525872535
 30
0.0
  0
VERTEX
  5
479
330
474
100
AcDbEntity
  8
Visible (ANSI)
100
AcDbVertex
100
AcDb2dVertex
 10
138.2172376332189
 20
58.56233985709628
 30
0.0
  0
VERTEX
  5
47A
330
474
100
AcDbEntity
  8
Visible (ANSI)
100
AcDbVertex
100
AcDb2dVertex
 10
138.2162464446896
 20
58.56360110140712
 30
0.0
  0
VERTEX
  5
47B
330
474
100
AcDbEntity
  8
Visible (ANSI)
100
AcDbVertex
100
AcDb2dVertex
 10
138.215279399157
 20
58.56487379307997
 30
0.0
  0
VERTEX
  5
47C
330
474
100
AcDbEntity
  8
Visible (ANSI)
100
AcDbVertex
100
AcDb2dVertex
 10
138.2143362519682
 20
58.56615287989808
 30
0.0
  0
VERTEX
  5
47D
330
474
100
AcDbEntity
  8
Visible (ANSI)
100
AcDbVertex
100
AcDb2dVertex
 10
138.2134145812703
 20
58.56743941339575
 30
0.0
  0
VERTEX
  5
47E
330
474
100
AcDbEntity
  8
Visible (ANSI)
100
AcDbVertex
100
AcDb2dVertex
 10
138.2125182845647
 20
58.56872828995655
 30
0.0
  0
VERTEX
  5
47F
330
474
100
AcDbEntity
  8
Visible (ANSI)
100
AcDbVertex
100
AcDb2dVertex
 10
138.2116448354643
 20
58.57001804525232
 30
0.0
  0
VERTEX
  5
480
330
474
100
AcDbEntity
  8
Visible (ANSI)
100
AcDbVertex
100
AcDb2dVertex
 10
138.2107937808312
 20
58.57131087400332
 30
0.0
  0
VERTEX
  5
481
330
474
100
AcDbEntity
  8
Visible (ANSI)
100
AcDbVertex
100
AcDb2dVertex
 10
138.2099646176823
 20
58.57260403089577
 30
0.0
  0
VERTEX
  5
482
330
474
100
AcDbEntity
  8
Visible (ANSI)
100
AcDbVertex
100
AcDb2dVertex
 10
138.2091546700326
 20
58.57389596545356
 30
0.0
  0
VERTEX
  5
483
330
474
100
AcDbEntity
  8
Visible (ANSI)
100
AcDbVertex
100
AcDb2dVertex
 10
138.2083675863222
 20
58.57518143063565
 30
0.0
  0
VERTEX
  5
484
330
474
100
AcDbEntity
  8
Visible (ANSI)
100
AcDbVertex
100
AcDb2dVertex
 10
138.2076005970344
 20
58.57646618910024
 30
0.0
  0
VERTEX
  5
485
330
474
100
AcDbEntity
  8
Visible (ANSI)
100
AcDbVertex
100
AcDb2dVertex
 10
138.2068530118642
 20
58.57774002066639
 30
0.0
  0
VERTEX
  5
486
330
474
100
AcDbEntity
  8
Visible (ANSI)
100
AcDbVertex
100
AcDb2dVertex
 10
138.2061219727545
 20
58.57901109267034
 30
0.0
  0
VERTEX
  5
487
330
474
100
AcDbEntity
  8
Visible (ANSI)
100
AcDbVertex
100
AcDb2dVertex
 10
138.2054109528793
 20
58.58026914581166
 30
0.0
  0
VERTEX
  5
488
330
474
100
AcDbEntity
  8
Visible (ANSI)
100
AcDbVertex
100
AcDb2dVertex
 10
138.2047170129004
 20
58.58151738928965
 30
0.0
  0
VERTEX
  5
489
330
474
100
AcDbEntity
  8
Visible (ANSI)
100
AcDbVertex
100
AcDb2dVertex
 10
138.2040392995618
 20
58.58275533174691
 30
0.0
  0
VERTEX
  5
48A
330
474
100
AcDbEntity
  8
Visible (ANSI)
100
AcDbVertex
100
AcDb2dVertex
 10
138.2033769235693
 20
58.58397754974252
 30
0.0
  0
VERTEX
  5
48B
330
474
100
AcDbEntity
  8
Visible (ANSI)
100
AcDbVertex
100
AcDb2dVertex
 10
138.2027268374692
 20
58.58518719021628
 30
0.0
  0
VERTEX
  5
48C
330
474
100
AcDbEntity
  8
Visible (ANSI)
100
AcDbVertex
100
AcDb2dVertex
 10
138.2020923334655
 20
58.58638125664952
 30
0.0
  0
VERTEX
  5
48D
330
474
100
AcDbEntity
  8
Visible (ANSI)
100
AcDbVertex
100
AcDb2dVertex
 10
138.20147030188
 20
58.58755549315368
 30
0.0
  0
VERTEX
  5
48E
330
474
100
AcDbEntity
  8
Visible (ANSI)
100
AcDbVertex
100
AcDb2dVertex
 10
138.2008597294875
 20
58.58871177191638
 30
0.0
  0
SEQEND
  5
477
330
474
100
AcDbEntity
  8
Visible (ANSI)
  0
LINE
  5
48F
330
6C
100
AcDbEntity
  8
Visible (ANSI)
100
AcDbLine
 10
120.0371022567721
 20
69.13175818773367
 30
0.0
 11
120.5784985637875
 21
69.44352758599892
 31
0.0
  0
POLYLINE
  5
490
330
6C
100
AcDbEntity
  8
Visible (ANSI)
100
AcDb2dPolyline
 66
     1
 10
0.0
 20
0.0
 30
0.0
 70
   128
  0
VERTEX
  5
491
330
490
100
AcDbEntity
  8
Visible (ANSI)
100
AcDbVertex
100
AcDb2dVertex
 10
119.9239359975825
 20
43.95141616438617
 30
0.0
  0
VERTEX
  5
492
330
490
100
AcDbEntity
  8
Visible (ANSI)
100
AcDbVertex
100
AcDb2dVertex
 10
119.9214474916699
 20
43.95376026809603
 30
0.0
  0
VERTEX
  5
494
330
490
100
AcDbEntity
  8
Visible (ANSI)
100
AcDbVertex
100
AcDb2dVertex
 10
119.9190444409817
 20
43.95615046713123
 30
0.0
  0
VERTEX
  5
495
330
490
100
AcDbEntity
  8
Visible (ANSI)
100
AcDbVertex
100
AcDb2dVertex
 10
119.9167294340643
 20
43.95858511792323
 30
0.0
  0
VERTEX
  5
496
330
490
100
AcDbEntity
  8
Visible (ANSI)
100
AcDbVertex
100
AcDb2dVertex
 10
119.9145049350152
 20
43.96106255790376
 30
0.0
  0
VERTEX
  5
497
330
490
100
AcDbEntity
  8
Visible (ANSI)
100
AcDbVertex
100
AcDb2dVertex
 10
119.9123733374102
 20
43.96358104078356
 30
0.0
  0
VERTEX
  5
498
330
490
100
AcDbEntity
  8
Visible (ANSI)
100
AcDbVertex
100
AcDb2dVertex
 10
119.9103369186726
 20
43.96613880597731
 30
0.0
  0
VERTEX
  5
499
330
490
100
AcDbEntity
  8
Visible (ANSI)
100
AcDbVertex
100
AcDb2dVertex
 10
119.9083978649626
 20
43.96873403078944
 30
0.0
  0
VERTEX
  5
49A
330
490
100
AcDbEntity
  8
Visible (ANSI)
100
AcDbVertex
100
AcDb2dVertex
 10
119.906558246288
 20
43.97136486385819
 30
0.0
  0
VERTEX
  5
49B
330
490
100
AcDbEntity
  8
Visible (ANSI)
100
AcDbVertex
100
AcDb2dVertex
 10
119.9048200330968
 20
43.97402940122992
 30
0.0
  0
VERTEX
  5
49C
330
490
100
AcDbEntity
  8
Visible (ANSI)
100
AcDbVertex
100
AcDb2dVertex
 10
119.9031850879811
 20
43.97672573428442
 30
0.0
  0
VERTEX
  5
49D
330
490
100
AcDbEntity
  8
Visible (ANSI)
100
AcDbVertex
100
AcDb2dVertex
 10
119.9016551615284
 20
43.97945189456902
 30
0.0
  0
VERTEX
  5
49E
330
490
100
AcDbEntity
  8
Visible (ANSI)
100
AcDbVertex
100
AcDb2dVertex
 10
119.9002318964704
 20
43.98220588022414
 30
0.0
  0
VERTEX
  5
49F
330
490
100
AcDbEntity
  8
Visible (ANSI)
100
AcDbVertex
100
AcDb2dVertex
 10
119.8989168069407
 20
43.98498567266821
 30
0.0
  0
VERTEX
  5
4A0
330
490
100
AcDbEntity
  8
Visible (ANSI)
100
AcDbVertex
100
AcDb2dVertex
 10
119.8977113116621
 20
43.98778921748685
 30
0.0
  0
VERTEX
  5
4A1
330
490
100
AcDbEntity
  8
Visible (ANSI)
100
AcDbVertex
100
AcDb2dVertex
 10
119.8966166966113
 20
43.99061442678469
 30
0.0
  0
VERTEX
  5
4A2
330
490
100
AcDbEntity
  8
Visible (ANSI)
100
AcDbVertex
100
AcDb2dVertex
 10
119.8956341357604
 20
43.99345921994405
 30
0.0
  0
VERTEX
  5
4A3
330
490
100
AcDbEntity
  8
Visible (ANSI)
100
AcDbVertex
100
AcDb2dVertex
 10
119.8947646744842
 20
43.99632146607017
 30
0.0
  0
VERTEX
  5
4A4
330
490
100
AcDbEntity
  8
Visible (ANSI)
100
AcDbVertex
100
AcDb2dVertex
 10
119.894009250301
 20
43.99919901997226
 30
0.0
  0
VERTEX
  5
4A5
330
490
100
AcDbEntity
  8
Visible (ANSI)
100
AcDbVertex
100
AcDb2dVertex
 10
119.8933686742059
 20
44.00208973287617
 30
0.0
  0
VERTEX
  5
4A6
330
490
100
AcDbEntity
  8
Visible (ANSI)
100
AcDbVertex
100
AcDb2dVertex
 10
119.892843628596
 20
44.00499142973045
 30
0.0
  0
VERTEX
  5
4A7
330
490
100
AcDbEntity
  8
Visible (ANSI)
100
AcDbVertex
100
AcDb2dVertex
 10
119.8924346714195
 20
44.0079019163357
 30
0.0
  0
VERTEX
  5
4A8
330
490
100
AcDbEntity
  8
Visible (ANSI)
100
AcDbVertex
100
AcDb2dVertex
 10
119.8921422506939
 20
44.01081902368665
 30
0.0
  0
VERTEX
  5
4A9
330
490
100
AcDbEntity
  8
Visible (ANSI)
100
AcDbVertex
100
AcDb2dVertex
 10
119.8919666713202
 20
44.01374054086192
 30
0.0
  0
VERTEX
  5
4AA
330
490
100
AcDbEntity
  8
Visible (ANSI)
100
AcDbVertex
100
AcDb2dVertex
 10
119.8919081199725
 20
44.01666426294938
 30
0.0
  0
SEQEND
  5
493
330
490
100
AcDbEntity
  8
Visible (ANSI)
  0
POLYLINE
  5
4AB
330
6C
100
AcDbEntity
  8
Visible (ANSI)
100
AcDb2dPolyline
 66
     1
 10
0.0
 20
0.0
 30
0.0
 70
   128
  0
VERTEX
  5
4AC
330
4AB
100
AcDbEntity
  8
Visible (ANSI)
100
AcDbVertex
100
AcDb2dVertex
 10
119.9239359965455
 20
69.06608469453762
 30
0.0
  0
VERTEX
  5
4AD
330
4AB
100
AcDbEntity
  8
Visible (ANSI)
100
AcDbVertex
100
AcDb2dVertex
 10
119.9190444396529
 20
69.06480349607045
 30
0.0
  0
VERTEX
  5
4AF
330
4AB
100
AcDbEntity
  8
Visible (ANSI)
100
AcDbVertex
100
AcDb2dVertex
 10
119.9145049348208
 20
69.06334450573158
 30
0.0
  0
VERTEX
  5
4B0
330
4AB
100
AcDbEntity
  8
Visible (ANSI)
100
AcDbVertex
100
AcDb2dVertex
 10
119.9103369203579
 20
69.06172381903816
 30
0.0
  0
VERTEX
  5
4B1
330
4AB
100
AcDbEntity
  8
Visible (ANSI)
100
AcDbVertex
100
AcDb2dVertex
 10
119.9065582444731
 20
69.05995086758143
 30
0.0
  0
VERTEX
  5
4B2
330
4AB
100
AcDbEntity
  8
Visible (ANSI)
100
AcDbVertex
100
AcDb2dVertex
 10
119.9031850884997
 20
69.0580430915234
 30
0.0
  0
VERTEX
  5
4B3
330
4AB
100
AcDbEntity
  8
Visible (ANSI)
100
AcDbVertex
100
AcDb2dVertex
 10
119.9002318959519
 20
69.05601605267971
 30
0.0
  0
VERTEX
  5
4B4
330
4AB
100
AcDbEntity
  8
Visible (ANSI)
100
AcDbVertex
100
AcDb2dVertex
 10
119.8977113126993
 20
69.05388582340882
 30
0.0
  0
VERTEX
  5
4B5
330
4AB
100
AcDbEntity
  8
Visible (ANSI)
100
AcDbVertex
100
AcDb2dVertex
 10
119.8956341326493
 20
69.05167137352316
 30
0.0
  0
VERTEX
  5
4B6
330
4AB
100
AcDbEntity
  8
Visible (ANSI)
100
AcDbVertex
100
AcDb2dVertex
 10
119.8940092534123
 20
69.04938467879933
 30
0.0
  0
VERTEX
  5
4B7
330
4AB
100
AcDbEntity
  8
Visible (ANSI)
100
AcDbVertex
100
AcDb2dVertex
 10
119.892843627559
 20
69.0470453779288
 30
0.0
  0
VERTEX
  5
4B8
330
4AB
100
AcDbEntity
  8
Visible (ANSI)
100
AcDbVertex
100
AcDb2dVertex
 10
119.8921422486198
 20
69.04467087908733
 30
0.0
  0
VERTEX
  5
4B9
330
4AB
100
AcDbEntity
  8
Visible (ANSI)
100
AcDbVertex
100
AcDb2dVertex
 10
119.8919081199725
 20
69.04227874512895
 30
0.0
  0
VERTEX
  5
4BA
330
4AB
100
AcDbEntity
  8
Visible (ANSI)
100
AcDbVertex
100
AcDb2dVertex
 10
119.892142250694
 20
69.03988661236501
 30
0.0
  0
VERTEX
  5
4BB
330
4AB
100
AcDbEntity
  8
Visible (ANSI)
100
AcDbVertex
100
AcDb2dVertex
 10
119.8928436285961
 20
69.03751457098036
 30
0.0
  0
VERTEX
  5
4BC
330
4AB
100
AcDbEntity
  8
Visible (ANSI)
100
AcDbVertex
100
AcDb2dVertex
 10
119.8940092503011
 20
69.03517526772097
 30
0.0
  0
VERTEX
  5
4BD
330
4AB
100
AcDbEntity
  8
Visible (ANSI)
100
AcDbVertex
100
AcDb2dVertex
 10
119.8956341357605
 20
69.03288857419157
 30
0.0
  0
VERTEX
  5
4BE
330
4AB
100
AcDbEntity
  8
Visible (ANSI)
100
AcDbVertex
100
AcDb2dVertex
 10
119.8977113116622
 20
69.03067166864072
 30
0.0
  0
VERTEX
  5
4BF
330
4AB
100
AcDbEntity
  8
Visible (ANSI)
100
AcDbVertex
100
AcDb2dVertex
 10
119.9002318964704
 20
69.02854143787682
 30
0.0
  0
VERTEX
  5
4C0
330
4AB
100
AcDbEntity
  8
Visible (ANSI)
100
AcDbVertex
100
AcDb2dVertex
 10
119.9031850879811
 20
69.02651685410107
 30
0.0
  0
VERTEX
  5
4C1
330
4AB
100
AcDbEntity
  8
Visible (ANSI)
100
AcDbVertex
100
AcDb2dVertex
 10
119.906558246288
 20
69.02460908058121
 30
0.0
  0
VERTEX
  5
4C2
330
4AB
100
AcDbEntity
  8
Visible (ANSI)
100
AcDbVertex
100
AcDb2dVertex
 10
119.9103369186726
 20
69.02283612919915
 30
0.0
  0
VERTEX
  5
4C3
330
4AB
100
AcDbEntity
  8
Visible (ANSI)
100
AcDbVertex
100
AcDb2dVertex
 10
119.9145049350153
 20
69.02121298762438
 30
0.0
  0
VERTEX
  5
4C4
330
4AB
100
AcDbEntity
  8
Visible (ANSI)
100
AcDbVertex
100
AcDb2dVertex
 10
119.9190444409817
 20
69.0197539937582
 30
0.0
  0
VERTEX
  5
4C5
330
4AB
100
AcDbEntity
  8
Visible (ANSI)
100
AcDbVertex
100
AcDb2dVertex
 10
119.9239359975826
 20
69.01847279751194
 30
0.0
  0
SEQEND
  5
4AE
330
4AB
100
AcDbEntity
  8
Visible (ANSI)
  0
LINE
  5
4C6
330
6C
100
AcDbEntity
  8
Visible (ANSI)
100
AcDbLine
 10
120.3700301960029
 20
44.26245172902567
 30
0.0
 11
120.5316235637874
 21
44.35550716066605
 31
0.0
  0
LINE
  5
4C7
330
6C
100
AcDbEntity
  8
Visible (ANSI)
100
AcDbLine
 10
119.977497131183
 20
69.09692883695685
 30
0.0
 11
119.9239359960358
 21
69.06608503056429
 31
0.0
  0
LINE
  5
4C8
330
6C
100
AcDbEntity
  8
Visible (ANSI)
100
AcDbLine
 10
119.9418361033583
 20
69.05577704431379
 30
0.0
 11
119.9239359960358
 21
69.06608503056429
 31
0.0
  0
POLYLINE
  5
4C9
330
6C
100
AcDbEntity
  8
Visible (ANSI)
100
AcDb2dPolyline
 66
     1
 10
0.0
 20
0.0
 30
0.0
 70
   128
  0
VERTEX
  5
4CA
330
4C9
100
AcDbEntity
  8
Visible (ANSI)
100
AcDbVertex
100
AcDb2dVertex
 10
138.1540685580586
 20
33.45338101892568
 30
0.0
  0
VERTEX
  5
4CB
330
4C9
100
AcDbEntity
  8
Visible (ANSI)
100
AcDbVertex
100
AcDb2dVertex
 10
138.1527409821103
 20
33.44848922985014
 30
0.0
  0
VERTEX
  5
4CD
330
4C9
100
AcDbEntity
  8
Visible (ANSI)
100
AcDbVertex
100
AcDb2dVertex
 10
138.1517416828211
 20
33.44381396039405
 30
0.0
  0
VERTEX
  5
4CE
330
4C9
100
AcDbEntity
  8
Visible (ANSI)
100
AcDbVertex
100
AcDb2dVertex
 10
138.1510727758301
 20
33.4393764768496
 30
0.0
  0
VERTEX
  5
4CF
330
4C9
100
AcDbEntity
  8
Visible (ANSI)
100
AcDbVertex
100
AcDb2dVertex
 10
138.1507286152848
 20
33.43520068910013
 30
0.0
  0
VERTEX
  5
4D0
330
4C9
100
AcDbEntity
  8
Visible (ANSI)
100
AcDbVertex
100
AcDb2dVertex
 10
138.1507042729908
 20
33.43130815276747
 30
0.0
  0
VERTEX
  5
4D1
330
4C9
100
AcDbEntity
  8
Visible (ANSI)
100
AcDbVertex
100
AcDb2dVertex
 10
138.1509934684039
 20
33.42771922263965
 30
0.0
  0
VERTEX
  5
4D2
330
4C9
100
AcDbEntity
  8
Visible (ANSI)
100
AcDbVertex
100
AcDb2dVertex
 10
138.1515885644819
 20
33.42445294476512
 30
0.0
  0
VERTEX
  5
4D3
330
4C9
100
AcDbEntity
  8
Visible (ANSI)
100
AcDbVertex
100
AcDb2dVertex
 10
138.1524784976773
 20
33.42152821947292
 30
0.0
  0
VERTEX
  5
4D4
330
4C9
100
AcDbEntity
  8
Visible (ANSI)
100
AcDbVertex
100
AcDb2dVertex
 10
138.1536572944207
 20
33.41895880103853
 30
0.0
  0
VERTEX
  5
4D5
330
4C9
100
AcDbEntity
  8
Visible (ANSI)
100
AcDbVertex
100
AcDb2dVertex
 10
138.1551114021775
 20
33.41676060729921
 30
0.0
  0
VERTEX
  5
4D6
330
4C9
100
AcDbEntity
  8
Visible (ANSI)
100
AcDbVertex
100
AcDb2dVertex
 10
138.1568281893379
 20
33.41494672655127
 30
0.0
  0
VERTEX
  5
4D7
330
4C9
100
AcDbEntity
  8
Visible (ANSI)
100
AcDbVertex
100
AcDb2dVertex
 10
138.1587939125448
 20
33.41352860686609
 30
0.0
  0
VERTEX
  5
4D8
330
4C9
100
AcDbEntity
  8
Visible (ANSI)
100
AcDbVertex
100
AcDb2dVertex
 10
138.1609916425375
 20
33.4125172335081
 30
0.0
  0
VERTEX
  5
4D9
330
4C9
100
AcDbEntity
  8
Visible (ANSI)
100
AcDbVertex
100
AcDb2dVertex
 10
138.1634098096742
 20
33.411918172901
 30
0.0
  0
VERTEX
  5
4DA
330
4C9
100
AcDbEntity
  8
Visible (ANSI)
100
AcDbVertex
100
AcDb2dVertex
 10
138.1660295391359
 20
33.41173889662246
 30
0.0
  0
VERTEX
  5
4DB
330
4C9
100
AcDbEntity
  8
Visible (ANSI)
100
AcDbVertex
100
AcDb2dVertex
 10
138.1688332192647
 20
33.41198385169851
 30
0.0
  0
VERTEX
  5
4DC
330
4C9
100
AcDbEntity
  8
Visible (ANSI)
100
AcDbVertex
100
AcDb2dVertex
 10
138.1718024543714
 20
33.41265567513226
 30
0.0
  0
VERTEX
  5
4DD
330
4C9
100
AcDbEntity
  8
Visible (ANSI)
100
AcDbVertex
100
AcDb2dVertex
 10
138.1749181331836
 20
33.41375517036942
 30
0.0
  0
VERTEX
  5
4DE
330
4C9
100
AcDbEntity
  8
Visible (ANSI)
100
AcDbVertex
100
AcDb2dVertex
 10
138.1781583961717
 20
33.41528253378517
 30
0.0
  0
VERTEX
  5
4DF
330
4C9
100
AcDbEntity
  8
Visible (ANSI)
100
AcDbVertex
100
AcDb2dVertex
 10
138.1815072132217
 20
33.41723246602533
 30
0.0
  0
VERTEX
  5
4E0
330
4C9
100
AcDbEntity
  8
Visible (ANSI)
100
AcDbVertex
100
AcDb2dVertex
 10
138.1849417268759
 20
33.41960152296198
 30
0.0
  0
VERTEX
  5
4E1
330
4C9
100
AcDbEntity
  8
Visible (ANSI)
100
AcDbVertex
100
AcDb2dVertex
 10
138.1884408359683
 20
33.42238324148493
 30
0.0
  0
VERTEX
  5
4E2
330
4C9
100
AcDbEntity
  8
Visible (ANSI)
100
AcDbVertex
100
AcDb2dVertex
 10
138.1919831629514
 20
33.42556939165583
 30
0.0
  0
VERTEX
  5
4E3
330
4C9
100
AcDbEntity
  8
Visible (ANSI)
100
AcDbVertex
100
AcDb2dVertex
 10
138.1955450217424
 20
33.42915123530584
 30
0.0
  0
SEQEND
  5
4CC
330
4C9
100
AcDbEntity
  8
Visible (ANSI)
  0
POLYLINE
  5
4E4
330
6C
100
AcDbEntity
  8
Visible (ANSI)
100
AcDb2dPolyline
 66
     1
 10
0.0
 20
0.0
 30
0.0
 70
   128
  0
VERTEX
  5
4E5
330
4E4
100
AcDbEntity
  8
Visible (ANSI)
100
AcDbVertex
100
AcDb2dVertex
 10
119.9646551381934
 20
43.89083607454636
 30
0.0
  0
VERTEX
  5
4E6
330
4E4
100
AcDbEntity
  8
Visible (ANSI)
100
AcDbVertex
100
AcDb2dVertex
 10
119.9621391289731
 20
43.89235284351665
 30
0.0
  0
VERTEX
  5
4E8
330
4E4
100
AcDbEntity
  8
Visible (ANSI)
100
AcDbVertex
100
AcDb2dVertex
 10
119.9596837348858
 20
43.89397041846083
 30
0.0
  0
VERTEX
  5
4E9
330
4E4
100
AcDbEntity
  8
Visible (ANSI)
100
AcDbVertex
100
AcDb2dVertex
 10
119.9572908102268
 20
43.89568751952043
 30
0.0
  0
VERTEX
  5
4EA
330
4E4
100
AcDbEntity
  8
Visible (ANSI)
100
AcDbVertex
100
AcDb2dVertex
 10
119.9549621180286
 20
43.89750276381081
 30
0.0
  0
VERTEX
  5
4EB
330
4E4
100
AcDbEntity
  8
Visible (ANSI)
100
AcDbVertex
100
AcDb2dVertex
 10
119.952699342506
 20
43.89941466550448
 30
0.0
  0
VERTEX
  5
4EC
330
4E4
100
AcDbEntity
  8
Visible (ANSI)
100
AcDbVertex
100
AcDb2dVertex
 10
119.9505041388352
 20
43.90142162384046
 30
0.0
  0
VERTEX
  5
4ED
330
4E4
100
AcDbEntity
  8
Visible (ANSI)
100
AcDbVertex
100
AcDb2dVertex
 10
119.9483780418917
 20
43.90352194944807
 30
0.0
  0
VERTEX
  5
4EE
330
4E4
100
AcDbEntity
  8
Visible (ANSI)
100
AcDbVertex
100
AcDb2dVertex
 10
119.9463225533644
 20
43.90571384046758
 30
0.0
  0
VERTEX
  5
4EF
330
4E4
100
AcDbEntity
  8
Visible (ANSI)
100
AcDbVertex
100
AcDb2dVertex
 10
119.9443390629378
 20
43.9079954136053
 30
0.0
  0
VERTEX
  5
4F0
330
4E4
100
AcDbEntity
  8
Visible (ANSI)
100
AcDbVertex
100
AcDb2dVertex
 10
119.9424289146649
 20
43.91036466111577
 30
0.0
  0
VERTEX
  5
4F1
330
4E4
100
AcDbEntity
  8
Visible (ANSI)
100
AcDbVertex
100
AcDb2dVertex
 10
119.940593348891
 20
43.91281950103238
 30
0.0
  0
VERTEX
  5
4F2
330
4E4
100
AcDbEntity
  8
Visible (ANSI)
100
AcDbVertex
100
AcDb2dVertex
 10
119.9388335312916
 20
43.91535777001942
 30
0.0
  0
VERTEX
  5
4F3
330
4E4
100
AcDbEntity
  8
Visible (ANSI)
100
AcDbVertex
100
AcDb2dVertex
 10
119.9371505611695
 20
43.91797718509482
 30
0.0
  0
VERTEX
  5
4F4
330
4E4
100
AcDbEntity
  8
Visible (ANSI)
100
AcDbVertex
100
AcDb2dVertex
 10
119.9355454299711
 20
43.92067540101823
 30
0.0
  0
VERTEX
  5
4F5
330
4E4
100
AcDbEntity
  8
Visible (ANSI)
100
AcDbVertex
100
AcDb2dVertex
 10
119.9340190793633
 20
43.9234499672916
 30
0.0
  0
VERTEX
  5
4F6
330
4E4
100
AcDbEntity
  8
Visible (ANSI)
100
AcDbVertex
100
AcDb2dVertex
 10
119.9325723265635
 20
43.92629837599181
 30
0.0
  0
VERTEX
  5
4F7
330
4E4
100
AcDbEntity
  8
Visible (ANSI)
100
AcDbVertex
100
AcDb2dVertex
 10
119.9312059390094
 20
43.92921801393808
 30
0.0
  0
VERTEX
  5
4F8
330
4E4
100
AcDbEntity
  8
Visible (ANSI)
100
AcDbVertex
100
AcDb2dVertex
 10
119.9299205721342
 20
43.93220620333949
 30
0.0
  0
VERTEX
  5
4F9
330
4E4
100
AcDbEntity
  8
Visible (ANSI)
100
AcDbVertex
100
AcDb2dVertex
 10
119.9287167984051
 20
43.93526020423936
 30
0.0
  0
VERTEX
  5
4FA
330
4E4
100
AcDbEntity
  8
Visible (ANSI)
100
AcDbVertex
100
AcDb2dVertex
 10
119.9275951239159
 20
43.93837718581205
 30
0.0
  0
VERTEX
  5
4FB
330
4E4
100
AcDbEntity
  8
Visible (ANSI)
100
AcDbVertex
100
AcDb2dVertex
 10
119.9265559303116
 20
43.9415542598068
 30
0.0
  0
VERTEX
  5
4FC
330
4E4
100
AcDbEntity
  8
Visible (ANSI)
100
AcDbVertex
100
AcDb2dVertex
 10
119.9255995494569
 20
43.94478846149251
 30
0.0
  0
VERTEX
  5
4FD
330
4E4
100
AcDbEntity
  8
Visible (ANSI)
100
AcDbVertex
100
AcDb2dVertex
 10
119.9247261887675
 20
43.94807679269415
 30
0.0
  0
VERTEX
  5
4FE
330
4E4
100
AcDbEntity
  8
Visible (ANSI)
100
AcDbVertex
100
AcDb2dVertex
 10
119.9239359975825
 20
43.95141616438617
 30
0.0
  0
SEQEND
  5
4E7
330
4E4
100
AcDbEntity
  8
Visible (ANSI)
  0
LINE
  5
4FF
330
6C
100
AcDbEntity
  8
Visible (ANSI)
100
AcDbLine
 10
120.4171605460186
 20
44.18140902846931
 30
0.0
 11
120.5784985637874
 21
44.27431741381527
 31
0.0
  0
LINE
  5
500
330
6C
100
AcDbEntity
  8
Visible (ANSI)
100
AcDbLine
 10
138.1955460461525
 20
33.45032699981351
 30
0.0
 11
138.1955460461525
 21
33.42915064480032
 31
0.0
  0
LINE
  5
501
330
6C
100
AcDbEntity
  8
Visible (ANSI)
100
AcDbLine
 10
138.1955460461525
 20
33.42915064480032
 30
0.0
 11
138.2525951745066
 21
33.46200305289407
 31
0.0
  0
LINE
  5
502
330
6C
100
AcDbEntity
  8
Visible (ANSI)
100
AcDbLine
 10
138.3071659143035
 20
33.49342825193753
 30
0.0
 11
138.7369423531678
 21
33.74092004306547
 31
0.0
  0
LINE
  5
503
330
6C
100
AcDbEntity
  8
Visible (ANSI)
100
AcDbLine
 10
138.7369423531678
 20
33.74142508483308
 30
0.0
 11
138.7369423531678
 21
33.74092004306547
 31
0.0
  0
POLYLINE
  5
504
330
6C
100
AcDbEntity
  8
Visible (ANSI)
100
AcDb2dPolyline
 66
     1
 10
0.0
 20
0.0
 30
0.0
 70
   128
  0
VERTEX
  5
505
330
504
100
AcDbEntity
  8
Visible (ANSI)
100
AcDbVertex
100
AcDb2dVertex
 10
138.2367015432442
 20
58.52663050779489
 30
0.0
  0
VERTEX
  5
506
330
504
100
AcDbEntity
  8
Visible (ANSI)
100
AcDbVertex
100
AcDb2dVertex
 10
138.2403141887802
 20
58.52174033513199
 30
0.0
  0
VERTEX
  5
508
330
504
100
AcDbEntity
  8
Visible (ANSI)
100
AcDbVertex
100
AcDb2dVertex
 10
138.244585348749
 20
58.51735169451012
 30
0.0
  0
VERTEX
  5
509
330
504
100
AcDbEntity
  8
Visible (ANSI)
100
AcDbVertex
100
AcDb2dVertex
 10
138.2493309495897
 20
58.51352978962855
 30
0.0
  0
VERTEX
  5
50A
330
504
100
AcDbEntity
  8
Visible (ANSI)
100
AcDbVertex
100
AcDb2dVertex
 10
138.2542973303287
 20
58.51033163719282
 30
0.0
  0
SEQEND
  5
507
330
504
100
AcDbEntity
  8
Visible (ANSI)
  0
POLYLINE
  5
50B
330
6C
100
AcDbEntity
  8
Visible (ANSI)
100
AcDb2dPolyline
 66
     1
 10
0.0
 20
0.0
 30
0.0
 70
   128
  0
VERTEX
  5
50C
330
50B
100
AcDbEntity
  8
Visible (ANSI)
100
AcDbVertex
100
AcDb2dVertex
 10
138.1955450217425
 20
58.61199031389019
 30
0.0
  0
VERTEX
  5
50D
330
50B
100
AcDbEntity
  8
Visible (ANSI)
100
AcDbVertex
100
AcDb2dVertex
 10
138.1958392666882
 20
58.60610787745446
 30
0.0
  0
VERTEX
  5
50F
330
50B
100
AcDbEntity
  8
Visible (ANSI)
100
AcDbVertex
100
AcDb2dVertex
 10
138.1967773794145
 20
58.60012717828548
 30
0.0
  0
VERTEX
  5
510
330
50B
100
AcDbEntity
  8
Visible (ANSI)
100
AcDbVertex
100
AcDb2dVertex
 10
138.1984418413248
 20
58.59425044012847
 30
0.0
  0
VERTEX
  5
511
330
50B
100
AcDbEntity
  8
Visible (ANSI)
100
AcDbVertex
100
AcDb2dVertex
 10
138.2008597294875
 20
58.58871177191638
 30
0.0
  0
SEQEND
  5
50E
330
50B
100
AcDbEntity
  8
Visible (ANSI)
  0
LINE
  5
512
330
6C
100
AcDbEntity
  8
Visible (ANSI)
100
AcDbLine
 10
138.8501086139042
 20
58.79076587023019
 30
0.0
 11
138.8501086139042
 21
33.80659320023483
 31
0.0
  0
LINE
  5
513
330
6C
100
AcDbEntity
  8
Visible (ANSI)
100
AcDbLine
 10
120.5784985637875
 20
69.44352758599892
 30
0.0
 11
138.7369423531679
 21
58.98677525820314
 31
0.0
  0
LINE
  5
514
330
6C
100
AcDbEntity
  8
Visible (ANSI)
100
AcDbLine
 10
120.5316235637874
 20
44.35550716066605
 30
0.0
 11
120.5316235637874
 21
44.44442881455105
 31
0.0
  0
LINE
  5
515
330
6C
100
AcDbEntity
  8
Visible (ANSI)
100
AcDbLine
 10
120.5316235637875
 20
67.88878455055166
 30
0.0
 11
120.5316235637875
 21
68.25957656121417
 31
0.0
  0
LINE
  5
516
330
6C
100
AcDbEntity
  8
Visible (ANSI)
100
AcDbLine
 10
137.8011857443743
 20
34.35643147846743
 30
0.0
 11
137.4799238704507
 21
34.54143388764676
 31
0.0
  0
LINE
  5
517
330
6C
100
AcDbEntity
  8
Visible (ANSI)
100
AcDbLine
 10
120.653846300598
 20
44.23092753793016
 30
0.0
 11
120.5784985637874
 21
44.27431741381527
 31
0.0
  0
SPLINE
  5
518
330
6C
100
AcDbEntity
  8
Visible (ANSI)
100
AcDbSpline
210
0.0
220
0.0
230
1.0
 70
     8
 71
     3
 72
    11
 73
     7
 74
     0
 42
0.0000000001
 43
0.0000000001
 40
0.0
 40
0.0
 40
0.0
 40
0.0
 40
1.084645898258808
 40
1.084645898258808
 40
1.084645898258808
 40
1.57079632679447
 40
1.57079632679447
 40
1.57079632679447
 40
1.57079632679447
 10
55.02291030154112
 20
90.60703711481369
 30
0.0
 10
55.06244564453265
 20
90.60703711481369
 30
0.0
 10
55.10111886201362
 20
90.63034127287883
 30
0.0
 10
55.11959079450916
 20
90.66529597292531
 30
0.0
 10
55.12787012135029
 20
90.68096306062113
 30
0.0
 10
55.13226030154111
 20
90.6986669316935
 30
0.0
 10
55.13226030154111
 20
90.71638711481361
 30
0.0
  0
LINE
  5
519
330
6C
100
AcDbEntity
  8
Visible (ANSI)
100
AcDbLine
 10
55.0385103015411
 20
90.71638711481364
 30
0.0
 11
55.03851030154115
 21
91.48203711481365
 31
0.0
  0
LINE
  5
51A
330
6C
100
AcDbEntity
  8
Visible (ANSI)
100
AcDbLine
 10
55.0385103015411
 20
90.71638711481364
 30
0.0
 11
55.13226030154111
 21
90.71638711481364
 31
0.0
  0
SPLINE
  5
51B
330
6C
100
AcDbEntity
  8
Visible (ANSI)
100
AcDbSpline
210
0.0
220
0.0
230
1.0
 70
     8
 71
     3
 72
     8
 73
     4
 74
     0
 42
0.0000000001
 43
0.0000000001
 40
0.0
 40
0.0
 40
0.0
 40
0.0
 40
1.57079632679447
 40
1.57079632679447
 40
1.57079632679447
 40
1.57079632679447
 10
55.02291030154112
 20
90.7007871148137
 30
0.0
 10
55.03107844244045
 20
90.70078711481368
 30
0.0
 10
55.03851030154112
 20
90.70821897391434
 30
0.0
 10
55.03851030154112
 20
90.71638711481366
 30
0.0
  0
LINE
  5
51C
330
6C
100
AcDbEntity
  8
Visible (ANSI)
100
AcDbLine
 10
55.02291030154111
 20
90.7007871148137
 30
0.0
 11
55.02291030154112
 21
90.68411605594276
 31
0.0
  0
LINE
  5
51D
330
6C
100
AcDbEntity
  8
Visible (ANSI)
100
AcDbLine
 10
55.02291030154112
 20
90.68411605594276
 30
0.0
 11
55.02291030154111
 21
90.60703711481369
 31
0.0
  0
LINE
  5
51E
330
6C
100
AcDbEntity
  8
Visible (ANSI)
100
AcDbLine
 10
55.13226030154111
 20
90.71638711481364
 30
0.0
 11
55.13226030154115
 21
91.48203711481363
 31
0.0
  0
LINE
  5
51F
330
6C
100
AcDbEntity
  8
Visible (ANSI)
100
AcDbLine
 10
55.03851030154115
 20
91.48203711481365
 30
0.0
 11
55.13226030154115
 21
91.48203711481363
 31
0.0
  0
SPLINE
  5
520
330
6C
100
AcDbEntity
  8
Visible (ANSI)
100
AcDbSpline
210
0.0
220
0.0
230
1.0
 70
     8
 71
     3
 72
    11
 73
     7
 74
     0
 42
0.0000000001
 43
0.0000000001
 40
0.0
 40
0.0
 40
0.0
 40
0.0
 40
1.084645898258662
 40
1.084645898258662
 40
1.084645898258662
 40
1.570796326794961
 40
1.570796326794961
 40
1.570796326794961
 40
1.570796326794961
 10
29.24161030154111
 20
90.60703711481369
 30
0.0
 10
29.25327785875338
 20
90.60703711481371
 30
0.0
 10
29.26494541596565
 20
90.63034127287886
 30
0.0
 10
29.27661297317792
 20
90.66529597292534
 30
0.0
 10
29.28184250287773
 20
90.68096306062118
 30
0.0
 10
29.28707203257753
 20
90.69866693169357
 30
0.0
 10
29.29230156227734
 20
90.71638711481373
 30
0.0
  0
SPLINE
  5
521
330
6C
100
AcDbEntity
  8
Visible (ANSI)
100
AcDbSpline
210
0.0
220
0.0
230
1.0
 70
     8
 71
     3
 72
    11
 73
     7
 74
     0
 42
0.0000000001
 43
0.0000000001
 40
0.0
 40
0.0
 40
0.0
 40
0.0
 40
1.084645898259341
 40
1.084645898259341
 40
1.084645898259341
 40
1.570796326795329
 40
1.570796326795329
 40
1.570796326795329
 40
1.570796326795329
 10
54.97221904080487
 20
90.71638711481375
 30
0.0
 10
54.98388659801715
 20
90.6768517718222
 30
0.0
 10
54.99555415522944
 20
90.6381785543412
 30
0.0
 10
55.0072217124417
 20
90.61970662184565
 30
0.0
 10
55.0124512421415
 20
90.61142729500451
 30
0.0
 10
55.01768077184131
 20
90.60703711481368
 30
0.0
 10
55.02291030154111
 20
90.60703711481368
 30
0.0
  0
LINE
  5
522
330
6C
100
AcDbEntity
  8
Visible (ANSI)
100
AcDbLine
 10
54.97221904080487
 20
91.48203711481372
 30
0.0
 11
54.97221904080487
 21
90.71638711481371
 31
0.0
  0
SPLINE
  5
523
330
6C
100
AcDbEntity
  8
Visible (ANSI)
100
AcDbSpline
210
0.0
220
0.0
230
1.0
 70
     8
 71
     3
 72
     8
 73
     4
 74
     0
 42
0.0000000001
 43
0.0000000001
 40
0.0
 40
0.0
 40
0.0
 40
0.0
 40
1.570796326795329
 40
1.570796326795329
 40
1.570796326795329
 40
1.570796326795329
 10
55.02291030154111
 20
90.7007871148137
 30
0.0
 10
55.00601321462903
 20
90.7007871148137
 30
0.0
 10
54.98911612771696
 20
90.70821897391438
 30
0.0
 10
54.97221904080487
 20
90.71638711481369
 30
0.0
  0
SPLINE
  5
524
330
6C
100
AcDbEntity
  8
Visible (ANSI)
100
AcDbSpline
210
0.0
220
0.0
230
1.0
 70
     8
 71
     3
 72
     8
 73
     4
 74
     0
 42
0.0000000001
 43
0.0000000001
 40
0.0
 40
0.0
 40
0.0
 40
0.0
 40
1.570796326794961
 40
1.570796326794961
 40
1.570796326794961
 40
1.570796326794961
 10
29.24161030154111
 20
90.7007871148137
 30
0.0
 10
29.25850738845319
 20
90.7007871148137
 30
0.0
 10
29.27540447536527
 20
90.70821897391436
 30
0.0
 10
29.29230156227734
 20
90.71638711481368
 30
0.0
  0
LINE
  5
525
330
6C
100
AcDbEntity
  8
Visible (ANSI)
100
AcDbLine
 10
29.24161030154111
 20
90.7007871148137
 30
0.0
 11
29.24161030154111
 21
90.68411605594276
 31
0.0
  0
LINE
  5
526
330
6C
100
AcDbEntity
  8
Visible (ANSI)
100
AcDbLine
 10
29.24161030154111
 20
90.68411605594276
 30
0.0
 11
29.24161030154111
 21
90.60703711481369
 31
0.0
  0
LINE
  5
527
330
6C
100
AcDbEntity
  8
Visible (ANSI)
100
AcDbLine
 10
29.29230156227734
 20
90.71638711481369
 30
0.0
 11
29.29230156227735
 21
91.4820371148137
 31
0.0
  0
SPLINE
  5
528
330
6C
100
AcDbEntity
  8
Visible (ANSI)
100
AcDbSpline
210
0.0
220
0.0
230
1.0
 70
     8
 71
     3
 72
    11
 73
     7
 74
     0
 42
0.0000000001
 43
0.0000000001
 40
0.0
 40
0.0
 40
0.0
 40
0.0
 40
1.084645898258926
 40
1.084645898258926
 40
1.084645898258926
 40
1.570796326794936
 40
1.570796326794936
 40
1.570796326794936
 40
1.570796326794936
 10
29.13226030154111
 20
90.71638711481368
 30
0.0
 10
29.13226030154111
 20
90.67685177182212
 30
0.0
 10
29.15556445960627
 20
90.63817855434116
 30
0.0
 10
29.19051915965275
 20
90.61970662184565
 30
0.0
 10
29.20618624734858
 20
90.61142729500451
 30
0.0
 10
29.22389011842097
 20
90.60703711481369
 30
0.0
 10
29.24161030154111
 20
90.60703711481369
 30
0.0
  0
LINE
  5
529
330
6C
100
AcDbEntity
  8
Visible (ANSI)
100
AcDbLine
 10
29.2260103015411
 20
90.71638711481368
 30
0.0
 11
29.2260103015411
 21
91.48203711481366
 31
0.0
  0
LINE
  5
52A
330
6C
100
AcDbEntity
  8
Visible (ANSI)
100
AcDbLine
 10
29.13226030154111
 20
91.48203711481366
 30
0.0
 11
29.13226030154111
 21
90.71638711481368
 31
0.0
  0
LINE
  5
52B
330
6C
100
AcDbEntity
  8
Visible (ANSI)
100
AcDbLine
 10
29.2260103015411
 20
90.71638711481368
 30
0.0
 11
29.13226030154111
 21
90.71638711481368
 31
0.0
  0
LINE
  5
52C
330
6C
100
AcDbEntity
  8
Visible (ANSI)
100
AcDbLine
 10
29.2260103015411
 20
91.48203711481366
 30
0.0
 11
29.13226030154111
 21
91.48203711481366
 31
0.0
  0
SPLINE
  5
52D
330
6C
100
AcDbEntity
  8
Visible (ANSI)
100
AcDbSpline
210
0.0
220
0.0
230
1.0
 70
     8
 71
     3
 72
     8
 73
     4
 74
     0
 42
0.0000000001
 43
0.0000000001
 40
0.0
 40
0.0
 40
0.0
 40
0.0
 40
1.570796326794936
 40
1.570796326794936
 40
1.570796326794936
 40
1.570796326794936
 10
29.24161030154111
 20
90.7007871148137
 30
0.0
 10
29.23344216064178
 20
90.70078711481368
 30
0.0
 10
29.2260103015411
 20
90.70821897391434
 30
0.0
 10
29.2260103015411
 20
90.71638711481368
 30
0.0
  0
LINE
  5
52E
330
6C
100
AcDbEntity
  8
Visible (ANSI)
100
AcDbLine
 10
55.02291030154111
 20
90.60703711481369
 30
0.0
 11
29.24161030154111
 21
90.60703711481369
 31
0.0
  0
LINE
  5
52F
330
6C
100
AcDbEntity
  8
Hidden (ANSI)
 48
1.133891940116882
100
AcDbLine
 10
29.24161030154111
 20
90.7007871148137
 30
0.0
 11
55.02291030154111
 21
90.7007871148137
 31
0.0
  0
LINE
  5
530
330
6C
100
AcDbEntity
  8
Visible (ANSI)
100
AcDbLine
 10
29.29230156227735
 20
91.4820371148137
 30
0.0
 11
54.97221904080487
 21
91.48203711481372
 31
0.0
  0
LINE
  5
531
330
6C
100
AcDbEntity
  8
Hidden (ANSI)
 48
0.0177565310150385
100
AcDbLine
 10
54.53876030154113
 20
90.70078711481347
 30
0.0
 11
54.53876030154113
 21
90.60703711481346
 31
0.0
  0
LINE
  5
532
330
6C
100
AcDbEntity
  8
Hidden (ANSI)
 48
0.0177565310150385
100
AcDbLine
 10
53.97576030154111
 20
90.70078711481347
 30
0.0
 11
53.97576030154111
 21
90.60703711481346
 31
0.0
  0
LINE
  5
533
330
6C
100
AcDbEntity
  8
Hidden (ANSI)
 48
0.0177565310150385
100
AcDbLine
 10
30.28876030154111
 20
90.70078711481347
 30
0.0
 11
30.28876030154111
 21
90.60703711481346
 31
0.0
  0
LINE
  5
534
330
6C
100
AcDbEntity
  8
Hidden (ANSI)
 48
0.0177565310150385
100
AcDbLine
 10
29.72576030154111
 20
90.70078711481347
 30
0.0
 11
29.72576030154111
 21
90.60703711481346
 31
0.0
  0
MTEXT
  5
535
330
6C
100
AcDbEntity
  8
Symbol (ANSI)
100
AcDbMText
 10
38.22303308312982
 20
85.0536763872696
 30
0.0
 40
1.200000014830761
 41
0.0
 46
0.0
 71
     7
 72
     1
  1
TOP VIEW
  7
Text Style153
 73
     1
 44
1.0
  0
LINE
  5
536
330
6C
100
AcDbEntity
  8
Symbol (ANSI)
370
    30
100
AcDbLine
 10
38.22399308559928
 20
84.8089600135207
 30
0.0
 11
45.7954678592766
 21
84.8089600135207
 31
0.0
  0
LINE
  5
537
330
6C
100
AcDbEntity
  8
Center Mark (ANSI)
  6
CHAIN
 48
0.170057401061058
100
AcDbLine
 10
30.00726030152918
 20
67.51054949452234
 30
0.0
 11
30.00726030152918
 21
64.44754949452233
 31
0.0
  0
LINE
  5
538
330
6C
100
AcDbEntity
  8
Center Mark (ANSI)
  6
CHAIN
 48
0.170057401061058
100
AcDbLine
 10
54.25726030152919
 20
67.51054949452234
 30
0.0
 11
54.25726030152919
 21
64.44754949452233
 31
0.0
  0
LINE
  5
539
330
6C
100
AcDbEntity
  8
Centerline (ANSI)
  6
CHAIN
 48
0.9524481296539306
100
AcDbLine
 10
28.47576030152918
 20
65.97904949452233
 30
0.0
 11
55.78876030152919
 21
65.97904949452233
 31
0.0
  0
LINE
  5
53A
330
6C
100
AcDbEntity
  8
Center Mark (ANSI)
  6
CHAIN
 48
0.170057401061058
100
AcDbLine
 10
55.78876030152919
 20
65.97904949452233
 30
0.0
 11
52.72576030152919
 21
65.97904949452233
 31
0.0
  0
LINE
  5
53B
330
6C
100
AcDbEntity
  8
Center Mark (ANSI)
  6
CHAIN
 48
0.170057401061058
100
AcDbLine
 10
55.78876030152919
 20
36.84904949452234
 30
0.0
 11
52.72576030152919
 21
36.84904949452234
 31
0.0
  0
LINE
  5
53C
330
6C
100
AcDbEntity
  8
Centerline (ANSI)
  6
CHAIN
 48
0.9524481296539306
100
AcDbLine
 10
54.25726030152919
 20
67.51054949452234
 30
0.0
 11
54.25726030152919
 21
35.31754949452234
 31
0.0
  0
LINE
  5
53D
330
6C
100
AcDbEntity
  8
Center Mark (ANSI)
  6
CHAIN
 48
0.170057401061058
100
AcDbLine
 10
54.25726030152919
 20
35.31754949452234
 30
0.0
 11
54.25726030152919
 21
38.38054949452234
 31
0.0
  0
LINE
  5
53E
330
6C
100
AcDbEntity
  8
Center Mark (ANSI)
  6
CHAIN
 48
0.170057401061058
100
AcDbLine
 10
30.00726030152916
 20
35.31754949452234
 30
0.0
 11
30.00726030152916
 21
38.38054949452234
 31
0.0
  0
LINE
  5
53F
330
6C
100
AcDbEntity
  8
Centerline (ANSI)
  6
CHAIN
 48
0.9524481296539306
100
AcDbLine
 10
55.78876030152919
 20
36.84904949452234
 30
0.0
 11
28.47576030152916
 21
36.84904949452234
 31
0.0
  0
LINE
  5
540
330
6C
100
AcDbEntity
  8
Center Mark (ANSI)
  6
CHAIN
 48
0.170057401061058
100
AcDbLine
 10
28.47576030152916
 20
36.84904949452234
 30
0.0
 11
31.53876030152916
 21
36.84904949452234
 31
0.0
  0
LINE
  5
541
330
6C
100
AcDbEntity
  8
Center Mark (ANSI)
  6
CHAIN
 48
0.170057401061058
100
AcDbLine
 10
28.47576030152918
 20
65.97904949452233
 30
0.0
 11
31.53876030152918
 21
65.97904949452233
 31
0.0
  0
LINE
  5
542
330
6C
100
AcDbEntity
  8
Centerline (ANSI)
  6
CHAIN
 48
0.9524481296539306
100
AcDbLine
 10
30.00726030152916
 20
35.31754949452234
 30
0.0
 11
30.00726030152918
 21
67.51054949452234
 31
0.0
  0
DIMENSION
  5
543
330
6C
100
AcDbEntity
  8
Dimension (ANSI)
100
AcDbDimension
280
     0
  2
*D4
 10
55.13226030152917
 20
75.35542555662072
 30
0.0
 11
42.13226030152917
 21
75.35542555662072
 31
0.0
 70
   160
  1
<>
 42
26.0
 73
     0
 74
     0
 75
     0
  3
Default (ANSI)
100
AcDbAlignedDimension
 13
29.13226030152918
 23
66.69400823378609
 33
0.0
 14
55.13226030152917
 24
66.69400823378611
 34
0.0
100
AcDbRotatedDimension
1001
ACAD
1000
DSTYLE
1002
{
1070
   289
1070
     1
1070
    73
1070
     0
1070
    74
1070
     0
1070
   271
1070
     2
1070
   272
1070
     2
1070
    48
1040
0.0
1070
    47
1040
0.0
1002
}
  0
DIMENSION
  5
62F
330
6C
100
AcDbEntity
  8
Dimension (ANSI)
100
AcDbDimension
280
     0
  2
*D5
 10
30.00726030152918
 20
71.44755736853809
 30
0.0
 11
24.80215408349904
 21
71.44755736853809
 31
0.0
 70
   160
  1
<>
 42
0.8749999999999964
 73
     0
 74
     0
 75
     0
  3
Default (ANSI)
100
AcDbAlignedDimension
 13
29.13226030152918
 23
66.69400823378609
 33
0.0
 14
30.00726030152918
 24
67.51054949452234
 34
0.0
100
AcDbRotatedDimension
1001
ACAD
1000
DSTYLE
1002
{
1070
   289
1070
     1
1070
    73
1070
     0
1070
    74
1070
     0
1070
   271
1070
     2
1070
   272
1070
     2
1070
    48
1040
0.0
1070
    47
1040
0.0
1002
}
  0
DIMENSION
  5
719
330
6C
100
AcDbEntity
  8
Dimension (ANSI)
100
AcDbDimension
280
     0
  2
*D6
 10
54.25726030152919
 20
71.44755736853809
 30
0.0
 11
42.13226030152917
 21
71.44755736853809
 31
0.0
 70
   160
  1
<>
 42
24.25000000000001
 73
     0
 74
     0
 75
     0
  3
Default (ANSI)
100
AcDbAlignedDimension
 13
30.00726030152918
 23
67.51054949452234
 33
0.0
 14
54.25726030152919
 24
67.51054949452234
 34
0.0
 50
180.0
100
AcDbRotatedDimension
1001
ACAD
1000
DSTYLE
1002
{
1070
   289
1070
     1
1070
    73
1070
     0
1070
    74
1070
     0
1070
   271
1070
     2
1070
   272
1070
     2
1070
    48
1040
0.0
1070
    47
1040
0.0
1002
}
  0
DIMENSION
  5
803
330
6C
100
AcDbEntity
  8
Dimension (ANSI)
100
AcDbDimension
280
     0
  2
*D7
 10
27.37604430264304
 20
36.84904949452234
 30
0.0
 11
24.53875242751342
 21
33.10407283570093
 31
0.0
 70
   160
  1
<>
 42
0.875
 73
     0
 74
     0
 75
     0
  3
Default (ANSI)
100
AcDbAlignedDimension
 13
29.29230156226543
 23
35.97404949452233
 33
0.0
 14
28.47576030152916
 24
36.84904949452234
 34
0.0
 50
90.0
100
AcDbRotatedDimension
1001
ACAD
1000
DSTYLE
1002
{
1070
   289
1070
     1
1070
   271
1070
     2
1070
   272
1070
     2
1070
    48
1040
0.0
1070
    47
1040
0.0
1002
}
  0
DIMENSION
  5
903
330
6C
100
AcDbEntity
  8
Dimension (ANSI)
100
AcDbDimension
280
     0
  2
*D8
 10
24.53875242751344
 20
65.97904949452233
 30
0.0
 11
24.53875242751343
 21
51.41404949452233
 31
0.0
 70
   160
  1
<>
 42
29.12999999999999
 73
     0
 74
     0
 75
     0
  3
Default (ANSI)
100
AcDbAlignedDimension
 13
28.47576030152916
 23
36.84904949452234
 33
0.0
 14
28.47576030152918
 24
65.97904949452233
 34
0.0
 50
90.0
100
AcDbRotatedDimension
1001
ACAD
1000
DSTYLE
1002
{
1070
   289
1070
     1
1070
   271
1070
     2
1070
   272
1070
     2
1070
    48
1040
0.0
1070
    47
1040
0.0
1002
}
  0
DIMENSION
  5
9ED
330
6C
100
AcDbEntity
  8
Dimension (ANSI)
100
AcDbDimension
280
     0
  2
*D9
 10
18.26867951502134
 20
66.85404949452233
 30
0.0
 11
18.26867951502133
 21
51.41404949452233
 31
0.0
 70
   160
  1
<>
 42
30.87999999999999
 73
     0
 74
     0
 75
     0
  3
Default (ANSI)
100
AcDbAlignedDimension
 13
29.29230156226543
 23
35.97404949452233
 33
0.0
 14
29.29230156226541
 24
66.85404949452233
 34
0.0
 50
90.0
100
AcDbRotatedDimension
1001
ACAD
1000
DSTYLE
1002
{
1070
   289
1070
     1
1070
   271
1070
     2
1070
   272
1070
     2
1070
    48
1040
0.0
1070
    47
1040
0.0
1002
}
  0
DIMENSION
  5
AD7
330
6C
100
AcDbEntity
  8
Dimension (ANSI)
100
AcDbDimension
280
     0
  2
*D10
 10
54.08525042471623
 20
37.0718831820087
 30
0.0
 11
60.78258217010737
 21
33.86172912437408
 31
0.0
 70
   163
  1
<>{\P(4 PL.)}
 71
     4
 42
0.5629999999999999
 73
     0
 74
     0
 75
     0
  3
Default (ANSI)
100
AcDbDiametricDimension
 15
54.42927017834219
 25
36.62621580703596
 35
0.0
 40
0.0
1001
ACAD
1000
DSTYLE
1002
{
1070
   144
1040
1.000000000000058
1070
   271
1070
     3
1070
   272
1070
     3
1070
    48
1040
0.0
1070
    47
1040
0.0
1002
}
1001
ACAD_DSTYLE_DIMRADIAL_EXTENSION
1070
   387
1070
     1
1070
   388
1040
0.0
1070
   390
1040
0.0
  0
DIMENSION
  5
B91
330
6C
100
AcDbEntity
  8
Dimension (ANSI)
100
AcDbDimension
280
     0
  2
*D11
 10
49.00768224907979
 20
90.60703711481369
 30
0.0
 11
51.89211986117107
 21
95.70201379031971
 31
0.0
 70
   160
  1
<>{\PTYP.}
 71
     5
 42
0.8750000000000142
 73
     0
 74
     0
 75
     0
  3
Default (ANSI)
100
AcDbAlignedDimension
 13
51.89211986117107
 23
91.4820371148137
 33
0.0
 14
51.89588169099501
 24
90.60703711481369
 34
0.0
 50
270.0
100
AcDbRotatedDimension
1001
ACAD
1000
DSTYLE
1002
{
1070
   289
1070
     1
1070
   271
1070
     2
1070
    76
1070
     1
1070
    75
1070
     1
1070
   272
1070
     2
1070
    48
1040
0.0
1070
    47
1040
0.0
1002
}
  0
DIMENSION
  5
C9A
330
6C
100
AcDbEntity
  8
Dimension (ANSI)
100
AcDbDimension
280
     0
  2
*D12
 10
84.07065119766015
 20
65.2527392089788
 30
0.0
 11
89.36838303367125
 21
65.2527392089788
 31
0.0
 70
   160
  1
<>{\PTYP.}
 71
     4
 42
0.8750000000000142
 73
     0
 74
     0
 75
     0
  3
Default (ANSI)
100
AcDbAlignedDimension
 13
84.94565119766017
 23
65.2527392089788
 33
0.0
 14
84.07065119766015
 24
65.27827067780996
 34
0.0
 50
180.0
100
AcDbRotatedDimension
1001
ACAD
1000
DSTYLE
1002
{
1070
   289
1070
     1
1070
    73
1070
     0
1070
    74
1070
     0
1070
   271
1070
     2
1070
    76
1070
     1
1070
    75
1070
     1
1070
   272
1070
     2
1070
    48
1040
0.0
1070
    47
1040
0.0
1002
}
  0
MTEXT
  5
D89
102
{ACAD_XDICTIONARY
360
D90
102
}
330
6C
100
AcDbEntity
  8
Symbol (ANSI)
100
AcDbMText
 10
89.59659135463386
 20
12.20716423075961
 30
0.0
 40
1.000000031914297
 41
73.83387107548755
 46
0.0
 71
     4
 72
     1
  3
{\fRomanS|b0|i0|c0|p2;\H2x;PART#: WA72P30F2G\P(DATA SUBJECT TO CHANGE WITHOUT NOTICE)\H1.6157x; \H0.61894x;\P \H1.352x; \H0.73963x;\P\H0.6x;THIS DRAWING IS PROPERTY OF HUBBELL INC. WIEGMANN\H1.5633x; \H0.63966x;\PALL INFORMATION IS PROPRIETARY AND NO
  1
T TO BE DUPLICATED\H1.234x; \H0.81039x;\P\H1.2571x; }
  7
Note Text (ANSI)
 73
     1
 44
0.8026435375213623
  0
ENDSEC
  0
SECTION
  2
OBJECTS
  0
DICTIONARY
  5
C
330
0
100
AcDbDictionary
281
     1
  3
ACAD_CIP_PREVIOUS_PRODUCT_INFO
350
D8B
  3
ACAD_COLOR
350
63
  3
ACAD_GROUP
350
D
  3
ACAD_LAYOUT
350
62
  3
ACAD_MATERIAL
350
10
  3
ACAD_MLEADERSTYLE
350
66
  3
ACAD_MLINESTYLE
350
5F
  3
ACAD_PLOTSETTINGS
350
61
  3
ACAD_PLOTSTYLENAME
350
E
  3
ACAD_SCALELIST
350
42
  3
ACAD_TABLESTYLE
350
64
  3
ACAD_VISUALSTYLE
350
29
  3
ACDB_RECOMPOSE_DATA
350
D92
  3
AcDbVariableDictionary
350
76
  0
DICTIONARY
  5
D90
330
D89
100
AcDbDictionary
280
     1
281
     1
  3
ACAD_MTEXT_2008_RT
360
D91
  0
XRECORD
  5
D8B
102
{ACAD_REACTORS
330
C
102
}
330
C
100
AcDbXrecord
280
     1
300
INVNTOR
300
2012
300
PDSP_F_S
  0
DICTIONARY
  5
63
102
{ACAD_REACTORS
330
C
102
}
330
C
100
AcDbDictionary
281
     1
  0
DICTIONARY
  5
D
102
{ACAD_REACTORS
330
C
102
}
330
C
100
AcDbDictionary
281
     1
  0
DICTIONARY
  5
62
102
{ACAD_REACTORS
330
C
102
}
330
C
100
AcDbDictionary
281
     1
  3
Layout1
350
6B
  3
Layout2
350
73
  3
Model
350
6F
  0
DICTIONARY
  5
10
102
{ACAD_REACTORS
330
C
102
}
330
C
100
AcDbDictionary
281
     1
  3
ByBlock
350
19
  3
ByLayer
350
11
  3
Global
350
21
  0
DICTIONARY
  5
66
102
{ACAD_REACTORS
330
C
102
}
330
C
100
AcDbDictionary
281
     1
  3
Standard
350
67
  0
DICTIONARY
  5
5F
102
{ACAD_REACTORS
330
C
102
}
330
C
100
AcDbDictionary
281
     1
  3
Standard
350
60
  0
DICTIONARY
  5
61
102
{ACAD_REACTORS
330
C
102
}
330
C
100
AcDbDictionary
281
     1
  0
ACDBDICTIONARYWDFLT
  5
E
102
{ACAD_REACTORS
330
C
102
}
330
C
100
AcDbDictionary
281
     1
  3
Normal
350
F
100
AcDbDictionaryWithDefault
340
F
  0
DICTIONARY
  5
42
102
{ACAD_REACTORS
330
C
102
}
330
C
100
AcDbDictionary
281
     1
  3
A0
350
43
  3
A1
350
44
  3
A2
350
45
  3
A3
350
46
  3
A4
350
47
  3
A5
350
48
  3
A6
350
49
  3
A7
350
4A
  3
A8
350
4B
  3
A9
350
4C
  3
B0
350
4D
  3
B1
350
4E
  3
B2
350
4F
  3
B3
350
50
  3
B4
350
51
  3
B5
350
52
  3
B6
350
53
  0
DICTIONARY
  5
64
102
{ACAD_REACTORS
330
C
102
}
330
C
100
AcDbDictionary
281
     1
  3
Standard
350
65
  0
DICTIONARY
  5
29
102
{ACAD_REACTORS
330
C
102
}
330
C
100
AcDbDictionary
281
     1
  3
2dWireframe
350
2F
  3
Basic
350
2E
  3
Brighten
350
35
  3
ColorChange
350
39
  3
Conceptual
350
32
  3
Dim
350
34
  3
EdgeColorOff
350
41
  3
Facepattern
350
38
  3
Flat
350
2A
  3
FlatWithEdges
350
2B
  3
Gouraud
350
2C
  3
GouraudWithEdges
350
2D
  3
Hidden
350
31
  3
JitterOff
350
3F
  3
Linepattern
350
37
  3
OverhangOff
350
40
  3
Realistic
350
33
  3
Shaded
350
3E
  3
Shaded with edges
350
3D
  3
Shades of Gray
350
3A
  3
Sketchy
350
3B
  3
Thicken
350
36
  3
Wireframe
350
30
  3
X-Ray
350
3C
  0
XRECORD
  5
D92
102
{ACAD_REACTORS
330
C
102
}
330
C
100
AcDbXrecord
280
     1
 90
        1
330
65
330
D89
  0
DICTIONARY
  5
76
102
{ACAD_REACTORS
330
C
102
}
330
C
100
AcDbDictionary
281
     1
  3
CANNOSCALE
350
79
  3
CMLEADERSTYLE
350
78
  3
CTABLESTYLE
350
77
  0
XRECORD
  5
D91
102
{ACAD_REACTORS
330
D90
102
}
330
D90
100
AcDbXrecord
280
     1
 40
3108991.0
  1
\pxsm0.94;{\fRomanS|b0|i0;\H2.0000;PART#: WA72P30F2G\P(DATA SUBJECT TO CHANGE WITHOUT NOTICE)\P \P\fRomanS|b0|i0;\H1.2000;THIS DRAWING IS PROPERTY OF HUBBELL INC. WIEGMANN\PALL INFORMATION IS PROPRIETARY AND NOT TO BE DUPLICATED\P}
  0
LAYOUT
  5
6B
102
{ACAD_REACTORS
330
62
102
}
330
62
100
AcDbPlotSettings
  1

  2

  4

  6

 40
0.0
 41
0.0
 42
0.0
 43
0.0
 44
0.0
 45
0.0
 46
0.0
 47
0.0
 48
0.0
 49
0.0
140
0.0
141
0.0
142
1.0
143
1.0
 70
   688
 72
     0
 73
     0
 74
     5
  7

 75
    16
147
1.0
 76
     0
 77
     2
 78
   300
148
0.0
149
0.0
100
AcDbLayout
  1
Layout1
 70
     1
 71
     1
 10
0.0
 20
0.0
 11
12.0
 21
9.0
 12
0.0
 22
0.0
 32
0.0
 14
0.0
 24
0.0
 34
0.0
 15
0.0
 25
0.0
 35
0.0
146
0.0
 13
0.0
 23
0.0
 33
0.0
 16
1.0
 26
0.0
 36
0.0
 17
0.0
 27
1.0
 37
0.0
 76
     0
330
68
  0
LAYOUT
  5
73
102
{ACAD_REACTORS
330
62
102
}
330
62
100
AcDbPlotSettings
  1

  2

  4

  6

 40
0.0
 41
0.0
 42
0.0
 43
0.0
 44
0.0
 45
0.0
 46
0.0
 47
0.0
 48
0.0
 49
0.0
140
0.0
141
0.0
142
1.0
143
1.0
 70
   688
 72
     0
 73
     0
 74
     5
  7

 75
    16
147
1.0
 76
     0
 77
     2
 78
   300
148
0.0
149
0.0
100
AcDbLayout
  1
Layout2
 70
     1
 71
     2
 10
0.0
 20
0.0
 11
12.0
 21
9.0
 12
0.0
 22
0.0
 32
0.0
 14
0.0
 24
0.0
 34
0.0
 15
0.0
 25
0.0
 35
0.0
146
0.0
 13
0.0
 23
0.0
 33
0.0
 16
1.0
 26
0.0
 36
0.0
 17
0.0
 27
1.0
 37
0.0
 76
     0
330
70
  0
LAYOUT
  5
6F
102
{ACAD_REACTORS
330
62
102
}
330
62
100
AcDbPlotSettings
  1

  2

  4

  6

 40
0.0
 41
0.0
 42
0.0
 43
0.0
 44
0.0
 45
0.0
 46
0.0
 47
0.0
 48
0.0
 49
0.0
140
0.0
141
0.0
142
1.0
143
1.0
 70
  1712
 72
     0
 73
     0
 74
     0
  7

 75
     0
147
1.0
 76
     0
 77
     2
 78
   300
148
0.0
149
0.0
100
AcDbLayout
  1
Model
 70
     1
 71
     0
 10
0.0
 20
0.0
 11
12.0
 21
9.0
 12
0.0
 22
0.0
 32
0.0
 14
0.0
 24
0.0
 34
0.0
 15
0.0
 25
0.0
 35
0.0
146
0.0
 13
0.0
 23
0.0
 33
0.0
 16
1.0
 26
0.0
 36
0.0
 17
0.0
 27
1.0
 37
0.0
 76
     0
330
6C
  0
MATERIAL
  5
19
102
{ACAD_XDICTIONARY
360
1A
102
}
102
{ACAD_REACTORS
330
10
102
}
330
10
100
AcDbMaterial
  1
ByBlock
 72
     0
 43
0.0208333333333333
 43
0.0
 43
0.0
 43
0.0
 43
0.0
 43
0.0208333333333333
 43
0.0
 43
0.0
 43
0.0
 43
0.0
 43
1.0
 43
0.0
 43
0.0
 43
0.0
 43
0.0
 43
1.0
 77
     0
 47
0.0208333333333333
 47
0.0
 47
0.0
 47
0.0
 47
0.0
 47
0.0208333333333333
 47
0.0
 47
0.0
 47
0.0
 47
0.0
 47
1.0
 47
0.0
 47
0.0
 47
0.0
 47
0.0
 47
1.0
171
     0
 49
0.0208333333333333
 49
0.0
 49
0.0
 49
0.0
 49
0.0
 49
0.0208333333333333
 49
0.0
 49
0.0
 49
0.0
 49
0.0
 49
1.0
 49
0.0
 49
0.0
 49
0.0
 49
0.0
 49
1.0
175
     0
142
0.0208333333333333
142
0.0
142
0.0
142
0.0
142
0.0
142
0.0208333333333333
142
0.0
142
0.0
142
0.0
142
0.0
142
1.0
142
0.0
142
0.0
142
0.0
142
0.0
142
1.0
179
     0
144
0.0208333333333333
144
0.0
144
0.0
144
0.0
144
0.0
144
0.0208333333333333
144
0.0
144
0.0
144
0.0
144
0.0
144
1.0
144
0.0
144
0.0
144
0.0
144
0.0
144
1.0
147
0.0208333333333333
147
0.0
147
0.0
147
0.0
147
0.0
147
0.0208333333333333
147
0.0
147
0.0
147
0.0
147
0.0
147
1.0
147
0.0
147
0.0
147
0.0
147
0.0
147
1.0
  0
MATERIAL
  5
11
102
{ACAD_XDICTIONARY
360
12
102
}
102
{ACAD_REACTORS
330
10
102
}
330
10
100
AcDbMaterial
  1
ByLayer
 72
     0
 43
0.0208333333333333
 43
0.0
 43
0.0
 43
0.0
 43
0.0
 43
0.0208333333333333
 43
0.0
 43
0.0
 43
0.0
 43
0.0
 43
1.0
 43
0.0
 43
0.0
 43
0.0
 43
0.0
 43
1.0
 77
     0
 47
0.0208333333333333
 47
0.0
 47
0.0
 47
0.0
 47
0.0
 47
0.0208333333333333
 47
0.0
 47
0.0
 47
0.0
 47
0.0
 47
1.0
 47
0.0
 47
0.0
 47
0.0
 47
0.0
 47
1.0
171
     0
 49
0.0208333333333333
 49
0.0
 49
0.0
 49
0.0
 49
0.0
 49
0.0208333333333333
 49
0.0
 49
0.0
 49
0.0
 49
0.0
 49
1.0
 49
0.0
 49
0.0
 49
0.0
 49
0.0
 49
1.0
175
     0
142
0.0208333333333333
142
0.0
142
0.0
142
0.0
142
0.0
142
0.0208333333333333
142
0.0
142
0.0
142
0.0
142
0.0
142
1.0
142
0.0
142
0.0
142
0.0
142
0.0
142
1.0
179
     0
144
0.0208333333333333
144
0.0
144
0.0
144
0.0
144
0.0
144
0.0208333333333333
144
0.0
144
0.0
144
0.0
144
0.0
144
1.0
144
0.0
144
0.0
144
0.0
144
0.0
144
1.0
147
0.0208333333333333
147
0.0
147
0.0
147
0.0
147
0.0
147
0.0208333333333333
147
0.0
147
0.0
147
0.0
147
0.0
147
1.0
147
0.0
147
0.0
147
0.0
147
0.0
147
1.0
  0
MATERIAL
  5
21
102
{ACAD_XDICTIONARY
360
22
102
}
102
{ACAD_REACTORS
330
10
102
}
330
10
100
AcDbMaterial
  1
Global
 72
     0
 43
0.0208333333333333
 43
0.0
 43
0.0
 43
0.0
 43
0.0
 43
0.0208333333333333
 43
0.0
 43
0.0
 43
0.0
 43
0.0
 43
1.0
 43
0.0
 43
0.0
 43
0.0
 43
0.0
 43
1.0
 77
     0
 47
0.0208333333333333
 47
0.0
 47
0.0
 47
0.0
 47
0.0
 47
0.0208333333333333
 47
0.0
 47
0.0
 47
0.0
 47
0.0
 47
1.0
 47
0.0
 47
0.0
 47
0.0
 47
0.0
 47
1.0
171
     0
 49
0.0208333333333333
 49
0.0
 49
0.0
 49
0.0
 49
0.0
 49
0.0208333333333333
 49
0.0
 49
0.0
 49
0.0
 49
0.0
 49
1.0
 49
0.0
 49
0.0
 49
0.0
 49
0.0
 49
1.0
175
     0
142
0.0208333333333333
142
0.0
142
0.0
142
0.0
142
0.0
142
0.0208333333333333
142
0.0
142
0.0
142
0.0
142
0.0
142
1.0
142
0.0
142
0.0
142
0.0
142
0.0
142
1.0
179
     0
144
0.0208333333333333
144
0.0
144
0.0
144
0.0
144
0.0
144
0.0208333333333333
144
0.0
144
0.0
144
0.0
144
0.0
144
1.0
144
0.0
144
0.0
144
0.0
144
0.0
144
1.0
147
0.0208333333333333
147
0.0
147
0.0
147
0.0
147
0.0
147
0.0208333333333333
147
0.0
147
0.0
147
0.0
147
0.0
147
1.0
147
0.0
147
0.0
147
0.0
147
0.0
147
1.0
  0
MLEADERSTYLE
  5
67
102
{ACAD_XDICTIONARY
360
D8E
102
}
102
{ACAD_REACTORS
330
66
102
}
330
66
100
AcDbMLeaderStyle
179
     2
170
     2
171
     1
172
     0
 90
        2
 40
0.0
 41
0.0
173
     1
 91
-1056964608
340
5B
 92
       -2
290
     1
 42
0.09
291
     1
 43
0.36
  3
Standard
 44
0.18
300

342
55
174
     1
178
     6
175
     1
176
     0
 93
-1056964608
 45
0.18
292
     0
297
     0
 46
0.18
 94
-1056964608
 47
1.0
 49
1.0
140
1.0
293
     1
141
0.0
294
     1
177
     0
142
1.0
295
     0
296
     0
143
0.125
271
     0
272
     9
273
     9
  0
MLINESTYLE
  5
60
102
{ACAD_REACTORS
330
5F
102
}
330
5F
100
AcDbMlineStyle
  2
STANDARD
 70
     0
  3

 62
   256
 51
90.0
 52
90.0
 71
     2
 49
0.5
 62
   256
  6
BYLAYER
 49
-0.5
 62
   256
  6
BYLAYER
  0
ACDBPLACEHOLDER
  5
F
102
{ACAD_REACTORS
330
E
102
}
330
E
  0
SCALE
  5
43
102
{ACAD_REACTORS
330
42
102
}
330
42
100
AcDbScale
 70
     0
300
1:1
140
1.0
141
1.0
290
     1
  0
SCALE
  5
44
102
{ACAD_REACTORS
330
42
102
}
330
42
100
AcDbScale
 70
     0
300
1/128" = 1'-0"
140
0.0078125
141
12.0
290
     0
  0
SCALE
  5
45
102
{ACAD_REACTORS
330
42
102
}
330
42
100
AcDbScale
 70
     0
300
1/64" = 1'-0"
140
0.015625
141
12.0
290
     0
  0
SCALE
  5
46
102
{ACAD_REACTORS
330
42
102
}
330
42
100
AcDbScale
 70
     0
300
1/32" = 1'-0"
140
0.03125
141
12.0
290
     0
  0
SCALE
  5
47
102
{ACAD_REACTORS
330
42
102
}
330
42
100
AcDbScale
 70
     0
300
1/16" = 1'-0"
140
0.0625
141
12.0
290
     0
  0
SCALE
  5
48
102
{ACAD_REACTORS
330
42
102
}
330
42
100
AcDbScale
 70
     0
300
3/32" = 1'-0"
140
0.09375
141
12.0
290
     0
  0
SCALE
  5
49
102
{ACAD_REACTORS
330
42
102
}
330
42
100
AcDbScale
 70
     0
300
1/8" = 1'-0"
140
0.125
141
12.0
290
     0
  0
SCALE
  5
4A
102
{ACAD_REACTORS
330
42
102
}
330
42
100
AcDbScale
 70
     0
300
3/16" = 1'-0"
140
0.1875
141
12.0
290
     0
  0
SCALE
  5
4B
102
{ACAD_REACTORS
330
42
102
}
330
42
100
AcDbScale
 70
     0
300
1/4" = 1'-0"
140
0.25
141
12.0
290
     0
  0
SCALE
  5
4C
102
{ACAD_REACTORS
330
42
102
}
330
42
100
AcDbScale
 70
     0
300
3/8" = 1'-0"
140
0.375
141
12.0
290
     0
  0
SCALE
  5
4D
102
{ACAD_REACTORS
330
42
102
}
330
42
100
AcDbScale
 70
     0
300
1/2" = 1'-0"
140
0.5
141
12.0
290
     0
  0
SCALE
  5
4E
102
{ACAD_REACTORS
330
42
102
}
330
42
100
AcDbScale
 70
     0
300
3/4" = 1'-0"
140
0.75
141
12.0
290
     0
  0
SCALE
  5
4F
102
{ACAD_REACTORS
330
42
102
}
330
42
100
AcDbScale
 70
     0
300
1" = 1'-0"
140
1.0
141
12.0
290
     0
  0
SCALE
  5
50
102
{ACAD_REACTORS
330
42
102
}
330
42
100
AcDbScale
 70
     0
300
1-1/2" = 1'-0"
140
1.5
141
12.0
290
     0
  0
SCALE
  5
51
102
{ACAD_REACTORS
330
42
102
}
330
42
100
AcDbScale
 70
     0
300
3" = 1'-0"
140
3.0
141
12.0
290
     0
  0
SCALE
  5
52
102
{ACAD_REACTORS
330
42
102
}
330
42
100
AcDbScale
 70
     0
300
6" = 1'-0"
140
6.0
141
12.0
290
     0
  0
SCALE
  5
53
102
{ACAD_REACTORS
330
42
102
}
330
42
100
AcDbScale
 70
     0
300
1'-0" = 1'-0"
140
12.0
141
12.0
290
     0
  0
TABLESTYLE
  5
65
102
{ACAD_XDICTIONARY
360
D8C
102
}
102
{ACAD_REACTORS
330
64
102
}
330
64
100
AcDbTableStyle
280
     0
  3
Standard
 70
     0
 71
     0
 40
0.06
 41
0.06
280
     0
281
     0
  7
Standard
140
0.18
170
     2
 62
     0
 63
     7
283
     0
 90
      512
 91
        0
  1

274
    -2
284
     1
 64
     0
275
    -2
285
     1
 65
     0
276
    -2
286
     1
 66
     0
277
    -2
287
     1
 67
     0
278
    -2
288
     1
 68
     0
279
    -2
289
     1
 69
     0
  7
Standard
140
0.25
170
     5
 62
     0
 63
     7
283
     0
 90
      512
 91
        0
  1

274
    -2
284
     1
 64
     0
275
    -2
285
     1
 65
     0
276
    -2
286
     1
 66
     0
277
    -2
287
     1
 67
     0
278
    -2
288
     1
 68
     0
279
    -2
289
     1
 69
     0
  7
Standard
140
0.18
170
     5
 62
     0
 63
     7
283
     0
 90
      512
 91
        0
  1

274
    -2
284
     1
 64
     0
275
    -2
285
     1
 65
     0
276
    -2
286
     1
 66
     0
277
    -2
287
     1
 67
     0
278
    -2
288
     1
 68
     0
279
    -2
289
     1
 69
     0
  0
VISUALSTYLE
  5
2F
102
{ACAD_REACTORS
330
29
102
}
330
29
100
AcDbVisualStyle
  2
2dWireframe
 70
     4
177
     2
291
     0
 71
     0
176
     1
 72
     2
176
     1
 73
     0
176
     1
 90
        0
176
     1
 40
0.6
176
     1
 41
30.0
176
     1
 63
     7
421
 16777215
176
     1
 74
     1
176
     1
 91
        4
176
     1
 64
     7
176
     1
 65
   257
176
     1
 75
     1
176
     1
175
     1
176
     1
 42
1.0
176
     1
 92
        0
176
     1
 66
   257
176
     1
 43
1.0
176
     1
 76
     1
176
     1
 77
     6
176
     1
 78
     2
176
     1
 67
     7
176
     1
 79
     5
176
     1
170
     0
176
     1
171
     0
176
     1
290
     0
176
     1
 93
        1
176
     1
 44
0.0
176
     1
173
     0
176
     1
  0
VISUALSTYLE
  5
2E
102
{ACAD_REACTORS
330
29
102
}
330
29
100
AcDbVisualStyle
  2
Basic
 70
     7
177
     2
291
     1
 71
     1
176
     1
 72
     0
176
     1
 73
     1
176
     1
 90
        0
176
     1
 40
0.6
176
     1
 41
30.0
176
     1
 63
     7
421
 16777215
176
     1
 74
     0
176
     1
 91
        4
176
     1
 64
     7
176
     1
 65
   257
176
     1
 75
     1
176
     1
175
     1
176
     1
 42
1.0
176
     1
 92
        8
176
     1
 66
     7
176
     1
 43
1.0
176
     1
 76
     1
176
     1
 77
     6
176
     1
 78
     2
176
     1
 67
     7
176
     1
 79
     5
176
     1
170
     0
176
     1
171
     0
176
     1
290
     0
176
     1
 93
        1
176
     1
 44
0.0
176
     1
173
     0
176
     1
  0
VISUALSTYLE
  5
35
102
{ACAD_REACTORS
330
29
102
}
330
29
100
AcDbVisualStyle
  2
Brighten
 70
    12
177
     2
291
     1
 71
     2
176
     1
 72
     2
176
     1
 73
     0
176
     1
 90
        0
176
     1
 40
0.6
176
     1
 41
30.0
176
     1
 63
     7
421
 16777215
176
     1
 74
     1
176
     1
 91
        4
176
     1
 64
     7
176
     1
 65
   257
176
     1
 75
     1
176
     1
175
     1
176
     1
 42
1.0
176
     1
 92
        8
176
     1
 66
     7
176
     1
 43
1.0
176
     1
 76
     1
176
     1
 77
     6
176
     1
 78
     2
176
     1
 67
     7
176
     1
 79
     5
176
     1
170
     0
176
     1
171
     0
176
     1
290
     0
176
     1
 93
        1
176
     1
 44
50.0
176
     1
173
     0
176
     1
  0
VISUALSTYLE
  5
39
102
{ACAD_REACTORS
330
29
102
}
330
29
100
AcDbVisualStyle
  2
ColorChange
 70
    16
177
     2
291
     1
 71
     2
176
     1
 72
     2
176
     1
 73
     3
176
     1
 90
        0
176
     1
 40
0.6
176
     1
 41
30.0
176
     1
 63
     8
421
  8421504
176
     1
 74
     1
176
     1
 91
        4
176
     1
 64
     7
176
     1
 65
   257
176
     1
 75
     1
176
     1
175
     1
176
     1
 42
1.0
176
     1
 92
        8
176
     1
 66
     8
424
  8421504
176
     1
 43
1.0
176
     1
 76
     1
176
     1
 77
     6
176
     1
 78
     2
176
     1
 67
     7
176
     1
 79
     5
176
     1
170
     0
176
     1
171
     0
176
     1
290
     0
176
     1
 93
        1
176
     1
 44
0.0
176
     1
173
     0
176
     1
  0
VISUALSTYLE
  5
32
102
{ACAD_REACTORS
330
29
102
}
330
29
100
AcDbVisualStyle
  2
Conceptual
 70
     9
177
     2
291
     0
 71
     3
176
     1
 72
     2
176
     1
 73
     0
176
     1
 90
        0
176
     1
 40
0.6
176
     1
 41
30.0
176
     1
 63
     7
421
 16777215
176
     1
 74
     2
176
     1
 91
        2
176
     1
 64
     7
176
     1
 65
   257
176
     1
 75
     1
176
     1
175
     1
176
     1
 42
179.0
176
     1
 92
        8
176
     1
 66
     7
176
     1
 43
1.0
176
     1
 76
     1
176
     1
 77
     6
176
     1
 78
     2
176
     1
 67
     7
176
     1
 79
     3
176
     1
170
     0
176
     1
171
     0
176
     1
290
     0
176
     1
 93
        1
176
     1
 44
0.0
176
     1
173
     0
176
     1
  0
VISUALSTYLE
  5
34
102
{ACAD_REACTORS
330
29
102
}
330
29
100
AcDbVisualStyle
  2
Dim
 70
    11
177
     2
291
     1
 71
     2
176
     1
 72
     2
176
     1
 73
     0
176
     1
 90
        0
176
     1
 40
0.6
176
     1
 41
30.0
176
     1
 63
     7
421
 16777215
176
     1
 74
     1
176
     1
 91
        4
176
     1
 64
     7
176
     1
 65
   257
176
     1
 75
     1
176
     1
175
     1
176
     1
 42
1.0
176
     1
 92
        8
176
     1
 66
     7
176
     1
 43
1.0
176
     1
 76
     1
176
     1
 77
     6
176
     1
 78
     2
176
     1
 67
     7
176
     1
 79
     5
176
     1
170
     0
176
     1
171
     0
176
     1
290
     0
176
     1
 93
        1
176
     1
 44
-50.0
176
     1
173
     0
176
     1
  0
VISUALSTYLE
  5
41
102
{ACAD_REACTORS
330
29
102
}
330
29
100
AcDbVisualStyle
  2
EdgeColorOff
 70
    22
177
     2
291
     1
 71
     2
176
     0
 72
     2
176
     0
 73
     0
176
     0
 90
        0
176
     0
 40
0.6
176
     0
 41
30.0
176
     0
 63
     7
421
 16777215
176
     0
 74
     1
176
     0
 91
        4
176
     0
 64
     7
176
     0
 65
   257
176
     0
 75
     1
176
     0
175
     1
176
     0
 42
1.0
176
     0
 92
        8
176
     2
 66
     7
176
     0
 43
1.0
176
     0
 76
     1
176
     0
 77
     6
176
     0
 78
     2
176
     0
 67
     7
176
     0
 79
     5
176
     0
170
     0
176
     0
171
     0
176
     0
290
     0
176
     0
 93
        1
176
     0
 44
0.0
176
     0
173
     0
176
     0
  0
VISUALSTYLE
  5
38
102
{ACAD_REACTORS
330
29
102
}
330
29
100
AcDbVisualStyle
  2
Facepattern
 70
    15
177
     2
291
     1
 71
     2
176
     1
 72
     2
176
     1
 73
     0
176
     1
 90
        0
176
     1
 40
0.6
176
     1
 41
30.0
176
     1
 63
     7
421
 16777215
176
     1
 74
     1
176
     1
 91
        4
176
     1
 64
     7
176
     1
 65
   257
176
     1
 75
     1
176
     1
175
     1
176
     1
 42
1.0
176
     1
 92
        8
176
     1
 66
     7
176
     1
 43
1.0
176
     1
 76
     1
176
     1
 77
     6
176
     1
 78
     2
176
     1
 67
     7
176
     1
 79
     5
176
     1
170
     0
176
     1
171
     0
176
     1
290
     0
176
     1
 93
        1
176
     1
 44
0.0
176
     1
173
     0
176
     1
  0
VISUALSTYLE
  5
2A
102
{ACAD_REACTORS
330
29
102
}
330
29
100
AcDbVisualStyle
  2
Flat
 70
     0
177
     2
291
     1
 71
     2
176
     1
 72
     1
176
     1
 73
     1
176
     1
 90
        2
176
     1
 40
0.6
176
     1
 41
30.0
176
     1
 63
     7
421
 16777215
176
     1
 74
     0
176
     1
 91
        0
176
     1
 64
     7
176
     1
 65
   257
176
     1
 75
     1
176
     1
175
     1
176
     1
 42
1.0
176
     1
 92
        8
176
     1
 66
     7
176
     1
 43
1.0
176
     1
 76
     1
176
     1
 77
     6
176
     1
 78
     2
176
     1
 67
     7
176
     1
 79
     5
176
     1
170
     0
176
     1
171
     0
176
     1
290
     0
176
     1
 93
       13
176
     1
 44
0.0
176
     1
173
     0
176
     1
  0
VISUALSTYLE
  5
2B
102
{ACAD_REACTORS
330
29
102
}
330
29
100
AcDbVisualStyle
  2
FlatWithEdges
 70
     1
177
     2
291
     1
 71
     2
176
     1
 72
     1
176
     1
 73
     1
176
     1
 90
        2
176
     1
 40
0.6
176
     1
 41
30.0
176
     1
 63
     7
421
 16777215
176
     1
 74
     1
176
     1
 91
        0
176
     1
 64
     7
176
     1
 65
   257
176
     1
 75
     1
176
     1
175
     1
176
     1
 42
1.0
176
     1
 92
        0
176
     1
 66
   257
176
     1
 43
1.0
176
     1
 76
     1
176
     1
 77
     6
176
     1
 78
     2
176
     1
 67
     7
176
     1
 79
     5
176
     1
170
     0
176
     1
171
     0
176
     1
290
     0
176
     1
 93
       13
176
     1
 44
0.0
176
     1
173
     0
176
     1
  0
VISUALSTYLE
  5
2C
102
{ACAD_REACTORS
330
29
102
}
330
29
100
AcDbVisualStyle
  2
Gouraud
 70
     2
177
     2
291
     1
 71
     2
176
     1
 72
     2
176
     1
 73
     1
176
     1
 90
        2
176
     1
 40
0.6
176
     1
 41
30.0
176
     1
 63
     7
421
 16777215
176
     1
 74
     0
176
     1
 91
        0
176
     1
 64
     7
176
     1
 65
   257
176
     1
 75
     1
176
     1
175
     1
176
     1
 42
1.0
176
     1
 92
        0
176
     1
 66
     7
176
     1
 43
1.0
176
     1
 76
     1
176
     1
 77
     6
176
     1
 78
     2
176
     1
 67
     7
176
     1
 79
     5
176
     1
170
     0
176
     1
171
     0
176
     1
290
     0
176
     1
 93
       13
176
     1
 44
0.0
176
     1
173
     0
176
     1
  0
VISUALSTYLE
  5
2D
102
{ACAD_REACTORS
330
29
102
}
330
29
100
AcDbVisualStyle
  2
GouraudWithEdges
 70
     3
177
     2
291
     1
 71
     2
176
     1
 72
     2
176
     1
 73
     1
176
     1
 90
        2
176
     1
 40
0.6
176
     1
 41
30.0
176
     1
 63
     7
421
 16777215
176
     1
 74
     1
176
     1
 91
        0
176
     1
 64
     7
176
     1
 65
   257
176
     1
 75
     1
176
     1
175
     1
176
     1
 42
1.0
176
     1
 92
        0
176
     1
 66
   257
176
     1
 43
1.0
176
     1
 76
     1
176
     1
 77
     6
176
     1
 78
     2
176
     1
 67
     7
176
     1
 79
     5
176
     1
170
     0
176
     1
171
     0
176
     1
290
     0
176
     1
 93
       13
176
     1
 44
0.0
176
     1
173
     0
176
     1
  0
VISUALSTYLE
  5
31
102
{ACAD_REACTORS
330
29
102
}
330
29
100
AcDbVisualStyle
  2
Hidden
 70
     6
177
     2
291
     0
 71
     1
176
     1
 72
     2
176
     1
 73
     2
176
     1
 90
        0
176
     1
 40
0.6
176
     1
 41
30.0
176
     1
 63
     7
421
 16777215
176
     1
 74
     2
176
     1
 91
        2
176
     1
 64
     7
176
     1
 65
   257
176
     1
 75
     2
176
     1
175
     1
176
     1
 42
40.0
176
     1
 92
        0
176
     1
 66
   257
176
     1
 43
1.0
176
     1
 76
     1
176
     1
 77
     6
176
     1
 78
     2
176
     1
 67
     7
176
     1
 79
     3
176
     1
170
     0
176
     1
171
     0
176
     1
290
     0
176
     1
 93
        1
176
     1
 44
0.0
176
     1
173
     0
176
     1
  0
VISUALSTYLE
  5
3F
102
{ACAD_REACTORS
330
29
102
}
330
29
100
AcDbVisualStyle
  2
JitterOff
 70
    20
177
     2
291
     1
 71
     2
176
     0
 72
     2
176
     0
 73
     0
176
     0
 90
        0
176
     0
 40
0.6
176
     0
 41
30.0
176
     0
 63
     7
421
 16777215
176
     0
 74
     1
176
     0
 91
        4
176
     0
 64
     7
176
     0
 65
   257
176
     0
 75
     1
176
     0
175
     1
176
     0
 42
1.0
176
     0
 92
       10
176
     2
 66
     7
176
     0
 43
1.0
176
     0
 76
     1
176
     0
 77
     6
176
     0
 78
     2
176
     0
 67
     7
176
     0
 79
     5
176
     0
170
     0
176
     0
171
     0
176
     0
290
     0
176
     0
 93
        1
176
     0
 44
0.0
176
     0
173
     0
176
     0
  0
VISUALSTYLE
  5
37
102
{ACAD_REACTORS
330
29
102
}
330
29
100
AcDbVisualStyle
  2
Linepattern
 70
    14
177
     2
291
     1
 71
     2
176
     1
 72
     2
176
     1
 73
     0
176
     1
 90
        0
176
     1
 40
0.6
176
     1
 41
30.0
176
     1
 63
     7
421
 16777215
176
     1
 74
     1
176
     1
 91
        4
176
     1
 64
     7
176
     1
 65
   257
176
     1
 75
     7
176
     1
175
     7
176
     1
 42
1.0
176
     1
 92
        8
176
     1
 66
     7
176
     1
 43
1.0
176
     1
 76
     1
176
     1
 77
     6
176
     1
 78
     2
176
     1
 67
     7
176
     1
 79
     5
176
     1
170
     0
176
     1
171
     0
176
     1
290
     0
176
     1
 93
        1
176
     1
 44
0.0
176
     1
173
     0
176
     1
  0
VISUALSTYLE
  5
40
102
{ACAD_REACTORS
330
29
102
}
330
29
100
AcDbVisualStyle
  2
OverhangOff
 70
    21
177
     2
291
     1
 71
     2
176
     0
 72
     2
176
     0
 73
     0
176
     0
 90
        0
176
     0
 40
0.6
176
     0
 41
30.0
176
     0
 63
     7
421
 16777215
176
     0
 74
     1
176
     0
 91
        4
176
     0
 64
     7
176
     0
 65
   257
176
     0
 75
     1
176
     0
175
     1
176
     0
 42
1.0
176
     0
 92
        9
176
     2
 66
     7
176
     0
 43
1.0
176
     0
 76
     1
176
     0
 77
     6
176
     0
 78
     2
176
     0
 67
     7
176
     0
 79
     5
176
     0
170
     0
176
     0
171
     0
176
     0
290
     0
176
     0
 93
        1
176
     0
 44
0.0
176
     0
173
     0
176
     0
  0
VISUALSTYLE
  5
33
102
{ACAD_REACTORS
330
29
102
}
330
29
100
AcDbVisualStyle
  2
Realistic
 70
     8
177
     2
291
     0
 71
     2
176
     1
 72
     3
176
     1
 73
     0
176
     1
 90
        2
176
     1
 40
0.6
176
     1
 41
30.0
176
     1
 63
     7
421
 16777215
176
     1
 74
     0
176
     1
 91
        0
176
     1
 64
     7
176
     1
 65
   257
176
     1
 75
     1
176
     1
175
     1
176
     1
 42
1.0
176
     1
 92
        8
176
     1
 66
   257
176
     1
 43
1.0
176
     1
 76
     1
176
     1
 77
     6
176
     1
 78
     2
176
     1
 67
     7
176
     1
 79
     3
176
     1
170
     0
176
     1
171
     0
176
     1
290
     0
176
     1
 93
       13
176
     1
 44
0.0
176
     1
173
     0
176
     1
  0
VISUALSTYLE
  5
3E
102
{ACAD_REACTORS
330
29
102
}
330
29
100
AcDbVisualStyle
  2
Shaded
 70
    27
177
     2
291
     0
 71
     2
176
     1
 72
     2
176
     1
 73
     1
176
     1
 90
        2
176
     1
 40
0.6
176
     1
 41
30.0
176
     1
 63
     7
421
 16777215
176
     1
 74
     0
176
     1
 91
        4
176
     1
 64
     7
176
     1
 65
   257
176
     1
 75
     1
176
     1
175
     1
176
     1
 42
1.0
176
     1
 92
        8
176
     1
 66
   257
176
     1
 43
1.0
176
     1
 76
     1
176
     1
 77
     6
176
     1
 78
     2
176
     1
 67
     8
425
  7895160
176
     1
 79
     3
176
     1
170
     0
176
     1
171
     0
176
     1
290
     0
176
     1
 93
        5
176
     1
 44
0.0
176
     1
173
     0
176
     1
  0
VISUALSTYLE
  5
3D
102
{ACAD_REACTORS
330
29
102
}
330
29
100
AcDbVisualStyle
  2
Shaded with edges
 70
    26
177
     2
291
     0
 71
     2
176
     1
 72
     2
176
     1
 73
     1
176
     1
 90
        2
176
     1
 40
0.6
176
     1
 41
30.0
176
     1
 63
     7
421
 16777215
176
     1
 74
     1
176
     1
 91
       10
176
     1
 64
     7
176
     1
 65
   257
176
     1
 75
     2
176
     1
175
     1
176
     1
 42
1.0
176
     1
 92
        8
176
     1
 66
   257
176
     1
 43
1.0
176
     1
 76
     1
176
     1
 77
     6
176
     1
 78
     2
176
     1
 67
     7
176
     1
 79
     3
176
     1
170
     0
176
     1
171
     0
176
     1
290
     0
176
     1
 93
        5
176
     1
 44
0.0
176
     1
173
     0
176
     1
  0
VISUALSTYLE
  5
3A
102
{ACAD_REACTORS
330
29
102
}
330
29
100
AcDbVisualStyle
  2
Shades of Gray
 70
    23
177
     2
291
     0
 71
     2
176
     1
 72
     2
176
     1
 73
     3
176
     1
 90
        0
176
     1
 40
0.6
176
     1
 41
30.0
176
     1
 63
     7
421
 16777215
176
     1
 74
     2
176
     1
 91
        2
176
     1
 64
     7
176
     1
 65
     7
176
     1
 75
     1
176
     1
175
     1
176
     1
 42
40.0
176
     1
 92
        8
176
     1
 66
     7
176
     1
 43
1.0
176
     1
 76
     1
176
     1
 77
     6
176
     1
 78
     2
176
     1
 67
     7
176
     1
 79
     3
176
     1
170
     0
176
     1
171
     0
176
     1
290
     0
176
     1
 93
        1
176
     1
 44
0.0
176
     1
173
     0
176
     1
  0
VISUALSTYLE
  5
3B
102
{ACAD_REACTORS
330
29
102
}
330
29
100
AcDbVisualStyle
  2
Sketchy
 70
    24
177
     2
291
     0
 71
     1
176
     1
 72
     2
176
     1
 73
     2
176
     1
 90
        0
176
     1
 40
0.6
176
     1
 41
30.0
176
     1
 63
     7
421
 16777215
176
     1
 74
     2
176
     1
 91
        2
176
     1
 64
     7
176
     1
 65
     7
176
     1
 75
     1
176
     1
175
     1
176
     1
 42
40.0
176
     1
 92
       11
176
     1
 66
     7
176
     1
 43
1.0
176
     1
 76
     1
176
     1
 77
     6
176
     1
 78
     2
176
     1
 67
     7
176
     1
 79
     6
176
     1
170
     0
176
     1
171
     0
176
     1
290
     0
176
     1
 93
        1
176
     1
 44
0.0
176
     1
173
     0
176
     1
  0
VISUALSTYLE
  5
36
102
{ACAD_REACTORS
330
29
102
}
330
29
100
AcDbVisualStyle
  2
Thicken
 70
    13
177
     2
291
     1
 71
     2
176
     1
 72
     2
176
     1
 73
     0
176
     1
 90
        0
176
     1
 40
0.6
176
     1
 41
30.0
176
     1
 63
     7
421
 16777215
176
     1
 74
     1
176
     1
 91
        4
176
     1
 64
     7
176
     1
 65
   257
176
     1
 75
     1
176
     1
175
     1
176
     1
 42
1.0
176
     1
 92
       12
176
     1
 66
     7
176
     1
 43
1.0
176
     1
 76
     1
176
     1
 77
     6
176
     1
 78
     2
176
     1
 67
     7
176
     1
 79
     5
176
     1
170
     0
176
     1
171
     0
176
     1
290
     0
176
     1
 93
        1
176
     1
 44
0.0
176
     1
173
     0
176
     1
  0
VISUALSTYLE
  5
30
102
{ACAD_REACTORS
330
29
102
}
330
29
100
AcDbVisualStyle
  2
Wireframe
 70
     5
177
     2
291
     0
 71
     0
176
     1
 72
     2
176
     1
 73
     0
176
     1
 90
        0
176
     1
 40
0.6
176
     1
 41
30.0
176
     1
 63
     7
421
 16777215
176
     1
 74
     1
176
     1
 91
        4
176
     1
 64
     7
176
     1
 65
   257
176
     1
 75
     1
176
     1
175
     1
176
     1
 42
1.0
176
     1
 92
        0
176
     1
 66
   257
176
     1
 43
1.0
176
     1
 76
     1
176
     1
 77
     6
176
     1
 78
     2
176
     1
 67
     7
176
     1
 79
     3
176
     1
170
     0
176
     1
171
     0
176
     1
290
     0
176
     1
 93
        1
176
     1
 44
0.0
176
     1
173
     0
176
     1
  0
VISUALSTYLE
  5
3C
102
{ACAD_REACTORS
330
29
102
}
330
29
100
AcDbVisualStyle
  2
X-Ray
 70
    25
177
     2
291
     0
 71
     2
176
     1
 72
     2
176
     1
 73
     1
176
     1
 90
        1
176
     1
 40
0.5
176
     1
 41
30.0
176
     1
 63
     7
421
 16777215
176
     1
 74
     1
176
     1
 91
        0
176
     1
 64
     7
176
     1
 65
   257
176
     1
 75
     1
176
     1
175
     1
176
     1
 42
1.0
176
     1
 92
        8
176
     1
 66
     7
176
     1
 43
1.0
176
     1
 76
     1
176
     1
 77
     6
176
     1
 78
     2
176
     1
 67
     7
176
     1
 79
     3
176
     1
170
     0
176
     1
171
     0
176
     1
290
     0
176
     1
 93
       13
176
     1
 44
0.0
176
     1
173
     0
176
     1
  0
DICTIONARYVAR
  5
79
102
{ACAD_REACTORS
330
76
102
}
330
76
100
DictionaryVariables
280
     0
  1
1:1
  0
DICTIONARYVAR
  5
78
102
{ACAD_REACTORS
330
76
102
}
330
76
100
DictionaryVariables
280
     0
  1
STANDARD
  0
DICTIONARYVAR
  5
77
102
{ACAD_REACTORS
330
76
102
}
330
76
100
DictionaryVariables
280
     0
  1
STANDARD
  0
DICTIONARY
  5
1A
330
19
100
AcDbDictionary
280
     1
281
     1
  3
BUMPTILE
360
1C
  3
DIFFUSETILE
360
1B
  3
OPACITYTILE
360
1F
  3
REFLECTIONTILE
360
1E
  3
REFRACTIONTILE
360
20
  3
SPECULARTILE
360
1D
  0
DICTIONARY
  5
12
330
11
100
AcDbDictionary
280
     1
281
     1
  3
BUMPTILE
360
14
  3
DIFFUSETILE
360
13
  3
FBXASSET
360
109
  3
OPACITYTILE
360
17
  3
REFLECTIONTILE
360
16
  3
REFRACTIONTILE
360
18
  3
SPECULARTILE
360
15
  0
DICTIONARY
  5
22
330
21
100
AcDbDictionary
280
     1
281
     1
  3
BUMPTILE
360
24
  3
DIFFUSETILE
360
23
  3
FBXASSET
360
BA
  3
OPACITYTILE
360
27
  3
REFLECTIONTILE
360
26
  3
REFRACTIONTILE
360
28
  3
SPECULARTILE
360
25
  0
DICTIONARY
  5
D8E
330
67
100
AcDbDictionary
280
     1
281
     1
  3
ACAD_XREC_ROUNDTRIP
360
D8F
  0
DICTIONARY
  5
D8C
330
65
100
AcDbDictionary
280
     1
281
     1
  3
ACAD_ROUNDTRIP_2008_TABLESTYLE_CELLSTYLEMAP
360
D8D
  0
XRECORD
  5
1C
102
{ACAD_REACTORS
330
1A
102
}
330
1A
100
AcDbXrecord
280
     1
270
     1
271
     1
  0
XRECORD
  5
1B
102
{ACAD_REACTORS
330
1A
102
}
330
1A
100
AcDbXrecord
280
     1
270
     1
271
     1
  0
XRECORD
  5
1F
102
{ACAD_REACTORS
330
1A
102
}
330
1A
100
AcDbXrecord
280
     1
270
     1
271
     1
  0
XRECORD
  5
1E
102
{ACAD_REACTORS
330
1A
102
}
330
1A
100
AcDbXrecord
280
     1
270
     1
271
     1
  0
XRECORD
  5
20
102
{ACAD_REACTORS
330
1A
102
}
330
1A
100
AcDbXrecord
280
     1
270
     1
271
     1
  0
XRECORD
  5
1D
102
{ACAD_REACTORS
330
1A
102
}
330
1A
100
AcDbXrecord
280
     1
270
     1
271
     1
  0
XRECORD
  5
14
102
{ACAD_REACTORS
330
12
102
}
330
12
100
AcDbXrecord
280
     1
270
     1
271
     1
  0
XRECORD
  5
13
102
{ACAD_REACTORS
330
12
102
}
330
12
100
AcDbXrecord
280
     1
270
     1
271
     1
  0
XRECORD
  5
109
102
{ACAD_REACTORS
330
12
102
}
330
12
100
AcDbXrecord
280
     1
 70
     1
 90
1959938040
 71
     1
  1
57395258-AEDC-4816-93A8-7FD5CB05763C
311
504B03040A00000800003A99D5423DEE336E79000000790000001B0000006175746F6465736B2D64657369676E2D7061636B6167652E786D6C3C3F786D6C2076657273696F6E3D22312E302220656E636F64696E673D227574662D3822203F3E3C666F726D6174733E3C666F726D61743E687474703A2F2F736368656D612E
311
6175746F6465736B2E636F6D2F64657369676E2D7061636B6167652F323030393C2F666F726D61743E3C2F666F726D6174733E504B03041400060808003A99D542D486FD9CA0000000F4000000130000005B436F6E74656E745F54797065735D2E786D6C7D8EC10E82300C865F65E91D8A1E8C310C0EEA1BF002731658846E
311
D98AC1B77784ABF1D8FE5FBFBF75BBCE937A534CCEB38643598122B6FEE978D0B0485F9C41B54DDD7D022595594E1A469170414C76A4D9A4D207E29CF43ECE46F218070CC6BECC4078ACAA135ACF422C856C0E68EA1BF5669944DDD7BCDE7B1F8E415D77AECB980613C2E4AC91FC167A2B244592486606FC29C8FD7F045B9A
311
EF7053A7E60B504B03041400060808003A99D542C07F35F9EB0000007C01000008000000636F72652E786D6C8D90416EC3201045AF82665BE100B693DAC244769A1BF402088883128365A0EAF18B13476A77DD30A3CF7F33A3CF8FDFD31D7D992558EF3AA00501649CF2DABAB183142FF81DD051F0C5FBF8CB06C8C9C974B0
311
CA20F8B8F8346F92F22E1A17B3EABC369B2843301190BAE7A683A0AE6692854C313BC2AD98A5BAC9D114F4D5653825ABD17389D5799EBD58B380A87B567D0C7D83877238E18AEC7B3C309A9F43551DCE4D5D9ECE03DFADB0E0D14EAFFD6A31321A0D82115A62B2C78C7ED2A6254D5BB33752B725E1BBD5FE074AB3FE2794AC
311
8B25DBCE7D620104CD873C3E04DFAD59E4F2082AD73537F103504B03041400060808003A99D54255019EA25F0000007C00000007000000636E782E786D6C4DCB3B0E80201045D1AD90E915ED2CF8AC45050C11660C8261F98AB1B07AC9C97D42D718D865D3E909258CFD00CCE24AC6E326A164D74DC0B4128928FF32603847
311
2BA13128B1252AC747C6BAB984FC68F0B87FE8960A5C09FE86CFB69FBA01504B03041400060808003A99D542E7CE8E9466010000020300000C0000006662782F636F72652E786D6C8D52ED8E8230107C95A67F2F503EF530A5463CDFE05EA042E51AA125A5253EFE2D1F86F3628C2129CDCCCEEEEC00DDDFDA060DC2F452AB
311
1C877E809150A5AEA4AA73ECECC5FBC468CFA8D1DAFE29C348F156E4788431A3B5D1AE5BA0522B2B940554E94A2C20EF7B61312A1BB8E4B82F7F44CB7DEE2C54F457BFE3E595D7C20F7DA0A18ED1DE1A3080E621E389D9E57CA364C619754E560B2B2B98262F5218CCD243947C1587CC2BE2E2E825C1E6E0155108C73649B6
311
A72C8D8FA7829251CCA895EDDD5D6904B7A2C22C0AC2D80B365E147E87D92EC87669F411A4BB38A0642C7F10B9AE7A53E4A4B271B4D89D653D66211899887FDB424416F57C003F8451328608AF29E1C7A0211008D9F27373DFE30AD0204AAB4D024CA5DD4A0DBC7102A606687A289959E83C3580CD9EF6895EF479DD033E20
311
573558E316AE6767C7E9749EBA44D109E30DF68694362D6F5673B3C5F55C073D9597BAD1E61D355956254B9864FC7BD92F504B03041400060808003A99D542796847687D0000009D0000000B0000006662782F636E782E786D6C4DCCD10A83201886E15B91FFDC9568D6811A34ED3E6259C84CC3E9D8E5AF46073BFAE0E1E3
311
15FD67F3E86DD3CBC52081DC6A40363CE2ECC22AA1E40577807A25528CF9EF06284C9B95703228B1A658F68B66BB4CC5E743BD0BCF0BEFD434DA3086A9310D662D6178207CC0548F9CB59A8FACABA152A2FA958E3DC3EA0B504B03041400060808003A99D5426D6EF64D2D01000014020000310000006662782F4333453544
311
4534342D334545352D343731342D423136422D3344463634374436463438302F636F72652E786D6C8D515B6EC32010BC8AC557AACA3618EC3C848994C639412FE06092A2C460F1A872FC2EB523B57FF961D1ECCCEC6897EF1FE33DFB56CE6B6B5A440A8C3265A41DB4B9B628864BBE41D95E70676DF8434399E947D5A20423
311
C1AFCEC66981A435419900A8B1835AC0DE7B155026EFF06991975F6AEC8B3E0660F85B31F5F2D65F55410A68034F701F1C04C8E621E945E28376F5B1632CA75D57E76C4D587E20CD21A7C753C3D6C7E6C4369897B350F018F5B0C8F50071F4452BF7AA49120B1EF4F88C2F9DEA831A90A830A1396EF28A7C92ED0E6F7775F5
311
8EEB1D85C989FE4F14A7E14551D426D06A893BCB3C1284977343F0C1C6F3FD19463D26EB4296E6ADBC926F48E00213C2D694D6BC9CA9B000F06CD8E2E98375B0E0D5ED0C6C02AC64DC30C1CB742328BF07849AEE297E00504B03041400060808003A99D5429038075E4E01000033030000300000006662782F433345354445
311
34342D334545352D343731342D423136422D3344463634374436463438302F636E782E786D6CD593BB6E032110457F05D146FBF24BB1C5622945BE20455A16C636360B2B1E51FCF7196CECB87191320D5ADDB9DC3B3A62D9F67B34E40B7CD0CEF6B4AB5B4AC04AA7B4DDF734C55DF54AC99633EF5C7CB05162C5083DCD32E5
311
6CEF5D9A8AA460279289A81A6D4F45F4105CF21202CAF926314E0A830160AB84228C0328058ADC8DF8B5038FABA0389C493C00797FFB246E38828C81353985B326777096CFD2F460A2441A11424F833CC0286A91A253104EB51251D45D7DEB7AB2D36F12C9176E95C96B92CB7B9A4FCACB463572640D0E390BD123BD628AE7
311
092817D364B41411213717E3D5C359D236AE16C5AB11BC4777B79A2F161876997116F508C5213D88088AF259DBCDAB7655CDBA8F6EBD69D79BE5ECA55D6EE62D6BB29DB3C139532E610C783711E96C041B29EF5893C7CFF0151F51DA236BE7CF7F0089004AEB95CE3DE33FF3692EEF1B7179FC0BF80F504B03041400060808
311
003A99D542A900DDD9A605000081100000340000006662782F43334535444534342D334545352D343731342D423136422D3344463634374436463438302F6F626A656374732E786D6CAD57D96EDB3814FD1541F332F320D9F29238034585633785D1A62D6AB4980703062D510A27D402924A9DF9FA3994285972EDD433E88B
311
162E97F79E7BEE42FFCD3EE5D6331592E5D9ADEDB943DBA25998472C4B6EED52C5CECCB6DE04BEC873D559665B1949E9ADAD87EDC04F445E166628A23129B93A1ABDBFFBCB9221CDA86D859C48796BCBF091A6C425A5CA232A9FDC8828E226F1DEF5DC7A615F6C2248F17824B42082660A9A623C8314AB56CAEBFF0EED41E0
311
0FF47CE0EBA759353EBF6A50D9D33F9F6552912CFCE1B02331636FB27C3B9ADE38D3C964EC4CAE469E73777FB774BCEBF17071B558DCCCDFDEE060A90424194D048DEDE01DB0112CF407F554E0972C53E39159621C3410F499694FD9C1C8F2FC41BDA6B5CE18794AFD30CF321A5658018DCA3E233AA205CD22F89C5109CD3A
311
080DFBBF9EC6B1333DD6FFE6C8EEF065087477740435BA37EFAEA6F9EE6F98202F6190905433B0C6D2185A737578407897E7DCCC3169A54451C108B738DB09225EEC004BF592C0EF89D14C163A1AB40576002FD4D37DBA208C7ECEF3535AC625E79AC6765045C116B14295AC3463FF5071D0BE8B0C7482AF341B66C620F552
311
503BB8A929323B62530DA4157392C0E53053EF1C8F8E0C5DE8385D2DEDE0FDFD6EBFD6B17BFAF042E405154AD307D46A1CD7BC354A4627EF22CFE90DF6912A0750BE00F98F08F5832AF09B60FBC97E624E51826432CE450ADF5843CB19E231B4BCEAA9BF3B5FFEA0DDDCF7DE393CE16C0DD52FC0B36F43D7971D3803FF1984
311
CFC5D898B60E0947DA78601900D224B1788E21E4E178B7B78315B21CB23276111E783019EA3EE3D31F18314814D5499D77062C8FD2E205091AB0558C841A35F98D82073FFD90CEAA83CDB273F04E7F095DE7CBF5FB75296212D20713D34B1AB38C2994B8036FBA0AF530EF59F4445FBEE72282A13FE2BDEEE29D9AA324D0D6
311
986BE09326A7EB9FC3C9BD0342EC4B729D6EFC9F9C00237461EDC87F6032A49C938CE66573EEABF50365A3865807BB66725B600E8505A4A9678E6210453A14ACD020B6D5AA4D9AEE19EBBEAE3E82917670F7F281BC74B3D7EE907BC39CE762BB7BD9D669E924D4DFFADC36180CB414D0BD0A9226FE0DE8DB88C5712991044F
311
E0FA6DB5E8FA4EA705A488466A1D2D13D88FE022C290B6918B6A2D082A699E6D19EA26E2EEE4015DF980D430A012784E634979BC659C97E936661CD5689B92E20C1CFF5FFF5D99165B92E665A6CEC8EEA98EEAD0D7BDC75EF99DA8F0D10ED6D5DBB943EE8D6874860CBA969CC0AAE7DAE9F5F8663A9ACE9CF9DBE5C299CCBC
311
2BE7663C9F39D7F7CBE9E26E38BDBE1AC374A351D544057E536ABA110D2FA1B4F9A560C67D5F57881F9304ECE08128B979578767F3FEBA72D10BFB03EC41BD6C37CEA367F47D34FAB980C3CA93825669C1694A3345740C3DE80FFE85A0CFE829538FAF5292D00BA47C7AB73E32062317ECFBACE39D7E3FDA6B46173A204F0A
311
518F65BACB08E3471B931A49B7C812835FE393F65D179AE657FF19C7A03395396711F2606425344FA94236BCA00889944A50AFDBD347E6EE71C1EEE7BA435464C769A3C9234193CC25C202242F43D51FB77E4353A7FBAA5B1BE5D67DC2C3640ADB02676E6D34E98A8554BA3B1468DD0A55C2C1A56E270FCE922CE1E8B5EB4D
311
ED7FBB4B63D32BC9ED924BFA2763579DC28D01482305FA063444F04EA54CE057BA99F9F03F19DEA8631185CF5DA95A5B0E03AD31D53108D1DA28735B4013F3648EDE23505F37CB73AB353D442EBA65BD4A825AAAA38848AA9B82D6CFA8345F7E1EA043B1569FAC8297097C79B924475090B9D4010E16811546664114A8BAF8
311
73F359E4B8C9A6D63D0305ACDFF7B3AB3F368B3C4DF3AC1EDACCCD7DD85A3FE2761B6D901CA8BE96C8CD68E88D36D575C0DC50B63B22A94B22F984017856B016E89EFBC1CBFACE883A544FB4EB06DA15470C5D2D2D53D826106AE8D2CDAD1A1C341E19B51043FA4AA923A6BBA078F54630A8964205815E3EF817504B030414
311
00060800003A99D542000000000000000000000000350000006662782F43334535444534342D334545352D343731342D423136422D3344463634374436463438302F76657274696365732E62696E504B03041400060808003A99D542F270F1330600000004000000360000006662782F43334535444534342D334545352D34
311
3731342D423136422D3344463634374436463438302F747269616E676C65732E62696E636660600000504B03041400060800003A99D542000000000000000000000000370000006662782F43334535444534342D334545352D343731342D423136422D3344463634374436463438302F617474726962757465732E62696E50
311
4B03041400060808003A99D542D5987DFC8F00000041010000360000006662782F43334535444534342D334545352D343731342D423136422D3344463634374436463438302F6469726563746F72792E786D6C858F410EC2201045AF4266AF15DDB800BA74E7C21B903225242D6328188F2FA5C4183471359997F9FF81E89F
311
F3C41E1816475E02DF1F80A11FC8386F25A438EECEC07A250251FC3803E6F58C12560C4AD840E95E91C151A72936F496F35732D860FE635F62C8F2DA16B505C545B74125BAA2FA9E05D7CC053D063734D5C7665FD55B6B8D15D5E9BFEAFD8490FFA45E504B03041400060808003A99D542D3D41B61FD000000A00100003B00
311
00006662782F43334535444534342D334545352D343731342D423136422D3344463634374436463438302F7265736F75726365732F636F72652E786D6C8D50596E833010BD0A9ADF0AB05992808C234873835EC032136225D8C84BD5E3D7042AB57FFD9919BD45F3F4D8F96B7E269F689D32BA039A1148504B332A3D7510FC
311
2D3D4172E6CC1AE37FC920D162C60E5618389BAC09CB0E49A33D6A1F516D46DC41E11C7A48E4331E1D3879C7596422F8A8708F6C11F22126CC6816E9A8E3CC791B0324DB937502B7E84CB0121DCB3796B310D4B86BD4187FAA9B420BBCEE8BEA7DE84FE9500E97B422873E1D0A1AC7B1AA8ED7A62E2FD781E5AB9933AFE69F
311
8CD2A2F038022F082D5372480BFA419B96346D5DBC91BA2D09CB57F91F5358C67F9A82D2BE2CF6B89BCD01A731C88BE02C5FFB8AEB5566DC6BB7FC1B504B010214000A00000800003A99D5423DEE336E79000000790000001B00000000000000000000000000000000006175746F6465736B2D64657369676E2D7061636B61
311
67652E786D6C504B010214001400060808003A99D542D486FD9CA0000000F40000001300000000000000000000000000B20000005B436F6E74656E745F54797065735D2E786D6C504B010214001400060808003A99D542C07F35F9EB0000007C010000080000000000000000000000000083010000636F72652E786D6C504B
311
010214001400060808003A99D54255019EA25F0000007C000000070000000000000000000000000094020000636E782E786D6C504B010214001400060808003A99D542E7CE8E9466010000020300000C00000000000000000000000000180300006662782F636F72652E786D6C504B010214001400060808003A99D5427968
311
47687D0000009D0000000B00000000000000000000000000A80400006662782F636E782E786D6C504B010214001400060808003A99D5426D6EF64D2D0100001402000031000000000000000000000000004E0500006662782F43334535444534342D334545352D343731342D423136422D3344463634374436463438302F63
311
6F72652E786D6C504B010214001400060808003A99D5429038075E4E010000330300003000000000000000000000000000CA0600006662782F43334535444534342D334545352D343731342D423136422D3344463634374436463438302F636E782E786D6C504B010214001400060808003A99D542A900DDD9A60500008110
311
00003400000000000000000000000000660800006662782F43334535444534342D334545352D343731342D423136422D3344463634374436463438302F6F626A656374732E786D6C504B010214001400060800003A99D54200000000000000000000000035000000000000000000000000005E0E00006662782F4333453544
311
4534342D334545352D343731342D423136422D3344463634374436463438302F76657274696365732E62696E504B010214001400060808003A99D542F270F13306000000040000003600000000000000000000000000B10E00006662782F43334535444534342D334545352D343731342D423136422D334446363437443646
311
3438302F747269616E676C65732E62696E504B010214001400060800003A99D54200000000000000000000000037000000000000000000000000000B0F00006662782F43334535444534342D334545352D343731342D423136422D3344463634374436463438302F617474726962757465732E62696E504B01021400140006
311
0808003A99D542D5987DFC8F000000410100003600000000000000000000000000600F00006662782F43334535444534342D334545352D343731342D423136422D3344463634374436463438302F6469726563746F72792E786D6C504B010214001400060808003A99D542D3D41B61FD000000A00100003B00000000000000
311
000000000000431000006662782F43334535444534342D334545352D343731342D423136422D3344463634374436463438302F7265736F75726365732F636F72652E786D6C504B0506000000000E000E0080040000991100000000
310
504B03040A00000800003A99D5423DEE336E79000000790000001B0000006175746F6465736B2D64657369676E2D7061636B6167652E786D6C3C3F786D6C2076657273696F6E3D22312E302220656E636F64696E673D227574662D3822203F3E3C666F726D6174733E3C666F726D61743E687474703A2F2F736368656D612E
310
6175746F6465736B2E636F6D2F64657369676E2D7061636B6167652F323030393C2F666F726D61743E3C2F666F726D6174733E504B03041400060808003A99D542D486FD9CA0000000F4000000130000005B436F6E74656E745F54797065735D2E786D6C7D8EC10E82300C865F65E91D8A1E8C310C0EEA1BF002731658846E
310
D98AC1B77784ABF1D8FE5FBFBF75BBCE937A534CCEB38643598122B6FEE978D0B0485F9C41B54DDD7D022595594E1A469170414C76A4D9A4D207E29CF43ECE46F218070CC6BECC4078ACAA135ACF422C856C0E68EA1BF5669944DDD7BCDE7B1F8E415D77AECB980613C2E4AC91FC167A2B244592486606FC29C8FD7F045B9A
310
EF7053A7E60B504B03041400060808003A99D542D3CE9297EC0000007C01000008000000636F72652E786D6C8D904D6EC3201085AF82D856D8FCD8AE636122B7714FD00B20200E4A0C9681AAC72F4E1CA9DD7535A337EF9B193D7EFC9E6FE0CBACC17AD7435260088C535E5B37F530C5336A21380ABE7A1F7FD9207072363D
310
DC6428F8B4FAB4EC92F22E1A17B3EABC36BB284330110275CB4D0F83BA98591632C5EC08D76291EA2A2753906797E194AC068F2356E77DF66CCD0A45737A1FDB66AC10791B1B549DAA11B5EC8322DA8C351B6A32BCB281971B2C78B4F3F3BE5A8D8C4643413161083788924F72E8F0A1ABE90BAE3B8679B9D9FF4069D1FF84
310
927591D1FDDD0716A020F991FB40F072CB22977B50B96EB9891F504B03041400060808003A99D54255019EA25F0000007C00000007000000636E782E786D6C4DCB3B0E80201045D1AD90E915ED2CF8AC45050C11660C8261F98AB1B07AC9C97D42D718D865D3E909258CFD00CCE24AC6E326A164D74DC0B4128928FF326038
310
472BA13128B1252AC747C6BAB984FC68F0B87FE8960A5C09FE86CFB69FBA01504B03041400060808003A99D542EBCAE6AC68010000020300000C0000006662782F636F72652E786D6C8D525B6E833010BC8AE5DF0A8C7935898CA3B4A127E8051C70280AD8C8D828C7EFF28868AA288A908C35B3B33B3BC0F6D7B64183347D
310
AD5586A91F602455A1CB5A551976F6EC6D30DA7366B4B67FCA3052A295191E61CC5965B4EB16A8D0CA4A650155BA940B28FA5E5A8C8A062E19EE8B1FD90A5F380B15FDC5EF44711195F4A90F34D471D65B0306D03C643C313F9FAE8CCC3867CED5E5C2D6254CABCFB53498A7C7CF7C93E6B1473FF2D48B8F71EE6DA2AFD00B
310
D33C890E093DBC470746463167B66E6FEE0A23859525E66140232F48BD907ED3ED2ED8EE92F02D487651C0C8587E27725DF9A2C8D5CA46E1627796F59853303211FFB685882CEAC5007E0867640C115E53C2F741432010B215A7E6B6C705A04116569B189852BB951A44E3244C0DD0F43032B3D0796A009B3DEC133EE9F3BC
310
077C40A12AB0262C5C4FCE8ED3D93C7589A293C61BEC15296D5AD1ACE6668BEBB90E7A282F74A3CD2B6AB2AC4A9630C9F8F7F25F504B03041400060808003A99D5427F17C6627D0000009D0000000B0000006662782F636E782E786D6C4DCCD10AC2201805E05791FFDEB62C44C1396CE97B8CE686E47498468F9F8B5D7475
310
0E1F8723FACFEAD1DBA6978BA183F3A90564C3234E2E2C1D943C6306A89722C598FF6680C2B8DA0E7606299614CB76D064E7B1F85CD5BBF03C90DF554B6F74C0A6167CD5CC607E510A133218C20DD35A5368A4687E4F35F763F905504B03041400060808003A99D54248AECD8C2B01000014020000310000006662782F3944
310
4130364236432D464441302D344538462D393341412D3232434632394638454545362F636F72652E786D6C8D515B6EC32010BC8AC557AA0A1BB063D911264A53FB04BD000192A0C460F1A872FCE2DA91DABFFCB068766676B44BF78FF19E7D2BE7B5351DC039029932C24A6D2E1D88E10C1B90ED1975D6863F3490193EAA0E
310
CC3060F4E26C9C564858139409093556AA15E4DEAB0032714F9F0E78715523CF790C89E16FF9C4C58D5F548EF3D44E3C467D702940B60C995FC0DACF03AA3FEA231CD207567D33C0B63C1C2021C781B443D3F77D4D8B45C8688C5AAE722D531C7DD6CABD6A328B190D7A7CC6174EF1A0246004E112A21A12FC85DB1D6A775B
310
F28EB6BB12D162A6FF13C549BE288ADA8492AC711799070CD36269302A6D3CDD9F61D463B22E64F3BC8D57E20D3094238C1B54928A160B352D2079D6D5EAE9837569C19BDB29B1CBD5B8AE182DE61BA5F27BC054E77BB21F504B03041400060808003A99D542F69FC8495601000033030000300000006662782F3944413036
310
4236432D464441302D344538462D393341412D3232434632394638454545362F636E782E786D6CBD93CD6E022114855F85B06DE65F8D1A06932EFA045D74CBC0B552199800D3D4B7EF45D1BA71D1A4E9864CCE3D9C73F38561BBAFD1904FF0413BDBD3A6AC29012B9DD2F6BDA773DC176B4A769C79E7E29D8D122B46E86992
310
2967EFDECD539614ECC56C22AA46DB63163D04377B0901E57493182785C100B0C58C228C0328058ADC8CF8B5078FABA0389C483C0079797E236EF8001903AB520A6755EAE02C9DB9E9CE44893422849E0679805194628E4E4138964A445136E5B5EBC14E3F49245DB856CE5E9354DED374529E372A9123AB70C859881EE965
310
533C4D40B99826A3A58808B93A1B2F1ECE666DE36A91BD1AC17B7477ED6ABDC6B0F38CB3A847C80EE941445094B775D315F5AA689BD766B3AD37DB65FB542FB75DCDAA64E76C70CEE44B1803DE4D443A1BC146CA1B56A5F1237CD94794F6C8DAF9D32F402280DC7AA173CBF84B3ECDAA5B2CFE914F757EDF88CBE35FC0BF01
310
504B03041400060808003A99D542A1BA17EA640700009A1B0000340000006662782F39444130364236432D464441302D344538462D393341412D3232434632394638454545362F6F626A656374732E786D6CED59DD73A33610FF5718FAD23E189BD8CE251DC24D625F6E3CD75C6FEA5EA70F9E616490891A211849E4E2FEF5
310
5D7D80819804B7E9DB3DD8809056BBBFFDD412BC7FCAA8F388B92039BB727D6FE23A98C57942587AE5967237BA709DF761C0F35C36A6B90E4319BE72D5B01B0629CFCBC20E2578874A2A3BA3B7377F3A22C60CBB4E4C911057AE88EF71863C54CA3CC1E2C14B90445EBA7BF27CCF4C6C934D392AEE3B440BC43193C0298C33
310
A0E218A6FCF6E3C41D87C158BD0F03F56F674D07CD9AF5CF1A6BA9DB5C12262462F133963A64A683589AFAB3E587B3F9E5683E9B4D47B3F3337F74737BB31CF9EFA693C5F9627179FDE112D8DBE639B53225B8C02C01FDEDDDD00FC6EA4D2DBA45E018D771CE188E3590009516AB4B9060015B35E09BB41F7D2551E3B596B0
310
F13C53EF2D0B8DE1699B4ADFAC6140B4E8822076BB4AE2EADA942FDFFE05828B2146C90596C0AD901CB46BE1E1E0156E3809C666340CB6075D10E16448624E107528D972C4412930554D0903B3C09251CEC18194A324D09A33AFDBB6059EF9BAEB1CE3725752AA3CC30DB56345E07E580ACD19F91BF303F74D64802790B624
310
4C5E582EE5BEC06E78198CF56018A8CBF4CCBE34403A3B8A52A111316F3B822E94EBAF966EF8E976FBB456E1E0F8E605CF0BCCA5323AA547CD1718B2BD2A94ECB6FE20CDA905208C01D5AE3C80F21B20FF19A2C78115D01B274FB3A7999D2B39626297F30C74E34C9CD104FE268EAFFFD57DE32E18D78BDBDAEBC313DC5441
310
75F1DFF16CCBA0B1B2FC37E00C834730F89C4FEDAB758C28D8F31D610090321287E63004A17DB77D72C315044E08F4B00AD1D0079181DD47B80DC696CC412B957B59AF6380A8DD633A4449009BB64860A3474F1F217B70121FD4D414B10FDEF99B98EBF572FD695DF21D8AF19DF5E925DE11462464CDE30CB5306F49F480F7
310
DF729E80A0CFF15E37F1CEEC5602D056982BE0D30A04F570D8B9B5410CEBD25C859BE0951D400895AB1BF4EF888831A588E1BCACF6ADA39B32D4DAE36DCDE0866706E2E959C784397E24AAAA00A739CC68310A793FE6A45020BAE14723591D34BD1EE9BEAE3E8345D6F37B66AD18845E86E8EF3A681DC1A165D915D216885A
310
E0ED219CC739CD79B4DD4726D2B9504B001B6D6FF9A3451462BD5192A2021EA4FDAE0A29A991364AC86E570A88AB4758FC63B5689AC3C49BFA73A7F9DF71C619445BF05DC4ADDF75F6884886521CED50D2B75D73B79AB6D0247B4873BCA320177924721F21194D129C9E02CD49C42FDF947A4A732108C302F2D551F09B684C
310
3C0824469B15CB4AAB1DA08988322C113D050145A6075C9D76748D1B43E9F03A8FB5F5BEA4B126D1FFC92238825A32671181521472C8AB8CFBDE1C62481B5D8372075FB0B68AB61683965042C4FBE81B26E9BD3C057543BE07F7188E24A58CF202C560D603C83EF315A5D40EEF5B143FA8FC11C5257D2B031198EE22426999
310
45F0230C4E1E435CBB0E4C2FA2D0206E629FC419146548967CC826E7F3C9B37D4CCDD00D818D8D768442D88E3254F4A0DE0A88BA1E716AF02DF51EA56ECBAC885096976C90A178D3AE3759F25DB52AB203F955A522948D15614B300C08937556AD623698BA0EACE0463A50ED2381B2829A53D82B89C7AFBD4953EEDD805B3F
310
7DDB0D3228FC7AB4D78CA8B30A06CB63AB3010DF908CEFDD70ADAFA31BA8BF139C1C527D556B362B40404C45F29213ABA2AF2B286F6C8DE68677488ACD479375ABEBD79507DD8F600C6BA076A917AE14D0196612A9CAE44EDDD0DF1084E0160D33BE5239F5142AD749A2AB46446F499F3A5B65446BD38C78C53D6679063FB6
310
212CA665823728110FD19DA4D19A28D6AD945E462A8C5F14F0D78FEB0E3C303240A42FAAC0C3DF3A6BEDE842954B4789C8FB32DB32442008B6444B8D6EBC82A556239596EBAB3A5340DD050666553CFB7EB268B623BE9F2C526B18FFE96471B3FF05ED9B7D91463A8F955D9F740CA8F393A2F216C700DD76A8A9D659C42473
310
2BBF75A608826215E507576355D03004FB38FED759BB2F0B9AED3AFC9F96B5FD6715C74959A5355975A98E54AEAB660E9BBF9B5ECECFE617A3EB0FCBC56876E19F8F2EA7D717A377B7CBF9E266327F773E5DD4686A470D833A98E9DC05CF26A855C3EAC962005D59915392C0693E71520C315FC2997E40FB9C675840F26C36
310
BB13DB941FB0FAD1F43925DA525C71728FA0414C05A475C0A88C657BDCF9015A93120EDA572E348DBC07F8B356E93A9079AE5C6815481263E16DA1CDA41A7A9A38A45C9DFB2D31C007B154A544B3A87EAE57296C5AE1BF9E32240D58B95A3D0C28DC0AE87EB53A149A37CB537C92E0153B0E9270BB2D25546B4696C3402D8C
310
DEE6A07E231B25ECC16EFD04AEFBB258BEA7E7B41019F4C9E0452330544712F154F7BB156396A5EBE59731F4D99CD5AF4E41CB1474399CD2886330E6521554604560159666812498EAE2E7CD179EC3279ECCD15591F3E3D3C5F94F9B459E653933439B6B389525F0A1C859DFC3679F6403C50356CD75B1399BF8671BDDD4B6
310
7DF6688B04F6545504035531A104E9981CD8E5B306956D5F8E952A3AD3574BC706516806183B7AD6E3351FB91CF021F53945798CF6F34ADA17FBDA633D156C8243473AFC07504B03041400060800003A99D542000000000000000000000000350000006662782F39444130364236432D464441302D344538462D393341412D
310
3232434632394638454545362F76657274696365732E62696E504B03041400060808003A99D542F270F1330600000004000000360000006662782F39444130364236432D464441302D344538462D393341412D3232434632394638454545362F747269616E676C65732E62696E636660600000504B03041400060800003A99
310
D542000000000000000000000000370000006662782F39444130364236432D464441302D344538462D393341412D3232434632394638454545362F617474726962757465732E62696E504B03041400060808003A99D542D5987DFC8F00000041010000360000006662782F39444130364236432D464441302D344538462D39
310
3341412D3232434632394638454545362F6469726563746F72792E786D6C858F410EC2201045AF4266AF15DDB800BA74E7C21B903225242D6328188F2FA5C4183471359997F9FF81E89FF3C41E1816475E02DF1F80A11FC8386F25A438EECEC07A250251FC3803E6F58C12560C4AD840E95E91C151A72936F496F35732D860
310
FE635F62C8F2DA16B505C545B74125BAA2FA9E05D7CC053D063734D5C7665FD55B6B8D15D5E9BFEAFD8490FFA45E504B03041400060808003A99D5420CA0582FFE000000A00100003B0000006662782F39444130364236432D464441302D344538462D393341412D3232434632394638454545362F7265736F75726365732F
310
636F72652E786D6C8D504B6E833010BD0A9A6D65C038D0041947B4A127E8052C33A156828DFCA97AFC9A40A576D7CDCCE87D344F8F9FBFE67BF689CE6B6B3AA07909191A65476DA60E62B892236467C19DB5E1970C322367EC608541F0C9D9B8EC90B226A009093576C41D94DE63804CDDD3D181571F38CB5CC69014FE962F
310
52DDE48439CD139D7482FBE052806C7BB24E100EBD8D4EA1E7C5C60A1EA31E778D1ED34F7DD5E8403497D7E1D80C8CD097A12187CB612047F65691AA196AD6D7B47F663D2F56B3E041CF3F19954319700451959491B221157DA7A7B63CB575F554D62D2B79B1CAFF98E232FED314B509ACDAE36E360F82A6200F42F062ED2B
310
AD479969AFDD8A6F504B010214000A00000800003A99D5423DEE336E79000000790000001B00000000000000000000000000000000006175746F6465736B2D64657369676E2D7061636B6167652E786D6C504B010214001400060808003A99D542D486FD9CA0000000F40000001300000000000000000000000000B2000000
310
5B436F6E74656E745F54797065735D2E786D6C504B010214001400060808003A99D542D3CE9297EC0000007C010000080000000000000000000000000083010000636F72652E786D6C504B010214001400060808003A99D54255019EA25F0000007C000000070000000000000000000000000095020000636E782E786D6C50
310
4B010214001400060808003A99D542EBCAE6AC68010000020300000C00000000000000000000000000190300006662782F636F72652E786D6C504B010214001400060808003A99D5427F17C6627D0000009D0000000B00000000000000000000000000AB0400006662782F636E782E786D6C504B010214001400060808003A
310
99D54248AECD8C2B010000140200003100000000000000000000000000510500006662782F39444130364236432D464441302D344538462D393341412D3232434632394638454545362F636F72652E786D6C504B010214001400060808003A99D542F69FC84956010000330300003000000000000000000000000000CB0600
310
006662782F39444130364236432D464441302D344538462D393341412D3232434632394638454545362F636E782E786D6C504B010214001400060808003A99D542A1BA17EA640700009A1B000034000000000000000000000000006F0800006662782F39444130364236432D464441302D344538462D393341412D32324346
310
32394638454545362F6F626A656374732E786D6C504B010214001400060800003A99D5420000000000000000000000003500000000000000000000000000251000006662782F39444130364236432D464441302D344538462D393341412D3232434632394638454545362F76657274696365732E62696E504B010214001400
310
060808003A99D542F270F13306000000040000003600000000000000000000000000781000006662782F39444130364236432D464441302D344538462D393341412D3232434632394638454545362F747269616E676C65732E62696E504B010214001400060800003A99D54200000000000000000000000037000000000000
310
00000000000000D21000006662782F39444130364236432D464441302D344538462D393341412D3232434632394638454545362F617474726962757465732E62696E504B010214001400060808003A99D542D5987DFC8F000000410100003600000000000000000000000000271100006662782F39444130364236432D4644
310
41302D344538462D393341412D3232434632394638454545362F6469726563746F72792E786D6C504B010214001400060808003A99D5420CA0582FFE000000A00100003B000000000000000000000000000A1200006662782F39444130364236432D464441302D344538462D393341412D3232434632394638454545362F72
310
65736F75726365732F636F72652E786D6C504B0506000000000E000E0080040000611300000000
  0
XRECORD
  5
17
102
{ACAD_REACTORS
330
12
102
}
330
12
100
AcDbXrecord
280
     1
270
     1
271
     1
  0
XRECORD
  5
16
102
{ACAD_REACTORS
330
12
102
}
330
12
100
AcDbXrecord
280
     1
270
     1
271
     1
  0
XRECORD
  5
18
102
{ACAD_REACTORS
330
12
102
}
330
12
100
AcDbXrecord
280
     1
270
     1
271
     1
  0
XRECORD
  5
15
102
{ACAD_REACTORS
330
12
102
}
330
12
100
AcDbXrecord
280
     1
270
     1
271
     1
  0
XRECORD
  5
24
102
{ACAD_REACTORS
330
22
102
}
330
22
100
AcDbXrecord
280
     1
270
     1
271
     1
  0
XRECORD
  5
23
102
{ACAD_REACTORS
330
22
102
}
330
22
100
AcDbXrecord
280
     1
270
     1
271
     1
  0
XRECORD
  5
BA
102
{ACAD_REACTORS
330
22
102
}
330
22
100
AcDbXrecord
280
     1
 70
     1
 90
1959938040
 71
     1
  1
4F885E5A-328D-4636-AACF-B749C42FF7BC
311
504B03040A00000800003899D5423DEE336E79000000790000001B0000006175746F6465736B2D64657369676E2D7061636B6167652E786D6C3C3F786D6C2076657273696F6E3D22312E302220656E636F64696E673D227574662D3822203F3E3C666F726D6174733E3C666F726D61743E687474703A2F2F736368656D612E
311
6175746F6465736B2E636F6D2F64657369676E2D7061636B6167652F323030393C2F666F726D61743E3C2F666F726D6174733E504B03041400060808003899D542D486FD9CA0000000F4000000130000005B436F6E74656E745F54797065735D2E786D6C7D8EC10E82300C865F65E91D8A1E8C310C0EEA1BF002731658846E
311
D98AC1B77784ABF1D8FE5FBFBF75BBCE937A534CCEB38643598122B6FEE978D0B0485F9C41B54DDD7D022595594E1A469170414C76A4D9A4D207E29CF43ECE46F218070CC6BECC4078ACAA135ACF422C856C0E68EA1BF5669944DDD7BCDE7B1F8E415D77AECB980613C2E4AC91FC167A2B244592486606FC29C8FD7F045B9A
311
EF7053A7E60B504B03041400060808003899D542201EB8B2EA0000007C01000008000000636F72652E786D6C8D904D6EC3201085AF82D856D88071145B98A83FF6097A0104C44189C13250F5F885C491DA5D57337AF3BE99D1E3A7EFE506BECC16AC7703241586C038E5B575F300533CA3230427C137EFE32F1B044E2E6680
311
458682CF9B4FEB2E29EFA27131ABCE6BB38B3204132150B7DC0C30A88B59642553CC8E70AD56A9AE7236157976194EC96AF0386275DE67CFD66C50B4848DC7F69D214C9B57C426465137B137443F4632B5C7C34446C2EB020B1EEDF2BCAF3623A3D150504C1A840F88924FD2F5B8EB59F782DBBEC1BC2EF63F505AF53FA164
311
5D6CE8FEEE030B509447EE03C1EB92452EF7A0722DB9891F504B03041400060808003899D54255019EA25F0000007C00000007000000636E782E786D6C4DCB3B0E80201045D1AD90E915ED2CF8AC45050C11660C8261F98AB1B07AC9C97D42D718D865D3E909258CFD00CCE24AC6E326A164D74DC0B4128928FF326038472B
311
A13128B1252AC747C6BAB984FC68F0B87FE8960A5C09FE86CFB69FBA01504B03041400060808003899D5426D40728267010000020300000C0000006662782F636F72652E786D6C8D52ED8E8320107C15C2DF0B227E346D8334F7519FE05E802AF54C150C82E9E3DFFAD178BD344D63826466677776941FAE6D830665FBDAE8
311
0CB320C448E9C294B5AE32ECDD996C313A086E8D717FCA30D2B255191E612C78658DEF16A830DA29ED00D5A6540B28FB5E398C8A062E19EE8B1FD5CA407A0715FD25E8647191950A580034D409DE3B0B06D03C643CB1389FAE9CCEB8E0DED7E5C2D6254CABCFB5B258A42C396ED3CF848451FC4E923C89C82E4F3E48F47564
311
79BADDE4ECC8381DC582BBBABDB92BAC924E955844218B49B82111FB66BB7DB8DB27BBB730DDC721A763F99DC877E58B225F6B17478BDD59D663311A99887FDB42440EF572003F54703A8608AF29E1FBA0211008D9C95373DBE302D0A00A676C024C69FC4A0DB2F10AA686687A389D59E83C3580CD1EF6899EF479DE033EA0
311
D41558930EAE27EFC6E97C9EBA44D1294B067745DAD85636ABB9D9E27AAE831ECA0BD318FB8A9A2EABD2254C3AFEBDE217504B03041400060808003899D542C0ECF8B97D0000009D0000000B0000006662782F636E782E786D6C4DCCD10AC2201886E15B91FFDCA63172823A7EACDDC7686E484EC334BAFCB6D841471F3C7C
311
BCAAFFAC81BC5D7EF91435F01303E2E23D4D3E2E1A6A996907A4372AA754FE6E40E2B83A0D3B83514B4EF579D0E4E6B186B269F0F17120220AC60741ED0591B69D442AED6DA067CB45CBAE5220B7D018D5FC4ADBEE61F305504B03041400060808003899D542E80C51932D01000014020000310000006662782F4141413730
311
3146372D433641412D343839412D394345462D3243313734304439374131432F636F72652E786D6C8D515B6EC32010BC8AC557AACA36388E1D224C64B9CD097A0107488A1283C5A3CAF1BBD4AED4FEE58745B333B3A35D767C4CF7EC4B39AFADE9102930CA9411566A73ED500C977C8FB22367CEDAF0878632334EAA430946
311
9C5D9D8DF30A096B8232015063A55AC1D17B155026EEF0E990179F6A1A8B310660F85B318FE2365E55410A68038F331F1C04C89621E945BCEFFB1693539B0F4DDFE7F59EF6391DDE4F793590B6C66FB4EDC9C0CA45C8598C5AAE722D218EBE68E59E354962CE829E7EE30BA7C6A024E21526DB1C3779453E083D607AA8E92B
311
DE1DB6989589FE4F1467F9A4286A13B6D51A779179C4092B970667D2C6F3FD378C7ACCD6852CCDDB78255E10C7052684564DBD63E5428505806753AF9E3E58070BDEDCCEC026C04AC64DCD59996E04E5E78050D33DF937504B03041400060808003899D5429A173F814E01000033030000300000006662782F414141373031
311
46372D433641412D343839412D394345462D3243313734304439374131432F636E782E786D6CD593CD6E022114855F85B06DE64FA7A61A06932EFA045D74CBC055A90C4CF869EADBF7A268DDB8E8B21B3239F770CECD17866DBF2743BEC007EDEC40BBBAA504AC744ADBFD4053DC552F946C39F3CEC53B1B25564C30D02C53
311
CEF6DEA5B9480A76229988AAD1F658440FC1252F21A09C6F12E3A4301800B64A28C2348252A0C8CD885F3BF0B80A8AE389C40390B7D70FE2C64F9031B026A770D6E40ECEF2599AEE4C944823421868900798442D52740AC2B156228ABAABAF5D0F76FA4D22F9C2B532794D72F940F34979D9A8468EACC12167217AA4574CF1
311
3403E5629E8D962222E4E66CBC78384BDAC6555FBC1AC17B7477AB65DF63D879C659D4131487F4202228CA176DB7ACDA55B5E8DEBBF5A65D6FFAF553FBBC59B6ACC976CE46E74CB98431E0DD4CA4B3116CA4BC634D1E3FC2577C44698FAC9D3FFD01240228AD173AB78CFFCCA739BF6FC4E5F12FE03F504B03041400060808
311
003899D5424F80BD9EA405000080100000340000006662782F41414137303146372D433641412D343839412D394345462D3243313734304439374131432F6F626A656374732E786D6CAD57DB6EDB3810FD1541FBB2FBE0BB933A0B458563D78551A42D6AB4D807030625510A3794289054EAECD7EFA144C9926327DE455F2C
311
8B1A0E67CE9CB9D07BBF4FB9F344A56222BB7547FDA1EBD02C1411CB925BB7D0716FE63AEF7D4F0AA15B62AE939194DEBA66D9F5BD448A22B74B118D49C1F5D1EAEAEE2F478534A3AE1372A2D4ADABC2079A923E29B488A87AEC4744937E12EFFBA37E25D8559B48923F1C29CD89A49986A558CFA0C5A98C1A755F87EEC0F7
311
06E6BBEF995F2B35392F3528FDE99ECF32A54916BE38EC48CD64345D7E185FDDF4AEA6D3496F7A3D1EF5EE5677CBDEE8DD64B8B85E2C6EE61F6E70B0D2129AAC2592C6AEFF11D848167A83EA93EF152CD393B115B1011A48FAC44CA45C7FEC8CBC4125D378679D3C657E28B28C86255640A3F4CFAA8E684EB308316754C1B2
311
1642C3EEEBC8E0D8FA3C31EFF6C8F6F26508B477B414D5B6D7CFB6A522F81B2EA84B182415350CACB0B48E565C1D1E100E84E0F61B534E4A34958C7087B34012F9ECFA103522BED75163982C4D36180F5C1F51A83E77E982347A9BE7A7AC8C0BCE0D8D5DBFCC821D72856A555AC6FEA1F2607D1B19D884581936CCAC43FA39
311
A7AE7F53516476C4A60A4827E62441C8E1A6D939191F39BA3079BA5EBAFEA755B0DF98DC3D7D782E454EA536F401B5EAC0D54F8392B5697451E4CC06F7C8940328DF80FC67A4FAC114C44DB2FD743FB5A7684932150B992236CED0E90DF1337446E5AFF9DFFAE70D9ACDDDE89DC313C13650FD023CBB3EB463D982D3F79E40
311
782127D6B54D4838CAC63DCB00902189C305965087E360EFFA6B54395465EC22DC1FC16598FB84BFDEC0AA41A1284F6A3D33607954162F28D080AD6424CCA8C86F0D3CC4E945392B0FB662E7E0BDFA25749D2F379F36858C4948EF6D4E2F69CC32A6D1E20EBC691BD4C1BCE3D1237DFE296404475FE2BD69E39DDAA314D036
311
981BE093BAA69B97C3C99D0342EC4B842937DE1B27C009D3585BFAEF990A29E724A3A2A8CF7DB57FA06D54109B64374C6E1ACCA1B18034D597A31C44930E25CB0D884DB76A8A66FF8C77DFD79FC148C87311107E100A0EA537145CC85DF0BCABAAD249A47F74A96D2118182D607B992375FA5BCC77118BE342A1069E80F5C7
311
7AD10E9DA90AA810B5D62A59A6701FB945A4E56CAD17CD5A12345291ED18DA26D2EEE4016DFD40D412A05478CE624579BC639C17E92E661CCD689792FC0C1CFFDFFEA048F31D494591E933BA3BA6A339746DEF9057FD243A7C70FD4DF9ECDDA1F446343A84B9236C5AC909AC3AA19DAE66B3AB0F57F3DE643C5B627C9A5CF7
311
E6F3C5AA77F76E7AB3988E57AB777770DD5A54CE50BE57779A7642234AE86C5E21990DDFF735D2C7D600D7BF275A6D3F56D9593FBFAFFB1885BD01F6A05D361BE7D113C63E1ABDADE0207952D13ACD394D69A68949A17BF3877F2318333AC654EBEB9424F4022D5F3E6E8E9CC1CA05FBBE9A74A73F8FF6DAD58549C8934AF4
311
4391061961FC68635221D9CFB3C4E257C7A479567DA67E356F3630184C95E02C42198C9C848A946A14C30B7A904CA902F5DA237D64AF1E17EC7EAA06444D024E6B4B1E086664AE9016E06D11EAEEBAF31B663A3356DDBAE8B6FD47FCD84AE13AE0CCAD8B195DB390AA7E80FE6C26A15239B8D41EE4C15992251CA376B5A979
311
6F76196C3A1DB911B9647CB27E5515DC3A803292636CC03C84E894C6F85E699BFD1EFE27C76B731CA2F1372874E3CB61A171A63C06295A39652F0B98611EEDD17B24EAEB6E8DFAA54C07918B2E59AF92A0D2DAD34426E545C1D8674D9A2FBF0E30A038EB2F4ECE8B04B1BC5C534F5290B930090E16811556674E34A8BAF873
311
FB550A5C645367C54001E7F7FDECFA8FED42A4A9C8AAA5EDDC5E879DCD032EB7D116C5819A5B89DA8E87A3F1B6BC0DD80BCA2E208AF649A41EB180C84AD600DD093F78595D19D187AA0F8DDCC084E288A1EBA5631BDB144A2D5DDAB5D58083B923A30E72C8DC284DC6B405F2572F0483521426488CF2FEBF504B0304140006
311
0800003899D542000000000000000000000000350000006662782F41414137303146372D433641412D343839412D394345462D3243313734304439374131432F76657274696365732E62696E504B03041400060808003899D542F270F1330600000004000000360000006662782F41414137303146372D433641412D343839
311
412D394345462D3243313734304439374131432F747269616E676C65732E62696E636660600000504B03041400060800003899D542000000000000000000000000370000006662782F41414137303146372D433641412D343839412D394345462D3243313734304439374131432F617474726962757465732E62696E504B03
311
041400060808003899D542D5987DFC8F00000041010000360000006662782F41414137303146372D433641412D343839412D394345462D3243313734304439374131432F6469726563746F72792E786D6C858F410EC2201045AF4266AF15DDB800BA74E7C21B903225242D6328188F2FA5C4183471359997F9FF81E89FF3C4
311
1E1816475E02DF1F80A11FC8386F25A438EECEC07A250251FC3803E6F58C12560C4AD840E95E91C151A72936F496F35732D860FE635F62C8F2DA16B505C545B74125BAA2FA9E05D7CC053D063734D5C7665FD55B6B8D15D5E9BFEAFD8490FFA45E504B03041400060808003899D542FF70720AFC000000A00100003B000000
311
6662782F41414137303146372D433641412D343839412D394345462D3243313734304439374131432F7265736F75726365732F636F72652E786D6C8D50596E833010BD0A9ADFCA8059A2808CA32E70825EC032136A25D8C84BD5E3D70E546AFFFA33337A8BE6E9B1CBD77ACF3ED13A65F400342F21432DCDACF43240F05772
311
86ECC29935C6FF9241A6C58A032418385BAC09DB0149A33D6A1F516D663C40E11C7AC8E43D1E0338F981ABC845F051E16EF926E44D2C98D33CD251C799F33606C8F6276902B7E84CB0121D2B7696B310D47C68D41C7FAAAB420BBCA5CD786E5F6B5256F53369A6A622DDD4BC90EA6DA4537B3E4D74A4AC4866CEBC5A7F324A
311
8BC2E30CBC2A69F49E4845DF69D7975DDF744F65DBD7252B92FC8F296CF33F4D41695F5747DCDDE680A7200F82B322F515D7A3CCB853B7FC1B504B010214000A00000800003899D5423DEE336E79000000790000001B00000000000000000000000000000000006175746F6465736B2D64657369676E2D7061636B6167652E
311
786D6C504B010214001400060808003899D542D486FD9CA0000000F40000001300000000000000000000000000B20000005B436F6E74656E745F54797065735D2E786D6C504B010214001400060808003899D542201EB8B2EA0000007C010000080000000000000000000000000083010000636F72652E786D6C504B010214
311
001400060808003899D54255019EA25F0000007C000000070000000000000000000000000093020000636E782E786D6C504B010214001400060808003899D5426D40728267010000020300000C00000000000000000000000000170300006662782F636F72652E786D6C504B010214001400060808003899D542C0ECF8B97D
311
0000009D0000000B00000000000000000000000000A80400006662782F636E782E786D6C504B010214001400060808003899D542E80C51932D0100001402000031000000000000000000000000004E0500006662782F41414137303146372D433641412D343839412D394345462D3243313734304439374131432F636F7265
311
2E786D6C504B010214001400060808003899D5429A173F814E010000330300003000000000000000000000000000CA0600006662782F41414137303146372D433641412D343839412D394345462D3243313734304439374131432F636E782E786D6C504B010214001400060808003899D5424F80BD9EA40500008010000034
311
00000000000000000000000000660800006662782F41414137303146372D433641412D343839412D394345462D3243313734304439374131432F6F626A656374732E786D6C504B010214001400060800003899D54200000000000000000000000035000000000000000000000000005C0E00006662782F4141413730314637
311
2D433641412D343839412D394345462D3243313734304439374131432F76657274696365732E62696E504B010214001400060808003899D542F270F13306000000040000003600000000000000000000000000AF0E00006662782F41414137303146372D433641412D343839412D394345462D324331373430443937413143
311
2F747269616E676C65732E62696E504B010214001400060800003899D5420000000000000000000000003700000000000000000000000000090F00006662782F41414137303146372D433641412D343839412D394345462D3243313734304439374131432F617474726962757465732E62696E504B01021400140006080800
311
3899D542D5987DFC8F0000004101000036000000000000000000000000005E0F00006662782F41414137303146372D433641412D343839412D394345462D3243313734304439374131432F6469726563746F72792E786D6C504B010214001400060808003899D542FF70720AFC000000A00100003B00000000000000000000
311
000000411000006662782F41414137303146372D433641412D343839412D394345462D3243313734304439374131432F7265736F75726365732F636F72652E786D6C504B0506000000000E000E0080040000961100000000
310
504B03040A00000800003899D5423DEE336E79000000790000001B0000006175746F6465736B2D64657369676E2D7061636B6167652E786D6C3C3F786D6C2076657273696F6E3D22312E302220656E636F64696E673D227574662D3822203F3E3C666F726D6174733E3C666F726D61743E687474703A2F2F736368656D612E
310
6175746F6465736B2E636F6D2F64657369676E2D7061636B6167652F323030393C2F666F726D61743E3C2F666F726D6174733E504B03041400060808003899D542D486FD9CA0000000F4000000130000005B436F6E74656E745F54797065735D2E786D6C7D8EC10E82300C865F65E91D8A1E8C310C0EEA1BF002731658846E
310
D98AC1B77784ABF1D8FE5FBFBF75BBCE937A534CCEB38643598122B6FEE978D0B0485F9C41B54DDD7D022595594E1A469170414C76A4D9A4D207E29CF43ECE46F218070CC6BECC4078ACAA135ACF422C856C0E68EA1BF5669944DDD7BCDE7B1F8E415D77AECB980613C2E4AC91FC167A2B244592486606FC29C8FD7F045B9A
310
EF7053A7E60B504B03041400060808003899D542E9B3681EEC0000007C01000008000000636F72652E786D6C8D904D6EC3201085AF82D856D8801D275898287F3E412F80803828315806AA1EBF3871A476D7D58CDEBC6F66F4F8FE7B7C802F3307EB5D07498121304E796DDDD0C114AF6807C15EF0D9FBF8CB068193A3E9E0
310
2243C187D9A769959477D1B89855E7B5594519828910A8476E3A18D4CD8CB290296647B817935477399882BCBB0CA76435781DB13AEFB3576B66284E67468E3DEDD179B7A5A86EEA2D62876A832EFDB1A9F1A1BEB013E5E5020B1EEDF8BEAF6623A3D150504C2A841B44C927612D666DCD3EF0A6AD302F17FB1F284DFA9F50
310
B22E56747DF7850528487EE43910BC5CB2C8E51954AE4B6EE207504B03041400060808003899D54255019EA25F0000007C00000007000000636E782E786D6C4DCB3B0E80201045D1AD90E915ED2CF8AC45050C11660C8261F98AB1B07AC9C97D42D718D865D3E909258CFD00CCE24AC6E326A164D74DC0B4128928FF326038
310
472BA13128B1252AC747C6BAB984FC68F0B87FE8960A5C09FE86CFB69FBA01504B03041400060808003899D542AA30D4C468010000020300000C0000006662782F636F72652E786D6C8D52D96E833010FC15CBAF15982B07917194F30BFA030E38D40AD8C8D8289FDFE58868AA288A908C35B3B33B3B40B7F7BA429D30ADD4
310
2AC3A11F602454AE0BA9CA0C3B7BF5D6186D19355ADB3F6518295E8B0CF73066B434DA3513946B6585B2802A5D8809E46D2B2C467905970CB7F98FA8B9CF9D858AF6E6373CBFF152F8A10F34D431DA5A0306D038A43F31BB5EEE948C38A3CEC962626501D3E4550A83D9E19886FB7374F68EEB55E425CB64E5A5BB78E19DCE
310
FB6512EC92537A8828E9C58C5A593FDCE546702B0ACCA2208CBD60E945E177986E827493A45FC162130794F4E54F22D7141F8A9C54368E26BBA3ACC52C042303F16F5B88C8A29677E087304AFA10E13524FC1C340402215B7EA91E7BDC00EA446EB5498029B49BA98E574EC0D4000D0F25230B9D8706B0D9CB3ED19B3EEF7B
310
C007E4AA046BDCC2F5E26C3F9D8E53A7281A61BCCEDE91D2A6E6D56C6EB4389FF3A097F25C57DA7CA226D3AA640A93F47F2FFB05504B03041400060808003899D5425CECBD257E0000009D0000000B0000006662782F636E782E786D6C4DCCD10A83201886E15B91FFDCCA562E418D627A1FB12C64A6C3E9D8E5AF46073BFA
310
E0E1E3E5FD6773E86DE2CB062F80141520E3EF61B67E1590D3823B40BDE43184F47703E4A7CD083818245F63C8CF9366B34CD9A55D9DF58F13EBB1BD6A4A19269474B81949838756DD70ADD445314694AE34949297BFD2BE47587E01504B03041400060808003899D542E839381D2B01000014020000310000006662782F32
310
423537463636392D313631382D344231342D413545442D3245453345393931454630462F636F72652E786D6C8D515B6EC32010BC0AE22B55850DB643E2081335AA73825EC00192A0C460F1A872FC42ED48ED5F7E58343B333BDA65FBC77807DFCA796D4D07498121504658A9CDA583319CD116823D67CEDAF08706811946D5
310
C10C43CE2ECEC6698184354199905063A55AC0C17B152010F7F4E9A01757350EC5104362F85B310DE2365C54418AD44E3CCE7C7029009887E417F2EAB0DE1C296D11A1648B9A0369D0C7BAFF4455DFD77DDB92FE888FAC9C859CC5A8E522D732C5D167ADDCAB2659CC59D0E333BE706A084A263D2635C21455E48BB43BDCEE
310
9AF61DAF77356665A6FF13C549BE288ADA84BA5AE2CE320F3961E5DCE04CDA78BA3FC3A8C7645D0079DECA2BF106392E30A936B4DA5256CED4B480E4499BC5D307EBD28257B75362D78B316D382BF38D52F93D60AAF99EFC07504B03041400060808003899D542FCB0F0965601000033030000300000006662782F32423537
310
463636392D313631382D344231342D413545442D3245453345393931454630462F636E782E786D6CBD93CD6EC23010845FC5F2B5CA1F491120C7483DF4097AE8D5B1177049ECC83F5579FBAEC1502E1C2A55BD58D1EC7866F5C961DBAF69249FE0BCB6A6A74D595302465AA5CDBEA731EC8A15255BCE9CB5E1CE46891113F4
310
34C994B3BDB371CE92829D88634075D4E6984507DE4627C1A39C6E92D14A3162009822A208D3004A812237237EEDC0E12A280E27120E405E5FDE891D3E4006CFAA94C259953A384B676EBA33512247E17D4FBD3CC0244A118355E08FA51241944D79ED7AB0D34F124917AE95D16992CA7B9A4ECAF346257264150E39F3C121
310
BD6C0AA7192817F33C6A290242AECEC68B87B3A84D5876D9AB11BC4377BB58AE5618769E7116F404D9211D88008AF245DDB445BD2C16CD5BB3DED4EB4DB77EAA9F376DCDAA64E76CB076CC9730069C9D89B42680099437AC4AE347F8B28F28ED90B575A75F804400B9F542E796F1977C9A65DB75FFC8A73ABF6FC4E5F02FE0
310
DF504B03041400060808003899D542D3D8783F62070000991B0000340000006662782F32423537463636392D313631382D344231342D413545442D3245453345393931454630462F6F626A656374732E786D6CED59DD739B3810FF5718EEE5EEC1D8D84E9ADC106E12A7E9783A693BF5B5730F9E616490892E423092489CFB
310
EB6FF5010662127CCDBDF5C10684B4DAFDEDA796E08F5D469D07CC05C9D985EB7B13D7C12CCE13C2D20BB794DBD199EBFC11063CCF65639AEB3094E10B570DBB6190F2BC2CEC5082B7A8A4B2337A73F5972362CCB0EBC4140971E18AF80E67C843A5CC132CEEBD0449E4A5DB9DE77B66629B6CCA5171D7215A208E99044E61
310
9C0115C730E5B71F27EE380CC6EA7D18A87F3B6B3668D6BC7FD6584BDDE6923021118B9FB1D421331BC4D2CC9F5FBF9F9E9C8F4EE6F3D9687E3AF547573757D723FFDD6CB2385D2CCE2FDF9F037B9B3CA756A604179825A0BF2737F483B17A538B6E1138C4759C3386630D2440A5C5EA122458C0560DF826ED475F49D478AD
310
256C3CCFD57BCB426378D6A6D2376B18102DBA2088DDAE92B8BA36E5CB377F83E0628851728125702B2407ED5A783878851B4E82B1190D83CD5E17443819929813441D4A361C71500A4C5553C2C02CB06494737020E52809B4E6CCEBB66D8167BEEE3A87B8DC96942ACF7043ED5811B81F96427346FEC17CCF7D1319E009A4
310
2D099367964BF95460373C0FC67A300CD46536B52F0D90CE96A2546844CCDB8EA00BE5FACB6B37FC78B3D9AD543838BC79C1F30273A98C4EE951F305866CAF0A25BBAD3F48736A01086340B52BF7A07C05E43F41F4D8B3027AE36437DFCDED5CC91113DB9C67A01B67E28C26F037717CFDAFEE1B77C1B85EDCD65E1F9EE0A6
310
0AAAB31FC7B32D83C6CAF2DF80330C1EC0E0733EB3AF5631A260CFB7840140CA481C9AC31084F6ED66E7864B089C10E86115A2A10F2203BB0F701B8C2D99BD562AF7B25EC70051BBC76C889200366D91C0468F9E3E40F6E024DEABA929621FBC276F62AE97D7AB8FAB926F518C6FAD4F5FE32D614442D63CCC500BF39644F7
310
F8E931E70908FA1CEF5513EFCC6E25006D85B9023EAD40500FFB9D5B1BC4B02ECD55B8095ED9018450B9BA41FF968818538A18CECB6ADF3ABA2943AD3DDED60C6E383510CFA61D13E6F881A8AA029C663FA3C528E4FD98934281E8861F8C6475D0F47AA4FBB6FC041659CFEF99B564107A19A27FEAA0750087966557485B20
310
6A8137FB701EE734E7D1E6293291CE855A02D8687BCBF7165188F546498A0A7890F6BB2AA4A446DA2821DB6D2920AE1E60F1FB72D134878937F34F9CE67FC719E7106DC17711B77ED7D92322194A71B44549DF76CDDD6ADA4293EC21CDF196825CE481C8A708C96892E0F418688E227EFEA6D4539A0B41181690AF0E82DF44
310
63E2412031DAAC58565AED004D44946189E8310828323DE0EAB4A36BDC184A87D779ACADF7258D3589FE4F16C111D492398B0894A290435E65DCF74E2086B4D1352877F0056BAB686B3168092544FC143D6292DEC9635037E47B708FE14852CA282F500C663D80EC335F514AEDF0BE41F1BDCA1F515CD2B7321081E9362294
310
9659043FC2E0E431C4B5EBC0F4220A0DE226F6499C41518664C9876C727A3279B68FA919BA21B0B1D1965008DB51868A1ED45B0151D7234E0DBEA5DEA3D44D991511CAF2920D32146FD6F5264BBEAB56457620BFAA5484B2B1226C09860161B2CEAA55CC0653D78115DC4807AAA748A0ACA0E614F64AE2F16B6FD2947B37E0
310
D64FDF76830C0ABF1EED3523EABC82C1F2D82A0CC42392F19D1BAEF4757405F57782937DAAAF6ACD66050888A9485E726255F46D09E58DADD1DCF01649B1FE60B26E75FDB6F4A0FB118C610DD42EF5C2A5023AC34C225599DCAA1BFA1541086ED130E34B95538FA1729924BA6A44F486F4A9B35546B436CD8857DC619667F0
310
636BC2625A26788D12711FDD4A1AAD8862DD4AE965A4C2F845013F7F5875E0819101227D51051E7EECACB5A30B552E1D2422EFCA6CC3108120D8122D35BAF10A965A8D545AAEAFEA4C017517189855F1FCE7C9A2D98EF879B248AD61FCD8C982E61B44F7D1A691CD6365D6479D02EAF4A4A8BCC52940771D6AAA751231B9DC
310
8A6F7D2982985805F9C1C55815330CC13E8EFF73D2EE4B8266BB0EFFC7256DFF59C1715452694D564DAA0385EBB295C26ECECE4EDE9F5C8E66D3B36BE8CFCE4E4797978B9BD1D5BBF9F9623EBDB97977B5A8D1D47E1A06752CD3A90B9E4D4CAB86D593C5009AB222A72481C37CE2A41842BE8423FD80EE39CFB080DCD9EC75
310
27B6273F60F58369734AB4A1B8E2E40E417F980AC8EA805119CBF6B8F30B7426259CB32F5CE81979F7F067ADD27520F15CB8D0299024C6C2DB409749F5F33471C8B83AF55B62800F62A9CA886651FD5CAF52D8B4A27F3D654816B072B55A1850B715D0FC6A3528346F96A7F828C12B761C24E176534A28D68C2CFB815A18BD
310
CD5EFD46364AD8BDDD7A07AEFBB258BEA7E7B41019F4C5E0452330544712F154B7BB156396A5CBEB2F6368B339CBCF4E41CB1474399CD2886330E652D553604560159666812498EAE2F7F5179EC3179ECCD14591F3EBEEECF4B7F522CFB29C99A1F5251CCA12F84EE4ACEEE0AB4FB286DA01ABDEBA584F27FE74AD7BDAB6CD
310
1E6D90C09E2A8A60A0AA2594201D9303BB7CD69FB2DDCBB1524567FAF2DAB141147A01C68E9EB578CD372E077C487D4D511EA3FDBC92F6C5B6F6584F059BE0D0900EFF05504B03041400060800003899D542000000000000000000000000350000006662782F32423537463636392D313631382D344231342D413545442D32
310
45453345393931454630462F76657274696365732E62696E504B03041400060808003899D542F270F1330600000004000000360000006662782F32423537463636392D313631382D344231342D413545442D3245453345393931454630462F747269616E676C65732E62696E636660600000504B03041400060800003899D5
310
42000000000000000000000000370000006662782F32423537463636392D313631382D344231342D413545442D3245453345393931454630462F617474726962757465732E62696E504B03041400060808003899D542D5987DFC8F00000041010000360000006662782F32423537463636392D313631382D344231342D4135
310
45442D3245453345393931454630462F6469726563746F72792E786D6C858F410EC2201045AF4266AF15DDB800BA74E7C21B903225242D6328188F2FA5C4183471359997F9FF81E89FF3C41E1816475E02DF1F80A11FC8386F25A438EECEC07A250251FC3803E6F58C12560C4AD840E95E91C151A72936F496F35732D860FE
310
635F62C8F2DA16B505C545B74125BAA2FA9E05D7CC053D063734D5C7665FD55B6B8D15D5E9BFEAFD8490FFA45E504B03041400060808003899D5428159352FFF000000A00100003B0000006662782F32423537463636392D313631382D344231342D413545442D3245453345393931454630462F7265736F75726365732F63
310
6F72652E786D6C8D50596E833010BD0A9ADFCA60032171641C653D412F6099496A25D89197AAC7AF09546AFFFA33337A8BE6E989DDD7F8283ED107E36C0FACA450A0D56E30F6D6438A57B281622785772EFE924161D5883D4C304871F32E3D17483B1BD1C68C5A37E002AA103042A11FF9E821E80F1C55A952CC8A702F9F4A
310
DFD50D4B56663AEBA408D1E700C5FC649A203D0697BCC620AA99952225332C1A33E49FE66AD0833C9E383B5CEA33396DD63569BB764DF8BE5991F3E5D0B574DF9EF9B116D56496229AF127A3F6A8220E206BCA1A423B52B377C6B7946F5BFE4657DB868A6A92FF31A5E7F04F53323636F51277B605902C0779115254535F79
310
BDCACC7BEA567E03504B010214000A00000800003899D5423DEE336E79000000790000001B00000000000000000000000000000000006175746F6465736B2D64657369676E2D7061636B6167652E786D6C504B010214001400060808003899D542D486FD9CA0000000F40000001300000000000000000000000000B2000000
310
5B436F6E74656E745F54797065735D2E786D6C504B010214001400060808003899D542E9B3681EEC0000007C010000080000000000000000000000000083010000636F72652E786D6C504B010214001400060808003899D54255019EA25F0000007C000000070000000000000000000000000095020000636E782E786D6C50
310
4B010214001400060808003899D542AA30D4C468010000020300000C00000000000000000000000000190300006662782F636F72652E786D6C504B010214001400060808003899D5425CECBD257E0000009D0000000B00000000000000000000000000AB0400006662782F636E782E786D6C504B0102140014000608080038
310
99D542E839381D2B010000140200003100000000000000000000000000520500006662782F32423537463636392D313631382D344231342D413545442D3245453345393931454630462F636F72652E786D6C504B010214001400060808003899D542FCB0F09656010000330300003000000000000000000000000000CC0600
310
006662782F32423537463636392D313631382D344231342D413545442D3245453345393931454630462F636E782E786D6C504B010214001400060808003899D542D3D8783F62070000991B00003400000000000000000000000000700800006662782F32423537463636392D313631382D344231342D413545442D32454533
310
45393931454630462F6F626A656374732E786D6C504B010214001400060800003899D5420000000000000000000000003500000000000000000000000000241000006662782F32423537463636392D313631382D344231342D413545442D3245453345393931454630462F76657274696365732E62696E504B010214001400
310
060808003899D542F270F13306000000040000003600000000000000000000000000771000006662782F32423537463636392D313631382D344231342D413545442D3245453345393931454630462F747269616E676C65732E62696E504B010214001400060800003899D54200000000000000000000000037000000000000
310
00000000000000D11000006662782F32423537463636392D313631382D344231342D413545442D3245453345393931454630462F617474726962757465732E62696E504B010214001400060808003899D542D5987DFC8F000000410100003600000000000000000000000000261100006662782F32423537463636392D3136
310
31382D344231342D413545442D3245453345393931454630462F6469726563746F72792E786D6C504B010214001400060808003899D5428159352FFF000000A00100003B00000000000000000000000000091200006662782F32423537463636392D313631382D344231342D413545442D3245453345393931454630462F72
310
65736F75726365732F636F72652E786D6C504B0506000000000E000E0080040000611300000000
  0
XRECORD
  5
27
102
{ACAD_REACTORS
330
22
102
}
330
22
100
AcDbXrecord
280
     1
270
     1
271
     1
  0
XRECORD
  5
26
102
{ACAD_REACTORS
330
22
102
}
330
22
100
AcDbXrecord
280
     1
270
     1
271
     1
  0
XRECORD
  5
28
102
{ACAD_REACTORS
330
22
102
}
330
22
100
AcDbXrecord
280
     1
270
     1
271
     1
  0
XRECORD
  5
25
102
{ACAD_REACTORS
330
22
102
}
330
22
100
AcDbXrecord
280
     1
270
     1
271
     1
  0
XRECORD
  5
D8F
102
{ACAD_REACTORS
330
D8E
102
}
330
D8E
100
AcDbXrecord
280
     1
102
ACAD_ROUNDTRIP_2012_MLEADER_STYLE
298
     1
  0
CELLSTYLEMAP
  5
D8D
102
{ACAD_REACTORS
330
D8C
102
}
330
D8C
100
AcDbCellStyleMap
 90
        3
300
CELLSTYLE
  1
TABLEFORMAT_BEGIN
 90
        5
170
     1
 91
        0
 92
    32768
 62
   257
 93
        1
300
CONTENTFORMAT
  1
CONTENTFORMAT_BEGIN
 90
        0
 91
        0
 92
      512
 93
        0
300

 40
0.0
140
1.0
 94
        5
 62
     0
340
55
144
0.25
309
CONTENTFORMAT_END
171
     0
 94
        0
309
TABLEFORMAT_END
  1
CELLSTYLE_BEGIN
 90
        1
 91
        1
300
_TITLE
309
CELLSTYLE_END
300
CELLSTYLE
  1
TABLEFORMAT_BEGIN
 90
        5
170
     1
 91
        0
 92
        0
 62
   257
 93
        1
300
CONTENTFORMAT
  1
CONTENTFORMAT_BEGIN
 90
        0
 91
        0
 92
      512
 93
        0
300

 40
0.0
140
1.0
 94
        5
 62
     0
340
55
144
0.18
309
CONTENTFORMAT_END
171
     0
 94
        0
309
TABLEFORMAT_END
  1
CELLSTYLE_BEGIN
 90
        2
 91
        1
300
_HEADER
309
CELLSTYLE_END
300
CELLSTYLE
  1
TABLEFORMAT_BEGIN
 90
        5
170
     1
 91
        0
 92
        0
 62
   257
 93
        1
300
CONTENTFORMAT
  1
CONTENTFORMAT_BEGIN
 90
        0
 91
        0
 92
      512
 93
        0
300

 40
0.0
140
1.0
 94
        2
 62
     0
340
55
144
0.18
309
CONTENTFORMAT_END
171
     0
 94
        0
309
TABLEFORMAT_END
  1
CELLSTYLE_BEGIN
 90
        3
 91
        2
300
_DATA
309
CELLSTYLE_END
  0
ENDSEC
  0
EOF
