  0
SECTION
  2
HEADER
  9
$ACADVER
  1
AC1024
  9
$ACADMAINTVER
 70
    63
  9
$DWGCODEPAGE
  3
ANSI_1252
  9
$AUTHOR
  1
VR
  9
$REVISIONNUMBER
  1
-
  9
$CUSTOMPROPERTYTAG
  1
Manager
  9
$CUSTOMPROPERTY
  1

  9
$CUSTOMPROPERTYTAG
  1
Company
  9
$CUSTOMPROPERTY
  1

  9
$CUSTOMPROPERTYTAG
  1
Category
  9
$CUSTOMPROPERTY
  1

  9
$CUSTOMPROPERTYTAG
  1
Part Number
  9
$CUSTOMPROPERTY
  1
HWDWA72P36F1
  9
$CUSTOMPROPERTYTAG
  1
Description
  9
$CUSTOMPROPERTY
  1
N1P PANEL MASTER VIEW
  9
$CUSTOMPROPERTYTAG
  1
Project
  9
$CUSTOMPROPERTY
  1

  9
$CUSTOMPROPERTYTAG
  1
Designer
  9
$CUSTOMPROPERTY
  1
VR
  9
$CUSTOMPROPERTYTAG
  1
Engineer
  9
$CUSTOMPROPERTY
  1

  9
$CUSTOMPROPERTYTAG
  1
Authority
  9
$CUSTOMPROPERTY
  1

  9
$CUSTOMPROPERTYTAG
  1
Cost Center
  9
$CUSTOMPROPERTY
  1

  9
$CUSTOMPROPERTYTAG
  1
Vendor
  9
$CUSTOMPROPERTY
  1

  9
$CUSTOMPROPERTYTAG
  1
User Status
  9
$CUSTOMPROPERTY
  1

  9
$CUSTOMPROPERTYTAG
  1
Design Status
  9
$CUSTOMPROPERTY
  1
WorkInProgress
  9
$CUSTOMPROPERTYTAG
  1
Checked by
  9
$CUSTOMPROPERTY
  1
NJ
  9
$CUSTOMPROPERTYTAG
  1
Engr Approved by
  9
$CUSTOMPROPERTY
  1

  9
$CUSTOMPROPERTYTAG
  1
Date Eng Approved
  9
$CUSTOMPROPERTY
  1
06/10/2013
  9
$CUSTOMPROPERTYTAG
  1
Mfg Approved by
  9
$CUSTOMPROPERTY
  1

  9
$CUSTOMPROPERTYTAG
  1
DWG. NO
  9
$CUSTOMPROPERTY
  1

  9
$CUSTOMPROPERTYTAG
  1
NUMBER OF SHEETS
  9
$CUSTOMPROPERTY
  1
1
  9
$CUSTOMPROPERTYTAG
  1
DRAWING #
  9
$CUSTOMPROPERTY
  1
1
  9
$INSBASE
 10
0.0
 20
0.0
 30
0.0
  9
$EXTMIN
 10
0.0
 20
0.0
 30
0.0
  9
$EXTMAX
 10
204.0
 20
132.0
 30
0.0
  9
$LIMMIN
 10
0.0
 20
0.0
  9
$LIMMAX
 10
204.0
 20
132.0
  9
$ORTHOMODE
 70
     0
  9
$REGENMODE
 70
     1
  9
$FILLMODE
 70
     1
  9
$QTEXTMODE
 70
     0
  9
$MIRRTEXT
 70
     0
  9
$LTSCALE
 40
12.0
  9
$ATTMODE
 70
     1
  9
$TEXTSIZE
 40
0.2
  9
$TRACEWID
 40
0.05
  9
$TEXTSTYLE
  7
Standard
  9
$CLAYER
  8
0
  9
$CELTYPE
  6
ByLayer
  9
$CECOLOR
 62
   256
  9
$CELTSCALE
 40
1.0
  9
$DISPSILH
 70
     0
  9
$DIMSCALE
 40
1.0
  9
$DIMASZ
 40
0.0708661417322835
  9
$DIMEXO
 40
0.0625
  9
$DIMDLI
 40
0.38
  9
$DIMRND
 40
0.0
  9
$DIMDLE
 40
0.0
  9
$DIMEXE
 40
0.18
  9
$DIMTP
 40
0.0
  9
$DIMTM
 40
0.0
  9
$DIMTXT
 40
0.0708661417322835
  9
$DIMCEN
 40
0.09
  9
$DIMTSZ
 40
0.0
  9
$DIMTOL
 70
     0
  9
$DIMLIM
 70
     0
  9
$DIMTIH
 70
     1
  9
$DIMTOH
 70
     1
  9
$DIMSE1
 70
     0
  9
$DIMSE2
 70
     0
  9
$DIMTAD
 70
     0
  9
$DIMZIN
 70
     0
  9
$DIMBLK
  1

  9
$DIMASO
 70
     1
  9
$DIMSHO
 70
     1
  9
$DIMPOST
  1

  9
$DIMAPOST
  1

  9
$DIMALT
 70
     0
  9
$DIMALTD
 70
     2
  9
$DIMALTF
 40
25.4
  9
$DIMLFAC
 40
1.0
  9
$DIMTOFL
 70
     0
  9
$DIMTVP
 40
0.0
  9
$DIMTIX
 70
     0
  9
$DIMSOXD
 70
     0
  9
$DIMSAH
 70
     0
  9
$DIMBLK1
  1

  9
$DIMBLK2
  1

  9
$DIMSTYLE
  2
STANDARD
  9
$DIMCLRD
 70
     0
  9
$DIMCLRE
 70
     0
  9
$DIMCLRT
 70
     0
  9
$DIMTFAC
 40
1.0
  9
$DIMGAP
 40
0.09
  9
$DIMJUST
 70
     0
  9
$DIMSD1
 70
     0
  9
$DIMSD2
 70
     0
  9
$DIMTOLJ
 70
     1
  9
$DIMTZIN
 70
     0
  9
$DIMALTZ
 70
     0
  9
$DIMALTTZ
 70
     0
  9
$DIMUPT
 70
     0
  9
$DIMDEC
 70
     4
  9
$DIMTDEC
 70
     4
  9
$DIMALTU
 70
     2
  9
$DIMALTTD
 70
     2
  9
$DIMTXSTY
  7
Standard
  9
$DIMAUNIT
 70
     0
  9
$DIMADEC
 70
     0
  9
$DIMALTRND
 40
0.0
  9
$DIMAZIN
 70
     0
  9
$DIMDSEP
 70
    46
  9
$DIMATFIT
 70
     3
  9
$DIMFRAC
 70
     0
  9
$DIMLDRBLK
  1

  9
$DIMLUNIT
 70
     2
  9
$DIMLWD
 70
    -2
  9
$DIMLWE
 70
    -2
  9
$DIMTMOVE
 70
     0
  9
$DIMFXL
 40
1.0
  9
$DIMFXLON
 70
     0
  9
$DIMJOGANG
 40
0.7853981633974483
  9
$DIMTFILL
 70
     0
  9
$DIMTFILLCLR
 70
     0
  9
$DIMARCSYM
 70
     0
  9
$DIMLTYPE
  6

  9
$DIMLTEX1
  6

  9
$DIMLTEX2
  6

  9
$DIMTXTDIRECTION
 70
     0
  9
$LUNITS
 70
     2
  9
$LUPREC
 70
     4
  9
$SKETCHINC
 40
0.1
  9
$FILLETRAD
 40
0.0
  9
$AUNITS
 70
     0
  9
$AUPREC
 70
     0
  9
$MENU
  1
.
  9
$ELEVATION
 40
0.0
  9
$PELEVATION
 40
0.0
  9
$THICKNESS
 40
0.0
  9
$LIMCHECK
 70
     0
  9
$CHAMFERA
 40
0.0
  9
$CHAMFERB
 40
0.0
  9
$CHAMFERC
 40
0.0
  9
$CHAMFERD
 40
0.0
  9
$SKPOLY
 70
     0
  9
$TDCREATE
 40
2456461.722525070
  9
$TDUCREATE
 40
2456461.493358403
  9
$TDUPDATE
 40
2456461.722525081
  9
$TDUUPDATE
 40
2456461.493358414
  9
$TDINDWG
 40
0.0000446644
  9
$TDUSRTIMER
 40
0.0000446644
  9
$USRTIMER
 70
     1
  9
$ANGBASE
 50
0.0
  9
$ANGDIR
 70
     0
  9
$PDMODE
 70
     0
  9
$PDSIZE
 40
0.0
  9
$PLINEWID
 40
0.0
  9
$SPLFRAME
 70
     0
  9
$SPLINETYPE
 70
     6
  9
$SPLINESEGS
 70
     8
  9
$HANDSEED
  5
E77
  9
$SURFTAB1
 70
     6
  9
$SURFTAB2
 70
     6
  9
$SURFTYPE
 70
     6
  9
$SURFU
 70
     6
  9
$SURFV
 70
     6
  9
$UCSBASE
  2

  9
$UCSNAME
  2

  9
$UCSORG
 10
0.0
 20
0.0
 30
0.0
  9
$UCSXDIR
 10
1.0
 20
0.0
 30
0.0
  9
$UCSYDIR
 10
0.0
 20
1.0
 30
0.0
  9
$UCSORTHOREF
  2

  9
$UCSORTHOVIEW
 70
     0
  9
$UCSORGTOP
 10
0.0
 20
0.0
 30
0.0
  9
$UCSORGBOTTOM
 10
0.0
 20
0.0
 30
0.0
  9
$UCSORGLEFT
 10
0.0
 20
0.0
 30
0.0
  9
$UCSORGRIGHT
 10
0.0
 20
0.0
 30
0.0
  9
$UCSORGFRONT
 10
0.0
 20
0.0
 30
0.0
  9
$UCSORGBACK
 10
0.0
 20
0.0
 30
0.0
  9
$PUCSBASE
  2

  9
$PUCSNAME
  2

  9
$PUCSORG
 10
0.0
 20
0.0
 30
0.0
  9
$PUCSXDIR
 10
1.0
 20
0.0
 30
0.0
  9
$PUCSYDIR
 10
0.0
 20
1.0
 30
0.0
  9
$PUCSORTHOREF
  2

  9
$PUCSORTHOVIEW
 70
     0
  9
$PUCSORGTOP
 10
0.0
 20
0.0
 30
0.0
  9
$PUCSORGBOTTOM
 10
0.0
 20
0.0
 30
0.0
  9
$PUCSORGLEFT
 10
0.0
 20
0.0
 30
0.0
  9
$PUCSORGRIGHT
 10
0.0
 20
0.0
 30
0.0
  9
$PUCSORGFRONT
 10
0.0
 20
0.0
 30
0.0
  9
$PUCSORGBACK
 10
0.0
 20
0.0
 30
0.0
  9
$USERI1
 70
     0
  9
$USERI2
 70
     0
  9
$USERI3
 70
     0
  9
$USERI4
 70
     0
  9
$USERI5
 70
     0
  9
$USERR1
 40
0.0
  9
$USERR2
 40
0.0
  9
$USERR3
 40
0.0
  9
$USERR4
 40
0.0
  9
$USERR5
 40
0.0
  9
$WORLDVIEW
 70
     1
  9
$SHADEDGE
 70
     3
  9
$SHADEDIF
 70
    70
  9
$TILEMODE
 70
     1
  9
$MAXACTVP
 70
    64
  9
$PINSBASE
 10
0.0
 20
0.0
 30
0.0
  9
$PLIMCHECK
 70
     0
  9
$PEXTMIN
 10
0.0
 20
0.0
 30
0.0
  9
$PEXTMAX
 10
204.0
 20
132.0
 30
0.0
  9
$PLIMMIN
 10
0.0
 20
0.0
  9
$PLIMMAX
 10
204.0
 20
132.0
  9
$UNITMODE
 70
     0
  9
$VISRETAIN
 70
     1
  9
$PLINEGEN
 70
     0
  9
$PSLTSCALE
 70
     1
  9
$TREEDEPTH
 70
  3020
  9
$CMLSTYLE
  2
Standard
  9
$CMLJUST
 70
     0
  9
$CMLSCALE
 40
1.0
  9
$PROXYGRAPHICS
 70
     1
  9
$MEASUREMENT
 70
     0
  9
$CELWEIGHT
370
    -1
  9
$ENDCAPS
280
     0
  9
$JOINSTYLE
280
     0
  9
$LWDISPLAY
290
     0
  9
$INSUNITS
 70
     1
  9
$HYPERLINKBASE
  1

  9
$STYLESHEET
  1

  9
$XEDIT
290
     1
  9
$CEPSNTYPE
380
     0
  9
$PSTYLEMODE
290
     1
  9
$FINGERPRINTGUID
  2
{A7940CAF-91A2-4C5E-8BE8-3A41F3BA6694}
  9
$VERSIONGUID
  2
{9CF72ABF-3E75-46A2-B803-5DE834EA6948}
  9
$EXTNAMES
290
     1
  9
$PSVPSCALE
 40
0.0
  9
$OLESTARTUP
290
     0
  9
$SORTENTS
280
   127
  9
$INDEXCTL
280
     0
  9
$HIDETEXT
280
     1
  9
$XCLIPFRAME
280
     2
  9
$HALOGAP
280
     0
  9
$OBSCOLOR
 70
   257
  9
$OBSLTYPE
280
     0
  9
$INTERSECTIONDISPLAY
280
     0
  9
$INTERSECTIONCOLOR
 70
   257
  9
$DIMASSOC
280
     1
  9
$PROJECTNAME
  1

  9
$CAMERADISPLAY
290
     0
  9
$LENSLENGTH
 40
50.0
  9
$CAMERAHEIGHT
 40
0.0
  9
$STEPSPERSEC
 40
2.0
  9
$STEPSIZE
 40
6.0
  9
$3DDWFPREC
 40
2.0
  9
$PSOLWIDTH
 40
0.25
  9
$PSOLHEIGHT
 40
4.0
  9
$LOFTANG1
 40
1.570796326794896
  9
$LOFTANG2
 40
1.570796326794896
  9
$LOFTMAG1
 40
0.0
  9
$LOFTMAG2
 40
0.0
  9
$LOFTPARAM
 70
     7
  9
$LOFTNORMALS
280
     1
  9
$LATITUDE
 40
37.795
  9
$LONGITUDE
 40
-122.394
  9
$NORTHDIRECTION
 40
0.0
  9
$TIMEZONE
 70
 -8000
  9
$LIGHTGLYPHDISPLAY
280
     1
  9
$TILEMODELIGHTSYNCH
280
     1
  9
$CMATERIAL
347
11
  9
$SOLIDHIST
280
     0
  9
$SHOWHIST
280
     1
  9
$DWFFRAME
280
     2
  9
$DGNFRAME
280
     0
  9
$REALWORLDSCALE
290
     1
  9
$INTERFERECOLOR
 62
     1
  9
$INTERFEREOBJVS
345
33
  9
$INTERFEREVPVS
346
30
  9
$CSHADOW
280
     0
  9
$SHADOWPLANELOCATION
 40
0.0
  0
ENDSEC
  0
SECTION
  2
CLASSES
  0
CLASS
  1
ACDBDICTIONARYWDFLT
  2
AcDbDictionaryWithDefault
  3
ObjectDBX Classes
 90
        0
 91
        1
280
     0
281
     0
  0
CLASS
  1
MATERIAL
  2
AcDbMaterial
  3
ObjectDBX Classes
 90
     1153
 91
        3
280
     0
281
     0
  0
CLASS
  1
VISUALSTYLE
  2
AcDbVisualStyle
  3
ObjectDBX Classes
 90
     4095
 91
       24
280
     0
281
     0
  0
CLASS
  1
SCALE
  2
AcDbScale
  3
ObjectDBX Classes
 90
     1153
 91
       17
280
     0
281
     0
  0
CLASS
  1
TABLESTYLE
  2
AcDbTableStyle
  3
ObjectDBX Classes
 90
     4095
 91
        1
280
     0
281
     0
  0
CLASS
  1
MLEADERSTYLE
  2
AcDbMLeaderStyle
  3
ACDB_MLEADERSTYLE_CLASS
 90
     4095
 91
        1
280
     0
281
     0
  0
CLASS
  1
DICTIONARYVAR
  2
AcDbDictionaryVar
  3
ObjectDBX Classes
 90
        0
 91
        3
280
     0
281
     0
  0
CLASS
  1
CELLSTYLEMAP
  2
AcDbCellStyleMap
  3
ObjectDBX Classes
 90
     1152
 91
        1
280
     0
281
     0
  0
ENDSEC
  0
SECTION
  2
TABLES
  0
TABLE
  2
VPORT
  5
8
330
0
100
AcDbSymbolTable
 70
     1
  0
VPORT
  5
57
330
8
100
AcDbSymbolTableRecord
100
AcDbViewportTableRecord
  2
*Active
 70
     0
 10
0.0
 20
0.0
 11
1.0
 21
1.0
 12
102.0
 22
66.0
 13
0.0
 23
0.0
 14
1.0
 24
1.0
 15
0.0
 25
0.0
 16
0.0
 26
0.0
 36
1.0
 17
0.0
 27
0.0
 37
0.0
 40
132.0
 41
1.545454545454545
 42
50.0
 43
0.0
 44
0.0
 50
0.0
 51
0.0
 71
     0
 72
   100
 73
     1
 74
     1
 75
     0
 76
     0
 77
     0
 78
     0
281
     0
 65
     1
110
0.0
120
0.0
130
0.0
111
1.0
121
0.0
131
0.0
112
0.0
122
1.0
132
0.0
 79
     0
146
0.0
 60
     3
 61
     5
292
     1
282
     1
141
0.0
142
0.0
 63
   250
421
  3355443
  0
ENDTAB
  0
TABLE
  2
LTYPE
  5
5
330
0
100
AcDbSymbolTable
 70
    59
  0
LTYPE
  5
5B
330
5
100
AcDbSymbolTableRecord
100
AcDbLinetypeTableRecord
  2
ByBlock
 70
     0
  3

 72
    65
 73
     0
 40
0.0
  0
LTYPE
  5
5C
330
5
100
AcDbSymbolTableRecord
100
AcDbLinetypeTableRecord
  2
ByLayer
 70
     0
  3

 72
    65
 73
     0
 40
0.0
  0
LTYPE
  5
5D
330
5
100
AcDbSymbolTableRecord
100
AcDbLinetypeTableRecord
  2
Continuous
 70
     0
  3
Solid line
 72
    65
 73
     0
 40
0.0
  0
LTYPE
  5
7C
330
5
100
AcDbSymbolTableRecord
100
AcDbLinetypeTableRecord
  2
BY_STANDARD
 70
     0
  3
By Standard ____________    ____    ____   _
 72
    65
 73
     6
 40
1.240299999999999
 49
0.6614
 74
     0
 49
-0.0827
 74
     0
 49
0.1654
 74
     0
 49
-0.0827
 74
     0
 49
0.1654
 74
     0
 49
-0.0827
 74
     0
  0
LTYPE
  5
7D
330
5
100
AcDbSymbolTableRecord
100
AcDbLinetypeTableRecord
  2
CHAIN
 70
     0
  3
Chain ____ _ ____ _ ____ _ ____ _ ____ _ ____
 72
    65
 73
     4
 40
0.7087
 49
0.4724000000000001
 74
     0
 49
-0.0591
 74
     0
 49
0.1181
 74
     0
 49
-0.0591
 74
     0
  0
LTYPE
  5
7E
330
5
100
AcDbSymbolTableRecord
100
AcDbLinetypeTableRecord
  2
DASH_DOT
 70
     0
  3
Dash dot __ . __ . __ . __ . __ . __ . __ . __
 72
    65
 73
     4
 40
0.37
 49
0.24
 74
     0
 49
-0.06
 74
     0
 49
0.01
 74
     0
 49
-0.06
 74
     0
  0
LTYPE
  5
7F
330
5
100
AcDbSymbolTableRecord
100
AcDbLinetypeTableRecord
  2
DOUBLE_DASH_DOT
 70
     0
  3
Double-Dash Dot __ __ . __ __ . __ __ . __ _
 72
    65
 73
     6
 40
0.4398
 49
0.24
 74
     0
 49
-0.06
 74
     0
 49
0.0098
 74
     0
 49
-0.06
 74
     0
 49
0.01
 74
     0
 49
-0.06
 74
     0
  0
LTYPE
  5
80
330
5
100
AcDbSymbolTableRecord
100
AcDbLinetypeTableRecord
  2
DASH_TRIPLE_DOT
 70
     0
  3
Dash Triple-Dot _ . . . _ . . . _ . . . _
 72
    65
 73
     8
 40
0.51
 49
0.24
 74
     0
 49
-0.06
 74
     0
 49
0.01
 74
     0
 49
-0.06
 74
     0
 49
0.01
 74
     0
 49
-0.06
 74
     0
 49
0.01
 74
     0
 49
-0.06
 74
     0
  0
LTYPE
  5
81
330
5
100
AcDbSymbolTableRecord
100
AcDbLinetypeTableRecord
  2
DASHED
 70
     0
  3
Dashed __ __ __ __ __ __ __ __ __ __ __ __ __ _
 72
    65
 73
     2
 40
0.2067
 49
0.1654
 74
     0
 49
-0.0413
 74
     0
  0
LTYPE
  5
82
330
5
100
AcDbSymbolTableRecord
100
AcDbLinetypeTableRecord
  2
DASH_DOUBLE_DOT
 70
     0
  3
Dash Double-Dot __ . . __ . . __ . . __ . .
 72
    65
 73
     6
 40
0.4398
 49
0.24
 74
     0
 49
-0.06
 74
     0
 49
0.0098
 74
     0
 49
-0.06
 74
     0
 49
0.01
 74
     0
 49
-0.06
 74
     0
  0
LTYPE
  5
83
330
5
100
AcDbSymbolTableRecord
100
AcDbLinetypeTableRecord
  2
DASHED_SPACE
 70
     0
  3
Dashed Space __ __ __ __ __ __ __ __ __ __ __ _
 72
    65
 73
     2
 40
0.2067
 49
0.1654
 74
     0
 49
-0.0413
 74
     0
  0
LTYPE
  5
84
330
5
100
AcDbSymbolTableRecord
100
AcDbLinetypeTableRecord
  2
DOTTED
 70
     0
  3
Dotted . . . . . . . . . . . . . . . . . . . . 
 72
    65
 73
     2
 40
0.0482
 49
0.0069
 74
     0
 49
-0.0413
 74
     0
  0
LTYPE
  5
85
330
5
100
AcDbSymbolTableRecord
100
AcDbLinetypeTableRecord
  2
DOUBLE_DASH_CHAIN
 70
     0
  3
Double-Dash Chain ______  __  __  ______  __  _
 72
    65
 73
     6
 40
1.240299999999999
 49
0.6614
 74
     0
 49
-0.0827
 74
     0
 49
0.1654
 74
     0
 49
-0.0827
 74
     0
 49
0.1654
 74
     0
 49
-0.0827
 74
     0
  0
LTYPE
  5
87
330
5
100
AcDbSymbolTableRecord
100
AcDbLinetypeTableRecord
  2
DOUBLE_DASH_DOUBLE_DOT
 70
     0
  3
Double-Dash Double-dot _ _ . . _ _ . . _
 72
    65
 73
     8
 40
0.7400000000000001
 49
0.24
 74
     0
 49
-0.06
 74
     0
 49
0.24
 74
     0
 49
-0.06
 74
     0
 49
0.01
 74
     0
 49
-0.06
 74
     0
 49
0.01
 74
     0
 49
-0.06
 74
     0
  0
LTYPE
  5
88
330
5
100
AcDbSymbolTableRecord
100
AcDbLinetypeTableRecord
  2
DOUBLE_DASH_TRIPLE_DOT
 70
     0
  3
Double Dash Triple Dot __ __ . . . __ __ . .
 72
    65
 73
    10
 40
0.8100000000000001
 49
0.24
 74
     0
 49
-0.06
 74
     0
 49
0.24
 74
     0
 49
-0.06
 74
     0
 49
0.01
 74
     0
 49
-0.06
 74
     0
 49
0.01
 74
     0
 49
-0.06
 74
     0
 49
0.01
 74
     0
 49
-0.06
 74
     0
  0
LTYPE
  5
89
330
5
100
AcDbSymbolTableRecord
100
AcDbLinetypeTableRecord
  2
LONG_DASH_DOTTED
 70
     0
  3
Long Dash Dotted ____ . ____ . ____ . ____ . _
 72
    65
 73
     4
 40
0.3543
 49
0.2362
 74
     0
 49
-0.0295
 74
     0
 49
0.0591
 74
     0
 49
-0.0295
 74
     0
  0
LTYPE
  5
8A
330
5
100
AcDbSymbolTableRecord
100
AcDbLinetypeTableRecord
  2
LONG_DASH_DOUBLE_DOT
 70
     0
  3
Long Dash Double Dot ________  .  .  ________  
 72
    65
 73
     6
 40
0.6799999999999999
 49
0.48
 74
     0
 49
-0.06
 74
     0
 49
0.01
 74
     0
 49
-0.06
 74
     0
 49
0.01
 74
     0
 49
-0.06
 74
     0
  0
LTYPE
  5
8B
330
5
100
AcDbSymbolTableRecord
100
AcDbLinetypeTableRecord
  2
LONG_DASH_TRIPLE_DOT
 70
     0
  3
Long Dash Triple Dot ____ ... ____ ... ____
 72
    65
 73
     8
 40
0.3689
 49
0.2362
 74
     0
 49
-0.0295
 74
     0
 49
0.0049
 74
     0
 49
-0.0295
 74
     0
 49
0.0049
 74
     0
 49
-0.0295
 74
     0
 49
0.0049
 74
     0
 49
-0.0295
 74
     0
  0
LTYPE
  5
8C
330
5
100
AcDbSymbolTableRecord
100
AcDbLinetypeTableRecord
  2
BORDER
 70
     0
  3
Border __ __ . __ __ . __ __ . __ __ . __ __ .
 72
    65
 73
     6
 40
1.75
 49
0.5
 74
     0
 49
-0.25
 74
     0
 49
0.5
 74
     0
 49
-0.25
 74
     0
 49
0.0
 74
     0
 49
-0.25
 74
     0
  0
LTYPE
  5
8D
330
5
100
AcDbSymbolTableRecord
100
AcDbLinetypeTableRecord
  2
BORDER2
 70
     0
  3
Border (.5x) __.__.__.__.__.__.__.__.__.__.__.
 72
    65
 73
     6
 40
0.875
 49
0.25
 74
     0
 49
-0.125
 74
     0
 49
0.25
 74
     0
 49
-0.125
 74
     0
 49
0.0
 74
     0
 49
-0.125
 74
     0
  0
LTYPE
  5
8E
330
5
100
AcDbSymbolTableRecord
100
AcDbLinetypeTableRecord
  2
BORDERX2
 70
     0
  3
Border (2x) ____  ____  .  ____  ____  .  ___
 72
    65
 73
     6
 40
3.5
 49
1.0
 74
     0
 49
-0.5
 74
     0
 49
1.0
 74
     0
 49
-0.5
 74
     0
 49
0.0
 74
     0
 49
-0.5
 74
     0
  0
LTYPE
  5
8F
330
5
100
AcDbSymbolTableRecord
100
AcDbLinetypeTableRecord
  2
CENTER
 70
     0
  3
Center ____ _ ____ _ ____ _ ____ _ ____ _ ____
 72
    65
 73
     4
 40
2.0
 49
1.25
 74
     0
 49
-0.25
 74
     0
 49
0.25
 74
     0
 49
-0.25
 74
     0
  0
LTYPE
  5
90
330
5
100
AcDbSymbolTableRecord
100
AcDbLinetypeTableRecord
  2
CENTER2
 70
     0
  3
Center (.5x) ___ _ ___ _ ___ _ ___ _ ___ _ ___
 72
    65
 73
     4
 40
1.125
 49
0.75
 74
     0
 49
-0.125
 74
     0
 49
0.125
 74
     0
 49
-0.125
 74
     0
  0
LTYPE
  5
91
330
5
100
AcDbSymbolTableRecord
100
AcDbLinetypeTableRecord
  2
CENTERX2
 70
     0
  3
Center (2x) ________  __  ________  __  _____
 72
    65
 73
     4
 40
4.0
 49
2.5
 74
     0
 49
-0.5
 74
     0
 49
0.5
 74
     0
 49
-0.5
 74
     0
  0
LTYPE
  5
92
330
5
100
AcDbSymbolTableRecord
100
AcDbLinetypeTableRecord
  2
DASHDOT2
 70
     0
  3
Dash dot (.5x) _._._._._._._._._._._._._._._.
 72
    65
 73
     4
 40
0.5
 49
0.25
 74
     0
 49
-0.125
 74
     0
 49
0.0
 74
     0
 49
-0.125
 74
     0
  0
LTYPE
  5
93
330
5
100
AcDbSymbolTableRecord
100
AcDbLinetypeTableRecord
  2
DASHDOTX2
 70
     0
  3
Dash dot (2x) ____  .  ____  .  ____  .  ___
 72
    65
 73
     4
 40
2.0
 49
1.0
 74
     0
 49
-0.5
 74
     0
 49
0.0
 74
     0
 49
-0.5
 74
     0
  0
LTYPE
  5
95
330
5
100
AcDbSymbolTableRecord
100
AcDbLinetypeTableRecord
  2
DASHED2
 70
     0
  3
Dashed (.5x) _ _ _ _ _ _ _ _ _ _ _ _ _ _ _ _ _
 72
    65
 73
     2
 40
0.375
 49
0.25
 74
     0
 49
-0.125
 74
     0
  0
LTYPE
  5
96
330
5
100
AcDbSymbolTableRecord
100
AcDbLinetypeTableRecord
  2
DASHEDX2
 70
     0
  3
Dashed (2x) ____  ____  ____  ____  ____  ___
 72
    65
 73
     2
 40
1.5
 49
1.0
 74
     0
 49
-0.5
 74
     0
  0
LTYPE
  5
97
330
5
100
AcDbSymbolTableRecord
100
AcDbLinetypeTableRecord
  2
DIVIDE
 70
     0
  3
Divide ____ . . ____ . . ____ . . ____ . . ____
 72
    65
 73
     6
 40
1.25
 49
0.5
 74
     0
 49
-0.25
 74
     0
 49
0.0
 74
     0
 49
-0.25
 74
     0
 49
0.0
 74
     0
 49
-0.25
 74
     0
  0
LTYPE
  5
98
330
5
100
AcDbSymbolTableRecord
100
AcDbLinetypeTableRecord
  2
DIVIDE2
 70
     0
  3
Divide (.5x) __..__..__..__..__..__..__..__.._
 72
    65
 73
     6
 40
0.625
 49
0.25
 74
     0
 49
-0.125
 74
     0
 49
0.0
 74
     0
 49
-0.125
 74
     0
 49
0.0
 74
     0
 49
-0.125
 74
     0
  0
LTYPE
  5
99
330
5
100
AcDbSymbolTableRecord
100
AcDbLinetypeTableRecord
  2
DIVIDEX2
 70
     0
  3
Divide (2x) ________  .  .  ________  .  .  _
 72
    65
 73
     6
 40
2.5
 49
1.0
 74
     0
 49
-0.5
 74
     0
 49
0.0
 74
     0
 49
-0.5
 74
     0
 49
0.0
 74
     0
 49
-0.5
 74
     0
  0
LTYPE
  5
9A
330
5
100
AcDbSymbolTableRecord
100
AcDbLinetypeTableRecord
  2
DOT
 70
     0
  3
Dot . . . . . . . . . . . . . . . . . . . . . .
 72
    65
 73
     2
 40
0.25
 49
0.0
 74
     0
 49
-0.25
 74
     0
  0
LTYPE
  5
9B
330
5
100
AcDbSymbolTableRecord
100
AcDbLinetypeTableRecord
  2
DOT2
 70
     0
  3
Dot (.5x) .....................................
 72
    65
 73
     2
 40
0.125
 49
0.0
 74
     0
 49
-0.125
 74
     0
  0
LTYPE
  5
9C
330
5
100
AcDbSymbolTableRecord
100
AcDbLinetypeTableRecord
  2
DOTX2
 70
     0
  3
Dot (2x) .  .  .  .  .  .  .  .  .  .  .  .  . 
 72
    65
 73
     2
 40
0.5
 49
0.0
 74
     0
 49
-0.5
 74
     0
  0
LTYPE
  5
9D
330
5
100
AcDbSymbolTableRecord
100
AcDbLinetypeTableRecord
  2
HIDDEN
 70
     0
  3
Hidden __ __ __ __ __ __ __ __ __ __ __ __ __ _
 72
    65
 73
     2
 40
0.375
 49
0.25
 74
     0
 49
-0.125
 74
     0
  0
LTYPE
  5
9E
330
5
100
AcDbSymbolTableRecord
100
AcDbLinetypeTableRecord
  2
HIDDEN2
 70
     0
  3
Hidden (.5x) _ _ _ _ _ _ _ _ _ _ _ _ _ _ _ _ _
 72
    65
 73
     2
 40
0.1875
 49
0.125
 74
     0
 49
-0.0625
 74
     0
  0
LTYPE
  5
9F
330
5
100
AcDbSymbolTableRecord
100
AcDbLinetypeTableRecord
  2
HIDDENX2
 70
     0
  3
Hidden (2x) ____ ____ ____ ____ ____ ____ ____
 72
    65
 73
     2
 40
0.75
 49
0.5
 74
     0
 49
-0.25
 74
     0
  0
LTYPE
  5
A0
330
5
100
AcDbSymbolTableRecord
100
AcDbLinetypeTableRecord
  2
PHANTOM
 70
     0
  3
Phantom ______  __  __  ______  __  __  ______
 72
    65
 73
     6
 40
2.5
 49
1.25
 74
     0
 49
-0.25
 74
     0
 49
0.25
 74
     0
 49
-0.25
 74
     0
 49
0.25
 74
     0
 49
-0.25
 74
     0
  0
LTYPE
  5
A1
330
5
100
AcDbSymbolTableRecord
100
AcDbLinetypeTableRecord
  2
PHANTOM2
 70
     0
  3
Phantom (.5x) ___ _ _ ___ _ _ ___ _ _ ___ _ _
 72
    65
 73
     6
 40
1.25
 49
0.625
 74
     0
 49
-0.125
 74
     0
 49
0.125
 74
     0
 49
-0.125
 74
     0
 49
0.125
 74
     0
 49
-0.125
 74
     0
  0
LTYPE
  5
A2
330
5
100
AcDbSymbolTableRecord
100
AcDbLinetypeTableRecord
  2
PHANTOMX2
 70
     0
  3
Phantom (2x) ____________    ____    ____   _
 72
    65
 73
     6
 40
5.0
 49
2.5
 74
     0
 49
-0.5
 74
     0
 49
0.5
 74
     0
 49
-0.5
 74
     0
 49
0.5
 74
     0
 49
-0.5
 74
     0
  0
LTYPE
  5
A3
330
5
100
AcDbSymbolTableRecord
100
AcDbLinetypeTableRecord
  2
ACAD_ISO02W100
 70
     0
  3
ISO dash __ __ __ __ __ __ __ __ __ __ __ __ __
 72
    65
 73
     2
 40
0.59
 49
0.47
 74
     0
 49
-0.12
 74
     0
  0
LTYPE
  5
A4
330
5
100
AcDbSymbolTableRecord
100
AcDbLinetypeTableRecord
  2
ACAD_ISO03W100
 70
     0
  3
ISO dash space __    __    __    __    __    __
 72
    65
 73
     2
 40
1.179999999999999
 49
0.47
 74
     0
 49
-0.71
 74
     0
  0
LTYPE
  5
A5
330
5
100
AcDbSymbolTableRecord
100
AcDbLinetypeTableRecord
  2
ACAD_ISO04W100
 70
     0
  3
ISO long-dash dot ____ . ____ . ____ . ____ . _
 72
    65
 73
     4
 40
1.179999999999999
 49
0.9399999999999998
 74
     0
 49
-0.12
 74
     0
 49
0.0
 74
     0
 49
-0.12
 74
     0
  0
LTYPE
  5
A6
330
5
100
AcDbSymbolTableRecord
100
AcDbLinetypeTableRecord
  2
ACAD_ISO05W100
 70
     0
  3
ISO long-dash double-dot ____ .. ____ .. ____ .
 72
    65
 73
     6
 40
1.299999999999999
 49
0.9399999999999998
 74
     0
 49
-0.12
 74
     0
 49
0.0
 74
     0
 49
-0.12
 74
     0
 49
0.0
 74
     0
 49
-0.12
 74
     0
  0
LTYPE
  5
A7
330
5
100
AcDbSymbolTableRecord
100
AcDbLinetypeTableRecord
  2
ACAD_ISO06W100
 70
     0
  3
ISO long-dash triple-dot ____ ... ____ ... ____
 72
    65
 73
     8
 40
1.419999999999999
 49
0.9399999999999998
 74
     0
 49
-0.12
 74
     0
 49
0.0
 74
     0
 49
-0.12
 74
     0
 49
0.0
 74
     0
 49
-0.12
 74
     0
 49
0.0
 74
     0
 49
-0.12
 74
     0
  0
LTYPE
  5
A8
330
5
100
AcDbSymbolTableRecord
100
AcDbLinetypeTableRecord
  2
ACAD_ISO07W100
 70
     0
  3
ISO dot . . . . . . . . . . . . . . . . . . . .
 72
    65
 73
     2
 40
0.12
 49
0.0
 74
     0
 49
-0.12
 74
     0
  0
LTYPE
  5
A9
330
5
100
AcDbSymbolTableRecord
100
AcDbLinetypeTableRecord
  2
ACAD_ISO08W100
 70
     0
  3
ISO long-dash short-dash ____ __ ____ __ ____ _
 72
    65
 73
     4
 40
0.95
 49
0.47
 74
     0
 49
-0.12
 74
     0
 49
0.24
 74
     0
 49
-0.12
 74
     0
  0
LTYPE
  5
AA
330
5
100
AcDbSymbolTableRecord
100
AcDbLinetypeTableRecord
  2
ACAD_ISO09W100
 70
     0
  3
ISO long-dash double-short-dash ____ __ __ ____
 72
    65
 73
     6
 40
1.31
 49
0.47
 74
     0
 49
-0.12
 74
     0
 49
0.24
 74
     0
 49
-0.12
 74
     0
 49
0.24
 74
     0
 49
-0.12
 74
     0
  0
LTYPE
  5
AB
330
5
100
AcDbSymbolTableRecord
100
AcDbLinetypeTableRecord
  2
ACAD_ISO10W100
 70
     0
  3
ISO dash dot __ . __ . __ . __ . __ . __ . __ .
 72
    65
 73
     4
 40
0.71
 49
0.47
 74
     0
 49
-0.12
 74
     0
 49
0.0
 74
     0
 49
-0.12
 74
     0
  0
LTYPE
  5
AC
330
5
100
AcDbSymbolTableRecord
100
AcDbLinetypeTableRecord
  2
ACAD_ISO11W100
 70
     0
  3
ISO double-dash dot __ __ . __ __ . __ __ . __ 
 72
    65
 73
     6
 40
1.299999999999999
 49
0.47
 74
     0
 49
-0.12
 74
     0
 49
0.47
 74
     0
 49
-0.12
 74
     0
 49
0.0
 74
     0
 49
-0.12
 74
     0
  0
LTYPE
  5
AD
330
5
100
AcDbSymbolTableRecord
100
AcDbLinetypeTableRecord
  2
ACAD_ISO12W100
 70
     0
  3
ISO dash double-dot __ . . __ . . __ . . __ . .
 72
    65
 73
     6
 40
0.8299999999999998
 49
0.47
 74
     0
 49
-0.12
 74
     0
 49
0.0
 74
     0
 49
-0.12
 74
     0
 49
0.0
 74
     0
 49
-0.12
 74
     0
  0
LTYPE
  5
AE
330
5
100
AcDbSymbolTableRecord
100
AcDbLinetypeTableRecord
  2
ACAD_ISO13W100
 70
     0
  3
ISO double-dash double-dot __ __ . . __ __ . . 
 72
    65
 73
     8
 40
1.419999999999999
 49
0.47
 74
     0
 49
-0.12
 74
     0
 49
0.47
 74
     0
 49
-0.12
 74
     0
 49
0.0
 74
     0
 49
-0.12
 74
     0
 49
0.0
 74
     0
 49
-0.12
 74
     0
  0
LTYPE
  5
AF
330
5
100
AcDbSymbolTableRecord
100
AcDbLinetypeTableRecord
  2
ACAD_ISO14W100
 70
     0
  3
ISO dash triple-dot __ . . . __ . . . __ . . . 
 72
    65
 73
     8
 40
0.95
 49
0.47
 74
     0
 49
-0.12
 74
     0
 49
0.0
 74
     0
 49
-0.12
 74
     0
 49
0.0
 74
     0
 49
-0.12
 74
     0
 49
0.0
 74
     0
 49
-0.12
 74
     0
  0
LTYPE
  5
B0
330
5
100
AcDbSymbolTableRecord
100
AcDbLinetypeTableRecord
  2
ACAD_ISO15W100
 70
     0
  3
ISO double-dash triple-dot __ __ . . . __ __ . 
 72
    65
 73
    10
 40
1.539999999999999
 49
0.47
 74
     0
 49
-0.12
 74
     0
 49
0.47
 74
     0
 49
-0.12
 74
     0
 49
0.0
 74
     0
 49
-0.12
 74
     0
 49
0.0
 74
     0
 49
-0.12
 74
     0
 49
0.0
 74
     0
 49
-0.12
 74
     0
  0
LTYPE
  5
B3
330
5
100
AcDbSymbolTableRecord
100
AcDbLinetypeTableRecord
  2
FENCELINE1
 70
     0
  3
Fenceline circle ----0-----0----0-----0----0---
 72
    65
 73
     4
 40
1.45
 49
0.25
 74
     0
 49
-0.1
 74
     4
 75
   133
340
B2
 46
0.1
 50
0.0
 44
-0.1
 45
0.0
 49
-0.1
 74
     0
 49
1.0
 74
     0
  0
LTYPE
  5
B4
330
5
100
AcDbSymbolTableRecord
100
AcDbLinetypeTableRecord
  2
FENCELINE2
 70
     0
  3
Fenceline square ----[]-----[]----[]-----[]----
 72
    65
 73
     4
 40
1.45
 49
0.25
 74
     0
 49
-0.1
 74
     4
 75
   132
340
B2
 46
0.1
 50
0.0
 44
-0.1
 45
0.0
 49
-0.1
 74
     0
 49
1.0
 74
     0
  0
LTYPE
  5
B5
330
5
100
AcDbSymbolTableRecord
100
AcDbLinetypeTableRecord
  2
TRACKS
 70
     0
  3
Tracks -|-|-|-|-|-|-|-|-|-|-|-|-|-|-|-|-|-|-|-|
 72
    65
 73
     2
 40
0.3
 49
0.15
 74
     4
 75
   130
340
B2
 46
0.25
 50
0.0
 44
0.0
 45
0.0
 49
0.15
 74
     0
  0
LTYPE
  5
B6
330
5
100
AcDbSymbolTableRecord
100
AcDbLinetypeTableRecord
  2
BATTING
 70
     0
  3
Batting SSSSSSSSSSSSSSSSSSSSSSSSSSSSSSSSSSSSSSS
 72
    65
 73
     4
 40
0.4001000000000001
 49
0.0001
 74
     0
 49
-0.1
 74
     4
 75
   134
340
B2
 46
0.1
 50
0.0
 44
-0.1
 45
0.0
 49
-0.2
 74
     4
 75
   134
340
B2
 46
0.1
 50
180.0
 44
0.1
 45
0.0
 49
-0.1
 74
     0
  0
LTYPE
  5
B7
330
5
100
AcDbSymbolTableRecord
100
AcDbLinetypeTableRecord
  2
HOT_WATER_SUPPLY
 70
     0
  3
Hot water supply ---- HW ---- HW ---- HW ----
 72
    65
 73
     3
 40
0.9
 49
0.5
 74
     0
 49
-0.2
 74
     2
 75
     0
340
55
 46
0.1
 50
0.0
 44
-0.1
 45
-0.05
  9
HW
 49
-0.2
 74
     0
  0
LTYPE
  5
B8
330
5
100
AcDbSymbolTableRecord
100
AcDbLinetypeTableRecord
  2
GAS_LINE
 70
     0
  3
Gas line ----GAS----GAS----GAS----GAS----GAS---
 72
    65
 73
     3
 40
0.95
 49
0.5
 74
     0
 49
-0.2
 74
     2
 75
     0
340
55
 46
0.1
 50
0.0
 44
-0.1
 45
-0.05
  9
GAS
 49
-0.25
 74
     0
  0
LTYPE
  5
B9
330
5
100
AcDbSymbolTableRecord
100
AcDbLinetypeTableRecord
  2
ZIGZAG
 70
     0
  3
Zig zag /\/\/\/\/\/\/\/\/\/\/\/\/\/\/\/\/\/\/\/
 72
    65
 73
     4
 40
0.8001000000000001
 49
0.0001
 74
     0
 49
-0.2
 74
     4
 75
   131
340
B2
 46
0.2
 50
0.0
 44
-0.2
 45
0.0
 49
-0.4
 74
     4
 75
   131
340
B2
 46
0.2
 50
180.0
 44
0.2
 45
0.0
 49
-0.2
 74
     0
  0
ENDTAB
  0
TABLE
  2
LAYER
  5
2
330
0
100
AcDbSymbolTable
 70
    27
  0
LAYER
  5
54
330
2
100
AcDbSymbolTableRecord
100
AcDbLayerTableRecord
  2
0
 70
     0
 62
     7
  6
Continuous
370
    18
390
F
347
21
  0
LAYER
  5
C0
330
2
100
AcDbSymbolTableRecord
100
AcDbLayerTableRecord
  2
Center Mark (ANSI)
 70
     0
 62
     7
  6
Continuous
370
    15
390
F
347
21
  0
LAYER
  5
C1
330
2
100
AcDbSymbolTableRecord
100
AcDbLayerTableRecord
  2
Centerline (ANSI)
 70
     0
 62
     7
  6
Continuous
370
    15
390
F
347
21
  0
LAYER
  5
C3
330
2
100
AcDbSymbolTableRecord
100
AcDbLayerTableRecord
  2
Dimension (ANSI)
 70
     0
 62
     7
  6
Continuous
370
    13
390
F
347
21
  0
LAYER
  5
C5
330
2
100
AcDbSymbolTableRecord
100
AcDbLayerTableRecord
  2
Hidden (ANSI)
 70
     0
 62
     7
  6
DASHED
370
    15
390
F
347
21
  0
LAYER
  5
CC
330
2
100
AcDbSymbolTableRecord
100
AcDbLayerTableRecord
  2
Symbol (ANSI)
 70
     0
 62
     7
  6
Continuous
370
    18
390
F
347
21
  0
LAYER
  5
CF
330
2
100
AcDbSymbolTableRecord
100
AcDbLayerTableRecord
  2
Visible (ANSI)
 70
     0
 62
     7
  6
Continuous
370
    13
390
F
347
21
  0
LAYER
  5
D0
330
2
100
AcDbSymbolTableRecord
100
AcDbLayerTableRecord
  2
Visible Narrow (ANSI)
 70
     0
 62
     7
  6
Continuous
370
    18
390
F
347
21
  0
LAYER
  5
53E
330
2
100
AcDbSymbolTableRecord
100
AcDbLayerTableRecord
  2
Defpoints
 70
     0
 62
     7
  6
Continuous
290
     0
370
    -3
390
F
347
21
  0
ENDTAB
  0
TABLE
  2
STYLE
  5
3
330
0
100
AcDbSymbolTable
 70
    18
  0
STYLE
  5
55
330
3
100
AcDbSymbolTableRecord
100
AcDbTextStyleTableRecord
  2
Standard
 70
     0
 40
0.0
 41
1.0
 50
0.0
 71
     0
 42
0.2
  3
txt
  4

  0
STYLE
  5
5A
330
3
100
AcDbSymbolTableRecord
100
AcDbTextStyleTableRecord
  2
Annotative
 70
     0
 40
0.0
 41
1.0
 50
0.0
 71
     0
 42
0.2
  3
txt
  4

1001
AcadAnnotative
1000
AnnotativeData
1002
{
1070
     1
1070
     1
1002
}
  0
STYLE
  5
B2
330
3
100
AcDbSymbolTableRecord
100
AcDbTextStyleTableRecord
  2

 70
     1
 40
0.0
 41
1.0
 50
0.0
 71
     0
 42
0.2
  3
ltypeshp.shx
  4

  0
STYLE
  5
D4
330
3
100
AcDbSymbolTableRecord
100
AcDbTextStyleTableRecord
  2
ITALICC_120
 70
     0
 40
0.0
 41
1.0
 50
0.0
 71
     0
 42
0.2
  3
italicc.shx
  4

  0
STYLE
  5
D5
330
3
100
AcDbSymbolTableRecord
100
AcDbTextStyleTableRecord
  2
Label Text (ANSI)
 70
     0
 40
0.0
 41
1.0
 50
0.0
 71
     0
 42
0.2
  3
tahoma.ttf
  4

1001
ACAD
1000
Tahoma
1071
      256
  0
STYLE
  5
D6
330
3
100
AcDbSymbolTableRecord
100
AcDbTextStyleTableRecord
  2
Note Text (ANSI)
 70
     0
 40
0.0
 41
1.0
 50
0.0
 71
     0
 42
0.2
  3
tahoma.ttf
  4

1001
ACAD
1000
Tahoma
1071
      256
  0
STYLE
  5
D7
330
3
100
AcDbSymbolTableRecord
100
AcDbTextStyleTableRecord
  2
ROMANS
 70
     0
 40
0.0
 41
1.0
 50
0.0
 71
     0
 42
0.2
  3
romans.shx
  4

  0
STYLE
  5
D8
330
3
100
AcDbSymbolTableRecord
100
AcDbTextStyleTableRecord
  2
SANSSERIF_114
 70
     0
 40
0.0
 41
1.0
 50
0.0
 71
     0
 42
0.2
  3
tahoma.ttf
  4

1001
ACAD
1000
Tahoma
1071
      256
  0
STYLE
  5
D9
330
3
100
AcDbSymbolTableRecord
100
AcDbTextStyleTableRecord
  2
SANSSERIF_117
 70
     0
 40
0.0
 41
1.0
 50
0.0
 71
     0
 42
0.2
  3
tahoma.ttf
  4

1001
ACAD
1000
Tahoma
1071
      256
  0
STYLE
  5
DA
330
3
100
AcDbSymbolTableRecord
100
AcDbTextStyleTableRecord
  2
STANDARDAM_ANSI
 70
     0
 40
0.0
 41
1.0
 50
0.0
 71
     0
 42
0.2
  3
txt.shx
  4

  0
STYLE
  5
DB
330
3
100
AcDbSymbolTableRecord
100
AcDbTextStyleTableRecord
  2
StandardAM_ANSI$0
 70
     0
 40
0.0
 41
1.0
 50
0.0
 71
     0
 42
0.2
  3
txt.shx
  4

  0
STYLE
  5
DC
330
3
100
AcDbSymbolTableRecord
100
AcDbTextStyleTableRecord
  2
STANDARDAM_ANSI$3
 70
     0
 40
0.0
 41
1.0
 50
0.0
 71
     0
 42
0.2
  3
txt.shx
  4

  0
STYLE
  5
DD
330
3
100
AcDbSymbolTableRecord
100
AcDbTextStyleTableRecord
  2
STANDARDAM_ANSI$4
 70
     0
 40
0.0
 41
1.0
 50
0.0
 71
     0
 42
0.2
  3
txt.shx
  4

  0
STYLE
  5
DE
330
3
100
AcDbSymbolTableRecord
100
AcDbTextStyleTableRecord
  2
STANDARDAM_ANSI$7
 70
     0
 40
0.0
 41
1.0
 50
0.0
 71
     0
 42
0.2
  3
txt.shx
  4

  0
STYLE
  5
DF
330
3
100
AcDbSymbolTableRecord
100
AcDbTextStyleTableRecord
  2
STANDARDAM_ANSI$SF
 70
     0
 40
0.0
 41
1.0
 50
0.0
 71
     0
 42
0.2
  3
txt.shx
  4

  0
STYLE
  5
E0
330
3
100
AcDbSymbolTableRecord
100
AcDbTextStyleTableRecord
  2
STANDARDAM_ANSI$SH
 70
     0
 40
0.0
 41
1.0
 50
0.0
 71
     0
 42
0.2
  3
txt.shx
  4

  0
STYLE
  5
E1
330
3
100
AcDbSymbolTableRecord
100
AcDbTextStyleTableRecord
  2
STANDARDSTANDARD
 70
     0
 40
0.0
 41
1.0
 50
0.0
 71
     0
 42
0.2
  3
txt.shx
  4

  0
STYLE
  5
2E1
330
3
100
AcDbSymbolTableRecord
100
AcDbTextStyleTableRecord
  2
Text Style153
 70
     0
 40
0.0
 41
1.0
 50
0.0
 71
     0
 42
0.2
  3
tahoma.ttf
  4

1001
ACAD
1000
Tahoma
1071
      256
  0
ENDTAB
  0
TABLE
  2
VIEW
  5
6
330
0
100
AcDbSymbolTable
 70
     0
  0
ENDTAB
  0
TABLE
  2
UCS
  5
7
330
0
100
AcDbSymbolTable
 70
     0
  0
ENDTAB
  0
TABLE
  2
APPID
  5
9
330
0
100
AcDbSymbolTable
 70
     3
  0
APPID
  5
56
330
9
100
AcDbSymbolTableRecord
100
AcDbRegAppTableRecord
  2
ACAD
 70
     0
  0
APPID
  5
5E
330
9
100
AcDbSymbolTableRecord
100
AcDbRegAppTableRecord
  2
AcadAnnotative
 70
     0
  0
APPID
  5
C54
330
9
100
AcDbSymbolTableRecord
100
AcDbRegAppTableRecord
  2
ACAD_DSTYLE_DIMRADIAL_EXTENSION
 70
     0
  0
ENDTAB
  0
TABLE
  2
DIMSTYLE
  5
A
330
0
100
AcDbSymbolTable
 70
    27
100
AcDbDimStyleTable
 71
     2
340
F6
340
58
  0
DIMSTYLE
105
58
330
A
100
AcDbSymbolTableRecord
100
AcDbDimStyleTableRecord
  2
STANDARD
 70
     0
 41
0.1800000071525573
 42
0.0625
140
0.1800000071525574
144
1.0
147
0.0900000035762787
176
   256
177
   256
178
   256
274
     3
340
55
371
    -1
372
    -1
  0
DIMSTYLE
105
59
330
A
100
AcDbSymbolTableRecord
100
AcDbDimStyleTableRecord
  2
Annotative
 70
     0
340
55
1001
AcadAnnotative
1000
AnnotativeData
1002
{
1070
     1
1070
     1
1002
}
  0
DIMSTYLE
105
E2
330
A
100
AcDbSymbolTableRecord
100
AcDbDimStyleTableRecord
  2
AM_ANSI
 70
     0
  4
 mm
 40
12.0
 41
0.119999997317791
 42
0.05
 43
0.5
 44
0.1
 45
0.00000001
 78
     4
 79
     2
140
0.1200000047683716
146
0.7099999189376831
147
0.0599999986588955
176
   256
177
   256
178
     2
284
     4
340
DA
371
    -1
372
    -1
  0
DIMSTYLE
105
E3
330
A
100
AcDbSymbolTableRecord
100
AcDbDimStyleTableRecord
  2
AM_ANSI$7
 70
     0
  4
 mm
 40
12.0
 41
0.119999997317791
 42
0.05
 43
0.5
 44
0.1
 45
0.00000001
 78
     4
 79
     2
140
0.1200000047683716
146
0.7099999189376831
147
0.0599999986588955
176
   256
177
   256
178
     2
284
     4
340
DA
371
    -1
372
    -1
  0
DIMSTYLE
105
E4
330
A
100
AcDbSymbolTableRecord
100
AcDbDimStyleTableRecord
  2
AM_ANSI$0
 70
     0
  4
 mm
 40
12.0
 41
0.119999997317791
 42
0.05
 43
0.5
 44
0.1
 45
0.00000001
 78
     4
 79
     2
140
0.1200000047683716
146
0.7099999189376831
147
0.0599999986588955
176
   256
177
   256
178
     2
284
     4
340
DB
371
    -1
372
    -1
  0
DIMSTYLE
105
E5
330
A
100
AcDbSymbolTableRecord
100
AcDbDimStyleTableRecord
  2
AM_ANSI$0$7
 70
     0
  4
 mm
 40
12.0
 41
0.119999997317791
 42
0.05
 43
0.5
 44
0.1
 45
0.00000001
 78
     4
 79
     2
140
0.1200000047683716
146
0.7099999189376831
147
0.0599999986588955
176
   256
177
   256
178
     2
284
     4
340
DB
371
    -1
372
    -1
  0
DIMSTYLE
105
E6
330
A
100
AcDbSymbolTableRecord
100
AcDbDimStyleTableRecord
  2
AM_ANSI$3
 70
     0
  4
 mm
 40
12.0
 41
0.119999997317791
 42
0.05
 43
0.5
 44
0.1
 45
0.00000001
 78
     4
 79
     2
140
0.1200000047683716
146
0.7099999189376831
147
0.0599999986588955
176
   256
177
   256
178
     2
284
     4
340
DC
371
    -1
372
    -1
  0
DIMSTYLE
105
E7
330
A
100
AcDbSymbolTableRecord
100
AcDbDimStyleTableRecord
  2
AM_ANSI$3$7
 70
     0
  4
 mm
 40
12.0
 41
0.119999997317791
 42
0.05
 43
0.5
 44
0.1
 45
0.00000001
 78
     4
 79
     2
140
0.1200000047683716
146
0.7099999189376831
147
0.0599999986588955
176
   256
177
   256
178
     2
284
     4
340
DC
371
    -1
372
    -1
  0
DIMSTYLE
105
E8
330
A
100
AcDbSymbolTableRecord
100
AcDbDimStyleTableRecord
  2
AM_ANSI$4
 70
     0
  4
 mm
 40
12.0
 41
0.119999997317791
 42
0.05
 43
0.5
 44
0.1
 45
0.00000001
 78
     4
 79
     2
140
0.1200000047683716
146
0.7099999189376831
147
0.0599999986588955
176
   256
177
   256
178
     2
284
     4
340
DD
371
    -1
372
    -1
  0
DIMSTYLE
105
E9
330
A
100
AcDbSymbolTableRecord
100
AcDbDimStyleTableRecord
  2
AM_ANSI$4$7
 70
     0
  4
 mm
 40
12.0
 41
0.119999997317791
 42
0.05
 43
0.5
 44
0.1
 45
0.00000001
 78
     4
 79
     2
140
0.1200000047683716
146
0.7099999189376831
147
0.0599999986588955
176
   256
177
   256
178
     2
284
     4
340
DD
371
    -1
372
    -1
  0
DIMSTYLE
105
EA
330
A
100
AcDbSymbolTableRecord
100
AcDbDimStyleTableRecord
  2
AM_ANSI$SF
 70
     0
  4
 mm
 40
12.0
 41
0.119999997317791
 42
0.05
 43
0.5
 44
0.1
 45
0.00000001
 75
     1
 76
     1
 78
     4
 79
     2
140
0.1200000047683716
146
0.7099999189376831
147
0.0599999986588955
176
   256
177
   256
178
     2
284
     4
340
DF
371
    -1
372
    -1
  0
DIMSTYLE
105
EB
330
A
100
AcDbSymbolTableRecord
100
AcDbDimStyleTableRecord
  2
AM_ANSI$SF$7
 70
     0
  4
 mm
 40
12.0
 41
0.119999997317791
 42
0.05
 43
0.5
 44
0.1
 45
0.00000001
 75
     1
 76
     1
 78
     4
 79
     2
140
0.1200000047683716
146
0.7099999189376831
147
0.0599999986588955
176
   256
177
   256
178
     2
284
     4
340
DF
371
    -1
372
    -1
  0
DIMSTYLE
105
EC
330
A
100
AcDbSymbolTableRecord
100
AcDbDimStyleTableRecord
  2
AM_ANSI$SH
 70
     0
  4
 mm
 40
12.0
 41
0.119999997317791
 42
0.05
 43
0.5
 44
0.1
 45
0.00000001
 75
     1
 76
     1
 78
     4
 79
     2
140
0.1200000047683716
146
0.7099999189376831
147
0.0599999986588955
176
   256
177
   256
178
     2
284
     4
340
E0
371
    -1
372
    -1
  0
DIMSTYLE
105
ED
330
A
100
AcDbSymbolTableRecord
100
AcDbDimStyleTableRecord
  2
AM_ANSI$SH$7
 70
     0
  4
 mm
 40
12.0
 41
0.119999997317791
 42
0.05
 43
0.5
 44
0.1
 45
0.00000001
 75
     1
 76
     1
 78
     4
 79
     2
140
0.1200000047683716
146
0.7099999189376831
147
0.0599999986588955
176
   256
177
   256
178
     2
284
     4
340
E0
371
    -1
372
    -1
  0
DIMSTYLE
105
EE
330
A
100
AcDbSymbolTableRecord
100
AcDbDimStyleTableRecord
  2
Architectural (ANSI)
 70
     0
 40
12.0
 41
0.0984251946210861
 43
0.2362204724409449
 44
0.125
 45
0.00000001
 46
0.3937007874015748
 78
     3
 79
     3
140
0.1200000047683716
147
0.031496062992126
171
     1
176
   256
177
   256
178
   256
272
     2
274
     1
276
     2
277
     4
284
    12
285
     4
286
    12
340
D6
371
    -1
372
    -1
  0
DIMSTYLE
105
EF
330
A
100
AcDbSymbolTableRecord
100
AcDbDimStyleTableRecord
  2
Architectural (ANSI)$7
 70
     0
 40
12.0
 41
0.0984251946210861
 43
0.2362204724409449
 44
0.125
 45
0.00000001
 46
0.3937007874015748
 78
     3
 79
     3
140
0.1200000047683716
147
0.031496062992126
171
     1
176
   256
177
   256
178
   256
272
     2
274
     1
276
     2
277
     4
284
    12
285
     4
286
    12
340
D6
371
    -1
372
    -1
  0
DIMSTYLE
105
F0
330
A
100
AcDbSymbolTableRecord
100
AcDbDimStyleTableRecord
  2
Default - Fraction (ANSI)
 70
     0
 40
12.0
 41
0.0984251946210861
 43
0.2362204724409449
 44
0.125
 45
0.00000001
 46
0.3937007874015748
 79
     3
140
0.1200000047683716
147
0.031496062992126
171
     1
176
   256
177
   256
178
   256
272
     2
274
     1
276
     2
277
     5
284
    12
285
     4
286
    12
340
D6
371
    -1
372
    -1
  0
DIMSTYLE
105
F1
330
A
100
AcDbSymbolTableRecord
100
AcDbDimStyleTableRecord
  2
Default - Fraction (ANSI)$7
 70
     0
 40
12.0
 41
0.0984251946210861
 43
0.2362204724409449
 44
0.125
 45
0.00000001
 46
0.3937007874015748
 79
     3
140
0.1200000047683716
147
0.031496062992126
171
     1
176
   256
177
   256
178
   256
272
     2
274
     1
276
     2
277
     5
284
    12
285
     4
286
    12
340
D6
371
    -1
372
    -1
  0
DIMSTYLE
105
F2
330
A
100
AcDbSymbolTableRecord
100
AcDbDimStyleTableRecord
  2
Default - mm (ANSI)
 70
     0
 40
12.0
 41
0.0984251946210861
 42
0.063
 43
0.2362204724409449
 44
0.125
 45
0.00000001
 46
0.3937007874015748
 73
     0
 78
     4
 79
     1
140
0.1200000047683716
143
1.0
144
25.4
147
0.031496062992126
171
     1
176
   256
177
   256
178
   256
179
     1
271
     2
272
     2
274
     1
284
     4
285
     4
340
D6
371
    -1
372
    -1
  0
DIMSTYLE
105
F3
330
A
100
AcDbSymbolTableRecord
100
AcDbDimStyleTableRecord
  2
Default - mm (ANSI)$7
 70
     0
 40
12.0
 41
0.0984251946210861
 42
0.063
 43
0.2362204724409449
 44
0.125
 45
0.00000001
 46
0.3937007874015748
 73
     0
 78
     4
 79
     1
140
0.1200000047683716
143
1.0
144
25.4
147
0.031496062992126
171
     1
176
   256
177
   256
178
   256
179
     1
271
     2
272
     2
274
     1
284
     4
285
     4
340
D6
371
    -1
372
    -1
  0
DIMSTYLE
105
F4
330
A
100
AcDbSymbolTableRecord
100
AcDbDimStyleTableRecord
  2
Default - mm [in] (ANSI)
 70
     0
  4
 in
 40
12.0
 41
0.0984251946210861
 42
0.063
 43
0.25
 44
0.125
 45
0.00000001
 46
0.3937007874015748
 73
     0
 78
     4
 79
     1
140
0.1200000047683716
143
0.03937
144
25.4
147
0.031496062992126
170
     1
171
     3
176
   256
177
   256
178
   256
179
     1
271
     2
272
     2
274
     3
284
     4
285
     4
286
     4
340
D6
371
    -1
372
    -1
  0
DIMSTYLE
105
F5
330
A
100
AcDbSymbolTableRecord
100
AcDbDimStyleTableRecord
  2
Default - mm [in] (ANSI)$7
 70
     0
  4
 in
 40
12.0
 41
0.0984251946210861
 42
0.063
 43
0.25
 44
0.125
 45
0.00000001
 46
0.3937007874015748
 73
     0
 78
     4
 79
     1
140
0.1200000047683716
143
0.03937
144
25.4
147
0.031496062992126
170
     1
171
     3
176
   256
177
   256
178
   256
179
     1
271
     2
272
     2
274
     3
284
     4
285
     4
286
     4
340
D6
371
    -1
372
    -1
  0
DIMSTYLE
105
F6
102
{ACAD_REACTORS
330
53C
330
628
330
712
330
7FC
330
8FC
330
9E6
330
AD0
330
BBA
330
C75
330
D7E
102
}
330
A
100
AcDbSymbolTableRecord
100
AcDbDimStyleTableRecord
  2
Default (ANSI)
 70
     0
 40
12.0
 41
0.0984251946210861
 43
0.2362204724409449
 44
0.125
 45
0.00000001
 46
0.3937007874015748
 79
     1
140
0.1200000047683716
147
0.031496062992126
171
     1
176
   256
177
   256
178
   256
271
     2
272
     2
274
     1
284
     4
285
     4
340
D6
371
    -1
372
    -1
  0
DIMSTYLE
105
F7
330
A
100
AcDbSymbolTableRecord
100
AcDbDimStyleTableRecord
  2
Default (ANSI)$7
 70
     0
 40
12.0
 41
0.0984251946210861
 43
0.2362204724409449
 44
0.125
 45
0.00000001
 46
0.3937007874015748
 79
     1
140
0.1200000047683716
147
0.031496062992126
171
     1
176
   256
177
   256
178
   256
271
     2
272
     2
274
     1
284
     4
285
     4
340
D6
371
    -1
372
    -1
  0
DIMSTYLE
105
F8
330
A
100
AcDbSymbolTableRecord
100
AcDbDimStyleTableRecord
  2
Alternate (ANSI)
 70
     0
 40
12.0
 41
0.0979999974370003
340
55
342
F9
  0
DIMSTYLE
105
10B
330
A
100
AcDbSymbolTableRecord
100
AcDbDimStyleTableRecord
  2
Datum (ANSI)
 70
     0
 40
12.0
 41
0.0979999974370003
340
55
342
F9
  0
DIMSTYLE
105
11A
330
A
100
AcDbSymbolTableRecord
100
AcDbDimStyleTableRecord
  2
Large (ANSI)
 70
     0
 40
12.0
 41
0.1959999948740005
340
55
342
F9
  0
ENDTAB
  0
TABLE
  2
BLOCK_RECORD
  5
1
330
0
100
AcDbSymbolTable
 70
    14
  0
BLOCK_RECORD
  5
6C
330
1
100
AcDbSymbolTableRecord
100
AcDbBlockTableRecord
  2
*Model_Space
340
6F
 70
     0
280
     1
281
     0
  0
BLOCK_RECORD
  5
68
330
1
100
AcDbSymbolTableRecord
100
AcDbBlockTableRecord
  2
*Paper_Space
340
6B
 70
     0
280
     1
281
     0
  0
BLOCK_RECORD
  5
70
330
1
100
AcDbSymbolTableRecord
100
AcDbBlockTableRecord
  2
*Paper_Space0
340
73
 70
     0
280
     1
281
     0
  0
BLOCK_RECORD
  5
F9
330
1
100
AcDbSymbolTableRecord
100
AcDbBlockTableRecord
  2
_Closed
340
0
 70
     0
280
     1
281
     0
  0
BLOCK_RECORD
  5
100
330
1
100
AcDbSymbolTableRecord
100
AcDbBlockTableRecord
  2
DatumFilled45
340
0
 70
     0
280
     1
281
     0
  0
BLOCK_RECORD
  5
10C
330
1
100
AcDbSymbolTableRecord
100
AcDbBlockTableRecord
  2
Filled-1
340
0
 70
     0
280
     1
281
     0
  0
BLOCK_RECORD
  5
53F
330
1
100
AcDbSymbolTableRecord
100
AcDbBlockTableRecord
  2
*D4
340
0
 70
     0
280
     1
281
     0
  0
BLOCK_RECORD
  5
629
330
1
100
AcDbSymbolTableRecord
100
AcDbBlockTableRecord
  2
*D5
340
0
 70
     0
280
     1
281
     0
  0
BLOCK_RECORD
  5
713
330
1
100
AcDbSymbolTableRecord
100
AcDbBlockTableRecord
  2
*D6
340
0
 70
     0
280
     1
281
     0
  0
BLOCK_RECORD
  5
7FD
330
1
100
AcDbSymbolTableRecord
100
AcDbBlockTableRecord
  2
*D7
340
0
 70
     0
280
     1
281
     0
  0
BLOCK_RECORD
  5
8FD
330
1
100
AcDbSymbolTableRecord
100
AcDbBlockTableRecord
  2
*D8
340
0
 70
     0
280
     1
281
     0
  0
BLOCK_RECORD
  5
9E7
330
1
100
AcDbSymbolTableRecord
100
AcDbBlockTableRecord
  2
*D9
340
0
 70
     0
280
     1
281
     0
  0
BLOCK_RECORD
  5
AD1
330
1
100
AcDbSymbolTableRecord
100
AcDbBlockTableRecord
  2
*D10
340
0
 70
     0
280
     1
281
     0
  0
BLOCK_RECORD
  5
BBB
330
1
100
AcDbSymbolTableRecord
100
AcDbBlockTableRecord
  2
*D11
340
0
 70
     0
280
     1
281
     0
  0
BLOCK_RECORD
  5
C76
330
1
100
AcDbSymbolTableRecord
100
AcDbBlockTableRecord
  2
*D12
340
0
 70
     0
280
     1
281
     0
  0
BLOCK_RECORD
  5
D7F
330
1
100
AcDbSymbolTableRecord
100
AcDbBlockTableRecord
  2
*D13
340
0
 70
     0
280
     1
281
     0
  0
ENDTAB
  0
ENDSEC
  0
SECTION
  2
BLOCKS
  0
BLOCK
  5
6D
330
6C
100
AcDbEntity
  8
0
100
AcDbBlockBegin
  2
*Model_Space
 70
     0
 10
0.0
 20
0.0
 30
0.0
  3
*Model_Space
  1

  0
ENDBLK
  5
6E
330
6C
100
AcDbEntity
  8
0
100
AcDbBlockEnd
  0
BLOCK
  5
69
330
68
100
AcDbEntity
 67
     1
  8
0
100
AcDbBlockBegin
  2
*Paper_Space
 70
     0
 10
0.0
 20
0.0
 30
0.0
  3
*Paper_Space
  1

  0
ENDBLK
  5
6A
330
68
100
AcDbEntity
 67
     1
  8
0
100
AcDbBlockEnd
  0
BLOCK
  5
71
330
70
100
AcDbEntity
 67
     1
  8
0
100
AcDbBlockBegin
  2
*Paper_Space0
 70
     0
 10
0.0
 20
0.0
 30
0.0
  3
*Paper_Space0
  1

  0
ENDBLK
  5
72
330
70
100
AcDbEntity
 67
     1
  8
0
100
AcDbBlockEnd
  0
BLOCK
  5
FE
330
F9
100
AcDbEntity
  8
0
100
AcDbBlockBegin
  2
_Closed
 70
     0
 10
0.0
 20
0.0
 30
0.0
  3
_Closed
  1

  0
LINE
  5
FA
330
F9
100
AcDbEntity
  8
0
  6
ByBlock
 62
     0
370
    -2
100
AcDbLine
 10
-1.0
 20
0.1666666666666666
 30
0.0
 11
0.0
 21
0.0
 31
0.0
  0
LINE
  5
FB
330
F9
100
AcDbEntity
  8
0
  6
ByBlock
 62
     0
370
    -2
100
AcDbLine
 10
0.0
 20
0.0
 30
0.0
 11
-1.0
 21
-0.1666666666666666
 31
0.0
  0
LINE
  5
FC
330
F9
100
AcDbEntity
  8
0
  6
ByBlock
 62
     0
370
    -2
100
AcDbLine
 10
-1.0
 20
0.1666666666666666
 30
0.0
 11
-1.0
 21
-0.1666666666666666
 31
0.0
  0
LINE
  5
FD
330
F9
100
AcDbEntity
  8
0
  6
ByBlock
 62
     0
370
    -2
100
AcDbLine
 10
0.0
 20
0.0
 30
0.0
 11
-1.0
 21
0.0
 31
0.0
  0
ENDBLK
  5
FF
330
F9
100
AcDbEntity
  8
0
100
AcDbBlockEnd
  0
BLOCK
  5
101
330
100
100
AcDbEntity
  8
0
100
AcDbBlockBegin
  2
DatumFilled45
 70
     0
 10
0.0
 20
0.0
 30
0.0
  3
DatumFilled45
  1

  0
POLYLINE
  5
103
330
100
100
AcDbEntity
  8
0
 62
     0
100
AcDb2dPolyline
 66
     1
 10
0.0
 20
0.0
 30
0.0
 70
   128
  0
VERTEX
  5
104
330
103
100
AcDbEntity
  8
0
 62
     0
100
AcDbVertex
100
AcDb2dVertex
 10
0.0
 20
0.9999999999999998
 30
0.0
  0
VERTEX
  5
105
330
103
100
AcDbEntity
  8
0
 62
     0
100
AcDbVertex
100
AcDb2dVertex
 10
0.0
 20
-0.9999999999999998
 30
0.0
  0
VERTEX
  5
107
330
103
100
AcDbEntity
  8
0
 62
     0
100
AcDbVertex
100
AcDb2dVertex
 10
-0.9999999999999998
 20
0.0
 30
0.0
  0
VERTEX
  5
108
330
103
100
AcDbEntity
  8
0
 62
     0
100
AcDbVertex
100
AcDb2dVertex
 10
0.0
 20
0.9999999999999998
 30
0.0
  0
SEQEND
  5
106
330
103
100
AcDbEntity
  8
0
 62
     0
  0
SOLID
  5
10A
330
100
100
AcDbEntity
  8
0
 62
     0
100
AcDbTrace
 10
0.0
 20
0.9999999999999998
 30
0.0
 11
0.0
 21
-0.9999999999999998
 31
0.0
 12
-0.9999999999999998
 22
0.0
 32
0.0
 13
0.0
 23
0.9999999999999998
 33
0.0
  0
ENDBLK
  5
102
330
100
100
AcDbEntity
  8
0
100
AcDbBlockEnd
  0
BLOCK
  5
10D
330
10C
100
AcDbEntity
  8
0
100
AcDbBlockBegin
  2
Filled-1
 70
     0
 10
0.0
 20
0.0
 30
0.0
  3
Filled-1
  1

  0
LINE
  5
10F
330
10C
100
AcDbEntity
  8
0
 62
     0
100
AcDbLine
 10
-0.9999999999999998
 20
0.0
 30
0.0
 11
0.0
 21
0.0
 31
0.0
  0
POLYLINE
  5
110
330
10C
100
AcDbEntity
  8
0
 62
     0
100
AcDb2dPolyline
 66
     1
 10
0.0
 20
0.0
 30
0.0
 70
   128
  0
VERTEX
  5
111
330
110
100
AcDbEntity
  8
0
 62
     0
100
AcDbVertex
100
AcDb2dVertex
 10
-0.9999999999999998
 20
-0.0994897959183674
 30
0.0
  0
VERTEX
  5
112
330
110
100
AcDbEntity
  8
0
 62
     0
100
AcDbVertex
100
AcDb2dVertex
 10
0.0
 20
0.0
 30
0.0
  0
VERTEX
  5
114
330
110
100
AcDbEntity
  8
0
 62
     0
100
AcDbVertex
100
AcDb2dVertex
 10
-0.9999999999999998
 20
0.0994897959183674
 30
0.0
  0
VERTEX
  5
115
330
110
100
AcDbEntity
  8
0
 62
     0
100
AcDbVertex
100
AcDb2dVertex
 10
-0.9999999999999998
 20
-0.0994897959183674
 30
0.0
  0
SEQEND
  5
113
330
110
100
AcDbEntity
  8
0
 62
     0
  0
SOLID
  5
116
330
10C
100
AcDbEntity
  8
0
 62
     0
100
AcDbTrace
 10
-0.9999999999999998
 20
-0.0994897959183674
 30
0.0
 11
0.0
 21
0.0
 31
0.0
 12
-0.9999999999999998
 22
0.0994897959183674
 32
0.0
 13
-0.9999999999999998
 23
-0.0994897959183674
 33
0.0
  0
LINE
  5
117
330
10C
100
AcDbEntity
  8
0
 62
     0
100
AcDbLine
 10
-0.9999999999999998
 20
-0.0994897959183674
 30
0.0
 11
0.0
 21
0.0
 31
0.0
  0
LINE
  5
118
330
10C
100
AcDbEntity
  8
0
 62
     0
100
AcDbLine
 10
0.0
 20
0.0
 30
0.0
 11
-0.9999999999999998
 21
0.0994897959183674
 31
0.0
  0
LINE
  5
119
330
10C
100
AcDbEntity
  8
0
 62
     0
100
AcDbLine
 10
-0.9999999999999998
 20
0.0994897959183674
 30
0.0
 11
-0.9999999999999998
 21
-0.0994897959183674
 31
0.0
  0
ENDBLK
  5
10E
330
10C
100
AcDbEntity
  8
0
100
AcDbBlockEnd
  0
BLOCK
  5
540
330
53F
100
AcDbEntity
  8
0
100
AcDbBlockBegin
  2
*D4
 70
     1
 10
0.0
 20
0.0
 30
0.0
  3
*D4
  1

  0
LINE
  5
61E
330
53F
100
AcDbEntity
  8
Dimension (ANSI)
440
 16777216
100
AcDbLine
 10
34.70580325202998
 20
94.78736320916025
 30
0.0
 11
34.70580325202998
 21
105.9310639965618
 31
0.0
  0
LINE
  5
61F
330
53F
100
AcDbEntity
  8
Dimension (ANSI)
440
 16777216
100
AcDbLine
 10
66.70580325202998
 20
94.78736320916025
 30
0.0
 11
66.70580325202998
 21
105.9310639965618
 31
0.0
  0
LINE
  5
620
330
53F
100
AcDbEntity
  8
Dimension (ANSI)
440
 16777216
100
AcDbLine
 10
35.88690558748302
 20
104.4310639965618
 30
0.0
 11
47.95267244529636
 21
104.4310639965618
 31
0.0
  0
LINE
  5
621
330
53F
100
AcDbEntity
  8
Dimension (ANSI)
440
 16777216
100
AcDbLine
 10
65.52470091657695
 20
104.4310639965618
 30
0.0
 11
53.45893405876358
 21
104.4310639965618
 31
0.0
  0
SOLID
  5
622
330
53F
100
AcDbEntity
  8
Dimension (ANSI)
440
 16777216
100
AcDbTrace
 10
35.88690558748302
 20
104.627914385804
 30
0.0
 11
35.88690558748302
 21
104.2342136073196
 31
0.0
 12
34.70580325202998
 22
104.4310639965618
 32
0.0
 13
34.70580325202998
 23
104.4310639965618
 33
0.0
  0
SOLID
  5
623
330
53F
100
AcDbEntity
  8
Dimension (ANSI)
440
 16777216
100
AcDbTrace
 10
65.52470091657695
 20
104.627914385804
 30
0.0
 11
65.52470091657695
 21
104.2342136073196
 31
0.0
 12
66.70580325202998
 22
104.4310639965618
 32
0.0
 13
66.70580325202998
 23
104.4310639965618
 33
0.0
  0
MTEXT
  5
624
330
53F
100
AcDbEntity
  8
Dimension (ANSI)
440
 16777216
100
AcDbMText
 10
48.33062520120187
 20
105.1810438737675
 30
0.0
 40
1.440000057220458
 41
0.0
 46
0.0
 71
     1
 72
     1
  1
\A1;32.00
  7
Note Text (ANSI)
 73
     1
 44
1.0
  0
POINT
  5
625
330
53F
100
AcDbEntity
  8
Defpoints
 62
     0
440
 16777216
100
AcDbPoint
 10
34.70580325202998
 20
94.03736320916026
 30
0.0
  0
POINT
  5
626
330
53F
100
AcDbEntity
  8
Defpoints
 62
     0
440
 16777216
100
AcDbPoint
 10
66.70580325202998
 20
94.03736320916024
 30
0.0
  0
POINT
  5
627
330
53F
100
AcDbEntity
  8
Defpoints
 62
     0
440
 16777216
100
AcDbPoint
 10
66.70580325202998
 20
104.4310639965618
 30
0.0
  0
ENDBLK
  5
541
330
53F
100
AcDbEntity
  8
0
100
AcDbBlockEnd
  0
BLOCK
  5
62A
330
629
100
AcDbEntity
  8
0
100
AcDbBlockBegin
  2
*D5
 70
     1
 10
0.0
 20
0.0
 30
0.0
  3
*D5
  1

  0
LINE
  5
708
330
629
100
AcDbEntity
  8
Dimension (ANSI)
440
 16777216
100
AcDbLine
 10
34.70580325202998
 20
94.78736320916025
 30
0.0
 11
34.70580325202998
 21
101.3283139187153
 31
0.0
  0
LINE
  5
709
330
629
100
AcDbEntity
  8
Dimension (ANSI)
440
 16777216
100
AcDbLine
 10
35.58080325202998
 20
95.85390446989649
 30
0.0
 11
35.58080325202998
 21
101.3283139187153
 31
0.0
  0
LINE
  5
70A
330
629
100
AcDbEntity
  8
Dimension (ANSI)
440
 16777216
100
AcDbLine
 10
36.76190558748301
 20
99.82831391871538
 30
0.0
 11
37.94300792293605
 21
99.82831391871538
 31
0.0
  0
LINE
  5
70B
330
629
100
AcDbEntity
  8
Dimension (ANSI)
440
 16777216
100
AcDbLine
 10
33.52470091657695
 20
99.82831391871538
 30
0.0
 11
31.73332370509633
 21
99.82831391871538
 31
0.0
  0
SOLID
  5
70C
330
629
100
AcDbEntity
  8
Dimension (ANSI)
440
 16777216
100
AcDbTrace
 10
36.76190558748301
 20
100.0251643079575
 30
0.0
 11
36.76190558748301
 21
99.63146352947321
 31
0.0
 12
35.58080325202998
 22
99.82831391871538
 32
0.0
 13
35.58080325202998
 23
99.82831391871538
 33
0.0
  0
SOLID
  5
70D
330
629
100
AcDbEntity
  8
Dimension (ANSI)
440
 16777216
100
AcDbTrace
 10
33.52470091657695
 20
100.0251643079575
 30
0.0
 11
33.52470091657695
 21
99.63146352947321
 31
0.0
 12
34.70580325202998
 22
99.82831391871538
 32
0.0
 13
34.70580325202998
 23
99.82831391871538
 33
0.0
  0
MTEXT
  5
70E
330
629
100
AcDbEntity
  8
Dimension (ANSI)
440
 16777216
100
AcDbMText
 10
27.66398063159682
 20
100.5811950720418
 30
0.0
 40
1.440000057220458
 41
0.0
 46
0.0
 71
     1
 72
     1
  1
\A1;0.88
  7
Note Text (ANSI)
 73
     1
 44
1.0
  0
POINT
  5
70F
330
629
100
AcDbEntity
  8
Defpoints
 62
     0
440
 16777216
100
AcDbPoint
 10
34.70580325202998
 20
94.03736320916026
 30
0.0
  0
POINT
  5
710
330
629
100
AcDbEntity
  8
Defpoints
 62
     0
440
 16777216
100
AcDbPoint
 10
35.58080325202998
 20
95.10390446989649
 30
0.0
  0
POINT
  5
711
330
629
100
AcDbEntity
  8
Defpoints
 62
     0
440
 16777216
100
AcDbPoint
 10
35.58080325202998
 20
99.82831391871538
 30
0.0
  0
ENDBLK
  5
62B
330
629
100
AcDbEntity
  8
0
100
AcDbBlockEnd
  0
BLOCK
  5
714
330
713
100
AcDbEntity
  8
0
100
AcDbBlockBegin
  2
*D6
 70
     1
 10
0.0
 20
0.0
 30
0.0
  3
*D6
  1

  0
LINE
  5
7F2
330
713
100
AcDbEntity
  8
Dimension (ANSI)
440
 16777216
100
AcDbLine
 10
35.58080325202998
 20
95.85390446989649
 30
0.0
 11
35.58080325202998
 21
101.3283139187153
 31
0.0
  0
LINE
  5
7F3
330
713
100
AcDbEntity
  8
Dimension (ANSI)
440
 16777216
100
AcDbLine
 10
65.83080325202998
 20
95.85390446989649
 30
0.0
 11
65.83080325202998
 21
101.3283139187153
 31
0.0
  0
LINE
  5
7F4
330
713
100
AcDbEntity
  8
Dimension (ANSI)
440
 16777216
100
AcDbLine
 10
36.76190558748301
 20
99.82831391871538
 30
0.0
 11
47.96427754977924
 21
99.82831391871538
 31
0.0
  0
LINE
  5
7F5
330
713
100
AcDbEntity
  8
Dimension (ANSI)
440
 16777216
100
AcDbLine
 10
64.64970091657694
 20
99.82831391871538
 30
0.0
 11
53.4473289542807
 21
99.82831391871538
 31
0.0
  0
SOLID
  5
7F6
330
713
100
AcDbEntity
  8
Dimension (ANSI)
440
 16777216
100
AcDbTrace
 10
36.76190558748301
 20
100.0251643079575
 30
0.0
 11
36.76190558748301
 21
99.63146352947321
 31
0.0
 12
35.58080325202998
 22
99.82831391871538
 32
0.0
 13
35.58080325202998
 23
99.82831391871538
 33
0.0
  0
SOLID
  5
7F7
330
713
100
AcDbEntity
  8
Dimension (ANSI)
440
 16777216
100
AcDbTrace
 10
64.64970091657694
 20
100.0251643079575
 30
0.0
 11
64.64970091657694
 21
99.63146352947321
 31
0.0
 12
65.83080325202998
 22
99.82831391871538
 32
0.0
 13
65.83080325202998
 23
99.82831391871538
 33
0.0
  0
MTEXT
  5
7F8
330
713
100
AcDbEntity
  8
Dimension (ANSI)
440
 16777216
100
AcDbMText
 10
48.34223030568475
 20
100.578293795921
 30
0.0
 40
1.440000057220458
 41
0.0
 46
0.0
 71
     1
 72
     1
  1
\A1;30.25
  7
Note Text (ANSI)
 73
     1
 44
1.0
  0
POINT
  5
7F9
330
713
100
AcDbEntity
  8
Defpoints
 62
     0
440
 16777216
100
AcDbPoint
 10
35.58080325202998
 20
95.10390446989649
 30
0.0
  0
POINT
  5
7FA
330
713
100
AcDbEntity
  8
Defpoints
 62
     0
440
 16777216
100
AcDbPoint
 10
65.83080325202998
 20
95.10390446989649
 30
0.0
  0
POINT
  5
7FB
330
713
100
AcDbEntity
  8
Defpoints
 62
     0
440
 16777216
100
AcDbPoint
 10
65.83080325202998
 20
99.82831391871538
 30
0.0
  0
ENDBLK
  5
715
330
713
100
AcDbEntity
  8
0
100
AcDbBlockEnd
  0
BLOCK
  5
7FE
330
7FD
100
AcDbEntity
  8
0
100
AcDbBlockBegin
  2
*D7
 70
     1
 10
0.0
 20
0.0
 30
0.0
  3
*D7
  1

  0
LINE
  5
8F1
330
7FD
100
AcDbEntity
  8
Dimension (ANSI)
440
 16777216
100
AcDbLine
 10
34.11584451276624
 20
34.1974044698965
 30
0.0
 11
30.97964405336663
 21
34.1974044698965
 31
0.0
  0
LINE
  5
8F2
330
7FD
100
AcDbEntity
  8
Dimension (ANSI)
440
 16777216
100
AcDbLine
 10
33.04930325202998
 20
35.0724044698965
 30
0.0
 11
30.97964405336663
 21
35.0724044698965
 31
0.0
  0
LINE
  5
8F3
330
7FD
100
AcDbEntity
  8
Dimension (ANSI)
440
 16777216
100
AcDbLine
 10
32.47964405336663
 20
36.25350680534953
 30
0.0
 11
32.47964405336663
 21
37.43460914080257
 31
0.0
  0
LINE
  5
8F4
330
7FD
100
AcDbEntity
  8
Dimension (ANSI)
440
 16777216
100
AcDbLine
 10
32.47964405336663
 20
33.01630213444346
 30
0.0
 11
32.47964405336663
 21
30.75343247931082
 31
0.0
  0
LINE
  5
8F5
330
7FD
100
AcDbEntity
  8
Dimension (ANSI)
440
 16777216
100
AcDbLine
 10
32.47964405336663
 20
30.75343247931082
 30
0.0
 11
31.2985417179136
 21
30.75343247931082
 31
0.0
  0
SOLID
  5
8F6
330
7FD
100
AcDbEntity
  8
Dimension (ANSI)
440
 16777216
100
AcDbTrace
 10
32.28279366412446
 20
36.25350680534953
 30
0.0
 11
32.6764944426088
 21
36.25350680534953
 31
0.0
 12
32.47964405336663
 22
35.0724044698965
 32
0.0
 13
32.47964405336663
 23
35.0724044698965
 33
0.0
  0
SOLID
  5
8F7
330
7FD
100
AcDbEntity
  8
Dimension (ANSI)
440
 16777216
100
AcDbTrace
 10
32.28279366412446
 20
33.01630213444346
 30
0.0
 11
32.6764944426088
 21
33.01630213444346
 31
0.0
 12
32.47964405336663
 22
34.1974044698965
 32
0.0
 13
32.47964405336663
 23
34.1974044698965
 33
0.0
  0
MTEXT
  5
8F8
330
7FD
100
AcDbEntity
  8
Dimension (ANSI)
440
 16777216
100
AcDbMText
 10
27.22919864441408
 20
31.50631363263723
 30
0.0
 40
1.440000057220458
 41
0.0
 46
0.0
 71
     1
 72
     1
  1
\A1;0.88
  7
Note Text (ANSI)
 73
     1
 44
1.0
  0
POINT
  5
8F9
330
7FD
100
AcDbEntity
  8
Defpoints
 62
     0
440
 16777216
100
AcDbPoint
 10
34.86584451276624
 20
34.1974044698965
 30
0.0
  0
POINT
  5
8FA
330
7FD
100
AcDbEntity
  8
Defpoints
 62
     0
440
 16777216
100
AcDbPoint
 10
33.79930325202997
 20
35.0724044698965
 30
0.0
  0
POINT
  5
8FB
330
7FD
100
AcDbEntity
  8
Defpoints
 62
     0
440
 16777216
100
AcDbPoint
 10
32.47964405336663
 20
35.0724044698965
 30
0.0
  0
ENDBLK
  5
7FF
330
7FD
100
AcDbEntity
  8
0
100
AcDbBlockEnd
  0
BLOCK
  5
8FE
330
8FD
100
AcDbEntity
  8
0
100
AcDbBlockBegin
  2
*D8
 70
     1
 10
0.0
 20
0.0
 30
0.0
  3
*D8
  1

  0
LINE
  5
9DC
330
8FD
100
AcDbEntity
  8
Dimension (ANSI)
440
 16777216
100
AcDbLine
 10
33.04930325202998
 20
35.0724044698965
 30
0.0
 11
27.57489380321108
 21
35.0724044698965
 31
0.0
  0
LINE
  5
9DD
330
8FD
100
AcDbEntity
  8
Dimension (ANSI)
440
 16777216
100
AcDbLine
 10
33.04930325202999
 20
64.19740446989649
 30
0.0
 11
27.57489380321109
 21
64.19740446989651
 31
0.0
  0
LINE
  5
9DE
330
8FD
100
AcDbEntity
  8
Dimension (ANSI)
440
 16777216
100
AcDbLine
 10
29.07489380321108
 20
36.25350680534953
 30
0.0
 11
29.07489380321108
 21
48.50697183678528
 31
0.0
  0
LINE
  5
9DF
330
8FD
100
AcDbEntity
  8
Dimension (ANSI)
440
 16777216
100
AcDbLine
 10
29.07489380321109
 20
63.01630213444347
 30
0.0
 11
29.07489380321108
 21
50.7628371030077
 31
0.0
  0
SOLID
  5
9E0
330
8FD
100
AcDbEntity
  8
Dimension (ANSI)
440
 16777216
100
AcDbTrace
 10
28.87804341396891
 20
36.25350680534953
 30
0.0
 11
29.27174419245325
 21
36.25350680534953
 31
0.0
 12
29.07489380321108
 22
35.0724044698965
 32
0.0
 13
29.07489380321108
 23
35.0724044698965
 33
0.0
  0
SOLID
  5
9E1
330
8FD
100
AcDbEntity
  8
Dimension (ANSI)
440
 16777216
100
AcDbTrace
 10
28.87804341396892
 20
63.01630213444347
 30
0.0
 11
29.27174419245326
 21
63.01630213444347
 31
0.0
 12
29.07489380321109
 22
64.19740446989651
 32
0.0
 13
29.07489380321109
 23
64.19740446989651
 33
0.0
  0
MTEXT
  5
9E2
330
8FD
100
AcDbEntity
  8
Dimension (ANSI)
440
 16777216
100
AcDbMText
 10
26.72147532328837
 20
50.38488434710219
 30
0.0
 40
1.440000057220458
 41
0.0
 46
0.0
 71
     1
 72
     1
  1
\A1;29.13
  7
Note Text (ANSI)
 73
     1
 44
1.0
  0
POINT
  5
9E3
330
8FD
100
AcDbEntity
  8
Defpoints
 62
     0
440
 16777216
100
AcDbPoint
 10
33.79930325202997
 20
35.0724044698965
 30
0.0
  0
POINT
  5
9E4
330
8FD
100
AcDbEntity
  8
Defpoints
 62
     0
440
 16777216
100
AcDbPoint
 10
33.79930325202999
 20
64.19740446989649
 30
0.0
  0
POINT
  5
9E5
330
8FD
100
AcDbEntity
  8
Defpoints
 62
     0
440
 16777216
100
AcDbPoint
 10
29.07489380321109
 20
64.19740446989651
 30
0.0
  0
ENDBLK
  5
8FF
330
8FD
100
AcDbEntity
  8
0
100
AcDbBlockEnd
  0
BLOCK
  5
9E8
330
9E7
100
AcDbEntity
  8
0
100
AcDbBlockBegin
  2
*D9
 70
     1
 10
0.0
 20
0.0
 30
0.0
  3
*D9
  1

  0
LINE
  5
AC6
330
9E7
100
AcDbEntity
  8
Dimension (ANSI)
440
 16777216
100
AcDbLine
 10
33.04930325202998
 20
35.0724044698965
 30
0.0
 11
19.07095679533707
 21
35.0724044698965
 31
0.0
  0
LINE
  5
AC7
330
9E7
100
AcDbEntity
  8
Dimension (ANSI)
440
 16777216
100
AcDbLine
 10
33.04930325202998
 20
93.32240446989649
 30
0.0
 11
19.07095679533709
 21
93.32240446989649
 31
0.0
  0
LINE
  5
AC8
330
9E7
100
AcDbEntity
  8
Dimension (ANSI)
440
 16777216
100
AcDbLine
 10
20.57095679533707
 20
36.25350680534953
 30
0.0
 11
20.57095679533708
 21
63.06657056066455
 31
0.0
  0
LINE
  5
AC9
330
9E7
100
AcDbEntity
  8
Dimension (ANSI)
440
 16777216
100
AcDbLine
 10
20.57095679533709
 20
92.14130213444347
 30
0.0
 11
20.57095679533708
 21
65.3282383791284
 31
0.0
  0
SOLID
  5
ACA
330
9E7
100
AcDbEntity
  8
Dimension (ANSI)
440
 16777216
100
AcDbTrace
 10
20.3741064060949
 20
36.25350680534953
 30
0.0
 11
20.76780718457925
 21
36.25350680534953
 31
0.0
 12
20.57095679533707
 22
35.0724044698965
 32
0.0
 13
20.57095679533707
 23
35.0724044698965
 33
0.0
  0
SOLID
  5
ACB
330
9E7
100
AcDbEntity
  8
Dimension (ANSI)
440
 16777216
100
AcDbTrace
 10
20.37410640609492
 20
92.14130213444347
 30
0.0
 11
20.76780718457926
 21
92.14130213444347
 31
0.0
 12
20.57095679533709
 22
93.32240446989649
 32
0.0
 13
20.57095679533709
 23
93.32240446989649
 33
0.0
  0
MTEXT
  5
ACC
330
9E7
100
AcDbEntity
  8
Dimension (ANSI)
440
 16777216
100
AcDbMText
 10
18.22043959153508
 20
64.95028562322289
 30
0.0
 40
1.440000057220458
 41
0.0
 46
0.0
 71
     1
 72
     1
  1
\A1;58.25
  7
Note Text (ANSI)
 73
     1
 44
1.0
  0
POINT
  5
ACD
330
9E7
100
AcDbEntity
  8
Defpoints
 62
     0
440
 16777216
100
AcDbPoint
 10
33.79930325202997
 20
35.0724044698965
 30
0.0
  0
POINT
  5
ACE
330
9E7
100
AcDbEntity
  8
Defpoints
 62
     0
440
 16777216
100
AcDbPoint
 10
33.79930325202998
 20
93.32240446989649
 30
0.0
  0
POINT
  5
ACF
330
9E7
100
AcDbEntity
  8
Defpoints
 62
     0
440
 16777216
100
AcDbPoint
 10
20.57095679533709
 20
93.32240446989649
 30
0.0
  0
ENDBLK
  5
9E9
330
9E7
100
AcDbEntity
  8
0
100
AcDbBlockEnd
  0
BLOCK
  5
AD2
330
AD1
100
AcDbEntity
  8
0
100
AcDbBlockBegin
  2
*D10
 70
     1
 10
0.0
 20
0.0
 30
0.0
  3
*D10
  1

  0
LINE
  5
BB0
330
AD1
100
AcDbEntity
  8
Dimension (ANSI)
440
 16777216
100
AcDbLine
 10
34.11584451276624
 20
34.1974044698965
 30
0.0
 11
11.63356104819932
 21
34.19740446989651
 31
0.0
  0
LINE
  5
BB1
330
AD1
100
AcDbEntity
  8
Dimension (ANSI)
440
 16777216
100
AcDbLine
 10
34.11584451276623
 20
94.19740446989647
 30
0.0
 11
11.63356104819933
 21
94.19740446989649
 31
0.0
  0
LINE
  5
BB2
330
AD1
100
AcDbEntity
  8
Dimension (ANSI)
440
 16777216
100
AcDbLine
 10
13.13356104819932
 20
35.37850680534954
 30
0.0
 11
13.13356104819932
 21
63.06995538280541
 31
0.0
  0
LINE
  5
BB3
330
AD1
100
AcDbEntity
  8
Dimension (ANSI)
440
 16777216
100
AcDbLine
 10
13.13356104819933
 20
93.01630213444346
 30
0.0
 11
13.13356104819932
 21
65.32485355698759
 31
0.0
  0
SOLID
  5
BB4
330
AD1
100
AcDbEntity
  8
Dimension (ANSI)
440
 16777216
100
AcDbTrace
 10
12.93671065895714
 20
35.37850680534954
 30
0.0
 11
13.33041143744149
 21
35.37850680534954
 31
0.0
 12
13.13356104819932
 22
34.19740446989651
 32
0.0
 13
13.13356104819932
 23
34.19740446989651
 33
0.0
  0
SOLID
  5
BB5
330
AD1
100
AcDbEntity
  8
Dimension (ANSI)
440
 16777216
100
AcDbTrace
 10
12.93671065895716
 20
93.01630213444346
 30
0.0
 11
13.3304114374415
 21
93.01630213444346
 31
0.0
 12
13.13356104819933
 22
94.19740446989649
 32
0.0
 13
13.13356104819933
 23
94.19740446989649
 33
0.0
  0
MTEXT
  5
BB6
330
AD1
100
AcDbEntity
  8
Dimension (ANSI)
440
 16777216
100
AcDbMText
 10
10.75258044512978
 20
64.94690080108208
 30
0.0
 40
1.440000057220458
 41
0.0
 46
0.0
 71
     1
 72
     1
  1
\A1;60.00
  7
Note Text (ANSI)
 73
     1
 44
1.0
  0
POINT
  5
BB7
330
AD1
100
AcDbEntity
  8
Defpoints
 62
     0
440
 16777216
100
AcDbPoint
 10
34.86584451276624
 20
34.1974044698965
 30
0.0
  0
POINT
  5
BB8
330
AD1
100
AcDbEntity
  8
Defpoints
 62
     0
440
 16777216
100
AcDbPoint
 10
34.86584451276622
 20
94.19740446989647
 30
0.0
  0
POINT
  5
BB9
330
AD1
100
AcDbEntity
  8
Defpoints
 62
     0
440
 16777216
100
AcDbPoint
 10
13.13356104819933
 20
94.19740446989649
 30
0.0
  0
ENDBLK
  5
AD3
330
AD1
100
AcDbEntity
  8
0
100
AcDbBlockEnd
  0
BLOCK
  5
BBC
330
BBB
100
AcDbEntity
  8
0
100
AcDbBlockBegin
  2
*D11
 70
     1
 10
0.0
 20
0.0
 30
0.0
  3
*D11
  1

  0
LINE
  5
C6D
330
BBB
100
AcDbEntity
  8
Dimension (ANSI)
440
 16777216
100
AcDbLine
 10
69.67430715838834
 20
32.08508409974822
 30
0.0
 11
68.13677688943892
 21
32.08508409974822
 31
0.0
  0
LINE
  5
C6E
330
BBB
100
AcDbEntity
  8
Dimension (ANSI)
440
 16777216
100
AcDbLine
 10
68.13677688943892
 20
32.08508409974822
 30
0.0
 11
66.72452278150669
 21
33.91461735893672
 31
0.0
  0
MTEXT
  5
C6F
330
BBB
100
AcDbEntity
  8
Dimension (ANSI)
440
 16777216
100
AcDbMText
 10
70.05225991429385
 20
32.08508409974822
 30
0.0
 40
1.440000057220458
 41
0.0
 46
0.0
 71
     4
 72
     1
  1
\A1;∅0.563{\P(6 PL.)}
  7
Note Text (ANSI)
 73
     1
 44
1.0
  0
SOLID
  5
C70
330
BBB
100
AcDbEntity
  8
Dimension (ANSI)
440
 16777216
100
AcDbTrace
 10
66.88034835208559
 20
34.03490230104733
 30
0.0
 11
66.56869721092778
 21
33.7943324168261
 31
0.0
 12
66.00281312884298
 22
34.84957078241013
 32
0.0
 13
66.00281312884298
 23
34.84957078241013
 33
0.0
  0
LINE
  5
C71
330
BBB
100
AcDbEntity
  8
Dimension (ANSI)
440
 16777216
100
AcDbLine
 10
64.75080325202998
 20
35.0724044698965
 30
0.0
 11
66.91080325202998
 21
35.07240446989651
 31
0.0
  0
LINE
  5
C72
330
BBB
100
AcDbEntity
  8
Dimension (ANSI)
440
 16777216
100
AcDbLine
 10
65.83080325202998
 20
33.9924044698965
 30
0.0
 11
65.83080325202998
 21
36.15240446989651
 31
0.0
  0
POINT
  5
C73
330
BBB
100
AcDbEntity
  8
Defpoints
 62
     0
440
 16777216
100
AcDbPoint
 10
66.00281312884298
 20
34.84957078241013
 30
0.0
  0
POINT
  5
C74
330
BBB
100
AcDbEntity
  8
Defpoints
 62
     0
440
 16777216
100
AcDbPoint
 10
65.65879337521697
 20
35.29523815738287
 30
0.0
  0
ENDBLK
  5
BBD
330
BBB
100
AcDbEntity
  8
0
100
AcDbBlockEnd
  0
BLOCK
  5
C77
330
C76
100
AcDbEntity
  8
0
100
AcDbBlockBegin
  2
*D12
 70
     1
 10
0.0
 20
0.0
 30
0.0
  3
*D12
  1

  0
LINE
  5
D75
330
C76
100
AcDbEntity
  8
Dimension (ANSI)
440
 16777216
100
AcDbLine
 10
59.28468602356339
 20
115.4306566396591
 30
0.0
 11
59.28468602356339
 21
114.2495543042061
 31
0.0
  0
LINE
  5
D76
330
C76
100
AcDbEntity
  8
Dimension (ANSI)
440
 16777216
100
AcDbLine
 10
59.28468602356339
 20
118.6678613105652
 30
0.0
 11
59.28468602356339
 21
122.5507309857194
 31
0.0
  0
LINE
  5
D77
330
C76
100
AcDbEntity
  8
Dimension (ANSI)
440
 16777216
100
AcDbLine
 10
59.28468602356339
 20
122.5507309857194
 30
0.0
 11
60.46578835901643
 21
122.5507309857194
 31
0.0
  0
SOLID
  5
D78
330
C76
100
AcDbEntity
  8
Dimension (ANSI)
440
 16777216
100
AcDbTrace
 10
59.08783563432122
 20
115.4306566396591
 30
0.0
 11
59.48153641280557
 21
115.4306566396591
 31
0.0
 12
59.28468602356339
 22
116.6117589751122
 32
0.0
 13
59.28468602356339
 23
116.6117589751122
 33
0.0
  0
SOLID
  5
D79
330
C76
100
AcDbEntity
  8
Dimension (ANSI)
440
 16777216
100
AcDbTrace
 10
59.08783563432122
 20
118.6678613105652
 30
0.0
 11
59.48153641280557
 21
118.6678613105652
 31
0.0
 12
59.28468602356339
 22
117.4867589751122
 32
0.0
 13
59.28468602356339
 23
117.4867589751122
 33
0.0
  0
MTEXT
  5
D7A
330
C76
100
AcDbEntity
  8
Dimension (ANSI)
440
 16777216
100
AcDbMText
 10
62.74601115807293
 20
122.5507309857194
 30
0.0
 40
1.440000057220458
 41
0.0
 46
0.0
 71
     5
 72
     1
  1
\A1;0.88{\PTYP.}
  7
Note Text (ANSI)
 73
     1
 44
1.0
  0
POINT
  5
D7B
330
C76
100
AcDbEntity
  8
Defpoints
 62
     0
440
 16777216
100
AcDbPoint
 10
62.74601115807293
 20
117.4867589751122
 30
0.0
  0
POINT
  5
D7C
330
C76
100
AcDbEntity
  8
Defpoints
 62
     0
440
 16777216
100
AcDbPoint
 10
62.7298276074956
 20
116.6117589751122
 30
0.0
  0
POINT
  5
D7D
330
C76
100
AcDbEntity
  8
Defpoints
 62
     0
440
 16777216
100
AcDbPoint
 10
59.28468602356339
 20
116.6117589751122
 30
0.0
  0
ENDBLK
  5
C78
330
C76
100
AcDbEntity
  8
0
100
AcDbBlockEnd
  0
BLOCK
  5
D80
330
D7F
100
AcDbEntity
  8
0
100
AcDbBlockBegin
  2
*D13
 70
     1
 10
0.0
 20
0.0
 30
0.0
  3
*D13
  1

  0
LINE
  5
E65
330
D7F
100
AcDbEntity
  8
Dimension (ANSI)
440
 16777216
100
AcDbLine
 10
99.79117590063872
 20
91.22273465117109
 30
0.0
 11
98.6100735651857
 21
91.22273465117109
 31
0.0
  0
LINE
  5
E66
330
D7F
100
AcDbEntity
  8
Dimension (ANSI)
440
 16777216
100
AcDbLine
 10
103.0283805715448
 20
91.22273465117109
 30
0.0
 11
104.8743336402485
 21
91.22273465117109
 31
0.0
  0
SOLID
  5
E67
330
D7F
100
AcDbEntity
  8
Dimension (ANSI)
440
 16777216
100
AcDbTrace
 10
99.79117590063872
 20
91.41958504041326
 30
0.0
 11
99.79117590063872
 21
91.02588426192893
 31
0.0
 12
100.9722782360917
 22
91.22273465117109
 32
0.0
 13
100.9722782360917
 23
91.22273465117109
 33
0.0
  0
SOLID
  5
E68
330
D7F
100
AcDbEntity
  8
Dimension (ANSI)
440
 16777216
100
AcDbTrace
 10
103.0283805715448
 20
91.41958504041326
 30
0.0
 11
103.0283805715448
 21
91.02588426192893
 31
0.0
 12
101.8472782360918
 22
91.22273465117109
 32
0.0
 13
101.8472782360918
 23
91.22273465117109
 33
0.0
  0
MTEXT
  5
E69
330
D7F
100
AcDbEntity
  8
Dimension (ANSI)
440
 16777216
100
AcDbMText
 10
105.252286396154
 20
91.22273465117109
 30
0.0
 40
1.440000057220458
 41
0.0
 46
0.0
 71
     4
 72
     1
  1
\A1;0.88{\PTYP.}
  7
Note Text (ANSI)
 73
     1
 44
1.0
  0
POINT
  5
E6A
330
D7F
100
AcDbEntity
  8
Defpoints
 62
     0
440
 16777216
100
AcDbPoint
 10
101.8472782360918
 20
91.22273465117109
 30
0.0
  0
POINT
  5
E6B
330
D7F
100
AcDbEntity
  8
Defpoints
 62
     0
440
 16777216
100
AcDbPoint
 10
100.9722782360917
 20
91.21475910591767
 30
0.0
  0
POINT
  5
E6C
330
D7F
100
AcDbEntity
  8
Defpoints
 62
     0
440
 16777216
100
AcDbPoint
 10
100.9722782360917
 20
91.22273465117109
 30
0.0
  0
ENDBLK
  5
D81
330
D7F
100
AcDbEntity
  8
0
100
AcDbBlockEnd
  0
ENDSEC
  0
SECTION
  2
ENTITIES
  0
CIRCLE
  5
11B
330
6C
100
AcDbEntity
  8
Visible (ANSI)
100
AcDbCircle
 10
65.83080325202999
 20
64.19740446989651
 30
0.0
 40
0.2814999999999999
  0
CIRCLE
  5
11C
330
6C
100
AcDbEntity
  8
Visible (ANSI)
100
AcDbCircle
 10
35.58080325202999
 20
64.19740446989649
 30
0.0
 40
0.2814999999999999
  0
CIRCLE
  5
11D
330
6C
100
AcDbEntity
  8
Visible (ANSI)
100
AcDbCircle
 10
65.83080325202998
 20
93.32240446989649
 30
0.0
 40
0.2814999999999999
  0
CIRCLE
  5
11E
330
6C
100
AcDbEntity
  8
Visible (ANSI)
100
AcDbCircle
 10
35.58080325202998
 20
93.32240446989649
 30
0.0
 40
0.2814999999999999
  0
CIRCLE
  5
11F
330
6C
100
AcDbEntity
  8
Visible (ANSI)
100
AcDbCircle
 10
35.58080325202997
 20
35.0724044698965
 30
0.0
 40
0.2814999999999999
  0
CIRCLE
  5
120
330
6C
100
AcDbEntity
  8
Visible (ANSI)
100
AcDbCircle
 10
65.83080325202998
 20
35.0724044698965
 30
0.0
 40
0.2814999999999999
  0
LINE
  5
121
330
6C
100
AcDbEntity
  8
Visible (ANSI)
100
AcDbLine
 10
66.70580325202998
 20
94.03736320916024
 30
0.0
 11
66.70580325202999
 21
34.35744573063275
 31
0.0
  0
LINE
  5
122
330
6C
100
AcDbEntity
  8
Visible (ANSI)
100
AcDbLine
 10
34.86584451276622
 20
94.19740446989647
 30
0.0
 11
66.54576199129374
 21
94.19740446989647
 31
0.0
  0
LINE
  5
123
330
6C
100
AcDbEntity
  8
Visible (ANSI)
100
AcDbLine
 10
34.70580325203
 20
34.35744573063274
 30
0.0
 11
34.70580325202998
 21
94.03736320916026
 31
0.0
  0
LINE
  5
124
330
6C
100
AcDbEntity
  8
Visible (ANSI)
100
AcDbLine
 10
66.54576199129376
 20
34.1974044698965
 30
0.0
 11
34.86584451276624
 21
34.1974044698965
 31
0.0
  0
LINE
  5
125
330
6C
100
AcDbEntity
  8
Hidden (ANSI)
100
AcDbLine
 10
66.61205325202999
 20
34.35744573063274
 30
0.0
 11
66.61205325202998
 21
94.03736320916024
 31
0.0
  0
LINE
  5
126
330
6C
100
AcDbEntity
  8
Hidden (ANSI)
100
AcDbLine
 10
66.54576199129374
 20
94.10365446989649
 30
0.0
 11
34.86584451276622
 21
94.10365446989649
 31
0.0
  0
LINE
  5
127
330
6C
100
AcDbEntity
  8
Hidden (ANSI)
100
AcDbLine
 10
34.79955325202998
 20
94.03736320916026
 30
0.0
 11
34.79955325202999
 21
34.35744573063275
 31
0.0
  0
LINE
  5
128
330
6C
100
AcDbEntity
  8
Hidden (ANSI)
100
AcDbLine
 10
34.86584451276624
 20
34.2911544698965
 30
0.0
 11
66.54576199129376
 21
34.2911544698965
 31
0.0
  0
POLYLINE
  5
129
330
6C
100
AcDbEntity
  8
Visible (ANSI)
100
AcDb2dPolyline
 66
     1
 10
0.0
 20
0.0
 30
0.0
 70
   128
  0
VERTEX
  5
12A
330
129
100
AcDbEntity
  8
Visible (ANSI)
100
AcDbVertex
100
AcDb2dVertex
 10
66.58080385276972
 20
94.07240615196771
 30
0.0
  0
VERTEX
  5
12B
330
129
100
AcDbEntity
  8
Visible (ANSI)
100
AcDbVertex
100
AcDb2dVertex
 10
66.58897992045242
 20
94.07094635443142
 30
0.0
  0
VERTEX
  5
12D
330
129
100
AcDbEntity
  8
Visible (ANSI)
100
AcDbVertex
100
AcDb2dVertex
 10
66.59711994375152
 20
94.06948655689513
 30
0.0
  0
VERTEX
  5
12E
330
129
100
AcDbEntity
  8
Visible (ANSI)
100
AcDbVertex
100
AcDb2dVertex
 10
66.60519088198201
 20
94.06802675935884
 30
0.0
  0
VERTEX
  5
12F
330
129
100
AcDbEntity
  8
Visible (ANSI)
100
AcDbVertex
100
AcDb2dVertex
 10
66.61315669076031
 20
94.06656696182254
 30
0.0
  0
VERTEX
  5
130
330
129
100
AcDbEntity
  8
Visible (ANSI)
100
AcDbVertex
100
AcDb2dVertex
 10
66.62098432940142
 20
94.06510716428625
 30
0.0
  0
VERTEX
  5
131
330
129
100
AcDbEntity
  8
Visible (ANSI)
100
AcDbVertex
100
AcDb2dVertex
 10
66.62863775352175
 20
94.06364135935268
 30
0.0
  0
VERTEX
  5
132
330
129
100
AcDbEntity
  8
Visible (ANSI)
100
AcDbVertex
100
AcDb2dVertex
 10
66.63608992983357
 20
94.0621815618164
 30
0.0
  0
VERTEX
  5
133
330
129
100
AcDbEntity
  8
Visible (ANSI)
100
AcDbVertex
100
AcDb2dVertex
 10
66.64330181025466
 20
94.06072176428009
 30
0.0
  0
VERTEX
  5
134
330
129
100
AcDbEntity
  8
Visible (ANSI)
100
AcDbVertex
100
AcDb2dVertex
 10
66.6502493651959
 20
94.0592619667438
 30
0.0
  0
VERTEX
  5
135
330
129
100
AcDbEntity
  8
Visible (ANSI)
100
AcDbVertex
100
AcDb2dVertex
 10
66.65689955397235
 20
94.05780216920751
 30
0.0
  0
VERTEX
  5
136
330
129
100
AcDbEntity
  8
Visible (ANSI)
100
AcDbVertex
100
AcDb2dVertex
 10
66.66322233959765
 20
94.05634237167122
 30
0.0
  0
VERTEX
  5
137
330
129
100
AcDbEntity
  8
Visible (ANSI)
100
AcDbVertex
100
AcDb2dVertex
 10
66.66919068878411
 20
94.05488257413493
 30
0.0
  0
VERTEX
  5
138
330
129
100
AcDbEntity
  8
Visible (ANSI)
100
AcDbVertex
100
AcDb2dVertex
 10
66.67478357564127
 20
94.05342277659864
 30
0.0
  0
VERTEX
  5
139
330
129
100
AcDbEntity
  8
Visible (ANSI)
100
AcDbVertex
100
AcDb2dVertex
 10
66.6799709631828
 20
94.05196297906234
 30
0.0
  0
VERTEX
  5
13A
330
129
100
AcDbEntity
  8
Visible (ANSI)
100
AcDbVertex
100
AcDb2dVertex
 10
66.68473783291552
 20
94.05050318152603
 30
0.0
  0
VERTEX
  5
13B
330
129
100
AcDbEntity
  8
Visible (ANSI)
100
AcDbVertex
100
AcDb2dVertex
 10
66.68905715155171
 20
94.04904338398974
 30
0.0
  0
VERTEX
  5
13C
330
129
100
AcDbEntity
  8
Visible (ANSI)
100
AcDbVertex
100
AcDb2dVertex
 10
66.69291089689957
 20
94.04758358645345
 30
0.0
  0
VERTEX
  5
13D
330
129
100
AcDbEntity
  8
Visible (ANSI)
100
AcDbVertex
100
AcDb2dVertex
 10
66.6962870541646
 20
94.04612378891716
 30
0.0
  0
VERTEX
  5
13E
330
129
100
AcDbEntity
  8
Visible (ANSI)
100
AcDbVertex
100
AcDb2dVertex
 10
66.69917060485357
 20
94.04466399138085
 30
0.0
  0
VERTEX
  5
13F
330
129
100
AcDbEntity
  8
Visible (ANSI)
100
AcDbVertex
100
AcDb2dVertex
 10
66.7015435267747
 20
94.04320419384458
 30
0.0
  0
VERTEX
  5
140
330
129
100
AcDbEntity
  8
Visible (ANSI)
100
AcDbVertex
100
AcDb2dVertex
 10
66.70340281622937
 20
94.04174439630827
 30
0.0
  0
VERTEX
  5
141
330
129
100
AcDbEntity
  8
Visible (ANSI)
100
AcDbVertex
100
AcDb2dVertex
 10
66.70473345472439
 20
94.04028459877197
 30
0.0
  0
VERTEX
  5
142
330
129
100
AcDbEntity
  8
Visible (ANSI)
100
AcDbVertex
100
AcDb2dVertex
 10
66.70553544225976
 20
94.03882480123568
 30
0.0
  0
VERTEX
  5
143
330
129
100
AcDbEntity
  8
Visible (ANSI)
100
AcDbVertex
100
AcDb2dVertex
 10
66.70580277143821
 20
94.03736500369939
 30
0.0
  0
SEQEND
  5
12C
330
129
100
AcDbEntity
  8
Visible (ANSI)
  0
POLYLINE
  5
144
330
6C
100
AcDbEntity
  8
Visible (ANSI)
100
AcDb2dPolyline
 66
     1
 10
0.0
 20
0.0
 30
0.0
 70
   128
  0
VERTEX
  5
145
330
144
100
AcDbEntity
  8
Visible (ANSI)
100
AcDbVertex
100
AcDb2dVertex
 10
66.70580277143821
 20
34.3574457336195
 30
0.0
  0
VERTEX
  5
146
330
144
100
AcDbEntity
  8
Visible (ANSI)
100
AcDbVertex
100
AcDb2dVertex
 10
66.70553544225976
 20
34.35598567795285
 30
0.0
  0
VERTEX
  5
148
330
144
100
AcDbEntity
  8
Visible (ANSI)
100
AcDbVertex
100
AcDb2dVertex
 10
66.70473345472439
 20
34.35452562228621
 30
0.0
  0
VERTEX
  5
149
330
144
100
AcDbEntity
  8
Visible (ANSI)
100
AcDbVertex
100
AcDb2dVertex
 10
66.70340281622937
 20
34.35306557835275
 30
0.0
  0
VERTEX
  5
14A
330
144
100
AcDbEntity
  8
Visible (ANSI)
100
AcDbVertex
100
AcDb2dVertex
 10
66.7015435267747
 20
34.35160552268611
 30
0.0
  0
VERTEX
  5
14B
330
144
100
AcDbEntity
  8
Visible (ANSI)
100
AcDbVertex
100
AcDb2dVertex
 10
66.69917060485357
 20
34.35014546701947
 30
0.0
  0
VERTEX
  5
14C
330
144
100
AcDbEntity
  8
Visible (ANSI)
100
AcDbVertex
100
AcDb2dVertex
 10
66.6962870541646
 20
34.34868541135282
 30
0.0
  0
VERTEX
  5
14D
330
144
100
AcDbEntity
  8
Visible (ANSI)
100
AcDbVertex
100
AcDb2dVertex
 10
66.69291089689957
 20
34.34722536741937
 30
0.0
  0
VERTEX
  5
14E
330
144
100
AcDbEntity
  8
Visible (ANSI)
100
AcDbVertex
100
AcDb2dVertex
 10
66.68905715155171
 20
34.34576531175273
 30
0.0
  0
VERTEX
  5
14F
330
144
100
AcDbEntity
  8
Visible (ANSI)
100
AcDbVertex
100
AcDb2dVertex
 10
66.68473783291552
 20
34.34430525608608
 30
0.0
  0
VERTEX
  5
150
330
144
100
AcDbEntity
  8
Visible (ANSI)
100
AcDbVertex
100
AcDb2dVertex
 10
66.6799709631828
 20
34.34284520041944
 30
0.0
  0
VERTEX
  5
151
330
144
100
AcDbEntity
  8
Visible (ANSI)
100
AcDbVertex
100
AcDb2dVertex
 10
66.67478357564127
 20
34.34138515648598
 30
0.0
  0
VERTEX
  5
152
330
144
100
AcDbEntity
  8
Visible (ANSI)
100
AcDbVertex
100
AcDb2dVertex
 10
66.66919068878411
 20
34.33992510081934
 30
0.0
  0
VERTEX
  5
153
330
144
100
AcDbEntity
  8
Visible (ANSI)
100
AcDbVertex
100
AcDb2dVertex
 10
66.66322233959765
 20
34.33846504515269
 30
0.0
  0
VERTEX
  5
154
330
144
100
AcDbEntity
  8
Visible (ANSI)
100
AcDbVertex
100
AcDb2dVertex
 10
66.65689955397235
 20
34.33700498948605
 30
0.0
  0
VERTEX
  5
155
330
144
100
AcDbEntity
  8
Visible (ANSI)
100
AcDbVertex
100
AcDb2dVertex
 10
66.6502493651959
 20
34.3355449455526
 30
0.0
  0
VERTEX
  5
156
330
144
100
AcDbEntity
  8
Visible (ANSI)
100
AcDbVertex
100
AcDb2dVertex
 10
66.64330181025466
 20
34.33408488988596
 30
0.0
  0
VERTEX
  5
157
330
144
100
AcDbEntity
  8
Visible (ANSI)
100
AcDbVertex
100
AcDb2dVertex
 10
66.63608992983357
 20
34.33262483421931
 30
0.0
  0
VERTEX
  5
158
330
144
100
AcDbEntity
  8
Visible (ANSI)
100
AcDbVertex
100
AcDb2dVertex
 10
66.62863775352175
 20
34.33116479028586
 30
0.0
  0
VERTEX
  5
159
330
144
100
AcDbEntity
  8
Visible (ANSI)
100
AcDbVertex
100
AcDb2dVertex
 10
66.62098432940142
 20
34.32970473461921
 30
0.0
  0
VERTEX
  5
15A
330
144
100
AcDbEntity
  8
Visible (ANSI)
100
AcDbVertex
100
AcDb2dVertex
 10
66.61315669076031
 20
34.32824467895257
 30
0.0
  0
VERTEX
  5
15B
330
144
100
AcDbEntity
  8
Visible (ANSI)
100
AcDbVertex
100
AcDb2dVertex
 10
66.60519088198201
 20
34.32678462328592
 30
0.0
  0
VERTEX
  5
15C
330
144
100
AcDbEntity
  8
Visible (ANSI)
100
AcDbVertex
100
AcDb2dVertex
 10
66.59711994375152
 20
34.32532457935248
 30
0.0
  0
VERTEX
  5
15D
330
144
100
AcDbEntity
  8
Visible (ANSI)
100
AcDbVertex
100
AcDb2dVertex
 10
66.58897992045242
 20
34.32386452368583
 30
0.0
  0
VERTEX
  5
15E
330
144
100
AcDbEntity
  8
Visible (ANSI)
100
AcDbVertex
100
AcDb2dVertex
 10
66.58080385276972
 20
34.32240446801919
 30
0.0
  0
SEQEND
  5
147
330
144
100
AcDbEntity
  8
Visible (ANSI)
  0
POLYLINE
  5
15F
330
6C
100
AcDbEntity
  8
Visible (ANSI)
100
AcDb2dPolyline
 66
     1
 10
0.0
 20
0.0
 30
0.0
 70
   128
  0
VERTEX
  5
160
330
15F
100
AcDbEntity
  8
Visible (ANSI)
100
AcDbVertex
100
AcDb2dVertex
 10
34.83080325015269
 20
94.07240615196771
 30
0.0
  0
VERTEX
  5
161
330
15F
100
AcDbEntity
  8
Visible (ANSI)
100
AcDbVertex
100
AcDb2dVertex
 10
34.83226330581933
 20
94.08058221965042
 30
0.0
  0
VERTEX
  5
163
330
15F
100
AcDbEntity
  8
Visible (ANSI)
100
AcDbVertex
100
AcDb2dVertex
 10
34.83372336148598
 20
94.08872224294951
 30
0.0
  0
VERTEX
  5
164
330
15F
100
AcDbEntity
  8
Visible (ANSI)
100
AcDbVertex
100
AcDb2dVertex
 10
34.83518340541943
 20
94.09679017748137
 30
0.0
  0
VERTEX
  5
165
330
15F
100
AcDbEntity
  8
Visible (ANSI)
100
AcDbVertex
100
AcDb2dVertex
 10
34.83664346108608
 20
94.10475598625968
 30
0.0
  0
VERTEX
  5
166
330
15F
100
AcDbEntity
  8
Visible (ANSI)
100
AcDbVertex
100
AcDb2dVertex
 10
34.83810351675272
 20
94.1125836249008
 30
0.0
  0
VERTEX
  5
167
330
15F
100
AcDbEntity
  8
Visible (ANSI)
100
AcDbVertex
100
AcDb2dVertex
 10
34.83956357241936
 20
94.12023704902111
 30
0.0
  0
VERTEX
  5
168
330
15F
100
AcDbEntity
  8
Visible (ANSI)
100
AcDbVertex
100
AcDb2dVertex
 10
34.84102361635282
 20
94.12769222903158
 30
0.0
  0
VERTEX
  5
169
330
15F
100
AcDbEntity
  8
Visible (ANSI)
100
AcDbVertex
100
AcDb2dVertex
 10
34.84248367201946
 20
94.13490711315128
 30
0.0
  0
VERTEX
  5
16A
330
15F
100
AcDbEntity
  8
Visible (ANSI)
100
AcDbVertex
100
AcDb2dVertex
 10
34.84394372768611
 20
94.14185166439391
 30
0.0
  0
VERTEX
  5
16B
330
15F
100
AcDbEntity
  8
Visible (ANSI)
100
AcDbVertex
100
AcDb2dVertex
 10
34.84540377161955
 20
94.14850185317035
 30
0.0
  0
VERTEX
  5
16C
330
15F
100
AcDbEntity
  8
Visible (ANSI)
100
AcDbVertex
100
AcDb2dVertex
 10
34.8468638272862
 20
94.15482163509702
 30
0.0
  0
VERTEX
  5
16D
330
15F
100
AcDbEntity
  8
Visible (ANSI)
100
AcDbVertex
100
AcDb2dVertex
 10
34.84832388295284
 20
94.16079298798212
 30
0.0
  0
VERTEX
  5
16E
330
15F
100
AcDbEntity
  8
Visible (ANSI)
100
AcDbVertex
100
AcDb2dVertex
 10
34.84978393861949
 20
94.16638587483928
 30
0.0
  0
VERTEX
  5
16F
330
15F
100
AcDbEntity
  8
Visible (ANSI)
100
AcDbVertex
100
AcDb2dVertex
 10
34.85124398255294
 20
94.17157626607943
 30
0.0
  0
VERTEX
  5
170
330
15F
100
AcDbEntity
  8
Visible (ANSI)
100
AcDbVertex
100
AcDb2dVertex
 10
34.85270403821958
 20
94.17634013211351
 30
0.0
  0
VERTEX
  5
171
330
15F
100
AcDbEntity
  8
Visible (ANSI)
100
AcDbVertex
100
AcDb2dVertex
 10
34.85416409388623
 20
94.18065945074971
 30
0.0
  0
VERTEX
  5
172
330
15F
100
AcDbEntity
  8
Visible (ANSI)
100
AcDbVertex
100
AcDb2dVertex
 10
34.85562414955288
 20
94.18451619979622
 30
0.0
  0
VERTEX
  5
173
330
15F
100
AcDbEntity
  8
Visible (ANSI)
100
AcDbVertex
100
AcDb2dVertex
 10
34.85708419348632
 20
94.18789235706123
 30
0.0
  0
VERTEX
  5
174
330
15F
100
AcDbEntity
  8
Visible (ANSI)
100
AcDbVertex
100
AcDb2dVertex
 10
34.85854424915296
 20
94.19076990035293
 30
0.0
  0
VERTEX
  5
175
330
15F
100
AcDbEntity
  8
Visible (ANSI)
100
AcDbVertex
100
AcDb2dVertex
 10
34.86000430481961
 20
94.19314282227409
 30
0.0
  0
VERTEX
  5
176
330
15F
100
AcDbEntity
  8
Visible (ANSI)
100
AcDbVertex
100
AcDb2dVertex
 10
34.86146436048626
 20
94.19500511542736
 30
0.0
  0
VERTEX
  5
177
330
15F
100
AcDbEntity
  8
Visible (ANSI)
100
AcDbVertex
100
AcDb2dVertex
 10
34.8629244044197
 20
94.19633275022375
 30
0.0
  0
VERTEX
  5
178
330
15F
100
AcDbEntity
  8
Visible (ANSI)
100
AcDbVertex
100
AcDb2dVertex
 10
34.86438446008635
 20
94.19713774145774
 30
0.0
  0
VERTEX
  5
179
330
15F
100
AcDbEntity
  8
Visible (ANSI)
100
AcDbVertex
100
AcDb2dVertex
 10
34.865844515753
 20
94.19740206693758
 30
0.0
  0
SEQEND
  5
162
330
15F
100
AcDbEntity
  8
Visible (ANSI)
  0
POLYLINE
  5
17A
330
6C
100
AcDbEntity
  8
Visible (ANSI)
100
AcDb2dPolyline
 66
     1
 10
0.0
 20
0.0
 30
0.0
 70
   128
  0
VERTEX
  5
17B
330
17A
100
AcDbEntity
  8
Visible (ANSI)
100
AcDbVertex
100
AcDb2dVertex
 10
66.54576270450139
 20
94.19740206693758
 30
0.0
  0
VERTEX
  5
17C
330
17A
100
AcDbEntity
  8
Visible (ANSI)
100
AcDbVertex
100
AcDb2dVertex
 10
66.54722250203768
 20
94.19713774145774
 30
0.0
  0
VERTEX
  5
17E
330
17A
100
AcDbEntity
  8
Visible (ANSI)
100
AcDbVertex
100
AcDb2dVertex
 10
66.54868229957397
 20
94.19633275022375
 30
0.0
  0
VERTEX
  5
17F
330
17A
100
AcDbEntity
  8
Visible (ANSI)
100
AcDbVertex
100
AcDb2dVertex
 10
66.55014209711026
 20
94.19500511542736
 30
0.0
  0
VERTEX
  5
180
330
17A
100
AcDbEntity
  8
Visible (ANSI)
100
AcDbVertex
100
AcDb2dVertex
 10
66.55160189464656
 20
94.19314282227409
 30
0.0
  0
VERTEX
  5
181
330
17A
100
AcDbEntity
  8
Visible (ANSI)
100
AcDbVertex
100
AcDb2dVertex
 10
66.55306169218286
 20
94.19076990035293
 30
0.0
  0
VERTEX
  5
182
330
17A
100
AcDbEntity
  8
Visible (ANSI)
100
AcDbVertex
100
AcDb2dVertex
 10
66.55452148971915
 20
94.18789235706123
 30
0.0
  0
VERTEX
  5
183
330
17A
100
AcDbEntity
  8
Visible (ANSI)
100
AcDbVertex
100
AcDb2dVertex
 10
66.55598128725545
 20
94.18451619979622
 30
0.0
  0
VERTEX
  5
184
330
17A
100
AcDbEntity
  8
Visible (ANSI)
100
AcDbVertex
100
AcDb2dVertex
 10
66.55744108479175
 20
94.18065945074971
 30
0.0
  0
VERTEX
  5
185
330
17A
100
AcDbEntity
  8
Visible (ANSI)
100
AcDbVertex
100
AcDb2dVertex
 10
66.55890388602667
 20
94.17634013211351
 30
0.0
  0
VERTEX
  5
186
330
17A
100
AcDbEntity
  8
Visible (ANSI)
100
AcDbVertex
100
AcDb2dVertex
 10
66.56036368356296
 20
94.17157626607943
 30
0.0
  0
VERTEX
  5
187
330
17A
100
AcDbEntity
  8
Visible (ANSI)
100
AcDbVertex
100
AcDb2dVertex
 10
66.56182348109926
 20
94.16638587483928
 30
0.0
  0
VERTEX
  5
188
330
17A
100
AcDbEntity
  8
Visible (ANSI)
100
AcDbVertex
100
AcDb2dVertex
 10
66.56328327863555
 20
94.16079298798212
 30
0.0
  0
VERTEX
  5
189
330
17A
100
AcDbEntity
  8
Visible (ANSI)
100
AcDbVertex
100
AcDb2dVertex
 10
66.56474307617185
 20
94.15482163509702
 30
0.0
  0
VERTEX
  5
18A
330
17A
100
AcDbEntity
  8
Visible (ANSI)
100
AcDbVertex
100
AcDb2dVertex
 10
66.56620287370815
 20
94.14850185317035
 30
0.0
  0
VERTEX
  5
18B
330
17A
100
AcDbEntity
  8
Visible (ANSI)
100
AcDbVertex
100
AcDb2dVertex
 10
66.56766267124443
 20
94.14185166439391
 30
0.0
  0
VERTEX
  5
18C
330
17A
100
AcDbEntity
  8
Visible (ANSI)
100
AcDbVertex
100
AcDb2dVertex
 10
66.56912246878073
 20
94.13490711315128
 30
0.0
  0
VERTEX
  5
18D
330
17A
100
AcDbEntity
  8
Visible (ANSI)
100
AcDbVertex
100
AcDb2dVertex
 10
66.57058226631703
 20
94.12769222903158
 30
0.0
  0
VERTEX
  5
18E
330
17A
100
AcDbEntity
  8
Visible (ANSI)
100
AcDbVertex
100
AcDb2dVertex
 10
66.57204206385332
 20
94.12023704902111
 30
0.0
  0
VERTEX
  5
18F
330
17A
100
AcDbEntity
  8
Visible (ANSI)
100
AcDbVertex
100
AcDb2dVertex
 10
66.57350186138962
 20
94.1125836249008
 30
0.0
  0
VERTEX
  5
190
330
17A
100
AcDbEntity
  8
Visible (ANSI)
100
AcDbVertex
100
AcDb2dVertex
 10
66.57496165892592
 20
94.10475598625968
 30
0.0
  0
VERTEX
  5
191
330
17A
100
AcDbEntity
  8
Visible (ANSI)
100
AcDbVertex
100
AcDb2dVertex
 10
66.57642446016083
 20
94.09679017748137
 30
0.0
  0
VERTEX
  5
192
330
17A
100
AcDbEntity
  8
Visible (ANSI)
100
AcDbVertex
100
AcDb2dVertex
 10
66.57788425769713
 20
94.08872224294951
 30
0.0
  0
VERTEX
  5
193
330
17A
100
AcDbEntity
  8
Visible (ANSI)
100
AcDbVertex
100
AcDb2dVertex
 10
66.57934405523342
 20
94.08058221965042
 30
0.0
  0
VERTEX
  5
194
330
17A
100
AcDbEntity
  8
Visible (ANSI)
100
AcDbVertex
100
AcDb2dVertex
 10
66.58080385276972
 20
94.07240615196771
 30
0.0
  0
SEQEND
  5
17D
330
17A
100
AcDbEntity
  8
Visible (ANSI)
  0
POLYLINE
  5
195
330
6C
100
AcDbEntity
  8
Visible (ANSI)
100
AcDb2dPolyline
 66
     1
 10
0.0
 20
0.0
 30
0.0
 70
   128
  0
VERTEX
  5
196
330
195
100
AcDbEntity
  8
Visible (ANSI)
100
AcDbVertex
100
AcDb2dVertex
 10
34.83080325015269
 20
34.32240446801919
 30
0.0
  0
VERTEX
  5
197
330
195
100
AcDbEntity
  8
Visible (ANSI)
100
AcDbVertex
100
AcDb2dVertex
 10
34.82262786299546
 20
34.32386452368583
 30
0.0
  0
VERTEX
  5
199
330
195
100
AcDbEntity
  8
Visible (ANSI)
100
AcDbVertex
100
AcDb2dVertex
 10
34.81448747596723
 20
34.32532457935248
 30
0.0
  0
VERTEX
  5
19A
330
195
100
AcDbEntity
  8
Visible (ANSI)
100
AcDbVertex
100
AcDb2dVertex
 10
34.80641696013186
 20
34.32678462328592
 30
0.0
  0
VERTEX
  5
19B
330
195
100
AcDbEntity
  8
Visible (ANSI)
100
AcDbVertex
100
AcDb2dVertex
 10
34.79845086975681
 20
34.32824467895257
 30
0.0
  0
VERTEX
  5
19C
330
195
100
AcDbEntity
  8
Visible (ANSI)
100
AcDbVertex
100
AcDb2dVertex
 10
34.79062331911468
 20
34.32970473461921
 30
0.0
  0
VERTEX
  5
19D
330
195
100
AcDbEntity
  8
Visible (ANSI)
100
AcDbVertex
100
AcDb2dVertex
 10
34.78296782408494
 20
34.33116479028586
 30
0.0
  0
VERTEX
  5
19E
330
195
100
AcDbEntity
  8
Visible (ANSI)
100
AcDbVertex
100
AcDb2dVertex
 10
34.77551716722223
 20
34.33262483421931
 30
0.0
  0
VERTEX
  5
19F
330
195
100
AcDbEntity
  8
Visible (ANSI)
100
AcDbVertex
100
AcDb2dVertex
 10
34.76830325109134
 20
34.33408488988596
 30
0.0
  0
VERTEX
  5
1A0
330
195
100
AcDbEntity
  8
Visible (ANSI)
100
AcDbVertex
100
AcDb2dVertex
 10
34.76135697506865
 20
34.3355449455526
 30
0.0
  0
VERTEX
  5
1A1
330
195
100
AcDbEntity
  8
Visible (ANSI)
100
AcDbVertex
100
AcDb2dVertex
 10
34.75470807401066
 20
34.33700498948605
 30
0.0
  0
VERTEX
  5
1A2
330
195
100
AcDbEntity
  8
Visible (ANSI)
100
AcDbVertex
100
AcDb2dVertex
 10
34.7483850243884
 20
34.33846504515269
 30
0.0
  0
VERTEX
  5
1A3
330
195
100
AcDbEntity
  8
Visible (ANSI)
100
AcDbVertex
100
AcDb2dVertex
 10
34.74241490348908
 20
34.33992510081934
 30
0.0
  0
VERTEX
  5
1A4
330
195
100
AcDbEntity
  8
Visible (ANSI)
100
AcDbVertex
100
AcDb2dVertex
 10
34.73682327501738
 20
34.34138515648598
 30
0.0
  0
VERTEX
  5
1A5
330
195
100
AcDbEntity
  8
Visible (ANSI)
100
AcDbVertex
100
AcDb2dVertex
 10
34.7316340834967
 20
34.34284520041944
 30
0.0
  0
VERTEX
  5
1A6
330
195
100
AcDbEntity
  8
Visible (ANSI)
100
AcDbVertex
100
AcDb2dVertex
 10
34.72686955013699
 20
34.34430525608608
 30
0.0
  0
VERTEX
  5
1A7
330
195
100
AcDbEntity
  8
Visible (ANSI)
100
AcDbVertex
100
AcDb2dVertex
 10
34.72255007603592
 20
34.34576531175273
 30
0.0
  0
VERTEX
  5
1A8
330
195
100
AcDbEntity
  8
Visible (ANSI)
100
AcDbVertex
100
AcDb2dVertex
 10
34.71869416004646
 20
34.34722536741937
 30
0.0
  0
VERTEX
  5
1A9
330
195
100
AcDbEntity
  8
Visible (ANSI)
100
AcDbVertex
100
AcDb2dVertex
 10
34.7153183107779
 20
34.34868541135282
 30
0.0
  0
VERTEX
  5
1AA
330
195
100
AcDbEntity
  8
Visible (ANSI)
100
AcDbVertex
100
AcDb2dVertex
 10
34.71243698572987
 20
34.35014546701947
 30
0.0
  0
VERTEX
  5
1AB
330
195
100
AcDbEntity
  8
Visible (ANSI)
100
AcDbVertex
100
AcDb2dVertex
 10
34.71006252382653
 20
34.35160552268611
 30
0.0
  0
VERTEX
  5
1AC
330
195
100
AcDbEntity
  8
Visible (ANSI)
100
AcDbVertex
100
AcDb2dVertex
 10
34.70820509206708
 20
34.35306557835275
 30
0.0
  0
VERTEX
  5
1AD
330
195
100
AcDbEntity
  8
Visible (ANSI)
100
AcDbVertex
100
AcDb2dVertex
 10
34.70687264436796
 20
34.35452562228621
 30
0.0
  0
VERTEX
  5
1AE
330
195
100
AcDbEntity
  8
Visible (ANSI)
100
AcDbVertex
100
AcDb2dVertex
 10
34.70607088661534
 20
34.35598567795285
 30
0.0
  0
VERTEX
  5
1AF
330
195
100
AcDbEntity
  8
Visible (ANSI)
100
AcDbVertex
100
AcDb2dVertex
 10
34.70580325203
 20
34.3574457336195
 30
0.0
  0
SEQEND
  5
198
330
195
100
AcDbEntity
  8
Visible (ANSI)
  0
POLYLINE
  5
1B0
330
6C
100
AcDbEntity
  8
Visible (ANSI)
100
AcDb2dPolyline
 66
     1
 10
0.0
 20
0.0
 30
0.0
 70
   128
  0
VERTEX
  5
1B1
330
1B0
100
AcDbEntity
  8
Visible (ANSI)
100
AcDbVertex
100
AcDb2dVertex
 10
34.70580325202998
 20
94.03736500369939
 30
0.0
  0
VERTEX
  5
1B2
330
1B0
100
AcDbEntity
  8
Visible (ANSI)
100
AcDbVertex
100
AcDb2dVertex
 10
34.70607088661534
 20
94.03882480123568
 30
0.0
  0
VERTEX
  5
1B4
330
1B0
100
AcDbEntity
  8
Visible (ANSI)
100
AcDbVertex
100
AcDb2dVertex
 10
34.70687264436796
 20
94.04028459877197
 30
0.0
  0
VERTEX
  5
1B5
330
1B0
100
AcDbEntity
  8
Visible (ANSI)
100
AcDbVertex
100
AcDb2dVertex
 10
34.70820509206708
 20
94.04174439630827
 30
0.0
  0
VERTEX
  5
1B6
330
1B0
100
AcDbEntity
  8
Visible (ANSI)
100
AcDbVertex
100
AcDb2dVertex
 10
34.71006252382653
 20
94.04320419384458
 30
0.0
  0
VERTEX
  5
1B7
330
1B0
100
AcDbEntity
  8
Visible (ANSI)
100
AcDbVertex
100
AcDb2dVertex
 10
34.71243698572987
 20
94.04466399138085
 30
0.0
  0
VERTEX
  5
1B8
330
1B0
100
AcDbEntity
  8
Visible (ANSI)
100
AcDbVertex
100
AcDb2dVertex
 10
34.7153183107779
 20
94.04612378891716
 30
0.0
  0
VERTEX
  5
1B9
330
1B0
100
AcDbEntity
  8
Visible (ANSI)
100
AcDbVertex
100
AcDb2dVertex
 10
34.71869416004646
 20
94.04758358645345
 30
0.0
  0
VERTEX
  5
1BA
330
1B0
100
AcDbEntity
  8
Visible (ANSI)
100
AcDbVertex
100
AcDb2dVertex
 10
34.72255007603592
 20
94.04904338398974
 30
0.0
  0
VERTEX
  5
1BB
330
1B0
100
AcDbEntity
  8
Visible (ANSI)
100
AcDbVertex
100
AcDb2dVertex
 10
34.72686955013699
 20
94.05050318152603
 30
0.0
  0
VERTEX
  5
1BC
330
1B0
100
AcDbEntity
  8
Visible (ANSI)
100
AcDbVertex
100
AcDb2dVertex
 10
34.7316340834967
 20
94.05196297906234
 30
0.0
  0
VERTEX
  5
1BD
330
1B0
100
AcDbEntity
  8
Visible (ANSI)
100
AcDbVertex
100
AcDb2dVertex
 10
34.73682327501738
 20
94.05342277659864
 30
0.0
  0
VERTEX
  5
1BE
330
1B0
100
AcDbEntity
  8
Visible (ANSI)
100
AcDbVertex
100
AcDb2dVertex
 10
34.74241490348908
 20
94.05488257413493
 30
0.0
  0
VERTEX
  5
1BF
330
1B0
100
AcDbEntity
  8
Visible (ANSI)
100
AcDbVertex
100
AcDb2dVertex
 10
34.7483850243884
 20
94.05634237167122
 30
0.0
  0
VERTEX
  5
1C0
330
1B0
100
AcDbEntity
  8
Visible (ANSI)
100
AcDbVertex
100
AcDb2dVertex
 10
34.75470807401066
 20
94.05780216920751
 30
0.0
  0
VERTEX
  5
1C1
330
1B0
100
AcDbEntity
  8
Visible (ANSI)
100
AcDbVertex
100
AcDb2dVertex
 10
34.76135697506865
 20
94.0592619667438
 30
0.0
  0
VERTEX
  5
1C2
330
1B0
100
AcDbEntity
  8
Visible (ANSI)
100
AcDbVertex
100
AcDb2dVertex
 10
34.76830325109134
 20
94.06072176428009
 30
0.0
  0
VERTEX
  5
1C3
330
1B0
100
AcDbEntity
  8
Visible (ANSI)
100
AcDbVertex
100
AcDb2dVertex
 10
34.77551716722223
 20
94.0621815618164
 30
0.0
  0
VERTEX
  5
1C4
330
1B0
100
AcDbEntity
  8
Visible (ANSI)
100
AcDbVertex
100
AcDb2dVertex
 10
34.78296782408494
 20
94.06364135935268
 30
0.0
  0
VERTEX
  5
1C5
330
1B0
100
AcDbEntity
  8
Visible (ANSI)
100
AcDbVertex
100
AcDb2dVertex
 10
34.79062331911468
 20
94.06510716428625
 30
0.0
  0
VERTEX
  5
1C6
330
1B0
100
AcDbEntity
  8
Visible (ANSI)
100
AcDbVertex
100
AcDb2dVertex
 10
34.79845086975681
 20
94.06656696182254
 30
0.0
  0
VERTEX
  5
1C7
330
1B0
100
AcDbEntity
  8
Visible (ANSI)
100
AcDbVertex
100
AcDb2dVertex
 10
34.80641696013186
 20
94.06802675935884
 30
0.0
  0
VERTEX
  5
1C8
330
1B0
100
AcDbEntity
  8
Visible (ANSI)
100
AcDbVertex
100
AcDb2dVertex
 10
34.81448747596723
 20
94.06948655689513
 30
0.0
  0
VERTEX
  5
1C9
330
1B0
100
AcDbEntity
  8
Visible (ANSI)
100
AcDbVertex
100
AcDb2dVertex
 10
34.82262786299546
 20
94.07094635443142
 30
0.0
  0
VERTEX
  5
1CA
330
1B0
100
AcDbEntity
  8
Visible (ANSI)
100
AcDbVertex
100
AcDb2dVertex
 10
34.83080325015269
 20
94.07240615196771
 30
0.0
  0
SEQEND
  5
1B3
330
1B0
100
AcDbEntity
  8
Visible (ANSI)
  0
POLYLINE
  5
1CB
330
6C
100
AcDbEntity
  8
Visible (ANSI)
100
AcDb2dPolyline
 66
     1
 10
0.0
 20
0.0
 30
0.0
 70
   128
  0
VERTEX
  5
1CC
330
1CB
100
AcDbEntity
  8
Visible (ANSI)
100
AcDbVertex
100
AcDb2dVertex
 10
66.58080385276972
 20
34.32240446801919
 30
0.0
  0
VERTEX
  5
1CD
330
1CB
100
AcDbEntity
  8
Visible (ANSI)
100
AcDbVertex
100
AcDb2dVertex
 10
66.57934405523342
 20
34.31422908086196
 30
0.0
  0
VERTEX
  5
1CF
330
1CB
100
AcDbEntity
  8
Visible (ANSI)
100
AcDbVertex
100
AcDb2dVertex
 10
66.57788425769713
 20
34.30608869383374
 30
0.0
  0
VERTEX
  5
1D0
330
1CB
100
AcDbEntity
  8
Visible (ANSI)
100
AcDbVertex
100
AcDb2dVertex
 10
66.57642446016083
 20
34.29801817799836
 30
0.0
  0
VERTEX
  5
1D1
330
1CB
100
AcDbEntity
  8
Visible (ANSI)
100
AcDbVertex
100
AcDb2dVertex
 10
66.57496165892592
 20
34.29005208762331
 30
0.0
  0
VERTEX
  5
1D2
330
1CB
100
AcDbEntity
  8
Visible (ANSI)
100
AcDbVertex
100
AcDb2dVertex
 10
66.57350186138962
 20
34.28222453698118
 30
0.0
  0
VERTEX
  5
1D3
330
1CB
100
AcDbEntity
  8
Visible (ANSI)
100
AcDbVertex
100
AcDb2dVertex
 10
66.57204206385332
 20
34.27456904195145
 30
0.0
  0
VERTEX
  5
1D4
330
1CB
100
AcDbEntity
  8
Visible (ANSI)
100
AcDbVertex
100
AcDb2dVertex
 10
66.57058226631703
 20
34.26711838508874
 30
0.0
  0
VERTEX
  5
1D5
330
1CB
100
AcDbEntity
  8
Visible (ANSI)
100
AcDbVertex
100
AcDb2dVertex
 10
66.56912246878073
 20
34.25990446895784
 30
0.0
  0
VERTEX
  5
1D6
330
1CB
100
AcDbEntity
  8
Visible (ANSI)
100
AcDbVertex
100
AcDb2dVertex
 10
66.56766267124443
 20
34.25295819293515
 30
0.0
  0
VERTEX
  5
1D7
330
1CB
100
AcDbEntity
  8
Visible (ANSI)
100
AcDbVertex
100
AcDb2dVertex
 10
66.56620287370815
 20
34.24630929187716
 30
0.0
  0
VERTEX
  5
1D8
330
1CB
100
AcDbEntity
  8
Visible (ANSI)
100
AcDbVertex
100
AcDb2dVertex
 10
66.56474307617185
 20
34.2399862422549
 30
0.0
  0
VERTEX
  5
1D9
330
1CB
100
AcDbEntity
  8
Visible (ANSI)
100
AcDbVertex
100
AcDb2dVertex
 10
66.56328327863555
 20
34.23401612135557
 30
0.0
  0
VERTEX
  5
1DA
330
1CB
100
AcDbEntity
  8
Visible (ANSI)
100
AcDbVertex
100
AcDb2dVertex
 10
66.56182348109926
 20
34.22842449288388
 30
0.0
  0
VERTEX
  5
1DB
330
1CB
100
AcDbEntity
  8
Visible (ANSI)
100
AcDbVertex
100
AcDb2dVertex
 10
66.56036368356296
 20
34.2232353013632
 30
0.0
  0
VERTEX
  5
1DC
330
1CB
100
AcDbEntity
  8
Visible (ANSI)
100
AcDbVertex
100
AcDb2dVertex
 10
66.55890388602667
 20
34.21847076800349
 30
0.0
  0
VERTEX
  5
1DD
330
1CB
100
AcDbEntity
  8
Visible (ANSI)
100
AcDbVertex
100
AcDb2dVertex
 10
66.55744108479175
 20
34.21415129390243
 30
0.0
  0
VERTEX
  5
1DE
330
1CB
100
AcDbEntity
  8
Visible (ANSI)
100
AcDbVertex
100
AcDb2dVertex
 10
66.55598128725545
 20
34.21029537791297
 30
0.0
  0
VERTEX
  5
1DF
330
1CB
100
AcDbEntity
  8
Visible (ANSI)
100
AcDbVertex
100
AcDb2dVertex
 10
66.55452148971915
 20
34.20691952864439
 30
0.0
  0
VERTEX
  5
1E0
330
1CB
100
AcDbEntity
  8
Visible (ANSI)
100
AcDbVertex
100
AcDb2dVertex
 10
66.55306169218286
 20
34.20403820359638
 30
0.0
  0
VERTEX
  5
1E1
330
1CB
100
AcDbEntity
  8
Visible (ANSI)
100
AcDbVertex
100
AcDb2dVertex
 10
66.55160189464656
 20
34.20166374169303
 30
0.0
  0
VERTEX
  5
1E2
330
1CB
100
AcDbEntity
  8
Visible (ANSI)
100
AcDbVertex
100
AcDb2dVertex
 10
66.55014209711026
 20
34.19980630993357
 30
0.0
  0
VERTEX
  5
1E3
330
1CB
100
AcDbEntity
  8
Visible (ANSI)
100
AcDbVertex
100
AcDb2dVertex
 10
66.54868229957397
 20
34.19847386223445
 30
0.0
  0
VERTEX
  5
1E4
330
1CB
100
AcDbEntity
  8
Visible (ANSI)
100
AcDbVertex
100
AcDb2dVertex
 10
66.54722250203768
 20
34.19767210448185
 30
0.0
  0
VERTEX
  5
1E5
330
1CB
100
AcDbEntity
  8
Visible (ANSI)
100
AcDbVertex
100
AcDb2dVertex
 10
66.54576270450139
 20
34.1974044698965
 30
0.0
  0
SEQEND
  5
1CE
330
1CB
100
AcDbEntity
  8
Visible (ANSI)
  0
POLYLINE
  5
1E6
330
6C
100
AcDbEntity
  8
Visible (ANSI)
100
AcDb2dPolyline
 66
     1
 10
0.0
 20
0.0
 30
0.0
 70
   128
  0
VERTEX
  5
1E7
330
1E6
100
AcDbEntity
  8
Visible (ANSI)
100
AcDbVertex
100
AcDb2dVertex
 10
34.865844515753
 20
34.1974044698965
 30
0.0
  0
VERTEX
  5
1E8
330
1E6
100
AcDbEntity
  8
Visible (ANSI)
100
AcDbVertex
100
AcDb2dVertex
 10
34.86438446008635
 20
34.19767210448185
 30
0.0
  0
VERTEX
  5
1EA
330
1E6
100
AcDbEntity
  8
Visible (ANSI)
100
AcDbVertex
100
AcDb2dVertex
 10
34.8629244044197
 20
34.19847386223445
 30
0.0
  0
VERTEX
  5
1EB
330
1E6
100
AcDbEntity
  8
Visible (ANSI)
100
AcDbVertex
100
AcDb2dVertex
 10
34.86146436048626
 20
34.19980630993357
 30
0.0
  0
VERTEX
  5
1EC
330
1E6
100
AcDbEntity
  8
Visible (ANSI)
100
AcDbVertex
100
AcDb2dVertex
 10
34.86000430481961
 20
34.20166374169303
 30
0.0
  0
VERTEX
  5
1ED
330
1E6
100
AcDbEntity
  8
Visible (ANSI)
100
AcDbVertex
100
AcDb2dVertex
 10
34.85854424915296
 20
34.20403820359638
 30
0.0
  0
VERTEX
  5
1EE
330
1E6
100
AcDbEntity
  8
Visible (ANSI)
100
AcDbVertex
100
AcDb2dVertex
 10
34.85708419348632
 20
34.20691952864439
 30
0.0
  0
VERTEX
  5
1EF
330
1E6
100
AcDbEntity
  8
Visible (ANSI)
100
AcDbVertex
100
AcDb2dVertex
 10
34.85562414955288
 20
34.21029537791297
 30
0.0
  0
VERTEX
  5
1F0
330
1E6
100
AcDbEntity
  8
Visible (ANSI)
100
AcDbVertex
100
AcDb2dVertex
 10
34.85416409388623
 20
34.21415129390243
 30
0.0
  0
VERTEX
  5
1F1
330
1E6
100
AcDbEntity
  8
Visible (ANSI)
100
AcDbVertex
100
AcDb2dVertex
 10
34.85270403821958
 20
34.21847076800349
 30
0.0
  0
VERTEX
  5
1F2
330
1E6
100
AcDbEntity
  8
Visible (ANSI)
100
AcDbVertex
100
AcDb2dVertex
 10
34.85124398255294
 20
34.2232353013632
 30
0.0
  0
VERTEX
  5
1F3
330
1E6
100
AcDbEntity
  8
Visible (ANSI)
100
AcDbVertex
100
AcDb2dVertex
 10
34.84978393861949
 20
34.22842449288388
 30
0.0
  0
VERTEX
  5
1F4
330
1E6
100
AcDbEntity
  8
Visible (ANSI)
100
AcDbVertex
100
AcDb2dVertex
 10
34.84832388295284
 20
34.23401612135557
 30
0.0
  0
VERTEX
  5
1F5
330
1E6
100
AcDbEntity
  8
Visible (ANSI)
100
AcDbVertex
100
AcDb2dVertex
 10
34.8468638272862
 20
34.2399862422549
 30
0.0
  0
VERTEX
  5
1F6
330
1E6
100
AcDbEntity
  8
Visible (ANSI)
100
AcDbVertex
100
AcDb2dVertex
 10
34.84540377161955
 20
34.24630929187716
 30
0.0
  0
VERTEX
  5
1F7
330
1E6
100
AcDbEntity
  8
Visible (ANSI)
100
AcDbVertex
100
AcDb2dVertex
 10
34.84394372768611
 20
34.25295819293515
 30
0.0
  0
VERTEX
  5
1F8
330
1E6
100
AcDbEntity
  8
Visible (ANSI)
100
AcDbVertex
100
AcDb2dVertex
 10
34.84248367201946
 20
34.25990446895784
 30
0.0
  0
VERTEX
  5
1F9
330
1E6
100
AcDbEntity
  8
Visible (ANSI)
100
AcDbVertex
100
AcDb2dVertex
 10
34.84102361635282
 20
34.26711838508874
 30
0.0
  0
VERTEX
  5
1FA
330
1E6
100
AcDbEntity
  8
Visible (ANSI)
100
AcDbVertex
100
AcDb2dVertex
 10
34.83956357241936
 20
34.27456904195145
 30
0.0
  0
VERTEX
  5
1FB
330
1E6
100
AcDbEntity
  8
Visible (ANSI)
100
AcDbVertex
100
AcDb2dVertex
 10
34.83810351675272
 20
34.28222453698118
 30
0.0
  0
VERTEX
  5
1FC
330
1E6
100
AcDbEntity
  8
Visible (ANSI)
100
AcDbVertex
100
AcDb2dVertex
 10
34.83664346108608
 20
34.29005208762331
 30
0.0
  0
VERTEX
  5
1FD
330
1E6
100
AcDbEntity
  8
Visible (ANSI)
100
AcDbVertex
100
AcDb2dVertex
 10
34.83518340541943
 20
34.29801817799836
 30
0.0
  0
VERTEX
  5
1FE
330
1E6
100
AcDbEntity
  8
Visible (ANSI)
100
AcDbVertex
100
AcDb2dVertex
 10
34.83372336148598
 20
34.30608869383374
 30
0.0
  0
VERTEX
  5
1FF
330
1E6
100
AcDbEntity
  8
Visible (ANSI)
100
AcDbVertex
100
AcDb2dVertex
 10
34.83226330581933
 20
34.31422908086196
 30
0.0
  0
VERTEX
  5
200
330
1E6
100
AcDbEntity
  8
Visible (ANSI)
100
AcDbVertex
100
AcDb2dVertex
 10
34.83080325015269
 20
34.32240446801919
 30
0.0
  0
SEQEND
  5
1E9
330
1E6
100
AcDbEntity
  8
Visible (ANSI)
  0
LINE
  5
201
330
6C
100
AcDbEntity
  8
Hidden (ANSI)
100
AcDbLine
 10
66.61205325202999
 20
34.35744573063274
 30
0.0
 11
66.70580325202999
 21
34.35744573063274
 31
0.0
  0
POLYLINE
  5
202
330
6C
100
AcDbEntity
  8
Hidden (ANSI)
100
AcDb2dPolyline
 66
     1
 10
0.0
 20
0.0
 30
0.0
 70
   128
  0
VERTEX
  5
203
330
202
100
AcDbEntity
  8
Hidden (ANSI)
100
AcDbVertex
100
AcDb2dVertex
 10
66.58080385276972
 20
34.32240446801919
 30
0.0
  0
VERTEX
  5
204
330
202
100
AcDbEntity
  8
Hidden (ANSI)
100
AcDbVertex
100
AcDb2dVertex
 10
66.58284636784109
 20
34.32386452368583
 30
0.0
  0
VERTEX
  5
206
330
202
100
AcDbEntity
  8
Hidden (ANSI)
100
AcDbVertex
100
AcDb2dVertex
 10
66.58488287551517
 20
34.32532457935248
 30
0.0
  0
VERTEX
  5
207
330
202
100
AcDbEntity
  8
Hidden (ANSI)
100
AcDbVertex
100
AcDb2dVertex
 10
66.58689835729882
 20
34.32678462328592
 30
0.0
  0
VERTEX
  5
208
330
202
100
AcDbEntity
  8
Hidden (ANSI)
100
AcDbVertex
100
AcDb2dVertex
 10
66.58889281319203
 20
34.32824467895257
 30
0.0
  0
VERTEX
  5
209
330
202
100
AcDbEntity
  8
Hidden (ANSI)
100
AcDbVertex
100
AcDb2dVertex
 10
66.59084822100298
 20
34.32970473461921
 30
0.0
  0
VERTEX
  5
20A
330
202
100
AcDbEntity
  8
Hidden (ANSI)
100
AcDbVertex
100
AcDb2dVertex
 10
66.59276157703307
 20
34.33116479028586
 30
0.0
  0
VERTEX
  5
20B
330
202
100
AcDbEntity
  8
Hidden (ANSI)
100
AcDbVertex
100
AcDb2dVertex
 10
66.59462387018637
 20
34.33262483421931
 30
0.0
  0
VERTEX
  5
20C
330
202
100
AcDbEntity
  8
Hidden (ANSI)
100
AcDbVertex
100
AcDb2dVertex
 10
66.59642909306561
 20
34.33408488988596
 30
0.0
  0
VERTEX
  5
20D
330
202
100
AcDbEntity
  8
Hidden (ANSI)
100
AcDbVertex
100
AcDb2dVertex
 10
66.59816523087627
 20
34.3355449455526
 30
0.0
  0
VERTEX
  5
20E
330
202
100
AcDbEntity
  8
Hidden (ANSI)
100
AcDbVertex
100
AcDb2dVertex
 10
66.59982627622106
 20
34.33700498948605
 30
0.0
  0
VERTEX
  5
20F
330
202
100
AcDbEntity
  8
Hidden (ANSI)
100
AcDbVertex
100
AcDb2dVertex
 10
66.60140922540136
 20
34.33846504515269
 30
0.0
  0
VERTEX
  5
210
330
202
100
AcDbEntity
  8
Hidden (ANSI)
100
AcDbVertex
100
AcDb2dVertex
 10
66.60289905992399
 20
34.33992510081934
 30
0.0
  0
VERTEX
  5
211
330
202
100
AcDbEntity
  8
Hidden (ANSI)
100
AcDbVertex
100
AcDb2dVertex
 10
66.60429878348761
 20
34.34138515648598
 30
0.0
  0
VERTEX
  5
212
330
202
100
AcDbEntity
  8
Hidden (ANSI)
100
AcDbVertex
100
AcDb2dVertex
 10
66.60559638129765
 20
34.34284520041944
 30
0.0
  0
VERTEX
  5
213
330
202
100
AcDbEntity
  8
Hidden (ANSI)
100
AcDbVertex
100
AcDb2dVertex
 10
66.60678584595685
 20
34.34430525608608
 30
0.0
  0
VERTEX
  5
214
330
202
100
AcDbEntity
  8
Hidden (ANSI)
100
AcDbVertex
100
AcDb2dVertex
 10
66.60786717746521
 20
34.34576531175273
 30
0.0
  0
VERTEX
  5
215
330
202
100
AcDbEntity
  8
Hidden (ANSI)
100
AcDbVertex
100
AcDb2dVertex
 10
66.60883136472683
 20
34.34722536741937
 30
0.0
  0
VERTEX
  5
216
330
202
100
AcDbEntity
  8
Hidden (ANSI)
100
AcDbVertex
100
AcDb2dVertex
 10
66.6096754040431
 20
34.34868541135282
 30
0.0
  0
VERTEX
  5
217
330
202
100
AcDbEntity
  8
Hidden (ANSI)
100
AcDbVertex
100
AcDb2dVertex
 10
66.61039629171535
 20
34.35014546701947
 30
0.0
  0
VERTEX
  5
218
330
202
100
AcDbEntity
  8
Hidden (ANSI)
100
AcDbVertex
100
AcDb2dVertex
 10
66.61098802034631
 20
34.35160552268611
 30
0.0
  0
VERTEX
  5
219
330
202
100
AcDbEntity
  8
Hidden (ANSI)
100
AcDbVertex
100
AcDb2dVertex
 10
66.61145359363463
 20
34.35306557835275
 30
0.0
  0
VERTEX
  5
21A
330
202
100
AcDbEntity
  8
Hidden (ANSI)
100
AcDbVertex
100
AcDb2dVertex
 10
66.61178700418304
 20
34.35452562228621
 30
0.0
  0
VERTEX
  5
21B
330
202
100
AcDbEntity
  8
Hidden (ANSI)
100
AcDbVertex
100
AcDb2dVertex
 10
66.61198524829291
 20
34.35598567795285
 30
0.0
  0
VERTEX
  5
21C
330
202
100
AcDbEntity
  8
Hidden (ANSI)
100
AcDbVertex
100
AcDb2dVertex
 10
66.61205433336149
 20
34.3574457336195
 30
0.0
  0
SEQEND
  5
205
330
202
100
AcDbEntity
  8
Hidden (ANSI)
  0
LINE
  5
21D
330
6C
100
AcDbEntity
  8
Hidden (ANSI)
100
AcDbLine
 10
66.61205325202998
 20
94.03736320916024
 30
0.0
 11
66.70580325202998
 21
94.03736320916024
 31
0.0
  0
POLYLINE
  5
21E
330
6C
100
AcDbEntity
  8
Hidden (ANSI)
100
AcDb2dPolyline
 66
     1
 10
0.0
 20
0.0
 30
0.0
 70
   128
  0
VERTEX
  5
21F
330
21E
100
AcDbEntity
  8
Hidden (ANSI)
100
AcDbVertex
100
AcDb2dVertex
 10
66.58080385276972
 20
94.07240615196771
 30
0.0
  0
VERTEX
  5
220
330
21E
100
AcDbEntity
  8
Hidden (ANSI)
100
AcDbVertex
100
AcDb2dVertex
 10
66.58284636784109
 20
94.07094635443142
 30
0.0
  0
VERTEX
  5
222
330
21E
100
AcDbEntity
  8
Hidden (ANSI)
100
AcDbVertex
100
AcDb2dVertex
 10
66.58488287551517
 20
94.06948655689513
 30
0.0
  0
VERTEX
  5
223
330
21E
100
AcDbEntity
  8
Hidden (ANSI)
100
AcDbVertex
100
AcDb2dVertex
 10
66.58689835729882
 20
94.06802675935884
 30
0.0
  0
VERTEX
  5
224
330
21E
100
AcDbEntity
  8
Hidden (ANSI)
100
AcDbVertex
100
AcDb2dVertex
 10
66.58889281319203
 20
94.06656696182254
 30
0.0
  0
VERTEX
  5
225
330
21E
100
AcDbEntity
  8
Hidden (ANSI)
100
AcDbVertex
100
AcDb2dVertex
 10
66.59084822100298
 20
94.06510716428625
 30
0.0
  0
VERTEX
  5
226
330
21E
100
AcDbEntity
  8
Hidden (ANSI)
100
AcDbVertex
100
AcDb2dVertex
 10
66.59276157703307
 20
94.06364135935268
 30
0.0
  0
VERTEX
  5
227
330
21E
100
AcDbEntity
  8
Hidden (ANSI)
100
AcDbVertex
100
AcDb2dVertex
 10
66.59462387018637
 20
94.0621815618164
 30
0.0
  0
VERTEX
  5
228
330
21E
100
AcDbEntity
  8
Hidden (ANSI)
100
AcDbVertex
100
AcDb2dVertex
 10
66.59642909306561
 20
94.06072176428009
 30
0.0
  0
VERTEX
  5
229
330
21E
100
AcDbEntity
  8
Hidden (ANSI)
100
AcDbVertex
100
AcDb2dVertex
 10
66.59816523087627
 20
94.0592619667438
 30
0.0
  0
VERTEX
  5
22A
330
21E
100
AcDbEntity
  8
Hidden (ANSI)
100
AcDbVertex
100
AcDb2dVertex
 10
66.59982627622106
 20
94.05780216920751
 30
0.0
  0
VERTEX
  5
22B
330
21E
100
AcDbEntity
  8
Hidden (ANSI)
100
AcDbVertex
100
AcDb2dVertex
 10
66.60140922540136
 20
94.05634237167122
 30
0.0
  0
VERTEX
  5
22C
330
21E
100
AcDbEntity
  8
Hidden (ANSI)
100
AcDbVertex
100
AcDb2dVertex
 10
66.60289905992399
 20
94.05488257413493
 30
0.0
  0
VERTEX
  5
22D
330
21E
100
AcDbEntity
  8
Hidden (ANSI)
100
AcDbVertex
100
AcDb2dVertex
 10
66.60429878348761
 20
94.05342277659864
 30
0.0
  0
VERTEX
  5
22E
330
21E
100
AcDbEntity
  8
Hidden (ANSI)
100
AcDbVertex
100
AcDb2dVertex
 10
66.60559638129765
 20
94.05196297906234
 30
0.0
  0
VERTEX
  5
22F
330
21E
100
AcDbEntity
  8
Hidden (ANSI)
100
AcDbVertex
100
AcDb2dVertex
 10
66.60678584595685
 20
94.05050318152603
 30
0.0
  0
VERTEX
  5
230
330
21E
100
AcDbEntity
  8
Hidden (ANSI)
100
AcDbVertex
100
AcDb2dVertex
 10
66.60786717746521
 20
94.04904338398974
 30
0.0
  0
VERTEX
  5
231
330
21E
100
AcDbEntity
  8
Hidden (ANSI)
100
AcDbVertex
100
AcDb2dVertex
 10
66.60883136472683
 20
94.04758358645345
 30
0.0
  0
VERTEX
  5
232
330
21E
100
AcDbEntity
  8
Hidden (ANSI)
100
AcDbVertex
100
AcDb2dVertex
 10
66.6096754040431
 20
94.04612378891716
 30
0.0
  0
VERTEX
  5
233
330
21E
100
AcDbEntity
  8
Hidden (ANSI)
100
AcDbVertex
100
AcDb2dVertex
 10
66.61039629171535
 20
94.04466399138085
 30
0.0
  0
VERTEX
  5
234
330
21E
100
AcDbEntity
  8
Hidden (ANSI)
100
AcDbVertex
100
AcDb2dVertex
 10
66.61098802034631
 20
94.04320419384458
 30
0.0
  0
VERTEX
  5
235
330
21E
100
AcDbEntity
  8
Hidden (ANSI)
100
AcDbVertex
100
AcDb2dVertex
 10
66.61145359363463
 20
94.04174439630827
 30
0.0
  0
VERTEX
  5
236
330
21E
100
AcDbEntity
  8
Hidden (ANSI)
100
AcDbVertex
100
AcDb2dVertex
 10
66.61178700418304
 20
94.04028459877197
 30
0.0
  0
VERTEX
  5
237
330
21E
100
AcDbEntity
  8
Hidden (ANSI)
100
AcDbVertex
100
AcDb2dVertex
 10
66.61198524829291
 20
94.03882480123568
 30
0.0
  0
VERTEX
  5
238
330
21E
100
AcDbEntity
  8
Hidden (ANSI)
100
AcDbVertex
100
AcDb2dVertex
 10
66.61205433336149
 20
94.03736500369939
 30
0.0
  0
SEQEND
  5
221
330
21E
100
AcDbEntity
  8
Hidden (ANSI)
  0
LINE
  5
239
330
6C
100
AcDbEntity
  8
Hidden (ANSI)
100
AcDbLine
 10
66.54576199129374
 20
94.10365446989649
 30
0.0
 11
66.54576199129374
 21
94.19740446989647
 31
0.0
  0
POLYLINE
  5
23A
330
6C
100
AcDbEntity
  8
Hidden (ANSI)
100
AcDb2dPolyline
 66
     1
 10
0.0
 20
0.0
 30
0.0
 70
   128
  0
VERTEX
  5
23B
330
23A
100
AcDbEntity
  8
Hidden (ANSI)
100
AcDbVertex
100
AcDb2dVertex
 10
66.58080385276972
 20
94.07240615196771
 30
0.0
  0
VERTEX
  5
23C
330
23A
100
AcDbEntity
  8
Hidden (ANSI)
100
AcDbVertex
100
AcDb2dVertex
 10
66.57934405523342
 20
94.0744486670391
 30
0.0
  0
VERTEX
  5
23E
330
23A
100
AcDbEntity
  8
Hidden (ANSI)
100
AcDbVertex
100
AcDb2dVertex
 10
66.57788425769713
 20
94.07648517471319
 30
0.0
  0
VERTEX
  5
23F
330
23A
100
AcDbEntity
  8
Hidden (ANSI)
100
AcDbVertex
100
AcDb2dVertex
 10
66.57642446016083
 20
94.07850366019546
 30
0.0
  0
VERTEX
  5
240
330
23A
100
AcDbEntity
  8
Hidden (ANSI)
100
AcDbVertex
100
AcDb2dVertex
 10
66.57496165892592
 20
94.0804921086914
 30
0.0
  0
VERTEX
  5
241
330
23A
100
AcDbEntity
  8
Hidden (ANSI)
100
AcDbVertex
100
AcDb2dVertex
 10
66.57350186138962
 20
94.08245052020099
 30
0.0
  0
VERTEX
  5
242
330
23A
100
AcDbEntity
  8
Hidden (ANSI)
100
AcDbVertex
100
AcDb2dVertex
 10
66.57204206385332
 20
94.08436087253244
 30
0.0
  0
VERTEX
  5
243
330
23A
100
AcDbEntity
  8
Hidden (ANSI)
100
AcDbVertex
100
AcDb2dVertex
 10
66.57058226631703
 20
94.08622316568573
 30
0.0
  0
VERTEX
  5
244
330
23A
100
AcDbEntity
  8
Hidden (ANSI)
100
AcDbVertex
100
AcDb2dVertex
 10
66.56912246878073
 20
94.08803139226362
 30
0.0
  0
VERTEX
  5
245
330
23A
100
AcDbEntity
  8
Hidden (ANSI)
100
AcDbVertex
100
AcDb2dVertex
 10
66.56766267124443
 20
94.08976753007427
 30
0.0
  0
VERTEX
  5
246
330
23A
100
AcDbEntity
  8
Hidden (ANSI)
100
AcDbVertex
100
AcDb2dVertex
 10
66.56620287370815
 20
94.09142557172044
 30
0.0
  0
VERTEX
  5
247
330
23A
100
AcDbEntity
  8
Hidden (ANSI)
100
AcDbVertex
100
AcDb2dVertex
 10
66.56474307617185
 20
94.09301152459937
 30
0.0
  0
VERTEX
  5
248
330
23A
100
AcDbEntity
  8
Hidden (ANSI)
100
AcDbVertex
100
AcDb2dVertex
 10
66.56328327863555
 20
94.094501359122
 30
0.0
  0
VERTEX
  5
249
330
23A
100
AcDbEntity
  8
Hidden (ANSI)
100
AcDbVertex
100
AcDb2dVertex
 10
66.56182348109926
 20
94.09590108268561
 30
0.0
  0
VERTEX
  5
24A
330
23A
100
AcDbEntity
  8
Hidden (ANSI)
100
AcDbVertex
100
AcDb2dVertex
 10
66.56036368356296
 20
94.09719868049565
 30
0.0
  0
VERTEX
  5
24B
330
23A
100
AcDbEntity
  8
Hidden (ANSI)
100
AcDbVertex
100
AcDb2dVertex
 10
66.55890388602667
 20
94.09838814515486
 30
0.0
  0
VERTEX
  5
24C
330
23A
100
AcDbEntity
  8
Hidden (ANSI)
100
AcDbVertex
100
AcDb2dVertex
 10
66.55744108479175
 20
94.09946947666322
 30
0.0
  0
VERTEX
  5
24D
330
23A
100
AcDbEntity
  8
Hidden (ANSI)
100
AcDbVertex
100
AcDb2dVertex
 10
66.55598128725545
 20
94.10043066022621
 30
0.0
  0
VERTEX
  5
24E
330
23A
100
AcDbEntity
  8
Hidden (ANSI)
100
AcDbVertex
100
AcDb2dVertex
 10
66.55452148971915
 20
94.10127770324109
 30
0.0
  0
VERTEX
  5
24F
330
23A
100
AcDbEntity
  8
Hidden (ANSI)
100
AcDbVertex
100
AcDb2dVertex
 10
66.55306169218286
 20
94.10199859091333
 30
0.0
  0
VERTEX
  5
250
330
23A
100
AcDbEntity
  8
Hidden (ANSI)
100
AcDbVertex
100
AcDb2dVertex
 10
66.55160189464656
 20
94.10258731584567
 30
0.0
  0
VERTEX
  5
251
330
23A
100
AcDbEntity
  8
Hidden (ANSI)
100
AcDbVertex
100
AcDb2dVertex
 10
66.55014209711026
 20
94.10305589283264
 30
0.0
  0
VERTEX
  5
252
330
23A
100
AcDbEntity
  8
Hidden (ANSI)
100
AcDbVertex
100
AcDb2dVertex
 10
66.54868229957397
 20
94.10338629968242
 30
0.0
  0
VERTEX
  5
253
330
23A
100
AcDbEntity
  8
Hidden (ANSI)
100
AcDbVertex
100
AcDb2dVertex
 10
66.54722250203768
 20
94.10359055118956
 30
0.0
  0
VERTEX
  5
254
330
23A
100
AcDbEntity
  8
Hidden (ANSI)
100
AcDbVertex
100
AcDb2dVertex
 10
66.54576270450139
 20
94.1036566325595
 30
0.0
  0
SEQEND
  5
23D
330
23A
100
AcDbEntity
  8
Hidden (ANSI)
  0
LINE
  5
255
330
6C
100
AcDbEntity
  8
Hidden (ANSI)
100
AcDbLine
 10
34.86584451276622
 20
94.10365446989649
 30
0.0
 11
34.86584451276622
 21
94.19740446989647
 31
0.0
  0
POLYLINE
  5
256
330
6C
100
AcDbEntity
  8
Hidden (ANSI)
100
AcDb2dPolyline
 66
     1
 10
0.0
 20
0.0
 30
0.0
 70
   128
  0
VERTEX
  5
257
330
256
100
AcDbEntity
  8
Hidden (ANSI)
100
AcDbVertex
100
AcDb2dVertex
 10
34.83080325015269
 20
94.07240615196771
 30
0.0
  0
VERTEX
  5
258
330
256
100
AcDbEntity
  8
Hidden (ANSI)
100
AcDbVertex
100
AcDb2dVertex
 10
34.83226330581933
 20
94.0744486670391
 30
0.0
  0
VERTEX
  5
25A
330
256
100
AcDbEntity
  8
Hidden (ANSI)
100
AcDbVertex
100
AcDb2dVertex
 10
34.83372336148598
 20
94.07648517471319
 30
0.0
  0
VERTEX
  5
25B
330
256
100
AcDbEntity
  8
Hidden (ANSI)
100
AcDbVertex
100
AcDb2dVertex
 10
34.83518340541943
 20
94.07850366019546
 30
0.0
  0
VERTEX
  5
25C
330
256
100
AcDbEntity
  8
Hidden (ANSI)
100
AcDbVertex
100
AcDb2dVertex
 10
34.83664346108608
 20
94.0804921086914
 30
0.0
  0
VERTEX
  5
25D
330
256
100
AcDbEntity
  8
Hidden (ANSI)
100
AcDbVertex
100
AcDb2dVertex
 10
34.83810351675272
 20
94.08245052020099
 30
0.0
  0
VERTEX
  5
25E
330
256
100
AcDbEntity
  8
Hidden (ANSI)
100
AcDbVertex
100
AcDb2dVertex
 10
34.83956357241936
 20
94.08436087253244
 30
0.0
  0
VERTEX
  5
25F
330
256
100
AcDbEntity
  8
Hidden (ANSI)
100
AcDbVertex
100
AcDb2dVertex
 10
34.84102361635282
 20
94.08622316568573
 30
0.0
  0
VERTEX
  5
260
330
256
100
AcDbEntity
  8
Hidden (ANSI)
100
AcDbVertex
100
AcDb2dVertex
 10
34.84248367201946
 20
94.08803139226362
 30
0.0
  0
VERTEX
  5
261
330
256
100
AcDbEntity
  8
Hidden (ANSI)
100
AcDbVertex
100
AcDb2dVertex
 10
34.84394372768611
 20
94.08976753007427
 30
0.0
  0
VERTEX
  5
262
330
256
100
AcDbEntity
  8
Hidden (ANSI)
100
AcDbVertex
100
AcDb2dVertex
 10
34.84540377161955
 20
94.09142557172044
 30
0.0
  0
VERTEX
  5
263
330
256
100
AcDbEntity
  8
Hidden (ANSI)
100
AcDbVertex
100
AcDb2dVertex
 10
34.8468638272862
 20
94.09301152459937
 30
0.0
  0
VERTEX
  5
264
330
256
100
AcDbEntity
  8
Hidden (ANSI)
100
AcDbVertex
100
AcDb2dVertex
 10
34.84832388295284
 20
94.094501359122
 30
0.0
  0
VERTEX
  5
265
330
256
100
AcDbEntity
  8
Hidden (ANSI)
100
AcDbVertex
100
AcDb2dVertex
 10
34.84978393861949
 20
94.09590108268561
 30
0.0
  0
VERTEX
  5
266
330
256
100
AcDbEntity
  8
Hidden (ANSI)
100
AcDbVertex
100
AcDb2dVertex
 10
34.85124398255294
 20
94.09719868049565
 30
0.0
  0
VERTEX
  5
267
330
256
100
AcDbEntity
  8
Hidden (ANSI)
100
AcDbVertex
100
AcDb2dVertex
 10
34.85270403821958
 20
94.09838814515486
 30
0.0
  0
VERTEX
  5
268
330
256
100
AcDbEntity
  8
Hidden (ANSI)
100
AcDbVertex
100
AcDb2dVertex
 10
34.85416409388623
 20
94.09946947666322
 30
0.0
  0
VERTEX
  5
269
330
256
100
AcDbEntity
  8
Hidden (ANSI)
100
AcDbVertex
100
AcDb2dVertex
 10
34.85562414955288
 20
94.10043066022621
 30
0.0
  0
VERTEX
  5
26A
330
256
100
AcDbEntity
  8
Hidden (ANSI)
100
AcDbVertex
100
AcDb2dVertex
 10
34.85708419348632
 20
94.10127770324109
 30
0.0
  0
VERTEX
  5
26B
330
256
100
AcDbEntity
  8
Hidden (ANSI)
100
AcDbVertex
100
AcDb2dVertex
 10
34.85854424915296
 20
94.10199859091333
 30
0.0
  0
VERTEX
  5
26C
330
256
100
AcDbEntity
  8
Hidden (ANSI)
100
AcDbVertex
100
AcDb2dVertex
 10
34.86000430481961
 20
94.10258731584567
 30
0.0
  0
VERTEX
  5
26D
330
256
100
AcDbEntity
  8
Hidden (ANSI)
100
AcDbVertex
100
AcDb2dVertex
 10
34.86146436048626
 20
94.10305589283264
 30
0.0
  0
VERTEX
  5
26E
330
256
100
AcDbEntity
  8
Hidden (ANSI)
100
AcDbVertex
100
AcDb2dVertex
 10
34.8629244044197
 20
94.10338629968242
 30
0.0
  0
VERTEX
  5
26F
330
256
100
AcDbEntity
  8
Hidden (ANSI)
100
AcDbVertex
100
AcDb2dVertex
 10
34.86438446008635
 20
94.10359055118956
 30
0.0
  0
VERTEX
  5
270
330
256
100
AcDbEntity
  8
Hidden (ANSI)
100
AcDbVertex
100
AcDb2dVertex
 10
34.865844515753
 20
94.1036566325595
 30
0.0
  0
SEQEND
  5
259
330
256
100
AcDbEntity
  8
Hidden (ANSI)
  0
LINE
  5
271
330
6C
100
AcDbEntity
  8
Hidden (ANSI)
100
AcDbLine
 10
34.79955325202998
 20
94.03736320916026
 30
0.0
 11
34.70580325202998
 21
94.03736320916026
 31
0.0
  0
POLYLINE
  5
272
330
6C
100
AcDbEntity
  8
Hidden (ANSI)
100
AcDb2dPolyline
 66
     1
 10
0.0
 20
0.0
 30
0.0
 70
   128
  0
VERTEX
  5
273
330
272
100
AcDbEntity
  8
Hidden (ANSI)
100
AcDbVertex
100
AcDb2dVertex
 10
34.83080325015269
 20
94.07240615196771
 30
0.0
  0
VERTEX
  5
274
330
272
100
AcDbEntity
  8
Hidden (ANSI)
100
AcDbVertex
100
AcDb2dVertex
 10
34.82875940922998
 20
94.07094635443142
 30
0.0
  0
VERTEX
  5
276
330
272
100
AcDbEntity
  8
Hidden (ANSI)
100
AcDbVertex
100
AcDb2dVertex
 10
34.82672430953962
 20
94.06948655689513
 30
0.0
  0
VERTEX
  5
277
330
272
100
AcDbEntity
  8
Hidden (ANSI)
100
AcDbVertex
100
AcDb2dVertex
 10
34.82470668058078
 20
94.06802675935884
 30
0.0
  0
VERTEX
  5
278
330
272
100
AcDbEntity
  8
Hidden (ANSI)
100
AcDbVertex
100
AcDb2dVertex
 10
34.82271515798702
 20
94.06656696182254
 30
0.0
  0
VERTEX
  5
279
330
272
100
AcDbEntity
  8
Hidden (ANSI)
100
AcDbVertex
100
AcDb2dVertex
 10
34.82075827179314
 20
94.06510716428625
 30
0.0
  0
VERTEX
  5
27A
330
272
100
AcDbEntity
  8
Hidden (ANSI)
100
AcDbVertex
100
AcDb2dVertex
 10
34.81884439950235
 20
94.06364135935268
 30
0.0
  0
VERTEX
  5
27B
330
272
100
AcDbEntity
  8
Hidden (ANSI)
100
AcDbVertex
100
AcDb2dVertex
 10
34.81698173088672
 20
94.0621815618164
 30
0.0
  0
VERTEX
  5
27C
330
272
100
AcDbEntity
  8
Hidden (ANSI)
100
AcDbVertex
100
AcDb2dVertex
 10
34.81517825625395
 20
94.06072176428009
 30
0.0
  0
VERTEX
  5
27D
330
272
100
AcDbEntity
  8
Hidden (ANSI)
100
AcDbVertex
100
AcDb2dVertex
 10
34.81344168431498
 20
94.0592619667438
 30
0.0
  0
VERTEX
  5
27E
330
272
100
AcDbEntity
  8
Hidden (ANSI)
100
AcDbVertex
100
AcDb2dVertex
 10
34.81177945391721
 20
94.05780216920751
 30
0.0
  0
VERTEX
  5
27F
330
272
100
AcDbEntity
  8
Hidden (ANSI)
100
AcDbVertex
100
AcDb2dVertex
 10
34.81019869884489
 20
94.05634237167122
 30
0.0
  0
VERTEX
  5
280
330
272
100
AcDbEntity
  8
Hidden (ANSI)
100
AcDbVertex
100
AcDb2dVertex
 10
34.80870616568676
 20
94.05488257413493
 30
0.0
  0
VERTEX
  5
281
330
272
100
AcDbEntity
  8
Hidden (ANSI)
100
AcDbVertex
100
AcDb2dVertex
 10
34.80730826076881
 20
94.05342277659864
 30
0.0
  0
VERTEX
  5
282
330
272
100
AcDbEntity
  8
Hidden (ANSI)
100
AcDbVertex
100
AcDb2dVertex
 10
34.80601095628872
 20
94.05196297906234
 30
0.0
  0
VERTEX
  5
283
330
272
100
AcDbEntity
  8
Hidden (ANSI)
100
AcDbVertex
100
AcDb2dVertex
 10
34.80481982551543
 20
94.05050318152603
 30
0.0
  0
VERTEX
  5
284
330
272
100
AcDbEntity
  8
Hidden (ANSI)
100
AcDbVertex
100
AcDb2dVertex
 10
34.80373996065678
 20
94.04904338398974
 30
0.0
  0
VERTEX
  5
285
330
272
100
AcDbEntity
  8
Hidden (ANSI)
100
AcDbVertex
100
AcDb2dVertex
 10
34.80277597872612
 20
94.04758358645345
 30
0.0
  0
VERTEX
  5
286
330
272
100
AcDbEntity
  8
Hidden (ANSI)
100
AcDbVertex
100
AcDb2dVertex
 10
34.80193201567566
 20
94.04612378891716
 30
0.0
  0
VERTEX
  5
287
330
272
100
AcDbEntity
  8
Hidden (ANSI)
100
AcDbVertex
100
AcDb2dVertex
 10
34.8012116853303
 20
94.04466399138085
 30
0.0
  0
VERTEX
  5
288
330
272
100
AcDbEntity
  8
Hidden (ANSI)
100
AcDbVertex
100
AcDb2dVertex
 10
34.80061806765449
 20
94.04320419384458
 30
0.0
  0
VERTEX
  5
289
330
272
100
AcDbEntity
  8
Hidden (ANSI)
100
AcDbVertex
100
AcDb2dVertex
 10
34.80015371461874
 20
94.04174439630827
 30
0.0
  0
VERTEX
  5
28A
330
272
100
AcDbEntity
  8
Hidden (ANSI)
100
AcDbVertex
100
AcDb2dVertex
 10
34.79982059740027
 20
94.04028459877197
 30
0.0
  0
VERTEX
  5
28B
330
272
100
AcDbEntity
  8
Hidden (ANSI)
100
AcDbVertex
100
AcDb2dVertex
 10
34.79962015918242
 20
94.03882480123568
 30
0.0
  0
VERTEX
  5
28C
330
272
100
AcDbEntity
  8
Hidden (ANSI)
100
AcDbVertex
100
AcDb2dVertex
 10
34.79955325062201
 20
94.03736500369939
 30
0.0
  0
SEQEND
  5
275
330
272
100
AcDbEntity
  8
Hidden (ANSI)
  0
LINE
  5
28D
330
6C
100
AcDbEntity
  8
Hidden (ANSI)
100
AcDbLine
 10
34.79955325202999
 20
34.35744573063274
 30
0.0
 11
34.70580325203
 21
34.35744573063274
 31
0.0
  0
POLYLINE
  5
28E
330
6C
100
AcDbEntity
  8
Hidden (ANSI)
100
AcDb2dPolyline
 66
     1
 10
0.0
 20
0.0
 30
0.0
 70
   128
  0
VERTEX
  5
28F
330
28E
100
AcDbEntity
  8
Hidden (ANSI)
100
AcDbVertex
100
AcDb2dVertex
 10
34.83080325015269
 20
34.32240446801919
 30
0.0
  0
VERTEX
  5
290
330
28E
100
AcDbEntity
  8
Hidden (ANSI)
100
AcDbVertex
100
AcDb2dVertex
 10
34.82875940922998
 20
34.32386452368583
 30
0.0
  0
VERTEX
  5
292
330
28E
100
AcDbEntity
  8
Hidden (ANSI)
100
AcDbVertex
100
AcDb2dVertex
 10
34.82672430953962
 20
34.32532457935248
 30
0.0
  0
VERTEX
  5
293
330
28E
100
AcDbEntity
  8
Hidden (ANSI)
100
AcDbVertex
100
AcDb2dVertex
 10
34.82470668058078
 20
34.32678462328592
 30
0.0
  0
VERTEX
  5
294
330
28E
100
AcDbEntity
  8
Hidden (ANSI)
100
AcDbVertex
100
AcDb2dVertex
 10
34.82271515798702
 20
34.32824467895257
 30
0.0
  0
VERTEX
  5
295
330
28E
100
AcDbEntity
  8
Hidden (ANSI)
100
AcDbVertex
100
AcDb2dVertex
 10
34.82075827179314
 20
34.32970473461921
 30
0.0
  0
VERTEX
  5
296
330
28E
100
AcDbEntity
  8
Hidden (ANSI)
100
AcDbVertex
100
AcDb2dVertex
 10
34.81884439950235
 20
34.33116479028586
 30
0.0
  0
VERTEX
  5
297
330
28E
100
AcDbEntity
  8
Hidden (ANSI)
100
AcDbVertex
100
AcDb2dVertex
 10
34.81698173088672
 20
34.33262483421931
 30
0.0
  0
VERTEX
  5
298
330
28E
100
AcDbEntity
  8
Hidden (ANSI)
100
AcDbVertex
100
AcDb2dVertex
 10
34.81517825625395
 20
34.33408488988596
 30
0.0
  0
VERTEX
  5
299
330
28E
100
AcDbEntity
  8
Hidden (ANSI)
100
AcDbVertex
100
AcDb2dVertex
 10
34.81344168431498
 20
34.3355449455526
 30
0.0
  0
VERTEX
  5
29A
330
28E
100
AcDbEntity
  8
Hidden (ANSI)
100
AcDbVertex
100
AcDb2dVertex
 10
34.81177945391721
 20
34.33700498948605
 30
0.0
  0
VERTEX
  5
29B
330
28E
100
AcDbEntity
  8
Hidden (ANSI)
100
AcDbVertex
100
AcDb2dVertex
 10
34.81019869884489
 20
34.33846504515269
 30
0.0
  0
VERTEX
  5
29C
330
28E
100
AcDbEntity
  8
Hidden (ANSI)
100
AcDbVertex
100
AcDb2dVertex
 10
34.80870616568676
 20
34.33992510081934
 30
0.0
  0
VERTEX
  5
29D
330
28E
100
AcDbEntity
  8
Hidden (ANSI)
100
AcDbVertex
100
AcDb2dVertex
 10
34.80730826076881
 20
34.34138515648598
 30
0.0
  0
VERTEX
  5
29E
330
28E
100
AcDbEntity
  8
Hidden (ANSI)
100
AcDbVertex
100
AcDb2dVertex
 10
34.80601095628872
 20
34.34284520041944
 30
0.0
  0
VERTEX
  5
29F
330
28E
100
AcDbEntity
  8
Hidden (ANSI)
100
AcDbVertex
100
AcDb2dVertex
 10
34.80481982551543
 20
34.34430525608608
 30
0.0
  0
VERTEX
  5
2A0
330
28E
100
AcDbEntity
  8
Hidden (ANSI)
100
AcDbVertex
100
AcDb2dVertex
 10
34.80373996065678
 20
34.34576531175273
 30
0.0
  0
VERTEX
  5
2A1
330
28E
100
AcDbEntity
  8
Hidden (ANSI)
100
AcDbVertex
100
AcDb2dVertex
 10
34.80277597872612
 20
34.34722536741937
 30
0.0
  0
VERTEX
  5
2A2
330
28E
100
AcDbEntity
  8
Hidden (ANSI)
100
AcDbVertex
100
AcDb2dVertex
 10
34.80193201567566
 20
34.34868541135282
 30
0.0
  0
VERTEX
  5
2A3
330
28E
100
AcDbEntity
  8
Hidden (ANSI)
100
AcDbVertex
100
AcDb2dVertex
 10
34.8012116853303
 20
34.35014546701947
 30
0.0
  0
VERTEX
  5
2A4
330
28E
100
AcDbEntity
  8
Hidden (ANSI)
100
AcDbVertex
100
AcDb2dVertex
 10
34.80061806765449
 20
34.35160552268611
 30
0.0
  0
VERTEX
  5
2A5
330
28E
100
AcDbEntity
  8
Hidden (ANSI)
100
AcDbVertex
100
AcDb2dVertex
 10
34.80015371461874
 20
34.35306557835275
 30
0.0
  0
VERTEX
  5
2A6
330
28E
100
AcDbEntity
  8
Hidden (ANSI)
100
AcDbVertex
100
AcDb2dVertex
 10
34.79982059740027
 20
34.35452562228621
 30
0.0
  0
VERTEX
  5
2A7
330
28E
100
AcDbEntity
  8
Hidden (ANSI)
100
AcDbVertex
100
AcDb2dVertex
 10
34.79962015918242
 20
34.35598567795285
 30
0.0
  0
VERTEX
  5
2A8
330
28E
100
AcDbEntity
  8
Hidden (ANSI)
100
AcDbVertex
100
AcDb2dVertex
 10
34.79955325062201
 20
34.3574457336195
 30
0.0
  0
SEQEND
  5
291
330
28E
100
AcDbEntity
  8
Hidden (ANSI)
  0
LINE
  5
2A9
330
6C
100
AcDbEntity
  8
Hidden (ANSI)
100
AcDbLine
 10
34.86584451276624
 20
34.2911544698965
 30
0.0
 11
34.86584451276624
 21
34.1974044698965
 31
0.0
  0
POLYLINE
  5
2AA
330
6C
100
AcDbEntity
  8
Hidden (ANSI)
100
AcDb2dPolyline
 66
     1
 10
0.0
 20
0.0
 30
0.0
 70
   128
  0
VERTEX
  5
2AB
330
2AA
100
AcDbEntity
  8
Hidden (ANSI)
100
AcDbVertex
100
AcDb2dVertex
 10
34.83080325015269
 20
34.32240446801919
 30
0.0
  0
VERTEX
  5
2AC
330
2AA
100
AcDbEntity
  8
Hidden (ANSI)
100
AcDbVertex
100
AcDb2dVertex
 10
34.83226330581933
 20
34.32036062709648
 30
0.0
  0
VERTEX
  5
2AE
330
2AA
100
AcDbEntity
  8
Hidden (ANSI)
100
AcDbVertex
100
AcDb2dVertex
 10
34.83372336148598
 20
34.31832552740612
 30
0.0
  0
VERTEX
  5
2AF
330
2AA
100
AcDbEntity
  8
Hidden (ANSI)
100
AcDbVertex
100
AcDb2dVertex
 10
34.83518340541943
 20
34.31630789844728
 30
0.0
  0
VERTEX
  5
2B0
330
2AA
100
AcDbEntity
  8
Hidden (ANSI)
100
AcDbVertex
100
AcDb2dVertex
 10
34.83664346108608
 20
34.31431637585351
 30
0.0
  0
VERTEX
  5
2B1
330
2AA
100
AcDbEntity
  8
Hidden (ANSI)
100
AcDbVertex
100
AcDb2dVertex
 10
34.83810351675272
 20
34.31235948965964
 30
0.0
  0
VERTEX
  5
2B2
330
2AA
100
AcDbEntity
  8
Hidden (ANSI)
100
AcDbVertex
100
AcDb2dVertex
 10
34.83956357241936
 20
34.31044561736885
 30
0.0
  0
VERTEX
  5
2B3
330
2AA
100
AcDbEntity
  8
Hidden (ANSI)
100
AcDbVertex
100
AcDb2dVertex
 10
34.84102361635282
 20
34.30858294875322
 30
0.0
  0
VERTEX
  5
2B4
330
2AA
100
AcDbEntity
  8
Hidden (ANSI)
100
AcDbVertex
100
AcDb2dVertex
 10
34.84248367201946
 20
34.30677947412045
 30
0.0
  0
VERTEX
  5
2B5
330
2AA
100
AcDbEntity
  8
Hidden (ANSI)
100
AcDbVertex
100
AcDb2dVertex
 10
34.84394372768611
 20
34.30504290218148
 30
0.0
  0
VERTEX
  5
2B6
330
2AA
100
AcDbEntity
  8
Hidden (ANSI)
100
AcDbVertex
100
AcDb2dVertex
 10
34.84540377161955
 20
34.30338067178371
 30
0.0
  0
VERTEX
  5
2B7
330
2AA
100
AcDbEntity
  8
Hidden (ANSI)
100
AcDbVertex
100
AcDb2dVertex
 10
34.8468638272862
 20
34.30179991671139
 30
0.0
  0
VERTEX
  5
2B8
330
2AA
100
AcDbEntity
  8
Hidden (ANSI)
100
AcDbVertex
100
AcDb2dVertex
 10
34.84832388295284
 20
34.30030738355326
 30
0.0
  0
VERTEX
  5
2B9
330
2AA
100
AcDbEntity
  8
Hidden (ANSI)
100
AcDbVertex
100
AcDb2dVertex
 10
34.84978393861949
 20
34.29890947863531
 30
0.0
  0
VERTEX
  5
2BA
330
2AA
100
AcDbEntity
  8
Hidden (ANSI)
100
AcDbVertex
100
AcDb2dVertex
 10
34.85124398255294
 20
34.29761217415521
 30
0.0
  0
VERTEX
  5
2BB
330
2AA
100
AcDbEntity
  8
Hidden (ANSI)
100
AcDbVertex
100
AcDb2dVertex
 10
34.85270403821958
 20
34.29642104338193
 30
0.0
  0
VERTEX
  5
2BC
330
2AA
100
AcDbEntity
  8
Hidden (ANSI)
100
AcDbVertex
100
AcDb2dVertex
 10
34.85416409388623
 20
34.29534117852328
 30
0.0
  0
VERTEX
  5
2BD
330
2AA
100
AcDbEntity
  8
Hidden (ANSI)
100
AcDbVertex
100
AcDb2dVertex
 10
34.85562414955288
 20
34.29437719659262
 30
0.0
  0
VERTEX
  5
2BE
330
2AA
100
AcDbEntity
  8
Hidden (ANSI)
100
AcDbVertex
100
AcDb2dVertex
 10
34.85708419348632
 20
34.29353323354215
 30
0.0
  0
VERTEX
  5
2BF
330
2AA
100
AcDbEntity
  8
Hidden (ANSI)
100
AcDbVertex
100
AcDb2dVertex
 10
34.85854424915296
 20
34.2928129031968
 30
0.0
  0
VERTEX
  5
2C0
330
2AA
100
AcDbEntity
  8
Hidden (ANSI)
100
AcDbVertex
100
AcDb2dVertex
 10
34.86000430481961
 20
34.29221928552099
 30
0.0
  0
VERTEX
  5
2C1
330
2AA
100
AcDbEntity
  8
Hidden (ANSI)
100
AcDbVertex
100
AcDb2dVertex
 10
34.86146436048626
 20
34.29175493248524
 30
0.0
  0
VERTEX
  5
2C2
330
2AA
100
AcDbEntity
  8
Hidden (ANSI)
100
AcDbVertex
100
AcDb2dVertex
 10
34.8629244044197
 20
34.29142181526677
 30
0.0
  0
VERTEX
  5
2C3
330
2AA
100
AcDbEntity
  8
Hidden (ANSI)
100
AcDbVertex
100
AcDb2dVertex
 10
34.86438446008635
 20
34.29122137704891
 30
0.0
  0
VERTEX
  5
2C4
330
2AA
100
AcDbEntity
  8
Hidden (ANSI)
100
AcDbVertex
100
AcDb2dVertex
 10
34.865844515753
 20
34.29115446848852
 30
0.0
  0
SEQEND
  5
2AD
330
2AA
100
AcDbEntity
  8
Hidden (ANSI)
  0
LINE
  5
2C5
330
6C
100
AcDbEntity
  8
Hidden (ANSI)
100
AcDbLine
 10
66.54576199129376
 20
34.2911544698965
 30
0.0
 11
66.54576199129376
 21
34.1974044698965
 31
0.0
  0
POLYLINE
  5
2C6
330
6C
100
AcDbEntity
  8
Hidden (ANSI)
100
AcDb2dPolyline
 66
     1
 10
0.0
 20
0.0
 30
0.0
 70
   128
  0
VERTEX
  5
2C7
330
2C6
100
AcDbEntity
  8
Hidden (ANSI)
100
AcDbVertex
100
AcDb2dVertex
 10
66.58080385276972
 20
34.32240446801919
 30
0.0
  0
VERTEX
  5
2C8
330
2C6
100
AcDbEntity
  8
Hidden (ANSI)
100
AcDbVertex
100
AcDb2dVertex
 10
66.57934405523342
 20
34.32036062709648
 30
0.0
  0
VERTEX
  5
2CA
330
2C6
100
AcDbEntity
  8
Hidden (ANSI)
100
AcDbVertex
100
AcDb2dVertex
 10
66.57788425769713
 20
34.31832552740612
 30
0.0
  0
VERTEX
  5
2CB
330
2C6
100
AcDbEntity
  8
Hidden (ANSI)
100
AcDbVertex
100
AcDb2dVertex
 10
66.57642446016083
 20
34.31630789844728
 30
0.0
  0
VERTEX
  5
2CC
330
2C6
100
AcDbEntity
  8
Hidden (ANSI)
100
AcDbVertex
100
AcDb2dVertex
 10
66.57496165892592
 20
34.31431637585351
 30
0.0
  0
VERTEX
  5
2CD
330
2C6
100
AcDbEntity
  8
Hidden (ANSI)
100
AcDbVertex
100
AcDb2dVertex
 10
66.57350186138962
 20
34.31235948965964
 30
0.0
  0
VERTEX
  5
2CE
330
2C6
100
AcDbEntity
  8
Hidden (ANSI)
100
AcDbVertex
100
AcDb2dVertex
 10
66.57204206385332
 20
34.31044561736885
 30
0.0
  0
VERTEX
  5
2CF
330
2C6
100
AcDbEntity
  8
Hidden (ANSI)
100
AcDbVertex
100
AcDb2dVertex
 10
66.57058226631703
 20
34.30858294875322
 30
0.0
  0
VERTEX
  5
2D0
330
2C6
100
AcDbEntity
  8
Hidden (ANSI)
100
AcDbVertex
100
AcDb2dVertex
 10
66.56912246878073
 20
34.30677947412045
 30
0.0
  0
VERTEX
  5
2D1
330
2C6
100
AcDbEntity
  8
Hidden (ANSI)
100
AcDbVertex
100
AcDb2dVertex
 10
66.56766267124443
 20
34.30504290218148
 30
0.0
  0
VERTEX
  5
2D2
330
2C6
100
AcDbEntity
  8
Hidden (ANSI)
100
AcDbVertex
100
AcDb2dVertex
 10
66.56620287370815
 20
34.30338067178371
 30
0.0
  0
VERTEX
  5
2D3
330
2C6
100
AcDbEntity
  8
Hidden (ANSI)
100
AcDbVertex
100
AcDb2dVertex
 10
66.56474307617185
 20
34.30179991671139
 30
0.0
  0
VERTEX
  5
2D4
330
2C6
100
AcDbEntity
  8
Hidden (ANSI)
100
AcDbVertex
100
AcDb2dVertex
 10
66.56328327863555
 20
34.30030738355326
 30
0.0
  0
VERTEX
  5
2D5
330
2C6
100
AcDbEntity
  8
Hidden (ANSI)
100
AcDbVertex
100
AcDb2dVertex
 10
66.56182348109926
 20
34.29890947863531
 30
0.0
  0
VERTEX
  5
2D6
330
2C6
100
AcDbEntity
  8
Hidden (ANSI)
100
AcDbVertex
100
AcDb2dVertex
 10
66.56036368356296
 20
34.29761217415521
 30
0.0
  0
VERTEX
  5
2D7
330
2C6
100
AcDbEntity
  8
Hidden (ANSI)
100
AcDbVertex
100
AcDb2dVertex
 10
66.55890388602667
 20
34.29642104338193
 30
0.0
  0
VERTEX
  5
2D8
330
2C6
100
AcDbEntity
  8
Hidden (ANSI)
100
AcDbVertex
100
AcDb2dVertex
 10
66.55744108479175
 20
34.29534117852328
 30
0.0
  0
VERTEX
  5
2D9
330
2C6
100
AcDbEntity
  8
Hidden (ANSI)
100
AcDbVertex
100
AcDb2dVertex
 10
66.55598128725545
 20
34.29437719659262
 30
0.0
  0
VERTEX
  5
2DA
330
2C6
100
AcDbEntity
  8
Hidden (ANSI)
100
AcDbVertex
100
AcDb2dVertex
 10
66.55452148971915
 20
34.29353323354215
 30
0.0
  0
VERTEX
  5
2DB
330
2C6
100
AcDbEntity
  8
Hidden (ANSI)
100
AcDbVertex
100
AcDb2dVertex
 10
66.55306169218286
 20
34.2928129031968
 30
0.0
  0
VERTEX
  5
2DC
330
2C6
100
AcDbEntity
  8
Hidden (ANSI)
100
AcDbVertex
100
AcDb2dVertex
 10
66.55160189464656
 20
34.29221928552099
 30
0.0
  0
VERTEX
  5
2DD
330
2C6
100
AcDbEntity
  8
Hidden (ANSI)
100
AcDbVertex
100
AcDb2dVertex
 10
66.55014209711026
 20
34.29175493248524
 30
0.0
  0
VERTEX
  5
2DE
330
2C6
100
AcDbEntity
  8
Hidden (ANSI)
100
AcDbVertex
100
AcDb2dVertex
 10
66.54868229957397
 20
34.29142181526677
 30
0.0
  0
VERTEX
  5
2DF
330
2C6
100
AcDbEntity
  8
Hidden (ANSI)
100
AcDbVertex
100
AcDb2dVertex
 10
66.54722250203768
 20
34.29122137704891
 30
0.0
  0
VERTEX
  5
2E0
330
2C6
100
AcDbEntity
  8
Hidden (ANSI)
100
AcDbVertex
100
AcDb2dVertex
 10
66.54576270450139
 20
34.29115446848852
 30
0.0
  0
SEQEND
  5
2C9
330
2C6
100
AcDbEntity
  8
Hidden (ANSI)
  0
MTEXT
  5
2E2
330
6C
100
AcDbEntity
  8
Symbol (ANSI)
100
AcDbMText
 10
45.06121359673656
 20
28.26830527757478
 30
0.0
 40
1.440000017796914
 41
0.0
 46
0.0
 71
     7
 72
     1
  1
FRONT VIEW
  7
Text Style153
 73
     1
 44
1.0
  0
LINE
  5
2E4
330
6C
100
AcDbEntity
  8
Symbol (ANSI)
370
    30
100
AcDbLine
 10
44.91721322631592
 20
27.9746456290761
 30
0.0
 11
56.49439327774405
 21
27.9746456290761
 31
0.0
  0
POLYLINE
  5
2E5
330
6C
100
AcDbEntity
  8
Visible (ANSI)
100
AcDb2dPolyline
 66
     1
 10
0.0
 20
0.0
 30
0.0
 70
   128
  0
VERTEX
  5
2E6
330
2E5
100
AcDbEntity
  8
Visible (ANSI)
100
AcDbVertex
100
AcDb2dVertex
 10
100.9722782374997
 20
94.07240615196771
 30
0.0
  0
VERTEX
  5
2E7
330
2E5
100
AcDbEntity
  8
Visible (ANSI)
100
AcDbVertex
100
AcDb2dVertex
 10
100.9725458717413
 20
94.07094635443142
 30
0.0
  0
VERTEX
  5
2E9
330
2E5
100
AcDbEntity
  8
Visible (ANSI)
100
AcDbVertex
100
AcDb2dVertex
 10
100.9733476304793
 20
94.06948655689513
 30
0.0
  0
VERTEX
  5
2EA
330
2E5
100
AcDbEntity
  8
Visible (ANSI)
100
AcDbVertex
100
AcDb2dVertex
 10
100.9746800758868
 20
94.06802675935884
 30
0.0
  0
VERTEX
  5
2EB
330
2E5
100
AcDbEntity
  8
Visible (ANSI)
100
AcDbVertex
100
AcDb2dVertex
 10
100.9765375056296
 20
94.06656696182254
 30
0.0
  0
VERTEX
  5
2EC
330
2E5
100
AcDbEntity
  8
Visible (ANSI)
100
AcDbVertex
100
AcDb2dVertex
 10
100.9789119704663
 20
94.06510716428625
 30
0.0
  0
VERTEX
  5
2ED
330
2E5
100
AcDbEntity
  8
Visible (ANSI)
100
AcDbVertex
100
AcDb2dVertex
 10
100.9817932918477
 20
94.06364135935268
 30
0.0
  0
VERTEX
  5
2EE
330
2E5
100
AcDbEntity
  8
Visible (ANSI)
100
AcDbVertex
100
AcDb2dVertex
 10
100.9851691440495
 20
94.0621815618164
 30
0.0
  0
VERTEX
  5
2EF
330
2E5
100
AcDbEntity
  8
Visible (ANSI)
100
AcDbVertex
100
AcDb2dVertex
 10
100.989025060039
 20
94.06072176428009
 30
0.0
  0
VERTEX
  5
2F0
330
2E5
100
AcDbEntity
  8
Visible (ANSI)
100
AcDbVertex
100
AcDb2dVertex
 10
100.9933445370734
 20
94.0592619667438
 30
0.0
  0
VERTEX
  5
2F1
330
2E5
100
AcDbEntity
  8
Visible (ANSI)
100
AcDbVertex
100
AcDb2dVertex
 10
100.9981090660331
 20
94.05780216920751
 30
0.0
  0
VERTEX
  5
2F2
330
2E5
100
AcDbEntity
  8
Visible (ANSI)
100
AcDbVertex
100
AcDb2dVertex
 10
101.0032982604871
 20
94.05634237167122
 30
0.0
  0
VERTEX
  5
2F3
330
2E5
100
AcDbEntity
  8
Visible (ANSI)
100
AcDbVertex
100
AcDb2dVertex
 10
101.0088898860255
 20
94.05488257413493
 30
0.0
  0
VERTEX
  5
2F4
330
2E5
100
AcDbEntity
  8
Visible (ANSI)
100
AcDbVertex
100
AcDb2dVertex
 10
101.0148600069248
 20
94.05342277659864
 30
0.0
  0
VERTEX
  5
2F5
330
2E5
100
AcDbEntity
  8
Visible (ANSI)
100
AcDbVertex
100
AcDb2dVertex
 10
101.0211830565471
 20
94.05196297906234
 30
0.0
  0
VERTEX
  5
2F6
330
2E5
100
AcDbEntity
  8
Visible (ANSI)
100
AcDbVertex
100
AcDb2dVertex
 10
101.0278319576051
 20
94.05050318152603
 30
0.0
  0
VERTEX
  5
2F7
330
2E5
100
AcDbEntity
  8
Visible (ANSI)
100
AcDbVertex
100
AcDb2dVertex
 10
101.0347782365611
 20
94.04904338398974
 30
0.0
  0
VERTEX
  5
2F8
330
2E5
100
AcDbEntity
  8
Visible (ANSI)
100
AcDbVertex
100
AcDb2dVertex
 10
101.0419921497587
 20
94.04758358645345
 30
0.0
  0
VERTEX
  5
2F9
330
2E5
100
AcDbEntity
  8
Visible (ANSI)
100
AcDbVertex
100
AcDb2dVertex
 10
101.0494428066214
 20
94.04612378891716
 30
0.0
  0
VERTEX
  5
2FA
330
2E5
100
AcDbEntity
  8
Visible (ANSI)
100
AcDbVertex
100
AcDb2dVertex
 10
101.0570983031178
 20
94.04466399138085
 30
0.0
  0
VERTEX
  5
2FB
330
2E5
100
AcDbEntity
  8
Visible (ANSI)
100
AcDbVertex
100
AcDb2dVertex
 10
101.0649258554099
 20
94.04320419384458
 30
0.0
  0
VERTEX
  5
2FC
330
2E5
100
AcDbEntity
  8
Visible (ANSI)
100
AcDbVertex
100
AcDb2dVertex
 10
101.0728919456016
 20
94.04174439630827
 30
0.0
  0
VERTEX
  5
2FD
330
2E5
100
AcDbEntity
  8
Visible (ANSI)
100
AcDbVertex
100
AcDb2dVertex
 10
101.080962461437
 20
94.04028459877197
 30
0.0
  0
VERTEX
  5
2FE
330
2E5
100
AcDbEntity
  8
Visible (ANSI)
100
AcDbVertex
100
AcDb2dVertex
 10
101.0891028455319
 20
94.03882480123568
 30
0.0
  0
VERTEX
  5
2FF
330
2E5
100
AcDbEntity
  8
Visible (ANSI)
100
AcDbVertex
100
AcDb2dVertex
 10
101.0972782356224
 20
94.03736500369939
 30
0.0
  0
SEQEND
  5
2E8
330
2E5
100
AcDbEntity
  8
Visible (ANSI)
  0
POLYLINE
  5
300
330
6C
100
AcDbEntity
  8
Visible (ANSI)
100
AcDb2dPolyline
 66
     1
 10
0.0
 20
0.0
 30
0.0
 70
   128
  0
VERTEX
  5
301
330
300
100
AcDbEntity
  8
Visible (ANSI)
100
AcDbVertex
100
AcDb2dVertex
 10
101.0972782356224
 20
34.3574457336195
 30
0.0
  0
VERTEX
  5
302
330
300
100
AcDbEntity
  8
Visible (ANSI)
100
AcDbVertex
100
AcDb2dVertex
 10
101.0891028455319
 20
34.35598567795285
 30
0.0
  0
VERTEX
  5
304
330
300
100
AcDbEntity
  8
Visible (ANSI)
100
AcDbVertex
100
AcDb2dVertex
 10
101.080962461437
 20
34.35452562228621
 30
0.0
  0
VERTEX
  5
305
330
300
100
AcDbEntity
  8
Visible (ANSI)
100
AcDbVertex
100
AcDb2dVertex
 10
101.0728919456016
 20
34.35306557835275
 30
0.0
  0
VERTEX
  5
306
330
300
100
AcDbEntity
  8
Visible (ANSI)
100
AcDbVertex
100
AcDb2dVertex
 10
101.0649258554099
 20
34.35160552268611
 30
0.0
  0
VERTEX
  5
307
330
300
100
AcDbEntity
  8
Visible (ANSI)
100
AcDbVertex
100
AcDb2dVertex
 10
101.0570983031178
 20
34.35014546701947
 30
0.0
  0
VERTEX
  5
308
330
300
100
AcDbEntity
  8
Visible (ANSI)
100
AcDbVertex
100
AcDb2dVertex
 10
101.0494428066214
 20
34.34868541135282
 30
0.0
  0
VERTEX
  5
309
330
300
100
AcDbEntity
  8
Visible (ANSI)
100
AcDbVertex
100
AcDb2dVertex
 10
101.0419921497587
 20
34.34722536741937
 30
0.0
  0
VERTEX
  5
30A
330
300
100
AcDbEntity
  8
Visible (ANSI)
100
AcDbVertex
100
AcDb2dVertex
 10
101.0347782365611
 20
34.34576531175273
 30
0.0
  0
VERTEX
  5
30B
330
300
100
AcDbEntity
  8
Visible (ANSI)
100
AcDbVertex
100
AcDb2dVertex
 10
101.0278319576051
 20
34.34430525608608
 30
0.0
  0
VERTEX
  5
30C
330
300
100
AcDbEntity
  8
Visible (ANSI)
100
AcDbVertex
100
AcDb2dVertex
 10
101.0211830565471
 20
34.34284520041944
 30
0.0
  0
VERTEX
  5
30D
330
300
100
AcDbEntity
  8
Visible (ANSI)
100
AcDbVertex
100
AcDb2dVertex
 10
101.0148600069248
 20
34.34138515648598
 30
0.0
  0
VERTEX
  5
30E
330
300
100
AcDbEntity
  8
Visible (ANSI)
100
AcDbVertex
100
AcDb2dVertex
 10
101.0088898860255
 20
34.33992510081934
 30
0.0
  0
VERTEX
  5
30F
330
300
100
AcDbEntity
  8
Visible (ANSI)
100
AcDbVertex
100
AcDb2dVertex
 10
101.0032982604871
 20
34.33846504515269
 30
0.0
  0
VERTEX
  5
310
330
300
100
AcDbEntity
  8
Visible (ANSI)
100
AcDbVertex
100
AcDb2dVertex
 10
100.9981090660331
 20
34.33700498948605
 30
0.0
  0
VERTEX
  5
311
330
300
100
AcDbEntity
  8
Visible (ANSI)
100
AcDbVertex
100
AcDb2dVertex
 10
100.9933445370734
 20
34.3355449455526
 30
0.0
  0
VERTEX
  5
312
330
300
100
AcDbEntity
  8
Visible (ANSI)
100
AcDbVertex
100
AcDb2dVertex
 10
100.989025060039
 20
34.33408488988596
 30
0.0
  0
VERTEX
  5
313
330
300
100
AcDbEntity
  8
Visible (ANSI)
100
AcDbVertex
100
AcDb2dVertex
 10
100.9851691440495
 20
34.33262483421931
 30
0.0
  0
VERTEX
  5
314
330
300
100
AcDbEntity
  8
Visible (ANSI)
100
AcDbVertex
100
AcDb2dVertex
 10
100.9817932918477
 20
34.33116479028586
 30
0.0
  0
VERTEX
  5
315
330
300
100
AcDbEntity
  8
Visible (ANSI)
100
AcDbVertex
100
AcDb2dVertex
 10
100.9789119704663
 20
34.32970473461921
 30
0.0
  0
VERTEX
  5
316
330
300
100
AcDbEntity
  8
Visible (ANSI)
100
AcDbVertex
100
AcDb2dVertex
 10
100.9765375056296
 20
34.32824467895257
 30
0.0
  0
VERTEX
  5
317
330
300
100
AcDbEntity
  8
Visible (ANSI)
100
AcDbVertex
100
AcDb2dVertex
 10
100.9746800758868
 20
34.32678462328592
 30
0.0
  0
VERTEX
  5
318
330
300
100
AcDbEntity
  8
Visible (ANSI)
100
AcDbVertex
100
AcDb2dVertex
 10
100.9733476304793
 20
34.32532457935248
 30
0.0
  0
VERTEX
  5
319
330
300
100
AcDbEntity
  8
Visible (ANSI)
100
AcDbVertex
100
AcDb2dVertex
 10
100.9725458717413
 20
34.32386452368583
 30
0.0
  0
VERTEX
  5
31A
330
300
100
AcDbEntity
  8
Visible (ANSI)
100
AcDbVertex
100
AcDb2dVertex
 10
100.9722782374997
 20
34.32240446801919
 30
0.0
  0
SEQEND
  5
303
330
300
100
AcDbEntity
  8
Visible (ANSI)
  0
LINE
  5
31B
330
6C
100
AcDbEntity
  8
Visible (ANSI)
100
AcDbLine
 10
101.8472782360918
 20
34.35744573063273
 30
0.0
 11
101.0972782360917
 21
34.35744573063274
 31
0.0
  0
LINE
  5
31C
330
6C
100
AcDbEntity
  8
Visible (ANSI)
100
AcDbLine
 10
101.0660282360917
 20
34.3224044698965
 30
0.0
 11
100.9722782360917
 21
34.3224044698965
 31
0.0
  0
POLYLINE
  5
31D
330
6C
100
AcDbEntity
  8
Visible (ANSI)
100
AcDb2dPolyline
 66
     1
 10
0.0
 20
0.0
 30
0.0
 70
   128
  0
VERTEX
  5
31E
330
31D
100
AcDbEntity
  8
Visible (ANSI)
100
AcDbVertex
100
AcDb2dVertex
 10
101.0660282360917
 20
34.32240446801919
 30
0.0
  0
VERTEX
  5
31F
330
31D
100
AcDbEntity
  8
Visible (ANSI)
100
AcDbVertex
100
AcDb2dVertex
 10
101.066095144738
 20
34.32386452368583
 30
0.0
  0
VERTEX
  5
321
330
31D
100
AcDbEntity
  8
Visible (ANSI)
100
AcDbVertex
100
AcDb2dVertex
 10
101.0662955841762
 20
34.32532457935248
 30
0.0
  0
VERTEX
  5
322
330
31D
100
AcDbEntity
  8
Visible (ANSI)
100
AcDbVertex
100
AcDb2dVertex
 10
101.066628696101
 20
34.32678462328592
 30
0.0
  0
VERTEX
  5
323
330
31D
100
AcDbEntity
  8
Visible (ANSI)
100
AcDbVertex
100
AcDb2dVertex
 10
101.0670930540409
 20
34.32824467895257
 30
0.0
  0
VERTEX
  5
324
330
31D
100
AcDbEntity
  8
Visible (ANSI)
100
AcDbVertex
100
AcDb2dVertex
 10
101.0676866695167
 20
34.32970473461921
 30
0.0
  0
VERTEX
  5
325
330
31D
100
AcDbEntity
  8
Visible (ANSI)
100
AcDbVertex
100
AcDb2dVertex
 10
101.0684070007787
 20
34.33116479028586
 30
0.0
  0
VERTEX
  5
326
330
31D
100
AcDbEntity
  8
Visible (ANSI)
100
AcDbVertex
100
AcDb2dVertex
 10
101.0692509630958
 20
34.33262483421931
 30
0.0
  0
VERTEX
  5
327
330
31D
100
AcDbEntity
  8
Visible (ANSI)
100
AcDbVertex
100
AcDb2dVertex
 10
101.0702149420932
 20
34.33408488988596
 30
0.0
  0
VERTEX
  5
328
330
31D
100
AcDbEntity
  8
Visible (ANSI)
100
AcDbVertex
100
AcDb2dVertex
 10
101.0712948106185
 20
34.3355449455526
 30
0.0
  0
VERTEX
  5
329
330
31D
100
AcDbEntity
  8
Visible (ANSI)
100
AcDbVertex
100
AcDb2dVertex
 10
101.0724859439584
 20
34.33700498948605
 30
0.0
  0
VERTEX
  5
32A
330
31D
100
AcDbEntity
  8
Visible (ANSI)
100
AcDbVertex
100
AcDb2dVertex
 10
101.0737832418386
 20
34.33846504515269
 30
0.0
  0
VERTEX
  5
32B
330
31D
100
AcDbEntity
  8
Visible (ANSI)
100
AcDbVertex
100
AcDb2dVertex
 10
101.0751811489565
 20
34.33992510081934
 30
0.0
  0
VERTEX
  5
32C
330
31D
100
AcDbEntity
  8
Visible (ANSI)
100
AcDbVertex
100
AcDb2dVertex
 10
101.0766736791813
 20
34.34138515648598
 30
0.0
  0
VERTEX
  5
32D
330
31D
100
AcDbEntity
  8
Visible (ANSI)
100
AcDbVertex
100
AcDb2dVertex
 10
101.0782544415869
 20
34.34284520041944
 30
0.0
  0
VERTEX
  5
32E
330
31D
100
AcDbEntity
  8
Visible (ANSI)
100
AcDbVertex
100
AcDb2dVertex
 10
101.0799166668514
 20
34.34430525608608
 30
0.0
  0
VERTEX
  5
32F
330
31D
100
AcDbEntity
  8
Visible (ANSI)
100
AcDbVertex
100
AcDb2dVertex
 10
101.081653235857
 20
34.34576531175273
 30
0.0
  0
VERTEX
  5
330
330
31D
100
AcDbEntity
  8
Visible (ANSI)
100
AcDbVertex
100
AcDb2dVertex
 10
101.0834567148898
 20
34.34722536741937
 30
0.0
  0
VERTEX
  5
331
330
31D
100
AcDbEntity
  8
Visible (ANSI)
100
AcDbVertex
100
AcDb2dVertex
 10
101.0853193791054
 20
34.34868541135282
 30
0.0
  0
VERTEX
  5
332
330
31D
100
AcDbEntity
  8
Visible (ANSI)
100
AcDbVertex
100
AcDb2dVertex
 10
101.0872332528629
 20
34.35014546701947
 30
0.0
  0
VERTEX
  5
333
330
31D
100
AcDbEntity
  8
Visible (ANSI)
100
AcDbVertex
100
AcDb2dVertex
 10
101.0891901405234
 20
34.35160552268611
 30
0.0
  0
VERTEX
  5
334
330
31D
100
AcDbEntity
  8
Visible (ANSI)
100
AcDbVertex
100
AcDb2dVertex
 10
101.0911816631172
 20
34.35306557835275
 30
0.0
  0
VERTEX
  5
335
330
31D
100
AcDbEntity
  8
Visible (ANSI)
100
AcDbVertex
100
AcDb2dVertex
 10
101.093199292076
 20
34.35452562228621
 30
0.0
  0
VERTEX
  5
336
330
31D
100
AcDbEntity
  8
Visible (ANSI)
100
AcDbVertex
100
AcDb2dVertex
 10
101.0952343888331
 20
34.35598567795285
 30
0.0
  0
VERTEX
  5
337
330
31D
100
AcDbEntity
  8
Visible (ANSI)
100
AcDbVertex
100
AcDb2dVertex
 10
101.0972782356224
 20
34.3574457336195
 30
0.0
  0
SEQEND
  5
320
330
31D
100
AcDbEntity
  8
Visible (ANSI)
  0
POLYLINE
  5
338
330
6C
100
AcDbEntity
  8
Visible (ANSI)
100
AcDb2dPolyline
 66
     1
 10
0.0
 20
0.0
 30
0.0
 70
   128
  0
VERTEX
  5
339
330
338
100
AcDbEntity
  8
Visible (ANSI)
100
AcDbVertex
100
AcDb2dVertex
 10
101.0660282360917
 20
94.07240615196771
 30
0.0
  0
VERTEX
  5
33A
330
338
100
AcDbEntity
  8
Visible (ANSI)
100
AcDbVertex
100
AcDb2dVertex
 10
101.066095144738
 20
94.07094635443142
 30
0.0
  0
VERTEX
  5
33C
330
338
100
AcDbEntity
  8
Visible (ANSI)
100
AcDbVertex
100
AcDb2dVertex
 10
101.0662955841762
 20
94.06948655689513
 30
0.0
  0
VERTEX
  5
33D
330
338
100
AcDbEntity
  8
Visible (ANSI)
100
AcDbVertex
100
AcDb2dVertex
 10
101.066628696101
 20
94.06802675935884
 30
0.0
  0
VERTEX
  5
33E
330
338
100
AcDbEntity
  8
Visible (ANSI)
100
AcDbVertex
100
AcDb2dVertex
 10
101.0670930540409
 20
94.06656696182254
 30
0.0
  0
VERTEX
  5
33F
330
338
100
AcDbEntity
  8
Visible (ANSI)
100
AcDbVertex
100
AcDb2dVertex
 10
101.0676866695167
 20
94.06510716428625
 30
0.0
  0
VERTEX
  5
340
330
338
100
AcDbEntity
  8
Visible (ANSI)
100
AcDbVertex
100
AcDb2dVertex
 10
101.0684070007787
 20
94.06364135935268
 30
0.0
  0
VERTEX
  5
341
330
338
100
AcDbEntity
  8
Visible (ANSI)
100
AcDbVertex
100
AcDb2dVertex
 10
101.0692509630958
 20
94.0621815618164
 30
0.0
  0
VERTEX
  5
342
330
338
100
AcDbEntity
  8
Visible (ANSI)
100
AcDbVertex
100
AcDb2dVertex
 10
101.0702149420932
 20
94.06072176428009
 30
0.0
  0
VERTEX
  5
343
330
338
100
AcDbEntity
  8
Visible (ANSI)
100
AcDbVertex
100
AcDb2dVertex
 10
101.0712948106185
 20
94.0592619667438
 30
0.0
  0
VERTEX
  5
344
330
338
100
AcDbEntity
  8
Visible (ANSI)
100
AcDbVertex
100
AcDb2dVertex
 10
101.0724859439584
 20
94.05780216920751
 30
0.0
  0
VERTEX
  5
345
330
338
100
AcDbEntity
  8
Visible (ANSI)
100
AcDbVertex
100
AcDb2dVertex
 10
101.0737832418386
 20
94.05634237167122
 30
0.0
  0
VERTEX
  5
346
330
338
100
AcDbEntity
  8
Visible (ANSI)
100
AcDbVertex
100
AcDb2dVertex
 10
101.0751811489565
 20
94.05488257413493
 30
0.0
  0
VERTEX
  5
347
330
338
100
AcDbEntity
  8
Visible (ANSI)
100
AcDbVertex
100
AcDb2dVertex
 10
101.0766736791813
 20
94.05342277659864
 30
0.0
  0
VERTEX
  5
348
330
338
100
AcDbEntity
  8
Visible (ANSI)
100
AcDbVertex
100
AcDb2dVertex
 10
101.0782544415869
 20
94.05196297906234
 30
0.0
  0
VERTEX
  5
349
330
338
100
AcDbEntity
  8
Visible (ANSI)
100
AcDbVertex
100
AcDb2dVertex
 10
101.0799166668514
 20
94.05050318152603
 30
0.0
  0
VERTEX
  5
34A
330
338
100
AcDbEntity
  8
Visible (ANSI)
100
AcDbVertex
100
AcDb2dVertex
 10
101.081653235857
 20
94.04904338398974
 30
0.0
  0
VERTEX
  5
34B
330
338
100
AcDbEntity
  8
Visible (ANSI)
100
AcDbVertex
100
AcDb2dVertex
 10
101.0834567148898
 20
94.04758358645345
 30
0.0
  0
VERTEX
  5
34C
330
338
100
AcDbEntity
  8
Visible (ANSI)
100
AcDbVertex
100
AcDb2dVertex
 10
101.0853193791054
 20
94.04612378891716
 30
0.0
  0
VERTEX
  5
34D
330
338
100
AcDbEntity
  8
Visible (ANSI)
100
AcDbVertex
100
AcDb2dVertex
 10
101.0872332528629
 20
94.04466399138085
 30
0.0
  0
VERTEX
  5
34E
330
338
100
AcDbEntity
  8
Visible (ANSI)
100
AcDbVertex
100
AcDb2dVertex
 10
101.0891901405234
 20
94.04320419384458
 30
0.0
  0
VERTEX
  5
34F
330
338
100
AcDbEntity
  8
Visible (ANSI)
100
AcDbVertex
100
AcDb2dVertex
 10
101.0911816631172
 20
94.04174439630827
 30
0.0
  0
VERTEX
  5
350
330
338
100
AcDbEntity
  8
Visible (ANSI)
100
AcDbVertex
100
AcDb2dVertex
 10
101.093199292076
 20
94.04028459877197
 30
0.0
  0
VERTEX
  5
351
330
338
100
AcDbEntity
  8
Visible (ANSI)
100
AcDbVertex
100
AcDb2dVertex
 10
101.0952343888331
 20
94.03882480123568
 30
0.0
  0
VERTEX
  5
352
330
338
100
AcDbEntity
  8
Visible (ANSI)
100
AcDbVertex
100
AcDb2dVertex
 10
101.0972782356224
 20
94.03736500369939
 30
0.0
  0
SEQEND
  5
33B
330
338
100
AcDbEntity
  8
Visible (ANSI)
  0
LINE
  5
353
330
6C
100
AcDbEntity
  8
Visible (ANSI)
100
AcDbLine
 10
101.0660282360917
 20
94.0724044698965
 30
0.0
 11
100.9722782360917
 21
94.0724044698965
 31
0.0
  0
LINE
  5
354
330
6C
100
AcDbEntity
  8
Visible (ANSI)
100
AcDbLine
 10
101.0972782360917
 20
94.03736320916024
 30
0.0
 11
101.8472782360918
 21
94.03736320916024
 31
0.0
  0
POLYLINE
  5
355
330
6C
100
AcDbEntity
  8
Visible (ANSI)
100
AcDb2dPolyline
 66
     1
 10
0.0
 20
0.0
 30
0.0
 70
   128
  0
VERTEX
  5
356
330
355
100
AcDbEntity
  8
Visible (ANSI)
100
AcDbVertex
100
AcDb2dVertex
 10
101.0972782356224
 20
94.19740206693758
 30
0.0
  0
VERTEX
  5
357
330
355
100
AcDbEntity
  8
Visible (ANSI)
100
AcDbVertex
100
AcDb2dVertex
 10
101.0891028455318
 20
94.19713774145774
 30
0.0
  0
VERTEX
  5
359
330
355
100
AcDbEntity
  8
Visible (ANSI)
100
AcDbVertex
100
AcDb2dVertex
 10
101.0809624614369
 20
94.19633275022375
 30
0.0
  0
VERTEX
  5
35A
330
355
100
AcDbEntity
  8
Visible (ANSI)
100
AcDbVertex
100
AcDb2dVertex
 10
101.0728919456016
 20
94.19500511542736
 30
0.0
  0
VERTEX
  5
35B
330
355
100
AcDbEntity
  8
Visible (ANSI)
100
AcDbVertex
100
AcDb2dVertex
 10
101.0649258554098
 20
94.19314282227409
 30
0.0
  0
VERTEX
  5
35C
330
355
100
AcDbEntity
  8
Visible (ANSI)
100
AcDbVertex
100
AcDb2dVertex
 10
101.0570983031177
 20
94.19076990035293
 30
0.0
  0
VERTEX
  5
35D
330
355
100
AcDbEntity
  8
Visible (ANSI)
100
AcDbVertex
100
AcDb2dVertex
 10
101.0494428066214
 20
94.18789235706123
 30
0.0
  0
VERTEX
  5
35E
330
355
100
AcDbEntity
  8
Visible (ANSI)
100
AcDbVertex
100
AcDb2dVertex
 10
101.0419921497586
 20
94.18451619979622
 30
0.0
  0
VERTEX
  5
35F
330
355
100
AcDbEntity
  8
Visible (ANSI)
100
AcDbVertex
100
AcDb2dVertex
 10
101.034778236561
 20
94.18065945074971
 30
0.0
  0
VERTEX
  5
360
330
355
100
AcDbEntity
  8
Visible (ANSI)
100
AcDbVertex
100
AcDb2dVertex
 10
101.027831957605
 20
94.17634013211351
 30
0.0
  0
VERTEX
  5
361
330
355
100
AcDbEntity
  8
Visible (ANSI)
100
AcDbVertex
100
AcDb2dVertex
 10
101.0211830565471
 20
94.17157626607943
 30
0.0
  0
VERTEX
  5
362
330
355
100
AcDbEntity
  8
Visible (ANSI)
100
AcDbVertex
100
AcDb2dVertex
 10
101.0148600069248
 20
94.16638587483928
 30
0.0
  0
VERTEX
  5
363
330
355
100
AcDbEntity
  8
Visible (ANSI)
100
AcDbVertex
100
AcDb2dVertex
 10
101.0088898860255
 20
94.16079298798212
 30
0.0
  0
VERTEX
  5
364
330
355
100
AcDbEntity
  8
Visible (ANSI)
100
AcDbVertex
100
AcDb2dVertex
 10
101.0032982604871
 20
94.15482163509702
 30
0.0
  0
VERTEX
  5
365
330
355
100
AcDbEntity
  8
Visible (ANSI)
100
AcDbVertex
100
AcDb2dVertex
 10
100.9981090660331
 20
94.14850185317035
 30
0.0
  0
VERTEX
  5
366
330
355
100
AcDbEntity
  8
Visible (ANSI)
100
AcDbVertex
100
AcDb2dVertex
 10
100.9933445370734
 20
94.14185166439391
 30
0.0
  0
VERTEX
  5
367
330
355
100
AcDbEntity
  8
Visible (ANSI)
100
AcDbVertex
100
AcDb2dVertex
 10
100.989025060039
 20
94.13490711315128
 30
0.0
  0
VERTEX
  5
368
330
355
100
AcDbEntity
  8
Visible (ANSI)
100
AcDbVertex
100
AcDb2dVertex
 10
100.9851691440495
 20
94.12769222903158
 30
0.0
  0
VERTEX
  5
369
330
355
100
AcDbEntity
  8
Visible (ANSI)
100
AcDbVertex
100
AcDb2dVertex
 10
100.9817932918477
 20
94.12023704902111
 30
0.0
  0
VERTEX
  5
36A
330
355
100
AcDbEntity
  8
Visible (ANSI)
100
AcDbVertex
100
AcDb2dVertex
 10
100.9789119704662
 20
94.1125836249008
 30
0.0
  0
VERTEX
  5
36B
330
355
100
AcDbEntity
  8
Visible (ANSI)
100
AcDbVertex
100
AcDb2dVertex
 10
100.9765375056296
 20
94.10475598625968
 30
0.0
  0
VERTEX
  5
36C
330
355
100
AcDbEntity
  8
Visible (ANSI)
100
AcDbVertex
100
AcDb2dVertex
 10
100.9746800758868
 20
94.09679017748137
 30
0.0
  0
VERTEX
  5
36D
330
355
100
AcDbEntity
  8
Visible (ANSI)
100
AcDbVertex
100
AcDb2dVertex
 10
100.9733476304793
 20
94.08872224294951
 30
0.0
  0
VERTEX
  5
36E
330
355
100
AcDbEntity
  8
Visible (ANSI)
100
AcDbVertex
100
AcDb2dVertex
 10
100.9725458717413
 20
94.08058221965042
 30
0.0
  0
VERTEX
  5
36F
330
355
100
AcDbEntity
  8
Visible (ANSI)
100
AcDbVertex
100
AcDb2dVertex
 10
100.9722782374997
 20
94.07240615196771
 30
0.0
  0
SEQEND
  5
358
330
355
100
AcDbEntity
  8
Visible (ANSI)
  0
LINE
  5
370
330
6C
100
AcDbEntity
  8
Visible (ANSI)
100
AcDbLine
 10
101.0972782360917
 20
94.10365446989649
 30
0.0
 11
101.8472782360917
 21
94.10365446989645
 31
0.0
  0
LINE
  5
371
330
6C
100
AcDbEntity
  8
Visible (ANSI)
100
AcDbLine
 10
101.8472782360917
 20
94.19740446989644
 30
0.0
 11
101.0972782360917
 21
94.19740446989647
 31
0.0
  0
LINE
  5
372
330
6C
100
AcDbEntity
  8
Visible (ANSI)
100
AcDbLine
 10
101.0972782360917
 20
94.10365446989649
 30
0.0
 11
101.0972782360917
 21
94.19740446989647
 31
0.0
  0
LINE
  5
373
330
6C
100
AcDbEntity
  8
Visible (ANSI)
100
AcDbLine
 10
101.8472782360917
 20
94.10365446989645
 30
0.0
 11
101.8472782360917
 21
94.19740446989644
 31
0.0
  0
POLYLINE
  5
374
330
6C
100
AcDbEntity
  8
Visible (ANSI)
100
AcDb2dPolyline
 66
     1
 10
0.0
 20
0.0
 30
0.0
 70
   128
  0
VERTEX
  5
375
330
374
100
AcDbEntity
  8
Visible (ANSI)
100
AcDbVertex
100
AcDb2dVertex
 10
101.0660282360917
 20
94.07240615196771
 30
0.0
  0
VERTEX
  5
376
330
374
100
AcDbEntity
  8
Visible (ANSI)
100
AcDbVertex
100
AcDb2dVertex
 10
101.066095144738
 20
94.0744486670391
 30
0.0
  0
VERTEX
  5
378
330
374
100
AcDbEntity
  8
Visible (ANSI)
100
AcDbVertex
100
AcDb2dVertex
 10
101.0662955841762
 20
94.07648517471319
 30
0.0
  0
VERTEX
  5
379
330
374
100
AcDbEntity
  8
Visible (ANSI)
100
AcDbVertex
100
AcDb2dVertex
 10
101.066628696101
 20
94.07850366019546
 30
0.0
  0
VERTEX
  5
37A
330
374
100
AcDbEntity
  8
Visible (ANSI)
100
AcDbVertex
100
AcDb2dVertex
 10
101.0670930540408
 20
94.0804921086914
 30
0.0
  0
VERTEX
  5
37B
330
374
100
AcDbEntity
  8
Visible (ANSI)
100
AcDbVertex
100
AcDb2dVertex
 10
101.0676866695167
 20
94.08245052020099
 30
0.0
  0
VERTEX
  5
37C
330
374
100
AcDbEntity
  8
Visible (ANSI)
100
AcDbVertex
100
AcDb2dVertex
 10
101.0684070007787
 20
94.08436087253244
 30
0.0
  0
VERTEX
  5
37D
330
374
100
AcDbEntity
  8
Visible (ANSI)
100
AcDbVertex
100
AcDb2dVertex
 10
101.0692509630958
 20
94.08622316568573
 30
0.0
  0
VERTEX
  5
37E
330
374
100
AcDbEntity
  8
Visible (ANSI)
100
AcDbVertex
100
AcDb2dVertex
 10
101.0702149420932
 20
94.08803139226362
 30
0.0
  0
VERTEX
  5
37F
330
374
100
AcDbEntity
  8
Visible (ANSI)
100
AcDbVertex
100
AcDb2dVertex
 10
101.0712948106185
 20
94.08976753007427
 30
0.0
  0
VERTEX
  5
380
330
374
100
AcDbEntity
  8
Visible (ANSI)
100
AcDbVertex
100
AcDb2dVertex
 10
101.0724859439584
 20
94.09142557172044
 30
0.0
  0
VERTEX
  5
381
330
374
100
AcDbEntity
  8
Visible (ANSI)
100
AcDbVertex
100
AcDb2dVertex
 10
101.0737832418385
 20
94.09301152459937
 30
0.0
  0
VERTEX
  5
382
330
374
100
AcDbEntity
  8
Visible (ANSI)
100
AcDbVertex
100
AcDb2dVertex
 10
101.0751811489565
 20
94.094501359122
 30
0.0
  0
VERTEX
  5
383
330
374
100
AcDbEntity
  8
Visible (ANSI)
100
AcDbVertex
100
AcDb2dVertex
 10
101.0766736791813
 20
94.09590108268561
 30
0.0
  0
VERTEX
  5
384
330
374
100
AcDbEntity
  8
Visible (ANSI)
100
AcDbVertex
100
AcDb2dVertex
 10
101.0782544415869
 20
94.09719868049565
 30
0.0
  0
VERTEX
  5
385
330
374
100
AcDbEntity
  8
Visible (ANSI)
100
AcDbVertex
100
AcDb2dVertex
 10
101.0799166668514
 20
94.09838814515486
 30
0.0
  0
VERTEX
  5
386
330
374
100
AcDbEntity
  8
Visible (ANSI)
100
AcDbVertex
100
AcDb2dVertex
 10
101.081653235857
 20
94.09946947666322
 30
0.0
  0
VERTEX
  5
387
330
374
100
AcDbEntity
  8
Visible (ANSI)
100
AcDbVertex
100
AcDb2dVertex
 10
101.0834567148898
 20
94.10043066022621
 30
0.0
  0
VERTEX
  5
388
330
374
100
AcDbEntity
  8
Visible (ANSI)
100
AcDbVertex
100
AcDb2dVertex
 10
101.0853193791054
 20
94.10127770324109
 30
0.0
  0
VERTEX
  5
389
330
374
100
AcDbEntity
  8
Visible (ANSI)
100
AcDbVertex
100
AcDb2dVertex
 10
101.0872332528629
 20
94.10199859091333
 30
0.0
  0
VERTEX
  5
38A
330
374
100
AcDbEntity
  8
Visible (ANSI)
100
AcDbVertex
100
AcDb2dVertex
 10
101.0891901405234
 20
94.10258731584567
 30
0.0
  0
VERTEX
  5
38B
330
374
100
AcDbEntity
  8
Visible (ANSI)
100
AcDbVertex
100
AcDb2dVertex
 10
101.0911816631172
 20
94.10305589283264
 30
0.0
  0
VERTEX
  5
38C
330
374
100
AcDbEntity
  8
Visible (ANSI)
100
AcDbVertex
100
AcDb2dVertex
 10
101.093199292076
 20
94.10338629968242
 30
0.0
  0
VERTEX
  5
38D
330
374
100
AcDbEntity
  8
Visible (ANSI)
100
AcDbVertex
100
AcDb2dVertex
 10
101.0952343888331
 20
94.10359055118956
 30
0.0
  0
VERTEX
  5
38E
330
374
100
AcDbEntity
  8
Visible (ANSI)
100
AcDbVertex
100
AcDb2dVertex
 10
101.0972782356224
 20
94.1036566325595
 30
0.0
  0
SEQEND
  5
377
330
374
100
AcDbEntity
  8
Visible (ANSI)
  0
POLYLINE
  5
38F
330
6C
100
AcDbEntity
  8
Visible (ANSI)
100
AcDb2dPolyline
 66
     1
 10
0.0
 20
0.0
 30
0.0
 70
   128
  0
VERTEX
  5
390
330
38F
100
AcDbEntity
  8
Visible (ANSI)
100
AcDbVertex
100
AcDb2dVertex
 10
100.9722782374997
 20
34.32240446801919
 30
0.0
  0
VERTEX
  5
391
330
38F
100
AcDbEntity
  8
Visible (ANSI)
100
AcDbVertex
100
AcDb2dVertex
 10
100.9725458717413
 20
34.31422908086196
 30
0.0
  0
VERTEX
  5
393
330
38F
100
AcDbEntity
  8
Visible (ANSI)
100
AcDbVertex
100
AcDb2dVertex
 10
100.9733476304793
 20
34.30608869383374
 30
0.0
  0
VERTEX
  5
394
330
38F
100
AcDbEntity
  8
Visible (ANSI)
100
AcDbVertex
100
AcDb2dVertex
 10
100.9746800758868
 20
34.29801817799836
 30
0.0
  0
VERTEX
  5
395
330
38F
100
AcDbEntity
  8
Visible (ANSI)
100
AcDbVertex
100
AcDb2dVertex
 10
100.9765375056296
 20
34.29005208762331
 30
0.0
  0
VERTEX
  5
396
330
38F
100
AcDbEntity
  8
Visible (ANSI)
100
AcDbVertex
100
AcDb2dVertex
 10
100.9789119704662
 20
34.28222453698118
 30
0.0
  0
VERTEX
  5
397
330
38F
100
AcDbEntity
  8
Visible (ANSI)
100
AcDbVertex
100
AcDb2dVertex
 10
100.9817932918477
 20
34.27456904195145
 30
0.0
  0
VERTEX
  5
398
330
38F
100
AcDbEntity
  8
Visible (ANSI)
100
AcDbVertex
100
AcDb2dVertex
 10
100.9851691440495
 20
34.26711838508874
 30
0.0
  0
VERTEX
  5
399
330
38F
100
AcDbEntity
  8
Visible (ANSI)
100
AcDbVertex
100
AcDb2dVertex
 10
100.989025060039
 20
34.25990446895784
 30
0.0
  0
VERTEX
  5
39A
330
38F
100
AcDbEntity
  8
Visible (ANSI)
100
AcDbVertex
100
AcDb2dVertex
 10
100.9933445370734
 20
34.25295819293515
 30
0.0
  0
VERTEX
  5
39B
330
38F
100
AcDbEntity
  8
Visible (ANSI)
100
AcDbVertex
100
AcDb2dVertex
 10
100.9981090660331
 20
34.24630929187716
 30
0.0
  0
VERTEX
  5
39C
330
38F
100
AcDbEntity
  8
Visible (ANSI)
100
AcDbVertex
100
AcDb2dVertex
 10
101.0032982604871
 20
34.2399862422549
 30
0.0
  0
VERTEX
  5
39D
330
38F
100
AcDbEntity
  8
Visible (ANSI)
100
AcDbVertex
100
AcDb2dVertex
 10
101.0088898860255
 20
34.23401612135557
 30
0.0
  0
VERTEX
  5
39E
330
38F
100
AcDbEntity
  8
Visible (ANSI)
100
AcDbVertex
100
AcDb2dVertex
 10
101.0148600069248
 20
34.22842449288388
 30
0.0
  0
VERTEX
  5
39F
330
38F
100
AcDbEntity
  8
Visible (ANSI)
100
AcDbVertex
100
AcDb2dVertex
 10
101.0211830565471
 20
34.2232353013632
 30
0.0
  0
VERTEX
  5
3A0
330
38F
100
AcDbEntity
  8
Visible (ANSI)
100
AcDbVertex
100
AcDb2dVertex
 10
101.027831957605
 20
34.21847076800349
 30
0.0
  0
VERTEX
  5
3A1
330
38F
100
AcDbEntity
  8
Visible (ANSI)
100
AcDbVertex
100
AcDb2dVertex
 10
101.034778236561
 20
34.21415129390243
 30
0.0
  0
VERTEX
  5
3A2
330
38F
100
AcDbEntity
  8
Visible (ANSI)
100
AcDbVertex
100
AcDb2dVertex
 10
101.0419921497586
 20
34.21029537791297
 30
0.0
  0
VERTEX
  5
3A3
330
38F
100
AcDbEntity
  8
Visible (ANSI)
100
AcDbVertex
100
AcDb2dVertex
 10
101.0494428066214
 20
34.20691952864439
 30
0.0
  0
VERTEX
  5
3A4
330
38F
100
AcDbEntity
  8
Visible (ANSI)
100
AcDbVertex
100
AcDb2dVertex
 10
101.0570983031177
 20
34.20403820359638
 30
0.0
  0
VERTEX
  5
3A5
330
38F
100
AcDbEntity
  8
Visible (ANSI)
100
AcDbVertex
100
AcDb2dVertex
 10
101.0649258554098
 20
34.20166374169303
 30
0.0
  0
VERTEX
  5
3A6
330
38F
100
AcDbEntity
  8
Visible (ANSI)
100
AcDbVertex
100
AcDb2dVertex
 10
101.0728919456016
 20
34.19980630993357
 30
0.0
  0
VERTEX
  5
3A7
330
38F
100
AcDbEntity
  8
Visible (ANSI)
100
AcDbVertex
100
AcDb2dVertex
 10
101.0809624614369
 20
34.19847386223445
 30
0.0
  0
VERTEX
  5
3A8
330
38F
100
AcDbEntity
  8
Visible (ANSI)
100
AcDbVertex
100
AcDb2dVertex
 10
101.0891028455318
 20
34.19767210448185
 30
0.0
  0
VERTEX
  5
3A9
330
38F
100
AcDbEntity
  8
Visible (ANSI)
100
AcDbVertex
100
AcDb2dVertex
 10
101.0972782356224
 20
34.1974044698965
 30
0.0
  0
SEQEND
  5
392
330
38F
100
AcDbEntity
  8
Visible (ANSI)
  0
LINE
  5
3AA
330
6C
100
AcDbEntity
  8
Visible (ANSI)
100
AcDbLine
 10
101.0972782360917
 20
34.2911544698965
 30
0.0
 11
101.8472782360917
 21
34.2911544698965
 31
0.0
  0
LINE
  5
3AB
330
6C
100
AcDbEntity
  8
Visible (ANSI)
100
AcDbLine
 10
101.0972782360917
 20
34.2911544698965
 30
0.0
 11
101.0972782360917
 21
34.1974044698965
 31
0.0
  0
POLYLINE
  5
3AC
330
6C
100
AcDbEntity
  8
Visible (ANSI)
100
AcDb2dPolyline
 66
     1
 10
0.0
 20
0.0
 30
0.0
 70
   128
  0
VERTEX
  5
3AD
330
3AC
100
AcDbEntity
  8
Visible (ANSI)
100
AcDbVertex
100
AcDb2dVertex
 10
101.0660282360917
 20
34.32240446801919
 30
0.0
  0
VERTEX
  5
3AE
330
3AC
100
AcDbEntity
  8
Visible (ANSI)
100
AcDbVertex
100
AcDb2dVertex
 10
101.066095144738
 20
34.32036062709648
 30
0.0
  0
VERTEX
  5
3B0
330
3AC
100
AcDbEntity
  8
Visible (ANSI)
100
AcDbVertex
100
AcDb2dVertex
 10
101.0662955841762
 20
34.31832552740612
 30
0.0
  0
VERTEX
  5
3B1
330
3AC
100
AcDbEntity
  8
Visible (ANSI)
100
AcDbVertex
100
AcDb2dVertex
 10
101.066628696101
 20
34.31630789844728
 30
0.0
  0
VERTEX
  5
3B2
330
3AC
100
AcDbEntity
  8
Visible (ANSI)
100
AcDbVertex
100
AcDb2dVertex
 10
101.0670930540408
 20
34.31431637585351
 30
0.0
  0
VERTEX
  5
3B3
330
3AC
100
AcDbEntity
  8
Visible (ANSI)
100
AcDbVertex
100
AcDb2dVertex
 10
101.0676866695167
 20
34.31235948965964
 30
0.0
  0
VERTEX
  5
3B4
330
3AC
100
AcDbEntity
  8
Visible (ANSI)
100
AcDbVertex
100
AcDb2dVertex
 10
101.0684070007787
 20
34.31044561736885
 30
0.0
  0
VERTEX
  5
3B5
330
3AC
100
AcDbEntity
  8
Visible (ANSI)
100
AcDbVertex
100
AcDb2dVertex
 10
101.0692509630958
 20
34.30858294875322
 30
0.0
  0
VERTEX
  5
3B6
330
3AC
100
AcDbEntity
  8
Visible (ANSI)
100
AcDbVertex
100
AcDb2dVertex
 10
101.0702149420932
 20
34.30677947412045
 30
0.0
  0
VERTEX
  5
3B7
330
3AC
100
AcDbEntity
  8
Visible (ANSI)
100
AcDbVertex
100
AcDb2dVertex
 10
101.0712948106185
 20
34.30504290218148
 30
0.0
  0
VERTEX
  5
3B8
330
3AC
100
AcDbEntity
  8
Visible (ANSI)
100
AcDbVertex
100
AcDb2dVertex
 10
101.0724859439584
 20
34.30338067178371
 30
0.0
  0
VERTEX
  5
3B9
330
3AC
100
AcDbEntity
  8
Visible (ANSI)
100
AcDbVertex
100
AcDb2dVertex
 10
101.0737832418385
 20
34.30179991671139
 30
0.0
  0
VERTEX
  5
3BA
330
3AC
100
AcDbEntity
  8
Visible (ANSI)
100
AcDbVertex
100
AcDb2dVertex
 10
101.0751811489565
 20
34.30030738355326
 30
0.0
  0
VERTEX
  5
3BB
330
3AC
100
AcDbEntity
  8
Visible (ANSI)
100
AcDbVertex
100
AcDb2dVertex
 10
101.0766736791813
 20
34.29890947863531
 30
0.0
  0
VERTEX
  5
3BC
330
3AC
100
AcDbEntity
  8
Visible (ANSI)
100
AcDbVertex
100
AcDb2dVertex
 10
101.0782544415869
 20
34.29761217415521
 30
0.0
  0
VERTEX
  5
3BD
330
3AC
100
AcDbEntity
  8
Visible (ANSI)
100
AcDbVertex
100
AcDb2dVertex
 10
101.0799166668514
 20
34.29642104338193
 30
0.0
  0
VERTEX
  5
3BE
330
3AC
100
AcDbEntity
  8
Visible (ANSI)
100
AcDbVertex
100
AcDb2dVertex
 10
101.081653235857
 20
34.29534117852328
 30
0.0
  0
VERTEX
  5
3BF
330
3AC
100
AcDbEntity
  8
Visible (ANSI)
100
AcDbVertex
100
AcDb2dVertex
 10
101.0834567148898
 20
34.29437719659262
 30
0.0
  0
VERTEX
  5
3C0
330
3AC
100
AcDbEntity
  8
Visible (ANSI)
100
AcDbVertex
100
AcDb2dVertex
 10
101.0853193791054
 20
34.29353323354215
 30
0.0
  0
VERTEX
  5
3C1
330
3AC
100
AcDbEntity
  8
Visible (ANSI)
100
AcDbVertex
100
AcDb2dVertex
 10
101.0872332528629
 20
34.2928129031968
 30
0.0
  0
VERTEX
  5
3C2
330
3AC
100
AcDbEntity
  8
Visible (ANSI)
100
AcDbVertex
100
AcDb2dVertex
 10
101.0891901405234
 20
34.29221928552099
 30
0.0
  0
VERTEX
  5
3C3
330
3AC
100
AcDbEntity
  8
Visible (ANSI)
100
AcDbVertex
100
AcDb2dVertex
 10
101.0911816631172
 20
34.29175493248524
 30
0.0
  0
VERTEX
  5
3C4
330
3AC
100
AcDbEntity
  8
Visible (ANSI)
100
AcDbVertex
100
AcDb2dVertex
 10
101.093199292076
 20
34.29142181526677
 30
0.0
  0
VERTEX
  5
3C5
330
3AC
100
AcDbEntity
  8
Visible (ANSI)
100
AcDbVertex
100
AcDb2dVertex
 10
101.0952343888331
 20
34.29122137704891
 30
0.0
  0
VERTEX
  5
3C6
330
3AC
100
AcDbEntity
  8
Visible (ANSI)
100
AcDbVertex
100
AcDb2dVertex
 10
101.0972782356224
 20
34.29115446848852
 30
0.0
  0
SEQEND
  5
3AF
330
3AC
100
AcDbEntity
  8
Visible (ANSI)
  0
LINE
  5
3C7
330
6C
100
AcDbEntity
  8
Visible (ANSI)
100
AcDbLine
 10
101.0972782360917
 20
34.1974044698965
 30
0.0
 11
101.8472782360917
 21
34.1974044698965
 31
0.0
  0
LINE
  5
3C8
330
6C
100
AcDbEntity
  8
Visible (ANSI)
100
AcDbLine
 10
101.8472782360917
 20
34.2911544698965
 30
0.0
 11
101.8472782360917
 21
34.1974044698965
 31
0.0
  0
LINE
  5
3C9
330
6C
100
AcDbEntity
  8
Visible (ANSI)
100
AcDbLine
 10
100.9722782360917
 20
34.3224044698965
 30
0.0
 11
100.9722782360917
 21
94.0724044698965
 31
0.0
  0
LINE
  5
3CA
330
6C
100
AcDbEntity
  8
Hidden (ANSI)
100
AcDbLine
 10
101.0660282360917
 20
94.0724044698965
 30
0.0
 11
101.0660282360917
 21
34.32240446989649
 31
0.0
  0
LINE
  5
3CB
330
6C
100
AcDbEntity
  8
Visible (ANSI)
100
AcDbLine
 10
101.8472782360918
 20
94.03736320916024
 30
0.0
 11
101.8472782360918
 21
34.35744573063273
 31
0.0
  0
LINE
  5
3CC
330
6C
100
AcDbEntity
  8
Hidden (ANSI)
100
AcDbLine
 10
101.0660282360915
 20
63.91590446989651
 30
0.0
 11
100.9722782360915
 21
63.91590446989651
 31
0.0
  0
LINE
  5
3CD
330
6C
100
AcDbEntity
  8
Hidden (ANSI)
100
AcDbLine
 10
101.0660282360915
 20
64.4789044698965
 30
0.0
 11
100.9722782360915
 21
64.4789044698965
 31
0.0
  0
LINE
  5
3CE
330
6C
100
AcDbEntity
  8
Hidden (ANSI)
100
AcDbLine
 10
101.0660282360915
 20
93.04090446989649
 30
0.0
 11
100.9722782360915
 21
93.04090446989649
 31
0.0
  0
LINE
  5
3CF
330
6C
100
AcDbEntity
  8
Hidden (ANSI)
100
AcDbLine
 10
101.0660282360915
 20
93.60390446989649
 30
0.0
 11
100.9722782360915
 21
93.60390446989649
 31
0.0
  0
LINE
  5
3D0
330
6C
100
AcDbEntity
  8
Hidden (ANSI)
100
AcDbLine
 10
101.0660282360915
 20
34.7909044698965
 30
0.0
 11
100.9722782360915
 21
34.7909044698965
 31
0.0
  0
LINE
  5
3D1
330
6C
100
AcDbEntity
  8
Hidden (ANSI)
100
AcDbLine
 10
101.0660282360915
 20
35.35390446989649
 30
0.0
 11
100.9722782360915
 21
35.35390446989649
 31
0.0
  0
MTEXT
  5
3D2
330
6C
100
AcDbEntity
  8
Symbol (ANSI)
100
AcDbMText
 10
96.61796350331229
 20
28.27764077073037
 30
0.0
 40
1.440000017796914
 41
0.0
 46
0.0
 71
     7
 72
     1
  1
SIDE VIEW
  7
Text Style153
 73
     1
 44
1.0
  0
LINE
  5
3D3
330
6C
100
AcDbEntity
  8
Symbol (ANSI)
370
    30
100
AcDbLine
 10
96.54423531365692
 20
27.97931337675388
 30
0.0
 11
106.2753211585228
 21
27.97931337675388
 31
0.0
  0
ELLIPSE
  5
3D4
330
6C
100
AcDbEntity
  8
Visible (ANSI)
100
AcDbEllipse
 10
165.6036620752095
 20
57.86044736922977
 30
0.0
 11
-0.1404775675610101
 21
0.2439432372748665
 31
0.0
210
0.0
220
0.0
230
1.0
 40
0.578093115915809
 41
0.0
 42
6.283185307179586
  0
ELLIPSE
  5
3D5
330
6C
100
AcDbEntity
  8
Visible (ANSI)
100
AcDbEllipse
 10
165.6699533359457
 20
57.89862196739782
 30
0.0
 11
-0.1404775675610072
 21
0.2439432372748613
 31
0.0
210
0.0
220
0.0
230
0.9999999999999998
 40
0.578093115915809
 41
0.2372585647783287
 42
2.904334088811284
  0
ELLIPSE
  5
3D6
330
6C
100
AcDbEntity
  8
Visible (ANSI)
100
AcDbEllipse
 10
144.2136819443133
 20
70.17811771144618
 30
0.0
 11
-0.1404775675610101
 21
0.2439432372748665
 31
0.0
210
0.0
220
0.0
230
1.0
 40
0.578093115915809
 41
0.0
 42
6.283185307179586
  0
ELLIPSE
  5
3D7
330
6C
100
AcDbEntity
  8
Visible (ANSI)
100
AcDbEllipse
 10
144.2799732050495
 20
70.2162923096142
 30
0.0
 11
-0.1404775675610089
 21
0.2439432372748646
 31
0.0
210
0.0
220
0.0
230
1.0
 40
0.578093115915809
 41
0.2372585647784398
 42
2.904334088811397
  0
ELLIPSE
  5
3D8
330
6C
100
AcDbEntity
  8
Visible (ANSI)
100
AcDbEllipse
 10
165.6036620752096
 20
81.67150738026865
 30
0.0
 11
-0.1404775675610101
 21
0.2439432372748665
 31
0.0
210
0.0
220
0.0
230
1.0
 40
0.578093115915809
 41
0.0
 42
6.283185307179586
  0
ELLIPSE
  5
3D9
330
6C
100
AcDbEntity
  8
Visible (ANSI)
100
AcDbEllipse
 10
165.6699533359458
 20
81.70968197843667
 30
0.0
 11
-0.140477567561013
 21
0.2439432372748714
 31
0.0
210
0.0
220
0.0
230
1.0
 40
0.5780931159158092
 41
0.2372585647782044
 42
2.904334088811246
  0
ELLIPSE
  5
3DA
330
6C
100
AcDbEntity
  8
Visible (ANSI)
100
AcDbEllipse
 10
144.2136819443133
 20
93.98917772248505
 30
0.0
 11
-0.1404775675610101
 21
0.2439432372748665
 31
0.0
210
0.0
220
0.0
230
1.0
 40
0.578093115915809
 41
0.0
 42
6.283185307179586
  0
ELLIPSE
  5
3DB
330
6C
100
AcDbEntity
  8
Visible (ANSI)
100
AcDbEllipse
 10
144.2799732050495
 20
94.02735232065309
 30
0.0
 11
-0.1404775675610106
 21
0.2439432372748673
 31
0.0
210
0.0
220
0.0
230
1.0
 40
0.578093115915809
 41
0.2372585647784087
 42
2.904334088811378
  0
ELLIPSE
  5
3DC
330
6C
100
AcDbEntity
  8
Visible (ANSI)
100
AcDbEllipse
 10
144.2136819443132
 20
46.36705770040729
 30
0.0
 11
-0.1404775675610101
 21
0.2439432372748665
 31
0.0
210
0.0
220
0.0
230
1.0
 40
0.578093115915809
 41
0.0
 42
6.283185307179586
  0
ELLIPSE
  5
3DD
330
6C
100
AcDbEntity
  8
Visible (ANSI)
100
AcDbEllipse
 10
144.2799732050494
 20
46.40523229857532
 30
0.0
 11
-0.1404775675610102
 21
0.2439432372748665
 31
0.0
210
0.0
220
0.0
230
1.0
 40
0.578093115915809
 41
0.2372585647784087
 42
2.904334088811396
  0
ELLIPSE
  5
3DE
330
6C
100
AcDbEntity
  8
Visible (ANSI)
100
AcDbEllipse
 10
165.6036620752094
 20
34.04938735819088
 30
0.0
 11
-0.1404775675610101
 21
0.2439432372748665
 31
0.0
210
0.0
220
0.0
230
1.0
 40
0.578093115915809
 41
0.0
 42
6.283185307179586
  0
ELLIPSE
  5
3DF
330
6C
100
AcDbEntity
  8
Visible (ANSI)
100
AcDbEllipse
 10
165.6699533359456
 20
34.08756195635891
 30
0.0
 11
-0.1404775675610107
 21
0.2439432372748675
 31
0.0
210
0.0
220
0.0
230
0.9999999999999998
 40
0.578093115915809
 41
0.2372585647783909
 42
2.904334088811481
  0
LINE
  5
3E0
330
6C
100
AcDbEntity
  8
Visible Narrow (ANSI)
100
AcDbLine
 10
166.3107688563961
 20
81.95062305659059
 30
0.0
 11
166.310768856396
 21
33.15947811118055
 31
0.0
  0
LINE
  5
3E1
330
6C
100
AcDbEntity
  8
Visible Narrow (ANSI)
100
AcDbLine
 10
166.1339921610994
 20
33.13083022921477
 30
0.0
 11
166.1339921610995
 21
81.97927093855634
 31
0.0
  0
LINE
  5
3E2
330
6C
100
AcDbEntity
  8
Visible Narrow (ANSI)
100
AcDbLine
 10
143.7965181191595
 20
95.04655905511285
 30
0.0
 11
166.1976025956599
 21
82.14663244456337
 31
0.0
  0
LINE
  5
3E3
330
6C
100
AcDbEntity
  8
Visible Narrow (ANSI)
100
AcDbLine
 10
166.1339921610995
 20
81.97927093855634
 30
0.0
 11
143.6833518584233
 21
94.90773485146117
 31
0.0
  0
LINE
  5
3E4
330
6C
100
AcDbEntity
  8
Visible Narrow (ANSI)
100
AcDbLine
 10
143.6833518584233
 20
94.90773485146117
 30
0.0
 11
143.6833518584232
 21
46.05929414211958
 31
0.0
  0
LINE
  5
3E5
330
6C
100
AcDbEntity
  8
Visible Narrow (ANSI)
100
AcDbLine
 10
143.6833518584232
 20
46.05929414211958
 30
0.0
 11
166.1339921610994
 21
33.13083022921477
 31
0.0
  0
LINE
  5
3E6
330
6C
100
AcDbEntity
  8
Visible (ANSI)
100
AcDbLine
 10
143.6467402060716
 20
94.94431037470233
 30
0.0
 11
143.6467402060715
 21
46.12451754732652
 31
0.0
  0
LINE
  5
3E7
330
6C
100
AcDbEntity
  8
Visible (ANSI)
100
AcDbLine
 10
143.7217806386956
 20
45.99471878599886
 30
0.0
 11
166.1475820232275
 21
33.08055865474726
 31
0.0
  0
POLYLINE
  5
3E8
330
6C
100
AcDbEntity
  8
Visible (ANSI)
100
AcDb2dPolyline
 66
     1
 10
0.0
 20
0.0
 30
0.0
 70
   128
  0
VERTEX
  5
3E9
330
3E8
100
AcDbEntity
  8
Visible (ANSI)
100
AcDbVertex
100
AcDb2dVertex
 10
166.1339925868823
 20
81.97927206968353
 30
0.0
  0
VERTEX
  5
3EA
330
3E8
100
AcDbEntity
  8
Visible (ANSI)
100
AcDbVertex
100
AcDb2dVertex
 10
166.1399631857712
 20
81.97485833620484
 30
0.0
  0
VERTEX
  5
3EC
330
3E8
100
AcDbEntity
  8
Visible (ANSI)
100
AcDbVertex
100
AcDb2dVertex
 10
166.1462859804856
 20
81.97067677305026
 30
0.0
  0
VERTEX
  5
3ED
330
3E8
100
AcDbEntity
  8
Visible (ANSI)
100
AcDbVertex
100
AcDb2dVertex
 10
166.1529351768221
 20
81.96673943437666
 30
0.0
  0
VERTEX
  5
3EE
330
3E8
100
AcDbEntity
  8
Visible (ANSI)
100
AcDbVertex
100
AcDb2dVertex
 10
166.1598812553936
 20
81.96305867533654
 30
0.0
  0
VERTEX
  5
3EF
330
3E8
100
AcDbEntity
  8
Visible (ANSI)
100
AcDbVertex
100
AcDb2dVertex
 10
166.1670952319451
 20
81.95964471305813
 30
0.0
  0
VERTEX
  5
3F0
330
3E8
100
AcDbEntity
  8
Visible (ANSI)
100
AcDbVertex
100
AcDb2dVertex
 10
166.1745444219274
 20
81.95650316866807
 30
0.0
  0
VERTEX
  5
3F1
330
3E8
100
AcDbEntity
  8
Visible (ANSI)
100
AcDbVertex
100
AcDb2dVertex
 10
166.1822009943163
 20
81.9536498536838
 30
0.0
  0
VERTEX
  5
3F2
330
3E8
100
AcDbEntity
  8
Visible (ANSI)
100
AcDbVertex
100
AcDb2dVertex
 10
166.190027108211
 20
81.95108986607296
 30
0.0
  0
VERTEX
  5
3F3
330
3E8
100
AcDbEntity
  8
Visible (ANSI)
100
AcDbVertex
100
AcDb2dVertex
 10
166.1979941029248
 20
81.94882627073511
 30
0.0
  0
VERTEX
  5
3F4
330
3E8
100
AcDbEntity
  8
Visible (ANSI)
100
AcDbVertex
100
AcDb2dVertex
 10
166.2060655272414
 20
81.94686498486145
 30
0.0
  0
VERTEX
  5
3F5
330
3E8
100
AcDbEntity
  8
Visible (ANSI)
100
AcDbVertex
100
AcDb2dVertex
 10
166.2142057264204
 20
81.94520993811662
 30
0.0
  0
VERTEX
  5
3F6
330
3E8
100
AcDbEntity
  8
Visible (ANSI)
100
AcDbVertex
100
AcDb2dVertex
 10
166.2223798629387
 20
81.94386308458321
 30
0.0
  0
VERTEX
  5
3F7
330
3E8
100
AcDbEntity
  8
Visible (ANSI)
100
AcDbVertex
100
AcDb2dVertex
 10
166.2305561441342
 20
81.94282323938963
 30
0.0
  0
VERTEX
  5
3F8
330
3E8
100
AcDbEntity
  8
Visible (ANSI)
100
AcDbVertex
100
AcDb2dVertex
 10
166.2386952523071
 20
81.94209222284255
 30
0.0
  0
VERTEX
  5
3F9
330
3E8
100
AcDbEntity
  8
Visible (ANSI)
100
AcDbVertex
100
AcDb2dVertex
 10
166.2467674212457
 20
81.9416651246528
 30
0.0
  0
VERTEX
  5
3FA
330
3E8
100
AcDbEntity
  8
Visible (ANSI)
100
AcDbVertex
100
AcDb2dVertex
 10
166.2547334016973
 20
81.94154135835665
 30
0.0
  0
VERTEX
  5
3FB
330
3E8
100
AcDbEntity
  8
Visible (ANSI)
100
AcDbVertex
100
AcDb2dVertex
 10
166.2625594181066
 20
81.94171615102405
 30
0.0
  0
VERTEX
  5
3FC
330
3E8
100
AcDbEntity
  8
Visible (ANSI)
100
AcDbVertex
100
AcDb2dVertex
 10
166.270215131795
 20
81.94218181651743
 30
0.0
  0
VERTEX
  5
3FD
330
3E8
100
AcDbEntity
  8
Visible (ANSI)
100
AcDbVertex
100
AcDb2dVertex
 10
166.277667363527
 20
81.94293147911801
 30
0.0
  0
VERTEX
  5
3FE
330
3E8
100
AcDbEntity
  8
Visible (ANSI)
100
AcDbVertex
100
AcDb2dVertex
 10
166.2848801880145
 20
81.94395912794675
 30
0.0
  0
VERTEX
  5
3FF
330
3E8
100
AcDbEntity
  8
Visible (ANSI)
100
AcDbVertex
100
AcDb2dVertex
 10
166.2918277805902
 20
81.94525233775321
 30
0.0
  0
VERTEX
  5
400
330
3E8
100
AcDbEntity
  8
Visible (ANSI)
100
AcDbVertex
100
AcDb2dVertex
 10
166.2984754005682
 20
81.94680333363905
 30
0.0
  0
VERTEX
  5
401
330
3E8
100
AcDbEntity
  8
Visible (ANSI)
100
AcDbVertex
100
AcDb2dVertex
 10
166.3047986121878
 20
81.94859804398554
 30
0.0
  0
VERTEX
  5
402
330
3E8
100
AcDbEntity
  8
Visible (ANSI)
100
AcDbVertex
100
AcDb2dVertex
 10
166.3107685162346
 20
81.9506247192147
 30
0.0
  0
SEQEND
  5
3EB
330
3E8
100
AcDbEntity
  8
Visible (ANSI)
  0
POLYLINE
  5
403
330
6C
100
AcDbEntity
  8
Visible (ANSI)
100
AcDb2dPolyline
 66
     1
 10
0.0
 20
0.0
 30
0.0
 70
   128
  0
VERTEX
  5
404
330
403
100
AcDbEntity
  8
Visible (ANSI)
100
AcDbVertex
100
AcDb2dVertex
 10
166.3107685162344
 20
33.15947830912617
 30
0.0
  0
VERTEX
  5
405
330
403
100
AcDbEntity
  8
Visible (ANSI)
100
AcDbVertex
100
AcDb2dVertex
 10
166.3047986121877
 20
33.15506451630599
 30
0.0
  0
VERTEX
  5
407
330
403
100
AcDbEntity
  8
Visible (ANSI)
100
AcDbVertex
100
AcDb2dVertex
 10
166.298475400568
 20
33.15088268836845
 30
0.0
  0
VERTEX
  5
408
330
403
100
AcDbEntity
  8
Visible (ANSI)
100
AcDbVertex
100
AcDb2dVertex
 10
166.29182778059
 20
33.14694458448404
 30
0.0
  0
VERTEX
  5
409
330
403
100
AcDbEntity
  8
Visible (ANSI)
100
AcDbVertex
100
AcDb2dVertex
 10
166.2848801880143
 20
33.14326425708655
 30
0.0
  0
VERTEX
  5
40A
330
403
100
AcDbEntity
  8
Visible (ANSI)
100
AcDbVertex
100
AcDb2dVertex
 10
166.2776673635268
 20
33.13984949066679
 30
0.0
  0
VERTEX
  5
40B
330
403
100
AcDbEntity
  8
Visible (ANSI)
100
AcDbVertex
100
AcDb2dVertex
 10
166.2702151317948
 20
33.13671271047519
 30
0.0
  0
VERTEX
  5
40C
330
403
100
AcDbEntity
  8
Visible (ANSI)
100
AcDbVertex
100
AcDb2dVertex
 10
166.2625594181065
 20
33.13385993698322
 30
0.0
  0
VERTEX
  5
40D
330
403
100
AcDbEntity
  8
Visible (ANSI)
100
AcDbVertex
100
AcDb2dVertex
 10
166.2547334016971
 20
33.13129802672481
 30
0.0
  0
VERTEX
  5
40E
330
403
100
AcDbEntity
  8
Visible (ANSI)
100
AcDbVertex
100
AcDb2dVertex
 10
166.2467674212456
 20
33.12903467542991
 30
0.0
  0
VERTEX
  5
40F
330
403
100
AcDbEntity
  8
Visible (ANSI)
100
AcDbVertex
100
AcDb2dVertex
 10
166.238695252307
 20
33.12707465602866
 30
0.0
  0
VERTEX
  5
410
330
403
100
AcDbEntity
  8
Visible (ANSI)
100
AcDbVertex
100
AcDb2dVertex
 10
166.2305561441341
 20
33.12541856457713
 30
0.0
  0
VERTEX
  5
411
330
403
100
AcDbEntity
  8
Visible (ANSI)
100
AcDbVertex
100
AcDb2dVertex
 10
166.2223798629385
 20
33.12407129217969
 30
0.0
  0
VERTEX
  5
412
330
403
100
AcDbEntity
  8
Visible (ANSI)
100
AcDbVertex
100
AcDb2dVertex
 10
166.2142057264203
 20
33.12303102812208
 30
0.0
  0
VERTEX
  5
413
330
403
100
AcDbEntity
  8
Visible (ANSI)
100
AcDbVertex
100
AcDb2dVertex
 10
166.2060655272413
 20
33.12229895727587
 30
0.0
  0
VERTEX
  5
414
330
403
100
AcDbEntity
  8
Visible (ANSI)
100
AcDbVertex
100
AcDb2dVertex
 10
166.1979941029247
 20
33.12187313515096
 30
0.0
  0
VERTEX
  5
415
330
403
100
AcDbEntity
  8
Visible (ANSI)
100
AcDbVertex
100
AcDb2dVertex
 10
166.1900271082109
 20
33.12174961289778
 30
0.0
  0
VERTEX
  5
416
330
403
100
AcDbEntity
  8
Visible (ANSI)
100
AcDbVertex
100
AcDb2dVertex
 10
166.1822009943162
 20
33.1219224829176
 30
0.0
  0
VERTEX
  5
417
330
403
100
AcDbEntity
  8
Visible (ANSI)
100
AcDbVertex
100
AcDb2dVertex
 10
166.1745444219273
 20
33.12238868990326
 30
0.0
  0
VERTEX
  5
418
330
403
100
AcDbEntity
  8
Visible (ANSI)
100
AcDbVertex
100
AcDb2dVertex
 10
166.1670952319449
 20
33.12313820537196
 30
0.0
  0
VERTEX
  5
419
330
403
100
AcDbEntity
  8
Visible (ANSI)
100
AcDbVertex
100
AcDb2dVertex
 10
166.1598812553935
 20
33.12416505005933
 30
0.0
  0
VERTEX
  5
41A
330
403
100
AcDbEntity
  8
Visible (ANSI)
100
AcDbVertex
100
AcDb2dVertex
 10
166.152935176822
 20
33.12545869150842
 30
0.0
  0
VERTEX
  5
41B
330
403
100
AcDbEntity
  8
Visible (ANSI)
100
AcDbVertex
100
AcDb2dVertex
 10
166.1462859804854
 20
33.12700892218344
 30
0.0
  0
VERTEX
  5
41C
330
403
100
AcDbEntity
  8
Visible (ANSI)
100
AcDbVertex
100
AcDb2dVertex
 10
166.1399631857712
 20
33.128803367747
 30
0.0
  0
VERTEX
  5
41D
330
403
100
AcDbEntity
  8
Visible (ANSI)
100
AcDbVertex
100
AcDb2dVertex
 10
166.1339925868821
 20
33.13082998363466
 30
0.0
  0
SEQEND
  5
406
330
403
100
AcDbEntity
  8
Visible (ANSI)
  0
LINE
  5
41E
330
6C
100
AcDbEntity
  8
Visible (ANSI)
100
AcDbLine
 10
166.2444775956599
 20
81.98879765475862
 30
0.0
 11
166.7748076815497
 21
82.29419444010291
 31
0.0
  0
LINE
  5
41F
330
6C
100
AcDbEntity
  8
Visible (ANSI)
100
AcDbLine
 10
166.8410989422859
 20
33.46487489652484
 30
0.0
 11
166.310768856396
 21
33.15947811118055
 31
0.0
  0
LINE
  5
420
330
6C
100
AcDbEntity
  8
Visible (ANSI)
100
AcDbLine
 10
166.2444775956599
 20
81.98879765475862
 30
0.0
 11
166.3107688563961
 21
81.95062305659059
 31
0.0
  0
POLYLINE
  5
421
330
6C
100
AcDbEntity
  8
Visible (ANSI)
100
AcDb2dPolyline
 66
     1
 10
0.0
 20
0.0
 30
0.0
 70
   128
  0
VERTEX
  5
422
330
421
100
AcDbEntity
  8
Visible (ANSI)
100
AcDbVertex
100
AcDb2dVertex
 10
166.2002838466229
 20
82.01744666727824
 30
0.0
  0
VERTEX
  5
423
330
421
100
AcDbEntity
  8
Visible (ANSI)
100
AcDbVertex
100
AcDb2dVertex
 10
166.2017754344381
 20
82.01544875553118
 30
0.0
  0
VERTEX
  5
425
330
421
100
AcDbEntity
  8
Visible (ANSI)
100
AcDbVertex
100
AcDb2dVertex
 10
166.2033571949103
 20
82.01350766313664
 30
0.0
  0
VERTEX
  5
426
330
421
100
AcDbEntity
  8
Visible (ANSI)
100
AcDbVertex
100
AcDb2dVertex
 10
166.2050179014477
 20
82.01162915606243
 30
0.0
  0
VERTEX
  5
427
330
421
100
AcDbEntity
  8
Visible (ANSI)
100
AcDbVertex
100
AcDb2dVertex
 10
166.2067565453828
 20
82.0098126534555
 30
0.0
  0
VERTEX
  5
428
330
421
100
AcDbEntity
  8
Visible (ANSI)
100
AcDbVertex
100
AcDb2dVertex
 10
166.2085589770343
 20
82.00806468417491
 30
0.0
  0
VERTEX
  5
429
330
421
100
AcDbEntity
  8
Visible (ANSI)
100
AcDbVertex
100
AcDb2dVertex
 10
166.2104212751781
 20
82.00638052499391
 30
0.0
  0
VERTEX
  5
42A
330
421
100
AcDbEntity
  8
Visible (ANSI)
100
AcDbVertex
100
AcDb2dVertex
 10
166.2123348867728
 20
82.00477241176354
 30
0.0
  0
VERTEX
  5
42B
330
421
100
AcDbEntity
  8
Visible (ANSI)
100
AcDbVertex
100
AcDb2dVertex
 10
166.2142930081983
 20
82.00323640758192
 30
0.0
  0
VERTEX
  5
42C
330
421
100
AcDbEntity
  8
Visible (ANSI)
100
AcDbVertex
100
AcDb2dVertex
 10
166.2162842253742
 20
82.00177572426317
 30
0.0
  0
VERTEX
  5
42D
330
421
100
AcDbEntity
  8
Visible (ANSI)
100
AcDbVertex
100
AcDb2dVertex
 10
166.2183010202634
 20
82.00039092483027
 30
0.0
  0
VERTEX
  5
42E
330
421
100
AcDbEntity
  8
Visible (ANSI)
100
AcDbVertex
100
AcDb2dVertex
 10
166.2203376624914
 20
81.99908115556658
 30
0.0
  0
VERTEX
  5
42F
330
421
100
AcDbEntity
  8
Visible (ANSI)
100
AcDbVertex
100
AcDb2dVertex
 10
166.2223796041877
 20
81.99785026984276
 30
0.0
  0
VERTEX
  5
430
330
421
100
AcDbEntity
  8
Visible (ANSI)
100
AcDbVertex
100
AcDb2dVertex
 10
166.2244247364544
 20
81.99669460703875
 30
0.0
  0
VERTEX
  5
431
330
421
100
AcDbEntity
  8
Visible (ANSI)
100
AcDbVertex
100
AcDb2dVertex
 10
166.2264600444816
 20
81.99561645716972
 30
0.0
  0
VERTEX
  5
432
330
421
100
AcDbEntity
  8
Visible (ANSI)
100
AcDbVertex
100
AcDb2dVertex
 10
166.2284764937645
 20
81.99461550998318
 30
0.0
  0
VERTEX
  5
433
330
421
100
AcDbEntity
  8
Visible (ANSI)
100
AcDbVertex
100
AcDb2dVertex
 10
166.2304690503266
 20
81.99368886660495
 30
0.0
  0
VERTEX
  5
434
330
421
100
AcDbEntity
  8
Visible (ANSI)
100
AcDbVertex
100
AcDb2dVertex
 10
166.2324260859314
 20
81.99283716933811
 30
0.0
  0
VERTEX
  5
435
330
421
100
AcDbEntity
  8
Visible (ANSI)
100
AcDbVertex
100
AcDb2dVertex
 10
166.2343400143535
 20
81.99205849575248
 30
0.0
  0
VERTEX
  5
436
330
421
100
AcDbEntity
  8
Visible (ANSI)
100
AcDbVertex
100
AcDb2dVertex
 10
166.2362030720273
 20
81.99135082129433
 30
0.0
  0
VERTEX
  5
437
330
421
100
AcDbEntity
  8
Visible (ANSI)
100
AcDbVertex
100
AcDb2dVertex
 10
166.2380052158896
 20
81.99071325492118
 30
0.0
  0
VERTEX
  5
438
330
421
100
AcDbEntity
  8
Visible (ANSI)
100
AcDbVertex
100
AcDb2dVertex
 10
166.2397426450499
 20
81.99014116165916
 30
0.0
  0
VERTEX
  5
439
330
421
100
AcDbEntity
  8
Visible (ANSI)
100
AcDbVertex
100
AcDb2dVertex
 10
166.2414050810283
 20
81.98963351489833
 30
0.0
  0
VERTEX
  5
43A
330
421
100
AcDbEntity
  8
Visible (ANSI)
100
AcDbVertex
100
AcDb2dVertex
 10
166.2429842915
 20
81.98918802014446
 30
0.0
  0
VERTEX
  5
43B
330
421
100
AcDbEntity
  8
Visible (ANSI)
100
AcDbVertex
100
AcDb2dVertex
 10
166.2444783599449
 20
81.98879868137428
 30
0.0
  0
SEQEND
  5
424
330
421
100
AcDbEntity
  8
Visible (ANSI)
  0
LINE
  5
43C
330
6C
100
AcDbEntity
  8
Visible (ANSI)
100
AcDbLine
 10
166.2002834218358
 20
82.01744553672439
 30
0.0
 11
166.1339921610995
 21
81.97927093855634
 31
0.0
  0
LINE
  5
43D
330
6C
100
AcDbEntity
  8
Visible (ANSI)
100
AcDbLine
 10
166.3107688563961
 20
81.95062305659059
 30
0.0
 11
166.841098942286
 21
82.25601984193488
 31
0.0
  0
LINE
  5
43E
330
6C
100
AcDbEntity
  8
Visible (ANSI)
100
AcDbLine
 10
166.7748076815497
 20
82.29419444010291
 30
0.0
 11
166.841098942286
 21
82.25601984193488
 31
0.0
  0
POLYLINE
  5
43F
330
6C
100
AcDbEntity
  8
Visible (ANSI)
100
AcDb2dPolyline
 66
     1
 10
0.0
 20
0.0
 30
0.0
 70
   128
  0
VERTEX
  5
440
330
43F
100
AcDbEntity
  8
Visible (ANSI)
100
AcDbVertex
100
AcDb2dVertex
 10
143.6833518580915
 20
94.9077362279714
 30
0.0
  0
VERTEX
  5
441
330
43F
100
AcDbEntity
  8
Visible (ANSI)
100
AcDbVertex
100
AcDb2dVertex
 10
143.6845735193414
 20
94.91393499970461
 30
0.0
  0
VERTEX
  5
443
330
43F
100
AcDbEntity
  8
Visible (ANSI)
100
AcDbVertex
100
AcDb2dVertex
 10
143.6861728636447
 20
94.92032179666122
 30
0.0
  0
VERTEX
  5
444
330
43F
100
AcDbEntity
  8
Visible (ANSI)
100
AcDbVertex
100
AcDb2dVertex
 10
143.6881474517941
 20
94.92686575576827
 30
0.0
  0
VERTEX
  5
445
330
43F
100
AcDbEntity
  8
Visible (ANSI)
100
AcDbVertex
100
AcDb2dVertex
 10
143.6904932682236
 20
94.93353998885263
 30
0.0
  0
VERTEX
  5
446
330
43F
100
AcDbEntity
  8
Visible (ANSI)
100
AcDbVertex
100
AcDb2dVertex
 10
143.6932046836741
 20
94.94031179581263
 30
0.0
  0
VERTEX
  5
447
330
43F
100
AcDbEntity
  8
Visible (ANSI)
100
AcDbVertex
100
AcDb2dVertex
 10
143.6962745008244
 20
94.94714756400462
 30
0.0
  0
VERTEX
  5
448
330
43F
100
AcDbEntity
  8
Visible (ANSI)
100
AcDbVertex
100
AcDb2dVertex
 10
143.6996939957748
 20
94.95402263390269
 30
0.0
  0
VERTEX
  5
449
330
43F
100
AcDbEntity
  8
Visible (ANSI)
100
AcDbVertex
100
AcDb2dVertex
 10
143.7034529553814
 20
94.96089672572514
 30
0.0
  0
VERTEX
  5
44A
330
43F
100
AcDbEntity
  8
Visible (ANSI)
100
AcDbVertex
100
AcDb2dVertex
 10
143.7075397021464
 20
94.9677385677517
 30
0.0
  0
VERTEX
  5
44B
330
43F
100
AcDbEntity
  8
Visible (ANSI)
100
AcDbVertex
100
AcDb2dVertex
 10
143.7119411398492
 20
94.97452098260458
 30
0.0
  0
VERTEX
  5
44C
330
43F
100
AcDbEntity
  8
Visible (ANSI)
100
AcDbVertex
100
AcDb2dVertex
 10
143.7166428696993
 20
94.98120619147869
 30
0.0
  0
VERTEX
  5
44D
330
43F
100
AcDbEntity
  8
Visible (ANSI)
100
AcDbVertex
100
AcDb2dVertex
 10
143.7216291612981
 20
94.98777041140433
 30
0.0
  0
VERTEX
  5
44E
330
43F
100
AcDbEntity
  8
Visible (ANSI)
100
AcDbVertex
100
AcDb2dVertex
 10
143.7268830895334
 20
94.99417933920566
 30
0.0
  0
VERTEX
  5
44F
330
43F
100
AcDbEntity
  8
Visible (ANSI)
100
AcDbVertex
100
AcDb2dVertex
 10
143.7323865677652
 20
95.00040292371348
 30
0.0
  0
VERTEX
  5
450
330
43F
100
AcDbEntity
  8
Visible (ANSI)
100
AcDbVertex
100
AcDb2dVertex
 10
143.7381204660535
 20
95.00641048429566
 30
0.0
  0
VERTEX
  5
451
330
43F
100
AcDbEntity
  8
Visible (ANSI)
100
AcDbVertex
100
AcDb2dVertex
 10
143.7440646422701
 20
95.01217569743628
 30
0.0
  0
VERTEX
  5
452
330
43F
100
AcDbEntity
  8
Visible (ANSI)
100
AcDbVertex
100
AcDb2dVertex
 10
143.7501980644738
 20
95.01767171765489
 30
0.0
  0
VERTEX
  5
453
330
43F
100
AcDbEntity
  8
Visible (ANSI)
100
AcDbVertex
100
AcDb2dVertex
 10
143.7564988814319
 20
95.02287123722767
 30
0.0
  0
VERTEX
  5
454
330
43F
100
AcDbEntity
  8
Visible (ANSI)
100
AcDbVertex
100
AcDb2dVertex
 10
143.7629445501807
 20
95.02774652142337
 30
0.0
  0
VERTEX
  5
455
330
43F
100
AcDbEntity
  8
Visible (ANSI)
100
AcDbVertex
100
AcDb2dVertex
 10
143.7695118807493
 20
95.03227931425096
 30
0.0
  0
VERTEX
  5
456
330
43F
100
AcDbEntity
  8
Visible (ANSI)
100
AcDbVertex
100
AcDb2dVertex
 10
143.7761771724062
 20
95.03645105603643
 30
0.0
  0
VERTEX
  5
457
330
43F
100
AcDbEntity
  8
Visible (ANSI)
100
AcDbVertex
100
AcDb2dVertex
 10
143.7829162958472
 20
95.04022821587165
 30
0.0
  0
VERTEX
  5
458
330
43F
100
AcDbEntity
  8
Visible (ANSI)
100
AcDbVertex
100
AcDb2dVertex
 10
143.789704831905
 20
95.04360653524328
 30
0.0
  0
VERTEX
  5
459
330
43F
100
AcDbEntity
  8
Visible (ANSI)
100
AcDbVertex
100
AcDb2dVertex
 10
143.7965181209396
 20
95.04655708917342
 30
0.0
  0
SEQEND
  5
442
330
43F
100
AcDbEntity
  8
Visible (ANSI)
  0
POLYLINE
  5
45A
330
6C
100
AcDbEntity
  8
Visible (ANSI)
100
AcDb2dPolyline
 66
     1
 10
0.0
 20
0.0
 30
0.0
 70
   128
  0
VERTEX
  5
45B
330
45A
100
AcDbEntity
  8
Visible (ANSI)
100
AcDbVertex
100
AcDb2dVertex
 10
166.197603099642
 20
82.14663018942502
 30
0.0
  0
VERTEX
  5
45C
330
45A
100
AcDbEntity
  8
Visible (ANSI)
100
AcDbVertex
100
AcDb2dVertex
 10
166.1928544586072
 20
82.14249068378576
 30
0.0
  0
VERTEX
  5
45E
330
45A
100
AcDbEntity
  8
Visible (ANSI)
100
AcDbVertex
100
AcDb2dVertex
 10
166.1881305705493
 20
82.13792341270503
 30
0.0
  0
VERTEX
  5
45F
330
45A
100
AcDbEntity
  8
Visible (ANSI)
100
AcDbVertex
100
AcDb2dVertex
 10
166.1834560868115
 20
82.13295730593834
 30
0.0
  0
VERTEX
  5
460
330
45A
100
AcDbEntity
  8
Visible (ANSI)
100
AcDbVertex
100
AcDb2dVertex
 10
166.1788554431545
 20
82.12759661244373
 30
0.0
  0
VERTEX
  5
461
330
45A
100
AcDbEntity
  8
Visible (ANSI)
100
AcDbVertex
100
AcDb2dVertex
 10
166.1743527605857
 20
82.12187486790702
 30
0.0
  0
VERTEX
  5
462
330
45A
100
AcDbEntity
  8
Visible (ANSI)
100
AcDbVertex
100
AcDb2dVertex
 10
166.1699717398368
 20
82.11581063200219
 30
0.0
  0
VERTEX
  5
463
330
45A
100
AcDbEntity
  8
Visible (ANSI)
100
AcDbVertex
100
AcDb2dVertex
 10
166.165735562582
 20
82.10942216549794
 30
0.0
  0
VERTEX
  5
464
330
45A
100
AcDbEntity
  8
Visible (ANSI)
100
AcDbVertex
100
AcDb2dVertex
 10
166.1616667883782
 20
82.10273719357022
 30
0.0
  0
VERTEX
  5
465
330
45A
100
AcDbEntity
  8
Visible (ANSI)
100
AcDbVertex
100
AcDb2dVertex
 10
166.1577893840971
 20
82.09578180562726
 30
0.0
  0
VERTEX
  5
466
330
45A
100
AcDbEntity
  8
Visible (ANSI)
100
AcDbVertex
100
AcDb2dVertex
 10
166.1541201338086
 20
82.08858529333593
 30
0.0
  0
VERTEX
  5
467
330
45A
100
AcDbEntity
  8
Visible (ANSI)
100
AcDbVertex
100
AcDb2dVertex
 10
166.1506812952801
 20
82.08117276189666
 30
0.0
  0
VERTEX
  5
468
330
45A
100
AcDbEntity
  8
Visible (ANSI)
100
AcDbVertex
100
AcDb2dVertex
 10
166.1474920150447
 20
82.07357488238621
 30
0.0
  0
VERTEX
  5
469
330
45A
100
AcDbEntity
  8
Visible (ANSI)
100
AcDbVertex
100
AcDb2dVertex
 10
166.1445703714457
 20
82.06582171075142
 30
0.0
  0
VERTEX
  5
46A
330
45A
100
AcDbEntity
  8
Visible (ANSI)
100
AcDbVertex
100
AcDb2dVertex
 10
166.1419332895955
 20
82.05794755016816
 30
0.0
  0
VERTEX
  5
46B
330
45A
100
AcDbEntity
  8
Visible (ANSI)
100
AcDbVertex
100
AcDb2dVertex
 10
166.139596491596
 20
82.04997618838389
 30
0.0
  0
VERTEX
  5
46C
330
45A
100
AcDbEntity
  8
Visible (ANSI)
100
AcDbVertex
100
AcDb2dVertex
 10
166.1375743928308
 20
82.04194539464815
 30
0.0
  0
VERTEX
  5
46D
330
45A
100
AcDbEntity
  8
Visible (ANSI)
100
AcDbVertex
100
AcDb2dVertex
 10
166.1358800812241
 20
82.03388235111658
 30
0.0
  0
VERTEX
  5
46E
330
45A
100
AcDbEntity
  8
Visible (ANSI)
100
AcDbVertex
100
AcDb2dVertex
 10
166.134525225977
 20
82.02581833428705
 30
0.0
  0
VERTEX
  5
46F
330
45A
100
AcDbEntity
  8
Visible (ANSI)
100
AcDbVertex
100
AcDb2dVertex
 10
166.1335200568265
 20
82.01779361438594
 30
0.0
  0
VERTEX
  5
470
330
45A
100
AcDbEntity
  8
Visible (ANSI)
100
AcDbVertex
100
AcDb2dVertex
 10
166.1328732893758
 20
82.00983285571679
 30
0.0
  0
VERTEX
  5
471
330
45A
100
AcDbEntity
  8
Visible (ANSI)
100
AcDbVertex
100
AcDb2dVertex
 10
166.1325942448819
 20
82.00196844783011
 30
0.0
  0
VERTEX
  5
472
330
45A
100
AcDbEntity
  8
Visible (ANSI)
100
AcDbVertex
100
AcDb2dVertex
 10
166.1326842964357
 20
81.99423554179158
 30
0.0
  0
VERTEX
  5
473
330
45A
100
AcDbEntity
  8
Visible (ANSI)
100
AcDbVertex
100
AcDb2dVertex
 10
166.1331496001323
 20
81.98665979312586
 30
0.0
  0
VERTEX
  5
474
330
45A
100
AcDbEntity
  8
Visible (ANSI)
100
AcDbVertex
100
AcDb2dVertex
 10
166.1339925868823
 20
81.97927206968353
 30
0.0
  0
SEQEND
  5
45D
330
45A
100
AcDbEntity
  8
Visible (ANSI)
  0
LINE
  5
475
330
6C
100
AcDbEntity
  8
Visible (ANSI)
100
AcDbLine
 10
166.1976025956599
 20
82.06998740160939
 30
0.0
 11
166.7279326815498
 21
82.37538418695367
 31
0.0
  0
LINE
  5
476
330
6C
100
AcDbEntity
  8
Visible (ANSI)
100
AcDbLine
 10
166.7279326815498
 20
82.45202922990763
 30
0.0
 11
166.1976025956599
 21
82.14663244456337
 31
0.0
  0
LINE
  5
477
330
6C
100
AcDbEntity
  8
Visible (ANSI)
100
AcDbLine
 10
166.1976025956599
 20
82.06998740160939
 30
0.0
 11
166.1976025956599
 21
82.14663244456337
 31
0.0
  0
LINE
  5
478
330
6C
100
AcDbEntity
  8
Visible (ANSI)
100
AcDbLine
 10
166.7279326815498
 20
82.37538418695367
 30
0.0
 11
166.7279326815498
 21
82.45202922990763
 31
0.0
  0
POLYLINE
  5
479
330
6C
100
AcDbEntity
  8
Visible (ANSI)
100
AcDb2dPolyline
 66
     1
 10
0.0
 20
0.0
 30
0.0
 70
   128
  0
VERTEX
  5
47A
330
479
100
AcDbEntity
  8
Visible (ANSI)
100
AcDbVertex
100
AcDb2dVertex
 10
166.2002838466229
 20
82.01744666727824
 30
0.0
  0
VERTEX
  5
47B
330
479
100
AcDbEntity
  8
Visible (ANSI)
100
AcDbVertex
100
AcDb2dVertex
 10
166.1992989254434
 20
82.01973818781606
 30
0.0
  0
VERTEX
  5
47D
330
479
100
AcDbEntity
  8
Visible (ANSI)
100
AcDbVertex
100
AcDb2dVertex
 10
166.1984084247922
 20
82.02207917018963
 30
0.0
  0
VERTEX
  5
47E
330
479
100
AcDbEntity
  8
Visible (ANSI)
100
AcDbVertex
100
AcDb2dVertex
 10
166.1976117377561
 20
82.02445944223995
 30
0.0
  0
VERTEX
  5
47F
330
479
100
AcDbEntity
  8
Visible (ANSI)
100
AcDbVertex
100
AcDb2dVertex
 10
166.1969057317315
 20
82.02686982354647
 30
0.0
  0
VERTEX
  5
480
330
479
100
AcDbEntity
  8
Visible (ANSI)
100
AcDbVertex
100
AcDb2dVertex
 10
166.1962932485228
 20
82.02930705822259
 30
0.0
  0
VERTEX
  5
481
330
479
100
AcDbEntity
  8
Visible (ANSI)
100
AcDbVertex
100
AcDb2dVertex
 10
166.1957703669058
 20
82.03175660038079
 30
0.0
  0
VERTEX
  5
482
330
479
100
AcDbEntity
  8
Visible (ANSI)
100
AcDbVertex
100
AcDb2dVertex
 10
166.1953349056462
 20
82.03421719393181
 30
0.0
  0
VERTEX
  5
483
330
479
100
AcDbEntity
  8
Visible (ANSI)
100
AcDbVertex
100
AcDb2dVertex
 10
166.1949843089951
 20
82.03668245578731
 30
0.0
  0
VERTEX
  5
484
330
479
100
AcDbEntity
  8
Visible (ANSI)
100
AcDbVertex
100
AcDb2dVertex
 10
166.194715658615
 20
82.03913597139747
 30
0.0
  0
VERTEX
  5
485
330
479
100
AcDbEntity
  8
Visible (ANSI)
100
AcDbVertex
100
AcDb2dVertex
 10
166.1945256843399
 20
82.0415709462685
 30
0.0
  0
VERTEX
  5
486
330
479
100
AcDbEntity
  8
Visible (ANSI)
100
AcDbVertex
100
AcDb2dVertex
 10
166.1944107797311
 20
82.04399021492093
 30
0.0
  0
VERTEX
  5
487
330
479
100
AcDbEntity
  8
Visible (ANSI)
100
AcDbVertex
100
AcDb2dVertex
 10
166.1943670165966
 20
82.04637186993791
 30
0.0
  0
VERTEX
  5
488
330
479
100
AcDbEntity
  8
Visible (ANSI)
100
AcDbVertex
100
AcDb2dVertex
 10
166.1943901621027
 20
82.04871838512293
 30
0.0
  0
VERTEX
  5
489
330
479
100
AcDbEntity
  8
Visible (ANSI)
100
AcDbVertex
100
AcDb2dVertex
 10
166.194475697182
 20
82.05101733545758
 30
0.0
  0
VERTEX
  5
48A
330
479
100
AcDbEntity
  8
Visible (ANSI)
100
AcDbVertex
100
AcDb2dVertex
 10
166.1946188352013
 20
82.05326105317267
 30
0.0
  0
VERTEX
  5
48B
330
479
100
AcDbEntity
  8
Visible (ANSI)
100
AcDbVertex
100
AcDb2dVertex
 10
166.1948124182485
 20
82.05544786248713
 30
0.0
  0
VERTEX
  5
48C
330
479
100
AcDbEntity
  8
Visible (ANSI)
100
AcDbVertex
100
AcDb2dVertex
 10
166.1950554377652
 20
82.05756246757733
 30
0.0
  0
VERTEX
  5
48D
330
479
100
AcDbEntity
  8
Visible (ANSI)
100
AcDbVertex
100
AcDb2dVertex
 10
166.1953403075261
 20
82.0596078573434
 30
0.0
  0
VERTEX
  5
48E
330
479
100
AcDbEntity
  8
Visible (ANSI)
100
AcDbVertex
100
AcDb2dVertex
 10
166.1956613879012
 20
82.06157096147775
 30
0.0
  0
VERTEX
  5
48F
330
479
100
AcDbEntity
  8
Visible (ANSI)
100
AcDbVertex
100
AcDb2dVertex
 10
166.1960128836989
 20
82.06344353142101
 30
0.0
  0
VERTEX
  5
490
330
479
100
AcDbEntity
  8
Visible (ANSI)
100
AcDbVertex
100
AcDb2dVertex
 10
166.1963888700928
 20
82.06523197795334
 30
0.0
  0
VERTEX
  5
491
330
479
100
AcDbEntity
  8
Visible (ANSI)
100
AcDbVertex
100
AcDb2dVertex
 10
166.1967833164744
 20
82.06691809428726
 30
0.0
  0
VERTEX
  5
492
330
479
100
AcDbEntity
  8
Visible (ANSI)
100
AcDbVertex
100
AcDb2dVertex
 10
166.1971901144546
 20
82.06850818549609
 30
0.0
  0
VERTEX
  5
493
330
479
100
AcDbEntity
  8
Visible (ANSI)
100
AcDbVertex
100
AcDb2dVertex
 10
166.197603099642
 20
82.06998887908211
 30
0.0
  0
SEQEND
  5
47C
330
479
100
AcDbEntity
  8
Visible (ANSI)
  0
LINE
  5
494
330
6C
100
AcDbEntity
  8
Visible (ANSI)
100
AcDbLine
 10
143.7965181191595
 20
95.04655905511285
 30
0.0
 11
144.3268482050494
 21
95.35195584045712
 31
0.0
  0
POLYLINE
  5
495
330
6C
100
AcDbEntity
  8
Visible (ANSI)
100
AcDb2dPolyline
 66
     1
 10
0.0
 20
0.0
 30
0.0
 70
   128
  0
VERTEX
  5
496
330
495
100
AcDbEntity
  8
Visible (ANSI)
100
AcDbVertex
100
AcDb2dVertex
 10
143.6833518580914
 20
46.05929414192255
 30
0.0
  0
VERTEX
  5
497
330
495
100
AcDbEntity
  8
Visible (ANSI)
100
AcDbVertex
100
AcDb2dVertex
 10
143.6805071947156
 20
46.06158361086019
 30
0.0
  0
VERTEX
  5
499
330
495
100
AcDbEntity
  8
Visible (ANSI)
100
AcDbVertex
100
AcDb2dVertex
 10
143.6777602323808
 20
46.06392576835999
 30
0.0
  0
VERTEX
  5
49A
330
495
100
AcDbEntity
  8
Visible (ANSI)
100
AcDbVertex
100
AcDb2dVertex
 10
143.6751138956468
 20
46.06631875350474
 30
0.0
  0
VERTEX
  5
49B
330
495
100
AcDbEntity
  8
Visible (ANSI)
100
AcDbVertex
100
AcDb2dVertex
 10
143.6725710385521
 20
46.06876063610047
 30
0.0
  0
VERTEX
  5
49C
330
495
100
AcDbEntity
  8
Visible (ANSI)
100
AcDbVertex
100
AcDb2dVertex
 10
143.6701343699446
 20
46.07124943097256
 30
0.0
  0
VERTEX
  5
49D
330
495
100
AcDbEntity
  8
Visible (ANSI)
100
AcDbVertex
100
AcDb2dVertex
 10
143.6678065032605
 20
46.07378313633546
 30
0.0
  0
VERTEX
  5
49E
330
495
100
AcDbEntity
  8
Visible (ANSI)
100
AcDbVertex
100
AcDb2dVertex
 10
143.6655899357836
 20
46.07635966429381
 30
0.0
  0
VERTEX
  5
49F
330
495
100
AcDbEntity
  8
Visible (ANSI)
100
AcDbVertex
100
AcDb2dVertex
 10
143.6634870279035
 20
46.07897689593417
 30
0.0
  0
VERTEX
  5
4A0
330
495
100
AcDbEntity
  8
Visible (ANSI)
100
AcDbVertex
100
AcDb2dVertex
 10
143.6615000487465
 20
46.08163266934377
 30
0.0
  0
VERTEX
  5
4A1
330
495
100
AcDbEntity
  8
Visible (ANSI)
100
AcDbVertex
100
AcDb2dVertex
 10
143.659631113952
 20
46.08432477722156
 30
0.0
  0
VERTEX
  5
4A2
330
495
100
AcDbEntity
  8
Visible (ANSI)
100
AcDbVertex
100
AcDb2dVertex
 10
143.6578822271544
 20
46.08705097643371
 30
0.0
  0
VERTEX
  5
4A3
330
495
100
AcDbEntity
  8
Visible (ANSI)
100
AcDbVertex
100
AcDb2dVertex
 10
143.6562552633907
 20
46.08980898801356
 30
0.0
  0
VERTEX
  5
4A4
330
495
100
AcDbEntity
  8
Visible (ANSI)
100
AcDbVertex
100
AcDb2dVertex
 10
143.6547519649519
 20
46.09259648995809
 30
0.0
  0
VERTEX
  5
4A5
330
495
100
AcDbEntity
  8
Visible (ANSI)
100
AcDbVertex
100
AcDb2dVertex
 10
143.653373941383
 20
46.09541115081993
 30
0.0
  0
VERTEX
  5
4A6
330
495
100
AcDbEntity
  8
Visible (ANSI)
100
AcDbVertex
100
AcDb2dVertex
 10
143.6521226653347
 20
46.09825058887466
 30
0.0
  0
VERTEX
  5
4A7
330
495
100
AcDbEntity
  8
Visible (ANSI)
100
AcDbVertex
100
AcDb2dVertex
 10
143.6509994767118
 20
46.10111240332411
 30
0.0
  0
VERTEX
  5
4A8
330
495
100
AcDbEntity
  8
Visible (ANSI)
100
AcDbVertex
100
AcDb2dVertex
 10
143.6500055868212
 20
46.10399416709269
 30
0.0
  0
VERTEX
  5
4A9
330
495
100
AcDbEntity
  8
Visible (ANSI)
100
AcDbVertex
100
AcDb2dVertex
 10
143.6491420493343
 20
46.10689343399396
 30
0.0
  0
VERTEX
  5
4AA
330
495
100
AcDbEntity
  8
Visible (ANSI)
100
AcDbVertex
100
AcDb2dVertex
 10
143.6484097893245
 20
46.10980773634184
 30
0.0
  0
VERTEX
  5
4AB
330
495
100
AcDbEntity
  8
Visible (ANSI)
100
AcDbVertex
100
AcDb2dVertex
 10
143.6478095970453
 20
46.11273458849679
 30
0.0
  0
VERTEX
  5
4AC
330
495
100
AcDbEntity
  8
Visible (ANSI)
100
AcDbVertex
100
AcDb2dVertex
 10
143.6473421175592
 20
46.11567151209691
 30
0.0
  0
VERTEX
  5
4AD
330
495
100
AcDbEntity
  8
Visible (ANSI)
100
AcDbVertex
100
AcDb2dVertex
 10
143.647007840367
 20
46.11861598925314
 30
0.0
  0
VERTEX
  5
4AE
330
495
100
AcDbEntity
  8
Visible (ANSI)
100
AcDbVertex
100
AcDb2dVertex
 10
143.64680713052
 20
46.12156550689117
 30
0.0
  0
VERTEX
  5
4AF
330
495
100
AcDbEntity
  8
Visible (ANSI)
100
AcDbVertex
100
AcDb2dVertex
 10
143.6467402037306
 20
46.12451754715891
 30
0.0
  0
SEQEND
  5
498
330
495
100
AcDbEntity
  8
Visible (ANSI)
  0
POLYLINE
  5
4B0
330
6C
100
AcDbEntity
  8
Visible (ANSI)
100
AcDb2dPolyline
 66
     1
 10
0.0
 20
0.0
 30
0.0
 70
   128
  0
VERTEX
  5
4B1
330
4B0
100
AcDbEntity
  8
Visible (ANSI)
100
AcDbVertex
100
AcDb2dVertex
 10
143.6833518580914
 20
94.98088736487268
 30
0.0
  0
VERTEX
  5
4B2
330
4B0
100
AcDbEntity
  8
Visible (ANSI)
100
AcDbVertex
100
AcDb2dVertex
 10
143.6777602305498
 20
94.97864285469187
 30
0.0
  0
VERTEX
  5
4B4
330
4B0
100
AcDbEntity
  8
Visible (ANSI)
100
AcDbVertex
100
AcDb2dVertex
 10
143.6725710380985
 20
94.97619510613807
 30
0.0
  0
VERTEX
  5
4B5
330
4B0
100
AcDbEntity
  8
Visible (ANSI)
100
AcDbVertex
100
AcDb2dVertex
 10
143.6678065044273
 20
94.97355971296853
 30
0.0
  0
VERTEX
  5
4B6
330
4B0
100
AcDbEntity
  8
Visible (ANSI)
100
AcDbVertex
100
AcDb2dVertex
 10
143.6634870306259
 20
94.97075307021434
 30
0.0
  0
VERTEX
  5
4B7
330
4B0
100
AcDbEntity
  8
Visible (ANSI)
100
AcDbVertex
100
AcDb2dVertex
 10
143.6596311134336
 20
94.96779230704055
 30
0.0
  0
VERTEX
  5
4B8
330
4B0
100
AcDbEntity
  8
Visible (ANSI)
100
AcDbVertex
100
AcDb2dVertex
 10
143.6562552644279
 20
94.96469521174931
 30
0.0
  0
VERTEX
  5
4B9
330
4B0
100
AcDbEntity
  8
Visible (ANSI)
100
AcDbVertex
100
AcDb2dVertex
 10
143.653373940346
 20
94.96148015813597
 30
0.0
  0
VERTEX
  5
4BA
330
4B0
100
AcDbEntity
  8
Visible (ANSI)
100
AcDbVertex
100
AcDb2dVertex
 10
143.650999477749
 20
94.95816602441722
 30
0.0
  0
VERTEX
  5
4BB
330
4B0
100
AcDbEntity
  8
Visible (ANSI)
100
AcDbVertex
100
AcDb2dVertex
 10
143.6491420462232
 20
94.9547721113384
 30
0.0
  0
VERTEX
  5
4BC
330
4B0
100
AcDbEntity
  8
Visible (ANSI)
100
AcDbVertex
100
AcDb2dVertex
 10
143.6478095970455
 20
94.95131806304252
 30
0.0
  0
VERTEX
  5
4BD
330
4B0
100
AcDbEntity
  8
Visible (ANSI)
100
AcDbVertex
100
AcDb2dVertex
 10
143.647007838293
 20
94.94782378107162
 30
0.0
  0
VERTEX
  5
4BE
330
4B0
100
AcDbEntity
  8
Visible (ANSI)
100
AcDbVertex
100
AcDb2dVertex
 10
143.6467402037308
 20
94.94430933956243
 30
0.0
  0
VERTEX
  5
4BF
330
4B0
100
AcDbEntity
  8
Visible (ANSI)
100
AcDbVertex
100
AcDb2dVertex
 10
143.6470078403671
 20
94.9407948992477
 30
0.0
  0
VERTEX
  5
4C0
330
4B0
100
AcDbEntity
  8
Visible (ANSI)
100
AcDbVertex
100
AcDb2dVertex
 10
143.6478095970455
 20
94.93730061608237
 30
0.0
  0
VERTEX
  5
4C1
330
4B0
100
AcDbEntity
  8
Visible (ANSI)
100
AcDbVertex
100
AcDb2dVertex
 10
143.6491420493344
 20
94.93384656957811
 30
0.0
  0
VERTEX
  5
4C2
330
4B0
100
AcDbEntity
  8
Visible (ANSI)
100
AcDbVertex
100
AcDb2dVertex
 10
143.6509994767119
 20
94.9304526564993
 30
0.0
  0
VERTEX
  5
4C3
330
4B0
100
AcDbEntity
  8
Visible (ANSI)
100
AcDbVertex
100
AcDb2dVertex
 10
143.6533739413831
 20
94.92713852158614
 30
0.0
  0
VERTEX
  5
4C4
330
4B0
100
AcDbEntity
  8
Visible (ANSI)
100
AcDbVertex
100
AcDb2dVertex
 10
143.6562552633908
 20
94.92392346677837
 30
0.0
  0
VERTEX
  5
4C5
330
4B0
100
AcDbEntity
  8
Visible (ANSI)
100
AcDbVertex
100
AcDb2dVertex
 10
143.6596311139521
 20
94.92083128490774
 30
0.0
  0
VERTEX
  5
4C6
330
4B0
100
AcDbEntity
  8
Visible (ANSI)
100
AcDbVertex
100
AcDb2dVertex
 10
143.6634870279036
 20
94.91787052121138
 30
0.0
  0
VERTEX
  5
4C7
330
4B0
100
AcDbEntity
  8
Visible (ANSI)
100
AcDbVertex
100
AcDb2dVertex
 10
143.6678065032606
 20
94.9150638792037
 30
0.0
  0
VERTEX
  5
4C8
330
4B0
100
AcDbEntity
  8
Visible (ANSI)
100
AcDbVertex
100
AcDb2dVertex
 10
143.6725710385523
 20
94.9124284869673
 30
0.0
  0
VERTEX
  5
4C9
330
4B0
100
AcDbEntity
  8
Visible (ANSI)
100
AcDbVertex
100
AcDb2dVertex
 10
143.6777602323809
 20
94.90998073681781
 30
0.0
  0
VERTEX
  5
4CA
330
4B0
100
AcDbEntity
  8
Visible (ANSI)
100
AcDbVertex
100
AcDb2dVertex
 10
143.6833518580915
 20
94.9077362279714
 30
0.0
  0
SEQEND
  5
4B3
330
4B0
100
AcDbEntity
  8
Visible (ANSI)
  0
LINE
  5
4CB
330
6C
100
AcDbEntity
  8
Visible (ANSI)
100
AcDbLine
 10
144.1183798372647
 20
46.36390770806932
 30
0.0
 11
144.2799732050493
 21
46.45696313970971
 31
0.0
  0
LINE
  5
4CC
330
6C
100
AcDbEntity
  8
Visible (ANSI)
100
AcDbLine
 10
143.7571594834091
 20
95.02338888241352
 30
0.0
 11
143.6833518584233
 21
94.98088589794347
 31
0.0
  0
LINE
  5
4CD
330
6C
100
AcDbEntity
  8
Visible (ANSI)
100
AcDbLine
 10
143.7071826948118
 20
94.96716263196491
 30
0.0
 11
143.6833518584233
 21
94.98088589794347
 31
0.0
  0
POLYLINE
  5
4CE
330
6C
100
AcDbEntity
  8
Visible (ANSI)
100
AcDb2dPolyline
 66
     1
 10
0.0
 20
0.0
 30
0.0
 70
   128
  0
VERTEX
  5
4CF
330
4CE
100
AcDbEntity
  8
Visible (ANSI)
100
AcDbVertex
100
AcDb2dVertex
 10
166.1339925868821
 20
33.13082998363466
 30
0.0
  0
VERTEX
  5
4D0
330
4CE
100
AcDbEntity
  8
Visible (ANSI)
100
AcDbVertex
100
AcDb2dVertex
 10
166.1331496001322
 20
33.12484962218562
 30
0.0
  0
VERTEX
  5
4D2
330
4CE
100
AcDbEntity
  8
Visible (ANSI)
100
AcDbVertex
100
AcDb2dVertex
 10
166.1326842964356
 20
33.11911536819699
 30
0.0
  0
VERTEX
  5
4D3
330
4CE
100
AcDbEntity
  8
Visible (ANSI)
100
AcDbVertex
100
AcDb2dVertex
 10
166.1325942448818
 20
33.11365433053835
 30
0.0
  0
VERTEX
  5
4D4
330
4CE
100
AcDbEntity
  8
Visible (ANSI)
100
AcDbVertex
100
AcDb2dVertex
 10
166.1328732893757
 20
33.10849366007893
 30
0.0
  0
VERTEX
  5
4D5
330
4CE
100
AcDbEntity
  8
Visible (ANSI)
100
AcDbVertex
100
AcDb2dVertex
 10
166.1335200568263
 20
33.10365556376071
 30
0.0
  0
VERTEX
  5
4D6
330
4CE
100
AcDbEntity
  8
Visible (ANSI)
100
AcDbVertex
100
AcDb2dVertex
 10
166.1345252259768
 20
33.09916452082625
 30
0.0
  0
VERTEX
  5
4D7
330
4CE
100
AcDbEntity
  8
Visible (ANSI)
100
AcDbVertex
100
AcDb2dVertex
 10
166.1358800812239
 20
33.09504231357673
 30
0.0
  0
VERTEX
  5
4D8
330
4CE
100
AcDbEntity
  8
Visible (ANSI)
100
AcDbVertex
100
AcDb2dVertex
 10
166.1375743928307
 20
33.0913091329485
 30
0.0
  0
VERTEX
  5
4D9
330
4CE
100
AcDbEntity
  8
Visible (ANSI)
100
AcDbVertex
100
AcDb2dVertex
 10
166.1395964915958
 20
33.08798352079179
 30
0.0
  0
VERTEX
  5
4DA
330
4CE
100
AcDbEntity
  8
Visible (ANSI)
100
AcDbVertex
100
AcDb2dVertex
 10
166.1419332895953
 20
33.08508224991891
 30
0.0
  0
VERTEX
  5
4DB
330
4CE
100
AcDbEntity
  8
Visible (ANSI)
100
AcDbVertex
100
AcDb2dVertex
 10
166.1445703714456
 20
33.08262029991947
 30
0.0
  0
VERTEX
  5
4DC
330
4CE
100
AcDbEntity
  8
Visible (ANSI)
100
AcDbVertex
100
AcDb2dVertex
 10
166.1474920150445
 20
33.08061075399542
 30
0.0
  0
VERTEX
  5
4DD
330
4CE
100
AcDbEntity
  8
Visible (ANSI)
100
AcDbVertex
100
AcDb2dVertex
 10
166.1506812952799
 20
33.07906476515601
 30
0.0
  0
VERTEX
  5
4DE
330
4CE
100
AcDbEntity
  8
Visible (ANSI)
100
AcDbVertex
100
AcDb2dVertex
 10
166.1541201338085
 20
33.07799149855207
 30
0.0
  0
VERTEX
  5
4DF
330
4CE
100
AcDbEntity
  8
Visible (ANSI)
100
AcDbVertex
100
AcDb2dVertex
 10
166.157789384097
 20
33.07739809531466
 30
0.0
  0
VERTEX
  5
4E0
330
4CE
100
AcDbEntity
  8
Visible (ANSI)
100
AcDbVertex
100
AcDb2dVertex
 10
166.1616667883781
 20
33.07729086309318
 30
0.0
  0
VERTEX
  5
4E1
330
4CE
100
AcDbEntity
  8
Visible (ANSI)
100
AcDbVertex
100
AcDb2dVertex
 10
166.1657355625819
 20
33.07767036789588
 30
0.0
  0
VERTEX
  5
4E2
330
4CE
100
AcDbEntity
  8
Visible (ANSI)
100
AcDbVertex
100
AcDb2dVertex
 10
166.1699717398367
 20
33.07853875087167
 30
0.0
  0
VERTEX
  5
4E3
330
4CE
100
AcDbEntity
  8
Visible (ANSI)
100
AcDbVertex
100
AcDb2dVertex
 10
166.1743527605856
 20
33.07989484052299
 30
0.0
  0
VERTEX
  5
4E4
330
4CE
100
AcDbEntity
  8
Visible (ANSI)
100
AcDbVertex
100
AcDb2dVertex
 10
166.1788554431543
 20
33.08173537506348
 30
0.0
  0
VERTEX
  5
4E5
330
4CE
100
AcDbEntity
  8
Visible (ANSI)
100
AcDbVertex
100
AcDb2dVertex
 10
166.1834560868114
 20
33.08405501815047
 30
0.0
  0
VERTEX
  5
4E6
330
4CE
100
AcDbEntity
  8
Visible (ANSI)
100
AcDbVertex
100
AcDb2dVertex
 10
166.1881305705492
 20
33.08684638212111
 30
0.0
  0
VERTEX
  5
4E7
330
4CE
100
AcDbEntity
  8
Visible (ANSI)
100
AcDbVertex
100
AcDb2dVertex
 10
166.1928544586071
 20
33.0901000601875
 30
0.0
  0
VERTEX
  5
4E8
330
4CE
100
AcDbEntity
  8
Visible (ANSI)
100
AcDbVertex
100
AcDb2dVertex
 10
166.1976030996419
 20
33.09380466340497
 30
0.0
  0
SEQEND
  5
4D1
330
4CE
100
AcDbEntity
  8
Visible (ANSI)
  0
POLYLINE
  5
4E9
330
6C
100
AcDbEntity
  8
Visible (ANSI)
100
AcDb2dPolyline
 66
     1
 10
0.0
 20
0.0
 30
0.0
 70
   128
  0
VERTEX
  5
4EA
330
4E9
100
AcDbEntity
  8
Visible (ANSI)
100
AcDbVertex
100
AcDb2dVertex
 10
143.7217806369056
 20
45.99471878989445
 30
0.0
  0
VERTEX
  5
4EB
330
4E9
100
AcDbEntity
  8
Visible (ANSI)
100
AcDbVertex
100
AcDb2dVertex
 10
143.7192427868234
 20
45.99625785029637
 30
0.0
  0
VERTEX
  5
4ED
330
4E9
100
AcDbEntity
  8
Visible (ANSI)
100
AcDbVertex
100
AcDb2dVertex
 10
143.7167742342909
 20
45.99791214115483
 30
0.0
  0
VERTEX
  5
4EE
330
4E9
100
AcDbEntity
  8
Visible (ANSI)
100
AcDbVertex
100
AcDb2dVertex
 10
143.7143770866504
 20
45.99968020691063
 30
0.0
  0
VERTEX
  5
4EF
330
4E9
100
AcDbEntity
  8
Visible (ANSI)
100
AcDbVertex
100
AcDb2dVertex
 10
143.7120533599815
 20
46.00156046031208
 30
0.0
  0
VERTEX
  5
4F0
330
4E9
100
AcDbEntity
  8
Visible (ANSI)
100
AcDbVertex
100
AcDb2dVertex
 10
143.7098049998426
 20
46.00355120395182
 30
0.0
  0
VERTEX
  5
4F1
330
4E9
100
AcDbEntity
  8
Visible (ANSI)
100
AcDbVertex
100
AcDb2dVertex
 10
143.7076338688255
 20
46.00565061110962
 30
0.0
  0
VERTEX
  5
4F2
330
4E9
100
AcDbEntity
  8
Visible (ANSI)
100
AcDbVertex
100
AcDb2dVertex
 10
143.7055417465562
 20
46.00785674493731
 30
0.0
  0
VERTEX
  5
4F3
330
4E9
100
AcDbEntity
  8
Visible (ANSI)
100
AcDbVertex
100
AcDb2dVertex
 10
143.7035303255458
 20
46.01016754887559
 30
0.0
  0
VERTEX
  5
4F4
330
4E9
100
AcDbEntity
  8
Visible (ANSI)
100
AcDbVertex
100
AcDb2dVertex
 10
143.7016012194877
 20
46.01258086821849
 30
0.0
  0
VERTEX
  5
4F5
330
4E9
100
AcDbEntity
  8
Visible (ANSI)
100
AcDbVertex
100
AcDb2dVertex
 10
143.6997559383674
 20
46.01509441179916
 30
0.0
  0
VERTEX
  5
4F6
330
4E9
100
AcDbEntity
  8
Visible (ANSI)
100
AcDbVertex
100
AcDb2dVertex
 10
143.6979959175008
 20
46.01770580708161
 30
0.0
  0
VERTEX
  5
4F7
330
4E9
100
AcDbEntity
  8
Visible (ANSI)
100
AcDbVertex
100
AcDb2dVertex
 10
143.6963224926442
 20
46.02041255705027
 30
0.0
  0
VERTEX
  5
4F8
330
4E9
100
AcDbEntity
  8
Visible (ANSI)
100
AcDbVertex
100
AcDb2dVertex
 10
143.6947369082913
 20
46.02321207376499
 30
0.0
  0
VERTEX
  5
4F9
330
4E9
100
AcDbEntity
  8
Visible (ANSI)
100
AcDbVertex
100
AcDb2dVertex
 10
143.6932403135245
 20
46.02610166637981
 30
0.0
  0
VERTEX
  5
4FA
330
4E9
100
AcDbEntity
  8
Visible (ANSI)
100
AcDbVertex
100
AcDb2dVertex
 10
143.6918337578666
 20
46.02907853875403
 30
0.0
  0
VERTEX
  5
4FB
330
4E9
100
AcDbEntity
  8
Visible (ANSI)
100
AcDbVertex
100
AcDb2dVertex
 10
143.690518203726
 20
46.03213982059992
 30
0.0
  0
VERTEX
  5
4FC
330
4E9
100
AcDbEntity
  8
Visible (ANSI)
100
AcDbVertex
100
AcDb2dVertex
 10
143.6892945098033
 20
46.03528252435377
 30
0.0
  0
VERTEX
  5
4FD
330
4E9
100
AcDbEntity
  8
Visible (ANSI)
100
AcDbVertex
100
AcDb2dVertex
 10
143.6881634227946
 20
46.03850360271197
 30
0.0
  0
VERTEX
  5
4FE
330
4E9
100
AcDbEntity
  8
Visible (ANSI)
100
AcDbVertex
100
AcDb2dVertex
 10
143.687125623023
 20
46.04179990311327
 30
0.0
  0
VERTEX
  5
4FF
330
4E9
100
AcDbEntity
  8
Visible (ANSI)
100
AcDbVertex
100
AcDb2dVertex
 10
143.686181662214
 20
46.0451681892384
 30
0.0
  0
VERTEX
  5
500
330
4E9
100
AcDbEntity
  8
Visible (ANSI)
100
AcDbVertex
100
AcDb2dVertex
 10
143.6853320008303
 20
46.04860517704657
 30
0.0
  0
VERTEX
  5
501
330
4E9
100
AcDbEntity
  8
Visible (ANSI)
100
AcDbVertex
100
AcDb2dVertex
 10
143.6845769914783
 20
46.05210747242455
 30
0.0
  0
VERTEX
  5
502
330
4E9
100
AcDbEntity
  8
Visible (ANSI)
100
AcDbVertex
100
AcDb2dVertex
 10
143.6839168913533
 20
46.05567162631551
 30
0.0
  0
VERTEX
  5
503
330
4E9
100
AcDbEntity
  8
Visible (ANSI)
100
AcDbVertex
100
AcDb2dVertex
 10
143.6833518580914
 20
46.05929414192255
 30
0.0
  0
SEQEND
  5
4EC
330
4E9
100
AcDbEntity
  8
Visible (ANSI)
  0
LINE
  5
504
330
6C
100
AcDbEntity
  8
Visible (ANSI)
100
AcDbLine
 10
144.1655101872805
 20
46.28286500751296
 30
0.0
 11
144.3268482050493
 21
46.37577339285892
 31
0.0
  0
LINE
  5
505
330
6C
100
AcDbEntity
  8
Visible (ANSI)
100
AcDbLine
 10
166.1976025956598
 20
33.12186002094383
 30
0.0
 11
166.1976025956598
 21
33.09380495401117
 31
0.0
  0
LINE
  5
506
330
6C
100
AcDbEntity
  8
Visible (ANSI)
100
AcDbLine
 10
166.1976025956598
 20
33.09380495401117
 30
0.0
 11
166.2772018402569
 21
33.13964311040204
 31
0.0
  0
LINE
  5
507
330
6C
100
AcDbEntity
  8
Visible (ANSI)
100
AcDbLine
 10
166.3080555553616
 20
33.15741058326393
 30
0.0
 11
166.7279326815496
 21
33.39920173935546
 31
0.0
  0
LINE
  5
508
330
6C
100
AcDbEntity
  8
Visible (ANSI)
100
AcDbLine
 10
166.7279326815496
 20
33.39970678112309
 30
0.0
 11
166.7279326815496
 21
33.39920173935546
 31
0.0
  0
LINE
  5
509
330
6C
100
AcDbEntity
  8
Visible (ANSI)
100
AcDbLine
 10
166.841098942286
 20
82.25601984193488
 30
0.0
 11
166.8410989422859
 21
33.46487489652484
 31
0.0
  0
LINE
  5
50A
330
6C
100
AcDbEntity
  8
Visible (ANSI)
100
AcDbLine
 10
144.3268482050494
 20
95.35195584045712
 30
0.0
 11
166.7279326815498
 21
82.45202922990763
 31
0.0
  0
LINE
  5
50B
330
6C
100
AcDbEntity
  8
Visible (ANSI)
100
AcDbLine
 10
144.2799732050493
 20
46.45696313970971
 30
0.0
 11
144.2799732050493
 21
46.54588479359472
 31
0.0
  0
LINE
  5
50C
330
6C
100
AcDbEntity
  8
Visible (ANSI)
100
AcDbLine
 10
144.2799732050493
 20
69.98615279397113
 30
0.0
 11
144.2799732050493
 21
70.35694480463361
 31
0.0
  0
LINE
  5
50D
330
6C
100
AcDbEntity
  8
Visible (ANSI)
100
AcDbLine
 10
144.2799732050494
 20
93.79721280501
 30
0.0
 11
144.2799732050494
 21
94.1680048156725
 31
0.0
  0
LINE
  5
50E
330
6C
100
AcDbEntity
  8
Visible (ANSI)
100
AcDbLine
 10
165.792176072756
 20
34.01471317475742
 30
0.0
 11
165.4709141988324
 21
34.19971558393675
 31
0.0
  0
LINE
  5
50F
330
6C
100
AcDbEntity
  8
Visible (ANSI)
100
AcDbLine
 10
144.4021959418598
 20
46.33238351697382
 30
0.0
 11
144.3268482050493
 21
46.37577339285892
 31
0.0
  0
SPLINE
  5
510
330
6C
100
AcDbEntity
  8
Visible (ANSI)
100
AcDbSpline
210
0.0
220
0.0
230
1.0
 70
     8
 71
     3
 72
    11
 73
     7
 74
     0
 42
0.0000000001
 43
0.0000000001
 40
0.0
 40
0.0
 40
0.0
 40
0.0
 40
1.048975082050058
 40
1.048975082050058
 40
1.048975082050058
 40
1.57079632679489
 40
1.57079632679489
 40
1.57079632679489
 40
1.57079632679489
 10
66.58080325204569
 20
116.6117589751122
 30
0.0
 10
66.62451054713108
 20
116.6117589751122
 30
0.0
 10
66.66738102150221
 20
116.6365610835195
 30
0.0
 10
66.68916735211938
 20
116.6744514971082
 30
0.0
 10
66.70000514069569
 20
116.6933003936369
 30
0.0
 10
66.70580325204567
 20
116.7150164232478
 30
0.0
 10
66.70580325204567
 20
116.7367589751121
 30
0.0
  0
LINE
  5
511
330
6C
100
AcDbEntity
  8
Visible (ANSI)
100
AcDbLine
 10
66.61205325204567
 20
116.7367589751121
 30
0.0
 11
66.61205325204567
 21
117.4867589751122
 31
0.0
  0
LINE
  5
512
330
6C
100
AcDbEntity
  8
Visible (ANSI)
100
AcDbLine
 10
66.61205325204567
 20
116.7367589751121
 30
0.0
 11
66.70580325204567
 21
116.7367589751121
 31
0.0
  0
SPLINE
  5
513
330
6C
100
AcDbEntity
  8
Visible (ANSI)
100
AcDbSpline
210
0.0
220
0.0
230
1.0
 70
     8
 71
     3
 72
    11
 73
     7
 74
     0
 42
0.0000000001
 43
0.0000000001
 40
0.0
 40
0.0
 40
0.0
 40
0.0
 40
1.483474787626228
 40
1.483474787626228
 40
1.483474787626228
 40
1.57079632679489
 40
1.57079632679489
 40
1.57079632679489
 40
1.57079632679489
 10
66.58080325204567
 20
116.7055089751122
 30
0.0
 10
66.59625611441679
 20
116.7055089751122
 30
0.0
 10
66.61058653275887
 20
116.7186396581985
 30
0.0
 10
66.61193418630634
 20
116.7340336435621
 30
0.0
 10
66.61201351302158
 20
116.7349397772606
 30
0.0
 10
66.61205325204567
 20
116.7358493757458
 30
0.0
 10
66.61205325204567
 20
116.7367589751121
 30
0.0
  0
LINE
  5
514
330
6C
100
AcDbEntity
  8
Visible (ANSI)
100
AcDbLine
 10
66.58080325204567
 20
116.7055089751122
 30
0.0
 11
66.58080325204567
 21
116.6117589751122
 31
0.0
  0
LINE
  5
515
330
6C
100
AcDbEntity
  8
Visible (ANSI)
100
AcDbLine
 10
66.70580325204567
 20
116.7367589751121
 30
0.0
 11
66.70580325204567
 21
117.4867589751122
 31
0.0
  0
LINE
  5
516
330
6C
100
AcDbEntity
  8
Visible (ANSI)
100
AcDbLine
 10
66.61205325204567
 20
117.4867589751122
 30
0.0
 11
66.70580325204567
 21
117.4867589751122
 31
0.0
  0
SPLINE
  5
517
330
6C
100
AcDbEntity
  8
Visible (ANSI)
100
AcDbSpline
210
0.0
220
0.0
230
1.0
 70
     8
 71
     3
 72
    11
 73
     7
 74
     0
 42
0.0000000001
 43
0.0000000001
 40
0.0
 40
0.0
 40
0.0
 40
0.0
 40
1.048975082049782
 40
1.048975082049782
 40
1.048975082049782
 40
1.570796326794967
 40
1.570796326794967
 40
1.570796326794967
 40
1.570796326794967
 10
34.83080325204567
 20
116.6117589751122
 30
0.0
 10
34.83860341657133
 20
116.6117589751122
 30
0.0
 10
34.84640358109699
 20
116.6365610835195
 30
0.0
 10
34.85420374562266
 20
116.6744514971082
 30
0.0
 10
34.85808400134241
 20
116.6933003936369
 30
0.0
 10
34.86196425706216
 20
116.7150164232478
 30
0.0
 10
34.8658445127819
 20
116.7367589751122
 30
0.0
  0
SPLINE
  5
518
330
6C
100
AcDbEntity
  8
Visible (ANSI)
100
AcDbSpline
210
0.0
220
0.0
230
1.0
 70
     8
 71
     3
 72
    11
 73
     7
 74
     0
 42
0.0000000001
 43
0.0000000001
 40
0.0
 40
0.0
 40
0.0
 40
0.0
 40
1.048975082050335
 40
1.048975082050335
 40
1.048975082050335
 40
1.570796326794967
 40
1.570796326794967
 40
1.570796326794967
 40
1.570796326794967
 10
66.54576199130943
 20
116.7367589751122
 30
0.0
 10
66.55356215583509
 20
116.6930516800268
 30
0.0
 10
66.56136232036075
 20
116.6501812056556
 30
0.0
 10
66.56916248488643
 20
116.6283948750385
 30
0.0
 10
66.57304274060618
 20
116.6175570864621
 30
0.0
 10
66.57692299632593
 20
116.6117589751122
 30
0.0
 10
66.58080325204567
 20
116.6117589751122
 30
0.0
  0
LINE
  5
519
330
6C
100
AcDbEntity
  8
Visible (ANSI)
100
AcDbLine
 10
66.54576199130943
 20
117.4867589751122
 30
0.0
 11
66.54576199130943
 21
116.7367589751122
 31
0.0
  0
SPLINE
  5
51A
330
6C
100
AcDbEntity
  8
Visible (ANSI)
100
AcDbSpline
210
0.0
220
0.0
230
1.0
 70
     8
 71
     3
 72
    11
 73
     7
 74
     0
 42
0.0000000001
 43
0.0000000001
 40
0.0
 40
0.0
 40
0.0
 40
0.0
 40
1.483474787630861
 40
1.483474787630861
 40
1.483474787630861
 40
1.570796326794967
 40
1.570796326794967
 40
1.570796326794967
 40
1.570796326794967
 10
66.58080325204567
 20
116.7055089751122
 30
0.0
 10
66.5697721535847
 20
116.7055089751122
 30
0.0
 10
66.55874105512373
 20
116.7186396581986
 30
0.0
 10
66.54770995666275
 20
116.7340336435623
 30
0.0
 10
66.54706063487832
 20
116.7349397772607
 30
0.0
 10
66.54641131309387
 20
116.7358493757459
 30
0.0
 10
66.54576199130943
 20
116.7367589751122
 30
0.0
  0
SPLINE
  5
51B
330
6C
100
AcDbEntity
  8
Visible (ANSI)
100
AcDbSpline
210
0.0
220
0.0
230
1.0
 70
     8
 71
     3
 72
    11
 73
     7
 74
     0
 42
0.0000000001
 43
0.0000000001
 40
0.0
 40
0.0
 40
0.0
 40
0.0
 40
1.483474787630861
 40
1.483474787630861
 40
1.483474787630861
 40
1.570796326794967
 40
1.570796326794967
 40
1.570796326794967
 40
1.570796326794967
 10
34.83080325204567
 20
116.7055089751122
 30
0.0
 10
34.84183435050663
 20
116.7055089751122
 30
0.0
 10
34.8528654489676
 20
116.7186396581986
 30
0.0
 10
34.86389654742858
 20
116.7340336435623
 30
0.0
 10
34.86454586921302
 20
116.7349397772607
 30
0.0
 10
34.86519519099746
 20
116.7358493757459
 30
0.0
 10
34.8658445127819
 20
116.7367589751122
 30
0.0
  0
LINE
  5
51C
330
6C
100
AcDbEntity
  8
Visible (ANSI)
100
AcDbLine
 10
34.83080325204567
 20
116.7055089751122
 30
0.0
 11
34.83080325204567
 21
116.6117589751122
 31
0.0
  0
LINE
  5
51D
330
6C
100
AcDbEntity
  8
Visible (ANSI)
100
AcDbLine
 10
34.8658445127819
 20
116.7367589751122
 30
0.0
 11
34.8658445127819
 21
117.4867589751122
 31
0.0
  0
SPLINE
  5
51E
330
6C
100
AcDbEntity
  8
Visible (ANSI)
100
AcDbSpline
210
0.0
220
0.0
230
1.0
 70
     8
 71
     3
 72
    11
 73
     7
 74
     0
 42
0.0000000001
 43
0.0000000001
 40
0.0
 40
0.0
 40
0.0
 40
0.0
 40
1.048975082050298
 40
1.048975082050298
 40
1.048975082050298
 40
1.570796326794878
 40
1.570796326794878
 40
1.570796326794878
 40
1.570796326794878
 10
34.70580325204567
 20
116.7367589751121
 30
0.0
 10
34.70580325204567
 20
116.6930516800267
 30
0.0
 10
34.73060536045301
 20
116.6501812056556
 30
0.0
 10
34.76849577404172
 20
116.6283948750384
 30
0.0
 10
34.78734467057042
 20
116.6175570864621
 30
0.0
 10
34.80906070018131
 20
116.6117589751122
 30
0.0
 10
34.83080325204567
 20
116.6117589751122
 30
0.0
  0
LINE
  5
51F
330
6C
100
AcDbEntity
  8
Visible (ANSI)
100
AcDbLine
 10
34.79955325204566
 20
116.7367589751121
 30
0.0
 11
34.79955325204566
 21
117.4867589751122
 31
0.0
  0
LINE
  5
520
330
6C
100
AcDbEntity
  8
Visible (ANSI)
100
AcDbLine
 10
34.70580325204567
 20
117.4867589751122
 30
0.0
 11
34.70580325204567
 21
116.7367589751121
 31
0.0
  0
LINE
  5
521
330
6C
100
AcDbEntity
  8
Visible (ANSI)
100
AcDbLine
 10
34.79955325204566
 20
116.7367589751121
 30
0.0
 11
34.70580325204567
 21
116.7367589751121
 31
0.0
  0
LINE
  5
522
330
6C
100
AcDbEntity
  8
Visible (ANSI)
100
AcDbLine
 10
34.79955325204566
 20
117.4867589751122
 30
0.0
 11
34.70580325204567
 21
117.4867589751122
 31
0.0
  0
SPLINE
  5
523
330
6C
100
AcDbEntity
  8
Visible (ANSI)
100
AcDbSpline
210
0.0
220
0.0
230
1.0
 70
     8
 71
     3
 72
    11
 73
     7
 74
     0
 42
0.0000000001
 43
0.0000000001
 40
0.0
 40
0.0
 40
0.0
 40
0.0
 40
1.483474787626958
 40
1.483474787626958
 40
1.483474787626958
 40
1.570796326794878
 40
1.570796326794878
 40
1.570796326794878
 40
1.570796326794878
 10
34.83080325204567
 20
116.7055089751122
 30
0.0
 10
34.81535038967455
 20
116.7055089751122
 30
0.0
 10
34.80101997133245
 20
116.7186396581985
 30
0.0
 10
34.79967231778499
 20
116.7340336435621
 30
0.0
 10
34.79959299106976
 20
116.7349397772606
 30
0.0
 10
34.79955325204566
 20
116.7358493757458
 30
0.0
 10
34.79955325204566
 20
116.7367589751121
 30
0.0
  0
LINE
  5
524
330
6C
100
AcDbEntity
  8
Visible (ANSI)
100
AcDbLine
 10
66.58080325204567
 20
116.6117589751122
 30
0.0
 11
34.83080325204567
 21
116.6117589751122
 31
0.0
  0
LINE
  5
525
330
6C
100
AcDbEntity
  8
Hidden (ANSI)
100
AcDbLine
 10
34.83080325204567
 20
116.7055089751122
 30
0.0
 11
66.58080325204567
 21
116.7055089751122
 31
0.0
  0
LINE
  5
526
330
6C
100
AcDbEntity
  8
Visible (ANSI)
100
AcDbLine
 10
34.8658445127819
 20
117.4867589751122
 30
0.0
 11
66.54576199130943
 21
117.4867589751122
 31
0.0
  0
LINE
  5
527
330
6C
100
AcDbEntity
  8
Hidden (ANSI)
100
AcDbLine
 10
66.11230325204568
 20
116.7055089751119
 30
0.0
 11
66.11230325204568
 21
116.611758975112
 31
0.0
  0
LINE
  5
528
330
6C
100
AcDbEntity
  8
Hidden (ANSI)
100
AcDbLine
 10
65.54930325204567
 20
116.7055089751119
 30
0.0
 11
65.54930325204567
 21
116.611758975112
 31
0.0
  0
LINE
  5
529
330
6C
100
AcDbEntity
  8
Hidden (ANSI)
100
AcDbLine
 10
35.86230325204566
 20
116.7055089751119
 30
0.0
 11
35.86230325204566
 21
116.611758975112
 31
0.0
  0
LINE
  5
52A
330
6C
100
AcDbEntity
  8
Hidden (ANSI)
100
AcDbLine
 10
35.29930325204567
 20
116.7055089751119
 30
0.0
 11
35.29930325204567
 21
116.611758975112
 31
0.0
  0
MTEXT
  5
52B
330
6C
100
AcDbEntity
  8
Symbol (ANSI)
100
AcDbMText
 10
46.03923655577274
 20
110.8082767378131
 30
0.0
 40
1.440000017796914
 41
0.0
 46
0.0
 71
     7
 72
     1
  1
TOP VIEW
  7
Text Style153
 73
     1
 44
1.0
  0
LINE
  5
52C
330
6C
100
AcDbEntity
  8
Symbol (ANSI)
370
    30
100
AcDbLine
 10
46.0403885587361
 20
110.5146170893145
 30
0.0
 11
55.12615828714888
 21
110.5146170893145
 31
0.0
  0
LINE
  5
52D
330
6C
100
AcDbEntity
  8
Center Mark (ANSI)
  6
Continuous
100
AcDbLine
 10
35.58080325202998
 20
95.10390446989649
 30
0.0
 11
35.58080325202998
 21
91.54090446989648
 31
0.0
  0
LINE
  5
52E
330
6C
100
AcDbEntity
  8
Center Mark (ANSI)
  6
Continuous
100
AcDbLine
 10
65.83080325202998
 20
95.10390446989649
 30
0.0
 11
65.83080325202998
 21
91.54090446989648
 31
0.0
  0
LINE
  5
52F
330
6C
100
AcDbEntity
  8
Centerline (ANSI)
  6
Continuous
100
AcDbLine
 10
33.79930325202998
 20
93.32240446989649
 30
0.0
 11
67.61230325202998
 21
93.32240446989649
 31
0.0
  0
LINE
  5
530
330
6C
100
AcDbEntity
  8
Center Mark (ANSI)
  6
Continuous
100
AcDbLine
 10
67.61230325202998
 20
93.32240446989649
 30
0.0
 11
64.04930325202998
 21
93.32240446989649
 31
0.0
  0
LINE
  5
531
330
6C
100
AcDbEntity
  8
Center Mark (ANSI)
  6
Continuous
100
AcDbLine
 10
67.61230325202998
 20
35.0724044698965
 30
0.0
 11
64.04930325202998
 21
35.0724044698965
 31
0.0
  0
LINE
  5
532
330
6C
100
AcDbEntity
  8
Centerline (ANSI)
  6
Continuous
100
AcDbLine
 10
65.83080325202998
 20
95.10390446989649
 30
0.0
 11
65.83080325202998
 21
33.29090446989649
 31
0.0
  0
LINE
  5
533
330
6C
100
AcDbEntity
  8
Center Mark (ANSI)
  6
Continuous
100
AcDbLine
 10
65.83080325202998
 20
33.29090446989649
 30
0.0
 11
65.83080325202998
 21
36.8539044698965
 31
0.0
  0
LINE
  5
534
330
6C
100
AcDbEntity
  8
Center Mark (ANSI)
  6
Continuous
100
AcDbLine
 10
35.58080325202997
 20
33.29090446989649
 30
0.0
 11
35.58080325202997
 21
36.8539044698965
 31
0.0
  0
LINE
  5
535
330
6C
100
AcDbEntity
  8
Centerline (ANSI)
  6
Continuous
100
AcDbLine
 10
67.61230325202998
 20
35.0724044698965
 30
0.0
 11
33.79930325202997
 21
35.0724044698965
 31
0.0
  0
LINE
  5
536
330
6C
100
AcDbEntity
  8
Center Mark (ANSI)
  6
Continuous
100
AcDbLine
 10
33.79930325202997
 20
35.0724044698965
 30
0.0
 11
37.36230325202998
 21
35.0724044698965
 31
0.0
  0
LINE
  5
537
330
6C
100
AcDbEntity
  8
Center Mark (ANSI)
  6
Continuous
100
AcDbLine
 10
33.79930325202998
 20
93.32240446989649
 30
0.0
 11
37.36230325202998
 21
93.32240446989649
 31
0.0
  0
LINE
  5
538
330
6C
100
AcDbEntity
  8
Centerline (ANSI)
  6
Continuous
100
AcDbLine
 10
35.58080325202997
 20
33.29090446989649
 30
0.0
 11
35.58080325202998
 21
95.10390446989649
 31
0.0
  0
LINE
  5
539
330
6C
100
AcDbEntity
  8
Center Mark (ANSI)
  6
Continuous
100
AcDbLine
 10
35.58080325202999
 20
65.97890446989649
 30
0.0
 11
35.58080325202999
 21
62.4159044698965
 31
0.0
  0
LINE
  5
53A
330
6C
100
AcDbEntity
  8
Center Mark (ANSI)
  6
Continuous
100
AcDbLine
 10
65.83080325202999
 20
65.97890446989651
 30
0.0
 11
65.83080325202999
 21
62.41590446989651
 31
0.0
  0
LINE
  5
53B
330
6C
100
AcDbEntity
  8
Centerline (ANSI)
  6
Continuous
100
AcDbLine
 10
33.79930325202999
 20
64.19740446989649
 30
0.0
 11
67.61230325203
 21
64.19740446989649
 31
0.0
  0
DIMENSION
  5
53C
330
6C
100
AcDbEntity
  8
Dimension (ANSI)
100
AcDbDimension
280
     0
  2
*D4
 10
66.70580325202998
 20
104.4310639965618
 30
0.0
 11
50.70580325202997
 21
104.4310639965618
 31
0.0
 70
   160
  1
<>
 42
32.0
 73
     0
 74
     0
 75
     0
  3
Default (ANSI)
100
AcDbAlignedDimension
 13
34.70580325202998
 23
94.03736320916026
 33
0.0
 14
66.70580325202998
 24
94.03736320916024
 34
0.0
100
AcDbRotatedDimension
1001
ACAD
1000
DSTYLE
1002
{
1070
   289
1070
     1
1070
    73
1070
     0
1070
    74
1070
     0
1070
   271
1070
     2
1070
   272
1070
     2
1070
    48
1040
0.0
1070
    47
1040
0.0
1002
}
  0
DIMENSION
  5
628
330
6C
100
AcDbEntity
  8
Dimension (ANSI)
100
AcDbDimension
280
     0
  2
*D5
 10
35.58080325202998
 20
99.82831391871538
 30
0.0
 11
29.50967579039382
 21
99.82831391871538
 31
0.0
 70
   160
  1
<>
 42
0.875
 73
     0
 74
     0
 75
     0
  3
Default (ANSI)
100
AcDbAlignedDimension
 13
34.70580325202998
 23
94.03736320916026
 33
0.0
 14
35.58080325202998
 24
95.10390446989649
 34
0.0
100
AcDbRotatedDimension
1001
ACAD
1000
DSTYLE
1002
{
1070
   289
1070
     1
1070
    73
1070
     0
1070
    74
1070
     0
1070
   271
1070
     2
1070
   272
1070
     2
1070
    48
1040
0.0
1070
    47
1040
0.0
1002
}
  0
DIMENSION
  5
712
330
6C
100
AcDbEntity
  8
Dimension (ANSI)
100
AcDbDimension
280
     0
  2
*D6
 10
65.83080325202998
 20
99.82831391871538
 30
0.0
 11
50.70580325202997
 21
99.82831391871538
 31
0.0
 70
   160
  1
<>
 42
30.25
 73
     0
 74
     0
 75
     0
  3
Default (ANSI)
100
AcDbAlignedDimension
 13
35.58080325202998
 23
95.10390446989649
 33
0.0
 14
65.83080325202998
 24
95.10390446989649
 34
0.0
 50
180.0
100
AcDbRotatedDimension
1001
ACAD
1000
DSTYLE
1002
{
1070
   289
1070
     1
1070
    73
1070
     0
1070
    74
1070
     0
1070
   271
1070
     2
1070
   272
1070
     2
1070
    48
1040
0.0
1070
    47
1040
0.0
1002
}
  0
DIMENSION
  5
7FC
330
6C
100
AcDbEntity
  8
Dimension (ANSI)
100
AcDbDimension
280
     0
  2
*D7
 10
32.47964405336663
 20
35.0724044698965
 30
0.0
 11
29.07489380321108
 21
30.75343247931082
 31
0.0
 70
   160
  1
<>
 42
0.875
 73
     0
 74
     0
 75
     0
  3
Default (ANSI)
100
AcDbAlignedDimension
 13
34.86584451276624
 23
34.1974044698965
 33
0.0
 14
33.79930325202997
 24
35.0724044698965
 34
0.0
 50
90.0
100
AcDbRotatedDimension
1001
ACAD
1000
DSTYLE
1002
{
1070
   289
1070
     1
1070
   271
1070
     2
1070
   272
1070
     2
1070
    48
1040
0.0
1070
    47
1040
0.0
1002
}
  0
DIMENSION
  5
8FC
330
6C
100
AcDbEntity
  8
Dimension (ANSI)
100
AcDbDimension
280
     0
  2
*D8
 10
29.07489380321109
 20
64.19740446989651
 30
0.0
 11
29.07489380321108
 21
49.63490446989649
 31
0.0
 70
   160
  1
<>
 42
29.12500000000001
 73
     0
 74
     0
 75
     0
  3
Default (ANSI)
100
AcDbAlignedDimension
 13
33.79930325202997
 23
35.0724044698965
 33
0.0
 14
33.79930325202999
 24
64.19740446989649
 34
0.0
 50
90.0
100
AcDbRotatedDimension
1001
ACAD
1000
DSTYLE
1002
{
1070
   289
1070
     1
1070
   271
1070
     2
1070
   272
1070
     2
1070
    48
1040
0.0
1070
    47
1040
0.0
1002
}
  0
DIMENSION
  5
9E6
330
6C
100
AcDbEntity
  8
Dimension (ANSI)
100
AcDbDimension
280
     0
  2
*D9
 10
20.57095679533709
 20
93.32240446989649
 30
0.0
 11
20.57095679533707
 21
64.19740446989648
 31
0.0
 70
   160
  1
<>
 42
58.24999999999999
 73
     0
 74
     0
 75
     0
  3
Default (ANSI)
100
AcDbAlignedDimension
 13
33.79930325202997
 23
35.0724044698965
 33
0.0
 14
33.79930325202998
 24
93.32240446989649
 34
0.0
 50
90.0
100
AcDbRotatedDimension
1001
ACAD
1000
DSTYLE
1002
{
1070
   289
1070
     1
1070
   271
1070
     2
1070
   272
1070
     2
1070
    48
1040
0.0
1070
    47
1040
0.0
1002
}
  0
DIMENSION
  5
AD0
330
6C
100
AcDbEntity
  8
Dimension (ANSI)
100
AcDbDimension
280
     0
  2
*D10
 10
13.13356104819933
 20
94.19740446989649
 30
0.0
 11
13.13356104819931
 21
64.19740446989649
 31
0.0
 70
   160
  1
<>
 42
60.0
 73
     0
 74
     0
 75
     0
  3
Default (ANSI)
100
AcDbAlignedDimension
 13
34.86584451276624
 23
34.1974044698965
 33
0.0
 14
34.86584451276622
 24
94.19740446989647
 34
0.0
 50
90.0
100
AcDbRotatedDimension
1001
ACAD
1000
DSTYLE
1002
{
1070
   289
1070
     1
1070
   271
1070
     2
1070
   272
1070
     2
1070
    48
1040
0.0
1070
    47
1040
0.0
1002
}
  0
DIMENSION
  5
BBA
330
6C
100
AcDbEntity
  8
Dimension (ANSI)
100
AcDbDimension
280
     0
  2
*D11
 10
65.65879337521697
 20
35.29523815738287
 30
0.0
 11
73.19999476684194
 21
32.08508409974822
 31
0.0
 70
   163
  1
<>{\P(6 PL.)}
 71
     4
 42
0.5629999999999999
 73
     0
 74
     0
 75
     0
  3
Default (ANSI)
100
AcDbDiametricDimension
 15
66.00281312884298
 25
34.84957078241013
 35
0.0
 40
0.0
1001
ACAD
1000
DSTYLE
1002
{
1070
   144
1040
1.000000000000001
1070
   271
1070
     3
1070
   272
1070
     3
1070
    48
1040
0.0
1070
    47
1040
0.0
1002
}
1001
ACAD_DSTYLE_DIMRADIAL_EXTENSION
1070
   387
1070
     1
1070
   388
1040
0.0
1070
   390
1040
0.0
  0
DIMENSION
  5
C75
330
6C
100
AcDbEntity
  8
Dimension (ANSI)
100
AcDbDimension
280
     0
  2
*D12
 10
59.28468602356339
 20
116.6117589751122
 30
0.0
 11
62.74601115807293
 21
122.5507309857194
 31
0.0
 70
   160
  1
<>{\PTYP.}
 71
     5
 42
0.8750000000000426
 73
     0
 74
     0
 75
     0
  3
Default (ANSI)
100
AcDbAlignedDimension
 13
62.74601115807293
 23
117.4867589751122
 33
0.0
 14
62.7298276074956
 24
116.6117589751122
 34
0.0
 50
270.0
100
AcDbRotatedDimension
1001
ACAD
1000
DSTYLE
1002
{
1070
   289
1070
     1
1070
   271
1070
     2
1070
    76
1070
     1
1070
    75
1070
     1
1070
   272
1070
     2
1070
    48
1040
0.0
1070
    47
1040
0.0
1002
}
  0
DIMENSION
  5
D7E
330
6C
100
AcDbEntity
  8
Dimension (ANSI)
100
AcDbDimension
280
     0
  2
*D13
 10
100.9722782360917
 20
91.22273465117109
 30
0.0
 11
107.1545564393051
 21
91.22273465117109
 31
0.0
 70
   160
  1
<>{\PTYP.}
 71
     4
 42
0.8750000000000284
 73
     0
 74
     0
 75
     0
  3
Default (ANSI)
100
AcDbAlignedDimension
 13
101.8472782360918
 23
91.22273465117109
 33
0.0
 14
100.9722782360917
 24
91.21475910591767
 34
0.0
 50
180.0
100
AcDbRotatedDimension
1001
ACAD
1000
DSTYLE
1002
{
1070
   289
1070
     1
1070
    73
1070
     0
1070
    74
1070
     0
1070
   271
1070
     2
1070
    76
1070
     1
1070
    75
1070
     1
1070
   272
1070
     2
1070
    48
1040
0.0
1070
    47
1040
0.0
1002
}
  0
MTEXT
  5
E6D
102
{ACAD_XDICTIONARY
360
E74
102
}
330
6C
100
AcDbEntity
  8
Symbol (ANSI)
100
AcDbMText
 10
113.3259992658994
 20
10.23587729272804
 30
0.0
 40
1.200000038297157
 41
88.60064529058508
 46
0.0
 71
     4
 72
     1
  3
{\fRomanS|b0|i0|c0|p2;\H2x;PART#: WA72P36F1\P(DATA SUBJECT TO CHANGE WITHOUT NOTICE)\H1.6157x; \H0.61894x;\P \H1.352x; \H0.73963x;\P\H0.6x;THIS DRAWING IS PROPERTY OF HUBBELL INC. WIEGMANN\H1.5633x; \H0.63966x;\PALL INFORMATION IS PROPRIETARY AND NOT
  1
 TO BE DUPLICATED\H1.234x; \H0.81039x;\P\H1.2571x; }
  7
Note Text (ANSI)
 73
     1
 44
0.8026435375213623
  0
ENDSEC
  0
SECTION
  2
OBJECTS
  0
DICTIONARY
  5
C
330
0
100
AcDbDictionary
281
     1
  3
ACAD_CIP_PREVIOUS_PRODUCT_INFO
350
E6F
  3
ACAD_COLOR
350
63
  3
ACAD_GROUP
350
D
  3
ACAD_LAYOUT
350
62
  3
ACAD_MATERIAL
350
10
  3
ACAD_MLEADERSTYLE
350
66
  3
ACAD_MLINESTYLE
350
5F
  3
ACAD_PLOTSETTINGS
350
61
  3
ACAD_PLOTSTYLENAME
350
E
  3
ACAD_SCALELIST
350
42
  3
ACAD_TABLESTYLE
350
64
  3
ACAD_VISUALSTYLE
350
29
  3
ACDB_RECOMPOSE_DATA
350
E76
  3
AcDbVariableDictionary
350
76
  0
DICTIONARY
  5
E74
330
E6D
100
AcDbDictionary
280
     1
281
     1
  3
ACAD_MTEXT_2008_RT
360
E75
  0
XRECORD
  5
E6F
102
{ACAD_REACTORS
330
C
102
}
330
C
100
AcDbXrecord
280
     1
300
INVNTOR
300
2012
300
PDSP_F_S
  0
DICTIONARY
  5
63
102
{ACAD_REACTORS
330
C
102
}
330
C
100
AcDbDictionary
281
     1
  0
DICTIONARY
  5
D
102
{ACAD_REACTORS
330
C
102
}
330
C
100
AcDbDictionary
281
     1
  0
DICTIONARY
  5
62
102
{ACAD_REACTORS
330
C
102
}
330
C
100
AcDbDictionary
281
     1
  3
Layout1
350
6B
  3
Layout2
350
73
  3
Model
350
6F
  0
DICTIONARY
  5
10
102
{ACAD_REACTORS
330
C
102
}
330
C
100
AcDbDictionary
281
     1
  3
ByBlock
350
19
  3
ByLayer
350
11
  3
Global
350
21
  0
DICTIONARY
  5
66
102
{ACAD_REACTORS
330
C
102
}
330
C
100
AcDbDictionary
281
     1
  3
Standard
350
67
  0
DICTIONARY
  5
5F
102
{ACAD_REACTORS
330
C
102
}
330
C
100
AcDbDictionary
281
     1
  3
Standard
350
60
  0
DICTIONARY
  5
61
102
{ACAD_REACTORS
330
C
102
}
330
C
100
AcDbDictionary
281
     1
  0
ACDBDICTIONARYWDFLT
  5
E
102
{ACAD_REACTORS
330
C
102
}
330
C
100
AcDbDictionary
281
     1
  3
Normal
350
F
100
AcDbDictionaryWithDefault
340
F
  0
DICTIONARY
  5
42
102
{ACAD_REACTORS
330
C
102
}
330
C
100
AcDbDictionary
281
     1
  3
A0
350
43
  3
A1
350
44
  3
A2
350
45
  3
A3
350
46
  3
A4
350
47
  3
A5
350
48
  3
A6
350
49
  3
A7
350
4A
  3
A8
350
4B
  3
A9
350
4C
  3
B0
350
4D
  3
B1
350
4E
  3
B2
350
4F
  3
B3
350
50
  3
B4
350
51
  3
B5
350
52
  3
B6
350
53
  0
DICTIONARY
  5
64
102
{ACAD_REACTORS
330
C
102
}
330
C
100
AcDbDictionary
281
     1
  3
Standard
350
65
  0
DICTIONARY
  5
29
102
{ACAD_REACTORS
330
C
102
}
330
C
100
AcDbDictionary
281
     1
  3
2dWireframe
350
2F
  3
Basic
350
2E
  3
Brighten
350
35
  3
ColorChange
350
39
  3
Conceptual
350
32
  3
Dim
350
34
  3
EdgeColorOff
350
41
  3
Facepattern
350
38
  3
Flat
350
2A
  3
FlatWithEdges
350
2B
  3
Gouraud
350
2C
  3
GouraudWithEdges
350
2D
  3
Hidden
350
31
  3
JitterOff
350
3F
  3
Linepattern
350
37
  3
OverhangOff
350
40
  3
Realistic
350
33
  3
Shaded
350
3E
  3
Shaded with edges
350
3D
  3
Shades of Gray
350
3A
  3
Sketchy
350
3B
  3
Thicken
350
36
  3
Wireframe
350
30
  3
X-Ray
350
3C
  0
XRECORD
  5
E76
102
{ACAD_REACTORS
330
C
102
}
330
C
100
AcDbXrecord
280
     1
 90
        1
330
65
330
E6D
  0
DICTIONARY
  5
76
102
{ACAD_REACTORS
330
C
102
}
330
C
100
AcDbDictionary
281
     1
  3
CANNOSCALE
350
79
  3
CMLEADERSTYLE
350
78
  3
CTABLESTYLE
350
77
  0
XRECORD
  5
E75
102
{ACAD_REACTORS
330
E74
102
}
330
E74
100
AcDbXrecord
280
     1
 40
3088614.0
  1
\pxsm0.94;{\fRomanS|b0|i0;\H2.4000;PART#: WA72P36F1\P(DATA SUBJECT TO CHANGE WITHOUT NOTICE)\P \P\fRomanS|b0|i0;\H1.4400;THIS DRAWING IS PROPERTY OF HUBBELL INC. WIEGMANN\PALL INFORMATION IS PROPRIETARY AND NOT TO BE DUPLICATED\P}
  0
LAYOUT
  5
6B
102
{ACAD_REACTORS
330
62
102
}
330
62
100
AcDbPlotSettings
  1

  2

  4

  6

 40
0.0
 41
0.0
 42
0.0
 43
0.0
 44
0.0
 45
0.0
 46
0.0
 47
0.0
 48
0.0
 49
0.0
140
0.0
141
0.0
142
1.0
143
1.0
 70
   688
 72
     0
 73
     0
 74
     5
  7

 75
    16
147
1.0
 76
     0
 77
     2
 78
   300
148
0.0
149
0.0
100
AcDbLayout
  1
Layout1
 70
     1
 71
     1
 10
0.0
 20
0.0
 11
12.0
 21
9.0
 12
0.0
 22
0.0
 32
0.0
 14
0.0
 24
0.0
 34
0.0
 15
0.0
 25
0.0
 35
0.0
146
0.0
 13
0.0
 23
0.0
 33
0.0
 16
1.0
 26
0.0
 36
0.0
 17
0.0
 27
1.0
 37
0.0
 76
     0
330
68
  0
LAYOUT
  5
73
102
{ACAD_REACTORS
330
62
102
}
330
62
100
AcDbPlotSettings
  1

  2

  4

  6

 40
0.0
 41
0.0
 42
0.0
 43
0.0
 44
0.0
 45
0.0
 46
0.0
 47
0.0
 48
0.0
 49
0.0
140
0.0
141
0.0
142
1.0
143
1.0
 70
   688
 72
     0
 73
     0
 74
     5
  7

 75
    16
147
1.0
 76
     0
 77
     2
 78
   300
148
0.0
149
0.0
100
AcDbLayout
  1
Layout2
 70
     1
 71
     2
 10
0.0
 20
0.0
 11
12.0
 21
9.0
 12
0.0
 22
0.0
 32
0.0
 14
0.0
 24
0.0
 34
0.0
 15
0.0
 25
0.0
 35
0.0
146
0.0
 13
0.0
 23
0.0
 33
0.0
 16
1.0
 26
0.0
 36
0.0
 17
0.0
 27
1.0
 37
0.0
 76
     0
330
70
  0
LAYOUT
  5
6F
102
{ACAD_REACTORS
330
62
102
}
330
62
100
AcDbPlotSettings
  1

  2

  4

  6

 40
0.0
 41
0.0
 42
0.0
 43
0.0
 44
0.0
 45
0.0
 46
0.0
 47
0.0
 48
0.0
 49
0.0
140
0.0
141
0.0
142
1.0
143
1.0
 70
  1712
 72
     0
 73
     0
 74
     0
  7

 75
     0
147
1.0
 76
     0
 77
     2
 78
   300
148
0.0
149
0.0
100
AcDbLayout
  1
Model
 70
     1
 71
     0
 10
0.0
 20
0.0
 11
12.0
 21
9.0
 12
0.0
 22
0.0
 32
0.0
 14
0.0
 24
0.0
 34
0.0
 15
0.0
 25
0.0
 35
0.0
146
0.0
 13
0.0
 23
0.0
 33
0.0
 16
1.0
 26
0.0
 36
0.0
 17
0.0
 27
1.0
 37
0.0
 76
     0
330
6C
  0
MATERIAL
  5
19
102
{ACAD_XDICTIONARY
360
1A
102
}
102
{ACAD_REACTORS
330
10
102
}
330
10
100
AcDbMaterial
  1
ByBlock
 72
     0
 43
0.0208333333333333
 43
0.0
 43
0.0
 43
0.0
 43
0.0
 43
0.0208333333333333
 43
0.0
 43
0.0
 43
0.0
 43
0.0
 43
1.0
 43
0.0
 43
0.0
 43
0.0
 43
0.0
 43
1.0
 77
     0
 47
0.0208333333333333
 47
0.0
 47
0.0
 47
0.0
 47
0.0
 47
0.0208333333333333
 47
0.0
 47
0.0
 47
0.0
 47
0.0
 47
1.0
 47
0.0
 47
0.0
 47
0.0
 47
0.0
 47
1.0
171
     0
 49
0.0208333333333333
 49
0.0
 49
0.0
 49
0.0
 49
0.0
 49
0.0208333333333333
 49
0.0
 49
0.0
 49
0.0
 49
0.0
 49
1.0
 49
0.0
 49
0.0
 49
0.0
 49
0.0
 49
1.0
175
     0
142
0.0208333333333333
142
0.0
142
0.0
142
0.0
142
0.0
142
0.0208333333333333
142
0.0
142
0.0
142
0.0
142
0.0
142
1.0
142
0.0
142
0.0
142
0.0
142
0.0
142
1.0
179
     0
144
0.0208333333333333
144
0.0
144
0.0
144
0.0
144
0.0
144
0.0208333333333333
144
0.0
144
0.0
144
0.0
144
0.0
144
1.0
144
0.0
144
0.0
144
0.0
144
0.0
144
1.0
147
0.0208333333333333
147
0.0
147
0.0
147
0.0
147
0.0
147
0.0208333333333333
147
0.0
147
0.0
147
0.0
147
0.0
147
1.0
147
0.0
147
0.0
147
0.0
147
0.0
147
1.0
  0
MATERIAL
  5
11
102
{ACAD_XDICTIONARY
360
12
102
}
102
{ACAD_REACTORS
330
10
102
}
330
10
100
AcDbMaterial
  1
ByLayer
 72
     0
 43
0.0208333333333333
 43
0.0
 43
0.0
 43
0.0
 43
0.0
 43
0.0208333333333333
 43
0.0
 43
0.0
 43
0.0
 43
0.0
 43
1.0
 43
0.0
 43
0.0
 43
0.0
 43
0.0
 43
1.0
 77
     0
 47
0.0208333333333333
 47
0.0
 47
0.0
 47
0.0
 47
0.0
 47
0.0208333333333333
 47
0.0
 47
0.0
 47
0.0
 47
0.0
 47
1.0
 47
0.0
 47
0.0
 47
0.0
 47
0.0
 47
1.0
171
     0
 49
0.0208333333333333
 49
0.0
 49
0.0
 49
0.0
 49
0.0
 49
0.0208333333333333
 49
0.0
 49
0.0
 49
0.0
 49
0.0
 49
1.0
 49
0.0
 49
0.0
 49
0.0
 49
0.0
 49
1.0
175
     0
142
0.0208333333333333
142
0.0
142
0.0
142
0.0
142
0.0
142
0.0208333333333333
142
0.0
142
0.0
142
0.0
142
0.0
142
1.0
142
0.0
142
0.0
142
0.0
142
0.0
142
1.0
179
     0
144
0.0208333333333333
144
0.0
144
0.0
144
0.0
144
0.0
144
0.0208333333333333
144
0.0
144
0.0
144
0.0
144
0.0
144
1.0
144
0.0
144
0.0
144
0.0
144
0.0
144
1.0
147
0.0208333333333333
147
0.0
147
0.0
147
0.0
147
0.0
147
0.0208333333333333
147
0.0
147
0.0
147
0.0
147
0.0
147
1.0
147
0.0
147
0.0
147
0.0
147
0.0
147
1.0
  0
MATERIAL
  5
21
102
{ACAD_XDICTIONARY
360
22
102
}
102
{ACAD_REACTORS
330
10
102
}
330
10
100
AcDbMaterial
  1
Global
 72
     0
 43
0.0208333333333333
 43
0.0
 43
0.0
 43
0.0
 43
0.0
 43
0.0208333333333333
 43
0.0
 43
0.0
 43
0.0
 43
0.0
 43
1.0
 43
0.0
 43
0.0
 43
0.0
 43
0.0
 43
1.0
 77
     0
 47
0.0208333333333333
 47
0.0
 47
0.0
 47
0.0
 47
0.0
 47
0.0208333333333333
 47
0.0
 47
0.0
 47
0.0
 47
0.0
 47
1.0
 47
0.0
 47
0.0
 47
0.0
 47
0.0
 47
1.0
171
     0
 49
0.0208333333333333
 49
0.0
 49
0.0
 49
0.0
 49
0.0
 49
0.0208333333333333
 49
0.0
 49
0.0
 49
0.0
 49
0.0
 49
1.0
 49
0.0
 49
0.0
 49
0.0
 49
0.0
 49
1.0
175
     0
142
0.0208333333333333
142
0.0
142
0.0
142
0.0
142
0.0
142
0.0208333333333333
142
0.0
142
0.0
142
0.0
142
0.0
142
1.0
142
0.0
142
0.0
142
0.0
142
0.0
142
1.0
179
     0
144
0.0208333333333333
144
0.0
144
0.0
144
0.0
144
0.0
144
0.0208333333333333
144
0.0
144
0.0
144
0.0
144
0.0
144
1.0
144
0.0
144
0.0
144
0.0
144
0.0
144
1.0
147
0.0208333333333333
147
0.0
147
0.0
147
0.0
147
0.0
147
0.0208333333333333
147
0.0
147
0.0
147
0.0
147
0.0
147
1.0
147
0.0
147
0.0
147
0.0
147
0.0
147
1.0
  0
MLEADERSTYLE
  5
67
102
{ACAD_XDICTIONARY
360
E72
102
}
102
{ACAD_REACTORS
330
66
102
}
330
66
100
AcDbMLeaderStyle
179
     2
170
     2
171
     1
172
     0
 90
        2
 40
0.0
 41
0.0
173
     1
 91
-1056964608
340
5B
 92
       -2
290
     1
 42
0.09
291
     1
 43
0.36
  3
Standard
 44
0.18
300

342
55
174
     1
178
     6
175
     1
176
     0
 93
-1056964608
 45
0.18
292
     0
297
     0
 46
0.18
 94
-1056964608
 47
1.0
 49
1.0
140
1.0
293
     1
141
0.0
294
     1
177
     0
142
1.0
295
     0
296
     0
143
0.125
271
     0
272
     9
273
     9
  0
MLINESTYLE
  5
60
102
{ACAD_REACTORS
330
5F
102
}
330
5F
100
AcDbMlineStyle
  2
STANDARD
 70
     0
  3

 62
   256
 51
90.0
 52
90.0
 71
     2
 49
0.5
 62
   256
  6
BYLAYER
 49
-0.5
 62
   256
  6
BYLAYER
  0
ACDBPLACEHOLDER
  5
F
102
{ACAD_REACTORS
330
E
102
}
330
E
  0
SCALE
  5
43
102
{ACAD_REACTORS
330
42
102
}
330
42
100
AcDbScale
 70
     0
300
1:1
140
1.0
141
1.0
290
     1
  0
SCALE
  5
44
102
{ACAD_REACTORS
330
42
102
}
330
42
100
AcDbScale
 70
     0
300
1/128" = 1'-0"
140
0.0078125
141
12.0
290
     0
  0
SCALE
  5
45
102
{ACAD_REACTORS
330
42
102
}
330
42
100
AcDbScale
 70
     0
300
1/64" = 1'-0"
140
0.015625
141
12.0
290
     0
  0
SCALE
  5
46
102
{ACAD_REACTORS
330
42
102
}
330
42
100
AcDbScale
 70
     0
300
1/32" = 1'-0"
140
0.03125
141
12.0
290
     0
  0
SCALE
  5
47
102
{ACAD_REACTORS
330
42
102
}
330
42
100
AcDbScale
 70
     0
300
1/16" = 1'-0"
140
0.0625
141
12.0
290
     0
  0
SCALE
  5
48
102
{ACAD_REACTORS
330
42
102
}
330
42
100
AcDbScale
 70
     0
300
3/32" = 1'-0"
140
0.09375
141
12.0
290
     0
  0
SCALE
  5
49
102
{ACAD_REACTORS
330
42
102
}
330
42
100
AcDbScale
 70
     0
300
1/8" = 1'-0"
140
0.125
141
12.0
290
     0
  0
SCALE
  5
4A
102
{ACAD_REACTORS
330
42
102
}
330
42
100
AcDbScale
 70
     0
300
3/16" = 1'-0"
140
0.1875
141
12.0
290
     0
  0
SCALE
  5
4B
102
{ACAD_REACTORS
330
42
102
}
330
42
100
AcDbScale
 70
     0
300
1/4" = 1'-0"
140
0.25
141
12.0
290
     0
  0
SCALE
  5
4C
102
{ACAD_REACTORS
330
42
102
}
330
42
100
AcDbScale
 70
     0
300
3/8" = 1'-0"
140
0.375
141
12.0
290
     0
  0
SCALE
  5
4D
102
{ACAD_REACTORS
330
42
102
}
330
42
100
AcDbScale
 70
     0
300
1/2" = 1'-0"
140
0.5
141
12.0
290
     0
  0
SCALE
  5
4E
102
{ACAD_REACTORS
330
42
102
}
330
42
100
AcDbScale
 70
     0
300
3/4" = 1'-0"
140
0.75
141
12.0
290
     0
  0
SCALE
  5
4F
102
{ACAD_REACTORS
330
42
102
}
330
42
100
AcDbScale
 70
     0
300
1" = 1'-0"
140
1.0
141
12.0
290
     0
  0
SCALE
  5
50
102
{ACAD_REACTORS
330
42
102
}
330
42
100
AcDbScale
 70
     0
300
1-1/2" = 1'-0"
140
1.5
141
12.0
290
     0
  0
SCALE
  5
51
102
{ACAD_REACTORS
330
42
102
}
330
42
100
AcDbScale
 70
     0
300
3" = 1'-0"
140
3.0
141
12.0
290
     0
  0
SCALE
  5
52
102
{ACAD_REACTORS
330
42
102
}
330
42
100
AcDbScale
 70
     0
300
6" = 1'-0"
140
6.0
141
12.0
290
     0
  0
SCALE
  5
53
102
{ACAD_REACTORS
330
42
102
}
330
42
100
AcDbScale
 70
     0
300
1'-0" = 1'-0"
140
12.0
141
12.0
290
     0
  0
TABLESTYLE
  5
65
102
{ACAD_XDICTIONARY
360
E70
102
}
102
{ACAD_REACTORS
330
64
102
}
330
64
100
AcDbTableStyle
280
     0
  3
Standard
 70
     0
 71
     0
 40
0.06
 41
0.06
280
     0
281
     0
  7
Standard
140
0.18
170
     2
 62
     0
 63
     7
283
     0
 90
      512
 91
        0
  1

274
    -2
284
     1
 64
     0
275
    -2
285
     1
 65
     0
276
    -2
286
     1
 66
     0
277
    -2
287
     1
 67
     0
278
    -2
288
     1
 68
     0
279
    -2
289
     1
 69
     0
  7
Standard
140
0.25
170
     5
 62
     0
 63
     7
283
     0
 90
      512
 91
        0
  1

274
    -2
284
     1
 64
     0
275
    -2
285
     1
 65
     0
276
    -2
286
     1
 66
     0
277
    -2
287
     1
 67
     0
278
    -2
288
     1
 68
     0
279
    -2
289
     1
 69
     0
  7
Standard
140
0.18
170
     5
 62
     0
 63
     7
283
     0
 90
      512
 91
        0
  1

274
    -2
284
     1
 64
     0
275
    -2
285
     1
 65
     0
276
    -2
286
     1
 66
     0
277
    -2
287
     1
 67
     0
278
    -2
288
     1
 68
     0
279
    -2
289
     1
 69
     0
  0
VISUALSTYLE
  5
2F
102
{ACAD_REACTORS
330
29
102
}
330
29
100
AcDbVisualStyle
  2
2dWireframe
 70
     4
177
     2
291
     0
 71
     0
176
     1
 72
     2
176
     1
 73
     0
176
     1
 90
        0
176
     1
 40
0.6
176
     1
 41
30.0
176
     1
 63
     7
421
 16777215
176
     1
 74
     1
176
     1
 91
        4
176
     1
 64
     7
176
     1
 65
   257
176
     1
 75
     1
176
     1
175
     1
176
     1
 42
1.0
176
     1
 92
        0
176
     1
 66
   257
176
     1
 43
1.0
176
     1
 76
     1
176
     1
 77
     6
176
     1
 78
     2
176
     1
 67
     7
176
     1
 79
     5
176
     1
170
     0
176
     1
171
     0
176
     1
290
     0
176
     1
 93
        1
176
     1
 44
0.0
176
     1
173
     0
176
     1
  0
VISUALSTYLE
  5
2E
102
{ACAD_REACTORS
330
29
102
}
330
29
100
AcDbVisualStyle
  2
Basic
 70
     7
177
     2
291
     1
 71
     1
176
     1
 72
     0
176
     1
 73
     1
176
     1
 90
        0
176
     1
 40
0.6
176
     1
 41
30.0
176
     1
 63
     7
421
 16777215
176
     1
 74
     0
176
     1
 91
        4
176
     1
 64
     7
176
     1
 65
   257
176
     1
 75
     1
176
     1
175
     1
176
     1
 42
1.0
176
     1
 92
        8
176
     1
 66
     7
176
     1
 43
1.0
176
     1
 76
     1
176
     1
 77
     6
176
     1
 78
     2
176
     1
 67
     7
176
     1
 79
     5
176
     1
170
     0
176
     1
171
     0
176
     1
290
     0
176
     1
 93
        1
176
     1
 44
0.0
176
     1
173
     0
176
     1
  0
VISUALSTYLE
  5
35
102
{ACAD_REACTORS
330
29
102
}
330
29
100
AcDbVisualStyle
  2
Brighten
 70
    12
177
     2
291
     1
 71
     2
176
     1
 72
     2
176
     1
 73
     0
176
     1
 90
        0
176
     1
 40
0.6
176
     1
 41
30.0
176
     1
 63
     7
421
 16777215
176
     1
 74
     1
176
     1
 91
        4
176
     1
 64
     7
176
     1
 65
   257
176
     1
 75
     1
176
     1
175
     1
176
     1
 42
1.0
176
     1
 92
        8
176
     1
 66
     7
176
     1
 43
1.0
176
     1
 76
     1
176
     1
 77
     6
176
     1
 78
     2
176
     1
 67
     7
176
     1
 79
     5
176
     1
170
     0
176
     1
171
     0
176
     1
290
     0
176
     1
 93
        1
176
     1
 44
50.0
176
     1
173
     0
176
     1
  0
VISUALSTYLE
  5
39
102
{ACAD_REACTORS
330
29
102
}
330
29
100
AcDbVisualStyle
  2
ColorChange
 70
    16
177
     2
291
     1
 71
     2
176
     1
 72
     2
176
     1
 73
     3
176
     1
 90
        0
176
     1
 40
0.6
176
     1
 41
30.0
176
     1
 63
     8
421
  8421504
176
     1
 74
     1
176
     1
 91
        4
176
     1
 64
     7
176
     1
 65
   257
176
     1
 75
     1
176
     1
175
     1
176
     1
 42
1.0
176
     1
 92
        8
176
     1
 66
     8
424
  8421504
176
     1
 43
1.0
176
     1
 76
     1
176
     1
 77
     6
176
     1
 78
     2
176
     1
 67
     7
176
     1
 79
     5
176
     1
170
     0
176
     1
171
     0
176
     1
290
     0
176
     1
 93
        1
176
     1
 44
0.0
176
     1
173
     0
176
     1
  0
VISUALSTYLE
  5
32
102
{ACAD_REACTORS
330
29
102
}
330
29
100
AcDbVisualStyle
  2
Conceptual
 70
     9
177
     2
291
     0
 71
     3
176
     1
 72
     2
176
     1
 73
     0
176
     1
 90
        0
176
     1
 40
0.6
176
     1
 41
30.0
176
     1
 63
     7
421
 16777215
176
     1
 74
     2
176
     1
 91
        2
176
     1
 64
     7
176
     1
 65
   257
176
     1
 75
     1
176
     1
175
     1
176
     1
 42
179.0
176
     1
 92
        8
176
     1
 66
     7
176
     1
 43
1.0
176
     1
 76
     1
176
     1
 77
     6
176
     1
 78
     2
176
     1
 67
     7
176
     1
 79
     3
176
     1
170
     0
176
     1
171
     0
176
     1
290
     0
176
     1
 93
        1
176
     1
 44
0.0
176
     1
173
     0
176
     1
  0
VISUALSTYLE
  5
34
102
{ACAD_REACTORS
330
29
102
}
330
29
100
AcDbVisualStyle
  2
Dim
 70
    11
177
     2
291
     1
 71
     2
176
     1
 72
     2
176
     1
 73
     0
176
     1
 90
        0
176
     1
 40
0.6
176
     1
 41
30.0
176
     1
 63
     7
421
 16777215
176
     1
 74
     1
176
     1
 91
        4
176
     1
 64
     7
176
     1
 65
   257
176
     1
 75
     1
176
     1
175
     1
176
     1
 42
1.0
176
     1
 92
        8
176
     1
 66
     7
176
     1
 43
1.0
176
     1
 76
     1
176
     1
 77
     6
176
     1
 78
     2
176
     1
 67
     7
176
     1
 79
     5
176
     1
170
     0
176
     1
171
     0
176
     1
290
     0
176
     1
 93
        1
176
     1
 44
-50.0
176
     1
173
     0
176
     1
  0
VISUALSTYLE
  5
41
102
{ACAD_REACTORS
330
29
102
}
330
29
100
AcDbVisualStyle
  2
EdgeColorOff
 70
    22
177
     2
291
     1
 71
     2
176
     0
 72
     2
176
     0
 73
     0
176
     0
 90
        0
176
     0
 40
0.6
176
     0
 41
30.0
176
     0
 63
     7
421
 16777215
176
     0
 74
     1
176
     0
 91
        4
176
     0
 64
     7
176
     0
 65
   257
176
     0
 75
     1
176
     0
175
     1
176
     0
 42
1.0
176
     0
 92
        8
176
     2
 66
     7
176
     0
 43
1.0
176
     0
 76
     1
176
     0
 77
     6
176
     0
 78
     2
176
     0
 67
     7
176
     0
 79
     5
176
     0
170
     0
176
     0
171
     0
176
     0
290
     0
176
     0
 93
        1
176
     0
 44
0.0
176
     0
173
     0
176
     0
  0
VISUALSTYLE
  5
38
102
{ACAD_REACTORS
330
29
102
}
330
29
100
AcDbVisualStyle
  2
Facepattern
 70
    15
177
     2
291
     1
 71
     2
176
     1
 72
     2
176
     1
 73
     0
176
     1
 90
        0
176
     1
 40
0.6
176
     1
 41
30.0
176
     1
 63
     7
421
 16777215
176
     1
 74
     1
176
     1
 91
        4
176
     1
 64
     7
176
     1
 65
   257
176
     1
 75
     1
176
     1
175
     1
176
     1
 42
1.0
176
     1
 92
        8
176
     1
 66
     7
176
     1
 43
1.0
176
     1
 76
     1
176
     1
 77
     6
176
     1
 78
     2
176
     1
 67
     7
176
     1
 79
     5
176
     1
170
     0
176
     1
171
     0
176
     1
290
     0
176
     1
 93
        1
176
     1
 44
0.0
176
     1
173
     0
176
     1
  0
VISUALSTYLE
  5
2A
102
{ACAD_REACTORS
330
29
102
}
330
29
100
AcDbVisualStyle
  2
Flat
 70
     0
177
     2
291
     1
 71
     2
176
     1
 72
     1
176
     1
 73
     1
176
     1
 90
        2
176
     1
 40
0.6
176
     1
 41
30.0
176
     1
 63
     7
421
 16777215
176
     1
 74
     0
176
     1
 91
        0
176
     1
 64
     7
176
     1
 65
   257
176
     1
 75
     1
176
     1
175
     1
176
     1
 42
1.0
176
     1
 92
        8
176
     1
 66
     7
176
     1
 43
1.0
176
     1
 76
     1
176
     1
 77
     6
176
     1
 78
     2
176
     1
 67
     7
176
     1
 79
     5
176
     1
170
     0
176
     1
171
     0
176
     1
290
     0
176
     1
 93
       13
176
     1
 44
0.0
176
     1
173
     0
176
     1
  0
VISUALSTYLE
  5
2B
102
{ACAD_REACTORS
330
29
102
}
330
29
100
AcDbVisualStyle
  2
FlatWithEdges
 70
     1
177
     2
291
     1
 71
     2
176
     1
 72
     1
176
     1
 73
     1
176
     1
 90
        2
176
     1
 40
0.6
176
     1
 41
30.0
176
     1
 63
     7
421
 16777215
176
     1
 74
     1
176
     1
 91
        0
176
     1
 64
     7
176
     1
 65
   257
176
     1
 75
     1
176
     1
175
     1
176
     1
 42
1.0
176
     1
 92
        0
176
     1
 66
   257
176
     1
 43
1.0
176
     1
 76
     1
176
     1
 77
     6
176
     1
 78
     2
176
     1
 67
     7
176
     1
 79
     5
176
     1
170
     0
176
     1
171
     0
176
     1
290
     0
176
     1
 93
       13
176
     1
 44
0.0
176
     1
173
     0
176
     1
  0
VISUALSTYLE
  5
2C
102
{ACAD_REACTORS
330
29
102
}
330
29
100
AcDbVisualStyle
  2
Gouraud
 70
     2
177
     2
291
     1
 71
     2
176
     1
 72
     2
176
     1
 73
     1
176
     1
 90
        2
176
     1
 40
0.6
176
     1
 41
30.0
176
     1
 63
     7
421
 16777215
176
     1
 74
     0
176
     1
 91
        0
176
     1
 64
     7
176
     1
 65
   257
176
     1
 75
     1
176
     1
175
     1
176
     1
 42
1.0
176
     1
 92
        0
176
     1
 66
     7
176
     1
 43
1.0
176
     1
 76
     1
176
     1
 77
     6
176
     1
 78
     2
176
     1
 67
     7
176
     1
 79
     5
176
     1
170
     0
176
     1
171
     0
176
     1
290
     0
176
     1
 93
       13
176
     1
 44
0.0
176
     1
173
     0
176
     1
  0
VISUALSTYLE
  5
2D
102
{ACAD_REACTORS
330
29
102
}
330
29
100
AcDbVisualStyle
  2
GouraudWithEdges
 70
     3
177
     2
291
     1
 71
     2
176
     1
 72
     2
176
     1
 73
     1
176
     1
 90
        2
176
     1
 40
0.6
176
     1
 41
30.0
176
     1
 63
     7
421
 16777215
176
     1
 74
     1
176
     1
 91
        0
176
     1
 64
     7
176
     1
 65
   257
176
     1
 75
     1
176
     1
175
     1
176
     1
 42
1.0
176
     1
 92
        0
176
     1
 66
   257
176
     1
 43
1.0
176
     1
 76
     1
176
     1
 77
     6
176
     1
 78
     2
176
     1
 67
     7
176
     1
 79
     5
176
     1
170
     0
176
     1
171
     0
176
     1
290
     0
176
     1
 93
       13
176
     1
 44
0.0
176
     1
173
     0
176
     1
  0
VISUALSTYLE
  5
31
102
{ACAD_REACTORS
330
29
102
}
330
29
100
AcDbVisualStyle
  2
Hidden
 70
     6
177
     2
291
     0
 71
     1
176
     1
 72
     2
176
     1
 73
     2
176
     1
 90
        0
176
     1
 40
0.6
176
     1
 41
30.0
176
     1
 63
     7
421
 16777215
176
     1
 74
     2
176
     1
 91
        2
176
     1
 64
     7
176
     1
 65
   257
176
     1
 75
     2
176
     1
175
     1
176
     1
 42
40.0
176
     1
 92
        0
176
     1
 66
   257
176
     1
 43
1.0
176
     1
 76
     1
176
     1
 77
     6
176
     1
 78
     2
176
     1
 67
     7
176
     1
 79
     3
176
     1
170
     0
176
     1
171
     0
176
     1
290
     0
176
     1
 93
        1
176
     1
 44
0.0
176
     1
173
     0
176
     1
  0
VISUALSTYLE
  5
3F
102
{ACAD_REACTORS
330
29
102
}
330
29
100
AcDbVisualStyle
  2
JitterOff
 70
    20
177
     2
291
     1
 71
     2
176
     0
 72
     2
176
     0
 73
     0
176
     0
 90
        0
176
     0
 40
0.6
176
     0
 41
30.0
176
     0
 63
     7
421
 16777215
176
     0
 74
     1
176
     0
 91
        4
176
     0
 64
     7
176
     0
 65
   257
176
     0
 75
     1
176
     0
175
     1
176
     0
 42
1.0
176
     0
 92
       10
176
     2
 66
     7
176
     0
 43
1.0
176
     0
 76
     1
176
     0
 77
     6
176
     0
 78
     2
176
     0
 67
     7
176
     0
 79
     5
176
     0
170
     0
176
     0
171
     0
176
     0
290
     0
176
     0
 93
        1
176
     0
 44
0.0
176
     0
173
     0
176
     0
  0
VISUALSTYLE
  5
37
102
{ACAD_REACTORS
330
29
102
}
330
29
100
AcDbVisualStyle
  2
Linepattern
 70
    14
177
     2
291
     1
 71
     2
176
     1
 72
     2
176
     1
 73
     0
176
     1
 90
        0
176
     1
 40
0.6
176
     1
 41
30.0
176
     1
 63
     7
421
 16777215
176
     1
 74
     1
176
     1
 91
        4
176
     1
 64
     7
176
     1
 65
   257
176
     1
 75
     7
176
     1
175
     7
176
     1
 42
1.0
176
     1
 92
        8
176
     1
 66
     7
176
     1
 43
1.0
176
     1
 76
     1
176
     1
 77
     6
176
     1
 78
     2
176
     1
 67
     7
176
     1
 79
     5
176
     1
170
     0
176
     1
171
     0
176
     1
290
     0
176
     1
 93
        1
176
     1
 44
0.0
176
     1
173
     0
176
     1
  0
VISUALSTYLE
  5
40
102
{ACAD_REACTORS
330
29
102
}
330
29
100
AcDbVisualStyle
  2
OverhangOff
 70
    21
177
     2
291
     1
 71
     2
176
     0
 72
     2
176
     0
 73
     0
176
     0
 90
        0
176
     0
 40
0.6
176
     0
 41
30.0
176
     0
 63
     7
421
 16777215
176
     0
 74
     1
176
     0
 91
        4
176
     0
 64
     7
176
     0
 65
   257
176
     0
 75
     1
176
     0
175
     1
176
     0
 42
1.0
176
     0
 92
        9
176
     2
 66
     7
176
     0
 43
1.0
176
     0
 76
     1
176
     0
 77
     6
176
     0
 78
     2
176
     0
 67
     7
176
     0
 79
     5
176
     0
170
     0
176
     0
171
     0
176
     0
290
     0
176
     0
 93
        1
176
     0
 44
0.0
176
     0
173
     0
176
     0
  0
VISUALSTYLE
  5
33
102
{ACAD_REACTORS
330
29
102
}
330
29
100
AcDbVisualStyle
  2
Realistic
 70
     8
177
     2
291
     0
 71
     2
176
     1
 72
     3
176
     1
 73
     0
176
     1
 90
        2
176
     1
 40
0.6
176
     1
 41
30.0
176
     1
 63
     7
421
 16777215
176
     1
 74
     0
176
     1
 91
        0
176
     1
 64
     7
176
     1
 65
   257
176
     1
 75
     1
176
     1
175
     1
176
     1
 42
1.0
176
     1
 92
        8
176
     1
 66
   257
176
     1
 43
1.0
176
     1
 76
     1
176
     1
 77
     6
176
     1
 78
     2
176
     1
 67
     7
176
     1
 79
     3
176
     1
170
     0
176
     1
171
     0
176
     1
290
     0
176
     1
 93
       13
176
     1
 44
0.0
176
     1
173
     0
176
     1
  0
VISUALSTYLE
  5
3E
102
{ACAD_REACTORS
330
29
102
}
330
29
100
AcDbVisualStyle
  2
Shaded
 70
    27
177
     2
291
     0
 71
     2
176
     1
 72
     2
176
     1
 73
     1
176
     1
 90
        2
176
     1
 40
0.6
176
     1
 41
30.0
176
     1
 63
     7
421
 16777215
176
     1
 74
     0
176
     1
 91
        4
176
     1
 64
     7
176
     1
 65
   257
176
     1
 75
     1
176
     1
175
     1
176
     1
 42
1.0
176
     1
 92
        8
176
     1
 66
   257
176
     1
 43
1.0
176
     1
 76
     1
176
     1
 77
     6
176
     1
 78
     2
176
     1
 67
     8
425
  7895160
176
     1
 79
     3
176
     1
170
     0
176
     1
171
     0
176
     1
290
     0
176
     1
 93
        5
176
     1
 44
0.0
176
     1
173
     0
176
     1
  0
VISUALSTYLE
  5
3D
102
{ACAD_REACTORS
330
29
102
}
330
29
100
AcDbVisualStyle
  2
Shaded with edges
 70
    26
177
     2
291
     0
 71
     2
176
     1
 72
     2
176
     1
 73
     1
176
     1
 90
        2
176
     1
 40
0.6
176
     1
 41
30.0
176
     1
 63
     7
421
 16777215
176
     1
 74
     1
176
     1
 91
       10
176
     1
 64
     7
176
     1
 65
   257
176
     1
 75
     2
176
     1
175
     1
176
     1
 42
1.0
176
     1
 92
        8
176
     1
 66
   257
176
     1
 43
1.0
176
     1
 76
     1
176
     1
 77
     6
176
     1
 78
     2
176
     1
 67
     7
176
     1
 79
     3
176
     1
170
     0
176
     1
171
     0
176
     1
290
     0
176
     1
 93
        5
176
     1
 44
0.0
176
     1
173
     0
176
     1
  0
VISUALSTYLE
  5
3A
102
{ACAD_REACTORS
330
29
102
}
330
29
100
AcDbVisualStyle
  2
Shades of Gray
 70
    23
177
     2
291
     0
 71
     2
176
     1
 72
     2
176
     1
 73
     3
176
     1
 90
        0
176
     1
 40
0.6
176
     1
 41
30.0
176
     1
 63
     7
421
 16777215
176
     1
 74
     2
176
     1
 91
        2
176
     1
 64
     7
176
     1
 65
     7
176
     1
 75
     1
176
     1
175
     1
176
     1
 42
40.0
176
     1
 92
        8
176
     1
 66
     7
176
     1
 43
1.0
176
     1
 76
     1
176
     1
 77
     6
176
     1
 78
     2
176
     1
 67
     7
176
     1
 79
     3
176
     1
170
     0
176
     1
171
     0
176
     1
290
     0
176
     1
 93
        1
176
     1
 44
0.0
176
     1
173
     0
176
     1
  0
VISUALSTYLE
  5
3B
102
{ACAD_REACTORS
330
29
102
}
330
29
100
AcDbVisualStyle
  2
Sketchy
 70
    24
177
     2
291
     0
 71
     1
176
     1
 72
     2
176
     1
 73
     2
176
     1
 90
        0
176
     1
 40
0.6
176
     1
 41
30.0
176
     1
 63
     7
421
 16777215
176
     1
 74
     2
176
     1
 91
        2
176
     1
 64
     7
176
     1
 65
     7
176
     1
 75
     1
176
     1
175
     1
176
     1
 42
40.0
176
     1
 92
       11
176
     1
 66
     7
176
     1
 43
1.0
176
     1
 76
     1
176
     1
 77
     6
176
     1
 78
     2
176
     1
 67
     7
176
     1
 79
     6
176
     1
170
     0
176
     1
171
     0
176
     1
290
     0
176
     1
 93
        1
176
     1
 44
0.0
176
     1
173
     0
176
     1
  0
VISUALSTYLE
  5
36
102
{ACAD_REACTORS
330
29
102
}
330
29
100
AcDbVisualStyle
  2
Thicken
 70
    13
177
     2
291
     1
 71
     2
176
     1
 72
     2
176
     1
 73
     0
176
     1
 90
        0
176
     1
 40
0.6
176
     1
 41
30.0
176
     1
 63
     7
421
 16777215
176
     1
 74
     1
176
     1
 91
        4
176
     1
 64
     7
176
     1
 65
   257
176
     1
 75
     1
176
     1
175
     1
176
     1
 42
1.0
176
     1
 92
       12
176
     1
 66
     7
176
     1
 43
1.0
176
     1
 76
     1
176
     1
 77
     6
176
     1
 78
     2
176
     1
 67
     7
176
     1
 79
     5
176
     1
170
     0
176
     1
171
     0
176
     1
290
     0
176
     1
 93
        1
176
     1
 44
0.0
176
     1
173
     0
176
     1
  0
VISUALSTYLE
  5
30
102
{ACAD_REACTORS
330
29
102
}
330
29
100
AcDbVisualStyle
  2
Wireframe
 70
     5
177
     2
291
     0
 71
     0
176
     1
 72
     2
176
     1
 73
     0
176
     1
 90
        0
176
     1
 40
0.6
176
     1
 41
30.0
176
     1
 63
     7
421
 16777215
176
     1
 74
     1
176
     1
 91
        4
176
     1
 64
     7
176
     1
 65
   257
176
     1
 75
     1
176
     1
175
     1
176
     1
 42
1.0
176
     1
 92
        0
176
     1
 66
   257
176
     1
 43
1.0
176
     1
 76
     1
176
     1
 77
     6
176
     1
 78
     2
176
     1
 67
     7
176
     1
 79
     3
176
     1
170
     0
176
     1
171
     0
176
     1
290
     0
176
     1
 93
        1
176
     1
 44
0.0
176
     1
173
     0
176
     1
  0
VISUALSTYLE
  5
3C
102
{ACAD_REACTORS
330
29
102
}
330
29
100
AcDbVisualStyle
  2
X-Ray
 70
    25
177
     2
291
     0
 71
     2
176
     1
 72
     2
176
     1
 73
     1
176
     1
 90
        1
176
     1
 40
0.5
176
     1
 41
30.0
176
     1
 63
     7
421
 16777215
176
     1
 74
     1
176
     1
 91
        0
176
     1
 64
     7
176
     1
 65
   257
176
     1
 75
     1
176
     1
175
     1
176
     1
 42
1.0
176
     1
 92
        8
176
     1
 66
     7
176
     1
 43
1.0
176
     1
 76
     1
176
     1
 77
     6
176
     1
 78
     2
176
     1
 67
     7
176
     1
 79
     3
176
     1
170
     0
176
     1
171
     0
176
     1
290
     0
176
     1
 93
       13
176
     1
 44
0.0
176
     1
173
     0
176
     1
  0
DICTIONARYVAR
  5
79
102
{ACAD_REACTORS
330
76
102
}
330
76
100
DictionaryVariables
280
     0
  1
1:1
  0
DICTIONARYVAR
  5
78
102
{ACAD_REACTORS
330
76
102
}
330
76
100
DictionaryVariables
280
     0
  1
STANDARD
  0
DICTIONARYVAR
  5
77
102
{ACAD_REACTORS
330
76
102
}
330
76
100
DictionaryVariables
280
     0
  1
STANDARD
  0
DICTIONARY
  5
1A
330
19
100
AcDbDictionary
280
     1
281
     1
  3
BUMPTILE
360
1C
  3
DIFFUSETILE
360
1B
  3
OPACITYTILE
360
1F
  3
REFLECTIONTILE
360
1E
  3
REFRACTIONTILE
360
20
  3
SPECULARTILE
360
1D
  0
DICTIONARY
  5
12
330
11
100
AcDbDictionary
280
     1
281
     1
  3
BUMPTILE
360
14
  3
DIFFUSETILE
360
13
  3
FBXASSET
360
109
  3
OPACITYTILE
360
17
  3
REFLECTIONTILE
360
16
  3
REFRACTIONTILE
360
18
  3
SPECULARTILE
360
15
  0
DICTIONARY
  5
22
330
21
100
AcDbDictionary
280
     1
281
     1
  3
BUMPTILE
360
24
  3
DIFFUSETILE
360
23
  3
FBXASSET
360
BA
  3
OPACITYTILE
360
27
  3
REFLECTIONTILE
360
26
  3
REFRACTIONTILE
360
28
  3
SPECULARTILE
360
25
  0
DICTIONARY
  5
E72
330
67
100
AcDbDictionary
280
     1
281
     1
  3
ACAD_XREC_ROUNDTRIP
360
E73
  0
DICTIONARY
  5
E70
330
65
100
AcDbDictionary
280
     1
281
     1
  3
ACAD_ROUNDTRIP_2008_TABLESTYLE_CELLSTYLEMAP
360
E71
  0
XRECORD
  5
1C
102
{ACAD_REACTORS
330
1A
102
}
330
1A
100
AcDbXrecord
280
     1
270
     1
271
     1
  0
XRECORD
  5
1B
102
{ACAD_REACTORS
330
1A
102
}
330
1A
100
AcDbXrecord
280
     1
270
     1
271
     1
  0
XRECORD
  5
1F
102
{ACAD_REACTORS
330
1A
102
}
330
1A
100
AcDbXrecord
280
     1
270
     1
271
     1
  0
XRECORD
  5
1E
102
{ACAD_REACTORS
330
1A
102
}
330
1A
100
AcDbXrecord
280
     1
270
     1
271
     1
  0
XRECORD
  5
20
102
{ACAD_REACTORS
330
1A
102
}
330
1A
100
AcDbXrecord
280
     1
270
     1
271
     1
  0
XRECORD
  5
1D
102
{ACAD_REACTORS
330
1A
102
}
330
1A
100
AcDbXrecord
280
     1
270
     1
271
     1
  0
XRECORD
  5
14
102
{ACAD_REACTORS
330
12
102
}
330
12
100
AcDbXrecord
280
     1
270
     1
271
     1
  0
XRECORD
  5
13
102
{ACAD_REACTORS
330
12
102
}
330
12
100
AcDbXrecord
280
     1
270
     1
271
     1
  0
XRECORD
  5
109
102
{ACAD_REACTORS
330
12
102
}
330
12
100
AcDbXrecord
280
     1
 70
     1
 90
1959938040
 71
     1
  1
D7C537A2-849E-4982-A4CE-956F4EF3A6AD
311
504B03040A00000800008E8AD1423DEE336E79000000790000001B0000006175746F6465736B2D64657369676E2D7061636B6167652E786D6C3C3F786D6C2076657273696F6E3D22312E302220656E636F64696E673D227574662D3822203F3E3C666F726D6174733E3C666F726D61743E687474703A2F2F736368656D612E
311
6175746F6465736B2E636F6D2F64657369676E2D7061636B6167652F323030393C2F666F726D61743E3C2F666F726D6174733E504B03041400060808008E8AD142D486FD9CA0000000F4000000130000005B436F6E74656E745F54797065735D2E786D6C7D8EC10E82300C865F65E91D8A1E8C310C0EEA1BF002731658846E
311
D98AC1B77784ABF1D8FE5FBFBF75BBCE937A534CCEB38643598122B6FEE978D0B0485F9C41B54DDD7D022595594E1A469170414C76A4D9A4D207E29CF43ECE46F218070CC6BECC4078ACAA135ACF422C856C0E68EA1BF5669944DDD7BCDE7B1F8E415D77AECB980613C2E4AC91FC167A2B244592486606FC29C8FD7F045B9A
311
EF7053A7E60B504B03041400060808008E8AD142A4F8017EEC0000007C01000008000000636F72652E786D6C8D90416EC3201045AF82665BE180A993DAC244B1DD9CA01740405C94182C03558F5F9C3852BBEB6A467FFE9B197D7EFC9E6EE8CB2CC17AD7022D0820E394D7D68D2DA478C16F808E822FDEC75F36404E4EA685
311
5506C1C7C5A779939477D1B89855E7B5D94419828980D42D372D04F5692659C814B3235C8B59AAAB1C4D419F5D8653B21A3D8E589DF7D98B350B887736ECEB9A5578E8FA337EEDBB0E9FE8A9C3AC2FABBE3B0F7535547CB7C282473B3DEFABC5C8683488925086C91ED3C3073D342569CAFA85540D237CB7DAFF4069D6FF84
311
92759195DBBB0F2C80A0F991FB40F0DD9A452EF7A0725D73133F504B03041400060808008E8AD14255019EA25F0000007C00000007000000636E782E786D6C4DCB3B0E80201045D1AD90E915ED2CF8AC45050C11660C8261F98AB1B07AC9C97D42D718D865D3E909258CFD00CCE24AC6E326A164D74DC0B4128928FF326038
311
472BA13128B1252AC747C6BAB984FC68F0B87FE8960A5C09FE86CFB69FBA01504B03041400060808008E8AD14264AFDE5A69010000020300000C0000006662782F636F72652E786D6C8D52ED8E8230107C95A67F2F503E440F536A04CE27B817A8503922B4A4B4C4C7BFE5C3705E8C3124A599D9D99D1DA0875BDBA041E8BE
311
5632C1BEEB612464A1CA5A5609B6E6E27C627460542B65FE946124792B123CC298D14A2BDB2D50A1A411D2002A55291690F7BD3018150D5C12DC173FA2E52EB7062AFAABDBF1E2CA2BE1FA2ED050C7686F341840F390F1C4EC72BE5132E38C5A5B970B5B9730ADBED44263F615E6DB380E23274FB393B3C9D2D439FAC7D409
311
B320CAD2531E477944C92866D4D4EDDD5DA10537A2C42CF0FCD0F1B68EBFFBF677FBC0DB07F18717ED438F92B1FC4164BBF24D91ADA50983C5EE2CEB31F3C1C844FCDB162232A8E703F8218C923144784D093F060D8140C8869F9BFB1E5780065118A537C094CAAED4C01B2B60AA87A687929985CE5303D8EC699FE0459FD7
311
3DE003725981356EE07AB6669C4EE7A94B149DD0CE606E482ADDF26635375B5CCF75D05379A11AA5DF51936555B28449C6BF97FD02504B03041400060808008E8AD14221C2D9537E0000009D0000000B0000006662782F636E782E786D6C4DCCD10E82201886E15B61FF39A925011BE08AE23E5CA263223482D6E5A7CD838E
311
BEEDD9B757749FC5A3B74D2F178384E65003B2E11107172609258F9801EA944831E6BF1BA0D02F56C2C6A0C4946279EE34D8B12F3EAFEA5D9877D4ADBED4A621F87A620CB7674D313F128219A7ECC60DBB1B4AA052A2FA95D6DDC2EA0B504B03041400060808008E8AD14217694A542D01000014020000310000006662782F
311
43344341304631352D423338382D343643372D393235352D3839373844394638454637352F636F72652E786D6C8D515B6EC32010BC8AC557AA0A1BFCC411266AD3E604BD8063930425068B4795E377A91DA9FDCB0F8B66676647BB7C779F6EC9B7B44E19DD219A1294483D9851E97387823F6186929DE0D618FF878612DD4F
311
B2431146829FAD09F30A0D467BA93DA0DA8C72057BE7A447C970834F87DC7091539FF6C103C35DD3B91FAEFD59A6348536F00477DE42806419125F24F6E5FE8D1C6885DF0BC67059EF1BDCE6558559DBB08FF6C03E0F4DC5B3452878086A5CE56A8438EAA4A47DD6248A05F76A7AC41FACECBD1C91C8092D30A9316DBE68B3
311
CDC9366F5F49B52D08CF22FD9F28CCE393A2A0B42FF235EE227348509E2D0DC147138EB74718799F8DF5499CB77172784182A4102B671505C942850580675DAE9ECE1B0B0BDE5C8FC0A6B0A6685C978267F146507E0F0835DE53FC00504B03041400060808008E8AD1424EFE42F74F01000033030000300000006662782F43
311
344341304631352D423338382D343643372D393235352D3839373844394638454637352F636E782E786D6CD593CD6E022114855F85B06DE64FAD56C360D2459FA08B6E19B82A9581093F4D7DFB5E14AD1B175D764326E71ECEB9F9C2B0EDF768C817F8A09DED6957B79480954E69BBEF698ABBEA85922D67DEB97867A3C48A
311
117A9A65CAD9DEBB341549C14E24135135DA1E8BE821B8E4250494F34D629C140603C05609451807500A14B919F16B071E57417138917800F2F6FA41DCF0093206D6E414CE9ADCC1593E4BD39D89126944083D0DF200A3A8458A4E4138D64A445177F5B5EBC14EBF49245FB85626AF492EEF693E292F1BD5C8913538E42C44
311
8FF48A299E26A05C4C93D1524484DC9C8D170F6749DBB85C14AF46F01EDDDD72BE5860D879C659D4231487F4202228CA676D37AFDA65D5ADDEBBD566D66E66EBA7F679336F5993ED9C0DCE99720963C0BB89486723D84879C79A3C7E84AFF888D21E593B7FFA034804505A2F746E19FF994F737EDF88CBE35FC07F00504B03
311
041400060808008E8AD1421747EA43A505000081100000340000006662782F43344341304631352D423338382D343643372D393235352D3839373844394638454637352F6F626A656374732E786D6CAD57D96EDB3814FD1541F332F360CB5BD278A0A870ECA430DAB4458D16F360C0A0254AE1845A4052A9335F3F8722254B
311
8E9D78067DD1C2E5F2DE73CF5DE8BFDFA5DC79A242B23CBB7687FD81EBD02CCC239625D76EA9E2DE95EBBC0F7C91E7AAB5CC753292D26B570FBB819F88BC2CEC504463527275307A77F39723439A51D7093991F2DA95E1034D499F942A8FA87CEC4744917E12EFFAC3BE59D8159B08523C1C082D88A09982A618CF20C5314A
311
0DBBBF03D70B7C4FCF07BE7EDA55E3D3ABBCCA9EEEF92C938A64E18BC30EC48C8793C5EDE862DABB984CC6BDC9E568D8BBB9BB59F486EFC683F9E57C3E9DDD4E71B0540292AC2682C66EF001D80816FA9E990AFC92656A3CB24BAC833C419F98F6941B8C9CA1EF99358D75D6C863EA877996D1B0C20A6854F659D1112D6816
311
C1E78C4A68D64268D0FD1D6A1C5BD363FD6F8F6C0F9F87407B474B50AD7BFD6E6B9A6FFF8609F21C06094935030D96D650C3D5C11EE16D9E733BC7A49312450523DCE16C2B887876032CD54B02BF23463359E868D016B801BC60A6BB744118BDCDF3635AC625E79AC66E5045C106B14295AC3463FF50B1D7BE8D0C7482AF34
311
1BAEAC41EAB9A06E303514B93A609301D2893949E07298A9778E470786CE759C2E176EF0F16EBB5BE9D83D7E7821F2820AA5E9036AD58EABDF1A25ABD3F02CCFE90DEE812A7B50BE01F9CF08F5BD2AF09B60BBC96E624F51826432CE450ADF3803A737C063E00CABA7FE6E7DF95EB3B9EBBD5378C2D91AAA5F8067D786B62F
311
5B7006FE13089F8BB1356D15128EB471CF3200A449E2F01C43C8C3F176E7064B64396465EC223C18C264A8FB844FDFB3629028AA935AEF0C581EA4C533123460AB1809350CF9AD827B3FBD4867D5C176D929782F7E095D678BD5C755296212D27B1BD30B1AB38C2994B83D6FDA0A7530EF58F4489F7FE62282A12FF15EB5F1
311
4EED5112686BCC35F0499DD3F5CFFEE4CE0121F625B94E37FE1B27C0085D585BF2EF990C29E724A379599FFB6AFD40D93010EB60D74C6E0ACCBEB0803466E6200651A443C10A0D6253AD9AA4D93F61DDF7E56730D20D6E9E3F91E776F6DAEE736F98F35C6CB6CF1B93968E42FDA3CB6D8B81A7A580EE5590D4F16F41DF442C
311
8E4B89247804D71FCB79DB773A2D2045D4524DB44C603F828B084BDA5A2EAAB520A8A479B661A89B88BBA307B4E50352CB804AE0298D25E5F186715EA69B987154A34D4A8A1370FC7FFDB7655A6C489A97993A21BBA33AAA4357F70E7BE54FA2C207375855EFDE0D726F44A31364D0B5E408561DD72EDECD2FC6EF66A3DED5
311
647ADB9B4CAF46BDD9647EDB9B5E5CDE4D6EEFC6B3CBD9A2F693D124F0EB52D38E687809A5CD2F05B3EEFBBE44FCD824E006F744C9F507139EF5FBFBB28F5ED8F7B007F5B2D9388B9ED0F7D1E86D01FB9547052DD382D394668AE818BAD71FFC1B419FD151C68C2F5392D033A47CF9B03A30062367ECFBAAE39DFE3CD86B47
311
E73A208F0A510F65BACD08E3071B138364BFC8128B5FED93E66D0A4DFDABFFAC63D099CA9CB308793072129AA754211B9E5184444A25A8D7EEE9237BF73863F793E91015D9725A6BF240D0247389B000B5CA5075C79DDFD0D4E9BEEADA45B9ED3FE2613385EB8033D72E9A74C5422AFB5B1468DD0A55C2C1A576278FC69F64
311
0947AF6D3635FFCD2E8D4DA724374BCEE99FAC5D26855B0390460AF40D6888E09D4A99C0AF74B3F3E17F32BC56C7210A9FDB5235B6EC071A63AA6310A2C6287B5B4013F3688FDE21505F376BD8AFD6741039EB96F52A098CD49E2222A96E0A5A3FABD26CF1D54387E22CBF38052F13F8F27C493D4141E65207385804565899
311
0551A0EAFCCFF55791E3269B3A770C14707EDF5D5DFEB19EE7699A6766683DB3F76167F580DB6DB44672A0FA5A22D7A3C170B4AEAE03F686B2D91249FB24928F188067056B80EEB81FBC347746D42133D1ACF3B42B0E18BA5C38B6B04D20D4D2A59D5B3538683C32EA2086F49552474C7B41F1EA8DC0AB964205815E3EF817
311
504B03041400060800008E8AD142000000000000000000000000350000006662782F43344341304631352D423338382D343643372D393235352D3839373844394638454637352F76657274696365732E62696E504B03041400060808008E8AD142F270F1330600000004000000360000006662782F43344341304631352D42
311
3338382D343643372D393235352D3839373844394638454637352F747269616E676C65732E62696E636660600000504B03041400060800008E8AD142000000000000000000000000370000006662782F43344341304631352D423338382D343643372D393235352D3839373844394638454637352F61747472696275746573
311
2E62696E504B03041400060808008E8AD142D5987DFC8F00000041010000360000006662782F43344341304631352D423338382D343643372D393235352D3839373844394638454637352F6469726563746F72792E786D6C858F410EC2201045AF4266AF15DDB800BA74E7C21B903225242D6328188F2FA5C4183471359997
311
F9FF81E89FF3C41E1816475E02DF1F80A11FC8386F25A438EECEC07A250251FC3803E6F58C12560C4AD840E95E91C151A72936F496F35732D860FE635F62C8F2DA16B505C545B74125BAA2FA9E05D7CC053D063734D5C7665FD55B6B8D15D5E9BFEAFD8490FFA45E504B03041400060808008E8AD142B7532FE6FF000000A0
311
0100003B0000006662782F43344341304631352D423338382D343643372D393235352D3839373844394638454637352F7265736F75726365732F636F72652E786D6C8D504B6E833010BD0A9A6D65C01092828CA300CD097A01CB4CA89560237FAA1EBF2650A9DD7533337A1FCDD363E7AFF9917CA275CAE816689A43825A9A
311
51E9A985E06FE415923367D618FF4B06891633B6B0C2C0D9644D5876481AED51FB886A33E20E0AE7D043221FF168C1C90F9C452A828F0A774F1721EF62C294A6918E3ACE9CB73140B23D5927708BCE042BD1B16C63390B418DBB468DF1A7BA29B4C0DFCAE158D7E5810C5D7F2587BEEBC8855E3A52F645D577D7A1AE868A65
311
AB9933AFE69F8CD2A2F038022F725A92FC48E8E99D9E9A226F8AFA25AF9A3267D92AFF630ACBF84F5350DA97C51E77B339E0340679129C656B5F713DCB8C7BED967F03504B010214000A00000800008E8AD1423DEE336E79000000790000001B00000000000000000000000000000000006175746F6465736B2D6465736967
311
6E2D7061636B6167652E786D6C504B010214001400060808008E8AD142D486FD9CA0000000F40000001300000000000000000000000000B20000005B436F6E74656E745F54797065735D2E786D6C504B010214001400060808008E8AD142A4F8017EEC0000007C010000080000000000000000000000000083010000636F72
311
652E786D6C504B010214001400060808008E8AD14255019EA25F0000007C000000070000000000000000000000000095020000636E782E786D6C504B010214001400060808008E8AD14264AFDE5A69010000020300000C00000000000000000000000000190300006662782F636F72652E786D6C504B010214001400060808
311
008E8AD14221C2D9537E0000009D0000000B00000000000000000000000000AC0400006662782F636E782E786D6C504B010214001400060808008E8AD14217694A542D010000140200003100000000000000000000000000530500006662782F43344341304631352D423338382D343643372D393235352D38393738443946
311
38454637352F636F72652E786D6C504B010214001400060808008E8AD1424EFE42F74F010000330300003000000000000000000000000000CF0600006662782F43344341304631352D423338382D343643372D393235352D3839373844394638454637352F636E782E786D6C504B010214001400060808008E8AD1421747EA
311
43A50500008110000034000000000000000000000000006C0800006662782F43344341304631352D423338382D343643372D393235352D3839373844394638454637352F6F626A656374732E786D6C504B010214001400060800008E8AD1420000000000000000000000003500000000000000000000000000630E00006662
311
782F43344341304631352D423338382D343643372D393235352D3839373844394638454637352F76657274696365732E62696E504B010214001400060808008E8AD142F270F13306000000040000003600000000000000000000000000B60E00006662782F43344341304631352D423338382D343643372D393235352D3839
311
373844394638454637352F747269616E676C65732E62696E504B010214001400060800008E8AD1420000000000000000000000003700000000000000000000000000100F00006662782F43344341304631352D423338382D343643372D393235352D3839373844394638454637352F617474726962757465732E62696E504B
311
010214001400060808008E8AD142D5987DFC8F000000410100003600000000000000000000000000650F00006662782F43344341304631352D423338382D343643372D393235352D3839373844394638454637352F6469726563746F72792E786D6C504B010214001400060808008E8AD142B7532FE6FF000000A00100003B
311
00000000000000000000000000481000006662782F43344341304631352D423338382D343643372D393235352D3839373844394638454637352F7265736F75726365732F636F72652E786D6C504B0506000000000E000E0080040000A01100000000
310
504B03040A00000800008E8AD1423DEE336E79000000790000001B0000006175746F6465736B2D64657369676E2D7061636B6167652E786D6C3C3F786D6C2076657273696F6E3D22312E302220656E636F64696E673D227574662D3822203F3E3C666F726D6174733E3C666F726D61743E687474703A2F2F736368656D612E
310
6175746F6465736B2E636F6D2F64657369676E2D7061636B6167652F323030393C2F666F726D61743E3C2F666F726D6174733E504B03041400060808008E8AD142D486FD9CA0000000F4000000130000005B436F6E74656E745F54797065735D2E786D6C7D8EC10E82300C865F65E91D8A1E8C310C0EEA1BF002731658846E
310
D98AC1B77784ABF1D8FE5FBFBF75BBCE937A534CCEB38643598122B6FEE978D0B0485F9C41B54DDD7D022595594E1A469170414C76A4D9A4D207E29CF43ECE46F218070CC6BECC4078ACAA135ACF422C856C0E68EA1BF5669944DDD7BCDE7B1F8E415D77AECB980613C2E4AC91FC167A2B244592486606FC29C8FD7F045B9A
310
EF7053A7E60B504B03041400060808008E8AD142E23EC127ED0000007C01000008000000636F72652E786D6C8D90416EC3201045AF82665B61834913DBC244B6939CA0174098B828315806AA1EBF3871A476D7D58CFEFC3733FAFCF83DDDD1975EBC71B6019A1140DA2A37183B3610C31597808E822FCE855F3640564EBA81
310
5506C1C7C5C5799394B341DB9054EB06BD89D27B1D00A97B6A1AF0EA534F3293312487BF65B3543739EA8CBEBA04C76806F43C6286B4CF5C8D5E409CCBB26A4F97163372EEF1AEAF0ADCEE5987CB5D7939773DA3AC3BF17C85050F667ADD578B96410F200A4219267B4C0F1FF45017A42EAA37F25E33C2F3D5FE078AF3F04F
310
281A1B58B1BDFBC43C089A1E790C04CFD72C52790495EA9A9BF801504B03041400060808008E8AD14255019EA25F0000007C00000007000000636E782E786D6C4DCB3B0E80201045D1AD90E915ED2CF8AC45050C11660C8261F98AB1B07AC9C97D42D718D865D3E909258CFD00CCE24AC6E326A164D74DC0B4128928FF3260
310
38472BA13128B1252AC747C6BAB984FC68F0B87FE8960A5C09FE86CFB69FBA01504B03041400060808008E8AD14211D705ED68010000020300000C0000006662782F636F72652E786D6C8D52ED8E8320107C15C2DF8B82DA6B6D8334FD7C827B018AD433553008A68F7FEB47E3F5D234171324333BBBB3A36C7BAF2BD429DB
310
964667380A29464A4B9397BAC8B077D720C568CB9935C6FD2AC3488B5A65B88731678535BE992069B453DA01AA4DAE2650B4AD7218C90A2E196EE5B7AA4528BC838AF6163642DE44A1C228041AEA386B9D0503681CD29F985F2F7746469C33EFCB7C62CB1CA695D75259CC4F69BADE1DCFBB20A1A743B038ACE360B74CF641
310
BA48CFA7FD218992FD91915ECC992BEB873B6995702AC73CA65112D06510ADBEA2D526A69B78FD413F370965A42F7F12F926FFA7C897DA25F1647794B59847606420FE6C0B1139D48A0EFC10CE481F22BC86849F8386402064272ED5638F1B409D92CED80530B9F133D589CA2B984AD1F03032B2D07968009BBDEC13BFE9F3
310
BE077C40A10BB0261C5C2FDEF5D3D938758AA25136E8DC1D69636B51CDE6468BF3390F7A2997A632F63F6A32AD4AA63049FFF7F21F504B03041400060808008E8AD1428411564F7E0000009D0000000B0000006662782F636E782E786D6C4DCCD10E82201805E05761FF3DA964A11BE048F03D5CA273213482D6E387CD8BAE
310
CECEB7B3C3BACF66D1DB84D7EA1D87EA540232EEEEA7D52D1C529C7103A8132C781FFF6680DCB8190E3B83604BF0E979D064E631D998D5AEEE712021BA97FA46B06C870AD7ED59E18696B92A5D5F7B3A5C1495500856FC9E72EEC7E20B504B03041400060808008E8AD142A3E19F912B01000014020000310000006662782F
310
32324543414542322D413946312D343933442D383730322D4144453436433746354437412F636F72652E786D6C8D515B6EC32010BC8AC557AACA3660C74E224C94E671825EC00192A2C460F1A872FC2EB523B57FF9616198991DEDB2ED63B867DFCA796D4D87488151A68CB0529B6B8762B8E42B946D3973D6863F3494997E
310
501D4A30E2ECEA6C1C674858139409801A2BD50CF6DEAB803271874B87BCF852435FF43100C3DF8AB117B7FEAA0A52C037F038F3C141806C6A924EC4293DEE77C70F9AEFD62792D7EBEA90AF5A0CCFC3B16EF6ED69796877AC9C849CC5A8E52CD712E2E88B56EE559324E62CE8E1195F38D50725418F4995E32627ED276937
310
146FE8FA1D2F37156665A2FF13C551BE288ADA848ACE712799479CB072FAE04CDA78BE3FC3A8C7685DC852BF8557E20D715C40AC1A2F2BCACA890A0300CFA69E3D7DB00E06BCB89D815DCDC64DCD59997604E5778150D33EF90F504B03041400060808008E8AD14228598DE05601000033030000300000006662782F323245
310
43414542322D413946312D343933442D383730322D4144453436433746354437412F636E782E786D6CBD93CD6EC32010845F0571ADFC9F3A698489D4439FA0875E096C121A0C16E0AA79FB2E094973E9A152D50BB2668799D527CC369FA3211FE0837676A04D595302563AA5ED7EA073DC152B4A369C79E7E29D8D122B4618
310
689229677BEFE6294B0A7662361155A3ED318B1E829BBD848072BA498C93C26000D8624611C62D28058ADC8CF8B5038FABA0B83D917800F2F2FC46DCF61D640CAC4A299C55A983B374E6A63B1325D28810061AE40146518A393A05E1582A1145D994D7AE1F76FA4E22E9C2B572F69AA4F281A693F2BC51891C598543CE42F4
310
482F9BE26902CAC534192D4544C8D5D978F170366B1BFB45F66A04EFD1DDB5FD6A8561E71967518F901DD28388A0286FEBA62BEABE6896AFCD72DDD6EBF6E9A17E5C7735AB929DB3AD73265FC218F06E22D2D9083652DEB02A8D7FC2977D44698FAC9D3FFD022402C8AD173AB78CBFE4D3F4DD62F18F7CAAF3FB465C1EFF02
310
FE05504B03041400060808008E8AD1425DC48C8A660700009A1B0000340000006662782F32324543414542322D413946312D343933442D383730322D4144453436433746354437412F6F626A656374732E786D6CED59DD73A33812FF5728EEE5F6C1D8D84E26B9226C397632E5DACBEED4FA666A1F5C45C920135D84A02491
310
89EFAFBFD607188849F04EF66D1F6C4048ADEE5F7FAA097E7EC9A8F38CB92039BB717D6FE23A98C57942587AE396723FBA729D9FC380E7B96C4C731D86327CE3AA61370C529E97851D4AF01E95547646EF6FFF70448C19769D9822216E5C113FE20C79A8947982C593972089BC74FFE2F99E99D8269B72543C768816886326
310
8153186740C5314CF9EDC7893B0E83B17A1F06EADFCE9A0D9A35EF9F35D652B7B9244C48C4E2572C75C8CC06B134F3E7ABBBE9C5F5E8623E9F8DE697537F747B7FBB1AF99F6693E5E57279BDB8BB06F676794EAD4C092E304B407F0737F483B17A538B6E1138C5759C3386630D2440A5C5EA122458C0560DF826ED475F49D4
310
78AD256C3CCFD57BCB426378D6A6D2376B18102DBA2088DDAE92B8BA36E5CB77FF05C1C510A3E4024BE056480EDAB5F070F00A379C0463331A06BBA32E887032243127883A94EC38E2A01498AAA684815960C928E7E040CA511268CD99D76DDB02CF7CDF754E71B92F29559EE186DAB122703F2C85E68CFC0FF323F74D6480
310
2790B6244C5E592EE5A1C06E781D8CF56018A8CB6C6A5F1A209D3D45A9D08898B71D4197CAF5D72B37FCE57EF7B251E1E0F4E605CF0BCCA5323AA547CD1718B2BD2A94ECB6FE20CDA905208C01D5AE3C82F23B20FF2B448F232BA0374E5EE62F733B5772C4C43EE719E8C69938A309FC4D1C5FFFABFBC65D30AE17B7B5D787
310
27B8A982EAEAC7F16CCBA0B1B2FC37E00C836730F89CCFECAB4D8C28D8F303610090321287E63004A17DBF7B71C335044E08F4B00AD1D0079181DD67B80DC696CC512B957B59AF6380A8DD63364449009BB64860A3474F9F217B70121FD5D414B10FDE8B0F31D7C56AF3CBA6E47B14E307EBD32BBC278C48C89AA7196A61DE
310
92E8091FBEE73C01415FE3BD69E29DD9AD04A0AD3057C0A71508EAE1B8736B8318D6A5B90A37C13B3B80102A5737E83F1011634A11C37959ED5B473765A8B5C7DB9AC10DA706E2D9B463C21C3F13555580D31C67B41885BC1F73522810DDF0B391AC0E9A5E8F745FD7BF8245D6F37B66AD19845E86E87F74D03A8143CBB22B
310
A42D10B5C0BB63388F739AF36877884CA473A1960036DADEF2AD451462BD5192A2021EA4FDAE0A29A991364AC87E5F0A88AB2758FCB65E36CD61E2CDFC0BA7F9DF71C639445BF05DC4ADDF75F6884886521CED51D2B75D73B79AB6D0247B4873BCA720177926F21021194D129C9E03CD59C4AF3F947A4A732108C302F2D549
310
F09B684C3C0824469B15CB4AAB1DA08988322C113D070145A6075C9D76748D1B43E9F03E8FB5F5BEA5B126D1BFC82238825A32671181521472C8BB8CFBDE05C49036BA06E50EBE606D156D2D062DA184880FD1774CD247790EEA867C0FEE311C494A19E5058AC1AC07907DE52B4AA91DDE77287E52F9238A4BFA51062230DD
310
4784D2328BE047189C3C86B8761D98DE44A141DCC43E893328CA902CF9904D2E2F26AFF631354337043636DA130A613BCA50D1837A2B20EA7AC4A9C1B7D47B94BA2BB32242595EB24186E2CDBADE64C977D5AAC80EE457958A503656842DC130204CD659B58AD960EA3AB0821BE940758804CA0A6A4E61EF241EBFF6264DB9
310
77036EFDF46337C8A0F0EBD15E33A2CE2B182C8FADC2407C47327E74C38DBE8E6EA1FE4E70724CF555ADD9AC00013115C94B4EAC8ABEAEA1BCB1359A1B3E2029B69F4DD6ADAE5FD71E743F8231AC81DAA55EB85640679849A42A930775437F4710825B34CCF85AE5D473A82C9244578D88DE933E75B6CA88D6A619F18A47CC
310
F20C7E6C4B584CCB046F51229EA20749A30D51AC5B29BD8C5418BF29E06F9F371D78606480485F548187BF77D6DAD1A52A974E12918F65B6638840106C89961ADD78054BAD462A2DD75775A680BA0B0CCCAA78FEF7C9A2D98EF8FB64915AC3F8A193C5EDE1DFE8D0EC8B34D279ACECFAAC63409D9F14958F3806E8B6434DB5
310
CE2226995BF9AD33451014AB283FB81AAB828621D8C7F19FCEDA7D59D06CD7E1FFBCACEDBFAA38CECA2AADC9AA4B75A2725D3773D8EAD3F262F669311D5DCDAFEF46F3EBABE968315FDE8DAE2F2EEFE777F7B3C5E56255A3A91D350CEA60A673173C9BA0560DAB278B017465454E4902A7F9C44931C47C0967FA01ED739E61
310
01C9B3D9EC4E6C537EC0EA67D3E794684771C5C9238206311590D601A33296ED71E71FD09A9470D0BE71A169E43DC19FB54AD781CC73E342AB4092180B6F076D26D5D0D3C421E5EADC6F89013E88A52A259A45F573BD4A61D30AFFF5942169C0CAD5EA6140E15640F7ABD5A1D0BC599EE2B304AFD8719084DB5D29A15A33B2
310
1C076A61F43647F51BD928614F76EB1770DDB7C5F23D3DA785C8A04F066F1A81A13A9288A7BADFAD18B32C2D565FC6D06773D6BF39052D53D0E5704A238EC1984B555081158155589A059260AACB7F6DBFF01C3EF1648EAE8A9C7FBE5C5DFEB45DE659963333B45DC0A92C810F45CEE6113EFB245B281EB06AAE8BED74E24F
310
B7BAA96DFBECD10E09ECA9AA0806AA624209D23139B0CB570D2ADBBE1C2B5574A6AF578E0DA2D00C3076F4AAC76B3E7239E043EA738AF218EDE795B46FF6B5C77A2AD804878E74F87F504B03041400060800008E8AD142000000000000000000000000350000006662782F32324543414542322D413946312D343933442D38
310
3730322D4144453436433746354437412F76657274696365732E62696E504B03041400060808008E8AD142F270F1330600000004000000360000006662782F32324543414542322D413946312D343933442D383730322D4144453436433746354437412F747269616E676C65732E62696E636660600000504B030414000608
310
00008E8AD142000000000000000000000000370000006662782F32324543414542322D413946312D343933442D383730322D4144453436433746354437412F617474726962757465732E62696E504B03041400060808008E8AD142D5987DFC8F00000041010000360000006662782F32324543414542322D413946312D3439
310
33442D383730322D4144453436433746354437412F6469726563746F72792E786D6C858F410EC2201045AF4266AF15DDB800BA74E7C21B903225242D6328188F2FA5C4183471359997F9FF81E89FF3C41E1816475E02DF1F80A11FC8386F25A438EECEC07A250251FC3803E6F58C12560C4AD840E95E91C151A72936F496F3
310
5732D860FE635F62C8F2DA16B505C545B74125BAA2FA9E05D7CC053D063734D5C7665FD55B6B8D15D5E9BFEAFD8490FFA45E504B03041400060808008E8AD1425FF7A2E6FF000000A00100003B0000006662782F32324543414542322D413946312D343933442D383730322D4144453436433746354437412F7265736F7572
310
6365732F636F72652E786D6C8D50596EC23010BD4A34BF95133BA69020C788B09CA017B09C012C881D79A97AFC3A904AED5F7F66466FD13C3DB1FB1A1FC527FA609CED8095140AB4DA0DC65E3B48F1421A28765278E7E22F1914568DD8C10C831457EFD2B440DAD9883666D4BA0117508580110AFDC8470741DF7054A54A31
310
2BC2BD9C94BEAB2B96ACCC74D64911A2CF018AD7937982F4185CF21A83A85EAC14299961D19821FF3417831EE4A969DAFDF1DC124E4F07B23AB435D9AF794F9A55733EF507CE787F14D56C96229AF127A3F6A8220E206BCA38A16BC2361F6CB3ADE9B66EDFE8FB965351CDF23FA6340DFF34256323AF97B82F5B00C9729027
310
214535F795D7B3CCBCE76EE537504B010214000A00000800008E8AD1423DEE336E79000000790000001B00000000000000000000000000000000006175746F6465736B2D64657369676E2D7061636B6167652E786D6C504B010214001400060808008E8AD142D486FD9CA0000000F400000013000000000000000000000000
310
00B20000005B436F6E74656E745F54797065735D2E786D6C504B010214001400060808008E8AD142E23EC127ED0000007C010000080000000000000000000000000083010000636F72652E786D6C504B010214001400060808008E8AD14255019EA25F0000007C000000070000000000000000000000000096020000636E78
310
2E786D6C504B010214001400060808008E8AD14211D705ED68010000020300000C000000000000000000000000001A0300006662782F636F72652E786D6C504B010214001400060808008E8AD1428411564F7E0000009D0000000B00000000000000000000000000AC0400006662782F636E782E786D6C504B010214001400
310
060808008E8AD142A3E19F912B010000140200003100000000000000000000000000530500006662782F32324543414542322D413946312D343933442D383730322D4144453436433746354437412F636F72652E786D6C504B010214001400060808008E8AD14228598DE05601000033030000300000000000000000000000
310
0000CD0600006662782F32324543414542322D413946312D343933442D383730322D4144453436433746354437412F636E782E786D6C504B010214001400060808008E8AD1425DC48C8A660700009A1B00003400000000000000000000000000710800006662782F32324543414542322D413946312D343933442D38373032
310
2D4144453436433746354437412F6F626A656374732E786D6C504B010214001400060800008E8AD1420000000000000000000000003500000000000000000000000000291000006662782F32324543414542322D413946312D343933442D383730322D4144453436433746354437412F76657274696365732E62696E504B01
310
0214001400060808008E8AD142F270F133060000000400000036000000000000000000000000007C1000006662782F32324543414542322D413946312D343933442D383730322D4144453436433746354437412F747269616E676C65732E62696E504B010214001400060800008E8AD1420000000000000000000000003700
310
000000000000000000000000D61000006662782F32324543414542322D413946312D343933442D383730322D4144453436433746354437412F617474726962757465732E62696E504B010214001400060808008E8AD142D5987DFC8F0000004101000036000000000000000000000000002B1100006662782F323245434145
310
42322D413946312D343933442D383730322D4144453436433746354437412F6469726563746F72792E786D6C504B010214001400060808008E8AD1425FF7A2E6FF000000A00100003B000000000000000000000000000E1200006662782F32324543414542322D413946312D343933442D383730322D414445343643374635
310
4437412F7265736F75726365732F636F72652E786D6C504B0506000000000E000E0080040000661300000000
  0
XRECORD
  5
17
102
{ACAD_REACTORS
330
12
102
}
330
12
100
AcDbXrecord
280
     1
270
     1
271
     1
  0
XRECORD
  5
16
102
{ACAD_REACTORS
330
12
102
}
330
12
100
AcDbXrecord
280
     1
270
     1
271
     1
  0
XRECORD
  5
18
102
{ACAD_REACTORS
330
12
102
}
330
12
100
AcDbXrecord
280
     1
270
     1
271
     1
  0
XRECORD
  5
15
102
{ACAD_REACTORS
330
12
102
}
330
12
100
AcDbXrecord
280
     1
270
     1
271
     1
  0
XRECORD
  5
24
102
{ACAD_REACTORS
330
22
102
}
330
22
100
AcDbXrecord
280
     1
270
     1
271
     1
  0
XRECORD
  5
23
102
{ACAD_REACTORS
330
22
102
}
330
22
100
AcDbXrecord
280
     1
270
     1
271
     1
  0
XRECORD
  5
BA
102
{ACAD_REACTORS
330
22
102
}
330
22
100
AcDbXrecord
280
     1
 70
     1
 90
1959938040
 71
     1
  1
92DF3C71-134F-44E8-82E9-0446DABDB3B7
311
504B03040A00000800008D8AD1423DEE336E79000000790000001B0000006175746F6465736B2D64657369676E2D7061636B6167652E786D6C3C3F786D6C2076657273696F6E3D22312E302220656E636F64696E673D227574662D3822203F3E3C666F726D6174733E3C666F726D61743E687474703A2F2F736368656D612E
311
6175746F6465736B2E636F6D2F64657369676E2D7061636B6167652F323030393C2F666F726D61743E3C2F666F726D6174733E504B03041400060808008D8AD142D486FD9CA0000000F4000000130000005B436F6E74656E745F54797065735D2E786D6C7D8EC10E82300C865F65E91D8A1E8C310C0EEA1BF002731658846E
311
D98AC1B77784ABF1D8FE5FBFBF75BBCE937A534CCEB38643598122B6FEE978D0B0485F9C41B54DDD7D022595594E1A469170414C76A4D9A4D207E29CF43ECE46F218070CC6BECC4078ACAA135ACF422C856C0E68EA1BF5669944DDD7BCDE7B1F8E415D77AECB980613C2E4AC91FC167A2B244592486606FC29C8FD7F045B9A
311
EF7053A7E60B504B03041400060808008D8AD14265367197EC0000007C01000008000000636F72652E786D6C8D90DD6E842010855F8570DBA0FCAC5A0DB289B63E415F80006BC9AE60049A3E7E71D74DDABB5ECDE4CCF96626879FBF971BF8325BB0DEF590141802E394D7D6CD3D4CF1825E21380BBE791F7FD9207072313D
311
DC6528F8BCF9B41E92F22E1A17B3EABC3687284330110275CB4D0F83FA348B2C648AD911AEC52AD555CEA620CF2EC329590D1E47ACCEFBECC59A0D8AF7A96ED8304E686C86169D9AE90DB5ACA2681C493BB2A13A0DB4E6E50E0B1EEDF2BCAF3623A3D150504C18C23522CD07693A8A3B5ABFE0AA639897BBFD0F9456FD4F28
311
5917193DDE7D60010A921FB90F042FF72C72B90795EB9E9BF801504B03041400060808008D8AD14255019EA25F0000007C00000007000000636E782E786D6C4DCB3B0E80201045D1AD90E915ED2CF8AC45050C11660C8261F98AB1B07AC9C97D42D718D865D3E909258CFD00CCE24AC6E326A164D74DC0B4128928FF326038
311
472BA13128B1252AC747C6BAB984FC68F0B87FE8960A5C09FE86CFB69FBA01504B03041400060808008D8AD142C9DB482E68010000020300000C0000006662782F636F72652E786D6C8D525B6E833010BC8AE5DF0ACC238126328E046D4ED00B38C6A12860233F508EDFE511A5A9A2A84232D6CCCEEEEC003D5CFB0E8DD2D8
311
56AB02C76184915442D7AD6A0AECDD3978C7E8C0A8D1DAFD2AC348F15E16788231A38DD17E5821A19593CA01AA742D57905B2B1D46A2834B81ADF8963D0FB97750612FE1C0C58537328C43A0A18E51EB0C1840CB90E9C4EC7CBA52B2E08C7ADFD62BDBD630AD3DB7D260F679CCF2B4AC8E419597BB60931F3F825DBA4D82AA
311
8A77555A6E37659251328919756D7F73278CE44ED69825519C065116C4F9579CEF93689F646FD1769F46944CE50F223FD4FF14F956B93459ED2E328B590C4666E2CFB6109143968FE087304AA610E13527FC18340402213B7EEA6E7B5C001AA570DA6C80A9B5BF5323EFBC84A9119A1F4A16163ACF0D60B3A77D92177D5EF7
311
800FC85503D6B883EBC9BB693A5DA6AE510CD204A3BB22A54DCFBBBBB9C5E2FDBC0F7A2A17BAD3E63F6AB2AE4AD630C9F4F7B21F504B03041400060808008D8AD142248F151F7C0000009D0000000B0000006662782F636E782E786D6C4DCCD10A83201886E15B91FFDC527143410DDAE67DC4B2909986D3D8E5AF46073BFA
311
E0E1E355DD67096873F9ED53D4401B02C8C5671A7D9C35D4326101A8332AA754FE6E80E2B0380D078351734E753D6974D35043D935F8F83A914822A460777CE14460CE18C5D2B22B163D97C45A4B6FFD035AA3DA5F69DF236CBE504B03041400060808008D8AD142CEAE8D672B01000014020000310000006662782F303930
311
38393832442D353430382D343232312D394632362D3842343930464646314342452F636F72652E786D6C8D515B6EC32010BC0AE22B55850DC476EC0813296D7D825EC00192A2C460F1A872FC42ED48ED5F7E58343B333BB0EC709F6EE05B39AFADE921293004CA082BB5B9F43086336A213870E6AC0D7F68109871523DCC30
311
E4ECE26C9C574858139409093556AA151CBD570102714B971E7AF1A5A6B11863480C7F2DE6515CC78B2A4891DA89C7990F2E0500CB907C428E3BDC762D7D4775855B54514A5037D006B5C7AAC3C33090B7E3072B172167316AB9CAB54C71F4592BF7AC49167316F4F4882F9C1A839290534CB6083788EC3EC96E4FF19E36AF
311
B8DE6F312B33FD9F28CEF24951D4266CE91A779179C8092B970667D2C6D3ED1146DD67EB02C8F3365E8997F4AA0213D2D6A4E958B950D30724CFA65A3D7DB02E7DF0E67A4A6C522FC64DC559997794CAEF0253CDFBE43F504B03041400060808008D8AD14282376D424E01000033030000300000006662782F303930383938
311
32442D353430382D343232312D394632362D3842343930464646314342452F636E782E786D6CD593CD6E022114855F85B06DE64FEDD81806932EFA045D74CBC055A90C4CF869EADBF7A268DDB8E8B21B3239F770CECD17866DBF2743BEC007EDEC40BBBAA504AC744ADBFD4053DC552F946C39F3CEC53B1B25564C30D02C53
311
CEF6DEA5B9480A76229988AAD1F658440FC1252F21A09C6F12E3A4301800B64A28C2348252A0C8CD885F3BF0B80A8AE389C40390B7D70FE2C64F9031B026A770D6E40ECEF2599AEE4C944823421868900798442D52740AC2B156228ABAABAF5D0F76FA4D22F9C2B532794D72F940F34979D9A8468EACC12167217AA4574CF1
311
3403E5629E8D962222E4E66CBC78384BDAC67E55BC1AC17B7477FD72B5C2B0F38CB3A827280EE9414450942FDA6E59B57DD5ADDFBBF566D16E16FD53FBBC59B6ACC976CE46E74CB98431E0DD4CA4B3116CA4BC634D1E3FC2577C44698FAC9D3FFD01240228AD173AB78CFFCCA739BF6FC4E5F12FE03F504B03041400060808
311
008D8AD1429DE2BE23A505000080100000340000006662782F30393038393832442D353430382D343232312D394632362D3842343930464646314342452F6F626A656374732E786D6CAD57DB6EDB3810FD1541FBB2FBE08B6C374D168A8AD84E0AA3485BD468B10F060C4AA2146EA80B482A75F6EBF750A464C9B113EFA22F
311
96450D873367CE5CE87FD865DC79A242B222BF76BDE1D875681E1531CBD36BB752C9E0D2753E04BE280AD511739D9C64F4DAD5CB6EE0A7A2A84ABB14D384545C1DACDECDFF72644473EA3A1127525EBB327AA01919924A1531958FC39828324C93DDD01B1AC1BEDA5490F2E140694904CD152CC57A0E2D8E31CAEBBF8EDD51
311
E08FF4F7C0D7BF566A7A5A6A54FBD33F9FE552913C7A71D8819AA9375BDE4EDE5D0DDECD66D3C1EC62E20DE677F3E5C07B3F1D2F2E168BAB9BDB2B1C2C9580266B89A0891B7C04368245FEC87C0AFC8AE56A3AB122364023419F988E941B4C1CCF1F1999D63BEBE431F3A322CF69546305346AFFACEA9896348F117346252C
311
EB2034EEBF7A1AC7CEE7A97EB7477697CF43A0BBA3A3A8B1BD79762D2DC2BFE1823C87414252CD4083A575D47075BC47382C0A6EBF31E9644451C10877380B0511CF6E00512D12F83D359AC9426783F6C00D1005F3B94F17A4D1DB3C3F66655271AE69EC0675166C912B54C9DA32F60F157BEBBBC8C026C44AB3E1D23AA49E
311
4BEA0657862297076C32403A092729420E37F5CEE9E4C0D185CED3D5D20D3EDD85BBB5CEDDE38797A228A9509A3EA05613B8E6A951B2367967454E6F700F4CD983F20DC87F46AAEF4D41DC04DBCD76337B8A122497492132C4C6193B83317EC68E57FFEAFF9D7FFEA8DDDC8FDE293C116C0DD52FC0B3EF4337961D3803FF09
311
842FC4D4BAB68E0847D9B8673900D22471788125D4E124DCB9C10A550E5519BB080F3CB80C739FF0D71F59352814F5499D670E2C0FCAE219051AB0D58C841986FCD6C07D9C5E94B3FA602B760ADE77BF84AE37CBF5A775251212D17B9BD34B9AB09C29B4B83D6FBA06F530EF79F4489F7F162286A32FF15E77F1CEEC511268
311
6BCC35F06953D3F5CBFEE4DE0111F6A5852E37FE1B27C009DD583BFAEF998C28E724A745D59CFB6AFF40DB3010EB64D74C6E1BCCBEB18034E6CB410EA2494782951AC4B65BB5457378C2BBEFABCF6024E4791112BE170AF7A5372A7821B6E1F3D654A5A348FFE853DB4230D25AC0F63A479AF4B7986F63962495440D3C02EB
311
8FD5A21B3A5D1550211AAD265966701FB94584E56CA317CD5A1034D222DF32B44DA4DDD103BAFA81A82540ADF094C592F264CB38AFB26DC2389AD13623E50938FEBFFD6195955B921555AE4EE8EE998EE6D0B7BD475EF993A8E8C10DD6F5733047E98D69BC0F734F58B7922358F5427B3559DE4D17EFBD81379DDD0D66B3DB
311
CBC1E5E4F66A309ECD2E9637F3E57C3A7FDFC4C9280FFCA6D374131A514267F32BC16CF8BEAF903EB606B8C13D5172F3D16467F3FCBE1A6214F647D88376D96EBC899F30F6D1F86D057BC9A38A5659C969467345740ADDEB3FFC1BC198D133C6ACAF3292D233B47CF9B83E70062B67ECFBAAD39DFE3CD86B57173A218F2A51
311
0F5516E684F1838DA9417258E6A9C5AF8949FB347DA679D56F3630184C65C1598C32183B292D32AA500CCFE84122A312D4EB8EF4B1BD7A9CB1FBC90C888A849C36963C10CCC85C222D40AD2A52FD75E737CC747AACBA76D16D878FF8B195C275C0996B1733BA621195C310FD594F42B57270A93BC863EE2779CA316A9B4DED
311
7BBB4B63D3EBC8ADC839E393F5CB5470EB00CA4889B101F310A2531B13F8B56DF67BF49F1C6FCC7188C2DFB052AD2FFB85D699FA18A4A871CA5E1630C33CDAA37748D4D7DDF286B54C0F91B32E59AF92C0681D2822D2FAA2A0EDB326DD2CBF8E30A038AB2F4EC9AB14B13C5FD3405090B9D2090E16811556674914A8BAF873
311
F35514B8C866CE1D03059CDF7797177F6C16459615B959DADCD8EBB0B37EC0E536DEA038507D2B919BC9D89B6CEADB80BDA06C4322E990C4F2110B88AC602DD0BDF08397E6CA883E643EB472231D8A0386AE968E6D6C3328B574E9D6560D0EE68E9C3AC8217DA3D419D315285FBD108C6A51982030CA07FF02504B03041400
311
060800008D8AD142000000000000000000000000350000006662782F30393038393832442D353430382D343232312D394632362D3842343930464646314342452F76657274696365732E62696E504B03041400060808008D8AD142F270F1330600000004000000360000006662782F30393038393832442D353430382D3432
311
32312D394632362D3842343930464646314342452F747269616E676C65732E62696E636660600000504B03041400060800008D8AD142000000000000000000000000370000006662782F30393038393832442D353430382D343232312D394632362D3842343930464646314342452F617474726962757465732E62696E504B
311
03041400060808008D8AD142D5987DFC8F00000041010000360000006662782F30393038393832442D353430382D343232312D394632362D3842343930464646314342452F6469726563746F72792E786D6C858F410EC2201045AF4266AF15DDB800BA74E7C21B903225242D6328188F2FA5C4183471359997F9FF81E89FF3
311
C41E1816475E02DF1F80A11FC8386F25A438EECEC07A250251FC3803E6F58C12560C4AD840E95E91C151A72936F496F35732D860FE635F62C8F2DA16B505C545B74125BAA2FA9E05D7CC053D063734D5C7665FD55B6B8D15D5E9BFEAFD8490FFA45E504B03041400060808008D8AD1420DDC2CA6FE000000A00100003B0000
311
006662782F30393038393832442D353430382D343232312D394632362D3842343930464646314342452F7265736F75726365732F636F72652E786D6C8D504B6E833010BD0A9A6D65C010A020E348D0E404BD806526D44AB0913F558F5F13A8D4EEBA9919BD8FE6E9B1F3D7F2483ED13A65740F34CD21412DCDA4F4DC43F037
311
F20AC999336B8CFF2583448B057BD860E06CB626AC07248DF6A87D44B599F0008573E821918F78F4E0E4072E2215C14785BBA7AB907731634AD348471D67CEDB1820D99F6C13B845678295E858B6B39C85A0A643A3A6F853DD145AE0976BDD94C378216333B4E4D45CDF485B56051947DA8EE5509D86A266D966E6CCABE527
311
A3B4283C4EC08B9C9624AF096DDE69D3157957D42F79D59539CB36F91F5358A77F9A82D2BE2C8EB8BBCD01A731C893E02CDBFA8AEB5966DC5BB7FC1B504B010214000A00000800008D8AD1423DEE336E79000000790000001B00000000000000000000000000000000006175746F6465736B2D64657369676E2D7061636B61
311
67652E786D6C504B010214001400060808008D8AD142D486FD9CA0000000F40000001300000000000000000000000000B20000005B436F6E74656E745F54797065735D2E786D6C504B010214001400060808008D8AD14265367197EC0000007C010000080000000000000000000000000083010000636F72652E786D6C504B
311
010214001400060808008D8AD14255019EA25F0000007C000000070000000000000000000000000095020000636E782E786D6C504B010214001400060808008D8AD142C9DB482E68010000020300000C00000000000000000000000000190300006662782F636F72652E786D6C504B010214001400060808008D8AD142248F
311
151F7C0000009D0000000B00000000000000000000000000AB0400006662782F636E782E786D6C504B010214001400060808008D8AD142CEAE8D672B010000140200003100000000000000000000000000500500006662782F30393038393832442D353430382D343232312D394632362D3842343930464646314342452F63
311
6F72652E786D6C504B010214001400060808008D8AD14282376D424E010000330300003000000000000000000000000000CA0600006662782F30393038393832442D353430382D343232312D394632362D3842343930464646314342452F636E782E786D6C504B010214001400060808008D8AD1429DE2BE23A50500008010
311
00003400000000000000000000000000660800006662782F30393038393832442D353430382D343232312D394632362D3842343930464646314342452F6F626A656374732E786D6C504B010214001400060800008D8AD14200000000000000000000000035000000000000000000000000005D0E00006662782F3039303839
311
3832442D353430382D343232312D394632362D3842343930464646314342452F76657274696365732E62696E504B010214001400060808008D8AD142F270F13306000000040000003600000000000000000000000000B00E00006662782F30393038393832442D353430382D343232312D394632362D384234393046464631
311
4342452F747269616E676C65732E62696E504B010214001400060800008D8AD14200000000000000000000000037000000000000000000000000000A0F00006662782F30393038393832442D353430382D343232312D394632362D3842343930464646314342452F617474726962757465732E62696E504B01021400140006
311
0808008D8AD142D5987DFC8F0000004101000036000000000000000000000000005F0F00006662782F30393038393832442D353430382D343232312D394632362D3842343930464646314342452F6469726563746F72792E786D6C504B010214001400060808008D8AD1420DDC2CA6FE000000A00100003B00000000000000
311
000000000000421000006662782F30393038393832442D353430382D343232312D394632362D3842343930464646314342452F7265736F75726365732F636F72652E786D6C504B0506000000000E000E0080040000991100000000
310
504B03040A00000800008D8AD1423DEE336E79000000790000001B0000006175746F6465736B2D64657369676E2D7061636B6167652E786D6C3C3F786D6C2076657273696F6E3D22312E302220656E636F64696E673D227574662D3822203F3E3C666F726D6174733E3C666F726D61743E687474703A2F2F736368656D612E
310
6175746F6465736B2E636F6D2F64657369676E2D7061636B6167652F323030393C2F666F726D61743E3C2F666F726D6174733E504B03041400060808008D8AD142D486FD9CA0000000F4000000130000005B436F6E74656E745F54797065735D2E786D6C7D8EC10E82300C865F65E91D8A1E8C310C0EEA1BF002731658846E
310
D98AC1B77784ABF1D8FE5FBFBF75BBCE937A534CCEB38643598122B6FEE978D0B0485F9C41B54DDD7D022595594E1A469170414C76A4D9A4D207E29CF43ECE46F218070CC6BECC4078ACAA135ACF422C856C0E68EA1BF5669944DDD7BCDE7B1F8E415D77AECB980613C2E4AC91FC167A2B244592486606FC29C8FD7F045B9A
310
EF7053A7E60B504B03041400060808008D8AD1427357E8F9EC0000007C01000008000000636F72652E786D6C8D904D6EC3201085AF82665B61839DF84F982869EA13F402088883128365A0EAF18B13476A775DCDE8CDFB66468F1DBEA73BFAD28B37CEF6403302485BE994B1630F315C7003E8C0D9E25CF8650364C5A47B58
310
65E06C5C5C9C37493A1BB40D49B54EE94D14DEEB0048DE53D38397573D894CC4901CFE96CD42DEC4A833FAEA121CA351E879C4A8B4CF5C8C5E800FCDB9A4EF75813F86FD19EFAAA1C1CDB13AE1761876F5E9D8B4A46959BEC29C0533BDEECB458BA015F082D012930AD3FA93D65D41BAA27A23FBAE242C5FED7FA038AB7F42
310
D1D85016DBBB4FCC03A7E991C780B37CCD22954750A9AEB9F11F504B03041400060808008D8AD14255019EA25F0000007C00000007000000636E782E786D6C4DCB3B0E80201045D1AD90E915ED2CF8AC45050C11660C8261F98AB1B07AC9C97D42D718D865D3E909258CFD00CCE24AC6E326A164D74DC0B4128928FF326038
310
472BA13128B1252AC747C6BAB984FC68F0B87FE8960A5C09FE86CFB69FBA01504B03041400060808008D8AD1421951BE3969010000020300000C0000006662782F636F72652E786D6C8D52ED8E8230107C95A67F2F503E14D1941A3D8F27B817A850B946684969898F7FCB87E1BC1863484A33B3B33B3B40F7B7A646BD309D
310
D42AC3A11F602454A14BA9AA0C3B7BF1528CF68C1AADED9F328C146F44860718335A19EDDA192AB4B2425940952EC50CF2AE1316A3A2864B86BBE24734DCE7CE424577F55B5E5C7925FCD0071AEA18EDAC0103681A329C985DCE374A269C51E76439B3B28469F22285C12C4F4F71F8B989BCAF7C7DF256499E7AE921397ADB
310
3C5F6D8E87741BA45B4A0631A3563677778511DC8A12B32808632F48BC70F31D6E7651B08B928F60BD8B034A86F207916BCB37454E2A1B47B3DD49D66116829191F8B72D446451C77BF04318254388F01A137E0C1A0281902D3FD7F73DAE00F5A2B0DAAC8029B55BA89ED74EC0D4008D0F25130B9DC706B0D9D33ED18B3EAF
310
7BC007E4AA026BDCC2F5ECEC309D4E53E7285A61BCDEDE90D2A6E1F5626EB2B89CCBA0A7F242D7DABCA326F3AA640E930C7F2FFB05504B03041400060808008D8AD142D4771B8E7E0000009D0000000B0000006662782F636E782E786D6C4DCCD10A83201886E15B91FFDC5AA35A821ACDF5DF472C0BC974988E5DFE6A74B0
310
A30F1E3E5EDE7E564BDE3A6CC63B01457601A2DDD38FC6CD02529C6803A4953C781FFF6E40DCB06A010783E473F0E975D2A8A721D9B8AB356E3951D5D8DDF05E515632A4A5EA9032D557B441553076AD153E7AC825CF7FA57D8FB0FC02504B03041400060808008D8AD14227C94F372D01000014020000310000006662782F
310
43364641374642352D393439462D344341462D394345352D3846433139393236434644452F636F72652E786D6C8D515B6EC32010BC0AE2AB55850DB663C711264ADDF804BD00C1244589C1E251E5F885DA91DABFFCB068766676B44BF7F7E906BEA575CAE80E920C4320B530A3D2970E067F465B08F68C5A63FC1F1A049A4F
310
B28309868C5EAC09F30A09A3BDD43EA2DA8C7205B973D243206EF1D34127BEE4C4331E7C64B86B367371E51799912CB6238F51E76D0C009621E985ACAF874333BC6F505BB503AAFAC380DAFEB841DBA1276D5BD4FDF071A4F92264340435AE7235C638EAACA47DD6248919F56A7AC41756722F47C80A4C4A846B449A4FD2EC
310
0ABC2BEA37BCD99598E689FE4F14E6F1495150DA97C51A779139C808CD9706A3A309A7DB238CBCCFC67A90E6BD38295E21C319264555374D49F3851A17103DEB6AF574DED8B8E097EB29B2CBD5B8AE18CDD38D62F93D60ACE99EEC07504B03041400060808008D8AD142E490A2555501000033030000300000006662782F43
310
364641374642352D393439462D344341462D394345352D3846433139393236434644452F636E782E786D6CBD93CD6E022114855F85B06DE6DF8EC6309874D127E8A25B84AB52199800D3D4B7EF45D1BA71D1A4E9864CCE3D9C73F385619BAFD1904FF0413B3BD0A6AC29012B9DD2763FD039EE8A15251BCEBC73F1CE468915
310
230C34C994B3BD77F39425053B319B88AAD1F698450FC1CD5E424039DD24C6496130006C31A308E3169402456E46FCDA81C75550DC9E483C00797D79276EFB01320656A514CEAAD4C1593A73D39D8912694408030DF200A328C51C9D82702C9588A26CCA6BD7839D7E9248BA70AD9CBD26A97CA0E9A43C6F54224756E190B3
310
103DD2CBA6789A8072314D464B11117275365E3C9CCDDAC67E91BD1AC17B74776DBF5A61D879C659D4236487F4202228CADBBAE98ABA2F9AE55BB35CB7F5BAED9FEAE77557B32AD939DB3A67F2258C01EF26229D8D6023E50DABD2F811BEEC234A7B64EDFCE9172011406EBDD0B965FC259FA6EF168B7FE4539DDF37E2F2F8
310
17F06F504B03041400060808008D8AD1423B512B5162070000991B0000340000006662782F43364641374642352D393439462D344341462D394345352D3846433139393236434644452F6F626A656374732E786D6CED595B739B3814FE2B0CFBB2FB606C6C274D76083B89DD743C9DB49D7ADBD907CF3032C8441B211849E4
310
B2BF7E8F2E602026C1DBEC5B1F6C404847E77CE7AA43F0C763469D7BCC05C9D985EB7B13D7C12CCE13C2D20BB794BBD199EBFC11063CCF65639AEB3094E10B570DBB6190F2BC2CEC508277A8A4B2337A7DF5972362CCB0EBC4140971E18AF81667C843A5CC132CEEBC0449E4A5BB47CFF7CCC436D994A3E2B643B4401C3309
310
9CC238032A8E61CA6F3F4EDC71188CD5FB3050FF76D66CD0AC79FFACB196BACD25614222163F63A943663688A5993F5FBE9F9E9C8F4EE6F3D9687E3AF54757D757CB91FF6E36599C2E16E797EFCF81BD6D9E532B53820BCC12D0DF931BFAC158BDA945B7081CE23ACE19C3B10612A0D2627509122C60AB067C93F6A3AF246A
310
BCD612369EE7EABD65A1313C6B53E99B350C88165D10C46E57495C5D9BF2E5DBBF417031C428B9C012B8159283762D3C1CBCC20D27C1D88C86C176AF0B229C0C49CC09A20E255B8E382805A6AA296160165832CA3938907294045A73E675DBB6C0335F779D435CEE4A4A9567B8A176AC08DC0F4BA13923FF60BEE7BE890CF0
310
04D29684C933CBA57C2AB01B9E07633D1806EA329BDA9706486747512A3422E66D47D08572FDD5D20D3F5E6F1FD72A1C1CDEBCE07981B95446A7F4A8F90243B6578592DDD61FA439B5008431A0DA957B50BE02F29F207AEC5901BD71F2387F9CDBB99223267639CF4037CEC4194DE06FE2F8FA5FDD37EE8271BDB8ADBD3E3C
310
C14D1554673F8E675B068D95E5BF016718DC83C1E77C665FAD6344C19E6F08038094913834872108EDBBEDA31BAE207042A0875588863E880CECDEC36D30B664F65AA9DCCB7A1D0344ED1EB3214A02D8B445021B3D7AFA00D9839378AFA6A6887DF09EBC89B95E2ED71FD725DFA118DF589F5EE21D614442D63CCC500BF396
310
4477F8E921E70908FA1CEF7513EFCC6E25006D85B9023EAD40500FFB9D5B1BC4B02ECD55B8095ED9018450B9BA41FF868818538A18CECB6ADF3ABA2943AD3DDED60C6E383510CFA61D13E6F89EA8AA029C663FA3C528E4FD98934281E8861F8C6475D0F47AA4FBB6FA041659CFEF99B562107A19A27FEAA075008796655748
310
5B206A81B7FB701EE734E7D1F6293291CE855A02D8687BCBF7165188F546498A0A7890F6BB2AA4A446DA2821BB5D2920AE1E60F1FB6AD134878937F34F9CE67FC719E7106DC17711B77ED7D92322194A71B44349DF76CDDD6ADA4293EC21CDF18E825CE49EC8A708C96892E0F418688E227EFEA6D4539A0B41181690AF0E82
310
DF4463E2412031DAAC58565AED004D44946189E8310828323DE0EAB4A36BDC184A87D779ACADF7258D3589FE4F16C111D492398B0894A290435E65DCF74E2086B4D1352877F0056BAB686B3168092544FC143D6092DECA635037E47B708FE14852CA282F500C663D80EC335F514AEDF0BE45F19DCA1F515CD2B7321081E92E
310
22949659043FC2E0E431C4B5EBC0F4220A0DE226F6499C41518664C9876C727A3279B68FA919BA21B0B1D18E5008DB51868A1ED45B0151D7234E0DBEA5DEA3D46D991511CAF2920D32146FD6F5264BBEAB56457620BFAA5484B2B1226C09860161B2CEAA55CC0653D78115DC4807AAA748A0ACA0E614F64AE2F16B6FD2947B
310
37E0D64FDF76830C0ABF1EED3523EABC82C1F2D82A0CC40392F1AD1BAEF5757405F57782937DAAAF6ACD66050888A9485E726255F46D05E58DADD1DCF00649B1F960B26E75FDB6F2A0FB118C610DD42EF5C295023AC34C225599DCA81BFA1541086ED130E32B95538FA1729924BA6A44F49AF4A9B35546B436CD8857DC6296
310
67F0631BC2625A267883127117DD481AAD8962DD4AE965A4C2F845013F7F5877E0819101227D51051E7EE8ACB5A30B552E1D24226FCB6CCB108120D8122D35BAF10A965A8D545AAEAFEA4C017517189855F1FCE7C9A2D98EF879B248AD61FCD8C982E65B44F7D1A691CD6365D6479D02EAF4A4A8BCC52940771D6AAA751231
310
B9DC8A6F7D2982985805F9C1C55815330CC13E8EFF73D2EE4B8266BB0EFFC7256DFF59C1715452694D564DAA0385EBAA99C2CEA7CBEBD9E29D3FF267F3EBD17CFEFE6C74367D7F3E9ACCE7A7CBCBABE5D5ECEA5D8DA6F6D330A863994E5DF06C625A35AC9E2C06D094153925091CE61327C510F2251CE90774CF798605E4CE
310
66AF3BB13DF901ABEF4D9B53A22DC51527B708FAC3544056078CCA58B6C79D5FA03329E19C7DE142CFC8BB833F6B95AE0389E7C2854E81243116DE16BA4CAA9FA78943C6D5A9DF12037C104B5546348BEAE77A95C2A615FDEB2943B28095ABD5C280BAAD80E657AB41A179B33CC547095EB1E32009B7DB5242B16664D90FD4
310
C2E86DF6EA37B251C2EEECD68FE0BA2F8BE57B7A4E0B91415F0C5E3402437524114F75BB5B316659BA5C7E19439BCD597D760A5AA6A0CBE194461C833197AA9E022B02ABB0340B24C15417BF6FBEF01CBEF0648E2E8A9C5F1FCF4E7FDB2CF22CCB9919DA5CC2A12C81EF44CEFA16BEFA241BA81DB0EAAD8BCD74E24F37BAA7
310
6DDBECD11609ECA9A20806AA5A4209D23139B0CB67FD29DBBD1C2B5574A6AF968E0DA2D00B3076F4ACC56BBE7139E043EA6B8AF218EDE795B42FB6B5C77A2AD804878674F82F504B03041400060800008D8AD142000000000000000000000000350000006662782F43364641374642352D393439462D344341462D39434535
310
2D3846433139393236434644452F76657274696365732E62696E504B03041400060808008D8AD142F270F1330600000004000000360000006662782F43364641374642352D393439462D344341462D394345352D3846433139393236434644452F747269616E676C65732E62696E636660600000504B03041400060800008D
310
8AD142000000000000000000000000370000006662782F43364641374642352D393439462D344341462D394345352D3846433139393236434644452F617474726962757465732E62696E504B03041400060808008D8AD142D5987DFC8F00000041010000360000006662782F43364641374642352D393439462D344341462D
310
394345352D3846433139393236434644452F6469726563746F72792E786D6C858F410EC2201045AF4266AF15DDB800BA74E7C21B903225242D6328188F2FA5C4183471359997F9FF81E89FF3C41E1816475E02DF1F80A11FC8386F25A438EECEC07A250251FC3803E6F58C12560C4AD840E95E91C151A72936F496F35732D8
310
60FE635F62C8F2DA16B505C545B74125BAA2FA9E05D7CC053D063734D5C7665FD55B6B8D15D5E9BFEAFD8490FFA45E504B03041400060808008D8AD1421BBDB5C8FF000000A00100003B0000006662782F43364641374642352D393439462D344341462D394345352D3846433139393236434644452F7265736F7572636573
310
2F636F72652E786D6C8D50596E833010BD0A9ADFCA6043C212194749534ED00B5866925A0936F252F5F835814AED5F7F66466FD13C3D7EFC9A1ED9273AAFADE981E5143234CA8EDADC7A88E14A5AC88E823B6BC32F1964464ED8C30283E03767E3BC41CA9A802624D4D81137507A8F0132F548470F5E7DE02473194352F87B
310
3E4B759737CC599EE8A413DC07970264EB93658270E86D740A3D2F5656F018F5B869F4987EEAAB460762682F157B6D18791BF617B2AB8796B4A7FA4CBA61D835E753DBD1B6E3C562163CE8E927A37228038E204ACA2A426BC29A77D61C4A7A28EB17BA3F5494178BFC8F29CEE33F4D519B50955BDCD5E641B014E449085E2C
310
7DA5F52C33EDA55BF10D504B010214000A00000800008D8AD1423DEE336E79000000790000001B00000000000000000000000000000000006175746F6465736B2D64657369676E2D7061636B6167652E786D6C504B010214001400060808008D8AD142D486FD9CA0000000F40000001300000000000000000000000000B200
310
00005B436F6E74656E745F54797065735D2E786D6C504B010214001400060808008D8AD1427357E8F9EC0000007C010000080000000000000000000000000083010000636F72652E786D6C504B010214001400060808008D8AD14255019EA25F0000007C000000070000000000000000000000000095020000636E782E786D
310
6C504B010214001400060808008D8AD1421951BE3969010000020300000C00000000000000000000000000190300006662782F636F72652E786D6C504B010214001400060808008D8AD142D4771B8E7E0000009D0000000B00000000000000000000000000AC0400006662782F636E782E786D6C504B010214001400060808
310
008D8AD14227C94F372D010000140200003100000000000000000000000000530500006662782F43364641374642352D393439462D344341462D394345352D3846433139393236434644452F636F72652E786D6C504B010214001400060808008D8AD142E490A25555010000330300003000000000000000000000000000CF
310
0600006662782F43364641374642352D393439462D344341462D394345352D3846433139393236434644452F636E782E786D6C504B010214001400060808008D8AD1423B512B5162070000991B00003400000000000000000000000000720800006662782F43364641374642352D393439462D344341462D394345352D3846
310
433139393236434644452F6F626A656374732E786D6C504B010214001400060800008D8AD1420000000000000000000000003500000000000000000000000000261000006662782F43364641374642352D393439462D344341462D394345352D3846433139393236434644452F76657274696365732E62696E504B01021400
310
1400060808008D8AD142F270F13306000000040000003600000000000000000000000000791000006662782F43364641374642352D393439462D344341462D394345352D3846433139393236434644452F747269616E676C65732E62696E504B010214001400060800008D8AD1420000000000000000000000003700000000
310
000000000000000000D31000006662782F43364641374642352D393439462D344341462D394345352D3846433139393236434644452F617474726962757465732E62696E504B010214001400060808008D8AD142D5987DFC8F000000410100003600000000000000000000000000281100006662782F43364641374642352D
310
393439462D344341462D394345352D3846433139393236434644452F6469726563746F72792E786D6C504B010214001400060808008D8AD1421BBDB5C8FF000000A00100003B000000000000000000000000000B1200006662782F43364641374642352D393439462D344341462D394345352D384643313939323643464445
310
2F7265736F75726365732F636F72652E786D6C504B0506000000000E000E0080040000631300000000
  0
XRECORD
  5
27
102
{ACAD_REACTORS
330
22
102
}
330
22
100
AcDbXrecord
280
     1
270
     1
271
     1
  0
XRECORD
  5
26
102
{ACAD_REACTORS
330
22
102
}
330
22
100
AcDbXrecord
280
     1
270
     1
271
     1
  0
XRECORD
  5
28
102
{ACAD_REACTORS
330
22
102
}
330
22
100
AcDbXrecord
280
     1
270
     1
271
     1
  0
XRECORD
  5
25
102
{ACAD_REACTORS
330
22
102
}
330
22
100
AcDbXrecord
280
     1
270
     1
271
     1
  0
XRECORD
  5
E73
102
{ACAD_REACTORS
330
E72
102
}
330
E72
100
AcDbXrecord
280
     1
102
ACAD_ROUNDTRIP_2012_MLEADER_STYLE
298
     1
  0
CELLSTYLEMAP
  5
E71
102
{ACAD_REACTORS
330
E70
102
}
330
E70
100
AcDbCellStyleMap
 90
        3
300
CELLSTYLE
  1
TABLEFORMAT_BEGIN
 90
        5
170
     1
 91
        0
 92
    32768
 62
   257
 93
        1
300
CONTENTFORMAT
  1
CONTENTFORMAT_BEGIN
 90
        0
 91
        0
 92
      512
 93
        0
300

 40
0.0
140
1.0
 94
        5
 62
     0
340
55
144
0.25
309
CONTENTFORMAT_END
171
     0
 94
        0
309
TABLEFORMAT_END
  1
CELLSTYLE_BEGIN
 90
        1
 91
        1
300
_TITLE
309
CELLSTYLE_END
300
CELLSTYLE
  1
TABLEFORMAT_BEGIN
 90
        5
170
     1
 91
        0
 92
        0
 62
   257
 93
        1
300
CONTENTFORMAT
  1
CONTENTFORMAT_BEGIN
 90
        0
 91
        0
 92
      512
 93
        0
300

 40
0.0
140
1.0
 94
        5
 62
     0
340
55
144
0.18
309
CONTENTFORMAT_END
171
     0
 94
        0
309
TABLEFORMAT_END
  1
CELLSTYLE_BEGIN
 90
        2
 91
        1
300
_HEADER
309
CELLSTYLE_END
300
CELLSTYLE
  1
TABLEFORMAT_BEGIN
 90
        5
170
     1
 91
        0
 92
        0
 62
   257
 93
        1
300
CONTENTFORMAT
  1
CONTENTFORMAT_BEGIN
 90
        0
 91
        0
 92
      512
 93
        0
300

 40
0.0
140
1.0
 94
        2
 62
     0
340
55
144
0.18
309
CONTENTFORMAT_END
171
     0
 94
        0
309
TABLEFORMAT_END
  1
CELLSTYLE_BEGIN
 90
        3
 91
        2
300
_DATA
309
CELLSTYLE_END
  0
ENDSEC
  0
EOF
