  0
SECTION
  2
HEADER
  9
$ACADVER
  1
AC1024
  9
$ACADMAINTVER
 70
    63
  9
$DWGCODEPAGE
  3
ANSI_1252
  9
$AUTHOR
  1
PR
  9
$REVISIONNUMBER
  1
-
  9
$CUSTOMPROPERTYTAG
  1
Manager
  9
$CUSTOMPROPERTY
  1

  9
$CUSTOMPROPERTYTAG
  1
Company
  9
$CUSTOMPROPERTY
  1

  9
$CUSTOMPROPERTYTAG
  1
Category
  9
$CUSTOMPROPERTY
  1

  9
$CUSTOMPROPERTYTAG
  1
Part Number
  9
$CUSTOMPROPERTY
  1
HWDWA72P36F2
  9
$CUSTOMPROPERTYTAG
  1
Description
  9
$CUSTOMPROPERTY
  1
N1P PANEL MASTER VIEW
  9
$CUSTOMPROPERTYTAG
  1
Project
  9
$CUSTOMPROPERTY
  1

  9
$CUSTOMPROPERTYTAG
  1
Designer
  9
$CUSTOMPROPERTY
  1
PR
  9
$CUSTOMPROPERTYTAG
  1
Engineer
  9
$CUSTOMPROPERTY
  1

  9
$CUSTOMPROPERTYTAG
  1
Authority
  9
$CUSTOMPROPERTY
  1

  9
$CUSTOMPROPERTYTAG
  1
Cost Center
  9
$CUSTOMPROPERTY
  1

  9
$CUSTOMPROPERTYTAG
  1
Vendor
  9
$CUSTOMPROPERTY
  1

  9
$CUSTOMPROPERTYTAG
  1
User Status
  9
$CUSTOMPROPERTY
  1

  9
$CUSTOMPROPERTYTAG
  1
Design Status
  9
$CUSTOMPROPERTY
  1
WorkInProgress
  9
$CUSTOMPROPERTYTAG
  1
Checked by
  9
$CUSTOMPROPERTY
  1
NJ
  9
$CUSTOMPROPERTYTAG
  1
Engr Approved by
  9
$CUSTOMPROPERTY
  1

  9
$CUSTOMPROPERTYTAG
  1
Date Eng Approved
  9
$CUSTOMPROPERTY
  1
06/19/2013
  9
$CUSTOMPROPERTYTAG
  1
Mfg Approved by
  9
$CUSTOMPROPERTY
  1

  9
$CUSTOMPROPERTYTAG
  1
DWG. NO
  9
$CUSTOMPROPERTY
  1

  9
$CUSTOMPROPERTYTAG
  1
NUMBER OF SHEETS
  9
$CUSTOMPROPERTY
  1
1
  9
$CUSTOMPROPERTYTAG
  1
DRAWING #
  9
$CUSTOMPROPERTY
  1
1
  9
$INSBASE
 10
0.0
 20
0.0
 30
0.0
  9
$EXTMIN
 10
0.0
 20
0.0
 30
0.0
  9
$EXTMAX
 10
170.0
 20
110.0
 30
0.0
  9
$LIMMIN
 10
0.0
 20
0.0
  9
$LIMMAX
 10
170.0
 20
110.0
  9
$ORTHOMODE
 70
     0
  9
$REGENMODE
 70
     1
  9
$FILLMODE
 70
     1
  9
$QTEXTMODE
 70
     0
  9
$MIRRTEXT
 70
     0
  9
$LTSCALE
 40
10.0
  9
$ATTMODE
 70
     1
  9
$TEXTSIZE
 40
0.2
  9
$TRACEWID
 40
0.05
  9
$TEXTSTYLE
  7
Standard
  9
$CLAYER
  8
0
  9
$CELTYPE
  6
ByLayer
  9
$CECOLOR
 62
   256
  9
$CELTSCALE
 40
1.0
  9
$DISPSILH
 70
     0
  9
$DIMSCALE
 40
1.0
  9
$DIMASZ
 40
0.0708661417322835
  9
$DIMEXO
 40
0.0625
  9
$DIMDLI
 40
0.38
  9
$DIMRND
 40
0.0
  9
$DIMDLE
 40
0.0
  9
$DIMEXE
 40
0.18
  9
$DIMTP
 40
0.0
  9
$DIMTM
 40
0.0
  9
$DIMTXT
 40
0.0708661417322835
  9
$DIMCEN
 40
0.09
  9
$DIMTSZ
 40
0.0
  9
$DIMTOL
 70
     0
  9
$DIMLIM
 70
     0
  9
$DIMTIH
 70
     1
  9
$DIMTOH
 70
     1
  9
$DIMSE1
 70
     0
  9
$DIMSE2
 70
     0
  9
$DIMTAD
 70
     0
  9
$DIMZIN
 70
     0
  9
$DIMBLK
  1

  9
$DIMASO
 70
     1
  9
$DIMSHO
 70
     1
  9
$DIMPOST
  1

  9
$DIMAPOST
  1

  9
$DIMALT
 70
     0
  9
$DIMALTD
 70
     2
  9
$DIMALTF
 40
25.4
  9
$DIMLFAC
 40
1.0
  9
$DIMTOFL
 70
     0
  9
$DIMTVP
 40
0.0
  9
$DIMTIX
 70
     0
  9
$DIMSOXD
 70
     0
  9
$DIMSAH
 70
     0
  9
$DIMBLK1
  1

  9
$DIMBLK2
  1

  9
$DIMSTYLE
  2
STANDARD
  9
$DIMCLRD
 70
     0
  9
$DIMCLRE
 70
     0
  9
$DIMCLRT
 70
     0
  9
$DIMTFAC
 40
1.0
  9
$DIMGAP
 40
0.09
  9
$DIMJUST
 70
     0
  9
$DIMSD1
 70
     0
  9
$DIMSD2
 70
     0
  9
$DIMTOLJ
 70
     1
  9
$DIMTZIN
 70
     0
  9
$DIMALTZ
 70
     0
  9
$DIMALTTZ
 70
     0
  9
$DIMUPT
 70
     0
  9
$DIMDEC
 70
     4
  9
$DIMTDEC
 70
     4
  9
$DIMALTU
 70
     2
  9
$DIMALTTD
 70
     2
  9
$DIMTXSTY
  7
Standard
  9
$DIMAUNIT
 70
     0
  9
$DIMADEC
 70
     0
  9
$DIMALTRND
 40
0.0
  9
$DIMAZIN
 70
     0
  9
$DIMDSEP
 70
    46
  9
$DIMATFIT
 70
     3
  9
$DIMFRAC
 70
     0
  9
$DIMLDRBLK
  1

  9
$DIMLUNIT
 70
     2
  9
$DIMLWD
 70
    -2
  9
$DIMLWE
 70
    -2
  9
$DIMTMOVE
 70
     0
  9
$DIMFXL
 40
1.0
  9
$DIMFXLON
 70
     0
  9
$DIMJOGANG
 40
0.7853981633974483
  9
$DIMTFILL
 70
     0
  9
$DIMTFILLCLR
 70
     0
  9
$DIMARCSYM
 70
     0
  9
$DIMLTYPE
  6

  9
$DIMLTEX1
  6

  9
$DIMLTEX2
  6

  9
$DIMTXTDIRECTION
 70
     0
  9
$LUNITS
 70
     2
  9
$LUPREC
 70
     4
  9
$SKETCHINC
 40
0.1
  9
$FILLETRAD
 40
0.0
  9
$AUNITS
 70
     0
  9
$AUPREC
 70
     0
  9
$MENU
  1
.
  9
$ELEVATION
 40
0.0
  9
$PELEVATION
 40
0.0
  9
$THICKNESS
 40
0.0
  9
$LIMCHECK
 70
     0
  9
$CHAMFERA
 40
0.0
  9
$CHAMFERB
 40
0.0
  9
$CHAMFERC
 40
0.0
  9
$CHAMFERD
 40
0.0
  9
$SKPOLY
 70
     0
  9
$TDCREATE
 40
2456465.799540625
  9
$TDUCREATE
 40
2456465.570373959
  9
$TDUPDATE
 40
2456465.799540637
  9
$TDUUPDATE
 40
2456465.570373970
  9
$TDINDWG
 40
0.0000463194
  9
$TDUSRTIMER
 40
0.0000463194
  9
$USRTIMER
 70
     1
  9
$ANGBASE
 50
0.0
  9
$ANGDIR
 70
     0
  9
$PDMODE
 70
     0
  9
$PDSIZE
 40
0.0
  9
$PLINEWID
 40
0.0
  9
$SPLFRAME
 70
     0
  9
$SPLINETYPE
 70
     6
  9
$SPLINESEGS
 70
     8
  9
$HANDSEED
  5
D93
  9
$SURFTAB1
 70
     6
  9
$SURFTAB2
 70
     6
  9
$SURFTYPE
 70
     6
  9
$SURFU
 70
     6
  9
$SURFV
 70
     6
  9
$UCSBASE
  2

  9
$UCSNAME
  2

  9
$UCSORG
 10
0.0
 20
0.0
 30
0.0
  9
$UCSXDIR
 10
1.0
 20
0.0
 30
0.0
  9
$UCSYDIR
 10
0.0
 20
1.0
 30
0.0
  9
$UCSORTHOREF
  2

  9
$UCSORTHOVIEW
 70
     0
  9
$UCSORGTOP
 10
0.0
 20
0.0
 30
0.0
  9
$UCSORGBOTTOM
 10
0.0
 20
0.0
 30
0.0
  9
$UCSORGLEFT
 10
0.0
 20
0.0
 30
0.0
  9
$UCSORGRIGHT
 10
0.0
 20
0.0
 30
0.0
  9
$UCSORGFRONT
 10
0.0
 20
0.0
 30
0.0
  9
$UCSORGBACK
 10
0.0
 20
0.0
 30
0.0
  9
$PUCSBASE
  2

  9
$PUCSNAME
  2

  9
$PUCSORG
 10
0.0
 20
0.0
 30
0.0
  9
$PUCSXDIR
 10
1.0
 20
0.0
 30
0.0
  9
$PUCSYDIR
 10
0.0
 20
1.0
 30
0.0
  9
$PUCSORTHOREF
  2

  9
$PUCSORTHOVIEW
 70
     0
  9
$PUCSORGTOP
 10
0.0
 20
0.0
 30
0.0
  9
$PUCSORGBOTTOM
 10
0.0
 20
0.0
 30
0.0
  9
$PUCSORGLEFT
 10
0.0
 20
0.0
 30
0.0
  9
$PUCSORGRIGHT
 10
0.0
 20
0.0
 30
0.0
  9
$PUCSORGFRONT
 10
0.0
 20
0.0
 30
0.0
  9
$PUCSORGBACK
 10
0.0
 20
0.0
 30
0.0
  9
$USERI1
 70
     0
  9
$USERI2
 70
     0
  9
$USERI3
 70
     0
  9
$USERI4
 70
     0
  9
$USERI5
 70
     0
  9
$USERR1
 40
0.0
  9
$USERR2
 40
0.0
  9
$USERR3
 40
0.0
  9
$USERR4
 40
0.0
  9
$USERR5
 40
0.0
  9
$WORLDVIEW
 70
     1
  9
$SHADEDGE
 70
     3
  9
$SHADEDIF
 70
    70
  9
$TILEMODE
 70
     1
  9
$MAXACTVP
 70
    64
  9
$PINSBASE
 10
0.0
 20
0.0
 30
0.0
  9
$PLIMCHECK
 70
     0
  9
$PEXTMIN
 10
0.0
 20
0.0
 30
0.0
  9
$PEXTMAX
 10
170.0
 20
110.0
 30
0.0
  9
$PLIMMIN
 10
0.0
 20
0.0
  9
$PLIMMAX
 10
170.0
 20
110.0
  9
$UNITMODE
 70
     0
  9
$VISRETAIN
 70
     1
  9
$PLINEGEN
 70
     0
  9
$PSLTSCALE
 70
     1
  9
$TREEDEPTH
 70
  3020
  9
$CMLSTYLE
  2
Standard
  9
$CMLJUST
 70
     0
  9
$CMLSCALE
 40
1.0
  9
$PROXYGRAPHICS
 70
     1
  9
$MEASUREMENT
 70
     0
  9
$CELWEIGHT
370
    -1
  9
$ENDCAPS
280
     0
  9
$JOINSTYLE
280
     0
  9
$LWDISPLAY
290
     0
  9
$INSUNITS
 70
     1
  9
$HYPERLINKBASE
  1

  9
$STYLESHEET
  1

  9
$XEDIT
290
     1
  9
$CEPSNTYPE
380
     0
  9
$PSTYLEMODE
290
     1
  9
$FINGERPRINTGUID
  2
{35F3BADA-5FD6-4F05-95AB-E3FDC28BBBD8}
  9
$VERSIONGUID
  2
{9B045B72-794C-46EB-AA9B-1A21F2797E51}
  9
$EXTNAMES
290
     1
  9
$PSVPSCALE
 40
0.0
  9
$OLESTARTUP
290
     0
  9
$SORTENTS
280
   127
  9
$INDEXCTL
280
     0
  9
$HIDETEXT
280
     1
  9
$XCLIPFRAME
280
     2
  9
$HALOGAP
280
     0
  9
$OBSCOLOR
 70
   257
  9
$OBSLTYPE
280
     0
  9
$INTERSECTIONDISPLAY
280
     0
  9
$INTERSECTIONCOLOR
 70
   257
  9
$DIMASSOC
280
     1
  9
$PROJECTNAME
  1

  9
$CAMERADISPLAY
290
     0
  9
$LENSLENGTH
 40
50.0
  9
$CAMERAHEIGHT
 40
0.0
  9
$STEPSPERSEC
 40
2.0
  9
$STEPSIZE
 40
6.0
  9
$3DDWFPREC
 40
2.0
  9
$PSOLWIDTH
 40
0.25
  9
$PSOLHEIGHT
 40
4.0
  9
$LOFTANG1
 40
1.570796326794896
  9
$LOFTANG2
 40
1.570796326794896
  9
$LOFTMAG1
 40
0.0
  9
$LOFTMAG2
 40
0.0
  9
$LOFTPARAM
 70
     7
  9
$LOFTNORMALS
280
     1
  9
$LATITUDE
 40
37.795
  9
$LONGITUDE
 40
-122.394
  9
$NORTHDIRECTION
 40
0.0
  9
$TIMEZONE
 70
 -8000
  9
$LIGHTGLYPHDISPLAY
280
     1
  9
$TILEMODELIGHTSYNCH
280
     1
  9
$CMATERIAL
347
11
  9
$SOLIDHIST
280
     0
  9
$SHOWHIST
280
     1
  9
$DWFFRAME
280
     2
  9
$DGNFRAME
280
     0
  9
$REALWORLDSCALE
290
     1
  9
$INTERFERECOLOR
 62
     1
  9
$INTERFEREOBJVS
345
33
  9
$INTERFEREVPVS
346
30
  9
$CSHADOW
280
     0
  9
$SHADOWPLANELOCATION
 40
0.0
  0
ENDSEC
  0
SECTION
  2
CLASSES
  0
CLASS
  1
ACDBDICTIONARYWDFLT
  2
AcDbDictionaryWithDefault
  3
ObjectDBX Classes
 90
        0
 91
        1
280
     0
281
     0
  0
CLASS
  1
MATERIAL
  2
AcDbMaterial
  3
ObjectDBX Classes
 90
     1153
 91
        3
280
     0
281
     0
  0
CLASS
  1
VISUALSTYLE
  2
AcDbVisualStyle
  3
ObjectDBX Classes
 90
     4095
 91
       24
280
     0
281
     0
  0
CLASS
  1
SCALE
  2
AcDbScale
  3
ObjectDBX Classes
 90
     1153
 91
       17
280
     0
281
     0
  0
CLASS
  1
TABLESTYLE
  2
AcDbTableStyle
  3
ObjectDBX Classes
 90
     4095
 91
        1
280
     0
281
     0
  0
CLASS
  1
MLEADERSTYLE
  2
AcDbMLeaderStyle
  3
ACDB_MLEADERSTYLE_CLASS
 90
     4095
 91
        1
280
     0
281
     0
  0
CLASS
  1
DICTIONARYVAR
  2
AcDbDictionaryVar
  3
ObjectDBX Classes
 90
        0
 91
        3
280
     0
281
     0
  0
CLASS
  1
CELLSTYLEMAP
  2
AcDbCellStyleMap
  3
ObjectDBX Classes
 90
     1152
 91
        1
280
     0
281
     0
  0
ENDSEC
  0
SECTION
  2
TABLES
  0
TABLE
  2
VPORT
  5
8
330
0
100
AcDbSymbolTable
 70
     1
  0
VPORT
  5
57
330
8
100
AcDbSymbolTableRecord
100
AcDbViewportTableRecord
  2
*Active
 70
     0
 10
0.0
 20
0.0
 11
1.0
 21
1.0
 12
85.0
 22
55.0
 13
0.0
 23
0.0
 14
1.0
 24
1.0
 15
0.0
 25
0.0
 16
0.0
 26
0.0
 36
1.0
 17
0.0
 27
0.0
 37
0.0
 40
110.0
 41
1.545454545454545
 42
50.0
 43
0.0
 44
0.0
 50
0.0
 51
0.0
 71
     0
 72
   100
 73
     1
 74
     1
 75
     0
 76
     0
 77
     0
 78
     0
281
     0
 65
     1
110
0.0
120
0.0
130
0.0
111
1.0
121
0.0
131
0.0
112
0.0
122
1.0
132
0.0
 79
     0
146
0.0
 60
     3
 61
     5
292
     1
282
     1
141
0.0
142
0.0
 63
   250
421
  3355443
  0
ENDTAB
  0
TABLE
  2
LTYPE
  5
5
330
0
100
AcDbSymbolTable
 70
    59
  0
LTYPE
  5
5B
330
5
100
AcDbSymbolTableRecord
100
AcDbLinetypeTableRecord
  2
ByBlock
 70
     0
  3

 72
    65
 73
     0
 40
0.0
  0
LTYPE
  5
5C
330
5
100
AcDbSymbolTableRecord
100
AcDbLinetypeTableRecord
  2
ByLayer
 70
     0
  3

 72
    65
 73
     0
 40
0.0
  0
LTYPE
  5
5D
330
5
100
AcDbSymbolTableRecord
100
AcDbLinetypeTableRecord
  2
Continuous
 70
     0
  3
Solid line
 72
    65
 73
     0
 40
0.0
  0
LTYPE
  5
7C
330
5
100
AcDbSymbolTableRecord
100
AcDbLinetypeTableRecord
  2
BY_STANDARD
 70
     0
  3
By Standard ____________    ____    ____   _
 72
    65
 73
     6
 40
1.240299999999999
 49
0.6614
 74
     0
 49
-0.0827
 74
     0
 49
0.1654
 74
     0
 49
-0.0827
 74
     0
 49
0.1654
 74
     0
 49
-0.0827
 74
     0
  0
LTYPE
  5
7D
330
5
100
AcDbSymbolTableRecord
100
AcDbLinetypeTableRecord
  2
CHAIN
 70
     0
  3
Chain ____ _ ____ _ ____ _ ____ _ ____ _ ____
 72
    65
 73
     4
 40
0.7087
 49
0.4724000000000001
 74
     0
 49
-0.0591
 74
     0
 49
0.1181
 74
     0
 49
-0.0591
 74
     0
  0
LTYPE
  5
7E
330
5
100
AcDbSymbolTableRecord
100
AcDbLinetypeTableRecord
  2
DASH_DOT
 70
     0
  3
Dash dot __ . __ . __ . __ . __ . __ . __ . __
 72
    65
 73
     4
 40
0.37
 49
0.24
 74
     0
 49
-0.06
 74
     0
 49
0.01
 74
     0
 49
-0.06
 74
     0
  0
LTYPE
  5
7F
330
5
100
AcDbSymbolTableRecord
100
AcDbLinetypeTableRecord
  2
DOUBLE_DASH_DOT
 70
     0
  3
Double-Dash Dot __ __ . __ __ . __ __ . __ _
 72
    65
 73
     6
 40
0.4398
 49
0.24
 74
     0
 49
-0.06
 74
     0
 49
0.0098
 74
     0
 49
-0.06
 74
     0
 49
0.01
 74
     0
 49
-0.06
 74
     0
  0
LTYPE
  5
80
330
5
100
AcDbSymbolTableRecord
100
AcDbLinetypeTableRecord
  2
DASH_TRIPLE_DOT
 70
     0
  3
Dash Triple-Dot _ . . . _ . . . _ . . . _
 72
    65
 73
     8
 40
0.51
 49
0.24
 74
     0
 49
-0.06
 74
     0
 49
0.01
 74
     0
 49
-0.06
 74
     0
 49
0.01
 74
     0
 49
-0.06
 74
     0
 49
0.01
 74
     0
 49
-0.06
 74
     0
  0
LTYPE
  5
81
330
5
100
AcDbSymbolTableRecord
100
AcDbLinetypeTableRecord
  2
DASHED
 70
     0
  3
Dashed __ __ __ __ __ __ __ __ __ __ __ __ __ _
 72
    65
 73
     2
 40
0.2067
 49
0.1654
 74
     0
 49
-0.0413
 74
     0
  0
LTYPE
  5
82
330
5
100
AcDbSymbolTableRecord
100
AcDbLinetypeTableRecord
  2
DASH_DOUBLE_DOT
 70
     0
  3
Dash Double-Dot __ . . __ . . __ . . __ . .
 72
    65
 73
     6
 40
0.4398
 49
0.24
 74
     0
 49
-0.06
 74
     0
 49
0.0098
 74
     0
 49
-0.06
 74
     0
 49
0.01
 74
     0
 49
-0.06
 74
     0
  0
LTYPE
  5
83
330
5
100
AcDbSymbolTableRecord
100
AcDbLinetypeTableRecord
  2
DASHED_SPACE
 70
     0
  3
Dashed Space __ __ __ __ __ __ __ __ __ __ __ _
 72
    65
 73
     2
 40
0.2067
 49
0.1654
 74
     0
 49
-0.0413
 74
     0
  0
LTYPE
  5
84
330
5
100
AcDbSymbolTableRecord
100
AcDbLinetypeTableRecord
  2
DOTTED
 70
     0
  3
Dotted . . . . . . . . . . . . . . . . . . . . 
 72
    65
 73
     2
 40
0.0482
 49
0.0069
 74
     0
 49
-0.0413
 74
     0
  0
LTYPE
  5
85
330
5
100
AcDbSymbolTableRecord
100
AcDbLinetypeTableRecord
  2
DOUBLE_DASH_CHAIN
 70
     0
  3
Double-Dash Chain ______  __  __  ______  __  _
 72
    65
 73
     6
 40
1.240299999999999
 49
0.6614
 74
     0
 49
-0.0827
 74
     0
 49
0.1654
 74
     0
 49
-0.0827
 74
     0
 49
0.1654
 74
     0
 49
-0.0827
 74
     0
  0
LTYPE
  5
87
330
5
100
AcDbSymbolTableRecord
100
AcDbLinetypeTableRecord
  2
DOUBLE_DASH_DOUBLE_DOT
 70
     0
  3
Double-Dash Double-dot _ _ . . _ _ . . _
 72
    65
 73
     8
 40
0.7400000000000001
 49
0.24
 74
     0
 49
-0.06
 74
     0
 49
0.24
 74
     0
 49
-0.06
 74
     0
 49
0.01
 74
     0
 49
-0.06
 74
     0
 49
0.01
 74
     0
 49
-0.06
 74
     0
  0
LTYPE
  5
88
330
5
100
AcDbSymbolTableRecord
100
AcDbLinetypeTableRecord
  2
DOUBLE_DASH_TRIPLE_DOT
 70
     0
  3
Double Dash Triple Dot __ __ . . . __ __ . .
 72
    65
 73
    10
 40
0.8100000000000001
 49
0.24
 74
     0
 49
-0.06
 74
     0
 49
0.24
 74
     0
 49
-0.06
 74
     0
 49
0.01
 74
     0
 49
-0.06
 74
     0
 49
0.01
 74
     0
 49
-0.06
 74
     0
 49
0.01
 74
     0
 49
-0.06
 74
     0
  0
LTYPE
  5
89
330
5
100
AcDbSymbolTableRecord
100
AcDbLinetypeTableRecord
  2
LONG_DASH_DOTTED
 70
     0
  3
Long Dash Dotted ____ . ____ . ____ . ____ . _
 72
    65
 73
     4
 40
0.3543
 49
0.2362
 74
     0
 49
-0.0295
 74
     0
 49
0.0591
 74
     0
 49
-0.0295
 74
     0
  0
LTYPE
  5
8A
330
5
100
AcDbSymbolTableRecord
100
AcDbLinetypeTableRecord
  2
LONG_DASH_DOUBLE_DOT
 70
     0
  3
Long Dash Double Dot ________  .  .  ________  
 72
    65
 73
     6
 40
0.6799999999999999
 49
0.48
 74
     0
 49
-0.06
 74
     0
 49
0.01
 74
     0
 49
-0.06
 74
     0
 49
0.01
 74
     0
 49
-0.06
 74
     0
  0
LTYPE
  5
8B
330
5
100
AcDbSymbolTableRecord
100
AcDbLinetypeTableRecord
  2
LONG_DASH_TRIPLE_DOT
 70
     0
  3
Long Dash Triple Dot ____ ... ____ ... ____
 72
    65
 73
     8
 40
0.3689
 49
0.2362
 74
     0
 49
-0.0295
 74
     0
 49
0.0049
 74
     0
 49
-0.0295
 74
     0
 49
0.0049
 74
     0
 49
-0.0295
 74
     0
 49
0.0049
 74
     0
 49
-0.0295
 74
     0
  0
LTYPE
  5
8C
330
5
100
AcDbSymbolTableRecord
100
AcDbLinetypeTableRecord
  2
BORDER
 70
     0
  3
Border __ __ . __ __ . __ __ . __ __ . __ __ .
 72
    65
 73
     6
 40
1.75
 49
0.5
 74
     0
 49
-0.25
 74
     0
 49
0.5
 74
     0
 49
-0.25
 74
     0
 49
0.0
 74
     0
 49
-0.25
 74
     0
  0
LTYPE
  5
8D
330
5
100
AcDbSymbolTableRecord
100
AcDbLinetypeTableRecord
  2
BORDER2
 70
     0
  3
Border (.5x) __.__.__.__.__.__.__.__.__.__.__.
 72
    65
 73
     6
 40
0.875
 49
0.25
 74
     0
 49
-0.125
 74
     0
 49
0.25
 74
     0
 49
-0.125
 74
     0
 49
0.0
 74
     0
 49
-0.125
 74
     0
  0
LTYPE
  5
8E
330
5
100
AcDbSymbolTableRecord
100
AcDbLinetypeTableRecord
  2
BORDERX2
 70
     0
  3
Border (2x) ____  ____  .  ____  ____  .  ___
 72
    65
 73
     6
 40
3.5
 49
1.0
 74
     0
 49
-0.5
 74
     0
 49
1.0
 74
     0
 49
-0.5
 74
     0
 49
0.0
 74
     0
 49
-0.5
 74
     0
  0
LTYPE
  5
8F
330
5
100
AcDbSymbolTableRecord
100
AcDbLinetypeTableRecord
  2
CENTER
 70
     0
  3
Center ____ _ ____ _ ____ _ ____ _ ____ _ ____
 72
    65
 73
     4
 40
2.0
 49
1.25
 74
     0
 49
-0.25
 74
     0
 49
0.25
 74
     0
 49
-0.25
 74
     0
  0
LTYPE
  5
90
330
5
100
AcDbSymbolTableRecord
100
AcDbLinetypeTableRecord
  2
CENTER2
 70
     0
  3
Center (.5x) ___ _ ___ _ ___ _ ___ _ ___ _ ___
 72
    65
 73
     4
 40
1.125
 49
0.75
 74
     0
 49
-0.125
 74
     0
 49
0.125
 74
     0
 49
-0.125
 74
     0
  0
LTYPE
  5
91
330
5
100
AcDbSymbolTableRecord
100
AcDbLinetypeTableRecord
  2
CENTERX2
 70
     0
  3
Center (2x) ________  __  ________  __  _____
 72
    65
 73
     4
 40
4.0
 49
2.5
 74
     0
 49
-0.5
 74
     0
 49
0.5
 74
     0
 49
-0.5
 74
     0
  0
LTYPE
  5
92
330
5
100
AcDbSymbolTableRecord
100
AcDbLinetypeTableRecord
  2
DASHDOT2
 70
     0
  3
Dash dot (.5x) _._._._._._._._._._._._._._._.
 72
    65
 73
     4
 40
0.5
 49
0.25
 74
     0
 49
-0.125
 74
     0
 49
0.0
 74
     0
 49
-0.125
 74
     0
  0
LTYPE
  5
93
330
5
100
AcDbSymbolTableRecord
100
AcDbLinetypeTableRecord
  2
DASHDOTX2
 70
     0
  3
Dash dot (2x) ____  .  ____  .  ____  .  ___
 72
    65
 73
     4
 40
2.0
 49
1.0
 74
     0
 49
-0.5
 74
     0
 49
0.0
 74
     0
 49
-0.5
 74
     0
  0
LTYPE
  5
95
330
5
100
AcDbSymbolTableRecord
100
AcDbLinetypeTableRecord
  2
DASHED2
 70
     0
  3
Dashed (.5x) _ _ _ _ _ _ _ _ _ _ _ _ _ _ _ _ _
 72
    65
 73
     2
 40
0.375
 49
0.25
 74
     0
 49
-0.125
 74
     0
  0
LTYPE
  5
96
330
5
100
AcDbSymbolTableRecord
100
AcDbLinetypeTableRecord
  2
DASHEDX2
 70
     0
  3
Dashed (2x) ____  ____  ____  ____  ____  ___
 72
    65
 73
     2
 40
1.5
 49
1.0
 74
     0
 49
-0.5
 74
     0
  0
LTYPE
  5
97
330
5
100
AcDbSymbolTableRecord
100
AcDbLinetypeTableRecord
  2
DIVIDE
 70
     0
  3
Divide ____ . . ____ . . ____ . . ____ . . ____
 72
    65
 73
     6
 40
1.25
 49
0.5
 74
     0
 49
-0.25
 74
     0
 49
0.0
 74
     0
 49
-0.25
 74
     0
 49
0.0
 74
     0
 49
-0.25
 74
     0
  0
LTYPE
  5
98
330
5
100
AcDbSymbolTableRecord
100
AcDbLinetypeTableRecord
  2
DIVIDE2
 70
     0
  3
Divide (.5x) __..__..__..__..__..__..__..__.._
 72
    65
 73
     6
 40
0.625
 49
0.25
 74
     0
 49
-0.125
 74
     0
 49
0.0
 74
     0
 49
-0.125
 74
     0
 49
0.0
 74
     0
 49
-0.125
 74
     0
  0
LTYPE
  5
99
330
5
100
AcDbSymbolTableRecord
100
AcDbLinetypeTableRecord
  2
DIVIDEX2
 70
     0
  3
Divide (2x) ________  .  .  ________  .  .  _
 72
    65
 73
     6
 40
2.5
 49
1.0
 74
     0
 49
-0.5
 74
     0
 49
0.0
 74
     0
 49
-0.5
 74
     0
 49
0.0
 74
     0
 49
-0.5
 74
     0
  0
LTYPE
  5
9A
330
5
100
AcDbSymbolTableRecord
100
AcDbLinetypeTableRecord
  2
DOT
 70
     0
  3
Dot . . . . . . . . . . . . . . . . . . . . . .
 72
    65
 73
     2
 40
0.25
 49
0.0
 74
     0
 49
-0.25
 74
     0
  0
LTYPE
  5
9B
330
5
100
AcDbSymbolTableRecord
100
AcDbLinetypeTableRecord
  2
DOT2
 70
     0
  3
Dot (.5x) .....................................
 72
    65
 73
     2
 40
0.125
 49
0.0
 74
     0
 49
-0.125
 74
     0
  0
LTYPE
  5
9C
330
5
100
AcDbSymbolTableRecord
100
AcDbLinetypeTableRecord
  2
DOTX2
 70
     0
  3
Dot (2x) .  .  .  .  .  .  .  .  .  .  .  .  . 
 72
    65
 73
     2
 40
0.5
 49
0.0
 74
     0
 49
-0.5
 74
     0
  0
LTYPE
  5
9D
330
5
100
AcDbSymbolTableRecord
100
AcDbLinetypeTableRecord
  2
HIDDEN
 70
     0
  3
Hidden __ __ __ __ __ __ __ __ __ __ __ __ __ _
 72
    65
 73
     2
 40
0.375
 49
0.25
 74
     0
 49
-0.125
 74
     0
  0
LTYPE
  5
9E
330
5
100
AcDbSymbolTableRecord
100
AcDbLinetypeTableRecord
  2
HIDDEN2
 70
     0
  3
Hidden (.5x) _ _ _ _ _ _ _ _ _ _ _ _ _ _ _ _ _
 72
    65
 73
     2
 40
0.1875
 49
0.125
 74
     0
 49
-0.0625
 74
     0
  0
LTYPE
  5
9F
330
5
100
AcDbSymbolTableRecord
100
AcDbLinetypeTableRecord
  2
HIDDENX2
 70
     0
  3
Hidden (2x) ____ ____ ____ ____ ____ ____ ____
 72
    65
 73
     2
 40
0.75
 49
0.5
 74
     0
 49
-0.25
 74
     0
  0
LTYPE
  5
A0
330
5
100
AcDbSymbolTableRecord
100
AcDbLinetypeTableRecord
  2
PHANTOM
 70
     0
  3
Phantom ______  __  __  ______  __  __  ______
 72
    65
 73
     6
 40
2.5
 49
1.25
 74
     0
 49
-0.25
 74
     0
 49
0.25
 74
     0
 49
-0.25
 74
     0
 49
0.25
 74
     0
 49
-0.25
 74
     0
  0
LTYPE
  5
A1
330
5
100
AcDbSymbolTableRecord
100
AcDbLinetypeTableRecord
  2
PHANTOM2
 70
     0
  3
Phantom (.5x) ___ _ _ ___ _ _ ___ _ _ ___ _ _
 72
    65
 73
     6
 40
1.25
 49
0.625
 74
     0
 49
-0.125
 74
     0
 49
0.125
 74
     0
 49
-0.125
 74
     0
 49
0.125
 74
     0
 49
-0.125
 74
     0
  0
LTYPE
  5
A2
330
5
100
AcDbSymbolTableRecord
100
AcDbLinetypeTableRecord
  2
PHANTOMX2
 70
     0
  3
Phantom (2x) ____________    ____    ____   _
 72
    65
 73
     6
 40
5.0
 49
2.5
 74
     0
 49
-0.5
 74
     0
 49
0.5
 74
     0
 49
-0.5
 74
     0
 49
0.5
 74
     0
 49
-0.5
 74
     0
  0
LTYPE
  5
A3
330
5
100
AcDbSymbolTableRecord
100
AcDbLinetypeTableRecord
  2
ACAD_ISO02W100
 70
     0
  3
ISO dash __ __ __ __ __ __ __ __ __ __ __ __ __
 72
    65
 73
     2
 40
0.59
 49
0.47
 74
     0
 49
-0.12
 74
     0
  0
LTYPE
  5
A4
330
5
100
AcDbSymbolTableRecord
100
AcDbLinetypeTableRecord
  2
ACAD_ISO03W100
 70
     0
  3
ISO dash space __    __    __    __    __    __
 72
    65
 73
     2
 40
1.179999999999999
 49
0.47
 74
     0
 49
-0.71
 74
     0
  0
LTYPE
  5
A5
330
5
100
AcDbSymbolTableRecord
100
AcDbLinetypeTableRecord
  2
ACAD_ISO04W100
 70
     0
  3
ISO long-dash dot ____ . ____ . ____ . ____ . _
 72
    65
 73
     4
 40
1.179999999999999
 49
0.9399999999999998
 74
     0
 49
-0.12
 74
     0
 49
0.0
 74
     0
 49
-0.12
 74
     0
  0
LTYPE
  5
A6
330
5
100
AcDbSymbolTableRecord
100
AcDbLinetypeTableRecord
  2
ACAD_ISO05W100
 70
     0
  3
ISO long-dash double-dot ____ .. ____ .. ____ .
 72
    65
 73
     6
 40
1.299999999999999
 49
0.9399999999999998
 74
     0
 49
-0.12
 74
     0
 49
0.0
 74
     0
 49
-0.12
 74
     0
 49
0.0
 74
     0
 49
-0.12
 74
     0
  0
LTYPE
  5
A7
330
5
100
AcDbSymbolTableRecord
100
AcDbLinetypeTableRecord
  2
ACAD_ISO06W100
 70
     0
  3
ISO long-dash triple-dot ____ ... ____ ... ____
 72
    65
 73
     8
 40
1.419999999999999
 49
0.9399999999999998
 74
     0
 49
-0.12
 74
     0
 49
0.0
 74
     0
 49
-0.12
 74
     0
 49
0.0
 74
     0
 49
-0.12
 74
     0
 49
0.0
 74
     0
 49
-0.12
 74
     0
  0
LTYPE
  5
A8
330
5
100
AcDbSymbolTableRecord
100
AcDbLinetypeTableRecord
  2
ACAD_ISO07W100
 70
     0
  3
ISO dot . . . . . . . . . . . . . . . . . . . .
 72
    65
 73
     2
 40
0.12
 49
0.0
 74
     0
 49
-0.12
 74
     0
  0
LTYPE
  5
A9
330
5
100
AcDbSymbolTableRecord
100
AcDbLinetypeTableRecord
  2
ACAD_ISO08W100
 70
     0
  3
ISO long-dash short-dash ____ __ ____ __ ____ _
 72
    65
 73
     4
 40
0.95
 49
0.47
 74
     0
 49
-0.12
 74
     0
 49
0.24
 74
     0
 49
-0.12
 74
     0
  0
LTYPE
  5
AA
330
5
100
AcDbSymbolTableRecord
100
AcDbLinetypeTableRecord
  2
ACAD_ISO09W100
 70
     0
  3
ISO long-dash double-short-dash ____ __ __ ____
 72
    65
 73
     6
 40
1.31
 49
0.47
 74
     0
 49
-0.12
 74
     0
 49
0.24
 74
     0
 49
-0.12
 74
     0
 49
0.24
 74
     0
 49
-0.12
 74
     0
  0
LTYPE
  5
AB
330
5
100
AcDbSymbolTableRecord
100
AcDbLinetypeTableRecord
  2
ACAD_ISO10W100
 70
     0
  3
ISO dash dot __ . __ . __ . __ . __ . __ . __ .
 72
    65
 73
     4
 40
0.71
 49
0.47
 74
     0
 49
-0.12
 74
     0
 49
0.0
 74
     0
 49
-0.12
 74
     0
  0
LTYPE
  5
AC
330
5
100
AcDbSymbolTableRecord
100
AcDbLinetypeTableRecord
  2
ACAD_ISO11W100
 70
     0
  3
ISO double-dash dot __ __ . __ __ . __ __ . __ 
 72
    65
 73
     6
 40
1.299999999999999
 49
0.47
 74
     0
 49
-0.12
 74
     0
 49
0.47
 74
     0
 49
-0.12
 74
     0
 49
0.0
 74
     0
 49
-0.12
 74
     0
  0
LTYPE
  5
AD
330
5
100
AcDbSymbolTableRecord
100
AcDbLinetypeTableRecord
  2
ACAD_ISO12W100
 70
     0
  3
ISO dash double-dot __ . . __ . . __ . . __ . .
 72
    65
 73
     6
 40
0.8299999999999998
 49
0.47
 74
     0
 49
-0.12
 74
     0
 49
0.0
 74
     0
 49
-0.12
 74
     0
 49
0.0
 74
     0
 49
-0.12
 74
     0
  0
LTYPE
  5
AE
330
5
100
AcDbSymbolTableRecord
100
AcDbLinetypeTableRecord
  2
ACAD_ISO13W100
 70
     0
  3
ISO double-dash double-dot __ __ . . __ __ . . 
 72
    65
 73
     8
 40
1.419999999999999
 49
0.47
 74
     0
 49
-0.12
 74
     0
 49
0.47
 74
     0
 49
-0.12
 74
     0
 49
0.0
 74
     0
 49
-0.12
 74
     0
 49
0.0
 74
     0
 49
-0.12
 74
     0
  0
LTYPE
  5
AF
330
5
100
AcDbSymbolTableRecord
100
AcDbLinetypeTableRecord
  2
ACAD_ISO14W100
 70
     0
  3
ISO dash triple-dot __ . . . __ . . . __ . . . 
 72
    65
 73
     8
 40
0.95
 49
0.47
 74
     0
 49
-0.12
 74
     0
 49
0.0
 74
     0
 49
-0.12
 74
     0
 49
0.0
 74
     0
 49
-0.12
 74
     0
 49
0.0
 74
     0
 49
-0.12
 74
     0
  0
LTYPE
  5
B0
330
5
100
AcDbSymbolTableRecord
100
AcDbLinetypeTableRecord
  2
ACAD_ISO15W100
 70
     0
  3
ISO double-dash triple-dot __ __ . . . __ __ . 
 72
    65
 73
    10
 40
1.539999999999999
 49
0.47
 74
     0
 49
-0.12
 74
     0
 49
0.47
 74
     0
 49
-0.12
 74
     0
 49
0.0
 74
     0
 49
-0.12
 74
     0
 49
0.0
 74
     0
 49
-0.12
 74
     0
 49
0.0
 74
     0
 49
-0.12
 74
     0
  0
LTYPE
  5
B3
330
5
100
AcDbSymbolTableRecord
100
AcDbLinetypeTableRecord
  2
FENCELINE1
 70
     0
  3
Fenceline circle ----0-----0----0-----0----0---
 72
    65
 73
     4
 40
1.45
 49
0.25
 74
     0
 49
-0.1
 74
     4
 75
   133
340
B2
 46
0.1
 50
0.0
 44
-0.1
 45
0.0
 49
-0.1
 74
     0
 49
1.0
 74
     0
  0
LTYPE
  5
B4
330
5
100
AcDbSymbolTableRecord
100
AcDbLinetypeTableRecord
  2
FENCELINE2
 70
     0
  3
Fenceline square ----[]-----[]----[]-----[]----
 72
    65
 73
     4
 40
1.45
 49
0.25
 74
     0
 49
-0.1
 74
     4
 75
   132
340
B2
 46
0.1
 50
0.0
 44
-0.1
 45
0.0
 49
-0.1
 74
     0
 49
1.0
 74
     0
  0
LTYPE
  5
B5
330
5
100
AcDbSymbolTableRecord
100
AcDbLinetypeTableRecord
  2
TRACKS
 70
     0
  3
Tracks -|-|-|-|-|-|-|-|-|-|-|-|-|-|-|-|-|-|-|-|
 72
    65
 73
     2
 40
0.3
 49
0.15
 74
     4
 75
   130
340
B2
 46
0.25
 50
0.0
 44
0.0
 45
0.0
 49
0.15
 74
     0
  0
LTYPE
  5
B6
330
5
100
AcDbSymbolTableRecord
100
AcDbLinetypeTableRecord
  2
BATTING
 70
     0
  3
Batting SSSSSSSSSSSSSSSSSSSSSSSSSSSSSSSSSSSSSSS
 72
    65
 73
     4
 40
0.4001000000000001
 49
0.0001
 74
     0
 49
-0.1
 74
     4
 75
   134
340
B2
 46
0.1
 50
0.0
 44
-0.1
 45
0.0
 49
-0.2
 74
     4
 75
   134
340
B2
 46
0.1
 50
180.0
 44
0.1
 45
0.0
 49
-0.1
 74
     0
  0
LTYPE
  5
B7
330
5
100
AcDbSymbolTableRecord
100
AcDbLinetypeTableRecord
  2
HOT_WATER_SUPPLY
 70
     0
  3
Hot water supply ---- HW ---- HW ---- HW ----
 72
    65
 73
     3
 40
0.9
 49
0.5
 74
     0
 49
-0.2
 74
     2
 75
     0
340
55
 46
0.1
 50
0.0
 44
-0.1
 45
-0.05
  9
HW
 49
-0.2
 74
     0
  0
LTYPE
  5
B8
330
5
100
AcDbSymbolTableRecord
100
AcDbLinetypeTableRecord
  2
GAS_LINE
 70
     0
  3
Gas line ----GAS----GAS----GAS----GAS----GAS---
 72
    65
 73
     3
 40
0.95
 49
0.5
 74
     0
 49
-0.2
 74
     2
 75
     0
340
55
 46
0.1
 50
0.0
 44
-0.1
 45
-0.05
  9
GAS
 49
-0.25
 74
     0
  0
LTYPE
  5
B9
330
5
100
AcDbSymbolTableRecord
100
AcDbLinetypeTableRecord
  2
ZIGZAG
 70
     0
  3
Zig zag /\/\/\/\/\/\/\/\/\/\/\/\/\/\/\/\/\/\/\/
 72
    65
 73
     4
 40
0.8001000000000001
 49
0.0001
 74
     0
 49
-0.2
 74
     4
 75
   131
340
B2
 46
0.2
 50
0.0
 44
-0.2
 45
0.0
 49
-0.4
 74
     4
 75
   131
340
B2
 46
0.2
 50
180.0
 44
0.2
 45
0.0
 49
-0.2
 74
     0
  0
ENDTAB
  0
TABLE
  2
LAYER
  5
2
330
0
100
AcDbSymbolTable
 70
    27
  0
LAYER
  5
54
330
2
100
AcDbSymbolTableRecord
100
AcDbLayerTableRecord
  2
0
 70
     0
 62
     7
  6
Continuous
370
    18
390
F
347
21
  0
LAYER
  5
C0
330
2
100
AcDbSymbolTableRecord
100
AcDbLayerTableRecord
  2
Center Mark (ANSI)
 70
     0
 62
     7
  6
Continuous
370
    15
390
F
347
21
  0
LAYER
  5
C1
330
2
100
AcDbSymbolTableRecord
100
AcDbLayerTableRecord
  2
Centerline (ANSI)
 70
     0
 62
     7
  6
Continuous
370
    15
390
F
347
21
  0
LAYER
  5
C3
330
2
100
AcDbSymbolTableRecord
100
AcDbLayerTableRecord
  2
Dimension (ANSI)
 70
     0
 62
     7
  6
Continuous
370
    13
390
F
347
21
  0
LAYER
  5
C5
330
2
100
AcDbSymbolTableRecord
100
AcDbLayerTableRecord
  2
Hidden (ANSI)
 70
     0
 62
     7
  6
DASHED
370
    15
390
F
347
21
  0
LAYER
  5
CC
330
2
100
AcDbSymbolTableRecord
100
AcDbLayerTableRecord
  2
Symbol (ANSI)
 70
     0
 62
     7
  6
Continuous
370
    18
390
F
347
21
  0
LAYER
  5
CF
330
2
100
AcDbSymbolTableRecord
100
AcDbLayerTableRecord
  2
Visible (ANSI)
 70
     0
 62
     7
  6
Continuous
370
    13
390
F
347
21
  0
LAYER
  5
D0
330
2
100
AcDbSymbolTableRecord
100
AcDbLayerTableRecord
  2
Visible Narrow (ANSI)
 70
     0
 62
     7
  6
Continuous
370
    18
390
F
347
21
  0
LAYER
  5
545
330
2
100
AcDbSymbolTableRecord
100
AcDbLayerTableRecord
  2
Defpoints
 70
     0
 62
     7
  6
Continuous
290
     0
370
    -3
390
F
347
21
  0
ENDTAB
  0
TABLE
  2
STYLE
  5
3
330
0
100
AcDbSymbolTable
 70
    18
  0
STYLE
  5
55
330
3
100
AcDbSymbolTableRecord
100
AcDbTextStyleTableRecord
  2
Standard
 70
     0
 40
0.0
 41
1.0
 50
0.0
 71
     0
 42
0.2
  3
txt
  4

  0
STYLE
  5
5A
330
3
100
AcDbSymbolTableRecord
100
AcDbTextStyleTableRecord
  2
Annotative
 70
     0
 40
0.0
 41
1.0
 50
0.0
 71
     0
 42
0.2
  3
txt
  4

1001
AcadAnnotative
1000
AnnotativeData
1002
{
1070
     1
1070
     1
1002
}
  0
STYLE
  5
B2
330
3
100
AcDbSymbolTableRecord
100
AcDbTextStyleTableRecord
  2

 70
     1
 40
0.0
 41
1.0
 50
0.0
 71
     0
 42
0.2
  3
ltypeshp.shx
  4

  0
STYLE
  5
D4
330
3
100
AcDbSymbolTableRecord
100
AcDbTextStyleTableRecord
  2
ITALICC_120
 70
     0
 40
0.0
 41
1.0
 50
0.0
 71
     0
 42
0.2
  3
italicc.shx
  4

  0
STYLE
  5
D5
330
3
100
AcDbSymbolTableRecord
100
AcDbTextStyleTableRecord
  2
Label Text (ANSI)
 70
     0
 40
0.0
 41
1.0
 50
0.0
 71
     0
 42
0.2
  3
tahoma.ttf
  4

1001
ACAD
1000
Tahoma
1071
      256
  0
STYLE
  5
D6
330
3
100
AcDbSymbolTableRecord
100
AcDbTextStyleTableRecord
  2
Note Text (ANSI)
 70
     0
 40
0.0
 41
1.0
 50
0.0
 71
     0
 42
0.2
  3
tahoma.ttf
  4

1001
ACAD
1000
Tahoma
1071
      256
  0
STYLE
  5
D7
330
3
100
AcDbSymbolTableRecord
100
AcDbTextStyleTableRecord
  2
ROMANS
 70
     0
 40
0.0
 41
1.0
 50
0.0
 71
     0
 42
0.2
  3
romans.shx
  4

  0
STYLE
  5
D8
330
3
100
AcDbSymbolTableRecord
100
AcDbTextStyleTableRecord
  2
SANSSERIF_114
 70
     0
 40
0.0
 41
1.0
 50
0.0
 71
     0
 42
0.2
  3
tahoma.ttf
  4

1001
ACAD
1000
Tahoma
1071
      256
  0
STYLE
  5
D9
330
3
100
AcDbSymbolTableRecord
100
AcDbTextStyleTableRecord
  2
SANSSERIF_117
 70
     0
 40
0.0
 41
1.0
 50
0.0
 71
     0
 42
0.2
  3
tahoma.ttf
  4

1001
ACAD
1000
Tahoma
1071
      256
  0
STYLE
  5
DA
330
3
100
AcDbSymbolTableRecord
100
AcDbTextStyleTableRecord
  2
STANDARDAM_ANSI
 70
     0
 40
0.0
 41
1.0
 50
0.0
 71
     0
 42
0.2
  3
txt.shx
  4

  0
STYLE
  5
DB
330
3
100
AcDbSymbolTableRecord
100
AcDbTextStyleTableRecord
  2
StandardAM_ANSI$0
 70
     0
 40
0.0
 41
1.0
 50
0.0
 71
     0
 42
0.2
  3
txt.shx
  4

  0
STYLE
  5
DC
330
3
100
AcDbSymbolTableRecord
100
AcDbTextStyleTableRecord
  2
STANDARDAM_ANSI$3
 70
     0
 40
0.0
 41
1.0
 50
0.0
 71
     0
 42
0.2
  3
txt.shx
  4

  0
STYLE
  5
DD
330
3
100
AcDbSymbolTableRecord
100
AcDbTextStyleTableRecord
  2
STANDARDAM_ANSI$4
 70
     0
 40
0.0
 41
1.0
 50
0.0
 71
     0
 42
0.2
  3
txt.shx
  4

  0
STYLE
  5
DE
330
3
100
AcDbSymbolTableRecord
100
AcDbTextStyleTableRecord
  2
STANDARDAM_ANSI$7
 70
     0
 40
0.0
 41
1.0
 50
0.0
 71
     0
 42
0.2
  3
txt.shx
  4

  0
STYLE
  5
DF
330
3
100
AcDbSymbolTableRecord
100
AcDbTextStyleTableRecord
  2
STANDARDAM_ANSI$SF
 70
     0
 40
0.0
 41
1.0
 50
0.0
 71
     0
 42
0.2
  3
txt.shx
  4

  0
STYLE
  5
E0
330
3
100
AcDbSymbolTableRecord
100
AcDbTextStyleTableRecord
  2
STANDARDAM_ANSI$SH
 70
     0
 40
0.0
 41
1.0
 50
0.0
 71
     0
 42
0.2
  3
txt.shx
  4

  0
STYLE
  5
E1
330
3
100
AcDbSymbolTableRecord
100
AcDbTextStyleTableRecord
  2
STANDARDSTANDARD
 70
     0
 40
0.0
 41
1.0
 50
0.0
 71
     0
 42
0.2
  3
txt.shx
  4

  0
STYLE
  5
2DF
330
3
100
AcDbSymbolTableRecord
100
AcDbTextStyleTableRecord
  2
Text Style153
 70
     0
 40
0.0
 41
1.0
 50
0.0
 71
     0
 42
0.2
  3
tahoma.ttf
  4

1001
ACAD
1000
Tahoma
1071
      256
  0
ENDTAB
  0
TABLE
  2
VIEW
  5
6
330
0
100
AcDbSymbolTable
 70
     0
  0
ENDTAB
  0
TABLE
  2
UCS
  5
7
330
0
100
AcDbSymbolTable
 70
     0
  0
ENDTAB
  0
TABLE
  2
APPID
  5
9
330
0
100
AcDbSymbolTable
 70
     3
  0
APPID
  5
56
330
9
100
AcDbSymbolTableRecord
100
AcDbRegAppTableRecord
  2
ACAD
 70
     0
  0
APPID
  5
5E
330
9
100
AcDbSymbolTableRecord
100
AcDbRegAppTableRecord
  2
AcadAnnotative
 70
     0
  0
APPID
  5
B70
330
9
100
AcDbSymbolTableRecord
100
AcDbRegAppTableRecord
  2
ACAD_DSTYLE_DIMRADIAL_EXTENSION
 70
     0
  0
ENDTAB
  0
TABLE
  2
DIMSTYLE
  5
A
330
0
100
AcDbSymbolTable
 70
    27
100
AcDbDimStyleTable
 71
     2
340
F6
340
58
  0
DIMSTYLE
105
58
330
A
100
AcDbSymbolTableRecord
100
AcDbDimStyleTableRecord
  2
STANDARD
 70
     0
 41
0.1800000071525573
 42
0.0625
140
0.1800000071525574
144
1.0
147
0.0900000035762787
176
   256
177
   256
178
   256
274
     3
340
55
371
    -1
372
    -1
  0
DIMSTYLE
105
59
330
A
100
AcDbSymbolTableRecord
100
AcDbDimStyleTableRecord
  2
Annotative
 70
     0
340
55
1001
AcadAnnotative
1000
AnnotativeData
1002
{
1070
     1
1070
     1
1002
}
  0
DIMSTYLE
105
E2
330
A
100
AcDbSymbolTableRecord
100
AcDbDimStyleTableRecord
  2
AM_ANSI
 70
     0
  4
 mm
 40
10.0
 41
0.119999997317791
 42
0.05
 43
0.5
 44
0.1
 45
0.00000001
 78
     4
 79
     2
140
0.1200000047683716
146
0.7099999189376831
147
0.0599999986588955
176
   256
177
   256
178
     2
284
     4
340
DA
371
    -1
372
    -1
  0
DIMSTYLE
105
E3
330
A
100
AcDbSymbolTableRecord
100
AcDbDimStyleTableRecord
  2
AM_ANSI$7
 70
     0
  4
 mm
 40
10.0
 41
0.119999997317791
 42
0.05
 43
0.5
 44
0.1
 45
0.00000001
 78
     4
 79
     2
140
0.1200000047683716
146
0.7099999189376831
147
0.0599999986588955
176
   256
177
   256
178
     2
284
     4
340
DA
371
    -1
372
    -1
  0
DIMSTYLE
105
E4
330
A
100
AcDbSymbolTableRecord
100
AcDbDimStyleTableRecord
  2
AM_ANSI$0
 70
     0
  4
 mm
 40
10.0
 41
0.119999997317791
 42
0.05
 43
0.5
 44
0.1
 45
0.00000001
 78
     4
 79
     2
140
0.1200000047683716
146
0.7099999189376831
147
0.0599999986588955
176
   256
177
   256
178
     2
284
     4
340
DB
371
    -1
372
    -1
  0
DIMSTYLE
105
E5
330
A
100
AcDbSymbolTableRecord
100
AcDbDimStyleTableRecord
  2
AM_ANSI$0$7
 70
     0
  4
 mm
 40
10.0
 41
0.119999997317791
 42
0.05
 43
0.5
 44
0.1
 45
0.00000001
 78
     4
 79
     2
140
0.1200000047683716
146
0.7099999189376831
147
0.0599999986588955
176
   256
177
   256
178
     2
284
     4
340
DB
371
    -1
372
    -1
  0
DIMSTYLE
105
E6
330
A
100
AcDbSymbolTableRecord
100
AcDbDimStyleTableRecord
  2
AM_ANSI$3
 70
     0
  4
 mm
 40
10.0
 41
0.119999997317791
 42
0.05
 43
0.5
 44
0.1
 45
0.00000001
 78
     4
 79
     2
140
0.1200000047683716
146
0.7099999189376831
147
0.0599999986588955
176
   256
177
   256
178
     2
284
     4
340
DC
371
    -1
372
    -1
  0
DIMSTYLE
105
E7
330
A
100
AcDbSymbolTableRecord
100
AcDbDimStyleTableRecord
  2
AM_ANSI$3$7
 70
     0
  4
 mm
 40
10.0
 41
0.119999997317791
 42
0.05
 43
0.5
 44
0.1
 45
0.00000001
 78
     4
 79
     2
140
0.1200000047683716
146
0.7099999189376831
147
0.0599999986588955
176
   256
177
   256
178
     2
284
     4
340
DC
371
    -1
372
    -1
  0
DIMSTYLE
105
E8
330
A
100
AcDbSymbolTableRecord
100
AcDbDimStyleTableRecord
  2
AM_ANSI$4
 70
     0
  4
 mm
 40
10.0
 41
0.119999997317791
 42
0.05
 43
0.5
 44
0.1
 45
0.00000001
 78
     4
 79
     2
140
0.1200000047683716
146
0.7099999189376831
147
0.0599999986588955
176
   256
177
   256
178
     2
284
     4
340
DD
371
    -1
372
    -1
  0
DIMSTYLE
105
E9
330
A
100
AcDbSymbolTableRecord
100
AcDbDimStyleTableRecord
  2
AM_ANSI$4$7
 70
     0
  4
 mm
 40
10.0
 41
0.119999997317791
 42
0.05
 43
0.5
 44
0.1
 45
0.00000001
 78
     4
 79
     2
140
0.1200000047683716
146
0.7099999189376831
147
0.0599999986588955
176
   256
177
   256
178
     2
284
     4
340
DD
371
    -1
372
    -1
  0
DIMSTYLE
105
EA
330
A
100
AcDbSymbolTableRecord
100
AcDbDimStyleTableRecord
  2
AM_ANSI$SF
 70
     0
  4
 mm
 40
10.0
 41
0.119999997317791
 42
0.05
 43
0.5
 44
0.1
 45
0.00000001
 75
     1
 76
     1
 78
     4
 79
     2
140
0.1200000047683716
146
0.7099999189376831
147
0.0599999986588955
176
   256
177
   256
178
     2
284
     4
340
DF
371
    -1
372
    -1
  0
DIMSTYLE
105
EB
330
A
100
AcDbSymbolTableRecord
100
AcDbDimStyleTableRecord
  2
AM_ANSI$SF$7
 70
     0
  4
 mm
 40
10.0
 41
0.119999997317791
 42
0.05
 43
0.5
 44
0.1
 45
0.00000001
 75
     1
 76
     1
 78
     4
 79
     2
140
0.1200000047683716
146
0.7099999189376831
147
0.0599999986588955
176
   256
177
   256
178
     2
284
     4
340
DF
371
    -1
372
    -1
  0
DIMSTYLE
105
EC
330
A
100
AcDbSymbolTableRecord
100
AcDbDimStyleTableRecord
  2
AM_ANSI$SH
 70
     0
  4
 mm
 40
10.0
 41
0.119999997317791
 42
0.05
 43
0.5
 44
0.1
 45
0.00000001
 75
     1
 76
     1
 78
     4
 79
     2
140
0.1200000047683716
146
0.7099999189376831
147
0.0599999986588955
176
   256
177
   256
178
     2
284
     4
340
E0
371
    -1
372
    -1
  0
DIMSTYLE
105
ED
330
A
100
AcDbSymbolTableRecord
100
AcDbDimStyleTableRecord
  2
AM_ANSI$SH$7
 70
     0
  4
 mm
 40
10.0
 41
0.119999997317791
 42
0.05
 43
0.5
 44
0.1
 45
0.00000001
 75
     1
 76
     1
 78
     4
 79
     2
140
0.1200000047683716
146
0.7099999189376831
147
0.0599999986588955
176
   256
177
   256
178
     2
284
     4
340
E0
371
    -1
372
    -1
  0
DIMSTYLE
105
EE
330
A
100
AcDbSymbolTableRecord
100
AcDbDimStyleTableRecord
  2
Architectural (ANSI)
 70
     0
 40
10.0
 41
0.0984251946210861
 43
0.2362204724409449
 44
0.125
 45
0.00000001
 46
0.3937007874015748
 78
     3
 79
     3
140
0.1200000047683716
147
0.031496062992126
171
     1
176
   256
177
   256
178
   256
272
     2
274
     1
276
     2
277
     4
284
    12
285
     4
286
    12
340
D6
371
    -1
372
    -1
  0
DIMSTYLE
105
EF
330
A
100
AcDbSymbolTableRecord
100
AcDbDimStyleTableRecord
  2
Architectural (ANSI)$7
 70
     0
 40
10.0
 41
0.0984251946210861
 43
0.2362204724409449
 44
0.125
 45
0.00000001
 46
0.3937007874015748
 78
     3
 79
     3
140
0.1200000047683716
147
0.031496062992126
171
     1
176
   256
177
   256
178
   256
272
     2
274
     1
276
     2
277
     4
284
    12
285
     4
286
    12
340
D6
371
    -1
372
    -1
  0
DIMSTYLE
105
F0
330
A
100
AcDbSymbolTableRecord
100
AcDbDimStyleTableRecord
  2
Default - Fraction (ANSI)
 70
     0
 40
10.0
 41
0.0984251946210861
 43
0.2362204724409449
 44
0.125
 45
0.00000001
 46
0.3937007874015748
 79
     3
140
0.1200000047683716
147
0.031496062992126
171
     1
176
   256
177
   256
178
   256
272
     2
274
     1
276
     2
277
     5
284
    12
285
     4
286
    12
340
D6
371
    -1
372
    -1
  0
DIMSTYLE
105
F1
330
A
100
AcDbSymbolTableRecord
100
AcDbDimStyleTableRecord
  2
Default - Fraction (ANSI)$7
 70
     0
 40
10.0
 41
0.0984251946210861
 43
0.2362204724409449
 44
0.125
 45
0.00000001
 46
0.3937007874015748
 79
     3
140
0.1200000047683716
147
0.031496062992126
171
     1
176
   256
177
   256
178
   256
272
     2
274
     1
276
     2
277
     5
284
    12
285
     4
286
    12
340
D6
371
    -1
372
    -1
  0
DIMSTYLE
105
F2
330
A
100
AcDbSymbolTableRecord
100
AcDbDimStyleTableRecord
  2
Default - mm (ANSI)
 70
     0
 40
10.0
 41
0.0984251946210861
 42
0.063
 43
0.2362204724409449
 44
0.125
 45
0.00000001
 46
0.3937007874015748
 73
     0
 78
     4
 79
     1
140
0.1200000047683716
143
1.0
144
25.4
147
0.031496062992126
171
     1
176
   256
177
   256
178
   256
179
     1
271
     2
272
     2
274
     1
284
     4
285
     4
340
D6
371
    -1
372
    -1
  0
DIMSTYLE
105
F3
330
A
100
AcDbSymbolTableRecord
100
AcDbDimStyleTableRecord
  2
Default - mm (ANSI)$7
 70
     0
 40
10.0
 41
0.0984251946210861
 42
0.063
 43
0.2362204724409449
 44
0.125
 45
0.00000001
 46
0.3937007874015748
 73
     0
 78
     4
 79
     1
140
0.1200000047683716
143
1.0
144
25.4
147
0.031496062992126
171
     1
176
   256
177
   256
178
   256
179
     1
271
     2
272
     2
274
     1
284
     4
285
     4
340
D6
371
    -1
372
    -1
  0
DIMSTYLE
105
F4
330
A
100
AcDbSymbolTableRecord
100
AcDbDimStyleTableRecord
  2
Default - mm [in] (ANSI)
 70
     0
  4
 in
 40
10.0
 41
0.0984251946210861
 42
0.063
 43
0.25
 44
0.125
 45
0.00000001
 46
0.3937007874015748
 73
     0
 78
     4
 79
     1
140
0.1200000047683716
143
0.03937
144
25.4
147
0.031496062992126
170
     1
171
     3
176
   256
177
   256
178
   256
179
     1
271
     2
272
     2
274
     3
284
     4
285
     4
286
     4
340
D6
371
    -1
372
    -1
  0
DIMSTYLE
105
F5
330
A
100
AcDbSymbolTableRecord
100
AcDbDimStyleTableRecord
  2
Default - mm [in] (ANSI)$7
 70
     0
  4
 in
 40
10.0
 41
0.0984251946210861
 42
0.063
 43
0.25
 44
0.125
 45
0.00000001
 46
0.3937007874015748
 73
     0
 78
     4
 79
     1
140
0.1200000047683716
143
0.03937
144
25.4
147
0.031496062992126
170
     1
171
     3
176
   256
177
   256
178
   256
179
     1
271
     2
272
     2
274
     3
284
     4
285
     4
286
     4
340
D6
371
    -1
372
    -1
  0
DIMSTYLE
105
F6
102
{ACAD_REACTORS
330
543
330
62F
330
719
330
803
330
903
330
9ED
330
AD7
330
B91
330
C9A
102
}
330
A
100
AcDbSymbolTableRecord
100
AcDbDimStyleTableRecord
  2
Default (ANSI)
 70
     0
 40
10.0
 41
0.0984251946210861
 43
0.2362204724409449
 44
0.125
 45
0.00000001
 46
0.3937007874015748
 79
     1
140
0.1200000047683716
147
0.031496062992126
171
     1
176
   256
177
   256
178
   256
271
     2
272
     2
274
     1
284
     4
285
     4
340
D6
371
    -1
372
    -1
  0
DIMSTYLE
105
F7
330
A
100
AcDbSymbolTableRecord
100
AcDbDimStyleTableRecord
  2
Default (ANSI)$7
 70
     0
 40
10.0
 41
0.0984251946210861
 43
0.2362204724409449
 44
0.125
 45
0.00000001
 46
0.3937007874015748
 79
     1
140
0.1200000047683716
147
0.031496062992126
171
     1
176
   256
177
   256
178
   256
271
     2
272
     2
274
     1
284
     4
285
     4
340
D6
371
    -1
372
    -1
  0
DIMSTYLE
105
F8
330
A
100
AcDbSymbolTableRecord
100
AcDbDimStyleTableRecord
  2
Alternate (ANSI)
 70
     0
 40
10.0
 41
0.0979999974370003
340
55
342
F9
  0
DIMSTYLE
105
10B
330
A
100
AcDbSymbolTableRecord
100
AcDbDimStyleTableRecord
  2
Datum (ANSI)
 70
     0
 40
10.0
 41
0.0979999974370003
340
55
342
F9
  0
DIMSTYLE
105
11A
330
A
100
AcDbSymbolTableRecord
100
AcDbDimStyleTableRecord
  2
Large (ANSI)
 70
     0
 40
10.0
 41
0.1959999948740005
340
55
342
F9
  0
ENDTAB
  0
TABLE
  2
BLOCK_RECORD
  5
1
330
0
100
AcDbSymbolTable
 70
    13
  0
BLOCK_RECORD
  5
6C
330
1
100
AcDbSymbolTableRecord
100
AcDbBlockTableRecord
  2
*Model_Space
340
6F
 70
     0
280
     1
281
     0
  0
BLOCK_RECORD
  5
68
330
1
100
AcDbSymbolTableRecord
100
AcDbBlockTableRecord
  2
*Paper_Space
340
6B
 70
     0
280
     1
281
     0
  0
BLOCK_RECORD
  5
70
330
1
100
AcDbSymbolTableRecord
100
AcDbBlockTableRecord
  2
*Paper_Space0
340
73
 70
     0
280
     1
281
     0
  0
BLOCK_RECORD
  5
F9
330
1
100
AcDbSymbolTableRecord
100
AcDbBlockTableRecord
  2
_Closed
340
0
 70
     0
280
     1
281
     0
  0
BLOCK_RECORD
  5
100
330
1
100
AcDbSymbolTableRecord
100
AcDbBlockTableRecord
  2
DatumFilled45
340
0
 70
     0
280
     1
281
     0
  0
BLOCK_RECORD
  5
10C
330
1
100
AcDbSymbolTableRecord
100
AcDbBlockTableRecord
  2
Filled-1
340
0
 70
     0
280
     1
281
     0
  0
BLOCK_RECORD
  5
546
330
1
100
AcDbSymbolTableRecord
100
AcDbBlockTableRecord
  2
*D4
340
0
 70
     0
280
     1
281
     0
  0
BLOCK_RECORD
  5
630
330
1
100
AcDbSymbolTableRecord
100
AcDbBlockTableRecord
  2
*D5
340
0
 70
     0
280
     1
281
     0
  0
BLOCK_RECORD
  5
71A
330
1
100
AcDbSymbolTableRecord
100
AcDbBlockTableRecord
  2
*D6
340
0
 70
     0
280
     1
281
     0
  0
BLOCK_RECORD
  5
804
330
1
100
AcDbSymbolTableRecord
100
AcDbBlockTableRecord
  2
*D7
340
0
 70
     0
280
     1
281
     0
  0
BLOCK_RECORD
  5
904
330
1
100
AcDbSymbolTableRecord
100
AcDbBlockTableRecord
  2
*D8
340
0
 70
     0
280
     1
281
     0
  0
BLOCK_RECORD
  5
9EE
330
1
100
AcDbSymbolTableRecord
100
AcDbBlockTableRecord
  2
*D9
340
0
 70
     0
280
     1
281
     0
  0
BLOCK_RECORD
  5
AD8
330
1
100
AcDbSymbolTableRecord
100
AcDbBlockTableRecord
  2
*D10
340
0
 70
     0
280
     1
281
     0
  0
BLOCK_RECORD
  5
B92
330
1
100
AcDbSymbolTableRecord
100
AcDbBlockTableRecord
  2
*D11
340
0
 70
     0
280
     1
281
     0
  0
BLOCK_RECORD
  5
C9B
330
1
100
AcDbSymbolTableRecord
100
AcDbBlockTableRecord
  2
*D12
340
0
 70
     0
280
     1
281
     0
  0
ENDTAB
  0
ENDSEC
  0
SECTION
  2
BLOCKS
  0
BLOCK
  5
6D
330
6C
100
AcDbEntity
  8
0
100
AcDbBlockBegin
  2
*Model_Space
 70
     0
 10
0.0
 20
0.0
 30
0.0
  3
*Model_Space
  1

  0
ENDBLK
  5
6E
330
6C
100
AcDbEntity
  8
0
100
AcDbBlockEnd
  0
BLOCK
  5
69
330
68
100
AcDbEntity
 67
     1
  8
0
100
AcDbBlockBegin
  2
*Paper_Space
 70
     0
 10
0.0
 20
0.0
 30
0.0
  3
*Paper_Space
  1

  0
ENDBLK
  5
6A
330
68
100
AcDbEntity
 67
     1
  8
0
100
AcDbBlockEnd
  0
BLOCK
  5
71
330
70
100
AcDbEntity
 67
     1
  8
0
100
AcDbBlockBegin
  2
*Paper_Space0
 70
     0
 10
0.0
 20
0.0
 30
0.0
  3
*Paper_Space0
  1

  0
ENDBLK
  5
72
330
70
100
AcDbEntity
 67
     1
  8
0
100
AcDbBlockEnd
  0
BLOCK
  5
FE
330
F9
100
AcDbEntity
  8
0
100
AcDbBlockBegin
  2
_Closed
 70
     0
 10
0.0
 20
0.0
 30
0.0
  3
_Closed
  1

  0
LINE
  5
FA
330
F9
100
AcDbEntity
  8
0
  6
ByBlock
 62
     0
370
    -2
100
AcDbLine
 10
-1.0
 20
0.1666666666666666
 30
0.0
 11
0.0
 21
0.0
 31
0.0
  0
LINE
  5
FB
330
F9
100
AcDbEntity
  8
0
  6
ByBlock
 62
     0
370
    -2
100
AcDbLine
 10
0.0
 20
0.0
 30
0.0
 11
-1.0
 21
-0.1666666666666666
 31
0.0
  0
LINE
  5
FC
330
F9
100
AcDbEntity
  8
0
  6
ByBlock
 62
     0
370
    -2
100
AcDbLine
 10
-1.0
 20
0.1666666666666666
 30
0.0
 11
-1.0
 21
-0.1666666666666666
 31
0.0
  0
LINE
  5
FD
330
F9
100
AcDbEntity
  8
0
  6
ByBlock
 62
     0
370
    -2
100
AcDbLine
 10
0.0
 20
0.0
 30
0.0
 11
-1.0
 21
0.0
 31
0.0
  0
ENDBLK
  5
FF
330
F9
100
AcDbEntity
  8
0
100
AcDbBlockEnd
  0
BLOCK
  5
101
330
100
100
AcDbEntity
  8
0
100
AcDbBlockBegin
  2
DatumFilled45
 70
     0
 10
0.0
 20
0.0
 30
0.0
  3
DatumFilled45
  1

  0
POLYLINE
  5
103
330
100
100
AcDbEntity
  8
0
 62
     0
100
AcDb2dPolyline
 66
     1
 10
0.0
 20
0.0
 30
0.0
 70
   128
  0
VERTEX
  5
104
330
103
100
AcDbEntity
  8
0
 62
     0
100
AcDbVertex
100
AcDb2dVertex
 10
0.0
 20
0.9999999999999998
 30
0.0
  0
VERTEX
  5
105
330
103
100
AcDbEntity
  8
0
 62
     0
100
AcDbVertex
100
AcDb2dVertex
 10
0.0
 20
-0.9999999999999998
 30
0.0
  0
VERTEX
  5
107
330
103
100
AcDbEntity
  8
0
 62
     0
100
AcDbVertex
100
AcDb2dVertex
 10
-0.9999999999999998
 20
0.0
 30
0.0
  0
VERTEX
  5
108
330
103
100
AcDbEntity
  8
0
 62
     0
100
AcDbVertex
100
AcDb2dVertex
 10
0.0
 20
0.9999999999999998
 30
0.0
  0
SEQEND
  5
106
330
103
100
AcDbEntity
  8
0
 62
     0
  0
SOLID
  5
10A
330
100
100
AcDbEntity
  8
0
 62
     0
100
AcDbTrace
 10
0.0
 20
0.9999999999999998
 30
0.0
 11
0.0
 21
-0.9999999999999998
 31
0.0
 12
-0.9999999999999998
 22
0.0
 32
0.0
 13
0.0
 23
0.9999999999999998
 33
0.0
  0
ENDBLK
  5
102
330
100
100
AcDbEntity
  8
0
100
AcDbBlockEnd
  0
BLOCK
  5
10D
330
10C
100
AcDbEntity
  8
0
100
AcDbBlockBegin
  2
Filled-1
 70
     0
 10
0.0
 20
0.0
 30
0.0
  3
Filled-1
  1

  0
LINE
  5
10F
330
10C
100
AcDbEntity
  8
0
 62
     0
100
AcDbLine
 10
-0.9999999999999998
 20
0.0
 30
0.0
 11
0.0
 21
0.0
 31
0.0
  0
POLYLINE
  5
110
330
10C
100
AcDbEntity
  8
0
 62
     0
100
AcDb2dPolyline
 66
     1
 10
0.0
 20
0.0
 30
0.0
 70
   128
  0
VERTEX
  5
111
330
110
100
AcDbEntity
  8
0
 62
     0
100
AcDbVertex
100
AcDb2dVertex
 10
-0.9999999999999998
 20
-0.0994897959183674
 30
0.0
  0
VERTEX
  5
112
330
110
100
AcDbEntity
  8
0
 62
     0
100
AcDbVertex
100
AcDb2dVertex
 10
0.0
 20
0.0
 30
0.0
  0
VERTEX
  5
114
330
110
100
AcDbEntity
  8
0
 62
     0
100
AcDbVertex
100
AcDb2dVertex
 10
-0.9999999999999998
 20
0.0994897959183674
 30
0.0
  0
VERTEX
  5
115
330
110
100
AcDbEntity
  8
0
 62
     0
100
AcDbVertex
100
AcDb2dVertex
 10
-0.9999999999999998
 20
-0.0994897959183674
 30
0.0
  0
SEQEND
  5
113
330
110
100
AcDbEntity
  8
0
 62
     0
  0
SOLID
  5
116
330
10C
100
AcDbEntity
  8
0
 62
     0
100
AcDbTrace
 10
-0.9999999999999998
 20
-0.0994897959183674
 30
0.0
 11
0.0
 21
0.0
 31
0.0
 12
-0.9999999999999998
 22
0.0994897959183674
 32
0.0
 13
-0.9999999999999998
 23
-0.0994897959183674
 33
0.0
  0
LINE
  5
117
330
10C
100
AcDbEntity
  8
0
 62
     0
100
AcDbLine
 10
-0.9999999999999998
 20
-0.0994897959183674
 30
0.0
 11
0.0
 21
0.0
 31
0.0
  0
LINE
  5
118
330
10C
100
AcDbEntity
  8
0
 62
     0
100
AcDbLine
 10
0.0
 20
0.0
 30
0.0
 11
-0.9999999999999998
 21
0.0994897959183674
 31
0.0
  0
LINE
  5
119
330
10C
100
AcDbEntity
  8
0
 62
     0
100
AcDbLine
 10
-0.9999999999999998
 20
0.0994897959183674
 30
0.0
 11
-0.9999999999999998
 21
-0.0994897959183674
 31
0.0
  0
ENDBLK
  5
10E
330
10C
100
AcDbEntity
  8
0
100
AcDbBlockEnd
  0
BLOCK
  5
547
330
546
100
AcDbEntity
  8
0
100
AcDbBlockBegin
  2
*D4
 70
     1
 10
0.0
 20
0.0
 30
0.0
  3
*D4
  1

  0
LINE
  5
625
330
546
100
AcDbEntity
  8
Dimension (ANSI)
440
 16777216
100
AcDbLine
 10
26.13226030152919
 20
67.31900823378611
 30
0.0
 11
26.13226030152919
 21
76.60542555662073
 31
0.0
  0
LINE
  5
626
330
546
100
AcDbEntity
  8
Dimension (ANSI)
440
 16777216
100
AcDbLine
 10
58.1322603015292
 20
67.31900823378611
 30
0.0
 11
58.1322603015292
 21
76.60542555662073
 31
0.0
  0
LINE
  5
627
330
546
100
AcDbEntity
  8
Dimension (ANSI)
440
 16777216
100
AcDbLine
 10
27.11651224774005
 20
75.35542555662073
 30
0.0
 11
39.83798462925119
 21
75.35542555662073
 31
0.0
  0
LINE
  5
628
330
546
100
AcDbEntity
  8
Dimension (ANSI)
440
 16777216
100
AcDbLine
 10
57.14800835531834
 20
75.35542555662073
 30
0.0
 11
44.42653597380719
 21
75.35542555662073
 31
0.0
  0
SOLID
  5
629
330
546
100
AcDbEntity
  8
Dimension (ANSI)
440
 16777216
100
AcDbTrace
 10
27.11651224774005
 20
75.51946754765587
 30
0.0
 11
27.11651224774005
 21
75.19138356558558
 31
0.0
 12
26.13226030152919
 22
75.35542555662073
 32
0.0
 13
26.13226030152919
 23
75.35542555662073
 33
0.0
  0
SOLID
  5
62A
330
546
100
AcDbEntity
  8
Dimension (ANSI)
440
 16777216
100
AcDbTrace
 10
57.14800835531834
 20
75.51946754765587
 30
0.0
 11
57.14800835531834
 21
75.19138356558558
 31
0.0
 12
58.1322603015292
 22
75.35542555662073
 32
0.0
 13
58.1322603015292
 23
75.35542555662073
 33
0.0
  0
MTEXT
  5
62B
330
546
100
AcDbEntity
  8
Dimension (ANSI)
440
 16777216
100
AcDbMText
 10
40.15294525917244
 20
75.98040878762548
 30
0.0
 40
1.200000047683715
 41
0.0
 46
0.0
 71
     1
 72
     1
  1
\A1;32.00
  7
Note Text (ANSI)
 73
     1
 44
1.0
  0
POINT
  5
62C
330
546
100
AcDbEntity
  8
Defpoints
 62
     0
440
 16777216
100
AcDbPoint
 10
26.13226030152919
 20
66.69400823378611
 30
0.0
  0
POINT
  5
62D
330
546
100
AcDbEntity
  8
Defpoints
 62
     0
440
 16777216
100
AcDbPoint
 10
58.1322603015292
 20
66.69400823378611
 30
0.0
  0
POINT
  5
62E
330
546
100
AcDbEntity
  8
Defpoints
 62
     0
440
 16777216
100
AcDbPoint
 10
58.1322603015292
 20
75.35542555662073
 30
0.0
  0
ENDBLK
  5
548
330
546
100
AcDbEntity
  8
0
100
AcDbBlockEnd
  0
BLOCK
  5
631
330
630
100
AcDbEntity
  8
0
100
AcDbBlockBegin
  2
*D5
 70
     1
 10
0.0
 20
0.0
 30
0.0
  3
*D5
  1

  0
LINE
  5
70F
330
630
100
AcDbEntity
  8
Dimension (ANSI)
440
 16777216
100
AcDbLine
 10
26.13226030152919
 20
67.31900823378611
 30
0.0
 11
26.13226030152919
 21
72.69755736853809
 31
0.0
  0
LINE
  5
710
330
630
100
AcDbEntity
  8
Dimension (ANSI)
440
 16777216
100
AcDbLine
 10
27.00726030152919
 20
68.13554949452234
 30
0.0
 11
27.00726030152919
 21
72.69755736853809
 31
0.0
  0
LINE
  5
711
330
630
100
AcDbEntity
  8
Dimension (ANSI)
440
 16777216
100
AcDbLine
 10
27.99151224774005
 20
71.44755736853809
 30
0.0
 11
28.97576419395091
 21
71.44755736853809
 31
0.0
  0
LINE
  5
712
330
630
100
AcDbEntity
  8
Dimension (ANSI)
440
 16777216
100
AcDbLine
 10
25.14800835531833
 20
71.44755736853809
 30
0.0
 11
23.65519401241781
 21
71.44755736853809
 31
0.0
  0
SOLID
  5
713
330
630
100
AcDbEntity
  8
Dimension (ANSI)
440
 16777216
100
AcDbTrace
 10
27.99151224774005
 20
71.61159935957325
 30
0.0
 11
27.99151224774005
 21
71.28351537750295
 31
0.0
 12
27.00726030152919
 22
71.44755736853809
 32
0.0
 13
27.00726030152919
 23
71.44755736853809
 33
0.0
  0
SOLID
  5
714
330
630
100
AcDbEntity
  8
Dimension (ANSI)
440
 16777216
100
AcDbTrace
 10
25.14800835531833
 20
71.61159935957325
 30
0.0
 11
25.14800835531833
 21
71.28351537750295
 31
0.0
 12
26.13226030152919
 22
71.44755736853809
 32
0.0
 13
26.13226030152919
 23
71.44755736853809
 33
0.0
  0
MTEXT
  5
715
330
630
100
AcDbEntity
  8
Dimension (ANSI)
440
 16777216
100
AcDbMText
 10
20.26407478450156
 20
72.07495832964345
 30
0.0
 40
1.200000047683715
 41
0.0
 46
0.0
 71
     1
 72
     1
  1
\A1;0.88
  7
Note Text (ANSI)
 73
     1
 44
1.0
  0
POINT
  5
716
330
630
100
AcDbEntity
  8
Defpoints
 62
     0
440
 16777216
100
AcDbPoint
 10
26.13226030152919
 20
66.69400823378611
 30
0.0
  0
POINT
  5
717
330
630
100
AcDbEntity
  8
Defpoints
 62
     0
440
 16777216
100
AcDbPoint
 10
27.00726030152919
 20
67.51054949452234
 30
0.0
  0
POINT
  5
718
330
630
100
AcDbEntity
  8
Defpoints
 62
     0
440
 16777216
100
AcDbPoint
 10
27.00726030152919
 20
71.44755736853809
 30
0.0
  0
ENDBLK
  5
632
330
630
100
AcDbEntity
  8
0
100
AcDbBlockEnd
  0
BLOCK
  5
71B
330
71A
100
AcDbEntity
  8
0
100
AcDbBlockBegin
  2
*D6
 70
     1
 10
0.0
 20
0.0
 30
0.0
  3
*D6
  1

  0
LINE
  5
7F9
330
71A
100
AcDbEntity
  8
Dimension (ANSI)
440
 16777216
100
AcDbLine
 10
27.00726030152919
 20
68.13554949452234
 30
0.0
 11
27.00726030152919
 21
72.69755736853809
 31
0.0
  0
LINE
  5
7FA
330
71A
100
AcDbEntity
  8
Dimension (ANSI)
440
 16777216
100
AcDbLine
 10
57.2572603015292
 20
68.13554949452234
 30
0.0
 11
57.2572603015292
 21
72.69755736853809
 31
0.0
  0
LINE
  5
7FB
330
71A
100
AcDbEntity
  8
Dimension (ANSI)
440
 16777216
100
AcDbLine
 10
27.99151224774005
 20
71.44755736853809
 30
0.0
 11
39.84765554965359
 21
71.44755736853809
 31
0.0
  0
LINE
  5
7FC
330
71A
100
AcDbEntity
  8
Dimension (ANSI)
440
 16777216
100
AcDbLine
 10
56.27300835531833
 20
71.44755736853809
 30
0.0
 11
44.41686505340481
 21
71.44755736853809
 31
0.0
  0
SOLID
  5
7FD
330
71A
100
AcDbEntity
  8
Dimension (ANSI)
440
 16777216
100
AcDbTrace
 10
27.99151224774005
 20
71.61159935957323
 30
0.0
 11
27.99151224774005
 21
71.28351537750294
 31
0.0
 12
27.00726030152919
 22
71.44755736853809
 32
0.0
 13
27.00726030152919
 23
71.44755736853809
 33
0.0
  0
SOLID
  5
7FE
330
71A
100
AcDbEntity
  8
Dimension (ANSI)
440
 16777216
100
AcDbTrace
 10
56.27300835531833
 20
71.61159935957323
 30
0.0
 11
56.27300835531833
 21
71.28351537750294
 31
0.0
 12
57.2572603015292
 22
71.44755736853809
 32
0.0
 13
57.2572603015292
 23
71.44755736853809
 33
0.0
  0
MTEXT
  5
7FF
330
71A
100
AcDbEntity
  8
Dimension (ANSI)
440
 16777216
100
AcDbMText
 10
40.16261617957485
 20
72.07254059954284
 30
0.0
 40
1.200000047683715
 41
0.0
 46
0.0
 71
     1
 72
     1
  1
\A1;30.25
  7
Note Text (ANSI)
 73
     1
 44
1.0
  0
POINT
  5
800
330
71A
100
AcDbEntity
  8
Defpoints
 62
     0
440
 16777216
100
AcDbPoint
 10
27.00726030152919
 20
67.51054949452234
 30
0.0
  0
POINT
  5
801
330
71A
100
AcDbEntity
  8
Defpoints
 62
     0
440
 16777216
100
AcDbPoint
 10
57.2572603015292
 20
67.51054949452234
 30
0.0
  0
POINT
  5
802
330
71A
100
AcDbEntity
  8
Defpoints
 62
     0
440
 16777216
100
AcDbPoint
 10
57.2572603015292
 20
71.44755736853809
 30
0.0
  0
ENDBLK
  5
71C
330
71A
100
AcDbEntity
  8
0
100
AcDbBlockEnd
  0
BLOCK
  5
805
330
804
100
AcDbEntity
  8
0
100
AcDbBlockBegin
  2
*D7
 70
     1
 10
0.0
 20
0.0
 30
0.0
  3
*D7
  1

  0
LINE
  5
8F8
330
804
100
AcDbEntity
  8
Dimension (ANSI)
440
 16777216
100
AcDbLine
 10
25.66730156226544
 20
35.97404949452233
 30
0.0
 11
23.12604430264305
 21
35.97404949452233
 31
0.0
  0
LINE
  5
8F9
330
804
100
AcDbEntity
  8
Dimension (ANSI)
440
 16777216
100
AcDbLine
 10
24.85076030152918
 20
36.84904949452234
 30
0.0
 11
23.12604430264305
 21
36.84904949452234
 31
0.0
  0
LINE
  5
8FA
330
804
100
AcDbEntity
  8
Dimension (ANSI)
440
 16777216
100
AcDbLine
 10
24.37604430264305
 20
37.8333014407332
 30
0.0
 11
24.37604430264305
 21
38.81755338694406
 31
0.0
  0
LINE
  5
8FB
330
804
100
AcDbEntity
  8
Dimension (ANSI)
440
 16777216
100
AcDbLine
 10
24.37604430264305
 20
34.98979754831147
 30
0.0
 11
24.37604430264305
 21
33.10407283570093
 31
0.0
  0
LINE
  5
8FC
330
804
100
AcDbEntity
  8
Dimension (ANSI)
440
 16777216
100
AcDbLine
 10
24.37604430264305
 20
33.10407283570093
 30
0.0
 11
23.39179235643219
 21
33.10407283570093
 31
0.0
  0
SOLID
  5
8FD
330
804
100
AcDbEntity
  8
Dimension (ANSI)
440
 16777216
100
AcDbTrace
 10
24.21200231160791
 20
37.8333014407332
 30
0.0
 11
24.5400862936782
 21
37.8333014407332
 31
0.0
 12
24.37604430264305
 22
36.84904949452234
 32
0.0
 13
24.37604430264305
 23
36.84904949452234
 33
0.0
  0
SOLID
  5
8FE
330
804
100
AcDbEntity
  8
Dimension (ANSI)
440
 16777216
100
AcDbTrace
 10
24.21200231160791
 20
34.98979754831147
 30
0.0
 11
24.5400862936782
 21
34.98979754831147
 31
0.0
 12
24.37604430264305
 22
35.97404949452233
 32
0.0
 13
24.37604430264305
 23
35.97404949452233
 33
0.0
  0
MTEXT
  5
8FF
330
804
100
AcDbEntity
  8
Dimension (ANSI)
440
 16777216
100
AcDbMText
 10
20.00067312851593
 20
33.73147379680628
 30
0.0
 40
1.200000047683715
 41
0.0
 46
0.0
 71
     1
 72
     1
  1
\A1;0.88
  7
Note Text (ANSI)
 73
     1
 44
1.0
  0
POINT
  5
900
330
804
100
AcDbEntity
  8
Defpoints
 62
     0
440
 16777216
100
AcDbPoint
 10
26.29230156226544
 20
35.97404949452233
 30
0.0
  0
POINT
  5
901
330
804
100
AcDbEntity
  8
Defpoints
 62
     0
440
 16777216
100
AcDbPoint
 10
25.47576030152918
 20
36.84904949452234
 30
0.0
  0
POINT
  5
902
330
804
100
AcDbEntity
  8
Defpoints
 62
     0
440
 16777216
100
AcDbPoint
 10
24.37604430264305
 20
36.84904949452234
 30
0.0
  0
ENDBLK
  5
806
330
804
100
AcDbEntity
  8
0
100
AcDbBlockEnd
  0
BLOCK
  5
905
330
904
100
AcDbEntity
  8
0
100
AcDbBlockBegin
  2
*D8
 70
     1
 10
0.0
 20
0.0
 30
0.0
  3
*D8
  1

  0
LINE
  5
9E3
330
904
100
AcDbEntity
  8
Dimension (ANSI)
440
 16777216
100
AcDbLine
 10
24.85076030152918
 20
36.84904949452234
 30
0.0
 11
20.28875242751345
 21
36.84904949452234
 31
0.0
  0
LINE
  5
9E4
330
904
100
AcDbEntity
  8
Dimension (ANSI)
440
 16777216
100
AcDbLine
 10
24.85076030152919
 20
65.97904949452233
 30
0.0
 11
20.28875242751345
 21
65.97904949452233
 31
0.0
  0
LINE
  5
9E5
330
904
100
AcDbEntity
  8
Dimension (ANSI)
440
 16777216
100
AcDbLine
 10
21.53875242751345
 20
37.8333014407332
 30
0.0
 11
21.53875242751345
 21
50.47410563359632
 31
0.0
  0
LINE
  5
9E6
330
904
100
AcDbEntity
  8
Dimension (ANSI)
440
 16777216
100
AcDbLine
 10
21.53875242751345
 20
64.99479754831146
 30
0.0
 11
21.53875242751345
 21
52.35399335544833
 31
0.0
  0
SOLID
  5
9E7
330
904
100
AcDbEntity
  8
Dimension (ANSI)
440
 16777216
100
AcDbTrace
 10
21.3747104364783
 20
37.8333014407332
 30
0.0
 11
21.70279441854859
 21
37.8333014407332
 31
0.0
 12
21.53875242751345
 22
36.84904949452234
 32
0.0
 13
21.53875242751345
 23
36.84904949452234
 33
0.0
  0
SOLID
  5
9E8
330
904
100
AcDbEntity
  8
Dimension (ANSI)
440
 16777216
100
AcDbTrace
 10
21.37471043647831
 20
64.99479754831146
 30
0.0
 11
21.7027944185486
 21
64.99479754831146
 31
0.0
 12
21.53875242751345
 22
65.97904949452233
 32
0.0
 13
21.53875242751345
 23
65.97904949452233
 33
0.0
  0
MTEXT
  5
9E9
330
904
100
AcDbEntity
  8
Dimension (ANSI)
440
 16777216
100
AcDbMText
 10
19.57757036091118
 20
52.03903272552708
 30
0.0
 40
1.200000047683715
 41
0.0
 46
0.0
 71
     1
 72
     1
  1
\A1;29.13
  7
Note Text (ANSI)
 73
     1
 44
1.0
  0
POINT
  5
9EA
330
904
100
AcDbEntity
  8
Defpoints
 62
     0
440
 16777216
100
AcDbPoint
 10
25.47576030152918
 20
36.84904949452234
 30
0.0
  0
POINT
  5
9EB
330
904
100
AcDbEntity
  8
Defpoints
 62
     0
440
 16777216
100
AcDbPoint
 10
25.47576030152919
 20
65.97904949452233
 30
0.0
  0
POINT
  5
9EC
330
904
100
AcDbEntity
  8
Defpoints
 62
     0
440
 16777216
100
AcDbPoint
 10
21.53875242751345
 20
65.97904949452233
 30
0.0
  0
ENDBLK
  5
906
330
904
100
AcDbEntity
  8
0
100
AcDbBlockEnd
  0
BLOCK
  5
9EF
330
9EE
100
AcDbEntity
  8
0
100
AcDbBlockBegin
  2
*D9
 70
     1
 10
0.0
 20
0.0
 30
0.0
  3
*D9
  1

  0
LINE
  5
ACD
330
9EE
100
AcDbEntity
  8
Dimension (ANSI)
440
 16777216
100
AcDbLine
 10
25.66730156226544
 20
35.97404949452233
 30
0.0
 11
14.01867951502135
 21
35.97404949452234
 31
0.0
  0
LINE
  5
ACE
330
9EE
100
AcDbEntity
  8
Dimension (ANSI)
440
 16777216
100
AcDbLine
 10
25.66730156226542
 20
66.85404949452233
 30
0.0
 11
14.01867951502135
 21
66.85404949452233
 31
0.0
  0
LINE
  5
ACF
330
9EE
100
AcDbEntity
  8
Dimension (ANSI)
440
 16777216
100
AcDbLine
 10
15.26867951502135
 20
36.9583014407332
 30
0.0
 11
15.26867951502135
 21
50.47168790349573
 31
0.0
  0
LINE
  5
AD0
330
9EE
100
AcDbEntity
  8
Dimension (ANSI)
440
 16777216
100
AcDbLine
 10
15.26867951502135
 20
65.86979754831147
 30
0.0
 11
15.26867951502135
 21
52.35641108554894
 31
0.0
  0
SOLID
  5
AD1
330
9EE
100
AcDbEntity
  8
Dimension (ANSI)
440
 16777216
100
AcDbTrace
 10
15.1046375239862
 20
36.9583014407332
 30
0.0
 11
15.43272150605649
 21
36.9583014407332
 31
0.0
 12
15.26867951502135
 22
35.97404949452234
 32
0.0
 13
15.26867951502135
 23
35.97404949452234
 33
0.0
  0
SOLID
  5
AD2
330
9EE
100
AcDbEntity
  8
Dimension (ANSI)
440
 16777216
100
AcDbTrace
 10
15.10463752398621
 20
65.86979754831147
 30
0.0
 11
15.43272150605649
 21
65.86979754831147
 31
0.0
 12
15.26867951502135
 22
66.85404949452233
 32
0.0
 13
15.26867951502135
 23
66.85404949452233
 33
0.0
  0
MTEXT
  5
AD3
330
9EE
100
AcDbEntity
  8
Dimension (ANSI)
440
 16777216
100
AcDbMText
 10
13.2857378775137
 20
52.04145045562768
 30
0.0
 40
1.200000047683715
 41
0.0
 46
0.0
 71
     1
 72
     1
  1
\A1;30.88
  7
Note Text (ANSI)
 73
     1
 44
1.0
  0
POINT
  5
AD4
330
9EE
100
AcDbEntity
  8
Defpoints
 62
     0
440
 16777216
100
AcDbPoint
 10
26.29230156226544
 20
35.97404949452233
 30
0.0
  0
POINT
  5
AD5
330
9EE
100
AcDbEntity
  8
Defpoints
 62
     0
440
 16777216
100
AcDbPoint
 10
26.29230156226542
 20
66.85404949452233
 30
0.0
  0
POINT
  5
AD6
330
9EE
100
AcDbEntity
  8
Defpoints
 62
     0
440
 16777216
100
AcDbPoint
 10
15.26867951502135
 20
66.85404949452233
 30
0.0
  0
ENDBLK
  5
9F0
330
9EE
100
AcDbEntity
  8
0
100
AcDbBlockEnd
  0
BLOCK
  5
AD9
330
AD8
100
AcDbEntity
  8
0
100
AcDbBlockBegin
  2
*D10
 70
     1
 10
0.0
 20
0.0
 30
0.0
  3
*D10
  1

  0
LINE
  5
B89
330
AD8
100
AcDbEntity
  8
Dimension (ANSI)
440
 16777216
100
AcDbLine
 10
60.90523058856834
 20
33.86172912437408
 30
0.0
 11
59.56323393893805
 21
33.86172912437409
 31
0.0
  0
LINE
  5
B8A
330
AD8
100
AcDbEntity
  8
Dimension (ANSI)
440
 16777216
100
AcDbLine
 10
59.56323393893805
 20
33.86172912437409
 30
0.0
 11
58.03069488889526
 21
35.84708795414146
 31
0.0
  0
MTEXT
  5
B8B
330
AD8
100
AcDbEntity
  8
Dimension (ANSI)
440
 16777216
100
AcDbMText
 10
61.22019121848959
 20
33.86172912437409
 30
0.0
 40
1.200000047683715
 41
0.0
 46
0.0
 71
     4
 72
     1
  1
\A1;∅0.563{\P(4 PL.)}
  7
Note Text (ANSI)
 73
     1
 44
1.0
  0
SOLID
  5
B8C
330
AD8
100
AcDbEntity
  8
Dimension (ANSI)
440
 16777216
100
AcDbTrace
 10
58.16054953104436
 20
35.9473254059003
 30
0.0
 11
57.90084024674618
 21
35.74685050238261
 31
0.0
 12
57.42927017834219
 22
36.62621580703597
 32
0.0
 13
57.42927017834219
 23
36.62621580703597
 33
0.0
  0
LINE
  5
B8D
330
AD8
100
AcDbEntity
  8
Dimension (ANSI)
440
 16777216
100
AcDbLine
 10
56.35726030152919
 20
36.84904949452234
 30
0.0
 11
58.15726030152919
 21
36.84904949452234
 31
0.0
  0
LINE
  5
B8E
330
AD8
100
AcDbEntity
  8
Dimension (ANSI)
440
 16777216
100
AcDbLine
 10
57.25726030152919
 20
35.94904949452234
 30
0.0
 11
57.2572603015292
 21
37.74904949452234
 31
0.0
  0
POINT
  5
B8F
330
AD8
100
AcDbEntity
  8
Defpoints
 62
     0
440
 16777216
100
AcDbPoint
 10
57.42927017834219
 20
36.62621580703597
 30
0.0
  0
POINT
  5
B90
330
AD8
100
AcDbEntity
  8
Defpoints
 62
     0
440
 16777216
100
AcDbPoint
 10
57.08525042471618
 20
37.07188318200871
 30
0.0
  0
ENDBLK
  5
ADA
330
AD8
100
AcDbEntity
  8
0
100
AcDbBlockEnd
  0
BLOCK
  5
B93
330
B92
100
AcDbEntity
  8
0
100
AcDbBlockBegin
  2
*D11
 70
     1
 10
0.0
 20
0.0
 30
0.0
  3
*D11
  1

  0
LINE
  5
C91
330
B92
100
AcDbEntity
  8
Dimension (ANSI)
440
 16777216
100
AcDbLine
 10
51.28803059547712
 20
89.62278516860283
 30
0.0
 11
51.28803059547712
 21
88.63853322239197
 31
0.0
  0
LINE
  5
C92
330
B92
100
AcDbEntity
  8
Dimension (ANSI)
440
 16777216
100
AcDbLine
 10
51.28803059547712
 20
92.46628906102456
 30
0.0
 11
51.28803059547712
 21
95.70201379031969
 31
0.0
  0
LINE
  5
C93
330
B92
100
AcDbEntity
  8
Dimension (ANSI)
440
 16777216
100
AcDbLine
 10
51.28803059547712
 20
95.70201379031969
 30
0.0
 11
52.27228254168798
 21
95.70201379031969
 31
0.0
  0
SOLID
  5
C94
330
B92
100
AcDbEntity
  8
Dimension (ANSI)
440
 16777216
100
AcDbTrace
 10
51.12398860444198
 20
89.62278516860283
 30
0.0
 11
51.45207258651225
 21
89.62278516860283
 31
0.0
 12
51.28803059547712
 22
90.60703711481369
 32
0.0
 13
51.28803059547712
 23
90.60703711481369
 33
0.0
  0
SOLID
  5
C95
330
B92
100
AcDbEntity
  8
Dimension (ANSI)
440
 16777216
100
AcDbTrace
 10
51.12398860444198
 20
92.46628906102456
 30
0.0
 11
51.45207258651225
 21
92.46628906102456
 31
0.0
 12
51.28803059547712
 22
91.4820371148137
 32
0.0
 13
51.28803059547712
 23
91.4820371148137
 33
0.0
  0
MTEXT
  5
C96
330
B92
100
AcDbEntity
  8
Dimension (ANSI)
440
 16777216
100
AcDbMText
 10
54.17246820756839
 20
95.70201379031971
 30
0.0
 40
1.200000047683715
 41
0.0
 46
0.0
 71
     5
 72
     1
  1
\A1;0.88{\PTYP.}
  7
Note Text (ANSI)
 73
     1
 44
1.0
  0
POINT
  5
C97
330
B92
100
AcDbEntity
  8
Defpoints
 62
     0
440
 16777216
100
AcDbPoint
 10
54.17246820756839
 20
91.4820371148137
 30
0.0
  0
POINT
  5
C98
330
B92
100
AcDbEntity
  8
Defpoints
 62
     0
440
 16777216
100
AcDbPoint
 10
54.16813826210367
 20
90.60703711481369
 30
0.0
  0
POINT
  5
C99
330
B92
100
AcDbEntity
  8
Defpoints
 62
     0
440
 16777216
100
AcDbPoint
 10
51.28803059547712
 20
90.60703711481369
 30
0.0
  0
ENDBLK
  5
B94
330
B92
100
AcDbEntity
  8
0
100
AcDbBlockEnd
  0
BLOCK
  5
C9C
330
C9B
100
AcDbEntity
  8
0
100
AcDbBlockBegin
  2
*D12
 70
     1
 10
0.0
 20
0.0
 30
0.0
  3
*D12
  1

  0
LINE
  5
D81
330
C9B
100
AcDbEntity
  8
Dimension (ANSI)
440
 16777216
100
AcDbLine
 10
83.08639925145019
 20
65.25273920897882
 30
0.0
 11
82.10214730523933
 21
65.25273920897882
 31
0.0
  0
LINE
  5
D82
330
C9B
100
AcDbEntity
  8
Dimension (ANSI)
440
 16777216
100
AcDbLine
 10
85.92990314387193
 20
65.25273920897882
 30
0.0
 11
87.46819736779171
 21
65.25273920897882
 31
0.0
  0
SOLID
  5
D83
330
C9B
100
AcDbEntity
  8
Dimension (ANSI)
440
 16777216
100
AcDbTrace
 10
83.08639925145019
 20
65.41678120001397
 30
0.0
 11
83.08639925145019
 21
65.08869721794368
 31
0.0
 12
84.07065119766105
 22
65.25273920897882
 32
0.0
 13
84.07065119766105
 23
65.25273920897882
 33
0.0
  0
SOLID
  5
D84
330
C9B
100
AcDbEntity
  8
Dimension (ANSI)
440
 16777216
100
AcDbTrace
 10
85.92990314387193
 20
65.41678120001397
 30
0.0
 11
85.92990314387193
 21
65.08869721794368
 31
0.0
 12
84.94565119766107
 22
65.25273920897882
 32
0.0
 13
84.94565119766107
 23
65.25273920897882
 33
0.0
  0
MTEXT
  5
D85
330
C9B
100
AcDbEntity
  8
Dimension (ANSI)
440
 16777216
100
AcDbMText
 10
87.78315799771297
 20
65.25273920897882
 30
0.0
 40
1.200000047683715
 41
0.0
 46
0.0
 71
     4
 72
     1
  1
\A1;0.88{\PTYP.}
  7
Note Text (ANSI)
 73
     1
 44
1.0
  0
POINT
  5
D86
330
C9B
100
AcDbEntity
  8
Defpoints
 62
     0
440
 16777216
100
AcDbPoint
 10
84.94565119766107
 20
65.25273920897882
 30
0.0
  0
POINT
  5
D87
330
C9B
100
AcDbEntity
  8
Defpoints
 62
     0
440
 16777216
100
AcDbPoint
 10
84.07065119766105
 20
65.27827067780996
 30
0.0
  0
POINT
  5
D88
330
C9B
100
AcDbEntity
  8
Defpoints
 62
     0
440
 16777216
100
AcDbPoint
 10
84.07065119766105
 20
65.25273920897882
 30
0.0
  0
ENDBLK
  5
C9D
330
C9B
100
AcDbEntity
  8
0
100
AcDbBlockEnd
  0
ENDSEC
  0
SECTION
  2
ENTITIES
  0
CIRCLE
  5
11B
330
6C
100
AcDbEntity
  8
Visible (ANSI)
100
AcDbCircle
 10
57.2572603015292
 20
65.97904949452233
 30
0.0
 40
0.2814999999999999
  0
CIRCLE
  5
11C
330
6C
100
AcDbEntity
  8
Visible (ANSI)
100
AcDbCircle
 10
27.00726030152919
 20
65.97904949452233
 30
0.0
 40
0.2814999999999999
  0
CIRCLE
  5
11D
330
6C
100
AcDbEntity
  8
Visible (ANSI)
100
AcDbCircle
 10
27.00726030152917
 20
36.84904949452234
 30
0.0
 40
0.2814999999999999
  0
CIRCLE
  5
11E
330
6C
100
AcDbEntity
  8
Visible (ANSI)
100
AcDbCircle
 10
57.2572603015292
 20
36.84904949452234
 30
0.0
 40
0.2814999999999999
  0
LINE
  5
11F
330
6C
100
AcDbEntity
  8
Visible (ANSI)
100
AcDbLine
 10
58.1322603015292
 20
66.69400823378611
 30
0.0
 11
58.1322603015292
 21
36.13409075525857
 31
0.0
  0
LINE
  5
120
330
6C
100
AcDbEntity
  8
Visible (ANSI)
100
AcDbLine
 10
26.29230156226542
 20
66.85404949452233
 30
0.0
 11
57.97221904079296
 21
66.85404949452234
 31
0.0
  0
LINE
  5
121
330
6C
100
AcDbEntity
  8
Visible (ANSI)
100
AcDbLine
 10
26.1322603015292
 20
36.13409075525857
 30
0.0
 11
26.13226030152919
 21
66.69400823378611
 31
0.0
  0
LINE
  5
122
330
6C
100
AcDbEntity
  8
Visible (ANSI)
100
AcDbLine
 10
57.97221904079296
 20
35.97404949452233
 30
0.0
 11
26.29230156226543
 21
35.97404949452233
 31
0.0
  0
LINE
  5
123
330
6C
100
AcDbEntity
  8
Hidden (ANSI)
 48
1.056048035621643
100
AcDbLine
 10
58.0385103015292
 20
36.13409075525857
 30
0.0
 11
58.0385103015292
 21
66.69400823378611
 31
0.0
  0
LINE
  5
124
330
6C
100
AcDbEntity
  8
Hidden (ANSI)
 48
1.094751477241516
100
AcDbLine
 10
57.97221904079296
 20
66.76029949452234
 30
0.0
 11
26.29230156226542
 21
66.76029949452232
 31
0.0
  0
LINE
  5
125
330
6C
100
AcDbEntity
  8
Hidden (ANSI)
 48
1.056048035621643
100
AcDbLine
 10
26.22601030152919
 20
66.69400823378611
 30
0.0
 11
26.2260103015292
 21
36.13409075525857
 31
0.0
  0
LINE
  5
126
330
6C
100
AcDbEntity
  8
Hidden (ANSI)
 48
1.094751477241516
100
AcDbLine
 10
26.29230156226543
 20
36.06779949452234
 30
0.0
 11
57.97221904079296
 21
36.06779949452234
 31
0.0
  0
POLYLINE
  5
127
330
6C
100
AcDbEntity
  8
Visible (ANSI)
100
AcDb2dPolyline
 66
     1
 10
0.0
 20
0.0
 30
0.0
 70
   128
  0
VERTEX
  5
128
330
127
100
AcDbEntity
  8
Visible (ANSI)
100
AcDbVertex
100
AcDb2dVertex
 10
58.02291017215388
 20
66.74469824056226
 30
0.0
  0
VERTEX
  5
129
330
127
100
AcDbEntity
  8
Visible (ANSI)
100
AcDbVertex
100
AcDb2dVertex
 10
58.03006197860227
 20
66.74258664042231
 30
0.0
  0
VERTEX
  5
12B
330
127
100
AcDbEntity
  8
Visible (ANSI)
100
AcDbVertex
100
AcDb2dVertex
 10
58.03718374806432
 20
66.74047504028236
 30
0.0
  0
VERTEX
  5
12C
330
127
100
AcDbEntity
  8
Visible (ANSI)
100
AcDbVertex
100
AcDb2dVertex
 10
58.04424243985504
 20
66.7383634401424
 30
0.0
  0
VERTEX
  5
12D
330
127
100
AcDbEntity
  8
Visible (ANSI)
100
AcDbVertex
100
AcDb2dVertex
 10
58.05121102068674
 20
66.73625184000247
 30
0.0
  0
VERTEX
  5
12E
330
127
100
AcDbEntity
  8
Visible (ANSI)
100
AcDbVertex
100
AcDb2dVertex
 10
58.05805945357305
 20
66.73414023986251
 30
0.0
  0
VERTEX
  5
12F
330
127
100
AcDbEntity
  8
Visible (ANSI)
100
AcDbVertex
100
AcDb2dVertex
 10
58.06475770152765
 20
66.73202563602393
 30
0.0
  0
VERTEX
  5
130
330
127
100
AcDbEntity
  8
Visible (ANSI)
100
AcDbVertex
100
AcDb2dVertex
 10
58.0712757275642
 20
66.72991403588399
 30
0.0
  0
VERTEX
  5
131
330
127
100
AcDbEntity
  8
Visible (ANSI)
100
AcDbVertex
100
AcDb2dVertex
 10
58.07758649839497
 20
66.72780243574402
 30
0.0
  0
VERTEX
  5
132
330
127
100
AcDbEntity
  8
Visible (ANSI)
100
AcDbVertex
100
AcDb2dVertex
 10
58.08366298073226
 20
66.72569083560408
 30
0.0
  0
VERTEX
  5
133
330
127
100
AcDbEntity
  8
Visible (ANSI)
100
AcDbVertex
100
AcDb2dVertex
 10
58.08947814128836
 20
66.72357923546414
 30
0.0
  0
VERTEX
  5
134
330
127
100
AcDbEntity
  8
Visible (ANSI)
100
AcDbVertex
100
AcDb2dVertex
 10
58.09501095417283
 20
66.72146463162555
 30
0.0
  0
VERTEX
  5
135
330
127
100
AcDbEntity
  8
Visible (ANSI)
100
AcDbVertex
100
AcDb2dVertex
 10
58.10023138239934
 20
66.71935303148561
 30
0.0
  0
VERTEX
  5
136
330
127
100
AcDbEntity
  8
Visible (ANSI)
100
AcDbVertex
100
AcDb2dVertex
 10
58.10512440747469
 20
66.71724143134567
 30
0.0
  0
VERTEX
  5
137
330
127
100
AcDbEntity
  8
Visible (ANSI)
100
AcDbVertex
100
AcDb2dVertex
 10
58.1096629961112
 20
66.71512983120571
 30
0.0
  0
VERTEX
  5
138
330
127
100
AcDbEntity
  8
Visible (ANSI)
100
AcDbVertex
100
AcDb2dVertex
 10
58.11383212981567
 20
66.71301823106576
 30
0.0
  0
VERTEX
  5
139
330
127
100
AcDbEntity
  8
Visible (ANSI)
100
AcDbVertex
100
AcDb2dVertex
 10
58.11761078269769
 20
66.71090663092581
 30
0.0
  0
VERTEX
  5
13A
330
127
100
AcDbEntity
  8
Visible (ANSI)
100
AcDbVertex
100
AcDb2dVertex
 10
58.12098393626406
 20
66.70879202708722
 30
0.0
  0
VERTEX
  5
13B
330
127
100
AcDbEntity
  8
Visible (ANSI)
100
AcDbVertex
100
AcDb2dVertex
 10
58.12393657202163
 20
66.70668042694728
 30
0.0
  0
VERTEX
  5
13C
330
127
100
AcDbEntity
  8
Visible (ANSI)
100
AcDbVertex
100
AcDb2dVertex
 10
58.12645667517585
 20
66.70456882680733
 30
0.0
  0
VERTEX
  5
13D
330
127
100
AcDbEntity
  8
Visible (ANSI)
100
AcDbVertex
100
AcDb2dVertex
 10
58.12853523463081
 20
66.70245722666739
 30
0.0
  0
VERTEX
  5
13E
330
127
100
AcDbEntity
  8
Visible (ANSI)
100
AcDbVertex
100
AcDb2dVertex
 10
58.130160235592
 20
66.70034562652745
 30
0.0
  0
VERTEX
  5
13F
330
127
100
AcDbEntity
  8
Visible (ANSI)
100
AcDbVertex
100
AcDb2dVertex
 10
58.13132567066213
 20
66.69823102268884
 30
0.0
  0
VERTEX
  5
140
330
127
100
AcDbEntity
  8
Visible (ANSI)
100
AcDbVertex
100
AcDb2dVertex
 10
58.13202553244393
 20
66.6961194225489
 30
0.0
  0
VERTEX
  5
141
330
127
100
AcDbEntity
  8
Visible (ANSI)
100
AcDbVertex
100
AcDb2dVertex
 10
58.1322598209374
 20
66.69400782240896
 30
0.0
  0
SEQEND
  5
12A
330
127
100
AcDbEntity
  8
Visible (ANSI)
  0
POLYLINE
  5
142
330
6C
100
AcDbEntity
  8
Visible (ANSI)
100
AcDb2dPolyline
 66
     1
 10
0.0
 20
0.0
 30
0.0
 70
   128
  0
VERTEX
  5
143
330
142
100
AcDbEntity
  8
Visible (ANSI)
100
AcDbVertex
100
AcDb2dVertex
 10
58.1322598209374
 20
36.13409075824534
 30
0.0
  0
VERTEX
  5
144
330
142
100
AcDbEntity
  8
Visible (ANSI)
100
AcDbVertex
100
AcDb2dVertex
 10
58.13202553244393
 20
36.13197861837829
 30
0.0
  0
VERTEX
  5
146
330
142
100
AcDbEntity
  8
Visible (ANSI)
100
AcDbVertex
100
AcDb2dVertex
 10
58.13132567066213
 20
36.12986647851124
 30
0.0
  0
VERTEX
  5
147
330
142
100
AcDbEntity
  8
Visible (ANSI)
100
AcDbVertex
100
AcDb2dVertex
 10
58.130160235592
 20
36.12775435037739
 30
0.0
  0
VERTEX
  5
148
330
142
100
AcDbEntity
  8
Visible (ANSI)
100
AcDbVertex
100
AcDb2dVertex
 10
58.12853523463081
 20
36.12564221051034
 30
0.0
  0
VERTEX
  5
149
330
142
100
AcDbEntity
  8
Visible (ANSI)
100
AcDbVertex
100
AcDb2dVertex
 10
58.12645667517585
 20
36.1235300706433
 30
0.0
  0
VERTEX
  5
14A
330
142
100
AcDbEntity
  8
Visible (ANSI)
100
AcDbVertex
100
AcDb2dVertex
 10
58.12393657202163
 20
36.12141794250945
 30
0.0
  0
VERTEX
  5
14B
330
142
100
AcDbEntity
  8
Visible (ANSI)
100
AcDbVertex
100
AcDb2dVertex
 10
58.12098393626406
 20
36.1193058026424
 30
0.0
  0
VERTEX
  5
14C
330
142
100
AcDbEntity
  8
Visible (ANSI)
100
AcDbVertex
100
AcDb2dVertex
 10
58.11761078269769
 20
36.11719366277536
 30
0.0
  0
VERTEX
  5
14D
330
142
100
AcDbEntity
  8
Visible (ANSI)
100
AcDbVertex
100
AcDb2dVertex
 10
58.11383212981567
 20
36.1150815346415
 30
0.0
  0
VERTEX
  5
14E
330
142
100
AcDbEntity
  8
Visible (ANSI)
100
AcDbVertex
100
AcDb2dVertex
 10
58.1096629961112
 20
36.11296939477446
 30
0.0
  0
VERTEX
  5
14F
330
142
100
AcDbEntity
  8
Visible (ANSI)
100
AcDbVertex
100
AcDb2dVertex
 10
58.10512440747469
 20
36.11085725490741
 30
0.0
  0
VERTEX
  5
150
330
142
100
AcDbEntity
  8
Visible (ANSI)
100
AcDbVertex
100
AcDb2dVertex
 10
58.10023138239934
 20
36.10874512677356
 30
0.0
  0
VERTEX
  5
151
330
142
100
AcDbEntity
  8
Visible (ANSI)
100
AcDbVertex
100
AcDb2dVertex
 10
58.09501095417283
 20
36.10663298690652
 30
0.0
  0
VERTEX
  5
152
330
142
100
AcDbEntity
  8
Visible (ANSI)
100
AcDbVertex
100
AcDb2dVertex
 10
58.08947814128836
 20
36.10452085877267
 30
0.0
  0
VERTEX
  5
153
330
142
100
AcDbEntity
  8
Visible (ANSI)
100
AcDbVertex
100
AcDb2dVertex
 10
58.08366298073226
 20
36.10240871890562
 30
0.0
  0
VERTEX
  5
154
330
142
100
AcDbEntity
  8
Visible (ANSI)
100
AcDbVertex
100
AcDb2dVertex
 10
58.07758649839497
 20
36.10029657903857
 30
0.0
  0
VERTEX
  5
155
330
142
100
AcDbEntity
  8
Visible (ANSI)
100
AcDbVertex
100
AcDb2dVertex
 10
58.0712757275642
 20
36.09818445090474
 30
0.0
  0
VERTEX
  5
156
330
142
100
AcDbEntity
  8
Visible (ANSI)
100
AcDbVertex
100
AcDb2dVertex
 10
58.06475770152765
 20
36.09607231103768
 30
0.0
  0
VERTEX
  5
157
330
142
100
AcDbEntity
  8
Visible (ANSI)
100
AcDbVertex
100
AcDb2dVertex
 10
58.05805945357305
 20
36.09396017117064
 30
0.0
  0
VERTEX
  5
158
330
142
100
AcDbEntity
  8
Visible (ANSI)
100
AcDbVertex
100
AcDb2dVertex
 10
58.05121102068674
 20
36.09184804303679
 30
0.0
  0
VERTEX
  5
159
330
142
100
AcDbEntity
  8
Visible (ANSI)
100
AcDbVertex
100
AcDb2dVertex
 10
58.04424243985504
 20
36.08973590316974
 30
0.0
  0
VERTEX
  5
15A
330
142
100
AcDbEntity
  8
Visible (ANSI)
100
AcDbVertex
100
AcDb2dVertex
 10
58.03718374806432
 20
36.08762376330269
 30
0.0
  0
VERTEX
  5
15B
330
142
100
AcDbEntity
  8
Visible (ANSI)
100
AcDbVertex
100
AcDb2dVertex
 10
58.03006197860227
 20
36.08551163516884
 30
0.0
  0
VERTEX
  5
15C
330
142
100
AcDbEntity
  8
Visible (ANSI)
100
AcDbVertex
100
AcDb2dVertex
 10
58.02291017215388
 20
36.0833994953018
 30
0.0
  0
SEQEND
  5
145
330
142
100
AcDbEntity
  8
Visible (ANSI)
  0
POLYLINE
  5
15D
330
6C
100
AcDbEntity
  8
Visible (ANSI)
100
AcDb2dPolyline
 66
     1
 10
0.0
 20
0.0
 30
0.0
 70
   128
  0
VERTEX
  5
15E
330
15D
100
AcDbEntity
  8
Visible (ANSI)
100
AcDbVertex
100
AcDb2dVertex
 10
26.24161030230866
 20
66.74469824056226
 30
0.0
  0
VERTEX
  5
15F
330
15D
100
AcDbEntity
  8
Visible (ANSI)
100
AcDbVertex
100
AcDb2dVertex
 10
26.2437224421757
 20
66.75185004701065
 30
0.0
  0
VERTEX
  5
161
330
15D
100
AcDbEntity
  8
Visible (ANSI)
100
AcDbVertex
100
AcDb2dVertex
 10
26.24583457030955
 20
66.75897181647269
 30
0.0
  0
VERTEX
  5
162
330
15D
100
AcDbEntity
  8
Visible (ANSI)
100
AcDbVertex
100
AcDb2dVertex
 10
26.2479467101766
 20
66.76603351196205
 30
0.0
  0
VERTEX
  5
163
330
15D
100
AcDbEntity
  8
Visible (ANSI)
100
AcDbVertex
100
AcDb2dVertex
 10
26.25005885004365
 20
66.77300209279374
 30
0.0
  0
VERTEX
  5
164
330
15D
100
AcDbEntity
  8
Visible (ANSI)
100
AcDbVertex
100
AcDb2dVertex
 10
26.2521709781775
 20
66.77984752198142
 30
0.0
  0
VERTEX
  5
165
330
15D
100
AcDbEntity
  8
Visible (ANSI)
100
AcDbVertex
100
AcDb2dVertex
 10
26.25428311804454
 20
66.78654576993602
 30
0.0
  0
VERTEX
  5
166
330
15D
100
AcDbEntity
  8
Visible (ANSI)
100
AcDbVertex
100
AcDb2dVertex
 10
26.25639525791159
 20
66.79306379597257
 30
0.0
  0
VERTEX
  5
167
330
15D
100
AcDbEntity
  8
Visible (ANSI)
100
AcDbVertex
100
AcDb2dVertex
 10
26.25850738604544
 20
66.79937456680334
 30
0.0
  0
VERTEX
  5
168
330
15D
100
AcDbEntity
  8
Visible (ANSI)
100
AcDbVertex
100
AcDb2dVertex
 10
26.26061952591248
 20
66.80545104914063
 30
0.0
  0
VERTEX
  5
169
330
15D
100
AcDbEntity
  8
Visible (ANSI)
100
AcDbVertex
100
AcDb2dVertex
 10
26.26273166577953
 20
66.81126620969672
 30
0.0
  0
VERTEX
  5
16A
330
15D
100
AcDbEntity
  8
Visible (ANSI)
100
AcDbVertex
100
AcDb2dVertex
 10
26.26484379391338
 20
66.81679902258121
 30
0.0
  0
VERTEX
  5
16B
330
15D
100
AcDbEntity
  8
Visible (ANSI)
100
AcDbVertex
100
AcDb2dVertex
 10
26.26695593378043
 20
66.82202245450634
 30
0.0
  0
VERTEX
  5
16C
330
15D
100
AcDbEntity
  8
Visible (ANSI)
100
AcDbVertex
100
AcDb2dVertex
 10
26.26906806191427
 20
66.82691247588306
 30
0.0
  0
VERTEX
  5
16D
330
15D
100
AcDbEntity
  8
Visible (ANSI)
100
AcDbVertex
100
AcDb2dVertex
 10
26.27118020178132
 20
66.83145406821821
 30
0.0
  0
VERTEX
  5
16E
330
15D
100
AcDbEntity
  8
Visible (ANSI)
100
AcDbVertex
100
AcDb2dVertex
 10
26.27329234164837
 20
66.83562019822403
 30
0.0
  0
VERTEX
  5
16F
330
15D
100
AcDbEntity
  8
Visible (ANSI)
100
AcDbVertex
100
AcDb2dVertex
 10
26.27540446978222
 20
66.83939885110605
 30
0.0
  0
VERTEX
  5
170
330
15D
100
AcDbEntity
  8
Visible (ANSI)
100
AcDbVertex
100
AcDb2dVertex
 10
26.27751660964926
 20
66.84277200467242
 30
0.0
  0
VERTEX
  5
171
330
15D
100
AcDbEntity
  8
Visible (ANSI)
100
AcDbVertex
100
AcDb2dVertex
 10
26.27962874951631
 20
66.84572464043
 30
0.0
  0
VERTEX
  5
172
330
15D
100
AcDbEntity
  8
Visible (ANSI)
100
AcDbVertex
100
AcDb2dVertex
 10
26.28174087765016
 20
66.84824774728285
 30
0.0
  0
VERTEX
  5
173
330
15D
100
AcDbEntity
  8
Visible (ANSI)
100
AcDbVertex
100
AcDb2dVertex
 10
26.28385301751721
 20
66.85032330303918
 30
0.0
  0
VERTEX
  5
174
330
15D
100
AcDbEntity
  8
Visible (ANSI)
100
AcDbVertex
100
AcDb2dVertex
 10
26.28596515738425
 20
66.85194830400037
 30
0.0
  0
VERTEX
  5
175
330
15D
100
AcDbEntity
  8
Visible (ANSI)
100
AcDbVertex
100
AcDb2dVertex
 10
26.2880772855181
 20
66.85311373907051
 30
0.0
  0
VERTEX
  5
176
330
15D
100
AcDbEntity
  8
Visible (ANSI)
100
AcDbVertex
100
AcDb2dVertex
 10
26.29018942538515
 20
66.85381660455094
 30
0.0
  0
VERTEX
  5
177
330
15D
100
AcDbEntity
  8
Visible (ANSI)
100
AcDbVertex
100
AcDb2dVertex
 10
26.2923015652522
 20
66.85405089304442
 30
0.0
  0
SEQEND
  5
160
330
15D
100
AcDbEntity
  8
Visible (ANSI)
  0
POLYLINE
  5
178
330
6C
100
AcDbEntity
  8
Visible (ANSI)
100
AcDb2dPolyline
 66
     1
 10
0.0
 20
0.0
 30
0.0
 70
   128
  0
VERTEX
  5
179
330
178
100
AcDbEntity
  8
Visible (ANSI)
100
AcDbVertex
100
AcDb2dVertex
 10
57.97221975400059
 20
66.85405089304442
 30
0.0
  0
VERTEX
  5
17A
330
178
100
AcDbEntity
  8
Visible (ANSI)
100
AcDbVertex
100
AcDb2dVertex
 10
57.97433135414054
 20
66.85381660455094
 30
0.0
  0
VERTEX
  5
17C
330
178
100
AcDbEntity
  8
Visible (ANSI)
100
AcDbVertex
100
AcDb2dVertex
 10
57.97644295428048
 20
66.85311373907051
 30
0.0
  0
VERTEX
  5
17D
330
178
100
AcDbEntity
  8
Visible (ANSI)
100
AcDbVertex
100
AcDb2dVertex
 10
57.97855455442043
 20
66.85194830400037
 30
0.0
  0
VERTEX
  5
17E
330
178
100
AcDbEntity
  8
Visible (ANSI)
100
AcDbVertex
100
AcDb2dVertex
 10
57.98066615456038
 20
66.85032330303918
 30
0.0
  0
VERTEX
  5
17F
330
178
100
AcDbEntity
  8
Visible (ANSI)
100
AcDbVertex
100
AcDb2dVertex
 10
57.98278075839895
 20
66.84824774728285
 30
0.0
  0
VERTEX
  5
180
330
178
100
AcDbEntity
  8
Visible (ANSI)
100
AcDbVertex
100
AcDb2dVertex
 10
57.98489235853891
 20
66.84572464043
 30
0.0
  0
VERTEX
  5
181
330
178
100
AcDbEntity
  8
Visible (ANSI)
100
AcDbVertex
100
AcDb2dVertex
 10
57.98700395867886
 20
66.84277200467242
 30
0.0
  0
VERTEX
  5
182
330
178
100
AcDbEntity
  8
Visible (ANSI)
100
AcDbVertex
100
AcDb2dVertex
 10
57.98911555881882
 20
66.83939885110605
 30
0.0
  0
VERTEX
  5
183
330
178
100
AcDbEntity
  8
Visible (ANSI)
100
AcDbVertex
100
AcDb2dVertex
 10
57.99122715895876
 20
66.83562019822403
 30
0.0
  0
VERTEX
  5
184
330
178
100
AcDbEntity
  8
Visible (ANSI)
100
AcDbVertex
100
AcDb2dVertex
 10
57.99334176279733
 20
66.83145406821821
 30
0.0
  0
VERTEX
  5
185
330
178
100
AcDbEntity
  8
Visible (ANSI)
100
AcDbVertex
100
AcDb2dVertex
 10
57.99545336293729
 20
66.82691247588306
 30
0.0
  0
VERTEX
  5
186
330
178
100
AcDbEntity
  8
Visible (ANSI)
100
AcDbVertex
100
AcDb2dVertex
 10
57.99756496307724
 20
66.82202245450634
 30
0.0
  0
VERTEX
  5
187
330
178
100
AcDbEntity
  8
Visible (ANSI)
100
AcDbVertex
100
AcDb2dVertex
 10
57.99967656321718
 20
66.81679902258121
 30
0.0
  0
VERTEX
  5
188
330
178
100
AcDbEntity
  8
Visible (ANSI)
100
AcDbVertex
100
AcDb2dVertex
 10
58.00178816335713
 20
66.81126620969672
 30
0.0
  0
VERTEX
  5
189
330
178
100
AcDbEntity
  8
Visible (ANSI)
100
AcDbVertex
100
AcDb2dVertex
 10
58.00389976349708
 20
66.80545104914063
 30
0.0
  0
VERTEX
  5
18A
330
178
100
AcDbEntity
  8
Visible (ANSI)
100
AcDbVertex
100
AcDb2dVertex
 10
58.00601436733566
 20
66.79937456680334
 30
0.0
  0
VERTEX
  5
18B
330
178
100
AcDbEntity
  8
Visible (ANSI)
100
AcDbVertex
100
AcDb2dVertex
 10
58.00812596747562
 20
66.79306379597257
 30
0.0
  0
VERTEX
  5
18C
330
178
100
AcDbEntity
  8
Visible (ANSI)
100
AcDbVertex
100
AcDb2dVertex
 10
58.01023756761556
 20
66.78654576993602
 30
0.0
  0
VERTEX
  5
18D
330
178
100
AcDbEntity
  8
Visible (ANSI)
100
AcDbVertex
100
AcDb2dVertex
 10
58.01234916775552
 20
66.77984752198142
 30
0.0
  0
VERTEX
  5
18E
330
178
100
AcDbEntity
  8
Visible (ANSI)
100
AcDbVertex
100
AcDb2dVertex
 10
58.01446076789545
 20
66.77300209279374
 30
0.0
  0
VERTEX
  5
18F
330
178
100
AcDbEntity
  8
Visible (ANSI)
100
AcDbVertex
100
AcDb2dVertex
 10
58.01657537173404
 20
66.76603351196205
 30
0.0
  0
VERTEX
  5
190
330
178
100
AcDbEntity
  8
Visible (ANSI)
100
AcDbVertex
100
AcDb2dVertex
 10
58.018686971874
 20
66.75897181647269
 30
0.0
  0
VERTEX
  5
191
330
178
100
AcDbEntity
  8
Visible (ANSI)
100
AcDbVertex
100
AcDb2dVertex
 10
58.02079857201394
 20
66.75185004701065
 30
0.0
  0
VERTEX
  5
192
330
178
100
AcDbEntity
  8
Visible (ANSI)
100
AcDbVertex
100
AcDb2dVertex
 10
58.02291017215388
 20
66.74469824056226
 30
0.0
  0
SEQEND
  5
17B
330
178
100
AcDbEntity
  8
Visible (ANSI)
  0
POLYLINE
  5
193
330
6C
100
AcDbEntity
  8
Visible (ANSI)
100
AcDb2dPolyline
 66
     1
 10
0.0
 20
0.0
 30
0.0
 70
   128
  0
VERTEX
  5
194
330
193
100
AcDbEntity
  8
Visible (ANSI)
100
AcDbVertex
100
AcDb2dVertex
 10
26.24161030230866
 20
36.0833994953018
 30
0.0
  0
VERTEX
  5
195
330
193
100
AcDbEntity
  8
Visible (ANSI)
100
AcDbVertex
100
AcDb2dVertex
 10
26.23445847239387
 20
36.08551163516884
 30
0.0
  0
VERTEX
  5
197
330
193
100
AcDbEntity
  8
Visible (ANSI)
100
AcDbVertex
100
AcDb2dVertex
 10
26.22733726025872
 20
36.08762376330269
 30
0.0
  0
VERTEX
  5
198
330
193
100
AcDbEntity
  8
Visible (ANSI)
100
AcDbVertex
100
AcDb2dVertex
 10
26.22027717221746
 20
36.08973590316974
 30
0.0
  0
VERTEX
  5
199
330
193
100
AcDbEntity
  8
Visible (ANSI)
100
AcDbVertex
100
AcDb2dVertex
 10
26.2133084388542
 20
36.09184804303679
 30
0.0
  0
VERTEX
  5
19A
330
193
100
AcDbEntity
  8
Visible (ANSI)
100
AcDbVertex
100
AcDb2dVertex
 10
26.20646089769091
 20
36.09396017117064
 30
0.0
  0
VERTEX
  5
19B
330
193
100
AcDbEntity
  8
Visible (ANSI)
100
AcDbVertex
100
AcDb2dVertex
 10
26.19976386998888
 20
36.09607231103768
 30
0.0
  0
VERTEX
  5
19C
330
193
100
AcDbEntity
  8
Visible (ANSI)
100
AcDbVertex
100
AcDb2dVertex
 10
26.19324603168351
 20
36.09818445090474
 30
0.0
  0
VERTEX
  5
19D
330
193
100
AcDbEntity
  8
Visible (ANSI)
100
AcDbVertex
100
AcDb2dVertex
 10
26.18693530191892
 20
36.10029657903857
 30
0.0
  0
VERTEX
  5
19E
330
193
100
AcDbEntity
  8
Visible (ANSI)
100
AcDbVertex
100
AcDb2dVertex
 10
26.18085869638306
 20
36.10240871890562
 30
0.0
  0
VERTEX
  5
19F
330
193
100
AcDbEntity
  8
Visible (ANSI)
100
AcDbVertex
100
AcDb2dVertex
 10
26.1750422393086
 20
36.10452085877267
 30
0.0
  0
VERTEX
  5
1A0
330
193
100
AcDbEntity
  8
Visible (ANSI)
100
AcDbVertex
100
AcDb2dVertex
 10
26.16951083734116
 20
36.10663298690652
 30
0.0
  0
VERTEX
  5
1A1
330
193
100
AcDbEntity
  8
Visible (ANSI)
100
AcDbVertex
100
AcDb2dVertex
 10
26.16428817394048
 20
36.10874512677356
 30
0.0
  0
VERTEX
  5
1A2
330
193
100
AcDbEntity
  8
Visible (ANSI)
100
AcDbVertex
100
AcDb2dVertex
 10
26.15939661844814
 20
36.11085725490741
 30
0.0
  0
VERTEX
  5
1A3
330
193
100
AcDbEntity
  8
Visible (ANSI)
100
AcDbVertex
100
AcDb2dVertex
 10
26.15485711315557
 20
36.11296939477446
 30
0.0
  0
VERTEX
  5
1A4
330
193
100
AcDbEntity
  8
Visible (ANSI)
100
AcDbVertex
100
AcDb2dVertex
 10
26.15068909997148
 20
36.1150815346415
 30
0.0
  0
VERTEX
  5
1A5
330
193
100
AcDbEntity
  8
Visible (ANSI)
100
AcDbVertex
100
AcDb2dVertex
 10
26.14691042362307
 20
36.11719366277536
 30
0.0
  0
VERTEX
  5
1A6
330
193
100
AcDbEntity
  8
Visible (ANSI)
100
AcDbVertex
100
AcDb2dVertex
 10
26.1435372671234
 20
36.1193058026424
 30
0.0
  0
VERTEX
  5
1A7
330
193
100
AcDbEntity
  8
Visible (ANSI)
100
AcDbVertex
100
AcDb2dVertex
 10
26.14058407477226
 20
36.12141794250945
 30
0.0
  0
VERTEX
  5
1A8
330
193
100
AcDbEntity
  8
Visible (ANSI)
100
AcDbVertex
100
AcDb2dVertex
 10
26.13806349202358
 20
36.1235300706433
 30
0.0
  0
VERTEX
  5
1A9
330
193
100
AcDbEntity
  8
Visible (ANSI)
100
AcDbVertex
100
AcDb2dVertex
 10
26.13598631231934
 20
36.12564221051034
 30
0.0
  0
VERTEX
  5
1AA
330
193
100
AcDbEntity
  8
Visible (ANSI)
100
AcDbVertex
100
AcDb2dVertex
 10
26.13436143107343
 20
36.12775435037739
 30
0.0
  0
VERTEX
  5
1AB
330
193
100
AcDbEntity
  8
Visible (ANSI)
100
AcDbVertex
100
AcDb2dVertex
 10
26.1331958059805
 20
36.12986647851124
 30
0.0
  0
VERTEX
  5
1AC
330
193
100
AcDbEntity
  8
Visible (ANSI)
100
AcDbVertex
100
AcDb2dVertex
 10
26.13249442827871
 20
36.13197861837829
 30
0.0
  0
VERTEX
  5
1AD
330
193
100
AcDbEntity
  8
Visible (ANSI)
100
AcDbVertex
100
AcDb2dVertex
 10
26.1322603015292
 20
36.13409075824534
 30
0.0
  0
SEQEND
  5
196
330
193
100
AcDbEntity
  8
Visible (ANSI)
  0
POLYLINE
  5
1AE
330
6C
100
AcDbEntity
  8
Visible (ANSI)
100
AcDb2dPolyline
 66
     1
 10
0.0
 20
0.0
 30
0.0
 70
   128
  0
VERTEX
  5
1AF
330
1AE
100
AcDbEntity
  8
Visible (ANSI)
100
AcDbVertex
100
AcDb2dVertex
 10
26.13226030152919
 20
66.69400782240896
 30
0.0
  0
VERTEX
  5
1B0
330
1AE
100
AcDbEntity
  8
Visible (ANSI)
100
AcDbVertex
100
AcDb2dVertex
 10
26.13249442827871
 20
66.6961194225489
 30
0.0
  0
VERTEX
  5
1B2
330
1AE
100
AcDbEntity
  8
Visible (ANSI)
100
AcDbVertex
100
AcDb2dVertex
 10
26.1331958059805
 20
66.69823102268884
 30
0.0
  0
VERTEX
  5
1B3
330
1AE
100
AcDbEntity
  8
Visible (ANSI)
100
AcDbVertex
100
AcDb2dVertex
 10
26.13436143107343
 20
66.70034562652745
 30
0.0
  0
VERTEX
  5
1B4
330
1AE
100
AcDbEntity
  8
Visible (ANSI)
100
AcDbVertex
100
AcDb2dVertex
 10
26.13598631231934
 20
66.70245722666739
 30
0.0
  0
VERTEX
  5
1B5
330
1AE
100
AcDbEntity
  8
Visible (ANSI)
100
AcDbVertex
100
AcDb2dVertex
 10
26.13806349202358
 20
66.70456882680733
 30
0.0
  0
VERTEX
  5
1B6
330
1AE
100
AcDbEntity
  8
Visible (ANSI)
100
AcDbVertex
100
AcDb2dVertex
 10
26.14058407477226
 20
66.70668042694728
 30
0.0
  0
VERTEX
  5
1B7
330
1AE
100
AcDbEntity
  8
Visible (ANSI)
100
AcDbVertex
100
AcDb2dVertex
 10
26.1435372671234
 20
66.70879202708722
 30
0.0
  0
VERTEX
  5
1B8
330
1AE
100
AcDbEntity
  8
Visible (ANSI)
100
AcDbVertex
100
AcDb2dVertex
 10
26.14691042362307
 20
66.71090663092581
 30
0.0
  0
VERTEX
  5
1B9
330
1AE
100
AcDbEntity
  8
Visible (ANSI)
100
AcDbVertex
100
AcDb2dVertex
 10
26.15068909997148
 20
66.71301823106576
 30
0.0
  0
VERTEX
  5
1BA
330
1AE
100
AcDbEntity
  8
Visible (ANSI)
100
AcDbVertex
100
AcDb2dVertex
 10
26.15485711315557
 20
66.71512983120571
 30
0.0
  0
VERTEX
  5
1BB
330
1AE
100
AcDbEntity
  8
Visible (ANSI)
100
AcDbVertex
100
AcDb2dVertex
 10
26.15939661844814
 20
66.71724143134567
 30
0.0
  0
VERTEX
  5
1BC
330
1AE
100
AcDbEntity
  8
Visible (ANSI)
100
AcDbVertex
100
AcDb2dVertex
 10
26.16428817394048
 20
66.71935303148561
 30
0.0
  0
VERTEX
  5
1BD
330
1AE
100
AcDbEntity
  8
Visible (ANSI)
100
AcDbVertex
100
AcDb2dVertex
 10
26.16951083734116
 20
66.72146463162555
 30
0.0
  0
VERTEX
  5
1BE
330
1AE
100
AcDbEntity
  8
Visible (ANSI)
100
AcDbVertex
100
AcDb2dVertex
 10
26.1750422393086
 20
66.72357923546414
 30
0.0
  0
VERTEX
  5
1BF
330
1AE
100
AcDbEntity
  8
Visible (ANSI)
100
AcDbVertex
100
AcDb2dVertex
 10
26.18085869638306
 20
66.72569083560408
 30
0.0
  0
VERTEX
  5
1C0
330
1AE
100
AcDbEntity
  8
Visible (ANSI)
100
AcDbVertex
100
AcDb2dVertex
 10
26.18693530191892
 20
66.72780243574402
 30
0.0
  0
VERTEX
  5
1C1
330
1AE
100
AcDbEntity
  8
Visible (ANSI)
100
AcDbVertex
100
AcDb2dVertex
 10
26.19324603168351
 20
66.72991403588399
 30
0.0
  0
VERTEX
  5
1C2
330
1AE
100
AcDbEntity
  8
Visible (ANSI)
100
AcDbVertex
100
AcDb2dVertex
 10
26.19976386998888
 20
66.73202563602393
 30
0.0
  0
VERTEX
  5
1C3
330
1AE
100
AcDbEntity
  8
Visible (ANSI)
100
AcDbVertex
100
AcDb2dVertex
 10
26.20646089769091
 20
66.73414023986251
 30
0.0
  0
VERTEX
  5
1C4
330
1AE
100
AcDbEntity
  8
Visible (ANSI)
100
AcDbVertex
100
AcDb2dVertex
 10
26.2133084388542
 20
66.73625184000247
 30
0.0
  0
VERTEX
  5
1C5
330
1AE
100
AcDbEntity
  8
Visible (ANSI)
100
AcDbVertex
100
AcDb2dVertex
 10
26.22027717221746
 20
66.7383634401424
 30
0.0
  0
VERTEX
  5
1C6
330
1AE
100
AcDbEntity
  8
Visible (ANSI)
100
AcDbVertex
100
AcDb2dVertex
 10
26.22733726025872
 20
66.74047504028236
 30
0.0
  0
VERTEX
  5
1C7
330
1AE
100
AcDbEntity
  8
Visible (ANSI)
100
AcDbVertex
100
AcDb2dVertex
 10
26.23445847239387
 20
66.74258664042231
 30
0.0
  0
VERTEX
  5
1C8
330
1AE
100
AcDbEntity
  8
Visible (ANSI)
100
AcDbVertex
100
AcDb2dVertex
 10
26.24161030230866
 20
66.74469824056226
 30
0.0
  0
SEQEND
  5
1B1
330
1AE
100
AcDbEntity
  8
Visible (ANSI)
  0
POLYLINE
  5
1C9
330
6C
100
AcDbEntity
  8
Visible (ANSI)
100
AcDb2dPolyline
 66
     1
 10
0.0
 20
0.0
 30
0.0
 70
   128
  0
VERTEX
  5
1CA
330
1C9
100
AcDbEntity
  8
Visible (ANSI)
100
AcDbVertex
100
AcDb2dVertex
 10
58.02291017215388
 20
36.0833994953018
 30
0.0
  0
VERTEX
  5
1CB
330
1C9
100
AcDbEntity
  8
Visible (ANSI)
100
AcDbVertex
100
AcDb2dVertex
 10
58.02079857201394
 20
36.07624766538701
 30
0.0
  0
VERTEX
  5
1CD
330
1C9
100
AcDbEntity
  8
Visible (ANSI)
100
AcDbVertex
100
AcDb2dVertex
 10
58.018686971874
 20
36.06912645325186
 30
0.0
  0
VERTEX
  5
1CE
330
1C9
100
AcDbEntity
  8
Visible (ANSI)
100
AcDbVertex
100
AcDb2dVertex
 10
58.01657537173404
 20
36.0620663652106
 30
0.0
  0
VERTEX
  5
1CF
330
1C9
100
AcDbEntity
  8
Visible (ANSI)
100
AcDbVertex
100
AcDb2dVertex
 10
58.01446076789545
 20
36.05509763184733
 30
0.0
  0
VERTEX
  5
1D0
330
1C9
100
AcDbEntity
  8
Visible (ANSI)
100
AcDbVertex
100
AcDb2dVertex
 10
58.01234916775552
 20
36.04825009068405
 30
0.0
  0
VERTEX
  5
1D1
330
1C9
100
AcDbEntity
  8
Visible (ANSI)
100
AcDbVertex
100
AcDb2dVertex
 10
58.01023756761556
 20
36.04155306298202
 30
0.0
  0
VERTEX
  5
1D2
330
1C9
100
AcDbEntity
  8
Visible (ANSI)
100
AcDbVertex
100
AcDb2dVertex
 10
58.00812596747562
 20
36.03503522467664
 30
0.0
  0
VERTEX
  5
1D3
330
1C9
100
AcDbEntity
  8
Visible (ANSI)
100
AcDbVertex
100
AcDb2dVertex
 10
58.00601436733566
 20
36.02872449491206
 30
0.0
  0
VERTEX
  5
1D4
330
1C9
100
AcDbEntity
  8
Visible (ANSI)
100
AcDbVertex
100
AcDb2dVertex
 10
58.00389976349708
 20
36.0226478893762
 30
0.0
  0
VERTEX
  5
1D5
330
1C9
100
AcDbEntity
  8
Visible (ANSI)
100
AcDbVertex
100
AcDb2dVertex
 10
58.00178816335713
 20
36.01683143230174
 30
0.0
  0
VERTEX
  5
1D6
330
1C9
100
AcDbEntity
  8
Visible (ANSI)
100
AcDbVertex
100
AcDb2dVertex
 10
57.99967656321718
 20
36.0113000303343
 30
0.0
  0
VERTEX
  5
1D7
330
1C9
100
AcDbEntity
  8
Visible (ANSI)
100
AcDbVertex
100
AcDb2dVertex
 10
57.99756496307724
 20
36.00607736693362
 30
0.0
  0
VERTEX
  5
1D8
330
1C9
100
AcDbEntity
  8
Visible (ANSI)
100
AcDbVertex
100
AcDb2dVertex
 10
57.99545336293729
 20
36.00118581144129
 30
0.0
  0
VERTEX
  5
1D9
330
1C9
100
AcDbEntity
  8
Visible (ANSI)
100
AcDbVertex
100
AcDb2dVertex
 10
57.99334176279733
 20
35.99664630614871
 30
0.0
  0
VERTEX
  5
1DA
330
1C9
100
AcDbEntity
  8
Visible (ANSI)
100
AcDbVertex
100
AcDb2dVertex
 10
57.99122715895876
 20
35.99247829296462
 30
0.0
  0
VERTEX
  5
1DB
330
1C9
100
AcDbEntity
  8
Visible (ANSI)
100
AcDbVertex
100
AcDb2dVertex
 10
57.98911555881882
 20
35.98869961661621
 30
0.0
  0
VERTEX
  5
1DC
330
1C9
100
AcDbEntity
  8
Visible (ANSI)
100
AcDbVertex
100
AcDb2dVertex
 10
57.98700395867886
 20
35.98532646011654
 30
0.0
  0
VERTEX
  5
1DD
330
1C9
100
AcDbEntity
  8
Visible (ANSI)
100
AcDbVertex
100
AcDb2dVertex
 10
57.98489235853891
 20
35.9823732677654
 30
0.0
  0
VERTEX
  5
1DE
330
1C9
100
AcDbEntity
  8
Visible (ANSI)
100
AcDbVertex
100
AcDb2dVertex
 10
57.98278075839895
 20
35.97985268501672
 30
0.0
  0
VERTEX
  5
1DF
330
1C9
100
AcDbEntity
  8
Visible (ANSI)
100
AcDbVertex
100
AcDb2dVertex
 10
57.98066615456038
 20
35.97777550531247
 30
0.0
  0
VERTEX
  5
1E0
330
1C9
100
AcDbEntity
  8
Visible (ANSI)
100
AcDbVertex
100
AcDb2dVertex
 10
57.97855455442043
 20
35.97615062406658
 30
0.0
  0
VERTEX
  5
1E1
330
1C9
100
AcDbEntity
  8
Visible (ANSI)
100
AcDbVertex
100
AcDb2dVertex
 10
57.97644295428048
 20
35.97498499897364
 30
0.0
  0
VERTEX
  5
1E2
330
1C9
100
AcDbEntity
  8
Visible (ANSI)
100
AcDbVertex
100
AcDb2dVertex
 10
57.97433135414054
 20
35.97428362127184
 30
0.0
  0
VERTEX
  5
1E3
330
1C9
100
AcDbEntity
  8
Visible (ANSI)
100
AcDbVertex
100
AcDb2dVertex
 10
57.97221975400059
 20
35.97404949452233
 30
0.0
  0
SEQEND
  5
1CC
330
1C9
100
AcDbEntity
  8
Visible (ANSI)
  0
POLYLINE
  5
1E4
330
6C
100
AcDbEntity
  8
Visible (ANSI)
100
AcDb2dPolyline
 66
     1
 10
0.0
 20
0.0
 30
0.0
 70
   128
  0
VERTEX
  5
1E5
330
1E4
100
AcDbEntity
  8
Visible (ANSI)
100
AcDbVertex
100
AcDb2dVertex
 10
26.2923015652522
 20
35.97404949452233
 30
0.0
  0
VERTEX
  5
1E6
330
1E4
100
AcDbEntity
  8
Visible (ANSI)
100
AcDbVertex
100
AcDb2dVertex
 10
26.29018942538515
 20
35.97428362127184
 30
0.0
  0
VERTEX
  5
1E8
330
1E4
100
AcDbEntity
  8
Visible (ANSI)
100
AcDbVertex
100
AcDb2dVertex
 10
26.2880772855181
 20
35.97498499897364
 30
0.0
  0
VERTEX
  5
1E9
330
1E4
100
AcDbEntity
  8
Visible (ANSI)
100
AcDbVertex
100
AcDb2dVertex
 10
26.28596515738425
 20
35.97615062406658
 30
0.0
  0
VERTEX
  5
1EA
330
1E4
100
AcDbEntity
  8
Visible (ANSI)
100
AcDbVertex
100
AcDb2dVertex
 10
26.28385301751721
 20
35.97777550531247
 30
0.0
  0
VERTEX
  5
1EB
330
1E4
100
AcDbEntity
  8
Visible (ANSI)
100
AcDbVertex
100
AcDb2dVertex
 10
26.28174087765016
 20
35.97985268501672
 30
0.0
  0
VERTEX
  5
1EC
330
1E4
100
AcDbEntity
  8
Visible (ANSI)
100
AcDbVertex
100
AcDb2dVertex
 10
26.27962874951631
 20
35.9823732677654
 30
0.0
  0
VERTEX
  5
1ED
330
1E4
100
AcDbEntity
  8
Visible (ANSI)
100
AcDbVertex
100
AcDb2dVertex
 10
26.27751660964926
 20
35.98532646011654
 30
0.0
  0
VERTEX
  5
1EE
330
1E4
100
AcDbEntity
  8
Visible (ANSI)
100
AcDbVertex
100
AcDb2dVertex
 10
26.27540446978222
 20
35.98869961661621
 30
0.0
  0
VERTEX
  5
1EF
330
1E4
100
AcDbEntity
  8
Visible (ANSI)
100
AcDbVertex
100
AcDb2dVertex
 10
26.27329234164837
 20
35.99247829296462
 30
0.0
  0
VERTEX
  5
1F0
330
1E4
100
AcDbEntity
  8
Visible (ANSI)
100
AcDbVertex
100
AcDb2dVertex
 10
26.27118020178132
 20
35.99664630614871
 30
0.0
  0
VERTEX
  5
1F1
330
1E4
100
AcDbEntity
  8
Visible (ANSI)
100
AcDbVertex
100
AcDb2dVertex
 10
26.26906806191427
 20
36.00118581144129
 30
0.0
  0
VERTEX
  5
1F2
330
1E4
100
AcDbEntity
  8
Visible (ANSI)
100
AcDbVertex
100
AcDb2dVertex
 10
26.26695593378043
 20
36.00607736693362
 30
0.0
  0
VERTEX
  5
1F3
330
1E4
100
AcDbEntity
  8
Visible (ANSI)
100
AcDbVertex
100
AcDb2dVertex
 10
26.26484379391338
 20
36.0113000303343
 30
0.0
  0
VERTEX
  5
1F4
330
1E4
100
AcDbEntity
  8
Visible (ANSI)
100
AcDbVertex
100
AcDb2dVertex
 10
26.26273166577953
 20
36.01683143230174
 30
0.0
  0
VERTEX
  5
1F5
330
1E4
100
AcDbEntity
  8
Visible (ANSI)
100
AcDbVertex
100
AcDb2dVertex
 10
26.26061952591248
 20
36.0226478893762
 30
0.0
  0
VERTEX
  5
1F6
330
1E4
100
AcDbEntity
  8
Visible (ANSI)
100
AcDbVertex
100
AcDb2dVertex
 10
26.25850738604544
 20
36.02872449491206
 30
0.0
  0
VERTEX
  5
1F7
330
1E4
100
AcDbEntity
  8
Visible (ANSI)
100
AcDbVertex
100
AcDb2dVertex
 10
26.25639525791159
 20
36.03503522467664
 30
0.0
  0
VERTEX
  5
1F8
330
1E4
100
AcDbEntity
  8
Visible (ANSI)
100
AcDbVertex
100
AcDb2dVertex
 10
26.25428311804454
 20
36.04155306298202
 30
0.0
  0
VERTEX
  5
1F9
330
1E4
100
AcDbEntity
  8
Visible (ANSI)
100
AcDbVertex
100
AcDb2dVertex
 10
26.2521709781775
 20
36.04825009068405
 30
0.0
  0
VERTEX
  5
1FA
330
1E4
100
AcDbEntity
  8
Visible (ANSI)
100
AcDbVertex
100
AcDb2dVertex
 10
26.25005885004365
 20
36.05509763184733
 30
0.0
  0
VERTEX
  5
1FB
330
1E4
100
AcDbEntity
  8
Visible (ANSI)
100
AcDbVertex
100
AcDb2dVertex
 10
26.2479467101766
 20
36.0620663652106
 30
0.0
  0
VERTEX
  5
1FC
330
1E4
100
AcDbEntity
  8
Visible (ANSI)
100
AcDbVertex
100
AcDb2dVertex
 10
26.24583457030955
 20
36.06912645325186
 30
0.0
  0
VERTEX
  5
1FD
330
1E4
100
AcDbEntity
  8
Visible (ANSI)
100
AcDbVertex
100
AcDb2dVertex
 10
26.2437224421757
 20
36.07624766538701
 30
0.0
  0
VERTEX
  5
1FE
330
1E4
100
AcDbEntity
  8
Visible (ANSI)
100
AcDbVertex
100
AcDb2dVertex
 10
26.24161030230866
 20
36.0833994953018
 30
0.0
  0
SEQEND
  5
1E7
330
1E4
100
AcDbEntity
  8
Visible (ANSI)
  0
LINE
  5
1FF
330
6C
100
AcDbEntity
  8
Hidden (ANSI)
 48
0.0177565310150385
100
AcDbLine
 10
58.0385103015292
 20
36.13409075525857
 30
0.0
 11
58.1322603015292
 21
36.13409075525857
 31
0.0
  0
POLYLINE
  5
200
330
6C
100
AcDbEntity
  8
Hidden (ANSI)
 48
0.0106237288564444
100
AcDb2dPolyline
 66
     1
 10
0.0
 20
0.0
 30
0.0
 70
   128
  0
VERTEX
  5
201
330
200
100
AcDbEntity
  8
Hidden (ANSI)
 48
0.0106237288564444
100
AcDbVertex
100
AcDb2dVertex
 10
58.02291017215388
 20
36.0833994953018
 30
0.0
  0
VERTEX
  5
202
330
200
100
AcDbEntity
  8
Hidden (ANSI)
 48
0.0106237288564444
100
AcDbVertex
100
AcDb2dVertex
 10
58.02393142968956
 20
36.08551163516884
 30
0.0
  0
VERTEX
  5
204
330
200
100
AcDbEntity
  8
Hidden (ANSI)
 48
0.0106237288564444
100
AcDbVertex
100
AcDb2dVertex
 10
58.02494667982798
 20
36.08762376330269
 30
0.0
  0
VERTEX
  5
205
330
200
100
AcDbEntity
  8
Hidden (ANSI)
 48
0.0106237288564444
100
AcDbVertex
100
AcDb2dVertex
 10
58.02595291887048
 20
36.08973590316974
 30
0.0
  0
VERTEX
  5
206
330
200
100
AcDbEntity
  8
Hidden (ANSI)
 48
0.0106237288564444
100
AcDbVertex
100
AcDb2dVertex
 10
58.02694714311845
 20
36.09184804303679
 30
0.0
  0
VERTEX
  5
207
330
200
100
AcDbEntity
  8
Hidden (ANSI)
 48
0.0106237288564444
100
AcDbVertex
100
AcDb2dVertex
 10
58.02792334517462
 20
36.09396017117064
 30
0.0
  0
VERTEX
  5
208
330
200
100
AcDbEntity
  8
Hidden (ANSI)
 48
0.0106237288564444
100
AcDbVertex
100
AcDb2dVertex
 10
58.02888152503897
 20
36.09607231103768
 30
0.0
  0
VERTEX
  5
209
330
200
100
AcDbEntity
  8
Hidden (ANSI)
 48
0.0106237288564444
100
AcDbVertex
100
AcDb2dVertex
 10
58.02980966791698
 20
36.09818445090474
 30
0.0
  0
VERTEX
  5
20A
330
200
100
AcDbEntity
  8
Hidden (ANSI)
 48
0.0106237288564444
100
AcDbVertex
100
AcDb2dVertex
 10
58.03071077750729
 20
36.10029657903857
 30
0.0
  0
VERTEX
  5
20B
330
200
100
AcDbEntity
  8
Hidden (ANSI)
 48
0.0106237288564444
100
AcDbVertex
100
AcDb2dVertex
 10
58.03157584271398
 20
36.10240871890562
 30
0.0
  0
VERTEX
  5
20C
330
200
100
AcDbEntity
  8
Hidden (ANSI)
 48
0.0106237288564444
100
AcDbVertex
100
AcDb2dVertex
 10
58.0324078672357
 20
36.10452085877267
 30
0.0
  0
VERTEX
  5
20D
330
200
100
AcDbEntity
  8
Hidden (ANSI)
 48
0.0106237288564444
100
AcDbVertex
100
AcDb2dVertex
 10
58.03319483627791
 20
36.10663298690652
 30
0.0
  0
VERTEX
  5
20E
330
200
100
AcDbEntity
  8
Hidden (ANSI)
 48
0.0106237288564444
100
AcDbVertex
100
AcDb2dVertex
 10
58.03393975353922
 20
36.10874512677356
 30
0.0
  0
VERTEX
  5
20F
330
200
100
AcDbEntity
  8
Hidden (ANSI)
 48
0.0106237288564444
100
AcDbVertex
100
AcDb2dVertex
 10
58.03463961532102
 20
36.11085725490741
 30
0.0
  0
VERTEX
  5
210
330
200
100
AcDbEntity
  8
Hidden (ANSI)
 48
0.0106237288564444
100
AcDbVertex
100
AcDb2dVertex
 10
58.0352854105274
 20
36.11296939477446
 30
0.0
  0
VERTEX
  5
211
330
200
100
AcDbEntity
  8
Hidden (ANSI)
 48
0.0106237288564444
100
AcDbVertex
100
AcDb2dVertex
 10
58.03588014285701
 20
36.1150815346415
 30
0.0
  0
VERTEX
  5
212
330
200
100
AcDbEntity
  8
Hidden (ANSI)
 48
0.0106237288564444
100
AcDbVertex
100
AcDb2dVertex
 10
58.0364208086112
 20
36.11719366277536
 30
0.0
  0
VERTEX
  5
213
330
200
100
AcDbEntity
  8
Hidden (ANSI)
 48
0.0106237288564444
100
AcDbVertex
100
AcDb2dVertex
 10
58.03690140039269
 20
36.1193058026424
 30
0.0
  0
VERTEX
  5
214
330
200
100
AcDbEntity
  8
Hidden (ANSI)
 48
0.0106237288564444
100
AcDbVertex
100
AcDb2dVertex
 10
58.0373219182015
 20
36.12141794250945
 30
0.0
  0
VERTEX
  5
215
330
200
100
AcDbEntity
  8
Hidden (ANSI)
 48
0.0106237288564444
100
AcDbVertex
100
AcDb2dVertex
 10
58.03768236203762
 20
36.1235300706433
 30
0.0
  0
VERTEX
  5
216
330
200
100
AcDbEntity
  8
Hidden (ANSI)
 48
0.0106237288564444
100
AcDbVertex
100
AcDb2dVertex
 10
58.03797972820242
 20
36.12564221051034
 30
0.0
  0
VERTEX
  5
217
330
200
100
AcDbEntity
  8
Hidden (ANSI)
 48
0.0106237288564444
100
AcDbVertex
100
AcDb2dVertex
 10
58.03821101299727
 20
36.12775435037739
 30
0.0
  0
VERTEX
  5
218
330
200
100
AcDbEntity
  8
Hidden (ANSI)
 48
0.0106237288564444
100
AcDbVertex
100
AcDb2dVertex
 10
58.03837621642216
 20
36.12986647851124
 30
0.0
  0
VERTEX
  5
219
330
200
100
AcDbEntity
  8
Hidden (ANSI)
 48
0.0106237288564444
100
AcDbVertex
100
AcDb2dVertex
 10
58.03847834217573
 20
36.13197861837829
 30
0.0
  0
VERTEX
  5
21A
330
200
100
AcDbEntity
  8
Hidden (ANSI)
 48
0.0106237288564444
100
AcDbVertex
100
AcDb2dVertex
 10
58.0385113828607
 20
36.13409075824534
 30
0.0
  0
SEQEND
  5
203
330
200
100
AcDbEntity
  8
Hidden (ANSI)
 48
0.0106237288564444
  0
LINE
  5
21B
330
6C
100
AcDbEntity
  8
Hidden (ANSI)
 48
0.0177565310150385
100
AcDbLine
 10
58.0385103015292
 20
66.69400823378611
 30
0.0
 11
58.1322603015292
 21
66.69400823378611
 31
0.0
  0
POLYLINE
  5
21C
330
6C
100
AcDbEntity
  8
Hidden (ANSI)
 48
0.0106235845014453
100
AcDb2dPolyline
 66
     1
 10
0.0
 20
0.0
 30
0.0
 70
   128
  0
VERTEX
  5
21D
330
21C
100
AcDbEntity
  8
Hidden (ANSI)
 48
0.0106235845014453
100
AcDbVertex
100
AcDb2dVertex
 10
58.02291017215388
 20
66.74469824056226
 30
0.0
  0
VERTEX
  5
21E
330
21C
100
AcDbEntity
  8
Hidden (ANSI)
 48
0.0106235845014453
100
AcDbVertex
100
AcDb2dVertex
 10
58.02393142968956
 20
66.74258664042231
 30
0.0
  0
VERTEX
  5
220
330
21C
100
AcDbEntity
  8
Hidden (ANSI)
 48
0.0106235845014453
100
AcDbVertex
100
AcDb2dVertex
 10
58.02494667982798
 20
66.74047504028236
 30
0.0
  0
VERTEX
  5
221
330
21C
100
AcDbEntity
  8
Hidden (ANSI)
 48
0.0106235845014453
100
AcDbVertex
100
AcDb2dVertex
 10
58.02595291887048
 20
66.7383634401424
 30
0.0
  0
VERTEX
  5
222
330
21C
100
AcDbEntity
  8
Hidden (ANSI)
 48
0.0106235845014453
100
AcDbVertex
100
AcDb2dVertex
 10
58.02694714311845
 20
66.73625184000247
 30
0.0
  0
VERTEX
  5
223
330
21C
100
AcDbEntity
  8
Hidden (ANSI)
 48
0.0106235845014453
100
AcDbVertex
100
AcDb2dVertex
 10
58.02792334517462
 20
66.73414023986251
 30
0.0
  0
VERTEX
  5
224
330
21C
100
AcDbEntity
  8
Hidden (ANSI)
 48
0.0106235845014453
100
AcDbVertex
100
AcDb2dVertex
 10
58.02888152503897
 20
66.73202563602393
 30
0.0
  0
VERTEX
  5
225
330
21C
100
AcDbEntity
  8
Hidden (ANSI)
 48
0.0106235845014453
100
AcDbVertex
100
AcDb2dVertex
 10
58.02980966791698
 20
66.72991403588399
 30
0.0
  0
VERTEX
  5
226
330
21C
100
AcDbEntity
  8
Hidden (ANSI)
 48
0.0106235845014453
100
AcDbVertex
100
AcDb2dVertex
 10
58.03071077750729
 20
66.72780243574402
 30
0.0
  0
VERTEX
  5
227
330
21C
100
AcDbEntity
  8
Hidden (ANSI)
 48
0.0106235845014453
100
AcDbVertex
100
AcDb2dVertex
 10
58.03157584271398
 20
66.72569083560408
 30
0.0
  0
VERTEX
  5
228
330
21C
100
AcDbEntity
  8
Hidden (ANSI)
 48
0.0106235845014453
100
AcDbVertex
100
AcDb2dVertex
 10
58.0324078672357
 20
66.72357923546414
 30
0.0
  0
VERTEX
  5
229
330
21C
100
AcDbEntity
  8
Hidden (ANSI)
 48
0.0106235845014453
100
AcDbVertex
100
AcDb2dVertex
 10
58.03319483627791
 20
66.72146463162555
 30
0.0
  0
VERTEX
  5
22A
330
21C
100
AcDbEntity
  8
Hidden (ANSI)
 48
0.0106235845014453
100
AcDbVertex
100
AcDb2dVertex
 10
58.03393975353922
 20
66.71935303148561
 30
0.0
  0
VERTEX
  5
22B
330
21C
100
AcDbEntity
  8
Hidden (ANSI)
 48
0.0106235845014453
100
AcDbVertex
100
AcDb2dVertex
 10
58.03463961532102
 20
66.71724143134567
 30
0.0
  0
VERTEX
  5
22C
330
21C
100
AcDbEntity
  8
Hidden (ANSI)
 48
0.0106235845014453
100
AcDbVertex
100
AcDb2dVertex
 10
58.0352854105274
 20
66.71512983120571
 30
0.0
  0
VERTEX
  5
22D
330
21C
100
AcDbEntity
  8
Hidden (ANSI)
 48
0.0106235845014453
100
AcDbVertex
100
AcDb2dVertex
 10
58.03588014285701
 20
66.71301823106576
 30
0.0
  0
VERTEX
  5
22E
330
21C
100
AcDbEntity
  8
Hidden (ANSI)
 48
0.0106235845014453
100
AcDbVertex
100
AcDb2dVertex
 10
58.0364208086112
 20
66.71090663092581
 30
0.0
  0
VERTEX
  5
22F
330
21C
100
AcDbEntity
  8
Hidden (ANSI)
 48
0.0106235845014453
100
AcDbVertex
100
AcDb2dVertex
 10
58.03690140039269
 20
66.70879202708722
 30
0.0
  0
VERTEX
  5
230
330
21C
100
AcDbEntity
  8
Hidden (ANSI)
 48
0.0106235845014453
100
AcDbVertex
100
AcDb2dVertex
 10
58.0373219182015
 20
66.70668042694728
 30
0.0
  0
VERTEX
  5
231
330
21C
100
AcDbEntity
  8
Hidden (ANSI)
 48
0.0106235845014453
100
AcDbVertex
100
AcDb2dVertex
 10
58.03768236203762
 20
66.70456882680733
 30
0.0
  0
VERTEX
  5
232
330
21C
100
AcDbEntity
  8
Hidden (ANSI)
 48
0.0106235845014453
100
AcDbVertex
100
AcDb2dVertex
 10
58.03797972820242
 20
66.70245722666739
 30
0.0
  0
VERTEX
  5
233
330
21C
100
AcDbEntity
  8
Hidden (ANSI)
 48
0.0106235845014453
100
AcDbVertex
100
AcDb2dVertex
 10
58.03821101299727
 20
66.70034562652745
 30
0.0
  0
VERTEX
  5
234
330
21C
100
AcDbEntity
  8
Hidden (ANSI)
 48
0.0106235845014453
100
AcDbVertex
100
AcDb2dVertex
 10
58.03837621642216
 20
66.69823102268884
 30
0.0
  0
VERTEX
  5
235
330
21C
100
AcDbEntity
  8
Hidden (ANSI)
 48
0.0106235845014453
100
AcDbVertex
100
AcDb2dVertex
 10
58.03847834217573
 20
66.6961194225489
 30
0.0
  0
VERTEX
  5
236
330
21C
100
AcDbEntity
  8
Hidden (ANSI)
 48
0.0106235845014453
100
AcDbVertex
100
AcDb2dVertex
 10
58.0385113828607
 20
66.69400782240896
 30
0.0
  0
SEQEND
  5
21F
330
21C
100
AcDbEntity
  8
Hidden (ANSI)
 48
0.0106235845014453
  0
LINE
  5
237
330
6C
100
AcDbEntity
  8
Hidden (ANSI)
 48
0.0177565310150385
100
AcDbLine
 10
57.97221904079296
 20
66.76029949452234
 30
0.0
 11
57.97221904079296
 21
66.85404949452234
 31
0.0
  0
POLYLINE
  5
238
330
6C
100
AcDbEntity
  8
Hidden (ANSI)
 48
0.0106236850842834
100
AcDb2dPolyline
 66
     1
 10
0.0
 20
0.0
 30
0.0
 70
   128
  0
VERTEX
  5
239
330
238
100
AcDbEntity
  8
Hidden (ANSI)
 48
0.0106236850842834
100
AcDbVertex
100
AcDb2dVertex
 10
58.02291017215388
 20
66.74469824056226
 30
0.0
  0
VERTEX
  5
23A
330
238
100
AcDbEntity
  8
Hidden (ANSI)
 48
0.0106236850842834
100
AcDbVertex
100
AcDb2dVertex
 10
58.02079857201394
 20
66.74571949809792
 30
0.0
  0
VERTEX
  5
23C
330
238
100
AcDbEntity
  8
Hidden (ANSI)
 48
0.0106236850842834
100
AcDbVertex
100
AcDb2dVertex
 10
58.018686971874
 20
66.74673474823634
 30
0.0
  0
VERTEX
  5
23D
330
238
100
AcDbEntity
  8
Hidden (ANSI)
 48
0.0106236850842834
100
AcDbVertex
100
AcDb2dVertex
 10
58.01657537173404
 20
66.74774399097749
 30
0.0
  0
VERTEX
  5
23E
330
238
100
AcDbEntity
  8
Hidden (ANSI)
 48
0.0106236850842834
100
AcDbVertex
100
AcDb2dVertex
 10
58.01446076789545
 20
66.74873821522545
 30
0.0
  0
VERTEX
  5
23F
330
238
100
AcDbEntity
  8
Hidden (ANSI)
 48
0.0106236850842834
100
AcDbVertex
100
AcDb2dVertex
 10
58.01234916775552
 20
66.7497144172816
 30
0.0
  0
VERTEX
  5
240
330
238
100
AcDbEntity
  8
Hidden (ANSI)
 48
0.0106236850842834
100
AcDbVertex
100
AcDb2dVertex
 10
58.01023756761556
 20
66.75066959344734
 30
0.0
  0
VERTEX
  5
241
330
238
100
AcDbEntity
  8
Hidden (ANSI)
 48
0.0106236850842834
100
AcDbVertex
100
AcDb2dVertex
 10
58.00812596747562
 20
66.75159773632536
 30
0.0
  0
VERTEX
  5
242
330
238
100
AcDbEntity
  8
Hidden (ANSI)
 48
0.0106236850842834
100
AcDbVertex
100
AcDb2dVertex
 10
58.00601436733566
 20
66.75249884591567
 30
0.0
  0
VERTEX
  5
243
330
238
100
AcDbEntity
  8
Hidden (ANSI)
 48
0.0106236850842834
100
AcDbVertex
100
AcDb2dVertex
 10
58.00389976349708
 20
66.75336691482098
 30
0.0
  0
VERTEX
  5
244
330
238
100
AcDbEntity
  8
Hidden (ANSI)
 48
0.0106236850842834
100
AcDbVertex
100
AcDb2dVertex
 10
58.00178816335713
 20
66.75419593564408
 30
0.0
  0
VERTEX
  5
245
330
238
100
AcDbEntity
  8
Hidden (ANSI)
 48
0.0106236850842834
100
AcDbVertex
100
AcDb2dVertex
 10
57.99967656321718
 20
66.7549859083849
 30
0.0
  0
VERTEX
  5
246
330
238
100
AcDbEntity
  8
Hidden (ANSI)
 48
0.0106236850842834
100
AcDbVertex
100
AcDb2dVertex
 10
57.99756496307724
 20
66.75573082564622
 30
0.0
  0
VERTEX
  5
247
330
238
100
AcDbEntity
  8
Hidden (ANSI)
 48
0.0106236850842834
100
AcDbVertex
100
AcDb2dVertex
 10
57.99545336293729
 20
66.75642768372938
 30
0.0
  0
VERTEX
  5
248
330
238
100
AcDbEntity
  8
Hidden (ANSI)
 48
0.0106236850842834
100
AcDbVertex
100
AcDb2dVertex
 10
57.99334176279733
 20
66.75707648263442
 30
0.0
  0
VERTEX
  5
249
330
238
100
AcDbEntity
  8
Hidden (ANSI)
 48
0.0106236850842834
100
AcDbVertex
100
AcDb2dVertex
 10
57.99122715895876
 20
66.75767121496402
 30
0.0
  0
VERTEX
  5
24A
330
238
100
AcDbEntity
  8
Hidden (ANSI)
 48
0.0106236850842834
100
AcDbVertex
100
AcDb2dVertex
 10
57.98911555881882
 20
66.75820887701957
 30
0.0
  0
VERTEX
  5
24B
330
238
100
AcDbEntity
  8
Hidden (ANSI)
 48
0.0106236850842834
100
AcDbVertex
100
AcDb2dVertex
 10
57.98700395867886
 20
66.75868946880107
 30
0.0
  0
VERTEX
  5
24C
330
238
100
AcDbEntity
  8
Hidden (ANSI)
 48
0.0106236850842834
100
AcDbVertex
100
AcDb2dVertex
 10
57.98489235853891
 20
66.7591129903085
 30
0.0
  0
VERTEX
  5
24D
330
238
100
AcDbEntity
  8
Hidden (ANSI)
 48
0.0106236850842834
100
AcDbVertex
100
AcDb2dVertex
 10
57.98278075839895
 20
66.759470430446
 30
0.0
  0
VERTEX
  5
24E
330
238
100
AcDbEntity
  8
Hidden (ANSI)
 48
0.0106236850842834
100
AcDbVertex
100
AcDb2dVertex
 10
57.98066615456038
 20
66.75976779661079
 30
0.0
  0
VERTEX
  5
24F
330
238
100
AcDbEntity
  8
Hidden (ANSI)
 48
0.0106236850842834
100
AcDbVertex
100
AcDb2dVertex
 10
57.97855455442043
 20
66.75999908140564
 30
0.0
  0
VERTEX
  5
250
330
238
100
AcDbEntity
  8
Hidden (ANSI)
 48
0.0106236850842834
100
AcDbVertex
100
AcDb2dVertex
 10
57.97644295428048
 20
66.76016728852916
 30
0.0
  0
VERTEX
  5
251
330
238
100
AcDbEntity
  8
Hidden (ANSI)
 48
0.0106236850842834
100
AcDbVertex
100
AcDb2dVertex
 10
57.97433135414054
 20
66.7602664105841
 30
0.0
  0
VERTEX
  5
252
330
238
100
AcDbEntity
  8
Hidden (ANSI)
 48
0.0106236850842834
100
AcDbVertex
100
AcDb2dVertex
 10
57.97221975400059
 20
66.76029945126908
 30
0.0
  0
SEQEND
  5
23B
330
238
100
AcDbEntity
  8
Hidden (ANSI)
 48
0.0106236850842834
  0
LINE
  5
253
330
6C
100
AcDbEntity
  8
Hidden (ANSI)
 48
0.0177565310150385
100
AcDbLine
 10
26.29230156226542
 20
66.76029949452232
 30
0.0
 11
26.29230156226542
 21
66.85404949452233
 31
0.0
  0
POLYLINE
  5
254
330
6C
100
AcDbEntity
  8
Hidden (ANSI)
 48
0.010623830370605
100
AcDb2dPolyline
 66
     1
 10
0.0
 20
0.0
 30
0.0
 70
   128
  0
VERTEX
  5
255
330
254
100
AcDbEntity
  8
Hidden (ANSI)
 48
0.010623830370605
100
AcDbVertex
100
AcDb2dVertex
 10
26.24161030230866
 20
66.74469824056226
 30
0.0
  0
VERTEX
  5
256
330
254
100
AcDbEntity
  8
Hidden (ANSI)
 48
0.010623830370605
100
AcDbVertex
100
AcDb2dVertex
 10
26.2437224421757
 20
66.74571949809792
 30
0.0
  0
VERTEX
  5
258
330
254
100
AcDbEntity
  8
Hidden (ANSI)
 48
0.010623830370605
100
AcDbVertex
100
AcDb2dVertex
 10
26.24583457030955
 20
66.74673474823634
 30
0.0
  0
VERTEX
  5
259
330
254
100
AcDbEntity
  8
Hidden (ANSI)
 48
0.010623830370605
100
AcDbVertex
100
AcDb2dVertex
 10
26.2479467101766
 20
66.74774399097749
 30
0.0
  0
VERTEX
  5
25A
330
254
100
AcDbEntity
  8
Hidden (ANSI)
 48
0.010623830370605
100
AcDbVertex
100
AcDb2dVertex
 10
26.25005885004365
 20
66.74873821522545
 30
0.0
  0
VERTEX
  5
25B
330
254
100
AcDbEntity
  8
Hidden (ANSI)
 48
0.010623830370605
100
AcDbVertex
100
AcDb2dVertex
 10
26.2521709781775
 20
66.7497144172816
 30
0.0
  0
VERTEX
  5
25C
330
254
100
AcDbEntity
  8
Hidden (ANSI)
 48
0.010623830370605
100
AcDbVertex
100
AcDb2dVertex
 10
26.25428311804454
 20
66.75066959344734
 30
0.0
  0
VERTEX
  5
25D
330
254
100
AcDbEntity
  8
Hidden (ANSI)
 48
0.010623830370605
100
AcDbVertex
100
AcDb2dVertex
 10
26.25639525791159
 20
66.75159773632536
 30
0.0
  0
VERTEX
  5
25E
330
254
100
AcDbEntity
  8
Hidden (ANSI)
 48
0.010623830370605
100
AcDbVertex
100
AcDb2dVertex
 10
26.25850738604544
 20
66.75249884591567
 30
0.0
  0
VERTEX
  5
25F
330
254
100
AcDbEntity
  8
Hidden (ANSI)
 48
0.010623830370605
100
AcDbVertex
100
AcDb2dVertex
 10
26.26061952591248
 20
66.75336691482098
 30
0.0
  0
VERTEX
  5
260
330
254
100
AcDbEntity
  8
Hidden (ANSI)
 48
0.010623830370605
100
AcDbVertex
100
AcDb2dVertex
 10
26.26273166577953
 20
66.75419593564408
 30
0.0
  0
VERTEX
  5
261
330
254
100
AcDbEntity
  8
Hidden (ANSI)
 48
0.010623830370605
100
AcDbVertex
100
AcDb2dVertex
 10
26.26484379391338
 20
66.7549859083849
 30
0.0
  0
VERTEX
  5
262
330
254
100
AcDbEntity
  8
Hidden (ANSI)
 48
0.010623830370605
100
AcDbVertex
100
AcDb2dVertex
 10
26.26695593378043
 20
66.75573082564622
 30
0.0
  0
VERTEX
  5
263
330
254
100
AcDbEntity
  8
Hidden (ANSI)
 48
0.010623830370605
100
AcDbVertex
100
AcDb2dVertex
 10
26.26906806191427
 20
66.75642768372938
 30
0.0
  0
VERTEX
  5
264
330
254
100
AcDbEntity
  8
Hidden (ANSI)
 48
0.010623830370605
100
AcDbVertex
100
AcDb2dVertex
 10
26.27118020178132
 20
66.75707648263442
 30
0.0
  0
VERTEX
  5
265
330
254
100
AcDbEntity
  8
Hidden (ANSI)
 48
0.010623830370605
100
AcDbVertex
100
AcDb2dVertex
 10
26.27329234164837
 20
66.75767121496402
 30
0.0
  0
VERTEX
  5
266
330
254
100
AcDbEntity
  8
Hidden (ANSI)
 48
0.010623830370605
100
AcDbVertex
100
AcDb2dVertex
 10
26.27540446978222
 20
66.75820887701957
 30
0.0
  0
VERTEX
  5
267
330
254
100
AcDbEntity
  8
Hidden (ANSI)
 48
0.010623830370605
100
AcDbVertex
100
AcDb2dVertex
 10
26.27751660964926
 20
66.75868946880107
 30
0.0
  0
VERTEX
  5
268
330
254
100
AcDbEntity
  8
Hidden (ANSI)
 48
0.010623830370605
100
AcDbVertex
100
AcDb2dVertex
 10
26.27962874951631
 20
66.7591129903085
 30
0.0
  0
VERTEX
  5
269
330
254
100
AcDbEntity
  8
Hidden (ANSI)
 48
0.010623830370605
100
AcDbVertex
100
AcDb2dVertex
 10
26.28174087765016
 20
66.759470430446
 30
0.0
  0
VERTEX
  5
26A
330
254
100
AcDbEntity
  8
Hidden (ANSI)
 48
0.010623830370605
100
AcDbVertex
100
AcDb2dVertex
 10
26.28385301751721
 20
66.75976779661079
 30
0.0
  0
VERTEX
  5
26B
330
254
100
AcDbEntity
  8
Hidden (ANSI)
 48
0.010623830370605
100
AcDbVertex
100
AcDb2dVertex
 10
26.28596515738425
 20
66.75999908140564
 30
0.0
  0
VERTEX
  5
26C
330
254
100
AcDbEntity
  8
Hidden (ANSI)
 48
0.010623830370605
100
AcDbVertex
100
AcDb2dVertex
 10
26.2880772855181
 20
66.76016728852916
 30
0.0
  0
VERTEX
  5
26D
330
254
100
AcDbEntity
  8
Hidden (ANSI)
 48
0.010623830370605
100
AcDbVertex
100
AcDb2dVertex
 10
26.29018942538515
 20
66.7602664105841
 30
0.0
  0
VERTEX
  5
26E
330
254
100
AcDbEntity
  8
Hidden (ANSI)
 48
0.010623830370605
100
AcDbVertex
100
AcDb2dVertex
 10
26.2923015652522
 20
66.76029945126908
 30
0.0
  0
SEQEND
  5
257
330
254
100
AcDbEntity
  8
Hidden (ANSI)
 48
0.010623830370605
  0
LINE
  5
26F
330
6C
100
AcDbEntity
  8
Hidden (ANSI)
 48
0.0177565310150385
100
AcDbLine
 10
26.22601030152919
 20
66.69400823378611
 30
0.0
 11
26.13226030152919
 21
66.69400823378611
 31
0.0
  0
POLYLINE
  5
270
330
6C
100
AcDbEntity
  8
Hidden (ANSI)
 48
0.0106235789135099
100
AcDb2dPolyline
 66
     1
 10
0.0
 20
0.0
 30
0.0
 70
   128
  0
VERTEX
  5
271
330
270
100
AcDbEntity
  8
Hidden (ANSI)
 48
0.0106235789135099
100
AcDbVertex
100
AcDb2dVertex
 10
26.24161030230866
 20
66.74469824056226
 30
0.0
  0
VERTEX
  5
272
330
270
100
AcDbEntity
  8
Hidden (ANSI)
 48
0.0106235789135099
100
AcDbVertex
100
AcDb2dVertex
 10
26.24059000689519
 20
66.74258664042231
 30
0.0
  0
VERTEX
  5
274
330
270
100
AcDbEntity
  8
Hidden (ANSI)
 48
0.0106235789135099
100
AcDbVertex
100
AcDb2dVertex
 10
26.23957408796451
 20
66.74047504028236
 30
0.0
  0
VERTEX
  5
275
330
270
100
AcDbEntity
  8
Hidden (ANSI)
 48
0.0106235789135099
100
AcDbVertex
100
AcDb2dVertex
 10
26.23856688679979
 20
66.7383634401424
 30
0.0
  0
VERTEX
  5
276
330
270
100
AcDbEntity
  8
Hidden (ANSI)
 48
0.0106235789135099
100
AcDbVertex
100
AcDb2dVertex
 10
26.23757272121781
 20
66.73625184000247
 30
0.0
  0
VERTEX
  5
277
330
270
100
AcDbEntity
  8
Hidden (ANSI)
 48
0.0106235789135099
100
AcDbVertex
100
AcDb2dVertex
 10
26.23659585036937
 20
66.73414023986251
 30
0.0
  0
VERTEX
  5
278
330
270
100
AcDbEntity
  8
Hidden (ANSI)
 48
0.0106235789135099
100
AcDbVertex
100
AcDb2dVertex
 10
26.23564043953969
 20
66.73202563602393
 30
0.0
  0
VERTEX
  5
279
330
270
100
AcDbEntity
  8
Hidden (ANSI)
 48
0.0106235789135099
100
AcDbVertex
100
AcDb2dVertex
 10
26.23471059534799
 20
66.72991403588399
 30
0.0
  0
VERTEX
  5
27A
330
270
100
AcDbEntity
  8
Hidden (ANSI)
 48
0.0106235789135099
100
AcDbVertex
100
AcDb2dVertex
 10
26.23381030708153
 20
66.72780243574402
 30
0.0
  0
VERTEX
  5
27B
330
270
100
AcDbEntity
  8
Hidden (ANSI)
 48
0.0106235789135099
100
AcDbVertex
100
AcDb2dVertex
 10
26.23294341149599
 20
66.72569083560408
 30
0.0
  0
VERTEX
  5
27C
330
270
100
AcDbEntity
  8
Hidden (ANSI)
 48
0.0106235789135099
100
AcDbVertex
100
AcDb2dVertex
 10
26.23211362801505
 20
66.72357923546414
 30
0.0
  0
VERTEX
  5
27D
330
270
100
AcDbEntity
  8
Hidden (ANSI)
 48
0.0106235789135099
100
AcDbVertex
100
AcDb2dVertex
 10
26.23132451179766
 20
66.72146463162555
 30
0.0
  0
VERTEX
  5
27E
330
270
100
AcDbEntity
  8
Hidden (ANSI)
 48
0.0106235789135099
100
AcDbVertex
100
AcDb2dVertex
 10
26.23057943613816
 20
66.71935303148561
 30
0.0
  0
VERTEX
  5
27F
330
270
100
AcDbEntity
  8
Hidden (ANSI)
 48
0.0106235789135099
100
AcDbVertex
100
AcDb2dVertex
 10
26.22988159833298
 20
66.71724143134567
 30
0.0
  0
VERTEX
  5
280
330
270
100
AcDbEntity
  8
Hidden (ANSI)
 48
0.0106235789135099
100
AcDbVertex
100
AcDb2dVertex
 10
26.22923399034754
 20
66.71512983120571
 30
0.0
  0
VERTEX
  5
281
330
270
100
AcDbEntity
  8
Hidden (ANSI)
 48
0.0106235789135099
100
AcDbVertex
100
AcDb2dVertex
 10
26.22863937534991
 20
66.71301823106576
 30
0.0
  0
VERTEX
  5
282
330
270
100
AcDbEntity
  8
Hidden (ANSI)
 48
0.0106235789135099
100
AcDbVertex
100
AcDb2dVertex
 10
26.22810030531063
 20
66.71090663092581
 30
0.0
  0
VERTEX
  5
283
330
270
100
AcDbEntity
  8
Hidden (ANSI)
 48
0.0106235789135099
100
AcDbVertex
100
AcDb2dVertex
 10
26.22761908580305
 20
66.70879202708722
 30
0.0
  0
VERTEX
  5
284
330
270
100
AcDbEntity
  8
Hidden (ANSI)
 48
0.0106235789135099
100
AcDbVertex
100
AcDb2dVertex
 10
26.22719778186999
 20
66.70668042694728
 30
0.0
  0
VERTEX
  5
285
330
270
100
AcDbEntity
  8
Hidden (ANSI)
 48
0.0106235789135099
100
AcDbVertex
100
AcDb2dVertex
 10
26.22683818869071
 20
66.70456882680733
 30
0.0
  0
VERTEX
  5
286
330
270
100
AcDbEntity
  8
Hidden (ANSI)
 48
0.0106235789135099
100
AcDbVertex
100
AcDb2dVertex
 10
26.22654186091391
 20
66.70245722666739
 30
0.0
  0
VERTEX
  5
287
330
270
100
AcDbEntity
  8
Hidden (ANSI)
 48
0.0106235789135099
100
AcDbVertex
100
AcDb2dVertex
 10
26.22631005399176
 20
66.70034562652745
 30
0.0
  0
VERTEX
  5
288
330
270
100
AcDbEntity
  8
Hidden (ANSI)
 48
0.0106235789135099
100
AcDbVertex
100
AcDb2dVertex
 10
26.22614375937948
 20
66.69823102268884
 30
0.0
  0
VERTEX
  5
289
330
270
100
AcDbEntity
  8
Hidden (ANSI)
 48
0.0106235789135099
100
AcDbVertex
100
AcDb2dVertex
 10
26.22604370453532
 20
66.6961194225489
 30
0.0
  0
VERTEX
  5
28A
330
270
100
AcDbEntity
  8
Hidden (ANSI)
 48
0.0106235789135099
100
AcDbVertex
100
AcDb2dVertex
 10
26.22601030012122
 20
66.69400782240896
 30
0.0
  0
SEQEND
  5
273
330
270
100
AcDbEntity
  8
Hidden (ANSI)
 48
0.0106235789135099
  0
LINE
  5
28B
330
6C
100
AcDbEntity
  8
Hidden (ANSI)
 48
0.0177565310150385
100
AcDbLine
 10
26.2260103015292
 20
36.13409075525857
 30
0.0
 11
26.1322603015292
 21
36.13409075525857
 31
0.0
  0
POLYLINE
  5
28C
330
6C
100
AcDbEntity
  8
Hidden (ANSI)
 48
0.0106237232685089
100
AcDb2dPolyline
 66
     1
 10
0.0
 20
0.0
 30
0.0
 70
   128
  0
VERTEX
  5
28D
330
28C
100
AcDbEntity
  8
Hidden (ANSI)
 48
0.0106237232685089
100
AcDbVertex
100
AcDb2dVertex
 10
26.24161030230866
 20
36.0833994953018
 30
0.0
  0
VERTEX
  5
28E
330
28C
100
AcDbEntity
  8
Hidden (ANSI)
 48
0.0106237232685089
100
AcDbVertex
100
AcDb2dVertex
 10
26.24059000689519
 20
36.08551163516884
 30
0.0
  0
VERTEX
  5
290
330
28C
100
AcDbEntity
  8
Hidden (ANSI)
 48
0.0106237232685089
100
AcDbVertex
100
AcDb2dVertex
 10
26.23957408796451
 20
36.08762376330269
 30
0.0
  0
VERTEX
  5
291
330
28C
100
AcDbEntity
  8
Hidden (ANSI)
 48
0.0106237232685089
100
AcDbVertex
100
AcDb2dVertex
 10
26.23856688679979
 20
36.08973590316974
 30
0.0
  0
VERTEX
  5
292
330
28C
100
AcDbEntity
  8
Hidden (ANSI)
 48
0.0106237232685089
100
AcDbVertex
100
AcDb2dVertex
 10
26.23757272121781
 20
36.09184804303679
 30
0.0
  0
VERTEX
  5
293
330
28C
100
AcDbEntity
  8
Hidden (ANSI)
 48
0.0106237232685089
100
AcDbVertex
100
AcDb2dVertex
 10
26.23659585036937
 20
36.09396017117064
 30
0.0
  0
VERTEX
  5
294
330
28C
100
AcDbEntity
  8
Hidden (ANSI)
 48
0.0106237232685089
100
AcDbVertex
100
AcDb2dVertex
 10
26.23564043953969
 20
36.09607231103768
 30
0.0
  0
VERTEX
  5
295
330
28C
100
AcDbEntity
  8
Hidden (ANSI)
 48
0.0106237232685089
100
AcDbVertex
100
AcDb2dVertex
 10
26.23471059534799
 20
36.09818445090474
 30
0.0
  0
VERTEX
  5
296
330
28C
100
AcDbEntity
  8
Hidden (ANSI)
 48
0.0106237232685089
100
AcDbVertex
100
AcDb2dVertex
 10
26.23381030708153
 20
36.10029657903857
 30
0.0
  0
VERTEX
  5
297
330
28C
100
AcDbEntity
  8
Hidden (ANSI)
 48
0.0106237232685089
100
AcDbVertex
100
AcDb2dVertex
 10
26.23294341149599
 20
36.10240871890562
 30
0.0
  0
VERTEX
  5
298
330
28C
100
AcDbEntity
  8
Hidden (ANSI)
 48
0.0106237232685089
100
AcDbVertex
100
AcDb2dVertex
 10
26.23211362801505
 20
36.10452085877267
 30
0.0
  0
VERTEX
  5
299
330
28C
100
AcDbEntity
  8
Hidden (ANSI)
 48
0.0106237232685089
100
AcDbVertex
100
AcDb2dVertex
 10
26.23132451179766
 20
36.10663298690652
 30
0.0
  0
VERTEX
  5
29A
330
28C
100
AcDbEntity
  8
Hidden (ANSI)
 48
0.0106237232685089
100
AcDbVertex
100
AcDb2dVertex
 10
26.23057943613816
 20
36.10874512677356
 30
0.0
  0
VERTEX
  5
29B
330
28C
100
AcDbEntity
  8
Hidden (ANSI)
 48
0.0106237232685089
100
AcDbVertex
100
AcDb2dVertex
 10
26.22988159833298
 20
36.11085725490741
 30
0.0
  0
VERTEX
  5
29C
330
28C
100
AcDbEntity
  8
Hidden (ANSI)
 48
0.0106237232685089
100
AcDbVertex
100
AcDb2dVertex
 10
26.22923399034754
 20
36.11296939477446
 30
0.0
  0
VERTEX
  5
29D
330
28C
100
AcDbEntity
  8
Hidden (ANSI)
 48
0.0106237232685089
100
AcDbVertex
100
AcDb2dVertex
 10
26.22863937534991
 20
36.1150815346415
 30
0.0
  0
VERTEX
  5
29E
330
28C
100
AcDbEntity
  8
Hidden (ANSI)
 48
0.0106237232685089
100
AcDbVertex
100
AcDb2dVertex
 10
26.22810030531063
 20
36.11719366277536
 30
0.0
  0
VERTEX
  5
29F
330
28C
100
AcDbEntity
  8
Hidden (ANSI)
 48
0.0106237232685089
100
AcDbVertex
100
AcDb2dVertex
 10
26.22761908580305
 20
36.1193058026424
 30
0.0
  0
VERTEX
  5
2A0
330
28C
100
AcDbEntity
  8
Hidden (ANSI)
 48
0.0106237232685089
100
AcDbVertex
100
AcDb2dVertex
 10
26.22719778186999
 20
36.12141794250945
 30
0.0
  0
VERTEX
  5
2A1
330
28C
100
AcDbEntity
  8
Hidden (ANSI)
 48
0.0106237232685089
100
AcDbVertex
100
AcDb2dVertex
 10
26.22683818869071
 20
36.1235300706433
 30
0.0
  0
VERTEX
  5
2A2
330
28C
100
AcDbEntity
  8
Hidden (ANSI)
 48
0.0106237232685089
100
AcDbVertex
100
AcDb2dVertex
 10
26.22654186091391
 20
36.12564221051034
 30
0.0
  0
VERTEX
  5
2A3
330
28C
100
AcDbEntity
  8
Hidden (ANSI)
 48
0.0106237232685089
100
AcDbVertex
100
AcDb2dVertex
 10
26.22631005399176
 20
36.12775435037739
 30
0.0
  0
VERTEX
  5
2A4
330
28C
100
AcDbEntity
  8
Hidden (ANSI)
 48
0.0106237232685089
100
AcDbVertex
100
AcDb2dVertex
 10
26.22614375937948
 20
36.12986647851124
 30
0.0
  0
VERTEX
  5
2A5
330
28C
100
AcDbEntity
  8
Hidden (ANSI)
 48
0.0106237232685089
100
AcDbVertex
100
AcDb2dVertex
 10
26.22604370453532
 20
36.13197861837829
 30
0.0
  0
VERTEX
  5
2A6
330
28C
100
AcDbEntity
  8
Hidden (ANSI)
 48
0.0106237232685089
100
AcDbVertex
100
AcDb2dVertex
 10
26.22601030012122
 20
36.13409075824534
 30
0.0
  0
SEQEND
  5
28F
330
28C
100
AcDbEntity
  8
Hidden (ANSI)
 48
0.0106237232685089
  0
LINE
  5
2A7
330
6C
100
AcDbEntity
  8
Hidden (ANSI)
 48
0.0177565310150385
100
AcDbLine
 10
26.29230156226543
 20
36.06779949452234
 30
0.0
 11
26.29230156226543
 21
35.97404949452233
 31
0.0
  0
POLYLINE
  5
2A8
330
6C
100
AcDbEntity
  8
Hidden (ANSI)
 48
0.0106237232685089
100
AcDb2dPolyline
 66
     1
 10
0.0
 20
0.0
 30
0.0
 70
   128
  0
VERTEX
  5
2A9
330
2A8
100
AcDbEntity
  8
Hidden (ANSI)
 48
0.0106237232685089
100
AcDbVertex
100
AcDb2dVertex
 10
26.24161030230866
 20
36.0833994953018
 30
0.0
  0
VERTEX
  5
2AA
330
2A8
100
AcDbEntity
  8
Hidden (ANSI)
 48
0.0106237232685089
100
AcDbVertex
100
AcDb2dVertex
 10
26.2437224421757
 20
36.08237919988834
 30
0.0
  0
VERTEX
  5
2AC
330
2A8
100
AcDbEntity
  8
Hidden (ANSI)
 48
0.0106237232685089
100
AcDbVertex
100
AcDb2dVertex
 10
26.24583457030955
 20
36.08136328095765
 30
0.0
  0
VERTEX
  5
2AD
330
2A8
100
AcDbEntity
  8
Hidden (ANSI)
 48
0.0106237232685089
100
AcDbVertex
100
AcDb2dVertex
 10
26.2479467101766
 20
36.08035607979292
 30
0.0
  0
VERTEX
  5
2AE
330
2A8
100
AcDbEntity
  8
Hidden (ANSI)
 48
0.0106237232685089
100
AcDbVertex
100
AcDb2dVertex
 10
26.25005885004365
 20
36.07936191421095
 30
0.0
  0
VERTEX
  5
2AF
330
2A8
100
AcDbEntity
  8
Hidden (ANSI)
 48
0.0106237232685089
100
AcDbVertex
100
AcDb2dVertex
 10
26.2521709781775
 20
36.0783850433625
 30
0.0
  0
VERTEX
  5
2B0
330
2A8
100
AcDbEntity
  8
Hidden (ANSI)
 48
0.0106237232685089
100
AcDbVertex
100
AcDb2dVertex
 10
26.25428311804454
 20
36.07742963253283
 30
0.0
  0
VERTEX
  5
2B1
330
2A8
100
AcDbEntity
  8
Hidden (ANSI)
 48
0.0106237232685089
100
AcDbVertex
100
AcDb2dVertex
 10
26.25639525791159
 20
36.07649978834113
 30
0.0
  0
VERTEX
  5
2B2
330
2A8
100
AcDbEntity
  8
Hidden (ANSI)
 48
0.0106237232685089
100
AcDbVertex
100
AcDb2dVertex
 10
26.25850738604544
 20
36.07559950007467
 30
0.0
  0
VERTEX
  5
2B3
330
2A8
100
AcDbEntity
  8
Hidden (ANSI)
 48
0.0106237232685089
100
AcDbVertex
100
AcDb2dVertex
 10
26.26061952591248
 20
36.07473260448913
 30
0.0
  0
VERTEX
  5
2B4
330
2A8
100
AcDbEntity
  8
Hidden (ANSI)
 48
0.0106237232685089
100
AcDbVertex
100
AcDb2dVertex
 10
26.26273166577953
 20
36.07390282100819
 30
0.0
  0
VERTEX
  5
2B5
330
2A8
100
AcDbEntity
  8
Hidden (ANSI)
 48
0.0106237232685089
100
AcDbVertex
100
AcDb2dVertex
 10
26.26484379391338
 20
36.0731137047908
 30
0.0
  0
VERTEX
  5
2B6
330
2A8
100
AcDbEntity
  8
Hidden (ANSI)
 48
0.0106237232685089
100
AcDbVertex
100
AcDb2dVertex
 10
26.26695593378043
 20
36.07236862913131
 30
0.0
  0
VERTEX
  5
2B7
330
2A8
100
AcDbEntity
  8
Hidden (ANSI)
 48
0.0106237232685089
100
AcDbVertex
100
AcDb2dVertex
 10
26.26906806191427
 20
36.07167079132612
 30
0.0
  0
VERTEX
  5
2B8
330
2A8
100
AcDbEntity
  8
Hidden (ANSI)
 48
0.0106237232685089
100
AcDbVertex
100
AcDb2dVertex
 10
26.27118020178132
 20
36.07102318334068
 30
0.0
  0
VERTEX
  5
2B9
330
2A8
100
AcDbEntity
  8
Hidden (ANSI)
 48
0.0106237232685089
100
AcDbVertex
100
AcDb2dVertex
 10
26.27329234164837
 20
36.07042856834306
 30
0.0
  0
VERTEX
  5
2BA
330
2A8
100
AcDbEntity
  8
Hidden (ANSI)
 48
0.0106237232685089
100
AcDbVertex
100
AcDb2dVertex
 10
26.27540446978222
 20
36.06988949830377
 30
0.0
  0
VERTEX
  5
2BB
330
2A8
100
AcDbEntity
  8
Hidden (ANSI)
 48
0.0106237232685089
100
AcDbVertex
100
AcDb2dVertex
 10
26.27751660964926
 20
36.06940827879619
 30
0.0
  0
VERTEX
  5
2BC
330
2A8
100
AcDbEntity
  8
Hidden (ANSI)
 48
0.0106237232685089
100
AcDbVertex
100
AcDb2dVertex
 10
26.27962874951631
 20
36.06898697486313
 30
0.0
  0
VERTEX
  5
2BD
330
2A8
100
AcDbEntity
  8
Hidden (ANSI)
 48
0.0106237232685089
100
AcDbVertex
100
AcDb2dVertex
 10
26.28174087765016
 20
36.06862738168385
 30
0.0
  0
VERTEX
  5
2BE
330
2A8
100
AcDbEntity
  8
Hidden (ANSI)
 48
0.0106237232685089
100
AcDbVertex
100
AcDb2dVertex
 10
26.28385301751721
 20
36.06833105390705
 30
0.0
  0
VERTEX
  5
2BF
330
2A8
100
AcDbEntity
  8
Hidden (ANSI)
 48
0.0106237232685089
100
AcDbVertex
100
AcDb2dVertex
 10
26.28596515738425
 20
36.0680992469849
 30
0.0
  0
VERTEX
  5
2C0
330
2A8
100
AcDbEntity
  8
Hidden (ANSI)
 48
0.0106237232685089
100
AcDbVertex
100
AcDb2dVertex
 10
26.2880772855181
 20
36.06793295237262
 30
0.0
  0
VERTEX
  5
2C1
330
2A8
100
AcDbEntity
  8
Hidden (ANSI)
 48
0.0106237232685089
100
AcDbVertex
100
AcDb2dVertex
 10
26.29018942538515
 20
36.06783289752846
 30
0.0
  0
VERTEX
  5
2C2
330
2A8
100
AcDbEntity
  8
Hidden (ANSI)
 48
0.0106237232685089
100
AcDbVertex
100
AcDb2dVertex
 10
26.2923015652522
 20
36.06779949311435
 30
0.0
  0
SEQEND
  5
2AB
330
2A8
100
AcDbEntity
  8
Hidden (ANSI)
 48
0.0106237232685089
  0
LINE
  5
2C3
330
6C
100
AcDbEntity
  8
Hidden (ANSI)
 48
0.0177565310150385
100
AcDbLine
 10
57.97221904079296
 20
36.06779949452234
 30
0.0
 11
57.97221904079296
 21
35.97404949452233
 31
0.0
  0
POLYLINE
  5
2C4
330
6C
100
AcDbEntity
  8
Hidden (ANSI)
 48
0.0106235789135099
100
AcDb2dPolyline
 66
     1
 10
0.0
 20
0.0
 30
0.0
 70
   128
  0
VERTEX
  5
2C5
330
2C4
100
AcDbEntity
  8
Hidden (ANSI)
 48
0.0106235789135099
100
AcDbVertex
100
AcDb2dVertex
 10
58.02291017215388
 20
36.0833994953018
 30
0.0
  0
VERTEX
  5
2C6
330
2C4
100
AcDbEntity
  8
Hidden (ANSI)
 48
0.0106235789135099
100
AcDbVertex
100
AcDb2dVertex
 10
58.02079857201394
 20
36.08237919988834
 30
0.0
  0
VERTEX
  5
2C8
330
2C4
100
AcDbEntity
  8
Hidden (ANSI)
 48
0.0106235789135099
100
AcDbVertex
100
AcDb2dVertex
 10
58.018686971874
 20
36.08136328095765
 30
0.0
  0
VERTEX
  5
2C9
330
2C4
100
AcDbEntity
  8
Hidden (ANSI)
 48
0.0106235789135099
100
AcDbVertex
100
AcDb2dVertex
 10
58.01657537173404
 20
36.08035607979292
 30
0.0
  0
VERTEX
  5
2CA
330
2C4
100
AcDbEntity
  8
Hidden (ANSI)
 48
0.0106235789135099
100
AcDbVertex
100
AcDb2dVertex
 10
58.01446076789545
 20
36.07936191421095
 30
0.0
  0
VERTEX
  5
2CB
330
2C4
100
AcDbEntity
  8
Hidden (ANSI)
 48
0.0106235789135099
100
AcDbVertex
100
AcDb2dVertex
 10
58.01234916775552
 20
36.0783850433625
 30
0.0
  0
VERTEX
  5
2CC
330
2C4
100
AcDbEntity
  8
Hidden (ANSI)
 48
0.0106235789135099
100
AcDbVertex
100
AcDb2dVertex
 10
58.01023756761556
 20
36.07742963253283
 30
0.0
  0
VERTEX
  5
2CD
330
2C4
100
AcDbEntity
  8
Hidden (ANSI)
 48
0.0106235789135099
100
AcDbVertex
100
AcDb2dVertex
 10
58.00812596747562
 20
36.07649978834113
 30
0.0
  0
VERTEX
  5
2CE
330
2C4
100
AcDbEntity
  8
Hidden (ANSI)
 48
0.0106235789135099
100
AcDbVertex
100
AcDb2dVertex
 10
58.00601436733566
 20
36.07559950007467
 30
0.0
  0
VERTEX
  5
2CF
330
2C4
100
AcDbEntity
  8
Hidden (ANSI)
 48
0.0106235789135099
100
AcDbVertex
100
AcDb2dVertex
 10
58.00389976349708
 20
36.07473260448913
 30
0.0
  0
VERTEX
  5
2D0
330
2C4
100
AcDbEntity
  8
Hidden (ANSI)
 48
0.0106235789135099
100
AcDbVertex
100
AcDb2dVertex
 10
58.00178816335713
 20
36.07390282100819
 30
0.0
  0
VERTEX
  5
2D1
330
2C4
100
AcDbEntity
  8
Hidden (ANSI)
 48
0.0106235789135099
100
AcDbVertex
100
AcDb2dVertex
 10
57.99967656321718
 20
36.0731137047908
 30
0.0
  0
VERTEX
  5
2D2
330
2C4
100
AcDbEntity
  8
Hidden (ANSI)
 48
0.0106235789135099
100
AcDbVertex
100
AcDb2dVertex
 10
57.99756496307724
 20
36.07236862913131
 30
0.0
  0
VERTEX
  5
2D3
330
2C4
100
AcDbEntity
  8
Hidden (ANSI)
 48
0.0106235789135099
100
AcDbVertex
100
AcDb2dVertex
 10
57.99545336293729
 20
36.07167079132612
 30
0.0
  0
VERTEX
  5
2D4
330
2C4
100
AcDbEntity
  8
Hidden (ANSI)
 48
0.0106235789135099
100
AcDbVertex
100
AcDb2dVertex
 10
57.99334176279733
 20
36.07102318334068
 30
0.0
  0
VERTEX
  5
2D5
330
2C4
100
AcDbEntity
  8
Hidden (ANSI)
 48
0.0106235789135099
100
AcDbVertex
100
AcDb2dVertex
 10
57.99122715895876
 20
36.07042856834306
 30
0.0
  0
VERTEX
  5
2D6
330
2C4
100
AcDbEntity
  8
Hidden (ANSI)
 48
0.0106235789135099
100
AcDbVertex
100
AcDb2dVertex
 10
57.98911555881882
 20
36.06988949830377
 30
0.0
  0
VERTEX
  5
2D7
330
2C4
100
AcDbEntity
  8
Hidden (ANSI)
 48
0.0106235789135099
100
AcDbVertex
100
AcDb2dVertex
 10
57.98700395867886
 20
36.06940827879619
 30
0.0
  0
VERTEX
  5
2D8
330
2C4
100
AcDbEntity
  8
Hidden (ANSI)
 48
0.0106235789135099
100
AcDbVertex
100
AcDb2dVertex
 10
57.98489235853891
 20
36.06898697486313
 30
0.0
  0
VERTEX
  5
2D9
330
2C4
100
AcDbEntity
  8
Hidden (ANSI)
 48
0.0106235789135099
100
AcDbVertex
100
AcDb2dVertex
 10
57.98278075839895
 20
36.06862738168385
 30
0.0
  0
VERTEX
  5
2DA
330
2C4
100
AcDbEntity
  8
Hidden (ANSI)
 48
0.0106235789135099
100
AcDbVertex
100
AcDb2dVertex
 10
57.98066615456038
 20
36.06833105390705
 30
0.0
  0
VERTEX
  5
2DB
330
2C4
100
AcDbEntity
  8
Hidden (ANSI)
 48
0.0106235789135099
100
AcDbVertex
100
AcDb2dVertex
 10
57.97855455442043
 20
36.0680992469849
 30
0.0
  0
VERTEX
  5
2DC
330
2C4
100
AcDbEntity
  8
Hidden (ANSI)
 48
0.0106235789135099
100
AcDbVertex
100
AcDb2dVertex
 10
57.97644295428048
 20
36.06793295237262
 30
0.0
  0
VERTEX
  5
2DD
330
2C4
100
AcDbEntity
  8
Hidden (ANSI)
 48
0.0106235789135099
100
AcDbVertex
100
AcDb2dVertex
 10
57.97433135414054
 20
36.06783289752846
 30
0.0
  0
VERTEX
  5
2DE
330
2C4
100
AcDbEntity
  8
Hidden (ANSI)
 48
0.0106235789135099
100
AcDbVertex
100
AcDb2dVertex
 10
57.97221975400059
 20
36.06779949311435
 30
0.0
  0
SEQEND
  5
2C7
330
2C4
100
AcDbEntity
  8
Hidden (ANSI)
 48
0.0106235789135099
  0
MTEXT
  5
2E0
330
6C
100
AcDbEntity
  8
Symbol (ANSI)
100
AcDbMText
 10
37.67358708141376
 20
30.9589722772465
 30
0.0
 40
1.200000014830761
 41
0.0
 46
0.0
 71
     7
 72
     1
  1
FRONT VIEW
  7
Text Style153
 73
     1
 44
1.0
  0
LINE
  5
2E2
330
6C
100
AcDbEntity
  8
Symbol (ANSI)
370
    30
100
AcDbLine
 10
37.55358677272989
 20
30.7142559034976
 30
0.0
 11
47.20123681558666
 21
30.7142559034976
 31
0.0
  0
POLYLINE
  5
2E3
330
6C
100
AcDbEntity
  8
Visible (ANSI)
100
AcDb2dPolyline
 66
     1
 10
0.0
 20
0.0
 30
0.0
 70
   128
  0
VERTEX
  5
2E4
330
2E3
100
AcDbEntity
  8
Visible (ANSI)
100
AcDbVertex
100
AcDb2dVertex
 10
84.07065119906903
 20
66.74469824056226
 30
0.0
  0
VERTEX
  5
2E5
330
2E3
100
AcDbEntity
  8
Visible (ANSI)
100
AcDbVertex
100
AcDb2dVertex
 10
84.07088532329776
 20
66.74258664042229
 30
0.0
  0
VERTEX
  5
2E7
330
2E3
100
AcDbEntity
  8
Visible (ANSI)
100
AcDbVertex
100
AcDb2dVertex
 10
84.07158670452867
 20
66.74047504028234
 30
0.0
  0
VERTEX
  5
2E8
330
2E3
100
AcDbEntity
  8
Visible (ANSI)
100
AcDbVertex
100
AcDb2dVertex
 10
84.07275232732997
 20
66.73836344014239
 30
0.0
  0
VERTEX
  5
2E9
330
2E3
100
AcDbEntity
  8
Visible (ANSI)
100
AcDbVertex
100
AcDb2dVertex
 10
84.07437721095917
 20
66.73625184000245
 30
0.0
  0
VERTEX
  5
2EA
330
2E3
100
AcDbEntity
  8
Visible (ANSI)
100
AcDbVertex
100
AcDb2dVertex
 10
84.0764543858968
 20
66.73414023986251
 30
0.0
  0
VERTEX
  5
2EB
330
2E3
100
AcDbEntity
  8
Visible (ANSI)
100
AcDbVertex
100
AcDb2dVertex
 10
84.07897497011214
 20
66.73202563602392
 30
0.0
  0
VERTEX
  5
2EC
330
2E3
100
AcDbEntity
  8
Visible (ANSI)
100
AcDbVertex
100
AcDb2dVertex
 10
84.0819281631966
 20
66.72991403588397
 30
0.0
  0
VERTEX
  5
2ED
330
2E3
100
AcDbEntity
  8
Visible (ANSI)
100
AcDbVertex
100
AcDb2dVertex
 10
84.08530132262958
 20
66.72780243574402
 30
0.0
  0
VERTEX
  5
2EE
330
2E3
100
AcDbEntity
  8
Visible (ANSI)
100
AcDbVertex
100
AcDb2dVertex
 10
84.08907999311137
 20
66.72569083560407
 30
0.0
  0
VERTEX
  5
2EF
330
2E3
100
AcDbEntity
  8
Visible (ANSI)
100
AcDbVertex
100
AcDb2dVertex
 10
84.09324801216207
 20
66.72357923546413
 30
0.0
  0
VERTEX
  5
2F0
330
2E3
100
AcDbEntity
  8
Visible (ANSI)
100
AcDbVertex
100
AcDb2dVertex
 10
84.09778751598802
 20
66.72146463162555
 30
0.0
  0
VERTEX
  5
2F1
330
2E3
100
AcDbEntity
  8
Visible (ANSI)
100
AcDbVertex
100
AcDb2dVertex
 10
84.10267906854704
 20
66.71935303148559
 30
0.0
  0
VERTEX
  5
2F2
330
2E3
100
AcDbEntity
  8
Visible (ANSI)
100
AcDbVertex
100
AcDb2dVertex
 10
84.10790173194772
 20
66.71724143134565
 30
0.0
  0
VERTEX
  5
2F3
330
2E3
100
AcDbEntity
  8
Visible (ANSI)
100
AcDbVertex
100
AcDb2dVertex
 10
84.11343313684847
 20
66.7151298312057
 30
0.0
  0
VERTEX
  5
2F4
330
2E3
100
AcDbEntity
  8
Visible (ANSI)
100
AcDbVertex
100
AcDb2dVertex
 10
84.11924959392292
 20
66.71301823106574
 30
0.0
  0
VERTEX
  5
2F5
330
2E3
100
AcDbEntity
  8
Visible (ANSI)
100
AcDbVertex
100
AcDb2dVertex
 10
84.1253261965255
 20
66.71090663092581
 30
0.0
  0
VERTEX
  5
2F6
330
2E3
100
AcDbEntity
  8
Visible (ANSI)
100
AcDbVertex
100
AcDb2dVertex
 10
84.13163692922337
 20
66.70879202708722
 30
0.0
  0
VERTEX
  5
2F7
330
2E3
100
AcDbEntity
  8
Visible (ANSI)
100
AcDbVertex
100
AcDb2dVertex
 10
84.13815476459545
 20
66.70668042694727
 30
0.0
  0
VERTEX
  5
2F8
330
2E3
100
AcDbEntity
  8
Visible (ANSI)
100
AcDbVertex
100
AcDb2dVertex
 10
84.14485179229748
 20
66.70456882680733
 30
0.0
  0
VERTEX
  5
2F9
330
2E3
100
AcDbEntity
  8
Visible (ANSI)
100
AcDbVertex
100
AcDb2dVertex
 10
84.15169933492741
 20
66.70245722666738
 30
0.0
  0
VERTEX
  5
2FA
330
2E3
100
AcDbEntity
  8
Visible (ANSI)
100
AcDbVertex
100
AcDb2dVertex
 10
84.15866807085732
 20
66.70034562652744
 30
0.0
  0
VERTEX
  5
2FB
330
2E3
100
AcDbEntity
  8
Visible (ANSI)
100
AcDbVertex
100
AcDb2dVertex
 10
84.16572815853191
 20
66.69823102268884
 30
0.0
  0
VERTEX
  5
2FC
330
2E3
100
AcDbEntity
  8
Visible (ANSI)
100
AcDbVertex
100
AcDb2dVertex
 10
84.17284936553379
 20
66.69611942254888
 30
0.0
  0
VERTEX
  5
2FD
330
2E3
100
AcDbEntity
  8
Visible (ANSI)
100
AcDbVertex
100
AcDb2dVertex
 10
84.18000119838188
 20
66.69400782240895
 30
0.0
  0
SEQEND
  5
2E6
330
2E3
100
AcDbEntity
  8
Visible (ANSI)
  0
POLYLINE
  5
2FE
330
6C
100
AcDbEntity
  8
Visible (ANSI)
100
AcDb2dPolyline
 66
     1
 10
0.0
 20
0.0
 30
0.0
 70
   128
  0
VERTEX
  5
2FF
330
2FE
100
AcDbEntity
  8
Visible (ANSI)
100
AcDbVertex
100
AcDb2dVertex
 10
84.18000119838188
 20
36.13409075824532
 30
0.0
  0
VERTEX
  5
300
330
2FE
100
AcDbEntity
  8
Visible (ANSI)
100
AcDbVertex
100
AcDb2dVertex
 10
84.17284936553379
 20
36.13197861837827
 30
0.0
  0
VERTEX
  5
302
330
2FE
100
AcDbEntity
  8
Visible (ANSI)
100
AcDbVertex
100
AcDb2dVertex
 10
84.16572815853191
 20
36.12986647851123
 30
0.0
  0
VERTEX
  5
303
330
2FE
100
AcDbEntity
  8
Visible (ANSI)
100
AcDbVertex
100
AcDb2dVertex
 10
84.15866807085732
 20
36.12775435037737
 30
0.0
  0
VERTEX
  5
304
330
2FE
100
AcDbEntity
  8
Visible (ANSI)
100
AcDbVertex
100
AcDb2dVertex
 10
84.15169933492741
 20
36.12564221051033
 30
0.0
  0
VERTEX
  5
305
330
2FE
100
AcDbEntity
  8
Visible (ANSI)
100
AcDbVertex
100
AcDb2dVertex
 10
84.14485179229748
 20
36.12353007064328
 30
0.0
  0
VERTEX
  5
306
330
2FE
100
AcDbEntity
  8
Visible (ANSI)
100
AcDbVertex
100
AcDb2dVertex
 10
84.13815476459545
 20
36.12141794250944
 30
0.0
  0
VERTEX
  5
307
330
2FE
100
AcDbEntity
  8
Visible (ANSI)
100
AcDbVertex
100
AcDb2dVertex
 10
84.13163692922337
 20
36.11930580264239
 30
0.0
  0
VERTEX
  5
308
330
2FE
100
AcDbEntity
  8
Visible (ANSI)
100
AcDbVertex
100
AcDb2dVertex
 10
84.1253261965255
 20
36.11719366277534
 30
0.0
  0
VERTEX
  5
309
330
2FE
100
AcDbEntity
  8
Visible (ANSI)
100
AcDbVertex
100
AcDb2dVertex
 10
84.11924959392292
 20
36.11508153464149
 30
0.0
  0
VERTEX
  5
30A
330
2FE
100
AcDbEntity
  8
Visible (ANSI)
100
AcDbVertex
100
AcDb2dVertex
 10
84.11343313684847
 20
36.11296939477445
 30
0.0
  0
VERTEX
  5
30B
330
2FE
100
AcDbEntity
  8
Visible (ANSI)
100
AcDbVertex
100
AcDb2dVertex
 10
84.10790173194772
 20
36.1108572549074
 30
0.0
  0
VERTEX
  5
30C
330
2FE
100
AcDbEntity
  8
Visible (ANSI)
100
AcDbVertex
100
AcDb2dVertex
 10
84.10267906854704
 20
36.10874512677355
 30
0.0
  0
VERTEX
  5
30D
330
2FE
100
AcDbEntity
  8
Visible (ANSI)
100
AcDbVertex
100
AcDb2dVertex
 10
84.09778751598802
 20
36.10663298690651
 30
0.0
  0
VERTEX
  5
30E
330
2FE
100
AcDbEntity
  8
Visible (ANSI)
100
AcDbVertex
100
AcDb2dVertex
 10
84.09324801216207
 20
36.10452085877265
 30
0.0
  0
VERTEX
  5
30F
330
2FE
100
AcDbEntity
  8
Visible (ANSI)
100
AcDbVertex
100
AcDb2dVertex
 10
84.08907999311137
 20
36.10240871890561
 30
0.0
  0
VERTEX
  5
310
330
2FE
100
AcDbEntity
  8
Visible (ANSI)
100
AcDbVertex
100
AcDb2dVertex
 10
84.08530132262958
 20
36.10029657903856
 30
0.0
  0
VERTEX
  5
311
330
2FE
100
AcDbEntity
  8
Visible (ANSI)
100
AcDbVertex
100
AcDb2dVertex
 10
84.0819281631966
 20
36.09818445090472
 30
0.0
  0
VERTEX
  5
312
330
2FE
100
AcDbEntity
  8
Visible (ANSI)
100
AcDbVertex
100
AcDb2dVertex
 10
84.07897497011214
 20
36.09607231103767
 30
0.0
  0
VERTEX
  5
313
330
2FE
100
AcDbEntity
  8
Visible (ANSI)
100
AcDbVertex
100
AcDb2dVertex
 10
84.0764543858968
 20
36.09396017117062
 30
0.0
  0
VERTEX
  5
314
330
2FE
100
AcDbEntity
  8
Visible (ANSI)
100
AcDbVertex
100
AcDb2dVertex
 10
84.07437721095917
 20
36.09184804303677
 30
0.0
  0
VERTEX
  5
315
330
2FE
100
AcDbEntity
  8
Visible (ANSI)
100
AcDbVertex
100
AcDb2dVertex
 10
84.07275232732997
 20
36.08973590316973
 30
0.0
  0
VERTEX
  5
316
330
2FE
100
AcDbEntity
  8
Visible (ANSI)
100
AcDbVertex
100
AcDb2dVertex
 10
84.07158670452867
 20
36.08762376330267
 30
0.0
  0
VERTEX
  5
317
330
2FE
100
AcDbEntity
  8
Visible (ANSI)
100
AcDbVertex
100
AcDb2dVertex
 10
84.07088532329776
 20
36.08551163516883
 30
0.0
  0
VERTEX
  5
318
330
2FE
100
AcDbEntity
  8
Visible (ANSI)
100
AcDbVertex
100
AcDb2dVertex
 10
84.07065119906903
 20
36.08339949530178
 30
0.0
  0
SEQEND
  5
301
330
2FE
100
AcDbEntity
  8
Visible (ANSI)
  0
LINE
  5
319
330
6C
100
AcDbEntity
  8
Visible (ANSI)
100
AcDbLine
 10
84.94565119766107
 20
36.13409075525856
 30
0.0
 11
84.18000119766109
 21
36.13409075525856
 31
0.0
  0
LINE
  5
31A
330
6C
100
AcDbEntity
  8
Visible (ANSI)
100
AcDbLine
 10
84.14773013879011
 20
36.08339949452233
 30
0.0
 11
84.07065119766105
 21
36.08339949452233
 31
0.0
  0
LINE
  5
31B
330
6C
100
AcDbEntity
  8
Visible (ANSI)
100
AcDbLine
 10
84.16440119766106
 20
36.08339949452233
 30
0.0
 11
84.14773013879011
 21
36.08339949452233
 31
0.0
  0
POLYLINE
  5
31C
330
6C
100
AcDbEntity
  8
Visible (ANSI)
100
AcDb2dPolyline
 66
     1
 10
0.0
 20
0.0
 30
0.0
 70
   128
  0
VERTEX
  5
31D
330
31C
100
AcDbEntity
  8
Visible (ANSI)
100
AcDbVertex
100
AcDb2dVertex
 10
84.16440119766106
 20
36.08339949530178
 30
0.0
  0
VERTEX
  5
31E
330
31C
100
AcDbEntity
  8
Visible (ANSI)
100
AcDbVertex
100
AcDb2dVertex
 10
84.16443459845723
 20
36.08551163516883
 30
0.0
  0
VERTEX
  5
320
330
31C
100
AcDbEntity
  8
Visible (ANSI)
100
AcDbVertex
100
AcDb2dVertex
 10
84.16453465782451
 20
36.08762376330267
 30
0.0
  0
VERTEX
  5
321
330
31C
100
AcDbEntity
  8
Visible (ANSI)
100
AcDbVertex
100
AcDb2dVertex
 10
84.16470094729207
 20
36.08973590316973
 30
0.0
  0
VERTEX
  5
322
330
31C
100
AcDbEntity
  8
Visible (ANSI)
100
AcDbVertex
100
AcDb2dVertex
 10
84.16493275478712
 20
36.09184804303677
 30
0.0
  0
VERTEX
  5
323
330
31C
100
AcDbEntity
  8
Visible (ANSI)
100
AcDbVertex
100
AcDb2dVertex
 10
84.16522908760553
 20
36.09396017117062
 30
0.0
  0
VERTEX
  5
324
330
31C
100
AcDbEntity
  8
Visible (ANSI)
100
AcDbVertex
100
AcDb2dVertex
 10
84.16558867693487
 20
36.09607231103767
 30
0.0
  0
VERTEX
  5
325
330
31C
100
AcDbEntity
  8
Visible (ANSI)
100
AcDbVertex
100
AcDb2dVertex
 10
84.16600998297623
 20
36.09818445090472
 30
0.0
  0
VERTEX
  5
326
330
31C
100
AcDbEntity
  8
Visible (ANSI)
100
AcDbVertex
100
AcDb2dVertex
 10
84.16649120138382
 20
36.10029657903856
 30
0.0
  0
VERTEX
  5
327
330
31C
100
AcDbEntity
  8
Visible (ANSI)
100
AcDbVertex
100
AcDb2dVertex
 10
84.16703027178977
 20
36.10240871890561
 30
0.0
  0
VERTEX
  5
328
330
31C
100
AcDbEntity
  8
Visible (ANSI)
100
AcDbVertex
100
AcDb2dVertex
 10
84.16762488568741
 20
36.10452085877265
 30
0.0
  0
VERTEX
  5
329
330
31C
100
AcDbEntity
  8
Visible (ANSI)
100
AcDbVertex
100
AcDb2dVertex
 10
84.16827249660615
 20
36.10663298690651
 30
0.0
  0
VERTEX
  5
32A
330
31C
100
AcDbEntity
  8
Visible (ANSI)
100
AcDbVertex
100
AcDb2dVertex
 10
84.16897033184469
 20
36.10874512677355
 30
0.0
  0
VERTEX
  5
32B
330
31C
100
AcDbEntity
  8
Visible (ANSI)
100
AcDbVertex
100
AcDb2dVertex
 10
84.16971540310424
 20
36.1108572549074
 30
0.0
  0
VERTEX
  5
32C
330
31C
100
AcDbEntity
  8
Visible (ANSI)
100
AcDbVertex
100
AcDb2dVertex
 10
84.17050451932164
 20
36.11296939477445
 30
0.0
  0
VERTEX
  5
32D
330
31C
100
AcDbEntity
  8
Visible (ANSI)
100
AcDbVertex
100
AcDb2dVertex
 10
84.17133430170258
 20
36.11508153464149
 30
0.0
  0
VERTEX
  5
32E
330
31C
100
AcDbEntity
  8
Visible (ANSI)
100
AcDbVertex
100
AcDb2dVertex
 10
84.17220119802145
 20
36.11719366277534
 30
0.0
  0
VERTEX
  5
32F
330
31C
100
AcDbEntity
  8
Visible (ANSI)
100
AcDbVertex
100
AcDb2dVertex
 10
84.17310149435449
 20
36.11930580264239
 30
0.0
  0
VERTEX
  5
330
330
31C
100
AcDbEntity
  8
Visible (ANSI)
100
AcDbVertex
100
AcDb2dVertex
 10
84.1740313363462
 20
36.12141794250944
 30
0.0
  0
VERTEX
  5
331
330
31C
100
AcDbEntity
  8
Visible (ANSI)
100
AcDbVertex
100
AcDb2dVertex
 10
84.17498674204262
 20
36.12353007064328
 30
0.0
  0
VERTEX
  5
332
330
31C
100
AcDbEntity
  8
Visible (ANSI)
100
AcDbVertex
100
AcDb2dVertex
 10
84.17596362022429
 20
36.12564221051033
 30
0.0
  0
VERTEX
  5
333
330
31C
100
AcDbEntity
  8
Visible (ANSI)
100
AcDbVertex
100
AcDb2dVertex
 10
84.17695778873957
 20
36.12775435037737
 30
0.0
  0
VERTEX
  5
334
330
31C
100
AcDbEntity
  8
Visible (ANSI)
100
AcDbVertex
100
AcDb2dVertex
 10
84.17796498843765
 20
36.12986647851123
 30
0.0
  0
VERTEX
  5
335
330
31C
100
AcDbEntity
  8
Visible (ANSI)
100
AcDbVertex
100
AcDb2dVertex
 10
84.17898090883499
 20
36.13197861837827
 30
0.0
  0
VERTEX
  5
336
330
31C
100
AcDbEntity
  8
Visible (ANSI)
100
AcDbVertex
100
AcDb2dVertex
 10
84.18000119838184
 20
36.13409075824532
 30
0.0
  0
SEQEND
  5
31F
330
31C
100
AcDbEntity
  8
Visible (ANSI)
  0
POLYLINE
  5
337
330
6C
100
AcDbEntity
  8
Visible (ANSI)
100
AcDb2dPolyline
 66
     1
 10
0.0
 20
0.0
 30
0.0
 70
   128
  0
VERTEX
  5
338
330
337
100
AcDbEntity
  8
Visible (ANSI)
100
AcDbVertex
100
AcDb2dVertex
 10
84.16440119766106
 20
66.74469824056226
 30
0.0
  0
VERTEX
  5
339
330
337
100
AcDbEntity
  8
Visible (ANSI)
100
AcDbVertex
100
AcDb2dVertex
 10
84.16443459845723
 20
66.74258664042229
 30
0.0
  0
VERTEX
  5
33B
330
337
100
AcDbEntity
  8
Visible (ANSI)
100
AcDbVertex
100
AcDb2dVertex
 10
84.16453465782451
 20
66.74047504028234
 30
0.0
  0
VERTEX
  5
33C
330
337
100
AcDbEntity
  8
Visible (ANSI)
100
AcDbVertex
100
AcDb2dVertex
 10
84.16470094729207
 20
66.73836344014239
 30
0.0
  0
VERTEX
  5
33D
330
337
100
AcDbEntity
  8
Visible (ANSI)
100
AcDbVertex
100
AcDb2dVertex
 10
84.16493275478712
 20
66.73625184000245
 30
0.0
  0
VERTEX
  5
33E
330
337
100
AcDbEntity
  8
Visible (ANSI)
100
AcDbVertex
100
AcDb2dVertex
 10
84.16522908760553
 20
66.73414023986251
 30
0.0
  0
VERTEX
  5
33F
330
337
100
AcDbEntity
  8
Visible (ANSI)
100
AcDbVertex
100
AcDb2dVertex
 10
84.16558867693487
 20
66.73202563602392
 30
0.0
  0
VERTEX
  5
340
330
337
100
AcDbEntity
  8
Visible (ANSI)
100
AcDbVertex
100
AcDb2dVertex
 10
84.16600998297623
 20
66.72991403588397
 30
0.0
  0
VERTEX
  5
341
330
337
100
AcDbEntity
  8
Visible (ANSI)
100
AcDbVertex
100
AcDb2dVertex
 10
84.16649120138382
 20
66.72780243574402
 30
0.0
  0
VERTEX
  5
342
330
337
100
AcDbEntity
  8
Visible (ANSI)
100
AcDbVertex
100
AcDb2dVertex
 10
84.16703027178977
 20
66.72569083560407
 30
0.0
  0
VERTEX
  5
343
330
337
100
AcDbEntity
  8
Visible (ANSI)
100
AcDbVertex
100
AcDb2dVertex
 10
84.16762488568741
 20
66.72357923546413
 30
0.0
  0
VERTEX
  5
344
330
337
100
AcDbEntity
  8
Visible (ANSI)
100
AcDbVertex
100
AcDb2dVertex
 10
84.16827249660615
 20
66.72146463162555
 30
0.0
  0
VERTEX
  5
345
330
337
100
AcDbEntity
  8
Visible (ANSI)
100
AcDbVertex
100
AcDb2dVertex
 10
84.16897033184469
 20
66.71935303148559
 30
0.0
  0
VERTEX
  5
346
330
337
100
AcDbEntity
  8
Visible (ANSI)
100
AcDbVertex
100
AcDb2dVertex
 10
84.16971540310424
 20
66.71724143134565
 30
0.0
  0
VERTEX
  5
347
330
337
100
AcDbEntity
  8
Visible (ANSI)
100
AcDbVertex
100
AcDb2dVertex
 10
84.17050451932164
 20
66.7151298312057
 30
0.0
  0
VERTEX
  5
348
330
337
100
AcDbEntity
  8
Visible (ANSI)
100
AcDbVertex
100
AcDb2dVertex
 10
84.17133430170258
 20
66.71301823106574
 30
0.0
  0
VERTEX
  5
349
330
337
100
AcDbEntity
  8
Visible (ANSI)
100
AcDbVertex
100
AcDb2dVertex
 10
84.17220119802145
 20
66.71090663092581
 30
0.0
  0
VERTEX
  5
34A
330
337
100
AcDbEntity
  8
Visible (ANSI)
100
AcDbVertex
100
AcDb2dVertex
 10
84.17310149435449
 20
66.70879202708722
 30
0.0
  0
VERTEX
  5
34B
330
337
100
AcDbEntity
  8
Visible (ANSI)
100
AcDbVertex
100
AcDb2dVertex
 10
84.1740313363462
 20
66.70668042694727
 30
0.0
  0
VERTEX
  5
34C
330
337
100
AcDbEntity
  8
Visible (ANSI)
100
AcDbVertex
100
AcDb2dVertex
 10
84.17498674204262
 20
66.70456882680733
 30
0.0
  0
VERTEX
  5
34D
330
337
100
AcDbEntity
  8
Visible (ANSI)
100
AcDbVertex
100
AcDb2dVertex
 10
84.17596362022429
 20
66.70245722666738
 30
0.0
  0
VERTEX
  5
34E
330
337
100
AcDbEntity
  8
Visible (ANSI)
100
AcDbVertex
100
AcDb2dVertex
 10
84.17695778873957
 20
66.70034562652744
 30
0.0
  0
VERTEX
  5
34F
330
337
100
AcDbEntity
  8
Visible (ANSI)
100
AcDbVertex
100
AcDb2dVertex
 10
84.17796498843765
 20
66.69823102268884
 30
0.0
  0
VERTEX
  5
350
330
337
100
AcDbEntity
  8
Visible (ANSI)
100
AcDbVertex
100
AcDb2dVertex
 10
84.17898090883499
 20
66.69611942254888
 30
0.0
  0
VERTEX
  5
351
330
337
100
AcDbEntity
  8
Visible (ANSI)
100
AcDbVertex
100
AcDb2dVertex
 10
84.18000119838184
 20
66.69400782240895
 30
0.0
  0
SEQEND
  5
33A
330
337
100
AcDbEntity
  8
Visible (ANSI)
  0
LINE
  5
352
330
6C
100
AcDbEntity
  8
Visible (ANSI)
100
AcDbLine
 10
84.16440119766106
 20
66.74469949452232
 30
0.0
 11
84.14773013879011
 21
66.74469949452232
 31
0.0
  0
LINE
  5
353
330
6C
100
AcDbEntity
  8
Visible (ANSI)
100
AcDbLine
 10
84.14773013879011
 20
66.74469949452232
 30
0.0
 11
84.07065119766105
 21
66.74469949452232
 31
0.0
  0
LINE
  5
354
330
6C
100
AcDbEntity
  8
Visible (ANSI)
100
AcDbLine
 10
84.18000119766109
 20
66.69400823378609
 30
0.0
 11
84.94565119766107
 21
66.69400823378609
 31
0.0
  0
POLYLINE
  5
355
330
6C
100
AcDbEntity
  8
Visible (ANSI)
100
AcDb2dPolyline
 66
     1
 10
0.0
 20
0.0
 30
0.0
 70
   128
  0
VERTEX
  5
356
330
355
100
AcDbEntity
  8
Visible (ANSI)
100
AcDbVertex
100
AcDb2dVertex
 10
84.18000119838183
 20
66.8540508930444
 30
0.0
  0
VERTEX
  5
357
330
355
100
AcDbEntity
  8
Visible (ANSI)
100
AcDbVertex
100
AcDb2dVertex
 10
84.17284936553375
 20
66.85381660455092
 30
0.0
  0
VERTEX
  5
359
330
355
100
AcDbEntity
  8
Visible (ANSI)
100
AcDbVertex
100
AcDb2dVertex
 10
84.16572815853188
 20
66.85311373907049
 30
0.0
  0
VERTEX
  5
35A
330
355
100
AcDbEntity
  8
Visible (ANSI)
100
AcDbVertex
100
AcDb2dVertex
 10
84.15866807085727
 20
66.85194830400035
 30
0.0
  0
VERTEX
  5
35B
330
355
100
AcDbEntity
  8
Visible (ANSI)
100
AcDbVertex
100
AcDb2dVertex
 10
84.15169933492737
 20
66.85032330303918
 30
0.0
  0
VERTEX
  5
35C
330
355
100
AcDbEntity
  8
Visible (ANSI)
100
AcDbVertex
100
AcDb2dVertex
 10
84.14485179229743
 20
66.84824774728284
 30
0.0
  0
VERTEX
  5
35D
330
355
100
AcDbEntity
  8
Visible (ANSI)
100
AcDbVertex
100
AcDb2dVertex
 10
84.13815476459541
 20
66.84572464042999
 30
0.0
  0
VERTEX
  5
35E
330
355
100
AcDbEntity
  8
Visible (ANSI)
100
AcDbVertex
100
AcDb2dVertex
 10
84.13163692922333
 20
66.84277200467241
 30
0.0
  0
VERTEX
  5
35F
330
355
100
AcDbEntity
  8
Visible (ANSI)
100
AcDbVertex
100
AcDb2dVertex
 10
84.12532619652544
 20
66.83939885110603
 30
0.0
  0
VERTEX
  5
360
330
355
100
AcDbEntity
  8
Visible (ANSI)
100
AcDbVertex
100
AcDb2dVertex
 10
84.11924959392289
 20
66.83562019822403
 30
0.0
  0
VERTEX
  5
361
330
355
100
AcDbEntity
  8
Visible (ANSI)
100
AcDbVertex
100
AcDb2dVertex
 10
84.11343313684843
 20
66.83145406821819
 30
0.0
  0
VERTEX
  5
362
330
355
100
AcDbEntity
  8
Visible (ANSI)
100
AcDbVertex
100
AcDb2dVertex
 10
84.10790173194769
 20
66.82691247588305
 30
0.0
  0
VERTEX
  5
363
330
355
100
AcDbEntity
  8
Visible (ANSI)
100
AcDbVertex
100
AcDb2dVertex
 10
84.102679068547
 20
66.82202245450632
 30
0.0
  0
VERTEX
  5
364
330
355
100
AcDbEntity
  8
Visible (ANSI)
100
AcDbVertex
100
AcDb2dVertex
 10
84.09778751598798
 20
66.81679902258119
 30
0.0
  0
VERTEX
  5
365
330
355
100
AcDbEntity
  8
Visible (ANSI)
100
AcDbVertex
100
AcDb2dVertex
 10
84.09324801216206
 20
66.81126620969671
 30
0.0
  0
VERTEX
  5
366
330
355
100
AcDbEntity
  8
Visible (ANSI)
100
AcDbVertex
100
AcDb2dVertex
 10
84.08907999311136
 20
66.80545104914061
 30
0.0
  0
VERTEX
  5
367
330
355
100
AcDbEntity
  8
Visible (ANSI)
100
AcDbVertex
100
AcDb2dVertex
 10
84.08530132262956
 20
66.79937456680332
 30
0.0
  0
VERTEX
  5
368
330
355
100
AcDbEntity
  8
Visible (ANSI)
100
AcDbVertex
100
AcDb2dVertex
 10
84.08192816319658
 20
66.79306379597256
 30
0.0
  0
VERTEX
  5
369
330
355
100
AcDbEntity
  8
Visible (ANSI)
100
AcDbVertex
100
AcDb2dVertex
 10
84.07897497011211
 20
66.78654576993601
 30
0.0
  0
VERTEX
  5
36A
330
355
100
AcDbEntity
  8
Visible (ANSI)
100
AcDbVertex
100
AcDb2dVertex
 10
84.0764543858968
 20
66.77984752198141
 30
0.0
  0
VERTEX
  5
36B
330
355
100
AcDbEntity
  8
Visible (ANSI)
100
AcDbVertex
100
AcDb2dVertex
 10
84.07437721095915
 20
66.77300209279373
 30
0.0
  0
VERTEX
  5
36C
330
355
100
AcDbEntity
  8
Visible (ANSI)
100
AcDbVertex
100
AcDb2dVertex
 10
84.07275232732997
 20
66.76603351196203
 30
0.0
  0
VERTEX
  5
36D
330
355
100
AcDbEntity
  8
Visible (ANSI)
100
AcDbVertex
100
AcDb2dVertex
 10
84.07158670452865
 20
66.75897181647268
 30
0.0
  0
VERTEX
  5
36E
330
355
100
AcDbEntity
  8
Visible (ANSI)
100
AcDbVertex
100
AcDb2dVertex
 10
84.07088532329774
 20
66.75185004701063
 30
0.0
  0
VERTEX
  5
36F
330
355
100
AcDbEntity
  8
Visible (ANSI)
100
AcDbVertex
100
AcDb2dVertex
 10
84.07065119906903
 20
66.74469824056226
 30
0.0
  0
SEQEND
  5
358
330
355
100
AcDbEntity
  8
Visible (ANSI)
  0
LINE
  5
370
330
6C
100
AcDbEntity
  8
Visible (ANSI)
100
AcDbLine
 10
84.18000119766105
 20
66.76029949452233
 30
0.0
 11
84.94565119766106
 21
66.76029949452247
 31
0.0
  0
LINE
  5
371
330
6C
100
AcDbEntity
  8
Visible (ANSI)
100
AcDbLine
 10
84.94565119766104
 20
66.85404949452247
 30
0.0
 11
84.18000119766103
 21
66.85404949452233
 31
0.0
  0
LINE
  5
372
330
6C
100
AcDbEntity
  8
Visible (ANSI)
100
AcDbLine
 10
84.18000119766105
 20
66.76029949452233
 30
0.0
 11
84.18000119766103
 21
66.85404949452233
 31
0.0
  0
LINE
  5
373
330
6C
100
AcDbEntity
  8
Visible (ANSI)
100
AcDbLine
 10
84.94565119766106
 20
66.76029949452247
 30
0.0
 11
84.94565119766104
 21
66.85404949452247
 31
0.0
  0
POLYLINE
  5
374
330
6C
100
AcDbEntity
  8
Visible (ANSI)
100
AcDb2dPolyline
 66
     1
 10
0.0
 20
0.0
 30
0.0
 70
   128
  0
VERTEX
  5
375
330
374
100
AcDbEntity
  8
Visible (ANSI)
100
AcDbVertex
100
AcDb2dVertex
 10
84.16440119766106
 20
66.74469824056226
 30
0.0
  0
VERTEX
  5
376
330
374
100
AcDbEntity
  8
Visible (ANSI)
100
AcDbVertex
100
AcDb2dVertex
 10
84.16443459845723
 20
66.74571949809792
 30
0.0
  0
VERTEX
  5
378
330
374
100
AcDbEntity
  8
Visible (ANSI)
100
AcDbVertex
100
AcDb2dVertex
 10
84.16453465782451
 20
66.74673474823634
 30
0.0
  0
VERTEX
  5
379
330
374
100
AcDbEntity
  8
Visible (ANSI)
100
AcDbVertex
100
AcDb2dVertex
 10
84.16470094729206
 20
66.74774399097748
 30
0.0
  0
VERTEX
  5
37A
330
374
100
AcDbEntity
  8
Visible (ANSI)
100
AcDbVertex
100
AcDb2dVertex
 10
84.16493275478712
 20
66.74873821522545
 30
0.0
  0
VERTEX
  5
37B
330
374
100
AcDbEntity
  8
Visible (ANSI)
100
AcDbVertex
100
AcDb2dVertex
 10
84.16522908760553
 20
66.7497144172816
 30
0.0
  0
VERTEX
  5
37C
330
374
100
AcDbEntity
  8
Visible (ANSI)
100
AcDbVertex
100
AcDb2dVertex
 10
84.16558867693487
 20
66.75066959344732
 30
0.0
  0
VERTEX
  5
37D
330
374
100
AcDbEntity
  8
Visible (ANSI)
100
AcDbVertex
100
AcDb2dVertex
 10
84.16600998297623
 20
66.75159773632535
 30
0.0
  0
VERTEX
  5
37E
330
374
100
AcDbEntity
  8
Visible (ANSI)
100
AcDbVertex
100
AcDb2dVertex
 10
84.16649120138382
 20
66.75249884591565
 30
0.0
  0
VERTEX
  5
37F
330
374
100
AcDbEntity
  8
Visible (ANSI)
100
AcDbVertex
100
AcDb2dVertex
 10
84.16703027178975
 20
66.75336691482097
 30
0.0
  0
VERTEX
  5
380
330
374
100
AcDbEntity
  8
Visible (ANSI)
100
AcDbVertex
100
AcDb2dVertex
 10
84.16762488568739
 20
66.75419593564406
 30
0.0
  0
VERTEX
  5
381
330
374
100
AcDbEntity
  8
Visible (ANSI)
100
AcDbVertex
100
AcDb2dVertex
 10
84.16827249660613
 20
66.7549859083849
 30
0.0
  0
VERTEX
  5
382
330
374
100
AcDbEntity
  8
Visible (ANSI)
100
AcDbVertex
100
AcDb2dVertex
 10
84.16897033184469
 20
66.75573082564621
 30
0.0
  0
VERTEX
  5
383
330
374
100
AcDbEntity
  8
Visible (ANSI)
100
AcDbVertex
100
AcDb2dVertex
 10
84.16971540310422
 20
66.75642768372938
 30
0.0
  0
VERTEX
  5
384
330
374
100
AcDbEntity
  8
Visible (ANSI)
100
AcDbVertex
100
AcDb2dVertex
 10
84.17050451932162
 20
66.7570764826344
 30
0.0
  0
VERTEX
  5
385
330
374
100
AcDbEntity
  8
Visible (ANSI)
100
AcDbVertex
100
AcDb2dVertex
 10
84.17133430170256
 20
66.757671214964
 30
0.0
  0
VERTEX
  5
386
330
374
100
AcDbEntity
  8
Visible (ANSI)
100
AcDbVertex
100
AcDb2dVertex
 10
84.17220119802143
 20
66.75820887701956
 30
0.0
  0
VERTEX
  5
387
330
374
100
AcDbEntity
  8
Visible (ANSI)
100
AcDbVertex
100
AcDb2dVertex
 10
84.17310149435447
 20
66.75868946880105
 30
0.0
  0
VERTEX
  5
388
330
374
100
AcDbEntity
  8
Visible (ANSI)
100
AcDbVertex
100
AcDb2dVertex
 10
84.1740313363462
 20
66.7591129903085
 30
0.0
  0
VERTEX
  5
389
330
374
100
AcDbEntity
  8
Visible (ANSI)
100
AcDbVertex
100
AcDb2dVertex
 10
84.1749867420426
 20
66.75947043044598
 30
0.0
  0
VERTEX
  5
38A
330
374
100
AcDbEntity
  8
Visible (ANSI)
100
AcDbVertex
100
AcDb2dVertex
 10
84.17596362022427
 20
66.75976779661077
 30
0.0
  0
VERTEX
  5
38B
330
374
100
AcDbEntity
  8
Visible (ANSI)
100
AcDbVertex
100
AcDb2dVertex
 10
84.17695778873955
 20
66.75999908140562
 30
0.0
  0
VERTEX
  5
38C
330
374
100
AcDbEntity
  8
Visible (ANSI)
100
AcDbVertex
100
AcDb2dVertex
 10
84.17796498843763
 20
66.76016728852916
 30
0.0
  0
VERTEX
  5
38D
330
374
100
AcDbEntity
  8
Visible (ANSI)
100
AcDbVertex
100
AcDb2dVertex
 10
84.17898090883497
 20
66.76026641058408
 30
0.0
  0
VERTEX
  5
38E
330
374
100
AcDbEntity
  8
Visible (ANSI)
100
AcDbVertex
100
AcDb2dVertex
 10
84.18000119838183
 20
66.76029945126906
 30
0.0
  0
SEQEND
  5
377
330
374
100
AcDbEntity
  8
Visible (ANSI)
  0
POLYLINE
  5
38F
330
6C
100
AcDbEntity
  8
Visible (ANSI)
100
AcDb2dPolyline
 66
     1
 10
0.0
 20
0.0
 30
0.0
 70
   128
  0
VERTEX
  5
390
330
38F
100
AcDbEntity
  8
Visible (ANSI)
100
AcDbVertex
100
AcDb2dVertex
 10
84.07065119906903
 20
36.08339949530178
 30
0.0
  0
VERTEX
  5
391
330
38F
100
AcDbEntity
  8
Visible (ANSI)
100
AcDbVertex
100
AcDb2dVertex
 10
84.07088532329774
 20
36.076247665387
 30
0.0
  0
VERTEX
  5
393
330
38F
100
AcDbEntity
  8
Visible (ANSI)
100
AcDbVertex
100
AcDb2dVertex
 10
84.07158670452865
 20
36.06912645325185
 30
0.0
  0
VERTEX
  5
394
330
38F
100
AcDbEntity
  8
Visible (ANSI)
100
AcDbVertex
100
AcDb2dVertex
 10
84.07275232732997
 20
36.06206636521058
 30
0.0
  0
VERTEX
  5
395
330
38F
100
AcDbEntity
  8
Visible (ANSI)
100
AcDbVertex
100
AcDb2dVertex
 10
84.07437721095915
 20
36.05509763184732
 30
0.0
  0
VERTEX
  5
396
330
38F
100
AcDbEntity
  8
Visible (ANSI)
100
AcDbVertex
100
AcDb2dVertex
 10
84.0764543858968
 20
36.04825009068404
 30
0.0
  0
VERTEX
  5
397
330
38F
100
AcDbEntity
  8
Visible (ANSI)
100
AcDbVertex
100
AcDb2dVertex
 10
84.07897497011211
 20
36.04155306298201
 30
0.0
  0
VERTEX
  5
398
330
38F
100
AcDbEntity
  8
Visible (ANSI)
100
AcDbVertex
100
AcDb2dVertex
 10
84.08192816319658
 20
36.03503522467663
 30
0.0
  0
VERTEX
  5
399
330
38F
100
AcDbEntity
  8
Visible (ANSI)
100
AcDbVertex
100
AcDb2dVertex
 10
84.08530132262956
 20
36.02872449491205
 30
0.0
  0
VERTEX
  5
39A
330
38F
100
AcDbEntity
  8
Visible (ANSI)
100
AcDbVertex
100
AcDb2dVertex
 10
84.08907999311136
 20
36.02264788937618
 30
0.0
  0
VERTEX
  5
39B
330
38F
100
AcDbEntity
  8
Visible (ANSI)
100
AcDbVertex
100
AcDb2dVertex
 10
84.09324801216206
 20
36.01683143230173
 30
0.0
  0
VERTEX
  5
39C
330
38F
100
AcDbEntity
  8
Visible (ANSI)
100
AcDbVertex
100
AcDb2dVertex
 10
84.09778751598798
 20
36.01130003033429
 30
0.0
  0
VERTEX
  5
39D
330
38F
100
AcDbEntity
  8
Visible (ANSI)
100
AcDbVertex
100
AcDb2dVertex
 10
84.102679068547
 20
36.00607736693361
 30
0.0
  0
VERTEX
  5
39E
330
38F
100
AcDbEntity
  8
Visible (ANSI)
100
AcDbVertex
100
AcDb2dVertex
 10
84.10790173194769
 20
36.00118581144128
 30
0.0
  0
VERTEX
  5
39F
330
38F
100
AcDbEntity
  8
Visible (ANSI)
100
AcDbVertex
100
AcDb2dVertex
 10
84.11343313684843
 20
35.99664630614869
 30
0.0
  0
VERTEX
  5
3A0
330
38F
100
AcDbEntity
  8
Visible (ANSI)
100
AcDbVertex
100
AcDb2dVertex
 10
84.11924959392289
 20
35.99247829296461
 30
0.0
  0
VERTEX
  5
3A1
330
38F
100
AcDbEntity
  8
Visible (ANSI)
100
AcDbVertex
100
AcDb2dVertex
 10
84.12532619652544
 20
35.9886996166162
 30
0.0
  0
VERTEX
  5
3A2
330
38F
100
AcDbEntity
  8
Visible (ANSI)
100
AcDbVertex
100
AcDb2dVertex
 10
84.13163692922333
 20
35.98532646011652
 30
0.0
  0
VERTEX
  5
3A3
330
38F
100
AcDbEntity
  8
Visible (ANSI)
100
AcDbVertex
100
AcDb2dVertex
 10
84.13815476459541
 20
35.98237326776538
 30
0.0
  0
VERTEX
  5
3A4
330
38F
100
AcDbEntity
  8
Visible (ANSI)
100
AcDbVertex
100
AcDb2dVertex
 10
84.14485179229743
 20
35.9798526850167
 30
0.0
  0
VERTEX
  5
3A5
330
38F
100
AcDbEntity
  8
Visible (ANSI)
100
AcDbVertex
100
AcDb2dVertex
 10
84.15169933492737
 20
35.97777550531246
 30
0.0
  0
VERTEX
  5
3A6
330
38F
100
AcDbEntity
  8
Visible (ANSI)
100
AcDbVertex
100
AcDb2dVertex
 10
84.15866807085727
 20
35.97615062406656
 30
0.0
  0
VERTEX
  5
3A7
330
38F
100
AcDbEntity
  8
Visible (ANSI)
100
AcDbVertex
100
AcDb2dVertex
 10
84.16572815853188
 20
35.97498499897362
 30
0.0
  0
VERTEX
  5
3A8
330
38F
100
AcDbEntity
  8
Visible (ANSI)
100
AcDbVertex
100
AcDb2dVertex
 10
84.17284936553375
 20
35.97428362127183
 30
0.0
  0
VERTEX
  5
3A9
330
38F
100
AcDbEntity
  8
Visible (ANSI)
100
AcDbVertex
100
AcDb2dVertex
 10
84.18000119838183
 20
35.97404949452232
 30
0.0
  0
SEQEND
  5
392
330
38F
100
AcDbEntity
  8
Visible (ANSI)
  0
LINE
  5
3AA
330
6C
100
AcDbEntity
  8
Visible (ANSI)
100
AcDbLine
 10
84.18000119766103
 20
36.06779949452232
 30
0.0
 11
84.94565119766104
 21
36.06779949452232
 31
0.0
  0
LINE
  5
3AB
330
6C
100
AcDbEntity
  8
Visible (ANSI)
100
AcDbLine
 10
84.18000119766103
 20
36.06779949452232
 30
0.0
 11
84.18000119766103
 21
35.97404949452232
 31
0.0
  0
POLYLINE
  5
3AC
330
6C
100
AcDbEntity
  8
Visible (ANSI)
100
AcDb2dPolyline
 66
     1
 10
0.0
 20
0.0
 30
0.0
 70
   128
  0
VERTEX
  5
3AD
330
3AC
100
AcDbEntity
  8
Visible (ANSI)
100
AcDbVertex
100
AcDb2dVertex
 10
84.16440119766106
 20
36.08339949530178
 30
0.0
  0
VERTEX
  5
3AE
330
3AC
100
AcDbEntity
  8
Visible (ANSI)
100
AcDbVertex
100
AcDb2dVertex
 10
84.16443459845723
 20
36.08237919988833
 30
0.0
  0
VERTEX
  5
3B0
330
3AC
100
AcDbEntity
  8
Visible (ANSI)
100
AcDbVertex
100
AcDb2dVertex
 10
84.16453465782451
 20
36.08136328095763
 30
0.0
  0
VERTEX
  5
3B1
330
3AC
100
AcDbEntity
  8
Visible (ANSI)
100
AcDbVertex
100
AcDb2dVertex
 10
84.16470094729206
 20
36.08035607979291
 30
0.0
  0
VERTEX
  5
3B2
330
3AC
100
AcDbEntity
  8
Visible (ANSI)
100
AcDbVertex
100
AcDb2dVertex
 10
84.16493275478712
 20
36.07936191421093
 30
0.0
  0
VERTEX
  5
3B3
330
3AC
100
AcDbEntity
  8
Visible (ANSI)
100
AcDbVertex
100
AcDb2dVertex
 10
84.16522908760553
 20
36.07838504336249
 30
0.0
  0
VERTEX
  5
3B4
330
3AC
100
AcDbEntity
  8
Visible (ANSI)
100
AcDbVertex
100
AcDb2dVertex
 10
84.16558867693487
 20
36.07742963253282
 30
0.0
  0
VERTEX
  5
3B5
330
3AC
100
AcDbEntity
  8
Visible (ANSI)
100
AcDbVertex
100
AcDb2dVertex
 10
84.16600998297623
 20
36.07649978834112
 30
0.0
  0
VERTEX
  5
3B6
330
3AC
100
AcDbEntity
  8
Visible (ANSI)
100
AcDbVertex
100
AcDb2dVertex
 10
84.16649120138382
 20
36.07559950007466
 30
0.0
  0
VERTEX
  5
3B7
330
3AC
100
AcDbEntity
  8
Visible (ANSI)
100
AcDbVertex
100
AcDb2dVertex
 10
84.16703027178975
 20
36.07473260448911
 30
0.0
  0
VERTEX
  5
3B8
330
3AC
100
AcDbEntity
  8
Visible (ANSI)
100
AcDbVertex
100
AcDb2dVertex
 10
84.16762488568739
 20
36.07390282100818
 30
0.0
  0
VERTEX
  5
3B9
330
3AC
100
AcDbEntity
  8
Visible (ANSI)
100
AcDbVertex
100
AcDb2dVertex
 10
84.16827249660613
 20
36.07311370479078
 30
0.0
  0
VERTEX
  5
3BA
330
3AC
100
AcDbEntity
  8
Visible (ANSI)
100
AcDbVertex
100
AcDb2dVertex
 10
84.16897033184469
 20
36.07236862913129
 30
0.0
  0
VERTEX
  5
3BB
330
3AC
100
AcDbEntity
  8
Visible (ANSI)
100
AcDbVertex
100
AcDb2dVertex
 10
84.16971540310422
 20
36.07167079132611
 30
0.0
  0
VERTEX
  5
3BC
330
3AC
100
AcDbEntity
  8
Visible (ANSI)
100
AcDbVertex
100
AcDb2dVertex
 10
84.17050451932162
 20
36.07102318334066
 30
0.0
  0
VERTEX
  5
3BD
330
3AC
100
AcDbEntity
  8
Visible (ANSI)
100
AcDbVertex
100
AcDb2dVertex
 10
84.17133430170256
 20
36.07042856834304
 30
0.0
  0
VERTEX
  5
3BE
330
3AC
100
AcDbEntity
  8
Visible (ANSI)
100
AcDbVertex
100
AcDb2dVertex
 10
84.17220119802143
 20
36.06988949830375
 30
0.0
  0
VERTEX
  5
3BF
330
3AC
100
AcDbEntity
  8
Visible (ANSI)
100
AcDbVertex
100
AcDb2dVertex
 10
84.17310149435447
 20
36.06940827879618
 30
0.0
  0
VERTEX
  5
3C0
330
3AC
100
AcDbEntity
  8
Visible (ANSI)
100
AcDbVertex
100
AcDb2dVertex
 10
84.1740313363462
 20
36.06898697486311
 30
0.0
  0
VERTEX
  5
3C1
330
3AC
100
AcDbEntity
  8
Visible (ANSI)
100
AcDbVertex
100
AcDb2dVertex
 10
84.1749867420426
 20
36.06862738168383
 30
0.0
  0
VERTEX
  5
3C2
330
3AC
100
AcDbEntity
  8
Visible (ANSI)
100
AcDbVertex
100
AcDb2dVertex
 10
84.17596362022427
 20
36.06833105390704
 30
0.0
  0
VERTEX
  5
3C3
330
3AC
100
AcDbEntity
  8
Visible (ANSI)
100
AcDbVertex
100
AcDb2dVertex
 10
84.17695778873955
 20
36.06809924698489
 30
0.0
  0
VERTEX
  5
3C4
330
3AC
100
AcDbEntity
  8
Visible (ANSI)
100
AcDbVertex
100
AcDb2dVertex
 10
84.17796498843763
 20
36.06793295237261
 30
0.0
  0
VERTEX
  5
3C5
330
3AC
100
AcDbEntity
  8
Visible (ANSI)
100
AcDbVertex
100
AcDb2dVertex
 10
84.17898090883497
 20
36.06783289752845
 30
0.0
  0
VERTEX
  5
3C6
330
3AC
100
AcDbEntity
  8
Visible (ANSI)
100
AcDbVertex
100
AcDb2dVertex
 10
84.18000119838183
 20
36.06779949311434
 30
0.0
  0
SEQEND
  5
3AF
330
3AC
100
AcDbEntity
  8
Visible (ANSI)
  0
LINE
  5
3C7
330
6C
100
AcDbEntity
  8
Visible (ANSI)
100
AcDbLine
 10
84.18000119766103
 20
35.97404949452232
 30
0.0
 11
84.94565119766104
 21
35.97404949452232
 31
0.0
  0
LINE
  5
3C8
330
6C
100
AcDbEntity
  8
Visible (ANSI)
100
AcDbLine
 10
84.94565119766104
 20
36.06779949452232
 30
0.0
 11
84.94565119766104
 21
35.97404949452232
 31
0.0
  0
LINE
  5
3C9
330
6C
100
AcDbEntity
  8
Visible (ANSI)
100
AcDbLine
 10
84.07065119766105
 20
36.08339949452233
 30
0.0
 11
84.07065119766105
 21
66.74469949452232
 31
0.0
  0
LINE
  5
3CA
330
6C
100
AcDbEntity
  8
Hidden (ANSI)
 48
1.05955147743225
100
AcDbLine
 10
84.16440119766106
 20
66.74469949452232
 30
0.0
 11
84.16440119766106
 21
36.08339949452233
 31
0.0
  0
LINE
  5
3CB
330
6C
100
AcDbEntity
  8
Visible (ANSI)
100
AcDbLine
 10
84.94565119766107
 20
66.69400823378609
 30
0.0
 11
84.94565119766107
 21
36.13409075525856
 31
0.0
  0
LINE
  5
3CC
330
6C
100
AcDbEntity
  8
Hidden (ANSI)
 48
0.0177565310150385
100
AcDbLine
 10
84.16440119766082
 20
65.69754949452231
 30
0.0
 11
84.07065119766082
 21
65.69754949452231
 31
0.0
  0
LINE
  5
3CD
330
6C
100
AcDbEntity
  8
Hidden (ANSI)
 48
0.0177565310150385
100
AcDbLine
 10
84.16440119766082
 20
66.26054949452232
 30
0.0
 11
84.07065119766082
 21
66.26054949452232
 31
0.0
  0
LINE
  5
3CE
330
6C
100
AcDbEntity
  8
Hidden (ANSI)
 48
0.0177565310150385
100
AcDbLine
 10
84.16440119766082
 20
36.56754949452232
 30
0.0
 11
84.07065119766082
 21
36.56754949452232
 31
0.0
  0
LINE
  5
3CF
330
6C
100
AcDbEntity
  8
Hidden (ANSI)
 48
0.0177565310150385
100
AcDbLine
 10
84.16440119766082
 20
37.13054949452232
 30
0.0
 11
84.07065119766082
 21
37.13054949452232
 31
0.0
  0
MTEXT
  5
3D0
330
6C
100
AcDbEntity
  8
Symbol (ANSI)
100
AcDbMText
 10
80.76013180052298
 20
30.96675185487614
 30
0.0
 40
1.200000014830761
 41
0.0
 46
0.0
 71
     7
 72
     1
  1
SIDE VIEW
  7
Text Style153
 73
     1
 44
1.0
  0
LINE
  5
3D1
330
6C
100
AcDbEntity
  8
Symbol (ANSI)
370
    30
100
AcDbLine
 10
80.69869164247682
 20
30.71814569322907
 30
0.0
 11
88.80792984653178
 21
30.71814569322907
 31
0.0
  0
ELLIPSE
  5
3D2
330
6C
100
AcDbEntity
  8
Visible (ANSI)
100
AcDbEllipse
 10
139.7339920903877
 20
56.98466626718714
 30
0.0
 11
-0.1404775675610101
 21
0.2439432372748666
 31
0.0
210
0.0
220
0.0
230
1.0
 40
0.5780931159158093
 41
0.0
 42
6.283185307179586
  0
ELLIPSE
  5
3D3
330
6C
100
AcDbEntity
  8
Visible (ANSI)
100
AcDbEllipse
 10
139.8002833511239
 20
57.02284086535518
 30
0.0
 11
-0.140477567561011
 21
0.2439432372748679
 31
0.0
210
0.0
220
0.0
230
1.0
 40
0.578093115915809
 41
0.2372585647783669
 42
2.904334088811316
  0
ELLIPSE
  5
3D4
330
6C
100
AcDbEntity
  8
Visible (ANSI)
100
AcDbEllipse
 10
118.3440119594915
 20
69.30233660940356
 30
0.0
 11
-0.1404775675610101
 21
0.2439432372748666
 31
0.0
210
0.0
220
0.0
230
1.0
 40
0.5780931159158093
 41
0.0
 42
6.283185307179586
  0
ELLIPSE
  5
3D5
330
6C
100
AcDbEntity
  8
Visible (ANSI)
100
AcDbEllipse
 10
118.4103032202277
 20
69.3405112075716
 30
0.0
 11
-0.1404775675610098
 21
0.243943237274866
 31
0.0
210
0.0
220
0.0
230
1.0
 40
0.5780931159158093
 41
0.2372585647784593
 42
2.904334088811316
  0
ELLIPSE
  5
3D6
330
6C
100
AcDbEntity
  8
Visible (ANSI)
100
AcDbEllipse
 10
118.3440119594914
 20
45.48718886274046
 30
0.0
 11
-0.1404775675610101
 21
0.2439432372748666
 31
0.0
210
0.0
220
0.0
230
1.0
 40
0.5780931159158093
 41
0.0
 42
6.283185307179586
  0
ELLIPSE
  5
3D7
330
6C
100
AcDbEntity
  8
Visible (ANSI)
100
AcDbEllipse
 10
118.4103032202276
 20
45.52536346090849
 30
0.0
 11
-0.1404775675610102
 21
0.2439432372748664
 31
0.0
210
0.0
220
0.0
230
0.9999999999999998
 40
0.578093115915809
 41
0.2372585647784328
 42
2.904334088811331
  0
ELLIPSE
  5
3D8
330
6C
100
AcDbEntity
  8
Visible (ANSI)
100
AcDbEllipse
 10
139.7339920903876
 20
33.16951852052405
 30
0.0
 11
-0.1404775675610101
 21
0.2439432372748666
 31
0.0
210
0.0
220
0.0
230
1.0
 40
0.5780931159158093
 41
0.0
 42
6.283185307179586
  0
ELLIPSE
  5
3D9
330
6C
100
AcDbEntity
  8
Visible (ANSI)
100
AcDbEllipse
 10
139.8002833511239
 20
33.20769311869208
 30
0.0
 11
-0.1404775675610107
 21
0.2439432372748676
 31
0.0
210
0.0
220
0.0
230
1.0
 40
0.578093115915809
 41
0.2372585647783669
 42
2.904334088811331
  0
LINE
  5
3DA
330
6C
100
AcDbEntity
  8
Visible Narrow (ANSI)
100
AcDbLine
 10
140.4300326504487
 20
57.25740933058824
 30
0.0
 11
140.4300326504487
 21
32.27323666059286
 31
0.0
  0
LINE
  5
3DB
330
6C
100
AcDbEntity
  8
Visible Narrow (ANSI)
100
AcDbLine
 10
140.2753883974032
 20
32.23179416612329
 30
0.0
 11
140.2753883974033
 21
57.29885182505778
 31
0.0
  0
LINE
  5
3DC
330
6C
100
AcDbEntity
  8
Visible Narrow (ANSI)
100
AcDbLine
 10
117.9157819132121
 20
70.3533453291105
 30
0.0
 11
140.3168663897125
 21
57.45341871856104
 31
0.0
  0
LINE
  5
3DD
330
6C
100
AcDbEntity
  8
Visible Narrow (ANSI)
100
AcDbLine
 10
140.2753883974033
 20
57.29885182505778
 30
0.0
 11
117.8026156524759
 21
70.24006096380431
 31
0.0
  0
LINE
  5
3DE
330
6C
100
AcDbEntity
  8
Visible Narrow (ANSI)
100
AcDbLine
 10
117.8026156524759
 20
70.24006096380431
 30
0.0
 11
117.8026156524758
 21
45.17300330486982
 31
0.0
  0
LINE
  5
3DF
330
6C
100
AcDbEntity
  8
Visible Narrow (ANSI)
100
AcDbLine
 10
117.8026156524758
 20
45.17300330486982
 30
0.0
 11
140.2753883974032
 21
32.23179416612329
 31
0.0
  0
LINE
  5
3E0
330
6C
100
AcDbEntity
  8
Visible (ANSI)
100
AcDbLine
 10
117.7705877789986
 20
70.26386656787273
 30
0.0
 11
117.7705877789986
 21
45.23825140340779
 31
0.0
  0
LINE
  5
3E1
330
6C
100
AcDbEntity
  8
Visible (ANSI)
100
AcDbLine
 10
117.8433347992246
 20
45.1124232152211
 30
0.0
 11
140.2801751590264
 21
32.19190616089343
 31
0.0
  0
POLYLINE
  5
3E2
330
6C
100
AcDbEntity
  8
Visible (ANSI)
100
AcDb2dPolyline
 66
     1
 10
0.0
 20
0.0
 30
0.0
 70
   128
  0
VERTEX
  5
3E3
330
3E2
100
AcDbEntity
  8
Visible (ANSI)
100
AcDbVertex
100
AcDb2dVertex
 10
140.2753883069167
 20
57.29885085314072
 30
0.0
  0
VERTEX
  5
3E4
330
3E2
100
AcDbEntity
  8
Visible (ANSI)
100
AcDbVertex
100
AcDb2dVertex
 10
140.2806109485839
 20
57.29430766996826
 30
0.0
  0
VERTEX
  5
3E6
330
3E2
100
AcDbEntity
  8
Visible (ANSI)
100
AcDbVertex
100
AcDb2dVertex
 10
140.2861427514891
 20
57.28996698277644
 30
0.0
  0
VERTEX
  5
3E7
330
3E2
100
AcDbEntity
  8
Visible (ANSI)
100
AcDbVertex
100
AcDb2dVertex
 10
140.2919582201077
 20
57.28584101771962
 30
0.0
  0
VERTEX
  5
3E8
330
3E2
100
AcDbEntity
  8
Visible (ANSI)
100
AcDbVertex
100
AcDb2dVertex
 10
140.2980347171019
 20
57.28193875449973
 30
0.0
  0
VERTEX
  5
3E9
330
3E2
100
AcDbEntity
  8
Visible (ANSI)
100
AcDbVertex
100
AcDb2dVertex
 10
140.3043460749204
 20
57.2782695860904
 30
0.0
  0
VERTEX
  5
3EA
330
3E2
100
AcDbEntity
  8
Visible (ANSI)
100
AcDbVertex
100
AcDb2dVertex
 10
140.3108647736624
 20
57.27483967103369
 30
0.0
  0
VERTEX
  5
3EB
330
3E2
100
AcDbEntity
  8
Visible (ANSI)
100
AcDbVertex
100
AcDb2dVertex
 10
140.3175619369289
 20
57.27166175371198
 30
0.0
  0
VERTEX
  5
3EC
330
3E2
100
AcDbEntity
  8
Visible (ANSI)
100
AcDbVertex
100
AcDb2dVertex
 10
140.324409509687
 20
57.26873923831878
 30
0.0
  0
VERTEX
  5
3ED
330
3E2
100
AcDbEntity
  8
Visible (ANSI)
100
AcDbVertex
100
AcDb2dVertex
 10
140.331378155075
 20
57.26607724655689
 30
0.0
  0
VERTEX
  5
3EE
330
3E2
100
AcDbEntity
  8
Visible (ANSI)
100
AcDbVertex
100
AcDb2dVertex
 10
140.3384373290728
 20
57.26368020497265
 30
0.0
  0
VERTEX
  5
3EF
330
3E2
100
AcDbEntity
  8
Visible (ANSI)
100
AcDbVertex
100
AcDb2dVertex
 10
140.345559532521
 20
57.26154694549313
 30
0.0
  0
VERTEX
  5
3F0
330
3E2
100
AcDbEntity
  8
Visible (ANSI)
100
AcDbVertex
100
AcDb2dVertex
 10
140.3527097827056
 20
57.25968669610773
 30
0.0
  0
VERTEX
  5
3F1
330
3E2
100
AcDbEntity
  8
Visible (ANSI)
100
AcDbVertex
100
AcDb2dVertex
 10
140.3598626546235
 20
57.25809459079768
 30
0.0
  0
VERTEX
  5
3F2
330
3E2
100
AcDbEntity
  8
Visible (ANSI)
100
AcDbVertex
100
AcDb2dVertex
 10
140.3669832153401
 20
57.25677252870183
 30
0.0
  0
VERTEX
  5
3F3
330
3E2
100
AcDbEntity
  8
Visible (ANSI)
100
AcDbVertex
100
AcDb2dVertex
 10
140.374044094294
 20
57.25571697909408
 30
0.0
  0
VERTEX
  5
3F4
330
3E2
100
AcDbEntity
  8
Visible (ANSI)
100
AcDbVertex
100
AcDb2dVertex
 10
140.3810128122775
 20
57.25492636174758
 30
0.0
  0
VERTEX
  5
3F5
330
3E2
100
AcDbEntity
  8
Visible (ANSI)
100
AcDbVertex
100
AcDb2dVertex
 10
140.3878603539232
 20
57.25439374309043
 30
0.0
  0
VERTEX
  5
3F6
330
3E2
100
AcDbEntity
  8
Visible (ANSI)
100
AcDbVertex
100
AcDb2dVertex
 10
140.39455698828
 20
57.25411914446905
 30
0.0
  0
VERTEX
  5
3F7
330
3E2
100
AcDbEntity
  8
Visible (ANSI)
100
AcDbVertex
100
AcDb2dVertex
 10
140.4010744840115
 20
57.25409363761851
 30
0.0
  0
VERTEX
  5
3F8
330
3E2
100
AcDbEntity
  8
Visible (ANSI)
100
AcDbVertex
100
AcDb2dVertex
 10
140.4073861913254
 20
57.25430921450327
 30
0.0
  0
VERTEX
  5
3F9
330
3E2
100
AcDbEntity
  8
Visible (ANSI)
100
AcDbVertex
100
AcDb2dVertex
 10
140.4134628809568
 20
57.25475882785495
 30
0.0
  0
VERTEX
  5
3FA
330
3E2
100
AcDbEntity
  8
Visible (ANSI)
100
AcDbVertex
100
AcDb2dVertex
 10
140.4192792038684
 20
57.25543031684137
 30
0.0
  0
VERTEX
  5
3FB
330
3E2
100
AcDbEntity
  8
Visible (ANSI)
100
AcDbVertex
100
AcDb2dVertex
 10
140.4248095346414
 20
57.25631872846854
 30
0.0
  0
VERTEX
  5
3FC
330
3E2
100
AcDbEntity
  8
Visible (ANSI)
100
AcDbVertex
100
AcDb2dVertex
 10
140.4300323111287
 20
57.25740919025646
 30
0.0
  0
SEQEND
  5
3E5
330
3E2
100
AcDbEntity
  8
Visible (ANSI)
  0
POLYLINE
  5
3FD
330
6C
100
AcDbEntity
  8
Visible (ANSI)
100
AcDb2dPolyline
 66
     1
 10
0.0
 20
0.0
 30
0.0
 70
   128
  0
VERTEX
  5
3FE
330
3FD
100
AcDbEntity
  8
Visible (ANSI)
100
AcDbVertex
100
AcDb2dVertex
 10
140.4300323111287
 20
32.2732368590231
 30
0.0
  0
VERTEX
  5
3FF
330
3FD
100
AcDbEntity
  8
Visible (ANSI)
100
AcDbVertex
100
AcDb2dVertex
 10
140.4248095346414
 20
32.26869329073636
 30
0.0
  0
VERTEX
  5
401
330
3FD
100
AcDbEntity
  8
Visible (ANSI)
100
AcDbVertex
100
AcDb2dVertex
 10
140.4192792038683
 20
32.2643517726104
 30
0.0
  0
VERTEX
  5
402
330
3FD
100
AcDbEntity
  8
Visible (ANSI)
100
AcDbVertex
100
AcDb2dVertex
 10
140.4134628809567
 20
32.26022473105244
 30
0.0
  0
VERTEX
  5
403
330
3FD
100
AcDbEntity
  8
Visible (ANSI)
100
AcDbVertex
100
AcDb2dVertex
 10
140.4073861913253
 20
32.25632201120197
 30
0.0
  0
VERTEX
  5
404
330
3FD
100
AcDbEntity
  8
Visible (ANSI)
100
AcDbVertex
100
AcDb2dVertex
 10
140.4010744840115
 20
32.2526533278184
 30
0.0
  0
VERTEX
  5
405
330
3FD
100
AcDbEntity
  8
Visible (ANSI)
100
AcDbVertex
100
AcDb2dVertex
 10
140.39455698828
 20
32.24922573776257
 30
0.0
  0
VERTEX
  5
406
330
3FD
100
AcDbEntity
  8
Visible (ANSI)
100
AcDbVertex
100
AcDb2dVertex
 10
140.3878603539231
 20
32.24604722988516
 30
0.0
  0
VERTEX
  5
407
330
3FD
100
AcDbEntity
  8
Visible (ANSI)
100
AcDbVertex
100
AcDb2dVertex
 10
140.3810128122775
 20
32.24312428637832
 30
0.0
  0
VERTEX
  5
408
330
3FD
100
AcDbEntity
  8
Visible (ANSI)
100
AcDbVertex
100
AcDb2dVertex
 10
140.374044094294
 20
32.24046180681847
 30
0.0
  0
VERTEX
  5
409
330
3FD
100
AcDbEntity
  8
Visible (ANSI)
100
AcDbVertex
100
AcDb2dVertex
 10
140.36698321534
 20
32.23806424992741
 30
0.0
  0
VERTEX
  5
40A
330
3FD
100
AcDbEntity
  8
Visible (ANSI)
100
AcDbVertex
100
AcDb2dVertex
 10
140.3598626546234
 20
32.23593320552447
 30
0.0
  0
VERTEX
  5
40B
330
3FD
100
AcDbEntity
  8
Visible (ANSI)
100
AcDbVertex
100
AcDb2dVertex
 10
140.3527097827056
 20
32.23407221392816
 30
0.0
  0
VERTEX
  5
40C
330
3FD
100
AcDbEntity
  8
Visible (ANSI)
100
AcDbVertex
100
AcDb2dVertex
 10
140.3455595325209
 20
32.23247935681476
 30
0.0
  0
VERTEX
  5
40D
330
3FD
100
AcDbEntity
  8
Visible (ANSI)
100
AcDbVertex
100
AcDb2dVertex
 10
140.3384373290727
 20
32.23115706372274
 30
0.0
  0
VERTEX
  5
40E
330
3FD
100
AcDbEntity
  8
Visible (ANSI)
100
AcDbVertex
100
AcDb2dVertex
 10
140.331378155075
 20
32.23010099880819
 30
0.0
  0
VERTEX
  5
40F
330
3FD
100
AcDbEntity
  8
Visible (ANSI)
100
AcDbVertex
100
AcDb2dVertex
 10
140.3244095096869
 20
32.22930988407127
 30
0.0
  0
VERTEX
  5
410
330
3FD
100
AcDbEntity
  8
Visible (ANSI)
100
AcDbVertex
100
AcDb2dVertex
 10
140.3175619369289
 20
32.22877930255811
 30
0.0
  0
VERTEX
  5
411
330
3FD
100
AcDbEntity
  8
Visible (ANSI)
100
AcDbVertex
100
AcDb2dVertex
 10
140.3108647736623
 20
32.22850411338101
 30
0.0
  0
VERTEX
  5
412
330
3FD
100
AcDbEntity
  8
Visible (ANSI)
100
AcDbVertex
100
AcDb2dVertex
 10
140.3043460749204
 20
32.22847846627374
 30
0.0
  0
VERTEX
  5
413
330
3FD
100
AcDbEntity
  8
Visible (ANSI)
100
AcDbVertex
100
AcDb2dVertex
 10
140.2980347171018
 20
32.22869453777671
 30
0.0
  0
VERTEX
  5
414
330
3FD
100
AcDbEntity
  8
Visible (ANSI)
100
AcDbVertex
100
AcDb2dVertex
 10
140.2919582201076
 20
32.22914369449779
 30
0.0
  0
VERTEX
  5
415
330
3FD
100
AcDbEntity
  8
Visible (ANSI)
100
AcDbVertex
100
AcDb2dVertex
 10
140.286142751489
 20
32.22981655305581
 30
0.0
  0
VERTEX
  5
416
330
3FD
100
AcDbEntity
  8
Visible (ANSI)
100
AcDbVertex
100
AcDb2dVertex
 10
140.2806109485838
 20
32.23070414334128
 30
0.0
  0
VERTEX
  5
417
330
3FD
100
AcDbEntity
  8
Visible (ANSI)
100
AcDbVertex
100
AcDb2dVertex
 10
140.2753883069166
 20
32.23179422001494
 30
0.0
  0
SEQEND
  5
400
330
3FD
100
AcDbEntity
  8
Visible (ANSI)
  0
LINE
  5
418
330
6C
100
AcDbEntity
  8
Visible (ANSI)
100
AcDbLine
 10
140.3651947678822
 20
57.29642087358124
 30
0.0
 11
140.9051376967279
 21
57.60735332702139
 31
0.0
  0
LINE
  5
419
330
6C
100
AcDbEntity
  8
Visible (ANSI)
100
AcDbLine
 10
140.9714289574641
 20
32.58500605885799
 30
0.0
 11
140.4300326504487
 21
32.27323666059286
 31
0.0
  0
LINE
  5
41A
330
6C
100
AcDbEntity
  8
Visible (ANSI)
100
AcDbLine
 10
140.3756180304943
 20
57.28874462619367
 30
0.0
 11
140.4300326504487
 21
57.25740933058824
 31
0.0
  0
POLYLINE
  5
41B
330
6C
100
AcDbEntity
  8
Visible (ANSI)
100
AcDb2dPolyline
 66
     1
 10
0.0
 20
0.0
 30
0.0
 70
   128
  0
VERTEX
  5
41C
330
41B
100
AcDbEntity
  8
Visible (ANSI)
100
AcDbVertex
100
AcDb2dVertex
 10
140.3416795666573
 20
57.33702545073543
 30
0.0
  0
VERTEX
  5
41D
330
41B
100
AcDbEntity
  8
Visible (ANSI)
100
AcDbVertex
100
AcDb2dVertex
 10
140.3422122171264
 20
57.33548784582051
 30
0.0
  0
VERTEX
  5
41F
330
41B
100
AcDbEntity
  8
Visible (ANSI)
100
AcDbVertex
100
AcDb2dVertex
 10
140.3427694126849
 20
57.33396437548247
 30
0.0
  0
VERTEX
  5
420
330
41B
100
AcDbEntity
  8
Visible (ANSI)
100
AcDbVertex
100
AcDb2dVertex
 10
140.3433468234197
 20
57.33245743866316
 30
0.0
  0
VERTEX
  5
421
330
41B
100
AcDbEntity
  8
Visible (ANSI)
100
AcDbVertex
100
AcDb2dVertex
 10
140.3439464367259
 20
57.3309657336407
 30
0.0
  0
VERTEX
  5
422
330
41B
100
AcDbEntity
  8
Visible (ANSI)
100
AcDbVertex
100
AcDb2dVertex
 10
140.3445638140027
 20
57.32949159676789
 30
0.0
  0
VERTEX
  5
423
330
41B
100
AcDbEntity
  8
Visible (ANSI)
100
AcDbVertex
100
AcDb2dVertex
 10
140.3452008346705
 20
57.32803366414447
 30
0.0
  0
VERTEX
  5
424
330
41B
100
AcDbEntity
  8
Visible (ANSI)
100
AcDbVertex
100
AcDb2dVertex
 10
140.3458550771198
 20
57.32659298744469
 30
0.0
  0
VERTEX
  5
425
330
41B
100
AcDbEntity
  8
Visible (ANSI)
100
AcDbVertex
100
AcDb2dVertex
 10
140.3465240670771
 20
57.32516813235042
 30
0.0
  0
VERTEX
  5
426
330
41B
100
AcDbEntity
  8
Visible (ANSI)
100
AcDbVertex
100
AcDb2dVertex
 10
140.3472074025449
 20
57.32376377869712
 30
0.0
  0
VERTEX
  5
427
330
41B
100
AcDbEntity
  8
Visible (ANSI)
100
AcDbVertex
100
AcDb2dVertex
 10
140.347900382773
 20
57.32237965621041
 30
0.0
  0
VERTEX
  5
428
330
41B
100
AcDbEntity
  8
Visible (ANSI)
100
AcDbVertex
100
AcDb2dVertex
 10
140.3486067526499
 20
57.32101302905528
 30
0.0
  0
VERTEX
  5
429
330
41B
100
AcDbEntity
  8
Visible (ANSI)
100
AcDbVertex
100
AcDb2dVertex
 10
140.3493217130325
 20
57.31966602596189
 30
0.0
  0
VERTEX
  5
42A
330
41B
100
AcDbEntity
  8
Visible (ANSI)
100
AcDbVertex
100
AcDb2dVertex
 10
140.3500446644897
 20
57.31833830174084
 30
0.0
  0
VERTEX
  5
42B
330
41B
100
AcDbEntity
  8
Visible (ANSI)
100
AcDbVertex
100
AcDb2dVertex
 10
140.350772838153
 20
57.3170307080932
 30
0.0
  0
VERTEX
  5
42C
330
41B
100
AcDbEntity
  8
Visible (ANSI)
100
AcDbVertex
100
AcDb2dVertex
 10
140.351505543847
 20
57.31574284757343
 30
0.0
  0
VERTEX
  5
42D
330
41B
100
AcDbEntity
  8
Visible (ANSI)
100
AcDbVertex
100
AcDb2dVertex
 10
140.3522399241626
 20
57.31447306523027
 30
0.0
  0
VERTEX
  5
42E
330
41B
100
AcDbEntity
  8
Visible (ANSI)
100
AcDbVertex
100
AcDb2dVertex
 10
140.3529752049213
 20
57.31322582657426
 30
0.0
  0
VERTEX
  5
42F
330
41B
100
AcDbEntity
  8
Visible (ANSI)
100
AcDbVertex
100
AcDb2dVertex
 10
140.3537126946559
 20
57.3119969832879
 30
0.0
  0
VERTEX
  5
430
330
41B
100
AcDbEntity
  8
Visible (ANSI)
100
AcDbVertex
100
AcDb2dVertex
 10
140.3544451693408
 20
57.31078971389063
 30
0.0
  0
VERTEX
  5
431
330
41B
100
AcDbEntity
  8
Visible (ANSI)
100
AcDbVertex
100
AcDb2dVertex
 10
140.3551759878122
 20
57.30960106023478
 30
0.0
  0
VERTEX
  5
432
330
41B
100
AcDbEntity
  8
Visible (ANSI)
100
AcDbVertex
100
AcDb2dVertex
 10
140.3558999791994
 20
57.30843293698677
 30
0.0
  0
VERTEX
  5
433
330
41B
100
AcDbEntity
  8
Visible (ANSI)
100
AcDbVertex
100
AcDb2dVertex
 10
140.3566161883534
 20
57.307284794113
 30
0.0
  0
VERTEX
  5
434
330
41B
100
AcDbEntity
  8
Visible (ANSI)
100
AcDbVertex
100
AcDb2dVertex
 10
140.3573236300504
 20
57.30615360859546
 30
0.0
  0
VERTEX
  5
435
330
41B
100
AcDbEntity
  8
Visible (ANSI)
100
AcDbVertex
100
AcDb2dVertex
 10
140.3580212921022
 20
57.30504370888416
 30
0.0
  0
SEQEND
  5
41E
330
41B
100
AcDbEntity
  8
Visible (ANSI)
  0
LINE
  5
436
330
6C
100
AcDbEntity
  8
Visible (ANSI)
100
AcDbLine
 10
140.3416796581395
 20
57.33702642322582
 30
0.0
 11
140.3298914393623
 21
57.33023803950921
 31
0.0
  0
LINE
  5
437
330
6C
100
AcDbEntity
  8
Visible (ANSI)
100
AcDbLine
 10
140.3298914393623
 20
57.33023803950921
 30
0.0
 11
140.2753883974033
 21
57.29885182505778
 31
0.0
  0
LINE
  5
438
330
6C
100
AcDbEntity
  8
Visible (ANSI)
100
AcDbLine
 10
140.4300326504487
 20
57.25740933058824
 30
0.0
 11
140.9714289574642
 21
57.56917872885338
 31
0.0
  0
LINE
  5
439
330
6C
100
AcDbEntity
  8
Visible (ANSI)
100
AcDbLine
 10
140.9051376967279
 20
57.60735332702139
 30
0.0
 11
140.9714289574642
 21
57.56917872885338
 31
0.0
  0
POLYLINE
  5
43A
330
6C
100
AcDbEntity
  8
Visible (ANSI)
100
AcDb2dPolyline
 66
     1
 10
0.0
 20
0.0
 30
0.0
 70
   128
  0
VERTEX
  5
43B
330
43A
100
AcDbEntity
  8
Visible (ANSI)
100
AcDbVertex
100
AcDb2dVertex
 10
117.8026156540227
 20
70.24005993888877
 30
0.0
  0
VERTEX
  5
43C
330
43A
100
AcDbEntity
  8
Visible (ANSI)
100
AcDbVertex
100
AcDb2dVertex
 10
117.8042747132752
 20
70.24514215776972
 30
0.0
  0
VERTEX
  5
43E
330
43A
100
AcDbEntity
  8
Visible (ANSI)
100
AcDbVertex
100
AcDb2dVertex
 10
117.806264164826
 20
70.25039008982509
 30
0.0
  0
VERTEX
  5
43F
330
43A
100
AcDbEntity
  8
Visible (ANSI)
100
AcDbVertex
100
AcDb2dVertex
 10
117.8085818930359
 20
70.25577794097673
 30
0.0
  0
VERTEX
  5
440
330
43A
100
AcDbEntity
  8
Visible (ANSI)
100
AcDbVertex
100
AcDb2dVertex
 10
117.8112243676916
 20
70.26127667554835
 30
0.0
  0
VERTEX
  5
441
330
43A
100
AcDbEntity
  8
Visible (ANSI)
100
AcDbVertex
100
AcDb2dVertex
 10
117.8141866523018
 20
70.26685890370737
 30
0.0
  0
VERTEX
  5
442
330
43A
100
AcDbEntity
  8
Visible (ANSI)
100
AcDbVertex
100
AcDb2dVertex
 10
117.8174624829158
 20
70.27250135385206
 30
0.0
  0
VERTEX
  5
443
330
43A
100
AcDbEntity
  8
Visible (ANSI)
100
AcDbVertex
100
AcDb2dVertex
 10
117.8210442141948
 20
70.27817262056311
 30
0.0
  0
VERTEX
  5
444
330
43A
100
AcDbEntity
  8
Visible (ANSI)
100
AcDbVertex
100
AcDb2dVertex
 10
117.8249228982301
 20
70.28384545965129
 30
0.0
  0
VERTEX
  5
445
330
43A
100
AcDbEntity
  8
Visible (ANSI)
100
AcDbVertex
100
AcDb2dVertex
 10
117.8290883301745
 20
70.28949187443854
 30
0.0
  0
VERTEX
  5
446
330
43A
100
AcDbEntity
  8
Visible (ANSI)
100
AcDbVertex
100
AcDb2dVertex
 10
117.8335290731321
 20
70.29508318742333
 30
0.0
  0
VERTEX
  5
447
330
43A
100
AcDbEntity
  8
Visible (ANSI)
100
AcDbVertex
100
AcDb2dVertex
 10
117.8382324871968
 20
70.30059493966692
 30
0.0
  0
VERTEX
  5
448
330
43A
100
AcDbEntity
  8
Visible (ANSI)
100
AcDbVertex
100
AcDb2dVertex
 10
117.8431848456046
 20
70.30599710635415
 30
0.0
  0
VERTEX
  5
449
330
43A
100
AcDbEntity
  8
Visible (ANSI)
100
AcDbVertex
100
AcDb2dVertex
 10
117.8483713264373
 20
70.31126152589937
 30
0.0
  0
VERTEX
  5
44A
330
43A
100
AcDbEntity
  8
Visible (ANSI)
100
AcDbVertex
100
AcDb2dVertex
 10
117.8537761287749
 20
70.3163668017212
 30
0.0
  0
VERTEX
  5
44B
330
43A
100
AcDbEntity
  8
Visible (ANSI)
100
AcDbVertex
100
AcDb2dVertex
 10
117.8593824934375
 20
70.32128119141858
 30
0.0
  0
VERTEX
  5
44C
330
43A
100
AcDbEntity
  8
Visible (ANSI)
100
AcDbVertex
100
AcDb2dVertex
 10
117.8651728004706
 20
70.32598473522914
 30
0.0
  0
VERTEX
  5
44D
330
43A
100
AcDbEntity
  8
Visible (ANSI)
100
AcDbVertex
100
AcDb2dVertex
 10
117.8711286707783
 20
70.33045209623367
 30
0.0
  0
VERTEX
  5
44E
330
43A
100
AcDbEntity
  8
Visible (ANSI)
100
AcDbVertex
100
AcDb2dVertex
 10
117.8772309847914
 20
70.33465999543389
 30
0.0
  0
VERTEX
  5
44F
330
43A
100
AcDbEntity
  8
Visible (ANSI)
100
AcDbVertex
100
AcDb2dVertex
 10
117.8834599986194
 20
70.33858970563946
 30
0.0
  0
VERTEX
  5
450
330
43A
100
AcDbEntity
  8
Visible (ANSI)
100
AcDbVertex
100
AcDb2dVertex
 10
117.8897954508703
 20
70.34221480598862
 30
0.0
  0
VERTEX
  5
451
330
43A
100
AcDbEntity
  8
Visible (ANSI)
100
AcDbVertex
100
AcDb2dVertex
 10
117.8962165997255
 20
70.34552090595273
 30
0.0
  0
VERTEX
  5
452
330
43A
100
AcDbEntity
  8
Visible (ANSI)
100
AcDbVertex
100
AcDb2dVertex
 10
117.9027023357221
 20
70.34848849196051
 30
0.0
  0
VERTEX
  5
453
330
43A
100
AcDbEntity
  8
Visible (ANSI)
100
AcDbVertex
100
AcDb2dVertex
 10
117.9092312979062
 20
70.3511027882806
 30
0.0
  0
VERTEX
  5
454
330
43A
100
AcDbEntity
  8
Visible (ANSI)
100
AcDbVertex
100
AcDb2dVertex
 10
117.9157819158338
 20
70.35334647154553
 30
0.0
  0
SEQEND
  5
43D
330
43A
100
AcDbEntity
  8
Visible (ANSI)
  0
POLYLINE
  5
455
330
6C
100
AcDbEntity
  8
Visible (ANSI)
100
AcDb2dPolyline
 66
     1
 10
0.0
 20
0.0
 30
0.0
 70
   128
  0
VERTEX
  5
456
330
455
100
AcDbEntity
  8
Visible (ANSI)
100
AcDbVertex
100
AcDb2dVertex
 10
140.3168668945362
 20
57.45341957179715
 30
0.0
  0
VERTEX
  5
457
330
455
100
AcDbEntity
  8
Visible (ANSI)
100
AcDbVertex
100
AcDb2dVertex
 10
140.3133029118095
 20
57.4494559997052
 30
0.0
  0
VERTEX
  5
459
330
455
100
AcDbEntity
  8
Visible (ANSI)
100
AcDbVertex
100
AcDb2dVertex
 10
140.3097605848263
 20
57.4451218145581
 30
0.0
  0
VERTEX
  5
45A
330
455
100
AcDbEntity
  8
Visible (ANSI)
100
AcDbVertex
100
AcDb2dVertex
 10
140.3062614757339
 20
57.44043434450099
 30
0.0
  0
VERTEX
  5
45B
330
455
100
AcDbEntity
  8
Visible (ANSI)
100
AcDbVertex
100
AcDb2dVertex
 10
140.3028269620797
 20
57.43540835570988
 30
0.0
  0
VERTEX
  5
45C
330
455
100
AcDbEntity
  8
Visible (ANSI)
100
AcDbVertex
100
AcDb2dVertex
 10
140.2994802689654
 20
57.43006214344048
 30
0.0
  0
VERTEX
  5
45D
330
455
100
AcDbEntity
  8
Visible (ANSI)
100
AcDbVertex
100
AcDb2dVertex
 10
140.2962378820416
 20
57.4244125491856
 30
0.0
  0
VERTEX
  5
45E
330
455
100
AcDbEntity
  8
Visible (ANSI)
100
AcDbVertex
100
AcDb2dVertex
 10
140.2931222032295
 20
57.41848476115836
 30
0.0
  0
VERTEX
  5
45F
330
455
100
AcDbEntity
  8
Visible (ANSI)
100
AcDbVertex
100
AcDb2dVertex
 10
140.2901529681227
 20
57.41229751132681
 30
0.0
  0
VERTEX
  5
460
330
455
100
AcDbEntity
  8
Visible (ANSI)
100
AcDbVertex
100
AcDb2dVertex
 10
140.2873492879939
 20
57.40587408346694
 30
0.0
  0
VERTEX
  5
461
330
455
100
AcDbEntity
  8
Visible (ANSI)
100
AcDbVertex
100
AcDb2dVertex
 10
140.2847316824679
 20
57.39923858184933
 30
0.0
  0
VERTEX
  5
462
330
455
100
AcDbEntity
  8
Visible (ANSI)
100
AcDbVertex
100
AcDb2dVertex
 10
140.2823135153312
 20
57.39241341720046
 30
0.0
  0
VERTEX
  5
463
330
455
100
AcDbEntity
  8
Visible (ANSI)
100
AcDbVertex
100
AcDb2dVertex
 10
140.2801136614028
 20
57.38542911360593
 30
0.0
  0
VERTEX
  5
464
330
455
100
AcDbEntity
  8
Visible (ANSI)
100
AcDbVertex
100
AcDb2dVertex
 10
140.2781479381959
 20
57.37830705809168
 30
0.0
  0
VERTEX
  5
465
330
455
100
AcDbEntity
  8
Visible (ANSI)
100
AcDbVertex
100
AcDb2dVertex
 10
140.2764311510355
 20
57.37107542179877
 30
0.0
  0
VERTEX
  5
466
330
455
100
AcDbEntity
  8
Visible (ANSI)
100
AcDbVertex
100
AcDb2dVertex
 10
140.2749770432787
 20
57.36376421998697
 30
0.0
  0
VERTEX
  5
467
330
455
100
AcDbEntity
  8
Visible (ANSI)
100
AcDbVertex
100
AcDb2dVertex
 10
140.273800370471
 20
57.35639669327949
 30
0.0
  0
VERTEX
  5
468
330
455
100
AcDbEntity
  8
Visible (ANSI)
100
AcDbVertex
100
AcDb2dVertex
 10
140.27290831334
 20
57.34900397014198
 30
0.0
  0
VERTEX
  5
469
330
455
100
AcDbEntity
  8
Visible (ANSI)
100
AcDbVertex
100
AcDb2dVertex
 10
140.2723132172619
 20
57.34161281460394
 30
0.0
  0
VERTEX
  5
46A
330
455
100
AcDbEntity
  8
Visible (ANSI)
100
AcDbVertex
100
AcDb2dVertex
 10
140.2720240218489
 20
57.3342504756322
 30
0.0
  0
VERTEX
  5
46B
330
455
100
AcDbEntity
  8
Visible (ANSI)
100
AcDbVertex
100
AcDb2dVertex
 10
140.2720483641429
 20
57.32694836342387
 30
0.0
  0
VERTEX
  5
46C
330
455
100
AcDbEntity
  8
Visible (ANSI)
100
AcDbVertex
100
AcDb2dVertex
 10
140.2723946486238
 20
57.31972851693202
 30
0.0
  0
VERTEX
  5
46D
330
455
100
AcDbEntity
  8
Visible (ANSI)
100
AcDbVertex
100
AcDb2dVertex
 10
140.2730635556148
 20
57.31262077695337
 30
0.0
  0
VERTEX
  5
46E
330
455
100
AcDbEntity
  8
Visible (ANSI)
100
AcDbVertex
100
AcDb2dVertex
 10
140.2740607309684
 20
57.30565296084868
 30
0.0
  0
VERTEX
  5
46F
330
455
100
AcDbEntity
  8
Visible (ANSI)
100
AcDbVertex
100
AcDb2dVertex
 10
140.2753883069167
 20
57.29885085314072
 30
0.0
  0
SEQEND
  5
458
330
455
100
AcDbEntity
  8
Visible (ANSI)
  0
LINE
  5
470
330
6C
100
AcDbEntity
  8
Visible (ANSI)
100
AcDbLine
 10
140.3183096726899
 20
57.37760480699745
 30
0.0
 11
140.8582626967279
 21
57.68854307387232
 31
0.0
  0
LINE
  5
471
330
6C
100
AcDbEntity
  8
Visible (ANSI)
100
AcDbLine
 10
140.8582626967279
 20
57.7651881168263
 30
0.0
 11
140.3168663897125
 21
57.45341871856104
 31
0.0
  0
LINE
  5
472
330
6C
100
AcDbEntity
  8
Visible (ANSI)
100
AcDbLine
 10
140.3168663897125
 20
57.39040305185505
 30
0.0
 11
140.3168663897125
 21
57.45341871856104
 31
0.0
  0
LINE
  5
473
330
6C
100
AcDbEntity
  8
Visible (ANSI)
100
AcDbLine
 10
140.8582626967279
 20
57.68854307387232
 30
0.0
 11
140.8582626967279
 21
57.7651881168263
 31
0.0
  0
POLYLINE
  5
474
330
6C
100
AcDbEntity
  8
Visible (ANSI)
100
AcDb2dPolyline
 66
     1
 10
0.0
 20
0.0
 30
0.0
 70
   128
  0
VERTEX
  5
475
330
474
100
AcDbEntity
  8
Visible (ANSI)
100
AcDbVertex
100
AcDb2dVertex
 10
140.3416795666573
 20
57.33702545073543
 30
0.0
  0
VERTEX
  5
476
330
474
100
AcDbEntity
  8
Visible (ANSI)
100
AcDbVertex
100
AcDb2dVertex
 10
140.3406150212456
 20
57.33825672995308
 30
0.0
  0
VERTEX
  5
478
330
474
100
AcDbEntity
  8
Visible (ANSI)
100
AcDbVertex
100
AcDb2dVertex
 10
140.3395750283974
 20
57.3394972367214
 30
0.0
  0
VERTEX
  5
479
330
474
100
AcDbEntity
  8
Visible (ANSI)
100
AcDbVertex
100
AcDb2dVertex
 10
140.3385573820768
 20
57.34075305818553
 30
0.0
  0
VERTEX
  5
47A
330
474
100
AcDbEntity
  8
Visible (ANSI)
100
AcDbVertex
100
AcDb2dVertex
 10
140.3375661935475
 20
57.34201430249637
 30
0.0
  0
VERTEX
  5
47B
330
474
100
AcDbEntity
  8
Visible (ANSI)
100
AcDbVertex
100
AcDb2dVertex
 10
140.336599148015
 20
57.34328699416924
 30
0.0
  0
VERTEX
  5
47C
330
474
100
AcDbEntity
  8
Visible (ANSI)
100
AcDbVertex
100
AcDb2dVertex
 10
140.3356560008261
 20
57.34456608098735
 30
0.0
  0
VERTEX
  5
47D
330
474
100
AcDbEntity
  8
Visible (ANSI)
100
AcDbVertex
100
AcDb2dVertex
 10
140.334736454064
 20
57.34585139139181
 30
0.0
  0
VERTEX
  5
47E
330
474
100
AcDbEntity
  8
Visible (ANSI)
100
AcDbVertex
100
AcDb2dVertex
 10
140.3338380334226
 20
57.34714149104581
 30
0.0
  0
VERTEX
  5
47F
330
474
100
AcDbEntity
  8
Visible (ANSI)
100
AcDbVertex
100
AcDb2dVertex
 10
140.3329645843223
 20
57.34843124634159
 30
0.0
  0
VERTEX
  5
480
330
474
100
AcDbEntity
  8
Visible (ANSI)
100
AcDbVertex
100
AcDb2dVertex
 10
140.3321135296892
 20
57.34972407509257
 30
0.0
  0
VERTEX
  5
481
330
474
100
AcDbEntity
  8
Visible (ANSI)
100
AcDbVertex
100
AcDb2dVertex
 10
140.3312843665403
 20
57.35101723198503
 30
0.0
  0
VERTEX
  5
482
330
474
100
AcDbEntity
  8
Visible (ANSI)
100
AcDbVertex
100
AcDb2dVertex
 10
140.3304765428262
 20
57.35230794344961
 30
0.0
  0
VERTEX
  5
483
330
474
100
AcDbEntity
  8
Visible (ANSI)
100
AcDbVertex
100
AcDb2dVertex
 10
140.3296873351801
 20
57.35359463172492
 30
0.0
  0
VERTEX
  5
484
330
474
100
AcDbEntity
  8
Visible (ANSI)
100
AcDbVertex
100
AcDb2dVertex
 10
140.3289203458923
 20
57.35487939018952
 30
0.0
  0
VERTEX
  5
485
330
474
100
AcDbEntity
  8
Visible (ANSI)
100
AcDbVertex
100
AcDb2dVertex
 10
140.3281727607222
 20
57.35615322175565
 30
0.0
  0
VERTEX
  5
486
330
474
100
AcDbEntity
  8
Visible (ANSI)
100
AcDbVertex
100
AcDb2dVertex
 10
140.3274438455482
 20
57.35742307066639
 30
0.0
  0
VERTEX
  5
487
330
474
100
AcDbEntity
  8
Visible (ANSI)
100
AcDbVertex
100
AcDb2dVertex
 10
140.326732825673
 20
57.35868112380772
 30
0.0
  0
VERTEX
  5
488
330
474
100
AcDbEntity
  8
Visible (ANSI)
100
AcDbVertex
100
AcDb2dVertex
 10
140.3260367617583
 20
57.35993059037891
 30
0.0
  0
VERTEX
  5
489
330
474
100
AcDbEntity
  8
Visible (ANSI)
100
AcDbVertex
100
AcDb2dVertex
 10
140.3253590484198
 20
57.36116853283618
 30
0.0
  0
VERTEX
  5
48A
330
474
100
AcDbEntity
  8
Visible (ANSI)
100
AcDbVertex
100
AcDb2dVertex
 10
140.3246966724273
 20
57.36239075083179
 30
0.0
  0
VERTEX
  5
48B
330
474
100
AcDbEntity
  8
Visible (ANSI)
100
AcDbVertex
100
AcDb2dVertex
 10
140.3240487102628
 20
57.36359916821233
 30
0.0
  0
VERTEX
  5
48C
330
474
100
AcDbEntity
  8
Visible (ANSI)
100
AcDbVertex
100
AcDb2dVertex
 10
140.3234142062592
 20
57.36479323464557
 30
0.0
  0
VERTEX
  5
48D
330
474
100
AcDbEntity
  8
Visible (ANSI)
100
AcDbVertex
100
AcDb2dVertex
 10
140.322790050738
 20
57.36596869424294
 30
0.0
  0
VERTEX
  5
48E
330
474
100
AcDbEntity
  8
Visible (ANSI)
100
AcDbVertex
100
AcDb2dVertex
 10
140.3221794783455
 20
57.36712497300565
 30
0.0
  0
SEQEND
  5
477
330
474
100
AcDbEntity
  8
Visible (ANSI)
  0
LINE
  5
48F
330
6C
100
AcDbEntity
  8
Visible (ANSI)
100
AcDbLine
 10
117.9157819132121
 20
70.3533453291105
 30
0.0
 11
118.4571782202275
 21
70.66511472737575
 31
0.0
  0
POLYLINE
  5
490
330
6C
100
AcDbEntity
  8
Visible (ANSI)
100
AcDb2dPolyline
 66
     1
 10
0.0
 20
0.0
 30
0.0
 70
   128
  0
VERTEX
  5
491
330
490
100
AcDbEntity
  8
Visible (ANSI)
100
AcDbVertex
100
AcDb2dVertex
 10
117.8026156540226
 20
45.173003305763
 30
0.0
  0
VERTEX
  5
492
330
490
100
AcDbEntity
  8
Visible (ANSI)
100
AcDbVertex
100
AcDb2dVertex
 10
117.80012714811
 20
45.17534740947286
 30
0.0
  0
VERTEX
  5
494
330
490
100
AcDbEntity
  8
Visible (ANSI)
100
AcDbVertex
100
AcDb2dVertex
 10
117.7977240974217
 20
45.17773760850806
 30
0.0
  0
VERTEX
  5
495
330
490
100
AcDbEntity
  8
Visible (ANSI)
100
AcDbVertex
100
AcDb2dVertex
 10
117.7954090905044
 20
45.18017225930006
 30
0.0
  0
VERTEX
  5
496
330
490
100
AcDbEntity
  8
Visible (ANSI)
100
AcDbVertex
100
AcDb2dVertex
 10
117.7931845914553
 20
45.18264969928059
 30
0.0
  0
VERTEX
  5
497
330
490
100
AcDbEntity
  8
Visible (ANSI)
100
AcDbVertex
100
AcDb2dVertex
 10
117.7910529938503
 20
45.18516818216039
 30
0.0
  0
VERTEX
  5
498
330
490
100
AcDbEntity
  8
Visible (ANSI)
100
AcDbVertex
100
AcDb2dVertex
 10
117.7890165751126
 20
45.18772594735414
 30
0.0
  0
VERTEX
  5
499
330
490
100
AcDbEntity
  8
Visible (ANSI)
100
AcDbVertex
100
AcDb2dVertex
 10
117.7870775214027
 20
45.19032117216627
 30
0.0
  0
VERTEX
  5
49A
330
490
100
AcDbEntity
  8
Visible (ANSI)
100
AcDbVertex
100
AcDb2dVertex
 10
117.785237902728
 20
45.19295200523502
 30
0.0
  0
VERTEX
  5
49B
330
490
100
AcDbEntity
  8
Visible (ANSI)
100
AcDbVertex
100
AcDb2dVertex
 10
117.7834996895368
 20
45.19561654260676
 30
0.0
  0
VERTEX
  5
49C
330
490
100
AcDbEntity
  8
Visible (ANSI)
100
AcDbVertex
100
AcDb2dVertex
 10
117.7818647444211
 20
45.19831287566125
 30
0.0
  0
VERTEX
  5
49D
330
490
100
AcDbEntity
  8
Visible (ANSI)
100
AcDbVertex
100
AcDb2dVertex
 10
117.7803348179685
 20
45.20103903594585
 30
0.0
  0
VERTEX
  5
49E
330
490
100
AcDbEntity
  8
Visible (ANSI)
100
AcDbVertex
100
AcDb2dVertex
 10
117.7789115529104
 20
45.20379302160097
 30
0.0
  0
VERTEX
  5
49F
330
490
100
AcDbEntity
  8
Visible (ANSI)
100
AcDbVertex
100
AcDb2dVertex
 10
117.7775964633808
 20
45.20657281404504
 30
0.0
  0
VERTEX
  5
4A0
330
490
100
AcDbEntity
  8
Visible (ANSI)
100
AcDbVertex
100
AcDb2dVertex
 10
117.7763909681022
 20
45.20937635886368
 30
0.0
  0
VERTEX
  5
4A1
330
490
100
AcDbEntity
  8
Visible (ANSI)
100
AcDbVertex
100
AcDb2dVertex
 10
117.7752963530513
 20
45.21220156816152
 30
0.0
  0
VERTEX
  5
4A2
330
490
100
AcDbEntity
  8
Visible (ANSI)
100
AcDbVertex
100
AcDb2dVertex
 10
117.7743137922005
 20
45.21504636132088
 30
0.0
  0
VERTEX
  5
4A3
330
490
100
AcDbEntity
  8
Visible (ANSI)
100
AcDbVertex
100
AcDb2dVertex
 10
117.7734443309242
 20
45.21790860744701
 30
0.0
  0
VERTEX
  5
4A4
330
490
100
AcDbEntity
  8
Visible (ANSI)
100
AcDbVertex
100
AcDb2dVertex
 10
117.7726889067411
 20
45.22078616134909
 30
0.0
  0
VERTEX
  5
4A5
330
490
100
AcDbEntity
  8
Visible (ANSI)
100
AcDbVertex
100
AcDb2dVertex
 10
117.7720483306459
 20
45.22367687425301
 30
0.0
  0
VERTEX
  5
4A6
330
490
100
AcDbEntity
  8
Visible (ANSI)
100
AcDbVertex
100
AcDb2dVertex
 10
117.7715232850361
 20
45.22657857110728
 30
0.0
  0
VERTEX
  5
4A7
330
490
100
AcDbEntity
  8
Visible (ANSI)
100
AcDbVertex
100
AcDb2dVertex
 10
117.7711143278595
 20
45.22948905771253
 30
0.0
  0
VERTEX
  5
4A8
330
490
100
AcDbEntity
  8
Visible (ANSI)
100
AcDbVertex
100
AcDb2dVertex
 10
117.770821907134
 20
45.23240616506348
 30
0.0
  0
VERTEX
  5
4A9
330
490
100
AcDbEntity
  8
Visible (ANSI)
100
AcDbVertex
100
AcDb2dVertex
 10
117.7706463277603
 20
45.23532768223875
 30
0.0
  0
VERTEX
  5
4AA
330
490
100
AcDbEntity
  8
Visible (ANSI)
100
AcDbVertex
100
AcDb2dVertex
 10
117.7705877764125
 20
45.23825140432621
 30
0.0
  0
SEQEND
  5
493
330
490
100
AcDbEntity
  8
Visible (ANSI)
  0
POLYLINE
  5
4AB
330
6C
100
AcDbEntity
  8
Visible (ANSI)
100
AcDb2dPolyline
 66
     1
 10
0.0
 20
0.0
 30
0.0
 70
   128
  0
VERTEX
  5
4AC
330
4AB
100
AcDbEntity
  8
Visible (ANSI)
100
AcDbVertex
100
AcDb2dVertex
 10
117.8026156529855
 20
70.28767183591445
 30
0.0
  0
VERTEX
  5
4AD
330
4AB
100
AcDbEntity
  8
Visible (ANSI)
100
AcDbVertex
100
AcDb2dVertex
 10
117.797724096093
 20
70.28639063744728
 30
0.0
  0
VERTEX
  5
4AF
330
4AB
100
AcDbEntity
  8
Visible (ANSI)
100
AcDbVertex
100
AcDb2dVertex
 10
117.7931845912609
 20
70.28493164710841
 30
0.0
  0
VERTEX
  5
4B0
330
4AB
100
AcDbEntity
  8
Visible (ANSI)
100
AcDbVertex
100
AcDb2dVertex
 10
117.7890165767979
 20
70.28331096041499
 30
0.0
  0
VERTEX
  5
4B1
330
4AB
100
AcDbEntity
  8
Visible (ANSI)
100
AcDbVertex
100
AcDb2dVertex
 10
117.7852379009132
 20
70.28153800895826
 30
0.0
  0
VERTEX
  5
4B2
330
4AB
100
AcDbEntity
  8
Visible (ANSI)
100
AcDbVertex
100
AcDb2dVertex
 10
117.7818647449397
 20
70.27963023290023
 30
0.0
  0
VERTEX
  5
4B3
330
4AB
100
AcDbEntity
  8
Visible (ANSI)
100
AcDbVertex
100
AcDb2dVertex
 10
117.7789115523919
 20
70.27760319405652
 30
0.0
  0
VERTEX
  5
4B4
330
4AB
100
AcDbEntity
  8
Visible (ANSI)
100
AcDbVertex
100
AcDb2dVertex
 10
117.7763909691393
 20
70.27547296478566
 30
0.0
  0
VERTEX
  5
4B5
330
4AB
100
AcDbEntity
  8
Visible (ANSI)
100
AcDbVertex
100
AcDb2dVertex
 10
117.7743137890893
 20
70.27325851489999
 30
0.0
  0
VERTEX
  5
4B6
330
4AB
100
AcDbEntity
  8
Visible (ANSI)
100
AcDbVertex
100
AcDb2dVertex
 10
117.7726889098523
 20
70.27097182017617
 30
0.0
  0
VERTEX
  5
4B7
330
4AB
100
AcDbEntity
  8
Visible (ANSI)
100
AcDbVertex
100
AcDb2dVertex
 10
117.7715232839991
 20
70.26863251930563
 30
0.0
  0
VERTEX
  5
4B8
330
4AB
100
AcDbEntity
  8
Visible (ANSI)
100
AcDbVertex
100
AcDb2dVertex
 10
117.7708219050599
 20
70.26625802046415
 30
0.0
  0
VERTEX
  5
4B9
330
4AB
100
AcDbEntity
  8
Visible (ANSI)
100
AcDbVertex
100
AcDb2dVertex
 10
117.7705877764126
 20
70.26386588650578
 30
0.0
  0
VERTEX
  5
4BA
330
4AB
100
AcDbEntity
  8
Visible (ANSI)
100
AcDbVertex
100
AcDb2dVertex
 10
117.770821907134
 20
70.26147375374185
 30
0.0
  0
VERTEX
  5
4BB
330
4AB
100
AcDbEntity
  8
Visible (ANSI)
100
AcDbVertex
100
AcDb2dVertex
 10
117.7715232850361
 20
70.25910171235719
 30
0.0
  0
VERTEX
  5
4BC
330
4AB
100
AcDbEntity
  8
Visible (ANSI)
100
AcDbVertex
100
AcDb2dVertex
 10
117.7726889067411
 20
70.25676240909781
 30
0.0
  0
VERTEX
  5
4BD
330
4AB
100
AcDbEntity
  8
Visible (ANSI)
100
AcDbVertex
100
AcDb2dVertex
 10
117.7743137922006
 20
70.2544757155684
 30
0.0
  0
VERTEX
  5
4BE
330
4AB
100
AcDbEntity
  8
Visible (ANSI)
100
AcDbVertex
100
AcDb2dVertex
 10
117.7763909681023
 20
70.25225881001755
 30
0.0
  0
VERTEX
  5
4BF
330
4AB
100
AcDbEntity
  8
Visible (ANSI)
100
AcDbVertex
100
AcDb2dVertex
 10
117.7789115529105
 20
70.25012857925365
 30
0.0
  0
VERTEX
  5
4C0
330
4AB
100
AcDbEntity
  8
Visible (ANSI)
100
AcDbVertex
100
AcDb2dVertex
 10
117.7818647444212
 20
70.24810399547792
 30
0.0
  0
VERTEX
  5
4C1
330
4AB
100
AcDbEntity
  8
Visible (ANSI)
100
AcDbVertex
100
AcDb2dVertex
 10
117.7852379027281
 20
70.24619622195803
 30
0.0
  0
VERTEX
  5
4C2
330
4AB
100
AcDbEntity
  8
Visible (ANSI)
100
AcDbVertex
100
AcDb2dVertex
 10
117.7890165751127
 20
70.24442327057596
 30
0.0
  0
VERTEX
  5
4C3
330
4AB
100
AcDbEntity
  8
Visible (ANSI)
100
AcDbVertex
100
AcDb2dVertex
 10
117.7931845914554
 20
70.24280012900121
 30
0.0
  0
VERTEX
  5
4C4
330
4AB
100
AcDbEntity
  8
Visible (ANSI)
100
AcDbVertex
100
AcDb2dVertex
 10
117.7977240974218
 20
70.24134113513504
 30
0.0
  0
VERTEX
  5
4C5
330
4AB
100
AcDbEntity
  8
Visible (ANSI)
100
AcDbVertex
100
AcDb2dVertex
 10
117.8026156540227
 20
70.24005993888877
 30
0.0
  0
SEQEND
  5
4AE
330
4AB
100
AcDbEntity
  8
Visible (ANSI)
  0
LINE
  5
4C6
330
6C
100
AcDbEntity
  8
Visible (ANSI)
100
AcDbLine
 10
118.2487098524429
 20
45.4840388704025
 30
0.0
 11
118.4103032202275
 21
45.57709430204288
 31
0.0
  0
LINE
  5
4C7
330
6C
100
AcDbEntity
  8
Visible (ANSI)
100
AcDbLine
 10
117.856176787623
 20
70.31851597833368
 30
0.0
 11
117.8026156524759
 21
70.28767217194114
 31
0.0
  0
LINE
  5
4C8
330
6C
100
AcDbEntity
  8
Visible (ANSI)
100
AcDbLine
 10
117.8205157597983
 20
70.27736418569062
 30
0.0
 11
117.8026156524759
 21
70.28767217194114
 31
0.0
  0
POLYLINE
  5
4C9
330
6C
100
AcDbEntity
  8
Visible (ANSI)
100
AcDb2dPolyline
 66
     1
 10
0.0
 20
0.0
 30
0.0
 70
   128
  0
VERTEX
  5
4CA
330
4C9
100
AcDbEntity
  8
Visible (ANSI)
100
AcDbVertex
100
AcDb2dVertex
 10
140.2753883069166
 20
32.23179422001494
 30
0.0
  0
VERTEX
  5
4CB
330
4C9
100
AcDbEntity
  8
Visible (ANSI)
100
AcDbVertex
100
AcDb2dVertex
 10
140.2740607309683
 20
32.22690243093941
 30
0.0
  0
VERTEX
  5
4CD
330
4C9
100
AcDbEntity
  8
Visible (ANSI)
100
AcDbVertex
100
AcDb2dVertex
 10
140.2730635556148
 20
32.22222593839011
 30
0.0
  0
VERTEX
  5
4CE
330
4C9
100
AcDbEntity
  8
Visible (ANSI)
100
AcDbVertex
100
AcDb2dVertex
 10
140.2723946486237
 20
32.21778845484565
 30
0.0
  0
VERTEX
  5
4CF
330
4C9
100
AcDbEntity
  8
Visible (ANSI)
100
AcDbVertex
100
AcDb2dVertex
 10
140.2720483641428
 20
32.2136138901894
 30
0.0
  0
VERTEX
  5
4D0
330
4C9
100
AcDbEntity
  8
Visible (ANSI)
100
AcDbVertex
100
AcDb2dVertex
 10
140.2720240218488
 20
32.20972135385673
 30
0.0
  0
VERTEX
  5
4D1
330
4C9
100
AcDbEntity
  8
Visible (ANSI)
100
AcDbVertex
100
AcDb2dVertex
 10
140.2723132172619
 20
32.20613242372891
 30
0.0
  0
VERTEX
  5
4D2
330
4C9
100
AcDbEntity
  8
Visible (ANSI)
100
AcDbVertex
100
AcDb2dVertex
 10
140.2729083133399
 20
32.20286614585439
 30
0.0
  0
VERTEX
  5
4D3
330
4C9
100
AcDbEntity
  8
Visible (ANSI)
100
AcDbVertex
100
AcDb2dVertex
 10
140.2738003704709
 20
32.19994019746898
 30
0.0
  0
VERTEX
  5
4D4
330
4C9
100
AcDbEntity
  8
Visible (ANSI)
100
AcDbVertex
100
AcDb2dVertex
 10
140.2749770432787
 20
32.19737200212779
 30
0.0
  0
VERTEX
  5
4D5
330
4C9
100
AcDbEntity
  8
Visible (ANSI)
100
AcDbVertex
100
AcDb2dVertex
 10
140.2764311510354
 20
32.19517380838847
 30
0.0
  0
VERTEX
  5
4D6
330
4C9
100
AcDbEntity
  8
Visible (ANSI)
100
AcDbVertex
100
AcDb2dVertex
 10
140.2781479381959
 20
32.19335992764054
 30
0.0
  0
VERTEX
  5
4D7
330
4C9
100
AcDbEntity
  8
Visible (ANSI)
100
AcDbVertex
100
AcDb2dVertex
 10
140.2801136614028
 20
32.19194180795535
 30
0.0
  0
VERTEX
  5
4D8
330
4C9
100
AcDbEntity
  8
Visible (ANSI)
100
AcDbVertex
100
AcDb2dVertex
 10
140.2823135153312
 20
32.19092921150416
 30
0.0
  0
VERTEX
  5
4D9
330
4C9
100
AcDbEntity
  8
Visible (ANSI)
100
AcDbVertex
100
AcDb2dVertex
 10
140.2847316824678
 20
32.19033015089706
 30
0.0
  0
VERTEX
  5
4DA
330
4C9
100
AcDbEntity
  8
Visible (ANSI)
100
AcDbVertex
100
AcDb2dVertex
 10
140.2873492879939
 20
32.19015209771172
 30
0.0
  0
VERTEX
  5
4DB
330
4C9
100
AcDbEntity
  8
Visible (ANSI)
100
AcDbVertex
100
AcDb2dVertex
 10
140.2901529681226
 20
32.19039705278778
 30
0.0
  0
VERTEX
  5
4DC
330
4C9
100
AcDbEntity
  8
Visible (ANSI)
100
AcDbVertex
100
AcDb2dVertex
 10
140.2931222032294
 20
32.19106887622152
 30
0.0
  0
VERTEX
  5
4DD
330
4C9
100
AcDbEntity
  8
Visible (ANSI)
100
AcDbVertex
100
AcDb2dVertex
 10
140.2962378820416
 20
32.19216837145868
 30
0.0
  0
VERTEX
  5
4DE
330
4C9
100
AcDbEntity
  8
Visible (ANSI)
100
AcDbVertex
100
AcDb2dVertex
 10
140.2994802689653
 20
32.19369451178123
 30
0.0
  0
VERTEX
  5
4DF
330
4C9
100
AcDbEntity
  8
Visible (ANSI)
100
AcDbVertex
100
AcDb2dVertex
 10
140.3028269620796
 20
32.1956456671146
 30
0.0
  0
VERTEX
  5
4E0
330
4C9
100
AcDbEntity
  8
Visible (ANSI)
100
AcDbVertex
100
AcDb2dVertex
 10
140.3062614757339
 20
32.19801472405123
 30
0.0
  0
VERTEX
  5
4E1
330
4C9
100
AcDbEntity
  8
Visible (ANSI)
100
AcDbVertex
100
AcDb2dVertex
 10
140.3097605848262
 20
32.20079644257419
 30
0.0
  0
VERTEX
  5
4E2
330
4C9
100
AcDbEntity
  8
Visible (ANSI)
100
AcDbVertex
100
AcDb2dVertex
 10
140.3133029118094
 20
32.20398259274509
 30
0.0
  0
VERTEX
  5
4E3
330
4C9
100
AcDbEntity
  8
Visible (ANSI)
100
AcDbVertex
100
AcDb2dVertex
 10
140.3168668945361
 20
32.20756321330191
 30
0.0
  0
SEQEND
  5
4CC
330
4C9
100
AcDbEntity
  8
Visible (ANSI)
  0
POLYLINE
  5
4E4
330
6C
100
AcDbEntity
  8
Visible (ANSI)
100
AcDb2dPolyline
 66
     1
 10
0.0
 20
0.0
 30
0.0
 70
   128
  0
VERTEX
  5
4E5
330
4E4
100
AcDbEntity
  8
Visible (ANSI)
100
AcDbVertex
100
AcDb2dVertex
 10
117.8433347946334
 20
45.11242321592319
 30
0.0
  0
VERTEX
  5
4E6
330
4E4
100
AcDbEntity
  8
Visible (ANSI)
100
AcDbVertex
100
AcDb2dVertex
 10
117.8408187854132
 20
45.11393998489348
 30
0.0
  0
VERTEX
  5
4E8
330
4E4
100
AcDbEntity
  8
Visible (ANSI)
100
AcDbVertex
100
AcDb2dVertex
 10
117.8383633913258
 20
45.11555755983766
 30
0.0
  0
VERTEX
  5
4E9
330
4E4
100
AcDbEntity
  8
Visible (ANSI)
100
AcDbVertex
100
AcDb2dVertex
 10
117.8359704666668
 20
45.11727466089726
 30
0.0
  0
VERTEX
  5
4EA
330
4E4
100
AcDbEntity
  8
Visible (ANSI)
100
AcDbVertex
100
AcDb2dVertex
 10
117.8336417744687
 20
45.11908990518764
 30
0.0
  0
VERTEX
  5
4EB
330
4E4
100
AcDbEntity
  8
Visible (ANSI)
100
AcDbVertex
100
AcDb2dVertex
 10
117.831378998946
 20
45.12100180688131
 30
0.0
  0
VERTEX
  5
4EC
330
4E4
100
AcDbEntity
  8
Visible (ANSI)
100
AcDbVertex
100
AcDb2dVertex
 10
117.8291837952752
 20
45.12300876521729
 30
0.0
  0
VERTEX
  5
4ED
330
4E4
100
AcDbEntity
  8
Visible (ANSI)
100
AcDbVertex
100
AcDb2dVertex
 10
117.8270576983318
 20
45.1251090908249
 30
0.0
  0
VERTEX
  5
4EE
330
4E4
100
AcDbEntity
  8
Visible (ANSI)
100
AcDbVertex
100
AcDb2dVertex
 10
117.8250022098045
 20
45.12730098184441
 30
0.0
  0
VERTEX
  5
4EF
330
4E4
100
AcDbEntity
  8
Visible (ANSI)
100
AcDbVertex
100
AcDb2dVertex
 10
117.8230187193779
 20
45.12958255498214
 30
0.0
  0
VERTEX
  5
4F0
330
4E4
100
AcDbEntity
  8
Visible (ANSI)
100
AcDbVertex
100
AcDb2dVertex
 10
117.821108571105
 20
45.1319518024926
 30
0.0
  0
VERTEX
  5
4F1
330
4E4
100
AcDbEntity
  8
Visible (ANSI)
100
AcDbVertex
100
AcDb2dVertex
 10
117.819273005331
 20
45.13440664240921
 30
0.0
  0
VERTEX
  5
4F2
330
4E4
100
AcDbEntity
  8
Visible (ANSI)
100
AcDbVertex
100
AcDb2dVertex
 10
117.8175131877317
 20
45.13694491139625
 30
0.0
  0
VERTEX
  5
4F3
330
4E4
100
AcDbEntity
  8
Visible (ANSI)
100
AcDbVertex
100
AcDb2dVertex
 10
117.8158302176095
 20
45.13956432647165
 30
0.0
  0
VERTEX
  5
4F4
330
4E4
100
AcDbEntity
  8
Visible (ANSI)
100
AcDbVertex
100
AcDb2dVertex
 10
117.8142250864112
 20
45.14226254239507
 30
0.0
  0
VERTEX
  5
4F5
330
4E4
100
AcDbEntity
  8
Visible (ANSI)
100
AcDbVertex
100
AcDb2dVertex
 10
117.8126987358034
 20
45.14503710866843
 30
0.0
  0
VERTEX
  5
4F6
330
4E4
100
AcDbEntity
  8
Visible (ANSI)
100
AcDbVertex
100
AcDb2dVertex
 10
117.8112519830035
 20
45.14788551736864
 30
0.0
  0
VERTEX
  5
4F7
330
4E4
100
AcDbEntity
  8
Visible (ANSI)
100
AcDbVertex
100
AcDb2dVertex
 10
117.8098855954494
 20
45.15080515531491
 30
0.0
  0
VERTEX
  5
4F8
330
4E4
100
AcDbEntity
  8
Visible (ANSI)
100
AcDbVertex
100
AcDb2dVertex
 10
117.8086002285743
 20
45.15379334471631
 30
0.0
  0
VERTEX
  5
4F9
330
4E4
100
AcDbEntity
  8
Visible (ANSI)
100
AcDbVertex
100
AcDb2dVertex
 10
117.8073964548451
 20
45.1568473456162
 30
0.0
  0
VERTEX
  5
4FA
330
4E4
100
AcDbEntity
  8
Visible (ANSI)
100
AcDbVertex
100
AcDb2dVertex
 10
117.806274780356
 20
45.15996432718888
 30
0.0
  0
VERTEX
  5
4FB
330
4E4
100
AcDbEntity
  8
Visible (ANSI)
100
AcDbVertex
100
AcDb2dVertex
 10
117.8052355867516
 20
45.16314140118363
 30
0.0
  0
VERTEX
  5
4FC
330
4E4
100
AcDbEntity
  8
Visible (ANSI)
100
AcDbVertex
100
AcDb2dVertex
 10
117.8042792058969
 20
45.16637560286934
 30
0.0
  0
VERTEX
  5
4FD
330
4E4
100
AcDbEntity
  8
Visible (ANSI)
100
AcDbVertex
100
AcDb2dVertex
 10
117.8034058452075
 20
45.16966393407098
 30
0.0
  0
VERTEX
  5
4FE
330
4E4
100
AcDbEntity
  8
Visible (ANSI)
100
AcDbVertex
100
AcDb2dVertex
 10
117.8026156540226
 20
45.173003305763
 30
0.0
  0
SEQEND
  5
4E7
330
4E4
100
AcDbEntity
  8
Visible (ANSI)
  0
LINE
  5
4FF
330
6C
100
AcDbEntity
  8
Visible (ANSI)
100
AcDbLine
 10
118.2958402024587
 20
45.40299616984614
 30
0.0
 11
118.4571782202275
 21
45.4959045551921
 31
0.0
  0
LINE
  5
500
330
6C
100
AcDbEntity
  8
Visible (ANSI)
100
AcDbLine
 10
140.3168663897124
 20
32.22873985843668
 30
0.0
 11
140.3168663897124
 21
32.20756350342349
 31
0.0
  0
LINE
  5
501
330
6C
100
AcDbEntity
  8
Visible (ANSI)
100
AcDbLine
 10
140.3168663897124
 20
32.20756350342349
 30
0.0
 11
140.3739155180666
 21
32.24041591151724
 31
0.0
  0
LINE
  5
502
330
6C
100
AcDbEntity
  8
Visible (ANSI)
100
AcDbLine
 10
140.4284862578634
 20
32.27184111056069
 30
0.0
 11
140.8582626967278
 21
32.51933290168864
 31
0.0
  0
LINE
  5
503
330
6C
100
AcDbEntity
  8
Visible (ANSI)
100
AcDbLine
 10
140.8582626967278
 20
32.51983794345624
 30
0.0
 11
140.8582626967278
 21
32.51933290168864
 31
0.0
  0
POLYLINE
  5
504
330
6C
100
AcDbEntity
  8
Visible (ANSI)
100
AcDb2dPolyline
 66
     1
 10
0.0
 20
0.0
 30
0.0
 70
   128
  0
VERTEX
  5
505
330
504
100
AcDbEntity
  8
Visible (ANSI)
100
AcDbVertex
100
AcDb2dVertex
 10
140.3580212921022
 20
57.30504370888416
 30
0.0
  0
VERTEX
  5
506
330
504
100
AcDbEntity
  8
Visible (ANSI)
100
AcDbVertex
100
AcDb2dVertex
 10
140.3616339376382
 20
57.30015353622125
 30
0.0
  0
VERTEX
  5
508
330
504
100
AcDbEntity
  8
Visible (ANSI)
100
AcDbVertex
100
AcDb2dVertex
 10
140.365905097607
 20
57.29576489559939
 30
0.0
  0
VERTEX
  5
509
330
504
100
AcDbEntity
  8
Visible (ANSI)
100
AcDbVertex
100
AcDb2dVertex
 10
140.3706506984477
 20
57.29194299071782
 30
0.0
  0
VERTEX
  5
50A
330
504
100
AcDbEntity
  8
Visible (ANSI)
100
AcDbVertex
100
AcDb2dVertex
 10
140.3756170791867
 20
57.28874483828209
 30
0.0
  0
SEQEND
  5
507
330
504
100
AcDbEntity
  8
Visible (ANSI)
  0
POLYLINE
  5
50B
330
6C
100
AcDbEntity
  8
Visible (ANSI)
100
AcDb2dPolyline
 66
     1
 10
0.0
 20
0.0
 30
0.0
 70
   128
  0
VERTEX
  5
50C
330
50B
100
AcDbEntity
  8
Visible (ANSI)
100
AcDbVertex
100
AcDb2dVertex
 10
140.3168668945362
 20
57.39040229188623
 30
0.0
  0
VERTEX
  5
50D
330
50B
100
AcDbEntity
  8
Visible (ANSI)
100
AcDbVertex
100
AcDb2dVertex
 10
140.3171590155462
 20
57.38452107854372
 30
0.0
  0
VERTEX
  5
50F
330
50B
100
AcDbEntity
  8
Visible (ANSI)
100
AcDbVertex
100
AcDb2dVertex
 10
140.3180971282725
 20
57.37854037937475
 30
0.0
  0
VERTEX
  5
510
330
50B
100
AcDbEntity
  8
Visible (ANSI)
100
AcDbVertex
100
AcDb2dVertex
 10
140.3197615901827
 20
57.37266364121774
 30
0.0
  0
VERTEX
  5
511
330
50B
100
AcDbEntity
  8
Visible (ANSI)
100
AcDbVertex
100
AcDb2dVertex
 10
140.3221794783455
 20
57.36712497300565
 30
0.0
  0
SEQEND
  5
50E
330
50B
100
AcDbEntity
  8
Visible (ANSI)
  0
LINE
  5
512
330
6C
100
AcDbEntity
  8
Visible (ANSI)
100
AcDbLine
 10
140.9714289574642
 20
57.56917872885338
 30
0.0
 11
140.9714289574641
 21
32.58500605885799
 31
0.0
  0
LINE
  5
513
330
6C
100
AcDbEntity
  8
Visible (ANSI)
100
AcDbLine
 10
118.4571782202275
 20
70.66511472737575
 30
0.0
 11
140.8582626967279
 21
57.7651881168263
 31
0.0
  0
LINE
  5
514
330
6C
100
AcDbEntity
  8
Visible (ANSI)
100
AcDbLine
 10
118.4103032202275
 20
45.57709430204288
 30
0.0
 11
118.4103032202275
 21
45.66601595592788
 31
0.0
  0
LINE
  5
515
330
6C
100
AcDbEntity
  8
Visible (ANSI)
100
AcDbLine
 10
118.4103032202275
 20
69.11037169192851
 30
0.0
 11
118.4103032202275
 21
69.48116370259099
 31
0.0
  0
LINE
  5
516
330
6C
100
AcDbEntity
  8
Visible (ANSI)
100
AcDbLine
 10
139.9225060879343
 20
33.13484433709059
 30
0.0
 11
139.6012442140106
 21
33.31984674626992
 31
0.0
  0
LINE
  5
517
330
6C
100
AcDbEntity
  8
Visible (ANSI)
100
AcDbLine
 10
118.532525957038
 20
45.45251467930699
 30
0.0
 11
118.4571782202275
 21
45.4959045551921
 31
0.0
  0
SPLINE
  5
518
330
6C
100
AcDbEntity
  8
Visible (ANSI)
100
AcDbSpline
210
0.0
220
0.0
230
1.0
 70
     8
 71
     3
 72
    11
 73
     7
 74
     0
 42
0.0000000001
 43
0.0000000001
 40
0.0
 40
0.0
 40
0.0
 40
0.0
 40
1.084645898258661
 40
1.084645898258661
 40
1.084645898258661
 40
1.570796326794961
 40
1.570796326794961
 40
1.570796326794961
 40
1.570796326794961
 10
58.02291030154112
 20
90.60703711481369
 30
0.0
 10
58.06244564453265
 20
90.60703711481369
 30
0.0
 10
58.10111886201362
 20
90.63034127287883
 30
0.0
 10
58.11959079450915
 20
90.66529597292529
 30
0.0
 10
58.1278701213503
 20
90.68096306062114
 30
0.0
 10
58.13226030154113
 20
90.69866693169354
 30
0.0
 10
58.13226030154113
 20
90.71638711481368
 30
0.0
  0
LINE
  5
519
330
6C
100
AcDbEntity
  8
Visible (ANSI)
100
AcDbLine
 10
58.03851030154112
 20
90.71638711481368
 30
0.0
 11
58.03851030154118
 21
91.48203711481366
 31
0.0
  0
LINE
  5
51A
330
6C
100
AcDbEntity
  8
Visible (ANSI)
100
AcDbLine
 10
58.03851030154112
 20
90.71638711481368
 30
0.0
 11
58.13226030154113
 21
90.71638711481366
 31
0.0
  0
SPLINE
  5
51B
330
6C
100
AcDbEntity
  8
Visible (ANSI)
100
AcDbSpline
210
0.0
220
0.0
230
1.0
 70
     8
 71
     3
 72
     8
 73
     4
 74
     0
 42
0.0000000001
 43
0.0000000001
 40
0.0
 40
0.0
 40
0.0
 40
0.0
 40
1.570796326794961
 40
1.570796326794961
 40
1.570796326794961
 40
1.570796326794961
 10
58.02291030154112
 20
90.7007871148137
 30
0.0
 10
58.03107844244046
 20
90.70078711481368
 30
0.0
 10
58.03851030154112
 20
90.70821897391434
 30
0.0
 10
58.03851030154112
 20
90.71638711481368
 30
0.0
  0
LINE
  5
51C
330
6C
100
AcDbEntity
  8
Visible (ANSI)
100
AcDbLine
 10
58.02291030154112
 20
90.7007871148137
 30
0.0
 11
58.02291030154112
 21
90.68411605594276
 31
0.0
  0
LINE
  5
51D
330
6C
100
AcDbEntity
  8
Visible (ANSI)
100
AcDbLine
 10
58.02291030154112
 20
90.68411605594276
 30
0.0
 11
58.02291030154112
 21
90.60703711481369
 31
0.0
  0
LINE
  5
51E
330
6C
100
AcDbEntity
  8
Visible (ANSI)
100
AcDbLine
 10
58.13226030154113
 20
90.71638711481366
 30
0.0
 11
58.13226030154117
 21
91.48203711481366
 31
0.0
  0
LINE
  5
51F
330
6C
100
AcDbEntity
  8
Visible (ANSI)
100
AcDbLine
 10
58.03851030154118
 20
91.48203711481366
 30
0.0
 11
58.13226030154117
 21
91.48203711481366
 31
0.0
  0
SPLINE
  5
520
330
6C
100
AcDbEntity
  8
Visible (ANSI)
100
AcDbSpline
210
0.0
220
0.0
230
1.0
 70
     8
 71
     3
 72
    11
 73
     7
 74
     0
 42
0.0000000001
 43
0.0000000001
 40
0.0
 40
0.0
 40
0.0
 40
0.0
 40
1.084645898258663
 40
1.084645898258663
 40
1.084645898258663
 40
1.570796326794961
 40
1.570796326794961
 40
1.570796326794961
 40
1.570796326794961
 10
26.24161030154112
 20
90.60703711481369
 30
0.0
 10
26.25327785875339
 20
90.60703711481371
 30
0.0
 10
26.26494541596566
 20
90.63034127287886
 30
0.0
 10
26.27661297317793
 20
90.66529597292534
 30
0.0
 10
26.28184250287774
 20
90.68096306062118
 30
0.0
 10
26.28707203257754
 20
90.69866693169357
 30
0.0
 10
26.29230156227735
 20
90.71638711481373
 30
0.0
  0
SPLINE
  5
521
330
6C
100
AcDbEntity
  8
Visible (ANSI)
100
AcDbSpline
210
0.0
220
0.0
230
1.0
 70
     8
 71
     3
 72
    11
 73
     7
 74
     0
 42
0.0000000001
 43
0.0000000001
 40
0.0
 40
0.0
 40
0.0
 40
0.0
 40
1.084645898259341
 40
1.084645898259341
 40
1.084645898259341
 40
1.570796326795329
 40
1.570796326795329
 40
1.570796326795329
 40
1.570796326795329
 10
57.97221904080489
 20
90.71638711481375
 30
0.0
 10
57.98388659801716
 20
90.6768517718222
 30
0.0
 10
57.99555415522943
 20
90.6381785543412
 30
0.0
 10
58.00722171244172
 20
90.61970662184565
 30
0.0
 10
58.01245124214151
 20
90.61142729500451
 30
0.0
 10
58.01768077184132
 20
90.60703711481368
 30
0.0
 10
58.02291030154112
 20
90.60703711481368
 30
0.0
  0
LINE
  5
522
330
6C
100
AcDbEntity
  8
Visible (ANSI)
100
AcDbLine
 10
57.97221904080489
 20
91.48203711481372
 30
0.0
 11
57.97221904080489
 21
90.71638711481371
 31
0.0
  0
SPLINE
  5
523
330
6C
100
AcDbEntity
  8
Visible (ANSI)
100
AcDbSpline
210
0.0
220
0.0
230
1.0
 70
     8
 71
     3
 72
     8
 73
     4
 74
     0
 42
0.0000000001
 43
0.0000000001
 40
0.0
 40
0.0
 40
0.0
 40
0.0
 40
1.570796326795329
 40
1.570796326795329
 40
1.570796326795329
 40
1.570796326795329
 10
58.02291030154112
 20
90.7007871148137
 30
0.0
 10
58.00601321462905
 20
90.7007871148137
 30
0.0
 10
57.98911612771696
 20
90.70821897391438
 30
0.0
 10
57.97221904080489
 20
90.71638711481369
 30
0.0
  0
SPLINE
  5
524
330
6C
100
AcDbEntity
  8
Visible (ANSI)
100
AcDbSpline
210
0.0
220
0.0
230
1.0
 70
     8
 71
     3
 72
     8
 73
     4
 74
     0
 42
0.0000000001
 43
0.0000000001
 40
0.0
 40
0.0
 40
0.0
 40
0.0
 40
1.570796326794961
 40
1.570796326794961
 40
1.570796326794961
 40
1.570796326794961
 10
26.24161030154112
 20
90.7007871148137
 30
0.0
 10
26.25850738845319
 20
90.7007871148137
 30
0.0
 10
26.27540447536527
 20
90.70821897391436
 30
0.0
 10
26.29230156227735
 20
90.71638711481368
 30
0.0
  0
LINE
  5
525
330
6C
100
AcDbEntity
  8
Visible (ANSI)
100
AcDbLine
 10
26.24161030154112
 20
90.7007871148137
 30
0.0
 11
26.24161030154112
 21
90.68411605594276
 31
0.0
  0
LINE
  5
526
330
6C
100
AcDbEntity
  8
Visible (ANSI)
100
AcDbLine
 10
26.24161030154112
 20
90.68411605594276
 30
0.0
 11
26.24161030154112
 21
90.60703711481369
 31
0.0
  0
LINE
  5
527
330
6C
100
AcDbEntity
  8
Visible (ANSI)
100
AcDbLine
 10
26.29230156227734
 20
90.71638711481369
 30
0.0
 11
26.29230156227735
 21
91.4820371148137
 31
0.0
  0
SPLINE
  5
528
330
6C
100
AcDbEntity
  8
Visible (ANSI)
100
AcDbSpline
210
0.0
220
0.0
230
1.0
 70
     8
 71
     3
 72
    11
 73
     7
 74
     0
 42
0.0000000001
 43
0.0000000001
 40
0.0
 40
0.0
 40
0.0
 40
0.0
 40
1.084645898258926
 40
1.084645898258926
 40
1.084645898258926
 40
1.570796326794893
 40
1.570796326794893
 40
1.570796326794893
 40
1.570796326794893
 10
26.13226030154112
 20
90.71638711481368
 30
0.0
 10
26.13226030154112
 20
90.67685177182212
 30
0.0
 10
26.15556445960628
 20
90.63817855434116
 30
0.0
 10
26.19051915965276
 20
90.61970662184565
 30
0.0
 10
26.20618624734859
 20
90.61142729500451
 30
0.0
 10
26.22389011842098
 20
90.60703711481369
 30
0.0
 10
26.24161030154112
 20
90.60703711481369
 30
0.0
  0
LINE
  5
529
330
6C
100
AcDbEntity
  8
Visible (ANSI)
100
AcDbLine
 10
26.22601030154112
 20
90.71638711481368
 30
0.0
 11
26.22601030154112
 21
91.48203711481366
 31
0.0
  0
LINE
  5
52A
330
6C
100
AcDbEntity
  8
Visible (ANSI)
100
AcDbLine
 10
26.13226030154112
 20
91.48203711481366
 30
0.0
 11
26.13226030154112
 21
90.71638711481368
 31
0.0
  0
LINE
  5
52B
330
6C
100
AcDbEntity
  8
Visible (ANSI)
100
AcDbLine
 10
26.22601030154112
 20
90.71638711481368
 30
0.0
 11
26.13226030154112
 21
90.71638711481368
 31
0.0
  0
LINE
  5
52C
330
6C
100
AcDbEntity
  8
Visible (ANSI)
100
AcDbLine
 10
26.22601030154112
 20
91.48203711481366
 30
0.0
 11
26.13226030154112
 21
91.48203711481366
 31
0.0
  0
SPLINE
  5
52D
330
6C
100
AcDbEntity
  8
Visible (ANSI)
100
AcDbSpline
210
0.0
220
0.0
230
1.0
 70
     8
 71
     3
 72
     8
 73
     4
 74
     0
 42
0.0000000001
 43
0.0000000001
 40
0.0
 40
0.0
 40
0.0
 40
0.0
 40
1.570796326794893
 40
1.570796326794893
 40
1.570796326794893
 40
1.570796326794893
 10
26.24161030154112
 20
90.7007871148137
 30
0.0
 10
26.23344216064179
 20
90.70078711481368
 30
0.0
 10
26.22601030154112
 20
90.70821897391434
 30
0.0
 10
26.22601030154112
 20
90.71638711481368
 30
0.0
  0
LINE
  5
52E
330
6C
100
AcDbEntity
  8
Visible (ANSI)
100
AcDbLine
 10
58.02291030154112
 20
90.60703711481369
 30
0.0
 11
26.24161030154112
 21
90.60703711481369
 31
0.0
  0
LINE
  5
52F
330
6C
100
AcDbEntity
  8
Hidden (ANSI)
 48
1.098254919052124
100
AcDbLine
 10
26.24161030154112
 20
90.7007871148137
 30
0.0
 11
58.02291030154112
 21
90.7007871148137
 31
0.0
  0
LINE
  5
530
330
6C
100
AcDbEntity
  8
Visible (ANSI)
100
AcDbLine
 10
26.29230156227735
 20
91.4820371148137
 30
0.0
 11
57.97221904080489
 21
91.48203711481372
 31
0.0
  0
LINE
  5
531
330
6C
100
AcDbEntity
  8
Hidden (ANSI)
 48
0.0177565310150385
100
AcDbLine
 10
57.53876030154113
 20
90.70078711481347
 30
0.0
 11
57.53876030154113
 21
90.60703711481346
 31
0.0
  0
LINE
  5
532
330
6C
100
AcDbEntity
  8
Hidden (ANSI)
 48
0.0177565310150385
100
AcDbLine
 10
56.97576030154113
 20
90.70078711481347
 30
0.0
 11
56.97576030154113
 21
90.60703711481346
 31
0.0
  0
LINE
  5
533
330
6C
100
AcDbEntity
  8
Hidden (ANSI)
 48
0.0177565310150385
100
AcDbLine
 10
27.28876030154112
 20
90.70078711481347
 30
0.0
 11
27.28876030154112
 21
90.60703711481346
 31
0.0
  0
LINE
  5
534
330
6C
100
AcDbEntity
  8
Hidden (ANSI)
 48
0.0177565310150385
100
AcDbLine
 10
26.72576030154112
 20
90.70078711481347
 30
0.0
 11
26.72576030154112
 21
90.60703711481346
 31
0.0
  0
MTEXT
  5
535
330
6C
100
AcDbEntity
  8
Symbol (ANSI)
100
AcDbMText
 10
38.22303308312982
 20
85.0536763872696
 30
0.0
 40
1.200000014830761
 41
0.0
 46
0.0
 71
     7
 72
     1
  1
TOP VIEW
  7
Text Style153
 73
     1
 44
1.0
  0
LINE
  5
536
330
6C
100
AcDbEntity
  8
Symbol (ANSI)
370
    30
100
AcDbLine
 10
38.22399308559928
 20
84.8089600135207
 30
0.0
 11
45.7954678592766
 21
84.8089600135207
 31
0.0
  0
LINE
  5
537
330
6C
100
AcDbEntity
  8
Center Mark (ANSI)
  6
CHAIN
 48
0.170057401061058
100
AcDbLine
 10
27.00726030152919
 20
67.51054949452234
 30
0.0
 11
27.00726030152919
 21
64.44754949452233
 31
0.0
  0
LINE
  5
538
330
6C
100
AcDbEntity
  8
Center Mark (ANSI)
  6
CHAIN
 48
0.170057401061058
100
AcDbLine
 10
57.2572603015292
 20
67.51054949452234
 30
0.0
 11
57.2572603015292
 21
64.44754949452233
 31
0.0
  0
LINE
  5
539
330
6C
100
AcDbEntity
  8
Centerline (ANSI)
  6
CHAIN
 48
0.9524481296539306
100
AcDbLine
 10
25.47576030152919
 20
65.97904949452233
 30
0.0
 11
58.7887603015292
 21
65.97904949452233
 31
0.0
  0
LINE
  5
53A
330
6C
100
AcDbEntity
  8
Center Mark (ANSI)
  6
CHAIN
 48
0.170057401061058
100
AcDbLine
 10
58.7887603015292
 20
65.97904949452233
 30
0.0
 11
55.72576030152919
 21
65.97904949452233
 31
0.0
  0
LINE
  5
53B
330
6C
100
AcDbEntity
  8
Center Mark (ANSI)
  6
CHAIN
 48
0.170057401061058
100
AcDbLine
 10
58.7887603015292
 20
36.84904949452234
 30
0.0
 11
55.72576030152919
 21
36.84904949452234
 31
0.0
  0
LINE
  5
53C
330
6C
100
AcDbEntity
  8
Centerline (ANSI)
  6
CHAIN
 48
0.9524481296539306
100
AcDbLine
 10
57.2572603015292
 20
67.51054949452234
 30
0.0
 11
57.2572603015292
 21
35.31754949452234
 31
0.0
  0
LINE
  5
53D
330
6C
100
AcDbEntity
  8
Center Mark (ANSI)
  6
CHAIN
 48
0.170057401061058
100
AcDbLine
 10
57.2572603015292
 20
35.31754949452234
 30
0.0
 11
57.2572603015292
 21
38.38054949452234
 31
0.0
  0
LINE
  5
53E
330
6C
100
AcDbEntity
  8
Center Mark (ANSI)
  6
CHAIN
 48
0.170057401061058
100
AcDbLine
 10
27.00726030152918
 20
35.31754949452234
 30
0.0
 11
27.00726030152918
 21
38.38054949452234
 31
0.0
  0
LINE
  5
53F
330
6C
100
AcDbEntity
  8
Centerline (ANSI)
  6
CHAIN
 48
0.9524481296539306
100
AcDbLine
 10
58.7887603015292
 20
36.84904949452234
 30
0.0
 11
25.47576030152918
 21
36.84904949452234
 31
0.0
  0
LINE
  5
540
330
6C
100
AcDbEntity
  8
Center Mark (ANSI)
  6
CHAIN
 48
0.170057401061058
100
AcDbLine
 10
25.47576030152918
 20
36.84904949452234
 30
0.0
 11
28.53876030152918
 21
36.84904949452234
 31
0.0
  0
LINE
  5
541
330
6C
100
AcDbEntity
  8
Center Mark (ANSI)
  6
CHAIN
 48
0.170057401061058
100
AcDbLine
 10
25.47576030152919
 20
65.97904949452233
 30
0.0
 11
28.53876030152919
 21
65.97904949452233
 31
0.0
  0
LINE
  5
542
330
6C
100
AcDbEntity
  8
Centerline (ANSI)
  6
CHAIN
 48
0.9524481296539306
100
AcDbLine
 10
27.00726030152918
 20
35.31754949452234
 30
0.0
 11
27.00726030152919
 21
67.51054949452234
 31
0.0
  0
DIMENSION
  5
543
330
6C
100
AcDbEntity
  8
Dimension (ANSI)
100
AcDbDimension
280
     0
  2
*D4
 10
58.1322603015292
 20
75.35542555662073
 30
0.0
 11
42.13226030152919
 21
75.35542555662073
 31
0.0
 70
   160
  1
<>
 42
32.00000000000001
 73
     0
 74
     0
 75
     0
  3
Default (ANSI)
100
AcDbAlignedDimension
 13
26.13226030152919
 23
66.69400823378611
 33
0.0
 14
58.1322603015292
 24
66.69400823378611
 34
0.0
100
AcDbRotatedDimension
1001
ACAD
1000
DSTYLE
1002
{
1070
   289
1070
     1
1070
    73
1070
     0
1070
    74
1070
     0
1070
   271
1070
     2
1070
   272
1070
     2
1070
    48
1040
0.0
1070
    47
1040
0.0
1002
}
  0
DIMENSION
  5
62F
330
6C
100
AcDbEntity
  8
Dimension (ANSI)
100
AcDbDimension
280
     0
  2
*D5
 10
27.00726030152919
 20
71.44755736853809
 30
0.0
 11
21.80215408349906
 21
71.44755736853809
 31
0.0
 70
   160
  1
<>
 42
0.875
 73
     0
 74
     0
 75
     0
  3
Default (ANSI)
100
AcDbAlignedDimension
 13
26.13226030152919
 23
66.69400823378611
 33
0.0
 14
27.00726030152919
 24
67.51054949452234
 34
0.0
100
AcDbRotatedDimension
1001
ACAD
1000
DSTYLE
1002
{
1070
   289
1070
     1
1070
    73
1070
     0
1070
    74
1070
     0
1070
   271
1070
     2
1070
   272
1070
     2
1070
    48
1040
0.0
1070
    47
1040
0.0
1002
}
  0
DIMENSION
  5
719
330
6C
100
AcDbEntity
  8
Dimension (ANSI)
100
AcDbDimension
280
     0
  2
*D6
 10
57.2572603015292
 20
71.44755736853809
 30
0.0
 11
42.13226030152919
 21
71.44755736853809
 31
0.0
 70
   160
  1
<>
 42
30.25000000000001
 73
     0
 74
     0
 75
     0
  3
Default (ANSI)
100
AcDbAlignedDimension
 13
27.00726030152919
 23
67.51054949452234
 33
0.0
 14
57.2572603015292
 24
67.51054949452234
 34
0.0
 50
180.0
100
AcDbRotatedDimension
1001
ACAD
1000
DSTYLE
1002
{
1070
   289
1070
     1
1070
    73
1070
     0
1070
    74
1070
     0
1070
   271
1070
     2
1070
   272
1070
     2
1070
    48
1040
0.0
1070
    47
1040
0.0
1002
}
  0
DIMENSION
  5
803
330
6C
100
AcDbEntity
  8
Dimension (ANSI)
100
AcDbDimension
280
     0
  2
*D7
 10
24.37604430264305
 20
36.84904949452234
 30
0.0
 11
21.53875242751343
 21
33.10407283570093
 31
0.0
 70
   160
  1
<>
 42
0.875
 73
     0
 74
     0
 75
     0
  3
Default (ANSI)
100
AcDbAlignedDimension
 13
26.29230156226544
 23
35.97404949452233
 33
0.0
 14
25.47576030152918
 24
36.84904949452234
 34
0.0
 50
90.0
100
AcDbRotatedDimension
1001
ACAD
1000
DSTYLE
1002
{
1070
   289
1070
     1
1070
   271
1070
     2
1070
   272
1070
     2
1070
    48
1040
0.0
1070
    47
1040
0.0
1002
}
  0
DIMENSION
  5
903
330
6C
100
AcDbEntity
  8
Dimension (ANSI)
100
AcDbDimension
280
     0
  2
*D8
 10
21.53875242751345
 20
65.97904949452233
 30
0.0
 11
21.53875242751344
 21
51.41404949452233
 31
0.0
 70
   160
  1
<>
 42
29.12999999999999
 73
     0
 74
     0
 75
     0
  3
Default (ANSI)
100
AcDbAlignedDimension
 13
25.47576030152918
 23
36.84904949452234
 33
0.0
 14
25.47576030152919
 24
65.97904949452233
 34
0.0
 50
90.0
100
AcDbRotatedDimension
1001
ACAD
1000
DSTYLE
1002
{
1070
   289
1070
     1
1070
   271
1070
     2
1070
   272
1070
     2
1070
    48
1040
0.0
1070
    47
1040
0.0
1002
}
  0
DIMENSION
  5
9ED
330
6C
100
AcDbEntity
  8
Dimension (ANSI)
100
AcDbDimension
280
     0
  2
*D9
 10
15.26867951502135
 20
66.85404949452233
 30
0.0
 11
15.26867951502134
 21
51.41404949452233
 31
0.0
 70
   160
  1
<>
 42
30.87999999999999
 73
     0
 74
     0
 75
     0
  3
Default (ANSI)
100
AcDbAlignedDimension
 13
26.29230156226544
 23
35.97404949452233
 33
0.0
 14
26.29230156226542
 24
66.85404949452233
 34
0.0
 50
90.0
100
AcDbRotatedDimension
1001
ACAD
1000
DSTYLE
1002
{
1070
   289
1070
     1
1070
   271
1070
     2
1070
   272
1070
     2
1070
    48
1040
0.0
1070
    47
1040
0.0
1002
}
  0
DIMENSION
  5
AD7
330
6C
100
AcDbEntity
  8
Dimension (ANSI)
100
AcDbDimension
280
     0
  2
*D10
 10
57.08525042471618
 20
37.07188318200871
 30
0.0
 11
63.78258217010738
 21
33.86172912437409
 31
0.0
 70
   163
  1
<>{\P(4 PL.)}
 71
     4
 42
0.5629999999999999
 73
     0
 74
     0
 75
     0
  3
Default (ANSI)
100
AcDbDiametricDimension
 15
57.42927017834219
 25
36.62621580703597
 35
0.0
 40
0.0
1001
ACAD
1000
DSTYLE
1002
{
1070
   144
1040
1.000000000000014
1070
   271
1070
     3
1070
   272
1070
     3
1070
    48
1040
0.0
1070
    47
1040
0.0
1002
}
1001
ACAD_DSTYLE_DIMRADIAL_EXTENSION
1070
   387
1070
     1
1070
   388
1040
0.0
1070
   390
1040
0.0
  0
DIMENSION
  5
B91
330
6C
100
AcDbEntity
  8
Dimension (ANSI)
100
AcDbDimension
280
     0
  2
*D11
 10
51.28803059547712
 20
90.60703711481369
 30
0.0
 11
54.17246820756839
 21
95.70201379031971
 31
0.0
 70
   160
  1
<>{\PTYP.}
 71
     5
 42
0.8750000000000142
 73
     0
 74
     0
 75
     0
  3
Default (ANSI)
100
AcDbAlignedDimension
 13
54.17246820756839
 23
91.4820371148137
 33
0.0
 14
54.16813826210367
 24
90.60703711481369
 34
0.0
 50
270.0
100
AcDbRotatedDimension
1001
ACAD
1000
DSTYLE
1002
{
1070
   289
1070
     1
1070
   271
1070
     2
1070
    76
1070
     1
1070
    75
1070
     1
1070
   272
1070
     2
1070
    48
1040
0.0
1070
    47
1040
0.0
1002
}
  0
DIMENSION
  5
C9A
330
6C
100
AcDbEntity
  8
Dimension (ANSI)
100
AcDbDimension
280
     0
  2
*D12
 10
84.07065119766105
 20
65.25273920897882
 30
0.0
 11
89.36838303367215
 21
65.25273920897882
 31
0.0
 70
   160
  1
<>{\PTYP.}
 71
     4
 42
0.8750000000000284
 73
     0
 74
     0
 75
     0
  3
Default (ANSI)
100
AcDbAlignedDimension
 13
84.94565119766107
 23
65.25273920897882
 33
0.0
 14
84.07065119766105
 24
65.27827067780996
 34
0.0
 50
180.0
100
AcDbRotatedDimension
1001
ACAD
1000
DSTYLE
1002
{
1070
   289
1070
     1
1070
    73
1070
     0
1070
    74
1070
     0
1070
   271
1070
     2
1070
    76
1070
     1
1070
    75
1070
     1
1070
   272
1070
     2
1070
    48
1040
0.0
1070
    47
1040
0.0
1002
}
  0
MTEXT
  5
D89
102
{ACAD_XDICTIONARY
360
D90
102
}
330
6C
100
AcDbEntity
  8
Symbol (ANSI)
100
AcDbMText
 10
89.18566247019795
 20
12.68424019698111
 30
0.0
 40
1.000000031914297
 41
73.83387107548753
 46
0.0
 71
     4
 72
     1
  3
{\fRomanS|b0|i0|c0|p2;\H2x;PART#: WA72P36F2G\P(DATA SUBJECT TO CHANGE WITHOUT NOTICE)\H1.6157x; \H0.61894x;\P \H1.352x; \H0.73963x;\P\H0.6x;THIS DRAWING IS PROPERTY OF HUBBELL INC. WIEGMANN\H1.5633x; \H0.63966x;\PALL INFORMATION IS PROPRIETARY AND NO
  1
T TO BE DUPLICATED\H1.234x; \H0.81039x;\P\H1.2571x; }
  7
Note Text (ANSI)
 73
     1
 44
0.8026435375213623
  0
ENDSEC
  0
SECTION
  2
OBJECTS
  0
DICTIONARY
  5
C
330
0
100
AcDbDictionary
281
     1
  3
ACAD_CIP_PREVIOUS_PRODUCT_INFO
350
D8B
  3
ACAD_COLOR
350
63
  3
ACAD_GROUP
350
D
  3
ACAD_LAYOUT
350
62
  3
ACAD_MATERIAL
350
10
  3
ACAD_MLEADERSTYLE
350
66
  3
ACAD_MLINESTYLE
350
5F
  3
ACAD_PLOTSETTINGS
350
61
  3
ACAD_PLOTSTYLENAME
350
E
  3
ACAD_SCALELIST
350
42
  3
ACAD_TABLESTYLE
350
64
  3
ACAD_VISUALSTYLE
350
29
  3
ACDB_RECOMPOSE_DATA
350
D92
  3
AcDbVariableDictionary
350
76
  0
DICTIONARY
  5
D90
330
D89
100
AcDbDictionary
280
     1
281
     1
  3
ACAD_MTEXT_2008_RT
360
D91
  0
XRECORD
  5
D8B
102
{ACAD_REACTORS
330
C
102
}
330
C
100
AcDbXrecord
280
     1
300
INVNTOR
300
2012
300
PDSP_F_S
  0
DICTIONARY
  5
63
102
{ACAD_REACTORS
330
C
102
}
330
C
100
AcDbDictionary
281
     1
  0
DICTIONARY
  5
D
102
{ACAD_REACTORS
330
C
102
}
330
C
100
AcDbDictionary
281
     1
  0
DICTIONARY
  5
62
102
{ACAD_REACTORS
330
C
102
}
330
C
100
AcDbDictionary
281
     1
  3
Layout1
350
6B
  3
Layout2
350
73
  3
Model
350
6F
  0
DICTIONARY
  5
10
102
{ACAD_REACTORS
330
C
102
}
330
C
100
AcDbDictionary
281
     1
  3
ByBlock
350
19
  3
ByLayer
350
11
  3
Global
350
21
  0
DICTIONARY
  5
66
102
{ACAD_REACTORS
330
C
102
}
330
C
100
AcDbDictionary
281
     1
  3
Standard
350
67
  0
DICTIONARY
  5
5F
102
{ACAD_REACTORS
330
C
102
}
330
C
100
AcDbDictionary
281
     1
  3
Standard
350
60
  0
DICTIONARY
  5
61
102
{ACAD_REACTORS
330
C
102
}
330
C
100
AcDbDictionary
281
     1
  0
ACDBDICTIONARYWDFLT
  5
E
102
{ACAD_REACTORS
330
C
102
}
330
C
100
AcDbDictionary
281
     1
  3
Normal
350
F
100
AcDbDictionaryWithDefault
340
F
  0
DICTIONARY
  5
42
102
{ACAD_REACTORS
330
C
102
}
330
C
100
AcDbDictionary
281
     1
  3
A0
350
43
  3
A1
350
44
  3
A2
350
45
  3
A3
350
46
  3
A4
350
47
  3
A5
350
48
  3
A6
350
49
  3
A7
350
4A
  3
A8
350
4B
  3
A9
350
4C
  3
B0
350
4D
  3
B1
350
4E
  3
B2
350
4F
  3
B3
350
50
  3
B4
350
51
  3
B5
350
52
  3
B6
350
53
  0
DICTIONARY
  5
64
102
{ACAD_REACTORS
330
C
102
}
330
C
100
AcDbDictionary
281
     1
  3
Standard
350
65
  0
DICTIONARY
  5
29
102
{ACAD_REACTORS
330
C
102
}
330
C
100
AcDbDictionary
281
     1
  3
2dWireframe
350
2F
  3
Basic
350
2E
  3
Brighten
350
35
  3
ColorChange
350
39
  3
Conceptual
350
32
  3
Dim
350
34
  3
EdgeColorOff
350
41
  3
Facepattern
350
38
  3
Flat
350
2A
  3
FlatWithEdges
350
2B
  3
Gouraud
350
2C
  3
GouraudWithEdges
350
2D
  3
Hidden
350
31
  3
JitterOff
350
3F
  3
Linepattern
350
37
  3
OverhangOff
350
40
  3
Realistic
350
33
  3
Shaded
350
3E
  3
Shaded with edges
350
3D
  3
Shades of Gray
350
3A
  3
Sketchy
350
3B
  3
Thicken
350
36
  3
Wireframe
350
30
  3
X-Ray
350
3C
  0
XRECORD
  5
D92
102
{ACAD_REACTORS
330
C
102
}
330
C
100
AcDbXrecord
280
     1
 90
        1
330
65
330
D89
  0
DICTIONARY
  5
76
102
{ACAD_REACTORS
330
C
102
}
330
C
100
AcDbDictionary
281
     1
  3
CANNOSCALE
350
79
  3
CMLEADERSTYLE
350
78
  3
CTABLESTYLE
350
77
  0
XRECORD
  5
D91
102
{ACAD_REACTORS
330
D90
102
}
330
D90
100
AcDbXrecord
280
     1
 40
3109237.0
  1
\pxsm0.94;{\fRomanS|b0|i0;\H2.0000;PART#: WA72P36F2G\P(DATA SUBJECT TO CHANGE WITHOUT NOTICE)\P \P\fRomanS|b0|i0;\H1.2000;THIS DRAWING IS PROPERTY OF HUBBELL INC. WIEGMANN\PALL INFORMATION IS PROPRIETARY AND NOT TO BE DUPLICATED\P}
  0
LAYOUT
  5
6B
102
{ACAD_REACTORS
330
62
102
}
330
62
100
AcDbPlotSettings
  1

  2

  4

  6

 40
0.0
 41
0.0
 42
0.0
 43
0.0
 44
0.0
 45
0.0
 46
0.0
 47
0.0
 48
0.0
 49
0.0
140
0.0
141
0.0
142
1.0
143
1.0
 70
   688
 72
     0
 73
     0
 74
     5
  7

 75
    16
147
1.0
 76
     0
 77
     2
 78
   300
148
0.0
149
0.0
100
AcDbLayout
  1
Layout1
 70
     1
 71
     1
 10
0.0
 20
0.0
 11
12.0
 21
9.0
 12
0.0
 22
0.0
 32
0.0
 14
0.0
 24
0.0
 34
0.0
 15
0.0
 25
0.0
 35
0.0
146
0.0
 13
0.0
 23
0.0
 33
0.0
 16
1.0
 26
0.0
 36
0.0
 17
0.0
 27
1.0
 37
0.0
 76
     0
330
68
  0
LAYOUT
  5
73
102
{ACAD_REACTORS
330
62
102
}
330
62
100
AcDbPlotSettings
  1

  2

  4

  6

 40
0.0
 41
0.0
 42
0.0
 43
0.0
 44
0.0
 45
0.0
 46
0.0
 47
0.0
 48
0.0
 49
0.0
140
0.0
141
0.0
142
1.0
143
1.0
 70
   688
 72
     0
 73
     0
 74
     5
  7

 75
    16
147
1.0
 76
     0
 77
     2
 78
   300
148
0.0
149
0.0
100
AcDbLayout
  1
Layout2
 70
     1
 71
     2
 10
0.0
 20
0.0
 11
12.0
 21
9.0
 12
0.0
 22
0.0
 32
0.0
 14
0.0
 24
0.0
 34
0.0
 15
0.0
 25
0.0
 35
0.0
146
0.0
 13
0.0
 23
0.0
 33
0.0
 16
1.0
 26
0.0
 36
0.0
 17
0.0
 27
1.0
 37
0.0
 76
     0
330
70
  0
LAYOUT
  5
6F
102
{ACAD_REACTORS
330
62
102
}
330
62
100
AcDbPlotSettings
  1

  2

  4

  6

 40
0.0
 41
0.0
 42
0.0
 43
0.0
 44
0.0
 45
0.0
 46
0.0
 47
0.0
 48
0.0
 49
0.0
140
0.0
141
0.0
142
1.0
143
1.0
 70
  1712
 72
     0
 73
     0
 74
     0
  7

 75
     0
147
1.0
 76
     0
 77
     2
 78
   300
148
0.0
149
0.0
100
AcDbLayout
  1
Model
 70
     1
 71
     0
 10
0.0
 20
0.0
 11
12.0
 21
9.0
 12
0.0
 22
0.0
 32
0.0
 14
0.0
 24
0.0
 34
0.0
 15
0.0
 25
0.0
 35
0.0
146
0.0
 13
0.0
 23
0.0
 33
0.0
 16
1.0
 26
0.0
 36
0.0
 17
0.0
 27
1.0
 37
0.0
 76
     0
330
6C
  0
MATERIAL
  5
19
102
{ACAD_XDICTIONARY
360
1A
102
}
102
{ACAD_REACTORS
330
10
102
}
330
10
100
AcDbMaterial
  1
ByBlock
 72
     0
 43
0.0208333333333333
 43
0.0
 43
0.0
 43
0.0
 43
0.0
 43
0.0208333333333333
 43
0.0
 43
0.0
 43
0.0
 43
0.0
 43
1.0
 43
0.0
 43
0.0
 43
0.0
 43
0.0
 43
1.0
 77
     0
 47
0.0208333333333333
 47
0.0
 47
0.0
 47
0.0
 47
0.0
 47
0.0208333333333333
 47
0.0
 47
0.0
 47
0.0
 47
0.0
 47
1.0
 47
0.0
 47
0.0
 47
0.0
 47
0.0
 47
1.0
171
     0
 49
0.0208333333333333
 49
0.0
 49
0.0
 49
0.0
 49
0.0
 49
0.0208333333333333
 49
0.0
 49
0.0
 49
0.0
 49
0.0
 49
1.0
 49
0.0
 49
0.0
 49
0.0
 49
0.0
 49
1.0
175
     0
142
0.0208333333333333
142
0.0
142
0.0
142
0.0
142
0.0
142
0.0208333333333333
142
0.0
142
0.0
142
0.0
142
0.0
142
1.0
142
0.0
142
0.0
142
0.0
142
0.0
142
1.0
179
     0
144
0.0208333333333333
144
0.0
144
0.0
144
0.0
144
0.0
144
0.0208333333333333
144
0.0
144
0.0
144
0.0
144
0.0
144
1.0
144
0.0
144
0.0
144
0.0
144
0.0
144
1.0
147
0.0208333333333333
147
0.0
147
0.0
147
0.0
147
0.0
147
0.0208333333333333
147
0.0
147
0.0
147
0.0
147
0.0
147
1.0
147
0.0
147
0.0
147
0.0
147
0.0
147
1.0
  0
MATERIAL
  5
11
102
{ACAD_XDICTIONARY
360
12
102
}
102
{ACAD_REACTORS
330
10
102
}
330
10
100
AcDbMaterial
  1
ByLayer
 72
     0
 43
0.0208333333333333
 43
0.0
 43
0.0
 43
0.0
 43
0.0
 43
0.0208333333333333
 43
0.0
 43
0.0
 43
0.0
 43
0.0
 43
1.0
 43
0.0
 43
0.0
 43
0.0
 43
0.0
 43
1.0
 77
     0
 47
0.0208333333333333
 47
0.0
 47
0.0
 47
0.0
 47
0.0
 47
0.0208333333333333
 47
0.0
 47
0.0
 47
0.0
 47
0.0
 47
1.0
 47
0.0
 47
0.0
 47
0.0
 47
0.0
 47
1.0
171
     0
 49
0.0208333333333333
 49
0.0
 49
0.0
 49
0.0
 49
0.0
 49
0.0208333333333333
 49
0.0
 49
0.0
 49
0.0
 49
0.0
 49
1.0
 49
0.0
 49
0.0
 49
0.0
 49
0.0
 49
1.0
175
     0
142
0.0208333333333333
142
0.0
142
0.0
142
0.0
142
0.0
142
0.0208333333333333
142
0.0
142
0.0
142
0.0
142
0.0
142
1.0
142
0.0
142
0.0
142
0.0
142
0.0
142
1.0
179
     0
144
0.0208333333333333
144
0.0
144
0.0
144
0.0
144
0.0
144
0.0208333333333333
144
0.0
144
0.0
144
0.0
144
0.0
144
1.0
144
0.0
144
0.0
144
0.0
144
0.0
144
1.0
147
0.0208333333333333
147
0.0
147
0.0
147
0.0
147
0.0
147
0.0208333333333333
147
0.0
147
0.0
147
0.0
147
0.0
147
1.0
147
0.0
147
0.0
147
0.0
147
0.0
147
1.0
  0
MATERIAL
  5
21
102
{ACAD_XDICTIONARY
360
22
102
}
102
{ACAD_REACTORS
330
10
102
}
330
10
100
AcDbMaterial
  1
Global
 72
     0
 43
0.0208333333333333
 43
0.0
 43
0.0
 43
0.0
 43
0.0
 43
0.0208333333333333
 43
0.0
 43
0.0
 43
0.0
 43
0.0
 43
1.0
 43
0.0
 43
0.0
 43
0.0
 43
0.0
 43
1.0
 77
     0
 47
0.0208333333333333
 47
0.0
 47
0.0
 47
0.0
 47
0.0
 47
0.0208333333333333
 47
0.0
 47
0.0
 47
0.0
 47
0.0
 47
1.0
 47
0.0
 47
0.0
 47
0.0
 47
0.0
 47
1.0
171
     0
 49
0.0208333333333333
 49
0.0
 49
0.0
 49
0.0
 49
0.0
 49
0.0208333333333333
 49
0.0
 49
0.0
 49
0.0
 49
0.0
 49
1.0
 49
0.0
 49
0.0
 49
0.0
 49
0.0
 49
1.0
175
     0
142
0.0208333333333333
142
0.0
142
0.0
142
0.0
142
0.0
142
0.0208333333333333
142
0.0
142
0.0
142
0.0
142
0.0
142
1.0
142
0.0
142
0.0
142
0.0
142
0.0
142
1.0
179
     0
144
0.0208333333333333
144
0.0
144
0.0
144
0.0
144
0.0
144
0.0208333333333333
144
0.0
144
0.0
144
0.0
144
0.0
144
1.0
144
0.0
144
0.0
144
0.0
144
0.0
144
1.0
147
0.0208333333333333
147
0.0
147
0.0
147
0.0
147
0.0
147
0.0208333333333333
147
0.0
147
0.0
147
0.0
147
0.0
147
1.0
147
0.0
147
0.0
147
0.0
147
0.0
147
1.0
  0
MLEADERSTYLE
  5
67
102
{ACAD_XDICTIONARY
360
D8E
102
}
102
{ACAD_REACTORS
330
66
102
}
330
66
100
AcDbMLeaderStyle
179
     2
170
     2
171
     1
172
     0
 90
        2
 40
0.0
 41
0.0
173
     1
 91
-1056964608
340
5B
 92
       -2
290
     1
 42
0.09
291
     1
 43
0.36
  3
Standard
 44
0.18
300

342
55
174
     1
178
     6
175
     1
176
     0
 93
-1056964608
 45
0.18
292
     0
297
     0
 46
0.18
 94
-1056964608
 47
1.0
 49
1.0
140
1.0
293
     1
141
0.0
294
     1
177
     0
142
1.0
295
     0
296
     0
143
0.125
271
     0
272
     9
273
     9
  0
MLINESTYLE
  5
60
102
{ACAD_REACTORS
330
5F
102
}
330
5F
100
AcDbMlineStyle
  2
STANDARD
 70
     0
  3

 62
   256
 51
90.0
 52
90.0
 71
     2
 49
0.5
 62
   256
  6
BYLAYER
 49
-0.5
 62
   256
  6
BYLAYER
  0
ACDBPLACEHOLDER
  5
F
102
{ACAD_REACTORS
330
E
102
}
330
E
  0
SCALE
  5
43
102
{ACAD_REACTORS
330
42
102
}
330
42
100
AcDbScale
 70
     0
300
1:1
140
1.0
141
1.0
290
     1
  0
SCALE
  5
44
102
{ACAD_REACTORS
330
42
102
}
330
42
100
AcDbScale
 70
     0
300
1/128" = 1'-0"
140
0.0078125
141
12.0
290
     0
  0
SCALE
  5
45
102
{ACAD_REACTORS
330
42
102
}
330
42
100
AcDbScale
 70
     0
300
1/64" = 1'-0"
140
0.015625
141
12.0
290
     0
  0
SCALE
  5
46
102
{ACAD_REACTORS
330
42
102
}
330
42
100
AcDbScale
 70
     0
300
1/32" = 1'-0"
140
0.03125
141
12.0
290
     0
  0
SCALE
  5
47
102
{ACAD_REACTORS
330
42
102
}
330
42
100
AcDbScale
 70
     0
300
1/16" = 1'-0"
140
0.0625
141
12.0
290
     0
  0
SCALE
  5
48
102
{ACAD_REACTORS
330
42
102
}
330
42
100
AcDbScale
 70
     0
300
3/32" = 1'-0"
140
0.09375
141
12.0
290
     0
  0
SCALE
  5
49
102
{ACAD_REACTORS
330
42
102
}
330
42
100
AcDbScale
 70
     0
300
1/8" = 1'-0"
140
0.125
141
12.0
290
     0
  0
SCALE
  5
4A
102
{ACAD_REACTORS
330
42
102
}
330
42
100
AcDbScale
 70
     0
300
3/16" = 1'-0"
140
0.1875
141
12.0
290
     0
  0
SCALE
  5
4B
102
{ACAD_REACTORS
330
42
102
}
330
42
100
AcDbScale
 70
     0
300
1/4" = 1'-0"
140
0.25
141
12.0
290
     0
  0
SCALE
  5
4C
102
{ACAD_REACTORS
330
42
102
}
330
42
100
AcDbScale
 70
     0
300
3/8" = 1'-0"
140
0.375
141
12.0
290
     0
  0
SCALE
  5
4D
102
{ACAD_REACTORS
330
42
102
}
330
42
100
AcDbScale
 70
     0
300
1/2" = 1'-0"
140
0.5
141
12.0
290
     0
  0
SCALE
  5
4E
102
{ACAD_REACTORS
330
42
102
}
330
42
100
AcDbScale
 70
     0
300
3/4" = 1'-0"
140
0.75
141
12.0
290
     0
  0
SCALE
  5
4F
102
{ACAD_REACTORS
330
42
102
}
330
42
100
AcDbScale
 70
     0
300
1" = 1'-0"
140
1.0
141
12.0
290
     0
  0
SCALE
  5
50
102
{ACAD_REACTORS
330
42
102
}
330
42
100
AcDbScale
 70
     0
300
1-1/2" = 1'-0"
140
1.5
141
12.0
290
     0
  0
SCALE
  5
51
102
{ACAD_REACTORS
330
42
102
}
330
42
100
AcDbScale
 70
     0
300
3" = 1'-0"
140
3.0
141
12.0
290
     0
  0
SCALE
  5
52
102
{ACAD_REACTORS
330
42
102
}
330
42
100
AcDbScale
 70
     0
300
6" = 1'-0"
140
6.0
141
12.0
290
     0
  0
SCALE
  5
53
102
{ACAD_REACTORS
330
42
102
}
330
42
100
AcDbScale
 70
     0
300
1'-0" = 1'-0"
140
12.0
141
12.0
290
     0
  0
TABLESTYLE
  5
65
102
{ACAD_XDICTIONARY
360
D8C
102
}
102
{ACAD_REACTORS
330
64
102
}
330
64
100
AcDbTableStyle
280
     0
  3
Standard
 70
     0
 71
     0
 40
0.06
 41
0.06
280
     0
281
     0
  7
Standard
140
0.18
170
     2
 62
     0
 63
     7
283
     0
 90
      512
 91
        0
  1

274
    -2
284
     1
 64
     0
275
    -2
285
     1
 65
     0
276
    -2
286
     1
 66
     0
277
    -2
287
     1
 67
     0
278
    -2
288
     1
 68
     0
279
    -2
289
     1
 69
     0
  7
Standard
140
0.25
170
     5
 62
     0
 63
     7
283
     0
 90
      512
 91
        0
  1

274
    -2
284
     1
 64
     0
275
    -2
285
     1
 65
     0
276
    -2
286
     1
 66
     0
277
    -2
287
     1
 67
     0
278
    -2
288
     1
 68
     0
279
    -2
289
     1
 69
     0
  7
Standard
140
0.18
170
     5
 62
     0
 63
     7
283
     0
 90
      512
 91
        0
  1

274
    -2
284
     1
 64
     0
275
    -2
285
     1
 65
     0
276
    -2
286
     1
 66
     0
277
    -2
287
     1
 67
     0
278
    -2
288
     1
 68
     0
279
    -2
289
     1
 69
     0
  0
VISUALSTYLE
  5
2F
102
{ACAD_REACTORS
330
29
102
}
330
29
100
AcDbVisualStyle
  2
2dWireframe
 70
     4
177
     2
291
     0
 71
     0
176
     1
 72
     2
176
     1
 73
     0
176
     1
 90
        0
176
     1
 40
0.6
176
     1
 41
30.0
176
     1
 63
     7
421
 16777215
176
     1
 74
     1
176
     1
 91
        4
176
     1
 64
     7
176
     1
 65
   257
176
     1
 75
     1
176
     1
175
     1
176
     1
 42
1.0
176
     1
 92
        0
176
     1
 66
   257
176
     1
 43
1.0
176
     1
 76
     1
176
     1
 77
     6
176
     1
 78
     2
176
     1
 67
     7
176
     1
 79
     5
176
     1
170
     0
176
     1
171
     0
176
     1
290
     0
176
     1
 93
        1
176
     1
 44
0.0
176
     1
173
     0
176
     1
  0
VISUALSTYLE
  5
2E
102
{ACAD_REACTORS
330
29
102
}
330
29
100
AcDbVisualStyle
  2
Basic
 70
     7
177
     2
291
     1
 71
     1
176
     1
 72
     0
176
     1
 73
     1
176
     1
 90
        0
176
     1
 40
0.6
176
     1
 41
30.0
176
     1
 63
     7
421
 16777215
176
     1
 74
     0
176
     1
 91
        4
176
     1
 64
     7
176
     1
 65
   257
176
     1
 75
     1
176
     1
175
     1
176
     1
 42
1.0
176
     1
 92
        8
176
     1
 66
     7
176
     1
 43
1.0
176
     1
 76
     1
176
     1
 77
     6
176
     1
 78
     2
176
     1
 67
     7
176
     1
 79
     5
176
     1
170
     0
176
     1
171
     0
176
     1
290
     0
176
     1
 93
        1
176
     1
 44
0.0
176
     1
173
     0
176
     1
  0
VISUALSTYLE
  5
35
102
{ACAD_REACTORS
330
29
102
}
330
29
100
AcDbVisualStyle
  2
Brighten
 70
    12
177
     2
291
     1
 71
     2
176
     1
 72
     2
176
     1
 73
     0
176
     1
 90
        0
176
     1
 40
0.6
176
     1
 41
30.0
176
     1
 63
     7
421
 16777215
176
     1
 74
     1
176
     1
 91
        4
176
     1
 64
     7
176
     1
 65
   257
176
     1
 75
     1
176
     1
175
     1
176
     1
 42
1.0
176
     1
 92
        8
176
     1
 66
     7
176
     1
 43
1.0
176
     1
 76
     1
176
     1
 77
     6
176
     1
 78
     2
176
     1
 67
     7
176
     1
 79
     5
176
     1
170
     0
176
     1
171
     0
176
     1
290
     0
176
     1
 93
        1
176
     1
 44
50.0
176
     1
173
     0
176
     1
  0
VISUALSTYLE
  5
39
102
{ACAD_REACTORS
330
29
102
}
330
29
100
AcDbVisualStyle
  2
ColorChange
 70
    16
177
     2
291
     1
 71
     2
176
     1
 72
     2
176
     1
 73
     3
176
     1
 90
        0
176
     1
 40
0.6
176
     1
 41
30.0
176
     1
 63
     8
421
  8421504
176
     1
 74
     1
176
     1
 91
        4
176
     1
 64
     7
176
     1
 65
   257
176
     1
 75
     1
176
     1
175
     1
176
     1
 42
1.0
176
     1
 92
        8
176
     1
 66
     8
424
  8421504
176
     1
 43
1.0
176
     1
 76
     1
176
     1
 77
     6
176
     1
 78
     2
176
     1
 67
     7
176
     1
 79
     5
176
     1
170
     0
176
     1
171
     0
176
     1
290
     0
176
     1
 93
        1
176
     1
 44
0.0
176
     1
173
     0
176
     1
  0
VISUALSTYLE
  5
32
102
{ACAD_REACTORS
330
29
102
}
330
29
100
AcDbVisualStyle
  2
Conceptual
 70
     9
177
     2
291
     0
 71
     3
176
     1
 72
     2
176
     1
 73
     0
176
     1
 90
        0
176
     1
 40
0.6
176
     1
 41
30.0
176
     1
 63
     7
421
 16777215
176
     1
 74
     2
176
     1
 91
        2
176
     1
 64
     7
176
     1
 65
   257
176
     1
 75
     1
176
     1
175
     1
176
     1
 42
179.0
176
     1
 92
        8
176
     1
 66
     7
176
     1
 43
1.0
176
     1
 76
     1
176
     1
 77
     6
176
     1
 78
     2
176
     1
 67
     7
176
     1
 79
     3
176
     1
170
     0
176
     1
171
     0
176
     1
290
     0
176
     1
 93
        1
176
     1
 44
0.0
176
     1
173
     0
176
     1
  0
VISUALSTYLE
  5
34
102
{ACAD_REACTORS
330
29
102
}
330
29
100
AcDbVisualStyle
  2
Dim
 70
    11
177
     2
291
     1
 71
     2
176
     1
 72
     2
176
     1
 73
     0
176
     1
 90
        0
176
     1
 40
0.6
176
     1
 41
30.0
176
     1
 63
     7
421
 16777215
176
     1
 74
     1
176
     1
 91
        4
176
     1
 64
     7
176
     1
 65
   257
176
     1
 75
     1
176
     1
175
     1
176
     1
 42
1.0
176
     1
 92
        8
176
     1
 66
     7
176
     1
 43
1.0
176
     1
 76
     1
176
     1
 77
     6
176
     1
 78
     2
176
     1
 67
     7
176
     1
 79
     5
176
     1
170
     0
176
     1
171
     0
176
     1
290
     0
176
     1
 93
        1
176
     1
 44
-50.0
176
     1
173
     0
176
     1
  0
VISUALSTYLE
  5
41
102
{ACAD_REACTORS
330
29
102
}
330
29
100
AcDbVisualStyle
  2
EdgeColorOff
 70
    22
177
     2
291
     1
 71
     2
176
     0
 72
     2
176
     0
 73
     0
176
     0
 90
        0
176
     0
 40
0.6
176
     0
 41
30.0
176
     0
 63
     7
421
 16777215
176
     0
 74
     1
176
     0
 91
        4
176
     0
 64
     7
176
     0
 65
   257
176
     0
 75
     1
176
     0
175
     1
176
     0
 42
1.0
176
     0
 92
        8
176
     2
 66
     7
176
     0
 43
1.0
176
     0
 76
     1
176
     0
 77
     6
176
     0
 78
     2
176
     0
 67
     7
176
     0
 79
     5
176
     0
170
     0
176
     0
171
     0
176
     0
290
     0
176
     0
 93
        1
176
     0
 44
0.0
176
     0
173
     0
176
     0
  0
VISUALSTYLE
  5
38
102
{ACAD_REACTORS
330
29
102
}
330
29
100
AcDbVisualStyle
  2
Facepattern
 70
    15
177
     2
291
     1
 71
     2
176
     1
 72
     2
176
     1
 73
     0
176
     1
 90
        0
176
     1
 40
0.6
176
     1
 41
30.0
176
     1
 63
     7
421
 16777215
176
     1
 74
     1
176
     1
 91
        4
176
     1
 64
     7
176
     1
 65
   257
176
     1
 75
     1
176
     1
175
     1
176
     1
 42
1.0
176
     1
 92
        8
176
     1
 66
     7
176
     1
 43
1.0
176
     1
 76
     1
176
     1
 77
     6
176
     1
 78
     2
176
     1
 67
     7
176
     1
 79
     5
176
     1
170
     0
176
     1
171
     0
176
     1
290
     0
176
     1
 93
        1
176
     1
 44
0.0
176
     1
173
     0
176
     1
  0
VISUALSTYLE
  5
2A
102
{ACAD_REACTORS
330
29
102
}
330
29
100
AcDbVisualStyle
  2
Flat
 70
     0
177
     2
291
     1
 71
     2
176
     1
 72
     1
176
     1
 73
     1
176
     1
 90
        2
176
     1
 40
0.6
176
     1
 41
30.0
176
     1
 63
     7
421
 16777215
176
     1
 74
     0
176
     1
 91
        0
176
     1
 64
     7
176
     1
 65
   257
176
     1
 75
     1
176
     1
175
     1
176
     1
 42
1.0
176
     1
 92
        8
176
     1
 66
     7
176
     1
 43
1.0
176
     1
 76
     1
176
     1
 77
     6
176
     1
 78
     2
176
     1
 67
     7
176
     1
 79
     5
176
     1
170
     0
176
     1
171
     0
176
     1
290
     0
176
     1
 93
       13
176
     1
 44
0.0
176
     1
173
     0
176
     1
  0
VISUALSTYLE
  5
2B
102
{ACAD_REACTORS
330
29
102
}
330
29
100
AcDbVisualStyle
  2
FlatWithEdges
 70
     1
177
     2
291
     1
 71
     2
176
     1
 72
     1
176
     1
 73
     1
176
     1
 90
        2
176
     1
 40
0.6
176
     1
 41
30.0
176
     1
 63
     7
421
 16777215
176
     1
 74
     1
176
     1
 91
        0
176
     1
 64
     7
176
     1
 65
   257
176
     1
 75
     1
176
     1
175
     1
176
     1
 42
1.0
176
     1
 92
        0
176
     1
 66
   257
176
     1
 43
1.0
176
     1
 76
     1
176
     1
 77
     6
176
     1
 78
     2
176
     1
 67
     7
176
     1
 79
     5
176
     1
170
     0
176
     1
171
     0
176
     1
290
     0
176
     1
 93
       13
176
     1
 44
0.0
176
     1
173
     0
176
     1
  0
VISUALSTYLE
  5
2C
102
{ACAD_REACTORS
330
29
102
}
330
29
100
AcDbVisualStyle
  2
Gouraud
 70
     2
177
     2
291
     1
 71
     2
176
     1
 72
     2
176
     1
 73
     1
176
     1
 90
        2
176
     1
 40
0.6
176
     1
 41
30.0
176
     1
 63
     7
421
 16777215
176
     1
 74
     0
176
     1
 91
        0
176
     1
 64
     7
176
     1
 65
   257
176
     1
 75
     1
176
     1
175
     1
176
     1
 42
1.0
176
     1
 92
        0
176
     1
 66
     7
176
     1
 43
1.0
176
     1
 76
     1
176
     1
 77
     6
176
     1
 78
     2
176
     1
 67
     7
176
     1
 79
     5
176
     1
170
     0
176
     1
171
     0
176
     1
290
     0
176
     1
 93
       13
176
     1
 44
0.0
176
     1
173
     0
176
     1
  0
VISUALSTYLE
  5
2D
102
{ACAD_REACTORS
330
29
102
}
330
29
100
AcDbVisualStyle
  2
GouraudWithEdges
 70
     3
177
     2
291
     1
 71
     2
176
     1
 72
     2
176
     1
 73
     1
176
     1
 90
        2
176
     1
 40
0.6
176
     1
 41
30.0
176
     1
 63
     7
421
 16777215
176
     1
 74
     1
176
     1
 91
        0
176
     1
 64
     7
176
     1
 65
   257
176
     1
 75
     1
176
     1
175
     1
176
     1
 42
1.0
176
     1
 92
        0
176
     1
 66
   257
176
     1
 43
1.0
176
     1
 76
     1
176
     1
 77
     6
176
     1
 78
     2
176
     1
 67
     7
176
     1
 79
     5
176
     1
170
     0
176
     1
171
     0
176
     1
290
     0
176
     1
 93
       13
176
     1
 44
0.0
176
     1
173
     0
176
     1
  0
VISUALSTYLE
  5
31
102
{ACAD_REACTORS
330
29
102
}
330
29
100
AcDbVisualStyle
  2
Hidden
 70
     6
177
     2
291
     0
 71
     1
176
     1
 72
     2
176
     1
 73
     2
176
     1
 90
        0
176
     1
 40
0.6
176
     1
 41
30.0
176
     1
 63
     7
421
 16777215
176
     1
 74
     2
176
     1
 91
        2
176
     1
 64
     7
176
     1
 65
   257
176
     1
 75
     2
176
     1
175
     1
176
     1
 42
40.0
176
     1
 92
        0
176
     1
 66
   257
176
     1
 43
1.0
176
     1
 76
     1
176
     1
 77
     6
176
     1
 78
     2
176
     1
 67
     7
176
     1
 79
     3
176
     1
170
     0
176
     1
171
     0
176
     1
290
     0
176
     1
 93
        1
176
     1
 44
0.0
176
     1
173
     0
176
     1
  0
VISUALSTYLE
  5
3F
102
{ACAD_REACTORS
330
29
102
}
330
29
100
AcDbVisualStyle
  2
JitterOff
 70
    20
177
     2
291
     1
 71
     2
176
     0
 72
     2
176
     0
 73
     0
176
     0
 90
        0
176
     0
 40
0.6
176
     0
 41
30.0
176
     0
 63
     7
421
 16777215
176
     0
 74
     1
176
     0
 91
        4
176
     0
 64
     7
176
     0
 65
   257
176
     0
 75
     1
176
     0
175
     1
176
     0
 42
1.0
176
     0
 92
       10
176
     2
 66
     7
176
     0
 43
1.0
176
     0
 76
     1
176
     0
 77
     6
176
     0
 78
     2
176
     0
 67
     7
176
     0
 79
     5
176
     0
170
     0
176
     0
171
     0
176
     0
290
     0
176
     0
 93
        1
176
     0
 44
0.0
176
     0
173
     0
176
     0
  0
VISUALSTYLE
  5
37
102
{ACAD_REACTORS
330
29
102
}
330
29
100
AcDbVisualStyle
  2
Linepattern
 70
    14
177
     2
291
     1
 71
     2
176
     1
 72
     2
176
     1
 73
     0
176
     1
 90
        0
176
     1
 40
0.6
176
     1
 41
30.0
176
     1
 63
     7
421
 16777215
176
     1
 74
     1
176
     1
 91
        4
176
     1
 64
     7
176
     1
 65
   257
176
     1
 75
     7
176
     1
175
     7
176
     1
 42
1.0
176
     1
 92
        8
176
     1
 66
     7
176
     1
 43
1.0
176
     1
 76
     1
176
     1
 77
     6
176
     1
 78
     2
176
     1
 67
     7
176
     1
 79
     5
176
     1
170
     0
176
     1
171
     0
176
     1
290
     0
176
     1
 93
        1
176
     1
 44
0.0
176
     1
173
     0
176
     1
  0
VISUALSTYLE
  5
40
102
{ACAD_REACTORS
330
29
102
}
330
29
100
AcDbVisualStyle
  2
OverhangOff
 70
    21
177
     2
291
     1
 71
     2
176
     0
 72
     2
176
     0
 73
     0
176
     0
 90
        0
176
     0
 40
0.6
176
     0
 41
30.0
176
     0
 63
     7
421
 16777215
176
     0
 74
     1
176
     0
 91
        4
176
     0
 64
     7
176
     0
 65
   257
176
     0
 75
     1
176
     0
175
     1
176
     0
 42
1.0
176
     0
 92
        9
176
     2
 66
     7
176
     0
 43
1.0
176
     0
 76
     1
176
     0
 77
     6
176
     0
 78
     2
176
     0
 67
     7
176
     0
 79
     5
176
     0
170
     0
176
     0
171
     0
176
     0
290
     0
176
     0
 93
        1
176
     0
 44
0.0
176
     0
173
     0
176
     0
  0
VISUALSTYLE
  5
33
102
{ACAD_REACTORS
330
29
102
}
330
29
100
AcDbVisualStyle
  2
Realistic
 70
     8
177
     2
291
     0
 71
     2
176
     1
 72
     3
176
     1
 73
     0
176
     1
 90
        2
176
     1
 40
0.6
176
     1
 41
30.0
176
     1
 63
     7
421
 16777215
176
     1
 74
     0
176
     1
 91
        0
176
     1
 64
     7
176
     1
 65
   257
176
     1
 75
     1
176
     1
175
     1
176
     1
 42
1.0
176
     1
 92
        8
176
     1
 66
   257
176
     1
 43
1.0
176
     1
 76
     1
176
     1
 77
     6
176
     1
 78
     2
176
     1
 67
     7
176
     1
 79
     3
176
     1
170
     0
176
     1
171
     0
176
     1
290
     0
176
     1
 93
       13
176
     1
 44
0.0
176
     1
173
     0
176
     1
  0
VISUALSTYLE
  5
3E
102
{ACAD_REACTORS
330
29
102
}
330
29
100
AcDbVisualStyle
  2
Shaded
 70
    27
177
     2
291
     0
 71
     2
176
     1
 72
     2
176
     1
 73
     1
176
     1
 90
        2
176
     1
 40
0.6
176
     1
 41
30.0
176
     1
 63
     7
421
 16777215
176
     1
 74
     0
176
     1
 91
        4
176
     1
 64
     7
176
     1
 65
   257
176
     1
 75
     1
176
     1
175
     1
176
     1
 42
1.0
176
     1
 92
        8
176
     1
 66
   257
176
     1
 43
1.0
176
     1
 76
     1
176
     1
 77
     6
176
     1
 78
     2
176
     1
 67
     8
425
  7895160
176
     1
 79
     3
176
     1
170
     0
176
     1
171
     0
176
     1
290
     0
176
     1
 93
        5
176
     1
 44
0.0
176
     1
173
     0
176
     1
  0
VISUALSTYLE
  5
3D
102
{ACAD_REACTORS
330
29
102
}
330
29
100
AcDbVisualStyle
  2
Shaded with edges
 70
    26
177
     2
291
     0
 71
     2
176
     1
 72
     2
176
     1
 73
     1
176
     1
 90
        2
176
     1
 40
0.6
176
     1
 41
30.0
176
     1
 63
     7
421
 16777215
176
     1
 74
     1
176
     1
 91
       10
176
     1
 64
     7
176
     1
 65
   257
176
     1
 75
     2
176
     1
175
     1
176
     1
 42
1.0
176
     1
 92
        8
176
     1
 66
   257
176
     1
 43
1.0
176
     1
 76
     1
176
     1
 77
     6
176
     1
 78
     2
176
     1
 67
     7
176
     1
 79
     3
176
     1
170
     0
176
     1
171
     0
176
     1
290
     0
176
     1
 93
        5
176
     1
 44
0.0
176
     1
173
     0
176
     1
  0
VISUALSTYLE
  5
3A
102
{ACAD_REACTORS
330
29
102
}
330
29
100
AcDbVisualStyle
  2
Shades of Gray
 70
    23
177
     2
291
     0
 71
     2
176
     1
 72
     2
176
     1
 73
     3
176
     1
 90
        0
176
     1
 40
0.6
176
     1
 41
30.0
176
     1
 63
     7
421
 16777215
176
     1
 74
     2
176
     1
 91
        2
176
     1
 64
     7
176
     1
 65
     7
176
     1
 75
     1
176
     1
175
     1
176
     1
 42
40.0
176
     1
 92
        8
176
     1
 66
     7
176
     1
 43
1.0
176
     1
 76
     1
176
     1
 77
     6
176
     1
 78
     2
176
     1
 67
     7
176
     1
 79
     3
176
     1
170
     0
176
     1
171
     0
176
     1
290
     0
176
     1
 93
        1
176
     1
 44
0.0
176
     1
173
     0
176
     1
  0
VISUALSTYLE
  5
3B
102
{ACAD_REACTORS
330
29
102
}
330
29
100
AcDbVisualStyle
  2
Sketchy
 70
    24
177
     2
291
     0
 71
     1
176
     1
 72
     2
176
     1
 73
     2
176
     1
 90
        0
176
     1
 40
0.6
176
     1
 41
30.0
176
     1
 63
     7
421
 16777215
176
     1
 74
     2
176
     1
 91
        2
176
     1
 64
     7
176
     1
 65
     7
176
     1
 75
     1
176
     1
175
     1
176
     1
 42
40.0
176
     1
 92
       11
176
     1
 66
     7
176
     1
 43
1.0
176
     1
 76
     1
176
     1
 77
     6
176
     1
 78
     2
176
     1
 67
     7
176
     1
 79
     6
176
     1
170
     0
176
     1
171
     0
176
     1
290
     0
176
     1
 93
        1
176
     1
 44
0.0
176
     1
173
     0
176
     1
  0
VISUALSTYLE
  5
36
102
{ACAD_REACTORS
330
29
102
}
330
29
100
AcDbVisualStyle
  2
Thicken
 70
    13
177
     2
291
     1
 71
     2
176
     1
 72
     2
176
     1
 73
     0
176
     1
 90
        0
176
     1
 40
0.6
176
     1
 41
30.0
176
     1
 63
     7
421
 16777215
176
     1
 74
     1
176
     1
 91
        4
176
     1
 64
     7
176
     1
 65
   257
176
     1
 75
     1
176
     1
175
     1
176
     1
 42
1.0
176
     1
 92
       12
176
     1
 66
     7
176
     1
 43
1.0
176
     1
 76
     1
176
     1
 77
     6
176
     1
 78
     2
176
     1
 67
     7
176
     1
 79
     5
176
     1
170
     0
176
     1
171
     0
176
     1
290
     0
176
     1
 93
        1
176
     1
 44
0.0
176
     1
173
     0
176
     1
  0
VISUALSTYLE
  5
30
102
{ACAD_REACTORS
330
29
102
}
330
29
100
AcDbVisualStyle
  2
Wireframe
 70
     5
177
     2
291
     0
 71
     0
176
     1
 72
     2
176
     1
 73
     0
176
     1
 90
        0
176
     1
 40
0.6
176
     1
 41
30.0
176
     1
 63
     7
421
 16777215
176
     1
 74
     1
176
     1
 91
        4
176
     1
 64
     7
176
     1
 65
   257
176
     1
 75
     1
176
     1
175
     1
176
     1
 42
1.0
176
     1
 92
        0
176
     1
 66
   257
176
     1
 43
1.0
176
     1
 76
     1
176
     1
 77
     6
176
     1
 78
     2
176
     1
 67
     7
176
     1
 79
     3
176
     1
170
     0
176
     1
171
     0
176
     1
290
     0
176
     1
 93
        1
176
     1
 44
0.0
176
     1
173
     0
176
     1
  0
VISUALSTYLE
  5
3C
102
{ACAD_REACTORS
330
29
102
}
330
29
100
AcDbVisualStyle
  2
X-Ray
 70
    25
177
     2
291
     0
 71
     2
176
     1
 72
     2
176
     1
 73
     1
176
     1
 90
        1
176
     1
 40
0.5
176
     1
 41
30.0
176
     1
 63
     7
421
 16777215
176
     1
 74
     1
176
     1
 91
        0
176
     1
 64
     7
176
     1
 65
   257
176
     1
 75
     1
176
     1
175
     1
176
     1
 42
1.0
176
     1
 92
        8
176
     1
 66
     7
176
     1
 43
1.0
176
     1
 76
     1
176
     1
 77
     6
176
     1
 78
     2
176
     1
 67
     7
176
     1
 79
     3
176
     1
170
     0
176
     1
171
     0
176
     1
290
     0
176
     1
 93
       13
176
     1
 44
0.0
176
     1
173
     0
176
     1
  0
DICTIONARYVAR
  5
79
102
{ACAD_REACTORS
330
76
102
}
330
76
100
DictionaryVariables
280
     0
  1
1:1
  0
DICTIONARYVAR
  5
78
102
{ACAD_REACTORS
330
76
102
}
330
76
100
DictionaryVariables
280
     0
  1
STANDARD
  0
DICTIONARYVAR
  5
77
102
{ACAD_REACTORS
330
76
102
}
330
76
100
DictionaryVariables
280
     0
  1
STANDARD
  0
DICTIONARY
  5
1A
330
19
100
AcDbDictionary
280
     1
281
     1
  3
BUMPTILE
360
1C
  3
DIFFUSETILE
360
1B
  3
OPACITYTILE
360
1F
  3
REFLECTIONTILE
360
1E
  3
REFRACTIONTILE
360
20
  3
SPECULARTILE
360
1D
  0
DICTIONARY
  5
12
330
11
100
AcDbDictionary
280
     1
281
     1
  3
BUMPTILE
360
14
  3
DIFFUSETILE
360
13
  3
FBXASSET
360
109
  3
OPACITYTILE
360
17
  3
REFLECTIONTILE
360
16
  3
REFRACTIONTILE
360
18
  3
SPECULARTILE
360
15
  0
DICTIONARY
  5
22
330
21
100
AcDbDictionary
280
     1
281
     1
  3
BUMPTILE
360
24
  3
DIFFUSETILE
360
23
  3
FBXASSET
360
BA
  3
OPACITYTILE
360
27
  3
REFLECTIONTILE
360
26
  3
REFRACTIONTILE
360
28
  3
SPECULARTILE
360
25
  0
DICTIONARY
  5
D8E
330
67
100
AcDbDictionary
280
     1
281
     1
  3
ACAD_XREC_ROUNDTRIP
360
D8F
  0
DICTIONARY
  5
D8C
330
65
100
AcDbDictionary
280
     1
281
     1
  3
ACAD_ROUNDTRIP_2008_TABLESTYLE_CELLSTYLEMAP
360
D8D
  0
XRECORD
  5
1C
102
{ACAD_REACTORS
330
1A
102
}
330
1A
100
AcDbXrecord
280
     1
270
     1
271
     1
  0
XRECORD
  5
1B
102
{ACAD_REACTORS
330
1A
102
}
330
1A
100
AcDbXrecord
280
     1
270
     1
271
     1
  0
XRECORD
  5
1F
102
{ACAD_REACTORS
330
1A
102
}
330
1A
100
AcDbXrecord
280
     1
270
     1
271
     1
  0
XRECORD
  5
1E
102
{ACAD_REACTORS
330
1A
102
}
330
1A
100
AcDbXrecord
280
     1
270
     1
271
     1
  0
XRECORD
  5
20
102
{ACAD_REACTORS
330
1A
102
}
330
1A
100
AcDbXrecord
280
     1
270
     1
271
     1
  0
XRECORD
  5
1D
102
{ACAD_REACTORS
330
1A
102
}
330
1A
100
AcDbXrecord
280
     1
270
     1
271
     1
  0
XRECORD
  5
14
102
{ACAD_REACTORS
330
12
102
}
330
12
100
AcDbXrecord
280
     1
270
     1
271
     1
  0
XRECORD
  5
13
102
{ACAD_REACTORS
330
12
102
}
330
12
100
AcDbXrecord
280
     1
270
     1
271
     1
  0
XRECORD
  5
109
102
{ACAD_REACTORS
330
12
102
}
330
12
100
AcDbXrecord
280
     1
 70
     1
 90
1959938040
 71
     1
  1
6E62A586-3465-4F92-8C66-1BE39018A626
311
504B03040A00000800006B99D5423DEE336E79000000790000001B0000006175746F6465736B2D64657369676E2D7061636B6167652E786D6C3C3F786D6C2076657273696F6E3D22312E302220656E636F64696E673D227574662D3822203F3E3C666F726D6174733E3C666F726D61743E687474703A2F2F736368656D612E
311
6175746F6465736B2E636F6D2F64657369676E2D7061636B6167652F323030393C2F666F726D61743E3C2F666F726D6174733E504B03041400060808006B99D542D486FD9CA0000000F4000000130000005B436F6E74656E745F54797065735D2E786D6C7D8EC10E82300C865F65E91D8A1E8C310C0EEA1BF002731658846E
311
D98AC1B77784ABF1D8FE5FBFBF75BBCE937A534CCEB38643598122B6FEE978D0B0485F9C41B54DDD7D022595594E1A469170414C76A4D9A4D207E29CF43ECE46F218070CC6BECC4078ACAA135ACF422C856C0E68EA1BF5669944DDD7BCDE7B1F8E415D77AECB980613C2E4AC91FC167A2B244592486606FC29C8FD7F045B9A
311
EF7053A7E60B504B03041400060808006B99D542F5491658EC0000007C01000008000000636F72652E786D6C8D904D6EC3201085AF82D856D8FC38AE6D61A23AA94FD00B20202E4A0C9681AAC72F4E1CA9DD7535A337EF9B193D7EFC9E6FE0CBACC17AD7435260088C535E5B37F530C50B6A20380ABE7A1F7FD9207072363D
311
DC6428F8B4FAB4EC92F22E1A17B3EABC36BB284330110275CB4D0F83FA34B32C648AD911AEC522D5554EA620CF2EC329590D1E47ACCEFBECC59A158AA1656F23A3031A48FD8EAA131D51F35A61743E9FC643D592A6A95B5E6EB0E0D1CECFFB6A35321A0D05C584215C234A3E48DB11D251F6820F1DC3BCDCEC7FA0B4E87F42
311
C9BAC8E8FEEE030B5090FCC87D2078B96591CB3DA85CB7DCC40F504B03041400060808006B99D54255019EA25F0000007C00000007000000636E782E786D6C4DCB3B0E80201045D1AD90E915ED2CF8AC45050C11660C8261F98AB1B07AC9C97D42D718D865D3E909258CFD00CCE24AC6E326A164D74DC0B4128928FF326038
311
472BA13128B1252AC747C6BAB984FC68F0B87FE8960A5C09FE86CFB69FBA01504B03041400060808006B99D542E8B9610E68010000020300000C0000006662782F636F72652E786D6C8D52D18E823010FC95A6AF172805F4C0949A53CF2FB81FA850B946684969899F7F8B60382FC65C484A33B3B33B3BC0B6D7B64183B4BD
311
32BAC0348C3092BA3495D27581BD3B0719465BCEAC31EE5719465AB4B2C0238C39ABADF1DD0C95463BA91DA0DA54720645DF4B8751D9C0A5C07DF92D5B110AEFA0A2BF849D282FA296210D81863ACE7A67C1009A868C27E6E7D3959109E7CC7B55CDACAA609A3A2B6931DFE5C9C7318977C18EAE3F83741F1F83EC3D8D82C3
311
617F5CA539CDB275CEC828E6CCA9F6EEAEB4523859611E473409A27510D32F9A6F28DDC4C95BB4DA24112363F983C877D53F455E6997C4B3DD49D6634EC1C88DF8B32D44E4502F06F04338236388F0BA25FC18340402213B716AEE7B5C001A64E98C4D81A98C5FA841345EC2D408DD1E4626163ADF1AC0664FFBC42FFABCEE
311
011F50E81AAC0907D79377E374364D9DA3E8A40D067745DAD856348BB9C9E2722E839ECA4BD318FB1F35995725739864FC7BF90F504B03041400060808006B99D5427D3F91BD7D0000009D0000000B0000006662782F636E782E786D6C4DCCD10AC2201886E15B91FFDCE6CAD2401D9A5DC8686EC89C866974F96DB1838E3E
311
78F87845F759027ABBFCF2294A680F04908B8F34F83849A865C41C50A7444EA9FCDD00C57E7112360625A69CEA73A7C18D7D0D65D5E0E3BCA3A5961BA635BEE8DB0953AD2936E44EF0B5E5969C0933CC1CA151A2F995D6DDC2EA0B504B03041400060808006B99D542716B758C2C01000014020000310000006662782F4434
311
4438423741412D364143332D344141342D423045302D3931384430353037423742322F636F72652E786D6C8D515B6EC32010BC0AE22B55850DB6E3381126B29BDEA017A0405294182C1E558E5FA81DA9FDCB0F8B66676647BBF4789F6EE05B39AFADE921293004CA082BB5B9F4308633EA203832EAAC0D7F6810183EA91E66
311
18327A7136CE2B24AC09CA84841A2BD50A72EF558040DCD2A7875E7CA989173C86C4F0D762E6E2CA2FAA20456A271EA33EB814002C43F20BD9A93975E36E18503BBCD5A81986068DF81DA33DE94E788B77E36EAC68B908198D51CB55AE658AA3CF5AB9674DB298D1A0A7477CE1140F4A4256615223DCA28A7C90FD81904355
311
BFE2EDA1C6B4CCF47FA238CB2745519B50576BDC45E62123B45C1A8C4A1B3F6F8F30EA3E5B17409EB7F14ABC40860B4C48D7EE715AC0424D0B489E6DB37AFA605D5AF0E6FA99D864BB18B70DA365BE512ABF074C35DF93FD00504B03041400060808006B99D5425F7AAC394E01000033030000300000006662782F44344438
311
423741412D364143332D344141342D423045302D3931384430353037423742322F636E782E786D6CD593BD6E032110845F05D146F783CFB1128BC3528A3C418AB418D6313107277EA2F8EDB3D8D871E322651A749A1D66569F38BEF99E2CF982108D7723656D4F0938E5B5711F23CD69D73C51B2113C789F6E6C943839C148
311
8B4C05FF083ECF55D2B093D92654AD71872A06883E070511E5729358AFA4C500704D4611A62D680D9A5C8DF8B58380ABA0B83D92B407F2FAF24EFCF613548ABC2B298277A543F072D6A61B1325CACA18471AD51E26D9CA9CBC867868B54CB265EDA5EBCE4EBF49A45CB854E66048291F6939A9A81BB5C8917738143CA680F4
311
AA291D67A042CEB3354A2684DC9D8C678FE0D9B8B45A56AF41F001DD6C352C9718769A099ECC04D5A102C8049A8A45CF86A65F350BF6C69ED78CAD17C343FFB81E7ADE15BBE05BEF6DBD843110FC4C9477095CA282F1AE8CEFE1AB3EA24D40D63E1CFF001201D4D6339D6BC67FE6D39DDE37E20AF817881F504B0304140006
311
0808006B99D542FC37FDDCA505000081100000340000006662782F44344438423741412D364143332D344141342D423045302D3931384430353037423742322F6F626A656374732E786D6CAD575B6FDB3614FE2B82F6B23DF822DBF19C4151E1D8496174698B1A2DF660C0A0254AE1425D405289B35FBF8F22254BAE9D7A43
311
5F74E1E5F09CEF7CE742FFDD3EE5CE331592E5D98DEBF587AE43B3308F5896DCB8A58A7B33D77917F822CF556B99EB6424A537AE1E76033F117959D8A188C6A4E4EA68F4FEF62F478634A3AE137222E58D2BC3479A923E29551E51F9D48F8822FD24DEF7BDBE59D8159B08523C1E092D88A09982A618CF20C5314A79DDDFA1
311
3B08FC819E0F7CFDB4ABC6E7570D2A7BBAE7B34C2A9285DF1D762466EC4D9677A3ABEBDED56432EE4DA623AF777B7FBBEC79BF8F878BE962713DBFBBC6C1520948B29A081ABBC17B602358E80FCC54E0972C53E3915D621D3410F499694FB9C1C8F1FC8159D358678D3CA57E9867190D2BAC8046659F151DD18266117CCEA8
311
84662D8486DD5F4FE3D89A1EEB7F7B647BF83204DA3B5A826ADDEB775BD37CF7374C9097304848AA1968B0B4861AAE0E0F08EFF29CDB39269D94282A18E10E673B41C4AB1B60A95E12F81D319AC9424783B6C00DE00533DDA50BC2E8C73C3FA5655C72AE69EC0655146C112B54C94A33F60F1507EDDBC84027F84AB361660D
311
52AF0575836B4391D9119B0C904ECC490297C34CBD733C3A3274A1E374B574830FF7BBFD5AC7EEE9C30B911754284D1F50AB765CFDD628599DBC8B3CA737B847AA1C40F902E43F22D40FAAC06F82ED27FB893D450992C93817297CE30C9DDE108FA1E3554FFDDDFAF207CDE6AEF7CEE109676BA87E029E5D1BDABE6CC119F8
311
CF207C2EC6D6B4754838D2C603CB00902689C3730C210FC7BBBD1BAC90E59095B18BF0C083C950F7199FFEC08A41A2A84E6ABD33607994162F48D080AD6224D430E4B70A1EFCF45D3AAB0EB6CBCEC17BF553E83A5FAE3FAC4B1193903ED8985ED298654CA1C41D78D356A88379C7A227FAFA928B08867E8FF7BA8D776A8F92
311
405B63AE814FEA9CAE7F0E27770E08B12FC975BAF17F70028CD085B525FF81C990724E329A97F5B96FD60F940D03B10E76CDE4A6C01C0A0B4863668E6210453A14ACD02036D5AA499AFD33D67D5D7D0423DDE0F6F54FF2DACE5EBB43EE0D739E8BEDEE756BD2D249A8BF75B96D31186829A07B152475FC5BD0B7118BE35222
311
099EC0F5DB6AD1F69D4E0B4811B554132D13D88FE022C292B6968B6A2D082A699E6D19EA26E2EEE4016DF980D432A012784E634979BC659C97E936661CD5689B92E20C1CFF5FFF5D99165B92E665A6CEC8EEA88EEAD0D5BDC35EF94254F8E806EBEADDBB45EE8D6874860CBA969CC0AAE3DAE9DD7434BF9A4D7BE3C9F4AA37
311
B9BF1EF5668BE9B4E7DDDE8DAF87DE6C3E1D4D6B3F194D02BF2E35ED88869750DAFC5230EBBEAF2BC48F4D026EF04094DCBC37E159BFBFAEFAE885FD01F6A05E361BE7D133FA3E1AFD58C061E54941ABB4E034A599223A861EF407FF42D067749431E3AB9424F402299FDEAF8F8CC1C805FB3EEB78A72F477BEDE84207E449
311
21EAB14C771961FC68636290EC175962F1AB7DD2BC4DA1A97FF59F750C3A53997316210F464E42F3942A64C30B8A9048A904F5DA3D7D64EF1E17EC7E361DA2223B4E6B4D1E099A642E1116A05619AAEEB8F30B9A3ADD57DDB828B7FD273C6CA6701D70E6C64593AE5848657F8702AD5BA14A38B8D4EEE4D1F8932CE1E8B5CD
311
A6E6BFD9A5B1E994E466C925FD93B5CBA4706B00D24881BE010D11BC532913F8956E763EFC4F86D7EA3844E17357AAC696C340634C750C42D418656F0B68629EECD17B04EADB6679FD6A4D07918B6E596F92C048ED292292EAA6A0F5B32ACD979F07E8509CD527A7E065025F5E2EA92728C85CEA00078BC00A2BB3200A545D
311
FCB1F92C72DC6453E79E8102CEAFFBD9F4B7CD224FD33C33439BB9BD0F3BEB47DC6EA30D9203D5D712B9190DBDD1A6BA0ED81BCA764724ED93483E61009E15AC01BAE37EF0D2DC195187CC44B36EA05D71C4D0D5D2B1856D02A1962EEDDCAAC141E391510731A4AF943A62DA0B8A376F04836A295410E8E5837F01504B0304
311
1400060800006B99D542000000000000000000000000350000006662782F44344438423741412D364143332D344141342D423045302D3931384430353037423742322F76657274696365732E62696E504B03041400060808006B99D542F270F1330600000004000000360000006662782F44344438423741412D364143332D
311
344141342D423045302D3931384430353037423742322F747269616E676C65732E62696E636660600000504B03041400060800006B99D542000000000000000000000000370000006662782F44344438423741412D364143332D344141342D423045302D3931384430353037423742322F617474726962757465732E62696E
311
504B03041400060808006B99D542D5987DFC8F00000041010000360000006662782F44344438423741412D364143332D344141342D423045302D3931384430353037423742322F6469726563746F72792E786D6C858F410EC2201045AF4266AF15DDB800BA74E7C21B903225242D6328188F2FA5C4183471359997F9FF81E8
311
9FF3C41E1816475E02DF1F80A11FC8386F25A438EECEC07A250251FC3803E6F58C12560C4AD840E95E91C151A72936F496F35732D860FE635F62C8F2DA16B505C545B74125BAA2FA9E05D7CC053D063734D5C7665FD55B6B8D15D5E9BFEAFD8490FFA45E504B03041400060808006B99D5429DA34B69FE000000A00100003B
311
0000006662782F44344438423741412D364143332D344141342D423045302D3931384430353037423742322F7265736F75726365732F636F72652E786D6C8D50596E833010BD0A9ADFCA80815040C6519672825EC032136A25D8C84BD5E3D7042AB57FFD9919BD45F3F4D8F16B7E249F689D32BA079AE690A09666547AEA21
311
F81B69203972668DF1BF64906831630F2B0C9C4DD6846587A4D11EB58FA83623EEA0700E3D24F2118F1E9CFCC059A422F8A870F77411F22E264C691AE9A8E3CC791B0324DB937502B7E84CB0121DCB3696B310D4B86BD4187FAA9B420BFCDC96A7A12C4EE44CEB37525D8A8134AF554EAED7CB70A85ADA3475CBB2D5CC9957
311
F34F466951781C8117392D495E9382BED3B6A3B42BCA97FCD09539CB56F91F5358C67F9A82D2BE2CF6B89BCD01A731C893E02C5BFB8AEB5966DC6BB7FC1B504B010214000A00000800006B99D5423DEE336E79000000790000001B00000000000000000000000000000000006175746F6465736B2D64657369676E2D706163
311
6B6167652E786D6C504B010214001400060808006B99D542D486FD9CA0000000F40000001300000000000000000000000000B20000005B436F6E74656E745F54797065735D2E786D6C504B010214001400060808006B99D542F5491658EC0000007C010000080000000000000000000000000083010000636F72652E786D6C
311
504B010214001400060808006B99D54255019EA25F0000007C000000070000000000000000000000000095020000636E782E786D6C504B010214001400060808006B99D542E8B9610E68010000020300000C00000000000000000000000000190300006662782F636F72652E786D6C504B010214001400060808006B99D542
311
7D3F91BD7D0000009D0000000B00000000000000000000000000AB0400006662782F636E782E786D6C504B010214001400060808006B99D542716B758C2C010000140200003100000000000000000000000000510500006662782F44344438423741412D364143332D344141342D423045302D393138443035303742374232
311
2F636F72652E786D6C504B010214001400060808006B99D5425F7AAC394E010000330300003000000000000000000000000000CC0600006662782F44344438423741412D364143332D344141342D423045302D3931384430353037423742322F636E782E786D6C504B010214001400060808006B99D542FC37FDDCA5050000
311
811000003400000000000000000000000000680800006662782F44344438423741412D364143332D344141342D423045302D3931384430353037423742322F6F626A656374732E786D6C504B010214001400060800006B99D54200000000000000000000000035000000000000000000000000005F0E00006662782F443444
311
38423741412D364143332D344141342D423045302D3931384430353037423742322F76657274696365732E62696E504B010214001400060808006B99D542F270F13306000000040000003600000000000000000000000000B20E00006662782F44344438423741412D364143332D344141342D423045302D39313844303530
311
37423742322F747269616E676C65732E62696E504B010214001400060800006B99D54200000000000000000000000037000000000000000000000000000C0F00006662782F44344438423741412D364143332D344141342D423045302D3931384430353037423742322F617474726962757465732E62696E504B0102140014
311
00060808006B99D542D5987DFC8F000000410100003600000000000000000000000000610F00006662782F44344438423741412D364143332D344141342D423045302D3931384430353037423742322F6469726563746F72792E786D6C504B010214001400060808006B99D5429DA34B69FE000000A00100003B0000000000
311
0000000000000000441000006662782F44344438423741412D364143332D344141342D423045302D3931384430353037423742322F7265736F75726365732F636F72652E786D6C504B0506000000000E000E00800400009B1100000000
310
504B03040A00000800006B99D5423DEE336E79000000790000001B0000006175746F6465736B2D64657369676E2D7061636B6167652E786D6C3C3F786D6C2076657273696F6E3D22312E302220656E636F64696E673D227574662D3822203F3E3C666F726D6174733E3C666F726D61743E687474703A2F2F736368656D612E
310
6175746F6465736B2E636F6D2F64657369676E2D7061636B6167652F323030393C2F666F726D61743E3C2F666F726D6174733E504B03041400060808006B99D542D486FD9CA0000000F4000000130000005B436F6E74656E745F54797065735D2E786D6C7D8EC10E82300C865F65E91D8A1E8C310C0EEA1BF002731658846E
310
D98AC1B77784ABF1D8FE5FBFBF75BBCE937A534CCEB38643598122B6FEE978D0B0485F9C41B54DDD7D022595594E1A469170414C76A4D9A4D207E29CF43ECE46F218070CC6BECC4078ACAA135ACF422C856C0E68EA1BF5669944DDD7BCDE7B1F8E415D77AECB980613C2E4AC91FC167A2B244592486606FC29C8FD7F045B9A
310
EF7053A7E60B504B03041400060808006B99D542BBDE7223EB0000007C01000008000000636F72652E786D6C8D90416EC3201045AF82665B6183891DDBC24455549FA01740401C94182C03558F5F9C3852BBEB6A467FFE9B197D7EFA9EEFE8CBACC17A37002D0820E394D7D64D03A478C12DA093E0ABF7F1970D9093B31960
310
9341F069F569D925E55D342E66D5796D76518660222075CFCD00415DCD2C0B996276845BB14875939329E8ABCB704A56A3E711ABF33E7BB16605F13E765DC38E0DFEA0D5880F23AB71DB76074C8FF5B16DCF67D2748C971B2C78B4F3EBBE5A8D8C4683A808659834B8A29FB4EB29ED2BF646EA9E115E6EF63F505AF43FA164
310
5D64D5FEEE130B20687EE43110BCDCB2C8E51154AE5B6EE207504B03041400060808006B99D54255019EA25F0000007C00000007000000636E782E786D6C4DCB3B0E80201045D1AD90E915ED2CF8AC45050C11660C8261F98AB1B07AC9C97D42D718D865D3E909258CFD00CCE24AC6E326A164D74DC0B4128928FF32603847
310
2BA13128B1252AC747C6BAB984FC68F0B87FE8960A5C09FE86CFB69FBA01504B03041400060808006B99D542E9BA155C67010000020300000C0000006662782F636F72652E786D6C8D52ED8A8330107C9590BF87C6686BB5C494A35C9FE05E20D5D40BD54462227DFC5B3F8AD7A39422C430B3B33B3BCA0EB7B64183B4BD32
310
BAC0348C3092BA3495D27581BDBB04194607CEAC31EE4F19465AB4B2C0238C39ABADF1DD0295463BA91DA0DA54720145DF4B8751D9C0A5C07DF9235B110AEFA0A2BF869D28AFA296210D81863ACE7A67C1009A878C27E697F38D9119E7CC7B552DACAA609ABA286931FF3CE5799AECD2E08BC6A760734AB64196E59B80EEB6
310
BB2C3B1EA3344F1819C59C39D5DEDD95560A272BCCE3882641940631FDA6F99ED27D9C7C44DB7D123132963F887C57BD29F24ABB245EECCEB21E730A4626E2DFB6109143BD18C00FE18C8C21C26B4AF8316808044276E2DCDCF7B80234C8D219BB01A6327EA506D178095323343D8CCC2C749E1AC0664FFBC42FFABCEE011F
310
50E81AAC0907D7B377E374364F5DA2E8A40D067743DAD85634ABB9D9E27AAE839ECA4BD318FB8E9A2CAB92254C32FEBDFC17504B03041400060808006B99D5428C5FAF017D0000009D0000000B0000006662782F636E782E786D6C4DCCD10A83201886E15B91FFDCA5E85A076AD8B2FB886521330DA76397BF1A1DECE88387
310
8F57B49FD5A3B74D2F1783047A21806C78C4C9854542C9336E00B54AA418F3DF0D5018572BE160506249B16C274D761E8BCFBB7A179E271273658CF70CEB7BCD30A7B4C69A753D1E0C37A41B6E94EA062A25AA5F69DF23ACBE504B03041400060808006B99D54294EAAF0E2A01000014020000310000006662782F30453533
310
333444332D414336332D343131362D413342442D4645344530424637313141382F636F72652E786D6C8D51ED6EC220147D15C22F9785164AED9CA1189DFA047B010474440B0D1F8B8F3F586BB2FDF30F979C7BCEB9072EDBDC871BF8D63E18677B482A0C81B6D229632F3D4CF18C56106C38F3CEC53F3408AC18740F0B0C39
310
BB7897C61992CE466D6346AD537A0645083A42206FF9D2C320BFF4202A916266846B350A7915175D912AB7338FB3107D0E00A621E5841C1F9694B67B8AB61F1D452D211DDAD2DD1E1D0FED01EF8E6F846C57AC9E849CA564D42C372AC73167A3FDB32645CC5934C323BEF45A44AD206F30A10877A8219FE47D4DC8BAA1AF78
310
B9A698D585FE4F9446F5A428191B6933C79D640172C2EAA9C19972E9747B84D1F7D1F908CABC45D0F225BFAAC2A421B86B1B564FD4FC01D9B36B67CF109DCF1FBCB89E329BCEC65DCB595D7694CBEF02732DFBE43F504B03041400060808006B99D54239DD632E5601000033030000300000006662782F3045353333344433
310
2D414336332D343131362D413342442D4645344530424637313141382F636E782E786D6CBD93CD6EC32010845F0571ADFC839D5A698489D4439FA0875E316C1A1A1B2CC055F3F65D1292E69243A5AA1764CD0E33AB4F986FBFA6917C820FC6D99EB2B2A604AC72DAD8F79E2E7157AC29D90AEE9D8B37364AAC9CA0A749A682
310
BF7BB7CC59D2B093CB18511D8D3D64D143708B5710504E37C9E8941C31006CB1A008D3005A832657237EEDC0E32A280E4712F7405E9EDF881B3E40C5C0AB942278953A044F676EBA3151A24619424F83DAC3244BB944A7211C4A2DA32C5979E9BAB3D34F1249172E958B372495F7349D54E48D4AE4C82B1C0A1EA2477AD914
310
8F335021E779344A46845C9D8C678FE08BB1B15B65AF41F01EDD6DD3ADD718769A091ECD04D9A13CC8089A8AA6666D517745C35ED9D386B14DD33ED48F9BB6E655B20B3E3837E64B1803DECD44391BC1462A18AFD2F81EBEEC23DA7864EDFCF1172011406E3DD3B966FC251FD6B5ABD53FF2A94EEF1B7179FC0BC437504B03
310
041400060808006B99D5420805454B630700009A1B0000340000006662782F30453533333444332D414336332D343131362D413342442D4645344530424637313141382F6F626A656374732E786D6CED59DD73A33610FF5718FAD23E181BDB71930EA19338971BCF35773775AFD307CF3032C8448D108C2492B87F7D571F60
310
2026C16DFAD6071B10D26AF7B79F5A829F9F33EA3C622E48CE2E5DDF9BB80E66719E10965EBAA5DC8DCE5DE7E730E0792E1BD35C87A10C5FBA6AD80D8394E765618712BC4325959DD1DBEB3F1C1163865D27A648884B57C4F738431E2A659E60F1E02548222FDD3D7BBE6726B6C9A61C15F71DA205E29849E014C61950710C
310
537EFB71E28EC360ACDE8781FAB7B3668366CDFB678DB5D46D2E091312B1F8054B1D32B3412CCDFCF9CD87E9D9C5E86C3E9F8DE68BA93FBABEBDBE19F93FCE26CBC5727971F5E102D8DBE639B53225B8C02C01FDEDDDD00FC6EA4D2DBA45E018D771CE188E3590009516AB4B9060015B35E09BB41F7D2551E3B596B0F13C57
310
EF2D0B8DE1599B4ADFAC6140B4E8822076BB4AE2EADA942FDFFE09828B2146C90596C0AD901CB46BE1E1E0156E3809C666340CB6075D10E16448624E107528D972C4412930554D0903B3C09251CEC18194A324D09A33AFDBB6059EF9B6EB1CE3725752AA3CC30DB56345E07E580ACD19F90BF303F74D64802790B6244C9E5B
310
2EE5BEC06E78118CF56018A8CB6C6A5F1A209D1D45A9D08898B71D4197CAF557376EF8E976FBBC56E1E0F8E605CF0BCCA5323AA547CD1718B2BD2A94ECB6FE20CDA905208C01D5AE3C80F22B20FF19A2C78115D01B27CFF3E7B99D2B39626297F30C74E34C9CD104FE268EAFFFD57DE32E18D78BDBDAEBC313DC544175FEEF
310
F16CCBA0B1B2FC37E00C834730F89CCFECAB758C28D8F31D610090321287E63004A17DB77D76C315044E08F4B00AD1D0079181DD47B80DC696CC412B957B59AF6380A8DD63364449009BB64860A3474F1F217B70121FD4D414B10FDEB37731D7AB9BF5A775C97728C677D6A76FF08E3022216B1E67A885794BA207BC7FCA79
310
0282BEC47BDDC43BB35B09405B61AE804F2B10D4C361E7D60631AC4B73156E823776002154AE6ED0BF2322C6942286F3B2DAB78E6ECA506B8FB735831B4E0DC4B369C784397E24AAAA00A739CC68310A793FE6A45020BAE14723591D34BD1EE9BEAD3E8345D6F37B66AD18845E86E86F3A681DC1A165D915D216885AE0ED21
310
9CC739CD79B4DD4726D2B9504B001B6D6FF9BD451462BD5192A2021EA4FDAE0A29A991364AC86E570A88AB4758FC7DB56C9AC3C49BF9674EF3BFE38C7388B6E0BB885BBFEBEC11910CA538DAA1A46FBBE66E356DA149F690E67847412EF248E43E42329A24383D059A93885FBC2BF594E642108605E4ABA3E037D198781048
310
8C362B9695563B4013116558227A0A028A4C0FB83AEDE81A3786D2E16D1E6BEB7D4D634DA2FF91457004B564CE2202A528E4903719F7BD3388216D740DCA1D7CC1DA2ADA5A0C5A420911EFA3274CD27B790AEA867C0FEE311C494A19E5058AC1AC07907DE12B4AA91DDEB7287E50F9238A4BFA5E062230DD4584D2328BE047
310
189C3C86B8761D985E45A141DCC43E893328CA902CF9904D16679317FB989AA11B021B1BED0885B01D65A8E841BD1510753DE2D4E05BEA3D4ADD965911A12C2FD92043F1665D6FB2E4BB6A556407F2AB4A45281B2BC29660181026EBAC5AC56C30751D58C18D74A0DA4702650535A7B037128F5F7B93A6DCBB01B77EFABE1B
310
6450F8F568AF1951E7150C96C75661209E908CEFDD70ADAFA36BA8BF139C1C527D556B362B40404C45F29213ABA26F2B286F6C8DE68677488ACD479375ABEBB79507DD8F600C6BA076A917AE14D0196612A9CAE44EDDD05F1184E0160D33BE5239F5142A5749A2AB46446F499F3A5B65446BD38C78C53D6679063FB6212CA6
310
65823728110FD19DA4D19A28D6AD945E462A8C5F15F0CBC775071E181920D25755E0E1A7CE5A3BBA54E5D25122F2BECCB60C1108822DD152A31BAF60A9D548A5E5FAAACE14507781815915CFFF3F5934DB11FF9F2C526B18FFEA6471BDFF05ED9B7D91463A8F955D9F740CA8F393A2F21EC700DD76A8A9D659C424732BBF75
310
A608826215E507576355D03004FB38FEC759BB2F0B9AED3AFC9F96B5FD1715C74959A5355975A98E54AEAB660E5B7C584CAFCECE17A3D97C71369ADF5E4C47E7CBC562E45F7F985D4CFCF3ABC57451A3A91D350CEA60A673173C9BA0560DAB278B017465454E4902A7F9C44931C47C0967FA01ED739E6101C9B3D9EC4E6C53
310
7EC0EA47D3E794684B71C5C93D8206311590D601A33296ED71E73B684D4A38685FBAD034F21EE0CF5AA5EB40E6B974A15520498C85B78536936AE869E2907275EEB7C4001FC4529512CDA2FAB95EA5B06985FF7ACA903460E56AF530A0702BA0FBD5EA5068DE2C4FF1498257EC3848C2EDB69450AD19590E03B5307A9B83FA
310
8D6C94B007BBF533B8EEEB62F99E9ED34264D02783578DC0501D49C453DDEF568C5996AE6EBE8EA1CFE6ACBE38052D53D0E5704A238EC1984B555081158155589A059260AACB9F365F790E9F7832475745CEF7CFE78B1F36CB3CCB7266863657702A4BE04391B3BE87CF3EC9068A07AC9AEB62339DF8D38D6E6ADB3E7BB445
310
027BAA2A8281AA985082744C0EECF24583CAB62FC74A159DE9AB1BC706516806183B7AD1E3351FB91CF021F53945798CF6F34ADA57FBDA633D156C8243473AFC1B504B03041400060800006B99D542000000000000000000000000350000006662782F30453533333444332D414336332D343131362D413342442D46453445
310
30424637313141382F76657274696365732E62696E504B03041400060808006B99D542F270F1330600000004000000360000006662782F30453533333444332D414336332D343131362D413342442D4645344530424637313141382F747269616E676C65732E62696E636660600000504B03041400060800006B99D5420000
310
00000000000000000000370000006662782F30453533333444332D414336332D343131362D413342442D4645344530424637313141382F617474726962757465732E62696E504B03041400060808006B99D542D5987DFC8F00000041010000360000006662782F30453533333444332D414336332D343131362D413342442D
310
4645344530424637313141382F6469726563746F72792E786D6C858F410EC2201045AF4266AF15DDB800BA74E7C21B903225242D6328188F2FA5C4183471359997F9FF81E89FF3C41E1816475E02DF1F80A11FC8386F25A438EECEC07A250251FC3803E6F58C12560C4AD840E95E91C151A72936F496F35732D860FE635F62
310
C8F2DA16B505C545B74125BAA2FA9E05D7CC053D063734D5C7665FD55B6B8D15D5E9BFEAFD8490FFA45E504B03041400060808006B99D542D3342F12FD000000A00100003B0000006662782F30453533333444332D414336332D343131362D413342442D4645344530424637313141382F7265736F75726365732F636F7265
310
2E786D6C8D50596AC33010BD8A99DF22DBB2E21559A184E604BD809027AE482C192DA5C7AF1CBBD0FEF56766780BF378FCFCB53CB24F745E5B3302CD4BC8D0283B69338F10C38D74909D0577D6865F32C88C5C70840D06C16767E37A40CA9A802624D4D8090F507A8F0132F548C7085E7DE02273194352F87BBE4A759733E6
310
344F74D209EE834B01B2FDC9364138F4363A859E173B2B788C7A3A347A4A3FF54DA303F17AEDFB86B53579A3D5959CAEAC265DD79F086DEBB6EB2E97B2E9192F36B3E0412F3F19954319700251959491B221157DA7FD40E950B197B21E58C98B4DFEC714D7E99FA6A84D60D51177B779103405791282175B5F693DCB4C7BEB
310
567C03504B010214000A00000800006B99D5423DEE336E79000000790000001B00000000000000000000000000000000006175746F6465736B2D64657369676E2D7061636B6167652E786D6C504B010214001400060808006B99D542D486FD9CA0000000F40000001300000000000000000000000000B20000005B436F6E74
310
656E745F54797065735D2E786D6C504B010214001400060808006B99D542BBDE7223EB0000007C010000080000000000000000000000000083010000636F72652E786D6C504B010214001400060808006B99D54255019EA25F0000007C000000070000000000000000000000000094020000636E782E786D6C504B01021400
310
1400060808006B99D542E9BA155C67010000020300000C00000000000000000000000000180300006662782F636F72652E786D6C504B010214001400060808006B99D5428C5FAF017D0000009D0000000B00000000000000000000000000A90400006662782F636E782E786D6C504B010214001400060808006B99D54294EA
310
AF0E2A0100001402000031000000000000000000000000004F0500006662782F30453533333444332D414336332D343131362D413342442D4645344530424637313141382F636F72652E786D6C504B010214001400060808006B99D54239DD632E56010000330300003000000000000000000000000000C80600006662782F
310
30453533333444332D414336332D343131362D413342442D4645344530424637313141382F636E782E786D6C504B010214001400060808006B99D5420805454B630700009A1B000034000000000000000000000000006C0800006662782F30453533333444332D414336332D343131362D413342442D464534453042463731
310
3141382F6F626A656374732E786D6C504B010214001400060800006B99D5420000000000000000000000003500000000000000000000000000211000006662782F30453533333444332D414336332D343131362D413342442D4645344530424637313141382F76657274696365732E62696E504B010214001400060808006B
310
99D542F270F13306000000040000003600000000000000000000000000741000006662782F30453533333444332D414336332D343131362D413342442D4645344530424637313141382F747269616E676C65732E62696E504B010214001400060800006B99D542000000000000000000000000370000000000000000000000
310
0000CE1000006662782F30453533333444332D414336332D343131362D413342442D4645344530424637313141382F617474726962757465732E62696E504B010214001400060808006B99D542D5987DFC8F000000410100003600000000000000000000000000231100006662782F30453533333444332D414336332D3431
310
31362D413342442D4645344530424637313141382F6469726563746F72792E786D6C504B010214001400060808006B99D542D3342F12FD000000A00100003B00000000000000000000000000061200006662782F30453533333444332D414336332D343131362D413342442D4645344530424637313141382F7265736F7572
310
6365732F636F72652E786D6C504B0506000000000E000E00800400005C1300000000
  0
XRECORD
  5
17
102
{ACAD_REACTORS
330
12
102
}
330
12
100
AcDbXrecord
280
     1
270
     1
271
     1
  0
XRECORD
  5
16
102
{ACAD_REACTORS
330
12
102
}
330
12
100
AcDbXrecord
280
     1
270
     1
271
     1
  0
XRECORD
  5
18
102
{ACAD_REACTORS
330
12
102
}
330
12
100
AcDbXrecord
280
     1
270
     1
271
     1
  0
XRECORD
  5
15
102
{ACAD_REACTORS
330
12
102
}
330
12
100
AcDbXrecord
280
     1
270
     1
271
     1
  0
XRECORD
  5
24
102
{ACAD_REACTORS
330
22
102
}
330
22
100
AcDbXrecord
280
     1
270
     1
271
     1
  0
XRECORD
  5
23
102
{ACAD_REACTORS
330
22
102
}
330
22
100
AcDbXrecord
280
     1
270
     1
271
     1
  0
XRECORD
  5
BA
102
{ACAD_REACTORS
330
22
102
}
330
22
100
AcDbXrecord
280
     1
 70
     1
 90
1959938040
 71
     1
  1
A2652E1C-1A66-4289-BA27-5CD92FD7084E
311
504B03040A00000800006A99D5423DEE336E79000000790000001B0000006175746F6465736B2D64657369676E2D7061636B6167652E786D6C3C3F786D6C2076657273696F6E3D22312E302220656E636F64696E673D227574662D3822203F3E3C666F726D6174733E3C666F726D61743E687474703A2F2F736368656D612E
311
6175746F6465736B2E636F6D2F64657369676E2D7061636B6167652F323030393C2F666F726D61743E3C2F666F726D6174733E504B03041400060808006A99D542D486FD9CA0000000F4000000130000005B436F6E74656E745F54797065735D2E786D6C7D8EC10E82300C865F65E91D8A1E8C310C0EEA1BF002731658846E
311
D98AC1B77784ABF1D8FE5FBFBF75BBCE937A534CCEB38643598122B6FEE978D0B0485F9C41B54DDD7D022595594E1A469170414C76A4D9A4D207E29CF43ECE46F218070CC6BECC4078ACAA135ACF422C856C0E68EA1BF5669944DDD7BCDE7B1F8E415D77AECB980613C2E4AC91FC167A2B244592486606FC29C8FD7F045B9A
311
EF7053A7E60B504B03041400060808006A99D5428DF4DED3EB0000007C01000008000000636F72652E786D6C8D90D16EC3200C457F05F97522C1244BDB885055CDF605FB01446886DA401460DAE78FB4A9B4BDEDC9D6F53DB675C5F17BBA912FB304EB5D07583020C6693F58377690E285EE811CA558BC8FBF6C409C9A4C07
311
AB0C528C8B4FF32669EFA27131ABCE0F661355082602D1B7DC7410F4A79954A152CC8E702D66A5AF6A34053EBB0CA76407F2386287BCCF5EAC594032767EAF9BA6A715F63B5AEFF98E9E6AC669F376AACFB8EF19365C942B2C45B4D3F3BE5E8C8A6600C91956943594E3071E5AC496E30B7B6D2B26CAD5FE074AF3F04F2859
311
172BBEBDFBC00248CC8FDC0752946B16B9DC83CA75CD4DFE00504B03041400060808006A99D54255019EA25F0000007C00000007000000636E782E786D6C4DCB3B0E80201045D1AD90E915ED2CF8AC45050C11660C8261F98AB1B07AC9C97D42D718D865D3E909258CFD00CCE24AC6E326A164D74DC0B4128928FF32603847
311
2BA13128B1252AC747C6BAB984FC68F0B87FE8960A5C09FE86CFB69FBA01504B03041400060808006A99D542ACDEC5D767010000020300000C0000006662782F636F72652E786D6C8D52ED8E8320107C15C2DF0B02EAD95E83344D7BF704F70254A967AA60104C1FFFD68FA6D74BD33426486676766747C5F6D23668D0AEAF
311
ADC9318F1846DA14B6AC4D95E3E04F648DD1560A67ADFF53869151ADCEF10863292A6743B74085355E1B0FA8B1A55E40D5F7DA63543470C9715FFCE856452A78A8E8CF51A78AB3AA74C423A0A14E8ADE3B3080E621E389E5E9781174C6A508A12E17B62E615A7DAAB5C392B1FD579A650792F0C38AA4EB784576298B49F6B9
311
4BF77C7D603C8B051DC552F8BABDBA2B9C565E9758C68C27846524E6DFFC63C3F926E66FEC7D933041C7F23B51E8CA1745A1363E8917BBB3ACC792839189F8B72D44E451AF06F043A5A06388F09A12BE0F1A028190BD3A36D73DCE000DBAF0D6A5C09436DCA8413541C35486A647D09985CE5303D8EC619FF8499FE73DE003
311
2A538135E5E17A0C7E9C2EE6A94B149D7664F01764AC6B557333375BBC9DB7410FE5856DAC7B454D9755E912261DFF5EF90B504B03041400060808006A99D54206E9D7907D0000009D0000000B0000006662782F636E782E786D6C4DCCD10A83201805E05791FFDEB552B7023572F520B12C64A6C369F4F8B3D1C5AECEE1E3
311
7078BBAF166D3A7C8C7702CACB1590764F3F19B7084871C635A056F2E07DFC9B0172E3AA051C0C922FC1A7F749939EC76463566BDCEB44A268DF3CEE0C0F94504CABA1C44DC572635DAD6E8A7484F650485EFC9E721EC7F20B504B03041400060808006A99D5427E2E12CE2B01000014020000310000006662782F33423444
311
394337352D453433342D343245312D393235342D3435413842364233413334442F636F72652E786D6C8D515B6EC23010BC8AE52FAA2A8FB59340906304851BF402C136D482D8911F15C7AFD304A9FDE3C76BCDCECC8E76D9EE31DCD1B7725E5BD361C84B8C9411566A73ED700C976C83D18E33676DF843C3C8F483EAF00463
311
CEAECEC6718184354199905063A55AC0DE7B153012F7F4E9B0175F6AE8F33E86C4F0B77CECC5ADBFAA1CF2D44E3CCE7C7029009A874C2FE6F4501DDB8F759D9D2A5A65153941D6923AFDEAFDE6D01CE89E564756CC42CE62D472916B99E2E88B56EE559349CC59D0C333BE70AA0F4A624E4AA059D964043EA1DD026C09BC97
311
F59696AC98E8FF4471942F8AA236819225EE2CF398032BE60667D2C6F3FD19463D46EB029AE6ADBC126F98977909B00168092B666A5A40F26CAAC5D307EBD28257B77362433D1B371567C574A3547E0F98EA744FFE03504B03041400060808006A99D5425D50A4DA4E01000033030000300000006662782F33423444394337
311
352D453433342D343245312D393235342D3435413842364233413334442F636E782E786D6CD593BD6E032110845F05D146F783ED5889C56129459E20455A0ED6313107277EA2F8EDB3D8D871E322651A749A1D66569F38BEFD9E2CF982108D7703656D4F0938E5B5711F03CD69D73C51B2153C789F6E6C943839C1408B4C05
311
FF083ECF55D2B093D92654AD71872A06883E070511E5729358AFA4C500704D4611A611B4064DAE46FCDA41C055501C8F24ED81BCBEBC133F7E824A91772545F0AE74085ECEDA7463A2445919E340A3DAC3245B9993D7100FAD9649B6ACBD74DDD9E93789940B97CA1C0C29E5032D271575A31639F20E8782C714905E35A5E3
311
0C54C879B646C98490BB93F1EC113C1B97D6ABEA35083EA09BAD97AB15869D668227334175A8003281A662D1B365D3AF9B057B63CF1BC6360BF6D03F6E963DEF8A5DF0D17B5B2F610C043F13E55D0297A860BC2BE37BF8AA8F681390B50FC73F804400B5F54CE79AF19FF974A7F78DB802FE05E207504B0304140006080800
311
6A99D542B404BCABA505000080100000340000006662782F33423444394337352D453433342D343245312D393235342D3435413842364233413334442F6F626A656374732E786D6CAD57DB6EDB3810FD1541FBB2FBE08B6C274D168A0AC74E0AA3485BD468B10F060C4AA2146EA80B482A71F6EBF750A464C9B553EFA22F96
311
450D873367CE5CE8BFDF65DC79A642B222BF71BDE1D875681E1531CBD31BB752C9E0CA75DE07BE280AD511739D9C64F4C6D5CB6EE0A7A2A84ABB14D384545C1DACDEDFFEE5C888E6D475224EA4BC7165F448333224952A622A9F863151649826BBA13734827DB5A920E5E381D292089A2B588AF51C5A1C6394D77F1DBBA3C0
311
1FE9EF81AF7FADD4F4B4D4A8F6A77F3ECBA52279F4C361076AA6DE6C7937B9B81E5CCC66D3C1EC72E20D6EEF6F9703EFDD74BCB85C2CAEE777D738582A014DD612411337F8006C048BFC91F914F815CBD57462456C8046823E331D293798389E3F3232AD77D6C963E647459ED3A8C60A68D4FE59D5312D691E23E68C4A58D6
311
4168DC7FF5348E9DCF53FD6E8FEC2E9F874077474751637BF3EC5A5A847FC305790E8384A49A81064BEBA8E1EA788F705814DC7E63D2C988A28211EE70160A225EDD00A25A24F07B6A349385CE06ED811B200AE6739F2E48A39FF3FC989549C5B9A6B11BD459B045AE50256BCBD83F54ECADEF22039B102BCD862BEB907A2D
311
A91B5C1B8A5C1DB0C900E9249CA40839DCD43BA7930347173A4F574B37F8781FEED63A778F1F5E8AA2A44269FA805A4DE09AA746C9DAE49D1539BDC13D30650FCA5720FF09A9BE370571136C37DBCDEC294A905C2685C8101B67EC0CC6F8193B5EFDABFF77FEF9A376733F7AA7F044B03554BF00CFBE0FDD5876E00CFC6710
311
BE1053EBDA3A221C65E381E5004893C4E1059650879370E7062B54395465EC223CF0E032CC7DC65F7F64D5A050D427759E39B03C288B671468C05633126618F25B03F771FAA19CD5075BB153F05EFC12BACE97EB8FEB4A2424A20F36A7973461395368717BDE740DEA61DEF3E889BEBE142286A33FE2BDEEE29DD9A324D0D6
311
986BE0D3A6A6EB97FDC9BD0322EC4B0B5D6EFC9F9C00277463EDE87F6032A29C939C165573EE9BFD036DC340AC935D33B96D30FBC602D2982F073988261D09566A10DB6ED516CDE109EFBEAD3E819190E74548F85E28DC97DEA8E085D886AF5B53958E22FDBD4F6D0BC1486B01DBEB1C69D2DF62BE8D5992541235F008ACDF
311
578B6EE87455408568B49A6499C17DE4161196B38D5E346B41D0488B7CCBD0369176470FE8EA07A29600B5C253164BCA932DE3BCCAB609E36846DB8C9427E0F8FFF68755566E495654B93AA1BB673A9A43DFF61E79E50B51D1A31BACEBE7E016A537A6F13ECC3D61DD4A8E60D50BED7C727931B9F316036F7E7939984DAEAE
311
07B7F3C9BBC1C562793DB95FBE1B5FCDEE9A3819E581DF749A6E42234AE86C7E25980DDFB715D2C7D6003778204A6E3E98EC6C9EDF56438CC2FE087BD02EDB8DF3F819631F8D7FAE602F7954D12A2B39CD68AE884EA107FD877F2518337AC698F55546527A8696CF1FD607CE60E58C7D5F74BAD39783BD7675A113F2A812F5
311
5865614E183FD8981A2487659E5AFC9A98B44FD3679A57FD660383C154169CC52883B193D222A30AC5F08C1E24322A41BDEE481FDBABC719BB9FCD80A848C86963C923C18CCC25D202D4AA22D55F777EC34CA7C7AA1B17DD76F8841F5B295C079CB97131A32B1651390CD19FF524542B0797BA833CE67E92A71CA3B6D9D4BE
311
B7BB3436BD8EDC8A9C333E59BF4C05B70EA08C94181B300F213AB531815FDB66BF47FFC9F1C61C8728FC0D2BD5FAB25F689DA98F418A1AA7EC650133CC933D7A87447DDB2D6F58CBF41039EB92F526098CD6812222AD2F0ADA3E6BD27CF9658401C5597D764A5EA588E5F99A068282CC954E70B008ACB03A4BA240D5C59F9B
311
2FA2C0453673EE1928E0FCBEBBBAFC63B328B2ACC8CDD2666EAFC3CEFA1197DB7883E240F5AD446E26636FB2A96F03F682B20D89A44312CB272C20B282B540F7C20F5E9A2B23FA90F9D0CA8D74280E18BA5A3AB6B1CDA0D4D2A55B5B3538983B72EA2087F48D52674C57A07CF34230AA456182C0281FFC0B504B0304140006
311
0800006A99D542000000000000000000000000350000006662782F33423444394337352D453433342D343245312D393235342D3435413842364233413334442F76657274696365732E62696E504B03041400060808006A99D542F270F1330600000004000000360000006662782F33423444394337352D453433342D343245
311
312D393235342D3435413842364233413334442F747269616E676C65732E62696E636660600000504B03041400060800006A99D542000000000000000000000000370000006662782F33423444394337352D453433342D343245312D393235342D3435413842364233413334442F617474726962757465732E62696E504B03
311
041400060808006A99D542D5987DFC8F00000041010000360000006662782F33423444394337352D453433342D343245312D393235342D3435413842364233413334442F6469726563746F72792E786D6C858F410EC2201045AF4266AF15DDB800BA74E7C21B903225242D6328188F2FA5C4183471359997F9FF81E89FF3C4
311
1E1816475E02DF1F80A11FC8386F25A438EECEC07A250251FC3803E6F58C12560C4AD840E95E91C151A72936F496F35732D860FE635F62C8F2DA16B505C545B74125BAA2FA9E05D7CC053D063734D5C7665FD55B6B8D15D5E9BFEAFD8490FFA45E504B03041400060808006A99D542529A146BFD000000A00100003B000000
311
6662782F33423444394337352D453433342D343245312D393235342D3435413842364233413334442F7265736F75726365732F636F72652E786D6C8D504B6E833010BD0A9A6D65B00D2529328E22D29EA017B0CC845A0936F2A7EAF16B0295DA5D3733A3F7D13C3D71FA9AEFC527FA609CED8195140AB4DA8DC64E3DA47825
311
47284E5278E7E22F191456CDD8C30A8314937769D921ED6C441B336ADD883BA842C00885BEE7A387A03F7056A54A312BC2AD5C94BEA9094B56663AEBA408D1E700C5F6649D203D0697BCC620AA8D95222533EE1A33E69FE66AD083A474786BDA762035BB1C4873E407726E2827EDEBB919D8F14259CB45B59AA58866FEC9A8
311
3DAA8823484E594D684B387B672F1D631D674FF4B9ABA9A856F91F535AC67F9A92B1B1E67BDCCD1640B21CE4414851AD7DE5F52833EFB55BF90D504B010214000A00000800006A99D5423DEE336E79000000790000001B00000000000000000000000000000000006175746F6465736B2D64657369676E2D7061636B616765
311
2E786D6C504B010214001400060808006A99D542D486FD9CA0000000F40000001300000000000000000000000000B20000005B436F6E74656E745F54797065735D2E786D6C504B010214001400060808006A99D5428DF4DED3EB0000007C010000080000000000000000000000000083010000636F72652E786D6C504B0102
311
14001400060808006A99D54255019EA25F0000007C000000070000000000000000000000000094020000636E782E786D6C504B010214001400060808006A99D542ACDEC5D767010000020300000C00000000000000000000000000180300006662782F636F72652E786D6C504B010214001400060808006A99D54206E9D790
311
7D0000009D0000000B00000000000000000000000000A90400006662782F636E782E786D6C504B010214001400060808006A99D5427E2E12CE2B0100001402000031000000000000000000000000004F0500006662782F33423444394337352D453433342D343245312D393235342D3435413842364233413334442F636F72
311
652E786D6C504B010214001400060808006A99D5425D50A4DA4E010000330300003000000000000000000000000000C90600006662782F33423444394337352D453433342D343245312D393235342D3435413842364233413334442F636E782E786D6C504B010214001400060808006A99D542B404BCABA505000080100000
311
3400000000000000000000000000650800006662782F33423444394337352D453433342D343245312D393235342D3435413842364233413334442F6F626A656374732E786D6C504B010214001400060800006A99D54200000000000000000000000035000000000000000000000000005C0E00006662782F33423444394337
311
352D453433342D343245312D393235342D3435413842364233413334442F76657274696365732E62696E504B010214001400060808006A99D542F270F13306000000040000003600000000000000000000000000AF0E00006662782F33423444394337352D453433342D343245312D393235342D3435413842364233413334
311
442F747269616E676C65732E62696E504B010214001400060800006A99D5420000000000000000000000003700000000000000000000000000090F00006662782F33423444394337352D453433342D343245312D393235342D3435413842364233413334442F617474726962757465732E62696E504B010214001400060808
311
006A99D542D5987DFC8F0000004101000036000000000000000000000000005E0F00006662782F33423444394337352D453433342D343245312D393235342D3435413842364233413334442F6469726563746F72792E786D6C504B010214001400060808006A99D542529A146BFD000000A00100003B000000000000000000
311
00000000411000006662782F33423444394337352D453433342D343245312D393235342D3435413842364233413334442F7265736F75726365732F636F72652E786D6C504B0506000000000E000E0080040000971100000000
310
504B03040A00000800006A99D5423DEE336E79000000790000001B0000006175746F6465736B2D64657369676E2D7061636B6167652E786D6C3C3F786D6C2076657273696F6E3D22312E302220656E636F64696E673D227574662D3822203F3E3C666F726D6174733E3C666F726D61743E687474703A2F2F736368656D612E
310
6175746F6465736B2E636F6D2F64657369676E2D7061636B6167652F323030393C2F666F726D61743E3C2F666F726D6174733E504B03041400060808006A99D542D486FD9CA0000000F4000000130000005B436F6E74656E745F54797065735D2E786D6C7D8EC10E82300C865F65E91D8A1E8C310C0EEA1BF002731658846E
310
D98AC1B77784ABF1D8FE5FBFBF75BBCE937A534CCEB38643598122B6FEE978D0B0485F9C41B54DDD7D022595594E1A469170414C76A4D9A4D207E29CF43ECE46F218070CC6BECC4078ACAA135ACF422C856C0E68EA1BF5669944DDD7BCDE7B1F8E415D77AECB980613C2E4AC91FC167A2B244592486606FC29C8FD7F045B9A
310
EF7053A7E60B504B03041400060808006A99D542D4567F4BED0000007C01000008000000636F72652E786D6C7590416EC3201045AF82665BE1805DDB898589EABA39412F8080B828315806AA1EBF903852B3E86A467FFE9B197D76FC99AFE85BAFDE38DB032D08206DA553C64E3DC470C67B4047CE56E7C21F1B202B66DD43
310
9681B3697571D924E96CD03624D53AA5375178AF0320794D4D0F5E7EE959142286E4F0976211F222265DD04797E0188D42F72346A57DE66CF40ABC7D1FDAAA696ADCBCD11ABF5272C28781D478DC8F6575A21FC3D852B6CB3067C1CC8FFB72D5226805BC24B4C2A4C125FDA4878ED2AE242FA4EE2AC276D9FE04C545FD07D1
310
67281A1BAA727BF78E79E0F991DB80B35DCE22955B50A9E6DCF82F504B03041400060808006A99D54255019EA25F0000007C00000007000000636E782E786D6C4DCB3B0E80201045D1AD90E915ED2CF8AC45050C11660C8261F98AB1B07AC9C97D42D718D865D3E909258CFD00CCE24AC6E326A164D74DC0B4128928FF3260
310
38472BA13128B1252AC747C6BAB984FC68F0B87FE8960A5C09FE86CFB69FBA01504B03041400060808006A99D5424F34098D6A010000020300000C0000006662782F636F72652E786D6C8D525B6E833010BC8AE5DF0A6C43204D641C354D73825EC00187A2808D8C8D72FC2E8F88A64AA30AC958333BBBB3037C776D6AD42B
310
DB55466798851423A5735354BACCB077E7E015A39DE0D618F7A30C232D1B95E101C68297D6F8768672A39DD20E506D0A3583B2EB94C328AFE192E12EFF528D0CA57750D15DC256E61759AA908540439DE09DB360004D4386138BF3E9CAC9840BEE7D55CC6C55C0B4EA5C298BC5FA7DBF8ED33409D23796042B468FC1664F93
310
E0F07A88E223FBD81FD68C93412CB8AB9A9BBBDC2AE954814544591CD03488D827DB6C19DB46F48526DB98723294DF897C5BFC2562F7225F691747B3DD49D661311819895FDB42440E75B2073F4470328408AF31E1FBA0211008D9C9537DDBE30250AF7267EC0A98C2F885EA65ED154CA5687C389958E83C3680CD1EF6899E
310
F479DE033EA0D42558930EAE27EF86E97C9A3A47D12A1BF4EE8AB4B18DAC177393C5E55C063D94E7A636F63F6A32AF4AE630C9F0F78A6F504B03041400060808006A99D542FD8635A77E0000009D0000000B0000006662782F636E782E786D6C4DCCD10E82201886E15B61FF398951C201E024EC3E5CA263223482D6E5A7CD
310
838EBEEDD9B757B49FD5A3B74D2F178384FA4400D9F088A30BB3849227CC01B54AA418F3DF0D5018562B616750624EB13C0F1AED34149F37F52E2C07768DB96B660866B4D6F8A229C7BC260C379DB9B1FE7A66A6A7502951FD4ADBEE61F505504B03041400060808006A99D5426FEAEB823001000014020000310000006662
310
782F41364446423744302D373331422D344233382D383130372D3641444337453532374445332F636F72652E786D6C8D515B6EC32010BC0AE22B55850DB6633B11264AEAF404BD000192A2C460F1A872FCE2DA919A8F4AFD61D1ECCCEC6897EEEEC30D7C29E7B5351D241986401961A536970EC670462D043B469DB5E1170D
310
02C307D5C109868C5E9C8DE302096B823221A1C64AB580DC7B152010B7F4E9A0179F6AE0198F2131FC351BB9B8F28BCA4896DA89C7A80F2E0500F390E9856C5FF7EF87A6C7A829C9015587B2452DC10DAAF7FD5B735C174D7F2C693E0B198D51CB45AE658AA3CF5AB9FF9A4C6246831E1EF185533C280959814989708D0AF2
310
41365B42B6057EC5EB6D89693ED19F4471947F89C8B3286A13CA62893BCB3C6484E673835169E3E9F608A3EEA375014CF3565E8917C8708649516FAAA6A2F94C4D0B489E75B578FA605D5AF0EA7A4AEC7231AE2B46F3E946A9FC1C30D5E99EEC1B504B03041400060808006A99D54234BE234B580100003303000030000000
310
6662782F41364446423744302D373331422D344233382D383130372D3641444337453532374445332F636E782E786D6CAD93CD6EC32010845F0571ADFC839D46698489D4439FA0875E316C121A1B2CC055F3F65D1292E69243AA5E90353BCCAC3E61BEF91E07F2053E18673BCACA9A12B0CA6963771D9DE3B65851B211DC3B
310
176F6C9458394247934C05DF79374F59D2B095F310511D8C3D64D14370B35710504E37C9E0941C30006C31A308630F5A832657237E6DC1E32A28F64712F740DE5E3F88EB3F41C5C0AB942278953A044F676EBA3151A20619424783DAC3284B3947A7211C4A2DA32C5979E9BAB3D36F1249172E95B337249577349D54E48D4A
310
E4C82B1C0A1EA2477AD9148F135021A769304A46845C9D8C678FE0B3B171B9C85E83E03DBADB66B95A61D869267834236487F22023682A9A9AB545BD2C1AF6CE5ED68CAD9BFAA97E5EB735AF925DF0DEB9215FC218F06E22CAD9083652C17895C6F7F0651FD1C6236BE78F0F804400B9F54CE79AF19F7CD8B25D2C1EE5C3FE
310
CEA73ABD6FC4E5F12F103F504B03041400060808006A99D5422597B23E63070000991B0000340000006662782F41364446423744302D373331422D344233382D383130372D3641444337453532374445332F6F626A656374732E786D6CED595B73A33614FE2B0C7D691F8C8D2FD9A443E824F666C7B3937667DDDDE9836718
310
1964A246084612D9A4BFBE4717301093E06EFAB60F3620A4A373BE73D521F8ED31A3CE03E682E4ECD2F5BD89EB6016E70961E9A55BCAFDE8DC757E0B039EE7B231CD7518CAF0A5AB86DD3048795E167628C17B5452D919BDB9FECB113166D875628A84B874457C8733E4A152E60916F75E8224F2D2FDA3E77B66629B6CCA51
310
71D7215A208E99044E619C0115C730E5B71F27EE380CC6EA7D18A87F3B6B3668D6BC7FD6584BDDE6923021118B9FB1D421331BC4D2CC9FAFDE4F1717A3C57C3E1BCDCFA6FEE8FAE67A35F2DFCD26CBB3E5F2E2EAFD05B0B7CB736A654A70815902FA7B72433F18AB37B5E81681635CC7396338D64002545AAC2E4182056CD5
310
806FD27EF495448DD75AC2C6F35CBDB72C3486676D2A7DB38601D1A20B82D8ED2A89AB6B53BE7CF737082E861825175802B74272D0AE85878357B8E124189BD130D81D7441849321893941D4A164C71107A5C05435250CCC024B46390707528E92406BCEBC6EDB1678E6EBAE738CCB7D49A9F20C37D48E1581FB61293467E4
310
1FCC0FDC3791019E40DA9230796EB9944F0576C38B60AC07C3405D6653FBD200E9EC294A8546C4BCED08BA54AEBF5EB9E1C79BDDE3468583E39B173C2F3097CAE8941E355F60C8F6AA50B2DBFA8334A71680300654BBF200CA6740FE77881E0756406F9C3CCE1FE776AEE488897DCE33D08D33714613F89B38BEFE57F78DBB
310
605C2F6E6BAF0F4F705305D5F9F7E3D996416365F96FC019060F60F0399FD9579B1851B0E75BC2002065240ECD610842FB7EF7E8866B089C10E86115A2A10F2203BB0F701B8C2D9983562AF7B25EC70051BBC76C889200366D91C0468F9E3E40F6E0243EA8A929621FBC8B3731D7ABD5E6E3A6E47B14E35BEBD32BBC278C48
310
C89AC7196A61DE92E81E3F7DCB7902823EC77BD3C43BB35B09405B61AE804F2B10D4C361E7D60631AC4B73156E825776002154AE6ED0BF2522C6942286F3B2DAB78E6ECA506B8FB735831B4E0DC4B369C784397E20AAAA00A739CC68310A793FE6A45020BAE10723591D34BD1EE9BEAC7F078BACE7F7CC5A3308BD0CD13F75
310
D03A8243CBB22BA42D10B5C0BB43388F739AF368F7149948E7422D016CB4BDE56B8B28C47AA32445053C48FB5D155252236D9490FDBE1410578FB0F875BD6C9AC3C49BF90BA7F9DF71C639445BF05DC4ADDF75F6884886521CED51D2B75D73B79AB6D0247B4873BCA720177920F22942329A24383D059A93885FBC29F594E6
310
42108605E4ABA3E037D1987810488C362B9695563B4013116558227A0A028A4C0FB83AEDE81A3786D2E1751E6BEB7D49634DA2FF93457004B564CE2202A528E4905719F7BD05C49036BA06E50EBE606D156D2D062DA184889FA26F98A477F214D40DF91EDC6338929432CA0B1483590F20FBCC5794523BBCEF507CAFF24714
310
97F4AD0C4460BA8F08A56516C18F3038790C71ED3A30BD884283B8897D126750942159F2219B9C2D26CFF631354337043636DA130A613BCA50D1837A2B20EA7AC4A9C1B7D47B94BA2BB32242595EB24186E2CDBADE64C977D5AAC80EE457958A503656842DC130204CD659B58AD960EA3AB0821BE940F514099415D49CC25E
310
493C7EED4D9A72EF06DCFAE9DB6E9041E1D7A3BD66449D5730581E5B8581F886647CE7861B7D1D5D43FD9DE0E490EAAB5AB3590102622A92979C58157D594379636B3437BC45526C3F98AC5B5DBFAC3DE87E04635803B54BBD70AD80CE3093485526B7EA867E4610825B34CCF85AE5D453A85C2589AE1A11BD217DEA6C9511
310
AD4D33E2157798E519FCD896B0989609DEA244DC47B792461BA258B7527A19A9307E51C03F3E6C3AF0C0C800913EA9020F7FEBACB5A34B552E1D2522EFCA6CC7108120D8122D35BAF10A965A8D545AAEAFEA4C017517189855F1FCC7C9A2D98EF871B248AD617CDFC982E63B440FD1A691CD6365D6279D02EAF4A4A8BCC529
310
40771D6AAA751231B9DC8A6F7D2982985805F9C1C55815330CC13E8EFF73D2EE4B8266BB0EFFA7256DFF59C1715252694D564DAA2385EBBA99C2AEA6678BE97B7F39F2AFCECE46F3E9F9C5E8FA6AFA6EB458AE2EA637AB7793F3F9FB1A4DEDA76150C7329DBAE0D9C4B46A583D590CA0292B724A1238CC274E8A21E44B38D2
310
0FE89EF30C0BC89DCD5E77627BF203563F9836A7443B8A2B4EEE10F487A980AC0E1895B16C8F3B3F416752C239FBD2859E91770F7FD62A5D0712CFA50B9D0249622CBC1D7499543F4F13878CAB53BF2506F82096AA8C6816D5CFF52A854D2BFAD7538664012B57AB8501755B01CDAF568342F366798A4F12BC62C741126E77
310
A58462CDC87218A885D1DB1CD46F64A384DDDBAD1FC1755F16CBF7F49C162283BE18BC680486EA48229EEA76B762CCB274B5FA3486369BB3FEC3296899822E87531A710CC65CAA7A0AAC08ACC2D22C9004535DFEBAFDC473F8C29339BA28727E7E3C3FFB65BBCCB32C6766687B0587B204BE13399B3BF8EA936CA176C0AAB7
310
2EB6D3893FDDEA9EB66DB3473B24B0A78A2218A86A092548C7E4C02E9FF5A76CF772AC54D199BE5E3936882E80A8B6DD672D5EF38DCB011F525F5394C7683FAFA47DB1AD3DD653C1263834A4C37F01504B03041400060800006A99D542000000000000000000000000350000006662782F41364446423744302D373331422D
310
344233382D383130372D3641444337453532374445332F76657274696365732E62696E504B03041400060808006A99D542F270F1330600000004000000360000006662782F41364446423744302D373331422D344233382D383130372D3641444337453532374445332F747269616E676C65732E62696E636660600000504B
310
03041400060800006A99D542000000000000000000000000370000006662782F41364446423744302D373331422D344233382D383130372D3641444337453532374445332F617474726962757465732E62696E504B03041400060808006A99D542D5987DFC8F00000041010000360000006662782F41364446423744302D37
310
3331422D344233382D383130372D3641444337453532374445332F6469726563746F72792E786D6C858F410EC2201045AF4266AF15DDB800BA74E7C21B903225242D6328188F2FA5C4183471359997F9FF81E89FF3C41E1816475E02DF1F80A11FC8386F25A438EECEC07A250251FC3803E6F58C12560C4AD840E95E91C151
310
A72936F496F35732D860FE635F62C8F2DA16B505C545B74125BAA2FA9E05D7CC053D063734D5C7665FD55B6B8D15D5E9BFEAFD8490FFA45E504B03041400060808006A99D542C7FD51D300010000A00100003B0000006662782F41364446423744302D373331422D344233382D383130372D3641444337453532374445332F
310
7265736F75726365732F636F72652E786D6C75504B6E833010BD0A9A6D65B021810419474DD39CA017B0CC845A0976E44FD5E3D70E546A16DDCC8CDE47F3F4F8E17BBE155FE8BCB66600565228D0283B6A330D10C385ECA03808EEAC0D7F64501839E3001906C12767E37D859435014D48A8B123AEA0F41E0314EA968E01BC
310
FAC459963286A4F0D7F22ED5554E58B232D14927B80F2E05289627798270E86D740A3DAF1656F018F5B86AF4987EEA8B4607A27B3B764DDB6E48FBCAB664C3E899EC8F744B4EBB53DD9CD9FBF1D4315E65B3E041CFBF1995431970045153D610DA929A7DB07DCF585FD317BAED1BCAAB2C7F32C5FBF89F893D9BA236A1A9D7
310
B88BCD83C8411E84E055EE2BAD479969E76EC50F504B010214000A00000800006A99D5423DEE336E79000000790000001B00000000000000000000000000000000006175746F6465736B2D64657369676E2D7061636B6167652E786D6C504B010214001400060808006A99D542D486FD9CA0000000F4000000130000000000
310
0000000000000000B20000005B436F6E74656E745F54797065735D2E786D6C504B010214001400060808006A99D542D4567F4BED0000007C010000080000000000000000000000000083010000636F72652E786D6C504B010214001400060808006A99D54255019EA25F0000007C0000000700000000000000000000000000
310
96020000636E782E786D6C504B010214001400060808006A99D5424F34098D6A010000020300000C000000000000000000000000001A0300006662782F636F72652E786D6C504B010214001400060808006A99D542FD8635A77E0000009D0000000B00000000000000000000000000AE0400006662782F636E782E786D6C50
310
4B010214001400060808006A99D5426FEAEB8230010000140200003100000000000000000000000000550500006662782F41364446423744302D373331422D344233382D383130372D3641444337453532374445332F636F72652E786D6C504B010214001400060808006A99D54234BE234B58010000330300003000000000
310
000000000000000000D40600006662782F41364446423744302D373331422D344233382D383130372D3641444337453532374445332F636E782E786D6C504B010214001400060808006A99D5422597B23E63070000991B000034000000000000000000000000007A0800006662782F41364446423744302D373331422D3442
310
33382D383130372D3641444337453532374445332F6F626A656374732E786D6C504B010214001400060800006A99D54200000000000000000000000035000000000000000000000000002F1000006662782F41364446423744302D373331422D344233382D383130372D3641444337453532374445332F7665727469636573
310
2E62696E504B010214001400060808006A99D542F270F13306000000040000003600000000000000000000000000821000006662782F41364446423744302D373331422D344233382D383130372D3641444337453532374445332F747269616E676C65732E62696E504B010214001400060800006A99D54200000000000000
310
00000000003700000000000000000000000000DC1000006662782F41364446423744302D373331422D344233382D383130372D3641444337453532374445332F617474726962757465732E62696E504B010214001400060808006A99D542D5987DFC8F00000041010000360000000000000000000000000031110000666278
310
2F41364446423744302D373331422D344233382D383130372D3641444337453532374445332F6469726563746F72792E786D6C504B010214001400060808006A99D542C7FD51D300010000A00100003B00000000000000000000000000141200006662782F41364446423744302D373331422D344233382D383130372D3641
310
444337453532374445332F7265736F75726365732F636F72652E786D6C504B0506000000000E000E00800400006D1300000000
  0
XRECORD
  5
27
102
{ACAD_REACTORS
330
22
102
}
330
22
100
AcDbXrecord
280
     1
270
     1
271
     1
  0
XRECORD
  5
26
102
{ACAD_REACTORS
330
22
102
}
330
22
100
AcDbXrecord
280
     1
270
     1
271
     1
  0
XRECORD
  5
28
102
{ACAD_REACTORS
330
22
102
}
330
22
100
AcDbXrecord
280
     1
270
     1
271
     1
  0
XRECORD
  5
25
102
{ACAD_REACTORS
330
22
102
}
330
22
100
AcDbXrecord
280
     1
270
     1
271
     1
  0
XRECORD
  5
D8F
102
{ACAD_REACTORS
330
D8E
102
}
330
D8E
100
AcDbXrecord
280
     1
102
ACAD_ROUNDTRIP_2012_MLEADER_STYLE
298
     1
  0
CELLSTYLEMAP
  5
D8D
102
{ACAD_REACTORS
330
D8C
102
}
330
D8C
100
AcDbCellStyleMap
 90
        3
300
CELLSTYLE
  1
TABLEFORMAT_BEGIN
 90
        5
170
     1
 91
        0
 92
    32768
 62
   257
 93
        1
300
CONTENTFORMAT
  1
CONTENTFORMAT_BEGIN
 90
        0
 91
        0
 92
      512
 93
        0
300

 40
0.0
140
1.0
 94
        5
 62
     0
340
55
144
0.25
309
CONTENTFORMAT_END
171
     0
 94
        0
309
TABLEFORMAT_END
  1
CELLSTYLE_BEGIN
 90
        1
 91
        1
300
_TITLE
309
CELLSTYLE_END
300
CELLSTYLE
  1
TABLEFORMAT_BEGIN
 90
        5
170
     1
 91
        0
 92
        0
 62
   257
 93
        1
300
CONTENTFORMAT
  1
CONTENTFORMAT_BEGIN
 90
        0
 91
        0
 92
      512
 93
        0
300

 40
0.0
140
1.0
 94
        5
 62
     0
340
55
144
0.18
309
CONTENTFORMAT_END
171
     0
 94
        0
309
TABLEFORMAT_END
  1
CELLSTYLE_BEGIN
 90
        2
 91
        1
300
_HEADER
309
CELLSTYLE_END
300
CELLSTYLE
  1
TABLEFORMAT_BEGIN
 90
        5
170
     1
 91
        0
 92
        0
 62
   257
 93
        1
300
CONTENTFORMAT
  1
CONTENTFORMAT_BEGIN
 90
        0
 91
        0
 92
      512
 93
        0
300

 40
0.0
140
1.0
 94
        2
 62
     0
340
55
144
0.18
309
CONTENTFORMAT_END
171
     0
 94
        0
309
TABLEFORMAT_END
  1
CELLSTYLE_BEGIN
 90
        3
 91
        2
300
_DATA
309
CELLSTYLE_END
  0
ENDSEC
  0
EOF
