  0
SECTION
  2
HEADER
  9
$ACADVER
  1
AC1024
  9
$ACADMAINTVER
 70
    63
  9
$DWGCODEPAGE
  3
ANSI_1252
  9
$AUTHOR
  1
MS
  9
$REVISIONNUMBER
  1
-
  9
$CUSTOMPROPERTYTAG
  1
Manager
  9
$CUSTOMPROPERTY
  1

  9
$CUSTOMPROPERTYTAG
  1
Company
  9
$CUSTOMPROPERTY
  1

  9
$CUSTOMPROPERTYTAG
  1
Category
  9
$CUSTOMPROPERTY
  1

  9
$CUSTOMPROPERTYTAG
  1
Part Number
  9
$CUSTOMPROPERTY
  1
WA72P48F1-S
  9
$CUSTOMPROPERTYTAG
  1
Description
  9
$CUSTOMPROPERTY
  1
N1P PANEL MASTER VIEW
  9
$CUSTOMPROPERTYTAG
  1
Project
  9
$CUSTOMPROPERTY
  1

  9
$CUSTOMPROPERTYTAG
  1
Designer
  9
$CUSTOMPROPERTY
  1
MS
  9
$CUSTOMPROPERTYTAG
  1
Engineer
  9
$CUSTOMPROPERTY
  1

  9
$CUSTOMPROPERTYTAG
  1
Authority
  9
$CUSTOMPROPERTY
  1

  9
$CUSTOMPROPERTYTAG
  1
Cost Center
  9
$CUSTOMPROPERTY
  1

  9
$CUSTOMPROPERTYTAG
  1
Vendor
  9
$CUSTOMPROPERTY
  1

  9
$CUSTOMPROPERTYTAG
  1
User Status
  9
$CUSTOMPROPERTY
  1

  9
$CUSTOMPROPERTYTAG
  1
Design Status
  9
$CUSTOMPROPERTY
  1
WorkInProgress
  9
$CUSTOMPROPERTYTAG
  1
Checked by
  9
$CUSTOMPROPERTY
  1
NJ
  9
$CUSTOMPROPERTYTAG
  1
Engr Approved by
  9
$CUSTOMPROPERTY
  1

  9
$CUSTOMPROPERTYTAG
  1
Date Eng Approved
  9
$CUSTOMPROPERTY
  1
06/13/2013
  9
$CUSTOMPROPERTYTAG
  1
Mfg Approved by
  9
$CUSTOMPROPERTY
  1

  9
$CUSTOMPROPERTYTAG
  1
DWG. NO
  9
$CUSTOMPROPERTY
  1

  9
$CUSTOMPROPERTYTAG
  1
NUMBER OF SHEETS
  9
$CUSTOMPROPERTY
  1
1
  9
$CUSTOMPROPERTYTAG
  1
DRAWING #
  9
$CUSTOMPROPERTY
  1
1
  9
$INSBASE
 10
0.0
 20
0.0
 30
0.0
  9
$EXTMIN
 10
0.0
 20
0.0
 30
0.0
  9
$EXTMAX
 10
187.0
 20
121.0
 30
0.0
  9
$LIMMIN
 10
0.0
 20
0.0
  9
$LIMMAX
 10
187.0
 20
121.0
  9
$ORTHOMODE
 70
     0
  9
$REGENMODE
 70
     1
  9
$FILLMODE
 70
     1
  9
$QTEXTMODE
 70
     0
  9
$MIRRTEXT
 70
     0
  9
$LTSCALE
 40
11.0
  9
$ATTMODE
 70
     1
  9
$TEXTSIZE
 40
0.2
  9
$TRACEWID
 40
0.05
  9
$TEXTSTYLE
  7
Standard
  9
$CLAYER
  8
0
  9
$CELTYPE
  6
ByLayer
  9
$CECOLOR
 62
   256
  9
$CELTSCALE
 40
1.0
  9
$DISPSILH
 70
     0
  9
$DIMSCALE
 40
1.0
  9
$DIMASZ
 40
0.0708661417322835
  9
$DIMEXO
 40
0.0625
  9
$DIMDLI
 40
0.38
  9
$DIMRND
 40
0.0
  9
$DIMDLE
 40
0.0
  9
$DIMEXE
 40
0.18
  9
$DIMTP
 40
0.0
  9
$DIMTM
 40
0.0
  9
$DIMTXT
 40
0.0708661417322835
  9
$DIMCEN
 40
0.09
  9
$DIMTSZ
 40
0.0
  9
$DIMTOL
 70
     0
  9
$DIMLIM
 70
     0
  9
$DIMTIH
 70
     1
  9
$DIMTOH
 70
     1
  9
$DIMSE1
 70
     0
  9
$DIMSE2
 70
     0
  9
$DIMTAD
 70
     0
  9
$DIMZIN
 70
     0
  9
$DIMBLK
  1

  9
$DIMASO
 70
     1
  9
$DIMSHO
 70
     1
  9
$DIMPOST
  1

  9
$DIMAPOST
  1

  9
$DIMALT
 70
     0
  9
$DIMALTD
 70
     2
  9
$DIMALTF
 40
25.4
  9
$DIMLFAC
 40
1.0
  9
$DIMTOFL
 70
     0
  9
$DIMTVP
 40
0.0
  9
$DIMTIX
 70
     0
  9
$DIMSOXD
 70
     0
  9
$DIMSAH
 70
     0
  9
$DIMBLK1
  1

  9
$DIMBLK2
  1

  9
$DIMSTYLE
  2
STANDARD
  9
$DIMCLRD
 70
     0
  9
$DIMCLRE
 70
     0
  9
$DIMCLRT
 70
     0
  9
$DIMTFAC
 40
1.0
  9
$DIMGAP
 40
0.09
  9
$DIMJUST
 70
     0
  9
$DIMSD1
 70
     0
  9
$DIMSD2
 70
     0
  9
$DIMTOLJ
 70
     1
  9
$DIMTZIN
 70
     0
  9
$DIMALTZ
 70
     0
  9
$DIMALTTZ
 70
     0
  9
$DIMUPT
 70
     0
  9
$DIMDEC
 70
     4
  9
$DIMTDEC
 70
     4
  9
$DIMALTU
 70
     2
  9
$DIMALTTD
 70
     2
  9
$DIMTXSTY
  7
Standard
  9
$DIMAUNIT
 70
     0
  9
$DIMADEC
 70
     0
  9
$DIMALTRND
 40
0.0
  9
$DIMAZIN
 70
     0
  9
$DIMDSEP
 70
    46
  9
$DIMATFIT
 70
     3
  9
$DIMFRAC
 70
     0
  9
$DIMLDRBLK
  1

  9
$DIMLUNIT
 70
     2
  9
$DIMLWD
 70
    -2
  9
$DIMLWE
 70
    -2
  9
$DIMTMOVE
 70
     0
  9
$DIMFXL
 40
1.0
  9
$DIMFXLON
 70
     0
  9
$DIMJOGANG
 40
0.7853981633974483
  9
$DIMTFILL
 70
     0
  9
$DIMTFILLCLR
 70
     0
  9
$DIMARCSYM
 70
     0
  9
$DIMLTYPE
  6

  9
$DIMLTEX1
  6

  9
$DIMLTEX2
  6

  9
$DIMTXTDIRECTION
 70
     0
  9
$LUNITS
 70
     2
  9
$LUPREC
 70
     4
  9
$SKETCHINC
 40
0.1
  9
$FILLETRAD
 40
0.0
  9
$AUNITS
 70
     0
  9
$AUPREC
 70
     0
  9
$MENU
  1
.
  9
$ELEVATION
 40
0.0
  9
$PELEVATION
 40
0.0
  9
$THICKNESS
 40
0.0
  9
$LIMCHECK
 70
     0
  9
$CHAMFERA
 40
0.0
  9
$CHAMFERB
 40
0.0
  9
$CHAMFERC
 40
0.0
  9
$CHAMFERD
 40
0.0
  9
$SKPOLY
 70
     0
  9
$TDCREATE
 40
2456458.407140880
  9
$TDUCREATE
 40
2456458.177974213
  9
$TDUPDATE
 40
2456458.407140880
  9
$TDUUPDATE
 40
2456458.177974213
  9
$TDINDWG
 40
0.0000451273
  9
$TDUSRTIMER
 40
0.0000451273
  9
$USRTIMER
 70
     1
  9
$ANGBASE
 50
0.0
  9
$ANGDIR
 70
     0
  9
$PDMODE
 70
     0
  9
$PDSIZE
 40
0.0
  9
$PLINEWID
 40
0.0
  9
$SPLFRAME
 70
     0
  9
$SPLINETYPE
 70
     6
  9
$SPLINESEGS
 70
     8
  9
$HANDSEED
  5
F74
  9
$SURFTAB1
 70
     6
  9
$SURFTAB2
 70
     6
  9
$SURFTYPE
 70
     6
  9
$SURFU
 70
     6
  9
$SURFV
 70
     6
  9
$UCSBASE
  2

  9
$UCSNAME
  2

  9
$UCSORG
 10
0.0
 20
0.0
 30
0.0
  9
$UCSXDIR
 10
1.0
 20
0.0
 30
0.0
  9
$UCSYDIR
 10
0.0
 20
1.0
 30
0.0
  9
$UCSORTHOREF
  2

  9
$UCSORTHOVIEW
 70
     0
  9
$UCSORGTOP
 10
0.0
 20
0.0
 30
0.0
  9
$UCSORGBOTTOM
 10
0.0
 20
0.0
 30
0.0
  9
$UCSORGLEFT
 10
0.0
 20
0.0
 30
0.0
  9
$UCSORGRIGHT
 10
0.0
 20
0.0
 30
0.0
  9
$UCSORGFRONT
 10
0.0
 20
0.0
 30
0.0
  9
$UCSORGBACK
 10
0.0
 20
0.0
 30
0.0
  9
$PUCSBASE
  2

  9
$PUCSNAME
  2

  9
$PUCSORG
 10
0.0
 20
0.0
 30
0.0
  9
$PUCSXDIR
 10
1.0
 20
0.0
 30
0.0
  9
$PUCSYDIR
 10
0.0
 20
1.0
 30
0.0
  9
$PUCSORTHOREF
  2

  9
$PUCSORTHOVIEW
 70
     0
  9
$PUCSORGTOP
 10
0.0
 20
0.0
 30
0.0
  9
$PUCSORGBOTTOM
 10
0.0
 20
0.0
 30
0.0
  9
$PUCSORGLEFT
 10
0.0
 20
0.0
 30
0.0
  9
$PUCSORGRIGHT
 10
0.0
 20
0.0
 30
0.0
  9
$PUCSORGFRONT
 10
0.0
 20
0.0
 30
0.0
  9
$PUCSORGBACK
 10
0.0
 20
0.0
 30
0.0
  9
$USERI1
 70
     0
  9
$USERI2
 70
     0
  9
$USERI3
 70
     0
  9
$USERI4
 70
     0
  9
$USERI5
 70
     0
  9
$USERR1
 40
0.0
  9
$USERR2
 40
0.0
  9
$USERR3
 40
0.0
  9
$USERR4
 40
0.0
  9
$USERR5
 40
0.0
  9
$WORLDVIEW
 70
     1
  9
$SHADEDGE
 70
     3
  9
$SHADEDIF
 70
    70
  9
$TILEMODE
 70
     1
  9
$MAXACTVP
 70
    64
  9
$PINSBASE
 10
0.0
 20
0.0
 30
0.0
  9
$PLIMCHECK
 70
     0
  9
$PEXTMIN
 10
0.0
 20
0.0
 30
0.0
  9
$PEXTMAX
 10
187.0
 20
121.0
 30
0.0
  9
$PLIMMIN
 10
0.0
 20
0.0
  9
$PLIMMAX
 10
187.0
 20
121.0
  9
$UNITMODE
 70
     0
  9
$VISRETAIN
 70
     1
  9
$PLINEGEN
 70
     0
  9
$PSLTSCALE
 70
     1
  9
$TREEDEPTH
 70
  3020
  9
$CMLSTYLE
  2
Standard
  9
$CMLJUST
 70
     0
  9
$CMLSCALE
 40
1.0
  9
$PROXYGRAPHICS
 70
     1
  9
$MEASUREMENT
 70
     0
  9
$CELWEIGHT
370
    -1
  9
$ENDCAPS
280
     0
  9
$JOINSTYLE
280
     0
  9
$LWDISPLAY
290
     0
  9
$INSUNITS
 70
     1
  9
$HYPERLINKBASE
  1

  9
$STYLESHEET
  1

  9
$XEDIT
290
     1
  9
$CEPSNTYPE
380
     0
  9
$PSTYLEMODE
290
     1
  9
$FINGERPRINTGUID
  2
{3EB935FD-9E76-4257-9CB6-B4D4C07AED77}
  9
$VERSIONGUID
  2
{74F5F494-D874-433B-B30A-D64677B9CC98}
  9
$EXTNAMES
290
     1
  9
$PSVPSCALE
 40
0.0
  9
$OLESTARTUP
290
     0
  9
$SORTENTS
280
   127
  9
$INDEXCTL
280
     0
  9
$HIDETEXT
280
     1
  9
$XCLIPFRAME
280
     2
  9
$HALOGAP
280
     0
  9
$OBSCOLOR
 70
   257
  9
$OBSLTYPE
280
     0
  9
$INTERSECTIONDISPLAY
280
     0
  9
$INTERSECTIONCOLOR
 70
   257
  9
$DIMASSOC
280
     1
  9
$PROJECTNAME
  1

  9
$CAMERADISPLAY
290
     0
  9
$LENSLENGTH
 40
50.0
  9
$CAMERAHEIGHT
 40
0.0
  9
$STEPSPERSEC
 40
2.0
  9
$STEPSIZE
 40
6.0
  9
$3DDWFPREC
 40
2.0
  9
$PSOLWIDTH
 40
0.25
  9
$PSOLHEIGHT
 40
4.0
  9
$LOFTANG1
 40
1.570796326794896
  9
$LOFTANG2
 40
1.570796326794896
  9
$LOFTMAG1
 40
0.0
  9
$LOFTMAG2
 40
0.0
  9
$LOFTPARAM
 70
     7
  9
$LOFTNORMALS
280
     1
  9
$LATITUDE
 40
37.795
  9
$LONGITUDE
 40
-122.394
  9
$NORTHDIRECTION
 40
0.0
  9
$TIMEZONE
 70
 -8000
  9
$LIGHTGLYPHDISPLAY
280
     1
  9
$TILEMODELIGHTSYNCH
280
     1
  9
$CMATERIAL
347
11
  9
$SOLIDHIST
280
     0
  9
$SHOWHIST
280
     1
  9
$DWFFRAME
280
     2
  9
$DGNFRAME
280
     0
  9
$REALWORLDSCALE
290
     1
  9
$INTERFERECOLOR
 62
     1
  9
$INTERFEREOBJVS
345
33
  9
$INTERFEREVPVS
346
30
  9
$CSHADOW
280
     0
  9
$SHADOWPLANELOCATION
 40
0.0
  0
ENDSEC
  0
SECTION
  2
CLASSES
  0
CLASS
  1
ACDBDICTIONARYWDFLT
  2
AcDbDictionaryWithDefault
  3
ObjectDBX Classes
 90
        0
 91
        1
280
     0
281
     0
  0
CLASS
  1
MATERIAL
  2
AcDbMaterial
  3
ObjectDBX Classes
 90
     1153
 91
        3
280
     0
281
     0
  0
CLASS
  1
VISUALSTYLE
  2
AcDbVisualStyle
  3
ObjectDBX Classes
 90
     4095
 91
       24
280
     0
281
     0
  0
CLASS
  1
SCALE
  2
AcDbScale
  3
ObjectDBX Classes
 90
     1153
 91
       17
280
     0
281
     0
  0
CLASS
  1
TABLESTYLE
  2
AcDbTableStyle
  3
ObjectDBX Classes
 90
     4095
 91
        1
280
     0
281
     0
  0
CLASS
  1
MLEADERSTYLE
  2
AcDbMLeaderStyle
  3
ACDB_MLEADERSTYLE_CLASS
 90
     4095
 91
        1
280
     0
281
     0
  0
CLASS
  1
DICTIONARYVAR
  2
AcDbDictionaryVar
  3
ObjectDBX Classes
 90
        0
 91
        3
280
     0
281
     0
  0
CLASS
  1
CELLSTYLEMAP
  2
AcDbCellStyleMap
  3
ObjectDBX Classes
 90
     1152
 91
        1
280
     0
281
     0
  0
ENDSEC
  0
SECTION
  2
TABLES
  0
TABLE
  2
VPORT
  5
8
330
0
100
AcDbSymbolTable
 70
     1
  0
VPORT
  5
57
330
8
100
AcDbSymbolTableRecord
100
AcDbViewportTableRecord
  2
*Active
 70
     0
 10
0.0
 20
0.0
 11
1.0
 21
1.0
 12
93.49999999999999
 22
60.5
 13
0.0
 23
0.0
 14
1.0
 24
1.0
 15
0.0
 25
0.0
 16
0.0
 26
0.0
 36
1.0
 17
0.0
 27
0.0
 37
0.0
 40
121.0
 41
1.545454545454545
 42
50.0
 43
0.0
 44
0.0
 50
0.0
 51
0.0
 71
     0
 72
   100
 73
     1
 74
     1
 75
     0
 76
     0
 77
     0
 78
     0
281
     0
 65
     1
110
0.0
120
0.0
130
0.0
111
1.0
121
0.0
131
0.0
112
0.0
122
1.0
132
0.0
 79
     0
146
0.0
 60
     3
 61
     5
292
     1
282
     1
141
0.0
142
0.0
 63
   250
421
  3355443
  0
ENDTAB
  0
TABLE
  2
LTYPE
  5
5
330
0
100
AcDbSymbolTable
 70
    59
  0
LTYPE
  5
5B
330
5
100
AcDbSymbolTableRecord
100
AcDbLinetypeTableRecord
  2
ByBlock
 70
     0
  3

 72
    65
 73
     0
 40
0.0
  0
LTYPE
  5
5C
330
5
100
AcDbSymbolTableRecord
100
AcDbLinetypeTableRecord
  2
ByLayer
 70
     0
  3

 72
    65
 73
     0
 40
0.0
  0
LTYPE
  5
5D
330
5
100
AcDbSymbolTableRecord
100
AcDbLinetypeTableRecord
  2
Continuous
 70
     0
  3
Solid line
 72
    65
 73
     0
 40
0.0
  0
LTYPE
  5
7C
330
5
100
AcDbSymbolTableRecord
100
AcDbLinetypeTableRecord
  2
BY_STANDARD
 70
     0
  3
By Standard ____________    ____    ____   _
 72
    65
 73
     6
 40
1.240299999999999
 49
0.6614
 74
     0
 49
-0.0827
 74
     0
 49
0.1654
 74
     0
 49
-0.0827
 74
     0
 49
0.1654
 74
     0
 49
-0.0827
 74
     0
  0
LTYPE
  5
7D
330
5
100
AcDbSymbolTableRecord
100
AcDbLinetypeTableRecord
  2
CHAIN
 70
     0
  3
Chain ____ _ ____ _ ____ _ ____ _ ____ _ ____
 72
    65
 73
     4
 40
0.7087
 49
0.4724000000000001
 74
     0
 49
-0.0591
 74
     0
 49
0.1181
 74
     0
 49
-0.0591
 74
     0
  0
LTYPE
  5
7E
330
5
100
AcDbSymbolTableRecord
100
AcDbLinetypeTableRecord
  2
DASH_DOT
 70
     0
  3
Dash dot __ . __ . __ . __ . __ . __ . __ . __
 72
    65
 73
     4
 40
0.37
 49
0.24
 74
     0
 49
-0.06
 74
     0
 49
0.01
 74
     0
 49
-0.06
 74
     0
  0
LTYPE
  5
7F
330
5
100
AcDbSymbolTableRecord
100
AcDbLinetypeTableRecord
  2
DOUBLE_DASH_DOT
 70
     0
  3
Double-Dash Dot __ __ . __ __ . __ __ . __ _
 72
    65
 73
     6
 40
0.4398
 49
0.24
 74
     0
 49
-0.06
 74
     0
 49
0.0098
 74
     0
 49
-0.06
 74
     0
 49
0.01
 74
     0
 49
-0.06
 74
     0
  0
LTYPE
  5
80
330
5
100
AcDbSymbolTableRecord
100
AcDbLinetypeTableRecord
  2
DASH_TRIPLE_DOT
 70
     0
  3
Dash Triple-Dot _ . . . _ . . . _ . . . _
 72
    65
 73
     8
 40
0.51
 49
0.24
 74
     0
 49
-0.06
 74
     0
 49
0.01
 74
     0
 49
-0.06
 74
     0
 49
0.01
 74
     0
 49
-0.06
 74
     0
 49
0.01
 74
     0
 49
-0.06
 74
     0
  0
LTYPE
  5
81
330
5
100
AcDbSymbolTableRecord
100
AcDbLinetypeTableRecord
  2
DASHED
 70
     0
  3
Dashed __ __ __ __ __ __ __ __ __ __ __ __ __ _
 72
    65
 73
     2
 40
0.2067
 49
0.1654
 74
     0
 49
-0.0413
 74
     0
  0
LTYPE
  5
82
330
5
100
AcDbSymbolTableRecord
100
AcDbLinetypeTableRecord
  2
DASH_DOUBLE_DOT
 70
     0
  3
Dash Double-Dot __ . . __ . . __ . . __ . .
 72
    65
 73
     6
 40
0.4398
 49
0.24
 74
     0
 49
-0.06
 74
     0
 49
0.0098
 74
     0
 49
-0.06
 74
     0
 49
0.01
 74
     0
 49
-0.06
 74
     0
  0
LTYPE
  5
83
330
5
100
AcDbSymbolTableRecord
100
AcDbLinetypeTableRecord
  2
DASHED_SPACE
 70
     0
  3
Dashed Space __ __ __ __ __ __ __ __ __ __ __ _
 72
    65
 73
     2
 40
0.2067
 49
0.1654
 74
     0
 49
-0.0413
 74
     0
  0
LTYPE
  5
84
330
5
100
AcDbSymbolTableRecord
100
AcDbLinetypeTableRecord
  2
DOTTED
 70
     0
  3
Dotted . . . . . . . . . . . . . . . . . . . . 
 72
    65
 73
     2
 40
0.0482
 49
0.0069
 74
     0
 49
-0.0413
 74
     0
  0
LTYPE
  5
85
330
5
100
AcDbSymbolTableRecord
100
AcDbLinetypeTableRecord
  2
DOUBLE_DASH_CHAIN
 70
     0
  3
Double-Dash Chain ______  __  __  ______  __  _
 72
    65
 73
     6
 40
1.240299999999999
 49
0.6614
 74
     0
 49
-0.0827
 74
     0
 49
0.1654
 74
     0
 49
-0.0827
 74
     0
 49
0.1654
 74
     0
 49
-0.0827
 74
     0
  0
LTYPE
  5
87
330
5
100
AcDbSymbolTableRecord
100
AcDbLinetypeTableRecord
  2
DOUBLE_DASH_DOUBLE_DOT
 70
     0
  3
Double-Dash Double-dot _ _ . . _ _ . . _
 72
    65
 73
     8
 40
0.7400000000000001
 49
0.24
 74
     0
 49
-0.06
 74
     0
 49
0.24
 74
     0
 49
-0.06
 74
     0
 49
0.01
 74
     0
 49
-0.06
 74
     0
 49
0.01
 74
     0
 49
-0.06
 74
     0
  0
LTYPE
  5
88
330
5
100
AcDbSymbolTableRecord
100
AcDbLinetypeTableRecord
  2
DOUBLE_DASH_TRIPLE_DOT
 70
     0
  3
Double Dash Triple Dot __ __ . . . __ __ . .
 72
    65
 73
    10
 40
0.8100000000000001
 49
0.24
 74
     0
 49
-0.06
 74
     0
 49
0.24
 74
     0
 49
-0.06
 74
     0
 49
0.01
 74
     0
 49
-0.06
 74
     0
 49
0.01
 74
     0
 49
-0.06
 74
     0
 49
0.01
 74
     0
 49
-0.06
 74
     0
  0
LTYPE
  5
89
330
5
100
AcDbSymbolTableRecord
100
AcDbLinetypeTableRecord
  2
LONG_DASH_DOTTED
 70
     0
  3
Long Dash Dotted ____ . ____ . ____ . ____ . _
 72
    65
 73
     4
 40
0.3543
 49
0.2362
 74
     0
 49
-0.0295
 74
     0
 49
0.0591
 74
     0
 49
-0.0295
 74
     0
  0
LTYPE
  5
8A
330
5
100
AcDbSymbolTableRecord
100
AcDbLinetypeTableRecord
  2
LONG_DASH_DOUBLE_DOT
 70
     0
  3
Long Dash Double Dot ________  .  .  ________  
 72
    65
 73
     6
 40
0.6799999999999999
 49
0.48
 74
     0
 49
-0.06
 74
     0
 49
0.01
 74
     0
 49
-0.06
 74
     0
 49
0.01
 74
     0
 49
-0.06
 74
     0
  0
LTYPE
  5
8B
330
5
100
AcDbSymbolTableRecord
100
AcDbLinetypeTableRecord
  2
LONG_DASH_TRIPLE_DOT
 70
     0
  3
Long Dash Triple Dot ____ ... ____ ... ____
 72
    65
 73
     8
 40
0.3689
 49
0.2362
 74
     0
 49
-0.0295
 74
     0
 49
0.0049
 74
     0
 49
-0.0295
 74
     0
 49
0.0049
 74
     0
 49
-0.0295
 74
     0
 49
0.0049
 74
     0
 49
-0.0295
 74
     0
  0
LTYPE
  5
8C
330
5
100
AcDbSymbolTableRecord
100
AcDbLinetypeTableRecord
  2
BORDER
 70
     0
  3
Border __ __ . __ __ . __ __ . __ __ . __ __ .
 72
    65
 73
     6
 40
1.75
 49
0.5
 74
     0
 49
-0.25
 74
     0
 49
0.5
 74
     0
 49
-0.25
 74
     0
 49
0.0
 74
     0
 49
-0.25
 74
     0
  0
LTYPE
  5
8D
330
5
100
AcDbSymbolTableRecord
100
AcDbLinetypeTableRecord
  2
BORDER2
 70
     0
  3
Border (.5x) __.__.__.__.__.__.__.__.__.__.__.
 72
    65
 73
     6
 40
0.875
 49
0.25
 74
     0
 49
-0.125
 74
     0
 49
0.25
 74
     0
 49
-0.125
 74
     0
 49
0.0
 74
     0
 49
-0.125
 74
     0
  0
LTYPE
  5
8E
330
5
100
AcDbSymbolTableRecord
100
AcDbLinetypeTableRecord
  2
BORDERX2
 70
     0
  3
Border (2x) ____  ____  .  ____  ____  .  ___
 72
    65
 73
     6
 40
3.5
 49
1.0
 74
     0
 49
-0.5
 74
     0
 49
1.0
 74
     0
 49
-0.5
 74
     0
 49
0.0
 74
     0
 49
-0.5
 74
     0
  0
LTYPE
  5
8F
330
5
100
AcDbSymbolTableRecord
100
AcDbLinetypeTableRecord
  2
CENTER
 70
     0
  3
Center ____ _ ____ _ ____ _ ____ _ ____ _ ____
 72
    65
 73
     4
 40
2.0
 49
1.25
 74
     0
 49
-0.25
 74
     0
 49
0.25
 74
     0
 49
-0.25
 74
     0
  0
LTYPE
  5
90
330
5
100
AcDbSymbolTableRecord
100
AcDbLinetypeTableRecord
  2
CENTER2
 70
     0
  3
Center (.5x) ___ _ ___ _ ___ _ ___ _ ___ _ ___
 72
    65
 73
     4
 40
1.125
 49
0.75
 74
     0
 49
-0.125
 74
     0
 49
0.125
 74
     0
 49
-0.125
 74
     0
  0
LTYPE
  5
91
330
5
100
AcDbSymbolTableRecord
100
AcDbLinetypeTableRecord
  2
CENTERX2
 70
     0
  3
Center (2x) ________  __  ________  __  _____
 72
    65
 73
     4
 40
4.0
 49
2.5
 74
     0
 49
-0.5
 74
     0
 49
0.5
 74
     0
 49
-0.5
 74
     0
  0
LTYPE
  5
92
330
5
100
AcDbSymbolTableRecord
100
AcDbLinetypeTableRecord
  2
DASHDOT2
 70
     0
  3
Dash dot (.5x) _._._._._._._._._._._._._._._.
 72
    65
 73
     4
 40
0.5
 49
0.25
 74
     0
 49
-0.125
 74
     0
 49
0.0
 74
     0
 49
-0.125
 74
     0
  0
LTYPE
  5
93
330
5
100
AcDbSymbolTableRecord
100
AcDbLinetypeTableRecord
  2
DASHDOTX2
 70
     0
  3
Dash dot (2x) ____  .  ____  .  ____  .  ___
 72
    65
 73
     4
 40
2.0
 49
1.0
 74
     0
 49
-0.5
 74
     0
 49
0.0
 74
     0
 49
-0.5
 74
     0
  0
LTYPE
  5
95
330
5
100
AcDbSymbolTableRecord
100
AcDbLinetypeTableRecord
  2
DASHED2
 70
     0
  3
Dashed (.5x) _ _ _ _ _ _ _ _ _ _ _ _ _ _ _ _ _
 72
    65
 73
     2
 40
0.375
 49
0.25
 74
     0
 49
-0.125
 74
     0
  0
LTYPE
  5
96
330
5
100
AcDbSymbolTableRecord
100
AcDbLinetypeTableRecord
  2
DASHEDX2
 70
     0
  3
Dashed (2x) ____  ____  ____  ____  ____  ___
 72
    65
 73
     2
 40
1.5
 49
1.0
 74
     0
 49
-0.5
 74
     0
  0
LTYPE
  5
97
330
5
100
AcDbSymbolTableRecord
100
AcDbLinetypeTableRecord
  2
DIVIDE
 70
     0
  3
Divide ____ . . ____ . . ____ . . ____ . . ____
 72
    65
 73
     6
 40
1.25
 49
0.5
 74
     0
 49
-0.25
 74
     0
 49
0.0
 74
     0
 49
-0.25
 74
     0
 49
0.0
 74
     0
 49
-0.25
 74
     0
  0
LTYPE
  5
98
330
5
100
AcDbSymbolTableRecord
100
AcDbLinetypeTableRecord
  2
DIVIDE2
 70
     0
  3
Divide (.5x) __..__..__..__..__..__..__..__.._
 72
    65
 73
     6
 40
0.625
 49
0.25
 74
     0
 49
-0.125
 74
     0
 49
0.0
 74
     0
 49
-0.125
 74
     0
 49
0.0
 74
     0
 49
-0.125
 74
     0
  0
LTYPE
  5
99
330
5
100
AcDbSymbolTableRecord
100
AcDbLinetypeTableRecord
  2
DIVIDEX2
 70
     0
  3
Divide (2x) ________  .  .  ________  .  .  _
 72
    65
 73
     6
 40
2.5
 49
1.0
 74
     0
 49
-0.5
 74
     0
 49
0.0
 74
     0
 49
-0.5
 74
     0
 49
0.0
 74
     0
 49
-0.5
 74
     0
  0
LTYPE
  5
9A
330
5
100
AcDbSymbolTableRecord
100
AcDbLinetypeTableRecord
  2
DOT
 70
     0
  3
Dot . . . . . . . . . . . . . . . . . . . . . .
 72
    65
 73
     2
 40
0.25
 49
0.0
 74
     0
 49
-0.25
 74
     0
  0
LTYPE
  5
9B
330
5
100
AcDbSymbolTableRecord
100
AcDbLinetypeTableRecord
  2
DOT2
 70
     0
  3
Dot (.5x) .....................................
 72
    65
 73
     2
 40
0.125
 49
0.0
 74
     0
 49
-0.125
 74
     0
  0
LTYPE
  5
9C
330
5
100
AcDbSymbolTableRecord
100
AcDbLinetypeTableRecord
  2
DOTX2
 70
     0
  3
Dot (2x) .  .  .  .  .  .  .  .  .  .  .  .  . 
 72
    65
 73
     2
 40
0.5
 49
0.0
 74
     0
 49
-0.5
 74
     0
  0
LTYPE
  5
9D
330
5
100
AcDbSymbolTableRecord
100
AcDbLinetypeTableRecord
  2
HIDDEN
 70
     0
  3
Hidden __ __ __ __ __ __ __ __ __ __ __ __ __ _
 72
    65
 73
     2
 40
0.375
 49
0.25
 74
     0
 49
-0.125
 74
     0
  0
LTYPE
  5
9E
330
5
100
AcDbSymbolTableRecord
100
AcDbLinetypeTableRecord
  2
HIDDEN2
 70
     0
  3
Hidden (.5x) _ _ _ _ _ _ _ _ _ _ _ _ _ _ _ _ _
 72
    65
 73
     2
 40
0.1875
 49
0.125
 74
     0
 49
-0.0625
 74
     0
  0
LTYPE
  5
9F
330
5
100
AcDbSymbolTableRecord
100
AcDbLinetypeTableRecord
  2
HIDDENX2
 70
     0
  3
Hidden (2x) ____ ____ ____ ____ ____ ____ ____
 72
    65
 73
     2
 40
0.75
 49
0.5
 74
     0
 49
-0.25
 74
     0
  0
LTYPE
  5
A0
330
5
100
AcDbSymbolTableRecord
100
AcDbLinetypeTableRecord
  2
PHANTOM
 70
     0
  3
Phantom ______  __  __  ______  __  __  ______
 72
    65
 73
     6
 40
2.5
 49
1.25
 74
     0
 49
-0.25
 74
     0
 49
0.25
 74
     0
 49
-0.25
 74
     0
 49
0.25
 74
     0
 49
-0.25
 74
     0
  0
LTYPE
  5
A1
330
5
100
AcDbSymbolTableRecord
100
AcDbLinetypeTableRecord
  2
PHANTOM2
 70
     0
  3
Phantom (.5x) ___ _ _ ___ _ _ ___ _ _ ___ _ _
 72
    65
 73
     6
 40
1.25
 49
0.625
 74
     0
 49
-0.125
 74
     0
 49
0.125
 74
     0
 49
-0.125
 74
     0
 49
0.125
 74
     0
 49
-0.125
 74
     0
  0
LTYPE
  5
A2
330
5
100
AcDbSymbolTableRecord
100
AcDbLinetypeTableRecord
  2
PHANTOMX2
 70
     0
  3
Phantom (2x) ____________    ____    ____   _
 72
    65
 73
     6
 40
5.0
 49
2.5
 74
     0
 49
-0.5
 74
     0
 49
0.5
 74
     0
 49
-0.5
 74
     0
 49
0.5
 74
     0
 49
-0.5
 74
     0
  0
LTYPE
  5
A3
330
5
100
AcDbSymbolTableRecord
100
AcDbLinetypeTableRecord
  2
ACAD_ISO02W100
 70
     0
  3
ISO dash __ __ __ __ __ __ __ __ __ __ __ __ __
 72
    65
 73
     2
 40
0.59
 49
0.47
 74
     0
 49
-0.12
 74
     0
  0
LTYPE
  5
A4
330
5
100
AcDbSymbolTableRecord
100
AcDbLinetypeTableRecord
  2
ACAD_ISO03W100
 70
     0
  3
ISO dash space __    __    __    __    __    __
 72
    65
 73
     2
 40
1.179999999999999
 49
0.47
 74
     0
 49
-0.71
 74
     0
  0
LTYPE
  5
A5
330
5
100
AcDbSymbolTableRecord
100
AcDbLinetypeTableRecord
  2
ACAD_ISO04W100
 70
     0
  3
ISO long-dash dot ____ . ____ . ____ . ____ . _
 72
    65
 73
     4
 40
1.179999999999999
 49
0.9399999999999998
 74
     0
 49
-0.12
 74
     0
 49
0.0
 74
     0
 49
-0.12
 74
     0
  0
LTYPE
  5
A6
330
5
100
AcDbSymbolTableRecord
100
AcDbLinetypeTableRecord
  2
ACAD_ISO05W100
 70
     0
  3
ISO long-dash double-dot ____ .. ____ .. ____ .
 72
    65
 73
     6
 40
1.299999999999999
 49
0.9399999999999998
 74
     0
 49
-0.12
 74
     0
 49
0.0
 74
     0
 49
-0.12
 74
     0
 49
0.0
 74
     0
 49
-0.12
 74
     0
  0
LTYPE
  5
A7
330
5
100
AcDbSymbolTableRecord
100
AcDbLinetypeTableRecord
  2
ACAD_ISO06W100
 70
     0
  3
ISO long-dash triple-dot ____ ... ____ ... ____
 72
    65
 73
     8
 40
1.419999999999999
 49
0.9399999999999998
 74
     0
 49
-0.12
 74
     0
 49
0.0
 74
     0
 49
-0.12
 74
     0
 49
0.0
 74
     0
 49
-0.12
 74
     0
 49
0.0
 74
     0
 49
-0.12
 74
     0
  0
LTYPE
  5
A8
330
5
100
AcDbSymbolTableRecord
100
AcDbLinetypeTableRecord
  2
ACAD_ISO07W100
 70
     0
  3
ISO dot . . . . . . . . . . . . . . . . . . . .
 72
    65
 73
     2
 40
0.12
 49
0.0
 74
     0
 49
-0.12
 74
     0
  0
LTYPE
  5
A9
330
5
100
AcDbSymbolTableRecord
100
AcDbLinetypeTableRecord
  2
ACAD_ISO08W100
 70
     0
  3
ISO long-dash short-dash ____ __ ____ __ ____ _
 72
    65
 73
     4
 40
0.95
 49
0.47
 74
     0
 49
-0.12
 74
     0
 49
0.24
 74
     0
 49
-0.12
 74
     0
  0
LTYPE
  5
AA
330
5
100
AcDbSymbolTableRecord
100
AcDbLinetypeTableRecord
  2
ACAD_ISO09W100
 70
     0
  3
ISO long-dash double-short-dash ____ __ __ ____
 72
    65
 73
     6
 40
1.31
 49
0.47
 74
     0
 49
-0.12
 74
     0
 49
0.24
 74
     0
 49
-0.12
 74
     0
 49
0.24
 74
     0
 49
-0.12
 74
     0
  0
LTYPE
  5
AB
330
5
100
AcDbSymbolTableRecord
100
AcDbLinetypeTableRecord
  2
ACAD_ISO10W100
 70
     0
  3
ISO dash dot __ . __ . __ . __ . __ . __ . __ .
 72
    65
 73
     4
 40
0.71
 49
0.47
 74
     0
 49
-0.12
 74
     0
 49
0.0
 74
     0
 49
-0.12
 74
     0
  0
LTYPE
  5
AC
330
5
100
AcDbSymbolTableRecord
100
AcDbLinetypeTableRecord
  2
ACAD_ISO11W100
 70
     0
  3
ISO double-dash dot __ __ . __ __ . __ __ . __ 
 72
    65
 73
     6
 40
1.299999999999999
 49
0.47
 74
     0
 49
-0.12
 74
     0
 49
0.47
 74
     0
 49
-0.12
 74
     0
 49
0.0
 74
     0
 49
-0.12
 74
     0
  0
LTYPE
  5
AD
330
5
100
AcDbSymbolTableRecord
100
AcDbLinetypeTableRecord
  2
ACAD_ISO12W100
 70
     0
  3
ISO dash double-dot __ . . __ . . __ . . __ . .
 72
    65
 73
     6
 40
0.8299999999999998
 49
0.47
 74
     0
 49
-0.12
 74
     0
 49
0.0
 74
     0
 49
-0.12
 74
     0
 49
0.0
 74
     0
 49
-0.12
 74
     0
  0
LTYPE
  5
AE
330
5
100
AcDbSymbolTableRecord
100
AcDbLinetypeTableRecord
  2
ACAD_ISO13W100
 70
     0
  3
ISO double-dash double-dot __ __ . . __ __ . . 
 72
    65
 73
     8
 40
1.419999999999999
 49
0.47
 74
     0
 49
-0.12
 74
     0
 49
0.47
 74
     0
 49
-0.12
 74
     0
 49
0.0
 74
     0
 49
-0.12
 74
     0
 49
0.0
 74
     0
 49
-0.12
 74
     0
  0
LTYPE
  5
AF
330
5
100
AcDbSymbolTableRecord
100
AcDbLinetypeTableRecord
  2
ACAD_ISO14W100
 70
     0
  3
ISO dash triple-dot __ . . . __ . . . __ . . . 
 72
    65
 73
     8
 40
0.95
 49
0.47
 74
     0
 49
-0.12
 74
     0
 49
0.0
 74
     0
 49
-0.12
 74
     0
 49
0.0
 74
     0
 49
-0.12
 74
     0
 49
0.0
 74
     0
 49
-0.12
 74
     0
  0
LTYPE
  5
B0
330
5
100
AcDbSymbolTableRecord
100
AcDbLinetypeTableRecord
  2
ACAD_ISO15W100
 70
     0
  3
ISO double-dash triple-dot __ __ . . . __ __ . 
 72
    65
 73
    10
 40
1.539999999999999
 49
0.47
 74
     0
 49
-0.12
 74
     0
 49
0.47
 74
     0
 49
-0.12
 74
     0
 49
0.0
 74
     0
 49
-0.12
 74
     0
 49
0.0
 74
     0
 49
-0.12
 74
     0
 49
0.0
 74
     0
 49
-0.12
 74
     0
  0
LTYPE
  5
B3
330
5
100
AcDbSymbolTableRecord
100
AcDbLinetypeTableRecord
  2
FENCELINE1
 70
     0
  3
Fenceline circle ----0-----0----0-----0----0---
 72
    65
 73
     4
 40
1.45
 49
0.25
 74
     0
 49
-0.1
 74
     4
 75
   133
340
B2
 46
0.1
 50
0.0
 44
-0.1
 45
0.0
 49
-0.1
 74
     0
 49
1.0
 74
     0
  0
LTYPE
  5
B4
330
5
100
AcDbSymbolTableRecord
100
AcDbLinetypeTableRecord
  2
FENCELINE2
 70
     0
  3
Fenceline square ----[]-----[]----[]-----[]----
 72
    65
 73
     4
 40
1.45
 49
0.25
 74
     0
 49
-0.1
 74
     4
 75
   132
340
B2
 46
0.1
 50
0.0
 44
-0.1
 45
0.0
 49
-0.1
 74
     0
 49
1.0
 74
     0
  0
LTYPE
  5
B5
330
5
100
AcDbSymbolTableRecord
100
AcDbLinetypeTableRecord
  2
TRACKS
 70
     0
  3
Tracks -|-|-|-|-|-|-|-|-|-|-|-|-|-|-|-|-|-|-|-|
 72
    65
 73
     2
 40
0.3
 49
0.15
 74
     4
 75
   130
340
B2
 46
0.25
 50
0.0
 44
0.0
 45
0.0
 49
0.15
 74
     0
  0
LTYPE
  5
B6
330
5
100
AcDbSymbolTableRecord
100
AcDbLinetypeTableRecord
  2
BATTING
 70
     0
  3
Batting SSSSSSSSSSSSSSSSSSSSSSSSSSSSSSSSSSSSSSS
 72
    65
 73
     4
 40
0.4001000000000001
 49
0.0001
 74
     0
 49
-0.1
 74
     4
 75
   134
340
B2
 46
0.1
 50
0.0
 44
-0.1
 45
0.0
 49
-0.2
 74
     4
 75
   134
340
B2
 46
0.1
 50
180.0
 44
0.1
 45
0.0
 49
-0.1
 74
     0
  0
LTYPE
  5
B7
330
5
100
AcDbSymbolTableRecord
100
AcDbLinetypeTableRecord
  2
HOT_WATER_SUPPLY
 70
     0
  3
Hot water supply ---- HW ---- HW ---- HW ----
 72
    65
 73
     3
 40
0.9
 49
0.5
 74
     0
 49
-0.2
 74
     2
 75
     0
340
55
 46
0.1
 50
0.0
 44
-0.1
 45
-0.05
  9
HW
 49
-0.2
 74
     0
  0
LTYPE
  5
B8
330
5
100
AcDbSymbolTableRecord
100
AcDbLinetypeTableRecord
  2
GAS_LINE
 70
     0
  3
Gas line ----GAS----GAS----GAS----GAS----GAS---
 72
    65
 73
     3
 40
0.95
 49
0.5
 74
     0
 49
-0.2
 74
     2
 75
     0
340
55
 46
0.1
 50
0.0
 44
-0.1
 45
-0.05
  9
GAS
 49
-0.25
 74
     0
  0
LTYPE
  5
B9
330
5
100
AcDbSymbolTableRecord
100
AcDbLinetypeTableRecord
  2
ZIGZAG
 70
     0
  3
Zig zag /\/\/\/\/\/\/\/\/\/\/\/\/\/\/\/\/\/\/\/
 72
    65
 73
     4
 40
0.8001000000000001
 49
0.0001
 74
     0
 49
-0.2
 74
     4
 75
   131
340
B2
 46
0.2
 50
0.0
 44
-0.2
 45
0.0
 49
-0.4
 74
     4
 75
   131
340
B2
 46
0.2
 50
180.0
 44
0.2
 45
0.0
 49
-0.2
 74
     0
  0
ENDTAB
  0
TABLE
  2
LAYER
  5
2
330
0
100
AcDbSymbolTable
 70
    27
  0
LAYER
  5
54
330
2
100
AcDbSymbolTableRecord
100
AcDbLayerTableRecord
  2
0
 70
     0
 62
     7
  6
Continuous
370
    18
390
F
347
21
  0
LAYER
  5
C0
330
2
100
AcDbSymbolTableRecord
100
AcDbLayerTableRecord
  2
Center Mark (ANSI)
 70
     0
 62
     7
  6
Continuous
370
    15
390
F
347
21
  0
LAYER
  5
C1
330
2
100
AcDbSymbolTableRecord
100
AcDbLayerTableRecord
  2
Centerline (ANSI)
 70
     0
 62
     7
  6
Continuous
370
    15
390
F
347
21
  0
LAYER
  5
C3
330
2
100
AcDbSymbolTableRecord
100
AcDbLayerTableRecord
  2
Dimension (ANSI)
 70
     0
 62
     7
  6
Continuous
370
    13
390
F
347
21
  0
LAYER
  5
C5
330
2
100
AcDbSymbolTableRecord
100
AcDbLayerTableRecord
  2
Hidden (ANSI)
 70
     0
 62
     7
  6
DASHED
370
    15
390
F
347
21
  0
LAYER
  5
CC
330
2
100
AcDbSymbolTableRecord
100
AcDbLayerTableRecord
  2
Symbol (ANSI)
 70
     0
 62
     7
  6
Continuous
370
    18
390
F
347
21
  0
LAYER
  5
CF
330
2
100
AcDbSymbolTableRecord
100
AcDbLayerTableRecord
  2
Visible (ANSI)
 70
     0
 62
     7
  6
Continuous
370
    13
390
F
347
21
  0
LAYER
  5
D0
330
2
100
AcDbSymbolTableRecord
100
AcDbLayerTableRecord
  2
Visible Narrow (ANSI)
 70
     0
 62
     7
  6
Continuous
370
    18
390
F
347
21
  0
LAYER
  5
54E
330
2
100
AcDbSymbolTableRecord
100
AcDbLayerTableRecord
  2
Defpoints
 70
     0
 62
     7
  6
Continuous
290
     0
370
    -3
390
F
347
21
  0
ENDTAB
  0
TABLE
  2
STYLE
  5
3
330
0
100
AcDbSymbolTable
 70
    18
  0
STYLE
  5
55
330
3
100
AcDbSymbolTableRecord
100
AcDbTextStyleTableRecord
  2
Standard
 70
     0
 40
0.0
 41
1.0
 50
0.0
 71
     0
 42
0.2
  3
txt
  4

  0
STYLE
  5
5A
330
3
100
AcDbSymbolTableRecord
100
AcDbTextStyleTableRecord
  2
Annotative
 70
     0
 40
0.0
 41
1.0
 50
0.0
 71
     0
 42
0.2
  3
txt
  4

1001
AcadAnnotative
1000
AnnotativeData
1002
{
1070
     1
1070
     1
1002
}
  0
STYLE
  5
B2
330
3
100
AcDbSymbolTableRecord
100
AcDbTextStyleTableRecord
  2

 70
     1
 40
0.0
 41
1.0
 50
0.0
 71
     0
 42
0.2
  3
ltypeshp.shx
  4

  0
STYLE
  5
D4
330
3
100
AcDbSymbolTableRecord
100
AcDbTextStyleTableRecord
  2
ITALICC_120
 70
     0
 40
0.0
 41
1.0
 50
0.0
 71
     0
 42
0.2
  3
italicc.shx
  4

  0
STYLE
  5
D5
330
3
100
AcDbSymbolTableRecord
100
AcDbTextStyleTableRecord
  2
Label Text (ANSI)
 70
     0
 40
0.0
 41
1.0
 50
0.0
 71
     0
 42
0.2
  3
tahoma.ttf
  4

1001
ACAD
1000
Tahoma
1071
      256
  0
STYLE
  5
D6
330
3
100
AcDbSymbolTableRecord
100
AcDbTextStyleTableRecord
  2
Note Text (ANSI)
 70
     0
 40
0.0
 41
1.0
 50
0.0
 71
     0
 42
0.2
  3
tahoma.ttf
  4

1001
ACAD
1000
Tahoma
1071
      256
  0
STYLE
  5
D7
330
3
100
AcDbSymbolTableRecord
100
AcDbTextStyleTableRecord
  2
ROMANS
 70
     0
 40
0.0
 41
1.0
 50
0.0
 71
     0
 42
0.2
  3
romans.shx
  4

  0
STYLE
  5
D8
330
3
100
AcDbSymbolTableRecord
100
AcDbTextStyleTableRecord
  2
SANSSERIF_114
 70
     0
 40
0.0
 41
1.0
 50
0.0
 71
     0
 42
0.2
  3
tahoma.ttf
  4

1001
ACAD
1000
Tahoma
1071
      256
  0
STYLE
  5
D9
330
3
100
AcDbSymbolTableRecord
100
AcDbTextStyleTableRecord
  2
SANSSERIF_117
 70
     0
 40
0.0
 41
1.0
 50
0.0
 71
     0
 42
0.2
  3
tahoma.ttf
  4

1001
ACAD
1000
Tahoma
1071
      256
  0
STYLE
  5
DA
330
3
100
AcDbSymbolTableRecord
100
AcDbTextStyleTableRecord
  2
STANDARDAM_ANSI
 70
     0
 40
0.0
 41
1.0
 50
0.0
 71
     0
 42
0.2
  3
txt.shx
  4

  0
STYLE
  5
DB
330
3
100
AcDbSymbolTableRecord
100
AcDbTextStyleTableRecord
  2
StandardAM_ANSI$0
 70
     0
 40
0.0
 41
1.0
 50
0.0
 71
     0
 42
0.2
  3
txt.shx
  4

  0
STYLE
  5
DC
330
3
100
AcDbSymbolTableRecord
100
AcDbTextStyleTableRecord
  2
STANDARDAM_ANSI$3
 70
     0
 40
0.0
 41
1.0
 50
0.0
 71
     0
 42
0.2
  3
txt.shx
  4

  0
STYLE
  5
DD
330
3
100
AcDbSymbolTableRecord
100
AcDbTextStyleTableRecord
  2
STANDARDAM_ANSI$4
 70
     0
 40
0.0
 41
1.0
 50
0.0
 71
     0
 42
0.2
  3
txt.shx
  4

  0
STYLE
  5
DE
330
3
100
AcDbSymbolTableRecord
100
AcDbTextStyleTableRecord
  2
STANDARDAM_ANSI$7
 70
     0
 40
0.0
 41
1.0
 50
0.0
 71
     0
 42
0.2
  3
txt.shx
  4

  0
STYLE
  5
DF
330
3
100
AcDbSymbolTableRecord
100
AcDbTextStyleTableRecord
  2
STANDARDAM_ANSI$SF
 70
     0
 40
0.0
 41
1.0
 50
0.0
 71
     0
 42
0.2
  3
txt.shx
  4

  0
STYLE
  5
E0
330
3
100
AcDbSymbolTableRecord
100
AcDbTextStyleTableRecord
  2
STANDARDAM_ANSI$SH
 70
     0
 40
0.0
 41
1.0
 50
0.0
 71
     0
 42
0.2
  3
txt.shx
  4

  0
STYLE
  5
E1
330
3
100
AcDbSymbolTableRecord
100
AcDbTextStyleTableRecord
  2
STANDARDSTANDARD
 70
     0
 40
0.0
 41
1.0
 50
0.0
 71
     0
 42
0.2
  3
txt.shx
  4

  0
STYLE
  5
2E3
330
3
100
AcDbSymbolTableRecord
100
AcDbTextStyleTableRecord
  2
Text Style153
 70
     0
 40
0.0
 41
1.0
 50
0.0
 71
     0
 42
0.2
  3
tahoma.ttf
  4

1001
ACAD
1000
Tahoma
1071
      256
  0
ENDTAB
  0
TABLE
  2
VIEW
  5
6
330
0
100
AcDbSymbolTable
 70
     0
  0
ENDTAB
  0
TABLE
  2
UCS
  5
7
330
0
100
AcDbSymbolTable
 70
     0
  0
ENDTAB
  0
TABLE
  2
APPID
  5
9
330
0
100
AcDbSymbolTable
 70
     3
  0
APPID
  5
56
330
9
100
AcDbSymbolTableRecord
100
AcDbRegAppTableRecord
  2
ACAD
 70
     0
  0
APPID
  5
5E
330
9
100
AcDbSymbolTableRecord
100
AcDbRegAppTableRecord
  2
AcadAnnotative
 70
     0
  0
APPID
  5
C64
330
9
100
AcDbSymbolTableRecord
100
AcDbRegAppTableRecord
  2
ACAD_DSTYLE_DIMRADIAL_EXTENSION
 70
     0
  0
ENDTAB
  0
TABLE
  2
DIMSTYLE
  5
A
330
0
100
AcDbSymbolTable
 70
    27
100
AcDbDimStyleTable
 71
     2
340
F6
340
58
  0
DIMSTYLE
105
58
330
A
100
AcDbSymbolTableRecord
100
AcDbDimStyleTableRecord
  2
STANDARD
 70
     0
 41
0.1800000071525573
 42
0.0625
140
0.1800000071525574
144
1.0
147
0.0900000035762787
176
   256
177
   256
178
   256
274
     3
340
55
371
    -1
372
    -1
  0
DIMSTYLE
105
59
330
A
100
AcDbSymbolTableRecord
100
AcDbDimStyleTableRecord
  2
Annotative
 70
     0
340
55
1001
AcadAnnotative
1000
AnnotativeData
1002
{
1070
     1
1070
     1
1002
}
  0
DIMSTYLE
105
E2
330
A
100
AcDbSymbolTableRecord
100
AcDbDimStyleTableRecord
  2
AM_ANSI
 70
     0
  4
 mm
 40
11.0
 41
0.119999997317791
 42
0.05
 43
0.5
 44
0.1
 45
0.00000001
 78
     4
 79
     2
140
0.1200000047683716
146
0.7099999189376831
147
0.0599999986588955
176
   256
177
   256
178
     2
284
     4
340
DA
371
    -1
372
    -1
  0
DIMSTYLE
105
E3
330
A
100
AcDbSymbolTableRecord
100
AcDbDimStyleTableRecord
  2
AM_ANSI$7
 70
     0
  4
 mm
 40
11.0
 41
0.119999997317791
 42
0.05
 43
0.5
 44
0.1
 45
0.00000001
 78
     4
 79
     2
140
0.1200000047683716
146
0.7099999189376831
147
0.0599999986588955
176
   256
177
   256
178
     2
284
     4
340
DA
371
    -1
372
    -1
  0
DIMSTYLE
105
E4
330
A
100
AcDbSymbolTableRecord
100
AcDbDimStyleTableRecord
  2
AM_ANSI$0
 70
     0
  4
 mm
 40
11.0
 41
0.119999997317791
 42
0.05
 43
0.5
 44
0.1
 45
0.00000001
 78
     4
 79
     2
140
0.1200000047683716
146
0.7099999189376831
147
0.0599999986588955
176
   256
177
   256
178
     2
284
     4
340
DB
371
    -1
372
    -1
  0
DIMSTYLE
105
E5
330
A
100
AcDbSymbolTableRecord
100
AcDbDimStyleTableRecord
  2
AM_ANSI$0$7
 70
     0
  4
 mm
 40
11.0
 41
0.119999997317791
 42
0.05
 43
0.5
 44
0.1
 45
0.00000001
 78
     4
 79
     2
140
0.1200000047683716
146
0.7099999189376831
147
0.0599999986588955
176
   256
177
   256
178
     2
284
     4
340
DB
371
    -1
372
    -1
  0
DIMSTYLE
105
E6
330
A
100
AcDbSymbolTableRecord
100
AcDbDimStyleTableRecord
  2
AM_ANSI$3
 70
     0
  4
 mm
 40
11.0
 41
0.119999997317791
 42
0.05
 43
0.5
 44
0.1
 45
0.00000001
 78
     4
 79
     2
140
0.1200000047683716
146
0.7099999189376831
147
0.0599999986588955
176
   256
177
   256
178
     2
284
     4
340
DC
371
    -1
372
    -1
  0
DIMSTYLE
105
E7
330
A
100
AcDbSymbolTableRecord
100
AcDbDimStyleTableRecord
  2
AM_ANSI$3$7
 70
     0
  4
 mm
 40
11.0
 41
0.119999997317791
 42
0.05
 43
0.5
 44
0.1
 45
0.00000001
 78
     4
 79
     2
140
0.1200000047683716
146
0.7099999189376831
147
0.0599999986588955
176
   256
177
   256
178
     2
284
     4
340
DC
371
    -1
372
    -1
  0
DIMSTYLE
105
E8
330
A
100
AcDbSymbolTableRecord
100
AcDbDimStyleTableRecord
  2
AM_ANSI$4
 70
     0
  4
 mm
 40
11.0
 41
0.119999997317791
 42
0.05
 43
0.5
 44
0.1
 45
0.00000001
 78
     4
 79
     2
140
0.1200000047683716
146
0.7099999189376831
147
0.0599999986588955
176
   256
177
   256
178
     2
284
     4
340
DD
371
    -1
372
    -1
  0
DIMSTYLE
105
E9
330
A
100
AcDbSymbolTableRecord
100
AcDbDimStyleTableRecord
  2
AM_ANSI$4$7
 70
     0
  4
 mm
 40
11.0
 41
0.119999997317791
 42
0.05
 43
0.5
 44
0.1
 45
0.00000001
 78
     4
 79
     2
140
0.1200000047683716
146
0.7099999189376831
147
0.0599999986588955
176
   256
177
   256
178
     2
284
     4
340
DD
371
    -1
372
    -1
  0
DIMSTYLE
105
EA
330
A
100
AcDbSymbolTableRecord
100
AcDbDimStyleTableRecord
  2
AM_ANSI$SF
 70
     0
  4
 mm
 40
11.0
 41
0.119999997317791
 42
0.05
 43
0.5
 44
0.1
 45
0.00000001
 75
     1
 76
     1
 78
     4
 79
     2
140
0.1200000047683716
146
0.7099999189376831
147
0.0599999986588955
176
   256
177
   256
178
     2
284
     4
340
DF
371
    -1
372
    -1
  0
DIMSTYLE
105
EB
330
A
100
AcDbSymbolTableRecord
100
AcDbDimStyleTableRecord
  2
AM_ANSI$SF$7
 70
     0
  4
 mm
 40
11.0
 41
0.119999997317791
 42
0.05
 43
0.5
 44
0.1
 45
0.00000001
 75
     1
 76
     1
 78
     4
 79
     2
140
0.1200000047683716
146
0.7099999189376831
147
0.0599999986588955
176
   256
177
   256
178
     2
284
     4
340
DF
371
    -1
372
    -1
  0
DIMSTYLE
105
EC
330
A
100
AcDbSymbolTableRecord
100
AcDbDimStyleTableRecord
  2
AM_ANSI$SH
 70
     0
  4
 mm
 40
11.0
 41
0.119999997317791
 42
0.05
 43
0.5
 44
0.1
 45
0.00000001
 75
     1
 76
     1
 78
     4
 79
     2
140
0.1200000047683716
146
0.7099999189376831
147
0.0599999986588955
176
   256
177
   256
178
     2
284
     4
340
E0
371
    -1
372
    -1
  0
DIMSTYLE
105
ED
330
A
100
AcDbSymbolTableRecord
100
AcDbDimStyleTableRecord
  2
AM_ANSI$SH$7
 70
     0
  4
 mm
 40
11.0
 41
0.119999997317791
 42
0.05
 43
0.5
 44
0.1
 45
0.00000001
 75
     1
 76
     1
 78
     4
 79
     2
140
0.1200000047683716
146
0.7099999189376831
147
0.0599999986588955
176
   256
177
   256
178
     2
284
     4
340
E0
371
    -1
372
    -1
  0
DIMSTYLE
105
EE
330
A
100
AcDbSymbolTableRecord
100
AcDbDimStyleTableRecord
  2
Architectural (ANSI)
 70
     0
 40
11.0
 41
0.0984251946210861
 43
0.2362204724409449
 44
0.125
 45
0.00000001
 46
0.3937007874015748
 78
     3
 79
     3
140
0.1200000047683716
147
0.031496062992126
171
     1
176
   256
177
   256
178
   256
272
     2
274
     1
276
     2
277
     4
284
    12
285
     4
286
    12
340
D6
371
    -1
372
    -1
  0
DIMSTYLE
105
EF
330
A
100
AcDbSymbolTableRecord
100
AcDbDimStyleTableRecord
  2
Architectural (ANSI)$7
 70
     0
 40
11.0
 41
0.0984251946210861
 43
0.2362204724409449
 44
0.125
 45
0.00000001
 46
0.3937007874015748
 78
     3
 79
     3
140
0.1200000047683716
147
0.031496062992126
171
     1
176
   256
177
   256
178
   256
272
     2
274
     1
276
     2
277
     4
284
    12
285
     4
286
    12
340
D6
371
    -1
372
    -1
  0
DIMSTYLE
105
F0
330
A
100
AcDbSymbolTableRecord
100
AcDbDimStyleTableRecord
  2
Default - Fraction (ANSI)
 70
     0
 40
11.0
 41
0.0984251946210861
 43
0.2362204724409449
 44
0.125
 45
0.00000001
 46
0.3937007874015748
 79
     3
140
0.1200000047683716
147
0.031496062992126
171
     1
176
   256
177
   256
178
   256
272
     2
274
     1
276
     2
277
     5
284
    12
285
     4
286
    12
340
D6
371
    -1
372
    -1
  0
DIMSTYLE
105
F1
330
A
100
AcDbSymbolTableRecord
100
AcDbDimStyleTableRecord
  2
Default - Fraction (ANSI)$7
 70
     0
 40
11.0
 41
0.0984251946210861
 43
0.2362204724409449
 44
0.125
 45
0.00000001
 46
0.3937007874015748
 79
     3
140
0.1200000047683716
147
0.031496062992126
171
     1
176
   256
177
   256
178
   256
272
     2
274
     1
276
     2
277
     5
284
    12
285
     4
286
    12
340
D6
371
    -1
372
    -1
  0
DIMSTYLE
105
F2
330
A
100
AcDbSymbolTableRecord
100
AcDbDimStyleTableRecord
  2
Default - mm (ANSI)
 70
     0
 40
11.0
 41
0.0984251946210861
 42
0.063
 43
0.2362204724409449
 44
0.125
 45
0.00000001
 46
0.3937007874015748
 73
     0
 78
     4
 79
     1
140
0.1200000047683716
143
1.0
144
25.4
147
0.031496062992126
171
     1
176
   256
177
   256
178
   256
179
     1
271
     2
272
     2
274
     1
284
     4
285
     4
340
D6
371
    -1
372
    -1
  0
DIMSTYLE
105
F3
330
A
100
AcDbSymbolTableRecord
100
AcDbDimStyleTableRecord
  2
Default - mm (ANSI)$7
 70
     0
 40
11.0
 41
0.0984251946210861
 42
0.063
 43
0.2362204724409449
 44
0.125
 45
0.00000001
 46
0.3937007874015748
 73
     0
 78
     4
 79
     1
140
0.1200000047683716
143
1.0
144
25.4
147
0.031496062992126
171
     1
176
   256
177
   256
178
   256
179
     1
271
     2
272
     2
274
     1
284
     4
285
     4
340
D6
371
    -1
372
    -1
  0
DIMSTYLE
105
F4
330
A
100
AcDbSymbolTableRecord
100
AcDbDimStyleTableRecord
  2
Default - mm [in] (ANSI)
 70
     0
  4
 in
 40
11.0
 41
0.0984251946210861
 42
0.063
 43
0.25
 44
0.125
 45
0.00000001
 46
0.3937007874015748
 73
     0
 78
     4
 79
     1
140
0.1200000047683716
143
0.03937
144
25.4
147
0.031496062992126
170
     1
171
     3
176
   256
177
   256
178
   256
179
     1
271
     2
272
     2
274
     3
284
     4
285
     4
286
     4
340
D6
371
    -1
372
    -1
  0
DIMSTYLE
105
F5
330
A
100
AcDbSymbolTableRecord
100
AcDbDimStyleTableRecord
  2
Default - mm [in] (ANSI)$7
 70
     0
  4
 in
 40
11.0
 41
0.0984251946210861
 42
0.063
 43
0.25
 44
0.125
 45
0.00000001
 46
0.3937007874015748
 73
     0
 78
     4
 79
     1
140
0.1200000047683716
143
0.03937
144
25.4
147
0.031496062992126
170
     1
171
     3
176
   256
177
   256
178
   256
179
     1
271
     2
272
     2
274
     3
284
     4
285
     4
286
     4
340
D6
371
    -1
372
    -1
  0
DIMSTYLE
105
F6
102
{ACAD_REACTORS
330
54C
330
638
330
722
330
80C
330
90C
330
9F6
330
AE0
330
BCA
330
C85
330
D8E
330
E80
102
}
330
A
100
AcDbSymbolTableRecord
100
AcDbDimStyleTableRecord
  2
Default (ANSI)
 70
     0
 40
11.0
 41
0.0984251946210861
 43
0.2362204724409449
 44
0.125
 45
0.00000001
 46
0.3937007874015748
 79
     1
140
0.1200000047683716
147
0.031496062992126
171
     1
176
   256
177
   256
178
   256
271
     2
272
     2
274
     1
284
     4
285
     4
340
D6
371
    -1
372
    -1
  0
DIMSTYLE
105
F7
330
A
100
AcDbSymbolTableRecord
100
AcDbDimStyleTableRecord
  2
Default (ANSI)$7
 70
     0
 40
11.0
 41
0.0984251946210861
 43
0.2362204724409449
 44
0.125
 45
0.00000001
 46
0.3937007874015748
 79
     1
140
0.1200000047683716
147
0.031496062992126
171
     1
176
   256
177
   256
178
   256
271
     2
272
     2
274
     1
284
     4
285
     4
340
D6
371
    -1
372
    -1
  0
DIMSTYLE
105
F8
330
A
100
AcDbSymbolTableRecord
100
AcDbDimStyleTableRecord
  2
Alternate (ANSI)
 70
     0
 40
11.0
 41
0.0979999974370003
340
55
342
F9
  0
DIMSTYLE
105
10B
330
A
100
AcDbSymbolTableRecord
100
AcDbDimStyleTableRecord
  2
Datum (ANSI)
 70
     0
 40
11.0
 41
0.0979999974370003
340
55
342
F9
  0
DIMSTYLE
105
11A
330
A
100
AcDbSymbolTableRecord
100
AcDbDimStyleTableRecord
  2
Large (ANSI)
 70
     0
 40
11.0
 41
0.1959999948740005
340
55
342
F9
  0
ENDTAB
  0
TABLE
  2
BLOCK_RECORD
  5
1
330
0
100
AcDbSymbolTable
 70
    15
  0
BLOCK_RECORD
  5
6C
330
1
100
AcDbSymbolTableRecord
100
AcDbBlockTableRecord
  2
*Model_Space
340
6F
 70
     0
280
     1
281
     0
  0
BLOCK_RECORD
  5
68
330
1
100
AcDbSymbolTableRecord
100
AcDbBlockTableRecord
  2
*Paper_Space
340
6B
 70
     0
280
     1
281
     0
  0
BLOCK_RECORD
  5
70
330
1
100
AcDbSymbolTableRecord
100
AcDbBlockTableRecord
  2
*Paper_Space0
340
73
 70
     0
280
     1
281
     0
  0
BLOCK_RECORD
  5
F9
330
1
100
AcDbSymbolTableRecord
100
AcDbBlockTableRecord
  2
_Closed
340
0
 70
     0
280
     1
281
     0
  0
BLOCK_RECORD
  5
100
330
1
100
AcDbSymbolTableRecord
100
AcDbBlockTableRecord
  2
DatumFilled45
340
0
 70
     0
280
     1
281
     0
  0
BLOCK_RECORD
  5
10C
330
1
100
AcDbSymbolTableRecord
100
AcDbBlockTableRecord
  2
Filled-1
340
0
 70
     0
280
     1
281
     0
  0
BLOCK_RECORD
  5
54F
330
1
100
AcDbSymbolTableRecord
100
AcDbBlockTableRecord
  2
*D4
340
0
 70
     0
280
     1
281
     0
  0
BLOCK_RECORD
  5
639
330
1
100
AcDbSymbolTableRecord
100
AcDbBlockTableRecord
  2
*D5
340
0
 70
     0
280
     1
281
     0
  0
BLOCK_RECORD
  5
723
330
1
100
AcDbSymbolTableRecord
100
AcDbBlockTableRecord
  2
*D6
340
0
 70
     0
280
     1
281
     0
  0
BLOCK_RECORD
  5
80D
330
1
100
AcDbSymbolTableRecord
100
AcDbBlockTableRecord
  2
*D7
340
0
 70
     0
280
     1
281
     0
  0
BLOCK_RECORD
  5
90D
330
1
100
AcDbSymbolTableRecord
100
AcDbBlockTableRecord
  2
*D8
340
0
 70
     0
280
     1
281
     0
  0
BLOCK_RECORD
  5
9F7
330
1
100
AcDbSymbolTableRecord
100
AcDbBlockTableRecord
  2
*D9
340
0
 70
     0
280
     1
281
     0
  0
BLOCK_RECORD
  5
AE1
330
1
100
AcDbSymbolTableRecord
100
AcDbBlockTableRecord
  2
*D10
340
0
 70
     0
280
     1
281
     0
  0
BLOCK_RECORD
  5
BCB
330
1
100
AcDbSymbolTableRecord
100
AcDbBlockTableRecord
  2
*D11
340
0
 70
     0
280
     1
281
     0
  0
BLOCK_RECORD
  5
C86
330
1
100
AcDbSymbolTableRecord
100
AcDbBlockTableRecord
  2
*D12
340
0
 70
     0
280
     1
281
     0
  0
BLOCK_RECORD
  5
D8F
330
1
100
AcDbSymbolTableRecord
100
AcDbBlockTableRecord
  2
*D13
340
0
 70
     0
280
     1
281
     0
  0
BLOCK_RECORD
  5
E81
330
1
100
AcDbSymbolTableRecord
100
AcDbBlockTableRecord
  2
*D14
340
0
 70
     0
280
     1
281
     0
  0
ENDTAB
  0
ENDSEC
  0
SECTION
  2
BLOCKS
  0
BLOCK
  5
6D
330
6C
100
AcDbEntity
  8
0
100
AcDbBlockBegin
  2
*Model_Space
 70
     0
 10
0.0
 20
0.0
 30
0.0
  3
*Model_Space
  1

  0
ENDBLK
  5
6E
330
6C
100
AcDbEntity
  8
0
100
AcDbBlockEnd
  0
BLOCK
  5
69
330
68
100
AcDbEntity
 67
     1
  8
0
100
AcDbBlockBegin
  2
*Paper_Space
 70
     0
 10
0.0
 20
0.0
 30
0.0
  3
*Paper_Space
  1

  0
ENDBLK
  5
6A
330
68
100
AcDbEntity
 67
     1
  8
0
100
AcDbBlockEnd
  0
BLOCK
  5
71
330
70
100
AcDbEntity
 67
     1
  8
0
100
AcDbBlockBegin
  2
*Paper_Space0
 70
     0
 10
0.0
 20
0.0
 30
0.0
  3
*Paper_Space0
  1

  0
ENDBLK
  5
72
330
70
100
AcDbEntity
 67
     1
  8
0
100
AcDbBlockEnd
  0
BLOCK
  5
FE
330
F9
100
AcDbEntity
  8
0
100
AcDbBlockBegin
  2
_Closed
 70
     0
 10
0.0
 20
0.0
 30
0.0
  3
_Closed
  1

  0
LINE
  5
FA
330
F9
100
AcDbEntity
  8
0
  6
ByBlock
 62
     0
370
    -2
100
AcDbLine
 10
-1.0
 20
0.1666666666666666
 30
0.0
 11
0.0
 21
0.0
 31
0.0
  0
LINE
  5
FB
330
F9
100
AcDbEntity
  8
0
  6
ByBlock
 62
     0
370
    -2
100
AcDbLine
 10
0.0
 20
0.0
 30
0.0
 11
-1.0
 21
-0.1666666666666666
 31
0.0
  0
LINE
  5
FC
330
F9
100
AcDbEntity
  8
0
  6
ByBlock
 62
     0
370
    -2
100
AcDbLine
 10
-1.0
 20
0.1666666666666666
 30
0.0
 11
-1.0
 21
-0.1666666666666666
 31
0.0
  0
LINE
  5
FD
330
F9
100
AcDbEntity
  8
0
  6
ByBlock
 62
     0
370
    -2
100
AcDbLine
 10
0.0
 20
0.0
 30
0.0
 11
-1.0
 21
0.0
 31
0.0
  0
ENDBLK
  5
FF
330
F9
100
AcDbEntity
  8
0
100
AcDbBlockEnd
  0
BLOCK
  5
101
330
100
100
AcDbEntity
  8
0
100
AcDbBlockBegin
  2
DatumFilled45
 70
     0
 10
0.0
 20
0.0
 30
0.0
  3
DatumFilled45
  1

  0
POLYLINE
  5
103
330
100
100
AcDbEntity
  8
0
 62
     0
100
AcDb2dPolyline
 66
     1
 10
0.0
 20
0.0
 30
0.0
 70
   128
  0
VERTEX
  5
104
330
103
100
AcDbEntity
  8
0
 62
     0
100
AcDbVertex
100
AcDb2dVertex
 10
0.0
 20
0.9999999999999998
 30
0.0
  0
VERTEX
  5
105
330
103
100
AcDbEntity
  8
0
 62
     0
100
AcDbVertex
100
AcDb2dVertex
 10
0.0
 20
-0.9999999999999998
 30
0.0
  0
VERTEX
  5
107
330
103
100
AcDbEntity
  8
0
 62
     0
100
AcDbVertex
100
AcDb2dVertex
 10
-0.9999999999999998
 20
0.0
 30
0.0
  0
VERTEX
  5
108
330
103
100
AcDbEntity
  8
0
 62
     0
100
AcDbVertex
100
AcDb2dVertex
 10
0.0
 20
0.9999999999999998
 30
0.0
  0
SEQEND
  5
106
330
103
100
AcDbEntity
  8
0
 62
     0
  0
SOLID
  5
10A
330
100
100
AcDbEntity
  8
0
 62
     0
100
AcDbTrace
 10
0.0
 20
0.9999999999999998
 30
0.0
 11
0.0
 21
-0.9999999999999998
 31
0.0
 12
-0.9999999999999998
 22
0.0
 32
0.0
 13
0.0
 23
0.9999999999999998
 33
0.0
  0
ENDBLK
  5
102
330
100
100
AcDbEntity
  8
0
100
AcDbBlockEnd
  0
BLOCK
  5
10D
330
10C
100
AcDbEntity
  8
0
100
AcDbBlockBegin
  2
Filled-1
 70
     0
 10
0.0
 20
0.0
 30
0.0
  3
Filled-1
  1

  0
LINE
  5
10F
330
10C
100
AcDbEntity
  8
0
 62
     0
100
AcDbLine
 10
-0.9999999999999998
 20
0.0
 30
0.0
 11
0.0
 21
0.0
 31
0.0
  0
POLYLINE
  5
110
330
10C
100
AcDbEntity
  8
0
 62
     0
100
AcDb2dPolyline
 66
     1
 10
0.0
 20
0.0
 30
0.0
 70
   128
  0
VERTEX
  5
111
330
110
100
AcDbEntity
  8
0
 62
     0
100
AcDbVertex
100
AcDb2dVertex
 10
-0.9999999999999998
 20
-0.0994897959183674
 30
0.0
  0
VERTEX
  5
112
330
110
100
AcDbEntity
  8
0
 62
     0
100
AcDbVertex
100
AcDb2dVertex
 10
0.0
 20
0.0
 30
0.0
  0
VERTEX
  5
114
330
110
100
AcDbEntity
  8
0
 62
     0
100
AcDbVertex
100
AcDb2dVertex
 10
-0.9999999999999998
 20
0.0994897959183674
 30
0.0
  0
VERTEX
  5
115
330
110
100
AcDbEntity
  8
0
 62
     0
100
AcDbVertex
100
AcDb2dVertex
 10
-0.9999999999999998
 20
-0.0994897959183674
 30
0.0
  0
SEQEND
  5
113
330
110
100
AcDbEntity
  8
0
 62
     0
  0
SOLID
  5
116
330
10C
100
AcDbEntity
  8
0
 62
     0
100
AcDbTrace
 10
-0.9999999999999998
 20
-0.0994897959183674
 30
0.0
 11
0.0
 21
0.0
 31
0.0
 12
-0.9999999999999998
 22
0.0994897959183674
 32
0.0
 13
-0.9999999999999998
 23
-0.0994897959183674
 33
0.0
  0
LINE
  5
117
330
10C
100
AcDbEntity
  8
0
 62
     0
100
AcDbLine
 10
-0.9999999999999998
 20
-0.0994897959183674
 30
0.0
 11
0.0
 21
0.0
 31
0.0
  0
LINE
  5
118
330
10C
100
AcDbEntity
  8
0
 62
     0
100
AcDbLine
 10
0.0
 20
0.0
 30
0.0
 11
-0.9999999999999998
 21
0.0994897959183674
 31
0.0
  0
LINE
  5
119
330
10C
100
AcDbEntity
  8
0
 62
     0
100
AcDbLine
 10
-0.9999999999999998
 20
0.0994897959183674
 30
0.0
 11
-0.9999999999999998
 21
-0.0994897959183674
 31
0.0
  0
ENDBLK
  5
10E
330
10C
100
AcDbEntity
  8
0
100
AcDbBlockEnd
  0
BLOCK
  5
550
330
54F
100
AcDbEntity
  8
0
100
AcDbBlockBegin
  2
*D4
 70
     1
 10
0.0
 20
0.0
 30
0.0
  3
*D4
  1

  0
LINE
  5
62E
330
54F
100
AcDbEntity
  8
Dimension (ANSI)
440
 16777216
100
AcDbLine
 10
33.48775098090147
 20
89.05489444610489
 30
0.0
 11
33.48775098090147
 21
100.7723802287564
 31
0.0
  0
LINE
  5
62F
330
54F
100
AcDbEntity
  8
Dimension (ANSI)
440
 16777216
100
AcDbLine
 10
77.48775098090146
 20
89.05489444610489
 30
0.0
 11
77.48775098090146
 21
100.7723802287564
 31
0.0
  0
LINE
  5
630
330
54F
100
AcDbEntity
  8
Dimension (ANSI)
440
 16777216
100
AcDbLine
 10
34.57042812173341
 20
99.39738022875646
 30
0.0
 11
52.93878246184441
 21
99.39738022875646
 31
0.0
  0
LINE
  5
631
330
54F
100
AcDbEntity
  8
Dimension (ANSI)
440
 16777216
100
AcDbLine
 10
76.40507384006951
 20
99.39738022875646
 30
0.0
 11
58.03671949995853
 21
99.39738022875646
 31
0.0
  0
SOLID
  5
632
330
54F
100
AcDbEntity
  8
Dimension (ANSI)
440
 16777216
100
AcDbTrace
 10
34.57042812173341
 20
99.57782641889512
 30
0.0
 11
34.57042812173341
 21
99.2169340386178
 31
0.0
 12
33.48775098090147
 22
99.39738022875646
 32
0.0
 13
33.48775098090147
 23
99.39738022875646
 33
0.0
  0
SOLID
  5
633
330
54F
100
AcDbEntity
  8
Dimension (ANSI)
440
 16777216
100
AcDbTrace
 10
76.40507384006951
 20
99.57782641889512
 30
0.0
 11
76.40507384006951
 21
99.2169340386178
 31
0.0
 12
77.48775098090146
 22
99.39738022875646
 32
0.0
 13
77.48775098090146
 23
99.39738022875646
 33
0.0
  0
MTEXT
  5
634
330
54F
100
AcDbEntity
  8
Dimension (ANSI)
440
 16777216
100
AcDbMText
 10
53.28523915475779
 20
100.0844185323432
 30
0.0
 40
1.320000052452087
 41
0.0
 46
0.0
 71
     1
 72
     1
  1
\A1;44.00
  7
Note Text (ANSI)
 73
     1
 44
1.0
  0
POINT
  5
635
330
54F
100
AcDbEntity
  8
Defpoints
 62
     0
440
 16777216
100
AcDbPoint
 10
33.48775098090147
 20
88.3673944461049
 30
0.0
  0
POINT
  5
636
330
54F
100
AcDbEntity
  8
Defpoints
 62
     0
440
 16777216
100
AcDbPoint
 10
77.48775098090146
 20
88.3673944461049
 30
0.0
  0
POINT
  5
637
330
54F
100
AcDbEntity
  8
Defpoints
 62
     0
440
 16777216
100
AcDbPoint
 10
77.48775098090146
 20
99.39738022875646
 30
0.0
  0
ENDBLK
  5
551
330
54F
100
AcDbEntity
  8
0
100
AcDbBlockEnd
  0
BLOCK
  5
63A
330
639
100
AcDbEntity
  8
0
100
AcDbBlockBegin
  2
*D5
 70
     1
 10
0.0
 20
0.0
 30
0.0
  3
*D5
  1

  0
LINE
  5
718
330
639
100
AcDbEntity
  8
Dimension (ANSI)
440
 16777216
100
AcDbLine
 10
33.48775098090147
 20
89.05489444610489
 30
0.0
 11
33.48775098090147
 21
94.4959435808569
 31
0.0
  0
LINE
  5
719
330
639
100
AcDbEntity
  8
Dimension (ANSI)
440
 16777216
100
AcDbLine
 10
34.36275098090147
 20
90.0497827937532
 30
0.0
 11
34.36275098090147
 21
94.4959435808569
 31
0.0
  0
LINE
  5
71A
330
639
100
AcDbEntity
  8
Dimension (ANSI)
440
 16777216
100
AcDbLine
 10
35.44542812173342
 20
93.1209435808569
 30
0.0
 11
36.52810526256536
 21
93.1209435808569
 31
0.0
  0
LINE
  5
71B
330
639
100
AcDbEntity
  8
Dimension (ANSI)
440
 16777216
100
AcDbLine
 10
32.40507384006952
 20
93.1209435808569
 30
0.0
 11
30.76297806287895
 21
93.1209435808569
 31
0.0
  0
SOLID
  5
71C
330
639
100
AcDbEntity
  8
Dimension (ANSI)
440
 16777216
100
AcDbTrace
 10
35.44542812173342
 20
93.30138977099556
 30
0.0
 11
35.44542812173342
 21
92.94049739071825
 31
0.0
 12
34.36275098090147
 22
93.1209435808569
 32
0.0
 13
34.36275098090147
 23
93.1209435808569
 33
0.0
  0
SOLID
  5
71D
330
639
100
AcDbEntity
  8
Dimension (ANSI)
440
 16777216
100
AcDbTrace
 10
32.40507384006952
 20
93.30138977099556
 30
0.0
 11
32.40507384006952
 21
92.94049739071825
 31
0.0
 12
33.48775098090147
 22
93.1209435808569
 32
0.0
 13
33.48775098090147
 23
93.1209435808569
 33
0.0
  0
MTEXT
  5
71E
330
639
100
AcDbEntity
  8
Dimension (ANSI)
440
 16777216
100
AcDbMText
 10
27.03274691217107
 20
93.81108463807278
 30
0.0
 40
1.320000052452087
 41
0.0
 46
0.0
 71
     1
 72
     1
  1
\A1;0.88
  7
Note Text (ANSI)
 73
     1
 44
1.0
  0
POINT
  5
71F
330
639
100
AcDbEntity
  8
Defpoints
 62
     0
440
 16777216
100
AcDbPoint
 10
33.48775098090147
 20
88.3673944461049
 30
0.0
  0
POINT
  5
720
330
639
100
AcDbEntity
  8
Defpoints
 62
     0
440
 16777216
100
AcDbPoint
 10
34.36275098090147
 20
89.3622827937532
 30
0.0
  0
POINT
  5
721
330
639
100
AcDbEntity
  8
Defpoints
 62
     0
440
 16777216
100
AcDbPoint
 10
34.36275098090147
 20
93.1209435808569
 30
0.0
  0
ENDBLK
  5
63B
330
639
100
AcDbEntity
  8
0
100
AcDbBlockEnd
  0
BLOCK
  5
724
330
723
100
AcDbEntity
  8
0
100
AcDbBlockBegin
  2
*D6
 70
     1
 10
0.0
 20
0.0
 30
0.0
  3
*D6
  1

  0
LINE
  5
802
330
723
100
AcDbEntity
  8
Dimension (ANSI)
440
 16777216
100
AcDbLine
 10
34.36275098090147
 20
90.0497827937532
 30
0.0
 11
34.36275098090147
 21
94.62094358085687
 31
0.0
  0
LINE
  5
803
330
723
100
AcDbEntity
  8
Dimension (ANSI)
440
 16777216
100
AcDbLine
 10
55.48775098090147
 20
90.0497827937532
 30
0.0
 11
55.48775098090147
 21
94.62094358085687
 31
0.0
  0
LINE
  5
804
330
723
100
AcDbEntity
  8
Dimension (ANSI)
440
 16777216
100
AcDbLine
 10
35.44542812173342
 20
93.24594358085688
 30
0.0
 11
42.4214940147256
 21
93.24594358085688
 31
0.0
  0
LINE
  5
805
330
723
100
AcDbEntity
  8
Dimension (ANSI)
440
 16777216
100
AcDbLine
 10
54.40507384006952
 20
93.24594358085688
 30
0.0
 11
47.42900794707734
 21
93.24594358085688
 31
0.0
  0
SOLID
  5
806
330
723
100
AcDbEntity
  8
Dimension (ANSI)
440
 16777216
100
AcDbTrace
 10
35.44542812173342
 20
93.42638977099552
 30
0.0
 11
35.44542812173342
 21
93.06549739071822
 31
0.0
 12
34.36275098090147
 22
93.24594358085688
 32
0.0
 13
34.36275098090147
 23
93.24594358085688
 33
0.0
  0
SOLID
  5
807
330
723
100
AcDbEntity
  8
Dimension (ANSI)
440
 16777216
100
AcDbTrace
 10
54.40507384006952
 20
93.42638977099552
 30
0.0
 11
54.40507384006952
 21
93.06549739071822
 31
0.0
 12
55.48775098090147
 22
93.24594358085688
 32
0.0
 13
55.48775098090147
 23
93.24594358085688
 33
0.0
  0
MTEXT
  5
808
330
723
100
AcDbEntity
  8
Dimension (ANSI)
440
 16777216
100
AcDbMText
 10
42.76795070763898
 20
93.93342513496209
 30
0.0
 40
1.320000052452087
 41
0.0
 46
0.0
 71
     1
 72
     1
  1
\A1;21.13
  7
Note Text (ANSI)
 73
     1
 44
1.0
  0
POINT
  5
809
330
723
100
AcDbEntity
  8
Defpoints
 62
     0
440
 16777216
100
AcDbPoint
 10
34.36275098090147
 20
89.3622827937532
 30
0.0
  0
POINT
  5
80A
330
723
100
AcDbEntity
  8
Defpoints
 62
     0
440
 16777216
100
AcDbPoint
 10
55.48775098090147
 20
89.3622827937532
 30
0.0
  0
POINT
  5
80B
330
723
100
AcDbEntity
  8
Defpoints
 62
     0
440
 16777216
100
AcDbPoint
 10
55.48775098090147
 20
93.24594358085688
 30
0.0
  0
ENDBLK
  5
725
330
723
100
AcDbEntity
  8
0
100
AcDbBlockEnd
  0
BLOCK
  5
80E
330
80D
100
AcDbEntity
  8
0
100
AcDbBlockBegin
  2
*D7
 70
     1
 10
0.0
 20
0.0
 30
0.0
  3
*D7
  1

  0
LINE
  5
901
330
80D
100
AcDbEntity
  8
Dimension (ANSI)
440
 16777216
100
AcDbLine
 10
33.0136393285498
 20
28.58078279375323
 30
0.0
 11
30.69361125644038
 21
28.58078279375323
 31
0.0
  0
LINE
  5
902
330
80D
100
AcDbEntity
  8
Dimension (ANSI)
440
 16777216
100
AcDbLine
 10
32.01875098090147
 20
29.45578279375323
 30
0.0
 11
30.69361125644038
 21
29.45578279375323
 31
0.0
  0
LINE
  5
903
330
80D
100
AcDbEntity
  8
Dimension (ANSI)
440
 16777216
100
AcDbLine
 10
32.06861125644038
 20
30.53845993458518
 30
0.0
 11
32.06861125644038
 21
31.62113707541712
 31
0.0
  0
LINE
  5
904
330
80D
100
AcDbEntity
  8
Dimension (ANSI)
440
 16777216
100
AcDbLine
 10
32.06861125644038
 20
27.49810565292128
 30
0.0
 11
32.06861125644038
 21
25.42380846904968
 31
0.0
  0
LINE
  5
905
330
80D
100
AcDbEntity
  8
Dimension (ANSI)
440
 16777216
100
AcDbLine
 10
32.06861125644038
 20
25.42380846904968
 30
0.0
 11
30.98593411560843
 21
25.42380846904968
 31
0.0
  0
SOLID
  5
906
330
80D
100
AcDbEntity
  8
Dimension (ANSI)
440
 16777216
100
AcDbTrace
 10
31.88816506630172
 20
30.53845993458518
 30
0.0
 11
32.24905744657904
 21
30.53845993458518
 31
0.0
 12
32.06861125644038
 22
29.45578279375323
 32
0.0
 13
32.06861125644038
 23
29.45578279375323
 33
0.0
  0
SOLID
  5
907
330
80D
100
AcDbEntity
  8
Dimension (ANSI)
440
 16777216
100
AcDbTrace
 10
31.88816506630172
 20
27.49810565292128
 30
0.0
 11
32.24905744657904
 21
27.49810565292128
 31
0.0
 12
32.06861125644038
 22
28.58078279375323
 32
0.0
 13
32.06861125644038
 23
28.58078279375323
 33
0.0
  0
MTEXT
  5
908
330
80D
100
AcDbEntity
  8
Dimension (ANSI)
440
 16777216
100
AcDbMText
 10
27.25570296490055
 20
26.11394952626557
 30
0.0
 40
1.320000052452087
 41
0.0
 46
0.0
 71
     1
 72
     1
  1
\A1;0.88
  7
Note Text (ANSI)
 73
     1
 44
1.0
  0
POINT
  5
909
330
80D
100
AcDbEntity
  8
Defpoints
 62
     0
440
 16777216
100
AcDbPoint
 10
33.7011393285498
 20
28.58078279375323
 30
0.0
  0
POINT
  5
90A
330
80D
100
AcDbEntity
  8
Defpoints
 62
     0
440
 16777216
100
AcDbPoint
 10
32.70625098090147
 20
29.45578279375323
 30
0.0
  0
POINT
  5
90B
330
80D
100
AcDbEntity
  8
Defpoints
 62
     0
440
 16777216
100
AcDbPoint
 10
32.06861125644038
 20
29.45578279375323
 30
0.0
  0
ENDBLK
  5
80F
330
80D
100
AcDbEntity
  8
0
100
AcDbBlockEnd
  0
BLOCK
  5
90E
330
90D
100
AcDbEntity
  8
0
100
AcDbBlockBegin
  2
*D8
 70
     1
 10
0.0
 20
0.0
 30
0.0
  3
*D8
  1

  0
LINE
  5
9EC
330
90D
100
AcDbEntity
  8
Dimension (ANSI)
440
 16777216
100
AcDbLine
 10
32.01875098090147
 20
29.45578279375323
 30
0.0
 11
27.65124927871682
 21
29.45578279375323
 31
0.0
  0
LINE
  5
9ED
330
90D
100
AcDbEntity
  8
Dimension (ANSI)
440
 16777216
100
AcDbLine
 10
32.01875098090148
 20
58.58078279375322
 30
0.0
 11
27.65124927871683
 21
58.58078279375322
 31
0.0
  0
LINE
  5
9EE
330
90D
100
AcDbEntity
  8
Dimension (ANSI)
440
 16777216
100
AcDbLine
 10
29.02624927871682
 20
30.53845993458518
 30
0.0
 11
29.02624927871682
 21
39.98434454673462
 31
0.0
  0
LINE
  5
9EF
330
90D
100
AcDbEntity
  8
Dimension (ANSI)
440
 16777216
100
AcDbLine
 10
29.02624927871683
 20
57.49810565292127
 30
0.0
 11
29.02624927871683
 21
42.05222104077182
 31
0.0
  0
SOLID
  5
9F0
330
90D
100
AcDbEntity
  8
Dimension (ANSI)
440
 16777216
100
AcDbTrace
 10
28.84580308857817
 20
30.53845993458518
 30
0.0
 11
29.20669546885548
 21
30.53845993458518
 31
0.0
 12
29.02624927871682
 22
29.45578279375323
 32
0.0
 13
29.02624927871682
 23
29.45578279375323
 33
0.0
  0
SOLID
  5
9F1
330
90D
100
AcDbEntity
  8
Dimension (ANSI)
440
 16777216
100
AcDbTrace
 10
28.84580308857817
 20
57.49810565292127
 30
0.0
 11
29.20669546885548
 21
57.49810565292127
 31
0.0
 12
29.02624927871683
 22
58.58078279375322
 32
0.0
 13
29.02624927871683
 23
58.58078279375322
 33
0.0
  0
MTEXT
  5
9F2
330
90D
100
AcDbEntity
  8
Dimension (ANSI)
440
 16777216
100
AcDbMText
 10
26.86894900545433
 20
41.70576434785845
 30
0.0
 40
1.320000052452087
 41
0.0
 46
0.0
 71
     1
 72
     1
  1
\A1;29.13
  7
Note Text (ANSI)
 73
     1
 44
1.0
  0
POINT
  5
9F3
330
90D
100
AcDbEntity
  8
Defpoints
 62
     0
440
 16777216
100
AcDbPoint
 10
32.70625098090147
 20
29.45578279375323
 30
0.0
  0
POINT
  5
9F4
330
90D
100
AcDbEntity
  8
Defpoints
 62
     0
440
 16777216
100
AcDbPoint
 10
32.70625098090148
 20
58.58078279375322
 30
0.0
  0
POINT
  5
9F5
330
90D
100
AcDbEntity
  8
Defpoints
 62
     0
440
 16777216
100
AcDbPoint
 10
29.02624927871683
 20
58.58078279375322
 30
0.0
  0
ENDBLK
  5
90F
330
90D
100
AcDbEntity
  8
0
100
AcDbBlockEnd
  0
BLOCK
  5
9F8
330
9F7
100
AcDbEntity
  8
0
100
AcDbBlockBegin
  2
*D9
 70
     1
 10
0.0
 20
0.0
 30
0.0
  3
*D9
  1

  0
LINE
  5
AD6
330
9F7
100
AcDbEntity
  8
Dimension (ANSI)
440
 16777216
100
AcDbLine
 10
32.01875098090147
 20
29.45578279375323
 30
0.0
 11
20.30762893365738
 21
29.45578279375323
 31
0.0
  0
LINE
  5
AD7
330
9F7
100
AcDbEntity
  8
Dimension (ANSI)
440
 16777216
100
AcDbLine
 10
32.01875098090147
 20
87.70578279375321
 30
0.0
 11
20.30762893365739
 21
87.70578279375323
 31
0.0
  0
LINE
  5
AD8
330
9F7
100
AcDbEntity
  8
Dimension (ANSI)
440
 16777216
100
AcDbLine
 10
21.68262893365739
 20
30.53845993458518
 30
0.0
 11
21.68262893365739
 21
57.54418504362394
 31
0.0
  0
LINE
  5
AD9
330
9F7
100
AcDbEntity
  8
Dimension (ANSI)
440
 16777216
100
AcDbLine
 10
21.68262893365739
 20
86.62310565292129
 30
0.0
 11
21.68262893365739
 21
59.61738054388248
 31
0.0
  0
SOLID
  5
ADA
330
9F7
100
AcDbEntity
  8
Dimension (ANSI)
440
 16777216
100
AcDbTrace
 10
21.50218274351873
 20
30.53845993458518
 30
0.0
 11
21.86307512379604
 21
30.53845993458518
 31
0.0
 12
21.68262893365739
 22
29.45578279375323
 32
0.0
 13
21.68262893365739
 23
29.45578279375323
 33
0.0
  0
SOLID
  5
ADB
330
9F7
100
AcDbEntity
  8
Dimension (ANSI)
440
 16777216
100
AcDbTrace
 10
21.50218274351874
 20
86.62310565292129
 30
0.0
 11
21.86307512379605
 21
86.62310565292129
 31
0.0
 12
21.68262893365739
 22
87.70578279375323
 32
0.0
 13
21.68262893365739
 23
87.70578279375323
 33
0.0
  0
MTEXT
  5
ADC
330
9F7
100
AcDbEntity
  8
Dimension (ANSI)
440
 16777216
100
AcDbMText
 10
19.52798816350555
 20
59.27092385096909
 30
0.0
 40
1.320000052452087
 41
0.0
 46
0.0
 71
     1
 72
     1
  1
\A1;58.25
  7
Note Text (ANSI)
 73
     1
 44
1.0
  0
POINT
  5
ADD
330
9F7
100
AcDbEntity
  8
Defpoints
 62
     0
440
 16777216
100
AcDbPoint
 10
32.70625098090147
 20
29.45578279375323
 30
0.0
  0
POINT
  5
ADE
330
9F7
100
AcDbEntity
  8
Defpoints
 62
     0
440
 16777216
100
AcDbPoint
 10
32.70625098090147
 20
87.70578279375321
 30
0.0
  0
POINT
  5
ADF
330
9F7
100
AcDbEntity
  8
Defpoints
 62
     0
440
 16777216
100
AcDbPoint
 10
21.68262893365739
 20
87.70578279375323
 30
0.0
  0
ENDBLK
  5
9F9
330
9F7
100
AcDbEntity
  8
0
100
AcDbBlockEnd
  0
BLOCK
  5
AE2
330
AE1
100
AcDbEntity
  8
0
100
AcDbBlockBegin
  2
*D10
 70
     1
 10
0.0
 20
0.0
 30
0.0
  3
*D10
  1

  0
LINE
  5
BC0
330
AE1
100
AcDbEntity
  8
Dimension (ANSI)
440
 16777216
100
AcDbLine
 10
33.0136393285498
 20
28.58078279375323
 30
0.0
 11
13.20533035863354
 21
28.58078279375323
 31
0.0
  0
LINE
  5
BC1
330
AE1
100
AcDbEntity
  8
Dimension (ANSI)
440
 16777216
100
AcDbLine
 10
33.01363932854979
 20
88.58078279375321
 30
0.0
 11
13.20533035863356
 21
88.58078279375323
 31
0.0
  0
LINE
  5
BC2
330
AE1
100
AcDbEntity
  8
Dimension (ANSI)
440
 16777216
100
AcDbLine
 10
14.58033035863355
 20
29.66345993458518
 30
0.0
 11
14.58033035863355
 21
57.54728779725305
 31
0.0
  0
LINE
  5
BC3
330
AE1
100
AcDbEntity
  8
Dimension (ANSI)
440
 16777216
100
AcDbLine
 10
14.58033035863356
 20
87.49810565292127
 30
0.0
 11
14.58033035863355
 21
59.61427779025338
 31
0.0
  0
SOLID
  5
BC4
330
AE1
100
AcDbEntity
  8
Dimension (ANSI)
440
 16777216
100
AcDbTrace
 10
14.39988416849489
 20
29.66345993458518
 30
0.0
 11
14.7607765487722
 21
29.66345993458518
 31
0.0
 12
14.58033035863355
 22
28.58078279375323
 32
0.0
 13
14.58033035863355
 23
28.58078279375323
 33
0.0
  0
SOLID
  5
BC5
330
AE1
100
AcDbEntity
  8
Dimension (ANSI)
440
 16777216
100
AcDbTrace
 10
14.3998841684949
 20
87.49810565292127
 30
0.0
 11
14.76077654877222
 21
87.49810565292127
 31
0.0
 12
14.58033035863356
 22
88.58078279375323
 32
0.0
 13
14.58033035863356
 23
88.58078279375323
 33
0.0
  0
MTEXT
  5
BC6
330
AE1
100
AcDbEntity
  8
Dimension (ANSI)
440
 16777216
100
AcDbMText
 10
12.3977648058198
 20
59.26782109734
 30
0.0
 40
1.320000052452087
 41
0.0
 46
0.0
 71
     1
 72
     1
  1
\A1;60.00
  7
Note Text (ANSI)
 73
     1
 44
1.0
  0
POINT
  5
BC7
330
AE1
100
AcDbEntity
  8
Defpoints
 62
     0
440
 16777216
100
AcDbPoint
 10
33.7011393285498
 20
28.58078279375323
 30
0.0
  0
POINT
  5
BC8
330
AE1
100
AcDbEntity
  8
Defpoints
 62
     0
440
 16777216
100
AcDbPoint
 10
33.70113932854979
 20
88.58078279375321
 30
0.0
  0
POINT
  5
BC9
330
AE1
100
AcDbEntity
  8
Defpoints
 62
     0
440
 16777216
100
AcDbPoint
 10
14.58033035863356
 20
88.58078279375323
 30
0.0
  0
ENDBLK
  5
AE3
330
AE1
100
AcDbEntity
  8
0
100
AcDbBlockEnd
  0
BLOCK
  5
BCC
330
BCB
100
AcDbEntity
  8
0
100
AcDbBlockBegin
  2
*D11
 70
     1
 10
0.0
 20
0.0
 30
0.0
  3
*D11
  1

  0
LINE
  5
C7D
330
BCB
100
AcDbEntity
  8
Dimension (ANSI)
440
 16777216
100
AcDbLine
 10
80.32812736484748
 20
26.46846242360501
 30
0.0
 11
78.91872461831052
 21
26.46846242360501
 31
0.0
  0
LINE
  5
C7E
330
BCB
100
AcDbEntity
  8
Dimension (ANSI)
440
 16777216
100
AcDbLine
 10
78.91872461831052
 20
26.46846242360501
 30
0.0
 11
77.44632803932294
 21
28.37590846808292
 31
0.0
  0
MTEXT
  5
C7F
330
BCB
100
AcDbEntity
  8
Dimension (ANSI)
440
 16777216
100
AcDbMText
 10
80.67458405776086
 20
26.46846242360501
 30
0.0
 40
1.320000052452087
 41
0.0
 46
0.0
 71
     4
 72
     1
  1
\A1;∅0.563{\P(8 PL.)}
  7
Note Text (ANSI)
 73
     1
 44
1.0
  0
SOLID
  5
C80
330
BCB
100
AcDbEntity
  8
Dimension (ANSI)
440
 16777216
100
AcDbTrace
 10
77.58916814568691
 20
28.48616966501765
 30
0.0
 11
77.30348793295894
 21
28.26564727114819
 31
0.0
 12
76.78476085771452
 22
29.23294910626687
 32
0.0
 13
76.78476085771452
 23
29.23294910626687
 33
0.0
  0
LINE
  5
C81
330
BCB
100
AcDbEntity
  8
Dimension (ANSI)
440
 16777216
100
AcDbLine
 10
75.62275098090148
 20
29.45578279375322
 30
0.0
 11
77.60275098090147
 21
29.45578279375323
 31
0.0
  0
LINE
  5
C82
330
BCB
100
AcDbEntity
  8
Dimension (ANSI)
440
 16777216
100
AcDbLine
 10
76.6127509809015
 20
28.46578279375324
 30
0.0
 11
76.6127509809015
 21
30.44578279375323
 31
0.0
  0
POINT
  5
C83
330
BCB
100
AcDbEntity
  8
Defpoints
 62
     0
440
 16777216
100
AcDbPoint
 10
76.78476085771452
 20
29.23294910626687
 30
0.0
  0
POINT
  5
C84
330
BCB
100
AcDbEntity
  8
Defpoints
 62
     0
440
 16777216
100
AcDbPoint
 10
76.44074110408848
 20
29.6786164812396
 30
0.0
  0
ENDBLK
  5
BCD
330
BCB
100
AcDbEntity
  8
0
100
AcDbBlockEnd
  0
BLOCK
  5
C87
330
C86
100
AcDbEntity
  8
0
100
AcDbBlockBegin
  2
*D12
 70
     1
 10
0.0
 20
0.0
 30
0.0
  3
*D12
  1

  0
LINE
  5
D85
330
C86
100
AcDbEntity
  8
Dimension (ANSI)
440
 16777216
100
AcDbLine
 10
68.87522422596321
 20
110.0328447656098
 30
0.0
 11
68.87522422596321
 21
108.9501676247778
 31
0.0
  0
LINE
  5
D86
330
C86
100
AcDbEntity
  8
Dimension (ANSI)
440
 16777216
100
AcDbLine
 10
68.87522422596321
 20
113.0731990472738
 30
0.0
 11
68.87522422596321
 21
116.6324962494984
 31
0.0
  0
LINE
  5
D87
330
C86
100
AcDbEntity
  8
Dimension (ANSI)
440
 16777216
100
AcDbLine
 10
68.87522422596321
 20
116.6324962494984
 30
0.0
 11
69.95790136679516
 21
116.6324962494984
 31
0.0
  0
SOLID
  5
D88
330
C86
100
AcDbEntity
  8
Dimension (ANSI)
440
 16777216
100
AcDbTrace
 10
68.69477803582455
 20
110.0328447656098
 30
0.0
 11
69.05567041610186
 21
110.0328447656098
 31
0.0
 12
68.87522422596321
 22
111.1155219064418
 32
0.0
 13
68.87522422596321
 23
111.1155219064418
 33
0.0
  0
SOLID
  5
D89
330
C86
100
AcDbEntity
  8
Dimension (ANSI)
440
 16777216
100
AcDbTrace
 10
68.69477803582455
 20
113.0731990472738
 30
0.0
 11
69.05567041610186
 21
113.0731990472738
 31
0.0
 12
68.87522422596321
 22
111.9905219064418
 32
0.0
 13
68.87522422596321
 23
111.9905219064418
 33
0.0
  0
MTEXT
  5
D8A
330
C86
100
AcDbEntity
  8
Dimension (ANSI)
440
 16777216
100
AcDbMText
 10
72.04810559926362
 20
116.6324962494984
 30
0.0
 40
1.320000052452087
 41
0.0
 46
0.0
 71
     5
 72
     1
  1
\A1;0.88{\PTYP.}
  7
Note Text (ANSI)
 73
     1
 44
1.0
  0
POINT
  5
D8B
330
C86
100
AcDbEntity
  8
Defpoints
 62
     0
440
 16777216
100
AcDbPoint
 10
72.04810559926362
 20
111.9905219064418
 30
0.0
  0
POINT
  5
D8C
330
C86
100
AcDbEntity
  8
Defpoints
 62
     0
440
 16777216
100
AcDbPoint
 10
72.0326191393016
 20
111.1155219064418
 30
0.0
  0
POINT
  5
D8D
330
C86
100
AcDbEntity
  8
Defpoints
 62
     0
440
 16777216
100
AcDbPoint
 10
68.87522422596321
 20
111.1155219064418
 30
0.0
  0
ENDBLK
  5
C88
330
C86
100
AcDbEntity
  8
0
100
AcDbBlockEnd
  0
BLOCK
  5
D90
330
D8F
100
AcDbEntity
  8
0
100
AcDbBlockBegin
  2
*D13
 70
     1
 10
0.0
 20
0.0
 30
0.0
  3
*D13
  1

  0
LINE
  5
E75
330
D8F
100
AcDbEntity
  8
Dimension (ANSI)
440
 16777216
100
AcDbLine
 10
101.8671746727305
 20
85.55779780641094
 30
0.0
 11
100.7844975318986
 21
85.55779780641094
 31
0.0
  0
LINE
  5
E76
330
D8F
100
AcDbEntity
  8
Dimension (ANSI)
440
 16777216
100
AcDbLine
 10
104.9075289543945
 20
85.55779780641094
 30
0.0
 11
106.5996526007062
 21
85.55779780641094
 31
0.0
  0
SOLID
  5
E77
330
D8F
100
AcDbEntity
  8
Dimension (ANSI)
440
 16777216
100
AcDbTrace
 10
101.8671746727305
 20
85.73824399654959
 30
0.0
 11
101.8671746727305
 21
85.3773516162723
 31
0.0
 12
102.9498518135625
 22
85.55779780641094
 32
0.0
 13
102.9498518135625
 23
85.55779780641094
 33
0.0
  0
SOLID
  5
E78
330
D8F
100
AcDbEntity
  8
Dimension (ANSI)
440
 16777216
100
AcDbTrace
 10
104.9075289543945
 20
85.73824399654959
 30
0.0
 11
104.9075289543945
 21
85.3773516162723
 31
0.0
 12
103.8248518135625
 22
85.55779780641094
 32
0.0
 13
103.8248518135625
 23
85.55779780641094
 33
0.0
  0
MTEXT
  5
E79
330
D8F
100
AcDbEntity
  8
Dimension (ANSI)
440
 16777216
100
AcDbMText
 10
106.9461092936196
 20
85.55779780641094
 30
0.0
 40
1.320000052452087
 41
0.0
 46
0.0
 71
     4
 72
     1
  1
\A1;0.88{\PTYP.}
  7
Note Text (ANSI)
 73
     1
 44
1.0
  0
POINT
  5
E7A
330
D8F
100
AcDbEntity
  8
Defpoints
 62
     0
440
 16777216
100
AcDbPoint
 10
103.8248518135625
 20
85.55779780641094
 30
0.0
  0
POINT
  5
E7B
330
D8F
100
AcDbEntity
  8
Defpoints
 62
     0
440
 16777216
100
AcDbPoint
 10
102.9498518135625
 20
85.56987659856515
 30
0.0
  0
POINT
  5
E7C
330
D8F
100
AcDbEntity
  8
Defpoints
 62
     0
440
 16777216
100
AcDbPoint
 10
102.9498518135625
 20
85.55779780641094
 30
0.0
  0
ENDBLK
  5
D91
330
D8F
100
AcDbEntity
  8
0
100
AcDbBlockEnd
  0
BLOCK
  5
E82
330
E81
100
AcDbEntity
  8
0
100
AcDbBlockBegin
  2
*D14
 70
     1
 10
0.0
 20
0.0
 30
0.0
  3
*D14
  1

  0
LINE
  5
F60
330
E81
100
AcDbEntity
  8
Dimension (ANSI)
440
 16777216
100
AcDbLine
 10
34.36275098090147
 20
90.0497827937532
 30
0.0
 11
34.36275098090147
 21
97.84500646256654
 31
0.0
  0
LINE
  5
F61
330
E81
100
AcDbEntity
  8
Dimension (ANSI)
440
 16777216
100
AcDbLine
 10
76.61275098090148
 20
90.0497827937532
 30
0.0
 11
76.61275098090148
 21
97.84500646256654
 31
0.0
  0
LINE
  5
F62
330
E81
100
AcDbEntity
  8
Dimension (ANSI)
440
 16777216
100
AcDbLine
 10
35.44542812173342
 20
96.47000646256655
 30
0.0
 11
52.94942047428704
 21
96.47000646256655
 31
0.0
  0
LINE
  5
F63
330
E81
100
AcDbEntity
  8
Dimension (ANSI)
440
 16777216
100
AcDbLine
 10
75.53007384006953
 20
96.47000646256655
 30
0.0
 11
58.02608148751589
 21
96.47000646256655
 31
0.0
  0
SOLID
  5
F64
330
E81
100
AcDbEntity
  8
Dimension (ANSI)
440
 16777216
100
AcDbTrace
 10
35.44542812173342
 20
96.65045265270521
 30
0.0
 11
35.44542812173342
 21
96.28956027242789
 31
0.0
 12
34.36275098090147
 22
96.47000646256655
 32
0.0
 13
34.36275098090147
 23
96.47000646256655
 33
0.0
  0
SOLID
  5
F65
330
E81
100
AcDbEntity
  8
Dimension (ANSI)
440
 16777216
100
AcDbTrace
 10
75.53007384006953
 20
96.65045265270521
 30
0.0
 11
75.53007384006953
 21
96.28956027242789
 31
0.0
 12
76.61275098090148
 22
96.47000646256655
 32
0.0
 13
76.61275098090148
 23
96.47000646256655
 33
0.0
  0
MTEXT
  5
F66
330
E81
100
AcDbEntity
  8
Dimension (ANSI)
440
 16777216
100
AcDbMText
 10
53.29587716720042
 20
97.15748801667176
 30
0.0
 40
1.320000052452087
 41
0.0
 46
0.0
 71
     1
 72
     1
  1
\A1;42.25
  7
Note Text (ANSI)
 73
     1
 44
1.0
  0
POINT
  5
F67
330
E81
100
AcDbEntity
  8
Defpoints
 62
     0
440
 16777216
100
AcDbPoint
 10
34.36275098090147
 20
89.3622827937532
 30
0.0
  0
POINT
  5
F68
330
E81
100
AcDbEntity
  8
Defpoints
 62
     0
440
 16777216
100
AcDbPoint
 10
76.61275098090148
 20
89.3622827937532
 30
0.0
  0
POINT
  5
F69
330
E81
100
AcDbEntity
  8
Defpoints
 62
     0
440
 16777216
100
AcDbPoint
 10
76.61275098090148
 20
96.47000646256655
 30
0.0
  0
ENDBLK
  5
E83
330
E81
100
AcDbEntity
  8
0
100
AcDbBlockEnd
  0
ENDSEC
  0
SECTION
  2
ENTITIES
  0
CIRCLE
  5
11B
330
6C
100
AcDbEntity
  8
Visible (ANSI)
100
AcDbCircle
 10
55.48775098090152
 20
29.45578279375319
 30
0.0
 40
0.2814999999999999
  0
CIRCLE
  5
11C
330
6C
100
AcDbEntity
  8
Visible (ANSI)
100
AcDbCircle
 10
55.48775098090148
 20
87.70578279375323
 30
0.0
 40
0.2814999999999999
  0
CIRCLE
  5
11D
330
6C
100
AcDbEntity
  8
Visible (ANSI)
100
AcDbCircle
 10
76.61275098090148
 20
58.58078279375323
 30
0.0
 40
0.2814999999999999
  0
CIRCLE
  5
11E
330
6C
100
AcDbEntity
  8
Visible (ANSI)
100
AcDbCircle
 10
34.36275098090148
 20
58.58078279375322
 30
0.0
 40
0.2814999999999999
  0
CIRCLE
  5
11F
330
6C
100
AcDbEntity
  8
Visible (ANSI)
100
AcDbCircle
 10
76.61275098090148
 20
87.70578279375323
 30
0.0
 40
0.2814999999999999
  0
CIRCLE
  5
120
330
6C
100
AcDbEntity
  8
Visible (ANSI)
100
AcDbCircle
 10
34.36275098090147
 20
87.70578279375323
 30
0.0
 40
0.2814999999999999
  0
CIRCLE
  5
121
330
6C
100
AcDbEntity
  8
Visible (ANSI)
100
AcDbCircle
 10
34.36275098090147
 20
29.45578279375323
 30
0.0
 40
0.2814999999999999
  0
CIRCLE
  5
122
330
6C
100
AcDbEntity
  8
Visible (ANSI)
100
AcDbCircle
 10
76.61275098090148
 20
29.45578279375322
 30
0.0
 40
0.2814999999999999
  0
LINE
  5
123
330
6C
100
AcDbEntity
  8
Visible (ANSI)
100
AcDbLine
 10
77.48775098090148
 20
88.3673944461049
 30
0.0
 11
77.48775098090148
 21
28.79417114140154
 31
0.0
  0
LINE
  5
124
330
6C
100
AcDbEntity
  8
Visible (ANSI)
100
AcDbLine
 10
33.70113932854979
 20
88.58078279375321
 30
0.0
 11
77.27436263325316
 21
88.58078279375321
 31
0.0
  0
LINE
  5
125
330
6C
100
AcDbEntity
  8
Visible (ANSI)
100
AcDbLine
 10
33.48775098090149
 20
28.79417114140155
 30
0.0
 11
33.48775098090147
 21
88.3673944461049
 31
0.0
  0
LINE
  5
126
330
6C
100
AcDbEntity
  8
Visible (ANSI)
100
AcDbLine
 10
77.27436263325316
 20
28.58078279375323
 30
0.0
 11
33.7011393285498
 21
28.58078279375323
 31
0.0
  0
LINE
  5
127
330
6C
100
AcDbEntity
  8
Hidden (ANSI)
100
AcDbLine
 10
77.3627509809015
 20
28.79417114140154
 30
0.0
 11
77.36275098090148
 21
88.3673944461049
 31
0.0
  0
LINE
  5
128
330
6C
100
AcDbEntity
  8
Hidden (ANSI)
100
AcDbLine
 10
77.27436263325316
 20
88.45578279375322
 30
0.0
 11
33.70113932854979
 21
88.45578279375322
 31
0.0
  0
LINE
  5
129
330
6C
100
AcDbEntity
  8
Hidden (ANSI)
100
AcDbLine
 10
33.61275098090147
 20
88.3673944461049
 30
0.0
 11
33.61275098090149
 21
28.79417114140155
 31
0.0
  0
LINE
  5
12A
330
6C
100
AcDbEntity
  8
Hidden (ANSI)
100
AcDbLine
 10
33.70113932854981
 20
28.70578279375323
 30
0.0
 11
77.27436263325316
 21
28.70578279375323
 31
0.0
  0
POLYLINE
  5
12B
330
6C
100
AcDbEntity
  8
Visible (ANSI)
100
AcDb2dPolyline
 66
     1
 10
0.0
 20
0.0
 30
0.0
 70
   128
  0
VERTEX
  5
12C
330
12B
100
AcDbEntity
  8
Visible (ANSI)
100
AcDbVertex
100
AcDb2dVertex
 10
77.33150242267683
 20
88.42453399523266
 30
0.0
  0
VERTEX
  5
12D
330
12B
100
AcDbEntity
  8
Visible (ANSI)
100
AcDbVertex
100
AcDb2dVertex
 10
77.34172100543088
 20
88.42214905851701
 30
0.0
  0
VERTEX
  5
12F
330
12B
100
AcDbEntity
  8
Visible (ANSI)
100
AcDbVertex
100
AcDb2dVertex
 10
77.35189453270542
 20
88.4197701291986
 30
0.0
  0
VERTEX
  5
130
330
12B
100
AcDbEntity
  8
Visible (ANSI)
100
AcDbVertex
100
AcDb2dVertex
 10
77.36198395641821
 20
88.41739119988018
 30
0.0
  0
VERTEX
  5
131
330
12B
100
AcDbEntity
  8
Visible (ANSI)
100
AcDbVertex
100
AcDb2dVertex
 10
77.3719412173911
 20
88.41501227056179
 30
0.0
  0
VERTEX
  5
132
330
12B
100
AcDbEntity
  8
Visible (ANSI)
100
AcDbVertex
100
AcDb2dVertex
 10
77.3817272675418
 20
88.41262733384612
 30
0.0
  0
VERTEX
  5
133
330
12B
100
AcDbEntity
  8
Visible (ANSI)
100
AcDbVertex
100
AcDb2dVertex
 10
77.3912940476922
 20
88.41024840452771
 30
0.0
  0
VERTEX
  5
134
330
12B
100
AcDbEntity
  8
Visible (ANSI)
100
AcDbVertex
100
AcDb2dVertex
 10
77.40060851715732
 20
88.4078694752093
 30
0.0
  0
VERTEX
  5
135
330
12B
100
AcDbEntity
  8
Visible (ANSI)
100
AcDbVertex
100
AcDb2dVertex
 10
77.40962562045765
 20
88.40548453849363
 30
0.0
  0
VERTEX
  5
136
330
12B
100
AcDbEntity
  8
Visible (ANSI)
100
AcDbVertex
100
AcDb2dVertex
 10
77.41830931320954
 20
88.4031056091752
 30
0.0
  0
VERTEX
  5
137
330
12B
100
AcDbEntity
  8
Visible (ANSI)
100
AcDbVertex
100
AcDb2dVertex
 10
77.42662054733081
 20
88.40072667985682
 30
0.0
  0
VERTEX
  5
138
330
12B
100
AcDbEntity
  8
Visible (ANSI)
100
AcDbVertex
100
AcDb2dVertex
 10
77.43452327843778
 20
88.39834174314113
 30
0.0
  0
VERTEX
  5
139
330
12B
100
AcDbEntity
  8
Visible (ANSI)
100
AcDbVertex
100
AcDb2dVertex
 10
77.44198746954414
 20
88.39596281382272
 30
0.0
  0
VERTEX
  5
13A
330
12B
100
AcDbEntity
  8
Visible (ANSI)
100
AcDbVertex
100
AcDb2dVertex
 10
77.44897707626627
 20
88.39358388450431
 30
0.0
  0
VERTEX
  5
13B
330
12B
100
AcDbEntity
  8
Visible (ANSI)
100
AcDbVertex
100
AcDb2dVertex
 10
77.45546206161782
 20
88.3912049551859
 30
0.0
  0
VERTEX
  5
13C
330
12B
100
AcDbEntity
  8
Visible (ANSI)
100
AcDbVertex
100
AcDb2dVertex
 10
77.46141839600975
 20
88.38882001847023
 30
0.0
  0
VERTEX
  5
13D
330
12B
100
AcDbEntity
  8
Visible (ANSI)
100
AcDbVertex
100
AcDb2dVertex
 10
77.46681604245569
 20
88.38644108915183
 30
0.0
  0
VERTEX
  5
13E
330
12B
100
AcDbEntity
  8
Visible (ANSI)
100
AcDbVertex
100
AcDb2dVertex
 10
77.4716369787638
 20
88.38406215983344
 30
0.0
  0
VERTEX
  5
13F
330
12B
100
AcDbEntity
  8
Visible (ANSI)
100
AcDbVertex
100
AcDb2dVertex
 10
77.47585717534507
 20
88.38167722311776
 30
0.0
  0
VERTEX
  5
140
330
12B
100
AcDbEntity
  8
Visible (ANSI)
100
AcDbVertex
100
AcDb2dVertex
 10
77.47945861000765
 20
88.37929829379936
 30
0.0
  0
VERTEX
  5
141
330
12B
100
AcDbEntity
  8
Visible (ANSI)
100
AcDbVertex
100
AcDb2dVertex
 10
77.48242626425841
 20
88.37691936448095
 30
0.0
  0
VERTEX
  5
142
330
12B
100
AcDbEntity
  8
Visible (ANSI)
100
AcDbVertex
100
AcDb2dVertex
 10
77.48474812330275
 20
88.37453442776528
 30
0.0
  0
VERTEX
  5
143
330
12B
100
AcDbEntity
  8
Visible (ANSI)
100
AcDbVertex
100
AcDb2dVertex
 10
77.48641517604482
 20
88.37215549844687
 30
0.0
  0
VERTEX
  5
144
330
12B
100
AcDbEntity
  8
Visible (ANSI)
100
AcDbVertex
100
AcDb2dVertex
 10
77.48741540769007
 20
88.36977656912848
 30
0.0
  0
VERTEX
  5
145
330
12B
100
AcDbEntity
  8
Visible (ANSI)
100
AcDbVertex
100
AcDb2dVertex
 10
77.4877518219371
 20
88.36739163241279
 30
0.0
  0
SEQEND
  5
12E
330
12B
100
AcDbEntity
  8
Visible (ANSI)
  0
POLYLINE
  5
146
330
6C
100
AcDbEntity
  8
Visible (ANSI)
100
AcDb2dPolyline
 66
     1
 10
0.0
 20
0.0
 30
0.0
 70
   128
  0
VERTEX
  5
147
330
146
100
AcDbEntity
  8
Visible (ANSI)
100
AcDbVertex
100
AcDb2dVertex
 10
77.4877518219371
 20
28.79417112973963
 30
0.0
  0
VERTEX
  5
148
330
146
100
AcDbEntity
  8
Visible (ANSI)
100
AcDbVertex
100
AcDb2dVertex
 10
77.48741540769007
 20
28.79179037004237
 30
0.0
  0
VERTEX
  5
14A
330
146
100
AcDbEntity
  8
Visible (ANSI)
100
AcDbVertex
100
AcDb2dVertex
 10
77.48641517604482
 20
28.78940961034511
 30
0.0
  0
VERTEX
  5
14B
330
146
100
AcDbEntity
  8
Visible (ANSI)
100
AcDbVertex
100
AcDb2dVertex
 10
77.48474812330275
 20
28.78702885064785
 30
0.0
  0
VERTEX
  5
14C
330
146
100
AcDbEntity
  8
Visible (ANSI)
100
AcDbVertex
100
AcDb2dVertex
 10
77.48242626425841
 20
28.78464809095058
 30
0.0
  0
VERTEX
  5
14D
330
146
100
AcDbEntity
  8
Visible (ANSI)
100
AcDbVertex
100
AcDb2dVertex
 10
77.47945861000765
 20
28.78226730778692
 30
0.0
  0
VERTEX
  5
14E
330
146
100
AcDbEntity
  8
Visible (ANSI)
100
AcDbVertex
100
AcDb2dVertex
 10
77.47585717534507
 20
28.77988654808966
 30
0.0
  0
VERTEX
  5
14F
330
146
100
AcDbEntity
  8
Visible (ANSI)
100
AcDbVertex
100
AcDb2dVertex
 10
77.4716369787638
 20
28.77750578839241
 30
0.0
  0
VERTEX
  5
150
330
146
100
AcDbEntity
  8
Visible (ANSI)
100
AcDbVertex
100
AcDb2dVertex
 10
77.46681604245569
 20
28.77512502869514
 30
0.0
  0
VERTEX
  5
151
330
146
100
AcDbEntity
  8
Visible (ANSI)
100
AcDbVertex
100
AcDb2dVertex
 10
77.46141839600975
 20
28.77274425726469
 30
0.0
  0
VERTEX
  5
152
330
146
100
AcDbEntity
  8
Visible (ANSI)
100
AcDbVertex
100
AcDb2dVertex
 10
77.45546206161782
 20
28.77036349756743
 30
0.0
  0
VERTEX
  5
153
330
146
100
AcDbEntity
  8
Visible (ANSI)
100
AcDbVertex
100
AcDb2dVertex
 10
77.44897707626627
 20
28.76798273787016
 30
0.0
  0
VERTEX
  5
154
330
146
100
AcDbEntity
  8
Visible (ANSI)
100
AcDbVertex
100
AcDb2dVertex
 10
77.44198746954414
 20
28.76560196643971
 30
0.0
  0
VERTEX
  5
155
330
146
100
AcDbEntity
  8
Visible (ANSI)
100
AcDbVertex
100
AcDb2dVertex
 10
77.43452327843778
 20
28.76322120674244
 30
0.0
  0
VERTEX
  5
156
330
146
100
AcDbEntity
  8
Visible (ANSI)
100
AcDbVertex
100
AcDb2dVertex
 10
77.42662054733081
 20
28.76084043531199
 30
0.0
  0
VERTEX
  5
157
330
146
100
AcDbEntity
  8
Visible (ANSI)
100
AcDbVertex
100
AcDb2dVertex
 10
77.41830931320954
 20
28.75845967561473
 30
0.0
  0
VERTEX
  5
158
330
146
100
AcDbEntity
  8
Visible (ANSI)
100
AcDbVertex
100
AcDb2dVertex
 10
77.40962562045765
 20
28.75607890418427
 30
0.0
  0
VERTEX
  5
159
330
146
100
AcDbEntity
  8
Visible (ANSI)
100
AcDbVertex
100
AcDb2dVertex
 10
77.40060851715732
 20
28.75369814448701
 30
0.0
  0
VERTEX
  5
15A
330
146
100
AcDbEntity
  8
Visible (ANSI)
100
AcDbVertex
100
AcDb2dVertex
 10
77.3912940476922
 20
28.75131738478975
 30
0.0
  0
VERTEX
  5
15B
330
146
100
AcDbEntity
  8
Visible (ANSI)
100
AcDbVertex
100
AcDb2dVertex
 10
77.3817272675418
 20
28.74893661335928
 30
0.0
  0
VERTEX
  5
15C
330
146
100
AcDbEntity
  8
Visible (ANSI)
100
AcDbVertex
100
AcDb2dVertex
 10
77.3719412173911
 20
28.74655585366202
 30
0.0
  0
VERTEX
  5
15D
330
146
100
AcDbEntity
  8
Visible (ANSI)
100
AcDbVertex
100
AcDb2dVertex
 10
77.36198395641821
 20
28.74417508223157
 30
0.0
  0
VERTEX
  5
15E
330
146
100
AcDbEntity
  8
Visible (ANSI)
100
AcDbVertex
100
AcDb2dVertex
 10
77.35189453270542
 20
28.74179432253431
 30
0.0
  0
VERTEX
  5
15F
330
146
100
AcDbEntity
  8
Visible (ANSI)
100
AcDbVertex
100
AcDb2dVertex
 10
77.34172100543088
 20
28.73941356283705
 30
0.0
  0
VERTEX
  5
160
330
146
100
AcDbEntity
  8
Visible (ANSI)
100
AcDbVertex
100
AcDb2dVertex
 10
77.33150242267683
 20
28.73703279140658
 30
0.0
  0
SEQEND
  5
149
330
146
100
AcDbEntity
  8
Visible (ANSI)
  0
POLYLINE
  5
161
330
6C
100
AcDbEntity
  8
Visible (ANSI)
100
AcDb2dPolyline
 66
     1
 10
0.0
 20
0.0
 30
0.0
 70
   128
  0
VERTEX
  5
162
330
161
100
AcDbEntity
  8
Visible (ANSI)
100
AcDbVertex
100
AcDb2dVertex
 10
33.64400097855484
 20
88.42453399523266
 30
0.0
  0
VERTEX
  5
163
330
161
100
AcDbEntity
  8
Visible (ANSI)
100
AcDbVertex
100
AcDb2dVertex
 10
33.64638174998531
 20
88.43475257798672
 30
0.0
  0
VERTEX
  5
165
330
161
100
AcDbEntity
  8
Visible (ANSI)
100
AcDbVertex
100
AcDb2dVertex
 10
33.64876250968257
 20
88.4449291089599
 30
0.0
  0
VERTEX
  5
166
330
161
100
AcDbEntity
  8
Visible (ANSI)
100
AcDbVertex
100
AcDb2dVertex
 10
33.65114326937983
 20
88.45501552897406
 30
0.0
  0
VERTEX
  5
167
330
161
100
AcDbEntity
  8
Visible (ANSI)
100
AcDbVertex
100
AcDb2dVertex
 10
33.65352404081028
 20
88.46497579364557
 30
0.0
  0
VERTEX
  5
168
330
161
100
AcDbEntity
  8
Visible (ANSI)
100
AcDbVertex
100
AcDb2dVertex
 10
33.65590480050755
 20
88.47475583639901
 30
0.0
  0
VERTEX
  5
169
330
161
100
AcDbEntity
  8
Visible (ANSI)
100
AcDbVertex
100
AcDb2dVertex
 10
33.65828557193801
 20
88.48432562024806
 30
0.0
  0
VERTEX
  5
16A
330
161
100
AcDbEntity
  8
Visible (ANSI)
100
AcDbVertex
100
AcDb2dVertex
 10
33.66066633163527
 20
88.49364309341181
 30
0.0
  0
VERTEX
  5
16B
330
161
100
AcDbEntity
  8
Visible (ANSI)
100
AcDbVertex
100
AcDb2dVertex
 10
33.66304709133253
 20
88.50266019671213
 30
0.0
  0
VERTEX
  5
16C
330
161
100
AcDbEntity
  8
Visible (ANSI)
100
AcDbVertex
100
AcDb2dVertex
 10
33.66542786276298
 20
88.51134088576539
 30
0.0
  0
VERTEX
  5
16D
330
161
100
AcDbEntity
  8
Visible (ANSI)
100
AcDbVertex
100
AcDb2dVertex
 10
33.66780862246025
 20
88.51964911618802
 30
0.0
  0
VERTEX
  5
16E
330
161
100
AcDbEntity
  8
Visible (ANSI)
100
AcDbVertex
100
AcDb2dVertex
 10
33.67018939389071
 20
88.52755485099363
 30
0.0
  0
VERTEX
  5
16F
330
161
100
AcDbEntity
  8
Visible (ANSI)
100
AcDbVertex
100
AcDb2dVertex
 10
33.67257015358797
 20
88.53501603840134
 30
0.0
  0
VERTEX
  5
170
330
161
100
AcDbEntity
  8
Visible (ANSI)
100
AcDbVertex
100
AcDb2dVertex
 10
33.67495092501842
 20
88.54200864882212
 30
0.0
  0
VERTEX
  5
171
330
161
100
AcDbEntity
  8
Visible (ANSI)
100
AcDbVertex
100
AcDb2dVertex
 10
33.67733168471569
 20
88.54849663787232
 30
0.0
  0
VERTEX
  5
172
330
161
100
AcDbEntity
  8
Visible (ANSI)
100
AcDbVertex
100
AcDb2dVertex
 10
33.67971244441295
 20
88.5544499685656
 30
0.0
  0
VERTEX
  5
173
330
161
100
AcDbEntity
  8
Visible (ANSI)
100
AcDbVertex
100
AcDb2dVertex
 10
33.68209321584341
 20
88.55985061871015
 30
0.0
  0
VERTEX
  5
174
330
161
100
AcDbEntity
  8
Visible (ANSI)
100
AcDbVertex
100
AcDb2dVertex
 10
33.68447397554067
 20
88.56466855131964
 30
0.0
  0
VERTEX
  5
175
330
161
100
AcDbEntity
  8
Visible (ANSI)
100
AcDbVertex
100
AcDb2dVertex
 10
33.68685473523792
 20
88.56889175159954
 30
0.0
  0
VERTEX
  5
176
330
161
100
AcDbEntity
  8
Visible (ANSI)
100
AcDbVertex
100
AcDb2dVertex
 10
33.68923549493519
 20
88.5724901825635
 30
0.0
  0
VERTEX
  5
177
330
161
100
AcDbEntity
  8
Visible (ANSI)
100
AcDbVertex
100
AcDb2dVertex
 10
33.69161627809884
 20
88.57545783681425
 30
0.0
  0
VERTEX
  5
178
330
161
100
AcDbEntity
  8
Visible (ANSI)
100
AcDbVertex
100
AcDb2dVertex
 10
33.69399703779611
 20
88.57778269955721
 30
0.0
  0
VERTEX
  5
179
330
161
100
AcDbEntity
  8
Visible (ANSI)
100
AcDbVertex
100
AcDb2dVertex
 10
33.69637779749337
 20
88.57944674860066
 30
0.0
  0
VERTEX
  5
17A
330
161
100
AcDbEntity
  8
Visible (ANSI)
100
AcDbVertex
100
AcDb2dVertex
 10
33.69875855719062
 20
88.58044998394452
 30
0.0
  0
VERTEX
  5
17B
330
161
100
AcDbEntity
  8
Visible (ANSI)
100
AcDbVertex
100
AcDb2dVertex
 10
33.70113931688789
 20
88.58078039079432
 30
0.0
  0
SEQEND
  5
164
330
161
100
AcDbEntity
  8
Visible (ANSI)
  0
POLYLINE
  5
17C
330
6C
100
AcDbEntity
  8
Visible (ANSI)
100
AcDb2dPolyline
 66
     1
 10
0.0
 20
0.0
 30
0.0
 70
   128
  0
VERTEX
  5
17D
330
17C
100
AcDbEntity
  8
Visible (ANSI)
100
AcDbVertex
100
AcDb2dVertex
 10
77.27436306355558
 20
88.58078039079432
 30
0.0
  0
VERTEX
  5
17E
330
17C
100
AcDbEntity
  8
Visible (ANSI)
100
AcDbVertex
100
AcDb2dVertex
 10
77.27674199287398
 20
88.58044998394452
 30
0.0
  0
VERTEX
  5
180
330
17C
100
AcDbEntity
  8
Visible (ANSI)
100
AcDbVertex
100
AcDb2dVertex
 10
77.27912392589101
 20
88.57944674860066
 30
0.0
  0
VERTEX
  5
181
330
17C
100
AcDbEntity
  8
Visible (ANSI)
100
AcDbVertex
100
AcDb2dVertex
 10
77.28150585890808
 20
88.57778269955721
 30
0.0
  0
VERTEX
  5
182
330
17C
100
AcDbEntity
  8
Visible (ANSI)
100
AcDbVertex
100
AcDb2dVertex
 10
77.28388478822648
 20
88.57545783681425
 30
0.0
  0
VERTEX
  5
183
330
17C
100
AcDbEntity
  8
Visible (ANSI)
100
AcDbVertex
100
AcDb2dVertex
 10
77.28626672124351
 20
88.5724901825635
 30
0.0
  0
VERTEX
  5
184
330
17C
100
AcDbEntity
  8
Visible (ANSI)
100
AcDbVertex
100
AcDb2dVertex
 10
77.28864865426055
 20
88.56889175159954
 30
0.0
  0
VERTEX
  5
185
330
17C
100
AcDbEntity
  8
Visible (ANSI)
100
AcDbVertex
100
AcDb2dVertex
 10
77.29102758357895
 20
88.56466855131964
 30
0.0
  0
VERTEX
  5
186
330
17C
100
AcDbEntity
  8
Visible (ANSI)
100
AcDbVertex
100
AcDb2dVertex
 10
77.293409516596
 20
88.55985061871015
 30
0.0
  0
VERTEX
  5
187
330
17C
100
AcDbEntity
  8
Visible (ANSI)
100
AcDbVertex
100
AcDb2dVertex
 10
77.2957884459144
 20
88.5544499685656
 30
0.0
  0
VERTEX
  5
188
330
17C
100
AcDbEntity
  8
Visible (ANSI)
100
AcDbVertex
100
AcDb2dVertex
 10
77.29817037893143
 20
88.54849663787232
 30
0.0
  0
VERTEX
  5
189
330
17C
100
AcDbEntity
  8
Visible (ANSI)
100
AcDbVertex
100
AcDb2dVertex
 10
77.30055231194848
 20
88.54200864882212
 30
0.0
  0
VERTEX
  5
18A
330
17C
100
AcDbEntity
  8
Visible (ANSI)
100
AcDbVertex
100
AcDb2dVertex
 10
77.30293124126688
 20
88.53501603840134
 30
0.0
  0
VERTEX
  5
18B
330
17C
100
AcDbEntity
  8
Visible (ANSI)
100
AcDbVertex
100
AcDb2dVertex
 10
77.30531317428392
 20
88.52755485099363
 30
0.0
  0
VERTEX
  5
18C
330
17C
100
AcDbEntity
  8
Visible (ANSI)
100
AcDbVertex
100
AcDb2dVertex
 10
77.30769210360233
 20
88.51964911618802
 30
0.0
  0
VERTEX
  5
18D
330
17C
100
AcDbEntity
  8
Visible (ANSI)
100
AcDbVertex
100
AcDb2dVertex
 10
77.31007403661937
 20
88.51134088576539
 30
0.0
  0
VERTEX
  5
18E
330
17C
100
AcDbEntity
  8
Visible (ANSI)
100
AcDbVertex
100
AcDb2dVertex
 10
77.31245596963642
 20
88.50266019671213
 30
0.0
  0
VERTEX
  5
18F
330
17C
100
AcDbEntity
  8
Visible (ANSI)
100
AcDbVertex
100
AcDb2dVertex
 10
77.31483489895481
 20
88.49364309341181
 30
0.0
  0
VERTEX
  5
190
330
17C
100
AcDbEntity
  8
Visible (ANSI)
100
AcDbVertex
100
AcDb2dVertex
 10
77.31721683197185
 20
88.48432562024806
 30
0.0
  0
VERTEX
  5
191
330
17C
100
AcDbEntity
  8
Visible (ANSI)
100
AcDbVertex
100
AcDb2dVertex
 10
77.31959576129026
 20
88.47475583639901
 30
0.0
  0
VERTEX
  5
192
330
17C
100
AcDbEntity
  8
Visible (ANSI)
100
AcDbVertex
100
AcDb2dVertex
 10
77.3219776943073
 20
88.46497579364557
 30
0.0
  0
VERTEX
  5
193
330
17C
100
AcDbEntity
  8
Visible (ANSI)
100
AcDbVertex
100
AcDb2dVertex
 10
77.32435962732435
 20
88.45501552897406
 30
0.0
  0
VERTEX
  5
194
330
17C
100
AcDbEntity
  8
Visible (ANSI)
100
AcDbVertex
100
AcDb2dVertex
 10
77.32673855664275
 20
88.4449291089599
 30
0.0
  0
VERTEX
  5
195
330
17C
100
AcDbEntity
  8
Visible (ANSI)
100
AcDbVertex
100
AcDb2dVertex
 10
77.32912048965978
 20
88.43475257798672
 30
0.0
  0
VERTEX
  5
196
330
17C
100
AcDbEntity
  8
Visible (ANSI)
100
AcDbVertex
100
AcDb2dVertex
 10
77.33150242267683
 20
88.42453399523266
 30
0.0
  0
SEQEND
  5
17F
330
17C
100
AcDbEntity
  8
Visible (ANSI)
  0
POLYLINE
  5
197
330
6C
100
AcDbEntity
  8
Visible (ANSI)
100
AcDb2dPolyline
 66
     1
 10
0.0
 20
0.0
 30
0.0
 70
   128
  0
VERTEX
  5
198
330
197
100
AcDbEntity
  8
Visible (ANSI)
100
AcDbVertex
100
AcDb2dVertex
 10
33.64400097855484
 20
28.73703279140658
 30
0.0
  0
VERTEX
  5
199
330
197
100
AcDbEntity
  8
Visible (ANSI)
100
AcDbVertex
100
AcDb2dVertex
 10
33.63378173874171
 20
28.73941356283705
 30
0.0
  0
VERTEX
  5
19B
330
197
100
AcDbEntity
  8
Visible (ANSI)
100
AcDbVertex
100
AcDb2dVertex
 10
33.62360626375633
 20
28.74179432253431
 30
0.0
  0
VERTEX
  5
19C
330
197
100
AcDbEntity
  8
Visible (ANSI)
100
AcDbVertex
100
AcDb2dVertex
 10
33.61351811896211
 20
28.74417508223157
 30
0.0
  0
VERTEX
  5
19D
330
197
100
AcDbEntity
  8
Visible (ANSI)
100
AcDbVertex
100
AcDb2dVertex
 10
33.6035605059933
 20
28.74655585366202
 30
0.0
  0
VERTEX
  5
19E
330
197
100
AcDbEntity
  8
Visible (ANSI)
100
AcDbVertex
100
AcDb2dVertex
 10
33.59377606329069
 20
28.74893661335928
 30
0.0
  0
VERTEX
  5
19F
330
197
100
AcDbEntity
  8
Visible (ANSI)
100
AcDbVertex
100
AcDb2dVertex
 10
33.58420669597017
 20
28.75131738478975
 30
0.0
  0
VERTEX
  5
1A0
330
197
100
AcDbEntity
  8
Visible (ANSI)
100
AcDbVertex
100
AcDb2dVertex
 10
33.57489337049184
 20
28.75369814448701
 30
0.0
  0
VERTEX
  5
1A1
330
197
100
AcDbEntity
  8
Visible (ANSI)
100
AcDbVertex
100
AcDb2dVertex
 10
33.56587597972817
 20
28.75607890418427
 30
0.0
  0
VERTEX
  5
1A2
330
197
100
AcDbEntity
  8
Visible (ANSI)
100
AcDbVertex
100
AcDb2dVertex
 10
33.5571931317665
 20
28.75845967561473
 30
0.0
  0
VERTEX
  5
1A3
330
197
100
AcDbEntity
  8
Visible (ANSI)
100
AcDbVertex
100
AcDb2dVertex
 10
33.54888200911064
 20
28.76084043531199
 30
0.0
  0
VERTEX
  5
1A4
330
197
100
AcDbEntity
  8
Visible (ANSI)
100
AcDbVertex
100
AcDb2dVertex
 10
33.54097819854946
 20
28.76322120674244
 30
0.0
  0
VERTEX
  5
1A5
330
197
100
AcDbEntity
  8
Visible (ANSI)
100
AcDbVertex
100
AcDb2dVertex
 10
33.53351554742531
 20
28.76560196643971
 30
0.0
  0
VERTEX
  5
1A6
330
197
100
AcDbEntity
  8
Visible (ANSI)
100
AcDbVertex
100
AcDb2dVertex
 10
33.52652601110236
 20
28.76798273787016
 30
0.0
  0
VERTEX
  5
1A7
330
197
100
AcDbEntity
  8
Visible (ANSI)
100
AcDbVertex
100
AcDb2dVertex
 10
33.52003952096819
 20
28.77036349756743
 30
0.0
  0
VERTEX
  5
1A8
330
197
100
AcDbEntity
  8
Visible (ANSI)
100
AcDbVertex
100
AcDb2dVertex
 10
33.51408385536854
 20
28.77274425726469
 30
0.0
  0
VERTEX
  5
1A9
330
197
100
AcDbEntity
  8
Visible (ANSI)
100
AcDbVertex
100
AcDb2dVertex
 10
33.50868451200888
 20
28.77512502869514
 30
0.0
  0
VERTEX
  5
1AA
330
197
100
AcDbEntity
  8
Visible (ANSI)
100
AcDbVertex
100
AcDb2dVertex
 10
33.5038646155554
 20
28.77750578839241
 30
0.0
  0
VERTEX
  5
1AB
330
197
100
AcDbEntity
  8
Visible (ANSI)
100
AcDbVertex
100
AcDb2dVertex
 10
33.4996448039697
 20
28.77988654808966
 30
0.0
  0
VERTEX
  5
1AC
330
197
100
AcDbEntity
  8
Visible (ANSI)
100
AcDbVertex
100
AcDb2dVertex
 10
33.49604314784301
 20
28.78226730778692
 30
0.0
  0
VERTEX
  5
1AD
330
197
100
AcDbEntity
  8
Visible (ANSI)
100
AcDbVertex
100
AcDb2dVertex
 10
33.49307507046382
 20
28.78464809095058
 30
0.0
  0
VERTEX
  5
1AE
330
197
100
AcDbEntity
  8
Visible (ANSI)
100
AcDbVertex
100
AcDb2dVertex
 10
33.49075328090199
 20
28.78702885064785
 30
0.0
  0
VERTEX
  5
1AF
330
197
100
AcDbEntity
  8
Visible (ANSI)
100
AcDbVertex
100
AcDb2dVertex
 10
33.48908772130102
 20
28.78940961034511
 30
0.0
  0
VERTEX
  5
1B0
330
197
100
AcDbEntity
  8
Visible (ANSI)
100
AcDbVertex
100
AcDb2dVertex
 10
33.4880855241389
 20
28.79179037004237
 30
0.0
  0
VERTEX
  5
1B1
330
197
100
AcDbEntity
  8
Visible (ANSI)
100
AcDbVertex
100
AcDb2dVertex
 10
33.48775098090149
 20
28.79417112973963
 30
0.0
  0
SEQEND
  5
19A
330
197
100
AcDbEntity
  8
Visible (ANSI)
  0
POLYLINE
  5
1B2
330
6C
100
AcDbEntity
  8
Visible (ANSI)
100
AcDb2dPolyline
 66
     1
 10
0.0
 20
0.0
 30
0.0
 70
   128
  0
VERTEX
  5
1B3
330
1B2
100
AcDbEntity
  8
Visible (ANSI)
100
AcDbVertex
100
AcDb2dVertex
 10
33.48775098090147
 20
88.36739163241279
 30
0.0
  0
VERTEX
  5
1B4
330
1B2
100
AcDbEntity
  8
Visible (ANSI)
100
AcDbVertex
100
AcDb2dVertex
 10
33.4880855241389
 20
88.36977656912848
 30
0.0
  0
VERTEX
  5
1B6
330
1B2
100
AcDbEntity
  8
Visible (ANSI)
100
AcDbVertex
100
AcDb2dVertex
 10
33.48908772130102
 20
88.37215549844687
 30
0.0
  0
VERTEX
  5
1B7
330
1B2
100
AcDbEntity
  8
Visible (ANSI)
100
AcDbVertex
100
AcDb2dVertex
 10
33.49075328090199
 20
88.37453442776528
 30
0.0
  0
VERTEX
  5
1B8
330
1B2
100
AcDbEntity
  8
Visible (ANSI)
100
AcDbVertex
100
AcDb2dVertex
 10
33.49307507046382
 20
88.37691936448095
 30
0.0
  0
VERTEX
  5
1B9
330
1B2
100
AcDbEntity
  8
Visible (ANSI)
100
AcDbVertex
100
AcDb2dVertex
 10
33.49604314784301
 20
88.37929829379936
 30
0.0
  0
VERTEX
  5
1BA
330
1B2
100
AcDbEntity
  8
Visible (ANSI)
100
AcDbVertex
100
AcDb2dVertex
 10
33.4996448039697
 20
88.38167722311776
 30
0.0
  0
VERTEX
  5
1BB
330
1B2
100
AcDbEntity
  8
Visible (ANSI)
100
AcDbVertex
100
AcDb2dVertex
 10
33.5038646155554
 20
88.38406215983344
 30
0.0
  0
VERTEX
  5
1BC
330
1B2
100
AcDbEntity
  8
Visible (ANSI)
100
AcDbVertex
100
AcDb2dVertex
 10
33.50868451200888
 20
88.38644108915183
 30
0.0
  0
VERTEX
  5
1BD
330
1B2
100
AcDbEntity
  8
Visible (ANSI)
100
AcDbVertex
100
AcDb2dVertex
 10
33.51408385536854
 20
88.38882001847023
 30
0.0
  0
VERTEX
  5
1BE
330
1B2
100
AcDbEntity
  8
Visible (ANSI)
100
AcDbVertex
100
AcDb2dVertex
 10
33.52003952096819
 20
88.3912049551859
 30
0.0
  0
VERTEX
  5
1BF
330
1B2
100
AcDbEntity
  8
Visible (ANSI)
100
AcDbVertex
100
AcDb2dVertex
 10
33.52652601110236
 20
88.39358388450431
 30
0.0
  0
VERTEX
  5
1C0
330
1B2
100
AcDbEntity
  8
Visible (ANSI)
100
AcDbVertex
100
AcDb2dVertex
 10
33.53351554742531
 20
88.39596281382272
 30
0.0
  0
VERTEX
  5
1C1
330
1B2
100
AcDbEntity
  8
Visible (ANSI)
100
AcDbVertex
100
AcDb2dVertex
 10
33.54097819854946
 20
88.39834174314113
 30
0.0
  0
VERTEX
  5
1C2
330
1B2
100
AcDbEntity
  8
Visible (ANSI)
100
AcDbVertex
100
AcDb2dVertex
 10
33.54888200911064
 20
88.40072667985682
 30
0.0
  0
VERTEX
  5
1C3
330
1B2
100
AcDbEntity
  8
Visible (ANSI)
100
AcDbVertex
100
AcDb2dVertex
 10
33.5571931317665
 20
88.4031056091752
 30
0.0
  0
VERTEX
  5
1C4
330
1B2
100
AcDbEntity
  8
Visible (ANSI)
100
AcDbVertex
100
AcDb2dVertex
 10
33.56587597972817
 20
88.40548453849363
 30
0.0
  0
VERTEX
  5
1C5
330
1B2
100
AcDbEntity
  8
Visible (ANSI)
100
AcDbVertex
100
AcDb2dVertex
 10
33.57489337049184
 20
88.4078694752093
 30
0.0
  0
VERTEX
  5
1C6
330
1B2
100
AcDbEntity
  8
Visible (ANSI)
100
AcDbVertex
100
AcDb2dVertex
 10
33.58420669597017
 20
88.41024840452771
 30
0.0
  0
VERTEX
  5
1C7
330
1B2
100
AcDbEntity
  8
Visible (ANSI)
100
AcDbVertex
100
AcDb2dVertex
 10
33.59377606329069
 20
88.41262733384612
 30
0.0
  0
VERTEX
  5
1C8
330
1B2
100
AcDbEntity
  8
Visible (ANSI)
100
AcDbVertex
100
AcDb2dVertex
 10
33.6035605059933
 20
88.41501227056179
 30
0.0
  0
VERTEX
  5
1C9
330
1B2
100
AcDbEntity
  8
Visible (ANSI)
100
AcDbVertex
100
AcDb2dVertex
 10
33.61351811896211
 20
88.41739119988018
 30
0.0
  0
VERTEX
  5
1CA
330
1B2
100
AcDbEntity
  8
Visible (ANSI)
100
AcDbVertex
100
AcDb2dVertex
 10
33.62360626375633
 20
88.4197701291986
 30
0.0
  0
VERTEX
  5
1CB
330
1B2
100
AcDbEntity
  8
Visible (ANSI)
100
AcDbVertex
100
AcDb2dVertex
 10
33.63378173874171
 20
88.42214905851701
 30
0.0
  0
VERTEX
  5
1CC
330
1B2
100
AcDbEntity
  8
Visible (ANSI)
100
AcDbVertex
100
AcDb2dVertex
 10
33.64400097855484
 20
88.42453399523266
 30
0.0
  0
SEQEND
  5
1B5
330
1B2
100
AcDbEntity
  8
Visible (ANSI)
  0
POLYLINE
  5
1CD
330
6C
100
AcDbEntity
  8
Visible (ANSI)
100
AcDb2dPolyline
 66
     1
 10
0.0
 20
0.0
 30
0.0
 70
   128
  0
VERTEX
  5
1CE
330
1CD
100
AcDbEntity
  8
Visible (ANSI)
100
AcDbVertex
100
AcDb2dVertex
 10
77.33150242267683
 20
28.73703279140658
 30
0.0
  0
VERTEX
  5
1CF
330
1CD
100
AcDbEntity
  8
Visible (ANSI)
100
AcDbVertex
100
AcDb2dVertex
 10
77.32912048965978
 20
28.72681355159345
 30
0.0
  0
VERTEX
  5
1D1
330
1CD
100
AcDbEntity
  8
Visible (ANSI)
100
AcDbVertex
100
AcDb2dVertex
 10
77.32673855664275
 20
28.71663807660807
 30
0.0
  0
VERTEX
  5
1D2
330
1CD
100
AcDbEntity
  8
Visible (ANSI)
100
AcDbVertex
100
AcDb2dVertex
 10
77.32435962732435
 20
28.70654993181385
 30
0.0
  0
VERTEX
  5
1D3
330
1CD
100
AcDbEntity
  8
Visible (ANSI)
100
AcDbVertex
100
AcDb2dVertex
 10
77.3219776943073
 20
28.69659231884504
 30
0.0
  0
VERTEX
  5
1D4
330
1CD
100
AcDbEntity
  8
Visible (ANSI)
100
AcDbVertex
100
AcDb2dVertex
 10
77.31959576129026
 20
28.68680787614243
 30
0.0
  0
VERTEX
  5
1D5
330
1CD
100
AcDbEntity
  8
Visible (ANSI)
100
AcDbVertex
100
AcDb2dVertex
 10
77.31721683197185
 20
28.67723850882191
 30
0.0
  0
VERTEX
  5
1D6
330
1CD
100
AcDbEntity
  8
Visible (ANSI)
100
AcDbVertex
100
AcDb2dVertex
 10
77.31483489895481
 20
28.66792518334357
 30
0.0
  0
VERTEX
  5
1D7
330
1CD
100
AcDbEntity
  8
Visible (ANSI)
100
AcDbVertex
100
AcDb2dVertex
 10
77.31245596963642
 20
28.6589077925799
 30
0.0
  0
VERTEX
  5
1D8
330
1CD
100
AcDbEntity
  8
Visible (ANSI)
100
AcDbVertex
100
AcDb2dVertex
 10
77.31007403661937
 20
28.65022494461824
 30
0.0
  0
VERTEX
  5
1D9
330
1CD
100
AcDbEntity
  8
Visible (ANSI)
100
AcDbVertex
100
AcDb2dVertex
 10
77.30769210360233
 20
28.64191382196237
 30
0.0
  0
VERTEX
  5
1DA
330
1CD
100
AcDbEntity
  8
Visible (ANSI)
100
AcDbVertex
100
AcDb2dVertex
 10
77.30531317428392
 20
28.6340100114012
 30
0.0
  0
VERTEX
  5
1DB
330
1CD
100
AcDbEntity
  8
Visible (ANSI)
100
AcDbVertex
100
AcDb2dVertex
 10
77.30293124126688
 20
28.62654736027705
 30
0.0
  0
VERTEX
  5
1DC
330
1CD
100
AcDbEntity
  8
Visible (ANSI)
100
AcDbVertex
100
AcDb2dVertex
 10
77.30055231194848
 20
28.6195578239541
 30
0.0
  0
VERTEX
  5
1DD
330
1CD
100
AcDbEntity
  8
Visible (ANSI)
100
AcDbVertex
100
AcDb2dVertex
 10
77.29817037893143
 20
28.61307133381993
 30
0.0
  0
VERTEX
  5
1DE
330
1CD
100
AcDbEntity
  8
Visible (ANSI)
100
AcDbVertex
100
AcDb2dVertex
 10
77.2957884459144
 20
28.60711566822028
 30
0.0
  0
VERTEX
  5
1DF
330
1CD
100
AcDbEntity
  8
Visible (ANSI)
100
AcDbVertex
100
AcDb2dVertex
 10
77.293409516596
 20
28.60171632486062
 30
0.0
  0
VERTEX
  5
1E0
330
1CD
100
AcDbEntity
  8
Visible (ANSI)
100
AcDbVertex
100
AcDb2dVertex
 10
77.29102758357895
 20
28.59689642840714
 30
0.0
  0
VERTEX
  5
1E1
330
1CD
100
AcDbEntity
  8
Visible (ANSI)
100
AcDbVertex
100
AcDb2dVertex
 10
77.28864865426055
 20
28.59267661682143
 30
0.0
  0
VERTEX
  5
1E2
330
1CD
100
AcDbEntity
  8
Visible (ANSI)
100
AcDbVertex
100
AcDb2dVertex
 10
77.28626672124351
 20
28.58907496069474
 30
0.0
  0
VERTEX
  5
1E3
330
1CD
100
AcDbEntity
  8
Visible (ANSI)
100
AcDbVertex
100
AcDb2dVertex
 10
77.28388478822648
 20
28.58610688331555
 30
0.0
  0
VERTEX
  5
1E4
330
1CD
100
AcDbEntity
  8
Visible (ANSI)
100
AcDbVertex
100
AcDb2dVertex
 10
77.28150585890808
 20
28.58378509375373
 30
0.0
  0
VERTEX
  5
1E5
330
1CD
100
AcDbEntity
  8
Visible (ANSI)
100
AcDbVertex
100
AcDb2dVertex
 10
77.27912392589101
 20
28.58211953415275
 30
0.0
  0
VERTEX
  5
1E6
330
1CD
100
AcDbEntity
  8
Visible (ANSI)
100
AcDbVertex
100
AcDb2dVertex
 10
77.27674199287398
 20
28.58111733699064
 30
0.0
  0
VERTEX
  5
1E7
330
1CD
100
AcDbEntity
  8
Visible (ANSI)
100
AcDbVertex
100
AcDb2dVertex
 10
77.27436306355558
 20
28.58078279375323
 30
0.0
  0
SEQEND
  5
1D0
330
1CD
100
AcDbEntity
  8
Visible (ANSI)
  0
POLYLINE
  5
1E8
330
6C
100
AcDbEntity
  8
Visible (ANSI)
100
AcDb2dPolyline
 66
     1
 10
0.0
 20
0.0
 30
0.0
 70
   128
  0
VERTEX
  5
1E9
330
1E8
100
AcDbEntity
  8
Visible (ANSI)
100
AcDbVertex
100
AcDb2dVertex
 10
33.70113931688789
 20
28.58078279375323
 30
0.0
  0
VERTEX
  5
1EA
330
1E8
100
AcDbEntity
  8
Visible (ANSI)
100
AcDbVertex
100
AcDb2dVertex
 10
33.69875855719062
 20
28.58111733699064
 30
0.0
  0
VERTEX
  5
1EC
330
1E8
100
AcDbEntity
  8
Visible (ANSI)
100
AcDbVertex
100
AcDb2dVertex
 10
33.69637779749337
 20
28.58211953415275
 30
0.0
  0
VERTEX
  5
1ED
330
1E8
100
AcDbEntity
  8
Visible (ANSI)
100
AcDbVertex
100
AcDb2dVertex
 10
33.69399703779611
 20
28.58378509375373
 30
0.0
  0
VERTEX
  5
1EE
330
1E8
100
AcDbEntity
  8
Visible (ANSI)
100
AcDbVertex
100
AcDb2dVertex
 10
33.69161627809884
 20
28.58610688331555
 30
0.0
  0
VERTEX
  5
1EF
330
1E8
100
AcDbEntity
  8
Visible (ANSI)
100
AcDbVertex
100
AcDb2dVertex
 10
33.68923549493519
 20
28.58907496069474
 30
0.0
  0
VERTEX
  5
1F0
330
1E8
100
AcDbEntity
  8
Visible (ANSI)
100
AcDbVertex
100
AcDb2dVertex
 10
33.68685473523792
 20
28.59267661682143
 30
0.0
  0
VERTEX
  5
1F1
330
1E8
100
AcDbEntity
  8
Visible (ANSI)
100
AcDbVertex
100
AcDb2dVertex
 10
33.68447397554067
 20
28.59689642840714
 30
0.0
  0
VERTEX
  5
1F2
330
1E8
100
AcDbEntity
  8
Visible (ANSI)
100
AcDbVertex
100
AcDb2dVertex
 10
33.68209321584341
 20
28.60171632486062
 30
0.0
  0
VERTEX
  5
1F3
330
1E8
100
AcDbEntity
  8
Visible (ANSI)
100
AcDbVertex
100
AcDb2dVertex
 10
33.67971244441295
 20
28.60711566822028
 30
0.0
  0
VERTEX
  5
1F4
330
1E8
100
AcDbEntity
  8
Visible (ANSI)
100
AcDbVertex
100
AcDb2dVertex
 10
33.67733168471569
 20
28.61307133381993
 30
0.0
  0
VERTEX
  5
1F5
330
1E8
100
AcDbEntity
  8
Visible (ANSI)
100
AcDbVertex
100
AcDb2dVertex
 10
33.67495092501842
 20
28.6195578239541
 30
0.0
  0
VERTEX
  5
1F6
330
1E8
100
AcDbEntity
  8
Visible (ANSI)
100
AcDbVertex
100
AcDb2dVertex
 10
33.67257015358797
 20
28.62654736027705
 30
0.0
  0
VERTEX
  5
1F7
330
1E8
100
AcDbEntity
  8
Visible (ANSI)
100
AcDbVertex
100
AcDb2dVertex
 10
33.67018939389071
 20
28.6340100114012
 30
0.0
  0
VERTEX
  5
1F8
330
1E8
100
AcDbEntity
  8
Visible (ANSI)
100
AcDbVertex
100
AcDb2dVertex
 10
33.66780862246025
 20
28.64191382196237
 30
0.0
  0
VERTEX
  5
1F9
330
1E8
100
AcDbEntity
  8
Visible (ANSI)
100
AcDbVertex
100
AcDb2dVertex
 10
33.66542786276298
 20
28.65022494461824
 30
0.0
  0
VERTEX
  5
1FA
330
1E8
100
AcDbEntity
  8
Visible (ANSI)
100
AcDbVertex
100
AcDb2dVertex
 10
33.66304709133253
 20
28.6589077925799
 30
0.0
  0
VERTEX
  5
1FB
330
1E8
100
AcDbEntity
  8
Visible (ANSI)
100
AcDbVertex
100
AcDb2dVertex
 10
33.66066633163527
 20
28.66792518334357
 30
0.0
  0
VERTEX
  5
1FC
330
1E8
100
AcDbEntity
  8
Visible (ANSI)
100
AcDbVertex
100
AcDb2dVertex
 10
33.65828557193801
 20
28.67723850882191
 30
0.0
  0
VERTEX
  5
1FD
330
1E8
100
AcDbEntity
  8
Visible (ANSI)
100
AcDbVertex
100
AcDb2dVertex
 10
33.65590480050755
 20
28.68680787614243
 30
0.0
  0
VERTEX
  5
1FE
330
1E8
100
AcDbEntity
  8
Visible (ANSI)
100
AcDbVertex
100
AcDb2dVertex
 10
33.65352404081028
 20
28.69659231884504
 30
0.0
  0
VERTEX
  5
1FF
330
1E8
100
AcDbEntity
  8
Visible (ANSI)
100
AcDbVertex
100
AcDb2dVertex
 10
33.65114326937983
 20
28.70654993181385
 30
0.0
  0
VERTEX
  5
200
330
1E8
100
AcDbEntity
  8
Visible (ANSI)
100
AcDbVertex
100
AcDb2dVertex
 10
33.64876250968257
 20
28.71663807660807
 30
0.0
  0
VERTEX
  5
201
330
1E8
100
AcDbEntity
  8
Visible (ANSI)
100
AcDbVertex
100
AcDb2dVertex
 10
33.64638174998531
 20
28.72681355159345
 30
0.0
  0
VERTEX
  5
202
330
1E8
100
AcDbEntity
  8
Visible (ANSI)
100
AcDbVertex
100
AcDb2dVertex
 10
33.64400097855484
 20
28.73703279140658
 30
0.0
  0
SEQEND
  5
1EB
330
1E8
100
AcDbEntity
  8
Visible (ANSI)
  0
LINE
  5
203
330
6C
100
AcDbEntity
  8
Hidden (ANSI)
100
AcDbLine
 10
77.3627509809015
 20
28.79417114140154
 30
0.0
 11
77.48775098090148
 21
28.79417114140154
 31
0.0
  0
POLYLINE
  5
204
330
6C
100
AcDbEntity
  8
Hidden (ANSI)
100
AcDb2dPolyline
 66
     1
 10
0.0
 20
0.0
 30
0.0
 70
   128
  0
VERTEX
  5
205
330
204
100
AcDbEntity
  8
Hidden (ANSI)
100
AcDbVertex
100
AcDb2dVertex
 10
77.33150242267683
 20
28.73703279140658
 30
0.0
  0
VERTEX
  5
206
330
204
100
AcDbEntity
  8
Hidden (ANSI)
100
AcDbVertex
100
AcDb2dVertex
 10
77.33354493774818
 20
28.73941356283705
 30
0.0
  0
VERTEX
  5
208
330
204
100
AcDbEntity
  8
Hidden (ANSI)
100
AcDbVertex
100
AcDb2dVertex
 10
77.33557844172364
 20
28.74179432253431
 30
0.0
  0
VERTEX
  5
209
330
204
100
AcDbEntity
  8
Hidden (ANSI)
100
AcDbVertex
100
AcDb2dVertex
 10
77.33759692720592
 20
28.74417508223157
 30
0.0
  0
VERTEX
  5
20A
330
204
100
AcDbEntity
  8
Hidden (ANSI)
100
AcDbVertex
100
AcDb2dVertex
 10
77.3395883794005
 20
28.74655585366202
 30
0.0
  0
VERTEX
  5
20B
330
204
100
AcDbEntity
  8
Hidden (ANSI)
100
AcDbVertex
100
AcDb2dVertex
 10
77.3415467909101
 20
28.74893661335928
 30
0.0
  0
VERTEX
  5
20C
330
204
100
AcDbEntity
  8
Hidden (ANSI)
100
AcDbVertex
100
AcDb2dVertex
 10
77.34346014694017
 20
28.75131738478975
 30
0.0
  0
VERTEX
  5
20D
330
204
100
AcDbEntity
  8
Hidden (ANSI)
100
AcDbVertex
100
AcDb2dVertex
 10
77.34532244009347
 20
28.75369814448701
 30
0.0
  0
VERTEX
  5
20E
330
204
100
AcDbEntity
  8
Hidden (ANSI)
100
AcDbVertex
100
AcDb2dVertex
 10
77.34712465927408
 20
28.75607890418427
 30
0.0
  0
VERTEX
  5
20F
330
204
100
AcDbEntity
  8
Hidden (ANSI)
100
AcDbVertex
100
AcDb2dVertex
 10
77.34886380078338
 20
28.75845967561473
 30
0.0
  0
VERTEX
  5
210
330
204
100
AcDbEntity
  8
Hidden (ANSI)
100
AcDbVertex
100
AcDb2dVertex
 10
77.35052484612817
 20
28.76084043531199
 30
0.0
  0
VERTEX
  5
211
330
204
100
AcDbEntity
  8
Hidden (ANSI)
100
AcDbVertex
100
AcDb2dVertex
 10
77.35210479160983
 20
28.76322120674244
 30
0.0
  0
VERTEX
  5
212
330
204
100
AcDbEntity
  8
Hidden (ANSI)
100
AcDbVertex
100
AcDb2dVertex
 10
77.3535976298311
 20
28.76560196643971
 30
0.0
  0
VERTEX
  5
213
330
204
100
AcDbEntity
  8
Hidden (ANSI)
100
AcDbVertex
100
AcDb2dVertex
 10
77.3549973533947
 20
28.76798273787016
 30
0.0
  0
VERTEX
  5
214
330
204
100
AcDbEntity
  8
Hidden (ANSI)
100
AcDbVertex
100
AcDb2dVertex
 10
77.35629194750611
 20
28.77036349756743
 30
0.0
  0
VERTEX
  5
215
330
204
100
AcDbEntity
  8
Hidden (ANSI)
100
AcDbVertex
100
AcDb2dVertex
 10
77.35748441586396
 20
28.77274425726469
 30
0.0
  0
VERTEX
  5
216
330
204
100
AcDbEntity
  8
Hidden (ANSI)
100
AcDbVertex
100
AcDb2dVertex
 10
77.35856574737232
 20
28.77512502869514
 30
0.0
  0
VERTEX
  5
217
330
204
100
AcDbEntity
  8
Hidden (ANSI)
100
AcDbVertex
100
AcDb2dVertex
 10
77.35952693093532
 20
28.77750578839241
 30
0.0
  0
VERTEX
  5
218
330
204
100
AcDbEntity
  8
Hidden (ANSI)
100
AcDbVertex
100
AcDb2dVertex
 10
77.36037097025157
 20
28.77988654808966
 30
0.0
  0
VERTEX
  5
219
330
204
100
AcDbEntity
  8
Hidden (ANSI)
100
AcDbVertex
100
AcDb2dVertex
 10
77.36109185792381
 20
28.78226730778692
 30
0.0
  0
VERTEX
  5
21A
330
204
100
AcDbEntity
  8
Hidden (ANSI)
100
AcDbVertex
100
AcDb2dVertex
 10
77.36168659025342
 20
28.78464809095058
 30
0.0
  0
VERTEX
  5
21B
330
204
100
AcDbEntity
  8
Hidden (ANSI)
100
AcDbVertex
100
AcDb2dVertex
 10
77.3621491598431
 20
28.78702885064785
 30
0.0
  0
VERTEX
  5
21C
330
204
100
AcDbEntity
  8
Hidden (ANSI)
100
AcDbVertex
100
AcDb2dVertex
 10
77.36248257039152
 20
28.78940961034511
 30
0.0
  0
VERTEX
  5
21D
330
204
100
AcDbEntity
  8
Hidden (ANSI)
100
AcDbVertex
100
AcDb2dVertex
 10
77.36268381820001
 20
28.79179037004237
 30
0.0
  0
VERTEX
  5
21E
330
204
100
AcDbEntity
  8
Hidden (ANSI)
100
AcDbVertex
100
AcDb2dVertex
 10
77.36274989956996
 20
28.79417112973963
 30
0.0
  0
SEQEND
  5
207
330
204
100
AcDbEntity
  8
Hidden (ANSI)
  0
LINE
  5
21F
330
6C
100
AcDbEntity
  8
Hidden (ANSI)
100
AcDbLine
 10
77.36275098090148
 20
88.3673944461049
 30
0.0
 11
77.48775098090148
 21
88.3673944461049
 31
0.0
  0
POLYLINE
  5
220
330
6C
100
AcDbEntity
  8
Hidden (ANSI)
100
AcDb2dPolyline
 66
     1
 10
0.0
 20
0.0
 30
0.0
 70
   128
  0
VERTEX
  5
221
330
220
100
AcDbEntity
  8
Hidden (ANSI)
100
AcDbVertex
100
AcDb2dVertex
 10
77.33150242267683
 20
88.42453399523266
 30
0.0
  0
VERTEX
  5
222
330
220
100
AcDbEntity
  8
Hidden (ANSI)
100
AcDbVertex
100
AcDb2dVertex
 10
77.33354493774818
 20
88.42214905851701
 30
0.0
  0
VERTEX
  5
224
330
220
100
AcDbEntity
  8
Hidden (ANSI)
100
AcDbVertex
100
AcDb2dVertex
 10
77.33557844172364
 20
88.4197701291986
 30
0.0
  0
VERTEX
  5
225
330
220
100
AcDbEntity
  8
Hidden (ANSI)
100
AcDbVertex
100
AcDb2dVertex
 10
77.33759692720592
 20
88.41739119988018
 30
0.0
  0
VERTEX
  5
226
330
220
100
AcDbEntity
  8
Hidden (ANSI)
100
AcDbVertex
100
AcDb2dVertex
 10
77.3395883794005
 20
88.41501227056179
 30
0.0
  0
VERTEX
  5
227
330
220
100
AcDbEntity
  8
Hidden (ANSI)
100
AcDbVertex
100
AcDb2dVertex
 10
77.3415467909101
 20
88.41262733384612
 30
0.0
  0
VERTEX
  5
228
330
220
100
AcDbEntity
  8
Hidden (ANSI)
100
AcDbVertex
100
AcDb2dVertex
 10
77.34346014694017
 20
88.41024840452771
 30
0.0
  0
VERTEX
  5
229
330
220
100
AcDbEntity
  8
Hidden (ANSI)
100
AcDbVertex
100
AcDb2dVertex
 10
77.34532244009347
 20
88.4078694752093
 30
0.0
  0
VERTEX
  5
22A
330
220
100
AcDbEntity
  8
Hidden (ANSI)
100
AcDbVertex
100
AcDb2dVertex
 10
77.34712465927408
 20
88.40548453849363
 30
0.0
  0
VERTEX
  5
22B
330
220
100
AcDbEntity
  8
Hidden (ANSI)
100
AcDbVertex
100
AcDb2dVertex
 10
77.34886380078338
 20
88.4031056091752
 30
0.0
  0
VERTEX
  5
22C
330
220
100
AcDbEntity
  8
Hidden (ANSI)
100
AcDbVertex
100
AcDb2dVertex
 10
77.35052484612817
 20
88.40072667985682
 30
0.0
  0
VERTEX
  5
22D
330
220
100
AcDbEntity
  8
Hidden (ANSI)
100
AcDbVertex
100
AcDb2dVertex
 10
77.35210479160983
 20
88.39834174314113
 30
0.0
  0
VERTEX
  5
22E
330
220
100
AcDbEntity
  8
Hidden (ANSI)
100
AcDbVertex
100
AcDb2dVertex
 10
77.3535976298311
 20
88.39596281382272
 30
0.0
  0
VERTEX
  5
22F
330
220
100
AcDbEntity
  8
Hidden (ANSI)
100
AcDbVertex
100
AcDb2dVertex
 10
77.3549973533947
 20
88.39358388450431
 30
0.0
  0
VERTEX
  5
230
330
220
100
AcDbEntity
  8
Hidden (ANSI)
100
AcDbVertex
100
AcDb2dVertex
 10
77.35629194750611
 20
88.3912049551859
 30
0.0
  0
VERTEX
  5
231
330
220
100
AcDbEntity
  8
Hidden (ANSI)
100
AcDbVertex
100
AcDb2dVertex
 10
77.35748441586396
 20
88.38882001847023
 30
0.0
  0
VERTEX
  5
232
330
220
100
AcDbEntity
  8
Hidden (ANSI)
100
AcDbVertex
100
AcDb2dVertex
 10
77.35856574737232
 20
88.38644108915183
 30
0.0
  0
VERTEX
  5
233
330
220
100
AcDbEntity
  8
Hidden (ANSI)
100
AcDbVertex
100
AcDb2dVertex
 10
77.35952693093532
 20
88.38406215983344
 30
0.0
  0
VERTEX
  5
234
330
220
100
AcDbEntity
  8
Hidden (ANSI)
100
AcDbVertex
100
AcDb2dVertex
 10
77.36037097025157
 20
88.38167722311776
 30
0.0
  0
VERTEX
  5
235
330
220
100
AcDbEntity
  8
Hidden (ANSI)
100
AcDbVertex
100
AcDb2dVertex
 10
77.36109185792381
 20
88.37929829379936
 30
0.0
  0
VERTEX
  5
236
330
220
100
AcDbEntity
  8
Hidden (ANSI)
100
AcDbVertex
100
AcDb2dVertex
 10
77.36168659025342
 20
88.37691936448095
 30
0.0
  0
VERTEX
  5
237
330
220
100
AcDbEntity
  8
Hidden (ANSI)
100
AcDbVertex
100
AcDb2dVertex
 10
77.3621491598431
 20
88.37453442776528
 30
0.0
  0
VERTEX
  5
238
330
220
100
AcDbEntity
  8
Hidden (ANSI)
100
AcDbVertex
100
AcDb2dVertex
 10
77.36248257039152
 20
88.37215549844687
 30
0.0
  0
VERTEX
  5
239
330
220
100
AcDbEntity
  8
Hidden (ANSI)
100
AcDbVertex
100
AcDb2dVertex
 10
77.36268381820001
 20
88.36977656912848
 30
0.0
  0
VERTEX
  5
23A
330
220
100
AcDbEntity
  8
Hidden (ANSI)
100
AcDbVertex
100
AcDb2dVertex
 10
77.36274989956996
 20
88.36739163241279
 30
0.0
  0
SEQEND
  5
223
330
220
100
AcDbEntity
  8
Hidden (ANSI)
  0
LINE
  5
23B
330
6C
100
AcDbEntity
  8
Hidden (ANSI)
100
AcDbLine
 10
77.27436263325316
 20
88.45578279375322
 30
0.0
 11
77.27436263325316
 21
88.58078279375321
 31
0.0
  0
POLYLINE
  5
23C
330
6C
100
AcDbEntity
  8
Hidden (ANSI)
100
AcDb2dPolyline
 66
     1
 10
0.0
 20
0.0
 30
0.0
 70
   128
  0
VERTEX
  5
23D
330
23C
100
AcDbEntity
  8
Hidden (ANSI)
100
AcDbVertex
100
AcDb2dVertex
 10
77.33150242267683
 20
88.42453399523266
 30
0.0
  0
VERTEX
  5
23E
330
23C
100
AcDbEntity
  8
Hidden (ANSI)
100
AcDbVertex
100
AcDb2dVertex
 10
77.32912048965978
 20
88.42657651030403
 30
0.0
  0
VERTEX
  5
240
330
23C
100
AcDbEntity
  8
Hidden (ANSI)
100
AcDbVertex
100
AcDb2dVertex
 10
77.32673855664275
 20
88.42861301797812
 30
0.0
  0
VERTEX
  5
241
330
23C
100
AcDbEntity
  8
Hidden (ANSI)
100
AcDbVertex
100
AcDb2dVertex
 10
77.32435962732435
 20
88.4306315034604
 30
0.0
  0
VERTEX
  5
242
330
23C
100
AcDbEntity
  8
Hidden (ANSI)
100
AcDbVertex
100
AcDb2dVertex
 10
77.3219776943073
 20
88.43261995195636
 30
0.0
  0
VERTEX
  5
243
330
23C
100
AcDbEntity
  8
Hidden (ANSI)
100
AcDbVertex
100
AcDb2dVertex
 10
77.31959576129026
 20
88.43457836346594
 30
0.0
  0
VERTEX
  5
244
330
23C
100
AcDbEntity
  8
Hidden (ANSI)
100
AcDbVertex
100
AcDb2dVertex
 10
77.31721683197185
 20
88.43648871579739
 30
0.0
  0
VERTEX
  5
245
330
23C
100
AcDbEntity
  8
Hidden (ANSI)
100
AcDbVertex
100
AcDb2dVertex
 10
77.31483489895481
 20
88.43835701634795
 30
0.0
  0
VERTEX
  5
246
330
23C
100
AcDbEntity
  8
Hidden (ANSI)
100
AcDbVertex
100
AcDb2dVertex
 10
77.31245596963642
 20
88.44015923552857
 30
0.0
  0
VERTEX
  5
247
330
23C
100
AcDbEntity
  8
Hidden (ANSI)
100
AcDbVertex
100
AcDb2dVertex
 10
77.31007403661937
 20
88.44189537333923
 30
0.0
  0
VERTEX
  5
248
330
23C
100
AcDbEntity
  8
Hidden (ANSI)
100
AcDbVertex
100
AcDb2dVertex
 10
77.30769210360233
 20
88.44355942238264
 30
0.0
  0
VERTEX
  5
249
330
23C
100
AcDbEntity
  8
Hidden (ANSI)
100
AcDbVertex
100
AcDb2dVertex
 10
77.30531317428392
 20
88.44513936786432
 30
0.0
  0
VERTEX
  5
24A
330
23C
100
AcDbEntity
  8
Hidden (ANSI)
100
AcDbVertex
100
AcDb2dVertex
 10
77.30293124126688
 20
88.44662920238695
 30
0.0
  0
VERTEX
  5
24B
330
23C
100
AcDbEntity
  8
Hidden (ANSI)
100
AcDbVertex
100
AcDb2dVertex
 10
77.30055231194848
 20
88.44802892595055
 30
0.0
  0
VERTEX
  5
24C
330
23C
100
AcDbEntity
  8
Hidden (ANSI)
100
AcDbVertex
100
AcDb2dVertex
 10
77.29817037893143
 20
88.4493265237606
 30
0.0
  0
VERTEX
  5
24D
330
23C
100
AcDbEntity
  8
Hidden (ANSI)
100
AcDbVertex
100
AcDb2dVertex
 10
77.2957884459144
 20
88.45051598841981
 30
0.0
  0
VERTEX
  5
24E
330
23C
100
AcDbEntity
  8
Hidden (ANSI)
100
AcDbVertex
100
AcDb2dVertex
 10
77.293409516596
 20
88.45159731992817
 30
0.0
  0
VERTEX
  5
24F
330
23C
100
AcDbEntity
  8
Hidden (ANSI)
100
AcDbVertex
100
AcDb2dVertex
 10
77.29102758357895
 20
88.45255850349117
 30
0.0
  0
VERTEX
  5
250
330
23C
100
AcDbEntity
  8
Hidden (ANSI)
100
AcDbVertex
100
AcDb2dVertex
 10
77.28864865426055
 20
88.45340554650604
 30
0.0
  0
VERTEX
  5
251
330
23C
100
AcDbEntity
  8
Hidden (ANSI)
100
AcDbVertex
100
AcDb2dVertex
 10
77.28626672124351
 20
88.4541264341783
 30
0.0
  0
VERTEX
  5
252
330
23C
100
AcDbEntity
  8
Hidden (ANSI)
100
AcDbVertex
100
AcDb2dVertex
 10
77.28388478822648
 20
88.45471515911063
 30
0.0
  0
VERTEX
  5
253
330
23C
100
AcDbEntity
  8
Hidden (ANSI)
100
AcDbVertex
100
AcDb2dVertex
 10
77.28150585890808
 20
88.4551837360976
 30
0.0
  0
VERTEX
  5
254
330
23C
100
AcDbEntity
  8
Hidden (ANSI)
100
AcDbVertex
100
AcDb2dVertex
 10
77.27912392589101
 20
88.45551414294737
 30
0.0
  0
VERTEX
  5
255
330
23C
100
AcDbEntity
  8
Hidden (ANSI)
100
AcDbVertex
100
AcDb2dVertex
 10
77.27674199287398
 20
88.45571839445451
 30
0.0
  0
VERTEX
  5
256
330
23C
100
AcDbEntity
  8
Hidden (ANSI)
100
AcDbVertex
100
AcDb2dVertex
 10
77.27436306355558
 20
88.45578447582445
 30
0.0
  0
SEQEND
  5
23F
330
23C
100
AcDbEntity
  8
Hidden (ANSI)
  0
LINE
  5
257
330
6C
100
AcDbEntity
  8
Hidden (ANSI)
100
AcDbLine
 10
33.70113932854979
 20
88.45578279375322
 30
0.0
 11
33.70113932854979
 21
88.58078279375321
 31
0.0
  0
POLYLINE
  5
258
330
6C
100
AcDbEntity
  8
Hidden (ANSI)
100
AcDb2dPolyline
 66
     1
 10
0.0
 20
0.0
 30
0.0
 70
   128
  0
VERTEX
  5
259
330
258
100
AcDbEntity
  8
Hidden (ANSI)
100
AcDbVertex
100
AcDb2dVertex
 10
33.64400097855484
 20
88.42453399523266
 30
0.0
  0
VERTEX
  5
25A
330
258
100
AcDbEntity
  8
Hidden (ANSI)
100
AcDbVertex
100
AcDb2dVertex
 10
33.64638174998531
 20
88.42657651030403
 30
0.0
  0
VERTEX
  5
25C
330
258
100
AcDbEntity
  8
Hidden (ANSI)
100
AcDbVertex
100
AcDb2dVertex
 10
33.64876250968257
 20
88.42861301797812
 30
0.0
  0
VERTEX
  5
25D
330
258
100
AcDbEntity
  8
Hidden (ANSI)
100
AcDbVertex
100
AcDb2dVertex
 10
33.65114326937983
 20
88.4306315034604
 30
0.0
  0
VERTEX
  5
25E
330
258
100
AcDbEntity
  8
Hidden (ANSI)
100
AcDbVertex
100
AcDb2dVertex
 10
33.65352404081028
 20
88.43261995195636
 30
0.0
  0
VERTEX
  5
25F
330
258
100
AcDbEntity
  8
Hidden (ANSI)
100
AcDbVertex
100
AcDb2dVertex
 10
33.65590480050755
 20
88.43457836346594
 30
0.0
  0
VERTEX
  5
260
330
258
100
AcDbEntity
  8
Hidden (ANSI)
100
AcDbVertex
100
AcDb2dVertex
 10
33.65828557193801
 20
88.43648871579739
 30
0.0
  0
VERTEX
  5
261
330
258
100
AcDbEntity
  8
Hidden (ANSI)
100
AcDbVertex
100
AcDb2dVertex
 10
33.66066633163527
 20
88.43835701634795
 30
0.0
  0
VERTEX
  5
262
330
258
100
AcDbEntity
  8
Hidden (ANSI)
100
AcDbVertex
100
AcDb2dVertex
 10
33.66304709133253
 20
88.44015923552857
 30
0.0
  0
VERTEX
  5
263
330
258
100
AcDbEntity
  8
Hidden (ANSI)
100
AcDbVertex
100
AcDb2dVertex
 10
33.66542786276298
 20
88.44189537333923
 30
0.0
  0
VERTEX
  5
264
330
258
100
AcDbEntity
  8
Hidden (ANSI)
100
AcDbVertex
100
AcDb2dVertex
 10
33.66780862246025
 20
88.44355942238264
 30
0.0
  0
VERTEX
  5
265
330
258
100
AcDbEntity
  8
Hidden (ANSI)
100
AcDbVertex
100
AcDb2dVertex
 10
33.67018939389071
 20
88.44513936786432
 30
0.0
  0
VERTEX
  5
266
330
258
100
AcDbEntity
  8
Hidden (ANSI)
100
AcDbVertex
100
AcDb2dVertex
 10
33.67257015358797
 20
88.44662920238695
 30
0.0
  0
VERTEX
  5
267
330
258
100
AcDbEntity
  8
Hidden (ANSI)
100
AcDbVertex
100
AcDb2dVertex
 10
33.67495092501842
 20
88.44802892595055
 30
0.0
  0
VERTEX
  5
268
330
258
100
AcDbEntity
  8
Hidden (ANSI)
100
AcDbVertex
100
AcDb2dVertex
 10
33.67733168471569
 20
88.4493265237606
 30
0.0
  0
VERTEX
  5
269
330
258
100
AcDbEntity
  8
Hidden (ANSI)
100
AcDbVertex
100
AcDb2dVertex
 10
33.67971244441295
 20
88.45051598841981
 30
0.0
  0
VERTEX
  5
26A
330
258
100
AcDbEntity
  8
Hidden (ANSI)
100
AcDbVertex
100
AcDb2dVertex
 10
33.68209321584341
 20
88.45159731992817
 30
0.0
  0
VERTEX
  5
26B
330
258
100
AcDbEntity
  8
Hidden (ANSI)
100
AcDbVertex
100
AcDb2dVertex
 10
33.68447397554067
 20
88.45255850349117
 30
0.0
  0
VERTEX
  5
26C
330
258
100
AcDbEntity
  8
Hidden (ANSI)
100
AcDbVertex
100
AcDb2dVertex
 10
33.68685473523792
 20
88.45340554650604
 30
0.0
  0
VERTEX
  5
26D
330
258
100
AcDbEntity
  8
Hidden (ANSI)
100
AcDbVertex
100
AcDb2dVertex
 10
33.68923549493519
 20
88.4541264341783
 30
0.0
  0
VERTEX
  5
26E
330
258
100
AcDbEntity
  8
Hidden (ANSI)
100
AcDbVertex
100
AcDb2dVertex
 10
33.69161627809884
 20
88.45471515911063
 30
0.0
  0
VERTEX
  5
26F
330
258
100
AcDbEntity
  8
Hidden (ANSI)
100
AcDbVertex
100
AcDb2dVertex
 10
33.69399703779611
 20
88.4551837360976
 30
0.0
  0
VERTEX
  5
270
330
258
100
AcDbEntity
  8
Hidden (ANSI)
100
AcDbVertex
100
AcDb2dVertex
 10
33.69637779749337
 20
88.45551414294737
 30
0.0
  0
VERTEX
  5
271
330
258
100
AcDbEntity
  8
Hidden (ANSI)
100
AcDbVertex
100
AcDb2dVertex
 10
33.69875855719062
 20
88.45571839445451
 30
0.0
  0
VERTEX
  5
272
330
258
100
AcDbEntity
  8
Hidden (ANSI)
100
AcDbVertex
100
AcDb2dVertex
 10
33.70113931688789
 20
88.45578447582445
 30
0.0
  0
SEQEND
  5
25B
330
258
100
AcDbEntity
  8
Hidden (ANSI)
  0
LINE
  5
273
330
6C
100
AcDbEntity
  8
Hidden (ANSI)
100
AcDbLine
 10
33.61275098090147
 20
88.3673944461049
 30
0.0
 11
33.48775098090147
 21
88.3673944461049
 31
0.0
  0
POLYLINE
  5
274
330
6C
100
AcDbEntity
  8
Hidden (ANSI)
100
AcDb2dPolyline
 66
     1
 10
0.0
 20
0.0
 30
0.0
 70
   128
  0
VERTEX
  5
275
330
274
100
AcDbEntity
  8
Hidden (ANSI)
100
AcDbVertex
100
AcDb2dVertex
 10
33.64400097855484
 20
88.42453399523266
 30
0.0
  0
VERTEX
  5
276
330
274
100
AcDbEntity
  8
Hidden (ANSI)
100
AcDbVertex
100
AcDb2dVertex
 10
33.64195713763214
 20
88.42214905851701
 30
0.0
  0
VERTEX
  5
278
330
274
100
AcDbEntity
  8
Hidden (ANSI)
100
AcDbVertex
100
AcDb2dVertex
 10
33.63992203794179
 20
88.4197701291986
 30
0.0
  0
VERTEX
  5
279
330
274
100
AcDbEntity
  8
Hidden (ANSI)
100
AcDbVertex
100
AcDb2dVertex
 10
33.63790440898294
 20
88.41739119988018
 30
0.0
  0
VERTEX
  5
27A
330
274
100
AcDbEntity
  8
Hidden (ANSI)
100
AcDbVertex
100
AcDb2dVertex
 10
33.63591288638918
 20
88.41501227056179
 30
0.0
  0
VERTEX
  5
27B
330
274
100
AcDbEntity
  8
Hidden (ANSI)
100
AcDbVertex
100
AcDb2dVertex
 10
33.6339560001953
 20
88.41262733384612
 30
0.0
  0
VERTEX
  5
27C
330
274
100
AcDbEntity
  8
Hidden (ANSI)
100
AcDbVertex
100
AcDb2dVertex
 10
33.63204212790452
 20
88.41024840452771
 30
0.0
  0
VERTEX
  5
27D
330
274
100
AcDbEntity
  8
Hidden (ANSI)
100
AcDbVertex
100
AcDb2dVertex
 10
33.63017945928888
 20
88.4078694752093
 30
0.0
  0
VERTEX
  5
27E
330
274
100
AcDbEntity
  8
Hidden (ANSI)
100
AcDbVertex
100
AcDb2dVertex
 10
33.62837598465611
 20
88.40548453849363
 30
0.0
  0
VERTEX
  5
27F
330
274
100
AcDbEntity
  8
Hidden (ANSI)
100
AcDbVertex
100
AcDb2dVertex
 10
33.62663941271714
 20
88.4031056091752
 30
0.0
  0
VERTEX
  5
280
330
274
100
AcDbEntity
  8
Hidden (ANSI)
100
AcDbVertex
100
AcDb2dVertex
 10
33.62497718231936
 20
88.40072667985682
 30
0.0
  0
VERTEX
  5
281
330
274
100
AcDbEntity
  8
Hidden (ANSI)
100
AcDbVertex
100
AcDb2dVertex
 10
33.62339642724705
 20
88.39834174314113
 30
0.0
  0
VERTEX
  5
282
330
274
100
AcDbEntity
  8
Hidden (ANSI)
100
AcDbVertex
100
AcDb2dVertex
 10
33.62190389408892
 20
88.39596281382272
 30
0.0
  0
VERTEX
  5
283
330
274
100
AcDbEntity
  8
Hidden (ANSI)
100
AcDbVertex
100
AcDb2dVertex
 10
33.62050598917097
 20
88.39358388450431
 30
0.0
  0
VERTEX
  5
284
330
274
100
AcDbEntity
  8
Hidden (ANSI)
100
AcDbVertex
100
AcDb2dVertex
 10
33.61920868469088
 20
88.3912049551859
 30
0.0
  0
VERTEX
  5
285
330
274
100
AcDbEntity
  8
Hidden (ANSI)
100
AcDbVertex
100
AcDb2dVertex
 10
33.61801755391759
 20
88.38882001847023
 30
0.0
  0
VERTEX
  5
286
330
274
100
AcDbEntity
  8
Hidden (ANSI)
100
AcDbVertex
100
AcDb2dVertex
 10
33.61693768905894
 20
88.38644108915183
 30
0.0
  0
VERTEX
  5
287
330
274
100
AcDbEntity
  8
Hidden (ANSI)
100
AcDbVertex
100
AcDb2dVertex
 10
33.61597371299488
 20
88.38406215983344
 30
0.0
  0
VERTEX
  5
288
330
274
100
AcDbEntity
  8
Hidden (ANSI)
100
AcDbVertex
100
AcDb2dVertex
 10
33.61512974407781
 20
88.38167722311776
 30
0.0
  0
VERTEX
  5
289
330
274
100
AcDbEntity
  8
Hidden (ANSI)
100
AcDbVertex
100
AcDb2dVertex
 10
33.61440941959906
 20
88.37929829379936
 30
0.0
  0
VERTEX
  5
28A
330
274
100
AcDbEntity
  8
Hidden (ANSI)
100
AcDbVertex
100
AcDb2dVertex
 10
33.61381580192325
 20
88.37691936448095
 30
0.0
  0
VERTEX
  5
28B
330
274
100
AcDbEntity
  8
Hidden (ANSI)
100
AcDbVertex
100
AcDb2dVertex
 10
33.6133514371543
 20
88.37453442776528
 30
0.0
  0
VERTEX
  5
28C
330
274
100
AcDbEntity
  8
Hidden (ANSI)
100
AcDbVertex
100
AcDb2dVertex
 10
33.61301833166904
 20
88.37215549844687
 30
0.0
  0
VERTEX
  5
28D
330
274
100
AcDbEntity
  8
Hidden (ANSI)
100
AcDbVertex
100
AcDb2dVertex
 10
33.61281789345117
 20
88.36977656912848
 30
0.0
  0
VERTEX
  5
28E
330
274
100
AcDbEntity
  8
Hidden (ANSI)
100
AcDbVertex
100
AcDb2dVertex
 10
33.61275097902418
 20
88.36739163241279
 30
0.0
  0
SEQEND
  5
277
330
274
100
AcDbEntity
  8
Hidden (ANSI)
  0
LINE
  5
28F
330
6C
100
AcDbEntity
  8
Hidden (ANSI)
100
AcDbLine
 10
33.61275098090149
 20
28.79417114140155
 30
0.0
 11
33.48775098090149
 21
28.79417114140155
 31
0.0
  0
POLYLINE
  5
290
330
6C
100
AcDbEntity
  8
Hidden (ANSI)
100
AcDb2dPolyline
 66
     1
 10
0.0
 20
0.0
 30
0.0
 70
   128
  0
VERTEX
  5
291
330
290
100
AcDbEntity
  8
Hidden (ANSI)
100
AcDbVertex
100
AcDb2dVertex
 10
33.64400097855484
 20
28.73703279140658
 30
0.0
  0
VERTEX
  5
292
330
290
100
AcDbEntity
  8
Hidden (ANSI)
100
AcDbVertex
100
AcDb2dVertex
 10
33.64195713763214
 20
28.73941356283705
 30
0.0
  0
VERTEX
  5
294
330
290
100
AcDbEntity
  8
Hidden (ANSI)
100
AcDbVertex
100
AcDb2dVertex
 10
33.63992203794179
 20
28.74179432253431
 30
0.0
  0
VERTEX
  5
295
330
290
100
AcDbEntity
  8
Hidden (ANSI)
100
AcDbVertex
100
AcDb2dVertex
 10
33.63790440898294
 20
28.74417508223157
 30
0.0
  0
VERTEX
  5
296
330
290
100
AcDbEntity
  8
Hidden (ANSI)
100
AcDbVertex
100
AcDb2dVertex
 10
33.63591288638918
 20
28.74655585366202
 30
0.0
  0
VERTEX
  5
297
330
290
100
AcDbEntity
  8
Hidden (ANSI)
100
AcDbVertex
100
AcDb2dVertex
 10
33.6339560001953
 20
28.74893661335928
 30
0.0
  0
VERTEX
  5
298
330
290
100
AcDbEntity
  8
Hidden (ANSI)
100
AcDbVertex
100
AcDb2dVertex
 10
33.63204212790452
 20
28.75131738478975
 30
0.0
  0
VERTEX
  5
299
330
290
100
AcDbEntity
  8
Hidden (ANSI)
100
AcDbVertex
100
AcDb2dVertex
 10
33.63017945928888
 20
28.75369814448701
 30
0.0
  0
VERTEX
  5
29A
330
290
100
AcDbEntity
  8
Hidden (ANSI)
100
AcDbVertex
100
AcDb2dVertex
 10
33.62837598465611
 20
28.75607890418427
 30
0.0
  0
VERTEX
  5
29B
330
290
100
AcDbEntity
  8
Hidden (ANSI)
100
AcDbVertex
100
AcDb2dVertex
 10
33.62663941271714
 20
28.75845967561473
 30
0.0
  0
VERTEX
  5
29C
330
290
100
AcDbEntity
  8
Hidden (ANSI)
100
AcDbVertex
100
AcDb2dVertex
 10
33.62497718231936
 20
28.76084043531199
 30
0.0
  0
VERTEX
  5
29D
330
290
100
AcDbEntity
  8
Hidden (ANSI)
100
AcDbVertex
100
AcDb2dVertex
 10
33.62339642724705
 20
28.76322120674244
 30
0.0
  0
VERTEX
  5
29E
330
290
100
AcDbEntity
  8
Hidden (ANSI)
100
AcDbVertex
100
AcDb2dVertex
 10
33.62190389408892
 20
28.76560196643971
 30
0.0
  0
VERTEX
  5
29F
330
290
100
AcDbEntity
  8
Hidden (ANSI)
100
AcDbVertex
100
AcDb2dVertex
 10
33.62050598917097
 20
28.76798273787016
 30
0.0
  0
VERTEX
  5
2A0
330
290
100
AcDbEntity
  8
Hidden (ANSI)
100
AcDbVertex
100
AcDb2dVertex
 10
33.61920868469088
 20
28.77036349756743
 30
0.0
  0
VERTEX
  5
2A1
330
290
100
AcDbEntity
  8
Hidden (ANSI)
100
AcDbVertex
100
AcDb2dVertex
 10
33.61801755391759
 20
28.77274425726469
 30
0.0
  0
VERTEX
  5
2A2
330
290
100
AcDbEntity
  8
Hidden (ANSI)
100
AcDbVertex
100
AcDb2dVertex
 10
33.61693768905894
 20
28.77512502869514
 30
0.0
  0
VERTEX
  5
2A3
330
290
100
AcDbEntity
  8
Hidden (ANSI)
100
AcDbVertex
100
AcDb2dVertex
 10
33.61597371299488
 20
28.77750578839241
 30
0.0
  0
VERTEX
  5
2A4
330
290
100
AcDbEntity
  8
Hidden (ANSI)
100
AcDbVertex
100
AcDb2dVertex
 10
33.61512974407781
 20
28.77988654808966
 30
0.0
  0
VERTEX
  5
2A5
330
290
100
AcDbEntity
  8
Hidden (ANSI)
100
AcDbVertex
100
AcDb2dVertex
 10
33.61440941959906
 20
28.78226730778692
 30
0.0
  0
VERTEX
  5
2A6
330
290
100
AcDbEntity
  8
Hidden (ANSI)
100
AcDbVertex
100
AcDb2dVertex
 10
33.61381580192325
 20
28.78464809095058
 30
0.0
  0
VERTEX
  5
2A7
330
290
100
AcDbEntity
  8
Hidden (ANSI)
100
AcDbVertex
100
AcDb2dVertex
 10
33.6133514371543
 20
28.78702885064785
 30
0.0
  0
VERTEX
  5
2A8
330
290
100
AcDbEntity
  8
Hidden (ANSI)
100
AcDbVertex
100
AcDb2dVertex
 10
33.61301833166904
 20
28.78940961034511
 30
0.0
  0
VERTEX
  5
2A9
330
290
100
AcDbEntity
  8
Hidden (ANSI)
100
AcDbVertex
100
AcDb2dVertex
 10
33.61281789345117
 20
28.79179037004237
 30
0.0
  0
VERTEX
  5
2AA
330
290
100
AcDbEntity
  8
Hidden (ANSI)
100
AcDbVertex
100
AcDb2dVertex
 10
33.61275097902418
 20
28.79417112973963
 30
0.0
  0
SEQEND
  5
293
330
290
100
AcDbEntity
  8
Hidden (ANSI)
  0
LINE
  5
2AB
330
6C
100
AcDbEntity
  8
Hidden (ANSI)
100
AcDbLine
 10
33.70113932854981
 20
28.70578279375323
 30
0.0
 11
33.70113932854981
 21
28.58078279375323
 31
0.0
  0
POLYLINE
  5
2AC
330
6C
100
AcDbEntity
  8
Hidden (ANSI)
100
AcDb2dPolyline
 66
     1
 10
0.0
 20
0.0
 30
0.0
 70
   128
  0
VERTEX
  5
2AD
330
2AC
100
AcDbEntity
  8
Hidden (ANSI)
100
AcDbVertex
100
AcDb2dVertex
 10
33.64400097855484
 20
28.73703279140658
 30
0.0
  0
VERTEX
  5
2AE
330
2AC
100
AcDbEntity
  8
Hidden (ANSI)
100
AcDbVertex
100
AcDb2dVertex
 10
33.64638174998531
 20
28.73498895048388
 30
0.0
  0
VERTEX
  5
2B0
330
2AC
100
AcDbEntity
  8
Hidden (ANSI)
100
AcDbVertex
100
AcDb2dVertex
 10
33.64876250968257
 20
28.73295385079352
 30
0.0
  0
VERTEX
  5
2B1
330
2AC
100
AcDbEntity
  8
Hidden (ANSI)
100
AcDbVertex
100
AcDb2dVertex
 10
33.65114326937983
 20
28.73093622183468
 30
0.0
  0
VERTEX
  5
2B2
330
2AC
100
AcDbEntity
  8
Hidden (ANSI)
100
AcDbVertex
100
AcDb2dVertex
 10
33.65352404081028
 20
28.72894469924092
 30
0.0
  0
VERTEX
  5
2B3
330
2AC
100
AcDbEntity
  8
Hidden (ANSI)
100
AcDbVertex
100
AcDb2dVertex
 10
33.65590480050755
 20
28.72698781304703
 30
0.0
  0
VERTEX
  5
2B4
330
2AC
100
AcDbEntity
  8
Hidden (ANSI)
100
AcDbVertex
100
AcDb2dVertex
 10
33.65828557193801
 20
28.72507394075625
 30
0.0
  0
VERTEX
  5
2B5
330
2AC
100
AcDbEntity
  8
Hidden (ANSI)
100
AcDbVertex
100
AcDb2dVertex
 10
33.66066633163527
 20
28.72321127214063
 30
0.0
  0
VERTEX
  5
2B6
330
2AC
100
AcDbEntity
  8
Hidden (ANSI)
100
AcDbVertex
100
AcDb2dVertex
 10
33.66304709133253
 20
28.72140779750785
 30
0.0
  0
VERTEX
  5
2B7
330
2AC
100
AcDbEntity
  8
Hidden (ANSI)
100
AcDbVertex
100
AcDb2dVertex
 10
33.66542786276298
 20
28.71967122556887
 30
0.0
  0
VERTEX
  5
2B8
330
2AC
100
AcDbEntity
  8
Hidden (ANSI)
100
AcDbVertex
100
AcDb2dVertex
 10
33.66780862246025
 20
28.7180089951711
 30
0.0
  0
VERTEX
  5
2B9
330
2AC
100
AcDbEntity
  8
Hidden (ANSI)
100
AcDbVertex
100
AcDb2dVertex
 10
33.67018939389071
 20
28.71642824009878
 30
0.0
  0
VERTEX
  5
2BA
330
2AC
100
AcDbEntity
  8
Hidden (ANSI)
100
AcDbVertex
100
AcDb2dVertex
 10
33.67257015358797
 20
28.71493570694066
 30
0.0
  0
VERTEX
  5
2BB
330
2AC
100
AcDbEntity
  8
Hidden (ANSI)
100
AcDbVertex
100
AcDb2dVertex
 10
33.67495092501842
 20
28.71353780202271
 30
0.0
  0
VERTEX
  5
2BC
330
2AC
100
AcDbEntity
  8
Hidden (ANSI)
100
AcDbVertex
100
AcDb2dVertex
 10
33.67733168471569
 20
28.71224049754262
 30
0.0
  0
VERTEX
  5
2BD
330
2AC
100
AcDbEntity
  8
Hidden (ANSI)
100
AcDbVertex
100
AcDb2dVertex
 10
33.67971244441295
 20
28.71104936676933
 30
0.0
  0
VERTEX
  5
2BE
330
2AC
100
AcDbEntity
  8
Hidden (ANSI)
100
AcDbVertex
100
AcDb2dVertex
 10
33.68209321584341
 20
28.70996950191068
 30
0.0
  0
VERTEX
  5
2BF
330
2AC
100
AcDbEntity
  8
Hidden (ANSI)
100
AcDbVertex
100
AcDb2dVertex
 10
33.68447397554067
 20
28.70900552584661
 30
0.0
  0
VERTEX
  5
2C0
330
2AC
100
AcDbEntity
  8
Hidden (ANSI)
100
AcDbVertex
100
AcDb2dVertex
 10
33.68685473523792
 20
28.70816155692955
 30
0.0
  0
VERTEX
  5
2C1
330
2AC
100
AcDbEntity
  8
Hidden (ANSI)
100
AcDbVertex
100
AcDb2dVertex
 10
33.68923549493519
 20
28.7074412324508
 30
0.0
  0
VERTEX
  5
2C2
330
2AC
100
AcDbEntity
  8
Hidden (ANSI)
100
AcDbVertex
100
AcDb2dVertex
 10
33.69161627809884
 20
28.70684761477499
 30
0.0
  0
VERTEX
  5
2C3
330
2AC
100
AcDbEntity
  8
Hidden (ANSI)
100
AcDbVertex
100
AcDb2dVertex
 10
33.69399703779611
 20
28.70638325000604
 30
0.0
  0
VERTEX
  5
2C4
330
2AC
100
AcDbEntity
  8
Hidden (ANSI)
100
AcDbVertex
100
AcDb2dVertex
 10
33.69637779749337
 20
28.70605014452077
 30
0.0
  0
VERTEX
  5
2C5
330
2AC
100
AcDbEntity
  8
Hidden (ANSI)
100
AcDbVertex
100
AcDb2dVertex
 10
33.69875855719062
 20
28.70584970630292
 30
0.0
  0
VERTEX
  5
2C6
330
2AC
100
AcDbEntity
  8
Hidden (ANSI)
100
AcDbVertex
100
AcDb2dVertex
 10
33.70113931688789
 20
28.70578279187591
 30
0.0
  0
SEQEND
  5
2AF
330
2AC
100
AcDbEntity
  8
Hidden (ANSI)
  0
LINE
  5
2C7
330
6C
100
AcDbEntity
  8
Hidden (ANSI)
100
AcDbLine
 10
77.27436263325316
 20
28.70578279375323
 30
0.0
 11
77.27436263325316
 21
28.58078279375323
 31
0.0
  0
POLYLINE
  5
2C8
330
6C
100
AcDbEntity
  8
Hidden (ANSI)
100
AcDb2dPolyline
 66
     1
 10
0.0
 20
0.0
 30
0.0
 70
   128
  0
VERTEX
  5
2C9
330
2C8
100
AcDbEntity
  8
Hidden (ANSI)
100
AcDbVertex
100
AcDb2dVertex
 10
77.33150242267683
 20
28.73703279140658
 30
0.0
  0
VERTEX
  5
2CA
330
2C8
100
AcDbEntity
  8
Hidden (ANSI)
100
AcDbVertex
100
AcDb2dVertex
 10
77.32912048965978
 20
28.73498895048388
 30
0.0
  0
VERTEX
  5
2CC
330
2C8
100
AcDbEntity
  8
Hidden (ANSI)
100
AcDbVertex
100
AcDb2dVertex
 10
77.32673855664275
 20
28.73295385079352
 30
0.0
  0
VERTEX
  5
2CD
330
2C8
100
AcDbEntity
  8
Hidden (ANSI)
100
AcDbVertex
100
AcDb2dVertex
 10
77.32435962732435
 20
28.73093622183468
 30
0.0
  0
VERTEX
  5
2CE
330
2C8
100
AcDbEntity
  8
Hidden (ANSI)
100
AcDbVertex
100
AcDb2dVertex
 10
77.3219776943073
 20
28.72894469924092
 30
0.0
  0
VERTEX
  5
2CF
330
2C8
100
AcDbEntity
  8
Hidden (ANSI)
100
AcDbVertex
100
AcDb2dVertex
 10
77.31959576129026
 20
28.72698781304703
 30
0.0
  0
VERTEX
  5
2D0
330
2C8
100
AcDbEntity
  8
Hidden (ANSI)
100
AcDbVertex
100
AcDb2dVertex
 10
77.31721683197185
 20
28.72507394075625
 30
0.0
  0
VERTEX
  5
2D1
330
2C8
100
AcDbEntity
  8
Hidden (ANSI)
100
AcDbVertex
100
AcDb2dVertex
 10
77.31483489895481
 20
28.72321127214063
 30
0.0
  0
VERTEX
  5
2D2
330
2C8
100
AcDbEntity
  8
Hidden (ANSI)
100
AcDbVertex
100
AcDb2dVertex
 10
77.31245596963642
 20
28.72140779750785
 30
0.0
  0
VERTEX
  5
2D3
330
2C8
100
AcDbEntity
  8
Hidden (ANSI)
100
AcDbVertex
100
AcDb2dVertex
 10
77.31007403661937
 20
28.71967122556887
 30
0.0
  0
VERTEX
  5
2D4
330
2C8
100
AcDbEntity
  8
Hidden (ANSI)
100
AcDbVertex
100
AcDb2dVertex
 10
77.30769210360233
 20
28.7180089951711
 30
0.0
  0
VERTEX
  5
2D5
330
2C8
100
AcDbEntity
  8
Hidden (ANSI)
100
AcDbVertex
100
AcDb2dVertex
 10
77.30531317428392
 20
28.71642824009878
 30
0.0
  0
VERTEX
  5
2D6
330
2C8
100
AcDbEntity
  8
Hidden (ANSI)
100
AcDbVertex
100
AcDb2dVertex
 10
77.30293124126688
 20
28.71493570694066
 30
0.0
  0
VERTEX
  5
2D7
330
2C8
100
AcDbEntity
  8
Hidden (ANSI)
100
AcDbVertex
100
AcDb2dVertex
 10
77.30055231194848
 20
28.71353780202271
 30
0.0
  0
VERTEX
  5
2D8
330
2C8
100
AcDbEntity
  8
Hidden (ANSI)
100
AcDbVertex
100
AcDb2dVertex
 10
77.29817037893143
 20
28.71224049754262
 30
0.0
  0
VERTEX
  5
2D9
330
2C8
100
AcDbEntity
  8
Hidden (ANSI)
100
AcDbVertex
100
AcDb2dVertex
 10
77.2957884459144
 20
28.71104936676933
 30
0.0
  0
VERTEX
  5
2DA
330
2C8
100
AcDbEntity
  8
Hidden (ANSI)
100
AcDbVertex
100
AcDb2dVertex
 10
77.293409516596
 20
28.70996950191068
 30
0.0
  0
VERTEX
  5
2DB
330
2C8
100
AcDbEntity
  8
Hidden (ANSI)
100
AcDbVertex
100
AcDb2dVertex
 10
77.29102758357895
 20
28.70900552584661
 30
0.0
  0
VERTEX
  5
2DC
330
2C8
100
AcDbEntity
  8
Hidden (ANSI)
100
AcDbVertex
100
AcDb2dVertex
 10
77.28864865426055
 20
28.70816155692955
 30
0.0
  0
VERTEX
  5
2DD
330
2C8
100
AcDbEntity
  8
Hidden (ANSI)
100
AcDbVertex
100
AcDb2dVertex
 10
77.28626672124351
 20
28.7074412324508
 30
0.0
  0
VERTEX
  5
2DE
330
2C8
100
AcDbEntity
  8
Hidden (ANSI)
100
AcDbVertex
100
AcDb2dVertex
 10
77.28388478822648
 20
28.70684761477499
 30
0.0
  0
VERTEX
  5
2DF
330
2C8
100
AcDbEntity
  8
Hidden (ANSI)
100
AcDbVertex
100
AcDb2dVertex
 10
77.28150585890808
 20
28.70638325000604
 30
0.0
  0
VERTEX
  5
2E0
330
2C8
100
AcDbEntity
  8
Hidden (ANSI)
100
AcDbVertex
100
AcDb2dVertex
 10
77.27912392589101
 20
28.70605014452077
 30
0.0
  0
VERTEX
  5
2E1
330
2C8
100
AcDbEntity
  8
Hidden (ANSI)
100
AcDbVertex
100
AcDb2dVertex
 10
77.27674199287398
 20
28.70584970630292
 30
0.0
  0
VERTEX
  5
2E2
330
2C8
100
AcDbEntity
  8
Hidden (ANSI)
100
AcDbVertex
100
AcDb2dVertex
 10
77.27436306355558
 20
28.70578279187591
 30
0.0
  0
SEQEND
  5
2CB
330
2C8
100
AcDbEntity
  8
Hidden (ANSI)
  0
MTEXT
  5
2E4
330
6C
100
AcDbEntity
  8
Symbol (ANSI)
100
AcDbMText
 10
50.06660501192381
 20
22.02737454615256
 30
0.0
 40
1.320000016313838
 41
0.0
 46
0.0
 71
     7
 72
     1
  1
FRONT VIEW
  7
Text Style153
 73
     1
 44
1.0
  0
LINE
  5
2E6
330
6C
100
AcDbEntity
  8
Symbol (ANSI)
370
    30
100
AcDbLine
 10
49.93460467237156
 20
21.75818653502877
 30
0.0
 11
60.54701971951401
 21
21.75818653502877
 31
0.0
  0
POLYLINE
  5
2E7
330
6C
100
AcDbEntity
  8
Visible (ANSI)
100
AcDb2dPolyline
 66
     1
 10
0.0
 20
0.0
 30
0.0
 70
   128
  0
VERTEX
  5
2E8
330
2E7
100
AcDbEntity
  8
Visible (ANSI)
100
AcDbVertex
100
AcDb2dVertex
 10
102.9498518154398
 20
88.42453399523266
 30
0.0
  0
VERTEX
  5
2E9
330
2E7
100
AcDbEntity
  8
Visible (ANSI)
100
AcDbVertex
100
AcDb2dVertex
 10
102.9501863523752
 20
88.42214905851701
 30
0.0
  0
VERTEX
  5
2EB
330
2E7
100
AcDbEntity
  8
Visible (ANSI)
100
AcDbVertex
100
AcDb2dVertex
 10
102.9511885551976
 20
88.4197701291986
 30
0.0
  0
VERTEX
  5
2EC
330
2E7
100
AcDbEntity
  8
Visible (ANSI)
100
AcDbVertex
100
AcDb2dVertex
 10
102.9528541178236
 20
88.41739119988018
 30
0.0
  0
VERTEX
  5
2ED
330
2E7
100
AcDbEntity
  8
Visible (ANSI)
100
AcDbVertex
100
AcDb2dVertex
 10
102.9551759064688
 20
88.41501227056179
 30
0.0
  0
VERTEX
  5
2EE
330
2E7
100
AcDbEntity
  8
Visible (ANSI)
100
AcDbVertex
100
AcDb2dVertex
 10
102.9581439831146
 20
88.41262733384612
 30
0.0
  0
VERTEX
  5
2EF
330
2E7
100
AcDbEntity
  8
Visible (ANSI)
100
AcDbVertex
100
AcDb2dVertex
 10
102.961745640708
 20
88.41024840452771
 30
0.0
  0
VERTEX
  5
2F0
330
2E7
100
AcDbEntity
  8
Visible (ANSI)
100
AcDbVertex
100
AcDb2dVertex
 10
102.9659654500937
 20
88.4078694752093
 30
0.0
  0
VERTEX
  5
2F1
330
2E7
100
AcDbEntity
  8
Visible (ANSI)
100
AcDbVertex
100
AcDb2dVertex
 10
102.9707853421472
 20
88.40548453849363
 30
0.0
  0
VERTEX
  5
2F2
330
2E7
100
AcDbEntity
  8
Visible (ANSI)
100
AcDbVertex
100
AcDb2dVertex
 10
102.9761846899069
 20
88.4031056091752
 30
0.0
  0
VERTEX
  5
2F3
330
2E7
100
AcDbEntity
  8
Visible (ANSI)
100
AcDbVertex
100
AcDb2dVertex
 10
102.9821403555065
 20
88.40072667985682
 30
0.0
  0
VERTEX
  5
2F4
330
2E7
100
AcDbEntity
  8
Visible (ANSI)
100
AcDbVertex
100
AcDb2dVertex
 10
102.9886268427074
 20
88.39834174314113
 30
0.0
  0
VERTEX
  5
2F5
330
2E7
100
AcDbEntity
  8
Visible (ANSI)
100
AcDbVertex
100
AcDb2dVertex
 10
102.9956163790303
 20
88.39596281382272
 30
0.0
  0
VERTEX
  5
2F6
330
2E7
100
AcDbEntity
  8
Visible (ANSI)
100
AcDbVertex
100
AcDb2dVertex
 10
103.0030790272212
 20
88.39358388450431
 30
0.0
  0
VERTEX
  5
2F7
330
2E7
100
AcDbEntity
  8
Visible (ANSI)
100
AcDbVertex
100
AcDb2dVertex
 10
103.0109828377824
 20
88.3912049551859
 30
0.0
  0
VERTEX
  5
2F8
330
2E7
100
AcDbEntity
  8
Visible (ANSI)
100
AcDbVertex
100
AcDb2dVertex
 10
103.0192939663048
 20
88.38882001847023
 30
0.0
  0
VERTEX
  5
2F9
330
2E7
100
AcDbEntity
  8
Visible (ANSI)
100
AcDbVertex
100
AcDb2dVertex
 10
103.0279768142665
 20
88.38644108915183
 30
0.0
  0
VERTEX
  5
2FA
330
2E7
100
AcDbEntity
  8
Visible (ANSI)
100
AcDbVertex
100
AcDb2dVertex
 10
103.0369942050302
 20
88.38406215983344
 30
0.0
  0
VERTEX
  5
2FB
330
2E7
100
AcDbEntity
  8
Visible (ANSI)
100
AcDbVertex
100
AcDb2dVertex
 10
103.0463075275752
 20
88.38167722311776
 30
0.0
  0
VERTEX
  5
2FC
330
2E7
100
AcDbEntity
  8
Visible (ANSI)
100
AcDbVertex
100
AcDb2dVertex
 10
103.055876897829
 20
88.37929829379936
 30
0.0
  0
VERTEX
  5
2FD
330
2E7
100
AcDbEntity
  8
Visible (ANSI)
100
AcDbVertex
100
AcDb2dVertex
 10
103.0656613375984
 20
88.37691936448095
 30
0.0
  0
VERTEX
  5
2FE
330
2E7
100
AcDbEntity
  8
Visible (ANSI)
100
AcDbVertex
100
AcDb2dVertex
 10
103.0756189507505
 20
88.37453442776528
 30
0.0
  0
VERTEX
  5
2FF
330
2E7
100
AcDbEntity
  8
Visible (ANSI)
100
AcDbVertex
100
AcDb2dVertex
 10
103.0857070960947
 20
88.37215549844687
 30
0.0
  0
VERTEX
  5
300
330
2E7
100
AcDbEntity
  8
Visible (ANSI)
100
AcDbVertex
100
AcDb2dVertex
 10
103.0958825747467
 20
88.36977656912848
 30
0.0
  0
VERTEX
  5
301
330
2E7
100
AcDbEntity
  8
Visible (ANSI)
100
AcDbVertex
100
AcDb2dVertex
 10
103.1061018130932
 20
88.36739163241279
 30
0.0
  0
SEQEND
  5
2EA
330
2E7
100
AcDbEntity
  8
Visible (ANSI)
  0
POLYLINE
  5
302
330
6C
100
AcDbEntity
  8
Visible (ANSI)
100
AcDb2dPolyline
 66
     1
 10
0.0
 20
0.0
 30
0.0
 70
   128
  0
VERTEX
  5
303
330
302
100
AcDbEntity
  8
Visible (ANSI)
100
AcDbVertex
100
AcDb2dVertex
 10
103.1061018130932
 20
28.79417112973963
 30
0.0
  0
VERTEX
  5
304
330
302
100
AcDbEntity
  8
Visible (ANSI)
100
AcDbVertex
100
AcDb2dVertex
 10
103.0958825747467
 20
28.79179037004237
 30
0.0
  0
VERTEX
  5
306
330
302
100
AcDbEntity
  8
Visible (ANSI)
100
AcDbVertex
100
AcDb2dVertex
 10
103.0857070960947
 20
28.78940961034511
 30
0.0
  0
VERTEX
  5
307
330
302
100
AcDbEntity
  8
Visible (ANSI)
100
AcDbVertex
100
AcDb2dVertex
 10
103.0756189507505
 20
28.78702885064785
 30
0.0
  0
VERTEX
  5
308
330
302
100
AcDbEntity
  8
Visible (ANSI)
100
AcDbVertex
100
AcDb2dVertex
 10
103.0656613375984
 20
28.78464809095058
 30
0.0
  0
VERTEX
  5
309
330
302
100
AcDbEntity
  8
Visible (ANSI)
100
AcDbVertex
100
AcDb2dVertex
 10
103.055876897829
 20
28.78226730778692
 30
0.0
  0
VERTEX
  5
30A
330
302
100
AcDbEntity
  8
Visible (ANSI)
100
AcDbVertex
100
AcDb2dVertex
 10
103.0463075275752
 20
28.77988654808966
 30
0.0
  0
VERTEX
  5
30B
330
302
100
AcDbEntity
  8
Visible (ANSI)
100
AcDbVertex
100
AcDb2dVertex
 10
103.0369942050302
 20
28.77750578839241
 30
0.0
  0
VERTEX
  5
30C
330
302
100
AcDbEntity
  8
Visible (ANSI)
100
AcDbVertex
100
AcDb2dVertex
 10
103.0279768142665
 20
28.77512502869514
 30
0.0
  0
VERTEX
  5
30D
330
302
100
AcDbEntity
  8
Visible (ANSI)
100
AcDbVertex
100
AcDb2dVertex
 10
103.0192939663048
 20
28.77274425726469
 30
0.0
  0
VERTEX
  5
30E
330
302
100
AcDbEntity
  8
Visible (ANSI)
100
AcDbVertex
100
AcDb2dVertex
 10
103.0109828377824
 20
28.77036349756743
 30
0.0
  0
VERTEX
  5
30F
330
302
100
AcDbEntity
  8
Visible (ANSI)
100
AcDbVertex
100
AcDb2dVertex
 10
103.0030790272212
 20
28.76798273787016
 30
0.0
  0
VERTEX
  5
310
330
302
100
AcDbEntity
  8
Visible (ANSI)
100
AcDbVertex
100
AcDb2dVertex
 10
102.9956163790303
 20
28.76560196643971
 30
0.0
  0
VERTEX
  5
311
330
302
100
AcDbEntity
  8
Visible (ANSI)
100
AcDbVertex
100
AcDb2dVertex
 10
102.9886268427074
 20
28.76322120674244
 30
0.0
  0
VERTEX
  5
312
330
302
100
AcDbEntity
  8
Visible (ANSI)
100
AcDbVertex
100
AcDb2dVertex
 10
102.9821403555065
 20
28.76084043531199
 30
0.0
  0
VERTEX
  5
313
330
302
100
AcDbEntity
  8
Visible (ANSI)
100
AcDbVertex
100
AcDb2dVertex
 10
102.9761846899069
 20
28.75845967561473
 30
0.0
  0
VERTEX
  5
314
330
302
100
AcDbEntity
  8
Visible (ANSI)
100
AcDbVertex
100
AcDb2dVertex
 10
102.9707853421472
 20
28.75607890418427
 30
0.0
  0
VERTEX
  5
315
330
302
100
AcDbEntity
  8
Visible (ANSI)
100
AcDbVertex
100
AcDb2dVertex
 10
102.9659654500937
 20
28.75369814448701
 30
0.0
  0
VERTEX
  5
316
330
302
100
AcDbEntity
  8
Visible (ANSI)
100
AcDbVertex
100
AcDb2dVertex
 10
102.961745640708
 20
28.75131738478975
 30
0.0
  0
VERTEX
  5
317
330
302
100
AcDbEntity
  8
Visible (ANSI)
100
AcDbVertex
100
AcDb2dVertex
 10
102.9581439831146
 20
28.74893661335928
 30
0.0
  0
VERTEX
  5
318
330
302
100
AcDbEntity
  8
Visible (ANSI)
100
AcDbVertex
100
AcDb2dVertex
 10
102.9551759064688
 20
28.74655585366202
 30
0.0
  0
VERTEX
  5
319
330
302
100
AcDbEntity
  8
Visible (ANSI)
100
AcDbVertex
100
AcDb2dVertex
 10
102.9528541178236
 20
28.74417508223157
 30
0.0
  0
VERTEX
  5
31A
330
302
100
AcDbEntity
  8
Visible (ANSI)
100
AcDbVertex
100
AcDb2dVertex
 10
102.9511885551976
 20
28.74179432253431
 30
0.0
  0
VERTEX
  5
31B
330
302
100
AcDbEntity
  8
Visible (ANSI)
100
AcDbVertex
100
AcDb2dVertex
 10
102.9501863523752
 20
28.73941356283705
 30
0.0
  0
VERTEX
  5
31C
330
302
100
AcDbEntity
  8
Visible (ANSI)
100
AcDbVertex
100
AcDb2dVertex
 10
102.9498518154398
 20
28.73703279140658
 30
0.0
  0
SEQEND
  5
305
330
302
100
AcDbEntity
  8
Visible (ANSI)
  0
LINE
  5
31D
330
6C
100
AcDbEntity
  8
Visible (ANSI)
100
AcDbLine
 10
103.8248518135625
 20
28.79417114140154
 30
0.0
 11
103.1061018135625
 21
28.79417114140154
 31
0.0
  0
LINE
  5
31E
330
6C
100
AcDbEntity
  8
Visible (ANSI)
100
AcDbLine
 10
103.0697264116891
 20
28.73703279375322
 30
0.0
 11
102.9498518135625
 21
28.73703279375323
 31
0.0
  0
LINE
  5
31F
330
6C
100
AcDbEntity
  8
Visible (ANSI)
100
AcDbLine
 10
103.0748518135625
 20
28.73703279375323
 30
0.0
 11
103.0697264116891
 21
28.73703279375322
 31
0.0
  0
POLYLINE
  5
320
330
6C
100
AcDbEntity
  8
Visible (ANSI)
100
AcDb2dPolyline
 66
     1
 10
0.0
 20
0.0
 30
0.0
 70
   128
  0
VERTEX
  5
321
330
320
100
AcDbEntity
  8
Visible (ANSI)
100
AcDbVertex
100
AcDb2dVertex
 10
103.0748518135625
 20
28.73703279140658
 30
0.0
  0
VERTEX
  5
322
330
320
100
AcDbEntity
  8
Visible (ANSI)
100
AcDbVertex
100
AcDb2dVertex
 10
103.0749187222088
 20
28.73941356283705
 30
0.0
  0
VERTEX
  5
324
330
320
100
AcDbEntity
  8
Visible (ANSI)
100
AcDbVertex
100
AcDb2dVertex
 10
103.075119161647
 20
28.74179432253431
 30
0.0
  0
VERTEX
  5
325
330
320
100
AcDbEntity
  8
Visible (ANSI)
100
AcDbVertex
100
AcDb2dVertex
 10
103.0754522735717
 20
28.74417508223157
 30
0.0
  0
VERTEX
  5
326
330
320
100
AcDbEntity
  8
Visible (ANSI)
100
AcDbVertex
100
AcDb2dVertex
 10
103.0759166315116
 20
28.74655585366202
 30
0.0
  0
VERTEX
  5
327
330
320
100
AcDbEntity
  8
Visible (ANSI)
100
AcDbVertex
100
AcDb2dVertex
 10
103.0765102469874
 20
28.74893661335928
 30
0.0
  0
VERTEX
  5
328
330
320
100
AcDbEntity
  8
Visible (ANSI)
100
AcDbVertex
100
AcDb2dVertex
 10
103.0772305782494
 20
28.75131738478975
 30
0.0
  0
VERTEX
  5
329
330
320
100
AcDbEntity
  8
Visible (ANSI)
100
AcDbVertex
100
AcDb2dVertex
 10
103.0780745405666
 20
28.75369814448701
 30
0.0
  0
VERTEX
  5
32A
330
320
100
AcDbEntity
  8
Visible (ANSI)
100
AcDbVertex
100
AcDb2dVertex
 10
103.079038519564
 20
28.75607890418427
 30
0.0
  0
VERTEX
  5
32B
330
320
100
AcDbEntity
  8
Visible (ANSI)
100
AcDbVertex
100
AcDb2dVertex
 10
103.0801183880892
 20
28.75845967561473
 30
0.0
  0
VERTEX
  5
32C
330
320
100
AcDbEntity
  8
Visible (ANSI)
100
AcDbVertex
100
AcDb2dVertex
 10
103.0813095214291
 20
28.76084043531199
 30
0.0
  0
VERTEX
  5
32D
330
320
100
AcDbEntity
  8
Visible (ANSI)
100
AcDbVertex
100
AcDb2dVertex
 10
103.0826068193093
 20
28.76322120674244
 30
0.0
  0
VERTEX
  5
32E
330
320
100
AcDbEntity
  8
Visible (ANSI)
100
AcDbVertex
100
AcDb2dVertex
 10
103.0840047264272
 20
28.76560196643971
 30
0.0
  0
VERTEX
  5
32F
330
320
100
AcDbEntity
  8
Visible (ANSI)
100
AcDbVertex
100
AcDb2dVertex
 10
103.0854972566521
 20
28.76798273787016
 30
0.0
  0
VERTEX
  5
330
330
320
100
AcDbEntity
  8
Visible (ANSI)
100
AcDbVertex
100
AcDb2dVertex
 10
103.0870780190576
 20
28.77036349756743
 30
0.0
  0
VERTEX
  5
331
330
320
100
AcDbEntity
  8
Visible (ANSI)
100
AcDbVertex
100
AcDb2dVertex
 10
103.0887402443221
 20
28.77274425726469
 30
0.0
  0
VERTEX
  5
332
330
320
100
AcDbEntity
  8
Visible (ANSI)
100
AcDbVertex
100
AcDb2dVertex
 10
103.0904768133278
 20
28.77512502869514
 30
0.0
  0
VERTEX
  5
333
330
320
100
AcDbEntity
  8
Visible (ANSI)
100
AcDbVertex
100
AcDb2dVertex
 10
103.0922802923605
 20
28.77750578839241
 30
0.0
  0
VERTEX
  5
334
330
320
100
AcDbEntity
  8
Visible (ANSI)
100
AcDbVertex
100
AcDb2dVertex
 10
103.0941429565762
 20
28.77988654808966
 30
0.0
  0
VERTEX
  5
335
330
320
100
AcDbEntity
  8
Visible (ANSI)
100
AcDbVertex
100
AcDb2dVertex
 10
103.0960568303336
 20
28.78226730778692
 30
0.0
  0
VERTEX
  5
336
330
320
100
AcDbEntity
  8
Visible (ANSI)
100
AcDbVertex
100
AcDb2dVertex
 10
103.0980137179942
 20
28.78464809095058
 30
0.0
  0
VERTEX
  5
337
330
320
100
AcDbEntity
  8
Visible (ANSI)
100
AcDbVertex
100
AcDb2dVertex
 10
103.1000052405879
 20
28.78702885064785
 30
0.0
  0
VERTEX
  5
338
330
320
100
AcDbEntity
  8
Visible (ANSI)
100
AcDbVertex
100
AcDb2dVertex
 10
103.1020228695468
 20
28.78940961034511
 30
0.0
  0
VERTEX
  5
339
330
320
100
AcDbEntity
  8
Visible (ANSI)
100
AcDbVertex
100
AcDb2dVertex
 10
103.1040579663039
 20
28.79179037004237
 30
0.0
  0
VERTEX
  5
33A
330
320
100
AcDbEntity
  8
Visible (ANSI)
100
AcDbVertex
100
AcDb2dVertex
 10
103.1061018130932
 20
28.79417112973963
 30
0.0
  0
SEQEND
  5
323
330
320
100
AcDbEntity
  8
Visible (ANSI)
  0
POLYLINE
  5
33B
330
6C
100
AcDbEntity
  8
Visible (ANSI)
100
AcDb2dPolyline
 66
     1
 10
0.0
 20
0.0
 30
0.0
 70
   128
  0
VERTEX
  5
33C
330
33B
100
AcDbEntity
  8
Visible (ANSI)
100
AcDbVertex
100
AcDb2dVertex
 10
103.0748518135625
 20
88.42453399523266
 30
0.0
  0
VERTEX
  5
33D
330
33B
100
AcDbEntity
  8
Visible (ANSI)
100
AcDbVertex
100
AcDb2dVertex
 10
103.0749187222088
 20
88.42214905851701
 30
0.0
  0
VERTEX
  5
33F
330
33B
100
AcDbEntity
  8
Visible (ANSI)
100
AcDbVertex
100
AcDb2dVertex
 10
103.075119161647
 20
88.4197701291986
 30
0.0
  0
VERTEX
  5
340
330
33B
100
AcDbEntity
  8
Visible (ANSI)
100
AcDbVertex
100
AcDb2dVertex
 10
103.0754522735717
 20
88.41739119988018
 30
0.0
  0
VERTEX
  5
341
330
33B
100
AcDbEntity
  8
Visible (ANSI)
100
AcDbVertex
100
AcDb2dVertex
 10
103.0759166315116
 20
88.41501227056179
 30
0.0
  0
VERTEX
  5
342
330
33B
100
AcDbEntity
  8
Visible (ANSI)
100
AcDbVertex
100
AcDb2dVertex
 10
103.0765102469874
 20
88.41262733384612
 30
0.0
  0
VERTEX
  5
343
330
33B
100
AcDbEntity
  8
Visible (ANSI)
100
AcDbVertex
100
AcDb2dVertex
 10
103.0772305782494
 20
88.41024840452771
 30
0.0
  0
VERTEX
  5
344
330
33B
100
AcDbEntity
  8
Visible (ANSI)
100
AcDbVertex
100
AcDb2dVertex
 10
103.0780745405666
 20
88.4078694752093
 30
0.0
  0
VERTEX
  5
345
330
33B
100
AcDbEntity
  8
Visible (ANSI)
100
AcDbVertex
100
AcDb2dVertex
 10
103.079038519564
 20
88.40548453849363
 30
0.0
  0
VERTEX
  5
346
330
33B
100
AcDbEntity
  8
Visible (ANSI)
100
AcDbVertex
100
AcDb2dVertex
 10
103.0801183880892
 20
88.4031056091752
 30
0.0
  0
VERTEX
  5
347
330
33B
100
AcDbEntity
  8
Visible (ANSI)
100
AcDbVertex
100
AcDb2dVertex
 10
103.0813095214291
 20
88.40072667985682
 30
0.0
  0
VERTEX
  5
348
330
33B
100
AcDbEntity
  8
Visible (ANSI)
100
AcDbVertex
100
AcDb2dVertex
 10
103.0826068193093
 20
88.39834174314113
 30
0.0
  0
VERTEX
  5
349
330
33B
100
AcDbEntity
  8
Visible (ANSI)
100
AcDbVertex
100
AcDb2dVertex
 10
103.0840047264272
 20
88.39596281382272
 30
0.0
  0
VERTEX
  5
34A
330
33B
100
AcDbEntity
  8
Visible (ANSI)
100
AcDbVertex
100
AcDb2dVertex
 10
103.0854972566521
 20
88.39358388450431
 30
0.0
  0
VERTEX
  5
34B
330
33B
100
AcDbEntity
  8
Visible (ANSI)
100
AcDbVertex
100
AcDb2dVertex
 10
103.0870780190576
 20
88.3912049551859
 30
0.0
  0
VERTEX
  5
34C
330
33B
100
AcDbEntity
  8
Visible (ANSI)
100
AcDbVertex
100
AcDb2dVertex
 10
103.0887402443221
 20
88.38882001847023
 30
0.0
  0
VERTEX
  5
34D
330
33B
100
AcDbEntity
  8
Visible (ANSI)
100
AcDbVertex
100
AcDb2dVertex
 10
103.0904768133278
 20
88.38644108915183
 30
0.0
  0
VERTEX
  5
34E
330
33B
100
AcDbEntity
  8
Visible (ANSI)
100
AcDbVertex
100
AcDb2dVertex
 10
103.0922802923605
 20
88.38406215983344
 30
0.0
  0
VERTEX
  5
34F
330
33B
100
AcDbEntity
  8
Visible (ANSI)
100
AcDbVertex
100
AcDb2dVertex
 10
103.0941429565762
 20
88.38167722311776
 30
0.0
  0
VERTEX
  5
350
330
33B
100
AcDbEntity
  8
Visible (ANSI)
100
AcDbVertex
100
AcDb2dVertex
 10
103.0960568303336
 20
88.37929829379936
 30
0.0
  0
VERTEX
  5
351
330
33B
100
AcDbEntity
  8
Visible (ANSI)
100
AcDbVertex
100
AcDb2dVertex
 10
103.0980137179942
 20
88.37691936448095
 30
0.0
  0
VERTEX
  5
352
330
33B
100
AcDbEntity
  8
Visible (ANSI)
100
AcDbVertex
100
AcDb2dVertex
 10
103.1000052405879
 20
88.37453442776528
 30
0.0
  0
VERTEX
  5
353
330
33B
100
AcDbEntity
  8
Visible (ANSI)
100
AcDbVertex
100
AcDb2dVertex
 10
103.1020228695468
 20
88.37215549844687
 30
0.0
  0
VERTEX
  5
354
330
33B
100
AcDbEntity
  8
Visible (ANSI)
100
AcDbVertex
100
AcDb2dVertex
 10
103.1040579663039
 20
88.36977656912848
 30
0.0
  0
VERTEX
  5
355
330
33B
100
AcDbEntity
  8
Visible (ANSI)
100
AcDbVertex
100
AcDb2dVertex
 10
103.1061018130932
 20
88.36739163241279
 30
0.0
  0
SEQEND
  5
33E
330
33B
100
AcDbEntity
  8
Visible (ANSI)
  0
LINE
  5
356
330
6C
100
AcDbEntity
  8
Visible (ANSI)
100
AcDbLine
 10
103.0748518135625
 20
88.42453279375323
 30
0.0
 11
103.0697264116891
 21
88.42453279375323
 31
0.0
  0
LINE
  5
357
330
6C
100
AcDbEntity
  8
Visible (ANSI)
100
AcDbLine
 10
103.0697264116891
 20
88.42453279375323
 30
0.0
 11
102.9498518135625
 21
88.42453279375323
 31
0.0
  0
LINE
  5
358
330
6C
100
AcDbEntity
  8
Visible (ANSI)
100
AcDbLine
 10
103.1061018135625
 20
88.3673944461049
 30
0.0
 11
103.8248518135625
 21
88.3673944461049
 31
0.0
  0
POLYLINE
  5
359
330
6C
100
AcDbEntity
  8
Visible (ANSI)
100
AcDb2dPolyline
 66
     1
 10
0.0
 20
0.0
 30
0.0
 70
   128
  0
VERTEX
  5
35A
330
359
100
AcDbEntity
  8
Visible (ANSI)
100
AcDbVertex
100
AcDb2dVertex
 10
103.1061018130931
 20
88.58078039079432
 30
0.0
  0
VERTEX
  5
35B
330
359
100
AcDbEntity
  8
Visible (ANSI)
100
AcDbVertex
100
AcDb2dVertex
 10
103.0958825747466
 20
88.58044998394452
 30
0.0
  0
VERTEX
  5
35D
330
359
100
AcDbEntity
  8
Visible (ANSI)
100
AcDbVertex
100
AcDb2dVertex
 10
103.0857070960946
 20
88.57944674860066
 30
0.0
  0
VERTEX
  5
35E
330
359
100
AcDbEntity
  8
Visible (ANSI)
100
AcDbVertex
100
AcDb2dVertex
 10
103.0756189507504
 20
88.57778269955721
 30
0.0
  0
VERTEX
  5
35F
330
359
100
AcDbEntity
  8
Visible (ANSI)
100
AcDbVertex
100
AcDb2dVertex
 10
103.0656613375983
 20
88.57545783681425
 30
0.0
  0
VERTEX
  5
360
330
359
100
AcDbEntity
  8
Visible (ANSI)
100
AcDbVertex
100
AcDb2dVertex
 10
103.055876897829
 20
88.5724901825635
 30
0.0
  0
VERTEX
  5
361
330
359
100
AcDbEntity
  8
Visible (ANSI)
100
AcDbVertex
100
AcDb2dVertex
 10
103.0463075275751
 20
88.56889175159954
 30
0.0
  0
VERTEX
  5
362
330
359
100
AcDbEntity
  8
Visible (ANSI)
100
AcDbVertex
100
AcDb2dVertex
 10
103.0369942050301
 20
88.56466855131964
 30
0.0
  0
VERTEX
  5
363
330
359
100
AcDbEntity
  8
Visible (ANSI)
100
AcDbVertex
100
AcDb2dVertex
 10
103.0279768142664
 20
88.55985061871015
 30
0.0
  0
VERTEX
  5
364
330
359
100
AcDbEntity
  8
Visible (ANSI)
100
AcDbVertex
100
AcDb2dVertex
 10
103.0192939663048
 20
88.5544499685656
 30
0.0
  0
VERTEX
  5
365
330
359
100
AcDbEntity
  8
Visible (ANSI)
100
AcDbVertex
100
AcDb2dVertex
 10
103.0109828377823
 20
88.54849663787232
 30
0.0
  0
VERTEX
  5
366
330
359
100
AcDbEntity
  8
Visible (ANSI)
100
AcDbVertex
100
AcDb2dVertex
 10
103.0030790272211
 20
88.54200864882212
 30
0.0
  0
VERTEX
  5
367
330
359
100
AcDbEntity
  8
Visible (ANSI)
100
AcDbVertex
100
AcDb2dVertex
 10
102.9956163790303
 20
88.53501603840134
 30
0.0
  0
VERTEX
  5
368
330
359
100
AcDbEntity
  8
Visible (ANSI)
100
AcDbVertex
100
AcDb2dVertex
 10
102.9886268427073
 20
88.52755485099363
 30
0.0
  0
VERTEX
  5
369
330
359
100
AcDbEntity
  8
Visible (ANSI)
100
AcDbVertex
100
AcDb2dVertex
 10
102.9821403555065
 20
88.51964911618802
 30
0.0
  0
VERTEX
  5
36A
330
359
100
AcDbEntity
  8
Visible (ANSI)
100
AcDbVertex
100
AcDb2dVertex
 10
102.9761846899068
 20
88.51134088576539
 30
0.0
  0
VERTEX
  5
36B
330
359
100
AcDbEntity
  8
Visible (ANSI)
100
AcDbVertex
100
AcDb2dVertex
 10
102.9707853421472
 20
88.50266019671213
 30
0.0
  0
VERTEX
  5
36C
330
359
100
AcDbEntity
  8
Visible (ANSI)
100
AcDbVertex
100
AcDb2dVertex
 10
102.9659654500937
 20
88.49364309341181
 30
0.0
  0
VERTEX
  5
36D
330
359
100
AcDbEntity
  8
Visible (ANSI)
100
AcDbVertex
100
AcDb2dVertex
 10
102.961745640708
 20
88.48432562024806
 30
0.0
  0
VERTEX
  5
36E
330
359
100
AcDbEntity
  8
Visible (ANSI)
100
AcDbVertex
100
AcDb2dVertex
 10
102.9581439831146
 20
88.47475583639901
 30
0.0
  0
VERTEX
  5
36F
330
359
100
AcDbEntity
  8
Visible (ANSI)
100
AcDbVertex
100
AcDb2dVertex
 10
102.9551759064688
 20
88.46497579364557
 30
0.0
  0
VERTEX
  5
370
330
359
100
AcDbEntity
  8
Visible (ANSI)
100
AcDbVertex
100
AcDb2dVertex
 10
102.9528541178236
 20
88.45501552897406
 30
0.0
  0
VERTEX
  5
371
330
359
100
AcDbEntity
  8
Visible (ANSI)
100
AcDbVertex
100
AcDb2dVertex
 10
102.9511885551976
 20
88.4449291089599
 30
0.0
  0
VERTEX
  5
372
330
359
100
AcDbEntity
  8
Visible (ANSI)
100
AcDbVertex
100
AcDb2dVertex
 10
102.9501863523752
 20
88.43475257798672
 30
0.0
  0
VERTEX
  5
373
330
359
100
AcDbEntity
  8
Visible (ANSI)
100
AcDbVertex
100
AcDb2dVertex
 10
102.9498518154398
 20
88.42453399523266
 30
0.0
  0
SEQEND
  5
35C
330
359
100
AcDbEntity
  8
Visible (ANSI)
  0
LINE
  5
374
330
6C
100
AcDbEntity
  8
Visible (ANSI)
100
AcDbLine
 10
103.1061018135625
 20
88.45578279375322
 30
0.0
 11
103.8248518135625
 21
88.4557827937532
 31
0.0
  0
LINE
  5
375
330
6C
100
AcDbEntity
  8
Visible (ANSI)
100
AcDbLine
 10
103.8248518135625
 20
88.58078279375318
 30
0.0
 11
103.1061018135625
 21
88.58078279375321
 31
0.0
  0
LINE
  5
376
330
6C
100
AcDbEntity
  8
Visible (ANSI)
100
AcDbLine
 10
103.1061018135625
 20
88.45578279375322
 30
0.0
 11
103.1061018135625
 21
88.58078279375321
 31
0.0
  0
LINE
  5
377
330
6C
100
AcDbEntity
  8
Visible (ANSI)
100
AcDbLine
 10
103.8248518135625
 20
88.4557827937532
 30
0.0
 11
103.8248518135625
 21
88.58078279375318
 31
0.0
  0
POLYLINE
  5
378
330
6C
100
AcDbEntity
  8
Visible (ANSI)
100
AcDb2dPolyline
 66
     1
 10
0.0
 20
0.0
 30
0.0
 70
   128
  0
VERTEX
  5
379
330
378
100
AcDbEntity
  8
Visible (ANSI)
100
AcDbVertex
100
AcDb2dVertex
 10
103.0748518135625
 20
88.42453399523266
 30
0.0
  0
VERTEX
  5
37A
330
378
100
AcDbEntity
  8
Visible (ANSI)
100
AcDbVertex
100
AcDb2dVertex
 10
103.0749187222088
 20
88.42657651030403
 30
0.0
  0
VERTEX
  5
37C
330
378
100
AcDbEntity
  8
Visible (ANSI)
100
AcDbVertex
100
AcDb2dVertex
 10
103.075119161647
 20
88.42861301797812
 30
0.0
  0
VERTEX
  5
37D
330
378
100
AcDbEntity
  8
Visible (ANSI)
100
AcDbVertex
100
AcDb2dVertex
 10
103.0754522735717
 20
88.4306315034604
 30
0.0
  0
VERTEX
  5
37E
330
378
100
AcDbEntity
  8
Visible (ANSI)
100
AcDbVertex
100
AcDb2dVertex
 10
103.0759166315116
 20
88.43261995195636
 30
0.0
  0
VERTEX
  5
37F
330
378
100
AcDbEntity
  8
Visible (ANSI)
100
AcDbVertex
100
AcDb2dVertex
 10
103.0765102469874
 20
88.43457836346594
 30
0.0
  0
VERTEX
  5
380
330
378
100
AcDbEntity
  8
Visible (ANSI)
100
AcDbVertex
100
AcDb2dVertex
 10
103.0772305782494
 20
88.43648871579739
 30
0.0
  0
VERTEX
  5
381
330
378
100
AcDbEntity
  8
Visible (ANSI)
100
AcDbVertex
100
AcDb2dVertex
 10
103.0780745405666
 20
88.43835701634795
 30
0.0
  0
VERTEX
  5
382
330
378
100
AcDbEntity
  8
Visible (ANSI)
100
AcDbVertex
100
AcDb2dVertex
 10
103.079038519564
 20
88.44015923552857
 30
0.0
  0
VERTEX
  5
383
330
378
100
AcDbEntity
  8
Visible (ANSI)
100
AcDbVertex
100
AcDb2dVertex
 10
103.0801183880892
 20
88.44189537333923
 30
0.0
  0
VERTEX
  5
384
330
378
100
AcDbEntity
  8
Visible (ANSI)
100
AcDbVertex
100
AcDb2dVertex
 10
103.0813095214291
 20
88.44355942238264
 30
0.0
  0
VERTEX
  5
385
330
378
100
AcDbEntity
  8
Visible (ANSI)
100
AcDbVertex
100
AcDb2dVertex
 10
103.0826068193093
 20
88.44513936786432
 30
0.0
  0
VERTEX
  5
386
330
378
100
AcDbEntity
  8
Visible (ANSI)
100
AcDbVertex
100
AcDb2dVertex
 10
103.0840047264272
 20
88.44662920238695
 30
0.0
  0
VERTEX
  5
387
330
378
100
AcDbEntity
  8
Visible (ANSI)
100
AcDbVertex
100
AcDb2dVertex
 10
103.0854972566521
 20
88.44802892595055
 30
0.0
  0
VERTEX
  5
388
330
378
100
AcDbEntity
  8
Visible (ANSI)
100
AcDbVertex
100
AcDb2dVertex
 10
103.0870780190576
 20
88.4493265237606
 30
0.0
  0
VERTEX
  5
389
330
378
100
AcDbEntity
  8
Visible (ANSI)
100
AcDbVertex
100
AcDb2dVertex
 10
103.0887402443221
 20
88.45051598841981
 30
0.0
  0
VERTEX
  5
38A
330
378
100
AcDbEntity
  8
Visible (ANSI)
100
AcDbVertex
100
AcDb2dVertex
 10
103.0904768133278
 20
88.45159731992817
 30
0.0
  0
VERTEX
  5
38B
330
378
100
AcDbEntity
  8
Visible (ANSI)
100
AcDbVertex
100
AcDb2dVertex
 10
103.0922802923605
 20
88.45255850349117
 30
0.0
  0
VERTEX
  5
38C
330
378
100
AcDbEntity
  8
Visible (ANSI)
100
AcDbVertex
100
AcDb2dVertex
 10
103.0941429565762
 20
88.45340554650604
 30
0.0
  0
VERTEX
  5
38D
330
378
100
AcDbEntity
  8
Visible (ANSI)
100
AcDbVertex
100
AcDb2dVertex
 10
103.0960568303336
 20
88.4541264341783
 30
0.0
  0
VERTEX
  5
38E
330
378
100
AcDbEntity
  8
Visible (ANSI)
100
AcDbVertex
100
AcDb2dVertex
 10
103.0980137179942
 20
88.45471515911063
 30
0.0
  0
VERTEX
  5
38F
330
378
100
AcDbEntity
  8
Visible (ANSI)
100
AcDbVertex
100
AcDb2dVertex
 10
103.1000052405879
 20
88.4551837360976
 30
0.0
  0
VERTEX
  5
390
330
378
100
AcDbEntity
  8
Visible (ANSI)
100
AcDbVertex
100
AcDb2dVertex
 10
103.1020228695468
 20
88.45551414294737
 30
0.0
  0
VERTEX
  5
391
330
378
100
AcDbEntity
  8
Visible (ANSI)
100
AcDbVertex
100
AcDb2dVertex
 10
103.1040579663038
 20
88.45571839445451
 30
0.0
  0
VERTEX
  5
392
330
378
100
AcDbEntity
  8
Visible (ANSI)
100
AcDbVertex
100
AcDb2dVertex
 10
103.1061018130931
 20
88.45578447582445
 30
0.0
  0
SEQEND
  5
37B
330
378
100
AcDbEntity
  8
Visible (ANSI)
  0
POLYLINE
  5
393
330
6C
100
AcDbEntity
  8
Visible (ANSI)
100
AcDb2dPolyline
 66
     1
 10
0.0
 20
0.0
 30
0.0
 70
   128
  0
VERTEX
  5
394
330
393
100
AcDbEntity
  8
Visible (ANSI)
100
AcDbVertex
100
AcDb2dVertex
 10
102.9498518154398
 20
28.73703279140658
 30
0.0
  0
VERTEX
  5
395
330
393
100
AcDbEntity
  8
Visible (ANSI)
100
AcDbVertex
100
AcDb2dVertex
 10
102.9501863523752
 20
28.72681355159345
 30
0.0
  0
VERTEX
  5
397
330
393
100
AcDbEntity
  8
Visible (ANSI)
100
AcDbVertex
100
AcDb2dVertex
 10
102.9511885551976
 20
28.71663807660807
 30
0.0
  0
VERTEX
  5
398
330
393
100
AcDbEntity
  8
Visible (ANSI)
100
AcDbVertex
100
AcDb2dVertex
 10
102.9528541178236
 20
28.70654993181385
 30
0.0
  0
VERTEX
  5
399
330
393
100
AcDbEntity
  8
Visible (ANSI)
100
AcDbVertex
100
AcDb2dVertex
 10
102.9551759064688
 20
28.69659231884504
 30
0.0
  0
VERTEX
  5
39A
330
393
100
AcDbEntity
  8
Visible (ANSI)
100
AcDbVertex
100
AcDb2dVertex
 10
102.9581439831146
 20
28.68680787614243
 30
0.0
  0
VERTEX
  5
39B
330
393
100
AcDbEntity
  8
Visible (ANSI)
100
AcDbVertex
100
AcDb2dVertex
 10
102.961745640708
 20
28.67723850882191
 30
0.0
  0
VERTEX
  5
39C
330
393
100
AcDbEntity
  8
Visible (ANSI)
100
AcDbVertex
100
AcDb2dVertex
 10
102.9659654500937
 20
28.66792518334357
 30
0.0
  0
VERTEX
  5
39D
330
393
100
AcDbEntity
  8
Visible (ANSI)
100
AcDbVertex
100
AcDb2dVertex
 10
102.9707853421472
 20
28.6589077925799
 30
0.0
  0
VERTEX
  5
39E
330
393
100
AcDbEntity
  8
Visible (ANSI)
100
AcDbVertex
100
AcDb2dVertex
 10
102.9761846899068
 20
28.65022494461824
 30
0.0
  0
VERTEX
  5
39F
330
393
100
AcDbEntity
  8
Visible (ANSI)
100
AcDbVertex
100
AcDb2dVertex
 10
102.9821403555065
 20
28.64191382196237
 30
0.0
  0
VERTEX
  5
3A0
330
393
100
AcDbEntity
  8
Visible (ANSI)
100
AcDbVertex
100
AcDb2dVertex
 10
102.9886268427073
 20
28.6340100114012
 30
0.0
  0
VERTEX
  5
3A1
330
393
100
AcDbEntity
  8
Visible (ANSI)
100
AcDbVertex
100
AcDb2dVertex
 10
102.9956163790303
 20
28.62654736027705
 30
0.0
  0
VERTEX
  5
3A2
330
393
100
AcDbEntity
  8
Visible (ANSI)
100
AcDbVertex
100
AcDb2dVertex
 10
103.0030790272211
 20
28.6195578239541
 30
0.0
  0
VERTEX
  5
3A3
330
393
100
AcDbEntity
  8
Visible (ANSI)
100
AcDbVertex
100
AcDb2dVertex
 10
103.0109828377823
 20
28.61307133381993
 30
0.0
  0
VERTEX
  5
3A4
330
393
100
AcDbEntity
  8
Visible (ANSI)
100
AcDbVertex
100
AcDb2dVertex
 10
103.0192939663048
 20
28.60711566822028
 30
0.0
  0
VERTEX
  5
3A5
330
393
100
AcDbEntity
  8
Visible (ANSI)
100
AcDbVertex
100
AcDb2dVertex
 10
103.0279768142664
 20
28.60171632486062
 30
0.0
  0
VERTEX
  5
3A6
330
393
100
AcDbEntity
  8
Visible (ANSI)
100
AcDbVertex
100
AcDb2dVertex
 10
103.0369942050301
 20
28.59689642840714
 30
0.0
  0
VERTEX
  5
3A7
330
393
100
AcDbEntity
  8
Visible (ANSI)
100
AcDbVertex
100
AcDb2dVertex
 10
103.0463075275751
 20
28.59267661682143
 30
0.0
  0
VERTEX
  5
3A8
330
393
100
AcDbEntity
  8
Visible (ANSI)
100
AcDbVertex
100
AcDb2dVertex
 10
103.055876897829
 20
28.58907496069474
 30
0.0
  0
VERTEX
  5
3A9
330
393
100
AcDbEntity
  8
Visible (ANSI)
100
AcDbVertex
100
AcDb2dVertex
 10
103.0656613375983
 20
28.58610688331555
 30
0.0
  0
VERTEX
  5
3AA
330
393
100
AcDbEntity
  8
Visible (ANSI)
100
AcDbVertex
100
AcDb2dVertex
 10
103.0756189507504
 20
28.58378509375373
 30
0.0
  0
VERTEX
  5
3AB
330
393
100
AcDbEntity
  8
Visible (ANSI)
100
AcDbVertex
100
AcDb2dVertex
 10
103.0857070960946
 20
28.58211953415275
 30
0.0
  0
VERTEX
  5
3AC
330
393
100
AcDbEntity
  8
Visible (ANSI)
100
AcDbVertex
100
AcDb2dVertex
 10
103.0958825747466
 20
28.58111733699064
 30
0.0
  0
VERTEX
  5
3AD
330
393
100
AcDbEntity
  8
Visible (ANSI)
100
AcDbVertex
100
AcDb2dVertex
 10
103.1061018130931
 20
28.58078279375323
 30
0.0
  0
SEQEND
  5
396
330
393
100
AcDbEntity
  8
Visible (ANSI)
  0
LINE
  5
3AE
330
6C
100
AcDbEntity
  8
Visible (ANSI)
100
AcDbLine
 10
103.1061018135625
 20
28.70578279375323
 30
0.0
 11
103.8248518135625
 21
28.70578279375323
 31
0.0
  0
LINE
  5
3AF
330
6C
100
AcDbEntity
  8
Visible (ANSI)
100
AcDbLine
 10
103.1061018135625
 20
28.70578279375323
 30
0.0
 11
103.1061018135625
 21
28.58078279375323
 31
0.0
  0
POLYLINE
  5
3B0
330
6C
100
AcDbEntity
  8
Visible (ANSI)
100
AcDb2dPolyline
 66
     1
 10
0.0
 20
0.0
 30
0.0
 70
   128
  0
VERTEX
  5
3B1
330
3B0
100
AcDbEntity
  8
Visible (ANSI)
100
AcDbVertex
100
AcDb2dVertex
 10
103.0748518135625
 20
28.73703279140658
 30
0.0
  0
VERTEX
  5
3B2
330
3B0
100
AcDbEntity
  8
Visible (ANSI)
100
AcDbVertex
100
AcDb2dVertex
 10
103.0749187222088
 20
28.73498895048388
 30
0.0
  0
VERTEX
  5
3B4
330
3B0
100
AcDbEntity
  8
Visible (ANSI)
100
AcDbVertex
100
AcDb2dVertex
 10
103.075119161647
 20
28.73295385079352
 30
0.0
  0
VERTEX
  5
3B5
330
3B0
100
AcDbEntity
  8
Visible (ANSI)
100
AcDbVertex
100
AcDb2dVertex
 10
103.0754522735717
 20
28.73093622183468
 30
0.0
  0
VERTEX
  5
3B6
330
3B0
100
AcDbEntity
  8
Visible (ANSI)
100
AcDbVertex
100
AcDb2dVertex
 10
103.0759166315116
 20
28.72894469924092
 30
0.0
  0
VERTEX
  5
3B7
330
3B0
100
AcDbEntity
  8
Visible (ANSI)
100
AcDbVertex
100
AcDb2dVertex
 10
103.0765102469874
 20
28.72698781304703
 30
0.0
  0
VERTEX
  5
3B8
330
3B0
100
AcDbEntity
  8
Visible (ANSI)
100
AcDbVertex
100
AcDb2dVertex
 10
103.0772305782494
 20
28.72507394075625
 30
0.0
  0
VERTEX
  5
3B9
330
3B0
100
AcDbEntity
  8
Visible (ANSI)
100
AcDbVertex
100
AcDb2dVertex
 10
103.0780745405666
 20
28.72321127214063
 30
0.0
  0
VERTEX
  5
3BA
330
3B0
100
AcDbEntity
  8
Visible (ANSI)
100
AcDbVertex
100
AcDb2dVertex
 10
103.079038519564
 20
28.72140779750785
 30
0.0
  0
VERTEX
  5
3BB
330
3B0
100
AcDbEntity
  8
Visible (ANSI)
100
AcDbVertex
100
AcDb2dVertex
 10
103.0801183880892
 20
28.71967122556887
 30
0.0
  0
VERTEX
  5
3BC
330
3B0
100
AcDbEntity
  8
Visible (ANSI)
100
AcDbVertex
100
AcDb2dVertex
 10
103.0813095214291
 20
28.7180089951711
 30
0.0
  0
VERTEX
  5
3BD
330
3B0
100
AcDbEntity
  8
Visible (ANSI)
100
AcDbVertex
100
AcDb2dVertex
 10
103.0826068193093
 20
28.71642824009878
 30
0.0
  0
VERTEX
  5
3BE
330
3B0
100
AcDbEntity
  8
Visible (ANSI)
100
AcDbVertex
100
AcDb2dVertex
 10
103.0840047264272
 20
28.71493570694066
 30
0.0
  0
VERTEX
  5
3BF
330
3B0
100
AcDbEntity
  8
Visible (ANSI)
100
AcDbVertex
100
AcDb2dVertex
 10
103.0854972566521
 20
28.71353780202271
 30
0.0
  0
VERTEX
  5
3C0
330
3B0
100
AcDbEntity
  8
Visible (ANSI)
100
AcDbVertex
100
AcDb2dVertex
 10
103.0870780190576
 20
28.71224049754262
 30
0.0
  0
VERTEX
  5
3C1
330
3B0
100
AcDbEntity
  8
Visible (ANSI)
100
AcDbVertex
100
AcDb2dVertex
 10
103.0887402443221
 20
28.71104936676933
 30
0.0
  0
VERTEX
  5
3C2
330
3B0
100
AcDbEntity
  8
Visible (ANSI)
100
AcDbVertex
100
AcDb2dVertex
 10
103.0904768133278
 20
28.70996950191068
 30
0.0
  0
VERTEX
  5
3C3
330
3B0
100
AcDbEntity
  8
Visible (ANSI)
100
AcDbVertex
100
AcDb2dVertex
 10
103.0922802923605
 20
28.70900552584661
 30
0.0
  0
VERTEX
  5
3C4
330
3B0
100
AcDbEntity
  8
Visible (ANSI)
100
AcDbVertex
100
AcDb2dVertex
 10
103.0941429565762
 20
28.70816155692955
 30
0.0
  0
VERTEX
  5
3C5
330
3B0
100
AcDbEntity
  8
Visible (ANSI)
100
AcDbVertex
100
AcDb2dVertex
 10
103.0960568303336
 20
28.7074412324508
 30
0.0
  0
VERTEX
  5
3C6
330
3B0
100
AcDbEntity
  8
Visible (ANSI)
100
AcDbVertex
100
AcDb2dVertex
 10
103.0980137179942
 20
28.70684761477499
 30
0.0
  0
VERTEX
  5
3C7
330
3B0
100
AcDbEntity
  8
Visible (ANSI)
100
AcDbVertex
100
AcDb2dVertex
 10
103.1000052405879
 20
28.70638325000604
 30
0.0
  0
VERTEX
  5
3C8
330
3B0
100
AcDbEntity
  8
Visible (ANSI)
100
AcDbVertex
100
AcDb2dVertex
 10
103.1020228695468
 20
28.70605014452077
 30
0.0
  0
VERTEX
  5
3C9
330
3B0
100
AcDbEntity
  8
Visible (ANSI)
100
AcDbVertex
100
AcDb2dVertex
 10
103.1040579663038
 20
28.70584970630292
 30
0.0
  0
VERTEX
  5
3CA
330
3B0
100
AcDbEntity
  8
Visible (ANSI)
100
AcDbVertex
100
AcDb2dVertex
 10
103.1061018130931
 20
28.70578279187591
 30
0.0
  0
SEQEND
  5
3B3
330
3B0
100
AcDbEntity
  8
Visible (ANSI)
  0
LINE
  5
3CB
330
6C
100
AcDbEntity
  8
Visible (ANSI)
100
AcDbLine
 10
103.1061018135625
 20
28.58078279375323
 30
0.0
 11
103.8248518135625
 21
28.58078279375323
 31
0.0
  0
LINE
  5
3CC
330
6C
100
AcDbEntity
  8
Visible (ANSI)
100
AcDbLine
 10
103.8248518135625
 20
28.70578279375323
 30
0.0
 11
103.8248518135625
 21
28.58078279375323
 31
0.0
  0
LINE
  5
3CD
330
6C
100
AcDbEntity
  8
Visible (ANSI)
100
AcDbLine
 10
102.9498518135625
 20
28.73703279375323
 30
0.0
 11
102.9498518135625
 21
88.42453279375323
 31
0.0
  0
LINE
  5
3CE
330
6C
100
AcDbEntity
  8
Hidden (ANSI)
100
AcDbLine
 10
103.0748518135625
 20
88.42453279375323
 30
0.0
 11
103.0748518135625
 21
28.73703279375322
 31
0.0
  0
LINE
  5
3CF
330
6C
100
AcDbEntity
  8
Visible (ANSI)
100
AcDbLine
 10
103.8248518135625
 20
88.3673944461049
 30
0.0
 11
103.8248518135625
 21
28.79417114140155
 31
0.0
  0
LINE
  5
3D0
330
6C
100
AcDbEntity
  8
Hidden (ANSI)
100
AcDbLine
 10
103.0748518135623
 20
58.29928279375323
 30
0.0
 11
102.9498518135623
 21
58.29928279375323
 31
0.0
  0
LINE
  5
3D1
330
6C
100
AcDbEntity
  8
Hidden (ANSI)
100
AcDbLine
 10
103.0748518135623
 20
58.86228279375323
 30
0.0
 11
102.9498518135623
 21
58.86228279375323
 31
0.0
  0
LINE
  5
3D2
330
6C
100
AcDbEntity
  8
Hidden (ANSI)
100
AcDbLine
 10
103.0748518135623
 20
87.42428279375323
 30
0.0
 11
102.9498518135623
 21
87.42428279375323
 31
0.0
  0
LINE
  5
3D3
330
6C
100
AcDbEntity
  8
Hidden (ANSI)
100
AcDbLine
 10
103.0748518135623
 20
87.98728279375321
 30
0.0
 11
102.9498518135623
 21
87.98728279375321
 31
0.0
  0
LINE
  5
3D4
330
6C
100
AcDbEntity
  8
Hidden (ANSI)
100
AcDbLine
 10
103.0748518135623
 20
29.17428279375323
 30
0.0
 11
102.9498518135623
 21
29.17428279375323
 31
0.0
  0
LINE
  5
3D5
330
6C
100
AcDbEntity
  8
Hidden (ANSI)
100
AcDbLine
 10
103.0748518135623
 20
29.73728279375322
 30
0.0
 11
102.9498518135623
 21
29.73728279375322
 31
0.0
  0
MTEXT
  5
3D6
330
6C
100
AcDbEntity
  8
Symbol (ANSI)
100
AcDbMText
 10
99.48871646239702
 20
22.77674842485511
 30
0.0
 40
1.320000016313838
 41
0.0
 46
0.0
 71
     7
 72
     1
  1
SIDE VIEW
  7
Text Style153
 73
     1
 44
1.0
  0
LINE
  5
3D7
330
6C
100
AcDbEntity
  8
Symbol (ANSI)
370
    30
100
AcDbLine
 10
99.42113228854626
 20
22.50328164704333
 30
0.0
 11
108.3412943130067
 21
22.50328164704333
 31
0.0
  0
ELLIPSE
  5
3D8
330
6C
100
AcDbEntity
  8
Visible (ANSI)
100
AcDbEllipse
 10
141.9738512371319
 20
34.58524496893416
 30
0.0
 11
-0.1404775675610101
 21
0.2439432372748666
 31
0.0
210
0.0
220
0.0
230
0.9999999999999998
 40
0.5780931159158093
 41
0.0
 42
6.283185307179586
  0
ELLIPSE
  5
3D9
330
6C
100
AcDbEntity
  8
Visible (ANSI)
100
AcDbEllipse
 10
142.0622395847802
 20
34.63614443315821
 30
0.0
 11
-0.1404775675610103
 21
0.2439432372748668
 31
0.0
210
0.0
220
0.0
230
1.0
 40
0.5780931159158089
 41
0.3187556839588597
 42
2.822836969630815
  0
ELLIPSE
  5
3DA
330
6C
100
AcDbEntity
  8
Visible (ANSI)
100
AcDbEllipse
 10
141.973851237132
 20
82.20736499101199
 30
0.0
 11
-0.1404775675610101
 21
0.2439432372748666
 31
0.0
210
0.0
220
0.0
230
0.9999999999999998
 40
0.5780931159158093
 41
0.0
 42
6.283185307179586
  0
ELLIPSE
  5
3DB
330
6C
100
AcDbEntity
  8
Visible (ANSI)
100
AcDbEllipse
 10
142.0622395847803
 20
82.25826445523603
 30
0.0
 11
-0.1404775675610101
 21
0.2439432372748665
 31
0.0
210
0.0
220
0.0
230
1.0
 40
0.5780931159158092
 41
0.3187556839588594
 42
2.82283696963083
  0
ELLIPSE
  5
3DC
330
6C
100
AcDbEntity
  8
Visible (ANSI)
100
AcDbEllipse
 10
156.9114819896999
 20
49.79429552611123
 30
0.0
 11
-0.1404775675610101
 21
0.2439432372748666
 31
0.0
210
0.0
220
0.0
230
0.9999999999999998
 40
0.5780931159158093
 41
0.0
 42
6.283185307179586
  0
ELLIPSE
  5
3DD
330
6C
100
AcDbEntity
  8
Visible (ANSI)
100
AcDbEllipse
 10
156.9998703373482
 20
49.84519499033528
 30
0.0
 11
-0.1404775675610075
 21
0.2439432372748622
 31
0.0
210
0.0
220
0.0
230
1.0
 40
0.5780931159158093
 41
0.3187556839588597
 42
2.82283696963083
  0
ELLIPSE
  5
3DE
330
6C
100
AcDbEntity
  8
Visible (ANSI)
100
AcDbEllipse
 10
127.0362204845639
 20
66.99831443383498
 30
0.0
 11
-0.1404775675610101
 21
0.2439432372748666
 31
0.0
210
0.0
220
0.0
230
0.9999999999999998
 40
0.5780931159158093
 41
0.0
 42
6.283185307179586
  0
ELLIPSE
  5
3DF
330
6C
100
AcDbEntity
  8
Visible (ANSI)
100
AcDbEllipse
 10
127.1246088322122
 20
67.04921389805902
 30
0.0
 11
-0.14047756756101
 21
0.2439432372748664
 31
0.0
210
0.0
220
0.0
230
0.9999999999999998
 40
0.578093115915809
 41
0.3187556839589591
 42
2.822836969630902
  0
ELLIPSE
  5
3E0
330
6C
100
AcDbEntity
  8
Visible (ANSI)
100
AcDbEllipse
 10
156.9114819897
 20
73.60535553715013
 30
0.0
 11
-0.1404775675610101
 21
0.2439432372748666
 31
0.0
210
0.0
220
0.0
230
0.9999999999999998
 40
0.5780931159158093
 41
0.0
 42
6.283185307179586
  0
ELLIPSE
  5
3E1
330
6C
100
AcDbEntity
  8
Visible (ANSI)
100
AcDbEllipse
 10
156.9998703373483
 20
73.65625500137418
 30
0.0
 11
-0.1404775675610101
 21
0.2439432372748665
 31
0.0
210
0.0
220
0.0
230
1.0
 40
0.5780931159158092
 41
0.3187556839588594
 42
2.82283696963083
  0
ELLIPSE
  5
3E2
330
6C
100
AcDbEntity
  8
Visible (ANSI)
100
AcDbEllipse
 10
127.0362204845639
 20
90.80937444487387
 30
0.0
 11
-0.1404775675610101
 21
0.2439432372748666
 31
0.0
210
0.0
220
0.0
230
0.9999999999999998
 40
0.5780931159158093
 41
0.0
 42
6.283185307179586
  0
ELLIPSE
  5
3E3
330
6C
100
AcDbEntity
  8
Visible (ANSI)
100
AcDbEllipse
 10
127.1246088322123
 20
90.86027390909793
 30
0.0
 11
-0.1404775675610093
 21
0.2439432372748649
 31
0.0
210
0.0
220
0.0
230
1.0
 40
0.578093115915809
 41
0.3187556839589281
 42
2.822836969630915
  0
ELLIPSE
  5
3E4
330
6C
100
AcDbEntity
  8
Visible (ANSI)
100
AcDbEllipse
 10
127.0362204845638
 20
43.18725442279608
 30
0.0
 11
-0.1404775675610101
 21
0.2439432372748666
 31
0.0
210
0.0
220
0.0
230
0.9999999999999998
 40
0.5780931159158093
 41
0.0
 42
6.283185307179586
  0
ELLIPSE
  5
3E5
330
6C
100
AcDbEntity
  8
Visible (ANSI)
100
AcDbEllipse
 10
127.1246088322121
 20
43.23815388702013
 30
0.0
 11
-0.1404775675610101
 21
0.2439432372748664
 31
0.0
210
0.0
220
0.0
230
0.9999999999999998
 40
0.5780931159158092
 41
0.3187556839589579
 42
2.8228369696309
  0
ELLIPSE
  5
3E6
330
6C
100
AcDbEntity
  8
Visible (ANSI)
100
AcDbEllipse
 10
156.9114819896999
 20
25.98323551507233
 30
0.0
 11
-0.1404775675610101
 21
0.2439432372748666
 31
0.0
210
0.0
220
0.0
230
0.9999999999999998
 40
0.5780931159158093
 41
0.0
 42
6.283185307179586
  0
ELLIPSE
  5
3E7
330
6C
100
AcDbEntity
  8
Visible (ANSI)
100
AcDbEllipse
 10
156.9998703373482
 20
26.03413497929639
 30
0.0
 11
-0.1404775675610103
 21
0.2439432372748668
 31
0.0
210
0.0
220
0.0
230
1.0
 40
0.5780931159158089
 41
0.3187556839588446
 42
2.822836969630815
  0
LINE
  5
3E8
330
6C
100
AcDbEntity
  8
Visible Narrow (ANSI)
100
AcDbLine
 10
157.6406858577987
 20
73.85358232200437
 30
0.0
 11
157.6406858577986
 21
25.14966489164171
 31
0.0
  0
LINE
  5
3E9
330
6C
100
AcDbEntity
  8
Visible Narrow (ANSI)
100
AcDbLine
 10
157.4197149886778
 20
25.10295159980356
 30
0.0
 11
157.4197149886779
 21
73.9002956138425
 31
0.0
  0
LINE
  5
3EA
330
6C
100
AcDbEntity
  8
Visible Narrow (ANSI)
100
AcDbLine
 10
126.6788758332344
 20
91.85775793842378
 30
0.0
 11
157.4897975101503
 21
74.11492817263479
 31
0.0
  0
LINE
  5
3EB
330
6C
100
AcDbEntity
  8
Visible Narrow (ANSI)
100
AcDbLine
 10
157.4197149886779
 20
73.9002956138425
 30
0.0
 11
126.527987485586
 21
91.68965836014264
 31
0.0
  0
LINE
  5
3EC
330
6C
100
AcDbEntity
  8
Visible Narrow (ANSI)
100
AcDbLine
 10
126.527987485586
 20
91.68965836014264
 30
0.0
 11
126.5279874855859
 21
42.89231434610369
 31
0.0
  0
LINE
  5
3ED
330
6C
100
AcDbEntity
  8
Visible Narrow (ANSI)
100
AcDbLine
 10
126.5279874855859
 20
42.89231434610369
 30
0.0
 11
157.4197149886778
 21
25.10295159980356
 31
0.0
  0
LINE
  5
3EE
330
6C
100
AcDbEntity
  8
Visible (ANSI)
100
AcDbLine
 10
126.4822229201464
 20
91.72992604450362
 30
0.0
 11
126.4822229201463
 21
42.97929532230283
 31
0.0
  0
LINE
  5
3EF
330
6C
100
AcDbEntity
  8
Visible (ANSI)
100
AcDbLine
 10
126.5807503311118
 20
42.80887312744753
 30
0.0
 11
157.4319754461526
 21
25.04283415522444
 31
0.0
  0
POLYLINE
  5
3F0
330
6C
100
AcDbEntity
  8
Visible (ANSI)
100
AcDb2dPolyline
 66
     1
 10
0.0
 20
0.0
 30
0.0
 70
   128
  0
VERTEX
  5
3F1
330
3F0
100
AcDbEntity
  8
Visible (ANSI)
100
AcDbVertex
100
AcDb2dVertex
 10
157.4197160094945
 20
73.90029600978826
 30
0.0
  0
VERTEX
  5
3F2
330
3F0
100
AcDbEntity
  8
Visible (ANSI)
100
AcDbVertex
100
AcDb2dVertex
 10
157.4271781919896
 20
73.89432147054114
 30
0.0
  0
VERTEX
  5
3F4
330
3F0
100
AcDbEntity
  8
Visible (ANSI)
100
AcDbVertex
100
AcDb2dVertex
 10
157.4350806265259
 20
73.88864205971001
 30
0.0
  0
VERTEX
  5
3F5
330
3F0
100
AcDbEntity
  8
Visible (ANSI)
100
AcDbVertex
100
AcDb2dVertex
 10
157.4433926570788
 20
73.88326701275738
 30
0.0
  0
VERTEX
  5
3F6
330
3F0
100
AcDbEntity
  8
Visible (ANSI)
100
AcDbVertex
100
AcDb2dVertex
 10
157.4520752563302
 20
73.87821299432831
 30
0.0
  0
VERTEX
  5
3F7
330
3F0
100
AcDbEntity
  8
Visible (ANSI)
100
AcDbVertex
100
AcDb2dVertex
 10
157.4610937858762
 20
73.87348694658555
 30
0.0
  0
VERTEX
  5
3F8
330
3F0
100
AcDbEntity
  8
Visible (ANSI)
100
AcDbVertex
100
AcDb2dVertex
 10
157.4704052775024
 20
73.8691130874236
 30
0.0
  0
VERTEX
  5
3F9
330
3F0
100
AcDbEntity
  8
Visible (ANSI)
100
AcDbVertex
100
AcDb2dVertex
 10
157.4799754578563
 20
73.86509367685158
 30
0.0
  0
VERTEX
  5
3FA
330
3F0
100
AcDbEntity
  8
Visible (ANSI)
100
AcDbVertex
100
AcDb2dVertex
 10
157.4897596911023
 20
73.86143479226719
 30
0.0
  0
VERTEX
  5
3FB
330
3F0
100
AcDbEntity
  8
Visible (ANSI)
100
AcDbVertex
100
AcDb2dVertex
 10
157.4997179045477
 20
73.85815253423924
 30
0.0
  0
VERTEX
  5
3FC
330
3F0
100
AcDbEntity
  8
Visible (ANSI)
100
AcDbVertex
100
AcDb2dVertex
 10
157.5098061260868
 20
73.85524847000922
 30
0.0
  0
VERTEX
  5
3FD
330
3F0
100
AcDbEntity
  8
Visible (ANSI)
100
AcDbVertex
100
AcDb2dVertex
 10
157.5199808399283
 20
73.85272198340615
 30
0.0
  0
VERTEX
  5
3FE
330
3F0
100
AcDbEntity
  8
Visible (ANSI)
100
AcDbVertex
100
AcDb2dVertex
 10
157.530201168607
 20
73.85058381918835
 30
0.0
  0
VERTEX
  5
3FF
330
3F0
100
AcDbEntity
  8
Visible (ANSI)
100
AcDbVertex
100
AcDb2dVertex
 10
157.5404204560594
 20
73.84883155282238
 30
0.0
  0
VERTEX
  5
400
330
3F0
100
AcDbEntity
  8
Visible (ANSI)
100
AcDbVertex
100
AcDb2dVertex
 10
157.5505948712224
 20
73.8474644055419
 30
0.0
  0
VERTEX
  5
401
330
3F0
100
AcDbEntity
  8
Visible (ANSI)
100
AcDbVertex
100
AcDb2dVertex
 10
157.5606834909995
 20
73.84647346946389
 30
0.0
  0
VERTEX
  5
402
330
3F0
100
AcDbEntity
  8
Visible (ANSI)
100
AcDbVertex
100
AcDb2dVertex
 10
157.5706399040775
 20
73.84586630261558
 30
0.0
  0
VERTEX
  5
403
330
3F0
100
AcDbEntity
  8
Visible (ANSI)
100
AcDbVertex
100
AcDb2dVertex
 10
157.5804250789903
 20
73.84563019405852
 30
0.0
  0
VERTEX
  5
404
330
3F0
100
AcDbEntity
  8
Visible (ANSI)
100
AcDbVertex
100
AcDb2dVertex
 10
157.5899947221378
 20
73.84575429496594
 30
0.0
  0
VERTEX
  5
405
330
3F0
100
AcDbEntity
  8
Visible (ANSI)
100
AcDbVertex
100
AcDb2dVertex
 10
157.5993078876079
 20
73.84623952593443
 30
0.0
  0
VERTEX
  5
406
330
3F0
100
AcDbEntity
  8
Visible (ANSI)
100
AcDbVertex
100
AcDb2dVertex
 10
157.6083249797638
 20
73.84707040495496
 30
0.0
  0
VERTEX
  5
407
330
3F0
100
AcDbEntity
  8
Visible (ANSI)
100
AcDbVertex
100
AcDb2dVertex
 10
157.6170078778233
 20
73.8482298531444
 30
0.0
  0
VERTEX
  5
408
330
3F0
100
AcDbEntity
  8
Visible (ANSI)
100
AcDbVertex
100
AcDb2dVertex
 10
157.6253200581043
 20
73.84971399913299
 30
0.0
  0
VERTEX
  5
409
330
3F0
100
AcDbEntity
  8
Visible (ANSI)
100
AcDbVertex
100
AcDb2dVertex
 10
157.6332224786401
 20
73.85150523356266
 30
0.0
  0
VERTEX
  5
40A
330
3F0
100
AcDbEntity
  8
Visible (ANSI)
100
AcDbVertex
100
AcDb2dVertex
 10
157.6406864521688
 20
73.85357967902129
 30
0.0
  0
SEQEND
  5
3F3
330
3F0
100
AcDbEntity
  8
Visible (ANSI)
  0
POLYLINE
  5
40B
330
6C
100
AcDbEntity
  8
Visible (ANSI)
100
AcDb2dPolyline
 66
     1
 10
0.0
 20
0.0
 30
0.0
 70
   128
  0
VERTEX
  5
40C
330
40B
100
AcDbEntity
  8
Visible (ANSI)
100
AcDbVertex
100
AcDb2dVertex
 10
157.6406864521687
 20
25.14966453945034
 30
0.0
  0
VERTEX
  5
40D
330
40B
100
AcDbEntity
  8
Visible (ANSI)
100
AcDbVertex
100
AcDb2dVertex
 10
157.63322247864
 20
25.14369391259144
 30
0.0
  0
VERTEX
  5
40F
330
40B
100
AcDbEntity
  8
Visible (ANSI)
100
AcDbVertex
100
AcDb2dVertex
 10
157.6253200581042
 20
25.13801140809187
 30
0.0
  0
VERTEX
  5
410
330
40B
100
AcDbEntity
  8
Visible (ANSI)
100
AcDbVertex
100
AcDb2dVertex
 10
157.6170078778232
 20
25.13263599203339
 30
0.0
  0
VERTEX
  5
411
330
40B
100
AcDbEntity
  8
Visible (ANSI)
100
AcDbVertex
100
AcDb2dVertex
 10
157.6083249797637
 20
25.12758036244369
 30
0.0
  0
VERTEX
  5
412
330
40B
100
AcDbEntity
  8
Visible (ANSI)
100
AcDbVertex
100
AcDb2dVertex
 10
157.5993078876078
 20
25.12285819416836
 30
0.0
  0
VERTEX
  5
413
330
40B
100
AcDbEntity
  8
Visible (ANSI)
100
AcDbVertex
100
AcDb2dVertex
 10
157.5899947221377
 20
25.11848169312999
 30
0.0
  0
VERTEX
  5
414
330
40B
100
AcDbEntity
  8
Visible (ANSI)
100
AcDbVertex
100
AcDb2dVertex
 10
157.5804250789902
 20
25.11446141082229
 30
0.0
  0
VERTEX
  5
415
330
40B
100
AcDbEntity
  8
Visible (ANSI)
100
AcDbVertex
100
AcDb2dVertex
 10
157.5706399040774
 20
25.11080624930944
 30
0.0
  0
VERTEX
  5
416
330
40B
100
AcDbEntity
  8
Visible (ANSI)
100
AcDbVertex
100
AcDb2dVertex
 10
157.5606834909993
 20
25.10752213649541
 30
0.0
  0
VERTEX
  5
417
330
40B
100
AcDbEntity
  8
Visible (ANSI)
100
AcDbVertex
100
AcDb2dVertex
 10
157.5505948712223
 20
25.10461689117315
 30
0.0
  0
VERTEX
  5
418
330
40B
100
AcDbEntity
  8
Visible (ANSI)
100
AcDbVertex
100
AcDb2dVertex
 10
157.5404204560593
 20
25.10209276838374
 30
0.0
  0
VERTEX
  5
419
330
40B
100
AcDbEntity
  8
Visible (ANSI)
100
AcDbVertex
100
AcDb2dVertex
 10
157.5302011686068
 20
25.09995375508735
 30
0.0
  0
VERTEX
  5
41A
330
40B
100
AcDbEntity
  8
Visible (ANSI)
100
AcDbVertex
100
AcDb2dVertex
 10
157.5199808399282
 20
25.09820064923525
 30
0.0
  0
VERTEX
  5
41B
330
40B
100
AcDbEntity
  8
Visible (ANSI)
100
AcDbVertex
100
AcDb2dVertex
 10
157.5098061260867
 20
25.09683094484561
 30
0.0
  0
VERTEX
  5
41C
330
40B
100
AcDbEntity
  8
Visible (ANSI)
100
AcDbVertex
100
AcDb2dVertex
 10
157.4997179045476
 20
25.09584373900572
 30
0.0
  0
VERTEX
  5
41D
330
40B
100
AcDbEntity
  8
Visible (ANSI)
100
AcDbVertex
100
AcDb2dVertex
 10
157.4897596911021
 20
25.09523471737132
 30
0.0
  0
VERTEX
  5
41E
330
40B
100
AcDbEntity
  8
Visible (ANSI)
100
AcDbVertex
100
AcDb2dVertex
 10
157.4799754578562
 20
25.09499742055546
 30
0.0
  0
VERTEX
  5
41F
330
40B
100
AcDbEntity
  8
Visible (ANSI)
100
AcDbVertex
100
AcDb2dVertex
 10
157.4704052775023
 20
25.09512556105757
 30
0.0
  0
VERTEX
  5
420
330
40B
100
AcDbEntity
  8
Visible (ANSI)
100
AcDbVertex
100
AcDb2dVertex
 10
157.461093785876
 20
25.09560814055717
 30
0.0
  0
VERTEX
  5
421
330
40B
100
AcDbEntity
  8
Visible (ANSI)
100
AcDbVertex
100
AcDb2dVertex
 10
157.4520752563301
 20
25.09643800689967
 30
0.0
  0
VERTEX
  5
422
330
40B
100
AcDbEntity
  8
Visible (ANSI)
100
AcDbVertex
100
AcDb2dVertex
 10
157.4433926570786
 20
25.09760074566641
 30
0.0
  0
VERTEX
  5
423
330
40B
100
AcDbEntity
  8
Visible (ANSI)
100
AcDbVertex
100
AcDb2dVertex
 10
157.4350806265258
 20
25.09908452254911
 30
0.0
  0
VERTEX
  5
424
330
40B
100
AcDbEntity
  8
Visible (ANSI)
100
AcDbVertex
100
AcDb2dVertex
 10
157.4271781919895
 20
25.10087266331036
 30
0.0
  0
VERTEX
  5
425
330
40B
100
AcDbEntity
  8
Visible (ANSI)
100
AcDbVertex
100
AcDb2dVertex
 10
157.4197160094944
 20
25.10295101156476
 30
0.0
  0
SEQEND
  5
40E
330
40B
100
AcDbEntity
  8
Visible (ANSI)
  0
LINE
  5
426
330
6C
100
AcDbEntity
  8
Visible (ANSI)
100
AcDbLine
 10
157.5524293711256
 20
73.90455771991388
 30
0.0
 11
158.0605305091281
 21
74.1971537055167
 31
0.0
  0
LINE
  5
427
330
6C
100
AcDbEntity
  8
Visible (ANSI)
100
AcDbLine
 10
158.1489188567763
 20
25.44233681092999
 30
0.0
 11
157.6406858577986
 21
25.14966489164171
 31
0.0
  0
LINE
  5
428
330
6C
100
AcDbEntity
  8
Visible (ANSI)
100
AcDbLine
 10
157.5560213843871
 20
73.90233734967615
 30
0.0
 11
157.6406858577987
 21
73.85358232200437
 31
0.0
  0
POLYLINE
  5
429
330
6C
100
AcDbEntity
  8
Visible (ANSI)
100
AcDb2dPolyline
 66
     1
 10
0.0
 20
0.0
 30
0.0
 70
   128
  0
VERTEX
  5
42A
330
429
100
AcDbEntity
  8
Visible (ANSI)
100
AcDbVertex
100
AcDb2dVertex
 10
157.5081043558153
 20
73.95119547324789
 30
0.0
  0
VERTEX
  5
42B
330
429
100
AcDbEntity
  8
Visible (ANSI)
100
AcDbVertex
100
AcDb2dVertex
 10
157.5094628250321
 20
73.94868078028359
 30
0.0
  0
VERTEX
  5
42D
330
429
100
AcDbEntity
  8
Visible (ANSI)
100
AcDbVertex
100
AcDb2dVertex
 10
157.5108980393875
 20
73.94621272809184
 30
0.0
  0
VERTEX
  5
42E
330
429
100
AcDbEntity
  8
Visible (ANSI)
100
AcDbVertex
100
AcDb2dVertex
 10
157.5124010798856
 20
73.94379105397968
 30
0.0
  0
VERTEX
  5
42F
330
429
100
AcDbEntity
  8
Visible (ANSI)
100
AcDbVertex
100
AcDb2dVertex
 10
157.5139691188238
 20
73.9414263984287
 30
0.0
  0
VERTEX
  5
430
330
429
100
AcDbEntity
  8
Visible (ANSI)
100
AcDbVertex
100
AcDb2dVertex
 10
157.515592678768
 20
73.93911817716285
 30
0.0
  0
VERTEX
  5
431
330
429
100
AcDbEntity
  8
Visible (ANSI)
100
AcDbVertex
100
AcDb2dVertex
 10
157.5172705034278
 20
73.93686566673263
 30
0.0
  0
VERTEX
  5
432
330
429
100
AcDbEntity
  8
Visible (ANSI)
100
AcDbVertex
100
AcDb2dVertex
 10
157.5189946950656
 20
73.93467165769269
 30
0.0
  0
VERTEX
  5
433
330
429
100
AcDbEntity
  8
Visible (ANSI)
100
AcDbVertex
100
AcDb2dVertex
 10
157.5207570909705
 20
73.93253878800962
 30
0.0
  0
VERTEX
  5
434
330
429
100
AcDbEntity
  8
Visible (ANSI)
100
AcDbVertex
100
AcDb2dVertex
 10
157.5225556423947
 20
73.9304658778882
 30
0.0
  0
VERTEX
  5
435
330
429
100
AcDbEntity
  8
Visible (ANSI)
100
AcDbVertex
100
AcDb2dVertex
 10
157.5243795540051
 20
73.92845649545501
 30
0.0
  0
VERTEX
  5
436
330
429
100
AcDbEntity
  8
Visible (ANSI)
100
AcDbVertex
100
AcDb2dVertex
 10
157.526226283664
 20
73.92650426546016
 30
0.0
  0
VERTEX
  5
437
330
429
100
AcDbEntity
  8
Visible (ANSI)
100
AcDbVertex
100
AcDb2dVertex
 10
157.5280845604084
 20
73.92462230479392
 30
0.0
  0
VERTEX
  5
438
330
429
100
AcDbEntity
  8
Visible (ANSI)
100
AcDbVertex
100
AcDb2dVertex
 10
157.5299535081664
 20
73.92280275144344
 30
0.0
  0
VERTEX
  5
439
330
429
100
AcDbEntity
  8
Visible (ANSI)
100
AcDbVertex
100
AcDb2dVertex
 10
157.5318214198835
 20
73.92104864851001
 30
0.0
  0
VERTEX
  5
43A
330
429
100
AcDbEntity
  8
Visible (ANSI)
100
AcDbVertex
100
AcDb2dVertex
 10
157.5336827586005
 20
73.91935925365723
 30
0.0
  0
VERTEX
  5
43B
330
429
100
AcDbEntity
  8
Visible (ANSI)
100
AcDbVertex
100
AcDb2dVertex
 10
157.53553392099
 20
73.91773249186693
 30
0.0
  0
VERTEX
  5
43C
330
429
100
AcDbEntity
  8
Visible (ANSI)
100
AcDbVertex
100
AcDb2dVertex
 10
157.5373647566513
 20
73.91616985647136
 30
0.0
  0
VERTEX
  5
43D
330
429
100
AcDbEntity
  8
Visible (ANSI)
100
AcDbVertex
100
AcDb2dVertex
 10
157.5391692007526
 20
73.91467030115252
 30
0.0
  0
VERTEX
  5
43E
330
429
100
AcDbEntity
  8
Visible (ANSI)
100
AcDbVertex
100
AcDb2dVertex
 10
157.5409431620213
 20
73.91322655857289
 30
0.0
  0
VERTEX
  5
43F
330
429
100
AcDbEntity
  8
Visible (ANSI)
100
AcDbVertex
100
AcDb2dVertex
 10
157.5426781696045
 20
73.91184846572629
 30
0.0
  0
VERTEX
  5
440
330
429
100
AcDbEntity
  8
Visible (ANSI)
100
AcDbVertex
100
AcDb2dVertex
 10
157.544367756284
 20
73.91052983324552
 30
0.0
  0
VERTEX
  5
441
330
429
100
AcDbEntity
  8
Visible (ANSI)
100
AcDbVertex
100
AcDb2dVertex
 10
157.5460074750697
 20
73.90926810027917
 30
0.0
  0
VERTEX
  5
442
330
429
100
AcDbEntity
  8
Visible (ANSI)
100
AcDbVertex
100
AcDb2dVertex
 10
157.5475906699949
 20
73.90806188009751
 30
0.0
  0
VERTEX
  5
443
330
429
100
AcDbEntity
  8
Visible (ANSI)
100
AcDbVertex
100
AcDb2dVertex
 10
157.5491106073125
 20
73.90690974117989
 30
0.0
  0
SEQEND
  5
42C
330
429
100
AcDbEntity
  8
Visible (ANSI)
  0
LINE
  5
444
330
6C
100
AcDbEntity
  8
Visible (ANSI)
100
AcDbLine
 10
157.5081033363262
 20
73.95119507806656
 30
0.0
 11
157.5044791299052
 21
73.94910803639226
 31
0.0
  0
LINE
  5
445
330
6C
100
AcDbEntity
  8
Visible (ANSI)
100
AcDbLine
 10
157.5044791299052
 20
73.94910803639226
 30
0.0
 11
157.4197149886779
 21
73.9002956138425
 31
0.0
  0
LINE
  5
446
330
6C
100
AcDbEntity
  8
Visible (ANSI)
100
AcDbLine
 10
157.6406858577987
 20
73.85358232200437
 30
0.0
 11
158.1489188567764
 21
74.14625424129265
 31
0.0
  0
LINE
  5
447
330
6C
100
AcDbEntity
  8
Visible (ANSI)
100
AcDbLine
 10
158.0605305091281
 20
74.1971537055167
 30
0.0
 11
158.1489188567764
 21
74.14625424129265
 31
0.0
  0
POLYLINE
  5
448
330
6C
100
AcDbEntity
  8
Visible (ANSI)
100
AcDb2dPolyline
 66
     1
 10
0.0
 20
0.0
 30
0.0
 70
   128
  0
VERTEX
  5
449
330
448
100
AcDbEntity
  8
Visible (ANSI)
100
AcDbVertex
100
AcDb2dVertex
 10
126.5279874852542
 20
91.68965934412868
 30
0.0
  0
VERTEX
  5
44A
330
448
100
AcDbEntity
  8
Visible (ANSI)
100
AcDbVertex
100
AcDb2dVertex
 10
126.5299074982127
 20
91.69718029916342
 30
0.0
  0
VERTEX
  5
44C
330
448
100
AcDbEntity
  8
Visible (ANSI)
100
AcDbVertex
100
AcDb2dVertex
 10
126.5322996139509
 20
91.70493875035081
 30
0.0
  0
VERTEX
  5
44D
330
448
100
AcDbEntity
  8
Visible (ANSI)
100
AcDbVertex
100
AcDb2dVertex
 10
126.5351607959045
 20
91.71289364885137
 30
0.0
  0
VERTEX
  5
44E
330
448
100
AcDbEntity
  8
Visible (ANSI)
100
AcDbVertex
100
AcDb2dVertex
 10
126.5384860080229
 20
91.72101261705886
 30
0.0
  0
VERTEX
  5
44F
330
448
100
AcDbEntity
  8
Visible (ANSI)
100
AcDbVertex
100
AcDb2dVertex
 10
126.5422682064726
 20
91.72924741583688
 30
0.0
  0
VERTEX
  5
450
330
448
100
AcDbEntity
  8
Visible (ANSI)
100
AcDbVertex
100
AcDb2dVertex
 10
126.5464984226033
 20
91.73756830472058
 30
0.0
  0
VERTEX
  5
451
330
448
100
AcDbEntity
  8
Visible (ANSI)
100
AcDbVertex
100
AcDb2dVertex
 10
126.5511657297615
 20
91.74593463126702
 30
0.0
  0
VERTEX
  5
452
330
448
100
AcDbEntity
  8
Visible (ANSI)
100
AcDbVertex
100
AcDb2dVertex
 10
126.5562573594435
 20
91.75429974238545
 30
0.0
  0
VERTEX
  5
453
330
448
100
AcDbEntity
  8
Visible (ANSI)
100
AcDbVertex
100
AcDb2dVertex
 10
126.5617587344812
 20
91.76262576610557
 30
0.0
  0
VERTEX
  5
454
330
448
100
AcDbEntity
  8
Visible (ANSI)
100
AcDbVertex
100
AcDb2dVertex
 10
126.5676534773395
 20
91.77087382236079
 30
0.0
  0
VERTEX
  5
455
330
448
100
AcDbEntity
  8
Visible (ANSI)
100
AcDbVertex
100
AcDb2dVertex
 10
126.5739235760483
 20
91.77900896298464
 30
0.0
  0
VERTEX
  5
456
330
448
100
AcDbEntity
  8
Visible (ANSI)
100
AcDbVertex
100
AcDb2dVertex
 10
126.5805493759059
 20
91.78698550938554
 30
0.0
  0
VERTEX
  5
457
330
448
100
AcDbEntity
  8
Visible (ANSI)
100
AcDbVertex
100
AcDb2dVertex
 10
126.5875097246702
 20
91.79477161636503
 30
0.0
  0
VERTEX
  5
458
330
448
100
AcDbEntity
  8
Visible (ANSI)
100
AcDbVertex
100
AcDb2dVertex
 10
126.5947820140415
 20
91.80232481579787
 30
0.0
  0
VERTEX
  5
459
330
448
100
AcDbEntity
  8
Visible (ANSI)
100
AcDbVertex
100
AcDb2dVertex
 10
126.6023423207054
 20
91.80960676495624
 30
0.0
  0
VERTEX
  5
45A
330
448
100
AcDbEntity
  8
Visible (ANSI)
100
AcDbVertex
100
AcDb2dVertex
 10
126.610165481002
 20
91.81658822950572
 30
0.0
  0
VERTEX
  5
45B
330
448
100
AcDbEntity
  8
Visible (ANSI)
100
AcDbVertex
100
AcDb2dVertex
 10
126.6182251904859
 20
91.82322952418253
 30
0.0
  0
VERTEX
  5
45C
330
448
100
AcDbEntity
  8
Visible (ANSI)
100
AcDbVertex
100
AcDb2dVertex
 10
126.6264941553392
 20
91.82950509930622
 30
0.0
  0
VERTEX
  5
45D
330
448
100
AcDbEntity
  8
Visible (ANSI)
100
AcDbVertex
100
AcDb2dVertex
 10
126.6349441732637
 20
91.83537415760149
 30
0.0
  0
VERTEX
  5
45E
330
448
100
AcDbEntity
  8
Visible (ANSI)
100
AcDbVertex
100
AcDb2dVertex
 10
126.6435462848942
 20
91.84081509203794
 30
0.0
  0
VERTEX
  5
45F
330
448
100
AcDbEntity
  8
Visible (ANSI)
100
AcDbVertex
100
AcDb2dVertex
 10
126.6522708320048
 20
91.84580103913997
 30
0.0
  0
VERTEX
  5
460
330
448
100
AcDbEntity
  8
Visible (ANSI)
100
AcDbVertex
100
AcDb2dVertex
 10
126.6610876793136
 20
91.85029989205101
 30
0.0
  0
VERTEX
  5
461
330
448
100
AcDbEntity
  8
Visible (ANSI)
100
AcDbVertex
100
AcDb2dVertex
 10
126.6699662805966
 20
91.85429406037053
 30
0.0
  0
VERTEX
  5
462
330
448
100
AcDbEntity
  8
Visible (ANSI)
100
AcDbVertex
100
AcDb2dVertex
 10
126.6788758246563
 20
91.85775597844921
 30
0.0
  0
SEQEND
  5
44B
330
448
100
AcDbEntity
  8
Visible (ANSI)
  0
POLYLINE
  5
463
330
6C
100
AcDbEntity
  8
Visible (ANSI)
100
AcDb2dPolyline
 66
     1
 10
0.0
 20
0.0
 30
0.0
 70
   128
  0
VERTEX
  5
464
330
463
100
AcDbEntity
  8
Visible (ANSI)
100
AcDbVertex
100
AcDb2dVertex
 10
157.4897978140882
 20
74.11492603269422
 30
0.0
  0
VERTEX
  5
465
330
463
100
AcDbEntity
  8
Visible (ANSI)
100
AcDbVertex
100
AcDb2dVertex
 10
157.4842538784079
 20
74.10952598964937
 30
0.0
  0
VERTEX
  5
467
330
463
100
AcDbEntity
  8
Visible (ANSI)
100
AcDbVertex
100
AcDb2dVertex
 10
157.4787430094399
 20
74.1035924732705
 30
0.0
  0
VERTEX
  5
468
330
463
100
AcDbEntity
  8
Visible (ANSI)
100
AcDbVertex
100
AcDb2dVertex
 10
157.4732938944461
 20
74.09715427230008
 30
0.0
  0
VERTEX
  5
469
330
463
100
AcDbEntity
  8
Visible (ANSI)
100
AcDbVertex
100
AcDb2dVertex
 10
157.4679349557148
 20
74.09023020023187
 30
0.0
  0
VERTEX
  5
46A
330
463
100
AcDbEntity
  8
Visible (ANSI)
100
AcDbVertex
100
AcDb2dVertex
 10
157.4627005929925
 20
74.08284990818065
 30
0.0
  0
VERTEX
  5
46B
330
463
100
AcDbEntity
  8
Visible (ANSI)
100
AcDbVertex
100
AcDb2dVertex
 10
157.457618307383
 20
74.075041501826
 30
0.0
  0
VERTEX
  5
46C
330
463
100
AcDbEntity
  8
Visible (ANSI)
100
AcDbVertex
100
AcDb2dVertex
 10
157.452714950909
 20
74.06682780173617
 30
0.0
  0
VERTEX
  5
46D
330
463
100
AcDbEntity
  8
Visible (ANSI)
100
AcDbVertex
100
AcDb2dVertex
 10
157.4480229737401
 20
74.05824715899995
 30
0.0
  0
VERTEX
  5
46E
330
463
100
AcDbEntity
  8
Visible (ANSI)
100
AcDbVertex
100
AcDb2dVertex
 10
157.4435654301195
 20
74.0493275647066
 30
0.0
  0
VERTEX
  5
46F
330
463
100
AcDbEntity
  8
Visible (ANSI)
100
AcDbVertex
100
AcDb2dVertex
 10
157.4393728557706
 20
74.04010626748888
 30
0.0
  0
VERTEX
  5
470
330
463
100
AcDbEntity
  8
Visible (ANSI)
100
AcDbVertex
100
AcDb2dVertex
 10
157.4354682987143
 20
74.03061371999666
 30
0.0
  0
VERTEX
  5
471
330
463
100
AcDbEntity
  8
Visible (ANSI)
100
AcDbVertex
100
AcDb2dVertex
 10
157.4318735666259
 20
74.02088948327329
 30
0.0
  0
VERTEX
  5
472
330
463
100
AcDbEntity
  8
Visible (ANSI)
100
AcDbVertex
100
AcDb2dVertex
 10
157.4286154990833
 20
74.010973588813
 30
0.0
  0
VERTEX
  5
473
330
463
100
AcDbEntity
  8
Visible (ANSI)
100
AcDbVertex
100
AcDb2dVertex
 10
157.4257110170505
 20
74.00090031844527
 30
0.0
  0
VERTEX
  5
474
330
463
100
AcDbEntity
  8
Visible (ANSI)
100
AcDbVertex
100
AcDb2dVertex
 10
157.4231840065071
 20
73.99071291413072
 30
0.0
  0
VERTEX
  5
475
330
463
100
AcDbEntity
  8
Visible (ANSI)
100
AcDbVertex
100
AcDb2dVertex
 10
157.4210503720811
 20
73.9804475375735
 30
0.0
  0
VERTEX
  5
476
330
463
100
AcDbEntity
  8
Visible (ANSI)
100
AcDbVertex
100
AcDb2dVertex
 10
157.4193243507784
 20
73.9701443014889
 30
0.0
  0
VERTEX
  5
477
330
463
100
AcDbEntity
  8
Visible (ANSI)
100
AcDbVertex
100
AcDb2dVertex
 10
157.4180247759351
 20
73.9598386268831
 30
0.0
  0
VERTEX
  5
478
330
463
100
AcDbEntity
  8
Visible (ANSI)
100
AcDbVertex
100
AcDb2dVertex
 10
157.4171601764804
 20
73.94957960825554
 30
0.0
  0
VERTEX
  5
479
330
463
100
AcDbEntity
  8
Visible (ANSI)
100
AcDbVertex
100
AcDb2dVertex
 10
157.4167457103457
 20
73.93940546141815
 30
0.0
  0
VERTEX
  5
47A
330
463
100
AcDbEntity
  8
Visible (ANSI)
100
AcDbVertex
100
AcDb2dVertex
 10
157.4167882388389
 20
73.92934714037356
 30
0.0
  0
VERTEX
  5
47B
330
463
100
AcDbEntity
  8
Visible (ANSI)
100
AcDbVertex
100
AcDb2dVertex
 10
157.4172926652646
 20
73.91945411690682
 30
0.0
  0
VERTEX
  5
47C
330
463
100
AcDbEntity
  8
Visible (ANSI)
100
AcDbVertex
100
AcDb2dVertex
 10
157.4182682818414
 20
73.90975631766008
 30
0.0
  0
VERTEX
  5
47D
330
463
100
AcDbEntity
  8
Visible (ANSI)
100
AcDbVertex
100
AcDb2dVertex
 10
157.4197160094945
 20
73.90029600978826
 30
0.0
  0
SEQEND
  5
466
330
463
100
AcDbEntity
  8
Visible (ANSI)
  0
LINE
  5
47E
330
6C
100
AcDbEntity
  8
Visible (ANSI)
100
AcDbLine
 10
157.4899233961873
 20
74.01280727497685
 30
0.0
 11
157.9980305091281
 21
74.30540670131772
 31
0.0
  0
LINE
  5
47F
330
6C
100
AcDbEntity
  8
Visible (ANSI)
100
AcDbLine
 10
157.9980305091281
 20
74.40760009192304
 30
0.0
 11
157.4897975101503
 21
74.11492817263479
 31
0.0
  0
LINE
  5
480
330
6C
100
AcDbEntity
  8
Visible (ANSI)
100
AcDbLine
 10
157.4897975101503
 20
74.01692503959468
 30
0.0
 11
157.4897975101503
 21
74.11492817263479
 31
0.0
  0
LINE
  5
481
330
6C
100
AcDbEntity
  8
Visible (ANSI)
100
AcDbLine
 10
157.9980305091281
 20
74.30540670131772
 30
0.0
 11
157.9980305091281
 21
74.40760009192304
 31
0.0
  0
POLYLINE
  5
482
330
6C
100
AcDbEntity
  8
Visible (ANSI)
100
AcDb2dPolyline
 66
     1
 10
0.0
 20
0.0
 30
0.0
 70
   128
  0
VERTEX
  5
483
330
482
100
AcDbEntity
  8
Visible (ANSI)
100
AcDbVertex
100
AcDb2dVertex
 10
157.5081043558153
 20
73.95119547324789
 30
0.0
  0
VERTEX
  5
484
330
482
100
AcDbEntity
  8
Visible (ANSI)
100
AcDbVertex
100
AcDb2dVertex
 10
157.5066020209962
 20
73.95363369124702
 30
0.0
  0
VERTEX
  5
486
330
482
100
AcDbEntity
  8
Visible (ANSI)
100
AcDbVertex
100
AcDb2dVertex
 10
157.5051788288941
 20
73.95611748450587
 30
0.0
  0
VERTEX
  5
487
330
482
100
AcDbEntity
  8
Visible (ANSI)
100
AcDbVertex
100
AcDb2dVertex
 10
157.5038364772585
 20
73.95863065051566
 30
0.0
  0
VERTEX
  5
488
330
482
100
AcDbEntity
  8
Visible (ANSI)
100
AcDbVertex
100
AcDb2dVertex
 10
157.5025700095412
 20
73.96117031603274
 30
0.0
  0
VERTEX
  5
489
330
482
100
AcDbEntity
  8
Visible (ANSI)
100
AcDbVertex
100
AcDb2dVertex
 10
157.5013826851001
 20
73.96373837695397
 30
0.0
  0
VERTEX
  5
48A
330
482
100
AcDbEntity
  8
Visible (ANSI)
100
AcDbVertex
100
AcDb2dVertex
 10
157.5002689911852
 20
73.96632181707946
 30
0.0
  0
VERTEX
  5
48B
330
482
100
AcDbEntity
  8
Visible (ANSI)
100
AcDbVertex
100
AcDb2dVertex
 10
157.4992316390424
 20
73.96891239400872
 30
0.0
  0
VERTEX
  5
48C
330
482
100
AcDbEntity
  8
Visible (ANSI)
100
AcDbVertex
100
AcDb2dVertex
 10
157.4982645777106
 20
73.97151151559788
 30
0.0
  0
VERTEX
  5
48D
330
482
100
AcDbEntity
  8
Visible (ANSI)
100
AcDbVertex
100
AcDb2dVertex
 10
157.4973699921836
 20
73.9741057250675
 30
0.0
  0
VERTEX
  5
48E
330
482
100
AcDbEntity
  8
Visible (ANSI)
100
AcDbVertex
100
AcDb2dVertex
 10
157.496541319443
 20
73.97669122406921
 30
0.0
  0
VERTEX
  5
48F
330
482
100
AcDbEntity
  8
Visible (ANSI)
100
AcDbVertex
100
AcDb2dVertex
 10
157.495780248111
 20
73.97926409264302
 30
0.0
  0
VERTEX
  5
490
330
482
100
AcDbEntity
  8
Visible (ANSI)
100
AcDbVertex
100
AcDb2dVertex
 10
157.4950797356504
 20
73.98182025630392
 30
0.0
  0
VERTEX
  5
491
330
482
100
AcDbEntity
  8
Visible (ANSI)
100
AcDbVertex
100
AcDb2dVertex
 10
157.494441011258
 20
73.98434570786569
 30
0.0
  0
VERTEX
  5
492
330
482
100
AcDbEntity
  8
Visible (ANSI)
100
AcDbVertex
100
AcDb2dVertex
 10
157.4938565934532
 20
73.98684103140306
 30
0.0
  0
VERTEX
  5
493
330
482
100
AcDbEntity
  8
Visible (ANSI)
100
AcDbVertex
100
AcDb2dVertex
 10
157.4933272942681
 20
73.98929689083101
 30
0.0
  0
VERTEX
  5
494
330
482
100
AcDbEntity
  8
Visible (ANSI)
100
AcDbVertex
100
AcDb2dVertex
 10
157.4928452407253
 20
73.99171364477623
 30
0.0
  0
VERTEX
  5
495
330
482
100
AcDbEntity
  8
Visible (ANSI)
100
AcDbVertex
100
AcDb2dVertex
 10
157.4924108761757
 20
73.99407683351388
 30
0.0
  0
VERTEX
  5
496
330
482
100
AcDbEntity
  8
Visible (ANSI)
100
AcDbVertex
100
AcDb2dVertex
 10
157.4920159879989
 20
73.99639153141366
 30
0.0
  0
VERTEX
  5
497
330
482
100
AcDbEntity
  8
Visible (ANSI)
100
AcDbVertex
100
AcDb2dVertex
 10
157.4916607068666
 20
73.99864309869091
 30
0.0
  0
VERTEX
  5
498
330
482
100
AcDbEntity
  8
Visible (ANSI)
100
AcDbVertex
100
AcDb2dVertex
 10
157.491336534962
 20
74.00083153415112
 30
0.0
  0
VERTEX
  5
499
330
482
100
AcDbEntity
  8
Visible (ANSI)
100
AcDbVertex
100
AcDb2dVertex
 10
157.4910433509471
 20
74.00294696421719
 30
0.0
  0
VERTEX
  5
49A
330
482
100
AcDbEntity
  8
Visible (ANSI)
100
AcDbVertex
100
AcDb2dVertex
 10
157.4907724340331
 20
74.00499417062412
 30
0.0
  0
VERTEX
  5
49B
330
482
100
AcDbEntity
  8
Visible (ANSI)
100
AcDbVertex
100
AcDb2dVertex
 10
157.4905234699855
 20
74.00696316871304
 30
0.0
  0
VERTEX
  5
49C
330
482
100
AcDbEntity
  8
Visible (ANSI)
100
AcDbVertex
100
AcDb2dVertex
 10
157.490287582454
 20
74.00885373930659
 30
0.0
  0
SEQEND
  5
485
330
482
100
AcDbEntity
  8
Visible (ANSI)
  0
LINE
  5
49D
330
6C
100
AcDbEntity
  8
Visible (ANSI)
100
AcDbLine
 10
126.6788758332344
 20
91.85775793842378
 30
0.0
 11
127.1871088322121
 21
92.15042985771203
 31
0.0
  0
POLYLINE
  5
49E
330
6C
100
AcDbEntity
  8
Visible (ANSI)
100
AcDb2dPolyline
 66
     1
 10
0.0
 20
0.0
 30
0.0
 70
   128
  0
VERTEX
  5
49F
330
49E
100
AcDbEntity
  8
Visible (ANSI)
100
AcDbVertex
100
AcDb2dVertex
 10
126.527987485254
 20
42.89231434590519
 30
0.0
  0
VERTEX
  5
4A0
330
49E
100
AcDbEntity
  8
Visible (ANSI)
100
AcDbVertex
100
AcDb2dVertex
 10
126.5244316601827
 20
42.89540333111586
 30
0.0
  0
VERTEX
  5
4A2
330
49E
100
AcDbEntity
  8
Visible (ANSI)
100
AcDbVertex
100
AcDb2dVertex
 10
126.5209979448192
 20
42.89855819139939
 30
0.0
  0
VERTEX
  5
4A3
330
49E
100
AcDbEntity
  8
Visible (ANSI)
100
AcDbVertex
100
AcDb2dVertex
 10
126.5176900311612
 20
42.90177657127174
 30
0.0
  0
VERTEX
  5
4A4
330
49E
100
AcDbEntity
  8
Visible (ANSI)
100
AcDbVertex
100
AcDb2dVertex
 10
126.5145114618671
 20
42.90505607713833
 30
0.0
  0
VERTEX
  5
4A5
330
49E
100
AcDbEntity
  8
Visible (ANSI)
100
AcDbVertex
100
AcDb2dVertex
 10
126.5114656219593
 20
42.90839423414647
 30
0.0
  0
VERTEX
  5
4A6
330
49E
100
AcDbEntity
  8
Visible (ANSI)
100
AcDbVertex
100
AcDb2dVertex
 10
126.5085557969008
 20
42.91178851966643
 30
0.0
  0
VERTEX
  5
4A7
330
49E
100
AcDbEntity
  8
Visible (ANSI)
100
AcDbVertex
100
AcDb2dVertex
 10
126.5057850813323
 20
42.91523633943986
 30
0.0
  0
VERTEX
  5
4A8
330
49E
100
AcDbEntity
  8
Visible (ANSI)
100
AcDbVertex
100
AcDb2dVertex
 10
126.5031564537416
 20
42.91873503220945
 30
0.0
  0
VERTEX
  5
4A9
330
49E
100
AcDbEntity
  8
Visible (ANSI)
100
AcDbVertex
100
AcDb2dVertex
 10
126.5006727266843
 20
42.92228189860728
 30
0.0
  0
VERTEX
  5
4AA
330
49E
100
AcDbEntity
  8
Visible (ANSI)
100
AcDbVertex
100
AcDb2dVertex
 10
126.4983365550799
 20
42.92587418667364
 30
0.0
  0
VERTEX
  5
4AB
330
49E
100
AcDbEntity
  8
Visible (ANSI)
100
AcDbVertex
100
AcDb2dVertex
 10
126.4961504445087
 20
42.9295090871163
 30
0.0
  0
VERTEX
  5
4AC
330
49E
100
AcDbEntity
  8
Visible (ANSI)
100
AcDbVertex
100
AcDb2dVertex
 10
126.4941167470636
 20
42.93318376440269
 30
0.0
  0
VERTEX
  5
4AD
330
49E
100
AcDbEntity
  8
Visible (ANSI)
100
AcDbVertex
100
AcDb2dVertex
 10
126.4922376198668
 20
42.93689530405696
 30
0.0
  0
VERTEX
  5
4AE
330
49E
100
AcDbEntity
  8
Visible (ANSI)
100
AcDbVertex
100
AcDb2dVertex
 10
126.4905150872944
 20
42.94064078215895
 30
0.0
  0
VERTEX
  5
4AF
330
49E
100
AcDbEntity
  8
Visible (ANSI)
100
AcDbVertex
100
AcDb2dVertex
 10
126.488950991197
 20
42.94441722697436
 30
0.0
  0
VERTEX
  5
4B0
330
49E
100
AcDbEntity
  8
Visible (ANSI)
100
AcDbVertex
100
AcDb2dVertex
 10
126.4875470074925
 20
42.94822164765808
 30
0.0
  0
VERTEX
  5
4B1
330
49E
100
AcDbEntity
  8
Visible (ANSI)
100
AcDbVertex
100
AcDb2dVertex
 10
126.4863046461664
 20
42.95205101518036
 30
0.0
  0
VERTEX
  5
4B2
330
49E
100
AcDbEntity
  8
Visible (ANSI)
100
AcDbVertex
100
AcDb2dVertex
 10
126.4852252222336
 20
42.95590225023445
 30
0.0
  0
VERTEX
  5
4B3
330
49E
100
AcDbEntity
  8
Visible (ANSI)
100
AcDbVertex
100
AcDb2dVertex
 10
126.4843098972214
 20
42.95977228079121
 30
0.0
  0
VERTEX
  5
4B4
330
49E
100
AcDbEntity
  8
Visible (ANSI)
100
AcDbVertex
100
AcDb2dVertex
 10
126.4835596625763
 20
42.9636580085071
 30
0.0
  0
VERTEX
  5
4B5
330
49E
100
AcDbEntity
  8
Visible (ANSI)
100
AcDbVertex
100
AcDb2dVertex
 10
126.4829753064777
 20
42.96755631353892
 30
0.0
  0
VERTEX
  5
4B6
330
49E
100
AcDbEntity
  8
Visible (ANSI)
100
AcDbVertex
100
AcDb2dVertex
 10
126.4825574636171
 20
42.97146406891389
 30
0.0
  0
VERTEX
  5
4B7
330
49E
100
AcDbEntity
  8
Visible (ANSI)
100
AcDbVertex
100
AcDb2dVertex
 10
126.4823065778641
 20
42.97537811888193
 30
0.0
  0
VERTEX
  5
4B8
330
49E
100
AcDbEntity
  8
Visible (ANSI)
100
AcDbVertex
100
AcDb2dVertex
 10
126.4822229209329
 20
42.97929532094271
 30
0.0
  0
SEQEND
  5
4A1
330
49E
100
AcDbEntity
  8
Visible (ANSI)
  0
POLYLINE
  5
4B9
330
6C
100
AcDbEntity
  8
Visible (ANSI)
100
AcDb2dPolyline
 66
     1
 10
0.0
 20
0.0
 30
0.0
 70
   128
  0
VERTEX
  5
4BA
330
4B9
100
AcDbEntity
  8
Visible (ANSI)
100
AcDbVertex
100
AcDb2dVertex
 10
126.5279874852541
 20
91.77019142834762
 30
0.0
  0
VERTEX
  5
4BB
330
4B9
100
AcDbEntity
  8
Visible (ANSI)
100
AcDbVertex
100
AcDb2dVertex
 10
126.5209979503126
 20
91.76784377187717
 30
0.0
  0
VERTEX
  5
4BD
330
4B9
100
AcDbEntity
  8
Visible (ANSI)
100
AcDbVertex
100
AcDb2dVertex
 10
126.5145114607653
 20
91.76523715701996
 30
0.0
  0
VERTEX
  5
4BE
330
4B9
100
AcDbEntity
  8
Visible (ANSI)
100
AcDbVertex
100
AcDb2dVertex
 10
126.5085557932712
 20
91.76239598556957
 30
0.0
  0
VERTEX
  5
4BF
330
4B9
100
AcDbEntity
  8
Visible (ANSI)
100
AcDbVertex
100
AcDb2dVertex
 10
126.5031564506305
 20
91.75934566357133
 30
0.0
  0
VERTEX
  5
4C0
330
4B9
100
AcDbEntity
  8
Visible (ANSI)
100
AcDbVertex
100
AcDb2dVertex
 10
126.4983365545614
 20
91.75609778007288
 30
0.0
  0
VERTEX
  5
4C1
330
4B9
100
AcDbEntity
  8
Visible (ANSI)
100
AcDbVertex
100
AcDb2dVertex
 10
126.4941167434339
 20
91.75267948140897
 30
0.0
  0
VERTEX
  5
4C2
330
4B9
100
AcDbEntity
  8
Visible (ANSI)
100
AcDbVertex
100
AcDb2dVertex
 10
126.4905150872946
 20
91.74911864535156
 30
0.0
  0
VERTEX
  5
4C3
330
4B9
100
AcDbEntity
  8
Visible (ANSI)
100
AcDbVertex
100
AcDb2dVertex
 10
126.4875470106038
 20
91.74542904813069
 30
0.0
  0
VERTEX
  5
4C4
330
4B9
100
AcDbEntity
  8
Visible (ANSI)
100
AcDbVertex
100
AcDb2dVertex
 10
126.4852252222337
 20
91.74163972700831
 30
0.0
  0
VERTEX
  5
4C5
330
4B9
100
AcDbEntity
  8
Visible (ANSI)
100
AcDbVertex
100
AcDb2dVertex
 10
126.4835596584281
 20
91.73778014774706
 30
0.0
  0
VERTEX
  5
4C6
330
4B9
100
AcDbEntity
  8
Visible (ANSI)
100
AcDbVertex
100
AcDb2dVertex
 10
126.4825574615431
 20
91.73386536580821
 30
0.0
  0
VERTEX
  5
4C7
330
4B9
100
AcDbEntity
  8
Visible (ANSI)
100
AcDbVertex
100
AcDb2dVertex
 10
126.482222920933
 20
91.72992538504372
 30
0.0
  0
VERTEX
  5
4C8
330
4B9
100
AcDbEntity
  8
Visible (ANSI)
100
AcDbVertex
100
AcDb2dVertex
 10
126.4825574636173
 20
91.72598540308481
 30
0.0
  0
VERTEX
  5
4C9
330
4B9
100
AcDbEntity
  8
Visible (ANSI)
100
AcDbVertex
100
AcDb2dVertex
 10
126.4835596625765
 20
91.72207553367073
 30
0.0
  0
VERTEX
  5
4CA
330
4B9
100
AcDbEntity
  8
Visible (ANSI)
100
AcDbVertex
100
AcDb2dVertex
 10
126.4852252222337
 20
91.71821104546797
 30
0.0
  0
VERTEX
  5
4CB
330
4B9
100
AcDbEntity
  8
Visible (ANSI)
100
AcDbVertex
100
AcDb2dVertex
 10
126.4875470074926
 20
91.71442172255394
 30
0.0
  0
VERTEX
  5
4CC
330
4B9
100
AcDbEntity
  8
Visible (ANSI)
100
AcDbVertex
100
AcDb2dVertex
 10
126.4905150872946
 20
91.71073703845509
 30
0.0
  0
VERTEX
  5
4CD
330
4B9
100
AcDbEntity
  8
Visible (ANSI)
100
AcDbVertex
100
AcDb2dVertex
 10
126.4941167470637
 20
91.70717129076873
 30
0.0
  0
VERTEX
  5
4CE
330
4B9
100
AcDbEntity
  8
Visible (ANSI)
100
AcDbVertex
100
AcDb2dVertex
 10
126.49833655508
 20
91.70375299270203
 30
0.0
  0
VERTEX
  5
4CF
330
4B9
100
AcDbEntity
  8
Visible (ANSI)
100
AcDbVertex
100
AcDb2dVertex
 10
126.5031564537418
 20
91.70051001963809
 30
0.0
  0
VERTEX
  5
4D0
330
4B9
100
AcDbEntity
  8
Visible (ANSI)
100
AcDbVertex
100
AcDb2dVertex
 10
126.508555796901
 20
91.69745478675741
 30
0.0
  0
VERTEX
  5
4D1
330
4B9
100
AcDbEntity
  8
Visible (ANSI)
100
AcDbVertex
100
AcDb2dVertex
 10
126.5145114618673
 20
91.69461361429922
 30
0.0
  0
VERTEX
  5
4D2
330
4B9
100
AcDbEntity
  8
Visible (ANSI)
100
AcDbVertex
100
AcDb2dVertex
 10
126.5209979448193
 20
91.69200699863017
 30
0.0
  0
VERTEX
  5
4D3
330
4B9
100
AcDbEntity
  8
Visible (ANSI)
100
AcDbVertex
100
AcDb2dVertex
 10
126.5279874852542
 20
91.68965934412868
 30
0.0
  0
SEQEND
  5
4BC
330
4B9
100
AcDbEntity
  8
Visible (ANSI)
  0
LINE
  5
4D4
330
6C
100
AcDbEntity
  8
Visible (ANSI)
100
AcDbLine
 10
126.9566638207612
 20
43.21133565360016
 30
0.0
 11
127.124608832212
 21
43.30804875356619
 31
0.0
  0
LINE
  5
4D5
330
6C
100
AcDbEntity
  8
Visible (ANSI)
100
AcDbLine
 10
126.6136432036398
 20
91.81951957636222
 30
0.0
 11
126.527987485586
 21
91.7701937288646
 31
0.0
  0
LINE
  5
4D6
330
6C
100
AcDbEntity
  8
Visible (ANSI)
100
AcDbLine
 10
126.5560793149088
 20
91.75401672024703
 30
0.0
 11
126.527987485586
 21
91.7701937288646
 31
0.0
  0
POLYLINE
  5
4D7
330
6C
100
AcDbEntity
  8
Visible (ANSI)
100
AcDb2dPolyline
 66
     1
 10
0.0
 20
0.0
 30
0.0
 70
   128
  0
VERTEX
  5
4D8
330
4D7
100
AcDbEntity
  8
Visible (ANSI)
100
AcDbVertex
100
AcDb2dVertex
 10
157.4197160094944
 20
25.10295101156476
 30
0.0
  0
VERTEX
  5
4D9
330
4D7
100
AcDbEntity
  8
Visible (ANSI)
100
AcDbVertex
100
AcDb2dVertex
 10
157.4182682818413
 20
25.09570243635874
 30
0.0
  0
VERTEX
  5
4DB
330
4D7
100
AcDbEntity
  8
Visible (ANSI)
100
AcDbVertex
100
AcDb2dVertex
 10
157.4172926652645
 20
25.08876151164928
 30
0.0
  0
VERTEX
  5
4DC
330
4D7
100
AcDbEntity
  8
Visible (ANSI)
100
AcDbVertex
100
AcDb2dVertex
 10
157.4167882388388
 20
25.08216087766197
 30
0.0
  0
VERTEX
  5
4DD
330
4D7
100
AcDbEntity
  8
Visible (ANSI)
100
AcDbVertex
100
AcDb2dVertex
 10
157.4167457103455
 20
25.07593539510875
 30
0.0
  0
VERTEX
  5
4DE
330
4D7
100
AcDbEntity
  8
Visible (ANSI)
100
AcDbVertex
100
AcDb2dVertex
 10
157.4171601764802
 20
25.07011465311252
 30
0.0
  0
VERTEX
  5
4DF
330
4D7
100
AcDbEntity
  8
Visible (ANSI)
100
AcDbVertex
100
AcDb2dVertex
 10
157.418024775935
 20
25.06472651372949
 30
0.0
  0
VERTEX
  5
4E0
330
4D7
100
AcDbEntity
  8
Visible (ANSI)
100
AcDbVertex
100
AcDb2dVertex
 10
157.4193243507783
 20
25.05980063247193
 30
0.0
  0
VERTEX
  5
4E1
330
4D7
100
AcDbEntity
  8
Visible (ANSI)
100
AcDbVertex
100
AcDb2dVertex
 10
157.4210503720809
 20
25.05535981978653
 30
0.0
  0
VERTEX
  5
4E2
330
4D7
100
AcDbEntity
  8
Visible (ANSI)
100
AcDbVertex
100
AcDb2dVertex
 10
157.423184006507
 20
25.05142968658008
 30
0.0
  0
VERTEX
  5
4E3
330
4D7
100
AcDbEntity
  8
Visible (ANSI)
100
AcDbVertex
100
AcDb2dVertex
 10
157.4257110170503
 20
25.0480299865686
 30
0.0
  0
VERTEX
  5
4E4
330
4D7
100
AcDbEntity
  8
Visible (ANSI)
100
AcDbVertex
100
AcDb2dVertex
 10
157.4286154990832
 20
25.04517820857665
 30
0.0
  0
VERTEX
  5
4E5
330
4D7
100
AcDbEntity
  8
Visible (ANSI)
100
AcDbVertex
100
AcDb2dVertex
 10
157.4318735666258
 20
25.04289316175357
 30
0.0
  0
VERTEX
  5
4E6
330
4D7
100
AcDbEntity
  8
Visible (ANSI)
100
AcDbVertex
100
AcDb2dVertex
 10
157.4354682987141
 20
25.04118633460749
 30
0.0
  0
VERTEX
  5
4E7
330
4D7
100
AcDbEntity
  8
Visible (ANSI)
100
AcDbVertex
100
AcDb2dVertex
 10
157.4393728557704
 20
25.04007163394619
 30
0.0
  0
VERTEX
  5
4E8
330
4D7
100
AcDbEntity
  8
Visible (ANSI)
100
AcDbVertex
100
AcDb2dVertex
 10
157.4435654301193
 20
25.03955676548488
 30
0.0
  0
VERTEX
  5
4E9
330
4D7
100
AcDbEntity
  8
Visible (ANSI)
100
AcDbVertex
100
AcDb2dVertex
 10
157.44802297374
 20
25.03964685614052
 30
0.0
  0
VERTEX
  5
4EA
330
4D7
100
AcDbEntity
  8
Visible (ANSI)
100
AcDbVertex
100
AcDb2dVertex
 10
157.4527149509089
 20
25.04034811943658
 30
0.0
  0
VERTEX
  5
4EB
330
4D7
100
AcDbEntity
  8
Visible (ANSI)
100
AcDbVertex
100
AcDb2dVertex
 10
157.4576183073829
 20
25.04165925945069
 30
0.0
  0
VERTEX
  5
4EC
330
4D7
100
AcDbEntity
  8
Visible (ANSI)
100
AcDbVertex
100
AcDb2dVertex
 10
157.4627005929924
 20
25.04358125530576
 30
0.0
  0
VERTEX
  5
4ED
330
4D7
100
AcDbEntity
  8
Visible (ANSI)
100
AcDbVertex
100
AcDb2dVertex
 10
157.4679349557147
 20
25.0461088070291
 30
0.0
  0
VERTEX
  5
4EE
330
4D7
100
AcDbEntity
  8
Visible (ANSI)
100
AcDbVertex
100
AcDb2dVertex
 10
157.473293894446
 20
25.04923402186536
 30
0.0
  0
VERTEX
  5
4EF
330
4D7
100
AcDbEntity
  8
Visible (ANSI)
100
AcDbVertex
100
AcDb2dVertex
 10
157.4787430094398
 20
25.05295011086169
 30
0.0
  0
VERTEX
  5
4F0
330
4D7
100
AcDbEntity
  8
Visible (ANSI)
100
AcDbVertex
100
AcDb2dVertex
 10
157.4842538784078
 20
25.05724409166124
 30
0.0
  0
VERTEX
  5
4F1
330
4D7
100
AcDbEntity
  8
Visible (ANSI)
100
AcDbVertex
100
AcDb2dVertex
 10
157.4897978140881
 20
25.06210050667414
 30
0.0
  0
SEQEND
  5
4DA
330
4D7
100
AcDbEntity
  8
Visible (ANSI)
  0
POLYLINE
  5
4F2
330
6C
100
AcDbEntity
  8
Visible (ANSI)
100
AcDb2dPolyline
 66
     1
 10
0.0
 20
0.0
 30
0.0
 70
   128
  0
VERTEX
  5
4F3
330
4F2
100
AcDbEntity
  8
Visible (ANSI)
100
AcDbVertex
100
AcDb2dVertex
 10
126.5807503325773
 20
42.80887312788668
 30
0.0
  0
VERTEX
  5
4F4
330
4F2
100
AcDbEntity
  8
Visible (ANSI)
100
AcDbVertex
100
AcDb2dVertex
 10
126.5773810653869
 20
42.81091037259708
 30
0.0
  0
VERTEX
  5
4F6
330
4F2
100
AcDbEntity
  8
Visible (ANSI)
100
AcDbVertex
100
AcDb2dVertex
 10
126.5740984232448
 20
42.81309165597075
 30
0.0
  0
VERTEX
  5
4F7
330
4F2
100
AcDbEntity
  8
Visible (ANSI)
100
AcDbVertex
100
AcDb2dVertex
 10
126.5709050361807
 20
42.81541515437123
 30
0.0
  0
VERTEX
  5
4F8
330
4F2
100
AcDbEntity
  8
Visible (ANSI)
100
AcDbVertex
100
AcDb2dVertex
 10
126.5678034222199
 20
42.81787888853478
 30
0.0
  0
VERTEX
  5
4F9
330
4F2
100
AcDbEntity
  8
Visible (ANSI)
100
AcDbVertex
100
AcDb2dVertex
 10
126.5647960205698
 20
42.82048073788504
 30
0.0
  0
VERTEX
  5
4FA
330
4F2
100
AcDbEntity
  8
Visible (ANSI)
100
AcDbVertex
100
AcDb2dVertex
 10
126.5618851501368
 20
42.82321841184823
 30
0.0
  0
VERTEX
  5
4FB
330
4F2
100
AcDbEntity
  8
Visible (ANSI)
100
AcDbVertex
100
AcDb2dVertex
 10
126.5590730427125
 20
42.82608949774132
 30
0.0
  0
VERTEX
  5
4FC
330
4F2
100
AcDbEntity
  8
Visible (ANSI)
100
AcDbVertex
100
AcDb2dVertex
 10
126.5563618139361
 20
42.82909142486519
 30
0.0
  0
VERTEX
  5
4FD
330
4F2
100
AcDbEntity
  8
Visible (ANSI)
100
AcDbVertex
100
AcDb2dVertex
 10
126.553753479887
 20
42.83222148844865
 30
0.0
  0
VERTEX
  5
4FE
330
4F2
100
AcDbEntity
  8
Visible (ANSI)
100
AcDbVertex
100
AcDb2dVertex
 10
126.551249923899
 20
42.83547683533391
 30
0.0
  0
VERTEX
  5
4FF
330
4F2
100
AcDbEntity
  8
Visible (ANSI)
100
AcDbVertex
100
AcDb2dVertex
 10
126.5488529463393
 20
42.83885449743898
 30
0.0
  0
VERTEX
  5
500
330
4F2
100
AcDbEntity
  8
Visible (ANSI)
100
AcDbVertex
100
AcDb2dVertex
 10
126.5465642148293
 20
42.84235135829525
 30
0.0
  0
VERTEX
  5
501
330
4F2
100
AcDbEntity
  8
Visible (ANSI)
100
AcDbVertex
100
AcDb2dVertex
 10
126.5443852808376
 20
42.84596417219529
 30
0.0
  0
VERTEX
  5
502
330
4F2
100
AcDbEntity
  8
Visible (ANSI)
100
AcDbVertex
100
AcDb2dVertex
 10
126.5423175796802
 20
42.84968957378537
 30
0.0
  0
VERTEX
  5
503
330
4F2
100
AcDbEntity
  8
Visible (ANSI)
100
AcDbVertex
100
AcDb2dVertex
 10
126.5403624305202
 20
42.85352408765785
 30
0.0
  0
VERTEX
  5
504
330
4F2
100
AcDbEntity
  8
Visible (ANSI)
100
AcDbVertex
100
AcDb2dVertex
 10
126.5385210363682
 20
42.85746409957384
 30
0.0
  0
VERTEX
  5
505
330
4F2
100
AcDbEntity
  8
Visible (ANSI)
100
AcDbVertex
100
AcDb2dVertex
 10
126.5367944591917
 20
42.86150590448099
 30
0.0
  0
VERTEX
  5
506
330
4F2
100
AcDbEntity
  8
Visible (ANSI)
100
AcDbVertex
100
AcDb2dVertex
 10
126.5351836613993
 20
42.86564566325494
 30
0.0
  0
VERTEX
  5
507
330
4F2
100
AcDbEntity
  8
Visible (ANSI)
100
AcDbVertex
100
AcDb2dVertex
 10
126.5336894560602
 20
42.86987945077253
 30
0.0
  0
VERTEX
  5
508
330
4F2
100
AcDbEntity
  8
Visible (ANSI)
100
AcDbVertex
100
AcDb2dVertex
 10
126.5323125566838
 20
42.87420323661598
 30
0.0
  0
VERTEX
  5
509
330
4F2
100
AcDbEntity
  8
Visible (ANSI)
100
AcDbVertex
100
AcDb2dVertex
 10
126.531053519144
 20
42.87861288040611
 30
0.0
  0
VERTEX
  5
50A
330
4F2
100
AcDbEntity
  8
Visible (ANSI)
100
AcDbVertex
100
AcDb2dVertex
 10
126.5299128080517
 20
42.88310417002409
 30
0.0
  0
VERTEX
  5
50B
330
4F2
100
AcDbEntity
  8
Visible (ANSI)
100
AcDbVertex
100
AcDb2dVertex
 10
126.5288907303821
 20
42.88767279298219
 30
0.0
  0
VERTEX
  5
50C
330
4F2
100
AcDbEntity
  8
Visible (ANSI)
100
AcDbVertex
100
AcDb2dVertex
 10
126.527987485254
 20
42.89231434590519
 30
0.0
  0
SEQEND
  5
4F5
330
4F2
100
AcDbEntity
  8
Visible (ANSI)
  0
LINE
  5
50D
330
6C
100
AcDbEntity
  8
Visible (ANSI)
100
AcDbLine
 10
127.0194831011798
 20
43.10326651916399
 30
0.0
 11
127.187108832212
 21
43.19979575776514
 31
0.0
  0
LINE
  5
50E
330
6C
100
AcDbEntity
  8
Visible (ANSI)
100
AcDbLine
 10
157.4897975101502
 20
25.09523618394777
 30
0.0
 11
157.4897975101502
 21
25.06210068208254
 31
0.0
  0
LINE
  5
50F
330
6C
100
AcDbEntity
  8
Visible (ANSI)
100
AcDbLine
 10
157.4897975101502
 20
25.06210068208254
 30
0.0
 11
157.581393864706
 21
25.11484751462112
 31
0.0
  0
LINE
  5
510
330
6C
100
AcDbEntity
  8
Visible (ANSI)
100
AcDbLine
 10
157.6380182846281
 20
25.14745534939477
 30
0.0
 11
157.998030509128
 21
25.35477260137083
 31
0.0
  0
LINE
  5
511
330
6C
100
AcDbEntity
  8
Visible (ANSI)
100
AcDbLine
 10
157.998030509128
 20
25.35544599039432
 30
0.0
 11
157.998030509128
 21
25.35477260137083
 31
0.0
  0
LINE
  5
512
330
6C
100
AcDbEntity
  8
Visible (ANSI)
100
AcDbLine
 10
157.5491106073125
 20
73.90690974117989
 30
0.0
 11
157.5560221283721
 21
73.90233462053562
 31
0.0
  0
LINE
  5
513
330
6C
100
AcDbEntity
  8
Visible (ANSI)
100
AcDbLine
 10
157.4897978140882
 20
74.01692534659473
 30
0.0
 11
157.490287582454
 21
74.00885373930659
 31
0.0
  0
LINE
  5
514
330
6C
100
AcDbEntity
  8
Visible (ANSI)
100
AcDbLine
 10
158.1489188567764
 20
74.14625424129265
 30
0.0
 11
158.1489188567763
 21
25.44233681092999
 31
0.0
  0
LINE
  5
515
330
6C
100
AcDbEntity
  8
Visible (ANSI)
100
AcDbLine
 10
127.1871088322121
 20
92.15042985771203
 30
0.0
 11
157.9980305091281
 21
74.40760009192304
 31
0.0
  0
LINE
  5
516
330
6C
100
AcDbEntity
  8
Visible (ANSI)
100
AcDbLine
 10
127.124608832212
 20
43.30804875356619
 30
0.0
 11
127.124608832212
 21
43.34256045698842
 31
0.0
  0
LINE
  5
517
330
6C
100
AcDbEntity
  8
Visible (ANSI)
100
AcDbLine
 10
127.124608832212
 20
66.81907438241594
 30
0.0
 11
127.124608832212
 21
67.15362046802733
 31
0.0
  0
LINE
  5
518
330
6C
100
AcDbEntity
  8
Visible (ANSI)
100
AcDbLine
 10
127.1246088322121
 20
90.63013439345485
 30
0.0
 11
127.1246088322121
 21
90.96468047906624
 31
0.0
  0
LINE
  5
519
330
6C
100
AcDbEntity
  8
Visible (ANSI)
100
AcDbLine
 10
157.090995510743
 20
25.97929270899918
 30
0.0
 11
156.8008303047429
 21
26.14638773809312
 31
0.0
  0
LINE
  5
51A
330
6C
100
AcDbEntity
  8
Visible (ANSI)
100
AcDbLine
 10
142.153364758175
 20
34.58130216286104
 30
0.0
 11
141.8631995521749
 21
34.74839719195498
 31
0.0
  0
LINE
  5
51B
330
6C
100
AcDbEntity
  8
Visible (ANSI)
100
AcDbLine
 10
127.2157340056069
 20
43.18331161672293
 30
0.0
 11
127.187108832212
 21
43.19979575776514
 31
0.0
  0
SPLINE
  5
51C
330
6C
100
AcDbEntity
  8
Visible (ANSI)
100
AcDbSpline
210
0.0
220
0.0
230
1.0
 70
     8
 71
     3
 72
    11
 73
     7
 74
     0
 42
0.0000000001
 43
0.0000000001
 40
0.0
 40
0.0
 40
0.0
 40
0.0
 40
0.9920593819024132
 40
0.9920593819024132
 40
0.9920593819024132
 40
1.570796326794898
 40
1.570796326794898
 40
1.570796326794898
 40
1.570796326794898
 10
77.33150098091677
 20
111.1155219064418
 30
0.0
 10
77.38317074039084
 20
111.1155219064418
 30
0.0
 10
77.43404466609496
 20
111.1430527580054
 30
0.0
 10
77.4623063195036
 20
111.1863083124547
 30
0.0
 10
77.4787932992648
 20
111.2115422731312
 30
0.0
 10
77.48775098091676
 20
111.2416293572286
 30
0.0
 10
77.48775098091676
 20
111.2717719064417
 30
0.0
  0
LINE
  5
51D
330
6C
100
AcDbEntity
  8
Visible (ANSI)
100
AcDbLine
 10
77.36275098091676
 20
111.2717719064417
 30
0.0
 11
77.36275098091677
 21
111.9905219064417
 31
0.0
  0
LINE
  5
51E
330
6C
100
AcDbEntity
  8
Visible (ANSI)
100
AcDbLine
 10
77.36275098091676
 20
111.2717719064417
 30
0.0
 11
77.48775098091676
 21
111.2717719064417
 31
0.0
  0
SPLINE
  5
51F
330
6C
100
AcDbEntity
  8
Visible (ANSI)
100
AcDbSpline
210
0.0
220
0.0
230
1.0
 70
     8
 71
     3
 72
    11
 73
     7
 74
     0
 42
0.0000000001
 43
0.0000000001
 40
0.0
 40
0.0
 40
0.0
 40
0.0
 40
1.483474787626232
 40
1.483474787626232
 40
1.483474787626232
 40
1.570796326794898
 40
1.570796326794898
 40
1.570796326794898
 40
1.570796326794898
 10
77.33150098091677
 20
111.2405219064418
 30
0.0
 10
77.34695384328786
 20
111.2405219064418
 30
0.0
 10
77.36128426162996
 20
111.2536525895281
 30
0.0
 10
77.36263191517743
 20
111.2690465748917
 30
0.0
 10
77.36271124189267
 20
111.2699527085902
 30
0.0
 10
77.36275098091676
 20
111.2708623070754
 30
0.0
 10
77.36275098091676
 20
111.2717719064417
 30
0.0
  0
LINE
  5
520
330
6C
100
AcDbEntity
  8
Visible (ANSI)
100
AcDbLine
 10
77.33150098091677
 20
111.2405219064418
 30
0.0
 11
77.33150098091677
 21
111.2353965045684
 31
0.0
  0
LINE
  5
521
330
6C
100
AcDbEntity
  8
Visible (ANSI)
100
AcDbLine
 10
77.33150098091677
 20
111.2353965045684
 30
0.0
 11
77.33150098091677
 21
111.1155219064418
 31
0.0
  0
LINE
  5
522
330
6C
100
AcDbEntity
  8
Visible (ANSI)
100
AcDbLine
 10
77.48775098091676
 20
111.2717719064417
 30
0.0
 11
77.48775098091676
 21
111.9905219064417
 31
0.0
  0
LINE
  5
523
330
6C
100
AcDbEntity
  8
Visible (ANSI)
100
AcDbLine
 10
77.36275098091677
 20
111.9905219064417
 30
0.0
 11
77.48775098091676
 21
111.9905219064417
 31
0.0
  0
SPLINE
  5
524
330
6C
100
AcDbEntity
  8
Visible (ANSI)
100
AcDbSpline
210
0.0
220
0.0
230
1.0
 70
     8
 71
     3
 72
    11
 73
     7
 74
     0
 42
0.0000000001
 43
0.0000000001
 40
0.0
 40
0.0
 40
0.0
 40
0.0
 40
0.9920593819026196
 40
0.9920593819026196
 40
0.9920593819026196
 40
1.570796326794898
 40
1.570796326794898
 40
1.570796326794898
 40
1.570796326794898
 10
33.64400098091675
 20
111.1155219064418
 30
0.0
 10
33.65602983381639
 20
111.1155219064418
 30
0.0
 10
33.66805868671603
 20
111.1430527580054
 30
0.0
 10
33.68008753961567
 20
111.1863083124548
 30
0.0
 10
33.6871048025988
 20
111.2115422731312
 30
0.0
 10
33.69412206558195
 20
111.2416293572286
 30
0.0
 10
33.70113932856508
 20
111.2717719064418
 30
0.0
  0
SPLINE
  5
525
330
6C
100
AcDbEntity
  8
Visible (ANSI)
100
AcDbSpline
210
0.0
220
0.0
230
1.0
 70
     8
 71
     3
 72
    11
 73
     7
 74
     0
 42
0.0000000001
 43
0.0000000001
 40
0.0
 40
0.0
 40
0.0
 40
0.0
 40
0.9920593819030406
 40
0.9920593819030406
 40
0.9920593819030406
 40
1.570796326794898
 40
1.570796326794898
 40
1.570796326794898
 40
1.570796326794898
 10
77.27436263326843
 20
111.2717719064418
 30
0.0
 10
77.28639148616808
 20
111.2201021469677
 30
0.0
 10
77.29842033906773
 20
111.1692282212636
 30
0.0
 10
77.31044919196738
 20
111.1409665678549
 30
0.0
 10
77.31746645495049
 20
111.1244795880937
 30
0.0
 10
77.32448371793364
 20
111.1155219064418
 30
0.0
 10
77.33150098091677
 20
111.1155219064418
 30
0.0
  0
LINE
  5
526
330
6C
100
AcDbEntity
  8
Visible (ANSI)
100
AcDbLine
 10
77.27436263326843
 20
111.9905219064418
 30
0.0
 11
77.27436263326843
 21
111.2717719064418
 31
0.0
  0
SPLINE
  5
527
330
6C
100
AcDbEntity
  8
Visible (ANSI)
100
AcDbSpline
210
0.0
220
0.0
230
1.0
 70
     8
 71
     3
 72
    11
 73
     7
 74
     0
 42
0.0000000001
 43
0.0000000001
 40
0.0
 40
0.0
 40
0.0
 40
0.0
 40
1.483474787630861
 40
1.483474787630861
 40
1.483474787630861
 40
1.570796326794898
 40
1.570796326794898
 40
1.570796326794898
 40
1.570796326794898
 10
77.33150098091677
 20
111.2405219064418
 30
0.0
 10
77.31351365039374
 20
111.2405219064418
 30
0.0
 10
77.29552631987075
 20
111.2536525895281
 30
0.0
 10
77.27753898934771
 20
111.2690465748919
 30
0.0
 10
77.27648020398797
 20
111.2699527085903
 30
0.0
 10
77.27542141862819
 20
111.2708623070755
 30
0.0
 10
77.27436263326843
 20
111.2717719064418
 30
0.0
  0
SPLINE
  5
528
330
6C
100
AcDbEntity
  8
Visible (ANSI)
100
AcDbSpline
210
0.0
220
0.0
230
1.0
 70
     8
 71
     3
 72
    11
 73
     7
 74
     0
 42
0.0000000001
 43
0.0000000001
 40
0.0
 40
0.0
 40
0.0
 40
0.0
 40
1.483474787630861
 40
1.483474787630861
 40
1.483474787630861
 40
1.570796326794898
 40
1.570796326794898
 40
1.570796326794898
 40
1.570796326794898
 10
33.64400098091675
 20
111.2405219064418
 30
0.0
 10
33.66198831143976
 20
111.2405219064418
 30
0.0
 10
33.67997564196278
 20
111.2536525895281
 30
0.0
 10
33.69796297248579
 20
111.2690465748919
 30
0.0
 10
33.69902175784555
 20
111.2699527085903
 30
0.0
 10
33.70008054320531
 20
111.2708623070755
 30
0.0
 10
33.70113932856508
 20
111.2717719064418
 30
0.0
  0
LINE
  5
529
330
6C
100
AcDbEntity
  8
Visible (ANSI)
100
AcDbLine
 10
33.64400098091675
 20
111.2405219064418
 30
0.0
 11
33.64400098091675
 21
111.2353965045684
 31
0.0
  0
LINE
  5
52A
330
6C
100
AcDbEntity
  8
Visible (ANSI)
100
AcDbLine
 10
33.64400098091675
 20
111.2353965045684
 30
0.0
 11
33.64400098091675
 21
111.1155219064418
 31
0.0
  0
LINE
  5
52B
330
6C
100
AcDbEntity
  8
Visible (ANSI)
100
AcDbLine
 10
33.70113932856508
 20
111.2717719064418
 30
0.0
 11
33.70113932856507
 21
111.9905219064418
 31
0.0
  0
SPLINE
  5
52C
330
6C
100
AcDbEntity
  8
Visible (ANSI)
100
AcDbSpline
210
0.0
220
0.0
230
1.0
 70
     8
 71
     3
 72
    11
 73
     7
 74
     0
 42
0.0000000001
 43
0.0000000001
 40
0.0
 40
0.0
 40
0.0
 40
0.0
 40
0.9920593819024885
 40
0.9920593819024885
 40
0.9920593819024885
 40
1.570796326794913
 40
1.570796326794913
 40
1.570796326794913
 40
1.570796326794913
 10
33.48775098091675
 20
111.2717719064417
 30
0.0
 10
33.48775098091675
 20
111.2201021469676
 30
0.0
 10
33.51528183248039
 20
111.1692282212636
 30
0.0
 10
33.55853738692971
 20
111.1409665678549
 30
0.0
 10
33.58377134760618
 20
111.1244795880937
 30
0.0
 10
33.61385843170361
 20
111.1155219064418
 30
0.0
 10
33.64400098091675
 20
111.1155219064418
 30
0.0
  0
LINE
  5
52D
330
6C
100
AcDbEntity
  8
Visible (ANSI)
100
AcDbLine
 10
33.61275098091676
 20
111.2717719064417
 30
0.0
 11
33.61275098091676
 21
111.9905219064417
 31
0.0
  0
LINE
  5
52E
330
6C
100
AcDbEntity
  8
Visible (ANSI)
100
AcDbLine
 10
33.48775098091675
 20
111.9905219064417
 30
0.0
 11
33.48775098091675
 21
111.2717719064417
 31
0.0
  0
LINE
  5
52F
330
6C
100
AcDbEntity
  8
Visible (ANSI)
100
AcDbLine
 10
33.61275098091676
 20
111.2717719064417
 30
0.0
 11
33.48775098091675
 21
111.2717719064417
 31
0.0
  0
LINE
  5
530
330
6C
100
AcDbEntity
  8
Visible (ANSI)
100
AcDbLine
 10
33.61275098091676
 20
111.9905219064417
 30
0.0
 11
33.48775098091675
 21
111.9905219064417
 31
0.0
  0
SPLINE
  5
531
330
6C
100
AcDbEntity
  8
Visible (ANSI)
100
AcDbSpline
210
0.0
220
0.0
230
1.0
 70
     8
 71
     3
 72
    11
 73
     7
 74
     0
 42
0.0000000001
 43
0.0000000001
 40
0.0
 40
0.0
 40
0.0
 40
0.0
 40
1.483474787626956
 40
1.483474787626956
 40
1.483474787626956
 40
1.570796326794913
 40
1.570796326794913
 40
1.570796326794913
 40
1.570796326794913
 10
33.64400098091675
 20
111.2405219064418
 30
0.0
 10
33.62854811854564
 20
111.2405219064418
 30
0.0
 10
33.61421770020354
 20
111.2536525895281
 30
0.0
 10
33.61287004665608
 20
111.2690465748917
 30
0.0
 10
33.61279071994085
 20
111.2699527085902
 30
0.0
 10
33.61275098091676
 20
111.2708623070754
 30
0.0
 10
33.61275098091676
 20
111.2717719064417
 30
0.0
  0
LINE
  5
532
330
6C
100
AcDbEntity
  8
Visible (ANSI)
100
AcDbLine
 10
77.33150098091677
 20
111.1155219064418
 30
0.0
 11
33.64400098091675
 21
111.1155219064418
 31
0.0
  0
LINE
  5
533
330
6C
100
AcDbEntity
  8
Hidden (ANSI)
100
AcDbLine
 10
33.64400098091675
 20
111.2405219064418
 30
0.0
 11
77.33150098091677
 21
111.2405219064418
 31
0.0
  0
LINE
  5
534
330
6C
100
AcDbEntity
  8
Visible (ANSI)
100
AcDbLine
 10
33.70113932856507
 20
111.9905219064418
 30
0.0
 11
77.27436263326843
 21
111.9905219064418
 31
0.0
  0
LINE
  5
535
330
6C
100
AcDbEntity
  8
Hidden (ANSI)
100
AcDbLine
 10
55.76925098091677
 20
111.2405219064415
 30
0.0
 11
55.76925098091677
 21
111.1155219064416
 31
0.0
  0
LINE
  5
536
330
6C
100
AcDbEntity
  8
Hidden (ANSI)
100
AcDbLine
 10
55.20625098091676
 20
111.2405219064415
 30
0.0
 11
55.20625098091676
 21
111.1155219064416
 31
0.0
  0
LINE
  5
537
330
6C
100
AcDbEntity
  8
Hidden (ANSI)
100
AcDbLine
 10
76.89425098091678
 20
111.2405219064415
 30
0.0
 11
76.89425098091678
 21
111.1155219064416
 31
0.0
  0
LINE
  5
538
330
6C
100
AcDbEntity
  8
Hidden (ANSI)
100
AcDbLine
 10
76.33125098091676
 20
111.2405219064415
 30
0.0
 11
76.33125098091676
 21
111.1155219064416
 31
0.0
  0
LINE
  5
539
330
6C
100
AcDbEntity
  8
Hidden (ANSI)
100
AcDbLine
 10
34.64425098091676
 20
111.2405219064415
 30
0.0
 11
34.64425098091676
 21
111.1155219064416
 31
0.0
  0
LINE
  5
53A
330
6C
100
AcDbEntity
  8
Hidden (ANSI)
100
AcDbLine
 10
34.08125098091676
 20
111.2405219064415
 30
0.0
 11
34.08125098091676
 21
111.1155219064416
 31
0.0
  0
MTEXT
  5
53B
330
6C
100
AcDbEntity
  8
Symbol (ANSI)
100
AcDbMText
 10
51.19985402357464
 20
105.4370803142103
 30
0.0
 40
1.320000016313838
 41
0.0
 46
0.0
 71
     7
 72
     1
  1
TOP VIEW
  7
Text Style153
 73
     1
 44
1.0
  0
LINE
  5
53C
330
6C
100
AcDbEntity
  8
Symbol (ANSI)
370
    30
100
AcDbLine
 10
51.20091002629106
 20
105.1678923030865
 30
0.0
 11
59.5295322773361
 21
105.1678923030865
 31
0.0
  0
LINE
  5
53D
330
6C
100
AcDbEntity
  8
Center Mark (ANSI)
  6
Continuous
100
AcDbLine
 10
34.36275098090147
 20
89.3622827937532
 30
0.0
 11
34.36275098090147
 21
86.04928279375322
 31
0.0
  0
LINE
  5
53E
330
6C
100
AcDbEntity
  8
Center Mark (ANSI)
  6
Continuous
100
AcDbLine
 10
76.61275098090148
 20
89.3622827937532
 30
0.0
 11
76.61275098090148
 21
86.04928279375322
 31
0.0
  0
LINE
  5
53F
330
6C
100
AcDbEntity
  8
Centerline (ANSI)
  6
Continuous
100
AcDbLine
 10
32.70625098090147
 20
87.70578279375321
 30
0.0
 11
78.26925098090147
 21
87.70578279375321
 31
0.0
  0
LINE
  5
540
330
6C
100
AcDbEntity
  8
Center Mark (ANSI)
  6
Continuous
100
AcDbLine
 10
78.26925098090147
 20
87.70578279375321
 30
0.0
 11
74.95625098090148
 21
87.70578279375321
 31
0.0
  0
LINE
  5
541
330
6C
100
AcDbEntity
  8
Center Mark (ANSI)
  6
Continuous
100
AcDbLine
 10
78.26925098090147
 20
29.45578279375323
 30
0.0
 11
74.95625098090148
 21
29.45578279375323
 31
0.0
  0
LINE
  5
542
330
6C
100
AcDbEntity
  8
Centerline (ANSI)
  6
Continuous
100
AcDbLine
 10
76.61275098090148
 20
89.3622827937532
 30
0.0
 11
76.61275098090148
 21
27.79928279375323
 31
0.0
  0
LINE
  5
543
330
6C
100
AcDbEntity
  8
Center Mark (ANSI)
  6
Continuous
100
AcDbLine
 10
76.61275098090148
 20
27.79928279375323
 30
0.0
 11
76.61275098090148
 21
31.11228279375322
 31
0.0
  0
LINE
  5
544
330
6C
100
AcDbEntity
  8
Center Mark (ANSI)
  6
Continuous
100
AcDbLine
 10
34.36275098090146
 20
27.79928279375323
 30
0.0
 11
34.36275098090146
 21
31.11228279375322
 31
0.0
  0
LINE
  5
545
330
6C
100
AcDbEntity
  8
Centerline (ANSI)
  6
Continuous
100
AcDbLine
 10
78.26925098090147
 20
29.45578279375323
 30
0.0
 11
32.70625098090147
 21
29.45578279375323
 31
0.0
  0
LINE
  5
546
330
6C
100
AcDbEntity
  8
Center Mark (ANSI)
  6
Continuous
100
AcDbLine
 10
32.70625098090147
 20
29.45578279375323
 30
0.0
 11
36.01925098090146
 21
29.45578279375323
 31
0.0
  0
LINE
  5
547
330
6C
100
AcDbEntity
  8
Center Mark (ANSI)
  6
Continuous
100
AcDbLine
 10
32.70625098090147
 20
87.70578279375321
 30
0.0
 11
36.01925098090147
 21
87.70578279375321
 31
0.0
  0
LINE
  5
548
330
6C
100
AcDbEntity
  8
Centerline (ANSI)
  6
Continuous
100
AcDbLine
 10
34.36275098090146
 20
27.79928279375323
 30
0.0
 11
34.36275098090147
 21
89.3622827937532
 31
0.0
  0
LINE
  5
549
330
6C
100
AcDbEntity
  8
Center Mark (ANSI)
  6
Continuous
100
AcDbLine
 10
34.36275098090148
 20
60.23728279375323
 30
0.0
 11
34.36275098090148
 21
56.92428279375322
 31
0.0
  0
LINE
  5
54A
330
6C
100
AcDbEntity
  8
Center Mark (ANSI)
  6
Continuous
100
AcDbLine
 10
76.61275098090148
 20
60.23728279375323
 30
0.0
 11
76.61275098090148
 21
56.92428279375323
 31
0.0
  0
LINE
  5
54B
330
6C
100
AcDbEntity
  8
Centerline (ANSI)
  6
Continuous
100
AcDbLine
 10
32.70625098090148
 20
58.58078279375322
 30
0.0
 11
78.26925098090147
 21
58.58078279375323
 31
0.0
  0
DIMENSION
  5
54C
330
6C
100
AcDbEntity
  8
Dimension (ANSI)
100
AcDbDimension
280
     0
  2
*D4
 10
77.48775098090146
 20
99.39738022875646
 30
0.0
 11
55.48775098090146
 21
99.39738022875646
 31
0.0
 70
   160
  1
<>
 42
44.0
 73
     0
 74
     0
 75
     0
  3
Default (ANSI)
100
AcDbAlignedDimension
 13
33.48775098090147
 23
88.3673944461049
 33
0.0
 14
77.48775098090146
 24
88.3673944461049
 34
0.0
100
AcDbRotatedDimension
1001
ACAD
1000
DSTYLE
1002
{
1070
   289
1070
     1
1070
    73
1070
     0
1070
    74
1070
     0
1070
   271
1070
     2
1070
   272
1070
     2
1070
    48
1040
0.0
1070
    47
1040
0.0
1002
}
  0
DIMENSION
  5
638
330
6C
100
AcDbEntity
  8
Dimension (ANSI)
100
AcDbDimension
280
     0
  2
*D5
 10
34.36275098090147
 20
93.1209435808569
 30
0.0
 11
28.72463414106832
 21
93.1209435808569
 31
0.0
 70
   160
  1
<>
 42
0.875
 73
     0
 74
     0
 75
     0
  3
Default (ANSI)
100
AcDbAlignedDimension
 13
33.48775098090147
 23
88.3673944461049
 33
0.0
 14
34.36275098090147
 24
89.3622827937532
 34
0.0
100
AcDbRotatedDimension
1001
ACAD
1000
DSTYLE
1002
{
1070
   289
1070
     1
1070
    73
1070
     0
1070
    74
1070
     0
1070
   271
1070
     2
1070
   272
1070
     2
1070
    48
1040
0.0
1070
    47
1040
0.0
1002
}
  0
DIMENSION
  5
722
330
6C
100
AcDbEntity
  8
Dimension (ANSI)
100
AcDbDimension
280
     0
  2
*D6
 10
55.48775098090147
 20
93.24594358085688
 30
0.0
 11
44.92525098090147
 21
93.24594358085688
 31
0.0
 70
   160
  1
<>
 42
21.12500000000001
 73
     0
 74
     0
 75
     0
  3
Default (ANSI)
100
AcDbAlignedDimension
 13
34.36275098090147
 23
89.3622827937532
 33
0.0
 14
55.48775098090147
 24
89.3622827937532
 34
0.0
 50
180.0
100
AcDbRotatedDimension
1001
ACAD
1000
DSTYLE
1002
{
1070
   289
1070
     1
1070
    73
1070
     0
1070
    74
1070
     0
1070
   271
1070
     2
1070
   272
1070
     2
1070
    48
1040
0.0
1070
    47
1040
0.0
1002
}
  0
DIMENSION
  5
80C
330
6C
100
AcDbEntity
  8
Dimension (ANSI)
100
AcDbDimension
280
     0
  2
*D7
 10
32.06861125644038
 20
29.45578279375323
 30
0.0
 11
28.94759019379779
 21
25.42380846904969
 31
0.0
 70
   160
  1
<>
 42
0.875
 73
     0
 74
     0
 75
     0
  3
Default (ANSI)
100
AcDbAlignedDimension
 13
33.7011393285498
 23
28.58078279375323
 33
0.0
 14
32.70625098090147
 24
29.45578279375323
 34
0.0
 50
90.0
100
AcDbRotatedDimension
1001
ACAD
1000
DSTYLE
1002
{
1070
   289
1070
     1
1070
   271
1070
     2
1070
   272
1070
     2
1070
    48
1040
0.0
1070
    47
1040
0.0
1002
}
  0
DIMENSION
  5
90C
330
6C
100
AcDbEntity
  8
Dimension (ANSI)
100
AcDbDimension
280
     0
  2
*D8
 10
29.02624927871683
 20
58.58078279375322
 30
0.0
 11
29.02624927871682
 21
41.01828279375323
 31
0.0
 70
   160
  1
<>
 42
29.125
 73
     0
 74
     0
 75
     0
  3
Default (ANSI)
100
AcDbAlignedDimension
 13
32.70625098090147
 23
29.45578279375323
 33
0.0
 14
32.70625098090148
 24
58.58078279375322
 34
0.0
 50
90.0
100
AcDbRotatedDimension
1001
ACAD
1000
DSTYLE
1002
{
1070
   289
1070
     1
1070
   271
1070
     2
1070
   272
1070
     2
1070
    48
1040
0.0
1070
    47
1040
0.0
1002
}
  0
DIMENSION
  5
9F6
330
6C
100
AcDbEntity
  8
Dimension (ANSI)
100
AcDbDimension
280
     0
  2
*D9
 10
21.68262893365739
 20
87.70578279375323
 30
0.0
 11
21.68262893365738
 21
58.58078279375321
 31
0.0
 70
   160
  1
<>
 42
58.25
 73
     0
 74
     0
 75
     0
  3
Default (ANSI)
100
AcDbAlignedDimension
 13
32.70625098090147
 23
29.45578279375323
 33
0.0
 14
32.70625098090147
 24
87.70578279375321
 34
0.0
 50
90.0
100
AcDbRotatedDimension
1001
ACAD
1000
DSTYLE
1002
{
1070
   289
1070
     1
1070
   271
1070
     2
1070
   272
1070
     2
1070
    48
1040
0.0
1070
    47
1040
0.0
1002
}
  0
DIMENSION
  5
AE0
330
6C
100
AcDbEntity
  8
Dimension (ANSI)
100
AcDbDimension
280
     0
  2
*D10
 10
14.58033035863356
 20
88.58078279375323
 30
0.0
 11
14.58033035863354
 21
58.58078279375322
 31
0.0
 70
   160
  1
<>
 42
60.0
 73
     0
 74
     0
 75
     0
  3
Default (ANSI)
100
AcDbAlignedDimension
 13
33.7011393285498
 23
28.58078279375323
 33
0.0
 14
33.70113932854979
 24
88.58078279375321
 34
0.0
 50
90.0
100
AcDbRotatedDimension
1001
ACAD
1000
DSTYLE
1002
{
1070
   289
1070
     1
1070
   271
1070
     2
1070
   272
1070
     2
1070
    48
1040
0.0
1070
    47
1040
0.0
1002
}
  0
DIMENSION
  5
BCA
330
6C
100
AcDbEntity
  8
Dimension (ANSI)
100
AcDbDimension
280
     0
  2
*D11
 10
76.44074110408848
 20
29.6786164812396
 30
0.0
 11
83.56000767259661
 21
26.46846242360501
 31
0.0
 70
   163
  1
<>{\P(8 PL.)}
 71
     4
 42
0.5629999999999964
 73
     0
 74
     0
 75
     0
  3
Default (ANSI)
100
AcDbDiametricDimension
 15
76.78476085771452
 25
29.23294910626687
 35
0.0
 40
0.0
1001
ACAD
1000
DSTYLE
1002
{
1070
   144
1040
0.9999999999999957
1070
   271
1070
     3
1070
   272
1070
     3
1070
    48
1040
0.0
1070
    47
1040
0.0
1002
}
1001
ACAD_DSTYLE_DIMRADIAL_EXTENSION
1070
   387
1070
     1
1070
   388
1040
0.0
1070
   390
1040
0.0
  0
DIMENSION
  5
C85
330
6C
100
AcDbEntity
  8
Dimension (ANSI)
100
AcDbDimension
280
     0
  2
*D12
 10
68.87522422596321
 20
111.1155219064418
 30
0.0
 11
72.04810559926362
 21
116.6324962494984
 31
0.0
 70
   160
  1
<>{\PTYP.}
 71
     5
 42
0.875000000000071
 73
     0
 74
     0
 75
     0
  3
Default (ANSI)
100
AcDbAlignedDimension
 13
72.04810559926362
 23
111.9905219064418
 33
0.0
 14
72.0326191393016
 24
111.1155219064418
 34
0.0
 50
270.0
100
AcDbRotatedDimension
1001
ACAD
1000
DSTYLE
1002
{
1070
   289
1070
     1
1070
   271
1070
     2
1070
    76
1070
     1
1070
    75
1070
     1
1070
   272
1070
     2
1070
    48
1040
0.0
1070
    47
1040
0.0
1002
}
  0
DIMENSION
  5
D8E
330
6C
100
AcDbEntity
  8
Dimension (ANSI)
100
AcDbDimension
280
     0
  2
*D13
 10
102.9498518135625
 20
85.55779780641094
 30
0.0
 11
108.6898568331747
 21
85.55779780641094
 31
0.0
 70
   160
  1
<>{\PTYP.}
 71
     4
 42
0.8750000000000426
 73
     0
 74
     0
 75
     0
  3
Default (ANSI)
100
AcDbAlignedDimension
 13
103.8248518135625
 23
85.55779780641094
 33
0.0
 14
102.9498518135625
 24
85.56987659856515
 34
0.0
 50
180.0
100
AcDbRotatedDimension
1001
ACAD
1000
DSTYLE
1002
{
1070
   289
1070
     1
1070
    73
1070
     0
1070
    74
1070
     0
1070
   271
1070
     2
1070
    76
1070
     1
1070
    75
1070
     1
1070
   272
1070
     2
1070
    48
1040
0.0
1070
    47
1040
0.0
1002
}
  0
LINE
  5
E7D
330
6C
100
AcDbEntity
  8
Center Mark (ANSI)
  6
Continuous
100
AcDbLine
 10
57.14425098090147
 20
87.70578279375321
 30
0.0
 11
53.83125098090147
 21
87.70578279375321
 31
0.0
  0
LINE
  5
E7E
330
6C
100
AcDbEntity
  8
Center Mark (ANSI)
  6
Continuous
100
AcDbLine
 10
57.14425098090152
 20
29.45578279375319
 30
0.0
 11
53.83125098090151
 21
29.45578279375319
 31
0.0
  0
LINE
  5
E7F
330
6C
100
AcDbEntity
  8
Centerline (ANSI)
  6
Continuous
100
AcDbLine
 10
55.48775098090147
 20
89.3622827937532
 30
0.0
 11
55.48775098090152
 21
27.79928279375319
 31
0.0
  0
DIMENSION
  5
E80
330
6C
100
AcDbEntity
  8
Dimension (ANSI)
100
AcDbDimension
280
     0
  2
*D14
 10
76.61275098090148
 20
96.47000646256655
 30
0.0
 11
55.48775098090146
 21
96.47000646256655
 31
0.0
 70
   160
  1
<>
 42
42.25000000000001
 73
     0
 74
     0
 75
     0
  3
Default (ANSI)
100
AcDbAlignedDimension
 13
34.36275098090147
 23
89.3622827937532
 33
0.0
 14
76.61275098090148
 24
89.3622827937532
 34
0.0
 50
180.0
100
AcDbRotatedDimension
1001
ACAD
1000
DSTYLE
1002
{
1070
   289
1070
     1
1070
    73
1070
     0
1070
    74
1070
     0
1070
   271
1070
     2
1070
   272
1070
     2
1070
    48
1040
0.0
1070
    47
1040
0.0
1002
}
  0
MTEXT
  5
F6A
102
{ACAD_XDICTIONARY
360
F71
102
}
330
6C
100
AcDbEntity
  8
Symbol (ANSI)
100
AcDbMText
 10
104.1518326257652
 20
10.19188739601542
 30
0.0
 40
1.100000035105727
 41
81.21725818303628
 46
0.0
 71
     4
 72
     1
  3
{\fRomanS|b0|i0|c0|p2;\H2x;PART#: WA72P48F1\P(DATA SUBJECT TO CHANGE WITHOUT NOTICE)\H1.6157x; \H0.61894x;\P \H1.352x; \H0.73963x;\P\H0.6x;THIS DRAWING IS PROPERTY OF HUBBELL INC. WIEGMANN\H1.5633x; \H0.63966x;\PALL INFORMATION IS PROPRIETARY AND NOT
  1
 TO BE DUPLICATED\H1.234x; \H0.81039x;\P\H1.2571x; }
  7
Note Text (ANSI)
 73
     1
 44
0.8026435375213623
  0
ENDSEC
  0
SECTION
  2
OBJECTS
  0
DICTIONARY
  5
C
330
0
100
AcDbDictionary
281
     1
  3
ACAD_CIP_PREVIOUS_PRODUCT_INFO
350
F6C
  3
ACAD_COLOR
350
63
  3
ACAD_GROUP
350
D
  3
ACAD_LAYOUT
350
62
  3
ACAD_MATERIAL
350
10
  3
ACAD_MLEADERSTYLE
350
66
  3
ACAD_MLINESTYLE
350
5F
  3
ACAD_PLOTSETTINGS
350
61
  3
ACAD_PLOTSTYLENAME
350
E
  3
ACAD_SCALELIST
350
42
  3
ACAD_TABLESTYLE
350
64
  3
ACAD_VISUALSTYLE
350
29
  3
ACDB_RECOMPOSE_DATA
350
F73
  3
AcDbVariableDictionary
350
76
  0
DICTIONARY
  5
F71
330
F6A
100
AcDbDictionary
280
     1
281
     1
  3
ACAD_MTEXT_2008_RT
360
F72
  0
XRECORD
  5
F6C
102
{ACAD_REACTORS
330
C
102
}
330
C
100
AcDbXrecord
280
     1
300
INVNTOR
300
2012
300
PDSP_F_S
  0
DICTIONARY
  5
63
102
{ACAD_REACTORS
330
C
102
}
330
C
100
AcDbDictionary
281
     1
  0
DICTIONARY
  5
D
102
{ACAD_REACTORS
330
C
102
}
330
C
100
AcDbDictionary
281
     1
  0
DICTIONARY
  5
62
102
{ACAD_REACTORS
330
C
102
}
330
C
100
AcDbDictionary
281
     1
  3
Layout1
350
6B
  3
Layout2
350
73
  3
Model
350
6F
  0
DICTIONARY
  5
10
102
{ACAD_REACTORS
330
C
102
}
330
C
100
AcDbDictionary
281
     1
  3
ByBlock
350
19
  3
ByLayer
350
11
  3
Global
350
21
  0
DICTIONARY
  5
66
102
{ACAD_REACTORS
330
C
102
}
330
C
100
AcDbDictionary
281
     1
  3
Standard
350
67
  0
DICTIONARY
  5
5F
102
{ACAD_REACTORS
330
C
102
}
330
C
100
AcDbDictionary
281
     1
  3
Standard
350
60
  0
DICTIONARY
  5
61
102
{ACAD_REACTORS
330
C
102
}
330
C
100
AcDbDictionary
281
     1
  0
ACDBDICTIONARYWDFLT
  5
E
102
{ACAD_REACTORS
330
C
102
}
330
C
100
AcDbDictionary
281
     1
  3
Normal
350
F
100
AcDbDictionaryWithDefault
340
F
  0
DICTIONARY
  5
42
102
{ACAD_REACTORS
330
C
102
}
330
C
100
AcDbDictionary
281
     1
  3
A0
350
43
  3
A1
350
44
  3
A2
350
45
  3
A3
350
46
  3
A4
350
47
  3
A5
350
48
  3
A6
350
49
  3
A7
350
4A
  3
A8
350
4B
  3
A9
350
4C
  3
B0
350
4D
  3
B1
350
4E
  3
B2
350
4F
  3
B3
350
50
  3
B4
350
51
  3
B5
350
52
  3
B6
350
53
  0
DICTIONARY
  5
64
102
{ACAD_REACTORS
330
C
102
}
330
C
100
AcDbDictionary
281
     1
  3
Standard
350
65
  0
DICTIONARY
  5
29
102
{ACAD_REACTORS
330
C
102
}
330
C
100
AcDbDictionary
281
     1
  3
2dWireframe
350
2F
  3
Basic
350
2E
  3
Brighten
350
35
  3
ColorChange
350
39
  3
Conceptual
350
32
  3
Dim
350
34
  3
EdgeColorOff
350
41
  3
Facepattern
350
38
  3
Flat
350
2A
  3
FlatWithEdges
350
2B
  3
Gouraud
350
2C
  3
GouraudWithEdges
350
2D
  3
Hidden
350
31
  3
JitterOff
350
3F
  3
Linepattern
350
37
  3
OverhangOff
350
40
  3
Realistic
350
33
  3
Shaded
350
3E
  3
Shaded with edges
350
3D
  3
Shades of Gray
350
3A
  3
Sketchy
350
3B
  3
Thicken
350
36
  3
Wireframe
350
30
  3
X-Ray
350
3C
  0
XRECORD
  5
F73
102
{ACAD_REACTORS
330
C
102
}
330
C
100
AcDbXrecord
280
     1
 90
        1
330
65
330
F6A
  0
DICTIONARY
  5
76
102
{ACAD_REACTORS
330
C
102
}
330
C
100
AcDbDictionary
281
     1
  3
CANNOSCALE
350
79
  3
CMLEADERSTYLE
350
78
  3
CTABLESTYLE
350
77
  0
XRECORD
  5
F72
102
{ACAD_REACTORS
330
F71
102
}
330
F71
100
AcDbXrecord
280
     1
 40
3088736.0
  1
\pxsm0.94;{\fRomanS|b0|i0;\H2.2000;PART#: WA72P48F1\P(DATA SUBJECT TO CHANGE WITHOUT NOTICE)\P \P\fRomanS|b0|i0;\H1.3200;THIS DRAWING IS PROPERTY OF HUBBELL INC. WIEGMANN\PALL INFORMATION IS PROPRIETARY AND NOT TO BE DUPLICATED\P}
  0
LAYOUT
  5
6B
102
{ACAD_REACTORS
330
62
102
}
330
62
100
AcDbPlotSettings
  1

  2

  4

  6

 40
0.0
 41
0.0
 42
0.0
 43
0.0
 44
0.0
 45
0.0
 46
0.0
 47
0.0
 48
0.0
 49
0.0
140
0.0
141
0.0
142
1.0
143
1.0
 70
   688
 72
     0
 73
     0
 74
     5
  7

 75
    16
147
1.0
 76
     0
 77
     2
 78
   300
148
0.0
149
0.0
100
AcDbLayout
  1
Layout1
 70
     1
 71
     1
 10
0.0
 20
0.0
 11
12.0
 21
9.0
 12
0.0
 22
0.0
 32
0.0
 14
0.0
 24
0.0
 34
0.0
 15
0.0
 25
0.0
 35
0.0
146
0.0
 13
0.0
 23
0.0
 33
0.0
 16
1.0
 26
0.0
 36
0.0
 17
0.0
 27
1.0
 37
0.0
 76
     0
330
68
  0
LAYOUT
  5
73
102
{ACAD_REACTORS
330
62
102
}
330
62
100
AcDbPlotSettings
  1

  2

  4

  6

 40
0.0
 41
0.0
 42
0.0
 43
0.0
 44
0.0
 45
0.0
 46
0.0
 47
0.0
 48
0.0
 49
0.0
140
0.0
141
0.0
142
1.0
143
1.0
 70
   688
 72
     0
 73
     0
 74
     5
  7

 75
    16
147
1.0
 76
     0
 77
     2
 78
   300
148
0.0
149
0.0
100
AcDbLayout
  1
Layout2
 70
     1
 71
     2
 10
0.0
 20
0.0
 11
12.0
 21
9.0
 12
0.0
 22
0.0
 32
0.0
 14
0.0
 24
0.0
 34
0.0
 15
0.0
 25
0.0
 35
0.0
146
0.0
 13
0.0
 23
0.0
 33
0.0
 16
1.0
 26
0.0
 36
0.0
 17
0.0
 27
1.0
 37
0.0
 76
     0
330
70
  0
LAYOUT
  5
6F
102
{ACAD_REACTORS
330
62
102
}
330
62
100
AcDbPlotSettings
  1

  2

  4

  6

 40
0.0
 41
0.0
 42
0.0
 43
0.0
 44
0.0
 45
0.0
 46
0.0
 47
0.0
 48
0.0
 49
0.0
140
0.0
141
0.0
142
1.0
143
1.0
 70
  1712
 72
     0
 73
     0
 74
     0
  7

 75
     0
147
1.0
 76
     0
 77
     2
 78
   300
148
0.0
149
0.0
100
AcDbLayout
  1
Model
 70
     1
 71
     0
 10
0.0
 20
0.0
 11
12.0
 21
9.0
 12
0.0
 22
0.0
 32
0.0
 14
0.0
 24
0.0
 34
0.0
 15
0.0
 25
0.0
 35
0.0
146
0.0
 13
0.0
 23
0.0
 33
0.0
 16
1.0
 26
0.0
 36
0.0
 17
0.0
 27
1.0
 37
0.0
 76
     0
330
6C
  0
MATERIAL
  5
19
102
{ACAD_XDICTIONARY
360
1A
102
}
102
{ACAD_REACTORS
330
10
102
}
330
10
100
AcDbMaterial
  1
ByBlock
 72
     0
 43
0.0208333333333333
 43
0.0
 43
0.0
 43
0.0
 43
0.0
 43
0.0208333333333333
 43
0.0
 43
0.0
 43
0.0
 43
0.0
 43
1.0
 43
0.0
 43
0.0
 43
0.0
 43
0.0
 43
1.0
 77
     0
 47
0.0208333333333333
 47
0.0
 47
0.0
 47
0.0
 47
0.0
 47
0.0208333333333333
 47
0.0
 47
0.0
 47
0.0
 47
0.0
 47
1.0
 47
0.0
 47
0.0
 47
0.0
 47
0.0
 47
1.0
171
     0
 49
0.0208333333333333
 49
0.0
 49
0.0
 49
0.0
 49
0.0
 49
0.0208333333333333
 49
0.0
 49
0.0
 49
0.0
 49
0.0
 49
1.0
 49
0.0
 49
0.0
 49
0.0
 49
0.0
 49
1.0
175
     0
142
0.0208333333333333
142
0.0
142
0.0
142
0.0
142
0.0
142
0.0208333333333333
142
0.0
142
0.0
142
0.0
142
0.0
142
1.0
142
0.0
142
0.0
142
0.0
142
0.0
142
1.0
179
     0
144
0.0208333333333333
144
0.0
144
0.0
144
0.0
144
0.0
144
0.0208333333333333
144
0.0
144
0.0
144
0.0
144
0.0
144
1.0
144
0.0
144
0.0
144
0.0
144
0.0
144
1.0
147
0.0208333333333333
147
0.0
147
0.0
147
0.0
147
0.0
147
0.0208333333333333
147
0.0
147
0.0
147
0.0
147
0.0
147
1.0
147
0.0
147
0.0
147
0.0
147
0.0
147
1.0
  0
MATERIAL
  5
11
102
{ACAD_XDICTIONARY
360
12
102
}
102
{ACAD_REACTORS
330
10
102
}
330
10
100
AcDbMaterial
  1
ByLayer
 72
     0
 43
0.0208333333333333
 43
0.0
 43
0.0
 43
0.0
 43
0.0
 43
0.0208333333333333
 43
0.0
 43
0.0
 43
0.0
 43
0.0
 43
1.0
 43
0.0
 43
0.0
 43
0.0
 43
0.0
 43
1.0
 77
     0
 47
0.0208333333333333
 47
0.0
 47
0.0
 47
0.0
 47
0.0
 47
0.0208333333333333
 47
0.0
 47
0.0
 47
0.0
 47
0.0
 47
1.0
 47
0.0
 47
0.0
 47
0.0
 47
0.0
 47
1.0
171
     0
 49
0.0208333333333333
 49
0.0
 49
0.0
 49
0.0
 49
0.0
 49
0.0208333333333333
 49
0.0
 49
0.0
 49
0.0
 49
0.0
 49
1.0
 49
0.0
 49
0.0
 49
0.0
 49
0.0
 49
1.0
175
     0
142
0.0208333333333333
142
0.0
142
0.0
142
0.0
142
0.0
142
0.0208333333333333
142
0.0
142
0.0
142
0.0
142
0.0
142
1.0
142
0.0
142
0.0
142
0.0
142
0.0
142
1.0
179
     0
144
0.0208333333333333
144
0.0
144
0.0
144
0.0
144
0.0
144
0.0208333333333333
144
0.0
144
0.0
144
0.0
144
0.0
144
1.0
144
0.0
144
0.0
144
0.0
144
0.0
144
1.0
147
0.0208333333333333
147
0.0
147
0.0
147
0.0
147
0.0
147
0.0208333333333333
147
0.0
147
0.0
147
0.0
147
0.0
147
1.0
147
0.0
147
0.0
147
0.0
147
0.0
147
1.0
  0
MATERIAL
  5
21
102
{ACAD_XDICTIONARY
360
22
102
}
102
{ACAD_REACTORS
330
10
102
}
330
10
100
AcDbMaterial
  1
Global
 72
     0
 43
0.0208333333333333
 43
0.0
 43
0.0
 43
0.0
 43
0.0
 43
0.0208333333333333
 43
0.0
 43
0.0
 43
0.0
 43
0.0
 43
1.0
 43
0.0
 43
0.0
 43
0.0
 43
0.0
 43
1.0
 77
     0
 47
0.0208333333333333
 47
0.0
 47
0.0
 47
0.0
 47
0.0
 47
0.0208333333333333
 47
0.0
 47
0.0
 47
0.0
 47
0.0
 47
1.0
 47
0.0
 47
0.0
 47
0.0
 47
0.0
 47
1.0
171
     0
 49
0.0208333333333333
 49
0.0
 49
0.0
 49
0.0
 49
0.0
 49
0.0208333333333333
 49
0.0
 49
0.0
 49
0.0
 49
0.0
 49
1.0
 49
0.0
 49
0.0
 49
0.0
 49
0.0
 49
1.0
175
     0
142
0.0208333333333333
142
0.0
142
0.0
142
0.0
142
0.0
142
0.0208333333333333
142
0.0
142
0.0
142
0.0
142
0.0
142
1.0
142
0.0
142
0.0
142
0.0
142
0.0
142
1.0
179
     0
144
0.0208333333333333
144
0.0
144
0.0
144
0.0
144
0.0
144
0.0208333333333333
144
0.0
144
0.0
144
0.0
144
0.0
144
1.0
144
0.0
144
0.0
144
0.0
144
0.0
144
1.0
147
0.0208333333333333
147
0.0
147
0.0
147
0.0
147
0.0
147
0.0208333333333333
147
0.0
147
0.0
147
0.0
147
0.0
147
1.0
147
0.0
147
0.0
147
0.0
147
0.0
147
1.0
  0
MLEADERSTYLE
  5
67
102
{ACAD_XDICTIONARY
360
F6F
102
}
102
{ACAD_REACTORS
330
66
102
}
330
66
100
AcDbMLeaderStyle
179
     2
170
     2
171
     1
172
     0
 90
        2
 40
0.0
 41
0.0
173
     1
 91
-1056964608
340
5B
 92
       -2
290
     1
 42
0.09
291
     1
 43
0.36
  3
Standard
 44
0.18
300

342
55
174
     1
178
     6
175
     1
176
     0
 93
-1056964608
 45
0.18
292
     0
297
     0
 46
0.18
 94
-1056964608
 47
1.0
 49
1.0
140
1.0
293
     1
141
0.0
294
     1
177
     0
142
1.0
295
     0
296
     0
143
0.125
271
     0
272
     9
273
     9
  0
MLINESTYLE
  5
60
102
{ACAD_REACTORS
330
5F
102
}
330
5F
100
AcDbMlineStyle
  2
STANDARD
 70
     0
  3

 62
   256
 51
90.0
 52
90.0
 71
     2
 49
0.5
 62
   256
  6
BYLAYER
 49
-0.5
 62
   256
  6
BYLAYER
  0
ACDBPLACEHOLDER
  5
F
102
{ACAD_REACTORS
330
E
102
}
330
E
  0
SCALE
  5
43
102
{ACAD_REACTORS
330
42
102
}
330
42
100
AcDbScale
 70
     0
300
1:1
140
1.0
141
1.0
290
     1
  0
SCALE
  5
44
102
{ACAD_REACTORS
330
42
102
}
330
42
100
AcDbScale
 70
     0
300
1/128" = 1'-0"
140
0.0078125
141
12.0
290
     0
  0
SCALE
  5
45
102
{ACAD_REACTORS
330
42
102
}
330
42
100
AcDbScale
 70
     0
300
1/64" = 1'-0"
140
0.015625
141
12.0
290
     0
  0
SCALE
  5
46
102
{ACAD_REACTORS
330
42
102
}
330
42
100
AcDbScale
 70
     0
300
1/32" = 1'-0"
140
0.03125
141
12.0
290
     0
  0
SCALE
  5
47
102
{ACAD_REACTORS
330
42
102
}
330
42
100
AcDbScale
 70
     0
300
1/16" = 1'-0"
140
0.0625
141
12.0
290
     0
  0
SCALE
  5
48
102
{ACAD_REACTORS
330
42
102
}
330
42
100
AcDbScale
 70
     0
300
3/32" = 1'-0"
140
0.09375
141
12.0
290
     0
  0
SCALE
  5
49
102
{ACAD_REACTORS
330
42
102
}
330
42
100
AcDbScale
 70
     0
300
1/8" = 1'-0"
140
0.125
141
12.0
290
     0
  0
SCALE
  5
4A
102
{ACAD_REACTORS
330
42
102
}
330
42
100
AcDbScale
 70
     0
300
3/16" = 1'-0"
140
0.1875
141
12.0
290
     0
  0
SCALE
  5
4B
102
{ACAD_REACTORS
330
42
102
}
330
42
100
AcDbScale
 70
     0
300
1/4" = 1'-0"
140
0.25
141
12.0
290
     0
  0
SCALE
  5
4C
102
{ACAD_REACTORS
330
42
102
}
330
42
100
AcDbScale
 70
     0
300
3/8" = 1'-0"
140
0.375
141
12.0
290
     0
  0
SCALE
  5
4D
102
{ACAD_REACTORS
330
42
102
}
330
42
100
AcDbScale
 70
     0
300
1/2" = 1'-0"
140
0.5
141
12.0
290
     0
  0
SCALE
  5
4E
102
{ACAD_REACTORS
330
42
102
}
330
42
100
AcDbScale
 70
     0
300
3/4" = 1'-0"
140
0.75
141
12.0
290
     0
  0
SCALE
  5
4F
102
{ACAD_REACTORS
330
42
102
}
330
42
100
AcDbScale
 70
     0
300
1" = 1'-0"
140
1.0
141
12.0
290
     0
  0
SCALE
  5
50
102
{ACAD_REACTORS
330
42
102
}
330
42
100
AcDbScale
 70
     0
300
1-1/2" = 1'-0"
140
1.5
141
12.0
290
     0
  0
SCALE
  5
51
102
{ACAD_REACTORS
330
42
102
}
330
42
100
AcDbScale
 70
     0
300
3" = 1'-0"
140
3.0
141
12.0
290
     0
  0
SCALE
  5
52
102
{ACAD_REACTORS
330
42
102
}
330
42
100
AcDbScale
 70
     0
300
6" = 1'-0"
140
6.0
141
12.0
290
     0
  0
SCALE
  5
53
102
{ACAD_REACTORS
330
42
102
}
330
42
100
AcDbScale
 70
     0
300
1'-0" = 1'-0"
140
12.0
141
12.0
290
     0
  0
TABLESTYLE
  5
65
102
{ACAD_XDICTIONARY
360
F6D
102
}
102
{ACAD_REACTORS
330
64
102
}
330
64
100
AcDbTableStyle
280
     0
  3
Standard
 70
     0
 71
     0
 40
0.06
 41
0.06
280
     0
281
     0
  7
Standard
140
0.18
170
     2
 62
     0
 63
     7
283
     0
 90
      512
 91
        0
  1

274
    -2
284
     1
 64
     0
275
    -2
285
     1
 65
     0
276
    -2
286
     1
 66
     0
277
    -2
287
     1
 67
     0
278
    -2
288
     1
 68
     0
279
    -2
289
     1
 69
     0
  7
Standard
140
0.25
170
     5
 62
     0
 63
     7
283
     0
 90
      512
 91
        0
  1

274
    -2
284
     1
 64
     0
275
    -2
285
     1
 65
     0
276
    -2
286
     1
 66
     0
277
    -2
287
     1
 67
     0
278
    -2
288
     1
 68
     0
279
    -2
289
     1
 69
     0
  7
Standard
140
0.18
170
     5
 62
     0
 63
     7
283
     0
 90
      512
 91
        0
  1

274
    -2
284
     1
 64
     0
275
    -2
285
     1
 65
     0
276
    -2
286
     1
 66
     0
277
    -2
287
     1
 67
     0
278
    -2
288
     1
 68
     0
279
    -2
289
     1
 69
     0
  0
VISUALSTYLE
  5
2F
102
{ACAD_REACTORS
330
29
102
}
330
29
100
AcDbVisualStyle
  2
2dWireframe
 70
     4
177
     2
291
     0
 71
     0
176
     1
 72
     2
176
     1
 73
     0
176
     1
 90
        0
176
     1
 40
0.6
176
     1
 41
30.0
176
     1
 63
     7
421
 16777215
176
     1
 74
     1
176
     1
 91
        4
176
     1
 64
     7
176
     1
 65
   257
176
     1
 75
     1
176
     1
175
     1
176
     1
 42
1.0
176
     1
 92
        0
176
     1
 66
   257
176
     1
 43
1.0
176
     1
 76
     1
176
     1
 77
     6
176
     1
 78
     2
176
     1
 67
     7
176
     1
 79
     5
176
     1
170
     0
176
     1
171
     0
176
     1
290
     0
176
     1
 93
        1
176
     1
 44
0.0
176
     1
173
     0
176
     1
  0
VISUALSTYLE
  5
2E
102
{ACAD_REACTORS
330
29
102
}
330
29
100
AcDbVisualStyle
  2
Basic
 70
     7
177
     2
291
     1
 71
     1
176
     1
 72
     0
176
     1
 73
     1
176
     1
 90
        0
176
     1
 40
0.6
176
     1
 41
30.0
176
     1
 63
     7
421
 16777215
176
     1
 74
     0
176
     1
 91
        4
176
     1
 64
     7
176
     1
 65
   257
176
     1
 75
     1
176
     1
175
     1
176
     1
 42
1.0
176
     1
 92
        8
176
     1
 66
     7
176
     1
 43
1.0
176
     1
 76
     1
176
     1
 77
     6
176
     1
 78
     2
176
     1
 67
     7
176
     1
 79
     5
176
     1
170
     0
176
     1
171
     0
176
     1
290
     0
176
     1
 93
        1
176
     1
 44
0.0
176
     1
173
     0
176
     1
  0
VISUALSTYLE
  5
35
102
{ACAD_REACTORS
330
29
102
}
330
29
100
AcDbVisualStyle
  2
Brighten
 70
    12
177
     2
291
     1
 71
     2
176
     1
 72
     2
176
     1
 73
     0
176
     1
 90
        0
176
     1
 40
0.6
176
     1
 41
30.0
176
     1
 63
     7
421
 16777215
176
     1
 74
     1
176
     1
 91
        4
176
     1
 64
     7
176
     1
 65
   257
176
     1
 75
     1
176
     1
175
     1
176
     1
 42
1.0
176
     1
 92
        8
176
     1
 66
     7
176
     1
 43
1.0
176
     1
 76
     1
176
     1
 77
     6
176
     1
 78
     2
176
     1
 67
     7
176
     1
 79
     5
176
     1
170
     0
176
     1
171
     0
176
     1
290
     0
176
     1
 93
        1
176
     1
 44
50.0
176
     1
173
     0
176
     1
  0
VISUALSTYLE
  5
39
102
{ACAD_REACTORS
330
29
102
}
330
29
100
AcDbVisualStyle
  2
ColorChange
 70
    16
177
     2
291
     1
 71
     2
176
     1
 72
     2
176
     1
 73
     3
176
     1
 90
        0
176
     1
 40
0.6
176
     1
 41
30.0
176
     1
 63
     8
421
  8421504
176
     1
 74
     1
176
     1
 91
        4
176
     1
 64
     7
176
     1
 65
   257
176
     1
 75
     1
176
     1
175
     1
176
     1
 42
1.0
176
     1
 92
        8
176
     1
 66
     8
424
  8421504
176
     1
 43
1.0
176
     1
 76
     1
176
     1
 77
     6
176
     1
 78
     2
176
     1
 67
     7
176
     1
 79
     5
176
     1
170
     0
176
     1
171
     0
176
     1
290
     0
176
     1
 93
        1
176
     1
 44
0.0
176
     1
173
     0
176
     1
  0
VISUALSTYLE
  5
32
102
{ACAD_REACTORS
330
29
102
}
330
29
100
AcDbVisualStyle
  2
Conceptual
 70
     9
177
     2
291
     0
 71
     3
176
     1
 72
     2
176
     1
 73
     0
176
     1
 90
        0
176
     1
 40
0.6
176
     1
 41
30.0
176
     1
 63
     7
421
 16777215
176
     1
 74
     2
176
     1
 91
        2
176
     1
 64
     7
176
     1
 65
   257
176
     1
 75
     1
176
     1
175
     1
176
     1
 42
179.0
176
     1
 92
        8
176
     1
 66
     7
176
     1
 43
1.0
176
     1
 76
     1
176
     1
 77
     6
176
     1
 78
     2
176
     1
 67
     7
176
     1
 79
     3
176
     1
170
     0
176
     1
171
     0
176
     1
290
     0
176
     1
 93
        1
176
     1
 44
0.0
176
     1
173
     0
176
     1
  0
VISUALSTYLE
  5
34
102
{ACAD_REACTORS
330
29
102
}
330
29
100
AcDbVisualStyle
  2
Dim
 70
    11
177
     2
291
     1
 71
     2
176
     1
 72
     2
176
     1
 73
     0
176
     1
 90
        0
176
     1
 40
0.6
176
     1
 41
30.0
176
     1
 63
     7
421
 16777215
176
     1
 74
     1
176
     1
 91
        4
176
     1
 64
     7
176
     1
 65
   257
176
     1
 75
     1
176
     1
175
     1
176
     1
 42
1.0
176
     1
 92
        8
176
     1
 66
     7
176
     1
 43
1.0
176
     1
 76
     1
176
     1
 77
     6
176
     1
 78
     2
176
     1
 67
     7
176
     1
 79
     5
176
     1
170
     0
176
     1
171
     0
176
     1
290
     0
176
     1
 93
        1
176
     1
 44
-50.0
176
     1
173
     0
176
     1
  0
VISUALSTYLE
  5
41
102
{ACAD_REACTORS
330
29
102
}
330
29
100
AcDbVisualStyle
  2
EdgeColorOff
 70
    22
177
     2
291
     1
 71
     2
176
     0
 72
     2
176
     0
 73
     0
176
     0
 90
        0
176
     0
 40
0.6
176
     0
 41
30.0
176
     0
 63
     7
421
 16777215
176
     0
 74
     1
176
     0
 91
        4
176
     0
 64
     7
176
     0
 65
   257
176
     0
 75
     1
176
     0
175
     1
176
     0
 42
1.0
176
     0
 92
        8
176
     2
 66
     7
176
     0
 43
1.0
176
     0
 76
     1
176
     0
 77
     6
176
     0
 78
     2
176
     0
 67
     7
176
     0
 79
     5
176
     0
170
     0
176
     0
171
     0
176
     0
290
     0
176
     0
 93
        1
176
     0
 44
0.0
176
     0
173
     0
176
     0
  0
VISUALSTYLE
  5
38
102
{ACAD_REACTORS
330
29
102
}
330
29
100
AcDbVisualStyle
  2
Facepattern
 70
    15
177
     2
291
     1
 71
     2
176
     1
 72
     2
176
     1
 73
     0
176
     1
 90
        0
176
     1
 40
0.6
176
     1
 41
30.0
176
     1
 63
     7
421
 16777215
176
     1
 74
     1
176
     1
 91
        4
176
     1
 64
     7
176
     1
 65
   257
176
     1
 75
     1
176
     1
175
     1
176
     1
 42
1.0
176
     1
 92
        8
176
     1
 66
     7
176
     1
 43
1.0
176
     1
 76
     1
176
     1
 77
     6
176
     1
 78
     2
176
     1
 67
     7
176
     1
 79
     5
176
     1
170
     0
176
     1
171
     0
176
     1
290
     0
176
     1
 93
        1
176
     1
 44
0.0
176
     1
173
     0
176
     1
  0
VISUALSTYLE
  5
2A
102
{ACAD_REACTORS
330
29
102
}
330
29
100
AcDbVisualStyle
  2
Flat
 70
     0
177
     2
291
     1
 71
     2
176
     1
 72
     1
176
     1
 73
     1
176
     1
 90
        2
176
     1
 40
0.6
176
     1
 41
30.0
176
     1
 63
     7
421
 16777215
176
     1
 74
     0
176
     1
 91
        0
176
     1
 64
     7
176
     1
 65
   257
176
     1
 75
     1
176
     1
175
     1
176
     1
 42
1.0
176
     1
 92
        8
176
     1
 66
     7
176
     1
 43
1.0
176
     1
 76
     1
176
     1
 77
     6
176
     1
 78
     2
176
     1
 67
     7
176
     1
 79
     5
176
     1
170
     0
176
     1
171
     0
176
     1
290
     0
176
     1
 93
       13
176
     1
 44
0.0
176
     1
173
     0
176
     1
  0
VISUALSTYLE
  5
2B
102
{ACAD_REACTORS
330
29
102
}
330
29
100
AcDbVisualStyle
  2
FlatWithEdges
 70
     1
177
     2
291
     1
 71
     2
176
     1
 72
     1
176
     1
 73
     1
176
     1
 90
        2
176
     1
 40
0.6
176
     1
 41
30.0
176
     1
 63
     7
421
 16777215
176
     1
 74
     1
176
     1
 91
        0
176
     1
 64
     7
176
     1
 65
   257
176
     1
 75
     1
176
     1
175
     1
176
     1
 42
1.0
176
     1
 92
        0
176
     1
 66
   257
176
     1
 43
1.0
176
     1
 76
     1
176
     1
 77
     6
176
     1
 78
     2
176
     1
 67
     7
176
     1
 79
     5
176
     1
170
     0
176
     1
171
     0
176
     1
290
     0
176
     1
 93
       13
176
     1
 44
0.0
176
     1
173
     0
176
     1
  0
VISUALSTYLE
  5
2C
102
{ACAD_REACTORS
330
29
102
}
330
29
100
AcDbVisualStyle
  2
Gouraud
 70
     2
177
     2
291
     1
 71
     2
176
     1
 72
     2
176
     1
 73
     1
176
     1
 90
        2
176
     1
 40
0.6
176
     1
 41
30.0
176
     1
 63
     7
421
 16777215
176
     1
 74
     0
176
     1
 91
        0
176
     1
 64
     7
176
     1
 65
   257
176
     1
 75
     1
176
     1
175
     1
176
     1
 42
1.0
176
     1
 92
        0
176
     1
 66
     7
176
     1
 43
1.0
176
     1
 76
     1
176
     1
 77
     6
176
     1
 78
     2
176
     1
 67
     7
176
     1
 79
     5
176
     1
170
     0
176
     1
171
     0
176
     1
290
     0
176
     1
 93
       13
176
     1
 44
0.0
176
     1
173
     0
176
     1
  0
VISUALSTYLE
  5
2D
102
{ACAD_REACTORS
330
29
102
}
330
29
100
AcDbVisualStyle
  2
GouraudWithEdges
 70
     3
177
     2
291
     1
 71
     2
176
     1
 72
     2
176
     1
 73
     1
176
     1
 90
        2
176
     1
 40
0.6
176
     1
 41
30.0
176
     1
 63
     7
421
 16777215
176
     1
 74
     1
176
     1
 91
        0
176
     1
 64
     7
176
     1
 65
   257
176
     1
 75
     1
176
     1
175
     1
176
     1
 42
1.0
176
     1
 92
        0
176
     1
 66
   257
176
     1
 43
1.0
176
     1
 76
     1
176
     1
 77
     6
176
     1
 78
     2
176
     1
 67
     7
176
     1
 79
     5
176
     1
170
     0
176
     1
171
     0
176
     1
290
     0
176
     1
 93
       13
176
     1
 44
0.0
176
     1
173
     0
176
     1
  0
VISUALSTYLE
  5
31
102
{ACAD_REACTORS
330
29
102
}
330
29
100
AcDbVisualStyle
  2
Hidden
 70
     6
177
     2
291
     0
 71
     1
176
     1
 72
     2
176
     1
 73
     2
176
     1
 90
        0
176
     1
 40
0.6
176
     1
 41
30.0
176
     1
 63
     7
421
 16777215
176
     1
 74
     2
176
     1
 91
        2
176
     1
 64
     7
176
     1
 65
   257
176
     1
 75
     2
176
     1
175
     1
176
     1
 42
40.0
176
     1
 92
        0
176
     1
 66
   257
176
     1
 43
1.0
176
     1
 76
     1
176
     1
 77
     6
176
     1
 78
     2
176
     1
 67
     7
176
     1
 79
     3
176
     1
170
     0
176
     1
171
     0
176
     1
290
     0
176
     1
 93
        1
176
     1
 44
0.0
176
     1
173
     0
176
     1
  0
VISUALSTYLE
  5
3F
102
{ACAD_REACTORS
330
29
102
}
330
29
100
AcDbVisualStyle
  2
JitterOff
 70
    20
177
     2
291
     1
 71
     2
176
     0
 72
     2
176
     0
 73
     0
176
     0
 90
        0
176
     0
 40
0.6
176
     0
 41
30.0
176
     0
 63
     7
421
 16777215
176
     0
 74
     1
176
     0
 91
        4
176
     0
 64
     7
176
     0
 65
   257
176
     0
 75
     1
176
     0
175
     1
176
     0
 42
1.0
176
     0
 92
       10
176
     2
 66
     7
176
     0
 43
1.0
176
     0
 76
     1
176
     0
 77
     6
176
     0
 78
     2
176
     0
 67
     7
176
     0
 79
     5
176
     0
170
     0
176
     0
171
     0
176
     0
290
     0
176
     0
 93
        1
176
     0
 44
0.0
176
     0
173
     0
176
     0
  0
VISUALSTYLE
  5
37
102
{ACAD_REACTORS
330
29
102
}
330
29
100
AcDbVisualStyle
  2
Linepattern
 70
    14
177
     2
291
     1
 71
     2
176
     1
 72
     2
176
     1
 73
     0
176
     1
 90
        0
176
     1
 40
0.6
176
     1
 41
30.0
176
     1
 63
     7
421
 16777215
176
     1
 74
     1
176
     1
 91
        4
176
     1
 64
     7
176
     1
 65
   257
176
     1
 75
     7
176
     1
175
     7
176
     1
 42
1.0
176
     1
 92
        8
176
     1
 66
     7
176
     1
 43
1.0
176
     1
 76
     1
176
     1
 77
     6
176
     1
 78
     2
176
     1
 67
     7
176
     1
 79
     5
176
     1
170
     0
176
     1
171
     0
176
     1
290
     0
176
     1
 93
        1
176
     1
 44
0.0
176
     1
173
     0
176
     1
  0
VISUALSTYLE
  5
40
102
{ACAD_REACTORS
330
29
102
}
330
29
100
AcDbVisualStyle
  2
OverhangOff
 70
    21
177
     2
291
     1
 71
     2
176
     0
 72
     2
176
     0
 73
     0
176
     0
 90
        0
176
     0
 40
0.6
176
     0
 41
30.0
176
     0
 63
     7
421
 16777215
176
     0
 74
     1
176
     0
 91
        4
176
     0
 64
     7
176
     0
 65
   257
176
     0
 75
     1
176
     0
175
     1
176
     0
 42
1.0
176
     0
 92
        9
176
     2
 66
     7
176
     0
 43
1.0
176
     0
 76
     1
176
     0
 77
     6
176
     0
 78
     2
176
     0
 67
     7
176
     0
 79
     5
176
     0
170
     0
176
     0
171
     0
176
     0
290
     0
176
     0
 93
        1
176
     0
 44
0.0
176
     0
173
     0
176
     0
  0
VISUALSTYLE
  5
33
102
{ACAD_REACTORS
330
29
102
}
330
29
100
AcDbVisualStyle
  2
Realistic
 70
     8
177
     2
291
     0
 71
     2
176
     1
 72
     3
176
     1
 73
     0
176
     1
 90
        2
176
     1
 40
0.6
176
     1
 41
30.0
176
     1
 63
     7
421
 16777215
176
     1
 74
     0
176
     1
 91
        0
176
     1
 64
     7
176
     1
 65
   257
176
     1
 75
     1
176
     1
175
     1
176
     1
 42
1.0
176
     1
 92
        8
176
     1
 66
   257
176
     1
 43
1.0
176
     1
 76
     1
176
     1
 77
     6
176
     1
 78
     2
176
     1
 67
     7
176
     1
 79
     3
176
     1
170
     0
176
     1
171
     0
176
     1
290
     0
176
     1
 93
       13
176
     1
 44
0.0
176
     1
173
     0
176
     1
  0
VISUALSTYLE
  5
3E
102
{ACAD_REACTORS
330
29
102
}
330
29
100
AcDbVisualStyle
  2
Shaded
 70
    27
177
     2
291
     0
 71
     2
176
     1
 72
     2
176
     1
 73
     1
176
     1
 90
        2
176
     1
 40
0.6
176
     1
 41
30.0
176
     1
 63
     7
421
 16777215
176
     1
 74
     0
176
     1
 91
        4
176
     1
 64
     7
176
     1
 65
   257
176
     1
 75
     1
176
     1
175
     1
176
     1
 42
1.0
176
     1
 92
        8
176
     1
 66
   257
176
     1
 43
1.0
176
     1
 76
     1
176
     1
 77
     6
176
     1
 78
     2
176
     1
 67
     8
425
  7895160
176
     1
 79
     3
176
     1
170
     0
176
     1
171
     0
176
     1
290
     0
176
     1
 93
        5
176
     1
 44
0.0
176
     1
173
     0
176
     1
  0
VISUALSTYLE
  5
3D
102
{ACAD_REACTORS
330
29
102
}
330
29
100
AcDbVisualStyle
  2
Shaded with edges
 70
    26
177
     2
291
     0
 71
     2
176
     1
 72
     2
176
     1
 73
     1
176
     1
 90
        2
176
     1
 40
0.6
176
     1
 41
30.0
176
     1
 63
     7
421
 16777215
176
     1
 74
     1
176
     1
 91
       10
176
     1
 64
     7
176
     1
 65
   257
176
     1
 75
     2
176
     1
175
     1
176
     1
 42
1.0
176
     1
 92
        8
176
     1
 66
   257
176
     1
 43
1.0
176
     1
 76
     1
176
     1
 77
     6
176
     1
 78
     2
176
     1
 67
     7
176
     1
 79
     3
176
     1
170
     0
176
     1
171
     0
176
     1
290
     0
176
     1
 93
        5
176
     1
 44
0.0
176
     1
173
     0
176
     1
  0
VISUALSTYLE
  5
3A
102
{ACAD_REACTORS
330
29
102
}
330
29
100
AcDbVisualStyle
  2
Shades of Gray
 70
    23
177
     2
291
     0
 71
     2
176
     1
 72
     2
176
     1
 73
     3
176
     1
 90
        0
176
     1
 40
0.6
176
     1
 41
30.0
176
     1
 63
     7
421
 16777215
176
     1
 74
     2
176
     1
 91
        2
176
     1
 64
     7
176
     1
 65
     7
176
     1
 75
     1
176
     1
175
     1
176
     1
 42
40.0
176
     1
 92
        8
176
     1
 66
     7
176
     1
 43
1.0
176
     1
 76
     1
176
     1
 77
     6
176
     1
 78
     2
176
     1
 67
     7
176
     1
 79
     3
176
     1
170
     0
176
     1
171
     0
176
     1
290
     0
176
     1
 93
        1
176
     1
 44
0.0
176
     1
173
     0
176
     1
  0
VISUALSTYLE
  5
3B
102
{ACAD_REACTORS
330
29
102
}
330
29
100
AcDbVisualStyle
  2
Sketchy
 70
    24
177
     2
291
     0
 71
     1
176
     1
 72
     2
176
     1
 73
     2
176
     1
 90
        0
176
     1
 40
0.6
176
     1
 41
30.0
176
     1
 63
     7
421
 16777215
176
     1
 74
     2
176
     1
 91
        2
176
     1
 64
     7
176
     1
 65
     7
176
     1
 75
     1
176
     1
175
     1
176
     1
 42
40.0
176
     1
 92
       11
176
     1
 66
     7
176
     1
 43
1.0
176
     1
 76
     1
176
     1
 77
     6
176
     1
 78
     2
176
     1
 67
     7
176
     1
 79
     6
176
     1
170
     0
176
     1
171
     0
176
     1
290
     0
176
     1
 93
        1
176
     1
 44
0.0
176
     1
173
     0
176
     1
  0
VISUALSTYLE
  5
36
102
{ACAD_REACTORS
330
29
102
}
330
29
100
AcDbVisualStyle
  2
Thicken
 70
    13
177
     2
291
     1
 71
     2
176
     1
 72
     2
176
     1
 73
     0
176
     1
 90
        0
176
     1
 40
0.6
176
     1
 41
30.0
176
     1
 63
     7
421
 16777215
176
     1
 74
     1
176
     1
 91
        4
176
     1
 64
     7
176
     1
 65
   257
176
     1
 75
     1
176
     1
175
     1
176
     1
 42
1.0
176
     1
 92
       12
176
     1
 66
     7
176
     1
 43
1.0
176
     1
 76
     1
176
     1
 77
     6
176
     1
 78
     2
176
     1
 67
     7
176
     1
 79
     5
176
     1
170
     0
176
     1
171
     0
176
     1
290
     0
176
     1
 93
        1
176
     1
 44
0.0
176
     1
173
     0
176
     1
  0
VISUALSTYLE
  5
30
102
{ACAD_REACTORS
330
29
102
}
330
29
100
AcDbVisualStyle
  2
Wireframe
 70
     5
177
     2
291
     0
 71
     0
176
     1
 72
     2
176
     1
 73
     0
176
     1
 90
        0
176
     1
 40
0.6
176
     1
 41
30.0
176
     1
 63
     7
421
 16777215
176
     1
 74
     1
176
     1
 91
        4
176
     1
 64
     7
176
     1
 65
   257
176
     1
 75
     1
176
     1
175
     1
176
     1
 42
1.0
176
     1
 92
        0
176
     1
 66
   257
176
     1
 43
1.0
176
     1
 76
     1
176
     1
 77
     6
176
     1
 78
     2
176
     1
 67
     7
176
     1
 79
     3
176
     1
170
     0
176
     1
171
     0
176
     1
290
     0
176
     1
 93
        1
176
     1
 44
0.0
176
     1
173
     0
176
     1
  0
VISUALSTYLE
  5
3C
102
{ACAD_REACTORS
330
29
102
}
330
29
100
AcDbVisualStyle
  2
X-Ray
 70
    25
177
     2
291
     0
 71
     2
176
     1
 72
     2
176
     1
 73
     1
176
     1
 90
        1
176
     1
 40
0.5
176
     1
 41
30.0
176
     1
 63
     7
421
 16777215
176
     1
 74
     1
176
     1
 91
        0
176
     1
 64
     7
176
     1
 65
   257
176
     1
 75
     1
176
     1
175
     1
176
     1
 42
1.0
176
     1
 92
        8
176
     1
 66
     7
176
     1
 43
1.0
176
     1
 76
     1
176
     1
 77
     6
176
     1
 78
     2
176
     1
 67
     7
176
     1
 79
     3
176
     1
170
     0
176
     1
171
     0
176
     1
290
     0
176
     1
 93
       13
176
     1
 44
0.0
176
     1
173
     0
176
     1
  0
DICTIONARYVAR
  5
79
102
{ACAD_REACTORS
330
76
102
}
330
76
100
DictionaryVariables
280
     0
  1
1:1
  0
DICTIONARYVAR
  5
78
102
{ACAD_REACTORS
330
76
102
}
330
76
100
DictionaryVariables
280
     0
  1
STANDARD
  0
DICTIONARYVAR
  5
77
102
{ACAD_REACTORS
330
76
102
}
330
76
100
DictionaryVariables
280
     0
  1
STANDARD
  0
DICTIONARY
  5
1A
330
19
100
AcDbDictionary
280
     1
281
     1
  3
BUMPTILE
360
1C
  3
DIFFUSETILE
360
1B
  3
OPACITYTILE
360
1F
  3
REFLECTIONTILE
360
1E
  3
REFRACTIONTILE
360
20
  3
SPECULARTILE
360
1D
  0
DICTIONARY
  5
12
330
11
100
AcDbDictionary
280
     1
281
     1
  3
BUMPTILE
360
14
  3
DIFFUSETILE
360
13
  3
FBXASSET
360
109
  3
OPACITYTILE
360
17
  3
REFLECTIONTILE
360
16
  3
REFRACTIONTILE
360
18
  3
SPECULARTILE
360
15
  0
DICTIONARY
  5
22
330
21
100
AcDbDictionary
280
     1
281
     1
  3
BUMPTILE
360
24
  3
DIFFUSETILE
360
23
  3
FBXASSET
360
BA
  3
OPACITYTILE
360
27
  3
REFLECTIONTILE
360
26
  3
REFRACTIONTILE
360
28
  3
SPECULARTILE
360
25
  0
DICTIONARY
  5
F6F
330
67
100
AcDbDictionary
280
     1
281
     1
  3
ACAD_XREC_ROUNDTRIP
360
F70
  0
DICTIONARY
  5
F6D
330
65
100
AcDbDictionary
280
     1
281
     1
  3
ACAD_ROUNDTRIP_2008_TABLESTYLE_CELLSTYLEMAP
360
F6E
  0
XRECORD
  5
1C
102
{ACAD_REACTORS
330
1A
102
}
330
1A
100
AcDbXrecord
280
     1
270
     1
271
     1
  0
XRECORD
  5
1B
102
{ACAD_REACTORS
330
1A
102
}
330
1A
100
AcDbXrecord
280
     1
270
     1
271
     1
  0
XRECORD
  5
1F
102
{ACAD_REACTORS
330
1A
102
}
330
1A
100
AcDbXrecord
280
     1
270
     1
271
     1
  0
XRECORD
  5
1E
102
{ACAD_REACTORS
330
1A
102
}
330
1A
100
AcDbXrecord
280
     1
270
     1
271
     1
  0
XRECORD
  5
20
102
{ACAD_REACTORS
330
1A
102
}
330
1A
100
AcDbXrecord
280
     1
270
     1
271
     1
  0
XRECORD
  5
1D
102
{ACAD_REACTORS
330
1A
102
}
330
1A
100
AcDbXrecord
280
     1
270
     1
271
     1
  0
XRECORD
  5
14
102
{ACAD_REACTORS
330
12
102
}
330
12
100
AcDbXrecord
280
     1
270
     1
271
     1
  0
XRECORD
  5
13
102
{ACAD_REACTORS
330
12
102
}
330
12
100
AcDbXrecord
280
     1
270
     1
271
     1
  0
XRECORD
  5
109
102
{ACAD_REACTORS
330
12
102
}
330
12
100
AcDbXrecord
280
     1
 70
     1
 90
1959938040
 71
     1
  1
4B9A852B-633A-4277-B07A-6D067CFD465B
311
504B03040A0000080000CA4DCE423DEE336E79000000790000001B0000006175746F6465736B2D64657369676E2D7061636B6167652E786D6C3C3F786D6C2076657273696F6E3D22312E302220656E636F64696E673D227574662D3822203F3E3C666F726D6174733E3C666F726D61743E687474703A2F2F736368656D612E
311
6175746F6465736B2E636F6D2F64657369676E2D7061636B6167652F323030393C2F666F726D61743E3C2F666F726D6174733E504B0304140006080800CA4DCE42D486FD9CA0000000F4000000130000005B436F6E74656E745F54797065735D2E786D6C7D8EC10E82300C865F65E91D8A1E8C310C0EEA1BF002731658846E
311
D98AC1B77784ABF1D8FE5FBFBF75BBCE937A534CCEB38643598122B6FEE978D0B0485F9C41B54DDD7D022595594E1A469170414C76A4D9A4D207E29CF43ECE46F218070CC6BECC4078ACAA135ACF422C856C0E68EA1BF5669944DDD7BCDE7B1F8E415D77AECB980613C2E4AC91FC167A2B244592486606FC29C8FD7F045B9A
311
EF7053A7E60B504B0304140006080800CA4DCE4215F8CD3FEC0000007C01000008000000636F72652E786D6C8D904D6EC3201085AF82665B6183B1E31F61A2544E4FD00B204C1C94182C03558F5F9C3852BBEB6A466FDE37337AFCF83DDFD1975EBD71B6079A1140DA2A371A3BF510C30537808E82AFCE855F364056CEBA87
311
4D06C1A7D5C5659794B341DB9054EB46BD8BD27B1D00A97B6A7AF0EAAA6799C91892C3DFB245AA9B9C74465F5D826334237A1E3163DA672E46AF20065A57435110FC7E6A2A5C3276C62DF96871C5CE435DB7AC61E589E71B2C7830F3EBBE5AB50C7A045110CA3039605A7E92B62B0F5D41DE48D531C2F3CDFE078ACBF84F28
311
1A1B58B1BFFBC43C089A1E790C04CFB72C52790495EA969BF801504B0304140006080800CA4DCE4255019EA25F0000007C00000007000000636E782E786D6C4DCB3B0E80201045D1AD90E915ED2CF8AC45050C11660C8261F98AB1B07AC9C97D42D718D865D3E909258CFD00CCE24AC6E326A164D74DC0B4128928FF326038
311
472BA13128B1252AC747C6BAB984FC68F0B87FE8960A5C09FE86CFB69FBA01504B0304140006080800CA4DCE422D89768F68010000020300000C0000006662782F636F72652E786D6C8D52ED8E8230107C95A67F2FA5E54BC5941A2F7A4F702F50A17244684969898F7FCB87F1BC1863484A33B3B33B3BC077D7B64183B27D
311
6D748EC38061A47461CA5A5739F6EE4C3618ED04B7C6B83F651869D9AA1C8F3016BCB2C6770B5418ED9476806A53AA05947DAF1C464503971CF7C58F6A6520BD838AFE1274B2B8C84A05610034D409DE3B0B06D03C643CB1389FAE9CCEB8E0DED7E5C2D6254CABCFB5B2581CC2757A8822463EF79B9424717C2419FBCA481A
311
1F0FEB75166FE264CFE92816DCD5EDCD5D619574AAC42262614CD88A84C937CBB6C96A1BB10F966E63C6E958FE20F25DF9A6C8D7DAC5D1627796F55884606422FE6D0B1139D4CB01FC50C1E91822BCA6841F8386402064274FCD6D8F0B40832A9CB10930A5F1776A908D573095A1E9E17466A1F3D400367BDA277AD1E7750F
311
F8805257604D3AB89EBC1BA7F379EA1245A72C19DC1569635BD9DCCDCD16EFE77DD05379611A63DF51D36555BA8449C7BF57FC02504B0304140006080800CA4DCE4287C4E1E97D0000009D0000000B0000006662782F636E782E786D6C4DCCD10E82201886E15B61FF39A989691BE0C0E83E5CA263223482D6E587CD838EBE
311
EDD9B797F69FCDA2B70E2FE31D83EA5402D2EEE127E3160629CEB803D4731ABC8F7F37406EDC34839D81D325F8F43C68D2F3986CCC6A8D5B0F6CD5AD25440AAC86AEC1445CCEF82AEB3B56D5D00855669535149C16BF52DE3DCCBF504B0304140006080800CA4DCE427280E2212B01000014020000310000006662782F3745
311
4437343442412D454338352D344136322D394233462D4531433541453045433842332F636F72652E786D6C8D515B6EC32010BC8AC557ABCA36F89587305192BA27E80508901425068B4795E377A91DA9FDCB0F8B66676647BB74771F6FD9B7725E5BD3235260942923ACD4E6D2A318CEF91A653B469DB5E10F0D65868FAA47
311
09468C5E9C8DD302096B8232015063A55A40EEBD0A281337F8F4C88B2F35F282C7000C7F2D262EAEFCA20A52401B788CFAE02040360F492F62ABE17DD534877D3E1CD76DDEECBB2ADF1CEA8F7C20C7763F60400F352D6721A3316AB9C8B58438FAAC957BD62489190D7A7CC4174EF1A024621526758EBB9C349F78B36DBA6D
311
85DF70BBAD312D13FD9F284EF24951D426D4D512779679C4082DE706A3D2C6D3ED1146DD27EB4296E6BD78255E11C30526A4AE3B0C92990A0B00CFAE593C7DB00E16FC723D019BB4B371D7305AA61B41F93D20D4744FF603504B0304140006080800CA4DCE42A2940C5D4E01000033030000300000006662782F3745443734
311
3442412D454338352D344136322D394233462D4531433541453045433842332F636E782E786D6CD593CD6EC32010845F0571ADFC97B8561B6122F5D027E8A1570C9B860683C54FD5BC7D9784A4B9E4D0632FC89A1D66569F30DB7ECF867C810FDAD99176754B0958E994B61F234D71573D51B2E5CC3B176F6C945831C348B3
311
4C39FBF02E2D4552B013C944548DB687227A082E790901E57C93182785C100B0554211E609940245AE46FCDA81C755509C8E24EE81BCBEBC13377D828C81353985B326777096CFD27463A2441A11C24883DCC32C6A91A253100EB51251D45D7DE9BAB3D36F12C9172E95C96B92CB479A4FCACB463572640D0E390BD123BD62
311
8AC7052817CB62B41411213727E3D9C359D2360E7DF16A04EFD1DD0DEBBEC7B0D38CB3A867280EE941445094AFDA6E5DB543D5F56FEDF3A61F36ABF6A17DDCAC5BD6643B679373A65CC218F06E21D2D9083652DEB1268FEFE12B3EA2B447D6CE1FFF00120194D6339D6BC67FE6D39CDE37E2F2F817F01F504B030414000608
311
0800CA4DCE42D19E3445A505000081100000340000006662782F37454437343442412D454338352D344136322D394233462D4531433541453045433842332F6F626A656374732E786D6CAD57D96EDB3814FD1541F332F3E045B6E32403458597A630DAB4458D16F360C0A0254AE1845A4052A9335F3F8722254BAE9D7A067D
311
D1C2E5F2DE73CF5DE8BFD9A7DC79A642B23CBB73BDFED0756816E611CB923BB75471EFC675DE04BEC873D55AE63A1949E99DAB87DDC04F445E167628A23129B93A1ABD9FFFE5C89066D475424EA4BC7365F84853D227A5CA232A9FFA1151A49FC4FBBED7370BBB6213418AC723A105113453D014E319A4384629AFFB3B7407
311
813FD0F381AF9F76D5F8FCAA41654FF77C964945B2F087C38EC48CBDC9F2EDE8EAB67735998C7B93E9C8EBCDEFE7CB9E773D1E2EA68BC5EDECED2D0E964A4092D544D0D80DDE011BC1427F60A602BF64991A8FEC12EBA081A0CF4C7BCA0D468EE70FCC9AC63A6BE429F5C33CCB68586105342AFBACE88816348BE073462534
311
6B2134ECFE7A1AC7D6F458FFDB23DBC39721D0DED11254EB5EBFDB9AE6BBBF6182BC84414252CD4083A535D4707578407897E7DCCE31E9A44451C1087738DB09225EDC004BF592C0EF88D14C163A1AB4056E002F98E92E5D10463FE7F9292DE392734D6337A8A2608B58A14A569AB17FA83868DF46063AC1579A0D37D620F5
311
525037B83514B939629301D2893949E07298A9778E4747862E749CAE966EF0FE7EB75FEBD83D7D7821F2820AA5E9036AD58EABDF1A25AB937791E7F406F7489503285F80FC4784FA4115F84DB0FD643FB1A728413219E722856F9CA1D31BE23174BCEAA9BF5B5FFEA0D9DCF5DE393CE16C0DD52FC0B36B43DB972D3803FF19
311
84CFC5D89AB60E0947DA78601900D22471788E21E4E178B7778315B21CB23276111E783019EA3EE3D31F58314814D549AD77062C8FD2E205091AB0558C841A86FC56C1839F7E4867D5C176D93978AF7E095D67CBF5FB75296212D2071BD34B1AB38C2994B8036FDA0A7530EF58F4445FBEE72282A13FE2BD6EE39DDAA324D0
311
D6986BE0933AA7EB9FC3C99D0342EC4B729D6EFC9F9C002374616DC97F6032A49C938CE6657DEEABF50365C340AC835D33B9293087C202D29899A31844910E052B34884DB56A9266FF8C755F571FC1483798BF7C202FEDECB53BE4DE30E7B9D8EE5EB6262D9D84FA5B97DB1683819602BA574152C7BF057D1BB1382E2592E0
311
095CBFAD166DDFE9B48014514B35D13281FD082E222C696BB9A8D682A092E6D996A16E22EE4E1ED0960F482D032A81E7349694C75BC679996E63C6518DB62929CEC0F1FFF5DF9569B125695E66EA8CEC8EEAA80E5DDD3BEC95DF890A1FDD605DBD7B73E4DE884667C8A06BC909AC3AAE9DCC6F673757A3796F3A1ECF7A93D1
311
F5756F3EBC9EF5A6CBE1F47A71BF9C4CAFE6B59F8C26815F979A7644C34B286D7E299875DFD715E2C726013778204A6EDE99F0ACDF5F577DF4C2FE007B502F9B8DB3E8197D1F8D7E2EE0B0F2A4A0555A709AD24C111D430FFA837F21E8333ACA98F1554A127A81944FEFD647C660E4827D9F75BCD3EF477BEDE84207E44921
311
EAB14C771961FC68636290EC175962F1AB7DD2BC4DA1A97FF59F750C3A53997316210F464E42F3942A64C30B8A9048A904F5DA3D7D64EF1E17EC7E361DA2223B4E6B4D1E099A642E1116A05619AAEEB8F31B9A3ADD57DDB928B7FD273C6CA6701D70E6CE4593AE5848657F8702AD5BA14A38B8D4EEE4D1F8932CE1E8B5CDA6
311
E6BFD9A5B1E994E466C925FD93B5CBA4706B00D24881BE010D11BC532913F8956E763EFC4F86D7EA3844E17357AAC696C340634C750C42D418656F0B68629EECD17B04EAEB6679FD6A4D07918B6E59AF92C048ED292292EAA6A0F5B32ACD969F07E8509CD527A7E065025F5E2EA92728C85CEA00078BC00A2BB3200A545DFC
311
B9F92C72DC6453E79E8102CEEFFB9BE91F9B459EA679668636337B1F76D68FB8DD461B2407AAAF2572331A7AA34D751DB03794ED8E48DA27917CC2003C2B580374C7FDE0A5B933A20E998966DD40BBE288A1ABA5630BDB04422D5DDAB9558383C623A30E62485F2975C4B41714AFDE0806D552A820D0CB07FF02504B030414
311
0006080000CA4DCE42000000000000000000000000350000006662782F37454437343442412D454338352D344136322D394233462D4531433541453045433842332F76657274696365732E62696E504B0304140006080800CA4DCE42F270F1330600000004000000360000006662782F37454437343442412D454338352D34
311
4136322D394233462D4531433541453045433842332F747269616E676C65732E62696E636660600000504B0304140006080000CA4DCE42000000000000000000000000370000006662782F37454437343442412D454338352D344136322D394233462D4531433541453045433842332F617474726962757465732E62696E50
311
4B0304140006080800CA4DCE42D5987DFC8F00000041010000360000006662782F37454437343442412D454338352D344136322D394233462D4531433541453045433842332F6469726563746F72792E786D6C858F410EC2201045AF4266AF15DDB800BA74E7C21B903225242D6328188F2FA5C4183471359997F9FF81E89F
311
F3C41E1816475E02DF1F80A11FC8386F25A438EECEC07A250251FC3803E6F58C12560C4AD840E95E91C151A72936F496F35732D860FE635F62C8F2DA16B505C545B74125BAA2FA9E05D7CC053D063734D5C7665FD55B6B8D15D5E9BFEAFD8490FFA45E504B0304140006080800CA4DCE4264CE6D5FFF000000A00100003B00
311
00006662782F37454437343442412D454338352D344136322D394233462D4531433541453045433842332F7265736F75726365732F636F72652E786D6C8D504B6EC23010BD4A34DBCA891D27409063441538412F60390358103BF2A7EAF1EB402AB5BB6E6646EFA3797AE2F0353D8A4FF4C138DB032B291468B51B8DBDF690
311
E285ECA03848E19D8BBF64505835610F0B0C525CBD4BF30A696723DA9851EB465C4115024628F4231F3D047DC349952AC5AC08F77256FAAEAE58B232D3592745883E07285E4F9609D26370C96B0CA27AB152A464C65563C6FCD35C0C7A9003DBB643CDCEE4FDB86B49C3F98974F4DC91969F86EDB6E33BDE1C45B598A58866
311
FAC9A83DAA8823C89A324EE886B0E68376FB66B3AFE91B6DF79C8A6A91FF31A579FCA729191B79BDC67DD9024896833C0929AAA5AFBC9E65E6BD742BBF01504B010214000A0000080000CA4DCE423DEE336E79000000790000001B00000000000000000000000000000000006175746F6465736B2D64657369676E2D706163
311
6B6167652E786D6C504B01021400140006080800CA4DCE42D486FD9CA0000000F40000001300000000000000000000000000B20000005B436F6E74656E745F54797065735D2E786D6C504B01021400140006080800CA4DCE4215F8CD3FEC0000007C010000080000000000000000000000000083010000636F72652E786D6C
311
504B01021400140006080800CA4DCE4255019EA25F0000007C000000070000000000000000000000000095020000636E782E786D6C504B01021400140006080800CA4DCE422D89768F68010000020300000C00000000000000000000000000190300006662782F636F72652E786D6C504B01021400140006080800CA4DCE42
311
87C4E1E97D0000009D0000000B00000000000000000000000000AB0400006662782F636E782E786D6C504B01021400140006080800CA4DCE427280E2212B010000140200003100000000000000000000000000510500006662782F37454437343442412D454338352D344136322D394233462D453143354145304543384233
311
2F636F72652E786D6C504B01021400140006080800CA4DCE42A2940C5D4E010000330300003000000000000000000000000000CB0600006662782F37454437343442412D454338352D344136322D394233462D4531433541453045433842332F636E782E786D6C504B01021400140006080800CA4DCE42D19E3445A5050000
311
811000003400000000000000000000000000670800006662782F37454437343442412D454338352D344136322D394233462D4531433541453045433842332F6F626A656374732E786D6C504B01021400140006080000CA4DCE4200000000000000000000000035000000000000000000000000005E0E00006662782F374544
311
37343442412D454338352D344136322D394233462D4531433541453045433842332F76657274696365732E62696E504B01021400140006080800CA4DCE42F270F13306000000040000003600000000000000000000000000B10E00006662782F37454437343442412D454338352D344136322D394233462D45314335414530
311
45433842332F747269616E676C65732E62696E504B01021400140006080000CA4DCE4200000000000000000000000037000000000000000000000000000B0F00006662782F37454437343442412D454338352D344136322D394233462D4531433541453045433842332F617474726962757465732E62696E504B0102140014
311
0006080800CA4DCE42D5987DFC8F000000410100003600000000000000000000000000600F00006662782F37454437343442412D454338352D344136322D394233462D4531433541453045433842332F6469726563746F72792E786D6C504B01021400140006080800CA4DCE4264CE6D5FFF000000A00100003B0000000000
311
0000000000000000431000006662782F37454437343442412D454338352D344136322D394233462D4531433541453045433842332F7265736F75726365732F636F72652E786D6C504B0506000000000E000E00800400009B1100000000
310
504B03040A0000080000CA4DCE423DEE336E79000000790000001B0000006175746F6465736B2D64657369676E2D7061636B6167652E786D6C3C3F786D6C2076657273696F6E3D22312E302220656E636F64696E673D227574662D3822203F3E3C666F726D6174733E3C666F726D61743E687474703A2F2F736368656D612E
310
6175746F6465736B2E636F6D2F64657369676E2D7061636B6167652F323030393C2F666F726D61743E3C2F666F726D6174733E504B0304140006080800CA4DCE42D486FD9CA0000000F4000000130000005B436F6E74656E745F54797065735D2E786D6C7D8EC10E82300C865F65E91D8A1E8C310C0EEA1BF002731658846E
310
D98AC1B77784ABF1D8FE5FBFBF75BBCE937A534CCEB38643598122B6FEE978D0B0485F9C41B54DDD7D022595594E1A469170414C76A4D9A4D207E29CF43ECE46F218070CC6BECC4078ACAA135ACF422C856C0E68EA1BF5669944DDD7BCDE7B1F8E415D77AECB980613C2E4AC91FC167A2B244592486606FC29C8FD7F045B9A
310
EF7053A7E60B504B0304140006080800CA4DCE4259FB48ECEC0000007C01000008000000636F72652E786D6C8D90416E83301045AF62CDB63218434940C6113470825EC0320EB1126C84EDAAC7AF4988D4EEBA9AD19FFF66469F9DBEE73BFA52ABD3D6349025049032D28EDA4C0D047FC1474027CE566BFD2F1B202366D5C0
310
260367D36AC3B24BD21AAF8C8FAAB1A3DA45E19CF280E43D360D387955B34844F0D1E16EC922E44D4C2AC95E5D8443D0237A1ED163DCA72F5AADC05BD27FF4B4AA705E92011787E31977A42B713B50DAB6E7811EBA9EA51BCC99D7F3EBBE5C95F06A044E49966352E2ACF824555D9435256FE4BDCE094B37FB1F282CE33FA1
310
A08DCFE9FEEE1373C0B3F8C863C059BA6511CB23A858B7DCF80F504B0304140006080800CA4DCE4255019EA25F0000007C00000007000000636E782E786D6C4DCB3B0E80201045D1AD90E915ED2CF8AC45050C11660C8261F98AB1B07AC9C97D42D718D865D3E909258CFD00CCE24AC6E326A164D74DC0B4128928FF326038
310
472BA13128B1252AC747C6BAB984FC68F0B87FE8960A5C09FE86CFB69FBA01504B0304140006080800CA4DCE42045D874A69010000020300000C0000006662782F636F72652E786D6C8D525B6E833010BC8AE5DF0A6C1E250F1947A4494ED00B38E05014B091B1518EDFE511D154511421196B6667777680ED6E4D8D7A69BA
310
4AAB14073EC548AA5C17952A53ECECC55B63B4E3CC686DFF9461A44423533CC098B3D268D7CE50AE9595CA02AA74216750749DB418E5355C52DCE53FB211BE70162ABAABDF8AFC2A4AE9073ED050C759670D1840D390E1C4FC72BE3132E19C395715335B1530ADBA54D2609ED1E3D731DC6CBC28A1272F5EAD0FDE9EEE132F
310
3B8561961D4EE16A7F6464107366ABE6EE2E37525859601ED220F268E205F137DD6CE3641BD20FFAB98D282343F983C8B5C59B2257291B85B3DD49D6611E809191F8B72D446451277AF04338234388F01A137E0C1A028190AD38D7F73DAE00F532B7DAC4C014DA2D542F6A27612A45E3C3C8C442E7B1016CF6B44FF8A2CFEB
310
1EF001852AC19AB0703D3B3B4C67D3D4398A561AAFB737A4B46944BD989B2C2EE732E8A93CD7B536EFA8C9BC2A99C324C3DFCB7F01504B0304140006080800CA4DCE42901E84B87E0000009D0000000B0000006662782F636E782E786D6C4DCCD10A83201886E15B91FFDC4A966B821ABAE57DC4B290990EA76397BF1A1DEC
310
E883878F97F79FD5A3B74D2F1783005235806CB8C7C9854540C933BE00EA254F31E6BF1BA030AE56C0CE20F99262791E34D9792C3E6FEA5D781CD86943A8A11AD3411BDCAAD30D2B766698D08199EEAA4CA318D492D7BFD2B67B587E01504B0304140006080800CA4DCE42D8C25E7B2C01000014020000310000006662782F
310
37424631354635422D354542462D344133442D413936392D3135453946374341463041392F636F72652E786D6C8D515B6EC32010BC0AE22B55850D7EA58E3091D3C627E8051C20294A0C168F2AC72FD48ED4FEE58745B333B3A35DBABF4F37F02DAD53467790641802A9B9114A5F3A18FC19BD41B067D41AE3FFD020D0E324
310
3B9860C8E8C59A30AF1037DA4BED23AA8D902B383A273D04FC163F1D74FC4B4E6336061F19EE9ACD23BF8E1799912CB6238F51E76D0C009621E9856C7B18483DD407541F0F03AAFAF203F56DD322521FDB61FBDE0FB86F69BE08190D418955AE448CA3CE4ADA674D929851AFA6477C6EE5E8A580ACC0A444B841A4FAC4EDAE
310
6A76057EC5F5AEC4344FF47FA2308B274541695F166BDC45E62023345F1A8C0A134EB74718799F8DF520CDDB38C95F20C31926A42E8AA6A6F9428D0B889E4DB57A3A6F6C5CF0E67A8AEC72356E2A46F374A3587E0F186BBA27FB01504B0304140006080800CA4DCE42C433C34A5601000033030000300000006662782F3742
310
4631354635422D354542462D344133442D413936392D3135453946374341463041392F636E782E786D6CBD93CD6EC32010845F0571ADFC17BB561A6122F5D027E8A1570C9B86068305B86ADEBE4B42D25C72A854F582ACD96166F509B3EDD764C827F8A09D1D6853D69480954E69FB3ED025EE8A35255BCEBC73F1C6468915
310
130C34C994B377EF96394B0A7662311155A3ED218B1E825BBC848072BA498C93C26000D8624111A611940245AE46FCDA81C755501C8F24EE81BC3CBF11377E808C81552985B32A757096CEDC7463A2441A11C24083DCC3244AB144A7201C4A25A2289BF2D27567A79F24922E5C2A17AF492A1F683A29CF1B95C8915538E42C
310
448FF4B2291E67A05CCCB3D15244845C9D8C670F678BB6B1EFB25723788FEE76D5AFD718769A7116F504D9213D88088AF255DDB445DD174DF75A3F6DBA7EB3AA1FEAC74D5BB32AD9391B9D33F912C680773391CE46B091F28655697C0F5FF611A53DB276FEF80B900820B79EE95C33FE924FD3B75DF78F7CAAD3FB465C1EFF
310
02FE0D504B0304140006080800CA4DCE425C96CCAB650700009A1B0000340000006662782F37424631354635422D354542462D344133442D413936392D3135453946374341463041392F6F626A656374732E786D6CED595B73A33816FE2B14FB32FB606C6CE7B645988AED4997AB27335DEDE9AE7D701525834CB411829244
310
3A9E5FBF4717301093E09DECDB3CD880908ECEF9CE5587E0E7978C3ACF980B92B35BD7F726AE83599C2784A5B76E29F7A36BD7F9390C789ECBC634D76128C3B7AE1A76C320E57959D8A104EF51496567F47EF16F47C49861D7892912E2D615F123CE90874A9927583C790992C84BF72F9EEF99896DB22947C5638768813866
310
1238857106541CC394DF7E9CB8E33018ABF761A0FEEDACD9A059F3FE59632D759B4BC284442C7EC55287CC6C104B337FBEFA657A7133BA98CF67A3F9E5D41F2DEE17AB917F359B2C2F97CB9BBB5F6E80BD5D9E532B53820BCC12D0DFC10DFD60ACDED4A25B044E711DE78CE15803095069B1BA040916B05503BE49FBD15712
310
355E6B091BCF73F5DEB2D0189EB5A9F4CD1A06448B2E0862B7AB24AEAE4DF9F2DD7F407031C428B9C012B8159283762D3C1CBCC20D27C1D88C86C1EEA80B229C0C49CC09A20E253B8E382805A6AA296160165832CA3938907294045A73E675DBB6C033DF779D535CEE4B4A9567B8A176AC08DC0F4BA139237F627EE4BE890C
310
F004D29684C96BCBA53C14D80D6F82B11E0C0375994DED4B03A4B3A728151A11F3B623E852B9FE7AE5869FEF772F1B150E4E6F5EF0BCC05C2AA3537AD47C8121DBAB42C96EEB0FD29C5A00C21850EDCA23285F01F9DF207A1C5901BD71F2327F99DBB9922326F639CF4037CEC4194DE06FE2F8FA5FDD37EE8271BDB8ADBD3E
310
3CC14D1554D77F1DCFB60C1A2BCB7F03CE30780683CFF9CCBEDAC488823D3F100600292371680E4310DAF7BB17375C43E084400FAB100D7D1019D87D86DB606CC91CB552B997F53A0688DA3D66439404B0698B04367AF4F409B20727F1514D4D11FBE0BDF81073BD5B6D3E6F4ABE47317EB03EBDC27BC28884AC799AA116E6
310
2D899EF0E147CE1310F435DE9B26DE99DD4A00DA0A73057C5A81A01E8E3BB73688615D9AAB7013BCB30308A1727583FE031131A614319C97D5BE757453865A7BBCAD19DC706A209E4D3B26CCF13351550538CD71468B51C8FB31278502D10D3F19C9EAA0E9F548F76DFD1B58643DBF67D69A41E86588FEA183D6091C5A965D
310
216D81A805DE1DC3799CD39C47BB4364229D0BB504B0D1F696EF2DA210EB8D921415F020ED775548498DB45142F6FB52405C3DC1E2F7F5B2690E136FE65F38CDFF8E33CE21DA82EF226EFDAEB347443294E2688F92BEED9ABBD5B48526D9439AE33D05B9C833918708C96892E0F41C68CE227EF3A1D4539A0B41181690AF4E
310
82DF4463E2412031DAAC58565AED004D44946189E8390828323DE0EAB4A36BDC184A87F779ACADF72D8D3589FE9F2C8223A82573161128452187BCCBB8EF5D400C69A36B50EEE00BD656D1D662D0124A88F810FDC0247D94E7A06EC8F7E01EC391A494515EA018CC7A00D957BEA294DAE17D87E227953FA2B8A41F652002D3
310
7D44282DB3087E84C1C963886BD781E94D141AC44DEC933883A20CC9920FD9E4F262F26A1F533374436063A33DA110B6A30C153DA8B702A2AE479C1A7C4BBD47A9BB322B2294E5251B6428DEACEB4D967C57AD8AEC407E55A908656345D8120C03C2649D55AB980DA6AE032BB8910E548748A0ACA0E614F64EE2F16B6FD294
310
7B37E0D64F3F76830C0ABF1EED3523EABC82C1F2D82A0CC40F24E34737DCE8EB6801F577829363AAAF6ACD66050888A9485E726255F46D0DE58DADD1DCF00149B1FD64B26E75FDB6F6A0FB118C610DD42EF5C2B5023AC34C2255993CA81BFA1541086ED130E36B9553CFA1729724BA6A44F49EF4A9B35546B436CD88573C62
310
9667F0635BC2625A26788B12F1143D481A6D8862DD4AE965A4C2F84D017FFFB4E9C003230344FAA20A3CFCA3B3D68E2E55B97492887C2CB31D430482604BB4D4E8C62B586A355269B9BEAA3305D45D606056C5F3BF4F16CD76C4DF278BD41AC65F3A592C0EBFA243B32FD248E7B1B2EBB38E01757E52543EE218A0DB0E35D5
310
3A8B98646EE5B7CE144150ACA2FCE06AAC0A1A86601FC7FF73D6EECB8266BB0EFFE7656DFF55C5715656694D565DAA1395EBBA95C3163777D717D3C5E87236BB1BCDA75757A3C5E4EA6E74B99A5C5E2DEF57F3CB8B458DA676D430A88399CE5DF06C825A35AC9E2C06D095153925099CE61327C510F3259CE907B4CF798605
310
24CF66B33BB14DF901AB9F4D9F53A21DC515278F081AC454405A078CCA58B6C79D7F406B52C241FBD685A691F7047FD62A5D0732CFAD0BAD0249622CBC1DB49954434F138794AB73BF2506F82096AA946816D5CFF52A854D2BFCD75386A4012B57AB8701855B01DDAF568742F366798ACF12BC62C741126E77A5846ACDC872
310
1CA885D1DB1CD56F64A3843DD9AD5FC075DF16CBF7F49C1622833E19BC690486EA48229EEA7EB762CCB274B7FA32863E9BB3FEDD296899822E87531A710CC65CAA820AAC08ACC2D22C9004535DFE6BFB85E7F08927737455E4FCF4727DF9CFED32CFB29C99A1ED1D9CCA12F850E46C1EE1B34FB285E201ABE6BAD84E27FE74
310
AB9BDAB6CF1EED90C09EAA8A60A02A2694201D9303BB7CD5A0B2EDCBB1524567FA7AE5D8200ACD006347AF7ABCE62397033EA43EA7288FD17E5E49FB665F7BACA7824D70E84887FF05504B0304140006080000CA4DCE42000000000000000000000000350000006662782F37424631354635422D354542462D344133442D41
310
3936392D3135453946374341463041392F76657274696365732E62696E504B0304140006080800CA4DCE42F270F1330600000004000000360000006662782F37424631354635422D354542462D344133442D413936392D3135453946374341463041392F747269616E676C65732E62696E636660600000504B030414000608
310
0000CA4DCE42000000000000000000000000370000006662782F37424631354635422D354542462D344133442D413936392D3135453946374341463041392F617474726962757465732E62696E504B0304140006080800CA4DCE42D5987DFC8F00000041010000360000006662782F37424631354635422D354542462D3441
310
33442D413936392D3135453946374341463041392F6469726563746F72792E786D6C858F410EC2201045AF4266AF15DDB800BA74E7C21B903225242D6328188F2FA5C4183471359997F9FF81E89FF3C41E1816475E02DF1F80A11FC8386F25A438EECEC07A250251FC3803E6F58C12560C4AD840E95E91C151A72936F496F3
310
5732D860FE635F62C8F2DA16B505C545B74125BAA2FA9E05D7CC053D063734D5C7665FD55B6B8D15D5E9BFEAFD8490FFA45E504B0304140006080800CA4DCE424A506674FF000000A00100003B0000006662782F37424631354635422D354542462D344133442D413936392D3135453946374341463041392F7265736F7572
310
6365732F636F72652E786D6C8D504B6E833010BD0A9A6D65302625041947A42127E8052C33A156828DFCA97AFC9A844AEDAE9B99D1FB689E1E3F7ECDF7EC139DD7D67450E6143234CA8EDA4C1DC470250D6447C19DB5E1970C322367EC608541F0C9D9B86C90B226A009093576C40D94DE63804CDDD3D181571F38CB5CC690
310
14FE962F52DDE4847999273AE904F7C1A500D9F3C93A4138F4363A859E174F56F018F5B869F4987EEAAB4607A2A7C3DBC00E0DA96A7A21BB7D7326277AAA497F61ACEFCF17B63F0DBC58CD82073DFF64540E65C01104A36545684DCADD3B3DB4BBBA65F485BEB615E5C52AFF638ACBF84F53D426546C8BFBB47910650AF220
310
042FD6BED27A9499F6DAADF806504B010214000A0000080000CA4DCE423DEE336E79000000790000001B00000000000000000000000000000000006175746F6465736B2D64657369676E2D7061636B6167652E786D6C504B01021400140006080800CA4DCE42D486FD9CA0000000F400000013000000000000000000000000
310
00B20000005B436F6E74656E745F54797065735D2E786D6C504B01021400140006080800CA4DCE4259FB48ECEC0000007C010000080000000000000000000000000083010000636F72652E786D6C504B01021400140006080800CA4DCE4255019EA25F0000007C000000070000000000000000000000000095020000636E78
310
2E786D6C504B01021400140006080800CA4DCE42045D874A69010000020300000C00000000000000000000000000190300006662782F636F72652E786D6C504B01021400140006080800CA4DCE42901E84B87E0000009D0000000B00000000000000000000000000AC0400006662782F636E782E786D6C504B010214001400
310
06080800CA4DCE42D8C25E7B2C010000140200003100000000000000000000000000530500006662782F37424631354635422D354542462D344133442D413936392D3135453946374341463041392F636F72652E786D6C504B01021400140006080800CA4DCE42C433C34A5601000033030000300000000000000000000000
310
0000CE0600006662782F37424631354635422D354542462D344133442D413936392D3135453946374341463041392F636E782E786D6C504B01021400140006080800CA4DCE425C96CCAB650700009A1B00003400000000000000000000000000720800006662782F37424631354635422D354542462D344133442D41393639
310
2D3135453946374341463041392F6F626A656374732E786D6C504B01021400140006080000CA4DCE420000000000000000000000003500000000000000000000000000291000006662782F37424631354635422D354542462D344133442D413936392D3135453946374341463041392F76657274696365732E62696E504B01
310
021400140006080800CA4DCE42F270F133060000000400000036000000000000000000000000007C1000006662782F37424631354635422D354542462D344133442D413936392D3135453946374341463041392F747269616E676C65732E62696E504B01021400140006080000CA4DCE420000000000000000000000003700
310
000000000000000000000000D61000006662782F37424631354635422D354542462D344133442D413936392D3135453946374341463041392F617474726962757465732E62696E504B01021400140006080800CA4DCE42D5987DFC8F0000004101000036000000000000000000000000002B1100006662782F374246313546
310
35422D354542462D344133442D413936392D3135453946374341463041392F6469726563746F72792E786D6C504B01021400140006080800CA4DCE424A506674FF000000A00100003B000000000000000000000000000E1200006662782F37424631354635422D354542462D344133442D413936392D313545394637434146
310
3041392F7265736F75726365732F636F72652E786D6C504B0506000000000E000E0080040000661300000000
  0
XRECORD
  5
17
102
{ACAD_REACTORS
330
12
102
}
330
12
100
AcDbXrecord
280
     1
270
     1
271
     1
  0
XRECORD
  5
16
102
{ACAD_REACTORS
330
12
102
}
330
12
100
AcDbXrecord
280
     1
270
     1
271
     1
  0
XRECORD
  5
18
102
{ACAD_REACTORS
330
12
102
}
330
12
100
AcDbXrecord
280
     1
270
     1
271
     1
  0
XRECORD
  5
15
102
{ACAD_REACTORS
330
12
102
}
330
12
100
AcDbXrecord
280
     1
270
     1
271
     1
  0
XRECORD
  5
24
102
{ACAD_REACTORS
330
22
102
}
330
22
100
AcDbXrecord
280
     1
270
     1
271
     1
  0
XRECORD
  5
23
102
{ACAD_REACTORS
330
22
102
}
330
22
100
AcDbXrecord
280
     1
270
     1
271
     1
  0
XRECORD
  5
BA
102
{ACAD_REACTORS
330
22
102
}
330
22
100
AcDbXrecord
280
     1
 70
     1
 90
1959938040
 71
     1
  1
228D32A5-509E-460E-908E-9A5C1E544DEF
311
504B03040A0000080000C84DCE423DEE336E79000000790000001B0000006175746F6465736B2D64657369676E2D7061636B6167652E786D6C3C3F786D6C2076657273696F6E3D22312E302220656E636F64696E673D227574662D3822203F3E3C666F726D6174733E3C666F726D61743E687474703A2F2F736368656D612E
311
6175746F6465736B2E636F6D2F64657369676E2D7061636B6167652F323030393C2F666F726D61743E3C2F666F726D6174733E504B0304140006080800C84DCE42D486FD9CA0000000F4000000130000005B436F6E74656E745F54797065735D2E786D6C7D8EC10E82300C865F65E91D8A1E8C310C0EEA1BF002731658846E
311
D98AC1B77784ABF1D8FE5FBFBF75BBCE937A534CCEB38643598122B6FEE978D0B0485F9C41B54DDD7D022595594E1A469170414C76A4D9A4D207E29CF43ECE46F218070CC6BECC4078ACAA135ACF422C856C0E68EA1BF5669944DDD7BCDE7B1F8E415D77AECB980613C2E4AC91FC167A2B244592486606FC29C8FD7F045B9A
311
EF7053A7E60B504B0304140006080800C84DCE42CA3A8B67ED0000007C01000008000000636F72652E786D6C8D90DD8E832010855F85CCED0605B55A0DD2687F9E605F8020B5A4158CC0661F7FB1B5C9EEDD5ECDE4CCF96626871DBEA707FA528BD3D6B4401302481969076DC61682BFE23DA003678BB5FE970D9011936A61
311
9581B371B161DE24698D57C647D5D8416DA2704E7940F2119B169CBCA9492422F8E870F76416F22E4695D07717E110F4805E47F410F7E9AB560BF0EAD865C7735DE27E477B5CECBB0BEE2EF509977D7F26DDA9AAEBAA60E90A73E6F5F4BE2F1725BC1A806784E6989498169FA46E8AB2A1D507D9353961E96AFF038579F827
311
14B4F179B6BDFBC21C701A1F790E384BD72C62790615EB9A1BFF01504B0304140006080800C84DCE4255019EA25F0000007C00000007000000636E782E786D6C4DCB3B0E80201045D1AD90E915ED2CF8AC45050C11660C8261F98AB1B07AC9C97D42D718D865D3E909258CFD00CCE24AC6E326A164D74DC0B4128928FF3260
311
38472BA13128B1252AC747C6BAB984FC68F0B87FE8960A5C09FE86CFB69FBA01504B0304140006080800C84DCE42263BF35269010000020300000C0000006662782F636F72652E786D6C8D52ED8E8230107C95A67F2F50404431A506FC78827B810A9523424B4A4B7CFC5B3E0CE7C51843529A999DDDD901BABF3735EA85EE
311
2A2513ECBB1E4642E6AAA86499606BAECE16A33DA35A29F3A70C23C91B91E001C68C965AD9768672258D900650A90A3183BCEB84C128AFE192E02EFF110D77B93550D1DDDC96E7375E0AD77781863A463BA3C1009A860C2766D7CB9D920967D4DAAA98D9AA8069D5B5121AB3CD210D0EA73872B2B59F39E1363D3BE9393E3A
311
51969DBCF4B889E34D48C92066D454CDC35DAE0537A2C02CF0FC95E3458E1F7E7BF12E8C76FEE6CB5BEF561E2543F993C8B6C587225B49B30A66BB93ACC3CC072323F16F5B88C8A08EF7E087304A8610E13526FC1C340402211B7EA91F7BDC00EA456E940E8129945DA89ED756C0540F8D0F25130B9DC706B0D9CB3EC19B3E
311
EF7BC007E4B2046BDCC0F562CD309D4E53E7285AA19DDEDC9154BAE1F5626EB2B89CCBA097F25CD54A7FA226F3AA640E930C7F2FFB05504B0304140006080800C84DCE42CE955E527E0000009D0000000B0000006662782F636E782E786D6C4DCCD10A83201886E15B91FFDC35374D0335C2DA7DC4B290990EA76397BF1A1D
311
ECE883878F57B69FD5A3B74D2F178302723A03B2E11E2717160525CF58006AB54C31E6BF1BA030AE56C1CEA0E59262791E34D9792C3E6FEA5D781C78A537DE7735C70369064C09E35888BAC1F4D273C658678831506959FD4ADBEE61FD05504B0304140006080800C84DCE42E35AB26E2D0100001402000031000000666278
311
2F33344637444136372D453139452D343135372D383836392D3432443735353541433143432F636F72652E786D6C8D515B6EC32010BC8AC557AA0A1B6CB093081345497A825E806092A2C460F1A872FC42ED48ED5F7E58343B333BDA65BBC7782FBE95F3DA9A1EE01281421969076DAE3D88E102D7A0D871E6AC0D7F68A030
311
62543DC830E0ECEA6C9C16485A139409093576500B28BC570114F29E3E3DF0F24B8DA214312486BF959390377155252E533BF138F3C1A500C53C24BF8037E4A33BEEDB0E9EF0E60409A61D5CAFDB0D24F5B1A394EE0FF87060D52CE42C463D2C723DA438FAA2957BD5248B390B7A7CC6974E89A006C06B841B885A88C927DA
311
6C49BBC5DD3BA2DB06B12AD3FF89E234BC288ADA84A65EE2CE320F3866D5DCE06CB0F17C7F86518FC9BA50E4792BAFE41BE0A84418D76D4D29AB666A5A40F26CC9E2E9837569C1ABDB39B1716265E3967056E51BA5F27BC054F33DF90F504B0304140006080800C84DCE4261247A4B4E01000033030000300000006662782F
311
33344637444136372D453139452D343135372D383836392D3432443735353541433143432F636E782E786D6CD593CD4EC33010845FC5F215E58F860095E34A1C78020E5C1D7BDB9A3A76E41F44DF9E75EB965E3870E46245B3E399D527876DBE66433EC107EDEC48BBBAA504AC744ADBDD4853DC564F946C38F3CEC51B1B25
311
56CC30D22C53CE76DEA5A5480AB6229988AAD1F650440FC1252F21A09C6F12E3A4301800B64A28C23C8152A0C8D5885F5BF0B80A8AD391C43D90D79777E2A60F9031B026A770D6E40ECEF2599A6E4C944823421869907B98452D52740AC2A156228ABAAB2F5DBFECF49344F2854B65F29AE4F291E693F2B2518D1C598343CE
311
42F448AF98E27101CAC5B2182D4544C8CDC978F67096B48D435FBC1AC17B7477C3AAEF31EC34E32CEA198A437A101114E5F76DB7AADAA1EAFAB7F679DD0FEBEEF1AE7D58AF5AD6643B679373A65CC218F06E21D2D9083652DEB1268F7FC3577C44698FAC9D3FFE01240228AD673AD78CFFCCA739BD6FC4E5F12FE0DF504B03
311
04140006080800C84DCE423C272C4BA205000080100000340000006662782F33344637444136372D453139452D343135372D383836392D3432443735353541433143432F6F626A656374732E786D6CAD57DB6EDB3810FD1541FBB2FBE08B6CA74D168A0AC74E0AA3485BD448B10F060C4AA2146E2851A0A8D4D9AFDF439192
311
25C74EBD8BBEE8C2CB70E6CC990BFD0FBB8C3BCF54964CE4D7AE371CBB0ECD2311B33CBD762B950C2E5DE743E04B21546799EBE424A3D7AE1E76033F95A22AEC504C13527175307A77F397534634A7AE13715296D76E193DD28C0C49A5444CCBA7614C1419A6C96EE80DCDC2BED85492E2F140684124CD1534C5780E298E51
311
CAEBFF8EDD51E08FF47CE0EBA75D353DBD6A54DBD33F9FE5A52279F4EAB00331536FB6BC9D5C5C0D2E66B3E960F66EE20D6EEE6E9603EFFD74BC78B7585CCD6FAF7070A92424594D244DDCE023B0912CF247662AF02B96ABE9C42EB10E1A49FACCB4A7DC60E278FEC8AC69ADB3461E533F12794EA31A2BA051DB6745C7B4A0
311
790C9F335A42B30E42E3FEAFA771EC4C4FF5BF3DB23B7C1E02DD1D1D418DEECDBBABA908FF8609E5390C9225D50C34585A430D57C77B844321B89D63A59311452523DCE12C9444BEB80196EA2581DF13A3992C7534680BDC005E30D37DBA208C7ECEF3635A2615E79AC66E5047C116B14255596BC6FEA172AF7D1719E8045F
311
69365C5A83D44B41DDE0CA50E4F2804D064827E12485CB61A6DE399D1C18BAD071BA5ABAC1A7BB70B7D6B17BFCF0428A824AA5E9036A358E6BDE1A25AB937796E7F406F740953D28DF80FC6784FA5E15F84DB2DD6C37B3A72849F2321132836F9CB13318E33176BCFAA9BF3B5FFEA8DDDCF7DE293CE16C0DD52FC0B36F43D7
311
971D3803FF198417726A4D5B4784236DDCB31C006992385C6008793809776EB042964356C62EC2030F2643DD677CFA232B0689A23EA9F3CE81E5415A3C234103B69A9150C390DF2AB8F7D3AB74561F6C979D82F7E297D075BE5C7F5A57322111BDB731BDA409CB994289DBF3A6AB500FF39E454FF4E58790310C7D8DF7BA8B
311
77668F2A81B6C65C039F36395DFFEC4FEE1D10615F2A74BAF17F72028CD085B523FF9E9511E59CE45454CDB96FD60F940D03B10E76CDE4B6C0EC0B0B4863660E6210453A92ACD020B6D5AA4D9AC313D63DAC3E839158CF4548F87E51B84FBD91E0426EC397ADC94A4791FEDEA7B68560A4A580ED758C34E16F31DFC62C49AA
311
1239F008ACDF578BAEEB7456408668A49A6099C17CC4169196B38D5C146B49504845BE65289B08BBA30774E503514B805AE0298D4BCA932DE3BCCAB609E32846DB8C1427E0F8FFFA8755566C4926AA5C9D90DD531DC5A1AF7B8FBCE50FA2A2473758D7EFC10D526F4CE3BD9B7B8B7529398255CFB593C9E5723A995F0C2EC6
311
57B7689FC6B783ABF1251EF38B85778B9E6A797BD7F8C9080FFCA6D274031A5E4265F32BC9ACFB1E56081F9B03DCE09EA872F3D14467F37E580DD10AFB23EC41B96C37CEE367B47D34FEB980FDCAA3825659C1694673457408DDEB0FFE8DA0CDE82963C6571949E91952BE7C5C1F18839133F67DD5E14E7F1CECB5A30B1D90
311
4785A8C72A0B73C2F8C1C6D420392CF2D4E2D7F8A47D9B3AD3FCEA3FEB1834A6A5E02C461A8C9D948A8C2A24C3336A90CC6809EA755BFAD85E3DCED8FD6C1A4445424E1B4D1E097A645E222C40AD2A52FD71E737F474BAADBA76516D874F78D84CE13AE0CCB58B1E5DB18896C310F5597742B57070A9DBC8A3EF2779CAD16A
311
9B4DED7FBB4B63D3ABC8ED9273DA276B97C9E0D600A491026D03FA2178A75626F06BDDEC7CF49F0C6FD47188C26758A9D696FD406B4C7D0C42D418652F0BE8619EECD13B04EADB6679C37A4D0F91B32E596F92C0481D2822D3FAA2A0F5B32ACD975F4768509CD517A7E0550A5F9E2F692029C85CE900078BC00A2BB3200A54
311
5DFCB9F92A052EB29973C74001E7F7DDE5BB3F360B91652237439BB9BD0E3BEB475C6EE30D9203D5B7927233197B934D7D1BB017946D484A3A2471F984017856B216E89EFBC14B7365441D3213EDBA9176C50143574BC716B619845ABA7473AB06077D474E1DC490BE51EA88E92E28DEBC108CEAA55041A2950FFE05504B03
311
04140006080000C84DCE42000000000000000000000000350000006662782F33344637444136372D453139452D343135372D383836392D3432443735353541433143432F76657274696365732E62696E504B0304140006080800C84DCE42F270F1330600000004000000360000006662782F33344637444136372D45313945
311
2D343135372D383836392D3432443735353541433143432F747269616E676C65732E62696E636660600000504B0304140006080000C84DCE42000000000000000000000000370000006662782F33344637444136372D453139452D343135372D383836392D3432443735353541433143432F617474726962757465732E6269
311
6E504B0304140006080800C84DCE42D5987DFC8F00000041010000360000006662782F33344637444136372D453139452D343135372D383836392D3432443735353541433143432F6469726563746F72792E786D6C858F410EC2201045AF4266AF15DDB800BA74E7C21B903225242D6328188F2FA5C4183471359997F9FF81
311
E89FF3C41E1816475E02DF1F80A11FC8386F25A438EECEC07A250251FC3803E6F58C12560C4AD840E95E91C151A72936F496F35732D860FE635F62C8F2DA16B505C545B74125BAA2FA9E05D7CC053D063734D5C7665FD55B6B8D15D5E9BFEAFD8490FFA45E504B0304140006080800C84DCE42A2D0D656FF000000A0010000
311
3B0000006662782F33344637444136372D453139452D343135372D383836392D3432443735353541433143432F7265736F75726365732F636F72652E786D6C8D50596E833010BD0A9ADFCA60071242641C419613F4029699502BC1465EAA1EBF26A152FBD79F99D15B344F8F1FBFA647F689CE6B6B5A6039850C8DB2833663
311
0B31DCC81EB2A3E0CEDAF04B06999113B6B0C020F8E86C9C57485913D084841A3BE00A4AEF3140A61EE968C1AB0F9C642E63480A7FCF67A9EE72C49CE5894E3AC17D702940F67AB24C100EBD8D4EA1E7C58B153C463DAC1A3DA49FFAA6D181A84FDDE67469B6A4DFB29E54FBEE4ABA6B7326BBBEBFD0EE5C374D5DF162310B
311
1EF4F4935139940107101BCA4A42778455EFB43954BB03ABDFE8F650525E2CF23FA6380FFF34456D42B959E3BE6C1E044B419E84E0C5D2575ACF32D35EBA15DF504B010214000A0000080000C84DCE423DEE336E79000000790000001B00000000000000000000000000000000006175746F6465736B2D64657369676E2D70
311
61636B6167652E786D6C504B01021400140006080800C84DCE42D486FD9CA0000000F40000001300000000000000000000000000B20000005B436F6E74656E745F54797065735D2E786D6C504B01021400140006080800C84DCE42CA3A8B67ED0000007C010000080000000000000000000000000083010000636F72652E78
311
6D6C504B01021400140006080800C84DCE4255019EA25F0000007C000000070000000000000000000000000096020000636E782E786D6C504B01021400140006080800C84DCE42263BF35269010000020300000C000000000000000000000000001A0300006662782F636F72652E786D6C504B01021400140006080800C84D
311
CE42CE955E527E0000009D0000000B00000000000000000000000000AD0400006662782F636E782E786D6C504B01021400140006080800C84DCE42E35AB26E2D010000140200003100000000000000000000000000540500006662782F33344637444136372D453139452D343135372D383836392D34324437353535414331
311
43432F636F72652E786D6C504B01021400140006080800C84DCE4261247A4B4E010000330300003000000000000000000000000000D00600006662782F33344637444136372D453139452D343135372D383836392D3432443735353541433143432F636E782E786D6C504B01021400140006080800C84DCE423C272C4BA205
311
00008010000034000000000000000000000000006C0800006662782F33344637444136372D453139452D343135372D383836392D3432443735353541433143432F6F626A656374732E786D6C504B01021400140006080000C84DCE420000000000000000000000003500000000000000000000000000600E00006662782F33
311
344637444136372D453139452D343135372D383836392D3432443735353541433143432F76657274696365732E62696E504B01021400140006080800C84DCE42F270F13306000000040000003600000000000000000000000000B30E00006662782F33344637444136372D453139452D343135372D383836392D3432443735
311
353541433143432F747269616E676C65732E62696E504B01021400140006080000C84DCE4200000000000000000000000037000000000000000000000000000D0F00006662782F33344637444136372D453139452D343135372D383836392D3432443735353541433143432F617474726962757465732E62696E504B010214
311
00140006080800C84DCE42D5987DFC8F000000410100003600000000000000000000000000620F00006662782F33344637444136372D453139452D343135372D383836392D3432443735353541433143432F6469726563746F72792E786D6C504B01021400140006080800C84DCE42A2D0D656FF000000A00100003B000000
311
00000000000000000000451000006662782F33344637444136372D453139452D343135372D383836392D3432443735353541433143432F7265736F75726365732F636F72652E786D6C504B0506000000000E000E00800400009D1100000000
310
504B03040A0000080000C84DCE423DEE336E79000000790000001B0000006175746F6465736B2D64657369676E2D7061636B6167652E786D6C3C3F786D6C2076657273696F6E3D22312E302220656E636F64696E673D227574662D3822203F3E3C666F726D6174733E3C666F726D61743E687474703A2F2F736368656D612E
310
6175746F6465736B2E636F6D2F64657369676E2D7061636B6167652F323030393C2F666F726D61743E3C2F666F726D6174733E504B0304140006080800C84DCE42D486FD9CA0000000F4000000130000005B436F6E74656E745F54797065735D2E786D6C7D8EC10E82300C865F65E91D8A1E8C310C0EEA1BF002731658846E
310
D98AC1B77784ABF1D8FE5FBFBF75BBCE937A534CCEB38643598122B6FEE978D0B0485F9C41B54DDD7D022595594E1A469170414C76A4D9A4D207E29CF43ECE46F218070CC6BECC4078ACAA135ACF422C856C0E68EA1BF5669944DDD7BCDE7B1F8E415D77AECB980613C2E4AC91FC167A2B244592486606FC29C8FD7F045B9A
310
EF7053A7E60B504B0304140006080800C84DCE421C0082F0EC0000007C01000008000000636F72652E786D6C8D904D6EC3201085AF82665BE140EC98DAC244765A9FA01740405C94182C03558F5F9C1FA9DD7535A337EF9B193D7EFC9EAFE8CBACC17AD7012D0820E394D7D64D1DA478C6AF808E82AFDEC75F36404ECEA683
310
4D06C1A7D5A7E52129EFA27131ABCE6BF3106508260252D7DC7410D4A799652153CC8E702916A92E7232057D76194EC96A743F6275DE67CFD6AC202AC6CA033B31DCD7C31BAEC6F71A0FCD40F0A91AABB1E96B56F684EF3658F068E7E77DB51A198D06B127B4C4A4C6B4FA204D5BD52D652FE4D09619DAEC7FA0B4E87F42C9
310
BA58EE1FEFDEB10082E6476E03C1775B16B9DC82CA75CB4DFC00504B0304140006080800C84DCE4255019EA25F0000007C00000007000000636E782E786D6C4DCB3B0E80201045D1AD90E915ED2CF8AC45050C11660C8261F98AB1B07AC9C97D42D718D865D3E909258CFD00CCE24AC6E326A164D74DC0B4128928FF326038
310
472BA13128B1252AC747C6BAB984FC68F0B87FE8960A5C09FE86CFB69FBA01504B0304140006080800C84DCE4252B9B12968010000020300000C0000006662782F636F72652E786D6C8D525B6E833010BC8AE5DF0A6C028126328E92B439412FE0804351C0467EA01CBFCB23A2A9A2A84232D6CCCEEEEC00DBDDDA06F5D2D8
310
5AAB1C4721C548AA4297B5AA72ECDD2578C768C799D1DAFD2AC3488956E67880316795D1BE9BA1422B27950354E952CEA0B0563A8C8A062E39B6C5B76C4528BC830A7B0D3B515C4525C328041AEA38B3CE8001340D194ECC2FE71B2313CE99F77539B37509D3EA4B2D0DE64996C5EBEC9805FBF4F01124A7CF34386C0E3438
310
26A7E4B4D9A759BCA78C0C62CE5CDDDEDD15460A274BCC57348A039A0651F24537DB24DD46D91B5D6F63100DE50F22DF95FF14F95AB97835DB9D6416F3088C8CC49F6D212287ACE8C10FE18C0C21C26B4CF8316808044276E2DCDCF7B802D4CBC2699300536ABF50BD68BC84A9148D0F23130B9DC706B0D9D33EAB177D5EF7
310
800F285405D68483EBD9BB613A9BA6CE5174D204BDBB21A54D2B9AC5DC64713997414FE5856EB4F98F9ACCAB92394C32FCBDFC07504B0304140006080800C84DCE4290CAF1267D0000009D0000000B0000006662782F636E782E786D6C4DCCD10AC2201886E15B91FFDCB6E912057560E57D8CE686E4344CA3CB6F8B1D74F4
310
C1C3C72B87CF1AD0DBE5974F5141776A01B9784F938F8B825A66CC010D5AE694CADF0D501C57A76067D072C9A93E0F9ADC3CD650360D3E3E0E34960B428DC08CB417DC775781C58D11CCAD30AC67869E2D8546CBE657DA760FEB2F504B0304140006080800C84DCE420697E8142B01000014020000310000006662782F4246
310
3839323342392D363230432D343144392D394536322D3846394236343642333546332F636F72652E786D6C8D515B6EC32010BC0AE22B55850DC621768489E4B639412FE000495162B07854397E71ED48ED5F7E58343B333BDAE587FB7803DFDA07E36C07498121D0563A65ECA583299E5103C14170EF5CFC4383C00EA3EEE0
310
0C43C12FDEA56985A4B351DB9851EB945EC121041D2190B7FCE960905F7A1C8A21C5CC08D7621AE475B8E88214B99D798287E87300B00C995F28FA63D356B46F11ABF01BAAC97B8BDA0F56A1E6D8F6AC663DDD1E292F17A1E02919B5CA8DCA71CCD968FFACC92C163C9AF1115F7A3D44ADA0A830A1083344EA4FDCEE6BB627
310
BB57BCDD53CCCB99FE4F9426F5A428191B69B5C65D64010AC2CBA521B872E9747B84D1F7C9F908E6799BA0E50B14B8C0A42274CB1A5E2ED4BC80ECC9EAD53344E7F38237D75366D3D598D58297F38D72F93D60AEF33DC50F504B0304140006080800C84DCE420783B55C5601000033030000300000006662782F4246383932
310
3342392D363230432D343144392D394536322D3846394236343642333546332F636E782E786D6CBD93CD6EC32010845F0571ADFC17BB6E1A6122F5D027E8A157029B84068305B86ADEBE4B42D25C72A854F582ACD96166F509B3F5D768C827F8A09D1D6853D69480954E69BB1BE81CB7C592923567DEB97863A3C48A11069A
310
64CAD9CEBB79CA9282AD984D44D5687BC8A287E0662F21A09C6E12E3A4301800B698518471034A812257237E6DC1E32A286E8E24EE81BCBEBC13B7F9001903AB520A6755EAE02C9DB9E9C644893422848106B9875194628E4E4138944A445136E5A5EBCE4E3F49245DB854CE5E93543ED074529E372A9123AB70C859881EE9
310
65533C4E40B99826A3A58808B93A19CF1ECE666D63DF65AF46F01EDDEDA25F2E31EC34E32CEA11B2437A101114E58BBA698BBA2F9AEEAD7E5E75FDAA797AA81F576DCDAA64E76CE39CC9973006BC9B887436828D9437AC4AE37BF8B28F28ED91B5F3C75F804400B9F54CE79AF1977C9ABEEDBA7FE4539DDE37E2F2F817F06F
310
504B0304140006080800C84DCE42C5F07DE660070000991B0000340000006662782F42463839323342392D363230432D343144392D394536322D3846394236343642333546332F6F626A656374732E786D6CED595B739B3814FE2B0CFBB2FB606C7CE9263B844E6A271D4F276DA7DE76F6C1338C0C32D14608461269B2BF7E
310
8F2E602026C1DBEC5B1F0C464847E77CE7AA43F0F621A3CE3DE682E4ECC2F5BD89EB6016E70961E9855BCAFDE8CC75DE8601CF73D998E63A0C65F8C255C36E18A43C2F0B3B94E03D2AA9EC8C5EBFFBCB113166D875628A84B870457C8B33E4A152E60916775E8224F2D2FD83E77B66629B6CCA5171DB215A208E99044E619C
310
0115C730E5B71F27EE380CC6EA7D18A8AB9D351B346BDE3F6BACA56E7349989088C54F58EA90990D6269E6CF5757D3C5F968319FCF46F337537FF4EEFADD6AE4FF3E9B2CDF2C97E79757E7C0DE2ECFA99529C1056609E8EFD10DFD60ACDED4A25B048E711DE78CE15803095069B1BA040916B05503BE49FBD15712355E6B09
310
1BCF73F5DEB2D0189EB5A9F4CD1A06448B2E0862B7AB24AEEE4DF9F2DDDF20B81862945C6009DC0AC941BB161E0E5EE18693606C46C36077D005114E8624E6045187921D471C940253D59430300B2C19E51C1C48394A02AD39F3BA6D5BE0992FBBCE312EF725A5CA33DC503B5604EE87A5D09C917F303F70DF44067802694B
310
C2E499E5523E16D80DCF83B11E0C03759B4DED4B03A4B3A728151A11F3B623E852B9FE7AE5861FAE770F1B150E8E6F5EF0BCC05C2AA3537AD47C8121DBBB42C96EEB0FD29C5A00C21850EDCA03285F00F98F103D0EAC80DE3879983FCCED5CC91113FB9C67A01B67E28C26709938BEBEAAFF8D7FC1B85EDCD65E1F9EE0A60A
310
AAB31FC7B32D83C6CAF2DF80330CEEC1E0733EB3AF3631A260CF37840140CA481C9AC31084F6FDEEC10DD7103821D0C32A44431F440676EFE16F30B6640E5AA9DCCB7A1D0344ED1EB3214A02D8B445021B3D7A7A0FD98393F8A0A6A6887DF02E5EC55C2F579B0F9B92EF518C6FAC4FAFF09E3022216B1E67A885794BA23BFC
310
F83DE70908FA14EF4D13EFCC6E25006D85B9023EAD40500F879D5B1BC4B02ECD55B8095ED8018450B9BA41FF868818538A18CECB6ADF3ABA2943AD3DDED60C6E383510CFA61D13E6F89EA8AA029CE630A3C528E4FD98934281E886EF8D6475D0F47AA4FBBAFE081659CFEF99B566107A19A27FEAA0750487966557485B206A
310
817787701EE734E7D1EE313291CE855A02D8687BCBB7165188F546498A0A7890F6BB2AA4A446DA2821FB7D2920AE1E61F1DB7AD934878937F3174EF3DA71C639445BF05DC4ADDF75F6884886521CED51D2B75D73B79AB6D0247B4873BCA72017B927F23142329A24383D059A93889FBF2AF594E642108605E4ABA3E037D198
310
7810488C362B9695563B4013116558227A0A028A4C0FB83AEDE81A3786D2E1651E6BEB7D4E634DA2FF93457004B564CE2202A528E4901719F7BD05C49036BA06E50EBE606D156D2D062DA184881FA3EF98A4B7F214D40DF91EDC6338929432CA0B1483590F20FBC45794523BBCEF507CA7F2471497F4B50C4460BA8F08A565
310
16C18F3038790C71ED3A303D8B4283B8897D126750942159F2219BBC594C9EEC636A866E086C6CB42714C27694A1A207F55640D4F58853836FA9F7287557664584B2BC64830CC59B75BDC992EFAA55911DC8AF2A15A16CAC085B82614098ACB36A15B3C1D475600537D281EA3112282BA83985BD9078FCDA9B34E5DE0DB8F5
310
D3D7DD2083C2AF477BCD883AAF60B03CB60A03F11DC9F8D60D37FA3E7A07F577829343AAAF6ACD66050888A9485E726255F4750DE58DADD1DCF00649B17D6FB26E75FFBAF6A0FB118C610DD42EF5C2B5023AC34C225599DCA83FF40B8210DCA261C6D72AA79E42E5324974D588E835E95367AB8C686D9A11AFB8C52CCFE0C7
310
B684C5B44CF01625E22EBA9134DA10C5BA95D2CB4885F1B3027E7ABFE9C003230344FAAC0A3CFCBDB3D68E2E55B9749488BC2DB31D430482604BB4D4E8C62B586A355269B9BEAB3305D45D606056C5F39F278B663BE2E7C922B586F163270B9AEF103D449B46368F95599F740AA8D393A2F21AA700DD75A8A9D649C4E4722B
310
BEF5A508626215E407176355CC3004FB38FECF49BB2F099AED3AFC9F96B4FD2705C74949A5355935A98E14AEEB660A9B4ECF56B3E9E562B4989C5F417F7672353A9F9CC1E572B1F4AFA069BBBABAAED1D47E1A06752CD3A90B9E4D4CAB86D593C5009AB222A72481C37CE2A41842BE8423FD80EE39CFB080DCD9EC7527B627
310
3F60F5BD69734AB4A3B8E2E416417F980AC8EA805119CBF6B8F30B7426259CB32F5CE819797770B156E93A90782E5CE814481263E1EDA0CBA4FA799A38645C9DFA2D31C007B1546544B3A87EAE57296C5AD1BF9E32240B58B95A2D0CA8DB0A687EB51A149A37CB537C92E0153B0E92F077574A28D68C2C87815A18BDCD41FD
310
46364AD89DDDFA015CF779B17C4FCF692132E88BC1B34660A88E24E2A96E772BC62C4B97ABCF6368B339EB4F4E41CB1474399CD2886330E652D553604560159666812498EAF28FED679EC3179ECCD14591F3EBC3D99BDFB6CB3CCB726686B69770284BE03B91B3B985AF3EC9166A07AC7AEB623B9DF8D3ADEE69DB367BB443
310
027BAA288281AA965082744C0EECF2497FCA762FC74A159DE9EB95638328F4028C1D3D69F19A6F5C0EF890FA9AA23C46FB7925EDB36DEDB19E0A36C1A1211DFE0B504B0304140006080000C84DCE42000000000000000000000000350000006662782F42463839323342392D363230432D343144392D394536322D38463942
310
36343642333546332F76657274696365732E62696E504B0304140006080800C84DCE42F270F1330600000004000000360000006662782F42463839323342392D363230432D343144392D394536322D3846394236343642333546332F747269616E676C65732E62696E636660600000504B0304140006080000C84DCE420000
310
00000000000000000000370000006662782F42463839323342392D363230432D343144392D394536322D3846394236343642333546332F617474726962757465732E62696E504B0304140006080800C84DCE42D5987DFC8F00000041010000360000006662782F42463839323342392D363230432D343144392D394536322D
310
3846394236343642333546332F6469726563746F72792E786D6C858F410EC2201045AF4266AF15DDB800BA74E7C21B903225242D6328188F2FA5C4183471359997F9FF81E89FF3C41E1816475E02DF1F80A11FC8386F25A438EECEC07A250251FC3803E6F58C12560C4AD840E95E91C151A72936F496F35732D860FE635F62
310
C8F2DA16B505C545B74125BAA2FA9E05D7CC053D063734D5C7665FD55B6B8D15D5E9BFEAFD8490FFA45E504B0304140006080800C84DCE420FABAC68FE000000A00100003B0000006662782F42463839323342392D363230432D343144392D394536322D3846394236343642333546332F7265736F75726365732F636F7265
310
2E786D6C8D504B6E833010BD0A9A6D6530814041C611A4CD097A01CB4C889560237FAA1EBF2650A9DD7533337A1FCDD363A7AFF9917CA275CAE80EF29442825A9A51E9A983E0AFE415921367D618FF4B0689163376B0C2C0D9644D5876481AED51FB886A33E20E0AE7D043221FF1E8C0C91BCE2215C14785BBA78B90773161
310
9AA7918E3ACE9CB73140B23D5927708BCE042BD1B16C63390B418DBB468DF1A7BA2AB4C0CBBA2E8EF5B9227D35BC91F2F25E91A11928399797F2D2F4555DF49465AB9933AFE69F8CD2A2F038023FD0BC20B42279F9419BB6ACDABC7EA1C7B688A655FEC71496F19FA6A0B42F0E7BDCCDE680E731C893E02C5BFB8AEB5966DC
310
6BB7FC1B504B010214000A0000080000C84DCE423DEE336E79000000790000001B00000000000000000000000000000000006175746F6465736B2D64657369676E2D7061636B6167652E786D6C504B01021400140006080800C84DCE42D486FD9CA0000000F40000001300000000000000000000000000B20000005B436F6E
310
74656E745F54797065735D2E786D6C504B01021400140006080800C84DCE421C0082F0EC0000007C010000080000000000000000000000000083010000636F72652E786D6C504B01021400140006080800C84DCE4255019EA25F0000007C000000070000000000000000000000000095020000636E782E786D6C504B010214
310
00140006080800C84DCE4252B9B12968010000020300000C00000000000000000000000000190300006662782F636F72652E786D6C504B01021400140006080800C84DCE4290CAF1267D0000009D0000000B00000000000000000000000000AB0400006662782F636E782E786D6C504B01021400140006080800C84DCE4206
310
97E8142B010000140200003100000000000000000000000000510500006662782F42463839323342392D363230432D343144392D394536322D3846394236343642333546332F636F72652E786D6C504B01021400140006080800C84DCE420783B55C56010000330300003000000000000000000000000000CB060000666278
310
2F42463839323342392D363230432D343144392D394536322D3846394236343642333546332F636E782E786D6C504B01021400140006080800C84DCE42C5F07DE660070000991B000034000000000000000000000000006F0800006662782F42463839323342392D363230432D343144392D394536322D3846394236343642
310
333546332F6F626A656374732E786D6C504B01021400140006080000C84DCE420000000000000000000000003500000000000000000000000000211000006662782F42463839323342392D363230432D343144392D394536322D3846394236343642333546332F76657274696365732E62696E504B01021400140006080800
310
C84DCE42F270F13306000000040000003600000000000000000000000000741000006662782F42463839323342392D363230432D343144392D394536322D3846394236343642333546332F747269616E676C65732E62696E504B01021400140006080000C84DCE420000000000000000000000003700000000000000000000
310
000000CE1000006662782F42463839323342392D363230432D343144392D394536322D3846394236343642333546332F617474726962757465732E62696E504B01021400140006080800C84DCE42D5987DFC8F000000410100003600000000000000000000000000231100006662782F42463839323342392D363230432D34
310
3144392D394536322D3846394236343642333546332F6469726563746F72792E786D6C504B01021400140006080800C84DCE420FABAC68FE000000A00100003B00000000000000000000000000061200006662782F42463839323342392D363230432D343144392D394536322D3846394236343642333546332F7265736F75
310
726365732F636F72652E786D6C504B0506000000000E000E00800400005D1300000000
  0
XRECORD
  5
27
102
{ACAD_REACTORS
330
22
102
}
330
22
100
AcDbXrecord
280
     1
270
     1
271
     1
  0
XRECORD
  5
26
102
{ACAD_REACTORS
330
22
102
}
330
22
100
AcDbXrecord
280
     1
270
     1
271
     1
  0
XRECORD
  5
28
102
{ACAD_REACTORS
330
22
102
}
330
22
100
AcDbXrecord
280
     1
270
     1
271
     1
  0
XRECORD
  5
25
102
{ACAD_REACTORS
330
22
102
}
330
22
100
AcDbXrecord
280
     1
270
     1
271
     1
  0
XRECORD
  5
F70
102
{ACAD_REACTORS
330
F6F
102
}
330
F6F
100
AcDbXrecord
280
     1
102
ACAD_ROUNDTRIP_2012_MLEADER_STYLE
298
     1
  0
CELLSTYLEMAP
  5
F6E
102
{ACAD_REACTORS
330
F6D
102
}
330
F6D
100
AcDbCellStyleMap
 90
        3
300
CELLSTYLE
  1
TABLEFORMAT_BEGIN
 90
        5
170
     1
 91
        0
 92
    32768
 62
   257
 93
        1
300
CONTENTFORMAT
  1
CONTENTFORMAT_BEGIN
 90
        0
 91
        0
 92
      512
 93
        0
300

 40
0.0
140
1.0
 94
        5
 62
     0
340
55
144
0.25
309
CONTENTFORMAT_END
171
     0
 94
        0
309
TABLEFORMAT_END
  1
CELLSTYLE_BEGIN
 90
        1
 91
        1
300
_TITLE
309
CELLSTYLE_END
300
CELLSTYLE
  1
TABLEFORMAT_BEGIN
 90
        5
170
     1
 91
        0
 92
        0
 62
   257
 93
        1
300
CONTENTFORMAT
  1
CONTENTFORMAT_BEGIN
 90
        0
 91
        0
 92
      512
 93
        0
300

 40
0.0
140
1.0
 94
        5
 62
     0
340
55
144
0.18
309
CONTENTFORMAT_END
171
     0
 94
        0
309
TABLEFORMAT_END
  1
CELLSTYLE_BEGIN
 90
        2
 91
        1
300
_HEADER
309
CELLSTYLE_END
300
CELLSTYLE
  1
TABLEFORMAT_BEGIN
 90
        5
170
     1
 91
        0
 92
        0
 62
   257
 93
        1
300
CONTENTFORMAT
  1
CONTENTFORMAT_BEGIN
 90
        0
 91
        0
 92
      512
 93
        0
300

 40
0.0
140
1.0
 94
        2
 62
     0
340
55
144
0.18
309
CONTENTFORMAT_END
171
     0
 94
        0
309
TABLEFORMAT_END
  1
CELLSTYLE_BEGIN
 90
        3
 91
        2
300
_DATA
309
CELLSTYLE_END
  0
ENDSEC
  0
EOF
