  0
SECTION
  2
HEADER
  9
$ACADVER
  1
AC1024
  9
$ACADMAINTVER
 70
    63
  9
$DWGCODEPAGE
  3
ANSI_1252
  9
$AUTHOR
  1
MS
  9
$REVISIONNUMBER
  1
-
  9
$CUSTOMPROPERTYTAG
  1
Manager
  9
$CUSTOMPROPERTY
  1

  9
$CUSTOMPROPERTYTAG
  1
Company
  9
$CUSTOMPROPERTY
  1

  9
$CUSTOMPROPERTYTAG
  1
Category
  9
$CUSTOMPROPERTY
  1

  9
$CUSTOMPROPERTYTAG
  1
Part Number
  9
$CUSTOMPROPERTY
  1
WA72P60F1-S
  9
$CUSTOMPROPERTYTAG
  1
Description
  9
$CUSTOMPROPERTY
  1
N1P PANEL MASTER VIEW
  9
$CUSTOMPROPERTYTAG
  1
Project
  9
$CUSTOMPROPERTY
  1

  9
$CUSTOMPROPERTYTAG
  1
Designer
  9
$CUSTOMPROPERTY
  1
MS
  9
$CUSTOMPROPERTYTAG
  1
Engineer
  9
$CUSTOMPROPERTY
  1

  9
$CUSTOMPROPERTYTAG
  1
Authority
  9
$CUSTOMPROPERTY
  1

  9
$CUSTOMPROPERTYTAG
  1
Cost Center
  9
$CUSTOMPROPERTY
  1

  9
$CUSTOMPROPERTYTAG
  1
Vendor
  9
$CUSTOMPROPERTY
  1

  9
$CUSTOMPROPERTYTAG
  1
User Status
  9
$CUSTOMPROPERTY
  1

  9
$CUSTOMPROPERTYTAG
  1
Design Status
  9
$CUSTOMPROPERTY
  1
WorkInProgress
  9
$CUSTOMPROPERTYTAG
  1
Checked by
  9
$CUSTOMPROPERTY
  1
NJ
  9
$CUSTOMPROPERTYTAG
  1
Engr Approved by
  9
$CUSTOMPROPERTY
  1

  9
$CUSTOMPROPERTYTAG
  1
Date Eng Approved
  9
$CUSTOMPROPERTY
  1
06/13/2013
  9
$CUSTOMPROPERTYTAG
  1
Mfg Approved by
  9
$CUSTOMPROPERTY
  1

  9
$CUSTOMPROPERTYTAG
  1
DWG. NO
  9
$CUSTOMPROPERTY
  1

  9
$CUSTOMPROPERTYTAG
  1
NUMBER OF SHEETS
  9
$CUSTOMPROPERTY
  1
1
  9
$CUSTOMPROPERTYTAG
  1
DRAWING #
  9
$CUSTOMPROPERTY
  1
1
  9
$INSBASE
 10
0.0
 20
0.0
 30
0.0
  9
$EXTMIN
 10
0.0
 20
0.0
 30
0.0
  9
$EXTMAX
 10
204.0
 20
132.0
 30
0.0
  9
$LIMMIN
 10
0.0
 20
0.0
  9
$LIMMAX
 10
204.0
 20
132.0
  9
$ORTHOMODE
 70
     0
  9
$REGENMODE
 70
     1
  9
$FILLMODE
 70
     1
  9
$QTEXTMODE
 70
     0
  9
$MIRRTEXT
 70
     0
  9
$LTSCALE
 40
12.0
  9
$ATTMODE
 70
     1
  9
$TEXTSIZE
 40
0.2
  9
$TRACEWID
 40
0.05
  9
$TEXTSTYLE
  7
Standard
  9
$CLAYER
  8
0
  9
$CELTYPE
  6
ByLayer
  9
$CECOLOR
 62
   256
  9
$CELTSCALE
 40
1.0
  9
$DISPSILH
 70
     0
  9
$DIMSCALE
 40
1.0
  9
$DIMASZ
 40
0.0708661417322835
  9
$DIMEXO
 40
0.0625
  9
$DIMDLI
 40
0.38
  9
$DIMRND
 40
0.0
  9
$DIMDLE
 40
0.0
  9
$DIMEXE
 40
0.18
  9
$DIMTP
 40
0.0
  9
$DIMTM
 40
0.0
  9
$DIMTXT
 40
0.0708661417322835
  9
$DIMCEN
 40
0.09
  9
$DIMTSZ
 40
0.0
  9
$DIMTOL
 70
     0
  9
$DIMLIM
 70
     0
  9
$DIMTIH
 70
     1
  9
$DIMTOH
 70
     1
  9
$DIMSE1
 70
     0
  9
$DIMSE2
 70
     0
  9
$DIMTAD
 70
     0
  9
$DIMZIN
 70
     0
  9
$DIMBLK
  1

  9
$DIMASO
 70
     1
  9
$DIMSHO
 70
     1
  9
$DIMPOST
  1

  9
$DIMAPOST
  1

  9
$DIMALT
 70
     0
  9
$DIMALTD
 70
     2
  9
$DIMALTF
 40
25.4
  9
$DIMLFAC
 40
1.0
  9
$DIMTOFL
 70
     0
  9
$DIMTVP
 40
0.0
  9
$DIMTIX
 70
     0
  9
$DIMSOXD
 70
     0
  9
$DIMSAH
 70
     0
  9
$DIMBLK1
  1

  9
$DIMBLK2
  1

  9
$DIMSTYLE
  2
STANDARD
  9
$DIMCLRD
 70
     0
  9
$DIMCLRE
 70
     0
  9
$DIMCLRT
 70
     0
  9
$DIMTFAC
 40
1.0
  9
$DIMGAP
 40
0.09
  9
$DIMJUST
 70
     0
  9
$DIMSD1
 70
     0
  9
$DIMSD2
 70
     0
  9
$DIMTOLJ
 70
     1
  9
$DIMTZIN
 70
     0
  9
$DIMALTZ
 70
     0
  9
$DIMALTTZ
 70
     0
  9
$DIMUPT
 70
     0
  9
$DIMDEC
 70
     4
  9
$DIMTDEC
 70
     4
  9
$DIMALTU
 70
     2
  9
$DIMALTTD
 70
     2
  9
$DIMTXSTY
  7
Standard
  9
$DIMAUNIT
 70
     0
  9
$DIMADEC
 70
     0
  9
$DIMALTRND
 40
0.0
  9
$DIMAZIN
 70
     0
  9
$DIMDSEP
 70
    46
  9
$DIMATFIT
 70
     3
  9
$DIMFRAC
 70
     0
  9
$DIMLDRBLK
  1

  9
$DIMLUNIT
 70
     2
  9
$DIMLWD
 70
    -2
  9
$DIMLWE
 70
    -2
  9
$DIMTMOVE
 70
     0
  9
$DIMFXL
 40
1.0
  9
$DIMFXLON
 70
     0
  9
$DIMJOGANG
 40
0.7853981633974483
  9
$DIMTFILL
 70
     0
  9
$DIMTFILLCLR
 70
     0
  9
$DIMARCSYM
 70
     0
  9
$DIMLTYPE
  6

  9
$DIMLTEX1
  6

  9
$DIMLTEX2
  6

  9
$DIMTXTDIRECTION
 70
     0
  9
$LUNITS
 70
     2
  9
$LUPREC
 70
     4
  9
$SKETCHINC
 40
0.1
  9
$FILLETRAD
 40
0.0
  9
$AUNITS
 70
     0
  9
$AUPREC
 70
     0
  9
$MENU
  1
.
  9
$ELEVATION
 40
0.0
  9
$PELEVATION
 40
0.0
  9
$THICKNESS
 40
0.0
  9
$LIMCHECK
 70
     0
  9
$CHAMFERA
 40
0.0
  9
$CHAMFERB
 40
0.0
  9
$CHAMFERC
 40
0.0
  9
$CHAMFERD
 40
0.0
  9
$SKPOLY
 70
     0
  9
$TDCREATE
 40
2456458.408628900
  9
$TDUCREATE
 40
2456458.179462234
  9
$TDUPDATE
 40
2456458.408628912
  9
$TDUUPDATE
 40
2456458.179462245
  9
$TDINDWG
 40
0.0000451620
  9
$TDUSRTIMER
 40
0.0000451620
  9
$USRTIMER
 70
     1
  9
$ANGBASE
 50
0.0
  9
$ANGDIR
 70
     0
  9
$PDMODE
 70
     0
  9
$PDSIZE
 40
0.0
  9
$PLINEWID
 40
0.0
  9
$SPLFRAME
 70
     0
  9
$SPLINETYPE
 70
     6
  9
$SPLINESEGS
 70
     8
  9
$HANDSEED
  5
F74
  9
$SURFTAB1
 70
     6
  9
$SURFTAB2
 70
     6
  9
$SURFTYPE
 70
     6
  9
$SURFU
 70
     6
  9
$SURFV
 70
     6
  9
$UCSBASE
  2

  9
$UCSNAME
  2

  9
$UCSORG
 10
0.0
 20
0.0
 30
0.0
  9
$UCSXDIR
 10
1.0
 20
0.0
 30
0.0
  9
$UCSYDIR
 10
0.0
 20
1.0
 30
0.0
  9
$UCSORTHOREF
  2

  9
$UCSORTHOVIEW
 70
     0
  9
$UCSORGTOP
 10
0.0
 20
0.0
 30
0.0
  9
$UCSORGBOTTOM
 10
0.0
 20
0.0
 30
0.0
  9
$UCSORGLEFT
 10
0.0
 20
0.0
 30
0.0
  9
$UCSORGRIGHT
 10
0.0
 20
0.0
 30
0.0
  9
$UCSORGFRONT
 10
0.0
 20
0.0
 30
0.0
  9
$UCSORGBACK
 10
0.0
 20
0.0
 30
0.0
  9
$PUCSBASE
  2

  9
$PUCSNAME
  2

  9
$PUCSORG
 10
0.0
 20
0.0
 30
0.0
  9
$PUCSXDIR
 10
1.0
 20
0.0
 30
0.0
  9
$PUCSYDIR
 10
0.0
 20
1.0
 30
0.0
  9
$PUCSORTHOREF
  2

  9
$PUCSORTHOVIEW
 70
     0
  9
$PUCSORGTOP
 10
0.0
 20
0.0
 30
0.0
  9
$PUCSORGBOTTOM
 10
0.0
 20
0.0
 30
0.0
  9
$PUCSORGLEFT
 10
0.0
 20
0.0
 30
0.0
  9
$PUCSORGRIGHT
 10
0.0
 20
0.0
 30
0.0
  9
$PUCSORGFRONT
 10
0.0
 20
0.0
 30
0.0
  9
$PUCSORGBACK
 10
0.0
 20
0.0
 30
0.0
  9
$USERI1
 70
     0
  9
$USERI2
 70
     0
  9
$USERI3
 70
     0
  9
$USERI4
 70
     0
  9
$USERI5
 70
     0
  9
$USERR1
 40
0.0
  9
$USERR2
 40
0.0
  9
$USERR3
 40
0.0
  9
$USERR4
 40
0.0
  9
$USERR5
 40
0.0
  9
$WORLDVIEW
 70
     1
  9
$SHADEDGE
 70
     3
  9
$SHADEDIF
 70
    70
  9
$TILEMODE
 70
     1
  9
$MAXACTVP
 70
    64
  9
$PINSBASE
 10
0.0
 20
0.0
 30
0.0
  9
$PLIMCHECK
 70
     0
  9
$PEXTMIN
 10
0.0
 20
0.0
 30
0.0
  9
$PEXTMAX
 10
204.0
 20
132.0
 30
0.0
  9
$PLIMMIN
 10
0.0
 20
0.0
  9
$PLIMMAX
 10
204.0
 20
132.0
  9
$UNITMODE
 70
     0
  9
$VISRETAIN
 70
     1
  9
$PLINEGEN
 70
     0
  9
$PSLTSCALE
 70
     1
  9
$TREEDEPTH
 70
  3020
  9
$CMLSTYLE
  2
Standard
  9
$CMLJUST
 70
     0
  9
$CMLSCALE
 40
1.0
  9
$PROXYGRAPHICS
 70
     1
  9
$MEASUREMENT
 70
     0
  9
$CELWEIGHT
370
    -1
  9
$ENDCAPS
280
     0
  9
$JOINSTYLE
280
     0
  9
$LWDISPLAY
290
     0
  9
$INSUNITS
 70
     1
  9
$HYPERLINKBASE
  1

  9
$STYLESHEET
  1

  9
$XEDIT
290
     1
  9
$CEPSNTYPE
380
     0
  9
$PSTYLEMODE
290
     1
  9
$FINGERPRINTGUID
  2
{67DFA018-52BF-4F95-A535-674A2D1469AE}
  9
$VERSIONGUID
  2
{7A638ADD-D961-4C84-8D42-DD09FFE58450}
  9
$EXTNAMES
290
     1
  9
$PSVPSCALE
 40
0.0
  9
$OLESTARTUP
290
     0
  9
$SORTENTS
280
   127
  9
$INDEXCTL
280
     0
  9
$HIDETEXT
280
     1
  9
$XCLIPFRAME
280
     2
  9
$HALOGAP
280
     0
  9
$OBSCOLOR
 70
   257
  9
$OBSLTYPE
280
     0
  9
$INTERSECTIONDISPLAY
280
     0
  9
$INTERSECTIONCOLOR
 70
   257
  9
$DIMASSOC
280
     1
  9
$PROJECTNAME
  1

  9
$CAMERADISPLAY
290
     0
  9
$LENSLENGTH
 40
50.0
  9
$CAMERAHEIGHT
 40
0.0
  9
$STEPSPERSEC
 40
2.0
  9
$STEPSIZE
 40
6.0
  9
$3DDWFPREC
 40
2.0
  9
$PSOLWIDTH
 40
0.25
  9
$PSOLHEIGHT
 40
4.0
  9
$LOFTANG1
 40
1.570796326794896
  9
$LOFTANG2
 40
1.570796326794896
  9
$LOFTMAG1
 40
0.0
  9
$LOFTMAG2
 40
0.0
  9
$LOFTPARAM
 70
     7
  9
$LOFTNORMALS
280
     1
  9
$LATITUDE
 40
37.795
  9
$LONGITUDE
 40
-122.394
  9
$NORTHDIRECTION
 40
0.0
  9
$TIMEZONE
 70
 -8000
  9
$LIGHTGLYPHDISPLAY
280
     1
  9
$TILEMODELIGHTSYNCH
280
     1
  9
$CMATERIAL
347
11
  9
$SOLIDHIST
280
     0
  9
$SHOWHIST
280
     1
  9
$DWFFRAME
280
     2
  9
$DGNFRAME
280
     0
  9
$REALWORLDSCALE
290
     1
  9
$INTERFERECOLOR
 62
     1
  9
$INTERFEREOBJVS
345
33
  9
$INTERFEREVPVS
346
30
  9
$CSHADOW
280
     0
  9
$SHADOWPLANELOCATION
 40
0.0
  0
ENDSEC
  0
SECTION
  2
CLASSES
  0
CLASS
  1
ACDBDICTIONARYWDFLT
  2
AcDbDictionaryWithDefault
  3
ObjectDBX Classes
 90
        0
 91
        1
280
     0
281
     0
  0
CLASS
  1
MATERIAL
  2
AcDbMaterial
  3
ObjectDBX Classes
 90
     1153
 91
        3
280
     0
281
     0
  0
CLASS
  1
VISUALSTYLE
  2
AcDbVisualStyle
  3
ObjectDBX Classes
 90
     4095
 91
       24
280
     0
281
     0
  0
CLASS
  1
SCALE
  2
AcDbScale
  3
ObjectDBX Classes
 90
     1153
 91
       17
280
     0
281
     0
  0
CLASS
  1
TABLESTYLE
  2
AcDbTableStyle
  3
ObjectDBX Classes
 90
     4095
 91
        1
280
     0
281
     0
  0
CLASS
  1
MLEADERSTYLE
  2
AcDbMLeaderStyle
  3
ACDB_MLEADERSTYLE_CLASS
 90
     4095
 91
        1
280
     0
281
     0
  0
CLASS
  1
DICTIONARYVAR
  2
AcDbDictionaryVar
  3
ObjectDBX Classes
 90
        0
 91
        3
280
     0
281
     0
  0
CLASS
  1
CELLSTYLEMAP
  2
AcDbCellStyleMap
  3
ObjectDBX Classes
 90
     1152
 91
        1
280
     0
281
     0
  0
ENDSEC
  0
SECTION
  2
TABLES
  0
TABLE
  2
VPORT
  5
8
330
0
100
AcDbSymbolTable
 70
     1
  0
VPORT
  5
57
330
8
100
AcDbSymbolTableRecord
100
AcDbViewportTableRecord
  2
*Active
 70
     0
 10
0.0
 20
0.0
 11
1.0
 21
1.0
 12
102.0
 22
66.0
 13
0.0
 23
0.0
 14
1.0
 24
1.0
 15
0.0
 25
0.0
 16
0.0
 26
0.0
 36
1.0
 17
0.0
 27
0.0
 37
0.0
 40
132.0
 41
1.545454545454545
 42
50.0
 43
0.0
 44
0.0
 50
0.0
 51
0.0
 71
     0
 72
   100
 73
     1
 74
     1
 75
     0
 76
     0
 77
     0
 78
     0
281
     0
 65
     1
110
0.0
120
0.0
130
0.0
111
1.0
121
0.0
131
0.0
112
0.0
122
1.0
132
0.0
 79
     0
146
0.0
 60
     3
 61
     5
292
     1
282
     1
141
0.0
142
0.0
 63
   250
421
  3355443
  0
ENDTAB
  0
TABLE
  2
LTYPE
  5
5
330
0
100
AcDbSymbolTable
 70
    59
  0
LTYPE
  5
5B
330
5
100
AcDbSymbolTableRecord
100
AcDbLinetypeTableRecord
  2
ByBlock
 70
     0
  3

 72
    65
 73
     0
 40
0.0
  0
LTYPE
  5
5C
330
5
100
AcDbSymbolTableRecord
100
AcDbLinetypeTableRecord
  2
ByLayer
 70
     0
  3

 72
    65
 73
     0
 40
0.0
  0
LTYPE
  5
5D
330
5
100
AcDbSymbolTableRecord
100
AcDbLinetypeTableRecord
  2
Continuous
 70
     0
  3
Solid line
 72
    65
 73
     0
 40
0.0
  0
LTYPE
  5
7C
330
5
100
AcDbSymbolTableRecord
100
AcDbLinetypeTableRecord
  2
BY_STANDARD
 70
     0
  3
By Standard ____________    ____    ____   _
 72
    65
 73
     6
 40
1.240299999999999
 49
0.6614
 74
     0
 49
-0.0827
 74
     0
 49
0.1654
 74
     0
 49
-0.0827
 74
     0
 49
0.1654
 74
     0
 49
-0.0827
 74
     0
  0
LTYPE
  5
7D
330
5
100
AcDbSymbolTableRecord
100
AcDbLinetypeTableRecord
  2
CHAIN
 70
     0
  3
Chain ____ _ ____ _ ____ _ ____ _ ____ _ ____
 72
    65
 73
     4
 40
0.7087
 49
0.4724000000000001
 74
     0
 49
-0.0591
 74
     0
 49
0.1181
 74
     0
 49
-0.0591
 74
     0
  0
LTYPE
  5
7E
330
5
100
AcDbSymbolTableRecord
100
AcDbLinetypeTableRecord
  2
DASH_DOT
 70
     0
  3
Dash dot __ . __ . __ . __ . __ . __ . __ . __
 72
    65
 73
     4
 40
0.37
 49
0.24
 74
     0
 49
-0.06
 74
     0
 49
0.01
 74
     0
 49
-0.06
 74
     0
  0
LTYPE
  5
7F
330
5
100
AcDbSymbolTableRecord
100
AcDbLinetypeTableRecord
  2
DOUBLE_DASH_DOT
 70
     0
  3
Double-Dash Dot __ __ . __ __ . __ __ . __ _
 72
    65
 73
     6
 40
0.4398
 49
0.24
 74
     0
 49
-0.06
 74
     0
 49
0.0098
 74
     0
 49
-0.06
 74
     0
 49
0.01
 74
     0
 49
-0.06
 74
     0
  0
LTYPE
  5
80
330
5
100
AcDbSymbolTableRecord
100
AcDbLinetypeTableRecord
  2
DASH_TRIPLE_DOT
 70
     0
  3
Dash Triple-Dot _ . . . _ . . . _ . . . _
 72
    65
 73
     8
 40
0.51
 49
0.24
 74
     0
 49
-0.06
 74
     0
 49
0.01
 74
     0
 49
-0.06
 74
     0
 49
0.01
 74
     0
 49
-0.06
 74
     0
 49
0.01
 74
     0
 49
-0.06
 74
     0
  0
LTYPE
  5
81
330
5
100
AcDbSymbolTableRecord
100
AcDbLinetypeTableRecord
  2
DASHED
 70
     0
  3
Dashed __ __ __ __ __ __ __ __ __ __ __ __ __ _
 72
    65
 73
     2
 40
0.2067
 49
0.1654
 74
     0
 49
-0.0413
 74
     0
  0
LTYPE
  5
82
330
5
100
AcDbSymbolTableRecord
100
AcDbLinetypeTableRecord
  2
DASH_DOUBLE_DOT
 70
     0
  3
Dash Double-Dot __ . . __ . . __ . . __ . .
 72
    65
 73
     6
 40
0.4398
 49
0.24
 74
     0
 49
-0.06
 74
     0
 49
0.0098
 74
     0
 49
-0.06
 74
     0
 49
0.01
 74
     0
 49
-0.06
 74
     0
  0
LTYPE
  5
83
330
5
100
AcDbSymbolTableRecord
100
AcDbLinetypeTableRecord
  2
DASHED_SPACE
 70
     0
  3
Dashed Space __ __ __ __ __ __ __ __ __ __ __ _
 72
    65
 73
     2
 40
0.2067
 49
0.1654
 74
     0
 49
-0.0413
 74
     0
  0
LTYPE
  5
84
330
5
100
AcDbSymbolTableRecord
100
AcDbLinetypeTableRecord
  2
DOTTED
 70
     0
  3
Dotted . . . . . . . . . . . . . . . . . . . . 
 72
    65
 73
     2
 40
0.0482
 49
0.0069
 74
     0
 49
-0.0413
 74
     0
  0
LTYPE
  5
85
330
5
100
AcDbSymbolTableRecord
100
AcDbLinetypeTableRecord
  2
DOUBLE_DASH_CHAIN
 70
     0
  3
Double-Dash Chain ______  __  __  ______  __  _
 72
    65
 73
     6
 40
1.240299999999999
 49
0.6614
 74
     0
 49
-0.0827
 74
     0
 49
0.1654
 74
     0
 49
-0.0827
 74
     0
 49
0.1654
 74
     0
 49
-0.0827
 74
     0
  0
LTYPE
  5
87
330
5
100
AcDbSymbolTableRecord
100
AcDbLinetypeTableRecord
  2
DOUBLE_DASH_DOUBLE_DOT
 70
     0
  3
Double-Dash Double-dot _ _ . . _ _ . . _
 72
    65
 73
     8
 40
0.7400000000000001
 49
0.24
 74
     0
 49
-0.06
 74
     0
 49
0.24
 74
     0
 49
-0.06
 74
     0
 49
0.01
 74
     0
 49
-0.06
 74
     0
 49
0.01
 74
     0
 49
-0.06
 74
     0
  0
LTYPE
  5
88
330
5
100
AcDbSymbolTableRecord
100
AcDbLinetypeTableRecord
  2
DOUBLE_DASH_TRIPLE_DOT
 70
     0
  3
Double Dash Triple Dot __ __ . . . __ __ . .
 72
    65
 73
    10
 40
0.8100000000000001
 49
0.24
 74
     0
 49
-0.06
 74
     0
 49
0.24
 74
     0
 49
-0.06
 74
     0
 49
0.01
 74
     0
 49
-0.06
 74
     0
 49
0.01
 74
     0
 49
-0.06
 74
     0
 49
0.01
 74
     0
 49
-0.06
 74
     0
  0
LTYPE
  5
89
330
5
100
AcDbSymbolTableRecord
100
AcDbLinetypeTableRecord
  2
LONG_DASH_DOTTED
 70
     0
  3
Long Dash Dotted ____ . ____ . ____ . ____ . _
 72
    65
 73
     4
 40
0.3543
 49
0.2362
 74
     0
 49
-0.0295
 74
     0
 49
0.0591
 74
     0
 49
-0.0295
 74
     0
  0
LTYPE
  5
8A
330
5
100
AcDbSymbolTableRecord
100
AcDbLinetypeTableRecord
  2
LONG_DASH_DOUBLE_DOT
 70
     0
  3
Long Dash Double Dot ________  .  .  ________  
 72
    65
 73
     6
 40
0.6799999999999999
 49
0.48
 74
     0
 49
-0.06
 74
     0
 49
0.01
 74
     0
 49
-0.06
 74
     0
 49
0.01
 74
     0
 49
-0.06
 74
     0
  0
LTYPE
  5
8B
330
5
100
AcDbSymbolTableRecord
100
AcDbLinetypeTableRecord
  2
LONG_DASH_TRIPLE_DOT
 70
     0
  3
Long Dash Triple Dot ____ ... ____ ... ____
 72
    65
 73
     8
 40
0.3689
 49
0.2362
 74
     0
 49
-0.0295
 74
     0
 49
0.0049
 74
     0
 49
-0.0295
 74
     0
 49
0.0049
 74
     0
 49
-0.0295
 74
     0
 49
0.0049
 74
     0
 49
-0.0295
 74
     0
  0
LTYPE
  5
8C
330
5
100
AcDbSymbolTableRecord
100
AcDbLinetypeTableRecord
  2
BORDER
 70
     0
  3
Border __ __ . __ __ . __ __ . __ __ . __ __ .
 72
    65
 73
     6
 40
1.75
 49
0.5
 74
     0
 49
-0.25
 74
     0
 49
0.5
 74
     0
 49
-0.25
 74
     0
 49
0.0
 74
     0
 49
-0.25
 74
     0
  0
LTYPE
  5
8D
330
5
100
AcDbSymbolTableRecord
100
AcDbLinetypeTableRecord
  2
BORDER2
 70
     0
  3
Border (.5x) __.__.__.__.__.__.__.__.__.__.__.
 72
    65
 73
     6
 40
0.875
 49
0.25
 74
     0
 49
-0.125
 74
     0
 49
0.25
 74
     0
 49
-0.125
 74
     0
 49
0.0
 74
     0
 49
-0.125
 74
     0
  0
LTYPE
  5
8E
330
5
100
AcDbSymbolTableRecord
100
AcDbLinetypeTableRecord
  2
BORDERX2
 70
     0
  3
Border (2x) ____  ____  .  ____  ____  .  ___
 72
    65
 73
     6
 40
3.5
 49
1.0
 74
     0
 49
-0.5
 74
     0
 49
1.0
 74
     0
 49
-0.5
 74
     0
 49
0.0
 74
     0
 49
-0.5
 74
     0
  0
LTYPE
  5
8F
330
5
100
AcDbSymbolTableRecord
100
AcDbLinetypeTableRecord
  2
CENTER
 70
     0
  3
Center ____ _ ____ _ ____ _ ____ _ ____ _ ____
 72
    65
 73
     4
 40
2.0
 49
1.25
 74
     0
 49
-0.25
 74
     0
 49
0.25
 74
     0
 49
-0.25
 74
     0
  0
LTYPE
  5
90
330
5
100
AcDbSymbolTableRecord
100
AcDbLinetypeTableRecord
  2
CENTER2
 70
     0
  3
Center (.5x) ___ _ ___ _ ___ _ ___ _ ___ _ ___
 72
    65
 73
     4
 40
1.125
 49
0.75
 74
     0
 49
-0.125
 74
     0
 49
0.125
 74
     0
 49
-0.125
 74
     0
  0
LTYPE
  5
91
330
5
100
AcDbSymbolTableRecord
100
AcDbLinetypeTableRecord
  2
CENTERX2
 70
     0
  3
Center (2x) ________  __  ________  __  _____
 72
    65
 73
     4
 40
4.0
 49
2.5
 74
     0
 49
-0.5
 74
     0
 49
0.5
 74
     0
 49
-0.5
 74
     0
  0
LTYPE
  5
92
330
5
100
AcDbSymbolTableRecord
100
AcDbLinetypeTableRecord
  2
DASHDOT2
 70
     0
  3
Dash dot (.5x) _._._._._._._._._._._._._._._.
 72
    65
 73
     4
 40
0.5
 49
0.25
 74
     0
 49
-0.125
 74
     0
 49
0.0
 74
     0
 49
-0.125
 74
     0
  0
LTYPE
  5
93
330
5
100
AcDbSymbolTableRecord
100
AcDbLinetypeTableRecord
  2
DASHDOTX2
 70
     0
  3
Dash dot (2x) ____  .  ____  .  ____  .  ___
 72
    65
 73
     4
 40
2.0
 49
1.0
 74
     0
 49
-0.5
 74
     0
 49
0.0
 74
     0
 49
-0.5
 74
     0
  0
LTYPE
  5
95
330
5
100
AcDbSymbolTableRecord
100
AcDbLinetypeTableRecord
  2
DASHED2
 70
     0
  3
Dashed (.5x) _ _ _ _ _ _ _ _ _ _ _ _ _ _ _ _ _
 72
    65
 73
     2
 40
0.375
 49
0.25
 74
     0
 49
-0.125
 74
     0
  0
LTYPE
  5
96
330
5
100
AcDbSymbolTableRecord
100
AcDbLinetypeTableRecord
  2
DASHEDX2
 70
     0
  3
Dashed (2x) ____  ____  ____  ____  ____  ___
 72
    65
 73
     2
 40
1.5
 49
1.0
 74
     0
 49
-0.5
 74
     0
  0
LTYPE
  5
97
330
5
100
AcDbSymbolTableRecord
100
AcDbLinetypeTableRecord
  2
DIVIDE
 70
     0
  3
Divide ____ . . ____ . . ____ . . ____ . . ____
 72
    65
 73
     6
 40
1.25
 49
0.5
 74
     0
 49
-0.25
 74
     0
 49
0.0
 74
     0
 49
-0.25
 74
     0
 49
0.0
 74
     0
 49
-0.25
 74
     0
  0
LTYPE
  5
98
330
5
100
AcDbSymbolTableRecord
100
AcDbLinetypeTableRecord
  2
DIVIDE2
 70
     0
  3
Divide (.5x) __..__..__..__..__..__..__..__.._
 72
    65
 73
     6
 40
0.625
 49
0.25
 74
     0
 49
-0.125
 74
     0
 49
0.0
 74
     0
 49
-0.125
 74
     0
 49
0.0
 74
     0
 49
-0.125
 74
     0
  0
LTYPE
  5
99
330
5
100
AcDbSymbolTableRecord
100
AcDbLinetypeTableRecord
  2
DIVIDEX2
 70
     0
  3
Divide (2x) ________  .  .  ________  .  .  _
 72
    65
 73
     6
 40
2.5
 49
1.0
 74
     0
 49
-0.5
 74
     0
 49
0.0
 74
     0
 49
-0.5
 74
     0
 49
0.0
 74
     0
 49
-0.5
 74
     0
  0
LTYPE
  5
9A
330
5
100
AcDbSymbolTableRecord
100
AcDbLinetypeTableRecord
  2
DOT
 70
     0
  3
Dot . . . . . . . . . . . . . . . . . . . . . .
 72
    65
 73
     2
 40
0.25
 49
0.0
 74
     0
 49
-0.25
 74
     0
  0
LTYPE
  5
9B
330
5
100
AcDbSymbolTableRecord
100
AcDbLinetypeTableRecord
  2
DOT2
 70
     0
  3
Dot (.5x) .....................................
 72
    65
 73
     2
 40
0.125
 49
0.0
 74
     0
 49
-0.125
 74
     0
  0
LTYPE
  5
9C
330
5
100
AcDbSymbolTableRecord
100
AcDbLinetypeTableRecord
  2
DOTX2
 70
     0
  3
Dot (2x) .  .  .  .  .  .  .  .  .  .  .  .  . 
 72
    65
 73
     2
 40
0.5
 49
0.0
 74
     0
 49
-0.5
 74
     0
  0
LTYPE
  5
9D
330
5
100
AcDbSymbolTableRecord
100
AcDbLinetypeTableRecord
  2
HIDDEN
 70
     0
  3
Hidden __ __ __ __ __ __ __ __ __ __ __ __ __ _
 72
    65
 73
     2
 40
0.375
 49
0.25
 74
     0
 49
-0.125
 74
     0
  0
LTYPE
  5
9E
330
5
100
AcDbSymbolTableRecord
100
AcDbLinetypeTableRecord
  2
HIDDEN2
 70
     0
  3
Hidden (.5x) _ _ _ _ _ _ _ _ _ _ _ _ _ _ _ _ _
 72
    65
 73
     2
 40
0.1875
 49
0.125
 74
     0
 49
-0.0625
 74
     0
  0
LTYPE
  5
9F
330
5
100
AcDbSymbolTableRecord
100
AcDbLinetypeTableRecord
  2
HIDDENX2
 70
     0
  3
Hidden (2x) ____ ____ ____ ____ ____ ____ ____
 72
    65
 73
     2
 40
0.75
 49
0.5
 74
     0
 49
-0.25
 74
     0
  0
LTYPE
  5
A0
330
5
100
AcDbSymbolTableRecord
100
AcDbLinetypeTableRecord
  2
PHANTOM
 70
     0
  3
Phantom ______  __  __  ______  __  __  ______
 72
    65
 73
     6
 40
2.5
 49
1.25
 74
     0
 49
-0.25
 74
     0
 49
0.25
 74
     0
 49
-0.25
 74
     0
 49
0.25
 74
     0
 49
-0.25
 74
     0
  0
LTYPE
  5
A1
330
5
100
AcDbSymbolTableRecord
100
AcDbLinetypeTableRecord
  2
PHANTOM2
 70
     0
  3
Phantom (.5x) ___ _ _ ___ _ _ ___ _ _ ___ _ _
 72
    65
 73
     6
 40
1.25
 49
0.625
 74
     0
 49
-0.125
 74
     0
 49
0.125
 74
     0
 49
-0.125
 74
     0
 49
0.125
 74
     0
 49
-0.125
 74
     0
  0
LTYPE
  5
A2
330
5
100
AcDbSymbolTableRecord
100
AcDbLinetypeTableRecord
  2
PHANTOMX2
 70
     0
  3
Phantom (2x) ____________    ____    ____   _
 72
    65
 73
     6
 40
5.0
 49
2.5
 74
     0
 49
-0.5
 74
     0
 49
0.5
 74
     0
 49
-0.5
 74
     0
 49
0.5
 74
     0
 49
-0.5
 74
     0
  0
LTYPE
  5
A3
330
5
100
AcDbSymbolTableRecord
100
AcDbLinetypeTableRecord
  2
ACAD_ISO02W100
 70
     0
  3
ISO dash __ __ __ __ __ __ __ __ __ __ __ __ __
 72
    65
 73
     2
 40
0.59
 49
0.47
 74
     0
 49
-0.12
 74
     0
  0
LTYPE
  5
A4
330
5
100
AcDbSymbolTableRecord
100
AcDbLinetypeTableRecord
  2
ACAD_ISO03W100
 70
     0
  3
ISO dash space __    __    __    __    __    __
 72
    65
 73
     2
 40
1.179999999999999
 49
0.47
 74
     0
 49
-0.71
 74
     0
  0
LTYPE
  5
A5
330
5
100
AcDbSymbolTableRecord
100
AcDbLinetypeTableRecord
  2
ACAD_ISO04W100
 70
     0
  3
ISO long-dash dot ____ . ____ . ____ . ____ . _
 72
    65
 73
     4
 40
1.179999999999999
 49
0.9399999999999998
 74
     0
 49
-0.12
 74
     0
 49
0.0
 74
     0
 49
-0.12
 74
     0
  0
LTYPE
  5
A6
330
5
100
AcDbSymbolTableRecord
100
AcDbLinetypeTableRecord
  2
ACAD_ISO05W100
 70
     0
  3
ISO long-dash double-dot ____ .. ____ .. ____ .
 72
    65
 73
     6
 40
1.299999999999999
 49
0.9399999999999998
 74
     0
 49
-0.12
 74
     0
 49
0.0
 74
     0
 49
-0.12
 74
     0
 49
0.0
 74
     0
 49
-0.12
 74
     0
  0
LTYPE
  5
A7
330
5
100
AcDbSymbolTableRecord
100
AcDbLinetypeTableRecord
  2
ACAD_ISO06W100
 70
     0
  3
ISO long-dash triple-dot ____ ... ____ ... ____
 72
    65
 73
     8
 40
1.419999999999999
 49
0.9399999999999998
 74
     0
 49
-0.12
 74
     0
 49
0.0
 74
     0
 49
-0.12
 74
     0
 49
0.0
 74
     0
 49
-0.12
 74
     0
 49
0.0
 74
     0
 49
-0.12
 74
     0
  0
LTYPE
  5
A8
330
5
100
AcDbSymbolTableRecord
100
AcDbLinetypeTableRecord
  2
ACAD_ISO07W100
 70
     0
  3
ISO dot . . . . . . . . . . . . . . . . . . . .
 72
    65
 73
     2
 40
0.12
 49
0.0
 74
     0
 49
-0.12
 74
     0
  0
LTYPE
  5
A9
330
5
100
AcDbSymbolTableRecord
100
AcDbLinetypeTableRecord
  2
ACAD_ISO08W100
 70
     0
  3
ISO long-dash short-dash ____ __ ____ __ ____ _
 72
    65
 73
     4
 40
0.95
 49
0.47
 74
     0
 49
-0.12
 74
     0
 49
0.24
 74
     0
 49
-0.12
 74
     0
  0
LTYPE
  5
AA
330
5
100
AcDbSymbolTableRecord
100
AcDbLinetypeTableRecord
  2
ACAD_ISO09W100
 70
     0
  3
ISO long-dash double-short-dash ____ __ __ ____
 72
    65
 73
     6
 40
1.31
 49
0.47
 74
     0
 49
-0.12
 74
     0
 49
0.24
 74
     0
 49
-0.12
 74
     0
 49
0.24
 74
     0
 49
-0.12
 74
     0
  0
LTYPE
  5
AB
330
5
100
AcDbSymbolTableRecord
100
AcDbLinetypeTableRecord
  2
ACAD_ISO10W100
 70
     0
  3
ISO dash dot __ . __ . __ . __ . __ . __ . __ .
 72
    65
 73
     4
 40
0.71
 49
0.47
 74
     0
 49
-0.12
 74
     0
 49
0.0
 74
     0
 49
-0.12
 74
     0
  0
LTYPE
  5
AC
330
5
100
AcDbSymbolTableRecord
100
AcDbLinetypeTableRecord
  2
ACAD_ISO11W100
 70
     0
  3
ISO double-dash dot __ __ . __ __ . __ __ . __ 
 72
    65
 73
     6
 40
1.299999999999999
 49
0.47
 74
     0
 49
-0.12
 74
     0
 49
0.47
 74
     0
 49
-0.12
 74
     0
 49
0.0
 74
     0
 49
-0.12
 74
     0
  0
LTYPE
  5
AD
330
5
100
AcDbSymbolTableRecord
100
AcDbLinetypeTableRecord
  2
ACAD_ISO12W100
 70
     0
  3
ISO dash double-dot __ . . __ . . __ . . __ . .
 72
    65
 73
     6
 40
0.8299999999999998
 49
0.47
 74
     0
 49
-0.12
 74
     0
 49
0.0
 74
     0
 49
-0.12
 74
     0
 49
0.0
 74
     0
 49
-0.12
 74
     0
  0
LTYPE
  5
AE
330
5
100
AcDbSymbolTableRecord
100
AcDbLinetypeTableRecord
  2
ACAD_ISO13W100
 70
     0
  3
ISO double-dash double-dot __ __ . . __ __ . . 
 72
    65
 73
     8
 40
1.419999999999999
 49
0.47
 74
     0
 49
-0.12
 74
     0
 49
0.47
 74
     0
 49
-0.12
 74
     0
 49
0.0
 74
     0
 49
-0.12
 74
     0
 49
0.0
 74
     0
 49
-0.12
 74
     0
  0
LTYPE
  5
AF
330
5
100
AcDbSymbolTableRecord
100
AcDbLinetypeTableRecord
  2
ACAD_ISO14W100
 70
     0
  3
ISO dash triple-dot __ . . . __ . . . __ . . . 
 72
    65
 73
     8
 40
0.95
 49
0.47
 74
     0
 49
-0.12
 74
     0
 49
0.0
 74
     0
 49
-0.12
 74
     0
 49
0.0
 74
     0
 49
-0.12
 74
     0
 49
0.0
 74
     0
 49
-0.12
 74
     0
  0
LTYPE
  5
B0
330
5
100
AcDbSymbolTableRecord
100
AcDbLinetypeTableRecord
  2
ACAD_ISO15W100
 70
     0
  3
ISO double-dash triple-dot __ __ . . . __ __ . 
 72
    65
 73
    10
 40
1.539999999999999
 49
0.47
 74
     0
 49
-0.12
 74
     0
 49
0.47
 74
     0
 49
-0.12
 74
     0
 49
0.0
 74
     0
 49
-0.12
 74
     0
 49
0.0
 74
     0
 49
-0.12
 74
     0
 49
0.0
 74
     0
 49
-0.12
 74
     0
  0
LTYPE
  5
B3
330
5
100
AcDbSymbolTableRecord
100
AcDbLinetypeTableRecord
  2
FENCELINE1
 70
     0
  3
Fenceline circle ----0-----0----0-----0----0---
 72
    65
 73
     4
 40
1.45
 49
0.25
 74
     0
 49
-0.1
 74
     4
 75
   133
340
B2
 46
0.1
 50
0.0
 44
-0.1
 45
0.0
 49
-0.1
 74
     0
 49
1.0
 74
     0
  0
LTYPE
  5
B4
330
5
100
AcDbSymbolTableRecord
100
AcDbLinetypeTableRecord
  2
FENCELINE2
 70
     0
  3
Fenceline square ----[]-----[]----[]-----[]----
 72
    65
 73
     4
 40
1.45
 49
0.25
 74
     0
 49
-0.1
 74
     4
 75
   132
340
B2
 46
0.1
 50
0.0
 44
-0.1
 45
0.0
 49
-0.1
 74
     0
 49
1.0
 74
     0
  0
LTYPE
  5
B5
330
5
100
AcDbSymbolTableRecord
100
AcDbLinetypeTableRecord
  2
TRACKS
 70
     0
  3
Tracks -|-|-|-|-|-|-|-|-|-|-|-|-|-|-|-|-|-|-|-|
 72
    65
 73
     2
 40
0.3
 49
0.15
 74
     4
 75
   130
340
B2
 46
0.25
 50
0.0
 44
0.0
 45
0.0
 49
0.15
 74
     0
  0
LTYPE
  5
B6
330
5
100
AcDbSymbolTableRecord
100
AcDbLinetypeTableRecord
  2
BATTING
 70
     0
  3
Batting SSSSSSSSSSSSSSSSSSSSSSSSSSSSSSSSSSSSSSS
 72
    65
 73
     4
 40
0.4001000000000001
 49
0.0001
 74
     0
 49
-0.1
 74
     4
 75
   134
340
B2
 46
0.1
 50
0.0
 44
-0.1
 45
0.0
 49
-0.2
 74
     4
 75
   134
340
B2
 46
0.1
 50
180.0
 44
0.1
 45
0.0
 49
-0.1
 74
     0
  0
LTYPE
  5
B7
330
5
100
AcDbSymbolTableRecord
100
AcDbLinetypeTableRecord
  2
HOT_WATER_SUPPLY
 70
     0
  3
Hot water supply ---- HW ---- HW ---- HW ----
 72
    65
 73
     3
 40
0.9
 49
0.5
 74
     0
 49
-0.2
 74
     2
 75
     0
340
55
 46
0.1
 50
0.0
 44
-0.1
 45
-0.05
  9
HW
 49
-0.2
 74
     0
  0
LTYPE
  5
B8
330
5
100
AcDbSymbolTableRecord
100
AcDbLinetypeTableRecord
  2
GAS_LINE
 70
     0
  3
Gas line ----GAS----GAS----GAS----GAS----GAS---
 72
    65
 73
     3
 40
0.95
 49
0.5
 74
     0
 49
-0.2
 74
     2
 75
     0
340
55
 46
0.1
 50
0.0
 44
-0.1
 45
-0.05
  9
GAS
 49
-0.25
 74
     0
  0
LTYPE
  5
B9
330
5
100
AcDbSymbolTableRecord
100
AcDbLinetypeTableRecord
  2
ZIGZAG
 70
     0
  3
Zig zag /\/\/\/\/\/\/\/\/\/\/\/\/\/\/\/\/\/\/\/
 72
    65
 73
     4
 40
0.8001000000000001
 49
0.0001
 74
     0
 49
-0.2
 74
     4
 75
   131
340
B2
 46
0.2
 50
0.0
 44
-0.2
 45
0.0
 49
-0.4
 74
     4
 75
   131
340
B2
 46
0.2
 50
180.0
 44
0.2
 45
0.0
 49
-0.2
 74
     0
  0
ENDTAB
  0
TABLE
  2
LAYER
  5
2
330
0
100
AcDbSymbolTable
 70
    27
  0
LAYER
  5
54
330
2
100
AcDbSymbolTableRecord
100
AcDbLayerTableRecord
  2
0
 70
     0
 62
     7
  6
Continuous
370
    18
390
F
347
21
  0
LAYER
  5
C0
330
2
100
AcDbSymbolTableRecord
100
AcDbLayerTableRecord
  2
Center Mark (ANSI)
 70
     0
 62
     7
  6
Continuous
370
    15
390
F
347
21
  0
LAYER
  5
C1
330
2
100
AcDbSymbolTableRecord
100
AcDbLayerTableRecord
  2
Centerline (ANSI)
 70
     0
 62
     7
  6
Continuous
370
    15
390
F
347
21
  0
LAYER
  5
C3
330
2
100
AcDbSymbolTableRecord
100
AcDbLayerTableRecord
  2
Dimension (ANSI)
 70
     0
 62
     7
  6
Continuous
370
    13
390
F
347
21
  0
LAYER
  5
C5
330
2
100
AcDbSymbolTableRecord
100
AcDbLayerTableRecord
  2
Hidden (ANSI)
 70
     0
 62
     7
  6
DASHED
370
    15
390
F
347
21
  0
LAYER
  5
CC
330
2
100
AcDbSymbolTableRecord
100
AcDbLayerTableRecord
  2
Symbol (ANSI)
 70
     0
 62
     7
  6
Continuous
370
    18
390
F
347
21
  0
LAYER
  5
CF
330
2
100
AcDbSymbolTableRecord
100
AcDbLayerTableRecord
  2
Visible (ANSI)
 70
     0
 62
     7
  6
Continuous
370
    13
390
F
347
21
  0
LAYER
  5
D0
330
2
100
AcDbSymbolTableRecord
100
AcDbLayerTableRecord
  2
Visible Narrow (ANSI)
 70
     0
 62
     7
  6
Continuous
370
    18
390
F
347
21
  0
LAYER
  5
54E
330
2
100
AcDbSymbolTableRecord
100
AcDbLayerTableRecord
  2
Defpoints
 70
     0
 62
     7
  6
Continuous
290
     0
370
    -3
390
F
347
21
  0
ENDTAB
  0
TABLE
  2
STYLE
  5
3
330
0
100
AcDbSymbolTable
 70
    18
  0
STYLE
  5
55
330
3
100
AcDbSymbolTableRecord
100
AcDbTextStyleTableRecord
  2
Standard
 70
     0
 40
0.0
 41
1.0
 50
0.0
 71
     0
 42
0.2
  3
txt
  4

  0
STYLE
  5
5A
330
3
100
AcDbSymbolTableRecord
100
AcDbTextStyleTableRecord
  2
Annotative
 70
     0
 40
0.0
 41
1.0
 50
0.0
 71
     0
 42
0.2
  3
txt
  4

1001
AcadAnnotative
1000
AnnotativeData
1002
{
1070
     1
1070
     1
1002
}
  0
STYLE
  5
B2
330
3
100
AcDbSymbolTableRecord
100
AcDbTextStyleTableRecord
  2

 70
     1
 40
0.0
 41
1.0
 50
0.0
 71
     0
 42
0.2
  3
ltypeshp.shx
  4

  0
STYLE
  5
D4
330
3
100
AcDbSymbolTableRecord
100
AcDbTextStyleTableRecord
  2
ITALICC_120
 70
     0
 40
0.0
 41
1.0
 50
0.0
 71
     0
 42
0.2
  3
italicc.shx
  4

  0
STYLE
  5
D5
330
3
100
AcDbSymbolTableRecord
100
AcDbTextStyleTableRecord
  2
Label Text (ANSI)
 70
     0
 40
0.0
 41
1.0
 50
0.0
 71
     0
 42
0.2
  3
tahoma.ttf
  4

1001
ACAD
1000
Tahoma
1071
      256
  0
STYLE
  5
D6
330
3
100
AcDbSymbolTableRecord
100
AcDbTextStyleTableRecord
  2
Note Text (ANSI)
 70
     0
 40
0.0
 41
1.0
 50
0.0
 71
     0
 42
0.2
  3
tahoma.ttf
  4

1001
ACAD
1000
Tahoma
1071
      256
  0
STYLE
  5
D7
330
3
100
AcDbSymbolTableRecord
100
AcDbTextStyleTableRecord
  2
ROMANS
 70
     0
 40
0.0
 41
1.0
 50
0.0
 71
     0
 42
0.2
  3
romans.shx
  4

  0
STYLE
  5
D8
330
3
100
AcDbSymbolTableRecord
100
AcDbTextStyleTableRecord
  2
SANSSERIF_114
 70
     0
 40
0.0
 41
1.0
 50
0.0
 71
     0
 42
0.2
  3
tahoma.ttf
  4

1001
ACAD
1000
Tahoma
1071
      256
  0
STYLE
  5
D9
330
3
100
AcDbSymbolTableRecord
100
AcDbTextStyleTableRecord
  2
SANSSERIF_117
 70
     0
 40
0.0
 41
1.0
 50
0.0
 71
     0
 42
0.2
  3
tahoma.ttf
  4

1001
ACAD
1000
Tahoma
1071
      256
  0
STYLE
  5
DA
330
3
100
AcDbSymbolTableRecord
100
AcDbTextStyleTableRecord
  2
STANDARDAM_ANSI
 70
     0
 40
0.0
 41
1.0
 50
0.0
 71
     0
 42
0.2
  3
txt.shx
  4

  0
STYLE
  5
DB
330
3
100
AcDbSymbolTableRecord
100
AcDbTextStyleTableRecord
  2
StandardAM_ANSI$0
 70
     0
 40
0.0
 41
1.0
 50
0.0
 71
     0
 42
0.2
  3
txt.shx
  4

  0
STYLE
  5
DC
330
3
100
AcDbSymbolTableRecord
100
AcDbTextStyleTableRecord
  2
STANDARDAM_ANSI$3
 70
     0
 40
0.0
 41
1.0
 50
0.0
 71
     0
 42
0.2
  3
txt.shx
  4

  0
STYLE
  5
DD
330
3
100
AcDbSymbolTableRecord
100
AcDbTextStyleTableRecord
  2
STANDARDAM_ANSI$4
 70
     0
 40
0.0
 41
1.0
 50
0.0
 71
     0
 42
0.2
  3
txt.shx
  4

  0
STYLE
  5
DE
330
3
100
AcDbSymbolTableRecord
100
AcDbTextStyleTableRecord
  2
STANDARDAM_ANSI$7
 70
     0
 40
0.0
 41
1.0
 50
0.0
 71
     0
 42
0.2
  3
txt.shx
  4

  0
STYLE
  5
DF
330
3
100
AcDbSymbolTableRecord
100
AcDbTextStyleTableRecord
  2
STANDARDAM_ANSI$SF
 70
     0
 40
0.0
 41
1.0
 50
0.0
 71
     0
 42
0.2
  3
txt.shx
  4

  0
STYLE
  5
E0
330
3
100
AcDbSymbolTableRecord
100
AcDbTextStyleTableRecord
  2
STANDARDAM_ANSI$SH
 70
     0
 40
0.0
 41
1.0
 50
0.0
 71
     0
 42
0.2
  3
txt.shx
  4

  0
STYLE
  5
E1
330
3
100
AcDbSymbolTableRecord
100
AcDbTextStyleTableRecord
  2
STANDARDSTANDARD
 70
     0
 40
0.0
 41
1.0
 50
0.0
 71
     0
 42
0.2
  3
txt.shx
  4

  0
STYLE
  5
2E3
330
3
100
AcDbSymbolTableRecord
100
AcDbTextStyleTableRecord
  2
Text Style153
 70
     0
 40
0.0
 41
1.0
 50
0.0
 71
     0
 42
0.2
  3
tahoma.ttf
  4

1001
ACAD
1000
Tahoma
1071
      256
  0
ENDTAB
  0
TABLE
  2
VIEW
  5
6
330
0
100
AcDbSymbolTable
 70
     0
  0
ENDTAB
  0
TABLE
  2
UCS
  5
7
330
0
100
AcDbSymbolTable
 70
     0
  0
ENDTAB
  0
TABLE
  2
APPID
  5
9
330
0
100
AcDbSymbolTable
 70
     3
  0
APPID
  5
56
330
9
100
AcDbSymbolTableRecord
100
AcDbRegAppTableRecord
  2
ACAD
 70
     0
  0
APPID
  5
5E
330
9
100
AcDbSymbolTableRecord
100
AcDbRegAppTableRecord
  2
AcadAnnotative
 70
     0
  0
APPID
  5
C64
330
9
100
AcDbSymbolTableRecord
100
AcDbRegAppTableRecord
  2
ACAD_DSTYLE_DIMRADIAL_EXTENSION
 70
     0
  0
ENDTAB
  0
TABLE
  2
DIMSTYLE
  5
A
330
0
100
AcDbSymbolTable
 70
    27
100
AcDbDimStyleTable
 71
     2
340
F6
340
58
  0
DIMSTYLE
105
58
330
A
100
AcDbSymbolTableRecord
100
AcDbDimStyleTableRecord
  2
STANDARD
 70
     0
 41
0.1800000071525573
 42
0.0625
140
0.1800000071525574
144
1.0
147
0.0900000035762787
176
   256
177
   256
178
   256
274
     3
340
55
371
    -1
372
    -1
  0
DIMSTYLE
105
59
330
A
100
AcDbSymbolTableRecord
100
AcDbDimStyleTableRecord
  2
Annotative
 70
     0
340
55
1001
AcadAnnotative
1000
AnnotativeData
1002
{
1070
     1
1070
     1
1002
}
  0
DIMSTYLE
105
E2
330
A
100
AcDbSymbolTableRecord
100
AcDbDimStyleTableRecord
  2
AM_ANSI
 70
     0
  4
 mm
 40
12.0
 41
0.119999997317791
 42
0.05
 43
0.5
 44
0.1
 45
0.00000001
 78
     4
 79
     2
140
0.1200000047683716
146
0.7099999189376831
147
0.0599999986588955
176
   256
177
   256
178
     2
284
     4
340
DA
371
    -1
372
    -1
  0
DIMSTYLE
105
E3
330
A
100
AcDbSymbolTableRecord
100
AcDbDimStyleTableRecord
  2
AM_ANSI$7
 70
     0
  4
 mm
 40
12.0
 41
0.119999997317791
 42
0.05
 43
0.5
 44
0.1
 45
0.00000001
 78
     4
 79
     2
140
0.1200000047683716
146
0.7099999189376831
147
0.0599999986588955
176
   256
177
   256
178
     2
284
     4
340
DA
371
    -1
372
    -1
  0
DIMSTYLE
105
E4
330
A
100
AcDbSymbolTableRecord
100
AcDbDimStyleTableRecord
  2
AM_ANSI$0
 70
     0
  4
 mm
 40
12.0
 41
0.119999997317791
 42
0.05
 43
0.5
 44
0.1
 45
0.00000001
 78
     4
 79
     2
140
0.1200000047683716
146
0.7099999189376831
147
0.0599999986588955
176
   256
177
   256
178
     2
284
     4
340
DB
371
    -1
372
    -1
  0
DIMSTYLE
105
E5
330
A
100
AcDbSymbolTableRecord
100
AcDbDimStyleTableRecord
  2
AM_ANSI$0$7
 70
     0
  4
 mm
 40
12.0
 41
0.119999997317791
 42
0.05
 43
0.5
 44
0.1
 45
0.00000001
 78
     4
 79
     2
140
0.1200000047683716
146
0.7099999189376831
147
0.0599999986588955
176
   256
177
   256
178
     2
284
     4
340
DB
371
    -1
372
    -1
  0
DIMSTYLE
105
E6
330
A
100
AcDbSymbolTableRecord
100
AcDbDimStyleTableRecord
  2
AM_ANSI$3
 70
     0
  4
 mm
 40
12.0
 41
0.119999997317791
 42
0.05
 43
0.5
 44
0.1
 45
0.00000001
 78
     4
 79
     2
140
0.1200000047683716
146
0.7099999189376831
147
0.0599999986588955
176
   256
177
   256
178
     2
284
     4
340
DC
371
    -1
372
    -1
  0
DIMSTYLE
105
E7
330
A
100
AcDbSymbolTableRecord
100
AcDbDimStyleTableRecord
  2
AM_ANSI$3$7
 70
     0
  4
 mm
 40
12.0
 41
0.119999997317791
 42
0.05
 43
0.5
 44
0.1
 45
0.00000001
 78
     4
 79
     2
140
0.1200000047683716
146
0.7099999189376831
147
0.0599999986588955
176
   256
177
   256
178
     2
284
     4
340
DC
371
    -1
372
    -1
  0
DIMSTYLE
105
E8
330
A
100
AcDbSymbolTableRecord
100
AcDbDimStyleTableRecord
  2
AM_ANSI$4
 70
     0
  4
 mm
 40
12.0
 41
0.119999997317791
 42
0.05
 43
0.5
 44
0.1
 45
0.00000001
 78
     4
 79
     2
140
0.1200000047683716
146
0.7099999189376831
147
0.0599999986588955
176
   256
177
   256
178
     2
284
     4
340
DD
371
    -1
372
    -1
  0
DIMSTYLE
105
E9
330
A
100
AcDbSymbolTableRecord
100
AcDbDimStyleTableRecord
  2
AM_ANSI$4$7
 70
     0
  4
 mm
 40
12.0
 41
0.119999997317791
 42
0.05
 43
0.5
 44
0.1
 45
0.00000001
 78
     4
 79
     2
140
0.1200000047683716
146
0.7099999189376831
147
0.0599999986588955
176
   256
177
   256
178
     2
284
     4
340
DD
371
    -1
372
    -1
  0
DIMSTYLE
105
EA
330
A
100
AcDbSymbolTableRecord
100
AcDbDimStyleTableRecord
  2
AM_ANSI$SF
 70
     0
  4
 mm
 40
12.0
 41
0.119999997317791
 42
0.05
 43
0.5
 44
0.1
 45
0.00000001
 75
     1
 76
     1
 78
     4
 79
     2
140
0.1200000047683716
146
0.7099999189376831
147
0.0599999986588955
176
   256
177
   256
178
     2
284
     4
340
DF
371
    -1
372
    -1
  0
DIMSTYLE
105
EB
330
A
100
AcDbSymbolTableRecord
100
AcDbDimStyleTableRecord
  2
AM_ANSI$SF$7
 70
     0
  4
 mm
 40
12.0
 41
0.119999997317791
 42
0.05
 43
0.5
 44
0.1
 45
0.00000001
 75
     1
 76
     1
 78
     4
 79
     2
140
0.1200000047683716
146
0.7099999189376831
147
0.0599999986588955
176
   256
177
   256
178
     2
284
     4
340
DF
371
    -1
372
    -1
  0
DIMSTYLE
105
EC
330
A
100
AcDbSymbolTableRecord
100
AcDbDimStyleTableRecord
  2
AM_ANSI$SH
 70
     0
  4
 mm
 40
12.0
 41
0.119999997317791
 42
0.05
 43
0.5
 44
0.1
 45
0.00000001
 75
     1
 76
     1
 78
     4
 79
     2
140
0.1200000047683716
146
0.7099999189376831
147
0.0599999986588955
176
   256
177
   256
178
     2
284
     4
340
E0
371
    -1
372
    -1
  0
DIMSTYLE
105
ED
330
A
100
AcDbSymbolTableRecord
100
AcDbDimStyleTableRecord
  2
AM_ANSI$SH$7
 70
     0
  4
 mm
 40
12.0
 41
0.119999997317791
 42
0.05
 43
0.5
 44
0.1
 45
0.00000001
 75
     1
 76
     1
 78
     4
 79
     2
140
0.1200000047683716
146
0.7099999189376831
147
0.0599999986588955
176
   256
177
   256
178
     2
284
     4
340
E0
371
    -1
372
    -1
  0
DIMSTYLE
105
EE
330
A
100
AcDbSymbolTableRecord
100
AcDbDimStyleTableRecord
  2
Architectural (ANSI)
 70
     0
 40
12.0
 41
0.0984251946210861
 43
0.2362204724409449
 44
0.125
 45
0.00000001
 46
0.3937007874015748
 78
     3
 79
     3
140
0.1200000047683716
147
0.031496062992126
171
     1
176
   256
177
   256
178
   256
272
     2
274
     1
276
     2
277
     4
284
    12
285
     4
286
    12
340
D6
371
    -1
372
    -1
  0
DIMSTYLE
105
EF
330
A
100
AcDbSymbolTableRecord
100
AcDbDimStyleTableRecord
  2
Architectural (ANSI)$7
 70
     0
 40
12.0
 41
0.0984251946210861
 43
0.2362204724409449
 44
0.125
 45
0.00000001
 46
0.3937007874015748
 78
     3
 79
     3
140
0.1200000047683716
147
0.031496062992126
171
     1
176
   256
177
   256
178
   256
272
     2
274
     1
276
     2
277
     4
284
    12
285
     4
286
    12
340
D6
371
    -1
372
    -1
  0
DIMSTYLE
105
F0
330
A
100
AcDbSymbolTableRecord
100
AcDbDimStyleTableRecord
  2
Default - Fraction (ANSI)
 70
     0
 40
12.0
 41
0.0984251946210861
 43
0.2362204724409449
 44
0.125
 45
0.00000001
 46
0.3937007874015748
 79
     3
140
0.1200000047683716
147
0.031496062992126
171
     1
176
   256
177
   256
178
   256
272
     2
274
     1
276
     2
277
     5
284
    12
285
     4
286
    12
340
D6
371
    -1
372
    -1
  0
DIMSTYLE
105
F1
330
A
100
AcDbSymbolTableRecord
100
AcDbDimStyleTableRecord
  2
Default - Fraction (ANSI)$7
 70
     0
 40
12.0
 41
0.0984251946210861
 43
0.2362204724409449
 44
0.125
 45
0.00000001
 46
0.3937007874015748
 79
     3
140
0.1200000047683716
147
0.031496062992126
171
     1
176
   256
177
   256
178
   256
272
     2
274
     1
276
     2
277
     5
284
    12
285
     4
286
    12
340
D6
371
    -1
372
    -1
  0
DIMSTYLE
105
F2
330
A
100
AcDbSymbolTableRecord
100
AcDbDimStyleTableRecord
  2
Default - mm (ANSI)
 70
     0
 40
12.0
 41
0.0984251946210861
 42
0.063
 43
0.2362204724409449
 44
0.125
 45
0.00000001
 46
0.3937007874015748
 73
     0
 78
     4
 79
     1
140
0.1200000047683716
143
1.0
144
25.4
147
0.031496062992126
171
     1
176
   256
177
   256
178
   256
179
     1
271
     2
272
     2
274
     1
284
     4
285
     4
340
D6
371
    -1
372
    -1
  0
DIMSTYLE
105
F3
330
A
100
AcDbSymbolTableRecord
100
AcDbDimStyleTableRecord
  2
Default - mm (ANSI)$7
 70
     0
 40
12.0
 41
0.0984251946210861
 42
0.063
 43
0.2362204724409449
 44
0.125
 45
0.00000001
 46
0.3937007874015748
 73
     0
 78
     4
 79
     1
140
0.1200000047683716
143
1.0
144
25.4
147
0.031496062992126
171
     1
176
   256
177
   256
178
   256
179
     1
271
     2
272
     2
274
     1
284
     4
285
     4
340
D6
371
    -1
372
    -1
  0
DIMSTYLE
105
F4
330
A
100
AcDbSymbolTableRecord
100
AcDbDimStyleTableRecord
  2
Default - mm [in] (ANSI)
 70
     0
  4
 in
 40
12.0
 41
0.0984251946210861
 42
0.063
 43
0.25
 44
0.125
 45
0.00000001
 46
0.3937007874015748
 73
     0
 78
     4
 79
     1
140
0.1200000047683716
143
0.03937
144
25.4
147
0.031496062992126
170
     1
171
     3
176
   256
177
   256
178
   256
179
     1
271
     2
272
     2
274
     3
284
     4
285
     4
286
     4
340
D6
371
    -1
372
    -1
  0
DIMSTYLE
105
F5
330
A
100
AcDbSymbolTableRecord
100
AcDbDimStyleTableRecord
  2
Default - mm [in] (ANSI)$7
 70
     0
  4
 in
 40
12.0
 41
0.0984251946210861
 42
0.063
 43
0.25
 44
0.125
 45
0.00000001
 46
0.3937007874015748
 73
     0
 78
     4
 79
     1
140
0.1200000047683716
143
0.03937
144
25.4
147
0.031496062992126
170
     1
171
     3
176
   256
177
   256
178
   256
179
     1
271
     2
272
     2
274
     3
284
     4
285
     4
286
     4
340
D6
371
    -1
372
    -1
  0
DIMSTYLE
105
F6
102
{ACAD_REACTORS
330
54C
330
638
330
722
330
80C
330
90C
330
9F6
330
AE0
330
BCA
330
C85
330
D8E
330
E80
102
}
330
A
100
AcDbSymbolTableRecord
100
AcDbDimStyleTableRecord
  2
Default (ANSI)
 70
     0
 40
12.0
 41
0.0984251946210861
 43
0.2362204724409449
 44
0.125
 45
0.00000001
 46
0.3937007874015748
 79
     1
140
0.1200000047683716
147
0.031496062992126
171
     1
176
   256
177
   256
178
   256
271
     2
272
     2
274
     1
284
     4
285
     4
340
D6
371
    -1
372
    -1
  0
DIMSTYLE
105
F7
330
A
100
AcDbSymbolTableRecord
100
AcDbDimStyleTableRecord
  2
Default (ANSI)$7
 70
     0
 40
12.0
 41
0.0984251946210861
 43
0.2362204724409449
 44
0.125
 45
0.00000001
 46
0.3937007874015748
 79
     1
140
0.1200000047683716
147
0.031496062992126
171
     1
176
   256
177
   256
178
   256
271
     2
272
     2
274
     1
284
     4
285
     4
340
D6
371
    -1
372
    -1
  0
DIMSTYLE
105
F8
330
A
100
AcDbSymbolTableRecord
100
AcDbDimStyleTableRecord
  2
Alternate (ANSI)
 70
     0
 40
12.0
 41
0.0979999974370003
340
55
342
F9
  0
DIMSTYLE
105
10B
330
A
100
AcDbSymbolTableRecord
100
AcDbDimStyleTableRecord
  2
Datum (ANSI)
 70
     0
 40
12.0
 41
0.0979999974370003
340
55
342
F9
  0
DIMSTYLE
105
11A
330
A
100
AcDbSymbolTableRecord
100
AcDbDimStyleTableRecord
  2
Large (ANSI)
 70
     0
 40
12.0
 41
0.1959999948740005
340
55
342
F9
  0
ENDTAB
  0
TABLE
  2
BLOCK_RECORD
  5
1
330
0
100
AcDbSymbolTable
 70
    15
  0
BLOCK_RECORD
  5
6C
330
1
100
AcDbSymbolTableRecord
100
AcDbBlockTableRecord
  2
*Model_Space
340
6F
 70
     0
280
     1
281
     0
  0
BLOCK_RECORD
  5
68
330
1
100
AcDbSymbolTableRecord
100
AcDbBlockTableRecord
  2
*Paper_Space
340
6B
 70
     0
280
     1
281
     0
  0
BLOCK_RECORD
  5
70
330
1
100
AcDbSymbolTableRecord
100
AcDbBlockTableRecord
  2
*Paper_Space0
340
73
 70
     0
280
     1
281
     0
  0
BLOCK_RECORD
  5
F9
330
1
100
AcDbSymbolTableRecord
100
AcDbBlockTableRecord
  2
_Closed
340
0
 70
     0
280
     1
281
     0
  0
BLOCK_RECORD
  5
100
330
1
100
AcDbSymbolTableRecord
100
AcDbBlockTableRecord
  2
DatumFilled45
340
0
 70
     0
280
     1
281
     0
  0
BLOCK_RECORD
  5
10C
330
1
100
AcDbSymbolTableRecord
100
AcDbBlockTableRecord
  2
Filled-1
340
0
 70
     0
280
     1
281
     0
  0
BLOCK_RECORD
  5
54F
330
1
100
AcDbSymbolTableRecord
100
AcDbBlockTableRecord
  2
*D4
340
0
 70
     0
280
     1
281
     0
  0
BLOCK_RECORD
  5
639
330
1
100
AcDbSymbolTableRecord
100
AcDbBlockTableRecord
  2
*D5
340
0
 70
     0
280
     1
281
     0
  0
BLOCK_RECORD
  5
723
330
1
100
AcDbSymbolTableRecord
100
AcDbBlockTableRecord
  2
*D6
340
0
 70
     0
280
     1
281
     0
  0
BLOCK_RECORD
  5
80D
330
1
100
AcDbSymbolTableRecord
100
AcDbBlockTableRecord
  2
*D7
340
0
 70
     0
280
     1
281
     0
  0
BLOCK_RECORD
  5
90D
330
1
100
AcDbSymbolTableRecord
100
AcDbBlockTableRecord
  2
*D8
340
0
 70
     0
280
     1
281
     0
  0
BLOCK_RECORD
  5
9F7
330
1
100
AcDbSymbolTableRecord
100
AcDbBlockTableRecord
  2
*D9
340
0
 70
     0
280
     1
281
     0
  0
BLOCK_RECORD
  5
AE1
330
1
100
AcDbSymbolTableRecord
100
AcDbBlockTableRecord
  2
*D10
340
0
 70
     0
280
     1
281
     0
  0
BLOCK_RECORD
  5
BCB
330
1
100
AcDbSymbolTableRecord
100
AcDbBlockTableRecord
  2
*D11
340
0
 70
     0
280
     1
281
     0
  0
BLOCK_RECORD
  5
C86
330
1
100
AcDbSymbolTableRecord
100
AcDbBlockTableRecord
  2
*D12
340
0
 70
     0
280
     1
281
     0
  0
BLOCK_RECORD
  5
D8F
330
1
100
AcDbSymbolTableRecord
100
AcDbBlockTableRecord
  2
*D13
340
0
 70
     0
280
     1
281
     0
  0
BLOCK_RECORD
  5
E81
330
1
100
AcDbSymbolTableRecord
100
AcDbBlockTableRecord
  2
*D14
340
0
 70
     0
280
     1
281
     0
  0
ENDTAB
  0
ENDSEC
  0
SECTION
  2
BLOCKS
  0
BLOCK
  5
6D
330
6C
100
AcDbEntity
  8
0
100
AcDbBlockBegin
  2
*Model_Space
 70
     0
 10
0.0
 20
0.0
 30
0.0
  3
*Model_Space
  1

  0
ENDBLK
  5
6E
330
6C
100
AcDbEntity
  8
0
100
AcDbBlockEnd
  0
BLOCK
  5
69
330
68
100
AcDbEntity
 67
     1
  8
0
100
AcDbBlockBegin
  2
*Paper_Space
 70
     0
 10
0.0
 20
0.0
 30
0.0
  3
*Paper_Space
  1

  0
ENDBLK
  5
6A
330
68
100
AcDbEntity
 67
     1
  8
0
100
AcDbBlockEnd
  0
BLOCK
  5
71
330
70
100
AcDbEntity
 67
     1
  8
0
100
AcDbBlockBegin
  2
*Paper_Space0
 70
     0
 10
0.0
 20
0.0
 30
0.0
  3
*Paper_Space0
  1

  0
ENDBLK
  5
72
330
70
100
AcDbEntity
 67
     1
  8
0
100
AcDbBlockEnd
  0
BLOCK
  5
FE
330
F9
100
AcDbEntity
  8
0
100
AcDbBlockBegin
  2
_Closed
 70
     0
 10
0.0
 20
0.0
 30
0.0
  3
_Closed
  1

  0
LINE
  5
FA
330
F9
100
AcDbEntity
  8
0
  6
ByBlock
 62
     0
370
    -2
100
AcDbLine
 10
-1.0
 20
0.1666666666666666
 30
0.0
 11
0.0
 21
0.0
 31
0.0
  0
LINE
  5
FB
330
F9
100
AcDbEntity
  8
0
  6
ByBlock
 62
     0
370
    -2
100
AcDbLine
 10
0.0
 20
0.0
 30
0.0
 11
-1.0
 21
-0.1666666666666666
 31
0.0
  0
LINE
  5
FC
330
F9
100
AcDbEntity
  8
0
  6
ByBlock
 62
     0
370
    -2
100
AcDbLine
 10
-1.0
 20
0.1666666666666666
 30
0.0
 11
-1.0
 21
-0.1666666666666666
 31
0.0
  0
LINE
  5
FD
330
F9
100
AcDbEntity
  8
0
  6
ByBlock
 62
     0
370
    -2
100
AcDbLine
 10
0.0
 20
0.0
 30
0.0
 11
-1.0
 21
0.0
 31
0.0
  0
ENDBLK
  5
FF
330
F9
100
AcDbEntity
  8
0
100
AcDbBlockEnd
  0
BLOCK
  5
101
330
100
100
AcDbEntity
  8
0
100
AcDbBlockBegin
  2
DatumFilled45
 70
     0
 10
0.0
 20
0.0
 30
0.0
  3
DatumFilled45
  1

  0
POLYLINE
  5
103
330
100
100
AcDbEntity
  8
0
 62
     0
100
AcDb2dPolyline
 66
     1
 10
0.0
 20
0.0
 30
0.0
 70
   128
  0
VERTEX
  5
104
330
103
100
AcDbEntity
  8
0
 62
     0
100
AcDbVertex
100
AcDb2dVertex
 10
0.0
 20
0.9999999999999998
 30
0.0
  0
VERTEX
  5
105
330
103
100
AcDbEntity
  8
0
 62
     0
100
AcDbVertex
100
AcDb2dVertex
 10
0.0
 20
-0.9999999999999998
 30
0.0
  0
VERTEX
  5
107
330
103
100
AcDbEntity
  8
0
 62
     0
100
AcDbVertex
100
AcDb2dVertex
 10
-0.9999999999999998
 20
0.0
 30
0.0
  0
VERTEX
  5
108
330
103
100
AcDbEntity
  8
0
 62
     0
100
AcDbVertex
100
AcDb2dVertex
 10
0.0
 20
0.9999999999999998
 30
0.0
  0
SEQEND
  5
106
330
103
100
AcDbEntity
  8
0
 62
     0
  0
SOLID
  5
10A
330
100
100
AcDbEntity
  8
0
 62
     0
100
AcDbTrace
 10
0.0
 20
0.9999999999999998
 30
0.0
 11
0.0
 21
-0.9999999999999998
 31
0.0
 12
-0.9999999999999998
 22
0.0
 32
0.0
 13
0.0
 23
0.9999999999999998
 33
0.0
  0
ENDBLK
  5
102
330
100
100
AcDbEntity
  8
0
100
AcDbBlockEnd
  0
BLOCK
  5
10D
330
10C
100
AcDbEntity
  8
0
100
AcDbBlockBegin
  2
Filled-1
 70
     0
 10
0.0
 20
0.0
 30
0.0
  3
Filled-1
  1

  0
LINE
  5
10F
330
10C
100
AcDbEntity
  8
0
 62
     0
100
AcDbLine
 10
-0.9999999999999998
 20
0.0
 30
0.0
 11
0.0
 21
0.0
 31
0.0
  0
POLYLINE
  5
110
330
10C
100
AcDbEntity
  8
0
 62
     0
100
AcDb2dPolyline
 66
     1
 10
0.0
 20
0.0
 30
0.0
 70
   128
  0
VERTEX
  5
111
330
110
100
AcDbEntity
  8
0
 62
     0
100
AcDbVertex
100
AcDb2dVertex
 10
-0.9999999999999998
 20
-0.0994897959183674
 30
0.0
  0
VERTEX
  5
112
330
110
100
AcDbEntity
  8
0
 62
     0
100
AcDbVertex
100
AcDb2dVertex
 10
0.0
 20
0.0
 30
0.0
  0
VERTEX
  5
114
330
110
100
AcDbEntity
  8
0
 62
     0
100
AcDbVertex
100
AcDb2dVertex
 10
-0.9999999999999998
 20
0.0994897959183674
 30
0.0
  0
VERTEX
  5
115
330
110
100
AcDbEntity
  8
0
 62
     0
100
AcDbVertex
100
AcDb2dVertex
 10
-0.9999999999999998
 20
-0.0994897959183674
 30
0.0
  0
SEQEND
  5
113
330
110
100
AcDbEntity
  8
0
 62
     0
  0
SOLID
  5
116
330
10C
100
AcDbEntity
  8
0
 62
     0
100
AcDbTrace
 10
-0.9999999999999998
 20
-0.0994897959183674
 30
0.0
 11
0.0
 21
0.0
 31
0.0
 12
-0.9999999999999998
 22
0.0994897959183674
 32
0.0
 13
-0.9999999999999998
 23
-0.0994897959183674
 33
0.0
  0
LINE
  5
117
330
10C
100
AcDbEntity
  8
0
 62
     0
100
AcDbLine
 10
-0.9999999999999998
 20
-0.0994897959183674
 30
0.0
 11
0.0
 21
0.0
 31
0.0
  0
LINE
  5
118
330
10C
100
AcDbEntity
  8
0
 62
     0
100
AcDbLine
 10
0.0
 20
0.0
 30
0.0
 11
-0.9999999999999998
 21
0.0994897959183674
 31
0.0
  0
LINE
  5
119
330
10C
100
AcDbEntity
  8
0
 62
     0
100
AcDbLine
 10
-0.9999999999999998
 20
0.0994897959183674
 30
0.0
 11
-0.9999999999999998
 21
-0.0994897959183674
 31
0.0
  0
ENDBLK
  5
10E
330
10C
100
AcDbEntity
  8
0
100
AcDbBlockEnd
  0
BLOCK
  5
550
330
54F
100
AcDbEntity
  8
0
100
AcDbBlockBegin
  2
*D4
 70
     1
 10
0.0
 20
0.0
 30
0.0
  3
*D4
  1

  0
LINE
  5
62E
330
54F
100
AcDbEntity
  8
Dimension (ANSI)
440
 16777216
100
AcDbLine
 10
32.98896537327979
 20
93.89467450421427
 30
0.0
 11
32.98896537327979
 21
106.2237288303488
 31
0.0
  0
LINE
  5
62F
330
54F
100
AcDbEntity
  8
Dimension (ANSI)
440
 16777216
100
AcDbLine
 10
88.98896537327978
 20
93.89467450421427
 30
0.0
 11
88.98896537327978
 21
106.2237288303488
 31
0.0
  0
LINE
  5
630
330
54F
100
AcDbEntity
  8
Dimension (ANSI)
440
 16777216
100
AcDbLine
 10
34.17006770873282
 20
104.7237288303488
 30
0.0
 11
58.24889030908941
 21
104.7237288303488
 31
0.0
  0
LINE
  5
631
330
54F
100
AcDbEntity
  8
Dimension (ANSI)
440
 16777216
100
AcDbLine
 10
87.80786303782674
 20
104.7237288303488
 30
0.0
 11
63.72904043747016
 21
104.7237288303488
 31
0.0
  0
SOLID
  5
632
330
54F
100
AcDbEntity
  8
Dimension (ANSI)
440
 16777216
100
AcDbTrace
 10
34.17006770873282
 20
104.920579219591
 30
0.0
 11
34.17006770873282
 21
104.5268784411067
 31
0.0
 12
32.98896537327979
 22
104.7237288303488
 32
0.0
 13
32.98896537327979
 23
104.7237288303488
 33
0.0
  0
SOLID
  5
633
330
54F
100
AcDbEntity
  8
Dimension (ANSI)
440
 16777216
100
AcDbTrace
 10
87.80786303782674
 20
104.920579219591
 30
0.0
 11
87.80786303782674
 21
104.5268784411067
 31
0.0
 12
88.98896537327978
 22
104.7237288303488
 32
0.0
 13
88.98896537327978
 23
104.7237288303488
 33
0.0
  0
MTEXT
  5
634
330
54F
100
AcDbEntity
  8
Dimension (ANSI)
440
 16777216
100
AcDbMText
 10
58.62684306499492
 20
105.4732251615344
 30
0.0
 40
1.440000057220458
 41
0.0
 46
0.0
 71
     1
 72
     1
  1
\A1;56.00
  7
Note Text (ANSI)
 73
     1
 44
1.0
  0
POINT
  5
635
330
54F
100
AcDbEntity
  8
Defpoints
 62
     0
440
 16777216
100
AcDbPoint
 10
32.98896537327979
 20
93.14467450421428
 30
0.0
  0
POINT
  5
636
330
54F
100
AcDbEntity
  8
Defpoints
 62
     0
440
 16777216
100
AcDbPoint
 10
88.98896537327978
 20
93.14467450421428
 30
0.0
  0
POINT
  5
637
330
54F
100
AcDbEntity
  8
Defpoints
 62
     0
440
 16777216
100
AcDbPoint
 10
88.98896537327978
 20
104.7237288303488
 30
0.0
  0
ENDBLK
  5
551
330
54F
100
AcDbEntity
  8
0
100
AcDbBlockEnd
  0
BLOCK
  5
63A
330
639
100
AcDbEntity
  8
0
100
AcDbBlockBegin
  2
*D5
 70
     1
 10
0.0
 20
0.0
 30
0.0
  3
*D5
  1

  0
LINE
  5
718
330
639
100
AcDbEntity
  8
Dimension (ANSI)
440
 16777216
100
AcDbLine
 10
32.98896537327979
 20
93.89467450421427
 30
0.0
 11
32.98896537327979
 21
99.39822363896629
 31
0.0
  0
LINE
  5
719
330
639
100
AcDbEntity
  8
Dimension (ANSI)
440
 16777216
100
AcDbLine
 10
33.86396537327978
 20
95.01456285186257
 30
0.0
 11
33.86396537327978
 21
99.39822363896629
 31
0.0
  0
LINE
  5
71A
330
639
100
AcDbEntity
  8
Dimension (ANSI)
440
 16777216
100
AcDbLine
 10
35.04506770873282
 20
97.89822363896629
 30
0.0
 11
36.22617004418585
 21
97.89822363896629
 31
0.0
  0
LINE
  5
71B
330
639
100
AcDbEntity
  8
Dimension (ANSI)
440
 16777216
100
AcDbLine
 10
31.80786303782675
 20
97.89822363896629
 30
0.0
 11
30.01648582634613
 21
97.89822363896629
 31
0.0
  0
SOLID
  5
71C
330
639
100
AcDbEntity
  8
Dimension (ANSI)
440
 16777216
100
AcDbTrace
 10
35.04506770873282
 20
98.09507402820846
 30
0.0
 11
35.04506770873282
 21
97.70137324972411
 31
0.0
 12
33.86396537327978
 22
97.89822363896629
 32
0.0
 13
33.86396537327978
 23
97.89822363896629
 33
0.0
  0
SOLID
  5
71D
330
639
100
AcDbEntity
  8
Dimension (ANSI)
440
 16777216
100
AcDbTrace
 10
31.80786303782675
 20
98.09507402820846
 30
0.0
 11
31.80786303782675
 21
97.70137324972411
 31
0.0
 12
32.98896537327979
 22
97.89822363896629
 32
0.0
 13
32.98896537327979
 23
97.89822363896629
 33
0.0
  0
MTEXT
  5
71E
330
639
100
AcDbEntity
  8
Dimension (ANSI)
440
 16777216
100
AcDbMText
 10
25.94714275284663
 20
98.6511047922927
 30
0.0
 40
1.440000057220458
 41
0.0
 46
0.0
 71
     1
 72
     1
  1
\A1;0.88
  7
Note Text (ANSI)
 73
     1
 44
1.0
  0
POINT
  5
71F
330
639
100
AcDbEntity
  8
Defpoints
 62
     0
440
 16777216
100
AcDbPoint
 10
32.98896537327979
 20
93.14467450421428
 30
0.0
  0
POINT
  5
720
330
639
100
AcDbEntity
  8
Defpoints
 62
     0
440
 16777216
100
AcDbPoint
 10
33.86396537327978
 20
94.26456285186258
 30
0.0
  0
POINT
  5
721
330
639
100
AcDbEntity
  8
Defpoints
 62
     0
440
 16777216
100
AcDbPoint
 10
33.86396537327978
 20
97.89822363896629
 30
0.0
  0
ENDBLK
  5
63B
330
639
100
AcDbEntity
  8
0
100
AcDbBlockEnd
  0
BLOCK
  5
724
330
723
100
AcDbEntity
  8
0
100
AcDbBlockBegin
  2
*D6
 70
     1
 10
0.0
 20
0.0
 30
0.0
  3
*D6
  1

  0
LINE
  5
802
330
723
100
AcDbEntity
  8
Dimension (ANSI)
440
 16777216
100
AcDbLine
 10
33.86396537327978
 20
95.01456285186257
 30
0.0
 11
33.86396537327978
 21
99.39182233846157
 31
0.0
  0
LINE
  5
803
330
723
100
AcDbEntity
  8
Dimension (ANSI)
440
 16777216
100
AcDbLine
 10
60.9889653732798
 20
95.01456285186257
 30
0.0
 11
60.9889653732798
 21
99.39182233846157
 31
0.0
  0
LINE
  5
804
330
723
100
AcDbEntity
  8
Dimension (ANSI)
440
 16777216
100
AcDbLine
 10
35.04506770873282
 20
97.89182233846156
 30
0.0
 11
41.87955104590493
 21
97.89182233846156
 31
0.0
  0
LINE
  5
805
330
723
100
AcDbEntity
  8
Dimension (ANSI)
440
 16777216
100
AcDbLine
 10
59.80786303782676
 20
97.89182233846156
 30
0.0
 11
47.34229351756137
 21
97.89182233846156
 31
0.0
  0
SOLID
  5
806
330
723
100
AcDbEntity
  8
Dimension (ANSI)
440
 16777216
100
AcDbTrace
 10
35.04506770873282
 20
98.08867272770374
 30
0.0
 11
35.04506770873282
 21
97.69497194921939
 31
0.0
 12
33.86396537327978
 22
97.89182233846156
 32
0.0
 13
33.86396537327978
 23
97.89182233846156
 33
0.0
  0
SOLID
  5
807
330
723
100
AcDbEntity
  8
Dimension (ANSI)
440
 16777216
100
AcDbTrace
 10
59.80786303782676
 20
98.08867272770374
 30
0.0
 11
59.80786303782676
 21
97.69497194921939
 31
0.0
 12
60.9889653732798
 22
97.89182233846156
 32
0.0
 13
60.9889653732798
 23
97.89182233846156
 33
0.0
  0
MTEXT
  5
808
330
723
100
AcDbEntity
  8
Dimension (ANSI)
440
 16777216
100
AcDbMText
 10
42.25750380181044
 20
98.64180221566726
 30
0.0
 40
1.440000057220458
 41
0.0
 46
0.0
 71
     1
 72
     1
  1
\A1;27.13
  7
Note Text (ANSI)
 73
     1
 44
1.0
  0
POINT
  5
809
330
723
100
AcDbEntity
  8
Defpoints
 62
     0
440
 16777216
100
AcDbPoint
 10
33.86396537327978
 20
94.26456285186258
 30
0.0
  0
POINT
  5
80A
330
723
100
AcDbEntity
  8
Defpoints
 62
     0
440
 16777216
100
AcDbPoint
 10
60.9889653732798
 20
94.26456285186258
 30
0.0
  0
POINT
  5
80B
330
723
100
AcDbEntity
  8
Defpoints
 62
     0
440
 16777216
100
AcDbPoint
 10
60.9889653732798
 20
97.89182233846156
 30
0.0
  0
ENDBLK
  5
725
330
723
100
AcDbEntity
  8
0
100
AcDbBlockEnd
  0
BLOCK
  5
80E
330
80D
100
AcDbEntity
  8
0
100
AcDbBlockBegin
  2
*D7
 70
     1
 10
0.0
 20
0.0
 30
0.0
  3
*D7
  1

  0
LINE
  5
901
330
80D
100
AcDbEntity
  8
Dimension (ANSI)
440
 16777216
100
AcDbLine
 10
32.45235372092812
 20
33.35806285186261
 30
0.0
 11
30.35355483633165
 21
33.35806285186261
 31
0.0
  0
LINE
  5
902
330
80D
100
AcDbEntity
  8
Dimension (ANSI)
440
 16777216
100
AcDbLine
 10
31.33246537327978
 20
34.2330628518626
 30
0.0
 11
30.35355483633165
 21
34.2330628518626
 31
0.0
  0
LINE
  5
903
330
80D
100
AcDbEntity
  8
Dimension (ANSI)
440
 16777216
100
AcDbLine
 10
31.85355483633165
 20
35.41416518731563
 30
0.0
 11
31.85355483633165
 21
36.59526752276867
 31
0.0
  0
LINE
  5
904
330
80D
100
AcDbEntity
  8
Dimension (ANSI)
440
 16777216
100
AcDbLine
 10
31.85355483633165
 20
32.17696051640957
 30
0.0
 11
31.85355483633165
 21
29.91409086127692
 31
0.0
  0
LINE
  5
905
330
80D
100
AcDbEntity
  8
Dimension (ANSI)
440
 16777216
100
AcDbLine
 10
31.85355483633165
 20
29.91409086127692
 30
0.0
 11
30.67245250087861
 21
29.91409086127692
 31
0.0
  0
SOLID
  5
906
330
80D
100
AcDbEntity
  8
Dimension (ANSI)
440
 16777216
100
AcDbTrace
 10
31.65670444708947
 20
35.41416518731563
 30
0.0
 11
32.05040522557382
 21
35.41416518731563
 31
0.0
 12
31.85355483633165
 22
34.2330628518626
 32
0.0
 13
31.85355483633165
 23
34.2330628518626
 33
0.0
  0
SOLID
  5
907
330
80D
100
AcDbEntity
  8
Dimension (ANSI)
440
 16777216
100
AcDbTrace
 10
31.65670444708947
 20
32.17696051640957
 30
0.0
 11
32.05040522557382
 21
32.17696051640957
 31
0.0
 12
31.85355483633165
 22
33.35806285186261
 32
0.0
 13
31.85355483633165
 23
33.35806285186261
 33
0.0
  0
MTEXT
  5
908
330
80D
100
AcDbEntity
  8
Dimension (ANSI)
440
 16777216
100
AcDbMText
 10
26.60310942737911
 20
30.66697201460334
 30
0.0
 40
1.440000057220458
 41
0.0
 46
0.0
 71
     1
 72
     1
  1
\A1;0.88
  7
Note Text (ANSI)
 73
     1
 44
1.0
  0
POINT
  5
909
330
80D
100
AcDbEntity
  8
Defpoints
 62
     0
440
 16777216
100
AcDbPoint
 10
33.20235372092812
 20
33.35806285186261
 30
0.0
  0
POINT
  5
90A
330
80D
100
AcDbEntity
  8
Defpoints
 62
     0
440
 16777216
100
AcDbPoint
 10
32.08246537327978
 20
34.2330628518626
 30
0.0
  0
POINT
  5
90B
330
80D
100
AcDbEntity
  8
Defpoints
 62
     0
440
 16777216
100
AcDbPoint
 10
31.85355483633165
 20
34.2330628518626
 30
0.0
  0
ENDBLK
  5
80F
330
80D
100
AcDbEntity
  8
0
100
AcDbBlockEnd
  0
BLOCK
  5
90E
330
90D
100
AcDbEntity
  8
0
100
AcDbBlockBegin
  2
*D8
 70
     1
 10
0.0
 20
0.0
 30
0.0
  3
*D8
  1

  0
LINE
  5
9EC
330
90D
100
AcDbEntity
  8
Dimension (ANSI)
440
 16777216
100
AcDbLine
 10
31.33246537327978
 20
34.2330628518626
 30
0.0
 11
26.90246367109514
 21
34.2330628518626
 31
0.0
  0
LINE
  5
9ED
330
90D
100
AcDbEntity
  8
Dimension (ANSI)
440
 16777216
100
AcDbLine
 10
31.3324653732798
 20
63.35806285186261
 30
0.0
 11
26.90246367109514
 21
63.35806285186261
 31
0.0
  0
LINE
  5
9EE
330
90D
100
AcDbEntity
  8
Dimension (ANSI)
440
 16777216
100
AcDbLine
 10
28.40246367109514
 20
35.41416518731563
 30
0.0
 11
28.40246367109514
 21
44.66763021875139
 31
0.0
  0
LINE
  5
9EF
330
90D
100
AcDbEntity
  8
Dimension (ANSI)
440
 16777216
100
AcDbLine
 10
28.40246367109515
 20
62.17696051640957
 30
0.0
 11
28.40246367109514
 21
46.9234954849738
 31
0.0
  0
SOLID
  5
9F0
330
90D
100
AcDbEntity
  8
Dimension (ANSI)
440
 16777216
100
AcDbTrace
 10
28.20561328185297
 20
35.41416518731563
 30
0.0
 11
28.59931406033731
 21
35.41416518731563
 31
0.0
 12
28.40246367109514
 22
34.2330628518626
 32
0.0
 13
28.40246367109514
 23
34.2330628518626
 33
0.0
  0
SOLID
  5
9F1
330
90D
100
AcDbEntity
  8
Dimension (ANSI)
440
 16777216
100
AcDbTrace
 10
28.20561328185297
 20
62.17696051640957
 30
0.0
 11
28.59931406033732
 21
62.17696051640957
 31
0.0
 12
28.40246367109515
 22
63.35806285186261
 32
0.0
 13
28.40246367109515
 23
63.35806285186261
 33
0.0
  0
MTEXT
  5
9F2
330
90D
100
AcDbEntity
  8
Dimension (ANSI)
440
 16777216
100
AcDbMText
 10
26.04904519117243
 20
46.5455427290683
 30
0.0
 40
1.440000057220458
 41
0.0
 46
0.0
 71
     1
 72
     1
  1
\A1;29.13
  7
Note Text (ANSI)
 73
     1
 44
1.0
  0
POINT
  5
9F3
330
90D
100
AcDbEntity
  8
Defpoints
 62
     0
440
 16777216
100
AcDbPoint
 10
32.08246537327978
 20
34.2330628518626
 30
0.0
  0
POINT
  5
9F4
330
90D
100
AcDbEntity
  8
Defpoints
 62
     0
440
 16777216
100
AcDbPoint
 10
32.0824653732798
 20
63.35806285186261
 30
0.0
  0
POINT
  5
9F5
330
90D
100
AcDbEntity
  8
Defpoints
 62
     0
440
 16777216
100
AcDbPoint
 10
28.40246367109515
 20
63.35806285186261
 30
0.0
  0
ENDBLK
  5
90F
330
90D
100
AcDbEntity
  8
0
100
AcDbBlockEnd
  0
BLOCK
  5
9F8
330
9F7
100
AcDbEntity
  8
0
100
AcDbBlockBegin
  2
*D9
 70
     1
 10
0.0
 20
0.0
 30
0.0
  3
*D9
  1

  0
LINE
  5
AD6
330
9F7
100
AcDbEntity
  8
Dimension (ANSI)
440
 16777216
100
AcDbLine
 10
31.33246537327978
 20
34.2330628518626
 30
0.0
 11
19.5588433260357
 21
34.2330628518626
 31
0.0
  0
LINE
  5
AD7
330
9F7
100
AcDbEntity
  8
Dimension (ANSI)
440
 16777216
100
AcDbLine
 10
31.33246537327978
 20
92.48306285186259
 30
0.0
 11
19.55884332603572
 21
92.48306285186259
 31
0.0
  0
LINE
  5
AD8
330
9F7
100
AcDbEntity
  8
Dimension (ANSI)
440
 16777216
100
AcDbLine
 10
21.0588433260357
 20
35.41416518731563
 30
0.0
 11
21.05884332603571
 21
62.22722894263065
 31
0.0
  0
LINE
  5
AD9
330
9F7
100
AcDbEntity
  8
Dimension (ANSI)
440
 16777216
100
AcDbLine
 10
21.05884332603572
 20
91.30196051640956
 30
0.0
 11
21.05884332603571
 21
64.48889676109451
 31
0.0
  0
SOLID
  5
ADA
330
9F7
100
AcDbEntity
  8
Dimension (ANSI)
440
 16777216
100
AcDbTrace
 10
20.86199293679353
 20
35.41416518731563
 30
0.0
 11
21.25569371527788
 21
35.41416518731563
 31
0.0
 12
21.0588433260357
 22
34.2330628518626
 32
0.0
 13
21.0588433260357
 23
34.2330628518626
 33
0.0
  0
SOLID
  5
ADB
330
9F7
100
AcDbEntity
  8
Dimension (ANSI)
440
 16777216
100
AcDbTrace
 10
20.86199293679355
 20
91.30196051640956
 30
0.0
 11
21.25569371527789
 21
91.30196051640956
 31
0.0
 12
21.05884332603572
 22
92.48306285186259
 32
0.0
 13
21.05884332603572
 23
92.48306285186259
 33
0.0
  0
MTEXT
  5
ADC
330
9F7
100
AcDbEntity
  8
Dimension (ANSI)
440
 16777216
100
AcDbMText
 10
18.7083261222337
 20
64.110944005189
 30
0.0
 40
1.440000057220458
 41
0.0
 46
0.0
 71
     1
 72
     1
  1
\A1;58.25
  7
Note Text (ANSI)
 73
     1
 44
1.0
  0
POINT
  5
ADD
330
9F7
100
AcDbEntity
  8
Defpoints
 62
     0
440
 16777216
100
AcDbPoint
 10
32.08246537327978
 20
34.2330628518626
 30
0.0
  0
POINT
  5
ADE
330
9F7
100
AcDbEntity
  8
Defpoints
 62
     0
440
 16777216
100
AcDbPoint
 10
32.08246537327978
 20
92.48306285186258
 30
0.0
  0
POINT
  5
ADF
330
9F7
100
AcDbEntity
  8
Defpoints
 62
     0
440
 16777216
100
AcDbPoint
 10
21.05884332603572
 20
92.48306285186259
 30
0.0
  0
ENDBLK
  5
9F9
330
9F7
100
AcDbEntity
  8
0
100
AcDbBlockEnd
  0
BLOCK
  5
AE2
330
AE1
100
AcDbEntity
  8
0
100
AcDbBlockBegin
  2
*D10
 70
     1
 10
0.0
 20
0.0
 30
0.0
  3
*D10
  1

  0
LINE
  5
BC0
330
AE1
100
AcDbEntity
  8
Dimension (ANSI)
440
 16777216
100
AcDbLine
 10
32.45235372092812
 20
33.35806285186261
 30
0.0
 11
12.58154475101186
 21
33.35806285186261
 31
0.0
  0
LINE
  5
BC1
330
AE1
100
AcDbEntity
  8
Dimension (ANSI)
440
 16777216
100
AcDbLine
 10
32.45235372092811
 20
93.35806285186256
 30
0.0
 11
12.58154475101187
 21
93.35806285186258
 31
0.0
  0
LINE
  5
BC2
330
AE1
100
AcDbEntity
  8
Dimension (ANSI)
440
 16777216
100
AcDbLine
 10
14.08154475101186
 20
34.53916518731565
 30
0.0
 11
14.08154475101186
 21
62.23061376477151
 31
0.0
  0
LINE
  5
BC3
330
AE1
100
AcDbEntity
  8
Dimension (ANSI)
440
 16777216
100
AcDbLine
 10
14.08154475101187
 20
92.17696051640954
 30
0.0
 11
14.08154475101186
 21
64.48551193895369
 31
0.0
  0
SOLID
  5
BC4
330
AE1
100
AcDbEntity
  8
Dimension (ANSI)
440
 16777216
100
AcDbTrace
 10
13.88469436176969
 20
34.53916518731565
 30
0.0
 11
14.27839514025403
 21
34.53916518731565
 31
0.0
 12
14.08154475101186
 22
33.35806285186261
 32
0.0
 13
14.08154475101186
 23
33.35806285186261
 33
0.0
  0
SOLID
  5
BC5
330
AE1
100
AcDbEntity
  8
Dimension (ANSI)
440
 16777216
100
AcDbTrace
 10
13.8846943617697
 20
92.17696051640954
 30
0.0
 11
14.27839514025404
 21
92.17696051640954
 31
0.0
 12
14.08154475101187
 22
93.35806285186258
 32
0.0
 13
14.08154475101187
 23
93.35806285186258
 33
0.0
  0
MTEXT
  5
BC6
330
AE1
100
AcDbEntity
  8
Dimension (ANSI)
440
 16777216
100
AcDbMText
 10
11.70056414794232
 20
64.10755918304818
 30
0.0
 40
1.440000057220458
 41
0.0
 46
0.0
 71
     1
 72
     1
  1
\A1;60.00
  7
Note Text (ANSI)
 73
     1
 44
1.0
  0
POINT
  5
BC7
330
AE1
100
AcDbEntity
  8
Defpoints
 62
     0
440
 16777216
100
AcDbPoint
 10
33.20235372092812
 20
33.35806285186261
 30
0.0
  0
POINT
  5
BC8
330
AE1
100
AcDbEntity
  8
Defpoints
 62
     0
440
 16777216
100
AcDbPoint
 10
33.20235372092811
 20
93.35806285186256
 30
0.0
  0
POINT
  5
BC9
330
AE1
100
AcDbEntity
  8
Defpoints
 62
     0
440
 16777216
100
AcDbPoint
 10
14.08154475101187
 20
93.35806285186258
 30
0.0
  0
ENDBLK
  5
AE3
330
AE1
100
AcDbEntity
  8
0
100
AcDbBlockEnd
  0
BLOCK
  5
BCC
330
BCB
100
AcDbEntity
  8
0
100
AcDbBlockBegin
  2
*D11
 70
     1
 10
0.0
 20
0.0
 30
0.0
  3
*D11
  1

  0
LINE
  5
C7D
330
BCB
100
AcDbEntity
  8
Dimension (ANSI)
440
 16777216
100
AcDbLine
 10
91.95746927963822
 20
31.24574248171438
 30
0.0
 11
90.41993901068847
 21
31.24574248171438
 31
0.0
  0
LINE
  5
C7E
330
BCB
100
AcDbEntity
  8
Dimension (ANSI)
440
 16777216
100
AcDbLine
 10
90.41993901068847
 20
31.24574248171438
 30
0.0
 11
89.00768490275643
 21
33.07527574090279
 31
0.0
  0
MTEXT
  5
C7F
330
BCB
100
AcDbEntity
  8
Dimension (ANSI)
440
 16777216
100
AcDbMText
 10
92.33542203554373
 20
31.24574248171438
 30
0.0
 40
1.440000057220458
 41
0.0
 46
0.0
 71
     4
 72
     1
  1
\A1;∅0.563{\P(8 PL.)}
  7
Note Text (ANSI)
 73
     1
 44
1.0
  0
SOLID
  5
C80
330
BCB
100
AcDbEntity
  8
Dimension (ANSI)
440
 16777216
100
AcDbTrace
 10
89.16351047333533
 20
33.1955606830134
 30
0.0
 11
88.85185933217753
 21
32.95499079879218
 31
0.0
 12
88.28597525009275
 22
34.01022916437623
 32
0.0
 13
88.28597525009275
 23
34.01022916437623
 33
0.0
  0
LINE
  5
C81
330
BCB
100
AcDbEntity
  8
Dimension (ANSI)
440
 16777216
100
AcDbLine
 10
87.03396537327975
 20
34.23306285186261
 30
0.0
 11
89.19396537327974
 21
34.23306285186261
 31
0.0
  0
LINE
  5
C82
330
BCB
100
AcDbEntity
  8
Dimension (ANSI)
440
 16777216
100
AcDbLine
 10
88.11396537327974
 20
33.15306285186262
 30
0.0
 11
88.11396537327972
 21
35.31306285186261
 31
0.0
  0
POINT
  5
C83
330
BCB
100
AcDbEntity
  8
Defpoints
 62
     0
440
 16777216
100
AcDbPoint
 10
88.28597525009275
 20
34.01022916437623
 30
0.0
  0
POINT
  5
C84
330
BCB
100
AcDbEntity
  8
Defpoints
 62
     0
440
 16777216
100
AcDbPoint
 10
87.94195549646673
 20
34.455896539349
 30
0.0
  0
ENDBLK
  5
BCD
330
BCB
100
AcDbEntity
  8
0
100
AcDbBlockEnd
  0
BLOCK
  5
C87
330
C86
100
AcDbEntity
  8
0
100
AcDbBlockBegin
  2
*D12
 70
     1
 10
0.0
 20
0.0
 30
0.0
  3
*D12
  1

  0
LINE
  5
D85
330
C86
100
AcDbEntity
  8
Dimension (ANSI)
440
 16777216
100
AcDbLine
 10
78.64869154992793
 20
116.3381531051679
 30
0.0
 11
78.64869154992793
 21
115.1570507697148
 31
0.0
  0
LINE
  5
D86
330
C86
100
AcDbEntity
  8
Dimension (ANSI)
440
 16777216
100
AcDbLine
 10
78.64869154992793
 20
119.575357776074
 30
0.0
 11
78.64869154992793
 21
123.4582274512281
 31
0.0
  0
LINE
  5
D87
330
C86
100
AcDbEntity
  8
Dimension (ANSI)
440
 16777216
100
AcDbLine
 10
78.64869154992793
 20
123.4582274512281
 30
0.0
 11
79.82979388538097
 21
123.4582274512281
 31
0.0
  0
SOLID
  5
D88
330
C86
100
AcDbEntity
  8
Dimension (ANSI)
440
 16777216
100
AcDbTrace
 10
78.45184116068576
 20
116.3381531051679
 30
0.0
 11
78.8455419391701
 21
116.3381531051679
 31
0.0
 12
78.64869154992793
 22
117.5192554406209
 32
0.0
 13
78.64869154992793
 23
117.5192554406209
 33
0.0
  0
SOLID
  5
D89
330
C86
100
AcDbEntity
  8
Dimension (ANSI)
440
 16777216
100
AcDbTrace
 10
78.45184116068576
 20
119.575357776074
 30
0.0
 11
78.8455419391701
 21
119.575357776074
 31
0.0
 12
78.64869154992793
 22
118.394255440621
 32
0.0
 13
78.64869154992793
 23
118.394255440621
 33
0.0
  0
MTEXT
  5
D8A
330
C86
100
AcDbEntity
  8
Dimension (ANSI)
440
 16777216
100
AcDbMText
 10
82.11001668443747
 20
123.4582274512282
 30
0.0
 40
1.440000057220458
 41
0.0
 46
0.0
 71
     5
 72
     1
  1
\A1;0.88{\PTYP.}
  7
Note Text (ANSI)
 73
     1
 44
1.0
  0
POINT
  5
D8B
330
C86
100
AcDbEntity
  8
Defpoints
 62
     0
440
 16777216
100
AcDbPoint
 10
82.11001668443747
 20
118.394255440621
 30
0.0
  0
POINT
  5
D8C
330
C86
100
AcDbEntity
  8
Defpoints
 62
     0
440
 16777216
100
AcDbPoint
 10
82.07834667389812
 20
117.5192554406209
 30
0.0
  0
POINT
  5
D8D
330
C86
100
AcDbEntity
  8
Defpoints
 62
     0
440
 16777216
100
AcDbPoint
 10
78.64869154992793
 20
117.5192554406209
 30
0.0
  0
ENDBLK
  5
C88
330
C86
100
AcDbEntity
  8
0
100
AcDbBlockEnd
  0
BLOCK
  5
D90
330
D8F
100
AcDbEntity
  8
0
100
AcDbBlockBegin
  2
*D13
 70
     1
 10
0.0
 20
0.0
 30
0.0
  3
*D13
  1

  0
LINE
  5
E75
330
D8F
100
AcDbEntity
  8
Dimension (ANSI)
440
 16777216
100
AcDbLine
 10
111.1675923326619
 20
90.33507786452036
 30
0.0
 11
109.9864899972089
 21
90.33507786452036
 31
0.0
  0
LINE
  5
E76
330
D8F
100
AcDbEntity
  8
Dimension (ANSI)
440
 16777216
100
AcDbLine
 10
114.404797003568
 20
90.33507786452036
 30
0.0
 11
116.2507500722717
 21
90.33507786452036
 31
0.0
  0
SOLID
  5
E77
330
D8F
100
AcDbEntity
  8
Dimension (ANSI)
440
 16777216
100
AcDbTrace
 10
111.1675923326619
 20
90.53192825376253
 30
0.0
 11
111.1675923326619
 21
90.13822747527818
 31
0.0
 12
112.3486946681149
 22
90.33507786452036
 32
0.0
 13
112.3486946681149
 23
90.33507786452036
 33
0.0
  0
SOLID
  5
E78
330
D8F
100
AcDbEntity
  8
Dimension (ANSI)
440
 16777216
100
AcDbTrace
 10
114.404797003568
 20
90.53192825376253
 30
0.0
 11
114.404797003568
 21
90.13822747527818
 31
0.0
 12
113.2236946681149
 22
90.33507786452036
 32
0.0
 13
113.2236946681149
 23
90.33507786452036
 33
0.0
  0
MTEXT
  5
E79
330
D8F
100
AcDbEntity
  8
Dimension (ANSI)
440
 16777216
100
AcDbMText
 10
116.6287028281772
 20
90.33507786452036
 30
0.0
 40
1.440000057220458
 41
0.0
 46
0.0
 71
     4
 72
     1
  1
\A1;0.88{\PTYP.}
  7
Note Text (ANSI)
 73
     1
 44
1.0
  0
POINT
  5
E7A
330
D8F
100
AcDbEntity
  8
Defpoints
 62
     0
440
 16777216
100
AcDbPoint
 10
113.2236946681149
 20
90.33507786452036
 30
0.0
  0
POINT
  5
E7B
330
D8F
100
AcDbEntity
  8
Defpoints
 62
     0
440
 16777216
100
AcDbPoint
 10
112.3486946681149
 20
90.34715665667453
 30
0.0
  0
POINT
  5
E7C
330
D8F
100
AcDbEntity
  8
Defpoints
 62
     0
440
 16777216
100
AcDbPoint
 10
112.3486946681149
 20
90.33507786452036
 30
0.0
  0
ENDBLK
  5
D91
330
D8F
100
AcDbEntity
  8
0
100
AcDbBlockEnd
  0
BLOCK
  5
E82
330
E81
100
AcDbEntity
  8
0
100
AcDbBlockBegin
  2
*D14
 70
     1
 10
0.0
 20
0.0
 30
0.0
  3
*D14
  1

  0
LINE
  5
F60
330
E81
100
AcDbEntity
  8
Dimension (ANSI)
440
 16777216
100
AcDbLine
 10
33.86396537327978
 20
95.01456285186257
 30
0.0
 11
33.86396537327978
 21
102.7472865206759
 31
0.0
  0
LINE
  5
F61
330
E81
100
AcDbEntity
  8
Dimension (ANSI)
440
 16777216
100
AcDbLine
 10
88.11396537327977
 20
95.01456285186257
 30
0.0
 11
88.11396537327977
 21
102.7472865206759
 31
0.0
  0
LINE
  5
F62
330
E81
100
AcDbEntity
  8
Dimension (ANSI)
440
 16777216
100
AcDbLine
 10
35.04506770873282
 20
101.2472865206759
 30
0.0
 11
58.26049541357228
 21
101.2472865206759
 31
0.0
  0
LINE
  5
F63
330
E81
100
AcDbEntity
  8
Dimension (ANSI)
440
 16777216
100
AcDbLine
 10
86.93286303782675
 20
101.2472865206759
 30
0.0
 11
63.7174353329873
 21
101.2472865206759
 31
0.0
  0
SOLID
  5
F64
330
E81
100
AcDbEntity
  8
Dimension (ANSI)
440
 16777216
100
AcDbTrace
 10
35.04506770873282
 20
101.4441369099181
 30
0.0
 11
35.04506770873282
 21
101.0504361314337
 31
0.0
 12
33.86396537327978
 22
101.2472865206759
 32
0.0
 13
33.86396537327978
 23
101.2472865206759
 33
0.0
  0
SOLID
  5
F65
330
E81
100
AcDbEntity
  8
Dimension (ANSI)
440
 16777216
100
AcDbTrace
 10
86.93286303782675
 20
101.4441369099181
 30
0.0
 11
86.93286303782675
 21
101.0504361314337
 31
0.0
 12
88.11396537327977
 22
101.2472865206759
 32
0.0
 13
88.11396537327977
 23
101.2472865206759
 33
0.0
  0
MTEXT
  5
F66
330
E81
100
AcDbEntity
  8
Dimension (ANSI)
440
 16777216
100
AcDbMText
 10
58.63844816947779
 20
101.9972663978816
 30
0.0
 40
1.440000057220458
 41
0.0
 46
0.0
 71
     1
 72
     1
  1
\A1;54.25
  7
Note Text (ANSI)
 73
     1
 44
1.0
  0
POINT
  5
F67
330
E81
100
AcDbEntity
  8
Defpoints
 62
     0
440
 16777216
100
AcDbPoint
 10
33.86396537327978
 20
94.26456285186258
 30
0.0
  0
POINT
  5
F68
330
E81
100
AcDbEntity
  8
Defpoints
 62
     0
440
 16777216
100
AcDbPoint
 10
88.11396537327977
 20
94.26456285186258
 30
0.0
  0
POINT
  5
F69
330
E81
100
AcDbEntity
  8
Defpoints
 62
     0
440
 16777216
100
AcDbPoint
 10
88.11396537327977
 20
101.2472865206759
 30
0.0
  0
ENDBLK
  5
E83
330
E81
100
AcDbEntity
  8
0
100
AcDbBlockEnd
  0
ENDSEC
  0
SECTION
  2
ENTITIES
  0
CIRCLE
  5
11B
330
6C
100
AcDbEntity
  8
Visible (ANSI)
100
AcDbCircle
 10
60.98896537327984
 20
34.2330628518626
 30
0.0
 40
0.2814999999999999
  0
CIRCLE
  5
11C
330
6C
100
AcDbEntity
  8
Visible (ANSI)
100
AcDbCircle
 10
60.9889653732798
 20
92.48306285186258
 30
0.0
 40
0.2814999999999999
  0
CIRCLE
  5
11D
330
6C
100
AcDbEntity
  8
Visible (ANSI)
100
AcDbCircle
 10
88.11396537327977
 20
63.35806285186261
 30
0.0
 40
0.2814999999999999
  0
CIRCLE
  5
11E
330
6C
100
AcDbEntity
  8
Visible (ANSI)
100
AcDbCircle
 10
33.86396537327979
 20
63.35806285186261
 30
0.0
 40
0.2814999999999999
  0
CIRCLE
  5
11F
330
6C
100
AcDbEntity
  8
Visible (ANSI)
100
AcDbCircle
 10
88.11396537327977
 20
92.48306285186258
 30
0.0
 40
0.2814999999999999
  0
CIRCLE
  5
120
330
6C
100
AcDbEntity
  8
Visible (ANSI)
100
AcDbCircle
 10
33.86396537327978
 20
92.48306285186258
 30
0.0
 40
0.2814999999999999
  0
CIRCLE
  5
121
330
6C
100
AcDbEntity
  8
Visible (ANSI)
100
AcDbCircle
 10
33.86396537327978
 20
34.23306285186261
 30
0.0
 40
0.2814999999999999
  0
CIRCLE
  5
122
330
6C
100
AcDbEntity
  8
Visible (ANSI)
100
AcDbCircle
 10
88.11396537327977
 20
34.2330628518626
 30
0.0
 40
0.2814999999999999
  0
LINE
  5
123
330
6C
100
AcDbEntity
  8
Visible (ANSI)
100
AcDbLine
 10
88.98896537327978
 20
93.14467450421428
 30
0.0
 11
88.98896537327983
 21
33.57145119951093
 31
0.0
  0
LINE
  5
124
330
6C
100
AcDbEntity
  8
Visible (ANSI)
100
AcDbLine
 10
33.2023537209281
 20
93.35806285186256
 30
0.0
 11
88.77557702563146
 21
93.35806285186261
 31
0.0
  0
LINE
  5
125
330
6C
100
AcDbEntity
  8
Visible (ANSI)
100
AcDbLine
 10
32.9889653732798
 20
33.57145119951093
 30
0.0
 11
32.98896537327979
 21
93.14467450421428
 31
0.0
  0
LINE
  5
126
330
6C
100
AcDbEntity
  8
Visible (ANSI)
100
AcDbLine
 10
88.77557702563148
 20
33.35806285186261
 30
0.0
 11
33.20235372092812
 21
33.35806285186261
 31
0.0
  0
LINE
  5
127
330
6C
100
AcDbEntity
  8
Hidden (ANSI)
100
AcDbLine
 10
88.86396537327982
 20
33.57145119951093
 30
0.0
 11
88.86396537327977
 21
93.14467450421428
 31
0.0
  0
LINE
  5
128
330
6C
100
AcDbEntity
  8
Hidden (ANSI)
100
AcDbLine
 10
88.77557702563146
 20
93.2330628518626
 30
0.0
 11
33.2023537209281
 21
93.23306285186257
 31
0.0
  0
LINE
  5
129
330
6C
100
AcDbEntity
  8
Hidden (ANSI)
100
AcDbLine
 10
33.11396537327978
 20
93.14467450421428
 30
0.0
 11
33.11396537327981
 21
33.57145119951093
 31
0.0
  0
LINE
  5
12A
330
6C
100
AcDbEntity
  8
Hidden (ANSI)
100
AcDbLine
 10
33.20235372092812
 20
33.48306285186261
 30
0.0
 11
88.77557702563148
 21
33.48306285186261
 31
0.0
  0
POLYLINE
  5
12B
330
6C
100
AcDbEntity
  8
Visible (ANSI)
100
AcDb2dPolyline
 66
     1
 10
0.0
 20
0.0
 30
0.0
 70
   128
  0
VERTEX
  5
12C
330
12B
100
AcDbEntity
  8
Visible (ANSI)
100
AcDbVertex
100
AcDb2dVertex
 10
88.83271513298391
 20
93.20181405334205
 30
0.0
  0
VERTEX
  5
12D
330
12B
100
AcDbEntity
  8
Visible (ANSI)
100
AcDbVertex
100
AcDb2dVertex
 10
88.84293371573795
 20
93.19942911662637
 30
0.0
  0
VERTEX
  5
12F
330
12B
100
AcDbEntity
  8
Visible (ANSI)
100
AcDbVertex
100
AcDb2dVertex
 10
88.85311024671114
 20
93.19705018730799
 30
0.0
  0
VERTEX
  5
130
330
12B
100
AcDbEntity
  8
Visible (ANSI)
100
AcDbVertex
100
AcDb2dVertex
 10
88.86319666672529
 20
93.19467125798956
 30
0.0
  0
VERTEX
  5
131
330
12B
100
AcDbEntity
  8
Visible (ANSI)
100
AcDbVertex
100
AcDb2dVertex
 10
88.87315693139679
 20
93.19229232867115
 30
0.0
  0
VERTEX
  5
132
330
12B
100
AcDbEntity
  8
Visible (ANSI)
100
AcDbVertex
100
AcDb2dVertex
 10
88.8829429815475
 20
93.18990739195546
 30
0.0
  0
VERTEX
  5
133
330
12B
100
AcDbEntity
  8
Visible (ANSI)
100
AcDbVertex
100
AcDb2dVertex
 10
88.89250675799928
 20
93.18752846263707
 30
0.0
  0
VERTEX
  5
134
330
12B
100
AcDbEntity
  8
Visible (ANSI)
100
AcDbVertex
100
AcDb2dVertex
 10
88.90182423116304
 20
93.18514953331867
 30
0.0
  0
VERTEX
  5
135
330
12B
100
AcDbEntity
  8
Visible (ANSI)
100
AcDbVertex
100
AcDb2dVertex
 10
88.91084133446335
 20
93.182764596603
 30
0.0
  0
VERTEX
  5
136
330
12B
100
AcDbEntity
  8
Visible (ANSI)
100
AcDbVertex
100
AcDb2dVertex
 10
88.91952202351664
 20
93.18038566728459
 30
0.0
  0
VERTEX
  5
137
330
12B
100
AcDbEntity
  8
Visible (ANSI)
100
AcDbVertex
100
AcDb2dVertex
 10
88.92783626133651
 20
93.17800673796618
 30
0.0
  0
VERTEX
  5
138
330
12B
100
AcDbEntity
  8
Visible (ANSI)
100
AcDbVertex
100
AcDb2dVertex
 10
88.93573598874484
 20
93.17562180125051
 30
0.0
  0
VERTEX
  5
139
330
12B
100
AcDbEntity
  8
Visible (ANSI)
100
AcDbVertex
100
AcDb2dVertex
 10
88.94320318354985
 20
93.17324287193212
 30
0.0
  0
VERTEX
  5
13A
330
12B
100
AcDbEntity
  8
Visible (ANSI)
100
AcDbVertex
100
AcDb2dVertex
 10
88.95018978657333
 20
93.17086394261371
 30
0.0
  0
VERTEX
  5
13B
330
12B
100
AcDbEntity
  8
Visible (ANSI)
100
AcDbVertex
100
AcDb2dVertex
 10
88.95667777562353
 20
93.16848501329529
 30
0.0
  0
VERTEX
  5
13C
330
12B
100
AcDbEntity
  8
Visible (ANSI)
100
AcDbVertex
100
AcDb2dVertex
 10
88.96263110631684
 20
93.16610007657962
 30
0.0
  0
VERTEX
  5
13D
330
12B
100
AcDbEntity
  8
Visible (ANSI)
100
AcDbVertex
100
AcDb2dVertex
 10
88.96803175646139
 20
93.16372114726121
 30
0.0
  0
VERTEX
  5
13E
330
12B
100
AcDbEntity
  8
Visible (ANSI)
100
AcDbVertex
100
AcDb2dVertex
 10
88.97284968907088
 20
93.1613422179428
 30
0.0
  0
VERTEX
  5
13F
330
12B
100
AcDbEntity
  8
Visible (ANSI)
100
AcDbVertex
100
AcDb2dVertex
 10
88.97707288935079
 20
93.15895728122713
 30
0.0
  0
VERTEX
  5
140
330
12B
100
AcDbEntity
  8
Visible (ANSI)
100
AcDbVertex
100
AcDb2dVertex
 10
88.98067132031474
 20
93.15657835190874
 30
0.0
  0
VERTEX
  5
141
330
12B
100
AcDbEntity
  8
Visible (ANSI)
100
AcDbVertex
100
AcDb2dVertex
 10
88.98363897456546
 20
93.15419942259032
 30
0.0
  0
VERTEX
  5
142
330
12B
100
AcDbEntity
  8
Visible (ANSI)
100
AcDbVertex
100
AcDb2dVertex
 10
88.98596383730845
 20
93.15181448587464
 30
0.0
  0
VERTEX
  5
143
330
12B
100
AcDbEntity
  8
Visible (ANSI)
100
AcDbVertex
100
AcDb2dVertex
 10
88.98762788635188
 20
93.14943555655625
 30
0.0
  0
VERTEX
  5
144
330
12B
100
AcDbEntity
  8
Visible (ANSI)
100
AcDbVertex
100
AcDb2dVertex
 10
88.98863112169577
 20
93.14705662723785
 30
0.0
  0
VERTEX
  5
145
330
12B
100
AcDbEntity
  8
Visible (ANSI)
100
AcDbVertex
100
AcDb2dVertex
 10
88.9889675359428
 20
93.14467169052216
 30
0.0
  0
SEQEND
  5
12E
330
12B
100
AcDbEntity
  8
Visible (ANSI)
  0
POLYLINE
  5
146
330
6C
100
AcDbEntity
  8
Visible (ANSI)
100
AcDb2dPolyline
 66
     1
 10
0.0
 20
0.0
 30
0.0
 70
   128
  0
VERTEX
  5
147
330
146
100
AcDbEntity
  8
Visible (ANSI)
100
AcDbVertex
100
AcDb2dVertex
 10
88.9889675359428
 20
33.571451187849
 30
0.0
  0
VERTEX
  5
148
330
146
100
AcDbEntity
  8
Visible (ANSI)
100
AcDbVertex
100
AcDb2dVertex
 10
88.98863112169577
 20
33.56907042815174
 30
0.0
  0
VERTEX
  5
14A
330
146
100
AcDbEntity
  8
Visible (ANSI)
100
AcDbVertex
100
AcDb2dVertex
 10
88.98762788635188
 20
33.56668966845448
 30
0.0
  0
VERTEX
  5
14B
330
146
100
AcDbEntity
  8
Visible (ANSI)
100
AcDbVertex
100
AcDb2dVertex
 10
88.98596383730845
 20
33.56430890875722
 30
0.0
  0
VERTEX
  5
14C
330
146
100
AcDbEntity
  8
Visible (ANSI)
100
AcDbVertex
100
AcDb2dVertex
 10
88.98363897456546
 20
33.56192814905996
 30
0.0
  0
VERTEX
  5
14D
330
146
100
AcDbEntity
  8
Visible (ANSI)
100
AcDbVertex
100
AcDb2dVertex
 10
88.98067132031474
 20
33.55954736589631
 30
0.0
  0
VERTEX
  5
14E
330
146
100
AcDbEntity
  8
Visible (ANSI)
100
AcDbVertex
100
AcDb2dVertex
 10
88.97707288935079
 20
33.55716660619905
 30
0.0
  0
VERTEX
  5
14F
330
146
100
AcDbEntity
  8
Visible (ANSI)
100
AcDbVertex
100
AcDb2dVertex
 10
88.97284968907088
 20
33.55478584650178
 30
0.0
  0
VERTEX
  5
150
330
146
100
AcDbEntity
  8
Visible (ANSI)
100
AcDbVertex
100
AcDb2dVertex
 10
88.96803175646139
 20
33.55240508680452
 30
0.0
  0
VERTEX
  5
151
330
146
100
AcDbEntity
  8
Visible (ANSI)
100
AcDbVertex
100
AcDb2dVertex
 10
88.96263110631684
 20
33.55002431537406
 30
0.0
  0
VERTEX
  5
152
330
146
100
AcDbEntity
  8
Visible (ANSI)
100
AcDbVertex
100
AcDb2dVertex
 10
88.95667777562353
 20
33.5476435556768
 30
0.0
  0
VERTEX
  5
153
330
146
100
AcDbEntity
  8
Visible (ANSI)
100
AcDbVertex
100
AcDb2dVertex
 10
88.95018978657333
 20
33.54526279597954
 30
0.0
  0
VERTEX
  5
154
330
146
100
AcDbEntity
  8
Visible (ANSI)
100
AcDbVertex
100
AcDb2dVertex
 10
88.94320318354985
 20
33.54288202454909
 30
0.0
  0
VERTEX
  5
155
330
146
100
AcDbEntity
  8
Visible (ANSI)
100
AcDbVertex
100
AcDb2dVertex
 10
88.93573598874484
 20
33.54050126485183
 30
0.0
  0
VERTEX
  5
156
330
146
100
AcDbEntity
  8
Visible (ANSI)
100
AcDbVertex
100
AcDb2dVertex
 10
88.92783626133651
 20
33.53812049342137
 30
0.0
  0
VERTEX
  5
157
330
146
100
AcDbEntity
  8
Visible (ANSI)
100
AcDbVertex
100
AcDb2dVertex
 10
88.91952202351664
 20
33.5357397337241
 30
0.0
  0
VERTEX
  5
158
330
146
100
AcDbEntity
  8
Visible (ANSI)
100
AcDbVertex
100
AcDb2dVertex
 10
88.91084133446335
 20
33.53335896229364
 30
0.0
  0
VERTEX
  5
159
330
146
100
AcDbEntity
  8
Visible (ANSI)
100
AcDbVertex
100
AcDb2dVertex
 10
88.90182423116304
 20
33.53097820259638
 30
0.0
  0
VERTEX
  5
15A
330
146
100
AcDbEntity
  8
Visible (ANSI)
100
AcDbVertex
100
AcDb2dVertex
 10
88.89250675799928
 20
33.52859744289912
 30
0.0
  0
VERTEX
  5
15B
330
146
100
AcDbEntity
  8
Visible (ANSI)
100
AcDbVertex
100
AcDb2dVertex
 10
88.8829429815475
 20
33.52621667146867
 30
0.0
  0
VERTEX
  5
15C
330
146
100
AcDbEntity
  8
Visible (ANSI)
100
AcDbVertex
100
AcDb2dVertex
 10
88.87315693139679
 20
33.52383591177141
 30
0.0
  0
VERTEX
  5
15D
330
146
100
AcDbEntity
  8
Visible (ANSI)
100
AcDbVertex
100
AcDb2dVertex
 10
88.86319666672529
 20
33.52145514034095
 30
0.0
  0
VERTEX
  5
15E
330
146
100
AcDbEntity
  8
Visible (ANSI)
100
AcDbVertex
100
AcDb2dVertex
 10
88.85311024671114
 20
33.51907438064369
 30
0.0
  0
VERTEX
  5
15F
330
146
100
AcDbEntity
  8
Visible (ANSI)
100
AcDbVertex
100
AcDb2dVertex
 10
88.84293371573795
 20
33.51669362094642
 30
0.0
  0
VERTEX
  5
160
330
146
100
AcDbEntity
  8
Visible (ANSI)
100
AcDbVertex
100
AcDb2dVertex
 10
88.83271513298391
 20
33.51431284951596
 30
0.0
  0
SEQEND
  5
149
330
146
100
AcDbEntity
  8
Visible (ANSI)
  0
POLYLINE
  5
161
330
6C
100
AcDbEntity
  8
Visible (ANSI)
100
AcDb2dPolyline
 66
     1
 10
0.0
 20
0.0
 30
0.0
 70
   128
  0
VERTEX
  5
162
330
161
100
AcDbEntity
  8
Visible (ANSI)
100
AcDbVertex
100
AcDb2dVertex
 10
33.14521537093316
 20
93.20181405334205
 30
0.0
  0
VERTEX
  5
163
330
161
100
AcDbEntity
  8
Visible (ANSI)
100
AcDbVertex
100
AcDb2dVertex
 10
33.14759614236362
 20
93.21203263609611
 30
0.0
  0
VERTEX
  5
165
330
161
100
AcDbEntity
  8
Visible (ANSI)
100
AcDbVertex
100
AcDb2dVertex
 10
33.14997690206088
 20
93.2222091670693
 30
0.0
  0
VERTEX
  5
166
330
161
100
AcDbEntity
  8
Visible (ANSI)
100
AcDbVertex
100
AcDb2dVertex
 10
33.15235766175815
 20
93.23229558708343
 30
0.0
  0
VERTEX
  5
167
330
161
100
AcDbEntity
  8
Visible (ANSI)
100
AcDbVertex
100
AcDb2dVertex
 10
33.15473843318861
 20
93.24225585175495
 30
0.0
  0
VERTEX
  5
168
330
161
100
AcDbEntity
  8
Visible (ANSI)
100
AcDbVertex
100
AcDb2dVertex
 10
33.15711919288587
 20
93.2520358945084
 30
0.0
  0
VERTEX
  5
169
330
161
100
AcDbEntity
  8
Visible (ANSI)
100
AcDbVertex
100
AcDb2dVertex
 10
33.15949996431632
 20
93.26160567835742
 30
0.0
  0
VERTEX
  5
16A
330
161
100
AcDbEntity
  8
Visible (ANSI)
100
AcDbVertex
100
AcDb2dVertex
 10
33.16188072401358
 20
93.27092315152119
 30
0.0
  0
VERTEX
  5
16B
330
161
100
AcDbEntity
  8
Visible (ANSI)
100
AcDbVertex
100
AcDb2dVertex
 10
33.16426148371084
 20
93.2799402548215
 30
0.0
  0
VERTEX
  5
16C
330
161
100
AcDbEntity
  8
Visible (ANSI)
100
AcDbVertex
100
AcDb2dVertex
 10
33.1666422551413
 20
93.28862094387478
 30
0.0
  0
VERTEX
  5
16D
330
161
100
AcDbEntity
  8
Visible (ANSI)
100
AcDbVertex
100
AcDb2dVertex
 10
33.16902301483856
 20
93.29692917429738
 30
0.0
  0
VERTEX
  5
16E
330
161
100
AcDbEntity
  8
Visible (ANSI)
100
AcDbVertex
100
AcDb2dVertex
 10
33.17140378626902
 20
93.304834909103
 30
0.0
  0
VERTEX
  5
16F
330
161
100
AcDbEntity
  8
Visible (ANSI)
100
AcDbVertex
100
AcDb2dVertex
 10
33.17378454596628
 20
93.31229609651073
 30
0.0
  0
VERTEX
  5
170
330
161
100
AcDbEntity
  8
Visible (ANSI)
100
AcDbVertex
100
AcDb2dVertex
 10
33.17616531739674
 20
93.31928870693149
 30
0.0
  0
VERTEX
  5
171
330
161
100
AcDbEntity
  8
Visible (ANSI)
100
AcDbVertex
100
AcDb2dVertex
 10
33.178546077094
 20
93.32577669598169
 30
0.0
  0
VERTEX
  5
172
330
161
100
AcDbEntity
  8
Visible (ANSI)
100
AcDbVertex
100
AcDb2dVertex
 10
33.18092683679126
 20
93.33173002667498
 30
0.0
  0
VERTEX
  5
173
330
161
100
AcDbEntity
  8
Visible (ANSI)
100
AcDbVertex
100
AcDb2dVertex
 10
33.18330760822172
 20
93.33713067681953
 30
0.0
  0
VERTEX
  5
174
330
161
100
AcDbEntity
  8
Visible (ANSI)
100
AcDbVertex
100
AcDb2dVertex
 10
33.18568836791898
 20
93.34194860942904
 30
0.0
  0
VERTEX
  5
175
330
161
100
AcDbEntity
  8
Visible (ANSI)
100
AcDbVertex
100
AcDb2dVertex
 10
33.18806912761624
 20
93.34617180970893
 30
0.0
  0
VERTEX
  5
176
330
161
100
AcDbEntity
  8
Visible (ANSI)
100
AcDbVertex
100
AcDb2dVertex
 10
33.1904498873135
 20
93.34977024067288
 30
0.0
  0
VERTEX
  5
177
330
161
100
AcDbEntity
  8
Visible (ANSI)
100
AcDbVertex
100
AcDb2dVertex
 10
33.19283067047716
 20
93.3527378949236
 30
0.0
  0
VERTEX
  5
178
330
161
100
AcDbEntity
  8
Visible (ANSI)
100
AcDbVertex
100
AcDb2dVertex
 10
33.19521143017442
 20
93.35506275766659
 30
0.0
  0
VERTEX
  5
179
330
161
100
AcDbEntity
  8
Visible (ANSI)
100
AcDbVertex
100
AcDb2dVertex
 10
33.19759218987168
 20
93.35672680671004
 30
0.0
  0
VERTEX
  5
17A
330
161
100
AcDbEntity
  8
Visible (ANSI)
100
AcDbVertex
100
AcDb2dVertex
 10
33.19997294956894
 20
93.35773004205391
 30
0.0
  0
VERTEX
  5
17B
330
161
100
AcDbEntity
  8
Visible (ANSI)
100
AcDbVertex
100
AcDb2dVertex
 10
33.2023537092662
 20
93.3580604489037
 30
0.0
  0
SEQEND
  5
164
330
161
100
AcDbEntity
  8
Visible (ANSI)
  0
POLYLINE
  5
17C
330
6C
100
AcDbEntity
  8
Visible (ANSI)
100
AcDb2dPolyline
 66
     1
 10
0.0
 20
0.0
 30
0.0
 70
   128
  0
VERTEX
  5
17D
330
17C
100
AcDbEntity
  8
Visible (ANSI)
100
AcDbVertex
100
AcDb2dVertex
 10
88.7755787775613
 20
93.3580604489037
 30
0.0
  0
VERTEX
  5
17E
330
17C
100
AcDbEntity
  8
Visible (ANSI)
100
AcDbVertex
100
AcDb2dVertex
 10
88.77795770687971
 20
93.35773004205391
 30
0.0
  0
VERTEX
  5
180
330
17C
100
AcDbEntity
  8
Visible (ANSI)
100
AcDbVertex
100
AcDb2dVertex
 10
88.7803366361981
 20
93.35672680671004
 30
0.0
  0
VERTEX
  5
181
330
17C
100
AcDbEntity
  8
Visible (ANSI)
100
AcDbVertex
100
AcDb2dVertex
 10
88.78272157291377
 20
93.35506275766659
 30
0.0
  0
VERTEX
  5
182
330
17C
100
AcDbEntity
  8
Visible (ANSI)
100
AcDbVertex
100
AcDb2dVertex
 10
88.78510050223217
 20
93.3527378949236
 30
0.0
  0
VERTEX
  5
183
330
17C
100
AcDbEntity
  8
Visible (ANSI)
100
AcDbVertex
100
AcDb2dVertex
 10
88.78747943155058
 20
93.34977024067288
 30
0.0
  0
VERTEX
  5
184
330
17C
100
AcDbEntity
  8
Visible (ANSI)
100
AcDbVertex
100
AcDb2dVertex
 10
88.78986436826625
 20
93.34617180970893
 30
0.0
  0
VERTEX
  5
185
330
17C
100
AcDbEntity
  8
Visible (ANSI)
100
AcDbVertex
100
AcDb2dVertex
 10
88.79224329758466
 20
93.34194860942904
 30
0.0
  0
VERTEX
  5
186
330
17C
100
AcDbEntity
  8
Visible (ANSI)
100
AcDbVertex
100
AcDb2dVertex
 10
88.79462222690305
 20
93.33713067681953
 30
0.0
  0
VERTEX
  5
187
330
17C
100
AcDbEntity
  8
Visible (ANSI)
100
AcDbVertex
100
AcDb2dVertex
 10
88.79700115622148
 20
93.33173002667498
 30
0.0
  0
VERTEX
  5
188
330
17C
100
AcDbEntity
  8
Visible (ANSI)
100
AcDbVertex
100
AcDb2dVertex
 10
88.79938609293715
 20
93.32577669598169
 30
0.0
  0
VERTEX
  5
189
330
17C
100
AcDbEntity
  8
Visible (ANSI)
100
AcDbVertex
100
AcDb2dVertex
 10
88.80176502225557
 20
93.31928870693149
 30
0.0
  0
VERTEX
  5
18A
330
17C
100
AcDbEntity
  8
Visible (ANSI)
100
AcDbVertex
100
AcDb2dVertex
 10
88.80414395157396
 20
93.31229609651073
 30
0.0
  0
VERTEX
  5
18B
330
17C
100
AcDbEntity
  8
Visible (ANSI)
100
AcDbVertex
100
AcDb2dVertex
 10
88.80652888828963
 20
93.304834909103
 30
0.0
  0
VERTEX
  5
18C
330
17C
100
AcDbEntity
  8
Visible (ANSI)
100
AcDbVertex
100
AcDb2dVertex
 10
88.80890781760804
 20
93.29692917429738
 30
0.0
  0
VERTEX
  5
18D
330
17C
100
AcDbEntity
  8
Visible (ANSI)
100
AcDbVertex
100
AcDb2dVertex
 10
88.81128674692645
 20
93.28862094387478
 30
0.0
  0
VERTEX
  5
18E
330
17C
100
AcDbEntity
  8
Visible (ANSI)
100
AcDbVertex
100
AcDb2dVertex
 10
88.81367168364212
 20
93.2799402548215
 30
0.0
  0
VERTEX
  5
18F
330
17C
100
AcDbEntity
  8
Visible (ANSI)
100
AcDbVertex
100
AcDb2dVertex
 10
88.81605061296053
 20
93.27092315152119
 30
0.0
  0
VERTEX
  5
190
330
17C
100
AcDbEntity
  8
Visible (ANSI)
100
AcDbVertex
100
AcDb2dVertex
 10
88.81842954227892
 20
93.26160567835742
 30
0.0
  0
VERTEX
  5
191
330
17C
100
AcDbEntity
  8
Visible (ANSI)
100
AcDbVertex
100
AcDb2dVertex
 10
88.8208144789946
 20
93.2520358945084
 30
0.0
  0
VERTEX
  5
192
330
17C
100
AcDbEntity
  8
Visible (ANSI)
100
AcDbVertex
100
AcDb2dVertex
 10
88.82319340831301
 20
93.24225585175495
 30
0.0
  0
VERTEX
  5
193
330
17C
100
AcDbEntity
  8
Visible (ANSI)
100
AcDbVertex
100
AcDb2dVertex
 10
88.82557233763142
 20
93.23229558708343
 30
0.0
  0
VERTEX
  5
194
330
17C
100
AcDbEntity
  8
Visible (ANSI)
100
AcDbVertex
100
AcDb2dVertex
 10
88.82795126694983
 20
93.2222091670693
 30
0.0
  0
VERTEX
  5
195
330
17C
100
AcDbEntity
  8
Visible (ANSI)
100
AcDbVertex
100
AcDb2dVertex
 10
88.8303362036655
 20
93.21203263609611
 30
0.0
  0
VERTEX
  5
196
330
17C
100
AcDbEntity
  8
Visible (ANSI)
100
AcDbVertex
100
AcDb2dVertex
 10
88.83271513298391
 20
93.20181405334205
 30
0.0
  0
SEQEND
  5
17F
330
17C
100
AcDbEntity
  8
Visible (ANSI)
  0
POLYLINE
  5
197
330
6C
100
AcDbEntity
  8
Visible (ANSI)
100
AcDb2dPolyline
 66
     1
 10
0.0
 20
0.0
 30
0.0
 70
   128
  0
VERTEX
  5
198
330
197
100
AcDbEntity
  8
Visible (ANSI)
100
AcDbVertex
100
AcDb2dVertex
 10
33.14521537093316
 20
33.51431284951596
 30
0.0
  0
VERTEX
  5
199
330
197
100
AcDbEntity
  8
Visible (ANSI)
100
AcDbVertex
100
AcDb2dVertex
 10
33.13499613112003
 20
33.51669362094642
 30
0.0
  0
VERTEX
  5
19B
330
197
100
AcDbEntity
  8
Visible (ANSI)
100
AcDbVertex
100
AcDb2dVertex
 10
33.12482065613465
 20
33.51907438064369
 30
0.0
  0
VERTEX
  5
19C
330
197
100
AcDbEntity
  8
Visible (ANSI)
100
AcDbVertex
100
AcDb2dVertex
 10
33.11473251134043
 20
33.52145514034095
 30
0.0
  0
VERTEX
  5
19D
330
197
100
AcDbEntity
  8
Visible (ANSI)
100
AcDbVertex
100
AcDb2dVertex
 10
33.10477489837162
 20
33.52383591177141
 30
0.0
  0
VERTEX
  5
19E
330
197
100
AcDbEntity
  8
Visible (ANSI)
100
AcDbVertex
100
AcDb2dVertex
 10
33.094990455669
 20
33.52621667146867
 30
0.0
  0
VERTEX
  5
19F
330
197
100
AcDbEntity
  8
Visible (ANSI)
100
AcDbVertex
100
AcDb2dVertex
 10
33.08542108834848
 20
33.52859744289912
 30
0.0
  0
VERTEX
  5
1A0
330
197
100
AcDbEntity
  8
Visible (ANSI)
100
AcDbVertex
100
AcDb2dVertex
 10
33.07610776287015
 20
33.53097820259638
 30
0.0
  0
VERTEX
  5
1A1
330
197
100
AcDbEntity
  8
Visible (ANSI)
100
AcDbVertex
100
AcDb2dVertex
 10
33.06709037210648
 20
33.53335896229364
 30
0.0
  0
VERTEX
  5
1A2
330
197
100
AcDbEntity
  8
Visible (ANSI)
100
AcDbVertex
100
AcDb2dVertex
 10
33.05840752414481
 20
33.5357397337241
 30
0.0
  0
VERTEX
  5
1A3
330
197
100
AcDbEntity
  8
Visible (ANSI)
100
AcDbVertex
100
AcDb2dVertex
 10
33.05009640148895
 20
33.53812049342137
 30
0.0
  0
VERTEX
  5
1A4
330
197
100
AcDbEntity
  8
Visible (ANSI)
100
AcDbVertex
100
AcDb2dVertex
 10
33.04219259092778
 20
33.54050126485183
 30
0.0
  0
VERTEX
  5
1A5
330
197
100
AcDbEntity
  8
Visible (ANSI)
100
AcDbVertex
100
AcDb2dVertex
 10
33.03472993980363
 20
33.54288202454909
 30
0.0
  0
VERTEX
  5
1A6
330
197
100
AcDbEntity
  8
Visible (ANSI)
100
AcDbVertex
100
AcDb2dVertex
 10
33.02774040348068
 20
33.54526279597954
 30
0.0
  0
VERTEX
  5
1A7
330
197
100
AcDbEntity
  8
Visible (ANSI)
100
AcDbVertex
100
AcDb2dVertex
 10
33.0212539133465
 20
33.5476435556768
 30
0.0
  0
VERTEX
  5
1A8
330
197
100
AcDbEntity
  8
Visible (ANSI)
100
AcDbVertex
100
AcDb2dVertex
 10
33.01529824774686
 20
33.55002431537406
 30
0.0
  0
VERTEX
  5
1A9
330
197
100
AcDbEntity
  8
Visible (ANSI)
100
AcDbVertex
100
AcDb2dVertex
 10
33.0098989043872
 20
33.55240508680452
 30
0.0
  0
VERTEX
  5
1AA
330
197
100
AcDbEntity
  8
Visible (ANSI)
100
AcDbVertex
100
AcDb2dVertex
 10
33.00507900793372
 20
33.55478584650178
 30
0.0
  0
VERTEX
  5
1AB
330
197
100
AcDbEntity
  8
Visible (ANSI)
100
AcDbVertex
100
AcDb2dVertex
 10
33.00085919634801
 20
33.55716660619905
 30
0.0
  0
VERTEX
  5
1AC
330
197
100
AcDbEntity
  8
Visible (ANSI)
100
AcDbVertex
100
AcDb2dVertex
 10
32.99725754022131
 20
33.55954736589631
 30
0.0
  0
VERTEX
  5
1AD
330
197
100
AcDbEntity
  8
Visible (ANSI)
100
AcDbVertex
100
AcDb2dVertex
 10
32.99428946284213
 20
33.56192814905996
 30
0.0
  0
VERTEX
  5
1AE
330
197
100
AcDbEntity
  8
Visible (ANSI)
100
AcDbVertex
100
AcDb2dVertex
 10
32.99196767328031
 20
33.56430890875722
 30
0.0
  0
VERTEX
  5
1AF
330
197
100
AcDbEntity
  8
Visible (ANSI)
100
AcDbVertex
100
AcDb2dVertex
 10
32.99030211367933
 20
33.56668966845448
 30
0.0
  0
VERTEX
  5
1B0
330
197
100
AcDbEntity
  8
Visible (ANSI)
100
AcDbVertex
100
AcDb2dVertex
 10
32.98929991651721
 20
33.56907042815174
 30
0.0
  0
VERTEX
  5
1B1
330
197
100
AcDbEntity
  8
Visible (ANSI)
100
AcDbVertex
100
AcDb2dVertex
 10
32.9889653732798
 20
33.571451187849
 30
0.0
  0
SEQEND
  5
19A
330
197
100
AcDbEntity
  8
Visible (ANSI)
  0
POLYLINE
  5
1B2
330
6C
100
AcDbEntity
  8
Visible (ANSI)
100
AcDb2dPolyline
 66
     1
 10
0.0
 20
0.0
 30
0.0
 70
   128
  0
VERTEX
  5
1B3
330
1B2
100
AcDbEntity
  8
Visible (ANSI)
100
AcDbVertex
100
AcDb2dVertex
 10
32.98896537327979
 20
93.14467169052216
 30
0.0
  0
VERTEX
  5
1B4
330
1B2
100
AcDbEntity
  8
Visible (ANSI)
100
AcDbVertex
100
AcDb2dVertex
 10
32.98929991651721
 20
93.14705662723785
 30
0.0
  0
VERTEX
  5
1B6
330
1B2
100
AcDbEntity
  8
Visible (ANSI)
100
AcDbVertex
100
AcDb2dVertex
 10
32.99030211367933
 20
93.14943555655625
 30
0.0
  0
VERTEX
  5
1B7
330
1B2
100
AcDbEntity
  8
Visible (ANSI)
100
AcDbVertex
100
AcDb2dVertex
 10
32.99196767328031
 20
93.15181448587464
 30
0.0
  0
VERTEX
  5
1B8
330
1B2
100
AcDbEntity
  8
Visible (ANSI)
100
AcDbVertex
100
AcDb2dVertex
 10
32.99428946284213
 20
93.15419942259032
 30
0.0
  0
VERTEX
  5
1B9
330
1B2
100
AcDbEntity
  8
Visible (ANSI)
100
AcDbVertex
100
AcDb2dVertex
 10
32.99725754022131
 20
93.15657835190874
 30
0.0
  0
VERTEX
  5
1BA
330
1B2
100
AcDbEntity
  8
Visible (ANSI)
100
AcDbVertex
100
AcDb2dVertex
 10
33.00085919634801
 20
93.15895728122713
 30
0.0
  0
VERTEX
  5
1BB
330
1B2
100
AcDbEntity
  8
Visible (ANSI)
100
AcDbVertex
100
AcDb2dVertex
 10
33.00507900793372
 20
93.1613422179428
 30
0.0
  0
VERTEX
  5
1BC
330
1B2
100
AcDbEntity
  8
Visible (ANSI)
100
AcDbVertex
100
AcDb2dVertex
 10
33.0098989043872
 20
93.16372114726121
 30
0.0
  0
VERTEX
  5
1BD
330
1B2
100
AcDbEntity
  8
Visible (ANSI)
100
AcDbVertex
100
AcDb2dVertex
 10
33.01529824774686
 20
93.16610007657962
 30
0.0
  0
VERTEX
  5
1BE
330
1B2
100
AcDbEntity
  8
Visible (ANSI)
100
AcDbVertex
100
AcDb2dVertex
 10
33.0212539133465
 20
93.16848501329529
 30
0.0
  0
VERTEX
  5
1BF
330
1B2
100
AcDbEntity
  8
Visible (ANSI)
100
AcDbVertex
100
AcDb2dVertex
 10
33.02774040348068
 20
93.17086394261371
 30
0.0
  0
VERTEX
  5
1C0
330
1B2
100
AcDbEntity
  8
Visible (ANSI)
100
AcDbVertex
100
AcDb2dVertex
 10
33.03472993980363
 20
93.17324287193212
 30
0.0
  0
VERTEX
  5
1C1
330
1B2
100
AcDbEntity
  8
Visible (ANSI)
100
AcDbVertex
100
AcDb2dVertex
 10
33.04219259092778
 20
93.17562180125051
 30
0.0
  0
VERTEX
  5
1C2
330
1B2
100
AcDbEntity
  8
Visible (ANSI)
100
AcDbVertex
100
AcDb2dVertex
 10
33.05009640148895
 20
93.17800673796618
 30
0.0
  0
VERTEX
  5
1C3
330
1B2
100
AcDbEntity
  8
Visible (ANSI)
100
AcDbVertex
100
AcDb2dVertex
 10
33.05840752414481
 20
93.18038566728459
 30
0.0
  0
VERTEX
  5
1C4
330
1B2
100
AcDbEntity
  8
Visible (ANSI)
100
AcDbVertex
100
AcDb2dVertex
 10
33.06709037210648
 20
93.182764596603
 30
0.0
  0
VERTEX
  5
1C5
330
1B2
100
AcDbEntity
  8
Visible (ANSI)
100
AcDbVertex
100
AcDb2dVertex
 10
33.07610776287015
 20
93.18514953331867
 30
0.0
  0
VERTEX
  5
1C6
330
1B2
100
AcDbEntity
  8
Visible (ANSI)
100
AcDbVertex
100
AcDb2dVertex
 10
33.08542108834848
 20
93.18752846263707
 30
0.0
  0
VERTEX
  5
1C7
330
1B2
100
AcDbEntity
  8
Visible (ANSI)
100
AcDbVertex
100
AcDb2dVertex
 10
33.094990455669
 20
93.18990739195546
 30
0.0
  0
VERTEX
  5
1C8
330
1B2
100
AcDbEntity
  8
Visible (ANSI)
100
AcDbVertex
100
AcDb2dVertex
 10
33.10477489837162
 20
93.19229232867115
 30
0.0
  0
VERTEX
  5
1C9
330
1B2
100
AcDbEntity
  8
Visible (ANSI)
100
AcDbVertex
100
AcDb2dVertex
 10
33.11473251134043
 20
93.19467125798956
 30
0.0
  0
VERTEX
  5
1CA
330
1B2
100
AcDbEntity
  8
Visible (ANSI)
100
AcDbVertex
100
AcDb2dVertex
 10
33.12482065613465
 20
93.19705018730799
 30
0.0
  0
VERTEX
  5
1CB
330
1B2
100
AcDbEntity
  8
Visible (ANSI)
100
AcDbVertex
100
AcDb2dVertex
 10
33.13499613112003
 20
93.19942911662637
 30
0.0
  0
VERTEX
  5
1CC
330
1B2
100
AcDbEntity
  8
Visible (ANSI)
100
AcDbVertex
100
AcDb2dVertex
 10
33.14521537093316
 20
93.20181405334205
 30
0.0
  0
SEQEND
  5
1B5
330
1B2
100
AcDbEntity
  8
Visible (ANSI)
  0
POLYLINE
  5
1CD
330
6C
100
AcDbEntity
  8
Visible (ANSI)
100
AcDb2dPolyline
 66
     1
 10
0.0
 20
0.0
 30
0.0
 70
   128
  0
VERTEX
  5
1CE
330
1CD
100
AcDbEntity
  8
Visible (ANSI)
100
AcDbVertex
100
AcDb2dVertex
 10
88.83271513298391
 20
33.51431284951596
 30
0.0
  0
VERTEX
  5
1CF
330
1CD
100
AcDbEntity
  8
Visible (ANSI)
100
AcDbVertex
100
AcDb2dVertex
 10
88.8303362036655
 20
33.50409360970283
 30
0.0
  0
VERTEX
  5
1D1
330
1CD
100
AcDbEntity
  8
Visible (ANSI)
100
AcDbVertex
100
AcDb2dVertex
 10
88.82795126694983
 20
33.49391813471745
 30
0.0
  0
VERTEX
  5
1D2
330
1CD
100
AcDbEntity
  8
Visible (ANSI)
100
AcDbVertex
100
AcDb2dVertex
 10
88.82557233763142
 20
33.48382998992323
 30
0.0
  0
VERTEX
  5
1D3
330
1CD
100
AcDbEntity
  8
Visible (ANSI)
100
AcDbVertex
100
AcDb2dVertex
 10
88.82319340831301
 20
33.47387237695443
 30
0.0
  0
VERTEX
  5
1D4
330
1CD
100
AcDbEntity
  8
Visible (ANSI)
100
AcDbVertex
100
AcDb2dVertex
 10
88.8208144789946
 20
33.46408793425181
 30
0.0
  0
VERTEX
  5
1D5
330
1CD
100
AcDbEntity
  8
Visible (ANSI)
100
AcDbVertex
100
AcDb2dVertex
 10
88.81842954227892
 20
33.45451856693129
 30
0.0
  0
VERTEX
  5
1D6
330
1CD
100
AcDbEntity
  8
Visible (ANSI)
100
AcDbVertex
100
AcDb2dVertex
 10
88.81605061296053
 20
33.44520524145295
 30
0.0
  0
VERTEX
  5
1D7
330
1CD
100
AcDbEntity
  8
Visible (ANSI)
100
AcDbVertex
100
AcDb2dVertex
 10
88.81367168364212
 20
33.43618785068929
 30
0.0
  0
VERTEX
  5
1D8
330
1CD
100
AcDbEntity
  8
Visible (ANSI)
100
AcDbVertex
100
AcDb2dVertex
 10
88.81128674692645
 20
33.42750500272761
 30
0.0
  0
VERTEX
  5
1D9
330
1CD
100
AcDbEntity
  8
Visible (ANSI)
100
AcDbVertex
100
AcDb2dVertex
 10
88.80890781760804
 20
33.41919388007176
 30
0.0
  0
VERTEX
  5
1DA
330
1CD
100
AcDbEntity
  8
Visible (ANSI)
100
AcDbVertex
100
AcDb2dVertex
 10
88.80652888828963
 20
33.41129006951058
 30
0.0
  0
VERTEX
  5
1DB
330
1CD
100
AcDbEntity
  8
Visible (ANSI)
100
AcDbVertex
100
AcDb2dVertex
 10
88.80414395157396
 20
33.40382741838643
 30
0.0
  0
VERTEX
  5
1DC
330
1CD
100
AcDbEntity
  8
Visible (ANSI)
100
AcDbVertex
100
AcDb2dVertex
 10
88.80176502225557
 20
33.39683788206348
 30
0.0
  0
VERTEX
  5
1DD
330
1CD
100
AcDbEntity
  8
Visible (ANSI)
100
AcDbVertex
100
AcDb2dVertex
 10
88.79938609293715
 20
33.3903513919293
 30
0.0
  0
VERTEX
  5
1DE
330
1CD
100
AcDbEntity
  8
Visible (ANSI)
100
AcDbVertex
100
AcDb2dVertex
 10
88.79700115622148
 20
33.38439572632966
 30
0.0
  0
VERTEX
  5
1DF
330
1CD
100
AcDbEntity
  8
Visible (ANSI)
100
AcDbVertex
100
AcDb2dVertex
 10
88.79462222690305
 20
33.37899638297
 30
0.0
  0
VERTEX
  5
1E0
330
1CD
100
AcDbEntity
  8
Visible (ANSI)
100
AcDbVertex
100
AcDb2dVertex
 10
88.79224329758466
 20
33.37417648651653
 30
0.0
  0
VERTEX
  5
1E1
330
1CD
100
AcDbEntity
  8
Visible (ANSI)
100
AcDbVertex
100
AcDb2dVertex
 10
88.78986436826625
 20
33.36995667493081
 30
0.0
  0
VERTEX
  5
1E2
330
1CD
100
AcDbEntity
  8
Visible (ANSI)
100
AcDbVertex
100
AcDb2dVertex
 10
88.78747943155058
 20
33.36635501880412
 30
0.0
  0
VERTEX
  5
1E3
330
1CD
100
AcDbEntity
  8
Visible (ANSI)
100
AcDbVertex
100
AcDb2dVertex
 10
88.78510050223217
 20
33.36338694142494
 30
0.0
  0
VERTEX
  5
1E4
330
1CD
100
AcDbEntity
  8
Visible (ANSI)
100
AcDbVertex
100
AcDb2dVertex
 10
88.78272157291377
 20
33.36106515186312
 30
0.0
  0
VERTEX
  5
1E5
330
1CD
100
AcDbEntity
  8
Visible (ANSI)
100
AcDbVertex
100
AcDb2dVertex
 10
88.7803366361981
 20
33.35939959226213
 30
0.0
  0
VERTEX
  5
1E6
330
1CD
100
AcDbEntity
  8
Visible (ANSI)
100
AcDbVertex
100
AcDb2dVertex
 10
88.77795770687971
 20
33.35839739510002
 30
0.0
  0
VERTEX
  5
1E7
330
1CD
100
AcDbEntity
  8
Visible (ANSI)
100
AcDbVertex
100
AcDb2dVertex
 10
88.7755787775613
 20
33.35806285186261
 30
0.0
  0
SEQEND
  5
1D0
330
1CD
100
AcDbEntity
  8
Visible (ANSI)
  0
POLYLINE
  5
1E8
330
6C
100
AcDbEntity
  8
Visible (ANSI)
100
AcDb2dPolyline
 66
     1
 10
0.0
 20
0.0
 30
0.0
 70
   128
  0
VERTEX
  5
1E9
330
1E8
100
AcDbEntity
  8
Visible (ANSI)
100
AcDbVertex
100
AcDb2dVertex
 10
33.2023537092662
 20
33.35806285186261
 30
0.0
  0
VERTEX
  5
1EA
330
1E8
100
AcDbEntity
  8
Visible (ANSI)
100
AcDbVertex
100
AcDb2dVertex
 10
33.19997294956894
 20
33.35839739510002
 30
0.0
  0
VERTEX
  5
1EC
330
1E8
100
AcDbEntity
  8
Visible (ANSI)
100
AcDbVertex
100
AcDb2dVertex
 10
33.19759218987168
 20
33.35939959226213
 30
0.0
  0
VERTEX
  5
1ED
330
1E8
100
AcDbEntity
  8
Visible (ANSI)
100
AcDbVertex
100
AcDb2dVertex
 10
33.19521143017442
 20
33.36106515186312
 30
0.0
  0
VERTEX
  5
1EE
330
1E8
100
AcDbEntity
  8
Visible (ANSI)
100
AcDbVertex
100
AcDb2dVertex
 10
33.19283067047716
 20
33.36338694142494
 30
0.0
  0
VERTEX
  5
1EF
330
1E8
100
AcDbEntity
  8
Visible (ANSI)
100
AcDbVertex
100
AcDb2dVertex
 10
33.1904498873135
 20
33.36635501880412
 30
0.0
  0
VERTEX
  5
1F0
330
1E8
100
AcDbEntity
  8
Visible (ANSI)
100
AcDbVertex
100
AcDb2dVertex
 10
33.18806912761624
 20
33.36995667493081
 30
0.0
  0
VERTEX
  5
1F1
330
1E8
100
AcDbEntity
  8
Visible (ANSI)
100
AcDbVertex
100
AcDb2dVertex
 10
33.18568836791898
 20
33.37417648651653
 30
0.0
  0
VERTEX
  5
1F2
330
1E8
100
AcDbEntity
  8
Visible (ANSI)
100
AcDbVertex
100
AcDb2dVertex
 10
33.18330760822172
 20
33.37899638297
 30
0.0
  0
VERTEX
  5
1F3
330
1E8
100
AcDbEntity
  8
Visible (ANSI)
100
AcDbVertex
100
AcDb2dVertex
 10
33.18092683679126
 20
33.38439572632966
 30
0.0
  0
VERTEX
  5
1F4
330
1E8
100
AcDbEntity
  8
Visible (ANSI)
100
AcDbVertex
100
AcDb2dVertex
 10
33.178546077094
 20
33.3903513919293
 30
0.0
  0
VERTEX
  5
1F5
330
1E8
100
AcDbEntity
  8
Visible (ANSI)
100
AcDbVertex
100
AcDb2dVertex
 10
33.17616531739674
 20
33.39683788206348
 30
0.0
  0
VERTEX
  5
1F6
330
1E8
100
AcDbEntity
  8
Visible (ANSI)
100
AcDbVertex
100
AcDb2dVertex
 10
33.17378454596628
 20
33.40382741838643
 30
0.0
  0
VERTEX
  5
1F7
330
1E8
100
AcDbEntity
  8
Visible (ANSI)
100
AcDbVertex
100
AcDb2dVertex
 10
33.17140378626902
 20
33.41129006951058
 30
0.0
  0
VERTEX
  5
1F8
330
1E8
100
AcDbEntity
  8
Visible (ANSI)
100
AcDbVertex
100
AcDb2dVertex
 10
33.16902301483856
 20
33.41919388007176
 30
0.0
  0
VERTEX
  5
1F9
330
1E8
100
AcDbEntity
  8
Visible (ANSI)
100
AcDbVertex
100
AcDb2dVertex
 10
33.1666422551413
 20
33.42750500272761
 30
0.0
  0
VERTEX
  5
1FA
330
1E8
100
AcDbEntity
  8
Visible (ANSI)
100
AcDbVertex
100
AcDb2dVertex
 10
33.16426148371084
 20
33.43618785068929
 30
0.0
  0
VERTEX
  5
1FB
330
1E8
100
AcDbEntity
  8
Visible (ANSI)
100
AcDbVertex
100
AcDb2dVertex
 10
33.16188072401358
 20
33.44520524145295
 30
0.0
  0
VERTEX
  5
1FC
330
1E8
100
AcDbEntity
  8
Visible (ANSI)
100
AcDbVertex
100
AcDb2dVertex
 10
33.15949996431632
 20
33.45451856693129
 30
0.0
  0
VERTEX
  5
1FD
330
1E8
100
AcDbEntity
  8
Visible (ANSI)
100
AcDbVertex
100
AcDb2dVertex
 10
33.15711919288587
 20
33.46408793425181
 30
0.0
  0
VERTEX
  5
1FE
330
1E8
100
AcDbEntity
  8
Visible (ANSI)
100
AcDbVertex
100
AcDb2dVertex
 10
33.15473843318861
 20
33.47387237695443
 30
0.0
  0
VERTEX
  5
1FF
330
1E8
100
AcDbEntity
  8
Visible (ANSI)
100
AcDbVertex
100
AcDb2dVertex
 10
33.15235766175815
 20
33.48382998992323
 30
0.0
  0
VERTEX
  5
200
330
1E8
100
AcDbEntity
  8
Visible (ANSI)
100
AcDbVertex
100
AcDb2dVertex
 10
33.14997690206088
 20
33.49391813471745
 30
0.0
  0
VERTEX
  5
201
330
1E8
100
AcDbEntity
  8
Visible (ANSI)
100
AcDbVertex
100
AcDb2dVertex
 10
33.14759614236362
 20
33.50409360970283
 30
0.0
  0
VERTEX
  5
202
330
1E8
100
AcDbEntity
  8
Visible (ANSI)
100
AcDbVertex
100
AcDb2dVertex
 10
33.14521537093316
 20
33.51431284951596
 30
0.0
  0
SEQEND
  5
1EB
330
1E8
100
AcDbEntity
  8
Visible (ANSI)
  0
LINE
  5
203
330
6C
100
AcDbEntity
  8
Hidden (ANSI)
100
AcDbLine
 10
88.86396537327982
 20
33.57145119951093
 30
0.0
 11
88.98896537327983
 21
33.57145119951093
 31
0.0
  0
POLYLINE
  5
204
330
6C
100
AcDbEntity
  8
Hidden (ANSI)
100
AcDb2dPolyline
 66
     1
 10
0.0
 20
0.0
 30
0.0
 70
   128
  0
VERTEX
  5
205
330
204
100
AcDbEntity
  8
Hidden (ANSI)
100
AcDbVertex
100
AcDb2dVertex
 10
88.83271513298391
 20
33.51431284951596
 30
0.0
  0
VERTEX
  5
206
330
204
100
AcDbEntity
  8
Hidden (ANSI)
100
AcDbVertex
100
AcDb2dVertex
 10
88.83475764805526
 20
33.51669362094642
 30
0.0
  0
VERTEX
  5
208
330
204
100
AcDbEntity
  8
Hidden (ANSI)
100
AcDbVertex
100
AcDb2dVertex
 10
88.83679415572933
 20
33.51907438064369
 30
0.0
  0
VERTEX
  5
209
330
204
100
AcDbEntity
  8
Hidden (ANSI)
100
AcDbVertex
100
AcDb2dVertex
 10
88.83881264121162
 20
33.52145514034095
 30
0.0
  0
VERTEX
  5
20A
330
204
100
AcDbEntity
  8
Hidden (ANSI)
100
AcDbVertex
100
AcDb2dVertex
 10
88.84080108970758
 20
33.52383591177141
 30
0.0
  0
VERTEX
  5
20B
330
204
100
AcDbEntity
  8
Hidden (ANSI)
100
AcDbVertex
100
AcDb2dVertex
 10
88.84275950121717
 20
33.52621667146867
 30
0.0
  0
VERTEX
  5
20C
330
204
100
AcDbEntity
  8
Hidden (ANSI)
100
AcDbVertex
100
AcDb2dVertex
 10
88.84467586094588
 20
33.52859744289912
 30
0.0
  0
VERTEX
  5
20D
330
204
100
AcDbEntity
  8
Hidden (ANSI)
100
AcDbVertex
100
AcDb2dVertex
 10
88.84653815409917
 20
33.53097820259638
 30
0.0
  0
VERTEX
  5
20E
330
204
100
AcDbEntity
  8
Hidden (ANSI)
100
AcDbVertex
100
AcDb2dVertex
 10
88.8483403732798
 20
33.53335896229364
 30
0.0
  0
VERTEX
  5
20F
330
204
100
AcDbEntity
  8
Hidden (ANSI)
100
AcDbVertex
100
AcDb2dVertex
 10
88.85007651109043
 20
33.5357397337241
 30
0.0
  0
VERTEX
  5
210
330
204
100
AcDbEntity
  8
Hidden (ANSI)
100
AcDbVertex
100
AcDb2dVertex
 10
88.85174056013388
 20
33.53812049342137
 30
0.0
  0
VERTEX
  5
211
330
204
100
AcDbEntity
  8
Hidden (ANSI)
100
AcDbVertex
100
AcDb2dVertex
 10
88.85332050561554
 20
33.54050126485183
 30
0.0
  0
VERTEX
  5
212
330
204
100
AcDbEntity
  8
Hidden (ANSI)
100
AcDbVertex
100
AcDb2dVertex
 10
88.85481034013819
 20
33.54288202454909
 30
0.0
  0
VERTEX
  5
213
330
204
100
AcDbEntity
  8
Hidden (ANSI)
100
AcDbVertex
100
AcDb2dVertex
 10
88.85621006370179
 20
33.54526279597954
 30
0.0
  0
VERTEX
  5
214
330
204
100
AcDbEntity
  8
Hidden (ANSI)
100
AcDbVertex
100
AcDb2dVertex
 10
88.85750766151183
 20
33.5476435556768
 30
0.0
  0
VERTEX
  5
215
330
204
100
AcDbEntity
  8
Hidden (ANSI)
100
AcDbVertex
100
AcDb2dVertex
 10
88.85869712617104
 20
33.55002431537406
 30
0.0
  0
VERTEX
  5
216
330
204
100
AcDbEntity
  8
Hidden (ANSI)
100
AcDbVertex
100
AcDb2dVertex
 10
88.85977845767939
 20
33.55240508680452
 30
0.0
  0
VERTEX
  5
217
330
204
100
AcDbEntity
  8
Hidden (ANSI)
100
AcDbVertex
100
AcDb2dVertex
 10
88.86074564863966
 20
33.55478584650178
 30
0.0
  0
VERTEX
  5
218
330
204
100
AcDbEntity
  8
Hidden (ANSI)
100
AcDbVertex
100
AcDb2dVertex
 10
88.86158668425727
 20
33.55716660619905
 30
0.0
  0
VERTEX
  5
219
330
204
100
AcDbEntity
  8
Hidden (ANSI)
100
AcDbVertex
100
AcDb2dVertex
 10
88.86230757192953
 20
33.55954736589631
 30
0.0
  0
VERTEX
  5
21A
330
204
100
AcDbEntity
  8
Hidden (ANSI)
100
AcDbVertex
100
AcDb2dVertex
 10
88.86290230425911
 20
33.56192814905996
 30
0.0
  0
VERTEX
  5
21B
330
204
100
AcDbEntity
  8
Hidden (ANSI)
100
AcDbVertex
100
AcDb2dVertex
 10
88.86336487384882
 20
33.56430890875722
 30
0.0
  0
VERTEX
  5
21C
330
204
100
AcDbEntity
  8
Hidden (ANSI)
100
AcDbVertex
100
AcDb2dVertex
 10
88.8636952806986
 20
33.56668966845448
 30
0.0
  0
VERTEX
  5
21D
330
204
100
AcDbEntity
  8
Hidden (ANSI)
100
AcDbVertex
100
AcDb2dVertex
 10
88.86389953220572
 20
33.56907042815174
 30
0.0
  0
VERTEX
  5
21E
330
204
100
AcDbEntity
  8
Hidden (ANSI)
100
AcDbVertex
100
AcDb2dVertex
 10
88.86396561357569
 20
33.571451187849
 30
0.0
  0
SEQEND
  5
207
330
204
100
AcDbEntity
  8
Hidden (ANSI)
  0
LINE
  5
21F
330
6C
100
AcDbEntity
  8
Hidden (ANSI)
100
AcDbLine
 10
88.86396537327977
 20
93.14467450421428
 30
0.0
 11
88.98896537327978
 21
93.14467450421428
 31
0.0
  0
POLYLINE
  5
220
330
6C
100
AcDbEntity
  8
Hidden (ANSI)
100
AcDb2dPolyline
 66
     1
 10
0.0
 20
0.0
 30
0.0
 70
   128
  0
VERTEX
  5
221
330
220
100
AcDbEntity
  8
Hidden (ANSI)
100
AcDbVertex
100
AcDb2dVertex
 10
88.83271513298391
 20
93.20181405334205
 30
0.0
  0
VERTEX
  5
222
330
220
100
AcDbEntity
  8
Hidden (ANSI)
100
AcDbVertex
100
AcDb2dVertex
 10
88.83475764805526
 20
93.19942911662637
 30
0.0
  0
VERTEX
  5
224
330
220
100
AcDbEntity
  8
Hidden (ANSI)
100
AcDbVertex
100
AcDb2dVertex
 10
88.83679415572933
 20
93.19705018730799
 30
0.0
  0
VERTEX
  5
225
330
220
100
AcDbEntity
  8
Hidden (ANSI)
100
AcDbVertex
100
AcDb2dVertex
 10
88.83881264121162
 20
93.19467125798956
 30
0.0
  0
VERTEX
  5
226
330
220
100
AcDbEntity
  8
Hidden (ANSI)
100
AcDbVertex
100
AcDb2dVertex
 10
88.84080108970758
 20
93.19229232867115
 30
0.0
  0
VERTEX
  5
227
330
220
100
AcDbEntity
  8
Hidden (ANSI)
100
AcDbVertex
100
AcDb2dVertex
 10
88.84275950121717
 20
93.18990739195546
 30
0.0
  0
VERTEX
  5
228
330
220
100
AcDbEntity
  8
Hidden (ANSI)
100
AcDbVertex
100
AcDb2dVertex
 10
88.84467586094588
 20
93.18752846263707
 30
0.0
  0
VERTEX
  5
229
330
220
100
AcDbEntity
  8
Hidden (ANSI)
100
AcDbVertex
100
AcDb2dVertex
 10
88.84653815409917
 20
93.18514953331867
 30
0.0
  0
VERTEX
  5
22A
330
220
100
AcDbEntity
  8
Hidden (ANSI)
100
AcDbVertex
100
AcDb2dVertex
 10
88.8483403732798
 20
93.182764596603
 30
0.0
  0
VERTEX
  5
22B
330
220
100
AcDbEntity
  8
Hidden (ANSI)
100
AcDbVertex
100
AcDb2dVertex
 10
88.85007651109043
 20
93.18038566728459
 30
0.0
  0
VERTEX
  5
22C
330
220
100
AcDbEntity
  8
Hidden (ANSI)
100
AcDbVertex
100
AcDb2dVertex
 10
88.85174056013388
 20
93.17800673796618
 30
0.0
  0
VERTEX
  5
22D
330
220
100
AcDbEntity
  8
Hidden (ANSI)
100
AcDbVertex
100
AcDb2dVertex
 10
88.85332050561554
 20
93.17562180125051
 30
0.0
  0
VERTEX
  5
22E
330
220
100
AcDbEntity
  8
Hidden (ANSI)
100
AcDbVertex
100
AcDb2dVertex
 10
88.85481034013819
 20
93.17324287193212
 30
0.0
  0
VERTEX
  5
22F
330
220
100
AcDbEntity
  8
Hidden (ANSI)
100
AcDbVertex
100
AcDb2dVertex
 10
88.85621006370179
 20
93.17086394261371
 30
0.0
  0
VERTEX
  5
230
330
220
100
AcDbEntity
  8
Hidden (ANSI)
100
AcDbVertex
100
AcDb2dVertex
 10
88.85750766151183
 20
93.16848501329529
 30
0.0
  0
VERTEX
  5
231
330
220
100
AcDbEntity
  8
Hidden (ANSI)
100
AcDbVertex
100
AcDb2dVertex
 10
88.85869712617104
 20
93.16610007657962
 30
0.0
  0
VERTEX
  5
232
330
220
100
AcDbEntity
  8
Hidden (ANSI)
100
AcDbVertex
100
AcDb2dVertex
 10
88.85977845767939
 20
93.16372114726121
 30
0.0
  0
VERTEX
  5
233
330
220
100
AcDbEntity
  8
Hidden (ANSI)
100
AcDbVertex
100
AcDb2dVertex
 10
88.86074564863966
 20
93.1613422179428
 30
0.0
  0
VERTEX
  5
234
330
220
100
AcDbEntity
  8
Hidden (ANSI)
100
AcDbVertex
100
AcDb2dVertex
 10
88.86158668425727
 20
93.15895728122713
 30
0.0
  0
VERTEX
  5
235
330
220
100
AcDbEntity
  8
Hidden (ANSI)
100
AcDbVertex
100
AcDb2dVertex
 10
88.86230757192953
 20
93.15657835190874
 30
0.0
  0
VERTEX
  5
236
330
220
100
AcDbEntity
  8
Hidden (ANSI)
100
AcDbVertex
100
AcDb2dVertex
 10
88.86290230425911
 20
93.15419942259032
 30
0.0
  0
VERTEX
  5
237
330
220
100
AcDbEntity
  8
Hidden (ANSI)
100
AcDbVertex
100
AcDb2dVertex
 10
88.86336487384882
 20
93.15181448587464
 30
0.0
  0
VERTEX
  5
238
330
220
100
AcDbEntity
  8
Hidden (ANSI)
100
AcDbVertex
100
AcDb2dVertex
 10
88.8636952806986
 20
93.14943555655625
 30
0.0
  0
VERTEX
  5
239
330
220
100
AcDbEntity
  8
Hidden (ANSI)
100
AcDbVertex
100
AcDb2dVertex
 10
88.86389953220572
 20
93.14705662723785
 30
0.0
  0
VERTEX
  5
23A
330
220
100
AcDbEntity
  8
Hidden (ANSI)
100
AcDbVertex
100
AcDb2dVertex
 10
88.86396561357569
 20
93.14467169052216
 30
0.0
  0
SEQEND
  5
223
330
220
100
AcDbEntity
  8
Hidden (ANSI)
  0
LINE
  5
23B
330
6C
100
AcDbEntity
  8
Hidden (ANSI)
100
AcDbLine
 10
88.77557702563146
 20
93.2330628518626
 30
0.0
 11
88.77557702563146
 21
93.35806285186261
 31
0.0
  0
POLYLINE
  5
23C
330
6C
100
AcDbEntity
  8
Hidden (ANSI)
100
AcDb2dPolyline
 66
     1
 10
0.0
 20
0.0
 30
0.0
 70
   128
  0
VERTEX
  5
23D
330
23C
100
AcDbEntity
  8
Hidden (ANSI)
100
AcDbVertex
100
AcDb2dVertex
 10
88.83271513298391
 20
93.20181405334205
 30
0.0
  0
VERTEX
  5
23E
330
23C
100
AcDbEntity
  8
Hidden (ANSI)
100
AcDbVertex
100
AcDb2dVertex
 10
88.8303362036655
 20
93.2038565684134
 30
0.0
  0
VERTEX
  5
240
330
23C
100
AcDbEntity
  8
Hidden (ANSI)
100
AcDbVertex
100
AcDb2dVertex
 10
88.82795126694983
 20
93.20589307608749
 30
0.0
  0
VERTEX
  5
241
330
23C
100
AcDbEntity
  8
Hidden (ANSI)
100
AcDbVertex
100
AcDb2dVertex
 10
88.82557233763142
 20
93.20791156156976
 30
0.0
  0
VERTEX
  5
242
330
23C
100
AcDbEntity
  8
Hidden (ANSI)
100
AcDbVertex
100
AcDb2dVertex
 10
88.82319340831301
 20
93.20990001006572
 30
0.0
  0
VERTEX
  5
243
330
23C
100
AcDbEntity
  8
Hidden (ANSI)
100
AcDbVertex
100
AcDb2dVertex
 10
88.8208144789946
 20
93.21185842157531
 30
0.0
  0
VERTEX
  5
244
330
23C
100
AcDbEntity
  8
Hidden (ANSI)
100
AcDbVertex
100
AcDb2dVertex
 10
88.81842954227892
 20
93.21376877390676
 30
0.0
  0
VERTEX
  5
245
330
23C
100
AcDbEntity
  8
Hidden (ANSI)
100
AcDbVertex
100
AcDb2dVertex
 10
88.81605061296053
 20
93.21563707445733
 30
0.0
  0
VERTEX
  5
246
330
23C
100
AcDbEntity
  8
Hidden (ANSI)
100
AcDbVertex
100
AcDb2dVertex
 10
88.81367168364212
 20
93.21743929363794
 30
0.0
  0
VERTEX
  5
247
330
23C
100
AcDbEntity
  8
Hidden (ANSI)
100
AcDbVertex
100
AcDb2dVertex
 10
88.81128674692645
 20
93.21917543144859
 30
0.0
  0
VERTEX
  5
248
330
23C
100
AcDbEntity
  8
Hidden (ANSI)
100
AcDbVertex
100
AcDb2dVertex
 10
88.80890781760804
 20
93.22083948049202
 30
0.0
  0
VERTEX
  5
249
330
23C
100
AcDbEntity
  8
Hidden (ANSI)
100
AcDbVertex
100
AcDb2dVertex
 10
88.80652888828963
 20
93.22241942597369
 30
0.0
  0
VERTEX
  5
24A
330
23C
100
AcDbEntity
  8
Hidden (ANSI)
100
AcDbVertex
100
AcDb2dVertex
 10
88.80414395157396
 20
93.22390926049633
 30
0.0
  0
VERTEX
  5
24B
330
23C
100
AcDbEntity
  8
Hidden (ANSI)
100
AcDbVertex
100
AcDb2dVertex
 10
88.80176502225557
 20
93.22530898405995
 30
0.0
  0
VERTEX
  5
24C
330
23C
100
AcDbEntity
  8
Hidden (ANSI)
100
AcDbVertex
100
AcDb2dVertex
 10
88.79938609293715
 20
93.22660658186999
 30
0.0
  0
VERTEX
  5
24D
330
23C
100
AcDbEntity
  8
Hidden (ANSI)
100
AcDbVertex
100
AcDb2dVertex
 10
88.79700115622148
 20
93.22779604652918
 30
0.0
  0
VERTEX
  5
24E
330
23C
100
AcDbEntity
  8
Hidden (ANSI)
100
AcDbVertex
100
AcDb2dVertex
 10
88.79462222690305
 20
93.22887737803755
 30
0.0
  0
VERTEX
  5
24F
330
23C
100
AcDbEntity
  8
Hidden (ANSI)
100
AcDbVertex
100
AcDb2dVertex
 10
88.79224329758466
 20
93.22983856160055
 30
0.0
  0
VERTEX
  5
250
330
23C
100
AcDbEntity
  8
Hidden (ANSI)
100
AcDbVertex
100
AcDb2dVertex
 10
88.78986436826625
 20
93.23068560461543
 30
0.0
  0
VERTEX
  5
251
330
23C
100
AcDbEntity
  8
Hidden (ANSI)
100
AcDbVertex
100
AcDb2dVertex
 10
88.78747943155058
 20
93.23140649228767
 30
0.0
  0
VERTEX
  5
252
330
23C
100
AcDbEntity
  8
Hidden (ANSI)
100
AcDbVertex
100
AcDb2dVertex
 10
88.78510050223217
 20
93.23199521722001
 30
0.0
  0
VERTEX
  5
253
330
23C
100
AcDbEntity
  8
Hidden (ANSI)
100
AcDbVertex
100
AcDb2dVertex
 10
88.78272157291377
 20
93.23246379420696
 30
0.0
  0
VERTEX
  5
254
330
23C
100
AcDbEntity
  8
Hidden (ANSI)
100
AcDbVertex
100
AcDb2dVertex
 10
88.7803366361981
 20
93.23279420105674
 30
0.0
  0
VERTEX
  5
255
330
23C
100
AcDbEntity
  8
Hidden (ANSI)
100
AcDbVertex
100
AcDb2dVertex
 10
88.77795770687971
 20
93.23299845256386
 30
0.0
  0
VERTEX
  5
256
330
23C
100
AcDbEntity
  8
Hidden (ANSI)
100
AcDbVertex
100
AcDb2dVertex
 10
88.7755787775613
 20
93.23306453393383
 30
0.0
  0
SEQEND
  5
23F
330
23C
100
AcDbEntity
  8
Hidden (ANSI)
  0
LINE
  5
257
330
6C
100
AcDbEntity
  8
Hidden (ANSI)
100
AcDbLine
 10
33.2023537209281
 20
93.23306285186257
 30
0.0
 11
33.2023537209281
 21
93.35806285186256
 31
0.0
  0
POLYLINE
  5
258
330
6C
100
AcDbEntity
  8
Hidden (ANSI)
100
AcDb2dPolyline
 66
     1
 10
0.0
 20
0.0
 30
0.0
 70
   128
  0
VERTEX
  5
259
330
258
100
AcDbEntity
  8
Hidden (ANSI)
100
AcDbVertex
100
AcDb2dVertex
 10
33.14521537093316
 20
93.20181405334205
 30
0.0
  0
VERTEX
  5
25A
330
258
100
AcDbEntity
  8
Hidden (ANSI)
100
AcDbVertex
100
AcDb2dVertex
 10
33.14759614236362
 20
93.2038565684134
 30
0.0
  0
VERTEX
  5
25C
330
258
100
AcDbEntity
  8
Hidden (ANSI)
100
AcDbVertex
100
AcDb2dVertex
 10
33.14997690206088
 20
93.20589307608749
 30
0.0
  0
VERTEX
  5
25D
330
258
100
AcDbEntity
  8
Hidden (ANSI)
100
AcDbVertex
100
AcDb2dVertex
 10
33.15235766175815
 20
93.20791156156976
 30
0.0
  0
VERTEX
  5
25E
330
258
100
AcDbEntity
  8
Hidden (ANSI)
100
AcDbVertex
100
AcDb2dVertex
 10
33.15473843318861
 20
93.20990001006572
 30
0.0
  0
VERTEX
  5
25F
330
258
100
AcDbEntity
  8
Hidden (ANSI)
100
AcDbVertex
100
AcDb2dVertex
 10
33.15711919288587
 20
93.21185842157531
 30
0.0
  0
VERTEX
  5
260
330
258
100
AcDbEntity
  8
Hidden (ANSI)
100
AcDbVertex
100
AcDb2dVertex
 10
33.15949996431632
 20
93.21376877390676
 30
0.0
  0
VERTEX
  5
261
330
258
100
AcDbEntity
  8
Hidden (ANSI)
100
AcDbVertex
100
AcDb2dVertex
 10
33.16188072401358
 20
93.21563707445733
 30
0.0
  0
VERTEX
  5
262
330
258
100
AcDbEntity
  8
Hidden (ANSI)
100
AcDbVertex
100
AcDb2dVertex
 10
33.16426148371084
 20
93.21743929363794
 30
0.0
  0
VERTEX
  5
263
330
258
100
AcDbEntity
  8
Hidden (ANSI)
100
AcDbVertex
100
AcDb2dVertex
 10
33.1666422551413
 20
93.21917543144859
 30
0.0
  0
VERTEX
  5
264
330
258
100
AcDbEntity
  8
Hidden (ANSI)
100
AcDbVertex
100
AcDb2dVertex
 10
33.16902301483856
 20
93.22083948049202
 30
0.0
  0
VERTEX
  5
265
330
258
100
AcDbEntity
  8
Hidden (ANSI)
100
AcDbVertex
100
AcDb2dVertex
 10
33.17140378626902
 20
93.22241942597369
 30
0.0
  0
VERTEX
  5
266
330
258
100
AcDbEntity
  8
Hidden (ANSI)
100
AcDbVertex
100
AcDb2dVertex
 10
33.17378454596628
 20
93.22390926049633
 30
0.0
  0
VERTEX
  5
267
330
258
100
AcDbEntity
  8
Hidden (ANSI)
100
AcDbVertex
100
AcDb2dVertex
 10
33.17616531739674
 20
93.22530898405995
 30
0.0
  0
VERTEX
  5
268
330
258
100
AcDbEntity
  8
Hidden (ANSI)
100
AcDbVertex
100
AcDb2dVertex
 10
33.178546077094
 20
93.22660658186999
 30
0.0
  0
VERTEX
  5
269
330
258
100
AcDbEntity
  8
Hidden (ANSI)
100
AcDbVertex
100
AcDb2dVertex
 10
33.18092683679126
 20
93.22779604652918
 30
0.0
  0
VERTEX
  5
26A
330
258
100
AcDbEntity
  8
Hidden (ANSI)
100
AcDbVertex
100
AcDb2dVertex
 10
33.18330760822172
 20
93.22887737803755
 30
0.0
  0
VERTEX
  5
26B
330
258
100
AcDbEntity
  8
Hidden (ANSI)
100
AcDbVertex
100
AcDb2dVertex
 10
33.18568836791898
 20
93.22983856160055
 30
0.0
  0
VERTEX
  5
26C
330
258
100
AcDbEntity
  8
Hidden (ANSI)
100
AcDbVertex
100
AcDb2dVertex
 10
33.18806912761624
 20
93.23068560461543
 30
0.0
  0
VERTEX
  5
26D
330
258
100
AcDbEntity
  8
Hidden (ANSI)
100
AcDbVertex
100
AcDb2dVertex
 10
33.1904498873135
 20
93.23140649228767
 30
0.0
  0
VERTEX
  5
26E
330
258
100
AcDbEntity
  8
Hidden (ANSI)
100
AcDbVertex
100
AcDb2dVertex
 10
33.19283067047716
 20
93.23199521722001
 30
0.0
  0
VERTEX
  5
26F
330
258
100
AcDbEntity
  8
Hidden (ANSI)
100
AcDbVertex
100
AcDb2dVertex
 10
33.19521143017442
 20
93.23246379420696
 30
0.0
  0
VERTEX
  5
270
330
258
100
AcDbEntity
  8
Hidden (ANSI)
100
AcDbVertex
100
AcDb2dVertex
 10
33.19759218987168
 20
93.23279420105674
 30
0.0
  0
VERTEX
  5
271
330
258
100
AcDbEntity
  8
Hidden (ANSI)
100
AcDbVertex
100
AcDb2dVertex
 10
33.19997294956894
 20
93.23299845256386
 30
0.0
  0
VERTEX
  5
272
330
258
100
AcDbEntity
  8
Hidden (ANSI)
100
AcDbVertex
100
AcDb2dVertex
 10
33.2023537092662
 20
93.23306453393383
 30
0.0
  0
SEQEND
  5
25B
330
258
100
AcDbEntity
  8
Hidden (ANSI)
  0
LINE
  5
273
330
6C
100
AcDbEntity
  8
Hidden (ANSI)
100
AcDbLine
 10
33.11396537327978
 20
93.14467450421428
 30
0.0
 11
32.98896537327979
 21
93.14467450421428
 31
0.0
  0
POLYLINE
  5
274
330
6C
100
AcDbEntity
  8
Hidden (ANSI)
100
AcDb2dPolyline
 66
     1
 10
0.0
 20
0.0
 30
0.0
 70
   128
  0
VERTEX
  5
275
330
274
100
AcDbEntity
  8
Hidden (ANSI)
100
AcDbVertex
100
AcDb2dVertex
 10
33.14521537093316
 20
93.20181405334205
 30
0.0
  0
VERTEX
  5
276
330
274
100
AcDbEntity
  8
Hidden (ANSI)
100
AcDbVertex
100
AcDb2dVertex
 10
33.14317153001046
 20
93.19942911662637
 30
0.0
  0
VERTEX
  5
278
330
274
100
AcDbEntity
  8
Hidden (ANSI)
100
AcDbVertex
100
AcDb2dVertex
 10
33.14113643032011
 20
93.19705018730799
 30
0.0
  0
VERTEX
  5
279
330
274
100
AcDbEntity
  8
Hidden (ANSI)
100
AcDbVertex
100
AcDb2dVertex
 10
33.13911880136125
 20
93.19467125798956
 30
0.0
  0
VERTEX
  5
27A
330
274
100
AcDbEntity
  8
Hidden (ANSI)
100
AcDbVertex
100
AcDb2dVertex
 10
33.1371272787675
 20
93.19229232867115
 30
0.0
  0
VERTEX
  5
27B
330
274
100
AcDbEntity
  8
Hidden (ANSI)
100
AcDbVertex
100
AcDb2dVertex
 10
33.13517039257361
 20
93.18990739195546
 30
0.0
  0
VERTEX
  5
27C
330
274
100
AcDbEntity
  8
Hidden (ANSI)
100
AcDbVertex
100
AcDb2dVertex
 10
33.13325652028282
 20
93.18752846263707
 30
0.0
  0
VERTEX
  5
27D
330
274
100
AcDbEntity
  8
Hidden (ANSI)
100
AcDbVertex
100
AcDb2dVertex
 10
33.1313938516672
 20
93.18514953331867
 30
0.0
  0
VERTEX
  5
27E
330
274
100
AcDbEntity
  8
Hidden (ANSI)
100
AcDbVertex
100
AcDb2dVertex
 10
33.12959037703443
 20
93.182764596603
 30
0.0
  0
VERTEX
  5
27F
330
274
100
AcDbEntity
  8
Hidden (ANSI)
100
AcDbVertex
100
AcDb2dVertex
 10
33.12785380509545
 20
93.18038566728459
 30
0.0
  0
VERTEX
  5
280
330
274
100
AcDbEntity
  8
Hidden (ANSI)
100
AcDbVertex
100
AcDb2dVertex
 10
33.12619157469768
 20
93.17800673796618
 30
0.0
  0
VERTEX
  5
281
330
274
100
AcDbEntity
  8
Hidden (ANSI)
100
AcDbVertex
100
AcDb2dVertex
 10
33.12461081962537
 20
93.17562180125051
 30
0.0
  0
VERTEX
  5
282
330
274
100
AcDbEntity
  8
Hidden (ANSI)
100
AcDbVertex
100
AcDb2dVertex
 10
33.12311828646723
 20
93.17324287193212
 30
0.0
  0
VERTEX
  5
283
330
274
100
AcDbEntity
  8
Hidden (ANSI)
100
AcDbVertex
100
AcDb2dVertex
 10
33.12172038154928
 20
93.17086394261371
 30
0.0
  0
VERTEX
  5
284
330
274
100
AcDbEntity
  8
Hidden (ANSI)
100
AcDbVertex
100
AcDb2dVertex
 10
33.12042307706919
 20
93.16848501329529
 30
0.0
  0
VERTEX
  5
285
330
274
100
AcDbEntity
  8
Hidden (ANSI)
100
AcDbVertex
100
AcDb2dVertex
 10
33.1192319462959
 20
93.16610007657962
 30
0.0
  0
VERTEX
  5
286
330
274
100
AcDbEntity
  8
Hidden (ANSI)
100
AcDbVertex
100
AcDb2dVertex
 10
33.11815208143726
 20
93.16372114726121
 30
0.0
  0
VERTEX
  5
287
330
274
100
AcDbEntity
  8
Hidden (ANSI)
100
AcDbVertex
100
AcDb2dVertex
 10
33.1171881053732
 20
93.1613422179428
 30
0.0
  0
VERTEX
  5
288
330
274
100
AcDbEntity
  8
Hidden (ANSI)
100
AcDbVertex
100
AcDb2dVertex
 10
33.11634413645613
 20
93.15895728122713
 30
0.0
  0
VERTEX
  5
289
330
274
100
AcDbEntity
  8
Hidden (ANSI)
100
AcDbVertex
100
AcDb2dVertex
 10
33.11562381197737
 20
93.15657835190874
 30
0.0
  0
VERTEX
  5
28A
330
274
100
AcDbEntity
  8
Hidden (ANSI)
100
AcDbVertex
100
AcDb2dVertex
 10
33.11503019430157
 20
93.15419942259032
 30
0.0
  0
VERTEX
  5
28B
330
274
100
AcDbEntity
  8
Hidden (ANSI)
100
AcDbVertex
100
AcDb2dVertex
 10
33.11456582953262
 20
93.15181448587464
 30
0.0
  0
VERTEX
  5
28C
330
274
100
AcDbEntity
  8
Hidden (ANSI)
100
AcDbVertex
100
AcDb2dVertex
 10
33.11423272404734
 20
93.14943555655625
 30
0.0
  0
VERTEX
  5
28D
330
274
100
AcDbEntity
  8
Hidden (ANSI)
100
AcDbVertex
100
AcDb2dVertex
 10
33.11403228582949
 20
93.14705662723785
 30
0.0
  0
VERTEX
  5
28E
330
274
100
AcDbEntity
  8
Hidden (ANSI)
100
AcDbVertex
100
AcDb2dVertex
 10
33.11396537140249
 20
93.14467169052216
 30
0.0
  0
SEQEND
  5
277
330
274
100
AcDbEntity
  8
Hidden (ANSI)
  0
LINE
  5
28F
330
6C
100
AcDbEntity
  8
Hidden (ANSI)
100
AcDbLine
 10
33.11396537327981
 20
33.57145119951093
 30
0.0
 11
32.9889653732798
 21
33.57145119951093
 31
0.0
  0
POLYLINE
  5
290
330
6C
100
AcDbEntity
  8
Hidden (ANSI)
100
AcDb2dPolyline
 66
     1
 10
0.0
 20
0.0
 30
0.0
 70
   128
  0
VERTEX
  5
291
330
290
100
AcDbEntity
  8
Hidden (ANSI)
100
AcDbVertex
100
AcDb2dVertex
 10
33.14521537093316
 20
33.51431284951596
 30
0.0
  0
VERTEX
  5
292
330
290
100
AcDbEntity
  8
Hidden (ANSI)
100
AcDbVertex
100
AcDb2dVertex
 10
33.14317153001046
 20
33.51669362094642
 30
0.0
  0
VERTEX
  5
294
330
290
100
AcDbEntity
  8
Hidden (ANSI)
100
AcDbVertex
100
AcDb2dVertex
 10
33.14113643032011
 20
33.51907438064369
 30
0.0
  0
VERTEX
  5
295
330
290
100
AcDbEntity
  8
Hidden (ANSI)
100
AcDbVertex
100
AcDb2dVertex
 10
33.13911880136125
 20
33.52145514034095
 30
0.0
  0
VERTEX
  5
296
330
290
100
AcDbEntity
  8
Hidden (ANSI)
100
AcDbVertex
100
AcDb2dVertex
 10
33.1371272787675
 20
33.52383591177141
 30
0.0
  0
VERTEX
  5
297
330
290
100
AcDbEntity
  8
Hidden (ANSI)
100
AcDbVertex
100
AcDb2dVertex
 10
33.13517039257361
 20
33.52621667146867
 30
0.0
  0
VERTEX
  5
298
330
290
100
AcDbEntity
  8
Hidden (ANSI)
100
AcDbVertex
100
AcDb2dVertex
 10
33.13325652028282
 20
33.52859744289912
 30
0.0
  0
VERTEX
  5
299
330
290
100
AcDbEntity
  8
Hidden (ANSI)
100
AcDbVertex
100
AcDb2dVertex
 10
33.1313938516672
 20
33.53097820259638
 30
0.0
  0
VERTEX
  5
29A
330
290
100
AcDbEntity
  8
Hidden (ANSI)
100
AcDbVertex
100
AcDb2dVertex
 10
33.12959037703443
 20
33.53335896229364
 30
0.0
  0
VERTEX
  5
29B
330
290
100
AcDbEntity
  8
Hidden (ANSI)
100
AcDbVertex
100
AcDb2dVertex
 10
33.12785380509545
 20
33.5357397337241
 30
0.0
  0
VERTEX
  5
29C
330
290
100
AcDbEntity
  8
Hidden (ANSI)
100
AcDbVertex
100
AcDb2dVertex
 10
33.12619157469768
 20
33.53812049342137
 30
0.0
  0
VERTEX
  5
29D
330
290
100
AcDbEntity
  8
Hidden (ANSI)
100
AcDbVertex
100
AcDb2dVertex
 10
33.12461081962537
 20
33.54050126485183
 30
0.0
  0
VERTEX
  5
29E
330
290
100
AcDbEntity
  8
Hidden (ANSI)
100
AcDbVertex
100
AcDb2dVertex
 10
33.12311828646723
 20
33.54288202454909
 30
0.0
  0
VERTEX
  5
29F
330
290
100
AcDbEntity
  8
Hidden (ANSI)
100
AcDbVertex
100
AcDb2dVertex
 10
33.12172038154928
 20
33.54526279597954
 30
0.0
  0
VERTEX
  5
2A0
330
290
100
AcDbEntity
  8
Hidden (ANSI)
100
AcDbVertex
100
AcDb2dVertex
 10
33.12042307706919
 20
33.5476435556768
 30
0.0
  0
VERTEX
  5
2A1
330
290
100
AcDbEntity
  8
Hidden (ANSI)
100
AcDbVertex
100
AcDb2dVertex
 10
33.1192319462959
 20
33.55002431537406
 30
0.0
  0
VERTEX
  5
2A2
330
290
100
AcDbEntity
  8
Hidden (ANSI)
100
AcDbVertex
100
AcDb2dVertex
 10
33.11815208143726
 20
33.55240508680452
 30
0.0
  0
VERTEX
  5
2A3
330
290
100
AcDbEntity
  8
Hidden (ANSI)
100
AcDbVertex
100
AcDb2dVertex
 10
33.1171881053732
 20
33.55478584650178
 30
0.0
  0
VERTEX
  5
2A4
330
290
100
AcDbEntity
  8
Hidden (ANSI)
100
AcDbVertex
100
AcDb2dVertex
 10
33.11634413645613
 20
33.55716660619905
 30
0.0
  0
VERTEX
  5
2A5
330
290
100
AcDbEntity
  8
Hidden (ANSI)
100
AcDbVertex
100
AcDb2dVertex
 10
33.11562381197737
 20
33.55954736589631
 30
0.0
  0
VERTEX
  5
2A6
330
290
100
AcDbEntity
  8
Hidden (ANSI)
100
AcDbVertex
100
AcDb2dVertex
 10
33.11503019430157
 20
33.56192814905996
 30
0.0
  0
VERTEX
  5
2A7
330
290
100
AcDbEntity
  8
Hidden (ANSI)
100
AcDbVertex
100
AcDb2dVertex
 10
33.11456582953262
 20
33.56430890875722
 30
0.0
  0
VERTEX
  5
2A8
330
290
100
AcDbEntity
  8
Hidden (ANSI)
100
AcDbVertex
100
AcDb2dVertex
 10
33.11423272404734
 20
33.56668966845448
 30
0.0
  0
VERTEX
  5
2A9
330
290
100
AcDbEntity
  8
Hidden (ANSI)
100
AcDbVertex
100
AcDb2dVertex
 10
33.11403228582949
 20
33.56907042815174
 30
0.0
  0
VERTEX
  5
2AA
330
290
100
AcDbEntity
  8
Hidden (ANSI)
100
AcDbVertex
100
AcDb2dVertex
 10
33.11396537140249
 20
33.571451187849
 30
0.0
  0
SEQEND
  5
293
330
290
100
AcDbEntity
  8
Hidden (ANSI)
  0
LINE
  5
2AB
330
6C
100
AcDbEntity
  8
Hidden (ANSI)
100
AcDbLine
 10
33.20235372092812
 20
33.48306285186261
 30
0.0
 11
33.20235372092812
 21
33.35806285186261
 31
0.0
  0
POLYLINE
  5
2AC
330
6C
100
AcDbEntity
  8
Hidden (ANSI)
100
AcDb2dPolyline
 66
     1
 10
0.0
 20
0.0
 30
0.0
 70
   128
  0
VERTEX
  5
2AD
330
2AC
100
AcDbEntity
  8
Hidden (ANSI)
100
AcDbVertex
100
AcDb2dVertex
 10
33.14521537093316
 20
33.51431284951596
 30
0.0
  0
VERTEX
  5
2AE
330
2AC
100
AcDbEntity
  8
Hidden (ANSI)
100
AcDbVertex
100
AcDb2dVertex
 10
33.14759614236362
 20
33.51226900859326
 30
0.0
  0
VERTEX
  5
2B0
330
2AC
100
AcDbEntity
  8
Hidden (ANSI)
100
AcDbVertex
100
AcDb2dVertex
 10
33.14997690206088
 20
33.5102339089029
 30
0.0
  0
VERTEX
  5
2B1
330
2AC
100
AcDbEntity
  8
Hidden (ANSI)
100
AcDbVertex
100
AcDb2dVertex
 10
33.15235766175815
 20
33.50821627994406
 30
0.0
  0
VERTEX
  5
2B2
330
2AC
100
AcDbEntity
  8
Hidden (ANSI)
100
AcDbVertex
100
AcDb2dVertex
 10
33.15473843318861
 20
33.5062247573503
 30
0.0
  0
VERTEX
  5
2B3
330
2AC
100
AcDbEntity
  8
Hidden (ANSI)
100
AcDbVertex
100
AcDb2dVertex
 10
33.15711919288587
 20
33.50426787115641
 30
0.0
  0
VERTEX
  5
2B4
330
2AC
100
AcDbEntity
  8
Hidden (ANSI)
100
AcDbVertex
100
AcDb2dVertex
 10
33.15949996431632
 20
33.50235399886563
 30
0.0
  0
VERTEX
  5
2B5
330
2AC
100
AcDbEntity
  8
Hidden (ANSI)
100
AcDbVertex
100
AcDb2dVertex
 10
33.16188072401358
 20
33.50049133025
 30
0.0
  0
VERTEX
  5
2B6
330
2AC
100
AcDbEntity
  8
Hidden (ANSI)
100
AcDbVertex
100
AcDb2dVertex
 10
33.16426148371084
 20
33.49868785561723
 30
0.0
  0
VERTEX
  5
2B7
330
2AC
100
AcDbEntity
  8
Hidden (ANSI)
100
AcDbVertex
100
AcDb2dVertex
 10
33.1666422551413
 20
33.49695128367825
 30
0.0
  0
VERTEX
  5
2B8
330
2AC
100
AcDbEntity
  8
Hidden (ANSI)
100
AcDbVertex
100
AcDb2dVertex
 10
33.16902301483856
 20
33.49528905328048
 30
0.0
  0
VERTEX
  5
2B9
330
2AC
100
AcDbEntity
  8
Hidden (ANSI)
100
AcDbVertex
100
AcDb2dVertex
 10
33.17140378626902
 20
33.49370829820817
 30
0.0
  0
VERTEX
  5
2BA
330
2AC
100
AcDbEntity
  8
Hidden (ANSI)
100
AcDbVertex
100
AcDb2dVertex
 10
33.17378454596628
 20
33.49221576505004
 30
0.0
  0
VERTEX
  5
2BB
330
2AC
100
AcDbEntity
  8
Hidden (ANSI)
100
AcDbVertex
100
AcDb2dVertex
 10
33.17616531739674
 20
33.49081786013208
 30
0.0
  0
VERTEX
  5
2BC
330
2AC
100
AcDbEntity
  8
Hidden (ANSI)
100
AcDbVertex
100
AcDb2dVertex
 10
33.178546077094
 20
33.48952055565199
 30
0.0
  0
VERTEX
  5
2BD
330
2AC
100
AcDbEntity
  8
Hidden (ANSI)
100
AcDbVertex
100
AcDb2dVertex
 10
33.18092683679126
 20
33.4883294248787
 30
0.0
  0
VERTEX
  5
2BE
330
2AC
100
AcDbEntity
  8
Hidden (ANSI)
100
AcDbVertex
100
AcDb2dVertex
 10
33.18330760822172
 20
33.48724956002006
 30
0.0
  0
VERTEX
  5
2BF
330
2AC
100
AcDbEntity
  8
Hidden (ANSI)
100
AcDbVertex
100
AcDb2dVertex
 10
33.18568836791898
 20
33.486285583956
 30
0.0
  0
VERTEX
  5
2C0
330
2AC
100
AcDbEntity
  8
Hidden (ANSI)
100
AcDbVertex
100
AcDb2dVertex
 10
33.18806912761624
 20
33.48544161503893
 30
0.0
  0
VERTEX
  5
2C1
330
2AC
100
AcDbEntity
  8
Hidden (ANSI)
100
AcDbVertex
100
AcDb2dVertex
 10
33.1904498873135
 20
33.48472129056018
 30
0.0
  0
VERTEX
  5
2C2
330
2AC
100
AcDbEntity
  8
Hidden (ANSI)
100
AcDbVertex
100
AcDb2dVertex
 10
33.19283067047716
 20
33.48412767288437
 30
0.0
  0
VERTEX
  5
2C3
330
2AC
100
AcDbEntity
  8
Hidden (ANSI)
100
AcDbVertex
100
AcDb2dVertex
 10
33.19521143017442
 20
33.48366330811542
 30
0.0
  0
VERTEX
  5
2C4
330
2AC
100
AcDbEntity
  8
Hidden (ANSI)
100
AcDbVertex
100
AcDb2dVertex
 10
33.19759218987168
 20
33.48333020263015
 30
0.0
  0
VERTEX
  5
2C5
330
2AC
100
AcDbEntity
  8
Hidden (ANSI)
100
AcDbVertex
100
AcDb2dVertex
 10
33.19997294956894
 20
33.48312976441229
 30
0.0
  0
VERTEX
  5
2C6
330
2AC
100
AcDbEntity
  8
Hidden (ANSI)
100
AcDbVertex
100
AcDb2dVertex
 10
33.2023537092662
 20
33.4830628499853
 30
0.0
  0
SEQEND
  5
2AF
330
2AC
100
AcDbEntity
  8
Hidden (ANSI)
  0
LINE
  5
2C7
330
6C
100
AcDbEntity
  8
Hidden (ANSI)
100
AcDbLine
 10
88.77557702563148
 20
33.48306285186261
 30
0.0
 11
88.77557702563148
 21
33.35806285186261
 31
0.0
  0
POLYLINE
  5
2C8
330
6C
100
AcDbEntity
  8
Hidden (ANSI)
100
AcDb2dPolyline
 66
     1
 10
0.0
 20
0.0
 30
0.0
 70
   128
  0
VERTEX
  5
2C9
330
2C8
100
AcDbEntity
  8
Hidden (ANSI)
100
AcDbVertex
100
AcDb2dVertex
 10
88.83271513298391
 20
33.51431284951596
 30
0.0
  0
VERTEX
  5
2CA
330
2C8
100
AcDbEntity
  8
Hidden (ANSI)
100
AcDbVertex
100
AcDb2dVertex
 10
88.8303362036655
 20
33.51226900859326
 30
0.0
  0
VERTEX
  5
2CC
330
2C8
100
AcDbEntity
  8
Hidden (ANSI)
100
AcDbVertex
100
AcDb2dVertex
 10
88.82795126694983
 20
33.5102339089029
 30
0.0
  0
VERTEX
  5
2CD
330
2C8
100
AcDbEntity
  8
Hidden (ANSI)
100
AcDbVertex
100
AcDb2dVertex
 10
88.82557233763142
 20
33.50821627994406
 30
0.0
  0
VERTEX
  5
2CE
330
2C8
100
AcDbEntity
  8
Hidden (ANSI)
100
AcDbVertex
100
AcDb2dVertex
 10
88.82319340831301
 20
33.5062247573503
 30
0.0
  0
VERTEX
  5
2CF
330
2C8
100
AcDbEntity
  8
Hidden (ANSI)
100
AcDbVertex
100
AcDb2dVertex
 10
88.8208144789946
 20
33.50426787115641
 30
0.0
  0
VERTEX
  5
2D0
330
2C8
100
AcDbEntity
  8
Hidden (ANSI)
100
AcDbVertex
100
AcDb2dVertex
 10
88.81842954227892
 20
33.50235399886563
 30
0.0
  0
VERTEX
  5
2D1
330
2C8
100
AcDbEntity
  8
Hidden (ANSI)
100
AcDbVertex
100
AcDb2dVertex
 10
88.81605061296053
 20
33.50049133025
 30
0.0
  0
VERTEX
  5
2D2
330
2C8
100
AcDbEntity
  8
Hidden (ANSI)
100
AcDbVertex
100
AcDb2dVertex
 10
88.81367168364212
 20
33.49868785561723
 30
0.0
  0
VERTEX
  5
2D3
330
2C8
100
AcDbEntity
  8
Hidden (ANSI)
100
AcDbVertex
100
AcDb2dVertex
 10
88.81128674692645
 20
33.49695128367825
 30
0.0
  0
VERTEX
  5
2D4
330
2C8
100
AcDbEntity
  8
Hidden (ANSI)
100
AcDbVertex
100
AcDb2dVertex
 10
88.80890781760804
 20
33.49528905328048
 30
0.0
  0
VERTEX
  5
2D5
330
2C8
100
AcDbEntity
  8
Hidden (ANSI)
100
AcDbVertex
100
AcDb2dVertex
 10
88.80652888828963
 20
33.49370829820817
 30
0.0
  0
VERTEX
  5
2D6
330
2C8
100
AcDbEntity
  8
Hidden (ANSI)
100
AcDbVertex
100
AcDb2dVertex
 10
88.80414395157396
 20
33.49221576505004
 30
0.0
  0
VERTEX
  5
2D7
330
2C8
100
AcDbEntity
  8
Hidden (ANSI)
100
AcDbVertex
100
AcDb2dVertex
 10
88.80176502225557
 20
33.49081786013208
 30
0.0
  0
VERTEX
  5
2D8
330
2C8
100
AcDbEntity
  8
Hidden (ANSI)
100
AcDbVertex
100
AcDb2dVertex
 10
88.79938609293715
 20
33.48952055565199
 30
0.0
  0
VERTEX
  5
2D9
330
2C8
100
AcDbEntity
  8
Hidden (ANSI)
100
AcDbVertex
100
AcDb2dVertex
 10
88.79700115622148
 20
33.4883294248787
 30
0.0
  0
VERTEX
  5
2DA
330
2C8
100
AcDbEntity
  8
Hidden (ANSI)
100
AcDbVertex
100
AcDb2dVertex
 10
88.79462222690305
 20
33.48724956002006
 30
0.0
  0
VERTEX
  5
2DB
330
2C8
100
AcDbEntity
  8
Hidden (ANSI)
100
AcDbVertex
100
AcDb2dVertex
 10
88.79224329758466
 20
33.486285583956
 30
0.0
  0
VERTEX
  5
2DC
330
2C8
100
AcDbEntity
  8
Hidden (ANSI)
100
AcDbVertex
100
AcDb2dVertex
 10
88.78986436826625
 20
33.48544161503893
 30
0.0
  0
VERTEX
  5
2DD
330
2C8
100
AcDbEntity
  8
Hidden (ANSI)
100
AcDbVertex
100
AcDb2dVertex
 10
88.78747943155058
 20
33.48472129056018
 30
0.0
  0
VERTEX
  5
2DE
330
2C8
100
AcDbEntity
  8
Hidden (ANSI)
100
AcDbVertex
100
AcDb2dVertex
 10
88.78510050223217
 20
33.48412767288437
 30
0.0
  0
VERTEX
  5
2DF
330
2C8
100
AcDbEntity
  8
Hidden (ANSI)
100
AcDbVertex
100
AcDb2dVertex
 10
88.78272157291377
 20
33.48366330811542
 30
0.0
  0
VERTEX
  5
2E0
330
2C8
100
AcDbEntity
  8
Hidden (ANSI)
100
AcDbVertex
100
AcDb2dVertex
 10
88.7803366361981
 20
33.48333020263015
 30
0.0
  0
VERTEX
  5
2E1
330
2C8
100
AcDbEntity
  8
Hidden (ANSI)
100
AcDbVertex
100
AcDb2dVertex
 10
88.77795770687971
 20
33.48312976441229
 30
0.0
  0
VERTEX
  5
2E2
330
2C8
100
AcDbEntity
  8
Hidden (ANSI)
100
AcDbVertex
100
AcDb2dVertex
 10
88.7755787775613
 20
33.4830628499853
 30
0.0
  0
SEQEND
  5
2CB
330
2C8
100
AcDbEntity
  8
Hidden (ANSI)
  0
MTEXT
  5
2E4
330
6C
100
AcDbEntity
  8
Symbol (ANSI)
100
AcDbMText
 10
55.0974369330277
 20
26.6795978764946
 30
0.0
 40
1.440000017796914
 41
0.0
 46
0.0
 71
     7
 72
     1
  1
FRONT VIEW
  7
Text Style153
 73
     1
 44
1.0
  0
LINE
  5
2E6
330
6C
100
AcDbEntity
  8
Symbol (ANSI)
370
    30
100
AcDbLine
 10
54.95343656260705
 20
26.38593822799592
 30
0.0
 11
66.53061661403518
 21
26.38593822799592
 31
0.0
  0
POLYLINE
  5
2E7
330
6C
100
AcDbEntity
  8
Visible (ANSI)
100
AcDb2dPolyline
 66
     1
 10
0.0
 20
0.0
 30
0.0
 70
   128
  0
VERTEX
  5
2E8
330
2E7
100
AcDbEntity
  8
Visible (ANSI)
100
AcDbVertex
100
AcDb2dVertex
 10
112.3486946699922
 20
93.20181405334205
 30
0.0
  0
VERTEX
  5
2E9
330
2E7
100
AcDbEntity
  8
Visible (ANSI)
100
AcDbVertex
100
AcDb2dVertex
 10
112.3490292069276
 20
93.19942911662637
 30
0.0
  0
VERTEX
  5
2EB
330
2E7
100
AcDbEntity
  8
Visible (ANSI)
100
AcDbVertex
100
AcDb2dVertex
 10
112.3500314097501
 20
93.19705018730799
 30
0.0
  0
VERTEX
  5
2EC
330
2E7
100
AcDbEntity
  8
Visible (ANSI)
100
AcDbVertex
100
AcDb2dVertex
 10
112.351696972376
 20
93.19467125798956
 30
0.0
  0
VERTEX
  5
2ED
330
2E7
100
AcDbEntity
  8
Visible (ANSI)
100
AcDbVertex
100
AcDb2dVertex
 10
112.3540187610212
 20
93.19229232867115
 30
0.0
  0
VERTEX
  5
2EE
330
2E7
100
AcDbEntity
  8
Visible (ANSI)
100
AcDbVertex
100
AcDb2dVertex
 10
112.3569868376671
 20
93.18990739195546
 30
0.0
  0
VERTEX
  5
2EF
330
2E7
100
AcDbEntity
  8
Visible (ANSI)
100
AcDbVertex
100
AcDb2dVertex
 10
112.3605884952604
 20
93.18752846263707
 30
0.0
  0
VERTEX
  5
2F0
330
2E7
100
AcDbEntity
  8
Visible (ANSI)
100
AcDbVertex
100
AcDb2dVertex
 10
112.3648083046462
 20
93.18514953331867
 30
0.0
  0
VERTEX
  5
2F1
330
2E7
100
AcDbEntity
  8
Visible (ANSI)
100
AcDbVertex
100
AcDb2dVertex
 10
112.3696281966997
 20
93.182764596603
 30
0.0
  0
VERTEX
  5
2F2
330
2E7
100
AcDbEntity
  8
Visible (ANSI)
100
AcDbVertex
100
AcDb2dVertex
 10
112.3750275444593
 20
93.18038566728459
 30
0.0
  0
VERTEX
  5
2F3
330
2E7
100
AcDbEntity
  8
Visible (ANSI)
100
AcDbVertex
100
AcDb2dVertex
 10
112.380983210059
 20
93.17800673796618
 30
0.0
  0
VERTEX
  5
2F4
330
2E7
100
AcDbEntity
  8
Visible (ANSI)
100
AcDbVertex
100
AcDb2dVertex
 10
112.3874696972598
 20
93.17562180125051
 30
0.0
  0
VERTEX
  5
2F5
330
2E7
100
AcDbEntity
  8
Visible (ANSI)
100
AcDbVertex
100
AcDb2dVertex
 10
112.3944592335828
 20
93.17324287193212
 30
0.0
  0
VERTEX
  5
2F6
330
2E7
100
AcDbEntity
  8
Visible (ANSI)
100
AcDbVertex
100
AcDb2dVertex
 10
112.4019218817736
 20
93.17086394261371
 30
0.0
  0
VERTEX
  5
2F7
330
2E7
100
AcDbEntity
  8
Visible (ANSI)
100
AcDbVertex
100
AcDb2dVertex
 10
112.4098256923348
 20
93.16848501329529
 30
0.0
  0
VERTEX
  5
2F8
330
2E7
100
AcDbEntity
  8
Visible (ANSI)
100
AcDbVertex
100
AcDb2dVertex
 10
112.4181368208573
 20
93.16610007657962
 30
0.0
  0
VERTEX
  5
2F9
330
2E7
100
AcDbEntity
  8
Visible (ANSI)
100
AcDbVertex
100
AcDb2dVertex
 10
112.426819668819
 20
93.16372114726121
 30
0.0
  0
VERTEX
  5
2FA
330
2E7
100
AcDbEntity
  8
Visible (ANSI)
100
AcDbVertex
100
AcDb2dVertex
 10
112.4358370595826
 20
93.1613422179428
 30
0.0
  0
VERTEX
  5
2FB
330
2E7
100
AcDbEntity
  8
Visible (ANSI)
100
AcDbVertex
100
AcDb2dVertex
 10
112.4451503821277
 20
93.15895728122713
 30
0.0
  0
VERTEX
  5
2FC
330
2E7
100
AcDbEntity
  8
Visible (ANSI)
100
AcDbVertex
100
AcDb2dVertex
 10
112.4547197523815
 20
93.15657835190874
 30
0.0
  0
VERTEX
  5
2FD
330
2E7
100
AcDbEntity
  8
Visible (ANSI)
100
AcDbVertex
100
AcDb2dVertex
 10
112.4645041921508
 20
93.15419942259032
 30
0.0
  0
VERTEX
  5
2FE
330
2E7
100
AcDbEntity
  8
Visible (ANSI)
100
AcDbVertex
100
AcDb2dVertex
 10
112.4744618053029
 20
93.15181448587464
 30
0.0
  0
VERTEX
  5
2FF
330
2E7
100
AcDbEntity
  8
Visible (ANSI)
100
AcDbVertex
100
AcDb2dVertex
 10
112.4845499506472
 20
93.14943555655625
 30
0.0
  0
VERTEX
  5
300
330
2E7
100
AcDbEntity
  8
Visible (ANSI)
100
AcDbVertex
100
AcDb2dVertex
 10
112.4947254292992
 20
93.14705662723785
 30
0.0
  0
VERTEX
  5
301
330
2E7
100
AcDbEntity
  8
Visible (ANSI)
100
AcDbVertex
100
AcDb2dVertex
 10
112.5049446676456
 20
93.14467169052216
 30
0.0
  0
SEQEND
  5
2EA
330
2E7
100
AcDbEntity
  8
Visible (ANSI)
  0
POLYLINE
  5
302
330
6C
100
AcDbEntity
  8
Visible (ANSI)
100
AcDb2dPolyline
 66
     1
 10
0.0
 20
0.0
 30
0.0
 70
   128
  0
VERTEX
  5
303
330
302
100
AcDbEntity
  8
Visible (ANSI)
100
AcDbVertex
100
AcDb2dVertex
 10
112.5049446676456
 20
33.571451187849
 30
0.0
  0
VERTEX
  5
304
330
302
100
AcDbEntity
  8
Visible (ANSI)
100
AcDbVertex
100
AcDb2dVertex
 10
112.4947254292992
 20
33.56907042815174
 30
0.0
  0
VERTEX
  5
306
330
302
100
AcDbEntity
  8
Visible (ANSI)
100
AcDbVertex
100
AcDb2dVertex
 10
112.4845499506472
 20
33.56668966845448
 30
0.0
  0
VERTEX
  5
307
330
302
100
AcDbEntity
  8
Visible (ANSI)
100
AcDbVertex
100
AcDb2dVertex
 10
112.4744618053029
 20
33.56430890875722
 30
0.0
  0
VERTEX
  5
308
330
302
100
AcDbEntity
  8
Visible (ANSI)
100
AcDbVertex
100
AcDb2dVertex
 10
112.4645041921508
 20
33.56192814905996
 30
0.0
  0
VERTEX
  5
309
330
302
100
AcDbEntity
  8
Visible (ANSI)
100
AcDbVertex
100
AcDb2dVertex
 10
112.4547197523815
 20
33.55954736589631
 30
0.0
  0
VERTEX
  5
30A
330
302
100
AcDbEntity
  8
Visible (ANSI)
100
AcDbVertex
100
AcDb2dVertex
 10
112.4451503821277
 20
33.55716660619905
 30
0.0
  0
VERTEX
  5
30B
330
302
100
AcDbEntity
  8
Visible (ANSI)
100
AcDbVertex
100
AcDb2dVertex
 10
112.4358370595826
 20
33.55478584650178
 30
0.0
  0
VERTEX
  5
30C
330
302
100
AcDbEntity
  8
Visible (ANSI)
100
AcDbVertex
100
AcDb2dVertex
 10
112.426819668819
 20
33.55240508680452
 30
0.0
  0
VERTEX
  5
30D
330
302
100
AcDbEntity
  8
Visible (ANSI)
100
AcDbVertex
100
AcDb2dVertex
 10
112.4181368208573
 20
33.55002431537406
 30
0.0
  0
VERTEX
  5
30E
330
302
100
AcDbEntity
  8
Visible (ANSI)
100
AcDbVertex
100
AcDb2dVertex
 10
112.4098256923348
 20
33.5476435556768
 30
0.0
  0
VERTEX
  5
30F
330
302
100
AcDbEntity
  8
Visible (ANSI)
100
AcDbVertex
100
AcDb2dVertex
 10
112.4019218817736
 20
33.54526279597954
 30
0.0
  0
VERTEX
  5
310
330
302
100
AcDbEntity
  8
Visible (ANSI)
100
AcDbVertex
100
AcDb2dVertex
 10
112.3944592335828
 20
33.54288202454909
 30
0.0
  0
VERTEX
  5
311
330
302
100
AcDbEntity
  8
Visible (ANSI)
100
AcDbVertex
100
AcDb2dVertex
 10
112.3874696972598
 20
33.54050126485183
 30
0.0
  0
VERTEX
  5
312
330
302
100
AcDbEntity
  8
Visible (ANSI)
100
AcDbVertex
100
AcDb2dVertex
 10
112.380983210059
 20
33.53812049342137
 30
0.0
  0
VERTEX
  5
313
330
302
100
AcDbEntity
  8
Visible (ANSI)
100
AcDbVertex
100
AcDb2dVertex
 10
112.3750275444593
 20
33.5357397337241
 30
0.0
  0
VERTEX
  5
314
330
302
100
AcDbEntity
  8
Visible (ANSI)
100
AcDbVertex
100
AcDb2dVertex
 10
112.3696281966997
 20
33.53335896229364
 30
0.0
  0
VERTEX
  5
315
330
302
100
AcDbEntity
  8
Visible (ANSI)
100
AcDbVertex
100
AcDb2dVertex
 10
112.3648083046462
 20
33.53097820259638
 30
0.0
  0
VERTEX
  5
316
330
302
100
AcDbEntity
  8
Visible (ANSI)
100
AcDbVertex
100
AcDb2dVertex
 10
112.3605884952604
 20
33.52859744289912
 30
0.0
  0
VERTEX
  5
317
330
302
100
AcDbEntity
  8
Visible (ANSI)
100
AcDbVertex
100
AcDb2dVertex
 10
112.3569868376671
 20
33.52621667146867
 30
0.0
  0
VERTEX
  5
318
330
302
100
AcDbEntity
  8
Visible (ANSI)
100
AcDbVertex
100
AcDb2dVertex
 10
112.3540187610212
 20
33.52383591177141
 30
0.0
  0
VERTEX
  5
319
330
302
100
AcDbEntity
  8
Visible (ANSI)
100
AcDbVertex
100
AcDb2dVertex
 10
112.351696972376
 20
33.52145514034095
 30
0.0
  0
VERTEX
  5
31A
330
302
100
AcDbEntity
  8
Visible (ANSI)
100
AcDbVertex
100
AcDb2dVertex
 10
112.3500314097501
 20
33.51907438064369
 30
0.0
  0
VERTEX
  5
31B
330
302
100
AcDbEntity
  8
Visible (ANSI)
100
AcDbVertex
100
AcDb2dVertex
 10
112.3490292069276
 20
33.51669362094642
 30
0.0
  0
VERTEX
  5
31C
330
302
100
AcDbEntity
  8
Visible (ANSI)
100
AcDbVertex
100
AcDb2dVertex
 10
112.3486946699922
 20
33.51431284951596
 30
0.0
  0
SEQEND
  5
305
330
302
100
AcDbEntity
  8
Visible (ANSI)
  0
LINE
  5
31D
330
6C
100
AcDbEntity
  8
Visible (ANSI)
100
AcDbLine
 10
113.223694668115
 20
33.57145119951093
 30
0.0
 11
112.504944668115
 21
33.57145119951093
 31
0.0
  0
LINE
  5
31E
330
6C
100
AcDbEntity
  8
Visible (ANSI)
100
AcDbLine
 10
112.4685692662416
 20
33.51431285186261
 30
0.0
 11
112.3486946681149
 21
33.51431285186261
 31
0.0
  0
LINE
  5
31F
330
6C
100
AcDbEntity
  8
Visible (ANSI)
100
AcDbLine
 10
112.4736946681149
 20
33.51431285186261
 30
0.0
 11
112.4685692662416
 21
33.51431285186261
 31
0.0
  0
POLYLINE
  5
320
330
6C
100
AcDbEntity
  8
Visible (ANSI)
100
AcDb2dPolyline
 66
     1
 10
0.0
 20
0.0
 30
0.0
 70
   128
  0
VERTEX
  5
321
330
320
100
AcDbEntity
  8
Visible (ANSI)
100
AcDbVertex
100
AcDb2dVertex
 10
112.4736946681149
 20
33.51431284951596
 30
0.0
  0
VERTEX
  5
322
330
320
100
AcDbEntity
  8
Visible (ANSI)
100
AcDbVertex
100
AcDb2dVertex
 10
112.4737615767612
 20
33.51669362094642
 30
0.0
  0
VERTEX
  5
324
330
320
100
AcDbEntity
  8
Visible (ANSI)
100
AcDbVertex
100
AcDb2dVertex
 10
112.4739620161994
 20
33.51907438064369
 30
0.0
  0
VERTEX
  5
325
330
320
100
AcDbEntity
  8
Visible (ANSI)
100
AcDbVertex
100
AcDb2dVertex
 10
112.4742951281242
 20
33.52145514034095
 30
0.0
  0
VERTEX
  5
326
330
320
100
AcDbEntity
  8
Visible (ANSI)
100
AcDbVertex
100
AcDb2dVertex
 10
112.474759486064
 20
33.52383591177141
 30
0.0
  0
VERTEX
  5
327
330
320
100
AcDbEntity
  8
Visible (ANSI)
100
AcDbVertex
100
AcDb2dVertex
 10
112.4753531015399
 20
33.52621667146867
 30
0.0
  0
VERTEX
  5
328
330
320
100
AcDbEntity
  8
Visible (ANSI)
100
AcDbVertex
100
AcDb2dVertex
 10
112.4760734328019
 20
33.52859744289912
 30
0.0
  0
VERTEX
  5
329
330
320
100
AcDbEntity
  8
Visible (ANSI)
100
AcDbVertex
100
AcDb2dVertex
 10
112.476917395119
 20
33.53097820259638
 30
0.0
  0
VERTEX
  5
32A
330
320
100
AcDbEntity
  8
Visible (ANSI)
100
AcDbVertex
100
AcDb2dVertex
 10
112.4778813741164
 20
33.53335896229364
 30
0.0
  0
VERTEX
  5
32B
330
320
100
AcDbEntity
  8
Visible (ANSI)
100
AcDbVertex
100
AcDb2dVertex
 10
112.4789612426417
 20
33.5357397337241
 30
0.0
  0
VERTEX
  5
32C
330
320
100
AcDbEntity
  8
Visible (ANSI)
100
AcDbVertex
100
AcDb2dVertex
 10
112.4801523759816
 20
33.53812049342137
 30
0.0
  0
VERTEX
  5
32D
330
320
100
AcDbEntity
  8
Visible (ANSI)
100
AcDbVertex
100
AcDb2dVertex
 10
112.4814496738618
 20
33.54050126485183
 30
0.0
  0
VERTEX
  5
32E
330
320
100
AcDbEntity
  8
Visible (ANSI)
100
AcDbVertex
100
AcDb2dVertex
 10
112.4828475809797
 20
33.54288202454909
 30
0.0
  0
VERTEX
  5
32F
330
320
100
AcDbEntity
  8
Visible (ANSI)
100
AcDbVertex
100
AcDb2dVertex
 10
112.4843401112045
 20
33.54526279597954
 30
0.0
  0
VERTEX
  5
330
330
320
100
AcDbEntity
  8
Visible (ANSI)
100
AcDbVertex
100
AcDb2dVertex
 10
112.4859208736101
 20
33.5476435556768
 30
0.0
  0
VERTEX
  5
331
330
320
100
AcDbEntity
  8
Visible (ANSI)
100
AcDbVertex
100
AcDb2dVertex
 10
112.4875830988746
 20
33.55002431537406
 30
0.0
  0
VERTEX
  5
332
330
320
100
AcDbEntity
  8
Visible (ANSI)
100
AcDbVertex
100
AcDb2dVertex
 10
112.4893196678803
 20
33.55240508680452
 30
0.0
  0
VERTEX
  5
333
330
320
100
AcDbEntity
  8
Visible (ANSI)
100
AcDbVertex
100
AcDb2dVertex
 10
112.491123146913
 20
33.55478584650178
 30
0.0
  0
VERTEX
  5
334
330
320
100
AcDbEntity
  8
Visible (ANSI)
100
AcDbVertex
100
AcDb2dVertex
 10
112.4929858111287
 20
33.55716660619905
 30
0.0
  0
VERTEX
  5
335
330
320
100
AcDbEntity
  8
Visible (ANSI)
100
AcDbVertex
100
AcDb2dVertex
 10
112.4948996848861
 20
33.55954736589631
 30
0.0
  0
VERTEX
  5
336
330
320
100
AcDbEntity
  8
Visible (ANSI)
100
AcDbVertex
100
AcDb2dVertex
 10
112.4968565725466
 20
33.56192814905996
 30
0.0
  0
VERTEX
  5
337
330
320
100
AcDbEntity
  8
Visible (ANSI)
100
AcDbVertex
100
AcDb2dVertex
 10
112.4988480951404
 20
33.56430890875722
 30
0.0
  0
VERTEX
  5
338
330
320
100
AcDbEntity
  8
Visible (ANSI)
100
AcDbVertex
100
AcDb2dVertex
 10
112.5008657240992
 20
33.56668966845448
 30
0.0
  0
VERTEX
  5
339
330
320
100
AcDbEntity
  8
Visible (ANSI)
100
AcDbVertex
100
AcDb2dVertex
 10
112.5029008208563
 20
33.56907042815174
 30
0.0
  0
VERTEX
  5
33A
330
320
100
AcDbEntity
  8
Visible (ANSI)
100
AcDbVertex
100
AcDb2dVertex
 10
112.5049446676456
 20
33.571451187849
 30
0.0
  0
SEQEND
  5
323
330
320
100
AcDbEntity
  8
Visible (ANSI)
  0
POLYLINE
  5
33B
330
6C
100
AcDbEntity
  8
Visible (ANSI)
100
AcDb2dPolyline
 66
     1
 10
0.0
 20
0.0
 30
0.0
 70
   128
  0
VERTEX
  5
33C
330
33B
100
AcDbEntity
  8
Visible (ANSI)
100
AcDbVertex
100
AcDb2dVertex
 10
112.4736946681149
 20
93.20181405334205
 30
0.0
  0
VERTEX
  5
33D
330
33B
100
AcDbEntity
  8
Visible (ANSI)
100
AcDbVertex
100
AcDb2dVertex
 10
112.4737615767612
 20
93.19942911662637
 30
0.0
  0
VERTEX
  5
33F
330
33B
100
AcDbEntity
  8
Visible (ANSI)
100
AcDbVertex
100
AcDb2dVertex
 10
112.4739620161994
 20
93.19705018730799
 30
0.0
  0
VERTEX
  5
340
330
33B
100
AcDbEntity
  8
Visible (ANSI)
100
AcDbVertex
100
AcDb2dVertex
 10
112.4742951281242
 20
93.19467125798956
 30
0.0
  0
VERTEX
  5
341
330
33B
100
AcDbEntity
  8
Visible (ANSI)
100
AcDbVertex
100
AcDb2dVertex
 10
112.474759486064
 20
93.19229232867115
 30
0.0
  0
VERTEX
  5
342
330
33B
100
AcDbEntity
  8
Visible (ANSI)
100
AcDbVertex
100
AcDb2dVertex
 10
112.4753531015399
 20
93.18990739195546
 30
0.0
  0
VERTEX
  5
343
330
33B
100
AcDbEntity
  8
Visible (ANSI)
100
AcDbVertex
100
AcDb2dVertex
 10
112.4760734328019
 20
93.18752846263707
 30
0.0
  0
VERTEX
  5
344
330
33B
100
AcDbEntity
  8
Visible (ANSI)
100
AcDbVertex
100
AcDb2dVertex
 10
112.476917395119
 20
93.18514953331867
 30
0.0
  0
VERTEX
  5
345
330
33B
100
AcDbEntity
  8
Visible (ANSI)
100
AcDbVertex
100
AcDb2dVertex
 10
112.4778813741164
 20
93.182764596603
 30
0.0
  0
VERTEX
  5
346
330
33B
100
AcDbEntity
  8
Visible (ANSI)
100
AcDbVertex
100
AcDb2dVertex
 10
112.4789612426417
 20
93.18038566728459
 30
0.0
  0
VERTEX
  5
347
330
33B
100
AcDbEntity
  8
Visible (ANSI)
100
AcDbVertex
100
AcDb2dVertex
 10
112.4801523759816
 20
93.17800673796618
 30
0.0
  0
VERTEX
  5
348
330
33B
100
AcDbEntity
  8
Visible (ANSI)
100
AcDbVertex
100
AcDb2dVertex
 10
112.4814496738618
 20
93.17562180125051
 30
0.0
  0
VERTEX
  5
349
330
33B
100
AcDbEntity
  8
Visible (ANSI)
100
AcDbVertex
100
AcDb2dVertex
 10
112.4828475809797
 20
93.17324287193212
 30
0.0
  0
VERTEX
  5
34A
330
33B
100
AcDbEntity
  8
Visible (ANSI)
100
AcDbVertex
100
AcDb2dVertex
 10
112.4843401112045
 20
93.17086394261371
 30
0.0
  0
VERTEX
  5
34B
330
33B
100
AcDbEntity
  8
Visible (ANSI)
100
AcDbVertex
100
AcDb2dVertex
 10
112.4859208736101
 20
93.16848501329529
 30
0.0
  0
VERTEX
  5
34C
330
33B
100
AcDbEntity
  8
Visible (ANSI)
100
AcDbVertex
100
AcDb2dVertex
 10
112.4875830988746
 20
93.16610007657962
 30
0.0
  0
VERTEX
  5
34D
330
33B
100
AcDbEntity
  8
Visible (ANSI)
100
AcDbVertex
100
AcDb2dVertex
 10
112.4893196678803
 20
93.16372114726121
 30
0.0
  0
VERTEX
  5
34E
330
33B
100
AcDbEntity
  8
Visible (ANSI)
100
AcDbVertex
100
AcDb2dVertex
 10
112.491123146913
 20
93.1613422179428
 30
0.0
  0
VERTEX
  5
34F
330
33B
100
AcDbEntity
  8
Visible (ANSI)
100
AcDbVertex
100
AcDb2dVertex
 10
112.4929858111287
 20
93.15895728122713
 30
0.0
  0
VERTEX
  5
350
330
33B
100
AcDbEntity
  8
Visible (ANSI)
100
AcDbVertex
100
AcDb2dVertex
 10
112.4948996848861
 20
93.15657835190874
 30
0.0
  0
VERTEX
  5
351
330
33B
100
AcDbEntity
  8
Visible (ANSI)
100
AcDbVertex
100
AcDb2dVertex
 10
112.4968565725466
 20
93.15419942259032
 30
0.0
  0
VERTEX
  5
352
330
33B
100
AcDbEntity
  8
Visible (ANSI)
100
AcDbVertex
100
AcDb2dVertex
 10
112.4988480951404
 20
93.15181448587464
 30
0.0
  0
VERTEX
  5
353
330
33B
100
AcDbEntity
  8
Visible (ANSI)
100
AcDbVertex
100
AcDb2dVertex
 10
112.5008657240992
 20
93.14943555655625
 30
0.0
  0
VERTEX
  5
354
330
33B
100
AcDbEntity
  8
Visible (ANSI)
100
AcDbVertex
100
AcDb2dVertex
 10
112.5029008208563
 20
93.14705662723785
 30
0.0
  0
VERTEX
  5
355
330
33B
100
AcDbEntity
  8
Visible (ANSI)
100
AcDbVertex
100
AcDb2dVertex
 10
112.5049446676456
 20
93.14467169052216
 30
0.0
  0
SEQEND
  5
33E
330
33B
100
AcDbEntity
  8
Visible (ANSI)
  0
LINE
  5
356
330
6C
100
AcDbEntity
  8
Visible (ANSI)
100
AcDbLine
 10
112.4736946681149
 20
93.2018128518626
 30
0.0
 11
112.4685692662416
 21
93.20181285186261
 31
0.0
  0
LINE
  5
357
330
6C
100
AcDbEntity
  8
Visible (ANSI)
100
AcDbLine
 10
112.4685692662416
 20
93.20181285186261
 30
0.0
 11
112.3486946681149
 21
93.2018128518626
 31
0.0
  0
LINE
  5
358
330
6C
100
AcDbEntity
  8
Visible (ANSI)
100
AcDbLine
 10
112.5049446681149
 20
93.14467450421428
 30
0.0
 11
113.2236946681149
 21
93.1446745042143
 31
0.0
  0
POLYLINE
  5
359
330
6C
100
AcDbEntity
  8
Visible (ANSI)
100
AcDb2dPolyline
 66
     1
 10
0.0
 20
0.0
 30
0.0
 70
   128
  0
VERTEX
  5
35A
330
359
100
AcDbEntity
  8
Visible (ANSI)
100
AcDbVertex
100
AcDb2dVertex
 10
112.5049446676456
 20
93.3580604489037
 30
0.0
  0
VERTEX
  5
35B
330
359
100
AcDbEntity
  8
Visible (ANSI)
100
AcDbVertex
100
AcDb2dVertex
 10
112.4947254292991
 20
93.35773004205391
 30
0.0
  0
VERTEX
  5
35D
330
359
100
AcDbEntity
  8
Visible (ANSI)
100
AcDbVertex
100
AcDb2dVertex
 10
112.4845499506471
 20
93.35672680671004
 30
0.0
  0
VERTEX
  5
35E
330
359
100
AcDbEntity
  8
Visible (ANSI)
100
AcDbVertex
100
AcDb2dVertex
 10
112.4744618053028
 20
93.35506275766659
 30
0.0
  0
VERTEX
  5
35F
330
359
100
AcDbEntity
  8
Visible (ANSI)
100
AcDbVertex
100
AcDb2dVertex
 10
112.4645041921507
 20
93.3527378949236
 30
0.0
  0
VERTEX
  5
360
330
359
100
AcDbEntity
  8
Visible (ANSI)
100
AcDbVertex
100
AcDb2dVertex
 10
112.4547197523814
 20
93.34977024067288
 30
0.0
  0
VERTEX
  5
361
330
359
100
AcDbEntity
  8
Visible (ANSI)
100
AcDbVertex
100
AcDb2dVertex
 10
112.4451503821276
 20
93.34617180970893
 30
0.0
  0
VERTEX
  5
362
330
359
100
AcDbEntity
  8
Visible (ANSI)
100
AcDbVertex
100
AcDb2dVertex
 10
112.4358370595825
 20
93.34194860942904
 30
0.0
  0
VERTEX
  5
363
330
359
100
AcDbEntity
  8
Visible (ANSI)
100
AcDbVertex
100
AcDb2dVertex
 10
112.4268196688189
 20
93.33713067681953
 30
0.0
  0
VERTEX
  5
364
330
359
100
AcDbEntity
  8
Visible (ANSI)
100
AcDbVertex
100
AcDb2dVertex
 10
112.4181368208572
 20
93.33173002667498
 30
0.0
  0
VERTEX
  5
365
330
359
100
AcDbEntity
  8
Visible (ANSI)
100
AcDbVertex
100
AcDb2dVertex
 10
112.4098256923348
 20
93.32577669598169
 30
0.0
  0
VERTEX
  5
366
330
359
100
AcDbEntity
  8
Visible (ANSI)
100
AcDbVertex
100
AcDb2dVertex
 10
112.4019218817736
 20
93.31928870693149
 30
0.0
  0
VERTEX
  5
367
330
359
100
AcDbEntity
  8
Visible (ANSI)
100
AcDbVertex
100
AcDb2dVertex
 10
112.3944592335827
 20
93.31229609651073
 30
0.0
  0
VERTEX
  5
368
330
359
100
AcDbEntity
  8
Visible (ANSI)
100
AcDbVertex
100
AcDb2dVertex
 10
112.3874696972598
 20
93.304834909103
 30
0.0
  0
VERTEX
  5
369
330
359
100
AcDbEntity
  8
Visible (ANSI)
100
AcDbVertex
100
AcDb2dVertex
 10
112.3809832100589
 20
93.29692917429738
 30
0.0
  0
VERTEX
  5
36A
330
359
100
AcDbEntity
  8
Visible (ANSI)
100
AcDbVertex
100
AcDb2dVertex
 10
112.3750275444593
 20
93.28862094387478
 30
0.0
  0
VERTEX
  5
36B
330
359
100
AcDbEntity
  8
Visible (ANSI)
100
AcDbVertex
100
AcDb2dVertex
 10
112.3696281966997
 20
93.2799402548215
 30
0.0
  0
VERTEX
  5
36C
330
359
100
AcDbEntity
  8
Visible (ANSI)
100
AcDbVertex
100
AcDb2dVertex
 10
112.3648083046461
 20
93.27092315152119
 30
0.0
  0
VERTEX
  5
36D
330
359
100
AcDbEntity
  8
Visible (ANSI)
100
AcDbVertex
100
AcDb2dVertex
 10
112.3605884952604
 20
93.26160567835742
 30
0.0
  0
VERTEX
  5
36E
330
359
100
AcDbEntity
  8
Visible (ANSI)
100
AcDbVertex
100
AcDb2dVertex
 10
112.3569868376671
 20
93.2520358945084
 30
0.0
  0
VERTEX
  5
36F
330
359
100
AcDbEntity
  8
Visible (ANSI)
100
AcDbVertex
100
AcDb2dVertex
 10
112.3540187610212
 20
93.24225585175495
 30
0.0
  0
VERTEX
  5
370
330
359
100
AcDbEntity
  8
Visible (ANSI)
100
AcDbVertex
100
AcDb2dVertex
 10
112.351696972376
 20
93.23229558708343
 30
0.0
  0
VERTEX
  5
371
330
359
100
AcDbEntity
  8
Visible (ANSI)
100
AcDbVertex
100
AcDb2dVertex
 10
112.3500314097501
 20
93.2222091670693
 30
0.0
  0
VERTEX
  5
372
330
359
100
AcDbEntity
  8
Visible (ANSI)
100
AcDbVertex
100
AcDb2dVertex
 10
112.3490292069276
 20
93.21203263609611
 30
0.0
  0
VERTEX
  5
373
330
359
100
AcDbEntity
  8
Visible (ANSI)
100
AcDbVertex
100
AcDb2dVertex
 10
112.3486946699922
 20
93.20181405334205
 30
0.0
  0
SEQEND
  5
35C
330
359
100
AcDbEntity
  8
Visible (ANSI)
  0
LINE
  5
374
330
6C
100
AcDbEntity
  8
Visible (ANSI)
100
AcDbLine
 10
112.5049446681149
 20
93.2330628518626
 30
0.0
 11
113.2236946681149
 21
93.23306285186266
 31
0.0
  0
LINE
  5
375
330
6C
100
AcDbEntity
  8
Visible (ANSI)
100
AcDbLine
 10
113.2236946681149
 20
93.35806285186263
 30
0.0
 11
112.5049446681149
 21
93.35806285186261
 31
0.0
  0
LINE
  5
376
330
6C
100
AcDbEntity
  8
Visible (ANSI)
100
AcDbLine
 10
112.5049446681149
 20
93.2330628518626
 30
0.0
 11
112.5049446681149
 21
93.35806285186261
 31
0.0
  0
LINE
  5
377
330
6C
100
AcDbEntity
  8
Visible (ANSI)
100
AcDbLine
 10
113.2236946681149
 20
93.23306285186266
 30
0.0
 11
113.2236946681149
 21
93.35806285186263
 31
0.0
  0
POLYLINE
  5
378
330
6C
100
AcDbEntity
  8
Visible (ANSI)
100
AcDb2dPolyline
 66
     1
 10
0.0
 20
0.0
 30
0.0
 70
   128
  0
VERTEX
  5
379
330
378
100
AcDbEntity
  8
Visible (ANSI)
100
AcDbVertex
100
AcDb2dVertex
 10
112.4736946681149
 20
93.20181405334205
 30
0.0
  0
VERTEX
  5
37A
330
378
100
AcDbEntity
  8
Visible (ANSI)
100
AcDbVertex
100
AcDb2dVertex
 10
112.4737615767612
 20
93.2038565684134
 30
0.0
  0
VERTEX
  5
37C
330
378
100
AcDbEntity
  8
Visible (ANSI)
100
AcDbVertex
100
AcDb2dVertex
 10
112.4739620161994
 20
93.20589307608749
 30
0.0
  0
VERTEX
  5
37D
330
378
100
AcDbEntity
  8
Visible (ANSI)
100
AcDbVertex
100
AcDb2dVertex
 10
112.4742951281242
 20
93.20791156156976
 30
0.0
  0
VERTEX
  5
37E
330
378
100
AcDbEntity
  8
Visible (ANSI)
100
AcDbVertex
100
AcDb2dVertex
 10
112.474759486064
 20
93.20990001006572
 30
0.0
  0
VERTEX
  5
37F
330
378
100
AcDbEntity
  8
Visible (ANSI)
100
AcDbVertex
100
AcDb2dVertex
 10
112.4753531015399
 20
93.21185842157531
 30
0.0
  0
VERTEX
  5
380
330
378
100
AcDbEntity
  8
Visible (ANSI)
100
AcDbVertex
100
AcDb2dVertex
 10
112.4760734328019
 20
93.21376877390676
 30
0.0
  0
VERTEX
  5
381
330
378
100
AcDbEntity
  8
Visible (ANSI)
100
AcDbVertex
100
AcDb2dVertex
 10
112.476917395119
 20
93.21563707445733
 30
0.0
  0
VERTEX
  5
382
330
378
100
AcDbEntity
  8
Visible (ANSI)
100
AcDbVertex
100
AcDb2dVertex
 10
112.4778813741164
 20
93.21743929363794
 30
0.0
  0
VERTEX
  5
383
330
378
100
AcDbEntity
  8
Visible (ANSI)
100
AcDbVertex
100
AcDb2dVertex
 10
112.4789612426416
 20
93.21917543144859
 30
0.0
  0
VERTEX
  5
384
330
378
100
AcDbEntity
  8
Visible (ANSI)
100
AcDbVertex
100
AcDb2dVertex
 10
112.4801523759816
 20
93.22083948049202
 30
0.0
  0
VERTEX
  5
385
330
378
100
AcDbEntity
  8
Visible (ANSI)
100
AcDbVertex
100
AcDb2dVertex
 10
112.4814496738617
 20
93.22241942597369
 30
0.0
  0
VERTEX
  5
386
330
378
100
AcDbEntity
  8
Visible (ANSI)
100
AcDbVertex
100
AcDb2dVertex
 10
112.4828475809797
 20
93.22390926049633
 30
0.0
  0
VERTEX
  5
387
330
378
100
AcDbEntity
  8
Visible (ANSI)
100
AcDbVertex
100
AcDb2dVertex
 10
112.4843401112045
 20
93.22530898405995
 30
0.0
  0
VERTEX
  5
388
330
378
100
AcDbEntity
  8
Visible (ANSI)
100
AcDbVertex
100
AcDb2dVertex
 10
112.4859208736101
 20
93.22660658186999
 30
0.0
  0
VERTEX
  5
389
330
378
100
AcDbEntity
  8
Visible (ANSI)
100
AcDbVertex
100
AcDb2dVertex
 10
112.4875830988746
 20
93.22779604652918
 30
0.0
  0
VERTEX
  5
38A
330
378
100
AcDbEntity
  8
Visible (ANSI)
100
AcDbVertex
100
AcDb2dVertex
 10
112.4893196678802
 20
93.22887737803755
 30
0.0
  0
VERTEX
  5
38B
330
378
100
AcDbEntity
  8
Visible (ANSI)
100
AcDbVertex
100
AcDb2dVertex
 10
112.491123146913
 20
93.22983856160055
 30
0.0
  0
VERTEX
  5
38C
330
378
100
AcDbEntity
  8
Visible (ANSI)
100
AcDbVertex
100
AcDb2dVertex
 10
112.4929858111286
 20
93.23068560461543
 30
0.0
  0
VERTEX
  5
38D
330
378
100
AcDbEntity
  8
Visible (ANSI)
100
AcDbVertex
100
AcDb2dVertex
 10
112.4948996848861
 20
93.23140649228767
 30
0.0
  0
VERTEX
  5
38E
330
378
100
AcDbEntity
  8
Visible (ANSI)
100
AcDbVertex
100
AcDb2dVertex
 10
112.4968565725466
 20
93.23199521722001
 30
0.0
  0
VERTEX
  5
38F
330
378
100
AcDbEntity
  8
Visible (ANSI)
100
AcDbVertex
100
AcDb2dVertex
 10
112.4988480951404
 20
93.23246379420696
 30
0.0
  0
VERTEX
  5
390
330
378
100
AcDbEntity
  8
Visible (ANSI)
100
AcDbVertex
100
AcDb2dVertex
 10
112.5008657240992
 20
93.23279420105674
 30
0.0
  0
VERTEX
  5
391
330
378
100
AcDbEntity
  8
Visible (ANSI)
100
AcDbVertex
100
AcDb2dVertex
 10
112.5029008208562
 20
93.23299845256386
 30
0.0
  0
VERTEX
  5
392
330
378
100
AcDbEntity
  8
Visible (ANSI)
100
AcDbVertex
100
AcDb2dVertex
 10
112.5049446676456
 20
93.23306453393383
 30
0.0
  0
SEQEND
  5
37B
330
378
100
AcDbEntity
  8
Visible (ANSI)
  0
POLYLINE
  5
393
330
6C
100
AcDbEntity
  8
Visible (ANSI)
100
AcDb2dPolyline
 66
     1
 10
0.0
 20
0.0
 30
0.0
 70
   128
  0
VERTEX
  5
394
330
393
100
AcDbEntity
  8
Visible (ANSI)
100
AcDbVertex
100
AcDb2dVertex
 10
112.3486946699922
 20
33.51431284951596
 30
0.0
  0
VERTEX
  5
395
330
393
100
AcDbEntity
  8
Visible (ANSI)
100
AcDbVertex
100
AcDb2dVertex
 10
112.3490292069276
 20
33.50409360970283
 30
0.0
  0
VERTEX
  5
397
330
393
100
AcDbEntity
  8
Visible (ANSI)
100
AcDbVertex
100
AcDb2dVertex
 10
112.3500314097501
 20
33.49391813471745
 30
0.0
  0
VERTEX
  5
398
330
393
100
AcDbEntity
  8
Visible (ANSI)
100
AcDbVertex
100
AcDb2dVertex
 10
112.351696972376
 20
33.48382998992323
 30
0.0
  0
VERTEX
  5
399
330
393
100
AcDbEntity
  8
Visible (ANSI)
100
AcDbVertex
100
AcDb2dVertex
 10
112.3540187610212
 20
33.47387237695443
 30
0.0
  0
VERTEX
  5
39A
330
393
100
AcDbEntity
  8
Visible (ANSI)
100
AcDbVertex
100
AcDb2dVertex
 10
112.3569868376671
 20
33.46408793425181
 30
0.0
  0
VERTEX
  5
39B
330
393
100
AcDbEntity
  8
Visible (ANSI)
100
AcDbVertex
100
AcDb2dVertex
 10
112.3605884952604
 20
33.45451856693129
 30
0.0
  0
VERTEX
  5
39C
330
393
100
AcDbEntity
  8
Visible (ANSI)
100
AcDbVertex
100
AcDb2dVertex
 10
112.3648083046461
 20
33.44520524145295
 30
0.0
  0
VERTEX
  5
39D
330
393
100
AcDbEntity
  8
Visible (ANSI)
100
AcDbVertex
100
AcDb2dVertex
 10
112.3696281966997
 20
33.43618785068929
 30
0.0
  0
VERTEX
  5
39E
330
393
100
AcDbEntity
  8
Visible (ANSI)
100
AcDbVertex
100
AcDb2dVertex
 10
112.3750275444593
 20
33.42750500272761
 30
0.0
  0
VERTEX
  5
39F
330
393
100
AcDbEntity
  8
Visible (ANSI)
100
AcDbVertex
100
AcDb2dVertex
 10
112.3809832100589
 20
33.41919388007176
 30
0.0
  0
VERTEX
  5
3A0
330
393
100
AcDbEntity
  8
Visible (ANSI)
100
AcDbVertex
100
AcDb2dVertex
 10
112.3874696972598
 20
33.41129006951058
 30
0.0
  0
VERTEX
  5
3A1
330
393
100
AcDbEntity
  8
Visible (ANSI)
100
AcDbVertex
100
AcDb2dVertex
 10
112.3944592335827
 20
33.40382741838643
 30
0.0
  0
VERTEX
  5
3A2
330
393
100
AcDbEntity
  8
Visible (ANSI)
100
AcDbVertex
100
AcDb2dVertex
 10
112.4019218817736
 20
33.39683788206348
 30
0.0
  0
VERTEX
  5
3A3
330
393
100
AcDbEntity
  8
Visible (ANSI)
100
AcDbVertex
100
AcDb2dVertex
 10
112.4098256923348
 20
33.3903513919293
 30
0.0
  0
VERTEX
  5
3A4
330
393
100
AcDbEntity
  8
Visible (ANSI)
100
AcDbVertex
100
AcDb2dVertex
 10
112.4181368208572
 20
33.38439572632966
 30
0.0
  0
VERTEX
  5
3A5
330
393
100
AcDbEntity
  8
Visible (ANSI)
100
AcDbVertex
100
AcDb2dVertex
 10
112.4268196688189
 20
33.37899638297
 30
0.0
  0
VERTEX
  5
3A6
330
393
100
AcDbEntity
  8
Visible (ANSI)
100
AcDbVertex
100
AcDb2dVertex
 10
112.4358370595825
 20
33.37417648651653
 30
0.0
  0
VERTEX
  5
3A7
330
393
100
AcDbEntity
  8
Visible (ANSI)
100
AcDbVertex
100
AcDb2dVertex
 10
112.4451503821276
 20
33.36995667493081
 30
0.0
  0
VERTEX
  5
3A8
330
393
100
AcDbEntity
  8
Visible (ANSI)
100
AcDbVertex
100
AcDb2dVertex
 10
112.4547197523814
 20
33.36635501880412
 30
0.0
  0
VERTEX
  5
3A9
330
393
100
AcDbEntity
  8
Visible (ANSI)
100
AcDbVertex
100
AcDb2dVertex
 10
112.4645041921507
 20
33.36338694142494
 30
0.0
  0
VERTEX
  5
3AA
330
393
100
AcDbEntity
  8
Visible (ANSI)
100
AcDbVertex
100
AcDb2dVertex
 10
112.4744618053028
 20
33.36106515186312
 30
0.0
  0
VERTEX
  5
3AB
330
393
100
AcDbEntity
  8
Visible (ANSI)
100
AcDbVertex
100
AcDb2dVertex
 10
112.4845499506471
 20
33.35939959226213
 30
0.0
  0
VERTEX
  5
3AC
330
393
100
AcDbEntity
  8
Visible (ANSI)
100
AcDbVertex
100
AcDb2dVertex
 10
112.4947254292991
 20
33.35839739510002
 30
0.0
  0
VERTEX
  5
3AD
330
393
100
AcDbEntity
  8
Visible (ANSI)
100
AcDbVertex
100
AcDb2dVertex
 10
112.5049446676456
 20
33.35806285186261
 30
0.0
  0
SEQEND
  5
396
330
393
100
AcDbEntity
  8
Visible (ANSI)
  0
LINE
  5
3AE
330
6C
100
AcDbEntity
  8
Visible (ANSI)
100
AcDbLine
 10
112.5049446681149
 20
33.48306285186261
 30
0.0
 11
113.2236946681149
 21
33.48306285186261
 31
0.0
  0
LINE
  5
3AF
330
6C
100
AcDbEntity
  8
Visible (ANSI)
100
AcDbLine
 10
112.5049446681149
 20
33.48306285186261
 30
0.0
 11
112.5049446681149
 21
33.35806285186261
 31
0.0
  0
POLYLINE
  5
3B0
330
6C
100
AcDbEntity
  8
Visible (ANSI)
100
AcDb2dPolyline
 66
     1
 10
0.0
 20
0.0
 30
0.0
 70
   128
  0
VERTEX
  5
3B1
330
3B0
100
AcDbEntity
  8
Visible (ANSI)
100
AcDbVertex
100
AcDb2dVertex
 10
112.4736946681149
 20
33.51431284951596
 30
0.0
  0
VERTEX
  5
3B2
330
3B0
100
AcDbEntity
  8
Visible (ANSI)
100
AcDbVertex
100
AcDb2dVertex
 10
112.4737615767612
 20
33.51226900859326
 30
0.0
  0
VERTEX
  5
3B4
330
3B0
100
AcDbEntity
  8
Visible (ANSI)
100
AcDbVertex
100
AcDb2dVertex
 10
112.4739620161994
 20
33.5102339089029
 30
0.0
  0
VERTEX
  5
3B5
330
3B0
100
AcDbEntity
  8
Visible (ANSI)
100
AcDbVertex
100
AcDb2dVertex
 10
112.4742951281242
 20
33.50821627994406
 30
0.0
  0
VERTEX
  5
3B6
330
3B0
100
AcDbEntity
  8
Visible (ANSI)
100
AcDbVertex
100
AcDb2dVertex
 10
112.474759486064
 20
33.5062247573503
 30
0.0
  0
VERTEX
  5
3B7
330
3B0
100
AcDbEntity
  8
Visible (ANSI)
100
AcDbVertex
100
AcDb2dVertex
 10
112.4753531015399
 20
33.50426787115641
 30
0.0
  0
VERTEX
  5
3B8
330
3B0
100
AcDbEntity
  8
Visible (ANSI)
100
AcDbVertex
100
AcDb2dVertex
 10
112.4760734328019
 20
33.50235399886563
 30
0.0
  0
VERTEX
  5
3B9
330
3B0
100
AcDbEntity
  8
Visible (ANSI)
100
AcDbVertex
100
AcDb2dVertex
 10
112.476917395119
 20
33.50049133025
 30
0.0
  0
VERTEX
  5
3BA
330
3B0
100
AcDbEntity
  8
Visible (ANSI)
100
AcDbVertex
100
AcDb2dVertex
 10
112.4778813741164
 20
33.49868785561723
 30
0.0
  0
VERTEX
  5
3BB
330
3B0
100
AcDbEntity
  8
Visible (ANSI)
100
AcDbVertex
100
AcDb2dVertex
 10
112.4789612426416
 20
33.49695128367825
 30
0.0
  0
VERTEX
  5
3BC
330
3B0
100
AcDbEntity
  8
Visible (ANSI)
100
AcDbVertex
100
AcDb2dVertex
 10
112.4801523759816
 20
33.49528905328048
 30
0.0
  0
VERTEX
  5
3BD
330
3B0
100
AcDbEntity
  8
Visible (ANSI)
100
AcDbVertex
100
AcDb2dVertex
 10
112.4814496738617
 20
33.49370829820817
 30
0.0
  0
VERTEX
  5
3BE
330
3B0
100
AcDbEntity
  8
Visible (ANSI)
100
AcDbVertex
100
AcDb2dVertex
 10
112.4828475809797
 20
33.49221576505004
 30
0.0
  0
VERTEX
  5
3BF
330
3B0
100
AcDbEntity
  8
Visible (ANSI)
100
AcDbVertex
100
AcDb2dVertex
 10
112.4843401112045
 20
33.49081786013208
 30
0.0
  0
VERTEX
  5
3C0
330
3B0
100
AcDbEntity
  8
Visible (ANSI)
100
AcDbVertex
100
AcDb2dVertex
 10
112.4859208736101
 20
33.48952055565199
 30
0.0
  0
VERTEX
  5
3C1
330
3B0
100
AcDbEntity
  8
Visible (ANSI)
100
AcDbVertex
100
AcDb2dVertex
 10
112.4875830988746
 20
33.4883294248787
 30
0.0
  0
VERTEX
  5
3C2
330
3B0
100
AcDbEntity
  8
Visible (ANSI)
100
AcDbVertex
100
AcDb2dVertex
 10
112.4893196678802
 20
33.48724956002006
 30
0.0
  0
VERTEX
  5
3C3
330
3B0
100
AcDbEntity
  8
Visible (ANSI)
100
AcDbVertex
100
AcDb2dVertex
 10
112.491123146913
 20
33.486285583956
 30
0.0
  0
VERTEX
  5
3C4
330
3B0
100
AcDbEntity
  8
Visible (ANSI)
100
AcDbVertex
100
AcDb2dVertex
 10
112.4929858111286
 20
33.48544161503893
 30
0.0
  0
VERTEX
  5
3C5
330
3B0
100
AcDbEntity
  8
Visible (ANSI)
100
AcDbVertex
100
AcDb2dVertex
 10
112.4948996848861
 20
33.48472129056018
 30
0.0
  0
VERTEX
  5
3C6
330
3B0
100
AcDbEntity
  8
Visible (ANSI)
100
AcDbVertex
100
AcDb2dVertex
 10
112.4968565725466
 20
33.48412767288437
 30
0.0
  0
VERTEX
  5
3C7
330
3B0
100
AcDbEntity
  8
Visible (ANSI)
100
AcDbVertex
100
AcDb2dVertex
 10
112.4988480951404
 20
33.48366330811542
 30
0.0
  0
VERTEX
  5
3C8
330
3B0
100
AcDbEntity
  8
Visible (ANSI)
100
AcDbVertex
100
AcDb2dVertex
 10
112.5008657240992
 20
33.48333020263015
 30
0.0
  0
VERTEX
  5
3C9
330
3B0
100
AcDbEntity
  8
Visible (ANSI)
100
AcDbVertex
100
AcDb2dVertex
 10
112.5029008208562
 20
33.48312976441229
 30
0.0
  0
VERTEX
  5
3CA
330
3B0
100
AcDbEntity
  8
Visible (ANSI)
100
AcDbVertex
100
AcDb2dVertex
 10
112.5049446676456
 20
33.4830628499853
 30
0.0
  0
SEQEND
  5
3B3
330
3B0
100
AcDbEntity
  8
Visible (ANSI)
  0
LINE
  5
3CB
330
6C
100
AcDbEntity
  8
Visible (ANSI)
100
AcDbLine
 10
112.5049446681149
 20
33.35806285186261
 30
0.0
 11
113.2236946681149
 21
33.35806285186261
 31
0.0
  0
LINE
  5
3CC
330
6C
100
AcDbEntity
  8
Visible (ANSI)
100
AcDbLine
 10
113.2236946681149
 20
33.48306285186261
 30
0.0
 11
113.2236946681149
 21
33.35806285186261
 31
0.0
  0
LINE
  5
3CD
330
6C
100
AcDbEntity
  8
Visible (ANSI)
100
AcDbLine
 10
112.3486946681149
 20
33.51431285186261
 30
0.0
 11
112.3486946681149
 21
93.2018128518626
 31
0.0
  0
LINE
  5
3CE
330
6C
100
AcDbEntity
  8
Hidden (ANSI)
100
AcDbLine
 10
112.4736946681149
 20
93.2018128518626
 30
0.0
 11
112.4736946681149
 21
33.5143128518626
 31
0.0
  0
LINE
  5
3CF
330
6C
100
AcDbEntity
  8
Visible (ANSI)
100
AcDbLine
 10
113.2236946681149
 20
93.1446745042143
 30
0.0
 11
113.223694668115
 21
33.57145119951093
 31
0.0
  0
LINE
  5
3D0
330
6C
100
AcDbEntity
  8
Hidden (ANSI)
100
AcDbLine
 10
112.4736946681147
 20
63.07656285186261
 30
0.0
 11
112.3486946681147
 21
63.07656285186261
 31
0.0
  0
LINE
  5
3D1
330
6C
100
AcDbEntity
  8
Hidden (ANSI)
100
AcDbLine
 10
112.4736946681147
 20
63.63956285186262
 30
0.0
 11
112.3486946681147
 21
63.63956285186262
 31
0.0
  0
LINE
  5
3D2
330
6C
100
AcDbEntity
  8
Hidden (ANSI)
100
AcDbLine
 10
112.4736946681147
 20
92.20156285186257
 30
0.0
 11
112.3486946681147
 21
92.20156285186257
 31
0.0
  0
LINE
  5
3D3
330
6C
100
AcDbEntity
  8
Hidden (ANSI)
100
AcDbLine
 10
112.4736946681147
 20
92.76456285186258
 30
0.0
 11
112.3486946681147
 21
92.76456285186258
 31
0.0
  0
LINE
  5
3D4
330
6C
100
AcDbEntity
  8
Hidden (ANSI)
100
AcDbLine
 10
112.4736946681147
 20
33.9515628518626
 30
0.0
 11
112.3486946681147
 21
33.9515628518626
 31
0.0
  0
LINE
  5
3D5
330
6C
100
AcDbEntity
  8
Hidden (ANSI)
100
AcDbLine
 10
112.4736946681147
 20
34.5145628518626
 30
0.0
 11
112.3486946681147
 21
34.5145628518626
 31
0.0
  0
MTEXT
  5
3D6
330
6C
100
AcDbEntity
  8
Symbol (ANSI)
100
AcDbMText
 10
108.4882414225495
 20
27.42974971296012
 30
0.0
 40
1.440000017796914
 41
0.0
 46
0.0
 71
     7
 72
     1
  1
SIDE VIEW
  7
Text Style153
 73
     1
 44
1.0
  0
LINE
  5
3D7
330
6C
100
AcDbEntity
  8
Symbol (ANSI)
370
    30
100
AcDbLine
 10
108.4145132328941
 20
27.13142231898363
 30
0.0
 11
118.1455990777601
 21
27.13142231898363
 31
0.0
  0
ELLIPSE
  5
3D8
330
6C
100
AcDbEntity
  8
Visible (ANSI)
100
AcDbEllipse
 10
154.9086833819474
 20
39.36252502704358
 30
0.0
 11
-0.1404775675610101
 21
0.2439432372748665
 31
0.0
210
0.0
220
0.0
230
0.9999999999999998
 40
0.578093115915809
 41
0.0
 42
6.283185307179586
  0
ELLIPSE
  5
3D9
330
6C
100
AcDbEntity
  8
Visible (ANSI)
100
AcDbEllipse
 10
154.9970717295957
 20
39.41342449126763
 30
0.0
 11
-0.1404775675610102
 21
0.2439432372748667
 31
0.0
210
0.0
220
0.0
230
1.0
 40
0.5780931159158092
 41
0.3187556839589369
 42
2.82283696963101
  0
ELLIPSE
  5
3DA
330
6C
100
AcDbEntity
  8
Visible (ANSI)
100
AcDbEllipse
 10
154.9086833819475
 20
86.98464504912136
 30
0.0
 11
-0.1404775675610101
 21
0.2439432372748665
 31
0.0
210
0.0
220
0.0
230
0.9999999999999998
 40
0.578093115915809
 41
0.0
 42
6.283185307179586
  0
ELLIPSE
  5
3DB
330
6C
100
AcDbEntity
  8
Visible (ANSI)
100
AcDbEllipse
 10
154.9970717295957
 20
87.03554451334543
 30
0.0
 11
-0.1404775675610102
 21
0.2439432372748666
 31
0.0
210
0.0
220
0.0
230
0.9999999999999998
 40
0.578093115915809
 41
0.3187556839589041
 42
2.822836969631025
  0
ELLIPSE
  5
3DC
330
6C
100
AcDbEntity
  8
Visible (ANSI)
100
AcDbEllipse
 10
174.0889548216353
 20
52.12840130146697
 30
0.0
 11
-0.1404775675610101
 21
0.2439432372748665
 31
0.0
210
0.0
220
0.0
230
0.9999999999999998
 40
0.578093115915809
 41
0.0
 42
6.283185307179586
  0
ELLIPSE
  5
3DD
330
6C
100
AcDbEntity
  8
Visible (ANSI)
100
AcDbEllipse
 10
174.1773431692836
 20
52.17930076569102
 30
0.0
 11
-0.1404775675610114
 21
0.2439432372748687
 31
0.0
210
0.0
220
0.0
230
1.0
 40
0.5780931159158092
 41
0.3187556839589041
 42
2.822836969631009
  0
ELLIPSE
  5
3DE
330
6C
100
AcDbEntity
  8
Visible (ANSI)
100
AcDbEllipse
 10
135.7284119422595
 20
74.21876877469803
 30
0.0
 11
-0.1404775675610101
 21
0.2439432372748665
 31
0.0
210
0.0
220
0.0
230
0.9999999999999998
 40
0.578093115915809
 41
0.0
 42
6.283185307179586
  0
ELLIPSE
  5
3DF
330
6C
100
AcDbEntity
  8
Visible (ANSI)
100
AcDbEllipse
 10
135.8168002899078
 20
74.26966823892209
 30
0.0
 11
-0.14047756756101
 21
0.2439432372748664
 31
0.0
210
0.0
220
0.0
230
1.0
 40
0.5780931159158092
 41
0.3187556839589369
 42
2.822836969630821
  0
ELLIPSE
  5
3E0
330
6C
100
AcDbEntity
  8
Visible (ANSI)
100
AcDbEllipse
 10
174.0889548216354
 20
75.93946131250584
 30
0.0
 11
-0.1404775675610101
 21
0.2439432372748665
 31
0.0
210
0.0
220
0.0
230
0.9999999999999998
 40
0.578093115915809
 41
0.0
 42
6.283185307179586
  0
ELLIPSE
  5
3E1
330
6C
100
AcDbEntity
  8
Visible (ANSI)
100
AcDbEllipse
 10
174.1773431692837
 20
75.99036077672987
 30
0.0
 11
-0.1404775675610126
 21
0.2439432372748709
 31
0.0
210
0.0
220
0.0
230
1.0
 40
0.5780931159158089
 41
0.3187556839589047
 42
2.822836969631026
  0
ELLIPSE
  5
3E2
330
6C
100
AcDbEntity
  8
Visible (ANSI)
100
AcDbEllipse
 10
135.7284119422595
 20
98.02982878573692
 30
0.0
 11
-0.1404775675610101
 21
0.2439432372748665
 31
0.0
210
0.0
220
0.0
230
0.9999999999999998
 40
0.578093115915809
 41
0.0
 42
6.283185307179586
  0
ELLIPSE
  5
3E3
330
6C
100
AcDbEntity
  8
Visible (ANSI)
100
AcDbEllipse
 10
135.8168002899078
 20
98.08072824996097
 30
0.0
 11
-0.1404775675610092
 21
0.2439432372748649
 31
0.0
210
0.0
220
0.0
230
0.9999999999999998
 40
0.5780931159158092
 41
0.3187556839589688
 42
2.822836969630931
  0
ELLIPSE
  5
3E4
330
6C
100
AcDbEntity
  8
Visible (ANSI)
100
AcDbEllipse
 10
135.7284119422594
 20
50.40770876365915
 30
0.0
 11
-0.1404775675610101
 21
0.2439432372748665
 31
0.0
210
0.0
220
0.0
230
0.9999999999999998
 40
0.578093115915809
 41
0.0
 42
6.283185307179586
  0
ELLIPSE
  5
3E5
330
6C
100
AcDbEntity
  8
Visible (ANSI)
100
AcDbEllipse
 10
135.8168002899077
 20
50.4586082278832
 30
0.0
 11
-0.1404775675610101
 21
0.2439432372748663
 31
0.0
210
0.0
220
0.0
230
1.0
 40
0.5780931159158092
 41
0.3187556839589361
 42
2.82283696963082
  0
ELLIPSE
  5
3E6
330
6C
100
AcDbEntity
  8
Visible (ANSI)
100
AcDbEllipse
 10
174.0889548216353
 20
28.31734129042807
 30
0.0
 11
-0.1404775675610101
 21
0.2439432372748665
 31
0.0
210
0.0
220
0.0
230
0.9999999999999998
 40
0.578093115915809
 41
0.0
 42
6.283185307179586
  0
ELLIPSE
  5
3E7
330
6C
100
AcDbEntity
  8
Visible (ANSI)
100
AcDbEllipse
 10
174.1773431692836
 20
28.36824075465211
 30
0.0
 11
-0.1404775675610109
 21
0.243943237274868
 31
0.0
210
0.0
220
0.0
230
1.0
 40
0.578093115915809
 41
0.3187556839589209
 42
2.82283696963101
  0
LINE
  5
3E8
330
6C
100
AcDbEntity
  8
Visible Narrow (ANSI)
100
AcDbLine
 10
174.8181586897341
 20
76.1876880973601
 30
0.0
 11
174.818158689734
 21
27.48377066699745
 31
0.0
  0
LINE
  5
3E9
330
6C
100
AcDbEntity
  8
Visible Narrow (ANSI)
100
AcDbLine
 10
174.5971878206132
 20
27.43705737515929
 30
0.0
 11
174.5971878206133
 21
76.23440138919822
 31
0.0
  0
LINE
  5
3EA
330
6C
100
AcDbEntity
  8
Visible Narrow (ANSI)
100
AcDbLine
 10
135.3710672909299
 20
99.07821227928682
 30
0.0
 11
174.6672703420857
 21
76.44903394799051
 31
0.0
  0
LINE
  5
3EB
330
6C
100
AcDbEntity
  8
Visible Narrow (ANSI)
100
AcDbLine
 10
174.5971878206133
 20
76.23440138919822
 30
0.0
 11
135.2201789432816
 21
98.91011270100571
 31
0.0
  0
LINE
  5
3EC
330
6C
100
AcDbEntity
  8
Visible Narrow (ANSI)
100
AcDbLine
 10
135.2201789432816
 20
98.91011270100571
 30
0.0
 11
135.2201789432815
 21
50.11276868696676
 31
0.0
  0
LINE
  5
3ED
330
6C
100
AcDbEntity
  8
Visible Narrow (ANSI)
100
AcDbLine
 10
135.2201789432815
 20
50.11276868696676
 30
0.0
 11
174.5971878206132
 21
27.43705737515929
 31
0.0
  0
LINE
  5
3EE
330
6C
100
AcDbEntity
  8
Visible (ANSI)
100
AcDbLine
 10
135.174414377842
 20
98.95038038536668
 30
0.0
 11
135.1744143778419
 21
50.1997496631659
 31
0.0
  0
LINE
  5
3EF
330
6C
100
AcDbEntity
  8
Visible (ANSI)
100
AcDbLine
 10
135.2729417888074
 20
50.0293274683106
 30
0.0
 11
174.609448278088
 21
27.37693993058017
 31
0.0
  0
POLYLINE
  5
3F0
330
6C
100
AcDbEntity
  8
Visible (ANSI)
100
AcDb2dPolyline
 66
     1
 10
0.0
 20
0.0
 30
0.0
 70
   128
  0
VERTEX
  5
3F1
330
3F0
100
AcDbEntity
  8
Visible (ANSI)
100
AcDbVertex
100
AcDb2dVertex
 10
174.5971876520259
 20
76.23440247007619
 30
0.0
  0
VERTEX
  5
3F2
330
3F0
100
AcDbEntity
  8
Visible (ANSI)
100
AcDbVertex
100
AcDb2dVertex
 10
174.604649834521
 20
76.22842793082907
 30
0.0
  0
VERTEX
  5
3F4
330
3F0
100
AcDbEntity
  8
Visible (ANSI)
100
AcDbVertex
100
AcDb2dVertex
 10
174.612554392993
 20
76.22274729690471
 30
0.0
  0
VERTEX
  5
3F5
330
3F0
100
AcDbEntity
  8
Visible (ANSI)
100
AcDbVertex
100
AcDb2dVertex
 10
174.6208642996102
 20
76.21737347304531
 30
0.0
  0
VERTEX
  5
3F6
330
3F0
100
AcDbEntity
  8
Visible (ANSI)
100
AcDbVertex
100
AcDb2dVertex
 10
174.6295490227973
 20
76.21231823152301
 30
0.0
  0
VERTEX
  5
3F7
330
3F0
100
AcDbEntity
  8
Visible (ANSI)
100
AcDbVertex
100
AcDb2dVertex
 10
174.6385675523433
 20
76.20759218378026
 30
0.0
  0
VERTEX
  5
3F8
330
3F0
100
AcDbEntity
  8
Visible (ANSI)
100
AcDbVertex
100
AcDb2dVertex
 10
174.6478769200338
 20
76.20321954771151
 30
0.0
  0
VERTEX
  5
3F9
330
3F0
100
AcDbEntity
  8
Visible (ANSI)
100
AcDbVertex
100
AcDb2dVertex
 10
174.6574492243234
 20
76.19919891404629
 30
0.0
  0
VERTEX
  5
3FA
330
3F0
100
AcDbEntity
  8
Visible (ANSI)
100
AcDbVertex
100
AcDb2dVertex
 10
174.6672334575694
 20
76.19554002946189
 30
0.0
  0
VERTEX
  5
3FB
330
3F0
100
AcDbEntity
  8
Visible (ANSI)
100
AcDbVertex
100
AcDb2dVertex
 10
174.6771895470791
 20
76.19225899452715
 30
0.0
  0
VERTEX
  5
3FC
330
3F0
100
AcDbEntity
  8
Visible (ANSI)
100
AcDbVertex
100
AcDb2dVertex
 10
174.6872798925539
 20
76.18935370720393
 30
0.0
  0
VERTEX
  5
3FD
330
3F0
100
AcDbEntity
  8
Visible (ANSI)
100
AcDbVertex
100
AcDb2dVertex
 10
174.6974524824597
 20
76.18682844369406
 30
0.0
  0
VERTEX
  5
3FE
330
3F0
100
AcDbEntity
  8
Visible (ANSI)
100
AcDbVertex
100
AcDb2dVertex
 10
174.7076749350741
 20
76.18468905638306
 30
0.0
  0
VERTEX
  5
3FF
330
3F0
100
AcDbEntity
  8
Visible (ANSI)
100
AcDbVertex
100
AcDb2dVertex
 10
174.7178920985908
 20
76.18293801311032
 30
0.0
  0
VERTEX
  5
400
330
3F0
100
AcDbEntity
  8
Visible (ANSI)
100
AcDbVertex
100
AcDb2dVertex
 10
174.7280686376895
 20
76.1815696427366
 30
0.0
  0
VERTEX
  5
401
330
3F0
100
AcDbEntity
  8
Visible (ANSI)
100
AcDbVertex
100
AcDb2dVertex
 10
174.7381551335309
 20
76.18057992975181
 30
0.0
  0
VERTEX
  5
402
330
3F0
100
AcDbEntity
  8
Visible (ANSI)
100
AcDbVertex
100
AcDb2dVertex
 10
174.7481136705447
 20
76.17997153981029
 30
0.0
  0
VERTEX
  5
403
330
3F0
100
AcDbEntity
  8
Visible (ANSI)
100
AcDbVertex
100
AcDb2dVertex
 10
174.7578967215217
 20
76.17973665434644
 30
0.0
  0
VERTEX
  5
404
330
3F0
100
AcDbEntity
  8
Visible (ANSI)
100
AcDbVertex
100
AcDb2dVertex
 10
174.767468488605
 20
76.17985953216066
 30
0.0
  0
VERTEX
  5
405
330
3F0
100
AcDbEntity
  8
Visible (ANSI)
100
AcDbVertex
100
AcDb2dVertex
 10
174.7767795301393
 20
76.18034598622235
 30
0.0
  0
VERTEX
  5
406
330
3F0
100
AcDbEntity
  8
Visible (ANSI)
100
AcDbVertex
100
AcDb2dVertex
 10
174.7857966222952
 20
76.18117686524289
 30
0.0
  0
VERTEX
  5
407
330
3F0
100
AcDbEntity
  8
Visible (ANSI)
100
AcDbVertex
100
AcDb2dVertex
 10
174.7944816442904
 20
76.18233509033912
 30
0.0
  0
VERTEX
  5
408
330
3F0
100
AcDbEntity
  8
Visible (ANSI)
100
AcDbVertex
100
AcDb2dVertex
 10
174.8027917006358
 20
76.1838204594209
 30
0.0
  0
VERTEX
  5
409
330
3F0
100
AcDbEntity
  8
Visible (ANSI)
100
AcDbVertex
100
AcDb2dVertex
 10
174.8106962451072
 20
76.18561047075735
 30
0.0
  0
VERTEX
  5
40A
330
3F0
100
AcDbEntity
  8
Visible (ANSI)
100
AcDbVertex
100
AcDb2dVertex
 10
174.8181602186359
 20
76.18768491621598
 30
0.0
  0
SEQEND
  5
3F3
330
3F0
100
AcDbEntity
  8
Visible (ANSI)
  0
POLYLINE
  5
40B
330
6C
100
AcDbEntity
  8
Visible (ANSI)
100
AcDb2dPolyline
 66
     1
 10
0.0
 20
0.0
 30
0.0
 70
   128
  0
VERTEX
  5
40C
330
40B
100
AcDbEntity
  8
Visible (ANSI)
100
AcDbVertex
100
AcDb2dVertex
 10
174.8181602186358
 20
27.48376977664506
 30
0.0
  0
VERTEX
  5
40D
330
40B
100
AcDbEntity
  8
Visible (ANSI)
100
AcDbVertex
100
AcDb2dVertex
 10
174.8106962451071
 20
27.47779914978617
 30
0.0
  0
VERTEX
  5
40F
330
40B
100
AcDbEntity
  8
Visible (ANSI)
100
AcDbVertex
100
AcDb2dVertex
 10
174.8027917006356
 20
27.4721178683798
 30
0.0
  0
VERTEX
  5
410
330
40B
100
AcDbEntity
  8
Visible (ANSI)
100
AcDbVertex
100
AcDb2dVertex
 10
174.7944816442903
 20
27.46674122922811
 30
0.0
  0
VERTEX
  5
411
330
40B
100
AcDbEntity
  8
Visible (ANSI)
100
AcDbVertex
100
AcDb2dVertex
 10
174.7857966222951
 20
27.46168682273162
 30
0.0
  0
VERTEX
  5
412
330
40B
100
AcDbEntity
  8
Visible (ANSI)
100
AcDbVertex
100
AcDb2dVertex
 10
174.7767795301392
 20
27.45696465445629
 30
0.0
  0
VERTEX
  5
413
330
40B
100
AcDbEntity
  8
Visible (ANSI)
100
AcDbVertex
100
AcDb2dVertex
 10
174.7674684886048
 20
27.45258693032471
 30
0.0
  0
VERTEX
  5
414
330
40B
100
AcDbEntity
  8
Visible (ANSI)
100
AcDbVertex
100
AcDb2dVertex
 10
174.7578967215216
 20
27.44856787111023
 30
0.0
  0
VERTEX
  5
415
330
40B
100
AcDbEntity
  8
Visible (ANSI)
100
AcDbVertex
100
AcDb2dVertex
 10
174.7481136705445
 20
27.44491148650416
 30
0.0
  0
VERTEX
  5
416
330
40B
100
AcDbEntity
  8
Visible (ANSI)
100
AcDbVertex
100
AcDb2dVertex
 10
174.7381551335308
 20
27.44162859678333
 30
0.0
  0
VERTEX
  5
417
330
40B
100
AcDbEntity
  8
Visible (ANSI)
100
AcDbVertex
100
AcDb2dVertex
 10
174.7280686376894
 20
27.43872212836786
 30
0.0
  0
VERTEX
  5
418
330
40B
100
AcDbEntity
  8
Visible (ANSI)
100
AcDbVertex
100
AcDb2dVertex
 10
174.7178920985907
 20
27.43619922867166
 30
0.0
  0
VERTEX
  5
419
330
40B
100
AcDbEntity
  8
Visible (ANSI)
100
AcDbVertex
100
AcDb2dVertex
 10
174.7076749350739
 20
27.43405899228207
 30
0.0
  0
VERTEX
  5
41A
330
40B
100
AcDbEntity
  8
Visible (ANSI)
100
AcDbVertex
100
AcDb2dVertex
 10
174.6974524824596
 20
27.43230710952318
 30
0.0
  0
VERTEX
  5
41B
330
40B
100
AcDbEntity
  8
Visible (ANSI)
100
AcDbVertex
100
AcDb2dVertex
 10
174.6872798925538
 20
27.43093618204034
 30
0.0
  0
VERTEX
  5
41C
330
40B
100
AcDbEntity
  8
Visible (ANSI)
100
AcDbVertex
100
AcDb2dVertex
 10
174.677189547079
 20
27.42995019929365
 30
0.0
  0
VERTEX
  5
41D
330
40B
100
AcDbEntity
  8
Visible (ANSI)
100
AcDbVertex
100
AcDb2dVertex
 10
174.6672334575692
 20
27.42933995456604
 30
0.0
  0
VERTEX
  5
41E
330
40B
100
AcDbEntity
  8
Visible (ANSI)
100
AcDbVertex
100
AcDb2dVertex
 10
174.6574492243233
 20
27.42910265775018
 30
0.0
  0
VERTEX
  5
41F
330
40B
100
AcDbEntity
  8
Visible (ANSI)
100
AcDbVertex
100
AcDb2dVertex
 10
174.6478769200337
 20
27.4292320213455
 30
0.0
  0
VERTEX
  5
420
330
40B
100
AcDbEntity
  8
Visible (ANSI)
100
AcDbVertex
100
AcDb2dVertex
 10
174.6385675523432
 20
27.4297133777519
 30
0.0
  0
VERTEX
  5
421
330
40B
100
AcDbEntity
  8
Visible (ANSI)
100
AcDbVertex
100
AcDb2dVertex
 10
174.6295490227972
 20
27.43054324409439
 30
0.0
  0
VERTEX
  5
422
330
40B
100
AcDbEntity
  8
Visible (ANSI)
100
AcDbVertex
100
AcDb2dVertex
 10
174.6208642996101
 20
27.43170720595434
 30
0.0
  0
VERTEX
  5
423
330
40B
100
AcDbEntity
  8
Visible (ANSI)
100
AcDbVertex
100
AcDb2dVertex
 10
174.6125543929929
 20
27.43318975974383
 30
0.0
  0
VERTEX
  5
424
330
40B
100
AcDbEntity
  8
Visible (ANSI)
100
AcDbVertex
100
AcDb2dVertex
 10
174.6046498345209
 20
27.43497912359829
 30
0.0
  0
VERTEX
  5
425
330
40B
100
AcDbEntity
  8
Visible (ANSI)
100
AcDbVertex
100
AcDb2dVertex
 10
174.5971876520258
 20
27.43705747185269
 30
0.0
  0
SEQEND
  5
40E
330
40B
100
AcDbEntity
  8
Visible (ANSI)
  0
LINE
  5
426
330
6C
100
AcDbEntity
  8
Visible (ANSI)
100
AcDbLine
 10
174.7299022030609
 20
76.23866349526959
 30
0.0
 11
175.2380033410635
 21
76.53125948087245
 31
0.0
  0
LINE
  5
427
330
6C
100
AcDbEntity
  8
Visible (ANSI)
100
AcDbLine
 10
175.3263916887117
 20
27.77644258628575
 30
0.0
 11
174.818158689734
 21
27.48377066699745
 31
0.0
  0
LINE
  5
428
330
6C
100
AcDbEntity
  8
Visible (ANSI)
100
AcDbLine
 10
174.7334942163226
 20
76.23644312503187
 30
0.0
 11
174.8181586897341
 21
76.1876880973601
 31
0.0
  0
POLYLINE
  5
429
330
6C
100
AcDbEntity
  8
Visible (ANSI)
100
AcDb2dPolyline
 66
     1
 10
0.0
 20
0.0
 30
0.0
 70
   128
  0
VERTEX
  5
42A
330
429
100
AcDbEntity
  8
Visible (ANSI)
100
AcDbVertex
100
AcDb2dVertex
 10
174.6855759983468
 20
76.28530193353579
 30
0.0
  0
VERTEX
  5
42B
330
429
100
AcDbEntity
  8
Visible (ANSI)
100
AcDbVertex
100
AcDb2dVertex
 10
174.6869365914992
 20
76.28278601747831
 30
0.0
  0
VERTEX
  5
42D
330
429
100
AcDbEntity
  8
Visible (ANSI)
100
AcDbVertex
100
AcDb2dVertex
 10
174.6883718058547
 20
76.28031796528654
 30
0.0
  0
VERTEX
  5
42E
330
429
100
AcDbEntity
  8
Visible (ANSI)
100
AcDbVertex
100
AcDb2dVertex
 10
174.689872722417
 20
76.27789751426759
 30
0.0
  0
VERTEX
  5
42F
330
429
100
AcDbEntity
  8
Visible (ANSI)
100
AcDbVertex
100
AcDb2dVertex
 10
174.6914428852909
 20
76.27553163562343
 30
0.0
  0
VERTEX
  5
430
330
429
100
AcDbEntity
  8
Visible (ANSI)
100
AcDbVertex
100
AcDb2dVertex
 10
174.6930643212994
 20
76.27322463745077
 30
0.0
  0
VERTEX
  5
431
330
429
100
AcDbEntity
  8
Visible (ANSI)
100
AcDbVertex
100
AcDb2dVertex
 10
174.6947442698949
 20
76.27097090392735
 30
0.0
  0
VERTEX
  5
432
330
429
100
AcDbEntity
  8
Visible (ANSI)
100
AcDbVertex
100
AcDb2dVertex
 10
174.6964684615327
 20
76.2687768948874
 30
0.0
  0
VERTEX
  5
433
330
429
100
AcDbEntity
  8
Visible (ANSI)
100
AcDbVertex
100
AcDb2dVertex
 10
174.6982308574376
 20
76.26664402520432
 30
0.0
  0
VERTEX
  5
434
330
429
100
AcDbEntity
  8
Visible (ANSI)
100
AcDbVertex
100
AcDb2dVertex
 10
174.7000294088618
 20
76.26457111508291
 30
0.0
  0
VERTEX
  5
435
330
429
100
AcDbEntity
  8
Visible (ANSI)
100
AcDbVertex
100
AcDb2dVertex
 10
174.7018533204722
 20
76.26256173264973
 30
0.0
  0
VERTEX
  5
436
330
429
100
AcDbEntity
  8
Visible (ANSI)
100
AcDbVertex
100
AcDb2dVertex
 10
174.7037000501312
 20
76.26060950265486
 30
0.0
  0
VERTEX
  5
437
330
429
100
AcDbEntity
  8
Visible (ANSI)
100
AcDbVertex
100
AcDb2dVertex
 10
174.7055583268755
 20
76.25872754198863
 30
0.0
  0
VERTEX
  5
438
330
429
100
AcDbEntity
  8
Visible (ANSI)
100
AcDbVertex
100
AcDb2dVertex
 10
174.7074251506978
 20
76.25690921173137
 30
0.0
  0
VERTEX
  5
439
330
429
100
AcDbEntity
  8
Visible (ANSI)
100
AcDbVertex
100
AcDb2dVertex
 10
174.709293062415
 20
76.25515510879792
 30
0.0
  0
VERTEX
  5
43A
330
429
100
AcDbEntity
  8
Visible (ANSI)
100
AcDbVertex
100
AcDb2dVertex
 10
174.711154401132
 20
76.25346571394516
 30
0.0
  0
VERTEX
  5
43B
330
429
100
AcDbEntity
  8
Visible (ANSI)
100
AcDbVertex
100
AcDb2dVertex
 10
174.7130055635214
 20
76.25183895215485
 30
0.0
  0
VERTEX
  5
43C
330
429
100
AcDbEntity
  8
Visible (ANSI)
100
AcDbVertex
100
AcDb2dVertex
 10
174.7148385231185
 20
76.25027509366606
 30
0.0
  0
VERTEX
  5
43D
330
429
100
AcDbEntity
  8
Visible (ANSI)
100
AcDbVertex
100
AcDb2dVertex
 10
174.7166408432841
 20
76.24877676144045
 30
0.0
  0
VERTEX
  5
43E
330
429
100
AcDbEntity
  8
Visible (ANSI)
100
AcDbVertex
100
AcDb2dVertex
 10
174.7184169284884
 20
76.24733179576761
 30
0.0
  0
VERTEX
  5
43F
330
429
100
AcDbEntity
  8
Visible (ANSI)
100
AcDbVertex
100
AcDb2dVertex
 10
174.7201498121359
 20
76.24595492601422
 30
0.0
  0
VERTEX
  5
440
330
429
100
AcDbEntity
  8
Visible (ANSI)
100
AcDbVertex
100
AcDb2dVertex
 10
174.7218393988155
 20
76.24463629353343
 30
0.0
  0
VERTEX
  5
441
330
429
100
AcDbEntity
  8
Visible (ANSI)
100
AcDbVertex
100
AcDb2dVertex
 10
174.7234812415368
 20
76.24337333747387
 30
0.0
  0
VERTEX
  5
442
330
429
100
AcDbEntity
  8
Visible (ANSI)
100
AcDbVertex
100
AcDb2dVertex
 10
174.7250623125263
 20
76.24216834038543
 30
0.0
  0
VERTEX
  5
443
330
429
100
AcDbEntity
  8
Visible (ANSI)
100
AcDbVertex
100
AcDb2dVertex
 10
174.726582249844
 20
76.2410162014678
 30
0.0
  0
SEQEND
  5
42C
330
429
100
AcDbEntity
  8
Visible (ANSI)
  0
LINE
  5
444
330
6C
100
AcDbEntity
  8
Visible (ANSI)
100
AcDbLine
 10
174.6855761682616
 20
76.28530085342227
 30
0.0
 11
174.6819519618407
 21
76.28321381174799
 31
0.0
  0
LINE
  5
445
330
6C
100
AcDbEntity
  8
Visible (ANSI)
100
AcDbLine
 10
174.6819519618407
 20
76.28321381174799
 30
0.0
 11
174.5971878206133
 21
76.23440138919822
 31
0.0
  0
LINE
  5
446
330
6C
100
AcDbEntity
  8
Visible (ANSI)
100
AcDbLine
 10
174.8181586897341
 20
76.1876880973601
 30
0.0
 11
175.3263916887118
 21
76.4803600166484
 31
0.0
  0
LINE
  5
447
330
6C
100
AcDbEntity
  8
Visible (ANSI)
100
AcDbLine
 10
175.2380033410635
 20
76.53125948087245
 30
0.0
 11
175.3263916887118
 21
76.4803600166484
 31
0.0
  0
POLYLINE
  5
448
330
6C
100
AcDbEntity
  8
Visible (ANSI)
100
AcDb2dPolyline
 66
     1
 10
0.0
 20
0.0
 30
0.0
 70
   128
  0
VERTEX
  5
449
330
448
100
AcDbEntity
  8
Visible (ANSI)
100
AcDbVertex
100
AcDb2dVertex
 10
135.2201789429498
 20
98.91011368499176
 30
0.0
  0
VERTEX
  5
44A
330
448
100
AcDbEntity
  8
Visible (ANSI)
100
AcDbVertex
100
AcDb2dVertex
 10
135.2220989559083
 20
98.9176346400265
 30
0.0
  0
VERTEX
  5
44C
330
448
100
AcDbEntity
  8
Visible (ANSI)
100
AcDbVertex
100
AcDb2dVertex
 10
135.2244910716465
 20
98.92539309121383
 30
0.0
  0
VERTEX
  5
44D
330
448
100
AcDbEntity
  8
Visible (ANSI)
100
AcDbVertex
100
AcDb2dVertex
 10
135.2273522536001
 20
98.93334798971443
 30
0.0
  0
VERTEX
  5
44E
330
448
100
AcDbEntity
  8
Visible (ANSI)
100
AcDbVertex
100
AcDb2dVertex
 10
135.2306774657185
 20
98.94146695792192
 30
0.0
  0
VERTEX
  5
44F
330
448
100
AcDbEntity
  8
Visible (ANSI)
100
AcDbVertex
100
AcDb2dVertex
 10
135.2344596641682
 20
98.94970175669994
 30
0.0
  0
VERTEX
  5
450
330
448
100
AcDbEntity
  8
Visible (ANSI)
100
AcDbVertex
100
AcDb2dVertex
 10
135.2386898802989
 20
98.95802264558362
 30
0.0
  0
VERTEX
  5
451
330
448
100
AcDbEntity
  8
Visible (ANSI)
100
AcDbVertex
100
AcDb2dVertex
 10
135.2433571874572
 20
98.96638897213007
 30
0.0
  0
VERTEX
  5
452
330
448
100
AcDbEntity
  8
Visible (ANSI)
100
AcDbVertex
100
AcDb2dVertex
 10
135.2484488171391
 20
98.97475408324849
 30
0.0
  0
VERTEX
  5
453
330
448
100
AcDbEntity
  8
Visible (ANSI)
100
AcDbVertex
100
AcDb2dVertex
 10
135.2539501921768
 20
98.98308010696865
 30
0.0
  0
VERTEX
  5
454
330
448
100
AcDbEntity
  8
Visible (ANSI)
100
AcDbVertex
100
AcDb2dVertex
 10
135.2598449350351
 20
98.99132816322385
 30
0.0
  0
VERTEX
  5
455
330
448
100
AcDbEntity
  8
Visible (ANSI)
100
AcDbVertex
100
AcDb2dVertex
 10
135.2661150337439
 20
98.9994633038477
 30
0.0
  0
VERTEX
  5
456
330
448
100
AcDbEntity
  8
Visible (ANSI)
100
AcDbVertex
100
AcDb2dVertex
 10
135.2727408336015
 20
99.0074398502486
 30
0.0
  0
VERTEX
  5
457
330
448
100
AcDbEntity
  8
Visible (ANSI)
100
AcDbVertex
100
AcDb2dVertex
 10
135.2797011823658
 20
99.01522595722809
 30
0.0
  0
VERTEX
  5
458
330
448
100
AcDbEntity
  8
Visible (ANSI)
100
AcDbVertex
100
AcDb2dVertex
 10
135.2869734717371
 20
99.02277915666093
 30
0.0
  0
VERTEX
  5
459
330
448
100
AcDbEntity
  8
Visible (ANSI)
100
AcDbVertex
100
AcDb2dVertex
 10
135.294533778401
 20
99.0300611058193
 30
0.0
  0
VERTEX
  5
45A
330
448
100
AcDbEntity
  8
Visible (ANSI)
100
AcDbVertex
100
AcDb2dVertex
 10
135.3023569386976
 20
99.03704257036878
 30
0.0
  0
VERTEX
  5
45B
330
448
100
AcDbEntity
  8
Visible (ANSI)
100
AcDbVertex
100
AcDb2dVertex
 10
135.3104166481815
 20
99.04368386504559
 30
0.0
  0
VERTEX
  5
45C
330
448
100
AcDbEntity
  8
Visible (ANSI)
100
AcDbVertex
100
AcDb2dVertex
 10
135.3186856130348
 20
99.04995944016928
 30
0.0
  0
VERTEX
  5
45D
330
448
100
AcDbEntity
  8
Visible (ANSI)
100
AcDbVertex
100
AcDb2dVertex
 10
135.3271356309593
 20
99.05582849846457
 30
0.0
  0
VERTEX
  5
45E
330
448
100
AcDbEntity
  8
Visible (ANSI)
100
AcDbVertex
100
AcDb2dVertex
 10
135.3357377425898
 20
99.061269432901
 30
0.0
  0
VERTEX
  5
45F
330
448
100
AcDbEntity
  8
Visible (ANSI)
100
AcDbVertex
100
AcDb2dVertex
 10
135.3444622897004
 20
99.06625538000303
 30
0.0
  0
VERTEX
  5
460
330
448
100
AcDbEntity
  8
Visible (ANSI)
100
AcDbVertex
100
AcDb2dVertex
 10
135.3532791370092
 20
99.07075423291406
 30
0.0
  0
VERTEX
  5
461
330
448
100
AcDbEntity
  8
Visible (ANSI)
100
AcDbVertex
100
AcDb2dVertex
 10
135.3621577382922
 20
99.07474840123358
 30
0.0
  0
VERTEX
  5
462
330
448
100
AcDbEntity
  8
Visible (ANSI)
100
AcDbVertex
100
AcDb2dVertex
 10
135.3710672823519
 20
99.07821031931225
 30
0.0
  0
SEQEND
  5
44B
330
448
100
AcDbEntity
  8
Visible (ANSI)
  0
POLYLINE
  5
463
330
6C
100
AcDbEntity
  8
Visible (ANSI)
100
AcDb2dPolyline
 66
     1
 10
0.0
 20
0.0
 30
0.0
 70
   128
  0
VERTEX
  5
464
330
463
100
AcDbEntity
  8
Visible (ANSI)
100
AcDbVertex
100
AcDb2dVertex
 10
174.6672715805554
 20
76.44903126988893
 30
0.0
  0
VERTEX
  5
465
330
463
100
AcDbEntity
  8
Visible (ANSI)
100
AcDbVertex
100
AcDb2dVertex
 10
174.661727644875
 20
76.44363122684407
 30
0.0
  0
VERTEX
  5
467
330
463
100
AcDbEntity
  8
Visible (ANSI)
100
AcDbVertex
100
AcDb2dVertex
 10
174.6562146519714
 20
76.43769893355842
 30
0.0
  0
VERTEX
  5
468
330
463
100
AcDbEntity
  8
Visible (ANSI)
100
AcDbVertex
100
AcDb2dVertex
 10
174.6507676609132
 20
76.43125950949479
 30
0.0
  0
VERTEX
  5
469
330
463
100
AcDbEntity
  8
Visible (ANSI)
100
AcDbVertex
100
AcDb2dVertex
 10
174.6454087221819
 20
76.42433543742659
 30
0.0
  0
VERTEX
  5
46A
330
463
100
AcDbEntity
  8
Visible (ANSI)
100
AcDbVertex
100
AcDb2dVertex
 10
174.6401722355239
 20
76.41695636846858
 30
0.0
  0
VERTEX
  5
46B
330
463
100
AcDbEntity
  8
Visible (ANSI)
100
AcDbVertex
100
AcDb2dVertex
 10
174.6350920738502
 20
76.4091467390207
 30
0.0
  0
VERTEX
  5
46C
330
463
100
AcDbEntity
  8
Visible (ANSI)
100
AcDbVertex
100
AcDb2dVertex
 10
174.6301887173762
 20
76.40093303893088
 30
0.0
  0
VERTEX
  5
46D
330
463
100
AcDbEntity
  8
Visible (ANSI)
100
AcDbVertex
100
AcDb2dVertex
 10
174.6254946162716
 20
76.39235361928786
 30
0.0
  0
VERTEX
  5
46E
330
463
100
AcDbEntity
  8
Visible (ANSI)
100
AcDbVertex
100
AcDb2dVertex
 10
174.6210370726509
 20
76.38343402499453
 30
0.0
  0
VERTEX
  5
46F
330
463
100
AcDbEntity
  8
Visible (ANSI)
100
AcDbVertex
100
AcDb2dVertex
 10
174.6168466222377
 20
76.37421150468359
 30
0.0
  0
VERTEX
  5
470
330
463
100
AcDbEntity
  8
Visible (ANSI)
100
AcDbVertex
100
AcDb2dVertex
 10
174.6129399412457
 20
76.36472018028459
 30
0.0
  0
VERTEX
  5
471
330
463
100
AcDbEntity
  8
Visible (ANSI)
100
AcDbVertex
100
AcDb2dVertex
 10
174.6093452091573
 20
76.35499594356123
 30
0.0
  0
VERTEX
  5
472
330
463
100
AcDbEntity
  8
Visible (ANSI)
100
AcDbVertex
100
AcDb2dVertex
 10
174.6060892655504
 20
76.34507882600773
 30
0.0
  0
VERTEX
  5
473
330
463
100
AcDbEntity
  8
Visible (ANSI)
100
AcDbVertex
100
AcDb2dVertex
 10
174.6031847835176
 20
76.33500555564001
 30
0.0
  0
VERTEX
  5
474
330
463
100
AcDbEntity
  8
Visible (ANSI)
100
AcDbVertex
100
AcDb2dVertex
 10
174.6006556490386
 20
76.32481937441863
 30
0.0
  0
VERTEX
  5
475
330
463
100
AcDbEntity
  8
Visible (ANSI)
100
AcDbVertex
100
AcDb2dVertex
 10
174.5985241385481
 20
76.3145527747682
 30
0.0
  0
VERTEX
  5
476
330
463
100
AcDbEntity
  8
Visible (ANSI)
100
AcDbVertex
100
AcDb2dVertex
 10
174.5967981172455
 20
76.30424953868362
 30
0.0
  0
VERTEX
  5
477
330
463
100
AcDbEntity
  8
Visible (ANSI)
100
AcDbVertex
100
AcDb2dVertex
 10
174.5954964184666
 20
76.29394508717102
 30
0.0
  0
VERTEX
  5
478
330
463
100
AcDbEntity
  8
Visible (ANSI)
100
AcDbVertex
100
AcDb2dVertex
 10
174.5946360668831
 20
76.28368362235703
 30
0.0
  0
VERTEX
  5
479
330
463
100
AcDbEntity
  8
Visible (ANSI)
100
AcDbVertex
100
AcDb2dVertex
 10
174.5942194768128
 20
76.27351069861285
 30
0.0
  0
VERTEX
  5
47A
330
463
100
AcDbEntity
  8
Visible (ANSI)
100
AcDbVertex
100
AcDb2dVertex
 10
174.5942598813703
 20
76.26345360066146
 30
0.0
  0
VERTEX
  5
47B
330
463
100
AcDbEntity
  8
Visible (ANSI)
100
AcDbVertex
100
AcDb2dVertex
 10
174.594764307796
 20
76.25356057719475
 30
0.0
  0
VERTEX
  5
47C
330
463
100
AcDbEntity
  8
Visible (ANSI)
100
AcDbVertex
100
AcDb2dVertex
 10
174.5957420483085
 20
76.2438615548548
 30
0.0
  0
VERTEX
  5
47D
330
463
100
AcDbEntity
  8
Visible (ANSI)
100
AcDbVertex
100
AcDb2dVertex
 10
174.5971876520259
 20
76.23440247007619
 30
0.0
  0
SEQEND
  5
466
330
463
100
AcDbEntity
  8
Visible (ANSI)
  0
LINE
  5
47E
330
6C
100
AcDbEntity
  8
Visible (ANSI)
100
AcDbLine
 10
174.6673962281227
 20
76.34691305033257
 30
0.0
 11
175.1755033410635
 21
76.63951247667353
 31
0.0
  0
LINE
  5
47F
330
6C
100
AcDbEntity
  8
Visible (ANSI)
100
AcDbLine
 10
175.1755033410635
 20
76.74170586727884
 30
0.0
 11
174.6672703420857
 21
76.44903394799051
 31
0.0
  0
LINE
  5
480
330
6C
100
AcDbEntity
  8
Visible (ANSI)
100
AcDbLine
 10
174.6672703420858
 20
76.3510308149504
 30
0.0
 11
174.6672703420857
 21
76.44903394799051
 31
0.0
  0
LINE
  5
481
330
6C
100
AcDbEntity
  8
Visible (ANSI)
100
AcDbLine
 10
175.1755033410635
 20
76.63951247667353
 30
0.0
 11
175.1755033410635
 21
76.74170586727884
 31
0.0
  0
POLYLINE
  5
482
330
6C
100
AcDbEntity
  8
Visible (ANSI)
100
AcDb2dPolyline
 66
     1
 10
0.0
 20
0.0
 30
0.0
 70
   128
  0
VERTEX
  5
483
330
482
100
AcDbEntity
  8
Visible (ANSI)
100
AcDbVertex
100
AcDb2dVertex
 10
174.6855759983468
 20
76.28530193353579
 30
0.0
  0
VERTEX
  5
484
330
482
100
AcDbEntity
  8
Visible (ANSI)
100
AcDbVertex
100
AcDb2dVertex
 10
174.6840736635276
 20
76.28774015153493
 30
0.0
  0
VERTEX
  5
486
330
482
100
AcDbEntity
  8
Visible (ANSI)
100
AcDbVertex
100
AcDb2dVertex
 10
174.6826547192969
 20
76.29022149860735
 30
0.0
  0
VERTEX
  5
487
330
482
100
AcDbEntity
  8
Visible (ANSI)
100
AcDbVertex
100
AcDb2dVertex
 10
174.6813102437256
 20
76.29273588771038
 30
0.0
  0
VERTEX
  5
488
330
482
100
AcDbEntity
  8
Visible (ANSI)
100
AcDbVertex
100
AcDb2dVertex
 10
174.6800437760083
 20
76.29527555322747
 30
0.0
  0
VERTEX
  5
489
330
482
100
AcDbEntity
  8
Visible (ANSI)
100
AcDbVertex
100
AcDb2dVertex
 10
174.6788543276315
 20
76.29784483724188
 30
0.0
  0
VERTEX
  5
48A
330
482
100
AcDbEntity
  8
Visible (ANSI)
100
AcDbVertex
100
AcDb2dVertex
 10
174.677744881588
 20
76.30042583118097
 30
0.0
  0
VERTEX
  5
48B
330
482
100
AcDbEntity
  8
Visible (ANSI)
100
AcDbVertex
100
AcDb2dVertex
 10
174.6767054055095
 20
76.30301763120343
 30
0.0
  0
VERTEX
  5
48C
330
482
100
AcDbEntity
  8
Visible (ANSI)
100
AcDbVertex
100
AcDb2dVertex
 10
174.6757383441777
 20
76.30561675279257
 30
0.0
  0
VERTEX
  5
48D
330
482
100
AcDbEntity
  8
Visible (ANSI)
100
AcDbVertex
100
AcDb2dVertex
 10
174.674841634715
 20
76.30821218535541
 30
0.0
  0
VERTEX
  5
48E
330
482
100
AcDbEntity
  8
Visible (ANSI)
100
AcDbVertex
100
AcDb2dVertex
 10
174.6740129619744
 20
76.31079768435713
 30
0.0
  0
VERTEX
  5
48F
330
482
100
AcDbEntity
  8
Visible (ANSI)
100
AcDbVertex
100
AcDb2dVertex
 10
174.6732540145781
 20
76.31336932983771
 30
0.0
  0
VERTEX
  5
490
330
482
100
AcDbEntity
  8
Visible (ANSI)
100
AcDbVertex
100
AcDb2dVertex
 10
174.6725535021176
 20
76.31592549349864
 30
0.0
  0
VERTEX
  5
491
330
482
100
AcDbEntity
  8
Visible (ANSI)
100
AcDbVertex
100
AcDb2dVertex
 10
174.6719126537894
 20
76.3184521681536
 30
0.0
  0
VERTEX
  5
492
330
482
100
AcDbEntity
  8
Visible (ANSI)
100
AcDbVertex
100
AcDb2dVertex
 10
174.6713282359846
 20
76.32094749169098
 30
0.0
  0
VERTEX
  5
493
330
482
100
AcDbEntity
  8
Visible (ANSI)
100
AcDbVertex
100
AcDb2dVertex
 10
174.6708010607352
 20
76.32340212802572
 30
0.0
  0
VERTEX
  5
494
330
482
100
AcDbEntity
  8
Visible (ANSI)
100
AcDbVertex
100
AcDb2dVertex
 10
174.6703190071924
 20
76.32581888197091
 30
0.0
  0
VERTEX
  5
495
330
482
100
AcDbEntity
  8
Visible (ANSI)
100
AcDbVertex
100
AcDb2dVertex
 10
174.6698825187072
 20
76.32818329380182
 30
0.0
  0
VERTEX
  5
496
330
482
100
AcDbEntity
  8
Visible (ANSI)
100
AcDbVertex
100
AcDb2dVertex
 10
174.6694876305303
 20
76.33049799170159
 30
0.0
  0
VERTEX
  5
497
330
482
100
AcDbEntity
  8
Visible (ANSI)
100
AcDbVertex
100
AcDb2dVertex
 10
174.6691344733337
 20
76.3327483358856
 30
0.0
  0
VERTEX
  5
498
330
482
100
AcDbEntity
  8
Visible (ANSI)
100
AcDbVertex
100
AcDb2dVertex
 10
174.6688103014292
 20
76.33493677134584
 30
0.0
  0
VERTEX
  5
499
330
482
100
AcDbEntity
  8
Visible (ANSI)
100
AcDbVertex
100
AcDb2dVertex
 10
174.6685149934785
 20
76.3370534245051
 30
0.0
  0
VERTEX
  5
49A
330
482
100
AcDbEntity
  8
Visible (ANSI)
100
AcDbVertex
100
AcDb2dVertex
 10
174.6682440765646
 20
76.33910063091206
 30
0.0
  0
VERTEX
  5
49B
330
482
100
AcDbEntity
  8
Visible (ANSI)
100
AcDbVertex
100
AcDb2dVertex
 10
174.6679972364526
 20
76.34106840590774
 30
0.0
  0
VERTEX
  5
49C
330
482
100
AcDbEntity
  8
Visible (ANSI)
100
AcDbVertex
100
AcDb2dVertex
 10
174.6677613489211
 20
76.3429589765013
 30
0.0
  0
SEQEND
  5
485
330
482
100
AcDbEntity
  8
Visible (ANSI)
  0
LINE
  5
49D
330
6C
100
AcDbEntity
  8
Visible (ANSI)
100
AcDbLine
 10
135.3710672909299
 20
99.07821227928682
 30
0.0
 11
135.8793002899077
 21
99.37088419857513
 31
0.0
  0
POLYLINE
  5
49E
330
6C
100
AcDbEntity
  8
Visible (ANSI)
100
AcDb2dPolyline
 66
     1
 10
0.0
 20
0.0
 30
0.0
 70
   128
  0
VERTEX
  5
49F
330
49E
100
AcDbEntity
  8
Visible (ANSI)
100
AcDbVertex
100
AcDb2dVertex
 10
135.2201789429496
 20
50.11276868676826
 30
0.0
  0
VERTEX
  5
4A0
330
49E
100
AcDbEntity
  8
Visible (ANSI)
100
AcDbVertex
100
AcDb2dVertex
 10
135.2166231178782
 20
50.11585767197892
 30
0.0
  0
VERTEX
  5
4A2
330
49E
100
AcDbEntity
  8
Visible (ANSI)
100
AcDbVertex
100
AcDb2dVertex
 10
135.2131894025148
 20
50.11901253226246
 30
0.0
  0
VERTEX
  5
4A3
330
49E
100
AcDbEntity
  8
Visible (ANSI)
100
AcDbVertex
100
AcDb2dVertex
 10
135.2098814888568
 20
50.12223091213481
 30
0.0
  0
VERTEX
  5
4A4
330
49E
100
AcDbEntity
  8
Visible (ANSI)
100
AcDbVertex
100
AcDb2dVertex
 10
135.2067029195627
 20
50.12551041800139
 30
0.0
  0
VERTEX
  5
4A5
330
49E
100
AcDbEntity
  8
Visible (ANSI)
100
AcDbVertex
100
AcDb2dVertex
 10
135.2036570796549
 20
50.12884857500954
 30
0.0
  0
VERTEX
  5
4A6
330
49E
100
AcDbEntity
  8
Visible (ANSI)
100
AcDbVertex
100
AcDb2dVertex
 10
135.2007472545964
 20
50.13224286052949
 30
0.0
  0
VERTEX
  5
4A7
330
49E
100
AcDbEntity
  8
Visible (ANSI)
100
AcDbVertex
100
AcDb2dVertex
 10
135.1979765390279
 20
50.13569068030292
 30
0.0
  0
VERTEX
  5
4A8
330
49E
100
AcDbEntity
  8
Visible (ANSI)
100
AcDbVertex
100
AcDb2dVertex
 10
135.1953479114373
 20
50.13918937307252
 30
0.0
  0
VERTEX
  5
4A9
330
49E
100
AcDbEntity
  8
Visible (ANSI)
100
AcDbVertex
100
AcDb2dVertex
 10
135.1928641843799
 20
50.14273623947034
 30
0.0
  0
VERTEX
  5
4AA
330
49E
100
AcDbEntity
  8
Visible (ANSI)
100
AcDbVertex
100
AcDb2dVertex
 10
135.1905280127754
 20
50.1463285275367
 30
0.0
  0
VERTEX
  5
4AB
330
49E
100
AcDbEntity
  8
Visible (ANSI)
100
AcDbVertex
100
AcDb2dVertex
 10
135.1883419022043
 20
50.14996342797936
 30
0.0
  0
VERTEX
  5
4AC
330
49E
100
AcDbEntity
  8
Visible (ANSI)
100
AcDbVertex
100
AcDb2dVertex
 10
135.1863082047592
 20
50.15363810526576
 30
0.0
  0
VERTEX
  5
4AD
330
49E
100
AcDbEntity
  8
Visible (ANSI)
100
AcDbVertex
100
AcDb2dVertex
 10
135.1844290775624
 20
50.15734964492004
 30
0.0
  0
VERTEX
  5
4AE
330
49E
100
AcDbEntity
  8
Visible (ANSI)
100
AcDbVertex
100
AcDb2dVertex
 10
135.1827065449901
 20
50.16109512302201
 30
0.0
  0
VERTEX
  5
4AF
330
49E
100
AcDbEntity
  8
Visible (ANSI)
100
AcDbVertex
100
AcDb2dVertex
 10
135.1811424488926
 20
50.16487156783743
 30
0.0
  0
VERTEX
  5
4B0
330
49E
100
AcDbEntity
  8
Visible (ANSI)
100
AcDbVertex
100
AcDb2dVertex
 10
135.1797384651881
 20
50.16867598852115
 30
0.0
  0
VERTEX
  5
4B1
330
49E
100
AcDbEntity
  8
Visible (ANSI)
100
AcDbVertex
100
AcDb2dVertex
 10
135.178496103862
 20
50.17250535604343
 30
0.0
  0
VERTEX
  5
4B2
330
49E
100
AcDbEntity
  8
Visible (ANSI)
100
AcDbVertex
100
AcDb2dVertex
 10
135.1774166799292
 20
50.17635659109751
 30
0.0
  0
VERTEX
  5
4B3
330
49E
100
AcDbEntity
  8
Visible (ANSI)
100
AcDbVertex
100
AcDb2dVertex
 10
135.176501354917
 20
50.18022662165428
 30
0.0
  0
VERTEX
  5
4B4
330
49E
100
AcDbEntity
  8
Visible (ANSI)
100
AcDbVertex
100
AcDb2dVertex
 10
135.175751120272
 20
50.18411234937017
 30
0.0
  0
VERTEX
  5
4B5
330
49E
100
AcDbEntity
  8
Visible (ANSI)
100
AcDbVertex
100
AcDb2dVertex
 10
135.1751667641733
 20
50.18801065440199
 30
0.0
  0
VERTEX
  5
4B6
330
49E
100
AcDbEntity
  8
Visible (ANSI)
100
AcDbVertex
100
AcDb2dVertex
 10
135.1747489213127
 20
50.19191840977697
 30
0.0
  0
VERTEX
  5
4B7
330
49E
100
AcDbEntity
  8
Visible (ANSI)
100
AcDbVertex
100
AcDb2dVertex
 10
135.1744980355597
 20
50.195832459745
 30
0.0
  0
VERTEX
  5
4B8
330
49E
100
AcDbEntity
  8
Visible (ANSI)
100
AcDbVertex
100
AcDb2dVertex
 10
135.1744143786285
 20
50.19974966180578
 30
0.0
  0
SEQEND
  5
4A1
330
49E
100
AcDbEntity
  8
Visible (ANSI)
  0
POLYLINE
  5
4B9
330
6C
100
AcDbEntity
  8
Visible (ANSI)
100
AcDb2dPolyline
 66
     1
 10
0.0
 20
0.0
 30
0.0
 70
   128
  0
VERTEX
  5
4BA
330
4B9
100
AcDbEntity
  8
Visible (ANSI)
100
AcDbVertex
100
AcDb2dVertex
 10
135.2201789429497
 20
98.99064576921066
 30
0.0
  0
VERTEX
  5
4BB
330
4B9
100
AcDbEntity
  8
Visible (ANSI)
100
AcDbVertex
100
AcDb2dVertex
 10
135.2131894080081
 20
98.98829811274023
 30
0.0
  0
VERTEX
  5
4BD
330
4B9
100
AcDbEntity
  8
Visible (ANSI)
100
AcDbVertex
100
AcDb2dVertex
 10
135.2067029184609
 20
98.98569149788302
 30
0.0
  0
VERTEX
  5
4BE
330
4B9
100
AcDbEntity
  8
Visible (ANSI)
100
AcDbVertex
100
AcDb2dVertex
 10
135.2007472509668
 20
98.98285032643263
 30
0.0
  0
VERTEX
  5
4BF
330
4B9
100
AcDbEntity
  8
Visible (ANSI)
100
AcDbVertex
100
AcDb2dVertex
 10
135.1953479083261
 20
98.97980000443439
 30
0.0
  0
VERTEX
  5
4C0
330
4B9
100
AcDbEntity
  8
Visible (ANSI)
100
AcDbVertex
100
AcDb2dVertex
 10
135.190528012257
 20
98.97655212093594
 30
0.0
  0
VERTEX
  5
4C1
330
4B9
100
AcDbEntity
  8
Visible (ANSI)
100
AcDbVertex
100
AcDb2dVertex
 10
135.1863082011296
 20
98.97313382227201
 30
0.0
  0
VERTEX
  5
4C2
330
4B9
100
AcDbEntity
  8
Visible (ANSI)
100
AcDbVertex
100
AcDb2dVertex
 10
135.1827065449902
 20
98.96957298621462
 30
0.0
  0
VERTEX
  5
4C3
330
4B9
100
AcDbEntity
  8
Visible (ANSI)
100
AcDbVertex
100
AcDb2dVertex
 10
135.1797384682994
 20
98.96588338899377
 30
0.0
  0
VERTEX
  5
4C4
330
4B9
100
AcDbEntity
  8
Visible (ANSI)
100
AcDbVertex
100
AcDb2dVertex
 10
135.1774166799293
 20
98.96209406787136
 30
0.0
  0
VERTEX
  5
4C5
330
4B9
100
AcDbEntity
  8
Visible (ANSI)
100
AcDbVertex
100
AcDb2dVertex
 10
135.1757511161237
 20
98.95823448861012
 30
0.0
  0
VERTEX
  5
4C6
330
4B9
100
AcDbEntity
  8
Visible (ANSI)
100
AcDbVertex
100
AcDb2dVertex
 10
135.1747489192387
 20
98.95431970667125
 30
0.0
  0
VERTEX
  5
4C7
330
4B9
100
AcDbEntity
  8
Visible (ANSI)
100
AcDbVertex
100
AcDb2dVertex
 10
135.1744143786287
 20
98.95037972590678
 30
0.0
  0
VERTEX
  5
4C8
330
4B9
100
AcDbEntity
  8
Visible (ANSI)
100
AcDbVertex
100
AcDb2dVertex
 10
135.1747489213129
 20
98.94643974394787
 30
0.0
  0
VERTEX
  5
4C9
330
4B9
100
AcDbEntity
  8
Visible (ANSI)
100
AcDbVertex
100
AcDb2dVertex
 10
135.1757511202721
 20
98.94252987453377
 30
0.0
  0
VERTEX
  5
4CA
330
4B9
100
AcDbEntity
  8
Visible (ANSI)
100
AcDbVertex
100
AcDb2dVertex
 10
135.1774166799293
 20
98.93866538633105
 30
0.0
  0
VERTEX
  5
4CB
330
4B9
100
AcDbEntity
  8
Visible (ANSI)
100
AcDbVertex
100
AcDb2dVertex
 10
135.1797384651882
 20
98.934876063417
 30
0.0
  0
VERTEX
  5
4CC
330
4B9
100
AcDbEntity
  8
Visible (ANSI)
100
AcDbVertex
100
AcDb2dVertex
 10
135.1827065449902
 20
98.93119137931813
 30
0.0
  0
VERTEX
  5
4CD
330
4B9
100
AcDbEntity
  8
Visible (ANSI)
100
AcDbVertex
100
AcDb2dVertex
 10
135.1863082047593
 20
98.92762563163179
 30
0.0
  0
VERTEX
  5
4CE
330
4B9
100
AcDbEntity
  8
Visible (ANSI)
100
AcDbVertex
100
AcDb2dVertex
 10
135.1905280127756
 20
98.92420733356509
 30
0.0
  0
VERTEX
  5
4CF
330
4B9
100
AcDbEntity
  8
Visible (ANSI)
100
AcDbVertex
100
AcDb2dVertex
 10
135.1953479114374
 20
98.92096436050115
 30
0.0
  0
VERTEX
  5
4D0
330
4B9
100
AcDbEntity
  8
Visible (ANSI)
100
AcDbVertex
100
AcDb2dVertex
 10
135.2007472545966
 20
98.91790912762047
 30
0.0
  0
VERTEX
  5
4D1
330
4B9
100
AcDbEntity
  8
Visible (ANSI)
100
AcDbVertex
100
AcDb2dVertex
 10
135.2067029195628
 20
98.91506795516226
 30
0.0
  0
VERTEX
  5
4D2
330
4B9
100
AcDbEntity
  8
Visible (ANSI)
100
AcDbVertex
100
AcDb2dVertex
 10
135.2131894025149
 20
98.91246133949325
 30
0.0
  0
VERTEX
  5
4D3
330
4B9
100
AcDbEntity
  8
Visible (ANSI)
100
AcDbVertex
100
AcDb2dVertex
 10
135.2201789429498
 20
98.91011368499176
 30
0.0
  0
SEQEND
  5
4BC
330
4B9
100
AcDbEntity
  8
Visible (ANSI)
  0
LINE
  5
4D4
330
6C
100
AcDbEntity
  8
Visible (ANSI)
100
AcDbLine
 10
135.6488552784569
 20
50.43178999446322
 30
0.0
 11
135.8168002899075
 21
50.52850309442926
 31
0.0
  0
LINE
  5
4D5
330
6C
100
AcDbEntity
  8
Visible (ANSI)
100
AcDbLine
 10
135.3058346613355
 20
99.0399739172253
 30
0.0
 11
135.2201789432816
 21
98.99064806972766
 31
0.0
  0
LINE
  5
4D6
330
6C
100
AcDbEntity
  8
Visible (ANSI)
100
AcDbLine
 10
135.2482707726044
 20
98.97447106111007
 30
0.0
 11
135.2201789432816
 21
98.99064806972766
 31
0.0
  0
POLYLINE
  5
4D7
330
6C
100
AcDbEntity
  8
Visible (ANSI)
100
AcDb2dPolyline
 66
     1
 10
0.0
 20
0.0
 30
0.0
 70
   128
  0
VERTEX
  5
4D8
330
4D7
100
AcDbEntity
  8
Visible (ANSI)
100
AcDbVertex
100
AcDb2dVertex
 10
174.5971876520258
 20
27.43705747185269
 30
0.0
  0
VERTEX
  5
4D9
330
4D7
100
AcDbEntity
  8
Visible (ANSI)
100
AcDbVertex
100
AcDb2dVertex
 10
174.5957420483084
 20
27.42980767355347
 30
0.0
  0
VERTEX
  5
4DB
330
4D7
100
AcDbEntity
  8
Visible (ANSI)
100
AcDbVertex
100
AcDb2dVertex
 10
174.5947643077959
 20
27.42286797193721
 30
0.0
  0
VERTEX
  5
4DC
330
4D7
100
AcDbEntity
  8
Visible (ANSI)
100
AcDbVertex
100
AcDb2dVertex
 10
174.5942598813702
 20
27.4162673379499
 30
0.0
  0
VERTEX
  5
4DD
330
4D7
100
AcDbEntity
  8
Visible (ANSI)
100
AcDbVertex
100
AcDb2dVertex
 10
174.5942194768126
 20
27.41004063230346
 30
0.0
  0
VERTEX
  5
4DE
330
4D7
100
AcDbEntity
  8
Visible (ANSI)
100
AcDbVertex
100
AcDb2dVertex
 10
174.594636066883
 20
27.40421866721403
 30
0.0
  0
VERTEX
  5
4DF
330
4D7
100
AcDbEntity
  8
Visible (ANSI)
100
AcDbVertex
100
AcDb2dVertex
 10
174.5954964184664
 20
27.39883297401743
 30
0.0
  0
VERTEX
  5
4E0
330
4D7
100
AcDbEntity
  8
Visible (ANSI)
100
AcDbVertex
100
AcDb2dVertex
 10
174.5967981172454
 20
27.39390586966665
 30
0.0
  0
VERTEX
  5
4E1
330
4D7
100
AcDbEntity
  8
Visible (ANSI)
100
AcDbVertex
100
AcDb2dVertex
 10
174.598524138548
 20
27.38946505698124
 30
0.0
  0
VERTEX
  5
4E2
330
4D7
100
AcDbEntity
  8
Visible (ANSI)
100
AcDbVertex
100
AcDb2dVertex
 10
174.6006556490385
 20
27.38553614686801
 30
0.0
  0
VERTEX
  5
4E3
330
4D7
100
AcDbEntity
  8
Visible (ANSI)
100
AcDbVertex
100
AcDb2dVertex
 10
174.6031847835174
 20
27.38213522376332
 30
0.0
  0
VERTEX
  5
4E4
330
4D7
100
AcDbEntity
  8
Visible (ANSI)
100
AcDbVertex
100
AcDb2dVertex
 10
174.6060892655503
 20
27.37928344577137
 30
0.0
  0
VERTEX
  5
4E5
330
4D7
100
AcDbEntity
  8
Visible (ANSI)
100
AcDbVertex
100
AcDb2dVertex
 10
174.6093452091572
 20
27.37699962204151
 30
0.0
  0
VERTEX
  5
4E6
330
4D7
100
AcDbEntity
  8
Visible (ANSI)
100
AcDbVertex
100
AcDb2dVertex
 10
174.6129399412455
 20
27.37529279489542
 30
0.0
  0
VERTEX
  5
4E7
330
4D7
100
AcDbEntity
  8
Visible (ANSI)
100
AcDbVertex
100
AcDb2dVertex
 10
174.6168466222376
 20
27.37417687114091
 30
0.0
  0
VERTEX
  5
4E8
330
4D7
100
AcDbEntity
  8
Visible (ANSI)
100
AcDbVertex
100
AcDb2dVertex
 10
174.6210370726507
 20
27.37366322577281
 30
0.0
  0
VERTEX
  5
4E9
330
4D7
100
AcDbEntity
  8
Visible (ANSI)
100
AcDbVertex
100
AcDb2dVertex
 10
174.6254946162714
 20
27.37375331642846
 30
0.0
  0
VERTEX
  5
4EA
330
4D7
100
AcDbEntity
  8
Visible (ANSI)
100
AcDbVertex
100
AcDb2dVertex
 10
174.630188717376
 20
27.3744533566313
 30
0.0
  0
VERTEX
  5
4EB
330
4D7
100
AcDbEntity
  8
Visible (ANSI)
100
AcDbVertex
100
AcDb2dVertex
 10
174.63509207385
 20
27.3757644966454
 30
0.0
  0
VERTEX
  5
4EC
330
4D7
100
AcDbEntity
  8
Visible (ANSI)
100
AcDbVertex
100
AcDb2dVertex
 10
174.6401722355238
 20
27.37768771559369
 30
0.0
  0
VERTEX
  5
4ED
330
4D7
100
AcDbEntity
  8
Visible (ANSI)
100
AcDbVertex
100
AcDb2dVertex
 10
174.6454087221818
 20
27.38021404422382
 30
0.0
  0
VERTEX
  5
4EE
330
4D7
100
AcDbEntity
  8
Visible (ANSI)
100
AcDbVertex
100
AcDb2dVertex
 10
174.6507676609131
 20
27.38333925906009
 30
0.0
  0
VERTEX
  5
4EF
330
4D7
100
AcDbEntity
  8
Visible (ANSI)
100
AcDbVertex
100
AcDb2dVertex
 10
174.6562146519712
 20
27.38705657114962
 30
0.0
  0
VERTEX
  5
4F0
330
4D7
100
AcDbEntity
  8
Visible (ANSI)
100
AcDbVertex
100
AcDb2dVertex
 10
174.6617276448749
 20
27.39134932885596
 30
0.0
  0
VERTEX
  5
4F1
330
4D7
100
AcDbEntity
  8
Visible (ANSI)
100
AcDbVertex
100
AcDb2dVertex
 10
174.6672715805552
 20
27.39620574386886
 30
0.0
  0
SEQEND
  5
4DA
330
4D7
100
AcDbEntity
  8
Visible (ANSI)
  0
POLYLINE
  5
4F2
330
6C
100
AcDbEntity
  8
Visible (ANSI)
100
AcDb2dPolyline
 66
     1
 10
0.0
 20
0.0
 30
0.0
 70
   128
  0
VERTEX
  5
4F3
330
4F2
100
AcDbEntity
  8
Visible (ANSI)
100
AcDbVertex
100
AcDb2dVertex
 10
135.2729417902729
 20
50.02932746874974
 30
0.0
  0
VERTEX
  5
4F4
330
4F2
100
AcDbEntity
  8
Visible (ANSI)
100
AcDbVertex
100
AcDb2dVertex
 10
135.2695725230825
 20
50.03136471346015
 30
0.0
  0
VERTEX
  5
4F6
330
4F2
100
AcDbEntity
  8
Visible (ANSI)
100
AcDbVertex
100
AcDb2dVertex
 10
135.2662898809404
 20
50.03354599683382
 30
0.0
  0
VERTEX
  5
4F7
330
4F2
100
AcDbEntity
  8
Visible (ANSI)
100
AcDbVertex
100
AcDb2dVertex
 10
135.2630964938763
 20
50.0358694952343
 30
0.0
  0
VERTEX
  5
4F8
330
4F2
100
AcDbEntity
  8
Visible (ANSI)
100
AcDbVertex
100
AcDb2dVertex
 10
135.2599948799155
 20
50.03833322939786
 30
0.0
  0
VERTEX
  5
4F9
330
4F2
100
AcDbEntity
  8
Visible (ANSI)
100
AcDbVertex
100
AcDb2dVertex
 10
135.2569874782654
 20
50.0409350787481
 30
0.0
  0
VERTEX
  5
4FA
330
4F2
100
AcDbEntity
  8
Visible (ANSI)
100
AcDbVertex
100
AcDb2dVertex
 10
135.2540766078324
 20
50.04367275271129
 30
0.0
  0
VERTEX
  5
4FB
330
4F2
100
AcDbEntity
  8
Visible (ANSI)
100
AcDbVertex
100
AcDb2dVertex
 10
135.2512645004081
 20
50.04654383860439
 30
0.0
  0
VERTEX
  5
4FC
330
4F2
100
AcDbEntity
  8
Visible (ANSI)
100
AcDbVertex
100
AcDb2dVertex
 10
135.2485532716316
 20
50.04954576572825
 30
0.0
  0
VERTEX
  5
4FD
330
4F2
100
AcDbEntity
  8
Visible (ANSI)
100
AcDbVertex
100
AcDb2dVertex
 10
135.2459449375826
 20
50.05267582931171
 30
0.0
  0
VERTEX
  5
4FE
330
4F2
100
AcDbEntity
  8
Visible (ANSI)
100
AcDbVertex
100
AcDb2dVertex
 10
135.2434413815946
 20
50.05593117619699
 30
0.0
  0
VERTEX
  5
4FF
330
4F2
100
AcDbEntity
  8
Visible (ANSI)
100
AcDbVertex
100
AcDb2dVertex
 10
135.2410444040349
 20
50.05930883830205
 30
0.0
  0
VERTEX
  5
500
330
4F2
100
AcDbEntity
  8
Visible (ANSI)
100
AcDbVertex
100
AcDb2dVertex
 10
135.2387556725249
 20
50.06280569915832
 30
0.0
  0
VERTEX
  5
501
330
4F2
100
AcDbEntity
  8
Visible (ANSI)
100
AcDbVertex
100
AcDb2dVertex
 10
135.2365767385332
 20
50.06641851305836
 30
0.0
  0
VERTEX
  5
502
330
4F2
100
AcDbEntity
  8
Visible (ANSI)
100
AcDbVertex
100
AcDb2dVertex
 10
135.2345090373758
 20
50.07014391464844
 30
0.0
  0
VERTEX
  5
503
330
4F2
100
AcDbEntity
  8
Visible (ANSI)
100
AcDbVertex
100
AcDb2dVertex
 10
135.2325538882158
 20
50.07397842852092
 30
0.0
  0
VERTEX
  5
504
330
4F2
100
AcDbEntity
  8
Visible (ANSI)
100
AcDbVertex
100
AcDb2dVertex
 10
135.2307124940637
 20
50.07791844043691
 30
0.0
  0
VERTEX
  5
505
330
4F2
100
AcDbEntity
  8
Visible (ANSI)
100
AcDbVertex
100
AcDb2dVertex
 10
135.2289859168873
 20
50.08196024534406
 30
0.0
  0
VERTEX
  5
506
330
4F2
100
AcDbEntity
  8
Visible (ANSI)
100
AcDbVertex
100
AcDb2dVertex
 10
135.2273751190949
 20
50.08610000411799
 30
0.0
  0
VERTEX
  5
507
330
4F2
100
AcDbEntity
  8
Visible (ANSI)
100
AcDbVertex
100
AcDb2dVertex
 10
135.2258809137557
 20
50.09033379163561
 30
0.0
  0
VERTEX
  5
508
330
4F2
100
AcDbEntity
  8
Visible (ANSI)
100
AcDbVertex
100
AcDb2dVertex
 10
135.2245040143794
 20
50.09465757747905
 30
0.0
  0
VERTEX
  5
509
330
4F2
100
AcDbEntity
  8
Visible (ANSI)
100
AcDbVertex
100
AcDb2dVertex
 10
135.2232449768396
 20
50.09906722126918
 30
0.0
  0
VERTEX
  5
50A
330
4F2
100
AcDbEntity
  8
Visible (ANSI)
100
AcDbVertex
100
AcDb2dVertex
 10
135.2221042657473
 20
50.10355851088716
 30
0.0
  0
VERTEX
  5
50B
330
4F2
100
AcDbEntity
  8
Visible (ANSI)
100
AcDbVertex
100
AcDb2dVertex
 10
135.2210821880777
 20
50.10812713384526
 30
0.0
  0
VERTEX
  5
50C
330
4F2
100
AcDbEntity
  8
Visible (ANSI)
100
AcDbVertex
100
AcDb2dVertex
 10
135.2201789429496
 20
50.11276868676826
 30
0.0
  0
SEQEND
  5
4F5
330
4F2
100
AcDbEntity
  8
Visible (ANSI)
  0
LINE
  5
50D
330
6C
100
AcDbEntity
  8
Visible (ANSI)
100
AcDbLine
 10
135.7116745588754
 20
50.32372086002705
 30
0.0
 11
135.8793002899076
 21
50.42025009862822
 31
0.0
  0
LINE
  5
50E
330
6C
100
AcDbEntity
  8
Visible (ANSI)
100
AcDbLine
 10
174.6672703420857
 20
27.4293419593035
 30
0.0
 11
174.6672703420857
 21
27.39620645743828
 31
0.0
  0
LINE
  5
50F
330
6C
100
AcDbEntity
  8
Visible (ANSI)
100
AcDbLine
 10
174.6672703420857
 20
27.39620645743828
 30
0.0
 11
174.7588666966414
 21
27.44895328997684
 31
0.0
  0
LINE
  5
510
330
6C
100
AcDbEntity
  8
Visible (ANSI)
100
AcDbLine
 10
174.8154911165635
 20
27.48156112475049
 30
0.0
 11
175.1755033410634
 21
27.68887837672656
 31
0.0
  0
LINE
  5
511
330
6C
100
AcDbEntity
  8
Visible (ANSI)
100
AcDbLine
 10
175.1755033410634
 20
27.68955176575008
 30
0.0
 11
175.1755033410634
 21
27.68887837672656
 31
0.0
  0
LINE
  5
512
330
6C
100
AcDbEntity
  8
Visible (ANSI)
100
AcDbLine
 10
174.726582249844
 20
76.2410162014678
 30
0.0
 11
174.7334958948392
 21
76.23643985773035
 31
0.0
  0
LINE
  5
513
330
6C
100
AcDbEntity
  8
Visible (ANSI)
100
AcDbLine
 10
174.6672715805554
 20
76.35103058378945
 30
0.0
 11
174.6677613489211
 21
76.3429589765013
 31
0.0
  0
LINE
  5
514
330
6C
100
AcDbEntity
  8
Visible (ANSI)
100
AcDbLine
 10
175.3263916887118
 20
76.4803600166484
 30
0.0
 11
175.3263916887117
 21
27.77644258628575
 31
0.0
  0
LINE
  5
515
330
6C
100
AcDbEntity
  8
Visible (ANSI)
100
AcDbLine
 10
135.8793002899077
 20
99.37088419857513
 30
0.0
 11
175.1755033410635
 21
76.74170586727884
 31
0.0
  0
LINE
  5
516
330
6C
100
AcDbEntity
  8
Visible (ANSI)
100
AcDbLine
 10
135.8168002899075
 20
50.52850309442926
 30
0.0
 11
135.8168002899075
 21
50.56301479785147
 31
0.0
  0
LINE
  5
517
330
6C
100
AcDbEntity
  8
Visible (ANSI)
100
AcDbLine
 10
135.8168002899076
 20
74.03952872327899
 30
0.0
 11
135.8168002899076
 21
74.37407480889039
 31
0.0
  0
LINE
  5
518
330
6C
100
AcDbEntity
  8
Visible (ANSI)
100
AcDbLine
 10
135.8168002899077
 20
97.85058873431786
 30
0.0
 11
135.8168002899077
 21
98.18513481992926
 31
0.0
  0
LINE
  5
519
330
6C
100
AcDbEntity
  8
Visible (ANSI)
100
AcDbLine
 10
174.2684683426784
 20
28.31339848435492
 30
0.0
 11
173.9783031366783
 21
28.48049351344885
 31
0.0
  0
LINE
  5
51A
330
6C
100
AcDbEntity
  8
Visible (ANSI)
100
AcDbLine
 10
155.0881969029906
 20
39.35858222097042
 30
0.0
 11
154.7980316969904
 21
39.52567725006437
 31
0.0
  0
LINE
  5
51B
330
6C
100
AcDbEntity
  8
Visible (ANSI)
100
AcDbLine
 10
135.9079254633025
 20
50.40376595758599
 30
0.0
 11
135.8793002899076
 21
50.42025009862822
 31
0.0
  0
SPLINE
  5
51C
330
6C
100
AcDbEntity
  8
Visible (ANSI)
100
AcDbSpline
210
0.0
220
0.0
230
1.0
 70
     8
 71
     3
 72
    11
 73
     7
 74
     0
 42
0.0000000001
 43
0.0000000001
 40
0.0
 40
0.0
 40
0.0
 40
0.0
 40
0.9920593819029146
 40
0.9920593819029146
 40
0.9920593819029146
 40
1.570796326794638
 40
1.570796326794638
 40
1.570796326794638
 40
1.570796326794638
 10
88.832715373296
 20
117.5192554406209
 30
0.0
 10
88.8843851327701
 20
117.5192554406209
 30
0.0
 10
88.93525905847424
 20
117.5467862921845
 30
0.0
 10
88.96352071188287
 20
117.5900418466339
 30
0.0
 10
88.98000769164404
 20
117.6152758073103
 30
0.0
 10
88.988965373296
 20
117.6453628914077
 30
0.0
 10
88.988965373296
 20
117.6755054406208
 30
0.0
  0
LINE
  5
51D
330
6C
100
AcDbEntity
  8
Visible (ANSI)
100
AcDbLine
 10
88.86396537329598
 20
117.6755054406209
 30
0.0
 11
88.86396537329595
 21
118.3942554406208
 31
0.0
  0
LINE
  5
51E
330
6C
100
AcDbEntity
  8
Visible (ANSI)
100
AcDbLine
 10
88.86396537329598
 20
117.6755054406209
 30
0.0
 11
88.988965373296
 21
117.6755054406209
 31
0.0
  0
SPLINE
  5
51F
330
6C
100
AcDbEntity
  8
Visible (ANSI)
100
AcDbSpline
210
0.0
220
0.0
230
1.0
 70
     8
 71
     3
 72
    11
 73
     7
 74
     0
 42
0.0000000001
 43
0.0000000001
 40
0.0
 40
0.0
 40
0.0
 40
0.0
 40
1.483474787627561
 40
1.483474787627561
 40
1.483474787627561
 40
1.570796326794638
 40
1.570796326794638
 40
1.570796326794638
 40
1.570796326794638
 10
88.832715373296
 20
117.6442554406209
 30
0.0
 10
88.84816823566714
 20
117.6442554406209
 30
0.0
 10
88.86249865400921
 20
117.6573861237072
 30
0.0
 10
88.86384630755667
 20
117.6727801090709
 30
0.0
 10
88.86392563427191
 20
117.6736862427693
 30
0.0
 10
88.863965373296
 20
117.6745958412545
 30
0.0
 10
88.863965373296
 20
117.6755054406209
 30
0.0
  0
LINE
  5
520
330
6C
100
AcDbEntity
  8
Visible (ANSI)
100
AcDbLine
 10
88.832715373296
 20
117.6442554406209
 30
0.0
 11
88.832715373296
 21
117.6391300387476
 31
0.0
  0
LINE
  5
521
330
6C
100
AcDbEntity
  8
Visible (ANSI)
100
AcDbLine
 10
88.832715373296
 20
117.6391300387476
 30
0.0
 11
88.832715373296
 21
117.5192554406209
 31
0.0
  0
LINE
  5
522
330
6C
100
AcDbEntity
  8
Visible (ANSI)
100
AcDbLine
 10
88.988965373296
 20
117.6755054406209
 30
0.0
 11
88.98896537329594
 21
118.3942554406208
 31
0.0
  0
LINE
  5
523
330
6C
100
AcDbEntity
  8
Visible (ANSI)
100
AcDbLine
 10
88.86396537329595
 20
118.3942554406208
 30
0.0
 11
88.98896537329594
 21
118.3942554406208
 31
0.0
  0
SPLINE
  5
524
330
6C
100
AcDbEntity
  8
Visible (ANSI)
100
AcDbSpline
210
0.0
220
0.0
230
1.0
 70
     8
 71
     3
 72
    11
 73
     7
 74
     0
 42
0.0000000001
 43
0.0000000001
 40
0.0
 40
0.0
 40
0.0
 40
0.0
 40
0.9920593819026196
 40
0.9920593819026196
 40
0.9920593819026196
 40
1.570796326794898
 40
1.570796326794898
 40
1.570796326794898
 40
1.570796326794898
 10
33.145215373296
 20
117.5192554406209
 30
0.0
 10
33.15724422619564
 20
117.5192554406209
 30
0.0
 10
33.16927307909528
 20
117.5467862921846
 30
0.0
 10
33.18130193199491
 20
117.5900418466339
 30
0.0
 10
33.18831919497804
 20
117.6152758073104
 30
0.0
 10
33.19533645796118
 20
117.6453628914078
 30
0.0
 10
33.20235372094431
 20
117.6755054406209
 30
0.0
  0
SPLINE
  5
525
330
6C
100
AcDbEntity
  8
Visible (ANSI)
100
AcDbSpline
210
0.0
220
0.0
230
1.0
 70
     8
 71
     3
 72
    11
 73
     7
 74
     0
 42
0.0000000001
 43
0.0000000001
 40
0.0
 40
0.0
 40
0.0
 40
0.0
 40
0.9920593819026398
 40
0.9920593819026398
 40
0.9920593819026398
 40
1.570796326795287
 40
1.570796326795287
 40
1.570796326795287
 40
1.570796326795287
 10
88.77557702564768
 20
117.675505440621
 30
0.0
 10
88.78760587854731
 20
117.6238356811469
 30
0.0
 10
88.79963473144693
 20
117.5729617554428
 30
0.0
 10
88.81166358434656
 20
117.5447001020341
 30
0.0
 10
88.81868084732969
 20
117.5282131222729
 30
0.0
 10
88.82569811031283
 20
117.5192554406209
 30
0.0
 10
88.83271537329596
 20
117.5192554406209
 30
0.0
  0
LINE
  5
526
330
6C
100
AcDbEntity
  8
Visible (ANSI)
100
AcDbLine
 10
88.77557702564768
 20
118.394255440621
 30
0.0
 11
88.77557702564768
 21
117.6755054406209
 31
0.0
  0
SPLINE
  5
527
330
6C
100
AcDbEntity
  8
Visible (ANSI)
100
AcDbSpline
210
0.0
220
0.0
230
1.0
 70
     8
 71
     3
 72
    11
 73
     7
 74
     0
 42
0.0000000001
 43
0.0000000001
 40
0.0
 40
0.0
 40
0.0
 40
0.0
 40
1.483474787630861
 40
1.483474787630861
 40
1.483474787630861
 40
1.570796326795287
 40
1.570796326795287
 40
1.570796326795287
 40
1.570796326795287
 10
88.83271537329596
 20
117.6442554406209
 30
0.0
 10
88.81472804277299
 20
117.6442554406209
 30
0.0
 10
88.79674071224998
 20
117.6573861237073
 30
0.0
 10
88.77875338172698
 20
117.672780109071
 30
0.0
 10
88.77769459636722
 20
117.6736862427694
 30
0.0
 10
88.77663581100744
 20
117.6745958412546
 30
0.0
 10
88.77557702564768
 20
117.6755054406209
 30
0.0
  0
SPLINE
  5
528
330
6C
100
AcDbEntity
  8
Visible (ANSI)
100
AcDbSpline
210
0.0
220
0.0
230
1.0
 70
     8
 71
     3
 72
    11
 73
     7
 74
     0
 42
0.0000000001
 43
0.0000000001
 40
0.0
 40
0.0
 40
0.0
 40
0.0
 40
1.483474787630861
 40
1.483474787630861
 40
1.483474787630861
 40
1.570796326794898
 40
1.570796326794898
 40
1.570796326794898
 40
1.570796326794898
 10
33.145215373296
 20
117.6442554406209
 30
0.0
 10
33.16320270381901
 20
117.6442554406209
 30
0.0
 10
33.18119003434202
 20
117.6573861237073
 30
0.0
 10
33.19917736486502
 20
117.672780109071
 30
0.0
 10
33.20023615022478
 20
117.6736862427694
 30
0.0
 10
33.20129493558455
 20
117.6745958412546
 30
0.0
 10
33.20235372094431
 20
117.6755054406209
 30
0.0
  0
LINE
  5
529
330
6C
100
AcDbEntity
  8
Visible (ANSI)
100
AcDbLine
 10
33.14521537329599
 20
117.6442554406209
 30
0.0
 11
33.145215373296
 21
117.6391300387476
 31
0.0
  0
LINE
  5
52A
330
6C
100
AcDbEntity
  8
Visible (ANSI)
100
AcDbLine
 10
33.145215373296
 20
117.6391300387476
 30
0.0
 11
33.14521537329599
 21
117.5192554406209
 31
0.0
  0
LINE
  5
52B
330
6C
100
AcDbEntity
  8
Visible (ANSI)
100
AcDbLine
 10
33.20235372094431
 20
117.6755054406209
 30
0.0
 11
33.20235372094431
 21
118.3942554406209
 31
0.0
  0
SPLINE
  5
52C
330
6C
100
AcDbEntity
  8
Visible (ANSI)
100
AcDbSpline
210
0.0
220
0.0
230
1.0
 70
     8
 71
     3
 72
    11
 73
     7
 74
     0
 42
0.0000000001
 43
0.0000000001
 40
0.0
 40
0.0
 40
0.0
 40
0.0
 40
0.9920593819024864
 40
0.9920593819024864
 40
0.9920593819024864
 40
1.570796326794891
 40
1.570796326794891
 40
1.570796326794891
 40
1.570796326794891
 10
32.98896537329599
 20
117.6755054406209
 30
0.0
 10
32.98896537329599
 20
117.6238356811468
 30
0.0
 10
33.01649622485962
 20
117.5729617554427
 30
0.0
 10
33.05975177930896
 20
117.5447001020341
 30
0.0
 10
33.08498573998541
 20
117.5282131222729
 30
0.0
 10
33.11507282408284
 20
117.5192554406209
 30
0.0
 10
33.14521537329599
 20
117.5192554406209
 30
0.0
  0
LINE
  5
52D
330
6C
100
AcDbEntity
  8
Visible (ANSI)
100
AcDbLine
 10
33.11396537329599
 20
117.6755054406209
 30
0.0
 11
33.11396537329599
 21
118.3942554406209
 31
0.0
  0
LINE
  5
52E
330
6C
100
AcDbEntity
  8
Visible (ANSI)
100
AcDbLine
 10
32.98896537329599
 20
118.3942554406209
 30
0.0
 11
32.98896537329599
 21
117.6755054406209
 31
0.0
  0
LINE
  5
52F
330
6C
100
AcDbEntity
  8
Visible (ANSI)
100
AcDbLine
 10
33.11396537329599
 20
117.6755054406209
 30
0.0
 11
32.98896537329599
 21
117.6755054406209
 31
0.0
  0
LINE
  5
530
330
6C
100
AcDbEntity
  8
Visible (ANSI)
100
AcDbLine
 10
33.11396537329599
 20
118.3942554406209
 30
0.0
 11
32.98896537329599
 21
118.3942554406209
 31
0.0
  0
SPLINE
  5
531
330
6C
100
AcDbEntity
  8
Visible (ANSI)
100
AcDbSpline
210
0.0
220
0.0
230
1.0
 70
     8
 71
     3
 72
    11
 73
     7
 74
     0
 42
0.0000000001
 43
0.0000000001
 40
0.0
 40
0.0
 40
0.0
 40
0.0
 40
1.483474787626958
 40
1.483474787626958
 40
1.483474787626958
 40
1.570796326794891
 40
1.570796326794891
 40
1.570796326794891
 40
1.570796326794891
 10
33.14521537329599
 20
117.6442554406209
 30
0.0
 10
33.12976251092488
 20
117.6442554406209
 30
0.0
 10
33.11543209258277
 20
117.6573861237072
 30
0.0
 10
33.11408443903532
 20
117.6727801090709
 30
0.0
 10
33.11400511232009
 20
117.6736862427693
 30
0.0
 10
33.11396537329599
 20
117.6745958412545
 30
0.0
 10
33.11396537329599
 20
117.6755054406209
 30
0.0
  0
LINE
  5
532
330
6C
100
AcDbEntity
  8
Visible (ANSI)
100
AcDbLine
 10
88.832715373296
 20
117.5192554406209
 30
0.0
 11
33.14521537329599
 21
117.5192554406209
 31
0.0
  0
LINE
  5
533
330
6C
100
AcDbEntity
  8
Hidden (ANSI)
100
AcDbLine
 10
33.14521537329599
 20
117.6442554406209
 30
0.0
 11
88.832715373296
 21
117.6442554406209
 31
0.0
  0
LINE
  5
534
330
6C
100
AcDbEntity
  8
Visible (ANSI)
100
AcDbLine
 10
33.20235372094431
 20
118.3942554406209
 30
0.0
 11
88.77557702564768
 21
118.394255440621
 31
0.0
  0
LINE
  5
535
330
6C
100
AcDbEntity
  8
Hidden (ANSI)
100
AcDbLine
 10
61.27046537329601
 20
117.6442554406207
 30
0.0
 11
61.27046537329601
 21
117.5192554406207
 31
0.0
  0
LINE
  5
536
330
6C
100
AcDbEntity
  8
Hidden (ANSI)
100
AcDbLine
 10
60.707465373296
 20
117.6442554406207
 30
0.0
 11
60.707465373296
 21
117.5192554406207
 31
0.0
  0
LINE
  5
537
330
6C
100
AcDbEntity
  8
Hidden (ANSI)
100
AcDbLine
 10
88.39546537329599
 20
117.6442554406207
 30
0.0
 11
88.39546537329599
 21
117.5192554406207
 31
0.0
  0
LINE
  5
538
330
6C
100
AcDbEntity
  8
Hidden (ANSI)
100
AcDbLine
 10
87.83246537329599
 20
117.6442554406207
 30
0.0
 11
87.83246537329599
 21
117.5192554406207
 31
0.0
  0
LINE
  5
539
330
6C
100
AcDbEntity
  8
Hidden (ANSI)
100
AcDbLine
 10
34.14546537329599
 20
117.6442554406207
 30
0.0
 11
34.14546537329599
 21
117.5192554406207
 31
0.0
  0
LINE
  5
53A
330
6C
100
AcDbEntity
  8
Hidden (ANSI)
100
AcDbLine
 10
33.58246537329599
 20
117.6442554406207
 30
0.0
 11
33.58246537329599
 21
117.5192554406207
 31
0.0
  0
MTEXT
  5
53B
330
6C
100
AcDbEntity
  8
Symbol (ANSI)
100
AcDbMText
 10
56.32239867702307
 20
111.7157571206221
 30
0.0
 40
1.440000017796914
 41
0.0
 46
0.0
 71
     7
 72
     1
  1
TOP VIEW
  7
Text Style153
 73
     1
 44
1.0
  0
LINE
  5
53C
330
6C
100
AcDbEntity
  8
Symbol (ANSI)
370
    30
100
AcDbLine
 10
56.32355067998644
 20
111.4220974721234
 30
0.0
 11
65.40932040839921
 21
111.4220974721234
 31
0.0
  0
LINE
  5
53D
330
6C
100
AcDbEntity
  8
Center Mark (ANSI)
  6
Continuous
100
AcDbLine
 10
33.86396537327978
 20
94.26456285186258
 30
0.0
 11
33.86396537327978
 21
90.70156285186259
 31
0.0
  0
LINE
  5
53E
330
6C
100
AcDbEntity
  8
Center Mark (ANSI)
  6
Continuous
100
AcDbLine
 10
88.11396537327977
 20
94.26456285186258
 30
0.0
 11
88.11396537327977
 21
90.70156285186259
 31
0.0
  0
LINE
  5
53F
330
6C
100
AcDbEntity
  8
Centerline (ANSI)
  6
Continuous
100
AcDbLine
 10
32.08246537327978
 20
92.48306285186258
 30
0.0
 11
89.89546537327978
 21
92.48306285186258
 31
0.0
  0
LINE
  5
540
330
6C
100
AcDbEntity
  8
Center Mark (ANSI)
  6
Continuous
100
AcDbLine
 10
89.89546537327978
 20
92.48306285186258
 30
0.0
 11
86.33246537327979
 21
92.48306285186258
 31
0.0
  0
LINE
  5
541
330
6C
100
AcDbEntity
  8
Center Mark (ANSI)
  6
Continuous
100
AcDbLine
 10
89.89546537327978
 20
34.2330628518626
 30
0.0
 11
86.33246537327979
 21
34.2330628518626
 31
0.0
  0
LINE
  5
542
330
6C
100
AcDbEntity
  8
Centerline (ANSI)
  6
Continuous
100
AcDbLine
 10
88.11396537327977
 20
94.26456285186258
 30
0.0
 11
88.11396537327977
 21
32.4515628518626
 31
0.0
  0
LINE
  5
543
330
6C
100
AcDbEntity
  8
Center Mark (ANSI)
  6
Continuous
100
AcDbLine
 10
88.11396537327977
 20
32.4515628518626
 30
0.0
 11
88.11396537327977
 21
36.0145628518626
 31
0.0
  0
LINE
  5
544
330
6C
100
AcDbEntity
  8
Center Mark (ANSI)
  6
Continuous
100
AcDbLine
 10
33.86396537327978
 20
32.4515628518626
 30
0.0
 11
33.86396537327978
 21
36.0145628518626
 31
0.0
  0
LINE
  5
545
330
6C
100
AcDbEntity
  8
Centerline (ANSI)
  6
Continuous
100
AcDbLine
 10
89.89546537327978
 20
34.2330628518626
 30
0.0
 11
32.08246537327978
 21
34.2330628518626
 31
0.0
  0
LINE
  5
546
330
6C
100
AcDbEntity
  8
Center Mark (ANSI)
  6
Continuous
100
AcDbLine
 10
32.08246537327978
 20
34.2330628518626
 30
0.0
 11
35.64546537327978
 21
34.2330628518626
 31
0.0
  0
LINE
  5
547
330
6C
100
AcDbEntity
  8
Center Mark (ANSI)
  6
Continuous
100
AcDbLine
 10
32.08246537327978
 20
92.48306285186258
 30
0.0
 11
35.64546537327978
 21
92.48306285186258
 31
0.0
  0
LINE
  5
548
330
6C
100
AcDbEntity
  8
Centerline (ANSI)
  6
Continuous
100
AcDbLine
 10
33.86396537327978
 20
32.4515628518626
 30
0.0
 11
33.86396537327978
 21
94.26456285186258
 31
0.0
  0
LINE
  5
549
330
6C
100
AcDbEntity
  8
Center Mark (ANSI)
  6
Continuous
100
AcDbLine
 10
33.8639653732798
 20
65.1395628518626
 30
0.0
 11
33.8639653732798
 21
61.5765628518626
 31
0.0
  0
LINE
  5
54A
330
6C
100
AcDbEntity
  8
Center Mark (ANSI)
  6
Continuous
100
AcDbLine
 10
88.11396537327977
 20
65.13956285186262
 30
0.0
 11
88.11396537327977
 21
61.57656285186263
 31
0.0
  0
LINE
  5
54B
330
6C
100
AcDbEntity
  8
Centerline (ANSI)
  6
Continuous
100
AcDbLine
 10
32.0824653732798
 20
63.35806285186261
 30
0.0
 11
89.89546537327978
 21
63.35806285186261
 31
0.0
  0
DIMENSION
  5
54C
330
6C
100
AcDbEntity
  8
Dimension (ANSI)
100
AcDbDimension
280
     0
  2
*D4
 10
88.98896537327978
 20
104.7237288303488
 30
0.0
 11
60.98896537327979
 21
104.7237288303488
 31
0.0
 70
   160
  1
<>
 42
56.0
 73
     0
 74
     0
 75
     0
  3
Default (ANSI)
100
AcDbAlignedDimension
 13
32.98896537327979
 23
93.14467450421428
 33
0.0
 14
88.98896537327978
 24
93.14467450421428
 34
0.0
100
AcDbRotatedDimension
1001
ACAD
1000
DSTYLE
1002
{
1070
   289
1070
     1
1070
    73
1070
     0
1070
    74
1070
     0
1070
   271
1070
     2
1070
   272
1070
     2
1070
    48
1040
0.0
1070
    47
1040
0.0
1002
}
  0
DIMENSION
  5
638
330
6C
100
AcDbEntity
  8
Dimension (ANSI)
100
AcDbDimension
280
     0
  2
*D5
 10
33.86396537327978
 20
97.89822363896629
 30
0.0
 11
27.79283791164362
 21
97.89822363896629
 31
0.0
 70
   160
  1
<>
 42
0.875
 73
     0
 74
     0
 75
     0
  3
Default (ANSI)
100
AcDbAlignedDimension
 13
32.98896537327979
 23
93.14467450421428
 33
0.0
 14
33.86396537327978
 24
94.26456285186258
 34
0.0
100
AcDbRotatedDimension
1001
ACAD
1000
DSTYLE
1002
{
1070
   289
1070
     1
1070
    73
1070
     0
1070
    74
1070
     0
1070
   271
1070
     2
1070
   272
1070
     2
1070
    48
1040
0.0
1070
    47
1040
0.0
1002
}
  0
DIMENSION
  5
722
330
6C
100
AcDbEntity
  8
Dimension (ANSI)
100
AcDbDimension
280
     0
  2
*D6
 10
60.9889653732798
 20
97.89182233846156
 30
0.0
 11
44.61092228173315
 21
97.89182233846156
 31
0.0
 70
   160
  1
<>
 42
27.12500000000002
 73
     0
 74
     0
 75
     0
  3
Default (ANSI)
100
AcDbAlignedDimension
 13
33.86396537327978
 23
94.26456285186258
 33
0.0
 14
60.9889653732798
 24
94.26456285186258
 34
0.0
 50
180.0
100
AcDbRotatedDimension
1001
ACAD
1000
DSTYLE
1002
{
1070
   289
1070
     1
1070
    73
1070
     0
1070
    74
1070
     0
1070
   271
1070
     2
1070
   272
1070
     2
1070
    48
1040
0.0
1070
    47
1040
0.0
1002
}
  0
DIMENSION
  5
80C
330
6C
100
AcDbEntity
  8
Dimension (ANSI)
100
AcDbDimension
280
     0
  2
*D7
 10
31.85355483633165
 20
34.2330628518626
 30
0.0
 11
28.4488045861761
 21
29.91409086127693
 31
0.0
 70
   160
  1
<>
 42
0.8749999999999928
 73
     0
 74
     0
 75
     0
  3
Default (ANSI)
100
AcDbAlignedDimension
 13
33.20235372092812
 23
33.35806285186261
 33
0.0
 14
32.08246537327978
 24
34.2330628518626
 34
0.0
 50
90.0
100
AcDbRotatedDimension
1001
ACAD
1000
DSTYLE
1002
{
1070
   289
1070
     1
1070
   271
1070
     2
1070
   272
1070
     2
1070
    48
1040
0.0
1070
    47
1040
0.0
1002
}
  0
DIMENSION
  5
90C
330
6C
100
AcDbEntity
  8
Dimension (ANSI)
100
AcDbDimension
280
     0
  2
*D8
 10
28.40246367109515
 20
63.35806285186261
 30
0.0
 11
28.40246367109513
 21
45.7955628518626
 31
0.0
 70
   160
  1
<>
 42
29.12500000000001
 73
     0
 74
     0
 75
     0
  3
Default (ANSI)
100
AcDbAlignedDimension
 13
32.08246537327978
 23
34.2330628518626
 33
0.0
 14
32.0824653732798
 24
63.35806285186261
 34
0.0
 50
90.0
100
AcDbRotatedDimension
1001
ACAD
1000
DSTYLE
1002
{
1070
   289
1070
     1
1070
   271
1070
     2
1070
   272
1070
     2
1070
    48
1040
0.0
1070
    47
1040
0.0
1002
}
  0
DIMENSION
  5
9F6
330
6C
100
AcDbEntity
  8
Dimension (ANSI)
100
AcDbDimension
280
     0
  2
*D9
 10
21.05884332603572
 20
92.48306285186259
 30
0.0
 11
21.0588433260357
 21
63.35806285186258
 31
0.0
 70
   160
  1
<>
 42
58.24999999999999
 73
     0
 74
     0
 75
     0
  3
Default (ANSI)
100
AcDbAlignedDimension
 13
32.08246537327978
 23
34.2330628518626
 33
0.0
 14
32.08246537327978
 24
92.48306285186258
 34
0.0
 50
90.0
100
AcDbRotatedDimension
1001
ACAD
1000
DSTYLE
1002
{
1070
   289
1070
     1
1070
   271
1070
     2
1070
   272
1070
     2
1070
    48
1040
0.0
1070
    47
1040
0.0
1002
}
  0
DIMENSION
  5
AE0
330
6C
100
AcDbEntity
  8
Dimension (ANSI)
100
AcDbDimension
280
     0
  2
*D10
 10
14.08154475101187
 20
93.35806285186258
 30
0.0
 11
14.08154475101185
 21
63.35806285186261
 31
0.0
 70
   160
  1
<>
 42
59.99999999999997
 73
     0
 74
     0
 75
     0
  3
Default (ANSI)
100
AcDbAlignedDimension
 13
33.20235372092812
 23
33.35806285186261
 33
0.0
 14
33.20235372092811
 24
93.35806285186256
 34
0.0
 50
90.0
100
AcDbRotatedDimension
1001
ACAD
1000
DSTYLE
1002
{
1070
   289
1070
     1
1070
   271
1070
     2
1070
   272
1070
     2
1070
    48
1040
0.0
1070
    47
1040
0.0
1002
}
  0
DIMENSION
  5
BCA
330
6C
100
AcDbEntity
  8
Dimension (ANSI)
100
AcDbDimension
280
     0
  2
*D11
 10
87.94195549646673
 20
34.455896539349
 30
0.0
 11
95.4831568880918
 21
31.24574248171438
 31
0.0
 70
   163
  1
<>{\P(8 PL.)}
 71
     4
 42
0.5629999999999999
 73
     0
 74
     0
 75
     0
  3
Default (ANSI)
100
AcDbDiametricDimension
 15
88.28597525009275
 25
34.01022916437623
 35
0.0
 40
0.0
1001
ACAD
1000
DSTYLE
1002
{
1070
   144
1040
0.9999999999999577
1070
   271
1070
     3
1070
   272
1070
     3
1070
    48
1040
0.0
1070
    47
1040
0.0
1002
}
1001
ACAD_DSTYLE_DIMRADIAL_EXTENSION
1070
   387
1070
     1
1070
   388
1040
0.0
1070
   390
1040
0.0
  0
DIMENSION
  5
C85
330
6C
100
AcDbEntity
  8
Dimension (ANSI)
100
AcDbDimension
280
     0
  2
*D12
 10
78.64869154992793
 20
117.5192554406209
 30
0.0
 11
82.11001668443747
 21
123.4582274512282
 31
0.0
 70
   160
  1
<>{\PTYP.}
 71
     5
 42
0.8750000000000568
 73
     0
 74
     0
 75
     0
  3
Default (ANSI)
100
AcDbAlignedDimension
 13
82.11001668443747
 23
118.394255440621
 33
0.0
 14
82.07834667389812
 24
117.5192554406209
 34
0.0
 50
270.0
100
AcDbRotatedDimension
1001
ACAD
1000
DSTYLE
1002
{
1070
   289
1070
     1
1070
   271
1070
     2
1070
    76
1070
     1
1070
    75
1070
     1
1070
   272
1070
     2
1070
    48
1040
0.0
1070
    47
1040
0.0
1002
}
  0
DIMENSION
  5
D8E
330
6C
100
AcDbEntity
  8
Dimension (ANSI)
100
AcDbDimension
280
     0
  2
*D13
 10
112.3486946681149
 20
90.33507786452036
 30
0.0
 11
118.5309728713282
 21
90.33507786452036
 31
0.0
 70
   160
  1
<>{\PTYP.}
 71
     4
 42
0.8750000000000142
 73
     0
 74
     0
 75
     0
  3
Default (ANSI)
100
AcDbAlignedDimension
 13
113.2236946681149
 23
90.33507786452036
 33
0.0
 14
112.3486946681149
 24
90.34715665667453
 34
0.0
 50
180.0
100
AcDbRotatedDimension
1001
ACAD
1000
DSTYLE
1002
{
1070
   289
1070
     1
1070
    73
1070
     0
1070
    74
1070
     0
1070
   271
1070
     2
1070
    76
1070
     1
1070
    75
1070
     1
1070
   272
1070
     2
1070
    48
1040
0.0
1070
    47
1040
0.0
1002
}
  0
LINE
  5
E7D
330
6C
100
AcDbEntity
  8
Center Mark (ANSI)
  6
Continuous
100
AcDbLine
 10
62.77046537327979
 20
92.48306285186258
 30
0.0
 11
59.20746537327979
 21
92.48306285186258
 31
0.0
  0
LINE
  5
E7E
330
6C
100
AcDbEntity
  8
Center Mark (ANSI)
  6
Continuous
100
AcDbLine
 10
62.77046537327983
 20
34.2330628518626
 30
0.0
 11
59.20746537327984
 21
34.2330628518626
 31
0.0
  0
LINE
  5
E7F
330
6C
100
AcDbEntity
  8
Centerline (ANSI)
  6
Continuous
100
AcDbLine
 10
60.9889653732798
 20
94.26456285186258
 30
0.0
 11
60.98896537327984
 21
32.4515628518626
 31
0.0
  0
DIMENSION
  5
E80
330
6C
100
AcDbEntity
  8
Dimension (ANSI)
100
AcDbDimension
280
     0
  2
*D14
 10
88.11396537327977
 20
101.2472865206759
 30
0.0
 11
60.98896537327979
 21
101.2472865206759
 31
0.0
 70
   160
  1
<>
 42
54.25
 73
     0
 74
     0
 75
     0
  3
Default (ANSI)
100
AcDbAlignedDimension
 13
33.86396537327978
 23
94.26456285186258
 33
0.0
 14
88.11396537327977
 24
94.26456285186258
 34
0.0
 50
180.0
100
AcDbRotatedDimension
1001
ACAD
1000
DSTYLE
1002
{
1070
   289
1070
     1
1070
    73
1070
     0
1070
    74
1070
     0
1070
   271
1070
     2
1070
   272
1070
     2
1070
    48
1040
0.0
1070
    47
1040
0.0
1002
}
  0
MTEXT
  5
F6A
102
{ACAD_XDICTIONARY
360
F71
102
}
330
6C
100
AcDbEntity
  8
Symbol (ANSI)
100
AcDbMText
 10
113.7812344251926
 20
10.52302393819227
 30
0.0
 40
1.200000038297157
 41
88.60064529058506
 46
0.0
 71
     4
 72
     1
  3
{\fRomanS|b0|i0|c0|p2;\H2x;PART#: WA72P60F1\P(DATA SUBJECT TO CHANGE WITHOUT NOTICE)\H1.6157x; \H0.61894x;\P \H1.352x; \H0.73963x;\P\H0.6x;THIS DRAWING IS PROPERTY OF HUBBELL INC. WIEGMANN\H1.5633x; \H0.63966x;\PALL INFORMATION IS PROPRIETARY AND NOT
  1
 TO BE DUPLICATED\H1.234x; \H0.81039x;\P\H1.2571x; }
  7
Note Text (ANSI)
 73
     1
 44
0.8026435375213623
  0
ENDSEC
  0
SECTION
  2
OBJECTS
  0
DICTIONARY
  5
C
330
0
100
AcDbDictionary
281
     1
  3
ACAD_CIP_PREVIOUS_PRODUCT_INFO
350
F6C
  3
ACAD_COLOR
350
63
  3
ACAD_GROUP
350
D
  3
ACAD_LAYOUT
350
62
  3
ACAD_MATERIAL
350
10
  3
ACAD_MLEADERSTYLE
350
66
  3
ACAD_MLINESTYLE
350
5F
  3
ACAD_PLOTSETTINGS
350
61
  3
ACAD_PLOTSTYLENAME
350
E
  3
ACAD_SCALELIST
350
42
  3
ACAD_TABLESTYLE
350
64
  3
ACAD_VISUALSTYLE
350
29
  3
ACDB_RECOMPOSE_DATA
350
F73
  3
AcDbVariableDictionary
350
76
  0
DICTIONARY
  5
F71
330
F6A
100
AcDbDictionary
280
     1
281
     1
  3
ACAD_MTEXT_2008_RT
360
F72
  0
XRECORD
  5
F6C
102
{ACAD_REACTORS
330
C
102
}
330
C
100
AcDbXrecord
280
     1
300
INVNTOR
300
2012
300
PDSP_F_S
  0
DICTIONARY
  5
63
102
{ACAD_REACTORS
330
C
102
}
330
C
100
AcDbDictionary
281
     1
  0
DICTIONARY
  5
D
102
{ACAD_REACTORS
330
C
102
}
330
C
100
AcDbDictionary
281
     1
  0
DICTIONARY
  5
62
102
{ACAD_REACTORS
330
C
102
}
330
C
100
AcDbDictionary
281
     1
  3
Layout1
350
6B
  3
Layout2
350
73
  3
Model
350
6F
  0
DICTIONARY
  5
10
102
{ACAD_REACTORS
330
C
102
}
330
C
100
AcDbDictionary
281
     1
  3
ByBlock
350
19
  3
ByLayer
350
11
  3
Global
350
21
  0
DICTIONARY
  5
66
102
{ACAD_REACTORS
330
C
102
}
330
C
100
AcDbDictionary
281
     1
  3
Standard
350
67
  0
DICTIONARY
  5
5F
102
{ACAD_REACTORS
330
C
102
}
330
C
100
AcDbDictionary
281
     1
  3
Standard
350
60
  0
DICTIONARY
  5
61
102
{ACAD_REACTORS
330
C
102
}
330
C
100
AcDbDictionary
281
     1
  0
ACDBDICTIONARYWDFLT
  5
E
102
{ACAD_REACTORS
330
C
102
}
330
C
100
AcDbDictionary
281
     1
  3
Normal
350
F
100
AcDbDictionaryWithDefault
340
F
  0
DICTIONARY
  5
42
102
{ACAD_REACTORS
330
C
102
}
330
C
100
AcDbDictionary
281
     1
  3
A0
350
43
  3
A1
350
44
  3
A2
350
45
  3
A3
350
46
  3
A4
350
47
  3
A5
350
48
  3
A6
350
49
  3
A7
350
4A
  3
A8
350
4B
  3
A9
350
4C
  3
B0
350
4D
  3
B1
350
4E
  3
B2
350
4F
  3
B3
350
50
  3
B4
350
51
  3
B5
350
52
  3
B6
350
53
  0
DICTIONARY
  5
64
102
{ACAD_REACTORS
330
C
102
}
330
C
100
AcDbDictionary
281
     1
  3
Standard
350
65
  0
DICTIONARY
  5
29
102
{ACAD_REACTORS
330
C
102
}
330
C
100
AcDbDictionary
281
     1
  3
2dWireframe
350
2F
  3
Basic
350
2E
  3
Brighten
350
35
  3
ColorChange
350
39
  3
Conceptual
350
32
  3
Dim
350
34
  3
EdgeColorOff
350
41
  3
Facepattern
350
38
  3
Flat
350
2A
  3
FlatWithEdges
350
2B
  3
Gouraud
350
2C
  3
GouraudWithEdges
350
2D
  3
Hidden
350
31
  3
JitterOff
350
3F
  3
Linepattern
350
37
  3
OverhangOff
350
40
  3
Realistic
350
33
  3
Shaded
350
3E
  3
Shaded with edges
350
3D
  3
Shades of Gray
350
3A
  3
Sketchy
350
3B
  3
Thicken
350
36
  3
Wireframe
350
30
  3
X-Ray
350
3C
  0
XRECORD
  5
F73
102
{ACAD_REACTORS
330
C
102
}
330
C
100
AcDbXrecord
280
     1
 90
        1
330
65
330
F6A
  0
DICTIONARY
  5
76
102
{ACAD_REACTORS
330
C
102
}
330
C
100
AcDbDictionary
281
     1
  3
CANNOSCALE
350
79
  3
CMLEADERSTYLE
350
78
  3
CTABLESTYLE
350
77
  0
XRECORD
  5
F72
102
{ACAD_REACTORS
330
F71
102
}
330
F71
100
AcDbXrecord
280
     1
 40
3088488.0
  1
\pxsm0.94;{\fRomanS|b0|i0;\H2.4000;PART#: WA72P60F1\P(DATA SUBJECT TO CHANGE WITHOUT NOTICE)\P \P\fRomanS|b0|i0;\H1.4400;THIS DRAWING IS PROPERTY OF HUBBELL INC. WIEGMANN\PALL INFORMATION IS PROPRIETARY AND NOT TO BE DUPLICATED\P}
  0
LAYOUT
  5
6B
102
{ACAD_REACTORS
330
62
102
}
330
62
100
AcDbPlotSettings
  1

  2

  4

  6

 40
0.0
 41
0.0
 42
0.0
 43
0.0
 44
0.0
 45
0.0
 46
0.0
 47
0.0
 48
0.0
 49
0.0
140
0.0
141
0.0
142
1.0
143
1.0
 70
   688
 72
     0
 73
     0
 74
     5
  7

 75
    16
147
1.0
 76
     0
 77
     2
 78
   300
148
0.0
149
0.0
100
AcDbLayout
  1
Layout1
 70
     1
 71
     1
 10
0.0
 20
0.0
 11
12.0
 21
9.0
 12
0.0
 22
0.0
 32
0.0
 14
0.0
 24
0.0
 34
0.0
 15
0.0
 25
0.0
 35
0.0
146
0.0
 13
0.0
 23
0.0
 33
0.0
 16
1.0
 26
0.0
 36
0.0
 17
0.0
 27
1.0
 37
0.0
 76
     0
330
68
  0
LAYOUT
  5
73
102
{ACAD_REACTORS
330
62
102
}
330
62
100
AcDbPlotSettings
  1

  2

  4

  6

 40
0.0
 41
0.0
 42
0.0
 43
0.0
 44
0.0
 45
0.0
 46
0.0
 47
0.0
 48
0.0
 49
0.0
140
0.0
141
0.0
142
1.0
143
1.0
 70
   688
 72
     0
 73
     0
 74
     5
  7

 75
    16
147
1.0
 76
     0
 77
     2
 78
   300
148
0.0
149
0.0
100
AcDbLayout
  1
Layout2
 70
     1
 71
     2
 10
0.0
 20
0.0
 11
12.0
 21
9.0
 12
0.0
 22
0.0
 32
0.0
 14
0.0
 24
0.0
 34
0.0
 15
0.0
 25
0.0
 35
0.0
146
0.0
 13
0.0
 23
0.0
 33
0.0
 16
1.0
 26
0.0
 36
0.0
 17
0.0
 27
1.0
 37
0.0
 76
     0
330
70
  0
LAYOUT
  5
6F
102
{ACAD_REACTORS
330
62
102
}
330
62
100
AcDbPlotSettings
  1

  2

  4

  6

 40
0.0
 41
0.0
 42
0.0
 43
0.0
 44
0.0
 45
0.0
 46
0.0
 47
0.0
 48
0.0
 49
0.0
140
0.0
141
0.0
142
1.0
143
1.0
 70
  1712
 72
     0
 73
     0
 74
     0
  7

 75
     0
147
1.0
 76
     0
 77
     2
 78
   300
148
0.0
149
0.0
100
AcDbLayout
  1
Model
 70
     1
 71
     0
 10
0.0
 20
0.0
 11
12.0
 21
9.0
 12
0.0
 22
0.0
 32
0.0
 14
0.0
 24
0.0
 34
0.0
 15
0.0
 25
0.0
 35
0.0
146
0.0
 13
0.0
 23
0.0
 33
0.0
 16
1.0
 26
0.0
 36
0.0
 17
0.0
 27
1.0
 37
0.0
 76
     0
330
6C
  0
MATERIAL
  5
19
102
{ACAD_XDICTIONARY
360
1A
102
}
102
{ACAD_REACTORS
330
10
102
}
330
10
100
AcDbMaterial
  1
ByBlock
 72
     0
 43
0.0208333333333333
 43
0.0
 43
0.0
 43
0.0
 43
0.0
 43
0.0208333333333333
 43
0.0
 43
0.0
 43
0.0
 43
0.0
 43
1.0
 43
0.0
 43
0.0
 43
0.0
 43
0.0
 43
1.0
 77
     0
 47
0.0208333333333333
 47
0.0
 47
0.0
 47
0.0
 47
0.0
 47
0.0208333333333333
 47
0.0
 47
0.0
 47
0.0
 47
0.0
 47
1.0
 47
0.0
 47
0.0
 47
0.0
 47
0.0
 47
1.0
171
     0
 49
0.0208333333333333
 49
0.0
 49
0.0
 49
0.0
 49
0.0
 49
0.0208333333333333
 49
0.0
 49
0.0
 49
0.0
 49
0.0
 49
1.0
 49
0.0
 49
0.0
 49
0.0
 49
0.0
 49
1.0
175
     0
142
0.0208333333333333
142
0.0
142
0.0
142
0.0
142
0.0
142
0.0208333333333333
142
0.0
142
0.0
142
0.0
142
0.0
142
1.0
142
0.0
142
0.0
142
0.0
142
0.0
142
1.0
179
     0
144
0.0208333333333333
144
0.0
144
0.0
144
0.0
144
0.0
144
0.0208333333333333
144
0.0
144
0.0
144
0.0
144
0.0
144
1.0
144
0.0
144
0.0
144
0.0
144
0.0
144
1.0
147
0.0208333333333333
147
0.0
147
0.0
147
0.0
147
0.0
147
0.0208333333333333
147
0.0
147
0.0
147
0.0
147
0.0
147
1.0
147
0.0
147
0.0
147
0.0
147
0.0
147
1.0
  0
MATERIAL
  5
11
102
{ACAD_XDICTIONARY
360
12
102
}
102
{ACAD_REACTORS
330
10
102
}
330
10
100
AcDbMaterial
  1
ByLayer
 72
     0
 43
0.0208333333333333
 43
0.0
 43
0.0
 43
0.0
 43
0.0
 43
0.0208333333333333
 43
0.0
 43
0.0
 43
0.0
 43
0.0
 43
1.0
 43
0.0
 43
0.0
 43
0.0
 43
0.0
 43
1.0
 77
     0
 47
0.0208333333333333
 47
0.0
 47
0.0
 47
0.0
 47
0.0
 47
0.0208333333333333
 47
0.0
 47
0.0
 47
0.0
 47
0.0
 47
1.0
 47
0.0
 47
0.0
 47
0.0
 47
0.0
 47
1.0
171
     0
 49
0.0208333333333333
 49
0.0
 49
0.0
 49
0.0
 49
0.0
 49
0.0208333333333333
 49
0.0
 49
0.0
 49
0.0
 49
0.0
 49
1.0
 49
0.0
 49
0.0
 49
0.0
 49
0.0
 49
1.0
175
     0
142
0.0208333333333333
142
0.0
142
0.0
142
0.0
142
0.0
142
0.0208333333333333
142
0.0
142
0.0
142
0.0
142
0.0
142
1.0
142
0.0
142
0.0
142
0.0
142
0.0
142
1.0
179
     0
144
0.0208333333333333
144
0.0
144
0.0
144
0.0
144
0.0
144
0.0208333333333333
144
0.0
144
0.0
144
0.0
144
0.0
144
1.0
144
0.0
144
0.0
144
0.0
144
0.0
144
1.0
147
0.0208333333333333
147
0.0
147
0.0
147
0.0
147
0.0
147
0.0208333333333333
147
0.0
147
0.0
147
0.0
147
0.0
147
1.0
147
0.0
147
0.0
147
0.0
147
0.0
147
1.0
  0
MATERIAL
  5
21
102
{ACAD_XDICTIONARY
360
22
102
}
102
{ACAD_REACTORS
330
10
102
}
330
10
100
AcDbMaterial
  1
Global
 72
     0
 43
0.0208333333333333
 43
0.0
 43
0.0
 43
0.0
 43
0.0
 43
0.0208333333333333
 43
0.0
 43
0.0
 43
0.0
 43
0.0
 43
1.0
 43
0.0
 43
0.0
 43
0.0
 43
0.0
 43
1.0
 77
     0
 47
0.0208333333333333
 47
0.0
 47
0.0
 47
0.0
 47
0.0
 47
0.0208333333333333
 47
0.0
 47
0.0
 47
0.0
 47
0.0
 47
1.0
 47
0.0
 47
0.0
 47
0.0
 47
0.0
 47
1.0
171
     0
 49
0.0208333333333333
 49
0.0
 49
0.0
 49
0.0
 49
0.0
 49
0.0208333333333333
 49
0.0
 49
0.0
 49
0.0
 49
0.0
 49
1.0
 49
0.0
 49
0.0
 49
0.0
 49
0.0
 49
1.0
175
     0
142
0.0208333333333333
142
0.0
142
0.0
142
0.0
142
0.0
142
0.0208333333333333
142
0.0
142
0.0
142
0.0
142
0.0
142
1.0
142
0.0
142
0.0
142
0.0
142
0.0
142
1.0
179
     0
144
0.0208333333333333
144
0.0
144
0.0
144
0.0
144
0.0
144
0.0208333333333333
144
0.0
144
0.0
144
0.0
144
0.0
144
1.0
144
0.0
144
0.0
144
0.0
144
0.0
144
1.0
147
0.0208333333333333
147
0.0
147
0.0
147
0.0
147
0.0
147
0.0208333333333333
147
0.0
147
0.0
147
0.0
147
0.0
147
1.0
147
0.0
147
0.0
147
0.0
147
0.0
147
1.0
  0
MLEADERSTYLE
  5
67
102
{ACAD_XDICTIONARY
360
F6F
102
}
102
{ACAD_REACTORS
330
66
102
}
330
66
100
AcDbMLeaderStyle
179
     2
170
     2
171
     1
172
     0
 90
        2
 40
0.0
 41
0.0
173
     1
 91
-1056964608
340
5B
 92
       -2
290
     1
 42
0.09
291
     1
 43
0.36
  3
Standard
 44
0.18
300

342
55
174
     1
178
     6
175
     1
176
     0
 93
-1056964608
 45
0.18
292
     0
297
     0
 46
0.18
 94
-1056964608
 47
1.0
 49
1.0
140
1.0
293
     1
141
0.0
294
     1
177
     0
142
1.0
295
     0
296
     0
143
0.125
271
     0
272
     9
273
     9
  0
MLINESTYLE
  5
60
102
{ACAD_REACTORS
330
5F
102
}
330
5F
100
AcDbMlineStyle
  2
STANDARD
 70
     0
  3

 62
   256
 51
90.0
 52
90.0
 71
     2
 49
0.5
 62
   256
  6
BYLAYER
 49
-0.5
 62
   256
  6
BYLAYER
  0
ACDBPLACEHOLDER
  5
F
102
{ACAD_REACTORS
330
E
102
}
330
E
  0
SCALE
  5
43
102
{ACAD_REACTORS
330
42
102
}
330
42
100
AcDbScale
 70
     0
300
1:1
140
1.0
141
1.0
290
     1
  0
SCALE
  5
44
102
{ACAD_REACTORS
330
42
102
}
330
42
100
AcDbScale
 70
     0
300
1/128" = 1'-0"
140
0.0078125
141
12.0
290
     0
  0
SCALE
  5
45
102
{ACAD_REACTORS
330
42
102
}
330
42
100
AcDbScale
 70
     0
300
1/64" = 1'-0"
140
0.015625
141
12.0
290
     0
  0
SCALE
  5
46
102
{ACAD_REACTORS
330
42
102
}
330
42
100
AcDbScale
 70
     0
300
1/32" = 1'-0"
140
0.03125
141
12.0
290
     0
  0
SCALE
  5
47
102
{ACAD_REACTORS
330
42
102
}
330
42
100
AcDbScale
 70
     0
300
1/16" = 1'-0"
140
0.0625
141
12.0
290
     0
  0
SCALE
  5
48
102
{ACAD_REACTORS
330
42
102
}
330
42
100
AcDbScale
 70
     0
300
3/32" = 1'-0"
140
0.09375
141
12.0
290
     0
  0
SCALE
  5
49
102
{ACAD_REACTORS
330
42
102
}
330
42
100
AcDbScale
 70
     0
300
1/8" = 1'-0"
140
0.125
141
12.0
290
     0
  0
SCALE
  5
4A
102
{ACAD_REACTORS
330
42
102
}
330
42
100
AcDbScale
 70
     0
300
3/16" = 1'-0"
140
0.1875
141
12.0
290
     0
  0
SCALE
  5
4B
102
{ACAD_REACTORS
330
42
102
}
330
42
100
AcDbScale
 70
     0
300
1/4" = 1'-0"
140
0.25
141
12.0
290
     0
  0
SCALE
  5
4C
102
{ACAD_REACTORS
330
42
102
}
330
42
100
AcDbScale
 70
     0
300
3/8" = 1'-0"
140
0.375
141
12.0
290
     0
  0
SCALE
  5
4D
102
{ACAD_REACTORS
330
42
102
}
330
42
100
AcDbScale
 70
     0
300
1/2" = 1'-0"
140
0.5
141
12.0
290
     0
  0
SCALE
  5
4E
102
{ACAD_REACTORS
330
42
102
}
330
42
100
AcDbScale
 70
     0
300
3/4" = 1'-0"
140
0.75
141
12.0
290
     0
  0
SCALE
  5
4F
102
{ACAD_REACTORS
330
42
102
}
330
42
100
AcDbScale
 70
     0
300
1" = 1'-0"
140
1.0
141
12.0
290
     0
  0
SCALE
  5
50
102
{ACAD_REACTORS
330
42
102
}
330
42
100
AcDbScale
 70
     0
300
1-1/2" = 1'-0"
140
1.5
141
12.0
290
     0
  0
SCALE
  5
51
102
{ACAD_REACTORS
330
42
102
}
330
42
100
AcDbScale
 70
     0
300
3" = 1'-0"
140
3.0
141
12.0
290
     0
  0
SCALE
  5
52
102
{ACAD_REACTORS
330
42
102
}
330
42
100
AcDbScale
 70
     0
300
6" = 1'-0"
140
6.0
141
12.0
290
     0
  0
SCALE
  5
53
102
{ACAD_REACTORS
330
42
102
}
330
42
100
AcDbScale
 70
     0
300
1'-0" = 1'-0"
140
12.0
141
12.0
290
     0
  0
TABLESTYLE
  5
65
102
{ACAD_XDICTIONARY
360
F6D
102
}
102
{ACAD_REACTORS
330
64
102
}
330
64
100
AcDbTableStyle
280
     0
  3
Standard
 70
     0
 71
     0
 40
0.06
 41
0.06
280
     0
281
     0
  7
Standard
140
0.18
170
     2
 62
     0
 63
     7
283
     0
 90
      512
 91
        0
  1

274
    -2
284
     1
 64
     0
275
    -2
285
     1
 65
     0
276
    -2
286
     1
 66
     0
277
    -2
287
     1
 67
     0
278
    -2
288
     1
 68
     0
279
    -2
289
     1
 69
     0
  7
Standard
140
0.25
170
     5
 62
     0
 63
     7
283
     0
 90
      512
 91
        0
  1

274
    -2
284
     1
 64
     0
275
    -2
285
     1
 65
     0
276
    -2
286
     1
 66
     0
277
    -2
287
     1
 67
     0
278
    -2
288
     1
 68
     0
279
    -2
289
     1
 69
     0
  7
Standard
140
0.18
170
     5
 62
     0
 63
     7
283
     0
 90
      512
 91
        0
  1

274
    -2
284
     1
 64
     0
275
    -2
285
     1
 65
     0
276
    -2
286
     1
 66
     0
277
    -2
287
     1
 67
     0
278
    -2
288
     1
 68
     0
279
    -2
289
     1
 69
     0
  0
VISUALSTYLE
  5
2F
102
{ACAD_REACTORS
330
29
102
}
330
29
100
AcDbVisualStyle
  2
2dWireframe
 70
     4
177
     2
291
     0
 71
     0
176
     1
 72
     2
176
     1
 73
     0
176
     1
 90
        0
176
     1
 40
0.6
176
     1
 41
30.0
176
     1
 63
     7
421
 16777215
176
     1
 74
     1
176
     1
 91
        4
176
     1
 64
     7
176
     1
 65
   257
176
     1
 75
     1
176
     1
175
     1
176
     1
 42
1.0
176
     1
 92
        0
176
     1
 66
   257
176
     1
 43
1.0
176
     1
 76
     1
176
     1
 77
     6
176
     1
 78
     2
176
     1
 67
     7
176
     1
 79
     5
176
     1
170
     0
176
     1
171
     0
176
     1
290
     0
176
     1
 93
        1
176
     1
 44
0.0
176
     1
173
     0
176
     1
  0
VISUALSTYLE
  5
2E
102
{ACAD_REACTORS
330
29
102
}
330
29
100
AcDbVisualStyle
  2
Basic
 70
     7
177
     2
291
     1
 71
     1
176
     1
 72
     0
176
     1
 73
     1
176
     1
 90
        0
176
     1
 40
0.6
176
     1
 41
30.0
176
     1
 63
     7
421
 16777215
176
     1
 74
     0
176
     1
 91
        4
176
     1
 64
     7
176
     1
 65
   257
176
     1
 75
     1
176
     1
175
     1
176
     1
 42
1.0
176
     1
 92
        8
176
     1
 66
     7
176
     1
 43
1.0
176
     1
 76
     1
176
     1
 77
     6
176
     1
 78
     2
176
     1
 67
     7
176
     1
 79
     5
176
     1
170
     0
176
     1
171
     0
176
     1
290
     0
176
     1
 93
        1
176
     1
 44
0.0
176
     1
173
     0
176
     1
  0
VISUALSTYLE
  5
35
102
{ACAD_REACTORS
330
29
102
}
330
29
100
AcDbVisualStyle
  2
Brighten
 70
    12
177
     2
291
     1
 71
     2
176
     1
 72
     2
176
     1
 73
     0
176
     1
 90
        0
176
     1
 40
0.6
176
     1
 41
30.0
176
     1
 63
     7
421
 16777215
176
     1
 74
     1
176
     1
 91
        4
176
     1
 64
     7
176
     1
 65
   257
176
     1
 75
     1
176
     1
175
     1
176
     1
 42
1.0
176
     1
 92
        8
176
     1
 66
     7
176
     1
 43
1.0
176
     1
 76
     1
176
     1
 77
     6
176
     1
 78
     2
176
     1
 67
     7
176
     1
 79
     5
176
     1
170
     0
176
     1
171
     0
176
     1
290
     0
176
     1
 93
        1
176
     1
 44
50.0
176
     1
173
     0
176
     1
  0
VISUALSTYLE
  5
39
102
{ACAD_REACTORS
330
29
102
}
330
29
100
AcDbVisualStyle
  2
ColorChange
 70
    16
177
     2
291
     1
 71
     2
176
     1
 72
     2
176
     1
 73
     3
176
     1
 90
        0
176
     1
 40
0.6
176
     1
 41
30.0
176
     1
 63
     8
421
  8421504
176
     1
 74
     1
176
     1
 91
        4
176
     1
 64
     7
176
     1
 65
   257
176
     1
 75
     1
176
     1
175
     1
176
     1
 42
1.0
176
     1
 92
        8
176
     1
 66
     8
424
  8421504
176
     1
 43
1.0
176
     1
 76
     1
176
     1
 77
     6
176
     1
 78
     2
176
     1
 67
     7
176
     1
 79
     5
176
     1
170
     0
176
     1
171
     0
176
     1
290
     0
176
     1
 93
        1
176
     1
 44
0.0
176
     1
173
     0
176
     1
  0
VISUALSTYLE
  5
32
102
{ACAD_REACTORS
330
29
102
}
330
29
100
AcDbVisualStyle
  2
Conceptual
 70
     9
177
     2
291
     0
 71
     3
176
     1
 72
     2
176
     1
 73
     0
176
     1
 90
        0
176
     1
 40
0.6
176
     1
 41
30.0
176
     1
 63
     7
421
 16777215
176
     1
 74
     2
176
     1
 91
        2
176
     1
 64
     7
176
     1
 65
   257
176
     1
 75
     1
176
     1
175
     1
176
     1
 42
179.0
176
     1
 92
        8
176
     1
 66
     7
176
     1
 43
1.0
176
     1
 76
     1
176
     1
 77
     6
176
     1
 78
     2
176
     1
 67
     7
176
     1
 79
     3
176
     1
170
     0
176
     1
171
     0
176
     1
290
     0
176
     1
 93
        1
176
     1
 44
0.0
176
     1
173
     0
176
     1
  0
VISUALSTYLE
  5
34
102
{ACAD_REACTORS
330
29
102
}
330
29
100
AcDbVisualStyle
  2
Dim
 70
    11
177
     2
291
     1
 71
     2
176
     1
 72
     2
176
     1
 73
     0
176
     1
 90
        0
176
     1
 40
0.6
176
     1
 41
30.0
176
     1
 63
     7
421
 16777215
176
     1
 74
     1
176
     1
 91
        4
176
     1
 64
     7
176
     1
 65
   257
176
     1
 75
     1
176
     1
175
     1
176
     1
 42
1.0
176
     1
 92
        8
176
     1
 66
     7
176
     1
 43
1.0
176
     1
 76
     1
176
     1
 77
     6
176
     1
 78
     2
176
     1
 67
     7
176
     1
 79
     5
176
     1
170
     0
176
     1
171
     0
176
     1
290
     0
176
     1
 93
        1
176
     1
 44
-50.0
176
     1
173
     0
176
     1
  0
VISUALSTYLE
  5
41
102
{ACAD_REACTORS
330
29
102
}
330
29
100
AcDbVisualStyle
  2
EdgeColorOff
 70
    22
177
     2
291
     1
 71
     2
176
     0
 72
     2
176
     0
 73
     0
176
     0
 90
        0
176
     0
 40
0.6
176
     0
 41
30.0
176
     0
 63
     7
421
 16777215
176
     0
 74
     1
176
     0
 91
        4
176
     0
 64
     7
176
     0
 65
   257
176
     0
 75
     1
176
     0
175
     1
176
     0
 42
1.0
176
     0
 92
        8
176
     2
 66
     7
176
     0
 43
1.0
176
     0
 76
     1
176
     0
 77
     6
176
     0
 78
     2
176
     0
 67
     7
176
     0
 79
     5
176
     0
170
     0
176
     0
171
     0
176
     0
290
     0
176
     0
 93
        1
176
     0
 44
0.0
176
     0
173
     0
176
     0
  0
VISUALSTYLE
  5
38
102
{ACAD_REACTORS
330
29
102
}
330
29
100
AcDbVisualStyle
  2
Facepattern
 70
    15
177
     2
291
     1
 71
     2
176
     1
 72
     2
176
     1
 73
     0
176
     1
 90
        0
176
     1
 40
0.6
176
     1
 41
30.0
176
     1
 63
     7
421
 16777215
176
     1
 74
     1
176
     1
 91
        4
176
     1
 64
     7
176
     1
 65
   257
176
     1
 75
     1
176
     1
175
     1
176
     1
 42
1.0
176
     1
 92
        8
176
     1
 66
     7
176
     1
 43
1.0
176
     1
 76
     1
176
     1
 77
     6
176
     1
 78
     2
176
     1
 67
     7
176
     1
 79
     5
176
     1
170
     0
176
     1
171
     0
176
     1
290
     0
176
     1
 93
        1
176
     1
 44
0.0
176
     1
173
     0
176
     1
  0
VISUALSTYLE
  5
2A
102
{ACAD_REACTORS
330
29
102
}
330
29
100
AcDbVisualStyle
  2
Flat
 70
     0
177
     2
291
     1
 71
     2
176
     1
 72
     1
176
     1
 73
     1
176
     1
 90
        2
176
     1
 40
0.6
176
     1
 41
30.0
176
     1
 63
     7
421
 16777215
176
     1
 74
     0
176
     1
 91
        0
176
     1
 64
     7
176
     1
 65
   257
176
     1
 75
     1
176
     1
175
     1
176
     1
 42
1.0
176
     1
 92
        8
176
     1
 66
     7
176
     1
 43
1.0
176
     1
 76
     1
176
     1
 77
     6
176
     1
 78
     2
176
     1
 67
     7
176
     1
 79
     5
176
     1
170
     0
176
     1
171
     0
176
     1
290
     0
176
     1
 93
       13
176
     1
 44
0.0
176
     1
173
     0
176
     1
  0
VISUALSTYLE
  5
2B
102
{ACAD_REACTORS
330
29
102
}
330
29
100
AcDbVisualStyle
  2
FlatWithEdges
 70
     1
177
     2
291
     1
 71
     2
176
     1
 72
     1
176
     1
 73
     1
176
     1
 90
        2
176
     1
 40
0.6
176
     1
 41
30.0
176
     1
 63
     7
421
 16777215
176
     1
 74
     1
176
     1
 91
        0
176
     1
 64
     7
176
     1
 65
   257
176
     1
 75
     1
176
     1
175
     1
176
     1
 42
1.0
176
     1
 92
        0
176
     1
 66
   257
176
     1
 43
1.0
176
     1
 76
     1
176
     1
 77
     6
176
     1
 78
     2
176
     1
 67
     7
176
     1
 79
     5
176
     1
170
     0
176
     1
171
     0
176
     1
290
     0
176
     1
 93
       13
176
     1
 44
0.0
176
     1
173
     0
176
     1
  0
VISUALSTYLE
  5
2C
102
{ACAD_REACTORS
330
29
102
}
330
29
100
AcDbVisualStyle
  2
Gouraud
 70
     2
177
     2
291
     1
 71
     2
176
     1
 72
     2
176
     1
 73
     1
176
     1
 90
        2
176
     1
 40
0.6
176
     1
 41
30.0
176
     1
 63
     7
421
 16777215
176
     1
 74
     0
176
     1
 91
        0
176
     1
 64
     7
176
     1
 65
   257
176
     1
 75
     1
176
     1
175
     1
176
     1
 42
1.0
176
     1
 92
        0
176
     1
 66
     7
176
     1
 43
1.0
176
     1
 76
     1
176
     1
 77
     6
176
     1
 78
     2
176
     1
 67
     7
176
     1
 79
     5
176
     1
170
     0
176
     1
171
     0
176
     1
290
     0
176
     1
 93
       13
176
     1
 44
0.0
176
     1
173
     0
176
     1
  0
VISUALSTYLE
  5
2D
102
{ACAD_REACTORS
330
29
102
}
330
29
100
AcDbVisualStyle
  2
GouraudWithEdges
 70
     3
177
     2
291
     1
 71
     2
176
     1
 72
     2
176
     1
 73
     1
176
     1
 90
        2
176
     1
 40
0.6
176
     1
 41
30.0
176
     1
 63
     7
421
 16777215
176
     1
 74
     1
176
     1
 91
        0
176
     1
 64
     7
176
     1
 65
   257
176
     1
 75
     1
176
     1
175
     1
176
     1
 42
1.0
176
     1
 92
        0
176
     1
 66
   257
176
     1
 43
1.0
176
     1
 76
     1
176
     1
 77
     6
176
     1
 78
     2
176
     1
 67
     7
176
     1
 79
     5
176
     1
170
     0
176
     1
171
     0
176
     1
290
     0
176
     1
 93
       13
176
     1
 44
0.0
176
     1
173
     0
176
     1
  0
VISUALSTYLE
  5
31
102
{ACAD_REACTORS
330
29
102
}
330
29
100
AcDbVisualStyle
  2
Hidden
 70
     6
177
     2
291
     0
 71
     1
176
     1
 72
     2
176
     1
 73
     2
176
     1
 90
        0
176
     1
 40
0.6
176
     1
 41
30.0
176
     1
 63
     7
421
 16777215
176
     1
 74
     2
176
     1
 91
        2
176
     1
 64
     7
176
     1
 65
   257
176
     1
 75
     2
176
     1
175
     1
176
     1
 42
40.0
176
     1
 92
        0
176
     1
 66
   257
176
     1
 43
1.0
176
     1
 76
     1
176
     1
 77
     6
176
     1
 78
     2
176
     1
 67
     7
176
     1
 79
     3
176
     1
170
     0
176
     1
171
     0
176
     1
290
     0
176
     1
 93
        1
176
     1
 44
0.0
176
     1
173
     0
176
     1
  0
VISUALSTYLE
  5
3F
102
{ACAD_REACTORS
330
29
102
}
330
29
100
AcDbVisualStyle
  2
JitterOff
 70
    20
177
     2
291
     1
 71
     2
176
     0
 72
     2
176
     0
 73
     0
176
     0
 90
        0
176
     0
 40
0.6
176
     0
 41
30.0
176
     0
 63
     7
421
 16777215
176
     0
 74
     1
176
     0
 91
        4
176
     0
 64
     7
176
     0
 65
   257
176
     0
 75
     1
176
     0
175
     1
176
     0
 42
1.0
176
     0
 92
       10
176
     2
 66
     7
176
     0
 43
1.0
176
     0
 76
     1
176
     0
 77
     6
176
     0
 78
     2
176
     0
 67
     7
176
     0
 79
     5
176
     0
170
     0
176
     0
171
     0
176
     0
290
     0
176
     0
 93
        1
176
     0
 44
0.0
176
     0
173
     0
176
     0
  0
VISUALSTYLE
  5
37
102
{ACAD_REACTORS
330
29
102
}
330
29
100
AcDbVisualStyle
  2
Linepattern
 70
    14
177
     2
291
     1
 71
     2
176
     1
 72
     2
176
     1
 73
     0
176
     1
 90
        0
176
     1
 40
0.6
176
     1
 41
30.0
176
     1
 63
     7
421
 16777215
176
     1
 74
     1
176
     1
 91
        4
176
     1
 64
     7
176
     1
 65
   257
176
     1
 75
     7
176
     1
175
     7
176
     1
 42
1.0
176
     1
 92
        8
176
     1
 66
     7
176
     1
 43
1.0
176
     1
 76
     1
176
     1
 77
     6
176
     1
 78
     2
176
     1
 67
     7
176
     1
 79
     5
176
     1
170
     0
176
     1
171
     0
176
     1
290
     0
176
     1
 93
        1
176
     1
 44
0.0
176
     1
173
     0
176
     1
  0
VISUALSTYLE
  5
40
102
{ACAD_REACTORS
330
29
102
}
330
29
100
AcDbVisualStyle
  2
OverhangOff
 70
    21
177
     2
291
     1
 71
     2
176
     0
 72
     2
176
     0
 73
     0
176
     0
 90
        0
176
     0
 40
0.6
176
     0
 41
30.0
176
     0
 63
     7
421
 16777215
176
     0
 74
     1
176
     0
 91
        4
176
     0
 64
     7
176
     0
 65
   257
176
     0
 75
     1
176
     0
175
     1
176
     0
 42
1.0
176
     0
 92
        9
176
     2
 66
     7
176
     0
 43
1.0
176
     0
 76
     1
176
     0
 77
     6
176
     0
 78
     2
176
     0
 67
     7
176
     0
 79
     5
176
     0
170
     0
176
     0
171
     0
176
     0
290
     0
176
     0
 93
        1
176
     0
 44
0.0
176
     0
173
     0
176
     0
  0
VISUALSTYLE
  5
33
102
{ACAD_REACTORS
330
29
102
}
330
29
100
AcDbVisualStyle
  2
Realistic
 70
     8
177
     2
291
     0
 71
     2
176
     1
 72
     3
176
     1
 73
     0
176
     1
 90
        2
176
     1
 40
0.6
176
     1
 41
30.0
176
     1
 63
     7
421
 16777215
176
     1
 74
     0
176
     1
 91
        0
176
     1
 64
     7
176
     1
 65
   257
176
     1
 75
     1
176
     1
175
     1
176
     1
 42
1.0
176
     1
 92
        8
176
     1
 66
   257
176
     1
 43
1.0
176
     1
 76
     1
176
     1
 77
     6
176
     1
 78
     2
176
     1
 67
     7
176
     1
 79
     3
176
     1
170
     0
176
     1
171
     0
176
     1
290
     0
176
     1
 93
       13
176
     1
 44
0.0
176
     1
173
     0
176
     1
  0
VISUALSTYLE
  5
3E
102
{ACAD_REACTORS
330
29
102
}
330
29
100
AcDbVisualStyle
  2
Shaded
 70
    27
177
     2
291
     0
 71
     2
176
     1
 72
     2
176
     1
 73
     1
176
     1
 90
        2
176
     1
 40
0.6
176
     1
 41
30.0
176
     1
 63
     7
421
 16777215
176
     1
 74
     0
176
     1
 91
        4
176
     1
 64
     7
176
     1
 65
   257
176
     1
 75
     1
176
     1
175
     1
176
     1
 42
1.0
176
     1
 92
        8
176
     1
 66
   257
176
     1
 43
1.0
176
     1
 76
     1
176
     1
 77
     6
176
     1
 78
     2
176
     1
 67
     8
425
  7895160
176
     1
 79
     3
176
     1
170
     0
176
     1
171
     0
176
     1
290
     0
176
     1
 93
        5
176
     1
 44
0.0
176
     1
173
     0
176
     1
  0
VISUALSTYLE
  5
3D
102
{ACAD_REACTORS
330
29
102
}
330
29
100
AcDbVisualStyle
  2
Shaded with edges
 70
    26
177
     2
291
     0
 71
     2
176
     1
 72
     2
176
     1
 73
     1
176
     1
 90
        2
176
     1
 40
0.6
176
     1
 41
30.0
176
     1
 63
     7
421
 16777215
176
     1
 74
     1
176
     1
 91
       10
176
     1
 64
     7
176
     1
 65
   257
176
     1
 75
     2
176
     1
175
     1
176
     1
 42
1.0
176
     1
 92
        8
176
     1
 66
   257
176
     1
 43
1.0
176
     1
 76
     1
176
     1
 77
     6
176
     1
 78
     2
176
     1
 67
     7
176
     1
 79
     3
176
     1
170
     0
176
     1
171
     0
176
     1
290
     0
176
     1
 93
        5
176
     1
 44
0.0
176
     1
173
     0
176
     1
  0
VISUALSTYLE
  5
3A
102
{ACAD_REACTORS
330
29
102
}
330
29
100
AcDbVisualStyle
  2
Shades of Gray
 70
    23
177
     2
291
     0
 71
     2
176
     1
 72
     2
176
     1
 73
     3
176
     1
 90
        0
176
     1
 40
0.6
176
     1
 41
30.0
176
     1
 63
     7
421
 16777215
176
     1
 74
     2
176
     1
 91
        2
176
     1
 64
     7
176
     1
 65
     7
176
     1
 75
     1
176
     1
175
     1
176
     1
 42
40.0
176
     1
 92
        8
176
     1
 66
     7
176
     1
 43
1.0
176
     1
 76
     1
176
     1
 77
     6
176
     1
 78
     2
176
     1
 67
     7
176
     1
 79
     3
176
     1
170
     0
176
     1
171
     0
176
     1
290
     0
176
     1
 93
        1
176
     1
 44
0.0
176
     1
173
     0
176
     1
  0
VISUALSTYLE
  5
3B
102
{ACAD_REACTORS
330
29
102
}
330
29
100
AcDbVisualStyle
  2
Sketchy
 70
    24
177
     2
291
     0
 71
     1
176
     1
 72
     2
176
     1
 73
     2
176
     1
 90
        0
176
     1
 40
0.6
176
     1
 41
30.0
176
     1
 63
     7
421
 16777215
176
     1
 74
     2
176
     1
 91
        2
176
     1
 64
     7
176
     1
 65
     7
176
     1
 75
     1
176
     1
175
     1
176
     1
 42
40.0
176
     1
 92
       11
176
     1
 66
     7
176
     1
 43
1.0
176
     1
 76
     1
176
     1
 77
     6
176
     1
 78
     2
176
     1
 67
     7
176
     1
 79
     6
176
     1
170
     0
176
     1
171
     0
176
     1
290
     0
176
     1
 93
        1
176
     1
 44
0.0
176
     1
173
     0
176
     1
  0
VISUALSTYLE
  5
36
102
{ACAD_REACTORS
330
29
102
}
330
29
100
AcDbVisualStyle
  2
Thicken
 70
    13
177
     2
291
     1
 71
     2
176
     1
 72
     2
176
     1
 73
     0
176
     1
 90
        0
176
     1
 40
0.6
176
     1
 41
30.0
176
     1
 63
     7
421
 16777215
176
     1
 74
     1
176
     1
 91
        4
176
     1
 64
     7
176
     1
 65
   257
176
     1
 75
     1
176
     1
175
     1
176
     1
 42
1.0
176
     1
 92
       12
176
     1
 66
     7
176
     1
 43
1.0
176
     1
 76
     1
176
     1
 77
     6
176
     1
 78
     2
176
     1
 67
     7
176
     1
 79
     5
176
     1
170
     0
176
     1
171
     0
176
     1
290
     0
176
     1
 93
        1
176
     1
 44
0.0
176
     1
173
     0
176
     1
  0
VISUALSTYLE
  5
30
102
{ACAD_REACTORS
330
29
102
}
330
29
100
AcDbVisualStyle
  2
Wireframe
 70
     5
177
     2
291
     0
 71
     0
176
     1
 72
     2
176
     1
 73
     0
176
     1
 90
        0
176
     1
 40
0.6
176
     1
 41
30.0
176
     1
 63
     7
421
 16777215
176
     1
 74
     1
176
     1
 91
        4
176
     1
 64
     7
176
     1
 65
   257
176
     1
 75
     1
176
     1
175
     1
176
     1
 42
1.0
176
     1
 92
        0
176
     1
 66
   257
176
     1
 43
1.0
176
     1
 76
     1
176
     1
 77
     6
176
     1
 78
     2
176
     1
 67
     7
176
     1
 79
     3
176
     1
170
     0
176
     1
171
     0
176
     1
290
     0
176
     1
 93
        1
176
     1
 44
0.0
176
     1
173
     0
176
     1
  0
VISUALSTYLE
  5
3C
102
{ACAD_REACTORS
330
29
102
}
330
29
100
AcDbVisualStyle
  2
X-Ray
 70
    25
177
     2
291
     0
 71
     2
176
     1
 72
     2
176
     1
 73
     1
176
     1
 90
        1
176
     1
 40
0.5
176
     1
 41
30.0
176
     1
 63
     7
421
 16777215
176
     1
 74
     1
176
     1
 91
        0
176
     1
 64
     7
176
     1
 65
   257
176
     1
 75
     1
176
     1
175
     1
176
     1
 42
1.0
176
     1
 92
        8
176
     1
 66
     7
176
     1
 43
1.0
176
     1
 76
     1
176
     1
 77
     6
176
     1
 78
     2
176
     1
 67
     7
176
     1
 79
     3
176
     1
170
     0
176
     1
171
     0
176
     1
290
     0
176
     1
 93
       13
176
     1
 44
0.0
176
     1
173
     0
176
     1
  0
DICTIONARYVAR
  5
79
102
{ACAD_REACTORS
330
76
102
}
330
76
100
DictionaryVariables
280
     0
  1
1:1
  0
DICTIONARYVAR
  5
78
102
{ACAD_REACTORS
330
76
102
}
330
76
100
DictionaryVariables
280
     0
  1
STANDARD
  0
DICTIONARYVAR
  5
77
102
{ACAD_REACTORS
330
76
102
}
330
76
100
DictionaryVariables
280
     0
  1
STANDARD
  0
DICTIONARY
  5
1A
330
19
100
AcDbDictionary
280
     1
281
     1
  3
BUMPTILE
360
1C
  3
DIFFUSETILE
360
1B
  3
OPACITYTILE
360
1F
  3
REFLECTIONTILE
360
1E
  3
REFRACTIONTILE
360
20
  3
SPECULARTILE
360
1D
  0
DICTIONARY
  5
12
330
11
100
AcDbDictionary
280
     1
281
     1
  3
BUMPTILE
360
14
  3
DIFFUSETILE
360
13
  3
FBXASSET
360
109
  3
OPACITYTILE
360
17
  3
REFLECTIONTILE
360
16
  3
REFRACTIONTILE
360
18
  3
SPECULARTILE
360
15
  0
DICTIONARY
  5
22
330
21
100
AcDbDictionary
280
     1
281
     1
  3
BUMPTILE
360
24
  3
DIFFUSETILE
360
23
  3
FBXASSET
360
BA
  3
OPACITYTILE
360
27
  3
REFLECTIONTILE
360
26
  3
REFRACTIONTILE
360
28
  3
SPECULARTILE
360
25
  0
DICTIONARY
  5
F6F
330
67
100
AcDbDictionary
280
     1
281
     1
  3
ACAD_XREC_ROUNDTRIP
360
F70
  0
DICTIONARY
  5
F6D
330
65
100
AcDbDictionary
280
     1
281
     1
  3
ACAD_ROUNDTRIP_2008_TABLESTYLE_CELLSTYLEMAP
360
F6E
  0
XRECORD
  5
1C
102
{ACAD_REACTORS
330
1A
102
}
330
1A
100
AcDbXrecord
280
     1
270
     1
271
     1
  0
XRECORD
  5
1B
102
{ACAD_REACTORS
330
1A
102
}
330
1A
100
AcDbXrecord
280
     1
270
     1
271
     1
  0
XRECORD
  5
1F
102
{ACAD_REACTORS
330
1A
102
}
330
1A
100
AcDbXrecord
280
     1
270
     1
271
     1
  0
XRECORD
  5
1E
102
{ACAD_REACTORS
330
1A
102
}
330
1A
100
AcDbXrecord
280
     1
270
     1
271
     1
  0
XRECORD
  5
20
102
{ACAD_REACTORS
330
1A
102
}
330
1A
100
AcDbXrecord
280
     1
270
     1
271
     1
  0
XRECORD
  5
1D
102
{ACAD_REACTORS
330
1A
102
}
330
1A
100
AcDbXrecord
280
     1
270
     1
271
     1
  0
XRECORD
  5
14
102
{ACAD_REACTORS
330
12
102
}
330
12
100
AcDbXrecord
280
     1
270
     1
271
     1
  0
XRECORD
  5
13
102
{ACAD_REACTORS
330
12
102
}
330
12
100
AcDbXrecord
280
     1
270
     1
271
     1
  0
XRECORD
  5
109
102
{ACAD_REACTORS
330
12
102
}
330
12
100
AcDbXrecord
280
     1
 70
     1
 90
1959938040
 71
     1
  1
788DD564-CA3E-4D94-9FC9-E2D47EC023EA
311
504B03040A00000800000E4ECE423DEE336E79000000790000001B0000006175746F6465736B2D64657369676E2D7061636B6167652E786D6C3C3F786D6C2076657273696F6E3D22312E302220656E636F64696E673D227574662D3822203F3E3C666F726D6174733E3C666F726D61743E687474703A2F2F736368656D612E
311
6175746F6465736B2E636F6D2F64657369676E2D7061636B6167652F323030393C2F666F726D61743E3C2F666F726D6174733E504B03041400060808000E4ECE42D486FD9CA0000000F4000000130000005B436F6E74656E745F54797065735D2E786D6C7D8EC10E82300C865F65E91D8A1E8C310C0EEA1BF002731658846E
311
D98AC1B77784ABF1D8FE5FBFBF75BBCE937A534CCEB38643598122B6FEE978D0B0485F9C41B54DDD7D022595594E1A469170414C76A4D9A4D207E29CF43ECE46F218070CC6BECC4078ACAA135ACF422C856C0E68EA1BF5669944DDD7BCDE7B1F8E415D77AECB980613C2E4AC91FC167A2B244592486606FC29C8FD7F045B9A
311
EF7053A7E60B504B03041400060808000E4ECE42741BD07EEC0000007C01000008000000636F72652E786D6C8D90416EC3201045AF82D856D86088ED5898C8699A13F402088883128365A0EAF18B13476A775DCDE8CF7F33A3CF0FDFD31D7C992558EF7A480A0C8171CA6BEBC61EA678412D0407C117EFE32F1B044E4EA687
311
AB0C051F179FE64D52DE45E362569DD7661365082642A0EEB9E961505733C942A6981DE156CC52DDE4680AF2EA329C92D5E079C4EABCCF5EAC59A0A0C340CFECF88168838F889DEB060D757B42A469E9C0DE193DED6A5EAEB0E0D14EAFFB6A31321A0D45850945B846847DE27DC7DAAEDABFE15D47312F57FB1F28CDFA9F50
311
B22ED26A7BF7890528487EE43110BC5CB3C8E51154AE6B6EE207504B03041400060808000E4ECE4255019EA25F0000007C00000007000000636E782E786D6C4DCB3B0E80201045D1AD90E915ED2CF8AC45050C11660C8261F98AB1B07AC9C97D42D718D865D3E909258CFD00CCE24AC6E326A164D74DC0B4128928FF326038
311
472BA13128B1252AC747C6BAB984FC68F0B87FE8960A5C09FE86CFB69FBA01504B03041400060808000E4ECE42C0E5DF9268010000020300000C0000006662782F636F72652E786D6C8D52ED8E8230107C95A67F2F50BE4434A506CFF309EE056AA91C115A525AE2E3DFF2613C2FC61892D2CCECECCE0ED0DDB56DD0204D5F
311
6B95E3D00F30924AE8B256558E9D3D7B19463B468DD6F64F19468AB732C7238C19AD8C76DD0209ADAC541650A54BB980BCEFA5C5483470C9712F7E64CB7DEE2C54F417BFE3E2C22BE9873ED050C7686F0D1840F390F1C4EC7CBA5232E38C3A57970B5B9730AD3ED7D2601617457C4CF65F5EBC0EF65E724CD75E9166072F5C
311
6771917C26F1619552328A19B5757B73278CE45696984541187B41EA85C977B0D926D936DA7C04AB6D1C5032963F885C57BE2972B5B271B4D89D653D66211899887FDB424416F57C003F8451328608AF29E1C7A0211008D9F25373DBE302D02085D52601A6D4EE4E0DBC7112A606687A289959E83C3580CD9EF6895EF479DD
311
033E20571558E316AE2767C7E9749EBA44D149E30DF68A94362D6FEEE6668BF7F33EE8A95CE8469B77D46459952C6192F1EF65BF504B03041400060808000E4ECE42815F7E8C7D0000009D0000000B0000006662782F636E782E786D6C4DCC410E83201445D1AD903FA70A556100180517622A1A520543A1E9F2AB8D838E5E
311
72F27245FBD956F4B6F1E58297406E2520EB1F61727E9190D38C39A056891842FABB01F2E366259C0C4A2C31E4FDA2C9CE635ED3A1ABF3CF0B39E5B4D3758539AB7B5C11DAE08E1883EF54333D0CA6644D0F8512C5AF74EC19565F504B03041400060808000E4ECE42C5AB3DAB2B01000014020000310000006662782F3832
311
3832414335342D383735422D343132362D413144442D3332433743454544303736422F636F72652E786D6C8D515B6EC32010BC0AE22B55850DF8990813E575835E80D8244189C1E251E5F885DA91DABFFCB068766676B4CBB6CFF101BEA575CAE80E920C4320756F06A5AF1D0CFE825A08B69C5963FC1F1A045A8CB2830986
311
9C5DAD09D302F5467BA97D44B519E4020AE7A487A07FC44F075D7F93A3C844F091E1EED924FABBB8CA8C64B11D799C396F6300300F492FE42D6DE9EE5095A86DAA3D2A09ADD18E1C8FA8A087E6703A1D7153EF593E0B390B410D8B5C0D318EBA2869DF354962CEBC1A5FF17B2B859703E4149302E11A91F20BAF3765BBA1EB
311
4F5C6D0ACCF244FF270AD3F0A62828ED0BBAC49D650E72C2F2B9C1D960C2F9F10A239F93B11EA4792B27FB0FC8718609697045D72C9FA97101D1B32E174FE78D8D0B5EDDCF914DAAD9B82E39CBD38D62F93D60ACE99EFC07504B03041400060808000E4ECE428DD0B4E34F01000033030000300000006662782F3832383241
311
4335342D383735422D343132362D413144442D3332433743454544303736422F636E782E786D6CD593CD6E022114855F85B06DE64FA7460D8349177D822EBA65E05AA90C4CF869EADBF7A268DDB8E8B21B3239F770CECD1786EDBE2743BEC007EDEC40BBBAA504AC744ADB8F81A6B8AFD694EC38F3CEC53B1B25564C30D02C
311
53CE3EBC4B739114EC45321155A3EDB1881E824B5E424039DF24C6496130006C9550846904A540919B11BFF6E0711514C713890720AF2FEFC48D9F2063604D4EE1ACC91D9CE5B334DD992891468430D0200F30895AA4E8148463AD441475575FBB1EECF49B44F2856B65F29AE4F281E693F2B2518D1C598343CE42F448AF98
311
E26906CAC53C1B2D4544C8CDD978F17096B48DABBE783582F7E8EE56CBBEC7B0F38CB3A827280EE9414450942FDA6E59B5ABAAEBDFDACDB65F6F179BA7F679BB6C5993ED9C8DCE99720963C0BB99486723D84879C79A3C7E84AFF888D21E593B7FFA034804505A2F746E19FF994F737EDF88CBE35FC07F00504B0304140006
311
0808000E4ECE4201B078DCA505000081100000340000006662782F38323832414335342D383735422D343132362D413144442D3332433743454544303736422F6F626A656374732E786D6CAD575D6FDB3614FD2B82F6B23DC8B26C278D074585632785D1A62D6AB4D88301839228850BF501924A9DFDFA1D4A942D3976E20D
311
7D91448ABCBCF7DC733FE8BFDF66DC7AA242B222BFB6BDC1D0B6681E1531CBD36BBB528973655BEF035F1485EA2CB3AD9C64F4DAD6D376E0A7A2A84A3315D384545C1DCCDEDDFC65C988E6D4B6224EA4BCB665F440333220952A622A1F073151649026DB81376816F6C5A682940F07424B2268AEA029E67348B11AA5BCFE70
311
68BB81EFEAFF81AF9F66D5F8F42AB7B6A77F3ECBA52279F4E2B00331636FB2B81D5D4C9D8BC964EC4C2E479E737377B370BC77E3E1FC723E9FCE6EA738582A0149461341133BF8006C048B7CB7F915F815CBD57864961807B9823E31ED293B18599EEF366B76D619238FA91F15794EA31A2BA051DB6744C7B4A4790C9F332A
311
A15907A1617FE8691C3BBFC77A6C8EEC4E9F874077474750AB7BFBEE6A5A847FC304790E8384A49A810D96C6D086ABC33DC2615170F38F492B238A0A46B8C559288878B6032CD54B02BF27463359E868D016D801BCD0FCEED30561F436CF8F6999549C6B1ADB411D051BC40A55B2D68CFD43C55EFB2E32D009BED26CB83206
311
A9E792DAC1B4A1C8D5019B1A20AD8493142E87997AE7787460E85CC7E97261071FEFC2ED4AC7EEF1C34B519454284D1F50AB755CFBD628199DBCB33CA737D807AAEC41F906E43F23D4F7AAC06F826D27DB8939450992CBA410197C630D2D6788C7D0F2EAA7FEEE7CF9EE6E73DF7BA7F084B33554BF00CFBE0D5D5F76E00CFC
311
2710BE106363DA2A221C69E39EE5004893C4E205A6908793706B074B64396465EC223CF06032D47DC2A7EF1A314814F5499D770E2C0FD2E219091AB0D58C841A0DF98D827B3FBD4867F5C166D929782F7E095D678BD5C755251212D17B13D30B9AB09C2994B83D6FBA0AF530EF59F4489F7F162286A12FF15E75F1CECC5112
311
686BCC35F0699BD3F5607F72EF8008FBD242A71BFF8D1360842EAC1DF9F74C46947392D3A26ACF7DB57EA06C3410EB60D74CDE15987D6101699A3F073188221D09566A1077D56A97340727ACFBBEFC0C46DAC1CDF327F2DCCD5EE13EF746052FC4267CDE3469E928D43FFADC3618B85A0AE85E07491BFF06F44DCC92A49248
311
824770FDB19C777DA7D30252442BB5899609EC4770116148DBCA45B5160495B4C8370C75137177F480AE7C406A18500B3CA5B1A43CD930CEAB6C93308E6AB4C94879028EFFAF7F5865E586644595AB13B27BAAA33AF475EFB157FE242A7AB08355FD766E907B631A9F2083AE2547B0EAB9F6DDD5D56271713971E6B3F1AD33
311
594C27CEF46E3E756E478BC9BBDBF97034BE9DB57E6A3409FCB6D474231A5E4269F32BC18CFBBE2F113F2609D8C13D5172FDA109CFF6FD7D39402FECBBD8837AB9DB388B9FD0F7D1F86D01FB9547052DB392D38CE68AE818BAD71FFC1B419FD153A6995F6624A56748F9F26175600C66CED8F755C73BFD79B0D7CCCE75401E
311
15A21EAA2CCC09E3071BD306C94199A706BFD627BB775368DAA11E19C7A03395056731F2606CA5B4C8A842363CA308898C4A50AFDBD3C7E6EE71C6EEA7A6435424E4B4D5E481A049E61261016A5591EACF5BBFA1A9D37DD5B58D723B78C4C3640ADB0267AE6D34E98A45540E421468DD0AD5C2C1A56E278FC69FE42947AFDD
311
6CDA8D77BB3436BD92BC5B724EFF64EC6A52B8310069A444DF808608DEA99509FC5A37F33FFA4F86B7EA5844E133ACD4CE96FDC4CE98FA1884686394B92DA0897934476F11A8AF9BE50DEA353D44CEBA65BD4A8246AAA38848EB9B82D6CFA8345B7C75D1A158CB2F56C9AB14BE3C5F922328C85CE900078BC00A23B3240A54
311
9DFFB9FE2A0ADC6433EB8E8102D6EFDBABCB3FD6F322CB8ABC995ACFCC7DD85A3DE0761BAF911CA8BE96C8F568E88DD64482B7E686B20989A40312CB474CC0B382ED80EEB91FBC6CEE8C1E1619F71B4FB8DA15070C5D2E2C53D826FBF5DDDCAAC141E391530BBAE82BA58E98EE82F2D51B815B2F85AA02BD7CF02F504B0304
311
1400060800000E4ECE42000000000000000000000000350000006662782F38323832414335342D383735422D343132362D413144442D3332433743454544303736422F76657274696365732E62696E504B03041400060808000E4ECE42F270F1330600000004000000360000006662782F38323832414335342D383735422D
311
343132362D413144442D3332433743454544303736422F747269616E676C65732E62696E636660600000504B03041400060800000E4ECE42000000000000000000000000370000006662782F38323832414335342D383735422D343132362D413144442D3332433743454544303736422F617474726962757465732E62696E
311
504B03041400060808000E4ECE42D5987DFC8F00000041010000360000006662782F38323832414335342D383735422D343132362D413144442D3332433743454544303736422F6469726563746F72792E786D6C858F410EC2201045AF4266AF15DDB800BA74E7C21B903225242D6328188F2FA5C4183471359997F9FF81E8
311
9FF3C41E1816475E02DF1F80A11FC8386F25A438EECEC07A250251FC3803E6F58C12560C4AD840E95E91C151A72936F496F35732D860FE635F62C8F2DA16B505C545B74125BAA2FA9E05D7CC053D063734D5C7665FD55B6B8D15D5E9BFEAFD8490FFA45E504B03041400060808000E4ECE4267B0FEE6FF000000A00100003B
311
0000006662782F38323832414335342D383735422D343132362D413144442D3332433743454544303736422F7265736F75726365732F636F72652E786D6C8D504B6EC23010BD4A34DBCA898D43089163148A38412F603943B02036F2A7EAF1EB402AB5BB6E6646EFA3797AE2F035DF8B4FF4C138DB032B291468B51B8D9D7A
311
48F1425A280E5278E7E22F191456CDD8C30283149377E9B142DAD9883666D4BA1157508580110A7DCF470F415F7156A54A312BC2AD7C287D531396ACCC74D64911A2CF018AD7936582F4185CF21A83A85EAC14299971D59831FF3417831E241F067EAE8F27C277F448EA73B32343D39E08DBB57CA8DF6B7EDA36A25ACC5244
311
33FF64D41E55C411E486324E684358FD41F75DDD769BFD1BDD769C8A6A91FF31A5C7F84F533236F2CD1AF7650B20590EF224A4A896BEF27A9699F7D2ADFC06504B010214000A00000800000E4ECE423DEE336E79000000790000001B00000000000000000000000000000000006175746F6465736B2D64657369676E2D7061
311
636B6167652E786D6C504B010214001400060808000E4ECE42D486FD9CA0000000F40000001300000000000000000000000000B20000005B436F6E74656E745F54797065735D2E786D6C504B010214001400060808000E4ECE42741BD07EEC0000007C010000080000000000000000000000000083010000636F72652E786D
311
6C504B010214001400060808000E4ECE4255019EA25F0000007C000000070000000000000000000000000095020000636E782E786D6C504B010214001400060808000E4ECE42C0E5DF9268010000020300000C00000000000000000000000000190300006662782F636F72652E786D6C504B010214001400060808000E4ECE
311
42815F7E8C7D0000009D0000000B00000000000000000000000000AB0400006662782F636E782E786D6C504B010214001400060808000E4ECE42C5AB3DAB2B010000140200003100000000000000000000000000510500006662782F38323832414335342D383735422D343132362D413144442D3332433743454544303736
311
422F636F72652E786D6C504B010214001400060808000E4ECE428DD0B4E34F010000330300003000000000000000000000000000CB0600006662782F38323832414335342D383735422D343132362D413144442D3332433743454544303736422F636E782E786D6C504B010214001400060808000E4ECE4201B078DCA50500
311
00811000003400000000000000000000000000680800006662782F38323832414335342D383735422D343132362D413144442D3332433743454544303736422F6F626A656374732E786D6C504B010214001400060800000E4ECE4200000000000000000000000035000000000000000000000000005F0E00006662782F3832
311
3832414335342D383735422D343132362D413144442D3332433743454544303736422F76657274696365732E62696E504B010214001400060808000E4ECE42F270F13306000000040000003600000000000000000000000000B20E00006662782F38323832414335342D383735422D343132362D413144442D333243374345
311
4544303736422F747269616E676C65732E62696E504B010214001400060800000E4ECE4200000000000000000000000037000000000000000000000000000C0F00006662782F38323832414335342D383735422D343132362D413144442D3332433743454544303736422F617474726962757465732E62696E504B01021400
311
1400060808000E4ECE42D5987DFC8F000000410100003600000000000000000000000000610F00006662782F38323832414335342D383735422D343132362D413144442D3332433743454544303736422F6469726563746F72792E786D6C504B010214001400060808000E4ECE4267B0FEE6FF000000A00100003B00000000
311
000000000000000000441000006662782F38323832414335342D383735422D343132362D413144442D3332433743454544303736422F7265736F75726365732F636F72652E786D6C504B0506000000000E000E00800400009C1100000000
310
504B03040A00000800000E4ECE423DEE336E79000000790000001B0000006175746F6465736B2D64657369676E2D7061636B6167652E786D6C3C3F786D6C2076657273696F6E3D22312E302220656E636F64696E673D227574662D3822203F3E3C666F726D6174733E3C666F726D61743E687474703A2F2F736368656D612E
310
6175746F6465736B2E636F6D2F64657369676E2D7061636B6167652F323030393C2F666F726D61743E3C2F666F726D6174733E504B03041400060808000E4ECE42D486FD9CA0000000F4000000130000005B436F6E74656E745F54797065735D2E786D6C7D8EC10E82300C865F65E91D8A1E8C310C0EEA1BF002731658846E
310
D98AC1B77784ABF1D8FE5FBFBF75BBCE937A534CCEB38643598122B6FEE978D0B0485F9C41B54DDD7D022595594E1A469170414C76A4D9A4D207E29CF43ECE46F218070CC6BECC4078ACAA135ACF422C856C0E68EA1BF5669944DDD7BCDE7B1F8E415D77AECB980613C2E4AC91FC167A2B244592486606FC29C8FD7F045B9A
310
EF7053A7E60B504B03041400060808000E4ECE42E23403CEEB0000007C01000008000000636F72652E786D6C8D904D6EC3201085AF82665B61E3DFD816264A65FB04BD0002E2A2C46019A87AFCE2C491DA5D57333CDE37337AF4FCBDDCD197DA9CB6A6872C21809411566A33F710FC153780CE8C6ED6FA5F3640862FAA875D
310
0646E7CD86F59084355E191F5563A53A44EE9CF280C43D363D38F1A9169EF0E0A3C3DD92958B1B9F5592BDBA0887A0257A2ED132CED357AD3660F5701AEA717CC7C5651A715955256E46129FD3D00ED3659C0A72A2E90E33EAF5F2DA2F36C5BD92C072921598D4382B3F48DB954D97B76FA4EA0A42D3DDFE070AABFC2714B4
310
F1457E9CFBC41CB02C1EF2F86034DDB388E51154AC7B6EEC07504B03041400060808000E4ECE4255019EA25F0000007C00000007000000636E782E786D6C4DCB3B0E80201045D1AD90E915ED2CF8AC45050C11660C8261F98AB1B07AC9C97D42D718D865D3E909258CFD00CCE24AC6E326A164D74DC0B4128928FF32603847
310
2BA13128B1252AC747C6BAB984FC68F0B87FE8960A5C09FE86CFB69FBA01504B03041400060808000E4ECE429B1FAB7867010000020300000C0000006662782F636F72652E786D6C8D525B6E833010BC8AE5DF0A6C1E79CA384A059CA01770C0A128602363A31CBFCB23A2A9A2A84202B3B3B3333BC04EF7B64183347DAD55
310
82039F622455A1CB5A550976F6EAED313A7166B4B6BFDA3052A295091ECB98B3CA68D72DA5422B2B9585AAD2A55C8AA2EFA5C5A868E090E0BEF896ADF085B3D0D1DFFC4E143751493FF001863ECE7A6BC0009A45C63BE6D7CB9D91B9CE997375B9A075096AF5B59606F36DBA4BB759F6E945E73CF3E2CD26F6F61985D73C3D
310
A4F939CB23BA6364247366EBF6E1AE30525859621ED220F2E8D60BE22F7A38C6FB6378F8A09B63441919DB9F48AE2BFF4972B5B251B8D89D693DE6011899803FDB424416F562003F84333286088F29E1E7A0211008D98A4BF3D8E306A54116569B189052BB151A44E324A852345D8CCC284C9E06C0662FE7846FE6BC9F011F
310
50A80AAC090BC78BB3A33A9B5597283A69BCC1DE91D2A615CD6A6EB6B8DE57A197F44237DAFC874D9655C9122619FF5EFE03504B03041400060808000E4ECE42D902E6747E0000009D0000000B0000006662782F636E782E786D6C4DCCD10A83201886E15B91FFDCE55A0B0535CCEA3E625948A6C3E9D8E5AF46073BFAE0E1
310
E3E5CD6773E86DE2CB062FE07A21808C7F84C9FA45404E33A6801AC96308E9EF06C88F9B11703048BEC4909F274D661EB34BBB3AEBD713B52AF5D0D31AF7DDADC6952E07CC14BD63C688525D4B485B6928242F7EA57D8FB0FC02504B03041400060808000E4ECE422CA3879F2C01000014020000310000006662782F434132
310
43464538362D454433362D344332462D394138352D3939304141444230304234432F636F72652E786D6C8D515B6EC32010BC0AE22B55850DB663D91126729CE404BD800B244589C1E251E5F885DA91DABF7CC0A2D999D9114BF78FE90EBEA575CAE80E920C4320353742E96B0783BFA006823DA3D618FF8706811E27D9C104
310
4346AFD6847985B8D15E6A1F516D845CC1D139E921E0F7F8E8A0E35F721AB331F8C870B76C1EF96DBCCA8C64B11D798C3A6F6300B00C493764435F0CE75353A3D3B1AC51351467D4F6CD16B52DEEFBE301E34335D07C11321A8212AB5C8918475D94B4AF9A2431A35E4DCFF8DCCAD14B0159814989708D48F581DB5DD5EC8A
310
F61D6F7725A679A2FF138559BC280A4AFBB258E32E320719A1F9D2605498F0797F86918FD9580FD2BC8D93FC0D329C6142EA780A9A2FD4F801D1B3AE564FE78D8D1FBCB97D4676B91AD715A379DA512CBF0B8C35ED93FD00504B03041400060808000E4ECE42EB777BF45601000033030000300000006662782F4341324346
310
4538362D454433362D344332462D394138352D3939304141444230304234432F636E782E786D6CBD93CD6EC32010845F0571ADFC17BB96136122F5D027E8A1570C9B84C6060B70D5BC7D9784A4B9E450A9EA0559B3C3CCEA1366DBAF69249FE0BCB6A6A7555E5202465AA5CDBEA74BD8651D255BCE9CB5E1CE46891113F434
310
CA94B3BDB3CB9C24053BB18C01D5519B63121D78BB38091EE578938C568A1103C0640B8A300DA014287233E2D70E1CAE82E27022E100E4F5E59DD8E10364F0AC88299C15B183B378A6A63B13257214DEF7D4CB034C22174BB00AFC31572288BCCAAF5D0F76FA4922F1C2B572719AC4F29EC693F2B4518E1C598143CE7C7048
310
2F99C26906CAC53C8F5A8A80908BB3F1E2E16CD126B44DF26A04EFD05DAFDAAEC3B0F38CB3A027480EE940045094AFCAAACECA36AB9AB772BD69BACD6AFD543E6FEA9215D1CED960ED982E610C383B13694D001328AF5811C78FF0251F51DA216BEB4EBF00890052EB85CE2DE32FF9546DDD34FFC8A738BF6FC4E5F02FE0DF
310
504B03041400060808000E4ECE42F558582F640700009A1B0000340000006662782F43413243464538362D454433362D344332462D394138352D3939304141444230304234432F6F626A656374732E786D6CED59DD73A33610FF5718FAD23E181BDBC9251D4227B1931B4F9BF6A6EEDDF4C1338C0C3251230423895CDCBFBE
310
AB0F301093E05EFAD6071B10D26AF7B79F5A829F9E33EA3C612E48CEAE5CDF9BB80E66719E10965EB9A5DC8D2E5CE7A730E0792E1BD35C87A10C5FB96AD80D8394E765618712BC4325959DD1BB9B3F1D1163865D27A648882B57C40F38431E2A659E60F1E82548222FDD3D7BBE6726B6C9A61C150F1DA205E29849E014C619
310
50710C537EFB71E28EC360ACDE8781FAB7B3668366CDFB678DB5D46D2E091312B1F8054B1D32B3412CCDFCF9F2767A76393A9BCF67A3F9F9D41FDDDCDD2C47FE87D96471BE585C5EDF5E027BDB3CA756A604179825A0BFBD1BFAC158BDA945B7081CE33ACE19C3B10612A0D2627509122C60AB067C93F6A3AF246ABCD61236
310
9EE7EABD65A1313C6B53E99B350C88165D10C46E57495C5D9BF2E5DBBF407031C428B9C012B8159283762D3C1CBCC20D27C1D88C86C1F6A00B229C0C49CC09A20E255B8E382805A6AA296160165832CA3938907294045A73E675DBB6C033DF769D635CEE4A4A9567B8A176AC08DC0F4BA139237F637EE0BE890CF004D29684
310
C90BCBA5DC17D80D2F83B11E0C0375994DED4B03A4B3A328151A11F3B623E842B9FE6AE9863FDF6D9FD72A1C1CDFBCE07981B95446A7F4A8F90243B6578592DDD61FA439B5008431A0DA9507507E07E47F85E8716005F4C6C9F3FC796EE74A8E98D8E53C03DD3813673481BF89E3EB7F75DFB80BC6F5E2B6F6FAF004375550
310
5D7C3B9E6D19345696FF069C61F004069FF3997DB58E11057BBE270C005246E2D01C8620B4EFB6CF6EB882C009811E56211AFA2032B0FB04B7C1D8923968A5722FEB750C10B57BCC86280960D316096CF4E8E923640F4EE2839A9A22F6C17BF62EE67ABD5CFFBC2EF90EC5F8DEFAF412EF082312B2E671865A98B7247AC4FB
310
AF394F40D09778AF9B7867762B01682BCC15F06905827A38ECDCDA20867569AEC24DF0C60E2084CAD50DFAF744C49852C4705E56FBD6D14D196AEDF1B66670C3A9817836ED9830C74F445515E03487192D4621EFC79C140A4437FC6824AB83A6D723DDE7D5AF6091F5FC9E592B06A19721FA870E5A477068597685B405A216
310
787B08E7714E731E6DF79189742ED412C046DB5BBEB48842AC374A5254C083B4DF55212535D24609D9ED4A0171F5088B5F568BA6394CBC997FE634FF3BCE3887680BBE8BB8F5BBCE1E11C9508AA31D4AFAB66BEE56D3169A640F698E7714E4224F44EE2324A34982D353A03989F8E5BB524F692E04615840BE3A0A7E138D89
310
0781C468B3625969B5033411518625A2A720A0C8F480ABD38EAE7163281DDEE6B1B6DED734D624FA1F590447504BE62C22508A420E799371DF3B8318D246D7A0DCC117ACADA2ADC5A0259410F13EFA8A49FA204F41DD90EFC13D86234929A3BC403198F500B22F7C4529B5C3FB16C58F2A7F447149DFCB4004A6BB88505A66
310
11FC088393C710D7AE03D3AB2834889BD8277106451992251FB2C9F9D9E4C53EA666E886C0C6463B42216C47192A7A506F05445D8F3835F8967A8F52B765564428CB4B36C850BC59D79B2CF9AE5A15D981FCAA5211CAC68AB025180684C93AAB56311B4C5D075670231DA8F691405941CD29EC8DC4E3D7DEA429F76EC0AD9F
310
BEEF0619147E3DDA6B46D4790583E5B1551888AF48C60F6EB8D6D7D10DD4DF094E0EA9BEAA359B152020A62279C98955D1E7159437B64673C37B24C5E6A3C9BAD5F5F3CA83EE4730863550BBD40B570AE80C3389546572AF6EE8EF0842708B86195FA99C7A0A95EB24D15523A277A44F9DAD32A2B56946BCE201B33C831FDB
310
1016D332C11B9488C7E85ED2684D14EB564A2F2315C6AF0AF8DBC775071E181920D22755E0E1AF9DB57674A1CAA5A344E443996D192210045BA2A546375EC152AB914ACBF5559D29A0EE0203B32A9EFF7FB268B623FE3F59A4D630BEE96471B3FF05ED9B7D91463A8F955D9F740CA8F393A2F21EC700DD76A8A9D659C42473
310
2BBF75A608826215E507576355D03004FB38FED759BB2F0B9AED3AFC9F96B5FD1715C74959A5355975A98E54AEAB660EFB7071B15C9E9DCF478BEBD9ED68BEBC9C8F2EEF1697A3DBE972FEE1763199CE6EAF6B34B5A386411DCC74EE826713D4AA61F5643180AEACC82949E0349F382986982FE14C3FA07DCE332C2079369B
310
DD896DCA0F58FD64FA9C126D29AE387940D020A602D23A6054C6B23DEE7C07AD490907ED2B179A46DE23FC59AB741DC83C572EB40A2489B1F0B6D066520D3D4D1C52AECEFD9618E08358AA52A259543FD7AB1436ADF05F4F199206AC5CAD1E06146E0574BF5A1D0ACD9BE5293E49F08A1D0749B8DD9612AA3523CB61A01646
310
6F7350BF918D12F668B77E06D77D5D2CDFD3735A880CFA64F0AA1118AA238978AAFBDD8A31CBD2F5F2D318FA6CCEEA37A7A0650ABA1C4E69C4311873A90A2AB022B00A4BB340124C75F1E3E613CFE1134FE6E8AAC8F9FEF9E2FC87CD22CFB29C99A1CD359CCA12F850E4AC1FE0B34FB281E201ABE6BAD84C27FE748304D8AD
310
EDB3475B24B0A7AA2218A88A092548C7E4C02E5F34A86CFB72AC54D199BE5A3A36884233C0D8D18B1EAFF9C8E5002FEA738AF218EDE795B4AFF6B5C77A2AD804878E74F80F504B03041400060800000E4ECE42000000000000000000000000350000006662782F43413243464538362D454433362D344332462D394138352D
310
3939304141444230304234432F76657274696365732E62696E504B03041400060808000E4ECE42F270F1330600000004000000360000006662782F43413243464538362D454433362D344332462D394138352D3939304141444230304234432F747269616E676C65732E62696E636660600000504B03041400060800000E4E
310
CE42000000000000000000000000370000006662782F43413243464538362D454433362D344332462D394138352D3939304141444230304234432F617474726962757465732E62696E504B03041400060808000E4ECE42D5987DFC8F00000041010000360000006662782F43413243464538362D454433362D344332462D39
310
4138352D3939304141444230304234432F6469726563746F72792E786D6C858F410EC2201045AF4266AF15DDB800BA74E7C21B903225242D6328188F2FA5C4183471359997F9FF81E89FF3C41E1816475E02DF1F80A11FC8386F25A438EECEC07A250251FC3803E6F58C12560C4AD840E95E91C151A72936F496F35732D860
310
FE635F62C8F2DA16B505C545B74125BAA2FA9E05D7CC053D063734D5C7665FD55B6B8D15D5E9BFEAFD8490FFA45E504B03041400060808000E4ECE428ADE5EFFFF000000A00100003B0000006662782F43413243464538362D454433362D344332462D394138352D3939304141444230304234432F7265736F75726365732F
310
636F72652E786D6C8D504B6E833010BD0A9A6D65308110888C232AE004BD806526C44AB0913F558F5F9350A9DD7533337A1FCDD36397AFE5917CA275CAE816F29442825A9A49E9B985E0AFA486E4C29935C6FF9241A2C5822D6C3070365B13D61D92467BD43EA2DA4CB883C239F490C8473C5A70F2868B4845F051E1EEE92A
310
E45DCC98E669A4A38E33E76D0C90BC9E6C13B845678295E858F662390B414DBB464DF1A7BA2AB4C0ABFED457C3D091A21B07521E8F25A907FA4E8AB16FFAB11BC6829E58B69939F36AF9C9282D0A8F13F003CD0B422B92971FB43997F5F9D0BCD1E3B9A02CDBE47F4C619DFE690A4AFBE2B0C77DD91CF03C0679129C655B5F
310
713DCB8C7BEB967F03504B010214000A00000800000E4ECE423DEE336E79000000790000001B00000000000000000000000000000000006175746F6465736B2D64657369676E2D7061636B6167652E786D6C504B010214001400060808000E4ECE42D486FD9CA0000000F40000001300000000000000000000000000B20000
310
005B436F6E74656E745F54797065735D2E786D6C504B010214001400060808000E4ECE42E23403CEEB0000007C010000080000000000000000000000000083010000636F72652E786D6C504B010214001400060808000E4ECE4255019EA25F0000007C000000070000000000000000000000000094020000636E782E786D6C
310
504B010214001400060808000E4ECE429B1FAB7867010000020300000C00000000000000000000000000180300006662782F636F72652E786D6C504B010214001400060808000E4ECE42D902E6747E0000009D0000000B00000000000000000000000000A90400006662782F636E782E786D6C504B01021400140006080800
310
0E4ECE422CA3879F2C010000140200003100000000000000000000000000500500006662782F43413243464538362D454433362D344332462D394138352D3939304141444230304234432F636F72652E786D6C504B010214001400060808000E4ECE42EB777BF456010000330300003000000000000000000000000000CB06
310
00006662782F43413243464538362D454433362D344332462D394138352D3939304141444230304234432F636E782E786D6C504B010214001400060808000E4ECE42F558582F640700009A1B000034000000000000000000000000006F0800006662782F43413243464538362D454433362D344332462D394138352D393930
310
4141444230304234432F6F626A656374732E786D6C504B010214001400060800000E4ECE420000000000000000000000003500000000000000000000000000251000006662782F43413243464538362D454433362D344332462D394138352D3939304141444230304234432F76657274696365732E62696E504B0102140014
310
00060808000E4ECE42F270F13306000000040000003600000000000000000000000000781000006662782F43413243464538362D454433362D344332462D394138352D3939304141444230304234432F747269616E676C65732E62696E504B010214001400060800000E4ECE42000000000000000000000000370000000000
310
0000000000000000D21000006662782F43413243464538362D454433362D344332462D394138352D3939304141444230304234432F617474726962757465732E62696E504B010214001400060808000E4ECE42D5987DFC8F000000410100003600000000000000000000000000271100006662782F43413243464538362D45
310
4433362D344332462D394138352D3939304141444230304234432F6469726563746F72792E786D6C504B010214001400060808000E4ECE428ADE5EFFFF000000A00100003B000000000000000000000000000A1200006662782F43413243464538362D454433362D344332462D394138352D3939304141444230304234432F
310
7265736F75726365732F636F72652E786D6C504B0506000000000E000E0080040000621300000000
  0
XRECORD
  5
17
102
{ACAD_REACTORS
330
12
102
}
330
12
100
AcDbXrecord
280
     1
270
     1
271
     1
  0
XRECORD
  5
16
102
{ACAD_REACTORS
330
12
102
}
330
12
100
AcDbXrecord
280
     1
270
     1
271
     1
  0
XRECORD
  5
18
102
{ACAD_REACTORS
330
12
102
}
330
12
100
AcDbXrecord
280
     1
270
     1
271
     1
  0
XRECORD
  5
15
102
{ACAD_REACTORS
330
12
102
}
330
12
100
AcDbXrecord
280
     1
270
     1
271
     1
  0
XRECORD
  5
24
102
{ACAD_REACTORS
330
22
102
}
330
22
100
AcDbXrecord
280
     1
270
     1
271
     1
  0
XRECORD
  5
23
102
{ACAD_REACTORS
330
22
102
}
330
22
100
AcDbXrecord
280
     1
270
     1
271
     1
  0
XRECORD
  5
BA
102
{ACAD_REACTORS
330
22
102
}
330
22
100
AcDbXrecord
280
     1
 70
     1
 90
1959938040
 71
     1
  1
C118A682-CA6C-435B-98B7-598F8190773C
311
504B03040A00000800000D4ECE423DEE336E79000000790000001B0000006175746F6465736B2D64657369676E2D7061636B6167652E786D6C3C3F786D6C2076657273696F6E3D22312E302220656E636F64696E673D227574662D3822203F3E3C666F726D6174733E3C666F726D61743E687474703A2F2F736368656D612E
311
6175746F6465736B2E636F6D2F64657369676E2D7061636B6167652F323030393C2F666F726D61743E3C2F666F726D6174733E504B03041400060808000D4ECE42D486FD9CA0000000F4000000130000005B436F6E74656E745F54797065735D2E786D6C7D8EC10E82300C865F65E91D8A1E8C310C0EEA1BF002731658846E
311
D98AC1B77784ABF1D8FE5FBFBF75BBCE937A534CCEB38643598122B6FEE978D0B0485F9C41B54DDD7D022595594E1A469170414C76A4D9A4D207E29CF43ECE46F218070CC6BECC4078ACAA135ACF422C856C0E68EA1BF5669944DDD7BCDE7B1F8E415D77AECB980613C2E4AC91FC167A2B244592486606FC29C8FD7F045B9A
311
EF7053A7E60B504B03041400060808000D4ECE428D1ECF36EC0000007C01000008000000636F72652E786D6C8D90416EC3201045AF82D856386063175B98C849E513F402088883128365A0EAF18B13476A775DCDE8CF7F33A3CF8FDFF31D7C993558EF7A480A0C8171CA6BEBA61EA678410C82A3E0ABF7F1970D022767D3C3
311
4D86824FAB4FCB2E29EFA27131ABCE6BB38B3204132150F7DCF430A8AB99652153CC8E702B16A96E7232057975194EC96AF03C6275DE672FD6AC509CDA9A517A1ED038B206513A0E88357583182BC9507D9C86F37BCB0F1B2C78B4F3EBBE5A8D8C464351625221DC20423F71DB51D695CD1BAEBB0AF3C366FF03A545FF134A
311
D6C5AADCDF7D62010A921F790C043F6C59E4F2082AD72D37F103504B03041400060808000D4ECE4255019EA25F0000007C00000007000000636E782E786D6C4DCB3B0E80201045D1AD90E915ED2CF8AC45050C11660C8261F98AB1B07AC9C97D42D718D865D3E909258CFD00CCE24AC6E326A164D74DC0B4128928FF326038
311
472BA13128B1252AC747C6BAB984FC68F0B87FE8960A5C09FE86CFB69FBA01504B03041400060808000D4ECE422A7B0FF468010000020300000C0000006662782F636F72652E786D6C8D52ED8A8330107C9590BF478C5FF56C8929B6479FE05E20D5D4936A2231913EFEAD1FC5EB514A116298D9D99D1D65FB5BDBA0419ABE
311
D62AC381E7632455A1CB5A551976F642528CF69C19ADED9F328C946865864718735619EDBA052AB4B2525940952EE5028ABE9716A3A2814B86FBE247B6C213CE42457FF53A515C4525BDC0031AEA38EBAD0103681E329E985FCE3746679C33E7EA7261EB12A6D5975A1ACC0FDB4D1AC7C79C9C4E6942E2F8949334D924244D
311
C3208FBE0EF9F173CBE828E6CCD6EDDD5D61A4B0B2C43CF48388F80909E26F7FBB8BD35D987CF89B5DE4333A963F885C57BE2972B5B251B8D89D653DE6011899887FDB424416F562003F94333A8608AF29E1C7A0211008D98A7373DFE30AD0200BAB4D0C4CA9DD4A0DA27112A6FA687A189D59E83C3580CD9EF6095FF479DD
311
033EA05015581316AE6767C7E96C9EBA44D14943067B434A9B5634ABB9D9E27AAE839ECA0BDD68F38E9A2EABD2254C3AFEBDFC17504B03041400060808000D4ECE427E9960957D0000009D0000000B0000006662782F636E782E786D6C4DCCD10A83201886E15B91FFDCA5A4EB0FD428A8FB886511330DA76397BF1A1DECE8
311
83878F57359FCD91B78DAF35780DFCC68058FF08D3EA170D39CD14813446C510D2DF0D881F37ABE164306A8921EF174D761EB34B87BAD53F2FE4B2171DEF7A8A28918AF22E685B23A375394864D580D5D0426154F12B1D7B86CD17504B03041400060808000D4ECE42E3DFDEDB2C01000014020000310000006662782F3135
311
4534423142452D383835382D343336342D413938302D3933463538303746383746412F636F72652E786D6C8D515B6EC23010BC8AE52FAA2A894D9CE020C7082438412F101C0316C48EFCA8387E374D90DA3F7EBCD6ECCCEC6857EC9EC3037D6B1F8CB32DA639C1485BE57A63AF2D4EF192718C765278E7E21F1A46B61B748B
311
27184B71F52E8D0BA49C8DDA4640ADEBF5027621E888917AC0A7C541DDF4D0E55D8AC008F77CECD4BDBBEA9CE6D0069E14217A0880E621D38B25AD8EEC400FC78CF38A67ACAC59B66F38C99AF25471B239F1CD692F8A5928454AA65FE4A68738E662B47FD764124B11CDF08AAFBCEEA2EEB15C135A66A4CE28FB22CD96F1ED
311
BAFE24D5B624A298E8FF4469ECDF14256363B95EE2CEB20059453137A4E85D3A3F5E61F473743EA269DE2A68F58125C909A56CC31B2A8A990A0B00CF9A2D9E213A0F0B5EDDCFC0A6D56C5C33298AE946507E0F0875BAA7FC01504B03041400060808000D4ECE4241199B564E01000033030000300000006662782F31354534
311
423142452D383835382D343336342D413938302D3933463538303746383746412F636E782E786D6CD593CD6E022114855F85B06DE64FA7136B184CBAE81374D12DC255A90C4CF869EADBF7A268DDB8E8B21B3239F770CECD17866DBE2743BEC007EDEC48BBBAA504AC744ADBFD4853DC552B4A369C79E7E29D8D122B261869
311
9629677BEFD25C24053B914C44D5687B2CA287E092971050CE37897152180C005B251461DA8252A0C8CD885F3BF0B80A8ADB138907206FAF1FC46D3F41C6C09A9CC259933B38CB6769BA3351228D0861A4411E6012B548D12908C75A8928EAAEBE763DD8E93789E40BD7CAE435C9E523CD27E565A31A39B206879C85E8915E
311
31C5D30C948B79365A8A88909BB3F1E2E12C691B87BE783582F7E8EE8665DF63D879C659D4131487F4202228CA176DB7ACDAA1EAFAF7F665DDAFD68BE1A97D5E2F5BD6643B675BE74CB98431E0DD4CA4B3116CA4BC634D1E3FC2577C44698FAC9D3FFD01240228AD173AB78CFFCCA739BF6FC4E5F12FE03F504B0304140006
311
0808000D4ECE421F9E8A6DA505000080100000340000006662782F31354534423142452D383835382D343336342D413938302D3933463538303746383746412F6F626A656374732E786D6CAD57DB6EDB3810FD1541FBB2FBE08B6C27B1178A0AC76E0AA3485BD468B10F060C4AA2146EA80B482A71F6EBF750A26EAE9D7A17
311
7DB12C6A389C3973E642F7DD21E1D633159265E9ADED0CC7B645D3200B591ADFDA858A0673DB7AE7B922CB5447CCB65292D05B5B2FDB9E1B8BACC8CD524823527075B47A7FF79725039A52DB0A3891F2D696C1234DC890142A0BA97C1A864491611C1D86CEB012ECAB8D05C91F8F94E644D054C152ACA7D062554639FDD7B1
311
3DF2DC91FEEEB9FAD7484DCF4B8D4A7FFAE7B3542A92063F1C76A466EACCD6EF27578BC1D56C361DCCAE27CEE0EEFE6E3D706EA6E3D5F56AB558BE5FE060A90434194B048D6CEF03B0112C7047D527CF2D58AAA6132362023412F499E948D9DEC472DC5125D378679C3C657E90A5290D4AAC8046E99F511DD29CA62162CEA8
311
84651D84C6FD5747E3D8F93CD5EFE6C8EEF2650874777414D5B6D7CFAEA599FF375C9097304848AA195861691CADB83A6E11F6B38C9B6F4C5A09515430C22DCE7C41C4ABED41548B786E4F8D66B2D0D9A03DB03D44A1FADCA70BD2E8E73C3F65655470AE696C7B6516EC912B54C9D232F60F15ADF55D64601362A5D930370E
311
A9D79CDADEA2A2C8FC884D159056C4498C90C34DBD733A397274A5F374B3B6BD8FF7FE61AB73F7F4E1B9C8722A94A60FA85507AE7E6A948C4DCE4591D31BEC23535A50BE02F94F48F5D614C44DB0C3EC3033A7284152196522416CACB13518E3676C39E5AFFEDFF9E78E9ACDFDE89DC313C1D650FD023CFB3E7463D981D373
311
9F41F84C4C8D6BDB8070948D079602204D128B6758421D8EFC83ED6D50E55095B18B70CF81CB30F7197FDD91518342519ED479A6C0F2A82C5E50A0015BC948985191DF18D8C6E98772561E6CC4CEC17BF54BE8BA5C6F3F6E0B1191803E989C5ED388A54CA1C5B5BCE91AD4C3BCE7D1137D7DC94408477FC47BDBC53B314749
311
A0AD31D7C0C7754DD72FEDC9BD0302EC8B335D6EDC9F9C00277463EDE87F6032A09C939466457DEE9BFD036DA3825827BB6672D360DAC602D2545F8E72104D3A102CD72036DDAA299AC333DE7DDB7C022321CF339FF056C86F4B6F90F14CECFDD77D55954E22FDBD4F6D03C1486B01DBCB1CA9D3DF60BE0F5914151235F004
311
ACDF37AB6EE874554085A8B556C93283FBC82D220C676BBD68D682A09166E99EA16D22ED4E1ED0D50F440D014A85E72C9694477BC67991EC23C6D18CF609C9CFC0F1FFEDF78B24DF93242B52754677CF743487BEED3DF2CA17A28247DBDB96CFC11D4A6F48C336CC3D61DD4A4E60D50BEDCA71E6CBEBF964B05A5EAF06B3E9
311
D5DD6031BFBB195C2DE6F7736731BEB999C27563513943796EDD69BA098D28A1B3B98560267CDF36481F53036CEF8128B9FB506567FDFCB61962147647D88376D96C5C86CF18FB68F87305ADE449459B24E734A1A9223A851EF41FFE9560CCE81953AD6F1212D30BB47CFEB03D72062B17ECFBA2D39DBE1CED35AB2B9D9027
311
95A8C722F153C2F8D1C6B8427298A7B1C1AF8E49F3ACFA4CFDAADF4C603098CA8CB3106530B4629A2554A1185ED083444225A8D71DE94373F5B860F77335202AE2735A5BF24830237389B4006F8B40F5D7ADDF30D3E9B1EAD646B71D3EE1C7540ADB02676E6DCCE88A05540E7DF4673D0995CAC1A5EE200FCE9234E618B5AB
311
4DCD7BB34B63D3EBC88DC825E393F1ABAAE0C60194911C6303E62144A734C6734BDBCCF7E03F395E9B631185BF7EA11A5FDA85C699F218A468E594B92C60867932471F90A86FBBE50C4B991E22175DB2DE2441A575A08888CB8B82B6CF98B45C7F196140B1369FAD9C17316279B9A681A02073A1131C2C022B8CCE9C285075
311
F5E7EE8BC870914DAC7B060A58BF1FE6D77FEC5659926469B5B45B9AEBB0B57DC4E536DCA138507D2B91BBC9D899ECCADB80B9A0EC7D22E99084F2090B88AC600DD0BDF08397D595117DA8FAD0C88D74288E18BA595BA6B1CDA0D4D0A55B5B3538983B526A2187F48D52674C57207FF342302A456182C028EFFD0B504B0304
311
1400060800000D4ECE42000000000000000000000000350000006662782F31354534423142452D383835382D343336342D413938302D3933463538303746383746412F76657274696365732E62696E504B03041400060808000D4ECE42F270F1330600000004000000360000006662782F31354534423142452D383835382D
311
343336342D413938302D3933463538303746383746412F747269616E676C65732E62696E636660600000504B03041400060800000D4ECE42000000000000000000000000370000006662782F31354534423142452D383835382D343336342D413938302D3933463538303746383746412F617474726962757465732E62696E
311
504B03041400060808000D4ECE42D5987DFC8F00000041010000360000006662782F31354534423142452D383835382D343336342D413938302D3933463538303746383746412F6469726563746F72792E786D6C858F410EC2201045AF4266AF15DDB800BA74E7C21B903225242D6328188F2FA5C4183471359997F9FF81E8
311
9FF3C41E1816475E02DF1F80A11FC8386F25A438EECEC07A250251FC3803E6F58C12560C4AD840E95E91C151A72936F496F35732D860FE635F62C8F2DA16B505C545B74125BAA2FA9E05D7CC053D063734D5C7665FD55B6B8D15D5E9BFEAFD8490FFA45E504B03041400060808000D4ECE4230D7ACF7FE000000A00100003B
311
0000006662782F31354534423142452D383835382D343336342D413938302D3933463538303746383746412F7265736F75726365732F636F72652E786D6C8D50596E833010BD0A9ADFCAECA1061947241527E8052C33A156828DBC543D7E4DA052FBD79F99D15B344F8F9DBF9647F289D629A37B28D21C12D4D24C4ACF3D04
311
7F2314923367D618FF4B0689160BF6B0C1C0D96C4D580F481AED51FB886A33E1010AE7D043221FF1E8C1C90F5C442A828F0A774F5721EF62C6B448231D759C396F6380647FB24DE0169D0956A263D9CE7216829A0E8D9AE24F755368815FDA13ADEB6B4BC69136A4AEC781D0E6D4104ACB62A8DE2EC3F5B565D966E6CCABE5
311
27A3B4283C4EC0CBBCA848DE90A27ECFDBAEA65DD9BCE4A7AECA59B6C9FF98C23AFDD31494F65579C4DD6D0E7811833C09CEB2ADAFB89E65C6BD75CBBF01504B010214000A00000800000D4ECE423DEE336E79000000790000001B00000000000000000000000000000000006175746F6465736B2D64657369676E2D706163
311
6B6167652E786D6C504B010214001400060808000D4ECE42D486FD9CA0000000F40000001300000000000000000000000000B20000005B436F6E74656E745F54797065735D2E786D6C504B010214001400060808000D4ECE428D1ECF36EC0000007C010000080000000000000000000000000083010000636F72652E786D6C
311
504B010214001400060808000D4ECE4255019EA25F0000007C000000070000000000000000000000000095020000636E782E786D6C504B010214001400060808000D4ECE422A7B0FF468010000020300000C00000000000000000000000000190300006662782F636F72652E786D6C504B010214001400060808000D4ECE42
311
7E9960957D0000009D0000000B00000000000000000000000000AB0400006662782F636E782E786D6C504B010214001400060808000D4ECE42E3DFDEDB2C010000140200003100000000000000000000000000510500006662782F31354534423142452D383835382D343336342D413938302D393346353830374638374641
311
2F636F72652E786D6C504B010214001400060808000D4ECE4241199B564E010000330300003000000000000000000000000000CC0600006662782F31354534423142452D383835382D343336342D413938302D3933463538303746383746412F636E782E786D6C504B010214001400060808000D4ECE421F9E8A6DA5050000
311
801000003400000000000000000000000000680800006662782F31354534423142452D383835382D343336342D413938302D3933463538303746383746412F6F626A656374732E786D6C504B010214001400060800000D4ECE4200000000000000000000000035000000000000000000000000005F0E00006662782F313545
311
34423142452D383835382D343336342D413938302D3933463538303746383746412F76657274696365732E62696E504B010214001400060808000D4ECE42F270F13306000000040000003600000000000000000000000000B20E00006662782F31354534423142452D383835382D343336342D413938302D39334635383037
311
46383746412F747269616E676C65732E62696E504B010214001400060800000D4ECE4200000000000000000000000037000000000000000000000000000C0F00006662782F31354534423142452D383835382D343336342D413938302D3933463538303746383746412F617474726962757465732E62696E504B0102140014
311
00060808000D4ECE42D5987DFC8F000000410100003600000000000000000000000000610F00006662782F31354534423142452D383835382D343336342D413938302D3933463538303746383746412F6469726563746F72792E786D6C504B010214001400060808000D4ECE4230D7ACF7FE000000A00100003B0000000000
311
0000000000000000441000006662782F31354534423142452D383835382D343336342D413938302D3933463538303746383746412F7265736F75726365732F636F72652E786D6C504B0506000000000E000E00800400009B1100000000
310
504B03040A00000800000D4ECE423DEE336E79000000790000001B0000006175746F6465736B2D64657369676E2D7061636B6167652E786D6C3C3F786D6C2076657273696F6E3D22312E302220656E636F64696E673D227574662D3822203F3E3C666F726D6174733E3C666F726D61743E687474703A2F2F736368656D612E
310
6175746F6465736B2E636F6D2F64657369676E2D7061636B6167652F323030393C2F666F726D61743E3C2F666F726D6174733E504B03041400060808000D4ECE42D486FD9CA0000000F4000000130000005B436F6E74656E745F54797065735D2E786D6C7D8EC10E82300C865F65E91D8A1E8C310C0EEA1BF002731658846E
310
D98AC1B77784ABF1D8FE5FBFBF75BBCE937A534CCEB38643598122B6FEE978D0B0485F9C41B54DDD7D022595594E1A469170414C76A4D9A4D207E29CF43ECE46F218070CC6BECC4078ACAA135ACF422C856C0E68EA1BF5669944DDD7BCDE7B1F8E415D77AECB980613C2E4AC91FC167A2B244592486606FC29C8FD7F045B9A
310
EF7053A7E60B504B03041400060808000D4ECE42097FC6D1EA0000007C01000008000000636F72652E786D6C8D90416EC3201045AF82665B6103B6896D61A2263D422F800C715062B00C543D7E71E248EDAEAB19FDF96F66F4C5F17BBEA32FB306EBDD00B420808C1BBDB66E1A20C50B6E011DA558BD8FBF6C809C9ACD009B
310
0C524CAB4FCB2E8DDE45E362569DD76617550826021AEFB919208C5733AB42A5981DE1562C6ABCA9C914F4D5653825ABD1F388D5799FBD58B382E4EC7CA8BB86634E3FCEB8E6CD3BEE58DD62C69A969E0EBCE287932837588A68E7D7FD71352A1A0D92115A61C231AD3F49D7D76DCFF81B69FA8A8872B3FF81D2A2FF0925EB
310
62C5F6779F580049F3238F8114E596452E8FA072DD72933F504B03041400060808000D4ECE4255019EA25F0000007C00000007000000636E782E786D6C4DCB3B0E80201045D1AD90E915ED2CF8AC45050C11660C8261F98AB1B07AC9C97D42D718D865D3E909258CFD00CCE24AC6E326A164D74DC0B4128928FF326038472B
310
A13128B1252AC747C6BAB984FC68F0B87FE8960A5C09FE86CFB69FBA01504B03041400060808000D4ECE42A1DC2DC567010000020300000C0000006662782F636F72652E786D6C8D52ED8E8320107C15C2DF8BA2A8F4234873ED3DC2BD0055EA992A1804D3C7BFF5A3F17A699AC604C9CCCEEEEC283FDCDA060DCAF6B5D139
310
8EC30823A50B53D6BACAB17797608BD141706B8CFB53869196ADCAF10863C12B6B7CB74085D14E6907A836A55A40D9F7CA61543470C9715FFCA85686D23BA8E8AF61278BABAC54188740439DE0BDB36000CD43C6138BCBF9C6C98C0BEE7D5D2E6C5DC2B4FA522B8B05A3A74DBACB58C0E2AF5390B2EC33D8D1741B509A6DE3
310
E386256C73E464140BEEEAF6EEAEB04A3A556241A338092216C4E977B4DBA7DB3D651F51B64F224EC6F20791EFCA3745BED62EA18BDD59D66311839189F8B72D44E4502F07F04304276388F09A127E0C1A0281909D3C37F73DAE000DAA70C6A6C094C6AFD4201BAF606A84A687939985CE5303D8EC691FFAA2CFEB1EF001A5
310
AEC09A74703D7B374EE7F3D4258A4ED9607037A48D6D65B39A9B2DAEE73AE8A9BC308DB1EFA8C9B22A59C224E3DF2B7E01504B03041400060808000D4ECE424F1B07467E0000009D0000000B0000006662782F636E782E786D6C4DCCD10E82201886E15B61FF399989481BE0A0E43E5CA2632234C2D6E5A7CD838EBEEDD9B7
310
97B79FC5A3B74D2F178380F2740664C3230E2E4C02D63C6206A8953CC598FF6E8042BF58013B83E4538AEBF3A0C18EFDEAF3A6DE85F94066B4D25451DC955D8309AD2E5857FA8A6F8A3063EABB6E6A0285E4C5AFB4ED1E965F504B03041400060808000D4ECE42BA62E06C2D01000014020000310000006662782F38464241
310
423641362D453145372D343633322D423342392D4341343846463544423735342F636F72652E786D6C8D515B6EC32010BC8AC557AACA3636983811268ADBE404BD000192A0C460F1A872FCE2DA91DABFFCB068766676B44B778FE19E7D2BE7B5351DA80A0832658495DA5C3A10C3396F41B663D4591BFED04066F8A03A30C1
310
80D18BB3715C20614D502624D458A916907BAF02C8C43D7D3AE0C5550DBCE0312486BF152317377E514555A476E231EA834B01B279C8F402D61EFB7D4FF6243F5487758E09AAF31EF59BFC638FDBE3B1F9ECD70DA6E52C6434462D17B996298E3E6BE55E3599C48C063D3CE30BA7785012B01A56288724AFF017DC6C71BBAD
310
C93B6CB608D272A2FF13C551BE288ADA04542F71679907ACA2E5DC6054DA78BA3FC3A8C7685DC8A6792BAFC41B60B080558D9A356C683953D3029227C18BA70FD6A505AF6EA7C4468B31C18C96D38D52F93D60AAD33DD90F504B03041400060808000D4ECE4227BE54415601000033030000300000006662782F3846424142
310
3641362D453145372D343633322D423342392D4341343846463544423735342F636E782E786D6CBD93CD6EC32010845F0571ADFC17BB561A6122F5D027E8A1570C9B86068305B86ADEBE4B42D25C72A854F582ACD96166F509B3EDD764C827F8A09D1D6853D69480954E69FB3ED025EE8A35255BCEBC73F1C6468915130C34
310
C994B377EF96394B0A7662311155A3ED218B1E825BBC848072BA498C93C26000D8624111A611940245AE46FCDA81C755501C8F24EE81BC3CBF11377E808C81552985B32A757096CEDC7463A2441A11C24083DCC3244AB144A7201C4A25A2289BF2D27567A79F24922E5C2A17AF492A1F683A29CF1B95C8915538E42C448FF4
310
B2291E67A05CCCB3D15244845C9D8C670F678BB6B1EFB25723788FEE76D5AFD718769A7116F504D9213D88088AF255DDB445DD174DF75A3F6DBAF566D53FD48F9BB66655B273363A67F2258C01EF66229D8D6023E50DABD2F81EBEEC234A7B64EDFCF1172011406E3DD3B966FC259FA66FBBEE1FF954A7F78DB83CFE05FC1B
310
504B03041400060808000D4ECE4291D4419B62070000991B0000340000006662782F38464241423641362D453145372D343633322D423342392D4341343846463544423735342F6F626A656374732E786D6CED595B73A33614FE2B0C7D691F8C4DEC244E87B093384DC6B393DD9D7577A70F9E616490891A211849E4D25FDF
310
A30B18884970377DDB071B10D2D139DFB9EA107C78CAA8F380B920393B777D6FE23A98C57942587AEE96723B9ABBCE8730E0792E1BD35C87A10C9FBB6AD80D8394E765618712BC4525959DD1EBCBBF1C1163865D27A648887357C47738431E2A659E6071EF2548222FDD3E79BE6726B6C9A61C15771DA205E29849E014C619
310
50710C537EFB71E28EC360ACDE8781FAB7B3A68366CDFA678DB5D46D2E091312B1F8054B1D32D3412C4DFDD9D51F47C767A3E3D96C3A9A9D1CF9A3CBEBCBAB917F3A9D2C4E168BB38B3FCE80BD4D9E532B53820BCC12D0DFB31BFAC158BDA945B708ECE33ACE19C3B10612A0D2627509122C60AB067C93F6A3AF246ABCD612
310
369E67EABD65A1313C6D53E99B350C88165D10C46E57495C5D9BF2E59BBF417031C428B9C012B8159283762D3C1CBCC20D27C1D88C86C166A70B229C0C49CC09A20E251B8E382805A6AA296160165832CA3938907294045A73E675DBB6C033DF769D7D5C6E4B4A9567B8A176AC08DC0F4BA13923FF60BEE3BE890CF004D296
310
84C9B9E5523E17D80DCF82B11E0C0375991ED9970648674B512A3422E66D47D08572FDE5951B7EBCDE3CAD5438D8BF79C1F30273A98C4EE951F305866CAF0A25BBAD3F48736A01086340B52B77A07C05E43F41F4D8B1027AE3E469F634B37325474C6C739E816E9C89339AC0DFC4F1F5BFBA6FDC05E37A715B7B7D78829B2A
310
A8E63F8E675B068D95E5BF0167183C80C1E77C6A5FAD6244C19E6F09038094913834872108EDDBCD931B2E217042A0875588863E880CEC3EC06D30B664765AA9DCCB7A1D0344ED1ED3214A02D8B445021B3D7ABA81ECC149BC535353C43E788FDFC55C2FAE561F5725DFA218DF5A9FBEC25BC28884ACB99FA116E62D89EEF1
310
F363CE1310F425DEAB26DE99DD4A00DA0A73057C5A81A01E763BB73688615D9AAB7013BCB10308A1727583FE2D1131A614319C97D5BE757453865A7BBCAD19DCF0C8403C3DEA9830C70F445515E034BB192D4621EFC79C140A4437BC3192D541D3EB91EEDBF21358643DBF67D69241E86588FEA983D61E1C5A965D216D81A8
310
05DEECC2799CD39C479BE7C8443A176A0960A3ED2DDF5B4421D61B25292AE041DAEFAA90921A69A3846CB7A580B8BA87C5EFCB45D31C26DED43F769AFF1D679C41B405DF45DCFA5D678F886428C5D116257DDB3577AB690B4DB28734C75B0A729107229F2324A34982D343A03988F8D9BB524F692E04615840BEDA0B7E138D
310
890781C468B3625969B5033411518625A28720A0C8F480ABD38EAE7163281DDEE6B1B6DED734D624FA3F590447504BE62C22508A420E799371DF3B8618D246D7A0DCC117ACADA2ADC5A0259410F173F488497A270F41DD90EFC13D86234929A3BC403198F500B22F7C4529B5C3FB06C5F72A7F447149DFCB4004A6DB88505A
310
6611FC088393C710D7AE03D3AB2834889BD8277106451992251FB2C9C9F1E4C53EA666E886C0C6465B42216C47192A7A506F05445D8F3835F8967A8F523765564428CB4B36C850BC69D79B2CF9AE5A15D981FCAA5211CAC68AB025180684C93AAB56311B4C5D075670231DA89E2381B2829A53D81B89C7AFBD4953EEDD805B
310
3F7DDF0D3228FC7AB4D78CA8B30A06CB63AB30108F48C6776EB8D2D7D125D4DF094E76A9BEAA359B152020A62279C98955D1B7259437B64673C35B24C5FAC664DDEAFA6DE941F72318C31AA85DEA854B0574869944AA32B95537F42B8210DCA261C6972AA71E42E5224974D588E835E95367AB8C686D9A11AFB8C32CCFE0C7
310
D684C5B44CF01A25E23EBA95345A11C5BA95D2CB4885F1AB027EBE5975E0819101227D51051E7EECACB5A30B552EED2522EFCA6CC3108120D8122D35BAF10A965A8D545AAEAFEA4C017517189855F1ECE7C9A2D98EF879B248AD61FCD8C982E61B4477D1A691CD6365D6079D02EAF4A4A8BCC72940771D6AAA751231B9DC8A
310
6F7D2982985805F9C1C55815330CC13E8EFF73D2EE4B8266BB0EFF87256DFF45C1715052694D564DAA3D85EBB299C216BE3FBF38991F8D1617278BD16C7A7C393A9B5F9E8E8ECFE6D773FF6C727A3A5DD4686A3F0D833A96E9D405CF26A655C3EAC962004D59915392C0613E71520C215FC2917E40F79C675840EE6CF6BA13
310
DB931FB0FAC1B43925DA505C717287A03F4C056475C0A88C657BDCF9053A9312CED9E72EF48CBC7BF8B356E93A9078CE5DE814481263E16DA0CBA4FA799A38645C9DFA2D31C007B1546544B3A87EAE57296C5AD1BF9E32240B58B95A2D0CA8DB0A687EB51A149A37CB537C90E0153B0E9270BB2925146B4696DD402D8CDE66
310
A77E231B25ECDE6EFD04AEFBBA58BEA7E7B41019F4C5E0552330544712F154B7BB156396A58BAB2F6368B339CBCF4E41CB1474399CD2886330E652D553604560159666812498EAE2F7F5179EC3179ECCD14591F3EBD3FCE4B7F522CFB29C99A1F5051CCA12F84EE4ACEEE0AB4FB286DA01ABDEBA581F4DFCA3B5EE69DB367B
310
B441027BAA288281AA965082744C0EECF2457FCA762FC74A159DE9CB2BC70651E805183B7AD1E235DFB81CF021F53545798CF6F34ADA57DBDA633D156C8243433AFC17504B03041400060800000D4ECE42000000000000000000000000350000006662782F38464241423641362D453145372D343633322D423342392D4341
310
343846463544423735342F76657274696365732E62696E504B03041400060808000D4ECE42F270F1330600000004000000360000006662782F38464241423641362D453145372D343633322D423342392D4341343846463544423735342F747269616E676C65732E62696E636660600000504B03041400060800000D4ECE42
310
000000000000000000000000370000006662782F38464241423641362D453145372D343633322D423342392D4341343846463544423735342F617474726962757465732E62696E504B03041400060808000D4ECE42D5987DFC8F00000041010000360000006662782F38464241423641362D453145372D343633322D423342
310
392D4341343846463544423735342F6469726563746F72792E786D6C858F410EC2201045AF4266AF15DDB800BA74E7C21B903225242D6328188F2FA5C4183471359997F9FF81E89FF3C41E1816475E02DF1F80A11FC8386F25A438EECEC07A250251FC3803E6F58C12560C4AD840E95E91C151A72936F496F35732D860FE63
310
5F62C8F2DA16B505C545B74125BAA2FA9E05D7CC053D063734D5C7665FD55B6B8D15D5E9BFEAFD8490FFA45E504B03041400060808000D4ECE4261959BE0FD000000A00100003B0000006662782F38464241423641362D453145372D343633322D423342392D4341343846463544423735342F7265736F75726365732F636F
310
72652E786D6C8D504B6E833010BD0A9A6D65C0061C1219474D7A845EC032136A25D8C89FAAC7AF09546A77DDCC8CDE47F3F4C4F96B7E149FE8837176005AD650A0D56E34761A20C51BE9A1384BE19D8BBF64505835E3002B0C524CDEA56587B4B3116DCCA87523EEA00A012314FA918F0182FEC059952AC5AC08F77251FAAE
310
262C6999E9AC9322449F0314DB937582F4185CF21A83A836568A94CCB86BCC987F9A9B410F92B3EBA13D761DE1F4ED4A5ADEBD92236B7BC258D7D3CB8137FC7011D56A96229AF927A3F6A8228E20594D1B527342DBF7FA786AFB13E32F75776A6A51ADF23FA6B48CFF34256363C3F6B89B2D80A439C89390A25AFBCAEB5966
310
DE6BB7F21B504B010214000A00000800000D4ECE423DEE336E79000000790000001B00000000000000000000000000000000006175746F6465736B2D64657369676E2D7061636B6167652E786D6C504B010214001400060808000D4ECE42D486FD9CA0000000F40000001300000000000000000000000000B20000005B436F
310
6E74656E745F54797065735D2E786D6C504B010214001400060808000D4ECE42097FC6D1EA0000007C010000080000000000000000000000000083010000636F72652E786D6C504B010214001400060808000D4ECE4255019EA25F0000007C000000070000000000000000000000000093020000636E782E786D6C504B0102
310
14001400060808000D4ECE42A1DC2DC567010000020300000C00000000000000000000000000170300006662782F636F72652E786D6C504B010214001400060808000D4ECE424F1B07467E0000009D0000000B00000000000000000000000000A80400006662782F636E782E786D6C504B010214001400060808000D4ECE42
310
BA62E06C2D0100001402000031000000000000000000000000004F0500006662782F38464241423641362D453145372D343633322D423342392D4341343846463544423735342F636F72652E786D6C504B010214001400060808000D4ECE4227BE544156010000330300003000000000000000000000000000CB0600006662
310
782F38464241423641362D453145372D343633322D423342392D4341343846463544423735342F636E782E786D6C504B010214001400060808000D4ECE4291D4419B62070000991B000034000000000000000000000000006F0800006662782F38464241423641362D453145372D343633322D423342392D43413438464635
310
44423735342F6F626A656374732E786D6C504B010214001400060800000D4ECE420000000000000000000000003500000000000000000000000000231000006662782F38464241423641362D453145372D343633322D423342392D4341343846463544423735342F76657274696365732E62696E504B010214001400060808
310
000D4ECE42F270F13306000000040000003600000000000000000000000000761000006662782F38464241423641362D453145372D343633322D423342392D4341343846463544423735342F747269616E676C65732E62696E504B010214001400060800000D4ECE4200000000000000000000000037000000000000000000
310
00000000D01000006662782F38464241423641362D453145372D343633322D423342392D4341343846463544423735342F617474726962757465732E62696E504B010214001400060808000D4ECE42D5987DFC8F000000410100003600000000000000000000000000251100006662782F38464241423641362D453145372D
310
343633322D423342392D4341343846463544423735342F6469726563746F72792E786D6C504B010214001400060808000D4ECE4261959BE0FD000000A00100003B00000000000000000000000000081200006662782F38464241423641362D453145372D343633322D423342392D4341343846463544423735342F7265736F
310
75726365732F636F72652E786D6C504B0506000000000E000E00800400005E1300000000
  0
XRECORD
  5
27
102
{ACAD_REACTORS
330
22
102
}
330
22
100
AcDbXrecord
280
     1
270
     1
271
     1
  0
XRECORD
  5
26
102
{ACAD_REACTORS
330
22
102
}
330
22
100
AcDbXrecord
280
     1
270
     1
271
     1
  0
XRECORD
  5
28
102
{ACAD_REACTORS
330
22
102
}
330
22
100
AcDbXrecord
280
     1
270
     1
271
     1
  0
XRECORD
  5
25
102
{ACAD_REACTORS
330
22
102
}
330
22
100
AcDbXrecord
280
     1
270
     1
271
     1
  0
XRECORD
  5
F70
102
{ACAD_REACTORS
330
F6F
102
}
330
F6F
100
AcDbXrecord
280
     1
102
ACAD_ROUNDTRIP_2012_MLEADER_STYLE
298
     1
  0
CELLSTYLEMAP
  5
F6E
102
{ACAD_REACTORS
330
F6D
102
}
330
F6D
100
AcDbCellStyleMap
 90
        3
300
CELLSTYLE
  1
TABLEFORMAT_BEGIN
 90
        5
170
     1
 91
        0
 92
    32768
 62
   257
 93
        1
300
CONTENTFORMAT
  1
CONTENTFORMAT_BEGIN
 90
        0
 91
        0
 92
      512
 93
        0
300

 40
0.0
140
1.0
 94
        5
 62
     0
340
55
144
0.25
309
CONTENTFORMAT_END
171
     0
 94
        0
309
TABLEFORMAT_END
  1
CELLSTYLE_BEGIN
 90
        1
 91
        1
300
_TITLE
309
CELLSTYLE_END
300
CELLSTYLE
  1
TABLEFORMAT_BEGIN
 90
        5
170
     1
 91
        0
 92
        0
 62
   257
 93
        1
300
CONTENTFORMAT
  1
CONTENTFORMAT_BEGIN
 90
        0
 91
        0
 92
      512
 93
        0
300

 40
0.0
140
1.0
 94
        5
 62
     0
340
55
144
0.18
309
CONTENTFORMAT_END
171
     0
 94
        0
309
TABLEFORMAT_END
  1
CELLSTYLE_BEGIN
 90
        2
 91
        1
300
_HEADER
309
CELLSTYLE_END
300
CELLSTYLE
  1
TABLEFORMAT_BEGIN
 90
        5
170
     1
 91
        0
 92
        0
 62
   257
 93
        1
300
CONTENTFORMAT
  1
CONTENTFORMAT_BEGIN
 90
        0
 91
        0
 92
      512
 93
        0
300

 40
0.0
140
1.0
 94
        2
 62
     0
340
55
144
0.18
309
CONTENTFORMAT_END
171
     0
 94
        0
309
TABLEFORMAT_END
  1
CELLSTYLE_BEGIN
 90
        3
 91
        2
300
_DATA
309
CELLSTYLE_END
  0
ENDSEC
  0
EOF
