  0
SECTION
  2
HEADER
  9
$ACADVER
  1
AC1024
  9
$ACADMAINTVER
 70
    63
  9
$DWGCODEPAGE
  3
ANSI_1252
  9
$AUTHOR
  1
PR
  9
$REVISIONNUMBER
  1
-
  9
$CUSTOMPROPERTYTAG
  1
Manager
  9
$CUSTOMPROPERTY
  1

  9
$CUSTOMPROPERTYTAG
  1
Company
  9
$CUSTOMPROPERTY
  1

  9
$CUSTOMPROPERTYTAG
  1
Category
  9
$CUSTOMPROPERTY
  1

  9
$CUSTOMPROPERTYTAG
  1
Part Number
  9
$CUSTOMPROPERTY
  1
HWDWA72P60F1
  9
$CUSTOMPROPERTYTAG
  1
Description
  9
$CUSTOMPROPERTY
  1
N1P PANEL MASTER VIEW
  9
$CUSTOMPROPERTYTAG
  1
Project
  9
$CUSTOMPROPERTY
  1

  9
$CUSTOMPROPERTYTAG
  1
Designer
  9
$CUSTOMPROPERTY
  1
PR
  9
$CUSTOMPROPERTYTAG
  1
Engineer
  9
$CUSTOMPROPERTY
  1

  9
$CUSTOMPROPERTYTAG
  1
Authority
  9
$CUSTOMPROPERTY
  1

  9
$CUSTOMPROPERTYTAG
  1
Cost Center
  9
$CUSTOMPROPERTY
  1

  9
$CUSTOMPROPERTYTAG
  1
Vendor
  9
$CUSTOMPROPERTY
  1

  9
$CUSTOMPROPERTYTAG
  1
User Status
  9
$CUSTOMPROPERTY
  1

  9
$CUSTOMPROPERTYTAG
  1
Design Status
  9
$CUSTOMPROPERTY
  1
WorkInProgress
  9
$CUSTOMPROPERTYTAG
  1
Checked by
  9
$CUSTOMPROPERTY
  1
NJ
  9
$CUSTOMPROPERTYTAG
  1
Engr Approved by
  9
$CUSTOMPROPERTY
  1

  9
$CUSTOMPROPERTYTAG
  1
Date Eng Approved
  9
$CUSTOMPROPERTY
  1
06/19/2013
  9
$CUSTOMPROPERTYTAG
  1
Mfg Approved by
  9
$CUSTOMPROPERTY
  1

  9
$CUSTOMPROPERTYTAG
  1
DWG. NO
  9
$CUSTOMPROPERTY
  1

  9
$CUSTOMPROPERTYTAG
  1
NUMBER OF SHEETS
  9
$CUSTOMPROPERTY
  1
1
  9
$CUSTOMPROPERTYTAG
  1
DRAWING #
  9
$CUSTOMPROPERTY
  1
1
  9
$INSBASE
 10
0.0
 20
0.0
 30
0.0
  9
$EXTMIN
 10
0.0
 20
0.0
 30
0.0
  9
$EXTMAX
 10
204.0
 20
132.0
 30
0.0
  9
$LIMMIN
 10
0.0
 20
0.0
  9
$LIMMAX
 10
204.0
 20
132.0
  9
$ORTHOMODE
 70
     0
  9
$REGENMODE
 70
     1
  9
$FILLMODE
 70
     1
  9
$QTEXTMODE
 70
     0
  9
$MIRRTEXT
 70
     0
  9
$LTSCALE
 40
12.0
  9
$ATTMODE
 70
     1
  9
$TEXTSIZE
 40
0.2
  9
$TRACEWID
 40
0.05
  9
$TEXTSTYLE
  7
Standard
  9
$CLAYER
  8
0
  9
$CELTYPE
  6
ByLayer
  9
$CECOLOR
 62
   256
  9
$CELTSCALE
 40
1.0
  9
$DISPSILH
 70
     0
  9
$DIMSCALE
 40
1.0
  9
$DIMASZ
 40
0.0708661417322835
  9
$DIMEXO
 40
0.0625
  9
$DIMDLI
 40
0.38
  9
$DIMRND
 40
0.0
  9
$DIMDLE
 40
0.0
  9
$DIMEXE
 40
0.18
  9
$DIMTP
 40
0.0
  9
$DIMTM
 40
0.0
  9
$DIMTXT
 40
0.0708661417322835
  9
$DIMCEN
 40
0.09
  9
$DIMTSZ
 40
0.0
  9
$DIMTOL
 70
     0
  9
$DIMLIM
 70
     0
  9
$DIMTIH
 70
     1
  9
$DIMTOH
 70
     1
  9
$DIMSE1
 70
     0
  9
$DIMSE2
 70
     0
  9
$DIMTAD
 70
     0
  9
$DIMZIN
 70
     0
  9
$DIMBLK
  1

  9
$DIMASO
 70
     1
  9
$DIMSHO
 70
     1
  9
$DIMPOST
  1

  9
$DIMAPOST
  1

  9
$DIMALT
 70
     0
  9
$DIMALTD
 70
     2
  9
$DIMALTF
 40
25.4
  9
$DIMLFAC
 40
1.0
  9
$DIMTOFL
 70
     0
  9
$DIMTVP
 40
0.0
  9
$DIMTIX
 70
     0
  9
$DIMSOXD
 70
     0
  9
$DIMSAH
 70
     0
  9
$DIMBLK1
  1

  9
$DIMBLK2
  1

  9
$DIMSTYLE
  2
STANDARD
  9
$DIMCLRD
 70
     0
  9
$DIMCLRE
 70
     0
  9
$DIMCLRT
 70
     0
  9
$DIMTFAC
 40
1.0
  9
$DIMGAP
 40
0.09
  9
$DIMJUST
 70
     0
  9
$DIMSD1
 70
     0
  9
$DIMSD2
 70
     0
  9
$DIMTOLJ
 70
     1
  9
$DIMTZIN
 70
     0
  9
$DIMALTZ
 70
     0
  9
$DIMALTTZ
 70
     0
  9
$DIMUPT
 70
     0
  9
$DIMDEC
 70
     4
  9
$DIMTDEC
 70
     4
  9
$DIMALTU
 70
     2
  9
$DIMALTTD
 70
     2
  9
$DIMTXSTY
  7
Standard
  9
$DIMAUNIT
 70
     0
  9
$DIMADEC
 70
     0
  9
$DIMALTRND
 40
0.0
  9
$DIMAZIN
 70
     0
  9
$DIMDSEP
 70
    46
  9
$DIMATFIT
 70
     3
  9
$DIMFRAC
 70
     0
  9
$DIMLDRBLK
  1

  9
$DIMLUNIT
 70
     2
  9
$DIMLWD
 70
    -2
  9
$DIMLWE
 70
    -2
  9
$DIMTMOVE
 70
     0
  9
$DIMFXL
 40
1.0
  9
$DIMFXLON
 70
     0
  9
$DIMJOGANG
 40
0.7853981633974483
  9
$DIMTFILL
 70
     0
  9
$DIMTFILLCLR
 70
     0
  9
$DIMARCSYM
 70
     0
  9
$DIMLTYPE
  6

  9
$DIMLTEX1
  6

  9
$DIMLTEX2
  6

  9
$DIMTXTDIRECTION
 70
     0
  9
$LUNITS
 70
     2
  9
$LUPREC
 70
     4
  9
$SKETCHINC
 40
0.1
  9
$FILLETRAD
 40
0.0
  9
$AUNITS
 70
     0
  9
$AUPREC
 70
     0
  9
$MENU
  1
.
  9
$ELEVATION
 40
0.0
  9
$PELEVATION
 40
0.0
  9
$THICKNESS
 40
0.0
  9
$LIMCHECK
 70
     0
  9
$CHAMFERA
 40
0.0
  9
$CHAMFERB
 40
0.0
  9
$CHAMFERC
 40
0.0
  9
$CHAMFERD
 40
0.0
  9
$SKPOLY
 70
     0
  9
$TDCREATE
 40
2456465.801946702
  9
$TDUCREATE
 40
2456465.572780035
  9
$TDUPDATE
 40
2456465.801946702
  9
$TDUUPDATE
 40
2456465.572780035
  9
$TDINDWG
 40
0.0000460417
  9
$TDUSRTIMER
 40
0.0000460417
  9
$USRTIMER
 70
     1
  9
$ANGBASE
 50
0.0
  9
$ANGDIR
 70
     0
  9
$PDMODE
 70
     0
  9
$PDSIZE
 40
0.0
  9
$PLINEWID
 40
0.0
  9
$SPLFRAME
 70
     0
  9
$SPLINETYPE
 70
     6
  9
$SPLINESEGS
 70
     8
  9
$HANDSEED
  5
F7F
  9
$SURFTAB1
 70
     6
  9
$SURFTAB2
 70
     6
  9
$SURFTYPE
 70
     6
  9
$SURFU
 70
     6
  9
$SURFV
 70
     6
  9
$UCSBASE
  2

  9
$UCSNAME
  2

  9
$UCSORG
 10
0.0
 20
0.0
 30
0.0
  9
$UCSXDIR
 10
1.0
 20
0.0
 30
0.0
  9
$UCSYDIR
 10
0.0
 20
1.0
 30
0.0
  9
$UCSORTHOREF
  2

  9
$UCSORTHOVIEW
 70
     0
  9
$UCSORGTOP
 10
0.0
 20
0.0
 30
0.0
  9
$UCSORGBOTTOM
 10
0.0
 20
0.0
 30
0.0
  9
$UCSORGLEFT
 10
0.0
 20
0.0
 30
0.0
  9
$UCSORGRIGHT
 10
0.0
 20
0.0
 30
0.0
  9
$UCSORGFRONT
 10
0.0
 20
0.0
 30
0.0
  9
$UCSORGBACK
 10
0.0
 20
0.0
 30
0.0
  9
$PUCSBASE
  2

  9
$PUCSNAME
  2

  9
$PUCSORG
 10
0.0
 20
0.0
 30
0.0
  9
$PUCSXDIR
 10
1.0
 20
0.0
 30
0.0
  9
$PUCSYDIR
 10
0.0
 20
1.0
 30
0.0
  9
$PUCSORTHOREF
  2

  9
$PUCSORTHOVIEW
 70
     0
  9
$PUCSORGTOP
 10
0.0
 20
0.0
 30
0.0
  9
$PUCSORGBOTTOM
 10
0.0
 20
0.0
 30
0.0
  9
$PUCSORGLEFT
 10
0.0
 20
0.0
 30
0.0
  9
$PUCSORGRIGHT
 10
0.0
 20
0.0
 30
0.0
  9
$PUCSORGFRONT
 10
0.0
 20
0.0
 30
0.0
  9
$PUCSORGBACK
 10
0.0
 20
0.0
 30
0.0
  9
$USERI1
 70
     0
  9
$USERI2
 70
     0
  9
$USERI3
 70
     0
  9
$USERI4
 70
     0
  9
$USERI5
 70
     0
  9
$USERR1
 40
0.0
  9
$USERR2
 40
0.0
  9
$USERR3
 40
0.0
  9
$USERR4
 40
0.0
  9
$USERR5
 40
0.0
  9
$WORLDVIEW
 70
     1
  9
$SHADEDGE
 70
     3
  9
$SHADEDIF
 70
    70
  9
$TILEMODE
 70
     1
  9
$MAXACTVP
 70
    64
  9
$PINSBASE
 10
0.0
 20
0.0
 30
0.0
  9
$PLIMCHECK
 70
     0
  9
$PEXTMIN
 10
0.0
 20
0.0
 30
0.0
  9
$PEXTMAX
 10
204.0
 20
132.0
 30
0.0
  9
$PLIMMIN
 10
0.0
 20
0.0
  9
$PLIMMAX
 10
204.0
 20
132.0
  9
$UNITMODE
 70
     0
  9
$VISRETAIN
 70
     1
  9
$PLINEGEN
 70
     0
  9
$PSLTSCALE
 70
     1
  9
$TREEDEPTH
 70
  3020
  9
$CMLSTYLE
  2
Standard
  9
$CMLJUST
 70
     0
  9
$CMLSCALE
 40
1.0
  9
$PROXYGRAPHICS
 70
     1
  9
$MEASUREMENT
 70
     0
  9
$CELWEIGHT
370
    -1
  9
$ENDCAPS
280
     0
  9
$JOINSTYLE
280
     0
  9
$LWDISPLAY
290
     0
  9
$INSUNITS
 70
     1
  9
$HYPERLINKBASE
  1

  9
$STYLESHEET
  1

  9
$XEDIT
290
     1
  9
$CEPSNTYPE
380
     0
  9
$PSTYLEMODE
290
     1
  9
$FINGERPRINTGUID
  2
{49E37011-8109-45A3-A668-BD8ADB18AE9C}
  9
$VERSIONGUID
  2
{C8D3327E-5463-4617-AD19-B87E3D3977B2}
  9
$EXTNAMES
290
     1
  9
$PSVPSCALE
 40
0.0
  9
$OLESTARTUP
290
     0
  9
$SORTENTS
280
   127
  9
$INDEXCTL
280
     0
  9
$HIDETEXT
280
     1
  9
$XCLIPFRAME
280
     2
  9
$HALOGAP
280
     0
  9
$OBSCOLOR
 70
   257
  9
$OBSLTYPE
280
     0
  9
$INTERSECTIONDISPLAY
280
     0
  9
$INTERSECTIONCOLOR
 70
   257
  9
$DIMASSOC
280
     1
  9
$PROJECTNAME
  1

  9
$CAMERADISPLAY
290
     0
  9
$LENSLENGTH
 40
50.0
  9
$CAMERAHEIGHT
 40
0.0
  9
$STEPSPERSEC
 40
2.0
  9
$STEPSIZE
 40
6.0
  9
$3DDWFPREC
 40
2.0
  9
$PSOLWIDTH
 40
0.25
  9
$PSOLHEIGHT
 40
4.0
  9
$LOFTANG1
 40
1.570796326794896
  9
$LOFTANG2
 40
1.570796326794896
  9
$LOFTMAG1
 40
0.0
  9
$LOFTMAG2
 40
0.0
  9
$LOFTPARAM
 70
     7
  9
$LOFTNORMALS
280
     1
  9
$LATITUDE
 40
37.795
  9
$LONGITUDE
 40
-122.394
  9
$NORTHDIRECTION
 40
0.0
  9
$TIMEZONE
 70
 -8000
  9
$LIGHTGLYPHDISPLAY
280
     1
  9
$TILEMODELIGHTSYNCH
280
     1
  9
$CMATERIAL
347
11
  9
$SOLIDHIST
280
     0
  9
$SHOWHIST
280
     1
  9
$DWFFRAME
280
     2
  9
$DGNFRAME
280
     0
  9
$REALWORLDSCALE
290
     1
  9
$INTERFERECOLOR
 62
     1
  9
$INTERFEREOBJVS
345
33
  9
$INTERFEREVPVS
346
30
  9
$CSHADOW
280
     0
  9
$SHADOWPLANELOCATION
 40
0.0
  0
ENDSEC
  0
SECTION
  2
CLASSES
  0
CLASS
  1
ACDBDICTIONARYWDFLT
  2
AcDbDictionaryWithDefault
  3
ObjectDBX Classes
 90
        0
 91
        1
280
     0
281
     0
  0
CLASS
  1
MATERIAL
  2
AcDbMaterial
  3
ObjectDBX Classes
 90
     1153
 91
        3
280
     0
281
     0
  0
CLASS
  1
VISUALSTYLE
  2
AcDbVisualStyle
  3
ObjectDBX Classes
 90
     4095
 91
       24
280
     0
281
     0
  0
CLASS
  1
SCALE
  2
AcDbScale
  3
ObjectDBX Classes
 90
     1153
 91
       17
280
     0
281
     0
  0
CLASS
  1
TABLESTYLE
  2
AcDbTableStyle
  3
ObjectDBX Classes
 90
     4095
 91
        1
280
     0
281
     0
  0
CLASS
  1
MLEADERSTYLE
  2
AcDbMLeaderStyle
  3
ACDB_MLEADERSTYLE_CLASS
 90
     4095
 91
        1
280
     0
281
     0
  0
CLASS
  1
DICTIONARYVAR
  2
AcDbDictionaryVar
  3
ObjectDBX Classes
 90
        0
 91
        3
280
     0
281
     0
  0
CLASS
  1
CELLSTYLEMAP
  2
AcDbCellStyleMap
  3
ObjectDBX Classes
 90
     1152
 91
        1
280
     0
281
     0
  0
ENDSEC
  0
SECTION
  2
TABLES
  0
TABLE
  2
VPORT
  5
8
330
0
100
AcDbSymbolTable
 70
     1
  0
VPORT
  5
57
330
8
100
AcDbSymbolTableRecord
100
AcDbViewportTableRecord
  2
*Active
 70
     0
 10
0.0
 20
0.0
 11
1.0
 21
1.0
 12
102.0
 22
66.0
 13
0.0
 23
0.0
 14
1.0
 24
1.0
 15
0.0
 25
0.0
 16
0.0
 26
0.0
 36
1.0
 17
0.0
 27
0.0
 37
0.0
 40
132.0
 41
1.545454545454545
 42
50.0
 43
0.0
 44
0.0
 50
0.0
 51
0.0
 71
     0
 72
   100
 73
     1
 74
     1
 75
     0
 76
     0
 77
     0
 78
     0
281
     0
 65
     1
110
0.0
120
0.0
130
0.0
111
1.0
121
0.0
131
0.0
112
0.0
122
1.0
132
0.0
 79
     0
146
0.0
 60
     3
 61
     5
292
     1
282
     1
141
0.0
142
0.0
 63
   250
421
  3355443
  0
ENDTAB
  0
TABLE
  2
LTYPE
  5
5
330
0
100
AcDbSymbolTable
 70
    59
  0
LTYPE
  5
5B
330
5
100
AcDbSymbolTableRecord
100
AcDbLinetypeTableRecord
  2
ByBlock
 70
     0
  3

 72
    65
 73
     0
 40
0.0
  0
LTYPE
  5
5C
330
5
100
AcDbSymbolTableRecord
100
AcDbLinetypeTableRecord
  2
ByLayer
 70
     0
  3

 72
    65
 73
     0
 40
0.0
  0
LTYPE
  5
5D
330
5
100
AcDbSymbolTableRecord
100
AcDbLinetypeTableRecord
  2
Continuous
 70
     0
  3
Solid line
 72
    65
 73
     0
 40
0.0
  0
LTYPE
  5
7C
330
5
100
AcDbSymbolTableRecord
100
AcDbLinetypeTableRecord
  2
BY_STANDARD
 70
     0
  3
By Standard ____________    ____    ____   _
 72
    65
 73
     6
 40
1.240299999999999
 49
0.6614
 74
     0
 49
-0.0827
 74
     0
 49
0.1654
 74
     0
 49
-0.0827
 74
     0
 49
0.1654
 74
     0
 49
-0.0827
 74
     0
  0
LTYPE
  5
7D
330
5
100
AcDbSymbolTableRecord
100
AcDbLinetypeTableRecord
  2
CHAIN
 70
     0
  3
Chain ____ _ ____ _ ____ _ ____ _ ____ _ ____
 72
    65
 73
     4
 40
0.7087
 49
0.4724000000000001
 74
     0
 49
-0.0591
 74
     0
 49
0.1181
 74
     0
 49
-0.0591
 74
     0
  0
LTYPE
  5
7E
330
5
100
AcDbSymbolTableRecord
100
AcDbLinetypeTableRecord
  2
DASH_DOT
 70
     0
  3
Dash dot __ . __ . __ . __ . __ . __ . __ . __
 72
    65
 73
     4
 40
0.37
 49
0.24
 74
     0
 49
-0.06
 74
     0
 49
0.01
 74
     0
 49
-0.06
 74
     0
  0
LTYPE
  5
7F
330
5
100
AcDbSymbolTableRecord
100
AcDbLinetypeTableRecord
  2
DOUBLE_DASH_DOT
 70
     0
  3
Double-Dash Dot __ __ . __ __ . __ __ . __ _
 72
    65
 73
     6
 40
0.4398
 49
0.24
 74
     0
 49
-0.06
 74
     0
 49
0.0098
 74
     0
 49
-0.06
 74
     0
 49
0.01
 74
     0
 49
-0.06
 74
     0
  0
LTYPE
  5
80
330
5
100
AcDbSymbolTableRecord
100
AcDbLinetypeTableRecord
  2
DASH_TRIPLE_DOT
 70
     0
  3
Dash Triple-Dot _ . . . _ . . . _ . . . _
 72
    65
 73
     8
 40
0.51
 49
0.24
 74
     0
 49
-0.06
 74
     0
 49
0.01
 74
     0
 49
-0.06
 74
     0
 49
0.01
 74
     0
 49
-0.06
 74
     0
 49
0.01
 74
     0
 49
-0.06
 74
     0
  0
LTYPE
  5
81
330
5
100
AcDbSymbolTableRecord
100
AcDbLinetypeTableRecord
  2
DASHED
 70
     0
  3
Dashed __ __ __ __ __ __ __ __ __ __ __ __ __ _
 72
    65
 73
     2
 40
0.2067
 49
0.1654
 74
     0
 49
-0.0413
 74
     0
  0
LTYPE
  5
82
330
5
100
AcDbSymbolTableRecord
100
AcDbLinetypeTableRecord
  2
DASH_DOUBLE_DOT
 70
     0
  3
Dash Double-Dot __ . . __ . . __ . . __ . .
 72
    65
 73
     6
 40
0.4398
 49
0.24
 74
     0
 49
-0.06
 74
     0
 49
0.0098
 74
     0
 49
-0.06
 74
     0
 49
0.01
 74
     0
 49
-0.06
 74
     0
  0
LTYPE
  5
83
330
5
100
AcDbSymbolTableRecord
100
AcDbLinetypeTableRecord
  2
DASHED_SPACE
 70
     0
  3
Dashed Space __ __ __ __ __ __ __ __ __ __ __ _
 72
    65
 73
     2
 40
0.2067
 49
0.1654
 74
     0
 49
-0.0413
 74
     0
  0
LTYPE
  5
84
330
5
100
AcDbSymbolTableRecord
100
AcDbLinetypeTableRecord
  2
DOTTED
 70
     0
  3
Dotted . . . . . . . . . . . . . . . . . . . . 
 72
    65
 73
     2
 40
0.0482
 49
0.0069
 74
     0
 49
-0.0413
 74
     0
  0
LTYPE
  5
85
330
5
100
AcDbSymbolTableRecord
100
AcDbLinetypeTableRecord
  2
DOUBLE_DASH_CHAIN
 70
     0
  3
Double-Dash Chain ______  __  __  ______  __  _
 72
    65
 73
     6
 40
1.240299999999999
 49
0.6614
 74
     0
 49
-0.0827
 74
     0
 49
0.1654
 74
     0
 49
-0.0827
 74
     0
 49
0.1654
 74
     0
 49
-0.0827
 74
     0
  0
LTYPE
  5
87
330
5
100
AcDbSymbolTableRecord
100
AcDbLinetypeTableRecord
  2
DOUBLE_DASH_DOUBLE_DOT
 70
     0
  3
Double-Dash Double-dot _ _ . . _ _ . . _
 72
    65
 73
     8
 40
0.7400000000000001
 49
0.24
 74
     0
 49
-0.06
 74
     0
 49
0.24
 74
     0
 49
-0.06
 74
     0
 49
0.01
 74
     0
 49
-0.06
 74
     0
 49
0.01
 74
     0
 49
-0.06
 74
     0
  0
LTYPE
  5
88
330
5
100
AcDbSymbolTableRecord
100
AcDbLinetypeTableRecord
  2
DOUBLE_DASH_TRIPLE_DOT
 70
     0
  3
Double Dash Triple Dot __ __ . . . __ __ . .
 72
    65
 73
    10
 40
0.8100000000000001
 49
0.24
 74
     0
 49
-0.06
 74
     0
 49
0.24
 74
     0
 49
-0.06
 74
     0
 49
0.01
 74
     0
 49
-0.06
 74
     0
 49
0.01
 74
     0
 49
-0.06
 74
     0
 49
0.01
 74
     0
 49
-0.06
 74
     0
  0
LTYPE
  5
89
330
5
100
AcDbSymbolTableRecord
100
AcDbLinetypeTableRecord
  2
LONG_DASH_DOTTED
 70
     0
  3
Long Dash Dotted ____ . ____ . ____ . ____ . _
 72
    65
 73
     4
 40
0.3543
 49
0.2362
 74
     0
 49
-0.0295
 74
     0
 49
0.0591
 74
     0
 49
-0.0295
 74
     0
  0
LTYPE
  5
8A
330
5
100
AcDbSymbolTableRecord
100
AcDbLinetypeTableRecord
  2
LONG_DASH_DOUBLE_DOT
 70
     0
  3
Long Dash Double Dot ________  .  .  ________  
 72
    65
 73
     6
 40
0.6799999999999999
 49
0.48
 74
     0
 49
-0.06
 74
     0
 49
0.01
 74
     0
 49
-0.06
 74
     0
 49
0.01
 74
     0
 49
-0.06
 74
     0
  0
LTYPE
  5
8B
330
5
100
AcDbSymbolTableRecord
100
AcDbLinetypeTableRecord
  2
LONG_DASH_TRIPLE_DOT
 70
     0
  3
Long Dash Triple Dot ____ ... ____ ... ____
 72
    65
 73
     8
 40
0.3689
 49
0.2362
 74
     0
 49
-0.0295
 74
     0
 49
0.0049
 74
     0
 49
-0.0295
 74
     0
 49
0.0049
 74
     0
 49
-0.0295
 74
     0
 49
0.0049
 74
     0
 49
-0.0295
 74
     0
  0
LTYPE
  5
8C
330
5
100
AcDbSymbolTableRecord
100
AcDbLinetypeTableRecord
  2
BORDER
 70
     0
  3
Border __ __ . __ __ . __ __ . __ __ . __ __ .
 72
    65
 73
     6
 40
1.75
 49
0.5
 74
     0
 49
-0.25
 74
     0
 49
0.5
 74
     0
 49
-0.25
 74
     0
 49
0.0
 74
     0
 49
-0.25
 74
     0
  0
LTYPE
  5
8D
330
5
100
AcDbSymbolTableRecord
100
AcDbLinetypeTableRecord
  2
BORDER2
 70
     0
  3
Border (.5x) __.__.__.__.__.__.__.__.__.__.__.
 72
    65
 73
     6
 40
0.875
 49
0.25
 74
     0
 49
-0.125
 74
     0
 49
0.25
 74
     0
 49
-0.125
 74
     0
 49
0.0
 74
     0
 49
-0.125
 74
     0
  0
LTYPE
  5
8E
330
5
100
AcDbSymbolTableRecord
100
AcDbLinetypeTableRecord
  2
BORDERX2
 70
     0
  3
Border (2x) ____  ____  .  ____  ____  .  ___
 72
    65
 73
     6
 40
3.5
 49
1.0
 74
     0
 49
-0.5
 74
     0
 49
1.0
 74
     0
 49
-0.5
 74
     0
 49
0.0
 74
     0
 49
-0.5
 74
     0
  0
LTYPE
  5
8F
330
5
100
AcDbSymbolTableRecord
100
AcDbLinetypeTableRecord
  2
CENTER
 70
     0
  3
Center ____ _ ____ _ ____ _ ____ _ ____ _ ____
 72
    65
 73
     4
 40
2.0
 49
1.25
 74
     0
 49
-0.25
 74
     0
 49
0.25
 74
     0
 49
-0.25
 74
     0
  0
LTYPE
  5
90
330
5
100
AcDbSymbolTableRecord
100
AcDbLinetypeTableRecord
  2
CENTER2
 70
     0
  3
Center (.5x) ___ _ ___ _ ___ _ ___ _ ___ _ ___
 72
    65
 73
     4
 40
1.125
 49
0.75
 74
     0
 49
-0.125
 74
     0
 49
0.125
 74
     0
 49
-0.125
 74
     0
  0
LTYPE
  5
91
330
5
100
AcDbSymbolTableRecord
100
AcDbLinetypeTableRecord
  2
CENTERX2
 70
     0
  3
Center (2x) ________  __  ________  __  _____
 72
    65
 73
     4
 40
4.0
 49
2.5
 74
     0
 49
-0.5
 74
     0
 49
0.5
 74
     0
 49
-0.5
 74
     0
  0
LTYPE
  5
92
330
5
100
AcDbSymbolTableRecord
100
AcDbLinetypeTableRecord
  2
DASHDOT2
 70
     0
  3
Dash dot (.5x) _._._._._._._._._._._._._._._.
 72
    65
 73
     4
 40
0.5
 49
0.25
 74
     0
 49
-0.125
 74
     0
 49
0.0
 74
     0
 49
-0.125
 74
     0
  0
LTYPE
  5
93
330
5
100
AcDbSymbolTableRecord
100
AcDbLinetypeTableRecord
  2
DASHDOTX2
 70
     0
  3
Dash dot (2x) ____  .  ____  .  ____  .  ___
 72
    65
 73
     4
 40
2.0
 49
1.0
 74
     0
 49
-0.5
 74
     0
 49
0.0
 74
     0
 49
-0.5
 74
     0
  0
LTYPE
  5
95
330
5
100
AcDbSymbolTableRecord
100
AcDbLinetypeTableRecord
  2
DASHED2
 70
     0
  3
Dashed (.5x) _ _ _ _ _ _ _ _ _ _ _ _ _ _ _ _ _
 72
    65
 73
     2
 40
0.375
 49
0.25
 74
     0
 49
-0.125
 74
     0
  0
LTYPE
  5
96
330
5
100
AcDbSymbolTableRecord
100
AcDbLinetypeTableRecord
  2
DASHEDX2
 70
     0
  3
Dashed (2x) ____  ____  ____  ____  ____  ___
 72
    65
 73
     2
 40
1.5
 49
1.0
 74
     0
 49
-0.5
 74
     0
  0
LTYPE
  5
97
330
5
100
AcDbSymbolTableRecord
100
AcDbLinetypeTableRecord
  2
DIVIDE
 70
     0
  3
Divide ____ . . ____ . . ____ . . ____ . . ____
 72
    65
 73
     6
 40
1.25
 49
0.5
 74
     0
 49
-0.25
 74
     0
 49
0.0
 74
     0
 49
-0.25
 74
     0
 49
0.0
 74
     0
 49
-0.25
 74
     0
  0
LTYPE
  5
98
330
5
100
AcDbSymbolTableRecord
100
AcDbLinetypeTableRecord
  2
DIVIDE2
 70
     0
  3
Divide (.5x) __..__..__..__..__..__..__..__.._
 72
    65
 73
     6
 40
0.625
 49
0.25
 74
     0
 49
-0.125
 74
     0
 49
0.0
 74
     0
 49
-0.125
 74
     0
 49
0.0
 74
     0
 49
-0.125
 74
     0
  0
LTYPE
  5
99
330
5
100
AcDbSymbolTableRecord
100
AcDbLinetypeTableRecord
  2
DIVIDEX2
 70
     0
  3
Divide (2x) ________  .  .  ________  .  .  _
 72
    65
 73
     6
 40
2.5
 49
1.0
 74
     0
 49
-0.5
 74
     0
 49
0.0
 74
     0
 49
-0.5
 74
     0
 49
0.0
 74
     0
 49
-0.5
 74
     0
  0
LTYPE
  5
9A
330
5
100
AcDbSymbolTableRecord
100
AcDbLinetypeTableRecord
  2
DOT
 70
     0
  3
Dot . . . . . . . . . . . . . . . . . . . . . .
 72
    65
 73
     2
 40
0.25
 49
0.0
 74
     0
 49
-0.25
 74
     0
  0
LTYPE
  5
9B
330
5
100
AcDbSymbolTableRecord
100
AcDbLinetypeTableRecord
  2
DOT2
 70
     0
  3
Dot (.5x) .....................................
 72
    65
 73
     2
 40
0.125
 49
0.0
 74
     0
 49
-0.125
 74
     0
  0
LTYPE
  5
9C
330
5
100
AcDbSymbolTableRecord
100
AcDbLinetypeTableRecord
  2
DOTX2
 70
     0
  3
Dot (2x) .  .  .  .  .  .  .  .  .  .  .  .  . 
 72
    65
 73
     2
 40
0.5
 49
0.0
 74
     0
 49
-0.5
 74
     0
  0
LTYPE
  5
9D
330
5
100
AcDbSymbolTableRecord
100
AcDbLinetypeTableRecord
  2
HIDDEN
 70
     0
  3
Hidden __ __ __ __ __ __ __ __ __ __ __ __ __ _
 72
    65
 73
     2
 40
0.375
 49
0.25
 74
     0
 49
-0.125
 74
     0
  0
LTYPE
  5
9E
330
5
100
AcDbSymbolTableRecord
100
AcDbLinetypeTableRecord
  2
HIDDEN2
 70
     0
  3
Hidden (.5x) _ _ _ _ _ _ _ _ _ _ _ _ _ _ _ _ _
 72
    65
 73
     2
 40
0.1875
 49
0.125
 74
     0
 49
-0.0625
 74
     0
  0
LTYPE
  5
9F
330
5
100
AcDbSymbolTableRecord
100
AcDbLinetypeTableRecord
  2
HIDDENX2
 70
     0
  3
Hidden (2x) ____ ____ ____ ____ ____ ____ ____
 72
    65
 73
     2
 40
0.75
 49
0.5
 74
     0
 49
-0.25
 74
     0
  0
LTYPE
  5
A0
330
5
100
AcDbSymbolTableRecord
100
AcDbLinetypeTableRecord
  2
PHANTOM
 70
     0
  3
Phantom ______  __  __  ______  __  __  ______
 72
    65
 73
     6
 40
2.5
 49
1.25
 74
     0
 49
-0.25
 74
     0
 49
0.25
 74
     0
 49
-0.25
 74
     0
 49
0.25
 74
     0
 49
-0.25
 74
     0
  0
LTYPE
  5
A1
330
5
100
AcDbSymbolTableRecord
100
AcDbLinetypeTableRecord
  2
PHANTOM2
 70
     0
  3
Phantom (.5x) ___ _ _ ___ _ _ ___ _ _ ___ _ _
 72
    65
 73
     6
 40
1.25
 49
0.625
 74
     0
 49
-0.125
 74
     0
 49
0.125
 74
     0
 49
-0.125
 74
     0
 49
0.125
 74
     0
 49
-0.125
 74
     0
  0
LTYPE
  5
A2
330
5
100
AcDbSymbolTableRecord
100
AcDbLinetypeTableRecord
  2
PHANTOMX2
 70
     0
  3
Phantom (2x) ____________    ____    ____   _
 72
    65
 73
     6
 40
5.0
 49
2.5
 74
     0
 49
-0.5
 74
     0
 49
0.5
 74
     0
 49
-0.5
 74
     0
 49
0.5
 74
     0
 49
-0.5
 74
     0
  0
LTYPE
  5
A3
330
5
100
AcDbSymbolTableRecord
100
AcDbLinetypeTableRecord
  2
ACAD_ISO02W100
 70
     0
  3
ISO dash __ __ __ __ __ __ __ __ __ __ __ __ __
 72
    65
 73
     2
 40
0.59
 49
0.47
 74
     0
 49
-0.12
 74
     0
  0
LTYPE
  5
A4
330
5
100
AcDbSymbolTableRecord
100
AcDbLinetypeTableRecord
  2
ACAD_ISO03W100
 70
     0
  3
ISO dash space __    __    __    __    __    __
 72
    65
 73
     2
 40
1.179999999999999
 49
0.47
 74
     0
 49
-0.71
 74
     0
  0
LTYPE
  5
A5
330
5
100
AcDbSymbolTableRecord
100
AcDbLinetypeTableRecord
  2
ACAD_ISO04W100
 70
     0
  3
ISO long-dash dot ____ . ____ . ____ . ____ . _
 72
    65
 73
     4
 40
1.179999999999999
 49
0.9399999999999998
 74
     0
 49
-0.12
 74
     0
 49
0.0
 74
     0
 49
-0.12
 74
     0
  0
LTYPE
  5
A6
330
5
100
AcDbSymbolTableRecord
100
AcDbLinetypeTableRecord
  2
ACAD_ISO05W100
 70
     0
  3
ISO long-dash double-dot ____ .. ____ .. ____ .
 72
    65
 73
     6
 40
1.299999999999999
 49
0.9399999999999998
 74
     0
 49
-0.12
 74
     0
 49
0.0
 74
     0
 49
-0.12
 74
     0
 49
0.0
 74
     0
 49
-0.12
 74
     0
  0
LTYPE
  5
A7
330
5
100
AcDbSymbolTableRecord
100
AcDbLinetypeTableRecord
  2
ACAD_ISO06W100
 70
     0
  3
ISO long-dash triple-dot ____ ... ____ ... ____
 72
    65
 73
     8
 40
1.419999999999999
 49
0.9399999999999998
 74
     0
 49
-0.12
 74
     0
 49
0.0
 74
     0
 49
-0.12
 74
     0
 49
0.0
 74
     0
 49
-0.12
 74
     0
 49
0.0
 74
     0
 49
-0.12
 74
     0
  0
LTYPE
  5
A8
330
5
100
AcDbSymbolTableRecord
100
AcDbLinetypeTableRecord
  2
ACAD_ISO07W100
 70
     0
  3
ISO dot . . . . . . . . . . . . . . . . . . . .
 72
    65
 73
     2
 40
0.12
 49
0.0
 74
     0
 49
-0.12
 74
     0
  0
LTYPE
  5
A9
330
5
100
AcDbSymbolTableRecord
100
AcDbLinetypeTableRecord
  2
ACAD_ISO08W100
 70
     0
  3
ISO long-dash short-dash ____ __ ____ __ ____ _
 72
    65
 73
     4
 40
0.95
 49
0.47
 74
     0
 49
-0.12
 74
     0
 49
0.24
 74
     0
 49
-0.12
 74
     0
  0
LTYPE
  5
AA
330
5
100
AcDbSymbolTableRecord
100
AcDbLinetypeTableRecord
  2
ACAD_ISO09W100
 70
     0
  3
ISO long-dash double-short-dash ____ __ __ ____
 72
    65
 73
     6
 40
1.31
 49
0.47
 74
     0
 49
-0.12
 74
     0
 49
0.24
 74
     0
 49
-0.12
 74
     0
 49
0.24
 74
     0
 49
-0.12
 74
     0
  0
LTYPE
  5
AB
330
5
100
AcDbSymbolTableRecord
100
AcDbLinetypeTableRecord
  2
ACAD_ISO10W100
 70
     0
  3
ISO dash dot __ . __ . __ . __ . __ . __ . __ .
 72
    65
 73
     4
 40
0.71
 49
0.47
 74
     0
 49
-0.12
 74
     0
 49
0.0
 74
     0
 49
-0.12
 74
     0
  0
LTYPE
  5
AC
330
5
100
AcDbSymbolTableRecord
100
AcDbLinetypeTableRecord
  2
ACAD_ISO11W100
 70
     0
  3
ISO double-dash dot __ __ . __ __ . __ __ . __ 
 72
    65
 73
     6
 40
1.299999999999999
 49
0.47
 74
     0
 49
-0.12
 74
     0
 49
0.47
 74
     0
 49
-0.12
 74
     0
 49
0.0
 74
     0
 49
-0.12
 74
     0
  0
LTYPE
  5
AD
330
5
100
AcDbSymbolTableRecord
100
AcDbLinetypeTableRecord
  2
ACAD_ISO12W100
 70
     0
  3
ISO dash double-dot __ . . __ . . __ . . __ . .
 72
    65
 73
     6
 40
0.8299999999999998
 49
0.47
 74
     0
 49
-0.12
 74
     0
 49
0.0
 74
     0
 49
-0.12
 74
     0
 49
0.0
 74
     0
 49
-0.12
 74
     0
  0
LTYPE
  5
AE
330
5
100
AcDbSymbolTableRecord
100
AcDbLinetypeTableRecord
  2
ACAD_ISO13W100
 70
     0
  3
ISO double-dash double-dot __ __ . . __ __ . . 
 72
    65
 73
     8
 40
1.419999999999999
 49
0.47
 74
     0
 49
-0.12
 74
     0
 49
0.47
 74
     0
 49
-0.12
 74
     0
 49
0.0
 74
     0
 49
-0.12
 74
     0
 49
0.0
 74
     0
 49
-0.12
 74
     0
  0
LTYPE
  5
AF
330
5
100
AcDbSymbolTableRecord
100
AcDbLinetypeTableRecord
  2
ACAD_ISO14W100
 70
     0
  3
ISO dash triple-dot __ . . . __ . . . __ . . . 
 72
    65
 73
     8
 40
0.95
 49
0.47
 74
     0
 49
-0.12
 74
     0
 49
0.0
 74
     0
 49
-0.12
 74
     0
 49
0.0
 74
     0
 49
-0.12
 74
     0
 49
0.0
 74
     0
 49
-0.12
 74
     0
  0
LTYPE
  5
B0
330
5
100
AcDbSymbolTableRecord
100
AcDbLinetypeTableRecord
  2
ACAD_ISO15W100
 70
     0
  3
ISO double-dash triple-dot __ __ . . . __ __ . 
 72
    65
 73
    10
 40
1.539999999999999
 49
0.47
 74
     0
 49
-0.12
 74
     0
 49
0.47
 74
     0
 49
-0.12
 74
     0
 49
0.0
 74
     0
 49
-0.12
 74
     0
 49
0.0
 74
     0
 49
-0.12
 74
     0
 49
0.0
 74
     0
 49
-0.12
 74
     0
  0
LTYPE
  5
B3
330
5
100
AcDbSymbolTableRecord
100
AcDbLinetypeTableRecord
  2
FENCELINE1
 70
     0
  3
Fenceline circle ----0-----0----0-----0----0---
 72
    65
 73
     4
 40
1.45
 49
0.25
 74
     0
 49
-0.1
 74
     4
 75
   133
340
B2
 46
0.1
 50
0.0
 44
-0.1
 45
0.0
 49
-0.1
 74
     0
 49
1.0
 74
     0
  0
LTYPE
  5
B4
330
5
100
AcDbSymbolTableRecord
100
AcDbLinetypeTableRecord
  2
FENCELINE2
 70
     0
  3
Fenceline square ----[]-----[]----[]-----[]----
 72
    65
 73
     4
 40
1.45
 49
0.25
 74
     0
 49
-0.1
 74
     4
 75
   132
340
B2
 46
0.1
 50
0.0
 44
-0.1
 45
0.0
 49
-0.1
 74
     0
 49
1.0
 74
     0
  0
LTYPE
  5
B5
330
5
100
AcDbSymbolTableRecord
100
AcDbLinetypeTableRecord
  2
TRACKS
 70
     0
  3
Tracks -|-|-|-|-|-|-|-|-|-|-|-|-|-|-|-|-|-|-|-|
 72
    65
 73
     2
 40
0.3
 49
0.15
 74
     4
 75
   130
340
B2
 46
0.25
 50
0.0
 44
0.0
 45
0.0
 49
0.15
 74
     0
  0
LTYPE
  5
B6
330
5
100
AcDbSymbolTableRecord
100
AcDbLinetypeTableRecord
  2
BATTING
 70
     0
  3
Batting SSSSSSSSSSSSSSSSSSSSSSSSSSSSSSSSSSSSSSS
 72
    65
 73
     4
 40
0.4001000000000001
 49
0.0001
 74
     0
 49
-0.1
 74
     4
 75
   134
340
B2
 46
0.1
 50
0.0
 44
-0.1
 45
0.0
 49
-0.2
 74
     4
 75
   134
340
B2
 46
0.1
 50
180.0
 44
0.1
 45
0.0
 49
-0.1
 74
     0
  0
LTYPE
  5
B7
330
5
100
AcDbSymbolTableRecord
100
AcDbLinetypeTableRecord
  2
HOT_WATER_SUPPLY
 70
     0
  3
Hot water supply ---- HW ---- HW ---- HW ----
 72
    65
 73
     3
 40
0.9
 49
0.5
 74
     0
 49
-0.2
 74
     2
 75
     0
340
55
 46
0.1
 50
0.0
 44
-0.1
 45
-0.05
  9
HW
 49
-0.2
 74
     0
  0
LTYPE
  5
B8
330
5
100
AcDbSymbolTableRecord
100
AcDbLinetypeTableRecord
  2
GAS_LINE
 70
     0
  3
Gas line ----GAS----GAS----GAS----GAS----GAS---
 72
    65
 73
     3
 40
0.95
 49
0.5
 74
     0
 49
-0.2
 74
     2
 75
     0
340
55
 46
0.1
 50
0.0
 44
-0.1
 45
-0.05
  9
GAS
 49
-0.25
 74
     0
  0
LTYPE
  5
B9
330
5
100
AcDbSymbolTableRecord
100
AcDbLinetypeTableRecord
  2
ZIGZAG
 70
     0
  3
Zig zag /\/\/\/\/\/\/\/\/\/\/\/\/\/\/\/\/\/\/\/
 72
    65
 73
     4
 40
0.8001000000000001
 49
0.0001
 74
     0
 49
-0.2
 74
     4
 75
   131
340
B2
 46
0.2
 50
0.0
 44
-0.2
 45
0.0
 49
-0.4
 74
     4
 75
   131
340
B2
 46
0.2
 50
180.0
 44
0.2
 45
0.0
 49
-0.2
 74
     0
  0
ENDTAB
  0
TABLE
  2
LAYER
  5
2
330
0
100
AcDbSymbolTable
 70
    27
  0
LAYER
  5
54
330
2
100
AcDbSymbolTableRecord
100
AcDbLayerTableRecord
  2
0
 70
     0
 62
     7
  6
Continuous
370
    18
390
F
347
21
  0
LAYER
  5
C0
330
2
100
AcDbSymbolTableRecord
100
AcDbLayerTableRecord
  2
Center Mark (ANSI)
 70
     0
 62
     7
  6
Continuous
370
    15
390
F
347
21
  0
LAYER
  5
C1
330
2
100
AcDbSymbolTableRecord
100
AcDbLayerTableRecord
  2
Centerline (ANSI)
 70
     0
 62
     7
  6
Continuous
370
    15
390
F
347
21
  0
LAYER
  5
C3
330
2
100
AcDbSymbolTableRecord
100
AcDbLayerTableRecord
  2
Dimension (ANSI)
 70
     0
 62
     7
  6
Continuous
370
    13
390
F
347
21
  0
LAYER
  5
C5
330
2
100
AcDbSymbolTableRecord
100
AcDbLayerTableRecord
  2
Hidden (ANSI)
 70
     0
 62
     7
  6
DASHED
370
    15
390
F
347
21
  0
LAYER
  5
CC
330
2
100
AcDbSymbolTableRecord
100
AcDbLayerTableRecord
  2
Symbol (ANSI)
 70
     0
 62
     7
  6
Continuous
370
    18
390
F
347
21
  0
LAYER
  5
CF
330
2
100
AcDbSymbolTableRecord
100
AcDbLayerTableRecord
  2
Visible (ANSI)
 70
     0
 62
     7
  6
Continuous
370
    13
390
F
347
21
  0
LAYER
  5
D0
330
2
100
AcDbSymbolTableRecord
100
AcDbLayerTableRecord
  2
Visible Narrow (ANSI)
 70
     0
 62
     7
  6
Continuous
370
    18
390
F
347
21
  0
LAYER
  5
55A
330
2
100
AcDbSymbolTableRecord
100
AcDbLayerTableRecord
  2
Defpoints
 70
     0
 62
     7
  6
Continuous
290
     0
370
    -3
390
F
347
21
  0
ENDTAB
  0
TABLE
  2
STYLE
  5
3
330
0
100
AcDbSymbolTable
 70
    18
  0
STYLE
  5
55
330
3
100
AcDbSymbolTableRecord
100
AcDbTextStyleTableRecord
  2
Standard
 70
     0
 40
0.0
 41
1.0
 50
0.0
 71
     0
 42
0.2
  3
txt
  4

  0
STYLE
  5
5A
330
3
100
AcDbSymbolTableRecord
100
AcDbTextStyleTableRecord
  2
Annotative
 70
     0
 40
0.0
 41
1.0
 50
0.0
 71
     0
 42
0.2
  3
txt
  4

1001
AcadAnnotative
1000
AnnotativeData
1002
{
1070
     1
1070
     1
1002
}
  0
STYLE
  5
B2
330
3
100
AcDbSymbolTableRecord
100
AcDbTextStyleTableRecord
  2

 70
     1
 40
0.0
 41
1.0
 50
0.0
 71
     0
 42
0.2
  3
ltypeshp.shx
  4

  0
STYLE
  5
D4
330
3
100
AcDbSymbolTableRecord
100
AcDbTextStyleTableRecord
  2
ITALICC_120
 70
     0
 40
0.0
 41
1.0
 50
0.0
 71
     0
 42
0.2
  3
italicc.shx
  4

  0
STYLE
  5
D5
330
3
100
AcDbSymbolTableRecord
100
AcDbTextStyleTableRecord
  2
Label Text (ANSI)
 70
     0
 40
0.0
 41
1.0
 50
0.0
 71
     0
 42
0.2
  3
tahoma.ttf
  4

1001
ACAD
1000
Tahoma
1071
      256
  0
STYLE
  5
D6
330
3
100
AcDbSymbolTableRecord
100
AcDbTextStyleTableRecord
  2
Note Text (ANSI)
 70
     0
 40
0.0
 41
1.0
 50
0.0
 71
     0
 42
0.2
  3
tahoma.ttf
  4

1001
ACAD
1000
Tahoma
1071
      256
  0
STYLE
  5
D7
330
3
100
AcDbSymbolTableRecord
100
AcDbTextStyleTableRecord
  2
ROMANS
 70
     0
 40
0.0
 41
1.0
 50
0.0
 71
     0
 42
0.2
  3
romans.shx
  4

  0
STYLE
  5
D8
330
3
100
AcDbSymbolTableRecord
100
AcDbTextStyleTableRecord
  2
SANSSERIF_114
 70
     0
 40
0.0
 41
1.0
 50
0.0
 71
     0
 42
0.2
  3
tahoma.ttf
  4

1001
ACAD
1000
Tahoma
1071
      256
  0
STYLE
  5
D9
330
3
100
AcDbSymbolTableRecord
100
AcDbTextStyleTableRecord
  2
SANSSERIF_117
 70
     0
 40
0.0
 41
1.0
 50
0.0
 71
     0
 42
0.2
  3
tahoma.ttf
  4

1001
ACAD
1000
Tahoma
1071
      256
  0
STYLE
  5
DA
330
3
100
AcDbSymbolTableRecord
100
AcDbTextStyleTableRecord
  2
STANDARDAM_ANSI
 70
     0
 40
0.0
 41
1.0
 50
0.0
 71
     0
 42
0.2
  3
txt.shx
  4

  0
STYLE
  5
DB
330
3
100
AcDbSymbolTableRecord
100
AcDbTextStyleTableRecord
  2
StandardAM_ANSI$0
 70
     0
 40
0.0
 41
1.0
 50
0.0
 71
     0
 42
0.2
  3
txt.shx
  4

  0
STYLE
  5
DC
330
3
100
AcDbSymbolTableRecord
100
AcDbTextStyleTableRecord
  2
STANDARDAM_ANSI$3
 70
     0
 40
0.0
 41
1.0
 50
0.0
 71
     0
 42
0.2
  3
txt.shx
  4

  0
STYLE
  5
DD
330
3
100
AcDbSymbolTableRecord
100
AcDbTextStyleTableRecord
  2
STANDARDAM_ANSI$4
 70
     0
 40
0.0
 41
1.0
 50
0.0
 71
     0
 42
0.2
  3
txt.shx
  4

  0
STYLE
  5
DE
330
3
100
AcDbSymbolTableRecord
100
AcDbTextStyleTableRecord
  2
STANDARDAM_ANSI$7
 70
     0
 40
0.0
 41
1.0
 50
0.0
 71
     0
 42
0.2
  3
txt.shx
  4

  0
STYLE
  5
DF
330
3
100
AcDbSymbolTableRecord
100
AcDbTextStyleTableRecord
  2
STANDARDAM_ANSI$SF
 70
     0
 40
0.0
 41
1.0
 50
0.0
 71
     0
 42
0.2
  3
txt.shx
  4

  0
STYLE
  5
E0
330
3
100
AcDbSymbolTableRecord
100
AcDbTextStyleTableRecord
  2
STANDARDAM_ANSI$SH
 70
     0
 40
0.0
 41
1.0
 50
0.0
 71
     0
 42
0.2
  3
txt.shx
  4

  0
STYLE
  5
E1
330
3
100
AcDbSymbolTableRecord
100
AcDbTextStyleTableRecord
  2
STANDARDSTANDARD
 70
     0
 40
0.0
 41
1.0
 50
0.0
 71
     0
 42
0.2
  3
txt.shx
  4

  0
STYLE
  5
2E3
330
3
100
AcDbSymbolTableRecord
100
AcDbTextStyleTableRecord
  2
Text Style153
 70
     0
 40
0.0
 41
1.0
 50
0.0
 71
     0
 42
0.2
  3
tahoma.ttf
  4

1001
ACAD
1000
Tahoma
1071
      256
  0
ENDTAB
  0
TABLE
  2
VIEW
  5
6
330
0
100
AcDbSymbolTable
 70
     0
  0
ENDTAB
  0
TABLE
  2
UCS
  5
7
330
0
100
AcDbSymbolTable
 70
     0
  0
ENDTAB
  0
TABLE
  2
APPID
  5
9
330
0
100
AcDbSymbolTable
 70
     3
  0
APPID
  5
56
330
9
100
AcDbSymbolTableRecord
100
AcDbRegAppTableRecord
  2
ACAD
 70
     0
  0
APPID
  5
5E
330
9
100
AcDbSymbolTableRecord
100
AcDbRegAppTableRecord
  2
AcadAnnotative
 70
     0
  0
APPID
  5
C6F
330
9
100
AcDbSymbolTableRecord
100
AcDbRegAppTableRecord
  2
ACAD_DSTYLE_DIMRADIAL_EXTENSION
 70
     0
  0
ENDTAB
  0
TABLE
  2
DIMSTYLE
  5
A
330
0
100
AcDbSymbolTable
 70
    27
100
AcDbDimStyleTable
 71
     2
340
F6
340
58
  0
DIMSTYLE
105
58
330
A
100
AcDbSymbolTableRecord
100
AcDbDimStyleTableRecord
  2
STANDARD
 70
     0
 41
0.1800000071525573
 42
0.0625
140
0.1800000071525574
144
1.0
147
0.0900000035762787
176
   256
177
   256
178
   256
274
     3
340
55
371
    -1
372
    -1
  0
DIMSTYLE
105
59
330
A
100
AcDbSymbolTableRecord
100
AcDbDimStyleTableRecord
  2
Annotative
 70
     0
340
55
1001
AcadAnnotative
1000
AnnotativeData
1002
{
1070
     1
1070
     1
1002
}
  0
DIMSTYLE
105
E2
330
A
100
AcDbSymbolTableRecord
100
AcDbDimStyleTableRecord
  2
AM_ANSI
 70
     0
  4
 mm
 40
12.0
 41
0.119999997317791
 42
0.05
 43
0.5
 44
0.1
 45
0.00000001
 78
     4
 79
     2
140
0.1200000047683716
146
0.7099999189376831
147
0.0599999986588955
176
   256
177
   256
178
     2
284
     4
340
DA
371
    -1
372
    -1
  0
DIMSTYLE
105
E3
330
A
100
AcDbSymbolTableRecord
100
AcDbDimStyleTableRecord
  2
AM_ANSI$7
 70
     0
  4
 mm
 40
12.0
 41
0.119999997317791
 42
0.05
 43
0.5
 44
0.1
 45
0.00000001
 78
     4
 79
     2
140
0.1200000047683716
146
0.7099999189376831
147
0.0599999986588955
176
   256
177
   256
178
     2
284
     4
340
DA
371
    -1
372
    -1
  0
DIMSTYLE
105
E4
330
A
100
AcDbSymbolTableRecord
100
AcDbDimStyleTableRecord
  2
AM_ANSI$0
 70
     0
  4
 mm
 40
12.0
 41
0.119999997317791
 42
0.05
 43
0.5
 44
0.1
 45
0.00000001
 78
     4
 79
     2
140
0.1200000047683716
146
0.7099999189376831
147
0.0599999986588955
176
   256
177
   256
178
     2
284
     4
340
DB
371
    -1
372
    -1
  0
DIMSTYLE
105
E5
330
A
100
AcDbSymbolTableRecord
100
AcDbDimStyleTableRecord
  2
AM_ANSI$0$7
 70
     0
  4
 mm
 40
12.0
 41
0.119999997317791
 42
0.05
 43
0.5
 44
0.1
 45
0.00000001
 78
     4
 79
     2
140
0.1200000047683716
146
0.7099999189376831
147
0.0599999986588955
176
   256
177
   256
178
     2
284
     4
340
DB
371
    -1
372
    -1
  0
DIMSTYLE
105
E6
330
A
100
AcDbSymbolTableRecord
100
AcDbDimStyleTableRecord
  2
AM_ANSI$3
 70
     0
  4
 mm
 40
12.0
 41
0.119999997317791
 42
0.05
 43
0.5
 44
0.1
 45
0.00000001
 78
     4
 79
     2
140
0.1200000047683716
146
0.7099999189376831
147
0.0599999986588955
176
   256
177
   256
178
     2
284
     4
340
DC
371
    -1
372
    -1
  0
DIMSTYLE
105
E7
330
A
100
AcDbSymbolTableRecord
100
AcDbDimStyleTableRecord
  2
AM_ANSI$3$7
 70
     0
  4
 mm
 40
12.0
 41
0.119999997317791
 42
0.05
 43
0.5
 44
0.1
 45
0.00000001
 78
     4
 79
     2
140
0.1200000047683716
146
0.7099999189376831
147
0.0599999986588955
176
   256
177
   256
178
     2
284
     4
340
DC
371
    -1
372
    -1
  0
DIMSTYLE
105
E8
330
A
100
AcDbSymbolTableRecord
100
AcDbDimStyleTableRecord
  2
AM_ANSI$4
 70
     0
  4
 mm
 40
12.0
 41
0.119999997317791
 42
0.05
 43
0.5
 44
0.1
 45
0.00000001
 78
     4
 79
     2
140
0.1200000047683716
146
0.7099999189376831
147
0.0599999986588955
176
   256
177
   256
178
     2
284
     4
340
DD
371
    -1
372
    -1
  0
DIMSTYLE
105
E9
330
A
100
AcDbSymbolTableRecord
100
AcDbDimStyleTableRecord
  2
AM_ANSI$4$7
 70
     0
  4
 mm
 40
12.0
 41
0.119999997317791
 42
0.05
 43
0.5
 44
0.1
 45
0.00000001
 78
     4
 79
     2
140
0.1200000047683716
146
0.7099999189376831
147
0.0599999986588955
176
   256
177
   256
178
     2
284
     4
340
DD
371
    -1
372
    -1
  0
DIMSTYLE
105
EA
330
A
100
AcDbSymbolTableRecord
100
AcDbDimStyleTableRecord
  2
AM_ANSI$SF
 70
     0
  4
 mm
 40
12.0
 41
0.119999997317791
 42
0.05
 43
0.5
 44
0.1
 45
0.00000001
 75
     1
 76
     1
 78
     4
 79
     2
140
0.1200000047683716
146
0.7099999189376831
147
0.0599999986588955
176
   256
177
   256
178
     2
284
     4
340
DF
371
    -1
372
    -1
  0
DIMSTYLE
105
EB
330
A
100
AcDbSymbolTableRecord
100
AcDbDimStyleTableRecord
  2
AM_ANSI$SF$7
 70
     0
  4
 mm
 40
12.0
 41
0.119999997317791
 42
0.05
 43
0.5
 44
0.1
 45
0.00000001
 75
     1
 76
     1
 78
     4
 79
     2
140
0.1200000047683716
146
0.7099999189376831
147
0.0599999986588955
176
   256
177
   256
178
     2
284
     4
340
DF
371
    -1
372
    -1
  0
DIMSTYLE
105
EC
330
A
100
AcDbSymbolTableRecord
100
AcDbDimStyleTableRecord
  2
AM_ANSI$SH
 70
     0
  4
 mm
 40
12.0
 41
0.119999997317791
 42
0.05
 43
0.5
 44
0.1
 45
0.00000001
 75
     1
 76
     1
 78
     4
 79
     2
140
0.1200000047683716
146
0.7099999189376831
147
0.0599999986588955
176
   256
177
   256
178
     2
284
     4
340
E0
371
    -1
372
    -1
  0
DIMSTYLE
105
ED
330
A
100
AcDbSymbolTableRecord
100
AcDbDimStyleTableRecord
  2
AM_ANSI$SH$7
 70
     0
  4
 mm
 40
12.0
 41
0.119999997317791
 42
0.05
 43
0.5
 44
0.1
 45
0.00000001
 75
     1
 76
     1
 78
     4
 79
     2
140
0.1200000047683716
146
0.7099999189376831
147
0.0599999986588955
176
   256
177
   256
178
     2
284
     4
340
E0
371
    -1
372
    -1
  0
DIMSTYLE
105
EE
330
A
100
AcDbSymbolTableRecord
100
AcDbDimStyleTableRecord
  2
Architectural (ANSI)
 70
     0
 40
12.0
 41
0.0984251946210861
 43
0.2362204724409449
 44
0.125
 45
0.00000001
 46
0.3937007874015748
 78
     3
 79
     3
140
0.1200000047683716
147
0.031496062992126
171
     1
176
   256
177
   256
178
   256
272
     2
274
     1
276
     2
277
     4
284
    12
285
     4
286
    12
340
D6
371
    -1
372
    -1
  0
DIMSTYLE
105
EF
330
A
100
AcDbSymbolTableRecord
100
AcDbDimStyleTableRecord
  2
Architectural (ANSI)$7
 70
     0
 40
12.0
 41
0.0984251946210861
 43
0.2362204724409449
 44
0.125
 45
0.00000001
 46
0.3937007874015748
 78
     3
 79
     3
140
0.1200000047683716
147
0.031496062992126
171
     1
176
   256
177
   256
178
   256
272
     2
274
     1
276
     2
277
     4
284
    12
285
     4
286
    12
340
D6
371
    -1
372
    -1
  0
DIMSTYLE
105
F0
330
A
100
AcDbSymbolTableRecord
100
AcDbDimStyleTableRecord
  2
Default - Fraction (ANSI)
 70
     0
 40
12.0
 41
0.0984251946210861
 43
0.2362204724409449
 44
0.125
 45
0.00000001
 46
0.3937007874015748
 79
     3
140
0.1200000047683716
147
0.031496062992126
171
     1
176
   256
177
   256
178
   256
272
     2
274
     1
276
     2
277
     5
284
    12
285
     4
286
    12
340
D6
371
    -1
372
    -1
  0
DIMSTYLE
105
F1
330
A
100
AcDbSymbolTableRecord
100
AcDbDimStyleTableRecord
  2
Default - Fraction (ANSI)$7
 70
     0
 40
12.0
 41
0.0984251946210861
 43
0.2362204724409449
 44
0.125
 45
0.00000001
 46
0.3937007874015748
 79
     3
140
0.1200000047683716
147
0.031496062992126
171
     1
176
   256
177
   256
178
   256
272
     2
274
     1
276
     2
277
     5
284
    12
285
     4
286
    12
340
D6
371
    -1
372
    -1
  0
DIMSTYLE
105
F2
330
A
100
AcDbSymbolTableRecord
100
AcDbDimStyleTableRecord
  2
Default - mm (ANSI)
 70
     0
 40
12.0
 41
0.0984251946210861
 42
0.063
 43
0.2362204724409449
 44
0.125
 45
0.00000001
 46
0.3937007874015748
 73
     0
 78
     4
 79
     1
140
0.1200000047683716
143
1.0
144
25.4
147
0.031496062992126
171
     1
176
   256
177
   256
178
   256
179
     1
271
     2
272
     2
274
     1
284
     4
285
     4
340
D6
371
    -1
372
    -1
  0
DIMSTYLE
105
F3
330
A
100
AcDbSymbolTableRecord
100
AcDbDimStyleTableRecord
  2
Default - mm (ANSI)$7
 70
     0
 40
12.0
 41
0.0984251946210861
 42
0.063
 43
0.2362204724409449
 44
0.125
 45
0.00000001
 46
0.3937007874015748
 73
     0
 78
     4
 79
     1
140
0.1200000047683716
143
1.0
144
25.4
147
0.031496062992126
171
     1
176
   256
177
   256
178
   256
179
     1
271
     2
272
     2
274
     1
284
     4
285
     4
340
D6
371
    -1
372
    -1
  0
DIMSTYLE
105
F4
330
A
100
AcDbSymbolTableRecord
100
AcDbDimStyleTableRecord
  2
Default - mm [in] (ANSI)
 70
     0
  4
 in
 40
12.0
 41
0.0984251946210861
 42
0.063
 43
0.25
 44
0.125
 45
0.00000001
 46
0.3937007874015748
 73
     0
 78
     4
 79
     1
140
0.1200000047683716
143
0.03937
144
25.4
147
0.031496062992126
170
     1
171
     3
176
   256
177
   256
178
   256
179
     1
271
     2
272
     2
274
     3
284
     4
285
     4
286
     4
340
D6
371
    -1
372
    -1
  0
DIMSTYLE
105
F5
330
A
100
AcDbSymbolTableRecord
100
AcDbDimStyleTableRecord
  2
Default - mm [in] (ANSI)$7
 70
     0
  4
 in
 40
12.0
 41
0.0984251946210861
 42
0.063
 43
0.25
 44
0.125
 45
0.00000001
 46
0.3937007874015748
 73
     0
 78
     4
 79
     1
140
0.1200000047683716
143
0.03937
144
25.4
147
0.031496062992126
170
     1
171
     3
176
   256
177
   256
178
   256
179
     1
271
     2
272
     2
274
     3
284
     4
285
     4
286
     4
340
D6
371
    -1
372
    -1
  0
DIMSTYLE
105
F6
102
{ACAD_REACTORS
330
558
330
644
330
72E
330
818
330
918
330
A02
330
AEC
330
BD6
330
C90
330
D99
330
E8B
102
}
330
A
100
AcDbSymbolTableRecord
100
AcDbDimStyleTableRecord
  2
Default (ANSI)
 70
     0
 40
12.0
 41
0.0984251946210861
 43
0.2362204724409449
 44
0.125
 45
0.00000001
 46
0.3937007874015748
 79
     1
140
0.1200000047683716
147
0.031496062992126
171
     1
176
   256
177
   256
178
   256
271
     2
272
     2
274
     1
284
     4
285
     4
340
D6
371
    -1
372
    -1
  0
DIMSTYLE
105
F7
330
A
100
AcDbSymbolTableRecord
100
AcDbDimStyleTableRecord
  2
Default (ANSI)$7
 70
     0
 40
12.0
 41
0.0984251946210861
 43
0.2362204724409449
 44
0.125
 45
0.00000001
 46
0.3937007874015748
 79
     1
140
0.1200000047683716
147
0.031496062992126
171
     1
176
   256
177
   256
178
   256
271
     2
272
     2
274
     1
284
     4
285
     4
340
D6
371
    -1
372
    -1
  0
DIMSTYLE
105
F8
330
A
100
AcDbSymbolTableRecord
100
AcDbDimStyleTableRecord
  2
Alternate (ANSI)
 70
     0
 40
12.0
 41
0.0979999974370003
340
55
342
F9
  0
DIMSTYLE
105
10B
330
A
100
AcDbSymbolTableRecord
100
AcDbDimStyleTableRecord
  2
Datum (ANSI)
 70
     0
 40
12.0
 41
0.0979999974370003
340
55
342
F9
  0
DIMSTYLE
105
11A
330
A
100
AcDbSymbolTableRecord
100
AcDbDimStyleTableRecord
  2
Large (ANSI)
 70
     0
 40
12.0
 41
0.1959999948740005
340
55
342
F9
  0
ENDTAB
  0
TABLE
  2
BLOCK_RECORD
  5
1
330
0
100
AcDbSymbolTable
 70
    15
  0
BLOCK_RECORD
  5
6C
330
1
100
AcDbSymbolTableRecord
100
AcDbBlockTableRecord
  2
*Model_Space
340
6F
 70
     0
280
     1
281
     0
  0
BLOCK_RECORD
  5
68
330
1
100
AcDbSymbolTableRecord
100
AcDbBlockTableRecord
  2
*Paper_Space
340
6B
 70
     0
280
     1
281
     0
  0
BLOCK_RECORD
  5
70
330
1
100
AcDbSymbolTableRecord
100
AcDbBlockTableRecord
  2
*Paper_Space0
340
73
 70
     0
280
     1
281
     0
  0
BLOCK_RECORD
  5
F9
330
1
100
AcDbSymbolTableRecord
100
AcDbBlockTableRecord
  2
_Closed
340
0
 70
     0
280
     1
281
     0
  0
BLOCK_RECORD
  5
100
330
1
100
AcDbSymbolTableRecord
100
AcDbBlockTableRecord
  2
DatumFilled45
340
0
 70
     0
280
     1
281
     0
  0
BLOCK_RECORD
  5
10C
330
1
100
AcDbSymbolTableRecord
100
AcDbBlockTableRecord
  2
Filled-1
340
0
 70
     0
280
     1
281
     0
  0
BLOCK_RECORD
  5
55B
330
1
100
AcDbSymbolTableRecord
100
AcDbBlockTableRecord
  2
*D4
340
0
 70
     0
280
     1
281
     0
  0
BLOCK_RECORD
  5
645
330
1
100
AcDbSymbolTableRecord
100
AcDbBlockTableRecord
  2
*D5
340
0
 70
     0
280
     1
281
     0
  0
BLOCK_RECORD
  5
72F
330
1
100
AcDbSymbolTableRecord
100
AcDbBlockTableRecord
  2
*D6
340
0
 70
     0
280
     1
281
     0
  0
BLOCK_RECORD
  5
819
330
1
100
AcDbSymbolTableRecord
100
AcDbBlockTableRecord
  2
*D7
340
0
 70
     0
280
     1
281
     0
  0
BLOCK_RECORD
  5
919
330
1
100
AcDbSymbolTableRecord
100
AcDbBlockTableRecord
  2
*D8
340
0
 70
     0
280
     1
281
     0
  0
BLOCK_RECORD
  5
A03
330
1
100
AcDbSymbolTableRecord
100
AcDbBlockTableRecord
  2
*D9
340
0
 70
     0
280
     1
281
     0
  0
BLOCK_RECORD
  5
AED
330
1
100
AcDbSymbolTableRecord
100
AcDbBlockTableRecord
  2
*D10
340
0
 70
     0
280
     1
281
     0
  0
BLOCK_RECORD
  5
BD7
330
1
100
AcDbSymbolTableRecord
100
AcDbBlockTableRecord
  2
*D11
340
0
 70
     0
280
     1
281
     0
  0
BLOCK_RECORD
  5
C91
330
1
100
AcDbSymbolTableRecord
100
AcDbBlockTableRecord
  2
*D12
340
0
 70
     0
280
     1
281
     0
  0
BLOCK_RECORD
  5
D9A
330
1
100
AcDbSymbolTableRecord
100
AcDbBlockTableRecord
  2
*D13
340
0
 70
     0
280
     1
281
     0
  0
BLOCK_RECORD
  5
E8C
330
1
100
AcDbSymbolTableRecord
100
AcDbBlockTableRecord
  2
*D14
340
0
 70
     0
280
     1
281
     0
  0
ENDTAB
  0
ENDSEC
  0
SECTION
  2
BLOCKS
  0
BLOCK
  5
6D
330
6C
100
AcDbEntity
  8
0
100
AcDbBlockBegin
  2
*Model_Space
 70
     0
 10
0.0
 20
0.0
 30
0.0
  3
*Model_Space
  1

  0
ENDBLK
  5
6E
330
6C
100
AcDbEntity
  8
0
100
AcDbBlockEnd
  0
BLOCK
  5
69
330
68
100
AcDbEntity
 67
     1
  8
0
100
AcDbBlockBegin
  2
*Paper_Space
 70
     0
 10
0.0
 20
0.0
 30
0.0
  3
*Paper_Space
  1

  0
ENDBLK
  5
6A
330
68
100
AcDbEntity
 67
     1
  8
0
100
AcDbBlockEnd
  0
BLOCK
  5
71
330
70
100
AcDbEntity
 67
     1
  8
0
100
AcDbBlockBegin
  2
*Paper_Space0
 70
     0
 10
0.0
 20
0.0
 30
0.0
  3
*Paper_Space0
  1

  0
ENDBLK
  5
72
330
70
100
AcDbEntity
 67
     1
  8
0
100
AcDbBlockEnd
  0
BLOCK
  5
FE
330
F9
100
AcDbEntity
  8
0
100
AcDbBlockBegin
  2
_Closed
 70
     0
 10
0.0
 20
0.0
 30
0.0
  3
_Closed
  1

  0
LINE
  5
FA
330
F9
100
AcDbEntity
  8
0
  6
ByBlock
 62
     0
370
    -2
100
AcDbLine
 10
-1.0
 20
0.1666666666666666
 30
0.0
 11
0.0
 21
0.0
 31
0.0
  0
LINE
  5
FB
330
F9
100
AcDbEntity
  8
0
  6
ByBlock
 62
     0
370
    -2
100
AcDbLine
 10
0.0
 20
0.0
 30
0.0
 11
-1.0
 21
-0.1666666666666666
 31
0.0
  0
LINE
  5
FC
330
F9
100
AcDbEntity
  8
0
  6
ByBlock
 62
     0
370
    -2
100
AcDbLine
 10
-1.0
 20
0.1666666666666666
 30
0.0
 11
-1.0
 21
-0.1666666666666666
 31
0.0
  0
LINE
  5
FD
330
F9
100
AcDbEntity
  8
0
  6
ByBlock
 62
     0
370
    -2
100
AcDbLine
 10
0.0
 20
0.0
 30
0.0
 11
-1.0
 21
0.0
 31
0.0
  0
ENDBLK
  5
FF
330
F9
100
AcDbEntity
  8
0
100
AcDbBlockEnd
  0
BLOCK
  5
101
330
100
100
AcDbEntity
  8
0
100
AcDbBlockBegin
  2
DatumFilled45
 70
     0
 10
0.0
 20
0.0
 30
0.0
  3
DatumFilled45
  1

  0
POLYLINE
  5
103
330
100
100
AcDbEntity
  8
0
 62
     0
100
AcDb2dPolyline
 66
     1
 10
0.0
 20
0.0
 30
0.0
 70
   128
  0
VERTEX
  5
104
330
103
100
AcDbEntity
  8
0
 62
     0
100
AcDbVertex
100
AcDb2dVertex
 10
0.0
 20
0.9999999999999998
 30
0.0
  0
VERTEX
  5
105
330
103
100
AcDbEntity
  8
0
 62
     0
100
AcDbVertex
100
AcDb2dVertex
 10
0.0
 20
-0.9999999999999998
 30
0.0
  0
VERTEX
  5
107
330
103
100
AcDbEntity
  8
0
 62
     0
100
AcDbVertex
100
AcDb2dVertex
 10
-0.9999999999999998
 20
0.0
 30
0.0
  0
VERTEX
  5
108
330
103
100
AcDbEntity
  8
0
 62
     0
100
AcDbVertex
100
AcDb2dVertex
 10
0.0
 20
0.9999999999999998
 30
0.0
  0
SEQEND
  5
106
330
103
100
AcDbEntity
  8
0
 62
     0
  0
SOLID
  5
10A
330
100
100
AcDbEntity
  8
0
 62
     0
100
AcDbTrace
 10
0.0
 20
0.9999999999999998
 30
0.0
 11
0.0
 21
-0.9999999999999998
 31
0.0
 12
-0.9999999999999998
 22
0.0
 32
0.0
 13
0.0
 23
0.9999999999999998
 33
0.0
  0
ENDBLK
  5
102
330
100
100
AcDbEntity
  8
0
100
AcDbBlockEnd
  0
BLOCK
  5
10D
330
10C
100
AcDbEntity
  8
0
100
AcDbBlockBegin
  2
Filled-1
 70
     0
 10
0.0
 20
0.0
 30
0.0
  3
Filled-1
  1

  0
LINE
  5
10F
330
10C
100
AcDbEntity
  8
0
 62
     0
100
AcDbLine
 10
-0.9999999999999998
 20
0.0
 30
0.0
 11
0.0
 21
0.0
 31
0.0
  0
POLYLINE
  5
110
330
10C
100
AcDbEntity
  8
0
 62
     0
100
AcDb2dPolyline
 66
     1
 10
0.0
 20
0.0
 30
0.0
 70
   128
  0
VERTEX
  5
111
330
110
100
AcDbEntity
  8
0
 62
     0
100
AcDbVertex
100
AcDb2dVertex
 10
-0.9999999999999998
 20
-0.0994897959183674
 30
0.0
  0
VERTEX
  5
112
330
110
100
AcDbEntity
  8
0
 62
     0
100
AcDbVertex
100
AcDb2dVertex
 10
0.0
 20
0.0
 30
0.0
  0
VERTEX
  5
114
330
110
100
AcDbEntity
  8
0
 62
     0
100
AcDbVertex
100
AcDb2dVertex
 10
-0.9999999999999998
 20
0.0994897959183674
 30
0.0
  0
VERTEX
  5
115
330
110
100
AcDbEntity
  8
0
 62
     0
100
AcDbVertex
100
AcDb2dVertex
 10
-0.9999999999999998
 20
-0.0994897959183674
 30
0.0
  0
SEQEND
  5
113
330
110
100
AcDbEntity
  8
0
 62
     0
  0
SOLID
  5
116
330
10C
100
AcDbEntity
  8
0
 62
     0
100
AcDbTrace
 10
-0.9999999999999998
 20
-0.0994897959183674
 30
0.0
 11
0.0
 21
0.0
 31
0.0
 12
-0.9999999999999998
 22
0.0994897959183674
 32
0.0
 13
-0.9999999999999998
 23
-0.0994897959183674
 33
0.0
  0
LINE
  5
117
330
10C
100
AcDbEntity
  8
0
 62
     0
100
AcDbLine
 10
-0.9999999999999998
 20
-0.0994897959183674
 30
0.0
 11
0.0
 21
0.0
 31
0.0
  0
LINE
  5
118
330
10C
100
AcDbEntity
  8
0
 62
     0
100
AcDbLine
 10
0.0
 20
0.0
 30
0.0
 11
-0.9999999999999998
 21
0.0994897959183674
 31
0.0
  0
LINE
  5
119
330
10C
100
AcDbEntity
  8
0
 62
     0
100
AcDbLine
 10
-0.9999999999999998
 20
0.0994897959183674
 30
0.0
 11
-0.9999999999999998
 21
-0.0994897959183674
 31
0.0
  0
ENDBLK
  5
10E
330
10C
100
AcDbEntity
  8
0
100
AcDbBlockEnd
  0
BLOCK
  5
55C
330
55B
100
AcDbEntity
  8
0
100
AcDbBlockBegin
  2
*D4
 70
     1
 10
0.0
 20
0.0
 30
0.0
  3
*D4
  1

  0
LINE
  5
63A
330
55B
100
AcDbEntity
  8
Dimension (ANSI)
440
 16777216
100
AcDbLine
 10
32.82627375955517
 20
91.94237507815824
 30
0.0
 11
32.82627375955517
 21
104.2714294042928
 31
0.0
  0
LINE
  5
63B
330
55B
100
AcDbEntity
  8
Dimension (ANSI)
440
 16777216
100
AcDbLine
 10
88.82627375955511
 20
91.94237507815824
 30
0.0
 11
88.82627375955511
 21
104.2714294042928
 31
0.0
  0
LINE
  5
63C
330
55B
100
AcDbEntity
  8
Dimension (ANSI)
440
 16777216
100
AcDbLine
 10
34.00737609500821
 20
102.7714294042928
 30
0.0
 11
58.08619869536481
 21
102.7714294042928
 31
0.0
  0
LINE
  5
63D
330
55B
100
AcDbEntity
  8
Dimension (ANSI)
440
 16777216
100
AcDbLine
 10
87.64517142410207
 20
102.7714294042928
 30
0.0
 11
63.56634882374557
 21
102.7714294042928
 31
0.0
  0
SOLID
  5
63E
330
55B
100
AcDbEntity
  8
Dimension (ANSI)
440
 16777216
100
AcDbTrace
 10
34.00737609500821
 20
102.968279793535
 30
0.0
 11
34.00737609500821
 21
102.5745790150506
 31
0.0
 12
32.82627375955517
 22
102.7714294042928
 32
0.0
 13
32.82627375955517
 23
102.7714294042928
 33
0.0
  0
SOLID
  5
63F
330
55B
100
AcDbEntity
  8
Dimension (ANSI)
440
 16777216
100
AcDbTrace
 10
87.64517142410207
 20
102.968279793535
 30
0.0
 11
87.64517142410207
 21
102.5745790150506
 31
0.0
 12
88.82627375955511
 22
102.7714294042928
 32
0.0
 13
88.82627375955511
 23
102.7714294042928
 33
0.0
  0
MTEXT
  5
640
330
55B
100
AcDbEntity
  8
Dimension (ANSI)
440
 16777216
100
AcDbMText
 10
58.46415145127032
 20
103.5209257354784
 30
0.0
 40
1.440000057220458
 41
0.0
 46
0.0
 71
     1
 72
     1
  1
\A1;56.00
  7
Note Text (ANSI)
 73
     1
 44
1.0
  0
POINT
  5
641
330
55B
100
AcDbEntity
  8
Defpoints
 62
     0
440
 16777216
100
AcDbPoint
 10
32.82627375955517
 20
91.19237507815823
 30
0.0
  0
POINT
  5
642
330
55B
100
AcDbEntity
  8
Defpoints
 62
     0
440
 16777216
100
AcDbPoint
 10
88.82627375955511
 20
91.19237507815823
 30
0.0
  0
POINT
  5
643
330
55B
100
AcDbEntity
  8
Defpoints
 62
     0
440
 16777216
100
AcDbPoint
 10
88.82627375955511
 20
102.7714294042928
 30
0.0
  0
ENDBLK
  5
55D
330
55B
100
AcDbEntity
  8
0
100
AcDbBlockEnd
  0
BLOCK
  5
646
330
645
100
AcDbEntity
  8
0
100
AcDbBlockBegin
  2
*D5
 70
     1
 10
0.0
 20
0.0
 30
0.0
  3
*D5
  1

  0
LINE
  5
724
330
645
100
AcDbEntity
  8
Dimension (ANSI)
440
 16777216
100
AcDbLine
 10
32.82627375955517
 20
91.94237507815824
 30
0.0
 11
32.82627375955517
 21
97.4395229124055
 31
0.0
  0
LINE
  5
725
330
645
100
AcDbEntity
  8
Dimension (ANSI)
440
 16777216
100
AcDbLine
 10
33.70127375955517
 20
93.06226342580652
 30
0.0
 11
33.70127375955517
 21
97.4395229124055
 31
0.0
  0
LINE
  5
726
330
645
100
AcDbEntity
  8
Dimension (ANSI)
440
 16777216
100
AcDbLine
 10
34.88237609500821
 20
95.93952291240549
 30
0.0
 11
36.06347843046124
 21
95.93952291240549
 31
0.0
  0
LINE
  5
727
330
645
100
AcDbEntity
  8
Dimension (ANSI)
440
 16777216
100
AcDbLine
 10
31.64517142410214
 20
95.93952291240549
 30
0.0
 11
29.85379421262152
 21
95.93952291240549
 31
0.0
  0
SOLID
  5
728
330
645
100
AcDbEntity
  8
Dimension (ANSI)
440
 16777216
100
AcDbTrace
 10
34.88237609500821
 20
96.13637330164767
 30
0.0
 11
34.88237609500821
 21
95.74267252316332
 31
0.0
 12
33.70127375955517
 22
95.93952291240549
 32
0.0
 13
33.70127375955517
 23
95.93952291240549
 33
0.0
  0
SOLID
  5
729
330
645
100
AcDbEntity
  8
Dimension (ANSI)
440
 16777216
100
AcDbTrace
 10
31.64517142410214
 20
96.13637330164767
 30
0.0
 11
31.64517142410214
 21
95.74267252316332
 31
0.0
 12
32.82627375955517
 22
95.93952291240549
 32
0.0
 13
32.82627375955517
 23
95.93952291240549
 33
0.0
  0
MTEXT
  5
72A
330
645
100
AcDbEntity
  8
Dimension (ANSI)
440
 16777216
100
AcDbMText
 10
25.78445113912202
 20
96.69240406573191
 30
0.0
 40
1.440000057220458
 41
0.0
 46
0.0
 71
     1
 72
     1
  1
\A1;0.88
  7
Note Text (ANSI)
 73
     1
 44
1.0
  0
POINT
  5
72B
330
645
100
AcDbEntity
  8
Defpoints
 62
     0
440
 16777216
100
AcDbPoint
 10
32.82627375955517
 20
91.19237507815823
 30
0.0
  0
POINT
  5
72C
330
645
100
AcDbEntity
  8
Defpoints
 62
     0
440
 16777216
100
AcDbPoint
 10
33.70127375955517
 20
92.31226342580653
 30
0.0
  0
POINT
  5
72D
330
645
100
AcDbEntity
  8
Defpoints
 62
     0
440
 16777216
100
AcDbPoint
 10
33.70127375955517
 20
95.93952291240549
 30
0.0
  0
ENDBLK
  5
647
330
645
100
AcDbEntity
  8
0
100
AcDbBlockEnd
  0
BLOCK
  5
730
330
72F
100
AcDbEntity
  8
0
100
AcDbBlockBegin
  2
*D6
 70
     1
 10
0.0
 20
0.0
 30
0.0
  3
*D6
  1

  0
LINE
  5
80E
330
72F
100
AcDbEntity
  8
Dimension (ANSI)
440
 16777216
100
AcDbLine
 10
33.70127375955517
 20
93.06226342580652
 30
0.0
 11
33.70127375955517
 21
97.4395229124055
 31
0.0
  0
LINE
  5
80F
330
72F
100
AcDbEntity
  8
Dimension (ANSI)
440
 16777216
100
AcDbLine
 10
60.82627375955517
 20
93.06226342580652
 30
0.0
 11
60.82627375955517
 21
97.4395229124055
 31
0.0
  0
LINE
  5
810
330
72F
100
AcDbEntity
  8
Dimension (ANSI)
440
 16777216
100
AcDbLine
 10
34.88237609500821
 20
95.93952291240549
 30
0.0
 11
44.53240252372695
 21
95.93952291240549
 31
0.0
  0
LINE
  5
811
330
72F
100
AcDbEntity
  8
Dimension (ANSI)
440
 16777216
100
AcDbLine
 10
59.64517142410214
 20
95.93952291240549
 30
0.0
 11
49.99514499538339
 21
95.93952291240549
 31
0.0
  0
SOLID
  5
812
330
72F
100
AcDbEntity
  8
Dimension (ANSI)
440
 16777216
100
AcDbTrace
 10
34.88237609500821
 20
96.13637330164767
 30
0.0
 11
34.88237609500821
 21
95.74267252316332
 31
0.0
 12
33.70127375955517
 22
95.93952291240549
 32
0.0
 13
33.70127375955517
 23
95.93952291240549
 33
0.0
  0
SOLID
  5
813
330
72F
100
AcDbEntity
  8
Dimension (ANSI)
440
 16777216
100
AcDbTrace
 10
59.64517142410214
 20
96.13637330164767
 30
0.0
 11
59.64517142410214
 21
95.74267252316332
 31
0.0
 12
60.82627375955517
 22
95.93952291240549
 32
0.0
 13
60.82627375955517
 23
95.93952291240549
 33
0.0
  0
MTEXT
  5
814
330
72F
100
AcDbEntity
  8
Dimension (ANSI)
440
 16777216
100
AcDbMText
 10
44.91035527963246
 20
96.68950278961119
 30
0.0
 40
1.440000057220458
 41
0.0
 46
0.0
 71
     1
 72
     1
  1
\A1;27.13
  7
Note Text (ANSI)
 73
     1
 44
1.0
  0
POINT
  5
815
330
72F
100
AcDbEntity
  8
Defpoints
 62
     0
440
 16777216
100
AcDbPoint
 10
33.70127375955517
 20
92.31226342580653
 30
0.0
  0
POINT
  5
816
330
72F
100
AcDbEntity
  8
Defpoints
 62
     0
440
 16777216
100
AcDbPoint
 10
60.82627375955517
 20
92.31226342580653
 30
0.0
  0
POINT
  5
817
330
72F
100
AcDbEntity
  8
Defpoints
 62
     0
440
 16777216
100
AcDbPoint
 10
60.82627375955517
 20
95.93952291240549
 30
0.0
  0
ENDBLK
  5
731
330
72F
100
AcDbEntity
  8
0
100
AcDbBlockEnd
  0
BLOCK
  5
81A
330
819
100
AcDbEntity
  8
0
100
AcDbBlockBegin
  2
*D7
 70
     1
 10
0.0
 20
0.0
 30
0.0
  3
*D7
  1

  0
LINE
  5
90D
330
819
100
AcDbEntity
  8
Dimension (ANSI)
440
 16777216
100
AcDbLine
 10
32.28966210720351
 20
31.40576342580655
 30
0.0
 11
30.31236173953071
 21
31.40576342580655
 31
0.0
  0
LINE
  5
90E
330
819
100
AcDbEntity
  8
Dimension (ANSI)
440
 16777216
100
AcDbLine
 10
31.16977375955517
 20
32.28076342580655
 30
0.0
 11
30.31236173953071
 21
32.28076342580655
 31
0.0
  0
LINE
  5
90F
330
819
100
AcDbEntity
  8
Dimension (ANSI)
440
 16777216
100
AcDbLine
 10
31.81236173953071
 20
33.46186576125958
 30
0.0
 11
31.81236173953071
 21
34.64296809671262
 31
0.0
  0
LINE
  5
910
330
819
100
AcDbEntity
  8
Dimension (ANSI)
440
 16777216
100
AcDbLine
 10
31.81236173953071
 20
30.22466109035351
 30
0.0
 11
31.81236173953071
 21
27.96179143522086
 31
0.0
  0
LINE
  5
911
330
819
100
AcDbEntity
  8
Dimension (ANSI)
440
 16777216
100
AcDbLine
 10
31.81236173953071
 20
27.96179143522086
 30
0.0
 11
30.63125940407768
 21
27.96179143522086
 31
0.0
  0
SOLID
  5
912
330
819
100
AcDbEntity
  8
Dimension (ANSI)
440
 16777216
100
AcDbTrace
 10
31.61551135028854
 20
33.46186576125958
 30
0.0
 11
32.00921212877288
 21
33.46186576125958
 31
0.0
 12
31.81236173953071
 22
32.28076342580655
 32
0.0
 13
31.81236173953071
 23
32.28076342580655
 33
0.0
  0
SOLID
  5
913
330
819
100
AcDbEntity
  8
Dimension (ANSI)
440
 16777216
100
AcDbTrace
 10
31.61551135028854
 20
30.22466109035351
 30
0.0
 11
32.00921212877288
 21
30.22466109035351
 31
0.0
 12
31.81236173953071
 22
31.40576342580655
 32
0.0
 13
31.81236173953071
 23
31.40576342580655
 33
0.0
  0
MTEXT
  5
914
330
819
100
AcDbEntity
  8
Dimension (ANSI)
440
 16777216
100
AcDbMText
 10
26.56191633057817
 20
28.71467258854728
 30
0.0
 40
1.440000057220458
 41
0.0
 46
0.0
 71
     1
 72
     1
  1
\A1;0.88
  7
Note Text (ANSI)
 73
     1
 44
1.0
  0
POINT
  5
915
330
819
100
AcDbEntity
  8
Defpoints
 62
     0
440
 16777216
100
AcDbPoint
 10
33.0396621072035
 20
31.40576342580655
 30
0.0
  0
POINT
  5
916
330
819
100
AcDbEntity
  8
Defpoints
 62
     0
440
 16777216
100
AcDbPoint
 10
31.91977375955517
 20
32.28076342580655
 30
0.0
  0
POINT
  5
917
330
819
100
AcDbEntity
  8
Defpoints
 62
     0
440
 16777216
100
AcDbPoint
 10
31.81236173953071
 20
32.28076342580655
 30
0.0
  0
ENDBLK
  5
81B
330
819
100
AcDbEntity
  8
0
100
AcDbBlockEnd
  0
BLOCK
  5
91A
330
919
100
AcDbEntity
  8
0
100
AcDbBlockBegin
  2
*D8
 70
     1
 10
0.0
 20
0.0
 30
0.0
  3
*D8
  1

  0
LINE
  5
9F8
330
919
100
AcDbEntity
  8
Dimension (ANSI)
440
 16777216
100
AcDbLine
 10
31.16977375955517
 20
32.28076342580655
 30
0.0
 11
26.90761148937517
 21
32.28076342580655
 31
0.0
  0
LINE
  5
9F9
330
919
100
AcDbEntity
  8
Dimension (ANSI)
440
 16777216
100
AcDbLine
 10
31.16977375955519
 20
61.40576342580654
 30
0.0
 11
26.90761148937518
 21
61.40576342580654
 31
0.0
  0
LINE
  5
9FA
330
919
100
AcDbEntity
  8
Dimension (ANSI)
440
 16777216
100
AcDbLine
 10
28.40761148937517
 20
33.46186576125958
 30
0.0
 11
28.40761148937517
 21
45.71533079269532
 31
0.0
  0
LINE
  5
9FB
330
919
100
AcDbEntity
  8
Dimension (ANSI)
440
 16777216
100
AcDbLine
 10
28.40761148937517
 20
60.22466109035351
 30
0.0
 11
28.40761148937517
 21
47.97119605891774
 31
0.0
  0
SOLID
  5
9FC
330
919
100
AcDbEntity
  8
Dimension (ANSI)
440
 16777216
100
AcDbTrace
 10
28.21076110013299
 20
33.46186576125958
 30
0.0
 11
28.60446187861734
 21
33.46186576125958
 31
0.0
 12
28.40761148937517
 22
32.28076342580655
 32
0.0
 13
28.40761148937517
 23
32.28076342580655
 33
0.0
  0
SOLID
  5
9FD
330
919
100
AcDbEntity
  8
Dimension (ANSI)
440
 16777216
100
AcDbTrace
 10
28.210761100133
 20
60.22466109035351
 30
0.0
 11
28.60446187861735
 21
60.22466109035351
 31
0.0
 12
28.40761148937517
 22
61.40576342580654
 32
0.0
 13
28.40761148937517
 23
61.40576342580654
 33
0.0
  0
MTEXT
  5
9FE
330
919
100
AcDbEntity
  8
Dimension (ANSI)
440
 16777216
100
AcDbMText
 10
26.05419300945245
 20
47.59324330301224
 30
0.0
 40
1.440000057220458
 41
0.0
 46
0.0
 71
     1
 72
     1
  1
\A1;29.13
  7
Note Text (ANSI)
 73
     1
 44
1.0
  0
POINT
  5
9FF
330
919
100
AcDbEntity
  8
Defpoints
 62
     0
440
 16777216
100
AcDbPoint
 10
31.91977375955517
 20
32.28076342580655
 30
0.0
  0
POINT
  5
A00
330
919
100
AcDbEntity
  8
Defpoints
 62
     0
440
 16777216
100
AcDbPoint
 10
31.91977375955519
 20
61.40576342580654
 30
0.0
  0
POINT
  5
A01
330
919
100
AcDbEntity
  8
Defpoints
 62
     0
440
 16777216
100
AcDbPoint
 10
28.40761148937517
 20
61.40576342580654
 30
0.0
  0
ENDBLK
  5
91B
330
919
100
AcDbEntity
  8
0
100
AcDbBlockEnd
  0
BLOCK
  5
A04
330
A03
100
AcDbEntity
  8
0
100
AcDbBlockBegin
  2
*D9
 70
     1
 10
0.0
 20
0.0
 30
0.0
  3
*D9
  1

  0
LINE
  5
AE2
330
A03
100
AcDbEntity
  8
Dimension (ANSI)
440
 16777216
100
AcDbLine
 10
31.16977375955517
 20
32.28076342580655
 30
0.0
 11
19.39615171231109
 21
32.28076342580655
 31
0.0
  0
LINE
  5
AE3
330
A03
100
AcDbEntity
  8
Dimension (ANSI)
440
 16777216
100
AcDbLine
 10
31.16977375955517
 20
90.5307634258065
 30
0.0
 11
19.3961517123111
 21
90.5307634258065
 31
0.0
  0
LINE
  5
AE4
330
A03
100
AcDbEntity
  8
Dimension (ANSI)
440
 16777216
100
AcDbLine
 10
20.89615171231109
 20
33.46186576125958
 30
0.0
 11
20.8961517123111
 21
60.2749295165746
 31
0.0
  0
LINE
  5
AE5
330
A03
100
AcDbEntity
  8
Dimension (ANSI)
440
 16777216
100
AcDbLine
 10
20.89615171231111
 20
89.34966109035348
 30
0.0
 11
20.8961517123111
 21
62.53659733503845
 31
0.0
  0
SOLID
  5
AE6
330
A03
100
AcDbEntity
  8
Dimension (ANSI)
440
 16777216
100
AcDbTrace
 10
20.69930132306892
 20
33.46186576125958
 30
0.0
 11
21.09300210155327
 21
33.46186576125958
 31
0.0
 12
20.89615171231109
 22
32.28076342580655
 32
0.0
 13
20.89615171231109
 23
32.28076342580655
 33
0.0
  0
SOLID
  5
AE7
330
A03
100
AcDbEntity
  8
Dimension (ANSI)
440
 16777216
100
AcDbTrace
 10
20.69930132306893
 20
89.34966109035348
 30
0.0
 11
21.09300210155328
 21
89.34966109035348
 31
0.0
 12
20.89615171231111
 22
90.5307634258065
 32
0.0
 13
20.89615171231111
 23
90.5307634258065
 33
0.0
  0
MTEXT
  5
AE8
330
A03
100
AcDbEntity
  8
Dimension (ANSI)
440
 16777216
100
AcDbMText
 10
18.54563450850909
 20
62.15864457913295
 30
0.0
 40
1.440000057220458
 41
0.0
 46
0.0
 71
     1
 72
     1
  1
\A1;58.25
  7
Note Text (ANSI)
 73
     1
 44
1.0
  0
POINT
  5
AE9
330
A03
100
AcDbEntity
  8
Defpoints
 62
     0
440
 16777216
100
AcDbPoint
 10
31.91977375955517
 20
32.28076342580655
 30
0.0
  0
POINT
  5
AEA
330
A03
100
AcDbEntity
  8
Defpoints
 62
     0
440
 16777216
100
AcDbPoint
 10
31.91977375955517
 20
90.5307634258065
 30
0.0
  0
POINT
  5
AEB
330
A03
100
AcDbEntity
  8
Defpoints
 62
     0
440
 16777216
100
AcDbPoint
 10
20.89615171231111
 20
90.5307634258065
 30
0.0
  0
ENDBLK
  5
A05
330
A03
100
AcDbEntity
  8
0
100
AcDbBlockEnd
  0
BLOCK
  5
AEE
330
AED
100
AcDbEntity
  8
0
100
AcDbBlockBegin
  2
*D10
 70
     1
 10
0.0
 20
0.0
 30
0.0
  3
*D10
  1

  0
LINE
  5
BCC
330
AED
100
AcDbEntity
  8
Dimension (ANSI)
440
 16777216
100
AcDbLine
 10
32.28966210720351
 20
31.40576342580655
 30
0.0
 11
12.41885313728724
 21
31.40576342580655
 31
0.0
  0
LINE
  5
BCD
330
AED
100
AcDbEntity
  8
Dimension (ANSI)
440
 16777216
100
AcDbLine
 10
32.2896621072035
 20
91.40576342580651
 30
0.0
 11
12.41885313728726
 21
91.40576342580652
 31
0.0
  0
LINE
  5
BCE
330
AED
100
AcDbEntity
  8
Dimension (ANSI)
440
 16777216
100
AcDbLine
 10
13.91885313728725
 20
32.58686576125959
 30
0.0
 11
13.91885313728725
 21
60.27831433871545
 31
0.0
  0
LINE
  5
BCF
330
AED
100
AcDbEntity
  8
Dimension (ANSI)
440
 16777216
100
AcDbLine
 10
13.91885313728726
 20
90.22466109035349
 30
0.0
 11
13.91885313728725
 21
62.53321251289762
 31
0.0
  0
SOLID
  5
BD0
330
AED
100
AcDbEntity
  8
Dimension (ANSI)
440
 16777216
100
AcDbTrace
 10
13.72200274804507
 20
32.58686576125959
 30
0.0
 11
14.11570352652942
 21
32.58686576125959
 31
0.0
 12
13.91885313728725
 22
31.40576342580655
 32
0.0
 13
13.91885313728725
 23
31.40576342580655
 33
0.0
  0
SOLID
  5
BD1
330
AED
100
AcDbEntity
  8
Dimension (ANSI)
440
 16777216
100
AcDbTrace
 10
13.72200274804509
 20
90.22466109035349
 30
0.0
 11
14.11570352652943
 21
90.22466109035349
 31
0.0
 12
13.91885313728726
 22
91.40576342580652
 32
0.0
 13
13.91885313728726
 23
91.40576342580652
 33
0.0
  0
MTEXT
  5
BD2
330
AED
100
AcDbEntity
  8
Dimension (ANSI)
440
 16777216
100
AcDbMText
 10
11.53787253421771
 20
62.15525975699211
 30
0.0
 40
1.440000057220458
 41
0.0
 46
0.0
 71
     1
 72
     1
  1
\A1;60.00
  7
Note Text (ANSI)
 73
     1
 44
1.0
  0
POINT
  5
BD3
330
AED
100
AcDbEntity
  8
Defpoints
 62
     0
440
 16777216
100
AcDbPoint
 10
33.0396621072035
 20
31.40576342580655
 30
0.0
  0
POINT
  5
BD4
330
AED
100
AcDbEntity
  8
Defpoints
 62
     0
440
 16777216
100
AcDbPoint
 10
33.0396621072035
 20
91.40576342580651
 30
0.0
  0
POINT
  5
BD5
330
AED
100
AcDbEntity
  8
Defpoints
 62
     0
440
 16777216
100
AcDbPoint
 10
13.91885313728726
 20
91.40576342580652
 30
0.0
  0
ENDBLK
  5
AEF
330
AED
100
AcDbEntity
  8
0
100
AcDbBlockEnd
  0
BLOCK
  5
BD8
330
BD7
100
AcDbEntity
  8
0
100
AcDbBlockBegin
  2
*D11
 70
     1
 10
0.0
 20
0.0
 30
0.0
  3
*D11
  1

  0
LINE
  5
C88
330
BD7
100
AcDbEntity
  8
Dimension (ANSI)
440
 16777216
100
AcDbLine
 10
91.86764337652032
 20
29.29344305565831
 30
0.0
 11
90.25724739696414
 21
29.29344305565831
 31
0.0
  0
LINE
  5
C89
330
BD7
100
AcDbEntity
  8
Dimension (ANSI)
440
 16777216
100
AcDbLine
 10
90.25724739696414
 20
29.29344305565831
 30
0.0
 11
88.84499328903181
 21
31.12297631484679
 31
0.0
  0
MTEXT
  5
C8A
330
BD7
100
AcDbEntity
  8
Dimension (ANSI)
440
 16777216
100
AcDbMText
 10
92.24559613242581
 20
29.29344305565831
 30
0.0
 40
1.440000057220458
 41
0.0
 46
0.0
 71
     4
 72
     1
  1
\A1;∅0.563{\P(8 PL.)}
  7
Note Text (ANSI)
 73
     1
 44
1.0
  0
SOLID
  5
C8B
330
BD7
100
AcDbEntity
  8
Dimension (ANSI)
440
 16777216
100
AcDbTrace
 10
89.00081885961071
 20
31.24326125695742
 30
0.0
 11
88.68916771845293
 21
31.00269137273617
 31
0.0
 12
88.12328363636806
 22
32.05792973832018
 32
0.0
 13
88.12328363636806
 23
32.05792973832018
 33
0.0
  0
LINE
  5
C8C
330
BD7
100
AcDbEntity
  8
Dimension (ANSI)
440
 16777216
100
AcDbLine
 10
86.8712737595551
 20
32.28076342580654
 30
0.0
 11
89.03127375955508
 21
32.28076342580654
 31
0.0
  0
LINE
  5
C8D
330
BD7
100
AcDbEntity
  8
Dimension (ANSI)
440
 16777216
100
AcDbLine
 10
87.95127375955507
 20
31.20076342580655
 30
0.0
 11
87.95127375955507
 21
33.36076342580654
 31
0.0
  0
POINT
  5
C8E
330
BD7
100
AcDbEntity
  8
Defpoints
 62
     0
440
 16777216
100
AcDbPoint
 10
88.12328363636806
 20
32.05792973832018
 30
0.0
  0
POINT
  5
C8F
330
BD7
100
AcDbEntity
  8
Defpoints
 62
     0
440
 16777216
100
AcDbPoint
 10
87.77926388274206
 20
32.5035971132929
 30
0.0
  0
ENDBLK
  5
BD9
330
BD7
100
AcDbEntity
  8
0
100
AcDbBlockEnd
  0
BLOCK
  5
C92
330
C91
100
AcDbEntity
  8
0
100
AcDbBlockBegin
  2
*D12
 70
     1
 10
0.0
 20
0.0
 30
0.0
  3
*D12
  1

  0
LINE
  5
D90
330
C91
100
AcDbEntity
  8
Dimension (ANSI)
440
 16777216
100
AcDbLine
 10
78.48599993620297
 20
113.8977707683816
 30
0.0
 11
78.48599993620297
 21
112.7166684329286
 31
0.0
  0
LINE
  5
D91
330
C91
100
AcDbEntity
  8
Dimension (ANSI)
440
 16777216
100
AcDbLine
 10
78.48599993620297
 20
117.1349754392877
 30
0.0
 11
78.48599993620297
 21
121.0178451144418
 31
0.0
  0
LINE
  5
D92
330
C91
100
AcDbEntity
  8
Dimension (ANSI)
440
 16777216
100
AcDbLine
 10
78.48599993620297
 20
121.0178451144418
 30
0.0
 11
79.667102271656
 21
121.0178451144418
 31
0.0
  0
SOLID
  5
D93
330
C91
100
AcDbEntity
  8
Dimension (ANSI)
440
 16777216
100
AcDbTrace
 10
78.2891495469608
 20
113.8977707683816
 30
0.0
 11
78.68285032544514
 21
113.8977707683816
 31
0.0
 12
78.48599993620297
 22
115.0788731038346
 32
0.0
 13
78.48599993620297
 23
115.0788731038346
 33
0.0
  0
SOLID
  5
D94
330
C91
100
AcDbEntity
  8
Dimension (ANSI)
440
 16777216
100
AcDbTrace
 10
78.2891495469608
 20
117.1349754392877
 30
0.0
 11
78.68285032544514
 21
117.1349754392877
 31
0.0
 12
78.48599993620297
 22
115.9538731038347
 32
0.0
 13
78.48599993620297
 23
115.9538731038347
 33
0.0
  0
MTEXT
  5
D95
330
C91
100
AcDbEntity
  8
Dimension (ANSI)
440
 16777216
100
AcDbMText
 10
81.9473250707125
 20
121.0178451144419
 30
0.0
 40
1.440000057220458
 41
0.0
 46
0.0
 71
     5
 72
     1
  1
\A1;0.88{\PTYP.}
  7
Note Text (ANSI)
 73
     1
 44
1.0
  0
POINT
  5
D96
330
C91
100
AcDbEntity
  8
Defpoints
 62
     0
440
 16777216
100
AcDbPoint
 10
81.9473250707125
 20
115.9538731038347
 30
0.0
  0
POINT
  5
D97
330
C91
100
AcDbEntity
  8
Defpoints
 62
     0
440
 16777216
100
AcDbPoint
 10
81.92750866528578
 20
115.0788731038346
 30
0.0
  0
POINT
  5
D98
330
C91
100
AcDbEntity
  8
Defpoints
 62
     0
440
 16777216
100
AcDbPoint
 10
78.48599993620297
 20
115.0788731038346
 30
0.0
  0
ENDBLK
  5
C93
330
C91
100
AcDbEntity
  8
0
100
AcDbBlockEnd
  0
BLOCK
  5
D9B
330
D9A
100
AcDbEntity
  8
0
100
AcDbBlockBegin
  2
*D13
 70
     1
 10
0.0
 20
0.0
 30
0.0
  3
*D13
  1

  0
LINE
  5
E80
330
D9A
100
AcDbEntity
  8
Dimension (ANSI)
440
 16777216
100
AcDbLine
 10
111.1675842784458
 20
88.38277843846428
 30
0.0
 11
109.9864819429928
 21
88.38277843846428
 31
0.0
  0
LINE
  5
E81
330
D9A
100
AcDbEntity
  8
Dimension (ANSI)
440
 16777216
100
AcDbLine
 10
114.4047889493519
 20
88.38277843846428
 30
0.0
 11
116.2507420180557
 21
88.38277843846428
 31
0.0
  0
SOLID
  5
E82
330
D9A
100
AcDbEntity
  8
Dimension (ANSI)
440
 16777216
100
AcDbTrace
 10
111.1675842784458
 20
88.57962882770646
 30
0.0
 11
111.1675842784458
 21
88.18592804922211
 31
0.0
 12
112.3486866138989
 22
88.38277843846428
 32
0.0
 13
112.3486866138989
 23
88.38277843846428
 33
0.0
  0
SOLID
  5
E83
330
D9A
100
AcDbEntity
  8
Dimension (ANSI)
440
 16777216
100
AcDbTrace
 10
114.4047889493519
 20
88.57962882770646
 30
0.0
 11
114.4047889493519
 21
88.18592804922211
 31
0.0
 12
113.2236866138989
 22
88.38277843846428
 32
0.0
 13
113.2236866138989
 23
88.38277843846428
 33
0.0
  0
MTEXT
  5
E84
330
D9A
100
AcDbEntity
  8
Dimension (ANSI)
440
 16777216
100
AcDbMText
 10
116.6286947739612
 20
88.38277843846428
 30
0.0
 40
1.440000057220458
 41
0.0
 46
0.0
 71
     4
 72
     1
  1
\A1;0.88{\PTYP.}
  7
Note Text (ANSI)
 73
     1
 44
1.0
  0
POINT
  5
E85
330
D9A
100
AcDbEntity
  8
Defpoints
 62
     0
440
 16777216
100
AcDbPoint
 10
113.2236866138989
 20
88.38277843846428
 30
0.0
  0
POINT
  5
E86
330
D9A
100
AcDbEntity
  8
Defpoints
 62
     0
440
 16777216
100
AcDbPoint
 10
112.3486866138989
 20
88.40901025488808
 30
0.0
  0
POINT
  5
E87
330
D9A
100
AcDbEntity
  8
Defpoints
 62
     0
440
 16777216
100
AcDbPoint
 10
112.3486866138989
 20
88.38277843846428
 30
0.0
  0
ENDBLK
  5
D9C
330
D9A
100
AcDbEntity
  8
0
100
AcDbBlockEnd
  0
BLOCK
  5
E8D
330
E8C
100
AcDbEntity
  8
0
100
AcDbBlockBegin
  2
*D14
 70
     1
 10
0.0
 20
0.0
 30
0.0
  3
*D14
  1

  0
LINE
  5
F6B
330
E8C
100
AcDbEntity
  8
Dimension (ANSI)
440
 16777216
100
AcDbLine
 10
33.70127375955517
 20
93.06226342580652
 30
0.0
 11
33.70127375955517
 21
100.7949870946198
 31
0.0
  0
LINE
  5
F6C
330
E8C
100
AcDbEntity
  8
Dimension (ANSI)
440
 16777216
100
AcDbLine
 10
87.95127375955512
 20
93.06226342580652
 30
0.0
 11
87.95127375955512
 21
100.7949870946198
 31
0.0
  0
LINE
  5
F6D
330
E8C
100
AcDbEntity
  8
Dimension (ANSI)
440
 16777216
100
AcDbLine
 10
34.88237609500821
 20
99.29498709461984
 30
0.0
 11
58.09780379984767
 21
99.29498709461984
 31
0.0
  0
LINE
  5
F6E
330
E8C
100
AcDbEntity
  8
Dimension (ANSI)
440
 16777216
100
AcDbLine
 10
86.77017142410209
 20
99.29498709461984
 30
0.0
 11
63.55474371926267
 21
99.29498709461984
 31
0.0
  0
SOLID
  5
F6F
330
E8C
100
AcDbEntity
  8
Dimension (ANSI)
440
 16777216
100
AcDbTrace
 10
34.88237609500821
 20
99.49183748386202
 30
0.0
 11
34.88237609500821
 21
99.09813670537767
 31
0.0
 12
33.70127375955517
 22
99.29498709461984
 32
0.0
 13
33.70127375955517
 23
99.29498709461984
 33
0.0
  0
SOLID
  5
F70
330
E8C
100
AcDbEntity
  8
Dimension (ANSI)
440
 16777216
100
AcDbTrace
 10
86.77017142410209
 20
99.49183748386202
 30
0.0
 11
86.77017142410209
 21
99.09813670537767
 31
0.0
 12
87.95127375955512
 22
99.29498709461984
 32
0.0
 13
87.95127375955512
 23
99.29498709461984
 33
0.0
  0
MTEXT
  5
F71
330
E8C
100
AcDbEntity
  8
Dimension (ANSI)
440
 16777216
100
AcDbMText
 10
58.47575655575318
 20
100.0449669718255
 30
0.0
 40
1.440000057220458
 41
0.0
 46
0.0
 71
     1
 72
     1
  1
\A1;54.25
  7
Note Text (ANSI)
 73
     1
 44
1.0
  0
POINT
  5
F72
330
E8C
100
AcDbEntity
  8
Defpoints
 62
     0
440
 16777216
100
AcDbPoint
 10
33.70127375955517
 20
92.31226342580653
 30
0.0
  0
POINT
  5
F73
330
E8C
100
AcDbEntity
  8
Defpoints
 62
     0
440
 16777216
100
AcDbPoint
 10
87.95127375955512
 20
92.31226342580653
 30
0.0
  0
POINT
  5
F74
330
E8C
100
AcDbEntity
  8
Defpoints
 62
     0
440
 16777216
100
AcDbPoint
 10
87.95127375955512
 20
99.29498709461984
 30
0.0
  0
ENDBLK
  5
E8E
330
E8C
100
AcDbEntity
  8
0
100
AcDbBlockEnd
  0
ENDSEC
  0
SECTION
  2
ENTITIES
  0
CIRCLE
  5
11B
330
6C
100
AcDbEntity
  8
Visible (ANSI)
100
AcDbCircle
 10
60.82627375955521
 20
32.28076342580653
 30
0.0
 40
0.2814999999999999
  0
CIRCLE
  5
11C
330
6C
100
AcDbEntity
  8
Visible (ANSI)
100
AcDbCircle
 10
60.82627375955517
 20
90.5307634258065
 30
0.0
 40
0.2814999999999999
  0
CIRCLE
  5
11D
330
6C
100
AcDbEntity
  8
Visible (ANSI)
100
AcDbCircle
 10
87.95127375955516
 20
61.40576342580655
 30
0.0
 40
0.2814999999999999
  0
CIRCLE
  5
11E
330
6C
100
AcDbEntity
  8
Visible (ANSI)
100
AcDbCircle
 10
33.70127375955518
 20
61.40576342580654
 30
0.0
 40
0.2814999999999999
  0
CIRCLE
  5
11F
330
6C
100
AcDbEntity
  8
Visible (ANSI)
100
AcDbCircle
 10
87.95127375955512
 20
90.5307634258065
 30
0.0
 40
0.2814999999999999
  0
CIRCLE
  5
120
330
6C
100
AcDbEntity
  8
Visible (ANSI)
100
AcDbCircle
 10
33.70127375955517
 20
90.5307634258065
 30
0.0
 40
0.2814999999999999
  0
CIRCLE
  5
121
330
6C
100
AcDbEntity
  8
Visible (ANSI)
100
AcDbCircle
 10
33.70127375955517
 20
32.28076342580655
 30
0.0
 40
0.2814999999999999
  0
CIRCLE
  5
122
330
6C
100
AcDbEntity
  8
Visible (ANSI)
100
AcDbCircle
 10
87.95127375955512
 20
32.28076342580655
 30
0.0
 40
0.2814999999999999
  0
LINE
  5
123
330
6C
100
AcDbEntity
  8
Visible (ANSI)
100
AcDbLine
 10
88.82627375955511
 20
91.19237507815823
 30
0.0
 11
88.82627375955518
 21
31.61915177345487
 31
0.0
  0
LINE
  5
124
330
6C
100
AcDbEntity
  8
Visible (ANSI)
100
AcDbLine
 10
33.0396621072035
 20
91.40576342580649
 30
0.0
 11
88.61288541190685
 21
91.40576342580656
 31
0.0
  0
LINE
  5
125
330
6C
100
AcDbEntity
  8
Visible (ANSI)
100
AcDbLine
 10
32.82627375955519
 20
31.61915177345486
 30
0.0
 11
32.82627375955517
 21
91.19237507815823
 31
0.0
  0
LINE
  5
126
330
6C
100
AcDbEntity
  8
Visible (ANSI)
100
AcDbLine
 10
88.61288541190686
 20
31.40576342580655
 30
0.0
 11
33.0396621072035
 21
31.40576342580655
 31
0.0
  0
LINE
  5
127
330
6C
100
AcDbEntity
  8
Hidden (ANSI)
 48
1.091708540916442
100
AcDbLine
 10
88.70127375955519
 20
31.61915177345487
 30
0.0
 11
88.7012737595551
 21
91.19237507815823
 31
0.0
  0
LINE
  5
128
330
6C
100
AcDbEntity
  8
Hidden (ANSI)
 48
1.066902041435241
100
AcDbLine
 10
88.61288541190685
 20
91.28076342580657
 30
0.0
 11
33.0396621072035
 21
91.28076342580651
 31
0.0
  0
LINE
  5
129
330
6C
100
AcDbEntity
  8
Hidden (ANSI)
 48
1.091708540916442
100
AcDbLine
 10
32.95127375955517
 20
91.19237507815823
 30
0.0
 11
32.95127375955519
 21
31.61915177345487
 31
0.0
  0
LINE
  5
12A
330
6C
100
AcDbEntity
  8
Hidden (ANSI)
 48
1.066902041435241
100
AcDbLine
 10
33.0396621072035
 20
31.53076342580654
 30
0.0
 11
88.61288541190686
 21
31.53076342580654
 31
0.0
  0
POLYLINE
  5
12B
330
6C
100
AcDbEntity
  8
Visible (ANSI)
100
AcDb2dPolyline
 66
     1
 10
0.0
 20
0.0
 30
0.0
 70
   128
  0
VERTEX
  5
12C
330
12B
100
AcDbEntity
  8
Visible (ANSI)
100
AcDbVertex
100
AcDb2dVertex
 10
88.68567278914424
 20
91.26516389717094
 30
0.0
  0
VERTEX
  5
12D
330
12B
100
AcDbEntity
  8
Visible (ANSI)
100
AcDbVertex
100
AcDb2dVertex
 10
88.69487011436264
 20
91.26213016155027
 30
0.0
  0
VERTEX
  5
12F
330
12B
100
AcDbEntity
  8
Visible (ANSI)
100
AcDbVertex
100
AcDb2dVertex
 10
88.70402538780014
 20
91.25909642592956
 30
0.0
  0
VERTEX
  5
130
330
12B
100
AcDbEntity
  8
Visible (ANSI)
100
AcDbVertex
100
AcDb2dVertex
 10
88.71310256507312
 20
91.25606269030887
 30
0.0
  0
VERTEX
  5
131
330
12B
100
AcDbEntity
  8
Visible (ANSI)
100
AcDbVertex
100
AcDb2dVertex
 10
88.72206560179805
 20
91.25303496208543
 30
0.0
  0
VERTEX
  5
132
330
12B
100
AcDbEntity
  8
Visible (ANSI)
100
AcDbVertex
100
AcDb2dVertex
 10
88.7308664387967
 20
91.25000122646476
 30
0.0
  0
VERTEX
  5
133
330
12B
100
AcDbEntity
  8
Visible (ANSI)
100
AcDbVertex
100
AcDb2dVertex
 10
88.73948104648
 20
91.24696749084405
 30
0.0
  0
VERTEX
  5
134
330
12B
100
AcDbEntity
  8
Visible (ANSI)
100
AcDbVertex
100
AcDb2dVertex
 10
88.74786136566985
 20
91.24393375522336
 30
0.0
  0
VERTEX
  5
135
330
12B
100
AcDbEntity
  8
Visible (ANSI)
100
AcDbVertex
100
AcDb2dVertex
 10
88.7559713519826
 20
91.24090001960269
 30
0.0
  0
VERTEX
  5
136
330
12B
100
AcDbEntity
  8
Visible (ANSI)
100
AcDbVertex
100
AcDb2dVertex
 10
88.76378697582918
 20
91.23786628398198
 30
0.0
  0
VERTEX
  5
137
330
12B
100
AcDbEntity
  8
Visible (ANSI)
100
AcDbVertex
100
AcDb2dVertex
 10
88.77126618542872
 20
91.23483254836127
 30
0.0
  0
VERTEX
  5
138
330
12B
100
AcDbEntity
  8
Visible (ANSI)
100
AcDbVertex
100
AcDb2dVertex
 10
88.77837894379483
 20
91.23180482013784
 30
0.0
  0
VERTEX
  5
139
330
12B
100
AcDbEntity
  8
Visible (ANSI)
100
AcDbVertex
100
AcDb2dVertex
 10
88.78509521394125
 20
91.22877108451717
 30
0.0
  0
VERTEX
  5
13A
330
12B
100
AcDbEntity
  8
Visible (ANSI)
100
AcDbVertex
100
AcDb2dVertex
 10
88.79138495888158
 20
91.22573734889646
 30
0.0
  0
VERTEX
  5
13B
330
12B
100
AcDbEntity
  8
Visible (ANSI)
100
AcDbVertex
100
AcDb2dVertex
 10
88.7972181416295
 20
91.22270361327577
 30
0.0
  0
VERTEX
  5
13C
330
12B
100
AcDbEntity
  8
Visible (ANSI)
100
AcDbVertex
100
AcDb2dVertex
 10
88.80257673999317
 20
91.21966987765508
 30
0.0
  0
VERTEX
  5
13D
330
12B
100
AcDbEntity
  8
Visible (ANSI)
100
AcDbVertex
100
AcDb2dVertex
 10
88.80743672438354
 20
91.21663614203439
 30
0.0
  0
VERTEX
  5
13E
330
12B
100
AcDbEntity
  8
Visible (ANSI)
100
AcDbVertex
100
AcDb2dVertex
 10
88.81177406521155
 20
91.21360240641369
 30
0.0
  0
VERTEX
  5
13F
330
12B
100
AcDbEntity
  8
Visible (ANSI)
100
AcDbVertex
100
AcDb2dVertex
 10
88.81557074028537
 20
91.21057467819026
 30
0.0
  0
VERTEX
  5
140
330
12B
100
AcDbEntity
  8
Visible (ANSI)
100
AcDbVertex
100
AcDb2dVertex
 10
88.81881473481048
 20
91.20754094256959
 30
0.0
  0
VERTEX
  5
141
330
12B
100
AcDbEntity
  8
Visible (ANSI)
100
AcDbVertex
100
AcDb2dVertex
 10
88.82148201919777
 20
91.20450720694888
 30
0.0
  0
VERTEX
  5
142
330
12B
100
AcDbEntity
  8
Visible (ANSI)
100
AcDbVertex
100
AcDb2dVertex
 10
88.82357259344727
 20
91.20147347132819
 30
0.0
  0
VERTEX
  5
143
330
12B
100
AcDbEntity
  8
Visible (ANSI)
100
AcDbVertex
100
AcDb2dVertex
 10
88.82506843536718
 20
91.1984397357075
 30
0.0
  0
VERTEX
  5
144
330
12B
100
AcDbEntity
  8
Visible (ANSI)
100
AcDbVertex
100
AcDb2dVertex
 10
88.82597555235475
 20
91.19540600008681
 30
0.0
  0
VERTEX
  5
145
330
12B
100
AcDbEntity
  8
Visible (ANSI)
100
AcDbVertex
100
AcDb2dVertex
 10
88.82627592221821
 20
91.1923722644661
 30
0.0
  0
SEQEND
  5
12E
330
12B
100
AcDbEntity
  8
Visible (ANSI)
  0
POLYLINE
  5
146
330
6C
100
AcDbEntity
  8
Visible (ANSI)
100
AcDb2dPolyline
 66
     1
 10
0.0
 20
0.0
 30
0.0
 70
   128
  0
VERTEX
  5
147
330
146
100
AcDbEntity
  8
Visible (ANSI)
100
AcDbVertex
100
AcDb2dVertex
 10
88.82627592221821
 20
31.61915176179295
 30
0.0
  0
VERTEX
  5
148
330
146
100
AcDbEntity
  8
Visible (ANSI)
100
AcDbVertex
100
AcDb2dVertex
 10
88.82597555235475
 20
31.61611891789529
 30
0.0
  0
VERTEX
  5
14A
330
146
100
AcDbEntity
  8
Visible (ANSI)
100
AcDbVertex
100
AcDb2dVertex
 10
88.82506843536718
 20
31.61308607399762
 30
0.0
  0
VERTEX
  5
14B
330
146
100
AcDbEntity
  8
Visible (ANSI)
100
AcDbVertex
100
AcDb2dVertex
 10
88.82357259344727
 20
31.61005323009996
 30
0.0
  0
VERTEX
  5
14C
330
146
100
AcDbEntity
  8
Visible (ANSI)
100
AcDbVertex
100
AcDb2dVertex
 10
88.82148201919777
 20
31.6070203862023
 30
0.0
  0
VERTEX
  5
14D
330
146
100
AcDbEntity
  8
Visible (ANSI)
100
AcDbVertex
100
AcDb2dVertex
 10
88.81881473481048
 20
31.60398754230464
 30
0.0
  0
VERTEX
  5
14E
330
146
100
AcDbEntity
  8
Visible (ANSI)
100
AcDbVertex
100
AcDb2dVertex
 10
88.81557074028537
 20
31.60095468667378
 30
0.0
  0
VERTEX
  5
14F
330
146
100
AcDbEntity
  8
Visible (ANSI)
100
AcDbVertex
100
AcDb2dVertex
 10
88.81177406521155
 20
31.59792184277611
 30
0.0
  0
VERTEX
  5
150
330
146
100
AcDbEntity
  8
Visible (ANSI)
100
AcDbVertex
100
AcDb2dVertex
 10
88.80743672438354
 20
31.59488898714526
 30
0.0
  0
VERTEX
  5
151
330
146
100
AcDbEntity
  8
Visible (ANSI)
100
AcDbVertex
100
AcDb2dVertex
 10
88.80257673999317
 20
31.59185614324759
 30
0.0
  0
VERTEX
  5
152
330
146
100
AcDbEntity
  8
Visible (ANSI)
100
AcDbVertex
100
AcDb2dVertex
 10
88.7972181416295
 20
31.58882329934993
 30
0.0
  0
VERTEX
  5
153
330
146
100
AcDbEntity
  8
Visible (ANSI)
100
AcDbVertex
100
AcDb2dVertex
 10
88.79138495888158
 20
31.58579044371907
 30
0.0
  0
VERTEX
  5
154
330
146
100
AcDbEntity
  8
Visible (ANSI)
100
AcDbVertex
100
AcDb2dVertex
 10
88.78509521394125
 20
31.58275759982141
 30
0.0
  0
VERTEX
  5
155
330
146
100
AcDbEntity
  8
Visible (ANSI)
100
AcDbVertex
100
AcDb2dVertex
 10
88.77837894379483
 20
31.57972475592375
 30
0.0
  0
VERTEX
  5
156
330
146
100
AcDbEntity
  8
Visible (ANSI)
100
AcDbVertex
100
AcDb2dVertex
 10
88.77126618542872
 20
31.57669190029289
 30
0.0
  0
VERTEX
  5
157
330
146
100
AcDbEntity
  8
Visible (ANSI)
100
AcDbVertex
100
AcDb2dVertex
 10
88.76378697582918
 20
31.57365905639523
 30
0.0
  0
VERTEX
  5
158
330
146
100
AcDbEntity
  8
Visible (ANSI)
100
AcDbVertex
100
AcDb2dVertex
 10
88.7559713519826
 20
31.57062621249757
 30
0.0
  0
VERTEX
  5
159
330
146
100
AcDbEntity
  8
Visible (ANSI)
100
AcDbVertex
100
AcDb2dVertex
 10
88.74786136566985
 20
31.5675933568667
 30
0.0
  0
VERTEX
  5
15A
330
146
100
AcDbEntity
  8
Visible (ANSI)
100
AcDbVertex
100
AcDb2dVertex
 10
88.73948104648
 20
31.56456051296905
 30
0.0
  0
VERTEX
  5
15B
330
146
100
AcDbEntity
  8
Visible (ANSI)
100
AcDbVertex
100
AcDb2dVertex
 10
88.7308664387967
 20
31.56152766907138
 30
0.0
  0
VERTEX
  5
15C
330
146
100
AcDbEntity
  8
Visible (ANSI)
100
AcDbVertex
100
AcDb2dVertex
 10
88.72206560179805
 20
31.55849481344052
 30
0.0
  0
VERTEX
  5
15D
330
146
100
AcDbEntity
  8
Visible (ANSI)
100
AcDbVertex
100
AcDb2dVertex
 10
88.71310256507312
 20
31.55546196954286
 30
0.0
  0
VERTEX
  5
15E
330
146
100
AcDbEntity
  8
Visible (ANSI)
100
AcDbVertex
100
AcDb2dVertex
 10
88.70402538780014
 20
31.5524291256452
 30
0.0
  0
VERTEX
  5
15F
330
146
100
AcDbEntity
  8
Visible (ANSI)
100
AcDbVertex
100
AcDb2dVertex
 10
88.69487011436264
 20
31.54939627001434
 30
0.0
  0
VERTEX
  5
160
330
146
100
AcDbEntity
  8
Visible (ANSI)
100
AcDbVertex
100
AcDb2dVertex
 10
88.68567278914424
 20
31.54636342611668
 30
0.0
  0
SEQEND
  5
149
330
146
100
AcDbEntity
  8
Visible (ANSI)
  0
POLYLINE
  5
161
330
6C
100
AcDbEntity
  8
Visible (ANSI)
100
AcDb2dPolyline
 66
     1
 10
0.0
 20
0.0
 30
0.0
 70
   128
  0
VERTEX
  5
162
330
161
100
AcDbEntity
  8
Visible (ANSI)
100
AcDbVertex
100
AcDb2dVertex
 10
32.96687375986532
 20
91.26516389717094
 30
0.0
  0
VERTEX
  5
163
330
161
100
AcDbEntity
  8
Visible (ANSI)
100
AcDbVertex
100
AcDb2dVertex
 10
32.96990660376298
 20
91.27436122238933
 30
0.0
  0
VERTEX
  5
165
330
161
100
AcDbEntity
  8
Visible (ANSI)
100
AcDbVertex
100
AcDb2dVertex
 10
32.97293945939384
 20
91.28351649582683
 30
0.0
  0
VERTEX
  5
166
330
161
100
AcDbEntity
  8
Visible (ANSI)
100
AcDbVertex
100
AcDb2dVertex
 10
32.9759723032915
 20
91.29259367309982
 30
0.0
  0
VERTEX
  5
167
330
161
100
AcDbEntity
  8
Visible (ANSI)
100
AcDbVertex
100
AcDb2dVertex
 10
32.97900514718917
 20
91.30155070242746
 30
0.0
  0
VERTEX
  5
168
330
161
100
AcDbEntity
  8
Visible (ANSI)
100
AcDbVertex
100
AcDb2dVertex
 10
32.98203800282003
 20
91.3103575468234
 30
0.0
  0
VERTEX
  5
169
330
161
100
AcDbEntity
  8
Visible (ANSI)
100
AcDbVertex
100
AcDb2dVertex
 10
32.98507084671769
 20
91.31896614710944
 30
0.0
  0
VERTEX
  5
16A
330
161
100
AcDbEntity
  8
Visible (ANSI)
100
AcDbVertex
100
AcDb2dVertex
 10
32.98810369061536
 20
91.32734646629927
 30
0.0
  0
VERTEX
  5
16B
330
161
100
AcDbEntity
  8
Visible (ANSI)
100
AcDbVertex
100
AcDb2dVertex
 10
32.99113654624621
 20
91.3354624600093
 30
0.0
  0
VERTEX
  5
16C
330
161
100
AcDbEntity
  8
Visible (ANSI)
100
AcDbVertex
100
AcDb2dVertex
 10
32.99416939014387
 20
91.34327808385588
 30
0.0
  0
VERTEX
  5
16D
330
161
100
AcDbEntity
  8
Visible (ANSI)
100
AcDbVertex
100
AcDb2dVertex
 10
32.99720223404153
 20
91.3507572934554
 30
0.0
  0
VERTEX
  5
16E
330
161
100
AcDbEntity
  8
Visible (ANSI)
100
AcDbVertex
100
AcDb2dVertex
 10
33.00023508967239
 20
91.35787005182153
 30
0.0
  0
VERTEX
  5
16F
330
161
100
AcDbEntity
  8
Visible (ANSI)
100
AcDbVertex
100
AcDb2dVertex
 10
33.00326793357005
 20
91.36458031457069
 30
0.0
  0
VERTEX
  5
170
330
161
100
AcDbEntity
  8
Visible (ANSI)
100
AcDbVertex
100
AcDb2dVertex
 10
33.00630077746772
 20
91.37087005951102
 30
0.0
  0
VERTEX
  5
171
330
161
100
AcDbEntity
  8
Visible (ANSI)
100
AcDbVertex
100
AcDb2dVertex
 10
33.00933363309857
 20
91.37670924965618
 30
0.0
  0
VERTEX
  5
172
330
161
100
AcDbEntity
  8
Visible (ANSI)
100
AcDbVertex
100
AcDb2dVertex
 10
33.01236647699623
 20
91.38206784801989
 30
0.0
  0
VERTEX
  5
173
330
161
100
AcDbEntity
  8
Visible (ANSI)
100
AcDbVertex
100
AcDb2dVertex
 10
33.0153993208939
 20
91.38692783241024
 30
0.0
  0
VERTEX
  5
174
330
161
100
AcDbEntity
  8
Visible (ANSI)
100
AcDbVertex
100
AcDb2dVertex
 10
33.01843217652476
 20
91.39126517323823
 30
0.0
  0
VERTEX
  5
175
330
161
100
AcDbEntity
  8
Visible (ANSI)
100
AcDbVertex
100
AcDb2dVertex
 10
33.02146502042242
 20
91.39506184831208
 30
0.0
  0
VERTEX
  5
176
330
161
100
AcDbEntity
  8
Visible (ANSI)
100
AcDbVertex
100
AcDb2dVertex
 10
33.02449787605328
 20
91.3982998354399
 30
0.0
  0
VERTEX
  5
177
330
161
100
AcDbEntity
  8
Visible (ANSI)
100
AcDbVertex
100
AcDb2dVertex
 10
33.02753071995095
 20
91.40097312722449
 30
0.0
  0
VERTEX
  5
178
330
161
100
AcDbEntity
  8
Visible (ANSI)
100
AcDbVertex
100
AcDb2dVertex
 10
33.0305635638486
 20
91.40306370147399
 30
0.0
  0
VERTEX
  5
179
330
161
100
AcDbEntity
  8
Visible (ANSI)
100
AcDbVertex
100
AcDb2dVertex
 10
33.03359640774627
 20
91.4045595433939
 30
0.0
  0
VERTEX
  5
17A
330
161
100
AcDbEntity
  8
Visible (ANSI)
100
AcDbVertex
100
AcDb2dVertex
 10
33.03662925164393
 20
91.40546065298421
 30
0.0
  0
VERTEX
  5
17B
330
161
100
AcDbEntity
  8
Visible (ANSI)
100
AcDbVertex
100
AcDb2dVertex
 10
33.03966209554159
 20
91.40576102284763
 30
0.0
  0
SEQEND
  5
164
330
161
100
AcDbEntity
  8
Visible (ANSI)
  0
POLYLINE
  5
17C
330
6C
100
AcDbEntity
  8
Visible (ANSI)
100
AcDb2dPolyline
 66
     1
 10
0.0
 20
0.0
 30
0.0
 70
   128
  0
VERTEX
  5
17D
330
17C
100
AcDbEntity
  8
Visible (ANSI)
100
AcDbVertex
100
AcDb2dVertex
 10
88.61288716383667
 20
91.40576102284763
 30
0.0
  0
VERTEX
  5
17E
330
17C
100
AcDbEntity
  8
Visible (ANSI)
100
AcDbVertex
100
AcDb2dVertex
 10
88.61592089945736
 20
91.40546065298421
 30
0.0
  0
VERTEX
  5
180
330
17C
100
AcDbEntity
  8
Visible (ANSI)
100
AcDbVertex
100
AcDb2dVertex
 10
88.6189486276808
 20
91.4045595433939
 30
0.0
  0
VERTEX
  5
181
330
17C
100
AcDbEntity
  8
Visible (ANSI)
100
AcDbVertex
100
AcDb2dVertex
 10
88.62198236330149
 20
91.40306370147399
 30
0.0
  0
VERTEX
  5
182
330
17C
100
AcDbEntity
  8
Visible (ANSI)
100
AcDbVertex
100
AcDb2dVertex
 10
88.62501609892218
 20
91.40097312722449
 30
0.0
  0
VERTEX
  5
183
330
17C
100
AcDbEntity
  8
Visible (ANSI)
100
AcDbVertex
100
AcDb2dVertex
 10
88.62804983454287
 20
91.3982998354399
 30
0.0
  0
VERTEX
  5
184
330
17C
100
AcDbEntity
  8
Visible (ANSI)
100
AcDbVertex
100
AcDb2dVertex
 10
88.63108357016356
 20
91.39506184831208
 30
0.0
  0
VERTEX
  5
185
330
17C
100
AcDbEntity
  8
Visible (ANSI)
100
AcDbVertex
100
AcDb2dVertex
 10
88.63411730578427
 20
91.39126517323823
 30
0.0
  0
VERTEX
  5
186
330
17C
100
AcDbEntity
  8
Visible (ANSI)
100
AcDbVertex
100
AcDb2dVertex
 10
88.63715104140496
 20
91.38692783241024
 30
0.0
  0
VERTEX
  5
187
330
17C
100
AcDbEntity
  8
Visible (ANSI)
100
AcDbVertex
100
AcDb2dVertex
 10
88.64017876962838
 20
91.38206784801989
 30
0.0
  0
VERTEX
  5
188
330
17C
100
AcDbEntity
  8
Visible (ANSI)
100
AcDbVertex
100
AcDb2dVertex
 10
88.64321250524907
 20
91.37670924965618
 30
0.0
  0
VERTEX
  5
189
330
17C
100
AcDbEntity
  8
Visible (ANSI)
100
AcDbVertex
100
AcDb2dVertex
 10
88.64624624086976
 20
91.37087005951102
 30
0.0
  0
VERTEX
  5
18A
330
17C
100
AcDbEntity
  8
Visible (ANSI)
100
AcDbVertex
100
AcDb2dVertex
 10
88.64927997649045
 20
91.36458031457069
 30
0.0
  0
VERTEX
  5
18B
330
17C
100
AcDbEntity
  8
Visible (ANSI)
100
AcDbVertex
100
AcDb2dVertex
 10
88.65231371211114
 20
91.35787005182153
 30
0.0
  0
VERTEX
  5
18C
330
17C
100
AcDbEntity
  8
Visible (ANSI)
100
AcDbVertex
100
AcDb2dVertex
 10
88.65534744773185
 20
91.3507572934554
 30
0.0
  0
VERTEX
  5
18D
330
17C
100
AcDbEntity
  8
Visible (ANSI)
100
AcDbVertex
100
AcDb2dVertex
 10
88.65837517595528
 20
91.34327808385588
 30
0.0
  0
VERTEX
  5
18E
330
17C
100
AcDbEntity
  8
Visible (ANSI)
100
AcDbVertex
100
AcDb2dVertex
 10
88.66140891157597
 20
91.3354624600093
 30
0.0
  0
VERTEX
  5
18F
330
17C
100
AcDbEntity
  8
Visible (ANSI)
100
AcDbVertex
100
AcDb2dVertex
 10
88.66444264719666
 20
91.32734646629927
 30
0.0
  0
VERTEX
  5
190
330
17C
100
AcDbEntity
  8
Visible (ANSI)
100
AcDbVertex
100
AcDb2dVertex
 10
88.66747638281736
 20
91.31896614710944
 30
0.0
  0
VERTEX
  5
191
330
17C
100
AcDbEntity
  8
Visible (ANSI)
100
AcDbVertex
100
AcDb2dVertex
 10
88.67051011843805
 20
91.3103575468234
 30
0.0
  0
VERTEX
  5
192
330
17C
100
AcDbEntity
  8
Visible (ANSI)
100
AcDbVertex
100
AcDb2dVertex
 10
88.67354385405873
 20
91.30155070242746
 30
0.0
  0
VERTEX
  5
193
330
17C
100
AcDbEntity
  8
Visible (ANSI)
100
AcDbVertex
100
AcDb2dVertex
 10
88.67657758967943
 20
91.29259367309982
 30
0.0
  0
VERTEX
  5
194
330
17C
100
AcDbEntity
  8
Visible (ANSI)
100
AcDbVertex
100
AcDb2dVertex
 10
88.67960531790286
 20
91.28351649582683
 30
0.0
  0
VERTEX
  5
195
330
17C
100
AcDbEntity
  8
Visible (ANSI)
100
AcDbVertex
100
AcDb2dVertex
 10
88.68263905352355
 20
91.27436122238933
 30
0.0
  0
VERTEX
  5
196
330
17C
100
AcDbEntity
  8
Visible (ANSI)
100
AcDbVertex
100
AcDb2dVertex
 10
88.68567278914424
 20
91.26516389717094
 30
0.0
  0
SEQEND
  5
17F
330
17C
100
AcDbEntity
  8
Visible (ANSI)
  0
POLYLINE
  5
197
330
6C
100
AcDbEntity
  8
Visible (ANSI)
100
AcDb2dPolyline
 66
     1
 10
0.0
 20
0.0
 30
0.0
 70
   128
  0
VERTEX
  5
198
330
197
100
AcDbEntity
  8
Visible (ANSI)
100
AcDbVertex
100
AcDb2dVertex
 10
32.96687375986532
 20
31.54636342611668
 30
0.0
  0
VERTEX
  5
199
330
197
100
AcDbEntity
  8
Visible (ANSI)
100
AcDbVertex
100
AcDb2dVertex
 10
32.95767807729463
 20
31.54939627001434
 30
0.0
  0
VERTEX
  5
19B
330
197
100
AcDbEntity
  8
Visible (ANSI)
100
AcDbVertex
100
AcDb2dVertex
 10
32.94852177133573
 20
31.5524291256452
 30
0.0
  0
VERTEX
  5
19C
330
197
100
AcDbEntity
  8
Visible (ANSI)
100
AcDbVertex
100
AcDb2dVertex
 10
32.93944406606882
 20
31.55546196954286
 30
0.0
  0
VERTEX
  5
19D
330
197
100
AcDbEntity
  8
Visible (ANSI)
100
AcDbVertex
100
AcDb2dVertex
 10
32.9304837983786
 20
31.55849481344052
 30
0.0
  0
VERTEX
  5
19E
330
197
100
AcDbEntity
  8
Visible (ANSI)
100
AcDbVertex
100
AcDb2dVertex
 10
32.92167937102143
 20
31.56152766907138
 30
0.0
  0
VERTEX
  5
19F
330
197
100
AcDbEntity
  8
Visible (ANSI)
100
AcDbVertex
100
AcDb2dVertex
 10
32.91306847102861
 20
31.56456051296905
 30
0.0
  0
VERTEX
  5
1A0
330
197
100
AcDbEntity
  8
Visible (ANSI)
100
AcDbVertex
100
AcDb2dVertex
 10
32.90468796997421
 20
31.5675933568667
 30
0.0
  0
VERTEX
  5
1A1
330
197
100
AcDbEntity
  8
Visible (ANSI)
100
AcDbVertex
100
AcDb2dVertex
 10
32.89657375971025
 20
31.57062621249757
 30
0.0
  0
VERTEX
  5
1A2
330
197
100
AcDbEntity
  8
Visible (ANSI)
100
AcDbVertex
100
AcDb2dVertex
 10
32.88876058223542
 20
31.57365905639523
 30
0.0
  0
VERTEX
  5
1A3
330
197
100
AcDbEntity
  8
Visible (ANSI)
100
AcDbVertex
100
AcDb2dVertex
 10
32.88128190062979
 20
31.57669190029289
 30
0.0
  0
VERTEX
  5
1A4
330
197
100
AcDbEntity
  8
Visible (ANSI)
100
AcDbVertex
100
AcDb2dVertex
 10
32.87416973772343
 20
31.57972475592375
 30
0.0
  0
VERTEX
  5
1A5
330
197
100
AcDbEntity
  8
Visible (ANSI)
100
AcDbVertex
100
AcDb2dVertex
 10
32.86745454703122
 20
31.58275759982141
 30
0.0
  0
VERTEX
  5
1A6
330
197
100
AcDbEntity
  8
Visible (ANSI)
100
AcDbVertex
100
AcDb2dVertex
 10
32.86116508368764
 20
31.58579044371907
 30
0.0
  0
VERTEX
  5
1A7
330
197
100
AcDbEntity
  8
Visible (ANSI)
100
AcDbVertex
100
AcDb2dVertex
 10
32.85532828124821
 20
31.58882329934993
 30
0.0
  0
VERTEX
  5
1A8
330
197
100
AcDbEntity
  8
Visible (ANSI)
100
AcDbVertex
100
AcDb2dVertex
 10
32.84996913142423
 20
31.59185614324759
 30
0.0
  0
VERTEX
  5
1A9
330
197
100
AcDbEntity
  8
Visible (ANSI)
100
AcDbVertex
100
AcDb2dVertex
 10
32.84511058728388
 20
31.59488898714526
 30
0.0
  0
VERTEX
  5
1AA
330
197
100
AcDbEntity
  8
Visible (ANSI)
100
AcDbVertex
100
AcDb2dVertex
 10
32.84077345178685
 20
31.59792184277611
 30
0.0
  0
VERTEX
  5
1AB
330
197
100
AcDbEntity
  8
Visible (ANSI)
100
AcDbVertex
100
AcDb2dVertex
 10
32.83697629711856
 20
31.60095468667378
 30
0.0
  0
VERTEX
  5
1AC
330
197
100
AcDbEntity
  8
Visible (ANSI)
100
AcDbVertex
100
AcDb2dVertex
 10
32.83373538329121
 20
31.60398754230464
 30
0.0
  0
VERTEX
  5
1AD
330
197
100
AcDbEntity
  8
Visible (ANSI)
100
AcDbVertex
100
AcDb2dVertex
 10
32.83106458847779
 20
31.6070203862023
 30
0.0
  0
VERTEX
  5
1AE
330
197
100
AcDbEntity
  8
Visible (ANSI)
100
AcDbVertex
100
AcDb2dVertex
 10
32.82897534906286
 20
31.61005323009996
 30
0.0
  0
VERTEX
  5
1AF
330
197
100
AcDbEntity
  8
Visible (ANSI)
100
AcDbVertex
100
AcDb2dVertex
 10
32.82747661206807
 20
31.61308607399762
 30
0.0
  0
VERTEX
  5
1B0
330
197
100
AcDbEntity
  8
Visible (ANSI)
100
AcDbVertex
100
AcDb2dVertex
 10
32.82657479495677
 20
31.61611891789529
 30
0.0
  0
VERTEX
  5
1B1
330
197
100
AcDbEntity
  8
Visible (ANSI)
100
AcDbVertex
100
AcDb2dVertex
 10
32.82627375955519
 20
31.61915176179295
 30
0.0
  0
SEQEND
  5
19A
330
197
100
AcDbEntity
  8
Visible (ANSI)
  0
POLYLINE
  5
1B2
330
6C
100
AcDbEntity
  8
Visible (ANSI)
100
AcDb2dPolyline
 66
     1
 10
0.0
 20
0.0
 30
0.0
 70
   128
  0
VERTEX
  5
1B3
330
1B2
100
AcDbEntity
  8
Visible (ANSI)
100
AcDbVertex
100
AcDb2dVertex
 10
32.82627375955517
 20
91.1923722644661
 30
0.0
  0
VERTEX
  5
1B4
330
1B2
100
AcDbEntity
  8
Visible (ANSI)
100
AcDbVertex
100
AcDb2dVertex
 10
32.82657479495677
 20
91.19540600008681
 30
0.0
  0
VERTEX
  5
1B6
330
1B2
100
AcDbEntity
  8
Visible (ANSI)
100
AcDbVertex
100
AcDb2dVertex
 10
32.82747661206807
 20
91.1984397357075
 30
0.0
  0
VERTEX
  5
1B7
330
1B2
100
AcDbEntity
  8
Visible (ANSI)
100
AcDbVertex
100
AcDb2dVertex
 10
32.82897534906286
 20
91.20147347132819
 30
0.0
  0
VERTEX
  5
1B8
330
1B2
100
AcDbEntity
  8
Visible (ANSI)
100
AcDbVertex
100
AcDb2dVertex
 10
32.83106458847779
 20
91.20450720694888
 30
0.0
  0
VERTEX
  5
1B9
330
1B2
100
AcDbEntity
  8
Visible (ANSI)
100
AcDbVertex
100
AcDb2dVertex
 10
32.83373538329121
 20
91.20754094256959
 30
0.0
  0
VERTEX
  5
1BA
330
1B2
100
AcDbEntity
  8
Visible (ANSI)
100
AcDbVertex
100
AcDb2dVertex
 10
32.83697629711856
 20
91.21057467819026
 30
0.0
  0
VERTEX
  5
1BB
330
1B2
100
AcDbEntity
  8
Visible (ANSI)
100
AcDbVertex
100
AcDb2dVertex
 10
32.84077345178685
 20
91.21360240641369
 30
0.0
  0
VERTEX
  5
1BC
330
1B2
100
AcDbEntity
  8
Visible (ANSI)
100
AcDbVertex
100
AcDb2dVertex
 10
32.84511058728388
 20
91.21663614203439
 30
0.0
  0
VERTEX
  5
1BD
330
1B2
100
AcDbEntity
  8
Visible (ANSI)
100
AcDbVertex
100
AcDb2dVertex
 10
32.84996913142423
 20
91.21966987765508
 30
0.0
  0
VERTEX
  5
1BE
330
1B2
100
AcDbEntity
  8
Visible (ANSI)
100
AcDbVertex
100
AcDb2dVertex
 10
32.85532828124821
 20
91.22270361327577
 30
0.0
  0
VERTEX
  5
1BF
330
1B2
100
AcDbEntity
  8
Visible (ANSI)
100
AcDbVertex
100
AcDb2dVertex
 10
32.86116508368764
 20
91.22573734889646
 30
0.0
  0
VERTEX
  5
1C0
330
1B2
100
AcDbEntity
  8
Visible (ANSI)
100
AcDbVertex
100
AcDb2dVertex
 10
32.86745454703122
 20
91.22877108451717
 30
0.0
  0
VERTEX
  5
1C1
330
1B2
100
AcDbEntity
  8
Visible (ANSI)
100
AcDbVertex
100
AcDb2dVertex
 10
32.87416973772343
 20
91.23180482013784
 30
0.0
  0
VERTEX
  5
1C2
330
1B2
100
AcDbEntity
  8
Visible (ANSI)
100
AcDbVertex
100
AcDb2dVertex
 10
32.88128190062979
 20
91.23483254836127
 30
0.0
  0
VERTEX
  5
1C3
330
1B2
100
AcDbEntity
  8
Visible (ANSI)
100
AcDbVertex
100
AcDb2dVertex
 10
32.88876058223542
 20
91.23786628398198
 30
0.0
  0
VERTEX
  5
1C4
330
1B2
100
AcDbEntity
  8
Visible (ANSI)
100
AcDbVertex
100
AcDb2dVertex
 10
32.89657375971025
 20
91.24090001960269
 30
0.0
  0
VERTEX
  5
1C5
330
1B2
100
AcDbEntity
  8
Visible (ANSI)
100
AcDbVertex
100
AcDb2dVertex
 10
32.90468796997421
 20
91.24393375522336
 30
0.0
  0
VERTEX
  5
1C6
330
1B2
100
AcDbEntity
  8
Visible (ANSI)
100
AcDbVertex
100
AcDb2dVertex
 10
32.91306847102861
 20
91.24696749084405
 30
0.0
  0
VERTEX
  5
1C7
330
1B2
100
AcDbEntity
  8
Visible (ANSI)
100
AcDbVertex
100
AcDb2dVertex
 10
32.92167937102143
 20
91.25000122646476
 30
0.0
  0
VERTEX
  5
1C8
330
1B2
100
AcDbEntity
  8
Visible (ANSI)
100
AcDbVertex
100
AcDb2dVertex
 10
32.9304837983786
 20
91.25303496208543
 30
0.0
  0
VERTEX
  5
1C9
330
1B2
100
AcDbEntity
  8
Visible (ANSI)
100
AcDbVertex
100
AcDb2dVertex
 10
32.93944406606882
 20
91.25606269030887
 30
0.0
  0
VERTEX
  5
1CA
330
1B2
100
AcDbEntity
  8
Visible (ANSI)
100
AcDbVertex
100
AcDb2dVertex
 10
32.94852177133573
 20
91.25909642592956
 30
0.0
  0
VERTEX
  5
1CB
330
1B2
100
AcDbEntity
  8
Visible (ANSI)
100
AcDbVertex
100
AcDb2dVertex
 10
32.95767807729463
 20
91.26213016155027
 30
0.0
  0
VERTEX
  5
1CC
330
1B2
100
AcDbEntity
  8
Visible (ANSI)
100
AcDbVertex
100
AcDb2dVertex
 10
32.96687375986532
 20
91.26516389717094
 30
0.0
  0
SEQEND
  5
1B5
330
1B2
100
AcDbEntity
  8
Visible (ANSI)
  0
POLYLINE
  5
1CD
330
6C
100
AcDbEntity
  8
Visible (ANSI)
100
AcDb2dPolyline
 66
     1
 10
0.0
 20
0.0
 30
0.0
 70
   128
  0
VERTEX
  5
1CE
330
1CD
100
AcDbEntity
  8
Visible (ANSI)
100
AcDbVertex
100
AcDb2dVertex
 10
88.68567278914424
 20
31.54636342611668
 30
0.0
  0
VERTEX
  5
1CF
330
1CD
100
AcDbEntity
  8
Visible (ANSI)
100
AcDbVertex
100
AcDb2dVertex
 10
88.68263905352355
 20
31.53716774354599
 30
0.0
  0
VERTEX
  5
1D1
330
1CD
100
AcDbEntity
  8
Visible (ANSI)
100
AcDbVertex
100
AcDb2dVertex
 10
88.67960531790286
 20
31.52801143758708
 30
0.0
  0
VERTEX
  5
1D2
330
1CD
100
AcDbEntity
  8
Visible (ANSI)
100
AcDbVertex
100
AcDb2dVertex
 10
88.67657758967943
 20
31.51893373232017
 30
0.0
  0
VERTEX
  5
1D3
330
1CD
100
AcDbEntity
  8
Visible (ANSI)
100
AcDbVertex
100
AcDb2dVertex
 10
88.67354385405873
 20
31.50997346462995
 30
0.0
  0
VERTEX
  5
1D4
330
1CD
100
AcDbEntity
  8
Visible (ANSI)
100
AcDbVertex
100
AcDb2dVertex
 10
88.67051011843805
 20
31.50116903727278
 30
0.0
  0
VERTEX
  5
1D5
330
1CD
100
AcDbEntity
  8
Visible (ANSI)
100
AcDbVertex
100
AcDb2dVertex
 10
88.66747638281736
 20
31.49255813727997
 30
0.0
  0
VERTEX
  5
1D6
330
1CD
100
AcDbEntity
  8
Visible (ANSI)
100
AcDbVertex
100
AcDb2dVertex
 10
88.66444264719666
 20
31.48417763622556
 30
0.0
  0
VERTEX
  5
1D7
330
1CD
100
AcDbEntity
  8
Visible (ANSI)
100
AcDbVertex
100
AcDb2dVertex
 10
88.66140891157597
 20
31.47606342596161
 30
0.0
  0
VERTEX
  5
1D8
330
1CD
100
AcDbEntity
  8
Visible (ANSI)
100
AcDbVertex
100
AcDb2dVertex
 10
88.65837517595528
 20
31.46825024848677
 30
0.0
  0
VERTEX
  5
1D9
330
1CD
100
AcDbEntity
  8
Visible (ANSI)
100
AcDbVertex
100
AcDb2dVertex
 10
88.65534744773185
 20
31.46077156688114
 30
0.0
  0
VERTEX
  5
1DA
330
1CD
100
AcDbEntity
  8
Visible (ANSI)
100
AcDbVertex
100
AcDb2dVertex
 10
88.65231371211114
 20
31.45365940397478
 30
0.0
  0
VERTEX
  5
1DB
330
1CD
100
AcDbEntity
  8
Visible (ANSI)
100
AcDbVertex
100
AcDb2dVertex
 10
88.64927997649045
 20
31.44694421328257
 30
0.0
  0
VERTEX
  5
1DC
330
1CD
100
AcDbEntity
  8
Visible (ANSI)
100
AcDbVertex
100
AcDb2dVertex
 10
88.64624624086976
 20
31.440654749939
 30
0.0
  0
VERTEX
  5
1DD
330
1CD
100
AcDbEntity
  8
Visible (ANSI)
100
AcDbVertex
100
AcDb2dVertex
 10
88.64321250524907
 20
31.43481794749957
 30
0.0
  0
VERTEX
  5
1DE
330
1CD
100
AcDbEntity
  8
Visible (ANSI)
100
AcDbVertex
100
AcDb2dVertex
 10
88.64017876962838
 20
31.42945879767559
 30
0.0
  0
VERTEX
  5
1DF
330
1CD
100
AcDbEntity
  8
Visible (ANSI)
100
AcDbVertex
100
AcDb2dVertex
 10
88.63715104140496
 20
31.42460025353524
 30
0.0
  0
VERTEX
  5
1E0
330
1CD
100
AcDbEntity
  8
Visible (ANSI)
100
AcDbVertex
100
AcDb2dVertex
 10
88.63411730578427
 20
31.4202631180382
 30
0.0
  0
VERTEX
  5
1E1
330
1CD
100
AcDbEntity
  8
Visible (ANSI)
100
AcDbVertex
100
AcDb2dVertex
 10
88.63108357016356
 20
31.41646596336992
 30
0.0
  0
VERTEX
  5
1E2
330
1CD
100
AcDbEntity
  8
Visible (ANSI)
100
AcDbVertex
100
AcDb2dVertex
 10
88.62804983454287
 20
31.41322504954257
 30
0.0
  0
VERTEX
  5
1E3
330
1CD
100
AcDbEntity
  8
Visible (ANSI)
100
AcDbVertex
100
AcDb2dVertex
 10
88.62501609892218
 20
31.41055425472915
 30
0.0
  0
VERTEX
  5
1E4
330
1CD
100
AcDbEntity
  8
Visible (ANSI)
100
AcDbVertex
100
AcDb2dVertex
 10
88.62198236330149
 20
31.40846501531422
 30
0.0
  0
VERTEX
  5
1E5
330
1CD
100
AcDbEntity
  8
Visible (ANSI)
100
AcDbVertex
100
AcDb2dVertex
 10
88.6189486276808
 20
31.40696627831943
 30
0.0
  0
VERTEX
  5
1E6
330
1CD
100
AcDbEntity
  8
Visible (ANSI)
100
AcDbVertex
100
AcDb2dVertex
 10
88.61592089945736
 20
31.40606446120813
 30
0.0
  0
VERTEX
  5
1E7
330
1CD
100
AcDbEntity
  8
Visible (ANSI)
100
AcDbVertex
100
AcDb2dVertex
 10
88.61288716383667
 20
31.40576342580655
 30
0.0
  0
SEQEND
  5
1D0
330
1CD
100
AcDbEntity
  8
Visible (ANSI)
  0
POLYLINE
  5
1E8
330
6C
100
AcDbEntity
  8
Visible (ANSI)
100
AcDb2dPolyline
 66
     1
 10
0.0
 20
0.0
 30
0.0
 70
   128
  0
VERTEX
  5
1E9
330
1E8
100
AcDbEntity
  8
Visible (ANSI)
100
AcDbVertex
100
AcDb2dVertex
 10
33.03966209554159
 20
31.40576342580655
 30
0.0
  0
VERTEX
  5
1EA
330
1E8
100
AcDbEntity
  8
Visible (ANSI)
100
AcDbVertex
100
AcDb2dVertex
 10
33.03662925164393
 20
31.40606446120813
 30
0.0
  0
VERTEX
  5
1EC
330
1E8
100
AcDbEntity
  8
Visible (ANSI)
100
AcDbVertex
100
AcDb2dVertex
 10
33.03359640774627
 20
31.40696627831943
 30
0.0
  0
VERTEX
  5
1ED
330
1E8
100
AcDbEntity
  8
Visible (ANSI)
100
AcDbVertex
100
AcDb2dVertex
 10
33.0305635638486
 20
31.40846501531422
 30
0.0
  0
VERTEX
  5
1EE
330
1E8
100
AcDbEntity
  8
Visible (ANSI)
100
AcDbVertex
100
AcDb2dVertex
 10
33.02753071995095
 20
31.41055425472915
 30
0.0
  0
VERTEX
  5
1EF
330
1E8
100
AcDbEntity
  8
Visible (ANSI)
100
AcDbVertex
100
AcDb2dVertex
 10
33.02449787605328
 20
31.41322504954257
 30
0.0
  0
VERTEX
  5
1F0
330
1E8
100
AcDbEntity
  8
Visible (ANSI)
100
AcDbVertex
100
AcDb2dVertex
 10
33.02146502042242
 20
31.41646596336992
 30
0.0
  0
VERTEX
  5
1F1
330
1E8
100
AcDbEntity
  8
Visible (ANSI)
100
AcDbVertex
100
AcDb2dVertex
 10
33.01843217652476
 20
31.4202631180382
 30
0.0
  0
VERTEX
  5
1F2
330
1E8
100
AcDbEntity
  8
Visible (ANSI)
100
AcDbVertex
100
AcDb2dVertex
 10
33.0153993208939
 20
31.42460025353524
 30
0.0
  0
VERTEX
  5
1F3
330
1E8
100
AcDbEntity
  8
Visible (ANSI)
100
AcDbVertex
100
AcDb2dVertex
 10
33.01236647699623
 20
31.42945879767559
 30
0.0
  0
VERTEX
  5
1F4
330
1E8
100
AcDbEntity
  8
Visible (ANSI)
100
AcDbVertex
100
AcDb2dVertex
 10
33.00933363309857
 20
31.43481794749957
 30
0.0
  0
VERTEX
  5
1F5
330
1E8
100
AcDbEntity
  8
Visible (ANSI)
100
AcDbVertex
100
AcDb2dVertex
 10
33.00630077746772
 20
31.440654749939
 30
0.0
  0
VERTEX
  5
1F6
330
1E8
100
AcDbEntity
  8
Visible (ANSI)
100
AcDbVertex
100
AcDb2dVertex
 10
33.00326793357005
 20
31.44694421328257
 30
0.0
  0
VERTEX
  5
1F7
330
1E8
100
AcDbEntity
  8
Visible (ANSI)
100
AcDbVertex
100
AcDb2dVertex
 10
33.00023508967239
 20
31.45365940397478
 30
0.0
  0
VERTEX
  5
1F8
330
1E8
100
AcDbEntity
  8
Visible (ANSI)
100
AcDbVertex
100
AcDb2dVertex
 10
32.99720223404153
 20
31.46077156688114
 30
0.0
  0
VERTEX
  5
1F9
330
1E8
100
AcDbEntity
  8
Visible (ANSI)
100
AcDbVertex
100
AcDb2dVertex
 10
32.99416939014387
 20
31.46825024848677
 30
0.0
  0
VERTEX
  5
1FA
330
1E8
100
AcDbEntity
  8
Visible (ANSI)
100
AcDbVertex
100
AcDb2dVertex
 10
32.99113654624621
 20
31.47606342596161
 30
0.0
  0
VERTEX
  5
1FB
330
1E8
100
AcDbEntity
  8
Visible (ANSI)
100
AcDbVertex
100
AcDb2dVertex
 10
32.98810369061536
 20
31.48417763622556
 30
0.0
  0
VERTEX
  5
1FC
330
1E8
100
AcDbEntity
  8
Visible (ANSI)
100
AcDbVertex
100
AcDb2dVertex
 10
32.98507084671769
 20
31.49255813727997
 30
0.0
  0
VERTEX
  5
1FD
330
1E8
100
AcDbEntity
  8
Visible (ANSI)
100
AcDbVertex
100
AcDb2dVertex
 10
32.98203800282003
 20
31.50116903727278
 30
0.0
  0
VERTEX
  5
1FE
330
1E8
100
AcDbEntity
  8
Visible (ANSI)
100
AcDbVertex
100
AcDb2dVertex
 10
32.97900514718917
 20
31.50997346462995
 30
0.0
  0
VERTEX
  5
1FF
330
1E8
100
AcDbEntity
  8
Visible (ANSI)
100
AcDbVertex
100
AcDb2dVertex
 10
32.9759723032915
 20
31.51893373232017
 30
0.0
  0
VERTEX
  5
200
330
1E8
100
AcDbEntity
  8
Visible (ANSI)
100
AcDbVertex
100
AcDb2dVertex
 10
32.97293945939384
 20
31.52801143758708
 30
0.0
  0
VERTEX
  5
201
330
1E8
100
AcDbEntity
  8
Visible (ANSI)
100
AcDbVertex
100
AcDb2dVertex
 10
32.96990660376298
 20
31.53716774354599
 30
0.0
  0
VERTEX
  5
202
330
1E8
100
AcDbEntity
  8
Visible (ANSI)
100
AcDbVertex
100
AcDb2dVertex
 10
32.96687375986532
 20
31.54636342611668
 30
0.0
  0
SEQEND
  5
1EB
330
1E8
100
AcDbEntity
  8
Visible (ANSI)
  0
LINE
  5
203
330
6C
100
AcDbEntity
  8
Hidden (ANSI)
 48
0.0197405889630318
100
AcDbLine
 10
88.70127375955519
 20
31.61915177345487
 30
0.0
 11
88.82627375955518
 21
31.61915177345487
 31
0.0
  0
POLYLINE
  5
204
330
6C
100
AcDbEntity
  8
Hidden (ANSI)
 48
0.0120902406051755
100
AcDb2dPolyline
 66
     1
 10
0.0
 20
0.0
 30
0.0
 70
   128
  0
VERTEX
  5
205
330
204
100
AcDbEntity
  8
Hidden (ANSI)
 48
0.0120902406051755
100
AcDbVertex
100
AcDb2dVertex
 10
88.68567278914424
 20
31.54636342611668
 30
0.0
  0
VERTEX
  5
206
330
204
100
AcDbEntity
  8
Hidden (ANSI)
 48
0.0120902406051755
100
AcDbVertex
100
AcDb2dVertex
 10
88.68669404667993
 20
31.54939627001434
 30
0.0
  0
VERTEX
  5
208
330
204
100
AcDbEntity
  8
Hidden (ANSI)
 48
0.0120902406051755
100
AcDbVertex
100
AcDb2dVertex
 10
88.68770929681835
 20
31.5524291256452
 30
0.0
  0
VERTEX
  5
209
330
204
100
AcDbEntity
  8
Hidden (ANSI)
 48
0.0120902406051755
100
AcDbVertex
100
AcDb2dVertex
 10
88.68871853955948
 20
31.55546196954286
 30
0.0
  0
VERTEX
  5
20A
330
204
100
AcDbEntity
  8
Hidden (ANSI)
 48
0.0120902406051755
100
AcDbVertex
100
AcDb2dVertex
 10
88.68970976010881
 20
31.55849481344052
 30
0.0
  0
VERTEX
  5
20B
330
204
100
AcDbEntity
  8
Hidden (ANSI)
 48
0.0120902406051755
100
AcDbVertex
100
AcDb2dVertex
 10
88.69068896586362
 20
31.56152766907138
 30
0.0
  0
VERTEX
  5
20C
330
204
100
AcDbEntity
  8
Hidden (ANSI)
 48
0.0120902406051755
100
AcDbVertex
100
AcDb2dVertex
 10
88.69164414202934
 20
31.56456051296905
 30
0.0
  0
VERTEX
  5
20D
330
204
100
AcDbEntity
  8
Hidden (ANSI)
 48
0.0120902406051755
100
AcDbVertex
100
AcDb2dVertex
 10
88.69257528860599
 20
31.5675933568667
 30
0.0
  0
VERTEX
  5
20E
330
204
100
AcDbEntity
  8
Hidden (ANSI)
 48
0.0120902406051755
100
AcDbVertex
100
AcDb2dVertex
 10
88.69347639819629
 20
31.57062621249757
 30
0.0
  0
VERTEX
  5
20F
330
204
100
AcDbEntity
  8
Hidden (ANSI)
 48
0.0120902406051755
100
AcDbVertex
100
AcDb2dVertex
 10
88.69434146340298
 20
31.57365905639523
 30
0.0
  0
VERTEX
  5
210
330
204
100
AcDbEntity
  8
Hidden (ANSI)
 48
0.0120902406051755
100
AcDbVertex
100
AcDb2dVertex
 10
88.69517048422606
 20
31.57669190029289
 30
0.0
  0
VERTEX
  5
211
330
204
100
AcDbEntity
  8
Hidden (ANSI)
 48
0.0120902406051755
100
AcDbVertex
100
AcDb2dVertex
 10
88.69595745326826
 20
31.57972475592375
 30
0.0
  0
VERTEX
  5
212
330
204
100
AcDbEntity
  8
Hidden (ANSI)
 48
0.0120902406051755
100
AcDbVertex
100
AcDb2dVertex
 10
88.69670237052957
 20
31.58275759982141
 30
0.0
  0
VERTEX
  5
213
330
204
100
AcDbEntity
  8
Hidden (ANSI)
 48
0.0120902406051755
100
AcDbVertex
100
AcDb2dVertex
 10
88.69740523601002
 20
31.58579044371907
 30
0.0
  0
VERTEX
  5
214
330
204
100
AcDbEntity
  8
Hidden (ANSI)
 48
0.0120902406051755
100
AcDbVertex
100
AcDb2dVertex
 10
88.69804802751778
 20
31.58882329934993
 30
0.0
  0
VERTEX
  5
215
330
204
100
AcDbEntity
  8
Hidden (ANSI)
 48
0.0120902406051755
100
AcDbVertex
100
AcDb2dVertex
 10
88.69864275984737
 20
31.59185614324759
 30
0.0
  0
VERTEX
  5
216
330
204
100
AcDbEntity
  8
Hidden (ANSI)
 48
0.0120902406051755
100
AcDbVertex
100
AcDb2dVertex
 10
88.69918342560156
 20
31.59488898714526
 30
0.0
  0
VERTEX
  5
217
330
204
100
AcDbEntity
  8
Hidden (ANSI)
 48
0.0120902406051755
100
AcDbVertex
100
AcDb2dVertex
 10
88.69966401738306
 20
31.59792184277611
 30
0.0
  0
VERTEX
  5
218
330
204
100
AcDbEntity
  8
Hidden (ANSI)
 48
0.0120902406051755
100
AcDbVertex
100
AcDb2dVertex
 10
88.70008453519186
 20
31.60095468667378
 30
0.0
  0
VERTEX
  5
219
330
204
100
AcDbEntity
  8
Hidden (ANSI)
 48
0.0120902406051755
100
AcDbVertex
100
AcDb2dVertex
 10
88.70044497902799
 20
31.60398754230464
 30
0.0
  0
VERTEX
  5
21A
330
204
100
AcDbEntity
  8
Hidden (ANSI)
 48
0.0120902406051755
100
AcDbVertex
100
AcDb2dVertex
 10
88.70073934149415
 20
31.6070203862023
 30
0.0
  0
VERTEX
  5
21B
330
204
100
AcDbEntity
  8
Hidden (ANSI)
 48
0.0120902406051755
100
AcDbVertex
100
AcDb2dVertex
 10
88.70097362998762
 20
31.61005323009996
 30
0.0
  0
VERTEX
  5
21C
330
204
100
AcDbEntity
  8
Hidden (ANSI)
 48
0.0120902406051755
100
AcDbVertex
100
AcDb2dVertex
 10
88.70114183711116
 20
31.61308607399762
 30
0.0
  0
VERTEX
  5
21D
330
204
100
AcDbEntity
  8
Hidden (ANSI)
 48
0.0120902406051755
100
AcDbVertex
100
AcDb2dVertex
 10
88.70123795546746
 20
31.61611891789529
 30
0.0
  0
VERTEX
  5
21E
330
204
100
AcDbEntity
  8
Hidden (ANSI)
 48
0.0120902406051755
100
AcDbVertex
100
AcDb2dVertex
 10
88.70127399985106
 20
31.61915176179295
 30
0.0
  0
SEQEND
  5
207
330
204
100
AcDbEntity
  8
Hidden (ANSI)
 48
0.0120902406051755
  0
LINE
  5
21F
330
6C
100
AcDbEntity
  8
Hidden (ANSI)
 48
0.0197405889630318
100
AcDbLine
 10
88.7012737595551
 20
91.19237507815823
 30
0.0
 11
88.82627375955511
 21
91.19237507815823
 31
0.0
  0
POLYLINE
  5
220
330
6C
100
AcDbEntity
  8
Hidden (ANSI)
 48
0.0120907360687852
100
AcDb2dPolyline
 66
     1
 10
0.0
 20
0.0
 30
0.0
 70
   128
  0
VERTEX
  5
221
330
220
100
AcDbEntity
  8
Hidden (ANSI)
 48
0.0120907360687852
100
AcDbVertex
100
AcDb2dVertex
 10
88.68567278914424
 20
91.26516389717094
 30
0.0
  0
VERTEX
  5
222
330
220
100
AcDbEntity
  8
Hidden (ANSI)
 48
0.0120907360687852
100
AcDbVertex
100
AcDb2dVertex
 10
88.68669404667993
 20
91.26213016155027
 30
0.0
  0
VERTEX
  5
224
330
220
100
AcDbEntity
  8
Hidden (ANSI)
 48
0.0120907360687852
100
AcDbVertex
100
AcDb2dVertex
 10
88.68770929681835
 20
91.25909642592956
 30
0.0
  0
VERTEX
  5
225
330
220
100
AcDbEntity
  8
Hidden (ANSI)
 48
0.0120907360687852
100
AcDbVertex
100
AcDb2dVertex
 10
88.68871853955948
 20
91.25606269030887
 30
0.0
  0
VERTEX
  5
226
330
220
100
AcDbEntity
  8
Hidden (ANSI)
 48
0.0120907360687852
100
AcDbVertex
100
AcDb2dVertex
 10
88.68970976010881
 20
91.25303496208543
 30
0.0
  0
VERTEX
  5
227
330
220
100
AcDbEntity
  8
Hidden (ANSI)
 48
0.0120907360687852
100
AcDbVertex
100
AcDb2dVertex
 10
88.69068896586362
 20
91.25000122646476
 30
0.0
  0
VERTEX
  5
228
330
220
100
AcDbEntity
  8
Hidden (ANSI)
 48
0.0120907360687852
100
AcDbVertex
100
AcDb2dVertex
 10
88.69164414202934
 20
91.24696749084405
 30
0.0
  0
VERTEX
  5
229
330
220
100
AcDbEntity
  8
Hidden (ANSI)
 48
0.0120907360687852
100
AcDbVertex
100
AcDb2dVertex
 10
88.69257528860599
 20
91.24393375522336
 30
0.0
  0
VERTEX
  5
22A
330
220
100
AcDbEntity
  8
Hidden (ANSI)
 48
0.0120907360687852
100
AcDbVertex
100
AcDb2dVertex
 10
88.69347639819629
 20
91.24090001960269
 30
0.0
  0
VERTEX
  5
22B
330
220
100
AcDbEntity
  8
Hidden (ANSI)
 48
0.0120907360687852
100
AcDbVertex
100
AcDb2dVertex
 10
88.69434146340298
 20
91.23786628398198
 30
0.0
  0
VERTEX
  5
22C
330
220
100
AcDbEntity
  8
Hidden (ANSI)
 48
0.0120907360687852
100
AcDbVertex
100
AcDb2dVertex
 10
88.69517048422606
 20
91.23483254836127
 30
0.0
  0
VERTEX
  5
22D
330
220
100
AcDbEntity
  8
Hidden (ANSI)
 48
0.0120907360687852
100
AcDbVertex
100
AcDb2dVertex
 10
88.69595745326826
 20
91.23180482013784
 30
0.0
  0
VERTEX
  5
22E
330
220
100
AcDbEntity
  8
Hidden (ANSI)
 48
0.0120907360687852
100
AcDbVertex
100
AcDb2dVertex
 10
88.69670237052957
 20
91.22877108451717
 30
0.0
  0
VERTEX
  5
22F
330
220
100
AcDbEntity
  8
Hidden (ANSI)
 48
0.0120907360687852
100
AcDbVertex
100
AcDb2dVertex
 10
88.69740523601002
 20
91.22573734889646
 30
0.0
  0
VERTEX
  5
230
330
220
100
AcDbEntity
  8
Hidden (ANSI)
 48
0.0120907360687852
100
AcDbVertex
100
AcDb2dVertex
 10
88.69804802751778
 20
91.22270361327577
 30
0.0
  0
VERTEX
  5
231
330
220
100
AcDbEntity
  8
Hidden (ANSI)
 48
0.0120907360687852
100
AcDbVertex
100
AcDb2dVertex
 10
88.69864275984737
 20
91.21966987765508
 30
0.0
  0
VERTEX
  5
232
330
220
100
AcDbEntity
  8
Hidden (ANSI)
 48
0.0120907360687852
100
AcDbVertex
100
AcDb2dVertex
 10
88.69918342560156
 20
91.21663614203439
 30
0.0
  0
VERTEX
  5
233
330
220
100
AcDbEntity
  8
Hidden (ANSI)
 48
0.0120907360687852
100
AcDbVertex
100
AcDb2dVertex
 10
88.69966401738306
 20
91.21360240641369
 30
0.0
  0
VERTEX
  5
234
330
220
100
AcDbEntity
  8
Hidden (ANSI)
 48
0.0120907360687852
100
AcDbVertex
100
AcDb2dVertex
 10
88.70008453519186
 20
91.21057467819026
 30
0.0
  0
VERTEX
  5
235
330
220
100
AcDbEntity
  8
Hidden (ANSI)
 48
0.0120907360687852
100
AcDbVertex
100
AcDb2dVertex
 10
88.70044497902799
 20
91.20754094256959
 30
0.0
  0
VERTEX
  5
236
330
220
100
AcDbEntity
  8
Hidden (ANSI)
 48
0.0120907360687852
100
AcDbVertex
100
AcDb2dVertex
 10
88.70073934149415
 20
91.20450720694888
 30
0.0
  0
VERTEX
  5
237
330
220
100
AcDbEntity
  8
Hidden (ANSI)
 48
0.0120907360687852
100
AcDbVertex
100
AcDb2dVertex
 10
88.70097362998762
 20
91.20147347132819
 30
0.0
  0
VERTEX
  5
238
330
220
100
AcDbEntity
  8
Hidden (ANSI)
 48
0.0120907360687852
100
AcDbVertex
100
AcDb2dVertex
 10
88.70114183711116
 20
91.1984397357075
 30
0.0
  0
VERTEX
  5
239
330
220
100
AcDbEntity
  8
Hidden (ANSI)
 48
0.0120907360687852
100
AcDbVertex
100
AcDb2dVertex
 10
88.70123795546746
 20
91.19540600008681
 30
0.0
  0
VERTEX
  5
23A
330
220
100
AcDbEntity
  8
Hidden (ANSI)
 48
0.0120907360687852
100
AcDbVertex
100
AcDb2dVertex
 10
88.70127399985106
 20
91.1923722644661
 30
0.0
  0
SEQEND
  5
223
330
220
100
AcDbEntity
  8
Hidden (ANSI)
 48
0.0120907360687852
  0
LINE
  5
23B
330
6C
100
AcDbEntity
  8
Hidden (ANSI)
 48
0.0197405889630318
100
AcDbLine
 10
88.61288541190685
 20
91.28076342580657
 30
0.0
 11
88.61288541190685
 21
91.40576342580656
 31
0.0
  0
POLYLINE
  5
23C
330
6C
100
AcDbEntity
  8
Hidden (ANSI)
 48
0.0120897991582751
100
AcDb2dPolyline
 66
     1
 10
0.0
 20
0.0
 30
0.0
 70
   128
  0
VERTEX
  5
23D
330
23C
100
AcDbEntity
  8
Hidden (ANSI)
 48
0.0120897991582751
100
AcDbVertex
100
AcDb2dVertex
 10
88.68567278914424
 20
91.26516389717094
 30
0.0
  0
VERTEX
  5
23E
330
23C
100
AcDbEntity
  8
Hidden (ANSI)
 48
0.0120897991582751
100
AcDbVertex
100
AcDb2dVertex
 10
88.68263905352355
 20
91.26618515470665
 30
0.0
  0
VERTEX
  5
240
330
23C
100
AcDbEntity
  8
Hidden (ANSI)
 48
0.0120897991582751
100
AcDbVertex
100
AcDb2dVertex
 10
88.67960531790286
 20
91.26720040484505
 30
0.0
  0
VERTEX
  5
241
330
23C
100
AcDbEntity
  8
Hidden (ANSI)
 48
0.0120897991582751
100
AcDbVertex
100
AcDb2dVertex
 10
88.67657758967943
 20
91.26820964758618
 30
0.0
  0
VERTEX
  5
242
330
23C
100
AcDbEntity
  8
Hidden (ANSI)
 48
0.0120897991582751
100
AcDbVertex
100
AcDb2dVertex
 10
88.67354385405873
 20
91.26920086813552
 30
0.0
  0
VERTEX
  5
243
330
23C
100
AcDbEntity
  8
Hidden (ANSI)
 48
0.0120897991582751
100
AcDbVertex
100
AcDb2dVertex
 10
88.67051011843805
 20
91.27018007389031
 30
0.0
  0
VERTEX
  5
244
330
23C
100
AcDbEntity
  8
Hidden (ANSI)
 48
0.0120897991582751
100
AcDbVertex
100
AcDb2dVertex
 10
88.66747638281736
 20
91.27113525005604
 30
0.0
  0
VERTEX
  5
245
330
23C
100
AcDbEntity
  8
Hidden (ANSI)
 48
0.0120897991582751
100
AcDbVertex
100
AcDb2dVertex
 10
88.66444264719666
 20
91.27206038923544
 30
0.0
  0
VERTEX
  5
246
330
23C
100
AcDbEntity
  8
Hidden (ANSI)
 48
0.0120897991582751
100
AcDbVertex
100
AcDb2dVertex
 10
88.66140891157597
 20
91.27296149882573
 30
0.0
  0
VERTEX
  5
247
330
23C
100
AcDbEntity
  8
Hidden (ANSI)
 48
0.0120897991582751
100
AcDbVertex
100
AcDb2dVertex
 10
88.65837517595528
 20
91.27383257142968
 30
0.0
  0
VERTEX
  5
248
330
23C
100
AcDbEntity
  8
Hidden (ANSI)
 48
0.0120897991582751
100
AcDbVertex
100
AcDb2dVertex
 10
88.65534744773185
 20
91.27466159225276
 30
0.0
  0
VERTEX
  5
249
330
23C
100
AcDbEntity
  8
Hidden (ANSI)
 48
0.0120897991582751
100
AcDbVertex
100
AcDb2dVertex
 10
88.65231371211114
 20
91.27544856129498
 30
0.0
  0
VERTEX
  5
24A
330
23C
100
AcDbEntity
  8
Hidden (ANSI)
 48
0.0120897991582751
100
AcDbVertex
100
AcDb2dVertex
 10
88.64927997649045
 20
91.27619347855628
 30
0.0
  0
VERTEX
  5
24B
330
23C
100
AcDbEntity
  8
Hidden (ANSI)
 48
0.0120897991582751
100
AcDbVertex
100
AcDb2dVertex
 10
88.64624624086976
 20
91.27689033663946
 30
0.0
  0
VERTEX
  5
24C
330
23C
100
AcDbEntity
  8
Hidden (ANSI)
 48
0.0120897991582751
100
AcDbVertex
100
AcDb2dVertex
 10
88.64321250524907
 20
91.27753913554448
 30
0.0
  0
VERTEX
  5
24D
330
23C
100
AcDbEntity
  8
Hidden (ANSI)
 48
0.0120897991582751
100
AcDbVertex
100
AcDb2dVertex
 10
88.64017876962838
 20
91.27813386787408
 30
0.0
  0
VERTEX
  5
24E
330
23C
100
AcDbEntity
  8
Hidden (ANSI)
 48
0.0120897991582751
100
AcDbVertex
100
AcDb2dVertex
 10
88.63715104140496
 20
91.27867453362828
 30
0.0
  0
VERTEX
  5
24F
330
23C
100
AcDbEntity
  8
Hidden (ANSI)
 48
0.0120897991582751
100
AcDbVertex
100
AcDb2dVertex
 10
88.63411730578427
 20
91.27915512540976
 30
0.0
  0
VERTEX
  5
250
330
23C
100
AcDbEntity
  8
Hidden (ANSI)
 48
0.0120897991582751
100
AcDbVertex
100
AcDb2dVertex
 10
88.63108357016356
 20
91.27957564321858
 30
0.0
  0
VERTEX
  5
251
330
23C
100
AcDbEntity
  8
Hidden (ANSI)
 48
0.0120897991582751
100
AcDbVertex
100
AcDb2dVertex
 10
88.62804983454287
 20
91.27993608705471
 30
0.0
  0
VERTEX
  5
252
330
23C
100
AcDbEntity
  8
Hidden (ANSI)
 48
0.0120897991582751
100
AcDbVertex
100
AcDb2dVertex
 10
88.62501609892218
 20
91.28023044952085
 30
0.0
  0
VERTEX
  5
253
330
23C
100
AcDbEntity
  8
Hidden (ANSI)
 48
0.0120897991582751
100
AcDbVertex
100
AcDb2dVertex
 10
88.62198236330149
 20
91.28046473801433
 30
0.0
  0
VERTEX
  5
254
330
23C
100
AcDbEntity
  8
Hidden (ANSI)
 48
0.0120897991582751
100
AcDbVertex
100
AcDb2dVertex
 10
88.6189486276808
 20
91.28063294513786
 30
0.0
  0
VERTEX
  5
255
330
23C
100
AcDbEntity
  8
Hidden (ANSI)
 48
0.0120897991582751
100
AcDbVertex
100
AcDb2dVertex
 10
88.61592089945736
 20
91.28072906349418
 30
0.0
  0
VERTEX
  5
256
330
23C
100
AcDbEntity
  8
Hidden (ANSI)
 48
0.0120897991582751
100
AcDbVertex
100
AcDb2dVertex
 10
88.61288716383667
 20
91.28076510787778
 30
0.0
  0
SEQEND
  5
23F
330
23C
100
AcDbEntity
  8
Hidden (ANSI)
 48
0.0120897991582751
  0
LINE
  5
257
330
6C
100
AcDbEntity
  8
Hidden (ANSI)
 48
0.0197405889630318
100
AcDbLine
 10
33.0396621072035
 20
91.28076342580651
 30
0.0
 11
33.0396621072035
 21
91.40576342580649
 31
0.0
  0
POLYLINE
  5
258
330
6C
100
AcDbEntity
  8
Hidden (ANSI)
 48
0.0120902061462402
100
AcDb2dPolyline
 66
     1
 10
0.0
 20
0.0
 30
0.0
 70
   128
  0
VERTEX
  5
259
330
258
100
AcDbEntity
  8
Hidden (ANSI)
 48
0.0120902061462402
100
AcDbVertex
100
AcDb2dVertex
 10
32.96687375986532
 20
91.26516389717094
 30
0.0
  0
VERTEX
  5
25A
330
258
100
AcDbEntity
  8
Hidden (ANSI)
 48
0.0120902061462402
100
AcDbVertex
100
AcDb2dVertex
 10
32.96990660376298
 20
91.26618515470665
 30
0.0
  0
VERTEX
  5
25C
330
258
100
AcDbEntity
  8
Hidden (ANSI)
 48
0.0120902061462402
100
AcDbVertex
100
AcDb2dVertex
 10
32.97293945939384
 20
91.26720040484505
 30
0.0
  0
VERTEX
  5
25D
330
258
100
AcDbEntity
  8
Hidden (ANSI)
 48
0.0120902061462402
100
AcDbVertex
100
AcDb2dVertex
 10
32.9759723032915
 20
91.26820964758618
 30
0.0
  0
VERTEX
  5
25E
330
258
100
AcDbEntity
  8
Hidden (ANSI)
 48
0.0120902061462402
100
AcDbVertex
100
AcDb2dVertex
 10
32.97900514718917
 20
91.26920086813552
 30
0.0
  0
VERTEX
  5
25F
330
258
100
AcDbEntity
  8
Hidden (ANSI)
 48
0.0120902061462402
100
AcDbVertex
100
AcDb2dVertex
 10
32.98203800282003
 20
91.27018007389031
 30
0.0
  0
VERTEX
  5
260
330
258
100
AcDbEntity
  8
Hidden (ANSI)
 48
0.0120902061462402
100
AcDbVertex
100
AcDb2dVertex
 10
32.98507084671769
 20
91.27113525005604
 30
0.0
  0
VERTEX
  5
261
330
258
100
AcDbEntity
  8
Hidden (ANSI)
 48
0.0120902061462402
100
AcDbVertex
100
AcDb2dVertex
 10
32.98810369061536
 20
91.27206038923544
 30
0.0
  0
VERTEX
  5
262
330
258
100
AcDbEntity
  8
Hidden (ANSI)
 48
0.0120902061462402
100
AcDbVertex
100
AcDb2dVertex
 10
32.99113654624621
 20
91.27296149882573
 30
0.0
  0
VERTEX
  5
263
330
258
100
AcDbEntity
  8
Hidden (ANSI)
 48
0.0120902061462402
100
AcDbVertex
100
AcDb2dVertex
 10
32.99416939014387
 20
91.27383257142968
 30
0.0
  0
VERTEX
  5
264
330
258
100
AcDbEntity
  8
Hidden (ANSI)
 48
0.0120902061462402
100
AcDbVertex
100
AcDb2dVertex
 10
32.99720223404153
 20
91.27466159225276
 30
0.0
  0
VERTEX
  5
265
330
258
100
AcDbEntity
  8
Hidden (ANSI)
 48
0.0120902061462402
100
AcDbVertex
100
AcDb2dVertex
 10
33.00023508967239
 20
91.27544856129498
 30
0.0
  0
VERTEX
  5
266
330
258
100
AcDbEntity
  8
Hidden (ANSI)
 48
0.0120902061462402
100
AcDbVertex
100
AcDb2dVertex
 10
33.00326793357005
 20
91.27619347855628
 30
0.0
  0
VERTEX
  5
267
330
258
100
AcDbEntity
  8
Hidden (ANSI)
 48
0.0120902061462402
100
AcDbVertex
100
AcDb2dVertex
 10
33.00630077746772
 20
91.27689033663946
 30
0.0
  0
VERTEX
  5
268
330
258
100
AcDbEntity
  8
Hidden (ANSI)
 48
0.0120902061462402
100
AcDbVertex
100
AcDb2dVertex
 10
33.00933363309857
 20
91.27753913554448
 30
0.0
  0
VERTEX
  5
269
330
258
100
AcDbEntity
  8
Hidden (ANSI)
 48
0.0120902061462402
100
AcDbVertex
100
AcDb2dVertex
 10
33.01236647699623
 20
91.27813386787408
 30
0.0
  0
VERTEX
  5
26A
330
258
100
AcDbEntity
  8
Hidden (ANSI)
 48
0.0120902061462402
100
AcDbVertex
100
AcDb2dVertex
 10
33.0153993208939
 20
91.27867453362828
 30
0.0
  0
VERTEX
  5
26B
330
258
100
AcDbEntity
  8
Hidden (ANSI)
 48
0.0120902061462402
100
AcDbVertex
100
AcDb2dVertex
 10
33.01843217652476
 20
91.27915512540976
 30
0.0
  0
VERTEX
  5
26C
330
258
100
AcDbEntity
  8
Hidden (ANSI)
 48
0.0120902061462402
100
AcDbVertex
100
AcDb2dVertex
 10
33.02146502042242
 20
91.27957564321858
 30
0.0
  0
VERTEX
  5
26D
330
258
100
AcDbEntity
  8
Hidden (ANSI)
 48
0.0120902061462402
100
AcDbVertex
100
AcDb2dVertex
 10
33.02449787605328
 20
91.27993608705471
 30
0.0
  0
VERTEX
  5
26E
330
258
100
AcDbEntity
  8
Hidden (ANSI)
 48
0.0120902061462402
100
AcDbVertex
100
AcDb2dVertex
 10
33.02753071995095
 20
91.28023044952085
 30
0.0
  0
VERTEX
  5
26F
330
258
100
AcDbEntity
  8
Hidden (ANSI)
 48
0.0120902061462402
100
AcDbVertex
100
AcDb2dVertex
 10
33.0305635638486
 20
91.28046473801433
 30
0.0
  0
VERTEX
  5
270
330
258
100
AcDbEntity
  8
Hidden (ANSI)
 48
0.0120902061462402
100
AcDbVertex
100
AcDb2dVertex
 10
33.03359640774627
 20
91.28063294513786
 30
0.0
  0
VERTEX
  5
271
330
258
100
AcDbEntity
  8
Hidden (ANSI)
 48
0.0120902061462402
100
AcDbVertex
100
AcDb2dVertex
 10
33.03662925164393
 20
91.28072906349418
 30
0.0
  0
VERTEX
  5
272
330
258
100
AcDbEntity
  8
Hidden (ANSI)
 48
0.0120902061462402
100
AcDbVertex
100
AcDb2dVertex
 10
33.03966209554159
 20
91.28076510787778
 30
0.0
  0
SEQEND
  5
25B
330
258
100
AcDbEntity
  8
Hidden (ANSI)
 48
0.0120902061462402
  0
LINE
  5
273
330
6C
100
AcDbEntity
  8
Hidden (ANSI)
 48
0.0197405889630318
100
AcDbLine
 10
32.95127375955517
 20
91.19237507815823
 30
0.0
 11
32.82627375955517
 21
91.19237507815823
 31
0.0
  0
POLYLINE
  5
274
330
6C
100
AcDbEntity
  8
Hidden (ANSI)
 48
0.0120907137170434
100
AcDb2dPolyline
 66
     1
 10
0.0
 20
0.0
 30
0.0
 70
   128
  0
VERTEX
  5
275
330
274
100
AcDbEntity
  8
Hidden (ANSI)
 48
0.0120907137170434
100
AcDbVertex
100
AcDb2dVertex
 10
32.96687375986532
 20
91.26516389717094
 30
0.0
  0
VERTEX
  5
276
330
274
100
AcDbEntity
  8
Hidden (ANSI)
 48
0.0120907137170434
100
AcDbVertex
100
AcDb2dVertex
 10
32.96585347618506
 20
91.26213016155027
 30
0.0
  0
VERTEX
  5
278
330
274
100
AcDbEntity
  8
Hidden (ANSI)
 48
0.0120907137170434
100
AcDbVertex
100
AcDb2dVertex
 10
32.96483754552118
 20
91.25909642592956
 30
0.0
  0
VERTEX
  5
279
330
274
100
AcDbEntity
  8
Hidden (ANSI)
 48
0.0120907137170434
100
AcDbVertex
100
AcDb2dVertex
 10
32.96383035608965
 20
91.25606269030887
 30
0.0
  0
VERTEX
  5
27A
330
274
100
AcDbEntity
  8
Hidden (ANSI)
 48
0.0120907137170434
100
AcDbVertex
100
AcDb2dVertex
 10
32.96283617877447
 20
91.25303496208543
 30
0.0
  0
VERTEX
  5
27B
330
274
100
AcDbEntity
  8
Hidden (ANSI)
 48
0.0120907137170434
100
AcDbVertex
100
AcDb2dVertex
 10
32.96185930792603
 20
91.25000122646476
 30
0.0
  0
VERTEX
  5
27C
330
274
100
AcDbEntity
  8
Hidden (ANSI)
 48
0.0120907137170434
100
AcDbVertex
100
AcDb2dVertex
 10
32.96090389709635
 20
91.24696749084405
 30
0.0
  0
VERTEX
  5
27D
330
274
100
AcDbEntity
  8
Hidden (ANSI)
 48
0.0120907137170434
100
AcDbVertex
100
AcDb2dVertex
 10
32.95997405290466
 20
91.24393375522336
 30
0.0
  0
VERTEX
  5
27E
330
274
100
AcDbEntity
  8
Hidden (ANSI)
 48
0.0120907137170434
100
AcDbVertex
100
AcDb2dVertex
 10
32.9590737646382
 20
91.24090001960269
 30
0.0
  0
VERTEX
  5
27F
330
274
100
AcDbEntity
  8
Hidden (ANSI)
 48
0.0120907137170434
100
AcDbVertex
100
AcDb2dVertex
 10
32.95820686905265
 20
91.23786628398198
 30
0.0
  0
VERTEX
  5
280
330
274
100
AcDbEntity
  8
Hidden (ANSI)
 48
0.0120907137170434
100
AcDbVertex
100
AcDb2dVertex
 10
32.95737708557171
 20
91.23483254836127
 30
0.0
  0
VERTEX
  5
281
330
274
100
AcDbEntity
  8
Hidden (ANSI)
 48
0.0120907137170434
100
AcDbVertex
100
AcDb2dVertex
 10
32.95658796935432
 20
91.23180482013784
 30
0.0
  0
VERTEX
  5
282
330
274
100
AcDbEntity
  8
Hidden (ANSI)
 48
0.0120907137170434
100
AcDbVertex
100
AcDb2dVertex
 10
32.95584289956142
 20
91.22877108451717
 30
0.0
  0
VERTEX
  5
283
330
274
100
AcDbEntity
  8
Hidden (ANSI)
 48
0.0120907137170434
100
AcDbVertex
100
AcDb2dVertex
 10
32.95514505588965
 20
91.22573734889646
 30
0.0
  0
VERTEX
  5
284
330
274
100
AcDbEntity
  8
Hidden (ANSI)
 48
0.0120907137170434
100
AcDbVertex
100
AcDb2dVertex
 10
32.9544974420376
 20
91.22270361327577
 30
0.0
  0
VERTEX
  5
285
330
274
100
AcDbEntity
  8
Hidden (ANSI)
 48
0.0120907137170434
100
AcDbVertex
100
AcDb2dVertex
 10
32.95390283877317
 20
91.21966987765508
 30
0.0
  0
VERTEX
  5
286
330
274
100
AcDbEntity
  8
Hidden (ANSI)
 48
0.0120907137170434
100
AcDbVertex
100
AcDb2dVertex
 10
32.9533637687339
 20
91.21663614203439
 30
0.0
  0
VERTEX
  5
287
330
274
100
AcDbEntity
  8
Hidden (ANSI)
 48
0.0120907137170434
100
AcDbVertex
100
AcDb2dVertex
 10
32.95288254335972
 20
91.21360240641369
 30
0.0
  0
VERTEX
  5
288
330
274
100
AcDbEntity
  8
Hidden (ANSI)
 48
0.0120907137170434
100
AcDbVertex
100
AcDb2dVertex
 10
32.95246123942666
 20
91.21057467819026
 30
0.0
  0
VERTEX
  5
289
330
274
100
AcDbEntity
  8
Hidden (ANSI)
 48
0.0120907137170434
100
AcDbVertex
100
AcDb2dVertex
 10
32.95210165211397
 20
91.20754094256959
 30
0.0
  0
VERTEX
  5
28A
330
274
100
AcDbEntity
  8
Hidden (ANSI)
 48
0.0120907137170434
100
AcDbVertex
100
AcDb2dVertex
 10
32.95180531847058
 20
91.20450720694888
 30
0.0
  0
VERTEX
  5
28B
330
274
100
AcDbEntity
  8
Hidden (ANSI)
 48
0.0120907137170434
100
AcDbVertex
100
AcDb2dVertex
 10
32.95157350568183
 20
91.20147347132819
 30
0.0
  0
VERTEX
  5
28C
330
274
100
AcDbEntity
  8
Hidden (ANSI)
 48
0.0120907137170434
100
AcDbVertex
100
AcDb2dVertex
 10
32.95140722280275
 20
91.1984397357075
 30
0.0
  0
VERTEX
  5
28D
330
274
100
AcDbEntity
  8
Hidden (ANSI)
 48
0.0120907137170434
100
AcDbVertex
100
AcDb2dVertex
 10
32.95130716209199
 20
91.19540600008681
 30
0.0
  0
VERTEX
  5
28E
330
274
100
AcDbEntity
  8
Hidden (ANSI)
 48
0.0120907137170434
100
AcDbVertex
100
AcDb2dVertex
 10
32.95127375767788
 20
91.1923722644661
 30
0.0
  0
SEQEND
  5
277
330
274
100
AcDbEntity
  8
Hidden (ANSI)
 48
0.0120907137170434
  0
LINE
  5
28F
330
6C
100
AcDbEntity
  8
Hidden (ANSI)
 48
0.0197405889630318
100
AcDbLine
 10
32.95127375955519
 20
31.61915177345486
 30
0.0
 11
32.82627375955519
 21
31.61915177345486
 31
0.0
  0
POLYLINE
  5
290
330
6C
100
AcDbEntity
  8
Hidden (ANSI)
 48
0.0120902173221111
100
AcDb2dPolyline
 66
     1
 10
0.0
 20
0.0
 30
0.0
 70
   128
  0
VERTEX
  5
291
330
290
100
AcDbEntity
  8
Hidden (ANSI)
 48
0.0120902173221111
100
AcDbVertex
100
AcDb2dVertex
 10
32.96687375986532
 20
31.54636342611668
 30
0.0
  0
VERTEX
  5
292
330
290
100
AcDbEntity
  8
Hidden (ANSI)
 48
0.0120902173221111
100
AcDbVertex
100
AcDb2dVertex
 10
32.96585347618506
 20
31.54939627001434
 30
0.0
  0
VERTEX
  5
294
330
290
100
AcDbEntity
  8
Hidden (ANSI)
 48
0.0120902173221111
100
AcDbVertex
100
AcDb2dVertex
 10
32.96483754552118
 20
31.5524291256452
 30
0.0
  0
VERTEX
  5
295
330
290
100
AcDbEntity
  8
Hidden (ANSI)
 48
0.0120902173221111
100
AcDbVertex
100
AcDb2dVertex
 10
32.96383035608965
 20
31.55546196954286
 30
0.0
  0
VERTEX
  5
296
330
290
100
AcDbEntity
  8
Hidden (ANSI)
 48
0.0120902173221111
100
AcDbVertex
100
AcDb2dVertex
 10
32.96283617877447
 20
31.55849481344052
 30
0.0
  0
VERTEX
  5
297
330
290
100
AcDbEntity
  8
Hidden (ANSI)
 48
0.0120902173221111
100
AcDbVertex
100
AcDb2dVertex
 10
32.96185930792603
 20
31.56152766907138
 30
0.0
  0
VERTEX
  5
298
330
290
100
AcDbEntity
  8
Hidden (ANSI)
 48
0.0120902173221111
100
AcDbVertex
100
AcDb2dVertex
 10
32.96090389709635
 20
31.56456051296905
 30
0.0
  0
VERTEX
  5
299
330
290
100
AcDbEntity
  8
Hidden (ANSI)
 48
0.0120902173221111
100
AcDbVertex
100
AcDb2dVertex
 10
32.95997405290466
 20
31.5675933568667
 30
0.0
  0
VERTEX
  5
29A
330
290
100
AcDbEntity
  8
Hidden (ANSI)
 48
0.0120902173221111
100
AcDbVertex
100
AcDb2dVertex
 10
32.9590737646382
 20
31.57062621249757
 30
0.0
  0
VERTEX
  5
29B
330
290
100
AcDbEntity
  8
Hidden (ANSI)
 48
0.0120902173221111
100
AcDbVertex
100
AcDb2dVertex
 10
32.95820686905265
 20
31.57365905639523
 30
0.0
  0
VERTEX
  5
29C
330
290
100
AcDbEntity
  8
Hidden (ANSI)
 48
0.0120902173221111
100
AcDbVertex
100
AcDb2dVertex
 10
32.95737708557171
 20
31.57669190029289
 30
0.0
  0
VERTEX
  5
29D
330
290
100
AcDbEntity
  8
Hidden (ANSI)
 48
0.0120902173221111
100
AcDbVertex
100
AcDb2dVertex
 10
32.95658796935432
 20
31.57972475592375
 30
0.0
  0
VERTEX
  5
29E
330
290
100
AcDbEntity
  8
Hidden (ANSI)
 48
0.0120902173221111
100
AcDbVertex
100
AcDb2dVertex
 10
32.95584289956142
 20
31.58275759982141
 30
0.0
  0
VERTEX
  5
29F
330
290
100
AcDbEntity
  8
Hidden (ANSI)
 48
0.0120902173221111
100
AcDbVertex
100
AcDb2dVertex
 10
32.95514505588965
 20
31.58579044371907
 30
0.0
  0
VERTEX
  5
2A0
330
290
100
AcDbEntity
  8
Hidden (ANSI)
 48
0.0120902173221111
100
AcDbVertex
100
AcDb2dVertex
 10
32.9544974420376
 20
31.58882329934993
 30
0.0
  0
VERTEX
  5
2A1
330
290
100
AcDbEntity
  8
Hidden (ANSI)
 48
0.0120902173221111
100
AcDbVertex
100
AcDb2dVertex
 10
32.95390283877317
 20
31.59185614324759
 30
0.0
  0
VERTEX
  5
2A2
330
290
100
AcDbEntity
  8
Hidden (ANSI)
 48
0.0120902173221111
100
AcDbVertex
100
AcDb2dVertex
 10
32.9533637687339
 20
31.59488898714526
 30
0.0
  0
VERTEX
  5
2A3
330
290
100
AcDbEntity
  8
Hidden (ANSI)
 48
0.0120902173221111
100
AcDbVertex
100
AcDb2dVertex
 10
32.95288254335972
 20
31.59792184277611
 30
0.0
  0
VERTEX
  5
2A4
330
290
100
AcDbEntity
  8
Hidden (ANSI)
 48
0.0120902173221111
100
AcDbVertex
100
AcDb2dVertex
 10
32.95246123942666
 20
31.60095468667378
 30
0.0
  0
VERTEX
  5
2A5
330
290
100
AcDbEntity
  8
Hidden (ANSI)
 48
0.0120902173221111
100
AcDbVertex
100
AcDb2dVertex
 10
32.95210165211397
 20
31.60398754230464
 30
0.0
  0
VERTEX
  5
2A6
330
290
100
AcDbEntity
  8
Hidden (ANSI)
 48
0.0120902173221111
100
AcDbVertex
100
AcDb2dVertex
 10
32.95180531847058
 20
31.6070203862023
 30
0.0
  0
VERTEX
  5
2A7
330
290
100
AcDbEntity
  8
Hidden (ANSI)
 48
0.0120902173221111
100
AcDbVertex
100
AcDb2dVertex
 10
32.95157350568183
 20
31.61005323009996
 30
0.0
  0
VERTEX
  5
2A8
330
290
100
AcDbEntity
  8
Hidden (ANSI)
 48
0.0120902173221111
100
AcDbVertex
100
AcDb2dVertex
 10
32.95140722280275
 20
31.61308607399762
 30
0.0
  0
VERTEX
  5
2A9
330
290
100
AcDbEntity
  8
Hidden (ANSI)
 48
0.0120902173221111
100
AcDbVertex
100
AcDb2dVertex
 10
32.95130716209199
 20
31.61611891789529
 30
0.0
  0
VERTEX
  5
2AA
330
290
100
AcDbEntity
  8
Hidden (ANSI)
 48
0.0120902173221111
100
AcDbVertex
100
AcDb2dVertex
 10
32.95127375767788
 20
31.61915176179295
 30
0.0
  0
SEQEND
  5
293
330
290
100
AcDbEntity
  8
Hidden (ANSI)
 48
0.0120902173221111
  0
LINE
  5
2AB
330
6C
100
AcDbEntity
  8
Hidden (ANSI)
 48
0.0197405889630318
100
AcDbLine
 10
33.0396621072035
 20
31.53076342580654
 30
0.0
 11
33.0396621072035
 21
31.40576342580655
 31
0.0
  0
POLYLINE
  5
2AC
330
6C
100
AcDbEntity
  8
Hidden (ANSI)
 48
0.0120902173221111
100
AcDb2dPolyline
 66
     1
 10
0.0
 20
0.0
 30
0.0
 70
   128
  0
VERTEX
  5
2AD
330
2AC
100
AcDbEntity
  8
Hidden (ANSI)
 48
0.0120902173221111
100
AcDbVertex
100
AcDb2dVertex
 10
32.96687375986532
 20
31.54636342611668
 30
0.0
  0
VERTEX
  5
2AE
330
2AC
100
AcDbEntity
  8
Hidden (ANSI)
 48
0.0120902173221111
100
AcDbVertex
100
AcDb2dVertex
 10
32.96990660376298
 20
31.54534314243641
 30
0.0
  0
VERTEX
  5
2B0
330
2AC
100
AcDbEntity
  8
Hidden (ANSI)
 48
0.0120902173221111
100
AcDbVertex
100
AcDb2dVertex
 10
32.97293945939384
 20
31.54432721177253
 30
0.0
  0
VERTEX
  5
2B1
330
2AC
100
AcDbEntity
  8
Hidden (ANSI)
 48
0.0120902173221111
100
AcDbVertex
100
AcDb2dVertex
 10
32.9759723032915
 20
31.54332002234101
 30
0.0
  0
VERTEX
  5
2B2
330
2AC
100
AcDbEntity
  8
Hidden (ANSI)
 48
0.0120902173221111
100
AcDbVertex
100
AcDb2dVertex
 10
32.97900514718917
 20
31.54232584502583
 30
0.0
  0
VERTEX
  5
2B3
330
2AC
100
AcDbEntity
  8
Hidden (ANSI)
 48
0.0120902173221111
100
AcDbVertex
100
AcDb2dVertex
 10
32.98203800282003
 20
31.54134897417739
 30
0.0
  0
VERTEX
  5
2B4
330
2AC
100
AcDbEntity
  8
Hidden (ANSI)
 48
0.0120902173221111
100
AcDbVertex
100
AcDb2dVertex
 10
32.98507084671769
 20
31.54039356334771
 30
0.0
  0
VERTEX
  5
2B5
330
2AC
100
AcDbEntity
  8
Hidden (ANSI)
 48
0.0120902173221111
100
AcDbVertex
100
AcDb2dVertex
 10
32.98810369061536
 20
31.53946371915602
 30
0.0
  0
VERTEX
  5
2B6
330
2AC
100
AcDbEntity
  8
Hidden (ANSI)
 48
0.0120902173221111
100
AcDbVertex
100
AcDb2dVertex
 10
32.99113654624621
 20
31.53856343088956
 30
0.0
  0
VERTEX
  5
2B7
330
2AC
100
AcDbEntity
  8
Hidden (ANSI)
 48
0.0120902173221111
100
AcDbVertex
100
AcDb2dVertex
 10
32.99416939014387
 20
31.53769653530401
 30
0.0
  0
VERTEX
  5
2B8
330
2AC
100
AcDbEntity
  8
Hidden (ANSI)
 48
0.0120902173221111
100
AcDbVertex
100
AcDb2dVertex
 10
32.99720223404153
 20
31.53686675182307
 30
0.0
  0
VERTEX
  5
2B9
330
2AC
100
AcDbEntity
  8
Hidden (ANSI)
 48
0.0120902173221111
100
AcDbVertex
100
AcDb2dVertex
 10
33.00023508967239
 20
31.53607763560567
 30
0.0
  0
VERTEX
  5
2BA
330
2AC
100
AcDbEntity
  8
Hidden (ANSI)
 48
0.0120902173221111
100
AcDbVertex
100
AcDb2dVertex
 10
33.00326793357005
 20
31.53533256581278
 30
0.0
  0
VERTEX
  5
2BB
330
2AC
100
AcDbEntity
  8
Hidden (ANSI)
 48
0.0120902173221111
100
AcDbVertex
100
AcDb2dVertex
 10
33.00630077746772
 20
31.534634722141
 30
0.0
  0
VERTEX
  5
2BC
330
2AC
100
AcDbEntity
  8
Hidden (ANSI)
 48
0.0120902173221111
100
AcDbVertex
100
AcDb2dVertex
 10
33.00933363309857
 20
31.53398710828896
 30
0.0
  0
VERTEX
  5
2BD
330
2AC
100
AcDbEntity
  8
Hidden (ANSI)
 48
0.0120902173221111
100
AcDbVertex
100
AcDb2dVertex
 10
33.01236647699623
 20
31.53339250502453
 30
0.0
  0
VERTEX
  5
2BE
330
2AC
100
AcDbEntity
  8
Hidden (ANSI)
 48
0.0120902173221111
100
AcDbVertex
100
AcDb2dVertex
 10
33.0153993208939
 20
31.53285343498525
 30
0.0
  0
VERTEX
  5
2BF
330
2AC
100
AcDbEntity
  8
Hidden (ANSI)
 48
0.0120902173221111
100
AcDbVertex
100
AcDb2dVertex
 10
33.01843217652476
 20
31.53237220961107
 30
0.0
  0
VERTEX
  5
2C0
330
2AC
100
AcDbEntity
  8
Hidden (ANSI)
 48
0.0120902173221111
100
AcDbVertex
100
AcDb2dVertex
 10
33.02146502042242
 20
31.53195090567801
 30
0.0
  0
VERTEX
  5
2C1
330
2AC
100
AcDbEntity
  8
Hidden (ANSI)
 48
0.0120902173221111
100
AcDbVertex
100
AcDb2dVertex
 10
33.02449787605328
 20
31.53159131836533
 30
0.0
  0
VERTEX
  5
2C2
330
2AC
100
AcDbEntity
  8
Hidden (ANSI)
 48
0.0120902173221111
100
AcDbVertex
100
AcDb2dVertex
 10
33.02753071995095
 20
31.53129498472193
 30
0.0
  0
VERTEX
  5
2C3
330
2AC
100
AcDbEntity
  8
Hidden (ANSI)
 48
0.0120902173221111
100
AcDbVertex
100
AcDb2dVertex
 10
33.0305635638486
 20
31.53106317193319
 30
0.0
  0
VERTEX
  5
2C4
330
2AC
100
AcDbEntity
  8
Hidden (ANSI)
 48
0.0120902173221111
100
AcDbVertex
100
AcDb2dVertex
 10
33.03359640774627
 20
31.5308968890541
 30
0.0
  0
VERTEX
  5
2C5
330
2AC
100
AcDbEntity
  8
Hidden (ANSI)
 48
0.0120902173221111
100
AcDbVertex
100
AcDb2dVertex
 10
33.03662925164393
 20
31.53079682834335
 30
0.0
  0
VERTEX
  5
2C6
330
2AC
100
AcDbEntity
  8
Hidden (ANSI)
 48
0.0120902173221111
100
AcDbVertex
100
AcDb2dVertex
 10
33.03966209554159
 20
31.53076342392923
 30
0.0
  0
SEQEND
  5
2AF
330
2AC
100
AcDbEntity
  8
Hidden (ANSI)
 48
0.0120902173221111
  0
LINE
  5
2C7
330
6C
100
AcDbEntity
  8
Hidden (ANSI)
 48
0.0197405889630318
100
AcDbLine
 10
88.61288541190686
 20
31.53076342580654
 30
0.0
 11
88.61288541190686
 21
31.40576342580655
 31
0.0
  0
POLYLINE
  5
2C8
330
6C
100
AcDbEntity
  8
Hidden (ANSI)
 48
0.012089810334146
100
AcDb2dPolyline
 66
     1
 10
0.0
 20
0.0
 30
0.0
 70
   128
  0
VERTEX
  5
2C9
330
2C8
100
AcDbEntity
  8
Hidden (ANSI)
 48
0.012089810334146
100
AcDbVertex
100
AcDb2dVertex
 10
88.68567278914424
 20
31.54636342611668
 30
0.0
  0
VERTEX
  5
2CA
330
2C8
100
AcDbEntity
  8
Hidden (ANSI)
 48
0.012089810334146
100
AcDbVertex
100
AcDb2dVertex
 10
88.68263905352355
 20
31.54534314243641
 30
0.0
  0
VERTEX
  5
2CC
330
2C8
100
AcDbEntity
  8
Hidden (ANSI)
 48
0.012089810334146
100
AcDbVertex
100
AcDb2dVertex
 10
88.67960531790286
 20
31.54432721177253
 30
0.0
  0
VERTEX
  5
2CD
330
2C8
100
AcDbEntity
  8
Hidden (ANSI)
 48
0.012089810334146
100
AcDbVertex
100
AcDb2dVertex
 10
88.67657758967943
 20
31.54332002234101
 30
0.0
  0
VERTEX
  5
2CE
330
2C8
100
AcDbEntity
  8
Hidden (ANSI)
 48
0.012089810334146
100
AcDbVertex
100
AcDb2dVertex
 10
88.67354385405873
 20
31.54232584502583
 30
0.0
  0
VERTEX
  5
2CF
330
2C8
100
AcDbEntity
  8
Hidden (ANSI)
 48
0.012089810334146
100
AcDbVertex
100
AcDb2dVertex
 10
88.67051011843805
 20
31.54134897417739
 30
0.0
  0
VERTEX
  5
2D0
330
2C8
100
AcDbEntity
  8
Hidden (ANSI)
 48
0.012089810334146
100
AcDbVertex
100
AcDb2dVertex
 10
88.66747638281736
 20
31.54039356334771
 30
0.0
  0
VERTEX
  5
2D1
330
2C8
100
AcDbEntity
  8
Hidden (ANSI)
 48
0.012089810334146
100
AcDbVertex
100
AcDb2dVertex
 10
88.66444264719666
 20
31.53946371915602
 30
0.0
  0
VERTEX
  5
2D2
330
2C8
100
AcDbEntity
  8
Hidden (ANSI)
 48
0.012089810334146
100
AcDbVertex
100
AcDb2dVertex
 10
88.66140891157597
 20
31.53856343088956
 30
0.0
  0
VERTEX
  5
2D3
330
2C8
100
AcDbEntity
  8
Hidden (ANSI)
 48
0.012089810334146
100
AcDbVertex
100
AcDb2dVertex
 10
88.65837517595528
 20
31.53769653530401
 30
0.0
  0
VERTEX
  5
2D4
330
2C8
100
AcDbEntity
  8
Hidden (ANSI)
 48
0.012089810334146
100
AcDbVertex
100
AcDb2dVertex
 10
88.65534744773185
 20
31.53686675182307
 30
0.0
  0
VERTEX
  5
2D5
330
2C8
100
AcDbEntity
  8
Hidden (ANSI)
 48
0.012089810334146
100
AcDbVertex
100
AcDb2dVertex
 10
88.65231371211114
 20
31.53607763560567
 30
0.0
  0
VERTEX
  5
2D6
330
2C8
100
AcDbEntity
  8
Hidden (ANSI)
 48
0.012089810334146
100
AcDbVertex
100
AcDb2dVertex
 10
88.64927997649045
 20
31.53533256581278
 30
0.0
  0
VERTEX
  5
2D7
330
2C8
100
AcDbEntity
  8
Hidden (ANSI)
 48
0.012089810334146
100
AcDbVertex
100
AcDb2dVertex
 10
88.64624624086976
 20
31.534634722141
 30
0.0
  0
VERTEX
  5
2D8
330
2C8
100
AcDbEntity
  8
Hidden (ANSI)
 48
0.012089810334146
100
AcDbVertex
100
AcDb2dVertex
 10
88.64321250524907
 20
31.53398710828896
 30
0.0
  0
VERTEX
  5
2D9
330
2C8
100
AcDbEntity
  8
Hidden (ANSI)
 48
0.012089810334146
100
AcDbVertex
100
AcDb2dVertex
 10
88.64017876962838
 20
31.53339250502453
 30
0.0
  0
VERTEX
  5
2DA
330
2C8
100
AcDbEntity
  8
Hidden (ANSI)
 48
0.012089810334146
100
AcDbVertex
100
AcDb2dVertex
 10
88.63715104140496
 20
31.53285343498525
 30
0.0
  0
VERTEX
  5
2DB
330
2C8
100
AcDbEntity
  8
Hidden (ANSI)
 48
0.012089810334146
100
AcDbVertex
100
AcDb2dVertex
 10
88.63411730578427
 20
31.53237220961107
 30
0.0
  0
VERTEX
  5
2DC
330
2C8
100
AcDbEntity
  8
Hidden (ANSI)
 48
0.012089810334146
100
AcDbVertex
100
AcDb2dVertex
 10
88.63108357016356
 20
31.53195090567801
 30
0.0
  0
VERTEX
  5
2DD
330
2C8
100
AcDbEntity
  8
Hidden (ANSI)
 48
0.012089810334146
100
AcDbVertex
100
AcDb2dVertex
 10
88.62804983454287
 20
31.53159131836533
 30
0.0
  0
VERTEX
  5
2DE
330
2C8
100
AcDbEntity
  8
Hidden (ANSI)
 48
0.012089810334146
100
AcDbVertex
100
AcDb2dVertex
 10
88.62501609892218
 20
31.53129498472193
 30
0.0
  0
VERTEX
  5
2DF
330
2C8
100
AcDbEntity
  8
Hidden (ANSI)
 48
0.012089810334146
100
AcDbVertex
100
AcDb2dVertex
 10
88.62198236330149
 20
31.53106317193319
 30
0.0
  0
VERTEX
  5
2E0
330
2C8
100
AcDbEntity
  8
Hidden (ANSI)
 48
0.012089810334146
100
AcDbVertex
100
AcDb2dVertex
 10
88.6189486276808
 20
31.5308968890541
 30
0.0
  0
VERTEX
  5
2E1
330
2C8
100
AcDbEntity
  8
Hidden (ANSI)
 48
0.012089810334146
100
AcDbVertex
100
AcDb2dVertex
 10
88.61592089945736
 20
31.53079682834335
 30
0.0
  0
VERTEX
  5
2E2
330
2C8
100
AcDbEntity
  8
Hidden (ANSI)
 48
0.012089810334146
100
AcDbVertex
100
AcDb2dVertex
 10
88.61288716383667
 20
31.53076342392923
 30
0.0
  0
SEQEND
  5
2CB
330
2C8
100
AcDbEntity
  8
Hidden (ANSI)
 48
0.012089810334146
  0
MTEXT
  5
2E4
330
6C
100
AcDbEntity
  8
Symbol (ANSI)
100
AcDbMText
 10
54.93474531930308
 20
24.72729845043855
 30
0.0
 40
1.440000017796914
 41
0.0
 46
0.0
 71
     7
 72
     1
  1
FRONT VIEW
  7
Text Style153
 73
     1
 44
1.0
  0
LINE
  5
2E6
330
6C
100
AcDbEntity
  8
Symbol (ANSI)
370
    30
100
AcDbLine
 10
54.79074494888244
 20
24.43363880193987
 30
0.0
 11
66.36792500031056
 21
24.43363880193987
 31
0.0
  0
POLYLINE
  5
2E7
330
6C
100
AcDbEntity
  8
Visible (ANSI)
100
AcDb2dPolyline
 66
     1
 10
0.0
 20
0.0
 30
0.0
 70
   128
  0
VERTEX
  5
2E8
330
2E7
100
AcDbEntity
  8
Visible (ANSI)
100
AcDbVertex
100
AcDb2dVertex
 10
112.3486866157762
 20
91.26516389717094
 30
0.0
  0
VERTEX
  5
2E9
330
2E7
100
AcDbEntity
  8
Visible (ANSI)
100
AcDbVertex
100
AcDb2dVertex
 10
112.3489876544319
 20
91.26213016155027
 30
0.0
  0
VERTEX
  5
2EB
330
2E7
100
AcDbEntity
  8
Visible (ANSI)
100
AcDbVertex
100
AcDb2dVertex
 10
112.3498894680141
 20
91.25909642592956
 30
0.0
  0
VERTEX
  5
2EC
330
2E7
100
AcDbEntity
  8
Visible (ANSI)
100
AcDbVertex
100
AcDb2dVertex
 10
112.3513882080338
 20
91.25606269030887
 30
0.0
  0
VERTEX
  5
2ED
330
2E7
100
AcDbEntity
  8
Visible (ANSI)
100
AcDbVertex
100
AcDb2dVertex
 10
112.3534774446988
 20
91.25303496208543
 30
0.0
  0
VERTEX
  5
2EE
330
2E7
100
AcDbEntity
  8
Visible (ANSI)
100
AcDbVertex
100
AcDb2dVertex
 10
112.3561482373123
 20
91.25000122646476
 30
0.0
  0
VERTEX
  5
2EF
330
2E7
100
AcDbEntity
  8
Visible (ANSI)
100
AcDbVertex
100
AcDb2dVertex
 10
112.3593891460063
 20
91.24696749084405
 30
0.0
  0
VERTEX
  5
2F0
330
2E7
100
AcDbEntity
  8
Visible (ANSI)
100
AcDbVertex
100
AcDb2dVertex
 10
112.3631863021413
 20
91.24393375522336
 30
0.0
  0
VERTEX
  5
2F1
330
2E7
100
AcDbEntity
  8
Visible (ANSI)
100
AcDbVertex
100
AcDb2dVertex
 10
112.3675234435049
 20
91.24090001960269
 30
0.0
  0
VERTEX
  5
2F2
330
2E7
100
AcDbEntity
  8
Visible (ANSI)
100
AcDbVertex
100
AcDb2dVertex
 10
112.372381984712
 20
91.23786628398198
 30
0.0
  0
VERTEX
  5
2F3
330
2E7
100
AcDbEntity
  8
Visible (ANSI)
100
AcDbVertex
100
AcDb2dVertex
 10
112.3777411345359
 20
91.23483254836127
 30
0.0
  0
VERTEX
  5
2F4
330
2E7
100
AcDbEntity
  8
Visible (ANSI)
100
AcDbVertex
100
AcDb2dVertex
 10
112.3835779369754
 20
91.23180482013784
 30
0.0
  0
VERTEX
  5
2F5
330
2E7
100
AcDbEntity
  8
Visible (ANSI)
100
AcDbVertex
100
AcDb2dVertex
 10
112.3898674003189
 20
91.22877108451717
 30
0.0
  0
VERTEX
  5
2F6
330
2E7
100
AcDbEntity
  8
Visible (ANSI)
100
AcDbVertex
100
AcDb2dVertex
 10
112.3965825910111
 20
91.22573734889646
 30
0.0
  0
VERTEX
  5
2F7
330
2E7
100
AcDbEntity
  8
Visible (ANSI)
100
AcDbVertex
100
AcDb2dVertex
 10
112.4036947568508
 20
91.22270361327577
 30
0.0
  0
VERTEX
  5
2F8
330
2E7
100
AcDbEntity
  8
Visible (ANSI)
100
AcDbVertex
100
AcDb2dVertex
 10
112.4111734384565
 20
91.21966987765508
 30
0.0
  0
VERTEX
  5
2F9
330
2E7
100
AcDbEntity
  8
Visible (ANSI)
100
AcDbVertex
100
AcDb2dVertex
 10
112.4189866159313
 20
91.21663614203439
 30
0.0
  0
VERTEX
  5
2FA
330
2E7
100
AcDbEntity
  8
Visible (ANSI)
100
AcDbVertex
100
AcDb2dVertex
 10
112.427100823262
 20
91.21360240641369
 30
0.0
  0
VERTEX
  5
2FB
330
2E7
100
AcDbEntity
  8
Visible (ANSI)
100
AcDbVertex
100
AcDb2dVertex
 10
112.4354813243163
 20
91.21057467819026
 30
0.0
  0
VERTEX
  5
2FC
330
2E7
100
AcDbEntity
  8
Visible (ANSI)
100
AcDbVertex
100
AcDb2dVertex
 10
112.4440922243092
 20
91.20754094256959
 30
0.0
  0
VERTEX
  5
2FD
330
2E7
100
AcDbEntity
  8
Visible (ANSI)
100
AcDbVertex
100
AcDb2dVertex
 10
112.4528966560663
 20
91.20450720694888
 30
0.0
  0
VERTEX
  5
2FE
330
2E7
100
AcDbEntity
  8
Visible (ANSI)
100
AcDbVertex
100
AcDb2dVertex
 10
112.4618569149566
 20
91.20147347132819
 30
0.0
  0
VERTEX
  5
2FF
330
2E7
100
AcDbEntity
  8
Visible (ANSI)
100
AcDbVertex
100
AcDb2dVertex
 10
112.4709346312234
 20
91.1984397357075
 30
0.0
  0
VERTEX
  5
300
330
2E7
100
AcDbEntity
  8
Visible (ANSI)
100
AcDbVertex
100
AcDb2dVertex
 10
112.480090934249
 20
91.19540600008681
 30
0.0
  0
VERTEX
  5
301
330
2E7
100
AcDbEntity
  8
Visible (ANSI)
100
AcDbVertex
100
AcDb2dVertex
 10
112.4892866146197
 20
91.1923722644661
 30
0.0
  0
SEQEND
  5
2EA
330
2E7
100
AcDbEntity
  8
Visible (ANSI)
  0
POLYLINE
  5
302
330
6C
100
AcDbEntity
  8
Visible (ANSI)
100
AcDb2dPolyline
 66
     1
 10
0.0
 20
0.0
 30
0.0
 70
   128
  0
VERTEX
  5
303
330
302
100
AcDbEntity
  8
Visible (ANSI)
100
AcDbVertex
100
AcDb2dVertex
 10
112.4892866146197
 20
31.61915176179295
 30
0.0
  0
VERTEX
  5
304
330
302
100
AcDbEntity
  8
Visible (ANSI)
100
AcDbVertex
100
AcDb2dVertex
 10
112.480090934249
 20
31.61611891789529
 30
0.0
  0
VERTEX
  5
306
330
302
100
AcDbEntity
  8
Visible (ANSI)
100
AcDbVertex
100
AcDb2dVertex
 10
112.4709346312234
 20
31.61308607399762
 30
0.0
  0
VERTEX
  5
307
330
302
100
AcDbEntity
  8
Visible (ANSI)
100
AcDbVertex
100
AcDb2dVertex
 10
112.4618569149566
 20
31.61005323009996
 30
0.0
  0
VERTEX
  5
308
330
302
100
AcDbEntity
  8
Visible (ANSI)
100
AcDbVertex
100
AcDb2dVertex
 10
112.4528966560663
 20
31.6070203862023
 30
0.0
  0
VERTEX
  5
309
330
302
100
AcDbEntity
  8
Visible (ANSI)
100
AcDbVertex
100
AcDb2dVertex
 10
112.4440922243092
 20
31.60398754230464
 30
0.0
  0
VERTEX
  5
30A
330
302
100
AcDbEntity
  8
Visible (ANSI)
100
AcDbVertex
100
AcDb2dVertex
 10
112.4354813243163
 20
31.60095468667378
 30
0.0
  0
VERTEX
  5
30B
330
302
100
AcDbEntity
  8
Visible (ANSI)
100
AcDbVertex
100
AcDb2dVertex
 10
112.427100823262
 20
31.59792184277611
 30
0.0
  0
VERTEX
  5
30C
330
302
100
AcDbEntity
  8
Visible (ANSI)
100
AcDbVertex
100
AcDb2dVertex
 10
112.4189866159313
 20
31.59488898714526
 30
0.0
  0
VERTEX
  5
30D
330
302
100
AcDbEntity
  8
Visible (ANSI)
100
AcDbVertex
100
AcDb2dVertex
 10
112.4111734384565
 20
31.59185614324759
 30
0.0
  0
VERTEX
  5
30E
330
302
100
AcDbEntity
  8
Visible (ANSI)
100
AcDbVertex
100
AcDb2dVertex
 10
112.4036947568508
 20
31.58882329934993
 30
0.0
  0
VERTEX
  5
30F
330
302
100
AcDbEntity
  8
Visible (ANSI)
100
AcDbVertex
100
AcDb2dVertex
 10
112.3965825910111
 20
31.58579044371907
 30
0.0
  0
VERTEX
  5
310
330
302
100
AcDbEntity
  8
Visible (ANSI)
100
AcDbVertex
100
AcDb2dVertex
 10
112.3898674003189
 20
31.58275759982141
 30
0.0
  0
VERTEX
  5
311
330
302
100
AcDbEntity
  8
Visible (ANSI)
100
AcDbVertex
100
AcDb2dVertex
 10
112.3835779369754
 20
31.57972475592375
 30
0.0
  0
VERTEX
  5
312
330
302
100
AcDbEntity
  8
Visible (ANSI)
100
AcDbVertex
100
AcDb2dVertex
 10
112.3777411345359
 20
31.57669190029289
 30
0.0
  0
VERTEX
  5
313
330
302
100
AcDbEntity
  8
Visible (ANSI)
100
AcDbVertex
100
AcDb2dVertex
 10
112.372381984712
 20
31.57365905639523
 30
0.0
  0
VERTEX
  5
314
330
302
100
AcDbEntity
  8
Visible (ANSI)
100
AcDbVertex
100
AcDb2dVertex
 10
112.3675234435049
 20
31.57062621249757
 30
0.0
  0
VERTEX
  5
315
330
302
100
AcDbEntity
  8
Visible (ANSI)
100
AcDbVertex
100
AcDb2dVertex
 10
112.3631863021413
 20
31.5675933568667
 30
0.0
  0
VERTEX
  5
316
330
302
100
AcDbEntity
  8
Visible (ANSI)
100
AcDbVertex
100
AcDb2dVertex
 10
112.3593891460063
 20
31.56456051296905
 30
0.0
  0
VERTEX
  5
317
330
302
100
AcDbEntity
  8
Visible (ANSI)
100
AcDbVertex
100
AcDb2dVertex
 10
112.3561482373123
 20
31.56152766907138
 30
0.0
  0
VERTEX
  5
318
330
302
100
AcDbEntity
  8
Visible (ANSI)
100
AcDbVertex
100
AcDb2dVertex
 10
112.3534774446988
 20
31.55849481344052
 30
0.0
  0
VERTEX
  5
319
330
302
100
AcDbEntity
  8
Visible (ANSI)
100
AcDbVertex
100
AcDb2dVertex
 10
112.3513882080338
 20
31.55546196954286
 30
0.0
  0
VERTEX
  5
31A
330
302
100
AcDbEntity
  8
Visible (ANSI)
100
AcDbVertex
100
AcDb2dVertex
 10
112.3498894680141
 20
31.5524291256452
 30
0.0
  0
VERTEX
  5
31B
330
302
100
AcDbEntity
  8
Visible (ANSI)
100
AcDbVertex
100
AcDb2dVertex
 10
112.3489876544319
 20
31.54939627001434
 30
0.0
  0
VERTEX
  5
31C
330
302
100
AcDbEntity
  8
Visible (ANSI)
100
AcDbVertex
100
AcDb2dVertex
 10
112.3486866157762
 20
31.54636342611668
 30
0.0
  0
SEQEND
  5
305
330
302
100
AcDbEntity
  8
Visible (ANSI)
  0
LINE
  5
31D
330
6C
100
AcDbEntity
  8
Visible (ANSI)
100
AcDbLine
 10
113.223686613899
 20
31.61915177345488
 30
0.0
 11
112.4892866138989
 21
31.61915177345487
 31
0.0
  0
LINE
  5
31E
330
6C
100
AcDbEntity
  8
Visible (ANSI)
100
AcDbLine
 10
112.442948112588
 20
31.54636342580658
 30
0.0
 11
112.3486866138989
 21
31.54636342580654
 31
0.0
  0
LINE
  5
31F
330
6C
100
AcDbEntity
  8
Visible (ANSI)
100
AcDbLine
 10
112.4736866138989
 20
31.54636342580654
 30
0.0
 11
112.442948112588
 21
31.54636342580658
 31
0.0
  0
POLYLINE
  5
320
330
6C
100
AcDbEntity
  8
Visible (ANSI)
100
AcDb2dPolyline
 66
     1
 10
0.0
 20
0.0
 30
0.0
 70
   128
  0
VERTEX
  5
321
330
320
100
AcDbEntity
  8
Visible (ANSI)
100
AcDbVertex
100
AcDb2dVertex
 10
112.4736866138989
 20
31.54636342611668
 30
0.0
  0
VERTEX
  5
322
330
320
100
AcDbEntity
  8
Visible (ANSI)
100
AcDbVertex
100
AcDb2dVertex
 10
112.4737200146951
 20
31.54939627001434
 30
0.0
  0
VERTEX
  5
324
330
320
100
AcDbEntity
  8
Visible (ANSI)
100
AcDbVertex
100
AcDb2dVertex
 10
112.4738200740623
 20
31.5524291256452
 30
0.0
  0
VERTEX
  5
325
330
320
100
AcDbEntity
  8
Visible (ANSI)
100
AcDbVertex
100
AcDb2dVertex
 10
112.4739863635299
 20
31.55546196954286
 30
0.0
  0
VERTEX
  5
326
330
320
100
AcDbEntity
  8
Visible (ANSI)
100
AcDbVertex
100
AcDb2dVertex
 10
112.474218171025
 20
31.55849481344052
 30
0.0
  0
VERTEX
  5
327
330
320
100
AcDbEntity
  8
Visible (ANSI)
100
AcDbVertex
100
AcDb2dVertex
 10
112.4745145038434
 20
31.56152766907138
 30
0.0
  0
VERTEX
  5
328
330
320
100
AcDbEntity
  8
Visible (ANSI)
100
AcDbVertex
100
AcDb2dVertex
 10
112.4748740931727
 20
31.56456051296905
 30
0.0
  0
VERTEX
  5
329
330
320
100
AcDbEntity
  8
Visible (ANSI)
100
AcDbVertex
100
AcDb2dVertex
 10
112.4752953992141
 20
31.5675933568667
 30
0.0
  0
VERTEX
  5
32A
330
320
100
AcDbEntity
  8
Visible (ANSI)
100
AcDbVertex
100
AcDb2dVertex
 10
112.4757766176216
 20
31.57062621249757
 30
0.0
  0
VERTEX
  5
32B
330
320
100
AcDbEntity
  8
Visible (ANSI)
100
AcDbVertex
100
AcDb2dVertex
 10
112.4763156880276
 20
31.57365905639523
 30
0.0
  0
VERTEX
  5
32C
330
320
100
AcDbEntity
  8
Visible (ANSI)
100
AcDbVertex
100
AcDb2dVertex
 10
112.4769103019252
 20
31.57669190029289
 30
0.0
  0
VERTEX
  5
32D
330
320
100
AcDbEntity
  8
Visible (ANSI)
100
AcDbVertex
100
AcDb2dVertex
 10
112.477557912844
 20
31.57972475592375
 30
0.0
  0
VERTEX
  5
32E
330
320
100
AcDbEntity
  8
Visible (ANSI)
100
AcDbVertex
100
AcDb2dVertex
 10
112.4782557480825
 20
31.58275759982141
 30
0.0
  0
VERTEX
  5
32F
330
320
100
AcDbEntity
  8
Visible (ANSI)
100
AcDbVertex
100
AcDb2dVertex
 10
112.4790008193421
 20
31.58579044371907
 30
0.0
  0
VERTEX
  5
330
330
320
100
AcDbEntity
  8
Visible (ANSI)
100
AcDbVertex
100
AcDb2dVertex
 10
112.4797899355595
 20
31.58882329934993
 30
0.0
  0
VERTEX
  5
331
330
320
100
AcDbEntity
  8
Visible (ANSI)
100
AcDbVertex
100
AcDb2dVertex
 10
112.4806197179404
 20
31.59185614324759
 30
0.0
  0
VERTEX
  5
332
330
320
100
AcDbEntity
  8
Visible (ANSI)
100
AcDbVertex
100
AcDb2dVertex
 10
112.4814866142593
 20
31.59488898714526
 30
0.0
  0
VERTEX
  5
333
330
320
100
AcDbEntity
  8
Visible (ANSI)
100
AcDbVertex
100
AcDb2dVertex
 10
112.4823869105923
 20
31.59792184277611
 30
0.0
  0
VERTEX
  5
334
330
320
100
AcDbEntity
  8
Visible (ANSI)
100
AcDbVertex
100
AcDb2dVertex
 10
112.483316752584
 20
31.60095468667378
 30
0.0
  0
VERTEX
  5
335
330
320
100
AcDbEntity
  8
Visible (ANSI)
100
AcDbVertex
100
AcDb2dVertex
 10
112.4842721582804
 20
31.60398754230464
 30
0.0
  0
VERTEX
  5
336
330
320
100
AcDbEntity
  8
Visible (ANSI)
100
AcDbVertex
100
AcDb2dVertex
 10
112.4852490364621
 20
31.6070203862023
 30
0.0
  0
VERTEX
  5
337
330
320
100
AcDbEntity
  8
Visible (ANSI)
100
AcDbVertex
100
AcDb2dVertex
 10
112.4862432049774
 20
31.61005323009996
 30
0.0
  0
VERTEX
  5
338
330
320
100
AcDbEntity
  8
Visible (ANSI)
100
AcDbVertex
100
AcDb2dVertex
 10
112.4872504046755
 20
31.61308607399762
 30
0.0
  0
VERTEX
  5
339
330
320
100
AcDbEntity
  8
Visible (ANSI)
100
AcDbVertex
100
AcDb2dVertex
 10
112.4882663250728
 20
31.61611891789529
 30
0.0
  0
VERTEX
  5
33A
330
320
100
AcDbEntity
  8
Visible (ANSI)
100
AcDbVertex
100
AcDb2dVertex
 10
112.4892866146197
 20
31.61915176179295
 30
0.0
  0
SEQEND
  5
323
330
320
100
AcDbEntity
  8
Visible (ANSI)
  0
POLYLINE
  5
33B
330
6C
100
AcDbEntity
  8
Visible (ANSI)
100
AcDb2dPolyline
 66
     1
 10
0.0
 20
0.0
 30
0.0
 70
   128
  0
VERTEX
  5
33C
330
33B
100
AcDbEntity
  8
Visible (ANSI)
100
AcDbVertex
100
AcDb2dVertex
 10
112.4736866138989
 20
91.26516389717094
 30
0.0
  0
VERTEX
  5
33D
330
33B
100
AcDbEntity
  8
Visible (ANSI)
100
AcDbVertex
100
AcDb2dVertex
 10
112.4737200146951
 20
91.26213016155027
 30
0.0
  0
VERTEX
  5
33F
330
33B
100
AcDbEntity
  8
Visible (ANSI)
100
AcDbVertex
100
AcDb2dVertex
 10
112.4738200740623
 20
91.25909642592956
 30
0.0
  0
VERTEX
  5
340
330
33B
100
AcDbEntity
  8
Visible (ANSI)
100
AcDbVertex
100
AcDb2dVertex
 10
112.4739863635299
 20
91.25606269030887
 30
0.0
  0
VERTEX
  5
341
330
33B
100
AcDbEntity
  8
Visible (ANSI)
100
AcDbVertex
100
AcDb2dVertex
 10
112.474218171025
 20
91.25303496208543
 30
0.0
  0
VERTEX
  5
342
330
33B
100
AcDbEntity
  8
Visible (ANSI)
100
AcDbVertex
100
AcDb2dVertex
 10
112.4745145038434
 20
91.25000122646476
 30
0.0
  0
VERTEX
  5
343
330
33B
100
AcDbEntity
  8
Visible (ANSI)
100
AcDbVertex
100
AcDb2dVertex
 10
112.4748740931727
 20
91.24696749084405
 30
0.0
  0
VERTEX
  5
344
330
33B
100
AcDbEntity
  8
Visible (ANSI)
100
AcDbVertex
100
AcDb2dVertex
 10
112.4752953992141
 20
91.24393375522336
 30
0.0
  0
VERTEX
  5
345
330
33B
100
AcDbEntity
  8
Visible (ANSI)
100
AcDbVertex
100
AcDb2dVertex
 10
112.4757766176216
 20
91.24090001960269
 30
0.0
  0
VERTEX
  5
346
330
33B
100
AcDbEntity
  8
Visible (ANSI)
100
AcDbVertex
100
AcDb2dVertex
 10
112.4763156880276
 20
91.23786628398198
 30
0.0
  0
VERTEX
  5
347
330
33B
100
AcDbEntity
  8
Visible (ANSI)
100
AcDbVertex
100
AcDb2dVertex
 10
112.4769103019252
 20
91.23483254836127
 30
0.0
  0
VERTEX
  5
348
330
33B
100
AcDbEntity
  8
Visible (ANSI)
100
AcDbVertex
100
AcDb2dVertex
 10
112.477557912844
 20
91.23180482013784
 30
0.0
  0
VERTEX
  5
349
330
33B
100
AcDbEntity
  8
Visible (ANSI)
100
AcDbVertex
100
AcDb2dVertex
 10
112.4782557480825
 20
91.22877108451717
 30
0.0
  0
VERTEX
  5
34A
330
33B
100
AcDbEntity
  8
Visible (ANSI)
100
AcDbVertex
100
AcDb2dVertex
 10
112.4790008193421
 20
91.22573734889646
 30
0.0
  0
VERTEX
  5
34B
330
33B
100
AcDbEntity
  8
Visible (ANSI)
100
AcDbVertex
100
AcDb2dVertex
 10
112.4797899355595
 20
91.22270361327577
 30
0.0
  0
VERTEX
  5
34C
330
33B
100
AcDbEntity
  8
Visible (ANSI)
100
AcDbVertex
100
AcDb2dVertex
 10
112.4806197179404
 20
91.21966987765508
 30
0.0
  0
VERTEX
  5
34D
330
33B
100
AcDbEntity
  8
Visible (ANSI)
100
AcDbVertex
100
AcDb2dVertex
 10
112.4814866142593
 20
91.21663614203439
 30
0.0
  0
VERTEX
  5
34E
330
33B
100
AcDbEntity
  8
Visible (ANSI)
100
AcDbVertex
100
AcDb2dVertex
 10
112.4823869105923
 20
91.21360240641369
 30
0.0
  0
VERTEX
  5
34F
330
33B
100
AcDbEntity
  8
Visible (ANSI)
100
AcDbVertex
100
AcDb2dVertex
 10
112.483316752584
 20
91.21057467819026
 30
0.0
  0
VERTEX
  5
350
330
33B
100
AcDbEntity
  8
Visible (ANSI)
100
AcDbVertex
100
AcDb2dVertex
 10
112.4842721582804
 20
91.20754094256959
 30
0.0
  0
VERTEX
  5
351
330
33B
100
AcDbEntity
  8
Visible (ANSI)
100
AcDbVertex
100
AcDb2dVertex
 10
112.4852490364621
 20
91.20450720694888
 30
0.0
  0
VERTEX
  5
352
330
33B
100
AcDbEntity
  8
Visible (ANSI)
100
AcDbVertex
100
AcDb2dVertex
 10
112.4862432049774
 20
91.20147347132819
 30
0.0
  0
VERTEX
  5
353
330
33B
100
AcDbEntity
  8
Visible (ANSI)
100
AcDbVertex
100
AcDb2dVertex
 10
112.4872504046755
 20
91.1984397357075
 30
0.0
  0
VERTEX
  5
354
330
33B
100
AcDbEntity
  8
Visible (ANSI)
100
AcDbVertex
100
AcDb2dVertex
 10
112.4882663250728
 20
91.19540600008681
 30
0.0
  0
VERTEX
  5
355
330
33B
100
AcDbEntity
  8
Visible (ANSI)
100
AcDbVertex
100
AcDb2dVertex
 10
112.4892866146197
 20
91.1923722644661
 30
0.0
  0
SEQEND
  5
33E
330
33B
100
AcDbEntity
  8
Visible (ANSI)
  0
LINE
  5
356
330
6C
100
AcDbEntity
  8
Visible (ANSI)
100
AcDbLine
 10
112.4736866138989
 20
91.26516342580655
 30
0.0
 11
112.442948112588
 21
91.26516342580652
 31
0.0
  0
LINE
  5
357
330
6C
100
AcDbEntity
  8
Visible (ANSI)
100
AcDbLine
 10
112.442948112588
 20
91.26516342580652
 30
0.0
 11
112.3486866138989
 21
91.26516342580655
 31
0.0
  0
LINE
  5
358
330
6C
100
AcDbEntity
  8
Visible (ANSI)
100
AcDbLine
 10
112.4892866138989
 20
91.19237507815823
 30
0.0
 11
113.2236866138989
 21
91.19237507815823
 31
0.0
  0
POLYLINE
  5
359
330
6C
100
AcDbEntity
  8
Visible (ANSI)
100
AcDb2dPolyline
 66
     1
 10
0.0
 20
0.0
 30
0.0
 70
   128
  0
VERTEX
  5
35A
330
359
100
AcDbEntity
  8
Visible (ANSI)
100
AcDbVertex
100
AcDb2dVertex
 10
112.4892866146196
 20
91.40576102284763
 30
0.0
  0
VERTEX
  5
35B
330
359
100
AcDbEntity
  8
Visible (ANSI)
100
AcDbVertex
100
AcDb2dVertex
 10
112.4800909342489
 20
91.40546065298421
 30
0.0
  0
VERTEX
  5
35D
330
359
100
AcDbEntity
  8
Visible (ANSI)
100
AcDbVertex
100
AcDb2dVertex
 10
112.4709346312233
 20
91.4045595433939
 30
0.0
  0
VERTEX
  5
35E
330
359
100
AcDbEntity
  8
Visible (ANSI)
100
AcDbVertex
100
AcDb2dVertex
 10
112.4618569149566
 20
91.40306370147399
 30
0.0
  0
VERTEX
  5
35F
330
359
100
AcDbEntity
  8
Visible (ANSI)
100
AcDbVertex
100
AcDb2dVertex
 10
112.4528966560662
 20
91.40097312722449
 30
0.0
  0
VERTEX
  5
360
330
359
100
AcDbEntity
  8
Visible (ANSI)
100
AcDbVertex
100
AcDb2dVertex
 10
112.4440922243091
 20
91.3982998354399
 30
0.0
  0
VERTEX
  5
361
330
359
100
AcDbEntity
  8
Visible (ANSI)
100
AcDbVertex
100
AcDb2dVertex
 10
112.4354813243163
 20
91.39506184831208
 30
0.0
  0
VERTEX
  5
362
330
359
100
AcDbEntity
  8
Visible (ANSI)
100
AcDbVertex
100
AcDb2dVertex
 10
112.4271008232619
 20
91.39126517323823
 30
0.0
  0
VERTEX
  5
363
330
359
100
AcDbEntity
  8
Visible (ANSI)
100
AcDbVertex
100
AcDb2dVertex
 10
112.4189866159312
 20
91.38692783241024
 30
0.0
  0
VERTEX
  5
364
330
359
100
AcDbEntity
  8
Visible (ANSI)
100
AcDbVertex
100
AcDb2dVertex
 10
112.4111734384564
 20
91.38206784801989
 30
0.0
  0
VERTEX
  5
365
330
359
100
AcDbEntity
  8
Visible (ANSI)
100
AcDbVertex
100
AcDb2dVertex
 10
112.4036947568508
 20
91.37670924965618
 30
0.0
  0
VERTEX
  5
366
330
359
100
AcDbEntity
  8
Visible (ANSI)
100
AcDbVertex
100
AcDb2dVertex
 10
112.3965825910111
 20
91.37087005951102
 30
0.0
  0
VERTEX
  5
367
330
359
100
AcDbEntity
  8
Visible (ANSI)
100
AcDbVertex
100
AcDb2dVertex
 10
112.3898674003189
 20
91.36458031457069
 30
0.0
  0
VERTEX
  5
368
330
359
100
AcDbEntity
  8
Visible (ANSI)
100
AcDbVertex
100
AcDb2dVertex
 10
112.3835779369753
 20
91.35787005182153
 30
0.0
  0
VERTEX
  5
369
330
359
100
AcDbEntity
  8
Visible (ANSI)
100
AcDbVertex
100
AcDb2dVertex
 10
112.3777411345359
 20
91.3507572934554
 30
0.0
  0
VERTEX
  5
36A
330
359
100
AcDbEntity
  8
Visible (ANSI)
100
AcDbVertex
100
AcDb2dVertex
 10
112.3723819847119
 20
91.34327808385588
 30
0.0
  0
VERTEX
  5
36B
330
359
100
AcDbEntity
  8
Visible (ANSI)
100
AcDbVertex
100
AcDb2dVertex
 10
112.3675234435049
 20
91.3354624600093
 30
0.0
  0
VERTEX
  5
36C
330
359
100
AcDbEntity
  8
Visible (ANSI)
100
AcDbVertex
100
AcDb2dVertex
 10
112.3631863021412
 20
91.32734646629927
 30
0.0
  0
VERTEX
  5
36D
330
359
100
AcDbEntity
  8
Visible (ANSI)
100
AcDbVertex
100
AcDb2dVertex
 10
112.3593891460063
 20
91.31896614710944
 30
0.0
  0
VERTEX
  5
36E
330
359
100
AcDbEntity
  8
Visible (ANSI)
100
AcDbVertex
100
AcDb2dVertex
 10
112.3561482373122
 20
91.3103575468234
 30
0.0
  0
VERTEX
  5
36F
330
359
100
AcDbEntity
  8
Visible (ANSI)
100
AcDbVertex
100
AcDb2dVertex
 10
112.3534774446988
 20
91.30155070242746
 30
0.0
  0
VERTEX
  5
370
330
359
100
AcDbEntity
  8
Visible (ANSI)
100
AcDbVertex
100
AcDb2dVertex
 10
112.3513882080338
 20
91.29259367309982
 30
0.0
  0
VERTEX
  5
371
330
359
100
AcDbEntity
  8
Visible (ANSI)
100
AcDbVertex
100
AcDb2dVertex
 10
112.3498894680141
 20
91.28351649582683
 30
0.0
  0
VERTEX
  5
372
330
359
100
AcDbEntity
  8
Visible (ANSI)
100
AcDbVertex
100
AcDb2dVertex
 10
112.3489876544319
 20
91.27436122238933
 30
0.0
  0
VERTEX
  5
373
330
359
100
AcDbEntity
  8
Visible (ANSI)
100
AcDbVertex
100
AcDb2dVertex
 10
112.3486866157762
 20
91.26516389717094
 30
0.0
  0
SEQEND
  5
35C
330
359
100
AcDbEntity
  8
Visible (ANSI)
  0
LINE
  5
374
330
6C
100
AcDbEntity
  8
Visible (ANSI)
100
AcDbLine
 10
112.4892866138989
 20
91.28076342580657
 30
0.0
 11
113.2236866138989
 21
91.2807634258066
 31
0.0
  0
LINE
  5
375
330
6C
100
AcDbEntity
  8
Visible (ANSI)
100
AcDbLine
 10
113.2236866138989
 20
91.4057634258066
 30
0.0
 11
112.4892866138989
 21
91.40576342580656
 31
0.0
  0
LINE
  5
376
330
6C
100
AcDbEntity
  8
Visible (ANSI)
100
AcDbLine
 10
112.4892866138989
 20
91.28076342580657
 30
0.0
 11
112.4892866138989
 21
91.40576342580656
 31
0.0
  0
LINE
  5
377
330
6C
100
AcDbEntity
  8
Visible (ANSI)
100
AcDbLine
 10
113.2236866138989
 20
91.2807634258066
 30
0.0
 11
113.2236866138989
 21
91.4057634258066
 31
0.0
  0
POLYLINE
  5
378
330
6C
100
AcDbEntity
  8
Visible (ANSI)
100
AcDb2dPolyline
 66
     1
 10
0.0
 20
0.0
 30
0.0
 70
   128
  0
VERTEX
  5
379
330
378
100
AcDbEntity
  8
Visible (ANSI)
100
AcDbVertex
100
AcDb2dVertex
 10
112.4736866138989
 20
91.26516389717094
 30
0.0
  0
VERTEX
  5
37A
330
378
100
AcDbEntity
  8
Visible (ANSI)
100
AcDbVertex
100
AcDb2dVertex
 10
112.4737200146951
 20
91.26618515470665
 30
0.0
  0
VERTEX
  5
37C
330
378
100
AcDbEntity
  8
Visible (ANSI)
100
AcDbVertex
100
AcDb2dVertex
 10
112.4738200740623
 20
91.26720040484505
 30
0.0
  0
VERTEX
  5
37D
330
378
100
AcDbEntity
  8
Visible (ANSI)
100
AcDbVertex
100
AcDb2dVertex
 10
112.4739863635299
 20
91.26820964758618
 30
0.0
  0
VERTEX
  5
37E
330
378
100
AcDbEntity
  8
Visible (ANSI)
100
AcDbVertex
100
AcDb2dVertex
 10
112.474218171025
 20
91.26920086813552
 30
0.0
  0
VERTEX
  5
37F
330
378
100
AcDbEntity
  8
Visible (ANSI)
100
AcDbVertex
100
AcDb2dVertex
 10
112.4745145038434
 20
91.27018007389031
 30
0.0
  0
VERTEX
  5
380
330
378
100
AcDbEntity
  8
Visible (ANSI)
100
AcDbVertex
100
AcDb2dVertex
 10
112.4748740931727
 20
91.27113525005604
 30
0.0
  0
VERTEX
  5
381
330
378
100
AcDbEntity
  8
Visible (ANSI)
100
AcDbVertex
100
AcDb2dVertex
 10
112.4752953992141
 20
91.27206038923544
 30
0.0
  0
VERTEX
  5
382
330
378
100
AcDbEntity
  8
Visible (ANSI)
100
AcDbVertex
100
AcDb2dVertex
 10
112.4757766176216
 20
91.27296149882573
 30
0.0
  0
VERTEX
  5
383
330
378
100
AcDbEntity
  8
Visible (ANSI)
100
AcDbVertex
100
AcDb2dVertex
 10
112.4763156880276
 20
91.27383257142968
 30
0.0
  0
VERTEX
  5
384
330
378
100
AcDbEntity
  8
Visible (ANSI)
100
AcDbVertex
100
AcDb2dVertex
 10
112.4769103019252
 20
91.27466159225276
 30
0.0
  0
VERTEX
  5
385
330
378
100
AcDbEntity
  8
Visible (ANSI)
100
AcDbVertex
100
AcDb2dVertex
 10
112.4775579128439
 20
91.27544856129498
 30
0.0
  0
VERTEX
  5
386
330
378
100
AcDbEntity
  8
Visible (ANSI)
100
AcDbVertex
100
AcDb2dVertex
 10
112.4782557480825
 20
91.27619347855628
 30
0.0
  0
VERTEX
  5
387
330
378
100
AcDbEntity
  8
Visible (ANSI)
100
AcDbVertex
100
AcDb2dVertex
 10
112.479000819342
 20
91.27689033663946
 30
0.0
  0
VERTEX
  5
388
330
378
100
AcDbEntity
  8
Visible (ANSI)
100
AcDbVertex
100
AcDb2dVertex
 10
112.4797899355594
 20
91.27753913554448
 30
0.0
  0
VERTEX
  5
389
330
378
100
AcDbEntity
  8
Visible (ANSI)
100
AcDbVertex
100
AcDb2dVertex
 10
112.4806197179404
 20
91.27813386787408
 30
0.0
  0
VERTEX
  5
38A
330
378
100
AcDbEntity
  8
Visible (ANSI)
100
AcDbVertex
100
AcDb2dVertex
 10
112.4814866142592
 20
91.27867453362828
 30
0.0
  0
VERTEX
  5
38B
330
378
100
AcDbEntity
  8
Visible (ANSI)
100
AcDbVertex
100
AcDb2dVertex
 10
112.4823869105923
 20
91.27915512540976
 30
0.0
  0
VERTEX
  5
38C
330
378
100
AcDbEntity
  8
Visible (ANSI)
100
AcDbVertex
100
AcDb2dVertex
 10
112.483316752584
 20
91.27957564321858
 30
0.0
  0
VERTEX
  5
38D
330
378
100
AcDbEntity
  8
Visible (ANSI)
100
AcDbVertex
100
AcDb2dVertex
 10
112.4842721582804
 20
91.27993608705471
 30
0.0
  0
VERTEX
  5
38E
330
378
100
AcDbEntity
  8
Visible (ANSI)
100
AcDbVertex
100
AcDb2dVertex
 10
112.4852490364621
 20
91.28023044952085
 30
0.0
  0
VERTEX
  5
38F
330
378
100
AcDbEntity
  8
Visible (ANSI)
100
AcDbVertex
100
AcDb2dVertex
 10
112.4862432049774
 20
91.28046473801433
 30
0.0
  0
VERTEX
  5
390
330
378
100
AcDbEntity
  8
Visible (ANSI)
100
AcDbVertex
100
AcDb2dVertex
 10
112.4872504046755
 20
91.28063294513786
 30
0.0
  0
VERTEX
  5
391
330
378
100
AcDbEntity
  8
Visible (ANSI)
100
AcDbVertex
100
AcDb2dVertex
 10
112.4882663250728
 20
91.28072906349418
 30
0.0
  0
VERTEX
  5
392
330
378
100
AcDbEntity
  8
Visible (ANSI)
100
AcDbVertex
100
AcDb2dVertex
 10
112.4892866146196
 20
91.28076510787778
 30
0.0
  0
SEQEND
  5
37B
330
378
100
AcDbEntity
  8
Visible (ANSI)
  0
POLYLINE
  5
393
330
6C
100
AcDbEntity
  8
Visible (ANSI)
100
AcDb2dPolyline
 66
     1
 10
0.0
 20
0.0
 30
0.0
 70
   128
  0
VERTEX
  5
394
330
393
100
AcDbEntity
  8
Visible (ANSI)
100
AcDbVertex
100
AcDb2dVertex
 10
112.3486866157762
 20
31.54636342611668
 30
0.0
  0
VERTEX
  5
395
330
393
100
AcDbEntity
  8
Visible (ANSI)
100
AcDbVertex
100
AcDb2dVertex
 10
112.3489876544319
 20
31.53716774354599
 30
0.0
  0
VERTEX
  5
397
330
393
100
AcDbEntity
  8
Visible (ANSI)
100
AcDbVertex
100
AcDb2dVertex
 10
112.3498894680141
 20
31.52801143758708
 30
0.0
  0
VERTEX
  5
398
330
393
100
AcDbEntity
  8
Visible (ANSI)
100
AcDbVertex
100
AcDb2dVertex
 10
112.3513882080338
 20
31.51893373232017
 30
0.0
  0
VERTEX
  5
399
330
393
100
AcDbEntity
  8
Visible (ANSI)
100
AcDbVertex
100
AcDb2dVertex
 10
112.3534774446988
 20
31.50997346462995
 30
0.0
  0
VERTEX
  5
39A
330
393
100
AcDbEntity
  8
Visible (ANSI)
100
AcDbVertex
100
AcDb2dVertex
 10
112.3561482373122
 20
31.50116903727278
 30
0.0
  0
VERTEX
  5
39B
330
393
100
AcDbEntity
  8
Visible (ANSI)
100
AcDbVertex
100
AcDb2dVertex
 10
112.3593891460063
 20
31.49255813727997
 30
0.0
  0
VERTEX
  5
39C
330
393
100
AcDbEntity
  8
Visible (ANSI)
100
AcDbVertex
100
AcDb2dVertex
 10
112.3631863021412
 20
31.48417763622556
 30
0.0
  0
VERTEX
  5
39D
330
393
100
AcDbEntity
  8
Visible (ANSI)
100
AcDbVertex
100
AcDb2dVertex
 10
112.3675234435049
 20
31.47606342596161
 30
0.0
  0
VERTEX
  5
39E
330
393
100
AcDbEntity
  8
Visible (ANSI)
100
AcDbVertex
100
AcDb2dVertex
 10
112.3723819847119
 20
31.46825024848677
 30
0.0
  0
VERTEX
  5
39F
330
393
100
AcDbEntity
  8
Visible (ANSI)
100
AcDbVertex
100
AcDb2dVertex
 10
112.3777411345359
 20
31.46077156688114
 30
0.0
  0
VERTEX
  5
3A0
330
393
100
AcDbEntity
  8
Visible (ANSI)
100
AcDbVertex
100
AcDb2dVertex
 10
112.3835779369753
 20
31.45365940397478
 30
0.0
  0
VERTEX
  5
3A1
330
393
100
AcDbEntity
  8
Visible (ANSI)
100
AcDbVertex
100
AcDb2dVertex
 10
112.3898674003189
 20
31.44694421328257
 30
0.0
  0
VERTEX
  5
3A2
330
393
100
AcDbEntity
  8
Visible (ANSI)
100
AcDbVertex
100
AcDb2dVertex
 10
112.3965825910111
 20
31.440654749939
 30
0.0
  0
VERTEX
  5
3A3
330
393
100
AcDbEntity
  8
Visible (ANSI)
100
AcDbVertex
100
AcDb2dVertex
 10
112.4036947568508
 20
31.43481794749957
 30
0.0
  0
VERTEX
  5
3A4
330
393
100
AcDbEntity
  8
Visible (ANSI)
100
AcDbVertex
100
AcDb2dVertex
 10
112.4111734384564
 20
31.42945879767559
 30
0.0
  0
VERTEX
  5
3A5
330
393
100
AcDbEntity
  8
Visible (ANSI)
100
AcDbVertex
100
AcDb2dVertex
 10
112.4189866159312
 20
31.42460025353524
 30
0.0
  0
VERTEX
  5
3A6
330
393
100
AcDbEntity
  8
Visible (ANSI)
100
AcDbVertex
100
AcDb2dVertex
 10
112.4271008232619
 20
31.4202631180382
 30
0.0
  0
VERTEX
  5
3A7
330
393
100
AcDbEntity
  8
Visible (ANSI)
100
AcDbVertex
100
AcDb2dVertex
 10
112.4354813243163
 20
31.41646596336992
 30
0.0
  0
VERTEX
  5
3A8
330
393
100
AcDbEntity
  8
Visible (ANSI)
100
AcDbVertex
100
AcDb2dVertex
 10
112.4440922243091
 20
31.41322504954257
 30
0.0
  0
VERTEX
  5
3A9
330
393
100
AcDbEntity
  8
Visible (ANSI)
100
AcDbVertex
100
AcDb2dVertex
 10
112.4528966560662
 20
31.41055425472915
 30
0.0
  0
VERTEX
  5
3AA
330
393
100
AcDbEntity
  8
Visible (ANSI)
100
AcDbVertex
100
AcDb2dVertex
 10
112.4618569149566
 20
31.40846501531422
 30
0.0
  0
VERTEX
  5
3AB
330
393
100
AcDbEntity
  8
Visible (ANSI)
100
AcDbVertex
100
AcDb2dVertex
 10
112.4709346312233
 20
31.40696627831943
 30
0.0
  0
VERTEX
  5
3AC
330
393
100
AcDbEntity
  8
Visible (ANSI)
100
AcDbVertex
100
AcDb2dVertex
 10
112.4800909342489
 20
31.40606446120813
 30
0.0
  0
VERTEX
  5
3AD
330
393
100
AcDbEntity
  8
Visible (ANSI)
100
AcDbVertex
100
AcDb2dVertex
 10
112.4892866146196
 20
31.40576342580655
 30
0.0
  0
SEQEND
  5
396
330
393
100
AcDbEntity
  8
Visible (ANSI)
  0
LINE
  5
3AE
330
6C
100
AcDbEntity
  8
Visible (ANSI)
100
AcDbLine
 10
112.4892866138988
 20
31.53076342580654
 30
0.0
 11
113.2236866138989
 21
31.53076342580654
 31
0.0
  0
LINE
  5
3AF
330
6C
100
AcDbEntity
  8
Visible (ANSI)
100
AcDbLine
 10
112.4892866138988
 20
31.53076342580654
 30
0.0
 11
112.4892866138988
 21
31.40576342580655
 31
0.0
  0
POLYLINE
  5
3B0
330
6C
100
AcDbEntity
  8
Visible (ANSI)
100
AcDb2dPolyline
 66
     1
 10
0.0
 20
0.0
 30
0.0
 70
   128
  0
VERTEX
  5
3B1
330
3B0
100
AcDbEntity
  8
Visible (ANSI)
100
AcDbVertex
100
AcDb2dVertex
 10
112.4736866138989
 20
31.54636342611668
 30
0.0
  0
VERTEX
  5
3B2
330
3B0
100
AcDbEntity
  8
Visible (ANSI)
100
AcDbVertex
100
AcDb2dVertex
 10
112.4737200146951
 20
31.54534314243641
 30
0.0
  0
VERTEX
  5
3B4
330
3B0
100
AcDbEntity
  8
Visible (ANSI)
100
AcDbVertex
100
AcDb2dVertex
 10
112.4738200740623
 20
31.54432721177253
 30
0.0
  0
VERTEX
  5
3B5
330
3B0
100
AcDbEntity
  8
Visible (ANSI)
100
AcDbVertex
100
AcDb2dVertex
 10
112.4739863635299
 20
31.54332002234101
 30
0.0
  0
VERTEX
  5
3B6
330
3B0
100
AcDbEntity
  8
Visible (ANSI)
100
AcDbVertex
100
AcDb2dVertex
 10
112.474218171025
 20
31.54232584502583
 30
0.0
  0
VERTEX
  5
3B7
330
3B0
100
AcDbEntity
  8
Visible (ANSI)
100
AcDbVertex
100
AcDb2dVertex
 10
112.4745145038434
 20
31.54134897417739
 30
0.0
  0
VERTEX
  5
3B8
330
3B0
100
AcDbEntity
  8
Visible (ANSI)
100
AcDbVertex
100
AcDb2dVertex
 10
112.4748740931727
 20
31.54039356334771
 30
0.0
  0
VERTEX
  5
3B9
330
3B0
100
AcDbEntity
  8
Visible (ANSI)
100
AcDbVertex
100
AcDb2dVertex
 10
112.4752953992141
 20
31.53946371915602
 30
0.0
  0
VERTEX
  5
3BA
330
3B0
100
AcDbEntity
  8
Visible (ANSI)
100
AcDbVertex
100
AcDb2dVertex
 10
112.4757766176216
 20
31.53856343088956
 30
0.0
  0
VERTEX
  5
3BB
330
3B0
100
AcDbEntity
  8
Visible (ANSI)
100
AcDbVertex
100
AcDb2dVertex
 10
112.4763156880276
 20
31.53769653530401
 30
0.0
  0
VERTEX
  5
3BC
330
3B0
100
AcDbEntity
  8
Visible (ANSI)
100
AcDbVertex
100
AcDb2dVertex
 10
112.4769103019252
 20
31.53686675182307
 30
0.0
  0
VERTEX
  5
3BD
330
3B0
100
AcDbEntity
  8
Visible (ANSI)
100
AcDbVertex
100
AcDb2dVertex
 10
112.4775579128439
 20
31.53607763560567
 30
0.0
  0
VERTEX
  5
3BE
330
3B0
100
AcDbEntity
  8
Visible (ANSI)
100
AcDbVertex
100
AcDb2dVertex
 10
112.4782557480825
 20
31.53533256581278
 30
0.0
  0
VERTEX
  5
3BF
330
3B0
100
AcDbEntity
  8
Visible (ANSI)
100
AcDbVertex
100
AcDb2dVertex
 10
112.479000819342
 20
31.534634722141
 30
0.0
  0
VERTEX
  5
3C0
330
3B0
100
AcDbEntity
  8
Visible (ANSI)
100
AcDbVertex
100
AcDb2dVertex
 10
112.4797899355594
 20
31.53398710828896
 30
0.0
  0
VERTEX
  5
3C1
330
3B0
100
AcDbEntity
  8
Visible (ANSI)
100
AcDbVertex
100
AcDb2dVertex
 10
112.4806197179404
 20
31.53339250502453
 30
0.0
  0
VERTEX
  5
3C2
330
3B0
100
AcDbEntity
  8
Visible (ANSI)
100
AcDbVertex
100
AcDb2dVertex
 10
112.4814866142592
 20
31.53285343498525
 30
0.0
  0
VERTEX
  5
3C3
330
3B0
100
AcDbEntity
  8
Visible (ANSI)
100
AcDbVertex
100
AcDb2dVertex
 10
112.4823869105923
 20
31.53237220961107
 30
0.0
  0
VERTEX
  5
3C4
330
3B0
100
AcDbEntity
  8
Visible (ANSI)
100
AcDbVertex
100
AcDb2dVertex
 10
112.483316752584
 20
31.53195090567801
 30
0.0
  0
VERTEX
  5
3C5
330
3B0
100
AcDbEntity
  8
Visible (ANSI)
100
AcDbVertex
100
AcDb2dVertex
 10
112.4842721582804
 20
31.53159131836533
 30
0.0
  0
VERTEX
  5
3C6
330
3B0
100
AcDbEntity
  8
Visible (ANSI)
100
AcDbVertex
100
AcDb2dVertex
 10
112.4852490364621
 20
31.53129498472193
 30
0.0
  0
VERTEX
  5
3C7
330
3B0
100
AcDbEntity
  8
Visible (ANSI)
100
AcDbVertex
100
AcDb2dVertex
 10
112.4862432049774
 20
31.53106317193319
 30
0.0
  0
VERTEX
  5
3C8
330
3B0
100
AcDbEntity
  8
Visible (ANSI)
100
AcDbVertex
100
AcDb2dVertex
 10
112.4872504046755
 20
31.5308968890541
 30
0.0
  0
VERTEX
  5
3C9
330
3B0
100
AcDbEntity
  8
Visible (ANSI)
100
AcDbVertex
100
AcDb2dVertex
 10
112.4882663250728
 20
31.53079682834335
 30
0.0
  0
VERTEX
  5
3CA
330
3B0
100
AcDbEntity
  8
Visible (ANSI)
100
AcDbVertex
100
AcDb2dVertex
 10
112.4892866146196
 20
31.53076342392923
 30
0.0
  0
SEQEND
  5
3B3
330
3B0
100
AcDbEntity
  8
Visible (ANSI)
  0
LINE
  5
3CB
330
6C
100
AcDbEntity
  8
Visible (ANSI)
100
AcDbLine
 10
112.4892866138988
 20
31.40576342580655
 30
0.0
 11
113.2236866138989
 21
31.40576342580655
 31
0.0
  0
LINE
  5
3CC
330
6C
100
AcDbEntity
  8
Visible (ANSI)
100
AcDbLine
 10
113.2236866138989
 20
31.53076342580654
 30
0.0
 11
113.2236866138989
 21
31.40576342580655
 31
0.0
  0
LINE
  5
3CD
330
6C
100
AcDbEntity
  8
Visible (ANSI)
100
AcDbLine
 10
112.3486866138989
 20
31.54636342580654
 30
0.0
 11
112.3486866138989
 21
91.26516342580655
 31
0.0
  0
LINE
  5
3CE
330
6C
100
AcDbEntity
  8
Hidden (ANSI)
 48
1.094376325607299
100
AcDbLine
 10
112.4736866138989
 20
91.26516342580655
 30
0.0
 11
112.4736866138989
 21
31.54636342580655
 31
0.0
  0
LINE
  5
3CF
330
6C
100
AcDbEntity
  8
Visible (ANSI)
100
AcDbLine
 10
113.2236866138989
 20
91.19237507815823
 30
0.0
 11
113.223686613899
 21
31.61915177345488
 31
0.0
  0
LINE
  5
3D0
330
6C
100
AcDbEntity
  8
Hidden (ANSI)
 48
0.0197405889630318
100
AcDbLine
 10
112.4736866138987
 20
61.12426342580655
 30
0.0
 11
112.3486866138987
 21
61.12426342580655
 31
0.0
  0
LINE
  5
3D1
330
6C
100
AcDbEntity
  8
Hidden (ANSI)
 48
0.0197405889630318
100
AcDbLine
 10
112.4736866138987
 20
61.68726342580656
 30
0.0
 11
112.3486866138987
 21
61.68726342580656
 31
0.0
  0
LINE
  5
3D2
330
6C
100
AcDbEntity
  8
Hidden (ANSI)
 48
0.0197405889630318
100
AcDbLine
 10
112.4736866138987
 20
90.24926342580652
 30
0.0
 11
112.3486866138987
 21
90.24926342580652
 31
0.0
  0
LINE
  5
3D3
330
6C
100
AcDbEntity
  8
Hidden (ANSI)
 48
0.0197405889630318
100
AcDbLine
 10
112.4736866138987
 20
90.81226342580652
 30
0.0
 11
112.3486866138987
 21
90.81226342580652
 31
0.0
  0
LINE
  5
3D4
330
6C
100
AcDbEntity
  8
Hidden (ANSI)
 48
0.0197405889630318
100
AcDbLine
 10
112.4736866138987
 20
31.99926342580655
 30
0.0
 11
112.3486866138987
 21
31.99926342580655
 31
0.0
  0
LINE
  5
3D5
330
6C
100
AcDbEntity
  8
Hidden (ANSI)
 48
0.0197405889630318
100
AcDbLine
 10
112.4736866138987
 20
32.56226342580654
 30
0.0
 11
112.3486866138987
 21
32.56226342580654
 31
0.0
  0
MTEXT
  5
3D6
330
6C
100
AcDbEntity
  8
Symbol (ANSI)
100
AcDbMText
 10
108.4882414225495
 20
25.47745028690407
 30
0.0
 40
1.440000017796914
 41
0.0
 46
0.0
 71
     7
 72
     1
  1
SIDE VIEW
  7
Text Style153
 73
     1
 44
1.0
  0
LINE
  5
3D7
330
6C
100
AcDbEntity
  8
Symbol (ANSI)
370
    30
100
AcDbLine
 10
108.4145132328941
 20
25.17912289292759
 30
0.0
 11
118.1455990777601
 21
25.17912289292759
 31
0.0
  0
ELLIPSE
  5
3D8
330
6C
100
AcDbEntity
  8
Visible (ANSI)
100
AcDbEllipse
 10
154.9086776867566
 20
37.41022560098752
 30
0.0
 11
-0.1404775675610101
 21
0.2439432372748665
 31
0.0
210
0.0
220
0.0
230
0.9999999999999998
 40
0.5780931159158092
 41
0.0
 42
6.283185307179586
  0
ELLIPSE
  5
3D9
330
6C
100
AcDbEntity
  8
Visible (ANSI)
100
AcDbEllipse
 10
154.9970660344049
 20
37.46112506521157
 30
0.0
 11
-0.1404775675610103
 21
0.2439432372748667
 31
0.0
210
0.0
220
0.0
230
0.9999999999999998
 40
0.5780931159158092
 41
0.3187556839589368
 42
2.822836969631009
  0
ELLIPSE
  5
3DA
330
6C
100
AcDbEntity
  8
Visible (ANSI)
100
AcDbEllipse
 10
154.9086776867567
 20
85.03234562306531
 30
0.0
 11
-0.1404775675610101
 21
0.2439432372748665
 31
0.0
210
0.0
220
0.0
230
0.9999999999999998
 40
0.5780931159158092
 41
0.0
 42
6.283185307179586
  0
ELLIPSE
  5
3DB
330
6C
100
AcDbEntity
  8
Visible (ANSI)
100
AcDbEllipse
 10
154.997066034405
 20
85.08324508728934
 30
0.0
 11
-0.1404775675610102
 21
0.2439432372748665
 31
0.0
210
0.0
220
0.0
230
1.0
 40
0.578093115915809
 41
0.3187556839589043
 42
2.822836969631026
  0
ELLIPSE
  5
3DC
330
6C
100
AcDbEntity
  8
Visible (ANSI)
100
AcDbEllipse
 10
174.0889491264445
 20
50.17610187541091
 30
0.0
 11
-0.1404775675610101
 21
0.2439432372748665
 31
0.0
210
0.0
220
0.0
230
0.9999999999999998
 40
0.5780931159158092
 41
0.0
 42
6.283185307179586
  0
ELLIPSE
  5
3DD
330
6C
100
AcDbEntity
  8
Visible (ANSI)
100
AcDbEllipse
 10
174.1773374740929
 20
50.22700133963496
 30
0.0
 11
-0.1404775675610101
 21
0.2439432372748664
 31
0.0
210
0.0
220
0.0
230
0.9999999999999998
 40
0.578093115915809
 41
0.3187556839589369
 42
2.822836969631026
  0
ELLIPSE
  5
3DE
330
6C
100
AcDbEntity
  8
Visible (ANSI)
100
AcDbEllipse
 10
135.7284062470687
 20
72.26646934864196
 30
0.0
 11
-0.1404775675610101
 21
0.2439432372748665
 31
0.0
210
0.0
220
0.0
230
0.9999999999999998
 40
0.5780931159158092
 41
0.0
 42
6.283185307179586
  0
ELLIPSE
  5
3DF
330
6C
100
AcDbEntity
  8
Visible (ANSI)
100
AcDbEllipse
 10
135.816794594717
 20
72.317368812866
 30
0.0
 11
-0.1404775675610101
 21
0.2439432372748663
 31
0.0
210
0.0
220
0.0
230
1.0
 40
0.5780931159158092
 41
0.3187556839589364
 42
2.822836969630821
  0
ELLIPSE
  5
3E0
330
6C
100
AcDbEntity
  8
Visible (ANSI)
100
AcDbEllipse
 10
174.0889491264446
 20
73.98716188644977
 30
0.0
 11
-0.1404775675610101
 21
0.2439432372748665
 31
0.0
210
0.0
220
0.0
230
0.9999999999999998
 40
0.5780931159158092
 41
0.0
 42
6.283185307179586
  0
ELLIPSE
  5
3E1
330
6C
100
AcDbEntity
  8
Visible (ANSI)
100
AcDbEllipse
 10
174.1773374740929
 20
74.03806135067383
 30
0.0
 11
-0.1404775675610101
 21
0.2439432372748664
 31
0.0
210
0.0
220
0.0
230
0.9999999999999998
 40
0.578093115915809
 41
0.3187556839589369
 42
2.822836969631026
  0
ELLIPSE
  5
3E2
330
6C
100
AcDbEntity
  8
Visible (ANSI)
100
AcDbEllipse
 10
135.7284062470687
 20
96.07752935968084
 30
0.0
 11
-0.1404775675610101
 21
0.2439432372748665
 31
0.0
210
0.0
220
0.0
230
0.9999999999999998
 40
0.5780931159158092
 41
0.0
 42
6.283185307179586
  0
ELLIPSE
  5
3E3
330
6C
100
AcDbEntity
  8
Visible (ANSI)
100
AcDbEllipse
 10
135.8167945947171
 20
96.12842882390488
 30
0.0
 11
-0.1404775675610082
 21
0.2439432372748632
 31
0.0
210
0.0
220
0.0
230
0.9999999999999998
 40
0.5780931159158092
 41
0.3187556839589693
 42
2.822836969630837
  0
ELLIPSE
  5
3E4
330
6C
100
AcDbEntity
  8
Visible (ANSI)
100
AcDbEllipse
 10
135.7284062470686
 20
48.45540933760308
 30
0.0
 11
-0.1404775675610101
 21
0.2439432372748665
 31
0.0
210
0.0
220
0.0
230
0.9999999999999998
 40
0.5780931159158092
 41
0.0
 42
6.283185307179586
  0
ELLIPSE
  5
3E5
330
6C
100
AcDbEntity
  8
Visible (ANSI)
100
AcDbEllipse
 10
135.8167945947169
 20
48.50630880182713
 30
0.0
 11
-0.1404775675610101
 21
0.2439432372748664
 31
0.0
210
0.0
220
0.0
230
1.0
 40
0.5780931159158093
 41
0.318755683958936
 42
2.82283696963082
  0
ELLIPSE
  5
3E6
330
6C
100
AcDbEntity
  8
Visible (ANSI)
100
AcDbEllipse
 10
174.0889491264445
 20
26.36504186437203
 30
0.0
 11
-0.1404775675610101
 21
0.2439432372748665
 31
0.0
210
0.0
220
0.0
230
0.9999999999999998
 40
0.5780931159158092
 41
0.0
 42
6.283185307179586
  0
ELLIPSE
  5
3E7
330
6C
100
AcDbEntity
  8
Visible (ANSI)
100
AcDbEllipse
 10
174.1773374740928
 20
26.41594132859608
 30
0.0
 11
-0.1404775675610109
 21
0.2439432372748678
 31
0.0
210
0.0
220
0.0
230
0.9999999999999998
 40
0.5780931159158093
 41
0.3187556839589201
 42
2.822836969631008
  0
LINE
  5
3E8
330
6C
100
AcDbEntity
  8
Visible Narrow (ANSI)
100
AcDbLine
 10
174.8070867734177
 20
74.22901605838321
 30
0.0
 11
174.8070867734177
 21
25.52509862802055
 31
0.0
  0
LINE
  5
3E9
330
6C
100
AcDbEntity
  8
Visible Narrow (ANSI)
100
AcDbLine
 10
174.608248346548
 20
25.46559072367859
 30
0.0
 11
174.6082483465481
 21
74.28852396272509
 31
0.0
  0
LINE
  5
3EA
330
6C
100
AcDbEntity
  8
Visible Narrow (ANSI)
100
AcDbLine
 10
135.3599953746136
 20
97.11954024030987
 30
0.0
 11
174.6561984257694
 21
74.4903619090136
 31
0.0
  0
LINE
  5
3EB
330
6C
100
AcDbEntity
  8
Visible Narrow (ANSI)
100
AcDbLine
 10
174.6082483465481
 20
74.28852396272509
 30
0.0
 11
135.2091070269653
 21
96.97698050037425
 31
0.0
  0
LINE
  5
3EC
330
6C
100
AcDbEntity
  8
Visible Narrow (ANSI)
100
AcDbLine
 10
135.2091070269653
 20
96.97698050037425
 30
0.0
 11
135.2091070269652
 21
48.15404726132777
 31
0.0
  0
LINE
  5
3ED
330
6C
100
AcDbEntity
  8
Visible Narrow (ANSI)
100
AcDbLine
 10
135.2091070269652
 20
48.15404726132777
 30
0.0
 11
174.608248346548
 21
25.46559072367859
 31
0.0
  0
LINE
  5
3EE
330
6C
100
AcDbEntity
  8
Visible (ANSI)
100
AcDbLine
 10
135.1679262404001
 20
97.00447826556251
 30
0.0
 11
135.1679262404
 21
48.24105293085793
 31
0.0
  0
LINE
  5
3EF
330
6C
100
AcDbEntity
  8
Visible (ANSI)
100
AcDbLine
 10
135.2641602389674
 20
48.0746013091436
 30
0.0
 11
174.6117057035179
 21
25.41585684833712
 31
0.0
  0
POLYLINE
  5
3F0
330
6C
100
AcDbEntity
  8
Visible (ANSI)
100
AcDb2dPolyline
 66
     1
 10
0.0
 20
0.0
 30
0.0
 70
   128
  0
VERTEX
  5
3F1
330
3F0
100
AcDbEntity
  8
Visible (ANSI)
100
AcDbVertex
100
AcDb2dVertex
 10
174.6082476616914
 20
74.28852474399931
 30
0.0
  0
VERTEX
  5
3F2
330
3F0
100
AcDbEntity
  8
Visible (ANSI)
100
AcDbVertex
100
AcDb2dVertex
 10
174.614964019197
 20
74.2824219924081
 30
0.0
  0
VERTEX
  5
3F4
330
3F0
100
AcDbEntity
  8
Visible (ANSI)
100
AcDbVertex
100
AcDb2dVertex
 10
174.6220754536276
 20
74.27658099709683
 30
0.0
  0
VERTEX
  5
3F5
330
3F0
100
AcDbEntity
  8
Visible (ANSI)
100
AcDbVertex
100
AcDb2dVertex
 10
174.6295537564626
 20
74.27101486809583
 30
0.0
  0
VERTEX
  5
3F6
330
3F0
100
AcDbEntity
  8
Visible (ANSI)
100
AcDbVertex
100
AcDb2dVertex
 10
174.637368893924
 20
74.26574057567009
 30
0.0
  0
VERTEX
  5
3F7
330
3F0
100
AcDbEntity
  8
Visible (ANSI)
100
AcDbVertex
100
AcDb2dVertex
 10
174.645480561014
 20
74.26076422603684
 30
0.0
  0
VERTEX
  5
3F8
330
3F0
100
AcDbEntity
  8
Visible (ANSI)
100
AcDbVertex
100
AcDb2dVertex
 10
174.6538636770389
 20
74.25609585700698
 30
0.0
  0
VERTEX
  5
3F9
330
3F0
100
AcDbEntity
  8
Visible (ANSI)
100
AcDbVertex
100
AcDb2dVertex
 10
174.6624744524188
 20
74.25174939082118
 30
0.0
  0
VERTEX
  5
3FA
330
3F0
100
AcDbEntity
  8
Visible (ANSI)
100
AcDbVertex
100
AcDb2dVertex
 10
174.6712759008051
 20
74.24773288269489
 30
0.0
  0
VERTEX
  5
3FB
330
3F0
100
AcDbEntity
  8
Visible (ANSI)
100
AcDbVertex
100
AcDb2dVertex
 10
174.6802378888604
 20
74.2440485494845
 30
0.0
  0
VERTEX
  5
3FC
330
3F0
100
AcDbEntity
  8
Visible (ANSI)
100
AcDbVertex
100
AcDb2dVertex
 10
174.6893159798681
 20
74.24070504839669
 30
0.0
  0
VERTEX
  5
3FD
330
3F0
100
AcDbEntity
  8
Visible (ANSI)
100
AcDbVertex
100
AcDb2dVertex
 10
174.6984727021271
 20
74.23771017410847
 30
0.0
  0
VERTEX
  5
3FE
330
3F0
100
AcDbEntity
  8
Visible (ANSI)
100
AcDbVertex
100
AcDb2dVertex
 10
174.7076691444721
 20
74.23505615837351
 30
0.0
  0
VERTEX
  5
3FF
330
3F0
100
AcDbEntity
  8
Visible (ANSI)
100
AcDbVertex
100
AcDb2dVertex
 10
174.7168650226468
 20
74.23274917622591
 30
0.0
  0
VERTEX
  5
400
330
3F0
100
AcDbEntity
  8
Visible (ANSI)
100
AcDbVertex
100
AcDb2dVertex
 10
174.7260187664179
 20
74.23078975082464
 30
0.0
  0
VERTEX
  5
401
330
3F0
100
AcDbEntity
  8
Visible (ANSI)
100
AcDbVertex
100
AcDb2dVertex
 10
174.7350960941362
 20
74.22917281779942
 30
0.0
  0
VERTEX
  5
402
330
3F0
100
AcDbEntity
  8
Visible (ANSI)
100
AcDbVertex
100
AcDb2dVertex
 10
174.7440573728302
 20
74.22789512353118
 30
0.0
  0
VERTEX
  5
403
330
3F0
100
AcDbEntity
  8
Visible (ANSI)
100
AcDbVertex
100
AcDb2dVertex
 10
174.7528619469694
 20
74.2269528255484
 30
0.0
  0
VERTEX
  5
404
330
3F0
100
AcDbEntity
  8
Visible (ANSI)
100
AcDbVertex
100
AcDb2dVertex
 10
174.7614725107854
 20
74.2263440293366
 30
0.0
  0
VERTEX
  5
405
330
3F0
100
AcDbEntity
  8
Visible (ANSI)
100
AcDbVertex
100
AcDb2dVertex
 10
174.7698551870892
 20
74.22604918840516
 30
0.0
  0
VERTEX
  5
406
330
3F0
100
AcDbEntity
  8
Visible (ANSI)
100
AcDbVertex
100
AcDb2dVertex
 10
174.7779669153668
 20
74.22606798667482
 30
0.0
  0
VERTEX
  5
407
330
3F0
100
AcDbEntity
  8
Visible (ANSI)
100
AcDbVertex
100
AcDb2dVertex
 10
174.7857810344178
 20
74.22638507098143
 30
0.0
  0
VERTEX
  5
408
330
3F0
100
AcDbEntity
  8
Visible (ANSI)
100
AcDbVertex
100
AcDb2dVertex
 10
174.7932576691128
 20
74.22699215588377
 30
0.0
  0
VERTEX
  5
409
330
3F0
100
AcDbEntity
  8
Visible (ANSI)
100
AcDbVertex
100
AcDb2dVertex
 10
174.8003735816461
 20
74.2278709672465
 30
0.0
  0
VERTEX
  5
40A
330
3F0
100
AcDbEntity
  8
Visible (ANSI)
100
AcDbVertex
100
AcDb2dVertex
 10
174.8070883031611
 20
74.22901287772369
 30
0.0
  0
SEQEND
  5
3F3
330
3F0
100
AcDbEntity
  8
Visible (ANSI)
  0
POLYLINE
  5
40B
330
6C
100
AcDbEntity
  8
Visible (ANSI)
100
AcDb2dPolyline
 66
     1
 10
0.0
 20
0.0
 30
0.0
 70
   128
  0
VERTEX
  5
40C
330
40B
100
AcDbEntity
  8
Visible (ANSI)
100
AcDbVertex
100
AcDb2dVertex
 10
174.807088303161
 20
25.52509773815276
 30
0.0
  0
VERTEX
  5
40D
330
40B
100
AcDbEntity
  8
Visible (ANSI)
100
AcDbVertex
100
AcDb2dVertex
 10
174.8003735816459
 20
25.51899611303272
 30
0.0
  0
VERTEX
  5
40F
330
40B
100
AcDbEntity
  8
Visible (ANSI)
100
AcDbVertex
100
AcDb2dVertex
 10
174.7932576691127
 20
25.51315758702712
 30
0.0
  0
VERTEX
  5
410
330
40B
100
AcDbEntity
  8
Visible (ANSI)
100
AcDbVertex
100
AcDb2dVertex
 10
174.7857810344176
 20
25.50759078748193
 30
0.0
  0
VERTEX
  5
411
330
40B
100
AcDbEntity
  8
Visible (ANSI)
100
AcDbVertex
100
AcDb2dVertex
 10
174.7779669153667
 20
25.50231398853246
 30
0.0
  0
VERTEX
  5
412
330
40B
100
AcDbEntity
  8
Visible (ANSI)
100
AcDbVertex
100
AcDb2dVertex
 10
174.7698551870891
 20
25.49733547561993
 30
0.0
  0
VERTEX
  5
413
330
40B
100
AcDbEntity
  8
Visible (ANSI)
100
AcDbVertex
100
AcDb2dVertex
 10
174.7614725107853
 20
25.49267059231608
 30
0.0
  0
VERTEX
  5
414
330
40B
100
AcDbEntity
  8
Visible (ANSI)
100
AcDbVertex
100
AcDb2dVertex
 10
174.7528619469693
 20
25.48832458521538
 30
0.0
  0
VERTEX
  5
415
330
40B
100
AcDbEntity
  8
Visible (ANSI)
100
AcDbVertex
100
AcDb2dVertex
 10
174.74405737283
 20
25.48430715896286
 30
0.0
  0
VERTEX
  5
416
330
40B
100
AcDbEntity
  8
Visible (ANSI)
100
AcDbVertex
100
AcDb2dVertex
 10
174.735096094136
 20
25.48062513858824
 30
0.0
  0
VERTEX
  5
417
330
40B
100
AcDbEntity
  8
Visible (ANSI)
100
AcDbVertex
100
AcDb2dVertex
 10
174.7260187664178
 20
25.4772823569706
 30
0.0
  0
VERTEX
  5
418
330
40B
100
AcDbEntity
  8
Visible (ANSI)
100
AcDbVertex
100
AcDb2dVertex
 10
174.7168650226467
 20
25.47428205813656
 30
0.0
  0
VERTEX
  5
419
330
40B
100
AcDbEntity
  8
Visible (ANSI)
100
AcDbVertex
100
AcDb2dVertex
 10
174.707669144472
 20
25.47162932564131
 30
0.0
  0
VERTEX
  5
41A
330
40B
100
AcDbEntity
  8
Visible (ANSI)
100
AcDbVertex
100
AcDb2dVertex
 10
174.6984727021269
 20
25.46932362673341
 30
0.0
  0
VERTEX
  5
41B
330
40B
100
AcDbEntity
  8
Visible (ANSI)
100
AcDbVertex
100
AcDb2dVertex
 10
174.6893159798679
 20
25.46736368811668
 30
0.0
  0
VERTEX
  5
41C
330
40B
100
AcDbEntity
  8
Visible (ANSI)
100
AcDbVertex
100
AcDb2dVertex
 10
174.6802378888602
 20
25.46574747456164
 30
0.0
  0
VERTEX
  5
41D
330
40B
100
AcDbEntity
  8
Visible (ANSI)
100
AcDbVertex
100
AcDb2dVertex
 10
174.6712759008049
 20
25.46447209312916
 30
0.0
  0
VERTEX
  5
41E
330
40B
100
AcDbEntity
  8
Visible (ANSI)
100
AcDbVertex
100
AcDb2dVertex
 10
174.6624744524187
 20
25.46352887702016
 30
0.0
  0
VERTEX
  5
41F
330
40B
100
AcDbEntity
  8
Visible (ANSI)
100
AcDbVertex
100
AcDb2dVertex
 10
174.6538636770388
 20
25.4629156285631
 30
0.0
  0
VERTEX
  5
420
330
40B
100
AcDbEntity
  8
Visible (ANSI)
100
AcDbVertex
100
AcDb2dVertex
 10
174.6454805610139
 20
25.4626242829501
 30
0.0
  0
VERTEX
  5
421
330
40B
100
AcDbEntity
  8
Visible (ANSI)
100
AcDbVertex
100
AcDb2dVertex
 10
174.6373688939239
 20
25.46264090834804
 30
0.0
  0
VERTEX
  5
422
330
40B
100
AcDbEntity
  8
Visible (ANSI)
100
AcDbVertex
100
AcDb2dVertex
 10
174.6295537564624
 20
25.46296039746128
 30
0.0
  0
VERTEX
  5
423
330
40B
100
AcDbEntity
  8
Visible (ANSI)
100
AcDbVertex
100
AcDb2dVertex
 10
174.6220754536274
 20
25.46356681181942
 30
0.0
  0
VERTEX
  5
424
330
40B
100
AcDbEntity
  8
Visible (ANSI)
100
AcDbVertex
100
AcDb2dVertex
 10
174.6149640191968
 20
25.46444808289539
 30
0.0
  0
VERTEX
  5
425
330
40B
100
AcDbEntity
  8
Visible (ANSI)
100
AcDbVertex
100
AcDb2dVertex
 10
174.6082476616913
 20
25.46559111984375
 30
0.0
  0
SEQEND
  5
40E
330
40B
100
AcDbEntity
  8
Visible (ANSI)
  0
LINE
  5
426
330
6C
100
AcDbEntity
  8
Visible (ANSI)
100
AcDbLine
 10
174.7221034568628
 20
74.2818763496046
 30
0.0
 11
175.2379976458728
 21
74.57896005481638
 31
0.0
  0
LINE
  5
427
330
6C
100
AcDbEntity
  8
Visible (ANSI)
100
AcDbLine
 10
175.326385993521
 20
25.82414316022968
 30
0.0
 11
174.8070867734177
 21
25.52509862802056
 31
0.0
  0
LINE
  5
428
330
6C
100
AcDbEntity
  8
Visible (ANSI)
100
AcDbLine
 10
174.740560794983
 20
74.26732582148432
 30
0.0
 11
174.8070867734177
 21
74.22901605838321
 31
0.0
  0
POLYLINE
  5
429
330
6C
100
AcDbEntity
  8
Visible (ANSI)
100
AcDb2dPolyline
 66
     1
 10
0.0
 20
0.0
 30
0.0
 70
   128
  0
VERTEX
  5
42A
330
429
100
AcDbEntity
  8
Visible (ANSI)
100
AcDbVertex
100
AcDb2dVertex
 10
174.6966360080123
 20
74.33942420745893
 30
0.0
  0
VERTEX
  5
42B
330
429
100
AcDbEntity
  8
Visible (ANSI)
100
AcDbVertex
100
AcDb2dVertex
 10
174.6971175766249
 20
74.33754264330431
 30
0.0
  0
VERTEX
  5
42D
330
429
100
AcDbEntity
  8
Visible (ANSI)
100
AcDbVertex
100
AcDb2dVertex
 10
174.6976192366927
 20
74.33566773771892
 30
0.0
  0
VERTEX
  5
42E
330
429
100
AcDbEntity
  8
Visible (ANSI)
100
AcDbVertex
100
AcDb2dVertex
 10
174.6981366853823
 20
74.33381172789935
 30
0.0
  0
VERTEX
  5
42F
330
429
100
AcDbEntity
  8
Visible (ANSI)
100
AcDbVertex
100
AcDb2dVertex
 10
174.6986740790906
 20
74.33196229232173
 30
0.0
  0
VERTEX
  5
430
330
429
100
AcDbEntity
  8
Visible (ANSI)
100
AcDbVertex
100
AcDb2dVertex
 10
174.6992227942225
 20
74.33013407239444
 30
0.0
  0
VERTEX
  5
431
330
429
100
AcDbEntity
  8
Visible (ANSI)
100
AcDbVertex
100
AcDb2dVertex
 10
174.6997911625166
 20
74.32831716997056
 30
0.0
  0
VERTEX
  5
432
330
429
100
AcDbEntity
  8
Visible (ANSI)
100
AcDbVertex
100
AcDb2dVertex
 10
174.7003747363667
 20
74.32650900488656
 30
0.0
  0
VERTEX
  5
433
330
429
100
AcDbEntity
  8
Visible (ANSI)
100
AcDbVertex
100
AcDb2dVertex
 10
174.7009690325985
 20
74.32472171048745
 30
0.0
  0
VERTEX
  5
434
330
429
100
AcDbEntity
  8
Visible (ANSI)
100
AcDbVertex
100
AcDb2dVertex
 10
174.7015780287621
 20
74.32294777358901
 30
0.0
  0
VERTEX
  5
435
330
429
100
AcDbEntity
  8
Visible (ANSI)
100
AcDbVertex
100
AcDb2dVertex
 10
174.7021971721503
 20
74.32118455350384
 30
0.0
  0
VERTEX
  5
436
330
429
100
AcDbEntity
  8
Visible (ANSI)
100
AcDbVertex
100
AcDb2dVertex
 10
174.7028261238978
 20
74.31944167775322
 30
0.0
  0
VERTEX
  5
437
330
429
100
AcDbEntity
  8
Visible (ANSI)
100
AcDbVertex
100
AcDb2dVertex
 10
174.7034602640168
 20
74.31771155557512
 30
0.0
  0
VERTEX
  5
438
330
429
100
AcDbEntity
  8
Visible (ANSI)
100
AcDbVertex
100
AcDb2dVertex
 10
174.7041076832709
 20
74.31599888404559
 30
0.0
  0
VERTEX
  5
439
330
429
100
AcDbEntity
  8
Visible (ANSI)
100
AcDbVertex
100
AcDb2dVertex
 10
174.704759449178
 20
74.31430339270558
 30
0.0
  0
VERTEX
  5
43A
330
429
100
AcDbEntity
  8
Visible (ANSI)
100
AcDbVertex
100
AcDb2dVertex
 10
174.7054150936271
 20
74.31261990065749
 30
0.0
  0
VERTEX
  5
43B
330
429
100
AcDbEntity
  8
Visible (ANSI)
100
AcDbVertex
100
AcDb2dVertex
 10
174.7060741183022
 20
74.31095794360096
 30
0.0
  0
VERTEX
  5
43C
330
429
100
AcDbEntity
  8
Visible (ANSI)
100
AcDbVertex
100
AcDb2dVertex
 10
174.7067402435908
 20
74.30930986026152
 30
0.0
  0
VERTEX
  5
43D
330
429
100
AcDbEntity
  8
Visible (ANSI)
100
AcDbVertex
100
AcDb2dVertex
 10
174.707404417358
 20
74.3076753112766
 30
0.0
  0
VERTEX
  5
43E
330
429
100
AcDbEntity
  8
Visible (ANSI)
100
AcDbVertex
100
AcDb2dVertex
 10
174.7080703041187
 20
74.30606133718793
 30
0.0
  0
VERTEX
  5
43F
330
429
100
AcDbEntity
  8
Visible (ANSI)
100
AcDbVertex
100
AcDb2dVertex
 10
174.7087372938118
 20
74.30445776402392
 30
0.0
  0
VERTEX
  5
440
330
429
100
AcDbEntity
  8
Visible (ANSI)
100
AcDbVertex
100
AcDb2dVertex
 10
174.7094005033558
 20
74.3028764948385
 30
0.0
  0
VERTEX
  5
441
330
429
100
AcDbEntity
  8
Visible (ANSI)
100
AcDbVertex
100
AcDb2dVertex
 10
174.7100592736875
 20
74.30131223877213
 30
0.0
  0
VERTEX
  5
442
330
429
100
AcDbEntity
  8
Visible (ANSI)
100
AcDbVertex
100
AcDb2dVertex
 10
174.7107171705403
 20
74.29975724549085
 30
0.0
  0
VERTEX
  5
443
330
429
100
AcDbEntity
  8
Visible (ANSI)
100
AcDbVertex
100
AcDb2dVertex
 10
174.7113649942548
 20
74.29822582466957
 30
0.0
  0
SEQEND
  5
42C
330
429
100
AcDbEntity
  8
Visible (ANSI)
  0
LINE
  5
444
330
6C
100
AcDbEntity
  8
Visible (ANSI)
100
AcDbLine
 10
174.6966366941964
 20
74.33942342694916
 30
0.0
 11
174.674901291476
 21
74.32690684096695
 31
0.0
  0
LINE
  5
445
330
6C
100
AcDbEntity
  8
Visible (ANSI)
100
AcDbLine
 10
174.674901291476
 20
74.32690684096695
 30
0.0
 11
174.6082483465481
 21
74.28852396272509
 31
0.0
  0
LINE
  5
446
330
6C
100
AcDbEntity
  8
Visible (ANSI)
100
AcDbLine
 10
174.8070867734177
 20
74.22901605838321
 30
0.0
 11
175.3263859935211
 21
74.52806059059233
 31
0.0
  0
LINE
  5
447
330
6C
100
AcDbEntity
  8
Visible (ANSI)
100
AcDbLine
 10
175.2379976458728
 20
74.57896005481638
 30
0.0
 11
175.3263859935211
 21
74.52806059059233
 31
0.0
  0
POLYLINE
  5
448
330
6C
100
AcDbEntity
  8
Visible (ANSI)
100
AcDb2dPolyline
 66
     1
 10
0.0
 20
0.0
 30
0.0
 70
   128
  0
VERTEX
  5
449
330
448
100
AcDbEntity
  8
Visible (ANSI)
100
AcDbVertex
100
AcDb2dVertex
 10
135.209107028512
 20
96.97698088637503
 30
0.0
  0
VERTEX
  5
44A
330
448
100
AcDbEntity
  8
Visible (ANSI)
100
AcDbVertex
100
AcDb2dVertex
 10
135.2114644394732
 20
96.98338775377813
 30
0.0
  0
VERTEX
  5
44C
330
448
100
AcDbEntity
  8
Visible (ANSI)
100
AcDbVertex
100
AcDb2dVertex
 10
135.2142466707555
 20
96.99000487006598
 30
0.0
  0
VERTEX
  5
44D
330
448
100
AcDbEntity
  8
Visible (ANSI)
100
AcDbVertex
100
AcDb2dVertex
 10
135.217450984473
 20
96.99680120972359
 30
0.0
  0
VERTEX
  5
44E
330
448
100
AcDbEntity
  8
Visible (ANSI)
100
AcDbVertex
100
AcDb2dVertex
 10
135.2210728423726
 20
97.00373977047689
 30
0.0
  0
VERTEX
  5
44F
330
448
100
AcDbEntity
  8
Visible (ANSI)
100
AcDbVertex
100
AcDb2dVertex
 10
135.2251059307237
 20
97.01079235028288
 30
0.0
  0
VERTEX
  5
450
330
448
100
AcDbEntity
  8
Visible (ANSI)
100
AcDbVertex
100
AcDb2dVertex
 10
135.2295421437248
 20
97.01791500978893
 30
0.0
  0
VERTEX
  5
451
330
448
100
AcDbEntity
  8
Visible (ANSI)
100
AcDbVertex
100
AcDb2dVertex
 10
135.2343716830633
 20
97.02507754031486
 30
0.0
  0
VERTEX
  5
452
330
448
100
AcDbEntity
  8
Visible (ANSI)
100
AcDbVertex
100
AcDb2dVertex
 10
135.2395830579155
 20
97.03224384719769
 30
0.0
  0
VERTEX
  5
453
330
448
100
AcDbEntity
  8
Visible (ANSI)
100
AcDbVertex
100
AcDb2dVertex
 10
135.2451631098359
 20
97.03937690412139
 30
0.0
  0
VERTEX
  5
454
330
448
100
AcDbEntity
  8
Visible (ANSI)
100
AcDbVertex
100
AcDb2dVertex
 10
135.2510971455042
 20
97.04643877222771
 30
0.0
  0
VERTEX
  5
455
330
448
100
AcDbEntity
  8
Visible (ANSI)
100
AcDbVertex
100
AcDb2dVertex
 10
135.2573689408725
 20
97.05339554250182
 30
0.0
  0
VERTEX
  5
456
330
448
100
AcDbEntity
  8
Visible (ANSI)
100
AcDbVertex
100
AcDb2dVertex
 10
135.2639608075391
 20
97.06020757999915
 30
0.0
  0
VERTEX
  5
457
330
448
100
AcDbEntity
  8
Visible (ANSI)
100
AcDbVertex
100
AcDb2dVertex
 10
135.2708537089008
 20
97.06684917872255
 30
0.0
  0
VERTEX
  5
458
330
448
100
AcDbEntity
  8
Visible (ANSI)
100
AcDbVertex
100
AcDb2dVertex
 10
135.2780273223779
 20
97.07328406946942
 30
0.0
  0
VERTEX
  5
459
330
448
100
AcDbEntity
  8
Visible (ANSI)
100
AcDbVertex
100
AcDb2dVertex
 10
135.2854600933419
 20
97.07947530221371
 30
0.0
  0
VERTEX
  5
45A
330
448
100
AcDbEntity
  8
Visible (ANSI)
100
AcDbVertex
100
AcDb2dVertex
 10
135.2931293886033
 20
97.08539509982196
 30
0.0
  0
VERTEX
  5
45B
330
448
100
AcDbEntity
  8
Visible (ANSI)
100
AcDbVertex
100
AcDb2dVertex
 10
135.3010115524137
 20
97.09101018497781
 30
0.0
  0
VERTEX
  5
45C
330
448
100
AcDbEntity
  8
Visible (ANSI)
100
AcDbVertex
100
AcDb2dVertex
 10
135.3090820060253
 20
97.09629168884141
 30
0.0
  0
VERTEX
  5
45D
330
448
100
AcDbEntity
  8
Visible (ANSI)
100
AcDbVertex
100
AcDb2dVertex
 10
135.3173153845853
 20
97.10121025166358
 30
0.0
  0
VERTEX
  5
45E
330
448
100
AcDbEntity
  8
Visible (ANSI)
100
AcDbVertex
100
AcDb2dVertex
 10
135.3256856024716
 20
97.10574595951408
 30
0.0
  0
VERTEX
  5
45F
330
448
100
AcDbEntity
  8
Visible (ANSI)
100
AcDbVertex
100
AcDb2dVertex
 10
135.3341660067804
 20
97.10986872045992
 30
0.0
  0
VERTEX
  5
460
330
448
100
AcDbEntity
  8
Visible (ANSI)
100
AcDbVertex
100
AcDb2dVertex
 10
135.3427294659967
 20
97.11355308783987
 30
0.0
  0
VERTEX
  5
461
330
448
100
AcDbEntity
  8
Visible (ANSI)
100
AcDbVertex
100
AcDb2dVertex
 10
135.351348494443
 20
97.11678323370508
 30
0.0
  0
VERTEX
  5
462
330
448
100
AcDbEntity
  8
Visible (ANSI)
100
AcDbVertex
100
AcDb2dVertex
 10
135.3599953668771
 20
97.11953828081995
 30
0.0
  0
SEQEND
  5
44B
330
448
100
AcDbEntity
  8
Visible (ANSI)
  0
POLYLINE
  5
463
330
6C
100
AcDbEntity
  8
Visible (ANSI)
100
AcDb2dPolyline
 66
     1
 10
0.0
 20
0.0
 30
0.0
 70
   128
  0
VERTEX
  5
464
330
463
100
AcDbEntity
  8
Visible (ANSI)
100
AcDbVertex
100
AcDb2dVertex
 10
174.6561996650806
 20
74.49035923139662
 30
0.0
  0
VERTEX
  5
465
330
463
100
AcDbEntity
  8
Visible (ANSI)
100
AcDbVertex
100
AcDb2dVertex
 10
174.6518425121625
 20
74.48513389910449
 30
0.0
  0
VERTEX
  5
467
330
463
100
AcDbEntity
  8
Visible (ANSI)
100
AcDbVertex
100
AcDb2dVertex
 10
174.6475089553609
 20
74.47943591424845
 30
0.0
  0
VERTEX
  5
468
330
463
100
AcDbEntity
  8
Visible (ANSI)
100
AcDbVertex
100
AcDb2dVertex
 10
174.6432352156607
 20
74.47328126169124
 30
0.0
  0
VERTEX
  5
469
330
463
100
AcDbEntity
  8
Visible (ANSI)
100
AcDbVertex
100
AcDb2dVertex
 10
174.6390445308679
 20
74.46668821556814
 30
0.0
  0
VERTEX
  5
46A
330
463
100
AcDbEntity
  8
Visible (ANSI)
100
AcDbVertex
100
AcDb2dVertex
 10
174.6349640324976
 20
74.45968222254041
 30
0.0
  0
VERTEX
  5
46B
330
463
100
AcDbEntity
  8
Visible (ANSI)
100
AcDbVertex
100
AcDb2dVertex
 10
174.6310203817503
 20
74.45229336976328
 30
0.0
  0
VERTEX
  5
46C
330
463
100
AcDbEntity
  8
Visible (ANSI)
100
AcDbVertex
100
AcDb2dVertex
 10
174.6272396476547
 20
74.4445415807224
 30
0.0
  0
VERTEX
  5
46D
330
463
100
AcDbEntity
  8
Visible (ANSI)
100
AcDbVertex
100
AcDb2dVertex
 10
174.623647211657
 20
74.43645620561162
 30
0.0
  0
VERTEX
  5
46E
330
463
100
AcDbEntity
  8
Visible (ANSI)
100
AcDbVertex
100
AcDb2dVertex
 10
174.6202633880403
 20
74.42806856901253
 30
0.0
  0
VERTEX
  5
46F
330
463
100
AcDbEntity
  8
Visible (ANSI)
100
AcDbVertex
100
AcDb2dVertex
 10
174.6171203365923
 20
74.41940705109096
 30
0.0
  0
VERTEX
  5
470
330
463
100
AcDbEntity
  8
Visible (ANSI)
100
AcDbVertex
100
AcDb2dVertex
 10
174.6142364509279
 20
74.41050187038914
 30
0.0
  0
VERTEX
  5
471
330
463
100
AcDbEntity
  8
Visible (ANSI)
100
AcDbVertex
100
AcDb2dVertex
 10
174.6116332690822
 20
74.40138998648848
 30
0.0
  0
VERTEX
  5
472
330
463
100
AcDbEntity
  8
Visible (ANSI)
100
AcDbVertex
100
AcDb2dVertex
 10
174.6093311219317
 20
74.3921076638139
 30
0.0
  0
VERTEX
  5
473
330
463
100
AcDbEntity
  8
Visible (ANSI)
100
AcDbVertex
100
AcDb2dVertex
 10
174.607349054376
 20
74.38268060358486
 30
0.0
  0
VERTEX
  5
474
330
463
100
AcDbEntity
  8
Visible (ANSI)
100
AcDbVertex
100
AcDb2dVertex
 10
174.6057004903525
 20
74.37315089648766
 30
0.0
  0
VERTEX
  5
475
330
463
100
AcDbEntity
  8
Visible (ANSI)
100
AcDbVertex
100
AcDb2dVertex
 10
174.604410157948
 20
74.36354755438671
 30
0.0
  0
VERTEX
  5
476
330
463
100
AcDbEntity
  8
Visible (ANSI)
100
AcDbVertex
100
AcDb2dVertex
 10
174.6034885109085
 20
74.35391095754894
 30
0.0
  0
VERTEX
  5
477
330
463
100
AcDbEntity
  8
Visible (ANSI)
100
AcDbVertex
100
AcDb2dVertex
 10
174.602948691086
 20
74.34427814184576
 30
0.0
  0
VERTEX
  5
478
330
463
100
AcDbEntity
  8
Visible (ANSI)
100
AcDbVertex
100
AcDb2dVertex
 10
174.6028021976009
 20
74.33468519716244
 30
0.0
  0
VERTEX
  5
479
330
463
100
AcDbEntity
  8
Visible (ANSI)
100
AcDbVertex
100
AcDb2dVertex
 10
174.6030588370626
 20
74.32516232740147
 30
0.0
  0
VERTEX
  5
47A
330
463
100
AcDbEntity
  8
Visible (ANSI)
100
AcDbVertex
100
AcDb2dVertex
 10
174.603726698679
 20
74.31575348147095
 30
0.0
  0
VERTEX
  5
47B
330
463
100
AcDbEntity
  8
Visible (ANSI)
100
AcDbVertex
100
AcDb2dVertex
 10
174.6048078566062
 20
74.30648930282247
 30
0.0
  0
VERTEX
  5
47C
330
463
100
AcDbEntity
  8
Visible (ANSI)
100
AcDbVertex
100
AcDb2dVertex
 10
174.6063153531365
 20
74.29740189657966
 30
0.0
  0
VERTEX
  5
47D
330
463
100
AcDbEntity
  8
Visible (ANSI)
100
AcDbVertex
100
AcDb2dVertex
 10
174.6082476616914
 20
74.28852474399931
 30
0.0
  0
SEQEND
  5
466
330
463
100
AcDbEntity
  8
Visible (ANSI)
  0
LINE
  5
47E
330
6C
100
AcDbEntity
  8
Visible (ANSI)
100
AcDbLine
 10
174.6595901673125
 20
74.3901216924626
 30
0.0
 11
175.1754976458727
 21
74.68721305061747
 31
0.0
  0
LINE
  5
47F
330
6C
100
AcDbEntity
  8
Visible (ANSI)
100
AcDbLine
 10
175.1754976458727
 20
74.78940644122278
 30
0.0
 11
174.6561984257694
 21
74.4903619090136
 31
0.0
  0
LINE
  5
480
330
6C
100
AcDbEntity
  8
Visible (ANSI)
100
AcDbLine
 10
174.6561984257694
 20
74.41329869177696
 30
0.0
 11
174.6561984257694
 21
74.4903619090136
 31
0.0
  0
LINE
  5
481
330
6C
100
AcDbEntity
  8
Visible (ANSI)
100
AcDbLine
 10
175.1754976458727
 20
74.68721305061747
 30
0.0
 11
175.1754976458727
 21
74.78940644122278
 31
0.0
  0
POLYLINE
  5
482
330
6C
100
AcDbEntity
  8
Visible (ANSI)
100
AcDb2dPolyline
 66
     1
 10
0.0
 20
0.0
 30
0.0
 70
   128
  0
VERTEX
  5
483
330
482
100
AcDbEntity
  8
Visible (ANSI)
100
AcDbVertex
100
AcDb2dVertex
 10
174.6966360080123
 20
74.33942420745893
 30
0.0
  0
VERTEX
  5
484
330
482
100
AcDbEntity
  8
Visible (ANSI)
100
AcDbVertex
100
AcDb2dVertex
 10
174.6952485031454
 20
74.34077994488029
 30
0.0
  0
VERTEX
  5
486
330
482
100
AcDbEntity
  8
Visible (ANSI)
100
AcDbVertex
100
AcDb2dVertex
 10
174.6938810695959
 20
74.34214232927421
 30
0.0
  0
VERTEX
  5
487
330
482
100
AcDbEntity
  8
Visible (ANSI)
100
AcDbVertex
100
AcDb2dVertex
 10
174.692533652519
 20
74.34351624038813
 30
0.0
  0
VERTEX
  5
488
330
482
100
AcDbEntity
  8
Visible (ANSI)
100
AcDbVertex
100
AcDb2dVertex
 10
174.691201912727
 20
74.34490407182278
 30
0.0
  0
VERTEX
  5
489
330
482
100
AcDbEntity
  8
Visible (ANSI)
100
AcDbVertex
100
AcDb2dVertex
 10
174.6898942184058
 20
74.34629594642001
 30
0.0
  0
VERTEX
  5
48A
330
482
100
AcDbEntity
  8
Visible (ANSI)
100
AcDbVertex
100
AcDb2dVertex
 10
174.6886061579799
 20
74.3476942160952
 30
0.0
  0
VERTEX
  5
48B
330
482
100
AcDbEntity
  8
Visible (ANSI)
100
AcDbVertex
100
AcDb2dVertex
 10
174.6873375321034
 20
74.34909385472231
 30
0.0
  0
VERTEX
  5
48C
330
482
100
AcDbEntity
  8
Visible (ANSI)
100
AcDbVertex
100
AcDb2dVertex
 10
174.686088105943
 20
74.35049963840021
 30
0.0
  0
VERTEX
  5
48D
330
482
100
AcDbEntity
  8
Visible (ANSI)
100
AcDbVertex
100
AcDb2dVertex
 10
174.6848533618897
 20
74.3519138579838
 30
0.0
  0
VERTEX
  5
48E
330
482
100
AcDbEntity
  8
Visible (ANSI)
100
AcDbVertex
100
AcDb2dVertex
 10
174.6836414914336
 20
74.3533265345624
 30
0.0
  0
VERTEX
  5
48F
330
482
100
AcDbEntity
  8
Visible (ANSI)
100
AcDbVertex
100
AcDb2dVertex
 10
174.6824479084862
 20
74.35473991955617
 30
0.0
  0
VERTEX
  5
490
330
482
100
AcDbEntity
  8
Visible (ANSI)
100
AcDbVertex
100
AcDb2dVertex
 10
174.6812722417737
 20
74.35614888783232
 30
0.0
  0
VERTEX
  5
491
330
482
100
AcDbEntity
  8
Visible (ANSI)
100
AcDbVertex
100
AcDb2dVertex
 10
174.6801098390291
 20
74.35756547536204
 30
0.0
  0
VERTEX
  5
492
330
482
100
AcDbEntity
  8
Visible (ANSI)
100
AcDbVertex
100
AcDb2dVertex
 10
174.6789687602927
 20
74.3589747162075
 30
0.0
  0
VERTEX
  5
493
330
482
100
AcDbEntity
  8
Visible (ANSI)
100
AcDbVertex
100
AcDb2dVertex
 10
174.67784429036
 20
74.36037878743575
 30
0.0
  0
VERTEX
  5
494
330
482
100
AcDbEntity
  8
Visible (ANSI)
100
AcDbVertex
100
AcDb2dVertex
 10
174.6767359319519
 20
74.3617823140133
 30
0.0
  0
VERTEX
  5
495
330
482
100
AcDbEntity
  8
Visible (ANSI)
100
AcDbVertex
100
AcDb2dVertex
 10
174.6756431584923
 20
74.3631751700443
 30
0.0
  0
VERTEX
  5
496
330
482
100
AcDbEntity
  8
Visible (ANSI)
100
AcDbVertex
100
AcDb2dVertex
 10
174.674561167273
 20
74.36456439353628
 30
0.0
  0
VERTEX
  5
497
330
482
100
AcDbEntity
  8
Visible (ANSI)
100
AcDbVertex
100
AcDb2dVertex
 10
174.6734978709396
 20
74.36594475633317
 30
0.0
  0
VERTEX
  5
498
330
482
100
AcDbEntity
  8
Visible (ANSI)
100
AcDbVertex
100
AcDb2dVertex
 10
174.6724484133746
 20
74.36731835435566
 30
0.0
  0
VERTEX
  5
499
330
482
100
AcDbEntity
  8
Visible (ANSI)
100
AcDbVertex
100
AcDb2dVertex
 10
174.671412160664
 20
74.36867991122662
 30
0.0
  0
VERTEX
  5
49A
330
482
100
AcDbEntity
  8
Visible (ANSI)
100
AcDbVertex
100
AcDb2dVertex
 10
174.6703884545227
 20
74.37002904786483
 30
0.0
  0
VERTEX
  5
49B
330
482
100
AcDbEntity
  8
Visible (ANSI)
100
AcDbVertex
100
AcDb2dVertex
 10
174.6693723664969
 20
74.37137272986572
 30
0.0
  0
VERTEX
  5
49C
330
482
100
AcDbEntity
  8
Visible (ANSI)
100
AcDbVertex
100
AcDb2dVertex
 10
174.6683716894496
 20
74.37269583743428
 30
0.0
  0
SEQEND
  5
485
330
482
100
AcDbEntity
  8
Visible (ANSI)
  0
LINE
  5
49D
330
6C
100
AcDbEntity
  8
Visible (ANSI)
100
AcDbLine
 10
135.3599953746136
 20
97.11954024030987
 30
0.0
 11
135.8792945947169
 21
97.41858477251904
 31
0.0
  0
POLYLINE
  5
49E
330
6C
100
AcDbEntity
  8
Visible (ANSI)
100
AcDb2dPolyline
 66
     1
 10
0.0
 20
0.0
 30
0.0
 70
   128
  0
VERTEX
  5
49F
330
49E
100
AcDbEntity
  8
Visible (ANSI)
100
AcDbVertex
100
AcDb2dVertex
 10
135.2091070285119
 20
48.15404726221945
 30
0.0
  0
VERTEX
  5
4A0
330
49E
100
AcDbEntity
  8
Visible (ANSI)
100
AcDbVertex
100
AcDb2dVertex
 10
135.205907352607
 20
48.15719088698007
 30
0.0
  0
VERTEX
  5
4A2
330
49E
100
AcDbEntity
  8
Visible (ANSI)
100
AcDbVertex
100
AcDb2dVertex
 10
135.2028175654834
 20
48.16039377920656
 30
0.0
  0
VERTEX
  5
4A3
330
49E
100
AcDbEntity
  8
Visible (ANSI)
100
AcDbVertex
100
AcDb2dVertex
 10
135.1998409691972
 20
48.16365383670746
 30
0.0
  0
VERTEX
  5
4A4
330
49E
100
AcDbEntity
  8
Visible (ANSI)
100
AcDbVertex
100
AcDb2dVertex
 10
135.1969807579486
 20
48.16696890477357
 30
0.0
  0
VERTEX
  5
4A5
330
49E
100
AcDbEntity
  8
Visible (ANSI)
100
AcDbVertex
100
AcDb2dVertex
 10
135.1942399931916
 20
48.17033674258585
 30
0.0
  0
VERTEX
  5
4A6
330
49E
100
AcDbEntity
  8
Visible (ANSI)
100
AcDbVertex
100
AcDb2dVertex
 10
135.1916216202279
 20
48.17375508077009
 30
0.0
  0
VERTEX
  5
4A7
330
49E
100
AcDbEntity
  8
Visible (ANSI)
100
AcDbVertex
100
AcDb2dVertex
 10
135.1891284101297
 20
48.17722158780487
 30
0.0
  0
VERTEX
  5
4A8
330
49E
100
AcDbEntity
  8
Visible (ANSI)
100
AcDbVertex
100
AcDb2dVertex
 10
135.1867630675962
 20
48.18073388439167
 30
0.0
  0
VERTEX
  5
4A9
330
49E
100
AcDbEntity
  8
Visible (ANSI)
100
AcDbVertex
100
AcDb2dVertex
 10
135.1845281148012
 20
48.18428952434409
 30
0.0
  0
VERTEX
  5
4AA
330
49E
100
AcDbEntity
  8
Visible (ANSI)
100
AcDbVertex
100
AcDb2dVertex
 10
135.1824259328756
 20
48.18788604717961
 30
0.0
  0
VERTEX
  5
4AB
330
49E
100
AcDbEntity
  8
Visible (ANSI)
100
AcDbVertex
100
AcDb2dVertex
 10
135.1804587867977
 20
48.19152090630588
 30
0.0
  0
VERTEX
  5
4AC
330
49E
100
AcDbEntity
  8
Visible (ANSI)
100
AcDbVertex
100
AcDb2dVertex
 10
135.1786287756133
 20
48.19519154568623
 30
0.0
  0
VERTEX
  5
4AD
330
49E
100
AcDbEntity
  8
Visible (ANSI)
100
AcDbVertex
100
AcDb2dVertex
 10
135.1769378697706
 20
48.19889536863644
 30
0.0
  0
VERTEX
  5
4AE
330
49E
100
AcDbEntity
  8
Visible (ANSI)
100
AcDbVertex
100
AcDb2dVertex
 10
135.1753878613403
 20
48.20262972830639
 30
0.0
  0
VERTEX
  5
4AF
330
49E
100
AcDbEntity
  8
Visible (ANSI)
100
AcDbVertex
100
AcDb2dVertex
 10
135.1739804262403
 20
48.20639195873506
 30
0.0
  0
VERTEX
  5
4B0
330
49E
100
AcDbEntity
  8
Visible (ANSI)
100
AcDbVertex
100
AcDb2dVertex
 10
135.1727170703078
 20
48.21017936772113
 30
0.0
  0
VERTEX
  5
4B1
330
49E
100
AcDbEntity
  8
Visible (ANSI)
100
AcDbVertex
100
AcDb2dVertex
 10
135.171599137596
 20
48.21398920323082
 30
0.0
  0
VERTEX
  5
4B2
330
49E
100
AcDbEntity
  8
Visible (ANSI)
100
AcDbVertex
100
AcDb2dVertex
 10
135.1706278269669
 20
48.21781873006341
 30
0.0
  0
VERTEX
  5
4B3
330
49E
100
AcDbEntity
  8
Visible (ANSI)
100
AcDbVertex
100
AcDb2dVertex
 10
135.1698041837952
 20
48.22166516759293
 30
0.0
  0
VERTEX
  5
4B4
330
49E
100
AcDbEntity
  8
Visible (ANSI)
100
AcDbVertex
100
AcDb2dVertex
 10
135.1691290916712
 20
48.22552573280456
 30
0.0
  0
VERTEX
  5
4B5
330
49E
100
AcDbEntity
  8
Visible (ANSI)
100
AcDbVertex
100
AcDb2dVertex
 10
135.1686032682529
 20
48.22939760923953
 30
0.0
  0
VERTEX
  5
4B6
330
49E
100
AcDbEntity
  8
Visible (ANSI)
100
AcDbVertex
100
AcDb2dVertex
 10
135.1682272756366
 20
48.23327799839248
 30
0.0
  0
VERTEX
  5
4B7
330
49E
100
AcDbEntity
  8
Visible (ANSI)
100
AcDbVertex
100
AcDb2dVertex
 10
135.1680015203568
 20
48.23716404789779
 30
0.0
  0
VERTEX
  5
4B8
330
49E
100
AcDbEntity
  8
Visible (ANSI)
100
AcDbVertex
100
AcDb2dVertex
 10
135.1679262409414
 20
48.24105293058384
 30
0.0
  0
SEQEND
  5
4A1
330
49E
100
AcDbEntity
  8
Visible (ANSI)
  0
POLYLINE
  5
4B9
330
6C
100
AcDbEntity
  8
Visible (ANSI)
100
AcDb2dPolyline
 66
     1
 10
0.0
 20
0.0
 30
0.0
 70
   128
  0
VERTEX
  5
4BA
330
4B9
100
AcDbEntity
  8
Visible (ANSI)
100
AcDbVertex
100
AcDb2dVertex
 10
135.2091070274749
 20
97.03197373071835
 30
0.0
  0
VERTEX
  5
4BB
330
4B9
100
AcDbEntity
  8
Visible (ANSI)
100
AcDbVertex
100
AcDb2dVertex
 10
135.202817563701
 20
97.03058693059499
 30
0.0
  0
VERTEX
  5
4BD
330
4B9
100
AcDbEntity
  8
Visible (ANSI)
100
AcDbVertex
100
AcDb2dVertex
 10
135.1969807607358
 20
97.02897152902068
 30
0.0
  0
VERTEX
  5
4BE
330
4B9
100
AcDbEntity
  8
Visible (ANSI)
100
AcDbVertex
100
AcDb2dVertex
 10
135.1916216130981
 20
97.02714506441967
 30
0.0
  0
VERTEX
  5
4BF
330
4B9
100
AcDbEntity
  8
Visible (ANSI)
100
AcDbVertex
100
AcDb2dVertex
 10
135.1867630686334
 20
97.02512597790445
 30
0.0
  0
VERTEX
  5
4C0
330
4B9
100
AcDbEntity
  8
Visible (ANSI)
100
AcDbVertex
100
AcDb2dVertex
 10
135.1824259323572
 20
97.02293353666435
 30
0.0
  0
VERTEX
  5
4C1
330
4B9
100
AcDbEntity
  8
Visible (ANSI)
100
AcDbVertex
100
AcDb2dVertex
 10
135.1786287787247
 20
97.02058775071034
 30
0.0
  0
VERTEX
  5
4C2
330
4B9
100
AcDbEntity
  8
Visible (ANSI)
100
AcDbVertex
100
AcDb2dVertex
 10
135.1753878634145
 20
97.0181043719999
 30
0.0
  0
VERTEX
  5
4C3
330
4B9
100
AcDbEntity
  8
Visible (ANSI)
100
AcDbVertex
100
AcDb2dVertex
 10
135.172717070308
 20
97.01551446040372
 30
0.0
  0
VERTEX
  5
4C4
330
4B9
100
AcDbEntity
  8
Visible (ANSI)
100
AcDbVertex
100
AcDb2dVertex
 10
135.1706278290412
 20
97.01283481150987
 30
0.0
  0
VERTEX
  5
4C5
330
4B9
100
AcDbEntity
  8
Visible (ANSI)
100
AcDbVertex
100
AcDb2dVertex
 10
135.1691290937454
 20
97.01008752341159
 30
0.0
  0
VERTEX
  5
4C6
330
4B9
100
AcDbEntity
  8
Visible (ANSI)
100
AcDbVertex
100
AcDb2dVertex
 10
135.1682272756367
 20
97.00729498086456
 30
0.0
  0
VERTEX
  5
4C7
330
4B9
100
AcDbEntity
  8
Visible (ANSI)
100
AcDbVertex
100
AcDb2dVertex
 10
135.1679262409415
 20
97.00447976331606
 30
0.0
  0
VERTEX
  5
4C8
330
4B9
100
AcDbEntity
  8
Visible (ANSI)
100
AcDbVertex
100
AcDb2dVertex
 10
135.1682272756367
 20
97.00166454576756
 30
0.0
  0
VERTEX
  5
4C9
330
4B9
100
AcDbEntity
  8
Visible (ANSI)
100
AcDbVertex
100
AcDb2dVertex
 10
135.1691290916713
 20
96.99886709308458
 30
0.0
  0
VERTEX
  5
4CA
330
4B9
100
AcDbEntity
  8
Visible (ANSI)
100
AcDbVertex
100
AcDb2dVertex
 10
135.1706278269671
 20
96.99611980498628
 30
0.0
  0
VERTEX
  5
4CB
330
4B9
100
AcDbEntity
  8
Visible (ANSI)
100
AcDbVertex
100
AcDb2dVertex
 10
135.172717070308
 20
96.99344015728685
 30
0.0
  0
VERTEX
  5
4CC
330
4B9
100
AcDbEntity
  8
Visible (ANSI)
100
AcDbVertex
100
AcDb2dVertex
 10
135.1753878613404
 20
96.99085024210742
 30
0.0
  0
VERTEX
  5
4CD
330
4B9
100
AcDbEntity
  8
Visible (ANSI)
100
AcDbVertex
100
AcDb2dVertex
 10
135.1786287756135
 20
96.98837177413011
 30
0.0
  0
VERTEX
  5
4CE
330
4B9
100
AcDbEntity
  8
Visible (ANSI)
100
AcDbVertex
100
AcDb2dVertex
 10
135.1824259328757
 20
96.98602599026635
 30
0.0
  0
VERTEX
  5
4CF
330
4B9
100
AcDbEntity
  8
Visible (ANSI)
100
AcDbVertex
100
AcDb2dVertex
 10
135.1867630675963
 20
96.98383355171372
 30
0.0
  0
VERTEX
  5
4D0
330
4B9
100
AcDbEntity
  8
Visible (ANSI)
100
AcDbVertex
100
AcDb2dVertex
 10
135.191621620228
 20
96.98180955140465
 30
0.0
  0
VERTEX
  5
4D1
330
4B9
100
AcDbEntity
  8
Visible (ANSI)
100
AcDbVertex
100
AcDb2dVertex
 10
135.1969807579487
 20
96.97998309005097
 30
0.0
  0
VERTEX
  5
4D2
330
4B9
100
AcDbEntity
  8
Visible (ANSI)
100
AcDbVertex
100
AcDb2dVertex
 10
135.2028175654835
 20
96.97836768871928
 30
0.0
  0
VERTEX
  5
4D3
330
4B9
100
AcDbEntity
  8
Visible (ANSI)
100
AcDbVertex
100
AcDb2dVertex
 10
135.209107028512
 20
96.97698088637503
 30
0.0
  0
SEQEND
  5
4BC
330
4B9
100
AcDbEntity
  8
Visible (ANSI)
  0
LINE
  5
4D4
330
6C
100
AcDbEntity
  8
Visible (ANSI)
100
AcDbLine
 10
135.6488495832661
 20
48.47949056840715
 30
0.0
 11
135.8167945947168
 21
48.5762036683732
 31
0.0
  0
LINE
  5
4D5
330
6C
100
AcDbEntity
  8
Visible (ANSI)
100
AcDbLine
 10
135.2728348719653
 20
97.06867445597262
 30
0.0
 11
135.2091070269653
 21
97.03197603075075
 31
0.0
  0
LINE
  5
4D6
330
6C
100
AcDbEntity
  8
Visible (ANSI)
100
AcDbLine
 10
135.2306309121209
 20
97.0195812496332
 30
0.0
 11
135.2091070269653
 21
97.03197603075075
 31
0.0
  0
POLYLINE
  5
4D7
330
6C
100
AcDbEntity
  8
Visible (ANSI)
100
AcDb2dPolyline
 66
     1
 10
0.0
 20
0.0
 30
0.0
 70
   128
  0
VERTEX
  5
4D8
330
4D7
100
AcDbEntity
  8
Visible (ANSI)
100
AcDbVertex
100
AcDb2dVertex
 10
174.6082476616913
 20
25.46559111984375
 30
0.0
  0
VERTEX
  5
4D9
330
4D7
100
AcDbEntity
  8
Visible (ANSI)
100
AcDbVertex
100
AcDb2dVertex
 10
174.6063153531364
 20
25.45943112178893
 30
0.0
  0
VERTEX
  5
4DB
330
4D7
100
AcDbEntity
  8
Visible (ANSI)
100
AcDbVertex
100
AcDb2dVertex
 10
174.604807856606
 20
25.45354794894488
 30
0.0
  0
VERTEX
  5
4DC
330
4D7
100
AcDbEntity
  8
Visible (ANSI)
100
AcDbVertex
100
AcDb2dVertex
 10
174.6037266986789
 20
25.44796965557099
 30
0.0
  0
VERTEX
  5
4DD
330
4D7
100
AcDbEntity
  8
Visible (ANSI)
100
AcDbVertex
100
AcDb2dVertex
 10
174.6030588370624
 20
25.44273026683963
 30
0.0
  0
VERTEX
  5
4DE
330
4D7
100
AcDbEntity
  8
Visible (ANSI)
100
AcDbVertex
100
AcDb2dVertex
 10
174.6028021976008
 20
25.43785509201403
 30
0.0
  0
VERTEX
  5
4DF
330
4D7
100
AcDbEntity
  8
Visible (ANSI)
100
AcDbVertex
100
AcDb2dVertex
 10
174.6029486910859
 20
25.43337028375315
 30
0.0
  0
VERTEX
  5
4E0
330
4D7
100
AcDbEntity
  8
Visible (ANSI)
100
AcDbVertex
100
AcDb2dVertex
 10
174.6034885109084
 20
25.42930033905566
 30
0.0
  0
VERTEX
  5
4E1
330
4D7
100
AcDbEntity
  8
Visible (ANSI)
100
AcDbVertex
100
AcDb2dVertex
 10
174.6044101579478
 20
25.4256679792989
 30
0.0
  0
VERTEX
  5
4E2
330
4D7
100
AcDbEntity
  8
Visible (ANSI)
100
AcDbVertex
100
AcDb2dVertex
 10
174.6057004903524
 20
25.42249403981478
 30
0.0
  0
VERTEX
  5
4E3
330
4D7
100
AcDbEntity
  8
Visible (ANSI)
100
AcDbVertex
100
AcDb2dVertex
 10
174.6073490543759
 20
25.41979496596348
 30
0.0
  0
VERTEX
  5
4E4
330
4D7
100
AcDbEntity
  8
Visible (ANSI)
100
AcDbVertex
100
AcDb2dVertex
 10
174.6093311219315
 20
25.4175924827051
 30
0.0
  0
VERTEX
  5
4E5
330
4D7
100
AcDbEntity
  8
Visible (ANSI)
100
AcDbVertex
100
AcDb2dVertex
 10
174.6116332690821
 20
25.415898864519
 30
0.0
  0
VERTEX
  5
4E6
330
4D7
100
AcDbEntity
  8
Visible (ANSI)
100
AcDbVertex
100
AcDb2dVertex
 10
174.6142364509278
 20
25.41472665285434
 30
0.0
  0
VERTEX
  5
4E7
330
4D7
100
AcDbEntity
  8
Visible (ANSI)
100
AcDbVertex
100
AcDb2dVertex
 10
174.6171203365922
 20
25.41408615938893
 30
0.0
  0
VERTEX
  5
4E8
330
4D7
100
AcDbEntity
  8
Visible (ANSI)
100
AcDbVertex
100
AcDb2dVertex
 10
174.6202633880402
 20
25.41398541309489
 30
0.0
  0
VERTEX
  5
4E9
330
4D7
100
AcDbEntity
  8
Visible (ANSI)
100
AcDbVertex
100
AcDb2dVertex
 10
174.6236472116569
 20
25.41442769463599
 30
0.0
  0
VERTEX
  5
4EA
330
4D7
100
AcDbEntity
  8
Visible (ANSI)
100
AcDbVertex
100
AcDb2dVertex
 10
174.6272396476546
 20
25.41542127656772
 30
0.0
  0
VERTEX
  5
4EB
330
4D7
100
AcDbEntity
  8
Visible (ANSI)
100
AcDbVertex
100
AcDb2dVertex
 10
174.6310203817501
 20
25.41696475193639
 30
0.0
  0
VERTEX
  5
4EC
330
4D7
100
AcDbEntity
  8
Visible (ANSI)
100
AcDbVertex
100
AcDb2dVertex
 10
174.6349640324975
 20
25.41905679786548
 30
0.0
  0
VERTEX
  5
4ED
330
4D7
100
AcDbEntity
  8
Visible (ANSI)
100
AcDbVertex
100
AcDb2dVertex
 10
174.6390445308677
 20
25.42169374826013
 30
0.0
  0
VERTEX
  5
4EE
330
4D7
100
AcDbEntity
  8
Visible (ANSI)
100
AcDbVertex
100
AcDb2dVertex
 10
174.6432352156605
 20
25.42486959973948
 30
0.0
  0
VERTEX
  5
4EF
330
4D7
100
AcDbEntity
  8
Visible (ANSI)
100
AcDbVertex
100
AcDb2dVertex
 10
174.6475089553608
 20
25.42857604291487
 30
0.0
  0
VERTEX
  5
4F0
330
4D7
100
AcDbEntity
  8
Visible (ANSI)
100
AcDbVertex
100
AcDb2dVertex
 10
174.6518425121624
 20
25.43280005022972
 30
0.0
  0
VERTEX
  5
4F1
330
4D7
100
AcDbEntity
  8
Visible (ANSI)
100
AcDbVertex
100
AcDb2dVertex
 10
174.6561996650804
 20
25.43753370537656
 30
0.0
  0
SEQEND
  5
4DA
330
4D7
100
AcDbEntity
  8
Visible (ANSI)
  0
POLYLINE
  5
4F2
330
6C
100
AcDbEntity
  8
Visible (ANSI)
100
AcDb2dPolyline
 66
     1
 10
0.0
 20
0.0
 30
0.0
 70
   128
  0
VERTEX
  5
4F3
330
4F2
100
AcDbEntity
  8
Visible (ANSI)
100
AcDbVertex
100
AcDb2dVertex
 10
135.26416024178
 20
48.0746013087781
 30
0.0
  0
VERTEX
  5
4F4
330
4F2
100
AcDbEntity
  8
Visible (ANSI)
100
AcDbVertex
100
AcDb2dVertex
 10
135.2608128154516
 20
48.07661625965877
 30
0.0
  0
VERTEX
  5
4F6
330
4F2
100
AcDbEntity
  8
Visible (ANSI)
100
AcDbVertex
100
AcDb2dVertex
 10
135.2575433276064
 20
48.07876082712741
 30
0.0
  0
VERTEX
  5
4F7
330
4F2
100
AcDbEntity
  8
Visible (ANSI)
100
AcDbVertex
100
AcDb2dVertex
 10
135.2543541635238
 20
48.0810333608317
 30
0.0
  0
VERTEX
  5
4F8
330
4F2
100
AcDbEntity
  8
Visible (ANSI)
100
AcDbVertex
100
AcDb2dVertex
 10
135.2512475757371
 20
48.08343209066189
 30
0.0
  0
VERTEX
  5
4F9
330
4F2
100
AcDbEntity
  8
Visible (ANSI)
100
AcDbVertex
100
AcDb2dVertex
 10
135.2482257669999
 20
48.08595509089025
 30
0.0
  0
VERTEX
  5
4FA
330
4F2
100
AcDbEntity
  8
Visible (ANSI)
100
AcDbVertex
100
AcDb2dVertex
 10
135.2452908280614
 20
48.08860031842049
 30
0.0
  0
VERTEX
  5
4FB
330
4F2
100
AcDbEntity
  8
Visible (ANSI)
100
AcDbVertex
100
AcDb2dVertex
 10
135.242444745963
 20
48.09136559849161
 30
0.0
  0
VERTEX
  5
4FC
330
4F2
100
AcDbEntity
  8
Visible (ANSI)
100
AcDbVertex
100
AcDb2dVertex
 10
135.2396894455213
 20
48.09424860551163
 30
0.0
  0
VERTEX
  5
4FD
330
4F2
100
AcDbEntity
  8
Visible (ANSI)
100
AcDbVertex
100
AcDb2dVertex
 10
135.2370267354004
 20
48.09724692290843
 30
0.0
  0
VERTEX
  5
4FE
330
4F2
100
AcDbEntity
  8
Visible (ANSI)
100
AcDbVertex
100
AcDb2dVertex
 10
135.2344583081115
 20
48.10035798089004
 30
0.0
  0
VERTEX
  5
4FF
330
4F2
100
AcDbEntity
  8
Visible (ANSI)
100
AcDbVertex
100
AcDb2dVertex
 10
135.2319857814962
 20
48.10357909003664
 30
0.0
  0
VERTEX
  5
500
330
4F2
100
AcDbEntity
  8
Visible (ANSI)
100
AcDbVertex
100
AcDb2dVertex
 10
135.2296106489467
 20
48.10690746033736
 30
0.0
  0
VERTEX
  5
501
330
4F2
100
AcDbEntity
  8
Visible (ANSI)
100
AcDbVertex
100
AcDb2dVertex
 10
135.2273343374824
 20
48.11034017737579
 30
0.0
  0
VERTEX
  5
502
330
4F2
100
AcDbEntity
  8
Visible (ANSI)
100
AcDbVertex
100
AcDb2dVertex
 10
135.2251581081901
 20
48.11387419749675
 30
0.0
  0
VERTEX
  5
503
330
4F2
100
AcDbEntity
  8
Visible (ANSI)
100
AcDbVertex
100
AcDb2dVertex
 10
135.2230831557836
 20
48.11750640524986
 30
0.0
  0
VERTEX
  5
504
330
4F2
100
AcDbEntity
  8
Visible (ANSI)
100
AcDbVertex
100
AcDb2dVertex
 10
135.2211105671206
 20
48.12123354644604
 30
0.0
  0
VERTEX
  5
505
330
4F2
100
AcDbEntity
  8
Visible (ANSI)
100
AcDbVertex
100
AcDb2dVertex
 10
135.2192413046093
 20
48.12505228552711
 30
0.0
  0
VERTEX
  5
506
330
4F2
100
AcDbEntity
  8
Visible (ANSI)
100
AcDbVertex
100
AcDb2dVertex
 10
135.217476206209
 20
48.12895916251083
 30
0.0
  0
VERTEX
  5
507
330
4F2
100
AcDbEntity
  8
Visible (ANSI)
100
AcDbVertex
100
AcDb2dVertex
 10
135.2158160352088
 20
48.13295065534175
 30
0.0
  0
VERTEX
  5
508
330
4F2
100
AcDbEntity
  8
Visible (ANSI)
100
AcDbVertex
100
AcDb2dVertex
 10
135.2142614138557
 20
48.13702313181803
 30
0.0
  0
VERTEX
  5
509
330
4F2
100
AcDbEntity
  8
Visible (ANSI)
100
AcDbVertex
100
AcDb2dVertex
 10
135.2128128565402
 20
48.14117285940587
 30
0.0
  0
VERTEX
  5
50A
330
4F2
100
AcDbEntity
  8
Visible (ANSI)
100
AcDbVertex
100
AcDb2dVertex
 10
135.211470769797
 20
48.14539605294271
 30
0.0
  0
VERTEX
  5
50B
330
4F2
100
AcDbEntity
  8
Visible (ANSI)
100
AcDbVertex
100
AcDb2dVertex
 10
135.2102354274145
 20
48.1496888412302
 30
0.0
  0
VERTEX
  5
50C
330
4F2
100
AcDbEntity
  8
Visible (ANSI)
100
AcDbVertex
100
AcDb2dVertex
 10
135.2091070285119
 20
48.15404726221945
 30
0.0
  0
SEQEND
  5
4F5
330
4F2
100
AcDbEntity
  8
Visible (ANSI)
  0
LINE
  5
50D
330
6C
100
AcDbEntity
  8
Visible (ANSI)
100
AcDbLine
 10
135.7116688636846
 20
48.37142143397099
 30
0.0
 11
135.8792945947168
 21
48.46795067257215
 31
0.0
  0
LINE
  5
50E
330
6C
100
AcDbEntity
  8
Visible (ANSI)
100
AcDbLine
 10
174.6561984257693
 20
25.46305211503623
 30
0.0
 11
174.6561984257693
 21
25.43753441846137
 31
0.0
  0
LINE
  5
50F
330
6C
100
AcDbEntity
  8
Visible (ANSI)
100
AcDbLine
 10
174.6561984257693
 20
25.43753441846137
 30
0.0
 11
174.7240432543371
 21
25.47660365684352
 31
0.0
  0
LINE
  5
510
330
6C
100
AcDbEntity
  8
Visible (ANSI)
100
AcDbLine
 10
174.8052528759408
 20
25.52336916767659
 30
0.0
 11
175.1754976458726
 21
25.73657895067051
 31
0.0
  0
LINE
  5
511
330
6C
100
AcDbEntity
  8
Visible (ANSI)
100
AcDbLine
 10
175.1754976458726
 20
25.737252339694
 30
0.0
 11
175.1754976458726
 21
25.73657895067051
 31
0.0
  0
POLYLINE
  5
512
330
6C
100
AcDbEntity
  8
Visible (ANSI)
100
AcDb2dPolyline
 66
     1
 10
0.0
 20
0.0
 30
0.0
 70
   128
  0
VERTEX
  5
513
330
512
100
AcDbEntity
  8
Visible (ANSI)
100
AcDbVertex
100
AcDb2dVertex
 10
174.7113649942548
 20
74.29822582466957
 30
0.0
  0
VERTEX
  5
514
330
512
100
AcDbEntity
  8
Visible (ANSI)
100
AcDbVertex
100
AcDb2dVertex
 10
174.7165446075572
 20
74.28883534294752
 30
0.0
  0
VERTEX
  5
516
330
512
100
AcDbEntity
  8
Visible (ANSI)
100
AcDbVertex
100
AcDb2dVertex
 10
174.7234874571864
 20
74.28041622909789
 30
0.0
  0
VERTEX
  5
517
330
512
100
AcDbEntity
  8
Visible (ANSI)
100
AcDbVertex
100
AcDb2dVertex
 10
174.7317025992489
 20
74.27318966277976
 30
0.0
  0
VERTEX
  5
518
330
512
100
AcDbEntity
  8
Visible (ANSI)
100
AcDbVertex
100
AcDb2dVertex
 10
174.7405623900117
 20
74.26732260322949
 30
0.0
  0
SEQEND
  5
515
330
512
100
AcDbEntity
  8
Visible (ANSI)
  0
POLYLINE
  5
519
330
6C
100
AcDbEntity
  8
Visible (ANSI)
100
AcDb2dPolyline
 66
     1
 10
0.0
 20
0.0
 30
0.0
 70
   128
  0
VERTEX
  5
51A
330
519
100
AcDbEntity
  8
Visible (ANSI)
100
AcDbVertex
100
AcDb2dVertex
 10
174.6561996650806
 20
74.41329554664233
 30
0.0
  0
VERTEX
  5
51B
330
519
100
AcDbEntity
  8
Visible (ANSI)
100
AcDbVertex
100
AcDb2dVertex
 10
174.6568642676795
 20
74.40271653132079
 30
0.0
  0
VERTEX
  5
51D
330
519
100
AcDbEntity
  8
Visible (ANSI)
100
AcDbVertex
100
AcDb2dVertex
 10
174.6590185653655
 20
74.39203762700987
 30
0.0
  0
VERTEX
  5
51E
330
519
100
AcDbEntity
  8
Visible (ANSI)
100
AcDbVertex
100
AcDb2dVertex
 10
174.6628392780389
 20
74.38183705584986
 30
0.0
  0
VERTEX
  5
51F
330
519
100
AcDbEntity
  8
Visible (ANSI)
100
AcDbVertex
100
AcDb2dVertex
 10
174.6683716894496
 20
74.37269583743428
 30
0.0
  0
SEQEND
  5
51C
330
519
100
AcDbEntity
  8
Visible (ANSI)
  0
LINE
  5
520
330
6C
100
AcDbEntity
  8
Visible (ANSI)
100
AcDbLine
 10
175.3263859935211
 20
74.52806059059233
 30
0.0
 11
175.326385993521
 21
25.82414316022968
 31
0.0
  0
LINE
  5
521
330
6C
100
AcDbEntity
  8
Visible (ANSI)
100
AcDbLine
 10
135.8792945947169
 20
97.41858477251904
 30
0.0
 11
175.1754976458727
 21
74.78940644122278
 31
0.0
  0
LINE
  5
522
330
6C
100
AcDbEntity
  8
Visible (ANSI)
100
AcDbLine
 10
135.8167945947168
 20
48.5762036683732
 30
0.0
 11
135.8167945947168
 21
48.61071537179541
 31
0.0
  0
LINE
  5
523
330
6C
100
AcDbEntity
  8
Visible (ANSI)
100
AcDbLine
 10
135.8167945947168
 20
72.08722929722291
 30
0.0
 11
135.8167945947168
 21
72.4217753828343
 31
0.0
  0
LINE
  5
524
330
6C
100
AcDbEntity
  8
Visible (ANSI)
100
AcDbLine
 10
135.8167945947169
 20
95.89828930826177
 30
0.0
 11
135.8167945947169
 21
96.23283539387315
 31
0.0
  0
LINE
  5
525
330
6C
100
AcDbEntity
  8
Visible (ANSI)
100
AcDbLine
 10
174.2684626474876
 20
26.36109905829888
 30
0.0
 11
173.9782974414875
 21
26.52819408739282
 31
0.0
  0
LINE
  5
526
330
6C
100
AcDbEntity
  8
Visible (ANSI)
100
AcDbLine
 10
155.0881912077997
 20
37.40628279491438
 30
0.0
 11
154.7980260017996
 21
37.57337782400831
 31
0.0
  0
LINE
  5
527
330
6C
100
AcDbEntity
  8
Visible (ANSI)
100
AcDbLine
 10
135.9079197681118
 20
48.45146653152992
 30
0.0
 11
135.8792945947168
 21
48.46795067257215
 31
0.0
  0
SPLINE
  5
528
330
6C
100
AcDbEntity
  8
Visible (ANSI)
100
AcDbSpline
210
0.0
220
0.0
230
1.0
 70
     8
 71
     3
 72
    11
 73
     7
 74
     0
 42
0.0000000001
 43
0.0000000001
 40
0.0
 40
0.0
 40
0.0
 40
0.0
 40
1.018582815488709
 40
1.018582815488709
 40
1.018582815488709
 40
1.57079632679492
 40
1.57079632679492
 40
1.57079632679492
 40
1.57079632679492
 10
88.68567375957098
 20
115.0788731038346
 30
0.0
 10
88.7334113408569
 20
115.0788731038346
 30
0.0
 10
88.78033389613911
 20
115.1050760094137
 30
0.0
 10
88.80537574330126
 20
115.1457181372829
 30
0.0
 10
88.81895190631986
 20
115.1677518215316
 30
0.0
 10
88.82627375957103
 20
115.1935926972713
 30
0.0
 10
88.82627375957103
 20
115.2194731038346
 30
0.0
  0
LINE
  5
529
330
6C
100
AcDbEntity
  8
Visible (ANSI)
100
AcDbLine
 10
88.70127375957096
 20
115.2194731038346
 30
0.0
 11
88.70127375957101
 21
115.9538731038346
 31
0.0
  0
LINE
  5
52A
330
6C
100
AcDbEntity
  8
Visible (ANSI)
100
AcDbLine
 10
88.70127375957096
 20
115.2194731038346
 30
0.0
 11
88.82627375957097
 21
115.2194731038346
 31
0.0
  0
SPLINE
  5
52B
330
6C
100
AcDbEntity
  8
Visible (ANSI)
100
AcDbSpline
210
0.0
220
0.0
230
1.0
 70
     8
 71
     3
 72
     8
 73
     4
 74
     0
 42
0.0000000001
 43
0.0000000001
 40
0.0
 40
0.0
 40
0.0
 40
0.0
 40
1.57079632679492
 40
1.57079632679492
 40
1.57079632679492
 40
1.57079632679492
 10
88.68567375957102
 20
115.2038731038346
 30
0.0
 10
88.69384190047034
 20
115.2038731038346
 30
0.0
 10
88.701273759571
 20
115.2113049629353
 30
0.0
 10
88.70127375957101
 20
115.2194731038346
 30
0.0
  0
LINE
  5
52C
330
6C
100
AcDbEntity
  8
Visible (ANSI)
100
AcDbLine
 10
88.68567375957104
 20
115.2038731038346
 30
0.0
 11
88.68567375957102
 21
115.1731346025238
 31
0.0
  0
LINE
  5
52D
330
6C
100
AcDbEntity
  8
Visible (ANSI)
100
AcDbLine
 10
88.68567375957102
 20
115.1731346025238
 30
0.0
 11
88.68567375957104
 21
115.0788731038346
 31
0.0
  0
LINE
  5
52E
330
6C
100
AcDbEntity
  8
Visible (ANSI)
100
AcDbLine
 10
88.82627375957097
 20
115.2194731038346
 30
0.0
 11
88.82627375957103
 21
115.9538731038346
 31
0.0
  0
LINE
  5
52F
330
6C
100
AcDbEntity
  8
Visible (ANSI)
100
AcDbLine
 10
88.70127375957101
 20
115.9538731038346
 30
0.0
 11
88.82627375957103
 21
115.9538731038346
 31
0.0
  0
SPLINE
  5
530
330
6C
100
AcDbEntity
  8
Visible (ANSI)
100
AcDbSpline
210
0.0
220
0.0
230
1.0
 70
     8
 71
     3
 72
    11
 73
     7
 74
     0
 42
0.0000000001
 43
0.0000000001
 40
0.0
 40
0.0
 40
0.0
 40
0.0
 40
1.018582815488228
 40
1.018582815488228
 40
1.018582815488228
 40
1.57079632679492
 40
1.57079632679492
 40
1.57079632679492
 40
1.57079632679492
 10
32.96687375957106
 20
115.0788731038346
 30
0.0
 10
32.98260695994797
 20
115.0788731038346
 30
0.0
 10
32.99834016032488
 20
115.1050760094137
 30
0.0
 10
33.01407336070179
 20
115.1457181372829
 30
0.0
 10
33.02260294287431
 20
115.1677518215316
 30
0.0
 10
33.03113252504684
 20
115.1935926972714
 30
0.0
 10
33.03966210721936
 20
115.2194731038346
 30
0.0
  0
SPLINE
  5
531
330
6C
100
AcDbEntity
  8
Visible (ANSI)
100
AcDbSpline
210
0.0
220
0.0
230
1.0
 70
     8
 71
     3
 72
    11
 73
     7
 74
     0
 42
0.0000000001
 43
0.0000000001
 40
0.0
 40
0.0
 40
0.0
 40
0.0
 40
1.018582815488739
 40
1.018582815488739
 40
1.018582815488739
 40
1.570796326795524
 40
1.570796326795524
 40
1.570796326795524
 40
1.570796326795524
 10
88.61288541192271
 20
115.2194731038347
 30
0.0
 10
88.62861861229962
 20
115.1717355225488
 30
0.0
 10
88.64435181267655
 20
115.1248129672665
 30
0.0
 10
88.66008501305346
 20
115.0997711201044
 30
0.0
 10
88.66861459522597
 20
115.0861949570857
 30
0.0
 10
88.67714417739851
 20
115.0788731038346
 30
0.0
 10
88.68567375957102
 20
115.0788731038346
 30
0.0
  0
LINE
  5
532
330
6C
100
AcDbEntity
  8
Visible (ANSI)
100
AcDbLine
 10
88.61288541192271
 20
115.9538731038347
 30
0.0
 11
88.61288541192271
 21
115.2194731038347
 31
0.0
  0
SPLINE
  5
533
330
6C
100
AcDbEntity
  8
Visible (ANSI)
100
AcDbSpline
210
0.0
220
0.0
230
1.0
 70
     8
 71
     3
 72
     8
 73
     4
 74
     0
 42
0.0000000001
 43
0.0000000001
 40
0.0
 40
0.0
 40
0.0
 40
0.0
 40
1.570796326795524
 40
1.570796326795524
 40
1.570796326795524
 40
1.570796326795524
 10
88.68567375957102
 20
115.2038731038346
 30
0.0
 10
88.66141097702158
 20
115.2038731038346
 30
0.0
 10
88.63714819447215
 20
115.2113049629353
 30
0.0
 10
88.61288541192271
 20
115.2194731038346
 30
0.0
  0
SPLINE
  5
534
330
6C
100
AcDbEntity
  8
Visible (ANSI)
100
AcDbSpline
210
0.0
220
0.0
230
1.0
 70
     8
 71
     3
 72
     8
 73
     4
 74
     0
 42
0.0000000001
 43
0.0000000001
 40
0.0
 40
0.0
 40
0.0
 40
0.0
 40
1.57079632679492
 40
1.57079632679492
 40
1.57079632679492
 40
1.57079632679492
 10
32.96687375957106
 20
115.2038731038346
 30
0.0
 10
32.99113654212049
 20
115.2038731038346
 30
0.0
 10
33.01539932466992
 20
115.2113049629353
 30
0.0
 10
33.03966210721936
 20
115.2194731038346
 30
0.0
  0
LINE
  5
535
330
6C
100
AcDbEntity
  8
Visible (ANSI)
100
AcDbLine
 10
32.96687375957103
 20
115.2038731038346
 30
0.0
 11
32.96687375957106
 21
115.1731346025237
 31
0.0
  0
LINE
  5
536
330
6C
100
AcDbEntity
  8
Visible (ANSI)
100
AcDbLine
 10
32.96687375957106
 20
115.1731346025237
 30
0.0
 11
32.96687375957103
 21
115.0788731038346
 31
0.0
  0
LINE
  5
537
330
6C
100
AcDbEntity
  8
Visible (ANSI)
100
AcDbLine
 10
33.03966210721936
 20
115.2194731038346
 30
0.0
 11
33.03966210721936
 21
115.9538731038346
 31
0.0
  0
SPLINE
  5
538
330
6C
100
AcDbEntity
  8
Visible (ANSI)
100
AcDbSpline
210
0.0
220
0.0
230
1.0
 70
     8
 71
     3
 72
    11
 73
     7
 74
     0
 42
0.0000000001
 43
0.0000000001
 40
0.0
 40
0.0
 40
0.0
 40
0.0
 40
1.01858281548856
 40
1.01858281548856
 40
1.01858281548856
 40
1.570796326794877
 40
1.570796326794877
 40
1.570796326794877
 40
1.570796326794877
 10
32.82627375957103
 20
115.2194731038346
 30
0.0
 10
32.82627375957103
 20
115.1717355225487
 30
0.0
 10
32.85247666515016
 20
115.1248129672665
 30
0.0
 10
32.89311879301934
 20
115.0997711201044
 30
0.0
 10
32.91515247726801
 20
115.0861949570858
 30
0.0
 10
32.94099335300781
 20
115.0788731038346
 30
0.0
 10
32.96687375957103
 20
115.0788731038346
 30
0.0
  0
LINE
  5
539
330
6C
100
AcDbEntity
  8
Visible (ANSI)
100
AcDbLine
 10
32.95127375957103
 20
115.2194731038346
 30
0.0
 11
32.95127375957103
 21
115.9538731038346
 31
0.0
  0
LINE
  5
53A
330
6C
100
AcDbEntity
  8
Visible (ANSI)
100
AcDbLine
 10
32.82627375957103
 20
115.9538731038346
 30
0.0
 11
32.82627375957103
 21
115.2194731038346
 31
0.0
  0
LINE
  5
53B
330
6C
100
AcDbEntity
  8
Visible (ANSI)
100
AcDbLine
 10
32.95127375957103
 20
115.2194731038346
 30
0.0
 11
32.82627375957103
 21
115.2194731038346
 31
0.0
  0
LINE
  5
53C
330
6C
100
AcDbEntity
  8
Visible (ANSI)
100
AcDbLine
 10
32.95127375957103
 20
115.9538731038346
 30
0.0
 11
32.82627375957103
 21
115.9538731038346
 31
0.0
  0
SPLINE
  5
53D
330
6C
100
AcDbEntity
  8
Visible (ANSI)
100
AcDbSpline
210
0.0
220
0.0
230
1.0
 70
     8
 71
     3
 72
     8
 73
     4
 74
     0
 42
0.0000000001
 43
0.0000000001
 40
0.0
 40
0.0
 40
0.0
 40
0.0
 40
1.570796326794877
 40
1.570796326794877
 40
1.570796326794877
 40
1.570796326794877
 10
32.96687375957103
 20
115.2038731038346
 30
0.0
 10
32.9587056186717
 20
115.2038731038346
 30
0.0
 10
32.95127375957103
 20
115.2113049629353
 30
0.0
 10
32.95127375957103
 20
115.2194731038346
 30
0.0
  0
LINE
  5
53E
330
6C
100
AcDbEntity
  8
Visible (ANSI)
100
AcDbLine
 10
88.68567375957104
 20
115.0788731038346
 30
0.0
 11
32.96687375957103
 21
115.0788731038346
 31
0.0
  0
LINE
  5
53F
330
6C
100
AcDbEntity
  8
Hidden (ANSI)
 48
1.069696903228759
100
AcDbLine
 10
32.96687375957103
 20
115.2038731038346
 30
0.0
 11
88.68567375957104
 21
115.2038731038346
 31
0.0
  0
LINE
  5
540
330
6C
100
AcDbEntity
  8
Visible (ANSI)
100
AcDbLine
 10
33.03966210721936
 20
115.9538731038346
 30
0.0
 11
88.61288541192271
 21
115.9538731038347
 31
0.0
  0
LINE
  5
541
330
6C
100
AcDbEntity
  8
Hidden (ANSI)
 48
0.0197405889630318
100
AcDbLine
 10
61.10777375957104
 20
115.2038731038344
 30
0.0
 11
61.10777375957104
 21
115.0788731038344
 31
0.0
  0
LINE
  5
542
330
6C
100
AcDbEntity
  8
Hidden (ANSI)
 48
0.0197405889630318
100
AcDbLine
 10
60.54477375957104
 20
115.2038731038344
 30
0.0
 11
60.54477375957104
 21
115.0788731038344
 31
0.0
  0
LINE
  5
543
330
6C
100
AcDbEntity
  8
Hidden (ANSI)
 48
0.0197405889630318
100
AcDbLine
 10
88.23277375957097
 20
115.2038731038344
 30
0.0
 11
88.23277375957097
 21
115.0788731038344
 31
0.0
  0
LINE
  5
544
330
6C
100
AcDbEntity
  8
Hidden (ANSI)
 48
0.0197405889630318
100
AcDbLine
 10
87.66977375957097
 20
115.2038731038344
 30
0.0
 11
87.66977375957097
 21
115.0788731038344
 31
0.0
  0
LINE
  5
545
330
6C
100
AcDbEntity
  8
Hidden (ANSI)
 48
0.0197405889630318
100
AcDbLine
 10
33.98277375957103
 20
115.2038731038344
 30
0.0
 11
33.98277375957103
 21
115.0788731038344
 31
0.0
  0
LINE
  5
546
330
6C
100
AcDbEntity
  8
Hidden (ANSI)
 48
0.0197405889630318
100
AcDbLine
 10
33.41977375957103
 20
115.2038731038344
 30
0.0
 11
33.41977375957103
 21
115.0788731038344
 31
0.0
  0
MTEXT
  5
547
330
6C
100
AcDbEntity
  8
Symbol (ANSI)
100
AcDbMText
 10
56.15970706329812
 20
109.2753828380519
 30
0.0
 40
1.440000017796914
 41
0.0
 46
0.0
 71
     7
 72
     1
  1
TOP VIEW
  7
Text Style153
 73
     1
 44
1.0
  0
LINE
  5
548
330
6C
100
AcDbEntity
  8
Symbol (ANSI)
370
    30
100
AcDbLine
 10
56.16085906626148
 20
108.9817231895532
 30
0.0
 11
65.24662879467427
 21
108.9817231895532
 31
0.0
  0
LINE
  5
549
330
6C
100
AcDbEntity
  8
Center Mark (ANSI)
  6
CHAIN
 48
0.1648447215557098
100
AcDbLine
 10
33.70127375955517
 20
92.31226342580653
 30
0.0
 11
33.70127375955517
 21
88.74926342580652
 31
0.0
  0
LINE
  5
54A
330
6C
100
AcDbEntity
  8
Center Mark (ANSI)
  6
CHAIN
 48
0.1648447215557098
100
AcDbLine
 10
87.95127375955512
 20
92.31226342580653
 30
0.0
 11
87.95127375955512
 21
88.74926342580652
 31
0.0
  0
LINE
  5
54B
330
6C
100
AcDbEntity
  8
Centerline (ANSI)
  6
CHAIN
 48
0.9524481296539306
100
AcDbLine
 10
31.91977375955517
 20
90.5307634258065
 30
0.0
 11
89.73277375955511
 21
90.5307634258065
 31
0.0
  0
LINE
  5
54C
330
6C
100
AcDbEntity
  8
Center Mark (ANSI)
  6
CHAIN
 48
0.1648447215557098
100
AcDbLine
 10
89.73277375955511
 20
90.5307634258065
 30
0.0
 11
86.16977375955512
 21
90.5307634258065
 31
0.0
  0
LINE
  5
54D
330
6C
100
AcDbEntity
  8
Center Mark (ANSI)
  6
CHAIN
 48
0.1648447215557098
100
AcDbLine
 10
89.73277375955511
 20
32.28076342580655
 30
0.0
 11
86.16977375955512
 21
32.28076342580655
 31
0.0
  0
LINE
  5
54E
330
6C
100
AcDbEntity
  8
Centerline (ANSI)
  6
CHAIN
 48
0.9524481296539306
100
AcDbLine
 10
87.95127375955512
 20
92.31226342580653
 30
0.0
 11
87.95127375955512
 21
30.49926342580655
 31
0.0
  0
LINE
  5
54F
330
6C
100
AcDbEntity
  8
Center Mark (ANSI)
  6
CHAIN
 48
0.1648447215557098
100
AcDbLine
 10
87.95127375955512
 20
30.49926342580655
 30
0.0
 11
87.95127375955512
 21
34.06226342580654
 31
0.0
  0
LINE
  5
550
330
6C
100
AcDbEntity
  8
Center Mark (ANSI)
  6
CHAIN
 48
0.1648447215557098
100
AcDbLine
 10
33.70127375955517
 20
30.49926342580655
 30
0.0
 11
33.70127375955517
 21
34.06226342580654
 31
0.0
  0
LINE
  5
551
330
6C
100
AcDbEntity
  8
Centerline (ANSI)
  6
CHAIN
 48
0.9524481296539306
100
AcDbLine
 10
89.73277375955511
 20
32.28076342580655
 30
0.0
 11
31.91977375955517
 21
32.28076342580655
 31
0.0
  0
LINE
  5
552
330
6C
100
AcDbEntity
  8
Center Mark (ANSI)
  6
CHAIN
 48
0.1648447215557098
100
AcDbLine
 10
31.91977375955517
 20
32.28076342580655
 30
0.0
 11
35.48277375955517
 21
32.28076342580655
 31
0.0
  0
LINE
  5
553
330
6C
100
AcDbEntity
  8
Center Mark (ANSI)
  6
CHAIN
 48
0.1648447215557098
100
AcDbLine
 10
31.91977375955517
 20
90.5307634258065
 30
0.0
 11
35.48277375955517
 21
90.5307634258065
 31
0.0
  0
LINE
  5
554
330
6C
100
AcDbEntity
  8
Centerline (ANSI)
  6
CHAIN
 48
0.9524481296539306
100
AcDbLine
 10
33.70127375955517
 20
30.49926342580655
 30
0.0
 11
33.70127375955517
 21
92.31226342580653
 31
0.0
  0
LINE
  5
555
330
6C
100
AcDbEntity
  8
Center Mark (ANSI)
  6
CHAIN
 48
0.1648447215557098
100
AcDbLine
 10
33.70127375955518
 20
63.18726342580654
 30
0.0
 11
33.70127375955518
 21
59.62426342580655
 31
0.0
  0
LINE
  5
556
330
6C
100
AcDbEntity
  8
Center Mark (ANSI)
  6
CHAIN
 48
0.1648447215557098
100
AcDbLine
 10
87.95127375955516
 20
63.18726342580656
 30
0.0
 11
87.95127375955516
 21
59.62426342580656
 31
0.0
  0
LINE
  5
557
330
6C
100
AcDbEntity
  8
Centerline (ANSI)
  6
CHAIN
 48
0.9524481296539306
100
AcDbLine
 10
31.91977375955519
 20
61.40576342580654
 30
0.0
 11
89.73277375955516
 21
61.40576342580655
 31
0.0
  0
DIMENSION
  5
558
330
6C
100
AcDbEntity
  8
Dimension (ANSI)
100
AcDbDimension
280
     0
  2
*D4
 10
88.82627375955511
 20
102.7714294042928
 30
0.0
 11
60.82627375955518
 21
102.7714294042928
 31
0.0
 70
   160
  1
<>
 42
55.99999999999994
 73
     0
 74
     0
 75
     0
  3
Default (ANSI)
100
AcDbAlignedDimension
 13
32.82627375955517
 23
91.19237507815823
 33
0.0
 14
88.82627375955511
 24
91.19237507815823
 34
0.0
100
AcDbRotatedDimension
1001
ACAD
1000
DSTYLE
1002
{
1070
   289
1070
     1
1070
    73
1070
     0
1070
    74
1070
     0
1070
   271
1070
     2
1070
   272
1070
     2
1070
    48
1040
0.0
1070
    47
1040
0.0
1002
}
  0
DIMENSION
  5
644
330
6C
100
AcDbEntity
  8
Dimension (ANSI)
100
AcDbDimension
280
     0
  2
*D5
 10
33.70127375955517
 20
95.93952291240549
 30
0.0
 11
27.63014629791901
 21
95.93952291240549
 31
0.0
 70
   160
  1
<>
 42
0.875
 73
     0
 74
     0
 75
     0
  3
Default (ANSI)
100
AcDbAlignedDimension
 13
32.82627375955517
 23
91.19237507815823
 33
0.0
 14
33.70127375955517
 24
92.31226342580653
 34
0.0
100
AcDbRotatedDimension
1001
ACAD
1000
DSTYLE
1002
{
1070
   289
1070
     1
1070
    73
1070
     0
1070
    74
1070
     0
1070
   271
1070
     2
1070
   272
1070
     2
1070
    48
1040
0.0
1070
    47
1040
0.0
1002
}
  0
DIMENSION
  5
72E
330
6C
100
AcDbEntity
  8
Dimension (ANSI)
100
AcDbDimension
280
     0
  2
*D6
 10
60.82627375955517
 20
95.93952291240549
 30
0.0
 11
47.26377375955517
 21
95.93952291240549
 31
0.0
 70
   160
  1
<>
 42
27.125
 73
     0
 74
     0
 75
     0
  3
Default (ANSI)
100
AcDbAlignedDimension
 13
33.70127375955517
 23
92.31226342580653
 33
0.0
 14
60.82627375955517
 24
92.31226342580653
 34
0.0
 50
180.0
100
AcDbRotatedDimension
1001
ACAD
1000
DSTYLE
1002
{
1070
   289
1070
     1
1070
    73
1070
     0
1070
    74
1070
     0
1070
   271
1070
     2
1070
   272
1070
     2
1070
    48
1040
0.0
1070
    47
1040
0.0
1002
}
  0
DIMENSION
  5
818
330
6C
100
AcDbEntity
  8
Dimension (ANSI)
100
AcDbDimension
280
     0
  2
*D7
 10
31.81236173953071
 20
32.28076342580655
 30
0.0
 11
28.40761148937517
 21
27.96179143522087
 31
0.0
 70
   160
  1
<>
 42
0.8750000000000035
 73
     0
 74
     0
 75
     0
  3
Default (ANSI)
100
AcDbAlignedDimension
 13
33.0396621072035
 23
31.40576342580655
 33
0.0
 14
31.91977375955517
 24
32.28076342580655
 34
0.0
 50
90.0
100
AcDbRotatedDimension
1001
ACAD
1000
DSTYLE
1002
{
1070
   289
1070
     1
1070
   271
1070
     2
1070
   272
1070
     2
1070
    48
1040
0.0
1070
    47
1040
0.0
1002
}
  0
DIMENSION
  5
918
330
6C
100
AcDbEntity
  8
Dimension (ANSI)
100
AcDbDimension
280
     0
  2
*D8
 10
28.40761148937517
 20
61.40576342580654
 30
0.0
 11
28.40761148937517
 21
46.84326342580654
 31
0.0
 70
   160
  1
<>
 42
29.125
 73
     0
 74
     0
 75
     0
  3
Default (ANSI)
100
AcDbAlignedDimension
 13
31.91977375955517
 23
32.28076342580655
 33
0.0
 14
31.91977375955519
 24
61.40576342580654
 34
0.0
 50
90.0
100
AcDbRotatedDimension
1001
ACAD
1000
DSTYLE
1002
{
1070
   289
1070
     1
1070
   271
1070
     2
1070
   272
1070
     2
1070
    48
1040
0.0
1070
    47
1040
0.0
1002
}
  0
DIMENSION
  5
A02
330
6C
100
AcDbEntity
  8
Dimension (ANSI)
100
AcDbDimension
280
     0
  2
*D9
 10
20.89615171231111
 20
90.5307634258065
 30
0.0
 11
20.89615171231109
 21
61.40576342580654
 31
0.0
 70
   160
  1
<>
 42
58.24999999999995
 73
     0
 74
     0
 75
     0
  3
Default (ANSI)
100
AcDbAlignedDimension
 13
31.91977375955517
 23
32.28076342580655
 33
0.0
 14
31.91977375955517
 24
90.5307634258065
 34
0.0
 50
90.0
100
AcDbRotatedDimension
1001
ACAD
1000
DSTYLE
1002
{
1070
   289
1070
     1
1070
   271
1070
     2
1070
   272
1070
     2
1070
    48
1040
0.0
1070
    47
1040
0.0
1002
}
  0
DIMENSION
  5
AEC
330
6C
100
AcDbEntity
  8
Dimension (ANSI)
100
AcDbDimension
280
     0
  2
*D10
 10
13.91885313728726
 20
91.40576342580652
 30
0.0
 11
13.91885313728724
 21
61.40576342580654
 31
0.0
 70
   160
  1
<>
 42
59.99999999999997
 73
     0
 74
     0
 75
     0
  3
Default (ANSI)
100
AcDbAlignedDimension
 13
33.0396621072035
 23
31.40576342580655
 33
0.0
 14
33.0396621072035
 24
91.40576342580651
 34
0.0
 50
90.0
100
AcDbRotatedDimension
1001
ACAD
1000
DSTYLE
1002
{
1070
   289
1070
     1
1070
   271
1070
     2
1070
   272
1070
     2
1070
    48
1040
0.0
1070
    47
1040
0.0
1002
}
  0
DIMENSION
  5
BD6
330
6C
100
AcDbEntity
  8
Dimension (ANSI)
100
AcDbDimension
280
     0
  2
*D11
 10
87.77926388274206
 20
32.5035971132929
 30
0.0
 11
95.32046527436717
 21
29.29344305565831
 31
0.0
 70
   163
  1
<>{\P(8 PL.)}
 71
     4
 42
0.5629999999999893
 73
     0
 74
     0
 75
     0
  3
Default (ANSI)
100
AcDbDiametricDimension
 15
88.12328363636806
 25
32.05792973832018
 35
0.0
 40
0.0
1001
ACAD
1000
DSTYLE
1002
{
1070
   144
1040
1.000000000000001
1070
   271
1070
     3
1070
   272
1070
     3
1070
    48
1040
0.0
1070
    47
1040
0.0
1002
}
1001
ACAD_DSTYLE_DIMRADIAL_EXTENSION
1070
   387
1070
     1
1070
   388
1040
0.0
1070
   390
1040
0.0
  0
DIMENSION
  5
C90
330
6C
100
AcDbEntity
  8
Dimension (ANSI)
100
AcDbDimension
280
     0
  2
*D12
 10
78.48599993620297
 20
115.0788731038346
 30
0.0
 11
81.9473250707125
 21
121.0178451144419
 31
0.0
 70
   160
  1
<>{\PTYP.}
 71
     5
 42
0.8750000000000568
 73
     0
 74
     0
 75
     0
  3
Default (ANSI)
100
AcDbAlignedDimension
 13
81.9473250707125
 23
115.9538731038347
 33
0.0
 14
81.92750866528578
 24
115.0788731038346
 34
0.0
 50
270.0
100
AcDbRotatedDimension
1001
ACAD
1000
DSTYLE
1002
{
1070
   289
1070
     1
1070
   271
1070
     2
1070
    76
1070
     1
1070
    75
1070
     1
1070
   272
1070
     2
1070
    48
1040
0.0
1070
    47
1040
0.0
1002
}
  0
DIMENSION
  5
D99
330
6C
100
AcDbEntity
  8
Dimension (ANSI)
100
AcDbDimension
280
     0
  2
*D13
 10
112.3486866138989
 20
88.38277843846428
 30
0.0
 11
118.5309648171122
 21
88.38277843846428
 31
0.0
 70
   160
  1
<>{\PTYP.}
 71
     4
 42
0.8750000000000426
 73
     0
 74
     0
 75
     0
  3
Default (ANSI)
100
AcDbAlignedDimension
 13
113.2236866138989
 23
88.38277843846428
 33
0.0
 14
112.3486866138989
 24
88.40901025488808
 34
0.0
 50
180.0
100
AcDbRotatedDimension
1001
ACAD
1000
DSTYLE
1002
{
1070
   289
1070
     1
1070
    73
1070
     0
1070
    74
1070
     0
1070
   271
1070
     2
1070
    76
1070
     1
1070
    75
1070
     1
1070
   272
1070
     2
1070
    48
1040
0.0
1070
    47
1040
0.0
1002
}
  0
LINE
  5
E88
330
6C
100
AcDbEntity
  8
Center Mark (ANSI)
  6
CHAIN
 48
0.1648447215557098
100
AcDbLine
 10
62.60777375955517
 20
90.5307634258065
 30
0.0
 11
59.04477375955518
 21
90.5307634258065
 31
0.0
  0
LINE
  5
E89
330
6C
100
AcDbEntity
  8
Center Mark (ANSI)
  6
CHAIN
 48
0.1648447215557098
100
AcDbLine
 10
62.60777375955521
 20
32.28076342580653
 30
0.0
 11
59.04477375955522
 21
32.28076342580653
 31
0.0
  0
LINE
  5
E8A
330
6C
100
AcDbEntity
  8
Centerline (ANSI)
  6
CHAIN
 48
0.9524481296539306
100
AcDbLine
 10
60.82627375955517
 20
92.31226342580653
 30
0.0
 11
60.82627375955521
 21
30.49926342580653
 31
0.0
  0
DIMENSION
  5
E8B
330
6C
100
AcDbEntity
  8
Dimension (ANSI)
100
AcDbDimension
280
     0
  2
*D14
 10
87.95127375955512
 20
99.29498709461984
 30
0.0
 11
60.82627375955517
 21
99.29498709461984
 31
0.0
 70
   160
  1
<>
 42
54.24999999999995
 73
     0
 74
     0
 75
     0
  3
Default (ANSI)
100
AcDbAlignedDimension
 13
33.70127375955517
 23
92.31226342580653
 33
0.0
 14
87.95127375955512
 24
92.31226342580653
 34
0.0
 50
180.0
100
AcDbRotatedDimension
1001
ACAD
1000
DSTYLE
1002
{
1070
   289
1070
     1
1070
    73
1070
     0
1070
    74
1070
     0
1070
   271
1070
     2
1070
   272
1070
     2
1070
    48
1040
0.0
1070
    47
1040
0.0
1002
}
  0
MTEXT
  5
F75
102
{ACAD_XDICTIONARY
360
F7C
102
}
330
6C
100
AcDbEntity
  8
Symbol (ANSI)
100
AcDbMText
 10
106.1920914884391
 20
11.55968810193826
 30
0.0
 40
1.200000038297157
 41
88.60064529058506
 46
0.0
 71
     4
 72
     1
  3
{\fRomanS|b0|i0|c0|p2;\H2x;PART#: WA72P60F1G\P(DATA SUBJECT TO CHANGE WITHOUT NOTICE)\H1.6157x; \H0.61894x;\P \H1.352x; \H0.73963x;\P\H0.6x;THIS DRAWING IS PROPERTY OF HUBBELL INC. WIEGMANN\H1.5633x; \H0.63966x;\PALL INFORMATION IS PROPRIETARY AND NO
  1
T TO BE DUPLICATED\H1.234x; \H0.81039x;\P\H1.2571x; }
  7
Note Text (ANSI)
 73
     1
 44
0.8026435375213623
  0
ENDSEC
  0
SECTION
  2
OBJECTS
  0
DICTIONARY
  5
C
330
0
100
AcDbDictionary
281
     1
  3
ACAD_CIP_PREVIOUS_PRODUCT_INFO
350
F77
  3
ACAD_COLOR
350
63
  3
ACAD_GROUP
350
D
  3
ACAD_LAYOUT
350
62
  3
ACAD_MATERIAL
350
10
  3
ACAD_MLEADERSTYLE
350
66
  3
ACAD_MLINESTYLE
350
5F
  3
ACAD_PLOTSETTINGS
350
61
  3
ACAD_PLOTSTYLENAME
350
E
  3
ACAD_SCALELIST
350
42
  3
ACAD_TABLESTYLE
350
64
  3
ACAD_VISUALSTYLE
350
29
  3
ACDB_RECOMPOSE_DATA
350
F7E
  3
AcDbVariableDictionary
350
76
  0
DICTIONARY
  5
F7C
330
F75
100
AcDbDictionary
280
     1
281
     1
  3
ACAD_MTEXT_2008_RT
360
F7D
  0
XRECORD
  5
F77
102
{ACAD_REACTORS
330
C
102
}
330
C
100
AcDbXrecord
280
     1
300
INVNTOR
300
2012
300
PDSP_F_S
  0
DICTIONARY
  5
63
102
{ACAD_REACTORS
330
C
102
}
330
C
100
AcDbDictionary
281
     1
  0
DICTIONARY
  5
D
102
{ACAD_REACTORS
330
C
102
}
330
C
100
AcDbDictionary
281
     1
  0
DICTIONARY
  5
62
102
{ACAD_REACTORS
330
C
102
}
330
C
100
AcDbDictionary
281
     1
  3
Layout1
350
6B
  3
Layout2
350
73
  3
Model
350
6F
  0
DICTIONARY
  5
10
102
{ACAD_REACTORS
330
C
102
}
330
C
100
AcDbDictionary
281
     1
  3
ByBlock
350
19
  3
ByLayer
350
11
  3
Global
350
21
  0
DICTIONARY
  5
66
102
{ACAD_REACTORS
330
C
102
}
330
C
100
AcDbDictionary
281
     1
  3
Standard
350
67
  0
DICTIONARY
  5
5F
102
{ACAD_REACTORS
330
C
102
}
330
C
100
AcDbDictionary
281
     1
  3
Standard
350
60
  0
DICTIONARY
  5
61
102
{ACAD_REACTORS
330
C
102
}
330
C
100
AcDbDictionary
281
     1
  0
ACDBDICTIONARYWDFLT
  5
E
102
{ACAD_REACTORS
330
C
102
}
330
C
100
AcDbDictionary
281
     1
  3
Normal
350
F
100
AcDbDictionaryWithDefault
340
F
  0
DICTIONARY
  5
42
102
{ACAD_REACTORS
330
C
102
}
330
C
100
AcDbDictionary
281
     1
  3
A0
350
43
  3
A1
350
44
  3
A2
350
45
  3
A3
350
46
  3
A4
350
47
  3
A5
350
48
  3
A6
350
49
  3
A7
350
4A
  3
A8
350
4B
  3
A9
350
4C
  3
B0
350
4D
  3
B1
350
4E
  3
B2
350
4F
  3
B3
350
50
  3
B4
350
51
  3
B5
350
52
  3
B6
350
53
  0
DICTIONARY
  5
64
102
{ACAD_REACTORS
330
C
102
}
330
C
100
AcDbDictionary
281
     1
  3
Standard
350
65
  0
DICTIONARY
  5
29
102
{ACAD_REACTORS
330
C
102
}
330
C
100
AcDbDictionary
281
     1
  3
2dWireframe
350
2F
  3
Basic
350
2E
  3
Brighten
350
35
  3
ColorChange
350
39
  3
Conceptual
350
32
  3
Dim
350
34
  3
EdgeColorOff
350
41
  3
Facepattern
350
38
  3
Flat
350
2A
  3
FlatWithEdges
350
2B
  3
Gouraud
350
2C
  3
GouraudWithEdges
350
2D
  3
Hidden
350
31
  3
JitterOff
350
3F
  3
Linepattern
350
37
  3
OverhangOff
350
40
  3
Realistic
350
33
  3
Shaded
350
3E
  3
Shaded with edges
350
3D
  3
Shades of Gray
350
3A
  3
Sketchy
350
3B
  3
Thicken
350
36
  3
Wireframe
350
30
  3
X-Ray
350
3C
  0
XRECORD
  5
F7E
102
{ACAD_REACTORS
330
C
102
}
330
C
100
AcDbXrecord
280
     1
 90
        1
330
65
330
F75
  0
DICTIONARY
  5
76
102
{ACAD_REACTORS
330
C
102
}
330
C
100
AcDbDictionary
281
     1
  3
CANNOSCALE
350
79
  3
CMLEADERSTYLE
350
78
  3
CTABLESTYLE
350
77
  0
XRECORD
  5
F7D
102
{ACAD_REACTORS
330
F7C
102
}
330
F7C
100
AcDbXrecord
280
     1
 40
3109068.0
  1
\pxsm0.94;{\fRomanS|b0|i0;\H2.4000;PART#: WA72P60F1G\P(DATA SUBJECT TO CHANGE WITHOUT NOTICE)\P \P\fRomanS|b0|i0;\H1.4400;THIS DRAWING IS PROPERTY OF HUBBELL INC. WIEGMANN\PALL INFORMATION IS PROPRIETARY AND NOT TO BE DUPLICATED\P}
  0
LAYOUT
  5
6B
102
{ACAD_REACTORS
330
62
102
}
330
62
100
AcDbPlotSettings
  1

  2

  4

  6

 40
0.0
 41
0.0
 42
0.0
 43
0.0
 44
0.0
 45
0.0
 46
0.0
 47
0.0
 48
0.0
 49
0.0
140
0.0
141
0.0
142
1.0
143
1.0
 70
   688
 72
     0
 73
     0
 74
     5
  7

 75
    16
147
1.0
 76
     0
 77
     2
 78
   300
148
0.0
149
0.0
100
AcDbLayout
  1
Layout1
 70
     1
 71
     1
 10
0.0
 20
0.0
 11
12.0
 21
9.0
 12
0.0
 22
0.0
 32
0.0
 14
0.0
 24
0.0
 34
0.0
 15
0.0
 25
0.0
 35
0.0
146
0.0
 13
0.0
 23
0.0
 33
0.0
 16
1.0
 26
0.0
 36
0.0
 17
0.0
 27
1.0
 37
0.0
 76
     0
330
68
  0
LAYOUT
  5
73
102
{ACAD_REACTORS
330
62
102
}
330
62
100
AcDbPlotSettings
  1

  2

  4

  6

 40
0.0
 41
0.0
 42
0.0
 43
0.0
 44
0.0
 45
0.0
 46
0.0
 47
0.0
 48
0.0
 49
0.0
140
0.0
141
0.0
142
1.0
143
1.0
 70
   688
 72
     0
 73
     0
 74
     5
  7

 75
    16
147
1.0
 76
     0
 77
     2
 78
   300
148
0.0
149
0.0
100
AcDbLayout
  1
Layout2
 70
     1
 71
     2
 10
0.0
 20
0.0
 11
12.0
 21
9.0
 12
0.0
 22
0.0
 32
0.0
 14
0.0
 24
0.0
 34
0.0
 15
0.0
 25
0.0
 35
0.0
146
0.0
 13
0.0
 23
0.0
 33
0.0
 16
1.0
 26
0.0
 36
0.0
 17
0.0
 27
1.0
 37
0.0
 76
     0
330
70
  0
LAYOUT
  5
6F
102
{ACAD_REACTORS
330
62
102
}
330
62
100
AcDbPlotSettings
  1

  2

  4

  6

 40
0.0
 41
0.0
 42
0.0
 43
0.0
 44
0.0
 45
0.0
 46
0.0
 47
0.0
 48
0.0
 49
0.0
140
0.0
141
0.0
142
1.0
143
1.0
 70
  1712
 72
     0
 73
     0
 74
     0
  7

 75
     0
147
1.0
 76
     0
 77
     2
 78
   300
148
0.0
149
0.0
100
AcDbLayout
  1
Model
 70
     1
 71
     0
 10
0.0
 20
0.0
 11
12.0
 21
9.0
 12
0.0
 22
0.0
 32
0.0
 14
0.0
 24
0.0
 34
0.0
 15
0.0
 25
0.0
 35
0.0
146
0.0
 13
0.0
 23
0.0
 33
0.0
 16
1.0
 26
0.0
 36
0.0
 17
0.0
 27
1.0
 37
0.0
 76
     0
330
6C
  0
MATERIAL
  5
19
102
{ACAD_XDICTIONARY
360
1A
102
}
102
{ACAD_REACTORS
330
10
102
}
330
10
100
AcDbMaterial
  1
ByBlock
 72
     0
 43
0.0208333333333333
 43
0.0
 43
0.0
 43
0.0
 43
0.0
 43
0.0208333333333333
 43
0.0
 43
0.0
 43
0.0
 43
0.0
 43
1.0
 43
0.0
 43
0.0
 43
0.0
 43
0.0
 43
1.0
 77
     0
 47
0.0208333333333333
 47
0.0
 47
0.0
 47
0.0
 47
0.0
 47
0.0208333333333333
 47
0.0
 47
0.0
 47
0.0
 47
0.0
 47
1.0
 47
0.0
 47
0.0
 47
0.0
 47
0.0
 47
1.0
171
     0
 49
0.0208333333333333
 49
0.0
 49
0.0
 49
0.0
 49
0.0
 49
0.0208333333333333
 49
0.0
 49
0.0
 49
0.0
 49
0.0
 49
1.0
 49
0.0
 49
0.0
 49
0.0
 49
0.0
 49
1.0
175
     0
142
0.0208333333333333
142
0.0
142
0.0
142
0.0
142
0.0
142
0.0208333333333333
142
0.0
142
0.0
142
0.0
142
0.0
142
1.0
142
0.0
142
0.0
142
0.0
142
0.0
142
1.0
179
     0
144
0.0208333333333333
144
0.0
144
0.0
144
0.0
144
0.0
144
0.0208333333333333
144
0.0
144
0.0
144
0.0
144
0.0
144
1.0
144
0.0
144
0.0
144
0.0
144
0.0
144
1.0
147
0.0208333333333333
147
0.0
147
0.0
147
0.0
147
0.0
147
0.0208333333333333
147
0.0
147
0.0
147
0.0
147
0.0
147
1.0
147
0.0
147
0.0
147
0.0
147
0.0
147
1.0
  0
MATERIAL
  5
11
102
{ACAD_XDICTIONARY
360
12
102
}
102
{ACAD_REACTORS
330
10
102
}
330
10
100
AcDbMaterial
  1
ByLayer
 72
     0
 43
0.0208333333333333
 43
0.0
 43
0.0
 43
0.0
 43
0.0
 43
0.0208333333333333
 43
0.0
 43
0.0
 43
0.0
 43
0.0
 43
1.0
 43
0.0
 43
0.0
 43
0.0
 43
0.0
 43
1.0
 77
     0
 47
0.0208333333333333
 47
0.0
 47
0.0
 47
0.0
 47
0.0
 47
0.0208333333333333
 47
0.0
 47
0.0
 47
0.0
 47
0.0
 47
1.0
 47
0.0
 47
0.0
 47
0.0
 47
0.0
 47
1.0
171
     0
 49
0.0208333333333333
 49
0.0
 49
0.0
 49
0.0
 49
0.0
 49
0.0208333333333333
 49
0.0
 49
0.0
 49
0.0
 49
0.0
 49
1.0
 49
0.0
 49
0.0
 49
0.0
 49
0.0
 49
1.0
175
     0
142
0.0208333333333333
142
0.0
142
0.0
142
0.0
142
0.0
142
0.0208333333333333
142
0.0
142
0.0
142
0.0
142
0.0
142
1.0
142
0.0
142
0.0
142
0.0
142
0.0
142
1.0
179
     0
144
0.0208333333333333
144
0.0
144
0.0
144
0.0
144
0.0
144
0.0208333333333333
144
0.0
144
0.0
144
0.0
144
0.0
144
1.0
144
0.0
144
0.0
144
0.0
144
0.0
144
1.0
147
0.0208333333333333
147
0.0
147
0.0
147
0.0
147
0.0
147
0.0208333333333333
147
0.0
147
0.0
147
0.0
147
0.0
147
1.0
147
0.0
147
0.0
147
0.0
147
0.0
147
1.0
  0
MATERIAL
  5
21
102
{ACAD_XDICTIONARY
360
22
102
}
102
{ACAD_REACTORS
330
10
102
}
330
10
100
AcDbMaterial
  1
Global
 72
     0
 43
0.0208333333333333
 43
0.0
 43
0.0
 43
0.0
 43
0.0
 43
0.0208333333333333
 43
0.0
 43
0.0
 43
0.0
 43
0.0
 43
1.0
 43
0.0
 43
0.0
 43
0.0
 43
0.0
 43
1.0
 77
     0
 47
0.0208333333333333
 47
0.0
 47
0.0
 47
0.0
 47
0.0
 47
0.0208333333333333
 47
0.0
 47
0.0
 47
0.0
 47
0.0
 47
1.0
 47
0.0
 47
0.0
 47
0.0
 47
0.0
 47
1.0
171
     0
 49
0.0208333333333333
 49
0.0
 49
0.0
 49
0.0
 49
0.0
 49
0.0208333333333333
 49
0.0
 49
0.0
 49
0.0
 49
0.0
 49
1.0
 49
0.0
 49
0.0
 49
0.0
 49
0.0
 49
1.0
175
     0
142
0.0208333333333333
142
0.0
142
0.0
142
0.0
142
0.0
142
0.0208333333333333
142
0.0
142
0.0
142
0.0
142
0.0
142
1.0
142
0.0
142
0.0
142
0.0
142
0.0
142
1.0
179
     0
144
0.0208333333333333
144
0.0
144
0.0
144
0.0
144
0.0
144
0.0208333333333333
144
0.0
144
0.0
144
0.0
144
0.0
144
1.0
144
0.0
144
0.0
144
0.0
144
0.0
144
1.0
147
0.0208333333333333
147
0.0
147
0.0
147
0.0
147
0.0
147
0.0208333333333333
147
0.0
147
0.0
147
0.0
147
0.0
147
1.0
147
0.0
147
0.0
147
0.0
147
0.0
147
1.0
  0
MLEADERSTYLE
  5
67
102
{ACAD_XDICTIONARY
360
F7A
102
}
102
{ACAD_REACTORS
330
66
102
}
330
66
100
AcDbMLeaderStyle
179
     2
170
     2
171
     1
172
     0
 90
        2
 40
0.0
 41
0.0
173
     1
 91
-1056964608
340
5B
 92
       -2
290
     1
 42
0.09
291
     1
 43
0.36
  3
Standard
 44
0.18
300

342
55
174
     1
178
     6
175
     1
176
     0
 93
-1056964608
 45
0.18
292
     0
297
     0
 46
0.18
 94
-1056964608
 47
1.0
 49
1.0
140
1.0
293
     1
141
0.0
294
     1
177
     0
142
1.0
295
     0
296
     0
143
0.125
271
     0
272
     9
273
     9
  0
MLINESTYLE
  5
60
102
{ACAD_REACTORS
330
5F
102
}
330
5F
100
AcDbMlineStyle
  2
STANDARD
 70
     0
  3

 62
   256
 51
90.0
 52
90.0
 71
     2
 49
0.5
 62
   256
  6
BYLAYER
 49
-0.5
 62
   256
  6
BYLAYER
  0
ACDBPLACEHOLDER
  5
F
102
{ACAD_REACTORS
330
E
102
}
330
E
  0
SCALE
  5
43
102
{ACAD_REACTORS
330
42
102
}
330
42
100
AcDbScale
 70
     0
300
1:1
140
1.0
141
1.0
290
     1
  0
SCALE
  5
44
102
{ACAD_REACTORS
330
42
102
}
330
42
100
AcDbScale
 70
     0
300
1/128" = 1'-0"
140
0.0078125
141
12.0
290
     0
  0
SCALE
  5
45
102
{ACAD_REACTORS
330
42
102
}
330
42
100
AcDbScale
 70
     0
300
1/64" = 1'-0"
140
0.015625
141
12.0
290
     0
  0
SCALE
  5
46
102
{ACAD_REACTORS
330
42
102
}
330
42
100
AcDbScale
 70
     0
300
1/32" = 1'-0"
140
0.03125
141
12.0
290
     0
  0
SCALE
  5
47
102
{ACAD_REACTORS
330
42
102
}
330
42
100
AcDbScale
 70
     0
300
1/16" = 1'-0"
140
0.0625
141
12.0
290
     0
  0
SCALE
  5
48
102
{ACAD_REACTORS
330
42
102
}
330
42
100
AcDbScale
 70
     0
300
3/32" = 1'-0"
140
0.09375
141
12.0
290
     0
  0
SCALE
  5
49
102
{ACAD_REACTORS
330
42
102
}
330
42
100
AcDbScale
 70
     0
300
1/8" = 1'-0"
140
0.125
141
12.0
290
     0
  0
SCALE
  5
4A
102
{ACAD_REACTORS
330
42
102
}
330
42
100
AcDbScale
 70
     0
300
3/16" = 1'-0"
140
0.1875
141
12.0
290
     0
  0
SCALE
  5
4B
102
{ACAD_REACTORS
330
42
102
}
330
42
100
AcDbScale
 70
     0
300
1/4" = 1'-0"
140
0.25
141
12.0
290
     0
  0
SCALE
  5
4C
102
{ACAD_REACTORS
330
42
102
}
330
42
100
AcDbScale
 70
     0
300
3/8" = 1'-0"
140
0.375
141
12.0
290
     0
  0
SCALE
  5
4D
102
{ACAD_REACTORS
330
42
102
}
330
42
100
AcDbScale
 70
     0
300
1/2" = 1'-0"
140
0.5
141
12.0
290
     0
  0
SCALE
  5
4E
102
{ACAD_REACTORS
330
42
102
}
330
42
100
AcDbScale
 70
     0
300
3/4" = 1'-0"
140
0.75
141
12.0
290
     0
  0
SCALE
  5
4F
102
{ACAD_REACTORS
330
42
102
}
330
42
100
AcDbScale
 70
     0
300
1" = 1'-0"
140
1.0
141
12.0
290
     0
  0
SCALE
  5
50
102
{ACAD_REACTORS
330
42
102
}
330
42
100
AcDbScale
 70
     0
300
1-1/2" = 1'-0"
140
1.5
141
12.0
290
     0
  0
SCALE
  5
51
102
{ACAD_REACTORS
330
42
102
}
330
42
100
AcDbScale
 70
     0
300
3" = 1'-0"
140
3.0
141
12.0
290
     0
  0
SCALE
  5
52
102
{ACAD_REACTORS
330
42
102
}
330
42
100
AcDbScale
 70
     0
300
6" = 1'-0"
140
6.0
141
12.0
290
     0
  0
SCALE
  5
53
102
{ACAD_REACTORS
330
42
102
}
330
42
100
AcDbScale
 70
     0
300
1'-0" = 1'-0"
140
12.0
141
12.0
290
     0
  0
TABLESTYLE
  5
65
102
{ACAD_XDICTIONARY
360
F78
102
}
102
{ACAD_REACTORS
330
64
102
}
330
64
100
AcDbTableStyle
280
     0
  3
Standard
 70
     0
 71
     0
 40
0.06
 41
0.06
280
     0
281
     0
  7
Standard
140
0.18
170
     2
 62
     0
 63
     7
283
     0
 90
      512
 91
        0
  1

274
    -2
284
     1
 64
     0
275
    -2
285
     1
 65
     0
276
    -2
286
     1
 66
     0
277
    -2
287
     1
 67
     0
278
    -2
288
     1
 68
     0
279
    -2
289
     1
 69
     0
  7
Standard
140
0.25
170
     5
 62
     0
 63
     7
283
     0
 90
      512
 91
        0
  1

274
    -2
284
     1
 64
     0
275
    -2
285
     1
 65
     0
276
    -2
286
     1
 66
     0
277
    -2
287
     1
 67
     0
278
    -2
288
     1
 68
     0
279
    -2
289
     1
 69
     0
  7
Standard
140
0.18
170
     5
 62
     0
 63
     7
283
     0
 90
      512
 91
        0
  1

274
    -2
284
     1
 64
     0
275
    -2
285
     1
 65
     0
276
    -2
286
     1
 66
     0
277
    -2
287
     1
 67
     0
278
    -2
288
     1
 68
     0
279
    -2
289
     1
 69
     0
  0
VISUALSTYLE
  5
2F
102
{ACAD_REACTORS
330
29
102
}
330
29
100
AcDbVisualStyle
  2
2dWireframe
 70
     4
177
     2
291
     0
 71
     0
176
     1
 72
     2
176
     1
 73
     0
176
     1
 90
        0
176
     1
 40
0.6
176
     1
 41
30.0
176
     1
 63
     7
421
 16777215
176
     1
 74
     1
176
     1
 91
        4
176
     1
 64
     7
176
     1
 65
   257
176
     1
 75
     1
176
     1
175
     1
176
     1
 42
1.0
176
     1
 92
        0
176
     1
 66
   257
176
     1
 43
1.0
176
     1
 76
     1
176
     1
 77
     6
176
     1
 78
     2
176
     1
 67
     7
176
     1
 79
     5
176
     1
170
     0
176
     1
171
     0
176
     1
290
     0
176
     1
 93
        1
176
     1
 44
0.0
176
     1
173
     0
176
     1
  0
VISUALSTYLE
  5
2E
102
{ACAD_REACTORS
330
29
102
}
330
29
100
AcDbVisualStyle
  2
Basic
 70
     7
177
     2
291
     1
 71
     1
176
     1
 72
     0
176
     1
 73
     1
176
     1
 90
        0
176
     1
 40
0.6
176
     1
 41
30.0
176
     1
 63
     7
421
 16777215
176
     1
 74
     0
176
     1
 91
        4
176
     1
 64
     7
176
     1
 65
   257
176
     1
 75
     1
176
     1
175
     1
176
     1
 42
1.0
176
     1
 92
        8
176
     1
 66
     7
176
     1
 43
1.0
176
     1
 76
     1
176
     1
 77
     6
176
     1
 78
     2
176
     1
 67
     7
176
     1
 79
     5
176
     1
170
     0
176
     1
171
     0
176
     1
290
     0
176
     1
 93
        1
176
     1
 44
0.0
176
     1
173
     0
176
     1
  0
VISUALSTYLE
  5
35
102
{ACAD_REACTORS
330
29
102
}
330
29
100
AcDbVisualStyle
  2
Brighten
 70
    12
177
     2
291
     1
 71
     2
176
     1
 72
     2
176
     1
 73
     0
176
     1
 90
        0
176
     1
 40
0.6
176
     1
 41
30.0
176
     1
 63
     7
421
 16777215
176
     1
 74
     1
176
     1
 91
        4
176
     1
 64
     7
176
     1
 65
   257
176
     1
 75
     1
176
     1
175
     1
176
     1
 42
1.0
176
     1
 92
        8
176
     1
 66
     7
176
     1
 43
1.0
176
     1
 76
     1
176
     1
 77
     6
176
     1
 78
     2
176
     1
 67
     7
176
     1
 79
     5
176
     1
170
     0
176
     1
171
     0
176
     1
290
     0
176
     1
 93
        1
176
     1
 44
50.0
176
     1
173
     0
176
     1
  0
VISUALSTYLE
  5
39
102
{ACAD_REACTORS
330
29
102
}
330
29
100
AcDbVisualStyle
  2
ColorChange
 70
    16
177
     2
291
     1
 71
     2
176
     1
 72
     2
176
     1
 73
     3
176
     1
 90
        0
176
     1
 40
0.6
176
     1
 41
30.0
176
     1
 63
     8
421
  8421504
176
     1
 74
     1
176
     1
 91
        4
176
     1
 64
     7
176
     1
 65
   257
176
     1
 75
     1
176
     1
175
     1
176
     1
 42
1.0
176
     1
 92
        8
176
     1
 66
     8
424
  8421504
176
     1
 43
1.0
176
     1
 76
     1
176
     1
 77
     6
176
     1
 78
     2
176
     1
 67
     7
176
     1
 79
     5
176
     1
170
     0
176
     1
171
     0
176
     1
290
     0
176
     1
 93
        1
176
     1
 44
0.0
176
     1
173
     0
176
     1
  0
VISUALSTYLE
  5
32
102
{ACAD_REACTORS
330
29
102
}
330
29
100
AcDbVisualStyle
  2
Conceptual
 70
     9
177
     2
291
     0
 71
     3
176
     1
 72
     2
176
     1
 73
     0
176
     1
 90
        0
176
     1
 40
0.6
176
     1
 41
30.0
176
     1
 63
     7
421
 16777215
176
     1
 74
     2
176
     1
 91
        2
176
     1
 64
     7
176
     1
 65
   257
176
     1
 75
     1
176
     1
175
     1
176
     1
 42
179.0
176
     1
 92
        8
176
     1
 66
     7
176
     1
 43
1.0
176
     1
 76
     1
176
     1
 77
     6
176
     1
 78
     2
176
     1
 67
     7
176
     1
 79
     3
176
     1
170
     0
176
     1
171
     0
176
     1
290
     0
176
     1
 93
        1
176
     1
 44
0.0
176
     1
173
     0
176
     1
  0
VISUALSTYLE
  5
34
102
{ACAD_REACTORS
330
29
102
}
330
29
100
AcDbVisualStyle
  2
Dim
 70
    11
177
     2
291
     1
 71
     2
176
     1
 72
     2
176
     1
 73
     0
176
     1
 90
        0
176
     1
 40
0.6
176
     1
 41
30.0
176
     1
 63
     7
421
 16777215
176
     1
 74
     1
176
     1
 91
        4
176
     1
 64
     7
176
     1
 65
   257
176
     1
 75
     1
176
     1
175
     1
176
     1
 42
1.0
176
     1
 92
        8
176
     1
 66
     7
176
     1
 43
1.0
176
     1
 76
     1
176
     1
 77
     6
176
     1
 78
     2
176
     1
 67
     7
176
     1
 79
     5
176
     1
170
     0
176
     1
171
     0
176
     1
290
     0
176
     1
 93
        1
176
     1
 44
-50.0
176
     1
173
     0
176
     1
  0
VISUALSTYLE
  5
41
102
{ACAD_REACTORS
330
29
102
}
330
29
100
AcDbVisualStyle
  2
EdgeColorOff
 70
    22
177
     2
291
     1
 71
     2
176
     0
 72
     2
176
     0
 73
     0
176
     0
 90
        0
176
     0
 40
0.6
176
     0
 41
30.0
176
     0
 63
     7
421
 16777215
176
     0
 74
     1
176
     0
 91
        4
176
     0
 64
     7
176
     0
 65
   257
176
     0
 75
     1
176
     0
175
     1
176
     0
 42
1.0
176
     0
 92
        8
176
     2
 66
     7
176
     0
 43
1.0
176
     0
 76
     1
176
     0
 77
     6
176
     0
 78
     2
176
     0
 67
     7
176
     0
 79
     5
176
     0
170
     0
176
     0
171
     0
176
     0
290
     0
176
     0
 93
        1
176
     0
 44
0.0
176
     0
173
     0
176
     0
  0
VISUALSTYLE
  5
38
102
{ACAD_REACTORS
330
29
102
}
330
29
100
AcDbVisualStyle
  2
Facepattern
 70
    15
177
     2
291
     1
 71
     2
176
     1
 72
     2
176
     1
 73
     0
176
     1
 90
        0
176
     1
 40
0.6
176
     1
 41
30.0
176
     1
 63
     7
421
 16777215
176
     1
 74
     1
176
     1
 91
        4
176
     1
 64
     7
176
     1
 65
   257
176
     1
 75
     1
176
     1
175
     1
176
     1
 42
1.0
176
     1
 92
        8
176
     1
 66
     7
176
     1
 43
1.0
176
     1
 76
     1
176
     1
 77
     6
176
     1
 78
     2
176
     1
 67
     7
176
     1
 79
     5
176
     1
170
     0
176
     1
171
     0
176
     1
290
     0
176
     1
 93
        1
176
     1
 44
0.0
176
     1
173
     0
176
     1
  0
VISUALSTYLE
  5
2A
102
{ACAD_REACTORS
330
29
102
}
330
29
100
AcDbVisualStyle
  2
Flat
 70
     0
177
     2
291
     1
 71
     2
176
     1
 72
     1
176
     1
 73
     1
176
     1
 90
        2
176
     1
 40
0.6
176
     1
 41
30.0
176
     1
 63
     7
421
 16777215
176
     1
 74
     0
176
     1
 91
        0
176
     1
 64
     7
176
     1
 65
   257
176
     1
 75
     1
176
     1
175
     1
176
     1
 42
1.0
176
     1
 92
        8
176
     1
 66
     7
176
     1
 43
1.0
176
     1
 76
     1
176
     1
 77
     6
176
     1
 78
     2
176
     1
 67
     7
176
     1
 79
     5
176
     1
170
     0
176
     1
171
     0
176
     1
290
     0
176
     1
 93
       13
176
     1
 44
0.0
176
     1
173
     0
176
     1
  0
VISUALSTYLE
  5
2B
102
{ACAD_REACTORS
330
29
102
}
330
29
100
AcDbVisualStyle
  2
FlatWithEdges
 70
     1
177
     2
291
     1
 71
     2
176
     1
 72
     1
176
     1
 73
     1
176
     1
 90
        2
176
     1
 40
0.6
176
     1
 41
30.0
176
     1
 63
     7
421
 16777215
176
     1
 74
     1
176
     1
 91
        0
176
     1
 64
     7
176
     1
 65
   257
176
     1
 75
     1
176
     1
175
     1
176
     1
 42
1.0
176
     1
 92
        0
176
     1
 66
   257
176
     1
 43
1.0
176
     1
 76
     1
176
     1
 77
     6
176
     1
 78
     2
176
     1
 67
     7
176
     1
 79
     5
176
     1
170
     0
176
     1
171
     0
176
     1
290
     0
176
     1
 93
       13
176
     1
 44
0.0
176
     1
173
     0
176
     1
  0
VISUALSTYLE
  5
2C
102
{ACAD_REACTORS
330
29
102
}
330
29
100
AcDbVisualStyle
  2
Gouraud
 70
     2
177
     2
291
     1
 71
     2
176
     1
 72
     2
176
     1
 73
     1
176
     1
 90
        2
176
     1
 40
0.6
176
     1
 41
30.0
176
     1
 63
     7
421
 16777215
176
     1
 74
     0
176
     1
 91
        0
176
     1
 64
     7
176
     1
 65
   257
176
     1
 75
     1
176
     1
175
     1
176
     1
 42
1.0
176
     1
 92
        0
176
     1
 66
     7
176
     1
 43
1.0
176
     1
 76
     1
176
     1
 77
     6
176
     1
 78
     2
176
     1
 67
     7
176
     1
 79
     5
176
     1
170
     0
176
     1
171
     0
176
     1
290
     0
176
     1
 93
       13
176
     1
 44
0.0
176
     1
173
     0
176
     1
  0
VISUALSTYLE
  5
2D
102
{ACAD_REACTORS
330
29
102
}
330
29
100
AcDbVisualStyle
  2
GouraudWithEdges
 70
     3
177
     2
291
     1
 71
     2
176
     1
 72
     2
176
     1
 73
     1
176
     1
 90
        2
176
     1
 40
0.6
176
     1
 41
30.0
176
     1
 63
     7
421
 16777215
176
     1
 74
     1
176
     1
 91
        0
176
     1
 64
     7
176
     1
 65
   257
176
     1
 75
     1
176
     1
175
     1
176
     1
 42
1.0
176
     1
 92
        0
176
     1
 66
   257
176
     1
 43
1.0
176
     1
 76
     1
176
     1
 77
     6
176
     1
 78
     2
176
     1
 67
     7
176
     1
 79
     5
176
     1
170
     0
176
     1
171
     0
176
     1
290
     0
176
     1
 93
       13
176
     1
 44
0.0
176
     1
173
     0
176
     1
  0
VISUALSTYLE
  5
31
102
{ACAD_REACTORS
330
29
102
}
330
29
100
AcDbVisualStyle
  2
Hidden
 70
     6
177
     2
291
     0
 71
     1
176
     1
 72
     2
176
     1
 73
     2
176
     1
 90
        0
176
     1
 40
0.6
176
     1
 41
30.0
176
     1
 63
     7
421
 16777215
176
     1
 74
     2
176
     1
 91
        2
176
     1
 64
     7
176
     1
 65
   257
176
     1
 75
     2
176
     1
175
     1
176
     1
 42
40.0
176
     1
 92
        0
176
     1
 66
   257
176
     1
 43
1.0
176
     1
 76
     1
176
     1
 77
     6
176
     1
 78
     2
176
     1
 67
     7
176
     1
 79
     3
176
     1
170
     0
176
     1
171
     0
176
     1
290
     0
176
     1
 93
        1
176
     1
 44
0.0
176
     1
173
     0
176
     1
  0
VISUALSTYLE
  5
3F
102
{ACAD_REACTORS
330
29
102
}
330
29
100
AcDbVisualStyle
  2
JitterOff
 70
    20
177
     2
291
     1
 71
     2
176
     0
 72
     2
176
     0
 73
     0
176
     0
 90
        0
176
     0
 40
0.6
176
     0
 41
30.0
176
     0
 63
     7
421
 16777215
176
     0
 74
     1
176
     0
 91
        4
176
     0
 64
     7
176
     0
 65
   257
176
     0
 75
     1
176
     0
175
     1
176
     0
 42
1.0
176
     0
 92
       10
176
     2
 66
     7
176
     0
 43
1.0
176
     0
 76
     1
176
     0
 77
     6
176
     0
 78
     2
176
     0
 67
     7
176
     0
 79
     5
176
     0
170
     0
176
     0
171
     0
176
     0
290
     0
176
     0
 93
        1
176
     0
 44
0.0
176
     0
173
     0
176
     0
  0
VISUALSTYLE
  5
37
102
{ACAD_REACTORS
330
29
102
}
330
29
100
AcDbVisualStyle
  2
Linepattern
 70
    14
177
     2
291
     1
 71
     2
176
     1
 72
     2
176
     1
 73
     0
176
     1
 90
        0
176
     1
 40
0.6
176
     1
 41
30.0
176
     1
 63
     7
421
 16777215
176
     1
 74
     1
176
     1
 91
        4
176
     1
 64
     7
176
     1
 65
   257
176
     1
 75
     7
176
     1
175
     7
176
     1
 42
1.0
176
     1
 92
        8
176
     1
 66
     7
176
     1
 43
1.0
176
     1
 76
     1
176
     1
 77
     6
176
     1
 78
     2
176
     1
 67
     7
176
     1
 79
     5
176
     1
170
     0
176
     1
171
     0
176
     1
290
     0
176
     1
 93
        1
176
     1
 44
0.0
176
     1
173
     0
176
     1
  0
VISUALSTYLE
  5
40
102
{ACAD_REACTORS
330
29
102
}
330
29
100
AcDbVisualStyle
  2
OverhangOff
 70
    21
177
     2
291
     1
 71
     2
176
     0
 72
     2
176
     0
 73
     0
176
     0
 90
        0
176
     0
 40
0.6
176
     0
 41
30.0
176
     0
 63
     7
421
 16777215
176
     0
 74
     1
176
     0
 91
        4
176
     0
 64
     7
176
     0
 65
   257
176
     0
 75
     1
176
     0
175
     1
176
     0
 42
1.0
176
     0
 92
        9
176
     2
 66
     7
176
     0
 43
1.0
176
     0
 76
     1
176
     0
 77
     6
176
     0
 78
     2
176
     0
 67
     7
176
     0
 79
     5
176
     0
170
     0
176
     0
171
     0
176
     0
290
     0
176
     0
 93
        1
176
     0
 44
0.0
176
     0
173
     0
176
     0
  0
VISUALSTYLE
  5
33
102
{ACAD_REACTORS
330
29
102
}
330
29
100
AcDbVisualStyle
  2
Realistic
 70
     8
177
     2
291
     0
 71
     2
176
     1
 72
     3
176
     1
 73
     0
176
     1
 90
        2
176
     1
 40
0.6
176
     1
 41
30.0
176
     1
 63
     7
421
 16777215
176
     1
 74
     0
176
     1
 91
        0
176
     1
 64
     7
176
     1
 65
   257
176
     1
 75
     1
176
     1
175
     1
176
     1
 42
1.0
176
     1
 92
        8
176
     1
 66
   257
176
     1
 43
1.0
176
     1
 76
     1
176
     1
 77
     6
176
     1
 78
     2
176
     1
 67
     7
176
     1
 79
     3
176
     1
170
     0
176
     1
171
     0
176
     1
290
     0
176
     1
 93
       13
176
     1
 44
0.0
176
     1
173
     0
176
     1
  0
VISUALSTYLE
  5
3E
102
{ACAD_REACTORS
330
29
102
}
330
29
100
AcDbVisualStyle
  2
Shaded
 70
    27
177
     2
291
     0
 71
     2
176
     1
 72
     2
176
     1
 73
     1
176
     1
 90
        2
176
     1
 40
0.6
176
     1
 41
30.0
176
     1
 63
     7
421
 16777215
176
     1
 74
     0
176
     1
 91
        4
176
     1
 64
     7
176
     1
 65
   257
176
     1
 75
     1
176
     1
175
     1
176
     1
 42
1.0
176
     1
 92
        8
176
     1
 66
   257
176
     1
 43
1.0
176
     1
 76
     1
176
     1
 77
     6
176
     1
 78
     2
176
     1
 67
     8
425
  7895160
176
     1
 79
     3
176
     1
170
     0
176
     1
171
     0
176
     1
290
     0
176
     1
 93
        5
176
     1
 44
0.0
176
     1
173
     0
176
     1
  0
VISUALSTYLE
  5
3D
102
{ACAD_REACTORS
330
29
102
}
330
29
100
AcDbVisualStyle
  2
Shaded with edges
 70
    26
177
     2
291
     0
 71
     2
176
     1
 72
     2
176
     1
 73
     1
176
     1
 90
        2
176
     1
 40
0.6
176
     1
 41
30.0
176
     1
 63
     7
421
 16777215
176
     1
 74
     1
176
     1
 91
       10
176
     1
 64
     7
176
     1
 65
   257
176
     1
 75
     2
176
     1
175
     1
176
     1
 42
1.0
176
     1
 92
        8
176
     1
 66
   257
176
     1
 43
1.0
176
     1
 76
     1
176
     1
 77
     6
176
     1
 78
     2
176
     1
 67
     7
176
     1
 79
     3
176
     1
170
     0
176
     1
171
     0
176
     1
290
     0
176
     1
 93
        5
176
     1
 44
0.0
176
     1
173
     0
176
     1
  0
VISUALSTYLE
  5
3A
102
{ACAD_REACTORS
330
29
102
}
330
29
100
AcDbVisualStyle
  2
Shades of Gray
 70
    23
177
     2
291
     0
 71
     2
176
     1
 72
     2
176
     1
 73
     3
176
     1
 90
        0
176
     1
 40
0.6
176
     1
 41
30.0
176
     1
 63
     7
421
 16777215
176
     1
 74
     2
176
     1
 91
        2
176
     1
 64
     7
176
     1
 65
     7
176
     1
 75
     1
176
     1
175
     1
176
     1
 42
40.0
176
     1
 92
        8
176
     1
 66
     7
176
     1
 43
1.0
176
     1
 76
     1
176
     1
 77
     6
176
     1
 78
     2
176
     1
 67
     7
176
     1
 79
     3
176
     1
170
     0
176
     1
171
     0
176
     1
290
     0
176
     1
 93
        1
176
     1
 44
0.0
176
     1
173
     0
176
     1
  0
VISUALSTYLE
  5
3B
102
{ACAD_REACTORS
330
29
102
}
330
29
100
AcDbVisualStyle
  2
Sketchy
 70
    24
177
     2
291
     0
 71
     1
176
     1
 72
     2
176
     1
 73
     2
176
     1
 90
        0
176
     1
 40
0.6
176
     1
 41
30.0
176
     1
 63
     7
421
 16777215
176
     1
 74
     2
176
     1
 91
        2
176
     1
 64
     7
176
     1
 65
     7
176
     1
 75
     1
176
     1
175
     1
176
     1
 42
40.0
176
     1
 92
       11
176
     1
 66
     7
176
     1
 43
1.0
176
     1
 76
     1
176
     1
 77
     6
176
     1
 78
     2
176
     1
 67
     7
176
     1
 79
     6
176
     1
170
     0
176
     1
171
     0
176
     1
290
     0
176
     1
 93
        1
176
     1
 44
0.0
176
     1
173
     0
176
     1
  0
VISUALSTYLE
  5
36
102
{ACAD_REACTORS
330
29
102
}
330
29
100
AcDbVisualStyle
  2
Thicken
 70
    13
177
     2
291
     1
 71
     2
176
     1
 72
     2
176
     1
 73
     0
176
     1
 90
        0
176
     1
 40
0.6
176
     1
 41
30.0
176
     1
 63
     7
421
 16777215
176
     1
 74
     1
176
     1
 91
        4
176
     1
 64
     7
176
     1
 65
   257
176
     1
 75
     1
176
     1
175
     1
176
     1
 42
1.0
176
     1
 92
       12
176
     1
 66
     7
176
     1
 43
1.0
176
     1
 76
     1
176
     1
 77
     6
176
     1
 78
     2
176
     1
 67
     7
176
     1
 79
     5
176
     1
170
     0
176
     1
171
     0
176
     1
290
     0
176
     1
 93
        1
176
     1
 44
0.0
176
     1
173
     0
176
     1
  0
VISUALSTYLE
  5
30
102
{ACAD_REACTORS
330
29
102
}
330
29
100
AcDbVisualStyle
  2
Wireframe
 70
     5
177
     2
291
     0
 71
     0
176
     1
 72
     2
176
     1
 73
     0
176
     1
 90
        0
176
     1
 40
0.6
176
     1
 41
30.0
176
     1
 63
     7
421
 16777215
176
     1
 74
     1
176
     1
 91
        4
176
     1
 64
     7
176
     1
 65
   257
176
     1
 75
     1
176
     1
175
     1
176
     1
 42
1.0
176
     1
 92
        0
176
     1
 66
   257
176
     1
 43
1.0
176
     1
 76
     1
176
     1
 77
     6
176
     1
 78
     2
176
     1
 67
     7
176
     1
 79
     3
176
     1
170
     0
176
     1
171
     0
176
     1
290
     0
176
     1
 93
        1
176
     1
 44
0.0
176
     1
173
     0
176
     1
  0
VISUALSTYLE
  5
3C
102
{ACAD_REACTORS
330
29
102
}
330
29
100
AcDbVisualStyle
  2
X-Ray
 70
    25
177
     2
291
     0
 71
     2
176
     1
 72
     2
176
     1
 73
     1
176
     1
 90
        1
176
     1
 40
0.5
176
     1
 41
30.0
176
     1
 63
     7
421
 16777215
176
     1
 74
     1
176
     1
 91
        0
176
     1
 64
     7
176
     1
 65
   257
176
     1
 75
     1
176
     1
175
     1
176
     1
 42
1.0
176
     1
 92
        8
176
     1
 66
     7
176
     1
 43
1.0
176
     1
 76
     1
176
     1
 77
     6
176
     1
 78
     2
176
     1
 67
     7
176
     1
 79
     3
176
     1
170
     0
176
     1
171
     0
176
     1
290
     0
176
     1
 93
       13
176
     1
 44
0.0
176
     1
173
     0
176
     1
  0
DICTIONARYVAR
  5
79
102
{ACAD_REACTORS
330
76
102
}
330
76
100
DictionaryVariables
280
     0
  1
1:1
  0
DICTIONARYVAR
  5
78
102
{ACAD_REACTORS
330
76
102
}
330
76
100
DictionaryVariables
280
     0
  1
STANDARD
  0
DICTIONARYVAR
  5
77
102
{ACAD_REACTORS
330
76
102
}
330
76
100
DictionaryVariables
280
     0
  1
STANDARD
  0
DICTIONARY
  5
1A
330
19
100
AcDbDictionary
280
     1
281
     1
  3
BUMPTILE
360
1C
  3
DIFFUSETILE
360
1B
  3
OPACITYTILE
360
1F
  3
REFLECTIONTILE
360
1E
  3
REFRACTIONTILE
360
20
  3
SPECULARTILE
360
1D
  0
DICTIONARY
  5
12
330
11
100
AcDbDictionary
280
     1
281
     1
  3
BUMPTILE
360
14
  3
DIFFUSETILE
360
13
  3
FBXASSET
360
109
  3
OPACITYTILE
360
17
  3
REFLECTIONTILE
360
16
  3
REFRACTIONTILE
360
18
  3
SPECULARTILE
360
15
  0
DICTIONARY
  5
22
330
21
100
AcDbDictionary
280
     1
281
     1
  3
BUMPTILE
360
24
  3
DIFFUSETILE
360
23
  3
FBXASSET
360
BA
  3
OPACITYTILE
360
27
  3
REFLECTIONTILE
360
26
  3
REFRACTIONTILE
360
28
  3
SPECULARTILE
360
25
  0
DICTIONARY
  5
F7A
330
67
100
AcDbDictionary
280
     1
281
     1
  3
ACAD_XREC_ROUNDTRIP
360
F7B
  0
DICTIONARY
  5
F78
330
65
100
AcDbDictionary
280
     1
281
     1
  3
ACAD_ROUNDTRIP_2008_TABLESTYLE_CELLSTYLEMAP
360
F79
  0
XRECORD
  5
1C
102
{ACAD_REACTORS
330
1A
102
}
330
1A
100
AcDbXrecord
280
     1
270
     1
271
     1
  0
XRECORD
  5
1B
102
{ACAD_REACTORS
330
1A
102
}
330
1A
100
AcDbXrecord
280
     1
270
     1
271
     1
  0
XRECORD
  5
1F
102
{ACAD_REACTORS
330
1A
102
}
330
1A
100
AcDbXrecord
280
     1
270
     1
271
     1
  0
XRECORD
  5
1E
102
{ACAD_REACTORS
330
1A
102
}
330
1A
100
AcDbXrecord
280
     1
270
     1
271
     1
  0
XRECORD
  5
20
102
{ACAD_REACTORS
330
1A
102
}
330
1A
100
AcDbXrecord
280
     1
270
     1
271
     1
  0
XRECORD
  5
1D
102
{ACAD_REACTORS
330
1A
102
}
330
1A
100
AcDbXrecord
280
     1
270
     1
271
     1
  0
XRECORD
  5
14
102
{ACAD_REACTORS
330
12
102
}
330
12
100
AcDbXrecord
280
     1
270
     1
271
     1
  0
XRECORD
  5
13
102
{ACAD_REACTORS
330
12
102
}
330
12
100
AcDbXrecord
280
     1
270
     1
271
     1
  0
XRECORD
  5
109
102
{ACAD_REACTORS
330
12
102
}
330
12
100
AcDbXrecord
280
     1
 70
     1
 90
1959938040
 71
     1
  1
EBEDB894-E373-41E8-A416-BD40432EB83A
311
504B03040A0000080000D999D5423DEE336E79000000790000001B0000006175746F6465736B2D64657369676E2D7061636B6167652E786D6C3C3F786D6C2076657273696F6E3D22312E302220656E636F64696E673D227574662D3822203F3E3C666F726D6174733E3C666F726D61743E687474703A2F2F736368656D612E
311
6175746F6465736B2E636F6D2F64657369676E2D7061636B6167652F323030393C2F666F726D61743E3C2F666F726D6174733E504B0304140006080800D999D542D486FD9CA0000000F4000000130000005B436F6E74656E745F54797065735D2E786D6C7D8EC10E82300C865F65E91D8A1E8C310C0EEA1BF002731658846E
311
D98AC1B77784ABF1D8FE5FBFBF75BBCE937A534CCEB38643598122B6FEE978D0B0485F9C41B54DDD7D022595594E1A469170414C76A4D9A4D207E29CF43ECE46F218070CC6BECC4078ACAA135ACF422C856C0E68EA1BF5669944DDD7BCDE7B1F8E415D77AECB980613C2E4AC91FC167A2B244592486606FC29C8FD7F045B9A
311
EF7053A7E60B504B0304140006080800D999D54225F2210DEB0000007C01000008000000636F72652E786D6C8D90416EC3201045AF82665B6183B1D36261A226694FD00B20202E4A0C9681AAC72F4E1CA9DD7535A33FFFCD8CBED87F4F57F46597E8821F80560490F53A18E7C701723AE317407B299610D22F1B20AF263BC0
311
2A8314E312F2BC493AF8647D2AAA0FC66EA28AD12640FA5A9A01A2FEB493AA544EC5112FD5ACF4458DB6A28FAEC0393B83EE479C29FBDCD9D905E489B39677FC80193931DC769462FEF6FA8C9B8675BB77C68E077214F50A4B91DCF4B8AF17AB9235201B4219263BDCD00FCA7BDAF61D7D225DCF88A857FB1F28CFE69F5076
311
3EB1667BF78E4590B43C721B4851AF5994720BAAD43537F903504B0304140006080800D999D54255019EA25F0000007C00000007000000636E782E786D6C4DCB3B0E80201045D1AD90E915ED2CF8AC45050C11660C8261F98AB1B07AC9C97D42D718D865D3E909258CFD00CCE24AC6E326A164D74DC0B4128928FF32603847
311
2BA13128B1252AC747C6BAB984FC68F0B87FE8960A5C09FE86CFB69FBA01504B0304140006080800D999D5425B9FB55368010000020300000C0000006662782F636F72652E786D6C8D525B6E833010BC8AE5DF0A8C31A425328E9AA43D412FE0804351C046C646397E9747445345518564AC999DDDD901BEBBB60D1A94ED6B
311
A3734CC30823A50B53D6BACAB177E7E00DA39DE0D618F7AB0C232D5B95E311C68257D6F86E810AA39DD20E506D4AB580B2EF95C3A868E092E3BEF856AD0CA57750D15FC24E161759A9908640439DE0BDB36000CD43C6138BF3E9CAC98C0BEE7D5D2E6C5DC2B4FA5C2B8BC53163499666FB804547162429A541F6F1FE1AC431
311
4B379F8C1DF6D18193512CB8ABDB9BBBC22AE95489451C5116449B20A65F34DBD2649BD29728DDB28893B1FC4EE4BBF29F225F6BC7E2C5EE2CEBB1A0606422FE6C0B1139D4CB01FC10C1C91822BCA684EF8386402064274FCD6D8F0B40832A9CB10930A5F12B35C8C62B981AA1E9E16466A1F3D400367BD8277ED2E7790FF8
311
805257604D3AB89EBC1BA7F379EA1245A76C30B82BD2C6B6B259CDCD16D7731DF4505E98C6D8FFA8C9B22A59C224E3DF2B7E00504B0304140006080800D999D542D8F3D2917E0000009D0000000B0000006662782F636E782E786D6C4DCCD10A83201886E15B91FFDC55CECA408DD9F03E625948A6C3E9D8E5AF46073BFAE0
311
E1E3E5FD6773E86DE2CB062FA0BA94808C7F84C9FA45404E3366807AC96308E9EF06C88F9B11703048BEC4909F274D661EB34BBB3AEBD7135BA5EB46698DAF2D53986ACAF0AD6B14AE0642EA3BED48391028242F7EA57D8FB0FC02504B0304140006080800D999D542EE03CB812D01000014020000310000006662782F3742
311
4635364246462D333738422D344634382D413936422D3143323235443439323043322F636F72652E786D6C8D515B6EC32010BC0AE22B55850D183B718489EA543E412FE0D8244189C1E251E5F885DA91DABFFCB068766676B4CB0F8FE90EBEA575CAE806920C4320F56046A52F0D0CFE8C76101C04B7C6F83F3408743FC906
311
26180A7EB126CC2B3418EDA5F611D566942BD83B273D04C33D7E1AE886AB9CFAAC0F3E32DC2D9BFBE1D65F6446B2D88E3CC19DB731005886A4178A6DDB9555DB75A8D8EE5AC43AB6431F75D52272A4B4FC6435C547CAF3452878086A5CE56A8C71D45949FBAA49120BEED5F48C3F58D97B394241312910AE10255FA4DE13B6
311
2FC93B2EF705E679A2FF1385797C511494F6055DE32E320705E1F9D2107C34E1747F86918FD9580FD2BC8D93C31B1438C3846246EA2DCF176A5C40F4ACD8EAE9BCB171C19BDB29B249B918574CF03CDD2896DF03C69AEE297E00504B0304140006080800D999D542D0B35F5D4E01000033030000300000006662782F374246
311
35364246462D333738422D344634382D413936422D3143323235443439323043322F636E782E786D6CD593CD6EC32010845F0571ADFC43E2446D8489D4439FA0875E316C121A0C16E0AA79FB2E094973C9A1C75E90353BCCAC3E61BEFD1E2DF982108D773D65754B0938E5B571FB9ECE69573D53B2153C789FEE6C94383942
311
4FB34C05DF073F4F45D2B093B34DA85AE38E450C10FD1C144494F34D62BD921603C055338A300EA035687233E2D70E02AE82E27022E900E4EDF583F8E113548ABCC9298237B943F07C96A63B1325CACA187B1AD5014659CB39790DF1586B9964CDEA6BD7839D7E9348BE70AD9C8321B9BCA7F9A4A26C542347DEE050F09802
311
D22BA6749A800A394DD62899107273365E3C82CFC6A57557BC06C10774B3F5B2EB30EC3C133C99118A4305900934158B962DAB765D2DD83B7BD9B06EB3624FED6AB36C7993ED820FDEDB72096320F88928EF12B84405E34D1E3FC2577C449B80AC7D38FD01240228AD173AB78CFFCCA739BF6FC415F02F103F504B03041400
311
06080800D999D542ECBC338DA305000081100000340000006662782F37424635364246462D333738422D344634382D413936422D3143323235443439323043322F6F626A656374732E786D6CAD575B8F9B3814FE2B887DD97D4808493ACDAC1856B94D1575A7AD1AB5DA87489101C378C75C649B69667FFD7E0643204DA6D9
311
555F001BFBF89CEF7CE762EF8F43CAAD672A24CBB33BDB1D8E6C8B66611EB12CB9B34B150F66B6F587EF893C579D65B6959194DED97ADAF6BD44E46561A6221A9392AB93D9FBC55F960C69466D2BE444CA3B5B868F34254352AA3CA2F26918114586497C18BAC37A615F6C2248F17822B42082660A9A623E8314AB56CAED0F
311
47B6E37B8EFEEF7BFA69564D2EAF722A7BFAE7B34C2A9285DF1D762266E24E57EBF19BDBC19BE9743298DE8CDDC1E27EB11AB86F27A3E5CD72793B5FDFE260A90424194D048D6DFF1DB0112CF49CFA97EF952C5393B159621CE408FACCB4A76C7F6CB99E53AF69AD33469E533FCCB38C86155640A3B2CF888E6841B3083E67
311
5442B30E42A3FED0D538767E4FF4D81CD99DBE0E81EE8E8EA046F7E6DDD5340FFE8609F21A06094935036B2C8DA13557474784833CE7E61F93564A14158C708BB34010F162FB58AA97F85E4F8C66B2D0D1A02DB07D78A1FEDDA70BC2E8C73C3FA7655C72AE696CFB5514EC112B54C94A33F60F1547EDBBC84027F84AB36166
311
0C522F05B5FDDB9A22B31336D5405A3127095C0E33F5CEC9F8C4D0A58ED3CDCAF6DFDF0787AD8EDDF38717222FA8509A3EA056E3B8E6AD51323AB957794E6FB04F543982F219C87F40A81F5581DF043B4C0F53738A122493712E52F8C61A5983111E23CBAD9EFABBF3E539EDE6BEF72EE109676BA87E029E7D1BBABEECC0E9
311
7BCF207C2E26C6B46D4838D2C603CB00902689C5734C210FC7C1C1F637C872C8CAD845B8EFC264A8FB8C4FCF31629028AA933AEF0C589EA4C52B123460AB1809356AF21B058F7EFA2E9D55079B6597E07DF353E83A5F6DDF6F4B1193903E98985ED198654CA1C41D79D355A88779CFA227FAF22D17110CFD1EEF6D17EFD41C
311
2581B6C65C039F34395D0F8E27F70E08B12FC975BAF17E70028CD085B523FF81C990724E329A97CDB9AFD60F948D1A621DEC9AC96D8139161690A6FE73128328D2A1608506B1AD566DD21C5EB0EECBE6031869FB8B973FC94B377B05C7DC1BE63C17FBE0655FA7A5B3507FED73DB60E06829A07B15244DFC1BD0F7118BE352
311
22099EC1F5EB66D9F59D4E0B48118DD43A5AA6B01FC14584216D2317D55A1054D23CDB33D44DC4DDD903BAF201A9614025F092C692F278CF382FD37DCC38AAD13E25C50538FEBFFE4199167B92E665A62EC8EEA98EEAD0D7BDC75EF98DA8F0D1F6B7D57BB040EE8D6874810CBA969CC1AAE7DAF562BD5ACC6EA783F5E42DFA
311
27773D1BCCA7EECD60B19A8EA693F17A319BCC1B3FD59AF85E536ABA110D2FA1B479A560C67D5F36881F93046CFF8128B97B578767F3FEB219A217F61CEC41BD6C37CEA367F47D34FAB180E3CAB3823669C1694A3345740C3DE80FFE99A0CFE82953CF6F5292D02BA47C7CB73D31063357ECFBA4E39D7E3BD96B66973A20CF
311
0A518F651A6484F1938D498DE4B0C812835FE393F65D179A66A847C631E84C65CE59843C185909CD53AA900DAF284222A512D4EBF6F491B97B5CB1FBB9EE101509386D3479246892B94458805A65A8FAF3D62F68EA745F7567A3DC0E9FF03099C2B6C0993B1B4DBA622195C300055AB742957070A9DBC9A3F12759C2D16BD7
311
9BDA71BB4B63D32BC9ED926BFA2763579DC28D01482305FA063444F04EA58CEF55BA99FFE17F32BC51C7220A9F41A95A5B8E13AD31D53108D1DA28735B4013F3648E3E20505F37CB1D566B7A885C75CB7A9504B5D4812222A96E0A5A3FA3D27CF5C94187626D3E5A052F13F8F27A49034141E652073858045618990551A0EA
311
F2F7DD2791E3269B5AF70C14B07E3DCC6E7EDB2DF334CDB37A6A3737F7616BFB88DB6DB44372A0FA5A2277E3913BDE55D7017343D90744D22189E41326E059C15AA07BEE072FEB3BA38B45C6FDC6138E76C50943372BCB14B6E9717D37B76A70D07864D4420CE92BA58E98EE82E2D51B81532D85AA02BDBCFF2F504B030414
311
0006080000D999D542000000000000000000000000350000006662782F37424635364246462D333738422D344634382D413936422D3143323235443439323043322F76657274696365732E62696E504B0304140006080800D999D542F270F1330600000004000000360000006662782F37424635364246462D333738422D34
311
4634382D413936422D3143323235443439323043322F747269616E676C65732E62696E636660600000504B0304140006080000D999D542000000000000000000000000370000006662782F37424635364246462D333738422D344634382D413936422D3143323235443439323043322F617474726962757465732E62696E50
311
4B0304140006080800D999D542D5987DFC8F00000041010000360000006662782F37424635364246462D333738422D344634382D413936422D3143323235443439323043322F6469726563746F72792E786D6C858F410EC2201045AF4266AF15DDB800BA74E7C21B903225242D6328188F2FA5C4183471359997F9FF81E89F
311
F3C41E1816475E02DF1F80A11FC8386F25A438EECEC07A250251FC3803E6F58C12560C4AD840E95E91C151A72936F496F35732D860FE635F62C8F2DA16B505C545B74125BAA2FA9E05D7CC053D063734D5C7665FD55B6B8D15D5E9BFEAFD8490FFA45E504B0304140006080800D999D5424D187C3CFE000000A00100003B00
311
00006662782F37424635364246462D333738422D344634382D413936422D3143323235443439323043322F7265736F75726365732F636F72652E786D6C8D504B6E833010BD0A9A6D65B071480B328ED2A43D412F609909B1126CE44FD5E3D7042AB5BB6E6646EFA3797AE2F035DD8B4FF4C138DB032B291468B51B8C1D7B48
311
F1425EA03848E19D8BBF64505835610F0B0C528CDEA57983B4B3116DCCA875036EA00A012314FA9E8F1E82BEE2A44A956256845B392B7D532396ACCC74D64911A2CF018AF5C932417A0C2E798D41542B2B454A66D83466C83FCDC5A007796EF9AE6DDA23E1F4CCC9AE618CB46FC76752D7BCD9BF737E7AA527512D6629A299
311
7E326A8F2AE200B2A68C13BA2735FB606DC7765DC39E68D3712AAA45FEC794E6E19FA6646CE4F51677B505902C07791052544B5F793DCACC7BE9567E03504B010214000A0000080000D999D5423DEE336E79000000790000001B00000000000000000000000000000000006175746F6465736B2D64657369676E2D7061636B
311
6167652E786D6C504B01021400140006080800D999D542D486FD9CA0000000F40000001300000000000000000000000000B20000005B436F6E74656E745F54797065735D2E786D6C504B01021400140006080800D999D54225F2210DEB0000007C010000080000000000000000000000000083010000636F72652E786D6C50
311
4B01021400140006080800D999D54255019EA25F0000007C000000070000000000000000000000000094020000636E782E786D6C504B01021400140006080800D999D5425B9FB55368010000020300000C00000000000000000000000000180300006662782F636F72652E786D6C504B01021400140006080800D999D542D8
311
F3D2917E0000009D0000000B00000000000000000000000000AA0400006662782F636E782E786D6C504B01021400140006080800D999D542EE03CB812D010000140200003100000000000000000000000000510500006662782F37424635364246462D333738422D344634382D413936422D3143323235443439323043322F
311
636F72652E786D6C504B01021400140006080800D999D542D0B35F5D4E010000330300003000000000000000000000000000CD0600006662782F37424635364246462D333738422D344634382D413936422D3143323235443439323043322F636E782E786D6C504B01021400140006080800D999D542ECBC338DA305000081
311
1000003400000000000000000000000000690800006662782F37424635364246462D333738422D344634382D413936422D3143323235443439323043322F6F626A656374732E786D6C504B01021400140006080000D999D54200000000000000000000000035000000000000000000000000005E0E00006662782F37424635
311
364246462D333738422D344634382D413936422D3143323235443439323043322F76657274696365732E62696E504B01021400140006080800D999D542F270F13306000000040000003600000000000000000000000000B10E00006662782F37424635364246462D333738422D344634382D413936422D3143323235443439
311
323043322F747269616E676C65732E62696E504B01021400140006080000D999D54200000000000000000000000037000000000000000000000000000B0F00006662782F37424635364246462D333738422D344634382D413936422D3143323235443439323043322F617474726962757465732E62696E504B010214001400
311
06080800D999D542D5987DFC8F000000410100003600000000000000000000000000600F00006662782F37424635364246462D333738422D344634382D413936422D3143323235443439323043322F6469726563746F72792E786D6C504B01021400140006080800D999D5424D187C3CFE000000A00100003B000000000000
311
00000000000000431000006662782F37424635364246462D333738422D344634382D413936422D3143323235443439323043322F7265736F75726365732F636F72652E786D6C504B0506000000000E000E00800400009A1100000000
310
504B03040A0000080000D999D5423DEE336E79000000790000001B0000006175746F6465736B2D64657369676E2D7061636B6167652E786D6C3C3F786D6C2076657273696F6E3D22312E302220656E636F64696E673D227574662D3822203F3E3C666F726D6174733E3C666F726D61743E687474703A2F2F736368656D612E
310
6175746F6465736B2E636F6D2F64657369676E2D7061636B6167652F323030393C2F666F726D61743E3C2F666F726D6174733E504B0304140006080800D999D542D486FD9CA0000000F4000000130000005B436F6E74656E745F54797065735D2E786D6C7D8EC10E82300C865F65E91D8A1E8C310C0EEA1BF002731658846E
310
D98AC1B77784ABF1D8FE5FBFBF75BBCE937A534CCEB38643598122B6FEE978D0B0485F9C41B54DDD7D022595594E1A469170414C76A4D9A4D207E29CF43ECE46F218070CC6BECC4078ACAA135ACF422C856C0E68EA1BF5669944DDD7BCDE7B1F8E415D77AECB980613C2E4AC91FC167A2B244592486606FC29C8FD7F045B9A
310
EF7053A7E60B504B0304140006080800D999D5421972C4CEEB0000007C01000008000000636F72652E786D6C8D904D6EC3201085AF82665B6183FF125B98C84EDB13F4020813172506CB40D5E31712476A775DCDE8CDFB66468F9DBE971BFA529BD3D6F4403302481969276DE61E82BFE023A013679BB5FE970D90118BEA21
310
C9C0D9BCD9B0EE92B4C62BE3A36AECA4765138A73C20798B4D0F4E7EAA456422F8E870D76C15F22A6695D16717E110F4841E47F414F7E98B561BF0663C1CE8388CB81E9B165775F18A87AA207818CE6FEFED702CAB3365798239F37A79DE979B125E4DC00B424B4C1A5CD00FDA76B4EA6AFA42EAAE242C4FF63F5058A77F42
310
411B5F16FBBB0FCC014F8FDC079CE5298B58EE41C59A72E33F504B0304140006080800D999D54255019EA25F0000007C00000007000000636E782E786D6C4DCB3B0E80201045D1AD90E915ED2CF8AC45050C11660C8261F98AB1B07AC9C97D42D718D865D3E909258CFD00CCE24AC6E326A164D74DC0B4128928FF32603847
310
2BA13128B1252AC747C6BAB984FC68F0B87FE8960A5C09FE86CFB69FBA01504B0304140006080800D999D542CA33057A68010000020300000C0000006662782F636F72652E786D6C8D525B6E833010BC8AE5DF0A8C79E425E308D2F604BD80030E45011B191BE5F85D1E114D15451592B16676766707D8F1D6366890A6AFB5
310
4A31F5038CA42A7459AB2AC5CE5EBC1D4647CE8CD6F65719464AB432C5238C39AB8C76DD02155A59A92CA04A97720145DF4B8B51D1C025C57DF12D5BE10B67A1A2BFFA9D28AEA2923EF581863ACE7A6BC0009A878C27E697F38D9119E7CCB9BA5CD8BA8469F5A59606F34DBEDDD23CCBBD24DFECBD3809DFBD2C0E032FCB4E
310
1F9FFB6C17C527CAC828E6CCD6EDDD5D61A4B0B2C43C0C68E4051B2FA45F747FA0F121A16F4172880246C6F20791EBCA7F8A5CAD6C142E7667598FF9686422FE6C0B1159D48B01FC10CEC81822BCA6841F83864020642BCECD7D8F2B40832CAC363130A5762B3588C649981AA0E9616466A1F3D400367BDA277CD1E7750FF8
310
804255604D58B89E9D1DA7B379EA1245278D37D81B52DAB4A259CDCD16D7731DF4545EE8469BFFA8C9B22A59C224E3DFCB7F00504B0304140006080800D999D542E1FC54DD7C0000009D0000000B0000006662782F636E782E786D6C4DCC4D0AC3201845D1ADC837B7F913515083092E243426488D16ABA5CBAF291974F4E0
310
F0B862FC1C1EBD6D7AB9182474B716900DF7B8BAB04B2879C30CD0A8448A31FFDD0085E5B0124E0625F614CBF3A2D56E4BF1B9AA77E171A1A17A20864E78D63DC364A00C736E089EA6BEBA9EBB96736894687EA5BA67587D01504B0304140006080800D999D54215680D6A2A01000014020000310000006662782F45364133
310
344536422D434132382D343336382D393945342D4242323334454143313039392F636F72652E786D6C8D515B6EC32010BC0AE22B55850DD871ED081325516ED00B10435C94182C1E558E5FA81DA9FDCB0F8B66676647BB6CFF98EEE05B39AFADE921293004CA0C566A33F630862B6A21D873E6AC0D7F68101831A91E661872
310
363A1BE7151AAC09CA84841A2BD50A0AEF558060B8A74F0FFDF0A52651881812C3DF8A590C3731AA8214A99D789CF9E05200B00CC92FE4E7E650D5E7E6884E07DAA2BA6A5AD475E71A1D8F34E18713C15DC7CA45C8598C5AAE722D531C7DD5CABD6A92C59C053D3DE30F4E89A024E414930AE10651F249BA1DA9775BF28EB7
310
BB0AB332D3FF89E22C5F14456D4245D7B88BCC434E58B9343893365EEECF30EA315B17409EB7F16A78831C179890966EE9072B176A5A40F26CEAD5D307EBD28237B74B6257AB71537356E61BA5F27BC054F33DF90F504B0304140006080800D999D542B614904A5601000033030000300000006662782F4536413334453642
310
2D434132382D343336382D393945342D4242323334454143313039392F636E782E786D6CBD93CD6EC32010845F0571ADFC43EC44698489D4439FA0875E316C121A1B2CC055F3F65D1292E69243A5AA1764CD0E33AB4F986FBFC6817C820FC6D98EB2B2A604AC72DAD87D47E7B82BD6946C05F7CEC53B1B25568ED0D12453C1
310
F7DECD539634ECE43C445407638F59F410DCEC150494D34D323825070C005BCC28C2D883D6A0C9CD885F3BF0B80A8AFD89C40390D79777E2FA0F5031F02AA5085EA50EC1D3999BEE4C94A84186D0D1A00E30CA52CED16908C752CB284B565EBB1EECF49344D2856BE5EC0D49E51D4D271579A31239F20A878287E8915E36C5
310
D30454C8691A8C9211215767E3C523F86C6C5CB5D96B10BC4777B358ADD718769E091ECD08D9A13CC8089A8A45CD9AA25E150BF6C69E37ACDD2CD953BDDC3435AF925DF0DEB9215FC218F06E22CAD9083652C17895C68FF0651FD1C6236BE74FBF00890072EB85CE2DE32FF9B055D3B6FFC8A73ABF6FC4E5F12F10DF504B03
310
04140006080800D999D54237441781640700009A1B0000340000006662782F45364133344536422D434132382D343336382D393945342D4242323334454143313039392F6F626A656374732E786D6CED59DD739B3810FF5718EEE5EEC1D8C44E9ADC103A719C763CBDB49DFADAB907CF3032C84417211849A4F1FDF5B7FA00
310
033109BEE6DEFA6003425AEDFEF6534BF0F631A3CE03E682E4ECD2F5BD89EB6016E70961E9A55BCAEDE8DC75DE8601CF73D998E63A0C65F8D255C36E18A43C2F0B3B94E02D2AA9EC8CBE9BFFE5881833EC3A3145425CBA22BEC319F25029F3048B7B2F411279E9F6D1F33D33B14D36E5A8B8EB102D10C74C02A730CE808A63
310
98F2DB8F13771C0663F53E0CD4BF9D351D346BD63F6BACA56E7349989088C54F58EA90990E6269EACF163727A717A3D3D96C3A9A9D9DF8A3F9BBF962E4BF994EAECFAEAF2FAE6E2E80BD4D9E532B53820BCC12D0DFCE0DFD60ACDED4A25B040E711DE78CE15803095069B1BA040916B05503BE49FBD15712355E6B091BCF33
310
F5DEB2D0189EB6A9F4CD1A06448B2E0862B7AB24AEAE4DF9F2CDDF20B81862945C6009DC0AC941BB161E0E5EE18693606C46C360B3D705114E8624E6045187920D471C940253D59430300B2C19E51C1C48394A02AD39F3BA6D5BE0992FBBCE212EB725A5CA33DC503B5604EE87A5D09C917F30DF73DF44067802694BC2E4B9
310
E552EE0AEC8617C1580F8681BA4C4FEC4B03A4B3A528151A11F3B623E8B572FDE5C20D3FBCDB3CAE543838BC79C1F30273A98C4EE951F305866CAF0A25BBAD3F48736A01086340B52BF7A07C01E43F42F4D8B3027AE3E471F638B37325474C6C739E816E9C89339AC0DFC4F1F5BFBA6FDC05E37A715B7B7D78829B2AA8CE7F
310
1CCFB60C1A2BCB7F03CE30780083CFF9D4BE5AC588823DDF120600292371680E4310DAB79B47375C42E084400FAB100D7D1019D87D80DB606CC9ECB552B997F53A0688DA3DA6439404B0698B04367AF4F41EB20727F15E4D4D11FBE03D7D1573BD5AAC3EAC4ABE4531BEB53EBDC05BC28884AC7998A116E62D89EEF1EE7BCE
310
1310F429DEAB26DE99DD4A00DA0A73057C5A81A01EF63BB73688615D9AAB7013BCB00308A1727583FE2D1131A614319C97D5BE757453865A7BBCAD19DCF0C4403C3DE99830C70F445515E034FB192D4621EFC79C140A44377C6F24AB83A6D723DDD7E547B0C87A7ECFAC2583D0CB10FD5307AD0338B42CBB42DA02510BBCD9
310
87F338A7398F36BBC8443A176A0960A3ED2DDF5A4421D61B25292AE041DAEFAA90921A69A3846CB7A580B87A80C56FCBEBA6394CBCA97FEA34FF3BCE3883680BBE8BB8F5BBCE1E11C9508AA32D4AFAB66BEE56D3169A640F698EB714E4220F44EE2224A34982D363A0398AF8C5AB524F692E04615840BE3A087E138D890781
310
C468B3625969B5033411518625A2C720A0C8F480ABD38EAE7163281D5EE6B1B6DEE734D624FA3F590447504BE62C22508A420E799171DF3B8518D246D7A0DCC117ACADA2ADC5A0259410F12EFA8E497A278F41DD90EFC13D86234929A3BC403198F500B24F7C4529B5C3FB06C5F72A7F4471495FCB4004A6DB88505A6611FC
310
088393C710D7AE03D3B32834889BD8277106451992251FB2C9D9E9E4C93EA666E886C0C6465B42216C47192A7A506F05445D8F3835F8967A8F523765564428CB4B36C850BC69D79B2CF9AE5A15D981FCAA5211CAC68AB025180684C93AAB56311B4C5D075670231DA87691405941CD29EC85C4E3D7DEA429F76EC0AD9FBEEE
310
0619147E3DDA6B46D4590583E5B1551888EF48C6776EB8D2D7D11CEAEF0427FB545FD59ACD0A10105391BCE4C4AAE8EB12CA1B5BA3B9E12D9262FDDE64DDEAFA75E941F72318C31AA85DEA854B0574869944AA32B95537F40B8210DCA261C6972AA71E43E52A4974D588E83BD2A7CE5619D1DA34235E7187599EC18FAD098B
310
6999E0354AC47D742B69B4228A752BA597910AE36705FCF47ED58107460688F4591578F87B67AD1DBD56E5D24122F2AECC360C1108822DD152A31BAF60A9D548A5E5FAAACE14507781815915CF7E9E2C9AED889F278BD41AC60F9D2CE6BB3FD0AED91769A4F358D9F551C7803A3F292AAF710CD06D879A6A9D454C32B7F25B
310
678A202856517E703556050D43B08FE3FF9CB5FBB2A0D9AEC3FF7159DB7F52711C95555A935597EA40E5BA6CE6B09BF9CD627E7E311BDD4CDF4083D6BF391F5DCDFCB3D17C319BCCA62737F3F3E9558DA676D430A88399CE5DF06C825A35AC9E2C06D095153925099CE61327C510F3259CE907B4CF79860524CF66B33BB14D
310
F901AB1F4C9F53A20DC5152777081AC454405A078CCA58B6C79D5FA03529E1A07DE942D3C8BB873F6B95AE0399E7D2855681243116DE06DA4CAAA1A78943CAD5B9DF12037C104B554A348BEAE77A95C2A615FEEB2943D28095ABD5C380C2AD80EE57AB43A179B33CC547095EB1E32009B79B5242B56664D90FD4C2E86DF6EA
310
37B251C2EEEDD68FE0BACF8BE57B7A4E0B91419F0C9E3502437524114F75BF5B316659BA5A7C1E439FCD597E720A5AA6A0CBE194461C833197AAA0022B02ABB0340B24C154AF7F5F7FE6397CE2C91C5D1539BF3E9E9FFDB6BECEB32C6766687D05A7B2043E1439AB3BF8EC93ACA178C0AAB92ED62713FF64AD9BDAB6CF1E6D
310
90C09EAA8A60A02A2694201D9303BB7CD2A0B2EDCBB1524567FA72E1D8200ACD0063474F7ABCE62397033EA43EA7288FD17E5E49FB6C5F7BACA7824D70E84887FF02504B0304140006080000D999D542000000000000000000000000350000006662782F45364133344536422D434132382D343336382D393945342D424232
310
3334454143313039392F76657274696365732E62696E504B0304140006080800D999D542F270F1330600000004000000360000006662782F45364133344536422D434132382D343336382D393945342D4242323334454143313039392F747269616E676C65732E62696E636660600000504B0304140006080000D999D54200
310
0000000000000000000000370000006662782F45364133344536422D434132382D343336382D393945342D4242323334454143313039392F617474726962757465732E62696E504B0304140006080800D999D542D5987DFC8F00000041010000360000006662782F45364133344536422D434132382D343336382D39394534
310
2D4242323334454143313039392F6469726563746F72792E786D6C858F410EC2201045AF4266AF15DDB800BA74E7C21B903225242D6328188F2FA5C4183471359997F9FF81E89FF3C41E1816475E02DF1F80A11FC8386F25A438EECEC07A250251FC3803E6F58C12560C4AD840E95E91C151A72936F496F35732D860FE635F
310
62C8F2DA16B505C545B74125BAA2FA9E05D7CC053D063734D5C7665FD55B6B8D15D5E9BFEAFD8490FFA45E504B0304140006080800D999D542719899FFFE000000A00100003B0000006662782F45364133344536422D434132382D343336382D393945342D4242323334454143313039392F7265736F75726365732F636F72
310
652E786D6C8D50596EC23010BD4A34BF9593380B10E41819DA9EA017B09C2158101B79A97AFCDA904AED5F7F66466FD13C3D76F85A6EC5273AAFAD198196351468949DB4994788E14C76501C3873D6865F32288C5C70840C0367B3B3F1BE42CA9A802624D4D80957507A8F010A754BC7085E5D7091A58C2129FCB5BC4B7595
310
3396B44C74D271E6834B018AE7933C813BF4363A859E554F96B318F5B46AF4947EEAB346077C73DC6EE95108D21F3703E9FAE69588AEA98910A7B7F741ECDAEE445995CD9C05BDFC64540E65C0097853D396D41BD2D00F3AEC69B7EFE94BDDEFDB9A5559FEC714EFD33F4D519BD0366BDCA7CD03CF411E046755EE2BAD4799
310
69E76EF937504B010214000A0000080000D999D5423DEE336E79000000790000001B00000000000000000000000000000000006175746F6465736B2D64657369676E2D7061636B6167652E786D6C504B01021400140006080800D999D542D486FD9CA0000000F40000001300000000000000000000000000B20000005B436F
310
6E74656E745F54797065735D2E786D6C504B01021400140006080800D999D5421972C4CEEB0000007C010000080000000000000000000000000083010000636F72652E786D6C504B01021400140006080800D999D54255019EA25F0000007C000000070000000000000000000000000094020000636E782E786D6C504B0102
310
1400140006080800D999D542CA33057A68010000020300000C00000000000000000000000000180300006662782F636F72652E786D6C504B01021400140006080800D999D542E1FC54DD7C0000009D0000000B00000000000000000000000000AA0400006662782F636E782E786D6C504B01021400140006080800D999D542
310
15680D6A2A0100001402000031000000000000000000000000004F0500006662782F45364133344536422D434132382D343336382D393945342D4242323334454143313039392F636F72652E786D6C504B01021400140006080800D999D542B614904A56010000330300003000000000000000000000000000C80600006662
310
782F45364133344536422D434132382D343336382D393945342D4242323334454143313039392F636E782E786D6C504B01021400140006080800D999D54237441781640700009A1B000034000000000000000000000000006C0800006662782F45364133344536422D434132382D343336382D393945342D42423233344541
310
43313039392F6F626A656374732E786D6C504B01021400140006080000D999D5420000000000000000000000003500000000000000000000000000221000006662782F45364133344536422D434132382D343336382D393945342D4242323334454143313039392F76657274696365732E62696E504B010214001400060808
310
00D999D542F270F13306000000040000003600000000000000000000000000751000006662782F45364133344536422D434132382D343336382D393945342D4242323334454143313039392F747269616E676C65732E62696E504B01021400140006080000D999D54200000000000000000000000037000000000000000000
310
00000000CF1000006662782F45364133344536422D434132382D343336382D393945342D4242323334454143313039392F617474726962757465732E62696E504B01021400140006080800D999D542D5987DFC8F000000410100003600000000000000000000000000241100006662782F45364133344536422D434132382D
310
343336382D393945342D4242323334454143313039392F6469726563746F72792E786D6C504B01021400140006080800D999D542719899FFFE000000A00100003B00000000000000000000000000071200006662782F45364133344536422D434132382D343336382D393945342D4242323334454143313039392F7265736F
310
75726365732F636F72652E786D6C504B0506000000000E000E00800400005E1300000000
  0
XRECORD
  5
17
102
{ACAD_REACTORS
330
12
102
}
330
12
100
AcDbXrecord
280
     1
270
     1
271
     1
  0
XRECORD
  5
16
102
{ACAD_REACTORS
330
12
102
}
330
12
100
AcDbXrecord
280
     1
270
     1
271
     1
  0
XRECORD
  5
18
102
{ACAD_REACTORS
330
12
102
}
330
12
100
AcDbXrecord
280
     1
270
     1
271
     1
  0
XRECORD
  5
15
102
{ACAD_REACTORS
330
12
102
}
330
12
100
AcDbXrecord
280
     1
270
     1
271
     1
  0
XRECORD
  5
24
102
{ACAD_REACTORS
330
22
102
}
330
22
100
AcDbXrecord
280
     1
270
     1
271
     1
  0
XRECORD
  5
23
102
{ACAD_REACTORS
330
22
102
}
330
22
100
AcDbXrecord
280
     1
270
     1
271
     1
  0
XRECORD
  5
BA
102
{ACAD_REACTORS
330
22
102
}
330
22
100
AcDbXrecord
280
     1
 70
     1
 90
1959938040
 71
     1
  1
5FBD1FF6-33DA-41C4-B952-367231473E7C
311
504B03040A0000080000D899D5423DEE336E79000000790000001B0000006175746F6465736B2D64657369676E2D7061636B6167652E786D6C3C3F786D6C2076657273696F6E3D22312E302220656E636F64696E673D227574662D3822203F3E3C666F726D6174733E3C666F726D61743E687474703A2F2F736368656D612E
311
6175746F6465736B2E636F6D2F64657369676E2D7061636B6167652F323030393C2F666F726D61743E3C2F666F726D6174733E504B0304140006080800D899D542D486FD9CA0000000F4000000130000005B436F6E74656E745F54797065735D2E786D6C7D8EC10E82300C865F65E91D8A1E8C310C0EEA1BF002731658846E
311
D98AC1B77784ABF1D8FE5FBFBF75BBCE937A534CCEB38643598122B6FEE978D0B0485F9C41B54DDD7D022595594E1A469170414C76A4D9A4D207E29CF43ECE46F218070CC6BECC4078ACAA135ACF422C856C0E68EA1BF5669944DDD7BCDE7B1F8E415D77AECB980613C2E4AC91FC167A2B244592486606FC29C8FD7F045B9A
311
EF7053A7E60B504B0304140006080800D899D542D8097315EB0000007C01000008000000636F72652E786D6C8D90416EC3201045AF82665B6183712AC7C244B5DD9EA01740401C94182C03558F5F9C3852BBEB6A467FFE9B197D7EFA9E6FE8CBACC17AD7012D0820E394D7D64D1DA478C60DA093E0ABF7F1970D9093B3E960
311
9341F069F569D925E55D342E66D5796D76518660222075CB4D07415DCC2C0B996276846BB14875959329E8B3CB704A56A3C711ABF33E7BB66605C1C6F1C8FA8AE2A169465C8F7D8DFBF781E1F1E37068DE0642091D78B9C182473B3FEFABD5C86834888A5086C92BAEE8273DB6B46EEBE6851C5A4678B9D9FF4069D1FF8492
311
759155FBBB0F2C80A0F991FB40F072CB22977B50B96EB9891F504B0304140006080800D899D54255019EA25F0000007C00000007000000636E782E786D6C4DCB3B0E80201045D1AD90E915ED2CF8AC45050C11660C8261F98AB1B07AC9C97D42D718D865D3E909258CFD00CCE24AC6E326A164D74DC0B4128928FF32603847
311
2BA13128B1252AC747C6BAB984FC68F0B87FE8960A5C09FE86CFB69FBA01504B0304140006080800D899D542140F62CF68010000020300000C0000006662782F636F72652E786D6C8D525B6E833010BC8AE5DFCA1803A948641C35D09EA01770C0A128602363A31CBFCB234A5345518464AC999DDDD901BEBF742D1A951D1A
311
A333CC821023A54B5335BACEB077279262B417DC1AE3FE9461A465A7323CC158F0DA1ADFAF5069B453DA01AA4DA556500E837218952D5C323C943FAA9381F40E2A8673D0CBF22C6B15B00068A8137C70160CA065C87462713A5E385D70C1BD6FAA956D2A98D69C1A65B1888B621B1F2246F2342D48521C1272F8CC63527C6D
311
36E9471EB290E59C4E62C15DD35DDD955649A72A2CA290C5247C2711FB66DB1D4B7649FA166E7671C8E9547E27F27DF5A2C837DAC5D16A77910D5830303213FFB685881C1AE4087EA8E0740A115E73C2F741432010B293C7F6BAC719A05195CED80498CAF81B35CAD62B981AA2F9E17461A1F3DC00367BD8277AD2E7790FF8
311
8052D7604D3AB81EBD9BA6F365EA1A45AF2C19DD0569633BD9DECC2D166FE76DD04379695A635F51D37555BA8649A7BF57FC02504B0304140006080800D899D5424A3A28037E0000009D0000000B0000006662782F636E782E786D6C4DCCD10A83201886E15B91FFDC354337076A98ABFB886521990EA76397BF1A1DECE883
311
878F57349FD5A3B74D2F178304723A03B2E11147176609254F98036A944831E6BF1BA030AC56C2CEA0C49C62791E34DA69283E6FEA5D580E64FC72EF0D31D8D01BC5B4D357ACFB96614239E3BA6E09A93BA894A87EA56DF7B0FA02504B0304140006080800D899D542C1AB00B92D01000014020000310000006662782F3538
311
3644464331432D433439342D344541372D414642352D3134383538413242313132452F636F72652E786D6C8D515B6EC32010BC0AE22B55850D3676EC0813256972825E80D8244589C1E251E5F885DA91DABFFCB068766676B4CBB68FF10EBEA575CAE80E920C4320756F06A5AF1D0CFE821A08B69C5963FC1F1A045A8CB283
311
09869C5DAD09D302F5467BA97D44B519E4020AE7A487A0BFC74F075DFF25479189E023C3DDB249F437719519C9623BF23873DEC600601E925EC8ABA6FE381DC8011D684B113DEED66877DA5788D0A66A76C59E90E2C8F259C859086A58E46A8871D44549FBAA491273E6D5F88CDF5B29BC1C202F302911AE51413E49BB2174
311
439B775C6D4ACCF244FF270AD3F0A22828EDCB62893BCB1CE484E57383B3C184F3FD19463E26633D48F3564EF66F90E30C9302B7745DB27CA6C60544CF9A2E9ECE1B1B17BCBA9D239B54B3714D39CBD38D62F93D60ACE99EFC07504B0304140006080800D899D542D8B66F614F01000033030000300000006662782F353836
311
44464331432D433439342D344541372D414642352D3134383538413242313132452F636E782E786D6CD593CD6EC32010845F0571ADFC43E246698489D4439FA0875E316C121A0C16E0AA79FB2E094973C9A1C75E90353BCCAC3E61BEFD1E2DF982108D773D65754B0938E5B571FB9ECE6957AD29D90A1EBC4F77364A9C1CA1
311
A759A682EF839FA72269D8C9D92654AD71C72206887E0E0A22CAF926B15E498B01E0AA19451807D01A34B919F16B070157417138917400F2F6FA41FCF0092A45DEE414C19BDC21783E4BD39D891265658C3D8DEA00A3ACE59CBC8678ACB54CB266F5B5EBC14EBF49245FB856CEC1905CDED37C525136AA91236F7028784C01
311
E915533A4D40859C266B944C08B9391B2F1EC167E3D2AA2B5E83E003BAD96AD97518769E099ECC08C5A102C8049A8A45CB9655BBAA16EC9DBD6C58B7E9D64FEDF366D9F226DB051FBCB7E512C640F01351DE2570890AC69B3C7E84AFF888360159FB70FA034804505A2F746E19FF994F737EDF882BE05F207E00504B030414
311
0006080800D899D5423C3CFDD7A605000080100000340000006662782F35383644464331432D433439342D344541372D414642352D3134383538413242313132452F6F626A656374732E786D6CAD575B6FA33814FE2B887DD97DC88524BDAD28A336998EA25167461375B40F912203867A6B30B24D27DD5FBF9FC110489336
311
BB9A9710CCF1F139DFF9CEC5FE876DC69D672A1513F9B5EB0DC7AE43F348C42C4FAFDD5227834BD7F910F85208DD11739D9C64F4DA35CB6EE0A75294855D8A69424AAEF756EF6EFF72544473EA3A11274A5DBB2A7AA4191992528B98AAA7614C3419A6C976E80D6BC1BEDA5492E2714F694124CD352CC57A0E2D4E6D94D77F
311
1DBBA3C01F99EF816F7EADD4F4B8D4A8F2A77F3ECB952679F4EAB03D35536FB6F83839BB1A9CCD66D3C1EC7CE20D6EEF6E1703EF623A9E9FCFE757371FAF70B0D2129AAC2592266EF009D84816F9A3FA53E0972CD7D38915B1011A49FACC4CA4DC60E278FEA89669BDB34E1E323F12794EA30A2BA051F96755C7B4A0798C98
311
33AA605907A171FFD53338763E4FCDBB3DB2BB7C1A02DD1D1D458DEDCDB36BA908FF860BEA140649450D036B2CADA33557C73B844321B8FDC69493114D2523DCE12C9444BEB801448D48E0F7D418264B930DC603374014EACF7DBA208DDEE7F9212B939273436337A8B260835CA15A5596B17FA8DC59DF4506362156860D97
311
D621FD525037B8AA2972B9C7A61A4827E12445C8E1A6D9399DEC393A3779BA5CB8C1E7BB70BB32B97BF8F0428A824A6DE8036A35816B9E06256B937752E4CC0677CF941D28DF81FC17A4FACE14C44DB2ED6C3BB3A76849729508992136CED8198CF13376BCEAD7FCEFFCF347EDE67EF48EE189601BA87E019E7D1FBAB1ECC0
311
19F8CF20BC9053EBDA2A221C65E39EE500C890C4E1024BA8C349B8758325AA1CAA3276111E787019E63EE3AF3FB26A5028AA933ACF1C58EE95C5130A3460AB1809336AF25B0377717A55CEAA83ADD83178CF7E095D6F16ABCFAB522624A2F736A717346139D368713BDE740DEA61DEF3E889BEFC143286A3AFF15E75F1CEEC
311
510A681BCC0DF06953D3CDCBEEE4DE0111F6A5C2941BFF9D13E08469AC1DFDF74C45947392535136E7BED93FD0366A884DB21B26B70D66D758409AFACB5E0EA24947921506C4B65BB5457378C4BB87E5173012F25C8484EF84C25DE98D04177213BE6CEAAA7410E91F7D6A5B0846460BD85EE54893FE16F34DCC92A454A881
311
0760FDB19C774367AA022A44A3B54E9619DC476E116939DBE845B396048D54E41B86B689B43B7840573F10B504A8141EB358519E6C18E765B649184733DA64A43802C7FFB73F2CB362433251E6FA88EE9EE9680E7DDB7BE4553F898E1EDD60553D07B728BD318D7761EE099B567200AB5E68CF302B797777E783E974713398
311
79F3D9E0F6EA6C32989E5F4C305A5D4C3F5EC0756B513543057ED369BA098D28A1B3F9A564367C0F4BA48FAD016E704FB45A7FAAB3B3793E2C871885FD11F6A05DB61B6FE2678C7D347E5FC14EF2A0A26556709AD15C139342F7E60FFF4E3066F48CA9D7971949E9095ABE7E5AED39839513F67D33E94E7FEEEDB5AB739390
311
0795E8C7320B73C2F8DEC6B4467258E4A9C5AF8949FBACFB4CF36ADE6C6030982AC1598C32183B291519D5288627F420995105EA7547FAD85E3D4ED8FD5C0F889A849C36963C12CCC85C212DC0DB32D2FD75E737CC7466ACBA76D16D874FF8B195C275C0996B1733BA661155C310FDD94C42957270A93BC883B3244F3946ED
311
7A53FBDEEE32D8F43A722B72CAF864FDAA2BB8750065A4C0D8807908D1A98C09FCCA36FB3DFA4F8E37E63844E36F58EAD697DD42EB4C750C52B476CA5E1630C33CD9A3B748D4B7DDF286954C0F115482F72F596F92A0D63AD044A6D545C1D8674DBA597C1B614071965F9D8297296279BAA681A4207369121C2C022BACCE82
311
685075FEE7FA9B14B8C866CE1D03059CDFB797E77FACE722CB445E2FAD6FEC75D8593DE2721BAF511CA8B995A8F564EC4DD6D56DC05E50362151744862F584054456B216E85EF8C1CBFACA883E547F68E54626147B0C5D2E1CDBD866506AE9D2ADAD061CCC1D39759043E6466932A62B50BC79211855A2304162940FFE0550
311
4B0304140006080000D899D542000000000000000000000000350000006662782F35383644464331432D433439342D344541372D414642352D3134383538413242313132452F76657274696365732E62696E504B0304140006080800D899D542F270F1330600000004000000360000006662782F35383644464331432D4334
311
39342D344541372D414642352D3134383538413242313132452F747269616E676C65732E62696E636660600000504B0304140006080000D899D542000000000000000000000000370000006662782F35383644464331432D433439342D344541372D414642352D3134383538413242313132452F617474726962757465732E
311
62696E504B0304140006080800D899D542D5987DFC8F00000041010000360000006662782F35383644464331432D433439342D344541372D414642352D3134383538413242313132452F6469726563746F72792E786D6C858F410EC2201045AF4266AF15DDB800BA74E7C21B903225242D6328188F2FA5C4183471359997F9
311
FF81E89FF3C41E1816475E02DF1F80A11FC8386F25A438EECEC07A250251FC3803E6F58C12560C4AD840E95E91C151A72936F496F35732D860FE635F62C8F2DA16B505C545B74125BAA2FA9E05D7CC053D063734D5C7665FD55B6B8D15D5E9BFEAFD8490FFA45E504B0304140006080800D899D542CBA25D8DFD000000A001
311
00003B0000006662782F35383644464331432D433439342D344541372D414642352D3134383538413242313132452F7265736F75726365732F636F72652E786D6C8D504B6E833010BD0A9A6D65B0815404194705DA13F4029699502BC146FE543D7E4DA052BBEB6666F43E9AA7C72F5FCB3DFB44E7B5351DB09C428646D949
311
9BB98318AEA481EC22B8B336FC924166E4821D6C30083E3B1BD70352D6043421A1C64E7880D27B0C90A97B3A3AF0EA031799CB1892C2DFF255AA9B9C316779A2934E701F5C0A90ED4FB609C2A1B7D129F4BCD859C163D4D3A1D153FAA9AF1A1D886A1CCF555F523234CD48EAB1AF49FF3A54647C3B9D9A978132CA065E6C66
311
C1835E7E322A8732E004A2A4AC22F49994EC9D9D5B56B775F3444F6D4579B1C9FF98E23AFDD314B5095579C4DD6D1E044B411E84E0C5D6575A8F32D3DEBA15DF504B010214000A0000080000D899D5423DEE336E79000000790000001B00000000000000000000000000000000006175746F6465736B2D64657369676E2D70
311
61636B6167652E786D6C504B01021400140006080800D899D542D486FD9CA0000000F40000001300000000000000000000000000B20000005B436F6E74656E745F54797065735D2E786D6C504B01021400140006080800D899D542D8097315EB0000007C010000080000000000000000000000000083010000636F72652E78
311
6D6C504B01021400140006080800D899D54255019EA25F0000007C000000070000000000000000000000000094020000636E782E786D6C504B01021400140006080800D899D542140F62CF68010000020300000C00000000000000000000000000180300006662782F636F72652E786D6C504B01021400140006080800D899
311
D5424A3A28037E0000009D0000000B00000000000000000000000000AA0400006662782F636E782E786D6C504B01021400140006080800D899D542C1AB00B92D010000140200003100000000000000000000000000510500006662782F35383644464331432D433439342D344541372D414642352D31343835384132423131
311
32452F636F72652E786D6C504B01021400140006080800D899D542D8B66F614F010000330300003000000000000000000000000000CD0600006662782F35383644464331432D433439342D344541372D414642352D3134383538413242313132452F636E782E786D6C504B01021400140006080800D899D5423C3CFDD7A605
311
00008010000034000000000000000000000000006A0800006662782F35383644464331432D433439342D344541372D414642352D3134383538413242313132452F6F626A656374732E786D6C504B01021400140006080000D899D5420000000000000000000000003500000000000000000000000000620E00006662782F35
311
383644464331432D433439342D344541372D414642352D3134383538413242313132452F76657274696365732E62696E504B01021400140006080800D899D542F270F13306000000040000003600000000000000000000000000B50E00006662782F35383644464331432D433439342D344541372D414642352D3134383538
311
413242313132452F747269616E676C65732E62696E504B01021400140006080000D899D54200000000000000000000000037000000000000000000000000000F0F00006662782F35383644464331432D433439342D344541372D414642352D3134383538413242313132452F617474726962757465732E62696E504B010214
311
00140006080800D899D542D5987DFC8F000000410100003600000000000000000000000000640F00006662782F35383644464331432D433439342D344541372D414642352D3134383538413242313132452F6469726563746F72792E786D6C504B01021400140006080800D899D542CBA25D8DFD000000A00100003B000000
311
00000000000000000000471000006662782F35383644464331432D433439342D344541372D414642352D3134383538413242313132452F7265736F75726365732F636F72652E786D6C504B0506000000000E000E00800400009D1100000000
310
504B03040A0000080000D899D5423DEE336E79000000790000001B0000006175746F6465736B2D64657369676E2D7061636B6167652E786D6C3C3F786D6C2076657273696F6E3D22312E302220656E636F64696E673D227574662D3822203F3E3C666F726D6174733E3C666F726D61743E687474703A2F2F736368656D612E
310
6175746F6465736B2E636F6D2F64657369676E2D7061636B6167652F323030393C2F666F726D61743E3C2F666F726D6174733E504B0304140006080800D899D542D486FD9CA0000000F4000000130000005B436F6E74656E745F54797065735D2E786D6C7D8EC10E82300C865F65E91D8A1E8C310C0EEA1BF002731658846E
310
D98AC1B77784ABF1D8FE5FBFBF75BBCE937A534CCEB38643598122B6FEE978D0B0485F9C41B54DDD7D022595594E1A469170414C76A4D9A4D207E29CF43ECE46F218070CC6BECC4078ACAA135ACF422C856C0E68EA1BF5669944DDD7BCDE7B1F8E415D77AECB980613C2E4AC91FC167A2B244592486606FC29C8FD7F045B9A
310
EF7053A7E60B504B0304140006080800D899D542873DF553E90000007C01000008000000636F72652E786D6C8D905B6EC3201045B782F8ADB0CD23ADB130919C7607DD0002E2A0C460F1A8BAFCE2C491DABF7ECDE8CE3D33A32B8EDFCB0D7CD9985CF023C44D0781F53A18E7E711967C463D0447296208F9970D02AF163BC2
310
4D8652CC3194759774F0D9FA5C551F8CDD459592CD10E85B6D4698F4C52EAA51255747BA36ABD25735DB063FBB0A97E20C781C71A6EE7367672394849D30C11345EF13FF400C9F08E26F3D479C124E2686E98151D16EB014D92DCFFB3A5A95ADA97C8729EA5E11C19F980F980DAC7FE90E03ED44BBD9FF406535FF848AF399
310
92FDDD0796A0C4F591FB408A76CBA2967B50B56EB9C91F504B0304140006080800D899D54255019EA25F0000007C00000007000000636E782E786D6C4DCB3B0E80201045D1AD90E915ED2CF8AC45050C11660C8261F98AB1B07AC9C97D42D718D865D3E909258CFD00CCE24AC6E326A164D74DC0B4128928FF326038472BA1
310
3128B1252AC747C6BAB984FC68F0B87FE8960A5C09FE86CFB69FBA01504B0304140006080800D899D542C821D2D965010000020300000C0000006662782F636F72652E786D6C8D525B6E833010BC8AE5DF0A8C0D6943641C29696FD00B38E05014B0911F28C7EFF28868AA288A908C35B3B33B3BC0F7D7AE4583B2AE31BAC0
310
344E3052BA3455A3EB02077F8EB618ED05B7C6F83F651869D9A9028F3016BCB626F40B541AED95F6806A53A90594CE298F51D9C2A5C0AEFC519D8C65F050E12E712FCB8BAC554C63A0A14E70E72D1840F390F1C4E27CBA7232E38287D0540BDB5430AD3937CA62C1B22365F490469F87FC2BCAE89145F9C7368FF294E5EC90
310
D17493A59C8C62C17DD3DDDC955649AF2AD027348D92F788D16F9AEF68B6CBB66FC96697269C8CE577A2D0572F8A42A37DCA16BBB3CC6141C1C844FCDB1622F2C8C901FC10C1C91822BCA684EF83864020642F4FED6D8F0B40832ABDB1193095092B35C83628989AA0E9E16466A1F3D400367BD8873DE9F3BC077C40A96BB0
310
263D5C4FC18FD3F93C7589A257361AFC1569633BD9AEE6668BEBB90E7A282F4D6BEC2B6AB2AC4A9630C9F8F78A5F504B0304140006080800D899D542E1E55F4F7D0000009D0000000B0000006662782F636E782E786D6C4DCCD10A83201886E15B91FFDC652BA5408DB6E97DC4B2904C87E9D8E5AF46073BFAE0E1E3E5DD67
310
75E86DE2668317505E0820E39F61B47E1690D3841B409DE43184F47703E487D5083818249F63C8AF9346330DD9A55D9DF5CB892579DC7B5A31AC2B4D70DD360ADF346158D1565D6BAA98220C0AC98B5F69DF232CBF504B0304140006080800D899D54231E09AA72B01000014020000310000006662782F3130444341353336
310
2D463346302D343938452D424630362D4535394532343545364530362F636F72652E786D6C8D515B6EC32010BC0AE22B55651BFC921361A23E9C13F4020448821283C5A3CAF1BBAE1DA9FDCB0F8B66676647BB6C7F1F6FE85BFB609CED31CD0946DA4AA78C3DF738C553D661B4E7CC3B17FFD030B262D43D9E61CCD9D9BB34
310
AD9074366A1B01B54EE9151421E88891BCC1A7C7415EF42872912230C2359F84BC8AB3CE690E6DE07116A28700681932BF9853F2F9F1D6546D76A80E24ABB7DD90BD1F489B0DCD7628EB666807D2B2621172969251ABDC2888634E46FB674D663167D18C8FF8D26B11B5C2BC24B4CA606849BFE87647EB5DDDBD9266571156
310
CCF47FA234A92745C9D858956BDC4516202B2B960667CAA5E3ED1146DF27E7239AE76D82962F98939CD0B2EB086958B1506101E0D9D6AB6788CEC38237D723B02BBA18B73567C57C2328BF07843ADF93FF00504B0304140006080800D899D542BE11A0765601000033030000300000006662782F31304443413533362D4633
310
46302D343938452D424630362D4535394532343545364530362F636E782E786D6CBD93CD6EC32010845F0571ADFC43EC5A698489D4439FA0875E316C1A1A1B2CC055F3F65D1292E69243A5AA1764CD0E33AB4F986FBFA6917C820FC6D99EB2B2A604AC72DAD8F79E2E7157AC29D90AEE9D8B37364AAC9CA0A749A682BF7BB7
310
CC59D2B093CB18511D8D3D64D143708B5710504E37C9E8941C31006CB1A008D3005A832657237EEDC0E32A280E4712F7405E9EDF881B3E40C5C0AB942278953A044F676EBA3151A24619424F83DAC3244BB944A7211C4A2DA32C5979E9BAB3D34F1249172E958B372495F7349D54E48D4AE4C82B1C0A1EA2477AD9148F3350
310
21E779344A46845C9D8C678FE08BB1B16BB3D720788FEE66D5ADD718769A091ECD04D9A13CC8089A8A55CD9AA2EE8A157B654F1BD66EDAF543FDB8696A5E25BBE0837363BE8431E0DD4C94B3116CA482F12A8DEFE1CB3EA28D47D6CE1F7F011201E4D6339D6BC65FF2615DD3B6FFC8A73ABD6FC4E5F12F10DF504B03041400
310
06080800D899D54275BF4D3863070000991B0000340000006662782F31304443413533362D463346302D343938452D424630362D4535394532343545364530362F6F626A656374732E786D6CED595B73A33614FE2B0C7D691F8C8DEDDC3A844EE26C329E9DECEEACBB3B7DF00C23834CD408C1482297FEFA1E5DC0404C82BB
310
E9DB3ED880908ECEF9CE5587E08FA78C3A0F980B92B373D7F726AE83599C2784A5E76E29B7A353D7F9230C789ECBC634D76128C3E7AE1A76C320E57959D8A1046F51496567F4FAF22F47C49861D7892912E2DC15F11DCE90874A992758DC7B0992C84BB74F9EEF99896DB22947C55D87688138661238857106541CC394DF7E
310
9CB8E33018ABF761A0FEEDACD9A059F3FE59632D759B4BC284442C7EC15287CC6C104B337F7EF5617A74363A9ACF67A3F9F1D41F5D5E5F5E8DFC93D96471BC589C5D7C3803F636794EAD4C092E304B407FCF6EE80763F5A616DD22B08FEB38670CC71A48804A8BD52548B080AD1AF04DDA8FBE92A8F15A4BD8789EABF79685
310
C6F0AC4DA56FD630205A744110BB5D2571756DCA976FFE06C1C510A3E4024BE056480EDAB5F070F00A379C0463331A069B9D2E887032243127883A946C38E2A01498AAA684815960C928E7E040CA511268CD99D76DDB02CF7CDB75F671B92D29559EE186DAB122703F2C85E68CFC83F98EFB2632C013485B12264F2D97F2B9
310
C06E78168CF56018A8CB6C6A5F1A209D2D45A9D08898B71D4117CAF597576EF8F17AF3B452E160FFE605CF0BCCA5323AA547CD1718B2BD2A94ECB6FE20CDA905208C01D5AEDC81F21590FF04D163C70AE88D93A7F9D3DCCE951C31B1CD7906BA7126CE68027F13C7D7FFEABE71178CEBC56DEDF5E1096EAAA03AFD713CDB32
310
68AC2CFF0D38C3E0010C3EE733FB6A15230AF67C4B1800A48CC4A1390C4168DF6E9EDC70098113023DAC4234F4416460F7016E83B125B3D34AE55ED6EB18206AF7980D5112C0A62D12D8E8D1D30D640F4EE29D9A9A22F6C17BF42EE67A71B5FAB82AF916C5F8D6FAF415DE12462464CDFD0CB5306F49748F9F1F739E80A02F
310
F15E35F1CEEC5602D056982BE0D30A04F5B0DBB9B5410CEBD25C859BE08D1D400895AB1BF46F898831A588E1BCACF6ADA39B32D4DAE36DCDE0865303F16CDA31618E1F88AA2AC06976335A8C42DE8F392914886E786324AB83A6D723DDB7E527B0C87A7ECFAC2583D0CB10FD5307AD3D38B42CBB42DA02510BBCD985F338A7
310
398F36CF9189742ED412C046DB5BBEB78842AC374A5254C083B4DF55212535D24609D96E4B0171750F8BDF978BA6394CBC997FE434FF3BCE3887680BBE8BB8F5BBCE1E11C9508AA32D4AFAB66BEE56D3169A640F698EB714E4220F443E4748469304A787407310F1B377A59ED25C08C2B0807CB517FC261A130F0289D166C5
310
B2D26A076822A20C4B440F414091E90157A71D5DE3C6503ABCCD636DBDAF69AC49F47FB2088EA096CC5944A014851CF226E3BE770431A48DAE41B9832F585B455B8B414B2821E2E7E81193F44E1E82BA21DF837B0C4792524679816230EB01645FF88A526A87F70D8AEF55FE88E292BE9781084CB711A1B4CC22F81106278F
310
21AE5D07A65751681037B14FE20C8A32244B3E6493E3A3C98B7D4CCDD00D818D8DB68442D88E3254F4A0DE0A88BA1E716AF02DF51EA56ECAAC885096976C90A178B3AE3759F25DB52AB203F955A522948D15614B300C08937556AD623698BA0EACE0463A503D4702650535A7B037128F5F7B93A6DCBB01B77EFABE1B6450F8
310
F568AF1951E7150C96C75661201E918CEFDC70A5AFA34BA8BF139CEC527D556B362B40404C45F29213ABA26F4B286F6C8DE686B7488AF58DC9BAD5F5DBD283EE4730863550BBD40B970AE80C3389546572AB6EE8570421B845C38C2F554E3D84CA4592E8AA11D16BD2A7CE5619D1DA34235E7187599EC18FAD098B6999E035
310
4AC47D742B69B4228A752BA597910AE35705FC7CB3EAC003230344FAA20A3CFCD8596B4717AA5CDA4B44DE95D986210241B0255A6A74E3152CB51AA9B45C5FD59902EA2E3030ABE2F9CF9345B31DF1F364915AC3F8B19305CD3788EEA24D239BC7CAAC0F3A05D4E94951798F5380EE3AD454EB246272B915DFFA520431B10A
310
F2838BB12A6618827D1CFFE7A4DD9704CD761DFE0F4BDAFE8B82E3A0A4D29AAC9A547B0AD76533851D4133D6BFBE3E1ECD665717A3B9BF988F2ECF8EA6A3D9F1C9147AB727B30F278B1A4DEDA76150C7329DBAE0D9C4B46A583D590CA0292B724A1238CC274E8A21E44B38D20FE89EF30C0BC89DCD5E77627BF203563F9836
310
A7441B8A2B4EEE10F487A980AC0E1895B16C8F3BBF406752C239FBDC859E91770F7FD62A5D0712CFB90B9D0249622CBC0D7499543F4F13878CAB53BF2506F82096AA8C6816D5CFF52A854D2BFAD7538664012B57AB8501755B01CDAF568342F366798A0F12BC62C741126E37A58462CDC8B21BA885D1DBECD46F64A384DDDB
310
AD9FC0755F17CBF7F49C162260756F7F3178D5080CD591443CD5ED6EC59865E9E2EACB18DA6CCEF2B353D032055D0EA734E2188CB954F51458115885A5592009A6BAF87DFD85E7F08527737451E4FCFA747AFCDB7A916759CECCD0FA020E65097C27725677F0D5275943ED80556F5DACA7137FBAD63D6DDB668F3648604F15
310
453050D5124A908EC9815DBEE84FD9EEE558A9A2337D79E5D8200ABD0063472F5ABCE61B97033EA4BEA6288FD17E5E49FB6A5B7BACA7824D70684887FF02504B0304140006080000D899D542000000000000000000000000350000006662782F31304443413533362D463346302D343938452D424630362D45353945323435
310
45364530362F76657274696365732E62696E504B0304140006080800D899D542F270F1330600000004000000360000006662782F31304443413533362D463346302D343938452D424630362D4535394532343545364530362F747269616E676C65732E62696E636660600000504B0304140006080000D899D5420000000000
310
00000000000000370000006662782F31304443413533362D463346302D343938452D424630362D4535394532343545364530362F617474726962757465732E62696E504B0304140006080800D899D542D5987DFC8F00000041010000360000006662782F31304443413533362D463346302D343938452D424630362D453539
310
4532343545364530362F6469726563746F72792E786D6C858F410EC2201045AF4266AF15DDB800BA74E7C21B903225242D6328188F2FA5C4183471359997F9FF81E89FF3C41E1816475E02DF1F80A11FC8386F25A438EECEC07A250251FC3803E6F58C12560C4AD840E95E91C151A72936F496F35732D860FE635F62C8F2DA
310
16B505C545B74125BAA2FA9E05D7CC053D063734D5C7665FD55B6B8D15D5E9BFEAFD8490FFA45E504B0304140006080800D899D5429496DBCBFC000000A00100003B0000006662782F31304443413533362D463346302D343938452D424630362D4535394532343545364530362F7265736F75726365732F636F72652E786D
310
6C8D50596E833010BD0AF26F65C04B5A8C8C2391F606BD806526D44AB09197AAC7AF09546AFFFA33337A8BE6E9C9F3D772AF3E2144EBDD8048DDA20A9CF19375F38072BAE20E55672583F7E9970C554E2F30A00D464ACEC1E7F5808C77095C2AA8F3131CA08E1112AACCBD1C038AE603165DEB9C8A22DEEA559B9B9EA12675
310
A18B4EC998420950ED4FB6895480E873301065B3B34AE66CA74363A7F2D35E2D04A428BF104A468A5F47F18639B9502C5E3A8105A3828E9CB01367B2D9CC4A26BBFC6434017482A9F85BC270FB8C297927A227BCE7DD537BEA592B9B4DFEC794D7E99FA66C5D62F488BBDB2252A40479104A365B5F653DCA2C7BEB567D0350
310
4B010214000A0000080000D899D5423DEE336E79000000790000001B00000000000000000000000000000000006175746F6465736B2D64657369676E2D7061636B6167652E786D6C504B01021400140006080800D899D542D486FD9CA0000000F40000001300000000000000000000000000B20000005B436F6E74656E745F
310
54797065735D2E786D6C504B01021400140006080800D899D542873DF553E90000007C010000080000000000000000000000000083010000636F72652E786D6C504B01021400140006080800D899D54255019EA25F0000007C000000070000000000000000000000000092020000636E782E786D6C504B0102140014000608
310
0800D899D542C821D2D965010000020300000C00000000000000000000000000160300006662782F636F72652E786D6C504B01021400140006080800D899D542E1E55F4F7D0000009D0000000B00000000000000000000000000A50400006662782F636E782E786D6C504B01021400140006080800D899D54231E09AA72B01
310
00001402000031000000000000000000000000004B0500006662782F31304443413533362D463346302D343938452D424630362D4535394532343545364530362F636F72652E786D6C504B01021400140006080800D899D542BE11A07656010000330300003000000000000000000000000000C50600006662782F31304443
310
413533362D463346302D343938452D424630362D4535394532343545364530362F636E782E786D6C504B01021400140006080800D899D54275BF4D3863070000991B00003400000000000000000000000000690800006662782F31304443413533362D463346302D343938452D424630362D4535394532343545364530362F
310
6F626A656374732E786D6C504B01021400140006080000D899D54200000000000000000000000035000000000000000000000000001E1000006662782F31304443413533362D463346302D343938452D424630362D4535394532343545364530362F76657274696365732E62696E504B01021400140006080800D899D542F2
310
70F13306000000040000003600000000000000000000000000711000006662782F31304443413533362D463346302D343938452D424630362D4535394532343545364530362F747269616E676C65732E62696E504B01021400140006080000D899D5420000000000000000000000003700000000000000000000000000CB10
310
00006662782F31304443413533362D463346302D343938452D424630362D4535394532343545364530362F617474726962757465732E62696E504B01021400140006080800D899D542D5987DFC8F000000410100003600000000000000000000000000201100006662782F31304443413533362D463346302D343938452D42
310
4630362D4535394532343545364530362F6469726563746F72792E786D6C504B01021400140006080800D899D5429496DBCBFC000000A00100003B00000000000000000000000000031200006662782F31304443413533362D463346302D343938452D424630362D4535394532343545364530362F7265736F75726365732F
310
636F72652E786D6C504B0506000000000E000E0080040000581300000000
  0
XRECORD
  5
27
102
{ACAD_REACTORS
330
22
102
}
330
22
100
AcDbXrecord
280
     1
270
     1
271
     1
  0
XRECORD
  5
26
102
{ACAD_REACTORS
330
22
102
}
330
22
100
AcDbXrecord
280
     1
270
     1
271
     1
  0
XRECORD
  5
28
102
{ACAD_REACTORS
330
22
102
}
330
22
100
AcDbXrecord
280
     1
270
     1
271
     1
  0
XRECORD
  5
25
102
{ACAD_REACTORS
330
22
102
}
330
22
100
AcDbXrecord
280
     1
270
     1
271
     1
  0
XRECORD
  5
F7B
102
{ACAD_REACTORS
330
F7A
102
}
330
F7A
100
AcDbXrecord
280
     1
102
ACAD_ROUNDTRIP_2012_MLEADER_STYLE
298
     1
  0
CELLSTYLEMAP
  5
F79
102
{ACAD_REACTORS
330
F78
102
}
330
F78
100
AcDbCellStyleMap
 90
        3
300
CELLSTYLE
  1
TABLEFORMAT_BEGIN
 90
        5
170
     1
 91
        0
 92
    32768
 62
   257
 93
        1
300
CONTENTFORMAT
  1
CONTENTFORMAT_BEGIN
 90
        0
 91
        0
 92
      512
 93
        0
300

 40
0.0
140
1.0
 94
        5
 62
     0
340
55
144
0.25
309
CONTENTFORMAT_END
171
     0
 94
        0
309
TABLEFORMAT_END
  1
CELLSTYLE_BEGIN
 90
        1
 91
        1
300
_TITLE
309
CELLSTYLE_END
300
CELLSTYLE
  1
TABLEFORMAT_BEGIN
 90
        5
170
     1
 91
        0
 92
        0
 62
   257
 93
        1
300
CONTENTFORMAT
  1
CONTENTFORMAT_BEGIN
 90
        0
 91
        0
 92
      512
 93
        0
300

 40
0.0
140
1.0
 94
        5
 62
     0
340
55
144
0.18
309
CONTENTFORMAT_END
171
     0
 94
        0
309
TABLEFORMAT_END
  1
CELLSTYLE_BEGIN
 90
        2
 91
        1
300
_HEADER
309
CELLSTYLE_END
300
CELLSTYLE
  1
TABLEFORMAT_BEGIN
 90
        5
170
     1
 91
        0
 92
        0
 62
   257
 93
        1
300
CONTENTFORMAT
  1
CONTENTFORMAT_BEGIN
 90
        0
 91
        0
 92
      512
 93
        0
300

 40
0.0
140
1.0
 94
        2
 62
     0
340
55
144
0.18
309
CONTENTFORMAT_END
171
     0
 94
        0
309
TABLEFORMAT_END
  1
CELLSTYLE_BEGIN
 90
        3
 91
        2
300
_DATA
309
CELLSTYLE_END
  0
ENDSEC
  0
EOF
