  0
SECTION
  2
HEADER
  9
$ACADVER
  1
AC1024
  9
$ACADMAINTVER
 70
    63
  9
$DWGCODEPAGE
  3
ANSI_1252
  9
$AUTHOR
  1
VR
  9
$REVISIONNUMBER
  1
-
  9
$CUSTOMPROPERTYTAG
  1
Manager
  9
$CUSTOMPROPERTY
  1

  9
$CUSTOMPROPERTYTAG
  1
Company
  9
$CUSTOMPROPERTY
  1

  9
$CUSTOMPROPERTYTAG
  1
Category
  9
$CUSTOMPROPERTY
  1

  9
$CUSTOMPROPERTYTAG
  1
Part Number
  9
$CUSTOMPROPERTY
  1
WA72P60F2-S
  9
$CUSTOMPROPERTYTAG
  1
Description
  9
$CUSTOMPROPERTY
  1
N1P PANEL MASTER VIEW
  9
$CUSTOMPROPERTYTAG
  1
Project
  9
$CUSTOMPROPERTY
  1

  9
$CUSTOMPROPERTYTAG
  1
Designer
  9
$CUSTOMPROPERTY
  1
MS
  9
$CUSTOMPROPERTYTAG
  1
Engineer
  9
$CUSTOMPROPERTY
  1

  9
$CUSTOMPROPERTYTAG
  1
Authority
  9
$CUSTOMPROPERTY
  1

  9
$CUSTOMPROPERTYTAG
  1
Cost Center
  9
$CUSTOMPROPERTY
  1

  9
$CUSTOMPROPERTYTAG
  1
Vendor
  9
$CUSTOMPROPERTY
  1

  9
$CUSTOMPROPERTYTAG
  1
User Status
  9
$CUSTOMPROPERTY
  1

  9
$CUSTOMPROPERTYTAG
  1
Design Status
  9
$CUSTOMPROPERTY
  1
WorkInProgress
  9
$CUSTOMPROPERTYTAG
  1
Checked by
  9
$CUSTOMPROPERTY
  1
NJ
  9
$CUSTOMPROPERTYTAG
  1
Engr Approved by
  9
$CUSTOMPROPERTY
  1

  9
$CUSTOMPROPERTYTAG
  1
Date Eng Approved
  9
$CUSTOMPROPERTY
  1
06/13/2013
  9
$CUSTOMPROPERTYTAG
  1
Mfg Approved by
  9
$CUSTOMPROPERTY
  1

  9
$CUSTOMPROPERTYTAG
  1
DWG. NO
  9
$CUSTOMPROPERTY
  1

  9
$CUSTOMPROPERTYTAG
  1
NUMBER OF SHEETS
  9
$CUSTOMPROPERTY
  1
1
  9
$CUSTOMPROPERTYTAG
  1
DRAWING #
  9
$CUSTOMPROPERTY
  1
1
  9
$INSBASE
 10
0.0
 20
0.0
 30
0.0
  9
$EXTMIN
 10
0.0
 20
0.0
 30
0.0
  9
$EXTMAX
 10
170.0
 20
110.0
 30
0.0
  9
$LIMMIN
 10
0.0
 20
0.0
  9
$LIMMAX
 10
170.0
 20
110.0
  9
$ORTHOMODE
 70
     0
  9
$REGENMODE
 70
     1
  9
$FILLMODE
 70
     1
  9
$QTEXTMODE
 70
     0
  9
$MIRRTEXT
 70
     0
  9
$LTSCALE
 40
10.0
  9
$ATTMODE
 70
     1
  9
$TEXTSIZE
 40
0.2
  9
$TRACEWID
 40
0.05
  9
$TEXTSTYLE
  7
Standard
  9
$CLAYER
  8
0
  9
$CELTYPE
  6
ByLayer
  9
$CECOLOR
 62
   256
  9
$CELTSCALE
 40
1.0
  9
$DISPSILH
 70
     0
  9
$DIMSCALE
 40
1.0
  9
$DIMASZ
 40
0.0708661417322835
  9
$DIMEXO
 40
0.0625
  9
$DIMDLI
 40
0.38
  9
$DIMRND
 40
0.0
  9
$DIMDLE
 40
0.0
  9
$DIMEXE
 40
0.18
  9
$DIMTP
 40
0.0
  9
$DIMTM
 40
0.0
  9
$DIMTXT
 40
0.0708661417322835
  9
$DIMCEN
 40
0.09
  9
$DIMTSZ
 40
0.0
  9
$DIMTOL
 70
     0
  9
$DIMLIM
 70
     0
  9
$DIMTIH
 70
     1
  9
$DIMTOH
 70
     1
  9
$DIMSE1
 70
     0
  9
$DIMSE2
 70
     0
  9
$DIMTAD
 70
     0
  9
$DIMZIN
 70
     0
  9
$DIMBLK
  1

  9
$DIMASO
 70
     1
  9
$DIMSHO
 70
     1
  9
$DIMPOST
  1

  9
$DIMAPOST
  1

  9
$DIMALT
 70
     0
  9
$DIMALTD
 70
     2
  9
$DIMALTF
 40
25.4
  9
$DIMLFAC
 40
1.0
  9
$DIMTOFL
 70
     0
  9
$DIMTVP
 40
0.0
  9
$DIMTIX
 70
     0
  9
$DIMSOXD
 70
     0
  9
$DIMSAH
 70
     0
  9
$DIMBLK1
  1

  9
$DIMBLK2
  1

  9
$DIMSTYLE
  2
STANDARD
  9
$DIMCLRD
 70
     0
  9
$DIMCLRE
 70
     0
  9
$DIMCLRT
 70
     0
  9
$DIMTFAC
 40
1.0
  9
$DIMGAP
 40
0.09
  9
$DIMJUST
 70
     0
  9
$DIMSD1
 70
     0
  9
$DIMSD2
 70
     0
  9
$DIMTOLJ
 70
     1
  9
$DIMTZIN
 70
     0
  9
$DIMALTZ
 70
     0
  9
$DIMALTTZ
 70
     0
  9
$DIMUPT
 70
     0
  9
$DIMDEC
 70
     4
  9
$DIMTDEC
 70
     4
  9
$DIMALTU
 70
     2
  9
$DIMALTTD
 70
     2
  9
$DIMTXSTY
  7
Standard
  9
$DIMAUNIT
 70
     0
  9
$DIMADEC
 70
     0
  9
$DIMALTRND
 40
0.0
  9
$DIMAZIN
 70
     0
  9
$DIMDSEP
 70
    46
  9
$DIMATFIT
 70
     3
  9
$DIMFRAC
 70
     0
  9
$DIMLDRBLK
  1

  9
$DIMLUNIT
 70
     2
  9
$DIMLWD
 70
    -2
  9
$DIMLWE
 70
    -2
  9
$DIMTMOVE
 70
     0
  9
$DIMFXL
 40
1.0
  9
$DIMFXLON
 70
     0
  9
$DIMJOGANG
 40
0.7853981633974483
  9
$DIMTFILL
 70
     0
  9
$DIMTFILLCLR
 70
     0
  9
$DIMARCSYM
 70
     0
  9
$DIMLTYPE
  6

  9
$DIMLTEX1
  6

  9
$DIMLTEX2
  6

  9
$DIMTXTDIRECTION
 70
     0
  9
$LUNITS
 70
     2
  9
$LUPREC
 70
     4
  9
$SKETCHINC
 40
0.1
  9
$FILLETRAD
 40
0.0
  9
$AUNITS
 70
     0
  9
$AUPREC
 70
     0
  9
$MENU
  1
.
  9
$ELEVATION
 40
0.0
  9
$PELEVATION
 40
0.0
  9
$THICKNESS
 40
0.0
  9
$LIMCHECK
 70
     0
  9
$CHAMFERA
 40
0.0
  9
$CHAMFERB
 40
0.0
  9
$CHAMFERC
 40
0.0
  9
$CHAMFERD
 40
0.0
  9
$SKPOLY
 70
     0
  9
$TDCREATE
 40
2456458.410349421
  9
$TDUCREATE
 40
2456458.181182755
  9
$TDUPDATE
 40
2456458.410349421
  9
$TDUUPDATE
 40
2456458.181182755
  9
$TDINDWG
 40
0.0000446875
  9
$TDUSRTIMER
 40
0.0000446875
  9
$USRTIMER
 70
     1
  9
$ANGBASE
 50
0.0
  9
$ANGDIR
 70
     0
  9
$PDMODE
 70
     0
  9
$PDSIZE
 40
0.0
  9
$PLINEWID
 40
0.0
  9
$SPLFRAME
 70
     0
  9
$SPLINETYPE
 70
     6
  9
$SPLINESEGS
 70
     8
  9
$HANDSEED
  5
E7E
  9
$SURFTAB1
 70
     6
  9
$SURFTAB2
 70
     6
  9
$SURFTYPE
 70
     6
  9
$SURFU
 70
     6
  9
$SURFV
 70
     6
  9
$UCSBASE
  2

  9
$UCSNAME
  2

  9
$UCSORG
 10
0.0
 20
0.0
 30
0.0
  9
$UCSXDIR
 10
1.0
 20
0.0
 30
0.0
  9
$UCSYDIR
 10
0.0
 20
1.0
 30
0.0
  9
$UCSORTHOREF
  2

  9
$UCSORTHOVIEW
 70
     0
  9
$UCSORGTOP
 10
0.0
 20
0.0
 30
0.0
  9
$UCSORGBOTTOM
 10
0.0
 20
0.0
 30
0.0
  9
$UCSORGLEFT
 10
0.0
 20
0.0
 30
0.0
  9
$UCSORGRIGHT
 10
0.0
 20
0.0
 30
0.0
  9
$UCSORGFRONT
 10
0.0
 20
0.0
 30
0.0
  9
$UCSORGBACK
 10
0.0
 20
0.0
 30
0.0
  9
$PUCSBASE
  2

  9
$PUCSNAME
  2

  9
$PUCSORG
 10
0.0
 20
0.0
 30
0.0
  9
$PUCSXDIR
 10
1.0
 20
0.0
 30
0.0
  9
$PUCSYDIR
 10
0.0
 20
1.0
 30
0.0
  9
$PUCSORTHOREF
  2

  9
$PUCSORTHOVIEW
 70
     0
  9
$PUCSORGTOP
 10
0.0
 20
0.0
 30
0.0
  9
$PUCSORGBOTTOM
 10
0.0
 20
0.0
 30
0.0
  9
$PUCSORGLEFT
 10
0.0
 20
0.0
 30
0.0
  9
$PUCSORGRIGHT
 10
0.0
 20
0.0
 30
0.0
  9
$PUCSORGFRONT
 10
0.0
 20
0.0
 30
0.0
  9
$PUCSORGBACK
 10
0.0
 20
0.0
 30
0.0
  9
$USERI1
 70
     0
  9
$USERI2
 70
     0
  9
$USERI3
 70
     0
  9
$USERI4
 70
     0
  9
$USERI5
 70
     0
  9
$USERR1
 40
0.0
  9
$USERR2
 40
0.0
  9
$USERR3
 40
0.0
  9
$USERR4
 40
0.0
  9
$USERR5
 40
0.0
  9
$WORLDVIEW
 70
     1
  9
$SHADEDGE
 70
     3
  9
$SHADEDIF
 70
    70
  9
$TILEMODE
 70
     1
  9
$MAXACTVP
 70
    64
  9
$PINSBASE
 10
0.0
 20
0.0
 30
0.0
  9
$PLIMCHECK
 70
     0
  9
$PEXTMIN
 10
0.0
 20
0.0
 30
0.0
  9
$PEXTMAX
 10
170.0
 20
110.0
 30
0.0
  9
$PLIMMIN
 10
0.0
 20
0.0
  9
$PLIMMAX
 10
170.0
 20
110.0
  9
$UNITMODE
 70
     0
  9
$VISRETAIN
 70
     1
  9
$PLINEGEN
 70
     0
  9
$PSLTSCALE
 70
     1
  9
$TREEDEPTH
 70
  3020
  9
$CMLSTYLE
  2
Standard
  9
$CMLJUST
 70
     0
  9
$CMLSCALE
 40
1.0
  9
$PROXYGRAPHICS
 70
     1
  9
$MEASUREMENT
 70
     0
  9
$CELWEIGHT
370
    -1
  9
$ENDCAPS
280
     0
  9
$JOINSTYLE
280
     0
  9
$LWDISPLAY
290
     0
  9
$INSUNITS
 70
     1
  9
$HYPERLINKBASE
  1

  9
$STYLESHEET
  1

  9
$XEDIT
290
     1
  9
$CEPSNTYPE
380
     0
  9
$PSTYLEMODE
290
     1
  9
$FINGERPRINTGUID
  2
{E6C86C13-3BFE-4B9C-B83F-D36E342E4EB8}
  9
$VERSIONGUID
  2
{B694C8F5-746F-424C-8488-EA41B5328619}
  9
$EXTNAMES
290
     1
  9
$PSVPSCALE
 40
0.0
  9
$OLESTARTUP
290
     0
  9
$SORTENTS
280
   127
  9
$INDEXCTL
280
     0
  9
$HIDETEXT
280
     1
  9
$XCLIPFRAME
280
     2
  9
$HALOGAP
280
     0
  9
$OBSCOLOR
 70
   257
  9
$OBSLTYPE
280
     0
  9
$INTERSECTIONDISPLAY
280
     0
  9
$INTERSECTIONCOLOR
 70
   257
  9
$DIMASSOC
280
     1
  9
$PROJECTNAME
  1

  9
$CAMERADISPLAY
290
     0
  9
$LENSLENGTH
 40
50.0
  9
$CAMERAHEIGHT
 40
0.0
  9
$STEPSPERSEC
 40
2.0
  9
$STEPSIZE
 40
6.0
  9
$3DDWFPREC
 40
2.0
  9
$PSOLWIDTH
 40
0.25
  9
$PSOLHEIGHT
 40
4.0
  9
$LOFTANG1
 40
1.570796326794896
  9
$LOFTANG2
 40
1.570796326794896
  9
$LOFTMAG1
 40
0.0
  9
$LOFTMAG2
 40
0.0
  9
$LOFTPARAM
 70
     7
  9
$LOFTNORMALS
280
     1
  9
$LATITUDE
 40
37.795
  9
$LONGITUDE
 40
-122.394
  9
$NORTHDIRECTION
 40
0.0
  9
$TIMEZONE
 70
 -8000
  9
$LIGHTGLYPHDISPLAY
280
     1
  9
$TILEMODELIGHTSYNCH
280
     1
  9
$CMATERIAL
347
11
  9
$SOLIDHIST
280
     0
  9
$SHOWHIST
280
     1
  9
$DWFFRAME
280
     2
  9
$DGNFRAME
280
     0
  9
$REALWORLDSCALE
290
     1
  9
$INTERFERECOLOR
 62
     1
  9
$INTERFEREOBJVS
345
33
  9
$INTERFEREVPVS
346
30
  9
$CSHADOW
280
     0
  9
$SHADOWPLANELOCATION
 40
0.0
  0
ENDSEC
  0
SECTION
  2
CLASSES
  0
CLASS
  1
ACDBDICTIONARYWDFLT
  2
AcDbDictionaryWithDefault
  3
ObjectDBX Classes
 90
        0
 91
        1
280
     0
281
     0
  0
CLASS
  1
MATERIAL
  2
AcDbMaterial
  3
ObjectDBX Classes
 90
     1153
 91
        3
280
     0
281
     0
  0
CLASS
  1
VISUALSTYLE
  2
AcDbVisualStyle
  3
ObjectDBX Classes
 90
     4095
 91
       24
280
     0
281
     0
  0
CLASS
  1
SCALE
  2
AcDbScale
  3
ObjectDBX Classes
 90
     1153
 91
       17
280
     0
281
     0
  0
CLASS
  1
TABLESTYLE
  2
AcDbTableStyle
  3
ObjectDBX Classes
 90
     4095
 91
        1
280
     0
281
     0
  0
CLASS
  1
MLEADERSTYLE
  2
AcDbMLeaderStyle
  3
ACDB_MLEADERSTYLE_CLASS
 90
     4095
 91
        1
280
     0
281
     0
  0
CLASS
  1
DICTIONARYVAR
  2
AcDbDictionaryVar
  3
ObjectDBX Classes
 90
        0
 91
        3
280
     0
281
     0
  0
CLASS
  1
CELLSTYLEMAP
  2
AcDbCellStyleMap
  3
ObjectDBX Classes
 90
     1152
 91
        1
280
     0
281
     0
  0
ENDSEC
  0
SECTION
  2
TABLES
  0
TABLE
  2
VPORT
  5
8
330
0
100
AcDbSymbolTable
 70
     1
  0
VPORT
  5
57
330
8
100
AcDbSymbolTableRecord
100
AcDbViewportTableRecord
  2
*Active
 70
     0
 10
0.0
 20
0.0
 11
1.0
 21
1.0
 12
85.0
 22
55.0
 13
0.0
 23
0.0
 14
1.0
 24
1.0
 15
0.0
 25
0.0
 16
0.0
 26
0.0
 36
1.0
 17
0.0
 27
0.0
 37
0.0
 40
110.0
 41
1.545454545454545
 42
50.0
 43
0.0
 44
0.0
 50
0.0
 51
0.0
 71
     0
 72
   100
 73
     1
 74
     1
 75
     0
 76
     0
 77
     0
 78
     0
281
     0
 65
     1
110
0.0
120
0.0
130
0.0
111
1.0
121
0.0
131
0.0
112
0.0
122
1.0
132
0.0
 79
     0
146
0.0
 60
     3
 61
     5
292
     1
282
     1
141
0.0
142
0.0
 63
   250
421
  3355443
  0
ENDTAB
  0
TABLE
  2
LTYPE
  5
5
330
0
100
AcDbSymbolTable
 70
    59
  0
LTYPE
  5
5B
330
5
100
AcDbSymbolTableRecord
100
AcDbLinetypeTableRecord
  2
ByBlock
 70
     0
  3

 72
    65
 73
     0
 40
0.0
  0
LTYPE
  5
5C
330
5
100
AcDbSymbolTableRecord
100
AcDbLinetypeTableRecord
  2
ByLayer
 70
     0
  3

 72
    65
 73
     0
 40
0.0
  0
LTYPE
  5
5D
330
5
100
AcDbSymbolTableRecord
100
AcDbLinetypeTableRecord
  2
Continuous
 70
     0
  3
Solid line
 72
    65
 73
     0
 40
0.0
  0
LTYPE
  5
7C
330
5
100
AcDbSymbolTableRecord
100
AcDbLinetypeTableRecord
  2
BY_STANDARD
 70
     0
  3
By Standard ____________    ____    ____   _
 72
    65
 73
     6
 40
1.240299999999999
 49
0.6614
 74
     0
 49
-0.0827
 74
     0
 49
0.1654
 74
     0
 49
-0.0827
 74
     0
 49
0.1654
 74
     0
 49
-0.0827
 74
     0
  0
LTYPE
  5
7D
330
5
100
AcDbSymbolTableRecord
100
AcDbLinetypeTableRecord
  2
CHAIN
 70
     0
  3
Chain ____ _ ____ _ ____ _ ____ _ ____ _ ____
 72
    65
 73
     4
 40
0.7087
 49
0.4724000000000001
 74
     0
 49
-0.0591
 74
     0
 49
0.1181
 74
     0
 49
-0.0591
 74
     0
  0
LTYPE
  5
7E
330
5
100
AcDbSymbolTableRecord
100
AcDbLinetypeTableRecord
  2
DASH_DOT
 70
     0
  3
Dash dot __ . __ . __ . __ . __ . __ . __ . __
 72
    65
 73
     4
 40
0.37
 49
0.24
 74
     0
 49
-0.06
 74
     0
 49
0.01
 74
     0
 49
-0.06
 74
     0
  0
LTYPE
  5
7F
330
5
100
AcDbSymbolTableRecord
100
AcDbLinetypeTableRecord
  2
DOUBLE_DASH_DOT
 70
     0
  3
Double-Dash Dot __ __ . __ __ . __ __ . __ _
 72
    65
 73
     6
 40
0.4398
 49
0.24
 74
     0
 49
-0.06
 74
     0
 49
0.0098
 74
     0
 49
-0.06
 74
     0
 49
0.01
 74
     0
 49
-0.06
 74
     0
  0
LTYPE
  5
80
330
5
100
AcDbSymbolTableRecord
100
AcDbLinetypeTableRecord
  2
DASH_TRIPLE_DOT
 70
     0
  3
Dash Triple-Dot _ . . . _ . . . _ . . . _
 72
    65
 73
     8
 40
0.51
 49
0.24
 74
     0
 49
-0.06
 74
     0
 49
0.01
 74
     0
 49
-0.06
 74
     0
 49
0.01
 74
     0
 49
-0.06
 74
     0
 49
0.01
 74
     0
 49
-0.06
 74
     0
  0
LTYPE
  5
81
330
5
100
AcDbSymbolTableRecord
100
AcDbLinetypeTableRecord
  2
DASHED
 70
     0
  3
Dashed __ __ __ __ __ __ __ __ __ __ __ __ __ _
 72
    65
 73
     2
 40
0.2067
 49
0.1654
 74
     0
 49
-0.0413
 74
     0
  0
LTYPE
  5
82
330
5
100
AcDbSymbolTableRecord
100
AcDbLinetypeTableRecord
  2
DASH_DOUBLE_DOT
 70
     0
  3
Dash Double-Dot __ . . __ . . __ . . __ . .
 72
    65
 73
     6
 40
0.4398
 49
0.24
 74
     0
 49
-0.06
 74
     0
 49
0.0098
 74
     0
 49
-0.06
 74
     0
 49
0.01
 74
     0
 49
-0.06
 74
     0
  0
LTYPE
  5
83
330
5
100
AcDbSymbolTableRecord
100
AcDbLinetypeTableRecord
  2
DASHED_SPACE
 70
     0
  3
Dashed Space __ __ __ __ __ __ __ __ __ __ __ _
 72
    65
 73
     2
 40
0.2067
 49
0.1654
 74
     0
 49
-0.0413
 74
     0
  0
LTYPE
  5
84
330
5
100
AcDbSymbolTableRecord
100
AcDbLinetypeTableRecord
  2
DOTTED
 70
     0
  3
Dotted . . . . . . . . . . . . . . . . . . . . 
 72
    65
 73
     2
 40
0.0482
 49
0.0069
 74
     0
 49
-0.0413
 74
     0
  0
LTYPE
  5
85
330
5
100
AcDbSymbolTableRecord
100
AcDbLinetypeTableRecord
  2
DOUBLE_DASH_CHAIN
 70
     0
  3
Double-Dash Chain ______  __  __  ______  __  _
 72
    65
 73
     6
 40
1.240299999999999
 49
0.6614
 74
     0
 49
-0.0827
 74
     0
 49
0.1654
 74
     0
 49
-0.0827
 74
     0
 49
0.1654
 74
     0
 49
-0.0827
 74
     0
  0
LTYPE
  5
87
330
5
100
AcDbSymbolTableRecord
100
AcDbLinetypeTableRecord
  2
DOUBLE_DASH_DOUBLE_DOT
 70
     0
  3
Double-Dash Double-dot _ _ . . _ _ . . _
 72
    65
 73
     8
 40
0.7400000000000001
 49
0.24
 74
     0
 49
-0.06
 74
     0
 49
0.24
 74
     0
 49
-0.06
 74
     0
 49
0.01
 74
     0
 49
-0.06
 74
     0
 49
0.01
 74
     0
 49
-0.06
 74
     0
  0
LTYPE
  5
88
330
5
100
AcDbSymbolTableRecord
100
AcDbLinetypeTableRecord
  2
DOUBLE_DASH_TRIPLE_DOT
 70
     0
  3
Double Dash Triple Dot __ __ . . . __ __ . .
 72
    65
 73
    10
 40
0.8100000000000001
 49
0.24
 74
     0
 49
-0.06
 74
     0
 49
0.24
 74
     0
 49
-0.06
 74
     0
 49
0.01
 74
     0
 49
-0.06
 74
     0
 49
0.01
 74
     0
 49
-0.06
 74
     0
 49
0.01
 74
     0
 49
-0.06
 74
     0
  0
LTYPE
  5
89
330
5
100
AcDbSymbolTableRecord
100
AcDbLinetypeTableRecord
  2
LONG_DASH_DOTTED
 70
     0
  3
Long Dash Dotted ____ . ____ . ____ . ____ . _
 72
    65
 73
     4
 40
0.3543
 49
0.2362
 74
     0
 49
-0.0295
 74
     0
 49
0.0591
 74
     0
 49
-0.0295
 74
     0
  0
LTYPE
  5
8A
330
5
100
AcDbSymbolTableRecord
100
AcDbLinetypeTableRecord
  2
LONG_DASH_DOUBLE_DOT
 70
     0
  3
Long Dash Double Dot ________  .  .  ________  
 72
    65
 73
     6
 40
0.6799999999999999
 49
0.48
 74
     0
 49
-0.06
 74
     0
 49
0.01
 74
     0
 49
-0.06
 74
     0
 49
0.01
 74
     0
 49
-0.06
 74
     0
  0
LTYPE
  5
8B
330
5
100
AcDbSymbolTableRecord
100
AcDbLinetypeTableRecord
  2
LONG_DASH_TRIPLE_DOT
 70
     0
  3
Long Dash Triple Dot ____ ... ____ ... ____
 72
    65
 73
     8
 40
0.3689
 49
0.2362
 74
     0
 49
-0.0295
 74
     0
 49
0.0049
 74
     0
 49
-0.0295
 74
     0
 49
0.0049
 74
     0
 49
-0.0295
 74
     0
 49
0.0049
 74
     0
 49
-0.0295
 74
     0
  0
LTYPE
  5
8C
330
5
100
AcDbSymbolTableRecord
100
AcDbLinetypeTableRecord
  2
BORDER
 70
     0
  3
Border __ __ . __ __ . __ __ . __ __ . __ __ .
 72
    65
 73
     6
 40
1.75
 49
0.5
 74
     0
 49
-0.25
 74
     0
 49
0.5
 74
     0
 49
-0.25
 74
     0
 49
0.0
 74
     0
 49
-0.25
 74
     0
  0
LTYPE
  5
8D
330
5
100
AcDbSymbolTableRecord
100
AcDbLinetypeTableRecord
  2
BORDER2
 70
     0
  3
Border (.5x) __.__.__.__.__.__.__.__.__.__.__.
 72
    65
 73
     6
 40
0.875
 49
0.25
 74
     0
 49
-0.125
 74
     0
 49
0.25
 74
     0
 49
-0.125
 74
     0
 49
0.0
 74
     0
 49
-0.125
 74
     0
  0
LTYPE
  5
8E
330
5
100
AcDbSymbolTableRecord
100
AcDbLinetypeTableRecord
  2
BORDERX2
 70
     0
  3
Border (2x) ____  ____  .  ____  ____  .  ___
 72
    65
 73
     6
 40
3.5
 49
1.0
 74
     0
 49
-0.5
 74
     0
 49
1.0
 74
     0
 49
-0.5
 74
     0
 49
0.0
 74
     0
 49
-0.5
 74
     0
  0
LTYPE
  5
8F
330
5
100
AcDbSymbolTableRecord
100
AcDbLinetypeTableRecord
  2
CENTER
 70
     0
  3
Center ____ _ ____ _ ____ _ ____ _ ____ _ ____
 72
    65
 73
     4
 40
2.0
 49
1.25
 74
     0
 49
-0.25
 74
     0
 49
0.25
 74
     0
 49
-0.25
 74
     0
  0
LTYPE
  5
90
330
5
100
AcDbSymbolTableRecord
100
AcDbLinetypeTableRecord
  2
CENTER2
 70
     0
  3
Center (.5x) ___ _ ___ _ ___ _ ___ _ ___ _ ___
 72
    65
 73
     4
 40
1.125
 49
0.75
 74
     0
 49
-0.125
 74
     0
 49
0.125
 74
     0
 49
-0.125
 74
     0
  0
LTYPE
  5
91
330
5
100
AcDbSymbolTableRecord
100
AcDbLinetypeTableRecord
  2
CENTERX2
 70
     0
  3
Center (2x) ________  __  ________  __  _____
 72
    65
 73
     4
 40
4.0
 49
2.5
 74
     0
 49
-0.5
 74
     0
 49
0.5
 74
     0
 49
-0.5
 74
     0
  0
LTYPE
  5
92
330
5
100
AcDbSymbolTableRecord
100
AcDbLinetypeTableRecord
  2
DASHDOT2
 70
     0
  3
Dash dot (.5x) _._._._._._._._._._._._._._._.
 72
    65
 73
     4
 40
0.5
 49
0.25
 74
     0
 49
-0.125
 74
     0
 49
0.0
 74
     0
 49
-0.125
 74
     0
  0
LTYPE
  5
93
330
5
100
AcDbSymbolTableRecord
100
AcDbLinetypeTableRecord
  2
DASHDOTX2
 70
     0
  3
Dash dot (2x) ____  .  ____  .  ____  .  ___
 72
    65
 73
     4
 40
2.0
 49
1.0
 74
     0
 49
-0.5
 74
     0
 49
0.0
 74
     0
 49
-0.5
 74
     0
  0
LTYPE
  5
95
330
5
100
AcDbSymbolTableRecord
100
AcDbLinetypeTableRecord
  2
DASHED2
 70
     0
  3
Dashed (.5x) _ _ _ _ _ _ _ _ _ _ _ _ _ _ _ _ _
 72
    65
 73
     2
 40
0.375
 49
0.25
 74
     0
 49
-0.125
 74
     0
  0
LTYPE
  5
96
330
5
100
AcDbSymbolTableRecord
100
AcDbLinetypeTableRecord
  2
DASHEDX2
 70
     0
  3
Dashed (2x) ____  ____  ____  ____  ____  ___
 72
    65
 73
     2
 40
1.5
 49
1.0
 74
     0
 49
-0.5
 74
     0
  0
LTYPE
  5
97
330
5
100
AcDbSymbolTableRecord
100
AcDbLinetypeTableRecord
  2
DIVIDE
 70
     0
  3
Divide ____ . . ____ . . ____ . . ____ . . ____
 72
    65
 73
     6
 40
1.25
 49
0.5
 74
     0
 49
-0.25
 74
     0
 49
0.0
 74
     0
 49
-0.25
 74
     0
 49
0.0
 74
     0
 49
-0.25
 74
     0
  0
LTYPE
  5
98
330
5
100
AcDbSymbolTableRecord
100
AcDbLinetypeTableRecord
  2
DIVIDE2
 70
     0
  3
Divide (.5x) __..__..__..__..__..__..__..__.._
 72
    65
 73
     6
 40
0.625
 49
0.25
 74
     0
 49
-0.125
 74
     0
 49
0.0
 74
     0
 49
-0.125
 74
     0
 49
0.0
 74
     0
 49
-0.125
 74
     0
  0
LTYPE
  5
99
330
5
100
AcDbSymbolTableRecord
100
AcDbLinetypeTableRecord
  2
DIVIDEX2
 70
     0
  3
Divide (2x) ________  .  .  ________  .  .  _
 72
    65
 73
     6
 40
2.5
 49
1.0
 74
     0
 49
-0.5
 74
     0
 49
0.0
 74
     0
 49
-0.5
 74
     0
 49
0.0
 74
     0
 49
-0.5
 74
     0
  0
LTYPE
  5
9A
330
5
100
AcDbSymbolTableRecord
100
AcDbLinetypeTableRecord
  2
DOT
 70
     0
  3
Dot . . . . . . . . . . . . . . . . . . . . . .
 72
    65
 73
     2
 40
0.25
 49
0.0
 74
     0
 49
-0.25
 74
     0
  0
LTYPE
  5
9B
330
5
100
AcDbSymbolTableRecord
100
AcDbLinetypeTableRecord
  2
DOT2
 70
     0
  3
Dot (.5x) .....................................
 72
    65
 73
     2
 40
0.125
 49
0.0
 74
     0
 49
-0.125
 74
     0
  0
LTYPE
  5
9C
330
5
100
AcDbSymbolTableRecord
100
AcDbLinetypeTableRecord
  2
DOTX2
 70
     0
  3
Dot (2x) .  .  .  .  .  .  .  .  .  .  .  .  . 
 72
    65
 73
     2
 40
0.5
 49
0.0
 74
     0
 49
-0.5
 74
     0
  0
LTYPE
  5
9D
330
5
100
AcDbSymbolTableRecord
100
AcDbLinetypeTableRecord
  2
HIDDEN
 70
     0
  3
Hidden __ __ __ __ __ __ __ __ __ __ __ __ __ _
 72
    65
 73
     2
 40
0.375
 49
0.25
 74
     0
 49
-0.125
 74
     0
  0
LTYPE
  5
9E
330
5
100
AcDbSymbolTableRecord
100
AcDbLinetypeTableRecord
  2
HIDDEN2
 70
     0
  3
Hidden (.5x) _ _ _ _ _ _ _ _ _ _ _ _ _ _ _ _ _
 72
    65
 73
     2
 40
0.1875
 49
0.125
 74
     0
 49
-0.0625
 74
     0
  0
LTYPE
  5
9F
330
5
100
AcDbSymbolTableRecord
100
AcDbLinetypeTableRecord
  2
HIDDENX2
 70
     0
  3
Hidden (2x) ____ ____ ____ ____ ____ ____ ____
 72
    65
 73
     2
 40
0.75
 49
0.5
 74
     0
 49
-0.25
 74
     0
  0
LTYPE
  5
A0
330
5
100
AcDbSymbolTableRecord
100
AcDbLinetypeTableRecord
  2
PHANTOM
 70
     0
  3
Phantom ______  __  __  ______  __  __  ______
 72
    65
 73
     6
 40
2.5
 49
1.25
 74
     0
 49
-0.25
 74
     0
 49
0.25
 74
     0
 49
-0.25
 74
     0
 49
0.25
 74
     0
 49
-0.25
 74
     0
  0
LTYPE
  5
A1
330
5
100
AcDbSymbolTableRecord
100
AcDbLinetypeTableRecord
  2
PHANTOM2
 70
     0
  3
Phantom (.5x) ___ _ _ ___ _ _ ___ _ _ ___ _ _
 72
    65
 73
     6
 40
1.25
 49
0.625
 74
     0
 49
-0.125
 74
     0
 49
0.125
 74
     0
 49
-0.125
 74
     0
 49
0.125
 74
     0
 49
-0.125
 74
     0
  0
LTYPE
  5
A2
330
5
100
AcDbSymbolTableRecord
100
AcDbLinetypeTableRecord
  2
PHANTOMX2
 70
     0
  3
Phantom (2x) ____________    ____    ____   _
 72
    65
 73
     6
 40
5.0
 49
2.5
 74
     0
 49
-0.5
 74
     0
 49
0.5
 74
     0
 49
-0.5
 74
     0
 49
0.5
 74
     0
 49
-0.5
 74
     0
  0
LTYPE
  5
A3
330
5
100
AcDbSymbolTableRecord
100
AcDbLinetypeTableRecord
  2
ACAD_ISO02W100
 70
     0
  3
ISO dash __ __ __ __ __ __ __ __ __ __ __ __ __
 72
    65
 73
     2
 40
0.59
 49
0.47
 74
     0
 49
-0.12
 74
     0
  0
LTYPE
  5
A4
330
5
100
AcDbSymbolTableRecord
100
AcDbLinetypeTableRecord
  2
ACAD_ISO03W100
 70
     0
  3
ISO dash space __    __    __    __    __    __
 72
    65
 73
     2
 40
1.179999999999999
 49
0.47
 74
     0
 49
-0.71
 74
     0
  0
LTYPE
  5
A5
330
5
100
AcDbSymbolTableRecord
100
AcDbLinetypeTableRecord
  2
ACAD_ISO04W100
 70
     0
  3
ISO long-dash dot ____ . ____ . ____ . ____ . _
 72
    65
 73
     4
 40
1.179999999999999
 49
0.9399999999999998
 74
     0
 49
-0.12
 74
     0
 49
0.0
 74
     0
 49
-0.12
 74
     0
  0
LTYPE
  5
A6
330
5
100
AcDbSymbolTableRecord
100
AcDbLinetypeTableRecord
  2
ACAD_ISO05W100
 70
     0
  3
ISO long-dash double-dot ____ .. ____ .. ____ .
 72
    65
 73
     6
 40
1.299999999999999
 49
0.9399999999999998
 74
     0
 49
-0.12
 74
     0
 49
0.0
 74
     0
 49
-0.12
 74
     0
 49
0.0
 74
     0
 49
-0.12
 74
     0
  0
LTYPE
  5
A7
330
5
100
AcDbSymbolTableRecord
100
AcDbLinetypeTableRecord
  2
ACAD_ISO06W100
 70
     0
  3
ISO long-dash triple-dot ____ ... ____ ... ____
 72
    65
 73
     8
 40
1.419999999999999
 49
0.9399999999999998
 74
     0
 49
-0.12
 74
     0
 49
0.0
 74
     0
 49
-0.12
 74
     0
 49
0.0
 74
     0
 49
-0.12
 74
     0
 49
0.0
 74
     0
 49
-0.12
 74
     0
  0
LTYPE
  5
A8
330
5
100
AcDbSymbolTableRecord
100
AcDbLinetypeTableRecord
  2
ACAD_ISO07W100
 70
     0
  3
ISO dot . . . . . . . . . . . . . . . . . . . .
 72
    65
 73
     2
 40
0.12
 49
0.0
 74
     0
 49
-0.12
 74
     0
  0
LTYPE
  5
A9
330
5
100
AcDbSymbolTableRecord
100
AcDbLinetypeTableRecord
  2
ACAD_ISO08W100
 70
     0
  3
ISO long-dash short-dash ____ __ ____ __ ____ _
 72
    65
 73
     4
 40
0.95
 49
0.47
 74
     0
 49
-0.12
 74
     0
 49
0.24
 74
     0
 49
-0.12
 74
     0
  0
LTYPE
  5
AA
330
5
100
AcDbSymbolTableRecord
100
AcDbLinetypeTableRecord
  2
ACAD_ISO09W100
 70
     0
  3
ISO long-dash double-short-dash ____ __ __ ____
 72
    65
 73
     6
 40
1.31
 49
0.47
 74
     0
 49
-0.12
 74
     0
 49
0.24
 74
     0
 49
-0.12
 74
     0
 49
0.24
 74
     0
 49
-0.12
 74
     0
  0
LTYPE
  5
AB
330
5
100
AcDbSymbolTableRecord
100
AcDbLinetypeTableRecord
  2
ACAD_ISO10W100
 70
     0
  3
ISO dash dot __ . __ . __ . __ . __ . __ . __ .
 72
    65
 73
     4
 40
0.71
 49
0.47
 74
     0
 49
-0.12
 74
     0
 49
0.0
 74
     0
 49
-0.12
 74
     0
  0
LTYPE
  5
AC
330
5
100
AcDbSymbolTableRecord
100
AcDbLinetypeTableRecord
  2
ACAD_ISO11W100
 70
     0
  3
ISO double-dash dot __ __ . __ __ . __ __ . __ 
 72
    65
 73
     6
 40
1.299999999999999
 49
0.47
 74
     0
 49
-0.12
 74
     0
 49
0.47
 74
     0
 49
-0.12
 74
     0
 49
0.0
 74
     0
 49
-0.12
 74
     0
  0
LTYPE
  5
AD
330
5
100
AcDbSymbolTableRecord
100
AcDbLinetypeTableRecord
  2
ACAD_ISO12W100
 70
     0
  3
ISO dash double-dot __ . . __ . . __ . . __ . .
 72
    65
 73
     6
 40
0.8299999999999998
 49
0.47
 74
     0
 49
-0.12
 74
     0
 49
0.0
 74
     0
 49
-0.12
 74
     0
 49
0.0
 74
     0
 49
-0.12
 74
     0
  0
LTYPE
  5
AE
330
5
100
AcDbSymbolTableRecord
100
AcDbLinetypeTableRecord
  2
ACAD_ISO13W100
 70
     0
  3
ISO double-dash double-dot __ __ . . __ __ . . 
 72
    65
 73
     8
 40
1.419999999999999
 49
0.47
 74
     0
 49
-0.12
 74
     0
 49
0.47
 74
     0
 49
-0.12
 74
     0
 49
0.0
 74
     0
 49
-0.12
 74
     0
 49
0.0
 74
     0
 49
-0.12
 74
     0
  0
LTYPE
  5
AF
330
5
100
AcDbSymbolTableRecord
100
AcDbLinetypeTableRecord
  2
ACAD_ISO14W100
 70
     0
  3
ISO dash triple-dot __ . . . __ . . . __ . . . 
 72
    65
 73
     8
 40
0.95
 49
0.47
 74
     0
 49
-0.12
 74
     0
 49
0.0
 74
     0
 49
-0.12
 74
     0
 49
0.0
 74
     0
 49
-0.12
 74
     0
 49
0.0
 74
     0
 49
-0.12
 74
     0
  0
LTYPE
  5
B0
330
5
100
AcDbSymbolTableRecord
100
AcDbLinetypeTableRecord
  2
ACAD_ISO15W100
 70
     0
  3
ISO double-dash triple-dot __ __ . . . __ __ . 
 72
    65
 73
    10
 40
1.539999999999999
 49
0.47
 74
     0
 49
-0.12
 74
     0
 49
0.47
 74
     0
 49
-0.12
 74
     0
 49
0.0
 74
     0
 49
-0.12
 74
     0
 49
0.0
 74
     0
 49
-0.12
 74
     0
 49
0.0
 74
     0
 49
-0.12
 74
     0
  0
LTYPE
  5
B3
330
5
100
AcDbSymbolTableRecord
100
AcDbLinetypeTableRecord
  2
FENCELINE1
 70
     0
  3
Fenceline circle ----0-----0----0-----0----0---
 72
    65
 73
     4
 40
1.45
 49
0.25
 74
     0
 49
-0.1
 74
     4
 75
   133
340
B2
 46
0.1
 50
0.0
 44
-0.1
 45
0.0
 49
-0.1
 74
     0
 49
1.0
 74
     0
  0
LTYPE
  5
B4
330
5
100
AcDbSymbolTableRecord
100
AcDbLinetypeTableRecord
  2
FENCELINE2
 70
     0
  3
Fenceline square ----[]-----[]----[]-----[]----
 72
    65
 73
     4
 40
1.45
 49
0.25
 74
     0
 49
-0.1
 74
     4
 75
   132
340
B2
 46
0.1
 50
0.0
 44
-0.1
 45
0.0
 49
-0.1
 74
     0
 49
1.0
 74
     0
  0
LTYPE
  5
B5
330
5
100
AcDbSymbolTableRecord
100
AcDbLinetypeTableRecord
  2
TRACKS
 70
     0
  3
Tracks -|-|-|-|-|-|-|-|-|-|-|-|-|-|-|-|-|-|-|-|
 72
    65
 73
     2
 40
0.3
 49
0.15
 74
     4
 75
   130
340
B2
 46
0.25
 50
0.0
 44
0.0
 45
0.0
 49
0.15
 74
     0
  0
LTYPE
  5
B6
330
5
100
AcDbSymbolTableRecord
100
AcDbLinetypeTableRecord
  2
BATTING
 70
     0
  3
Batting SSSSSSSSSSSSSSSSSSSSSSSSSSSSSSSSSSSSSSS
 72
    65
 73
     4
 40
0.4001000000000001
 49
0.0001
 74
     0
 49
-0.1
 74
     4
 75
   134
340
B2
 46
0.1
 50
0.0
 44
-0.1
 45
0.0
 49
-0.2
 74
     4
 75
   134
340
B2
 46
0.1
 50
180.0
 44
0.1
 45
0.0
 49
-0.1
 74
     0
  0
LTYPE
  5
B7
330
5
100
AcDbSymbolTableRecord
100
AcDbLinetypeTableRecord
  2
HOT_WATER_SUPPLY
 70
     0
  3
Hot water supply ---- HW ---- HW ---- HW ----
 72
    65
 73
     3
 40
0.9
 49
0.5
 74
     0
 49
-0.2
 74
     2
 75
     0
340
55
 46
0.1
 50
0.0
 44
-0.1
 45
-0.05
  9
HW
 49
-0.2
 74
     0
  0
LTYPE
  5
B8
330
5
100
AcDbSymbolTableRecord
100
AcDbLinetypeTableRecord
  2
GAS_LINE
 70
     0
  3
Gas line ----GAS----GAS----GAS----GAS----GAS---
 72
    65
 73
     3
 40
0.95
 49
0.5
 74
     0
 49
-0.2
 74
     2
 75
     0
340
55
 46
0.1
 50
0.0
 44
-0.1
 45
-0.05
  9
GAS
 49
-0.25
 74
     0
  0
LTYPE
  5
B9
330
5
100
AcDbSymbolTableRecord
100
AcDbLinetypeTableRecord
  2
ZIGZAG
 70
     0
  3
Zig zag /\/\/\/\/\/\/\/\/\/\/\/\/\/\/\/\/\/\/\/
 72
    65
 73
     4
 40
0.8001000000000001
 49
0.0001
 74
     0
 49
-0.2
 74
     4
 75
   131
340
B2
 46
0.2
 50
0.0
 44
-0.2
 45
0.0
 49
-0.4
 74
     4
 75
   131
340
B2
 46
0.2
 50
180.0
 44
0.2
 45
0.0
 49
-0.2
 74
     0
  0
ENDTAB
  0
TABLE
  2
LAYER
  5
2
330
0
100
AcDbSymbolTable
 70
    27
  0
LAYER
  5
54
330
2
100
AcDbSymbolTableRecord
100
AcDbLayerTableRecord
  2
0
 70
     0
 62
     7
  6
Continuous
370
    18
390
F
347
21
  0
LAYER
  5
C0
330
2
100
AcDbSymbolTableRecord
100
AcDbLayerTableRecord
  2
Center Mark (ANSI)
 70
     0
 62
     7
  6
Continuous
370
    15
390
F
347
21
  0
LAYER
  5
C1
330
2
100
AcDbSymbolTableRecord
100
AcDbLayerTableRecord
  2
Centerline (ANSI)
 70
     0
 62
     7
  6
Continuous
370
    15
390
F
347
21
  0
LAYER
  5
C3
330
2
100
AcDbSymbolTableRecord
100
AcDbLayerTableRecord
  2
Dimension (ANSI)
 70
     0
 62
     7
  6
Continuous
370
    13
390
F
347
21
  0
LAYER
  5
C5
330
2
100
AcDbSymbolTableRecord
100
AcDbLayerTableRecord
  2
Hidden (ANSI)
 70
     0
 62
     7
  6
DASHED
370
    15
390
F
347
21
  0
LAYER
  5
CC
330
2
100
AcDbSymbolTableRecord
100
AcDbLayerTableRecord
  2
Symbol (ANSI)
 70
     0
 62
     7
  6
Continuous
370
    18
390
F
347
21
  0
LAYER
  5
CF
330
2
100
AcDbSymbolTableRecord
100
AcDbLayerTableRecord
  2
Visible (ANSI)
 70
     0
 62
     7
  6
Continuous
370
    13
390
F
347
21
  0
LAYER
  5
D0
330
2
100
AcDbSymbolTableRecord
100
AcDbLayerTableRecord
  2
Visible Narrow (ANSI)
 70
     0
 62
     7
  6
Continuous
370
    18
390
F
347
21
  0
LAYER
  5
542
330
2
100
AcDbSymbolTableRecord
100
AcDbLayerTableRecord
  2
Defpoints
 70
     0
 62
     7
  6
Continuous
290
     0
370
    -3
390
F
347
21
  0
ENDTAB
  0
TABLE
  2
STYLE
  5
3
330
0
100
AcDbSymbolTable
 70
    18
  0
STYLE
  5
55
330
3
100
AcDbSymbolTableRecord
100
AcDbTextStyleTableRecord
  2
Standard
 70
     0
 40
0.0
 41
1.0
 50
0.0
 71
     0
 42
0.2
  3
txt
  4

  0
STYLE
  5
5A
330
3
100
AcDbSymbolTableRecord
100
AcDbTextStyleTableRecord
  2
Annotative
 70
     0
 40
0.0
 41
1.0
 50
0.0
 71
     0
 42
0.2
  3
txt
  4

1001
AcadAnnotative
1000
AnnotativeData
1002
{
1070
     1
1070
     1
1002
}
  0
STYLE
  5
B2
330
3
100
AcDbSymbolTableRecord
100
AcDbTextStyleTableRecord
  2

 70
     1
 40
0.0
 41
1.0
 50
0.0
 71
     0
 42
0.2
  3
ltypeshp.shx
  4

  0
STYLE
  5
D4
330
3
100
AcDbSymbolTableRecord
100
AcDbTextStyleTableRecord
  2
ITALICC_120
 70
     0
 40
0.0
 41
1.0
 50
0.0
 71
     0
 42
0.2
  3
italicc.shx
  4

  0
STYLE
  5
D5
330
3
100
AcDbSymbolTableRecord
100
AcDbTextStyleTableRecord
  2
Label Text (ANSI)
 70
     0
 40
0.0
 41
1.0
 50
0.0
 71
     0
 42
0.2
  3
tahoma.ttf
  4

1001
ACAD
1000
Tahoma
1071
      256
  0
STYLE
  5
D6
330
3
100
AcDbSymbolTableRecord
100
AcDbTextStyleTableRecord
  2
Note Text (ANSI)
 70
     0
 40
0.0
 41
1.0
 50
0.0
 71
     0
 42
0.2
  3
tahoma.ttf
  4

1001
ACAD
1000
Tahoma
1071
      256
  0
STYLE
  5
D7
330
3
100
AcDbSymbolTableRecord
100
AcDbTextStyleTableRecord
  2
ROMANS
 70
     0
 40
0.0
 41
1.0
 50
0.0
 71
     0
 42
0.2
  3
romans.shx
  4

  0
STYLE
  5
D8
330
3
100
AcDbSymbolTableRecord
100
AcDbTextStyleTableRecord
  2
SANSSERIF_114
 70
     0
 40
0.0
 41
1.0
 50
0.0
 71
     0
 42
0.2
  3
tahoma.ttf
  4

1001
ACAD
1000
Tahoma
1071
      256
  0
STYLE
  5
D9
330
3
100
AcDbSymbolTableRecord
100
AcDbTextStyleTableRecord
  2
SANSSERIF_117
 70
     0
 40
0.0
 41
1.0
 50
0.0
 71
     0
 42
0.2
  3
tahoma.ttf
  4

1001
ACAD
1000
Tahoma
1071
      256
  0
STYLE
  5
DA
330
3
100
AcDbSymbolTableRecord
100
AcDbTextStyleTableRecord
  2
STANDARDAM_ANSI
 70
     0
 40
0.0
 41
1.0
 50
0.0
 71
     0
 42
0.2
  3
txt.shx
  4

  0
STYLE
  5
DB
330
3
100
AcDbSymbolTableRecord
100
AcDbTextStyleTableRecord
  2
StandardAM_ANSI$0
 70
     0
 40
0.0
 41
1.0
 50
0.0
 71
     0
 42
0.2
  3
txt.shx
  4

  0
STYLE
  5
DC
330
3
100
AcDbSymbolTableRecord
100
AcDbTextStyleTableRecord
  2
STANDARDAM_ANSI$3
 70
     0
 40
0.0
 41
1.0
 50
0.0
 71
     0
 42
0.2
  3
txt.shx
  4

  0
STYLE
  5
DD
330
3
100
AcDbSymbolTableRecord
100
AcDbTextStyleTableRecord
  2
STANDARDAM_ANSI$4
 70
     0
 40
0.0
 41
1.0
 50
0.0
 71
     0
 42
0.2
  3
txt.shx
  4

  0
STYLE
  5
DE
330
3
100
AcDbSymbolTableRecord
100
AcDbTextStyleTableRecord
  2
STANDARDAM_ANSI$7
 70
     0
 40
0.0
 41
1.0
 50
0.0
 71
     0
 42
0.2
  3
txt.shx
  4

  0
STYLE
  5
DF
330
3
100
AcDbSymbolTableRecord
100
AcDbTextStyleTableRecord
  2
STANDARDAM_ANSI$SF
 70
     0
 40
0.0
 41
1.0
 50
0.0
 71
     0
 42
0.2
  3
txt.shx
  4

  0
STYLE
  5
E0
330
3
100
AcDbSymbolTableRecord
100
AcDbTextStyleTableRecord
  2
STANDARDAM_ANSI$SH
 70
     0
 40
0.0
 41
1.0
 50
0.0
 71
     0
 42
0.2
  3
txt.shx
  4

  0
STYLE
  5
E1
330
3
100
AcDbSymbolTableRecord
100
AcDbTextStyleTableRecord
  2
STANDARDSTANDARD
 70
     0
 40
0.0
 41
1.0
 50
0.0
 71
     0
 42
0.2
  3
txt.shx
  4

  0
STYLE
  5
2E1
330
3
100
AcDbSymbolTableRecord
100
AcDbTextStyleTableRecord
  2
Text Style153
 70
     0
 40
0.0
 41
1.0
 50
0.0
 71
     0
 42
0.2
  3
tahoma.ttf
  4

1001
ACAD
1000
Tahoma
1071
      256
  0
ENDTAB
  0
TABLE
  2
VIEW
  5
6
330
0
100
AcDbSymbolTable
 70
     0
  0
ENDTAB
  0
TABLE
  2
UCS
  5
7
330
0
100
AcDbSymbolTable
 70
     0
  0
ENDTAB
  0
TABLE
  2
APPID
  5
9
330
0
100
AcDbSymbolTable
 70
     3
  0
APPID
  5
56
330
9
100
AcDbSymbolTableRecord
100
AcDbRegAppTableRecord
  2
ACAD
 70
     0
  0
APPID
  5
5E
330
9
100
AcDbSymbolTableRecord
100
AcDbRegAppTableRecord
  2
AcadAnnotative
 70
     0
  0
APPID
  5
B6E
330
9
100
AcDbSymbolTableRecord
100
AcDbRegAppTableRecord
  2
ACAD_DSTYLE_DIMRADIAL_EXTENSION
 70
     0
  0
ENDTAB
  0
TABLE
  2
DIMSTYLE
  5
A
330
0
100
AcDbSymbolTable
 70
    27
100
AcDbDimStyleTable
 71
     2
340
F6
340
58
  0
DIMSTYLE
105
58
330
A
100
AcDbSymbolTableRecord
100
AcDbDimStyleTableRecord
  2
STANDARD
 70
     0
 41
0.1800000071525573
 42
0.0625
140
0.1800000071525574
144
1.0
147
0.0900000035762787
176
   256
177
   256
178
   256
274
     3
340
55
371
    -1
372
    -1
  0
DIMSTYLE
105
59
330
A
100
AcDbSymbolTableRecord
100
AcDbDimStyleTableRecord
  2
Annotative
 70
     0
340
55
1001
AcadAnnotative
1000
AnnotativeData
1002
{
1070
     1
1070
     1
1002
}
  0
DIMSTYLE
105
E2
330
A
100
AcDbSymbolTableRecord
100
AcDbDimStyleTableRecord
  2
AM_ANSI
 70
     0
  4
 mm
 40
10.0
 41
0.119999997317791
 42
0.05
 43
0.5
 44
0.1
 45
0.00000001
 78
     4
 79
     2
140
0.1200000047683716
146
0.7099999189376831
147
0.0599999986588955
176
   256
177
   256
178
     2
284
     4
340
DA
371
    -1
372
    -1
  0
DIMSTYLE
105
E3
330
A
100
AcDbSymbolTableRecord
100
AcDbDimStyleTableRecord
  2
AM_ANSI$7
 70
     0
  4
 mm
 40
10.0
 41
0.119999997317791
 42
0.05
 43
0.5
 44
0.1
 45
0.00000001
 78
     4
 79
     2
140
0.1200000047683716
146
0.7099999189376831
147
0.0599999986588955
176
   256
177
   256
178
     2
284
     4
340
DA
371
    -1
372
    -1
  0
DIMSTYLE
105
E4
330
A
100
AcDbSymbolTableRecord
100
AcDbDimStyleTableRecord
  2
AM_ANSI$0
 70
     0
  4
 mm
 40
10.0
 41
0.119999997317791
 42
0.05
 43
0.5
 44
0.1
 45
0.00000001
 78
     4
 79
     2
140
0.1200000047683716
146
0.7099999189376831
147
0.0599999986588955
176
   256
177
   256
178
     2
284
     4
340
DB
371
    -1
372
    -1
  0
DIMSTYLE
105
E5
330
A
100
AcDbSymbolTableRecord
100
AcDbDimStyleTableRecord
  2
AM_ANSI$0$7
 70
     0
  4
 mm
 40
10.0
 41
0.119999997317791
 42
0.05
 43
0.5
 44
0.1
 45
0.00000001
 78
     4
 79
     2
140
0.1200000047683716
146
0.7099999189376831
147
0.0599999986588955
176
   256
177
   256
178
     2
284
     4
340
DB
371
    -1
372
    -1
  0
DIMSTYLE
105
E6
330
A
100
AcDbSymbolTableRecord
100
AcDbDimStyleTableRecord
  2
AM_ANSI$3
 70
     0
  4
 mm
 40
10.0
 41
0.119999997317791
 42
0.05
 43
0.5
 44
0.1
 45
0.00000001
 78
     4
 79
     2
140
0.1200000047683716
146
0.7099999189376831
147
0.0599999986588955
176
   256
177
   256
178
     2
284
     4
340
DC
371
    -1
372
    -1
  0
DIMSTYLE
105
E7
330
A
100
AcDbSymbolTableRecord
100
AcDbDimStyleTableRecord
  2
AM_ANSI$3$7
 70
     0
  4
 mm
 40
10.0
 41
0.119999997317791
 42
0.05
 43
0.5
 44
0.1
 45
0.00000001
 78
     4
 79
     2
140
0.1200000047683716
146
0.7099999189376831
147
0.0599999986588955
176
   256
177
   256
178
     2
284
     4
340
DC
371
    -1
372
    -1
  0
DIMSTYLE
105
E8
330
A
100
AcDbSymbolTableRecord
100
AcDbDimStyleTableRecord
  2
AM_ANSI$4
 70
     0
  4
 mm
 40
10.0
 41
0.119999997317791
 42
0.05
 43
0.5
 44
0.1
 45
0.00000001
 78
     4
 79
     2
140
0.1200000047683716
146
0.7099999189376831
147
0.0599999986588955
176
   256
177
   256
178
     2
284
     4
340
DD
371
    -1
372
    -1
  0
DIMSTYLE
105
E9
330
A
100
AcDbSymbolTableRecord
100
AcDbDimStyleTableRecord
  2
AM_ANSI$4$7
 70
     0
  4
 mm
 40
10.0
 41
0.119999997317791
 42
0.05
 43
0.5
 44
0.1
 45
0.00000001
 78
     4
 79
     2
140
0.1200000047683716
146
0.7099999189376831
147
0.0599999986588955
176
   256
177
   256
178
     2
284
     4
340
DD
371
    -1
372
    -1
  0
DIMSTYLE
105
EA
330
A
100
AcDbSymbolTableRecord
100
AcDbDimStyleTableRecord
  2
AM_ANSI$SF
 70
     0
  4
 mm
 40
10.0
 41
0.119999997317791
 42
0.05
 43
0.5
 44
0.1
 45
0.00000001
 75
     1
 76
     1
 78
     4
 79
     2
140
0.1200000047683716
146
0.7099999189376831
147
0.0599999986588955
176
   256
177
   256
178
     2
284
     4
340
DF
371
    -1
372
    -1
  0
DIMSTYLE
105
EB
330
A
100
AcDbSymbolTableRecord
100
AcDbDimStyleTableRecord
  2
AM_ANSI$SF$7
 70
     0
  4
 mm
 40
10.0
 41
0.119999997317791
 42
0.05
 43
0.5
 44
0.1
 45
0.00000001
 75
     1
 76
     1
 78
     4
 79
     2
140
0.1200000047683716
146
0.7099999189376831
147
0.0599999986588955
176
   256
177
   256
178
     2
284
     4
340
DF
371
    -1
372
    -1
  0
DIMSTYLE
105
EC
330
A
100
AcDbSymbolTableRecord
100
AcDbDimStyleTableRecord
  2
AM_ANSI$SH
 70
     0
  4
 mm
 40
10.0
 41
0.119999997317791
 42
0.05
 43
0.5
 44
0.1
 45
0.00000001
 75
     1
 76
     1
 78
     4
 79
     2
140
0.1200000047683716
146
0.7099999189376831
147
0.0599999986588955
176
   256
177
   256
178
     2
284
     4
340
E0
371
    -1
372
    -1
  0
DIMSTYLE
105
ED
330
A
100
AcDbSymbolTableRecord
100
AcDbDimStyleTableRecord
  2
AM_ANSI$SH$7
 70
     0
  4
 mm
 40
10.0
 41
0.119999997317791
 42
0.05
 43
0.5
 44
0.1
 45
0.00000001
 75
     1
 76
     1
 78
     4
 79
     2
140
0.1200000047683716
146
0.7099999189376831
147
0.0599999986588955
176
   256
177
   256
178
     2
284
     4
340
E0
371
    -1
372
    -1
  0
DIMSTYLE
105
EE
330
A
100
AcDbSymbolTableRecord
100
AcDbDimStyleTableRecord
  2
Architectural (ANSI)
 70
     0
 40
10.0
 41
0.0984251946210861
 43
0.2362204724409449
 44
0.125
 45
0.00000001
 46
0.3937007874015748
 78
     3
 79
     3
140
0.1200000047683716
147
0.031496062992126
171
     1
176
   256
177
   256
178
   256
272
     2
274
     1
276
     2
277
     4
284
    12
285
     4
286
    12
340
D6
371
    -1
372
    -1
  0
DIMSTYLE
105
EF
330
A
100
AcDbSymbolTableRecord
100
AcDbDimStyleTableRecord
  2
Architectural (ANSI)$7
 70
     0
 40
10.0
 41
0.0984251946210861
 43
0.2362204724409449
 44
0.125
 45
0.00000001
 46
0.3937007874015748
 78
     3
 79
     3
140
0.1200000047683716
147
0.031496062992126
171
     1
176
   256
177
   256
178
   256
272
     2
274
     1
276
     2
277
     4
284
    12
285
     4
286
    12
340
D6
371
    -1
372
    -1
  0
DIMSTYLE
105
F0
330
A
100
AcDbSymbolTableRecord
100
AcDbDimStyleTableRecord
  2
Default - Fraction (ANSI)
 70
     0
 40
10.0
 41
0.0984251946210861
 43
0.2362204724409449
 44
0.125
 45
0.00000001
 46
0.3937007874015748
 79
     3
140
0.1200000047683716
147
0.031496062992126
171
     1
176
   256
177
   256
178
   256
272
     2
274
     1
276
     2
277
     5
284
    12
285
     4
286
    12
340
D6
371
    -1
372
    -1
  0
DIMSTYLE
105
F1
330
A
100
AcDbSymbolTableRecord
100
AcDbDimStyleTableRecord
  2
Default - Fraction (ANSI)$7
 70
     0
 40
10.0
 41
0.0984251946210861
 43
0.2362204724409449
 44
0.125
 45
0.00000001
 46
0.3937007874015748
 79
     3
140
0.1200000047683716
147
0.031496062992126
171
     1
176
   256
177
   256
178
   256
272
     2
274
     1
276
     2
277
     5
284
    12
285
     4
286
    12
340
D6
371
    -1
372
    -1
  0
DIMSTYLE
105
F2
330
A
100
AcDbSymbolTableRecord
100
AcDbDimStyleTableRecord
  2
Default - mm (ANSI)
 70
     0
 40
10.0
 41
0.0984251946210861
 42
0.063
 43
0.2362204724409449
 44
0.125
 45
0.00000001
 46
0.3937007874015748
 73
     0
 78
     4
 79
     1
140
0.1200000047683716
143
1.0
144
25.4
147
0.031496062992126
171
     1
176
   256
177
   256
178
   256
179
     1
271
     2
272
     2
274
     1
284
     4
285
     4
340
D6
371
    -1
372
    -1
  0
DIMSTYLE
105
F3
330
A
100
AcDbSymbolTableRecord
100
AcDbDimStyleTableRecord
  2
Default - mm (ANSI)$7
 70
     0
 40
10.0
 41
0.0984251946210861
 42
0.063
 43
0.2362204724409449
 44
0.125
 45
0.00000001
 46
0.3937007874015748
 73
     0
 78
     4
 79
     1
140
0.1200000047683716
143
1.0
144
25.4
147
0.031496062992126
171
     1
176
   256
177
   256
178
   256
179
     1
271
     2
272
     2
274
     1
284
     4
285
     4
340
D6
371
    -1
372
    -1
  0
DIMSTYLE
105
F4
330
A
100
AcDbSymbolTableRecord
100
AcDbDimStyleTableRecord
  2
Default - mm [in] (ANSI)
 70
     0
  4
 in
 40
10.0
 41
0.0984251946210861
 42
0.063
 43
0.25
 44
0.125
 45
0.00000001
 46
0.3937007874015748
 73
     0
 78
     4
 79
     1
140
0.1200000047683716
143
0.03937
144
25.4
147
0.031496062992126
170
     1
171
     3
176
   256
177
   256
178
   256
179
     1
271
     2
272
     2
274
     3
284
     4
285
     4
286
     4
340
D6
371
    -1
372
    -1
  0
DIMSTYLE
105
F5
330
A
100
AcDbSymbolTableRecord
100
AcDbDimStyleTableRecord
  2
Default - mm [in] (ANSI)$7
 70
     0
  4
 in
 40
10.0
 41
0.0984251946210861
 42
0.063
 43
0.25
 44
0.125
 45
0.00000001
 46
0.3937007874015748
 73
     0
 78
     4
 79
     1
140
0.1200000047683716
143
0.03937
144
25.4
147
0.031496062992126
170
     1
171
     3
176
   256
177
   256
178
   256
179
     1
271
     2
272
     2
274
     3
284
     4
285
     4
286
     4
340
D6
371
    -1
372
    -1
  0
DIMSTYLE
105
F6
102
{ACAD_REACTORS
330
540
330
62C
330
716
330
800
330
900
330
9EA
330
AD4
330
B8F
330
C98
330
D8A
102
}
330
A
100
AcDbSymbolTableRecord
100
AcDbDimStyleTableRecord
  2
Default (ANSI)
 70
     0
 40
10.0
 41
0.0984251946210861
 43
0.2362204724409449
 44
0.125
 45
0.00000001
 46
0.3937007874015748
 79
     1
140
0.1200000047683716
147
0.031496062992126
171
     1
176
   256
177
   256
178
   256
271
     2
272
     2
274
     1
284
     4
285
     4
340
D6
371
    -1
372
    -1
  0
DIMSTYLE
105
F7
330
A
100
AcDbSymbolTableRecord
100
AcDbDimStyleTableRecord
  2
Default (ANSI)$7
 70
     0
 40
10.0
 41
0.0984251946210861
 43
0.2362204724409449
 44
0.125
 45
0.00000001
 46
0.3937007874015748
 79
     1
140
0.1200000047683716
147
0.031496062992126
171
     1
176
   256
177
   256
178
   256
271
     2
272
     2
274
     1
284
     4
285
     4
340
D6
371
    -1
372
    -1
  0
DIMSTYLE
105
F8
330
A
100
AcDbSymbolTableRecord
100
AcDbDimStyleTableRecord
  2
Alternate (ANSI)
 70
     0
 40
10.0
 41
0.0979999974370003
340
55
342
F9
  0
DIMSTYLE
105
10B
330
A
100
AcDbSymbolTableRecord
100
AcDbDimStyleTableRecord
  2
Datum (ANSI)
 70
     0
 40
10.0
 41
0.0979999974370003
340
55
342
F9
  0
DIMSTYLE
105
11A
330
A
100
AcDbSymbolTableRecord
100
AcDbDimStyleTableRecord
  2
Large (ANSI)
 70
     0
 40
10.0
 41
0.1959999948740005
340
55
342
F9
  0
ENDTAB
  0
TABLE
  2
BLOCK_RECORD
  5
1
330
0
100
AcDbSymbolTable
 70
    14
  0
BLOCK_RECORD
  5
6C
330
1
100
AcDbSymbolTableRecord
100
AcDbBlockTableRecord
  2
*Model_Space
340
6F
 70
     0
280
     1
281
     0
  0
BLOCK_RECORD
  5
68
330
1
100
AcDbSymbolTableRecord
100
AcDbBlockTableRecord
  2
*Paper_Space
340
6B
 70
     0
280
     1
281
     0
  0
BLOCK_RECORD
  5
70
330
1
100
AcDbSymbolTableRecord
100
AcDbBlockTableRecord
  2
*Paper_Space0
340
73
 70
     0
280
     1
281
     0
  0
BLOCK_RECORD
  5
F9
330
1
100
AcDbSymbolTableRecord
100
AcDbBlockTableRecord
  2
_Closed
340
0
 70
     0
280
     1
281
     0
  0
BLOCK_RECORD
  5
100
330
1
100
AcDbSymbolTableRecord
100
AcDbBlockTableRecord
  2
DatumFilled45
340
0
 70
     0
280
     1
281
     0
  0
BLOCK_RECORD
  5
10C
330
1
100
AcDbSymbolTableRecord
100
AcDbBlockTableRecord
  2
Filled-1
340
0
 70
     0
280
     1
281
     0
  0
BLOCK_RECORD
  5
543
330
1
100
AcDbSymbolTableRecord
100
AcDbBlockTableRecord
  2
*D4
340
0
 70
     0
280
     1
281
     0
  0
BLOCK_RECORD
  5
62D
330
1
100
AcDbSymbolTableRecord
100
AcDbBlockTableRecord
  2
*D5
340
0
 70
     0
280
     1
281
     0
  0
BLOCK_RECORD
  5
717
330
1
100
AcDbSymbolTableRecord
100
AcDbBlockTableRecord
  2
*D6
340
0
 70
     0
280
     1
281
     0
  0
BLOCK_RECORD
  5
801
330
1
100
AcDbSymbolTableRecord
100
AcDbBlockTableRecord
  2
*D7
340
0
 70
     0
280
     1
281
     0
  0
BLOCK_RECORD
  5
901
330
1
100
AcDbSymbolTableRecord
100
AcDbBlockTableRecord
  2
*D8
340
0
 70
     0
280
     1
281
     0
  0
BLOCK_RECORD
  5
9EB
330
1
100
AcDbSymbolTableRecord
100
AcDbBlockTableRecord
  2
*D9
340
0
 70
     0
280
     1
281
     0
  0
BLOCK_RECORD
  5
AD5
330
1
100
AcDbSymbolTableRecord
100
AcDbBlockTableRecord
  2
*D10
340
0
 70
     0
280
     1
281
     0
  0
BLOCK_RECORD
  5
B90
330
1
100
AcDbSymbolTableRecord
100
AcDbBlockTableRecord
  2
*D11
340
0
 70
     0
280
     1
281
     0
  0
BLOCK_RECORD
  5
C99
330
1
100
AcDbSymbolTableRecord
100
AcDbBlockTableRecord
  2
*D12
340
0
 70
     0
280
     1
281
     0
  0
BLOCK_RECORD
  5
D8B
330
1
100
AcDbSymbolTableRecord
100
AcDbBlockTableRecord
  2
*D13
340
0
 70
     0
280
     1
281
     0
  0
ENDTAB
  0
ENDSEC
  0
SECTION
  2
BLOCKS
  0
BLOCK
  5
6D
330
6C
100
AcDbEntity
  8
0
100
AcDbBlockBegin
  2
*Model_Space
 70
     0
 10
0.0
 20
0.0
 30
0.0
  3
*Model_Space
  1

  0
ENDBLK
  5
6E
330
6C
100
AcDbEntity
  8
0
100
AcDbBlockEnd
  0
BLOCK
  5
69
330
68
100
AcDbEntity
 67
     1
  8
0
100
AcDbBlockBegin
  2
*Paper_Space
 70
     0
 10
0.0
 20
0.0
 30
0.0
  3
*Paper_Space
  1

  0
ENDBLK
  5
6A
330
68
100
AcDbEntity
 67
     1
  8
0
100
AcDbBlockEnd
  0
BLOCK
  5
71
330
70
100
AcDbEntity
 67
     1
  8
0
100
AcDbBlockBegin
  2
*Paper_Space0
 70
     0
 10
0.0
 20
0.0
 30
0.0
  3
*Paper_Space0
  1

  0
ENDBLK
  5
72
330
70
100
AcDbEntity
 67
     1
  8
0
100
AcDbBlockEnd
  0
BLOCK
  5
FE
330
F9
100
AcDbEntity
  8
0
100
AcDbBlockBegin
  2
_Closed
 70
     0
 10
0.0
 20
0.0
 30
0.0
  3
_Closed
  1

  0
LINE
  5
FA
330
F9
100
AcDbEntity
  8
0
  6
ByBlock
 62
     0
370
    -2
100
AcDbLine
 10
-1.0
 20
0.1666666666666666
 30
0.0
 11
0.0
 21
0.0
 31
0.0
  0
LINE
  5
FB
330
F9
100
AcDbEntity
  8
0
  6
ByBlock
 62
     0
370
    -2
100
AcDbLine
 10
0.0
 20
0.0
 30
0.0
 11
-1.0
 21
-0.1666666666666666
 31
0.0
  0
LINE
  5
FC
330
F9
100
AcDbEntity
  8
0
  6
ByBlock
 62
     0
370
    -2
100
AcDbLine
 10
-1.0
 20
0.1666666666666666
 30
0.0
 11
-1.0
 21
-0.1666666666666666
 31
0.0
  0
LINE
  5
FD
330
F9
100
AcDbEntity
  8
0
  6
ByBlock
 62
     0
370
    -2
100
AcDbLine
 10
0.0
 20
0.0
 30
0.0
 11
-1.0
 21
0.0
 31
0.0
  0
ENDBLK
  5
FF
330
F9
100
AcDbEntity
  8
0
100
AcDbBlockEnd
  0
BLOCK
  5
101
330
100
100
AcDbEntity
  8
0
100
AcDbBlockBegin
  2
DatumFilled45
 70
     0
 10
0.0
 20
0.0
 30
0.0
  3
DatumFilled45
  1

  0
POLYLINE
  5
103
330
100
100
AcDbEntity
  8
0
 62
     0
100
AcDb2dPolyline
 66
     1
 10
0.0
 20
0.0
 30
0.0
 70
   128
  0
VERTEX
  5
104
330
103
100
AcDbEntity
  8
0
 62
     0
100
AcDbVertex
100
AcDb2dVertex
 10
0.0
 20
0.9999999999999998
 30
0.0
  0
VERTEX
  5
105
330
103
100
AcDbEntity
  8
0
 62
     0
100
AcDbVertex
100
AcDb2dVertex
 10
0.0
 20
-0.9999999999999998
 30
0.0
  0
VERTEX
  5
107
330
103
100
AcDbEntity
  8
0
 62
     0
100
AcDbVertex
100
AcDb2dVertex
 10
-0.9999999999999998
 20
0.0
 30
0.0
  0
VERTEX
  5
108
330
103
100
AcDbEntity
  8
0
 62
     0
100
AcDbVertex
100
AcDb2dVertex
 10
0.0
 20
0.9999999999999998
 30
0.0
  0
SEQEND
  5
106
330
103
100
AcDbEntity
  8
0
 62
     0
  0
SOLID
  5
10A
330
100
100
AcDbEntity
  8
0
 62
     0
100
AcDbTrace
 10
0.0
 20
0.9999999999999998
 30
0.0
 11
0.0
 21
-0.9999999999999998
 31
0.0
 12
-0.9999999999999998
 22
0.0
 32
0.0
 13
0.0
 23
0.9999999999999998
 33
0.0
  0
ENDBLK
  5
102
330
100
100
AcDbEntity
  8
0
100
AcDbBlockEnd
  0
BLOCK
  5
10D
330
10C
100
AcDbEntity
  8
0
100
AcDbBlockBegin
  2
Filled-1
 70
     0
 10
0.0
 20
0.0
 30
0.0
  3
Filled-1
  1

  0
LINE
  5
10F
330
10C
100
AcDbEntity
  8
0
 62
     0
100
AcDbLine
 10
-0.9999999999999998
 20
0.0
 30
0.0
 11
0.0
 21
0.0
 31
0.0
  0
POLYLINE
  5
110
330
10C
100
AcDbEntity
  8
0
 62
     0
100
AcDb2dPolyline
 66
     1
 10
0.0
 20
0.0
 30
0.0
 70
   128
  0
VERTEX
  5
111
330
110
100
AcDbEntity
  8
0
 62
     0
100
AcDbVertex
100
AcDb2dVertex
 10
-0.9999999999999998
 20
-0.0994897959183674
 30
0.0
  0
VERTEX
  5
112
330
110
100
AcDbEntity
  8
0
 62
     0
100
AcDbVertex
100
AcDb2dVertex
 10
0.0
 20
0.0
 30
0.0
  0
VERTEX
  5
114
330
110
100
AcDbEntity
  8
0
 62
     0
100
AcDbVertex
100
AcDb2dVertex
 10
-0.9999999999999998
 20
0.0994897959183674
 30
0.0
  0
VERTEX
  5
115
330
110
100
AcDbEntity
  8
0
 62
     0
100
AcDbVertex
100
AcDb2dVertex
 10
-0.9999999999999998
 20
-0.0994897959183674
 30
0.0
  0
SEQEND
  5
113
330
110
100
AcDbEntity
  8
0
 62
     0
  0
SOLID
  5
116
330
10C
100
AcDbEntity
  8
0
 62
     0
100
AcDbTrace
 10
-0.9999999999999998
 20
-0.0994897959183674
 30
0.0
 11
0.0
 21
0.0
 31
0.0
 12
-0.9999999999999998
 22
0.0994897959183674
 32
0.0
 13
-0.9999999999999998
 23
-0.0994897959183674
 33
0.0
  0
LINE
  5
117
330
10C
100
AcDbEntity
  8
0
 62
     0
100
AcDbLine
 10
-0.9999999999999998
 20
-0.0994897959183674
 30
0.0
 11
0.0
 21
0.0
 31
0.0
  0
LINE
  5
118
330
10C
100
AcDbEntity
  8
0
 62
     0
100
AcDbLine
 10
0.0
 20
0.0
 30
0.0
 11
-0.9999999999999998
 21
0.0994897959183674
 31
0.0
  0
LINE
  5
119
330
10C
100
AcDbEntity
  8
0
 62
     0
100
AcDbLine
 10
-0.9999999999999998
 20
0.0994897959183674
 30
0.0
 11
-0.9999999999999998
 21
-0.0994897959183674
 31
0.0
  0
ENDBLK
  5
10E
330
10C
100
AcDbEntity
  8
0
100
AcDbBlockEnd
  0
BLOCK
  5
544
330
543
100
AcDbEntity
  8
0
100
AcDbBlockBegin
  2
*D4
 70
     1
 10
0.0
 20
0.0
 30
0.0
  3
*D4
  1

  0
LINE
  5
622
330
543
100
AcDbEntity
  8
Dimension (ANSI)
440
 16777216
100
AcDbLine
 10
18.39756658717927
 20
67.041171345871
 30
0.0
 11
18.39756658717927
 21
80.38265360782341
 31
0.0
  0
LINE
  5
623
330
543
100
AcDbEntity
  8
Dimension (ANSI)
440
 16777216
100
AcDbLine
 10
74.39756658717929
 20
67.04117134587102
 30
0.0
 11
74.39756658717929
 21
80.38265360782341
 31
0.0
  0
LINE
  5
624
330
543
100
AcDbEntity
  8
Dimension (ANSI)
440
 16777216
100
AcDbLine
 10
19.38181853339013
 20
79.13265360782341
 30
0.0
 11
44.11417070035397
 21
79.13265360782341
 31
0.0
  0
LINE
  5
625
330
543
100
AcDbEntity
  8
Dimension (ANSI)
440
 16777216
100
AcDbLine
 10
73.41331464096843
 20
79.13265360782341
 30
0.0
 11
48.68096247400459
 21
79.13265360782341
 31
0.0
  0
SOLID
  5
626
330
543
100
AcDbEntity
  8
Dimension (ANSI)
440
 16777216
100
AcDbTrace
 10
19.38181853339013
 20
79.29669559885856
 30
0.0
 11
19.38181853339013
 21
78.96861161678827
 31
0.0
 12
18.39756658717927
 22
79.13265360782341
 32
0.0
 13
18.39756658717927
 23
79.13265360782341
 33
0.0
  0
SOLID
  5
627
330
543
100
AcDbEntity
  8
Dimension (ANSI)
440
 16777216
100
AcDbTrace
 10
73.41331464096843
 20
79.29669559885856
 30
0.0
 11
73.41331464096843
 21
78.96861161678827
 31
0.0
 12
74.39756658717929
 22
79.13265360782341
 32
0.0
 13
74.39756658717929
 23
79.13265360782341
 33
0.0
  0
MTEXT
  5
628
330
543
100
AcDbEntity
  8
Dimension (ANSI)
440
 16777216
100
AcDbMText
 10
44.42913133027523
 20
79.7572338838114
 30
0.0
 40
1.200000047683715
 41
0.0
 46
0.0
 71
     1
 72
     1
  1
\A1;56.00
  7
Note Text (ANSI)
 73
     1
 44
1.0
  0
POINT
  5
629
330
543
100
AcDbEntity
  8
Defpoints
 62
     0
440
 16777216
100
AcDbPoint
 10
18.39756658717927
 20
66.416171345871
 30
0.0
  0
POINT
  5
62A
330
543
100
AcDbEntity
  8
Defpoints
 62
     0
440
 16777216
100
AcDbPoint
 10
74.39756658717929
 20
66.41617134587102
 30
0.0
  0
POINT
  5
62B
330
543
100
AcDbEntity
  8
Defpoints
 62
     0
440
 16777216
100
AcDbPoint
 10
74.39756658717929
 20
79.13265360782341
 30
0.0
  0
ENDBLK
  5
545
330
543
100
AcDbEntity
  8
0
100
AcDbBlockEnd
  0
BLOCK
  5
62E
330
62D
100
AcDbEntity
  8
0
100
AcDbBlockBegin
  2
*D5
 70
     1
 10
0.0
 20
0.0
 30
0.0
  3
*D5
  1

  0
LINE
  5
70C
330
62D
100
AcDbEntity
  8
Dimension (ANSI)
440
 16777216
100
AcDbLine
 10
18.39756658717927
 20
67.041171345871
 30
0.0
 11
18.39756658717927
 21
72.38336963142107
 31
0.0
  0
LINE
  5
70D
330
62D
100
AcDbEntity
  8
Dimension (ANSI)
440
 16777216
100
AcDbLine
 10
19.27256658717928
 20
67.91105969351932
 30
0.0
 11
19.27256658717928
 21
72.38336963142107
 31
0.0
  0
LINE
  5
70E
330
62D
100
AcDbEntity
  8
Dimension (ANSI)
440
 16777216
100
AcDbLine
 10
20.25681853339014
 20
71.13336963142107
 30
0.0
 11
21.241070479601
 21
71.13336963142107
 31
0.0
  0
LINE
  5
70F
330
62D
100
AcDbEntity
  8
Dimension (ANSI)
440
 16777216
100
AcDbLine
 10
17.41331464096841
 20
71.13336963142107
 30
0.0
 11
16.42906269475755
 21
71.13336963142107
 31
0.0
  0
SOLID
  5
710
330
62D
100
AcDbEntity
  8
Dimension (ANSI)
440
 16777216
100
AcDbTrace
 10
20.25681853339014
 20
71.29741162245622
 30
0.0
 11
20.25681853339014
 21
70.96932764038593
 31
0.0
 12
19.27256658717928
 22
71.13336963142107
 32
0.0
 13
19.27256658717928
 23
71.13336963142107
 33
0.0
  0
SOLID
  5
711
330
62D
100
AcDbEntity
  8
Dimension (ANSI)
440
 16777216
100
AcDbTrace
 10
17.41331464096841
 20
71.29741162245622
 30
0.0
 11
17.41331464096841
 21
70.96932764038593
 31
0.0
 12
18.39756658717927
 22
71.13336963142107
 32
0.0
 13
18.39756658717927
 23
71.13336963142107
 33
0.0
  0
MTEXT
  5
712
330
62D
100
AcDbEntity
  8
Dimension (ANSI)
440
 16777216
100
AcDbMText
 10
13.03794346684129
 20
71.76077059252643
 30
0.0
 40
1.200000047683715
 41
0.0
 46
0.0
 71
     1
 72
     1
  1
\A1;0.88
  7
Note Text (ANSI)
 73
     1
 44
1.0
  0
POINT
  5
713
330
62D
100
AcDbEntity
  8
Defpoints
 62
     0
440
 16777216
100
AcDbPoint
 10
18.39756658717927
 20
66.416171345871
 30
0.0
  0
POINT
  5
714
330
62D
100
AcDbEntity
  8
Defpoints
 62
     0
440
 16777216
100
AcDbPoint
 10
19.27256658717928
 20
67.28605969351932
 30
0.0
  0
POINT
  5
715
330
62D
100
AcDbEntity
  8
Defpoints
 62
     0
440
 16777216
100
AcDbPoint
 10
19.27256658717928
 20
71.13336963142107
 30
0.0
  0
ENDBLK
  5
62F
330
62D
100
AcDbEntity
  8
0
100
AcDbBlockEnd
  0
BLOCK
  5
718
330
717
100
AcDbEntity
  8
0
100
AcDbBlockBegin
  2
*D6
 70
     1
 10
0.0
 20
0.0
 30
0.0
  3
*D6
  1

  0
LINE
  5
7F6
330
717
100
AcDbEntity
  8
Dimension (ANSI)
440
 16777216
100
AcDbLine
 10
19.27256658717928
 20
67.91105969351932
 30
0.0
 11
19.27256658717928
 21
77.19747701635395
 31
0.0
  0
LINE
  5
7F7
330
717
100
AcDbEntity
  8
Dimension (ANSI)
440
 16777216
100
AcDbLine
 10
73.5225665871793
 20
67.91105969351932
 30
0.0
 11
73.5225665871793
 21
77.19747701635395
 31
0.0
  0
LINE
  5
7F8
330
717
100
AcDbEntity
  8
Dimension (ANSI)
440
 16777216
100
AcDbLine
 10
20.25681853339014
 20
75.94747701635395
 30
0.0
 11
44.12384162075636
 21
75.94747701635395
 31
0.0
  0
LINE
  5
7F9
330
717
100
AcDbEntity
  8
Dimension (ANSI)
440
 16777216
100
AcDbLine
 10
72.53831464096844
 20
75.94747701635395
 30
0.0
 11
48.6712915536022
 21
75.94747701635395
 31
0.0
  0
SOLID
  5
7FA
330
717
100
AcDbEntity
  8
Dimension (ANSI)
440
 16777216
100
AcDbTrace
 10
20.25681853339014
 20
76.1115190073891
 30
0.0
 11
20.25681853339014
 21
75.78343502531881
 31
0.0
 12
19.27256658717928
 22
75.94747701635395
 32
0.0
 13
19.27256658717928
 23
75.94747701635395
 33
0.0
  0
SOLID
  5
7FB
330
717
100
AcDbEntity
  8
Dimension (ANSI)
440
 16777216
100
AcDbTrace
 10
72.53831464096844
 20
76.1115190073891
 30
0.0
 11
72.53831464096844
 21
75.78343502531881
 31
0.0
 12
73.5225665871793
 22
75.94747701635395
 32
0.0
 13
73.5225665871793
 23
75.94747701635395
 33
0.0
  0
MTEXT
  5
7FC
330
717
100
AcDbEntity
  8
Dimension (ANSI)
440
 16777216
100
AcDbMText
 10
44.43880225067762
 20
76.5724602473587
 30
0.0
 40
1.200000047683715
 41
0.0
 46
0.0
 71
     1
 72
     1
  1
\A1;54.25
  7
Note Text (ANSI)
 73
     1
 44
1.0
  0
POINT
  5
7FD
330
717
100
AcDbEntity
  8
Defpoints
 62
     0
440
 16777216
100
AcDbPoint
 10
19.27256658717928
 20
67.28605969351932
 30
0.0
  0
POINT
  5
7FE
330
717
100
AcDbEntity
  8
Defpoints
 62
     0
440
 16777216
100
AcDbPoint
 10
73.5225665871793
 20
67.28605969351932
 30
0.0
  0
POINT
  5
7FF
330
717
100
AcDbEntity
  8
Defpoints
 62
     0
440
 16777216
100
AcDbPoint
 10
73.5225665871793
 20
75.94747701635395
 30
0.0
  0
ENDBLK
  5
719
330
717
100
AcDbEntity
  8
0
100
AcDbBlockEnd
  0
BLOCK
  5
802
330
801
100
AcDbEntity
  8
0
100
AcDbBlockBegin
  2
*D7
 70
     1
 10
0.0
 20
0.0
 30
0.0
  3
*D7
  1

  0
LINE
  5
8F5
330
801
100
AcDbEntity
  8
Dimension (ANSI)
440
 16777216
100
AcDbLine
 10
17.98595493482761
 20
35.74955969351933
 30
0.0
 11
15.44469767520522
 21
35.74955969351934
 31
0.0
  0
LINE
  5
8F6
330
801
100
AcDbEntity
  8
Dimension (ANSI)
440
 16777216
100
AcDbLine
 10
17.11606658717926
 20
36.62455969351933
 30
0.0
 11
15.44469767520522
 21
36.62455969351934
 31
0.0
  0
LINE
  5
8F7
330
801
100
AcDbEntity
  8
Dimension (ANSI)
440
 16777216
100
AcDbLine
 10
16.69469767520522
 20
37.60881163973019
 30
0.0
 11
16.69469767520522
 21
38.59306358594106
 31
0.0
  0
LINE
  5
8F8
330
801
100
AcDbEntity
  8
Dimension (ANSI)
440
 16777216
100
AcDbLine
 10
16.69469767520522
 20
34.76530774730847
 30
0.0
 11
16.69469767520522
 21
32.87958303469793
 31
0.0
  0
LINE
  5
8F9
330
801
100
AcDbEntity
  8
Dimension (ANSI)
440
 16777216
100
AcDbLine
 10
16.69469767520522
 20
32.87958303469793
 30
0.0
 11
15.71044572899436
 21
32.87958303469793
 31
0.0
  0
SOLID
  5
8FA
330
801
100
AcDbEntity
  8
Dimension (ANSI)
440
 16777216
100
AcDbTrace
 10
16.53065568417007
 20
37.60881163973019
 30
0.0
 11
16.85873966624036
 21
37.60881163973019
 31
0.0
 12
16.69469767520522
 22
36.62455969351933
 32
0.0
 13
16.69469767520522
 23
36.62455969351933
 33
0.0
  0
SOLID
  5
8FB
330
801
100
AcDbEntity
  8
Dimension (ANSI)
440
 16777216
100
AcDbTrace
 10
16.53065568417007
 20
34.76530774730847
 30
0.0
 11
16.85873966624036
 21
34.76530774730847
 31
0.0
 12
16.69469767520522
 22
35.74955969351933
 32
0.0
 13
16.69469767520522
 23
35.74955969351933
 33
0.0
  0
MTEXT
  5
8FC
330
801
100
AcDbEntity
  8
Dimension (ANSI)
440
 16777216
100
AcDbMText
 10
12.3193265010781
 20
33.50698399580327
 30
0.0
 40
1.200000047683715
 41
0.0
 46
0.0
 71
     1
 72
     1
  1
\A1;0.88
  7
Note Text (ANSI)
 73
     1
 44
1.0
  0
POINT
  5
8FD
330
801
100
AcDbEntity
  8
Defpoints
 62
     0
440
 16777216
100
AcDbPoint
 10
18.61095493482761
 20
35.74955969351933
 30
0.0
  0
POINT
  5
8FE
330
801
100
AcDbEntity
  8
Defpoints
 62
     0
440
 16777216
100
AcDbPoint
 10
17.74106658717926
 20
36.62455969351933
 30
0.0
  0
POINT
  5
8FF
330
801
100
AcDbEntity
  8
Defpoints
 62
     0
440
 16777216
100
AcDbPoint
 10
16.69469767520522
 20
36.62455969351933
 30
0.0
  0
ENDBLK
  5
803
330
801
100
AcDbEntity
  8
0
100
AcDbBlockEnd
  0
BLOCK
  5
902
330
901
100
AcDbEntity
  8
0
100
AcDbBlockBegin
  2
*D8
 70
     1
 10
0.0
 20
0.0
 30
0.0
  3
*D8
  1

  0
LINE
  5
9E0
330
901
100
AcDbEntity
  8
Dimension (ANSI)
440
 16777216
100
AcDbLine
 10
17.11606658717926
 20
36.62455969351933
 30
0.0
 11
12.55405871316353
 21
36.62455969351934
 31
0.0
  0
LINE
  5
9E1
330
901
100
AcDbEntity
  8
Dimension (ANSI)
440
 16777216
100
AcDbLine
 10
17.11606658717927
 20
65.75455969351931
 30
0.0
 11
12.55405871316354
 21
65.75455969351931
 31
0.0
  0
LINE
  5
9E2
330
901
100
AcDbEntity
  8
Dimension (ANSI)
440
 16777216
100
AcDbLine
 10
13.80405871316353
 20
37.6088116397302
 30
0.0
 11
13.80405871316353
 21
50.24961583259331
 31
0.0
  0
LINE
  5
9E3
330
901
100
AcDbEntity
  8
Dimension (ANSI)
440
 16777216
100
AcDbLine
 10
13.80405871316354
 20
64.77030774730845
 30
0.0
 11
13.80405871316354
 21
52.12950355444533
 31
0.0
  0
SOLID
  5
9E4
330
901
100
AcDbEntity
  8
Dimension (ANSI)
440
 16777216
100
AcDbTrace
 10
13.64001672212839
 20
37.6088116397302
 30
0.0
 11
13.96810070419867
 21
37.6088116397302
 31
0.0
 12
13.80405871316353
 22
36.62455969351934
 32
0.0
 13
13.80405871316353
 23
36.62455969351934
 33
0.0
  0
SOLID
  5
9E5
330
901
100
AcDbEntity
  8
Dimension (ANSI)
440
 16777216
100
AcDbTrace
 10
13.64001672212839
 20
64.77030774730845
 30
0.0
 11
13.96810070419868
 21
64.77030774730845
 31
0.0
 12
13.80405871316354
 22
65.75455969351931
 32
0.0
 13
13.80405871316354
 23
65.75455969351931
 33
0.0
  0
MTEXT
  5
9E6
330
901
100
AcDbEntity
  8
Dimension (ANSI)
440
 16777216
100
AcDbMText
 10
11.84287664656127
 20
51.81454292452407
 30
0.0
 40
1.200000047683715
 41
0.0
 46
0.0
 71
     1
 72
     1
  1
\A1;29.13
  7
Note Text (ANSI)
 73
     1
 44
1.0
  0
POINT
  5
9E7
330
901
100
AcDbEntity
  8
Defpoints
 62
     0
440
 16777216
100
AcDbPoint
 10
17.74106658717926
 20
36.62455969351933
 30
0.0
  0
POINT
  5
9E8
330
901
100
AcDbEntity
  8
Defpoints
 62
     0
440
 16777216
100
AcDbPoint
 10
17.74106658717927
 20
65.75455969351931
 30
0.0
  0
POINT
  5
9E9
330
901
100
AcDbEntity
  8
Defpoints
 62
     0
440
 16777216
100
AcDbPoint
 10
13.80405871316354
 20
65.75455969351931
 30
0.0
  0
ENDBLK
  5
903
330
901
100
AcDbEntity
  8
0
100
AcDbBlockEnd
  0
BLOCK
  5
9EC
330
9EB
100
AcDbEntity
  8
0
100
AcDbBlockBegin
  2
*D9
 70
     1
 10
0.0
 20
0.0
 30
0.0
  3
*D9
  1

  0
LINE
  5
ACA
330
9EB
100
AcDbEntity
  8
Dimension (ANSI)
440
 16777216
100
AcDbLine
 10
17.98595493482761
 20
35.74955969351933
 30
0.0
 11
6.337332887583507
 21
35.74955969351934
 31
0.0
  0
LINE
  5
ACB
330
9EB
100
AcDbEntity
  8
Dimension (ANSI)
440
 16777216
100
AcDbLine
 10
17.98595493482759
 20
66.62955969351931
 30
0.0
 11
6.337332887583515
 21
66.62955969351931
 31
0.0
  0
LINE
  5
ACC
330
9EB
100
AcDbEntity
  8
Dimension (ANSI)
440
 16777216
100
AcDbLine
 10
7.587332887583507
 20
36.7338116397302
 30
0.0
 11
7.58733288758351
 21
50.24719810249272
 31
0.0
  0
LINE
  5
ACD
330
9EB
100
AcDbEntity
  8
Dimension (ANSI)
440
 16777216
100
AcDbLine
 10
7.587332887583513
 20
65.64530774730845
 30
0.0
 11
7.58733288758351
 21
52.13192128454593
 31
0.0
  0
SOLID
  5
ACE
330
9EB
100
AcDbEntity
  8
Dimension (ANSI)
440
 16777216
100
AcDbTrace
 10
7.423290896548363
 20
36.7338116397302
 30
0.0
 11
7.75137487861865
 21
36.7338116397302
 31
0.0
 12
7.587332887583507
 22
35.74955969351934
 32
0.0
 13
7.587332887583507
 23
35.74955969351934
 33
0.0
  0
SOLID
  5
ACF
330
9EB
100
AcDbEntity
  8
Dimension (ANSI)
440
 16777216
100
AcDbTrace
 10
7.423290896548369
 20
65.64530774730845
 30
0.0
 11
7.751374878618657
 21
65.64530774730845
 31
0.0
 12
7.587332887583514
 22
66.62955969351931
 32
0.0
 13
7.587332887583514
 23
66.62955969351931
 33
0.0
  0
MTEXT
  5
AD0
330
9EB
100
AcDbEntity
  8
Dimension (ANSI)
440
 16777216
100
AcDbMText
 10
5.604391250075856
 20
51.81696065462467
 30
0.0
 40
1.200000047683715
 41
0.0
 46
0.0
 71
     1
 72
     1
  1
\A1;30.88
  7
Note Text (ANSI)
 73
     1
 44
1.0
  0
POINT
  5
AD1
330
9EB
100
AcDbEntity
  8
Defpoints
 62
     0
440
 16777216
100
AcDbPoint
 10
18.61095493482761
 20
35.74955969351933
 30
0.0
  0
POINT
  5
AD2
330
9EB
100
AcDbEntity
  8
Defpoints
 62
     0
440
 16777216
100
AcDbPoint
 10
18.61095493482759
 20
66.62955969351931
 30
0.0
  0
POINT
  5
AD3
330
9EB
100
AcDbEntity
  8
Defpoints
 62
     0
440
 16777216
100
AcDbPoint
 10
7.587332887583514
 20
66.62955969351931
 30
0.0
  0
ENDBLK
  5
9ED
330
9EB
100
AcDbEntity
  8
0
100
AcDbBlockEnd
  0
BLOCK
  5
AD6
330
AD5
100
AcDbEntity
  8
0
100
AcDbBlockBegin
  2
*D10
 70
     1
 10
0.0
 20
0.0
 30
0.0
  3
*D10
  1

  0
LINE
  5
B87
330
AD5
100
AcDbEntity
  8
Dimension (ANSI)
440
 16777216
100
AcDbLine
 10
77.10981544871278
 20
33.63723932337109
 30
0.0
 11
75.82854022458825
 21
33.63723932337111
 31
0.0
  0
LINE
  5
B88
330
AD5
100
AcDbEntity
  8
Dimension (ANSI)
440
 16777216
100
AcDbLine
 10
75.82854022458825
 20
33.63723932337111
 30
0.0
 11
74.29600117454538
 21
35.62259815313848
 31
0.0
  0
MTEXT
  5
B89
330
AD5
100
AcDbEntity
  8
Dimension (ANSI)
440
 16777216
100
AcDbMText
 10
77.42477607863405
 20
33.63723932337109
 30
0.0
 40
1.200000047683715
 41
0.0
 46
0.0
 71
     4
 72
     1
  1
\A1;∅0.563{\P(6 PL.)}
  7
Note Text (ANSI)
 73
     1
 44
1.0
  0
SOLID
  5
B8A
330
AD5
100
AcDbEntity
  8
Dimension (ANSI)
440
 16777216
100
AcDbTrace
 10
74.42585581669447
 20
35.72283560489733
 30
0.0
 11
74.16614653239631
 21
35.52236070137963
 31
0.0
 12
73.69457646399229
 22
36.40172600603297
 32
0.0
 13
73.69457646399229
 23
36.40172600603297
 33
0.0
  0
LINE
  5
B8B
330
AD5
100
AcDbEntity
  8
Dimension (ANSI)
440
 16777216
100
AcDbLine
 10
72.62256658717928
 20
36.62455969351934
 30
0.0
 11
74.42256658717929
 21
36.62455969351935
 31
0.0
  0
LINE
  5
B8C
330
AD5
100
AcDbEntity
  8
Dimension (ANSI)
440
 16777216
100
AcDbLine
 10
73.5225665871793
 20
35.72455969351935
 30
0.0
 11
73.5225665871793
 21
37.52455969351935
 31
0.0
  0
POINT
  5
B8D
330
AD5
100
AcDbEntity
  8
Defpoints
 62
     0
440
 16777216
100
AcDbPoint
 10
73.69457646399229
 20
36.40172600603297
 30
0.0
  0
POINT
  5
B8E
330
AD5
100
AcDbEntity
  8
Defpoints
 62
     0
440
 16777216
100
AcDbPoint
 10
73.35055671036627
 20
36.8473933810057
 30
0.0
  0
ENDBLK
  5
AD7
330
AD5
100
AcDbEntity
  8
0
100
AcDbBlockEnd
  0
BLOCK
  5
B91
330
B90
100
AcDbEntity
  8
0
100
AcDbBlockBegin
  2
*D11
 70
     1
 10
0.0
 20
0.0
 30
0.0
  3
*D11
  1

  0
LINE
  5
C8F
330
B90
100
AcDbEntity
  8
Dimension (ANSI)
440
 16777216
100
AcDbLine
 10
64.63418028624132
 20
89.62280930551736
 30
0.0
 11
64.63418028624132
 21
88.6385573593065
 31
0.0
  0
LINE
  5
C90
330
B90
100
AcDbEntity
  8
Dimension (ANSI)
440
 16777216
100
AcDbLine
 10
64.63418028624132
 20
92.46631319793912
 30
0.0
 11
64.63418028624132
 21
95.70203792723424
 31
0.0
  0
LINE
  5
C91
330
B90
100
AcDbEntity
  8
Dimension (ANSI)
440
 16777216
100
AcDbLine
 10
64.63418028624132
 20
95.70203792723424
 30
0.0
 11
65.61843223245218
 21
95.70203792723424
 31
0.0
  0
SOLID
  5
C92
330
B90
100
AcDbEntity
  8
Dimension (ANSI)
440
 16777216
100
AcDbTrace
 10
64.47013829520617
 20
89.62280930551736
 30
0.0
 11
64.79822227727646
 21
89.62280930551736
 31
0.0
 12
64.63418028624132
 22
90.60706125172822
 32
0.0
 13
64.63418028624132
 23
90.60706125172822
 33
0.0
  0
SOLID
  5
C93
330
B90
100
AcDbEntity
  8
Dimension (ANSI)
440
 16777216
100
AcDbTrace
 10
64.47013829520617
 20
92.46631319793912
 30
0.0
 11
64.79822227727646
 21
92.46631319793912
 31
0.0
 12
64.63418028624132
 22
91.48206125172826
 32
0.0
 13
64.63418028624132
 23
91.48206125172826
 33
0.0
  0
MTEXT
  5
C94
330
B90
100
AcDbEntity
  8
Dimension (ANSI)
440
 16777216
100
AcDbMText
 10
67.5186178983326
 20
95.70203792723425
 30
0.0
 40
1.200000047683715
 41
0.0
 46
0.0
 71
     5
 72
     1
  1
\A1;0.88{\PTYP.}
  7
Note Text (ANSI)
 73
     1
 44
1.0
  0
POINT
  5
C95
330
B90
100
AcDbEntity
  8
Defpoints
 62
     0
440
 16777216
100
AcDbPoint
 10
67.5186178983326
 20
91.48206125172826
 30
0.0
  0
POINT
  5
C96
330
B90
100
AcDbEntity
  8
Defpoints
 62
     0
440
 16777216
100
AcDbPoint
 10
67.48694788779324
 20
90.60706125172822
 30
0.0
  0
POINT
  5
C97
330
B90
100
AcDbEntity
  8
Defpoints
 62
     0
440
 16777216
100
AcDbPoint
 10
64.63418028624132
 20
90.60706125172822
 30
0.0
  0
ENDBLK
  5
B92
330
B90
100
AcDbEntity
  8
0
100
AcDbBlockEnd
  0
BLOCK
  5
C9A
330
C99
100
AcDbEntity
  8
0
100
AcDbBlockBegin
  2
*D12
 70
     1
 10
0.0
 20
0.0
 30
0.0
  3
*D12
  1

  0
LINE
  5
D7F
330
C99
100
AcDbEntity
  8
Dimension (ANSI)
440
 16777216
100
AcDbLine
 10
92.29050537319341
 20
64.97993423935897
 30
0.0
 11
91.30625342698255
 21
64.97993423935897
 31
0.0
  0
LINE
  5
D80
330
C99
100
AcDbEntity
  8
Dimension (ANSI)
440
 16777216
100
AcDbLine
 10
95.13400926561518
 20
64.97993423935897
 30
0.0
 11
96.67230348953498
 21
64.97993423935897
 31
0.0
  0
SOLID
  5
D81
330
C99
100
AcDbEntity
  8
Dimension (ANSI)
440
 16777216
100
AcDbTrace
 10
92.29050537319341
 20
65.14397623039411
 30
0.0
 11
92.29050537319341
 21
64.81589224832382
 31
0.0
 12
93.27475731940428
 22
64.97993423935897
 32
0.0
 13
93.27475731940428
 23
64.97993423935897
 33
0.0
  0
SOLID
  5
D82
330
C99
100
AcDbEntity
  8
Dimension (ANSI)
440
 16777216
100
AcDbTrace
 10
95.13400926561518
 20
65.14397623039411
 30
0.0
 11
95.13400926561518
 21
64.81589224832382
 31
0.0
 12
94.14975731940431
 22
64.97993423935897
 32
0.0
 13
94.14975731940431
 23
64.97993423935897
 33
0.0
  0
MTEXT
  5
D83
330
C99
100
AcDbEntity
  8
Dimension (ANSI)
440
 16777216
100
AcDbMText
 10
96.98726411945624
 20
64.97993423935897
 30
0.0
 40
1.200000047683715
 41
0.0
 46
0.0
 71
     4
 72
     1
  1
\A1;0.88{\PTYP.}
  7
Note Text (ANSI)
 73
     1
 44
1.0
  0
POINT
  5
D84
330
C99
100
AcDbEntity
  8
Defpoints
 62
     0
440
 16777216
100
AcDbPoint
 10
94.14975731940431
 20
64.97993423935897
 30
0.0
  0
POINT
  5
D85
330
C99
100
AcDbEntity
  8
Defpoints
 62
     0
440
 16777216
100
AcDbPoint
 10
93.27475731940428
 20
65.01136702132815
 30
0.0
  0
POINT
  5
D86
330
C99
100
AcDbEntity
  8
Defpoints
 62
     0
440
 16777216
100
AcDbPoint
 10
93.27475731940428
 20
64.97993423935897
 30
0.0
  0
ENDBLK
  5
C9B
330
C99
100
AcDbEntity
  8
0
100
AcDbBlockEnd
  0
BLOCK
  5
D8C
330
D8B
100
AcDbEntity
  8
0
100
AcDbBlockBegin
  2
*D13
 70
     1
 10
0.0
 20
0.0
 30
0.0
  3
*D13
  1

  0
LINE
  5
E6A
330
D8B
100
AcDbEntity
  8
Dimension (ANSI)
440
 16777216
100
AcDbLine
 10
19.27256658717928
 20
67.91105969351932
 30
0.0
 11
19.27256658717928
 21
72.38855554818376
 31
0.0
  0
LINE
  5
E6B
330
D8B
100
AcDbEntity
  8
Dimension (ANSI)
440
 16777216
100
AcDbLine
 10
46.39756658717927
 20
67.91105969351932
 30
0.0
 11
46.39756658717927
 21
72.38855554818376
 31
0.0
  0
LINE
  5
E6C
330
D8B
100
AcDbEntity
  8
Dimension (ANSI)
440
 16777216
100
AcDbLine
 10
20.25681853339014
 20
71.13855554818376
 30
0.0
 11
25.93280012258018
 21
71.13855554818376
 31
0.0
  0
LINE
  5
E6D
330
D8B
100
AcDbEntity
  8
Dimension (ANSI)
440
 16777216
100
AcDbLine
 10
45.41331464096841
 20
71.13855554818376
 30
0.0
 11
30.48508551562722
 21
71.13855554818376
 31
0.0
  0
SOLID
  5
E6E
330
D8B
100
AcDbEntity
  8
Dimension (ANSI)
440
 16777216
100
AcDbTrace
 10
20.25681853339014
 20
71.3025975392189
 30
0.0
 11
20.25681853339014
 21
70.97451355714861
 31
0.0
 12
19.27256658717928
 22
71.13855554818376
 32
0.0
 13
19.27256658717928
 23
71.13855554818376
 33
0.0
  0
SOLID
  5
E6F
330
D8B
100
AcDbEntity
  8
Dimension (ANSI)
440
 16777216
100
AcDbTrace
 10
45.41331464096841
 20
71.3025975392189
 30
0.0
 11
45.41331464096841
 21
70.97451355714861
 31
0.0
 12
46.39756658717927
 22
71.13855554818376
 32
0.0
 13
46.39756658717927
 23
71.13855554818376
 33
0.0
  0
MTEXT
  5
E70
330
D8B
100
AcDbEntity
  8
Dimension (ANSI)
440
 16777216
100
AcDbMText
 10
26.24776075250144
 20
71.76353877918851
 30
0.0
 40
1.200000047683715
 41
0.0
 46
0.0
 71
     1
 72
     1
  1
\A1;27.13
  7
Note Text (ANSI)
 73
     1
 44
1.0
  0
POINT
  5
E71
330
D8B
100
AcDbEntity
  8
Defpoints
 62
     0
440
 16777216
100
AcDbPoint
 10
19.27256658717928
 20
67.28605969351932
 30
0.0
  0
POINT
  5
E72
330
D8B
100
AcDbEntity
  8
Defpoints
 62
     0
440
 16777216
100
AcDbPoint
 10
46.39756658717927
 20
67.28605969351932
 30
0.0
  0
POINT
  5
E73
330
D8B
100
AcDbEntity
  8
Defpoints
 62
     0
440
 16777216
100
AcDbPoint
 10
46.39756658717927
 20
71.13855554818376
 30
0.0
  0
ENDBLK
  5
D8D
330
D8B
100
AcDbEntity
  8
0
100
AcDbBlockEnd
  0
ENDSEC
  0
SECTION
  2
ENTITIES
  0
CIRCLE
  5
11B
330
6C
100
AcDbEntity
  8
Visible (ANSI)
100
AcDbCircle
 10
46.3975665871793
 20
36.6245596935193
 30
0.0
 40
0.2814999999999999
  0
CIRCLE
  5
11C
330
6C
100
AcDbEntity
  8
Visible (ANSI)
100
AcDbCircle
 10
46.39756658717927
 20
65.75455969351932
 30
0.0
 40
0.2814999999999999
  0
CIRCLE
  5
11D
330
6C
100
AcDbEntity
  8
Visible (ANSI)
100
AcDbCircle
 10
73.5225665871793
 20
65.75455969351932
 30
0.0
 40
0.2814999999999999
  0
CIRCLE
  5
11E
330
6C
100
AcDbEntity
  8
Visible (ANSI)
100
AcDbCircle
 10
19.27256658717928
 20
65.75455969351932
 30
0.0
 40
0.2814999999999999
  0
CIRCLE
  5
11F
330
6C
100
AcDbEntity
  8
Visible (ANSI)
100
AcDbCircle
 10
19.27256658717926
 20
36.62455969351933
 30
0.0
 40
0.2814999999999999
  0
CIRCLE
  5
120
330
6C
100
AcDbEntity
  8
Visible (ANSI)
100
AcDbCircle
 10
73.5225665871793
 20
36.62455969351933
 30
0.0
 40
0.2814999999999999
  0
LINE
  5
121
330
6C
100
AcDbEntity
  8
Visible (ANSI)
100
AcDbLine
 10
74.39756658717929
 20
66.41617134587102
 30
0.0
 11
74.39756658717929
 21
35.96294804116765
 31
0.0
  0
LINE
  5
122
330
6C
100
AcDbEntity
  8
Visible (ANSI)
100
AcDbLine
 10
18.61095493482759
 20
66.62955969351931
 30
0.0
 11
74.18417823953096
 21
66.62955969351934
 31
0.0
  0
LINE
  5
123
330
6C
100
AcDbEntity
  8
Visible (ANSI)
100
AcDbLine
 10
18.39756658717928
 20
35.96294804116765
 30
0.0
 11
18.39756658717927
 21
66.416171345871
 31
0.0
  0
LINE
  5
124
330
6C
100
AcDbEntity
  8
Visible (ANSI)
100
AcDbLine
 10
74.18417823953096
 20
35.74955969351933
 30
0.0
 11
18.61095493482761
 21
35.74955969351933
 31
0.0
  0
LINE
  5
125
330
6C
100
AcDbEntity
  8
Hidden (ANSI)
100
AcDbLine
 10
74.27256658717929
 20
35.96294804116765
 30
0.0
 11
74.27256658717929
 21
66.41617134587102
 31
0.0
  0
LINE
  5
126
330
6C
100
AcDbEntity
  8
Hidden (ANSI)
100
AcDbLine
 10
74.18417823953096
 20
66.50455969351932
 30
0.0
 11
18.61095493482759
 21
66.5045596935193
 31
0.0
  0
LINE
  5
127
330
6C
100
AcDbEntity
  8
Hidden (ANSI)
100
AcDbLine
 10
18.52256658717928
 20
66.416171345871
 30
0.0
 11
18.52256658717928
 21
35.96294804116765
 31
0.0
  0
LINE
  5
128
330
6C
100
AcDbEntity
  8
Hidden (ANSI)
100
AcDbLine
 10
18.61095493482761
 20
35.87455969351933
 30
0.0
 11
74.18417823953096
 21
35.87455969351933
 31
0.0
  0
POLYLINE
  5
129
330
6C
100
AcDbEntity
  8
Visible (ANSI)
100
AcDb2dPolyline
 66
     1
 10
0.0
 20
0.0
 30
0.0
 70
   128
  0
VERTEX
  5
12A
330
129
100
AcDbEntity
  8
Visible (ANSI)
100
AcDbVertex
100
AcDb2dVertex
 10
74.2413163468834
 20
66.47330868908252
 30
0.0
  0
VERTEX
  5
12B
330
129
100
AcDbEntity
  8
Visible (ANSI)
100
AcDbVertex
100
AcDb2dVertex
 10
74.25153492963746
 20
66.4709297597641
 30
0.0
  0
VERTEX
  5
12D
330
129
100
AcDbEntity
  8
Visible (ANSI)
100
AcDbVertex
100
AcDb2dVertex
 10
74.26171146061062
 20
66.46854782674707
 30
0.0
  0
VERTEX
  5
12E
330
129
100
AcDbEntity
  8
Visible (ANSI)
100
AcDbVertex
100
AcDb2dVertex
 10
74.27179788062478
 20
66.46616889742865
 30
0.0
  0
VERTEX
  5
12F
330
129
100
AcDbEntity
  8
Visible (ANSI)
100
AcDbVertex
100
AcDb2dVertex
 10
74.28175814529628
 20
66.46378696441162
 30
0.0
  0
VERTEX
  5
130
330
129
100
AcDbEntity
  8
Visible (ANSI)
100
AcDbVertex
100
AcDb2dVertex
 10
74.291544195447
 20
66.46140503139459
 30
0.0
  0
VERTEX
  5
131
330
129
100
AcDbEntity
  8
Visible (ANSI)
100
AcDbVertex
100
AcDb2dVertex
 10
74.30110797189877
 20
66.45902610207618
 30
0.0
  0
VERTEX
  5
132
330
129
100
AcDbEntity
  8
Visible (ANSI)
100
AcDbVertex
100
AcDb2dVertex
 10
74.31042544506252
 20
66.45664416905915
 30
0.0
  0
VERTEX
  5
133
330
129
100
AcDbEntity
  8
Visible (ANSI)
100
AcDbVertex
100
AcDb2dVertex
 10
74.31944254836285
 20
66.4542622360421
 30
0.0
  0
VERTEX
  5
134
330
129
100
AcDbEntity
  8
Visible (ANSI)
100
AcDbVertex
100
AcDb2dVertex
 10
74.32812323741612
 20
66.45188330672368
 30
0.0
  0
VERTEX
  5
135
330
129
100
AcDbEntity
  8
Visible (ANSI)
100
AcDbVertex
100
AcDb2dVertex
 10
74.336437475236
 20
66.44950137370663
 30
0.0
  0
VERTEX
  5
136
330
129
100
AcDbEntity
  8
Visible (ANSI)
100
AcDbVertex
100
AcDb2dVertex
 10
74.34433720264434
 20
66.44712244438824
 30
0.0
  0
VERTEX
  5
137
330
129
100
AcDbEntity
  8
Visible (ANSI)
100
AcDbVertex
100
AcDb2dVertex
 10
74.35180439744932
 20
66.4447405113712
 30
0.0
  0
VERTEX
  5
138
330
129
100
AcDbEntity
  8
Visible (ANSI)
100
AcDbVertex
100
AcDb2dVertex
 10
74.35879100047284
 20
66.44235857835415
 30
0.0
  0
VERTEX
  5
139
330
129
100
AcDbEntity
  8
Visible (ANSI)
100
AcDbVertex
100
AcDb2dVertex
 10
74.36527898952303
 20
66.43997964903575
 30
0.0
  0
VERTEX
  5
13A
330
129
100
AcDbEntity
  8
Visible (ANSI)
100
AcDbVertex
100
AcDb2dVertex
 10
74.37123232021632
 20
66.4375977160187
 30
0.0
  0
VERTEX
  5
13B
330
129
100
AcDbEntity
  8
Visible (ANSI)
100
AcDbVertex
100
AcDb2dVertex
 10
74.37663297036087
 20
66.4352187867003
 30
0.0
  0
VERTEX
  5
13C
330
129
100
AcDbEntity
  8
Visible (ANSI)
100
AcDbVertex
100
AcDb2dVertex
 10
74.38145090297037
 20
66.43283685368325
 30
0.0
  0
VERTEX
  5
13D
330
129
100
AcDbEntity
  8
Visible (ANSI)
100
AcDbVertex
100
AcDb2dVertex
 10
74.38567410325027
 20
66.43045492066622
 30
0.0
  0
VERTEX
  5
13E
330
129
100
AcDbEntity
  8
Visible (ANSI)
100
AcDbVertex
100
AcDb2dVertex
 10
74.38927253421422
 20
66.42807599134781
 30
0.0
  0
VERTEX
  5
13F
330
129
100
AcDbEntity
  8
Visible (ANSI)
100
AcDbVertex
100
AcDb2dVertex
 10
74.39224018846497
 20
66.42569405833078
 30
0.0
  0
VERTEX
  5
140
330
129
100
AcDbEntity
  8
Visible (ANSI)
100
AcDbVertex
100
AcDb2dVertex
 10
74.39456505120794
 20
66.42331512901236
 30
0.0
  0
VERTEX
  5
141
330
129
100
AcDbEntity
  8
Visible (ANSI)
100
AcDbVertex
100
AcDb2dVertex
 10
74.39622910025137
 20
66.42093319599533
 30
0.0
  0
VERTEX
  5
142
330
129
100
AcDbEntity
  8
Visible (ANSI)
100
AcDbVertex
100
AcDb2dVertex
 10
74.39723233559525
 20
66.4185512629783
 30
0.0
  0
VERTEX
  5
143
330
129
100
AcDbEntity
  8
Visible (ANSI)
100
AcDbVertex
100
AcDb2dVertex
 10
74.39756874984229
 20
66.41617233365988
 30
0.0
  0
SEQEND
  5
12C
330
129
100
AcDbEntity
  8
Visible (ANSI)
  0
POLYLINE
  5
144
330
6C
100
AcDbEntity
  8
Visible (ANSI)
100
AcDb2dPolyline
 66
     1
 10
0.0
 20
0.0
 30
0.0
 70
   128
  0
VERTEX
  5
145
330
144
100
AcDbEntity
  8
Visible (ANSI)
100
AcDbVertex
100
AcDb2dVertex
 10
74.39756874984229
 20
35.96294802950573
 30
0.0
  0
VERTEX
  5
146
330
144
100
AcDbEntity
  8
Visible (ANSI)
100
AcDbVertex
100
AcDb2dVertex
 10
74.39723233559525
 20
35.96056726980847
 30
0.0
  0
VERTEX
  5
148
330
144
100
AcDbEntity
  8
Visible (ANSI)
100
AcDbVertex
100
AcDb2dVertex
 10
74.39622910025137
 20
35.95818651011121
 30
0.0
  0
VERTEX
  5
149
330
144
100
AcDbEntity
  8
Visible (ANSI)
100
AcDbVertex
100
AcDb2dVertex
 10
74.39456505120794
 20
35.95580575041394
 30
0.0
  0
VERTEX
  5
14A
330
144
100
AcDbEntity
  8
Visible (ANSI)
100
AcDbVertex
100
AcDb2dVertex
 10
74.39224018846497
 20
35.95342499071668
 30
0.0
  0
VERTEX
  5
14B
330
144
100
AcDbEntity
  8
Visible (ANSI)
100
AcDbVertex
100
AcDb2dVertex
 10
74.38927253421422
 20
35.95104420755304
 30
0.0
  0
VERTEX
  5
14C
330
144
100
AcDbEntity
  8
Visible (ANSI)
100
AcDbVertex
100
AcDb2dVertex
 10
74.38567410325027
 20
35.94866344785577
 30
0.0
  0
VERTEX
  5
14D
330
144
100
AcDbEntity
  8
Visible (ANSI)
100
AcDbVertex
100
AcDb2dVertex
 10
74.38145090297037
 20
35.94628268815851
 30
0.0
  0
VERTEX
  5
14E
330
144
100
AcDbEntity
  8
Visible (ANSI)
100
AcDbVertex
100
AcDb2dVertex
 10
74.37663297036087
 20
35.94390192846125
 30
0.0
  0
VERTEX
  5
14F
330
144
100
AcDbEntity
  8
Visible (ANSI)
100
AcDbVertex
100
AcDb2dVertex
 10
74.37123232021632
 20
35.94152115703079
 30
0.0
  0
VERTEX
  5
150
330
144
100
AcDbEntity
  8
Visible (ANSI)
100
AcDbVertex
100
AcDb2dVertex
 10
74.36527898952303
 20
35.93914039733353
 30
0.0
  0
VERTEX
  5
151
330
144
100
AcDbEntity
  8
Visible (ANSI)
100
AcDbVertex
100
AcDb2dVertex
 10
74.35879100047284
 20
35.93675963763627
 30
0.0
  0
VERTEX
  5
152
330
144
100
AcDbEntity
  8
Visible (ANSI)
100
AcDbVertex
100
AcDb2dVertex
 10
74.35180439744932
 20
35.93437886620581
 30
0.0
  0
VERTEX
  5
153
330
144
100
AcDbEntity
  8
Visible (ANSI)
100
AcDbVertex
100
AcDb2dVertex
 10
74.34433720264434
 20
35.93199810650855
 30
0.0
  0
VERTEX
  5
154
330
144
100
AcDbEntity
  8
Visible (ANSI)
100
AcDbVertex
100
AcDb2dVertex
 10
74.336437475236
 20
35.92961733507809
 30
0.0
  0
VERTEX
  5
155
330
144
100
AcDbEntity
  8
Visible (ANSI)
100
AcDbVertex
100
AcDb2dVertex
 10
74.32812323741612
 20
35.92723657538083
 30
0.0
  0
VERTEX
  5
156
330
144
100
AcDbEntity
  8
Visible (ANSI)
100
AcDbVertex
100
AcDb2dVertex
 10
74.31944254836285
 20
35.92485580395037
 30
0.0
  0
VERTEX
  5
157
330
144
100
AcDbEntity
  8
Visible (ANSI)
100
AcDbVertex
100
AcDb2dVertex
 10
74.31042544506252
 20
35.92247504425311
 30
0.0
  0
VERTEX
  5
158
330
144
100
AcDbEntity
  8
Visible (ANSI)
100
AcDbVertex
100
AcDb2dVertex
 10
74.30110797189877
 20
35.92009428455585
 30
0.0
  0
VERTEX
  5
159
330
144
100
AcDbEntity
  8
Visible (ANSI)
100
AcDbVertex
100
AcDb2dVertex
 10
74.291544195447
 20
35.91771351312539
 30
0.0
  0
VERTEX
  5
15A
330
144
100
AcDbEntity
  8
Visible (ANSI)
100
AcDbVertex
100
AcDb2dVertex
 10
74.28175814529628
 20
35.91533275342813
 30
0.0
  0
VERTEX
  5
15B
330
144
100
AcDbEntity
  8
Visible (ANSI)
100
AcDbVertex
100
AcDb2dVertex
 10
74.27179788062478
 20
35.91295198199767
 30
0.0
  0
VERTEX
  5
15C
330
144
100
AcDbEntity
  8
Visible (ANSI)
100
AcDbVertex
100
AcDb2dVertex
 10
74.26171146061062
 20
35.91057122230041
 30
0.0
  0
VERTEX
  5
15D
330
144
100
AcDbEntity
  8
Visible (ANSI)
100
AcDbVertex
100
AcDb2dVertex
 10
74.25153492963746
 20
35.90819046260314
 30
0.0
  0
VERTEX
  5
15E
330
144
100
AcDbEntity
  8
Visible (ANSI)
100
AcDbVertex
100
AcDb2dVertex
 10
74.2413163468834
 20
35.90580969117269
 30
0.0
  0
SEQEND
  5
147
330
144
100
AcDbEntity
  8
Visible (ANSI)
  0
POLYLINE
  5
15F
330
6C
100
AcDbEntity
  8
Visible (ANSI)
100
AcDb2dPolyline
 66
     1
 10
0.0
 20
0.0
 30
0.0
 70
   128
  0
VERTEX
  5
160
330
15F
100
AcDbEntity
  8
Visible (ANSI)
100
AcDbVertex
100
AcDb2dVertex
 10
18.55381658483264
 20
66.47330868908252
 30
0.0
  0
VERTEX
  5
161
330
15F
100
AcDbEntity
  8
Visible (ANSI)
100
AcDbVertex
100
AcDb2dVertex
 10
18.5561973562631
 20
66.4835302755352
 30
0.0
  0
VERTEX
  5
163
330
15F
100
AcDbEntity
  8
Visible (ANSI)
100
AcDbVertex
100
AcDb2dVertex
 10
18.55857811596036
 20
66.49370380280974
 30
0.0
  0
VERTEX
  5
164
330
15F
100
AcDbEntity
  8
Visible (ANSI)
100
AcDbVertex
100
AcDb2dVertex
 10
18.56095887565762
 20
66.50379322652253
 30
0.0
  0
VERTEX
  5
165
330
15F
100
AcDbEntity
  8
Visible (ANSI)
100
AcDbVertex
100
AcDb2dVertex
 10
18.56333964708808
 20
66.5137504874954
 30
0.0
  0
VERTEX
  5
166
330
15F
100
AcDbEntity
  8
Visible (ANSI)
100
AcDbVertex
100
AcDb2dVertex
 10
18.56572040678534
 20
66.52353353394747
 30
0.0
  0
VERTEX
  5
167
330
15F
100
AcDbEntity
  8
Visible (ANSI)
100
AcDbVertex
100
AcDb2dVertex
 10
18.5681011782158
 20
66.53310331779653
 30
0.0
  0
VERTEX
  5
168
330
15F
100
AcDbEntity
  8
Visible (ANSI)
100
AcDbVertex
100
AcDb2dVertex
 10
18.57048193791306
 20
66.54241778726164
 30
0.0
  0
VERTEX
  5
169
330
15F
100
AcDbEntity
  8
Visible (ANSI)
100
AcDbVertex
100
AcDb2dVertex
 10
18.57286269761032
 20
66.55143489056197
 30
0.0
  0
VERTEX
  5
16A
330
15F
100
AcDbEntity
  8
Visible (ANSI)
100
AcDbVertex
100
AcDb2dVertex
 10
18.57524346904078
 20
66.56011858331386
 30
0.0
  0
VERTEX
  5
16B
330
15F
100
AcDbEntity
  8
Visible (ANSI)
100
AcDbVertex
100
AcDb2dVertex
 10
18.57762422873804
 20
66.56842981743512
 30
0.0
  0
VERTEX
  5
16C
330
15F
100
AcDbEntity
  8
Visible (ANSI)
100
AcDbVertex
100
AcDb2dVertex
 10
18.5800050001685
 20
66.5763325485421
 30
0.0
  0
VERTEX
  5
16D
330
15F
100
AcDbEntity
  8
Visible (ANSI)
100
AcDbVertex
100
AcDb2dVertex
 10
18.58238575986576
 20
66.58379373594981
 30
0.0
  0
VERTEX
  5
16E
330
15F
100
AcDbEntity
  8
Visible (ANSI)
100
AcDbVertex
100
AcDb2dVertex
 10
18.58476653129622
 20
66.59078334267196
 30
0.0
  0
VERTEX
  5
16F
330
15F
100
AcDbEntity
  8
Visible (ANSI)
100
AcDbVertex
100
AcDb2dVertex
 10
18.58714729099348
 20
66.59727133172215
 30
0.0
  0
VERTEX
  5
170
330
15F
100
AcDbEntity
  8
Visible (ANSI)
100
AcDbVertex
100
AcDb2dVertex
 10
18.58952805069074
 20
66.60322766611407
 30
0.0
  0
VERTEX
  5
171
330
15F
100
AcDbEntity
  8
Visible (ANSI)
100
AcDbVertex
100
AcDb2dVertex
 10
18.5919088221212
 20
66.60862531255999
 30
0.0
  0
VERTEX
  5
172
330
15F
100
AcDbEntity
  8
Visible (ANSI)
100
AcDbVertex
100
AcDb2dVertex
 10
18.59428958181846
 20
66.61344624886813
 30
0.0
  0
VERTEX
  5
173
330
15F
100
AcDbEntity
  8
Visible (ANSI)
100
AcDbVertex
100
AcDb2dVertex
 10
18.59667034151572
 20
66.61766644544939
 30
0.0
  0
VERTEX
  5
174
330
15F
100
AcDbEntity
  8
Visible (ANSI)
100
AcDbVertex
100
AcDb2dVertex
 10
18.59905110121298
 20
66.62126788011197
 30
0.0
  0
VERTEX
  5
175
330
15F
100
AcDbEntity
  8
Visible (ANSI)
100
AcDbVertex
100
AcDb2dVertex
 10
18.60143188437664
 20
66.62423553436273
 30
0.0
  0
VERTEX
  5
176
330
15F
100
AcDbEntity
  8
Visible (ANSI)
100
AcDbVertex
100
AcDb2dVertex
 10
18.6038126440739
 20
66.62655739340706
 30
0.0
  0
VERTEX
  5
177
330
15F
100
AcDbEntity
  8
Visible (ANSI)
100
AcDbVertex
100
AcDb2dVertex
 10
18.60619340377116
 20
66.62822444614914
 30
0.0
  0
VERTEX
  5
178
330
15F
100
AcDbEntity
  8
Visible (ANSI)
100
AcDbVertex
100
AcDb2dVertex
 10
18.60857416346842
 20
66.62922467779437
 30
0.0
  0
VERTEX
  5
179
330
15F
100
AcDbEntity
  8
Visible (ANSI)
100
AcDbVertex
100
AcDb2dVertex
 10
18.61095492316568
 20
66.62956109204142
 30
0.0
  0
SEQEND
  5
162
330
15F
100
AcDbEntity
  8
Visible (ANSI)
  0
POLYLINE
  5
17A
330
6C
100
AcDbEntity
  8
Visible (ANSI)
100
AcDb2dPolyline
 66
     1
 10
0.0
 20
0.0
 30
0.0
 70
   128
  0
VERTEX
  5
17B
330
17A
100
AcDbEntity
  8
Visible (ANSI)
100
AcDbVertex
100
AcDb2dVertex
 10
74.18417999146076
 20
66.62956109204142
 30
0.0
  0
VERTEX
  5
17C
330
17A
100
AcDbEntity
  8
Visible (ANSI)
100
AcDbVertex
100
AcDb2dVertex
 10
74.18655892077918
 20
66.62922467779437
 30
0.0
  0
VERTEX
  5
17E
330
17A
100
AcDbEntity
  8
Visible (ANSI)
100
AcDbVertex
100
AcDb2dVertex
 10
74.18893785009759
 20
66.62822444614914
 30
0.0
  0
VERTEX
  5
17F
330
17A
100
AcDbEntity
  8
Visible (ANSI)
100
AcDbVertex
100
AcDb2dVertex
 10
74.19132278681326
 20
66.62655739340706
 30
0.0
  0
VERTEX
  5
180
330
17A
100
AcDbEntity
  8
Visible (ANSI)
100
AcDbVertex
100
AcDb2dVertex
 10
74.19370171613166
 20
66.62423553436273
 30
0.0
  0
VERTEX
  5
181
330
17A
100
AcDbEntity
  8
Visible (ANSI)
100
AcDbVertex
100
AcDb2dVertex
 10
74.19608064545006
 20
66.62126788011197
 30
0.0
  0
VERTEX
  5
182
330
17A
100
AcDbEntity
  8
Visible (ANSI)
100
AcDbVertex
100
AcDb2dVertex
 10
74.19846558216574
 20
66.61766644544939
 30
0.0
  0
VERTEX
  5
183
330
17A
100
AcDbEntity
  8
Visible (ANSI)
100
AcDbVertex
100
AcDb2dVertex
 10
74.20084451148416
 20
66.61344624886813
 30
0.0
  0
VERTEX
  5
184
330
17A
100
AcDbEntity
  8
Visible (ANSI)
100
AcDbVertex
100
AcDb2dVertex
 10
74.20322344080256
 20
66.60862531255999
 30
0.0
  0
VERTEX
  5
185
330
17A
100
AcDbEntity
  8
Visible (ANSI)
100
AcDbVertex
100
AcDb2dVertex
 10
74.20560237012097
 20
66.60322766611407
 30
0.0
  0
VERTEX
  5
186
330
17A
100
AcDbEntity
  8
Visible (ANSI)
100
AcDbVertex
100
AcDb2dVertex
 10
74.20798730683664
 20
66.59727133172215
 30
0.0
  0
VERTEX
  5
187
330
17A
100
AcDbEntity
  8
Visible (ANSI)
100
AcDbVertex
100
AcDb2dVertex
 10
74.21036623615505
 20
66.59078334267196
 30
0.0
  0
VERTEX
  5
188
330
17A
100
AcDbEntity
  8
Visible (ANSI)
100
AcDbVertex
100
AcDb2dVertex
 10
74.21274516547345
 20
66.58379373594981
 30
0.0
  0
VERTEX
  5
189
330
17A
100
AcDbEntity
  8
Visible (ANSI)
100
AcDbVertex
100
AcDb2dVertex
 10
74.21513010218913
 20
66.5763325485421
 30
0.0
  0
VERTEX
  5
18A
330
17A
100
AcDbEntity
  8
Visible (ANSI)
100
AcDbVertex
100
AcDb2dVertex
 10
74.21750903150753
 20
66.56842981743512
 30
0.0
  0
VERTEX
  5
18B
330
17A
100
AcDbEntity
  8
Visible (ANSI)
100
AcDbVertex
100
AcDb2dVertex
 10
74.21988796082594
 20
66.56011858331386
 30
0.0
  0
VERTEX
  5
18C
330
17A
100
AcDbEntity
  8
Visible (ANSI)
100
AcDbVertex
100
AcDb2dVertex
 10
74.22227289754161
 20
66.55143489056197
 30
0.0
  0
VERTEX
  5
18D
330
17A
100
AcDbEntity
  8
Visible (ANSI)
100
AcDbVertex
100
AcDb2dVertex
 10
74.22465182686003
 20
66.54241778726164
 30
0.0
  0
VERTEX
  5
18E
330
17A
100
AcDbEntity
  8
Visible (ANSI)
100
AcDbVertex
100
AcDb2dVertex
 10
74.22703075617842
 20
66.53310331779653
 30
0.0
  0
VERTEX
  5
18F
330
17A
100
AcDbEntity
  8
Visible (ANSI)
100
AcDbVertex
100
AcDb2dVertex
 10
74.2294156928941
 20
66.52353353394747
 30
0.0
  0
VERTEX
  5
190
330
17A
100
AcDbEntity
  8
Visible (ANSI)
100
AcDbVertex
100
AcDb2dVertex
 10
74.2317946222125
 20
66.5137504874954
 30
0.0
  0
VERTEX
  5
191
330
17A
100
AcDbEntity
  8
Visible (ANSI)
100
AcDbVertex
100
AcDb2dVertex
 10
74.23417355153091
 20
66.50379322652253
 30
0.0
  0
VERTEX
  5
192
330
17A
100
AcDbEntity
  8
Visible (ANSI)
100
AcDbVertex
100
AcDb2dVertex
 10
74.23655248084931
 20
66.49370380280974
 30
0.0
  0
VERTEX
  5
193
330
17A
100
AcDbEntity
  8
Visible (ANSI)
100
AcDbVertex
100
AcDb2dVertex
 10
74.23893741756498
 20
66.4835302755352
 30
0.0
  0
VERTEX
  5
194
330
17A
100
AcDbEntity
  8
Visible (ANSI)
100
AcDbVertex
100
AcDb2dVertex
 10
74.2413163468834
 20
66.47330868908252
 30
0.0
  0
SEQEND
  5
17D
330
17A
100
AcDbEntity
  8
Visible (ANSI)
  0
POLYLINE
  5
195
330
6C
100
AcDbEntity
  8
Visible (ANSI)
100
AcDb2dPolyline
 66
     1
 10
0.0
 20
0.0
 30
0.0
 70
   128
  0
VERTEX
  5
196
330
195
100
AcDbEntity
  8
Visible (ANSI)
100
AcDbVertex
100
AcDb2dVertex
 10
18.55381658483264
 20
35.90580969117269
 30
0.0
  0
VERTEX
  5
197
330
195
100
AcDbEntity
  8
Visible (ANSI)
100
AcDbVertex
100
AcDb2dVertex
 10
18.5435973450195
 20
35.90819046260314
 30
0.0
  0
VERTEX
  5
199
330
195
100
AcDbEntity
  8
Visible (ANSI)
100
AcDbVertex
100
AcDb2dVertex
 10
18.53342187003413
 20
35.91057122230041
 30
0.0
  0
VERTEX
  5
19A
330
195
100
AcDbEntity
  8
Visible (ANSI)
100
AcDbVertex
100
AcDb2dVertex
 10
18.52333372523991
 20
35.91295198199767
 30
0.0
  0
VERTEX
  5
19B
330
195
100
AcDbEntity
  8
Visible (ANSI)
100
AcDbVertex
100
AcDb2dVertex
 10
18.5133761122711
 20
35.91533275342813
 30
0.0
  0
VERTEX
  5
19C
330
195
100
AcDbEntity
  8
Visible (ANSI)
100
AcDbVertex
100
AcDb2dVertex
 10
18.50359166956848
 20
35.91771351312539
 30
0.0
  0
VERTEX
  5
19D
330
195
100
AcDbEntity
  8
Visible (ANSI)
100
AcDbVertex
100
AcDb2dVertex
 10
18.49402230224796
 20
35.92009428455585
 30
0.0
  0
VERTEX
  5
19E
330
195
100
AcDbEntity
  8
Visible (ANSI)
100
AcDbVertex
100
AcDb2dVertex
 10
18.48470897676963
 20
35.92247504425311
 30
0.0
  0
VERTEX
  5
19F
330
195
100
AcDbEntity
  8
Visible (ANSI)
100
AcDbVertex
100
AcDb2dVertex
 10
18.47569158600596
 20
35.92485580395037
 30
0.0
  0
VERTEX
  5
1A0
330
195
100
AcDbEntity
  8
Visible (ANSI)
100
AcDbVertex
100
AcDb2dVertex
 10
18.4670087380443
 20
35.92723657538083
 30
0.0
  0
VERTEX
  5
1A1
330
195
100
AcDbEntity
  8
Visible (ANSI)
100
AcDbVertex
100
AcDb2dVertex
 10
18.45869761538843
 20
35.92961733507809
 30
0.0
  0
VERTEX
  5
1A2
330
195
100
AcDbEntity
  8
Visible (ANSI)
100
AcDbVertex
100
AcDb2dVertex
 10
18.45079380482726
 20
35.93199810650855
 30
0.0
  0
VERTEX
  5
1A3
330
195
100
AcDbEntity
  8
Visible (ANSI)
100
AcDbVertex
100
AcDb2dVertex
 10
18.44333115370311
 20
35.93437886620581
 30
0.0
  0
VERTEX
  5
1A4
330
195
100
AcDbEntity
  8
Visible (ANSI)
100
AcDbVertex
100
AcDb2dVertex
 10
18.43634161738016
 20
35.93675963763627
 30
0.0
  0
VERTEX
  5
1A5
330
195
100
AcDbEntity
  8
Visible (ANSI)
100
AcDbVertex
100
AcDb2dVertex
 10
18.42985512724598
 20
35.93914039733353
 30
0.0
  0
VERTEX
  5
1A6
330
195
100
AcDbEntity
  8
Visible (ANSI)
100
AcDbVertex
100
AcDb2dVertex
 10
18.42389946164634
 20
35.94152115703079
 30
0.0
  0
VERTEX
  5
1A7
330
195
100
AcDbEntity
  8
Visible (ANSI)
100
AcDbVertex
100
AcDb2dVertex
 10
18.41850011828668
 20
35.94390192846125
 30
0.0
  0
VERTEX
  5
1A8
330
195
100
AcDbEntity
  8
Visible (ANSI)
100
AcDbVertex
100
AcDb2dVertex
 10
18.4136802218332
 20
35.94628268815851
 30
0.0
  0
VERTEX
  5
1A9
330
195
100
AcDbEntity
  8
Visible (ANSI)
100
AcDbVertex
100
AcDb2dVertex
 10
18.40946041024749
 20
35.94866344785577
 30
0.0
  0
VERTEX
  5
1AA
330
195
100
AcDbEntity
  8
Visible (ANSI)
100
AcDbVertex
100
AcDb2dVertex
 10
18.40585875412079
 20
35.95104420755304
 30
0.0
  0
VERTEX
  5
1AB
330
195
100
AcDbEntity
  8
Visible (ANSI)
100
AcDbVertex
100
AcDb2dVertex
 10
18.40289067674161
 20
35.95342499071668
 30
0.0
  0
VERTEX
  5
1AC
330
195
100
AcDbEntity
  8
Visible (ANSI)
100
AcDbVertex
100
AcDb2dVertex
 10
18.40056888717979
 20
35.95580575041394
 30
0.0
  0
VERTEX
  5
1AD
330
195
100
AcDbEntity
  8
Visible (ANSI)
100
AcDbVertex
100
AcDb2dVertex
 10
18.39890332757881
 20
35.95818651011121
 30
0.0
  0
VERTEX
  5
1AE
330
195
100
AcDbEntity
  8
Visible (ANSI)
100
AcDbVertex
100
AcDb2dVertex
 10
18.39790113041669
 20
35.96056726980847
 30
0.0
  0
VERTEX
  5
1AF
330
195
100
AcDbEntity
  8
Visible (ANSI)
100
AcDbVertex
100
AcDb2dVertex
 10
18.39756658717928
 20
35.96294802950573
 30
0.0
  0
SEQEND
  5
198
330
195
100
AcDbEntity
  8
Visible (ANSI)
  0
POLYLINE
  5
1B0
330
6C
100
AcDbEntity
  8
Visible (ANSI)
100
AcDb2dPolyline
 66
     1
 10
0.0
 20
0.0
 30
0.0
 70
   128
  0
VERTEX
  5
1B1
330
1B0
100
AcDbEntity
  8
Visible (ANSI)
100
AcDbVertex
100
AcDb2dVertex
 10
18.39756658717927
 20
66.41617233365988
 30
0.0
  0
VERTEX
  5
1B2
330
1B0
100
AcDbEntity
  8
Visible (ANSI)
100
AcDbVertex
100
AcDb2dVertex
 10
18.39790113041669
 20
66.4185512629783
 30
0.0
  0
VERTEX
  5
1B4
330
1B0
100
AcDbEntity
  8
Visible (ANSI)
100
AcDbVertex
100
AcDb2dVertex
 10
18.39890332757881
 20
66.42093319599533
 30
0.0
  0
VERTEX
  5
1B5
330
1B0
100
AcDbEntity
  8
Visible (ANSI)
100
AcDbVertex
100
AcDb2dVertex
 10
18.40056888717979
 20
66.42331512901236
 30
0.0
  0
VERTEX
  5
1B6
330
1B0
100
AcDbEntity
  8
Visible (ANSI)
100
AcDbVertex
100
AcDb2dVertex
 10
18.40289067674161
 20
66.42569405833078
 30
0.0
  0
VERTEX
  5
1B7
330
1B0
100
AcDbEntity
  8
Visible (ANSI)
100
AcDbVertex
100
AcDb2dVertex
 10
18.40585875412079
 20
66.42807599134781
 30
0.0
  0
VERTEX
  5
1B8
330
1B0
100
AcDbEntity
  8
Visible (ANSI)
100
AcDbVertex
100
AcDb2dVertex
 10
18.40946041024749
 20
66.43045492066622
 30
0.0
  0
VERTEX
  5
1B9
330
1B0
100
AcDbEntity
  8
Visible (ANSI)
100
AcDbVertex
100
AcDb2dVertex
 10
18.4136802218332
 20
66.43283685368325
 30
0.0
  0
VERTEX
  5
1BA
330
1B0
100
AcDbEntity
  8
Visible (ANSI)
100
AcDbVertex
100
AcDb2dVertex
 10
18.41850011828668
 20
66.4352187867003
 30
0.0
  0
VERTEX
  5
1BB
330
1B0
100
AcDbEntity
  8
Visible (ANSI)
100
AcDbVertex
100
AcDb2dVertex
 10
18.42389946164634
 20
66.4375977160187
 30
0.0
  0
VERTEX
  5
1BC
330
1B0
100
AcDbEntity
  8
Visible (ANSI)
100
AcDbVertex
100
AcDb2dVertex
 10
18.42985512724598
 20
66.43997964903575
 30
0.0
  0
VERTEX
  5
1BD
330
1B0
100
AcDbEntity
  8
Visible (ANSI)
100
AcDbVertex
100
AcDb2dVertex
 10
18.43634161738016
 20
66.44235857835415
 30
0.0
  0
VERTEX
  5
1BE
330
1B0
100
AcDbEntity
  8
Visible (ANSI)
100
AcDbVertex
100
AcDb2dVertex
 10
18.44333115370311
 20
66.4447405113712
 30
0.0
  0
VERTEX
  5
1BF
330
1B0
100
AcDbEntity
  8
Visible (ANSI)
100
AcDbVertex
100
AcDb2dVertex
 10
18.45079380482726
 20
66.44712244438824
 30
0.0
  0
VERTEX
  5
1C0
330
1B0
100
AcDbEntity
  8
Visible (ANSI)
100
AcDbVertex
100
AcDb2dVertex
 10
18.45869761538843
 20
66.44950137370663
 30
0.0
  0
VERTEX
  5
1C1
330
1B0
100
AcDbEntity
  8
Visible (ANSI)
100
AcDbVertex
100
AcDb2dVertex
 10
18.4670087380443
 20
66.45188330672368
 30
0.0
  0
VERTEX
  5
1C2
330
1B0
100
AcDbEntity
  8
Visible (ANSI)
100
AcDbVertex
100
AcDb2dVertex
 10
18.47569158600596
 20
66.4542622360421
 30
0.0
  0
VERTEX
  5
1C3
330
1B0
100
AcDbEntity
  8
Visible (ANSI)
100
AcDbVertex
100
AcDb2dVertex
 10
18.48470897676963
 20
66.45664416905915
 30
0.0
  0
VERTEX
  5
1C4
330
1B0
100
AcDbEntity
  8
Visible (ANSI)
100
AcDbVertex
100
AcDb2dVertex
 10
18.49402230224796
 20
66.45902610207618
 30
0.0
  0
VERTEX
  5
1C5
330
1B0
100
AcDbEntity
  8
Visible (ANSI)
100
AcDbVertex
100
AcDb2dVertex
 10
18.50359166956848
 20
66.46140503139459
 30
0.0
  0
VERTEX
  5
1C6
330
1B0
100
AcDbEntity
  8
Visible (ANSI)
100
AcDbVertex
100
AcDb2dVertex
 10
18.5133761122711
 20
66.46378696441162
 30
0.0
  0
VERTEX
  5
1C7
330
1B0
100
AcDbEntity
  8
Visible (ANSI)
100
AcDbVertex
100
AcDb2dVertex
 10
18.52333372523991
 20
66.46616889742865
 30
0.0
  0
VERTEX
  5
1C8
330
1B0
100
AcDbEntity
  8
Visible (ANSI)
100
AcDbVertex
100
AcDb2dVertex
 10
18.53342187003413
 20
66.46854782674707
 30
0.0
  0
VERTEX
  5
1C9
330
1B0
100
AcDbEntity
  8
Visible (ANSI)
100
AcDbVertex
100
AcDb2dVertex
 10
18.5435973450195
 20
66.4709297597641
 30
0.0
  0
VERTEX
  5
1CA
330
1B0
100
AcDbEntity
  8
Visible (ANSI)
100
AcDbVertex
100
AcDb2dVertex
 10
18.55381658483264
 20
66.47330868908252
 30
0.0
  0
SEQEND
  5
1B3
330
1B0
100
AcDbEntity
  8
Visible (ANSI)
  0
POLYLINE
  5
1CB
330
6C
100
AcDbEntity
  8
Visible (ANSI)
100
AcDb2dPolyline
 66
     1
 10
0.0
 20
0.0
 30
0.0
 70
   128
  0
VERTEX
  5
1CC
330
1CB
100
AcDbEntity
  8
Visible (ANSI)
100
AcDbVertex
100
AcDb2dVertex
 10
74.2413163468834
 20
35.90580969117269
 30
0.0
  0
VERTEX
  5
1CD
330
1CB
100
AcDbEntity
  8
Visible (ANSI)
100
AcDbVertex
100
AcDb2dVertex
 10
74.23893741756498
 20
35.89559045135955
 30
0.0
  0
VERTEX
  5
1CF
330
1CB
100
AcDbEntity
  8
Visible (ANSI)
100
AcDbVertex
100
AcDb2dVertex
 10
74.23655248084931
 20
35.88541497637417
 30
0.0
  0
VERTEX
  5
1D0
330
1CB
100
AcDbEntity
  8
Visible (ANSI)
100
AcDbVertex
100
AcDb2dVertex
 10
74.23417355153091
 20
35.87532683157995
 30
0.0
  0
VERTEX
  5
1D1
330
1CB
100
AcDbEntity
  8
Visible (ANSI)
100
AcDbVertex
100
AcDb2dVertex
 10
74.2317946222125
 20
35.86536921861114
 30
0.0
  0
VERTEX
  5
1D2
330
1CB
100
AcDbEntity
  8
Visible (ANSI)
100
AcDbVertex
100
AcDb2dVertex
 10
74.2294156928941
 20
35.85558477590853
 30
0.0
  0
VERTEX
  5
1D3
330
1CB
100
AcDbEntity
  8
Visible (ANSI)
100
AcDbVertex
100
AcDb2dVertex
 10
74.22703075617842
 20
35.84601540858802
 30
0.0
  0
VERTEX
  5
1D4
330
1CB
100
AcDbEntity
  8
Visible (ANSI)
100
AcDbVertex
100
AcDb2dVertex
 10
74.22465182686003
 20
35.83670208310967
 30
0.0
  0
VERTEX
  5
1D5
330
1CB
100
AcDbEntity
  8
Visible (ANSI)
100
AcDbVertex
100
AcDb2dVertex
 10
74.22227289754161
 20
35.82768469234601
 30
0.0
  0
VERTEX
  5
1D6
330
1CB
100
AcDbEntity
  8
Visible (ANSI)
100
AcDbVertex
100
AcDb2dVertex
 10
74.21988796082594
 20
35.81900184438435
 30
0.0
  0
VERTEX
  5
1D7
330
1CB
100
AcDbEntity
  8
Visible (ANSI)
100
AcDbVertex
100
AcDb2dVertex
 10
74.21750903150753
 20
35.81069072172848
 30
0.0
  0
VERTEX
  5
1D8
330
1CB
100
AcDbEntity
  8
Visible (ANSI)
100
AcDbVertex
100
AcDb2dVertex
 10
74.21513010218913
 20
35.8027869111673
 30
0.0
  0
VERTEX
  5
1D9
330
1CB
100
AcDbEntity
  8
Visible (ANSI)
100
AcDbVertex
100
AcDb2dVertex
 10
74.21274516547345
 20
35.79532426004315
 30
0.0
  0
VERTEX
  5
1DA
330
1CB
100
AcDbEntity
  8
Visible (ANSI)
100
AcDbVertex
100
AcDb2dVertex
 10
74.21036623615505
 20
35.7883347237202
 30
0.0
  0
VERTEX
  5
1DB
330
1CB
100
AcDbEntity
  8
Visible (ANSI)
100
AcDbVertex
100
AcDb2dVertex
 10
74.20798730683664
 20
35.78184823358603
 30
0.0
  0
VERTEX
  5
1DC
330
1CB
100
AcDbEntity
  8
Visible (ANSI)
100
AcDbVertex
100
AcDb2dVertex
 10
74.20560237012097
 20
35.77589256798638
 30
0.0
  0
VERTEX
  5
1DD
330
1CB
100
AcDbEntity
  8
Visible (ANSI)
100
AcDbVertex
100
AcDb2dVertex
 10
74.20322344080256
 20
35.77049322462673
 30
0.0
  0
VERTEX
  5
1DE
330
1CB
100
AcDbEntity
  8
Visible (ANSI)
100
AcDbVertex
100
AcDb2dVertex
 10
74.20084451148416
 20
35.76567332817325
 30
0.0
  0
VERTEX
  5
1DF
330
1CB
100
AcDbEntity
  8
Visible (ANSI)
100
AcDbVertex
100
AcDb2dVertex
 10
74.19846558216574
 20
35.76145351658754
 30
0.0
  0
VERTEX
  5
1E0
330
1CB
100
AcDbEntity
  8
Visible (ANSI)
100
AcDbVertex
100
AcDb2dVertex
 10
74.19608064545006
 20
35.75785186046085
 30
0.0
  0
VERTEX
  5
1E1
330
1CB
100
AcDbEntity
  8
Visible (ANSI)
100
AcDbVertex
100
AcDb2dVertex
 10
74.19370171613166
 20
35.75488378308167
 30
0.0
  0
VERTEX
  5
1E2
330
1CB
100
AcDbEntity
  8
Visible (ANSI)
100
AcDbVertex
100
AcDb2dVertex
 10
74.19132278681326
 20
35.75256199351983
 30
0.0
  0
VERTEX
  5
1E3
330
1CB
100
AcDbEntity
  8
Visible (ANSI)
100
AcDbVertex
100
AcDb2dVertex
 10
74.18893785009759
 20
35.75089643391886
 30
0.0
  0
VERTEX
  5
1E4
330
1CB
100
AcDbEntity
  8
Visible (ANSI)
100
AcDbVertex
100
AcDb2dVertex
 10
74.18655892077918
 20
35.74989423675674
 30
0.0
  0
VERTEX
  5
1E5
330
1CB
100
AcDbEntity
  8
Visible (ANSI)
100
AcDbVertex
100
AcDb2dVertex
 10
74.18417999146076
 20
35.74955969351933
 30
0.0
  0
SEQEND
  5
1CE
330
1CB
100
AcDbEntity
  8
Visible (ANSI)
  0
POLYLINE
  5
1E6
330
6C
100
AcDbEntity
  8
Visible (ANSI)
100
AcDb2dPolyline
 66
     1
 10
0.0
 20
0.0
 30
0.0
 70
   128
  0
VERTEX
  5
1E7
330
1E6
100
AcDbEntity
  8
Visible (ANSI)
100
AcDbVertex
100
AcDb2dVertex
 10
18.61095492316568
 20
35.74955969351933
 30
0.0
  0
VERTEX
  5
1E8
330
1E6
100
AcDbEntity
  8
Visible (ANSI)
100
AcDbVertex
100
AcDb2dVertex
 10
18.60857416346842
 20
35.74989423675674
 30
0.0
  0
VERTEX
  5
1EA
330
1E6
100
AcDbEntity
  8
Visible (ANSI)
100
AcDbVertex
100
AcDb2dVertex
 10
18.60619340377116
 20
35.75089643391886
 30
0.0
  0
VERTEX
  5
1EB
330
1E6
100
AcDbEntity
  8
Visible (ANSI)
100
AcDbVertex
100
AcDb2dVertex
 10
18.6038126440739
 20
35.75256199351983
 30
0.0
  0
VERTEX
  5
1EC
330
1E6
100
AcDbEntity
  8
Visible (ANSI)
100
AcDbVertex
100
AcDb2dVertex
 10
18.60143188437664
 20
35.75488378308167
 30
0.0
  0
VERTEX
  5
1ED
330
1E6
100
AcDbEntity
  8
Visible (ANSI)
100
AcDbVertex
100
AcDb2dVertex
 10
18.59905110121298
 20
35.75785186046085
 30
0.0
  0
VERTEX
  5
1EE
330
1E6
100
AcDbEntity
  8
Visible (ANSI)
100
AcDbVertex
100
AcDb2dVertex
 10
18.59667034151572
 20
35.76145351658754
 30
0.0
  0
VERTEX
  5
1EF
330
1E6
100
AcDbEntity
  8
Visible (ANSI)
100
AcDbVertex
100
AcDb2dVertex
 10
18.59428958181846
 20
35.76567332817325
 30
0.0
  0
VERTEX
  5
1F0
330
1E6
100
AcDbEntity
  8
Visible (ANSI)
100
AcDbVertex
100
AcDb2dVertex
 10
18.5919088221212
 20
35.77049322462673
 30
0.0
  0
VERTEX
  5
1F1
330
1E6
100
AcDbEntity
  8
Visible (ANSI)
100
AcDbVertex
100
AcDb2dVertex
 10
18.58952805069074
 20
35.77589256798638
 30
0.0
  0
VERTEX
  5
1F2
330
1E6
100
AcDbEntity
  8
Visible (ANSI)
100
AcDbVertex
100
AcDb2dVertex
 10
18.58714729099348
 20
35.78184823358603
 30
0.0
  0
VERTEX
  5
1F3
330
1E6
100
AcDbEntity
  8
Visible (ANSI)
100
AcDbVertex
100
AcDb2dVertex
 10
18.58476653129622
 20
35.7883347237202
 30
0.0
  0
VERTEX
  5
1F4
330
1E6
100
AcDbEntity
  8
Visible (ANSI)
100
AcDbVertex
100
AcDb2dVertex
 10
18.58238575986576
 20
35.79532426004315
 30
0.0
  0
VERTEX
  5
1F5
330
1E6
100
AcDbEntity
  8
Visible (ANSI)
100
AcDbVertex
100
AcDb2dVertex
 10
18.5800050001685
 20
35.8027869111673
 30
0.0
  0
VERTEX
  5
1F6
330
1E6
100
AcDbEntity
  8
Visible (ANSI)
100
AcDbVertex
100
AcDb2dVertex
 10
18.57762422873804
 20
35.81069072172848
 30
0.0
  0
VERTEX
  5
1F7
330
1E6
100
AcDbEntity
  8
Visible (ANSI)
100
AcDbVertex
100
AcDb2dVertex
 10
18.57524346904078
 20
35.81900184438435
 30
0.0
  0
VERTEX
  5
1F8
330
1E6
100
AcDbEntity
  8
Visible (ANSI)
100
AcDbVertex
100
AcDb2dVertex
 10
18.57286269761032
 20
35.82768469234601
 30
0.0
  0
VERTEX
  5
1F9
330
1E6
100
AcDbEntity
  8
Visible (ANSI)
100
AcDbVertex
100
AcDb2dVertex
 10
18.57048193791306
 20
35.83670208310967
 30
0.0
  0
VERTEX
  5
1FA
330
1E6
100
AcDbEntity
  8
Visible (ANSI)
100
AcDbVertex
100
AcDb2dVertex
 10
18.5681011782158
 20
35.84601540858802
 30
0.0
  0
VERTEX
  5
1FB
330
1E6
100
AcDbEntity
  8
Visible (ANSI)
100
AcDbVertex
100
AcDb2dVertex
 10
18.56572040678534
 20
35.85558477590853
 30
0.0
  0
VERTEX
  5
1FC
330
1E6
100
AcDbEntity
  8
Visible (ANSI)
100
AcDbVertex
100
AcDb2dVertex
 10
18.56333964708808
 20
35.86536921861114
 30
0.0
  0
VERTEX
  5
1FD
330
1E6
100
AcDbEntity
  8
Visible (ANSI)
100
AcDbVertex
100
AcDb2dVertex
 10
18.56095887565762
 20
35.87532683157995
 30
0.0
  0
VERTEX
  5
1FE
330
1E6
100
AcDbEntity
  8
Visible (ANSI)
100
AcDbVertex
100
AcDb2dVertex
 10
18.55857811596036
 20
35.88541497637417
 30
0.0
  0
VERTEX
  5
1FF
330
1E6
100
AcDbEntity
  8
Visible (ANSI)
100
AcDbVertex
100
AcDb2dVertex
 10
18.5561973562631
 20
35.89559045135955
 30
0.0
  0
VERTEX
  5
200
330
1E6
100
AcDbEntity
  8
Visible (ANSI)
100
AcDbVertex
100
AcDb2dVertex
 10
18.55381658483264
 20
35.90580969117269
 30
0.0
  0
SEQEND
  5
1E9
330
1E6
100
AcDbEntity
  8
Visible (ANSI)
  0
LINE
  5
201
330
6C
100
AcDbEntity
  8
Hidden (ANSI)
100
AcDbLine
 10
74.27256658717929
 20
35.96294804116765
 30
0.0
 11
74.39756658717929
 21
35.96294804116765
 31
0.0
  0
POLYLINE
  5
202
330
6C
100
AcDbEntity
  8
Hidden (ANSI)
100
AcDb2dPolyline
 66
     1
 10
0.0
 20
0.0
 30
0.0
 70
   128
  0
VERTEX
  5
203
330
202
100
AcDbEntity
  8
Hidden (ANSI)
100
AcDbVertex
100
AcDb2dVertex
 10
74.2413163468834
 20
35.90580969117269
 30
0.0
  0
VERTEX
  5
204
330
202
100
AcDbEntity
  8
Hidden (ANSI)
100
AcDbVertex
100
AcDb2dVertex
 10
74.24335886195475
 20
35.90819046260314
 30
0.0
  0
VERTEX
  5
206
330
202
100
AcDbEntity
  8
Hidden (ANSI)
100
AcDbVertex
100
AcDb2dVertex
 10
74.24539536962884
 20
35.91057122230041
 30
0.0
  0
VERTEX
  5
207
330
202
100
AcDbEntity
  8
Hidden (ANSI)
100
AcDbVertex
100
AcDb2dVertex
 10
74.24741385511111
 20
35.91295198199767
 30
0.0
  0
VERTEX
  5
208
330
202
100
AcDbEntity
  8
Hidden (ANSI)
100
AcDbVertex
100
AcDb2dVertex
 10
74.24940230360707
 20
35.91533275342813
 30
0.0
  0
VERTEX
  5
209
330
202
100
AcDbEntity
  8
Hidden (ANSI)
100
AcDbVertex
100
AcDb2dVertex
 10
74.25136071511666
 20
35.91771351312539
 30
0.0
  0
VERTEX
  5
20A
330
202
100
AcDbEntity
  8
Hidden (ANSI)
100
AcDbVertex
100
AcDb2dVertex
 10
74.25327707484538
 20
35.92009428455585
 30
0.0
  0
VERTEX
  5
20B
330
202
100
AcDbEntity
  8
Hidden (ANSI)
100
AcDbVertex
100
AcDb2dVertex
 10
74.25513936799868
 20
35.92247504425311
 30
0.0
  0
VERTEX
  5
20C
330
202
100
AcDbEntity
  8
Hidden (ANSI)
100
AcDbVertex
100
AcDb2dVertex
 10
74.25694158717928
 20
35.92485580395037
 30
0.0
  0
VERTEX
  5
20D
330
202
100
AcDbEntity
  8
Hidden (ANSI)
100
AcDbVertex
100
AcDb2dVertex
 10
74.25867772498993
 20
35.92723657538083
 30
0.0
  0
VERTEX
  5
20E
330
202
100
AcDbEntity
  8
Hidden (ANSI)
100
AcDbVertex
100
AcDb2dVertex
 10
74.26034177403336
 20
35.92961733507809
 30
0.0
  0
VERTEX
  5
20F
330
202
100
AcDbEntity
  8
Hidden (ANSI)
100
AcDbVertex
100
AcDb2dVertex
 10
74.26192171951503
 20
35.93199810650855
 30
0.0
  0
VERTEX
  5
210
330
202
100
AcDbEntity
  8
Hidden (ANSI)
100
AcDbVertex
100
AcDb2dVertex
 10
74.26341155403767
 20
35.93437886620581
 30
0.0
  0
VERTEX
  5
211
330
202
100
AcDbEntity
  8
Hidden (ANSI)
100
AcDbVertex
100
AcDb2dVertex
 10
74.26481127760128
 20
35.93675963763627
 30
0.0
  0
VERTEX
  5
212
330
202
100
AcDbEntity
  8
Hidden (ANSI)
100
AcDbVertex
100
AcDb2dVertex
 10
74.26610887541132
 20
35.93914039733353
 30
0.0
  0
VERTEX
  5
213
330
202
100
AcDbEntity
  8
Hidden (ANSI)
100
AcDbVertex
100
AcDb2dVertex
 10
74.26729834007052
 20
35.94152115703079
 30
0.0
  0
VERTEX
  5
214
330
202
100
AcDbEntity
  8
Hidden (ANSI)
100
AcDbVertex
100
AcDb2dVertex
 10
74.26837967157888
 20
35.94390192846125
 30
0.0
  0
VERTEX
  5
215
330
202
100
AcDbEntity
  8
Hidden (ANSI)
100
AcDbVertex
100
AcDb2dVertex
 10
74.26934686253915
 20
35.94628268815851
 30
0.0
  0
VERTEX
  5
216
330
202
100
AcDbEntity
  8
Hidden (ANSI)
100
AcDbVertex
100
AcDb2dVertex
 10
74.27018789815678
 20
35.94866344785577
 30
0.0
  0
VERTEX
  5
217
330
202
100
AcDbEntity
  8
Hidden (ANSI)
100
AcDbVertex
100
AcDb2dVertex
 10
74.27090878582902
 20
35.95104420755304
 30
0.0
  0
VERTEX
  5
218
330
202
100
AcDbEntity
  8
Hidden (ANSI)
100
AcDbVertex
100
AcDb2dVertex
 10
74.27150351815861
 20
35.95342499071668
 30
0.0
  0
VERTEX
  5
219
330
202
100
AcDbEntity
  8
Hidden (ANSI)
100
AcDbVertex
100
AcDb2dVertex
 10
74.2719660877483
 20
35.95580575041394
 30
0.0
  0
VERTEX
  5
21A
330
202
100
AcDbEntity
  8
Hidden (ANSI)
100
AcDbVertex
100
AcDb2dVertex
 10
74.27229649459808
 20
35.95818651011121
 30
0.0
  0
VERTEX
  5
21B
330
202
100
AcDbEntity
  8
Hidden (ANSI)
100
AcDbVertex
100
AcDb2dVertex
 10
74.27250074610523
 20
35.96056726980847
 30
0.0
  0
VERTEX
  5
21C
330
202
100
AcDbEntity
  8
Hidden (ANSI)
100
AcDbVertex
100
AcDb2dVertex
 10
74.27256682747517
 20
35.96294802950573
 30
0.0
  0
SEQEND
  5
205
330
202
100
AcDbEntity
  8
Hidden (ANSI)
  0
LINE
  5
21D
330
6C
100
AcDbEntity
  8
Hidden (ANSI)
100
AcDbLine
 10
74.27256658717929
 20
66.41617134587102
 30
0.0
 11
74.39756658717929
 21
66.41617134587102
 31
0.0
  0
POLYLINE
  5
21E
330
6C
100
AcDbEntity
  8
Hidden (ANSI)
100
AcDb2dPolyline
 66
     1
 10
0.0
 20
0.0
 30
0.0
 70
   128
  0
VERTEX
  5
21F
330
21E
100
AcDbEntity
  8
Hidden (ANSI)
100
AcDbVertex
100
AcDb2dVertex
 10
74.2413163468834
 20
66.47330868908252
 30
0.0
  0
VERTEX
  5
220
330
21E
100
AcDbEntity
  8
Hidden (ANSI)
100
AcDbVertex
100
AcDb2dVertex
 10
74.24335886195475
 20
66.4709297597641
 30
0.0
  0
VERTEX
  5
222
330
21E
100
AcDbEntity
  8
Hidden (ANSI)
100
AcDbVertex
100
AcDb2dVertex
 10
74.24539536962884
 20
66.46854782674707
 30
0.0
  0
VERTEX
  5
223
330
21E
100
AcDbEntity
  8
Hidden (ANSI)
100
AcDbVertex
100
AcDb2dVertex
 10
74.24741385511111
 20
66.46616889742865
 30
0.0
  0
VERTEX
  5
224
330
21E
100
AcDbEntity
  8
Hidden (ANSI)
100
AcDbVertex
100
AcDb2dVertex
 10
74.24940230360707
 20
66.46378696441162
 30
0.0
  0
VERTEX
  5
225
330
21E
100
AcDbEntity
  8
Hidden (ANSI)
100
AcDbVertex
100
AcDb2dVertex
 10
74.25136071511666
 20
66.46140503139459
 30
0.0
  0
VERTEX
  5
226
330
21E
100
AcDbEntity
  8
Hidden (ANSI)
100
AcDbVertex
100
AcDb2dVertex
 10
74.25327707484538
 20
66.45902610207618
 30
0.0
  0
VERTEX
  5
227
330
21E
100
AcDbEntity
  8
Hidden (ANSI)
100
AcDbVertex
100
AcDb2dVertex
 10
74.25513936799868
 20
66.45664416905915
 30
0.0
  0
VERTEX
  5
228
330
21E
100
AcDbEntity
  8
Hidden (ANSI)
100
AcDbVertex
100
AcDb2dVertex
 10
74.25694158717928
 20
66.4542622360421
 30
0.0
  0
VERTEX
  5
229
330
21E
100
AcDbEntity
  8
Hidden (ANSI)
100
AcDbVertex
100
AcDb2dVertex
 10
74.25867772498993
 20
66.45188330672368
 30
0.0
  0
VERTEX
  5
22A
330
21E
100
AcDbEntity
  8
Hidden (ANSI)
100
AcDbVertex
100
AcDb2dVertex
 10
74.26034177403336
 20
66.44950137370663
 30
0.0
  0
VERTEX
  5
22B
330
21E
100
AcDbEntity
  8
Hidden (ANSI)
100
AcDbVertex
100
AcDb2dVertex
 10
74.26192171951503
 20
66.44712244438824
 30
0.0
  0
VERTEX
  5
22C
330
21E
100
AcDbEntity
  8
Hidden (ANSI)
100
AcDbVertex
100
AcDb2dVertex
 10
74.26341155403767
 20
66.4447405113712
 30
0.0
  0
VERTEX
  5
22D
330
21E
100
AcDbEntity
  8
Hidden (ANSI)
100
AcDbVertex
100
AcDb2dVertex
 10
74.26481127760128
 20
66.44235857835415
 30
0.0
  0
VERTEX
  5
22E
330
21E
100
AcDbEntity
  8
Hidden (ANSI)
100
AcDbVertex
100
AcDb2dVertex
 10
74.26610887541132
 20
66.43997964903575
 30
0.0
  0
VERTEX
  5
22F
330
21E
100
AcDbEntity
  8
Hidden (ANSI)
100
AcDbVertex
100
AcDb2dVertex
 10
74.26729834007052
 20
66.4375977160187
 30
0.0
  0
VERTEX
  5
230
330
21E
100
AcDbEntity
  8
Hidden (ANSI)
100
AcDbVertex
100
AcDb2dVertex
 10
74.26837967157888
 20
66.4352187867003
 30
0.0
  0
VERTEX
  5
231
330
21E
100
AcDbEntity
  8
Hidden (ANSI)
100
AcDbVertex
100
AcDb2dVertex
 10
74.26934686253915
 20
66.43283685368325
 30
0.0
  0
VERTEX
  5
232
330
21E
100
AcDbEntity
  8
Hidden (ANSI)
100
AcDbVertex
100
AcDb2dVertex
 10
74.27018789815678
 20
66.43045492066622
 30
0.0
  0
VERTEX
  5
233
330
21E
100
AcDbEntity
  8
Hidden (ANSI)
100
AcDbVertex
100
AcDb2dVertex
 10
74.27090878582902
 20
66.42807599134781
 30
0.0
  0
VERTEX
  5
234
330
21E
100
AcDbEntity
  8
Hidden (ANSI)
100
AcDbVertex
100
AcDb2dVertex
 10
74.27150351815861
 20
66.42569405833078
 30
0.0
  0
VERTEX
  5
235
330
21E
100
AcDbEntity
  8
Hidden (ANSI)
100
AcDbVertex
100
AcDb2dVertex
 10
74.2719660877483
 20
66.42331512901236
 30
0.0
  0
VERTEX
  5
236
330
21E
100
AcDbEntity
  8
Hidden (ANSI)
100
AcDbVertex
100
AcDb2dVertex
 10
74.27229649459808
 20
66.42093319599533
 30
0.0
  0
VERTEX
  5
237
330
21E
100
AcDbEntity
  8
Hidden (ANSI)
100
AcDbVertex
100
AcDb2dVertex
 10
74.27250074610523
 20
66.4185512629783
 30
0.0
  0
VERTEX
  5
238
330
21E
100
AcDbEntity
  8
Hidden (ANSI)
100
AcDbVertex
100
AcDb2dVertex
 10
74.27256682747517
 20
66.41617233365988
 30
0.0
  0
SEQEND
  5
221
330
21E
100
AcDbEntity
  8
Hidden (ANSI)
  0
LINE
  5
239
330
6C
100
AcDbEntity
  8
Hidden (ANSI)
100
AcDbLine
 10
74.18417823953096
 20
66.50455969351932
 30
0.0
 11
74.18417823953096
 21
66.62955969351934
 31
0.0
  0
POLYLINE
  5
23A
330
6C
100
AcDbEntity
  8
Hidden (ANSI)
100
AcDb2dPolyline
 66
     1
 10
0.0
 20
0.0
 30
0.0
 70
   128
  0
VERTEX
  5
23B
330
23A
100
AcDbEntity
  8
Hidden (ANSI)
100
AcDbVertex
100
AcDb2dVertex
 10
74.2413163468834
 20
66.47330868908252
 30
0.0
  0
VERTEX
  5
23C
330
23A
100
AcDbEntity
  8
Hidden (ANSI)
100
AcDbVertex
100
AcDb2dVertex
 10
74.23893741756498
 20
66.47535420785249
 30
0.0
  0
VERTEX
  5
23E
330
23A
100
AcDbEntity
  8
Hidden (ANSI)
100
AcDbVertex
100
AcDb2dVertex
 10
74.23655248084931
 20
66.47738771182796
 30
0.0
  0
VERTEX
  5
23F
330
23A
100
AcDbEntity
  8
Hidden (ANSI)
100
AcDbVertex
100
AcDb2dVertex
 10
74.23417355153091
 20
66.47940619731024
 30
0.0
  0
VERTEX
  5
240
330
23A
100
AcDbEntity
  8
Hidden (ANSI)
100
AcDbVertex
100
AcDb2dVertex
 10
74.2317946222125
 20
66.48139764950482
 30
0.0
  0
VERTEX
  5
241
330
23A
100
AcDbEntity
  8
Hidden (ANSI)
100
AcDbVertex
100
AcDb2dVertex
 10
74.2294156928941
 20
66.4833560610144
 30
0.0
  0
VERTEX
  5
242
330
23A
100
AcDbEntity
  8
Hidden (ANSI)
100
AcDbVertex
100
AcDb2dVertex
 10
74.22703075617842
 20
66.48526941704449
 30
0.0
  0
VERTEX
  5
243
330
23A
100
AcDbEntity
  8
Hidden (ANSI)
100
AcDbVertex
100
AcDb2dVertex
 10
74.22465182686003
 20
66.4871317101978
 30
0.0
  0
VERTEX
  5
244
330
23A
100
AcDbEntity
  8
Hidden (ANSI)
100
AcDbVertex
100
AcDb2dVertex
 10
74.22227289754161
 20
66.4889339293784
 30
0.0
  0
VERTEX
  5
245
330
23A
100
AcDbEntity
  8
Hidden (ANSI)
100
AcDbVertex
100
AcDb2dVertex
 10
74.21988796082594
 20
66.49067006718905
 30
0.0
  0
VERTEX
  5
246
330
23A
100
AcDbEntity
  8
Hidden (ANSI)
100
AcDbVertex
100
AcDb2dVertex
 10
74.21750903150753
 20
66.49233411623248
 30
0.0
  0
VERTEX
  5
247
330
23A
100
AcDbEntity
  8
Hidden (ANSI)
100
AcDbVertex
100
AcDb2dVertex
 10
74.21513010218913
 20
66.49391406171415
 30
0.0
  0
VERTEX
  5
248
330
23A
100
AcDbEntity
  8
Hidden (ANSI)
100
AcDbVertex
100
AcDb2dVertex
 10
74.21274516547345
 20
66.49540689993543
 30
0.0
  0
VERTEX
  5
249
330
23A
100
AcDbEntity
  8
Hidden (ANSI)
100
AcDbVertex
100
AcDb2dVertex
 10
74.21036623615505
 20
66.4968036198004
 30
0.0
  0
VERTEX
  5
24A
330
23A
100
AcDbEntity
  8
Hidden (ANSI)
100
AcDbVertex
100
AcDb2dVertex
 10
74.20798730683664
 20
66.49810121761044
 30
0.0
  0
VERTEX
  5
24B
330
23A
100
AcDbEntity
  8
Hidden (ANSI)
100
AcDbVertex
100
AcDb2dVertex
 10
74.20560237012097
 20
66.49929368596827
 30
0.0
  0
VERTEX
  5
24C
330
23A
100
AcDbEntity
  8
Hidden (ANSI)
100
AcDbVertex
100
AcDb2dVertex
 10
74.20322344080256
 20
66.500372013778
 30
0.0
  0
VERTEX
  5
24D
330
23A
100
AcDbEntity
  8
Hidden (ANSI)
100
AcDbVertex
100
AcDb2dVertex
 10
74.20084451148416
 20
66.50133620103962
 30
0.0
  0
VERTEX
  5
24E
330
23A
100
AcDbEntity
  8
Hidden (ANSI)
100
AcDbVertex
100
AcDb2dVertex
 10
74.19846558216574
 20
66.5021802403559
 30
0.0
  0
VERTEX
  5
24F
330
23A
100
AcDbEntity
  8
Hidden (ANSI)
100
AcDbVertex
100
AcDb2dVertex
 10
74.19608064545006
 20
66.50290112802813
 30
0.0
  0
VERTEX
  5
250
330
23A
100
AcDbEntity
  8
Hidden (ANSI)
100
AcDbVertex
100
AcDb2dVertex
 10
74.19370171613166
 20
66.50349586035773
 30
0.0
  0
VERTEX
  5
251
330
23A
100
AcDbEntity
  8
Hidden (ANSI)
100
AcDbVertex
100
AcDb2dVertex
 10
74.19132278681326
 20
66.50395842994742
 30
0.0
  0
VERTEX
  5
252
330
23A
100
AcDbEntity
  8
Hidden (ANSI)
100
AcDbVertex
100
AcDb2dVertex
 10
74.18893785009759
 20
66.50429184049584
 30
0.0
  0
VERTEX
  5
253
330
23A
100
AcDbEntity
  8
Hidden (ANSI)
100
AcDbVertex
100
AcDb2dVertex
 10
74.18655892077918
 20
66.50449308830435
 30
0.0
  0
VERTEX
  5
254
330
23A
100
AcDbEntity
  8
Hidden (ANSI)
100
AcDbVertex
100
AcDb2dVertex
 10
74.18417999146076
 20
66.50455916967429
 30
0.0
  0
SEQEND
  5
23D
330
23A
100
AcDbEntity
  8
Hidden (ANSI)
  0
LINE
  5
255
330
6C
100
AcDbEntity
  8
Hidden (ANSI)
100
AcDbLine
 10
18.61095493482759
 20
66.5045596935193
 30
0.0
 11
18.61095493482759
 21
66.62955969351931
 31
0.0
  0
POLYLINE
  5
256
330
6C
100
AcDbEntity
  8
Hidden (ANSI)
100
AcDb2dPolyline
 66
     1
 10
0.0
 20
0.0
 30
0.0
 70
   128
  0
VERTEX
  5
257
330
256
100
AcDbEntity
  8
Hidden (ANSI)
100
AcDbVertex
100
AcDb2dVertex
 10
18.55381658483264
 20
66.47330868908252
 30
0.0
  0
VERTEX
  5
258
330
256
100
AcDbEntity
  8
Hidden (ANSI)
100
AcDbVertex
100
AcDb2dVertex
 10
18.5561973562631
 20
66.47535420785249
 30
0.0
  0
VERTEX
  5
25A
330
256
100
AcDbEntity
  8
Hidden (ANSI)
100
AcDbVertex
100
AcDb2dVertex
 10
18.55857811596036
 20
66.47738771182796
 30
0.0
  0
VERTEX
  5
25B
330
256
100
AcDbEntity
  8
Hidden (ANSI)
100
AcDbVertex
100
AcDb2dVertex
 10
18.56095887565762
 20
66.47940619731024
 30
0.0
  0
VERTEX
  5
25C
330
256
100
AcDbEntity
  8
Hidden (ANSI)
100
AcDbVertex
100
AcDb2dVertex
 10
18.56333964708808
 20
66.48139764950482
 30
0.0
  0
VERTEX
  5
25D
330
256
100
AcDbEntity
  8
Hidden (ANSI)
100
AcDbVertex
100
AcDb2dVertex
 10
18.56572040678534
 20
66.4833560610144
 30
0.0
  0
VERTEX
  5
25E
330
256
100
AcDbEntity
  8
Hidden (ANSI)
100
AcDbVertex
100
AcDb2dVertex
 10
18.5681011782158
 20
66.48526941704449
 30
0.0
  0
VERTEX
  5
25F
330
256
100
AcDbEntity
  8
Hidden (ANSI)
100
AcDbVertex
100
AcDb2dVertex
 10
18.57048193791306
 20
66.4871317101978
 30
0.0
  0
VERTEX
  5
260
330
256
100
AcDbEntity
  8
Hidden (ANSI)
100
AcDbVertex
100
AcDb2dVertex
 10
18.57286269761032
 20
66.4889339293784
 30
0.0
  0
VERTEX
  5
261
330
256
100
AcDbEntity
  8
Hidden (ANSI)
100
AcDbVertex
100
AcDb2dVertex
 10
18.57524346904078
 20
66.49067006718905
 30
0.0
  0
VERTEX
  5
262
330
256
100
AcDbEntity
  8
Hidden (ANSI)
100
AcDbVertex
100
AcDb2dVertex
 10
18.57762422873804
 20
66.49233411623248
 30
0.0
  0
VERTEX
  5
263
330
256
100
AcDbEntity
  8
Hidden (ANSI)
100
AcDbVertex
100
AcDb2dVertex
 10
18.5800050001685
 20
66.49391406171415
 30
0.0
  0
VERTEX
  5
264
330
256
100
AcDbEntity
  8
Hidden (ANSI)
100
AcDbVertex
100
AcDb2dVertex
 10
18.58238575986576
 20
66.49540689993543
 30
0.0
  0
VERTEX
  5
265
330
256
100
AcDbEntity
  8
Hidden (ANSI)
100
AcDbVertex
100
AcDb2dVertex
 10
18.58476653129622
 20
66.4968036198004
 30
0.0
  0
VERTEX
  5
266
330
256
100
AcDbEntity
  8
Hidden (ANSI)
100
AcDbVertex
100
AcDb2dVertex
 10
18.58714729099348
 20
66.49810121761044
 30
0.0
  0
VERTEX
  5
267
330
256
100
AcDbEntity
  8
Hidden (ANSI)
100
AcDbVertex
100
AcDb2dVertex
 10
18.58952805069074
 20
66.49929368596827
 30
0.0
  0
VERTEX
  5
268
330
256
100
AcDbEntity
  8
Hidden (ANSI)
100
AcDbVertex
100
AcDb2dVertex
 10
18.5919088221212
 20
66.500372013778
 30
0.0
  0
VERTEX
  5
269
330
256
100
AcDbEntity
  8
Hidden (ANSI)
100
AcDbVertex
100
AcDb2dVertex
 10
18.59428958181846
 20
66.50133620103962
 30
0.0
  0
VERTEX
  5
26A
330
256
100
AcDbEntity
  8
Hidden (ANSI)
100
AcDbVertex
100
AcDb2dVertex
 10
18.59667034151572
 20
66.5021802403559
 30
0.0
  0
VERTEX
  5
26B
330
256
100
AcDbEntity
  8
Hidden (ANSI)
100
AcDbVertex
100
AcDb2dVertex
 10
18.59905110121298
 20
66.50290112802813
 30
0.0
  0
VERTEX
  5
26C
330
256
100
AcDbEntity
  8
Hidden (ANSI)
100
AcDbVertex
100
AcDb2dVertex
 10
18.60143188437664
 20
66.50349586035773
 30
0.0
  0
VERTEX
  5
26D
330
256
100
AcDbEntity
  8
Hidden (ANSI)
100
AcDbVertex
100
AcDb2dVertex
 10
18.6038126440739
 20
66.50395842994742
 30
0.0
  0
VERTEX
  5
26E
330
256
100
AcDbEntity
  8
Hidden (ANSI)
100
AcDbVertex
100
AcDb2dVertex
 10
18.60619340377116
 20
66.50429184049584
 30
0.0
  0
VERTEX
  5
26F
330
256
100
AcDbEntity
  8
Hidden (ANSI)
100
AcDbVertex
100
AcDb2dVertex
 10
18.60857416346842
 20
66.50449308830435
 30
0.0
  0
VERTEX
  5
270
330
256
100
AcDbEntity
  8
Hidden (ANSI)
100
AcDbVertex
100
AcDb2dVertex
 10
18.61095492316568
 20
66.50455916967429
 30
0.0
  0
SEQEND
  5
259
330
256
100
AcDbEntity
  8
Hidden (ANSI)
  0
LINE
  5
271
330
6C
100
AcDbEntity
  8
Hidden (ANSI)
100
AcDbLine
 10
18.52256658717928
 20
66.416171345871
 30
0.0
 11
18.39756658717927
 21
66.416171345871
 31
0.0
  0
POLYLINE
  5
272
330
6C
100
AcDbEntity
  8
Hidden (ANSI)
100
AcDb2dPolyline
 66
     1
 10
0.0
 20
0.0
 30
0.0
 70
   128
  0
VERTEX
  5
273
330
272
100
AcDbEntity
  8
Hidden (ANSI)
100
AcDbVertex
100
AcDb2dVertex
 10
18.55381658483264
 20
66.47330868908252
 30
0.0
  0
VERTEX
  5
274
330
272
100
AcDbEntity
  8
Hidden (ANSI)
100
AcDbVertex
100
AcDb2dVertex
 10
18.55177274390993
 20
66.4709297597641
 30
0.0
  0
VERTEX
  5
276
330
272
100
AcDbEntity
  8
Hidden (ANSI)
100
AcDbVertex
100
AcDb2dVertex
 10
18.54973764421958
 20
66.46854782674707
 30
0.0
  0
VERTEX
  5
277
330
272
100
AcDbEntity
  8
Hidden (ANSI)
100
AcDbVertex
100
AcDb2dVertex
 10
18.54772001526074
 20
66.46616889742865
 30
0.0
  0
VERTEX
  5
278
330
272
100
AcDbEntity
  8
Hidden (ANSI)
100
AcDbVertex
100
AcDb2dVertex
 10
18.54572849266697
 20
66.46378696441162
 30
0.0
  0
VERTEX
  5
279
330
272
100
AcDbEntity
  8
Hidden (ANSI)
100
AcDbVertex
100
AcDb2dVertex
 10
18.54377160647309
 20
66.46140503139459
 30
0.0
  0
VERTEX
  5
27A
330
272
100
AcDbEntity
  8
Hidden (ANSI)
100
AcDbVertex
100
AcDb2dVertex
 10
18.54185773418231
 20
66.45902610207618
 30
0.0
  0
VERTEX
  5
27B
330
272
100
AcDbEntity
  8
Hidden (ANSI)
100
AcDbVertex
100
AcDb2dVertex
 10
18.53999506556668
 20
66.45664416905915
 30
0.0
  0
VERTEX
  5
27C
330
272
100
AcDbEntity
  8
Hidden (ANSI)
100
AcDbVertex
100
AcDb2dVertex
 10
18.53819159093391
 20
66.4542622360421
 30
0.0
  0
VERTEX
  5
27D
330
272
100
AcDbEntity
  8
Hidden (ANSI)
100
AcDbVertex
100
AcDb2dVertex
 10
18.53645501899493
 20
66.45188330672368
 30
0.0
  0
VERTEX
  5
27E
330
272
100
AcDbEntity
  8
Hidden (ANSI)
100
AcDbVertex
100
AcDb2dVertex
 10
18.53479278859716
 20
66.44950137370663
 30
0.0
  0
VERTEX
  5
27F
330
272
100
AcDbEntity
  8
Hidden (ANSI)
100
AcDbVertex
100
AcDb2dVertex
 10
18.53321203352485
 20
66.44712244438824
 30
0.0
  0
VERTEX
  5
280
330
272
100
AcDbEntity
  8
Hidden (ANSI)
100
AcDbVertex
100
AcDb2dVertex
 10
18.53171950036671
 20
66.4447405113712
 30
0.0
  0
VERTEX
  5
281
330
272
100
AcDbEntity
  8
Hidden (ANSI)
100
AcDbVertex
100
AcDb2dVertex
 10
18.53032159544877
 20
66.44235857835415
 30
0.0
  0
VERTEX
  5
282
330
272
100
AcDbEntity
  8
Hidden (ANSI)
100
AcDbVertex
100
AcDb2dVertex
 10
18.52902429096867
 20
66.43997964903575
 30
0.0
  0
VERTEX
  5
283
330
272
100
AcDbEntity
  8
Hidden (ANSI)
100
AcDbVertex
100
AcDb2dVertex
 10
18.52783316019538
 20
66.4375977160187
 30
0.0
  0
VERTEX
  5
284
330
272
100
AcDbEntity
  8
Hidden (ANSI)
100
AcDbVertex
100
AcDb2dVertex
 10
18.52675329533674
 20
66.4352187867003
 30
0.0
  0
VERTEX
  5
285
330
272
100
AcDbEntity
  8
Hidden (ANSI)
100
AcDbVertex
100
AcDb2dVertex
 10
18.52578931927267
 20
66.43283685368325
 30
0.0
  0
VERTEX
  5
286
330
272
100
AcDbEntity
  8
Hidden (ANSI)
100
AcDbVertex
100
AcDb2dVertex
 10
18.52494535035561
 20
66.43045492066622
 30
0.0
  0
VERTEX
  5
287
330
272
100
AcDbEntity
  8
Hidden (ANSI)
100
AcDbVertex
100
AcDb2dVertex
 10
18.52422502587686
 20
66.42807599134781
 30
0.0
  0
VERTEX
  5
288
330
272
100
AcDbEntity
  8
Hidden (ANSI)
100
AcDbVertex
100
AcDb2dVertex
 10
18.52363140820105
 20
66.42569405833078
 30
0.0
  0
VERTEX
  5
289
330
272
100
AcDbEntity
  8
Hidden (ANSI)
100
AcDbVertex
100
AcDb2dVertex
 10
18.52316704343209
 20
66.42331512901236
 30
0.0
  0
VERTEX
  5
28A
330
272
100
AcDbEntity
  8
Hidden (ANSI)
100
AcDbVertex
100
AcDb2dVertex
 10
18.52283393794683
 20
66.42093319599533
 30
0.0
  0
VERTEX
  5
28B
330
272
100
AcDbEntity
  8
Hidden (ANSI)
100
AcDbVertex
100
AcDb2dVertex
 10
18.52263349972897
 20
66.4185512629783
 30
0.0
  0
VERTEX
  5
28C
330
272
100
AcDbEntity
  8
Hidden (ANSI)
100
AcDbVertex
100
AcDb2dVertex
 10
18.52256658530197
 20
66.41617233365988
 30
0.0
  0
SEQEND
  5
275
330
272
100
AcDbEntity
  8
Hidden (ANSI)
  0
LINE
  5
28D
330
6C
100
AcDbEntity
  8
Hidden (ANSI)
100
AcDbLine
 10
18.52256658717928
 20
35.96294804116765
 30
0.0
 11
18.39756658717928
 21
35.96294804116765
 31
0.0
  0
POLYLINE
  5
28E
330
6C
100
AcDbEntity
  8
Hidden (ANSI)
100
AcDb2dPolyline
 66
     1
 10
0.0
 20
0.0
 30
0.0
 70
   128
  0
VERTEX
  5
28F
330
28E
100
AcDbEntity
  8
Hidden (ANSI)
100
AcDbVertex
100
AcDb2dVertex
 10
18.55381658483264
 20
35.90580969117269
 30
0.0
  0
VERTEX
  5
290
330
28E
100
AcDbEntity
  8
Hidden (ANSI)
100
AcDbVertex
100
AcDb2dVertex
 10
18.55177274390993
 20
35.90819046260314
 30
0.0
  0
VERTEX
  5
292
330
28E
100
AcDbEntity
  8
Hidden (ANSI)
100
AcDbVertex
100
AcDb2dVertex
 10
18.54973764421958
 20
35.91057122230041
 30
0.0
  0
VERTEX
  5
293
330
28E
100
AcDbEntity
  8
Hidden (ANSI)
100
AcDbVertex
100
AcDb2dVertex
 10
18.54772001526074
 20
35.91295198199767
 30
0.0
  0
VERTEX
  5
294
330
28E
100
AcDbEntity
  8
Hidden (ANSI)
100
AcDbVertex
100
AcDb2dVertex
 10
18.54572849266697
 20
35.91533275342813
 30
0.0
  0
VERTEX
  5
295
330
28E
100
AcDbEntity
  8
Hidden (ANSI)
100
AcDbVertex
100
AcDb2dVertex
 10
18.54377160647309
 20
35.91771351312539
 30
0.0
  0
VERTEX
  5
296
330
28E
100
AcDbEntity
  8
Hidden (ANSI)
100
AcDbVertex
100
AcDb2dVertex
 10
18.54185773418231
 20
35.92009428455585
 30
0.0
  0
VERTEX
  5
297
330
28E
100
AcDbEntity
  8
Hidden (ANSI)
100
AcDbVertex
100
AcDb2dVertex
 10
18.53999506556668
 20
35.92247504425311
 30
0.0
  0
VERTEX
  5
298
330
28E
100
AcDbEntity
  8
Hidden (ANSI)
100
AcDbVertex
100
AcDb2dVertex
 10
18.53819159093391
 20
35.92485580395037
 30
0.0
  0
VERTEX
  5
299
330
28E
100
AcDbEntity
  8
Hidden (ANSI)
100
AcDbVertex
100
AcDb2dVertex
 10
18.53645501899493
 20
35.92723657538083
 30
0.0
  0
VERTEX
  5
29A
330
28E
100
AcDbEntity
  8
Hidden (ANSI)
100
AcDbVertex
100
AcDb2dVertex
 10
18.53479278859716
 20
35.92961733507809
 30
0.0
  0
VERTEX
  5
29B
330
28E
100
AcDbEntity
  8
Hidden (ANSI)
100
AcDbVertex
100
AcDb2dVertex
 10
18.53321203352485
 20
35.93199810650855
 30
0.0
  0
VERTEX
  5
29C
330
28E
100
AcDbEntity
  8
Hidden (ANSI)
100
AcDbVertex
100
AcDb2dVertex
 10
18.53171950036671
 20
35.93437886620581
 30
0.0
  0
VERTEX
  5
29D
330
28E
100
AcDbEntity
  8
Hidden (ANSI)
100
AcDbVertex
100
AcDb2dVertex
 10
18.53032159544877
 20
35.93675963763627
 30
0.0
  0
VERTEX
  5
29E
330
28E
100
AcDbEntity
  8
Hidden (ANSI)
100
AcDbVertex
100
AcDb2dVertex
 10
18.52902429096867
 20
35.93914039733353
 30
0.0
  0
VERTEX
  5
29F
330
28E
100
AcDbEntity
  8
Hidden (ANSI)
100
AcDbVertex
100
AcDb2dVertex
 10
18.52783316019538
 20
35.94152115703079
 30
0.0
  0
VERTEX
  5
2A0
330
28E
100
AcDbEntity
  8
Hidden (ANSI)
100
AcDbVertex
100
AcDb2dVertex
 10
18.52675329533674
 20
35.94390192846125
 30
0.0
  0
VERTEX
  5
2A1
330
28E
100
AcDbEntity
  8
Hidden (ANSI)
100
AcDbVertex
100
AcDb2dVertex
 10
18.52578931927267
 20
35.94628268815851
 30
0.0
  0
VERTEX
  5
2A2
330
28E
100
AcDbEntity
  8
Hidden (ANSI)
100
AcDbVertex
100
AcDb2dVertex
 10
18.52494535035561
 20
35.94866344785577
 30
0.0
  0
VERTEX
  5
2A3
330
28E
100
AcDbEntity
  8
Hidden (ANSI)
100
AcDbVertex
100
AcDb2dVertex
 10
18.52422502587686
 20
35.95104420755304
 30
0.0
  0
VERTEX
  5
2A4
330
28E
100
AcDbEntity
  8
Hidden (ANSI)
100
AcDbVertex
100
AcDb2dVertex
 10
18.52363140820105
 20
35.95342499071668
 30
0.0
  0
VERTEX
  5
2A5
330
28E
100
AcDbEntity
  8
Hidden (ANSI)
100
AcDbVertex
100
AcDb2dVertex
 10
18.52316704343209
 20
35.95580575041394
 30
0.0
  0
VERTEX
  5
2A6
330
28E
100
AcDbEntity
  8
Hidden (ANSI)
100
AcDbVertex
100
AcDb2dVertex
 10
18.52283393794683
 20
35.95818651011121
 30
0.0
  0
VERTEX
  5
2A7
330
28E
100
AcDbEntity
  8
Hidden (ANSI)
100
AcDbVertex
100
AcDb2dVertex
 10
18.52263349972897
 20
35.96056726980847
 30
0.0
  0
VERTEX
  5
2A8
330
28E
100
AcDbEntity
  8
Hidden (ANSI)
100
AcDbVertex
100
AcDb2dVertex
 10
18.52256658530197
 20
35.96294802950573
 30
0.0
  0
SEQEND
  5
291
330
28E
100
AcDbEntity
  8
Hidden (ANSI)
  0
LINE
  5
2A9
330
6C
100
AcDbEntity
  8
Hidden (ANSI)
100
AcDbLine
 10
18.61095493482761
 20
35.87455969351933
 30
0.0
 11
18.61095493482761
 21
35.74955969351933
 31
0.0
  0
POLYLINE
  5
2AA
330
6C
100
AcDbEntity
  8
Hidden (ANSI)
100
AcDb2dPolyline
 66
     1
 10
0.0
 20
0.0
 30
0.0
 70
   128
  0
VERTEX
  5
2AB
330
2AA
100
AcDbEntity
  8
Hidden (ANSI)
100
AcDbVertex
100
AcDb2dVertex
 10
18.55381658483264
 20
35.90580969117269
 30
0.0
  0
VERTEX
  5
2AC
330
2AA
100
AcDbEntity
  8
Hidden (ANSI)
100
AcDbVertex
100
AcDb2dVertex
 10
18.5561973562631
 20
35.90376585024998
 30
0.0
  0
VERTEX
  5
2AE
330
2AA
100
AcDbEntity
  8
Hidden (ANSI)
100
AcDbVertex
100
AcDb2dVertex
 10
18.55857811596036
 20
35.90173075055962
 30
0.0
  0
VERTEX
  5
2AF
330
2AA
100
AcDbEntity
  8
Hidden (ANSI)
100
AcDbVertex
100
AcDb2dVertex
 10
18.56095887565762
 20
35.89971312160078
 30
0.0
  0
VERTEX
  5
2B0
330
2AA
100
AcDbEntity
  8
Hidden (ANSI)
100
AcDbVertex
100
AcDb2dVertex
 10
18.56333964708808
 20
35.89772159900703
 30
0.0
  0
VERTEX
  5
2B1
330
2AA
100
AcDbEntity
  8
Hidden (ANSI)
100
AcDbVertex
100
AcDb2dVertex
 10
18.56572040678534
 20
35.89576471281314
 30
0.0
  0
VERTEX
  5
2B2
330
2AA
100
AcDbEntity
  8
Hidden (ANSI)
100
AcDbVertex
100
AcDb2dVertex
 10
18.5681011782158
 20
35.89385084052235
 30
0.0
  0
VERTEX
  5
2B3
330
2AA
100
AcDbEntity
  8
Hidden (ANSI)
100
AcDbVertex
100
AcDb2dVertex
 10
18.57048193791306
 20
35.89198817190673
 30
0.0
  0
VERTEX
  5
2B4
330
2AA
100
AcDbEntity
  8
Hidden (ANSI)
100
AcDbVertex
100
AcDb2dVertex
 10
18.57286269761032
 20
35.89018469727395
 30
0.0
  0
VERTEX
  5
2B5
330
2AA
100
AcDbEntity
  8
Hidden (ANSI)
100
AcDbVertex
100
AcDb2dVertex
 10
18.57524346904078
 20
35.88844812533498
 30
0.0
  0
VERTEX
  5
2B6
330
2AA
100
AcDbEntity
  8
Hidden (ANSI)
100
AcDbVertex
100
AcDb2dVertex
 10
18.57762422873804
 20
35.88678589493721
 30
0.0
  0
VERTEX
  5
2B7
330
2AA
100
AcDbEntity
  8
Hidden (ANSI)
100
AcDbVertex
100
AcDb2dVertex
 10
18.5800050001685
 20
35.8852051398649
 30
0.0
  0
VERTEX
  5
2B8
330
2AA
100
AcDbEntity
  8
Hidden (ANSI)
100
AcDbVertex
100
AcDb2dVertex
 10
18.58238575986576
 20
35.88371260670676
 30
0.0
  0
VERTEX
  5
2B9
330
2AA
100
AcDbEntity
  8
Hidden (ANSI)
100
AcDbVertex
100
AcDb2dVertex
 10
18.58476653129622
 20
35.88231470178881
 30
0.0
  0
VERTEX
  5
2BA
330
2AA
100
AcDbEntity
  8
Hidden (ANSI)
100
AcDbVertex
100
AcDb2dVertex
 10
18.58714729099348
 20
35.88101739730872
 30
0.0
  0
VERTEX
  5
2BB
330
2AA
100
AcDbEntity
  8
Hidden (ANSI)
100
AcDbVertex
100
AcDb2dVertex
 10
18.58952805069074
 20
35.87982626653543
 30
0.0
  0
VERTEX
  5
2BC
330
2AA
100
AcDbEntity
  8
Hidden (ANSI)
100
AcDbVertex
100
AcDb2dVertex
 10
18.5919088221212
 20
35.87874640167679
 30
0.0
  0
VERTEX
  5
2BD
330
2AA
100
AcDbEntity
  8
Hidden (ANSI)
100
AcDbVertex
100
AcDb2dVertex
 10
18.59428958181846
 20
35.87778242561272
 30
0.0
  0
VERTEX
  5
2BE
330
2AA
100
AcDbEntity
  8
Hidden (ANSI)
100
AcDbVertex
100
AcDb2dVertex
 10
18.59667034151572
 20
35.87693845669566
 30
0.0
  0
VERTEX
  5
2BF
330
2AA
100
AcDbEntity
  8
Hidden (ANSI)
100
AcDbVertex
100
AcDb2dVertex
 10
18.59905110121298
 20
35.87621813221691
 30
0.0
  0
VERTEX
  5
2C0
330
2AA
100
AcDbEntity
  8
Hidden (ANSI)
100
AcDbVertex
100
AcDb2dVertex
 10
18.60143188437664
 20
35.8756245145411
 30
0.0
  0
VERTEX
  5
2C1
330
2AA
100
AcDbEntity
  8
Hidden (ANSI)
100
AcDbVertex
100
AcDb2dVertex
 10
18.6038126440739
 20
35.87516014977214
 30
0.0
  0
VERTEX
  5
2C2
330
2AA
100
AcDbEntity
  8
Hidden (ANSI)
100
AcDbVertex
100
AcDb2dVertex
 10
18.60619340377116
 20
35.87482704428687
 30
0.0
  0
VERTEX
  5
2C3
330
2AA
100
AcDbEntity
  8
Hidden (ANSI)
100
AcDbVertex
100
AcDb2dVertex
 10
18.60857416346842
 20
35.87462660606902
 30
0.0
  0
VERTEX
  5
2C4
330
2AA
100
AcDbEntity
  8
Hidden (ANSI)
100
AcDbVertex
100
AcDb2dVertex
 10
18.61095492316568
 20
35.87455969164202
 30
0.0
  0
SEQEND
  5
2AD
330
2AA
100
AcDbEntity
  8
Hidden (ANSI)
  0
LINE
  5
2C5
330
6C
100
AcDbEntity
  8
Hidden (ANSI)
100
AcDbLine
 10
74.18417823953096
 20
35.87455969351933
 30
0.0
 11
74.18417823953096
 21
35.74955969351933
 31
0.0
  0
POLYLINE
  5
2C6
330
6C
100
AcDbEntity
  8
Hidden (ANSI)
100
AcDb2dPolyline
 66
     1
 10
0.0
 20
0.0
 30
0.0
 70
   128
  0
VERTEX
  5
2C7
330
2C6
100
AcDbEntity
  8
Hidden (ANSI)
100
AcDbVertex
100
AcDb2dVertex
 10
74.2413163468834
 20
35.90580969117269
 30
0.0
  0
VERTEX
  5
2C8
330
2C6
100
AcDbEntity
  8
Hidden (ANSI)
100
AcDbVertex
100
AcDb2dVertex
 10
74.23893741756498
 20
35.90376585024998
 30
0.0
  0
VERTEX
  5
2CA
330
2C6
100
AcDbEntity
  8
Hidden (ANSI)
100
AcDbVertex
100
AcDb2dVertex
 10
74.23655248084931
 20
35.90173075055962
 30
0.0
  0
VERTEX
  5
2CB
330
2C6
100
AcDbEntity
  8
Hidden (ANSI)
100
AcDbVertex
100
AcDb2dVertex
 10
74.23417355153091
 20
35.89971312160078
 30
0.0
  0
VERTEX
  5
2CC
330
2C6
100
AcDbEntity
  8
Hidden (ANSI)
100
AcDbVertex
100
AcDb2dVertex
 10
74.2317946222125
 20
35.89772159900703
 30
0.0
  0
VERTEX
  5
2CD
330
2C6
100
AcDbEntity
  8
Hidden (ANSI)
100
AcDbVertex
100
AcDb2dVertex
 10
74.2294156928941
 20
35.89576471281314
 30
0.0
  0
VERTEX
  5
2CE
330
2C6
100
AcDbEntity
  8
Hidden (ANSI)
100
AcDbVertex
100
AcDb2dVertex
 10
74.22703075617842
 20
35.89385084052235
 30
0.0
  0
VERTEX
  5
2CF
330
2C6
100
AcDbEntity
  8
Hidden (ANSI)
100
AcDbVertex
100
AcDb2dVertex
 10
74.22465182686003
 20
35.89198817190673
 30
0.0
  0
VERTEX
  5
2D0
330
2C6
100
AcDbEntity
  8
Hidden (ANSI)
100
AcDbVertex
100
AcDb2dVertex
 10
74.22227289754161
 20
35.89018469727395
 30
0.0
  0
VERTEX
  5
2D1
330
2C6
100
AcDbEntity
  8
Hidden (ANSI)
100
AcDbVertex
100
AcDb2dVertex
 10
74.21988796082594
 20
35.88844812533498
 30
0.0
  0
VERTEX
  5
2D2
330
2C6
100
AcDbEntity
  8
Hidden (ANSI)
100
AcDbVertex
100
AcDb2dVertex
 10
74.21750903150753
 20
35.88678589493721
 30
0.0
  0
VERTEX
  5
2D3
330
2C6
100
AcDbEntity
  8
Hidden (ANSI)
100
AcDbVertex
100
AcDb2dVertex
 10
74.21513010218913
 20
35.8852051398649
 30
0.0
  0
VERTEX
  5
2D4
330
2C6
100
AcDbEntity
  8
Hidden (ANSI)
100
AcDbVertex
100
AcDb2dVertex
 10
74.21274516547345
 20
35.88371260670676
 30
0.0
  0
VERTEX
  5
2D5
330
2C6
100
AcDbEntity
  8
Hidden (ANSI)
100
AcDbVertex
100
AcDb2dVertex
 10
74.21036623615505
 20
35.88231470178881
 30
0.0
  0
VERTEX
  5
2D6
330
2C6
100
AcDbEntity
  8
Hidden (ANSI)
100
AcDbVertex
100
AcDb2dVertex
 10
74.20798730683664
 20
35.88101739730872
 30
0.0
  0
VERTEX
  5
2D7
330
2C6
100
AcDbEntity
  8
Hidden (ANSI)
100
AcDbVertex
100
AcDb2dVertex
 10
74.20560237012097
 20
35.87982626653543
 30
0.0
  0
VERTEX
  5
2D8
330
2C6
100
AcDbEntity
  8
Hidden (ANSI)
100
AcDbVertex
100
AcDb2dVertex
 10
74.20322344080256
 20
35.87874640167679
 30
0.0
  0
VERTEX
  5
2D9
330
2C6
100
AcDbEntity
  8
Hidden (ANSI)
100
AcDbVertex
100
AcDb2dVertex
 10
74.20084451148416
 20
35.87778242561272
 30
0.0
  0
VERTEX
  5
2DA
330
2C6
100
AcDbEntity
  8
Hidden (ANSI)
100
AcDbVertex
100
AcDb2dVertex
 10
74.19846558216574
 20
35.87693845669566
 30
0.0
  0
VERTEX
  5
2DB
330
2C6
100
AcDbEntity
  8
Hidden (ANSI)
100
AcDbVertex
100
AcDb2dVertex
 10
74.19608064545006
 20
35.87621813221691
 30
0.0
  0
VERTEX
  5
2DC
330
2C6
100
AcDbEntity
  8
Hidden (ANSI)
100
AcDbVertex
100
AcDb2dVertex
 10
74.19370171613166
 20
35.8756245145411
 30
0.0
  0
VERTEX
  5
2DD
330
2C6
100
AcDbEntity
  8
Hidden (ANSI)
100
AcDbVertex
100
AcDb2dVertex
 10
74.19132278681326
 20
35.87516014977214
 30
0.0
  0
VERTEX
  5
2DE
330
2C6
100
AcDbEntity
  8
Hidden (ANSI)
100
AcDbVertex
100
AcDb2dVertex
 10
74.18893785009759
 20
35.87482704428687
 30
0.0
  0
VERTEX
  5
2DF
330
2C6
100
AcDbEntity
  8
Hidden (ANSI)
100
AcDbVertex
100
AcDb2dVertex
 10
74.18655892077918
 20
35.87462660606902
 30
0.0
  0
VERTEX
  5
2E0
330
2C6
100
AcDbEntity
  8
Hidden (ANSI)
100
AcDbVertex
100
AcDb2dVertex
 10
74.18417999146076
 20
35.87455969164202
 30
0.0
  0
SEQEND
  5
2C9
330
2C6
100
AcDbEntity
  8
Hidden (ANSI)
  0
MTEXT
  5
2E2
330
6C
100
AcDbEntity
  8
Symbol (ANSI)
100
AcDbMText
 10
41.93889336706384
 20
30.73448247624348
 30
0.0
 40
1.200000014830761
 41
0.0
 46
0.0
 71
     7
 72
     1
  1
FRONT VIEW
  7
Text Style153
 73
     1
 44
1.0
  0
LINE
  5
2E4
330
6C
100
AcDbEntity
  8
Symbol (ANSI)
370
    30
100
AcDbLine
 10
41.81889305837997
 20
30.48976610249459
 30
0.0
 11
51.46654310123675
 21
30.48976610249459
 31
0.0
  0
POLYLINE
  5
2E5
330
6C
100
AcDbEntity
  8
Visible (ANSI)
100
AcDb2dPolyline
 66
     1
 10
0.0
 20
0.0
 30
0.0
 70
   128
  0
VERTEX
  5
2E6
330
2E5
100
AcDbEntity
  8
Visible (ANSI)
100
AcDbVertex
100
AcDb2dVertex
 10
93.27475732128158
 20
66.47330868908252
 30
0.0
  0
VERTEX
  5
2E7
330
2E5
100
AcDbEntity
  8
Visible (ANSI)
100
AcDbVertex
100
AcDb2dVertex
 10
93.275091858217
 20
66.4709297597641
 30
0.0
  0
VERTEX
  5
2E9
330
2E5
100
AcDbEntity
  8
Visible (ANSI)
100
AcDbVertex
100
AcDb2dVertex
 10
93.27609406103945
 20
66.46854782674707
 30
0.0
  0
VERTEX
  5
2EA
330
2E5
100
AcDbEntity
  8
Visible (ANSI)
100
AcDbVertex
100
AcDb2dVertex
 10
93.27775962366542
 20
66.46616889742865
 30
0.0
  0
VERTEX
  5
2EB
330
2E5
100
AcDbEntity
  8
Visible (ANSI)
100
AcDbVertex
100
AcDb2dVertex
 10
93.28008141231057
 20
66.46378696441162
 30
0.0
  0
VERTEX
  5
2EC
330
2E5
100
AcDbEntity
  8
Visible (ANSI)
100
AcDbVertex
100
AcDb2dVertex
 10
93.28304948895643
 20
66.46140503139459
 30
0.0
  0
VERTEX
  5
2ED
330
2E5
100
AcDbEntity
  8
Visible (ANSI)
100
AcDbVertex
100
AcDb2dVertex
 10
93.28665114654979
 20
66.45902610207618
 30
0.0
  0
VERTEX
  5
2EE
330
2E5
100
AcDbEntity
  8
Visible (ANSI)
100
AcDbVertex
100
AcDb2dVertex
 10
93.29087095593552
 20
66.45664416905915
 30
0.0
  0
VERTEX
  5
2EF
330
2E5
100
AcDbEntity
  8
Visible (ANSI)
100
AcDbVertex
100
AcDb2dVertex
 10
93.29569084798905
 20
66.4542622360421
 30
0.0
  0
VERTEX
  5
2F0
330
2E5
100
AcDbEntity
  8
Visible (ANSI)
100
AcDbVertex
100
AcDb2dVertex
 10
93.30109019574868
 20
66.45188330672368
 30
0.0
  0
VERTEX
  5
2F1
330
2E5
100
AcDbEntity
  8
Visible (ANSI)
100
AcDbVertex
100
AcDb2dVertex
 10
93.30704586134832
 20
66.44950137370663
 30
0.0
  0
VERTEX
  5
2F2
330
2E5
100
AcDbEntity
  8
Visible (ANSI)
100
AcDbVertex
100
AcDb2dVertex
 10
93.31353234854921
 20
66.44712244438824
 30
0.0
  0
VERTEX
  5
2F3
330
2E5
100
AcDbEntity
  8
Visible (ANSI)
100
AcDbVertex
100
AcDb2dVertex
 10
93.32052188487216
 20
66.4447405113712
 30
0.0
  0
VERTEX
  5
2F4
330
2E5
100
AcDbEntity
  8
Visible (ANSI)
100
AcDbVertex
100
AcDb2dVertex
 10
93.32798453306301
 20
66.44235857835415
 30
0.0
  0
VERTEX
  5
2F5
330
2E5
100
AcDbEntity
  8
Visible (ANSI)
100
AcDbVertex
100
AcDb2dVertex
 10
93.33588834362416
 20
66.43997964903575
 30
0.0
  0
VERTEX
  5
2F6
330
2E5
100
AcDbEntity
  8
Visible (ANSI)
100
AcDbVertex
100
AcDb2dVertex
 10
93.34419947214664
 20
66.4375977160187
 30
0.0
  0
VERTEX
  5
2F7
330
2E5
100
AcDbEntity
  8
Visible (ANSI)
100
AcDbVertex
100
AcDb2dVertex
 10
93.3528823201083
 20
66.4352187867003
 30
0.0
  0
VERTEX
  5
2F8
330
2E5
100
AcDbEntity
  8
Visible (ANSI)
100
AcDbVertex
100
AcDb2dVertex
 10
93.36189971087197
 20
66.43283685368325
 30
0.0
  0
VERTEX
  5
2F9
330
2E5
100
AcDbEntity
  8
Visible (ANSI)
100
AcDbVertex
100
AcDb2dVertex
 10
93.37121303341701
 20
66.43045492066622
 30
0.0
  0
VERTEX
  5
2FA
330
2E5
100
AcDbEntity
  8
Visible (ANSI)
100
AcDbVertex
100
AcDb2dVertex
 10
93.38078240367083
 20
66.42807599134781
 30
0.0
  0
VERTEX
  5
2FB
330
2E5
100
AcDbEntity
  8
Visible (ANSI)
100
AcDbVertex
100
AcDb2dVertex
 10
93.39056684344013
 20
66.42569405833078
 30
0.0
  0
VERTEX
  5
2FC
330
2E5
100
AcDbEntity
  8
Visible (ANSI)
100
AcDbVertex
100
AcDb2dVertex
 10
93.4005244565923
 20
66.42331512901236
 30
0.0
  0
VERTEX
  5
2FD
330
2E5
100
AcDbEntity
  8
Visible (ANSI)
100
AcDbVertex
100
AcDb2dVertex
 10
93.41061260193651
 20
66.42093319599533
 30
0.0
  0
VERTEX
  5
2FE
330
2E5
100
AcDbEntity
  8
Visible (ANSI)
100
AcDbVertex
100
AcDb2dVertex
 10
93.4207880805885
 20
66.4185512629783
 30
0.0
  0
VERTEX
  5
2FF
330
2E5
100
AcDbEntity
  8
Visible (ANSI)
100
AcDbVertex
100
AcDb2dVertex
 10
93.43100731893498
 20
66.41617233365988
 30
0.0
  0
SEQEND
  5
2E8
330
2E5
100
AcDbEntity
  8
Visible (ANSI)
  0
POLYLINE
  5
300
330
6C
100
AcDbEntity
  8
Visible (ANSI)
100
AcDb2dPolyline
 66
     1
 10
0.0
 20
0.0
 30
0.0
 70
   128
  0
VERTEX
  5
301
330
300
100
AcDbEntity
  8
Visible (ANSI)
100
AcDbVertex
100
AcDb2dVertex
 10
93.43100731893498
 20
35.96294802950573
 30
0.0
  0
VERTEX
  5
302
330
300
100
AcDbEntity
  8
Visible (ANSI)
100
AcDbVertex
100
AcDb2dVertex
 10
93.4207880805885
 20
35.96056726980847
 30
0.0
  0
VERTEX
  5
304
330
300
100
AcDbEntity
  8
Visible (ANSI)
100
AcDbVertex
100
AcDb2dVertex
 10
93.41061260193651
 20
35.95818651011121
 30
0.0
  0
VERTEX
  5
305
330
300
100
AcDbEntity
  8
Visible (ANSI)
100
AcDbVertex
100
AcDb2dVertex
 10
93.4005244565923
 20
35.95580575041394
 30
0.0
  0
VERTEX
  5
306
330
300
100
AcDbEntity
  8
Visible (ANSI)
100
AcDbVertex
100
AcDb2dVertex
 10
93.39056684344013
 20
35.95342499071668
 30
0.0
  0
VERTEX
  5
307
330
300
100
AcDbEntity
  8
Visible (ANSI)
100
AcDbVertex
100
AcDb2dVertex
 10
93.38078240367083
 20
35.95104420755304
 30
0.0
  0
VERTEX
  5
308
330
300
100
AcDbEntity
  8
Visible (ANSI)
100
AcDbVertex
100
AcDb2dVertex
 10
93.37121303341701
 20
35.94866344785577
 30
0.0
  0
VERTEX
  5
309
330
300
100
AcDbEntity
  8
Visible (ANSI)
100
AcDbVertex
100
AcDb2dVertex
 10
93.36189971087197
 20
35.94628268815851
 30
0.0
  0
VERTEX
  5
30A
330
300
100
AcDbEntity
  8
Visible (ANSI)
100
AcDbVertex
100
AcDb2dVertex
 10
93.3528823201083
 20
35.94390192846125
 30
0.0
  0
VERTEX
  5
30B
330
300
100
AcDbEntity
  8
Visible (ANSI)
100
AcDbVertex
100
AcDb2dVertex
 10
93.34419947214664
 20
35.94152115703079
 30
0.0
  0
VERTEX
  5
30C
330
300
100
AcDbEntity
  8
Visible (ANSI)
100
AcDbVertex
100
AcDb2dVertex
 10
93.33588834362416
 20
35.93914039733353
 30
0.0
  0
VERTEX
  5
30D
330
300
100
AcDbEntity
  8
Visible (ANSI)
100
AcDbVertex
100
AcDb2dVertex
 10
93.32798453306301
 20
35.93675963763627
 30
0.0
  0
VERTEX
  5
30E
330
300
100
AcDbEntity
  8
Visible (ANSI)
100
AcDbVertex
100
AcDb2dVertex
 10
93.32052188487216
 20
35.93437886620581
 30
0.0
  0
VERTEX
  5
30F
330
300
100
AcDbEntity
  8
Visible (ANSI)
100
AcDbVertex
100
AcDb2dVertex
 10
93.31353234854921
 20
35.93199810650855
 30
0.0
  0
VERTEX
  5
310
330
300
100
AcDbEntity
  8
Visible (ANSI)
100
AcDbVertex
100
AcDb2dVertex
 10
93.30704586134832
 20
35.92961733507809
 30
0.0
  0
VERTEX
  5
311
330
300
100
AcDbEntity
  8
Visible (ANSI)
100
AcDbVertex
100
AcDb2dVertex
 10
93.30109019574868
 20
35.92723657538083
 30
0.0
  0
VERTEX
  5
312
330
300
100
AcDbEntity
  8
Visible (ANSI)
100
AcDbVertex
100
AcDb2dVertex
 10
93.29569084798905
 20
35.92485580395037
 30
0.0
  0
VERTEX
  5
313
330
300
100
AcDbEntity
  8
Visible (ANSI)
100
AcDbVertex
100
AcDb2dVertex
 10
93.29087095593552
 20
35.92247504425311
 30
0.0
  0
VERTEX
  5
314
330
300
100
AcDbEntity
  8
Visible (ANSI)
100
AcDbVertex
100
AcDb2dVertex
 10
93.28665114654979
 20
35.92009428455585
 30
0.0
  0
VERTEX
  5
315
330
300
100
AcDbEntity
  8
Visible (ANSI)
100
AcDbVertex
100
AcDb2dVertex
 10
93.28304948895643
 20
35.91771351312539
 30
0.0
  0
VERTEX
  5
316
330
300
100
AcDbEntity
  8
Visible (ANSI)
100
AcDbVertex
100
AcDb2dVertex
 10
93.28008141231057
 20
35.91533275342813
 30
0.0
  0
VERTEX
  5
317
330
300
100
AcDbEntity
  8
Visible (ANSI)
100
AcDbVertex
100
AcDb2dVertex
 10
93.27775962366542
 20
35.91295198199767
 30
0.0
  0
VERTEX
  5
318
330
300
100
AcDbEntity
  8
Visible (ANSI)
100
AcDbVertex
100
AcDb2dVertex
 10
93.27609406103945
 20
35.91057122230041
 30
0.0
  0
VERTEX
  5
319
330
300
100
AcDbEntity
  8
Visible (ANSI)
100
AcDbVertex
100
AcDb2dVertex
 10
93.275091858217
 20
35.90819046260314
 30
0.0
  0
VERTEX
  5
31A
330
300
100
AcDbEntity
  8
Visible (ANSI)
100
AcDbVertex
100
AcDb2dVertex
 10
93.27475732128158
 20
35.90580969117269
 30
0.0
  0
SEQEND
  5
303
330
300
100
AcDbEntity
  8
Visible (ANSI)
  0
LINE
  5
31B
330
6C
100
AcDbEntity
  8
Visible (ANSI)
100
AcDbLine
 10
94.14975731940433
 20
35.96294804116765
 30
0.0
 11
93.43100731940435
 21
35.96294804116765
 31
0.0
  0
LINE
  5
31C
330
6C
100
AcDbEntity
  8
Visible (ANSI)
100
AcDbLine
 10
93.39463191753095
 20
35.90580969351933
 30
0.0
 11
93.27475731940428
 21
35.90580969351933
 31
0.0
  0
LINE
  5
31D
330
6C
100
AcDbEntity
  8
Visible (ANSI)
100
AcDbLine
 10
93.39975731940427
 20
35.90580969351933
 30
0.0
 11
93.39463191753095
 21
35.90580969351933
 31
0.0
  0
POLYLINE
  5
31E
330
6C
100
AcDbEntity
  8
Visible (ANSI)
100
AcDb2dPolyline
 66
     1
 10
0.0
 20
0.0
 30
0.0
 70
   128
  0
VERTEX
  5
31F
330
31E
100
AcDbEntity
  8
Visible (ANSI)
100
AcDbVertex
100
AcDb2dVertex
 10
93.39975731940427
 20
35.90580969117269
 30
0.0
  0
VERTEX
  5
320
330
31E
100
AcDbEntity
  8
Visible (ANSI)
100
AcDbVertex
100
AcDb2dVertex
 10
93.39982422805062
 20
35.90819046260314
 30
0.0
  0
VERTEX
  5
322
330
31E
100
AcDbEntity
  8
Visible (ANSI)
100
AcDbVertex
100
AcDb2dVertex
 10
93.40002466748876
 20
35.91057122230041
 30
0.0
  0
VERTEX
  5
323
330
31E
100
AcDbEntity
  8
Visible (ANSI)
100
AcDbVertex
100
AcDb2dVertex
 10
93.40035777941354
 20
35.91295198199767
 30
0.0
  0
VERTEX
  5
324
330
31E
100
AcDbEntity
  8
Visible (ANSI)
100
AcDbVertex
100
AcDb2dVertex
 10
93.40082213735341
 20
35.91533275342813
 30
0.0
  0
VERTEX
  5
325
330
31E
100
AcDbEntity
  8
Visible (ANSI)
100
AcDbVertex
100
AcDb2dVertex
 10
93.40141575282926
 20
35.91771351312539
 30
0.0
  0
VERTEX
  5
326
330
31E
100
AcDbEntity
  8
Visible (ANSI)
100
AcDbVertex
100
AcDb2dVertex
 10
93.40213608409126
 20
35.92009428455585
 30
0.0
  0
VERTEX
  5
327
330
31E
100
AcDbEntity
  8
Visible (ANSI)
100
AcDbVertex
100
AcDb2dVertex
 10
93.40298004640841
 20
35.92247504425311
 30
0.0
  0
VERTEX
  5
328
330
31E
100
AcDbEntity
  8
Visible (ANSI)
100
AcDbVertex
100
AcDb2dVertex
 10
93.40394402540574
 20
35.92485580395037
 30
0.0
  0
VERTEX
  5
329
330
31E
100
AcDbEntity
  8
Visible (ANSI)
100
AcDbVertex
100
AcDb2dVertex
 10
93.40502389393101
 20
35.92723657538083
 30
0.0
  0
VERTEX
  5
32A
330
31E
100
AcDbEntity
  8
Visible (ANSI)
100
AcDbVertex
100
AcDb2dVertex
 10
93.40621502727096
 20
35.92961733507809
 30
0.0
  0
VERTEX
  5
32B
330
31E
100
AcDbEntity
  8
Visible (ANSI)
100
AcDbVertex
100
AcDb2dVertex
 10
93.40751232515113
 20
35.93199810650855
 30
0.0
  0
VERTEX
  5
32C
330
31E
100
AcDbEntity
  8
Visible (ANSI)
100
AcDbVertex
100
AcDb2dVertex
 10
93.40891023226905
 20
35.93437886620581
 30
0.0
  0
VERTEX
  5
32D
330
31E
100
AcDbEntity
  8
Visible (ANSI)
100
AcDbVertex
100
AcDb2dVertex
 10
93.41040276249389
 20
35.93675963763627
 30
0.0
  0
VERTEX
  5
32E
330
31E
100
AcDbEntity
  8
Visible (ANSI)
100
AcDbVertex
100
AcDb2dVertex
 10
93.41198352489945
 20
35.93914039733353
 30
0.0
  0
VERTEX
  5
32F
330
31E
100
AcDbEntity
  8
Visible (ANSI)
100
AcDbVertex
100
AcDb2dVertex
 10
93.41364575016395
 20
35.94152115703079
 30
0.0
  0
VERTEX
  5
330
330
31E
100
AcDbEntity
  8
Visible (ANSI)
100
AcDbVertex
100
AcDb2dVertex
 10
93.41538231916961
 20
35.94390192846125
 30
0.0
  0
VERTEX
  5
331
330
31E
100
AcDbEntity
  8
Visible (ANSI)
100
AcDbVertex
100
AcDb2dVertex
 10
93.41718579820234
 20
35.94628268815851
 30
0.0
  0
VERTEX
  5
332
330
31E
100
AcDbEntity
  8
Visible (ANSI)
100
AcDbVertex
100
AcDb2dVertex
 10
93.41904846241801
 20
35.94866344785577
 30
0.0
  0
VERTEX
  5
333
330
31E
100
AcDbEntity
  8
Visible (ANSI)
100
AcDbVertex
100
AcDb2dVertex
 10
93.42096233617544
 20
35.95104420755304
 30
0.0
  0
VERTEX
  5
334
330
31E
100
AcDbEntity
  8
Visible (ANSI)
100
AcDbVertex
100
AcDb2dVertex
 10
93.422919223836
 20
35.95342499071668
 30
0.0
  0
VERTEX
  5
335
330
31E
100
AcDbEntity
  8
Visible (ANSI)
100
AcDbVertex
100
AcDb2dVertex
 10
93.42491074642977
 20
35.95580575041394
 30
0.0
  0
VERTEX
  5
336
330
31E
100
AcDbEntity
  8
Visible (ANSI)
100
AcDbVertex
100
AcDb2dVertex
 10
93.4269283753886
 20
35.95818651011121
 30
0.0
  0
VERTEX
  5
337
330
31E
100
AcDbEntity
  8
Visible (ANSI)
100
AcDbVertex
100
AcDb2dVertex
 10
93.42896347214566
 20
35.96056726980847
 30
0.0
  0
VERTEX
  5
338
330
31E
100
AcDbEntity
  8
Visible (ANSI)
100
AcDbVertex
100
AcDb2dVertex
 10
93.43100731893496
 20
35.96294802950573
 30
0.0
  0
SEQEND
  5
321
330
31E
100
AcDbEntity
  8
Visible (ANSI)
  0
POLYLINE
  5
339
330
6C
100
AcDbEntity
  8
Visible (ANSI)
100
AcDb2dPolyline
 66
     1
 10
0.0
 20
0.0
 30
0.0
 70
   128
  0
VERTEX
  5
33A
330
339
100
AcDbEntity
  8
Visible (ANSI)
100
AcDbVertex
100
AcDb2dVertex
 10
93.39975731940427
 20
66.47330868908252
 30
0.0
  0
VERTEX
  5
33B
330
339
100
AcDbEntity
  8
Visible (ANSI)
100
AcDbVertex
100
AcDb2dVertex
 10
93.39982422805062
 20
66.4709297597641
 30
0.0
  0
VERTEX
  5
33D
330
339
100
AcDbEntity
  8
Visible (ANSI)
100
AcDbVertex
100
AcDb2dVertex
 10
93.40002466748876
 20
66.46854782674707
 30
0.0
  0
VERTEX
  5
33E
330
339
100
AcDbEntity
  8
Visible (ANSI)
100
AcDbVertex
100
AcDb2dVertex
 10
93.40035777941354
 20
66.46616889742865
 30
0.0
  0
VERTEX
  5
33F
330
339
100
AcDbEntity
  8
Visible (ANSI)
100
AcDbVertex
100
AcDb2dVertex
 10
93.40082213735341
 20
66.46378696441162
 30
0.0
  0
VERTEX
  5
340
330
339
100
AcDbEntity
  8
Visible (ANSI)
100
AcDbVertex
100
AcDb2dVertex
 10
93.40141575282926
 20
66.46140503139459
 30
0.0
  0
VERTEX
  5
341
330
339
100
AcDbEntity
  8
Visible (ANSI)
100
AcDbVertex
100
AcDb2dVertex
 10
93.40213608409126
 20
66.45902610207618
 30
0.0
  0
VERTEX
  5
342
330
339
100
AcDbEntity
  8
Visible (ANSI)
100
AcDbVertex
100
AcDb2dVertex
 10
93.40298004640841
 20
66.45664416905915
 30
0.0
  0
VERTEX
  5
343
330
339
100
AcDbEntity
  8
Visible (ANSI)
100
AcDbVertex
100
AcDb2dVertex
 10
93.40394402540574
 20
66.4542622360421
 30
0.0
  0
VERTEX
  5
344
330
339
100
AcDbEntity
  8
Visible (ANSI)
100
AcDbVertex
100
AcDb2dVertex
 10
93.40502389393101
 20
66.45188330672368
 30
0.0
  0
VERTEX
  5
345
330
339
100
AcDbEntity
  8
Visible (ANSI)
100
AcDbVertex
100
AcDb2dVertex
 10
93.40621502727096
 20
66.44950137370663
 30
0.0
  0
VERTEX
  5
346
330
339
100
AcDbEntity
  8
Visible (ANSI)
100
AcDbVertex
100
AcDb2dVertex
 10
93.40751232515113
 20
66.44712244438824
 30
0.0
  0
VERTEX
  5
347
330
339
100
AcDbEntity
  8
Visible (ANSI)
100
AcDbVertex
100
AcDb2dVertex
 10
93.40891023226905
 20
66.4447405113712
 30
0.0
  0
VERTEX
  5
348
330
339
100
AcDbEntity
  8
Visible (ANSI)
100
AcDbVertex
100
AcDb2dVertex
 10
93.41040276249389
 20
66.44235857835415
 30
0.0
  0
VERTEX
  5
349
330
339
100
AcDbEntity
  8
Visible (ANSI)
100
AcDbVertex
100
AcDb2dVertex
 10
93.41198352489945
 20
66.43997964903575
 30
0.0
  0
VERTEX
  5
34A
330
339
100
AcDbEntity
  8
Visible (ANSI)
100
AcDbVertex
100
AcDb2dVertex
 10
93.41364575016395
 20
66.4375977160187
 30
0.0
  0
VERTEX
  5
34B
330
339
100
AcDbEntity
  8
Visible (ANSI)
100
AcDbVertex
100
AcDb2dVertex
 10
93.41538231916961
 20
66.4352187867003
 30
0.0
  0
VERTEX
  5
34C
330
339
100
AcDbEntity
  8
Visible (ANSI)
100
AcDbVertex
100
AcDb2dVertex
 10
93.41718579820234
 20
66.43283685368325
 30
0.0
  0
VERTEX
  5
34D
330
339
100
AcDbEntity
  8
Visible (ANSI)
100
AcDbVertex
100
AcDb2dVertex
 10
93.41904846241801
 20
66.43045492066622
 30
0.0
  0
VERTEX
  5
34E
330
339
100
AcDbEntity
  8
Visible (ANSI)
100
AcDbVertex
100
AcDb2dVertex
 10
93.42096233617544
 20
66.42807599134781
 30
0.0
  0
VERTEX
  5
34F
330
339
100
AcDbEntity
  8
Visible (ANSI)
100
AcDbVertex
100
AcDb2dVertex
 10
93.422919223836
 20
66.42569405833078
 30
0.0
  0
VERTEX
  5
350
330
339
100
AcDbEntity
  8
Visible (ANSI)
100
AcDbVertex
100
AcDb2dVertex
 10
93.42491074642977
 20
66.42331512901236
 30
0.0
  0
VERTEX
  5
351
330
339
100
AcDbEntity
  8
Visible (ANSI)
100
AcDbVertex
100
AcDb2dVertex
 10
93.4269283753886
 20
66.42093319599533
 30
0.0
  0
VERTEX
  5
352
330
339
100
AcDbEntity
  8
Visible (ANSI)
100
AcDbVertex
100
AcDb2dVertex
 10
93.42896347214566
 20
66.4185512629783
 30
0.0
  0
VERTEX
  5
353
330
339
100
AcDbEntity
  8
Visible (ANSI)
100
AcDbVertex
100
AcDb2dVertex
 10
93.43100731893496
 20
66.41617233365988
 30
0.0
  0
SEQEND
  5
33C
330
339
100
AcDbEntity
  8
Visible (ANSI)
  0
LINE
  5
354
330
6C
100
AcDbEntity
  8
Visible (ANSI)
100
AcDbLine
 10
93.39975731940427
 20
66.47330969351933
 30
0.0
 11
93.39463191753095
 21
66.47330969351934
 31
0.0
  0
LINE
  5
355
330
6C
100
AcDbEntity
  8
Visible (ANSI)
100
AcDbLine
 10
93.39463191753095
 20
66.47330969351934
 30
0.0
 11
93.27475731940428
 21
66.47330969351933
 31
0.0
  0
LINE
  5
356
330
6C
100
AcDbEntity
  8
Visible (ANSI)
100
AcDbLine
 10
93.43100731940435
 20
66.41617134587102
 30
0.0
 11
94.14975731940433
 21
66.41617134587102
 31
0.0
  0
POLYLINE
  5
357
330
6C
100
AcDbEntity
  8
Visible (ANSI)
100
AcDb2dPolyline
 66
     1
 10
0.0
 20
0.0
 30
0.0
 70
   128
  0
VERTEX
  5
358
330
357
100
AcDbEntity
  8
Visible (ANSI)
100
AcDbVertex
100
AcDb2dVertex
 10
93.43100731893493
 20
66.62956109204142
 30
0.0
  0
VERTEX
  5
359
330
357
100
AcDbEntity
  8
Visible (ANSI)
100
AcDbVertex
100
AcDb2dVertex
 10
93.42078808058843
 20
66.62922467779437
 30
0.0
  0
VERTEX
  5
35B
330
357
100
AcDbEntity
  8
Visible (ANSI)
100
AcDbVertex
100
AcDb2dVertex
 10
93.41061260193646
 20
66.62822444614914
 30
0.0
  0
VERTEX
  5
35C
330
357
100
AcDbEntity
  8
Visible (ANSI)
100
AcDbVertex
100
AcDb2dVertex
 10
93.40052445659223
 20
66.62655739340706
 30
0.0
  0
VERTEX
  5
35D
330
357
100
AcDbEntity
  8
Visible (ANSI)
100
AcDbVertex
100
AcDb2dVertex
 10
93.39056684344008
 20
66.62423553436273
 30
0.0
  0
VERTEX
  5
35E
330
357
100
AcDbEntity
  8
Visible (ANSI)
100
AcDbVertex
100
AcDb2dVertex
 10
93.38078240367078
 20
66.62126788011197
 30
0.0
  0
VERTEX
  5
35F
330
357
100
AcDbEntity
  8
Visible (ANSI)
100
AcDbVertex
100
AcDb2dVertex
 10
93.37121303341694
 20
66.61766644544939
 30
0.0
  0
VERTEX
  5
360
330
357
100
AcDbEntity
  8
Visible (ANSI)
100
AcDbVertex
100
AcDb2dVertex
 10
93.36189971087192
 20
66.61344624886813
 30
0.0
  0
VERTEX
  5
361
330
357
100
AcDbEntity
  8
Visible (ANSI)
100
AcDbVertex
100
AcDb2dVertex
 10
93.35288232010825
 20
66.60862531255999
 30
0.0
  0
VERTEX
  5
362
330
357
100
AcDbEntity
  8
Visible (ANSI)
100
AcDbVertex
100
AcDb2dVertex
 10
93.34419947214659
 20
66.60322766611407
 30
0.0
  0
VERTEX
  5
363
330
357
100
AcDbEntity
  8
Visible (ANSI)
100
AcDbVertex
100
AcDb2dVertex
 10
93.33588834362412
 20
66.59727133172215
 30
0.0
  0
VERTEX
  5
364
330
357
100
AcDbEntity
  8
Visible (ANSI)
100
AcDbVertex
100
AcDb2dVertex
 10
93.32798453306294
 20
66.59078334267196
 30
0.0
  0
VERTEX
  5
365
330
357
100
AcDbEntity
  8
Visible (ANSI)
100
AcDbVertex
100
AcDb2dVertex
 10
93.3205218848721
 20
66.58379373594981
 30
0.0
  0
VERTEX
  5
366
330
357
100
AcDbEntity
  8
Visible (ANSI)
100
AcDbVertex
100
AcDb2dVertex
 10
93.31353234854915
 20
66.5763325485421
 30
0.0
  0
VERTEX
  5
367
330
357
100
AcDbEntity
  8
Visible (ANSI)
100
AcDbVertex
100
AcDb2dVertex
 10
93.30704586134826
 20
66.56842981743512
 30
0.0
  0
VERTEX
  5
368
330
357
100
AcDbEntity
  8
Visible (ANSI)
100
AcDbVertex
100
AcDb2dVertex
 10
93.30109019574864
 20
66.56011858331386
 30
0.0
  0
VERTEX
  5
369
330
357
100
AcDbEntity
  8
Visible (ANSI)
100
AcDbVertex
100
AcDb2dVertex
 10
93.29569084798903
 20
66.55143489056197
 30
0.0
  0
VERTEX
  5
36A
330
357
100
AcDbEntity
  8
Visible (ANSI)
100
AcDbVertex
100
AcDb2dVertex
 10
93.29087095593548
 20
66.54241778726164
 30
0.0
  0
VERTEX
  5
36B
330
357
100
AcDbEntity
  8
Visible (ANSI)
100
AcDbVertex
100
AcDb2dVertex
 10
93.28665114654977
 20
66.53310331779653
 30
0.0
  0
VERTEX
  5
36C
330
357
100
AcDbEntity
  8
Visible (ANSI)
100
AcDbVertex
100
AcDb2dVertex
 10
93.28304948895642
 20
66.52353353394747
 30
0.0
  0
VERTEX
  5
36D
330
357
100
AcDbEntity
  8
Visible (ANSI)
100
AcDbVertex
100
AcDb2dVertex
 10
93.28008141231057
 20
66.5137504874954
 30
0.0
  0
VERTEX
  5
36E
330
357
100
AcDbEntity
  8
Visible (ANSI)
100
AcDbVertex
100
AcDb2dVertex
 10
93.27775962366541
 20
66.50379322652253
 30
0.0
  0
VERTEX
  5
36F
330
357
100
AcDbEntity
  8
Visible (ANSI)
100
AcDbVertex
100
AcDb2dVertex
 10
93.27609406103944
 20
66.49370380280974
 30
0.0
  0
VERTEX
  5
370
330
357
100
AcDbEntity
  8
Visible (ANSI)
100
AcDbVertex
100
AcDb2dVertex
 10
93.275091858217
 20
66.4835302755352
 30
0.0
  0
VERTEX
  5
371
330
357
100
AcDbEntity
  8
Visible (ANSI)
100
AcDbVertex
100
AcDb2dVertex
 10
93.27475732128158
 20
66.47330868908252
 30
0.0
  0
SEQEND
  5
35A
330
357
100
AcDbEntity
  8
Visible (ANSI)
  0
LINE
  5
372
330
6C
100
AcDbEntity
  8
Visible (ANSI)
100
AcDbLine
 10
93.43100731940428
 20
66.50455969351932
 30
0.0
 11
94.14975731940428
 21
66.50455969351938
 31
0.0
  0
LINE
  5
373
330
6C
100
AcDbEntity
  8
Visible (ANSI)
100
AcDbLine
 10
94.14975731940426
 20
66.62955969351937
 30
0.0
 11
93.43100731940426
 21
66.62955969351934
 31
0.0
  0
LINE
  5
374
330
6C
100
AcDbEntity
  8
Visible (ANSI)
100
AcDbLine
 10
93.43100731940428
 20
66.50455969351932
 30
0.0
 11
93.43100731940426
 21
66.62955969351934
 31
0.0
  0
LINE
  5
375
330
6C
100
AcDbEntity
  8
Visible (ANSI)
100
AcDbLine
 10
94.14975731940428
 20
66.50455969351938
 30
0.0
 11
94.14975731940426
 21
66.62955969351937
 31
0.0
  0
POLYLINE
  5
376
330
6C
100
AcDbEntity
  8
Visible (ANSI)
100
AcDb2dPolyline
 66
     1
 10
0.0
 20
0.0
 30
0.0
 70
   128
  0
VERTEX
  5
377
330
376
100
AcDbEntity
  8
Visible (ANSI)
100
AcDbVertex
100
AcDb2dVertex
 10
93.39975731940427
 20
66.47330868908252
 30
0.0
  0
VERTEX
  5
378
330
376
100
AcDbEntity
  8
Visible (ANSI)
100
AcDbVertex
100
AcDb2dVertex
 10
93.39982422805062
 20
66.47535420785249
 30
0.0
  0
VERTEX
  5
37A
330
376
100
AcDbEntity
  8
Visible (ANSI)
100
AcDbVertex
100
AcDb2dVertex
 10
93.40002466748876
 20
66.47738771182796
 30
0.0
  0
VERTEX
  5
37B
330
376
100
AcDbEntity
  8
Visible (ANSI)
100
AcDbVertex
100
AcDb2dVertex
 10
93.40035777941354
 20
66.47940619731024
 30
0.0
  0
VERTEX
  5
37C
330
376
100
AcDbEntity
  8
Visible (ANSI)
100
AcDbVertex
100
AcDb2dVertex
 10
93.40082213735341
 20
66.48139764950482
 30
0.0
  0
VERTEX
  5
37D
330
376
100
AcDbEntity
  8
Visible (ANSI)
100
AcDbVertex
100
AcDb2dVertex
 10
93.40141575282924
 20
66.4833560610144
 30
0.0
  0
VERTEX
  5
37E
330
376
100
AcDbEntity
  8
Visible (ANSI)
100
AcDbVertex
100
AcDb2dVertex
 10
93.40213608409124
 20
66.48526941704449
 30
0.0
  0
VERTEX
  5
37F
330
376
100
AcDbEntity
  8
Visible (ANSI)
100
AcDbVertex
100
AcDb2dVertex
 10
93.40298004640839
 20
66.4871317101978
 30
0.0
  0
VERTEX
  5
380
330
376
100
AcDbEntity
  8
Visible (ANSI)
100
AcDbVertex
100
AcDb2dVertex
 10
93.40394402540574
 20
66.4889339293784
 30
0.0
  0
VERTEX
  5
381
330
376
100
AcDbEntity
  8
Visible (ANSI)
100
AcDbVertex
100
AcDb2dVertex
 10
93.40502389393101
 20
66.49067006718905
 30
0.0
  0
VERTEX
  5
382
330
376
100
AcDbEntity
  8
Visible (ANSI)
100
AcDbVertex
100
AcDb2dVertex
 10
93.40621502727094
 20
66.49233411623248
 30
0.0
  0
VERTEX
  5
383
330
376
100
AcDbEntity
  8
Visible (ANSI)
100
AcDbVertex
100
AcDb2dVertex
 10
93.40751232515112
 20
66.49391406171415
 30
0.0
  0
VERTEX
  5
384
330
376
100
AcDbEntity
  8
Visible (ANSI)
100
AcDbVertex
100
AcDb2dVertex
 10
93.40891023226904
 20
66.49540689993543
 30
0.0
  0
VERTEX
  5
385
330
376
100
AcDbEntity
  8
Visible (ANSI)
100
AcDbVertex
100
AcDb2dVertex
 10
93.41040276249387
 20
66.4968036198004
 30
0.0
  0
VERTEX
  5
386
330
376
100
AcDbEntity
  8
Visible (ANSI)
100
AcDbVertex
100
AcDb2dVertex
 10
93.41198352489943
 20
66.49810121761044
 30
0.0
  0
VERTEX
  5
387
330
376
100
AcDbEntity
  8
Visible (ANSI)
100
AcDbVertex
100
AcDb2dVertex
 10
93.41364575016392
 20
66.49929368596827
 30
0.0
  0
VERTEX
  5
388
330
376
100
AcDbEntity
  8
Visible (ANSI)
100
AcDbVertex
100
AcDb2dVertex
 10
93.4153823191696
 20
66.500372013778
 30
0.0
  0
VERTEX
  5
389
330
376
100
AcDbEntity
  8
Visible (ANSI)
100
AcDbVertex
100
AcDb2dVertex
 10
93.41718579820231
 20
66.50133620103962
 30
0.0
  0
VERTEX
  5
38A
330
376
100
AcDbEntity
  8
Visible (ANSI)
100
AcDbVertex
100
AcDb2dVertex
 10
93.41904846241799
 20
66.5021802403559
 30
0.0
  0
VERTEX
  5
38B
330
376
100
AcDbEntity
  8
Visible (ANSI)
100
AcDbVertex
100
AcDb2dVertex
 10
93.42096233617544
 20
66.50290112802813
 30
0.0
  0
VERTEX
  5
38C
330
376
100
AcDbEntity
  8
Visible (ANSI)
100
AcDbVertex
100
AcDb2dVertex
 10
93.42291922383598
 20
66.50349586035773
 30
0.0
  0
VERTEX
  5
38D
330
376
100
AcDbEntity
  8
Visible (ANSI)
100
AcDbVertex
100
AcDb2dVertex
 10
93.42491074642973
 20
66.50395842994742
 30
0.0
  0
VERTEX
  5
38E
330
376
100
AcDbEntity
  8
Visible (ANSI)
100
AcDbVertex
100
AcDb2dVertex
 10
93.42692837538857
 20
66.50429184049584
 30
0.0
  0
VERTEX
  5
38F
330
376
100
AcDbEntity
  8
Visible (ANSI)
100
AcDbVertex
100
AcDb2dVertex
 10
93.42896347214562
 20
66.50449308830435
 30
0.0
  0
VERTEX
  5
390
330
376
100
AcDbEntity
  8
Visible (ANSI)
100
AcDbVertex
100
AcDb2dVertex
 10
93.43100731893493
 20
66.50455916967429
 30
0.0
  0
SEQEND
  5
379
330
376
100
AcDbEntity
  8
Visible (ANSI)
  0
POLYLINE
  5
391
330
6C
100
AcDbEntity
  8
Visible (ANSI)
100
AcDb2dPolyline
 66
     1
 10
0.0
 20
0.0
 30
0.0
 70
   128
  0
VERTEX
  5
392
330
391
100
AcDbEntity
  8
Visible (ANSI)
100
AcDbVertex
100
AcDb2dVertex
 10
93.27475732128158
 20
35.90580969117269
 30
0.0
  0
VERTEX
  5
393
330
391
100
AcDbEntity
  8
Visible (ANSI)
100
AcDbVertex
100
AcDb2dVertex
 10
93.275091858217
 20
35.89559045135955
 30
0.0
  0
VERTEX
  5
395
330
391
100
AcDbEntity
  8
Visible (ANSI)
100
AcDbVertex
100
AcDb2dVertex
 10
93.27609406103944
 20
35.88541497637417
 30
0.0
  0
VERTEX
  5
396
330
391
100
AcDbEntity
  8
Visible (ANSI)
100
AcDbVertex
100
AcDb2dVertex
 10
93.27775962366541
 20
35.87532683157995
 30
0.0
  0
VERTEX
  5
397
330
391
100
AcDbEntity
  8
Visible (ANSI)
100
AcDbVertex
100
AcDb2dVertex
 10
93.28008141231057
 20
35.86536921861114
 30
0.0
  0
VERTEX
  5
398
330
391
100
AcDbEntity
  8
Visible (ANSI)
100
AcDbVertex
100
AcDb2dVertex
 10
93.28304948895642
 20
35.85558477590853
 30
0.0
  0
VERTEX
  5
399
330
391
100
AcDbEntity
  8
Visible (ANSI)
100
AcDbVertex
100
AcDb2dVertex
 10
93.28665114654977
 20
35.84601540858802
 30
0.0
  0
VERTEX
  5
39A
330
391
100
AcDbEntity
  8
Visible (ANSI)
100
AcDbVertex
100
AcDb2dVertex
 10
93.29087095593548
 20
35.83670208310967
 30
0.0
  0
VERTEX
  5
39B
330
391
100
AcDbEntity
  8
Visible (ANSI)
100
AcDbVertex
100
AcDb2dVertex
 10
93.29569084798903
 20
35.82768469234601
 30
0.0
  0
VERTEX
  5
39C
330
391
100
AcDbEntity
  8
Visible (ANSI)
100
AcDbVertex
100
AcDb2dVertex
 10
93.30109019574864
 20
35.81900184438435
 30
0.0
  0
VERTEX
  5
39D
330
391
100
AcDbEntity
  8
Visible (ANSI)
100
AcDbVertex
100
AcDb2dVertex
 10
93.30704586134826
 20
35.81069072172848
 30
0.0
  0
VERTEX
  5
39E
330
391
100
AcDbEntity
  8
Visible (ANSI)
100
AcDbVertex
100
AcDb2dVertex
 10
93.31353234854915
 20
35.8027869111673
 30
0.0
  0
VERTEX
  5
39F
330
391
100
AcDbEntity
  8
Visible (ANSI)
100
AcDbVertex
100
AcDb2dVertex
 10
93.3205218848721
 20
35.79532426004315
 30
0.0
  0
VERTEX
  5
3A0
330
391
100
AcDbEntity
  8
Visible (ANSI)
100
AcDbVertex
100
AcDb2dVertex
 10
93.32798453306294
 20
35.7883347237202
 30
0.0
  0
VERTEX
  5
3A1
330
391
100
AcDbEntity
  8
Visible (ANSI)
100
AcDbVertex
100
AcDb2dVertex
 10
93.33588834362412
 20
35.78184823358603
 30
0.0
  0
VERTEX
  5
3A2
330
391
100
AcDbEntity
  8
Visible (ANSI)
100
AcDbVertex
100
AcDb2dVertex
 10
93.34419947214659
 20
35.77589256798638
 30
0.0
  0
VERTEX
  5
3A3
330
391
100
AcDbEntity
  8
Visible (ANSI)
100
AcDbVertex
100
AcDb2dVertex
 10
93.35288232010825
 20
35.77049322462673
 30
0.0
  0
VERTEX
  5
3A4
330
391
100
AcDbEntity
  8
Visible (ANSI)
100
AcDbVertex
100
AcDb2dVertex
 10
93.36189971087192
 20
35.76567332817325
 30
0.0
  0
VERTEX
  5
3A5
330
391
100
AcDbEntity
  8
Visible (ANSI)
100
AcDbVertex
100
AcDb2dVertex
 10
93.37121303341694
 20
35.76145351658754
 30
0.0
  0
VERTEX
  5
3A6
330
391
100
AcDbEntity
  8
Visible (ANSI)
100
AcDbVertex
100
AcDb2dVertex
 10
93.38078240367078
 20
35.75785186046085
 30
0.0
  0
VERTEX
  5
3A7
330
391
100
AcDbEntity
  8
Visible (ANSI)
100
AcDbVertex
100
AcDb2dVertex
 10
93.39056684344008
 20
35.75488378308167
 30
0.0
  0
VERTEX
  5
3A8
330
391
100
AcDbEntity
  8
Visible (ANSI)
100
AcDbVertex
100
AcDb2dVertex
 10
93.40052445659223
 20
35.75256199351983
 30
0.0
  0
VERTEX
  5
3A9
330
391
100
AcDbEntity
  8
Visible (ANSI)
100
AcDbVertex
100
AcDb2dVertex
 10
93.41061260193646
 20
35.75089643391886
 30
0.0
  0
VERTEX
  5
3AA
330
391
100
AcDbEntity
  8
Visible (ANSI)
100
AcDbVertex
100
AcDb2dVertex
 10
93.42078808058843
 20
35.74989423675674
 30
0.0
  0
VERTEX
  5
3AB
330
391
100
AcDbEntity
  8
Visible (ANSI)
100
AcDbVertex
100
AcDb2dVertex
 10
93.43100731893493
 20
35.74955969351933
 30
0.0
  0
SEQEND
  5
394
330
391
100
AcDbEntity
  8
Visible (ANSI)
  0
LINE
  5
3AC
330
6C
100
AcDbEntity
  8
Visible (ANSI)
100
AcDbLine
 10
93.43100731940426
 20
35.87455969351933
 30
0.0
 11
94.14975731940426
 21
35.87455969351933
 31
0.0
  0
LINE
  5
3AD
330
6C
100
AcDbEntity
  8
Visible (ANSI)
100
AcDbLine
 10
93.43100731940426
 20
35.87455969351933
 30
0.0
 11
93.43100731940426
 21
35.74955969351933
 31
0.0
  0
POLYLINE
  5
3AE
330
6C
100
AcDbEntity
  8
Visible (ANSI)
100
AcDb2dPolyline
 66
     1
 10
0.0
 20
0.0
 30
0.0
 70
   128
  0
VERTEX
  5
3AF
330
3AE
100
AcDbEntity
  8
Visible (ANSI)
100
AcDbVertex
100
AcDb2dVertex
 10
93.39975731940427
 20
35.90580969117269
 30
0.0
  0
VERTEX
  5
3B0
330
3AE
100
AcDbEntity
  8
Visible (ANSI)
100
AcDbVertex
100
AcDb2dVertex
 10
93.39982422805062
 20
35.90376585024998
 30
0.0
  0
VERTEX
  5
3B2
330
3AE
100
AcDbEntity
  8
Visible (ANSI)
100
AcDbVertex
100
AcDb2dVertex
 10
93.40002466748876
 20
35.90173075055962
 30
0.0
  0
VERTEX
  5
3B3
330
3AE
100
AcDbEntity
  8
Visible (ANSI)
100
AcDbVertex
100
AcDb2dVertex
 10
93.40035777941354
 20
35.89971312160078
 30
0.0
  0
VERTEX
  5
3B4
330
3AE
100
AcDbEntity
  8
Visible (ANSI)
100
AcDbVertex
100
AcDb2dVertex
 10
93.40082213735341
 20
35.89772159900703
 30
0.0
  0
VERTEX
  5
3B5
330
3AE
100
AcDbEntity
  8
Visible (ANSI)
100
AcDbVertex
100
AcDb2dVertex
 10
93.40141575282924
 20
35.89576471281314
 30
0.0
  0
VERTEX
  5
3B6
330
3AE
100
AcDbEntity
  8
Visible (ANSI)
100
AcDbVertex
100
AcDb2dVertex
 10
93.40213608409124
 20
35.89385084052235
 30
0.0
  0
VERTEX
  5
3B7
330
3AE
100
AcDbEntity
  8
Visible (ANSI)
100
AcDbVertex
100
AcDb2dVertex
 10
93.40298004640839
 20
35.89198817190673
 30
0.0
  0
VERTEX
  5
3B8
330
3AE
100
AcDbEntity
  8
Visible (ANSI)
100
AcDbVertex
100
AcDb2dVertex
 10
93.40394402540574
 20
35.89018469727395
 30
0.0
  0
VERTEX
  5
3B9
330
3AE
100
AcDbEntity
  8
Visible (ANSI)
100
AcDbVertex
100
AcDb2dVertex
 10
93.40502389393101
 20
35.88844812533498
 30
0.0
  0
VERTEX
  5
3BA
330
3AE
100
AcDbEntity
  8
Visible (ANSI)
100
AcDbVertex
100
AcDb2dVertex
 10
93.40621502727094
 20
35.88678589493721
 30
0.0
  0
VERTEX
  5
3BB
330
3AE
100
AcDbEntity
  8
Visible (ANSI)
100
AcDbVertex
100
AcDb2dVertex
 10
93.40751232515112
 20
35.8852051398649
 30
0.0
  0
VERTEX
  5
3BC
330
3AE
100
AcDbEntity
  8
Visible (ANSI)
100
AcDbVertex
100
AcDb2dVertex
 10
93.40891023226904
 20
35.88371260670676
 30
0.0
  0
VERTEX
  5
3BD
330
3AE
100
AcDbEntity
  8
Visible (ANSI)
100
AcDbVertex
100
AcDb2dVertex
 10
93.41040276249387
 20
35.88231470178881
 30
0.0
  0
VERTEX
  5
3BE
330
3AE
100
AcDbEntity
  8
Visible (ANSI)
100
AcDbVertex
100
AcDb2dVertex
 10
93.41198352489943
 20
35.88101739730872
 30
0.0
  0
VERTEX
  5
3BF
330
3AE
100
AcDbEntity
  8
Visible (ANSI)
100
AcDbVertex
100
AcDb2dVertex
 10
93.41364575016392
 20
35.87982626653543
 30
0.0
  0
VERTEX
  5
3C0
330
3AE
100
AcDbEntity
  8
Visible (ANSI)
100
AcDbVertex
100
AcDb2dVertex
 10
93.4153823191696
 20
35.87874640167679
 30
0.0
  0
VERTEX
  5
3C1
330
3AE
100
AcDbEntity
  8
Visible (ANSI)
100
AcDbVertex
100
AcDb2dVertex
 10
93.41718579820231
 20
35.87778242561272
 30
0.0
  0
VERTEX
  5
3C2
330
3AE
100
AcDbEntity
  8
Visible (ANSI)
100
AcDbVertex
100
AcDb2dVertex
 10
93.41904846241799
 20
35.87693845669566
 30
0.0
  0
VERTEX
  5
3C3
330
3AE
100
AcDbEntity
  8
Visible (ANSI)
100
AcDbVertex
100
AcDb2dVertex
 10
93.42096233617544
 20
35.87621813221691
 30
0.0
  0
VERTEX
  5
3C4
330
3AE
100
AcDbEntity
  8
Visible (ANSI)
100
AcDbVertex
100
AcDb2dVertex
 10
93.42291922383598
 20
35.8756245145411
 30
0.0
  0
VERTEX
  5
3C5
330
3AE
100
AcDbEntity
  8
Visible (ANSI)
100
AcDbVertex
100
AcDb2dVertex
 10
93.42491074642973
 20
35.87516014977214
 30
0.0
  0
VERTEX
  5
3C6
330
3AE
100
AcDbEntity
  8
Visible (ANSI)
100
AcDbVertex
100
AcDb2dVertex
 10
93.42692837538857
 20
35.87482704428687
 30
0.0
  0
VERTEX
  5
3C7
330
3AE
100
AcDbEntity
  8
Visible (ANSI)
100
AcDbVertex
100
AcDb2dVertex
 10
93.42896347214562
 20
35.87462660606902
 30
0.0
  0
VERTEX
  5
3C8
330
3AE
100
AcDbEntity
  8
Visible (ANSI)
100
AcDbVertex
100
AcDb2dVertex
 10
93.43100731893493
 20
35.87455969164202
 30
0.0
  0
SEQEND
  5
3B1
330
3AE
100
AcDbEntity
  8
Visible (ANSI)
  0
LINE
  5
3C9
330
6C
100
AcDbEntity
  8
Visible (ANSI)
100
AcDbLine
 10
93.43100731940426
 20
35.74955969351933
 30
0.0
 11
94.14975731940426
 21
35.74955969351933
 31
0.0
  0
LINE
  5
3CA
330
6C
100
AcDbEntity
  8
Visible (ANSI)
100
AcDbLine
 10
94.14975731940426
 20
35.87455969351933
 30
0.0
 11
94.14975731940426
 21
35.74955969351933
 31
0.0
  0
LINE
  5
3CB
330
6C
100
AcDbEntity
  8
Visible (ANSI)
100
AcDbLine
 10
93.27475731940428
 20
35.90580969351933
 30
0.0
 11
93.27475731940428
 21
66.47330969351933
 31
0.0
  0
LINE
  5
3CC
330
6C
100
AcDbEntity
  8
Hidden (ANSI)
100
AcDbLine
 10
93.39975731940427
 20
66.47330969351933
 30
0.0
 11
93.39975731940427
 21
35.90580969351933
 31
0.0
  0
LINE
  5
3CD
330
6C
100
AcDbEntity
  8
Visible (ANSI)
100
AcDbLine
 10
94.14975731940433
 20
66.41617134587102
 30
0.0
 11
94.14975731940433
 21
35.96294804116765
 31
0.0
  0
LINE
  5
3CE
330
6C
100
AcDbEntity
  8
Hidden (ANSI)
100
AcDbLine
 10
93.39975731940405
 20
65.47305969351931
 30
0.0
 11
93.27475731940406
 21
65.47305969351931
 31
0.0
  0
LINE
  5
3CF
330
6C
100
AcDbEntity
  8
Hidden (ANSI)
100
AcDbLine
 10
93.39975731940405
 20
66.03605969351932
 30
0.0
 11
93.27475731940406
 21
66.03605969351932
 31
0.0
  0
LINE
  5
3D0
330
6C
100
AcDbEntity
  8
Hidden (ANSI)
100
AcDbLine
 10
93.39975731940405
 20
36.34305969351933
 30
0.0
 11
93.27475731940406
 21
36.34305969351933
 31
0.0
  0
LINE
  5
3D1
330
6C
100
AcDbEntity
  8
Hidden (ANSI)
100
AcDbLine
 10
93.39975731940405
 20
36.90605969351933
 30
0.0
 11
93.27475731940406
 21
36.90605969351933
 31
0.0
  0
MTEXT
  5
3D2
330
6C
100
AcDbEntity
  8
Symbol (ANSI)
100
AcDbMText
 10
89.96421378534684
 20
30.74226205387314
 30
0.0
 40
1.200000014830761
 41
0.0
 46
0.0
 71
     7
 72
     1
  1
SIDE VIEW
  7
Text Style153
 73
     1
 44
1.0
  0
LINE
  5
3D3
330
6C
100
AcDbEntity
  8
Symbol (ANSI)
370
    30
100
AcDbLine
 10
89.90277362730068
 20
30.49365589222607
 30
0.0
 11
98.01201183135564
 21
30.49365589222607
 31
0.0
  0
ELLIPSE
  5
3D4
330
6C
100
AcDbEntity
  8
Visible (ANSI)
100
AcDbEllipse
 10
134.4267744005059
 20
39.09750800640763
 30
0.0
 11
-0.1404775675610102
 21
0.2439432372748665
 31
0.0
210
0.0
220
0.0
230
1.0
 40
0.578093115915809
 41
0.0
 42
6.283185307179586
  0
ELLIPSE
  5
3D5
330
6C
100
AcDbEntity
  8
Visible (ANSI)
100
AcDbEllipse
 10
134.5151627481542
 20
39.14840747063168
 30
0.0
 11
-0.1404775675610103
 21
0.2439432372748667
 31
0.0
210
0.0
220
0.0
230
1.0
 40
0.578093115915809
 41
0.3187556839588472
 42
2.822836969630992
  0
ELLIPSE
  5
3D6
330
6C
100
AcDbEntity
  8
Visible (ANSI)
100
AcDbEllipse
 10
134.426774400506
 20
62.91265575307076
 30
0.0
 11
-0.1404775675610102
 21
0.2439432372748665
 31
0.0
210
0.0
220
0.0
230
1.0
 40
0.578093115915809
 41
0.0
 42
6.283185307179586
  0
ELLIPSE
  5
3D7
330
6C
100
AcDbEntity
  8
Visible (ANSI)
100
AcDbEllipse
 10
134.5151627481543
 20
62.96355521729481
 30
0.0
 11
-0.1404775675610077
 21
0.2439432372748621
 31
0.0
210
0.0
220
0.0
230
0.9999999999999998
 40
0.578093115915809
 41
0.3187556839588197
 42
2.822836969630834
  0
ELLIPSE
  5
3D8
330
6C
100
AcDbEntity
  8
Visible (ANSI)
100
AcDbEllipse
 10
153.6070458401939
 20
51.86747201645522
 30
0.0
 11
-0.1404775675610102
 21
0.2439432372748665
 31
0.0
210
0.0
220
0.0
230
1.0
 40
0.578093115915809
 41
0.0
 42
6.283185307179586
  0
ELLIPSE
  5
3D9
330
6C
100
AcDbEntity
  8
Visible (ANSI)
100
AcDbEllipse
 10
153.6954341878422
 20
51.91837148067926
 30
0.0
 11
-0.1404775675610114
 21
0.2439432372748686
 31
0.0
210
0.0
220
0.0
230
1.0
 40
0.5780931159158093
 41
0.3187556839589724
 42
2.822836969630978
  0
ELLIPSE
  5
3DA
330
6C
100
AcDbEntity
  8
Visible (ANSI)
100
AcDbEllipse
 10
115.246502960818
 20
73.95783948968631
 30
0.0
 11
-0.1404775675610102
 21
0.2439432372748665
 31
0.0
210
0.0
220
0.0
230
1.0
 40
0.578093115915809
 41
0.0
 42
6.283185307179586
  0
ELLIPSE
  5
3DB
330
6C
100
AcDbEntity
  8
Visible (ANSI)
100
AcDbEllipse
 10
115.3348913084664
 20
74.00873895391035
 30
0.0
 11
-0.1404775675610102
 21
0.2439432372748664
 31
0.0
210
0.0
220
0.0
230
1.0
 40
0.578093115915809
 41
0.318755683958972
 42
2.822836969630898
  0
ELLIPSE
  5
3DC
330
6C
100
AcDbEntity
  8
Visible (ANSI)
100
AcDbEllipse
 10
115.246502960818
 20
50.14269174302321
 30
0.0
 11
-0.1404775675610102
 21
0.2439432372748665
 31
0.0
210
0.0
220
0.0
230
1.0
 40
0.578093115915809
 41
0.0
 42
6.283185307179586
  0
ELLIPSE
  5
3DD
330
6C
100
AcDbEntity
  8
Visible (ANSI)
100
AcDbEllipse
 10
115.3348913084663
 20
50.19359120724726
 30
0.0
 11
-0.1404775675610101
 21
0.2439432372748663
 31
0.0
210
0.0
220
0.0
230
1.0
 40
0.578093115915809
 41
0.3187556839589721
 42
2.822836969630912
  0
ELLIPSE
  5
3DE
330
6C
100
AcDbEntity
  8
Visible (ANSI)
100
AcDbEllipse
 10
153.6070458401939
 20
28.05232426979213
 30
0.0
 11
-0.1404775675610102
 21
0.2439432372748665
 31
0.0
210
0.0
220
0.0
230
1.0
 40
0.578093115915809
 41
0.0
 42
6.283185307179586
  0
ELLIPSE
  5
3DF
330
6C
100
AcDbEntity
  8
Visible (ANSI)
100
AcDbEllipse
 10
153.6954341878422
 20
28.10322373401617
 30
0.0
 11
-0.140477567561011
 21
0.2439432372748678
 31
0.0
210
0.0
220
0.0
230
1.0
 40
0.5780931159158093
 41
0.3187556839589587
 42
2.822836969630977
  0
LINE
  5
3E0
330
6C
100
AcDbEntity
  8
Visible Narrow (ANSI)
100
AcDbLine
 10
154.3362497082926
 20
52.11569880130948
 30
0.0
 11
154.3362497082926
 21
27.21875364636151
 31
0.0
  0
LINE
  5
3E1
330
6C
100
AcDbEntity
  8
Visible Narrow (ANSI)
100
AcDbLine
 10
154.1152788391718
 20
27.17204035452336
 30
0.0
 11
154.1152788391718
 21
52.1624120931476
 31
0.0
  0
LINE
  5
3E2
330
6C
100
AcDbEntity
  8
Visible Narrow (ANSI)
100
AcDbLine
 10
114.8891583094884
 20
75.00622298323621
 30
0.0
 11
154.1853613606443
 21
52.37704465193989
 31
0.0
  0
LINE
  5
3E3
330
6C
100
AcDbEntity
  8
Visible Narrow (ANSI)
100
AcDbLine
 10
154.1152788391718
 20
52.1624120931476
 30
0.0
 11
114.7382699618402
 21
74.83812340495507
 31
0.0
  0
LINE
  5
3E4
330
6C
100
AcDbEntity
  8
Visible Narrow (ANSI)
100
AcDbLine
 10
114.7382699618402
 20
74.83812340495507
 30
0.0
 11
114.7382699618401
 21
49.84775166633082
 31
0.0
  0
LINE
  5
3E5
330
6C
100
AcDbEntity
  8
Visible Narrow (ANSI)
100
AcDbLine
 10
114.7382699618401
 20
49.84775166633082
 30
0.0
 11
154.1152788391718
 21
27.17204035452335
 31
0.0
  0
LINE
  5
3E6
330
6C
100
AcDbEntity
  8
Visible (ANSI)
100
AcDbLine
 10
114.6925053964005
 20
74.87839108931606
 30
0.0
 11
114.6925053964005
 21
49.93473264252997
 31
0.0
  0
LINE
  5
3E7
330
6C
100
AcDbEntity
  8
Visible (ANSI)
100
AcDbLine
 10
114.791032807366
 20
49.76431044767466
 30
0.0
 11
154.1275392966466
 21
27.11192290994424
 31
0.0
  0
POLYLINE
  5
3E8
330
6C
100
AcDbEntity
  8
Visible (ANSI)
100
AcDb2dPolyline
 66
     1
 10
0.0
 20
0.0
 30
0.0
 70
   128
  0
VERTEX
  5
3E9
330
3E8
100
AcDbEntity
  8
Visible (ANSI)
100
AcDbVertex
100
AcDb2dVertex
 10
154.1152786705844
 20
52.16241137058506
 30
0.0
  0
VERTEX
  5
3EA
330
3E8
100
AcDbEntity
  8
Visible (ANSI)
100
AcDbVertex
100
AcDb2dVertex
 10
154.1227408530795
 20
52.15644174266831
 30
0.0
  0
VERTEX
  5
3EC
330
3E8
100
AcDbEntity
  8
Visible (ANSI)
100
AcDbVertex
100
AcDb2dVertex
 10
154.1306454115515
 20
52.15075865307876
 30
0.0
  0
VERTEX
  5
3ED
330
3E8
100
AcDbEntity
  8
Visible (ANSI)
100
AcDbVertex
100
AcDb2dVertex
 10
154.1389553181687
 20
52.14538482921937
 30
0.0
  0
VERTEX
  5
3EE
330
3E8
100
AcDbEntity
  8
Visible (ANSI)
100
AcDbVertex
100
AcDb2dVertex
 10
154.1476400413558
 20
52.14032713203189
 30
0.0
  0
VERTEX
  5
3EF
330
3E8
100
AcDbEntity
  8
Visible (ANSI)
100
AcDbVertex
100
AcDb2dVertex
 10
154.1566585709018
 20
52.13560353995432
 30
0.0
  0
VERTEX
  5
3F0
330
3E8
100
AcDbEntity
  8
Visible (ANSI)
100
AcDbVertex
100
AcDb2dVertex
 10
154.1659679385923
 20
52.13123090388557
 30
0.0
  0
VERTEX
  5
3F1
330
3E8
100
AcDbEntity
  8
Visible (ANSI)
100
AcDbVertex
100
AcDb2dVertex
 10
154.175540242882
 20
52.12720781455517
 30
0.0
  0
VERTEX
  5
3F2
330
3E8
100
AcDbEntity
  8
Visible (ANSI)
100
AcDbVertex
100
AcDb2dVertex
 10
154.1853244761279
 20
52.12355138563594
 30
0.0
  0
VERTEX
  5
3F3
330
3E8
100
AcDbEntity
  8
Visible (ANSI)
100
AcDbVertex
100
AcDb2dVertex
 10
154.1952805656377
 20
52.12027035070121
 30
0.0
  0
VERTEX
  5
3F4
330
3E8
100
AcDbEntity
  8
Visible (ANSI)
100
AcDbVertex
100
AcDb2dVertex
 10
154.2053709111125
 20
52.11736260771281
 30
0.0
  0
VERTEX
  5
3F5
330
3E8
100
AcDbEntity
  8
Visible (ANSI)
100
AcDbVertex
100
AcDb2dVertex
 10
154.2155435010182
 20
52.11484225553331
 30
0.0
  0
VERTEX
  5
3F6
330
3E8
100
AcDbEntity
  8
Visible (ANSI)
100
AcDbVertex
100
AcDb2dVertex
 10
154.2257659536326
 20
52.11270041255711
 30
0.0
  0
VERTEX
  5
3F7
330
3E8
100
AcDbEntity
  8
Visible (ANSI)
100
AcDbVertex
100
AcDb2dVertex
 10
154.2359831171493
 20
52.11094691361918
 30
0.0
  0
VERTEX
  5
3F8
330
3E8
100
AcDbEntity
  8
Visible (ANSI)
100
AcDbVertex
100
AcDb2dVertex
 10
154.246159656248
 20
52.10957854324547
 30
0.0
  0
VERTEX
  5
3F9
330
3E8
100
AcDbEntity
  8
Visible (ANSI)
100
AcDbVertex
100
AcDb2dVertex
 10
154.2562461520894
 20
52.10859128592587
 30
0.0
  0
VERTEX
  5
3FA
330
3E8
100
AcDbEntity
  8
Visible (ANSI)
100
AcDbVertex
100
AcDb2dVertex
 10
154.2662046891031
 20
52.10798289598434
 30
0.0
  0
VERTEX
  5
3FB
330
3E8
100
AcDbEntity
  8
Visible (ANSI)
100
AcDbVertex
100
AcDb2dVertex
 10
154.2759877400802
 20
52.10774555485532
 30
0.0
  0
VERTEX
  5
3FC
330
3E8
100
AcDbEntity
  8
Visible (ANSI)
100
AcDbVertex
100
AcDb2dVertex
 10
154.2855595071634
 20
52.10787088833471
 30
0.0
  0
VERTEX
  5
3FD
330
3E8
100
AcDbEntity
  8
Visible (ANSI)
100
AcDbVertex
100
AcDb2dVertex
 10
154.2948705486979
 20
52.1083573423964
 30
0.0
  0
VERTEX
  5
3FE
330
3E8
100
AcDbEntity
  8
Visible (ANSI)
100
AcDbVertex
100
AcDb2dVertex
 10
154.3038876408538
 20
52.10918576575177
 30
0.0
  0
VERTEX
  5
3FF
330
3E8
100
AcDbEntity
  8
Visible (ANSI)
100
AcDbVertex
100
AcDb2dVertex
 10
154.312572662849
 20
52.11034890217835
 30
0.0
  0
VERTEX
  5
400
330
3E8
100
AcDbEntity
  8
Visible (ANSI)
100
AcDbVertex
100
AcDb2dVertex
 10
154.3208827191943
 20
52.11183181559496
 30
0.0
  0
VERTEX
  5
401
330
3E8
100
AcDbEntity
  8
Visible (ANSI)
100
AcDbVertex
100
AcDb2dVertex
 10
154.3287872636657
 20
52.11361937126624
 30
0.0
  0
VERTEX
  5
402
330
3E8
100
AcDbEntity
  8
Visible (ANSI)
100
AcDbVertex
100
AcDb2dVertex
 10
154.3362512371944
 20
52.11569872805522
 30
0.0
  0
SEQEND
  5
3EB
330
3E8
100
AcDbEntity
  8
Visible (ANSI)
  0
POLYLINE
  5
403
330
6C
100
AcDbEntity
  8
Visible (ANSI)
100
AcDb2dPolyline
 66
     1
 10
0.0
 20
0.0
 30
0.0
 70
   128
  0
VERTEX
  5
404
330
403
100
AcDbEntity
  8
Visible (ANSI)
100
AcDbVertex
100
AcDb2dVertex
 10
154.3362512371944
 20
27.21875275600913
 30
0.0
  0
VERTEX
  5
405
330
403
100
AcDbEntity
  8
Visible (ANSI)
100
AcDbVertex
100
AcDb2dVertex
 10
154.3287872636656
 20
27.21278212915024
 30
0.0
  0
VERTEX
  5
407
330
403
100
AcDbEntity
  8
Visible (ANSI)
100
AcDbVertex
100
AcDb2dVertex
 10
154.3208827191942
 20
27.20710084774387
 30
0.0
  0
VERTEX
  5
408
330
403
100
AcDbEntity
  8
Visible (ANSI)
100
AcDbVertex
100
AcDb2dVertex
 10
154.3125726628489
 20
27.20172420859217
 30
0.0
  0
VERTEX
  5
409
330
403
100
AcDbEntity
  8
Visible (ANSI)
100
AcDbVertex
100
AcDb2dVertex
 10
154.3038876408537
 20
27.19666980209569
 30
0.0
  0
VERTEX
  5
40A
330
403
100
AcDbEntity
  8
Visible (ANSI)
100
AcDbVertex
100
AcDb2dVertex
 10
154.2948705486978
 20
27.19194763382036
 30
0.0
  0
VERTEX
  5
40B
330
403
100
AcDbEntity
  8
Visible (ANSI)
100
AcDbVertex
100
AcDb2dVertex
 10
154.2855595071634
 20
27.18756990968878
 30
0.0
  0
VERTEX
  5
40C
330
403
100
AcDbEntity
  8
Visible (ANSI)
100
AcDbVertex
100
AcDb2dVertex
 10
154.2759877400802
 20
27.18355085047429
 30
0.0
  0
VERTEX
  5
40D
330
403
100
AcDbEntity
  8
Visible (ANSI)
100
AcDbVertex
100
AcDb2dVertex
 10
154.2662046891031
 20
27.17989446586823
 30
0.0
  0
VERTEX
  5
40E
330
403
100
AcDbEntity
  8
Visible (ANSI)
100
AcDbVertex
100
AcDb2dVertex
 10
154.2562461520893
 20
27.1766115761474
 30
0.0
  0
VERTEX
  5
40F
330
403
100
AcDbEntity
  8
Visible (ANSI)
100
AcDbVertex
100
AcDb2dVertex
 10
154.246159656248
 20
27.17370510773193
 30
0.0
  0
VERTEX
  5
410
330
403
100
AcDbEntity
  8
Visible (ANSI)
100
AcDbVertex
100
AcDb2dVertex
 10
154.2359831171493
 20
27.17118220803573
 30
0.0
  0
VERTEX
  5
411
330
403
100
AcDbEntity
  8
Visible (ANSI)
100
AcDbVertex
100
AcDb2dVertex
 10
154.2257659536325
 20
27.16904197164613
 30
0.0
  0
VERTEX
  5
412
330
403
100
AcDbEntity
  8
Visible (ANSI)
100
AcDbVertex
100
AcDb2dVertex
 10
154.2155435010182
 20
27.16729008888724
 30
0.0
  0
VERTEX
  5
413
330
403
100
AcDbEntity
  8
Visible (ANSI)
100
AcDbVertex
100
AcDb2dVertex
 10
154.2053709111124
 20
27.1659191614044
 30
0.0
  0
VERTEX
  5
414
330
403
100
AcDbEntity
  8
Visible (ANSI)
100
AcDbVertex
100
AcDb2dVertex
 10
154.1952805656376
 20
27.16493317865771
 30
0.0
  0
VERTEX
  5
415
330
403
100
AcDbEntity
  8
Visible (ANSI)
100
AcDbVertex
100
AcDb2dVertex
 10
154.1853244761278
 20
27.1643229339301
 30
0.0
  0
VERTEX
  5
416
330
403
100
AcDbEntity
  8
Visible (ANSI)
100
AcDbVertex
100
AcDb2dVertex
 10
154.1755402428819
 20
27.16408563711424
 30
0.0
  0
VERTEX
  5
417
330
403
100
AcDbEntity
  8
Visible (ANSI)
100
AcDbVertex
100
AcDb2dVertex
 10
154.1659679385923
 20
27.16421500070957
 30
0.0
  0
VERTEX
  5
418
330
403
100
AcDbEntity
  8
Visible (ANSI)
100
AcDbVertex
100
AcDb2dVertex
 10
154.1566585709017
 20
27.16469635711596
 30
0.0
  0
VERTEX
  5
419
330
403
100
AcDbEntity
  8
Visible (ANSI)
100
AcDbVertex
100
AcDb2dVertex
 10
154.1476400413557
 20
27.16552622345845
 30
0.0
  0
VERTEX
  5
41A
330
403
100
AcDbEntity
  8
Visible (ANSI)
100
AcDbVertex
100
AcDb2dVertex
 10
154.1389553181686
 20
27.1666901853184
 30
0.0
  0
VERTEX
  5
41B
330
403
100
AcDbEntity
  8
Visible (ANSI)
100
AcDbVertex
100
AcDb2dVertex
 10
154.1306454115515
 20
27.1681727391079
 30
0.0
  0
VERTEX
  5
41C
330
403
100
AcDbEntity
  8
Visible (ANSI)
100
AcDbVertex
100
AcDb2dVertex
 10
154.1227408530795
 20
27.16996210296235
 30
0.0
  0
VERTEX
  5
41D
330
403
100
AcDbEntity
  8
Visible (ANSI)
100
AcDbVertex
100
AcDb2dVertex
 10
154.1152786705844
 20
27.17204045121676
 30
0.0
  0
SEQEND
  5
406
330
403
100
AcDbEntity
  8
Visible (ANSI)
  0
LINE
  5
41E
330
6C
100
AcDbEntity
  8
Visible (ANSI)
100
AcDbLine
 10
154.2479932216195
 20
52.16667419921897
 30
0.0
 11
154.756094359622
 21
52.45927018482182
 31
0.0
  0
LINE
  5
41F
330
6C
100
AcDbEntity
  8
Visible (ANSI)
100
AcDbLine
 10
154.8444827072703
 20
27.51142556564981
 30
0.0
 11
154.3362497082926
 21
27.21875364636151
 31
0.0
  0
LINE
  5
420
330
6C
100
AcDbEntity
  8
Visible (ANSI)
100
AcDbLine
 10
154.2515852348811
 20
52.16445382898126
 30
0.0
 11
154.3362497082926
 21
52.11569880130948
 31
0.0
  0
POLYLINE
  5
421
330
6C
100
AcDbEntity
  8
Visible (ANSI)
100
AcDb2dPolyline
 66
     1
 10
0.0
 20
0.0
 30
0.0
 70
   128
  0
VERTEX
  5
422
330
421
100
AcDbEntity
  8
Visible (ANSI)
100
AcDbVertex
100
AcDb2dVertex
 10
154.2036670169053
 20
52.21331083404468
 30
0.0
  0
VERTEX
  5
423
330
421
100
AcDbEntity
  8
Visible (ANSI)
100
AcDbVertex
100
AcDb2dVertex
 10
154.2050276100577
 20
52.21079491798718
 30
0.0
  0
VERTEX
  5
425
330
421
100
AcDbEntity
  8
Visible (ANSI)
100
AcDbVertex
100
AcDb2dVertex
 10
154.2064628244131
 20
52.20832686579543
 30
0.0
  0
VERTEX
  5
426
330
421
100
AcDbEntity
  8
Visible (ANSI)
100
AcDbVertex
100
AcDb2dVertex
 10
154.2079637409755
 20
52.20591132610683
 30
0.0
  0
VERTEX
  5
427
330
421
100
AcDbEntity
  8
Visible (ANSI)
100
AcDbVertex
100
AcDb2dVertex
 10
154.2095339038494
 20
52.20354299179747
 30
0.0
  0
VERTEX
  5
428
330
421
100
AcDbEntity
  8
Visible (ANSI)
100
AcDbVertex
100
AcDb2dVertex
 10
154.2111553398579
 20
52.20123599362483
 30
0.0
  0
VERTEX
  5
429
330
421
100
AcDbEntity
  8
Visible (ANSI)
100
AcDbVertex
100
AcDb2dVertex
 10
154.2128352884534
 20
52.1989822601014
 30
0.0
  0
VERTEX
  5
42A
330
421
100
AcDbEntity
  8
Visible (ANSI)
100
AcDbVertex
100
AcDb2dVertex
 10
154.2145594800913
 20
52.19678825106145
 30
0.0
  0
VERTEX
  5
42B
330
421
100
AcDbEntity
  8
Visible (ANSI)
100
AcDbVertex
100
AcDb2dVertex
 10
154.216321875996
 20
52.1946529257132
 30
0.0
  0
VERTEX
  5
42C
330
421
100
AcDbEntity
  8
Visible (ANSI)
100
AcDbVertex
100
AcDb2dVertex
 10
154.2181204274203
 20
52.19258001559178
 30
0.0
  0
VERTEX
  5
42D
330
421
100
AcDbEntity
  8
Visible (ANSI)
100
AcDbVertex
100
AcDb2dVertex
 10
154.2199443390307
 20
52.1905706331586
 30
0.0
  0
VERTEX
  5
42E
330
421
100
AcDbEntity
  8
Visible (ANSI)
100
AcDbVertex
100
AcDb2dVertex
 10
154.2217910686896
 20
52.18862331449411
 30
0.0
  0
VERTEX
  5
42F
330
421
100
AcDbEntity
  8
Visible (ANSI)
100
AcDbVertex
100
AcDb2dVertex
 10
154.2236493454339
 20
52.18673889816269
 30
0.0
  0
VERTEX
  5
430
330
421
100
AcDbEntity
  8
Visible (ANSI)
100
AcDbVertex
100
AcDb2dVertex
 10
154.2255161692563
 20
52.18492056790541
 30
0.0
  0
VERTEX
  5
431
330
421
100
AcDbEntity
  8
Visible (ANSI)
100
AcDbVertex
100
AcDb2dVertex
 10
154.2273840809735
 20
52.18316646497197
 30
0.0
  0
VERTEX
  5
432
330
421
100
AcDbEntity
  8
Visible (ANSI)
100
AcDbVertex
100
AcDb2dVertex
 10
154.2292454196905
 20
52.18147707011921
 30
0.0
  0
VERTEX
  5
433
330
421
100
AcDbEntity
  8
Visible (ANSI)
100
AcDbVertex
100
AcDb2dVertex
 10
154.23109658208
 20
52.17984785266372
 30
0.0
  0
VERTEX
  5
434
330
421
100
AcDbEntity
  8
Visible (ANSI)
100
AcDbVertex
100
AcDb2dVertex
 10
154.232929541677
 20
52.17828399417494
 30
0.0
  0
VERTEX
  5
435
330
421
100
AcDbEntity
  8
Visible (ANSI)
100
AcDbVertex
100
AcDb2dVertex
 10
154.2347318618426
 20
52.17678566194933
 30
0.0
  0
VERTEX
  5
436
330
421
100
AcDbEntity
  8
Visible (ANSI)
100
AcDbVertex
100
AcDb2dVertex
 10
154.2365079470469
 20
52.17534560760684
 30
0.0
  0
VERTEX
  5
437
330
421
100
AcDbEntity
  8
Visible (ANSI)
100
AcDbVertex
100
AcDb2dVertex
 10
154.2382408306945
 20
52.17396628218827
 30
0.0
  0
VERTEX
  5
438
330
421
100
AcDbEntity
  8
Visible (ANSI)
100
AcDbVertex
100
AcDb2dVertex
 10
154.239930417374
 20
52.17264764970749
 30
0.0
  0
VERTEX
  5
439
330
421
100
AcDbEntity
  8
Visible (ANSI)
100
AcDbVertex
100
AcDb2dVertex
 10
154.2415722600953
 20
52.17138469364793
 30
0.0
  0
VERTEX
  5
43A
330
421
100
AcDbEntity
  8
Visible (ANSI)
100
AcDbVertex
100
AcDb2dVertex
 10
154.2431533310848
 20
52.17017969655949
 30
0.0
  0
VERTEX
  5
43B
330
421
100
AcDbEntity
  8
Visible (ANSI)
100
AcDbVertex
100
AcDb2dVertex
 10
154.2446732684025
 20
52.16902510197667
 30
0.0
  0
SEQEND
  5
424
330
421
100
AcDbEntity
  8
Visible (ANSI)
  0
LINE
  5
43C
330
6C
100
AcDbEntity
  8
Visible (ANSI)
100
AcDbLine
 10
154.2036671868201
 20
52.21331155737165
 30
0.0
 11
154.2000429803992
 21
52.21122451569737
 31
0.0
  0
LINE
  5
43D
330
6C
100
AcDbEntity
  8
Visible (ANSI)
100
AcDbLine
 10
154.2000429803992
 20
52.21122451569737
 30
0.0
 11
154.1152788391718
 21
52.1624120931476
 31
0.0
  0
LINE
  5
43E
330
6C
100
AcDbEntity
  8
Visible (ANSI)
100
AcDbLine
 10
154.3362497082926
 20
52.11569880130948
 30
0.0
 11
154.8444827072704
 21
52.40837072059779
 31
0.0
  0
LINE
  5
43F
330
6C
100
AcDbEntity
  8
Visible (ANSI)
100
AcDbLine
 10
154.756094359622
 20
52.45927018482182
 30
0.0
 11
154.8444827072704
 21
52.40837072059779
 31
0.0
  0
POLYLINE
  5
440
330
6C
100
AcDbEntity
  8
Visible (ANSI)
100
AcDb2dPolyline
 66
     1
 10
0.0
 20
0.0
 30
0.0
 70
   128
  0
VERTEX
  5
441
330
440
100
AcDbEntity
  8
Visible (ANSI)
100
AcDbVertex
100
AcDb2dVertex
 10
114.7382699615083
 20
74.83812258550063
 30
0.0
  0
VERTEX
  5
442
330
440
100
AcDbEntity
  8
Visible (ANSI)
100
AcDbVertex
100
AcDb2dVertex
 10
114.7401899744668
 20
74.84564599620053
 30
0.0
  0
VERTEX
  5
444
330
440
100
AcDbEntity
  8
Visible (ANSI)
100
AcDbVertex
100
AcDb2dVertex
 10
114.742582090205
 20
74.85340199172272
 30
0.0
  0
VERTEX
  5
445
330
440
100
AcDbEntity
  8
Visible (ANSI)
100
AcDbVertex
100
AcDb2dVertex
 10
114.7454432721586
 20
74.86135934588848
 30
0.0
  0
VERTEX
  5
446
330
440
100
AcDbEntity
  8
Visible (ANSI)
100
AcDbVertex
100
AcDb2dVertex
 10
114.748768484277
 20
74.86947585843077
 30
0.0
  0
VERTEX
  5
447
330
440
100
AcDbEntity
  8
Visible (ANSI)
100
AcDbVertex
100
AcDb2dVertex
 10
114.7525506827267
 20
74.87771311287399
 30
0.0
  0
VERTEX
  5
448
330
440
100
AcDbEntity
  8
Visible (ANSI)
100
AcDbVertex
100
AcDb2dVertex
 10
114.7567808988574
 20
74.88603400175769
 30
0.0
  0
VERTEX
  5
449
330
440
100
AcDbEntity
  8
Visible (ANSI)
100
AcDbVertex
100
AcDb2dVertex
 10
114.7614482060157
 20
74.89439787263894
 30
0.0
  0
VERTEX
  5
44A
330
440
100
AcDbEntity
  8
Visible (ANSI)
100
AcDbVertex
100
AcDb2dVertex
 10
114.7665398356976
 20
74.90276298375736
 30
0.0
  0
VERTEX
  5
44B
330
440
100
AcDbEntity
  8
Visible (ANSI)
100
AcDbVertex
100
AcDb2dVertex
 10
114.7720412107354
 20
74.91109146314269
 30
0.0
  0
VERTEX
  5
44C
330
440
100
AcDbEntity
  8
Visible (ANSI)
100
AcDbVertex
100
AcDb2dVertex
 10
114.7779359535936
 20
74.91934197506306
 30
0.0
  0
VERTEX
  5
44D
330
440
100
AcDbEntity
  8
Visible (ANSI)
100
AcDbVertex
100
AcDb2dVertex
 10
114.7842060523024
 20
74.92747466002175
 30
0.0
  0
VERTEX
  5
44E
330
440
100
AcDbEntity
  8
Visible (ANSI)
100
AcDbVertex
100
AcDb2dVertex
 10
114.79083185216
 20
74.93545120642264
 30
0.0
  0
VERTEX
  5
44F
330
440
100
AcDbEntity
  8
Visible (ANSI)
100
AcDbVertex
100
AcDb2dVertex
 10
114.7977922009243
 20
74.94323485773697
 30
0.0
  0
VERTEX
  5
450
330
440
100
AcDbEntity
  8
Visible (ANSI)
100
AcDbVertex
100
AcDb2dVertex
 10
114.8050644902956
 20
74.9507880571698
 30
0.0
  0
VERTEX
  5
451
330
440
100
AcDbEntity
  8
Visible (ANSI)
100
AcDbVertex
100
AcDb2dVertex
 10
114.8126247969595
 20
74.95807246199335
 30
0.0
  0
VERTEX
  5
452
330
440
100
AcDbEntity
  8
Visible (ANSI)
100
AcDbVertex
100
AcDb2dVertex
 10
114.8204479572561
 20
74.96505147087764
 30
0.0
  0
VERTEX
  5
453
330
440
100
AcDbEntity
  8
Visible (ANSI)
100
AcDbVertex
100
AcDb2dVertex
 10
114.82850766674
 20
74.97169522121966
 30
0.0
  0
VERTEX
  5
454
330
440
100
AcDbEntity
  8
Visible (ANSI)
100
AcDbVertex
100
AcDb2dVertex
 10
114.8367766315933
 20
74.97796834067814
 30
0.0
  0
VERTEX
  5
455
330
440
100
AcDbEntity
  8
Visible (ANSI)
100
AcDbVertex
100
AcDb2dVertex
 10
114.8452266495178
 20
74.98383985463862
 30
0.0
  0
VERTEX
  5
456
330
440
100
AcDbEntity
  8
Visible (ANSI)
100
AcDbVertex
100
AcDb2dVertex
 10
114.8538287611483
 20
74.98928078907503
 30
0.0
  0
VERTEX
  5
457
330
440
100
AcDbEntity
  8
Visible (ANSI)
100
AcDbVertex
100
AcDb2dVertex
 10
114.8625533082589
 20
74.9942642805119
 30
0.0
  0
VERTEX
  5
458
330
440
100
AcDbEntity
  8
Visible (ANSI)
100
AcDbVertex
100
AcDb2dVertex
 10
114.8713701555677
 20
74.99876558908812
 30
0.0
  0
VERTEX
  5
459
330
440
100
AcDbEntity
  8
Visible (ANSI)
100
AcDbVertex
100
AcDb2dVertex
 10
114.8802487568507
 20
75.00275730174246
 30
0.0
  0
VERTEX
  5
45A
330
440
100
AcDbEntity
  8
Visible (ANSI)
100
AcDbVertex
100
AcDb2dVertex
 10
114.8891583009104
 20
75.00622413115149
 30
0.0
  0
SEQEND
  5
443
330
440
100
AcDbEntity
  8
Visible (ANSI)
  0
POLYLINE
  5
45B
330
6C
100
AcDbEntity
  8
Visible (ANSI)
100
AcDb2dPolyline
 66
     1
 10
0.0
 20
0.0
 30
0.0
 70
   128
  0
VERTEX
  5
45C
330
45B
100
AcDbEntity
  8
Visible (ANSI)
100
AcDbVertex
100
AcDb2dVertex
 10
154.1853625991139
 20
52.37704508172817
 30
0.0
  0
VERTEX
  5
45D
330
45B
100
AcDbEntity
  8
Visible (ANSI)
100
AcDbVertex
100
AcDb2dVertex
 10
154.1798186634335
 20
52.37164012735295
 30
0.0
  0
VERTEX
  5
45F
330
45B
100
AcDbEntity
  8
Visible (ANSI)
100
AcDbVertex
100
AcDb2dVertex
 10
154.1743056705299
 20
52.36571028973247
 30
0.0
  0
VERTEX
  5
460
330
45B
100
AcDbEntity
  8
Visible (ANSI)
100
AcDbVertex
100
AcDb2dVertex
 10
154.1688586794717
 20
52.35926841000366
 30
0.0
  0
VERTEX
  5
461
330
45B
100
AcDbEntity
  8
Visible (ANSI)
100
AcDbVertex
100
AcDb2dVertex
 10
154.1634997407404
 20
52.35234679360065
 30
0.0
  0
VERTEX
  5
462
330
45B
100
AcDbEntity
  8
Visible (ANSI)
100
AcDbVertex
100
AcDb2dVertex
 10
154.1582632540825
 20
52.34496772464263
 30
0.0
  0
VERTEX
  5
463
330
45B
100
AcDbEntity
  8
Visible (ANSI)
100
AcDbVertex
100
AcDb2dVertex
 10
154.1531830924087
 20
52.33715563952959
 30
0.0
  0
VERTEX
  5
464
330
45B
100
AcDbEntity
  8
Visible (ANSI)
100
AcDbVertex
100
AcDb2dVertex
 10
154.1482797359347
 20
52.32894439510492
 30
0.0
  0
VERTEX
  5
465
330
45B
100
AcDbEntity
  8
Visible (ANSI)
100
AcDbVertex
100
AcDb2dVertex
 10
154.1435856348301
 20
52.32036251979674
 30
0.0
  0
VERTEX
  5
466
330
45B
100
AcDbEntity
  8
Visible (ANSI)
100
AcDbVertex
100
AcDb2dVertex
 10
154.1391280912094
 20
52.31144538116859
 30
0.0
  0
VERTEX
  5
467
330
45B
100
AcDbEntity
  8
Visible (ANSI)
100
AcDbVertex
100
AcDb2dVertex
 10
154.1349376407962
 20
52.30222040519246
 30
0.0
  0
VERTEX
  5
468
330
45B
100
AcDbEntity
  8
Visible (ANSI)
100
AcDbVertex
100
AcDb2dVertex
 10
154.1310309598042
 20
52.29272908079345
 30
0.0
  0
VERTEX
  5
469
330
45B
100
AcDbEntity
  8
Visible (ANSI)
100
AcDbVertex
100
AcDb2dVertex
 10
154.1274362277159
 20
52.28300729973527
 30
0.0
  0
VERTEX
  5
46A
330
45B
100
AcDbEntity
  8
Visible (ANSI)
100
AcDbVertex
100
AcDb2dVertex
 10
154.1241802841089
 20
52.27309018218178
 30
0.0
  0
VERTEX
  5
46B
330
45B
100
AcDbEntity
  8
Visible (ANSI)
100
AcDbVertex
100
AcDb2dVertex
 10
154.1212758020761
 20
52.26301936747923
 30
0.0
  0
VERTEX
  5
46C
330
45B
100
AcDbEntity
  8
Visible (ANSI)
100
AcDbVertex
100
AcDb2dVertex
 10
154.1187466675971
 20
52.25283073059269
 30
0.0
  0
VERTEX
  5
46D
330
45B
100
AcDbEntity
  8
Visible (ANSI)
100
AcDbVertex
100
AcDb2dVertex
 10
154.1166151571067
 20
52.24256167527707
 30
0.0
  0
VERTEX
  5
46E
330
45B
100
AcDbEntity
  8
Visible (ANSI)
100
AcDbVertex
100
AcDb2dVertex
 10
154.114889135804
 20
52.23225843919248
 30
0.0
  0
VERTEX
  5
46F
330
45B
100
AcDbEntity
  8
Visible (ANSI)
100
AcDbVertex
100
AcDb2dVertex
 10
154.1135874370251
 20
52.22195644334508
 30
0.0
  0
VERTEX
  5
470
330
45B
100
AcDbEntity
  8
Visible (ANSI)
100
AcDbVertex
100
AcDb2dVertex
 10
154.1127270854417
 20
52.21169497853108
 30
0.0
  0
VERTEX
  5
471
330
45B
100
AcDbEntity
  8
Visible (ANSI)
100
AcDbVertex
100
AcDb2dVertex
 10
154.1123104953713
 20
52.20151959912172
 30
0.0
  0
VERTEX
  5
472
330
45B
100
AcDbEntity
  8
Visible (ANSI)
100
AcDbVertex
100
AcDb2dVertex
 10
154.1123508999288
 20
52.19146495683553
 30
0.0
  0
VERTEX
  5
473
330
45B
100
AcDbEntity
  8
Visible (ANSI)
100
AcDbVertex
100
AcDb2dVertex
 10
154.1128553263545
 20
52.18156947770362
 30
0.0
  0
VERTEX
  5
474
330
45B
100
AcDbEntity
  8
Visible (ANSI)
100
AcDbVertex
100
AcDb2dVertex
 10
154.113833066867
 20
52.17187291102885
 30
0.0
  0
VERTEX
  5
475
330
45B
100
AcDbEntity
  8
Visible (ANSI)
100
AcDbVertex
100
AcDb2dVertex
 10
154.1152786705844
 20
52.16241137058506
 30
0.0
  0
SEQEND
  5
45E
330
45B
100
AcDbEntity
  8
Visible (ANSI)
  0
LINE
  5
476
330
6C
100
AcDbEntity
  8
Visible (ANSI)
100
AcDbLine
 10
154.1854872466812
 20
52.27492375428194
 30
0.0
 11
154.693594359622
 21
52.56752318062289
 31
0.0
  0
LINE
  5
477
330
6C
100
AcDbEntity
  8
Visible (ANSI)
100
AcDbLine
 10
154.693594359622
 20
52.6697165712282
 30
0.0
 11
154.1853613606443
 21
52.37704465193989
 31
0.0
  0
LINE
  5
478
330
6C
100
AcDbEntity
  8
Visible (ANSI)
100
AcDbLine
 10
154.1853613606443
 20
52.27904151889977
 30
0.0
 11
154.1853613606443
 21
52.37704465193989
 31
0.0
  0
LINE
  5
479
330
6C
100
AcDbEntity
  8
Visible (ANSI)
100
AcDbLine
 10
154.693594359622
 20
52.56752318062289
 30
0.0
 11
154.693594359622
 21
52.6697165712282
 31
0.0
  0
POLYLINE
  5
47A
330
6C
100
AcDbEntity
  8
Visible (ANSI)
100
AcDb2dPolyline
 66
     1
 10
0.0
 20
0.0
 30
0.0
 70
   128
  0
VERTEX
  5
47B
330
47A
100
AcDbEntity
  8
Visible (ANSI)
100
AcDbVertex
100
AcDb2dVertex
 10
154.2036670169053
 20
52.21331083404468
 30
0.0
  0
VERTEX
  5
47C
330
47A
100
AcDbEntity
  8
Visible (ANSI)
100
AcDbVertex
100
AcDb2dVertex
 10
154.2021646820861
 20
52.21575150770899
 30
0.0
  0
VERTEX
  5
47E
330
47A
100
AcDbEntity
  8
Visible (ANSI)
100
AcDbVertex
100
AcDb2dVertex
 10
154.2007457378554
 20
52.21823039911622
 30
0.0
  0
VERTEX
  5
47F
330
47A
100
AcDbEntity
  8
Visible (ANSI)
100
AcDbVertex
100
AcDb2dVertex
 10
154.1994012622841
 20
52.22074478821925
 30
0.0
  0
VERTEX
  5
480
330
47A
100
AcDbEntity
  8
Visible (ANSI)
100
AcDbVertex
100
AcDb2dVertex
 10
154.1981347945668
 20
52.2232893650667
 30
0.0
  0
VERTEX
  5
481
330
47A
100
AcDbEntity
  8
Visible (ANSI)
100
AcDbVertex
100
AcDb2dVertex
 10
154.19694534619
 20
52.22585373775075
 30
0.0
  0
VERTEX
  5
482
330
47A
100
AcDbEntity
  8
Visible (ANSI)
100
AcDbVertex
100
AcDb2dVertex
 10
154.1958359001465
 20
52.22843473168985
 30
0.0
  0
VERTEX
  5
483
330
47A
100
AcDbEntity
  8
Visible (ANSI)
100
AcDbVertex
100
AcDb2dVertex
 10
154.194796424068
 20
52.23102898737749
 30
0.0
  0
VERTEX
  5
484
330
47A
100
AcDbEntity
  8
Visible (ANSI)
100
AcDbVertex
100
AcDb2dVertex
 10
154.1938293627362
 20
52.23362565330146
 30
0.0
  0
VERTEX
  5
485
330
47A
100
AcDbEntity
  8
Visible (ANSI)
100
AcDbVertex
100
AcDb2dVertex
 10
154.1929326532736
 20
52.23622108586429
 30
0.0
  0
VERTEX
  5
486
330
47A
100
AcDbEntity
  8
Visible (ANSI)
100
AcDbVertex
100
AcDb2dVertex
 10
154.1921039805329
 20
52.23880904053118
 30
0.0
  0
VERTEX
  5
487
330
47A
100
AcDbEntity
  8
Visible (ANSI)
100
AcDbVertex
100
AcDb2dVertex
 10
154.1913450331366
 20
52.24138068601178
 30
0.0
  0
VERTEX
  5
488
330
47A
100
AcDbEntity
  8
Visible (ANSI)
100
AcDbVertex
100
AcDb2dVertex
 10
154.1906445206761
 20
52.24393439400752
 30
0.0
  0
VERTEX
  5
489
330
47A
100
AcDbEntity
  8
Visible (ANSI)
100
AcDbVertex
100
AcDb2dVertex
 10
154.1900036723479
 20
52.24646106866249
 30
0.0
  0
VERTEX
  5
48A
330
47A
100
AcDbEntity
  8
Visible (ANSI)
100
AcDbVertex
100
AcDb2dVertex
 10
154.1894192545431
 20
52.24895884786504
 30
0.0
  0
VERTEX
  5
48B
330
47A
100
AcDbEntity
  8
Visible (ANSI)
100
AcDbVertex
100
AcDb2dVertex
 10
154.1888920792937
 20
52.25141348419977
 30
0.0
  0
VERTEX
  5
48C
330
47A
100
AcDbEntity
  8
Visible (ANSI)
100
AcDbVertex
100
AcDb2dVertex
 10
154.188410025751
 20
52.25382778247979
 30
0.0
  0
VERTEX
  5
48D
330
47A
100
AcDbEntity
  8
Visible (ANSI)
100
AcDbVertex
100
AcDb2dVertex
 10
154.1879735372657
 20
52.25619464997587
 30
0.0
  0
VERTEX
  5
48E
330
47A
100
AcDbEntity
  8
Visible (ANSI)
100
AcDbVertex
100
AcDb2dVertex
 10
154.1875786490888
 20
52.25850689221047
 30
0.0
  0
VERTEX
  5
48F
330
47A
100
AcDbEntity
  8
Visible (ANSI)
100
AcDbVertex
100
AcDb2dVertex
 10
154.1872254918922
 20
52.26075723639447
 30
0.0
  0
VERTEX
  5
490
330
47A
100
AcDbEntity
  8
Visible (ANSI)
100
AcDbVertex
100
AcDb2dVertex
 10
154.1869013199876
 20
52.26294567185471
 30
0.0
  0
VERTEX
  5
491
330
47A
100
AcDbEntity
  8
Visible (ANSI)
100
AcDbVertex
100
AcDb2dVertex
 10
154.186606012037
 20
52.26506723634433
 30
0.0
  0
VERTEX
  5
492
330
47A
100
AcDbEntity
  8
Visible (ANSI)
100
AcDbVertex
100
AcDb2dVertex
 10
154.1863350951231
 20
52.26711444275128
 30
0.0
  0
VERTEX
  5
493
330
47A
100
AcDbEntity
  8
Visible (ANSI)
100
AcDbVertex
100
AcDb2dVertex
 10
154.1860882550112
 20
52.2690797620818
 30
0.0
  0
VERTEX
  5
494
330
47A
100
AcDbEntity
  8
Visible (ANSI)
100
AcDbVertex
100
AcDb2dVertex
 10
154.1858523674797
 20
52.27096787701017
 30
0.0
  0
SEQEND
  5
47D
330
47A
100
AcDbEntity
  8
Visible (ANSI)
  0
LINE
  5
495
330
6C
100
AcDbEntity
  8
Visible (ANSI)
100
AcDbLine
 10
114.8891583094884
 20
75.00622298323621
 30
0.0
 11
115.3973913084662
 21
75.29889490252454
 31
0.0
  0
POLYLINE
  5
496
330
6C
100
AcDbEntity
  8
Visible (ANSI)
100
AcDb2dPolyline
 66
     1
 10
0.0
 20
0.0
 30
0.0
 70
   128
  0
VERTEX
  5
497
330
496
100
AcDbEntity
  8
Visible (ANSI)
100
AcDbVertex
100
AcDb2dVertex
 10
114.7382699615082
 20
49.84775166613231
 30
0.0
  0
VERTEX
  5
498
330
496
100
AcDbEntity
  8
Visible (ANSI)
100
AcDbVertex
100
AcDb2dVertex
 10
114.7347141364368
 20
49.85084065134298
 30
0.0
  0
VERTEX
  5
49A
330
496
100
AcDbEntity
  8
Visible (ANSI)
100
AcDbVertex
100
AcDb2dVertex
 10
114.7312804210734
 20
49.85399551162652
 30
0.0
  0
VERTEX
  5
49B
330
496
100
AcDbEntity
  8
Visible (ANSI)
100
AcDbVertex
100
AcDb2dVertex
 10
114.7279725074154
 20
49.85721389149888
 30
0.0
  0
VERTEX
  5
49C
330
496
100
AcDbEntity
  8
Visible (ANSI)
100
AcDbVertex
100
AcDb2dVertex
 10
114.7247939381213
 20
49.86049339736545
 30
0.0
  0
VERTEX
  5
49D
330
496
100
AcDbEntity
  8
Visible (ANSI)
100
AcDbVertex
100
AcDb2dVertex
 10
114.7217480982135
 20
49.86383155437359
 30
0.0
  0
VERTEX
  5
49E
330
496
100
AcDbEntity
  8
Visible (ANSI)
100
AcDbVertex
100
AcDb2dVertex
 10
114.718838273155
 20
49.86722583989355
 30
0.0
  0
VERTEX
  5
49F
330
496
100
AcDbEntity
  8
Visible (ANSI)
100
AcDbVertex
100
AcDb2dVertex
 10
114.7160675575865
 20
49.87067365966699
 30
0.0
  0
VERTEX
  5
4A0
330
496
100
AcDbEntity
  8
Visible (ANSI)
100
AcDbVertex
100
AcDb2dVertex
 10
114.7134389299958
 20
49.87417235243658
 30
0.0
  0
VERTEX
  5
4A1
330
496
100
AcDbEntity
  8
Visible (ANSI)
100
AcDbVertex
100
AcDb2dVertex
 10
114.7109552029385
 20
49.87771921883441
 30
0.0
  0
VERTEX
  5
4A2
330
496
100
AcDbEntity
  8
Visible (ANSI)
100
AcDbVertex
100
AcDb2dVertex
 10
114.708619031334
 20
49.88131150690076
 30
0.0
  0
VERTEX
  5
4A3
330
496
100
AcDbEntity
  8
Visible (ANSI)
100
AcDbVertex
100
AcDb2dVertex
 10
114.7064329207629
 20
49.88494640734344
 30
0.0
  0
VERTEX
  5
4A4
330
496
100
AcDbEntity
  8
Visible (ANSI)
100
AcDbVertex
100
AcDb2dVertex
 10
114.7043992233178
 20
49.88862108462982
 30
0.0
  0
VERTEX
  5
4A5
330
496
100
AcDbEntity
  8
Visible (ANSI)
100
AcDbVertex
100
AcDb2dVertex
 10
114.702520096121
 20
49.8923326242841
 30
0.0
  0
VERTEX
  5
4A6
330
496
100
AcDbEntity
  8
Visible (ANSI)
100
AcDbVertex
100
AcDb2dVertex
 10
114.7007975635486
 20
49.89607810238608
 30
0.0
  0
VERTEX
  5
4A7
330
496
100
AcDbEntity
  8
Visible (ANSI)
100
AcDbVertex
100
AcDb2dVertex
 10
114.6992334674512
 20
49.89985454720149
 30
0.0
  0
VERTEX
  5
4A8
330
496
100
AcDbEntity
  8
Visible (ANSI)
100
AcDbVertex
100
AcDb2dVertex
 10
114.6978294837467
 20
49.90365896788521
 30
0.0
  0
VERTEX
  5
4A9
330
496
100
AcDbEntity
  8
Visible (ANSI)
100
AcDbVertex
100
AcDb2dVertex
 10
114.6965871224206
 20
49.9074883354075
 30
0.0
  0
VERTEX
  5
4AA
330
496
100
AcDbEntity
  8
Visible (ANSI)
100
AcDbVertex
100
AcDb2dVertex
 10
114.6955076984877
 20
49.91133957046159
 30
0.0
  0
VERTEX
  5
4AB
330
496
100
AcDbEntity
  8
Visible (ANSI)
100
AcDbVertex
100
AcDb2dVertex
 10
114.6945923734755
 20
49.91520960101833
 30
0.0
  0
VERTEX
  5
4AC
330
496
100
AcDbEntity
  8
Visible (ANSI)
100
AcDbVertex
100
AcDb2dVertex
 10
114.6938421388305
 20
49.91909532873425
 30
0.0
  0
VERTEX
  5
4AD
330
496
100
AcDbEntity
  8
Visible (ANSI)
100
AcDbVertex
100
AcDb2dVertex
 10
114.6932577827318
 20
49.92299363376606
 30
0.0
  0
VERTEX
  5
4AE
330
496
100
AcDbEntity
  8
Visible (ANSI)
100
AcDbVertex
100
AcDb2dVertex
 10
114.6928399398713
 20
49.92690138914102
 30
0.0
  0
VERTEX
  5
4AF
330
496
100
AcDbEntity
  8
Visible (ANSI)
100
AcDbVertex
100
AcDb2dVertex
 10
114.6925890541182
 20
49.93081543910906
 30
0.0
  0
VERTEX
  5
4B0
330
496
100
AcDbEntity
  8
Visible (ANSI)
100
AcDbVertex
100
AcDb2dVertex
 10
114.6925053971871
 20
49.93473264116984
 30
0.0
  0
SEQEND
  5
499
330
496
100
AcDbEntity
  8
Visible (ANSI)
  0
POLYLINE
  5
4B1
330
6C
100
AcDbEntity
  8
Visible (ANSI)
100
AcDb2dPolyline
 66
     1
 10
0.0
 20
0.0
 30
0.0
 70
   128
  0
VERTEX
  5
4B2
330
4B1
100
AcDbEntity
  8
Visible (ANSI)
100
AcDbVertex
100
AcDb2dVertex
 10
114.7382699615082
 20
74.91865958104989
 30
0.0
  0
VERTEX
  5
4B3
330
4B1
100
AcDbEntity
  8
Visible (ANSI)
100
AcDbVertex
100
AcDb2dVertex
 10
114.7312804265667
 20
74.91630701324909
 30
0.0
  0
VERTEX
  5
4B5
330
4B1
100
AcDbEntity
  8
Visible (ANSI)
100
AcDbVertex
100
AcDb2dVertex
 10
114.7247939370194
 20
74.91370285405709
 30
0.0
  0
VERTEX
  5
4B6
330
4B1
100
AcDbEntity
  8
Visible (ANSI)
100
AcDbVertex
100
AcDb2dVertex
 10
114.7188382695253
 20
74.91086413827186
 30
0.0
  0
VERTEX
  5
4B7
330
4B1
100
AcDbEntity
  8
Visible (ANSI)
100
AcDbVertex
100
AcDb2dVertex
 10
114.7134389268846
 20
74.90780890494328
 30
0.0
  0
VERTEX
  5
4B8
330
4B1
100
AcDbEntity
  8
Visible (ANSI)
100
AcDbVertex
100
AcDb2dVertex
 10
114.7086190308155
 20
74.90456347710999
 30
0.0
  0
VERTEX
  5
4B9
330
4B1
100
AcDbEntity
  8
Visible (ANSI)
100
AcDbVertex
100
AcDb2dVertex
 10
114.704399219688
 20
74.90114517844606
 30
0.0
  0
VERTEX
  5
4BA
330
4B1
100
AcDbEntity
  8
Visible (ANSI)
100
AcDbVertex
100
AcDb2dVertex
 10
114.7007975635487
 20
74.8975818867235
 30
0.0
  0
VERTEX
  5
4BB
330
4B1
100
AcDbEntity
  8
Visible (ANSI)
100
AcDbVertex
100
AcDb2dVertex
 10
114.697829486858
 20
74.89389474516781
 30
0.0
  0
VERTEX
  5
4BC
330
4B1
100
AcDbEntity
  8
Visible (ANSI)
100
AcDbVertex
100
AcDb2dVertex
 10
114.6955076984878
 20
74.89010542404543
 30
0.0
  0
VERTEX
  5
4BD
330
4B1
100
AcDbEntity
  8
Visible (ANSI)
100
AcDbVertex
100
AcDb2dVertex
 10
114.6938421346823
 20
74.88624338911899
 30
0.0
  0
VERTEX
  5
4BE
330
4B1
100
AcDbEntity
  8
Visible (ANSI)
100
AcDbVertex
100
AcDb2dVertex
 10
114.6928399377972
 20
74.88232860718013
 30
0.0
  0
VERTEX
  5
4BF
330
4B1
100
AcDbEntity
  8
Visible (ANSI)
100
AcDbVertex
100
AcDb2dVertex
 10
114.6925053971872
 20
74.87839108208082
 30
0.0
  0
VERTEX
  5
4C0
330
4B1
100
AcDbEntity
  8
Visible (ANSI)
100
AcDbVertex
100
AcDb2dVertex
 10
114.6928399398714
 20
74.87445355578708
 30
0.0
  0
VERTEX
  5
4C1
330
4B1
100
AcDbEntity
  8
Visible (ANSI)
100
AcDbVertex
100
AcDb2dVertex
 10
114.6938421388306
 20
74.87053877504266
 30
0.0
  0
VERTEX
  5
4C2
330
4B1
100
AcDbEntity
  8
Visible (ANSI)
100
AcDbVertex
100
AcDb2dVertex
 10
114.6955076984878
 20
74.86667674250506
 30
0.0
  0
VERTEX
  5
4C3
330
4B1
100
AcDbEntity
  8
Visible (ANSI)
100
AcDbVertex
100
AcDb2dVertex
 10
114.6978294837467
 20
74.86288741959106
 30
0.0
  0
VERTEX
  5
4C4
330
4B1
100
AcDbEntity
  8
Visible (ANSI)
100
AcDbVertex
100
AcDb2dVertex
 10
114.7007975635487
 20
74.859200279827
 30
0.0
  0
VERTEX
  5
4C5
330
4B1
100
AcDbEntity
  8
Visible (ANSI)
100
AcDbVertex
100
AcDb2dVertex
 10
114.7043992233178
 20
74.85563698780584
 30
0.0
  0
VERTEX
  5
4C6
330
4B1
100
AcDbEntity
  8
Visible (ANSI)
100
AcDbVertex
100
AcDb2dVertex
 10
114.7086190313341
 20
74.85221868973913
 30
0.0
  0
VERTEX
  5
4C7
330
4B1
100
AcDbEntity
  8
Visible (ANSI)
100
AcDbVertex
100
AcDb2dVertex
 10
114.7134389299959
 20
74.84897326101002
 30
0.0
  0
VERTEX
  5
4C8
330
4B1
100
AcDbEntity
  8
Visible (ANSI)
100
AcDbVertex
100
AcDb2dVertex
 10
114.7188382731551
 20
74.84592048379453
 30
0.0
  0
VERTEX
  5
4C9
330
4B1
100
AcDbEntity
  8
Visible (ANSI)
100
AcDbVertex
100
AcDb2dVertex
 10
114.7247939381214
 20
74.84307931133632
 30
0.0
  0
VERTEX
  5
4CA
330
4B1
100
AcDbEntity
  8
Visible (ANSI)
100
AcDbVertex
100
AcDb2dVertex
 10
114.7312804210734
 20
74.84047515133248
 30
0.0
  0
VERTEX
  5
4CB
330
4B1
100
AcDbEntity
  8
Visible (ANSI)
100
AcDbVertex
100
AcDb2dVertex
 10
114.7382699615083
 20
74.83812258550063
 30
0.0
  0
SEQEND
  5
4B4
330
4B1
100
AcDbEntity
  8
Visible (ANSI)
  0
LINE
  5
4CC
330
6C
100
AcDbEntity
  8
Visible (ANSI)
100
AcDbLine
 10
115.1669462970154
 20
50.16677297382728
 30
0.0
 11
115.3348913084661
 21
50.26348607379333
 31
0.0
  0
LINE
  5
4CD
330
6C
100
AcDbEntity
  8
Visible (ANSI)
100
AcDbLine
 10
114.8239256798939
 20
74.96798462117465
 30
0.0
 11
114.7382699618401
 21
74.91865877367704
 31
0.0
  0
LINE
  5
4CE
330
6C
100
AcDbEntity
  8
Visible (ANSI)
100
AcDbLine
 10
114.7663617911629
 20
74.90248176505945
 30
0.0
 11
114.7382699618401
 21
74.91865877367704
 31
0.0
  0
POLYLINE
  5
4CF
330
6C
100
AcDbEntity
  8
Visible (ANSI)
100
AcDb2dPolyline
 66
     1
 10
0.0
 20
0.0
 30
0.0
 70
   128
  0
VERTEX
  5
4D0
330
4CF
100
AcDbEntity
  8
Visible (ANSI)
100
AcDbVertex
100
AcDb2dVertex
 10
154.1152786705844
 20
27.17204045121676
 30
0.0
  0
VERTEX
  5
4D1
330
4CF
100
AcDbEntity
  8
Visible (ANSI)
100
AcDbVertex
100
AcDb2dVertex
 10
154.113833066867
 20
27.16479065291752
 30
0.0
  0
VERTEX
  5
4D3
330
4CF
100
AcDbEntity
  8
Visible (ANSI)
100
AcDbVertex
100
AcDb2dVertex
 10
154.1128553263545
 20
27.15785095130126
 30
0.0
  0
VERTEX
  5
4D4
330
4CF
100
AcDbEntity
  8
Visible (ANSI)
100
AcDbVertex
100
AcDb2dVertex
 10
154.1123508999288
 20
27.15125031731397
 30
0.0
  0
VERTEX
  5
4D5
330
4CF
100
AcDbEntity
  8
Visible (ANSI)
100
AcDbVertex
100
AcDb2dVertex
 10
154.1123104953713
 20
27.14502361166753
 30
0.0
  0
VERTEX
  5
4D6
330
4CF
100
AcDbEntity
  8
Visible (ANSI)
100
AcDbVertex
100
AcDb2dVertex
 10
154.1127270854416
 20
27.13920164657809
 30
0.0
  0
VERTEX
  5
4D7
330
4CF
100
AcDbEntity
  8
Visible (ANSI)
100
AcDbVertex
100
AcDb2dVertex
 10
154.113587437025
 20
27.13381595338149
 30
0.0
  0
VERTEX
  5
4D8
330
4CF
100
AcDbEntity
  8
Visible (ANSI)
100
AcDbVertex
100
AcDb2dVertex
 10
154.114889135804
 20
27.12888884903071
 30
0.0
  0
VERTEX
  5
4D9
330
4CF
100
AcDbEntity
  8
Visible (ANSI)
100
AcDbVertex
100
AcDb2dVertex
 10
154.1166151571066
 20
27.1244480363453
 30
0.0
  0
VERTEX
  5
4DA
330
4CF
100
AcDbEntity
  8
Visible (ANSI)
100
AcDbVertex
100
AcDb2dVertex
 10
154.1187466675971
 20
27.12051912623207
 30
0.0
  0
VERTEX
  5
4DB
330
4CF
100
AcDbEntity
  8
Visible (ANSI)
100
AcDbVertex
100
AcDb2dVertex
 10
154.121275802076
 20
27.11711820312738
 30
0.0
  0
VERTEX
  5
4DC
330
4CF
100
AcDbEntity
  8
Visible (ANSI)
100
AcDbVertex
100
AcDb2dVertex
 10
154.1241802841088
 20
27.11426642513544
 30
0.0
  0
VERTEX
  5
4DD
330
4CF
100
AcDbEntity
  8
Visible (ANSI)
100
AcDbVertex
100
AcDb2dVertex
 10
154.1274362277158
 20
27.11198260140557
 30
0.0
  0
VERTEX
  5
4DE
330
4CF
100
AcDbEntity
  8
Visible (ANSI)
100
AcDbVertex
100
AcDb2dVertex
 10
154.1310309598041
 20
27.11027577425948
 30
0.0
  0
VERTEX
  5
4DF
330
4CF
100
AcDbEntity
  8
Visible (ANSI)
100
AcDbVertex
100
AcDb2dVertex
 10
154.1349376407961
 20
27.10915985050498
 30
0.0
  0
VERTEX
  5
4E0
330
4CF
100
AcDbEntity
  8
Visible (ANSI)
100
AcDbVertex
100
AcDb2dVertex
 10
154.1391280912094
 20
27.10864620513687
 30
0.0
  0
VERTEX
  5
4E1
330
4CF
100
AcDbEntity
  8
Visible (ANSI)
100
AcDbVertex
100
AcDb2dVertex
 10
154.14358563483
 20
27.10873629579252
 30
0.0
  0
VERTEX
  5
4E2
330
4CF
100
AcDbEntity
  8
Visible (ANSI)
100
AcDbVertex
100
AcDb2dVertex
 10
154.1482797359346
 20
27.10943633599537
 30
0.0
  0
VERTEX
  5
4E3
330
4CF
100
AcDbEntity
  8
Visible (ANSI)
100
AcDbVertex
100
AcDb2dVertex
 10
154.1531830924086
 20
27.11074747600946
 30
0.0
  0
VERTEX
  5
4E4
330
4CF
100
AcDbEntity
  8
Visible (ANSI)
100
AcDbVertex
100
AcDb2dVertex
 10
154.1582632540824
 20
27.11267069495776
 30
0.0
  0
VERTEX
  5
4E5
330
4CF
100
AcDbEntity
  8
Visible (ANSI)
100
AcDbVertex
100
AcDb2dVertex
 10
154.1634997407403
 20
27.11519702358788
 30
0.0
  0
VERTEX
  5
4E6
330
4CF
100
AcDbEntity
  8
Visible (ANSI)
100
AcDbVertex
100
AcDb2dVertex
 10
154.1688586794717
 20
27.11832223842415
 30
0.0
  0
VERTEX
  5
4E7
330
4CF
100
AcDbEntity
  8
Visible (ANSI)
100
AcDbVertex
100
AcDb2dVertex
 10
154.1743056705298
 20
27.12203955051368
 30
0.0
  0
VERTEX
  5
4E8
330
4CF
100
AcDbEntity
  8
Visible (ANSI)
100
AcDbVertex
100
AcDb2dVertex
 10
154.1798186634335
 20
27.12633230822002
 30
0.0
  0
VERTEX
  5
4E9
330
4CF
100
AcDbEntity
  8
Visible (ANSI)
100
AcDbVertex
100
AcDb2dVertex
 10
154.1853625991138
 20
27.13118872323292
 30
0.0
  0
SEQEND
  5
4D2
330
4CF
100
AcDbEntity
  8
Visible (ANSI)
  0
POLYLINE
  5
4EA
330
6C
100
AcDbEntity
  8
Visible (ANSI)
100
AcDb2dPolyline
 66
     1
 10
0.0
 20
0.0
 30
0.0
 70
   128
  0
VERTEX
  5
4EB
330
4EA
100
AcDbEntity
  8
Visible (ANSI)
100
AcDbVertex
100
AcDb2dVertex
 10
114.7910328088314
 20
49.76431044811381
 30
0.0
  0
VERTEX
  5
4EC
330
4EA
100
AcDbEntity
  8
Visible (ANSI)
100
AcDbVertex
100
AcDb2dVertex
 10
114.7876635416411
 20
49.76634769282422
 30
0.0
  0
VERTEX
  5
4EE
330
4EA
100
AcDbEntity
  8
Visible (ANSI)
100
AcDbVertex
100
AcDb2dVertex
 10
114.784380899499
 20
49.76852897619789
 30
0.0
  0
VERTEX
  5
4EF
330
4EA
100
AcDbEntity
  8
Visible (ANSI)
100
AcDbVertex
100
AcDb2dVertex
 10
114.7811875124349
 20
49.77085247459836
 30
0.0
  0
VERTEX
  5
4F0
330
4EA
100
AcDbEntity
  8
Visible (ANSI)
100
AcDbVertex
100
AcDb2dVertex
 10
114.7780858984741
 20
49.77331620876191
 30
0.0
  0
VERTEX
  5
4F1
330
4EA
100
AcDbEntity
  8
Visible (ANSI)
100
AcDbVertex
100
AcDb2dVertex
 10
114.775078496824
 20
49.77591805811217
 30
0.0
  0
VERTEX
  5
4F2
330
4EA
100
AcDbEntity
  8
Visible (ANSI)
100
AcDbVertex
100
AcDb2dVertex
 10
114.7721676263909
 20
49.77865573207536
 30
0.0
  0
VERTEX
  5
4F3
330
4EA
100
AcDbEntity
  8
Visible (ANSI)
100
AcDbVertex
100
AcDb2dVertex
 10
114.7693555189666
 20
49.78152681796846
 30
0.0
  0
VERTEX
  5
4F4
330
4EA
100
AcDbEntity
  8
Visible (ANSI)
100
AcDbVertex
100
AcDb2dVertex
 10
114.7666442901902
 20
49.78452874509232
 30
0.0
  0
VERTEX
  5
4F5
330
4EA
100
AcDbEntity
  8
Visible (ANSI)
100
AcDbVertex
100
AcDb2dVertex
 10
114.7640359561412
 20
49.78765880867578
 30
0.0
  0
VERTEX
  5
4F6
330
4EA
100
AcDbEntity
  8
Visible (ANSI)
100
AcDbVertex
100
AcDb2dVertex
 10
114.7615324001531
 20
49.79091415556104
 30
0.0
  0
VERTEX
  5
4F7
330
4EA
100
AcDbEntity
  8
Visible (ANSI)
100
AcDbVertex
100
AcDb2dVertex
 10
114.7591354225934
 20
49.79429181766612
 30
0.0
  0
VERTEX
  5
4F8
330
4EA
100
AcDbEntity
  8
Visible (ANSI)
100
AcDbVertex
100
AcDb2dVertex
 10
114.7568466910835
 20
49.79778867852237
 30
0.0
  0
VERTEX
  5
4F9
330
4EA
100
AcDbEntity
  8
Visible (ANSI)
100
AcDbVertex
100
AcDb2dVertex
 10
114.7546677570918
 20
49.80140149242242
 30
0.0
  0
VERTEX
  5
4FA
330
4EA
100
AcDbEntity
  8
Visible (ANSI)
100
AcDbVertex
100
AcDb2dVertex
 10
114.7526000559344
 20
49.80512689401251
 30
0.0
  0
VERTEX
  5
4FB
330
4EA
100
AcDbEntity
  8
Visible (ANSI)
100
AcDbVertex
100
AcDb2dVertex
 10
114.7506449067744
 20
49.80896140788498
 30
0.0
  0
VERTEX
  5
4FC
330
4EA
100
AcDbEntity
  8
Visible (ANSI)
100
AcDbVertex
100
AcDb2dVertex
 10
114.7488035126223
 20
49.81290141980096
 30
0.0
  0
VERTEX
  5
4FD
330
4EA
100
AcDbEntity
  8
Visible (ANSI)
100
AcDbVertex
100
AcDb2dVertex
 10
114.7470769354459
 20
49.81694322470811
 30
0.0
  0
VERTEX
  5
4FE
330
4EA
100
AcDbEntity
  8
Visible (ANSI)
100
AcDbVertex
100
AcDb2dVertex
 10
114.7454661376535
 20
49.82108298348206
 30
0.0
  0
VERTEX
  5
4FF
330
4EA
100
AcDbEntity
  8
Visible (ANSI)
100
AcDbVertex
100
AcDb2dVertex
 10
114.7439719323143
 20
49.82531677099967
 30
0.0
  0
VERTEX
  5
500
330
4EA
100
AcDbEntity
  8
Visible (ANSI)
100
AcDbVertex
100
AcDb2dVertex
 10
114.7425950329379
 20
49.82964055684312
 30
0.0
  0
VERTEX
  5
501
330
4EA
100
AcDbEntity
  8
Visible (ANSI)
100
AcDbVertex
100
AcDb2dVertex
 10
114.7413359953981
 20
49.83405020063324
 30
0.0
  0
VERTEX
  5
502
330
4EA
100
AcDbEntity
  8
Visible (ANSI)
100
AcDbVertex
100
AcDb2dVertex
 10
114.7401952843059
 20
49.83854149025122
 30
0.0
  0
VERTEX
  5
503
330
4EA
100
AcDbEntity
  8
Visible (ANSI)
100
AcDbVertex
100
AcDb2dVertex
 10
114.7391732066363
 20
49.84311011320933
 30
0.0
  0
VERTEX
  5
504
330
4EA
100
AcDbEntity
  8
Visible (ANSI)
100
AcDbVertex
100
AcDb2dVertex
 10
114.7382699615082
 20
49.84775166613231
 30
0.0
  0
SEQEND
  5
4ED
330
4EA
100
AcDbEntity
  8
Visible (ANSI)
  0
LINE
  5
505
330
6C
100
AcDbEntity
  8
Visible (ANSI)
100
AcDbLine
 10
115.2297655774339
 20
50.05870383939111
 30
0.0
 11
115.3973913084662
 21
50.15523307799227
 31
0.0
  0
LINE
  5
506
330
6C
100
AcDbEntity
  8
Visible (ANSI)
100
AcDbLine
 10
154.1853613606442
 20
27.16432493866756
 30
0.0
 11
154.1853613606442
 21
27.13118943680234
 31
0.0
  0
LINE
  5
507
330
6C
100
AcDbEntity
  8
Visible (ANSI)
100
AcDbLine
 10
154.1853613606442
 20
27.13118943680234
 30
0.0
 11
154.2769577152
 21
27.18393626934091
 31
0.0
  0
LINE
  5
508
330
6C
100
AcDbEntity
  8
Visible (ANSI)
100
AcDbLine
 10
154.333582135122
 20
27.21654410411454
 30
0.0
 11
154.693594359622
 21
27.42386135609062
 31
0.0
  0
LINE
  5
509
330
6C
100
AcDbEntity
  8
Visible (ANSI)
100
AcDbLine
 10
154.693594359622
 20
27.42453474511414
 30
0.0
 11
154.693594359622
 21
27.42386135609062
 31
0.0
  0
LINE
  5
50A
330
6C
100
AcDbEntity
  8
Visible (ANSI)
100
AcDbLine
 10
154.2446732684025
 20
52.16902510197667
 30
0.0
 11
154.2515869133977
 21
52.16445366956957
 31
0.0
  0
LINE
  5
50B
330
6C
100
AcDbEntity
  8
Visible (ANSI)
100
AcDbLine
 10
154.1853625991139
 20
52.27904193996351
 30
0.0
 11
154.1858523674797
 21
52.27096787701017
 31
0.0
  0
LINE
  5
50C
330
6C
100
AcDbEntity
  8
Visible (ANSI)
100
AcDbLine
 10
154.8444827072704
 20
52.40837072059779
 30
0.0
 11
154.8444827072703
 21
27.51142556564982
 31
0.0
  0
LINE
  5
50D
330
6C
100
AcDbEntity
  8
Visible (ANSI)
100
AcDbLine
 10
115.3973913084662
 20
75.29889490252454
 30
0.0
 11
154.693594359622
 21
52.6697165712282
 31
0.0
  0
LINE
  5
50E
330
6C
100
AcDbEntity
  8
Visible (ANSI)
100
AcDbLine
 10
115.3348913084661
 20
50.26348607379333
 30
0.0
 11
115.3348913084661
 21
50.29799777721554
 31
0.0
  0
LINE
  5
50F
330
6C
100
AcDbEntity
  8
Visible (ANSI)
100
AcDbLine
 10
115.3348913084662
 20
73.77859943826725
 30
0.0
 11
115.3348913084662
 21
74.11314552387864
 31
0.0
  0
LINE
  5
510
330
6C
100
AcDbEntity
  8
Visible (ANSI)
100
AcDbLine
 10
153.786559361237
 20
28.04838146371897
 30
0.0
 11
153.4963941552369
 21
28.21547649281291
 31
0.0
  0
LINE
  5
511
330
6C
100
AcDbEntity
  8
Visible (ANSI)
100
AcDbLine
 10
134.6062879215491
 20
39.09356520033451
 30
0.0
 11
134.316122715549
 21
39.26066022942844
 31
0.0
  0
LINE
  5
512
330
6C
100
AcDbEntity
  8
Visible (ANSI)
100
AcDbLine
 10
115.4260164818611
 20
50.13874893695004
 30
0.0
 11
115.3973913084662
 21
50.15523307799227
 31
0.0
  0
SPLINE
  5
513
330
6C
100
AcDbEntity
  8
Visible (ANSI)
100
AcDbSpline
210
0.0
220
0.0
230
1.0
 70
     8
 71
     3
 72
    11
 73
     7
 74
     0
 42
0.0000000001
 43
0.0000000001
 40
0.0
 40
0.0
 40
0.0
 40
0.0
 40
0.9920593819026189
 40
0.9920593819026189
 40
0.9920593819026189
 40
1.570796326794898
 40
1.570796326794898
 40
1.570796326794898
 40
1.570796326794898
 10
74.24131658719111
 20
90.60706125172822
 30
0.0
 10
74.29298634666522
 20
90.60706125172822
 30
0.0
 10
74.34386027236934
 20
90.63459210329185
 30
0.0
 10
74.37212192577797
 20
90.67784765774119
 30
0.0
 10
74.38860890553915
 20
90.70308161841763
 30
0.0
 10
74.39756658719111
 20
90.73316870251508
 30
0.0
 10
74.39756658719111
 20
90.76331125172821
 30
0.0
  0
LINE
  5
514
330
6C
100
AcDbEntity
  8
Visible (ANSI)
100
AcDbLine
 10
74.27256658719112
 20
90.76331125172821
 30
0.0
 11
74.27256658719109
 21
91.48206125172819
 31
0.0
  0
LINE
  5
515
330
6C
100
AcDbEntity
  8
Visible (ANSI)
100
AcDbLine
 10
74.27256658719112
 20
90.76331125172821
 30
0.0
 11
74.39756658719112
 21
90.76331125172822
 31
0.0
  0
SPLINE
  5
516
330
6C
100
AcDbEntity
  8
Visible (ANSI)
100
AcDbSpline
210
0.0
220
0.0
230
1.0
 70
     8
 71
     3
 72
    11
 73
     7
 74
     0
 42
0.0000000001
 43
0.0000000001
 40
0.0
 40
0.0
 40
0.0
 40
0.0
 40
1.483474787630861
 40
1.483474787630861
 40
1.483474787630861
 40
1.570796326794898
 40
1.570796326794898
 40
1.570796326794898
 40
1.570796326794898
 10
74.24131658719111
 20
90.73206125172822
 30
0.0
 10
74.25676944956227
 20
90.73206125172822
 30
0.0
 10
74.2710998679044
 20
90.74519193481462
 30
0.0
 10
74.27244752145179
 20
90.76058592017831
 30
0.0
 10
74.27252684816702
 20
90.76149205387672
 30
0.0
 10
74.27256658719111
 20
90.76240165236191
 30
0.0
 10
74.27256658719111
 20
90.76331125172821
 30
0.0
  0
LINE
  5
517
330
6C
100
AcDbEntity
  8
Visible (ANSI)
100
AcDbLine
 10
74.24131658719111
 20
90.73206125172822
 30
0.0
 11
74.24131658719111
 21
90.7269358498549
 31
0.0
  0
LINE
  5
518
330
6C
100
AcDbEntity
  8
Visible (ANSI)
100
AcDbLine
 10
74.24131658719111
 20
90.7269358498549
 30
0.0
 11
74.24131658719111
 21
90.60706125172822
 31
0.0
  0
LINE
  5
519
330
6C
100
AcDbEntity
  8
Visible (ANSI)
100
AcDbLine
 10
74.39756658719112
 20
90.76331125172822
 30
0.0
 11
74.39756658719108
 21
91.48206125172821
 31
0.0
  0
LINE
  5
51A
330
6C
100
AcDbEntity
  8
Visible (ANSI)
100
AcDbLine
 10
74.27256658719109
 20
91.48206125172819
 30
0.0
 11
74.39756658719108
 21
91.48206125172821
 31
0.0
  0
SPLINE
  5
51B
330
6C
100
AcDbEntity
  8
Visible (ANSI)
100
AcDbSpline
210
0.0
220
0.0
230
1.0
 70
     8
 71
     3
 72
    11
 73
     7
 74
     0
 42
0.0000000001
 43
0.0000000001
 40
0.0
 40
0.0
 40
0.0
 40
0.0
 40
0.9920593819024132
 40
0.9920593819024132
 40
0.9920593819024132
 40
1.570796326794898
 40
1.570796326794898
 40
1.570796326794898
 40
1.570796326794898
 10
18.5538165871911
 20
90.60706125172822
 30
0.0
 10
18.56584544009074
 20
90.60706125172824
 30
0.0
 10
18.57787429299037
 20
90.63459210329188
 30
0.0
 10
18.58990314589001
 20
90.67784765774122
 30
0.0
 10
18.59692040887314
 20
90.70308161841769
 30
0.0
 10
18.60393767185628
 20
90.73316870251513
 30
0.0
 10
18.61095493483941
 20
90.76331125172828
 30
0.0
  0
SPLINE
  5
51C
330
6C
100
AcDbEntity
  8
Visible (ANSI)
100
AcDbSpline
210
0.0
220
0.0
230
1.0
 70
     8
 71
     3
 72
    11
 73
     7
 74
     0
 42
0.0000000001
 43
0.0000000001
 40
0.0
 40
0.0
 40
0.0
 40
0.0
 40
0.9920593819026144
 40
0.9920593819026144
 40
0.9920593819026144
 40
1.570796326795028
 40
1.570796326795028
 40
1.570796326795028
 40
1.570796326795028
 10
74.1841782395428
 20
90.76331125172828
 30
0.0
 10
74.19620709244243
 20
90.71164149225417
 30
0.0
 10
74.20823594534205
 20
90.66076756655006
 30
0.0
 10
74.22026479824168
 20
90.63250591314139
 30
0.0
 10
74.22728206122482
 20
90.61601893338018
 30
0.0
 10
74.23429932420797
 20
90.60706125172822
 30
0.0
 10
74.24131658719109
 20
90.60706125172821
 30
0.0
  0
LINE
  5
51D
330
6C
100
AcDbEntity
  8
Visible (ANSI)
100
AcDbLine
 10
74.1841782395428
 20
91.48206125172826
 30
0.0
 11
74.1841782395428
 21
90.76331125172828
 31
0.0
  0
SPLINE
  5
51E
330
6C
100
AcDbEntity
  8
Visible (ANSI)
100
AcDbSpline
210
0.0
220
0.0
230
1.0
 70
     8
 71
     3
 72
    11
 73
     7
 74
     0
 42
0.0000000001
 43
0.0000000001
 40
0.0
 40
0.0
 40
0.0
 40
0.0
 40
1.483474787626232
 40
1.483474787626232
 40
1.483474787626232
 40
1.570796326795028
 40
1.570796326795028
 40
1.570796326795028
 40
1.570796326795028
 10
74.24131658719109
 20
90.73206125172822
 30
0.0
 10
74.22332925666815
 20
90.73206125172822
 30
0.0
 10
74.20534192614522
 20
90.74519193481455
 30
0.0
 10
74.18735459562227
 20
90.76058592017819
 30
0.0
 10
74.18629581026244
 20
90.76149205387665
 30
0.0
 10
74.18523702490261
 20
90.76240165236189
 30
0.0
 10
74.1841782395428
 20
90.76331125172824
 30
0.0
  0
SPLINE
  5
51F
330
6C
100
AcDbEntity
  8
Visible (ANSI)
100
AcDbSpline
210
0.0
220
0.0
230
1.0
 70
     8
 71
     3
 72
    11
 73
     7
 74
     0
 42
0.0000000001
 43
0.0000000001
 40
0.0
 40
0.0
 40
0.0
 40
0.0
 40
1.483474787626232
 40
1.483474787626232
 40
1.483474787626232
 40
1.570796326794898
 40
1.570796326794898
 40
1.570796326794898
 40
1.570796326794898
 10
18.5538165871911
 20
90.73206125172822
 30
0.0
 10
18.57180391771406
 20
90.73206125172822
 30
0.0
 10
18.589791248237
 20
90.74519193481455
 30
0.0
 10
18.60777857875996
 20
90.76058592017819
 30
0.0
 10
18.60883736411978
 20
90.76149205387665
 30
0.0
 10
18.60989614947959
 20
90.76240165236189
 30
0.0
 10
18.61095493483941
 20
90.76331125172824
 30
0.0
  0
LINE
  5
520
330
6C
100
AcDbEntity
  8
Visible (ANSI)
100
AcDbLine
 10
18.5538165871911
 20
90.73206125172822
 30
0.0
 11
18.5538165871911
 21
90.7269358498549
 31
0.0
  0
LINE
  5
521
330
6C
100
AcDbEntity
  8
Visible (ANSI)
100
AcDbLine
 10
18.5538165871911
 20
90.7269358498549
 30
0.0
 11
18.5538165871911
 21
90.60706125172822
 31
0.0
  0
LINE
  5
522
330
6C
100
AcDbEntity
  8
Visible (ANSI)
100
AcDbLine
 10
18.61095493483941
 20
90.76331125172826
 30
0.0
 11
18.61095493483942
 21
91.48206125172825
 31
0.0
  0
SPLINE
  5
523
330
6C
100
AcDbEntity
  8
Visible (ANSI)
100
AcDbSpline
210
0.0
220
0.0
230
1.0
 70
     8
 71
     3
 72
    11
 73
     7
 74
     0
 42
0.0000000001
 43
0.0000000001
 40
0.0
 40
0.0
 40
0.0
 40
0.0
 40
0.992059381902489
 40
0.992059381902489
 40
0.992059381902489
 40
1.570796326794891
 40
1.570796326794891
 40
1.570796326794891
 40
1.570796326794891
 10
18.3975665871911
 20
90.76331125172821
 30
0.0
 10
18.3975665871911
 20
90.71164149225412
 30
0.0
 10
18.42509743875473
 20
90.66076756655002
 30
0.0
 10
18.46835299320407
 20
90.63250591314137
 30
0.0
 10
18.49358695388052
 20
90.61601893338018
 30
0.0
 10
18.52367403797795
 20
90.60706125172822
 30
0.0
 10
18.5538165871911
 20
90.60706125172822
 30
0.0
  0
LINE
  5
524
330
6C
100
AcDbEntity
  8
Visible (ANSI)
100
AcDbLine
 10
18.5225665871911
 20
90.76331125172821
 30
0.0
 11
18.5225665871911
 21
91.48206125172819
 31
0.0
  0
LINE
  5
525
330
6C
100
AcDbEntity
  8
Visible (ANSI)
100
AcDbLine
 10
18.3975665871911
 20
91.48206125172819
 30
0.0
 11
18.3975665871911
 21
90.76331125172821
 31
0.0
  0
LINE
  5
526
330
6C
100
AcDbEntity
  8
Visible (ANSI)
100
AcDbLine
 10
18.5225665871911
 20
90.76331125172821
 30
0.0
 11
18.3975665871911
 21
90.76331125172821
 31
0.0
  0
LINE
  5
527
330
6C
100
AcDbEntity
  8
Visible (ANSI)
100
AcDbLine
 10
18.5225665871911
 20
91.48206125172819
 30
0.0
 11
18.3975665871911
 21
91.48206125172819
 31
0.0
  0
SPLINE
  5
528
330
6C
100
AcDbEntity
  8
Visible (ANSI)
100
AcDbSpline
210
0.0
220
0.0
230
1.0
 70
     8
 71
     3
 72
    11
 73
     7
 74
     0
 42
0.0000000001
 43
0.0000000001
 40
0.0
 40
0.0
 40
0.0
 40
0.0
 40
1.483474787626959
 40
1.483474787626959
 40
1.483474787626959
 40
1.570796326794891
 40
1.570796326794891
 40
1.570796326794891
 40
1.570796326794891
 10
18.5538165871911
 20
90.73206125172822
 30
0.0
 10
18.53836372481999
 20
90.73206125172822
 30
0.0
 10
18.52403330647788
 20
90.74519193481455
 30
0.0
 10
18.52268565293042
 20
90.76058592017819
 30
0.0
 10
18.52260632621519
 20
90.76149205387665
 30
0.0
 10
18.5225665871911
 20
90.76240165236187
 30
0.0
 10
18.5225665871911
 20
90.76331125172821
 30
0.0
  0
LINE
  5
529
330
6C
100
AcDbEntity
  8
Visible (ANSI)
100
AcDbLine
 10
74.24131658719111
 20
90.60706125172822
 30
0.0
 11
18.5538165871911
 21
90.60706125172822
 31
0.0
  0
LINE
  5
52A
330
6C
100
AcDbEntity
  8
Hidden (ANSI)
100
AcDbLine
 10
18.5538165871911
 20
90.73206125172822
 30
0.0
 11
74.24131658719111
 21
90.73206125172822
 31
0.0
  0
LINE
  5
52B
330
6C
100
AcDbEntity
  8
Visible (ANSI)
100
AcDbLine
 10
18.61095493483942
 20
91.48206125172825
 30
0.0
 11
74.1841782395428
 21
91.48206125172826
 31
0.0
  0
LINE
  5
52C
330
6C
100
AcDbEntity
  8
Hidden (ANSI)
100
AcDbLine
 10
46.6790665871911
 20
90.73206125172802
 30
0.0
 11
46.6790665871911
 21
90.60706125172801
 31
0.0
  0
LINE
  5
52D
330
6C
100
AcDbEntity
  8
Hidden (ANSI)
100
AcDbLine
 10
46.1160665871911
 20
90.73206125172802
 30
0.0
 11
46.1160665871911
 21
90.60706125172801
 31
0.0
  0
LINE
  5
52E
330
6C
100
AcDbEntity
  8
Hidden (ANSI)
100
AcDbLine
 10
73.80406658719113
 20
90.73206125172802
 30
0.0
 11
73.80406658719113
 21
90.60706125172801
 31
0.0
  0
LINE
  5
52F
330
6C
100
AcDbEntity
  8
Hidden (ANSI)
100
AcDbLine
 10
73.24106658719113
 20
90.73206125172802
 30
0.0
 11
73.24106658719113
 21
90.60706125172801
 31
0.0
  0
LINE
  5
530
330
6C
100
AcDbEntity
  8
Hidden (ANSI)
100
AcDbLine
 10
19.5540665871911
 20
90.73206125172802
 30
0.0
 11
19.5540665871911
 21
90.60706125172801
 31
0.0
  0
LINE
  5
531
330
6C
100
AcDbEntity
  8
Hidden (ANSI)
100
AcDbLine
 10
18.9910665871911
 20
90.73206125172802
 30
0.0
 11
18.9910665871911
 21
90.60706125172801
 31
0.0
  0
MTEXT
  5
532
330
6C
100
AcDbEntity
  8
Symbol (ANSI)
100
AcDbMText
 10
42.48833936877979
 20
85.05367638726834
 30
0.0
 40
1.200000014830761
 41
0.0
 46
0.0
 71
     7
 72
     1
  1
TOP VIEW
  7
Text Style153
 73
     1
 44
1.0
  0
LINE
  5
533
330
6C
100
AcDbEntity
  8
Symbol (ANSI)
370
    30
100
AcDbLine
 10
42.48929937124926
 20
84.80896001351943
 30
0.0
 11
50.06077414492658
 21
84.80896001351943
 31
0.0
  0
LINE
  5
534
330
6C
100
AcDbEntity
  8
Center Mark (ANSI)
  6
Continuous
100
AcDbLine
 10
19.27256658717928
 20
67.28605969351932
 30
0.0
 11
19.27256658717928
 21
64.22305969351931
 31
0.0
  0
LINE
  5
535
330
6C
100
AcDbEntity
  8
Center Mark (ANSI)
  6
Continuous
100
AcDbLine
 10
73.5225665871793
 20
67.28605969351932
 30
0.0
 11
73.5225665871793
 21
64.22305969351931
 31
0.0
  0
LINE
  5
536
330
6C
100
AcDbEntity
  8
Centerline (ANSI)
  6
Continuous
100
AcDbLine
 10
17.74106658717927
 20
65.75455969351931
 30
0.0
 11
75.05406658717929
 21
65.75455969351931
 31
0.0
  0
LINE
  5
537
330
6C
100
AcDbEntity
  8
Center Mark (ANSI)
  6
Continuous
100
AcDbLine
 10
75.05406658717929
 20
65.75455969351931
 30
0.0
 11
71.99106658717929
 21
65.75455969351931
 31
0.0
  0
LINE
  5
538
330
6C
100
AcDbEntity
  8
Center Mark (ANSI)
  6
Continuous
100
AcDbLine
 10
75.05406658717929
 20
36.62455969351933
 30
0.0
 11
71.99106658717929
 21
36.62455969351933
 31
0.0
  0
LINE
  5
539
330
6C
100
AcDbEntity
  8
Centerline (ANSI)
  6
Continuous
100
AcDbLine
 10
73.5225665871793
 20
67.28605969351932
 30
0.0
 11
73.5225665871793
 21
35.09305969351933
 31
0.0
  0
LINE
  5
53A
330
6C
100
AcDbEntity
  8
Center Mark (ANSI)
  6
Continuous
100
AcDbLine
 10
73.5225665871793
 20
35.09305969351933
 30
0.0
 11
73.5225665871793
 21
38.15605969351933
 31
0.0
  0
LINE
  5
53B
330
6C
100
AcDbEntity
  8
Center Mark (ANSI)
  6
Continuous
100
AcDbLine
 10
19.27256658717926
 20
35.09305969351933
 30
0.0
 11
19.27256658717926
 21
38.15605969351933
 31
0.0
  0
LINE
  5
53C
330
6C
100
AcDbEntity
  8
Centerline (ANSI)
  6
Continuous
100
AcDbLine
 10
75.05406658717929
 20
36.62455969351933
 30
0.0
 11
17.74106658717926
 21
36.62455969351933
 31
0.0
  0
LINE
  5
53D
330
6C
100
AcDbEntity
  8
Center Mark (ANSI)
  6
Continuous
100
AcDbLine
 10
17.74106658717926
 20
36.62455969351933
 30
0.0
 11
20.80406658717926
 21
36.62455969351933
 31
0.0
  0
LINE
  5
53E
330
6C
100
AcDbEntity
  8
Center Mark (ANSI)
  6
Continuous
100
AcDbLine
 10
17.74106658717927
 20
65.75455969351931
 30
0.0
 11
20.80406658717928
 21
65.75455969351931
 31
0.0
  0
LINE
  5
53F
330
6C
100
AcDbEntity
  8
Centerline (ANSI)
  6
Continuous
100
AcDbLine
 10
19.27256658717926
 20
35.09305969351933
 30
0.0
 11
19.27256658717928
 21
67.28605969351932
 31
0.0
  0
DIMENSION
  5
540
330
6C
100
AcDbEntity
  8
Dimension (ANSI)
100
AcDbDimension
280
     0
  2
*D4
 10
74.39756658717929
 20
79.13265360782341
 30
0.0
 11
46.39756658717928
 21
79.13265360782341
 31
0.0
 70
   160
  1
<>
 42
56.00000000000001
 73
     0
 74
     0
 75
     0
  3
Default (ANSI)
100
AcDbAlignedDimension
 13
18.39756658717927
 23
66.416171345871
 33
0.0
 14
74.39756658717929
 24
66.41617134587102
 34
0.0
100
AcDbRotatedDimension
1001
ACAD
1000
DSTYLE
1002
{
1070
   289
1070
     1
1070
    73
1070
     0
1070
    74
1070
     0
1070
   271
1070
     2
1070
   272
1070
     2
1070
    48
1040
0.0
1070
    47
1040
0.0
1002
}
  0
DIMENSION
  5
62C
330
6C
100
AcDbEntity
  8
Dimension (ANSI)
100
AcDbDimension
280
     0
  2
*D5
 10
19.27256658717928
 20
71.13336963142107
 30
0.0
 11
14.57602276583879
 21
71.13336963142107
 31
0.0
 70
   160
  1
<>
 42
0.8750000000000035
 73
     0
 74
     0
 75
     0
  3
Default (ANSI)
100
AcDbAlignedDimension
 13
18.39756658717927
 23
66.416171345871
 33
0.0
 14
19.27256658717928
 24
67.28605969351932
 34
0.0
100
AcDbRotatedDimension
1001
ACAD
1000
DSTYLE
1002
{
1070
   289
1070
     1
1070
    73
1070
     0
1070
    74
1070
     0
1070
   271
1070
     2
1070
   272
1070
     2
1070
    48
1040
0.0
1070
    47
1040
0.0
1002
}
  0
DIMENSION
  5
716
330
6C
100
AcDbEntity
  8
Dimension (ANSI)
100
AcDbDimension
280
     0
  2
*D6
 10
73.5225665871793
 20
75.94747701635395
 30
0.0
 11
46.39756658717928
 21
75.94747701635395
 31
0.0
 70
   160
  1
<>
 42
54.25000000000002
 73
     0
 74
     0
 75
     0
  3
Default (ANSI)
100
AcDbAlignedDimension
 13
19.27256658717928
 23
67.28605969351932
 33
0.0
 14
73.5225665871793
 24
67.28605969351932
 34
0.0
 50
180.0
100
AcDbRotatedDimension
1001
ACAD
1000
DSTYLE
1002
{
1070
   289
1070
     1
1070
    73
1070
     0
1070
    74
1070
     0
1070
   271
1070
     2
1070
   272
1070
     2
1070
    48
1040
0.0
1070
    47
1040
0.0
1002
}
  0
DIMENSION
  5
800
330
6C
100
AcDbEntity
  8
Dimension (ANSI)
100
AcDbDimension
280
     0
  2
*D7
 10
16.69469767520522
 20
36.62455969351933
 30
0.0
 11
13.85740580007559
 21
32.87958303469793
 31
0.0
 70
   160
  1
<>
 42
0.875
 73
     0
 74
     0
 75
     0
  3
Default (ANSI)
100
AcDbAlignedDimension
 13
18.61095493482761
 23
35.74955969351933
 33
0.0
 14
17.74106658717926
 24
36.62455969351933
 34
0.0
 50
90.0
100
AcDbRotatedDimension
1001
ACAD
1000
DSTYLE
1002
{
1070
   289
1070
     1
1070
   271
1070
     2
1070
   272
1070
     2
1070
    48
1040
0.0
1070
    47
1040
0.0
1002
}
  0
DIMENSION
  5
900
330
6C
100
AcDbEntity
  8
Dimension (ANSI)
100
AcDbDimension
280
     0
  2
*D8
 10
13.80405871316354
 20
65.75455969351931
 30
0.0
 11
13.80405871316353
 21
51.18955969351932
 31
0.0
 70
   160
  1
<>
 42
29.12999999999998
 73
     0
 74
     0
 75
     0
  3
Default (ANSI)
100
AcDbAlignedDimension
 13
17.74106658717926
 23
36.62455969351933
 33
0.0
 14
17.74106658717927
 24
65.75455969351931
 34
0.0
 50
90.0
100
AcDbRotatedDimension
1001
ACAD
1000
DSTYLE
1002
{
1070
   289
1070
     1
1070
   271
1070
     2
1070
   272
1070
     2
1070
    48
1040
0.0
1070
    47
1040
0.0
1002
}
  0
DIMENSION
  5
9EA
330
6C
100
AcDbEntity
  8
Dimension (ANSI)
100
AcDbDimension
280
     0
  2
*D9
 10
7.587332887583514
 20
66.62955969351931
 30
0.0
 11
7.587332887583502
 21
51.18955969351932
 31
0.0
 70
   160
  1
<>
 42
30.87999999999997
 73
     0
 74
     0
 75
     0
  3
Default (ANSI)
100
AcDbAlignedDimension
 13
18.61095493482761
 23
35.74955969351933
 33
0.0
 14
18.61095493482759
 24
66.62955969351931
 34
0.0
 50
90.0
100
AcDbRotatedDimension
1001
ACAD
1000
DSTYLE
1002
{
1070
   289
1070
     1
1070
   271
1070
     2
1070
   272
1070
     2
1070
    48
1040
0.0
1070
    47
1040
0.0
1002
}
  0
DIMENSION
  5
AD4
330
6C
100
AcDbEntity
  8
Dimension (ANSI)
100
AcDbDimension
280
     0
  2
*D10
 10
73.35055671036627
 20
36.8473933810057
 30
0.0
 11
80.04788845575745
 21
33.63723932337109
 31
0.0
 70
   163
  1
<>{\P(6 PL.)}
 71
     4
 42
0.5629999999999999
 73
     0
 74
     0
 75
     0
  3
Default (ANSI)
100
AcDbDiametricDimension
 15
73.69457646399229
 25
36.40172600603297
 35
0.0
 40
0.0
1001
ACAD
1000
DSTYLE
1002
{
1070
   144
1040
1.00000000000002
1070
   271
1070
     3
1070
   272
1070
     3
1070
    48
1040
0.0
1070
    47
1040
0.0
1002
}
1001
ACAD_DSTYLE_DIMRADIAL_EXTENSION
1070
   387
1070
     1
1070
   388
1040
0.0
1070
   390
1040
0.0
  0
DIMENSION
  5
B8F
330
6C
100
AcDbEntity
  8
Dimension (ANSI)
100
AcDbDimension
280
     0
  2
*D11
 10
64.63418028624132
 20
90.60706125172822
 30
0.0
 11
67.5186178983326
 21
95.70203792723425
 31
0.0
 70
   160
  1
<>{\PTYP.}
 71
     5
 42
0.8750000000000426
 73
     0
 74
     0
 75
     0
  3
Default (ANSI)
100
AcDbAlignedDimension
 13
67.5186178983326
 23
91.48206125172826
 33
0.0
 14
67.48694788779324
 24
90.60706125172822
 34
0.0
 50
270.0
100
AcDbRotatedDimension
1001
ACAD
1000
DSTYLE
1002
{
1070
   289
1070
     1
1070
   271
1070
     2
1070
    76
1070
     1
1070
    75
1070
     1
1070
   272
1070
     2
1070
    48
1040
0.0
1070
    47
1040
0.0
1002
}
  0
DIMENSION
  5
C98
330
6C
100
AcDbEntity
  8
Dimension (ANSI)
100
AcDbDimension
280
     0
  2
*D12
 10
93.27475731940428
 20
64.97993423935897
 30
0.0
 11
98.57248915541541
 21
64.97993423935897
 31
0.0
 70
   160
  1
<>{\PTYP.}
 71
     4
 42
0.8750000000000426
 73
     0
 74
     0
 75
     0
  3
Default (ANSI)
100
AcDbAlignedDimension
 13
94.14975731940431
 23
64.97993423935897
 33
0.0
 14
93.27475731940428
 24
65.01136702132815
 34
0.0
 50
180.0
100
AcDbRotatedDimension
1001
ACAD
1000
DSTYLE
1002
{
1070
   289
1070
     1
1070
    73
1070
     0
1070
    74
1070
     0
1070
   271
1070
     2
1070
    76
1070
     1
1070
    75
1070
     1
1070
   272
1070
     2
1070
    48
1040
0.0
1070
    47
1040
0.0
1002
}
  0
LINE
  5
D87
330
6C
100
AcDbEntity
  8
Center Mark (ANSI)
  6
Continuous
100
AcDbLine
 10
47.92906658717927
 20
65.75455969351931
 30
0.0
 11
44.86606658717927
 21
65.75455969351931
 31
0.0
  0
LINE
  5
D88
330
6C
100
AcDbEntity
  8
Center Mark (ANSI)
  6
Continuous
100
AcDbLine
 10
47.92906658717929
 20
36.6245596935193
 30
0.0
 11
44.86606658717929
 21
36.6245596935193
 31
0.0
  0
LINE
  5
D89
330
6C
100
AcDbEntity
  8
Centerline (ANSI)
  6
Continuous
100
AcDbLine
 10
46.39756658717927
 20
67.28605969351932
 30
0.0
 11
46.39756658717929
 21
35.0930596935193
 31
0.0
  0
DIMENSION
  5
D8A
330
6C
100
AcDbEntity
  8
Dimension (ANSI)
100
AcDbDimension
280
     0
  2
*D13
 10
46.39756658717927
 20
71.13855554818376
 30
0.0
 11
28.2089428191037
 21
71.13855554818376
 31
0.0
 70
   160
  1
<>
 42
27.12499999999999
 73
     0
 74
     0
 75
     0
  3
Default (ANSI)
100
AcDbAlignedDimension
 13
19.27256658717928
 23
67.28605969351932
 33
0.0
 14
46.39756658717927
 24
67.28605969351932
 34
0.0
 50
180.0
100
AcDbRotatedDimension
1001
ACAD
1000
DSTYLE
1002
{
1070
   289
1070
     1
1070
    73
1070
     0
1070
    74
1070
     0
1070
   271
1070
     2
1070
   272
1070
     2
1070
    48
1040
0.0
1070
    47
1040
0.0
1002
}
  0
MTEXT
  5
E74
102
{ACAD_XDICTIONARY
360
E7B
102
}
330
6C
100
AcDbEntity
  8
Symbol (ANSI)
100
AcDbMText
 10
93.00268936573925
 20
9.029035078338996
 30
0.0
 40
1.000000031914297
 41
73.83387107548755
 46
0.0
 71
     4
 72
     1
  3
{\fRomanS|b0|i0|c0|p2;\H2x;PART#: WA72P60F2\P(DATA SUBJECT TO CHANGE WITHOUT NOTICE)\H1.6157x; \H0.61894x;\P \H1.352x; \H0.73963x;\P\H0.6x;THIS DRAWING IS PROPERTY OF HUBBELL INC. WIEGMANN\H1.5633x; \H0.63966x;\PALL INFORMATION IS PROPRIETARY AND NOT
  1
 TO BE DUPLICATED\H1.234x; \H0.81039x;\P\H1.2571x; }
  7
Note Text (ANSI)
 73
     1
 44
0.8026435375213623
  0
ENDSEC
  0
SECTION
  2
OBJECTS
  0
DICTIONARY
  5
C
330
0
100
AcDbDictionary
281
     1
  3
ACAD_CIP_PREVIOUS_PRODUCT_INFO
350
E76
  3
ACAD_COLOR
350
63
  3
ACAD_GROUP
350
D
  3
ACAD_LAYOUT
350
62
  3
ACAD_MATERIAL
350
10
  3
ACAD_MLEADERSTYLE
350
66
  3
ACAD_MLINESTYLE
350
5F
  3
ACAD_PLOTSETTINGS
350
61
  3
ACAD_PLOTSTYLENAME
350
E
  3
ACAD_SCALELIST
350
42
  3
ACAD_TABLESTYLE
350
64
  3
ACAD_VISUALSTYLE
350
29
  3
ACDB_RECOMPOSE_DATA
350
E7D
  3
AcDbVariableDictionary
350
76
  0
DICTIONARY
  5
E7B
330
E74
100
AcDbDictionary
280
     1
281
     1
  3
ACAD_MTEXT_2008_RT
360
E7C
  0
XRECORD
  5
E76
102
{ACAD_REACTORS
330
C
102
}
330
C
100
AcDbXrecord
280
     1
300
INVNTOR
300
2012
300
PDSP_F_S
  0
DICTIONARY
  5
63
102
{ACAD_REACTORS
330
C
102
}
330
C
100
AcDbDictionary
281
     1
  0
DICTIONARY
  5
D
102
{ACAD_REACTORS
330
C
102
}
330
C
100
AcDbDictionary
281
     1
  0
DICTIONARY
  5
62
102
{ACAD_REACTORS
330
C
102
}
330
C
100
AcDbDictionary
281
     1
  3
Layout1
350
6B
  3
Layout2
350
73
  3
Model
350
6F
  0
DICTIONARY
  5
10
102
{ACAD_REACTORS
330
C
102
}
330
C
100
AcDbDictionary
281
     1
  3
ByBlock
350
19
  3
ByLayer
350
11
  3
Global
350
21
  0
DICTIONARY
  5
66
102
{ACAD_REACTORS
330
C
102
}
330
C
100
AcDbDictionary
281
     1
  3
Standard
350
67
  0
DICTIONARY
  5
5F
102
{ACAD_REACTORS
330
C
102
}
330
C
100
AcDbDictionary
281
     1
  3
Standard
350
60
  0
DICTIONARY
  5
61
102
{ACAD_REACTORS
330
C
102
}
330
C
100
AcDbDictionary
281
     1
  0
ACDBDICTIONARYWDFLT
  5
E
102
{ACAD_REACTORS
330
C
102
}
330
C
100
AcDbDictionary
281
     1
  3
Normal
350
F
100
AcDbDictionaryWithDefault
340
F
  0
DICTIONARY
  5
42
102
{ACAD_REACTORS
330
C
102
}
330
C
100
AcDbDictionary
281
     1
  3
A0
350
43
  3
A1
350
44
  3
A2
350
45
  3
A3
350
46
  3
A4
350
47
  3
A5
350
48
  3
A6
350
49
  3
A7
350
4A
  3
A8
350
4B
  3
A9
350
4C
  3
B0
350
4D
  3
B1
350
4E
  3
B2
350
4F
  3
B3
350
50
  3
B4
350
51
  3
B5
350
52
  3
B6
350
53
  0
DICTIONARY
  5
64
102
{ACAD_REACTORS
330
C
102
}
330
C
100
AcDbDictionary
281
     1
  3
Standard
350
65
  0
DICTIONARY
  5
29
102
{ACAD_REACTORS
330
C
102
}
330
C
100
AcDbDictionary
281
     1
  3
2dWireframe
350
2F
  3
Basic
350
2E
  3
Brighten
350
35
  3
ColorChange
350
39
  3
Conceptual
350
32
  3
Dim
350
34
  3
EdgeColorOff
350
41
  3
Facepattern
350
38
  3
Flat
350
2A
  3
FlatWithEdges
350
2B
  3
Gouraud
350
2C
  3
GouraudWithEdges
350
2D
  3
Hidden
350
31
  3
JitterOff
350
3F
  3
Linepattern
350
37
  3
OverhangOff
350
40
  3
Realistic
350
33
  3
Shaded
350
3E
  3
Shaded with edges
350
3D
  3
Shades of Gray
350
3A
  3
Sketchy
350
3B
  3
Thicken
350
36
  3
Wireframe
350
30
  3
X-Ray
350
3C
  0
XRECORD
  5
E7D
102
{ACAD_REACTORS
330
C
102
}
330
C
100
AcDbXrecord
280
     1
 90
        1
330
65
330
E74
  0
DICTIONARY
  5
76
102
{ACAD_REACTORS
330
C
102
}
330
C
100
AcDbDictionary
281
     1
  3
CANNOSCALE
350
79
  3
CMLEADERSTYLE
350
78
  3
CTABLESTYLE
350
77
  0
XRECORD
  5
E7C
102
{ACAD_REACTORS
330
E7B
102
}
330
E7B
100
AcDbXrecord
280
     1
 40
3088531.0
  1
\pxsm0.94;{\fRomanS|b0|i0;\H2.0000;PART#: WA72P60F2\P(DATA SUBJECT TO CHANGE WITHOUT NOTICE)\P \P\fRomanS|b0|i0;\H1.2000;THIS DRAWING IS PROPERTY OF HUBBELL INC. WIEGMANN\PALL INFORMATION IS PROPRIETARY AND NOT TO BE DUPLICATED\P}
  0
LAYOUT
  5
6B
102
{ACAD_REACTORS
330
62
102
}
330
62
100
AcDbPlotSettings
  1

  2

  4

  6

 40
0.0
 41
0.0
 42
0.0
 43
0.0
 44
0.0
 45
0.0
 46
0.0
 47
0.0
 48
0.0
 49
0.0
140
0.0
141
0.0
142
1.0
143
1.0
 70
   688
 72
     0
 73
     0
 74
     5
  7

 75
    16
147
1.0
 76
     0
 77
     2
 78
   300
148
0.0
149
0.0
100
AcDbLayout
  1
Layout1
 70
     1
 71
     1
 10
0.0
 20
0.0
 11
12.0
 21
9.0
 12
0.0
 22
0.0
 32
0.0
 14
0.0
 24
0.0
 34
0.0
 15
0.0
 25
0.0
 35
0.0
146
0.0
 13
0.0
 23
0.0
 33
0.0
 16
1.0
 26
0.0
 36
0.0
 17
0.0
 27
1.0
 37
0.0
 76
     0
330
68
  0
LAYOUT
  5
73
102
{ACAD_REACTORS
330
62
102
}
330
62
100
AcDbPlotSettings
  1

  2

  4

  6

 40
0.0
 41
0.0
 42
0.0
 43
0.0
 44
0.0
 45
0.0
 46
0.0
 47
0.0
 48
0.0
 49
0.0
140
0.0
141
0.0
142
1.0
143
1.0
 70
   688
 72
     0
 73
     0
 74
     5
  7

 75
    16
147
1.0
 76
     0
 77
     2
 78
   300
148
0.0
149
0.0
100
AcDbLayout
  1
Layout2
 70
     1
 71
     2
 10
0.0
 20
0.0
 11
12.0
 21
9.0
 12
0.0
 22
0.0
 32
0.0
 14
0.0
 24
0.0
 34
0.0
 15
0.0
 25
0.0
 35
0.0
146
0.0
 13
0.0
 23
0.0
 33
0.0
 16
1.0
 26
0.0
 36
0.0
 17
0.0
 27
1.0
 37
0.0
 76
     0
330
70
  0
LAYOUT
  5
6F
102
{ACAD_REACTORS
330
62
102
}
330
62
100
AcDbPlotSettings
  1

  2

  4

  6

 40
0.0
 41
0.0
 42
0.0
 43
0.0
 44
0.0
 45
0.0
 46
0.0
 47
0.0
 48
0.0
 49
0.0
140
0.0
141
0.0
142
1.0
143
1.0
 70
  1712
 72
     0
 73
     0
 74
     0
  7

 75
     0
147
1.0
 76
     0
 77
     2
 78
   300
148
0.0
149
0.0
100
AcDbLayout
  1
Model
 70
     1
 71
     0
 10
0.0
 20
0.0
 11
12.0
 21
9.0
 12
0.0
 22
0.0
 32
0.0
 14
0.0
 24
0.0
 34
0.0
 15
0.0
 25
0.0
 35
0.0
146
0.0
 13
0.0
 23
0.0
 33
0.0
 16
1.0
 26
0.0
 36
0.0
 17
0.0
 27
1.0
 37
0.0
 76
     0
330
6C
  0
MATERIAL
  5
19
102
{ACAD_XDICTIONARY
360
1A
102
}
102
{ACAD_REACTORS
330
10
102
}
330
10
100
AcDbMaterial
  1
ByBlock
 72
     0
 43
0.0208333333333333
 43
0.0
 43
0.0
 43
0.0
 43
0.0
 43
0.0208333333333333
 43
0.0
 43
0.0
 43
0.0
 43
0.0
 43
1.0
 43
0.0
 43
0.0
 43
0.0
 43
0.0
 43
1.0
 77
     0
 47
0.0208333333333333
 47
0.0
 47
0.0
 47
0.0
 47
0.0
 47
0.0208333333333333
 47
0.0
 47
0.0
 47
0.0
 47
0.0
 47
1.0
 47
0.0
 47
0.0
 47
0.0
 47
0.0
 47
1.0
171
     0
 49
0.0208333333333333
 49
0.0
 49
0.0
 49
0.0
 49
0.0
 49
0.0208333333333333
 49
0.0
 49
0.0
 49
0.0
 49
0.0
 49
1.0
 49
0.0
 49
0.0
 49
0.0
 49
0.0
 49
1.0
175
     0
142
0.0208333333333333
142
0.0
142
0.0
142
0.0
142
0.0
142
0.0208333333333333
142
0.0
142
0.0
142
0.0
142
0.0
142
1.0
142
0.0
142
0.0
142
0.0
142
0.0
142
1.0
179
     0
144
0.0208333333333333
144
0.0
144
0.0
144
0.0
144
0.0
144
0.0208333333333333
144
0.0
144
0.0
144
0.0
144
0.0
144
1.0
144
0.0
144
0.0
144
0.0
144
0.0
144
1.0
147
0.0208333333333333
147
0.0
147
0.0
147
0.0
147
0.0
147
0.0208333333333333
147
0.0
147
0.0
147
0.0
147
0.0
147
1.0
147
0.0
147
0.0
147
0.0
147
0.0
147
1.0
  0
MATERIAL
  5
11
102
{ACAD_XDICTIONARY
360
12
102
}
102
{ACAD_REACTORS
330
10
102
}
330
10
100
AcDbMaterial
  1
ByLayer
 72
     0
 43
0.0208333333333333
 43
0.0
 43
0.0
 43
0.0
 43
0.0
 43
0.0208333333333333
 43
0.0
 43
0.0
 43
0.0
 43
0.0
 43
1.0
 43
0.0
 43
0.0
 43
0.0
 43
0.0
 43
1.0
 77
     0
 47
0.0208333333333333
 47
0.0
 47
0.0
 47
0.0
 47
0.0
 47
0.0208333333333333
 47
0.0
 47
0.0
 47
0.0
 47
0.0
 47
1.0
 47
0.0
 47
0.0
 47
0.0
 47
0.0
 47
1.0
171
     0
 49
0.0208333333333333
 49
0.0
 49
0.0
 49
0.0
 49
0.0
 49
0.0208333333333333
 49
0.0
 49
0.0
 49
0.0
 49
0.0
 49
1.0
 49
0.0
 49
0.0
 49
0.0
 49
0.0
 49
1.0
175
     0
142
0.0208333333333333
142
0.0
142
0.0
142
0.0
142
0.0
142
0.0208333333333333
142
0.0
142
0.0
142
0.0
142
0.0
142
1.0
142
0.0
142
0.0
142
0.0
142
0.0
142
1.0
179
     0
144
0.0208333333333333
144
0.0
144
0.0
144
0.0
144
0.0
144
0.0208333333333333
144
0.0
144
0.0
144
0.0
144
0.0
144
1.0
144
0.0
144
0.0
144
0.0
144
0.0
144
1.0
147
0.0208333333333333
147
0.0
147
0.0
147
0.0
147
0.0
147
0.0208333333333333
147
0.0
147
0.0
147
0.0
147
0.0
147
1.0
147
0.0
147
0.0
147
0.0
147
0.0
147
1.0
  0
MATERIAL
  5
21
102
{ACAD_XDICTIONARY
360
22
102
}
102
{ACAD_REACTORS
330
10
102
}
330
10
100
AcDbMaterial
  1
Global
 72
     0
 43
0.0208333333333333
 43
0.0
 43
0.0
 43
0.0
 43
0.0
 43
0.0208333333333333
 43
0.0
 43
0.0
 43
0.0
 43
0.0
 43
1.0
 43
0.0
 43
0.0
 43
0.0
 43
0.0
 43
1.0
 77
     0
 47
0.0208333333333333
 47
0.0
 47
0.0
 47
0.0
 47
0.0
 47
0.0208333333333333
 47
0.0
 47
0.0
 47
0.0
 47
0.0
 47
1.0
 47
0.0
 47
0.0
 47
0.0
 47
0.0
 47
1.0
171
     0
 49
0.0208333333333333
 49
0.0
 49
0.0
 49
0.0
 49
0.0
 49
0.0208333333333333
 49
0.0
 49
0.0
 49
0.0
 49
0.0
 49
1.0
 49
0.0
 49
0.0
 49
0.0
 49
0.0
 49
1.0
175
     0
142
0.0208333333333333
142
0.0
142
0.0
142
0.0
142
0.0
142
0.0208333333333333
142
0.0
142
0.0
142
0.0
142
0.0
142
1.0
142
0.0
142
0.0
142
0.0
142
0.0
142
1.0
179
     0
144
0.0208333333333333
144
0.0
144
0.0
144
0.0
144
0.0
144
0.0208333333333333
144
0.0
144
0.0
144
0.0
144
0.0
144
1.0
144
0.0
144
0.0
144
0.0
144
0.0
144
1.0
147
0.0208333333333333
147
0.0
147
0.0
147
0.0
147
0.0
147
0.0208333333333333
147
0.0
147
0.0
147
0.0
147
0.0
147
1.0
147
0.0
147
0.0
147
0.0
147
0.0
147
1.0
  0
MLEADERSTYLE
  5
67
102
{ACAD_XDICTIONARY
360
E79
102
}
102
{ACAD_REACTORS
330
66
102
}
330
66
100
AcDbMLeaderStyle
179
     2
170
     2
171
     1
172
     0
 90
        2
 40
0.0
 41
0.0
173
     1
 91
-1056964608
340
5B
 92
       -2
290
     1
 42
0.09
291
     1
 43
0.36
  3
Standard
 44
0.18
300

342
55
174
     1
178
     6
175
     1
176
     0
 93
-1056964608
 45
0.18
292
     0
297
     0
 46
0.18
 94
-1056964608
 47
1.0
 49
1.0
140
1.0
293
     1
141
0.0
294
     1
177
     0
142
1.0
295
     0
296
     0
143
0.125
271
     0
272
     9
273
     9
  0
MLINESTYLE
  5
60
102
{ACAD_REACTORS
330
5F
102
}
330
5F
100
AcDbMlineStyle
  2
STANDARD
 70
     0
  3

 62
   256
 51
90.0
 52
90.0
 71
     2
 49
0.5
 62
   256
  6
BYLAYER
 49
-0.5
 62
   256
  6
BYLAYER
  0
ACDBPLACEHOLDER
  5
F
102
{ACAD_REACTORS
330
E
102
}
330
E
  0
SCALE
  5
43
102
{ACAD_REACTORS
330
42
102
}
330
42
100
AcDbScale
 70
     0
300
1:1
140
1.0
141
1.0
290
     1
  0
SCALE
  5
44
102
{ACAD_REACTORS
330
42
102
}
330
42
100
AcDbScale
 70
     0
300
1/128" = 1'-0"
140
0.0078125
141
12.0
290
     0
  0
SCALE
  5
45
102
{ACAD_REACTORS
330
42
102
}
330
42
100
AcDbScale
 70
     0
300
1/64" = 1'-0"
140
0.015625
141
12.0
290
     0
  0
SCALE
  5
46
102
{ACAD_REACTORS
330
42
102
}
330
42
100
AcDbScale
 70
     0
300
1/32" = 1'-0"
140
0.03125
141
12.0
290
     0
  0
SCALE
  5
47
102
{ACAD_REACTORS
330
42
102
}
330
42
100
AcDbScale
 70
     0
300
1/16" = 1'-0"
140
0.0625
141
12.0
290
     0
  0
SCALE
  5
48
102
{ACAD_REACTORS
330
42
102
}
330
42
100
AcDbScale
 70
     0
300
3/32" = 1'-0"
140
0.09375
141
12.0
290
     0
  0
SCALE
  5
49
102
{ACAD_REACTORS
330
42
102
}
330
42
100
AcDbScale
 70
     0
300
1/8" = 1'-0"
140
0.125
141
12.0
290
     0
  0
SCALE
  5
4A
102
{ACAD_REACTORS
330
42
102
}
330
42
100
AcDbScale
 70
     0
300
3/16" = 1'-0"
140
0.1875
141
12.0
290
     0
  0
SCALE
  5
4B
102
{ACAD_REACTORS
330
42
102
}
330
42
100
AcDbScale
 70
     0
300
1/4" = 1'-0"
140
0.25
141
12.0
290
     0
  0
SCALE
  5
4C
102
{ACAD_REACTORS
330
42
102
}
330
42
100
AcDbScale
 70
     0
300
3/8" = 1'-0"
140
0.375
141
12.0
290
     0
  0
SCALE
  5
4D
102
{ACAD_REACTORS
330
42
102
}
330
42
100
AcDbScale
 70
     0
300
1/2" = 1'-0"
140
0.5
141
12.0
290
     0
  0
SCALE
  5
4E
102
{ACAD_REACTORS
330
42
102
}
330
42
100
AcDbScale
 70
     0
300
3/4" = 1'-0"
140
0.75
141
12.0
290
     0
  0
SCALE
  5
4F
102
{ACAD_REACTORS
330
42
102
}
330
42
100
AcDbScale
 70
     0
300
1" = 1'-0"
140
1.0
141
12.0
290
     0
  0
SCALE
  5
50
102
{ACAD_REACTORS
330
42
102
}
330
42
100
AcDbScale
 70
     0
300
1-1/2" = 1'-0"
140
1.5
141
12.0
290
     0
  0
SCALE
  5
51
102
{ACAD_REACTORS
330
42
102
}
330
42
100
AcDbScale
 70
     0
300
3" = 1'-0"
140
3.0
141
12.0
290
     0
  0
SCALE
  5
52
102
{ACAD_REACTORS
330
42
102
}
330
42
100
AcDbScale
 70
     0
300
6" = 1'-0"
140
6.0
141
12.0
290
     0
  0
SCALE
  5
53
102
{ACAD_REACTORS
330
42
102
}
330
42
100
AcDbScale
 70
     0
300
1'-0" = 1'-0"
140
12.0
141
12.0
290
     0
  0
TABLESTYLE
  5
65
102
{ACAD_XDICTIONARY
360
E77
102
}
102
{ACAD_REACTORS
330
64
102
}
330
64
100
AcDbTableStyle
280
     0
  3
Standard
 70
     0
 71
     0
 40
0.06
 41
0.06
280
     0
281
     0
  7
Standard
140
0.18
170
     2
 62
     0
 63
     7
283
     0
 90
      512
 91
        0
  1

274
    -2
284
     1
 64
     0
275
    -2
285
     1
 65
     0
276
    -2
286
     1
 66
     0
277
    -2
287
     1
 67
     0
278
    -2
288
     1
 68
     0
279
    -2
289
     1
 69
     0
  7
Standard
140
0.25
170
     5
 62
     0
 63
     7
283
     0
 90
      512
 91
        0
  1

274
    -2
284
     1
 64
     0
275
    -2
285
     1
 65
     0
276
    -2
286
     1
 66
     0
277
    -2
287
     1
 67
     0
278
    -2
288
     1
 68
     0
279
    -2
289
     1
 69
     0
  7
Standard
140
0.18
170
     5
 62
     0
 63
     7
283
     0
 90
      512
 91
        0
  1

274
    -2
284
     1
 64
     0
275
    -2
285
     1
 65
     0
276
    -2
286
     1
 66
     0
277
    -2
287
     1
 67
     0
278
    -2
288
     1
 68
     0
279
    -2
289
     1
 69
     0
  0
VISUALSTYLE
  5
2F
102
{ACAD_REACTORS
330
29
102
}
330
29
100
AcDbVisualStyle
  2
2dWireframe
 70
     4
177
     2
291
     0
 71
     0
176
     1
 72
     2
176
     1
 73
     0
176
     1
 90
        0
176
     1
 40
0.6
176
     1
 41
30.0
176
     1
 63
     7
421
 16777215
176
     1
 74
     1
176
     1
 91
        4
176
     1
 64
     7
176
     1
 65
   257
176
     1
 75
     1
176
     1
175
     1
176
     1
 42
1.0
176
     1
 92
        0
176
     1
 66
   257
176
     1
 43
1.0
176
     1
 76
     1
176
     1
 77
     6
176
     1
 78
     2
176
     1
 67
     7
176
     1
 79
     5
176
     1
170
     0
176
     1
171
     0
176
     1
290
     0
176
     1
 93
        1
176
     1
 44
0.0
176
     1
173
     0
176
     1
  0
VISUALSTYLE
  5
2E
102
{ACAD_REACTORS
330
29
102
}
330
29
100
AcDbVisualStyle
  2
Basic
 70
     7
177
     2
291
     1
 71
     1
176
     1
 72
     0
176
     1
 73
     1
176
     1
 90
        0
176
     1
 40
0.6
176
     1
 41
30.0
176
     1
 63
     7
421
 16777215
176
     1
 74
     0
176
     1
 91
        4
176
     1
 64
     7
176
     1
 65
   257
176
     1
 75
     1
176
     1
175
     1
176
     1
 42
1.0
176
     1
 92
        8
176
     1
 66
     7
176
     1
 43
1.0
176
     1
 76
     1
176
     1
 77
     6
176
     1
 78
     2
176
     1
 67
     7
176
     1
 79
     5
176
     1
170
     0
176
     1
171
     0
176
     1
290
     0
176
     1
 93
        1
176
     1
 44
0.0
176
     1
173
     0
176
     1
  0
VISUALSTYLE
  5
35
102
{ACAD_REACTORS
330
29
102
}
330
29
100
AcDbVisualStyle
  2
Brighten
 70
    12
177
     2
291
     1
 71
     2
176
     1
 72
     2
176
     1
 73
     0
176
     1
 90
        0
176
     1
 40
0.6
176
     1
 41
30.0
176
     1
 63
     7
421
 16777215
176
     1
 74
     1
176
     1
 91
        4
176
     1
 64
     7
176
     1
 65
   257
176
     1
 75
     1
176
     1
175
     1
176
     1
 42
1.0
176
     1
 92
        8
176
     1
 66
     7
176
     1
 43
1.0
176
     1
 76
     1
176
     1
 77
     6
176
     1
 78
     2
176
     1
 67
     7
176
     1
 79
     5
176
     1
170
     0
176
     1
171
     0
176
     1
290
     0
176
     1
 93
        1
176
     1
 44
50.0
176
     1
173
     0
176
     1
  0
VISUALSTYLE
  5
39
102
{ACAD_REACTORS
330
29
102
}
330
29
100
AcDbVisualStyle
  2
ColorChange
 70
    16
177
     2
291
     1
 71
     2
176
     1
 72
     2
176
     1
 73
     3
176
     1
 90
        0
176
     1
 40
0.6
176
     1
 41
30.0
176
     1
 63
     8
421
  8421504
176
     1
 74
     1
176
     1
 91
        4
176
     1
 64
     7
176
     1
 65
   257
176
     1
 75
     1
176
     1
175
     1
176
     1
 42
1.0
176
     1
 92
        8
176
     1
 66
     8
424
  8421504
176
     1
 43
1.0
176
     1
 76
     1
176
     1
 77
     6
176
     1
 78
     2
176
     1
 67
     7
176
     1
 79
     5
176
     1
170
     0
176
     1
171
     0
176
     1
290
     0
176
     1
 93
        1
176
     1
 44
0.0
176
     1
173
     0
176
     1
  0
VISUALSTYLE
  5
32
102
{ACAD_REACTORS
330
29
102
}
330
29
100
AcDbVisualStyle
  2
Conceptual
 70
     9
177
     2
291
     0
 71
     3
176
     1
 72
     2
176
     1
 73
     0
176
     1
 90
        0
176
     1
 40
0.6
176
     1
 41
30.0
176
     1
 63
     7
421
 16777215
176
     1
 74
     2
176
     1
 91
        2
176
     1
 64
     7
176
     1
 65
   257
176
     1
 75
     1
176
     1
175
     1
176
     1
 42
179.0
176
     1
 92
        8
176
     1
 66
     7
176
     1
 43
1.0
176
     1
 76
     1
176
     1
 77
     6
176
     1
 78
     2
176
     1
 67
     7
176
     1
 79
     3
176
     1
170
     0
176
     1
171
     0
176
     1
290
     0
176
     1
 93
        1
176
     1
 44
0.0
176
     1
173
     0
176
     1
  0
VISUALSTYLE
  5
34
102
{ACAD_REACTORS
330
29
102
}
330
29
100
AcDbVisualStyle
  2
Dim
 70
    11
177
     2
291
     1
 71
     2
176
     1
 72
     2
176
     1
 73
     0
176
     1
 90
        0
176
     1
 40
0.6
176
     1
 41
30.0
176
     1
 63
     7
421
 16777215
176
     1
 74
     1
176
     1
 91
        4
176
     1
 64
     7
176
     1
 65
   257
176
     1
 75
     1
176
     1
175
     1
176
     1
 42
1.0
176
     1
 92
        8
176
     1
 66
     7
176
     1
 43
1.0
176
     1
 76
     1
176
     1
 77
     6
176
     1
 78
     2
176
     1
 67
     7
176
     1
 79
     5
176
     1
170
     0
176
     1
171
     0
176
     1
290
     0
176
     1
 93
        1
176
     1
 44
-50.0
176
     1
173
     0
176
     1
  0
VISUALSTYLE
  5
41
102
{ACAD_REACTORS
330
29
102
}
330
29
100
AcDbVisualStyle
  2
EdgeColorOff
 70
    22
177
     2
291
     1
 71
     2
176
     0
 72
     2
176
     0
 73
     0
176
     0
 90
        0
176
     0
 40
0.6
176
     0
 41
30.0
176
     0
 63
     7
421
 16777215
176
     0
 74
     1
176
     0
 91
        4
176
     0
 64
     7
176
     0
 65
   257
176
     0
 75
     1
176
     0
175
     1
176
     0
 42
1.0
176
     0
 92
        8
176
     2
 66
     7
176
     0
 43
1.0
176
     0
 76
     1
176
     0
 77
     6
176
     0
 78
     2
176
     0
 67
     7
176
     0
 79
     5
176
     0
170
     0
176
     0
171
     0
176
     0
290
     0
176
     0
 93
        1
176
     0
 44
0.0
176
     0
173
     0
176
     0
  0
VISUALSTYLE
  5
38
102
{ACAD_REACTORS
330
29
102
}
330
29
100
AcDbVisualStyle
  2
Facepattern
 70
    15
177
     2
291
     1
 71
     2
176
     1
 72
     2
176
     1
 73
     0
176
     1
 90
        0
176
     1
 40
0.6
176
     1
 41
30.0
176
     1
 63
     7
421
 16777215
176
     1
 74
     1
176
     1
 91
        4
176
     1
 64
     7
176
     1
 65
   257
176
     1
 75
     1
176
     1
175
     1
176
     1
 42
1.0
176
     1
 92
        8
176
     1
 66
     7
176
     1
 43
1.0
176
     1
 76
     1
176
     1
 77
     6
176
     1
 78
     2
176
     1
 67
     7
176
     1
 79
     5
176
     1
170
     0
176
     1
171
     0
176
     1
290
     0
176
     1
 93
        1
176
     1
 44
0.0
176
     1
173
     0
176
     1
  0
VISUALSTYLE
  5
2A
102
{ACAD_REACTORS
330
29
102
}
330
29
100
AcDbVisualStyle
  2
Flat
 70
     0
177
     2
291
     1
 71
     2
176
     1
 72
     1
176
     1
 73
     1
176
     1
 90
        2
176
     1
 40
0.6
176
     1
 41
30.0
176
     1
 63
     7
421
 16777215
176
     1
 74
     0
176
     1
 91
        0
176
     1
 64
     7
176
     1
 65
   257
176
     1
 75
     1
176
     1
175
     1
176
     1
 42
1.0
176
     1
 92
        8
176
     1
 66
     7
176
     1
 43
1.0
176
     1
 76
     1
176
     1
 77
     6
176
     1
 78
     2
176
     1
 67
     7
176
     1
 79
     5
176
     1
170
     0
176
     1
171
     0
176
     1
290
     0
176
     1
 93
       13
176
     1
 44
0.0
176
     1
173
     0
176
     1
  0
VISUALSTYLE
  5
2B
102
{ACAD_REACTORS
330
29
102
}
330
29
100
AcDbVisualStyle
  2
FlatWithEdges
 70
     1
177
     2
291
     1
 71
     2
176
     1
 72
     1
176
     1
 73
     1
176
     1
 90
        2
176
     1
 40
0.6
176
     1
 41
30.0
176
     1
 63
     7
421
 16777215
176
     1
 74
     1
176
     1
 91
        0
176
     1
 64
     7
176
     1
 65
   257
176
     1
 75
     1
176
     1
175
     1
176
     1
 42
1.0
176
     1
 92
        0
176
     1
 66
   257
176
     1
 43
1.0
176
     1
 76
     1
176
     1
 77
     6
176
     1
 78
     2
176
     1
 67
     7
176
     1
 79
     5
176
     1
170
     0
176
     1
171
     0
176
     1
290
     0
176
     1
 93
       13
176
     1
 44
0.0
176
     1
173
     0
176
     1
  0
VISUALSTYLE
  5
2C
102
{ACAD_REACTORS
330
29
102
}
330
29
100
AcDbVisualStyle
  2
Gouraud
 70
     2
177
     2
291
     1
 71
     2
176
     1
 72
     2
176
     1
 73
     1
176
     1
 90
        2
176
     1
 40
0.6
176
     1
 41
30.0
176
     1
 63
     7
421
 16777215
176
     1
 74
     0
176
     1
 91
        0
176
     1
 64
     7
176
     1
 65
   257
176
     1
 75
     1
176
     1
175
     1
176
     1
 42
1.0
176
     1
 92
        0
176
     1
 66
     7
176
     1
 43
1.0
176
     1
 76
     1
176
     1
 77
     6
176
     1
 78
     2
176
     1
 67
     7
176
     1
 79
     5
176
     1
170
     0
176
     1
171
     0
176
     1
290
     0
176
     1
 93
       13
176
     1
 44
0.0
176
     1
173
     0
176
     1
  0
VISUALSTYLE
  5
2D
102
{ACAD_REACTORS
330
29
102
}
330
29
100
AcDbVisualStyle
  2
GouraudWithEdges
 70
     3
177
     2
291
     1
 71
     2
176
     1
 72
     2
176
     1
 73
     1
176
     1
 90
        2
176
     1
 40
0.6
176
     1
 41
30.0
176
     1
 63
     7
421
 16777215
176
     1
 74
     1
176
     1
 91
        0
176
     1
 64
     7
176
     1
 65
   257
176
     1
 75
     1
176
     1
175
     1
176
     1
 42
1.0
176
     1
 92
        0
176
     1
 66
   257
176
     1
 43
1.0
176
     1
 76
     1
176
     1
 77
     6
176
     1
 78
     2
176
     1
 67
     7
176
     1
 79
     5
176
     1
170
     0
176
     1
171
     0
176
     1
290
     0
176
     1
 93
       13
176
     1
 44
0.0
176
     1
173
     0
176
     1
  0
VISUALSTYLE
  5
31
102
{ACAD_REACTORS
330
29
102
}
330
29
100
AcDbVisualStyle
  2
Hidden
 70
     6
177
     2
291
     0
 71
     1
176
     1
 72
     2
176
     1
 73
     2
176
     1
 90
        0
176
     1
 40
0.6
176
     1
 41
30.0
176
     1
 63
     7
421
 16777215
176
     1
 74
     2
176
     1
 91
        2
176
     1
 64
     7
176
     1
 65
   257
176
     1
 75
     2
176
     1
175
     1
176
     1
 42
40.0
176
     1
 92
        0
176
     1
 66
   257
176
     1
 43
1.0
176
     1
 76
     1
176
     1
 77
     6
176
     1
 78
     2
176
     1
 67
     7
176
     1
 79
     3
176
     1
170
     0
176
     1
171
     0
176
     1
290
     0
176
     1
 93
        1
176
     1
 44
0.0
176
     1
173
     0
176
     1
  0
VISUALSTYLE
  5
3F
102
{ACAD_REACTORS
330
29
102
}
330
29
100
AcDbVisualStyle
  2
JitterOff
 70
    20
177
     2
291
     1
 71
     2
176
     0
 72
     2
176
     0
 73
     0
176
     0
 90
        0
176
     0
 40
0.6
176
     0
 41
30.0
176
     0
 63
     7
421
 16777215
176
     0
 74
     1
176
     0
 91
        4
176
     0
 64
     7
176
     0
 65
   257
176
     0
 75
     1
176
     0
175
     1
176
     0
 42
1.0
176
     0
 92
       10
176
     2
 66
     7
176
     0
 43
1.0
176
     0
 76
     1
176
     0
 77
     6
176
     0
 78
     2
176
     0
 67
     7
176
     0
 79
     5
176
     0
170
     0
176
     0
171
     0
176
     0
290
     0
176
     0
 93
        1
176
     0
 44
0.0
176
     0
173
     0
176
     0
  0
VISUALSTYLE
  5
37
102
{ACAD_REACTORS
330
29
102
}
330
29
100
AcDbVisualStyle
  2
Linepattern
 70
    14
177
     2
291
     1
 71
     2
176
     1
 72
     2
176
     1
 73
     0
176
     1
 90
        0
176
     1
 40
0.6
176
     1
 41
30.0
176
     1
 63
     7
421
 16777215
176
     1
 74
     1
176
     1
 91
        4
176
     1
 64
     7
176
     1
 65
   257
176
     1
 75
     7
176
     1
175
     7
176
     1
 42
1.0
176
     1
 92
        8
176
     1
 66
     7
176
     1
 43
1.0
176
     1
 76
     1
176
     1
 77
     6
176
     1
 78
     2
176
     1
 67
     7
176
     1
 79
     5
176
     1
170
     0
176
     1
171
     0
176
     1
290
     0
176
     1
 93
        1
176
     1
 44
0.0
176
     1
173
     0
176
     1
  0
VISUALSTYLE
  5
40
102
{ACAD_REACTORS
330
29
102
}
330
29
100
AcDbVisualStyle
  2
OverhangOff
 70
    21
177
     2
291
     1
 71
     2
176
     0
 72
     2
176
     0
 73
     0
176
     0
 90
        0
176
     0
 40
0.6
176
     0
 41
30.0
176
     0
 63
     7
421
 16777215
176
     0
 74
     1
176
     0
 91
        4
176
     0
 64
     7
176
     0
 65
   257
176
     0
 75
     1
176
     0
175
     1
176
     0
 42
1.0
176
     0
 92
        9
176
     2
 66
     7
176
     0
 43
1.0
176
     0
 76
     1
176
     0
 77
     6
176
     0
 78
     2
176
     0
 67
     7
176
     0
 79
     5
176
     0
170
     0
176
     0
171
     0
176
     0
290
     0
176
     0
 93
        1
176
     0
 44
0.0
176
     0
173
     0
176
     0
  0
VISUALSTYLE
  5
33
102
{ACAD_REACTORS
330
29
102
}
330
29
100
AcDbVisualStyle
  2
Realistic
 70
     8
177
     2
291
     0
 71
     2
176
     1
 72
     3
176
     1
 73
     0
176
     1
 90
        2
176
     1
 40
0.6
176
     1
 41
30.0
176
     1
 63
     7
421
 16777215
176
     1
 74
     0
176
     1
 91
        0
176
     1
 64
     7
176
     1
 65
   257
176
     1
 75
     1
176
     1
175
     1
176
     1
 42
1.0
176
     1
 92
        8
176
     1
 66
   257
176
     1
 43
1.0
176
     1
 76
     1
176
     1
 77
     6
176
     1
 78
     2
176
     1
 67
     7
176
     1
 79
     3
176
     1
170
     0
176
     1
171
     0
176
     1
290
     0
176
     1
 93
       13
176
     1
 44
0.0
176
     1
173
     0
176
     1
  0
VISUALSTYLE
  5
3E
102
{ACAD_REACTORS
330
29
102
}
330
29
100
AcDbVisualStyle
  2
Shaded
 70
    27
177
     2
291
     0
 71
     2
176
     1
 72
     2
176
     1
 73
     1
176
     1
 90
        2
176
     1
 40
0.6
176
     1
 41
30.0
176
     1
 63
     7
421
 16777215
176
     1
 74
     0
176
     1
 91
        4
176
     1
 64
     7
176
     1
 65
   257
176
     1
 75
     1
176
     1
175
     1
176
     1
 42
1.0
176
     1
 92
        8
176
     1
 66
   257
176
     1
 43
1.0
176
     1
 76
     1
176
     1
 77
     6
176
     1
 78
     2
176
     1
 67
     8
425
  7895160
176
     1
 79
     3
176
     1
170
     0
176
     1
171
     0
176
     1
290
     0
176
     1
 93
        5
176
     1
 44
0.0
176
     1
173
     0
176
     1
  0
VISUALSTYLE
  5
3D
102
{ACAD_REACTORS
330
29
102
}
330
29
100
AcDbVisualStyle
  2
Shaded with edges
 70
    26
177
     2
291
     0
 71
     2
176
     1
 72
     2
176
     1
 73
     1
176
     1
 90
        2
176
     1
 40
0.6
176
     1
 41
30.0
176
     1
 63
     7
421
 16777215
176
     1
 74
     1
176
     1
 91
       10
176
     1
 64
     7
176
     1
 65
   257
176
     1
 75
     2
176
     1
175
     1
176
     1
 42
1.0
176
     1
 92
        8
176
     1
 66
   257
176
     1
 43
1.0
176
     1
 76
     1
176
     1
 77
     6
176
     1
 78
     2
176
     1
 67
     7
176
     1
 79
     3
176
     1
170
     0
176
     1
171
     0
176
     1
290
     0
176
     1
 93
        5
176
     1
 44
0.0
176
     1
173
     0
176
     1
  0
VISUALSTYLE
  5
3A
102
{ACAD_REACTORS
330
29
102
}
330
29
100
AcDbVisualStyle
  2
Shades of Gray
 70
    23
177
     2
291
     0
 71
     2
176
     1
 72
     2
176
     1
 73
     3
176
     1
 90
        0
176
     1
 40
0.6
176
     1
 41
30.0
176
     1
 63
     7
421
 16777215
176
     1
 74
     2
176
     1
 91
        2
176
     1
 64
     7
176
     1
 65
     7
176
     1
 75
     1
176
     1
175
     1
176
     1
 42
40.0
176
     1
 92
        8
176
     1
 66
     7
176
     1
 43
1.0
176
     1
 76
     1
176
     1
 77
     6
176
     1
 78
     2
176
     1
 67
     7
176
     1
 79
     3
176
     1
170
     0
176
     1
171
     0
176
     1
290
     0
176
     1
 93
        1
176
     1
 44
0.0
176
     1
173
     0
176
     1
  0
VISUALSTYLE
  5
3B
102
{ACAD_REACTORS
330
29
102
}
330
29
100
AcDbVisualStyle
  2
Sketchy
 70
    24
177
     2
291
     0
 71
     1
176
     1
 72
     2
176
     1
 73
     2
176
     1
 90
        0
176
     1
 40
0.6
176
     1
 41
30.0
176
     1
 63
     7
421
 16777215
176
     1
 74
     2
176
     1
 91
        2
176
     1
 64
     7
176
     1
 65
     7
176
     1
 75
     1
176
     1
175
     1
176
     1
 42
40.0
176
     1
 92
       11
176
     1
 66
     7
176
     1
 43
1.0
176
     1
 76
     1
176
     1
 77
     6
176
     1
 78
     2
176
     1
 67
     7
176
     1
 79
     6
176
     1
170
     0
176
     1
171
     0
176
     1
290
     0
176
     1
 93
        1
176
     1
 44
0.0
176
     1
173
     0
176
     1
  0
VISUALSTYLE
  5
36
102
{ACAD_REACTORS
330
29
102
}
330
29
100
AcDbVisualStyle
  2
Thicken
 70
    13
177
     2
291
     1
 71
     2
176
     1
 72
     2
176
     1
 73
     0
176
     1
 90
        0
176
     1
 40
0.6
176
     1
 41
30.0
176
     1
 63
     7
421
 16777215
176
     1
 74
     1
176
     1
 91
        4
176
     1
 64
     7
176
     1
 65
   257
176
     1
 75
     1
176
     1
175
     1
176
     1
 42
1.0
176
     1
 92
       12
176
     1
 66
     7
176
     1
 43
1.0
176
     1
 76
     1
176
     1
 77
     6
176
     1
 78
     2
176
     1
 67
     7
176
     1
 79
     5
176
     1
170
     0
176
     1
171
     0
176
     1
290
     0
176
     1
 93
        1
176
     1
 44
0.0
176
     1
173
     0
176
     1
  0
VISUALSTYLE
  5
30
102
{ACAD_REACTORS
330
29
102
}
330
29
100
AcDbVisualStyle
  2
Wireframe
 70
     5
177
     2
291
     0
 71
     0
176
     1
 72
     2
176
     1
 73
     0
176
     1
 90
        0
176
     1
 40
0.6
176
     1
 41
30.0
176
     1
 63
     7
421
 16777215
176
     1
 74
     1
176
     1
 91
        4
176
     1
 64
     7
176
     1
 65
   257
176
     1
 75
     1
176
     1
175
     1
176
     1
 42
1.0
176
     1
 92
        0
176
     1
 66
   257
176
     1
 43
1.0
176
     1
 76
     1
176
     1
 77
     6
176
     1
 78
     2
176
     1
 67
     7
176
     1
 79
     3
176
     1
170
     0
176
     1
171
     0
176
     1
290
     0
176
     1
 93
        1
176
     1
 44
0.0
176
     1
173
     0
176
     1
  0
VISUALSTYLE
  5
3C
102
{ACAD_REACTORS
330
29
102
}
330
29
100
AcDbVisualStyle
  2
X-Ray
 70
    25
177
     2
291
     0
 71
     2
176
     1
 72
     2
176
     1
 73
     1
176
     1
 90
        1
176
     1
 40
0.5
176
     1
 41
30.0
176
     1
 63
     7
421
 16777215
176
     1
 74
     1
176
     1
 91
        0
176
     1
 64
     7
176
     1
 65
   257
176
     1
 75
     1
176
     1
175
     1
176
     1
 42
1.0
176
     1
 92
        8
176
     1
 66
     7
176
     1
 43
1.0
176
     1
 76
     1
176
     1
 77
     6
176
     1
 78
     2
176
     1
 67
     7
176
     1
 79
     3
176
     1
170
     0
176
     1
171
     0
176
     1
290
     0
176
     1
 93
       13
176
     1
 44
0.0
176
     1
173
     0
176
     1
  0
DICTIONARYVAR
  5
79
102
{ACAD_REACTORS
330
76
102
}
330
76
100
DictionaryVariables
280
     0
  1
1:1
  0
DICTIONARYVAR
  5
78
102
{ACAD_REACTORS
330
76
102
}
330
76
100
DictionaryVariables
280
     0
  1
STANDARD
  0
DICTIONARYVAR
  5
77
102
{ACAD_REACTORS
330
76
102
}
330
76
100
DictionaryVariables
280
     0
  1
STANDARD
  0
DICTIONARY
  5
1A
330
19
100
AcDbDictionary
280
     1
281
     1
  3
BUMPTILE
360
1C
  3
DIFFUSETILE
360
1B
  3
OPACITYTILE
360
1F
  3
REFLECTIONTILE
360
1E
  3
REFRACTIONTILE
360
20
  3
SPECULARTILE
360
1D
  0
DICTIONARY
  5
12
330
11
100
AcDbDictionary
280
     1
281
     1
  3
BUMPTILE
360
14
  3
DIFFUSETILE
360
13
  3
FBXASSET
360
109
  3
OPACITYTILE
360
17
  3
REFLECTIONTILE
360
16
  3
REFRACTIONTILE
360
18
  3
SPECULARTILE
360
15
  0
DICTIONARY
  5
22
330
21
100
AcDbDictionary
280
     1
281
     1
  3
BUMPTILE
360
24
  3
DIFFUSETILE
360
23
  3
FBXASSET
360
BA
  3
OPACITYTILE
360
27
  3
REFLECTIONTILE
360
26
  3
REFRACTIONTILE
360
28
  3
SPECULARTILE
360
25
  0
DICTIONARY
  5
E79
330
67
100
AcDbDictionary
280
     1
281
     1
  3
ACAD_XREC_ROUNDTRIP
360
E7A
  0
DICTIONARY
  5
E77
330
65
100
AcDbDictionary
280
     1
281
     1
  3
ACAD_ROUNDTRIP_2008_TABLESTYLE_CELLSTYLEMAP
360
E78
  0
XRECORD
  5
1C
102
{ACAD_REACTORS
330
1A
102
}
330
1A
100
AcDbXrecord
280
     1
270
     1
271
     1
  0
XRECORD
  5
1B
102
{ACAD_REACTORS
330
1A
102
}
330
1A
100
AcDbXrecord
280
     1
270
     1
271
     1
  0
XRECORD
  5
1F
102
{ACAD_REACTORS
330
1A
102
}
330
1A
100
AcDbXrecord
280
     1
270
     1
271
     1
  0
XRECORD
  5
1E
102
{ACAD_REACTORS
330
1A
102
}
330
1A
100
AcDbXrecord
280
     1
270
     1
271
     1
  0
XRECORD
  5
20
102
{ACAD_REACTORS
330
1A
102
}
330
1A
100
AcDbXrecord
280
     1
270
     1
271
     1
  0
XRECORD
  5
1D
102
{ACAD_REACTORS
330
1A
102
}
330
1A
100
AcDbXrecord
280
     1
270
     1
271
     1
  0
XRECORD
  5
14
102
{ACAD_REACTORS
330
12
102
}
330
12
100
AcDbXrecord
280
     1
270
     1
271
     1
  0
XRECORD
  5
13
102
{ACAD_REACTORS
330
12
102
}
330
12
100
AcDbXrecord
280
     1
270
     1
271
     1
  0
XRECORD
  5
109
102
{ACAD_REACTORS
330
12
102
}
330
12
100
AcDbXrecord
280
     1
 70
     1
 90
1959938040
 71
     1
  1
5291A287-36EE-4D9C-BE52-169209F66EA6
311
504B03040A00000800005C4ECE423DEE336E79000000790000001B0000006175746F6465736B2D64657369676E2D7061636B6167652E786D6C3C3F786D6C2076657273696F6E3D22312E302220656E636F64696E673D227574662D3822203F3E3C666F726D6174733E3C666F726D61743E687474703A2F2F736368656D612E
311
6175746F6465736B2E636F6D2F64657369676E2D7061636B6167652F323030393C2F666F726D61743E3C2F666F726D6174733E504B03041400060808005C4ECE42D486FD9CA0000000F4000000130000005B436F6E74656E745F54797065735D2E786D6C7D8EC10E82300C865F65E91D8A1E8C310C0EEA1BF002731658846E
311
D98AC1B77784ABF1D8FE5FBFBF75BBCE937A534CCEB38643598122B6FEE978D0B0485F9C41B54DDD7D022595594E1A469170414C76A4D9A4D207E29CF43ECE46F218070CC6BECC4078ACAA135ACF422C856C0E68EA1BF5669944DDD7BCDE7B1F8E415D77AECB980613C2E4AC91FC167A2B244592486606FC29C8FD7F045B9A
311
EF7053A7E60B504B03041400060808005C4ECE42CD590C39EB0000007C01000008000000636F72652E786D6C8D505B6EC32010BC0ADADF0A1BFC481C0B13256D73825E00C1C64589C13250F5F8C57948ED5F7F7657B333BBA311FBEFE94ABE7009D6BB0178C180A0D3DE58370E90E2997640F6522CDEC75F34204E4D38C00A
311
8314E3E2D3FC80B477115DCCA8F3061FA00A0123107DCDC300417FE2A40A956266844B312B7D512316FC3965714AD690FB136BF23D7BB6B880E487F7E6D49C3ABAABAA9636FC58D163AEF4ADE1DB76C35FBBFAD08972154B11EDF4FCAF1754110DC88AF19AB20DE5CD07DBF52DEBDBED0B6BFB9A8972A5FF11A5D9FC5394AC
311
8B75F5B07B9785EC351BB92DA428D72C72BB0595FB9A9BFC01504B03041400060808005C4ECE4255019EA25F0000007C00000007000000636E782E786D6C4DCB3B0E80201045D1AD90E915ED2CF8AC45050C11660C8261F98AB1B07AC9C97D42D718D865D3E909258CFD00CCE24AC6E326A164D74DC0B4128928FF32603847
311
2BA13128B1252AC747C6BAB984FC68F0B87FE8960A5C09FE86CFB69FBA01504B03041400060808005C4ECE42BA65382367010000020300000C0000006662782F636F72652E786D6C8D525B6E833010BC8AE5DF0ACC3321917194B4CD097A01C73814056CE407CAF1BB3CA23455145548C69AD9D99D1DA0BB6BD7A2411ADB68
311
55E2388C30924AE8AA517589BD3B0705463B468DD6EE5719468A77B2C4238C19AD8DF6FD0209AD9C540E50A52BB980DC5AE930122D5C4A6CC5B7EC78C8BD830A7B097B2E2EBC96611C020D758C5A67C0009A878C2766E7D395921967D4FBA65AD8A68269CDB99106B378FF991DB363116C92240FB2F890040738838F2C5EE7
311
ABF8BD48F70525A39851D7743777C248EE64855912C56910AD8238FB8A36DB3CDAE6EBB728DFA6112563F983C8F7D53F45BE512E4D16BBB3CC82573032117FB685881CB27C003F8451328608AF29E1C7A0211008D9F1537BDBE302D02085D32603A6D2FE4E0DBCF512A646687A289959E83C3580CD9EF6495EF479DD033E20
311
573558E30EAE27EFC6E9749EBA44D14B130CEE8A94361D6FEFE6668BF7F33EE8A95CE8569BFFA8C9B22A59C224E3DFCB7E00504B03041400060808005C4ECE4280476D907E0000009D0000000B0000006662782F636E782E786D6C4DCCD10A83201886E15B91FFDC35636E0ED4D0CAFB886521990EA76397BF1A1DECE88387
311
8F97379FD5A3B74D2F178300723A03B2E11147176601254F98016A244F31E6BF1BA030AC56C0CE20F99C62791E34DA69283E6FEA5D580E34DAD04E3382FB9BBAE20B632D56AAAD31D5F59D6AAA48677AA824AF7EA56DF7B0FC02504B03041400060808005C4ECE421D38F3042E01000014020000310000006662782F464246
311
35444238312D453741362D343838432D414143322D3542323935423541314446452F636F72652E786D6C8D515B6E833010BC0AF257AB0AB0092624328E208F13F402C438A99560233FAA1CBFEB42A4F62F3F5E6B766676B4CB768FF19E7C4BEB94D10D22194689D4C20C4A5F1B14FC25AD51B2E3CC1AE3FFD050A2FB513628
311
C288B3AB35615A2061B497DA03AACD2017B0774E7A94883B7C1AE4C4971CFBAC0F1E18EE964DBDB8F55799910CDAC0E3CC790B019279487C113F75277AE86A921ED76D959675BD4FDB765FA4B42B36B4A32D399C8E2C9F859C85A08645AE0688A32E4ADA574DA29833AFC6677C6165EFE5807881C92AC5554ACA4FBCD952BC
311
A5EB0F4CB72BCCF248FF270AD3F0A22828ED57C512779639C409CBE706678309E7FB338C7C4CC6FA24CE7B7352BC238E338845CB1A5396CF5458007856E5E2E9BCB1B0E0B7DB19D80458D1B82A39CBE38DA0FC1E106ABC27FF01504B03041400060808005C4ECE428E5B30314F01000033030000300000006662782F464246
311
35444238312D453741362D343838432D414143322D3542323935423541314446452F636E782E786D6CD593BD6E032110845F05D146F7179F9DC4E2B094224F90222D076B9B9883133F51FCF6596CECB87191320D3ACD0E33AB4F1CDB7C4F867C810FDAD98176754B0958E994B6BB81A6B8AD9E29D970E69D8B37364AAC9860
311
A059A69CEDBC4B7391146C45321155A3EDA1881E824B5E424039DF24C6496130006C9550846904A54091AB11BFB6E0711514C723897B206FAF1FC48D9F2063604D4EE1ACC91D9CE5B334DD982891468430D020F730895AA4E8148443AD441475575FBAEEECF49B44F2854B65F29AE4F281E693F2B2518D1C598343CE42F448
311
AF98E27106CAC53C1B2D4544C8CDC978F67096B48DABBE783582F7E8EE568BBEC7B0D38CB3A827280EE9414450943FB6DDA26A5755D7BFB72FEB65BB5E3E3DB4CBF5A2654DB673363A67CA258C01EF66229D8D6023E51D6BF2F81EBEE2234A7B64EDFCF10F201140693DD3B966FC673ECDE97D232E8F7F01FF01504B030414
311
00060808005C4ECE422DE9F20CA505000081100000340000006662782F46424635444238312D453741362D343838432D414143322D3542323935423541314446452F6F626A656374732E786D6CAD57D96EDB3814FD1541F332F3E045B6E3C6034585632785D1A62D6AB4980703062D510A27D402924A9DF9FA3914295972ED
311
D433E88B162E97F79E7BEE42FFED3EE5CE331592E5D98DEBF587AE43B3308F5896DCB8A58A7BD7AEF336F0459EABD632D7C9484A6F5C3DEC067E22F2B2B043118D49C9D5D1E8FDED5F8E0C69465D27E444CA1B57868F34257D52AA3CA2F2A91F1145FA49BCEF7B7DB3B02B3611A4783C125A104133054D319E418A6394F2BA
311
BF437710F8033D1FF8FA69578DCFAF1A54F674CF679954240B7F38EC48CCD89B2CEF4657B3DED56432EE4DA623AF777B7FBBEC796FC6C3C574B198CDEF6638582A0149561341633778076C040BFD81990AFC92656A3CB24BAC8306823E33ED293718399E3F306B1AEBAC91A7D40FF32CA3618515D0A8ECB3A2235AD02C82CF
311
1995D0AC85D0B0FBEB691C5BD363FD6F8F6C0F5F86407B474B50AD7BFD6E6B9AEFFE8609F21206094935030D96D650C3D5E101E15D9E733BC7A49312450523DCE16C27887871032CD54B02BF23463359E868D016B801BC60A6BB744118FD9CE7A7B48C4BCE358DDDA08A822D62852A5969C6FEA1E2A07D1B19E8045F69365C
311
5B83D44B41DD606628727DC42603A4137392C0E53053EF1C8F8E0C5DE8385D2DDDE0FDFD6EBFD6B17BFAF042E405154AD307D4AA1D57BF354A5627EF22CFE90DEE912A0750BE00F98F08F5832AF09B60FBC97E624F51826432CE450ADF3843A737C463E878D5537FB7BEFC41B3B9EBBD7378C2D91AAA5F8067D786B62F5B70
311
06FE33089F8BB1356D1D128EB4F1C03200A449E2F01C43C8C3F16EEF062B64396465EC223CF06032D47DC6A73FB0629028AA935AEF0C581EA5C50B123460AB1809350CF9AD82073FFD90CEAA83EDB273F05EFD12BACE97EBF7EB52C424A40F36A69734661953287107DEB415EA60DEB1E889BE7CCF4504437FC47BDDC63BB5
311
4749A0AD31D7C027754ED73F87933B0784D897E43ADDF83F390146E8C2DA92FFC06448392719CDCBFADC57EB07CA86815807BB667253600E8505A43133473188221D0A5668109B6AD524CDFE19EBBEAE3E82916E70FBF281BCB4B3D7EE907BC39CE762BB7BD99AB47412EA6F5D6E5B0C065A0AE85E05491DFF16F46DC4E2B8
311
9448822770FDB65AB47DA7D30252442DD544CB04F623B888B0A4ADE5A25A0B824A9A675B86BA89B83B79405B3E20B50CA8049ED358521E6F19E765BA8D194735DAA6A43803C7FFD77F57A6C596A47999A933B23BAAA33A7475EFB0577E272A7C748375F5EEDD22F746343A43065D4B4E60D571EDD568E6CD47D76F7AE3E9DD
311
5D6FB29C2D7AB77757A39E379D8D86B3FBE9F46E3EADFD643409FCBAD4B4231A5E4269F34BC1ACFBBEAE103F3609B8C1035172F3CE8467FDFEBAEAA317F607D8837AD96C9C47CFE8FB68F4730187952705ADD282D394668AE8187AD01FFC0B419FD151C68CAF5292D00BA47C7AB73E32062317ECFBACE39D7E3FDA6B47173A
311
204F0A518F65BACB08E3471B138364BFC8128B5FED93E66D0A4DFDABFFAC63D099CA9CB308793072129AA754211B5E5084444A25A8D7EEE9237BF7B860F7B3E91015D9715A6BF248D0247389B000B5CA5075C79DDFD0D4E9BEEAC645B9ED3FE1613385EB8033372E9A74C5422AFB3B1468DD0A55C2C1A576278FC69F640947
311
AF6D3635FFCD2E8D4DA724374B2EE99FAC5D26855B0390460AF40D6888E09D4A99C0AF74B3F3E17F32BC56C7210A9FBB5235B61C061A63AA6310A2C6287B5B4013F3648FDE23505F37CBEB576B3A885C74CB7A9504466A4F1191543705AD9F5569BEFC3C4087E2AC3E39052F13F8F272493D4141E652073858045658990551
311
A0EAE2CFCD6791E3269B3AF70C14707EDF5F4FFFD82CF234CD3333B499DBFBB0B37EC4ED36DA2039507D2D919BD1D01B6DAAEB80BDA16C7744D23E89E41306E059C11AA03BEE072FCD9D1175C84C34EB06DA15470C5D2D1D5BD826106AE9D2CEAD1A1C341E19751043FA4AA923A6BDA078F54630A8964205815E3EF817504B
311
03041400060800005C4ECE42000000000000000000000000350000006662782F46424635444238312D453741362D343838432D414143322D3542323935423541314446452F76657274696365732E62696E504B03041400060808005C4ECE42F270F1330600000004000000360000006662782F46424635444238312D453741
311
362D343838432D414143322D3542323935423541314446452F747269616E676C65732E62696E636660600000504B03041400060800005C4ECE42000000000000000000000000370000006662782F46424635444238312D453741362D343838432D414143322D3542323935423541314446452F617474726962757465732E62
311
696E504B03041400060808005C4ECE42D5987DFC8F00000041010000360000006662782F46424635444238312D453741362D343838432D414143322D3542323935423541314446452F6469726563746F72792E786D6C858F410EC2201045AF4266AF15DDB800BA74E7C21B903225242D6328188F2FA5C4183471359997F9FF
311
81E89FF3C41E1816475E02DF1F80A11FC8386F25A438EECEC07A250251FC3803E6F58C12560C4AD840E95E91C151A72936F496F35732D860FE635F62C8F2DA16B505C545B74125BAA2FA9E05D7CC053D063734D5C7665FD55B6B8D15D5E9BFEAFD8490FFA45E504B03041400060808005C4ECE423D389849FD000000A00100
311
003B0000006662782F46424635444238312D453741362D343838432D414143322D3542323935423541314446452F7265736F75726365732F636F72652E786D6C8D50596EC32010BD0AE2B7C2062F716261A2A46D4ED00B2098382831582C558F5F1CBB52FBD79F99D15B344F8F1FBFA607FA041F8CB3036605C508AC72DAD8
311
71C0295EC91EA3A3E0DEB9F84B869195130C7881B1E0A37769DE20E56C041B336A9D860D942140C4483DF231E0A06E30C942A69815E15ECC52DDE508052B329D758287E87300B43E5926161E824B5E41E0E5CA0A9E92D19BC6E8FCD35C0D782CD8E9BDB934978E1CAAAA250D3B57E49C27796B58D7EED8EBBE3EED79B99805
311
8F66FAC9A83CC8081A8B8AB29AD01D61CD073DF42DEDDBEE85B67D4D79B9C8FF98D2ACFF694AC6C6BADAE2AEB690B3E6204F42F072E92BAF6799792FDD8A6F504B010214000A00000800005C4ECE423DEE336E79000000790000001B00000000000000000000000000000000006175746F6465736B2D64657369676E2D7061
311
636B6167652E786D6C504B010214001400060808005C4ECE42D486FD9CA0000000F40000001300000000000000000000000000B20000005B436F6E74656E745F54797065735D2E786D6C504B010214001400060808005C4ECE42CD590C39EB0000007C010000080000000000000000000000000083010000636F72652E786D
311
6C504B010214001400060808005C4ECE4255019EA25F0000007C000000070000000000000000000000000094020000636E782E786D6C504B010214001400060808005C4ECE42BA65382367010000020300000C00000000000000000000000000180300006662782F636F72652E786D6C504B010214001400060808005C4ECE
311
4280476D907E0000009D0000000B00000000000000000000000000A90400006662782F636E782E786D6C504B010214001400060808005C4ECE421D38F3042E010000140200003100000000000000000000000000500500006662782F46424635444238312D453741362D343838432D414143322D3542323935423541314446
311
452F636F72652E786D6C504B010214001400060808005C4ECE428E5B30314F010000330300003000000000000000000000000000CD0600006662782F46424635444238312D453741362D343838432D414143322D3542323935423541314446452F636E782E786D6C504B010214001400060808005C4ECE422DE9F20CA50500
311
008110000034000000000000000000000000006A0800006662782F46424635444238312D453741362D343838432D414143322D3542323935423541314446452F6F626A656374732E786D6C504B010214001400060800005C4ECE420000000000000000000000003500000000000000000000000000610E00006662782F4642
311
4635444238312D453741362D343838432D414143322D3542323935423541314446452F76657274696365732E62696E504B010214001400060808005C4ECE42F270F13306000000040000003600000000000000000000000000B40E00006662782F46424635444238312D453741362D343838432D414143322D354232393542
311
3541314446452F747269616E676C65732E62696E504B010214001400060800005C4ECE4200000000000000000000000037000000000000000000000000000E0F00006662782F46424635444238312D453741362D343838432D414143322D3542323935423541314446452F617474726962757465732E62696E504B01021400
311
1400060808005C4ECE42D5987DFC8F000000410100003600000000000000000000000000630F00006662782F46424635444238312D453741362D343838432D414143322D3542323935423541314446452F6469726563746F72792E786D6C504B010214001400060808005C4ECE423D389849FD000000A00100003B00000000
311
000000000000000000461000006662782F46424635444238312D453741362D343838432D414143322D3542323935423541314446452F7265736F75726365732F636F72652E786D6C504B0506000000000E000E00800400009C1100000000
310
504B03040A00000800005C4ECE423DEE336E79000000790000001B0000006175746F6465736B2D64657369676E2D7061636B6167652E786D6C3C3F786D6C2076657273696F6E3D22312E302220656E636F64696E673D227574662D3822203F3E3C666F726D6174733E3C666F726D61743E687474703A2F2F736368656D612E
310
6175746F6465736B2E636F6D2F64657369676E2D7061636B6167652F323030393C2F666F726D61743E3C2F666F726D6174733E504B03041400060808005C4ECE42D486FD9CA0000000F4000000130000005B436F6E74656E745F54797065735D2E786D6C7D8EC10E82300C865F65E91D8A1E8C310C0EEA1BF002731658846E
310
D98AC1B77784ABF1D8FE5FBFBF75BBCE937A534CCEB38643598122B6FEE978D0B0485F9C41B54DDD7D022595594E1A469170414C76A4D9A4D207E29CF43ECE46F218070CC6BECC4078ACAA135ACF422C856C0E68EA1BF5669944DDD7BCDE7B1F8E415D77AECB980613C2E4AC91FC167A2B244592486606FC29C8FD7F045B9A
310
EF7053A7E60B504B03041400060808005C4ECE421DF8BAB5EC0000007C01000008000000636F72652E786D6C8D90416EC3201045AF82D856D8104CE25898C8759D13F402088883128365A0EAF18B13476A775DCDE8CF7F33A3CF4FDFD31D7C992558EF5A480A0C8171CA6BEBC616A67841350427C117EFE32F1B044E4EA685
310
AB0C051F179FE64D52DE45E362569DD7661365082642A0EEB96961505733C942A6981DE156CC52DDE4680AF2EA329C92D5E079C4EABCCF5EAC59A0E849DFD71F678AEA03A3A8EAD8808E75C7D03BE9C9B03F0F87AAA3BC5C61C1A39D5EF7D56264341A8A1D2614E13D22D5273E360C37ECF0865943312F57FB1F28CDFA9F50
310
B22ED2DDF6EE130B5090FCC8632078B96691CB23A85CD7DCC40F504B03041400060808005C4ECE4255019EA25F0000007C00000007000000636E782E786D6C4DCB3B0E80201045D1AD90E915ED2CF8AC45050C11660C8261F98AB1B07AC9C97D42D718D865D3E909258CFD00CCE24AC6E326A164D74DC0B4128928FF326038
310
472BA13128B1252AC747C6BAB984FC68F0B87FE8960A5C09FE86CFB69FBA01504B03041400060808005C4ECE42B8366D0A69010000020300000C0000006662782F636F72652E786D6C8D52ED8E8230107C95A67F2F502AA0684A8DC7E913DC0B54A81C115A525AE2E3DFF261382FC61892D2CCECECCE0EB0FDADA9512F4D57
310
699562EA07184995EBA252658A9DBD7809467BCE8CD6F64F19464A3432C5038C392B8D76ED0CE55A59A92CA04A17720645D7498B515EC325C55DFE231BE10B67A1A2BBFAADC8AFA2943EF581863ACE3A6BC0009A860C27E697F38D9109E7CCB9AA98D9AA8069D5A59206F38C6659F2750ABD6413875E74888FDE3639C4DE27
310
CDE8717D3A6EA243C8C820E6CC56CDDD5D6EA4B0B2C07C15D0D00BD61E8DBE83ED2E0E76F1E623887761C0C850FE20726DF1A6C855CA86ABD9EE24EB30A7606424FE6D0B1159D4891EFC10CEC81022BCC6841F83864020642BCEF57D8F2B40BDCCAD36113085760BD58BDA49981AA0F1616462A1F3D800367BDA67F5A2CFEB
310
1EF001852AC19AB0703D3B3B4C67D3D4398A561AAFB737A4B46944BD989B2C2EE732E8A93CD7B536EFA8C9BC2A99C324C3DFCB7F01504B03041400060808005C4ECE42780F13D67D0000009D0000000B0000006662782F636E782E786D6C4DCCD10E82201886E15B61FF390901A11BE041E17DB844C7426804ADCB4F9B071D
310
7DDBB36FAFEA3F6B406F975F3E450DF44400B9784F938F8B865A66DC02EA8DCA2995BF1BA038AE4EC3CE60D492537D1E34B979ACA16C1A7C7C1C3830D9112104B6DC52CC2525B825EC8609B1EC7CB90E52F20E1AA39A5F69DB3D6CBE504B03041400060808005C4ECE425A9362AA2A01000014020000310000006662782F46
310
333739303535352D453445312D343731302D383033442D3030453332364346373734392F636F72652E786D6C8D51CB6EC23010FC15CB27AACA898DE30490630E2D7C417F2024062C881DF951F1F95D37416A6F5CBCD6ECCCEC6857EE1FE31D7D6B1F8CB32D6605C548DBDE0DC65E5A9CE2996C30DA2BE99D8B7F6818D96ED4
310
2DCE3056F2E25D9A16A877366A1B01B56ED00BD885A02346FD1D3E2D0EFD558F5DD1A5088C702BA6AEBF75175DB002DAC05332440F01D03C24BF581D79B3A5420872A80E8C540DA36443F927A1F4C0D7F5C7B169AAAD2C67A192299961919B01E298B3D1FE55932C56329AF119BFF7BA8B7AC06A4D1927B426ACFAA2DB9DA0
310
3BD1BC53B1E3549699FE4F94A6E145513236F2F512779605AC982CE78692834BA7FB338C7E4CCE4794E7AD82EEDFB0A205C4125CD4B080990A0B00CFBA5A3C43741E16BCBA9D80CD17E3BA52B2CC3782F27B40A8F99EEA07504B03041400060808005C4ECE42E8FCFF265701000033030000300000006662782F4633373930
310
3535352D453445312D343731302D383033442D3030453332364346373734392F636E782E786D6CBD93CD6EC32010845F0571ADFC173B6E1A6122F5D027E8A157029B84068305B86ADEBE4B42D25C7AA854F582ACD96166F509B3CDE768C807F8A09D1D6853D69480954E69BB1FE81C77C58A920D67DEB97867A3C48A11069A
310
64CAD9DEBB79CA92829D984D44D5687BCCA287E0662F21A09C6E12E3A4301800B6985184710B4A812237237EEDC0E32A286E4F241E80BC3CBF11B77D071903AB520A6755EAE02C9DB9E9CE4489342284810679805194628E4E4138964A445136E5B5EB879DBE9348BA70AD9CBD26A97CA0E9A43C6F54224756E190B3103DD2
310
CBA6789A8072314D464B11117275365E3C9CCDDAC6BECB5E8DE03DBADB45BF5A61D879C659D4236487F4202228CA1775D316755F34DD6BFDB45ED6EBE5E343BD5CB735AB929DB3AD73265FC218F06E22D2D9083652DEB02A8D7FC2977D44698FAC9D3FFD022402C8AD173AB78CBFE4D3F46DD7FD239FEAFCBE1197C7BF807F
310
01504B03041400060808005C4ECE42B2BC1E1A660700009A1B0000340000006662782F46333739303535352D453445312D343731302D383033442D3030453332364346373734392F6F626A656374732E786D6CED59DD73A3B616FF5718EE4BEF83B1B11D37EE103A8993EC787AD3EED4DD9D3E7886914126BA1182914436BE
310
7F7D8F3EC0404C82BBB96F7DB001211D9DF33B9F3A043FBF64D479C65C909C5DB9BE37711DCCE23C212CBD724BB91F5DBACECF61C0F35C36A6B90E4319BE72D5B01B0629CFCBC20E25788F4A2A3BA3F7377F3A22C60CBB4E4C911057AE881F71863C54CA3CC1E2C94B90445EBA7FF17CCF4C6C934D392A1E3B440BC43193C0
310
298C33A0E218A6FCF6E3C41D87C158BD0F03F56F67CD06CD9AF7CF1A6BA9DB5C12262462F12B963A646683589AF9F3DBBBE9C57274319FCF46F3C5D41FDDDCDFDC8EFC1F6793D562B55A5EDF2D81BD5D9E532B53820BCC12D0DFC10DFD60ACDED4A25B044E711DE78CE15803095069B1BA040916B05503BE49FBD15712355E
310
6B091BCF73F5DEB2D0189EB5A9F4CD1A06448B2E0862B7AB24AEAE4DF9F2DD7F417031C428B9C012B8159283762D3C1CBCC20D27C1D88C86C1EEA80B229C0C49CC09A20E253B8E382805A6AA296160165832CA3938907294045A73E675DBB6C033DF779D535CEE4B4A9567B8A176AC08DC0F4BA13923FFC3FCC87D1319E009
310
A42D099397964B7928B01B2E83B11E0C0375994DED4B03A4B3A728151A11F3B623E84AB9FEFAD60D7FB9DFBD6C543838BD79C1F30273A98C4EE951F305866CAF0A25BBAD3F48736A01086340B52B8FA0FC0EC8FF0AD1E3C80AE88D9397F9CBDCCE951C31B1CF7906BA7126CE68027F13C7D7FFEABE71178CEBC56DEDF5E109
310
6EAAA0BAFC7E3CDB3268AC2CFF0D38C3E0190C3EE733FB6A13230AF6FC401800A48CC4A1390C4168DFEF5EDC700D8113023DAC4234F4416460F7196E83B12573D44AE55ED6EB18206AF7980D5112C0A62D12D8E8D1D327C81E9CC447353545EC83F7E243CCF5FA76F3CBA6E47B14E307EBD3B7784F189190354F33D4C2BC25
310
D1133E7CCB790282BEC67BD3C43BB35B09405B61AE804F2B10D4C371E7D60631AC4B73156E827776002154AE6ED07F2022C6942286F3B2DAB78E6ECA506B8FB735831B4E0DC4B369C784397E26AAAA00A739CE68310A793FE6A45020BAE12723591D34BD1EE9BEAC7F058BACE7F7CC5A3308BD0CD13F74D03A8143CBB22BA4
310
2D10B5C0BB63388F739AF36877884CA473A1960036DADEF2B5451462BD5192A2021EA4FDAE0A29A991364AC87E5F0A88AB2758FCBA5E35CD61E2CDFC0BA7F9DF71C639445BF05DC4ADDF75F6884886521CED51D2B75D73B79AB6D0247B4873BCA720177926F21021194D129C9E03CD59C4971F4A3DA5B910846101F9EA24F8
310
4D34261E0412A3CD8A65A5D50ED044441996889E838022D303AE4E3BBAC68DA174789FC7DA7ADFD25893E8FFC92238825A32671181521472C8BB8CFBDE05C49036BA06E50EBE606D156D2D062DA184880FD1374CD247790EEA867C0FEE311C494A19E5058AC1AC07907DE52B4AA91DDE77287E52F9238A4BFA51062230DD47
310
84D2328BE047189C3C86B8761D98DE44A141DCC43E893328CA902CF9904D16179357FB989AA11B021B1BED0985B01D65A8E841BD1510753DE2D4E05BEA3D4ADD955911A12C2FD92043F1665D6FB2E4BB6A556407F2AB4A45281B2BC29660181026EBAC5AC56C30751D58C18D74A03A4402650535A7B077128F5F7B93A6DCBB
310
01B77EFAB11B6450F8F568AF1951E7150C96C7566120BE21193FBAE1465F4737507F273839A6FAAAD66C568080988AE4252756455FD650DED81ACD0D1F9014DB4F26EB56D72F6B0FBA1FC118D640ED522F5C2BA033CC245295C983BAA1BF2308C12D1A667CAD72EA3954AE9344578D88DE933E75B6CA88D6A619F18A47CCF2
310
0C7E6C4B584CCB046F51229EA20749A30D51AC5B29BD8C5418BF29E06F9F361D78606480489F558187BF75D6DAD1952A974E12918F65B6638840106C89961ADD78054BAD462A2DD75775A680BA0B0CCCAA78FECFC9A2D98EF8E764915AC3F8AE93C5CDE13FE8D0EC8B34D279ACECFAAC63409D9F14958F3806E8B6434DB5CE
310
2226995BF9AD33451014AB283FB81AAB828621D8C7F1DFCEDA7D59D06CD7E1FFBCACEDBFAA38CECA2AADC9AA4B75A2725D3773D8C574E95F4F2F7F1CCD167777A3F9ED7235BAB9BB988EFCC5723A59DE2F1677D78B1A4DEDA8615007339DBBE0D904B56A583D590CA02B2B724A1238CD274E8A21E64B38D30F689FF30C0B48
310
9ECD6677629BF203563F9B3EA7443B8A2B4E1E113488A980B40E1895B16C8F3BFF82D6A48483F6950B4D23EF09FEAC55BA0E649E2B175A0592C458783B6833A9869E260E2957E77E4B0CF0412C5529D12CAA9FEB550A9B56F8AFA70C490356AE560F030AB702BA5FAD0E85E6CDF2149F2578C58E8324DCEE4A09D59A91E538
310
500BA3B739AADFC846097BB25BBF80EBBE2D96EFE9392D44067D3278D3080CD591443CD5FD6EC59865E9FAF6F318FA6CCEFA37A7A0650ABA1C4E69C4311873A90A2AB022B00A4BB340124C75F5D3F633CFE1134FE6E8AAC8F9E1E572F1EFED2ACFB29C99A1ED359CCA12F850E46C1EE1B34FB285E201ABE6BAD84E27FE74AB
310
9BDAB6CF1EED90C09EAA8A60A02A2694201D9303BB7CD5A0B2EDCBB1524567FAFAD6B141149A01C68E5EF578CD472E077C487D4E511EA3FDBC92F6CDBEF6584F059BE0D0910EFF02504B03041400060800005C4ECE42000000000000000000000000350000006662782F46333739303535352D453445312D343731302D3830
310
33442D3030453332364346373734392F76657274696365732E62696E504B03041400060808005C4ECE42F270F1330600000004000000360000006662782F46333739303535352D453445312D343731302D383033442D3030453332364346373734392F747269616E676C65732E62696E636660600000504B03041400060800
310
005C4ECE42000000000000000000000000370000006662782F46333739303535352D453445312D343731302D383033442D3030453332364346373734392F617474726962757465732E62696E504B03041400060808005C4ECE42D5987DFC8F00000041010000360000006662782F46333739303535352D453445312D343731
310
302D383033442D3030453332364346373734392F6469726563746F72792E786D6C858F410EC2201045AF4266AF15DDB800BA74E7C21B903225242D6328188F2FA5C4183471359997F9FF81E89FF3C41E1816475E02DF1F80A11FC8386F25A438EECEC07A250251FC3803E6F58C12560C4AD840E95E91C151A72936F496F357
310
32D860FE635F62C8F2DA16B505C545B74125BAA2FA9E05D7CC053D063734D5C7665FD55B6B8D15D5E9BFEAFD8490FFA45E504B03041400060808005C4ECE420E53942DFF000000A00100003B0000006662782F46333739303535352D453445312D343731302D383033442D3030453332364346373734392F7265736F757263
310
65732F636F72652E786D6C8D504B6E833010BD0A9A6D65B02104828CA3949213F4029699502BC18EFCA97AFC9A844AEDAE9B99D1FB689E1E3F7E2DB7EC139DD7D6F4C0720A191A65276DE61E62B89016B2A3E0CEDAF04B0699910BF6B0C220F8EC6CBC6F90B226A009093576C20D94DE63804CDDD2D183571FB8C85CC69014
310
FE9ADFA5BACA197396273AE904F7C1A500D9F3C93A4138F4363A859E174F56F018F5B469F4947EEA8B46076260C3D0BE9D4BD236754576A77A2487F654935736B0717F1E9BDDA9E2C56A163CE8E527A37228034E204ACA2A42F784EDDEE9A1AB6957372FB4EE2ACA8B55FEC714EFD33F4D519B50955BDCA7CD836029C88310
310
BC58FB4AEB5166DA6BB7E21B504B010214000A00000800005C4ECE423DEE336E79000000790000001B00000000000000000000000000000000006175746F6465736B2D64657369676E2D7061636B6167652E786D6C504B010214001400060808005C4ECE42D486FD9CA0000000F40000001300000000000000000000000000
310
B20000005B436F6E74656E745F54797065735D2E786D6C504B010214001400060808005C4ECE421DF8BAB5EC0000007C010000080000000000000000000000000083010000636F72652E786D6C504B010214001400060808005C4ECE4255019EA25F0000007C000000070000000000000000000000000095020000636E782E
310
786D6C504B010214001400060808005C4ECE42B8366D0A69010000020300000C00000000000000000000000000190300006662782F636F72652E786D6C504B010214001400060808005C4ECE42780F13D67D0000009D0000000B00000000000000000000000000AC0400006662782F636E782E786D6C504B01021400140006
310
0808005C4ECE425A9362AA2A010000140200003100000000000000000000000000520500006662782F46333739303535352D453445312D343731302D383033442D3030453332364346373734392F636F72652E786D6C504B010214001400060808005C4ECE42E8FCFF26570100003303000030000000000000000000000000
310
00CB0600006662782F46333739303535352D453445312D343731302D383033442D3030453332364346373734392F636E782E786D6C504B010214001400060808005C4ECE42B2BC1E1A660700009A1B00003400000000000000000000000000700800006662782F46333739303535352D453445312D343731302D383033442D
310
3030453332364346373734392F6F626A656374732E786D6C504B010214001400060800005C4ECE420000000000000000000000003500000000000000000000000000281000006662782F46333739303535352D453445312D343731302D383033442D3030453332364346373734392F76657274696365732E62696E504B0102
310
14001400060808005C4ECE42F270F133060000000400000036000000000000000000000000007B1000006662782F46333739303535352D453445312D343731302D383033442D3030453332364346373734392F747269616E676C65732E62696E504B010214001400060800005C4ECE42000000000000000000000000370000
310
0000000000000000000000D51000006662782F46333739303535352D453445312D343731302D383033442D3030453332364346373734392F617474726962757465732E62696E504B010214001400060808005C4ECE42D5987DFC8F0000004101000036000000000000000000000000002A1100006662782F46333739303535
310
352D453445312D343731302D383033442D3030453332364346373734392F6469726563746F72792E786D6C504B010214001400060808005C4ECE420E53942DFF000000A00100003B000000000000000000000000000D1200006662782F46333739303535352D453445312D343731302D383033442D30304533323643463737
310
34392F7265736F75726365732F636F72652E786D6C504B0506000000000E000E0080040000651300000000
  0
XRECORD
  5
17
102
{ACAD_REACTORS
330
12
102
}
330
12
100
AcDbXrecord
280
     1
270
     1
271
     1
  0
XRECORD
  5
16
102
{ACAD_REACTORS
330
12
102
}
330
12
100
AcDbXrecord
280
     1
270
     1
271
     1
  0
XRECORD
  5
18
102
{ACAD_REACTORS
330
12
102
}
330
12
100
AcDbXrecord
280
     1
270
     1
271
     1
  0
XRECORD
  5
15
102
{ACAD_REACTORS
330
12
102
}
330
12
100
AcDbXrecord
280
     1
270
     1
271
     1
  0
XRECORD
  5
24
102
{ACAD_REACTORS
330
22
102
}
330
22
100
AcDbXrecord
280
     1
270
     1
271
     1
  0
XRECORD
  5
23
102
{ACAD_REACTORS
330
22
102
}
330
22
100
AcDbXrecord
280
     1
270
     1
271
     1
  0
XRECORD
  5
BA
102
{ACAD_REACTORS
330
22
102
}
330
22
100
AcDbXrecord
280
     1
 70
     1
 90
1959938040
 71
     1
  1
C403C421-2996-42EE-B19D-2DCD8E682652
311
504B03040A00000800005B4ECE423DEE336E79000000790000001B0000006175746F6465736B2D64657369676E2D7061636B6167652E786D6C3C3F786D6C2076657273696F6E3D22312E302220656E636F64696E673D227574662D3822203F3E3C666F726D6174733E3C666F726D61743E687474703A2F2F736368656D612E
311
6175746F6465736B2E636F6D2F64657369676E2D7061636B6167652F323030393C2F666F726D61743E3C2F666F726D6174733E504B03041400060808005B4ECE42D486FD9CA0000000F4000000130000005B436F6E74656E745F54797065735D2E786D6C7D8EC10E82300C865F65E91D8A1E8C310C0EEA1BF002731658846E
311
D98AC1B77784ABF1D8FE5FBFBF75BBCE937A534CCEB38643598122B6FEE978D0B0485F9C41B54DDD7D022595594E1A469170414C76A4D9A4D207E29CF43ECE46F218070CC6BECC4078ACAA135ACF422C856C0E68EA1BF5669944DDD7BCDE7B1F8E415D77AECB980613C2E4AC91FC167A2B244592486606FC29C8FD7F045B9A
311
EF7053A7E60B504B03041400060808005B4ECE42F320E82EEB0000007C01000008000000636F72652E786D6C8D905D6EC3201084AF82F6B5C206FFC5B6305163B527E8051010172506CB4094E317278ED4BEF56957C37CEC68D8F13E5FD14DAFDE383B00CD08206DA553C64E03C470C62DA02367AB73E1970D9015B31E6093
311
81B3697571D925E96CD03624D53AA5775178AF0320794DCB005E7EEB59642286E4F0976C11F222269DD1D796E0188D42CF2346A5FFCCD9E815382DC78F921C1A7CF8EC465CD17AC45DD3B5F8BD3A152DA515A5F589E51BCC5930F3EBBE5CB5085A012F082D316930ADBE48D7D7A4AFAB3752F72561F966FF03C545FD138AC6
311
86B2D8E33E319FB2A6208F07CEF2AD8B341E45A5B9F5C67F00504B03041400060808005B4ECE4255019EA25F0000007C00000007000000636E782E786D6C4DCB3B0E80201045D1AD90E915ED2CF8AC45050C11660C8261F98AB1B07AC9C97D42D718D865D3E909258CFD00CCE24AC6E326A164D74DC0B4128928FF32603847
311
2BA13128B1252AC747C6BAB984FC68F0B87FE8960A5C09FE86CFB69FBA01504B03041400060808005B4ECE4294A4309B67010000020300000C0000006662782F636F72652E786D6C8D525B6E833010BC8AE5DF0A6CF34842641C35517B825EC00187A2808D8C8D72FC2E8F88A68AA20AC958333BBBB303FC706B1B3428DBD7
311
46E798851423A50B53D6BACAB177976087D141706B8CFB55869196ADCAF10863C12B6B7CB74085D14E6907A836A55A40D9F7CA61543470C9715F7CAB5686D23BA8E8AF61278BABAC54C842A0A14EF0DE593080E621E389C5E57CE364C605F7BE2E17B62E615A7DA995C582C5A78F986E37C1F6333B05094B4F41B6C976C17B
311
728C768C258CA5474E46B1E0AE6EEFEE0AABA45325161165714037014BBE68B64FE93E4DDE68BA8F292763F983C877E53F45BED62E8E16BBB3AC07AF606422FE6C0B1139D4CB01FC10C1C91822BCA6841F838640206427CFCD7D8F2B40832A9CB10930A5F12B35C8C62B984AD1F47032B3D0796A009B3DED13BDE8F3BA077C
311
40A92BB0261D5CCFDE8DD3F93C7589A2533618DC0D69635BD9ACE6668BEBB90E7A2A2F4C63EC7FD46459952C6192F1EF153F504B03041400060808005B4ECE42B935DBC97D0000009D0000000B0000006662782F636E782E786D6C4DCCD10AC2201886E15B91FFDCA659CE813A4C6F643437464EC334BAFCB6D841471F3C7C
311
BCB2FFAC01BD7D7E2D292AA02702C8C77B1A97382BA865C20250AF654EA9FCDD00C561F50A76062DE79CEAF3A0D14F430D65D3B0C4C781C6516ADBABC19673832F9DB1B8A3EC8C09774450D70A7663D068D9FC4ADBEE61FD05504B03041400060808005B4ECE42832C7CC72B01000014020000310000006662782F41443131
311
433735412D433636412D343941432D393133322D3036443038314437383342332F636F72652E786D6C8D515B6EC32010BC0AE22B55651BE247EC0813B9C9117A0162488A1283C5A3CAF1BBD48ED4FEE58745B333B3A35D76784C77F4AD9CD7D6F498E6042365462BB5B9F638864BD66274E0CC591BFED0303262523D4E30E6
311
ECEA6C9C5768B4262813003556AA1514DEAB80D178874F8FFDF8A526918B1880E16FF92CC69BB8AA9CE6D0061E673E3808809621E9C57C38517ADCD543766C9A21ABBAE19875B4DC66A43991969E766DF951B262117216A396AB5C4B88A32F5AB9574D9298B3A0A767FCD1291194C47C4B680913335A7D926E5F937D5DBD93
311
7A5F125624FA3F519CE58BA2A84D28B76BDC45E631A7AC581A9C491BCFF76718F598AD0B28CDDB7835BE614E7242694D775DCB8A850A0B00CFA65A3D7DB00E16BCB99D814DEBC5B8A9382BD28DA0FC1E106ABA27FF01504B03041400060808005B4ECE428D64BCA34E01000033030000300000006662782F41443131433735
311
412D433636412D343941432D393133322D3036443038314437383342332F636E782E786D6CD593CD6E022114855F85B06DE6AF8EA6350C265DF409BAE89681ABA20C4CF869EADBF7A268DDB8E8B21B3239F770CECD17866DBE2743BEC007EDEC40BBBAA504AC744ADBDD4053DC562F946C38F3CEC53B1B25564C30D02C53CE
311
76DEA5B9480AB6229988AAD1F658440FC1252F21A09C6F12E3A4301800B64A28C2348252A0C8CD885F5BF0B80A8AE389C43D90F7B74FE2C603C818589353386B720767F92C4D77264AA411210C34C83D4CA216293A05E1582B1145DDD5D7AE073BFD26917CE15A99BC26B97CA0F9A4BC6C542347D6E090B3103DD22BA6789A
311
817231CF464B11117273365E3C9C256DE3AA2F5E8DE03DBABBD5A2EF31EC3CE32CEA098A437A101114E5CF6DB7A8DA55D5F51FEDEB7AD9AE97FD53BB5C2F5AD6643B67A373A65CC218F06E26D2D9083652DEB1268F1FE12B3EA2B447D6CE9FFE00120194D60B9D5BC67FE6D39CDF37E2F2F817F01F504B0304140006080800
311
5B4ECE42726704C7A405000080100000340000006662782F41443131433735412D433636412D343941432D393133322D3036443038314437383342332F6F626A656374732E786D6CAD57DB6EDB3810FD1541FBB2FBE08B6C278D178A8AC44E0AA3485BD468B10F060C4AA2146E285120A9C4D9AFDF43899225D74EBD8BBE58
311
16351CCE9C3973A1FF7E9771E7994AC5447EED7AC3B1EBD03C1231CBD36BB7D4C9E0CA75DE07BE144277C45C272719BD76CDB21BF8A914656197629A9092EB83D5FBDBBF1C15D19CBA4EC48952D7AE8A1E694686A4D422A6EA6918134D8669B21B7AC35AB0AF3695A4783C505A1049730D4BB19E438B531BE5F55FC7EE28F0
311
47E67BE09B5F2B353D2D35AAFCE99FCF72A5491EFD70D8819AA9375BDE4D2EE6838BD96C3A985D4EBCC1EDFDED72E0BD9B8E17978BC5FCE66E8E839596D0642D913471830FC046B2C81FD59F02BF64B99E4EAC880DD048D2676622E50613C7F347B54CEB9D75F298F991C8731A5558018DCA3FAB3AA605CD63C49C5105CB3A
311
088DFBAF9EC1B1F3796ADEED91DDE5F310E8EEE8286A6C6F9E5D4B45F8375C50E730482A6A185863691DADB93ADE231C0AC1ED37A69C8C682A19E10E67A124F2D50D206A4402BFA7C630599A6C301EB801A2507FEED30569F4739E1FB3322939373476832A0BB6C815AA556519FB87CABDF55D6460136265D870651DD2AF05
311
7583794D91AB0336D5403A092729420E37CDCEE9E4C0D185C9D3D5D20D3EDE87BBB5C9DDE387175214546A431F50AB095CF33428599BBCB3226736B807A6EC41F90AE43F21D5F7A6206E92ED66BB993D454B92AB44C80CB171C6CE608C9FB1E355BFE67FE79F3F6A37F7A3770A4F04DB40F50BF0ECFBD08D6507CEC07F06E1
311
859C5AD7D611E1281B0F2C074086240E1758421D4EC29D1BAC50E55095B18BF0C083CB30F7197FFD91558342519DD479E6C0F2A02C9E51A0015BC548985193DF1AB88FD30FE5AC3AD88A9D82F7E297D0F566B9FEB82E654222FA60737A491396338D16B7E74DD7A01EE63D8F9EE8EB8B90311CFD11EF7517EFCC1EA580B6C1
311
DC009F3635DDBCEC4FEE1D10615F2A4CB9F17F72029C308DB5A3FF81A988724E722ACAE6DC37FB07DA460DB14976C3E4B6C1EC1B0B48537F39C84134E948B2C280D876ABB6680E4F78F76DF5098C843C1721E17BA1705F7A23C185DC86AFDBBA2A1D45FA7B9FDA168291D102B65739D2A4BFC57C1BB32429156AE01158BFAF
311
16DDD099AA800AD168AD936506F7915B445ACE367AD1AC25412315F996A16D22ED8E1ED0D50F442D012A85A72C5694275BC679996D13C6D18CB619294EC0F1FFED0FCBACD8924C94B93EA1BB673A9A43DFF61E79D50BD1D1A31BACABE7E016A537A6F13ECC3D61D34A8E60D50BED62369E2E66189A26F3F9E56036B9BB1BDC
311
7AF3E560B25C2CAFEE2EAF26971793264EB5F2C06F3A4D37A111257436BF94CC86EFDB0AE9636B801B3C10AD361FEAEC6C9EDF56438CC2FE087BD02EDB8D37F133C63E1AFF5CC15EF2A8A25556709AD15C1393420FE60FFF4A3066F48CA9D7571949E9195A3E7F581F38839533F67D31E94E5F0EF6DAD58549C8A34AF46399
311
853961FC60635A23392CF2D4E2D7C4A47DD67DA679356F3630184C95E02C46198C9D948A8C6A14C3337A90CCA802F5BA237D6CAF1E67EC7EAE07444D424E1B4B1E096664AE9016A05619E9FEBAF31B663A33565DBBE8B6C327FCD84AE13AE0CCB58B195DB388AA6188FE6C26A14A39B8D41DE431F7933CE518B5EB4DED7BBB
311
CB60D3EBC8ADC839E393F5ABAEE0D6019491026303E62144A73226F02BDBECF7E83F39DE98E3108DBF61A95B5FF60BAD33D53148D1DA297B59C00CF3648FDE2151DF76CB1B56323D44CEBA64BD49825AEB401399561705639F35E966F9658401C5597D760A5EA688E5F99A069282CCA54970B008ACB03A0BA241D5C59F9B2F
311
52E0229B39F70C14707EDF5D5DFEB159882C1379BDB4B9B1D76167FD88CB6DBC4171A0E656A23693B137D954B7017B41D98644D12189D513161059C95AA07BE1072FEB2B23FA50FDA1951B99501C3074B5746C639B41A9A54BB7B61A703077E4D4410E991BA5C998AE40F1E685605489C20489513EF817504B030414000608
311
00005B4ECE42000000000000000000000000350000006662782F41443131433735412D433636412D343941432D393133322D3036443038314437383342332F76657274696365732E62696E504B03041400060808005B4ECE42F270F1330600000004000000360000006662782F41443131433735412D433636412D34394143
311
2D393133322D3036443038314437383342332F747269616E676C65732E62696E636660600000504B03041400060800005B4ECE42000000000000000000000000370000006662782F41443131433735412D433636412D343941432D393133322D3036443038314437383342332F617474726962757465732E62696E504B0304
311
1400060808005B4ECE42D5987DFC8F00000041010000360000006662782F41443131433735412D433636412D343941432D393133322D3036443038314437383342332F6469726563746F72792E786D6C858F410EC2201045AF4266AF15DDB800BA74E7C21B903225242D6328188F2FA5C4183471359997F9FF81E89FF3C41E
311
1816475E02DF1F80A11FC8386F25A438EECEC07A250251FC3803E6F58C12560C4AD840E95E91C151A72936F496F35732D860FE635F62C8F2DA16B505C545B74125BAA2FA9E05D7CC053D063734D5C7665FD55B6B8D15D5E9BFEAFD8490FFA45E504B03041400060808005B4ECE429BCAB51FFD000000A00100003B00000066
311
62782F41443131433735412D433636412D343941432D393133322D3036443038314437383342332F7265736F75726365732F636F72652E786D6C8D50596EC32010BD8AC56F850D5E92D8C2448DD59EA0174030715062B058AA1EBF10BB52FBD79F99D15B344F8F9DBF9647F109CE6B6B46444B820A30D22A6DE611C570C527
311
549C3973D6865F325418B1C088328C389B9D8DEB0E496B029890506315ECA0F01E022AE4231D23F2F2068B28450C49E1EFE52AE45DCC50D232D149C7990F2E0528B6277922EEC0DBE82478566D2C67316AB56BB44A3FF55583439C36D35B438E1D3EBEF7136E6937E1FED09FF06B7BA94F94B694761756653367412F3F19A5
311
031140215E13DA6072C0B4FD20FDD091A16B5F483734845559FEC71457F54F53D42634F51E77B3F994350579129C55B9AFB49E65A69DBBE5DF504B010214000A00000800005B4ECE423DEE336E79000000790000001B00000000000000000000000000000000006175746F6465736B2D64657369676E2D7061636B6167652E
311
786D6C504B010214001400060808005B4ECE42D486FD9CA0000000F40000001300000000000000000000000000B20000005B436F6E74656E745F54797065735D2E786D6C504B010214001400060808005B4ECE42F320E82EEB0000007C010000080000000000000000000000000083010000636F72652E786D6C504B010214
311
001400060808005B4ECE4255019EA25F0000007C000000070000000000000000000000000094020000636E782E786D6C504B010214001400060808005B4ECE4294A4309B67010000020300000C00000000000000000000000000180300006662782F636F72652E786D6C504B010214001400060808005B4ECE42B935DBC97D
311
0000009D0000000B00000000000000000000000000A90400006662782F636E782E786D6C504B010214001400060808005B4ECE42832C7CC72B0100001402000031000000000000000000000000004F0500006662782F41443131433735412D433636412D343941432D393133322D3036443038314437383342332F636F7265
311
2E786D6C504B010214001400060808005B4ECE428D64BCA34E010000330300003000000000000000000000000000C90600006662782F41443131433735412D433636412D343941432D393133322D3036443038314437383342332F636E782E786D6C504B010214001400060808005B4ECE42726704C7A40500008010000034
311
00000000000000000000000000650800006662782F41443131433735412D433636412D343941432D393133322D3036443038314437383342332F6F626A656374732E786D6C504B010214001400060800005B4ECE4200000000000000000000000035000000000000000000000000005B0E00006662782F4144313143373541
311
2D433636412D343941432D393133322D3036443038314437383342332F76657274696365732E62696E504B010214001400060808005B4ECE42F270F13306000000040000003600000000000000000000000000AE0E00006662782F41443131433735412D433636412D343941432D393133322D303644303831443738334233
311
2F747269616E676C65732E62696E504B010214001400060800005B4ECE420000000000000000000000003700000000000000000000000000080F00006662782F41443131433735412D433636412D343941432D393133322D3036443038314437383342332F617474726962757465732E62696E504B01021400140006080800
311
5B4ECE42D5987DFC8F0000004101000036000000000000000000000000005D0F00006662782F41443131433735412D433636412D343941432D393133322D3036443038314437383342332F6469726563746F72792E786D6C504B010214001400060808005B4ECE429BCAB51FFD000000A00100003B00000000000000000000
311
000000401000006662782F41443131433735412D433636412D343941432D393133322D3036443038314437383342332F7265736F75726365732F636F72652E786D6C504B0506000000000E000E0080040000961100000000
310
504B03040A00000800005B4ECE423DEE336E79000000790000001B0000006175746F6465736B2D64657369676E2D7061636B6167652E786D6C3C3F786D6C2076657273696F6E3D22312E302220656E636F64696E673D227574662D3822203F3E3C666F726D6174733E3C666F726D61743E687474703A2F2F736368656D612E
310
6175746F6465736B2E636F6D2F64657369676E2D7061636B6167652F323030393C2F666F726D61743E3C2F666F726D6174733E504B03041400060808005B4ECE42D486FD9CA0000000F4000000130000005B436F6E74656E745F54797065735D2E786D6C7D8EC10E82300C865F65E91D8A1E8C310C0EEA1BF002731658846E
310
D98AC1B77784ABF1D8FE5FBFBF75BBCE937A534CCEB38643598122B6FEE978D0B0485F9C41B54DDD7D022595594E1A469170414C76A4D9A4D207E29CF43ECE46F218070CC6BECC4078ACAA135ACF422C856C0E68EA1BF5669944DDD7BCDE7B1F8E415D77AECB980613C2E4AC91FC167A2B244592486606FC29C8FD7F045B9A
310
EF7053A7E60B504B03041400060808005B4ECE42B634E726EB0000007C01000008000000636F72652E786D6C8D904D6EC3201085AF82665B6183FF6A5B98C851D313F40208888B128365A0CAF18313476A775DCDE8CDFB66468F1D6EF315FDE8D51B6707A01901A4AD74CAD8698018CEB80574E06C752EFCB201B262D6036C
310
327036AD2E2EBB249D0DDA86A45AA7F42E0AEF750024AFA919C0CB6F3D8B4CC4901CFE922D425EC4A433FAEA121CA351E879C4A8B4CF9C8D5E8197454BEA4F3AE2AA39115C1DAB77DC36C713FE18E9D8748436B4EB58BEC19C0533BFEECB558BA015F082D0129306D3EA8B747D4DFABA7A23755F12966FF63F505CD43FA168
310
6C288BFDDD27E681D3F4C863C059BE6591CA23A854B7DCF81D504B03041400060808005B4ECE4255019EA25F0000007C00000007000000636E782E786D6C4DCB3B0E80201045D1AD90E915ED2CF8AC45050C11660C8261F98AB1B07AC9C97D42D718D865D3E909258CFD00CCE24AC6E326A164D74DC0B4128928FF32603847
310
2BA13128B1252AC747C6BAB984FC68F0B87FE8960A5C09FE86CFB69FBA01504B03041400060808005B4ECE42818B07D068010000020300000C0000006662782F636F72652E786D6C8D525B6E833010BC8AE5DF0A6CF36A888CA3444D4FD00B38E05014B091B1518EDFE511A5A9A2A84232D6CCCEEEEC00DF5DBB168DCA0E8D
310
D1056621C548E9D2548DAE0BECDD39D860B413DC1AE37E9561A465A70A3CC158F0DA1ADFAF5069B453DA01AA4DA556500E837218952D5C0A3C94DFAA93A1F40E2A864BD8CBF2226B15B21068A8137C70160CA065C87462713E5D395970C1BD6FAA956D2A98D69C1B65B188A30D4D3FD93E48B2230D9243F21E6CB2C331F8D8
310
B37D965396B13CE764120BEE9AEEE6AEB44A3A556111511607340B58F245F36D4AB769F246D36D4C3999CA1F44BEAFFE29F28D7671B4DA5D6403160C8CCCC49F6D2122870639821F2238994284D79CF063D0100884ECE4A9BDED71016854A5333601A632FE4E8DB2F50AA652343F9C2C2C749E1BC0664FFB442FFABCEE011F
310
50EA1AAC4907D79377D374BE4C5DA3E8950D467745DAD84EB677738BC5FB791FF4545E9AD6D8FFA8C9BA2A59C324D3DF2B7E00504B03041400060808005B4ECE42612DA0FB7E0000009D0000000B0000006662782F636E782E786D6C4DCCD10E82201886E15B61FF392994451BE084E23E5CA263223482D6E5A7CD838EBEED
310
D9B797B79FC5A3B74D2F17830072A801D9F088830B93809247CC00B592A718F3DF0D50E8172B6063907C4AB13C771AECD8179F57F52ECC3B12A34877530DAE8FB4C1A74E697C3584E13323177AD744696AA092BCFA95D6DDC2F20B504B03041400060808005B4ECE42D005B6CA2C01000014020000310000006662782F3146
310
4231414442352D303332352D344142432D394631382D3638313732454331424332462F636F72652E786D6C8D515B6EC32010BC0AE22B55850D7ED58E30519C3627E8051C20294A0C168F2AC72FD48ED4FEE58745B333B3A35DBABB4F37F02DAD5346F790641802A9B9114A5F7A18FC19B510EC18B5C6F83F3408F438C91E26
310
18327AB126CC2BC48DF652FB886A23E40A8ECE490F01BFC54F0F1DFF92D3988DC14786BB66F3C8AFE34566248BEDC863D4791B038065487A2123C781ECDF871AE1B2A851B51F0EA83B9216352D792B3E0E643814479A2F4246435062952B11E3A8B392F659932466D4ABE9119F5B397A29202B3029116E10A93E71B7ADF1B6
310
AE5E71BD2D31CD13FD9F28CCE2495150DA97C51A7791B99895E64B835161C2E9F60823EFB3B11EA4791B27F90B6438C384746D5395345FA87101D1B3A9564FE78D8D0BDE5C4F915D92C5B8A918CDD38D62F93D60ACE99EEC07504B03041400060808005B4ECE42EBC373B45601000033030000300000006662782F31464231
310
414442352D303332352D344142432D394631382D3638313732454331424332462F636E782E786D6CBD93CD6EC23010845FC5F2B5CA1F098822C7483DF4097AE8D5B1177049ECC83F5579FBAEC1502E1C2A55BD58D1EC7866F5C961DBAF69249FE0BCB6A6A74D595302465AA5CDBEA731EC8A35255BCE9CB5E1CE46891113F4
310
34C994B3BDB371CE92829D88634075D4E6984507DE4627C1A39C6E92D14A3162009822A208D3004A812237237EEDC0E12A280E27120E405E5FDE891D3E4006CFAA94C259953A384B676EBA33512247E17D4FBD3CC0244A118355E08FA51241944D79ED7AB0D34F124917AE95D16992CA7B9A4ECAF346257264150E39F3C121
310
BD6C0AA7192817F33C6A290242AECEC68B87B3A84D5875D9AB11BC4377BB58ADD718769E7116F404D9211D88008AF245DDB445BD2A9AEEAD7EDE2CEBCDB27BAA979BB66655B27336583BE64B1803CECE445A13C004CA1B56A5F1237CD9479476C8DABAD32F402280DC7AA173CBF84B3ECDAAEDBA7FE4539DDF37E272F817F0
310
6F504B03041400060808005B4ECE4224D9614660070000991B0000340000006662782F31464231414442352D303332352D344142432D394631382D3638313732454331424332462F6F626A656374732E786D6CED595B739B3814FE2B0CFBB2FB606C6C279BEC103A899D763C9DB49D7ADBD907CF3032C8441B211849E4B2BF
310
7E8F2E602026C1DBEC5B1F6C404847E77CE7AA43F0EE31A3CE3DE682E4ECC2F5BD89EB6016E70961E9855BCADDE8CC75DE8501CF73D998E63A0C65F8C255C36E18A43C2F0B3B94E01D2AA9EC8CBEBFFACB113166D875628A84B870457C8B33E4A152E60916775E8224F2D2DDA3E77B66629B6CCA5171DB215A208E99044E61
310
9C0115C730E5B71F27EE380CC6EA7D18A87F3B6B3668D6BC7FD6584BDDE6923021118B9FB1D421331BC4D2CC9F2FAFA727E7A393F97C369A9F4EFDD1D5FBABE5C8FF7D36599C2E16E797D7E7C0DE36CFA99529C1056609E8EFC90DFD60ACDED4A25B040E711DE78CE15803095069B1BA040916B05503BE49FBD15712355E6B
310
091BCF73F5DEB2D0189EB5A9F4CD1A06448B2E0862B7AB24AEAE4DF9F2EDDF20B81862945C6009DC0AC941BB161E0E5EE18693606C46C360BBD705114E8624E6045187922D471C940253D59430300B2C19E51C1C48394A02AD39F3BA6D5BE099AFBBCE212E7725A5CA33DC503B5604EE87A5D09C917F30DF73DF4406780269
310
4BC2E499E5523E15D80DCF83B11E0C0375994DED4B03A4B3A328151A11F3B623E842B9FE6AE9861FDF6F1FD72A1C1CDEBCE07981B95446A7F4A8F90243B6578592DDD61FA439B5008431A0DA957B50BE02F29F207AEC5901BD71F2387F9CDBB99223267639CF4037CEC4194DE06FE2F8FA5FDD37EE8271BDB8ADBD3E3CC14D
310
1554673F8E675B068D95E5BF016718DC83C1E77C665FAD6344C19E6F08038094913834872108EDBBEDA31BAE207042A0875588863E880CECDEC36D30B664F65AA9DCCB7A1D0344ED1EB3214A02D8B445021B3D7AFA00D9839378AFA6A6887DF09EBC89B95E2ED71FD725DFA118DF589F5EE21D614442D63CCC500BF3964477
310
F8E921E70908FA1CEF7513EFCC6E25006D85B9023EAD40500FFB9D5B1BC4B02ECD55B8095ED9018450B9BA41FF868818538A18CECB6ADF3ABA2943AD3DDED60C6E383510CFA61D13E6F89EA8AA029C663FA3C528E4FD98934281E8861F8C6475D0F47AA4FBB6FA041659CFEF99B562107A19A27FEAA0750087966557485B20
310
6A81B7FB701EE734E7D1F6293291CE855A02D8687BCBF7165188F546498A0A7890F6BB2AA4A446DA2821BB5D2920AE1E60F1FB6AD134878937F34F9CE67FC719E7106DC17711B77ED7D92322194A71B44349DF76CDDD6ADA4293EC21CDF18E825CE49EC8A708C96892E0F418688E227EFEA6D4539A0B41181690AF0E82DF44
310
63E2412031DAAC58565AED004D44946189E8310828323DE0EAB4A36BDC184A87D779ACADF7258D3589FE4F16C111D492398B0894A290435E65DCF74E2086B4D1352877F0056BAB686B3168092544FC143D6092DECA635037E47B708FE14852CA282F500C663D80EC335F514AEDF0BE45F19DCA1F515CD2B7321081E92E2294
310
9659043FC2E0E431C4B5EBC0F4220A0DE226F6499C41518664C9876C727A3279B68FA919BA21B0B1D18E5008DB51868A1ED45B0151D7234E0DBEA5DEA3D46D991511CAF2920D32146FD6F5264BBEAB56457620BFAA5484B2B1226C09860161B2CEAA55CC0653D78115DC4807AAA748A0ACA0E614F64AE2F16B6FD2947B37E0
310
D64FDF76830C0ABF1EED3523EABC82C1F2D82A0CC40392F1AD1BAEF5757405F57782937DAAAF6ACD66050888A9485E726255F46D05E58DADD1DCF00649B1F960B26E75FDB6F2A0FB118C610DD42EF5C295023AC34C225599DCA81BFA1541086ED130E32B95538FA1729924BA6A44F43DE95367AB8C686D9A11AFB8C52CCFE0
310
C73684C5B44CF00625E22EBA91345A13C5BA95D2CB4885F18B027EFEB0EEC003230344FAA20A3CFCD0596B4717AA5C3A4844DE96D996210241B0255A6A74E3152CB51AA9B45C5FD59902EA2E3030ABE2F9CF9345B31DF1F364915AC3F8B19305CDB788EEA34D239BC7CAAC8F3A05D4E94951798B5380EE3AD454EB246272B9
310
15DFFA520431B10AF2838BB12A6618827D1CFFE7A4DD9704CD761DFE8F4BDAFEB382E3A8A4D29AAC9A54070AD75533852DE693D9620E5DD9E9F9F9E9683EBDBE1E5DF9E7CBD174B9589E5D9F9E4D4F1B75ADF6D330A863994E5DF06C625A35AC9E2C06D094153925091CE61327C510F2251CE90774CF798605E4CE66AF3BB1
310
3DF901ABEF4D9B53A22DC51527B708FAC3544056078CCA58B6C79D5FA03329E19C7DE142CFC8BB833F6B95AE0389E7C2854E81243116DE16BA4CAA9FA78943C6D5A9DF12037C104B5546348BEAE77A95C2A615FDEB2943B28095ABD5C280BAAD80E657AB41A179B33CC547095EB1E32009B7DB5242B16664D90FD4C2E86DF6
310
EA37B251C2EEECD68FE0BA2F8BE57B7A4E0B91415F0C5E3402437524114F75BB5B316659BA5C7E19439BCD597D760A5AA6A0CBE194461C833197AA9E022B02ABB0340B24C154177F6CBEF01CBEF0648E2E8A9C5F1FCF4E7FDB2CF22CCB9919DA5CC2A12C81EF44CEFA16BEFA241BA81DB0EAAD8BCD74E24F37BAA76DDBECD1
310
1609ECA9A20806AA5A4209D23139B0CB67FD29DBBD1C2B5574A6AF968E0DA2D00B3076F4ACC56BBE7139E043EA6B8AF218EDE795B42FB6B5C77A2AD804878674F82F504B03041400060800005B4ECE42000000000000000000000000350000006662782F31464231414442352D303332352D344142432D394631382D363831
310
3732454331424332462F76657274696365732E62696E504B03041400060808005B4ECE42F270F1330600000004000000360000006662782F31464231414442352D303332352D344142432D394631382D3638313732454331424332462F747269616E676C65732E62696E636660600000504B03041400060800005B4ECE4200
310
0000000000000000000000370000006662782F31464231414442352D303332352D344142432D394631382D3638313732454331424332462F617474726962757465732E62696E504B03041400060808005B4ECE42D5987DFC8F00000041010000360000006662782F31464231414442352D303332352D344142432D39463138
310
2D3638313732454331424332462F6469726563746F72792E786D6C858F410EC2201045AF4266AF15DDB800BA74E7C21B903225242D6328188F2FA5C4183471359997F9FF81E89FF3C41E1816475E02DF1F80A11FC8386F25A438EECEC07A250251FC3803E6F58C12560C4AD840E95E91C151A72936F496F35732D860FE635F
310
62C8F2DA16B505C545B74125BAA2FA9E05D7CC053D063734D5C7665FD55B6B8D15D5E9BFEAFD8490FFA45E504B03041400060808005B4ECE420BFD84E7FD000000A00100003B0000006662782F31464231414442352D303332352D344142432D394631382D3638313732454331424332462F7265736F75726365732F636F72
310
652E786D6C8D50596AC33010BD8A99DF225BF2D6D8C80A094D4FD00B0879E288C492D1527AFCCAB10BED5F7F6686B7308FC78F5FF323FB44E7B53503B09C428646D9519B698018AEE400D95170676DF82583CCC819075861107C72362E3BA4AC096842428D1D7107A5F71820538F740CE0D50D6799CB1892C2DFF345AABB9C
310
306779A2934E701F5C0A906D4FD609C2A1B7D129F4BCD858C163D4E3AED163FAA9AF1A1D88AA3CD0E69D75A46E2F94D4E7FA951CDAF385BC9DD8A9ED286B59D7F162350B1EF4FC93513994014710256515A12D61F507EDFA86F64DFD429BBEA2BC58E57F4C7119FF698ADA84AADCE36E360F82A5204F42F062ED2BAD679969
310
AFDD8A6F504B010214000A00000800005B4ECE423DEE336E79000000790000001B00000000000000000000000000000000006175746F6465736B2D64657369676E2D7061636B6167652E786D6C504B010214001400060808005B4ECE42D486FD9CA0000000F40000001300000000000000000000000000B20000005B436F6E
310
74656E745F54797065735D2E786D6C504B010214001400060808005B4ECE42B634E726EB0000007C010000080000000000000000000000000083010000636F72652E786D6C504B010214001400060808005B4ECE4255019EA25F0000007C000000070000000000000000000000000094020000636E782E786D6C504B010214
310
001400060808005B4ECE42818B07D068010000020300000C00000000000000000000000000180300006662782F636F72652E786D6C504B010214001400060808005B4ECE42612DA0FB7E0000009D0000000B00000000000000000000000000AA0400006662782F636E782E786D6C504B010214001400060808005B4ECE42D0
310
05B6CA2C010000140200003100000000000000000000000000510500006662782F31464231414442352D303332352D344142432D394631382D3638313732454331424332462F636F72652E786D6C504B010214001400060808005B4ECE42EBC373B456010000330300003000000000000000000000000000CC060000666278
310
2F31464231414442352D303332352D344142432D394631382D3638313732454331424332462F636E782E786D6C504B010214001400060808005B4ECE4224D9614660070000991B00003400000000000000000000000000700800006662782F31464231414442352D303332352D344142432D394631382D3638313732454331
310
424332462F6F626A656374732E786D6C504B010214001400060800005B4ECE420000000000000000000000003500000000000000000000000000221000006662782F31464231414442352D303332352D344142432D394631382D3638313732454331424332462F76657274696365732E62696E504B01021400140006080800
310
5B4ECE42F270F13306000000040000003600000000000000000000000000751000006662782F31464231414442352D303332352D344142432D394631382D3638313732454331424332462F747269616E676C65732E62696E504B010214001400060800005B4ECE420000000000000000000000003700000000000000000000
310
000000CF1000006662782F31464231414442352D303332352D344142432D394631382D3638313732454331424332462F617474726962757465732E62696E504B010214001400060808005B4ECE42D5987DFC8F000000410100003600000000000000000000000000241100006662782F31464231414442352D303332352D34
310
4142432D394631382D3638313732454331424332462F6469726563746F72792E786D6C504B010214001400060808005B4ECE420BFD84E7FD000000A00100003B00000000000000000000000000071200006662782F31464231414442352D303332352D344142432D394631382D3638313732454331424332462F7265736F75
310
726365732F636F72652E786D6C504B0506000000000E000E00800400005D1300000000
  0
XRECORD
  5
27
102
{ACAD_REACTORS
330
22
102
}
330
22
100
AcDbXrecord
280
     1
270
     1
271
     1
  0
XRECORD
  5
26
102
{ACAD_REACTORS
330
22
102
}
330
22
100
AcDbXrecord
280
     1
270
     1
271
     1
  0
XRECORD
  5
28
102
{ACAD_REACTORS
330
22
102
}
330
22
100
AcDbXrecord
280
     1
270
     1
271
     1
  0
XRECORD
  5
25
102
{ACAD_REACTORS
330
22
102
}
330
22
100
AcDbXrecord
280
     1
270
     1
271
     1
  0
XRECORD
  5
E7A
102
{ACAD_REACTORS
330
E79
102
}
330
E79
100
AcDbXrecord
280
     1
102
ACAD_ROUNDTRIP_2012_MLEADER_STYLE
298
     1
  0
CELLSTYLEMAP
  5
E78
102
{ACAD_REACTORS
330
E77
102
}
330
E77
100
AcDbCellStyleMap
 90
        3
300
CELLSTYLE
  1
TABLEFORMAT_BEGIN
 90
        5
170
     1
 91
        0
 92
    32768
 62
   257
 93
        1
300
CONTENTFORMAT
  1
CONTENTFORMAT_BEGIN
 90
        0
 91
        0
 92
      512
 93
        0
300

 40
0.0
140
1.0
 94
        5
 62
     0
340
55
144
0.25
309
CONTENTFORMAT_END
171
     0
 94
        0
309
TABLEFORMAT_END
  1
CELLSTYLE_BEGIN
 90
        1
 91
        1
300
_TITLE
309
CELLSTYLE_END
300
CELLSTYLE
  1
TABLEFORMAT_BEGIN
 90
        5
170
     1
 91
        0
 92
        0
 62
   257
 93
        1
300
CONTENTFORMAT
  1
CONTENTFORMAT_BEGIN
 90
        0
 91
        0
 92
      512
 93
        0
300

 40
0.0
140
1.0
 94
        5
 62
     0
340
55
144
0.18
309
CONTENTFORMAT_END
171
     0
 94
        0
309
TABLEFORMAT_END
  1
CELLSTYLE_BEGIN
 90
        2
 91
        1
300
_HEADER
309
CELLSTYLE_END
300
CELLSTYLE
  1
TABLEFORMAT_BEGIN
 90
        5
170
     1
 91
        0
 92
        0
 62
   257
 93
        1
300
CONTENTFORMAT
  1
CONTENTFORMAT_BEGIN
 90
        0
 91
        0
 92
      512
 93
        0
300

 40
0.0
140
1.0
 94
        2
 62
     0
340
55
144
0.18
309
CONTENTFORMAT_END
171
     0
 94
        0
309
TABLEFORMAT_END
  1
CELLSTYLE_BEGIN
 90
        3
 91
        2
300
_DATA
309
CELLSTYLE_END
  0
ENDSEC
  0
EOF
